  0
SECTION
  2
HEADER
  9
$ACADVER
  1
AC1024
  9
$DWGCODEPAGE
  3
ANSI_1252
  9
$EXTMAX
 10
297.0
 20
210.0
 30
0.0
  9
$EXTMIN
 10
0.0
 20
0.0
 30
0.0
  9
$LIMMIN
 10
0.0
 20
0.0
  9
$LIMMAX
 10
297.0
 20
210.0
  9
$VIEWCTR
 10
148.5
 20
105.0
  9
$VIEWSIZE
 40
210.0
  9
$CLAYER
  8
0
  9
$LTSCALE
 40
16.335
  9
$CELTYPE
  6
BYLAYER
  9
$DIMSCALE
 40
1.0
  9
$DIMASZ
 40
3.0
  9
$DIMEXO
 40
0.5
  9
$DIMDLI
 40
11.286
  9
$DIMEXE
 40
1.5
  9
$DIMCEN
 40
2.673
  9
$DIMLFAC
 40
1.0
  9
$DIMBLK
  1
_FILLED
  9
$DIMALT
 70
0
  9
$DIMALTF
 40
0.0393700787
  9
$DIMTXT
 40
3.0
  9
$DIMTOL
 70
1
  9
$DIMLIM
 70
0
  9
$DIMTFAC
 40
1.0
  9
$DIMTP
 40
0.01
  9
$DIMTM
 40
0.01
  9
$DIMGAP
 40
0.625
  9
$DIMDSEP
 70
44
  9
$AUNITS
 70
0
  9
$PDMODE
 70
3
  9
$PDSIZE
 40
3.0
  9
$HANDSEED
  5
785
  9
$TILEMODE
 70
1
  9
$MEASUREMENT
 70
1
  9
$INSUNITS
 70
4
  0
ENDSEC
  0
SECTION
  2
CLASSES
  0
CLASS
  1
ACDBDICTIONARYWDFLT
  2
AcDbDictionaryWithDefault
  3
AutoCAD 2000
 90
0
 91
1
280
0
281
0
  0
CLASS
  1
ACDBPLACEHOLDER
  2
AcDbPlaceHolder
  3
AutoCAD 2000
 90
0
 91
1
280
0
281
0
  0
CLASS
  1
LAYOUT
  2
AcDbLayout
  3
AutoCAD 2000
 90
0
 91
0
280
0
281
0
  0
ENDSEC
  0
SECTION
  2
TABLES
  0
TABLE
  2
VPORT
  5
8
100
AcDbSymbolTable
 70
2
  0
VPORT
  5
1F4
100
AcDbSymbolTableRecord
100
AcDbViewportTableRecord
  2
*ACTIVE
 70
0
 10
0.0
 20
0.0
 11
1.0
 21
1.0
 12
148.5
 22
105.0
 13
0.0
 23
0.0
 14
1.0
 24
1.0
 15
0.0
 25
0.0
 16
0.0
 26
0.0
 36
1.0
 17
0.0
 27
0.0
 37
0.0
 40
210.0
 41
1.4142857143
 42
50.0
 43
0.0
 44
0.0
 50
0.0
 51
0.0
 71
0
 72
100
 73
1
 74
1
 75
0
 76
0
 77
0
 78
0
  0
ENDTAB
  0
TABLE
  2
LTYPE
  5
5
100
AcDbSymbolTable
 70
6
  0
LTYPE
  5
14
100
AcDbSymbolTableRecord
100
AcDbLinetypeTableRecord
  2
BYBLOCK
 70
0
  3

 72
65
 73
0
 40
0.0
  0
LTYPE
  5
15
100
AcDbSymbolTableRecord
100
AcDbLinetypeTableRecord
  2
BYLAYER
 70
0
  3

 72
65
 73
0
 40
0.0
  0
LTYPE
  5
16
100
AcDbSymbolTableRecord
100
AcDbLinetypeTableRecord
  2
CONTINUOUS
 70
64
  3
Solid line
 72
65
 73
0
 40
0.0
  0
LTYPE
  5
1F5
100
AcDbSymbolTableRecord
100
AcDbLinetypeTableRecord
  2
CENTER
 70
64
  3
____ _ ____ _ ____ _ ____ _ ____ _ ____ _ ____
 72
65
 73
4
 40
0.6
 49
0.375
 74
0
 49
-0.075
 74
0
 49
0.075
 74
0
 49
-0.075
 74
0
  0
LTYPE
  5
1F6
100
AcDbSymbolTableRecord
100
AcDbLinetypeTableRecord
  2
HIDDEN
 70
64
  3
- - - - - - - - - - - - - - - - - - - -
 72
65
 73
2
 40
0.2
 49
0.1
 74
0
 49
-0.1
 74
0
  0
LTYPE
  5
1F7
100
AcDbSymbolTableRecord
100
AcDbLinetypeTableRecord
  2
PHANTOM
 70
64
  3
_____ _ _ _____ _ _ _____ _ _ _____
 72
65
 73
6
 40
0.8
 49
0.45
 74
0
 49
-0.05
 74
0
 49
0.1
 74
0
 49
-0.05
 74
0
 49
0.1
 74
0
 49
-0.05
 74
0
  0
LTYPE
  5
1F8
100
AcDbSymbolTableRecord
100
AcDbLinetypeTableRecord
  2
DOT
 70
64
  3
. . . . . . . . . . . . . . . . . . . .
 72
65
 73
2
 40
0.2
 49
0.1
 74
0
 49
-0.1
 74
0
  0
LTYPE
  5
1F9
100
AcDbSymbolTableRecord
100
AcDbLinetypeTableRecord
  2
DASHED
 70
64
  3
- - - - - - - - - - - - - - - - - - - -
 72
65
 73
2
 40
0.2
 49
0.1
 74
0
 49
-0.1
 74
0
  0
ENDTAB
  0
TABLE
  2
LAYER
  5
2
100
AcDbSymbolTable
 70
36
  0
LAYER
  5
10
100
AcDbSymbolTableRecord
100
AcDbLayerTableRecord
  2
0
 70
0
 62
7
  6
CONTINUOUS
370
-3
390
F
  0
LAYER
  5
1FA
100
AcDbSymbolTableRecord
100
AcDbLayerTableRecord
  2
DEFAULT_1
 70
0
 62
7
  6
CENTER
370
-3
390
F
  0
LAYER
  5
1FB
100
AcDbSymbolTableRecord
100
AcDbLayerTableRecord
  2
DEFAULT_2
 70
0
 62
7
  6
HIDDEN
370
-3
390
F
  0
LAYER
  5
1FC
100
AcDbSymbolTableRecord
100
AcDbLayerTableRecord
  2
DEFAULT_3
 70
0
 62
7
  6
PHANTOM
370
-3
390
F
  0
LAYER
  5
1FD
100
AcDbSymbolTableRecord
100
AcDbLayerTableRecord
  2
21814000
 70
0
 62
7
  6
CONTINUOUS
370
-3
390
F
  0
LAYER
  5
1FE
100
AcDbSymbolTableRecord
100
AcDbLayerTableRecord
  2
260140000
 70
0
 62
7
  6
CONTINUOUS
370
-3
390
F
  0
LAYER
  5
1FF
100
AcDbSymbolTableRecord
100
AcDbLayerTableRecord
  2
26814000
 70
0
 62
7
  6
CONTINUOUS
370
-3
390
F
  0
LAYER
  5
200
100
AcDbSymbolTableRecord
100
AcDbLayerTableRecord
  2
28414000
 70
0
 62
7
  6
CONTINUOUS
370
-3
390
F
  0
LAYER
  5
201
100
AcDbSymbolTableRecord
100
AcDbLayerTableRecord
  2
290140000
 70
0
 62
7
  6
CONTINUOUS
370
-3
390
F
  0
LAYER
  5
202
100
AcDbSymbolTableRecord
100
AcDbLayerTableRecord
  2
340000230
 70
0
 62
7
  6
CONTINUOUS
370
-3
390
F
  0
LAYER
  5
203
100
AcDbSymbolTableRecord
100
AcDbLayerTableRecord
  2
712140000
 70
0
 62
7
  6
CONTINUOUS
370
-3
390
F
  0
LAYER
  5
204
100
AcDbSymbolTableRecord
100
AcDbLayerTableRecord
  2
715140000
 70
0
 62
7
  6
CONTINUOUS
370
-3
390
F
  0
LAYER
  5
205
100
AcDbSymbolTableRecord
100
AcDbLayerTableRecord
  2
ASSI
 70
0
 62
7
  6
CONTINUOUS
370
-3
390
F
  0
LAYER
  5
206
100
AcDbSymbolTableRecord
100
AcDbLayerTableRecord
  2
COLORE_SERIE
 70
0
 62
7
  6
CONTINUOUS
370
-3
390
F
  0
LAYER
  5
207
100
AcDbSymbolTableRecord
100
AcDbLayerTableRecord
  2
COLORE_TOP
 70
0
 62
7
  6
CONTINUOUS
370
-3
390
F
  0
LAYER
  5
208
100
AcDbSymbolTableRecord
100
AcDbLayerTableRecord
  2
COORDINATE
 70
0
 62
7
  6
CONTINUOUS
370
-3
390
F
  0
LAYER
  5
209
100
AcDbSymbolTableRecord
100
AcDbLayerTableRecord
  2
COORD_ORIGINE
 70
0
 62
7
  6
CONTINUOUS
370
-3
390
F
  0
LAYER
  5
20A
100
AcDbSymbolTableRecord
100
AcDbLayerTableRecord
  2
COPY_PUBLISH
 70
0
 62
7
  6
CONTINUOUS
370
-3
390
F
  0
LAYER
  5
20B
100
AcDbSymbolTableRecord
100
AcDbLayerTableRecord
  2
COSMETIC
 70
0
 62
7
  6
CONTINUOUS
370
-3
390
F
  0
LAYER
  5
20C
100
AcDbSymbolTableRecord
100
AcDbLayerTableRecord
  2
COSMETICI
 70
0
 62
7
  6
CONTINUOUS
370
-3
390
F
  0
LAYER
  5
20D
100
AcDbSymbolTableRecord
100
AcDbLayerTableRecord
  2
CURVE
 70
0
 62
7
  6
CONTINUOUS
370
-3
390
F
  0
LAYER
  5
20E
100
AcDbSymbolTableRecord
100
AcDbLayerTableRecord
  2
DRAFT
 70
0
 62
7
  6
CONTINUOUS
370
-3
390
F
  0
LAYER
  5
20F
100
AcDbSymbolTableRecord
100
AcDbLayerTableRecord
  2
IGES
 70
0
 62
7
  6
CONTINUOUS
370
-3
390
F
  0
LAYER
  5
210
100
AcDbSymbolTableRecord
100
AcDbLayerTableRecord
  2
IMPORT
 70
0
 62
7
  6
CONTINUOUS
370
-3
390
F
  0
LAYER
  5
211
100
AcDbSymbolTableRecord
100
AcDbLayerTableRecord
  2
IMPORTED
 70
0
 62
7
  6
CONTINUOUS
370
-3
390
F
  0
LAYER
  5
212
100
AcDbSymbolTableRecord
100
AcDbLayerTableRecord
  2
IMPORT_IGES
 70
0
 62
7
  6
CONTINUOUS
370
-3
390
F
  0
LAYER
  5
213
100
AcDbSymbolTableRecord
100
AcDbLayerTableRecord
  2
INTF_1
 70
0
 62
7
  6
CONTINUOUS
370
-3
390
F
  0
LAYER
  5
214
100
AcDbSymbolTableRecord
100
AcDbLayerTableRecord
  2
INTF_11
 70
0
 62
7
  6
CONTINUOUS
370
-3
390
F
  0
LAYER
  5
215
100
AcDbSymbolTableRecord
100
AcDbLayerTableRecord
  2
INTF_2
 70
0
 62
7
  6
CONTINUOUS
370
-3
390
F
  0
LAYER
  5
216
100
AcDbSymbolTableRecord
100
AcDbLayerTableRecord
  2
NOTE
 70
0
 62
7
  6
CONTINUOUS
370
-3
390
F
  0
LAYER
  5
217
100
AcDbSymbolTableRecord
100
AcDbLayerTableRecord
  2
PIANI
 70
0
 62
7
  6
CONTINUOUS
370
-3
390
F
  0
LAYER
  5
218
100
AcDbSymbolTableRecord
100
AcDbLayerTableRecord
  2
PIANI_DI_RIFERIMENTO
 70
0
 62
7
  6
CONTINUOUS
370
-3
390
F
  0
LAYER
  5
219
100
AcDbSymbolTableRecord
100
AcDbLayerTableRecord
  2
PIANI_ORIGINE
 70
0
 62
7
  6
CONTINUOUS
370
-3
390
F
  0
LAYER
  5
21A
100
AcDbSymbolTableRecord
100
AcDbLayerTableRecord
  2
PIANI_RIFERIMENTO
 70
0
 62
7
  6
CONTINUOUS
370
-3
390
F
  0
LAYER
  5
21B
100
AcDbSymbolTableRecord
100
AcDbLayerTableRecord
  2
PIANI_SFORMO
 70
0
 62
7
  6
CONTINUOUS
370
-3
390
F
  0
LAYER
  5
21C
100
AcDbSymbolTableRecord
100
AcDbLayerTableRecord
  2
PUNTI
 70
0
 62
7
  6
CONTINUOUS
370
-3
390
F
  0
LAYER
  5
21D
100
AcDbSymbolTableRecord
100
AcDbLayerTableRecord
  2
RACCORDO
 70
0
 62
7
  6
CONTINUOUS
370
-3
390
F
  0
LAYER
  5
21E
100
AcDbSymbolTableRecord
100
AcDbLayerTableRecord
  2
RGB__255__255__255__
 70
0
 62
7
  6
CONTINUOUS
370
-3
390
F
  0
LAYER
  5
21F
100
AcDbSymbolTableRecord
100
AcDbLayerTableRecord
  2
RGB____0____0____0__
 70
0
 62
7
  6
CONTINUOUS
370
-3
390
F
  0
LAYER
  5
220
100
AcDbSymbolTableRecord
100
AcDbLayerTableRecord
  2
SIMBOLI
 70
0
 62
7
  6
CONTINUOUS
370
-3
390
F
  0
LAYER
  5
221
100
AcDbSymbolTableRecord
100
AcDbLayerTableRecord
  2
SMUSSO
 70
0
 62
7
  6
CONTINUOUS
370
-3
390
F
  0
LAYER
  5
222
100
AcDbSymbolTableRecord
100
AcDbLayerTableRecord
  2
SNAPLINE
 70
0
 62
7
  6
CONTINUOUS
370
-3
390
F
  0
LAYER
  5
223
100
AcDbSymbolTableRecord
100
AcDbLayerTableRecord
  2
SUPERFICI
 70
0
 62
7
  6
CONTINUOUS
370
-3
390
F
  0
LAYER
  5
224
100
AcDbSymbolTableRecord
100
AcDbLayerTableRecord
  2
TRASH
 70
0
 62
7
  6
CONTINUOUS
370
-3
390
F
  0
LAYER
  5
225
100
AcDbSymbolTableRecord
100
AcDbLayerTableRecord
  2
XSEC_DATUMS
 70
0
 62
7
  6
CONTINUOUS
370
-3
390
F
  0
ENDTAB
  0
TABLE
  2
STYLE
  5
3
100
AcDbSymbolTable
 70
1
  0
STYLE
  5
11
100
AcDbSymbolTableRecord
100
AcDbTextStyleTableRecord
  2
STANDARD
 70
0
 40
0.0
 41
0.8
 50
0.0
 71
0
 42
0.2
  3
txt
  4

  0
STYLE
  5
226
100
AcDbSymbolTableRecord
100
AcDbTextStyleTableRecord
  2
TEXTSTYLE_1
 70
0
 40
0.0
 41
0.8
 50
0.0
 71
0
 42
0.2
  3
gdt
  4

  0
ENDTAB
  0
TABLE
  2
VIEW
  5
6
100
AcDbSymbolTable
 70
0
  0
ENDTAB
  0
TABLE
  2
UCS
  5
7
100
AcDbSymbolTable
 70
0
  0
ENDTAB
  0
TABLE
  2
APPID
  5
9
100
AcDbSymbolTable
 70
1
  0
APPID
  5
227
100
AcDbSymbolTableRecord
100
AcDbRegAppTableRecord
  2
ACAD
 70
0
  0
ENDTAB
  0
TABLE
  2
BLOCK_RECORD
  5
1
100
AcDbSymbolTable
 70
0
  0
BLOCK_RECORD
  5
228
100
AcDbSymbolTableRecord
100
AcDbBlockTableRecord
  2
*Model_Space
  0
BLOCK_RECORD
  5
229
100
AcDbSymbolTableRecord
100
AcDbBlockTableRecord
  2
*Paper_Space
  0
BLOCK_RECORD
  5
22A
100
AcDbSymbolTableRecord
100
AcDbBlockTableRecord
  2
_FILLED
  0
BLOCK_RECORD
  5
22B
100
AcDbSymbolTableRecord
100
AcDbBlockTableRecord
  2
*D0
  0
BLOCK_RECORD
  5
22C
100
AcDbSymbolTableRecord
100
AcDbBlockTableRecord
  2
*D1
  0
BLOCK_RECORD
  5
22D
100
AcDbSymbolTableRecord
100
AcDbBlockTableRecord
  2
*D2
  0
BLOCK_RECORD
  5
22E
100
AcDbSymbolTableRecord
100
AcDbBlockTableRecord
  2
*D3
  0
ENDTAB
  0
TABLE
  2
DIMSTYLE
  5
A
100
AcDbSymbolTable
 70
1
100
AcDbDimStyleTable
 71
0
  0
DIMSTYLE
105
22F
100
AcDbSymbolTableRecord
100
AcDbDimStyleTableRecord
  2
STANDARD
 70
0
  3

  4

 40
1.0
 41
3.0
 42
0.5
 43
0.38
 44
1.5
 45
0.0
 46
0.0
 47
0.01
 48
0.01
140
3.0
141
0.09
142
0.0
143
25.4
144
1.0
145
0.0
146
1.0
147
0.625
 71
1.0
 72
0.0
 73
0
 74
0
 75
0
 76
0
 77
1
 78
8
 79
2
170
0
171
1
172
0
173
0
174
0
175
0
176
0
177
0
178
0
270
2
179
2
271
2
272
2
273
2
274
2
275
0
280
0
281
0
282
0
283
1
284
8
285
0
286
0
287
3
288
0
340
11
278
44
341
22A
342
22A
343
22A
344
22A
  0
DIMSTYLE
105
230
100
AcDbSymbolTableRecord
100
AcDbDimStyleTableRecord
  2
DIMSTYLE_1
 70
0
  3

  4

 40
1.0
 41
3.0
 42
0.5
 43
0.38
 44
1.5
 45
0.0
 46
0.0
 47
0.0
 48
0.0
140
3.0
141
0.09
142
0.0
143
25.4
144
1.0
145
0.0
146
1.0
147
0.75
 71
0.0
 72
0.0
 73
0
 74
0
 75
0
 76
0
 77
1
 78
8
 79
2
170
0
171
1
172
0
173
0
174
0
175
0
176
0
177
0
178
0
270
2
179
2
271
1
272
1
273
2
274
2
275
0
280
0
281
0
282
0
283
1
284
8
285
0
286
0
287
3
288
0
340
11
278
44
341
22A
342
22A
343
22A
344
22A
  0
DIMSTYLE
105
231
100
AcDbSymbolTableRecord
100
AcDbDimStyleTableRecord
  2
DIMSTYLE_2
 70
0
  3

  4

 40
1.0
 41
3.0
 42
0.5
 43
0.38
 44
1.5
 45
0.0
 46
0.0
 47
0.0
 48
0.0
140
3.0
141
0.09
142
0.0
143
25.4
144
1.0
145
0.0
146
1.0
147
0.75
 71
0.0
 72
0.0
 73
0
 74
0
 75
0
 76
0
 77
1
 78
8
 79
2
170
0
171
1
172
0
173
0
174
0
175
0
176
0
177
0
178
0
270
2
179
2
271
2
272
2
273
2
274
2
275
0
280
0
281
0
282
0
283
1
284
8
285
0
286
0
287
3
288
0
340
11
278
44
341
22A
342
22A
343
22A
344
22A
  0
ENDTAB
  0
ENDSEC
  0
SECTION
  2
BLOCKS
  0
BLOCK
  5
20
100
AcDbEntity
  8
0
100
AcDbBlockBegin
  2
*Model_Space
 70
0
 10
0.0
 20
0.0
 30
0.0
  3
*Model_Space
  1

  0
ENDBLK
  5
21
100
AcDbEntity
  8
0
100
AcDbBlockEnd
  0
BLOCK
  5
1C
100
AcDbEntity
  8
0
100
AcDbBlockBegin
  2
*Paper_Space
 70
0
 10
0.0
 20
0.0
 30
0.0
  3
*Paper_Space
  1

  0
ENDBLK
  5
1D
100
AcDbEntity
  8
0
100
AcDbBlockEnd
  0
BLOCK
  5
232
100
AcDbEntity
  8
0
100
AcDbBlockBegin
  2
_FILLED
 70
64
 10
0.0
 20
0.0
  3
_FILLED
  1

  0
SOLID
  5
233
100
AcDbEntity
  8
0
  6
BYBLOCK
 62
0
100
AcDbTrace
 10
0.0
 20
0.0
 11
-1.0
 21
0.3166666667
 12
-1.0
 22
-0.3166666667
 13
-1.0
 23
-0.3166666667
  0
ENDBLK
  5
234
100
AcDbEntity
  8
0
  6
BYBLOCK
 62
0
100
AcDbBlockEnd
  0
BLOCK
  5
235
100
AcDbEntity
  8
0
100
AcDbBlockBegin
 62
7
  6
CONTINUOUS
  2
*D0
 70
65
 10
0.0
 20
0.0
  3
*D0
  1

  0
LINE
  5
236
100
AcDbEntity
  8
0
100
AcDbLine
 62
7
  6
CONTINUOUS
 10
120.9931100009
 20
93.5809665599
 11
120.9931100009
 21
119.3728641152
  0
LINE
  5
237
100
AcDbEntity
  8
0
100
AcDbLine
 62
7
  6
CONTINUOUS
 10
78.9300199553
 20
58.9156776358
 11
78.9300199553
 21
119.3728641152
  0
LINE
  5
238
100
AcDbEntity
  8
0
100
AcDbLine
 62
7
  6
CONTINUOUS
 10
120.9931100009
 20
117.8728641152
 11
99.9615649781
 21
117.8728641152
  0
LINE
  5
239
100
AcDbEntity
  8
0
100
AcDbLine
 62
7
  6
CONTINUOUS
 10
78.9300199553
 20
117.8728641152
 11
99.9615649781
 21
117.8728641152
  0
INSERT
  5
23A
100
AcDbEntity
  8
0
100
AcDbBlockReference
 62
7
  6
CONTINUOUS
  2
_FILLED
 10
120.9931100009
 20
117.8728641152
 41
3.0
 42
3.0
 43
3.0
  0
INSERT
  5
23B
100
AcDbEntity
  8
0
100
AcDbBlockReference
 62
7
  6
CONTINUOUS
  2
_FILLED
 10
78.9300199553
 20
117.8728641152
 41
3.0
 42
3.0
 43
3.0
 50
180.0
  0
ENDBLK
  5
23C
100
AcDbEntity
  8
0
  6
BYBLOCK
 62
0
100
AcDbBlockEnd
  0
BLOCK
  5
23D
100
AcDbEntity
  8
0
100
AcDbBlockBegin
 62
7
  6
CONTINUOUS
  2
*D1
 70
65
 10
0.0
 20
0.0
  3
*D1
  1

  0
LINE
  5
23E
100
AcDbEntity
  8
0
100
AcDbLine
 62
7
  6
CONTINUOUS
 10
154.4226967446
 20
100.5886689623
 11
154.4226967446
 21
112.1298712073
  0
LINE
  5
23F
100
AcDbEntity
  8
0
100
AcDbLine
 62
7
  6
CONTINUOUS
 10
132.1226967446
 20
100.5886689623
 11
132.1226967446
 21
112.1298712073
  0
LINE
  5
240
100
AcDbEntity
  8
0
100
AcDbLine
 62
7
  6
CONTINUOUS
 10
154.4226967446
 20
110.6298712073
 11
143.2726967446
 21
110.6298712073
  0
LINE
  5
241
100
AcDbEntity
  8
0
100
AcDbLine
 62
7
  6
CONTINUOUS
 10
132.1226967446
 20
110.6298712073
 11
143.2726967446
 21
110.6298712073
  0
INSERT
  5
242
100
AcDbEntity
  8
0
100
AcDbBlockReference
 62
7
  6
CONTINUOUS
  2
_FILLED
 10
154.4226967446
 20
110.6298712073
 41
3.0
 42
3.0
 43
3.0
  0
INSERT
  5
243
100
AcDbEntity
  8
0
100
AcDbBlockReference
 62
7
  6
CONTINUOUS
  2
_FILLED
 10
132.1226967446
 20
110.6298712073
 41
3.0
 42
3.0
 43
3.0
 50
180.0
  0
ENDBLK
  5
244
100
AcDbEntity
  8
0
  6
BYBLOCK
 62
0
100
AcDbBlockEnd
  0
BLOCK
  5
245
100
AcDbEntity
  8
0
100
AcDbBlockBegin
 62
7
  6
CONTINUOUS
  2
*D2
 70
65
 10
0.0
 20
0.0
  3
*D2
  1

  0
LINE
  5
246
100
AcDbEntity
  8
0
100
AcDbLine
 62
7
  6
CONTINUOUS
 10
154.7982867696
 20
102.6298712073
 11
164.1226967446
 21
102.6298712073
  0
LINE
  5
247
100
AcDbEntity
  8
0
100
AcDbLine
 62
7
  6
CONTINUOUS
 10
154.1583665701
 20
53.8298712073
 11
164.1226967446
 21
53.8298712073
  0
LINE
  5
248
100
AcDbEntity
  8
0
100
AcDbLine
 62
7
  6
CONTINUOUS
 10
162.6226967446
 20
102.6298712073
 11
162.6226967446
 21
78.2298712073
  0
LINE
  5
249
100
AcDbEntity
  8
0
100
AcDbLine
 62
7
  6
CONTINUOUS
 10
162.6226967446
 20
53.8298712073
 11
162.6226967446
 21
78.2298712073
  0
INSERT
  5
24A
100
AcDbEntity
  8
0
100
AcDbBlockReference
 62
7
  6
CONTINUOUS
  2
_FILLED
 10
162.6226967446
 20
102.6298712073
 41
3.0
 42
3.0
 43
3.0
 50
90.0
  0
INSERT
  5
24B
100
AcDbEntity
  8
0
100
AcDbBlockReference
 62
7
  6
CONTINUOUS
  2
_FILLED
 10
162.6226967446
 20
53.8298712073
 41
3.0
 42
3.0
 43
3.0
 50
270.0
  0
ENDBLK
  5
24C
100
AcDbEntity
  8
0
  6
BYBLOCK
 62
0
100
AcDbBlockEnd
  0
BLOCK
  5
24D
100
AcDbEntity
  8
0
100
AcDbBlockBegin
 62
7
  6
CONTINUOUS
  2
*D3
 70
65
 10
0.0
 20
0.0
  3
*D3
  1

  0
LINE
  5
24E
100
AcDbEntity
  8
0
100
AcDbLine
 62
7
  6
CONTINUOUS
 10
93.2931100009
 20
100.7711310121
 11
93.2931100009
 21
112.1298712073
  0
LINE
  5
24F
100
AcDbEntity
  8
0
100
AcDbLine
 62
7
  6
CONTINUOUS
 10
120.9931100009
 20
93.5809665599
 11
120.9931100009
 21
112.1298712073
  0
LINE
  5
250
100
AcDbEntity
  8
0
100
AcDbLine
 62
7
  6
CONTINUOUS
 10
93.2931100009
 20
110.6298712073
 11
107.1431100009
 21
110.6298712073
  0
LINE
  5
251
100
AcDbEntity
  8
0
100
AcDbLine
 62
7
  6
CONTINUOUS
 10
120.9931100009
 20
110.6298712073
 11
107.1431100009
 21
110.6298712073
  0
INSERT
  5
252
100
AcDbEntity
  8
0
100
AcDbBlockReference
 62
7
  6
CONTINUOUS
  2
_FILLED
 10
93.2931100009
 20
110.6298712073
 41
3.0
 42
3.0
 43
3.0
 50
180.0
  0
INSERT
  5
253
100
AcDbEntity
  8
0
100
AcDbBlockReference
 62
7
  6
CONTINUOUS
  2
_FILLED
 10
120.9931100009
 20
110.6298712073
 41
3.0
 42
3.0
 43
3.0
  0
ENDBLK
  5
254
100
AcDbEntity
  8
0
  6
BYBLOCK
 62
0
100
AcDbBlockEnd
  0
ENDSEC
  0
SECTION
  2
ENTITIES
  0
DIMENSION
  5
255
100
AcDbEntity
  8
0
100
AcDbDimension
 62
7
  6
CONTINUOUS
  2
*D0
 10
78.9300199553
 20
117.8728641152
 11
95.8901364067
 21
117.8728641152
 70
160
 71
2
 72
2
 41
0.9
 42
42.0630900456
  3
DIMSTYLE_1
100
AcDbAlignedDimension
 13
120.9931100009
 23
93.0809665599
 14
78.9300199553
 24
58.4156776358
 50
180.0
100
AcDbRotatedDimension
  0
DIMENSION
  5
256
100
AcDbEntity
  8
0
100
AcDbDimension
 62
7
  6
CONTINUOUS
  2
*D1
 10
132.1226967446
 20
110.6298712073
 11
138.9869824589
 21
110.6298712073
 70
160
 71
2
 72
2
 41
0.9
 42
22.3
  3
DIMSTYLE_1
100
AcDbAlignedDimension
 13
154.4226967446
 23
100.0886689623
 14
132.1226967446
 24
100.0886689623
 50
180.0
100
AcDbRotatedDimension
  0
DIMENSION
  5
257
100
AcDbEntity
  8
0
100
AcDbDimension
 62
7
  6
CONTINUOUS
  2
*D2
 10
162.6226967446
 20
53.8298712073
 11
162.6226967446
 21
73.8370140645
 70
160
 71
2
 72
2
 41
0.9
 42
48.8
  3
DIMSTYLE_2
100
AcDbAlignedDimension
 13
154.2982867696
 23
102.6298712073
 14
153.6583665701
 24
53.8298712073
 50
270.0
100
AcDbRotatedDimension
  0
DIMENSION
  5
258
100
AcDbEntity
  8
0
100
AcDbDimension
 62
7
  6
CONTINUOUS
  2
*D3
 10
120.9931100009
 20
110.6298712073
 11
102.750252858
 21
110.6298712073
 70
160
 71
2
 72
2
 41
0.9
 42
27.7
  3
DIMSTYLE_2
100
AcDbAlignedDimension
 13
93.2931100009
 23
100.2711310121
 14
120.9931100009
 24
93.0809665599
100
AcDbRotatedDimension
  0
LWPOLYLINE
  5
259
100
AcDbEntity
  8
0
100
AcDbPolyline
 62
7
  6
CONTINUOUS
 90
5
 70
0
 43
0.3500000006
 10
146.2726994019
 20
113.0941563721
 10
146.6298371887
 20
113.3084408569
 10
146.6298371887
 20
113.9513033752
 10
146.2726994019
 20
114.379872345
 10
145.4155523987
 20
114.379872345
  0
LINE
  5
25A
100
AcDbEntity
  8
26814000
100
AcDbLine
 62
7
  6
CONTINUOUS
 10
134.9595981659
 20
102.6167726286
 11
134.9726967446
 21
102.6298712073
  0
LINE
  5
25B
100
AcDbEntity
  8
26814000
100
AcDbLine
 62
7
  6
CONTINUOUS
 10
153.8726967446
 20
53.8298712073
 11
151.5726967446
 21
53.8298712073
  0
LINE
  5
25C
100
AcDbEntity
  8
26814000
100
AcDbLine
 62
7
  6
CONTINUOUS
 10
134.9726967446
 20
53.8298712073
 11
132.6726967446
 21
53.8298712073
  0
LINE
  5
25D
100
AcDbEntity
  8
26814000
100
AcDbLine
 62
250
  6
CONTINUOUS
 10
132.6857953233
 20
53.842969786
 11
134.9595981659
 21
53.842969786
  0
LINE
  5
25E
100
AcDbEntity
  8
26814000
100
AcDbLine
 62
250
  6
CONTINUOUS
 10
151.5857953233
 20
53.842969786
 11
153.8595981659
 21
53.842969786
  0
LINE
  5
25F
100
AcDbEntity
  8
26814000
100
AcDbLine
 62
250
  6
CONTINUOUS
 10
132.6872413192
 20
54.0929655553
 11
134.9581521701
 21
54.0929655553
  0
LINE
  5
260
100
AcDbEntity
  8
26814000
100
AcDbLine
 62
250
  6
CONTINUOUS
 10
151.5872413192
 20
54.0929655553
 11
153.8581521701
 21
54.0929655553
  0
LINE
  5
261
100
AcDbEntity
  8
26814000
100
AcDbLine
 62
250
  6
CONTINUOUS
 10
153.8581521701
 20
54.38553364
 11
151.5872413192
 21
54.38553364
  0
LINE
  5
262
100
AcDbEntity
  8
26814000
100
AcDbLine
 62
250
  6
CONTINUOUS
 10
134.9581521701
 20
54.38553364
 11
132.6872413192
 21
54.38553364
  0
LINE
  5
263
100
AcDbEntity
  8
26814000
100
AcDbLine
 62
7
  6
CONTINUOUS
 10
147.6726967446
 20
54.4298712073
 11
138.8726967446
 21
54.4298712073
  0
LINE
  5
264
100
AcDbEntity
  8
26814000
100
AcDbLine
 62
7
  6
CONTINUOUS
 10
147.3686191867
 20
54.4356890371
 11
139.1767743025
 21
54.4356890371
  0
LINE
  5
265
100
AcDbEntity
  8
26814000
100
AcDbLine
 62
250
  6
CONTINUOUS
 10
153.8588793988
 20
54.602039991
 11
151.5865140904
 21
54.602039991
  0
LINE
  5
266
100
AcDbEntity
  8
26814000
100
AcDbLine
 62
250
  6
CONTINUOUS
 10
134.9588793988
 20
54.602039991
 11
132.6865140904
 21
54.602039991
  0
LINE
  5
267
100
AcDbEntity
  8
26814000
100
AcDbLine
 62
7
  6
CONTINUOUS
 10
153.8639699999
 20
55.1072214765
 11
151.5814234893
 21
55.1072214765
  0
LINE
  5
268
100
AcDbEntity
  8
26814000
100
AcDbLine
 62
7
  6
CONTINUOUS
 10
134.9639699999
 20
55.1072214765
 11
132.6814234893
 21
55.1072214765
  0
LINE
  5
269
100
AcDbEntity
  8
26814000
100
AcDbLine
 62
7
  6
CONTINUOUS
 10
134.9595981659
 20
53.842969786
 11
134.9726967446
 21
53.8298712073
  0
LINE
  5
26A
100
AcDbEntity
  8
26814000
100
AcDbLine
 62
7
  6
CONTINUOUS
 10
132.4726967446
 20
55.8298712073
 11
132.6726967446
 21
55.8298712073
  0
LINE
  5
26B
100
AcDbEntity
  8
26814000
100
AcDbLine
 62
7
  6
CONTINUOUS
 10
134.9726967446
 20
55.8298712073
 11
138.8726967446
 21
55.8298712073
  0
LINE
  5
26C
100
AcDbEntity
  8
26814000
100
AcDbLine
 62
7
  6
CONTINUOUS
 10
147.6726967446
 20
55.8298712073
 11
151.5726967446
 21
55.8298712073
  0
LINE
  5
26D
100
AcDbEntity
  8
26814000
100
AcDbLine
 62
7
  6
CONTINUOUS
 10
153.8726967446
 20
55.8298712073
 11
154.0726967446
 21
55.8298712073
  0
LINE
  5
26E
100
AcDbEntity
  8
26814000
100
AcDbLine
 62
7
  6
CONTINUOUS
 10
139.1767743025
 20
55.8385980751
 11
147.3686191867
 21
55.8385980751
  0
LINE
  5
26F
100
AcDbEntity
  8
26814000
100
AcDbLine
 62
7
  6
CONTINUOUS
 10
153.8639699999
 20
55.842961509
 11
151.5814234893
 21
55.842961509
  0
LINE
  5
270
100
AcDbEntity
  8
26814000
100
AcDbLine
 62
7
  6
CONTINUOUS
 10
134.9639699999
 20
55.842961509
 11
132.6814234893
 21
55.842961509
  0
LINE
  5
271
100
AcDbEntity
  8
26814000
100
AcDbLine
 62
7
  6
CONTINUOUS
 10
132.4726967446
 20
55.8516883768
 11
154.0726967446
 21
55.8516883768
  0
LINE
  5
272
100
AcDbEntity
  8
RACCORDO
100
AcDbLine
 62
7
  6
CONTINUOUS
 10
132.9727881687
 20
56.2225673659
 11
153.5726053205
 21
56.2225673659
  0
LINE
  5
273
100
AcDbEntity
  8
26814000
100
AcDbLine
 62
7
  6
CONTINUOUS
 10
132.1226967446
 20
56.2298712073
 11
132.8653388242
 21
56.2298712073
  0
LINE
  5
274
100
AcDbEntity
  8
26814000
100
AcDbLine
 62
7
  6
CONTINUOUS
 10
153.6800545352
 20
56.2298712073
 11
154.4226967446
 21
56.2298712073
  0
LINE
  5
275
100
AcDbEntity
  8
26814000
100
AcDbLine
 62
7
  6
CONTINUOUS
 10
132.1226967446
 20
56.3710734524
 11
132.5079965068
 21
56.3710734524
  0
LINE
  5
276
100
AcDbEntity
  8
26814000
100
AcDbLine
 62
7
  6
CONTINUOUS
 10
154.0373969797
 20
56.3710734524
 11
154.4226967446
 21
56.3710734524
  0
LINE
  5
277
100
AcDbEntity
  8
RACCORDO
100
AcDbLine
 62
250
  6
CONTINUOUS
 10
153.422769123
 20
56.8703423522
 11
133.1226243663
 21
56.8703423522
  0
LINE
  5
278
100
AcDbEntity
  8
26814000
100
AcDbLine
 62
7
  6
CONTINUOUS
 10
132.1226967446
 20
58.2762224588
 11
132.1726967446
 21
58.2762224588
  0
LINE
  5
279
100
AcDbEntity
  8
26814000
100
AcDbLine
 62
7
  6
CONTINUOUS
 10
154.3726967446
 20
58.2762224588
 11
154.4226967446
 21
58.2762224588
  0
LWPOLYLINE
  5
27A
100
AcDbEntity
  8
RACCORDO
100
AcDbPolyline
 62
250
  6
CONTINUOUS
 90
16
 70
0
 10
132.3410262555
 20
98.8610651759
 10
132.3474112016
 20
98.8751906877
 10
132.3622016666
 20
98.8891433336
 10
132.3852409442
 20
98.9027752839
 10
132.416284931
 20
98.9159421069
 10
132.4550047131
 20
98.9285042989
 10
132.5009900508
 20
98.9403287622
 10
132.5537537253
 20
98.9512902156
 10
132.6127367005
 20
98.9612725215
 10
132.6773140463
 20
98.9701699165
 10
132.7468015597
 20
98.9778881317
 10
132.820463014
 20
98.9843453922
 10
132.8975179594
 20
98.9894732827
 10
132.9771499915
 20
98.9932174728
 10
133.0585154015
 20
98.9955382926
 10
133.1407521154
 20
98.9964111527
  0
LWPOLYLINE
  5
27B
100
AcDbEntity
  8
0
100
AcDbPolyline
 62
7
  6
CONTINUOUS
 90
9
 70
0
 10
132.1226967446
 20
97.0735615626
 10
132.0976475685
 20
97.0219297819
 10
132.0516541841
 20
96.9105763839
 10
132.0125551259
 20
96.7965992334
 10
131.9802359106
 20
96.6800457432
 10
131.9550546534
 20
96.56237217
 10
131.9371307258
 20
96.4440639329
 10
131.9263447562
 20
96.3246356128
 10
131.9226967446
 20
96.2040872098
  0
LWPOLYLINE
  5
27C
100
AcDbEntity
  8
ASSI
100
AcDbPolyline
 62
7
  6
CONTINUOUS
 90
9
 70
0
 10
132.1226967446
 20
97.0735615626
 10
132.0976475685
 20
97.0219297819
 10
132.0516541841
 20
96.9105763839
 10
132.0125551259
 20
96.7965992334
 10
131.9802359106
 20
96.6800457432
 10
131.9550546534
 20
96.56237217
 10
131.9371307258
 20
96.4440639329
 10
131.9263447562
 20
96.3246356128
 10
131.9226967446
 20
96.2040872098
  0
LINE
  5
27D
100
AcDbEntity
  8
26814000
100
AcDbLine
 62
7
  6
CONTINUOUS
 10
134.9726967446
 20
100.6298712073
 11
134.9639699999
 21
100.6167809056
  0
LINE
  5
27E
100
AcDbEntity
  8
26814000
100
AcDbLine
 62
7
  6
CONTINUOUS
 10
134.9639699999
 20
55.842961509
 11
134.9726967446
 21
55.8298712073
  0
LINE
  5
27F
100
AcDbEntity
  8
RACCORDO
100
AcDbLine
 62
250
  6
CONTINUOUS
 10
132.3228985063
 20
99.4374978
 11
132.1726967446
 21
98.8877081344
  0
LINE
  5
280
100
AcDbEntity
  8
0
100
AcDbLine
 62
7
  6
CONTINUOUS
 10
154.6226967446
 20
63.4798712073
 11
154.4226967446
 21
63.4798712073
  0
LINE
  5
281
100
AcDbEntity
  8
ASSI
100
AcDbLine
 62
7
  6
CONTINUOUS
 10
154.6226967446
 20
63.4798712073
 11
154.4226967446
 21
63.4798712073
  0
LINE
  5
282
100
AcDbEntity
  8
0
100
AcDbLine
 62
7
  6
CONTINUOUS
 10
132.1226967446
 20
63.4798712073
 11
131.9226967446
 21
63.4798712073
  0
LINE
  5
283
100
AcDbEntity
  8
ASSI
100
AcDbLine
 62
7
  6
CONTINUOUS
 10
132.1226967446
 20
63.4798712073
 11
131.9226967446
 21
63.4798712073
  0
LINE
  5
284
100
AcDbEntity
  8
0
100
AcDbLine
 62
250
  6
CONTINUOUS
 10
154.566535904
 20
63.536032048
 11
154.4226967446
 21
63.536032048
  0
LINE
  5
285
100
AcDbEntity
  8
ASSI
100
AcDbLine
 62
250
  6
CONTINUOUS
 10
154.566535904
 20
63.536032048
 11
154.4226967446
 21
63.536032048
  0
LINE
  5
286
100
AcDbEntity
  8
0
100
AcDbLine
 62
250
  6
CONTINUOUS
 10
132.1226967446
 20
63.536032048
 11
131.9788575853
 21
63.536032048
  0
LINE
  5
287
100
AcDbEntity
  8
ASSI
100
AcDbLine
 62
250
  6
CONTINUOUS
 10
132.1226967446
 20
63.536032048
 11
131.9788575853
 21
63.536032048
  0
LINE
  5
288
100
AcDbEntity
  8
26814000
100
AcDbLine
 62
7
  6
CONTINUOUS
 10
147.6686141098
 20
102.0257885725
 11
147.6726967446
 21
102.0298712073
  0
LINE
  5
289
100
AcDbEntity
  8
0
100
AcDbLine
 62
250
  6
CONTINUOUS
 10
154.5493854719
 20
64.5358797431
 11
154.4226967446
 21
64.5358797431
  0
LINE
  5
28A
100
AcDbEntity
  8
ASSI
100
AcDbLine
 62
250
  6
CONTINUOUS
 10
154.5493854719
 20
64.5358797431
 11
154.4226967446
 21
64.5358797431
  0
LINE
  5
28B
100
AcDbEntity
  8
0
100
AcDbLine
 62
250
  6
CONTINUOUS
 10
132.1226967446
 20
64.5358797431
 11
131.9960080173
 21
64.5358797431
  0
LINE
  5
28C
100
AcDbEntity
  8
ASSI
100
AcDbLine
 62
250
  6
CONTINUOUS
 10
132.1226967446
 20
64.5358797431
 11
131.9960080173
 21
64.5358797431
  0
LWPOLYLINE
  5
28D
100
AcDbEntity
  8
RACCORDO
100
AcDbPolyline
 62
250
  6
CONTINUOUS
 90
16
 70
0
 10
154.2043672337
 20
58.3885454578
 10
154.1979820187
 20
58.3915431069
 10
154.1831913262
 20
58.3944858002
 10
154.1601518643
 20
58.3973423595
 10
154.129107737
 20
58.4000825196
 10
154.0903878584
 20
58.4026772483
 10
154.0444024674
 20
58.4050990544
 10
153.9916387811
 20
58.4073222787
 10
153.9326558332
 20
58.409323366
 10
153.8680785509
 20
58.4110811147
 10
153.7985911332
 20
58.4125769014
 10
153.7249298025
 20
58.4137948782
 10
153.647875004
 20
58.4147221403
 10
153.5682431367
 20
58.4153488633
 10
153.4868779038
 20
58.415668407
 10
133.0585150028
 20
58.4156690097
  0
LINE
  5
28E
100
AcDbEntity
  8
26814000
100
AcDbLine
 62
7
  6
CONTINUOUS
 10
147.6686141098
 20
54.4339538422
 11
147.6726967446
 21
54.4298712073
  0
LWPOLYLINE
  5
28F
100
AcDbEntity
  8
RACCORDO
100
AcDbPolyline
 62
250
  6
CONTINUOUS
 90
16
 70
0
 10
132.3228985063
 20
57.6673888257
 10
132.3272972452
 20
57.5843041878
 10
132.340407117
 20
57.5021054964
 10
132.3620845601
 20
57.4216930696
 10
132.3920921729
 20
57.3439476635
 10
132.4301013113
 20
57.269720832
 10
132.4756956849
 20
57.1998255979
 10
132.5283759243
 20
57.1350275358
 10
132.5875650423
 20
57.0760363998
 10
132.6526147453
 20
57.0234983505
 10
132.7228125568
 20
56.9779888567
 10
132.7973896056
 20
56.9400064083
 10
132.8755290309
 20
56.9099670581
 10
132.9563749616
 20
56.8881998467
 10
133.0390418932
 20
56.8749432055
 10
133.1226243662
 20
56.870342352
  0
LWPOLYLINE
  5
290
100
AcDbEntity
  8
0
100
AcDbPolyline
 62
7
  6
CONTINUOUS
 90
9
 70
0
 10
131.9226967446
 20
60.2556552049
 10
131.9263447562
 20
60.1351068019
 10
131.9371307258
 20
60.0156784818
 10
131.9550546534
 20
59.8973702447
 10
131.9802359106
 20
59.7796966715
 10
132.0125551259
 20
59.6631431813
 10
132.0516541841
 20
59.5491660308
 10
132.0976475685
 20
59.4378126328
 10
132.1226967446
 20
59.3861808521
  0
LWPOLYLINE
  5
291
100
AcDbEntity
  8
ASSI
100
AcDbPolyline
 62
7
  6
CONTINUOUS
 90
9
 70
0
 10
131.9226967446
 20
60.2556552049
 10
131.9263447562
 20
60.1351068019
 10
131.9371307258
 20
60.0156784818
 10
131.9550546534
 20
59.8973702447
 10
131.9802359106
 20
59.7796966715
 10
132.0125551259
 20
59.6631431813
 10
132.0516541841
 20
59.5491660308
 10
132.0976475685
 20
59.4378126328
 10
132.1226967446
 20
59.3861808521
  0
LWPOLYLINE
  5
292
100
AcDbEntity
  8
26814000
100
AcDbPolyline
 62
7
  6
CONTINUOUS
 90
31
 70
0
 10
132.1226967446
 20
56.1798845348
 10
132.1231763837
 20
56.1615667005
 10
132.124613989
 20
56.1432990522
 10
132.1270056247
 20
56.1251316544
 10
132.1303447397
 20
56.1071142949
 10
132.1346221864
 20
56.0892963554
 10
132.1398262465
 20
56.0717266764
 10
132.1459426614
 20
56.0544534108
 10
132.1529546713
 20
56.0375239005
 10
132.160843063
 20
56.0209845534
 10
132.1695862206
 20
56.0048807003
 10
132.1791601846
 20
55.9892564791
 10
132.1895387189
 20
55.9741547226
 10
132.2006933818
 20
55.959616823
 10
132.2125936035
 20
55.9456826276
 10
132.2252067703
 20
55.9323903385
 10
132.2384983146
 20
55.9197763899
 10
132.2524318086
 20
55.9078753572
 10
132.2669690637
 20
55.89671987
 10
132.2820702372
 20
55.8863405074
 10
132.2976939401
 20
55.8767657204
 10
132.3137973496
 20
55.8680217625
 10
132.3303363284
 20
55.8601326039
 10
132.3472655458
 20
55.8531198707
 10
132.3645385995
 20
55.8470027928
 10
132.382108145
 20
55.8417981411
 10
132.3999260256
 20
55.8375201842
 10
132.4179434036
 20
55.8341806547
 10
132.4361108937
 20
55.8317887111
 10
132.4543786983
 20
55.8303509135
 10
132.4726967446
 20
55.8298712073
  0
LINE
  5
293
100
AcDbEntity
  8
26814000
100
AcDbLine
 62
7
  6
CONTINUOUS
 10
132.6865140904
 20
54.602039991
 11
132.6814234893
 21
55.1072214765
  0
LWPOLYLINE
  5
294
100
AcDbEntity
  8
RACCORDO
100
AcDbPolyline
 62
250
  6
CONTINUOUS
 90
19
 70
0
 10
132.3403502899
 20
99.0040150319
 10
132.339944255
 20
99.0493700475
 10
132.3394491022
 20
99.0934574769
 10
132.3388722626
 20
99.135556613
 10
132.3382123888
 20
99.1756237587
 10
132.3374708281
 20
99.2137026109
 10
132.3366590542
 20
99.249203554
 10
132.3357761787
 20
99.2820791176
 10
132.3348230899
 20
99.3123767719
 10
132.3338139257
 20
99.3396493122
 10
132.3327476603
 20
99.3638552531
 10
132.3316253195
 20
99.38503608
 10
132.3304641177
 20
99.4028690437
 10
132.3292630063
 20
99.4172990946
 10
132.328023034
 20
99.4283812824
 10
132.3267645618
 20
99.4359580069
 10
132.3254943766
 20
99.4399767346
 10
132.3242056914
 20
99.440489999
 10
132.3228985063
 20
99.4374978
  0
LINE
  5
295
100
AcDbEntity
  8
RACCORDO
100
AcDbLine
 62
250
  6
CONTINUOUS
 10
132.3408900516
 20
98.909982714
 11
132.3403502899
 21
99.0040150319
  0
LINE
  5
296
100
AcDbEntity
  8
0
100
AcDbLine
 62
7
  6
CONTINUOUS
 10
131.9226967446
 20
60.2556552049
 11
131.9226967446
 21
66.2298712073
  0
LINE
  5
297
100
AcDbEntity
  8
ASSI
100
AcDbLine
 62
7
  6
CONTINUOUS
 10
131.9226967446
 20
60.2556552049
 11
131.9226967446
 21
66.2298712073
  0
LINE
  5
298
100
AcDbEntity
  8
0
100
AcDbLine
 62
7
  6
CONTINUOUS
 10
131.9226967446
 20
66.7298712073
 11
131.9226967446
 21
71.7298712073
  0
LINE
  5
299
100
AcDbEntity
  8
ASSI
100
AcDbLine
 62
7
  6
CONTINUOUS
 10
131.9226967446
 20
66.7298712073
 11
131.9226967446
 21
71.7298712073
  0
LINE
  5
29A
100
AcDbEntity
  8
0
100
AcDbLine
 62
7
  6
CONTINUOUS
 10
131.9226967446
 20
72.2298712073
 11
131.9226967446
 21
84.2298712073
  0
LINE
  5
29B
100
AcDbEntity
  8
ASSI
100
AcDbLine
 62
7
  6
CONTINUOUS
 10
131.9226967446
 20
72.2298712073
 11
131.9226967446
 21
84.2298712073
  0
LINE
  5
29C
100
AcDbEntity
  8
0
100
AcDbLine
 62
7
  6
CONTINUOUS
 10
131.9226967446
 20
84.7298712073
 11
131.9226967446
 21
89.7298712073
  0
LINE
  5
29D
100
AcDbEntity
  8
ASSI
100
AcDbLine
 62
7
  6
CONTINUOUS
 10
131.9226967446
 20
84.7298712073
 11
131.9226967446
 21
89.7298712073
  0
LINE
  5
29E
100
AcDbEntity
  8
0
100
AcDbLine
 62
7
  6
CONTINUOUS
 10
131.9226967446
 20
90.2298712073
 11
131.9226967446
 21
96.2040872098
  0
LINE
  5
29F
100
AcDbEntity
  8
ASSI
100
AcDbLine
 62
7
  6
CONTINUOUS
 10
131.9226967446
 20
90.2298712073
 11
131.9226967446
 21
96.2040872098
  0
LINE
  5
2A0
100
AcDbEntity
  8
0
100
AcDbLine
 62
7
  6
CONTINUOUS
 10
131.962843394
 20
89.7298712073
 11
131.962843394
 21
84.7298712073
  0
LINE
  5
2A1
100
AcDbEntity
  8
ASSI
100
AcDbLine
 62
7
  6
CONTINUOUS
 10
131.962843394
 20
89.7298712073
 11
131.962843394
 21
84.7298712073
  0
LINE
  5
2A2
100
AcDbEntity
  8
0
100
AcDbLine
 62
7
  6
CONTINUOUS
 10
131.962843394
 20
71.7298712073
 11
131.962843394
 21
66.7298712073
  0
LINE
  5
2A3
100
AcDbEntity
  8
ASSI
100
AcDbLine
 62
7
  6
CONTINUOUS
 10
131.962843394
 20
71.7298712073
 11
131.962843394
 21
66.7298712073
  0
LINE
  5
2A4
100
AcDbEntity
  8
0
100
AcDbLine
 62
7
  6
CONTINUOUS
 10
131.9960080173
 20
64.5358797431
 11
131.9960080173
 21
91.9238626715
  0
LINE
  5
2A5
100
AcDbEntity
  8
ASSI
100
AcDbLine
 62
7
  6
CONTINUOUS
 10
131.9960080173
 20
64.5358797431
 11
131.9960080173
 21
91.9238626715
  0
LINE
  5
2A6
100
AcDbEntity
  8
26814000
100
AcDbLine
 62
7
  6
CONTINUOUS
 10
132.1226967446
 20
100.2580407104
 11
132.1226967446
 21
56.2017017042
  0
LINE
  5
2A7
100
AcDbEntity
  8
RACCORDO
100
AcDbLine
 62
7
  6
CONTINUOUS
 10
132.1726967446
 20
57.0180334249
 11
132.1726967446
 21
98.8877081344
  0
LINE
  5
2A8
100
AcDbEntity
  8
26814000
100
AcDbLine
 62
250
  6
CONTINUOUS
 10
132.4726967446
 20
55.8298712073
 11
132.4726967446
 21
55.8516883768
  0
LINE
  5
2A9
100
AcDbEntity
  8
26814000
100
AcDbLine
 62
250
  6
CONTINUOUS
 10
132.4726967446
 20
100.6080540379
 11
132.4726967446
 21
100.6298712073
  0
LINE
  5
2AA
100
AcDbEntity
  8
26814000
100
AcDbLine
 62
7
  6
CONTINUOUS
 10
132.6726967446
 20
53.8298712073
 11
132.6726967446
 21
55.8298712073
  0
LINE
  5
2AB
100
AcDbEntity
  8
26814000
100
AcDbLine
 62
7
  6
CONTINUOUS
 10
132.6726967446
 20
100.6298712073
 11
132.6726967446
 21
102.6298712073
  0
LINE
  5
2AC
100
AcDbEntity
  8
26814000
100
AcDbLine
 62
7
  6
CONTINUOUS
 10
132.6814234893
 20
55.1072214765
 11
132.6814234893
 21
55.842961509
  0
LINE
  5
2AD
100
AcDbEntity
  8
26814000
100
AcDbLine
 62
7
  6
CONTINUOUS
 10
132.6814234893
 20
100.6167809056
 11
132.6814234893
 21
101.3525209381
  0
LINE
  5
2AE
100
AcDbEntity
  8
26814000
100
AcDbLine
 62
7
  6
CONTINUOUS
 10
132.6872413192
 20
54.0929655553
 11
132.6872413192
 21
54.38553364
  0
LINE
  5
2AF
100
AcDbEntity
  8
26814000
100
AcDbLine
 62
7
  6
CONTINUOUS
 10
132.6872413192
 20
102.0742087746
 11
132.6872413192
 21
102.3667768594
  0
LWPOLYLINE
  5
2B0
100
AcDbEntity
  8
RACCORDO
100
AcDbPolyline
 62
250
  6
CONTINUOUS
 90
12
 70
0
 10
132.3465679523
 20
61.7801017937
 10
132.3511022308
 20
65.1689460741
 10
132.3546290911
 20
68.5550782989
 10
132.3571487315
 20
71.9389357011
 10
132.3586609536
 20
75.3200810478
 10
132.3591651618
 20
78.6972026399
 10
132.3586609602
 20
82.0702982362
 10
132.3571487446
 20
85.439370078
 10
132.3546291072
 20
88.8031131904
 10
132.3511022452
 20
92.1610925817
 10
132.3465679613
 20
95.5137432435
 10
132.3408900516
 20
98.909982714
  0
LINE
  5
2B1
100
AcDbEntity
  8
RACCORDO
100
AcDbLine
 62
250
  6
CONTINUOUS
 10
132.340890259
 20
58.338580417
 11
132.3465679523
 21
61.7801017937
  0
LINE
  5
2B2
100
AcDbEntity
  8
RACCORDO
100
AcDbLine
 62
250
  6
CONTINUOUS
 10
132.3403509982
 20
58.2402964957
 11
132.340890259
 21
58.338580417
  0
LINE
  5
2B3
100
AcDbEntity
  8
26814000
100
AcDbLine
 62
7
  6
CONTINUOUS
 10
132.6814234893
 20
101.3525209381
 11
132.6865140904
 21
101.8577024237
  0
LWPOLYLINE
  5
2B4
100
AcDbEntity
  8
26814000
100
AcDbPolyline
 62
7
  6
CONTINUOUS
 90
31
 70
0
 10
132.1226967446
 20
100.2798578799
 10
132.1231763837
 20
100.2981757142
 10
132.124613989
 20
100.3164433625
 10
132.1270056247
 20
100.3346107603
 10
132.1303447397
 20
100.3526281198
 10
132.1346221864
 20
100.3704460593
 10
132.1398262465
 20
100.3880157383
 10
132.1459426614
 20
100.4052890038
 10
132.1529546713
 20
100.4222185141
 10
132.160843063
 20
100.4387578612
 10
132.1695862206
 20
100.4548617144
 10
132.1791601846
 20
100.4704859355
 10
132.1895387189
 20
100.4855876921
 10
132.2006933818
 20
100.5001255917
 10
132.2125936035
 20
100.5140597871
 10
132.2252067703
 20
100.5273520762
 10
132.2384983146
 20
100.5399660247
 10
132.2524318086
 20
100.5518670575
 10
132.2669690637
 20
100.5630225447
 10
132.2820702372
 20
100.5734019073
 10
132.2976939401
 20
100.5829766943
 10
132.3137973496
 20
100.5917206521
 10
132.3303363284
 20
100.5996098108
 10
132.3472655458
 20
100.6066225439
 10
132.3645385995
 20
100.6127396218
 10
132.382108145
 20
100.6179442736
 10
132.3999260256
 20
100.6222222304
 10
132.4179434036
 20
100.62556176
 10
132.4361108937
 20
100.6279537035
 10
132.4543786983
 20
100.6293915012
 10
132.4726967446
 20
100.6298712073
  0
LWPOLYLINE
  5
2B5
100
AcDbEntity
  8
RACCORDO
100
AcDbPolyline
 62
250
  6
CONTINUOUS
 90
4
 70
0
 10
132.3228985063
 20
99.4374978
 10
132.3272973083
 20
99.5207114892
 10
132.340407348
 20
99.6029897606
 10
132.3509057137
 20
99.6461412592
  0
LINE
  5
2B6
100
AcDbEntity
  8
0
100
AcDbLine
 62
7
  6
CONTINUOUS
 10
131.9541158615
 20
66.2298712073
 11
131.9314242771
 21
66.2298712073
  0
LINE
  5
2B7
100
AcDbEntity
  8
ASSI
100
AcDbLine
 62
7
  6
CONTINUOUS
 10
131.9541158615
 20
66.2298712073
 11
131.9314242771
 21
66.2298712073
  0
LINE
  5
2B8
100
AcDbEntity
  8
0
100
AcDbLine
 62
7
  6
CONTINUOUS
 10
154.5912776278
 20
66.2298712073
 11
154.6139692122
 21
66.2298712073
  0
LINE
  5
2B9
100
AcDbEntity
  8
ASSI
100
AcDbLine
 62
7
  6
CONTINUOUS
 10
154.5912776278
 20
66.2298712073
 11
154.6139692122
 21
66.2298712073
  0
LINE
  5
2BA
100
AcDbEntity
  8
0
100
AcDbLine
 62
250
  6
CONTINUOUS
 10
154.6226967446
 20
66.7298712073
 11
154.5825500953
 21
66.7298712073
  0
LINE
  5
2BB
100
AcDbEntity
  8
ASSI
100
AcDbLine
 62
250
  6
CONTINUOUS
 10
154.6226967446
 20
66.7298712073
 11
154.5825500953
 21
66.7298712073
  0
LINE
  5
2BC
100
AcDbEntity
  8
0
100
AcDbLine
 62
250
  6
CONTINUOUS
 10
131.962843394
 20
66.7298712073
 11
131.9226967446
 21
66.7298712073
  0
LINE
  5
2BD
100
AcDbEntity
  8
ASSI
100
AcDbLine
 62
250
  6
CONTINUOUS
 10
131.962843394
 20
66.7298712073
 11
131.9226967446
 21
66.7298712073
  0
LWPOLYLINE
  5
2BE
100
AcDbEntity
  8
RACCORDO
100
AcDbPolyline
 62
250
  6
CONTINUOUS
 90
18
 70
0
 10
133.1400731415
 20
99.303578276
 10
133.139666962
 20
99.4009082004
 10
133.1391720556
 20
99.494880844
 10
133.1385956253
 20
99.585037402
 10
133.1379362143
 20
99.6709335516
 10
133.1371952794
 20
99.7521189201
 10
133.1363843944
 20
99.8281599559
 10
133.1355028136
 20
99.8986600138
 10
133.1345512826
 20
99.9632830604
 10
133.1335436118
 20
100.0217262991
 10
133.1324785922
 20
100.0737009109
 10
133.1313574327
 20
100.1189273469
 10
133.1301975697
 20
100.1571639451
 10
133.1289987462
 20
100.1882151428
 10
133.1277612193
 20
100.2119309125
 10
133.126503197
 20
100.2281946075
 10
133.1252307487
 20
100.2369227652
 10
133.1243947905
 20
100.2385314465
  0
LWPOLYLINE
  5
2BF
100
AcDbEntity
  8
RACCORDO
100
AcDbPolyline
 62
250
  6
CONTINUOUS
 90
3
 70
0
 10
133.14629383
 20
95.6408523768
 10
133.1406145177
 20
99.1008154087
 10
133.1400731415
 20
99.303578276
  0
LWPOLYLINE
  5
2C0
100
AcDbEntity
  8
RACCORDO
100
AcDbPolyline
 62
250
  6
CONTINUOUS
 90
11
 70
0
 10
133.1462938301
 20
61.8155934881
 10
133.1508281194
 20
65.2136566101
 10
133.1543549832
 20
68.6094301348
 10
133.1568746159
 20
72.0024770912
 10
133.1583868231
 20
75.3923609439
 10
133.1588910218
 20
78.7786456495
 10
133.158386823
 20
82.1608955
 10
133.1568746156
 20
85.5386753065
 10
133.1543549829
 20
88.9115505818
 10
133.1508281191
 20
92.2790873848
 10
133.14629383
 20
95.6408523768
  0
LINE
  5
2C1
100
AcDbEntity
  8
RACCORDO
100
AcDbLine
 62
250
  6
CONTINUOUS
 10
133.1403882685
 20
58.2025369063
 11
133.1462938301
 21
61.8155934881
  0
LINE
  5
2C2
100
AcDbEntity
  8
RACCORDO
100
AcDbLine
 62
250
  6
CONTINUOUS
 10
133.139667012
 20
57.9926208588
 11
133.1403882685
 21
58.2025369063
  0
LWPOLYLINE
  5
2C3
100
AcDbEntity
  8
0
100
AcDbPolyline
 62
7
  6
CONTINUOUS
 90
3
 70
0
 43
0.3500000006
 10
144.4155520935
 20
111.6655870972
 10
144.3441209106
 20
111.4513026123
 10
144.2012676086
 20
111.1655869446
  0
LINE
  5
2C4
100
AcDbEntity
  8
26814000
100
AcDbLine
 62
7
  6
CONTINUOUS
 10
147.6686141098
 20
100.6237471687
 11
147.6726967446
 21
100.6298712073
  0
LINE
  5
2C5
100
AcDbEntity
  8
26814000
100
AcDbLine
 62
7
  6
CONTINUOUS
 10
153.8595981659
 20
102.6167726286
 11
153.8726967446
 21
102.6298712073
  0
LINE
  5
2C6
100
AcDbEntity
  8
26814000
100
AcDbLine
 62
7
  6
CONTINUOUS
 10
153.8595981659
 20
53.842969786
 11
153.8726967446
 21
53.8298712073
  0
LINE
  5
2C7
100
AcDbEntity
  8
26814000
100
AcDbLine
 62
7
  6
CONTINUOUS
 10
147.6686141098
 20
55.835995246
 11
147.6726967446
 21
55.8298712073
  0
LINE
  5
2C8
100
AcDbEntity
  8
26814000
100
AcDbLine
 62
7
  6
CONTINUOUS
 10
134.9639699999
 20
101.3525209381
 11
134.9588793988
 21
101.8577024237
  0
LINE
  5
2C9
100
AcDbEntity
  8
26814000
100
AcDbLine
 62
7
  6
CONTINUOUS
 10
134.9581521701
 20
102.3667768594
 11
134.9581521701
 21
102.0742087746
  0
LINE
  5
2CA
100
AcDbEntity
  8
26814000
100
AcDbLine
 62
7
  6
CONTINUOUS
 10
134.9581521701
 20
54.38553364
 11
134.9581521701
 21
54.0929655553
  0
LINE
  5
2CB
100
AcDbEntity
  8
26814000
100
AcDbLine
 62
7
  6
CONTINUOUS
 10
134.9639699999
 20
55.1072214765
 11
134.9639699999
 21
55.842961509
  0
LINE
  5
2CC
100
AcDbEntity
  8
26814000
100
AcDbLine
 62
7
  6
CONTINUOUS
 10
134.9639699999
 20
100.6167809056
 11
134.9639699999
 21
101.3525209381
  0
LINE
  5
2CD
100
AcDbEntity
  8
26814000
100
AcDbLine
 62
7
  6
CONTINUOUS
 10
134.9726967446
 20
53.8298712073
 11
134.9726967446
 21
55.8298712073
  0
LINE
  5
2CE
100
AcDbEntity
  8
26814000
100
AcDbLine
 62
7
  6
CONTINUOUS
 10
134.9726967446
 20
100.6298712073
 11
134.9726967446
 21
102.6298712073
  0
LINE
  5
2CF
100
AcDbEntity
  8
26814000
100
AcDbLine
 62
7
  6
CONTINUOUS
 10
134.9588793988
 20
54.602039991
 11
134.9639699999
 21
55.1072214765
  0
LWPOLYLINE
  5
2D0
100
AcDbEntity
  8
RACCORDO
100
AcDbPolyline
 62
250
  6
CONTINUOUS
 90
17
 70
0
 10
133.1226243663
 20
56.8703423522
 10
133.1239380278
 20
56.8861877175
 10
133.1252311297
 20
56.909494595
 10
133.1265036719
 20
56.940143194
 10
133.1277616808
 20
56.9779742324
 10
133.12899913
 20
57.0227961379
 10
133.1301979405
 20
57.0743900324
 10
133.1313579435
 20
57.1325061066
 10
133.1324793078
 20
57.1968445602
 10
133.1335444604
 20
57.2670604628
 10
133.1345521413
 20
57.3427780177
 10
133.1355036105
 20
57.4236260004
 10
133.136385075
 20
57.5092254519
 10
133.1371957498
 20
57.5991652624
 10
133.1379364199
 20
57.6929750194
 10
133.1385956467
 20
57.7901562353
 10
133.139667012
 20
57.9926208588
  0
LWPOLYLINE
  5
2D1
100
AcDbEntity
  8
RACCORDO
100
AcDbPolyline
 62
250
  6
CONTINUOUS
 90
18
 70
0
 10
132.3228985063
 20
57.6673888257
 10
132.3242067321
 20
57.6748423331
 10
132.3254962621
 20
57.6856543611
 10
132.3267670964
 20
57.6998249098
 10
132.3280259578
 20
57.7174600248
 10
132.3292661235
 20
57.7384536604
 10
132.3304674248
 20
57.76248768
 10
132.3316289311
 20
57.7896116927
 10
132.3327515729
 20
57.8197760894
 10
132.3338179739
 20
57.8525139066
 10
132.3348270316
 20
57.8878569972
 10
132.3357798484
 20
57.9257735082
 10
132.3366623544
 20
57.9657009176
 10
132.3374736272
 20
58.0076766328
 10
132.3382145891
 20
58.0516632463
 10
132.3388739374
 20
58.0969860138
 10
132.3394503965
 20
58.1436824985
 10
132.3403509982
 20
58.2402964957
  0
LINE
  5
2D2
100
AcDbEntity
  8
RACCORDO
100
AcDbLine
 62
250
  6
CONTINUOUS
 10
132.1726967446
 20
57.0180334249
 11
132.3228985063
 21
57.6673888257
  0
LINE
  5
2D3
100
AcDbEntity
  8
0
100
AcDbLine
 62
250
  6
CONTINUOUS
 10
154.6226967446
 20
71.7298712073
 11
154.5825500953
 21
71.7298712073
  0
LINE
  5
2D4
100
AcDbEntity
  8
ASSI
100
AcDbLine
 62
250
  6
CONTINUOUS
 10
154.6226967446
 20
71.7298712073
 11
154.5825500953
 21
71.7298712073
  0
LINE
  5
2D5
100
AcDbEntity
  8
0
100
AcDbLine
 62
250
  6
CONTINUOUS
 10
131.962843394
 20
71.7298712073
 11
131.9226967446
 21
71.7298712073
  0
LINE
  5
2D6
100
AcDbEntity
  8
ASSI
100
AcDbLine
 62
250
  6
CONTINUOUS
 10
131.962843394
 20
71.7298712073
 11
131.9226967446
 21
71.7298712073
  0
LINE
  5
2D7
100
AcDbEntity
  8
0
100
AcDbLine
 62
7
  6
CONTINUOUS
 10
154.6139692122
 20
72.2298712073
 11
154.5912776278
 21
72.2298712073
  0
LINE
  5
2D8
100
AcDbEntity
  8
ASSI
100
AcDbLine
 62
7
  6
CONTINUOUS
 10
154.6139692122
 20
72.2298712073
 11
154.5912776278
 21
72.2298712073
  0
LINE
  5
2D9
100
AcDbEntity
  8
0
100
AcDbLine
 62
7
  6
CONTINUOUS
 10
131.9314242771
 20
72.2298712073
 11
131.9541158615
 21
72.2298712073
  0
LINE
  5
2DA
100
AcDbEntity
  8
ASSI
100
AcDbLine
 62
7
  6
CONTINUOUS
 10
131.9314242771
 20
72.2298712073
 11
131.9541158615
 21
72.2298712073
  0
LINE
  5
2DB
100
AcDbEntity
  8
26814000
100
AcDbLine
 62
7
  6
CONTINUOUS
 10
138.8726967446
 20
54.4298712073
 11
138.8726967446
 21
55.8298712073
  0
LINE
  5
2DC
100
AcDbEntity
  8
26814000
100
AcDbLine
 62
7
  6
CONTINUOUS
 10
138.8726967446
 20
100.6298712073
 11
138.8726967446
 21
102.0298712073
  0
LINE
  5
2DD
100
AcDbEntity
  8
26814000
100
AcDbLine
 62
250
  6
CONTINUOUS
 10
138.8767793795
 20
102.0257885725
 11
138.8767793795
 21
100.6237471687
  0
LINE
  5
2DE
100
AcDbEntity
  8
26814000
100
AcDbLine
 62
250
  6
CONTINUOUS
 10
138.8767793795
 20
55.835995246
 11
138.8767793795
 21
54.4339538422
  0
LINE
  5
2DF
100
AcDbEntity
  8
26814000
100
AcDbLine
 62
250
  6
CONTINUOUS
 10
139.1767743025
 20
102.0240533775
 11
139.1767743025
 21
100.6211443395
  0
LINE
  5
2E0
100
AcDbEntity
  8
26814000
100
AcDbLine
 62
250
  6
CONTINUOUS
 10
139.1767743025
 20
55.8385980751
 11
139.1767743025
 21
54.4356890371
  0
LINE
  5
2E1
100
AcDbEntity
  8
RACCORDO
100
AcDbLine
 62
250
  6
CONTINUOUS
 10
132.9727881687
 20
56.2225673659
 11
133.1226243663
 21
56.8703423522
  0
LINE
  5
2E2
100
AcDbEntity
  8
26814000
100
AcDbLine
 62
7
  6
CONTINUOUS
 10
153.8726967446
 20
100.6298712073
 11
153.8639699999
 21
100.6167809056
  0
LWPOLYLINE
  5
2E3
100
AcDbEntity
  8
0
100
AcDbPolyline
 62
7
  6
CONTINUOUS
 90
2
 70
0
 43
0.3500000006
 10
161.8727041626
 20
74.8370160828
 10
160.3726946411
 20
74.8370160828
  0
LINE
  5
2E4
100
AcDbEntity
  8
26814000
100
AcDbLine
 62
7
  6
CONTINUOUS
 10
153.8639699999
 20
55.842961509
 11
153.8726967446
 21
55.8298712073
  0
LINE
  5
2E5
100
AcDbEntity
  8
0
100
AcDbLine
 62
7
  6
CONTINUOUS
 10
154.566535904
 20
92.9237103667
 11
154.6226967446
 21
92.9798712073
  0
LINE
  5
2E6
100
AcDbEntity
  8
ASSI
100
AcDbLine
 62
7
  6
CONTINUOUS
 10
154.566535904
 20
92.9237103667
 11
154.6226967446
 21
92.9798712073
  0
LWPOLYLINE
  5
2E7
100
AcDbEntity
  8
0
100
AcDbPolyline
 62
7
  6
CONTINUOUS
 90
4
 70
0
 43
0.3500000006
 10
161.4441170654
 20
76.1941541748
 10
160.586979126
 20
76.1941541748
 10
160.1584101563
 20
76.6227322083
 10
160.1584101563
 20
77.2655856628
  0
LINE
  5
2E8
100
AcDbEntity
  8
0
100
AcDbLine
 62
7
  6
CONTINUOUS
 10
154.566535904
 20
63.536032048
 11
154.6226967446
 21
63.4798712073
  0
LINE
  5
2E9
100
AcDbEntity
  8
ASSI
100
AcDbLine
 62
7
  6
CONTINUOUS
 10
154.566535904
 20
63.536032048
 11
154.6226967446
 21
63.4798712073
  0
LWPOLYLINE
  5
2EA
100
AcDbEntity
  8
RACCORDO
100
AcDbPolyline
 62
250
  6
CONTINUOUS
 90
20
 70
0
 10
153.4209986921
 20
100.2385314463
 10
153.4201627406
 20
100.2369227652
 10
153.4188902923
 20
100.2281946075
 10
153.41763227
 20
100.2119309125
 10
153.416394743
 20
100.1882151428
 10
153.4151959195
 20
100.1571639451
 10
153.4140360565
 20
100.1189273469
 10
153.4129148971
 20
100.0737009109
 10
153.4118498775
 20
100.0217262991
 10
153.4108422066
 20
99.9632830604
 10
153.4098906757
 20
99.8986600138
 10
153.4090090949
 20
99.8281599559
 10
153.4081982098
 20
99.7521189201
 10
153.4074572749
 20
99.6709335516
 10
153.4067978639
 20
99.585037402
 10
153.4062214336
 20
99.494880844
 10
153.4057265272
 20
99.4009082004
 10
153.4053203477
 20
99.303578276
 10
153.4050052962
 20
99.2033766674
 10
153.3990996593
 20
95.6408523768
  0
LINE
  5
2EB
100
AcDbEntity
  8
26814000
100
AcDbLine
 62
7
  6
CONTINUOUS
 10
132.1226967446
 20
78.2298712073
 11
132.1726967446
 21
78.2298712073
  0
LINE
  5
2EC
100
AcDbEntity
  8
26814000
100
AcDbLine
 62
7
  6
CONTINUOUS
 10
154.3726967446
 20
78.2298712073
 11
154.4226967446
 21
78.2298712073
  0
LINE
  5
2ED
100
AcDbEntity
  8
26814000
100
AcDbLine
 62
7
  6
CONTINUOUS
 10
132.6814234893
 20
55.842961509
 11
132.6726967446
 21
55.8298712073
  0
LINE
  5
2EE
100
AcDbEntity
  8
0
100
AcDbLine
 62
7
  6
CONTINUOUS
 10
131.9226967446
 20
63.4798712073
 11
131.9788575853
 21
63.536032048
  0
LINE
  5
2EF
100
AcDbEntity
  8
ASSI
100
AcDbLine
 62
7
  6
CONTINUOUS
 10
131.9226967446
 20
63.4798712073
 11
131.9788575853
 21
63.536032048
  0
LWPOLYLINE
  5
2F0
100
AcDbEntity
  8
0
100
AcDbPolyline
 62
7
  6
CONTINUOUS
 90
4
 70
0
 43
0.3500000006
 10
161.4441170654
 20
80.2655865784
 10
160.586979126
 20
80.2655865784
 10
160.1584101563
 20
80.6941555481
 10
160.1584101563
 20
81.3370180664
  0
LINE
  5
2F1
100
AcDbEntity
  8
0
100
AcDbLine
 62
7
  6
CONTINUOUS
 10
131.9226967446
 20
92.9798712073
 11
131.9788575853
 21
92.9237103667
  0
LINE
  5
2F2
100
AcDbEntity
  8
ASSI
100
AcDbLine
 62
7
  6
CONTINUOUS
 10
131.9226967446
 20
92.9798712073
 11
131.9788575853
 21
92.9237103667
  0
LINE
  5
2F3
100
AcDbEntity
  8
26814000
100
AcDbLine
 62
7
  6
CONTINUOUS
 10
132.6726967446
 20
100.6298712073
 11
132.6814234893
 21
100.6167809056
  0
LINE
  5
2F4
100
AcDbEntity
  8
26814000
100
AcDbLine
 62
250
  6
CONTINUOUS
 10
147.3686191867
 20
54.4356890371
 11
147.3686191867
 21
55.8385980751
  0
LINE
  5
2F5
100
AcDbEntity
  8
26814000
100
AcDbLine
 62
250
  6
CONTINUOUS
 10
147.3686191867
 20
100.6211443395
 11
147.3686191867
 21
102.0240533775
  0
LINE
  5
2F6
100
AcDbEntity
  8
26814000
100
AcDbLine
 62
250
  6
CONTINUOUS
 10
147.6686141098
 20
54.4339538422
 11
147.6686141098
 21
55.835995246
  0
LINE
  5
2F7
100
AcDbEntity
  8
26814000
100
AcDbLine
 62
250
  6
CONTINUOUS
 10
147.6686141098
 20
100.6237471687
 11
147.6686141098
 21
102.0257885725
  0
LINE
  5
2F8
100
AcDbEntity
  8
26814000
100
AcDbLine
 62
7
  6
CONTINUOUS
 10
147.6726967446
 20
102.0298712073
 11
147.6726967446
 21
100.6298712073
  0
LINE
  5
2F9
100
AcDbEntity
  8
26814000
100
AcDbLine
 62
7
  6
CONTINUOUS
 10
147.6726967446
 20
55.8298712073
 11
147.6726967446
 21
54.4298712073
  0
LINE
  5
2FA
100
AcDbEntity
  8
RACCORDO
100
AcDbLine
 62
250
  6
CONTINUOUS
 10
153.422769123
 20
56.8703423522
 11
153.5726053205
 21
56.2225673659
  0
LWPOLYLINE
  5
2FB
100
AcDbEntity
  8
0
100
AcDbPolyline
 62
7
  6
CONTINUOUS
 90
10
 70
0
 43
0.3500000006
 10
161.3726949463
 20
79.1941550903
 10
161.515557312
 20
79.2655862732
 10
161.5869794312
 20
79.2655862732
 10
161.7298417969
 20
79.1227239075
 10
161.7298417969
 20
79.0513017883
 10
161.6584196777
 20
78.9798706055
 10
161.5869794312
 20
78.9798706055
 10
161.4441170654
 20
79.0513017883
 10
161.3726949463
 20
79.1227239075
 10
161.3726949463
 20
79.1941550903
  0
LINE
  5
2FC
100
AcDbEntity
  8
0
100
AcDbLine
 62
7
  6
CONTINUOUS
 10
131.9541158615
 20
84.2298712073
 11
131.9314242771
 21
84.2298712073
  0
LINE
  5
2FD
100
AcDbEntity
  8
ASSI
100
AcDbLine
 62
7
  6
CONTINUOUS
 10
131.9541158615
 20
84.2298712073
 11
131.9314242771
 21
84.2298712073
  0
LINE
  5
2FE
100
AcDbEntity
  8
0
100
AcDbLine
 62
7
  6
CONTINUOUS
 10
154.5912776278
 20
84.2298712073
 11
154.6139692122
 21
84.2298712073
  0
LINE
  5
2FF
100
AcDbEntity
  8
ASSI
100
AcDbLine
 62
7
  6
CONTINUOUS
 10
154.5912776278
 20
84.2298712073
 11
154.6139692122
 21
84.2298712073
  0
LINE
  5
300
100
AcDbEntity
  8
0
100
AcDbLine
 62
250
  6
CONTINUOUS
 10
154.6226967446
 20
84.7298712073
 11
154.5825500953
 21
84.7298712073
  0
LINE
  5
301
100
AcDbEntity
  8
ASSI
100
AcDbLine
 62
250
  6
CONTINUOUS
 10
154.6226967446
 20
84.7298712073
 11
154.5825500953
 21
84.7298712073
  0
LINE
  5
302
100
AcDbEntity
  8
0
100
AcDbLine
 62
250
  6
CONTINUOUS
 10
131.962843394
 20
84.7298712073
 11
131.9226967446
 21
84.7298712073
  0
LINE
  5
303
100
AcDbEntity
  8
ASSI
100
AcDbLine
 62
250
  6
CONTINUOUS
 10
131.962843394
 20
84.7298712073
 11
131.9226967446
 21
84.7298712073
  0
LWPOLYLINE
  5
304
100
AcDbEntity
  8
0
100
AcDbPolyline
 62
7
  6
CONTINUOUS
 90
3
 70
0
 43
0.3500000006
 10
161.5869794312
 20
79.2655862732
 10
161.801263916
 20
79.1941550903
 10
162.0869886475
 20
79.0513017883
  0
LINE
  5
305
100
AcDbEntity
  8
RACCORDO
100
AcDbLine
 62
250
  6
CONTINUOUS
 10
154.2224949829
 20
57.6673888257
 11
154.3726967446
 21
57.0180334249
  0
LINE
  5
306
100
AcDbEntity
  8
26814000
100
AcDbLine
 62
7
  6
CONTINUOUS
 10
151.5865140904
 20
54.602039991
 11
151.5814234893
 21
55.1072214765
  0
LINE
  5
307
100
AcDbEntity
  8
26814000
100
AcDbLine
 62
7
  6
CONTINUOUS
 10
151.5726967446
 20
53.8298712073
 11
151.5726967446
 21
55.8298712073
  0
LINE
  5
308
100
AcDbEntity
  8
26814000
100
AcDbLine
 62
7
  6
CONTINUOUS
 10
151.5726967446
 20
100.6298712073
 11
151.5726967446
 21
102.6298712073
  0
LINE
  5
309
100
AcDbEntity
  8
26814000
100
AcDbLine
 62
7
  6
CONTINUOUS
 10
151.5814234893
 20
55.1072214765
 11
151.5814234893
 21
55.842961509
  0
LINE
  5
30A
100
AcDbEntity
  8
26814000
100
AcDbLine
 62
7
  6
CONTINUOUS
 10
151.5814234893
 20
100.6167809056
 11
151.5814234893
 21
101.3525209381
  0
LINE
  5
30B
100
AcDbEntity
  8
26814000
100
AcDbLine
 62
7
  6
CONTINUOUS
 10
151.5872413192
 20
54.0929655553
 11
151.5872413192
 21
54.38553364
  0
LINE
  5
30C
100
AcDbEntity
  8
26814000
100
AcDbLine
 62
7
  6
CONTINUOUS
 10
151.5872413192
 20
102.0742087746
 11
151.5872413192
 21
102.3667768594
  0
LINE
  5
30D
100
AcDbEntity
  8
26814000
100
AcDbLine
 62
7
  6
CONTINUOUS
 10
151.5814234893
 20
101.3525209381
 11
151.5865140904
 21
101.8577024237
  0
LINE
  5
30E
100
AcDbEntity
  8
26814000
100
AcDbLine
 62
7
  6
CONTINUOUS
 10
138.8767793795
 20
55.835995246
 11
138.8726967446
 21
55.8298712073
  0
LINE
  5
30F
100
AcDbEntity
  8
26814000
100
AcDbLine
 62
7
  6
CONTINUOUS
 10
138.8767793795
 20
100.6237471687
 11
138.8726967446
 21
100.6298712073
  0
LWPOLYLINE
  5
310
100
AcDbEntity
  8
RACCORDO
100
AcDbPolyline
 62
250
  6
CONTINUOUS
 90
16
 70
0
 10
154.2065195519
 20
58.0969860138
 10
154.2071789002
 20
58.0516632463
 10
154.2079198621
 20
58.0076766328
 10
154.2087311348
 20
57.9657009176
 10
154.2096136408
 20
57.9257735082
 10
154.2105664576
 20
57.8878569972
 10
154.2115755154
 20
57.8525139066
 10
154.2126419163
 20
57.8197760894
 10
154.2137645582
 20
57.7896116927
 10
154.2149260644
 20
57.76248768
 10
154.2161273658
 20
57.7384536604
 10
154.2173675314
 20
57.7174600248
 10
154.2186263929
 20
57.6998249099
 10
154.2198972271
 20
57.6856543611
 10
154.2211867572
 20
57.6748423331
 10
154.2224949829
 20
57.6673888257
  0
LINE
  5
311
100
AcDbEntity
  8
RACCORDO
100
AcDbLine
 62
250
  6
CONTINUOUS
 10
154.2054482472
 20
58.191715137
 11
154.2065195519
 21
58.0969860138
  0
LINE
  5
312
100
AcDbEntity
  8
26814000
100
AcDbLine
 62
7
  6
CONTINUOUS
 10
153.8639699999
 20
101.3525209381
 11
153.8588793988
 21
101.8577024237
  0
LWPOLYLINE
  5
313
100
AcDbEntity
  8
RACCORDO
100
AcDbPolyline
 62
250
  6
CONTINUOUS
 90
16
 70
0
 10
153.4067978426
 20
57.7901562353
 10
153.4074570694
 20
57.6929750194
 10
153.4081977394
 20
57.5991652624
 10
153.4090084142
 20
57.5092254519
 10
153.4098898787
 20
57.4236260004
 10
153.4108413479
 20
57.3427780177
 10
153.4118490288
 20
57.2670604628
 10
153.4129141814
 20
57.1968445602
 10
153.4140355458
 20
57.1325061066
 10
153.4151955488
 20
57.0743900324
 10
153.4163943593
 20
57.0227961379
 10
153.4176318085
 20
56.9779742324
 10
153.4188898173
 20
56.940143194
 10
153.4201623595
 20
56.909494595
 10
153.4214554614
 20
56.8861877175
 10
153.422769123
 20
56.8703423522
  0
LINE
  5
314
100
AcDbEntity
  8
RACCORDO
100
AcDbLine
 62
250
  6
CONTINUOUS
 10
154.204728316
 20
58.2891640963
 11
154.2054482472
 21
58.191715137
  0
LINE
  5
315
100
AcDbEntity
  8
RACCORDO
100
AcDbLine
 62
250
  6
CONTINUOUS
 10
153.4057264773
 20
57.9926208588
 11
153.4067978426
 21
57.7901562353
  0
LINE
  5
316
100
AcDbEntity
  8
RACCORDO
100
AcDbLine
 62
250
  6
CONTINUOUS
 10
153.4050052208
 20
58.2025369063
 11
153.4057264773
 21
57.9926208588
  0
LINE
  5
317
100
AcDbEntity
  8
RACCORDO
100
AcDbLine
 62
250
  6
CONTINUOUS
 10
154.2043672338
 20
58.3885454578
 11
154.204728316
 21
58.2891640963
  0
LINE
  5
318
100
AcDbEntity
  8
RACCORDO
100
AcDbLine
 62
250
  6
CONTINUOUS
 10
153.3990996591
 20
61.8155934881
 11
153.4050052208
 21
58.2025369063
  0
LINE
  5
319
100
AcDbEntity
  8
26814000
100
AcDbLine
 62
7
  6
CONTINUOUS
 10
153.8581521701
 20
102.3667768594
 11
153.8581521701
 21
102.0742087746
  0
LINE
  5
31A
100
AcDbEntity
  8
26814000
100
AcDbLine
 62
7
  6
CONTINUOUS
 10
153.8581521701
 20
54.38553364
 11
153.8581521701
 21
54.0929655553
  0
LINE
  5
31B
100
AcDbEntity
  8
26814000
100
AcDbLine
 62
7
  6
CONTINUOUS
 10
153.8639699999
 20
55.1072214765
 11
153.8639699999
 21
55.842961509
  0
LINE
  5
31C
100
AcDbEntity
  8
26814000
100
AcDbLine
 62
7
  6
CONTINUOUS
 10
153.8639699999
 20
100.6167809056
 11
153.8639699999
 21
101.3525209381
  0
LINE
  5
31D
100
AcDbEntity
  8
26814000
100
AcDbLine
 62
7
  6
CONTINUOUS
 10
153.8726967446
 20
53.8298712073
 11
153.8726967446
 21
55.8298712073
  0
LINE
  5
31E
100
AcDbEntity
  8
26814000
100
AcDbLine
 62
7
  6
CONTINUOUS
 10
153.8726967446
 20
100.6298712073
 11
153.8726967446
 21
102.6298712073
  0
LINE
  5
31F
100
AcDbEntity
  8
26814000
100
AcDbLine
 62
250
  6
CONTINUOUS
 10
154.0726967446
 20
100.6298712073
 11
154.0726967446
 21
100.6080540379
  0
LINE
  5
320
100
AcDbEntity
  8
26814000
100
AcDbLine
 62
250
  6
CONTINUOUS
 10
154.0726967446
 20
55.8516883768
 11
154.0726967446
 21
55.8298712073
  0
LWPOLYLINE
  5
321
100
AcDbEntity
  8
RACCORDO
100
AcDbPolyline
 62
250
  6
CONTINUOUS
 90
11
 70
0
 10
153.3990996593
 20
95.6408523768
 10
153.3945653701
 20
92.2790873848
 10
153.3910385064
 20
88.9115505818
 10
153.3885188736
 20
85.5386753065
 10
153.3870066663
 20
82.1608955
 10
153.3865024675
 20
78.7786456495
 10
153.3870066661
 20
75.3923609439
 10
153.3885188734
 20
72.0024770912
 10
153.3910385061
 20
68.6094301348
 10
153.3945653699
 20
65.2136566101
 10
153.3990996591
 20
61.8155934881
  0
LWPOLYLINE
  5
322
100
AcDbEntity
  8
RACCORDO
100
AcDbPolyline
 62
250
  6
CONTINUOUS
 90
12
 70
0
 10
154.198825528
 20
95.5137432435
 10
154.1942912441
 20
92.1610925817
 10
154.1907643821
 20
88.8031131904
 10
154.1882447446
 20
85.439370078
 10
154.1867325291
 20
82.0702982362
 10
154.1862283275
 20
78.6972026399
 10
154.1867325357
 20
75.3200810478
 10
154.1882447578
 20
71.9389357011
 10
154.1907643982
 20
68.5550782989
 10
154.1942912584
 20
65.1689460741
 10
154.1988255369
 20
61.7801017937
 10
154.2043672338
 20
58.3885454578
  0
LINE
  5
323
100
AcDbEntity
  8
RACCORDO
100
AcDbLine
 62
250
  6
CONTINUOUS
 10
154.2045034377
 20
98.909982714
 11
154.198825528
 21
95.5137432435
  0
LINE
  5
324
100
AcDbEntity
  8
26814000
100
AcDbLine
 62
7
  6
CONTINUOUS
 10
153.8588793988
 20
54.602039991
 11
153.8639699999
 21
55.1072214765
  0
LINE
  5
325
100
AcDbEntity
  8
26814000
100
AcDbLine
 62
7
  6
CONTINUOUS
 10
132.6857953233
 20
53.842969786
 11
132.6726967446
 21
53.8298712073
  0
LINE
  5
326
100
AcDbEntity
  8
26814000
100
AcDbLine
 62
7
  6
CONTINUOUS
 10
132.6857953233
 20
102.6167726286
 11
132.6726967446
 21
102.6298712073
  0
LWPOLYLINE
  5
327
100
AcDbEntity
  8
RACCORDO
100
AcDbPolyline
 62
250
  6
CONTINUOUS
 90
4
 70
0
 10
154.2224949829
 20
99.4374978
 10
154.218096278
 20
99.5207105719
 10
154.2049864966
 20
99.6029880984
 10
154.194487798
 20
99.6461411771
  0
LWPOLYLINE
  5
328
100
AcDbEntity
  8
0
100
AcDbPolyline
 62
7
  6
CONTINUOUS
 90
9
 70
0
 10
154.6226967446
 20
96.2040872098
 10
154.619048733
 20
96.3246356128
 10
154.6082627635
 20
96.4440639329
 10
154.5903388359
 20
96.56237217
 10
154.5651575786
 20
96.6800457432
 10
154.5328383634
 20
96.7965992334
 10
154.4937393052
 20
96.9105763839
 10
154.4477459208
 20
97.0219297819
 10
154.4226967446
 20
97.0735615626
  0
LWPOLYLINE
  5
329
100
AcDbEntity
  8
ASSI
100
AcDbPolyline
 62
7
  6
CONTINUOUS
 90
9
 70
0
 10
154.6226967446
 20
96.2040872098
 10
154.619048733
 20
96.3246356128
 10
154.6082627635
 20
96.4440639329
 10
154.5903388359
 20
96.56237217
 10
154.5651575786
 20
96.6800457432
 10
154.5328383634
 20
96.7965992334
 10
154.4937393052
 20
96.9105763839
 10
154.4477459208
 20
97.0219297819
 10
154.4226967446
 20
97.0735615626
  0
LWPOLYLINE
  5
32A
100
AcDbEntity
  8
26814000
100
AcDbPolyline
 62
7
  6
CONTINUOUS
 90
31
 70
0
 10
154.4226967446
 20
100.2798578799
 10
154.4222171056
 20
100.2981757142
 10
154.4207795003
 20
100.3164433625
 10
154.4183878645
 20
100.3346107603
 10
154.4150487495
 20
100.3526281198
 10
154.4107713028
 20
100.3704460593
 10
154.4055672427
 20
100.3880157383
 10
154.3994508279
 20
100.4052890038
 10
154.392438818
 20
100.4222185141
 10
154.3845504262
 20
100.4387578612
 10
154.3758072686
 20
100.4548617144
 10
154.3662333046
 20
100.4704859355
 10
154.3558547703
 20
100.4855876921
 10
154.3447001074
 20
100.5001255917
 10
154.3327998857
 20
100.5140597871
 10
154.3201867189
 20
100.5273520762
 10
154.3068951746
 20
100.5399660247
 10
154.2929616807
 20
100.5518670575
 10
154.2784244255
 20
100.5630225447
 10
154.263323252
 20
100.5734019073
 10
154.2476995491
 20
100.5829766943
 10
154.2315961397
 20
100.5917206521
 10
154.2150571608
 20
100.5996098108
 10
154.1981279435
 20
100.6066225439
 10
154.1808548898
 20
100.6127396218
 10
154.1632853443
 20
100.6179442736
 10
154.1454674636
 20
100.6222222304
 10
154.1274500856
 20
100.62556176
 10
154.1092825956
 20
100.6279537035
 10
154.091014791
 20
100.6293915012
 10
154.0726967446
 20
100.6298712073
  0
LINE
  5
32B
100
AcDbEntity
  8
RACCORDO
100
AcDbLine
 62
7
  6
CONTINUOUS
 10
154.3726967446
 20
57.0180334249
 11
154.3726967446
 21
98.8877081344
  0
LINE
  5
32C
100
AcDbEntity
  8
26814000
100
AcDbLine
 62
7
  6
CONTINUOUS
 10
154.4226967446
 20
100.2580407104
 11
154.4226967446
 21
56.2017017042
  0
LINE
  5
32D
100
AcDbEntity
  8
0
100
AcDbLine
 62
7
  6
CONTINUOUS
 10
154.5493854719
 20
64.5358797431
 11
154.5493854719
 21
91.9238626715
  0
LINE
  5
32E
100
AcDbEntity
  8
ASSI
100
AcDbLine
 62
7
  6
CONTINUOUS
 10
154.5493854719
 20
64.5358797431
 11
154.5493854719
 21
91.9238626715
  0
LINE
  5
32F
100
AcDbEntity
  8
0
100
AcDbLine
 62
7
  6
CONTINUOUS
 10
154.5825500953
 20
89.7298712073
 11
154.5825500953
 21
84.7298712073
  0
LINE
  5
330
100
AcDbEntity
  8
ASSI
100
AcDbLine
 62
7
  6
CONTINUOUS
 10
154.5825500953
 20
89.7298712073
 11
154.5825500953
 21
84.7298712073
  0
LINE
  5
331
100
AcDbEntity
  8
0
100
AcDbLine
 62
7
  6
CONTINUOUS
 10
154.5825500953
 20
71.7298712073
 11
154.5825500953
 21
66.7298712073
  0
LINE
  5
332
100
AcDbEntity
  8
ASSI
100
AcDbLine
 62
7
  6
CONTINUOUS
 10
154.5825500953
 20
71.7298712073
 11
154.5825500953
 21
66.7298712073
  0
LINE
  5
333
100
AcDbEntity
  8
0
100
AcDbLine
 62
7
  6
CONTINUOUS
 10
154.6226967446
 20
84.2298712073
 11
154.6226967446
 21
72.2298712073
  0
LINE
  5
334
100
AcDbEntity
  8
ASSI
100
AcDbLine
 62
7
  6
CONTINUOUS
 10
154.6226967446
 20
84.2298712073
 11
154.6226967446
 21
72.2298712073
  0
LINE
  5
335
100
AcDbEntity
  8
0
100
AcDbLine
 62
7
  6
CONTINUOUS
 10
154.6226967446
 20
60.2556552049
 11
154.6226967446
 21
66.2298712073
  0
LINE
  5
336
100
AcDbEntity
  8
ASSI
100
AcDbLine
 62
7
  6
CONTINUOUS
 10
154.6226967446
 20
60.2556552049
 11
154.6226967446
 21
66.2298712073
  0
LINE
  5
337
100
AcDbEntity
  8
0
100
AcDbLine
 62
7
  6
CONTINUOUS
 10
154.6226967446
 20
66.7298712073
 11
154.6226967446
 21
71.7298712073
  0
LINE
  5
338
100
AcDbEntity
  8
ASSI
100
AcDbLine
 62
7
  6
CONTINUOUS
 10
154.6226967446
 20
66.7298712073
 11
154.6226967446
 21
71.7298712073
  0
LINE
  5
339
100
AcDbEntity
  8
0
100
AcDbLine
 62
7
  6
CONTINUOUS
 10
154.6226967446
 20
84.7298712073
 11
154.6226967446
 21
89.7298712073
  0
LINE
  5
33A
100
AcDbEntity
  8
ASSI
100
AcDbLine
 62
7
  6
CONTINUOUS
 10
154.6226967446
 20
84.7298712073
 11
154.6226967446
 21
89.7298712073
  0
LINE
  5
33B
100
AcDbEntity
  8
0
100
AcDbLine
 62
7
  6
CONTINUOUS
 10
154.6226967446
 20
90.2298712073
 11
154.6226967446
 21
96.2040872098
  0
LINE
  5
33C
100
AcDbEntity
  8
ASSI
100
AcDbLine
 62
7
  6
CONTINUOUS
 10
154.6226967446
 20
90.2298712073
 11
154.6226967446
 21
96.2040872098
  0
LWPOLYLINE
  5
33D
100
AcDbEntity
  8
26814000
100
AcDbPolyline
 62
7
  6
CONTINUOUS
 90
31
 70
0
 10
154.4226967446
 20
56.1798845348
 10
154.4222171056
 20
56.1615667005
 10
154.4207795003
 20
56.1432990522
 10
154.4183878645
 20
56.1251316544
 10
154.4150487495
 20
56.1071142949
 10
154.4107713028
 20
56.0892963554
 10
154.4055672427
 20
56.0717266764
 10
154.3994508279
 20
56.0544534108
 10
154.392438818
 20
56.0375239005
 10
154.3845504262
 20
56.0209845534
 10
154.3758072686
 20
56.0048807003
 10
154.3662333046
 20
55.9892564791
 10
154.3558547703
 20
55.9741547226
 10
154.3447001074
 20
55.959616823
 10
154.3327998857
 20
55.9456826276
 10
154.3201867189
 20
55.9323903385
 10
154.3068951746
 20
55.9197763899
 10
154.2929616807
 20
55.9078753572
 10
154.2784244255
 20
55.89671987
 10
154.263323252
 20
55.8863405074
 10
154.2476995491
 20
55.8767657204
 10
154.2315961397
 20
55.8680217625
 10
154.2150571608
 20
55.8601326039
 10
154.1981279435
 20
55.8531198707
 10
154.1808548898
 20
55.8470027928
 10
154.1632853443
 20
55.8417981411
 10
154.1454674636
 20
55.8375201842
 10
154.1274500856
 20
55.8341806547
 10
154.1092825956
 20
55.8317887111
 10
154.091014791
 20
55.8303509135
 10
154.0726967446
 20
55.8298712073
  0
LWPOLYLINE
  5
33E
100
AcDbEntity
  8
RACCORDO
100
AcDbPolyline
 62
250
  6
CONTINUOUS
 90
16
 70
0
 10
154.2224949829
 20
57.6673888257
 10
154.218096181
 20
57.5843035904
 10
154.2049861413
 20
57.5021044138
 10
154.1833084584
 20
57.4216916255
 10
154.1533005685
 20
57.343945989
 10
154.115291149
 20
57.2697190541
 10
154.0696965178
 20
57.1998238305
 10
154.0170160741
 20
57.1350258822
 10
153.9578268283
 20
57.0760349429
 10
153.8927770817
 20
57.0234971419
 10
153.8225793258
 20
56.977987927
 10
153.7480024384
 20
56.9400057619
 10
153.6698632621
 20
56.9099666662
 10
153.5890176573
 20
56.888199659
 10
153.5063511281
 20
56.8749431547
 10
153.422769123
 20
56.8703423522
  0
LWPOLYLINE
  5
33F
100
AcDbEntity
  8
0
100
AcDbPolyline
 62
7
  6
CONTINUOUS
 90
13
 70
0
 43
0.3500000006
 10
160.1584101563
 20
80.6941555481
 10
159.9441256714
 20
80.4084398804
 10
159.3012722168
 20
80.4084398804
 10
158.8727032471
 20
80.6941555481
 10
158.8727032471
 20
81.3370180664
 10
159.3012722168
 20
81.6227246704
 10
159.9441256714
 20
81.6227246704
 10
160.1584101563
 20
81.3370180664
 10
160.586979126
 20
81.7655870361
 10
161.4441170654
 20
81.7655870361
 10
161.8727041626
 20
81.3370180664
 10
161.8727041626
 20
80.6941555481
 10
161.4441170654
 20
80.2655865784
  0
LINE
  5
340
100
AcDbEntity
  8
0
100
AcDbLine
 62
250
  6
CONTINUOUS
 10
154.6226967446
 20
89.7298712073
 11
154.5825500953
 21
89.7298712073
  0
LINE
  5
341
100
AcDbEntity
  8
ASSI
100
AcDbLine
 62
250
  6
CONTINUOUS
 10
154.6226967446
 20
89.7298712073
 11
154.5825500953
 21
89.7298712073
  0
LINE
  5
342
100
AcDbEntity
  8
0
100
AcDbLine
 62
250
  6
CONTINUOUS
 10
131.962843394
 20
89.7298712073
 11
131.9226967446
 21
89.7298712073
  0
LINE
  5
343
100
AcDbEntity
  8
ASSI
100
AcDbLine
 62
250
  6
CONTINUOUS
 10
131.962843394
 20
89.7298712073
 11
131.9226967446
 21
89.7298712073
  0
LINE
  5
344
100
AcDbEntity
  8
0
100
AcDbLine
 62
7
  6
CONTINUOUS
 10
154.6139692122
 20
90.2298712073
 11
154.5912776278
 21
90.2298712073
  0
LINE
  5
345
100
AcDbEntity
  8
ASSI
100
AcDbLine
 62
7
  6
CONTINUOUS
 10
154.6139692122
 20
90.2298712073
 11
154.5912776278
 21
90.2298712073
  0
LINE
  5
346
100
AcDbEntity
  8
0
100
AcDbLine
 62
7
  6
CONTINUOUS
 10
131.9314242771
 20
90.2298712073
 11
131.9541158615
 21
90.2298712073
  0
LINE
  5
347
100
AcDbEntity
  8
ASSI
100
AcDbLine
 62
7
  6
CONTINUOUS
 10
131.9314242771
 20
90.2298712073
 11
131.9541158615
 21
90.2298712073
  0
LWPOLYLINE
  5
348
100
AcDbEntity
  8
0
100
AcDbPolyline
 62
7
  6
CONTINUOUS
 90
13
 70
0
 43
0.3500000006
 10
160.1584101563
 20
76.6227322083
 10
159.9441256714
 20
76.3370165405
 10
159.3012722168
 20
76.3370165405
 10
158.8727032471
 20
76.6227322083
 10
158.8727032471
 20
77.2655856628
 10
159.3012722168
 20
77.5513013306
 10
159.9441256714
 20
77.5513013306
 10
160.1584101563
 20
77.2655856628
 10
160.586979126
 20
77.6941546326
 10
161.4441170654
 20
77.6941546326
 10
161.8727041626
 20
77.2655856628
 10
161.8727041626
 20
76.6227322083
 10
161.4441170654
 20
76.1941541748
  0
LINE
  5
349
100
AcDbEntity
  8
26814000
100
AcDbLine
 62
7
  6
CONTINUOUS
 10
138.8767793795
 20
54.4339538422
 11
138.8726967446
 21
54.4298712073
  0
LWPOLYLINE
  5
34A
100
AcDbEntity
  8
RACCORDO
100
AcDbPolyline
 62
250
  6
CONTINUOUS
 90
15
 70
0
 10
132.3410262555
 20
58.3885454578
 10
132.3474106185
 20
58.3915431627
 10
132.3622005901
 20
58.3944859136
 10
132.3852394678
 20
58.3973425314
 10
132.4162831501
 20
58.4000827497
 10
132.455002723
 20
58.4026775354
 10
132.5009879451
 20
58.4050993963
 10
132.553751594
 20
58.4073226721
 10
132.6127346285
 20
58.4093238069
 10
132.6773121117
 20
58.4110815982
 10
132.7467998326
 20
58.412577422
 10
132.8204615552
 20
58.4137954297
 10
132.897516819
 20
58.414722716
 10
132.9771492085
 20
58.4153494561
 10
133.0585150028
 20
58.4156690097
  0
LINE
  5
34B
100
AcDbEntity
  8
0
100
AcDbLine
 62
250
  6
CONTINUOUS
 10
131.9960080173
 20
91.9238626715
 11
132.1226967446
 21
91.9238626715
  0
LINE
  5
34C
100
AcDbEntity
  8
ASSI
100
AcDbLine
 62
250
  6
CONTINUOUS
 10
131.9960080173
 20
91.9238626715
 11
132.1226967446
 21
91.9238626715
  0
LINE
  5
34D
100
AcDbEntity
  8
0
100
AcDbLine
 62
250
  6
CONTINUOUS
 10
154.4226967446
 20
91.9238626715
 11
154.5493854719
 21
91.9238626715
  0
LINE
  5
34E
100
AcDbEntity
  8
ASSI
100
AcDbLine
 62
250
  6
CONTINUOUS
 10
154.4226967446
 20
91.9238626715
 11
154.5493854719
 21
91.9238626715
  0
LINE
  5
34F
100
AcDbEntity
  8
26814000
100
AcDbLine
 62
7
  6
CONTINUOUS
 10
138.8767793795
 20
102.0257885725
 11
138.8726967446
 21
102.0298712073
  0
LINE
  5
350
100
AcDbEntity
  8
0
100
AcDbLine
 62
250
  6
CONTINUOUS
 10
131.9788575853
 20
92.9237103667
 11
132.1226967446
 21
92.9237103667
  0
LINE
  5
351
100
AcDbEntity
  8
ASSI
100
AcDbLine
 62
250
  6
CONTINUOUS
 10
131.9788575853
 20
92.9237103667
 11
132.1226967446
 21
92.9237103667
  0
LINE
  5
352
100
AcDbEntity
  8
0
100
AcDbLine
 62
250
  6
CONTINUOUS
 10
154.4226967446
 20
92.9237103667
 11
154.566535904
 21
92.9237103667
  0
LINE
  5
353
100
AcDbEntity
  8
ASSI
100
AcDbLine
 62
250
  6
CONTINUOUS
 10
154.4226967446
 20
92.9237103667
 11
154.566535904
 21
92.9237103667
  0
LINE
  5
354
100
AcDbEntity
  8
0
100
AcDbLine
 62
7
  6
CONTINUOUS
 10
154.6226967446
 20
92.9798712073
 11
154.4226967446
 21
92.9798712073
  0
LINE
  5
355
100
AcDbEntity
  8
ASSI
100
AcDbLine
 62
7
  6
CONTINUOUS
 10
154.6226967446
 20
92.9798712073
 11
154.4226967446
 21
92.9798712073
  0
LINE
  5
356
100
AcDbEntity
  8
0
100
AcDbLine
 62
7
  6
CONTINUOUS
 10
132.1226967446
 20
92.9798712073
 11
131.9226967446
 21
92.9798712073
  0
LINE
  5
357
100
AcDbEntity
  8
ASSI
100
AcDbLine
 62
7
  6
CONTINUOUS
 10
132.1226967446
 20
92.9798712073
 11
131.9226967446
 21
92.9798712073
  0
LWPOLYLINE
  5
358
100
AcDbEntity
  8
0
100
AcDbPolyline
 62
7
  6
CONTINUOUS
 90
10
 70
0
 43
0.3500000006
 10
144.3441209106
 20
111.879871582
 10
144.4155520935
 20
111.73701828
 10
144.4155520935
 20
111.6655870972
 10
144.2726987915
 20
111.5227247314
 10
144.2012676086
 20
111.5227247314
 10
144.1298364258
 20
111.5941559143
 10
144.1298364258
 20
111.6655870972
 10
144.2012676086
 20
111.8084403992
 10
144.2726987915
 20
111.879871582
 10
144.3441209106
 20
111.879871582
  0
LINE
  5
359
100
AcDbEntity
  8
RACCORDO
100
AcDbLine
 62
250
  6
CONTINUOUS
 10
154.3726967446
 20
98.8877081344
 11
154.2224949829
 21
99.4374978
  0
LINE
  5
35A
100
AcDbEntity
  8
RACCORDO
100
AcDbLine
 62
7
  6
CONTINUOUS
 10
154.3447157151
 20
99.0962557738
 11
154.194400774
 21
99.646459454
  0
LWPOLYLINE
  5
35B
100
AcDbEntity
  8
0
100
AcDbPolyline
 62
7
  6
CONTINUOUS
 90
3
 70
0
 43
0.3500000006
 10
161.2298325806
 20
75.3370162354
 10
161.2298325806
 20
73.8370157776
 10
158.8727032471
 20
74.4798692322
  0
LWPOLYLINE
  5
35C
100
AcDbEntity
  8
RACCORDO
100
AcDbPolyline
 62
7
  6
CONTINUOUS
 90
27
 70
0
 10
154.1944120679
 20
99.6464070707
 10
154.1851616643
 20
99.6777578113
 10
154.1741370323
 20
99.7101722288
 10
154.1613932492
 20
99.7429717581
 10
154.1468357637
 20
99.7760411671
 10
154.1303532942
 20
99.8093002094
 10
154.112149646
 20
99.8421144986
 10
154.0923414339
 20
99.8741860607
 10
154.0708070311
 20
99.9056300055
 10
154.0474656381
 20
99.936441131
 10
154.0222843943
 20
99.9665268967
 10
153.9952810429
 20
99.995736376
 10
153.9664471164
 20
100.0239559215
 10
153.935793894
 20
100.051053972
 10
153.9033444371
 20
100.0768935677
 10
153.8691190341
 20
100.1013441494
 10
153.8331597286
 20
100.1242629755
 10
153.7955172809
 20
100.1455074561
 10
153.7562389602
 20
100.1649409533
 10
153.7154002997
 20
100.18241635
 10
153.6730862202
 20
100.1977888699
 10
153.6293741608
 20
100.2109207001
 10
153.5843751667
 20
100.2216673322
 10
153.5382149569
 20
100.2298878269
 10
153.4910116723
 20
100.2354482481
 10
153.4429113316
 20
100.2382154464
 10
153.4210031812
 20
100.2385152064
  0
LWPOLYLINE
  5
35D
100
AcDbEntity
  8
0
100
AcDbPolyline
 62
7
  6
CONTINUOUS
 90
9
 70
0
 10
154.4226967446
 20
59.3861795157
 10
154.447797647
 20
59.437927752
 10
154.4937800618
 20
59.5492739611
 10
154.5328679452
 20
59.6632330091
 10
154.5651746039
 20
59.7797602931
 10
154.5903461973
 20
59.8974106691
 10
154.6082647784
 20
60.0157024224
 10
154.6190482942
 20
60.1351172677
 10
154.6226967446
 20
60.2556552049
  0
LWPOLYLINE
  5
35E
100
AcDbEntity
  8
ASSI
100
AcDbPolyline
 62
7
  6
CONTINUOUS
 90
9
 70
0
 10
154.4226967446
 20
59.3861795157
 10
154.447797647
 20
59.437927752
 10
154.4937800618
 20
59.5492739611
 10
154.5328679452
 20
59.6632330091
 10
154.5651746039
 20
59.7797602931
 10
154.5903461973
 20
59.8974106691
 10
154.6082647784
 20
60.0157024224
 10
154.6190482942
 20
60.1351172677
 10
154.6226967446
 20
60.2556552049
  0
LINE
  5
35F
100
AcDbEntity
  8
26814000
100
AcDbLine
 62
7
  6
CONTINUOUS
 10
151.5814234893
 20
55.842961509
 11
151.5726967446
 21
55.8298712073
  0
LINE
  5
360
100
AcDbEntity
  8
26814000
100
AcDbLine
 62
7
  6
CONTINUOUS
 10
132.1226967446
 20
98.1835199559
 11
132.1726967446
 21
98.1835199559
  0
LINE
  5
361
100
AcDbEntity
  8
26814000
100
AcDbLine
 62
7
  6
CONTINUOUS
 10
154.3726967446
 20
98.1835199559
 11
154.4226967446
 21
98.1835199559
  0
LINE
  5
362
100
AcDbEntity
  8
26814000
100
AcDbLine
 62
7
  6
CONTINUOUS
 10
151.5726967446
 20
100.6298712073
 11
151.5814234893
 21
100.6167809056
  0
LWPOLYLINE
  5
363
100
AcDbEntity
  8
RACCORDO
100
AcDbPolyline
 62
250
  6
CONTINUOUS
 90
16
 70
0
 10
154.2043672338
 20
98.8610651759
 10
154.1979828719
 20
98.8751908358
 10
154.1831929013
 20
98.8891436387
 10
154.1601540244
 20
98.9027757519
 10
154.1291103428
 20
98.9159427406
 10
154.0903907703
 20
98.9285050979
 10
154.0444055484
 20
98.9403297231
 10
153.9916418995
 20
98.9512913321
 10
153.9326588649
 20
98.9612737844
 10
153.8680813814
 20
98.970171314
 10
153.79859366
 20
98.9778896498
 10
153.7249319369
 20
98.9843470146
 10
153.6478766725
 20
98.9894749914
 10
153.5682442823
 20
98.9932192483
 10
153.4868784872
 20
98.9955401142
 10
153.4046413738
 20
98.9964129991
  0
LWPOLYLINE
  5
364
100
AcDbEntity
  8
RACCORDO
100
AcDbPolyline
 62
250
  6
CONTINUOUS
 90
20
 70
0
 10
154.2224949829
 20
99.4374978
 10
154.2211877978
 20
99.4404899989
 10
154.2198991127
 20
99.4399767346
 10
154.2186289274
 20
99.4359580069
 10
154.2173704552
 20
99.4283812824
 10
154.2161304829
 20
99.4172990947
 10
154.2149293715
 20
99.4028690437
 10
154.2137681698
 20
99.38503608
 10
154.2126458289
 20
99.3638552532
 10
154.2115795636
 20
99.3396493122
 10
154.2105703993
 20
99.3123767719
 10
154.2096173105
 20
99.2820791176
 10
154.2087344351
 20
99.249203554
 10
154.2079226611
 20
99.2137026109
 10
154.2071811005
 20
99.1756237587
 10
154.2065212267
 20
99.135556613
 10
154.205944387
 20
99.0934574769
 10
154.2054492342
 20
99.0493700475
 10
154.2050431994
 20
99.0040150319
 10
154.2045034377
 20
98.909982714
  0
LINE
  5
365
100
AcDbEntity
  8
RACCORDO
100
AcDbLine
 62
250
  6
CONTINUOUS
 10
153.4046413738
 20
98.9964130039
 11
133.1407521154
 21
98.9964130039
  0
LINE
  5
366
100
AcDbEntity
  8
26814000
100
AcDbLine
 62
7
  6
CONTINUOUS
 10
151.5857953233
 20
53.842969786
 11
151.5726967446
 21
53.8298712073
  0
LWPOLYLINE
  5
367
100
AcDbEntity
  8
RACCORDO
100
AcDbPolyline
 62
7
  6
CONTINUOUS
 90
28
 70
0
 10
133.1243903016
 20
100.238515206
 10
133.1030706181
 20
100.2382313384
 10
133.0552461016
 20
100.2355236509
 10
133.0083020458
 20
100.23005331
 10
132.9623826487
 20
100.2219505165
 10
132.9176056132
 20
100.2113465992
 10
132.874094975
 20
100.1983796567
 10
132.8319604622
 20
100.1831913339
 10
132.7912799618
 20
100.1659173149
 10
132.7521376535
 20
100.1466998428
 10
132.714608398
 20
100.1256834301
 10
132.6787401929
 20
100.1030029874
 10
132.6445835124
 20
100.0787987948
 10
132.6121804666
 20
100.0532114403
 10
132.5815526401
 20
100.0263704848
 10
132.5527227016
 20
99.9984104501
 10
132.5257029043
 20
99.9694616908
 10
132.5004877594
 20
99.9396394757
 10
132.477093904
 20
99.9090915632
 10
132.4554901341
 20
99.8779112706
 10
132.4356011456
 20
99.8461129268
 10
132.4173147124
 20
99.8136040178
 10
132.4007338841
 20
99.780660784
 10
132.3860409451
 20
99.7478584345
 10
132.3731315408
 20
99.7152736901
 10
132.3619196185
 20
99.683022574
 10
132.3524573668
 20
99.6517316723
 10
132.2006777742
 20
99.0962557739
  0
LINE
  5
368
100
AcDbEntity
  8
26814000
100
AcDbLine
 62
7
  6
CONTINUOUS
 10
132.1226967446
 20
100.0886689623
 11
132.6585121802
 21
100.0886689623
  0
LINE
  5
369
100
AcDbEntity
  8
26814000
100
AcDbLine
 62
7
  6
CONTINUOUS
 10
153.8868614908
 20
100.0886689623
 11
154.4226967446
 21
100.0886689623
  0
LINE
  5
36A
100
AcDbEntity
  8
26814000
100
AcDbLine
 62
7
  6
CONTINUOUS
 10
132.1226967446
 20
100.2298712073
 11
133.0072700504
 21
100.2298712073
  0
LINE
  5
36B
100
AcDbEntity
  8
26814000
100
AcDbLine
 62
7
  6
CONTINUOUS
 10
153.5383082798
 20
100.2298712073
 11
154.4226967446
 21
100.2298712073
  0
LINE
  5
36C
100
AcDbEntity
  8
RACCORDO
100
AcDbLine
 62
7
  6
CONTINUOUS
 10
153.4210248058
 20
100.2385314722
 11
133.1243686835
 21
100.2385314722
  0
LINE
  5
36D
100
AcDbEntity
  8
26814000
100
AcDbLine
 62
7
  6
CONTINUOUS
 10
154.0726967446
 20
100.6080540379
 11
132.4726967446
 21
100.6080540379
  0
LINE
  5
36E
100
AcDbEntity
  8
26814000
100
AcDbLine
 62
7
  6
CONTINUOUS
 10
153.8639699999
 20
100.6167809056
 11
151.5814234893
 21
100.6167809056
  0
LINE
  5
36F
100
AcDbEntity
  8
26814000
100
AcDbLine
 62
7
  6
CONTINUOUS
 10
134.9639699999
 20
100.6167809056
 11
132.6814234893
 21
100.6167809056
  0
LINE
  5
370
100
AcDbEntity
  8
26814000
100
AcDbLine
 62
7
  6
CONTINUOUS
 10
139.1767743025
 20
100.6211443395
 11
147.3686191867
 21
100.6211443395
  0
LINE
  5
371
100
AcDbEntity
  8
26814000
100
AcDbLine
 62
7
  6
CONTINUOUS
 10
132.4726967446
 20
100.6298712073
 11
132.6726967446
 21
100.6298712073
  0
LINE
  5
372
100
AcDbEntity
  8
26814000
100
AcDbLine
 62
7
  6
CONTINUOUS
 10
134.9726967446
 20
100.6298712073
 11
138.8726967446
 21
100.6298712073
  0
LINE
  5
373
100
AcDbEntity
  8
26814000
100
AcDbLine
 62
7
  6
CONTINUOUS
 10
147.6726967446
 20
100.6298712073
 11
151.5726967446
 21
100.6298712073
  0
LINE
  5
374
100
AcDbEntity
  8
26814000
100
AcDbLine
 62
7
  6
CONTINUOUS
 10
153.8726967446
 20
100.6298712073
 11
154.0726967446
 21
100.6298712073
  0
LINE
  5
375
100
AcDbEntity
  8
26814000
100
AcDbLine
 62
7
  6
CONTINUOUS
 10
153.8639699999
 20
101.3525209381
 11
151.5814234893
 21
101.3525209381
  0
LINE
  5
376
100
AcDbEntity
  8
26814000
100
AcDbLine
 62
7
  6
CONTINUOUS
 10
134.9639699999
 20
101.3525209381
 11
132.6814234893
 21
101.3525209381
  0
LINE
  5
377
100
AcDbEntity
  8
26814000
100
AcDbLine
 62
7
  6
CONTINUOUS
 10
151.5857953233
 20
102.6167726286
 11
151.5726967446
 21
102.6298712073
  0
LINE
  5
378
100
AcDbEntity
  8
26814000
100
AcDbLine
 62
250
  6
CONTINUOUS
 10
132.6865140904
 20
101.8577024237
 11
134.9588793988
 21
101.8577024237
  0
LINE
  5
379
100
AcDbEntity
  8
26814000
100
AcDbLine
 62
250
  6
CONTINUOUS
 10
151.5865140904
 20
101.8577024237
 11
153.8588793988
 21
101.8577024237
  0
LINE
  5
37A
100
AcDbEntity
  8
26814000
100
AcDbLine
 62
7
  6
CONTINUOUS
 10
139.1767743025
 20
102.0240533775
 11
147.3686191867
 21
102.0240533775
  0
LINE
  5
37B
100
AcDbEntity
  8
26814000
100
AcDbLine
 62
7
  6
CONTINUOUS
 10
138.8726967446
 20
102.0298712073
 11
147.6726967446
 21
102.0298712073
  0
LINE
  5
37C
100
AcDbEntity
  8
26814000
100
AcDbLine
 62
250
  6
CONTINUOUS
 10
132.6872413192
 20
102.0742087746
 11
134.9581521701
 21
102.0742087746
  0
LINE
  5
37D
100
AcDbEntity
  8
26814000
100
AcDbLine
 62
250
  6
CONTINUOUS
 10
151.5872413192
 20
102.0742087746
 11
153.8581521701
 21
102.0742087746
  0
LINE
  5
37E
100
AcDbEntity
  8
26814000
100
AcDbLine
 62
250
  6
CONTINUOUS
 10
153.8581521701
 20
102.3667768594
 11
151.5872413192
 21
102.3667768594
  0
LINE
  5
37F
100
AcDbEntity
  8
26814000
100
AcDbLine
 62
250
  6
CONTINUOUS
 10
134.9581521701
 20
102.3667768594
 11
132.6872413192
 21
102.3667768594
  0
LINE
  5
380
100
AcDbEntity
  8
26814000
100
AcDbLine
 62
250
  6
CONTINUOUS
 10
153.8595981659
 20
102.6167726286
 11
151.5857953233
 21
102.6167726286
  0
LINE
  5
381
100
AcDbEntity
  8
26814000
100
AcDbLine
 62
250
  6
CONTINUOUS
 10
134.9595981659
 20
102.6167726286
 11
132.6857953233
 21
102.6167726286
  0
LINE
  5
382
100
AcDbEntity
  8
26814000
100
AcDbLine
 62
7
  6
CONTINUOUS
 10
132.6726967446
 20
102.6298712073
 11
134.9726967446
 21
102.6298712073
  0
LINE
  5
383
100
AcDbEntity
  8
26814000
100
AcDbLine
 62
7
  6
CONTINUOUS
 10
151.5726967446
 20
102.6298712073
 11
153.8726967446
 21
102.6298712073
  0
LWPOLYLINE
  5
384
100
AcDbEntity
  8
0
100
AcDbPolyline
 62
7
  6
CONTINUOUS
 90
7
 70
0
 43
0.3500000006
 10
142.8441295166
 20
111.3798714294
 10
141.3441290588
 20
111.3798714294
 10
142.8441295166
 20
113.5227253418
 10
142.8441295166
 20
113.9513033752
 10
142.4155514832
 20
114.379872345
 10
141.7726980286
 20
114.379872345
 10
141.3441290588
 20
113.7370098267
  0
LWPOLYLINE
  5
385
100
AcDbEntity
  8
0
100
AcDbPolyline
 62
7
  6
CONTINUOUS
 90
7
 70
0
 43
0.3500000006
 10
140.4869820557
 20
111.3798714294
 10
138.9869815979
 20
111.3798714294
 10
140.4869820557
 20
113.5227253418
 10
140.4869820557
 20
113.9513033752
 10
140.0584130859
 20
114.379872345
 10
139.4155505676
 20
114.379872345
 10
138.9869815979
 20
113.7370098267
  0
LWPOLYLINE
  5
386
100
AcDbEntity
  8
0
100
AcDbPolyline
 62
7
  6
CONTINUOUS
 90
6
 70
0
 43
0.3500000006
 10
145.4155523987
 20
111.3798714294
 10
146.4869838867
 20
111.3798714294
 10
146.7012683716
 20
111.5941559143
 10
146.7012683716
 20
112.6655874023
 10
146.2726994019
 20
113.0941563721
 10
145.8441213684
 20
113.0941563721
  0
LWPOLYLINE
  5
387
100
AcDbEntity
  8
0
100
AcDbPolyline
 62
7
  6
CONTINUOUS
 90
3
 70
0
 43
0.3500000006
 10
102.3187115479
 20
120.7657167664
 10
103.1758494873
 20
121.6228637695
 10
103.1758494873
 20
118.622862854
  0
LINE
  5
388
100
AcDbEntity
  8
26814000
100
AcDbLine
 62
7
  6
CONTINUOUS
 10
93.1681100009
 20
101.8577024237
 11
92.4181100009
 21
101.4246897218
  0
LINE
  5
389
100
AcDbEntity
  8
ASSI
100
AcDbLine
 62
250
  6
CONTINUOUS
 10
112.9513862191
 20
57.1730724459
 11
112.8893968734
 21
57.1563046691
  0
LINE
  5
38A
100
AcDbEntity
  8
0
100
AcDbLine
 62
250
  6
CONTINUOUS
 10
112.9513862191
 20
57.1730724459
 11
112.8893968734
 21
57.1563046691
  0
LWPOLYLINE
  5
38B
100
AcDbEntity
  8
ASSI
100
AcDbPolyline
 62
250
  6
CONTINUOUS
 90
3
 70
0
 10
112.8893968734
 20
57.1563046691
 10
112.7714705059
 20
57.1244175032
 10
112.7155345378
 20
57.1092885105
  0
LWPOLYLINE
  5
38C
100
AcDbEntity
  8
0
100
AcDbPolyline
 62
250
  6
CONTINUOUS
 90
3
 70
0
 10
112.8893968734
 20
57.1563046691
 10
112.7714705059
 20
57.1244175032
 10
112.7155345378
 20
57.1092885105
  0
LWPOLYLINE
  5
38D
100
AcDbEntity
  8
ASSI
100
AcDbPolyline
 62
250
  6
CONTINUOUS
 90
3
 70
0
 10
112.7155345378
 20
57.1092885105
 10
112.608817444
 20
57.0804356504
 10
112.5580371553
 20
57.066702704
  0
LWPOLYLINE
  5
38E
100
AcDbEntity
  8
0
100
AcDbPolyline
 62
250
  6
CONTINUOUS
 90
3
 70
0
 10
112.7155345378
 20
57.1092885105
 10
112.608817444
 20
57.0804356504
 10
112.5580371553
 20
57.066702704
  0
LINE
  5
38F
100
AcDbEntity
  8
ASSI
100
AcDbLine
 62
250
  6
CONTINUOUS
 10
114.2847855629
 20
57.5338283195
 11
112.9513862191
 21
57.1730724459
  0
LINE
  5
390
100
AcDbEntity
  8
0
100
AcDbLine
 62
250
  6
CONTINUOUS
 10
114.2847855629
 20
57.5338283195
 11
112.9513862191
 21
57.1730724459
  0
LWPOLYLINE
  5
391
100
AcDbEntity
  8
ASSI
100
AcDbPolyline
 62
250
  6
CONTINUOUS
 90
3
 70
0
 10
112.5580371553
 20
57.066702704
 10
112.090165827
 20
56.9402333273
 10
112.0547696018
 20
56.9306656943
  0
LWPOLYLINE
  5
392
100
AcDbEntity
  8
0
100
AcDbPolyline
 62
250
  6
CONTINUOUS
 90
3
 70
0
 10
112.5580371553
 20
57.066702704
 10
112.090165827
 20
56.9402333273
 10
112.0547696018
 20
56.9306656943
  0
LWPOLYLINE
  5
393
100
AcDbEntity
  8
ASSI
100
AcDbPolyline
 62
250
  6
CONTINUOUS
 90
3
 70
0
 10
112.0547696018
 20
56.9306656943
 10
111.9868596402
 20
56.9123171945
 10
111.9543462579
 20
56.9035301613
  0
LWPOLYLINE
  5
394
100
AcDbEntity
  8
0
100
AcDbPolyline
 62
250
  6
CONTINUOUS
 90
3
 70
0
 10
112.0547696018
 20
56.9306656943
 10
111.9868596402
 20
56.9123171945
 10
111.9543462579
 20
56.9035301613
  0
LWPOLYLINE
  5
395
100
AcDbEntity
  8
ASSI
100
AcDbPolyline
 62
250
  6
CONTINUOUS
 90
3
 70
0
 10
111.9543462579
 20
56.9035301613
 10
111.7249207623
 20
56.8415562066
 10
111.6998590991
 20
56.8347860776
  0
LWPOLYLINE
  5
396
100
AcDbEntity
  8
0
100
AcDbPolyline
 62
250
  6
CONTINUOUS
 90
3
 70
0
 10
111.9543462579
 20
56.9035301613
 10
111.7249207623
 20
56.8415562066
 10
111.6998590991
 20
56.8347860776
  0
LWPOLYLINE
  5
397
100
AcDbEntity
  8
ASSI
100
AcDbPolyline
 62
250
  6
CONTINUOUS
 90
4
 70
0
 10
111.6998590991
 20
56.8347860776
 10
111.4878655156
 20
56.7775564148
 10
111.4701534163
 20
56.7727780664
 10
111.4530185036
 20
56.7681535303
  0
LWPOLYLINE
  5
398
100
AcDbEntity
  8
0
100
AcDbPolyline
 62
250
  6
CONTINUOUS
 90
4
 70
0
 10
111.6998590991
 20
56.8347860776
 10
111.4878655156
 20
56.7775564148
 10
111.4701534163
 20
56.7727780664
 10
111.4530185036
 20
56.7681535303
  0
LINE
  5
399
100
AcDbEntity
  8
ASSI
100
AcDbLine
 62
250
  6
CONTINUOUS
 10
111.4530185036
 20
56.7681535303
 11
111.3895453508
 21
56.7510315593
  0
LINE
  5
39A
100
AcDbEntity
  8
0
100
AcDbLine
 62
250
  6
CONTINUOUS
 10
111.4530185036
 20
56.7681535303
 11
111.3895453508
 21
56.7510315593
  0
LINE
  5
39B
100
AcDbEntity
  8
ASSI
100
AcDbLine
 62
250
  6
CONTINUOUS
 10
111.3895453508
 20
56.7510315593
 11
111.3332577054
 21
56.7358552567
  0
LINE
  5
39C
100
AcDbEntity
  8
0
100
AcDbLine
 62
250
  6
CONTINUOUS
 10
111.3895453508
 20
56.7510315593
 11
111.3332577054
 21
56.7358552567
  0
LINE
  5
39D
100
AcDbEntity
  8
ASSI
100
AcDbLine
 62
250
  6
CONTINUOUS
 10
111.3332577054
 20
56.7358552567
 11
111.1596758519
 21
56.689144393
  0
LINE
  5
39E
100
AcDbEntity
  8
0
100
AcDbLine
 62
250
  6
CONTINUOUS
 10
111.3332577054
 20
56.7358552567
 11
111.1596758519
 21
56.689144393
  0
LWPOLYLINE
  5
39F
100
AcDbEntity
  8
ASSI
100
AcDbPolyline
 62
250
  6
CONTINUOUS
 90
7
 70
0
 10
111.1596758519
 20
56.689144393
 10
111.1510373627
 20
56.686952697
 10
111.1423788237
 20
56.6849992353
 10
111.133700298
 20
56.6832845449
 10
111.1250004112
 20
56.6818092217
 10
111.1162806689
 20
56.6805734662
 10
111.1075454506
 20
56.6795773937
  0
LWPOLYLINE
  5
3A0
100
AcDbEntity
  8
0
100
AcDbPolyline
 62
250
  6
CONTINUOUS
 90
7
 70
0
 10
111.1596758519
 20
56.689144393
 10
111.1510373627
 20
56.686952697
 10
111.1423788237
 20
56.6849992353
 10
111.133700298
 20
56.6832845449
 10
111.1250004112
 20
56.6818092217
 10
111.1162806689
 20
56.6805734662
 10
111.1075454506
 20
56.6795773937
  0
LINE
  5
3A1
100
AcDbEntity
  8
26814000
100
AcDbLine
 62
7
  6
CONTINUOUS
 10
92.2931100009
 20
53.8298712073
 11
93.0445644337
 21
53.8342430413
  0
LINE
  5
3A2
100
AcDbEntity
  8
26814000
100
AcDbLine
 62
7
  6
CONTINUOUS
 10
93.2880136788
 20
54.4356593876
 11
100.2931100009
 21
54.4764138458
  0
LINE
  5
3A3
100
AcDbEntity
  8
26814000
100
AcDbLine
 62
7
  6
CONTINUOUS
 10
90.0416555681
 20
53.842969786
 11
92.2931100009
 21
53.8298712073
  0
LINE
  5
3A4
100
AcDbEntity
  8
RACCORDO
100
AcDbLine
 62
7
  6
CONTINUOUS
 10
80.2591980136
 20
56.8703423522
 11
85.9446461012
 21
56.2225673659
  0
LINE
  5
3A5
100
AcDbEntity
  8
26814000
100
AcDbLine
 62
7
  6
CONTINUOUS
 10
92.4181100009
 20
55.0350526929
 11
93.1681100009
 21
54.602039991
  0
LINE
  5
3A6
100
AcDbEntity
  8
ASSI
100
AcDbLine
 62
7
  6
CONTINUOUS
 10
111.1438569023
 20
56.6791250497
 11
115.7449498443
 21
57.4863343378
  0
LINE
  5
3A7
100
AcDbEntity
  8
0
100
AcDbLine
 62
7
  6
CONTINUOUS
 10
111.1438569023
 20
56.6791250497
 11
115.7449498443
 21
57.4863343378
  0
LINE
  5
3A8
100
AcDbEntity
  8
ASSI
100
AcDbLine
 62
250
  6
CONTINUOUS
 10
115.6983457228
 20
57.7818214451
 11
114.2847848342
 21
57.5338283068
  0
LINE
  5
3A9
100
AcDbEntity
  8
0
100
AcDbLine
 62
250
  6
CONTINUOUS
 10
115.6983457228
 20
57.7818214451
 11
114.2847848342
 21
57.5338283068
  0
LWPOLYLINE
  5
3AA
100
AcDbEntity
  8
ASSI
100
AcDbPolyline
 62
250
  6
CONTINUOUS
 90
4
 70
0
 10
111.1075454506
 20
56.6795773937
 10
111.0987962564
 20
56.6788214956
 10
111.0900317132
 20
56.6783063279
 10
111.0812518873
 20
56.6780322751
  0
LWPOLYLINE
  5
3AB
100
AcDbEntity
  8
0
100
AcDbPolyline
 62
250
  6
CONTINUOUS
 90
4
 70
0
 10
111.1075454506
 20
56.6795773937
 10
111.0987962564
 20
56.6788214956
 10
111.0900317132
 20
56.6783063279
 10
111.0812518873
 20
56.6780322751
  0
LINE
  5
3AC
100
AcDbEntity
  8
ASSI
100
AcDbLine
 62
250
  6
CONTINUOUS
 10
105.5940999663
 20
57.3684731375
 11
105.5931100009
 21
57.3683942126
  0
LINE
  5
3AD
100
AcDbEntity
  8
0
100
AcDbLine
 62
250
  6
CONTINUOUS
 10
105.5940999663
 20
57.3684731375
 11
105.5931100009
 21
57.3683942126
  0
LWPOLYLINE
  5
3AE
100
AcDbEntity
  8
ASSI
100
AcDbPolyline
 62
250
  6
CONTINUOUS
 90
15
 70
0
 10
104.8070719261
 20
56.7861423562
 10
104.8896815059
 20
56.790623862
 10
104.9712563891
 20
56.8017621196
 10
105.0509225571
 20
56.8194377905
 10
105.1278264423
 20
56.843461492
 10
105.2011440727
 20
56.8735758268
 10
105.2700899009
 20
56.9094581406
 10
105.33392522
 20
56.9507239795
 10
105.3919660788
 20
56.9969312084
 10
105.4435906097
 20
57.047584749
 10
105.4882456918
 20
57.1021418836
 10
105.5254528766
 20
57.1600180704
 10
105.5548135151
 20
57.2205932062
 10
105.5760130283
 20
57.2832182703
 10
105.5888242781
 20
57.3472222786
  0
LWPOLYLINE
  5
3AF
100
AcDbEntity
  8
0
100
AcDbPolyline
 62
250
  6
CONTINUOUS
 90
15
 70
0
 10
104.8070719261
 20
56.7861423562
 10
104.8896815059
 20
56.790623862
 10
104.9712563891
 20
56.8017621196
 10
105.0509225571
 20
56.8194377905
 10
105.1278264423
 20
56.843461492
 10
105.2011440727
 20
56.8735758268
 10
105.2700899009
 20
56.9094581406
 10
105.33392522
 20
56.9507239795
 10
105.3919660788
 20
56.9969312084
 10
105.4435906097
 20
57.047584749
 10
105.4882456918
 20
57.1021418836
 10
105.5254528766
 20
57.1600180704
 10
105.5548135151
 20
57.2205932062
 10
105.5760130283
 20
57.2832182703
 10
105.5888242781
 20
57.3472222786
  0
LWPOLYLINE
  5
3B0
100
AcDbEntity
  8
ASSI
100
AcDbPolyline
 62
250
  6
CONTINUOUS
 90
15
 70
0
 10
104.8070719261
 20
57.0601046399
 10
104.8759612798
 20
57.0633747693
 10
104.944234011
 20
57.0712779215
 10
105.0113819982
 20
57.083755277
 10
105.0769054911
 20
57.1007139729
 10
105.1403168293
 20
57.1220277936
 10
105.2011440727
 20
57.1475381105
 10
105.258934513
 20
57.1770550625
 10
105.3132580436
 20
57.210358969
 10
105.3637103602
 20
57.2472019649
 10
105.4099159704
 20
57.2873098454
 10
105.4515309879
 20
57.3303841066
 10
105.4882456918
 20
57.3761041673
 10
105.5197868322
 20
57.4241297549
 10
105.5459196633
 20
57.4741034379
  0
LWPOLYLINE
  5
3B1
100
AcDbEntity
  8
0
100
AcDbPolyline
 62
250
  6
CONTINUOUS
 90
15
 70
0
 10
104.8070719261
 20
57.0601046399
 10
104.8759612798
 20
57.0633747693
 10
104.944234011
 20
57.0712779215
 10
105.0113819982
 20
57.083755277
 10
105.0769054911
 20
57.1007139729
 10
105.1403168293
 20
57.1220277936
 10
105.2011440727
 20
57.1475381105
 10
105.258934513
 20
57.1770550625
 10
105.3132580436
 20
57.210358969
 10
105.3637103602
 20
57.2472019649
 10
105.4099159704
 20
57.2873098454
 10
105.4515309879
 20
57.3303841066
 10
105.4882456918
 20
57.3761041673
 10
105.5197868322
 20
57.4241297549
 10
105.5459196633
 20
57.4741034379
  0
LINE
  5
3B2
100
AcDbEntity
  8
ASSI
100
AcDbLine
 62
7
  6
CONTINUOUS
 10
104.8070719261
 20
56.5685160565
 11
104.8169524237
 21
56.5687495797
  0
LINE
  5
3B3
100
AcDbEntity
  8
0
100
AcDbLine
 62
7
  6
CONTINUOUS
 10
104.8070719261
 20
56.5685160565
 11
104.8169524237
 21
56.5687495797
  0
LINE
  5
3B4
100
AcDbEntity
  8
ASSI
100
AcDbLine
 62
7
  6
CONTINUOUS
 10
103.5931100009
 20
56.5473262723
 11
111.1438569023
 21
56.6791250497
  0
LINE
  5
3B5
100
AcDbEntity
  8
0
100
AcDbLine
 62
7
  6
CONTINUOUS
 10
103.5931100009
 20
56.5473262723
 11
111.1438569023
 21
56.6791250497
  0
LINE
  5
3B6
100
AcDbEntity
  8
ASSI
100
AcDbLine
 62
250
  6
CONTINUOUS
 10
103.5931100009
 20
56.7649525719
 11
104.8070719261
 21
56.7861423562
  0
LINE
  5
3B7
100
AcDbEntity
  8
0
100
AcDbLine
 62
250
  6
CONTINUOUS
 10
103.5931100009
 20
56.7649525719
 11
104.8070719261
 21
56.7861423562
  0
LINE
  5
3B8
100
AcDbEntity
  8
ASSI
100
AcDbLine
 62
250
  6
CONTINUOUS
 10
103.5931100009
 20
57.0435270124
 11
104.8070719261
 21
57.0601046399
  0
LINE
  5
3B9
100
AcDbEntity
  8
0
100
AcDbLine
 62
250
  6
CONTINUOUS
 10
103.5931100009
 20
57.0435270124
 11
104.8070719261
 21
57.0601046399
  0
LINE
  5
3BA
100
AcDbEntity
  8
26814000
100
AcDbLine
 62
7
  6
CONTINUOUS
 10
92.2931100009
 20
55.8298712073
 11
102.3018365364
 21
55.9172160406
  0
LINE
  5
3BB
100
AcDbEntity
  8
26814000
100
AcDbLine
 62
250
  6
CONTINUOUS
 10
93.2931100009
 20
55.9264774643
 11
102.7109685622
 21
56.0086658708
  0
LINE
  5
3BC
100
AcDbEntity
  8
26814000
100
AcDbLine
 62
250
  6
CONTINUOUS
 10
92.2931100009
 20
56.1798845348
 11
93.2931100009
 21
56.1886114026
  0
LINE
  5
3BD
100
AcDbEntity
  8
26814000
100
AcDbLine
 62
7
  6
CONTINUOUS
 10
89.7931100009
 20
55.8516883768
 11
92.2931100009
 21
55.8298712073
  0
LINE
  5
3BE
100
AcDbEntity
  8
26814000
100
AcDbLine
 62
250
  6
CONTINUOUS
 10
89.7931100009
 20
56.2017017042
 11
92.2931100009
 21
56.1798845348
  0
LINE
  5
3BF
100
AcDbEntity
  8
26814000
100
AcDbLine
 62
250
  6
CONTINUOUS
 10
93.2931100009
 20
56.7419575433
 11
103.208943676
 21
56.5688760227
  0
LINE
  5
3C0
100
AcDbEntity
  8
26814000
100
AcDbLine
 62
250
  6
CONTINUOUS
 10
93.2931100009
 20
56.9541809675
 11
102.9983457228
 21
56.7847754478
  0
LINE
  5
3C1
100
AcDbEntity
  8
28414000
100
AcDbLine
 62
7
  6
CONTINUOUS
 10
86.9914322282
 20
56.6152998503
 11
87.4886931759
 21
56.5630356187
  0
LINE
  5
3C2
100
AcDbEntity
  8
28414000
100
AcDbLine
 62
7
  6
CONTINUOUS
 10
86.1118916425
 20
57.8138023985
 11
86.7082395339
 21
57.7511237094
  0
LINE
  5
3C3
100
AcDbEntity
  8
RACCORDO
100
AcDbLine
 62
250
  6
CONTINUOUS
 10
80.328933746
 20
57.6673888257
 11
86.028252953
 21
57.0180334249
  0
LINE
  5
3C4
100
AcDbEntity
  8
28414000
100
AcDbLine
 62
7
  6
CONTINUOUS
 10
86.855720958
 20
58.8587651304
 11
86.2373257984
 21
59.0072286729
  0
LWPOLYLINE
  5
3C5
100
AcDbEntity
  8
RACCORDO
100
AcDbPolyline
 62
250
  6
CONTINUOUS
 90
22
 70
0
 10
79.7086463304
 20
58.3885454578
 10
79.708616895
 20
58.338580417
 10
79.7120660554
 20
58.2891640963
 10
79.7189938115
 20
58.2402964957
 10
79.7294682622
 20
58.191715137
 10
79.7434213087
 20
58.1436824984
 10
79.7606486548
 20
58.0969860138
 10
79.7812032328
 20
58.0516632463
 10
79.8050321105
 20
58.0076766328
 10
79.8317721947
 20
57.9657009176
 10
79.8614628356
 20
57.9257735082
 10
79.894064683
 20
57.8878569972
 10
79.9290965935
 20
57.8525139066
 10
79.9666042393
 20
57.8197760894
 10
80.0065419481
 20
57.7896116927
 10
80.0482915598
 20
57.76248768
 10
80.0918940256
 20
57.7384536604
 10
80.1373083944
 20
57.7174600248
 10
80.1837936521
 20
57.6998249099
 10
80.2311027944
 20
57.6856543611
 10
80.2794828257
 20
57.6748423331
 10
80.328933746
 20
57.6673888257
  0
LWPOLYLINE
  5
3C6
100
AcDbEntity
  8
RACCORDO
100
AcDbPolyline
 62
250
  6
CONTINUOUS
 90
13
 70
0
 10
83.9624795646
 20
98.8610651759
 10
83.3978669335
 20
95.5137432435
 10
82.8713780344
 20
92.1610925817
 10
82.3830128674
 20
88.8031131904
 10
81.9327181354
 20
85.439370078
 10
81.5205471354
 20
82.0702982362
 10
81.1466597591
 20
78.6972026399
 10
80.8110709721
 20
75.3200810478
 10
80.5137658087
 20
71.9389357011
 10
80.2548592634
 20
68.5550782989
 10
80.0343896677
 20
65.1689460741
 10
79.85231869
 20
61.7801017937
 10
79.7086463304
 20
58.3885454578
  0
LINE
  5
3C7
100
AcDbEntity
  8
26814000
100
AcDbLine
 62
7
  6
CONTINUOUS
 10
90.9431100009
 20
56.3710734524
 11
89.7931100009
 21
56.2298712073
  0
LINE
  5
3C8
100
AcDbEntity
  8
ASSI
100
AcDbLine
 62
250
  6
CONTINUOUS
 10
105.887874279
 20
57.3872596879
 11
105.5940999663
 21
57.3684731375
  0
LINE
  5
3C9
100
AcDbEntity
  8
0
100
AcDbLine
 62
250
  6
CONTINUOUS
 10
105.887874279
 20
57.3872596879
 11
105.5940999663
 21
57.3684731375
  0
LWPOLYLINE
  5
3CA
100
AcDbEntity
  8
ASSI
100
AcDbPolyline
 62
250
  6
CONTINUOUS
 90
16
 70
0
 10
104.8070719261
 20
58.9471420841
 10
104.8896818428
 20
58.9509323064
 10
104.9712570167
 20
58.9603524607
 10
105.0509234215
 20
58.9753016087
 10
105.12782749
 20
58.9956195744
 10
105.2011452417
 20
59.0210886561
 10
105.270091114
 20
59.0514359551
 10
105.3339264048
 20
59.08633631
 10
105.3919671738
 20
59.1254157791
 10
105.4435915576
 20
59.1682556377
 10
105.4882464521
 20
59.2143968769
 10
105.5254534311
 20
59.2633451201
 10
105.5548138652
 20
59.3145759123
 10
105.5760132004
 20
59.3675403474
 10
105.5888243252
 20
59.4216709498
 10
105.5931100009
 20
59.4763877507
  0
LWPOLYLINE
  5
3CB
100
AcDbEntity
  8
0
100
AcDbPolyline
 62
250
  6
CONTINUOUS
 90
16
 70
0
 10
104.8070719261
 20
58.9471420841
 10
104.8896818428
 20
58.9509323064
 10
104.9712570167
 20
58.9603524607
 10
105.0509234215
 20
58.9753016087
 10
105.12782749
 20
58.9956195744
 10
105.2011452417
 20
59.0210886561
 10
105.270091114
 20
59.0514359551
 10
105.3339264048
 20
59.08633631
 10
105.3919671738
 20
59.1254157791
 10
105.4435915576
 20
59.1682556377
 10
105.4882464521
 20
59.2143968769
 10
105.5254534311
 20
59.2633451201
 10
105.5548138652
 20
59.3145759123
 10
105.5760132004
 20
59.3675403474
 10
105.5888243252
 20
59.4216709498
 10
105.5931100009
 20
59.4763877507
  0
LINE
  5
3CC
100
AcDbEntity
  8
ASSI
100
AcDbLine
 62
250
  6
CONTINUOUS
 10
102.5931100009
 20
58.4077805098
 11
103.5931100009
 21
58.4331859612
  0
LINE
  5
3CD
100
AcDbEntity
  8
0
100
AcDbLine
 62
250
  6
CONTINUOUS
 10
102.5931100009
 20
58.4077805098
 11
103.5931100009
 21
58.4331859612
  0
LINE
  5
3CE
100
AcDbEntity
  8
ASSI
100
AcDbLine
 62
7
  6
CONTINUOUS
 10
102.5931100009
 20
58.3161163233
 11
103.5931100009
 21
58.3412672192
  0
LINE
  5
3CF
100
AcDbEntity
  8
0
100
AcDbLine
 62
7
  6
CONTINUOUS
 10
102.5931100009
 20
58.3161163233
 11
103.5931100009
 21
58.3412672192
  0
LINE
  5
3D0
100
AcDbEntity
  8
ASSI
100
AcDbLine
 62
250
  6
CONTINUOUS
 10
114.2847848342
 20
57.5338283068
 11
105.887874279
 21
57.3872596879
  0
LINE
  5
3D1
100
AcDbEntity
  8
0
100
AcDbLine
 62
250
  6
CONTINUOUS
 10
114.2847848342
 20
57.5338283068
 11
105.887874279
 21
57.3872596879
  0
LINE
  5
3D2
100
AcDbEntity
  8
ASSI
100
AcDbLine
 62
7
  6
CONTINUOUS
 10
105.887874279
 20
58.5350163369
 11
110.3966004822
 21
58.6137164456
  0
LINE
  5
3D3
100
AcDbEntity
  8
0
100
AcDbLine
 62
7
  6
CONTINUOUS
 10
105.887874279
 20
58.5350163369
 11
110.3966004822
 21
58.6137164456
  0
LINE
  5
3D4
100
AcDbEntity
  8
0
100
AcDbLine
 62
7
  6
CONTINUOUS
 10
93.2931100009
 20
57.3798712073
 11
102.3931100009
 21
57.4592857042
  0
LINE
  5
3D5
100
AcDbEntity
  8
0
100
AcDbLine
 62
250
  6
CONTINUOUS
 10
93.2931100009
 20
57.5263145514
 11
102.3931100009
 21
57.6057290483
  0
LINE
  5
3D6
100
AcDbEntity
  8
ASSI
100
AcDbLine
 62
250
  6
CONTINUOUS
 10
104.8070719261
 20
58.947142084
 11
102.5931100009
 21
58.9341449444
  0
LINE
  5
3D7
100
AcDbEntity
  8
0
100
AcDbLine
 62
250
  6
CONTINUOUS
 10
104.8070719261
 20
58.947142084
 11
102.5931100009
 21
58.9341449444
  0
LINE
  5
3D8
100
AcDbEntity
  8
26814000
100
AcDbLine
 62
250
  6
CONTINUOUS
 10
93.2931100009
 20
57.0298712073
 11
102.9983457228
 21
57.0298712073
  0
LINE
  5
3D9
100
AcDbEntity
  8
26814000
100
AcDbLine
 62
7
  6
CONTINUOUS
 10
93.2931100009
 20
57.3298712073
 11
103.2931100009
 21
57.3298712073
  0
LINE
  5
3DA
100
AcDbEntity
  8
ASSI
100
AcDbLine
 62
250
  6
CONTINUOUS
 10
115.9931100009
 20
57.7818214451
 11
115.6983457228
 21
57.7818214451
  0
LINE
  5
3DB
100
AcDbEntity
  8
0
100
AcDbLine
 62
250
  6
CONTINUOUS
 10
115.9931100009
 20
57.7818214451
 11
115.6983457228
 21
57.7818214451
  0
LINE
  5
3DC
100
AcDbEntity
  8
0
100
AcDbLine
 62
7
  6
CONTINUOUS
 10
102.3931100009
 20
57.8298712073
 11
103.4931100009
 21
57.8298712073
  0
LWPOLYLINE
  5
3DD
100
AcDbEntity
  8
RACCORDO
100
AcDbPolyline
 62
250
  6
CONTINUOUS
 90
3
 70
0
 10
78.9469335115
 20
58.4153488633
 10
78.934267741
 20
58.415668407
 10
78.9300273061
 20
58.4156773858
  0
LINE
  5
3DE
100
AcDbEntity
  8
RACCORDO
100
AcDbLine
 62
250
  6
CONTINUOUS
 10
78.9969164368
 20
58.4137948782
 11
78.9469335115
 21
58.4153488633
  0
LINE
  5
3DF
100
AcDbEntity
  8
RACCORDO
100
AcDbLine
 62
250
  6
CONTINUOUS
 10
79.1289267277
 20
58.409323366
 11
78.9969164368
 21
58.4137948782
  0
LINE
  5
3E0
100
AcDbEntity
  8
RACCORDO
100
AcDbLine
 62
250
  6
CONTINUOUS
 10
79.4666469711
 20
58.3973423595
 11
79.1289267277
 21
58.409323366
  0
LINE
  5
3E1
100
AcDbEntity
  8
RACCORDO
100
AcDbLine
 62
250
  6
CONTINUOUS
 10
79.7086463304
 20
58.3885454578
 11
79.4666469711
 21
58.3973423595
  0
LWPOLYLINE
  5
3E2
100
AcDbEntity
  8
ASSI
100
AcDbPolyline
 62
250
  6
CONTINUOUS
 90
10
 70
0
 10
111.1596758568
 20
56.6891443942
 10
111.1648251536
 20
56.6885322014
 10
111.169967884
 20
56.6880950504
 10
111.1751010161
 20
56.6878331989
 10
111.1802215238
 20
56.6877468014
 10
111.1853263881
 20
56.6878359087
 10
111.1904125992
 20
56.6881004683
 10
111.1954771585
 20
56.6885403243
 10
111.2005170804
 20
56.6891552174
 10
111.2055293934
 20
56.689944785
  0
LWPOLYLINE
  5
3E3
100
AcDbEntity
  8
0
100
AcDbPolyline
 62
250
  6
CONTINUOUS
 90
10
 70
0
 10
111.1596758568
 20
56.6891443942
 10
111.1648251536
 20
56.6885322014
 10
111.169967884
 20
56.6880950504
 10
111.1751010161
 20
56.6878331989
 10
111.1802215238
 20
56.6877468014
 10
111.1853263881
 20
56.6878359087
 10
111.1904125992
 20
56.6881004683
 10
111.1954771585
 20
56.6885403243
 10
111.2005170804
 20
56.6891552174
 10
111.2055293934
 20
56.689944785
  0
LWPOLYLINE
  5
3E4
100
AcDbEntity
  8
RACCORDO
100
AcDbPolyline
 62
250
  6
CONTINUOUS
 90
16
 70
0
 10
84.7191491067
 20
99.4374978
 10
84.7272772948
 20
99.5207105719
 10
84.7355445833
 20
99.6029880984
 10
84.7438604226
 20
99.6834292013
 10
84.7521337307
 20
99.7611528113
 10
84.7602738902
 20
99.8353076104
 10
84.7681917406
 20
99.9050813578
 10
84.7758005571
 20
99.9697098038
 10
84.7830169981
 20
100.0284850417
 10
84.7897620177
 20
100.0807632604
 10
84.7959617355
 20
100.1259718268
 10
84.8015482426
 20
100.1636155344
 10
84.8064603445
 20
100.1932820244
 10
84.8106442357
 20
100.2146463292
 10
84.8140540879
 20
100.2274744221
 10
84.81665255
 20
100.2316257695
  0
LWPOLYLINE
  5
3E5
100
AcDbEntity
  8
RACCORDO
100
AcDbPolyline
 62
250
  6
CONTINUOUS
 90
16
 70
0
 10
80.328933746
 20
57.6673888257
 10
80.3195833067
 20
57.5843035904
 10
80.3105633999
 20
57.5021044138
 10
80.3019728209
 20
57.4216916255
 10
80.2939056625
 20
57.343945989
 10
80.2864502845
 20
57.2697190541
 10
80.2796883459
 20
57.1998238305
 10
80.2736939104
 20
57.1350258822
 10
80.2685326351
 20
57.0760349429
 10
80.2642610516
 20
57.0234971419
 10
80.2609259468
 20
56.977987927
 10
80.2585638501
 20
56.9400057619
 10
80.2572006334
 20
56.9099666662
 10
80.256851228
 20
56.888199659
 10
80.2575194612
 20
56.8749431547
 10
80.2591980136
 20
56.8703423522
  0
LINE
  5
3E6
100
AcDbEntity
  8
0
100
AcDbLine
 62
250
  6
CONTINUOUS
 10
93.2931100009
 20
59.1441739878
 11
102.3931100009
 21
59.2099681219
  0
LINE
  5
3E7
100
AcDbEntity
  8
0
100
AcDbLine
 62
250
  6
CONTINUOUS
 10
93.2931100009
 20
60.5581721586
 11
102.3931100009
 21
60.6239662927
  0
LINE
  5
3E8
100
AcDbEntity
  8
ASSI
100
AcDbLine
 62
250
  6
CONTINUOUS
 10
104.8070719261
 20
60.2702562506
 11
102.5931100009
 21
60.2556552049
  0
LINE
  5
3E9
100
AcDbEntity
  8
0
100
AcDbLine
 62
250
  6
CONTINUOUS
 10
104.8070719261
 20
60.2702562506
 11
102.5931100009
 21
60.2556552049
  0
LINE
  5
3EA
100
AcDbEntity
  8
0
100
AcDbLine
 62
7
  6
CONTINUOUS
 10
102.3931100009
 20
59.8298712073
 11
102.5931100009
 21
59.8298712073
  0
LINE
  5
3EB
100
AcDbEntity
  8
ASSI
100
AcDbLine
 62
250
  6
CONTINUOUS
 10
110.887874279
 20
60.0484253805
 11
110.5931100009
 21
60.0484253805
  0
LINE
  5
3EC
100
AcDbEntity
  8
0
100
AcDbLine
 62
250
  6
CONTINUOUS
 10
110.887874279
 20
60.0484253805
 11
110.5931100009
 21
60.0484253805
  0
LINE
  5
3ED
100
AcDbEntity
  8
ASSI
100
AcDbLine
 62
250
  6
CONTINUOUS
 10
104.8070719261
 20
60.2702562506
 11
105.5931100009
 21
60.2702562506
  0
LINE
  5
3EE
100
AcDbEntity
  8
0
100
AcDbLine
 62
250
  6
CONTINUOUS
 10
104.8070719261
 20
60.2702562506
 11
105.5931100009
 21
60.2702562506
  0
LINE
  5
3EF
100
AcDbEntity
  8
ASSI
100
AcDbLine
 62
250
  6
CONTINUOUS
 10
110.887874279
 20
60.488935559
 11
110.5931100009
 21
60.488935559
  0
LINE
  5
3F0
100
AcDbEntity
  8
0
100
AcDbLine
 62
250
  6
CONTINUOUS
 10
110.887874279
 20
60.488935559
 11
110.5931100009
 21
60.488935559
  0
LINE
  5
3F1
100
AcDbEntity
  8
26814000
100
AcDbLine
 62
7
  6
CONTINUOUS
 10
90.7501105521
 20
59.8480768304
 11
86.3338046613
 21
59.9251637365
  0
LINE
  5
3F2
100
AcDbEntity
  8
26814000
100
AcDbLine
 62
250
  6
CONTINUOUS
 10
90.6270810134
 20
60.8500720142
 11
86.4387004467
 21
60.9231804689
  0
LINE
  5
3F3
100
AcDbEntity
  8
28414000
100
AcDbLine
 62
7
  6
CONTINUOUS
 10
86.7082395339
 20
57.7511237094
 11
86.9914322282
 21
56.6152998503
  0
LWPOLYLINE
  5
3F4
100
AcDbEntity
  8
ASSI
100
AcDbPolyline
 62
7
  6
CONTINUOUS
 90
8
 70
0
 10
106.7966004822
 20
99.2413953113
 10
106.8193993693
 20
99.2542964486
 10
106.8414171525
 20
99.2645323748
 10
106.8624053764
 20
99.2722568535
 10
106.8820756999
 20
99.2777227031
 10
106.9003447327
 20
99.2810387265
 10
106.9172876003
 20
99.2821035207
 10
106.9218821787
 20
99.2819939013
  0
LWPOLYLINE
  5
3F5
100
AcDbEntity
  8
0
100
AcDbPolyline
 62
7
  6
CONTINUOUS
 90
8
 70
0
 10
106.7966004822
 20
99.2413953113
 10
106.8193993693
 20
99.2542964486
 10
106.8414171525
 20
99.2645323748
 10
106.8624053764
 20
99.2722568535
 10
106.8820756999
 20
99.2777227031
 10
106.9003447327
 20
99.2810387265
 10
106.9172876003
 20
99.2821035207
 10
106.9218821787
 20
99.2819939013
  0
LINE
  5
3F6
100
AcDbEntity
  8
ASSI
100
AcDbLine
 62
7
  6
CONTINUOUS
 10
115.9931408277
 20
63.0949616156
 11
120.7966004822
 21
63.1788063157
  0
LINE
  5
3F7
100
AcDbEntity
  8
0
100
AcDbLine
 62
7
  6
CONTINUOUS
 10
115.9931408277
 20
63.0949616156
 11
120.7966004822
 21
63.1788063157
  0
LWPOLYLINE
  5
3F8
100
AcDbEntity
  8
ASSI
100
AcDbPolyline
 62
250
  6
CONTINUOUS
 90
6
 70
0
 10
115.6983457228
 20
61.9770965229
 10
114.6386376585
 20
61.9626061851
 10
113.559044736
 20
61.9480692195
 10
112.4595669553
 20
61.9334856262
 10
111.344128013
 20
61.9188951143
 10
110.5931100009
 20
61.9092126295
  0
LWPOLYLINE
  5
3F9
100
AcDbEntity
  8
0
100
AcDbPolyline
 62
250
  6
CONTINUOUS
 90
6
 70
0
 10
115.6983457228
 20
61.9770965229
 10
114.6386376585
 20
61.9626061851
 10
113.559044736
 20
61.9480692195
 10
112.4595669553
 20
61.9334856262
 10
111.344128013
 20
61.9188951143
 10
110.5931100009
 20
61.9092126295
  0
LWPOLYLINE
  5
3FA
100
AcDbEntity
  8
ASSI
100
AcDbPolyline
 62
250
  6
CONTINUOUS
 90
6
 70
0
 10
115.6957279616
 20
62.1208476668
 10
114.899115998
 20
62.1108536847
 10
114.091953973
 20
62.1008418792
 10
113.2742418866
 20
62.0908145138
 10
112.4472996353
 20
62.0807889967
 10
111.6098073226
 20
62.070752292
  0
LWPOLYLINE
  5
3FB
100
AcDbEntity
  8
0
100
AcDbPolyline
 62
250
  6
CONTINUOUS
 90
6
 70
0
 10
115.6957279616
 20
62.1208476668
 10
114.899115998
 20
62.1108536847
 10
114.091953973
 20
62.1008418792
 10
113.2742418866
 20
62.0908145138
 10
112.4472996353
 20
62.0807889967
 10
111.6098073226
 20
62.070752292
  0
LINE
  5
3FC
100
AcDbEntity
  8
ASSI
100
AcDbLine
 62
250
  6
CONTINUOUS
 10
111.6098073226
 20
62.070752292
 11
110.5931100009
 21
62.0587345662
  0
LINE
  5
3FD
100
AcDbEntity
  8
0
100
AcDbLine
 62
250
  6
CONTINUOUS
 10
111.6098073226
 20
62.070752292
 11
110.5931100009
 21
62.0587345662
  0
LINE
  5
3FE
100
AcDbEntity
  8
ASSI
100
AcDbLine
 62
250
  6
CONTINUOUS
 10
115.6983457228
 20
61.9770974742
 11
115.9931100009
 21
61.9770974742
  0
LINE
  5
3FF
100
AcDbEntity
  8
0
100
AcDbLine
 62
250
  6
CONTINUOUS
 10
115.6983457228
 20
61.9770974742
 11
115.9931100009
 21
61.9770974742
  0
LINE
  5
400
100
AcDbEntity
  8
0
100
AcDbLine
 62
7
  6
CONTINUOUS
 10
102.5931100009
 20
63.2298712073
 11
99.2931100009
 21
63.2298712073
  0
LINE
  5
401
100
AcDbEntity
  8
26814000
100
AcDbLine
 62
7
  6
CONTINUOUS
 10
103.2115815985
 20
99.8936338678
 11
103.1966898602
 21
99.8780712621
  0
LINE
  5
402
100
AcDbEntity
  8
26814000
100
AcDbLine
 62
7
  6
CONTINUOUS
 10
103.1966898602
 20
99.8780712621
 11
103.1299536407
 21
99.8094571656
  0
LINE
  5
403
100
AcDbEntity
  8
26814000
100
AcDbLine
 62
7
  6
CONTINUOUS
 10
103.1299536407
 20
99.8094571656
 11
103.0577929833
 21
99.7355650081
  0
LINE
  5
404
100
AcDbEntity
  8
26814000
100
AcDbLine
 62
7
  6
CONTINUOUS
 10
103.0577929833
 20
99.7355650081
 11
102.9983457228
 21
99.6749669668
  0
LINE
  5
405
100
AcDbEntity
  8
ASSI
100
AcDbLine
 62
7
  6
CONTINUOUS
 10
117.6983457228
 20
63.9596362076
 11
115.9931100009
 21
63.9298712073
  0
LINE
  5
406
100
AcDbEntity
  8
0
100
AcDbLine
 62
7
  6
CONTINUOUS
 10
117.6983457228
 20
63.9596362076
 11
115.9931100009
 21
63.9298712073
  0
LWPOLYLINE
  5
407
100
AcDbEntity
  8
ASSI
100
AcDbPolyline
 62
250
  6
CONTINUOUS
 90
3
 70
0
 10
117.6957279616
 20
64.2577011398
 10
117.2506455703
 20
64.2504249479
 10
116.5837058066
 20
64.2393430635
  0
LWPOLYLINE
  5
408
100
AcDbEntity
  8
0
100
AcDbPolyline
 62
250
  6
CONTINUOUS
 90
3
 70
0
 10
117.6957279616
 20
64.2577011398
 10
117.2506455703
 20
64.2504249479
 10
116.5837058066
 20
64.2393430635
  0
LWPOLYLINE
  5
409
100
AcDbEntity
  8
ASSI
100
AcDbPolyline
 62
250
  6
CONTINUOUS
 90
5
 70
0
 10
116.5837058066
 20
64.2393430635
 10
116.3615747877
 20
64.2358928904
 10
116.1395347889
 20
64.2328045337
 10
115.9175858468
 20
64.229987492
 10
115.6957279616
 20
64.2274414108
  0
LWPOLYLINE
  5
40A
100
AcDbEntity
  8
0
100
AcDbPolyline
 62
250
  6
CONTINUOUS
 90
5
 70
0
 10
116.5837058066
 20
64.2393430635
 10
116.3615747877
 20
64.2358928904
 10
116.1395347889
 20
64.2328045337
 10
115.9175858468
 20
64.229987492
 10
115.6957279616
 20
64.2274414108
  0
LINE
  5
40B
100
AcDbEntity
  8
ASSI
100
AcDbLine
 62
7
  6
CONTINUOUS
 10
99.3756575945
 20
63.536032048
 11
102.5931100009
 21
63.4798712073
  0
LINE
  5
40C
100
AcDbEntity
  8
0
100
AcDbLine
 62
7
  6
CONTINUOUS
 10
99.3756575945
 20
63.536032048
 11
102.5931100009
 21
63.4798712073
  0
LINE
  5
40D
100
AcDbEntity
  8
26814000
100
AcDbLine
 62
7
  6
CONTINUOUS
 10
103.0132304413
 20
56.7695544608
 11
102.9983457228
 21
56.7847754478
  0
LINE
  5
40E
100
AcDbEntity
  8
26814000
100
AcDbLine
 62
7
  6
CONTINUOUS
 10
103.1966898602
 20
56.5816711526
 11
103.0132304413
 21
56.7695544608
  0
LWPOLYLINE
  5
40F
100
AcDbEntity
  8
26814000
100
AcDbPolyline
 62
7
  6
CONTINUOUS
 90
7
 70
0
 10
103.1966898602
 20
56.5816711526
 10
103.2115815985
 20
56.5661085468
 10
103.2141696179
 20
56.5633237103
 10
103.2167077342
 20
56.560521513
 10
103.2191959475
 20
56.557701955
 10
103.2216342576
 20
56.5548650363
 10
103.2240226647
 20
56.5520107569
  0
LINE
  5
410
100
AcDbEntity
  8
RACCORDO
100
AcDbLine
 62
7
  6
CONTINUOUS
 10
85.9446461012
 20
56.2225673659
 11
90.512539946
 21
99.6831741935
  0
LINE
  5
411
100
AcDbEntity
  8
26814000
100
AcDbLine
 62
7
  6
CONTINUOUS
 10
90.9431100009
 20
98.1835199559
 11
88.4931100009
 21
78.2298712073
  0
LWPOLYLINE
  5
412
100
AcDbEntity
  8
0
100
AcDbPolyline
 62
7
  6
CONTINUOUS
 90
3
 70
0
 43
0.3500000006
 10
101.3187112427
 20
118.9085785217
 10
101.2472800598
 20
118.6942940369
 10
101.1044176941
 20
118.4085783691
  0
LWPOLYLINE
  5
413
100
AcDbEntity
  8
26814000
100
AcDbPolyline
 62
7
  6
CONTINUOUS
 90
6
 70
0
 10
103.2115815985
 20
99.8936338678
 10
103.2141696179
 20
99.8964187044
 10
103.2167077342
 20
99.8992209017
 10
103.2191959475
 20
99.9020404596
 10
103.2216342576
 20
99.9048773783
 10
103.2240226647
 20
99.9077316577
  0
LWPOLYLINE
  5
414
100
AcDbEntity
  8
0
100
AcDbPolyline
 62
250
  6
CONTINUOUS
 90
40
 70
0
 10
100.8931100009
 20
67.2298712073
 10
100.8971365949
 20
67.2300334077
 10
100.9011566577
 20
67.2305197457
 10
100.9051636688
 20
67.2313294325
 10
100.9091511288
 20
67.2324611548
 10
100.91311257
 20
67.2339130769
 10
100.9170415671
 20
67.2356828438
 10
100.920931747
 20
67.2377675849
 10
100.9247768
 20
67.2401639188
 10
100.9285704893
 20
67.2428679587
 10
100.9323066615
 20
67.2458753185
 10
100.9359792567
 20
67.2491811203
 10
100.9395823178
 20
67.2527800021
 10
100.9431100006
 20
67.2566661264
 10
100.9465565832
 20
67.2608331901
 10
100.9499164753
 20
67.2652744341
 10
100.9531842271
 20
67.2699826546
 10
100.9563545382
 20
67.274950215
 10
100.9594222665
 20
67.2801690578
 10
100.9623824361
 20
67.285630718
 10
100.9652302455
 20
67.2913263369
 10
100.9679610756
 20
67.2972466761
 10
100.970570497
 20
67.3033821327
 10
100.9730542772
 20
67.3097227551
 10
100.9754083875
 20
67.3162582587
 10
100.9776290095
 20
67.322978043
 10
100.9797125413
 20
67.3298712083
 10
100.9816556035
 20
67.336926574
 10
100.9834550444
 20
67.3441326962
 10
100.9851079454
 20
67.3514778866
 10
100.9866116252
 20
67.3589502312
 10
100.9879636452
 20
67.3665376099
 10
100.9891618121
 20
67.3742277159
 10
100.9902041827
 20
67.3820080758
 10
100.9910890661
 20
67.3898660698
 10
100.9918150272
 20
67.3977889523
 10
100.9923808883
 20
67.4057638722
 10
100.9927857317
 20
67.4137778943
 10
100.9930289007
 20
67.4218180197
 10
100.9931100009
 20
67.4298712073
  0
LINE
  5
415
100
AcDbEntity
  8
ASSI
100
AcDbLine
 62
7
  6
CONTINUOUS
 10
100.7931100009
 20
66.2298712073
 11
102.0931100009
 21
66.2298712073
  0
LINE
  5
416
100
AcDbEntity
  8
0
100
AcDbLine
 62
7
  6
CONTINUOUS
 10
100.7931100009
 20
66.2298712073
 11
102.0931100009
 21
66.2298712073
  0
LINE
  5
417
100
AcDbEntity
  8
0
100
AcDbLine
 62
7
  6
CONTINUOUS
 10
102.0519557277
 20
67.2298712073
 11
100.8931100009
 21
67.2298712073
  0
LINE
  5
418
100
AcDbEntity
  8
0
100
AcDbLine
 62
250
  6
CONTINUOUS
 10
102.4519557277
 20
67.4298712073
 11
100.9931100009
 21
67.4298712073
  0
LINE
  5
419
100
AcDbEntity
  8
0
100
AcDbLine
 62
250
  6
CONTINUOUS
 10
100.9395201624
 20
67.4346964638
 11
100.8395201624
 21
67.4346964638
  0
LINE
  5
41A
100
AcDbEntity
  8
0
100
AcDbLine
 62
250
  6
CONTINUOUS
 10
100.5931100009
 20
67.7298712073
 11
100.3931100009
 21
67.7298712073
  0
LWPOLYLINE
  5
41B
100
AcDbEntity
  8
ASSI
100
AcDbPolyline
 62
250
  6
CONTINUOUS
 90
5
 70
0
 10
110.5931100009
 20
66.400999227
 10
112.1431908695
 20
66.382611219
 10
113.3894766553
 20
66.3675046635
 10
114.6727830325
 20
66.3516847191
 10
115.9931100011
 20
66.3351349419
  0
LWPOLYLINE
  5
41C
100
AcDbEntity
  8
0
100
AcDbPolyline
 62
250
  6
CONTINUOUS
 90
5
 70
0
 10
110.5931100009
 20
66.400999227
 10
112.1431908695
 20
66.382611219
 10
113.3894766553
 20
66.3675046635
 10
114.6727830325
 20
66.3516847191
 10
115.9931100011
 20
66.3351349419
  0
LWPOLYLINE
  5
41D
100
AcDbEntity
  8
ASSI
100
AcDbPolyline
 62
250
  6
CONTINUOUS
 90
5
 70
0
 10
110.5931100009
 20
66.5505355145
 10
112.16024776
 20
66.5301929583
 10
113.4011318722
 20
66.5137329131
 10
114.6787526192
 20
66.4965288856
 10
115.9931100009
 20
66.4785808758
  0
LWPOLYLINE
  5
41E
100
AcDbEntity
  8
0
100
AcDbPolyline
 62
250
  6
CONTINUOUS
 90
5
 70
0
 10
110.5931100009
 20
66.5505355145
 10
112.16024776
 20
66.5301929583
 10
113.4011318722
 20
66.5137329131
 10
114.6787526192
 20
66.4965288856
 10
115.9931100009
 20
66.4785808758
  0
LINE
  5
41F
100
AcDbEntity
  8
ASSI
100
AcDbLine
 62
250
  6
CONTINUOUS
 10
115.9931100009
 20
66.1171467125
 11
116.1522378744
 21
66.1147331034
  0
LINE
  5
420
100
AcDbEntity
  8
0
100
AcDbLine
 62
250
  6
CONTINUOUS
 10
115.9931100009
 20
66.1171467125
 11
116.1522378744
 21
66.1147331034
  0
LWPOLYLINE
  5
421
100
AcDbEntity
  8
ASSI
100
AcDbPolyline
 62
250
  6
CONTINUOUS
 90
4
 70
0
 10
116.1522378744
 20
66.1147331034
 10
116.4757793556
 20
66.1098065361
 10
116.6398024528
 20
66.1072996239
 10
116.8055874614
 20
66.1047593246
  0
LWPOLYLINE
  5
422
100
AcDbEntity
  8
0
100
AcDbPolyline
 62
250
  6
CONTINUOUS
 90
4
 70
0
 10
116.1522378744
 20
66.1147331034
 10
116.4757793556
 20
66.1098065361
 10
116.6398024528
 20
66.1072996239
 10
116.8055874614
 20
66.1047593246
  0
LWPOLYLINE
  5
423
100
AcDbEntity
  8
ASSI
100
AcDbPolyline
 62
250
  6
CONTINUOUS
 90
4
 70
0
 10
116.8055874614
 20
66.1047593246
 10
117.1463483175
 20
66.0995152982
 10
117.321324165
 20
66.0968111851
 10
117.4992334554
 20
66.0940541754
  0
LWPOLYLINE
  5
424
100
AcDbEntity
  8
0
100
AcDbPolyline
 62
250
  6
CONTINUOUS
 90
4
 70
0
 10
116.8055874614
 20
66.1047593246
 10
117.1463483175
 20
66.0995152982
 10
117.321324165
 20
66.0968111851
 10
117.4992334554
 20
66.0940541754
  0
LWPOLYLINE
  5
425
100
AcDbEntity
  8
0
100
AcDbPolyline
 62
250
  6
CONTINUOUS
 90
7
 70
0
 10
100.9931100009
 20
67.4298712073
 10
100.983954033
 20
67.430021457
 10
100.9748877964
 20
67.4304332816
 10
100.965911291
 20
67.4311066813
 10
100.9570245169
 20
67.432041656
 10
100.948227474
 20
67.4332382057
 10
100.9395201624
 20
67.4346963304
  0
LWPOLYLINE
  5
426
100
AcDbEntity
  8
ASSI
100
AcDbPolyline
 62
250
  6
CONTINUOUS
 90
4
 70
0
 10
115.9931100009
 20
66.2457502328
 10
116.313521812
 20
66.2404714377
 10
116.4764313074
 20
66.2377771968
 10
116.6407692086
 20
66.2350529382
  0
LWPOLYLINE
  5
427
100
AcDbEntity
  8
0
100
AcDbPolyline
 62
250
  6
CONTINUOUS
 90
4
 70
0
 10
115.9931100009
 20
66.2457502328
 10
116.313521812
 20
66.2404714377
 10
116.4764313074
 20
66.2377771968
 10
116.6407692086
 20
66.2350529382
  0
LWPOLYLINE
  5
428
100
AcDbEntity
  8
ASSI
100
AcDbPolyline
 62
250
  6
CONTINUOUS
 90
5
 70
0
 10
116.6407692086
 20
66.2350529382
 10
116.9759741535
 20
66.2294751006
 10
117.1483371477
 20
66.2265953437
 10
117.3236244979
 20
66.223659391
 10
117.5018362041
 20
66.2206672426
  0
LWPOLYLINE
  5
429
100
AcDbEntity
  8
0
100
AcDbPolyline
 62
250
  6
CONTINUOUS
 90
5
 70
0
 10
116.6407692086
 20
66.2350529382
 10
116.9759741535
 20
66.2294751006
 10
117.1483371477
 20
66.2265953437
 10
117.3236244979
 20
66.223659391
 10
117.5018362041
 20
66.2206672426
  0
LWPOLYLINE
  5
42A
100
AcDbEntity
  8
0
100
AcDbPolyline
 62
250
  6
CONTINUOUS
 90
43
 70
0
 10
100.8037936034
 20
67.2379133015
 10
100.8076627077
 20
67.2373696447
 10
100.8115815845
 20
67.2371342845
 10
100.8155441104
 20
67.2372075887
 10
100.8195440935
 20
67.2375894429
 10
100.8235752844
 20
67.2382792505
 10
100.8276313856
 20
67.2392759336
 10
100.8317060599
 20
67.2405779351
 10
100.8357929407
 20
67.242183221
 10
100.8398856434
 20
67.2440892829
 10
100.8439777735
 20
67.2462931431
 10
100.8480629373
 20
67.2487913582
 10
100.8521347526
 20
67.2515800252
 10
100.8561868578
 20
67.2546547871
 10
100.8602129218
 20
67.2580108401
 10
100.8642066545
 20
67.2616429407
 10
100.8681618164
 20
67.2655454143
 10
100.8720722278
 20
67.2697121639
 10
100.8759317794
 20
67.2741366793
 10
100.8797344412
 20
67.278812048
 10
100.8834742719
 20
67.2837309652
 10
100.8871454286
 20
67.2888857459
 10
100.8907421757
 20
67.2942683363
 10
100.8942588937
 20
67.299870327
 10
100.8976900882
 20
67.3056829656
 10
100.9010303984
 20
67.3116971705
 10
100.9042746056
 20
67.3179035455
 10
100.907417641
 20
67.3242923939
 10
100.9104545942
 20
67.330853734
 10
100.9133807203
 20
67.3375773145
 10
100.9161914476
 20
67.3444526309
 10
100.9188823848
 20
67.3514689413
 10
100.9214493278
 20
67.3586152837
 10
100.9238882657
 20
67.3658804929
 10
100.9261953883
 20
67.3732532181
 10
100.9283670911
 20
67.3807219403
 10
100.9303999807
 20
67.3882749906
 10
100.9322908814
 20
67.3959005685
 10
100.934036839
 20
67.40358676
 10
100.935635125
 20
67.4113215565
 10
100.9370832422
 20
67.4190928735
 10
100.9383789293
 20
67.4268885693
 10
100.9395201624
 20
67.4346964638
  0
LINE
  5
42B
100
AcDbEntity
  8
26814000
100
AcDbLine
 62
7
  6
CONTINUOUS
 10
88.4931100009
 20
78.2298712073
 11
90.9431100009
 21
58.2762224588
  0
LINE
  5
42C
100
AcDbEntity
  8
26814000
100
AcDbLine
 62
7
  6
CONTINUOUS
 10
89.7931100009
 20
102.3667768594
 11
89.7931100009
 21
102.0742087746
  0
LINE
  5
42D
100
AcDbEntity
  8
26814000
100
AcDbLine
 62
7
  6
CONTINUOUS
 10
89.7931100009
 20
54.38553364
 11
89.7931100009
 21
54.0929655553
  0
LINE
  5
42E
100
AcDbEntity
  8
26814000
100
AcDbLine
 62
7
  6
CONTINUOUS
 10
89.7931100009
 20
55.8516883768
 11
89.7931100009
 21
56.2298712073
  0
LINE
  5
42F
100
AcDbEntity
  8
26814000
100
AcDbLine
 62
7
  6
CONTINUOUS
 10
89.7931100009
 20
100.2298712073
 11
89.7931100009
 21
100.6080540379
  0
LINE
  5
430
100
AcDbEntity
  8
26814000
100
AcDbLine
 62
7
  6
CONTINUOUS
 10
90.7931100009
 20
55.1072214765
 11
90.7931100009
 21
55.842961509
  0
LINE
  5
431
100
AcDbEntity
  8
26814000
100
AcDbLine
 62
7
  6
CONTINUOUS
 10
90.7931100009
 20
100.6167809056
 11
90.7931100009
 21
101.3525209381
  0
LINE
  5
432
100
AcDbEntity
  8
26814000
100
AcDbLine
 62
7
  6
CONTINUOUS
 10
90.9431100009
 20
100.0886689623
 11
90.9431100009
 21
98.1835199559
  0
LINE
  5
433
100
AcDbEntity
  8
26814000
100
AcDbLine
 62
7
  6
CONTINUOUS
 10
90.9431100009
 20
58.2762224588
 11
90.9431100009
 21
56.3710734524
  0
LINE
  5
434
100
AcDbEntity
  8
28414000
100
AcDbLine
 62
7
  6
CONTINUOUS
 10
87.4886931759
 20
56.5630356187
 11
87.6167974895
 21
57.7818667467
  0
LINE
  5
435
100
AcDbEntity
  8
ASSI
100
AcDbLine
 62
250
  6
CONTINUOUS
 10
110.887874279
 20
67.9708068557
 11
110.5931100009
 21
67.9708068557
  0
LINE
  5
436
100
AcDbEntity
  8
0
100
AcDbLine
 62
250
  6
CONTINUOUS
 10
110.887874279
 20
67.9708068557
 11
110.5931100009
 21
67.9708068557
  0
LINE
  5
437
100
AcDbEntity
  8
ASSI
100
AcDbLine
 62
250
  6
CONTINUOUS
 10
110.887874279
 20
68.4113170342
 11
110.5931100009
 21
68.4113170342
  0
LINE
  5
438
100
AcDbEntity
  8
0
100
AcDbLine
 62
250
  6
CONTINUOUS
 10
110.887874279
 20
68.4113170342
 11
110.5931100009
 21
68.4113170342
  0
LINE
  5
439
100
AcDbEntity
  8
ASSI
100
AcDbLine
 62
7
  6
CONTINUOUS
 10
117.9931100009
 20
69.1298712073
 11
120.7966004822
 21
69.080936099
  0
LINE
  5
43A
100
AcDbEntity
  8
0
100
AcDbLine
 62
7
  6
CONTINUOUS
 10
117.9931100009
 20
69.1298712073
 11
120.7966004822
 21
69.080936099
  0
LINE
  5
43B
100
AcDbEntity
  8
26814000
100
AcDbLine
 62
7
  6
CONTINUOUS
 10
92.2931100009
 20
53.8298712073
 11
92.2931100009
 21
56.1798845348
  0
LINE
  5
43C
100
AcDbEntity
  8
26814000
100
AcDbLine
 62
7
  6
CONTINUOUS
 10
92.2931100009
 20
100.2798578799
 11
92.2931100009
 21
102.6298712073
  0
LINE
  5
43D
100
AcDbEntity
  8
26814000
100
AcDbLine
 62
7
  6
CONTINUOUS
 10
93.2931100009
 20
102.3755036041
 11
93.2931100009
 21
102.0742087746
  0
LINE
  5
43E
100
AcDbEntity
  8
RACCORDO
100
AcDbLine
 62
7
  6
CONTINUOUS
 10
93.2931100009
 20
95.901570256
 11
93.2931100009
 21
60.5581721586
  0
LINE
  5
43F
100
AcDbEntity
  8
26814000
100
AcDbLine
 62
7
  6
CONTINUOUS
 10
93.2931100009
 20
54.38553364
 11
93.2931100009
 21
54.0842388105
  0
LINE
  5
440
100
AcDbEntity
  8
26814000
100
AcDbLine
 62
7
  6
CONTINUOUS
 10
93.2931100009
 20
55.8385980751
 11
93.2931100009
 21
100.6211443395
  0
LWPOLYLINE
  5
441
100
AcDbEntity
  8
0
100
AcDbPolyline
 62
250
  6
CONTINUOUS
 90
7
 70
0
 10
100.9395201624
 20
71.0250432779
 10
100.9482282409
 20
71.0265027175
 10
100.9570257439
 20
71.0277002432
 10
100.9659126714
 20
71.0286358551
 10
100.9748890234
 20
71.0293095531
 10
100.9839547999
 20
71.0297213371
 10
100.9931100009
 20
71.0298712073
  0
LINE
  5
442
100
AcDbEntity
  8
0
100
AcDbLine
 62
250
  6
CONTINUOUS
 10
100.5931100009
 20
70.7298712073
 11
100.3931100009
 21
70.7298712073
  0
LINE
  5
443
100
AcDbEntity
  8
0
100
AcDbLine
 62
250
  6
CONTINUOUS
 10
100.8395201624
 20
71.0250459509
 11
100.9395201624
 21
71.0250459509
  0
LINE
  5
444
100
AcDbEntity
  8
0
100
AcDbLine
 62
250
  6
CONTINUOUS
 10
100.9931100009
 20
71.0298712073
 11
102.4519557277
 21
71.0298712073
  0
LINE
  5
445
100
AcDbEntity
  8
0
100
AcDbLine
 62
7
  6
CONTINUOUS
 10
100.8931100009
 20
71.2298712073
 11
102.0519557277
 21
71.2298712073
  0
LINE
  5
446
100
AcDbEntity
  8
ASSI
100
AcDbLine
 62
7
  6
CONTINUOUS
 10
105.887874279
 20
69.9247260777
 11
110.3966004822
 21
69.8460259691
  0
LINE
  5
447
100
AcDbEntity
  8
0
100
AcDbLine
 62
7
  6
CONTINUOUS
 10
105.887874279
 20
69.9247260777
 11
110.3966004822
 21
69.8460259691
  0
LWPOLYLINE
  5
448
100
AcDbEntity
  8
0
100
AcDbPolyline
 62
250
  6
CONTINUOUS
 90
40
 70
0
 10
100.8931100009
 20
71.2298712073
 10
100.8971365949
 20
71.229709007
 10
100.9011566578
 20
71.229222669
 10
100.9051636689
 20
71.2284129822
 10
100.909151129
 20
71.2272812599
 10
100.9131125703
 20
71.2258293377
 10
100.9170415673
 20
71.2240595708
 10
100.9209317473
 20
71.2219748297
 10
100.9247768003
 20
71.2195784957
 10
100.9285704896
 20
71.2168744559
 10
100.9323066619
 20
71.2138670961
 10
100.935979257
 20
71.2105612943
 10
100.9395823181
 20
71.2069624125
 10
100.9431100009
 20
71.2030762881
 10
100.9465565835
 20
71.1989092244
 10
100.9499164756
 20
71.1944679805
 10
100.9531842273
 20
71.18975976
 10
100.9563545385
 20
71.1847921997
 10
100.9594222667
 20
71.179573357
 10
100.9623824363
 20
71.1741116968
 10
100.9652302456
 20
71.168416078
 10
100.9679610757
 20
71.162495739
 10
100.9705704971
 20
71.1563602825
 10
100.9730542772
 20
71.1500196602
 10
100.9754083875
 20
71.1434841567
 10
100.9776290095
 20
71.1367643726
 10
100.9797125413
 20
71.1298712073
 10
100.9816556035
 20
71.1228158417
 10
100.9834550444
 20
71.1156097196
 10
100.9851079453
 20
71.1082645293
 10
100.9866116252
 20
71.1007921847
 10
100.9879636451
 20
71.0932048061
 10
100.9891618121
 20
71.0855147001
 10
100.9902041826
 20
71.0777343402
 10
100.9910890661
 20
71.0698763461
 10
100.9918150272
 20
71.0619534635
 10
100.9923808883
 20
71.0539785434
 10
100.9927857317
 20
71.0459645211
 10
100.9930289007
 20
71.0379243954
 10
100.9931100009
 20
71.0298712073
  0
LWPOLYLINE
  5
449
100
AcDbEntity
  8
ASSI
100
AcDbPolyline
 62
250
  6
CONTINUOUS
 90
4
 70
0
 10
105.6124481003
 20
74.7249768635
 10
105.6017921053
 20
74.7231185436
 10
105.5952999646
 20
74.7218717455
 10
105.5931100009
 20
74.7212364693
  0
LWPOLYLINE
  5
44A
100
AcDbEntity
  8
0
100
AcDbPolyline
 62
250
  6
CONTINUOUS
 90
4
 70
0
 10
105.6124481003
 20
74.7249768635
 10
105.6017921053
 20
74.7231185436
 10
105.5952999646
 20
74.7218717455
 10
105.5931100009
 20
74.7212364693
  0
LWPOLYLINE
  5
44B
100
AcDbEntity
  8
ASSI
100
AcDbPolyline
 62
250
  6
CONTINUOUS
 90
3
 70
0
 10
106.1842291741
 20
74.8203506887
 10
106.1270432425
 20
74.8105156172
 10
106.0714347184
 20
74.8011363726
  0
LWPOLYLINE
  5
44C
100
AcDbEntity
  8
0
100
AcDbPolyline
 62
250
  6
CONTINUOUS
 90
3
 70
0
 10
106.1842291741
 20
74.8203506887
 10
106.1270432425
 20
74.8105156172
 10
106.0714347184
 20
74.8011363726
  0
LINE
  5
44D
100
AcDbEntity
  8
ASSI
100
AcDbLine
 62
250
  6
CONTINUOUS
 10
106.0714347184
 20
74.8011363726
 11
105.9182898731
 21
74.7756803935
  0
LINE
  5
44E
100
AcDbEntity
  8
0
100
AcDbLine
 62
250
  6
CONTINUOUS
 10
106.0714347184
 20
74.8011363726
 11
105.9182898731
 21
74.7756803935
  0
LWPOLYLINE
  5
44F
100
AcDbEntity
  8
ASSI
100
AcDbPolyline
 62
250
  6
CONTINUOUS
 90
3
 70
0
 10
105.9182898731
 20
74.7756803935
 10
105.7560378665
 20
74.7489631031
 10
105.6124481003
 20
74.7249768635
  0
LWPOLYLINE
  5
450
100
AcDbEntity
  8
0
100
AcDbPolyline
 62
250
  6
CONTINUOUS
 90
3
 70
0
 10
105.9182898731
 20
74.7756803935
 10
105.7560378665
 20
74.7489631031
 10
105.6124481003
 20
74.7249768635
  0
LINE
  5
451
100
AcDbEntity
  8
ASSI
100
AcDbLine
 62
7
  6
CONTINUOUS
 10
102.0931100009
 20
72.2298712073
 11
100.7931100009
 21
72.2298712073
  0
LINE
  5
452
100
AcDbEntity
  8
0
100
AcDbLine
 62
7
  6
CONTINUOUS
 10
102.0931100009
 20
72.2298712073
 11
100.7931100009
 21
72.2298712073
  0
LINE
  5
453
100
AcDbEntity
  8
26814000
100
AcDbLine
 62
250
  6
CONTINUOUS
 10
87.7111649184
 20
73.0298712073
 11
89.1315897176
 21
73.0298712073
  0
LINE
  5
454
100
AcDbEntity
  8
ASSI
100
AcDbLine
 62
250
  6
CONTINUOUS
 10
117.5018362041
 20
73.22212546
 11
117.9931100009
 21
73.2221254621
  0
LINE
  5
455
100
AcDbEntity
  8
0
100
AcDbLine
 62
250
  6
CONTINUOUS
 10
117.5018362041
 20
73.22212546
 11
117.9931100009
 21
73.2221254621
  0
LINE
  5
456
100
AcDbEntity
  8
26814000
100
AcDbLine
 62
7
  6
CONTINUOUS
 10
87.7321857654
 20
73.2298712073
 11
89.1070328054
 21
73.2298712073
  0
LINE
  5
457
100
AcDbEntity
  8
26814000
100
AcDbLine
 62
250
  6
CONTINUOUS
 10
87.7532066125
 20
73.4298712073
 11
89.0824758932
 21
73.4298712073
  0
LINE
  5
458
100
AcDbEntity
  8
ASSI
100
AcDbLine
 62
250
  6
CONTINUOUS
 10
117.5019845112
 20
73.2358432124
 11
117.6045646625
 21
73.2356284478
  0
LINE
  5
459
100
AcDbEntity
  8
0
100
AcDbLine
 62
250
  6
CONTINUOUS
 10
117.5019845112
 20
73.2358432124
 11
117.6045646625
 21
73.2356284478
  0
LWPOLYLINE
  5
45A
100
AcDbEntity
  8
ASSI
100
AcDbPolyline
 62
250
  6
CONTINUOUS
 90
13
 70
0
 10
117.6045646625
 20
73.2356284478
 10
117.7023873557
 20
73.2350566993
 10
117.7481956322
 20
73.2346440184
 10
117.7912730037
 20
73.234152381
 10
117.8311579871
 20
73.2335870456
 10
117.8674231943
 20
73.2329540677
 10
117.8996799709
 20
73.232260224
 10
117.927582605
 20
73.2315129381
 10
117.9508319572
 20
73.2307202148
 10
117.9691786865
 20
73.2298905542
 10
117.9824260123
 20
73.2290328422
 10
117.9904317907
 20
73.2281562568
 10
117.9931100008
 20
73.227270182
  0
LWPOLYLINE
  5
45B
100
AcDbEntity
  8
0
100
AcDbPolyline
 62
250
  6
CONTINUOUS
 90
13
 70
0
 10
117.6045646625
 20
73.2356284478
 10
117.7023873557
 20
73.2350566993
 10
117.7481956322
 20
73.2346440184
 10
117.7912730037
 20
73.234152381
 10
117.8311579871
 20
73.2335870456
 10
117.8674231943
 20
73.2329540677
 10
117.8996799709
 20
73.232260224
 10
117.927582605
 20
73.2315129381
 10
117.9508319572
 20
73.2307202148
 10
117.9691786865
 20
73.2298905542
 10
117.9824260123
 20
73.2290328422
 10
117.9904317907
 20
73.2281562568
 10
117.9931100008
 20
73.227270182
  0
LINE
  5
45C
100
AcDbEntity
  8
ASSI
100
AcDbLine
 62
250
  6
CONTINUOUS
 10
106.0843837977
 20
73.4214178352
 11
117.5018362041
 21
73.2221254621
  0
LINE
  5
45D
100
AcDbEntity
  8
0
100
AcDbLine
 62
250
  6
CONTINUOUS
 10
106.0843837977
 20
73.4214178352
 11
117.5018362041
 21
73.2221254621
  0
LWPOLYLINE
  5
45E
100
AcDbEntity
  8
0
100
AcDbPolyline
 62
7
  6
CONTINUOUS
 90
2
 70
0
 43
0.3500000006
 10
96.8901319885
 20
118.622862854
 10
96.8901319885
 20
120.1228633118
  0
LWPOLYLINE
  5
45F
100
AcDbEntity
  8
0
100
AcDbPolyline
 62
7
  6
CONTINUOUS
 90
3
 70
0
 43
0.3500000006
 10
108.1788239136
 20
111.6655870972
 10
108.1073927307
 20
111.4513026123
 10
107.9645394287
 20
111.1655869446
  0
LINE
  5
460
100
AcDbEntity
  8
ASSI
100
AcDbLine
 62
7
  6
CONTINUOUS
 10
106.0843837977
 20
74.2212959913
 11
117.2070719261
 21
74.0271487479
  0
LINE
  5
461
100
AcDbEntity
  8
0
100
AcDbLine
 62
7
  6
CONTINUOUS
 10
106.0843837977
 20
74.2212959913
 11
117.2070719261
 21
74.0271487479
  0
LINE
  5
462
100
AcDbEntity
  8
ASSI
100
AcDbLine
 62
250
  6
CONTINUOUS
 10
106.1842291741
 20
74.8194895652
 11
117.2086625431
 21
74.6270573649
  0
LINE
  5
463
100
AcDbEntity
  8
0
100
AcDbLine
 62
250
  6
CONTINUOUS
 10
106.1842291741
 20
74.8194895652
 11
117.2086625431
 21
74.6270573649
  0
LINE
  5
464
100
AcDbEntity
  8
26814000
100
AcDbLine
 62
7
  6
CONTINUOUS
 10
88.7120491624
 20
76.4467548298
 11
88.0714690675
 21
76.4579361969
  0
LWPOLYLINE
  5
465
100
AcDbEntity
  8
ASSI
100
AcDbPolyline
 62
250
  6
CONTINUOUS
 90
13
 70
0
 10
117.2086625431
 20
74.6270573649
 10
117.2576386626
 20
74.6251002874
 10
117.3049939967
 20
74.6218593628
 10
117.3507285454
 20
74.6173345911
 10
117.3948287015
 20
74.6113960802
 10
117.4373080723
 20
74.6041737223
 10
117.4782074793
 20
74.596057194
 10
117.5175282243
 20
74.5870640123
 10
117.5552690056
 20
74.5771766603
 10
117.5914667395
 20
74.566732263
 10
117.6261337316
 20
74.5558431956
 10
117.6592576765
 20
74.5443970831
 10
117.690838574
 20
74.5323939254
  0
LWPOLYLINE
  5
466
100
AcDbEntity
  8
0
100
AcDbPolyline
 62
250
  6
CONTINUOUS
 90
13
 70
0
 10
117.2086625431
 20
74.6270573649
 10
117.2576386626
 20
74.6251002874
 10
117.3049939967
 20
74.6218593628
 10
117.3507285454
 20
74.6173345911
 10
117.3948287015
 20
74.6113960802
 10
117.4373080723
 20
74.6041737223
 10
117.4782074793
 20
74.596057194
 10
117.5175282243
 20
74.5870640123
 10
117.5552690056
 20
74.5771766603
 10
117.5914667395
 20
74.566732263
 10
117.6261337316
 20
74.5558431956
 10
117.6592576765
 20
74.5443970831
 10
117.690838574
 20
74.5323939254
  0
LWPOLYLINE
  5
467
100
AcDbEntity
  8
ASSI
100
AcDbPolyline
 62
7
  6
CONTINUOUS
 90
16
 70
0
 10
106.0842766214
 20
74.2213613256
 10
106.0326628516
 20
74.2249502189
 10
105.9816950332
 20
74.2338533042
 10
105.9319189997
 20
74.2479756484
 10
105.8838679149
 20
74.2671664026
 10
105.8380564874
 20
74.2912204357
 10
105.7949754669
 20
74.3198805453
 10
105.75508648
 20
74.3528401525
 10
105.7188170661
 20
74.3897465537
 10
105.6865560267
 20
74.430204735
 10
105.6586493693
 20
74.4737814206
 10
105.6353962845
 20
74.5200101684
 10
105.6170461002
 20
74.5683964496
 10
105.6037959435
 20
74.6184222561
 10
105.5957884436
 20
74.6695515618
 10
105.5954940721
 20
74.6752319513
  0
LWPOLYLINE
  5
468
100
AcDbEntity
  8
0
100
AcDbPolyline
 62
7
  6
CONTINUOUS
 90
16
 70
0
 10
106.0842766214
 20
74.2213613256
 10
106.0326628516
 20
74.2249502189
 10
105.9816950332
 20
74.2338533042
 10
105.9319189997
 20
74.2479756484
 10
105.8838679149
 20
74.2671664026
 10
105.8380564874
 20
74.2912204357
 10
105.7949754669
 20
74.3198805453
 10
105.75508648
 20
74.3528401525
 10
105.7188170661
 20
74.3897465537
 10
105.6865560267
 20
74.430204735
 10
105.6586493693
 20
74.4737814206
 10
105.6353962845
 20
74.5200101684
 10
105.6170461002
 20
74.5683964496
 10
105.6037959435
 20
74.6184222561
 10
105.5957884436
 20
74.6695515618
 10
105.5954940721
 20
74.6752319513
  0
LWPOLYLINE
  5
469
100
AcDbEntity
  8
ASSI
100
AcDbPolyline
 62
250
  6
CONTINUOUS
 90
7
 70
0
 10
105.5931099996
 20
73.5271325706
 10
105.666760487
 20
73.4973820858
 10
105.743702366
 20
73.4724841459
 10
105.8239356365
 20
73.4524387509
 10
105.9074602987
 20
73.4372459008
 10
105.9942763524
 20
73.4269055955
 10
106.0843837977
 20
73.4214178352
  0
LWPOLYLINE
  5
46A
100
AcDbEntity
  8
0
100
AcDbPolyline
 62
250
  6
CONTINUOUS
 90
7
 70
0
 10
105.5931099996
 20
73.5271325706
 10
105.666760487
 20
73.4973820858
 10
105.743702366
 20
73.4724841459
 10
105.8239356365
 20
73.4524387509
 10
105.9074602987
 20
73.4372459008
 10
105.9942763524
 20
73.4269055955
 10
106.0843837977
 20
73.4214178352
  0
LINE
  5
46B
100
AcDbEntity
  8
0
100
AcDbLine
 62
7
  6
CONTINUOUS
 10
98.2931100009
 20
92.2298712073
 11
98.2931100009
 21
64.2298712073
  0
LINE
  5
46C
100
AcDbEntity
  8
ASSI
100
AcDbLine
 62
7
  6
CONTINUOUS
 10
98.3931100009
 20
64.5358797431
 11
98.3931100009
 21
91.9238626715
  0
LINE
  5
46D
100
AcDbEntity
  8
0
100
AcDbLine
 62
7
  6
CONTINUOUS
 10
98.3931100009
 20
64.5358797431
 11
98.3931100009
 21
91.9238626715
  0
LINE
  5
46E
100
AcDbEntity
  8
26814000
100
AcDbLine
 62
250
  6
CONTINUOUS
 10
99.9948553203
 20
101.9850637638
 11
99.9948553203
 21
100.5626590942
  0
LINE
  5
46F
100
AcDbEntity
  8
26814000
100
AcDbLine
 62
250
  6
CONTINUOUS
 10
99.9948553203
 20
55.8970833205
 11
99.9948553203
 21
54.4746786508
  0
LINE
  5
470
100
AcDbEntity
  8
26814000
100
AcDbLine
 62
7
  6
CONTINUOUS
 10
100.2931100009
 20
101.9833285688
 11
100.2931100009
 21
100.560056265
  0
LINE
  5
471
100
AcDbEntity
  8
ASSI
100
AcDbLine
 62
7
  6
CONTINUOUS
 10
100.2931100009
 20
89.7298712073
 11
100.2931100009
 21
84.7298712073
  0
LINE
  5
472
100
AcDbEntity
  8
0
100
AcDbLine
 62
7
  6
CONTINUOUS
 10
100.2931100009
 20
89.7298712073
 11
100.2931100009
 21
84.7298712073
  0
LINE
  5
473
100
AcDbEntity
  8
ASSI
100
AcDbLine
 62
7
  6
CONTINUOUS
 10
100.2931100009
 20
71.7298712073
 11
100.2931100009
 21
66.7298712073
  0
LINE
  5
474
100
AcDbEntity
  8
0
100
AcDbLine
 62
7
  6
CONTINUOUS
 10
100.2931100009
 20
71.7298712073
 11
100.2931100009
 21
66.7298712073
  0
LINE
  5
475
100
AcDbEntity
  8
26814000
100
AcDbLine
 62
7
  6
CONTINUOUS
 10
100.2931100009
 20
55.8996861497
 11
100.2931100009
 21
54.4764138458
  0
LWPOLYLINE
  5
476
100
AcDbEntity
  8
0
100
AcDbPolyline
 62
250
  6
CONTINUOUS
 90
7
 70
0
 10
100.8051794244
 20
85.2456030676
 10
100.804508722
 20
85.2418241349
 10
100.8042354946
 20
85.2404085215
 10
100.804046946
 20
85.2393087215
 10
100.803939886
 20
85.238523993
 10
100.8038642669
 20
85.238058814
 10
100.8037936034
 20
85.2379133015
  0
LWPOLYLINE
  5
477
100
AcDbEntity
  8
0
100
AcDbPolyline
 62
250
  6
CONTINUOUS
 90
3
 70
0
 10
100.8066264876
 20
85.2535573721
 10
100.805618296
 20
85.2479495884
 10
100.8051794244
 20
85.2456030676
  0
LINE
  5
478
100
AcDbEntity
  8
0
100
AcDbLine
 62
250
  6
CONTINUOUS
 10
100.8395201624
 20
85.4346964638
 11
100.8066264876
 21
85.2535573721
  0
LINE
  5
479
100
AcDbEntity
  8
ASSI
100
AcDbLine
 62
7
  6
CONTINUOUS
 10
104.8070719261
 20
76.7298712073
 11
105.7931100009
 21
76.7298712073
  0
LINE
  5
47A
100
AcDbEntity
  8
0
100
AcDbLine
 62
7
  6
CONTINUOUS
 10
104.8070719261
 20
76.7298712073
 11
105.7931100009
 21
76.7298712073
  0
LINE
  5
47B
100
AcDbEntity
  8
ASSI
100
AcDbLine
 62
7
  6
CONTINUOUS
 10
104.8070719261
 20
76.9298712073
 11
105.7931100009
 21
76.9298712073
  0
LINE
  5
47C
100
AcDbEntity
  8
0
100
AcDbLine
 62
7
  6
CONTINUOUS
 10
104.8070719261
 20
76.9298712073
 11
105.7931100009
 21
76.9298712073
  0
LINE
  5
47D
100
AcDbEntity
  8
ASSI
100
AcDbLine
 62
7
  6
CONTINUOUS
 10
105.5931100009
 20
77.3548712073
 11
105.7931100009
 21
77.3548712073
  0
LINE
  5
47E
100
AcDbEntity
  8
0
100
AcDbLine
 62
7
  6
CONTINUOUS
 10
105.5931100009
 20
77.3548712073
 11
105.7931100009
 21
77.3548712073
  0
LINE
  5
47F
100
AcDbEntity
  8
ASSI
100
AcDbLine
 62
7
  6
CONTINUOUS
 10
105.5931100009
 20
77.3921052454
 11
105.7931100009
 21
77.3921052454
  0
LINE
  5
480
100
AcDbEntity
  8
0
100
AcDbLine
 62
7
  6
CONTINUOUS
 10
105.5931100009
 20
77.3921052454
 11
105.7931100009
 21
77.3921052454
  0
LINE
  5
481
100
AcDbEntity
  8
ASSI
100
AcDbLine
 62
7
  6
CONTINUOUS
 10
105.5931100009
 20
77.4665733217
 11
105.7931100009
 21
77.4665733217
  0
LINE
  5
482
100
AcDbEntity
  8
0
100
AcDbLine
 62
7
  6
CONTINUOUS
 10
105.5931100009
 20
77.4665733217
 11
105.7931100009
 21
77.4665733217
  0
LINE
  5
483
100
AcDbEntity
  8
ASSI
100
AcDbLine
 62
7
  6
CONTINUOUS
 10
105.5931100009
 20
77.6155094741
 11
105.7931100009
 21
77.6155094741
  0
LINE
  5
484
100
AcDbEntity
  8
0
100
AcDbLine
 62
7
  6
CONTINUOUS
 10
105.5931100009
 20
77.6155094741
 11
105.7931100009
 21
77.6155094741
  0
LINE
  5
485
100
AcDbEntity
  8
ASSI
100
AcDbLine
 62
7
  6
CONTINUOUS
 10
105.5931100009
 20
77.7644456266
 11
105.7931100009
 21
77.7644456266
  0
LINE
  5
486
100
AcDbEntity
  8
0
100
AcDbLine
 62
7
  6
CONTINUOUS
 10
105.5931100009
 20
77.7644456266
 11
105.7931100009
 21
77.7644456266
  0
LINE
  5
487
100
AcDbEntity
  8
ASSI
100
AcDbLine
 62
7
  6
CONTINUOUS
 10
105.5931100009
 20
77.8389138071
 11
105.7931100009
 21
77.8389138071
  0
LINE
  5
488
100
AcDbEntity
  8
0
100
AcDbLine
 62
7
  6
CONTINUOUS
 10
105.5931100009
 20
77.8389138071
 11
105.7931100009
 21
77.8389138071
  0
LINE
  5
489
100
AcDbEntity
  8
ASSI
100
AcDbLine
 62
7
  6
CONTINUOUS
 10
105.5931100009
 20
77.9133818834
 11
105.7931100009
 21
77.9133818834
  0
LINE
  5
48A
100
AcDbEntity
  8
0
100
AcDbLine
 62
7
  6
CONTINUOUS
 10
105.5931100009
 20
77.9133818834
 11
105.7931100009
 21
77.9133818834
  0
LINE
  5
48B
100
AcDbEntity
  8
ASSI
100
AcDbLine
 62
7
  6
CONTINUOUS
 10
105.5931100009
 20
77.9506159215
 11
105.7931100009
 21
77.9506159215
  0
LINE
  5
48C
100
AcDbEntity
  8
0
100
AcDbLine
 62
7
  6
CONTINUOUS
 10
105.5931100009
 20
77.9506159215
 11
105.7931100009
 21
77.9506159215
  0
LINE
  5
48D
100
AcDbEntity
  8
ASSI
100
AcDbLine
 62
7
  6
CONTINUOUS
 10
105.5931100009
 20
78.0250839977
 11
105.7931100009
 21
78.0250839977
  0
LINE
  5
48E
100
AcDbEntity
  8
0
100
AcDbLine
 62
7
  6
CONTINUOUS
 10
105.5931100009
 20
78.0250839977
 11
105.7931100009
 21
78.0250839977
  0
LINE
  5
48F
100
AcDbEntity
  8
ASSI
100
AcDbLine
 62
7
  6
CONTINUOUS
 10
105.5931100009
 20
78.2112541883
 11
105.7931100009
 21
78.2112541883
  0
LINE
  5
490
100
AcDbEntity
  8
0
100
AcDbLine
 62
7
  6
CONTINUOUS
 10
105.5931100009
 20
78.2112541883
 11
105.7931100009
 21
78.2112541883
  0
LWPOLYLINE
  5
491
100
AcDbEntity
  8
ASSI
100
AcDbPolyline
 62
250
  6
CONTINUOUS
 90
19
 70
0
 10
117.2070719261
 20
74.0271487479
 10
117.2357445929
 20
74.0232500979
 10
117.2634282799
 20
74.0127160982
 10
117.2901172792
 20
73.9958007689
 10
117.3159872998
 20
73.97279306
 10
117.340855635
 20
73.9440429404
 10
117.3641816072
 20
73.9099758311
 10
117.3858667367
 20
73.8710896015
 10
117.4060123693
 20
73.8277740818
 10
117.4243780754
 20
73.7802851151
 10
117.4409705376
 20
73.7289545101
 10
117.4557881097
 20
73.6743013262
 10
117.4685779444
 20
73.6168373147
 10
117.4792808983
 20
73.5571708416
 10
117.4879685316
 20
73.4956441185
 10
117.4945833905
 20
73.4323448161
 10
117.4991093426
 20
73.3675835331
 10
117.5015740146
 20
73.3019321211
 10
117.5019845116
 20
73.2358432078
  0
LWPOLYLINE
  5
492
100
AcDbEntity
  8
0
100
AcDbPolyline
 62
250
  6
CONTINUOUS
 90
19
 70
0
 10
117.2070719261
 20
74.0271487479
 10
117.2357445929
 20
74.0232500979
 10
117.2634282799
 20
74.0127160982
 10
117.2901172792
 20
73.9958007689
 10
117.3159872998
 20
73.97279306
 10
117.340855635
 20
73.9440429404
 10
117.3641816072
 20
73.9099758311
 10
117.3858667367
 20
73.8710896015
 10
117.4060123693
 20
73.8277740818
 10
117.4243780754
 20
73.7802851151
 10
117.4409705376
 20
73.7289545101
 10
117.4557881097
 20
73.6743013262
 10
117.4685779444
 20
73.6168373147
 10
117.4792808983
 20
73.5571708416
 10
117.4879685316
 20
73.4956441185
 10
117.4945833905
 20
73.4323448161
 10
117.4991093426
 20
73.3675835331
 10
117.5015740146
 20
73.3019321211
 10
117.5019845116
 20
73.2358432078
  0
LINE
  5
493
100
AcDbEntity
  8
0
100
AcDbLine
 62
250
  6
CONTINUOUS
 10
100.8037936034
 20
71.2218291132
 11
100.8395201624
 21
71.0250459509
  0
LWPOLYLINE
  5
494
100
AcDbEntity
  8
0
100
AcDbPolyline
 62
250
  6
CONTINUOUS
 90
43
 70
0
 10
100.9395201624
 20
71.0250459509
 10
100.9384122803
 20
71.0328516498
 10
100.937109889
 20
71.0406480145
 10
100.9356351371
 20
71.0484208611
 10
100.9340275954
 20
71.0561559947
 10
100.9322932979
 20
71.063841688
 10
100.9304000032
 20
71.0714674295
 10
100.9283603829
 20
71.0790206387
 10
100.9261975663
 20
71.0864891194
 10
100.9238882969
 20
71.0938619292
 10
100.9214443592
 20
71.1011271882
 10
100.9188844296
 20
71.1082734481
 10
100.9161914858
 20
71.1152897928
 10
100.9133769375
 20
71.1221650943
 10
100.9104566134
 20
71.1288886946
 10
100.9074176841
 20
71.1354500307
 10
100.9042716209
 20
71.1418388251
 10
100.9010325126
 20
71.148045295
 10
100.8976901342
 20
71.1540594595
 10
100.894256429
 20
71.1598720178
 10
100.8907445286
 20
71.1654741728
 10
100.8871454757
 20
71.1708566792
 10
100.8834721193
 20
71.1760113577
 10
100.8797372148
 20
71.1809305217
 10
100.8759318254
 20
71.1856057452
 10
100.8720702233
 20
71.1900301345
 10
100.8681652543
 20
71.1941972475
 10
100.8642066975
 20
71.1980994829
 10
100.8602109276
 20
71.2017314259
 10
100.8561913003
 20
71.2050880219
 10
100.8521347907
 20
71.2081623971
 10
100.8480608289
 20
71.2109508619
 10
100.8439837103
 20
71.2134499063
 10
100.8398856745
 20
71.2156531379
 10
100.8357905958
 20
71.2175589323
 10
100.8317142075
 20
71.2191655126
 10
100.827631408
 20
71.2204664853
 10
100.8235725643
 20
71.2214628028
 10
100.8195554911
 20
71.2221546679
 10
100.8155441224
 20
71.2225348282
 10
100.8115488432
 20
71.2226027701
 10
100.8076215092
 20
71.2223656675
 10
100.8037936034
 20
71.2218291132
  0
LINE
  5
495
100
AcDbEntity
  8
0
100
AcDbLine
 62
7
  6
CONTINUOUS
 10
100.3931100009
 20
88.7298712073
 11
100.3931100009
 21
85.7298712073
  0
LINE
  5
496
100
AcDbEntity
  8
0
100
AcDbLine
 62
7
  6
CONTINUOUS
 10
100.3931100009
 20
70.7298712073
 11
100.3931100009
 21
67.7298712073
  0
LINE
  5
497
100
AcDbEntity
  8
0
100
AcDbLine
 62
250
  6
CONTINUOUS
 10
100.5931100009
 20
88.7298712073
 11
100.5931100009
 21
85.7298712073
  0
LINE
  5
498
100
AcDbEntity
  8
0
100
AcDbLine
 62
250
  6
CONTINUOUS
 10
100.5931100009
 20
70.7298712073
 11
100.5931100009
 21
67.7298712073
  0
LINE
  5
499
100
AcDbEntity
  8
0
100
AcDbLine
 62
250
  6
CONTINUOUS
 10
100.8395201624
 20
89.0250454879
 11
100.8395201624
 21
85.4346970258
  0
LINE
  5
49A
100
AcDbEntity
  8
0
100
AcDbLine
 62
250
  6
CONTINUOUS
 10
100.8395201624
 20
71.0250454879
 11
100.8395201624
 21
67.4346970258
  0
LINE
  5
49B
100
AcDbEntity
  8
0
100
AcDbLine
 62
250
  6
CONTINUOUS
 10
100.9395201624
 20
89.0250432779
 11
100.9395201624
 21
85.4346963304
  0
LINE
  5
49C
100
AcDbEntity
  8
0
100
AcDbLine
 62
250
  6
CONTINUOUS
 10
100.9395201624
 20
71.0250432779
 11
100.9395201624
 21
67.4346963304
  0
LINE
  5
49D
100
AcDbEntity
  8
0
100
AcDbLine
 62
7
  6
CONTINUOUS
 10
102.3931100009
 20
57.4592857042
 11
102.3931100009
 21
63.2298712073
  0
LINE
  5
49E
100
AcDbEntity
  8
0
100
AcDbLine
 62
7
  6
CONTINUOUS
 10
102.3931100009
 20
93.2298712073
 11
102.3931100009
 21
99.0004567104
  0
LINE
  5
49F
100
AcDbEntity
  8
ASSI
100
AcDbLine
 62
7
  6
CONTINUOUS
 10
115.9030442173
 20
92.4375805849
 11
115.8271536935
 21
92.3620435361
  0
LINE
  5
4A0
100
AcDbEntity
  8
0
100
AcDbLine
 62
7
  6
CONTINUOUS
 10
115.9030442173
 20
92.4375805849
 11
115.8271536935
 21
92.3620435361
  0
LWPOLYLINE
  5
4A1
100
AcDbEntity
  8
ASSI
100
AcDbPolyline
 62
7
  6
CONTINUOUS
 90
5
 70
0
 10
115.8271536935
 20
92.3620435361
 10
115.7975868005
 20
92.3328926747
 10
115.7659872294
 20
92.3020758213
 10
115.7327815216
 20
92.2694656059
 10
115.6983457228
 20
92.2350620284
  0
LWPOLYLINE
  5
4A2
100
AcDbEntity
  8
0
100
AcDbPolyline
 62
7
  6
CONTINUOUS
 90
5
 70
0
 10
115.8271536935
 20
92.3620435361
 10
115.7975868005
 20
92.3328926747
 10
115.7659872294
 20
92.3020758213
 10
115.7327815216
 20
92.2694656059
 10
115.6983457228
 20
92.2350620284
  0
LINE
  5
4A3
100
AcDbEntity
  8
26814000
100
AcDbLine
 62
7
  6
CONTINUOUS
 10
88.4446294164
 20
80.0083197559
 11
88.7120491624
 21
80.0129875849
  0
LINE
  5
4A4
100
AcDbEntity
  8
ASSI
100
AcDbLine
 62
7
  6
CONTINUOUS
 10
105.5931100009
 20
79.1048712073
 11
105.7931100009
 21
79.1048712073
  0
LINE
  5
4A5
100
AcDbEntity
  8
0
100
AcDbLine
 62
7
  6
CONTINUOUS
 10
105.5931100009
 20
79.1048712073
 11
105.7931100009
 21
79.1048712073
  0
LINE
  5
4A6
100
AcDbEntity
  8
ASSI
100
AcDbLine
 62
7
  6
CONTINUOUS
 10
104.8070719261
 20
79.5298712073
 11
105.7931100009
 21
79.5298712073
  0
LINE
  5
4A7
100
AcDbEntity
  8
0
100
AcDbLine
 62
7
  6
CONTINUOUS
 10
104.8070719261
 20
79.5298712073
 11
105.7931100009
 21
79.5298712073
  0
LINE
  5
4A8
100
AcDbEntity
  8
ASSI
100
AcDbLine
 62
7
  6
CONTINUOUS
 10
104.8070719261
 20
79.7298712073
 11
105.7931100009
 21
79.7298712073
  0
LINE
  5
4A9
100
AcDbEntity
  8
0
100
AcDbLine
 62
7
  6
CONTINUOUS
 10
104.8070719261
 20
79.7298712073
 11
105.7931100009
 21
79.7298712073
  0
LWPOLYLINE
  5
4AA
100
AcDbEntity
  8
ASSI
100
AcDbPolyline
 62
7
  6
CONTINUOUS
 90
3
 70
0
 10
117.7781521262
 20
64.1791487156
 10
117.7240593807
 20
64.2304118658
 10
117.6957279616
 20
64.2577011273
  0
LWPOLYLINE
  5
4AB
100
AcDbEntity
  8
0
100
AcDbPolyline
 62
7
  6
CONTINUOUS
 90
3
 70
0
 10
117.7781521262
 20
64.1791487156
 10
117.7240593807
 20
64.2304118658
 10
117.6957279616
 20
64.2577011273
  0
LWPOLYLINE
  5
4AC
100
AcDbEntity
  8
ASSI
100
AcDbPolyline
 62
7
  6
CONTINUOUS
 90
3
 70
0
 10
117.8714623411
 20
64.0894859917
 10
117.8034259468
 20
64.1550307117
 10
117.7781521262
 20
64.1791487156
  0
LWPOLYLINE
  5
4AD
100
AcDbEntity
  8
0
100
AcDbPolyline
 62
7
  6
CONTINUOUS
 90
3
 70
0
 10
117.8714623411
 20
64.0894859917
 10
117.8034259468
 20
64.1550307117
 10
117.7781521262
 20
64.1791487156
  0
LWPOLYLINE
  5
4AE
100
AcDbEntity
  8
ASSI
100
AcDbPolyline
 62
7
  6
CONTINUOUS
 90
6
 70
0
 10
115.6957279616
 20
64.225011615
 10
115.7303843505
 20
64.191453658
 10
115.7638416677
 20
64.1596540034
 10
115.795713474
 20
64.1295462988
 10
115.8255478748
 20
64.1009538235
 10
115.8788854623
 20
64.0489775288
  0
LWPOLYLINE
  5
4AF
100
AcDbEntity
  8
0
100
AcDbPolyline
 62
7
  6
CONTINUOUS
 90
6
 70
0
 10
115.6957279616
 20
64.225011615
 10
115.7303843505
 20
64.191453658
 10
115.7638416677
 20
64.1596540034
 10
115.795713474
 20
64.1295462988
 10
115.8255478748
 20
64.1009538235
 10
115.8788854623
 20
64.0489775288
  0
LWPOLYLINE
  5
4B0
100
AcDbEntity
  8
ASSI
100
AcDbPolyline
 62
7
  6
CONTINUOUS
 90
10
 70
0
 10
115.8788854623
 20
64.0489775288
 10
115.9023841706
 20
64.0259499275
 10
115.9234248295
 20
64.0049078548
 10
115.9418865367
 20
63.9862818345
 10
115.9576761426
 20
63.9702033785
 10
115.9706260925
 20
63.9566283881
 10
115.9806014185
 20
63.9457491913
 10
115.9876146915
 20
63.9376792096
 10
115.9917543809
 20
63.9324446649
 10
115.9931100009
 20
63.9301168946
  0
LWPOLYLINE
  5
4B1
100
AcDbEntity
  8
0
100
AcDbPolyline
 62
7
  6
CONTINUOUS
 90
10
 70
0
 10
115.8788854623
 20
64.0489775288
 10
115.9023841706
 20
64.0259499275
 10
115.9234248295
 20
64.0049078548
 10
115.9418865367
 20
63.9862818345
 10
115.9576761426
 20
63.9702033785
 10
115.9706260925
 20
63.9566283881
 10
115.9806014185
 20
63.9457491913
 10
115.9876146915
 20
63.9376792096
 10
115.9917543809
 20
63.9324446649
 10
115.9931100009
 20
63.9301168946
  0
LWPOLYLINE
  5
4B2
100
AcDbEntity
  8
ASSI
100
AcDbPolyline
 62
250
  6
CONTINUOUS
 90
13
 70
0
 10
105.5931100009
 20
65.2259519434
 10
105.5956199048
 20
65.2195174642
 10
105.6031076189
 20
65.2131906521
 10
105.6154478536
 20
65.2070773714
 10
105.6324341235
 20
65.2012799137
 10
105.6537822026
 20
65.1958952862
 10
105.6791348793
 20
65.1910135882
 10
105.7080679347
 20
65.1867165037
 10
105.7400972407
 20
65.1830759344
 10
105.77468686
 20
65.1801527968
 10
105.8112580148
 20
65.1779960027
 10
105.8491987714
 20
65.1766416411
 10
105.887874279
 20
65.1761123739
  0
LWPOLYLINE
  5
4B3
100
AcDbEntity
  8
0
100
AcDbPolyline
 62
250
  6
CONTINUOUS
 90
13
 70
0
 10
105.5931100009
 20
65.2259519434
 10
105.5956199048
 20
65.2195174642
 10
105.6031076189
 20
65.2131906521
 10
105.6154478536
 20
65.2070773714
 10
105.6324341235
 20
65.2012799137
 10
105.6537822026
 20
65.1958952862
 10
105.6791348793
 20
65.1910135882
 10
105.7080679347
 20
65.1867165037
 10
105.7400972407
 20
65.1830759344
 10
105.77468686
 20
65.1801527968
 10
105.8112580148
 20
65.1779960027
 10
105.8491987714
 20
65.1766416411
 10
105.887874279
 20
65.1761123739
  0
LWPOLYLINE
  5
4B4
100
AcDbEntity
  8
0
100
AcDbPolyline
 62
250
  6
CONTINUOUS
 90
43
 70
0
 10
100.9395201624
 20
89.0250459509
 10
100.9384122803
 20
89.0328516498
 10
100.937109889
 20
89.0406480145
 10
100.9356351371
 20
89.0484208611
 10
100.9340275954
 20
89.0561559947
 10
100.9322932979
 20
89.063841688
 10
100.9304000032
 20
89.0714674295
 10
100.9283603829
 20
89.0790206387
 10
100.9261975663
 20
89.0864891194
 10
100.9238882969
 20
89.0938619292
 10
100.9214443592
 20
89.1011271882
 10
100.9188844296
 20
89.1082734481
 10
100.9161914858
 20
89.1152897928
 10
100.9133769375
 20
89.1221650943
 10
100.9104566134
 20
89.1288886946
 10
100.9074176841
 20
89.1354500307
 10
100.9042716209
 20
89.1418388251
 10
100.9010325126
 20
89.148045295
 10
100.8976901342
 20
89.1540594595
 10
100.894256429
 20
89.1598720178
 10
100.8907445286
 20
89.1654741728
 10
100.8871454757
 20
89.1708566792
 10
100.8834721193
 20
89.1760113577
 10
100.8797372148
 20
89.1809305217
 10
100.8759318254
 20
89.1856057452
 10
100.8720702233
 20
89.1900301345
 10
100.8681652543
 20
89.1941972475
 10
100.8642066975
 20
89.1980994829
 10
100.8602109276
 20
89.2017314259
 10
100.8561913003
 20
89.2050880219
 10
100.8521347907
 20
89.2081623971
 10
100.8480608289
 20
89.2109508619
 10
100.8439837103
 20
89.2134499063
 10
100.8398856745
 20
89.2156531379
 10
100.8357905958
 20
89.2175589323
 10
100.8317142075
 20
89.2191655126
 10
100.827631408
 20
89.2204664853
 10
100.8235725643
 20
89.2214628028
 10
100.8195554911
 20
89.2221546679
 10
100.8155441224
 20
89.2225348282
 10
100.8115488432
 20
89.2226027701
 10
100.8076215092
 20
89.2223656675
 10
100.8037936034
 20
89.2218291132
  0
LINE
  5
4B5
100
AcDbEntity
  8
0
100
AcDbLine
 62
7
  6
CONTINUOUS
 10
102.4519557277
 20
67.4298712073
 11
102.4519557277
 21
71.0298712073
  0
LINE
  5
4B6
100
AcDbEntity
  8
0
100
AcDbLine
 62
7
  6
CONTINUOUS
 10
102.4519557277
 20
85.4298712073
 11
102.4519557277
 21
89.0298712073
  0
LINE
  5
4B7
100
AcDbEntity
  8
ASSI
100
AcDbLine
 62
7
  6
CONTINUOUS
 10
102.5931100009
 20
58.3162249517
 11
102.5931100009
 21
98.14350787
  0
LINE
  5
4B8
100
AcDbEntity
  8
0
100
AcDbLine
 62
7
  6
CONTINUOUS
 10
102.5931100009
 20
58.3162249517
 11
102.5931100009
 21
98.14350787
  0
LINE
  5
4B9
100
AcDbEntity
  8
26814000
100
AcDbLine
 62
250
  6
CONTINUOUS
 10
102.9957279616
 20
57.3298712073
 11
102.9957279616
 21
57.8298712073
  0
LINE
  5
4BA
100
AcDbEntity
  8
26814000
100
AcDbLine
 62
250
  6
CONTINUOUS
 10
102.9957279616
 20
98.6298712073
 11
102.9957279616
 21
99.1298712073
  0
LINE
  5
4BB
100
AcDbEntity
  8
26814000
100
AcDbLine
 62
250
  6
CONTINUOUS
 10
102.9983457228
 20
99.6749669668
 11
102.9983457228
 21
99.4298712073
  0
LINE
  5
4BC
100
AcDbEntity
  8
26814000
100
AcDbLine
 62
250
  6
CONTINUOUS
 10
102.9983457228
 20
57.0298712073
 11
102.9983457228
 21
56.7847754478
  0
LINE
  5
4BD
100
AcDbEntity
  8
26814000
100
AcDbLine
 62
7
  6
CONTINUOUS
 10
103.2931100009
 20
56.9171779636
 11
103.2931100009
 21
57.8298712073
  0
LINE
  5
4BE
100
AcDbEntity
  8
26814000
100
AcDbLine
 62
7
  6
CONTINUOUS
 10
103.2931100009
 20
98.6298712073
 11
103.2931100009
 21
99.542564451
  0
LINE
  5
4BF
100
AcDbEntity
  8
0
100
AcDbLine
 62
7
  6
CONTINUOUS
 10
103.4931100009
 20
57.8298712073
 11
103.4931100009
 21
58.3387508067
  0
LINE
  5
4C0
100
AcDbEntity
  8
0
100
AcDbLine
 62
7
  6
CONTINUOUS
 10
103.4931100009
 20
98.1209916066
 11
103.4931100009
 21
98.6298712073
  0
LINE
  5
4C1
100
AcDbEntity
  8
ASSI
100
AcDbLine
 62
7
  6
CONTINUOUS
 10
103.5931100009
 20
56.5473262723
 11
103.5931100009
 21
58.4331859612
  0
LINE
  5
4C2
100
AcDbEntity
  8
0
100
AcDbLine
 62
7
  6
CONTINUOUS
 10
103.5931100009
 20
56.5473262723
 11
103.5931100009
 21
58.4331859612
  0
LINE
  5
4C3
100
AcDbEntity
  8
ASSI
100
AcDbLine
 62
7
  6
CONTINUOUS
 10
103.5931100009
 20
98.0265564537
 11
103.5931100009
 21
99.9124161424
  0
LINE
  5
4C4
100
AcDbEntity
  8
0
100
AcDbLine
 62
7
  6
CONTINUOUS
 10
103.5931100009
 20
98.0265564537
 11
103.5931100009
 21
99.9124161424
  0
LWPOLYLINE
  5
4C5
100
AcDbEntity
  8
0
100
AcDbPolyline
 62
250
  6
CONTINUOUS
 90
7
 70
0
 10
100.8051794244
 20
67.2456030676
 10
100.804508722
 20
67.2418241349
 10
100.8042354946
 20
67.2404085215
 10
100.804046946
 20
67.2393087215
 10
100.803939886
 20
67.238523993
 10
100.8038642669
 20
67.238058814
 10
100.8037936034
 20
67.2379133015
  0
LWPOLYLINE
  5
4C6
100
AcDbEntity
  8
0
100
AcDbPolyline
 62
250
  6
CONTINUOUS
 90
3
 70
0
 10
100.8066264876
 20
67.2535573721
 10
100.805618296
 20
67.2479495884
 10
100.8051794244
 20
67.2456030676
  0
LINE
  5
4C7
100
AcDbEntity
  8
0
100
AcDbLine
 62
250
  6
CONTINUOUS
 10
100.8241862584
 20
67.3502489338
 11
100.8192048859
 21
67.3227991956
  0
LINE
  5
4C8
100
AcDbEntity
  8
0
100
AcDbLine
 62
250
  6
CONTINUOUS
 10
100.8192048859
 20
67.3227991956
 11
100.8066264876
 21
67.2535573721
  0
LINE
  5
4C9
100
AcDbEntity
  8
0
100
AcDbLine
 62
250
  6
CONTINUOUS
 10
100.8395201624
 20
67.4346964638
 11
100.8241862584
 21
67.3502489338
  0
LWPOLYLINE
  5
4CA
100
AcDbEntity
  8
ASSI
100
AcDbPolyline
 62
7
  6
CONTINUOUS
 90
12
 70
0
 10
105.6353686607
 20
81.9396875336
 10
105.6564928222
 20
81.9821485559
 10
105.6815484245
 20
82.0224187534
 10
105.7103095804
 20
82.0601359252
 10
105.7425168884
 20
82.0949614841
 10
105.7778804877
 20
82.1265812772
 10
105.8160828595
 20
82.1547082419
 10
105.8567803738
 20
82.1790880294
 10
105.8996067151
 20
82.1995017134
 10
105.9441769747
 20
82.2157653542
 10
105.9900901848
 20
82.2277320756
 10
106.0369328503
 20
82.2352935584
  0
LWPOLYLINE
  5
4CB
100
AcDbEntity
  8
0
100
AcDbPolyline
 62
7
  6
CONTINUOUS
 90
12
 70
0
 10
105.6353686607
 20
81.9396875336
 10
105.6564928222
 20
81.9821485559
 10
105.6815484245
 20
82.0224187534
 10
105.7103095804
 20
82.0601359252
 10
105.7425168884
 20
82.0949614841
 10
105.7778804877
 20
82.1265812772
 10
105.8160828595
 20
82.1547082419
 10
105.8567803738
 20
82.1790880294
 10
105.8996067151
 20
82.1995017134
 10
105.9441769747
 20
82.2157653542
 10
105.9900901848
 20
82.2277320756
 10
106.0369328503
 20
82.2352935584
  0
LWPOLYLINE
  5
4CC
100
AcDbEntity
  8
ASSI
100
AcDbPolyline
 62
7
  6
CONTINUOUS
 90
7
 70
0
 10
115.9931100009
 20
92.52982709
 10
115.9917466973
 20
92.5280662154
 10
115.9875916646
 20
92.5234674977
 10
115.9805671625
 20
92.516030937
 10
115.9705884084
 20
92.5056540818
 10
115.9576583786
 20
92.4924393834
 10
115.9030442173
 20
92.4375805849
  0
LWPOLYLINE
  5
4CD
100
AcDbEntity
  8
0
100
AcDbPolyline
 62
7
  6
CONTINUOUS
 90
7
 70
0
 10
115.9931100009
 20
92.52982709
 10
115.9917466973
 20
92.5280662154
 10
115.9875916646
 20
92.5234674977
 10
115.9805671625
 20
92.516030937
 10
115.9705884084
 20
92.5056540818
 10
115.9576583786
 20
92.4924393834
 10
115.9030442173
 20
92.4375805849
  0
LINE
  5
4CE
100
AcDbEntity
  8
ASSI
100
AcDbLine
 62
7
  6
CONTINUOUS
 10
106.0369328503
 20
82.2352935584
 11
106.0842832006
 21
82.2383812099
  0
LINE
  5
4CF
100
AcDbEntity
  8
0
100
AcDbLine
 62
7
  6
CONTINUOUS
 10
106.0369328503
 20
82.2352935584
 11
106.0842832006
 21
82.2383812099
  0
LWPOLYLINE
  5
4D0
100
AcDbEntity
  8
ASSI
100
AcDbPolyline
 62
250
  6
CONTINUOUS
 90
16
 70
0
 10
117.2086625431
 20
81.8326850497
 10
117.2487345437
 20
81.8341037387
 10
117.2876570206
 20
81.8364122635
 10
117.3254299738
 20
81.8396106243
 10
117.3620465178
 20
81.8437774887
 10
117.3975135381
 20
81.8488341889
 10
117.4318516908
 20
81.8545447222
 10
117.4650614347
 20
81.8608997434
 10
117.4971423111
 20
81.8679085976
 10
117.5281135996
 20
81.8753633169
 10
117.5579757997
 20
81.883257185
 10
117.5867284119
 20
81.8915969181
 10
117.6143892173
 20
81.9001946971
 10
117.6409641429
 20
81.9089879154
 10
117.6664472618
 20
81.9180391794
 10
117.690838574
 20
81.9273484893
  0
LWPOLYLINE
  5
4D1
100
AcDbEntity
  8
0
100
AcDbPolyline
 62
250
  6
CONTINUOUS
 90
16
 70
0
 10
117.2086625431
 20
81.8326850497
 10
117.2487345437
 20
81.8341037387
 10
117.2876570206
 20
81.8364122635
 10
117.3254299738
 20
81.8396106243
 10
117.3620465178
 20
81.8437774887
 10
117.3975135381
 20
81.8488341889
 10
117.4318516908
 20
81.8545447222
 10
117.4650614347
 20
81.8608997434
 10
117.4971423111
 20
81.8679085976
 10
117.5281135996
 20
81.8753633169
 10
117.5579757997
 20
81.883257185
 10
117.5867284119
 20
81.8915969181
 10
117.6143892173
 20
81.9001946971
 10
117.6409641429
 20
81.9089879154
 10
117.6664472618
 20
81.9180391794
 10
117.690838574
 20
81.9273484893
  0
LINE
  5
4D2
100
AcDbEntity
  8
ASSI
100
AcDbLine
 62
250
  6
CONTINUOUS
 10
106.1842291741
 20
81.6402528495
 11
117.2086625431
 21
81.8326850497
  0
LINE
  5
4D3
100
AcDbEntity
  8
0
100
AcDbLine
 62
250
  6
CONTINUOUS
 10
106.1842291741
 20
81.6402528495
 11
117.2086625431
 21
81.8326850497
  0
LINE
  5
4D4
100
AcDbEntity
  8
ASSI
100
AcDbLine
 62
7
  6
CONTINUOUS
 10
106.0843837977
 20
82.2384464234
 11
117.2070719261
 21
82.4325936668
  0
LINE
  5
4D5
100
AcDbEntity
  8
0
100
AcDbLine
 62
7
  6
CONTINUOUS
 10
106.0843837977
 20
82.2384464234
 11
117.2070719261
 21
82.4325936668
  0
LINE
  5
4D6
100
AcDbEntity
  8
ASSI
100
AcDbLine
 62
250
  6
CONTINUOUS
 10
104.8070719261
 20
81.7385225758
 11
105.5931100009
 21
81.738522577
  0
LINE
  5
4D7
100
AcDbEntity
  8
0
100
AcDbLine
 62
250
  6
CONTINUOUS
 10
104.8070719261
 20
81.7385225758
 11
105.5931100009
 21
81.738522577
  0
LINE
  5
4D8
100
AcDbEntity
  8
ASSI
100
AcDbLine
 62
250
  6
CONTINUOUS
 10
105.7232940446
 20
81.7162427276
 11
105.9189140796
 21
81.6839419376
  0
LINE
  5
4D9
100
AcDbEntity
  8
0
100
AcDbLine
 62
250
  6
CONTINUOUS
 10
105.7232940446
 20
81.7162427276
 11
105.9189140796
 21
81.6839419376
  0
LWPOLYLINE
  5
4DA
100
AcDbEntity
  8
ASSI
100
AcDbPolyline
 62
250
  6
CONTINUOUS
 90
4
 70
0
 10
105.9189140796
 20
81.6839419376
 10
106.071857116
 20
81.6585405871
 10
106.1272825105
 20
81.6491962406
 10
106.1842291741
 20
81.6394048624
  0
LWPOLYLINE
  5
4DB
100
AcDbEntity
  8
0
100
AcDbPolyline
 62
250
  6
CONTINUOUS
 90
4
 70
0
 10
105.9189140796
 20
81.6839419376
 10
106.071857116
 20
81.6585405871
 10
106.1272825105
 20
81.6491962406
 10
106.1842291741
 20
81.6394048624
  0
LWPOLYLINE
  5
4DC
100
AcDbEntity
  8
ASSI
100
AcDbPolyline
 62
7
  6
CONTINUOUS
 90
3
 70
0
 10
117.9096437289
 20
64.0519494417
 10
117.8913580781
 20
64.070112945
 10
117.8714623411
 20
64.0894859917
  0
LWPOLYLINE
  5
4DD
100
AcDbEntity
  8
0
100
AcDbPolyline
 62
7
  6
CONTINUOUS
 90
3
 70
0
 10
117.9096437289
 20
64.0519494417
 10
117.8913580781
 20
64.070112945
 10
117.8714623411
 20
64.0894859917
  0
LINE
  5
4DE
100
AcDbEntity
  8
0
100
AcDbLine
 62
250
  6
CONTINUOUS
 10
100.8037936034
 20
89.2218291132
 11
100.8395201624
 21
89.0250459509
  0
LWPOLYLINE
  5
4DF
100
AcDbEntity
  8
ASSI
100
AcDbPolyline
 62
250
  6
CONTINUOUS
 90
8
 70
0
 10
106.0842768357
 20
74.2213616792
 10
106.0841143048
 20
74.2243010105
 10
106.0846796817
 20
74.2315185476
 10
106.0859756414
 20
74.2428711925
 10
106.0880152396
 20
74.2581327146
 10
106.090787887
 20
74.2771409772
 10
106.0942623202
 20
74.2999253678
 10
106.0984712347
 20
74.3264481559
  0
LWPOLYLINE
  5
4E0
100
AcDbEntity
  8
0
100
AcDbPolyline
 62
250
  6
CONTINUOUS
 90
8
 70
0
 10
106.0842768357
 20
74.2213616792
 10
106.0841143048
 20
74.2243010105
 10
106.0846796817
 20
74.2315185476
 10
106.0859756414
 20
74.2428711925
 10
106.0880152396
 20
74.2581327146
 10
106.090787887
 20
74.2771409772
 10
106.0942623202
 20
74.2999253678
 10
106.0984712347
 20
74.3264481559
  0
LWPOLYLINE
  5
4E1
100
AcDbEntity
  8
ASSI
100
AcDbPolyline
 62
250
  6
CONTINUOUS
 90
16
 70
0
 10
106.0843837977
 20
83.0383245795
 10
106.0857660343
 20
82.9547306943
 10
106.0869802224
 20
82.8720523264
 10
106.0880130641
 20
82.7911949663
 10
106.0888532479
 20
82.7130441611
 10
106.089491572
 20
82.6384558154
 10
106.0899210455
 20
82.5682468183
 10
106.0901369646
 20
82.5031860963
 10
106.0901369646
 20
82.4439861919
 10
106.0899210457
 20
82.3912954605
 10
106.0894915724
 20
82.3456909692
 10
106.0888532483
 20
82.3076721766
 10
106.0880130646
 20
82.2776554633
 10
106.0869802228
 20
82.2559695712
 10
106.0857660346
 20
82.2428520035
 10
106.0843837977
 20
82.2384464234
  0
LWPOLYLINE
  5
4E2
100
AcDbEntity
  8
0
100
AcDbPolyline
 62
250
  6
CONTINUOUS
 90
16
 70
0
 10
106.0843837977
 20
83.0383245795
 10
106.0857660343
 20
82.9547306943
 10
106.0869802224
 20
82.8720523264
 10
106.0880130641
 20
82.7911949663
 10
106.0888532479
 20
82.7130441611
 10
106.089491572
 20
82.6384558154
 10
106.0899210455
 20
82.5682468183
 10
106.0901369646
 20
82.5031860963
 10
106.0901369646
 20
82.4439861919
 10
106.0899210457
 20
82.3912954605
 10
106.0894915724
 20
82.3456909692
 10
106.0888532483
 20
82.3076721766
 10
106.0880130646
 20
82.2776554633
 10
106.0869802228
 20
82.2559695712
 10
106.0857660346
 20
82.2428520035
 10
106.0843837977
 20
82.2384464234
  0
LINE
  5
4E3
100
AcDbEntity
  8
ASSI
100
AcDbLine
 62
250
  6
CONTINUOUS
 10
104.8076743849
 20
56.6966042444
 11
104.8070719261
 21
56.7861423562
  0
LINE
  5
4E4
100
AcDbEntity
  8
0
100
AcDbLine
 62
250
  6
CONTINUOUS
 10
104.8076743849
 20
56.6966042444
 11
104.8070719261
 21
56.7861423562
  0
LINE
  5
4E5
100
AcDbEntity
  8
ASSI
100
AcDbLine
 62
250
  6
CONTINUOUS
 10
105.886357987
 20
63.6486791829
 11
105.887874279
 21
63.2836300407
  0
LINE
  5
4E6
100
AcDbEntity
  8
0
100
AcDbLine
 62
250
  6
CONTINUOUS
 10
105.886357987
 20
63.6486791829
 11
105.887874279
 21
63.2836300407
  0
LWPOLYLINE
  5
4E7
100
AcDbEntity
  8
ASSI
100
AcDbPolyline
 62
250
  6
CONTINUOUS
 90
3
 70
0
 10
105.5915843551
 20
63.7995172663
 10
105.5928411843
 20
63.429785847
 10
105.5931100009
 20
63.2337904713
  0
LWPOLYLINE
  5
4E8
100
AcDbEntity
  8
0
100
AcDbPolyline
 62
250
  6
CONTINUOUS
 90
3
 70
0
 10
105.5915843551
 20
63.7995172663
 10
105.5928411843
 20
63.429785847
 10
105.5931100009
 20
63.2337904713
  0
LINE
  5
4E9
100
AcDbEntity
  8
ASSI
100
AcDbLine
 62
250
  6
CONTINUOUS
 10
104.8077249036
 20
59.957995684
 11
104.807071979
 21
60.270256251
  0
LINE
  5
4EA
100
AcDbEntity
  8
0
100
AcDbLine
 62
250
  6
CONTINUOUS
 10
104.8077249036
 20
59.957995684
 11
104.807071979
 21
60.270256251
  0
LINE
  5
4EB
100
AcDbEntity
  8
ASSI
100
AcDbLine
 62
250
  6
CONTINUOUS
 10
104.8080125943
 20
59.6698901528
 11
104.8077249036
 21
59.957995684
  0
LINE
  5
4EC
100
AcDbEntity
  8
0
100
AcDbLine
 62
250
  6
CONTINUOUS
 10
104.8080125943
 20
59.6698901528
 11
104.8077249036
 21
59.957995684
  0
LINE
  5
4ED
100
AcDbEntity
  8
ASSI
100
AcDbLine
 62
250
  6
CONTINUOUS
 10
104.8070719261
 20
56.7861423562
 11
104.8070719261
 21
58.947142084
  0
LINE
  5
4EE
100
AcDbEntity
  8
0
100
AcDbLine
 62
250
  6
CONTINUOUS
 10
104.8070719261
 20
56.7861423562
 11
104.8070719261
 21
58.947142084
  0
LINE
  5
4EF
100
AcDbEntity
  8
ASSI
100
AcDbLine
 62
250
  6
CONTINUOUS
 10
104.8070719261
 20
60.2702562506
 11
104.8070719261
 21
76.7298712073
  0
LINE
  5
4F0
100
AcDbEntity
  8
0
100
AcDbLine
 62
250
  6
CONTINUOUS
 10
104.8070719261
 20
60.2702562506
 11
104.8070719261
 21
76.7298712073
  0
LINE
  5
4F1
100
AcDbEntity
  8
ASSI
100
AcDbLine
 62
250
  6
CONTINUOUS
 10
104.8070719261
 20
76.9298712073
 11
104.8070719261
 21
79.5298712073
  0
LINE
  5
4F2
100
AcDbEntity
  8
0
100
AcDbLine
 62
250
  6
CONTINUOUS
 10
104.8070719261
 20
76.9298712073
 11
104.8070719261
 21
79.5298712073
  0
LINE
  5
4F3
100
AcDbEntity
  8
ASSI
100
AcDbLine
 62
250
  6
CONTINUOUS
 10
104.8070719261
 20
79.7298712073
 11
104.8070719261
 21
81.7385225758
  0
LINE
  5
4F4
100
AcDbEntity
  8
0
100
AcDbLine
 62
250
  6
CONTINUOUS
 10
104.8070719261
 20
79.7298712073
 11
104.8070719261
 21
81.7385225758
  0
LINE
  5
4F5
100
AcDbEntity
  8
ASSI
100
AcDbLine
 62
250
  6
CONTINUOUS
 10
105.0070719261
 20
79.7298712073
 11
105.0070719261
 21
79.5298712073
  0
LINE
  5
4F6
100
AcDbEntity
  8
0
100
AcDbLine
 62
250
  6
CONTINUOUS
 10
105.0070719261
 20
79.7298712073
 11
105.0070719261
 21
79.5298712073
  0
LINE
  5
4F7
100
AcDbEntity
  8
ASSI
100
AcDbLine
 62
250
  6
CONTINUOUS
 10
105.0070719261
 20
76.9298712073
 11
105.0070719261
 21
76.7298712073
  0
LINE
  5
4F8
100
AcDbEntity
  8
0
100
AcDbLine
 62
250
  6
CONTINUOUS
 10
105.0070719261
 20
76.9298712073
 11
105.0070719261
 21
76.7298712073
  0
LWPOLYLINE
  5
4F9
100
AcDbEntity
  8
0
100
AcDbPolyline
 62
7
  6
CONTINUOUS
 90
4
 70
0
 43
0.3500000006
 10
105.1073918152
 20
113.7370098267
 10
105.1073918152
 20
114.379872345
 10
106.6073922729
 20
114.379872345
 10
105.7502543335
 20
111.3798714294
  0
LINE
  5
4FA
100
AcDbEntity
  8
ASSI
100
AcDbLine
 62
7
  6
CONTINUOUS
 10
105.5931100009
 20
57.3683942126
 11
105.5931100009
 21
63.2337904713
  0
LINE
  5
4FB
100
AcDbEntity
  8
0
100
AcDbLine
 62
7
  6
CONTINUOUS
 10
105.5931100009
 20
57.3683942126
 11
105.5931100009
 21
63.2337904713
  0
LINE
  5
4FC
100
AcDbEntity
  8
ASSI
100
AcDbLine
 62
7
  6
CONTINUOUS
 10
105.5931100009
 20
65.2259519434
 11
105.5931100009
 21
76.7298712073
  0
LINE
  5
4FD
100
AcDbEntity
  8
0
100
AcDbLine
 62
7
  6
CONTINUOUS
 10
105.5931100009
 20
65.2259519434
 11
105.5931100009
 21
76.7298712073
  0
LINE
  5
4FE
100
AcDbEntity
  8
ASSI
100
AcDbLine
 62
7
  6
CONTINUOUS
 10
105.5931100009
 20
76.9298712073
 11
105.5931100009
 21
79.5298712073
  0
LINE
  5
4FF
100
AcDbEntity
  8
0
100
AcDbLine
 62
7
  6
CONTINUOUS
 10
105.5931100009
 20
76.9298712073
 11
105.5931100009
 21
79.5298712073
  0
LINE
  5
500
100
AcDbEntity
  8
ASSI
100
AcDbLine
 62
7
  6
CONTINUOUS
 10
105.5931100009
 20
79.7298712073
 11
105.5931100009
 21
81.7385225758
  0
LINE
  5
501
100
AcDbEntity
  8
0
100
AcDbLine
 62
7
  6
CONTINUOUS
 10
105.5931100009
 20
79.7298712073
 11
105.5931100009
 21
81.7385225758
  0
LINE
  5
502
100
AcDbEntity
  8
ASSI
100
AcDbLine
 62
7
  6
CONTINUOUS
 10
105.7931100009
 20
79.7298712073
 11
105.7931100009
 21
76.7298712073
  0
LINE
  5
503
100
AcDbEntity
  8
0
100
AcDbLine
 62
7
  6
CONTINUOUS
 10
105.7931100009
 20
79.7298712073
 11
105.7931100009
 21
76.7298712073
  0
LINE
  5
504
100
AcDbEntity
  8
ASSI
100
AcDbLine
 62
250
  6
CONTINUOUS
 10
105.887874279
 20
69.9247260777
 11
105.887874279
 21
65.1761123739
  0
LINE
  5
505
100
AcDbEntity
  8
0
100
AcDbLine
 62
250
  6
CONTINUOUS
 10
105.887874279
 20
69.9247260777
 11
105.887874279
 21
65.1761123739
  0
LINE
  5
506
100
AcDbEntity
  8
ASSI
100
AcDbLine
 62
250
  6
CONTINUOUS
 10
105.887874279
 20
63.2836300407
 11
105.887874279
 21
57.3872596879
  0
LINE
  5
507
100
AcDbEntity
  8
0
100
AcDbLine
 62
250
  6
CONTINUOUS
 10
105.887874279
 20
63.2836300407
 11
105.887874279
 21
57.3872596879
  0
LINE
  5
508
100
AcDbEntity
  8
ASSI
100
AcDbLine
 62
250
  6
CONTINUOUS
 10
106.1842291741
 20
81.6402528495
 11
106.1842291741
 21
74.8194895652
  0
LINE
  5
509
100
AcDbEntity
  8
0
100
AcDbLine
 62
250
  6
CONTINUOUS
 10
106.1842291741
 20
81.6402528495
 11
106.1842291741
 21
74.8194895652
  0
LINE
  5
50A
100
AcDbEntity
  8
ASSI
100
AcDbLine
 62
250
  6
CONTINUOUS
 10
104.8079822451
 20
59.406188233
 11
104.8080125943
 21
59.6698901528
  0
LINE
  5
50B
100
AcDbEntity
  8
0
100
AcDbLine
 62
250
  6
CONTINUOUS
 10
104.8079822451
 20
59.406188233
 11
104.8080125943
 21
59.6698901528
  0
LWPOLYLINE
  5
50C
100
AcDbEntity
  8
ASSI
100
AcDbPolyline
 62
250
  6
CONTINUOUS
 90
10
 70
0
 10
105.5931100009
 20
65.2259519434
 10
105.592921062
 20
65.0717399162
 10
105.5924761783
 20
64.917380308
 10
105.5919341307
 20
64.7628731188
 10
105.5914174057
 20
64.6094484788
 10
105.5910235498
 20
64.4558762579
 10
105.5908297002
 20
64.2984660652
 10
105.5908423435
 20
64.1371817058
 10
105.5910826576
 20
63.9720593747
 10
105.5915843551
 20
63.7995172663
  0
LWPOLYLINE
  5
50D
100
AcDbEntity
  8
0
100
AcDbPolyline
 62
250
  6
CONTINUOUS
 90
10
 70
0
 10
105.5931100009
 20
65.2259519434
 10
105.592921062
 20
65.0717399162
 10
105.5924761783
 20
64.917380308
 10
105.5919341307
 20
64.7628731188
 10
105.5914174057
 20
64.6094484788
 10
105.5910235498
 20
64.4558762579
 10
105.5908297002
 20
64.2984660652
 10
105.5908423435
 20
64.1371817058
 10
105.5910826576
 20
63.9720593747
 10
105.5915843551
 20
63.7995172663
  0
LINE
  5
50E
100
AcDbEntity
  8
ASSI
100
AcDbLine
 62
250
  6
CONTINUOUS
 10
104.8076639735
 20
59.1653406682
 11
104.8079822451
 21
59.406188233
  0
LINE
  5
50F
100
AcDbEntity
  8
0
100
AcDbLine
 62
250
  6
CONTINUOUS
 10
104.8076639735
 20
59.1653406682
 11
104.8079822451
 21
59.406188233
  0
LINE
  5
510
100
AcDbEntity
  8
ASSI
100
AcDbLine
 62
250
  6
CONTINUOUS
 10
104.8070719828
 20
58.9471420844
 11
104.8076639735
 21
59.1653406682
  0
LINE
  5
511
100
AcDbEntity
  8
0
100
AcDbLine
 62
250
  6
CONTINUOUS
 10
104.8070719828
 20
58.9471420844
 11
104.8076639735
 21
59.1653406682
  0
LWPOLYLINE
  5
512
100
AcDbEntity
  8
ASSI
100
AcDbPolyline
 62
250
  6
CONTINUOUS
 90
7
 70
0
 10
105.887874279
 20
65.1761123739
 10
105.8856493073
 20
64.5904227073
 10
105.8850520721
 20
64.4446044819
 10
105.8847388649
 20
64.2950339068
 10
105.8848561364
 20
64.141820223
 10
105.8852574358
 20
63.9850630248
 10
105.886357987
 20
63.6486791829
  0
LWPOLYLINE
  5
513
100
AcDbEntity
  8
0
100
AcDbPolyline
 62
250
  6
CONTINUOUS
 90
7
 70
0
 10
105.887874279
 20
65.1761123739
 10
105.8856493073
 20
64.5904227073
 10
105.8850520721
 20
64.4446044819
 10
105.8847388649
 20
64.2950339068
 10
105.8848561364
 20
64.141820223
 10
105.8852574358
 20
63.9850630248
 10
105.886357987
 20
63.6486791829
  0
LWPOLYLINE
  5
514
100
AcDbEntity
  8
ASSI
100
AcDbPolyline
 62
250
  6
CONTINUOUS
 90
22
 70
0
 10
104.8070719261
 20
81.7385225758
 10
104.8109657666
 20
81.835452662
 10
104.8214935106
 20
81.9303904593
 10
104.8386551582
 20
82.0233359675
 10
104.8625800202
 20
82.1145486348
 10
104.8931387858
 20
82.2037690131
 10
104.9299435217
 20
82.2902187584
 10
104.9731667089
 20
82.3741378966
 10
105.0226358664
 20
82.4552864019
 10
105.0774456176
 20
82.5321658525
 10
105.13754248
 20
82.604555598
 10
105.2029799361
 20
82.6726762889
 10
105.2730130568
 20
82.7356914549
 10
105.3474684907
 20
82.7935663843
 10
105.4265195893
 20
82.8463357887
 10
105.5099414769
 20
82.8932673331
 10
105.5983045959
 20
82.9345788423
 10
105.6910385039
 20
82.9700524916
 10
105.7862069984
 20
82.9983024709
 10
105.8831646784
 20
83.0188668437
 10
105.9825569448
 20
83.0322075465
 10
106.0843837977
 20
83.0383245795
  0
LWPOLYLINE
  5
515
100
AcDbEntity
  8
0
100
AcDbPolyline
 62
250
  6
CONTINUOUS
 90
22
 70
0
 10
104.8070719261
 20
81.7385225758
 10
104.8109657666
 20
81.835452662
 10
104.8214935106
 20
81.9303904593
 10
104.8386551582
 20
82.0233359675
 10
104.8625800202
 20
82.1145486348
 10
104.8931387858
 20
82.2037690131
 10
104.9299435217
 20
82.2902187584
 10
104.9731667089
 20
82.3741378966
 10
105.0226358664
 20
82.4552864019
 10
105.0774456176
 20
82.5321658525
 10
105.13754248
 20
82.604555598
 10
105.2029799361
 20
82.6726762889
 10
105.2730130568
 20
82.7356914549
 10
105.3474684907
 20
82.7935663843
 10
105.4265195893
 20
82.8463357887
 10
105.5099414769
 20
82.8932673331
 10
105.5983045959
 20
82.9345788423
 10
105.6910385039
 20
82.9700524916
 10
105.7862069984
 20
82.9983024709
 10
105.8831646784
 20
83.0188668437
 10
105.9825569448
 20
83.0322075465
 10
106.0843837977
 20
83.0383245795
  0
LWPOLYLINE
  5
516
100
AcDbEntity
  8
ASSI
100
AcDbPolyline
 62
250
  6
CONTINUOUS
 90
3
 70
0
 10
106.0984712347
 20
74.3264481559
 10
106.1088889654
 20
74.389847474
 10
106.1149235235
 20
74.4261338029
  0
LWPOLYLINE
  5
517
100
AcDbEntity
  8
0
100
AcDbPolyline
 62
250
  6
CONTINUOUS
 90
3
 70
0
 10
106.0984712347
 20
74.3264481559
 10
106.1088889654
 20
74.389847474
 10
106.1149235235
 20
74.4261338029
  0
LWPOLYLINE
  5
518
100
AcDbEntity
  8
ASSI
100
AcDbPolyline
 62
250
  6
CONTINUOUS
 90
3
 70
0
 10
106.1149235235
 20
74.4261338029
 10
106.1287946616
 20
74.507685169
 10
106.1367179026
 20
74.5533966287
  0
LWPOLYLINE
  5
519
100
AcDbEntity
  8
0
100
AcDbPolyline
 62
250
  6
CONTINUOUS
 90
3
 70
0
 10
106.1149235235
 20
74.4261338029
 10
106.1287946616
 20
74.507685169
 10
106.1367179026
 20
74.5533966287
  0
LWPOLYLINE
  5
51A
100
AcDbEntity
  8
ASSI
100
AcDbPolyline
 62
250
  6
CONTINUOUS
 90
5
 70
0
 10
106.1367179026
 20
74.5533966287
 10
106.1544013158
 20
74.6532432291
 10
106.1640671793
 20
74.7068616082
 10
106.174297146
 20
74.7624224735
 10
106.1850884771
 20
74.819474566
  0
LWPOLYLINE
  5
51B
100
AcDbEntity
  8
0
100
AcDbPolyline
 62
250
  6
CONTINUOUS
 90
5
 70
0
 10
106.1367179026
 20
74.5533966287
 10
106.1544013158
 20
74.6532432291
 10
106.1640671793
 20
74.7068616082
 10
106.174297146
 20
74.7624224735
 10
106.1850884771
 20
74.819474566
  0
LINE
  5
51C
100
AcDbEntity
  8
ASSI
100
AcDbLine
 62
250
  6
CONTINUOUS
 10
106.0843837977
 20
83.0383245795
 11
117.2070719261
 21
83.2324718229
  0
LINE
  5
51D
100
AcDbEntity
  8
0
100
AcDbLine
 62
250
  6
CONTINUOUS
 10
106.0843837977
 20
83.0383245795
 11
117.2070719261
 21
83.2324718229
  0
LINE
  5
51E
100
AcDbEntity
  8
26814000
100
AcDbLine
 62
250
  6
CONTINUOUS
 10
89.0824758932
 20
83.0298712073
 11
88.762207271
 21
83.0298712073
  0
LINE
  5
51F
100
AcDbEntity
  8
26814000
100
AcDbLine
 62
7
  6
CONTINUOUS
 10
89.1070328054
 20
83.2298712073
 11
88.7832281181
 21
83.2298712073
  0
LINE
  5
520
100
AcDbEntity
  8
ASSI
100
AcDbLine
 62
250
  6
CONTINUOUS
 10
117.9931100009
 20
83.2324718229
 11
117.2070719261
 21
83.2324718229
  0
LINE
  5
521
100
AcDbEntity
  8
0
100
AcDbLine
 62
250
  6
CONTINUOUS
 10
117.9931100009
 20
83.2324718229
 11
117.2070719261
 21
83.2324718229
  0
LINE
  5
522
100
AcDbEntity
  8
26814000
100
AcDbLine
 62
250
  6
CONTINUOUS
 10
89.1315897176
 20
83.4298712073
 11
88.8042489651
 21
83.4298712073
  0
LINE
  5
523
100
AcDbEntity
  8
ASSI
100
AcDbLine
 62
7
  6
CONTINUOUS
 10
100.7931100009
 20
84.2298712073
 11
102.0931100009
 21
84.2298712073
  0
LINE
  5
524
100
AcDbEntity
  8
0
100
AcDbLine
 62
7
  6
CONTINUOUS
 10
100.7931100009
 20
84.2298712073
 11
102.0931100009
 21
84.2298712073
  0
LINE
  5
525
100
AcDbEntity
  8
ASSI
100
AcDbLine
 62
7
  6
CONTINUOUS
 10
117.9931100009
 20
84.7298712073
 11
118.1931100009
 21
84.7298712073
  0
LINE
  5
526
100
AcDbEntity
  8
0
100
AcDbLine
 62
7
  6
CONTINUOUS
 10
117.9931100009
 20
84.7298712073
 11
118.1931100009
 21
84.7298712073
  0
LWPOLYLINE
  5
527
100
AcDbEntity
  8
ASSI
100
AcDbPolyline
 62
250
  6
CONTINUOUS
 90
4
 70
0
 10
105.5931100009
 20
81.7385125039
 10
105.5952941771
 20
81.7379722118
 10
105.6017745113
 20
81.7367887678
 10
105.7232940446
 20
81.7162427276
  0
LWPOLYLINE
  5
528
100
AcDbEntity
  8
0
100
AcDbPolyline
 62
250
  6
CONTINUOUS
 90
4
 70
0
 10
105.5931100009
 20
81.7385125039
 10
105.5952941771
 20
81.7379722118
 10
105.6017745113
 20
81.7367887678
 10
105.7232940446
 20
81.7162427276
  0
LWPOLYLINE
  5
529
100
AcDbEntity
  8
ASSI
100
AcDbPolyline
 62
250
  6
CONTINUOUS
 90
16
 70
0
 10
106.0843837977
 20
74.2212959913
 10
106.0857660342
 20
74.2168904111
 10
106.0869802222
 20
74.2037728434
 10
106.0880130639
 20
74.1820869513
 10
106.0888532479
 20
74.152070238
 10
106.0894915722
 20
74.1140514454
 10
106.0899210457
 20
74.0684469541
 10
106.0901369645
 20
74.0157562228
 10
106.0901369642
 20
73.9565563186
 10
106.0899210448
 20
73.8914955966
 10
106.0894915707
 20
73.8212865997
 10
106.0888532458
 20
73.7466982543
 10
106.0880130617
 20
73.6685474491
 10
106.0869802203
 20
73.5876900889
 10
106.0857660331
 20
73.5050117208
 10
106.0843837977
 20
73.4214178352
  0
LWPOLYLINE
  5
52A
100
AcDbEntity
  8
0
100
AcDbPolyline
 62
250
  6
CONTINUOUS
 90
16
 70
0
 10
106.0843837977
 20
74.2212959913
 10
106.0857660342
 20
74.2168904111
 10
106.0869802222
 20
74.2037728434
 10
106.0880130639
 20
74.1820869513
 10
106.0888532479
 20
74.152070238
 10
106.0894915722
 20
74.1140514454
 10
106.0899210457
 20
74.0684469541
 10
106.0901369645
 20
74.0157562228
 10
106.0901369642
 20
73.9565563186
 10
106.0899210448
 20
73.8914955966
 10
106.0894915707
 20
73.8212865997
 10
106.0888532458
 20
73.7466982543
 10
106.0880130617
 20
73.6685474491
 10
106.0869802203
 20
73.5876900889
 10
106.0857660331
 20
73.5050117208
 10
106.0843837977
 20
73.4214178352
  0
LWPOLYLINE
  5
52B
100
AcDbEntity
  8
ASSI
100
AcDbPolyline
 62
250
  6
CONTINUOUS
 90
4
 70
0
 10
106.1850785649
 20
81.6402676756
 10
106.1743361631
 20
81.6970814613
 10
106.1641415103
 20
81.7524588199
 10
106.1544975291
 20
81.8059511933
  0
LWPOLYLINE
  5
52C
100
AcDbEntity
  8
0
100
AcDbPolyline
 62
250
  6
CONTINUOUS
 90
4
 70
0
 10
106.1850785649
 20
81.6402676756
 10
106.1743361631
 20
81.6970814613
 10
106.1641415103
 20
81.7524588199
 10
106.1544975291
 20
81.8059511933
  0
LWPOLYLINE
  5
52D
100
AcDbEntity
  8
ASSI
100
AcDbPolyline
 62
250
  6
CONTINUOUS
 90
3
 70
0
 10
106.1544975291
 20
81.8059511933
 10
106.1368113909
 20
81.9057140087
 10
106.1288783349
 20
81.9514624271
  0
LWPOLYLINE
  5
52E
100
AcDbEntity
  8
0
100
AcDbPolyline
 62
250
  6
CONTINUOUS
 90
3
 70
0
 10
106.1544975291
 20
81.8059511933
 10
106.1368113909
 20
81.9057140087
 10
106.1288783349
 20
81.9514624271
  0
LINE
  5
52F
100
AcDbEntity
  8
ASSI
100
AcDbLine
 62
250
  6
CONTINUOUS
 10
106.1288783349
 20
81.9514624271
 11
106.1149828795
 21
82.0332399329
  0
LINE
  5
530
100
AcDbEntity
  8
0
100
AcDbLine
 62
250
  6
CONTINUOUS
 10
106.1288783349
 20
81.9514624271
 11
106.1149828795
 21
82.0332399329
  0
LWPOLYLINE
  5
531
100
AcDbEntity
  8
ASSI
100
AcDbPolyline
 62
250
  6
CONTINUOUS
 90
10
 70
0
 10
106.1149828795
 20
82.0332399329
 10
106.1034551923
 20
82.1031003858
 10
106.0985612854
 20
82.1332136619
 10
106.0943759086
 20
82.1597933702
 10
106.0909341876
 20
82.182611769
 10
106.0881958582
 20
82.201638413
 10
106.0861621509
 20
82.2169085761
 10
106.0848336649
 20
82.228260647
 10
106.0842073143
 20
82.2354671038
 10
106.0842804018
 20
82.2383850437
  0
LWPOLYLINE
  5
532
100
AcDbEntity
  8
0
100
AcDbPolyline
 62
250
  6
CONTINUOUS
 90
10
 70
0
 10
106.1149828795
 20
82.0332399329
 10
106.1034551923
 20
82.1031003858
 10
106.0985612854
 20
82.1332136619
 10
106.0943759086
 20
82.1597933702
 10
106.0909341876
 20
82.182611769
 10
106.0881958582
 20
82.201638413
 10
106.0861621509
 20
82.2169085761
 10
106.0848336649
 20
82.228260647
 10
106.0842073143
 20
82.2354671038
 10
106.0842804018
 20
82.2383850437
  0
LWPOLYLINE
  5
533
100
AcDbEntity
  8
ASSI
100
AcDbPolyline
 62
250
  6
CONTINUOUS
 90
3
 70
0
 10
106.7966860258
 20
99.8535595511
 10
106.7966483253
 20
99.8557391644
 10
106.7966004822
 20
99.8564990081
  0
LWPOLYLINE
  5
534
100
AcDbEntity
  8
0
100
AcDbPolyline
 62
250
  6
CONTINUOUS
 90
3
 70
0
 10
106.7966860258
 20
99.8535595511
 10
106.7966483253
 20
99.8557391644
 10
106.7966004822
 20
99.8564990081
  0
LINE
  5
535
100
AcDbEntity
  8
ASSI
100
AcDbLine
 62
250
  6
CONTINUOUS
 10
106.7967415598
 20
99.8455256053
 11
106.7966860258
 21
99.8535595511
  0
LINE
  5
536
100
AcDbEntity
  8
0
100
AcDbLine
 62
250
  6
CONTINUOUS
 10
106.7967415598
 20
99.8455256053
 11
106.7966860258
 21
99.8535595511
  0
LINE
  5
537
100
AcDbEntity
  8
ASSI
100
AcDbLine
 62
7
  6
CONTINUOUS
 10
106.9931100009
 20
99.2793943445
 11
106.9931100009
 21
99.656529469
  0
LINE
  5
538
100
AcDbEntity
  8
0
100
AcDbLine
 62
7
  6
CONTINUOUS
 10
106.9931100009
 20
99.2793943445
 11
106.9931100009
 21
99.656529469
  0
LINE
  5
539
100
AcDbEntity
  8
ASSI
100
AcDbLine
 62
250
  6
CONTINUOUS
 10
106.7968061555
 20
99.7908616282
 11
106.7967415598
 21
99.8455256053
  0
LINE
  5
53A
100
AcDbEntity
  8
0
100
AcDbLine
 62
250
  6
CONTINUOUS
 10
106.7968061555
 20
99.7908616282
 11
106.7967415598
 21
99.8455256053
  0
LWPOLYLINE
  5
53B
100
AcDbEntity
  8
ASSI
100
AcDbPolyline
 62
250
  6
CONTINUOUS
 90
3
 70
0
 10
106.7966004822
 20
99.2413953113
 10
106.7966282183
 20
99.6530667769
 10
106.7968061555
 20
99.7908616282
  0
LWPOLYLINE
  5
53C
100
AcDbEntity
  8
0
100
AcDbPolyline
 62
250
  6
CONTINUOUS
 90
3
 70
0
 10
106.7966004822
 20
99.2413953113
 10
106.7966282183
 20
99.6530667769
 10
106.7968061555
 20
99.7908616282
  0
LINE
  5
53D
100
AcDbEntity
  8
ASSI
100
AcDbLine
 62
250
  6
CONTINUOUS
 10
105.5888242781
 20
57.3472222786
 11
105.5931100009
 21
57.4119194725
  0
LINE
  5
53E
100
AcDbEntity
  8
0
100
AcDbLine
 62
250
  6
CONTINUOUS
 10
105.5888242781
 20
57.3472222786
 11
105.5931100009
 21
57.4119194725
  0
LWPOLYLINE
  5
53F
100
AcDbEntity
  8
ASSI
100
AcDbPolyline
 62
250
  6
CONTINUOUS
 90
7
 70
0
 10
104.8070719261
 20
56.5685160565
 10
104.8073851757
 20
56.5710990679
 10
104.8076264107
 20
56.5788579219
 10
104.8077931095
 20
56.5918051828
 10
104.8078816849
 20
56.6097452045
 10
104.807893788
 20
56.6327278131
 10
104.8076743849
 20
56.6966042444
  0
LWPOLYLINE
  5
540
100
AcDbEntity
  8
0
100
AcDbPolyline
 62
250
  6
CONTINUOUS
 90
7
 70
0
 10
104.8070719261
 20
56.5685160565
 10
104.8073851757
 20
56.5710990679
 10
104.8076264107
 20
56.5788579219
 10
104.8077931095
 20
56.5918051828
 10
104.8078816849
 20
56.6097452045
 10
104.807893788
 20
56.6327278131
 10
104.8076743849
 20
56.6966042444
  0
LWPOLYLINE
  5
541
100
AcDbEntity
  8
ASSI
100
AcDbPolyline
 62
250
  6
CONTINUOUS
 90
6
 70
0
 10
115.7024095865
 20
98.9539469803
 10
115.70202512
 20
98.9529597511
 10
115.7013067989
 20
98.9476704788
 10
115.7004405044
 20
98.9379266286
 10
115.699445916
 20
98.9239524761
 10
115.6983457077
 20
98.9060696403
  0
LWPOLYLINE
  5
542
100
AcDbEntity
  8
0
100
AcDbPolyline
 62
250
  6
CONTINUOUS
 90
6
 70
0
 10
115.7024095865
 20
98.9539469803
 10
115.70202512
 20
98.9529597511
 10
115.7013067989
 20
98.9476704788
 10
115.7004405044
 20
98.9379266286
 10
115.699445916
 20
98.9239524761
 10
115.6983457077
 20
98.9060696403
  0
LWPOLYLINE
  5
543
100
AcDbEntity
  8
0
100
AcDbPolyline
 62
250
  6
CONTINUOUS
 90
40
 70
0
 10
100.8931100009
 20
85.2298712073
 10
100.8971365949
 20
85.2300334077
 10
100.9011566577
 20
85.2305197457
 10
100.9051636688
 20
85.2313294325
 10
100.9091511288
 20
85.2324611548
 10
100.91311257
 20
85.2339130769
 10
100.9170415671
 20
85.2356828438
 10
100.920931747
 20
85.2377675849
 10
100.9247768
 20
85.2401639188
 10
100.9285704893
 20
85.2428679587
 10
100.9323066615
 20
85.2458753185
 10
100.9359792567
 20
85.2491811203
 10
100.9395823178
 20
85.2527800021
 10
100.9431100006
 20
85.2566661264
 10
100.9465565832
 20
85.2608331901
 10
100.9499164753
 20
85.2652744341
 10
100.9531842271
 20
85.2699826546
 10
100.9563545382
 20
85.274950215
 10
100.9594222665
 20
85.2801690578
 10
100.9623824361
 20
85.285630718
 10
100.9652302455
 20
85.2913263369
 10
100.9679610756
 20
85.2972466761
 10
100.970570497
 20
85.3033821327
 10
100.9730542772
 20
85.3097227551
 10
100.9754083875
 20
85.3162582587
 10
100.9776290095
 20
85.322978043
 10
100.9797125413
 20
85.3298712083
 10
100.9816556035
 20
85.336926574
 10
100.9834550444
 20
85.3441326962
 10
100.9851079454
 20
85.3514778866
 10
100.9866116252
 20
85.3589502312
 10
100.9879636452
 20
85.3665376099
 10
100.9891618121
 20
85.3742277159
 10
100.9902041827
 20
85.3820080758
 10
100.9910890661
 20
85.3898660698
 10
100.9918150272
 20
85.3977889523
 10
100.9923808883
 20
85.4057638722
 10
100.9927857317
 20
85.4137778943
 10
100.9930289007
 20
85.4218180197
 10
100.9931100009
 20
85.4298712073
  0
LINE
  5
544
100
AcDbEntity
  8
ASSI
100
AcDbLine
 62
7
  6
CONTINUOUS
 10
117.9931100009
 20
87.3298712073
 11
120.7966004822
 21
87.3788063157
  0
LINE
  5
545
100
AcDbEntity
  8
0
100
AcDbLine
 62
7
  6
CONTINUOUS
 10
117.9931100009
 20
87.3298712073
 11
120.7966004822
 21
87.3788063157
  0
LINE
  5
546
100
AcDbEntity
  8
0
100
AcDbLine
 62
7
  6
CONTINUOUS
 10
102.0519557277
 20
85.2298712073
 11
100.8931100009
 21
85.2298712073
  0
LINE
  5
547
100
AcDbEntity
  8
0
100
AcDbLine
 62
250
  6
CONTINUOUS
 10
102.4519557277
 20
85.4298712073
 11
100.9931100009
 21
85.4298712073
  0
LINE
  5
548
100
AcDbEntity
  8
0
100
AcDbLine
 62
250
  6
CONTINUOUS
 10
100.9395201624
 20
85.4346964638
 11
100.8395201624
 21
85.4346964638
  0
LINE
  5
549
100
AcDbEntity
  8
0
100
AcDbLine
 62
250
  6
CONTINUOUS
 10
100.5931100009
 20
85.7298712073
 11
100.3931100009
 21
85.7298712073
  0
LINE
  5
54A
100
AcDbEntity
  8
ASSI
100
AcDbLine
 62
7
  6
CONTINUOUS
 10
117.9931100009
 20
86.474552059
 11
118.1931100009
 21
86.474552059
  0
LINE
  5
54B
100
AcDbEntity
  8
0
100
AcDbLine
 62
7
  6
CONTINUOUS
 10
117.9931100009
 20
86.474552059
 11
118.1931100009
 21
86.474552059
  0
LINE
  5
54C
100
AcDbEntity
  8
ASSI
100
AcDbLine
 62
7
  6
CONTINUOUS
 10
117.9931100009
 20
86.7298712073
 11
118.1931100009
 21
86.7298712073
  0
LINE
  5
54D
100
AcDbEntity
  8
0
100
AcDbLine
 62
7
  6
CONTINUOUS
 10
117.9931100009
 20
86.7298712073
 11
118.1931100009
 21
86.7298712073
  0
LWPOLYLINE
  5
54E
100
AcDbEntity
  8
0
100
AcDbPolyline
 62
250
  6
CONTINUOUS
 90
7
 70
0
 10
100.9931100009
 20
85.4298712073
 10
100.983954033
 20
85.430021457
 10
100.9748877964
 20
85.4304332816
 10
100.965911291
 20
85.4311066813
 10
100.9570245169
 20
85.432041656
 10
100.948227474
 20
85.4332382057
 10
100.9395201624
 20
85.4346963304
  0
LWPOLYLINE
  5
54F
100
AcDbEntity
  8
0
100
AcDbPolyline
 62
250
  6
CONTINUOUS
 90
43
 70
0
 10
100.8037936034
 20
85.2379133015
 10
100.8076627077
 20
85.2373696447
 10
100.8115815845
 20
85.2371342845
 10
100.8155441104
 20
85.2372075887
 10
100.8195440935
 20
85.2375894429
 10
100.8235752844
 20
85.2382792505
 10
100.8276313856
 20
85.2392759336
 10
100.8317060599
 20
85.2405779351
 10
100.8357929407
 20
85.242183221
 10
100.8398856434
 20
85.2440892829
 10
100.8439777735
 20
85.2462931431
 10
100.8480629373
 20
85.2487913582
 10
100.8521347526
 20
85.2515800252
 10
100.8561868578
 20
85.2546547871
 10
100.8602129218
 20
85.2580108401
 10
100.8642066545
 20
85.2616429407
 10
100.8681618164
 20
85.2655454143
 10
100.8720722278
 20
85.2697121639
 10
100.8759317794
 20
85.2741366793
 10
100.8797344412
 20
85.278812048
 10
100.8834742719
 20
85.2837309652
 10
100.8871454286
 20
85.2888857459
 10
100.8907421757
 20
85.2942683363
 10
100.8942588937
 20
85.299870327
 10
100.8976900882
 20
85.3056829656
 10
100.9010303984
 20
85.3116971705
 10
100.9042746056
 20
85.3179035455
 10
100.907417641
 20
85.3242923939
 10
100.9104545942
 20
85.330853734
 10
100.9133807203
 20
85.3375773145
 10
100.9161914476
 20
85.3444526309
 10
100.9188823848
 20
85.3514689413
 10
100.9214493278
 20
85.3586152837
 10
100.9238882657
 20
85.3658804929
 10
100.9261953883
 20
85.3732532181
 10
100.9283670911
 20
85.3807219403
 10
100.9303999807
 20
85.3882749906
 10
100.9322908814
 20
85.3959005685
 10
100.934036839
 20
85.40358676
 10
100.935635125
 20
85.4113215565
 10
100.9370832422
 20
85.4190928735
 10
100.9383789293
 20
85.4268885693
 10
100.9395201624
 20
85.4346964638
  0
LWPOLYLINE
  5
550
100
AcDbEntity
  8
ASSI
100
AcDbPolyline
 62
250
  6
CONTINUOUS
 90
19
 70
0
 10
110.887874279
 20
68.4113170342
 10
110.8859046729
 20
68.4623062719
 10
110.8815352266
 20
68.5111374901
 10
110.8747659398
 20
68.5578106886
 10
110.865393971
 20
68.6023363428
 10
110.8536221618
 20
68.6447039775
 10
110.8400590373
 20
68.6848821663
 10
110.8247472041
 20
68.7228597532
 10
110.8076440556
 20
68.7586478943
 10
110.7892302975
 20
68.7922486323
 10
110.7694858225
 20
68.8236860235
 10
110.7484307378
 20
68.8529360116
 10
110.7266060711
 20
68.8799284712
 10
110.7041245865
 20
68.904551911
 10
110.6808735198
 20
68.9269178222
 10
110.6570556068
 20
68.947290553
 10
110.632896011
 20
68.9656529593
 10
110.6081695689
 20
68.9820221852
 10
110.5931100009
 20
68.9906091678
  0
LWPOLYLINE
  5
551
100
AcDbEntity
  8
0
100
AcDbPolyline
 62
250
  6
CONTINUOUS
 90
19
 70
0
 10
110.887874279
 20
68.4113170342
 10
110.8859046729
 20
68.4623062719
 10
110.8815352266
 20
68.5111374901
 10
110.8747659398
 20
68.5578106886
 10
110.865393971
 20
68.6023363428
 10
110.8536221618
 20
68.6447039775
 10
110.8400590373
 20
68.6848821663
 10
110.8247472041
 20
68.7228597532
 10
110.8076440556
 20
68.7586478943
 10
110.7892302975
 20
68.7922486323
 10
110.7694858225
 20
68.8236860235
 10
110.7484307378
 20
68.8529360116
 10
110.7266060711
 20
68.8799284712
 10
110.7041245865
 20
68.904551911
 10
110.6808735198
 20
68.9269178222
 10
110.6570556068
 20
68.947290553
 10
110.632896011
 20
68.9656529593
 10
110.6081695689
 20
68.9820221852
 10
110.5931100009
 20
68.9906091678
  0
LWPOLYLINE
  5
552
100
AcDbEntity
  8
ASSI
100
AcDbPolyline
 62
250
  6
CONTINUOUS
 90
21
 70
0
 10
110.887874279
 20
60.488935559
 10
110.8859854871
 20
60.5407299393
 10
110.8819794718
 20
60.5904898449
 10
110.8758562331
 20
60.6382152758
 10
110.8674160647
 20
60.6838957224
 10
110.856858673
 20
60.7275416941
 10
110.8447831768
 20
60.76918472
 10
110.8312310309
 20
60.8088583451
 10
110.8161607805
 20
60.8465290243
 10
110.80004718
 20
60.8821276509
 10
110.7829383011
 20
60.9156080381
 10
110.764786072
 20
60.9470163727
 10
110.7459210322
 20
60.9764221081
 10
110.7263458128
 20
61.0038408415
 10
110.7060577825
 20
61.0292569758
 10
110.6853795868
 20
61.0526931729
 10
110.6644233925
 20
61.0740744605
 10
110.6430770327
 20
61.093475811
 10
110.621326653
 20
61.1111448037
 10
110.5993480164
 20
61.1271051893
 10
110.5931100009
 20
61.131070521
  0
LWPOLYLINE
  5
553
100
AcDbEntity
  8
0
100
AcDbPolyline
 62
250
  6
CONTINUOUS
 90
21
 70
0
 10
110.887874279
 20
60.488935559
 10
110.8859854871
 20
60.5407299393
 10
110.8819794718
 20
60.5904898449
 10
110.8758562331
 20
60.6382152758
 10
110.8674160647
 20
60.6838957224
 10
110.856858673
 20
60.7275416941
 10
110.8447831768
 20
60.76918472
 10
110.8312310309
 20
60.8088583451
 10
110.8161607805
 20
60.8465290243
 10
110.80004718
 20
60.8821276509
 10
110.7829383011
 20
60.9156080381
 10
110.764786072
 20
60.9470163727
 10
110.7459210322
 20
60.9764221081
 10
110.7263458128
 20
61.0038408415
 10
110.7060577825
 20
61.0292569758
 10
110.6853795868
 20
61.0526931729
 10
110.6644233925
 20
61.0740744605
 10
110.6430770327
 20
61.093475811
 10
110.621326653
 20
61.1111448037
 10
110.5993480164
 20
61.1271051893
 10
110.5931100009
 20
61.131070521
  0
LWPOLYLINE
  5
554
100
AcDbEntity
  8
ASSI
100
AcDbPolyline
 62
7
  6
CONTINUOUS
 90
3
 70
0
 10
111.144154113
 20
56.6816416269
 10
111.1441608916
 20
56.6809067004
 10
111.1438569023
 20
56.6791250497
  0
LWPOLYLINE
  5
555
100
AcDbEntity
  8
0
100
AcDbPolyline
 62
7
  6
CONTINUOUS
 90
3
 70
0
 10
111.144154113
 20
56.6816416269
 10
111.1441608916
 20
56.6809067004
 10
111.1438569023
 20
56.6791250497
  0
LWPOLYLINE
  5
556
100
AcDbEntity
  8
0
100
AcDbPolyline
 62
7
  6
CONTINUOUS
 90
4
 70
0
 43
0.3500000006
 10
109.1788242188
 20
113.7370098267
 10
109.1788242188
 20
114.379872345
 10
110.6788246765
 20
114.379872345
 10
109.8216776733
 20
111.3798714294
  0
LINE
  5
557
100
AcDbEntity
  8
ASSI
100
AcDbLine
 62
250
  6
CONTINUOUS
 10
110.3966004822
 20
69.8460259691
 11
110.3966004822
 21
58.6137164466
  0
LINE
  5
558
100
AcDbEntity
  8
0
100
AcDbLine
 62
250
  6
CONTINUOUS
 10
110.3966004822
 20
69.8460259691
 11
110.3966004822
 21
58.6137164466
  0
LINE
  5
559
100
AcDbEntity
  8
ASSI
100
AcDbLine
 62
7
  6
CONTINUOUS
 10
110.5931100009
 20
69.6460457532
 11
110.5931100009
 21
58.8136859106
  0
LINE
  5
55A
100
AcDbEntity
  8
0
100
AcDbLine
 62
7
  6
CONTINUOUS
 10
110.5931100009
 20
69.6460457532
 11
110.5931100009
 21
58.8136859106
  0
LINE
  5
55B
100
AcDbEntity
  8
ASSI
100
AcDbLine
 62
250
  6
CONTINUOUS
 10
110.887874279
 20
60.0484253805
 11
110.887874279
 21
60.488935559
  0
LINE
  5
55C
100
AcDbEntity
  8
0
100
AcDbLine
 62
250
  6
CONTINUOUS
 10
110.887874279
 20
60.0484253805
 11
110.887874279
 21
60.488935559
  0
LINE
  5
55D
100
AcDbEntity
  8
ASSI
100
AcDbLine
 62
250
  6
CONTINUOUS
 10
110.8879277234
 20
67.9446529732
 11
110.887874279
 21
68.4113170342
  0
LINE
  5
55E
100
AcDbEntity
  8
0
100
AcDbLine
 62
250
  6
CONTINUOUS
 10
110.8879277234
 20
67.9446529732
 11
110.887874279
 21
68.4113170342
  0
LWPOLYLINE
  5
55F
100
AcDbEntity
  8
ASSI
100
AcDbPolyline
 62
7
  6
CONTINUOUS
 90
8
 70
0
 10
111.1391177518
 20
99.7022313736
 10
111.1406959581
 20
99.7218915351
 10
111.1419937738
 20
99.7391417295
 10
111.143021634
 20
99.7536911738
 10
111.143723699
 20
99.7652949321
 10
111.1440839597
 20
99.7737462643
 10
111.1441263693
 20
99.7788867
 10
111.1438569023
 20
99.780617365
  0
LWPOLYLINE
  5
560
100
AcDbEntity
  8
0
100
AcDbPolyline
 62
7
  6
CONTINUOUS
 90
8
 70
0
 10
111.1391177518
 20
99.7022313736
 10
111.1406959581
 20
99.7218915351
 10
111.1419937738
 20
99.7391417295
 10
111.143021634
 20
99.7536911738
 10
111.143723699
 20
99.7652949321
 10
111.1440839597
 20
99.7737462643
 10
111.1441263693
 20
99.7788867
 10
111.1438569023
 20
99.780617365
  0
LWPOLYLINE
  5
561
100
AcDbEntity
  8
ASSI
100
AcDbPolyline
 62
7
  6
CONTINUOUS
 90
4
 70
0
 10
111.1282056486
 20
99.5809210196
 10
111.1307182543
 20
99.6068775333
 10
111.133065596
 20
99.632415414
 10
111.1391177518
 20
99.7022313736
  0
LWPOLYLINE
  5
562
100
AcDbEntity
  8
0
100
AcDbPolyline
 62
7
  6
CONTINUOUS
 90
4
 70
0
 10
111.1282056486
 20
99.5809210196
 10
111.1307182543
 20
99.6068775333
 10
111.133065596
 20
99.632415414
 10
111.1391177518
 20
99.7022313736
  0
LWPOLYLINE
  5
563
100
AcDbEntity
  8
ASSI
100
AcDbPolyline
 62
250
  6
CONTINUOUS
 90
13
 70
0
 10
105.5931100009
 20
63.2337904713
 10
105.5956199054
 20
63.2402249466
 10
105.6031076211
 20
63.2465517554
 10
105.6154478576
 20
63.2526650333
 10
105.6324341288
 20
63.2584624886
 10
105.6537822079
 20
63.2638471144
 10
105.6791348839
 20
63.2687288115
 10
105.7080679378
 20
63.2730258961
 10
105.7400972416
 20
63.2766664665
 10
105.7746868592
 20
63.2795896061
 10
105.8112580134
 20
63.2817464033
 10
105.8491987702
 20
63.2831007688
 10
105.887874279
 20
63.2836300407
  0
LWPOLYLINE
  5
564
100
AcDbEntity
  8
0
100
AcDbPolyline
 62
250
  6
CONTINUOUS
 90
13
 70
0
 10
105.5931100009
 20
63.2337904713
 10
105.5956199054
 20
63.2402249466
 10
105.6031076211
 20
63.2465517554
 10
105.6154478576
 20
63.2526650333
 10
105.6324341288
 20
63.2584624886
 10
105.6537822079
 20
63.2638471144
 10
105.6791348839
 20
63.2687288115
 10
105.7080679378
 20
63.2730258961
 10
105.7400972416
 20
63.2766664665
 10
105.7746868592
 20
63.2795896061
 10
105.8112580134
 20
63.2817464033
 10
105.8491987702
 20
63.2831007688
 10
105.887874279
 20
63.2836300407
  0
LWPOLYLINE
  5
565
100
AcDbEntity
  8
0
100
AcDbPolyline
 62
250
  6
CONTINUOUS
 90
7
 70
0
 10
100.9395201624
 20
89.0250432779
 10
100.9482282409
 20
89.0265027175
 10
100.9570257439
 20
89.0277002432
 10
100.9659126714
 20
89.0286358551
 10
100.9748890234
 20
89.0293095531
 10
100.9839547999
 20
89.0297213371
 10
100.9931100009
 20
89.0298712073
  0
LINE
  5
566
100
AcDbEntity
  8
0
100
AcDbLine
 62
250
  6
CONTINUOUS
 10
100.5931100009
 20
88.7298712073
 11
100.3931100009
 21
88.7298712073
  0
LINE
  5
567
100
AcDbEntity
  8
0
100
AcDbLine
 62
250
  6
CONTINUOUS
 10
100.8395201624
 20
89.0250459509
 11
100.9395201624
 21
89.0250459509
  0
LINE
  5
568
100
AcDbEntity
  8
0
100
AcDbLine
 62
250
  6
CONTINUOUS
 10
100.9931100009
 20
89.0298712073
 11
102.4519557277
 21
89.0298712073
  0
LINE
  5
569
100
AcDbEntity
  8
0
100
AcDbLine
 62
7
  6
CONTINUOUS
 10
100.8931100009
 20
89.2298712073
 11
102.0519557277
 21
89.2298712073
  0
LWPOLYLINE
  5
56A
100
AcDbEntity
  8
0
100
AcDbPolyline
 62
250
  6
CONTINUOUS
 90
40
 70
0
 10
100.8931100009
 20
89.2298712073
 10
100.8971365949
 20
89.229709007
 10
100.9011566578
 20
89.229222669
 10
100.9051636689
 20
89.2284129822
 10
100.909151129
 20
89.2272812599
 10
100.9131125703
 20
89.2258293377
 10
100.9170415673
 20
89.2240595708
 10
100.9209317473
 20
89.2219748297
 10
100.9247768003
 20
89.2195784957
 10
100.9285704896
 20
89.2168744559
 10
100.9323066619
 20
89.2138670961
 10
100.935979257
 20
89.2105612943
 10
100.9395823181
 20
89.2069624125
 10
100.9431100009
 20
89.2030762881
 10
100.9465565835
 20
89.1989092244
 10
100.9499164756
 20
89.1944679805
 10
100.9531842273
 20
89.18975976
 10
100.9563545385
 20
89.1847921997
 10
100.9594222667
 20
89.179573357
 10
100.9623824363
 20
89.1741116968
 10
100.9652302456
 20
89.168416078
 10
100.9679610757
 20
89.162495739
 10
100.9705704971
 20
89.1563602825
 10
100.9730542772
 20
89.1500196602
 10
100.9754083875
 20
89.1434841567
 10
100.9776290095
 20
89.1367643726
 10
100.9797125413
 20
89.1298712073
 10
100.9816556035
 20
89.1228158417
 10
100.9834550444
 20
89.1156097196
 10
100.9851079453
 20
89.1082645293
 10
100.9866116252
 20
89.1007921847
 10
100.9879636451
 20
89.0932048061
 10
100.9891618121
 20
89.0855147001
 10
100.9902041826
 20
89.0777343402
 10
100.9910890661
 20
89.0698763461
 10
100.9918150272
 20
89.0619534635
 10
100.9923808883
 20
89.0539785434
 10
100.9927857317
 20
89.0459645211
 10
100.9930289007
 20
89.0379243954
 10
100.9931100009
 20
89.0298712073
  0
LINE
  5
56B
100
AcDbEntity
  8
ASSI
100
AcDbLine
 62
250
  6
CONTINUOUS
 10
114.2847848342
 20
57.5338283068
 11
114.2954253465
 21
57.472509039
  0
LINE
  5
56C
100
AcDbEntity
  8
0
100
AcDbLine
 62
250
  6
CONTINUOUS
 10
114.2847848342
 20
57.5338283068
 11
114.2954253465
 21
57.472509039
  0
LINE
  5
56D
100
AcDbEntity
  8
ASSI
100
AcDbLine
 62
250
  6
CONTINUOUS
 10
114.2954253465
 20
57.472509039
 11
114.3053746443
 21
57.4138594717
  0
LINE
  5
56E
100
AcDbEntity
  8
0
100
AcDbLine
 62
250
  6
CONTINUOUS
 10
114.2954253465
 20
57.472509039
 11
114.3053746443
 21
57.4138594717
  0
LINE
  5
56F
100
AcDbEntity
  8
ASSI
100
AcDbLine
 62
250
  6
CONTINUOUS
 10
114.3053746443
 20
57.4138594717
 11
114.3141995575
 21
57.3604330744
  0
LINE
  5
570
100
AcDbEntity
  8
0
100
AcDbLine
 62
250
  6
CONTINUOUS
 10
114.3053746443
 20
57.4138594717
 11
114.3141995575
 21
57.3604330744
  0
LWPOLYLINE
  5
571
100
AcDbEntity
  8
ASSI
100
AcDbPolyline
 62
250
  6
CONTINUOUS
 90
9
 70
0
 10
114.3141995575
 20
57.3604330744
 10
114.3215158693
 20
57.3145559118
 10
114.3245057899
 20
57.29508781
 10
114.3270050436
 20
57.2782253734
 10
114.328986353
 20
57.2641526429
 10
114.3304280935
 20
57.2530232117
 10
114.3313145296
 20
57.2449585491
 10
114.3316359865
 20
57.2400466752
 10
114.3313889557
 20
57.2383411994
  0
LWPOLYLINE
  5
572
100
AcDbEntity
  8
0
100
AcDbPolyline
 62
250
  6
CONTINUOUS
 90
9
 70
0
 10
114.3141995575
 20
57.3604330744
 10
114.3215158693
 20
57.3145559118
 10
114.3245057899
 20
57.29508781
 10
114.3270050436
 20
57.2782253734
 10
114.328986353
 20
57.2641526429
 10
114.3304280935
 20
57.2530232117
 10
114.3313145296
 20
57.2449585491
 10
114.3316359865
 20
57.2400466752
 10
114.3313889557
 20
57.2383411994
  0
LWPOLYLINE
  5
573
100
AcDbEntity
  8
ASSI
100
AcDbPolyline
 62
250
  6
CONTINUOUS
 90
4
 70
0
 10
115.742355694
 20
98.9491706653
 10
115.7436226022
 20
98.9582428518
 10
115.7446515236
 20
98.9665678886
 10
115.7450964656
 20
98.9716518486
  0
LWPOLYLINE
  5
574
100
AcDbEntity
  8
0
100
AcDbPolyline
 62
250
  6
CONTINUOUS
 90
4
 70
0
 10
115.742355694
 20
98.9491706653
 10
115.7436226022
 20
98.9582428518
 10
115.7446515236
 20
98.9665678886
 10
115.7450964656
 20
98.9716518486
  0
LWPOLYLINE
  5
575
100
AcDbEntity
  8
ASSI
100
AcDbPolyline
 62
250
  6
CONTINUOUS
 90
16
 70
0
 10
105.887874279
 20
56.5873815317
 10
105.8892565202
 20
56.5917871404
 10
105.890470711
 20
56.6049047839
 10
105.8915035538
 20
56.6265907846
 10
105.8923437372
 20
56.6566076244
 10
105.8929820597
 20
56.6946265465
 10
105.8934115308
 20
56.7402311574
 10
105.8936274472
 20
56.7929219848
 10
105.8936274446
 20
56.8521219513
 10
105.8934115233
 20
56.9171826967
 10
105.8929820482
 20
56.9873916714
 10
105.8923437232
 20
57.0619799455
 10
105.8915035394
 20
57.140130637
 10
105.8904706986
 20
57.2209878454
 10
105.8892565125
 20
57.3036660242
 10
105.887874279
 20
57.3872596879
  0
LWPOLYLINE
  5
576
100
AcDbEntity
  8
0
100
AcDbPolyline
 62
250
  6
CONTINUOUS
 90
16
 70
0
 10
105.887874279
 20
56.5873815317
 10
105.8892565202
 20
56.5917871404
 10
105.890470711
 20
56.6049047839
 10
105.8915035538
 20
56.6265907846
 10
105.8923437372
 20
56.6566076244
 10
105.8929820597
 20
56.6946265465
 10
105.8934115308
 20
56.7402311574
 10
105.8936274472
 20
56.7929219848
 10
105.8936274446
 20
56.8521219513
 10
105.8934115233
 20
56.9171826967
 10
105.8929820482
 20
56.9873916714
 10
105.8923437232
 20
57.0619799455
 10
105.8915035394
 20
57.140130637
 10
105.8904706986
 20
57.2209878454
 10
105.8892565125
 20
57.3036660242
 10
105.887874279
 20
57.3872596879
  0
LWPOLYLINE
  5
577
100
AcDbEntity
  8
ASSI
100
AcDbPolyline
 62
250
  6
CONTINUOUS
 90
5
 70
0
 10
105.5459196633
 20
57.4741034379
 10
105.566449691
 20
57.5256532859
 10
105.5812241202
 20
57.5783956381
 10
105.5901329916
 20
57.6319379582
 10
105.5931100009
 20
57.6858817562
  0
LWPOLYLINE
  5
578
100
AcDbEntity
  8
0
100
AcDbPolyline
 62
250
  6
CONTINUOUS
 90
5
 70
0
 10
105.5459196633
 20
57.4741034379
 10
105.566449691
 20
57.5256532859
 10
105.5812241202
 20
57.5783956381
 10
105.5901329916
 20
57.6319379582
 10
105.5931100009
 20
57.6858817562
  0
LWPOLYLINE
  5
579
100
AcDbEntity
  8
26814000
100
AcDbPolyline
 62
7
  6
CONTINUOUS
 90
4
 70
0
 10
103.2931100009
 20
57.3298255159
 10
103.2927583044
 20
57.329157623
 10
103.2917272956
 20
57.3278905251
 10
103.2900536949
 20
57.3260242221
  0
LWPOLYLINE
  5
57A
100
AcDbEntity
  8
ASSI
100
AcDbPolyline
 62
250
  6
CONTINUOUS
 90
36
 70
0
 10
117.690838574
 20
81.9273484893
 10
117.710463599
 20
81.9525720145
 10
117.728863705
 20
81.9782522272
 10
117.7459916683
 20
82.0043891274
 10
117.7617263087
 20
82.0311682854
 10
117.7761618353
 20
82.0584041308
 10
117.7895903617
 20
82.0855399529
 10
117.8020599252
 20
82.1125154883
 10
117.813544641
 20
82.1393910003
 10
117.8242169896
 20
82.1657905684
 10
117.8341000015
 20
82.191623353
 10
117.84321002
 20
82.2169801937
 10
117.851698169
 20
82.2417576888
 10
117.8595916982
 20
82.265919505
 10
117.8669005831
 20
82.2895019757
 10
117.8737378504
 20
82.3125106986
 10
117.8801266209
 20
82.334931806
 10
117.8860744004
 20
82.3567791658
 10
117.8916609328
 20
82.3780999794
 10
117.8969049886
 20
82.3988961432
 10
117.9018119483
 20
82.419165761
 10
117.9064344419
 20
82.4389503452
 10
117.9107866653
 20
82.458254779
 10
117.9148738104
 20
82.4770741792
 10
117.9187303906
 20
82.4954354091
 10
117.9223666519
 20
82.5133397311
 10
117.9257884456
 20
82.5307858828
 10
117.9290206084
 20
82.5477969397
 10
117.9320709062
 20
82.5643717586
 10
117.9349450884
 20
82.5805114827
 10
117.9376626682
 20
82.596242618
 10
117.9402299111
 20
82.6115640486
 10
117.9426518406
 20
82.6264768905
 10
117.9449442561
 20
82.641010997
 10
117.947112391
 20
82.6551664105
 10
117.9511008434
 20
82.682370757
  0
LWPOLYLINE
  5
57B
100
AcDbEntity
  8
0
100
AcDbPolyline
 62
250
  6
CONTINUOUS
 90
36
 70
0
 10
117.690838574
 20
81.9273484893
 10
117.710463599
 20
81.9525720145
 10
117.728863705
 20
81.9782522272
 10
117.7459916683
 20
82.0043891274
 10
117.7617263087
 20
82.0311682854
 10
117.7761618353
 20
82.0584041308
 10
117.7895903617
 20
82.0855399529
 10
117.8020599252
 20
82.1125154883
 10
117.813544641
 20
82.1393910003
 10
117.8242169896
 20
82.1657905684
 10
117.8341000015
 20
82.191623353
 10
117.84321002
 20
82.2169801937
 10
117.851698169
 20
82.2417576888
 10
117.8595916982
 20
82.265919505
 10
117.8669005831
 20
82.2895019757
 10
117.8737378504
 20
82.3125106986
 10
117.8801266209
 20
82.334931806
 10
117.8860744004
 20
82.3567791658
 10
117.8916609328
 20
82.3780999794
 10
117.8969049886
 20
82.3988961432
 10
117.9018119483
 20
82.419165761
 10
117.9064344419
 20
82.4389503452
 10
117.9107866653
 20
82.458254779
 10
117.9148738104
 20
82.4770741792
 10
117.9187303906
 20
82.4954354091
 10
117.9223666519
 20
82.5133397311
 10
117.9257884456
 20
82.5307858828
 10
117.9290206084
 20
82.5477969397
 10
117.9320709062
 20
82.5643717586
 10
117.9349450884
 20
82.5805114827
 10
117.9376626682
 20
82.596242618
 10
117.9402299111
 20
82.6115640486
 10
117.9426518406
 20
82.6264768905
 10
117.9449442561
 20
82.641010997
 10
117.947112391
 20
82.6551664105
 10
117.9511008434
 20
82.682370757
  0
LINE
  5
57C
100
AcDbEntity
  8
ASSI
100
AcDbLine
 62
7
  6
CONTINUOUS
 10
102.0931100009
 20
90.2298712073
 11
100.7931100009
 21
90.2298712073
  0
LINE
  5
57D
100
AcDbEntity
  8
0
100
AcDbLine
 62
7
  6
CONTINUOUS
 10
102.0931100009
 20
90.2298712073
 11
100.7931100009
 21
90.2298712073
  0
LWPOLYLINE
  5
57E
100
AcDbEntity
  8
ASSI
100
AcDbPolyline
 62
250
  6
CONTINUOUS
 90
35
 70
0
 10
117.690838574
 20
74.5323939254
 10
117.7112507952
 20
74.5061165628
 10
117.730479383
 20
74.4790685295
 10
117.7484679155
 20
74.4512498255
 10
117.765128524
 20
74.4223744536
 10
117.7805069781
 20
74.392728411
 10
117.7947702294
 20
74.3631696888
 10
117.8079236281
 20
74.3338364627
 10
117.8199914442
 20
74.304590557
 10
117.8311654252
 20
74.2758754357
 10
117.8414740791
 20
74.2477964697
 10
117.8509373374
 20
74.2202482882
 10
117.8597200704
 20
74.1933582434
 10
117.8678529273
 20
74.1671741871
 10
117.8753507086
 20
74.1416482675
 10
117.8823394215
 20
74.1167642813
 10
117.8888456568
 20
74.0925392643
 10
117.8948792983
 20
74.0689561807
 10
117.9005288771
 20
74.0459477199
 10
117.9058155103
 20
74.0235120139
 10
117.9107460755
 20
74.0016509307
 10
117.9153788767
 20
73.9803027637
 10
117.9197300953
 20
73.9594591099
 10
117.9238053406
 20
73.9391283723
 10
117.9276413214
 20
73.9192740522
 10
117.9312496997
 20
73.8998915937
 10
117.9346366256
 20
73.8809855528
 10
117.9378269275
 20
73.8625330987
 10
117.940829228
 20
73.8445343217
 10
117.9436499027
 20
73.8269891315
 10
117.9463078843
 20
73.8098744277
 10
117.9488100801
 20
73.7931911886
 10
117.9511622251
 20
73.7769384357
 10
117.9533795048
 20
73.7610901328
 10
117.9554676163
 20
73.7456469123
  0
LWPOLYLINE
  5
57F
100
AcDbEntity
  8
0
100
AcDbPolyline
 62
250
  6
CONTINUOUS
 90
35
 70
0
 10
117.690838574
 20
74.5323939254
 10
117.7112507952
 20
74.5061165628
 10
117.730479383
 20
74.4790685295
 10
117.7484679155
 20
74.4512498255
 10
117.765128524
 20
74.4223744536
 10
117.7805069781
 20
74.392728411
 10
117.7947702294
 20
74.3631696888
 10
117.8079236281
 20
74.3338364627
 10
117.8199914442
 20
74.304590557
 10
117.8311654252
 20
74.2758754357
 10
117.8414740791
 20
74.2477964697
 10
117.8509373374
 20
74.2202482882
 10
117.8597200704
 20
74.1933582434
 10
117.8678529273
 20
74.1671741871
 10
117.8753507086
 20
74.1416482675
 10
117.8823394215
 20
74.1167642813
 10
117.8888456568
 20
74.0925392643
 10
117.8948792983
 20
74.0689561807
 10
117.9005288771
 20
74.0459477199
 10
117.9058155103
 20
74.0235120139
 10
117.9107460755
 20
74.0016509307
 10
117.9153788767
 20
73.9803027637
 10
117.9197300953
 20
73.9594591099
 10
117.9238053406
 20
73.9391283723
 10
117.9276413214
 20
73.9192740522
 10
117.9312496997
 20
73.8998915937
 10
117.9346366256
 20
73.8809855528
 10
117.9378269275
 20
73.8625330987
 10
117.940829228
 20
73.8445343217
 10
117.9436499027
 20
73.8269891315
 10
117.9463078843
 20
73.8098744277
 10
117.9488100801
 20
73.7931911886
 10
117.9511622251
 20
73.7769384357
 10
117.9533795048
 20
73.7610901328
 10
117.9554676163
 20
73.7456469123
  0
LWPOLYLINE
  5
580
100
AcDbEntity
  8
26814000
100
AcDbPolyline
 62
7
  6
CONTINUOUS
 90
5
 70
0
 10
103.2931100009
 20
99.1299168988
 10
103.2927583044
 20
99.1305847916
 10
103.2917272956
 20
99.1318518896
 10
103.2900536949
 20
99.1337181926
 10
103.2849294062
 20
99.1393224593
  0
LINE
  5
581
100
AcDbEntity
  8
ASSI
100
AcDbLine
 62
250
  6
CONTINUOUS
 10
115.6983457228
 20
57.7818214451
 11
115.7089862385
 21
57.7205021669
  0
LINE
  5
582
100
AcDbEntity
  8
0
100
AcDbLine
 62
250
  6
CONTINUOUS
 10
115.6983457228
 20
57.7818214451
 11
115.7089862385
 21
57.7205021669
  0
LINE
  5
583
100
AcDbEntity
  8
ASSI
100
AcDbLine
 62
250
  6
CONTINUOUS
 10
115.7089862385
 20
57.7205021669
 11
115.7189355384
 21
57.6618525923
  0
LINE
  5
584
100
AcDbEntity
  8
0
100
AcDbLine
 62
250
  6
CONTINUOUS
 10
115.7089862385
 20
57.7205021669
 11
115.7189355384
 21
57.6618525923
  0
LINE
  5
585
100
AcDbEntity
  8
ASSI
100
AcDbLine
 62
250
  6
CONTINUOUS
 10
115.7189355384
 20
57.6618525923
 11
115.7277604525
 21
57.608426192
  0
LINE
  5
586
100
AcDbEntity
  8
0
100
AcDbLine
 62
250
  6
CONTINUOUS
 10
115.7189355384
 20
57.6618525923
 11
115.7277604525
 21
57.608426192
  0
LWPOLYLINE
  5
587
100
AcDbEntity
  8
ASSI
100
AcDbPolyline
 62
250
  6
CONTINUOUS
 90
9
 70
0
 10
115.7277604525
 20
57.608426192
 10
115.7350767638
 20
57.5625490313
 10
115.7380666837
 20
57.543080932
 10
115.7405659365
 20
57.5262184988
 10
115.7425472449
 20
57.512145772
 10
115.7439889844
 20
57.5010163443
 10
115.7448754196
 20
57.4929516847
 10
115.7451968757
 20
57.4880398128
 10
115.7449498443
 20
57.4863343378
  0
LWPOLYLINE
  5
588
100
AcDbEntity
  8
0
100
AcDbPolyline
 62
250
  6
CONTINUOUS
 90
9
 70
0
 10
115.7277604525
 20
57.608426192
 10
115.7350767638
 20
57.5625490313
 10
115.7380666837
 20
57.543080932
 10
115.7405659365
 20
57.5262184988
 10
115.7425472449
 20
57.512145772
 10
115.7439889844
 20
57.5010163443
 10
115.7448754196
 20
57.4929516847
 10
115.7451968757
 20
57.4880398128
 10
115.7449498443
 20
57.4863343378
  0
LWPOLYLINE
  5
589
100
AcDbEntity
  8
ASSI
100
AcDbPolyline
 62
250
  6
CONTINUOUS
 90
16
 70
0
 10
115.9931100009
 20
61.9770974742
 10
115.9914868318
 20
61.9921554001
 10
115.9866279847
 20
62.0069182403
 10
115.9785813224
 20
62.0212922297
 10
115.9674405796
 20
62.0352526054
 10
115.9533330359
 20
62.0486485181
 10
115.9364036023
 20
62.0612056462
 10
115.916824975
 20
62.0728489858
 10
115.8948226144
 20
62.0835181148
 10
115.8706486527
 20
62.0929775174
 10
115.8445387309
 20
62.1011702332
 10
115.8167796181
 20
62.1080715474
 10
115.7877221902
 20
62.1135172862
 10
115.757677595
 20
62.1174466765
 10
115.7269143982
 20
62.1198929477
 10
115.6957279616
 20
62.1208480469
  0
LWPOLYLINE
  5
58A
100
AcDbEntity
  8
0
100
AcDbPolyline
 62
250
  6
CONTINUOUS
 90
16
 70
0
 10
115.9931100009
 20
61.9770974742
 10
115.9914868318
 20
61.9921554001
 10
115.9866279847
 20
62.0069182403
 10
115.9785813224
 20
62.0212922297
 10
115.9674405796
 20
62.0352526054
 10
115.9533330359
 20
62.0486485181
 10
115.9364036023
 20
62.0612056462
 10
115.916824975
 20
62.0728489858
 10
115.8948226144
 20
62.0835181148
 10
115.8706486527
 20
62.0929775174
 10
115.8445387309
 20
62.1011702332
 10
115.8167796181
 20
62.1080715474
 10
115.7877221902
 20
62.1135172862
 10
115.757677595
 20
62.1174466765
 10
115.7269143982
 20
62.1198929477
 10
115.6957279616
 20
62.1208480469
  0
LINE
  5
58B
100
AcDbEntity
  8
ASSI
100
AcDbLine
 62
250
  6
CONTINUOUS
 10
115.6957279616
 20
62.1208480469
 11
115.6963913009
 21
62.0907828036
  0
LINE
  5
58C
100
AcDbEntity
  8
0
100
AcDbLine
 62
250
  6
CONTINUOUS
 10
115.6957279616
 20
62.1208480469
 11
115.6963913009
 21
62.0907828036
  0
LWPOLYLINE
  5
58D
100
AcDbEntity
  8
ASSI
100
AcDbPolyline
 62
250
  6
CONTINUOUS
 90
20
 70
0
 10
110.5931100009
 20
67.3288563509
 10
110.6149767612
 20
67.3438111901
 10
110.6414503747
 20
67.3648952295
 10
110.6672420489
 20
67.3885035418
 10
110.692374494
 20
67.4146395416
 10
110.71653583
 20
67.4432737747
 10
110.7398539159
 20
67.4747001965
 10
110.7622008927
 20
67.5086248516
 10
110.782881303
 20
67.5441364199
 10
110.8017753923
 20
67.5813643643
 10
110.8190029151
 20
67.6201792219
 10
110.834227677
 20
67.6592812842
 10
110.8472983696
 20
67.698694902
 10
110.8583663012
 20
67.7383957245
 10
110.8675492033
 20
67.7770109911
 10
110.8747167708
 20
67.8145406532
 10
110.8799993088
 20
67.8509847594
 10
110.8839054639
 20
67.8849706943
 10
110.8866047851
 20
67.9160409194
 10
110.8879277234
 20
67.9446529732
  0
LWPOLYLINE
  5
58E
100
AcDbEntity
  8
0
100
AcDbPolyline
 62
250
  6
CONTINUOUS
 90
20
 70
0
 10
110.5931100009
 20
67.3288563509
 10
110.6149767612
 20
67.3438111901
 10
110.6414503747
 20
67.3648952295
 10
110.6672420489
 20
67.3885035418
 10
110.692374494
 20
67.4146395416
 10
110.71653583
 20
67.4432737747
 10
110.7398539159
 20
67.4747001965
 10
110.7622008927
 20
67.5086248516
 10
110.782881303
 20
67.5441364199
 10
110.8017753923
 20
67.5813643643
 10
110.8190029151
 20
67.6201792219
 10
110.834227677
 20
67.6592812842
 10
110.8472983696
 20
67.698694902
 10
110.8583663012
 20
67.7383957245
 10
110.8675492033
 20
67.7770109911
 10
110.8747167708
 20
67.8145406532
 10
110.8799993088
 20
67.8509847594
 10
110.8839054639
 20
67.8849706943
 10
110.8866047851
 20
67.9160409194
 10
110.8879277234
 20
67.9446529732
  0
LINE
  5
58F
100
AcDbEntity
  8
RACCORDO
100
AcDbLine
 62
7
  6
CONTINUOUS
 10
115.9931100009
 20
96.676584158
 11
120.2931100009
 21
97.6298712073
  0
LINE
  5
590
100
AcDbEntity
  8
RACCORDO
100
AcDbLine
 62
7
  6
CONTINUOUS
 10
119.1620376122
 20
96.6420250049
 11
120.432028543
 21
96.8659586713
  0
LINE
  5
591
100
AcDbEntity
  8
RACCORDO
100
AcDbLine
 62
250
  6
CONTINUOUS
 10
119.1186255678
 20
96.8882269432
 11
120.3886164986
 21
97.1121606095
  0
LINE
  5
592
100
AcDbEntity
  8
ASSI
100
AcDbLine
 62
7
  6
CONTINUOUS
 10
99.3756575945
 20
92.9237103667
 11
102.5931100009
 21
92.9798712073
  0
LINE
  5
593
100
AcDbEntity
  8
0
100
AcDbLine
 62
7
  6
CONTINUOUS
 10
99.3756575945
 20
92.9237103667
 11
102.5931100009
 21
92.9798712073
  0
LINE
  5
594
100
AcDbEntity
  8
0
100
AcDbLine
 62
7
  6
CONTINUOUS
 10
102.5931100009
 20
93.2298712073
 11
99.2931100009
 21
93.2298712073
  0
LINE
  5
595
100
AcDbEntity
  8
ASSI
100
AcDbLine
 62
250
  6
CONTINUOUS
 10
117.2070719261
 20
92.2087271146
 11
117.9931100009
 21
92.2001518985
  0
LINE
  5
596
100
AcDbEntity
  8
0
100
AcDbLine
 62
250
  6
CONTINUOUS
 10
117.2070719261
 20
92.2087271146
 11
117.9931100009
 21
92.2001518985
  0
LINE
  5
597
100
AcDbEntity
  8
ASSI
100
AcDbLine
 62
250
  6
CONTINUOUS
 10
117.2070719261
 20
92.2087271146
 11
115.6983457228
 21
92.2350620284
  0
LINE
  5
598
100
AcDbEntity
  8
0
100
AcDbLine
 62
250
  6
CONTINUOUS
 10
117.2070719261
 20
92.2087271146
 11
115.6983457228
 21
92.2350620284
  0
LINE
  5
599
100
AcDbEntity
  8
ASSI
100
AcDbLine
 62
7
  6
CONTINUOUS
 10
115.9931100009
 20
92.5298712073
 11
117.6983412002
 21
92.500106286
  0
LINE
  5
59A
100
AcDbEntity
  8
0
100
AcDbLine
 62
7
  6
CONTINUOUS
 10
115.9931100009
 20
92.5298712073
 11
117.6983412002
 21
92.500106286
  0
LINE
  5
59B
100
AcDbEntity
  8
ASSI
100
AcDbLine
 62
250
  6
CONTINUOUS
 10
117.9656781217
 20
73.6609763317
 11
117.9683493384
 21
73.6355593482
  0
LINE
  5
59C
100
AcDbEntity
  8
0
100
AcDbLine
 62
250
  6
CONTINUOUS
 10
117.9656781217
 20
73.6609763317
 11
117.9683493384
 21
73.6355593482
  0
LWPOLYLINE
  5
59D
100
AcDbEntity
  8
ASSI
100
AcDbPolyline
 62
7
  6
CONTINUOUS
 90
14
 70
0
 10
117.9894282112
 20
73.304177203
 10
117.989189415
 20
73.306534973
 10
117.9889163624
 20
73.3093895206
 10
117.9885879748
 20
73.3130594906
 10
117.9882242677
 20
73.3174793619
 10
117.987851516
 20
73.3225060993
 10
117.9875062634
 20
73.3277845636
 10
117.9871997778
 20
73.3332207351
 10
117.9869337273
 20
73.3388731419
 10
117.986716864
 20
73.3446578625
 10
117.9865536411
 20
73.3505442478
 10
117.9864466409
 20
73.3565601053
 10
117.986399696
 20
73.3627164098
 10
117.9863978413
 20
73.3642096248
  0
LWPOLYLINE
  5
59E
100
AcDbEntity
  8
0
100
AcDbPolyline
 62
7
  6
CONTINUOUS
 90
14
 70
0
 10
117.9894282112
 20
73.304177203
 10
117.989189415
 20
73.306534973
 10
117.9889163624
 20
73.3093895206
 10
117.9885879748
 20
73.3130594906
 10
117.9882242677
 20
73.3174793619
 10
117.987851516
 20
73.3225060993
 10
117.9875062634
 20
73.3277845636
 10
117.9871997778
 20
73.3332207351
 10
117.9869337273
 20
73.3388731419
 10
117.986716864
 20
73.3446578625
 10
117.9865536411
 20
73.3505442478
 10
117.9864466409
 20
73.3565601053
 10
117.986399696
 20
73.3627164098
 10
117.9863978413
 20
73.3642096248
  0
LINE
  5
59F
100
AcDbEntity
  8
ASSI
100
AcDbLine
 62
250
  6
CONTINUOUS
 10
117.9683493384
 20
73.6355593482
 11
117.9707247655
 21
73.6114080632
  0
LINE
  5
5A0
100
AcDbEntity
  8
0
100
AcDbLine
 62
250
  6
CONTINUOUS
 10
117.9683493384
 20
73.6355593482
 11
117.9707247655
 21
73.6114080632
  0
LINE
  5
5A1
100
AcDbEntity
  8
ASSI
100
AcDbLine
 62
250
  6
CONTINUOUS
 10
117.9707247655
 20
73.6114080632
 11
117.9728401589
 21
73.5884302972
  0
LINE
  5
5A2
100
AcDbEntity
  8
0
100
AcDbLine
 62
250
  6
CONTINUOUS
 10
117.9707247655
 20
73.6114080632
 11
117.9728401589
 21
73.5884302972
  0
LINE
  5
5A3
100
AcDbEntity
  8
ASSI
100
AcDbLine
 62
250
  6
CONTINUOUS
 10
115.7450964656
 20
98.9716518486
 11
115.7449498443
 21
98.9734080769
  0
LINE
  5
5A4
100
AcDbEntity
  8
0
100
AcDbLine
 62
250
  6
CONTINUOUS
 10
115.7450964656
 20
98.9716518486
 11
115.7449498443
 21
98.9734080769
  0
LINE
  5
5A5
100
AcDbEntity
  8
ASSI
100
AcDbLine
 62
250
  6
CONTINUOUS
 10
115.9922941369
 20
98.6416551293
 11
115.9931100009
 21
98.6207307324
  0
LINE
  5
5A6
100
AcDbEntity
  8
0
100
AcDbLine
 62
250
  6
CONTINUOUS
 10
115.9922941369
 20
98.6416551293
 11
115.9931100009
 21
98.6207307324
  0
LINE
  5
5A7
100
AcDbEntity
  8
ASSI
100
AcDbLine
 62
250
  6
CONTINUOUS
 10
115.6963913009
 20
62.0907828036
 11
115.6973080848
 21
62.0431791832
  0
LINE
  5
5A8
100
AcDbEntity
  8
0
100
AcDbLine
 62
250
  6
CONTINUOUS
 10
115.6963913009
 20
62.0907828036
 11
115.6973080848
 21
62.0431791832
  0
LWPOLYLINE
  5
5A9
100
AcDbEntity
  8
ASSI
100
AcDbPolyline
 62
250
  6
CONTINUOUS
 90
16
 70
0
 10
117.2086625431
 20
81.8326850497
 10
117.2076170246
 20
81.8953828058
 10
117.2066802282
 20
81.9573937666
 10
117.2058624142
 20
82.018038745
 10
117.2051725392
 20
82.0766535172
 10
117.2046181589
 20
82.1325961053
 10
117.2042053445
 20
82.1852538065
 10
117.2039386171
 20
82.2340498908
 10
117.2038208973
 20
82.2784499298
 10
117.2038534741
 20
82.3179676535
 10
117.2040359902
 20
82.3521702545
 10
117.2043664462
 20
82.3806831438
 10
117.2048412225
 20
82.403194056
 10
117.2054551189
 20
82.4194564523
 10
117.2062014114
 20
82.4292922275
 10
117.2070719261
 20
82.4325936668
  0
LWPOLYLINE
  5
5AA
100
AcDbEntity
  8
0
100
AcDbPolyline
 62
250
  6
CONTINUOUS
 90
16
 70
0
 10
117.2086625431
 20
81.8326850497
 10
117.2076170246
 20
81.8953828058
 10
117.2066802282
 20
81.9573937666
 10
117.2058624142
 20
82.018038745
 10
117.2051725392
 20
82.0766535172
 10
117.2046181589
 20
82.1325961053
 10
117.2042053445
 20
82.1852538065
 10
117.2039386171
 20
82.2340498908
 10
117.2038208973
 20
82.2784499298
 10
117.2038534741
 20
82.3179676535
 10
117.2040359902
 20
82.3521702545
 10
117.2043664462
 20
82.3806831438
 10
117.2048412225
 20
82.403194056
 10
117.2054551189
 20
82.4194564523
 10
117.2062014114
 20
82.4292922275
 10
117.2070719261
 20
82.4325936668
  0
LWPOLYLINE
  5
5AB
100
AcDbEntity
  8
ASSI
100
AcDbPolyline
 62
250
  6
CONTINUOUS
 90
19
 70
0
 10
117.2070719261
 20
83.2324718229
 10
117.2082382529
 20
83.162571621
 10
117.2092889806
 20
83.0931955884
 10
117.2102160118
 20
83.024875084
 10
117.2110123497
 20
82.9581193575
 10
117.2116716134
 20
82.893455871
 10
117.2121883928
 20
82.8314211999
 10
117.2125587878
 20
82.7725171282
 10
117.2127805102
 20
82.7171543211
 10
117.2128520896
 20
82.6657018058
 10
117.2127726218
 20
82.6185158405
 10
117.2125423651
 20
82.5760151048
 10
117.2121637262
 20
82.5385977462
 10
117.2116402088
 20
82.506527291
 10
117.2109764205
 20
82.4800263581
 10
117.210179694
 20
82.459307656
 10
117.2092580349
 20
82.4444769865
 10
117.2082191386
 20
82.4355703465
 10
117.2070719261
 20
82.4325936668
  0
LWPOLYLINE
  5
5AC
100
AcDbEntity
  8
0
100
AcDbPolyline
 62
250
  6
CONTINUOUS
 90
19
 70
0
 10
117.2070719261
 20
83.2324718229
 10
117.2082382529
 20
83.162571621
 10
117.2092889806
 20
83.0931955884
 10
117.2102160118
 20
83.024875084
 10
117.2110123497
 20
82.9581193575
 10
117.2116716134
 20
82.893455871
 10
117.2121883928
 20
82.8314211999
 10
117.2125587878
 20
82.7725171282
 10
117.2127805102
 20
82.7171543211
 10
117.2128520896
 20
82.6657018058
 10
117.2127726218
 20
82.6185158405
 10
117.2125423651
 20
82.5760151048
 10
117.2121637262
 20
82.5385977462
 10
117.2116402088
 20
82.506527291
 10
117.2109764205
 20
82.4800263581
 10
117.210179694
 20
82.459307656
 10
117.2092580349
 20
82.4444769865
 10
117.2082191386
 20
82.4355703465
 10
117.2070719261
 20
82.4325936668
  0
LWPOLYLINE
  5
5AD
100
AcDbEntity
  8
ASSI
100
AcDbPolyline
 62
250
  6
CONTINUOUS
 90
3
 70
0
 10
115.6973080848
 20
62.0431791832
 10
115.6981086372
 20
61.9937459679
 10
115.6983457228
 20
61.9770974742
  0
LWPOLYLINE
  5
5AE
100
AcDbEntity
  8
0
100
AcDbPolyline
 62
250
  6
CONTINUOUS
 90
3
 70
0
 10
115.6973080848
 20
62.0431791832
 10
115.6981086372
 20
61.9937459679
 10
115.6983457228
 20
61.9770974742
  0
LWPOLYLINE
  5
5AF
100
AcDbEntity
  8
ASSI
100
AcDbPolyline
 62
7
  6
CONTINUOUS
 90
17
 70
0
 10
115.9931100009
 20
98.6207197635
 10
115.9930282208
 20
98.6285689765
 10
115.9904265298
 20
98.665490502
 10
115.984358797
 20
98.7011360838
 10
115.9750463245
 20
98.7352785271
 10
115.96277814
 20
98.767514247
 10
115.9478381446
 20
98.7975734404
 10
115.9304013901
 20
98.8254160904
 10
115.9106459624
 20
98.8509282292
 10
115.8889013916
 20
98.8738262571
 10
115.8654698231
 20
98.8939573249
 10
115.8404495934
 20
98.9113488558
 10
115.8143486857
 20
98.9257583087
 10
115.787603238
 20
98.9371287035
 10
115.7600772818
 20
98.9456296875
 10
115.7322130925
 20
98.9511972742
 10
115.702409693
 20
98.9539469761
  0
LWPOLYLINE
  5
5B0
100
AcDbEntity
  8
0
100
AcDbPolyline
 62
7
  6
CONTINUOUS
 90
17
 70
0
 10
115.9931100009
 20
98.6207197635
 10
115.9930282208
 20
98.6285689765
 10
115.9904265298
 20
98.665490502
 10
115.984358797
 20
98.7011360838
 10
115.9750463245
 20
98.7352785271
 10
115.96277814
 20
98.767514247
 10
115.9478381446
 20
98.7975734404
 10
115.9304013901
 20
98.8254160904
 10
115.9106459624
 20
98.8509282292
 10
115.8889013916
 20
98.8738262571
 10
115.8654698231
 20
98.8939573249
 10
115.8404495934
 20
98.9113488558
 10
115.8143486857
 20
98.9257583087
 10
115.787603238
 20
98.9371287035
 10
115.7600772818
 20
98.9456296875
 10
115.7322130925
 20
98.9511972742
 10
115.702409693
 20
98.9539469761
  0
LWPOLYLINE
  5
5B1
100
AcDbEntity
  8
ASSI
100
AcDbPolyline
 62
250
  6
CONTINUOUS
 90
7
 70
0
 10
117.2091483856
 20
92.4513639632
 10
117.2089873302
 20
92.4684654885
 10
117.2087479564
 20
92.4827223542
 10
117.2084328825
 20
92.4939785376
 10
117.2080455557
 20
92.5021107016
 10
117.2075902174
 20
92.5070296509
 10
117.207071853
 20
92.5086814244
  0
LWPOLYLINE
  5
5B2
100
AcDbEntity
  8
0
100
AcDbPolyline
 62
250
  6
CONTINUOUS
 90
7
 70
0
 10
117.2091483856
 20
92.4513639632
 10
117.2089873302
 20
92.4684654885
 10
117.2087479564
 20
92.4827223542
 10
117.2084328825
 20
92.4939785376
 10
117.2080455557
 20
92.5021107016
 10
117.2075902174
 20
92.5070296509
 10
117.207071853
 20
92.5086814244
  0
LINE
  5
5B3
100
AcDbEntity
  8
ASSI
100
AcDbLine
 62
250
  6
CONTINUOUS
 10
115.698345735
 20
97.4483986049
 11
115.6986252841
 21
97.1479879189
  0
LINE
  5
5B4
100
AcDbEntity
  8
0
100
AcDbLine
 62
250
  6
CONTINUOUS
 10
115.698345735
 20
97.4483986049
 11
115.6986252841
 21
97.1479879189
  0
LINE
  5
5B5
100
AcDbEntity
  8
ASSI
100
AcDbLine
 62
250
  6
CONTINUOUS
 10
115.6957279616
 20
64.2298712073
 11
115.6957279616
 21
62.1208476668
  0
LINE
  5
5B6
100
AcDbEntity
  8
0
100
AcDbLine
 62
250
  6
CONTINUOUS
 10
115.6957279616
 20
64.2298712073
 11
115.6957279616
 21
62.1208476668
  0
LINE
  5
5B7
100
AcDbEntity
  8
ASSI
100
AcDbLine
 62
250
  6
CONTINUOUS
 10
115.6983457228
 20
98.9060696403
 11
115.6983457228
 21
97.4483986049
  0
LINE
  5
5B8
100
AcDbEntity
  8
0
100
AcDbLine
 62
250
  6
CONTINUOUS
 10
115.6983457228
 20
98.9060696403
 11
115.6983457228
 21
97.4483986049
  0
LINE
  5
5B9
100
AcDbEntity
  8
ASSI
100
AcDbLine
 62
250
  6
CONTINUOUS
 10
115.6983457228
 20
96.1173115924
 11
115.6983457228
 21
92.2350620284
  0
LINE
  5
5BA
100
AcDbEntity
  8
0
100
AcDbLine
 62
250
  6
CONTINUOUS
 10
115.6983457228
 20
96.1173115924
 11
115.6983457228
 21
92.2350620284
  0
LINE
  5
5BB
100
AcDbEntity
  8
ASSI
100
AcDbLine
 62
250
  6
CONTINUOUS
 10
115.6983457228
 20
61.9770965229
 11
115.6983457228
 21
57.7818214451
  0
LINE
  5
5BC
100
AcDbEntity
  8
0
100
AcDbLine
 62
250
  6
CONTINUOUS
 10
115.6983457228
 20
61.9770965229
 11
115.6983457228
 21
57.7818214451
  0
LINE
  5
5BD
100
AcDbEntity
  8
ASSI
100
AcDbLine
 62
250
  6
CONTINUOUS
 10
115.6986252841
 20
97.1479879189
 11
115.698711354
 21
96.8077766328
  0
LINE
  5
5BE
100
AcDbEntity
  8
0
100
AcDbLine
 62
250
  6
CONTINUOUS
 10
115.6986252841
 20
97.1479879189
 11
115.698711354
 21
96.8077766328
  0
LINE
  5
5BF
100
AcDbEntity
  8
ASSI
100
AcDbLine
 62
7
  6
CONTINUOUS
 10
115.9931100009
 20
63.9301166024
 11
115.9931100009
 21
57.7818214451
  0
LINE
  5
5C0
100
AcDbEntity
  8
0
100
AcDbLine
 62
7
  6
CONTINUOUS
 10
115.9931100009
 20
63.9301166024
 11
115.9931100009
 21
57.7818214451
  0
LINE
  5
5C1
100
AcDbEntity
  8
ASSI
100
AcDbLine
 62
7
  6
CONTINUOUS
 10
115.9931100009
 20
66.1171467125
 11
115.9931100009
 21
74.0483385321
  0
LINE
  5
5C2
100
AcDbEntity
  8
0
100
AcDbLine
 62
7
  6
CONTINUOUS
 10
115.9931100009
 20
66.1171467125
 11
115.9931100009
 21
74.0483385321
  0
LINE
  5
5C3
100
AcDbEntity
  8
ASSI
100
AcDbLine
 62
7
  6
CONTINUOUS
 10
115.9931100009
 20
92.52982709
 11
115.9931100009
 21
98.6779209695
  0
LINE
  5
5C4
100
AcDbEntity
  8
0
100
AcDbLine
 62
7
  6
CONTINUOUS
 10
115.9931100009
 20
92.52982709
 11
115.9931100009
 21
98.6779209695
  0
LINE
  5
5C5
100
AcDbEntity
  8
ASSI
100
AcDbLine
 62
250
  6
CONTINUOUS
 10
117.2070719261
 20
83.2324718229
 11
117.2070719261
 21
92.2087271146
  0
LINE
  5
5C6
100
AcDbEntity
  8
0
100
AcDbLine
 62
250
  6
CONTINUOUS
 10
117.2070719261
 20
83.2324718229
 11
117.2070719261
 21
92.2087271146
  0
LINE
  5
5C7
100
AcDbEntity
  8
ASSI
100
AcDbLine
 62
250
  6
CONTINUOUS
 10
117.2092293611
 20
92.4094049725
 11
117.2091483856
 21
92.4513639632
  0
LINE
  5
5C8
100
AcDbEntity
  8
0
100
AcDbLine
 62
250
  6
CONTINUOUS
 10
117.2092293611
 20
92.4094049725
 11
117.2091483856
 21
92.4513639632
  0
LINE
  5
5C9
100
AcDbEntity
  8
ASSI
100
AcDbLine
 62
250
  6
CONTINUOUS
 10
115.698711354
 20
96.8077766328
 11
115.6985295988
 21
96.3262922608
  0
LINE
  5
5CA
100
AcDbEntity
  8
0
100
AcDbLine
 62
250
  6
CONTINUOUS
 10
115.698711354
 20
96.8077766328
 11
115.6985295988
 21
96.3262922608
  0
LINE
  5
5CB
100
AcDbEntity
  8
ASSI
100
AcDbLine
 62
250
  6
CONTINUOUS
 10
115.6985295988
 20
96.3262922608
 11
115.6983457361
 21
96.1173115924
  0
LINE
  5
5CC
100
AcDbEntity
  8
0
100
AcDbLine
 62
250
  6
CONTINUOUS
 10
115.6985295988
 20
96.3262922608
 11
115.6983457361
 21
96.1173115924
  0
LINE
  5
5CD
100
AcDbEntity
  8
ASSI
100
AcDbLine
 62
250
  6
CONTINUOUS
 10
117.2089873407
 20
92.3586786617
 11
117.2092293611
 21
92.4094049725
  0
LINE
  5
5CE
100
AcDbEntity
  8
0
100
AcDbLine
 62
250
  6
CONTINUOUS
 10
117.2089873407
 20
92.3586786617
 11
117.2092293611
 21
92.4094049725
  0
LINE
  5
5CF
100
AcDbEntity
  8
ASSI
100
AcDbLine
 62
250
  6
CONTINUOUS
 10
117.2084328986
 20
92.3014012208
 11
117.2089873407
 21
92.3586786617
  0
LINE
  5
5D0
100
AcDbEntity
  8
0
100
AcDbLine
 62
250
  6
CONTINUOUS
 10
117.2084328986
 20
92.3014012208
 11
117.2089873407
 21
92.3586786617
  0
LWPOLYLINE
  5
5D1
100
AcDbEntity
  8
ASSI
100
AcDbPolyline
 62
250
  6
CONTINUOUS
 90
3
 70
0
 10
117.2070719183
 20
92.2087271147
 10
117.2075902592
 20
92.2400749964
 10
117.2084328986
 20
92.3014012208
  0
LWPOLYLINE
  5
5D2
100
AcDbEntity
  8
0
100
AcDbPolyline
 62
250
  6
CONTINUOUS
 90
3
 70
0
 10
117.2070719183
 20
92.2087271147
 10
117.2075902592
 20
92.2400749964
 10
117.2084328986
 20
92.3014012208
  0
LINE
  5
5D3
100
AcDbEntity
  8
ASSI
100
AcDbLine
 62
250
  6
CONTINUOUS
 10
117.9712858144
 20
82.8542808036
 11
117.9734758393
 21
82.8785328697
  0
LINE
  5
5D4
100
AcDbEntity
  8
0
100
AcDbLine
 62
250
  6
CONTINUOUS
 10
117.9712858144
 20
82.8542808036
 11
117.9734758393
 21
82.8785328697
  0
LINE
  5
5D5
100
AcDbEntity
  8
ASSI
100
AcDbLine
 62
7
  6
CONTINUOUS
 10
117.9891775666
 20
83.1532344013
 11
117.9891860096
 21
83.1533222894
  0
LINE
  5
5D6
100
AcDbEntity
  8
0
100
AcDbLine
 62
7
  6
CONTINUOUS
 10
117.9891775666
 20
83.1532344013
 11
117.9891860096
 21
83.1533222894
  0
LINE
  5
5D7
100
AcDbEntity
  8
ASSI
100
AcDbLine
 62
250
  6
CONTINUOUS
 10
117.9696128241
 20
82.836829198
 11
117.9712858144
 21
82.8542808036
  0
LINE
  5
5D8
100
AcDbEntity
  8
0
100
AcDbLine
 62
250
  6
CONTINUOUS
 10
117.9696128241
 20
82.836829198
 11
117.9712858144
 21
82.8542808036
  0
LINE
  5
5D9
100
AcDbEntity
  8
ASSI
100
AcDbLine
 62
7
  6
CONTINUOUS
 10
117.9891927514
 20
83.1533960478
 11
117.9891670668
 21
83.1531429416
  0
LINE
  5
5DA
100
AcDbEntity
  8
0
100
AcDbLine
 62
7
  6
CONTINUOUS
 10
117.9891927514
 20
83.1533960478
 11
117.9891670668
 21
83.1531429416
  0
LINE
  5
5DB
100
AcDbEntity
  8
ASSI
100
AcDbLine
 62
250
  6
CONTINUOUS
 10
117.9677474487
 20
82.8183070567
 11
117.9696128241
 21
82.836829198
  0
LINE
  5
5DC
100
AcDbEntity
  8
0
100
AcDbLine
 62
250
  6
CONTINUOUS
 10
117.9677474487
 20
82.8183070567
 11
117.9696128241
 21
82.836829198
  0
LINE
  5
5DD
100
AcDbEntity
  8
ASSI
100
AcDbLine
 62
250
  6
CONTINUOUS
 10
117.965667305
 20
82.7986678727
 11
117.9677474487
 21
82.8183070567
  0
LINE
  5
5DE
100
AcDbEntity
  8
0
100
AcDbLine
 62
250
  6
CONTINUOUS
 10
117.965667305
 20
82.7986678727
 11
117.9677474487
 21
82.8183070567
  0
LINE
  5
5DF
100
AcDbEntity
  8
ASSI
100
AcDbLine
 62
250
  6
CONTINUOUS
 10
117.9633475238
 20
82.7778701364
 11
117.965667305
 21
82.7986678727
  0
LINE
  5
5E0
100
AcDbEntity
  8
0
100
AcDbLine
 62
250
  6
CONTINUOUS
 10
117.9633475238
 20
82.7778701364
 11
117.965667305
 21
82.7986678727
  0
LINE
  5
5E1
100
AcDbEntity
  8
ASSI
100
AcDbLine
 62
250
  6
CONTINUOUS
 10
117.9607632894
 20
82.7558855454
 11
117.9633475238
 21
82.7778701364
  0
LINE
  5
5E2
100
AcDbEntity
  8
0
100
AcDbLine
 62
250
  6
CONTINUOUS
 10
117.9607632894
 20
82.7558855454
 11
117.9633475238
 21
82.7778701364
  0
LINE
  5
5E3
100
AcDbEntity
  8
ASSI
100
AcDbLine
 62
250
  6
CONTINUOUS
 10
117.9578847279
 20
82.7326737339
 11
117.9607632894
 21
82.7558855454
  0
LINE
  5
5E4
100
AcDbEntity
  8
0
100
AcDbLine
 62
250
  6
CONTINUOUS
 10
117.9578847279
 20
82.7326737339
 11
117.9607632894
 21
82.7558855454
  0
LINE
  5
5E5
100
AcDbEntity
  8
ASSI
100
AcDbLine
 62
250
  6
CONTINUOUS
 10
117.9546759989
 20
82.7081826938
 11
117.9578847279
 21
82.7326737339
  0
LINE
  5
5E6
100
AcDbEntity
  8
0
100
AcDbLine
 62
250
  6
CONTINUOUS
 10
117.9546759989
 20
82.7081826938
 11
117.9578847279
 21
82.7326737339
  0
LINE
  5
5E7
100
AcDbEntity
  8
ASSI
100
AcDbLine
 62
250
  6
CONTINUOUS
 10
117.9511008434
 20
82.682370757
 11
117.9546759989
 21
82.7081826938
  0
LINE
  5
5E8
100
AcDbEntity
  8
0
100
AcDbLine
 62
250
  6
CONTINUOUS
 10
117.9511008434
 20
82.682370757
 11
117.9546759989
 21
82.7081826938
  0
LWPOLYLINE
  5
5E9
100
AcDbEntity
  8
26814000
100
AcDbPolyline
 62
7
  6
CONTINUOUS
 90
4
 70
0
 10
103.2900536949
 20
57.3260242221
 10
103.2849294062
 20
57.3204199554
 10
103.2815520922
 20
57.3168300824
 10
103.2733541788
 20
57.3081950269
  0
LINE
  5
5EA
100
AcDbEntity
  8
26814000
100
AcDbLine
 62
7
  6
CONTINUOUS
 10
103.2733541788
 20
57.3081950269
 11
103.2520606674
 21
57.2861388382
  0
LINE
  5
5EB
100
AcDbEntity
  8
26814000
100
AcDbLine
 62
7
  6
CONTINUOUS
 10
103.2520606674
 20
57.2861388382
 11
103.1954293639
 21
57.2282893251
  0
LINE
  5
5EC
100
AcDbEntity
  8
26814000
100
AcDbLine
 62
7
  6
CONTINUOUS
 10
103.1954293639
 20
57.2282893251
 11
103.1182350456
 21
57.1502149915
  0
LINE
  5
5ED
100
AcDbEntity
  8
26814000
100
AcDbLine
 62
7
  6
CONTINUOUS
 10
103.1182350456
 20
57.1502149915
 11
103.0351154509
 21
57.0666833402
  0
LINE
  5
5EE
100
AcDbEntity
  8
26814000
100
AcDbLine
 62
7
  6
CONTINUOUS
 10
103.0351154509
 20
57.0666833402
 11
102.9983457228
 21
57.0298712073
  0
LINE
  5
5EF
100
AcDbEntity
  8
26814000
100
AcDbLine
 62
7
  6
CONTINUOUS
 10
89.9181100009
 20
54.602039991
 11
90.7931100009
 21
55.1072214765
  0
LINE
  5
5F0
100
AcDbEntity
  8
RACCORDO
100
AcDbLine
 62
7
  6
CONTINUOUS
 10
119.0231190701
 20
96.6298712073
 11
119.1620376122
 21
96.6420250049
  0
LINE
  5
5F1
100
AcDbEntity
  8
ASSI
100
AcDbLine
 62
7
  6
CONTINUOUS
 10
115.9931521024
 20
93.3647806023
 11
120.7966004822
 21
93.280936099
  0
LINE
  5
5F2
100
AcDbEntity
  8
0
100
AcDbLine
 62
7
  6
CONTINUOUS
 10
115.9931521024
 20
93.3647806023
 11
120.7966004822
 21
93.280936099
  0
LWPOLYLINE
  5
5F3
100
AcDbEntity
  8
RACCORDO
100
AcDbPolyline
 62
250
  6
CONTINUOUS
 90
4
 70
0
 10
83.261038457
 20
98.9843470146
 10
83.2118234243
 20
98.9932192483
 10
83.1993676404
 20
98.9955401142
 10
83.1952178418
 20
98.9964129991
  0
LINE
  5
5F4
100
AcDbEntity
  8
26814000
100
AcDbLine
 62
7
  6
CONTINUOUS
 10
90.7931100009
 20
101.3525209381
 11
89.9181100009
 21
101.8577024237
  0
LINE
  5
5F5
100
AcDbEntity
  8
26814000
100
AcDbLine
 62
7
  6
CONTINUOUS
 10
103.2579246126
 20
99.1675644332
 11
102.9983457228
 21
99.4298712073
  0
LWPOLYLINE
  5
5F6
100
AcDbEntity
  8
26814000
100
AcDbPolyline
 62
7
  6
CONTINUOUS
 90
3
 70
0
 10
103.2815520922
 20
99.1429123323
 10
103.2733541788
 20
99.1515473878
 10
103.2579246126
 20
99.1675644332
  0
LINE
  5
5F7
100
AcDbEntity
  8
26814000
100
AcDbLine
 62
7
  6
CONTINUOUS
 10
103.2849294062
 20
99.1393224593
 11
103.2815520922
 21
99.1429123323
  0
LWPOLYLINE
  5
5F8
100
AcDbEntity
  8
ASSI
100
AcDbPolyline
 62
250
  6
CONTINUOUS
 90
4
 70
0
 10
106.9752421905
 20
99.2800536069
 10
106.9668939236
 20
99.2934692788
 10
106.9526618731
 20
99.3103713895
 10
106.9357600907
 20
99.3256948294
  0
LWPOLYLINE
  5
5F9
100
AcDbEntity
  8
0
100
AcDbPolyline
 62
250
  6
CONTINUOUS
 90
4
 70
0
 10
106.9752421905
 20
99.2800536069
 10
106.9668939236
 20
99.2934692788
 10
106.9526618731
 20
99.3103713895
 10
106.9357600907
 20
99.3256948294
  0
LWPOLYLINE
  5
5FA
100
AcDbEntity
  8
ASSI
100
AcDbPolyline
 62
250
  6
CONTINUOUS
 90
5
 70
0
 10
106.9668958317
 20
99.559870224
 10
106.9782193667
 20
99.5416724591
 10
106.986445568
 20
99.5224836543
 10
106.9914369132
 20
99.5026248847
 10
106.9931100009
 20
99.4824284293
  0
LWPOLYLINE
  5
5FB
100
AcDbEntity
  8
0
100
AcDbPolyline
 62
250
  6
CONTINUOUS
 90
5
 70
0
 10
106.9668958317
 20
99.559870224
 10
106.9782193667
 20
99.5416724591
 10
106.986445568
 20
99.5224836543
 10
106.9914369132
 20
99.5026248847
 10
106.9931100009
 20
99.4824284293
  0
LWPOLYLINE
  5
5FC
100
AcDbEntity
  8
ASSI
100
AcDbPolyline
 62
250
  6
CONTINUOUS
 90
16
 70
0
 10
117.2070719261
 20
74.0271487479
 10
117.2062014126
 20
74.0304501765
 10
117.2054551207
 20
74.040285922
 10
117.2048412245
 20
74.0565482735
 10
117.2043664481
 20
74.0790591289
 10
117.2040359915
 20
74.1075719539
 10
117.2038534745
 20
74.141774491
 10
117.2038208966
 20
74.1812921569
 10
117.2039386151
 20
74.225692149
 10
117.2042053414
 20
74.274488205
 10
117.2046181549
 20
74.3271459015
 10
117.2051725346
 20
74.3830885109
 10
117.2058624095
 20
74.4417033347
 10
117.2066802243
 20
74.502348396
 10
117.2076170222
 20
74.5643594693
 10
117.2086625431
 20
74.6270573649
  0
LWPOLYLINE
  5
5FD
100
AcDbEntity
  8
0
100
AcDbPolyline
 62
250
  6
CONTINUOUS
 90
16
 70
0
 10
117.2070719261
 20
74.0271487479
 10
117.2062014126
 20
74.0304501765
 10
117.2054551207
 20
74.040285922
 10
117.2048412245
 20
74.0565482735
 10
117.2043664481
 20
74.0790591289
 10
117.2040359915
 20
74.1075719539
 10
117.2038534745
 20
74.141774491
 10
117.2038208966
 20
74.1812921569
 10
117.2039386151
 20
74.225692149
 10
117.2042053414
 20
74.274488205
 10
117.2046181549
 20
74.3271459015
 10
117.2051725346
 20
74.3830885109
 10
117.2058624095
 20
74.4417033347
 10
117.2066802243
 20
74.502348396
 10
117.2076170222
 20
74.5643594693
 10
117.2086625431
 20
74.6270573649
  0
LINE
  5
5FE
100
AcDbEntity
  8
ASSI
100
AcDbLine
 62
250
  6
CONTINUOUS
 10
117.9554676163
 20
73.7456469123
 11
117.9592833921
 21
73.7159458872
  0
LINE
  5
5FF
100
AcDbEntity
  8
0
100
AcDbLine
 62
250
  6
CONTINUOUS
 10
117.9554676163
 20
73.7456469123
 11
117.9592833921
 21
73.7159458872
  0
LINE
  5
600
100
AcDbEntity
  8
ASSI
100
AcDbLine
 62
250
  6
CONTINUOUS
 10
117.9592833921
 20
73.7159458872
 11
117.9626697074
 21
73.6877518586
  0
LINE
  5
601
100
AcDbEntity
  8
0
100
AcDbLine
 62
250
  6
CONTINUOUS
 10
117.9592833921
 20
73.7159458872
 11
117.9626697074
 21
73.6877518586
  0
LINE
  5
602
100
AcDbEntity
  8
ASSI
100
AcDbLine
 62
250
  6
CONTINUOUS
 10
117.9626697074
 20
73.6877518586
 11
117.9656781217
 21
73.6609763317
  0
LINE
  5
603
100
AcDbEntity
  8
0
100
AcDbLine
 62
250
  6
CONTINUOUS
 10
117.9626697074
 20
73.6877518586
 11
117.9656781217
 21
73.6609763317
  0
LWPOLYLINE
  5
604
100
AcDbEntity
  8
ASSI
100
AcDbPolyline
 62
250
  6
CONTINUOUS
 90
13
 70
0
 10
115.9931100009
 20
97.248735553
 10
115.9906001814
 20
97.2745123664
 10
115.9831126828
 20
97.2998579663
 10
115.9707727364
 20
97.324348257
 10
115.953786764
 20
97.3475734526
 10
115.9324389388
 20
97.3691449164
 10
115.9070864414
 20
97.3887016688
 10
115.878153452
 20
97.4059164569
 10
115.8461240759
 20
97.4205012055
 10
115.8115342745
 20
97.4322118354
 10
115.7749628401
 20
97.440852376
 10
115.7370217011
 20
97.4462782352
 10
115.6983457228
 20
97.4483986059
  0
LWPOLYLINE
  5
605
100
AcDbEntity
  8
0
100
AcDbPolyline
 62
250
  6
CONTINUOUS
 90
13
 70
0
 10
115.9931100009
 20
97.248735553
 10
115.9906001814
 20
97.2745123664
 10
115.9831126828
 20
97.2998579663
 10
115.9707727364
 20
97.324348257
 10
115.953786764
 20
97.3475734526
 10
115.9324389388
 20
97.3691449164
 10
115.9070864414
 20
97.3887016688
 10
115.878153452
 20
97.4059164569
 10
115.8461240759
 20
97.4205012055
 10
115.8115342745
 20
97.4322118354
 10
115.7749628401
 20
97.440852376
 10
115.7370217011
 20
97.4462782352
 10
115.6983457228
 20
97.4483986059
  0
LINE
  5
606
100
AcDbEntity
  8
ASSI
100
AcDbLine
 62
250
  6
CONTINUOUS
 10
117.9728401589
 20
73.5884302972
 11
117.9747223231
 21
73.566576071
  0
LINE
  5
607
100
AcDbEntity
  8
0
100
AcDbLine
 62
250
  6
CONTINUOUS
 10
117.9728401589
 20
73.5884302972
 11
117.9747223231
 21
73.566576071
  0
LINE
  5
608
100
AcDbEntity
  8
ASSI
100
AcDbLine
 62
250
  6
CONTINUOUS
 10
117.9747223231
 20
73.566576071
 11
117.9763980353
 21
73.5457757704
  0
LINE
  5
609
100
AcDbEntity
  8
0
100
AcDbLine
 62
250
  6
CONTINUOUS
 10
117.9747223231
 20
73.566576071
 11
117.9763980353
 21
73.5457757704
  0
LINE
  5
60A
100
AcDbEntity
  8
ASSI
100
AcDbLine
 62
250
  6
CONTINUOUS
 10
117.9763980353
 20
73.5457757704
 11
117.977885717
 21
73.5260328428
  0
LINE
  5
60B
100
AcDbEntity
  8
0
100
AcDbLine
 62
250
  6
CONTINUOUS
 10
117.9763980353
 20
73.5457757704
 11
117.977885717
 21
73.5260328428
  0
LINE
  5
60C
100
AcDbEntity
  8
ASSI
100
AcDbLine
 62
250
  6
CONTINUOUS
 10
117.977885717
 20
73.5260328428
 11
117.979201018
 21
73.507356866
  0
LINE
  5
60D
100
AcDbEntity
  8
0
100
AcDbLine
 62
250
  6
CONTINUOUS
 10
117.977885717
 20
73.5260328428
 11
117.979201018
 21
73.507356866
  0
LINE
  5
60E
100
AcDbEntity
  8
ASSI
100
AcDbLine
 62
250
  6
CONTINUOUS
 10
117.979201018
 20
73.507356866
 11
117.9808812217
 21
73.4814252209
  0
LINE
  5
60F
100
AcDbEntity
  8
0
100
AcDbLine
 62
250
  6
CONTINUOUS
 10
117.979201018
 20
73.507356866
 11
117.9808812217
 21
73.4814252209
  0
LINE
  5
610
100
AcDbEntity
  8
ASSI
100
AcDbLine
 62
250
  6
CONTINUOUS
 10
117.9808812217
 20
73.4814252209
 11
117.9822541712
 21
73.4580009394
  0
LINE
  5
611
100
AcDbEntity
  8
0
100
AcDbLine
 62
250
  6
CONTINUOUS
 10
117.9808812217
 20
73.4814252209
 11
117.9822541712
 21
73.4580009394
  0
LINE
  5
612
100
AcDbEntity
  8
ASSI
100
AcDbLine
 62
250
  6
CONTINUOUS
 10
117.9822541712
 20
73.4580009394
 11
117.9833753035
 21
73.4368810722
  0
LINE
  5
613
100
AcDbEntity
  8
0
100
AcDbLine
 62
250
  6
CONTINUOUS
 10
117.9822541712
 20
73.4580009394
 11
117.9833753035
 21
73.4368810722
  0
LINE
  5
614
100
AcDbEntity
  8
ASSI
100
AcDbLine
 62
250
  6
CONTINUOUS
 10
117.9833753035
 20
73.4368810722
 11
117.9843001347
 21
73.4176592714
  0
LINE
  5
615
100
AcDbEntity
  8
0
100
AcDbLine
 62
250
  6
CONTINUOUS
 10
117.9833753035
 20
73.4368810722
 11
117.9843001347
 21
73.4176592714
  0
LINE
  5
616
100
AcDbEntity
  8
ASSI
100
AcDbLine
 62
250
  6
CONTINUOUS
 10
117.9843001347
 20
73.4176592714
 11
117.9852977301
 21
73.3944037117
  0
LINE
  5
617
100
AcDbEntity
  8
0
100
AcDbLine
 62
250
  6
CONTINUOUS
 10
117.9843001347
 20
73.4176592714
 11
117.9852977301
 21
73.3944037117
  0
LINE
  5
618
100
AcDbEntity
  8
ASSI
100
AcDbLine
 62
250
  6
CONTINUOUS
 10
117.9852977301
 20
73.3944037117
 11
117.9862864329
 21
73.3677024217
  0
LINE
  5
619
100
AcDbEntity
  8
0
100
AcDbLine
 62
250
  6
CONTINUOUS
 10
117.9852977301
 20
73.3944037117
 11
117.9862864329
 21
73.3677024217
  0
LINE
  5
61A
100
AcDbEntity
  8
ASSI
100
AcDbLine
 62
250
  6
CONTINUOUS
 10
117.9862864329
 20
73.3677024217
 11
117.9863966206
 21
73.364250482
  0
LINE
  5
61B
100
AcDbEntity
  8
0
100
AcDbLine
 62
250
  6
CONTINUOUS
 10
117.9862864329
 20
73.3677024217
 11
117.9863966206
 21
73.364250482
  0
LWPOLYLINE
  5
61C
100
AcDbEntity
  8
ASSI
100
AcDbPolyline
 62
250
  6
CONTINUOUS
 90
25
 70
0
 10
117.9931100009
 20
65.7229241976
 10
117.9921036825
 20
65.7604623279
 10
117.9891060086
 20
65.7966065817
 10
117.9841546188
 20
65.8313569589
 10
117.9773051636
 20
65.8647065218
 10
117.9686039336
 20
65.896662208
 10
117.958061778
 20
65.9272448309
 10
117.9457233245
 20
65.9564567911
 10
117.9316358872
 20
65.9842956879
 10
117.9157773755
 20
66.0107751322
 10
117.8981946695
 20
66.0359269514
 10
117.8789295333
 20
66.059719318
 10
117.8579127789
 20
66.0820703613
 10
117.8351335536
 20
66.1029834768
 10
117.8106862593
 20
66.1224552689
 10
117.7846517846
 20
66.1403936805
 10
117.7570896021
 20
66.1569327725
 10
117.728103545
 20
66.171938484
 10
117.6978695573
 20
66.1849165752
 10
117.6663873439
 20
66.1956485726
 10
117.6338973487
 20
66.2043529497
 10
117.6009888758
 20
66.2111908871
 10
117.5679785894
 20
66.2162161118
 10
117.5348767481
 20
66.2193748969
 10
117.5018362041
 20
66.2206672423
  0
LWPOLYLINE
  5
61D
100
AcDbEntity
  8
0
100
AcDbPolyline
 62
250
  6
CONTINUOUS
 90
25
 70
0
 10
117.9931100009
 20
65.7229241976
 10
117.9921036825
 20
65.7604623279
 10
117.9891060086
 20
65.7966065817
 10
117.9841546188
 20
65.8313569589
 10
117.9773051636
 20
65.8647065218
 10
117.9686039336
 20
65.896662208
 10
117.958061778
 20
65.9272448309
 10
117.9457233245
 20
65.9564567911
 10
117.9316358872
 20
65.9842956879
 10
117.9157773755
 20
66.0107751322
 10
117.8981946695
 20
66.0359269514
 10
117.8789295333
 20
66.059719318
 10
117.8579127789
 20
66.0820703613
 10
117.8351335536
 20
66.1029834768
 10
117.8106862593
 20
66.1224552689
 10
117.7846517846
 20
66.1403936805
 10
117.7570896021
 20
66.1569327725
 10
117.728103545
 20
66.171938484
 10
117.6978695573
 20
66.1849165752
 10
117.6663873439
 20
66.1956485726
 10
117.6338973487
 20
66.2043529497
 10
117.6009888758
 20
66.2111908871
 10
117.5679785894
 20
66.2162161118
 10
117.5348767481
 20
66.2193748969
 10
117.5018362041
 20
66.2206672423
  0
LWPOLYLINE
  5
61E
100
AcDbEntity
  8
ASSI
100
AcDbPolyline
 62
250
  6
CONTINUOUS
 90
25
 70
0
 10
117.6957279616
 20
65.6280041679
 10
117.6952965152
 20
65.6631788751
 10
117.6941028901
 20
65.6970319897
 10
117.6921470862
 20
65.7295714501
 10
117.6894150406
 20
65.7608066844
 10
117.6859208162
 20
65.7907444054
 10
117.6817066019
 20
65.8193886155
 10
117.6767778144
 20
65.8467528371
 10
117.671129037
 20
65.8728397531
 10
117.6647862075
 20
65.8976372168
 10
117.6577532281
 20
65.9211721295
 10
117.6500261967
 20
65.9434333359
 10
117.6416193451
 20
65.9643520301
 10
117.6325152539
 20
65.9839799331
 10
117.6227313425
 20
66.0022805645
 10
117.6123341015
 20
66.0190541145
 10
117.601284247
 20
66.0343227141
 10
117.5896210629
 20
66.0480794505
 10
117.5775288907
 20
66.0600825128
 10
117.5649618563
 20
66.0702952728
 10
117.5519658338
 20
66.0787675865
 10
117.5388627861
 20
66.0853875345
 10
117.5257600343
 20
66.0901204927
 10
117.5125502574
 20
66.0930086987
 10
117.4992334554
 20
66.0940541754
  0
LWPOLYLINE
  5
61F
100
AcDbEntity
  8
0
100
AcDbPolyline
 62
250
  6
CONTINUOUS
 90
25
 70
0
 10
117.6957279616
 20
65.6280041679
 10
117.6952965152
 20
65.6631788751
 10
117.6941028901
 20
65.6970319897
 10
117.6921470862
 20
65.7295714501
 10
117.6894150406
 20
65.7608066844
 10
117.6859208162
 20
65.7907444054
 10
117.6817066019
 20
65.8193886155
 10
117.6767778144
 20
65.8467528371
 10
117.671129037
 20
65.8728397531
 10
117.6647862075
 20
65.8976372168
 10
117.6577532281
 20
65.9211721295
 10
117.6500261967
 20
65.9434333359
 10
117.6416193451
 20
65.9643520301
 10
117.6325152539
 20
65.9839799331
 10
117.6227313425
 20
66.0022805645
 10
117.6123341015
 20
66.0190541145
 10
117.601284247
 20
66.0343227141
 10
117.5896210629
 20
66.0480794505
 10
117.5775288907
 20
66.0600825128
 10
117.5649618563
 20
66.0702952728
 10
117.5519658338
 20
66.0787675865
 10
117.5388627861
 20
66.0853875345
 10
117.5257600343
 20
66.0901204927
 10
117.5125502574
 20
66.0930086987
 10
117.4992334554
 20
66.0940541754
  0
LINE
  5
620
100
AcDbEntity
  8
ASSI
100
AcDbLine
 62
250
  6
CONTINUOUS
 10
117.5018362041
 20
73.2221254621
 11
117.5018362041
 21
66.2206672426
  0
LINE
  5
621
100
AcDbEntity
  8
0
100
AcDbLine
 62
250
  6
CONTINUOUS
 10
117.5018362041
 20
73.2221254621
 11
117.5018362041
 21
66.2206672426
  0
LINE
  5
622
100
AcDbEntity
  8
ASSI
100
AcDbLine
 62
250
  6
CONTINUOUS
 10
117.690838574
 20
74.5323939254
 11
117.690838574
 21
81.9273484893
  0
LINE
  5
623
100
AcDbEntity
  8
0
100
AcDbLine
 62
250
  6
CONTINUOUS
 10
117.690838574
 20
74.5323939254
 11
117.690838574
 21
81.9273484893
  0
LINE
  5
624
100
AcDbEntity
  8
ASSI
100
AcDbLine
 62
250
  6
CONTINUOUS
 10
117.6957279616
 20
65.6280041679
 11
117.6957279616
 21
64.2577011398
  0
LINE
  5
625
100
AcDbEntity
  8
0
100
AcDbLine
 62
250
  6
CONTINUOUS
 10
117.6957279616
 20
65.6280041679
 11
117.6957279616
 21
64.2577011398
  0
LINE
  5
626
100
AcDbEntity
  8
ASSI
100
AcDbLine
 62
7
  6
CONTINUOUS
 10
117.9863981606
 20
73.3647161364
 11
117.9863981606
 21
83.0952019976
  0
LINE
  5
627
100
AcDbEntity
  8
0
100
AcDbLine
 62
7
  6
CONTINUOUS
 10
117.9863981606
 20
73.3647161364
 11
117.9863981606
 21
83.0952019976
  0
LINE
  5
628
100
AcDbEntity
  8
ASSI
100
AcDbLine
 62
7
  6
CONTINUOUS
 10
117.9931100009
 20
92.2001518985
 11
117.9931100009
 21
91.2815961991
  0
LINE
  5
629
100
AcDbEntity
  8
0
100
AcDbLine
 62
7
  6
CONTINUOUS
 10
117.9931100009
 20
92.2001518985
 11
117.9931100009
 21
91.281586901
  0
LINE
  5
62A
100
AcDbEntity
  8
ASSI
100
AcDbLine
 62
7
  6
CONTINUOUS
 10
117.9931100009
 20
89.3781462156
 11
117.9931100009
 21
83.2324718229
  0
LINE
  5
62B
100
AcDbEntity
  8
0
100
AcDbLine
 62
7
  6
CONTINUOUS
 10
117.9931100009
 20
89.3781534612
 11
117.9931100009
 21
83.2324718229
  0
LINE
  5
62C
100
AcDbEntity
  8
ASSI
100
AcDbLine
 62
7
  6
CONTINUOUS
 10
117.9931100009
 20
64.2595905161
 11
117.9931100009
 21
73.2272705917
  0
LINE
  5
62D
100
AcDbEntity
  8
0
100
AcDbLine
 62
7
  6
CONTINUOUS
 10
117.9931100009
 20
64.2595905161
 11
117.9931100009
 21
73.2272705917
  0
LINE
  5
62E
100
AcDbEntity
  8
ASSI
100
AcDbLine
 62
7
  6
CONTINUOUS
 10
118.1931100009
 20
86.7298712073
 11
118.1931100009
 21
84.7298712073
  0
LINE
  5
62F
100
AcDbEntity
  8
0
100
AcDbLine
 62
7
  6
CONTINUOUS
 10
118.1931100009
 20
86.7298712073
 11
118.1931100009
 21
84.7298712073
  0
LINE
  5
630
100
AcDbEntity
  8
RACCORDO
100
AcDbLine
 62
250
  6
CONTINUOUS
 10
119.0231190701
 20
96.8798712073
 11
119.0231190701
 21
96.6298712073
  0
LWPOLYLINE
  5
631
100
AcDbEntity
  8
ASSI
100
AcDbPolyline
 62
7
  6
CONTINUOUS
 90
5
 70
0
 10
117.9863980548
 20
83.0955456102
 10
117.9864130252
 20
83.0997727033
 10
117.9867382206
 20
83.115759012
 10
117.9876017036
 20
83.1335348814
 10
117.9889221595
 20
83.150522838
  0
LWPOLYLINE
  5
632
100
AcDbEntity
  8
0
100
AcDbPolyline
 62
7
  6
CONTINUOUS
 90
5
 70
0
 10
117.9863980548
 20
83.0955456102
 10
117.9864130252
 20
83.0997727033
 10
117.9867382206
 20
83.115759012
 10
117.9876017036
 20
83.1335348814
 10
117.9889221595
 20
83.150522838
  0
LWPOLYLINE
  5
633
100
AcDbEntity
  8
ASSI
100
AcDbPolyline
 62
7
  6
CONTINUOUS
 90
13
 70
0
 10
117.9931100009
 20
91.281586901
 10
117.9917263055
 20
91.1284036317
 10
117.9885230945
 20
90.9730458823
 10
117.9847218515
 20
90.8155136529
 10
117.9812432559
 20
90.6550821108
 10
117.9787949615
 20
90.4924760886
 10
117.9779050508
 20
90.3298700842
 10
117.9787949881
 20
90.1672641141
 10
117.9812433044
 20
90.0046581618
 10
117.9847219016
 20
89.8442266755
 10
117.9885231275
 20
89.6866944714
 10
117.9917263168
 20
89.5313367333
 10
117.9931100009
 20
89.3781534612
  0
LWPOLYLINE
  5
634
100
AcDbEntity
  8
0
100
AcDbPolyline
 62
7
  6
CONTINUOUS
 90
13
 70
0
 10
117.9931100009
 20
91.281586901
 10
117.9917263055
 20
91.1284036317
 10
117.9885230945
 20
90.9730458823
 10
117.9847218515
 20
90.8155136529
 10
117.9812432559
 20
90.6550821108
 10
117.9787949615
 20
90.4924760886
 10
117.9779050508
 20
90.3298700842
 10
117.9787949881
 20
90.1672641141
 10
117.9812433044
 20
90.0046581618
 10
117.9847219016
 20
89.8442266755
 10
117.9885231275
 20
89.6866944714
 10
117.9917263168
 20
89.5313367333
 10
117.9931100009
 20
89.3781534612
  0
LINE
  5
635
100
AcDbEntity
  8
ASSI
100
AcDbLine
 62
250
  6
CONTINUOUS
 10
117.5019845116
 20
73.2358432078
 11
117.5018362041
 21
73.2221254621
  0
LINE
  5
636
100
AcDbEntity
  8
0
100
AcDbLine
 62
250
  6
CONTINUOUS
 10
117.5019845116
 20
73.2358432078
 11
117.5018362041
 21
73.2221254621
  0
LINE
  5
637
100
AcDbEntity
  8
ASSI
100
AcDbLine
 62
250
  6
CONTINUOUS
 10
117.5018363483
 20
66.2206672402
 11
117.5007870537
 21
66.1629263016
  0
LINE
  5
638
100
AcDbEntity
  8
0
100
AcDbLine
 62
250
  6
CONTINUOUS
 10
117.5018363483
 20
66.2206672402
 11
117.5007870537
 21
66.1629263016
  0
LWPOLYLINE
  5
639
100
AcDbEntity
  8
ASSI
100
AcDbPolyline
 62
250
  6
CONTINUOUS
 90
3
 70
0
 10
117.5007870537
 20
66.1629263016
 10
117.4995512521
 20
66.1073613113
 10
117.4992183655
 20
66.09405441
  0
LWPOLYLINE
  5
63A
100
AcDbEntity
  8
0
100
AcDbPolyline
 62
250
  6
CONTINUOUS
 90
3
 70
0
 10
117.5007870537
 20
66.1629263016
 10
117.4995512521
 20
66.1073613113
 10
117.4992183655
 20
66.09405441
  0
LINE
  5
63B
100
AcDbEntity
  8
ASSI
100
AcDbLine
 62
250
  6
CONTINUOUS
 10
117.9863973917
 20
83.0955086558
 11
117.9863980621
 21
83.095533242
  0
LINE
  5
63C
100
AcDbEntity
  8
0
100
AcDbLine
 62
250
  6
CONTINUOUS
 10
117.9863973917
 20
83.0955086558
 11
117.9863980621
 21
83.095533242
  0
LINE
  5
63D
100
AcDbEntity
  8
ASSI
100
AcDbLine
 62
250
  6
CONTINUOUS
 10
117.9855121319
 20
83.0707691999
 11
117.9863973917
 21
83.0955086558
  0
LINE
  5
63E
100
AcDbEntity
  8
0
100
AcDbLine
 62
250
  6
CONTINUOUS
 10
117.9855121319
 20
83.0707691999
 11
117.9863973917
 21
83.0955086558
  0
LINE
  5
63F
100
AcDbEntity
  8
ASSI
100
AcDbLine
 62
250
  6
CONTINUOUS
 10
117.9847783537
 20
83.0528450323
 11
117.9855121319
 21
83.0707691999
  0
LINE
  5
640
100
AcDbEntity
  8
0
100
AcDbLine
 62
250
  6
CONTINUOUS
 10
117.9847783537
 20
83.0528450323
 11
117.9855121319
 21
83.0707691999
  0
LINE
  5
641
100
AcDbEntity
  8
ASSI
100
AcDbLine
 62
250
  6
CONTINUOUS
 10
117.9838315305
 20
83.03210881
 11
117.9847783537
 21
83.0528450323
  0
LINE
  5
642
100
AcDbEntity
  8
0
100
AcDbLine
 62
250
  6
CONTINUOUS
 10
117.9838315305
 20
83.03210881
 11
117.9847783537
 21
83.0528450323
  0
LINE
  5
643
100
AcDbEntity
  8
ASSI
100
AcDbLine
 62
250
  6
CONTINUOUS
 10
117.9829329548
 20
83.0142787894
 11
117.9838315305
 21
83.03210881
  0
LINE
  5
644
100
AcDbEntity
  8
0
100
AcDbLine
 62
250
  6
CONTINUOUS
 10
117.9829329548
 20
83.0142787894
 11
117.9838315305
 21
83.03210881
  0
LINE
  5
645
100
AcDbEntity
  8
ASSI
100
AcDbLine
 62
250
  6
CONTINUOUS
 10
117.9818188384
 20
82.994057626
 11
117.9829329548
 21
83.0142787894
  0
LINE
  5
646
100
AcDbEntity
  8
0
100
AcDbLine
 62
250
  6
CONTINUOUS
 10
117.9818188384
 20
82.994057626
 11
117.9829329548
 21
83.0142787894
  0
LINE
  5
647
100
AcDbEntity
  8
ASSI
100
AcDbLine
 62
250
  6
CONTINUOUS
 10
117.9807371214
 20
82.9759871371
 11
117.9818188384
 21
82.994057626
  0
LINE
  5
648
100
AcDbEntity
  8
0
100
AcDbLine
 62
250
  6
CONTINUOUS
 10
117.9807371214
 20
82.9759871371
 11
117.9818188384
 21
82.994057626
  0
LINE
  5
649
100
AcDbEntity
  8
ASSI
100
AcDbLine
 62
250
  6
CONTINUOUS
 10
117.9794345503
 20
82.9558391764
 11
117.9807371214
 21
82.9759871371
  0
LINE
  5
64A
100
AcDbEntity
  8
0
100
AcDbLine
 62
250
  6
CONTINUOUS
 10
117.9794345503
 20
82.9558391764
 11
117.9807371214
 21
82.9759871371
  0
LINE
  5
64B
100
AcDbEntity
  8
ASSI
100
AcDbLine
 62
250
  6
CONTINUOUS
 10
117.9778461358
 20
82.9331683854
 11
117.9794345503
 21
82.9558391764
  0
LINE
  5
64C
100
AcDbEntity
  8
0
100
AcDbLine
 62
250
  6
CONTINUOUS
 10
117.9778461358
 20
82.9331683854
 11
117.9794345503
 21
82.9558391764
  0
LINE
  5
64D
100
AcDbEntity
  8
ASSI
100
AcDbLine
 62
250
  6
CONTINUOUS
 10
117.9764204581
 20
82.9142532296
 11
117.9778461358
 21
82.9331683854
  0
LINE
  5
64E
100
AcDbEntity
  8
0
100
AcDbLine
 62
250
  6
CONTINUOUS
 10
117.9764204581
 20
82.9142532296
 11
117.9778461358
 21
82.9331683854
  0
LINE
  5
64F
100
AcDbEntity
  8
ASSI
100
AcDbLine
 62
250
  6
CONTINUOUS
 10
117.9747493167
 20
82.8934908538
 11
117.9764204581
 21
82.9142532296
  0
LINE
  5
650
100
AcDbEntity
  8
0
100
AcDbLine
 62
250
  6
CONTINUOUS
 10
117.9747493167
 20
82.8934908538
 11
117.9764204581
 21
82.9142532296
  0
LINE
  5
651
100
AcDbEntity
  8
ASSI
100
AcDbLine
 62
250
  6
CONTINUOUS
 10
117.9734758393
 20
82.8785328697
 11
117.9747493167
 21
82.8934908538
  0
LINE
  5
652
100
AcDbEntity
  8
0
100
AcDbLine
 62
250
  6
CONTINUOUS
 10
117.9734758393
 20
82.8785328697
 11
117.9747493167
 21
82.8934908538
  0
LINE
  5
653
100
AcDbEntity
  8
ASSI
100
AcDbLine
 62
7
  6
CONTINUOUS
 10
117.9892651345
 20
83.1541207175
 11
117.9889413846
 21
83.1503657852
  0
LINE
  5
654
100
AcDbEntity
  8
0
100
AcDbLine
 62
7
  6
CONTINUOUS
 10
117.9892651345
 20
83.1541207175
 11
117.9889413846
 21
83.1503657852
  0
LWPOLYLINE
  5
655
100
AcDbEntity
  8
ASSI
100
AcDbPolyline
 62
250
  6
CONTINUOUS
 90
12
 70
0
 10
117.4826011497
 20
73.9730553293
 10
117.4829814157
 20
73.9764091745
 10
117.4857196529
 20
73.9858135154
 10
117.4907861421
 20
74.0011658285
 10
117.4981260105
 20
74.0222987187
 10
117.5076592631
 20
74.0489821685
 10
117.5192818929
 20
74.0809261368
 10
117.5328676579
 20
74.1177830905
 10
117.5482689589
 20
74.1591517985
 10
117.5653180768
 20
74.2045821754
 10
117.583829264
 20
74.2535799706
 10
117.6036011939
 20
74.3056119758
  0
LWPOLYLINE
  5
656
100
AcDbEntity
  8
0
100
AcDbPolyline
 62
250
  6
CONTINUOUS
 90
12
 70
0
 10
117.4826011497
 20
73.9730553293
 10
117.4829814157
 20
73.9764091745
 10
117.4857196529
 20
73.9858135154
 10
117.4907861421
 20
74.0011658285
 10
117.4981260105
 20
74.0222987187
 10
117.5076592631
 20
74.0489821685
 10
117.5192818929
 20
74.0809261368
 10
117.5328676579
 20
74.1177830905
 10
117.5482689589
 20
74.1591517985
 10
117.5653180768
 20
74.2045821754
 10
117.583829264
 20
74.2535799706
 10
117.6036011939
 20
74.3056119758
  0
LINE
  5
657
100
AcDbEntity
  8
ASSI
100
AcDbLine
 62
250
  6
CONTINUOUS
 10
117.9863966206
 20
73.364250482
 11
117.986398159
 21
73.3642600978
  0
LINE
  5
658
100
AcDbEntity
  8
0
100
AcDbLine
 62
250
  6
CONTINUOUS
 10
117.9863966206
 20
73.364250482
 11
117.986398159
 21
73.3642600978
  0
LINE
  5
659
100
AcDbEntity
  8
ASSI
100
AcDbLine
 62
250
  6
CONTINUOUS
 10
117.6036011939
 20
74.3056119758
 11
117.6460560969
 21
74.4164866841
  0
LINE
  5
65A
100
AcDbEntity
  8
0
100
AcDbLine
 62
250
  6
CONTINUOUS
 10
117.6036011939
 20
74.3056119758
 11
117.6460560969
 21
74.4164866841
  0
LINE
  5
65B
100
AcDbEntity
  8
ASSI
100
AcDbLine
 62
250
  6
CONTINUOUS
 10
117.6460560969
 20
74.4164866841
 11
117.690838574
 21
74.5323939253
  0
LINE
  5
65C
100
AcDbEntity
  8
0
100
AcDbLine
 62
250
  6
CONTINUOUS
 10
117.6460560969
 20
74.4164866841
 11
117.690838574
 21
74.5323939253
  0
LINE
  5
65D
100
AcDbEntity
  8
28414000
100
AcDbLine
 62
7
  6
CONTINUOUS
 10
90.2198602489
 20
96.8985128864
 11
90.7871549533
 21
96.9133680211
  0
LINE
  5
65E
100
AcDbEntity
  8
26814000
100
AcDbLine
 62
250
  6
CONTINUOUS
 10
90.6270810134
 20
95.6096704005
 11
90.0834000072
 21
95.6001804132
  0
LINE
  5
65F
100
AcDbEntity
  8
26814000
100
AcDbLine
 62
7
  6
CONTINUOUS
 10
90.7501105521
 20
96.6116655842
 11
90.1886813839
 21
96.6018658016
  0
LINE
  5
660
100
AcDbEntity
  8
ASSI
100
AcDbLine
 62
250
  6
CONTINUOUS
 10
115.9931100009
 20
96.1173115924
 11
115.6983457228
 21
96.1173115924
  0
LINE
  5
661
100
AcDbEntity
  8
0
100
AcDbLine
 62
250
  6
CONTINUOUS
 10
115.9931100009
 20
96.1173115924
 11
115.6983457228
 21
96.1173115924
  0
LINE
  5
662
100
AcDbEntity
  8
0
100
AcDbLine
 62
7
  6
CONTINUOUS
 10
102.3931100009
 20
96.6298712073
 11
102.5931100009
 21
96.6298712073
  0
LINE
  5
663
100
AcDbEntity
  8
RACCORDO
100
AcDbLine
 62
7
  6
CONTINUOUS
 10
115.9931100009
 20
96.6298712073
 11
119.0231190701
 21
96.6298712073
  0
LINE
  5
664
100
AcDbEntity
  8
RACCORDO
100
AcDbLine
 62
250
  6
CONTINUOUS
 10
116.9100786232
 20
96.8798712073
 11
119.0231190701
 21
96.8798712073
  0
LINE
  5
665
100
AcDbEntity
  8
RACCORDO
100
AcDbLine
 62
7
  6
CONTINUOUS
 10
121.092441601
 20
97.6298712073
 11
120.2931100009
 21
97.6298712073
  0
LINE
  5
666
100
AcDbEntity
  8
RACCORDO
100
AcDbLine
 62
250
  6
CONTINUOUS
 10
120.8431100009
 20
97.8342343089
 11
120.8617924599
 21
97.8342221093
  0
LINE
  5
667
100
AcDbEntity
  8
RACCORDO
100
AcDbLine
 62
250
  6
CONTINUOUS
 10
120.8431100009
 20
97.6581679753
 11
120.8987402344
 21
97.6580585832
  0
LINE
  5
668
100
AcDbEntity
  8
ASSI
100
AcDbLine
 62
250
  6
CONTINUOUS
 10
102.5931100009
 20
97.5255974703
 11
109.901737102
 21
97.4826233708
  0
LINE
  5
669
100
AcDbEntity
  8
0
100
AcDbLine
 62
250
  6
CONTINUOUS
 10
102.5931100009
 20
97.5255974703
 11
109.901737102
 21
97.4826233708
  0
LINE
  5
66A
100
AcDbEntity
  8
ASSI
100
AcDbLine
 62
250
  6
CONTINUOUS
 10
109.901737102
 20
97.4826233708
 11
115.6983457228
 21
97.4483986049
  0
LINE
  5
66B
100
AcDbEntity
  8
0
100
AcDbLine
 62
250
  6
CONTINUOUS
 10
109.901737102
 20
97.4826233708
 11
115.6983457228
 21
97.4483986049
  0
LINE
  5
66C
100
AcDbEntity
  8
ASSI
100
AcDbLine
 62
250
  6
CONTINUOUS
 10
102.5931100009
 20
96.2040872098
 11
108.8136272041
 21
96.1630027459
  0
LINE
  5
66D
100
AcDbEntity
  8
0
100
AcDbLine
 62
250
  6
CONTINUOUS
 10
102.5931100009
 20
96.2040872098
 11
108.8136272041
 21
96.1630027459
  0
LINE
  5
66E
100
AcDbEntity
  8
ASSI
100
AcDbLine
 62
250
  6
CONTINUOUS
 10
108.8136272041
 20
96.1630027459
 11
115.6983457228
 21
96.1173115924
  0
LINE
  5
66F
100
AcDbEntity
  8
0
100
AcDbLine
 62
250
  6
CONTINUOUS
 10
108.8136272041
 20
96.1630027459
 11
115.6983457228
 21
96.1173115924
  0
LINE
  5
670
100
AcDbEntity
  8
0
100
AcDbLine
 62
250
  6
CONTINUOUS
 10
102.3931100009
 20
95.835776122
 11
93.2931100009
 21
95.901570256
  0
LINE
  5
671
100
AcDbEntity
  8
0
100
AcDbLine
 62
250
  6
CONTINUOUS
 10
102.3931100009
 20
97.2497742928
 11
93.2931100009
 21
97.3155684268
  0
LWPOLYLINE
  5
672
100
AcDbEntity
  8
RACCORDO
100
AcDbPolyline
 62
250
  6
CONTINUOUS
 90
3
 70
0
 10
120.8987402344
 20
97.6580585832
 10
120.9515809357
 20
97.6577358924
 10
120.9681100009
 20
97.6575834305
  0
LINE
  5
673
100
AcDbEntity
  8
28414000
100
AcDbLine
 62
7
  6
CONTINUOUS
 10
90.9243919368
 20
98.0310735576
 11
90.3452944048
 21
98.0919391609
  0
LINE
  5
674
100
AcDbEntity
  8
RACCORDO
100
AcDbLine
 62
250
  6
CONTINUOUS
 10
83.9624795646
 20
98.8610651759
 11
83.6488096116
 21
98.9159427406
  0
LINE
  5
675
100
AcDbEntity
  8
RACCORDO
100
AcDbLine
 62
250
  6
CONTINUOUS
 10
83.6488096116
 20
98.9159427406
 11
83.4476854605
 21
98.9512913321
  0
LWPOLYLINE
  5
676
100
AcDbEntity
  8
RACCORDO
100
AcDbPolyline
 62
250
  6
CONTINUOUS
 90
3
 70
0
 10
83.4476854605
 20
98.9512913321
 10
83.2972762628
 20
98.9778896498
 10
83.261038457
 20
98.9843470146
  0
LWPOLYLINE
  5
677
100
AcDbEntity
  8
0
100
AcDbPolyline
 62
7
  6
CONTINUOUS
 90
10
 70
0
 43
0.3500000006
 10
101.2472800598
 20
119.1228630066
 10
101.3187112427
 20
118.9800097046
 10
101.3187112427
 20
118.9085785217
 10
101.175848877
 20
118.7657252197
 10
101.1044176941
 20
118.7657252197
 10
101.032995575
 20
118.8371473389
 10
101.032995575
 20
118.9085785217
 10
101.1044176941
 20
119.0514318237
 10
101.175848877
 20
119.1228630066
 10
101.2472800598
 20
119.1228630066
  0
LINE
  5
678
100
AcDbEntity
  8
ASSI
100
AcDbLine
 62
250
  6
CONTINUOUS
 10
117.6908385741
 20
81.9273484895
 11
117.6460557759
 21
82.0432562336
  0
LINE
  5
679
100
AcDbEntity
  8
0
100
AcDbLine
 62
250
  6
CONTINUOUS
 10
117.6908385741
 20
81.9273484895
 11
117.6460557759
 21
82.0432562336
  0
LWPOLYLINE
  5
67A
100
AcDbEntity
  8
ASSI
100
AcDbPolyline
 62
250
  6
CONTINUOUS
 90
13
 70
0
 10
117.6460557759
 20
82.0432562336
 10
117.6036006571
 20
82.1541313118
 10
117.5838286527
 20
82.2061634354
 10
117.5653174282
 20
82.2551612816
 10
117.5482683108
 20
82.3005916464
 10
117.53286704
 20
82.341960286
 10
117.5192813324
 20
82.3788171131
 10
117.5076587805
 20
82.4107609281
 10
117.4981256278
 20
82.4374442023
 10
117.4907858763
 20
82.4585768851
 10
117.4857195009
 20
82.4739290017
 10
117.4829813561
 20
82.4833332245
 10
117.482601143
 20
82.4866870827
  0
LWPOLYLINE
  5
67B
100
AcDbEntity
  8
0
100
AcDbPolyline
 62
250
  6
CONTINUOUS
 90
13
 70
0
 10
117.6460557759
 20
82.0432562336
 10
117.6036006571
 20
82.1541313118
 10
117.5838286527
 20
82.2061634354
 10
117.5653174282
 20
82.2551612816
 10
117.5482683108
 20
82.3005916464
 10
117.53286704
 20
82.341960286
 10
117.5192813324
 20
82.3788171131
 10
117.5076587805
 20
82.4107609281
 10
117.4981256278
 20
82.4374442023
 10
117.4907858763
 20
82.4585768851
 10
117.4857195009
 20
82.4739290017
 10
117.4829813561
 20
82.4833332245
 10
117.482601143
 20
82.4866870827
  0
LINE
  5
67C
100
AcDbEntity
  8
ASSI
100
AcDbLine
 62
250
  6
CONTINUOUS
 10
115.9899482963
 20
98.6618239447
 11
115.9922941369
 21
98.6416551293
  0
LINE
  5
67D
100
AcDbEntity
  8
0
100
AcDbLine
 62
250
  6
CONTINUOUS
 10
115.9899482963
 20
98.6618239447
 11
115.9922941369
 21
98.6416551293
  0
LWPOLYLINE
  5
67E
100
AcDbEntity
  8
RACCORDO
100
AcDbPolyline
 62
250
  6
CONTINUOUS
 90
28
 70
0
 10
120.8431100009
 20
97.8342343089
 10
120.8425955325
 20
97.8491975202
 10
120.8413032699
 20
97.8638162464
 10
120.8392332131
 20
97.8780904875
 10
120.8363770821
 20
97.8919894409
 10
120.8327431568
 20
97.9055439092
 10
120.8283562781
 20
97.9188463003
 10
120.8232042873
 20
97.9319749614
 10
120.817299343
 20
97.9448515454
 10
120.8107027611
 20
97.9573334183
 10
120.8034105762
 20
97.9694086391
 10
120.7954267537
 20
97.9810891489
 10
120.7868245053
 20
97.9922681369
 10
120.7775920343
 20
98.0029457635
 10
120.7677411373
 20
98.0131218683
 10
120.7573804164
 20
98.0226891592
 10
120.7465731768
 20
98.0316105514
 10
120.7352561132
 20
98.0399231297
 10
120.7233479119
 20
98.0476308566
 10
120.7107995407
 20
98.0547857678
 10
120.6976600318
 20
98.0613358276
 10
120.6839951682
 20
98.067128891
 10
120.6697526219
 20
98.0721680115
 10
120.654984721
 20
98.0764501356
 10
120.6399142317
 20
98.0798139579
 10
120.6246154097
 20
98.08220571
 10
120.6090139994
 20
98.0836791603
 10
120.5931100009
 20
98.0842343089
  0
LINE
  5
67F
100
AcDbEntity
  8
RACCORDO
100
AcDbLine
 62
250
  6
CONTINUOUS
 10
120.5931100009
 20
98.0842343089
 11
120.5931100009
 21
98.3298712073
  0
LINE
  5
680
100
AcDbEntity
  8
ASSI
100
AcDbLine
 62
250
  6
CONTINUOUS
 10
120.7966004822
 20
93.280936099
 11
120.7966004822
 21
87.3788063157
  0
LINE
  5
681
100
AcDbEntity
  8
0
100
AcDbLine
 62
250
  6
CONTINUOUS
 10
120.7966004822
 20
93.280936099
 11
120.7966004822
 21
87.3788063157
  0
LINE
  5
682
100
AcDbEntity
  8
ASSI
100
AcDbLine
 62
250
  6
CONTINUOUS
 10
120.7966004822
 20
69.080936099
 11
120.7966004822
 21
63.1788063157
  0
LINE
  5
683
100
AcDbEntity
  8
0
100
AcDbLine
 62
250
  6
CONTINUOUS
 10
120.7966004822
 20
69.080936099
 11
120.7966004822
 21
63.1788063157
  0
LINE
  5
684
100
AcDbEntity
  8
RACCORDO
100
AcDbLine
 62
250
  6
CONTINUOUS
 10
120.8431100009
 20
97.6581679753
 11
120.8431100009
 21
97.8342343089
  0
LINE
  5
685
100
AcDbEntity
  8
ASSI
100
AcDbLine
 62
7
  6
CONTINUOUS
 10
120.9931100009
 20
93.0809134818
 11
120.9931100009
 21
87.5788287889
  0
LINE
  5
686
100
AcDbEntity
  8
0
100
AcDbLine
 62
7
  6
CONTINUOUS
 10
120.9931100009
 20
93.0809134818
 11
120.9931100009
 21
87.5788287889
  0
LINE
  5
687
100
AcDbEntity
  8
ASSI
100
AcDbLine
 62
7
  6
CONTINUOUS
 10
120.9931100009
 20
68.8809134818
 11
120.9931100009
 21
63.3788287889
  0
LINE
  5
688
100
AcDbEntity
  8
0
100
AcDbLine
 62
7
  6
CONTINUOUS
 10
120.9931100009
 20
68.8809134818
 11
120.9931100009
 21
63.3788287889
  0
LINE
  5
689
100
AcDbEntity
  8
RACCORDO
100
AcDbLine
 62
7
  6
CONTINUOUS
 10
121.0931100009
 20
97.6538048737
 11
121.0931100009
 21
97.8298712073
  0
LWPOLYLINE
  5
68A
100
AcDbEntity
  8
RACCORDO
100
AcDbPolyline
 62
250
  6
CONTINUOUS
 90
7
 70
0
 10
120.8423792078
 20
97.6298712073
 10
120.8426014601
 20
97.634554294
 10
120.8427835309
 20
97.6392505972
 10
120.8429254204
 20
97.6439601169
 10
120.8430271286
 20
97.6486828532
 10
120.8430886554
 20
97.653418806
 10
120.8431100009
 20
97.6581679753
  0
LWPOLYLINE
  5
68B
100
AcDbEntity
  8
ASSI
100
AcDbPolyline
 62
250
  6
CONTINUOUS
 90
16
 70
0
 10
117.9931100009
 20
65.7229241976
 10
117.9914847708
 20
65.7130568847
 10
117.9866266878
 20
65.703296486
 10
117.9785883862
 20
65.693748754
 10
117.9674569581
 20
65.6845171376
 10
117.9533530085
 20
65.6757016596
 10
117.9364293457
 20
65.667397833
 10
117.9168693303
 20
65.6596956291
 10
117.8948848907
 20
65.6526785021
 10
117.8707142237
 20
65.6464224821
 10
117.8446192115
 20
65.6409953538
 10
117.8168825918
 20
65.6364559214
 10
117.7878048958
 20
65.6328533703
 10
117.7577011815
 20
65.6302267345
 10
117.7268976183
 20
65.6286044744
 10
117.6957279616
 20
65.6280041681
  0
LWPOLYLINE
  5
68C
100
AcDbEntity
  8
0
100
AcDbPolyline
 62
250
  6
CONTINUOUS
 90
16
 70
0
 10
117.9931100009
 20
65.7229241976
 10
117.9914847708
 20
65.7130568847
 10
117.9866266878
 20
65.703296486
 10
117.9785883862
 20
65.693748754
 10
117.9674569581
 20
65.6845171376
 10
117.9533530085
 20
65.6757016596
 10
117.9364293457
 20
65.667397833
 10
117.9168693303
 20
65.6596956291
 10
117.8948848907
 20
65.6526785021
 10
117.8707142237
 20
65.6464224821
 10
117.8446192115
 20
65.6409953538
 10
117.8168825918
 20
65.6364559214
 10
117.7878048958
 20
65.6328533703
 10
117.7577011815
 20
65.6302267345
 10
117.7268976183
 20
65.6286044744
 10
117.6957279616
 20
65.6280041681
  0
LWPOLYLINE
  5
68D
100
AcDbEntity
  8
ASSI
100
AcDbPolyline
 62
250
  6
CONTINUOUS
 90
18
 70
0
 10
110.5931100009
 20
59.4693961443
 10
110.5989426051
 20
59.4724177296
 10
110.6380270202
 20
59.4979034504
 10
110.6754744147
 20
59.5284475565
 10
110.7112447964
 20
59.563360893
 10
110.7435604493
 20
59.6004124813
 10
110.7718312087
 20
59.6396546262
 10
110.7966472392
 20
59.6810350231
 10
110.8180013183
 20
59.7221657791
 10
110.8355645293
 20
59.7625180717
 10
110.8496657889
 20
59.8026207235
 10
110.8612846249
 20
59.8416723103
 10
110.8704864915
 20
59.8795494404
 10
110.8772059344
 20
59.9163755056
 10
110.8822261182
 20
59.951719257
 10
110.8858080976
 20
59.9854369452
 10
110.8876908179
 20
60.0176723197
 10
110.887874279
 20
60.0484253805
  0
LWPOLYLINE
  5
68E
100
AcDbEntity
  8
0
100
AcDbPolyline
 62
250
  6
CONTINUOUS
 90
18
 70
0
 10
110.5931100009
 20
59.4693961443
 10
110.5989426051
 20
59.4724177296
 10
110.6380270202
 20
59.4979034504
 10
110.6754744147
 20
59.5284475565
 10
110.7112447964
 20
59.563360893
 10
110.7435604493
 20
59.6004124813
 10
110.7718312087
 20
59.6396546262
 10
110.7966472392
 20
59.6810350231
 10
110.8180013183
 20
59.7221657791
 10
110.8355645293
 20
59.7625180717
 10
110.8496657889
 20
59.8026207235
 10
110.8612846249
 20
59.8416723103
 10
110.8704864915
 20
59.8795494404
 10
110.8772059344
 20
59.9163755056
 10
110.8822261182
 20
59.951719257
 10
110.8858080976
 20
59.9854369452
 10
110.8876908179
 20
60.0176723197
 10
110.887874279
 20
60.0484253805
  0
LINE
  5
68F
100
AcDbEntity
  8
26814000
100
AcDbLine
 62
250
  6
CONTINUOUS
 10
93.2931100009
 20
99.5055614472
 11
102.9983457228
 21
99.6749669668
  0
LINE
  5
690
100
AcDbEntity
  8
26814000
100
AcDbLine
 62
250
  6
CONTINUOUS
 10
93.2931100009
 20
99.7177848714
 11
103.208943676
 21
99.890866392
  0
LINE
  5
691
100
AcDbEntity
  8
RACCORDO
100
AcDbLine
 62
250
  6
CONTINUOUS
 10
120.5931100009
 20
98.0842343089
 11
115.9931100009
 21
98.0842343089
  0
LINE
  5
692
100
AcDbEntity
  8
RACCORDO
100
AcDbLine
 62
7
  6
CONTINUOUS
 10
120.5931100009
 20
98.3298712073
 11
115.9931100009
 21
98.3298712073
  0
LINE
  5
693
100
AcDbEntity
  8
0
100
AcDbLine
 62
7
  6
CONTINUOUS
 10
102.3931100009
 20
98.6298712073
 11
103.4931100009
 21
98.6298712073
  0
LINE
  5
694
100
AcDbEntity
  8
ASSI
100
AcDbLine
 62
250
  6
CONTINUOUS
 10
115.9883105709
 20
98.6779209416
 11
115.9931100009
 21
98.6779209764
  0
LINE
  5
695
100
AcDbEntity
  8
0
100
AcDbLine
 62
250
  6
CONTINUOUS
 10
115.9883105709
 20
98.6779209416
 11
115.9931100009
 21
98.6779209764
  0
LINE
  5
696
100
AcDbEntity
  8
26814000
100
AcDbLine
 62
7
  6
CONTINUOUS
 10
93.2931100009
 20
99.1298712073
 11
103.2931100009
 21
99.1298712073
  0
LINE
  5
697
100
AcDbEntity
  8
26814000
100
AcDbLine
 62
250
  6
CONTINUOUS
 10
93.2931100009
 20
99.4298712073
 11
102.9983457228
 21
99.4298712073
  0
LINE
  5
698
100
AcDbEntity
  8
RACCORDO
100
AcDbLine
 62
250
  6
CONTINUOUS
 10
120.8617924599
 20
97.8342221093
 11
120.9167985892
 21
97.8340404711
  0
LINE
  5
699
100
AcDbEntity
  8
0
100
AcDbLine
 62
250
  6
CONTINUOUS
 10
102.3931100009
 20
98.8540133664
 11
93.2931100009
 21
98.9334278633
  0
LINE
  5
69A
100
AcDbEntity
  8
0
100
AcDbLine
 62
7
  6
CONTINUOUS
 10
102.3931100009
 20
99.0004567104
 11
93.2931100009
 21
99.0798712073
  0
LINE
  5
69B
100
AcDbEntity
  8
RACCORDO
100
AcDbLine
 62
250
  6
CONTINUOUS
 10
120.9167985892
 20
97.8340404711
 11
120.9681097406
 21
97.8336497688
  0
LINE
  5
69C
100
AcDbEntity
  8
ASSI
100
AcDbLine
 62
250
  6
CONTINUOUS
 10
103.5931100009
 20
99.4162154022
 11
106.7966004822
 21
99.3724691606
  0
LINE
  5
69D
100
AcDbEntity
  8
0
100
AcDbLine
 62
250
  6
CONTINUOUS
 10
103.5931100009
 20
99.4162154022
 11
106.7966004822
 21
99.3724691606
  0
LINE
  5
69E
100
AcDbEntity
  8
RACCORDO
100
AcDbLine
 62
250
  6
CONTINUOUS
 10
120.9681100009
 20
97.6575834305
 11
121.0131531853
 21
97.6570032535
  0
LINE
  5
69F
100
AcDbEntity
  8
RACCORDO
100
AcDbLine
 62
250
  6
CONTINUOUS
 10
120.9681097406
 20
97.8336497688
 11
121.0131529477
 21
97.8330695933
  0
LINE
  5
6A0
100
AcDbEntity
  8
ASSI
100
AcDbLine
 62
250
  6
CONTINUOUS
 10
103.5931100009
 20
99.6947898427
 11
106.7966004822
 21
99.6388727084
  0
LINE
  5
6A1
100
AcDbEntity
  8
0
100
AcDbLine
 62
250
  6
CONTINUOUS
 10
103.5931100009
 20
99.6947898427
 11
106.7966004822
 21
99.6388727084
  0
LINE
  5
6A2
100
AcDbEntity
  8
ASSI
100
AcDbLine
 62
250
  6
CONTINUOUS
 10
106.9931100009
 20
99.6530993826
 11
111.1282056486
 21
99.5809210196
  0
LINE
  5
6A3
100
AcDbEntity
  8
0
100
AcDbLine
 62
250
  6
CONTINUOUS
 10
106.9931100009
 20
99.6530993826
 11
111.1282056486
 21
99.5809210196
  0
LINE
  5
6A4
100
AcDbEntity
  8
ASSI
100
AcDbLine
 62
7
  6
CONTINUOUS
 10
103.5931100009
 20
99.9124161424
 11
111.1438569023
 21
99.780617365
  0
LINE
  5
6A5
100
AcDbEntity
  8
0
100
AcDbLine
 62
7
  6
CONTINUOUS
 10
103.5931100009
 20
99.9124161424
 11
111.1438569023
 21
99.780617365
  0
LINE
  5
6A6
100
AcDbEntity
  8
RACCORDO
100
AcDbLine
 62
250
  6
CONTINUOUS
 10
121.0131531853
 20
97.6570032535
 11
121.0385678715
 21
97.656525223
  0
LINE
  5
6A7
100
AcDbEntity
  8
RACCORDO
100
AcDbLine
 62
250
  6
CONTINUOUS
 10
121.0131529477
 20
97.8330695933
 11
121.0385676795
 21
97.8325915631
  0
LINE
  5
6A8
100
AcDbEntity
  8
ASSI
100
AcDbLine
 62
7
  6
CONTINUOUS
 10
103.5931100009
 20
98.1184751958
 11
102.5931100009
 21
98.1436260915
  0
LINE
  5
6A9
100
AcDbEntity
  8
0
100
AcDbLine
 62
7
  6
CONTINUOUS
 10
103.5931100009
 20
98.1184751958
 11
102.5931100009
 21
98.1436260915
  0
LINE
  5
6AA
100
AcDbEntity
  8
ASSI
100
AcDbLine
 62
250
  6
CONTINUOUS
 10
103.5931100009
 20
98.0265564537
 11
102.5931100009
 21
98.0519619049
  0
LINE
  5
6AB
100
AcDbEntity
  8
0
100
AcDbLine
 62
250
  6
CONTINUOUS
 10
103.5931100009
 20
98.0265564537
 11
102.5931100009
 21
98.0519619049
  0
LWPOLYLINE
  5
6AC
100
AcDbEntity
  8
RACCORDO
100
AcDbPolyline
 62
250
  6
CONTINUOUS
 90
9
 70
0
 10
121.0385678715
 20
97.656525223
 10
121.0596163519
 20
97.6559864245
 10
121.0683522179
 20
97.6556979525
 10
121.0758284381
 20
97.6553988937
 10
121.0820032024
 20
97.6550909205
 10
121.086841979
 20
97.6547757551
 10
121.0903177075
 20
97.6544551602
 10
121.0924109502
 20
97.6541309287
 10
121.0931100009
 20
97.6538048737
  0
LWPOLYLINE
  5
6AD
100
AcDbEntity
  8
RACCORDO
100
AcDbPolyline
 62
250
  6
CONTINUOUS
 90
9
 70
0
 10
121.0385676795
 20
97.8325915631
 10
121.0596162174
 20
97.8320527642
 10
121.0683521128
 20
97.8317642918
 10
121.0758283611
 20
97.8314652323
 10
121.0820031509
 20
97.8311572583
 10
121.0868419488
 20
97.8308420921
 10
121.0903176935
 20
97.8305214962
 10
121.0924109466
 20
97.8301972635
 10
121.0931100009
 20
97.8298712073
  0
LINE
  5
6AE
100
AcDbEntity
  8
ASSI
100
AcDbLine
 62
7
  6
CONTINUOUS
 10
107.745488153
 20
99.2516341086
 11
106.9218655321
 21
99.2820230269
  0
LINE
  5
6AF
100
AcDbEntity
  8
0
100
AcDbLine
 62
7
  6
CONTINUOUS
 10
107.745488153
 20
99.2516341086
 11
106.9218655321
 21
99.2820230269
  0
LINE
  5
6B0
100
AcDbEntity
  8
ASSI
100
AcDbLine
 62
250
  6
CONTINUOUS
 10
106.7966004822
 20
99.2413953113
 11
108.1566131152
 21
99.1907816405
  0
LINE
  5
6B1
100
AcDbEntity
  8
0
100
AcDbLine
 62
250
  6
CONTINUOUS
 10
106.7966004822
 20
99.2413953113
 11
108.1566131152
 21
99.1907816405
  0
LINE
  5
6B2
100
AcDbEntity
  8
ASSI
100
AcDbLine
 62
250
  6
CONTINUOUS
 10
108.1566131152
 20
99.1907816405
 11
109.5524541955
 21
99.13860233
  0
LINE
  5
6B3
100
AcDbEntity
  8
0
100
AcDbLine
 62
250
  6
CONTINUOUS
 10
108.1566131152
 20
99.1907816405
 11
109.5524541955
 21
99.13860233
  0
LINE
  5
6B4
100
AcDbEntity
  8
ASSI
100
AcDbLine
 62
250
  6
CONTINUOUS
 10
109.5524541955
 20
99.13860233
 11
110.9893931763
 21
99.0846476503
  0
LINE
  5
6B5
100
AcDbEntity
  8
0
100
AcDbLine
 62
250
  6
CONTINUOUS
 10
109.5524541955
 20
99.13860233
 11
110.9893931763
 21
99.0846476503
  0
LINE
  5
6B6
100
AcDbEntity
  8
ASSI
100
AcDbLine
 62
250
  6
CONTINUOUS
 10
110.9893931763
 20
99.0846476503
 11
112.4858693361
 21
99.0281949545
  0
LINE
  5
6B7
100
AcDbEntity
  8
0
100
AcDbLine
 62
250
  6
CONTINUOUS
 10
110.9893931763
 20
99.0846476503
 11
112.4858693361
 21
99.0281949545
  0
LWPOLYLINE
  5
6B8
100
AcDbEntity
  8
ASSI
100
AcDbPolyline
 62
7
  6
CONTINUOUS
 90
9
 70
0
 10
115.7024096876
 20
98.953946977
 10
114.7893107618
 20
98.9884954535
 10
113.7975109927
 20
99.0259057083
 10
112.8008910334
 20
99.0633772525
 10
111.7994508786
 20
99.1009095099
 10
110.7931905208
 20
99.138501896
 10
109.7821099522
 20
99.1761538319
 10
108.7662091655
 20
99.2138647584
 10
107.745488153
 20
99.2516341086
  0
LWPOLYLINE
  5
6B9
100
AcDbEntity
  8
0
100
AcDbPolyline
 62
7
  6
CONTINUOUS
 90
9
 70
0
 10
115.7024096876
 20
98.953946977
 10
114.7893107618
 20
98.9884954535
 10
113.7975109927
 20
99.0259057083
 10
112.8008910334
 20
99.0633772525
 10
111.7994508786
 20
99.1009095099
 10
110.7931905208
 20
99.138501896
 10
109.7821099522
 20
99.1761538319
 10
108.7662091655
 20
99.2138647584
 10
107.745488153
 20
99.2516341086
  0
LINE
  5
6BA
100
AcDbEntity
  8
ASSI
100
AcDbLine
 62
250
  6
CONTINUOUS
 10
112.4858693361
 20
99.0281949545
 11
114.0542009173
 21
98.9687253795
  0
LINE
  5
6BB
100
AcDbEntity
  8
0
100
AcDbLine
 62
250
  6
CONTINUOUS
 10
112.4858693361
 20
99.0281949545
 11
114.0542009173
 21
98.9687253795
  0
LINE
  5
6BC
100
AcDbEntity
  8
ASSI
100
AcDbLine
 62
250
  6
CONTINUOUS
 10
114.0542009173
 20
98.9687253795
 11
115.7091416326
 21
98.9056665678
  0
LINE
  5
6BD
100
AcDbEntity
  8
0
100
AcDbLine
 62
250
  6
CONTINUOUS
 10
114.0542009173
 20
98.9687253795
 11
115.7091416326
 21
98.9056665678
  0
LWPOLYLINE
  5
6BE
100
AcDbEntity
  8
RACCORDO
100
AcDbPolyline
 62
250
  6
CONTINUOUS
 90
22
 70
0
 10
84.7191491067
 20
99.4374978
 10
84.6692692437
 20
99.4404899989
 10
84.619731318
 20
99.4399767346
 10
84.5705353294
 20
99.4359580069
 10
84.5214151447
 20
99.4283812824
 10
84.4726368973
 20
99.4172990947
 10
84.4249989871
 20
99.4028690437
 10
84.3785359001
 20
99.38503608
 10
84.3332131503
 20
99.3638552532
 10
84.2897256806
 20
99.3396493122
 10
84.2481085117
 20
99.3123767719
 10
84.2083266227
 20
99.2820791176
 10
84.1709698935
 20
99.249203554
 10
84.1360674382
 20
99.2137026109
 10
84.1035901426
 20
99.1756237587
 10
84.0740405446
 20
99.135556613
 10
84.0474657909
 20
99.0934574769
 10
84.0238187348
 20
99.0493700475
 10
84.0034604744
 20
99.0040150319
 10
83.9865113755
 20
98.957632666
 10
83.9728510723
 20
98.909982714
 10
83.9624795646
 20
98.8610651759
  0
LINE
  5
6BF
100
AcDbEntity
  8
ASSI
100
AcDbLine
 62
250
  6
CONTINUOUS
 10
115.7091416326
 20
98.9056665678
 11
115.7203325327
 21
98.9048406078
  0
LINE
  5
6C0
100
AcDbEntity
  8
0
100
AcDbLine
 62
250
  6
CONTINUOUS
 10
115.7091416326
 20
98.9056665678
 11
115.7203325327
 21
98.9048406078
  0
LINE
  5
6C1
100
AcDbEntity
  8
RACCORDO
100
AcDbLine
 62
250
  6
CONTINUOUS
 10
90.4289330942
 20
98.8877081344
 11
84.7191491067
 21
99.4374978
  0
LINE
  5
6C2
100
AcDbEntity
  8
RACCORDO
100
AcDbLine
 62
7
  6
CONTINUOUS
 10
90.512539946
 20
99.6831741935
 11
84.81665255
 21
100.2316257695
  0
LINE
  5
6C3
100
AcDbEntity
  8
26814000
100
AcDbLine
 62
7
  6
CONTINUOUS
 10
89.7931100009
 20
100.2298712073
 11
90.9431100009
 21
100.0886689623
  0
LWPOLYLINE
  5
6C4
100
AcDbEntity
  8
ASSI
100
AcDbPolyline
 62
250
  6
CONTINUOUS
 90
7
 70
0
 10
106.9357600907
 20
99.3256948294
 10
106.9164713886
 20
99.3391831961
 10
106.8951185188
 20
99.350610793
 10
106.8720587721
 20
99.3597864056
 10
106.8476780002
 20
99.3665565013
 10
106.8223841589
 20
99.3708077982
 10
106.7966004822
 20
99.3724691606
  0
LWPOLYLINE
  5
6C5
100
AcDbEntity
  8
0
100
AcDbPolyline
 62
250
  6
CONTINUOUS
 90
7
 70
0
 10
106.9357600907
 20
99.3256948294
 10
106.9164713886
 20
99.3391831961
 10
106.8951185188
 20
99.350610793
 10
106.8720587721
 20
99.3597864056
 10
106.8476780002
 20
99.3665565013
 10
106.8223841589
 20
99.3708077982
 10
106.7966004822
 20
99.3724691606
  0
LINE
  5
6C6
100
AcDbEntity
  8
26814000
100
AcDbLine
 62
250
  6
CONTINUOUS
 10
92.2931100009
 20
100.2798578799
 11
89.7931100009
 21
100.2580407104
  0
LINE
  5
6C7
100
AcDbEntity
  8
26814000
100
AcDbLine
 62
7
  6
CONTINUOUS
 10
92.2931100009
 20
100.6298712073
 11
89.7931100009
 21
100.6080540379
  0
LINE
  5
6C8
100
AcDbEntity
  8
26814000
100
AcDbLine
 62
7
  6
CONTINUOUS
 10
93.2880136788
 20
102.0240830271
 11
100.2931100009
 21
101.9833285688
  0
LINE
  5
6C9
100
AcDbEntity
  8
26814000
100
AcDbLine
 62
250
  6
CONTINUOUS
 10
93.2931100009
 20
100.2711310121
 11
92.2931100009
 21
100.2798578799
  0
LINE
  5
6CA
100
AcDbEntity
  8
26814000
100
AcDbLine
 62
250
  6
CONTINUOUS
 10
93.2931100009
 20
100.5332649504
 11
102.7109685622
 21
100.4510765438
  0
LINE
  5
6CB
100
AcDbEntity
  8
26814000
100
AcDbLine
 62
7
  6
CONTINUOUS
 10
92.2931100009
 20
100.6298712073
 11
102.3018365364
 21
100.5425263741
  0
LWPOLYLINE
  5
6CC
100
AcDbEntity
  8
ASSI
100
AcDbPolyline
 62
250
  6
CONTINUOUS
 90
9
 70
0
 10
106.7966004822
 20
99.6388727084
 10
106.822385186
 20
99.6372112321
 10
106.8476798594
 20
99.6329596459
 10
106.8720612369
 20
99.626189138
 10
106.8951213735
 20
99.6170130327
 10
106.9164743882
 20
99.6055849236
 10
106.9357629421
 20
99.592096127
 10
106.9526643327
 20
99.5767724111
 10
106.9668958317
 20
99.559870224
  0
LWPOLYLINE
  5
6CD
100
AcDbEntity
  8
0
100
AcDbPolyline
 62
250
  6
CONTINUOUS
 90
9
 70
0
 10
106.7966004822
 20
99.6388727084
 10
106.822385186
 20
99.6372112321
 10
106.8476798594
 20
99.6329596459
 10
106.8720612369
 20
99.626189138
 10
106.8951213735
 20
99.6170130327
 10
106.9164743882
 20
99.6055849236
 10
106.9357629421
 20
99.592096127
 10
106.9526643327
 20
99.5767724111
 10
106.9668958317
 20
99.559870224
  0
LWPOLYLINE
  5
6CE
100
AcDbEntity
  8
ASSI
100
AcDbPolyline
 62
250
  6
CONTINUOUS
 90
7
 70
0
 10
115.7203325327
 20
98.9048406078
 10
115.731899361
 20
98.903557159
 10
115.7438470536
 20
98.9017839645
 10
115.7561206623
 20
98.8994808422
 10
115.768607299
 20
98.896608666
 10
115.7812755799
 20
98.8931364701
 10
115.7940877306
 20
98.8890411513
  0
LWPOLYLINE
  5
6CF
100
AcDbEntity
  8
0
100
AcDbPolyline
 62
250
  6
CONTINUOUS
 90
7
 70
0
 10
115.7203325327
 20
98.9048406078
 10
115.731899361
 20
98.903557159
 10
115.7438470536
 20
98.9017839645
 10
115.7561206623
 20
98.8994808422
 10
115.768607299
 20
98.896608666
 10
115.7812755799
 20
98.8931364701
 10
115.7940877306
 20
98.8890411513
  0
LINE
  5
6D0
100
AcDbEntity
  8
ASSI
100
AcDbLine
 62
250
  6
CONTINUOUS
 10
114.4271707175
 20
99.002155218
 11
111.1282056486
 21
99.5809210196
  0
LINE
  5
6D1
100
AcDbEntity
  8
0
100
AcDbLine
 62
250
  6
CONTINUOUS
 10
114.4271707175
 20
99.002155218
 11
111.1282056486
 21
99.5809210196
  0
LINE
  5
6D2
100
AcDbEntity
  8
ASSI
100
AcDbLine
 62
7
  6
CONTINUOUS
 10
115.7449498443
 20
98.9734080769
 11
111.1438569023
 21
99.780617365
  0
LINE
  5
6D3
100
AcDbEntity
  8
0
100
AcDbLine
 62
7
  6
CONTINUOUS
 10
115.7449498443
 20
98.9734080769
 11
111.1438569023
 21
99.780617365
  0
LWPOLYLINE
  5
6D4
100
AcDbEntity
  8
0
100
AcDbPolyline
 62
7
  6
CONTINUOUS
 90
10
 70
0
 43
0.3500000006
 10
108.1073927307
 20
111.879871582
 10
108.1788239136
 20
111.73701828
 10
108.1788239136
 20
111.6655870972
 10
108.0359706116
 20
111.5227247314
 10
107.9645394287
 20
111.5227247314
 10
107.8931082458
 20
111.5941559143
 10
107.8931082458
 20
111.6655870972
 10
107.9645394287
 20
111.8084403992
 10
108.0359706116
 20
111.879871582
 10
108.1073927307
 20
111.879871582
  0
LINE
  5
6D5
100
AcDbEntity
  8
RACCORDO
100
AcDbLine
 62
250
  6
CONTINUOUS
 10
119.1186255678
 20
96.8882269432
 11
119.1620376122
 21
96.6420250049
  0
LINE
  5
6D6
100
AcDbEntity
  8
RACCORDO
100
AcDbLine
 62
250
  6
CONTINUOUS
 10
120.3886164986
 20
97.1121606095
 11
120.432028543
 21
96.8659586713
  0
LINE
  5
6D7
100
AcDbEntity
  8
26814000
100
AcDbLine
 62
7
  6
CONTINUOUS
 10
90.0416555681
 20
102.6167726286
 11
92.2931100009
 21
102.6298712073
  0
LINE
  5
6D8
100
AcDbEntity
  8
26814000
100
AcDbLine
 62
7
  6
CONTINUOUS
 10
92.2931100009
 20
102.6298712073
 11
93.0445644337
 21
102.6254993733
  0
LWPOLYLINE
  5
6D9
100
AcDbEntity
  8
ASSI
100
AcDbPolyline
 62
250
  6
CONTINUOUS
 90
21
 70
0
 10
115.7940877306
 20
98.8890411513
 10
115.8069216177
 20
98.884312934
 10
115.81973906
 20
98.878931931
 10
115.8324976392
 20
98.8728879382
 10
115.8450745145
 20
98.8662053572
 10
115.857417806
 20
98.8588862536
 10
115.8694998003
 20
98.8509269755
 10
115.8812419152
 20
98.8423591157
 10
115.8925466831
 20
98.8332404152
 10
115.90344078
 20
98.8235342566
 10
115.9140160108
 20
98.8131218645
 10
115.9242004632
 20
98.8020183615
 10
115.9339459394
 20
98.7902088919
 10
115.9433258815
 20
98.7775005966
 10
115.9522638494
 20
98.7638449959
 10
115.9606240477
 20
98.7492791397
 10
115.968335619
 20
98.7337233566
 10
115.9752736965
 20
98.7171551572
 10
115.9812845517
 20
98.6996237263
 10
115.9862265245
 20
98.6811651476
 10
115.9899482963
 20
98.6618239447
  0
LWPOLYLINE
  5
6DA
100
AcDbEntity
  8
0
100
AcDbPolyline
 62
250
  6
CONTINUOUS
 90
21
 70
0
 10
115.7940877306
 20
98.8890411513
 10
115.8069216177
 20
98.884312934
 10
115.81973906
 20
98.878931931
 10
115.8324976392
 20
98.8728879382
 10
115.8450745145
 20
98.8662053572
 10
115.857417806
 20
98.8588862536
 10
115.8694998003
 20
98.8509269755
 10
115.8812419152
 20
98.8423591157
 10
115.8925466831
 20
98.8332404152
 10
115.90344078
 20
98.8235342566
 10
115.9140160108
 20
98.8131218645
 10
115.9242004632
 20
98.8020183615
 10
115.9339459394
 20
98.7902088919
 10
115.9433258815
 20
98.7775005966
 10
115.9522638494
 20
98.7638449959
 10
115.9606240477
 20
98.7492791397
 10
115.968335619
 20
98.7337233566
 10
115.9752736965
 20
98.7171551572
 10
115.9812845517
 20
98.6996237263
 10
115.9862265245
 20
98.6811651476
 10
115.9899482963
 20
98.6618239447
  0
LWPOLYLINE
  5
6DB
100
AcDbEntity
  8
0
100
AcDbPolyline
 62
7
  6
CONTINUOUS
 90
7
 70
0
 43
0.3500000006
 10
104.2502538757
 20
111.3798714294
 10
102.750253418
 20
111.3798714294
 10
104.2502538757
 20
113.5227253418
 10
104.2502538757
 20
113.9513033752
 10
103.821684906
 20
114.379872345
 10
103.1788223877
 20
114.379872345
 10
102.750253418
 20
113.7370098267
  0
LWPOLYLINE
  5
6DC
100
AcDbEntity
  8
0
100
AcDbPolyline
 62
7
  6
CONTINUOUS
 90
7
 70
0
 43
0.3500000006
 10
99.7472796021
 20
118.622862854
 10
98.2472791443
 20
118.622862854
 10
99.7472796021
 20
120.7657167664
 10
99.7472796021
 20
121.1942947998
 10
99.3187106323
 20
121.6228637695
 10
98.675848114
 20
121.6228637695
 10
98.2472791443
 20
120.9800103149
  0
LWPOLYLINE
  5
6DD
100
AcDbEntity
  8
0
100
AcDbPolyline
 62
7
  6
CONTINUOUS
 90
3
 70
0
 43
0.3500000006
 10
97.3901321411
 20
119.2657253723
 10
95.8901407471
 20
119.2657253723
 10
96.5329942017
 20
121.6228637695
  0
ARC
  5
6DE
100
AcDbEntity
  8
RACCORDO
100
AcDbCircle
 62
7
  6
CONTINUOUS
 10
80.4290028342
 20
58.3607001357
 40
1.5
100
AcDbArc
 50
177.8995301032
 51
263.5
  0
ARC
  5
6DF
100
AcDbEntity
  8
0
100
AcDbCircle
 62
7
  6
CONTINUOUS
 10
99.2931100009
 20
64.2298712073
 40
1.0
100
AcDbArc
 50
180.0
 51
270.0
  0
ARC
  5
6E0
100
AcDbEntity
  8
28414000
100
AcDbCircle
 62
7
  6
CONTINUOUS
 10
86.6222755942
 20
57.88639521
 40
1.0
100
AcDbArc
 50
354.0
 51
76.5
  0
ARC
  5
6E1
100
AcDbEntity
  8
26814000
100
AcDbCircle
 62
7
  6
CONTINUOUS
 10
90.0431100009
 20
54.38553364
 40
0.25
100
AcDbArc
 50
120.0
 51
180.0
  0
ARC
  5
6E2
100
AcDbEntity
  8
26814000
100
AcDbCircle
 62
7
  6
CONTINUOUS
 10
90.0431100009
 20
54.0929655553
 40
0.25
100
AcDbArc
 50
180.0
 51
269.6666666667
  0
ARC
  5
6E3
100
AcDbEntity
  8
26814000
100
AcDbCircle
 62
7
  6
CONTINUOUS
 10
93.0431100009
 20
54.0842388105
 40
0.25
100
AcDbArc
 50
270.3333333333
 51
360.0
  0
ARC
  5
6E4
100
AcDbEntity
  8
26814000
100
AcDbCircle
 62
7
  6
CONTINUOUS
 10
93.0431100009
 20
54.38553364
 40
0.25
100
AcDbArc
 50
0.0
 51
60.0
  0
ARC
  5
6E5
100
AcDbEntity
  8
26814000
100
AcDbCircle
 62
7
  6
CONTINUOUS
 10
92.5431100009
 20
55.2515590438
 40
0.25
100
AcDbArc
 50
180.0
 51
240.0
  0
ARC
  5
6E6
100
AcDbEntity
  8
ASSI
100
AcDbCircle
 62
7
  6
CONTINUOUS
 10
99.3931100009
 20
64.5358797431
 40
1.0
100
AcDbArc
 50
180.0
 51
269.0
  0
ARC
  5
6E7
100
AcDbEntity
  8
0
100
AcDbCircle
 62
7
  6
CONTINUOUS
 10
99.3931100009
 20
64.5358797431
 40
1.0
100
AcDbArc
 50
180.0
 51
269.0
  0
ARC
  5
6E8
100
AcDbEntity
  8
26814000
100
AcDbCircle
 62
7
  6
CONTINUOUS
 10
102.2931100009
 20
56.9171779636
 40
1.0
100
AcDbArc
 50
270.5
 51
360.0
  0
ARC
  5
6E9
100
AcDbEntity
  8
ASSI
100
AcDbCircle
 62
7
  6
CONTINUOUS
 10
111.0672899622
 20
57.4779104312
 40
0.8
100
AcDbArc
 50
271.0
 51
279.950626688
  0
ARC
  5
6EA
100
AcDbEntity
  8
ASSI
100
AcDbCircle
 62
7
  6
CONTINUOUS
 10
104.7931100009
 20
57.3683942126
 40
0.8
100
AcDbArc
 50
271.0
 51
360.0
  0
ARC
  5
6EB
100
AcDbEntity
  8
0
100
AcDbCircle
 62
7
  6
CONTINUOUS
 10
111.0672899622
 20
57.4779104312
 40
0.8
100
AcDbArc
 50
271.0
 51
279.950626688
  0
ARC
  5
6EC
100
AcDbEntity
  8
0
100
AcDbCircle
 62
7
  6
CONTINUOUS
 10
104.7931100009
 20
57.3683942126
 40
0.8
100
AcDbArc
 50
271.0
 51
360.0
  0
ARC
  5
6ED
100
AcDbEntity
  8
ASSI
100
AcDbCircle
 62
7
  6
CONTINUOUS
 10
105.8931100009
 20
58.2350620284
 40
0.3
100
AcDbArc
 50
91.0
 51
180.0
  0
ARC
  5
6EE
100
AcDbEntity
  8
ASSI
100
AcDbCircle
 62
7
  6
CONTINUOUS
 10
117.6931100009
 20
64.2595905161
 40
0.3
100
AcDbArc
 50
271.0
 51
360.0
  0
ARC
  5
6EF
100
AcDbEntity
  8
ASSI
100
AcDbCircle
 62
7
  6
CONTINUOUS
 10
115.6931100009
 20
57.7818214451
 40
0.3
100
AcDbArc
 50
279.950626688
 51
360.0
  0
ARC
  5
6F0
100
AcDbEntity
  8
0
100
AcDbCircle
 62
7
  6
CONTINUOUS
 10
105.8931100009
 20
58.2350620284
 40
0.3
100
AcDbArc
 50
91.0
 51
180.0
  0
ARC
  5
6F1
100
AcDbEntity
  8
0
100
AcDbCircle
 62
7
  6
CONTINUOUS
 10
117.6931100009
 20
64.2595905161
 40
0.3
100
AcDbArc
 50
271.0
 51
360.0
  0
ARC
  5
6F2
100
AcDbEntity
  8
0
100
AcDbCircle
 62
7
  6
CONTINUOUS
 10
115.6931100009
 20
57.7818214451
 40
0.3
100
AcDbArc
 50
279.950626688
 51
360.0
  0
ARC
  5
6F3
100
AcDbEntity
  8
ASSI
100
AcDbCircle
 62
7
  6
CONTINUOUS
 10
110.3931100009
 20
58.8136859846
 40
0.2
100
AcDbArc
 50
271.0
 51
360.0
  0
ARC
  5
6F4
100
AcDbEntity
  8
ASSI
100
AcDbCircle
 62
7
  6
CONTINUOUS
 10
120.7931100009
 20
63.3787758547
 40
0.2
100
AcDbArc
 50
271.0
 51
360.0
  0
ARC
  5
6F5
100
AcDbEntity
  8
0
100
AcDbCircle
 62
7
  6
CONTINUOUS
 10
110.3931100009
 20
58.8136859846
 40
0.2
100
AcDbArc
 50
271.0
 51
360.0
  0
ARC
  5
6F6
100
AcDbEntity
  8
0
100
AcDbCircle
 62
7
  6
CONTINUOUS
 10
120.7931100009
 20
63.3787758547
 40
0.2
100
AcDbArc
 50
271.0
 51
360.0
  0
ARC
  5
6F7
100
AcDbEntity
  8
ASSI
100
AcDbCircle
 62
7
  6
CONTINUOUS
 10
117.1931100009
 20
73.2272705917
 40
0.8
100
AcDbArc
 50
0.0
 51
89.0
  0
ARC
  5
6F8
100
AcDbEntity
  8
0
100
AcDbCircle
 62
7
  6
CONTINUOUS
 10
117.1931100009
 20
73.2272705917
 40
0.8
100
AcDbArc
 50
0.0
 51
89.0
  0
ARC
  5
6F9
100
AcDbEntity
  8
0
100
AcDbCircle
 62
7
  6
CONTINUOUS
 10
100.8931100009
 20
70.7298712073
 40
0.5
100
AcDbArc
 50
90.0
 51
180.0
  0
ARC
  5
6FA
100
AcDbEntity
  8
0
100
AcDbCircle
 62
7
  6
CONTINUOUS
 10
100.8931100009
 20
67.7298712073
 40
0.5
100
AcDbArc
 50
180.0
 51
270.0
  0
ARC
  5
6FB
100
AcDbEntity
  8
ASSI
100
AcDbCircle
 62
7
  6
CONTINUOUS
 10
106.0931100009
 20
74.7212198389
 40
0.5
100
AcDbArc
 50
180.0
 51
269.0
  0
ARC
  5
6FC
100
AcDbEntity
  8
ASSI
100
AcDbCircle
 62
7
  6
CONTINUOUS
 10
100.7931100009
 20
66.7298712073
 40
0.5
100
AcDbArc
 50
180.0
 51
270.0
  0
ARC
  5
6FD
100
AcDbEntity
  8
ASSI
100
AcDbCircle
 62
7
  6
CONTINUOUS
 10
102.0931100009
 20
66.7298712073
 40
0.5
100
AcDbArc
 50
270.0
 51
360.0
  0
ARC
  5
6FE
100
AcDbEntity
  8
ASSI
100
AcDbCircle
 62
7
  6
CONTINUOUS
 10
100.7931100009
 20
71.7298712073
 40
0.5
100
AcDbArc
 50
90.0
 51
180.0
  0
ARC
  5
6FF
100
AcDbEntity
  8
ASSI
100
AcDbCircle
 62
7
  6
CONTINUOUS
 10
102.0931100009
 20
71.7298712073
 40
0.5
100
AcDbArc
 50
0.0
 51
90.0
  0
ARC
  5
700
100
AcDbEntity
  8
0
100
AcDbCircle
 62
7
  6
CONTINUOUS
 10
106.0931100009
 20
74.7212198389
 40
0.5
100
AcDbArc
 50
180.0
 51
269.0
  0
ARC
  5
701
100
AcDbEntity
  8
0
100
AcDbCircle
 62
7
  6
CONTINUOUS
 10
100.7931100009
 20
66.7298712073
 40
0.5
100
AcDbArc
 50
180.0
 51
270.0
  0
ARC
  5
702
100
AcDbEntity
  8
0
100
AcDbCircle
 62
7
  6
CONTINUOUS
 10
102.0931100009
 20
66.7298712073
 40
0.5
100
AcDbArc
 50
270.0
 51
360.0
  0
ARC
  5
703
100
AcDbEntity
  8
0
100
AcDbCircle
 62
7
  6
CONTINUOUS
 10
100.7931100009
 20
71.7298712073
 40
0.5
100
AcDbArc
 50
90.0
 51
180.0
  0
ARC
  5
704
100
AcDbEntity
  8
0
100
AcDbCircle
 62
7
  6
CONTINUOUS
 10
102.0931100009
 20
71.7298712073
 40
0.5
100
AcDbArc
 50
0.0
 51
90.0
  0
ARC
  5
705
100
AcDbEntity
  8
0
100
AcDbCircle
 62
250
  6
CONTINUOUS
 10
100.8931100009
 20
70.7298712073
 40
0.3
100
AcDbArc
 50
100.2901498986
 51
180.0
  0
ARC
  5
706
100
AcDbEntity
  8
0
100
AcDbCircle
 62
250
  6
CONTINUOUS
 10
100.8931100009
 20
67.7298712073
 40
0.3
100
AcDbArc
 50
180.0
 51
259.7098467232
  0
ARC
  5
707
100
AcDbEntity
  8
ASSI
100
AcDbCircle
 62
7
  6
CONTINUOUS
 10
105.8931100009
 20
70.2246803863
 40
0.3
100
AcDbArc
 50
180.0
 51
269.0
  0
ARC
  5
708
100
AcDbEntity
  8
0
100
AcDbCircle
 62
7
  6
CONTINUOUS
 10
105.8931100009
 20
70.2246803863
 40
0.3
100
AcDbArc
 50
180.0
 51
269.0
  0
ARC
  5
709
100
AcDbEntity
  8
ASSI
100
AcDbCircle
 62
7
  6
CONTINUOUS
 10
110.3931100009
 20
69.6460564301
 40
0.2
100
AcDbArc
 50
0.0
 51
89.0
  0
ARC
  5
70A
100
AcDbEntity
  8
ASSI
100
AcDbCircle
 62
7
  6
CONTINUOUS
 10
120.7931100009
 20
68.8809665599
 40
0.2
100
AcDbArc
 50
0.0
 51
89.0
  0
ARC
  5
70B
100
AcDbEntity
  8
0
100
AcDbCircle
 62
7
  6
CONTINUOUS
 10
110.3931100009
 20
69.6460564301
 40
0.2
100
AcDbArc
 50
0.0
 51
89.0
  0
ARC
  5
70C
100
AcDbEntity
  8
0
100
AcDbCircle
 62
7
  6
CONTINUOUS
 10
120.7931100009
 20
68.8809665599
 40
0.2
100
AcDbArc
 50
0.0
 51
89.0
  0
ARC
  5
70D
100
AcDbEntity
  8
ASSI
100
AcDbCircle
 62
7
  6
CONTINUOUS
 10
99.3931100009
 20
91.9238626715
 40
1.0
100
AcDbArc
 50
91.0
 51
180.0
  0
ARC
  5
70E
100
AcDbEntity
  8
0
100
AcDbCircle
 62
7
  6
CONTINUOUS
 10
99.3931100009
 20
91.9238626715
 40
1.0
100
AcDbArc
 50
91.0
 51
180.0
  0
ARC
  5
70F
100
AcDbEntity
  8
0
100
AcDbCircle
 62
7
  6
CONTINUOUS
 10
100.8931100009
 20
85.7298712073
 40
0.5
100
AcDbArc
 50
180.0
 51
270.0
  0
ARC
  5
710
100
AcDbEntity
  8
0
100
AcDbCircle
 62
7
  6
CONTINUOUS
 10
100.8931100009
 20
88.7298712073
 40
0.5
100
AcDbArc
 50
90.0
 51
180.0
  0
ARC
  5
711
100
AcDbEntity
  8
ASSI
100
AcDbCircle
 62
7
  6
CONTINUOUS
 10
100.7931100009
 20
89.7298712073
 40
0.5
100
AcDbArc
 50
90.0
 51
180.0
  0
ARC
  5
712
100
AcDbEntity
  8
ASSI
100
AcDbCircle
 62
7
  6
CONTINUOUS
 10
102.0931100009
 20
89.7298712073
 40
0.5
100
AcDbArc
 50
0.0
 51
90.0
  0
ARC
  5
713
100
AcDbEntity
  8
ASSI
100
AcDbCircle
 62
7
  6
CONTINUOUS
 10
102.0931100009
 20
84.7298712073
 40
0.5
100
AcDbArc
 50
270.0
 51
360.0
  0
ARC
  5
714
100
AcDbEntity
  8
ASSI
100
AcDbCircle
 62
7
  6
CONTINUOUS
 10
100.7931100009
 20
84.7298712073
 40
0.5
100
AcDbArc
 50
180.0
 51
270.0
  0
ARC
  5
715
100
AcDbEntity
  8
0
100
AcDbCircle
 62
7
  6
CONTINUOUS
 10
100.7931100009
 20
89.7298712073
 40
0.5
100
AcDbArc
 50
90.0
 51
180.0
  0
ARC
  5
716
100
AcDbEntity
  8
0
100
AcDbCircle
 62
7
  6
CONTINUOUS
 10
102.0931100009
 20
89.7298712073
 40
0.5
100
AcDbArc
 50
0.0
 51
90.0
  0
ARC
  5
717
100
AcDbEntity
  8
0
100
AcDbCircle
 62
7
  6
CONTINUOUS
 10
102.0931100009
 20
84.7298712073
 40
0.5
100
AcDbArc
 50
270.0
 51
360.0
  0
ARC
  5
718
100
AcDbEntity
  8
0
100
AcDbCircle
 62
7
  6
CONTINUOUS
 10
100.7931100009
 20
84.7298712073
 40
0.5
100
AcDbArc
 50
180.0
 51
270.0
  0
ARC
  5
719
100
AcDbEntity
  8
0
100
AcDbCircle
 62
250
  6
CONTINUOUS
 10
100.8931100009
 20
88.7298712073
 40
0.3
100
AcDbArc
 50
100.2901498986
 51
180.0
  0
ARC
  5
71A
100
AcDbEntity
  8
0
100
AcDbCircle
 62
250
  6
CONTINUOUS
 10
100.8931100009
 20
85.7298712073
 40
0.3
100
AcDbArc
 50
180.0
 51
259.7098467232
  0
ARC
  5
71B
100
AcDbEntity
  8
RACCORDO
100
AcDbCircle
 62
7
  6
CONTINUOUS
 10
84.6728839186
 20
98.7385314722
 40
1.5
100
AcDbArc
 50
84.5
 51
170.1004698968
  0
ARC
  5
71C
100
AcDbEntity
  8
0
100
AcDbCircle
 62
7
  6
CONTINUOUS
 10
99.2931100009
 20
92.2298712073
 40
1.0
100
AcDbArc
 50
90.0
 51
180.0
  0
ARC
  5
71D
100
AcDbEntity
  8
26814000
100
AcDbCircle
 62
7
  6
CONTINUOUS
 10
102.2931100009
 20
99.542564451
 40
1.0
100
AcDbArc
 50
0.0
 51
89.5
  0
ARC
  5
71E
100
AcDbEntity
  8
26814000
100
AcDbCircle
 62
7
  6
CONTINUOUS
 10
90.0431100009
 20
102.0742087746
 40
0.25
100
AcDbArc
 50
180.0
 51
240.0
  0
ARC
  5
71F
100
AcDbEntity
  8
26814000
100
AcDbCircle
 62
7
  6
CONTINUOUS
 10
90.0431100009
 20
102.3667768594
 40
0.25
100
AcDbArc
 50
90.3333333333
 51
180.0
  0
ARC
  5
720
100
AcDbEntity
  8
26814000
100
AcDbCircle
 62
7
  6
CONTINUOUS
 10
93.0431100009
 20
102.3755036041
 40
0.25
100
AcDbArc
 50
0.0
 51
89.6666666667
  0
ARC
  5
721
100
AcDbEntity
  8
26814000
100
AcDbCircle
 62
7
  6
CONTINUOUS
 10
93.0431100009
 20
102.0742087746
 40
0.25
100
AcDbArc
 50
300.0
 51
360.0
  0
ARC
  5
722
100
AcDbEntity
  8
26814000
100
AcDbCircle
 62
7
  6
CONTINUOUS
 10
92.5431100009
 20
101.2081833708
 40
0.25
100
AcDbArc
 50
120.0
 51
180.0
  0
ARC
  5
723
100
AcDbEntity
  8
ASSI
100
AcDbCircle
 62
7
  6
CONTINUOUS
 10
117.1931100009
 20
83.2324718229
 40
0.8
100
AcDbArc
 50
271.0
 51
360.0
  0
ARC
  5
724
100
AcDbEntity
  8
0
100
AcDbCircle
 62
7
  6
CONTINUOUS
 10
117.1931100009
 20
83.2324718229
 40
0.8
100
AcDbArc
 50
271.0
 51
360.0
  0
ARC
  5
725
100
AcDbEntity
  8
ASSI
100
AcDbCircle
 62
7
  6
CONTINUOUS
 10
106.0931100009
 20
81.7385225758
 40
0.5
100
AcDbArc
 50
91.0
 51
180.0
  0
ARC
  5
726
100
AcDbEntity
  8
0
100
AcDbCircle
 62
7
  6
CONTINUOUS
 10
106.0931100009
 20
81.7385225758
 40
0.5
100
AcDbArc
 50
91.0
 51
180.0
  0
ARC
  5
727
100
AcDbEntity
  8
ASSI
100
AcDbCircle
 62
7
  6
CONTINUOUS
 10
120.7931100009
 20
87.5787758547
 40
0.2
100
AcDbArc
 50
271.0
 51
360.0
  0
ARC
  5
728
100
AcDbEntity
  8
0
100
AcDbCircle
 62
7
  6
CONTINUOUS
 10
120.7931100009
 20
87.5787758547
 40
0.2
100
AcDbArc
 50
271.0
 51
360.0
  0
ARC
  5
729
100
AcDbEntity
  8
ASSI
100
AcDbCircle
 62
7
  6
CONTINUOUS
 10
106.7931100009
 20
99.656529469
 40
0.2
100
AcDbArc
 50
0.0
 51
89.0
  0
ARC
  5
72A
100
AcDbEntity
  8
0
100
AcDbCircle
 62
7
  6
CONTINUOUS
 10
106.7931100009
 20
99.656529469
 40
0.2
100
AcDbArc
 50
0.0
 51
89.0
  0
ARC
  5
72B
100
AcDbEntity
  8
ASSI
100
AcDbCircle
 62
7
  6
CONTINUOUS
 10
117.6931100009
 20
92.2001518985
 40
0.3
100
AcDbArc
 50
0.0
 51
89.0008638548
  0
ARC
  5
72C
100
AcDbEntity
  8
0
100
AcDbCircle
 62
7
  6
CONTINUOUS
 10
117.6931100009
 20
92.2001518985
 40
0.3
100
AcDbArc
 50
0.0
 51
89.0008638548
  0
ARC
  5
72D
100
AcDbEntity
  8
ASSI
100
AcDbCircle
 62
7
  6
CONTINUOUS
 10
120.7931100009
 20
93.0809665599
 40
0.2
100
AcDbArc
 50
0.0
 51
89.0
  0
ARC
  5
72E
100
AcDbEntity
  8
0
100
AcDbCircle
 62
7
  6
CONTINUOUS
 10
120.7931100009
 20
93.0809665599
 40
0.2
100
AcDbArc
 50
0.0
 51
89.0
  0
ARC
  5
72F
100
AcDbEntity
  8
ASSI
100
AcDbCircle
 62
7
  6
CONTINUOUS
 10
115.6931100009
 20
98.6779209695
 40
0.3
100
AcDbArc
 50
0.0
 51
80.049373312
  0
ARC
  5
730
100
AcDbEntity
  8
0
100
AcDbCircle
 62
7
  6
CONTINUOUS
 10
115.6931100009
 20
98.6779209695
 40
0.3
100
AcDbArc
 50
0.0
 51
80.049373312
  0
ARC
  5
731
100
AcDbEntity
  8
RACCORDO
100
AcDbCircle
 62
7
  6
CONTINUOUS
 10
119.0231190701
 20
97.4298712073
 40
0.8
100
AcDbArc
 50
270.0
 51
280.0
  0
ARC
  5
732
100
AcDbEntity
  8
RACCORDO
100
AcDbCircle
 62
7
  6
CONTINUOUS
 10
120.2931100009
 20
97.6538048737
 40
0.8
100
AcDbArc
 50
280.0
 51
360.0
  0
ARC
  5
733
100
AcDbEntity
  8
RACCORDO
100
AcDbCircle
 62
250
  6
CONTINUOUS
 10
120.2931100009
 20
97.6538048737
 40
0.55
100
AcDbArc
 50
280.0
 51
357.5059432248
  0
ARC
  5
734
100
AcDbEntity
  8
RACCORDO
100
AcDbCircle
 62
250
  6
CONTINUOUS
 10
119.0231190701
 20
97.4298712073
 40
0.55
100
AcDbArc
 50
270.0
 51
280.0
  0
ARC
  5
735
100
AcDbEntity
  8
RACCORDO
100
AcDbCircle
 62
7
  6
CONTINUOUS
 10
120.5931100009
 20
97.8298712073
 40
0.5
100
AcDbArc
 50
0.0
 51
90.0
  0
ARC
  5
736
100
AcDbEntity
  8
RACCORDO
100
AcDbCircle
 62
7
  6
CONTINUOUS
 10
378.7284386607
 20
47.4201066592
 40
300.0
100
AcDbArc
 50
170.1004698968
 51
177.8995301032
  0
ELLIPSE
  5
737
100
AcDbEntity
  8
0
100
AcDbEllipse
 62
7
  6
CONTINUOUS
 10
154.5912776278
 20
84.7298712073
 30
0.0
 11
0.0
 21
0.5
 31
0.0
 40
0.0174550649
 41
1.5707963268
 42
3.1415926536
  0
ELLIPSE
  5
738
100
AcDbEntity
  8
0
100
AcDbEllipse
 62
7
  6
CONTINUOUS
 10
154.5912776278
 20
66.7298712073
 30
0.0
 11
0.0
 21
0.5
 31
0.0
 40
0.0174550649
 41
1.5707963268
 42
3.1415926536
  0
ELLIPSE
  5
739
100
AcDbEntity
  8
0
100
AcDbEllipse
 62
7
  6
CONTINUOUS
 10
154.5912776278
 20
89.7298712073
 30
0.0
 11
0.0
 21
0.5
 31
0.0
 40
0.0174550649
 41
0.0
 42
1.5707963268
  0
ELLIPSE
  5
73A
100
AcDbEntity
  8
0
100
AcDbEllipse
 62
7
  6
CONTINUOUS
 10
154.5912776278
 20
71.7298712073
 30
0.0
 11
-0.0
 21
0.5
 31
0.0
 40
0.0174550649
 41
0.0
 42
1.5707963268
  0
ELLIPSE
  5
73B
100
AcDbEntity
  8
0
100
AcDbEllipse
 62
7
  6
CONTINUOUS
 10
131.9541158615
 20
89.7298712073
 30
0.0
 11
0.0
 21
0.5
 31
0.0
 40
0.0174550649
 41
-1.5707963268
 42
0.0
  0
ELLIPSE
  5
73C
100
AcDbEntity
  8
0
100
AcDbEllipse
 62
7
  6
CONTINUOUS
 10
131.9541158615
 20
84.7298712073
 30
0.0
 11
-0.0
 21
0.5
 31
0.0
 40
0.0174550649
 41
-3.1415926536
 42
-1.5707963268
  0
ELLIPSE
  5
73D
100
AcDbEntity
  8
0
100
AcDbEllipse
 62
7
  6
CONTINUOUS
 10
131.9541158615
 20
66.7298712073
 30
0.0
 11
-0.0
 21
0.5
 31
0.0
 40
0.0174550649
 41
-3.1415926536
 42
-1.5707963268
  0
ELLIPSE
  5
73E
100
AcDbEntity
  8
0
100
AcDbEllipse
 62
7
  6
CONTINUOUS
 10
131.9541158615
 20
71.7298712073
 30
0.0
 11
0.0
 21
0.5
 31
0.0
 40
0.0174550649
 41
-1.5707963268
 42
0.0
  0
ELLIPSE
  5
73F
100
AcDbEntity
  8
0
100
AcDbEllipse
 62
7
  6
CONTINUOUS
 10
154.6139692122
 20
84.7298712073
 30
0.0
 11
-0.0
 21
0.5
 31
0.0
 40
0.0174550649
 41
-3.1415926536
 42
-1.5707963268
  0
ELLIPSE
  5
740
100
AcDbEntity
  8
0
100
AcDbEllipse
 62
7
  6
CONTINUOUS
 10
154.6139692122
 20
66.7298712073
 30
0.0
 11
-0.0
 21
0.5
 31
0.0
 40
0.0174550649
 41
-3.1415926536
 42
-1.5707963268
  0
ELLIPSE
  5
741
100
AcDbEntity
  8
0
100
AcDbEllipse
 62
7
  6
CONTINUOUS
 10
154.5668405369
 20
64.5358797431
 30
0.0
 11
-0.0
 21
1.0
 31
0.0
 40
0.0174550649
 41
-4.7123889804
 42
-3.1590459461
  0
ELLIPSE
  5
742
100
AcDbEntity
  8
0
100
AcDbEllipse
 62
7
  6
CONTINUOUS
 10
154.5668405369
 20
91.9238626715
 30
0.0
 11
0.0
 21
1.0
 31
0.0
 40
0.0174550649
 41
0.0174532925
 42
1.5707963268
  0
ELLIPSE
  5
743
100
AcDbEntity
  8
0
100
AcDbEllipse
 62
7
  6
CONTINUOUS
 10
154.6139692122
 20
71.7298712073
 30
0.0
 11
0.0
 21
0.5
 31
0.0
 40
0.0174550649
 41
-1.5707963268
 42
-0.0
  0
ELLIPSE
  5
744
100
AcDbEntity
  8
0
100
AcDbEllipse
 62
7
  6
CONTINUOUS
 10
131.9785529524
 20
91.9238626715
 30
0.0
 11
-0.0
 21
1.0
 31
0.0
 40
0.0174550649
 41
-1.5707963268
 42
-0.0174532925
  0
ELLIPSE
  5
745
100
AcDbEntity
  8
0
100
AcDbEllipse
 62
7
  6
CONTINUOUS
 10
131.9785529524
 20
64.5358797431
 30
0.0
 11
0.0
 21
1.0
 31
0.0
 40
0.0174550649
 41
-3.1241393611
 42
-1.5707963268
  0
ELLIPSE
  5
746
100
AcDbEntity
  8
0
100
AcDbEllipse
 62
7
  6
CONTINUOUS
 10
131.9314242771
 20
89.7298712073
 30
0.0
 11
-0.0
 21
0.5
 31
0.0
 40
0.0174550649
 41
-0.0
 42
1.5707963268
  0
ELLIPSE
  5
747
100
AcDbEntity
  8
0
100
AcDbEllipse
 62
7
  6
CONTINUOUS
 10
154.6139692122
 20
89.7298712073
 30
0.0
 11
0.0
 21
0.5
 31
0.0
 40
0.0174550649
 41
-1.5707963268
 42
-0.0
  0
ELLIPSE
  5
748
100
AcDbEntity
  8
0
100
AcDbEllipse
 62
7
  6
CONTINUOUS
 10
131.9314242771
 20
84.7298712073
 30
0.0
 11
-0.0
 21
0.5
 31
0.0
 40
0.0174550649
 41
-4.7123889804
 42
-3.1415926536
  0
ELLIPSE
  5
749
100
AcDbEntity
  8
0
100
AcDbEllipse
 62
7
  6
CONTINUOUS
 10
131.9314242771
 20
66.7298712073
 30
0.0
 11
0.0
 21
0.5
 31
0.0
 40
0.0174550649
 41
-4.7123889804
 42
-3.1415926536
  0
ELLIPSE
  5
74A
100
AcDbEntity
  8
0
100
AcDbEllipse
 62
7
  6
CONTINUOUS
 10
131.9314242771
 20
71.7298712073
 30
0.0
 11
0.0
 21
0.5
 31
0.0
 40
0.0174550649
 41
-0.0
 42
1.5707963268
  0
ELLIPSE
  5
74B
100
AcDbEntity
  8
ASSI
100
AcDbEllipse
 62
7
  6
CONTINUOUS
 10
154.5912776278
 20
84.7298712073
 30
0.0
 11
0.0
 21
0.5
 31
0.0
 40
0.0174550649
 41
1.5707963268
 42
3.1415926536
  0
ELLIPSE
  5
74C
100
AcDbEntity
  8
ASSI
100
AcDbEllipse
 62
7
  6
CONTINUOUS
 10
154.5912776278
 20
66.7298712073
 30
0.0
 11
0.0
 21
0.5
 31
0.0
 40
0.0174550649
 41
1.5707963268
 42
3.1415926536
  0
ELLIPSE
  5
74D
100
AcDbEntity
  8
ASSI
100
AcDbEllipse
 62
7
  6
CONTINUOUS
 10
154.5912776278
 20
89.7298712073
 30
0.0
 11
0.0
 21
0.5
 31
0.0
 40
0.0174550649
 41
0.0
 42
1.5707963268
  0
ELLIPSE
  5
74E
100
AcDbEntity
  8
ASSI
100
AcDbEllipse
 62
7
  6
CONTINUOUS
 10
154.5912776278
 20
71.7298712073
 30
0.0
 11
-0.0
 21
0.5
 31
0.0
 40
0.0174550649
 41
0.0
 42
1.5707963268
  0
ELLIPSE
  5
74F
100
AcDbEntity
  8
ASSI
100
AcDbEllipse
 62
7
  6
CONTINUOUS
 10
131.9541158615
 20
89.7298712073
 30
0.0
 11
0.0
 21
0.5
 31
0.0
 40
0.0174550649
 41
-1.5707963268
 42
0.0
  0
ELLIPSE
  5
750
100
AcDbEntity
  8
ASSI
100
AcDbEllipse
 62
7
  6
CONTINUOUS
 10
131.9541158615
 20
84.7298712073
 30
0.0
 11
-0.0
 21
0.5
 31
0.0
 40
0.0174550649
 41
-3.1415926536
 42
-1.5707963268
  0
ELLIPSE
  5
751
100
AcDbEntity
  8
ASSI
100
AcDbEllipse
 62
7
  6
CONTINUOUS
 10
131.9541158615
 20
66.7298712073
 30
0.0
 11
-0.0
 21
0.5
 31
0.0
 40
0.0174550649
 41
-3.1415926536
 42
-1.5707963268
  0
ELLIPSE
  5
752
100
AcDbEntity
  8
ASSI
100
AcDbEllipse
 62
7
  6
CONTINUOUS
 10
131.9541158615
 20
71.7298712073
 30
0.0
 11
0.0
 21
0.5
 31
0.0
 40
0.0174550649
 41
-1.5707963268
 42
0.0
  0
ELLIPSE
  5
753
100
AcDbEntity
  8
ASSI
100
AcDbEllipse
 62
7
  6
CONTINUOUS
 10
154.6139692122
 20
89.7298712073
 30
0.0
 11
0.0
 21
0.5
 31
0.0
 40
0.0174550649
 41
-1.5707963268
 42
-0.0
  0
ELLIPSE
  5
754
100
AcDbEntity
  8
ASSI
100
AcDbEllipse
 62
7
  6
CONTINUOUS
 10
154.6139692122
 20
71.7298712073
 30
0.0
 11
0.0
 21
0.5
 31
0.0
 40
0.0174550649
 41
-1.5707963268
 42
-0.0
  0
ELLIPSE
  5
755
100
AcDbEntity
  8
ASSI
100
AcDbEllipse
 62
7
  6
CONTINUOUS
 10
154.5668405369
 20
64.5358797431
 30
0.0
 11
-0.0
 21
1.0
 31
0.0
 40
0.0174550649
 41
-4.7123889804
 42
-3.1590459461
  0
ELLIPSE
  5
756
100
AcDbEntity
  8
ASSI
100
AcDbEllipse
 62
7
  6
CONTINUOUS
 10
154.5668405369
 20
91.9238626715
 30
0.0
 11
0.0
 21
1.0
 31
0.0
 40
0.0174550649
 41
0.0174532925
 42
1.5707963268
  0
ELLIPSE
  5
757
100
AcDbEntity
  8
ASSI
100
AcDbEllipse
 62
7
  6
CONTINUOUS
 10
131.9785529524
 20
91.9238626715
 30
0.0
 11
-0.0
 21
1.0
 31
0.0
 40
0.0174550649
 41
-1.5707963268
 42
-0.0174532925
  0
ELLIPSE
  5
758
100
AcDbEntity
  8
ASSI
100
AcDbEllipse
 62
7
  6
CONTINUOUS
 10
131.9785529524
 20
64.5358797431
 30
0.0
 11
0.0
 21
1.0
 31
0.0
 40
0.0174550649
 41
-3.1241393611
 42
-1.5707963268
  0
ELLIPSE
  5
759
100
AcDbEntity
  8
ASSI
100
AcDbEllipse
 62
7
  6
CONTINUOUS
 10
154.6139692122
 20
84.7298712073
 30
0.0
 11
-0.0
 21
0.5
 31
0.0
 40
0.0174550649
 41
-3.1415926536
 42
-1.5707963268
  0
ELLIPSE
  5
75A
100
AcDbEntity
  8
ASSI
100
AcDbEllipse
 62
7
  6
CONTINUOUS
 10
154.6139692122
 20
66.7298712073
 30
0.0
 11
-0.0
 21
0.5
 31
0.0
 40
0.0174550649
 41
-3.1415926536
 42
-1.5707963268
  0
ELLIPSE
  5
75B
100
AcDbEntity
  8
ASSI
100
AcDbEllipse
 62
7
  6
CONTINUOUS
 10
131.9314242771
 20
89.7298712073
 30
0.0
 11
-0.0
 21
0.5
 31
0.0
 40
0.0174550649
 41
-0.0
 42
1.5707963268
  0
ELLIPSE
  5
75C
100
AcDbEntity
  8
ASSI
100
AcDbEllipse
 62
7
  6
CONTINUOUS
 10
131.9314242771
 20
84.7298712073
 30
0.0
 11
-0.0
 21
0.5
 31
0.0
 40
0.0174550649
 41
-4.7123889804
 42
-3.1415926536
  0
ELLIPSE
  5
75D
100
AcDbEntity
  8
ASSI
100
AcDbEllipse
 62
7
  6
CONTINUOUS
 10
131.9314242771
 20
66.7298712073
 30
0.0
 11
0.0
 21
0.5
 31
0.0
 40
0.0174550649
 41
-4.7123889804
 42
-3.1415926536
  0
ELLIPSE
  5
75E
100
AcDbEntity
  8
ASSI
100
AcDbEllipse
 62
7
  6
CONTINUOUS
 10
131.9314242771
 20
71.7298712073
 30
0.0
 11
0.0
 21
0.5
 31
0.0
 40
0.0174550649
 41
-0.0
 42
1.5707963268
  0
ELLIPSE
  5
75F
100
AcDbEntity
  8
RACCORDO
100
AcDbEllipse
 62
7
  6
CONTINUOUS
 10
153.5724225106
 20
98.8875263813
 30
0.0
 11
0.8001209013
 21
0.0157561768
 31
0.0
 40
0.9942144819
 41
-0.0195758142
 42
0.2455426236
  0
ELLIPSE
  5
760
100
AcDbEntity
  8
RACCORDO
100
AcDbEllipse
 62
7
  6
CONTINUOUS
 10
132.9729709786
 20
98.8875263813
 30
0.0
 11
0.8001209013
 21
-0.0157561768
 31
0.0
 40
0.9942144819
 41
2.8960500829
 42
3.1611684678
  0
ELLIPSE
  5
761
100
AcDbEntity
  8
RACCORDO
100
AcDbEllipse
 62
7
  6
CONTINUOUS
 10
132.9729709786
 20
57.018215178
 30
0.0
 11
0.8001209013
 21
0.0157561768
 31
0.0
 40
0.9942144819
 41
3.1220168394
 42
4.6925847321
  0
ELLIPSE
  5
762
100
AcDbEntity
  8
RACCORDO
100
AcDbEllipse
 62
7
  6
CONTINUOUS
 10
153.5724225106
 20
57.018215178
 30
0.0
 11
0.8001209013
 21
-0.0157561768
 31
0.0
 40
0.9942144819
 41
-1.5509920785
 42
0.0195758142
  0
ELLIPSE
  5
763
100
AcDbEntity
  8
26814000
100
AcDbEllipse
 62
7
  6
CONTINUOUS
 10
132.4726967446
 20
56.2017017042
 30
0.0
 11
0.0
 21
0.3500133274
 31
0.0
 40
0.9999619231
 41
7.853981634
 42
9.4247779608
  0
ELLIPSE
  5
764
100
AcDbEntity
  8
26814000
100
AcDbEllipse
 62
7
  6
CONTINUOUS
 10
154.0726967446
 20
100.2580407104
 30
0.0
 11
-0.0
 21
-0.3500133274
 31
0.0
 40
0.9999619231
 41
7.853981634
 42
9.4247779608
  0
ELLIPSE
  5
765
100
AcDbEntity
  8
26814000
100
AcDbEllipse
 62
7
  6
CONTINUOUS
 10
132.4726967446
 20
100.2580407104
 30
0.0
 11
0.0
 21
0.3500133274
 31
0.0
 40
0.9999619231
 41
-0.0
 42
1.5707963268
  0
ELLIPSE
  5
766
100
AcDbEntity
  8
26814000
100
AcDbEllipse
 62
7
  6
CONTINUOUS
 10
154.0726967446
 20
56.2017017042
 30
0.0
 11
-0.0
 21
-0.3500133274
 31
0.0
 40
0.9999619231
 41
-0.0
 42
1.5707963268
  0
ELLIPSE
  5
767
100
AcDbEntity
  8
26814000
100
AcDbEllipse
 62
7
  6
CONTINUOUS
 10
153.8596066276
 20
54.38553364
 30
0.0
 11
-0.0
 21
0.25
 31
0.0
 40
0.0058178298
 41
0.5235987756
 42
1.5707963268
  0
ELLIPSE
  5
768
100
AcDbEntity
  8
26814000
100
AcDbEllipse
 62
7
  6
CONTINUOUS
 10
151.5857868617
 20
54.38553364
 30
0.0
 11
0.0
 21
0.25
 31
0.0
 40
0.0058178298
 41
-1.5707963268
 42
-0.5235987756
  0
ELLIPSE
  5
769
100
AcDbEntity
  8
26814000
100
AcDbEllipse
 62
7
  6
CONTINUOUS
 10
151.5857868617
 20
54.0929655553
 30
0.0
 11
0.0
 21
0.25
 31
0.0
 40
0.0058178298
 41
-3.1357748894
 42
-1.5707963268
  0
ELLIPSE
  5
76A
100
AcDbEntity
  8
26814000
100
AcDbEllipse
 62
7
  6
CONTINUOUS
 10
153.8596066276
 20
54.0929655553
 30
0.0
 11
0.0
 21
0.25
 31
0.0
 40
0.0058178298
 41
-4.7123889804
 42
-3.1474104178
  0
ELLIPSE
  5
76B
100
AcDbEntity
  8
26814000
100
AcDbEllipse
 62
7
  6
CONTINUOUS
 10
134.9596066276
 20
54.38553364
 30
0.0
 11
-0.0
 21
0.25
 31
0.0
 40
0.0058178298
 41
0.5235987756
 42
1.5707963268
  0
ELLIPSE
  5
76C
100
AcDbEntity
  8
26814000
100
AcDbEllipse
 62
7
  6
CONTINUOUS
 10
132.6857868617
 20
54.38553364
 30
0.0
 11
0.0
 21
0.25
 31
0.0
 40
0.0058178298
 41
-1.5707963268
 42
-0.5235987756
  0
ELLIPSE
  5
76D
100
AcDbEntity
  8
26814000
100
AcDbEllipse
 62
7
  6
CONTINUOUS
 10
132.6857868617
 20
54.0929655553
 30
0.0
 11
0.0
 21
0.25
 31
0.0
 40
0.0058178298
 41
-3.1357748894
 42
-1.5707963268
  0
ELLIPSE
  5
76E
100
AcDbEntity
  8
26814000
100
AcDbEllipse
 62
7
  6
CONTINUOUS
 10
134.9596066276
 20
54.0929655553
 30
0.0
 11
0.0
 21
0.25
 31
0.0
 40
0.0058178298
 41
-4.7123889804
 42
-3.1474104178
  0
ELLIPSE
  5
76F
100
AcDbEntity
  8
26814000
100
AcDbEllipse
 62
7
  6
CONTINUOUS
 10
132.6857868617
 20
102.0742087746
 30
0.0
 11
0.0
 21
0.25
 31
0.0
 40
0.0058178298
 41
-2.617993878
 42
-1.5707963268
  0
ELLIPSE
  5
770
100
AcDbEntity
  8
26814000
100
AcDbEllipse
 62
7
  6
CONTINUOUS
 10
134.9596066276
 20
102.0742087746
 30
0.0
 11
-0.0
 21
0.25
 31
0.0
 40
0.0058178298
 41
-4.7123889804
 42
-3.6651914292
  0
ELLIPSE
  5
771
100
AcDbEntity
  8
26814000
100
AcDbEllipse
 62
7
  6
CONTINUOUS
 10
134.9596066276
 20
102.3667768594
 30
0.0
 11
-0.0
 21
0.25
 31
0.0
 40
0.0058178298
 41
0.0058177642
 42
1.5707963268
  0
ELLIPSE
  5
772
100
AcDbEntity
  8
26814000
100
AcDbEllipse
 62
7
  6
CONTINUOUS
 10
132.6857868617
 20
102.3667768594
 30
0.0
 11
0.0
 21
0.25
 31
0.0
 40
0.0058178298
 41
-1.5707963268
 42
-0.0058177642
  0
ELLIPSE
  5
773
100
AcDbEntity
  8
26814000
100
AcDbEllipse
 62
7
  6
CONTINUOUS
 10
151.5857868617
 20
102.0742087746
 30
0.0
 11
0.0
 21
0.25
 31
0.0
 40
0.0058178298
 41
-2.617993878
 42
-1.5707963268
  0
ELLIPSE
  5
774
100
AcDbEntity
  8
26814000
100
AcDbEllipse
 62
7
  6
CONTINUOUS
 10
153.8596066276
 20
102.0742087746
 30
0.0
 11
0.0
 21
0.25
 31
0.0
 40
0.0058178298
 41
-4.7123889804
 42
-3.6651914292
  0
ELLIPSE
  5
775
100
AcDbEntity
  8
26814000
100
AcDbEllipse
 62
7
  6
CONTINUOUS
 10
153.8596066276
 20
102.3667768594
 30
0.0
 11
-0.0
 21
0.25
 31
0.0
 40
0.0058178298
 41
0.0058177642
 42
1.5707963268
  0
ELLIPSE
  5
776
100
AcDbEntity
  8
26814000
100
AcDbEllipse
 62
7
  6
CONTINUOUS
 10
151.5857868617
 20
102.3667768594
 30
0.0
 11
0.0
 21
0.25
 31
0.0
 40
0.0058178298
 41
-1.5707963268
 42
-0.0058177642
  0
ELLIPSE
  5
777
100
AcDbEntity
  8
26814000
100
AcDbEllipse
 62
7
  6
CONTINUOUS
 10
139.1767743025
 20
55.8359800148
 30
0.0
 11
0.3
 21
-0.0
 31
0.0
 40
0.0087268678
 41
1.5707963268
 42
3.1357748894
  0
ELLIPSE
  5
778
100
AcDbEntity
  8
26814000
100
AcDbEllipse
 62
7
  6
CONTINUOUS
 10
139.1767743025
 20
54.4339436882
 30
0.0
 11
0.3
 21
-0.0
 31
0.0
 40
0.0058178298
 41
1.5707963268
 42
3.1357748894
  0
ELLIPSE
  5
779
100
AcDbEntity
  8
26814000
100
AcDbEllipse
 62
7
  6
CONTINUOUS
 10
147.3686191867
 20
54.4339436882
 30
0.0
 11
0.3
 21
-0.0
 31
0.0
 40
0.0058178298
 41
0.0058177642
 42
1.5707963268
  0
ELLIPSE
  5
77A
100
AcDbEntity
  8
26814000
100
AcDbEllipse
 62
7
  6
CONTINUOUS
 10
147.3686191867
 20
55.8359800148
 30
0.0
 11
0.3
 21
0.0
 31
0.0
 40
0.0087268678
 41
0.0058177642
 42
1.5707963268
  0
ELLIPSE
  5
77B
100
AcDbEntity
  8
26814000
100
AcDbEllipse
 62
7
  6
CONTINUOUS
 10
139.1767743025
 20
102.0257987265
 30
0.0
 11
0.3
 21
0.0
 31
0.0
 40
0.0058178298
 41
-3.1357748894
 42
-1.5707963268
  0
ELLIPSE
  5
77C
100
AcDbEntity
  8
26814000
100
AcDbEllipse
 62
7
  6
CONTINUOUS
 10
139.1767743025
 20
100.6237623999
 30
0.0
 11
0.3
 21
0.0
 31
0.0
 40
0.0087268678
 41
-3.1357748894
 42
-1.5707963268
  0
ELLIPSE
  5
77D
100
AcDbEntity
  8
26814000
100
AcDbEllipse
 62
7
  6
CONTINUOUS
 10
147.3686191867
 20
100.6237623999
 30
0.0
 11
0.3
 21
0.0
 31
0.0
 40
0.0087268678
 41
-1.5707963268
 42
-0.0058177642
  0
ELLIPSE
  5
77E
100
AcDbEntity
  8
26814000
100
AcDbEllipse
 62
7
  6
CONTINUOUS
 10
147.3686191867
 20
102.0257987265
 30
0.0
 11
0.3
 21
0.0
 31
0.0
 40
0.0058178298
 41
-1.5707963268
 42
-0.0058177642
  0
ELLIPSE
  5
77F
100
AcDbEntity
  8
0
100
AcDbEllipse
 62
7
  6
CONTINUOUS
 10
102.0519557277
 20
85.4298712073
 30
0.0
 11
0.4
 21
-0.0
 31
0.0
 40
0.5
 41
-1.5707963268
 42
-0.0
  0
ELLIPSE
  5
780
100
AcDbEntity
  8
0
100
AcDbEllipse
 62
7
  6
CONTINUOUS
 10
102.0519557277
 20
89.0298712073
 30
0.0
 11
0.4
 21
0.0
 31
0.0
 40
0.5
 41
0.0
 42
1.5707963268
  0
ELLIPSE
  5
781
100
AcDbEntity
  8
0
100
AcDbEllipse
 62
7
  6
CONTINUOUS
 10
102.0519557277
 20
67.4298712073
 30
0.0
 11
0.4
 21
-0.0
 31
0.0
 40
0.5
 41
-1.5707963268
 42
0.0
  0
ELLIPSE
  5
782
100
AcDbEntity
  8
0
100
AcDbEllipse
 62
7
  6
CONTINUOUS
 10
102.0519557277
 20
71.0298712073
 30
0.0
 11
0.4
 21
0.0
 31
0.0
 40
0.5
 41
0.0
 42
1.5707963268
  0
ENDSEC
  0
SECTION
  2
OBJECTS
  0
DICTIONARY
  5
C
100
AcDbDictionary
280
0
281
1
  3
ACAD_GROUP
350
D
  3
ACAD_MLINESTYLE
350
17
  3
ACAD_LAYOUT
350
1A
  3
ACAD_PLOTSETTINGS
350
19
  3
ACAD_PLOTSTYLENAME
350
E
  0
DICTIONARY
  5
D
102
{ACAD_REACTORS
330
C
102
}
100
AcDbDictionary
280
0
281
1
  0
ACDBDICTIONARYWDFLT
  5
E
102
{ACAD_REACTORS
330
C
102
}
100
AcDbDictionary
281
1
  3
Normal
350
F
100
AcDbDictionaryWithDefault
340
F
  0
DICTIONARY
  5
17
102
{ACAD_REACTORS
330
C
102
}
100
AcDbDictionary
280
0
281
1
  3
Standard
350
18
  0
DICTIONARY
  5
19
102
{ACAD_REACTORS
330
C
102
}
100
AcDbDictionary
281
1
  0
DICTIONARY
  5
1A
102
{ACAD_REACTORS
330
C
102
}
100
AcDbDictionary
281
1
  3
Model
350
783
  3
Layout1
350
784
  0
ACDBPLACEHOLDER
  5
F
102
{ACAD_REACTORS
330
E
102
}
  0
MLINESTYLE
  5
18
102
{ACAD_REACTORS
330
17
102
}
100
AcDbMlineStyle
  2
STANDARD
 70
0
  3

 62
256
 51
90.0
 52
90.0
 71
2
 49
0.5
 62
256
  6
BYLAYER
 49
-0.5
 62
256
  6
BYLAYER
  0
LAYOUT
  5
783
102
{ACAD_REACTORS
330
1A
102
}
100
AcDbPlotSettings
  1

  2
none_device
  4
ISO_A4_(297.00_x_210.00_MM)
  6

 40
0.0
 41
0.0
 42
0.0
 43
0.0
 44
297.0
 45
210.0
 46
0.0
 47
0.0
 48
0.0
 49
0.0
140
0.0
141
0.0
142
1.0
143
1.0
 70
1024
 72
1
 73
0
 74
0
  7

 75
0
147
1.0
148
0.0
149
0.0
100
AcDbLayout
  1
Model
 70
0
 71
0
 10
0.0
 20
0.0
 11
297.0
 21
210.0
 12
0.0
 22
0.0
 32
0.0
 14
0.0
 24
0.0
 34
0.0
 15
0.0
 25
0.0
 35
0.0
146
0.0
 13
0.0
 23
0.0
 33
0.0
 16
1.0
 26
0.0
 36
0.0
 17
0.0
 27
1.0
 37
0.0
 76
0
330
228
345
0
346
0
  0
LAYOUT
  5
784
102
{ACAD_REACTORS
330
1A
102
}
100
AcDbPlotSettings
  1

  2
none_device
  4
ISO_A4_(297.00_x_210.00_MM)
  6

 40
0.0
 41
0.0
 42
0.0
 43
0.0
 44
297.0
 45
210.0
 46
0.0
 47
0.0
 48
0.0
 49
0.0
140
0.0
141
0.0
142
1.0
143
1.0
 70
0
 72
1
 73
0
 74
0
  7

 75
0
147
1.0
148
0.0
149
0.0
100
AcDbLayout
  1
Layout1
 70
0
 71
1
 10
0.0
 20
0.0
 11
297.0
 21
210.0
 12
0.0
 22
0.0
 32
0.0
 14
0.0
 24
0.0
 34
0.0
 15
0.0
 25
0.0
 35
0.0
146
0.0
 13
0.0
 23
0.0
 33
0.0
 16
1.0
 26
0.0
 36
0.0
 17
0.0
 27
1.0
 37
0.0
 76
0
330
229
345
0
346
0
  0
ENDSEC
  0
EOF
