  0
SECTION
  2
HEADER
  9
$ACADVER
  1
AC1021
  9
$DWGCODEPAGE
  3
ANSI_1252
  9
$EXTMAX
 10
558.8
 20
431.8
 30
0.0
  9
$EXTMIN
 10
0.0
 20
0.0
 30
0.0
  9
$LIMMIN
 10
0.0
 20
0.0
  9
$LIMMAX
 10
558.8
 20
431.8
  9
$VIEWCTR
 10
279.4
 20
215.9
  9
$VIEWSIZE
 40
431.8
  9
$CLAYER
  8
0
  9
$LTSCALE
 40
30.734
  9
$CELTYPE
  6
BYLAYER
  9
$DIMSCALE
 40
1.0
  9
$DIMASZ
 40
3.0
  9
$DIMEXO
 40
0.5
  9
$DIMDLI
 40
21.2344
  9
$DIMEXE
 40
1.5
  9
$DIMCEN
 40
5.0292
  9
$DIMLFAC
 40
1.0
  9
$DIMBLK
  1
_FILLED
  9
$DIMALT
 70
0
  9
$DIMALTF
 40
0.0393700787
  9
$DIMTXT
 40
3.0
  9
$DIMTOL
 70
1
  9
$DIMLIM
 70
0
  9
$DIMTFAC
 40
1.0
  9
$DIMTP
 40
0.01
  9
$DIMTM
 40
0.01
  9
$DIMGAP
 40
0.625
  9
$DIMDSEP
 70
44
  9
$AUNITS
 70
0
  9
$PDMODE
 70
3
  9
$PDSIZE
 40
3.0
  9
$HANDSEED
  5
60E
  9
$TILEMODE
 70
1
  9
$MEASUREMENT
 70
1
  9
$INSUNITS
 70
4
  0
ENDSEC
  0
SECTION
  2
CLASSES
  0
CLASS
  1
ACDBDICTIONARYWDFLT
  2
AcDbDictionaryWithDefault
  3
AutoCAD 2000
 90
0
 91
1
280
0
281
0
  0
CLASS
  1
ACDBPLACEHOLDER
  2
AcDbPlaceHolder
  3
AutoCAD 2000
 90
0
 91
1
280
0
281
0
  0
CLASS
  1
LAYOUT
  2
AcDbLayout
  3
AutoCAD 2000
 90
0
 91
0
280
0
281
0
  0
ENDSEC
  0
SECTION
  2
TABLES
  0
TABLE
  2
VPORT
  5
8
100
AcDbSymbolTable
 70
2
  0
VPORT
  5
1F4
100
AcDbSymbolTableRecord
100
AcDbViewportTableRecord
  2
*ACTIVE
 70
0
 10
0.0
 20
0.0
 11
1.0
 21
1.0
 12
279.4
 22
215.9
 13
0.0
 23
0.0
 14
1.0
 24
1.0
 15
0.0
 25
0.0
 16
0.0
 26
0.0
 36
1.0
 17
0.0
 27
0.0
 37
0.0
 40
431.8
 41
1.2941176471
 42
50.0
 43
0.0
 44
0.0
 50
0.0
 51
0.0
 71
0
 72
100
 73
1
 74
1
 75
0
 76
0
 77
0
 78
0
  0
ENDTAB
  0
TABLE
  2
LTYPE
  5
5
100
AcDbSymbolTable
 70
6
  0
LTYPE
  5
14
100
AcDbSymbolTableRecord
100
AcDbLinetypeTableRecord
  2
BYBLOCK
 70
0
  3

 72
65
 73
0
 40
0.0
  0
LTYPE
  5
15
100
AcDbSymbolTableRecord
100
AcDbLinetypeTableRecord
  2
BYLAYER
 70
0
  3

 72
65
 73
0
 40
0.0
  0
LTYPE
  5
16
100
AcDbSymbolTableRecord
100
AcDbLinetypeTableRecord
  2
CONTINUOUS
 70
64
  3
Solid line
 72
65
 73
0
 40
0.0
  0
LTYPE
  5
1F5
100
AcDbSymbolTableRecord
100
AcDbLinetypeTableRecord
  2
CENTER
 70
64
  3
____ _ ____ _ ____ _ ____ _ ____ _ ____ _ ____
 72
65
 73
4
 40
0.6
 49
0.375
 74
0
 49
-0.075
 74
0
 49
0.075
 74
0
 49
-0.075
 74
0
  0
LTYPE
  5
1F6
100
AcDbSymbolTableRecord
100
AcDbLinetypeTableRecord
  2
HIDDEN
 70
64
  3
- - - - - - - - - - - - - - - - - - - -
 72
65
 73
2
 40
0.2
 49
0.1
 74
0
 49
-0.1
 74
0
  0
LTYPE
  5
1F7
100
AcDbSymbolTableRecord
100
AcDbLinetypeTableRecord
  2
PHANTOM
 70
64
  3
_____ _ _ _____ _ _ _____ _ _ _____
 72
65
 73
6
 40
0.8
 49
0.45
 74
0
 49
-0.05
 74
0
 49
0.1
 74
0
 49
-0.05
 74
0
 49
0.1
 74
0
 49
-0.05
 74
0
  0
LTYPE
  5
1F8
100
AcDbSymbolTableRecord
100
AcDbLinetypeTableRecord
  2
DOT
 70
64
  3
. . . . . . . . . . . . . . . . . . . .
 72
65
 73
2
 40
0.2
 49
0.1
 74
0
 49
-0.1
 74
0
  0
LTYPE
  5
1F9
100
AcDbSymbolTableRecord
100
AcDbLinetypeTableRecord
  2
DASHED
 70
64
  3
- - - - - - - - - - - - - - - - - - - -
 72
65
 73
2
 40
0.2
 49
0.1
 74
0
 49
-0.1
 74
0
  0
ENDTAB
  0
TABLE
  2
LAYER
  5
2
100
AcDbSymbolTable
 70
36
  0
LAYER
  5
10
100
AcDbSymbolTableRecord
100
AcDbLayerTableRecord
  2
0
 70
0
 62
7
  6
CONTINUOUS
370
-3
390
F
  0
LAYER
  5
1FA
100
AcDbSymbolTableRecord
100
AcDbLayerTableRecord
  2
DEFAULT_1
 70
0
 62
7
  6
CENTER
370
-3
390
F
  0
LAYER
  5
1FB
100
AcDbSymbolTableRecord
100
AcDbLayerTableRecord
  2
DEFAULT_2
 70
0
 62
7
  6
HIDDEN
370
-3
390
F
  0
LAYER
  5
1FC
100
AcDbSymbolTableRecord
100
AcDbLayerTableRecord
  2
DEFAULT_3
 70
0
 62
7
  6
PHANTOM
370
-3
390
F
  0
LAYER
  5
1FD
100
AcDbSymbolTableRecord
100
AcDbLayerTableRecord
  2
218_INCISO
 70
0
 62
7
  6
CONTINUOUS
370
-3
390
F
  0
LAYER
  5
1FE
100
AcDbSymbolTableRecord
100
AcDbLayerTableRecord
  2
218_STAMPATO
 70
0
 62
7
  6
CONTINUOUS
370
-3
390
F
  0
LAYER
  5
1FF
100
AcDbSymbolTableRecord
100
AcDbLayerTableRecord
  2
260
 70
0
 62
7
  6
CONTINUOUS
370
-3
390
F
  0
LAYER
  5
200
100
AcDbSymbolTableRecord
100
AcDbLayerTableRecord
  2
268
 70
0
 62
7
  6
CONTINUOUS
370
-3
390
F
  0
LAYER
  5
201
100
AcDbSymbolTableRecord
100
AcDbLayerTableRecord
  2
284
 70
0
 62
7
  6
CONTINUOUS
370
-3
390
F
  0
LAYER
  5
202
100
AcDbSymbolTableRecord
100
AcDbLayerTableRecord
  2
320
 70
0
 62
7
  6
CONTINUOUS
370
-3
390
F
  0
LAYER
  5
203
100
AcDbSymbolTableRecord
100
AcDbLayerTableRecord
  2
340
 70
0
 62
7
  6
CONTINUOUS
370
-3
390
F
  0
LAYER
  5
204
100
AcDbSymbolTableRecord
100
AcDbLayerTableRecord
  2
712
 70
0
 62
7
  6
CONTINUOUS
370
-3
390
F
  0
LAYER
  5
205
100
AcDbSymbolTableRecord
100
AcDbLayerTableRecord
  2
715
 70
0
 62
7
  6
CONTINUOUS
370
-3
390
F
  0
LAYER
  5
206
100
AcDbSymbolTableRecord
100
AcDbLayerTableRecord
  2
ASSI
 70
0
 62
7
  6
CONTINUOUS
370
-3
390
F
  0
LAYER
  5
207
100
AcDbSymbolTableRecord
100
AcDbLayerTableRecord
  2
COLORE_TOP
 70
0
 62
7
  6
CONTINUOUS
370
-3
390
F
  0
LAYER
  5
208
100
AcDbSymbolTableRecord
100
AcDbLayerTableRecord
  2
COORDINATE
 70
0
 62
7
  6
CONTINUOUS
370
-3
390
F
  0
LAYER
  5
209
100
AcDbSymbolTableRecord
100
AcDbLayerTableRecord
  2
COORD_ORIGINE
 70
0
 62
7
  6
CONTINUOUS
370
-3
390
F
  0
LAYER
  5
20A
100
AcDbSymbolTableRecord
100
AcDbLayerTableRecord
  2
COPY-PUBBLISH
 70
0
 62
7
  6
CONTINUOUS
370
-3
390
F
  0
LAYER
  5
20B
100
AcDbSymbolTableRecord
100
AcDbLayerTableRecord
  2
COSMETICHE
 70
0
 62
7
  6
CONTINUOUS
370
-3
390
F
  0
LAYER
  5
20C
100
AcDbSymbolTableRecord
100
AcDbLayerTableRecord
  2
COSMETICI
 70
0
 62
7
  6
CONTINUOUS
370
-3
390
F
  0
LAYER
  5
20D
100
AcDbSymbolTableRecord
100
AcDbLayerTableRecord
  2
CURVA_CENTRALE
 70
0
 62
7
  6
CONTINUOUS
370
-3
390
F
  0
LAYER
  5
20E
100
AcDbSymbolTableRecord
100
AcDbLayerTableRecord
  2
CURVE
 70
0
 62
7
  6
CONTINUOUS
370
-3
390
F
  0
LAYER
  5
20F
100
AcDbSymbolTableRecord
100
AcDbLayerTableRecord
  2
DRAFT
 70
0
 62
7
  6
CONTINUOUS
370
-3
390
F
  0
LAYER
  5
210
100
AcDbSymbolTableRecord
100
AcDbLayerTableRecord
  2
IGES
 70
0
 62
7
  6
CONTINUOUS
370
-3
390
F
  0
LAYER
  5
211
100
AcDbSymbolTableRecord
100
AcDbLayerTableRecord
  2
IGES_SCRITTE
 70
0
 62
7
  6
CONTINUOUS
370
-3
390
F
  0
LAYER
  5
212
100
AcDbSymbolTableRecord
100
AcDbLayerTableRecord
  2
IMPORT
 70
0
 62
7
  6
CONTINUOUS
370
-3
390
F
  0
LAYER
  5
213
100
AcDbSymbolTableRecord
100
AcDbLayerTableRecord
  2
INCISIONI_LASER
 70
0
 62
7
  6
CONTINUOUS
370
-3
390
F
  0
LAYER
  5
214
100
AcDbSymbolTableRecord
100
AcDbLayerTableRecord
  2
INTF_1
 70
0
 62
7
  6
CONTINUOUS
370
-3
390
F
  0
LAYER
  5
215
100
AcDbSymbolTableRecord
100
AcDbLayerTableRecord
  2
INTF_11
 70
0
 62
7
  6
CONTINUOUS
370
-3
390
F
  0
LAYER
  5
216
100
AcDbSymbolTableRecord
100
AcDbLayerTableRecord
  2
INTF_2
 70
0
 62
7
  6
CONTINUOUS
370
-3
390
F
  0
LAYER
  5
217
100
AcDbSymbolTableRecord
100
AcDbLayerTableRecord
  2
NOTE
 70
0
 62
7
  6
CONTINUOUS
370
-3
390
F
  0
LAYER
  5
218
100
AcDbSymbolTableRecord
100
AcDbLayerTableRecord
  2
PIANI
 70
0
 62
7
  6
CONTINUOUS
370
-3
390
F
  0
LAYER
  5
219
100
AcDbSymbolTableRecord
100
AcDbLayerTableRecord
  2
PIANI_DI_RIFERIMENTO
 70
0
 62
7
  6
CONTINUOUS
370
-3
390
F
  0
LAYER
  5
21A
100
AcDbSymbolTableRecord
100
AcDbLayerTableRecord
  2
PIANI_ORIGINE
 70
0
 62
7
  6
CONTINUOUS
370
-3
390
F
  0
LAYER
  5
21B
100
AcDbSymbolTableRecord
100
AcDbLayerTableRecord
  2
PIANI_RIFERIMENTO
 70
0
 62
7
  6
CONTINUOUS
370
-3
390
F
  0
LAYER
  5
21C
100
AcDbSymbolTableRecord
100
AcDbLayerTableRecord
  2
PIANI_SFORMO
 70
0
 62
7
  6
CONTINUOUS
370
-3
390
F
  0
LAYER
  5
21D
100
AcDbSymbolTableRecord
100
AcDbLayerTableRecord
  2
PUNTI
 70
0
 62
7
  6
CONTINUOUS
370
-3
390
F
  0
LAYER
  5
21E
100
AcDbSymbolTableRecord
100
AcDbLayerTableRecord
  2
RACCORDO
 70
0
 62
7
  6
CONTINUOUS
370
-3
390
F
  0
LAYER
  5
21F
100
AcDbSymbolTableRecord
100
AcDbLayerTableRecord
  2
RGB__255__255__255__
 70
0
 62
7
  6
CONTINUOUS
370
-3
390
F
  0
LAYER
  5
220
100
AcDbSymbolTableRecord
100
AcDbLayerTableRecord
  2
RGB____0____0____0__
 70
0
 62
7
  6
CONTINUOUS
370
-3
390
F
  0
LAYER
  5
221
100
AcDbSymbolTableRecord
100
AcDbLayerTableRecord
  2
SMUSSO
 70
0
 62
7
  6
CONTINUOUS
370
-3
390
F
  0
LAYER
  5
222
100
AcDbSymbolTableRecord
100
AcDbLayerTableRecord
  2
SNAPLINE
 70
0
 62
7
  6
CONTINUOUS
370
-3
390
F
  0
LAYER
  5
223
100
AcDbSymbolTableRecord
100
AcDbLayerTableRecord
  2
SUPERFICI
 70
0
 62
7
  6
CONTINUOUS
370
-3
390
F
  0
LAYER
  5
224
100
AcDbSymbolTableRecord
100
AcDbLayerTableRecord
  2
TRACCIABILITA
 70
0
 62
7
  6
CONTINUOUS
370
-3
390
F
  0
LAYER
  5
225
100
AcDbSymbolTableRecord
100
AcDbLayerTableRecord
  2
TRASH
 70
0
 62
7
  6
CONTINUOUS
370
-3
390
F
  0
LAYER
  5
226
100
AcDbSymbolTableRecord
100
AcDbLayerTableRecord
  2
XSEC_DATUMS
 70
0
 62
7
  6
CONTINUOUS
370
-3
390
F
  0
ENDTAB
  0
TABLE
  2
STYLE
  5
3
100
AcDbSymbolTable
 70
1
  0
STYLE
  5
11
100
AcDbSymbolTableRecord
100
AcDbTextStyleTableRecord
  2
STANDARD
 70
0
 40
0.0
 41
0.8
 50
0.0
 71
0
 42
0.2
  3
txt
  4

  0
STYLE
  5
227
100
AcDbSymbolTableRecord
100
AcDbTextStyleTableRecord
  2
TEXTSTYLE_1
 70
0
 40
0.0
 41
0.8
 50
0.0
 71
0
 42
0.2
  3
gdt
  4

  0
ENDTAB
  0
TABLE
  2
VIEW
  5
6
100
AcDbSymbolTable
 70
0
  0
ENDTAB
  0
TABLE
  2
UCS
  5
7
100
AcDbSymbolTable
 70
0
  0
ENDTAB
  0
TABLE
  2
APPID
  5
9
100
AcDbSymbolTable
 70
1
  0
APPID
  5
228
100
AcDbSymbolTableRecord
100
AcDbRegAppTableRecord
  2
ACAD
 70
0
  0
ENDTAB
  0
TABLE
  2
BLOCK_RECORD
  5
1
100
AcDbSymbolTable
 70
0
  0
BLOCK_RECORD
  5
229
100
AcDbSymbolTableRecord
100
AcDbBlockTableRecord
  2
*Model_Space
  0
BLOCK_RECORD
  5
22A
100
AcDbSymbolTableRecord
100
AcDbBlockTableRecord
  2
*Paper_Space
  0
BLOCK_RECORD
  5
22B
100
AcDbSymbolTableRecord
100
AcDbBlockTableRecord
  2
_FILLED
  0
BLOCK_RECORD
  5
22C
100
AcDbSymbolTableRecord
100
AcDbBlockTableRecord
  2
*D0
  0
BLOCK_RECORD
  5
22D
100
AcDbSymbolTableRecord
100
AcDbBlockTableRecord
  2
*D1
  0
BLOCK_RECORD
  5
22E
100
AcDbSymbolTableRecord
100
AcDbBlockTableRecord
  2
*D2
  0
BLOCK_RECORD
  5
22F
100
AcDbSymbolTableRecord
100
AcDbBlockTableRecord
  2
*D3
  0
ENDTAB
  0
TABLE
  2
DIMSTYLE
  5
A
100
AcDbSymbolTable
 70
1
100
AcDbDimStyleTable
 71
0
  0
DIMSTYLE
105
230
100
AcDbSymbolTableRecord
100
AcDbDimStyleTableRecord
  2
STANDARD
 70
0
  3

  4

 40
1.0
 41
3.0
 42
0.5
 43
0.38
 44
1.5
 45
0.0
 46
0.0
 47
0.01
 48
0.01
140
3.0
141
0.09
142
0.0
143
25.4
144
1.0
145
0.0
146
1.0
147
0.625
 71
1.0
 72
0.0
 73
0
 74
0
 75
0
 76
0
 77
1
 78
8
 79
2
170
0
171
1
172
0
173
0
174
0
175
0
176
0
177
0
178
0
270
2
179
2
271
2
272
2
273
2
274
2
275
0
280
0
281
0
282
0
283
1
284
8
285
0
286
0
287
3
288
0
340
11
278
44
341
22B
342
22B
343
22B
344
22B
  0
DIMSTYLE
105
231
100
AcDbSymbolTableRecord
100
AcDbDimStyleTableRecord
  2
DIMSTYLE_1
 70
0
  3

  4

 40
1.0
 41
3.0
 42
0.5
 43
0.38
 44
1.5
 45
0.0
 46
0.0
 47
0.0
 48
0.0
140
3.0
141
0.09
142
0.0
143
25.4
144
1.0
145
0.0
146
1.0
147
0.75
 71
0.0
 72
0.0
 73
0
 74
0
 75
0
 76
0
 77
1
 78
8
 79
2
170
0
171
1
172
0
173
0
174
0
175
0
176
0
177
0
178
0
270
2
179
2
271
2
272
2
273
2
274
2
275
0
280
0
281
0
282
0
283
1
284
8
285
0
286
0
287
3
288
0
340
11
278
44
341
22B
342
22B
343
22B
344
22B
  0
DIMSTYLE
105
232
100
AcDbSymbolTableRecord
100
AcDbDimStyleTableRecord
  2
DIMSTYLE_2
 70
0
  3

  4

 40
1.0
 41
3.0
 42
0.5
 43
0.38
 44
1.5
 45
0.0
 46
0.0
 47
0.0
 48
0.0
140
3.0
141
0.09
142
0.0
143
25.4
144
1.0
145
0.0
146
1.0
147
0.75
 71
0.0
 72
0.0
 73
0
 74
0
 75
0
 76
0
 77
1
 78
8
 79
2
170
0
171
1
172
0
173
0
174
0
175
0
176
0
177
0
178
0
270
2
179
2
271
1
272
1
273
2
274
2
275
0
280
0
281
0
282
0
283
1
284
8
285
0
286
0
287
3
288
0
340
11
278
44
341
22B
342
22B
343
22B
344
22B
  0
ENDTAB
  0
ENDSEC
  0
SECTION
  2
BLOCKS
  0
BLOCK
  5
20
100
AcDbEntity
  8
0
100
AcDbBlockBegin
  2
*Model_Space
 70
0
 10
0.0
 20
0.0
 30
0.0
  3
*Model_Space
  1

  0
ENDBLK
  5
21
100
AcDbEntity
  8
0
100
AcDbBlockEnd
  0
BLOCK
  5
1C
100
AcDbEntity
  8
0
100
AcDbBlockBegin
  2
*Paper_Space
 70
0
 10
0.0
 20
0.0
 30
0.0
  3
*Paper_Space
  1

  0
ENDBLK
  5
1D
100
AcDbEntity
  8
0
100
AcDbBlockEnd
  0
BLOCK
  5
233
100
AcDbEntity
  8
0
100
AcDbBlockBegin
  2
_FILLED
 70
64
 10
0.0
 20
0.0
  3
_FILLED
  1

  0
SOLID
  5
234
100
AcDbEntity
  8
0
  6
BYBLOCK
 62
0
100
AcDbTrace
 10
0.0
 20
0.0
 11
-1.0
 21
0.3166666667
 12
-1.0
 22
-0.3166666667
 13
-1.0
 23
-0.3166666667
  0
ENDBLK
  5
235
100
AcDbEntity
  8
0
  6
BYBLOCK
 62
0
100
AcDbBlockEnd
  0
BLOCK
  5
236
100
AcDbEntity
  8
0
100
AcDbBlockBegin
 62
7
  6
CONTINUOUS
  2
*D0
 70
65
 10
0.0
 20
0.0
  3
*D0
  1

  0
LINE
  5
237
100
AcDbEntity
  8
0
100
AcDbLine
 62
7
  6
CONTINUOUS
 10
-20.5245446135
 20
4.850123319
 11
-20.5245446135
 21
33.9
  0
LINE
  5
238
100
AcDbEntity
  8
0
100
AcDbLine
 62
7
  6
CONTINUOUS
 10
-44.5245446135
 20
24.6456323968
 11
-44.5245446135
 21
33.9
  0
LINE
  5
239
100
AcDbEntity
  8
0
100
AcDbLine
 62
7
  6
CONTINUOUS
 10
-20.5245446135
 20
32.4
 11
-32.5245446135
 21
32.4
  0
LINE
  5
23A
100
AcDbEntity
  8
0
100
AcDbLine
 62
7
  6
CONTINUOUS
 10
-44.5245446135
 20
32.4
 11
-32.5245446135
 21
32.4
  0
INSERT
  5
23B
100
AcDbEntity
  8
0
100
AcDbBlockReference
 62
7
  6
CONTINUOUS
  2
_FILLED
 10
-20.5245446135
 20
32.4
 41
3.0
 42
3.0
 43
3.0
  0
INSERT
  5
23C
100
AcDbEntity
  8
0
100
AcDbBlockReference
 62
7
  6
CONTINUOUS
  2
_FILLED
 10
-44.5245446135
 20
32.4
 41
3.0
 42
3.0
 43
3.0
 50
180.0
  0
ENDBLK
  5
23D
100
AcDbEntity
  8
0
  6
BYBLOCK
 62
0
100
AcDbBlockEnd
  0
BLOCK
  5
23E
100
AcDbEntity
  8
0
100
AcDbBlockBegin
 62
7
  6
CONTINUOUS
  2
*D1
 70
65
 10
0.0
 20
0.0
  3
*D1
  1

  0
LINE
  5
23F
100
AcDbEntity
  8
0
100
AcDbLine
 62
7
  6
CONTINUOUS
 10
-20.5245446135
 20
4.850123319
 11
-20.5245446135
 21
43.9982504918
  0
LINE
  5
240
100
AcDbEntity
  8
0
100
AcDbLine
 62
7
  6
CONTINUOUS
 10
-59.0618441734
 20
-19.3233497499
 11
-59.0618441734
 21
43.9982504918
  0
LINE
  5
241
100
AcDbEntity
  8
0
100
AcDbLine
 62
7
  6
CONTINUOUS
 10
-20.5245446135
 20
42.4982504918
 11
-39.7931943934
 21
42.4982504918
  0
LINE
  5
242
100
AcDbEntity
  8
0
100
AcDbLine
 62
7
  6
CONTINUOUS
 10
-59.0618441734
 20
42.4982504918
 11
-39.7931943934
 21
42.4982504918
  0
INSERT
  5
243
100
AcDbEntity
  8
0
100
AcDbBlockReference
 62
7
  6
CONTINUOUS
  2
_FILLED
 10
-20.5245446135
 20
42.4982504918
 41
3.0
 42
3.0
 43
3.0
  0
INSERT
  5
244
100
AcDbEntity
  8
0
100
AcDbBlockReference
 62
7
  6
CONTINUOUS
  2
_FILLED
 10
-59.0618441734
 20
42.4982504918
 41
3.0
 42
3.0
 43
3.0
 50
180.0
  0
ENDBLK
  5
245
100
AcDbEntity
  8
0
  6
BYBLOCK
 62
0
100
AcDbBlockEnd
  0
BLOCK
  5
246
100
AcDbEntity
  8
0
100
AcDbBlockBegin
 62
7
  6
CONTINUOUS
  2
*D2
 70
65
 10
0.0
 20
0.0
  3
*D2
  1

  0
LINE
  5
247
100
AcDbEntity
  8
0
100
AcDbLine
 62
7
  6
CONTINUOUS
 10
11.1
 20
24.4
 11
21.5678037059
 21
24.4
  0
LINE
  5
248
100
AcDbEntity
  8
0
100
AcDbLine
 62
7
  6
CONTINUOUS
 10
11.1
 20
-24.4
 11
21.5678037059
 21
-24.4
  0
LINE
  5
249
100
AcDbEntity
  8
0
100
AcDbLine
 62
7
  6
CONTINUOUS
 10
20.0678037059
 20
24.4
 11
20.0678037059
 21
0.0
  0
LINE
  5
24A
100
AcDbEntity
  8
0
100
AcDbLine
 62
7
  6
CONTINUOUS
 10
20.0678037059
 20
-24.4
 11
20.0678037059
 21
0.0
  0
INSERT
  5
24B
100
AcDbEntity
  8
0
100
AcDbBlockReference
 62
7
  6
CONTINUOUS
  2
_FILLED
 10
20.0678037059
 20
24.4
 41
3.0
 42
3.0
 43
3.0
 50
90.0
  0
INSERT
  5
24C
100
AcDbEntity
  8
0
100
AcDbBlockReference
 62
7
  6
CONTINUOUS
  2
_FILLED
 10
20.0678037059
 20
-24.4
 41
3.0
 42
3.0
 43
3.0
 50
270.0
  0
ENDBLK
  5
24D
100
AcDbEntity
  8
0
  6
BYBLOCK
 62
0
100
AcDbBlockEnd
  0
BLOCK
  5
24E
100
AcDbEntity
  8
0
100
AcDbBlockBegin
 62
7
  6
CONTINUOUS
  2
*D3
 70
65
 10
0.0
 20
0.0
  3
*D3
  1

  0
LINE
  5
24F
100
AcDbEntity
  8
0
100
AcDbLine
 62
7
  6
CONTINUOUS
 10
11.15
 20
22.358797755
 11
11.15
 21
33.9004711304
  0
LINE
  5
250
100
AcDbEntity
  8
0
100
AcDbLine
 62
7
  6
CONTINUOUS
 10
-11.15
 20
22.358797755
 11
-11.15
 21
33.9004711304
  0
LINE
  5
251
100
AcDbEntity
  8
0
100
AcDbLine
 62
7
  6
CONTINUOUS
 10
11.15
 20
32.4004711304
 11
0.0
 21
32.4004711304
  0
LINE
  5
252
100
AcDbEntity
  8
0
100
AcDbLine
 62
7
  6
CONTINUOUS
 10
-11.15
 20
32.4004711304
 11
0.0
 21
32.4004711304
  0
INSERT
  5
253
100
AcDbEntity
  8
0
100
AcDbBlockReference
 62
7
  6
CONTINUOUS
  2
_FILLED
 10
11.15
 20
32.4004711304
 41
3.0
 42
3.0
 43
3.0
  0
INSERT
  5
254
100
AcDbEntity
  8
0
100
AcDbBlockReference
 62
7
  6
CONTINUOUS
  2
_FILLED
 10
-11.15
 20
32.4004711304
 41
3.0
 42
3.0
 43
3.0
 50
180.0
  0
ENDBLK
  5
255
100
AcDbEntity
  8
0
  6
BYBLOCK
 62
0
100
AcDbBlockEnd
  0
ENDSEC
  0
SECTION
  2
ENTITIES
  0
DIMENSION
  5
256
100
AcDbEntity
  8
0
100
AcDbDimension
 62
7
  6
CONTINUOUS
  2
*D0
 10
-44.5245446135
 20
32.4
 11
-34.8816874706
 21
32.4
 70
160
 71
2
 72
2
 41
0.9
 42
24.0
  3
DIMSTYLE_1
100
AcDbAlignedDimension
 13
-20.5245446135
 23
4.350123319
 14
-44.5245446135
 24
24.1456323968
 50
180.0
100
AcDbRotatedDimension
  0
DIMENSION
  5
257
100
AcDbEntity
  8
0
100
AcDbDimension
 62
7
  6
CONTINUOUS
  2
*D1
 10
-59.0618441734
 20
42.4982504918
 11
-43.971765822
 21
42.4982504918
 70
160
 71
2
 72
2
 41
0.9
 42
38.53729956
  3
DIMSTYLE_2
100
AcDbAlignedDimension
 13
-20.5245446135
 23
4.350123319
 14
-59.0618441734
 24
-19.8233497499
 50
180.0
100
AcDbRotatedDimension
  0
DIMENSION
  5
258
100
AcDbEntity
  8
0
100
AcDbDimension
 62
7
  6
CONTINUOUS
  2
*D2
 10
20.0678037059
 20
-24.4
 11
20.0678037059
 21
-4.3928571429
 70
160
 71
2
 72
2
 41
0.9
 42
48.8
  3
DIMSTYLE_1
100
AcDbAlignedDimension
 13
10.6
 23
24.4
 14
10.6
 24
-24.4
 50
270.0
100
AcDbRotatedDimension
  0
DIMENSION
  5
259
100
AcDbEntity
  8
0
100
AcDbDimension
 62
7
  6
CONTINUOUS
  2
*D3
 10
-11.15
 20
32.4004711304
 11
-4.2857142857
 21
32.4004711304
 70
160
 71
2
 72
2
 41
0.9
 42
22.3
  3
DIMSTYLE_1
100
AcDbAlignedDimension
 13
11.15
 23
21.858797755
 14
-11.15
 24
21.858797755
 50
180.0
100
AcDbRotatedDimension
  0
LWPOLYLINE
  5
25A
100
AcDbEntity
  8
0
100
AcDbPolyline
 62
7
  6
CONTINUOUS
 90
5
 70
0
 43
0.3500000087
 10
2.9999999987
 20
34.8647575531
 10
3.3571429762
 20
35.0790440857
 10
3.3571429762
 20
35.7218994202
 10
2.9999999987
 20
36.1504724854
 10
2.142857199
 20
36.1504724854
  0
LINE
  5
25B
100
AcDbEntity
  8
268
100
AcDbLine
 62
7
  6
CONTINUOUS
 10
10.6
 20
-24.4
 11
8.3
 21
-24.4
  0
LINE
  5
25C
100
AcDbEntity
  8
268
100
AcDbLine
 62
7
  6
CONTINUOUS
 10
-8.3
 20
-24.4
 11
-10.6
 21
-24.4
  0
LINE
  5
25D
100
AcDbEntity
  8
268
100
AcDbLine
 62
250
  6
CONTINUOUS
 10
-10.5869014213
 20
-24.3869014213
 11
-8.3130985787
 21
-24.3869014213
  0
LINE
  5
25E
100
AcDbEntity
  8
268
100
AcDbLine
 62
250
  6
CONTINUOUS
 10
8.3130985787
 20
-24.3869014213
 11
10.5869014213
 21
-24.3869014213
  0
LINE
  5
25F
100
AcDbEntity
  8
268
100
AcDbLine
 62
250
  6
CONTINUOUS
 10
-10.5854554255
 20
-24.1369056521
 11
-8.3145445745
 21
-24.1369056521
  0
LINE
  5
260
100
AcDbEntity
  8
268
100
AcDbLine
 62
250
  6
CONTINUOUS
 10
8.3145445745
 20
-24.1369056521
 11
10.5854554255
 21
-24.1369056521
  0
LINE
  5
261
100
AcDbEntity
  8
268
100
AcDbLine
 62
250
  6
CONTINUOUS
 10
10.5854554255
 20
-23.8443375673
 11
8.3145445745
 21
-23.8443375673
  0
LINE
  5
262
100
AcDbEntity
  8
268
100
AcDbLine
 62
250
  6
CONTINUOUS
 10
-8.3145445745
 20
-23.8443375673
 11
-10.5854554255
 21
-23.8443375673
  0
LINE
  5
263
100
AcDbEntity
  8
268
100
AcDbLine
 62
7
  6
CONTINUOUS
 10
4.4
 20
-23.8
 11
-4.4
 21
-23.8
  0
LINE
  5
264
100
AcDbEntity
  8
268
100
AcDbLine
 62
7
  6
CONTINUOUS
 10
4.0959224421
 20
-23.7941821702
 11
-4.0959224421
 21
-23.7941821702
  0
LINE
  5
265
100
AcDbEntity
  8
268
100
AcDbLine
 62
250
  6
CONTINUOUS
 10
10.5861826542
 20
-23.6278312164
 11
8.3138173458
 21
-23.6278312164
  0
LINE
  5
266
100
AcDbEntity
  8
268
100
AcDbLine
 62
250
  6
CONTINUOUS
 10
-8.3138173458
 20
-23.6278312164
 11
-10.5861826542
 21
-23.6278312164
  0
LINE
  5
267
100
AcDbEntity
  8
268
100
AcDbLine
 62
7
  6
CONTINUOUS
 10
-8.3130985787
 20
24.3869014213
 11
-8.3
 21
24.4
  0
LINE
  5
268
100
AcDbEntity
  8
268
100
AcDbLine
 62
7
  6
CONTINUOUS
 10
10.5912732553
 20
-23.1226497308
 11
8.3087267447
 21
-23.1226497308
  0
LINE
  5
269
100
AcDbEntity
  8
268
100
AcDbLine
 62
7
  6
CONTINUOUS
 10
-8.3087267447
 20
-23.1226497308
 11
-10.5912732553
 21
-23.1226497308
  0
LINE
  5
26A
100
AcDbEntity
  8
268
100
AcDbLine
 62
7
  6
CONTINUOUS
 10
-10.8
 20
-22.4
 11
-10.6
 21
-22.4
  0
LINE
  5
26B
100
AcDbEntity
  8
268
100
AcDbLine
 62
7
  6
CONTINUOUS
 10
-8.3
 20
-22.4
 11
-4.4
 21
-22.4
  0
LINE
  5
26C
100
AcDbEntity
  8
268
100
AcDbLine
 62
7
  6
CONTINUOUS
 10
4.4
 20
-22.4
 11
8.3
 21
-22.4
  0
LINE
  5
26D
100
AcDbEntity
  8
268
100
AcDbLine
 62
7
  6
CONTINUOUS
 10
10.6
 20
-22.4
 11
10.8
 21
-22.4
  0
LINE
  5
26E
100
AcDbEntity
  8
268
100
AcDbLine
 62
7
  6
CONTINUOUS
 10
-4.0959224421
 20
-22.3912731322
 11
4.0959224421
 21
-22.3912731322
  0
LINE
  5
26F
100
AcDbEntity
  8
268
100
AcDbLine
 62
7
  6
CONTINUOUS
 10
10.5912732553
 20
-22.3869096983
 11
8.3087267447
 21
-22.3869096983
  0
LINE
  5
270
100
AcDbEntity
  8
268
100
AcDbLine
 62
7
  6
CONTINUOUS
 10
-8.3087267447
 20
-22.3869096983
 11
-10.5912732553
 21
-22.3869096983
  0
LINE
  5
271
100
AcDbEntity
  8
268
100
AcDbLine
 62
7
  6
CONTINUOUS
 10
-10.8
 20
-22.3781828305
 11
10.8
 21
-22.3781828305
  0
LINE
  5
272
100
AcDbEntity
  8
RACCORDO
100
AcDbLine
 62
7
  6
CONTINUOUS
 10
-10.2999085759
 20
-22.009533563
 11
10.2999085759
 21
-22.009533563
  0
LINE
  5
273
100
AcDbEntity
  8
268
100
AcDbLine
 62
7
  6
CONTINUOUS
 10
-11.15
 20
-22.0
 11
-10.4210090475
 21
-22.0
  0
LINE
  5
274
100
AcDbEntity
  8
268
100
AcDbLine
 62
7
  6
CONTINUOUS
 10
10.42100898
 20
-22.0
 11
11.15
 21
-22.0
  0
LINE
  5
275
100
AcDbEntity
  8
268
100
AcDbLine
 62
7
  6
CONTINUOUS
 10
-11.15
 20
-21.858797755
 11
-10.768030238
 21
-21.858797755
  0
LINE
  5
276
100
AcDbEntity
  8
268
100
AcDbLine
 62
7
  6
CONTINUOUS
 10
10.7680302576
 20
-21.858797755
 11
11.15
 21
-21.858797755
  0
LINE
  5
277
100
AcDbEntity
  8
268
100
AcDbLine
 62
7
  6
CONTINUOUS
 10
-8.3130985787
 20
-24.3869014213
 11
-8.3
 21
-24.4
  0
LINE
  5
278
100
AcDbEntity
  8
RACCORDO
100
AcDbLine
 62
250
  6
CONTINUOUS
 10
10.1500723783
 20
-21.3121689774
 11
-10.1500723783
 21
-21.3121689774
  0
LINE
  5
279
100
AcDbEntity
  8
268
100
AcDbLine
 62
7
  6
CONTINUOUS
 10
-11.15
 20
-19.9536487485
 11
-11.1
 21
-19.9536487485
  0
LINE
  5
27A
100
AcDbEntity
  8
268
100
AcDbLine
 62
7
  6
CONTINUOUS
 10
11.1
 20
-19.9536487485
 11
11.15
 21
-19.9536487485
  0
LINE
  5
27B
100
AcDbEntity
  8
RACCORDO
100
AcDbLine
 62
250
  6
CONTINUOUS
 10
10.1319446292
 20
-19.7552929786
 11
-10.2141817418
 21
-19.755338967
  0
LWPOLYLINE
  5
27C
100
AcDbEntity
  8
RACCORDO
100
AcDbPolyline
 62
250
  6
CONTINUOUS
 90
16
 70
0
 10
-10.9316704891
 20
20.6446381503
 10
-10.925285543
 20
20.6594688678
 10
-10.910495078
 20
20.6741173223
 10
-10.8874558005
 20
20.6884283121
 10
-10.8564118137
 20
20.7022502109
 10
-10.8176920315
 20
20.7154365744
 10
-10.7717066938
 20
20.7278476918
 10
-10.7189430193
 20
20.7393520663
 10
-10.6599600441
 20
20.7498278078
 10
-10.5953826983
 20
20.7591639251
 10
-10.5258951849
 20
20.767261501
 10
-10.4522337306
 20
20.774034741
 10
-10.3751787852
 20
20.7794118822
 10
-10.2955467531
 20
20.7833359534
 10
-10.2141813431
 20
20.7857653786
 10
-10.1319446292
 20
20.786674418
  0
LINE
  5
27D
100
AcDbEntity
  8
268
100
AcDbLine
 62
7
  6
CONTINUOUS
 10
-8.3
 20
22.4
 11
-8.3087267447
 21
22.3869096983
  0
LINE
  5
27E
100
AcDbEntity
  8
268
100
AcDbLine
 62
7
  6
CONTINUOUS
 10
-8.3087267447
 20
-22.3869096983
 11
-8.3
 21
-22.4
  0
LINE
  5
27F
100
AcDbEntity
  8
RACCORDO
100
AcDbLine
 62
250
  6
CONTINUOUS
 10
-10.9497982383
 20
21.214445722
 11
-11.1
 21
20.6148503581
  0
LINE
  5
280
100
AcDbEntity
  8
RACCORDO
100
AcDbLine
 62
7
  6
CONTINUOUS
 10
-11.076323689
 20
20.8067658629
 11
-10.9257197314
 21
21.4079606388
  0
LINE
  5
281
100
AcDbEntity
  8
268
100
AcDbLine
 62
7
  6
CONTINUOUS
 10
4.3959173652
 20
23.7959173652
 11
4.4
 21
23.8
  0
LINE
  5
282
100
AcDbEntity
  8
268
100
AcDbLine
 62
7
  6
CONTINUOUS
 10
4.3959173652
 20
-23.7959173652
 11
4.4
 21
-23.8
  0
LWPOLYLINE
  5
283
100
AcDbEntity
  8
RACCORDO
100
AcDbPolyline
 62
250
  6
CONTINUOUS
 90
16
 70
0
 10
-10.9497982383
 20
-20.5157614044
 10
-10.9453994994
 20
-20.5987612822
 10
-10.9322896276
 20
-20.6808781316
 10
-10.9106121845
 20
-20.7612125308
 10
-10.8806045717
 20
-20.8388845784
 10
-10.8425954334
 20
-20.9130435239
 10
-10.7970010597
 20
-20.9828770883
 10
-10.7443208203
 20
-21.0476203722
 10
-10.6851317024
 20
-21.1065642218
 10
-10.6200819993
 20
-21.1590629942
 10
-10.5498841878
 20
-21.204541651
 10
-10.4753071391
 20
-21.24250204
 10
-10.3971677137
 20
-21.2725283501
 10
-10.316321783
 20
-21.2942916834
 10
-10.2336548514
 20
-21.3075536512
 10
-10.1500723784
 20
-21.3121689777
  0
LWPOLYLINE
  5
284
100
AcDbEntity
  8
268
100
AcDbPolyline
 62
7
  6
CONTINUOUS
 90
31
 70
0
 10
-11.15
 20
-22.0499866726
 10
-11.149520361
 20
-22.0683045068
 10
-11.1480827556
 20
-22.0865721551
 10
-11.1456911199
 20
-22.1047395529
 10
-11.1423520049
 20
-22.1227569124
 10
-11.1380745582
 20
-22.1405748519
 10
-11.1328704981
 20
-22.158144531
 10
-11.1267540833
 20
-22.1754177965
 10
-11.1197420733
 20
-22.1923473068
 10
-11.1118536816
 20
-22.2088866539
 10
-11.103110524
 20
-22.224990507
 10
-11.09353656
 20
-22.2406147282
 10
-11.0831580257
 20
-22.2557164847
 10
-11.0720033628
 20
-22.2702543843
 10
-11.0601031411
 20
-22.2841885798
 10
-11.0474899743
 20
-22.2974808689
 10
-11.03419843
 20
-22.3100948174
 10
-11.020264936
 20
-22.3219958502
 10
-11.0057276809
 20
-22.3331513373
 10
-10.9906265074
 20
-22.3435307
 10
-10.9750028045
 20
-22.3531054869
 10
-10.9588993951
 20
-22.3618494448
 10
-10.9423604162
 20
-22.3697386035
 10
-10.9254311989
 20
-22.3767513366
 10
-10.9081581451
 20
-22.3828684145
 10
-10.8905885996
 20
-22.3880730663
 10
-10.872770719
 20
-22.3923510231
 10
-10.854753341
 20
-22.3956905527
 10
-10.8365858509
 20
-22.3980824962
 10
-10.8183180464
 20
-22.3995202939
 10
-10.8
 20
-22.4
  0
LINE
  5
285
100
AcDbEntity
  8
268
100
AcDbLine
 62
7
  6
CONTINUOUS
 10
-10.5861826542
 20
-23.6278312164
 11
-10.5912732553
 21
-23.1226497308
  0
LWPOLYLINE
  5
286
100
AcDbEntity
  8
RACCORDO
100
AcDbPolyline
 62
250
  6
CONTINUOUS
 90
21
 70
0
 10
-10.931806693
 20
20.6934633185
 10
-10.9320320149
 20
20.740992249
 10
-10.9323464547
 20
20.7872249419
 10
-10.9327524896
 20
20.8324005734
 10
-10.9332476424
 20
20.8762799672
 10
-10.933824482
 20
20.9181455948
 10
-10.9344843559
 20
20.9579533492
 10
-10.9352259165
 20
20.9957473372
 10
-10.9360376905
 20
21.030942351
 10
-10.9369205659
 20
21.063490668
 10
-10.9378736547
 20
21.0934400106
 10
-10.938882819
 20
21.1203483388
 10
-10.9399490843
 20
21.1441738631
 10
-10.9410714252
 20
21.1649583728
 10
-10.9422326269
 20
21.1823851957
 10
-10.9434337383
 20
21.1963989833
 10
-10.9446737106
 20
21.207055084
 10
-10.9459321828
 20
21.2142028709
 10
-10.947202368
 20
21.2177921351
 10
-10.9484910532
 20
21.2178730854
 10
-10.9497982383
 20
21.214445722
  0
LINE
  5
287
100
AcDbEntity
  8
268
100
AcDbLine
 62
7
  6
CONTINUOUS
 10
-11.15
 20
22.0281695031
 11
-11.15
 21
-22.0281695031
  0
LINE
  5
288
100
AcDbEntity
  8
RACCORDO
100
AcDbLine
 62
7
  6
CONTINUOUS
 10
-11.1
 20
-21.214827391
 11
-11.1
 21
20.6148503581
  0
LINE
  5
289
100
AcDbEntity
  8
268
100
AcDbLine
 62
250
  6
CONTINUOUS
 10
-10.8
 20
-22.4
 11
-10.8
 21
-22.3781828305
  0
LINE
  5
28A
100
AcDbEntity
  8
268
100
AcDbLine
 62
250
  6
CONTINUOUS
 10
-10.8
 20
22.3781828305
 11
-10.8
 21
22.4
  0
LWPOLYLINE
  5
28B
100
AcDbEntity
  8
RACCORDO
100
AcDbPolyline
 62
250
  6
CONTINUOUS
 90
12
 70
0
 10
-10.9261287923
 20
-16.3990458376
 10
-10.9215945138
 20
-13.0119194429
 10
-10.9180676536
 20
-9.6278400874
 10
-10.9155480131
 20
-6.2463708892
 10
-10.914035791
 20
-2.8679487303
 10
-10.9135315828
 20
0.5061157439
 10
-10.9140357845
 20
3.8758201616
 10
-10.915548
 20
7.2411668946
 10
-10.9180676375
 20
10.600852413
 10
-10.9215944995
 20
13.9544422067
 10
-10.9261287834
 20
17.3023707858
 10
-10.931806693
 20
20.6934633185
  0
LINE
  5
28C
100
AcDbEntity
  8
268
100
AcDbLine
 62
7
  6
CONTINUOUS
 10
-10.5912732553
 20
23.1226497308
 11
-10.5861826542
 21
23.6278312164
  0
LWPOLYLINE
  5
28D
100
AcDbEntity
  8
268
100
AcDbPolyline
 62
7
  6
CONTINUOUS
 90
31
 70
0
 10
-11.15
 20
22.0499866726
 10
-11.149520361
 20
22.0683045068
 10
-11.1480827556
 20
22.0865721551
 10
-11.1456911199
 20
22.1047395529
 10
-11.1423520049
 20
22.1227569124
 10
-11.1380745582
 20
22.1405748519
 10
-11.1328704981
 20
22.158144531
 10
-11.1267540833
 20
22.1754177965
 10
-11.1197420733
 20
22.1923473068
 10
-11.1118536816
 20
22.2088866539
 10
-11.103110524
 20
22.224990507
 10
-11.09353656
 20
22.2406147282
 10
-11.0831580257
 20
22.2557164847
 10
-11.0720033628
 20
22.2702543843
 10
-11.0601031411
 20
22.2841885798
 10
-11.0474899743
 20
22.2974808689
 10
-11.03419843
 20
22.3100948174
 10
-11.020264936
 20
22.3219958502
 10
-11.0057276809
 20
22.3331513373
 10
-10.9906265074
 20
22.3435307
 10
-10.9750028045
 20
22.3531054869
 10
-10.9588993951
 20
22.3618494448
 10
-10.9423604162
 20
22.3697386035
 10
-10.9254311989
 20
22.3767513366
 10
-10.9081581451
 20
22.3828684145
 10
-10.8905885996
 20
22.3880730663
 10
-10.872770719
 20
22.3923510231
 10
-10.854753341
 20
22.3956905527
 10
-10.8365858509
 20
22.3980824962
 10
-10.8183180464
 20
22.3995202939
 10
-10.8
 20
22.4
  0
LWPOLYLINE
  5
28E
100
AcDbEntity
  8
RACCORDO
100
AcDbPolyline
 62
250
  6
CONTINUOUS
 90
4
 70
0
 10
-10.9497982383
 20
21.214445722
 10
-10.9453994364
 20
21.2975853109
 10
-10.9322893966
 20
21.379788304
 10
-10.926094043
 20
21.4064725392
  0
LWPOLYLINE
  5
28F
100
AcDbEntity
  8
RACCORDO
100
AcDbPolyline
 62
250
  6
CONTINUOUS
 90
16
 70
0
 10
10.9316704891
 20
-19.7892192716
 10
10.9252852741
 20
-19.785505791
 10
10.9104945816
 20
-19.7818567763
 10
10.8874551196
 20
-19.7783108888
 10
10.8564109924
 20
-19.7749056973
 10
10.8176911138
 20
-19.7716772801
 10
10.7717057227
 20
-19.7686598424
 10
10.7189420364
 20
-19.765885354
 10
10.6599590886
 20
-19.7633832108
 10
10.5953818062
 20
-19.7611799232
 10
10.5258943885
 20
-19.7592988349
 10
10.4522330579
 20
-19.7577598764
 10
10.3751782593
 20
-19.756579353
 10
10.295546392
 20
-19.7557697727
 10
10.2141811592
 20
-19.7553397129
 10
10.1319446292
 20
-19.75529373
  0
LWPOLYLINE
  5
290
100
AcDbEntity
  8
RACCORDO
100
AcDbPolyline
 62
250
  6
CONTINUOUS
 90
21
 70
0
 10
-10.1264029147
 20
17.4361828866
 10
-10.1320822269
 20
20.8908821674
 10
-10.1323085516
 20
20.9931826337
 10
-10.1326236031
 20
21.0930605903
 10
-10.1330297826
 20
21.1900056794
 10
-10.133524689
 20
21.283534247
 10
-10.1341011193
 20
21.3731896536
 10
-10.1347605303
 20
21.4585300041
 10
-10.1355014652
 20
21.5391077957
 10
-10.1363123503
 20
21.6144927323
 10
-10.137193931
 20
21.6842916732
 10
-10.138145462
 20
21.7481720154
 10
-10.1391531329
 20
21.8058344425
 10
-10.1402181524
 20
21.8569938896
 10
-10.141339312
 20
21.9013750741
 10
-10.1424991749
 20
21.9387408246
 10
-10.1436979984
 20
21.9689001089
 10
-10.1449355254
 20
21.9917073035
 10
-10.1461935476
 20
22.0070502349
 10
-10.1474659959
 20
22.0148500548
 10
-10.1481428471
 20
22.0159097127
  0
LINE
  5
291
100
AcDbEntity
  8
268
100
AcDbLine
 62
7
  6
CONTINUOUS
 10
-10.6
 20
-22.4
 11
-10.6
 21
-24.4
  0
LINE
  5
292
100
AcDbEntity
  8
268
100
AcDbLine
 62
7
  6
CONTINUOUS
 10
-10.6
 20
22.4
 11
-10.6
 21
24.4
  0
LINE
  5
293
100
AcDbEntity
  8
268
100
AcDbLine
 62
7
  6
CONTINUOUS
 10
-10.5912732553
 20
-23.1226497308
 11
-10.5912732553
 21
-22.3869096983
  0
LINE
  5
294
100
AcDbEntity
  8
268
100
AcDbLine
 62
7
  6
CONTINUOUS
 10
-10.5912732553
 20
22.3869096983
 11
-10.5912732553
 21
23.1226497308
  0
LINE
  5
295
100
AcDbEntity
  8
268
100
AcDbLine
 62
7
  6
CONTINUOUS
 10
-10.5854554255
 20
-24.1369056521
 11
-10.5854554255
 21
-23.8443375673
  0
LINE
  5
296
100
AcDbEntity
  8
268
100
AcDbLine
 62
7
  6
CONTINUOUS
 10
-10.5854554255
 20
23.8443375673
 11
-10.5854554255
 21
24.1369056521
  0
LWPOLYLINE
  5
297
100
AcDbEntity
  8
RACCORDO
100
AcDbPolyline
 62
250
  6
CONTINUOUS
 90
12
 70
0
 10
-10.1320821807
 20
-19.8619922764
 10
-10.1264029145
 20
-16.3567636532
 10
-10.1218686253
 20
-12.960423092
 10
-10.1183417615
 20
-9.5667082968
 10
-10.1158221288
 20
-6.1760559737
 10
-10.1143099215
 20
-2.7889023499
 10
-10.1138057229
 20
0.5943168823
 10
-10.1143099216
 20
3.9731664094
 10
-10.115822129
 20
7.34721148
 10
-10.1183417618
 20
10.7160180873
 10
-10.1218686255
 20
14.0791528136
 10
-10.1264029147
 20
17.4361828866
  0
LWPOLYLINE
  5
298
100
AcDbEntity
  8
0
100
AcDbPolyline
 62
7
  6
CONTINUOUS
 90
3
 70
0
 43
0.3500000087
 10
1.142857155
 20
33.4361835114
 10
1.0714285995
 20
33.2219012421
 10
0.9285714218
 20
32.9361872864
  0
LINE
  5
299
100
AcDbEntity
  8
268
100
AcDbLine
 62
7
  6
CONTINUOUS
 10
10.5869014213
 20
24.3869014213
 11
10.6
 21
24.4
  0
LINE
  5
29A
100
AcDbEntity
  8
268
100
AcDbLine
 62
7
  6
CONTINUOUS
 10
10.5869014213
 20
-24.3869014213
 11
10.6
 21
-24.4
  0
LINE
  5
29B
100
AcDbEntity
  8
268
100
AcDbLine
 62
7
  6
CONTINUOUS
 10
-8.3087267447
 20
23.1226497308
 11
-8.3138173458
 21
23.6278312164
  0
LINE
  5
29C
100
AcDbEntity
  8
268
100
AcDbLine
 62
7
  6
CONTINUOUS
 10
-8.3145445745
 20
24.1369056521
 11
-8.3145445745
 21
23.8443375673
  0
LINE
  5
29D
100
AcDbEntity
  8
268
100
AcDbLine
 62
7
  6
CONTINUOUS
 10
-8.3145445745
 20
-23.8443375673
 11
-8.3145445745
 21
-24.1369056521
  0
LINE
  5
29E
100
AcDbEntity
  8
268
100
AcDbLine
 62
7
  6
CONTINUOUS
 10
-8.3087267447
 20
-23.1226497308
 11
-8.3087267447
 21
-22.3869096983
  0
LINE
  5
29F
100
AcDbEntity
  8
268
100
AcDbLine
 62
7
  6
CONTINUOUS
 10
-8.3087267447
 20
22.3869096983
 11
-8.3087267447
 21
23.1226497308
  0
LINE
  5
2A0
100
AcDbEntity
  8
268
100
AcDbLine
 62
7
  6
CONTINUOUS
 10
-8.3
 20
-22.4
 11
-8.3
 21
-24.4
  0
LINE
  5
2A1
100
AcDbEntity
  8
268
100
AcDbLine
 62
7
  6
CONTINUOUS
 10
-8.3
 20
22.4
 11
-8.3
 21
24.4
  0
LINE
  5
2A2
100
AcDbEntity
  8
268
100
AcDbLine
 62
7
  6
CONTINUOUS
 10
-8.3138173458
 20
-23.6278312164
 11
-8.3087267447
 21
-23.1226497308
  0
LWPOLYLINE
  5
2A3
100
AcDbEntity
  8
RACCORDO
100
AcDbPolyline
 62
250
  6
CONTINUOUS
 90
21
 70
0
 10
-10.1500723783
 20
-21.3121689774
 10
-10.1487587168
 20
-21.2954032429
 10
-10.147465615
 20
-21.2711885173
 10
-10.1461930728
 20
-21.2396491823
 10
-10.1449350639
 20
-21.200949072
 10
-10.1436976146
 20
-21.1552840972
 10
-10.1424988041
 20
-21.1028772549
 10
-10.1413388011
 20
-21.0439823593
 10
-10.1402174368
 20
-20.9789032894
 10
-10.1391522842
 20
-20.907988929
 10
-10.1381446033
 20
-20.8316187214
 10
-10.1371931341
 20
-20.7501670056
 10
-10.1363116696
 20
-20.6640155681
 10
-10.1355009948
 20
-20.573578239
 10
-10.1347603247
 20
-20.4793280988
 10
-10.1341010979
 20
-20.3817659857
 10
-10.1335246937
 20
-20.2813998923
 10
-10.1330297326
 20
-20.1787254237
 10
-10.1326235156
 20
-20.074247739
 10
-10.1323084761
 20
-19.9684901237
 10
-10.1320821807
 20
-19.8619922764
  0
LWPOLYLINE
  5
2A4
100
AcDbEntity
  8
RACCORDO
100
AcDbPolyline
 62
250
  6
CONTINUOUS
 90
22
 70
0
 10
-10.9497982383
 20
-20.5157614044
 10
-10.9484900125
 20
-20.5078766456
 10
-10.9472004825
 20
-20.4966428392
 10
-10.9459296482
 20
-20.4820599851
 10
-10.9446707868
 20
-20.4640198864
 10
-10.9434306211
 20
-20.4426307401
 10
-10.9422293198
 20
-20.4182171371
 10
-10.9410678136
 20
-20.3907298278
 10
-10.9399451717
 20
-20.3602180618
 10
-10.9388787707
 20
-20.3271541793
 10
-10.937869713
 20
-20.2915067273
 10
-10.9369168962
 20
-20.2533071588
 10
-10.9360343902
 20
-20.2131221733
 10
-10.9352231175
 20
-20.1709147081
 10
-10.9344821556
 20
-20.1267218259
 10
-10.9338228072
 20
-20.0812214139
 10
-10.9332463481
 20
-20.0343763723
 10
-10.9327515026
 20
-19.9862238009
 10
-10.9323457464
 20
-19.9375528865
 10
-10.9320315714
 20
-19.8886266912
 10
-10.9318064856
 20
-19.8391821529
 10
-10.9261287923
 20
-16.3990458376
  0
LINE
  5
2A5
100
AcDbEntity
  8
268
100
AcDbLine
 62
7
  6
CONTINUOUS
 10
4.3959173652
 20
22.3938759614
 11
4.4
 21
22.4
  0
LINE
  5
2A6
100
AcDbEntity
  8
268
100
AcDbLine
 62
7
  6
CONTINUOUS
 10
4.3959173652
 20
-22.3938759614
 11
4.4
 21
-22.4
  0
LINE
  5
2A7
100
AcDbEntity
  8
RACCORDO
100
AcDbLine
 62
250
  6
CONTINUOUS
 10
-11.1
 20
-21.214827391
 11
-10.9497982383
 21
-20.5157614044
  0
LINE
  5
2A8
100
AcDbEntity
  8
RACCORDO
100
AcDbLine
 62
250
  6
CONTINUOUS
 10
-10.2999085759
 20
-22.009533563
 11
-10.1500723783
 21
-21.3121689774
  0
LINE
  5
2A9
100
AcDbEntity
  8
268
100
AcDbLine
 62
7
  6
CONTINUOUS
 10
-4.4
 20
-23.8
 11
-4.4
 21
-22.4
  0
LINE
  5
2AA
100
AcDbEntity
  8
268
100
AcDbLine
 62
7
  6
CONTINUOUS
 10
-4.4
 20
22.4
 11
-4.4
 21
23.8
  0
LINE
  5
2AB
100
AcDbEntity
  8
268
100
AcDbLine
 62
250
  6
CONTINUOUS
 10
-4.3959173652
 20
23.7959173652
 11
-4.3959173652
 21
22.3938759614
  0
LINE
  5
2AC
100
AcDbEntity
  8
268
100
AcDbLine
 62
250
  6
CONTINUOUS
 10
-4.3959173652
 20
-22.3938759614
 11
-4.3959173652
 21
-23.7959173652
  0
LINE
  5
2AD
100
AcDbEntity
  8
268
100
AcDbLine
 62
250
  6
CONTINUOUS
 10
-4.0959224421
 20
23.7941821702
 11
-4.0959224421
 21
22.3912731322
  0
LINE
  5
2AE
100
AcDbEntity
  8
268
100
AcDbLine
 62
250
  6
CONTINUOUS
 10
-4.0959224421
 20
-22.3912731322
 11
-4.0959224421
 21
-23.7941821702
  0
LINE
  5
2AF
100
AcDbEntity
  8
268
100
AcDbLine
 62
7
  6
CONTINUOUS
 10
10.6
 20
22.4
 11
10.5912732553
 21
22.3869096983
  0
LWPOLYLINE
  5
2B0
100
AcDbEntity
  8
0
100
AcDbPolyline
 62
7
  6
CONTINUOUS
 90
2
 70
0
 43
0.3500000087
 10
19.3178032272
 20
-3.3928567604
 10
17.817803894
 20
-3.3928567604
  0
LINE
  5
2B1
100
AcDbEntity
  8
268
100
AcDbLine
 62
7
  6
CONTINUOUS
 10
10.5912732553
 20
-22.3869096983
 11
10.6
 21
-22.4
  0
LWPOLYLINE
  5
2B2
100
AcDbEntity
  8
RACCORDO
100
AcDbPolyline
 62
250
  6
CONTINUOUS
 90
20
 70
0
 10
10.1481428408
 20
22.0159097126
 10
10.1474659959
 20
22.0148500548
 10
10.1461935477
 20
22.0070502349
 10
10.1449355254
 20
21.9917073035
 10
10.1436979984
 20
21.9689001089
 10
10.1424991748
 20
21.9387408246
 10
10.1413393119
 20
21.9013750741
 10
10.1402181524
 20
21.8569938896
 10
10.1391531329
 20
21.8058344425
 10
10.138145462
 20
21.7481720154
 10
10.1371939311
 20
21.6842916732
 10
10.1363123503
 20
21.6144927323
 10
10.1355014652
 20
21.5391077957
 10
10.1347605303
 20
21.4585300041
 10
10.1341011193
 20
21.3731896536
 10
10.133524689
 20
21.283534247
 10
10.1330297826
 20
21.1900056794
 10
10.1326236031
 20
21.0930605903
 10
10.1323085516
 20
20.9931826337
 10
10.1320822269
 20
20.8908821674
  0
LWPOLYLINE
  5
2B3
100
AcDbEntity
  8
0
100
AcDbPolyline
 62
7
  6
CONTINUOUS
 90
4
 70
0
 43
0.3500000087
 10
18.8892322937
 20
-2.0357144051
 10
18.0320904266
 20
-2.0357144051
 10
17.6035184273
 20
-1.6071424057
 10
17.6035184273
 20
-0.9642849396
  0
LINE
  5
2B4
100
AcDbEntity
  8
268
100
AcDbLine
 62
7
  6
CONTINUOUS
 10
-11.15
 20
0.0
 11
-11.1
 21
0.0
  0
LINE
  5
2B5
100
AcDbEntity
  8
268
100
AcDbLine
 62
7
  6
CONTINUOUS
 10
11.1
 20
0.0
 11
11.15
 21
0.0
  0
LWPOLYLINE
  5
2B6
100
AcDbEntity
  8
0
100
AcDbPolyline
 62
7
  6
CONTINUOUS
 90
4
 70
0
 43
0.3500000087
 10
18.8892322937
 20
2.0357137268
 10
18.0320904266
 20
2.0357137268
 10
17.6035184273
 20
2.4642846603
 10
17.6035184273
 20
3.1071421265
  0
LINE
  5
2B7
100
AcDbEntity
  8
268
100
AcDbLine
 62
7
  6
CONTINUOUS
 10
-10.5912732553
 20
-22.3869096983
 11
-10.6
 21
-22.4
  0
LINE
  5
2B8
100
AcDbEntity
  8
268
100
AcDbLine
 62
7
  6
CONTINUOUS
 10
-10.6
 20
22.4
 11
-10.5912732553
 21
22.3869096983
  0
LINE
  5
2B9
100
AcDbEntity
  8
268
100
AcDbLine
 62
250
  6
CONTINUOUS
 10
4.0959224421
 20
-23.7941821702
 11
4.0959224421
 21
-22.3912731322
  0
LINE
  5
2BA
100
AcDbEntity
  8
268
100
AcDbLine
 62
250
  6
CONTINUOUS
 10
4.0959224421
 20
22.3912731322
 11
4.0959224421
 21
23.7941821702
  0
LINE
  5
2BB
100
AcDbEntity
  8
268
100
AcDbLine
 62
250
  6
CONTINUOUS
 10
4.3959173652
 20
-23.7959173652
 11
4.3959173652
 21
-22.3938759614
  0
LINE
  5
2BC
100
AcDbEntity
  8
268
100
AcDbLine
 62
250
  6
CONTINUOUS
 10
4.3959173652
 20
22.3938759614
 11
4.3959173652
 21
23.7959173652
  0
LINE
  5
2BD
100
AcDbEntity
  8
268
100
AcDbLine
 62
7
  6
CONTINUOUS
 10
4.4
 20
23.8
 11
4.4
 21
22.4
  0
LINE
  5
2BE
100
AcDbEntity
  8
268
100
AcDbLine
 62
7
  6
CONTINUOUS
 10
4.4
 20
-22.4
 11
4.4
 21
-23.8
  0
LINE
  5
2BF
100
AcDbEntity
  8
RACCORDO
100
AcDbLine
 62
250
  6
CONTINUOUS
 10
10.1500723783
 20
-21.3121689774
 11
10.2999085759
 21
-22.009533563
  0
LWPOLYLINE
  5
2C0
100
AcDbEntity
  8
0
100
AcDbPolyline
 62
7
  6
CONTINUOUS
 90
3
 70
0
 43
0.3500000087
 10
19.0320892715
 20
1.0357148819
 10
19.2463758041
 20
0.9642853271
 10
19.5320897598
 20
0.8214283493
  0
LINE
  5
2C1
100
AcDbEntity
  8
RACCORDO
100
AcDbLine
 62
250
  6
CONTINUOUS
 10
10.9497982383
 20
-20.5157614044
 11
11.1
 21
-21.214827391
  0
LINE
  5
2C2
100
AcDbEntity
  8
268
100
AcDbLine
 62
7
  6
CONTINUOUS
 10
8.3138173458
 20
-23.6278312164
 11
8.3087267447
 21
-23.1226497308
  0
LINE
  5
2C3
100
AcDbEntity
  8
268
100
AcDbLine
 62
7
  6
CONTINUOUS
 10
8.3
 20
-22.4
 11
8.3
 21
-24.4
  0
LINE
  5
2C4
100
AcDbEntity
  8
268
100
AcDbLine
 62
7
  6
CONTINUOUS
 10
8.3
 20
22.4
 11
8.3
 21
24.4
  0
LINE
  5
2C5
100
AcDbEntity
  8
268
100
AcDbLine
 62
7
  6
CONTINUOUS
 10
8.3087267447
 20
-23.1226497308
 11
8.3087267447
 21
-22.3869096983
  0
LINE
  5
2C6
100
AcDbEntity
  8
268
100
AcDbLine
 62
7
  6
CONTINUOUS
 10
8.3087267447
 20
22.3869096983
 11
8.3087267447
 21
23.1226497308
  0
LINE
  5
2C7
100
AcDbEntity
  8
268
100
AcDbLine
 62
7
  6
CONTINUOUS
 10
8.3145445745
 20
-24.1369056521
 11
8.3145445745
 21
-23.8443375673
  0
LINE
  5
2C8
100
AcDbEntity
  8
268
100
AcDbLine
 62
7
  6
CONTINUOUS
 10
8.3145445745
 20
23.8443375673
 11
8.3145445745
 21
24.1369056521
  0
LINE
  5
2C9
100
AcDbEntity
  8
268
100
AcDbLine
 62
7
  6
CONTINUOUS
 10
8.3087267447
 20
23.1226497308
 11
8.3138173458
 21
23.6278312164
  0
LINE
  5
2CA
100
AcDbEntity
  8
268
100
AcDbLine
 62
7
  6
CONTINUOUS
 10
-4.3959173652
 20
-22.3938759614
 11
-4.4
 21
-22.4
  0
LWPOLYLINE
  5
2CB
100
AcDbEntity
  8
0
100
AcDbPolyline
 62
7
  6
CONTINUOUS
 90
10
 70
0
 43
0.3500000087
 10
18.817802739
 20
0.9642853271
 10
18.9606618484
 20
1.0357148819
 10
19.0320892715
 20
1.0357148819
 10
19.1749462494
 20
0.8928579041
 10
19.1749462494
 20
0.8214283493
 10
19.1035188263
 20
0.7500009262
 10
19.0320892715
 20
0.7500009262
 10
18.8892322937
 20
0.8214283493
 10
18.817802739
 20
0.8928579041
 10
18.817802739
 20
0.9642853271
  0
LINE
  5
2CC
100
AcDbEntity
  8
268
100
AcDbLine
 62
7
  6
CONTINUOUS
 10
-4.3959173652
 20
22.3938759614
 11
-4.4
 21
22.4
  0
LINE
  5
2CD
100
AcDbEntity
  8
268
100
AcDbLine
 62
7
  6
CONTINUOUS
 10
10.5912732553
 20
23.1226497308
 11
10.5861826542
 21
23.6278312164
  0
LWPOLYLINE
  5
2CE
100
AcDbEntity
  8
RACCORDO
100
AcDbPolyline
 62
250
  6
CONTINUOUS
 90
21
 70
0
 10
10.9318064856
 20
-19.8391821529
 10
10.9320315714
 20
-19.8886266912
 10
10.9323457464
 20
-19.9375528865
 10
10.9327515026
 20
-19.9862238009
 10
10.9332463481
 20
-20.0343763723
 10
10.9338228072
 20
-20.081221414
 10
10.9344821556
 20
-20.126721826
 10
10.9352231175
 20
-20.1709147081
 10
10.9360343902
 20
-20.2131221733
 10
10.9369168962
 20
-20.2533071588
 10
10.937869713
 20
-20.2915067273
 10
10.9388787707
 20
-20.3271541793
 10
10.9399451717
 20
-20.3602180618
 10
10.9410678136
 20
-20.3907298278
 10
10.9422293198
 20
-20.4182171371
 10
10.9434306211
 20
-20.4426307401
 10
10.9446707868
 20
-20.4640198864
 10
10.9459296482
 20
-20.4820599851
 10
10.9472004825
 20
-20.4966428391
 10
10.9484900125
 20
-20.5078766456
 10
10.9497982383
 20
-20.5157614044
  0
LWPOLYLINE
  5
2CF
100
AcDbEntity
  8
RACCORDO
100
AcDbPolyline
 62
250
  6
CONTINUOUS
 90
22
 70
0
 10
10.1264029145
 20
-16.3567636532
 10
10.1320821807
 20
-19.8619922764
 10
10.1323084761
 20
-19.9684901237
 10
10.1326235156
 20
-20.074247739
 10
10.1330297326
 20
-20.1787254237
 10
10.1335246937
 20
-20.2813998923
 10
10.1341010979
 20
-20.3817659857
 10
10.1347603247
 20
-20.4793280988
 10
10.1355009948
 20
-20.573578239
 10
10.1363116696
 20
-20.6640155681
 10
10.1371931341
 20
-20.7501670056
 10
10.1381446033
 20
-20.8316187214
 10
10.1391522842
 20
-20.907988929
 10
10.1402174368
 20
-20.9789032894
 10
10.1413388011
 20
-21.0439823593
 10
10.1424988042
 20
-21.1028772549
 10
10.1436976146
 20
-21.1552840972
 10
10.1449350638
 20
-21.200949072
 10
10.1461930727
 20
-21.2396491823
 10
10.1474656149
 20
-21.2711885173
 10
10.1487587168
 20
-21.2954032429
 10
10.1500723783
 20
-21.3121689774
  0
LINE
  5
2D0
100
AcDbEntity
  8
268
100
AcDbLine
 62
7
  6
CONTINUOUS
 10
10.5854554255
 20
24.1369056521
 11
10.5854554255
 21
23.8443375673
  0
LINE
  5
2D1
100
AcDbEntity
  8
268
100
AcDbLine
 62
7
  6
CONTINUOUS
 10
10.5854554255
 20
-23.8443375673
 11
10.5854554255
 21
-24.1369056521
  0
LINE
  5
2D2
100
AcDbEntity
  8
268
100
AcDbLine
 62
7
  6
CONTINUOUS
 10
10.5912732553
 20
-23.1226497308
 11
10.5912732553
 21
-22.3869096983
  0
LINE
  5
2D3
100
AcDbEntity
  8
268
100
AcDbLine
 62
7
  6
CONTINUOUS
 10
10.5912732553
 20
22.3869096983
 11
10.5912732553
 21
23.1226497308
  0
LINE
  5
2D4
100
AcDbEntity
  8
268
100
AcDbLine
 62
7
  6
CONTINUOUS
 10
10.6
 20
-22.4
 11
10.6
 21
-24.4
  0
LINE
  5
2D5
100
AcDbEntity
  8
268
100
AcDbLine
 62
7
  6
CONTINUOUS
 10
10.6
 20
22.4
 11
10.6
 21
24.4
  0
LINE
  5
2D6
100
AcDbEntity
  8
268
100
AcDbLine
 62
250
  6
CONTINUOUS
 10
10.8
 20
22.4
 11
10.8
 21
22.3781828305
  0
LINE
  5
2D7
100
AcDbEntity
  8
268
100
AcDbLine
 62
250
  6
CONTINUOUS
 10
10.8
 20
-22.3781828305
 11
10.8
 21
-22.4
  0
LINE
  5
2D8
100
AcDbEntity
  8
RACCORDO
100
AcDbLine
 62
7
  6
CONTINUOUS
 10
11.1
 20
-21.214827391
 11
11.1
 21
20.6148503581
  0
LWPOLYLINE
  5
2D9
100
AcDbEntity
  8
RACCORDO
100
AcDbPolyline
 62
250
  6
CONTINUOUS
 90
12
 70
0
 10
10.9261287834
 20
17.3023707858
 10
10.9215944995
 20
13.9544422067
 10
10.9180676375
 20
10.600852413
 10
10.915548
 20
7.2411668946
 10
10.9140357845
 20
3.8758201616
 10
10.9135315828
 20
0.5061157439
 10
10.914035791
 20
-2.8679487303
 10
10.9155480131
 20
-6.2463708892
 10
10.9180676536
 20
-9.6278400874
 10
10.9215945138
 20
-13.0119194429
 10
10.9261287923
 20
-16.3990458376
 10
10.9318064856
 20
-19.8391821529
  0
LWPOLYLINE
  5
2DA
100
AcDbEntity
  8
RACCORDO
100
AcDbPolyline
 62
250
  6
CONTINUOUS
 90
12
 70
0
 10
10.1320822269
 20
20.8908821674
 10
10.1264029147
 20
17.4361828866
 10
10.1218686255
 20
14.0791528136
 10
10.1183417618
 20
10.7160180873
 10
10.115822129
 20
7.34721148
 10
10.1143099216
 20
3.9731664094
 10
10.1138057229
 20
0.5943168823
 10
10.1143099215
 20
-2.7889023499
 10
10.1158221288
 20
-6.1760559737
 10
10.1183417615
 20
-9.5667082968
 10
10.1218686253
 20
-12.960423092
 10
10.1264029145
 20
-16.3567636532
  0
LINE
  5
2DB
100
AcDbEntity
  8
268
100
AcDbLine
 62
7
  6
CONTINUOUS
 10
10.5861826542
 20
-23.6278312164
 11
10.5912732553
 21
-23.1226497308
  0
LINE
  5
2DC
100
AcDbEntity
  8
268
100
AcDbLine
 62
7
  6
CONTINUOUS
 10
-10.5869014213
 20
-24.3869014213
 11
-10.6
 21
-24.4
  0
LINE
  5
2DD
100
AcDbEntity
  8
268
100
AcDbLine
 62
7
  6
CONTINUOUS
 10
-10.5869014213
 20
24.3869014213
 11
-10.6
 21
24.4
  0
LWPOLYLINE
  5
2DE
100
AcDbEntity
  8
RACCORDO
100
AcDbPolyline
 62
250
  6
CONTINUOUS
 90
4
 70
0
 10
10.9497982383
 20
21.214445722
 10
10.9453995334
 20
21.2975843945
 10
10.932289752
 20
21.3797866433
 10
10.9260940429
 20
21.4064725398
  0
LWPOLYLINE
  5
2DF
100
AcDbEntity
  8
268
100
AcDbPolyline
 62
7
  6
CONTINUOUS
 90
31
 70
0
 10
11.15
 20
22.0499866726
 10
11.149520361
 20
22.0683045068
 10
11.1480827556
 20
22.0865721551
 10
11.1456911199
 20
22.1047395529
 10
11.1423520049
 20
22.1227569124
 10
11.1380745582
 20
22.1405748519
 10
11.1328704981
 20
22.158144531
 10
11.1267540833
 20
22.1754177965
 10
11.1197420733
 20
22.1923473068
 10
11.1118536816
 20
22.2088866539
 10
11.103110524
 20
22.224990507
 10
11.09353656
 20
22.2406147282
 10
11.0831580257
 20
22.2557164847
 10
11.0720033628
 20
22.2702543843
 10
11.0601031411
 20
22.2841885798
 10
11.0474899743
 20
22.2974808689
 10
11.03419843
 20
22.3100948174
 10
11.020264936
 20
22.3219958502
 10
11.0057276809
 20
22.3331513373
 10
10.9906265074
 20
22.3435307
 10
10.9750028045
 20
22.3531054869
 10
10.9588993951
 20
22.3618494448
 10
10.9423604162
 20
22.3697386035
 10
10.9254311989
 20
22.3767513366
 10
10.9081581451
 20
22.3828684145
 10
10.8905885996
 20
22.3880730663
 10
10.872770719
 20
22.3923510231
 10
10.854753341
 20
22.3956905527
 10
10.8365858509
 20
22.3980824962
 10
10.8183180464
 20
22.3995202939
 10
10.8
 20
22.4
  0
LINE
  5
2E0
100
AcDbEntity
  8
268
100
AcDbLine
 62
7
  6
CONTINUOUS
 10
11.15
 20
22.0281695031
 11
11.15
 21
-22.0281695031
  0
LWPOLYLINE
  5
2E1
100
AcDbEntity
  8
268
100
AcDbPolyline
 62
7
  6
CONTINUOUS
 90
31
 70
0
 10
11.15
 20
-22.0499866726
 10
11.149520361
 20
-22.0683045068
 10
11.1480827556
 20
-22.0865721551
 10
11.1456911199
 20
-22.1047395529
 10
11.1423520049
 20
-22.1227569124
 10
11.1380745582
 20
-22.1405748519
 10
11.1328704981
 20
-22.158144531
 10
11.1267540833
 20
-22.1754177965
 10
11.1197420733
 20
-22.1923473068
 10
11.1118536816
 20
-22.2088866539
 10
11.103110524
 20
-22.224990507
 10
11.09353656
 20
-22.2406147282
 10
11.0831580257
 20
-22.2557164847
 10
11.0720033628
 20
-22.2702543843
 10
11.0601031411
 20
-22.2841885798
 10
11.0474899743
 20
-22.2974808689
 10
11.03419843
 20
-22.3100948174
 10
11.020264936
 20
-22.3219958502
 10
11.0057276809
 20
-22.3331513373
 10
10.9906265074
 20
-22.3435307
 10
10.9750028045
 20
-22.3531054869
 10
10.9588993951
 20
-22.3618494448
 10
10.9423604162
 20
-22.3697386035
 10
10.9254311989
 20
-22.3767513366
 10
10.9081581451
 20
-22.3828684145
 10
10.8905885996
 20
-22.3880730663
 10
10.872770719
 20
-22.3923510231
 10
10.854753341
 20
-22.3956905527
 10
10.8365858509
 20
-22.3980824962
 10
10.8183180464
 20
-22.3995202939
 10
10.8
 20
-22.4
  0
LWPOLYLINE
  5
2E2
100
AcDbEntity
  8
RACCORDO
100
AcDbPolyline
 62
250
  6
CONTINUOUS
 90
16
 70
0
 10
10.9497982383
 20
-20.5157614044
 10
10.9453994364
 20
-20.5987618791
 10
10.9322893966
 20
-20.6808792133
 10
10.9106117137
 20
-20.7612139737
 10
10.8806038239
 20
-20.8388862515
 10
10.8425944043
 20
-20.9130453005
 10
10.7969997731
 20
-20.9828788544
 10
10.7443193295
 20
-21.0476220247
 10
10.6851300837
 20
-21.1065656778
 10
10.6200803371
 20
-21.1590642022
 10
10.5498825811
 20
-21.2045425803
 10
10.4753056938
 20
-21.2425026862
 10
10.3971665175
 20
-21.2725287419
 10
10.3163209127
 20
-21.2942918713
 10
10.2336543835
 20
-21.3075537022
 10
10.1500723783
 20
-21.3121689774
  0
LWPOLYLINE
  5
2E3
100
AcDbEntity
  8
0
100
AcDbPolyline
 62
7
  6
CONTINUOUS
 90
13
 70
0
 43
0.3500000087
 10
17.6035184273
 20
2.4642846603
 10
17.3892318947
 20
2.1785707047
 10
16.7463754944
 20
2.1785707047
 10
16.317803495
 20
2.4642846603
 10
16.317803495
 20
3.1071421265
 10
16.7463754944
 20
3.3928560822
 10
17.3892318947
 20
3.3928560822
 10
17.6035184273
 20
3.1071421265
 10
18.0320904266
 20
3.5357151917
 10
18.8892322937
 20
3.5357151917
 10
19.3178032272
 20
3.1071421265
 10
19.3178032272
 20
2.4642846603
 10
18.8892322937
 20
2.0357137268
  0
LWPOLYLINE
  5
2E4
100
AcDbEntity
  8
RACCORDO
100
AcDbPolyline
 62
250
  6
CONTINUOUS
 90
15
 70
0
 10
-10.9316704892
 20
-19.7892192716
 10
-10.9252861261
 20
-19.785505723
 10
-10.9104961545
 20
-19.7818566377
 10
-10.8874572768
 20
-19.7783106785
 10
-10.8564135946
 20
-19.7749054155
 10
-10.8176940216
 20
-19.7716769281
 10
-10.7717087995
 20
-19.7686594228
 10
-10.7189451506
 20
-19.7658848706
 10
-10.6599621161
 20
-19.7633826685
 10
-10.5953846329
 20
-19.7611793278
 10
-10.525896912
 20
-19.7592981933
 10
-10.4522351894
 20
-19.757759196
 10
-10.3751799256
 20
-19.7565786421
 10
-10.2955475361
 20
-19.7557690398
 10
-10.2141817418
 20
-19.755338967
  0
LINE
  5
2E5
100
AcDbEntity
  8
268
100
AcDbLine
 62
7
  6
CONTINUOUS
 10
-4.3959173652
 20
-23.7959173652
 11
-4.4
 21
-23.8
  0
LINE
  5
2E6
100
AcDbEntity
  8
268
100
AcDbLine
 62
7
  6
CONTINUOUS
 10
-4.3959173652
 20
23.7959173652
 11
-4.4
 21
23.8
  0
LWPOLYLINE
  5
2E7
100
AcDbEntity
  8
0
100
AcDbPolyline
 62
7
  6
CONTINUOUS
 90
13
 70
0
 43
0.3500000087
 10
17.6035184273
 20
-1.6071424057
 10
17.3892318947
 20
-1.8928563614
 10
16.7463754944
 20
-1.8928563614
 10
16.317803495
 20
-1.6071424057
 10
16.317803495
 20
-0.9642849396
 10
16.7463754944
 20
-0.6785709839
 10
17.3892318947
 20
-0.6785709839
 10
17.6035184273
 20
-0.9642849396
 10
18.0320904266
 20
-0.535714006
 10
18.8892322937
 20
-0.535714006
 10
19.3178032272
 20
-0.9642849396
 10
19.3178032272
 20
-1.6071424057
 10
18.8892322937
 20
-2.0357144051
  0
LWPOLYLINE
  5
2E8
100
AcDbEntity
  8
0
100
AcDbPolyline
 62
7
  6
CONTINUOUS
 90
10
 70
0
 43
0.3500000087
 10
1.0714285995
 20
33.6504700439
 10
1.142857155
 20
33.5076151978
 10
1.142857155
 20
33.4361835114
 10
0.9999999774
 20
33.2933286652
 10
0.9285714218
 20
33.2933286652
 10
0.8571428663
 20
33.3647560883
 10
0.8571428663
 20
33.4361835114
 10
0.9285714218
 20
33.5790426208
 10
0.9999999774
 20
33.6504700439
 10
1.0714285995
 20
33.6504700439
  0
LWPOLYLINE
  5
2E9
100
AcDbEntity
  8
RACCORDO
100
AcDbPolyline
 62
7
  6
CONTINUOUS
 90
28
 70
0
 10
10.9258253573
 20
21.4075309961
 10
10.9237921805
 20
21.4154373978
 10
10.9148799573
 20
21.4468564599
 10
10.9041524473
 20
21.4795236951
 10
10.8916713258
 20
21.5126623502
 10
10.8773294257
 20
21.5461549629
 10
10.8610019651
 20
21.5799199432
 10
10.842926724
 20
21.6132245706
 10
10.8232411621
 20
21.645736079
 10
10.8018091684
 20
21.67760539
 10
10.7785441589
 20
21.7088379927
 10
10.7534127505
 20
21.7393408419
 10
10.7264332834
 20
21.7689603091
 10
10.6975907716
 20
21.7975877261
 10
10.6668942157
 20
21.8250902439
 10
10.6343679895
 20
21.8513262803
 10
10.6000303152
 20
21.8761637077
 10
10.5639231433
 20
21.8994563306
 10
10.526097717
 20
21.9210578462
 10
10.4866001566
 20
21.9408288572
 10
10.4455070961
 20
21.9586180621
 10
10.4029046736
 20
21.9742766165
 10
10.358869637
 20
21.987663298
 10
10.3135151801
 20
21.9986289965
 10
10.2669697607
 20
22.0070282106
 10
10.2193522598
 20
22.012722822
 10
10.1708116662
 20
22.0155749451
 10
10.1481464655
 20
22.0158957797
  0
LINE
  5
2EA
100
AcDbEntity
  8
RACCORDO
100
AcDbLine
 62
250
  6
CONTINUOUS
 10
11.1
 20
20.6148503581
 11
10.9497982383
 21
21.214445722
  0
LINE
  5
2EB
100
AcDbEntity
  8
RACCORDO
100
AcDbLine
 62
7
  6
CONTINUOUS
 10
11.076323689
 20
20.8067658629
 11
10.9258279584
 21
21.4075316283
  0
LWPOLYLINE
  5
2EC
100
AcDbEntity
  8
RACCORDO
100
AcDbPolyline
 62
250
  6
CONTINUOUS
 90
16
 70
0
 10
10.9316704892
 20
20.6446381503
 10
10.9252861273
 20
20.6594690236
 10
10.9104961566
 20
20.6741176434
 10
10.8874572798
 20
20.6884288045
 10
10.8564135981
 20
20.7022508774
 10
10.8176940256
 20
20.7154374146
 10
10.7717088037
 20
20.7278487021
 10
10.7189451549
 20
20.7393532399
 10
10.6599621203
 20
20.7498291352
 10
10.5953846367
 20
20.7591653938
 10
10.5258969154
 20
20.7672630961
 10
10.4522351923
 20
20.7740364455
 10
10.3751799279
 20
20.7794136771
 10
10.2955475377
 20
20.7833378181
 10
10.2141817426
 20
20.7857672915
 10
10.1319446292
 20
20.7866763565
  0
LWPOLYLINE
  5
2ED
100
AcDbEntity
  8
RACCORDO
100
AcDbPolyline
 62
250
  6
CONTINUOUS
 90
22
 70
0
 10
10.9497982383
 20
21.214445722
 10
10.9484910532
 20
21.2178730854
 10
10.947202368
 20
21.217792135
 10
10.9459321828
 20
21.2142028709
 10
10.9446737106
 20
21.207055084
 10
10.9434337383
 20
21.1963989833
 10
10.9422326269
 20
21.1823851958
 10
10.9410714252
 20
21.1649583728
 10
10.9399490843
 20
21.1441738631
 10
10.938882819
 20
21.1203483388
 10
10.9378736547
 20
21.0934400106
 10
10.9369205659
 20
21.063490668
 10
10.9360376905
 20
21.030942351
 10
10.9352259165
 20
20.9957473372
 10
10.9344843559
 20
20.9579533492
 10
10.933824482
 20
20.9181455948
 10
10.9332476424
 20
20.8762799672
 10
10.9327524896
 20
20.8324005733
 10
10.9323464547
 20
20.7872249419
 10
10.9320320149
 20
20.740992249
 10
10.931806693
 20
20.6934633185
 10
10.9261287834
 20
17.3023707858
  0
LWPOLYLINE
  5
2EE
100
AcDbEntity
  8
0
100
AcDbPolyline
 62
7
  6
CONTINUOUS
 90
3
 70
0
 43
0.3500000087
 10
18.6749457611
 20
-2.892857338
 10
18.6749457611
 20
-4.3928566711
 10
16.317803495
 20
-3.7500002708
  0
LINE
  5
2EF
100
AcDbEntity
  8
268
100
AcDbLine
 62
7
  6
CONTINUOUS
 10
8.3087267447
 20
-22.3869096983
 11
8.3
 21
-22.4
  0
LINE
  5
2F0
100
AcDbEntity
  8
268
100
AcDbLine
 62
7
  6
CONTINUOUS
 10
-11.15
 20
19.9536487485
 11
-11.1
 21
19.9536487485
  0
LINE
  5
2F1
100
AcDbEntity
  8
268
100
AcDbLine
 62
7
  6
CONTINUOUS
 10
11.1
 20
19.9536487485
 11
11.15
 21
19.9536487485
  0
LINE
  5
2F2
100
AcDbEntity
  8
268
100
AcDbLine
 62
7
  6
CONTINUOUS
 10
8.3
 20
22.4
 11
8.3087267447
 21
22.3869096983
  0
LINE
  5
2F3
100
AcDbEntity
  8
RACCORDO
100
AcDbLine
 62
250
  6
CONTINUOUS
 10
10.1319446292
 20
20.7866763616
 11
-10.1319446292
 21
20.7866763616
  0
LINE
  5
2F4
100
AcDbEntity
  8
268
100
AcDbLine
 62
7
  6
CONTINUOUS
 10
-11.15
 20
21.858797755
 11
-10.6241041857
 21
21.858797755
  0
LINE
  5
2F5
100
AcDbEntity
  8
268
100
AcDbLine
 62
7
  6
CONTINUOUS
 10
10.6240386966
 20
21.858797755
 11
11.15
 21
21.858797755
  0
LINE
  5
2F6
100
AcDbEntity
  8
268
100
AcDbLine
 62
7
  6
CONTINUOUS
 10
8.3130985787
 20
-24.3869014213
 11
8.3
 21
-24.4
  0
LWPOLYLINE
  5
2F7
100
AcDbEntity
  8
RACCORDO
100
AcDbPolyline
 62
7
  6
CONTINUOUS
 90
28
 70
0
 10
-10.1481464715
 20
22.0158957794
 10
-10.1702571543
 20
22.0155904568
 10
-10.2185379606
 20
22.0127951217
 10
-10.265911463
 20
22.0071863339
 10
-10.3122304159
 20
21.9988991518
 10
-10.3573763604
 20
21.9880691992
 10
-10.4012224417
 20
21.9748392564
 10
-10.4436567185
 20
21.9593556908
 10
-10.4846020158
 20
21.9417576949
 10
-10.5239728942
 20
21.9221916919
 10
-10.561693351
 20
21.9008064928
 10
-10.5977165705
 20
21.8777398531
 10
-10.6319915734
 20
21.8531358688
 10
-10.6644763321
 20
21.8271386838
 10
-10.695151386
 20
21.799879494
 10
-10.7239932153
 20
21.7714970333
 10
-10.7509913392
 20
21.7421234849
 10
-10.7761566082
 20
21.7118708222
 10
-10.7994707707
 20
21.6808915194
 10
-10.8209672721
 20
21.6492779822
 10
-10.8407298824
 20
21.6170301852
 10
-10.8588863723
 20
21.5840180128
 10
-10.875311186
 20
21.5505539286
 10
-10.8897861185
 20
21.5173126263
 10
-10.9024275943
 20
21.4843757601
 10
-10.913335553
 20
21.451858872
 10
-10.9224523512
 20
21.4204787211
 10
-10.9257171244
 20
21.4079600034
  0
LINE
  5
2F8
100
AcDbEntity
  8
268
100
AcDbLine
 62
7
  6
CONTINUOUS
 10
-11.15
 20
22.0
 11
-10.3060775237
 21
22.0
  0
LINE
  5
2F9
100
AcDbEntity
  8
268
100
AcDbLine
 62
7
  6
CONTINUOUS
 10
10.3059175725
 20
22.0
 11
11.15
 21
22.0
  0
LINE
  5
2FA
100
AcDbEntity
  8
RACCORDO
100
AcDbLine
 62
7
  6
CONTINUOUS
 10
10.1481535489
 20
22.0159097435
 11
-10.1481535489
 21
22.0159097435
  0
LINE
  5
2FB
100
AcDbEntity
  8
268
100
AcDbLine
 62
7
  6
CONTINUOUS
 10
10.8
 20
22.3781828305
 11
-10.8
 21
22.3781828305
  0
LINE
  5
2FC
100
AcDbEntity
  8
268
100
AcDbLine
 62
7
  6
CONTINUOUS
 10
10.5912732553
 20
22.3869096983
 11
8.3087267447
 21
22.3869096983
  0
LINE
  5
2FD
100
AcDbEntity
  8
268
100
AcDbLine
 62
7
  6
CONTINUOUS
 10
-8.3087267447
 20
22.3869096983
 11
-10.5912732553
 21
22.3869096983
  0
LINE
  5
2FE
100
AcDbEntity
  8
268
100
AcDbLine
 62
7
  6
CONTINUOUS
 10
-4.0959224421
 20
22.3912731322
 11
4.0959224421
 21
22.3912731322
  0
LINE
  5
2FF
100
AcDbEntity
  8
268
100
AcDbLine
 62
7
  6
CONTINUOUS
 10
-10.8
 20
22.4
 11
-10.6
 21
22.4
  0
LINE
  5
300
100
AcDbEntity
  8
268
100
AcDbLine
 62
7
  6
CONTINUOUS
 10
-8.3
 20
22.4
 11
-4.4
 21
22.4
  0
LINE
  5
301
100
AcDbEntity
  8
268
100
AcDbLine
 62
7
  6
CONTINUOUS
 10
4.4
 20
22.4
 11
8.3
 21
22.4
  0
LINE
  5
302
100
AcDbEntity
  8
268
100
AcDbLine
 62
7
  6
CONTINUOUS
 10
10.6
 20
22.4
 11
10.8
 21
22.4
  0
LINE
  5
303
100
AcDbEntity
  8
268
100
AcDbLine
 62
7
  6
CONTINUOUS
 10
10.5912732553
 20
23.1226497308
 11
8.3087267447
 21
23.1226497308
  0
LINE
  5
304
100
AcDbEntity
  8
268
100
AcDbLine
 62
7
  6
CONTINUOUS
 10
-8.3087267447
 20
23.1226497308
 11
-10.5912732553
 21
23.1226497308
  0
LINE
  5
305
100
AcDbEntity
  8
268
100
AcDbLine
 62
250
  6
CONTINUOUS
 10
-10.5861826542
 20
23.6278312164
 11
-8.3138173458
 21
23.6278312164
  0
LINE
  5
306
100
AcDbEntity
  8
268
100
AcDbLine
 62
250
  6
CONTINUOUS
 10
8.3138173458
 20
23.6278312164
 11
10.5861826542
 21
23.6278312164
  0
LINE
  5
307
100
AcDbEntity
  8
268
100
AcDbLine
 62
7
  6
CONTINUOUS
 10
-4.0959224421
 20
23.7941821702
 11
4.0959224421
 21
23.7941821702
  0
LINE
  5
308
100
AcDbEntity
  8
268
100
AcDbLine
 62
7
  6
CONTINUOUS
 10
-4.4
 20
23.8
 11
4.4
 21
23.8
  0
LINE
  5
309
100
AcDbEntity
  8
268
100
AcDbLine
 62
7
  6
CONTINUOUS
 10
8.3130985787
 20
24.3869014213
 11
8.3
 21
24.4
  0
LINE
  5
30A
100
AcDbEntity
  8
268
100
AcDbLine
 62
250
  6
CONTINUOUS
 10
-10.5854554255
 20
23.8443375673
 11
-8.3145445745
 21
23.8443375673
  0
LINE
  5
30B
100
AcDbEntity
  8
268
100
AcDbLine
 62
250
  6
CONTINUOUS
 10
8.3145445745
 20
23.8443375673
 11
10.5854554255
 21
23.8443375673
  0
LINE
  5
30C
100
AcDbEntity
  8
268
100
AcDbLine
 62
250
  6
CONTINUOUS
 10
10.5854554255
 20
24.1369056521
 11
8.3145445745
 21
24.1369056521
  0
LINE
  5
30D
100
AcDbEntity
  8
268
100
AcDbLine
 62
250
  6
CONTINUOUS
 10
-8.3145445745
 20
24.1369056521
 11
-10.5854554255
 21
24.1369056521
  0
LINE
  5
30E
100
AcDbEntity
  8
268
100
AcDbLine
 62
250
  6
CONTINUOUS
 10
10.5869014213
 20
24.3869014213
 11
8.3130985787
 21
24.3869014213
  0
LINE
  5
30F
100
AcDbEntity
  8
268
100
AcDbLine
 62
250
  6
CONTINUOUS
 10
-8.3130985787
 20
24.3869014213
 11
-10.5869014213
 21
24.3869014213
  0
LINE
  5
310
100
AcDbEntity
  8
268
100
AcDbLine
 62
7
  6
CONTINUOUS
 10
-10.6
 20
24.4
 11
-8.3
 21
24.4
  0
LINE
  5
311
100
AcDbEntity
  8
268
100
AcDbLine
 62
7
  6
CONTINUOUS
 10
8.3
 20
24.4
 11
10.6
 21
24.4
  0
LWPOLYLINE
  5
312
100
AcDbEntity
  8
0
100
AcDbPolyline
 62
7
  6
CONTINUOUS
 90
7
 70
0
 43
0.3500000087
 10
-0.4285714331
 20
33.1504695557
 10
-1.9285714658
 20
33.1504695557
 10
-0.4285714331
 20
35.293326355
 10
-0.4285714331
 20
35.7218994202
 10
-0.8571428663
 20
36.1504724854
 10
-1.4999999993
 20
36.1504724854
 10
-1.9285714658
 20
35.5076128876
  0
LWPOLYLINE
  5
313
100
AcDbEntity
  8
0
100
AcDbPolyline
 62
7
  6
CONTINUOUS
 90
6
 70
0
 43
0.3500000087
 10
2.142857199
 20
33.1504695557
 10
3.2142857319
 20
33.1504695557
 10
3.4285714651
 20
33.3647560883
 10
3.4285714651
 20
34.4361844879
 10
2.9999999987
 20
34.8647575531
 10
2.5714285322
 20
34.8647575531
  0
LWPOLYLINE
  5
314
100
AcDbEntity
  8
0
100
AcDbPolyline
 62
7
  6
CONTINUOUS
 90
7
 70
0
 43
0.3500000087
 10
-2.7857142654
 20
33.1504695557
 10
-4.285714398
 20
33.1504695557
 10
-2.7857142654
 20
35.293326355
 10
-2.7857142654
 20
35.7218994202
 10
-3.2142857319
 20
36.1504724854
 10
-3.8571429316
 20
36.1504724854
 10
-4.285714398
 20
35.5076128876
  0
LWPOLYLINE
  5
315
100
AcDbEntity
  8
0
100
AcDbPolyline
 62
7
  6
CONTINUOUS
 90
5
 70
0
 43
0.3500000087
 10
-43.1146225952
 20
44.9625377075
 10
-42.7574812164
 20
45.1768199768
 10
-42.7574812164
 20
45.8196795746
 10
-43.1146225952
 20
46.2482483765
 10
-43.9717644623
 20
46.2482483765
  0
LINE
  5
316
100
AcDbEntity
  8
268
100
AcDbLine
 62
7
  6
CONTINUOUS
 10
-44.6495446135
 20
23.6278312164
 11
-45.3995446135
 21
23.1948185145
  0
LINE
  5
317
100
AcDbEntity
  8
268
100
AcDbLine
 62
7
  6
CONTINUOUS
 10
-45.5245446135
 20
-24.4
 11
-44.7730901806
 21
-24.395628166
  0
LINE
  5
318
100
AcDbEntity
  8
268
100
AcDbLine
 62
7
  6
CONTINUOUS
 10
-37.5245446135
 20
-23.7534573615
 11
-44.5296409356
 21
-23.7942118197
  0
LINE
  5
319
100
AcDbEntity
  8
268
100
AcDbLine
 62
7
  6
CONTINUOUS
 10
-47.7759990463
 20
-24.3869014213
 11
-45.5245446135
 21
-24.4
  0
LINE
  5
31A
100
AcDbEntity
  8
284
100
AcDbLine
 62
7
  6
CONTINUOUS
 10
-51.0148959542
 20
-21.6259508489
 11
-50.5181100264
 21
-21.6825524558
  0
LINE
  5
31B
100
AcDbEntity
  8
RACCORDO
100
AcDbLine
 62
7
  6
CONTINUOUS
 10
-57.7446481885
 20
-21.3121689774
 11
-52.0650694168
 21
-22.009533563
  0
LINE
  5
31C
100
AcDbEntity
  8
RACCORDO
100
AcDbLine
 62
250
  6
CONTINUOUS
 10
-57.6679596571
 20
-20.5157614044
 11
-51.9745240856
 21
-21.214827391
  0
LINE
  5
31D
100
AcDbEntity
  8
268
100
AcDbLine
 62
7
  6
CONTINUOUS
 10
-45.3995446135
 20
-23.1948185145
 11
-44.6495446135
 21
-23.6278312164
  0
LINE
  5
31E
100
AcDbEntity
  8
268
100
AcDbLine
 62
7
  6
CONTINUOUS
 10
-46.8745446135
 20
-21.858797755
 11
-48.0245446135
 21
-22.0
  0
LINE
  5
31F
100
AcDbEntity
  8
218_INCISO
100
AcDbLine
 62
7
  6
CONTINUOUS
 10
-44.5245446135
 20
-20.85
 11
-34.5245446135
 21
-20.6754493507
  0
LINE
  5
320
100
AcDbEntity
  8
218_STAMPATO
100
AcDbLine
 62
7
  6
CONTINUOUS
 10
-44.5245446135
 20
-20.85
 11
-34.5245446135
 21
-20.6754493507
  0
LINE
  5
321
100
AcDbEntity
  8
268
100
AcDbLine
 62
7
  6
CONTINUOUS
 10
-45.5245446135
 20
-22.4
 11
-35.515818078
 21
-22.3126551668
  0
LINE
  5
322
100
AcDbEntity
  8
268
100
AcDbLine
 62
250
  6
CONTINUOUS
 10
-44.5245446135
 20
-22.303393743
 11
-35.1066860522
 21
-22.2212053365
  0
LINE
  5
323
100
AcDbEntity
  8
268
100
AcDbLine
 62
250
  6
CONTINUOUS
 10
-45.5245446135
 20
-22.0499866726
 11
-44.5245446135
 21
-22.0412598048
  0
LINE
  5
324
100
AcDbEntity
  8
268
100
AcDbLine
 62
250
  6
CONTINUOUS
 10
-44.5245446135
 20
-21.2
 11
-34.8193088915
 21
-21.2
  0
LINE
  5
325
100
AcDbEntity
  8
268
100
AcDbLine
 62
7
  6
CONTINUOUS
 10
-44.5245446135
 20
-20.9
 11
-34.5245446135
 21
-20.9
  0
LINE
  5
326
100
AcDbEntity
  8
268
100
AcDbLine
 62
7
  6
CONTINUOUS
 10
-48.0245446135
 20
-22.3781828305
 11
-45.5245446135
 21
-22.4
  0
LINE
  5
327
100
AcDbEntity
  8
268
100
AcDbLine
 62
250
  6
CONTINUOUS
 10
-48.0245446135
 20
-22.0281695031
 11
-45.5245446135
 21
-22.0499866726
  0
LINE
  5
328
100
AcDbEntity
  8
268
100
AcDbLine
 62
250
  6
CONTINUOUS
 10
-44.5245446135
 20
-21.4879136641
 11
-34.6087109383
 21
-21.6609951847
  0
LINE
  5
329
100
AcDbEntity
  8
268
100
AcDbLine
 62
250
  6
CONTINUOUS
 10
-44.5245446135
 20
-21.2756902398
 11
-34.8193088915
 21
-21.4450957595
  0
LINE
  5
32A
100
AcDbEntity
  8
RACCORDO
100
AcDbLine
 62
250
  6
CONTINUOUS
 10
-58.9934127083
 20
-19.7577598764
 11
-59.0433801695
 21
-19.7557697727
  0
LINE
  5
32B
100
AcDbEntity
  8
RACCORDO
100
AcDbLine
 62
250
  6
CONTINUOUS
 10
-58.9124925016
 20
-19.7611799232
 11
-58.9934127083
 21
-19.7577598764
  0
LINE
  5
32C
100
AcDbEntity
  8
RACCORDO
100
AcDbLine
 62
250
  6
CONTINUOUS
 10
-58.740880969
 20
-19.7686598424
 11
-58.9124925016
 21
-19.7611799232
  0
LINE
  5
32D
100
AcDbEntity
  8
RACCORDO
100
AcDbLine
 62
250
  6
CONTINUOUS
 10
-58.4448669141
 20
-19.7818567763
 11
-58.740880969
 21
-19.7686598424
  0
LINE
  5
32E
100
AcDbEntity
  8
RACCORDO
100
AcDbLine
 62
250
  6
CONTINUOUS
 10
-58.2819302551
 20
-19.7892192716
 11
-58.4448669141
 21
-19.7818567763
  0
LINE
  5
32F
100
AcDbEntity
  8
284
100
AcDbLine
 62
7
  6
CONTINUOUS
 10
-51.8839442747
 20
-20.4198185939
 11
-51.2881660582
 21
-20.4876989474
  0
LINE
  5
330
100
AcDbEntity
  8
284
100
AcDbLine
 62
7
  6
CONTINUOUS
 10
-51.1310243775
 20
-19.381386704
 11
-51.7481004182
 21
-19.2275323671
  0
LINE
  5
331
100
AcDbEntity
  8
218_INCISO
100
AcDbLine
 62
7
  6
CONTINUOUS
 10
-23.507092207
 20
-19.4186688218
 11
-34.5245446135
 21
-19.6109791689
  0
LINE
  5
332
100
AcDbEntity
  8
218_STAMPATO
100
AcDbLine
 62
7
  6
CONTINUOUS
 10
-23.507092207
 20
-19.4186688218
 11
-34.5245446135
 21
-19.6109791689
  0
LWPOLYLINE
  5
333
100
AcDbEntity
  8
218_INCISO
100
AcDbPolyline
 62
250
  6
CONTINUOUS
 90
121
 70
0
 10
-23.507092207
 20
-18.9337384193
 10
-23.4941514768
 20
-18.9335194473
 10
-23.4812158393
 20
-18.9331820483
 10
-23.4682874618
 20
-18.9327262789
 10
-23.4553685107
 20
-18.9321522154
 10
-23.4424611507
 20
-18.9314599541
 10
-23.4295675444
 20
-18.930649611
 10
-23.4166898523
 20
-18.9297213218
 10
-23.4038302322
 20
-18.928675242
 10
-23.3909908388
 20
-18.927511547
 10
-23.3781738234
 20
-18.9262304317
 10
-23.3653813337
 20
-18.9248321108
 10
-23.3526155132
 20
-18.9233168186
 10
-23.3398785008
 20
-18.921684809
 10
-23.3271724308
 20
-18.9199363555
 10
-23.3144994321
 20
-18.918071751
 10
-23.3018616283
 20
-18.9160913079
 10
-23.2892611368
 20
-18.9139953581
 10
-23.2767000691
 20
-18.9117842528
 10
-23.2641805299
 20
-18.9094583625
 10
-23.2517046168
 20
-18.9070180769
 10
-23.2392744203
 20
-18.9044638048
 10
-23.2268920233
 20
-18.9017959743
 10
-23.2145595005
 20
-18.8990150325
 10
-23.2022789182
 20
-18.8961214451
 10
-23.1900523343
 20
-18.8931156972
 10
-23.1778817974
 20
-18.8899982924
 10
-23.1657693467
 20
-18.8867697529
 10
-23.1537170119
 20
-18.8834306198
 10
-23.1417268123
 20
-18.8799814525
 10
-23.1298007571
 20
-18.8764228291
 10
-23.1179408445
 20
-18.8727553457
 10
-23.1061490618
 20
-18.8689796169
 10
-23.0944273847
 20
-18.8650962754
 10
-23.0827777775
 20
-18.8611059718
 10
-23.0712021919
 20
-18.8570093748
 10
-23.0597025677
 20
-18.8528071707
 10
-23.0482808317
 20
-18.8485000637
 10
-23.0369388977
 20
-18.8440887754
 10
-23.0256786661
 20
-18.8395740451
 10
-23.0145020237
 20
-18.8349566292
 10
-23.0034108432
 20
-18.8302373014
 10
-22.992406983
 20
-18.8254168524
 10
-22.981492287
 20
-18.82049609
 10
-22.9706685839
 20
-18.8154758386
 10
-22.9599376875
 20
-18.8103569395
 10
-22.9493013956
 20
-18.8051402504
 10
-22.9387614906
 20
-18.7998266453
 10
-22.9283197385
 20
-18.7944170147
 10
-22.9179778888
 20
-18.7889122648
 10
-22.9077376745
 20
-18.7833133182
 10
-22.8976008114
 20
-18.777621113
 10
-22.887568998
 20
-18.7718366029
 10
-22.8776439152
 20
-18.7659607571
 10
-22.867827226
 20
-18.7599945603
 10
-22.8581205753
 20
-18.7539390121
 10
-22.8485255896
 20
-18.7477951272
 10
-22.8390438766
 20
-18.741563935
 10
-22.8296770249
 20
-18.7352464796
 10
-22.8204266042
 20
-18.7288438195
 10
-22.8112941643
 20
-18.7223570277
 10
-22.8022812355
 20
-18.7157871909
 10
-22.793389328
 20
-18.7091354101
 10
-22.7846199318
 20
-18.7024027997
 10
-22.7759745161
 20
-18.695590488
 10
-22.7674545296
 20
-18.6886996163
 10
-22.7590613999
 20
-18.6817313392
 10
-22.7507965334
 20
-18.6746868245
 10
-22.7426613149
 20
-18.6675672524
 10
-22.7346571074
 20
-18.6603738158
 10
-22.7267852523
 20
-18.6531077202
 10
-22.7190470684
 20
-18.6457701829
 10
-22.7114438524
 20
-18.6383624336
 10
-22.7039768783
 20
-18.6308857133
 10
-22.6966473971
 20
-18.6233412749
 10
-22.6894566371
 20
-18.6157303825
 10
-22.6824058031
 20
-18.6080543114
 10
-22.6754960766
 20
-18.6003143478
 10
-22.6687286152
 20
-18.5925117885
 10
-22.662104553
 20
-18.584647941
 10
-22.6556249999
 20
-18.5767241229
 10
-22.6492910415
 20
-18.5687416619
 10
-22.6431037392
 20
-18.5607018956
 10
-22.6370641298
 20
-18.552606171
 10
-22.6311732251
 20
-18.5444558447
 10
-22.6254320123
 20
-18.5362522824
 10
-22.6198414534
 20
-18.5279968585
 10
-22.6144024851
 20
-18.5196909564
 10
-22.6091160188
 20
-18.5113359678
 10
-22.6039829402
 20
-18.5029332927
 10
-22.5990041094
 20
-18.4944843389
 10
-22.5941803608
 20
-18.4859905222
 10
-22.5895125024
 20
-18.4774532658
 10
-22.5850013166
 20
-18.4688740002
 10
-22.5806475591
 20
-18.4602541629
 10
-22.5764519594
 20
-18.4515951982
 10
-22.5724152207
 20
-18.442898557
 10
-22.5685380193
 20
-18.4341656965
 10
-22.5648210047
 20
-18.42539808
 10
-22.5612647999
 20
-18.4165971766
 10
-22.5578700008
 20
-18.4077644609
 10
-22.5546371761
 20
-18.3989014129
 10
-22.5515668675
 20
-18.3900095177
 10
-22.5486595895
 20
-18.3810902652
 10
-22.5459158292
 20
-18.3721451499
 10
-22.5433360464
 20
-18.3631756707
 10
-22.5409206734
 20
-18.3541833304
 10
-22.5386701148
 20
-18.3451696358
 10
-22.5365847477
 20
-18.3361360972
 10
-22.5346649216
 20
-18.3270842282
 10
-22.5329109582
 20
-18.3180155456
 10
-22.5313231513
 20
-18.308931569
 10
-22.529901767
 20
-18.2998338203
 10
-22.5286470434
 20
-18.290723824
 10
-22.5275591909
 20
-18.2816031066
 10
-22.5266383916
 20
-18.2724731963
 10
-22.5258847999
 20
-18.263335623
 10
-22.525298542
 20
-18.2541919176
 10
-22.5248797162
 20
-18.2450436122
 10
-22.5246283927
 20
-18.2358922399
 10
-22.5245446135
 20
-18.2267393339
  0
LWPOLYLINE
  5
334
100
AcDbEntity
  8
218_STAMPATO
100
AcDbPolyline
 62
250
  6
CONTINUOUS
 90
121
 70
0
 10
-23.507092207
 20
-18.9337384193
 10
-23.4941514768
 20
-18.9335194473
 10
-23.4812158393
 20
-18.9331820483
 10
-23.4682874618
 20
-18.9327262789
 10
-23.4553685107
 20
-18.9321522154
 10
-23.4424611507
 20
-18.9314599541
 10
-23.4295675444
 20
-18.930649611
 10
-23.4166898523
 20
-18.9297213218
 10
-23.4038302322
 20
-18.928675242
 10
-23.3909908388
 20
-18.927511547
 10
-23.3781738234
 20
-18.9262304317
 10
-23.3653813337
 20
-18.9248321108
 10
-23.3526155132
 20
-18.9233168186
 10
-23.3398785008
 20
-18.921684809
 10
-23.3271724308
 20
-18.9199363555
 10
-23.3144994321
 20
-18.918071751
 10
-23.3018616283
 20
-18.9160913079
 10
-23.2892611368
 20
-18.9139953581
 10
-23.2767000691
 20
-18.9117842528
 10
-23.2641805299
 20
-18.9094583625
 10
-23.2517046168
 20
-18.9070180769
 10
-23.2392744203
 20
-18.9044638048
 10
-23.2268920233
 20
-18.9017959743
 10
-23.2145595005
 20
-18.8990150325
 10
-23.2022789182
 20
-18.8961214451
 10
-23.1900523343
 20
-18.8931156972
 10
-23.1778817974
 20
-18.8899982924
 10
-23.1657693467
 20
-18.8867697529
 10
-23.1537170119
 20
-18.8834306198
 10
-23.1417268123
 20
-18.8799814525
 10
-23.1298007571
 20
-18.8764228291
 10
-23.1179408445
 20
-18.8727553457
 10
-23.1061490618
 20
-18.8689796169
 10
-23.0944273847
 20
-18.8650962754
 10
-23.0827777775
 20
-18.8611059718
 10
-23.0712021919
 20
-18.8570093748
 10
-23.0597025677
 20
-18.8528071707
 10
-23.0482808317
 20
-18.8485000637
 10
-23.0369388977
 20
-18.8440887754
 10
-23.0256786661
 20
-18.8395740451
 10
-23.0145020237
 20
-18.8349566292
 10
-23.0034108432
 20
-18.8302373014
 10
-22.992406983
 20
-18.8254168524
 10
-22.981492287
 20
-18.82049609
 10
-22.9706685839
 20
-18.8154758386
 10
-22.9599376875
 20
-18.8103569395
 10
-22.9493013956
 20
-18.8051402504
 10
-22.9387614906
 20
-18.7998266453
 10
-22.9283197385
 20
-18.7944170147
 10
-22.9179778888
 20
-18.7889122648
 10
-22.9077376745
 20
-18.7833133182
 10
-22.8976008114
 20
-18.777621113
 10
-22.887568998
 20
-18.7718366029
 10
-22.8776439152
 20
-18.7659607571
 10
-22.867827226
 20
-18.7599945603
 10
-22.8581205753
 20
-18.7539390121
 10
-22.8485255896
 20
-18.7477951272
 10
-22.8390438766
 20
-18.741563935
 10
-22.8296770249
 20
-18.7352464796
 10
-22.8204266042
 20
-18.7288438195
 10
-22.8112941643
 20
-18.7223570277
 10
-22.8022812355
 20
-18.7157871909
 10
-22.793389328
 20
-18.7091354101
 10
-22.7846199318
 20
-18.7024027997
 10
-22.7759745161
 20
-18.695590488
 10
-22.7674545296
 20
-18.6886996163
 10
-22.7590613999
 20
-18.6817313392
 10
-22.7507965334
 20
-18.6746868245
 10
-22.7426613149
 20
-18.6675672524
 10
-22.7346571074
 20
-18.6603738158
 10
-22.7267852523
 20
-18.6531077202
 10
-22.7190470684
 20
-18.6457701829
 10
-22.7114438524
 20
-18.6383624336
 10
-22.7039768783
 20
-18.6308857133
 10
-22.6966473971
 20
-18.6233412749
 10
-22.6894566371
 20
-18.6157303825
 10
-22.6824058031
 20
-18.6080543114
 10
-22.6754960766
 20
-18.6003143478
 10
-22.6687286152
 20
-18.5925117885
 10
-22.662104553
 20
-18.584647941
 10
-22.6556249999
 20
-18.5767241229
 10
-22.6492910415
 20
-18.5687416619
 10
-22.6431037392
 20
-18.5607018956
 10
-22.6370641298
 20
-18.552606171
 10
-22.6311732251
 20
-18.5444558447
 10
-22.6254320123
 20
-18.5362522824
 10
-22.6198414534
 20
-18.5279968585
 10
-22.6144024851
 20
-18.5196909564
 10
-22.6091160188
 20
-18.5113359678
 10
-22.6039829402
 20
-18.5029332927
 10
-22.5990041094
 20
-18.4944843389
 10
-22.5941803608
 20
-18.4859905222
 10
-22.5895125024
 20
-18.4774532658
 10
-22.5850013166
 20
-18.4688740002
 10
-22.5806475591
 20
-18.4602541629
 10
-22.5764519594
 20
-18.4515951982
 10
-22.5724152207
 20
-18.442898557
 10
-22.5685380193
 20
-18.4341656965
 10
-22.5648210047
 20
-18.42539808
 10
-22.5612647999
 20
-18.4165971766
 10
-22.5578700008
 20
-18.4077644609
 10
-22.5546371761
 20
-18.3989014129
 10
-22.5515668675
 20
-18.3900095177
 10
-22.5486595895
 20
-18.3810902652
 10
-22.5459158292
 20
-18.3721451499
 10
-22.5433360464
 20
-18.3631756707
 10
-22.5409206734
 20
-18.3541833304
 10
-22.5386701148
 20
-18.3451696358
 10
-22.5365847477
 20
-18.3361360972
 10
-22.5346649216
 20
-18.3270842282
 10
-22.5329109582
 20
-18.3180155456
 10
-22.5313231513
 20
-18.308931569
 10
-22.529901767
 20
-18.2998338203
 10
-22.5286470434
 20
-18.290723824
 10
-22.5275591909
 20
-18.2816031066
 10
-22.5266383916
 20
-18.2724731963
 10
-22.5258847999
 20
-18.263335623
 10
-22.525298542
 20
-18.2541919176
 10
-22.5248797162
 20
-18.2450436122
 10
-22.5246283927
 20
-18.2358922399
 10
-22.5245446135
 20
-18.2267393339
  0
LINE
  5
335
100
AcDbEntity
  8
218_INCISO
100
AcDbLine
 62
250
  6
CONTINUOUS
 10
-44.5245446135
 20
-19.0856972195
 11
-23.507092207
 21
-18.9337384193
  0
LINE
  5
336
100
AcDbEntity
  8
218_STAMPATO
100
AcDbLine
 62
250
  6
CONTINUOUS
 10
-44.5245446135
 20
-19.0856972195
 11
-23.507092207
 21
-18.9337384193
  0
LINE
  5
337
100
AcDbEntity
  8
268
100
AcDbLine
 62
7
  6
CONTINUOUS
 10
-47.0675440623
 20
-18.3817943769
 11
-51.5245446135
 21
-18.3039971429
  0
LWPOLYLINE
  5
338
100
AcDbEntity
  8
RACCORDO
100
AcDbPolyline
 62
250
  6
CONTINUOUS
 90
3
 70
0
 10
-59.0433801695
 20
-19.7557697727
 10
-59.0560426692
 20
-19.7553397129
 10
-59.0602828642
 20
-19.75529373
  0
LINE
  5
339
100
AcDbEntity
  8
340
100
AcDbLine
 62
2
  6
CONTINUOUS
 10
-51.5692393404
 20
-17.6576888352
 11
-51.5245446135
 21
-17.6627811561
  0
LWPOLYLINE
  5
33A
100
AcDbEntity
  8
RACCORDO
100
AcDbPolyline
 62
250
  6
CONTINUOUS
 90
22
 70
0
 10
-58.2819302551
 20
-19.7892192716
 10
-58.2823957111
 20
-19.8391821529
 10
-58.2793779153
 20
-19.8886266912
 10
-58.2728768678
 20
-19.9375528865
 10
-58.2628267629
 20
-19.9862238009
 10
-58.2492934063
 20
-20.0343763723
 10
-58.2324742147
 20
-20.081221414
 10
-58.21231593
 20
-20.126721826
 10
-58.1888718105
 20
-20.1709147081
 10
-58.162499047
 20
-20.2131221733
 10
-58.1331579646
 20
-20.2533071588
 10
-58.1008882383
 20
-20.2915067273
 10
-58.0661660844
 20
-20.3271541793
 10
-58.0289455545
 20
-20.3602180618
 10
-57.9892725971
 20
-20.3907298278
 10
-57.9477612738
 20
-20.4182171371
 10
-57.9043702019
 20
-20.4426307401
 10
-57.8591407641
 20
-20.4640198864
 10
-57.8128111698
 20
-20.4820599851
 10
-57.7656274888
 20
-20.4966428391
 10
-57.7173436512
 20
-20.5078766456
 10
-57.6679596571
 20
-20.5157614044
  0
LWPOLYLINE
  5
33B
100
AcDbEntity
  8
RACCORDO
100
AcDbPolyline
 62
250
  6
CONTINUOUS
 90
13
 70
0
 10
-53.6750741138
 20
20.6446381503
 10
-54.2688757699
 20
17.3023707858
 10
-54.8246016469
 20
13.9544422067
 10
-55.3422517448
 20
10.600852413
 10
-55.8218831547
 20
7.2411668946
 10
-56.2634387854
 20
3.8758201616
 10
-56.6667473637
 20
0.5061157439
 10
-57.031793944
 20
-2.8679487303
 10
-57.3585934718
 20
-6.2463708892
 10
-57.6470195105
 20
-9.6278400874
 10
-57.8970299145
 20
-13.0119194429
 10
-58.1086668293
 20
-16.3990458376
 10
-58.2819302551
 20
-19.7892192716
  0
LINE
  5
33C
100
AcDbEntity
  8
218_INCISO
100
AcDbLine
 62
250
  6
CONTINUOUS
 10
-25.8245446135
 20
-13.9571429014
 11
-24.5245446135
 21
-13.6785714507
  0
LWPOLYLINE
  5
33D
100
AcDbEntity
  8
218_INCISO
100
AcDbPolyline
 62
250
  6
CONTINUOUS
 90
17
 70
0
 10
-29.7038969631
 20
-15.999579326
 10
-29.2670179311
 20
-15.9567364372
 10
-28.8467794857
 20
-15.8298396431
 10
-28.4591883788
 20
-15.6237224033
 10
-28.1134464371
 20
-15.3406927962
 10
-27.8348161942
 20
-15.0014311158
 10
-27.6273786571
 20
-14.6145028129
 10
-27.4990350571
 20
-14.1946458665
 10
-27.4546602589
 20
-13.75
 10
-27.4974966225
 20
-13.3130544191
 10
-27.6243740896
 20
-12.8927519596
 10
-27.8304599368
 20
-12.5051018116
 10
-28.1134464371
 20
-12.1593072038
 10
-28.4526564463
 20
-11.8806345177
 10
-28.8395258181
 20
-11.673165382
 10
-29.2593188183
 20
-11.5448022317
 10
-29.7038971597
 20
-11.500420674
  0
LINE
  5
33E
100
AcDbEntity
  8
218_INCISO
100
AcDbLine
 62
7
  6
CONTINUOUS
 10
-22.2506913363
 20
-15.1760409428
 11
-20.7983978906
 21
-15.0489817302
  0
LINE
  5
33F
100
AcDbEntity
  8
218_STAMPATO
100
AcDbLine
 62
7
  6
CONTINUOUS
 10
-22.2506913363
 20
-15.1760409428
 11
-20.7983978906
 21
-15.0489817302
  0
LINE
  5
340
100
AcDbEntity
  8
218_INCISO
100
AcDbLine
 62
250
  6
CONTINUOUS
 10
-44.5245446135
 20
-17.6716990487
 11
-23.507092207
 21
-17.5197402485
  0
LINE
  5
341
100
AcDbEntity
  8
218_STAMPATO
100
AcDbLine
 62
250
  6
CONTINUOUS
 10
-44.5245446135
 20
-17.6716990487
 11
-23.507092207
 21
-17.5197402485
  0
LINE
  5
342
100
AcDbEntity
  8
218_INCISO
100
AcDbLine
 62
250
  6
CONTINUOUS
 10
-23.507092207
 20
-17.5197402485
 11
-22.5391978636
 21
-17.5197402485
  0
LINE
  5
343
100
AcDbEntity
  8
218_STAMPATO
100
AcDbLine
 62
250
  6
CONTINUOUS
 10
-23.507092207
 20
-17.5197402485
 11
-22.5391978636
 21
-17.5197402485
  0
LINE
  5
344
100
AcDbEntity
  8
218_INCISO
100
AcDbLine
 62
250
  6
CONTINUOUS
 10
-22.5245446135
 20
-17.6289380206
 11
-22.5400890295
 21
-17.6288566295
  0
LINE
  5
345
100
AcDbEntity
  8
218_STAMPATO
100
AcDbLine
 62
250
  6
CONTINUOUS
 10
-22.5245446135
 20
-17.6289380206
 11
-22.5400890295
 21
-17.6288566295
  0
LINE
  5
346
100
AcDbEntity
  8
268
100
AcDbLine
 62
250
  6
CONTINUOUS
 10
-47.190573601
 20
-17.3797991932
 11
-51.5245446135
 21
-17.3041494477
  0
LWPOLYLINE
  5
347
100
AcDbEntity
  8
RACCORDO
100
AcDbPolyline
 62
250
  6
CONTINUOUS
 90
16
 70
0
 10
-52.9134031236
 20
21.214445722
 10
-52.9045490858
 20
21.2975843945
 10
-52.8955641143
 20
21.3797866433
 10
-52.8865466195
 20
21.4601521148
 10
-52.8775953686
 20
21.537800568
 10
-52.8688084046
 20
21.6118815081
 10
-52.8602819726
 20
21.6815835034
 10
-52.8521094634
 20
21.7461430899
 10
-52.844380393
 20
21.8048531153
 10
-52.8371794225
 20
21.8570704827
 10
-52.8305854266
 20
21.9022232257
 10
-52.8246706331
 20
21.939816749
 10
-52.8194998325
 20
21.9694392438
 10
-52.8151296642
 20
21.9907662243
 10
-52.8116079971
 20
22.0035640725
 10
-52.808973407
 20
22.0076925863
  0
LWPOLYLINE
  5
348
100
AcDbEntity
  8
RACCORDO
100
AcDbPolyline
 62
250
  6
CONTINUOUS
 90
16
 70
0
 10
-57.6679596571
 20
-20.5157614044
 10
-57.6780347866
 20
-20.5987618791
 10
-57.687771664
 20
-20.6808792133
 10
-57.697063641
 20
-20.7612139737
 10
-57.7058089422
 20
-20.8388862515
 10
-57.7139117803
 20
-20.9130453005
 10
-57.7212834046
 20
-20.9828788544
 10
-57.7278430735
 20
-21.0476220247
 10
-57.7335189388
 20
-21.1065656778
 10
-57.7382488326
 20
-21.1590642022
 10
-57.7419809482
 20
-21.2045425803
 10
-57.7446744077
 20
-21.2425026862
 10
-57.7462997097
 20
-21.2725287419
 10
-57.7468390523
 20
-21.2942918713
 10
-57.746286528
 20
-21.3075537022
 10
-57.7446481885
 20
-21.3121689774
  0
LINE
  5
349
100
AcDbEntity
  8
218_INCISO
100
AcDbLine
 62
250
  6
CONTINUOUS
 10
-39.0410521253
 20
16.0
 11
-41.9401698241
 21
14.991935
  0
LINE
  5
34A
100
AcDbEntity
  8
218_INCISO
100
AcDbLine
 62
250
  6
CONTINUOUS
 10
-39.6555039145
 20
15.164584
 11
-39.0410521253
 21
15.373574
  0
LINE
  5
34B
100
AcDbEntity
  8
218_INCISO
100
AcDbLine
 62
250
  6
CONTINUOUS
 10
-41.3860146637
 20
14.606449
 11
-40.1372901242
 21
15.007869
  0
LINE
  5
34C
100
AcDbEntity
  8
218_INCISO
100
AcDbLine
 62
250
  6
CONTINUOUS
 10
-24.5245446135
 20
-16.0
 11
-25.8245446135
 21
-16.0
  0
LINE
  5
34D
100
AcDbEntity
  8
218_INCISO
100
AcDbLine
 62
250
  6
CONTINUOUS
 10
-24.5245446135
 20
-15.35
 11
-25.8245446135
 21
-15.35
  0
LINE
  5
34E
100
AcDbEntity
  8
218_INCISO
100
AcDbLine
 62
250
  6
CONTINUOUS
 10
-25.4531160642
 20
-14.9785714507
 11
-25.6388303388
 21
-14.9785714507
  0
LINE
  5
34F
100
AcDbEntity
  8
218_INCISO
100
AcDbLine
 62
250
  6
CONTINUOUS
 10
-24.7102589075
 20
-14.3285714507
 11
-24.8959732015
 21
-14.3285714507
  0
LINE
  5
350
100
AcDbEntity
  8
284
100
AcDbLine
 62
7
  6
CONTINUOUS
 10
-51.2881660582
 20
-20.4876989474
 11
-51.0148959542
 21
-21.6259508489
  0
LWPOLYLINE
  5
351
100
AcDbEntity
  8
0
100
AcDbPolyline
 62
7
  6
CONTINUOUS
 90
3
 70
0
 43
0.3500000087
 10
-38.7574815735
 20
43.5339636658
 10
-38.8289089966
 20
43.3196771332
 10
-38.9717638428
 20
43.0339631775
  0
LINE
  5
352
100
AcDbEntity
  8
218_INCISO
100
AcDbLine
 62
250
  6
CONTINUOUS
 10
-37.254223532
 20
15.871428442
 11
-36.9828363166
 21
16.007142663
  0
LWPOLYLINE
  5
353
100
AcDbEntity
  8
218_INCISO
100
AcDbPolyline
 62
250
  6
CONTINUOUS
 90
17
 70
0
 10
-29.7038969631
 20
-11.500420674
 10
-30.1407759951
 20
-11.5432635628
 10
-30.5610144404
 20
-11.6701603569
 10
-30.9486055474
 20
-11.8762775967
 10
-31.2943474891
 20
-12.1593072038
 10
-31.572977732
 20
-12.4985688842
 10
-31.7804152691
 20
-12.8854971871
 10
-31.9087588691
 20
-13.3053541335
 10
-31.9531336672
 20
-13.75
 10
-31.9102973036
 20
-14.1869455809
 10
-31.7834198366
 20
-14.6072480404
 10
-31.5773339894
 20
-14.9948981884
 10
-31.2943474891
 20
-15.3406927962
 10
-30.9551374798
 20
-15.6193654823
 10
-30.568268108
 20
-15.826834618
 10
-30.1484751079
 20
-15.9551977683
 10
-29.7038967664
 20
-15.999579326
  0
LINE
  5
354
100
AcDbEntity
  8
218_INCISO
100
AcDbLine
 62
250
  6
CONTINUOUS
 10
-31.3388048405
 20
-13.75
 11
-28.0689890857
 21
-13.75
  0
LINE
  5
355
100
AcDbEntity
  8
218_INCISO
100
AcDbLine
 62
250
  6
CONTINUOUS
 10
-41.9246826135
 20
-13.171006
 11
-39.0245446135
 21
-13.171014
  0
LINE
  5
356
100
AcDbEntity
  8
218_INCISO
100
AcDbLine
 62
250
  6
CONTINUOUS
 10
-39.0245516135
 20
-12.590992
 11
-41.9246826135
 21
-12.590985
  0
LINE
  5
357
100
AcDbEntity
  8
218_INCISO
100
AcDbLine
 62
250
  6
CONTINUOUS
 10
-41.9246826135
 20
-14.137714
 11
-39.9277856135
 21
-14.778839
  0
LINE
  5
358
100
AcDbEntity
  8
218_INCISO
100
AcDbLine
 62
250
  6
CONTINUOUS
 10
-39.0245516135
 20
-14.488824
 11
-41.9246826135
 21
-13.557685
  0
LINE
  5
359
100
AcDbEntity
  8
268
100
AcDbLine
 62
7
  6
CONTINUOUS
 10
-51.5245446135
 20
-18.3039971429
 11
-51.5245446135
 21
-17.3041494477
  0
LWPOLYLINE
  5
35A
100
AcDbEntity
  8
268
100
AcDbPolyline
 62
7
  6
CONTINUOUS
 90
6
 70
0
 10
-34.6060730159
 20
21.6637626605
 10
-34.6034849965
 20
21.6665474971
 10
-34.6009468802
 20
21.6693496943
 10
-34.5984586669
 20
21.6721692523
 10
-34.5960203568
 20
21.675006171
 10
-34.5936319497
 20
21.6778604504
  0
LWPOLYLINE
  5
35B
100
AcDbEntity
  8
268
100
AcDbPolyline
 62
7
  6
CONTINUOUS
 90
5
 70
0
 10
-34.6060730159
 20
21.6637626605
 10
-34.6209647542
 20
21.6482000547
 10
-34.6336741087
 20
21.635095695
 10
-34.6467687464
 20
21.6216821055
 10
-34.6737960776
 20
21.5938575456
  0
LINE
  5
35C
100
AcDbEntity
  8
268
100
AcDbLine
 62
7
  6
CONTINUOUS
 10
-34.6737960776
 20
21.5938575456
 11
-34.7305728104
 21
21.5356475779
  0
LWPOLYLINE
  5
35D
100
AcDbEntity
  8
268
100
AcDbPolyline
 62
7
  6
CONTINUOUS
 90
4
 70
0
 10
-34.7305728104
 20
21.5356475779
 10
-34.774653359
 20
21.4906038999
 10
-34.7895263553
 20
21.4754861267
 10
-34.8193088915
 20
21.4450957595
  0
LINE
  5
35E
100
AcDbEntity
  8
218_INCISO
100
AcDbLine
 62
250
  6
CONTINUOUS
 10
-35.8972873702
 20
15.192857337
 11
-36.1686746139
 21
15.057142663
  0
LINE
  5
35F
100
AcDbEntity
  8
218_INCISO
100
AcDbLine
 62
250
  6
CONTINUOUS
 10
-37.254223532
 20
13.2928571105
 11
-36.9828363166
 21
13.4285713315
  0
LINE
  5
360
100
AcDbEntity
  8
218_INCISO
100
AcDbLine
 62
250
  6
CONTINUOUS
 10
-41.9401698241
 20
11.216139
 11
-39.6427557986
 21
12.328754
  0
LINE
  5
361
100
AcDbEntity
  8
218_INCISO
100
AcDbLine
 62
250
  6
CONTINUOUS
 10
-39.0410521253
 20
12.027546
 11
-41.4674168622
 21
10.87477
  0
LINE
  5
362
100
AcDbEntity
  8
218_INCISO
100
AcDbLine
 62
250
  6
CONTINUOUS
 10
-22.5245446135
 20
-10.3710619794
 11
-22.5391978636
 21
-10.3711387043
  0
LINE
  5
363
100
AcDbEntity
  8
218_STAMPATO
100
AcDbLine
 62
250
  6
CONTINUOUS
 10
-22.5245446135
 20
-10.3710619794
 11
-22.5391978636
 21
-10.3711387043
  0
LINE
  5
364
100
AcDbEntity
  8
218_INCISO
100
AcDbLine
 62
250
  6
CONTINUOUS
 10
-41.9246826135
 20
-12.010985
 11
-39.0245516135
 21
-12.010985
  0
LINE
  5
365
100
AcDbEntity
  8
218_INCISO
100
AcDbLine
 62
250
  6
CONTINUOUS
 10
-25.4531160642
 20
-11.5428570986
 11
-25.6388303388
 21
-11.5428570986
  0
LINE
  5
366
100
AcDbEntity
  8
218_INCISO
100
AcDbLine
 62
250
  6
CONTINUOUS
 10
-39.0245516135
 20
-11.430963
 11
-40.9369936135
 21
-11.430963
  0
LINE
  5
367
100
AcDbEntity
  8
218_INCISO
100
AcDbLine
 62
250
  6
CONTINUOUS
 10
-25.4531160642
 20
-10.5214283943
 11
-25.6388303388
 21
-10.5214283943
  0
LINE
  5
368
100
AcDbEntity
  8
218_INCISO
100
AcDbLine
 62
250
  6
CONTINUOUS
 10
-41.9246826135
 20
-10.051012
 11
-40.0360136135
 21
-10.59258
  0
LINE
  5
369
100
AcDbEntity
  8
268
100
AcDbLine
 62
7
  6
CONTINUOUS
 10
-34.7598616311
 20
-21.5056938008
 11
-34.8044241731
 21
-21.4603167466
  0
LINE
  5
36A
100
AcDbEntity
  8
268
100
AcDbLine
 62
7
  6
CONTINUOUS
 10
-34.8044241731
 20
-21.4603167466
 11
-34.8193088915
 21
-21.4450957595
  0
LINE
  5
36B
100
AcDbEntity
  8
268
100
AcDbLine
 62
7
  6
CONTINUOUS
 10
-34.6737960776
 20
-21.5938575456
 11
-34.7598616311
 21
-21.5056938008
  0
LWPOLYLINE
  5
36C
100
AcDbEntity
  8
268
100
AcDbPolyline
 62
7
  6
CONTINUOUS
 90
3
 70
0
 10
-34.6336741087
 20
-21.635095695
 10
-34.6601569351
 20
-21.6079244404
 10
-34.6737960776
 20
-21.5938575456
  0
LINE
  5
36D
100
AcDbEntity
  8
268
100
AcDbLine
 62
7
  6
CONTINUOUS
 10
-34.6209647542
 20
-21.6482000547
 11
-34.6336741087
 21
-21.635095695
  0
LWPOLYLINE
  5
36E
100
AcDbEntity
  8
268
100
AcDbPolyline
 62
7
  6
CONTINUOUS
 90
7
 70
0
 10
-34.6209647542
 20
-21.6482000547
 10
-34.6060730159
 20
-21.6637626605
 10
-34.6034849965
 20
-21.6665474971
 10
-34.6009468802
 20
-21.6693496943
 10
-34.5984586669
 20
-21.6721692523
 10
-34.5960203568
 20
-21.675006171
 10
-34.5936319497
 20
-21.6778604504
  0
LINE
  5
36F
100
AcDbEntity
  8
268
100
AcDbLine
 62
7
  6
CONTINUOUS
 10
-48.0245446135
 20
24.1369056521
 11
-48.0245446135
 21
23.8443375673
  0
LINE
  5
370
100
AcDbEntity
  8
268
100
AcDbLine
 62
7
  6
CONTINUOUS
 10
-48.0245446135
 20
-22.0
 11
-48.0245446135
 21
-22.3781828305
  0
LINE
  5
371
100
AcDbEntity
  8
268
100
AcDbLine
 62
7
  6
CONTINUOUS
 10
-48.0245446135
 20
-23.8443375673
 11
-48.0245446135
 21
-24.1369056521
  0
LINE
  5
372
100
AcDbEntity
  8
268
100
AcDbLine
 62
7
  6
CONTINUOUS
 10
-48.0245446135
 20
22.0
 11
-48.0245446135
 21
22.3781828305
  0
LINE
  5
373
100
AcDbEntity
  8
RACCORDO
100
AcDbLine
 62
7
  6
CONTINUOUS
 10
-52.0650694168
 20
-22.009533563
 11
-47.1180889751
 21
21.40955653
  0
LINE
  5
374
100
AcDbEntity
  8
284
100
AcDbLine
 62
7
  6
CONTINUOUS
 10
-50.5181100264
 20
-21.6825524558
 11
-50.3793744174
 21
-20.464885644
  0
LINE
  5
375
100
AcDbEntity
  8
268
100
AcDbLine
 62
7
  6
CONTINUOUS
 10
-46.8745446135
 20
19.9536487485
 11
-49.3245446135
 21
0.0
  0
LINE
  5
376
100
AcDbEntity
  8
218_INCISO
100
AcDbLine
 62
250
  6
CONTINUOUS
 10
-37.5256107474
 20
15.6
 11
-37.254223532
 21
15.871428442
  0
LINE
  5
377
100
AcDbEntity
  8
218_INCISO
100
AcDbLine
 62
250
  6
CONTINUOUS
 10
-35.8972873702
 20
12.614285779
 11
-36.1686746139
 21
12.4785713315
  0
LINE
  5
378
100
AcDbEntity
  8
218_INCISO
100
AcDbLine
 62
250
  6
CONTINUOUS
 10
-39.0410521253
 20
9.975074
 11
-41.9401698241
 21
8.9669
  0
LINE
  5
379
100
AcDbEntity
  8
218_INCISO
100
AcDbLine
 62
250
  6
CONTINUOUS
 10
-39.6555039145
 20
9.139549
 11
-39.0410521253
 21
9.348431
  0
LINE
  5
37A
100
AcDbEntity
  8
218_INCISO
100
AcDbLine
 62
250
  6
CONTINUOUS
 10
-41.3861786138
 20
8.581471
 11
-40.1372901242
 21
8.982943
  0
LINE
  5
37B
100
AcDbEntity
  8
218_INCISO
100
AcDbLine
 62
250
  6
CONTINUOUS
 10
-40.9369936135
 20
-9.754205
 11
-39.0245516135
 21
-9.754197
  0
LINE
  5
37C
100
AcDbEntity
  8
218_INCISO
100
AcDbLine
 62
250
  6
CONTINUOUS
 10
-25.4531160642
 20
-9.5
 11
-25.6388303388
 21
-9.5
  0
LINE
  5
37D
100
AcDbEntity
  8
218_INCISO
100
AcDbLine
 62
250
  6
CONTINUOUS
 10
-28.6017037785
 20
-9.482759
 11
-27.7973518479
 21
-9.482759
  0
LINE
  5
37E
100
AcDbEntity
  8
218_INCISO
100
AcDbLine
 62
250
  6
CONTINUOUS
 10
-39.0245516135
 20
-9.174176
 11
-41.9246826135
 21
-9.174176
  0
LINE
  5
37F
100
AcDbEntity
  8
218_INCISO
100
AcDbLine
 62
250
  6
CONTINUOUS
 10
-25.1745446135
 20
-9.1285716057
 11
-24.7102589075
 21
-9.1285716057
  0
LINE
  5
380
100
AcDbEntity
  8
218_INCISO
100
AcDbLine
 62
250
  6
CONTINUOUS
 10
-29.1130429841
 20
-8.551724
 11
-29.9748484098
 21
-8.551724
  0
LINE
  5
381
100
AcDbEntity
  8
218_INCISO
100
AcDbLine
 62
250
  6
CONTINUOUS
 10
-24.7102589075
 20
-8.4785716057
 11
-25.0816874761
 21
-8.4785716057
  0
LINE
  5
382
100
AcDbEntity
  8
218_INCISO
100
AcDbLine
 62
250
  6
CONTINUOUS
 10
-24.5245446135
 20
-13.1214287043
 11
-25.8245446135
 21
-12.8428570986
  0
LINE
  5
383
100
AcDbEntity
  8
218_INCISO
100
AcDbLine
 62
250
  6
CONTINUOUS
 10
-39.0245596135
 20
-10.30258
 11
-40.9369936135
 21
-9.754205
  0
LINE
  5
384
100
AcDbEntity
  8
218_INCISO
100
AcDbLine
 62
250
  6
CONTINUOUS
 10
-24.5245446135
 20
-13.6785714507
 11
-25.4531160642
 21
-13.4
  0
LINE
  5
385
100
AcDbEntity
  8
218_INCISO
100
AcDbLine
 62
250
  6
CONTINUOUS
 10
-39.0245516135
 20
-8.787497
 11
-41.9246896135
 21
-7.856372
  0
LINE
  5
386
100
AcDbEntity
  8
268
100
AcDbLine
 62
7
  6
CONTINUOUS
 10
-49.3245446135
 20
0.0
 11
-46.8745446135
 21
-19.9536487485
  0
LINE
  5
387
100
AcDbEntity
  8
268
100
AcDbLine
 62
7
  6
CONTINUOUS
 10
-47.0245446135
 20
-23.1226497308
 11
-47.0245446135
 21
-22.3869096983
  0
LINE
  5
388
100
AcDbEntity
  8
268
100
AcDbLine
 62
7
  6
CONTINUOUS
 10
-47.0245446135
 20
22.3869096983
 11
-47.0245446135
 21
23.1226497308
  0
LINE
  5
389
100
AcDbEntity
  8
268
100
AcDbLine
 62
7
  6
CONTINUOUS
 10
-46.8745446135
 20
21.858797755
 11
-46.8745446135
 21
19.9536487485
  0
LINE
  5
38A
100
AcDbEntity
  8
268
100
AcDbLine
 62
7
  6
CONTINUOUS
 10
-46.8745446135
 20
-19.9536487485
 11
-46.8745446135
 21
-21.858797755
  0
LINE
  5
38B
100
AcDbEntity
  8
218_INCISO
100
AcDbLine
 62
250
  6
CONTINUOUS
 10
-35.6259001266
 20
15.464285779
 11
-35.8972873702
 21
15.192857337
  0
LINE
  5
38C
100
AcDbEntity
  8
218_INCISO
100
AcDbLine
 62
250
  6
CONTINUOUS
 10
-37.5256107474
 20
13.0214286685
 11
-37.254223532
 21
13.2928571105
  0
LINE
  5
38D
100
AcDbEntity
  8
218_INCISO
100
AcDbLine
 62
250
  6
CONTINUOUS
 10
-35.6259001266
 20
12.885714221
 11
-35.8972873702
 21
12.614285779
  0
LINE
  5
38E
100
AcDbEntity
  8
218_INCISO
100
AcDbLine
 62
250
  6
CONTINUOUS
 10
-25.827392714
 20
15.3199996281
 11
-25.2703347457
 21
15.654285183
  0
LINE
  5
38F
100
AcDbEntity
  8
218_INCISO
100
AcDbLine
 62
250
  6
CONTINUOUS
 10
-29.7737606771
 20
-7.994253
 11
-29.3141307168
 21
-7.994253
  0
LINE
  5
390
100
AcDbEntity
  8
218_INCISO
100
AcDbLine
 62
250
  6
CONTINUOUS
 10
-25.4531160642
 20
-7.4571425915
 11
-25.6388303388
 21
-7.4571425915
  0
LINE
  5
391
100
AcDbEntity
  8
218_INCISO
100
AcDbLine
 62
250
  6
CONTINUOUS
 10
-29.1130429841
 20
-7.045977
 11
-29.9748484098
 21
-7.045977
  0
LINE
  5
392
100
AcDbEntity
  8
218_INCISO
100
AcDbLine
 62
250
  6
CONTINUOUS
 10
-39.0245596135
 20
-5.958503
 11
-41.9246896135
 21
-5.958503
  0
LINE
  5
393
100
AcDbEntity
  8
218_INCISO
100
AcDbLine
 62
7
  6
CONTINUOUS
 10
-22.2506913363
 20
-9.0239590572
 11
-20.7983978906
 21
-9.1510182698
  0
LINE
  5
394
100
AcDbEntity
  8
218_STAMPATO
100
AcDbLine
 62
7
  6
CONTINUOUS
 10
-22.2506913363
 20
-9.0239590572
 11
-20.7983978906
 21
-9.1510182698
  0
LINE
  5
395
100
AcDbEntity
  8
218_INCISO
100
AcDbLine
 62
250
  6
CONTINUOUS
 10
-41.0214486135
 20
-7.56635
 11
-40.1459096135
 21
-7.84744
  0
LINE
  5
396
100
AcDbEntity
  8
218_INCISO
100
AcDbLine
 62
250
  6
CONTINUOUS
 10
-39.5948876135
 20
-8.024362
 11
-39.0245596135
 21
-8.207475
  0
LINE
  5
397
100
AcDbEntity
  8
268
100
AcDbLine
 62
7
  6
CONTINUOUS
 10
-45.5245446135
 20
-22.0499866726
 11
-45.5245446135
 21
-24.4
  0
LINE
  5
398
100
AcDbEntity
  8
268
100
AcDbLine
 62
7
  6
CONTINUOUS
 10
-45.5245446135
 20
22.0499866726
 11
-45.5245446135
 21
24.4
  0
LINE
  5
399
100
AcDbEntity
  8
268
100
AcDbLine
 62
7
  6
CONTINUOUS
 10
-44.5245446135
 20
24.1456323968
 11
-44.5245446135
 21
23.8443375673
  0
LINE
  5
39A
100
AcDbEntity
  8
218_INCISO
100
AcDbLine
 62
7
  6
CONTINUOUS
 10
-44.5245446135
 20
17.6716990487
 11
-44.5245446135
 21
-17.6716990487
  0
LINE
  5
39B
100
AcDbEntity
  8
218_STAMPATO
100
AcDbLine
 62
7
  6
CONTINUOUS
 10
-44.5245446135
 20
17.6716990487
 11
-44.5245446135
 21
-17.6716990487
  0
LINE
  5
39C
100
AcDbEntity
  8
268
100
AcDbLine
 62
7
  6
CONTINUOUS
 10
-44.5245446135
 20
-23.8443375673
 11
-44.5245446135
 21
-24.1456323968
  0
LINE
  5
39D
100
AcDbEntity
  8
268
100
AcDbLine
 62
7
  6
CONTINUOUS
 10
-44.5245446135
 20
-22.3912731322
 11
-44.5245446135
 21
22.3912731322
  0
LINE
  5
39E
100
AcDbEntity
  8
218_INCISO
100
AcDbLine
 62
250
  6
CONTINUOUS
 10
-27.7973518479
 20
-5.517241
 11
-28.6017037785
 21
-5.517241
  0
LINE
  5
39F
100
AcDbEntity
  8
218_INCISO
100
AcDbLine
 62
250
  6
CONTINUOUS
 10
-40.6824386135
 20
-5.386471
 11
-41.3881676135
 21
-5.386478
  0
LINE
  5
3A0
100
AcDbEntity
  8
268
100
AcDbLine
 62
250
  6
CONTINUOUS
 10
-50.149864985
 20
-5.2
 11
-48.6860648968
 21
-5.2
  0
LINE
  5
3A1
100
AcDbEntity
  8
268
100
AcDbLine
 62
7
  6
CONTINUOUS
 10
-50.1270778633
 20
-5.0
 11
-48.710621809
 21
-5.0
  0
LINE
  5
3A2
100
AcDbEntity
  8
268
100
AcDbLine
 62
250
  6
CONTINUOUS
 10
-50.1042907417
 20
-4.8
 11
-48.7351787211
 21
-4.8
  0
LINE
  5
3A3
100
AcDbEntity
  8
218_INCISO
100
AcDbLine
 62
250
  6
CONTINUOUS
 10
-40.1459166135
 20
-5.378409
 11
-39.0245596135
 21
-5.378474
  0
LINE
  5
3A4
100
AcDbEntity
  8
218_INCISO
100
AcDbLine
 62
250
  6
CONTINUOUS
 10
-41.9401698241
 20
14.991935
 11
-41.9401698241
 21
14.252884
  0
LINE
  5
3A5
100
AcDbEntity
  8
218_INCISO
100
AcDbLine
 62
250
  6
CONTINUOUS
 10
-41.9401698241
 20
8.9669
 11
-41.9401698241
 21
8.227849
  0
LINE
  5
3A6
100
AcDbEntity
  8
218_INCISO
100
AcDbLine
 62
250
  6
CONTINUOUS
 10
-41.9401698241
 20
3.58822
 11
-41.9401698241
 21
2.70079
  0
LINE
  5
3A7
100
AcDbEntity
  8
218_INCISO
100
AcDbLine
 62
250
  6
CONTINUOUS
 10
-41.9401698241
 20
5.171133
 11
-41.9401698241
 21
5.793739
  0
LINE
  5
3A8
100
AcDbEntity
  8
218_INCISO
100
AcDbLine
 62
250
  6
CONTINUOUS
 10
-41.9401698241
 20
10.292325
 11
-41.9401698241
 21
11.216139
  0
LINE
  5
3A9
100
AcDbEntity
  8
218_INCISO
100
AcDbLine
 62
250
  6
CONTINUOUS
 10
-41.9401698241
 20
12.328754
 11
-41.9401698241
 21
12.911198
  0
LINE
  5
3AA
100
AcDbEntity
  8
218_INCISO
100
AcDbLine
 62
250
  6
CONTINUOUS
 10
-41.9246896135
 20
-7.856372
 11
-41.9246896135
 21
-7.276321
  0
LINE
  5
3AB
100
AcDbEntity
  8
218_INCISO
100
AcDbLine
 62
250
  6
CONTINUOUS
 10
-41.9246896135
 20
-5.958503
 11
-41.9246896135
 21
-4.600289
  0
LINE
  5
3AC
100
AcDbEntity
  8
218_INCISO
100
AcDbLine
 62
250
  6
CONTINUOUS
 10
-41.9246826135
 20
-9.174176
 11
-41.9246826135
 21
-10.051012
  0
LINE
  5
3AD
100
AcDbEntity
  8
218_INCISO
100
AcDbLine
 62
250
  6
CONTINUOUS
 10
-41.9246826135
 20
-11.134148
 11
-41.9246826135
 21
-12.010985
  0
LINE
  5
3AE
100
AcDbEntity
  8
218_INCISO
100
AcDbLine
 62
250
  6
CONTINUOUS
 10
-41.9246826135
 20
-12.590985
 11
-41.9246826135
 21
-13.171006
  0
LINE
  5
3AF
100
AcDbEntity
  8
218_INCISO
100
AcDbLine
 62
250
  6
CONTINUOUS
 10
-41.9246826135
 20
-13.557685
 11
-41.9246826135
 21
-14.137714
  0
LINE
  5
3B0
100
AcDbEntity
  8
218_INCISO
100
AcDbLine
 62
250
  6
CONTINUOUS
 10
-41.9246826135
 20
-15.419971
 11
-41.9246826135
 21
-16.0
  0
LWPOLYLINE
  5
3B1
100
AcDbEntity
  8
0
100
AcDbPolyline
 62
7
  6
CONTINUOUS
 90
4
 70
0
 43
0.3500000087
 10
-41.828907663
 20
43.6768227753
 10
-41.828907663
 20
44.5339646423
 10
-41.4003388611
 20
44.9625377075
 10
-40.7574792633
 20
44.9625377075
  0
LWPOLYLINE
  5
3B2
100
AcDbEntity
  8
218_INCISO
100
AcDbPolyline
 62
250
  6
CONTINUOUS
 90
58
 70
0
 10
-41.4557654063
 20
3.7078474025
 10
-41.4506480034
 20
3.7503265096
 10
-41.4480139751
 20
3.7715537031
 10
-41.4452368179
 20
3.7927465505
 10
-41.4422244323
 20
3.8139075559
 10
-41.4400370997
 20
3.8279989199
 10
-41.4376741509
 20
3.8420616581
 10
-41.435106783
 20
3.8560877855
 10
-41.43302567
 20
3.8666053009
 10
-41.4308085018
 20
3.8770950968
 10
-41.4284366913
 20
3.8875845394
 10
-41.4258775057
 20
3.8980298647
 10
-41.4230784059
 20
3.908409262
 10
-41.4199543077
 20
3.9186958965
 10
-41.417658805
 20
3.9254490916
 10
-41.4151575219
 20
3.9321283927
 10
-41.4124279308
 20
3.9387161066
 10
-41.4102226733
 20
3.9435751787
 10
-41.4078692149
 20
3.9483637397
 10
-41.4053598111
 20
3.9530796097
 10
-41.4027047539
 20
3.9577155666
 10
-41.3989438565
 20
3.9637920978
 10
-41.3949639973
 20
3.9697292501
 10
-41.3907877432
 20
3.9755304314
 10
-41.386427987
 20
3.9812103688
 10
-41.3819094452
 20
3.98676399
 10
-41.3772478288
 20
3.9921980519
 10
-41.3700368523
 20
4.0001155392
 10
-41.3625645744
 20
4.0077866698
 10
-41.3548619899
 20
4.0152134717
 10
-41.346951375
 20
4.0224179787
 10
-41.3388526039
 20
4.0294186547
 10
-41.3305774977
 20
4.0362123491
 10
-41.3221319649
 20
4.0427900851
 10
-41.3135087294
 20
4.0491352219
 10
-41.3047035241
 20
4.0552239819
 10
-41.2957120816
 20
4.0610325873
 10
-41.2865306967
 20
4.0665424743
 10
-41.2771718892
 20
4.0717476529
 10
-41.2676488371
 20
4.076647501
 10
-41.2579747186
 20
4.081241396
 10
-41.248158652
 20
4.0855311193
 10
-41.2382163834
 20
4.0895182196
 10
-41.228159706
 20
4.0932068866
 10
-41.2180004129
 20
4.0966013103
 10
-41.2077553796
 20
4.0997051701
 10
-41.1974299327
 20
4.1025295903
 10
-41.1870343874
 20
4.1050848843
 10
-41.1765790586
 20
4.1073813659
 10
-41.1625608229
 20
4.1100590417
 10
-41.148469635
 20
4.1123210475
 10
-41.1343204993
 20
4.1141935553
 10
-41.1201253113
 20
4.115703145
 10
-41.1058962146
 20
4.1168767378
 10
-41.0916422562
 20
4.117741771
 10
-41.0773724832
 20
4.1183256819
 10
-41.0630959427
 20
4.1186559078
 10
-41.0488216817
 20
4.1187598859
  0
LINE
  5
3B3
100
AcDbEntity
  8
218_INCISO
100
AcDbLine
 62
250
  6
CONTINUOUS
 10
-41.458383542
 20
3.6866121309
 11
-41.4557654063
 21
3.7078474025
  0
LINE
  5
3B4
100
AcDbEntity
  8
218_INCISO
100
AcDbLine
 62
250
  6
CONTINUOUS
 10
-25.827392714
 20
9.9714285183
 11
-24.5275907103
 21
10.5564285183
  0
LINE
  5
3B5
100
AcDbEntity
  8
218_INCISO
100
AcDbLine
 62
7
  6
CONTINUOUS
 10
-22.2506913363
 20
-1.3760409428
 11
-20.7983978906
 21
-1.2489817302
  0
LINE
  5
3B6
100
AcDbEntity
  8
218_STAMPATO
100
AcDbLine
 62
7
  6
CONTINUOUS
 10
-22.2506913363
 20
-1.3760409428
 11
-20.7983978906
 21
-1.2489817302
  0
LINE
  5
3B7
100
AcDbEntity
  8
268
100
AcDbLine
 62
7
  6
CONTINUOUS
 10
-49.105605452
 20
-1.7831163775
 11
-49.7592603126
 21
-1.7717067895
  0
LINE
  5
3B8
100
AcDbEntity
  8
218_INCISO
100
AcDbLine
 62
250
  6
CONTINUOUS
 10
-30.7366852939
 20
-7.079541
 11
-29.8748788684
 21
-7.5
  0
LINE
  5
3B9
100
AcDbEntity
  8
218_INCISO
100
AcDbLine
 62
250
  6
CONTINUOUS
 10
-25.8245446135
 20
-12.0071429014
 11
-25.5459731628
 21
-12.1928570986
  0
LWPOLYLINE
  5
3BA
100
AcDbEntity
  8
218_INCISO
100
AcDbPolyline
 62
250
  6
CONTINUOUS
 90
71
 70
0
 10
-40.15747368
 20
3.5882200575
 10
-40.1595320628
 20
3.6415711383
 10
-40.1617718822
 20
3.6949149145
 10
-40.1642273584
 20
3.7482329028
 10
-40.166975763
 20
3.8015261757
 10
-40.1701502496
 20
3.8548137927
 10
-40.1738872977
 20
3.9081159546
 10
-40.1760280054
 20
3.9347740611
 10
-40.1784667694
 20
3.9614062067
 10
-40.181324029
 20
3.987973611
 10
-40.1847218302
 20
4.0144780549
 10
-40.1873424006
 20
4.0320706567
 10
-40.1902949346
 20
4.0496101135
 10
-40.1936190912
 20
4.0670815831
 10
-40.1973424303
 20
4.0844746611
 10
-40.2014414325
 20
4.1017844218
 10
-40.2058803825
 20
4.1190103969
 10
-40.2131054951
 20
4.1447342808
 10
-40.2208741326
 20
4.170298734
 10
-40.2290534268
 20
4.1957391986
 10
-40.2375593683
 20
4.2210554833
 10
-40.2464135342
 20
4.2462367955
 10
-40.2556504692
 20
4.2712804498
 10
-40.2653024517
 20
4.2961770693
 10
-40.2754070836
 20
4.3208934898
 10
-40.2860224706
 20
4.3454140711
 10
-40.2972239802
 20
4.3696724064
 10
-40.3050577356
 20
4.3856639261
 10
-40.3132161722
 20
4.4014921687
 10
-40.3217240845
 20
4.4171350117
 10
-40.3306064659
 20
4.4325776288
 10
-40.3398672643
 20
4.4477967464
 10
-40.3495103218
 20
4.462776556
 10
-40.3595424238
 20
4.4775071156
 10
-40.3699590093
 20
4.4919683106
 10
-40.3807581658
 20
4.506146088
 10
-40.3919330856
 20
4.5200211401
 10
-40.4034834109
 20
4.533585169
 10
-40.4154041823
 20
4.5468243928
 10
-40.4276886364
 20
4.5597253954
 10
-40.4403267737
 20
4.5722803642
 10
-40.4533068302
 20
4.5844818161
 10
-40.4666282239
 20
4.5963318221
 10
-40.4802688762
 20
4.6078123025
 10
-40.4942173453
 20
4.6189153283
 10
-40.5084844406
 20
4.6296510053
 10
-40.5230347652
 20
4.6400008106
 10
-40.5378542385
 20
4.6499654719
 10
-40.5560062794
 20
4.6614357353
 10
-40.5745033077
 20
4.6723506708
 10
-40.5933216836
 20
4.6827105137
 10
-40.6124377668
 20
4.6925154992
 10
-40.6318279173
 20
4.7017658625
 10
-40.6514662423
 20
4.7104604631
 10
-40.6713377634
 20
4.718601365
 10
-40.6914253341
 20
4.7261890694
 10
-40.7117118077
 20
4.7332240777
 10
-40.7321800376
 20
4.739706891
 10
-40.7527223171
 20
4.7456165378
 10
-40.7734093504
 20
4.7509989578
 10
-40.7942227142
 20
4.755873817
 10
-40.8151439851
 20
4.760260781
 10
-40.83615474
 20
4.7641795157
 10
-40.8625136397
 20
4.7684491653
 10
-40.8889666572
 20
4.7720598378
 10
-40.9155045178
 20
4.7750505921
 10
-40.9421053457
 20
4.7774456088
 10
-40.9687479428
 20
4.7792667552
 10
-40.995424582
 20
4.7805381692
 10
-41.022120687
 20
4.7812836009
 10
-41.0488216817
 20
4.7815268003
  0
LINE
  5
3BB
100
AcDbEntity
  8
218_INCISO
100
AcDbLine
 62
250
  6
CONTINUOUS
 10
-41.4583836144
 20
3.323396
 11
-41.4583836144
 21
3.686612
  0
LINE
  5
3BC
100
AcDbEntity
  8
218_INCISO
100
AcDbLine
 62
250
  6
CONTINUOUS
 10
-41.3881676135
 20
-5.386478
 11
-41.3881676135
 21
-4.680795
  0
LINE
  5
3BD
100
AcDbEntity
  8
218_INCISO
100
AcDbLine
 62
250
  6
CONTINUOUS
 10
-40.6824386135
 20
-4.680795
 11
-40.6824386135
 21
-5.386471
  0
LINE
  5
3BE
100
AcDbEntity
  8
218_INCISO
100
AcDbLine
 62
250
  6
CONTINUOUS
 10
-40.6392601844
 20
3.323396
 11
-40.6392601844
 21
3.686612
  0
LINE
  5
3BF
100
AcDbEntity
  8
218_INCISO
100
AcDbLine
 62
250
  6
CONTINUOUS
 10
-40.1574739746
 20
3.58822
 11
-40.1574739746
 21
3.323396
  0
LINE
  5
3C0
100
AcDbEntity
  8
218_INCISO
100
AcDbLine
 62
250
  6
CONTINUOUS
 10
-40.1459096135
 20
-7.84744
 11
-40.1459096135
 21
-7.285246
  0
LINE
  5
3C1
100
AcDbEntity
  8
218_INCISO
100
AcDbLine
 62
250
  6
CONTINUOUS
 10
-40.1459096135
 20
-4.872178
 11
-40.1459166135
 21
-5.378409
  0
LINE
  5
3C2
100
AcDbEntity
  8
218_INCISO
100
AcDbLine
 62
250
  6
CONTINUOUS
 10
-40.1372901242
 20
15.007869
 11
-40.1372901242
 21
14.176491
  0
LINE
  5
3C3
100
AcDbEntity
  8
218_INCISO
100
AcDbLine
 62
250
  6
CONTINUOUS
 10
-40.1372901242
 20
8.982943
 11
-40.1372901242
 21
8.151456
  0
LINE
  5
3C4
100
AcDbEntity
  8
218_INCISO
100
AcDbLine
 62
250
  6
CONTINUOUS
 10
-39.6555039145
 20
7.990812
 11
-39.6555039145
 21
9.139549
  0
LINE
  5
3C5
100
AcDbEntity
  8
218_INCISO
100
AcDbLine
 62
250
  6
CONTINUOUS
 10
-39.6555039145
 20
14.015846
 11
-39.6555039145
 21
15.164584
  0
LINE
  5
3C6
100
AcDbEntity
  8
218_INCISO
100
AcDbLine
 62
250
  6
CONTINUOUS
 10
-39.5948876135
 20
-7.108317
 11
-39.5948876135
 21
-8.024362
  0
LINE
  5
3C7
100
AcDbEntity
  8
218_INCISO
100
AcDbLine
 62
250
  6
CONTINUOUS
 10
-39.522838335
 20
5.793739
 11
-39.522838335
 21
6.866738
  0
LWPOLYLINE
  5
3C8
100
AcDbEntity
  8
218_INCISO
100
AcDbPolyline
 62
250
  6
CONTINUOUS
 90
34
 70
0
 10
-33.8684658464
 20
6.103542891
 10
-33.8819945566
 20
6.089793589
 10
-33.8952009266
 20
6.0757100869
 10
-33.9080691354
 20
6.0612998957
 10
-33.9205833624
 20
6.0465705264
 10
-33.9327277868
 20
6.03152949
 10
-33.9444865879
 20
6.0161842976
 10
-33.9558439449
 20
6.00054246
 10
-33.966784037
 20
5.9846114885
 10
-33.9772910435
 20
5.9683988938
 10
-33.9872492168
 20
5.95208975
 10
-33.9967776971
 20
5.9355289144
 10
-34.0058862403
 20
5.9187330326
 10
-34.0145846023
 20
5.90171875
 10
-34.0228825391
 20
5.8845027121
 10
-34.0307898068
 20
5.8671015643
 10
-34.0383161612
 20
5.8495319523
 10
-34.0454713583
 20
5.8318105214
 10
-34.0522651541
 20
5.813953917
 10
-34.0601777978
 20
5.7917249885
 10
-34.0675871465
 20
5.7693315347
 10
-34.0745268087
 20
5.7467900026
 10
-34.0810303929
 20
5.7241168393
 10
-34.0871315078
 20
5.7013284918
 10
-34.0928637618
 20
5.678441407
 10
-34.0982607636
 20
5.6554720321
 10
-34.1033561216
 20
5.632436814
 10
-34.1097201568
 20
5.6017101352
 10
-34.1156559926
 20
5.5709060624
 10
-34.1212099064
 20
5.5400346427
 10
-34.1264281756
 20
5.5091059232
 10
-34.1313570776
 20
5.4781299512
 10
-34.1360428897
 20
5.4471167738
 10
-34.1405318893
 20
5.4160764381
  0
LINE
  5
3C9
100
AcDbEntity
  8
218_INCISO
100
AcDbLine
 62
250
  6
CONTINUOUS
 10
-30.178064474
 20
-0.6783116278
 11
-30.237143589
 21
-0.6783116278
  0
LINE
  5
3CA
100
AcDbEntity
  8
218_INCISO
100
AcDbLine
 62
250
  6
CONTINUOUS
 10
-28.6909790895
 20
-2.3256935988
 11
-29.7081363815
 21
-2.2519514747
  0
LINE
  5
3CB
100
AcDbEntity
  8
218_INCISO
100
AcDbLine
 62
250
  6
CONTINUOUS
 10
-28.8632338584
 20
-1.2968628432
 11
-30.0957807911
 21
-1.1983501985
  0
LINE
  5
3CC
100
AcDbEntity
  8
218_INCISO
100
AcDbLine
 62
250
  6
CONTINUOUS
 10
-29.7087058188
 20
-0.7178875169
 11
-30.178064474
 21
-0.6783116278
  0
LINE
  5
3CD
100
AcDbEntity
  8
218_INCISO
100
AcDbLine
 62
250
  6
CONTINUOUS
 10
-28.9372607012
 20
-0.7835151602
 11
-29.7087058188
 21
-0.7178875169
  0
LINE
  5
3CE
100
AcDbEntity
  8
218_INCISO
100
AcDbLine
 62
250
  6
CONTINUOUS
 10
-25.5459731628
 20
-8.9428574085
 11
-25.1745446135
 21
-9.1285716057
  0
LINE
  5
3CF
100
AcDbEntity
  8
218_INCISO
100
AcDbLine
 62
250
  6
CONTINUOUS
 10
-25.8245446135
 20
-10.9857141972
 11
-25.5459731628
 21
-11.1714287043
  0
LINE
  5
3D0
100
AcDbEntity
  8
218_INCISO
100
AcDbLine
 62
250
  6
CONTINUOUS
 10
-25.8245446135
 20
-9.9642858028
 11
-25.5459731628
 21
-10.15
  0
LINE
  5
3D1
100
AcDbEntity
  8
218_INCISO
100
AcDbLine
 62
250
  6
CONTINUOUS
 10
-24.5245446135
 20
-12.1928570986
 11
-25.4531160642
 21
-11.5428570986
  0
LINE
  5
3D2
100
AcDbEntity
  8
218_INCISO
100
AcDbLine
 62
250
  6
CONTINUOUS
 10
-24.5245446135
 20
-11.1714287043
 11
-25.4531160642
 21
-10.5214283943
  0
LWPOLYLINE
  5
3D3
100
AcDbEntity
  8
218_INCISO
100
AcDbPolyline
 62
250
  6
CONTINUOUS
 90
95
 70
0
 10
-29.3281704392
 20
-9.887045
 10
-29.3201055341
 20
-9.8940295041
 10
-29.3118719603
 20
-9.9008152932
 10
-29.303475303
 20
-9.907397687
 10
-29.2949205405
 20
-9.9137728208
 10
-29.2862125795
 20
-9.9199370321
 10
-29.2773566459
 20
-9.9258866508
 10
-29.2683580604
 20
-9.9316180606
 10
-29.2592222047
 20
-9.9371278653
 10
-29.2499545051
 20
-9.9424127659
 10
-29.2405605073
 20
-9.9474696294
 10
-29.2310458095
 20
-9.9522954116
 10
-29.2214161025
 20
-9.9568872554
 10
-29.2116771219
 20
-9.9612423974
 10
-29.2018346916
 20
-9.9653582617
 10
-29.1918946765
 20
-9.9692323674
 10
-29.181863019
 20
-9.9728624264
 10
-29.1717456982
 20
-9.9762462475
 10
-29.1615487609
 20
-9.9793818356
 10
-29.1512782861
 20
-9.9822672944
 10
-29.1409404111
 20
-9.9849009265
 10
-29.1305412999
 20
-9.9872811347
 10
-29.1200871655
 20
-9.9894065238
 10
-29.1095842426
 20
-9.9912757995
 10
-29.0990388048
 20
-9.9928878718
 10
-29.0884571425
 20
-9.9942417528
 10
-29.0778455751
 20
-9.99533666
 10
-29.0672104339
 20
-9.9961719142
 10
-29.0565580688
 20
-9.9967470427
 10
-29.0458948367
 20
-9.9970616762
 10
-29.035227103
 20
-9.9971156529
 10
-29.0245612351
 20
-9.9969089147
 10
-29.0139035987
 20
-9.9964416108
 10
-29.0032605563
 20
-9.9957139944
 10
-28.9926384589
 20
-9.9947265255
 10
-28.9820436491
 20
-9.9934797677
 10
-28.9714824477
 20
-9.991974491
 10
-28.9609611621
 20
-9.9902115682
 10
-28.9504860682
 20
-9.9881920771
 10
-28.9400634232
 20
-9.9859171977
 10
-28.9296994427
 20
-9.9833883131
 10
-28.919400319
 20
-9.9806069076
 10
-28.9091721927
 20
-9.9775746665
 10
-28.8990211762
 20
-9.9742933746
 10
-28.8889533206
 20
-9.9707650154
 10
-28.8789746437
 20
-9.9669916703
 10
-28.8690910925
 20
-9.9629756159
 10
-28.8593085762
 20
-9.9587192252
 10
-28.8496329233
 20
-9.9542250626
 10
-28.8400699202
 20
-9.949495787
 10
-28.8306252632
 20
-9.9445342447
 10
-28.821304602
 20
-9.939343374
 10
-28.8121134871
 20
-9.933926296
 10
-28.8030574178
 20
-9.9282862217
 10
-28.7941417859
 20
-9.9224265396
 10
-28.7853719271
 20
-9.9163507257
 10
-28.7767530614
 20
-9.9100624277
 10
-28.7682903484
 20
-9.9035653781
 10
-28.7599888237
 20
-9.8968634755
 10
-28.7518534586
 20
-9.8899607
 10
-28.7438890922
 20
-9.8828611915
 10
-28.7361004956
 20
-9.8755691682
 10
-28.7284922999
 20
-9.8680890017
 10
-28.7210690646
 20
-9.8604251381
 10
-28.7138352018
 20
-9.85258217
 10
-28.7067950484
 20
-9.8445647611
 10
-28.6999527871
 20
-9.8363777141
 10
-28.6933125218
 20
-9.828025899
 10
-28.6868781957
 20
-9.8195143171
 10
-28.68065367
 20
-9.8108480331
 10
-28.674642639
 20
-9.8020322349
 10
-28.6688487121
 20
-9.7930721701
 10
-28.6632753257
 20
-9.7839732007
 10
-28.6579258286
 20
-9.7747407442
 10
-28.6528033915
 20
-9.7653803245
 10
-28.6479110946
 20
-9.7558975161
 10
-28.6432518349
 20
-9.7462979911
 10
-28.638828417
 20
-9.736587468
 10
-28.6346434573
 20
-9.7267717535
 10
-28.6306994778
 20
-9.7168566965
 10
-28.6269988084
 20
-9.7068482245
 10
-28.6235436824
 20
-9.6967523024
 10
-28.6203361375
 20
-9.6865749651
 10
-28.617378113
 20
-9.6763222796
 10
-28.6146713495
 20
-9.6660003715
 10
-28.6122174879
 20
-9.6556153949
 10
-28.6100179674
 20
-9.645173559
 10
-28.6080741264
 20
-9.6346810924
 10
-28.6063870996
 20
-9.624144245
 10
-28.6049579196
 20
-9.6135692972
 10
-28.6037874137
 20
-9.6029626304
 10
-28.6028763064
 20
-9.5923305905
 10
-28.6022251157
 20
-9.5816792796
 10
-28.6018342561
 20
-9.5710149877
 10
-28.6017039349
 20
-9.560345
  0
LINE
  5
3D4
100
AcDbEntity
  8
218_INCISO
100
AcDbLine
 62
250
  6
CONTINUOUS
 10
-31.6493022384
 20
-7.8267
 11
-29.3281704392
 21
-9.887045
  0
LINE
  5
3D5
100
AcDbEntity
  8
218_INCISO
100
AcDbLine
 62
250
  6
CONTINUOUS
 10
-25.6388303388
 20
-14.9785714507
 11
-25.8245446135
 21
-14.7928571761
  0
LINE
  5
3D6
100
AcDbEntity
  8
218_INCISO
100
AcDbLine
 62
250
  6
CONTINUOUS
 10
-29.7038969631
 20
-13.75
 11
-30.7367732671
 21
-12.418978
  0
LWPOLYLINE
  5
3D7
100
AcDbEntity
  8
218_INCISO
100
AcDbPolyline
 62
250
  6
CONTINUOUS
 90
3
 70
0
 10
-40.6469953601
 20
3.7503265096
 10
-40.6418779571
 20
3.7078474025
 10
-40.6392598214
 20
3.6866121309
  0
LINE
  5
3D8
100
AcDbEntity
  8
218_INCISO
100
AcDbLine
 62
250
  6
CONTINUOUS
 10
-39.0410521253
 20
12.911198
 11
-39.0410521253
 21
12.027546
  0
LINE
  5
3D9
100
AcDbEntity
  8
218_INCISO
100
AcDbLine
 62
250
  6
CONTINUOUS
 10
-39.0410521253
 20
10.87477
 11
-39.0410521253
 21
10.292325
  0
LINE
  5
3DA
100
AcDbEntity
  8
218_INCISO
100
AcDbLine
 62
250
  6
CONTINUOUS
 10
-39.0410521253
 20
6.866738
 11
-39.0410521253
 21
5.171133
  0
LINE
  5
3DB
100
AcDbEntity
  8
218_INCISO
100
AcDbLine
 62
250
  6
CONTINUOUS
 10
-39.0410521253
 20
2.70079
 11
-39.0410521253
 21
3.323396
  0
LINE
  5
3DC
100
AcDbEntity
  8
218_INCISO
100
AcDbLine
 62
250
  6
CONTINUOUS
 10
-39.0410521253
 20
7.179514
 11
-39.0410521253
 21
7.773964
  0
LINE
  5
3DD
100
AcDbEntity
  8
218_INCISO
100
AcDbLine
 62
250
  6
CONTINUOUS
 10
-39.0410521253
 20
9.348431
 11
-39.0410521253
 21
9.975074
  0
LINE
  5
3DE
100
AcDbEntity
  8
218_INCISO
100
AcDbLine
 62
250
  6
CONTINUOUS
 10
-39.0410521253
 20
13.20444
 11
-39.0410521253
 21
13.798889
  0
LINE
  5
3DF
100
AcDbEntity
  8
218_INCISO
100
AcDbLine
 62
250
  6
CONTINUOUS
 10
-39.0410521253
 20
15.373574
 11
-39.0410521253
 21
16.0
  0
LINE
  5
3E0
100
AcDbEntity
  8
218_INCISO
100
AcDbLine
 62
250
  6
CONTINUOUS
 10
-39.0245446135
 20
-15.068868
 11
-39.0245516135
 21
-14.488824
  0
LINE
  5
3E1
100
AcDbEntity
  8
218_INCISO
100
AcDbLine
 62
250
  6
CONTINUOUS
 10
-39.0245446135
 20
-13.171014
 11
-39.0245516135
 21
-12.590992
  0
LINE
  5
3E2
100
AcDbEntity
  8
218_INCISO
100
AcDbLine
 62
250
  6
CONTINUOUS
 10
-39.0245516135
 20
-10.882587
 11
-39.0245596135
 21
-10.30258
  0
LINE
  5
3E3
100
AcDbEntity
  8
218_INCISO
100
AcDbLine
 62
250
  6
CONTINUOUS
 10
-39.0245596135
 20
-8.207475
 11
-39.0245516135
 21
-8.787497
  0
LINE
  5
3E4
100
AcDbEntity
  8
218_INCISO
100
AcDbLine
 62
250
  6
CONTINUOUS
 10
-39.0245666135
 20
-3.637619
 11
-39.0245596135
 21
-4.290924
  0
LINE
  5
3E5
100
AcDbEntity
  8
218_INCISO
100
AcDbLine
 62
250
  6
CONTINUOUS
 10
-39.0245596135
 20
-5.378474
 11
-39.0245596135
 21
-5.958503
  0
LINE
  5
3E6
100
AcDbEntity
  8
218_INCISO
100
AcDbLine
 62
250
  6
CONTINUOUS
 10
-39.0245516135
 20
-12.010985
 11
-39.0245516135
 21
-11.430963
  0
LINE
  5
3E7
100
AcDbEntity
  8
218_INCISO
100
AcDbLine
 62
250
  6
CONTINUOUS
 10
-39.0245516135
 20
-9.754197
 11
-39.0245516135
 21
-9.174176
  0
LINE
  5
3E8
100
AcDbEntity
  8
218_INCISO
100
AcDbLine
 62
250
  6
CONTINUOUS
 10
-39.0245516135
 20
-6.345182
 11
-39.0245596135
 21
-6.925211
  0
LINE
  5
3E9
100
AcDbEntity
  8
268
100
AcDbLine
 62
250
  6
CONTINUOUS
 10
-37.8227992941
 20
23.7551925565
 11
-37.8227992941
 21
22.3327878868
  0
LINE
  5
3EA
100
AcDbEntity
  8
268
100
AcDbLine
 62
250
  6
CONTINUOUS
 10
-37.8227992941
 20
-22.3327878868
 11
-37.8227992941
 21
-23.7551925565
  0
LINE
  5
3EB
100
AcDbEntity
  8
218_INCISO
100
AcDbLine
 62
250
  6
CONTINUOUS
 10
-37.5256107474
 20
12.885714221
 11
-37.5256107474
 21
13.0214286685
  0
LINE
  5
3EC
100
AcDbEntity
  8
218_INCISO
100
AcDbLine
 62
250
  6
CONTINUOUS
 10
-37.5256107474
 20
15.464285779
 11
-37.5256107474
 21
15.6
  0
LINE
  5
3ED
100
AcDbEntity
  8
268
100
AcDbLine
 62
7
  6
CONTINUOUS
 10
-37.5245446135
 20
23.7534573615
 11
-37.5245446135
 21
22.3301850577
  0
LINE
  5
3EE
100
AcDbEntity
  8
268
100
AcDbLine
 62
7
  6
CONTINUOUS
 10
-37.5245446135
 20
-22.3301850577
 11
-37.5245446135
 21
-23.7534573615
  0
LINE
  5
3EF
100
AcDbEntity
  8
218_INCISO
100
AcDbLine
 62
250
  6
CONTINUOUS
 10
-34.5997918549
 20
2.49987
 11
-29.6232639197
 21
7.231556
  0
LINE
  5
3F0
100
AcDbEntity
  8
218_INCISO
100
AcDbLine
 62
250
  6
CONTINUOUS
 10
-25.827392714
 20
4.4
 11
-25.0846487175
 21
4.7342857292
  0
LWPOLYLINE
  5
3F1
100
AcDbEntity
  8
218_INCISO
100
AcDbPolyline
 62
250
  6
CONTINUOUS
 90
185
 70
0
 10
-30.1622950253
 20
0.9641089836
 10
-30.1808854578
 20
0.9583790881
 10
-30.1992584625
 20
0.9523244877
 10
-30.2174130087
 20
0.94594736
 10
-30.2353600938
 20
0.9392451673
 10
-30.2531145142
 20
0.9322140229
 10
-30.2706942335
 20
0.9248493602
 10
-30.2881160355
 20
0.9171467708
 10
-30.3053888173
 20
0.9091031603
 10
-30.322520686
 20
0.9007149409
 10
-30.3395244746
 20
0.8919752381
 10
-30.3564108478
 20
0.8828776866
 10
-30.3731770705
 20
0.8734212443
 10
-30.3898171997
 20
0.8636060449
 10
-30.40632586
 20
0.8534316007
 10
-30.4226999964
 20
0.8428958983
 10
-30.4389452697
 20
0.831991441
 10
-30.4550682492
 20
0.8207102059
 10
-30.4710704221
 20
0.8090475461
 10
-30.4869527391
 20
0.7969986278
 10
-30.5027190848
 20
0.7845544914
 10
-30.518371155
 20
0.7717073397
 10
-30.5338989537
 20
0.7584581505
 10
-30.5492918487
 20
0.7448084001
 10
-30.5645483532
 20
0.7307527842
 10
-30.5796692528
 20
0.7162839702
 10
-30.5946552781
 20
0.7013932935
 10
-30.6095074875
 20
0.68607085
 10
-30.624228305
 20
0.67030311
 10
-30.6388193274
 20
0.65407663
 10
-30.6532774769
 20
0.6373819382
 10
-30.6675978574
 20
0.6202114708
 10
-30.6817729744
 20
0.6025613244
 10
-30.6957943595
 20
0.5844289871
 10
-30.7096522481
 20
0.5658138512
 10
-30.7233376287
 20
0.5467142219
 10
-30.7368457992
 20
0.5271221505
 10
-30.7501729078
 20
0.5070279905
 10
-30.763314193
 20
0.4864215559
 10
-30.7762634716
 20
0.4652942491
 10
-30.7890097837
 20
0.4436443636
 10
-30.8015408767
 20
0.4214722472
 10
-30.8138441047
 20
0.3987795744
 10
-30.82590811
 20
0.3755654157
 10
-30.8377270796
 20
0.3518170991
 10
-30.8492956052
 20
0.327520645
 10
-30.8606043518
 20
0.302668587
 10
-30.8716426665
 20
0.2772560969
 10
-30.8823985512
 20
0.2512823866
 10
-30.89286033
 20
0.2247459922
 10
-30.9030189616
 20
0.1976387092
 10
-30.9128655823
 20
0.169951849
 10
-30.9223894032
 20
0.1416815301
 10
-30.9315784418
 20
0.1128271571
 10
-30.9404178674
 20
0.0833964728
 10
-30.9488924585
 20
0.0533972754
 10
-30.9569882813
 20
0.0228292487
 10
-30.9646916152
 20
-0.0083091284
 10
-30.9719883047
 20
-0.0400160815
 10
-30.9788638559
 20
-0.0722866977
 10
-30.985302857
 20
-0.1051068041
 10
-30.9912903982
 20
-0.1384625872
 10
-30.9968144977
 20
-0.1723509314
 10
-31.0018636514
 20
-0.206769356
 10
-31.0064253402
 20
-0.2417072213
 10
-31.0104865618
 20
-0.2771514944
 10
-31.0140333962
 20
-0.3130877277
 10
-31.0170520125
 20
-0.3495028995
 10
-31.0195298521
 20
-0.3863911062
 10
-31.0214547178
 20
-0.4237448375
 10
-31.0228145833
 20
-0.4615430366
 10
-31.0235978295
 20
-0.4997639576
 10
-31.0237942944
 20
-0.5383966441
 10
-31.0233943024
 20
-0.5774307035
 10
-31.022388666
 20
-0.6168472085
 10
-31.0207682275
 20
-0.6566256716
 10
-31.018523459
 20
-0.6967478979
 10
-31.01564511
 20
-0.7371956652
 10
-31.0121254106
 20
-0.7779483481
 10
-31.0079576025
 20
-0.8189820415
 10
-31.0031374921
 20
-0.8602621248
 10
-30.9976609693
 20
-0.9017576293
 10
-30.9915216926
 20
-0.94346291
 10
-30.9847121637
 20
-0.9853798246
 10
-30.9772224889
 20
-1.0275149168
 10
-30.9690433193
 20
-1.0698688403
 10
-30.9601698821
 20
-1.1124140019
 10
-30.9506026093
 20
-1.1551029087
 10
-30.9403581769
 20
-1.1978367146
 10
-30.9294576299
 20
-1.2405144581
 10
-30.9179232457
 20
-1.2830780674
 10
-30.9057731134
 20
-1.3254835717
 10
-30.8930073362
 20
-1.3677005124
 10
-30.8796235166
 20
-1.4097051608
 10
-30.8656272378
 20
-1.4514871948
 10
-30.8510257842
 20
-1.4930429728
 10
-30.8358252645
 20
-1.5343821675
 10
-30.8200289944
 20
-1.5755142504
 10
-30.803630293
 20
-1.6164345748
 10
-30.7866280876
 20
-1.6571209606
 10
-30.7690537342
 20
-1.697495214
 10
-30.7509457898
 20
-1.7374707199
 10
-30.7323391872
 20
-1.7769831932
 10
-30.7132638428
 20
-1.8159833354
 10
-30.6937332326
 20
-1.8544594654
 10
-30.6737566011
 20
-1.8924092111
 10
-30.6533427066
 20
-1.9298298189
 10
-30.6325019495
 20
-1.9667154853
 10
-30.611251785
 20
-2.0030485887
 10
-30.5896121559
 20
-2.0388081911
 10
-30.5676059007
 20
-2.0739719051
 10
-30.5452550237
 20
-2.1085200453
 10
-30.5225752967
 20
-2.1424451832
 10
-30.4995818222
 20
-2.1757414009
 10
-30.4762932601
 20
-2.2083965673
 10
-30.4527280705
 20
-2.2403988521
 10
-30.4289003569
 20
-2.2717438432
 10
-30.4048256506
 20
-2.3024262319
 10
-30.3805295488
 20
-2.3324297059
 10
-30.3560385198
 20
-2.3617379284
 10
-30.3313724482
 20
-2.3903454694
 10
-30.3065497582
 20
-2.4182494599
 10
-30.2815896137
 20
-2.4454463684
 10
-30.2565115769
 20
-2.4719320038
 10
-30.231336062
 20
-2.4977001984
 10
-30.2060817767
 20
-2.522746572
 10
-30.1807597503
 20
-2.5470758697
 10
-30.1553810906
 20
-2.5706934486
 10
-30.129964899
 20
-2.5935979896
 10
-30.1045308364
 20
-2.6157881696
 10
-30.0790928086
 20
-2.6372693268
 10
-30.0536629423
 20
-2.6580487325
 10
-30.0282520034
 20
-2.6781347279
 10
-30.0028720775
 20
-2.6975342853
 10
-29.977541889
 20
-2.7162478313
 10
-29.9522794548
 20
-2.7342760909
 10
-29.927093321
 20
-2.7516275295
 10
-29.901989925
 20
-2.7683122795
 10
-29.8769767405
 20
-2.7843394017
 10
-29.8520626685
 20
-2.7997171075
 10
-29.8272612836
 20
-2.814451282
 10
-29.8025856256
 20
-2.8285483683
 10
-29.7780419207
 20
-2.8420193695
 10
-29.7536339731
 20
-2.8548764997
 10
-29.729362714
 20
-2.8671322575
 10
-29.7052299602
 20
-2.8787982473
 10
-29.6812439442
 20
-2.8898822114
 10
-29.6574141892
 20
-2.9003912867
 10
-29.633748964
 20
-2.91033405
 10
-29.6102532659
 20
-2.919720436
 10
-29.5869202599
 20
-2.9285643708
 10
-29.5637429396
 20
-2.9368795136
 10
-29.5407254457
 20
-2.9446744648
 10
-29.5178741895
 20
-2.9519567506
 10
-29.4951935176
 20
-2.9587346599
 10
-29.4726872743
 20
-2.9650167147
 10
-29.4503593595
 20
-2.9708116064
 10
-29.4282113816
 20
-2.9761284828
 10
-29.4062357285
 20
-2.9809781478
 10
-29.3844246861
 20
-2.9853711055
 10
-29.3627793529
 20
-2.989315004
 10
-29.341300972
 20
-2.9928169403
 10
-29.319982552
 20
-2.9958846613
 10
-29.2988173967
 20
-2.9985258106
 10
-29.2778082249
 20
-3.0007469677
 10
-29.256957843
 20
-3.0025544838
 10
-29.2362599927
 20
-3.0039548623
 10
-29.2157081277
 20
-3.0049542558
 10
-29.1953036138
 20
-3.0055572622
 10
-29.1750482939
 20
-3.0057682317
 10
-29.154938005
 20
-3.0055920794
 10
-29.1349665663
 20
-3.0050337374
 10
-29.1151257305
 20
-3.0040976421
 10
-29.0954068167
 20
-3.0027876581
 10
-29.0758014766
 20
-3.0011058606
 10
-29.0563025153
 20
-2.9990535728
 10
-29.036907021
 20
-2.9966309013
 10
-29.0176160941
 20
-2.9938385903
 10
-28.9984426033
 20
-2.99068115
 10
-28.9793995308
 20
-2.9871637271
 10
-28.9604885464
 20
-2.9832902465
 10
-28.9417113455
 20
-2.9790645903
 10
-28.9230810397
 20
-2.9744916914
 10
-28.904609981
 20
-2.9695758117
 10
-28.8862960671
 20
-2.9643174773
  0
LINE
  5
3F2
100
AcDbEntity
  8
218_INCISO
100
AcDbLine
 62
250
  6
CONTINUOUS
 10
-25.827392714
 20
5.7371429169
 11
-24.5275907103
 21
6.0714286113
  0
LINE
  5
3F3
100
AcDbEntity
  8
268
100
AcDbLine
 62
7
  6
CONTINUOUS
 10
-49.3547348296
 20
1.7787678081
 11
-49.105605452
 21
1.7831163775
  0
LINE
  5
3F4
100
AcDbEntity
  8
218_INCISO
100
AcDbLine
 62
250
  6
CONTINUOUS
 10
-25.8245446135
 20
-7.9214283943
 11
-25.5459731628
 21
-8.1071425915
  0
LINE
  5
3F5
100
AcDbEntity
  8
218_INCISO
100
AcDbLine
 62
250
  6
CONTINUOUS
 10
-24.5245446135
 20
-10.15
 11
-25.4531160642
 21
-9.5
  0
LINE
  5
3F6
100
AcDbEntity
  8
218_INCISO
100
AcDbLine
 62
250
  6
CONTINUOUS
 10
-24.5245446135
 20
-8.1071425915
 11
-25.4531160642
 21
-7.4571425915
  0
LINE
  5
3F7
100
AcDbEntity
  8
218_INCISO
100
AcDbLine
 62
250
  6
CONTINUOUS
 10
-24.5245446135
 20
-14.5142856479
 11
-24.7102589075
 21
-14.3285714507
  0
LINE
  5
3F8
100
AcDbEntity
  8
218_INCISO
100
AcDbLine
 62
250
  6
CONTINUOUS
 10
-36.0329809779
 20
11.935714221
 11
-36.0329809779
 21
10.9857143342
  0
LINE
  5
3F9
100
AcDbEntity
  8
218_INCISO
100
AcDbLine
 62
250
  6
CONTINUOUS
 10
-35.6259001266
 20
15.6
 11
-35.6259001266
 21
15.464285779
  0
LINE
  5
3FA
100
AcDbEntity
  8
218_INCISO
100
AcDbLine
 62
250
  6
CONTINUOUS
 10
-35.6259001266
 20
13.0214286685
 11
-35.6259001266
 21
12.885714221
  0
LINE
  5
3FB
100
AcDbEntity
  8
218_INCISO
100
AcDbLine
 62
7
  6
CONTINUOUS
 10
-28.543401413
 20
6.6972307307
 11
-28.1482701437
 21
7.092362
  0
LINE
  5
3FC
100
AcDbEntity
  8
218_INCISO
100
AcDbLine
 62
7
  6
CONTINUOUS
 10
-28.543401413
 20
6.3020994613
 11
-27.7531388743
 21
7.092362
  0
LINE
  5
3FD
100
AcDbEntity
  8
218_INCISO
100
AcDbLine
 62
7
  6
CONTINUOUS
 10
-28.543401413
 20
5.906968192
 11
-27.5245446135
 21
6.9258249916
  0
LINE
  5
3FE
100
AcDbEntity
  8
218_INCISO
100
AcDbLine
 62
7
  6
CONTINUOUS
 10
-28.543401413
 20
5.5118369227
 11
-27.5245446135
 21
6.5306937222
  0
LINE
  5
3FF
100
AcDbEntity
  8
218_INCISO
100
AcDbLine
 62
7
  6
CONTINUOUS
 10
-28.543401413
 20
5.1167056534
 11
-27.5245446135
 21
6.1355624529
  0
LINE
  5
400
100
AcDbEntity
  8
218_INCISO
100
AcDbLine
 62
250
  6
CONTINUOUS
 10
-25.827392714
 20
6.8235713887
 11
-25.6417067246
 21
6.9907141662
  0
LINE
  5
401
100
AcDbEntity
  8
218_INCISO
100
AcDbLine
 62
250
  6
CONTINUOUS
 10
-40.2156639465
 20
-4.2550232093
 11
-39.0245666135
 21
-3.637619
  0
LINE
  5
402
100
AcDbEntity
  8
218_INCISO
100
AcDbLine
 62
250
  6
CONTINUOUS
 10
-39.0245596135
 20
-4.290924
 11
-40.1459096135
 21
-4.872178
  0
LINE
  5
403
100
AcDbEntity
  8
218_INCISO
100
AcDbLine
 62
250
  6
CONTINUOUS
 10
-33.7153065868
 20
3.931124
 11
-30.3535976693
 21
4.225174
  0
LINE
  5
404
100
AcDbEntity
  8
218_INCISO
100
AcDbLine
 62
250
  6
CONTINUOUS
 10
-41.9401698241
 20
2.70079
 11
-39.0410521253
 21
2.70079
  0
LINE
  5
405
100
AcDbEntity
  8
218_INCISO
100
AcDbLine
 62
250
  6
CONTINUOUS
 10
-27.5245446135
 20
2.907638
 11
-28.543401413
 21
2.907638
  0
LINE
  5
406
100
AcDbEntity
  8
218_INCISO
100
AcDbLine
 62
250
  6
CONTINUOUS
 10
-39.0410521253
 20
3.323396
 11
-40.1574739746
 21
3.323396
  0
LINE
  5
407
100
AcDbEntity
  8
218_INCISO
100
AcDbLine
 62
250
  6
CONTINUOUS
 10
-40.6392601844
 20
3.323396
 11
-41.4583836144
 21
3.323396
  0
LINE
  5
408
100
AcDbEntity
  8
218_INCISO
100
AcDbLine
 62
250
  6
CONTINUOUS
 10
-33.7153065868
 20
4.218216
 11
-34.1098644846
 21
4.218216
  0
LINE
  5
409
100
AcDbEntity
  8
218_INCISO
100
AcDbLine
 62
250
  6
CONTINUOUS
 10
-30.1571795893
 20
4.281883
 11
-30.3535976693
 21
4.281883
  0
LINE
  5
40A
100
AcDbEntity
  8
218_INCISO
100
AcDbLine
 62
250
  6
CONTINUOUS
 10
-34.1098644846
 20
4.31759
 11
-33.7153065868
 21
4.31759
  0
LINE
  5
40B
100
AcDbEntity
  8
218_INCISO
100
AcDbLine
 62
250
  6
CONTINUOUS
 10
-30.3535976693
 20
4.399503
 11
-30.1571795893
 21
4.399503
  0
LINE
  5
40C
100
AcDbEntity
  8
218_INCISO
100
AcDbLine
 62
250
  6
CONTINUOUS
 10
-24.5275907103
 20
4.4
 11
-25.827392714
 21
4.4
  0
LWPOLYLINE
  5
40D
100
AcDbEntity
  8
218_INCISO
100
AcDbPolyline
 62
250
  6
CONTINUOUS
 90
57
 70
0
 10
-41.0488216817
 20
4.1187598859
 10
-41.0345474208
 20
4.1186559078
 10
-41.0202708802
 20
4.1183256819
 10
-41.0060011073
 20
4.117741771
 10
-40.9917471489
 20
4.1168767378
 10
-40.9775180522
 20
4.115703145
 10
-40.9633228641
 20
4.1141935553
 10
-40.9491737285
 20
4.1123210475
 10
-40.9350825405
 20
4.1100590417
 10
-40.9210643049
 20
4.1073813659
 10
-40.9106089761
 20
4.1050848843
 10
-40.9002134307
 20
4.1025295903
 10
-40.8898879839
 20
4.0997051701
 10
-40.8796429506
 20
4.0966013103
 10
-40.8694836575
 20
4.0932068866
 10
-40.85942698
 20
4.0895182196
 10
-40.8494847115
 20
4.0855311193
 10
-40.8396686449
 20
4.081241396
 10
-40.8299945264
 20
4.076647501
 10
-40.8204714743
 20
4.0717476529
 10
-40.8111126668
 20
4.0665424743
 10
-40.8019312818
 20
4.0610325873
 10
-40.7929398394
 20
4.0552239819
 10
-40.784134634
 20
4.0491352219
 10
-40.7755113986
 20
4.0427900851
 10
-40.7670658658
 20
4.0362123491
 10
-40.7587907595
 20
4.0294186547
 10
-40.7506919884
 20
4.0224179787
 10
-40.7427813736
 20
4.0152134717
 10
-40.7350787891
 20
4.0077866698
 10
-40.7276065112
 20
4.0001155392
 10
-40.7203955347
 20
3.9921980519
 10
-40.7157339182
 20
3.98676399
 10
-40.7112153765
 20
3.9812103688
 10
-40.7068556203
 20
3.9755304314
 10
-40.7026793662
 20
3.9697292501
 10
-40.6986995069
 20
3.9637920978
 10
-40.6949386096
 20
3.9577155666
 10
-40.6922835524
 20
3.9530796097
 10
-40.6897741485
 20
3.9483637397
 10
-40.6874206902
 20
3.9435751787
 10
-40.6852154327
 20
3.9387161066
 10
-40.6824858415
 20
3.9321283927
 10
-40.6799845584
 20
3.9254490916
 10
-40.6776890558
 20
3.9186958965
 10
-40.6745649576
 20
3.908409262
 10
-40.6717658578
 20
3.8980298647
 10
-40.6692066721
 20
3.8875845394
 10
-40.6668348617
 20
3.8770950968
 10
-40.6646176935
 20
3.8666053009
 10
-40.6625365805
 20
3.8560877855
 10
-40.6599692125
 20
3.8420616581
 10
-40.6576062637
 20
3.8279989199
 10
-40.6554189312
 20
3.8139075559
 10
-40.6524065455
 20
3.7927465505
 10
-40.6496293884
 20
3.7715537031
 10
-40.6469953601
 20
3.7503265096
  0
LINE
  5
40E
100
AcDbEntity
  8
218_INCISO
100
AcDbLine
 62
250
  6
CONTINUOUS
 10
-25.8245446135
 20
-8.6642858028
 11
-25.5459731628
 21
-8.9428574085
  0
LWPOLYLINE
  5
40F
100
AcDbEntity
  8
218_INCISO
100
AcDbPolyline
 62
250
  6
CONTINUOUS
 90
50
 70
0
 10
-34.1506516036
 20
4.8430726704
 10
-34.1489438739
 20
4.8042777513
 10
-34.1465943886
 20
4.7655103426
 10
-34.1435902646
 20
4.7267846713
 10
-34.1399186186
 20
4.6881149647
 10
-34.1355665675
 20
4.6495154497
 10
-34.1308945372
 20
4.6136858013
 10
-34.1256027772
 20
4.5779437856
 10
-34.1196714538
 20
4.5423039887
 10
-34.1130807334
 20
4.5067809966
 10
-34.1058107823
 20
4.4713893953
 10
-34.0985504258
 20
4.4391600025
 10
-34.0906774608
 20
4.4070741388
 10
-34.0821636566
 20
4.3751533052
 10
-34.0729807822
 20
4.3434190026
 10
-34.0631006066
 20
4.311892732
 10
-34.0552543378
 20
4.2885160297
 10
-34.0469808796
 20
4.2652864052
 10
-34.0382570943
 20
4.2422231085
 10
-34.0290598443
 20
4.2193453895
 10
-34.0193659919
 20
4.1966724984
 10
-34.0091523994
 20
4.1742236849
 10
-33.9997750542
 20
4.1547956203
 10
-33.9899546251
 20
4.1355860227
 10
-33.9796631347
 20
4.1166273009
 10
-33.9688726053
 20
4.0979518638
 10
-33.9575550594
 20
4.0795921202
 10
-33.9456825194
 20
4.0615804789
 10
-33.9366161358
 20
4.0486308393
 10
-33.9272147995
 20
4.0359200111
 10
-33.9174563248
 20
4.0234826601
 10
-33.9073185259
 20
4.0113534518
 10
-33.8967792169
 20
3.9995670517
 10
-33.885816212
 20
3.9881581256
 10
-33.8744073254
 20
3.9771613389
 10
-33.8643594416
 20
3.9681821097
 10
-33.8539752729
 20
3.9595801053
 10
-33.8432557627
 20
3.9514106409
 10
-33.8322018545
 20
3.9437290319
 10
-33.8208144917
 20
3.9365905935
 10
-33.8090946178
 20
3.9300506411
 10
-33.7970431761
 20
3.9241644899
 10
-33.7872075388
 20
3.9199803601
 10
-33.7771793
 20
3.916278373
 10
-33.7669757316
 20
3.9130905394
 10
-33.7566141053
 20
3.9104488699
 10
-33.7463929769
 20
3.9084291593
 10
-33.7360761388
 20
3.9069705364
 10
-33.7257013652
 20
3.906085902
 10
-33.7153064303
 20
3.905788157
  0
LINE
  5
410
100
AcDbEntity
  8
268
100
AcDbLine
 62
250
  6
CONTINUOUS
 10
-34.8219266528
 20
-20.9
 11
-34.8219266528
 21
-20.6806401735
  0
LINE
  5
411
100
AcDbEntity
  8
268
100
AcDbLine
 62
250
  6
CONTINUOUS
 10
-34.8219266528
 20
20.6806401735
 11
-34.8219266528
 21
20.9
  0
LINE
  5
412
100
AcDbEntity
  8
268
100
AcDbLine
 62
250
  6
CONTINUOUS
 10
-34.8193088915
 20
21.4450957595
 11
-34.8193088915
 21
21.2
  0
LINE
  5
413
100
AcDbEntity
  8
268
100
AcDbLine
 62
250
  6
CONTINUOUS
 10
-34.8193088915
 20
-21.2
 11
-34.8193088915
 21
-21.4450957595
  0
LINE
  5
414
100
AcDbEntity
  8
218_INCISO
100
AcDbLine
 62
7
  6
CONTINUOUS
 10
-34.5245446135
 20
-19.6109791689
 11
-34.5245446135
 21
-20.6754493507
  0
LINE
  5
415
100
AcDbEntity
  8
218_STAMPATO
100
AcDbLine
 62
7
  6
CONTINUOUS
 10
-34.5245446135
 20
-19.6109791689
 11
-34.5245446135
 21
-20.6754493507
  0
LINE
  5
416
100
AcDbEntity
  8
268
100
AcDbLine
 62
7
  6
CONTINUOUS
 10
-34.5245446135
 20
-20.6754493507
 11
-34.5245446135
 21
-21.3126932437
  0
LINE
  5
417
100
AcDbEntity
  8
218_INCISO
100
AcDbLine
 62
7
  6
CONTINUOUS
 10
-34.5245446135
 20
19.6109791689
 11
-34.5245446135
 21
20.6754493507
  0
LINE
  5
418
100
AcDbEntity
  8
218_STAMPATO
100
AcDbLine
 62
7
  6
CONTINUOUS
 10
-34.5245446135
 20
19.6109791689
 11
-34.5245446135
 21
20.6754493507
  0
LINE
  5
419
100
AcDbEntity
  8
268
100
AcDbLine
 62
7
  6
CONTINUOUS
 10
-34.5245446135
 20
20.6754493507
 11
-34.5245446135
 21
21.3126932437
  0
LINE
  5
41A
100
AcDbEntity
  8
218_INCISO
100
AcDbLine
 62
250
  6
CONTINUOUS
 10
-34.1098644846
 20
4.218216
 11
-34.1098644846
 21
4.31759
  0
LINE
  5
41B
100
AcDbEntity
  8
218_INCISO
100
AcDbLine
 62
250
  6
CONTINUOUS
 10
-33.7153065868
 20
3.690027
 11
-33.7153065868
 21
6.127934
  0
LINE
  5
41C
100
AcDbEntity
  8
218_INCISO
100
AcDbLine
 62
250
  6
CONTINUOUS
 10
-33.3524518598
 20
6.067887
 11
-33.3524518598
 21
6.417947
  0
LINE
  5
41D
100
AcDbEntity
  8
218_INCISO
100
AcDbLine
 62
250
  6
CONTINUOUS
 10
-34.2028243242
 20
4.843073
 11
-34.2022664092
 21
5.416076
  0
LINE
  5
41E
100
AcDbEntity
  8
218_INCISO
100
AcDbLine
 62
250
  6
CONTINUOUS
 10
-33.9848055346
 20
5.416076
 11
-33.9853634496
 21
4.843073
  0
LINE
  5
41F
100
AcDbEntity
  8
218_INCISO
100
AcDbLine
 62
7
  6
CONTINUOUS
 10
-28.543401413
 20
4.721574384
 11
-27.5245446135
 21
5.7404311836
  0
LINE
  5
420
100
AcDbEntity
  8
218_INCISO
100
AcDbLine
 62
7
  6
CONTINUOUS
 10
-28.543401413
 20
4.3264431147
 11
-27.5245446135
 21
5.3452999142
  0
LINE
  5
421
100
AcDbEntity
  8
218_INCISO
100
AcDbLine
 62
7
  6
CONTINUOUS
 10
-28.543401413
 20
3.9313118454
 11
-27.5245446135
 21
4.9501686449
  0
LINE
  5
422
100
AcDbEntity
  8
218_INCISO
100
AcDbLine
 62
7
  6
CONTINUOUS
 10
-28.543401413
 20
3.5361805761
 11
-27.5245446135
 21
4.5550373756
  0
LINE
  5
423
100
AcDbEntity
  8
218_INCISO
100
AcDbLine
 62
7
  6
CONTINUOUS
 10
-28.543401413
 20
3.1410493067
 11
-27.5245446135
 21
4.1599061063
  0
LINE
  5
424
100
AcDbEntity
  8
218_INCISO
100
AcDbLine
 62
7
  6
CONTINUOUS
 10
-28.3816814504
 20
2.907638
 11
-27.5245446135
 21
3.7647748369
  0
LINE
  5
425
100
AcDbEntity
  8
218_INCISO
100
AcDbLine
 62
7
  6
CONTINUOUS
 10
-27.9865501811
 20
2.907638
 11
-27.5245446135
 21
3.3696435676
  0
LINE
  5
426
100
AcDbEntity
  8
218_INCISO
100
AcDbLine
 62
250
  6
CONTINUOUS
 10
-41.9246896135
 20
-7.276321
 11
-39.0245516135
 21
-6.345182
  0
LWPOLYLINE
  5
427
100
AcDbEntity
  8
218_INCISO
100
AcDbPolyline
 62
250
  6
CONTINUOUS
 90
185
 70
0
 10
-28.8862960671
 20
-2.9643174773
 10
-28.8681290549
 20
-2.9587151162
 10
-28.8500644311
 20
-2.9527562418
 10
-28.8321005884
 20
-2.9464406949
 10
-28.8142479784
 20
-2.9397722736
 10
-28.7965176385
 20
-2.9327545094
 10
-28.7789108927
 20
-2.9253859096
 10
-28.7614291043
 20
-2.9176649168
 10
-28.7440835079
 20
-2.9095947382
 10
-28.7268852424
 20
-2.9011791285
 10
-28.709835193
 20
-2.8924192688
 10
-28.6929309201
 20
-2.8833148397
 10
-28.6761669406
 20
-2.8738620938
 10
-28.6595374981
 20
-2.8640562352
 10
-28.6430387858
 20
-2.8538917011
 10
-28.6266670774
 20
-2.8433622994
 10
-28.6104170195
 20
-2.8324600848
 10
-28.5942846246
 20
-2.8211780237
 10
-28.5782729975
 20
-2.8095144816
 10
-28.5623854026
 20
-2.7974676161
 10
-28.5466186527
 20
-2.7850293542
 10
-28.5309701691
 20
-2.7721915703
 10
-28.5154462609
 20
-2.7589521606
 10
-28.5000537258
 20
-2.7453092365
 10
-28.4847924286
 20
-2.7312557499
 10
-28.4696612566
 20
-2.7167837981
 10
-28.4546621197
 20
-2.7018872188
 10
-28.4397971859
 20
-2.6865593938
 10
-28.4250666343
 20
-2.6707901398
 10
-28.4104707436
 20
-2.6545687212
 10
-28.3960121809
 20
-2.6378857557
 10
-28.3816949898
 20
-2.6207331691
 10
-28.3675263328
 20
-2.6031067633
 10
-28.3535144438
 20
-2.5850037012
 10
-28.3396687234
 20
-2.5664227125
 10
-28.325997909
 20
-2.5473614827
 10
-28.3125069198
 20
-2.5278119528
 10
-28.2991995594
 20
-2.5077639707
 10
-28.2860789892
 20
-2.4872047557
 10
-28.2731494453
 20
-2.466122638
 10
-28.2604201072
 20
-2.4445130201
 10
-28.2479014727
 20
-2.4223734159
 10
-28.2356043694
 20
-2.399702713
 10
-28.2235386937
 20
-2.3764976287
 10
-28.2117102862
 20
-2.3527448271
 10
-28.2001252874
 20
-2.3284308439
 10
-28.1887950927
 20
-2.3035517548
 10
-28.1777326526
 20
-2.2781070113
 10
-28.1669518835
 20
-2.2521000281
 10
-28.1564662098
 20
-2.2255335256
 10
-28.1462861205
 20
-2.1984034835
 10
-28.1364215964
 20
-2.1707046222
 10
-28.1268835193
 20
-2.1424333665
 10
-28.1176837257
 20
-2.1135887024
 10
-28.1088369702
 20
-2.0841781588
 10
-28.1003582947
 20
-2.0542092844
 10
-28.0922609717
 20
-2.0236811649
 10
-28.0845578601
 20
-1.9925910377
 10
-28.0772619327
 20
-1.960937211
 10
-28.0703864796
 20
-1.9287204736
 10
-28.0639459455
 20
-1.8959504664
 10
-28.0579544643
 20
-1.8626367065
 10
-28.0524237736
 20
-1.8287793634
 10
-28.047365355
 20
-1.7943791633
 10
-28.0427920629
 20
-1.7594484079
 10
-28.0387173429
 20
-1.7240027038
 10
-28.0351556315
 20
-1.6880593021
 10
-28.0321212415
 20
-1.6516338059
 10
-28.029627
 20
-1.6147335823
 10
-28.0276853013
 20
-1.5773672361
 10
-28.0263082944
 20
-1.5395565596
 10
-28.0255076966
 20
-1.501323997
 10
-28.0252937426
 20
-1.4626814137
 10
-28.0256761561
 20
-1.4236400404
 10
-28.0266640971
 20
-1.3842191475
 10
-28.0282666161
 20
-1.3444395569
 10
-28.0304928889
 20
-1.3043202549
 10
-28.0333518702
 20
-1.2638791352
 10
-28.0368515071
 20
-1.2231315539
 10
-28.0409991542
 20
-1.1820941918
 10
-28.0458008062
 20
-1.140791564
 10
-28.0512621932
 20
-1.0992481143
 10
-28.0573893482
 20
-1.0574801649
 10
-28.0641875766
 20
-1.0155052289
 10
-28.0716589702
 20
-0.9733537023
 10
-28.0798053641
 20
-0.9310552394
 10
-28.0886307804
 20
-0.8886236452
 10
-28.0981397531
 20
-0.846068824
 10
-28.1083366781
 20
-0.8034009278
 10
-28.1192252942
 20
-0.7606331827
 10
-28.1308068508
 20
-0.7177908659
 10
-28.1430775063
 20
-0.6749126016
 10
-28.1560155438
 20
-0.6320783506
 10
-28.1695961161
 20
-0.5893734829
 10
-28.1837997297
 20
-0.5468636676
 10
-28.1986071987
 20
-0.5046111452
 10
-28.2139952164
 20
-0.4626841403
 10
-28.2299397844
 20
-0.4211467006
 10
-28.2464182618
 20
-0.3800401797
 10
-28.2634111782
 20
-0.3393937302
 10
-28.2809103908
 20
-0.2992103935
 10
-28.2989107309
 20
-0.2594868753
 10
-28.3174076013
 20
-0.2202206488
 10
-28.3363942736
 20
-0.1814140111
 10
-28.3558549244
 20
-0.143087786
 10
-28.3757718366
 20
-0.1052658223
 10
-28.3961288158
 20
-0.0679655414
 10
-28.4169096737
 20
-0.0312030708
 10
-28.4380967243
 20
0.0050042078
 10
-28.4596714782
 20
0.0406385358
 10
-28.48161373
 20
0.0756819
 10
-28.503903771
 20
0.1101181944
 10
-28.5265255969
 20
0.1439391989
 10
-28.5494630716
 20
0.1771369402
 10
-28.5726958279
 20
0.2096965478
 10
-28.596203837
 20
0.2416037848
 10
-28.6199726529
 20
0.2728538455
 10
-28.643987018
 20
0.3034418842
 10
-28.6682228445
 20
0.3333534626
 10
-28.6926554866
 20
0.3625743798
 10
-28.7172668979
 20
0.3911009761
 10
-28.7420403803
 20
0.4189319072
 10
-28.7669580313
 20
0.4460645489
 10
-28.7920015321
 20
0.4724955857
 10
-28.817152104
 20
0.498220218
 10
-28.8423921819
 20
0.5232349132
 10
-28.867709514
 20
0.5475426909
 10
-28.8930907922
 20
0.5711462854
 10
-28.9185131697
 20
0.594040737
 10
-28.9439529187
 20
0.6162210253
 10
-28.9693923251
 20
0.63768958
 10
-28.9948161484
 20
0.6584515018
 10
-29.020213028
 20
0.6785151245
 10
-29.0455711381
 20
0.6978879753
 10
-29.070872912
 20
0.7165711236
 10
-29.0961016841
 20
0.7345659824
 10
-29.1212501354
 20
0.7518817984
 10
-29.1463131803
 20
0.76852961
 10
-29.1712853221
 20
0.7845197876
 10
-29.1961598348
 20
0.7998619561
 10
-29.220925486
 20
0.8145634248
 10
-29.2455716469
 20
0.8286320239
 10
-29.2700946075
 20
0.8420799809
 10
-29.2944924239
 20
0.8549203732
 10
-29.3187632974
 20
0.8671652788
 10
-29.3429037345
 20
0.8788255061
 10
-29.3669033173
 20
0.889907784
 10
-29.3907501824
 20
0.9004181343
 10
-29.4144336079
 20
0.9103638289
 10
-29.4379463312
 20
0.9197535508
 10
-29.4612937859
 20
0.9286003768
 10
-29.484482043
 20
0.9369173507
 10
-29.5075070296
 20
0.9447129916
 10
-29.5303626034
 20
0.9519948693
 10
-29.5530444911
 20
0.9587712811
 10
-29.5755488374
 20
0.9650507605
 10
-29.5978715908
 20
0.9708420557
 10
-29.6200111429
 20
0.9761544428
 10
-29.6419758527
 20
0.9809990918
 10
-29.6637746214
 20
0.9853869496
 10
-29.6854085505
 20
0.9893261767
 10
-29.7068784244
 20
0.9928243006
 10
-29.7281915586
 20
0.9958891035
 10
-29.7493539396
 20
0.9985280913
 10
-29.7703597072
 20
1.0007474087
 10
-29.7912027697
 20
1.002553016
 10
-29.8118879569
 20
1.0039514959
 10
-29.8324219643
 20
1.004949193
 10
-29.8528080303
 20
1.0055508761
 10
-29.8730496663
 20
1.0057609283
 10
-29.8931549323
 20
1.0055837649
 10
-29.9131312131
 20
1.0050238295
 10
-29.9329786429
 20
1.0040856478
 10
-29.9526946737
 20
1.0027737469
 10
-29.9722732796
 20
1.001092578
 10
-29.9917112396
 20
0.9990459026
 10
-30.0110200301
 20
0.9966347991
 10
-30.0302134702
 20
0.9938596326
 10
-30.0493000526
 20
0.9907205993
 10
-30.0682887303
 20
0.9872170827
 10
-30.0871956232
 20
0.9833453855
 10
-30.1060379581
 20
0.9791013061
 10
-30.1248302206
 20
0.9744817054
 10
-30.1435831229
 20
0.9694842774
 10
-30.1622950253
 20
0.9641089836
  0
LWPOLYLINE
  5
428
100
AcDbEntity
  8
218_INCISO
100
AcDbPolyline
 62
250
  6
CONTINUOUS
 90
17
 70
0
 10
-30.4747232185
 20
5.547108
 10
-30.4130453377
 20
5.5531564903
 10
-30.3537167482
 20
5.5710715761
 10
-30.2989972576
 20
5.6001708773
 10
-30.250185965
 20
5.6401285431
 10
-30.2108493943
 20
5.6880249629
 10
-30.1815636957
 20
5.7426508799
 10
-30.1634443521
 20
5.80192561
 10
-30.1571795893
 20
5.8647
 10
-30.1632271584
 20
5.9263872761
 10
-30.1811395157
 20
5.985724903
 10
-30.2102343849
 20
6.0404527289
 10
-30.250185965
 20
6.0892714569
 10
-30.2980750899
 20
6.1286140196
 10
-30.3526926871
 20
6.1579041793
 10
-30.4119583893
 20
6.1760262829
 10
-30.4747232463
 20
6.182292
  0
LWPOLYLINE
  5
429
100
AcDbEntity
  8
218_INCISO
100
AcDbPolyline
 62
250
  6
CONTINUOUS
 90
17
 70
0
 10
-30.4747232185
 20
5.72419
 10
-30.4474355065
 20
5.7268659911
 10
-30.421187175
 20
5.7347920368
 10
-30.3969780147
 20
5.7476662365
 10
-30.375382777
 20
5.7653444262
 10
-30.3579793741
 20
5.7865349031
 10
-30.3450227079
 20
5.8107026642
 10
-30.3370062939
 20
5.8369271671
 10
-30.3342346189
 20
5.8647
 10
-30.3369102024
 20
5.8919918687
 10
-30.344835041
 20
5.9182441986
 10
-30.3577072798
 20
5.9424570466
 10
-30.375382777
 20
5.9640555738
 10
-30.3965700265
 20
5.9814616278
 10
-30.4207341068
 20
5.9944202676
 10
-30.4469546156
 20
6.0024379027
 10
-30.4747232308
 20
6.00521
  0
LWPOLYLINE
  5
42A
100
AcDbEntity
  8
218_INCISO
100
AcDbPolyline
 62
250
  6
CONTINUOUS
 90
17
 70
0
 10
-30.4747232185
 20
6.00521
 10
-30.5020109305
 20
6.0025340089
 10
-30.5282592621
 20
5.9946079632
 10
-30.5524684223
 20
5.9817337635
 10
-30.57406366
 20
5.9640555738
 10
-30.5914670629
 20
5.9428650969
 10
-30.6044237291
 20
5.9186973358
 10
-30.6124401431
 20
5.8924728329
 10
-30.6152118182
 20
5.8647
 10
-30.6125362346
 20
5.8374081313
 10
-30.6046113961
 20
5.8111558014
 10
-30.5917391573
 20
5.7869429534
 10
-30.57406366
 20
5.7653444262
 10
-30.5528764105
 20
5.7479383722
 10
-30.5287123303
 20
5.7349797324
 10
-30.5024918215
 20
5.7269620973
 10
-30.4747232062
 20
5.72419
  0
LWPOLYLINE
  5
42B
100
AcDbEntity
  8
218_INCISO
100
AcDbPolyline
 62
250
  6
CONTINUOUS
 90
17
 70
0
 10
-30.4747232185
 20
6.182292
 10
-30.5364010993
 20
6.1762435097
 10
-30.5957296888
 20
6.1583284239
 10
-30.6504491794
 20
6.1292291227
 10
-30.6992604721
 20
6.0892714569
 10
-30.7385970427
 20
6.0413750371
 10
-30.7678827414
 20
5.9867491201
 10
-30.7860020849
 20
5.92747439
 10
-30.7922668477
 20
5.8647
 10
-30.7862192786
 20
5.8030127239
 10
-30.7683069214
 20
5.743675097
 10
-30.7392120521
 20
5.6889472711
 10
-30.6992604721
 20
5.6401285431
 10
-30.6513713472
 20
5.6007859804
 10
-30.59675375
 20
5.5714958207
 10
-30.5374880477
 20
5.5533737171
 10
-30.4747231908
 20
5.547108
  0
LWPOLYLINE
  5
42C
100
AcDbEntity
  8
218_INCISO
100
AcDbPolyline
 62
250
  6
CONTINUOUS
 90
17
 70
0
 10
-33.8197676745
 20
6.097331
 10
-33.7823673317
 20
6.1009986943
 10
-33.7463915565
 20
6.1118620758
 10
-33.7132106547
 20
6.1295073616
 10
-33.6836123766
 20
6.1537369619
 10
-33.6597593971
 20
6.1827804778
 10
-33.6420010833
 20
6.2159046382
 10
-33.6310138436
 20
6.2518477541
 10
-33.6272150056
 20
6.289913
 10
-33.6308821413
 20
6.3273190398
 10
-33.6417438682
 20
6.3633002952
 10
-33.6593864666
 20
6.3964862513
 10
-33.6836123766
 20
6.4260890381
 10
-33.712651469
 20
6.4499456511
 10
-33.7457705845
 20
6.46770667
 10
-33.781708226
 20
6.4786955834
 10
-33.8197676913
 20
6.482495
  0
LWPOLYLINE
  5
42D
100
AcDbEntity
  8
218_INCISO
100
AcDbPolyline
 62
250
  6
CONTINUOUS
 90
17
 70
0
 10
-33.8197676745
 20
6.482495
 10
-33.8571680172
 20
6.4788273057
 10
-33.8931437924
 20
6.4679639242
 10
-33.9263246942
 20
6.4503186384
 10
-33.9559229723
 20
6.4260890381
 10
-33.9797759518
 20
6.3970455222
 10
-33.9975342656
 20
6.3639213618
 10
-34.0085215053
 20
6.3279782459
 10
-34.0123203433
 20
6.289913
 10
-34.0086532076
 20
6.2525069602
 10
-33.9977914807
 20
6.2165257048
 10
-33.9801488823
 20
6.1833397487
 10
-33.9559229723
 20
6.1537369619
 10
-33.9268838799
 20
6.1298803489
 10
-33.8937647644
 20
6.11211933
 10
-33.8578271229
 20
6.1011304166
 10
-33.8197676576
 20
6.097331
  0
LWPOLYLINE
  5
42E
100
AcDbEntity
  8
218_INCISO
100
AcDbPolyline
 62
250
  6
CONTINUOUS
 90
71
 70
0
 10
-41.0488216817
 20
4.7815268003
 10
-41.0755226764
 20
4.7812836009
 10
-41.1022187815
 20
4.7805381692
 10
-41.1288954207
 20
4.7792667552
 10
-41.1555380178
 20
4.7774456088
 10
-41.1821388457
 20
4.7750505921
 10
-41.2086767063
 20
4.7720598378
 10
-41.2351297238
 20
4.7684491653
 10
-41.2614886235
 20
4.7641795157
 10
-41.2824993783
 20
4.760260781
 10
-41.3034206493
 20
4.755873817
 10
-41.3242340131
 20
4.7509989578
 10
-41.3449210464
 20
4.7456165378
 10
-41.3654633259
 20
4.739706891
 10
-41.3859315558
 20
4.7332240777
 10
-41.4062180294
 20
4.7261890694
 10
-41.4263056001
 20
4.718601365
 10
-41.4461771212
 20
4.7104604631
 10
-41.4658154462
 20
4.7017658625
 10
-41.4852055967
 20
4.6925154992
 10
-41.5043216799
 20
4.6827105137
 10
-41.5231400557
 20
4.6723506708
 10
-41.5416370841
 20
4.6614357353
 10
-41.559789125
 20
4.6499654719
 10
-41.5746085982
 20
4.6400008106
 10
-41.5891589228
 20
4.6296510053
 10
-41.6034260182
 20
4.6189153283
 10
-41.6173744872
 20
4.6078123025
 10
-41.6310151396
 20
4.5963318221
 10
-41.6443365333
 20
4.5844818161
 10
-41.6573165898
 20
4.5722803642
 10
-41.6699547271
 20
4.5597253954
 10
-41.6822391812
 20
4.5468243928
 10
-41.6941599525
 20
4.533585169
 10
-41.7057102778
 20
4.5200211401
 10
-41.7168851977
 20
4.506146088
 10
-41.7276843542
 20
4.4919683106
 10
-41.7381009397
 20
4.4775071156
 10
-41.7481330417
 20
4.462776556
 10
-41.7577760991
 20
4.4477967464
 10
-41.7670368975
 20
4.4325776288
 10
-41.775919279
 20
4.4171350117
 10
-41.7844271913
 20
4.4014921687
 10
-41.7925856279
 20
4.3856639261
 10
-41.8004193833
 20
4.3696724064
 10
-41.8116208929
 20
4.3454140711
 10
-41.8222362799
 20
4.3208934898
 10
-41.8323409117
 20
4.2961770693
 10
-41.8419928942
 20
4.2712804498
 10
-41.8512298293
 20
4.2462367955
 10
-41.8600839952
 20
4.2210554833
 10
-41.8685899367
 20
4.1957391986
 10
-41.8767692308
 20
4.170298734
 10
-41.8845378684
 20
4.1447342808
 10
-41.891762981
 20
4.1190103969
 10
-41.896201931
 20
4.1017844218
 10
-41.9003009332
 20
4.0844746611
 10
-41.9040242723
 20
4.0670815831
 10
-41.9073484289
 20
4.0496101135
 10
-41.9103009629
 20
4.0320706567
 10
-41.9129215332
 20
4.0144780549
 10
-41.9163193345
 20
3.987973611
 10
-41.9191765941
 20
3.9614062067
 10
-41.9216153581
 20
3.9347740611
 10
-41.9237560658
 20
3.9081159546
 10
-41.9274931139
 20
3.8548137927
 10
-41.9306676005
 20
3.8015261757
 10
-41.9334160051
 20
3.7482329028
 10
-41.9358714813
 20
3.6949149145
 10
-41.9381113007
 20
3.6415711383
 10
-41.9401696835
 20
3.5882200575
  0
LINE
  5
42F
100
AcDbEntity
  8
218_INCISO
100
AcDbLine
 62
250
  6
CONTINUOUS
 10
-32.6720395056
 20
4.78807
 11
-32.8876426632
 21
4.78807
  0
LINE
  5
430
100
AcDbEntity
  8
268
100
AcDbLine
 62
250
  6
CONTINUOUS
 10
-48.7351787211
 20
4.8
 11
-49.010508902
 21
4.8
  0
LINE
  5
431
100
AcDbEntity
  8
218_INCISO
100
AcDbLine
 62
250
  6
CONTINUOUS
 10
-33.9853634496
 20
4.843073
 11
-34.2028243242
 21
4.843073
  0
LINE
  5
432
100
AcDbEntity
  8
268
100
AcDbLine
 62
7
  6
CONTINUOUS
 10
-48.710621809
 20
5.0
 11
-48.9877217803
 21
5.0
  0
LINE
  5
433
100
AcDbEntity
  8
218_INCISO
100
AcDbLine
 62
250
  6
CONTINUOUS
 10
-25.827392714
 20
5.0685714585
 11
-24.5275907103
 21
5.0685714585
  0
LINE
  5
434
100
AcDbEntity
  8
218_INCISO
100
AcDbLine
 62
250
  6
CONTINUOUS
 10
-39.0410521253
 20
5.171133
 11
-41.9401698241
 21
5.171133
  0
LINE
  5
435
100
AcDbEntity
  8
268
100
AcDbLine
 62
250
  6
CONTINUOUS
 10
-48.6860648968
 20
5.2
 11
-48.9649346586
 21
5.2
  0
LINE
  5
436
100
AcDbEntity
  8
218_INCISO
100
AcDbLine
 62
250
  6
CONTINUOUS
 10
-34.2022664092
 20
5.416076
 11
-33.9848055346
 21
5.416076
  0
LINE
  5
437
100
AcDbEntity
  8
218_INCISO
100
AcDbLine
 62
250
  6
CONTINUOUS
 10
-32.8876426632
 20
5.61141
 11
-32.6720395056
 21
5.61141
  0
LINE
  5
438
100
AcDbEntity
  8
218_INCISO
100
AcDbLine
 62
250
  6
CONTINUOUS
 10
-41.9401698241
 20
5.793739
 11
-39.522838335
 21
5.793739
  0
LINE
  5
439
100
AcDbEntity
  8
218_INCISO
100
AcDbLine
 62
250
  6
CONTINUOUS
 10
-32.9800445878
 20
6.067887
 11
-33.3524518598
 21
6.067887
  0
LINE
  5
43A
100
AcDbEntity
  8
218_INCISO
100
AcDbLine
 62
250
  6
CONTINUOUS
 10
-24.5275907103
 20
6.4057143056
 11
-25.827392714
 21
6.4057143056
  0
LINE
  5
43B
100
AcDbEntity
  8
218_INCISO
100
AcDbLine
 62
250
  6
CONTINUOUS
 10
-33.3524518598
 20
6.417947
 11
-32.9800445878
 21
6.417947
  0
LINE
  5
43C
100
AcDbEntity
  8
218_INCISO
100
AcDbLine
 62
7
  6
CONTINUOUS
 10
-22.2506913363
 20
4.7760409428
 11
-20.7983978906
 21
4.6489817302
  0
LINE
  5
43D
100
AcDbEntity
  8
218_STAMPATO
100
AcDbLine
 62
7
  6
CONTINUOUS
 10
-22.2506913363
 20
4.7760409428
 11
-20.7983978906
 21
4.6489817302
  0
LINE
  5
43E
100
AcDbEntity
  8
218_INCISO
100
AcDbLine
 62
250
  6
CONTINUOUS
 10
-24.5245446135
 20
-8.6642858028
 11
-24.7102589075
 21
-8.4785716057
  0
LWPOLYLINE
  5
43F
100
AcDbEntity
  8
218_INCISO
100
AcDbPolyline
 62
250
  6
CONTINUOUS
 90
13
 70
0
 10
-31.8892719167
 20
11.4300791515
 10
-31.8899318033
 20
11.4454727909
 10
-31.8904599405
 20
11.4608715145
 10
-31.8908562954
 20
11.4762741787
 10
-31.8911208349
 20
11.4916796404
 10
-31.8912535318
 20
11.5070867678
 10
-31.8912543818
 20
11.5224944755
 10
-31.8911233868
 20
11.5379016899
 10
-31.8908605485
 20
11.5533073373
 10
-31.8904658773
 20
11.5687103003
 10
-31.8899394193
 20
11.5841092881
 10
-31.8892812294
 20
11.5995029661
 10
-31.8884913624
 20
11.61489
  0
LINE
  5
440
100
AcDbEntity
  8
218_INCISO
100
AcDbLine
 62
250
  6
CONTINUOUS
 10
-32.9800445878
 20
6.417947
 11
-32.9800445878
 21
6.067887
  0
LINE
  5
441
100
AcDbEntity
  8
218_INCISO
100
AcDbLine
 62
250
  6
CONTINUOUS
 10
-32.8876426632
 20
4.78807
 11
-32.8876426632
 21
5.61141
  0
LINE
  5
442
100
AcDbEntity
  8
218_INCISO
100
AcDbLine
 62
250
  6
CONTINUOUS
 10
-32.6720395056
 20
5.61141
 11
-32.6720395056
 21
4.78807
  0
LWPOLYLINE
  5
443
100
AcDbEntity
  8
0
100
AcDbPolyline
 62
7
  6
CONTINUOUS
 90
2
 70
0
 43
0.3500000087
 10
-31.5245447693
 20
33.150000592
 10
-31.5245447693
 20
34.6500020569
  0
LINE
  5
444
100
AcDbEntity
  8
218_INCISO
100
AcDbLine
 62
250
  6
CONTINUOUS
 10
-31.3388048405
 20
-13.997789
 11
-31.3388048405
 21
-13.502211
  0
LWPOLYLINE
  5
445
100
AcDbEntity
  8
218_INCISO
100
AcDbPolyline
 62
250
  6
CONTINUOUS
 90
200
 70
0
 10
-32.6390796737
 20
16.000003
 10
-32.6403310942
 20
15.9601638188
 10
-32.6409598841
 20
15.92030891
 10
-32.6409658094
 20
15.8804494152
 10
-32.6403488978
 20
15.8405949727
 10
-32.6391092896
 20
15.8007549442
 10
-32.6372473119
 20
15.7609390901
 10
-32.6347633904
 20
15.7211572408
 10
-32.6316581575
 20
15.6814191075
 10
-32.6279323477
 20
15.6417343743
 10
-32.6235868966
 20
15.6021127371
 10
-32.6186228403
 20
15.5625638869
 10
-32.613041417
 20
15.5230974828
 10
-32.6068439654
 20
15.4837231696
 10
-32.6000320247
 20
15.4444505637
 10
-32.5926072342
 20
15.4052892656
 10
-32.5845714331
 20
15.3662488389
 10
-32.5759265598
 20
15.3273388274
 10
-32.5666747514
 20
15.2885687326
 10
-32.5568182438
 20
15.2499480332
 10
-32.5463594697
 20
15.2114861591
 10
-32.53530096
 20
15.1731925146
 10
-32.5236454412
 20
15.135076449
 10
-32.5113957368
 20
15.0971472826
 10
-32.4985548638
 20
15.0594142749
 10
-32.4851259358
 20
15.0218866536
 10
-32.4711122577
 20
14.9845735793
 10
-32.4565172298
 20
14.9474841777
 10
-32.4413444417
 20
14.9106275016
 10
-32.4255975772
 20
14.8740125659
 10
-32.409280507
 20
14.837648307
 10
-32.3923971948
 20
14.80154362
 10
-32.3749517887
 20
14.7657073158
 10
-32.3569485283
 20
14.7301481615
 10
-32.3383918351
 20
14.6948748338
 10
-32.3192862206
 20
14.6598959629
 10
-32.2996363751
 20
14.6252200833
 10
-32.2794470778
 20
14.5908556797
 10
-32.2587232834
 20
14.5568111357
 10
-32.2374700336
 20
14.5230947827
 10
-32.2156925429
 20
14.4897148451
 10
-32.1933961109
 20
14.4566794926
 10
-32.1705862063
 20
14.4239967825
 10
-32.1472683816
 20
14.3916747149
 10
-32.1234483547
 20
14.3597211722
 10
-32.0991319251
 20
14.3281439769
 10
-32.0743250543
 20
14.2969508287
 10
-32.0490337835
 20
14.266149365
 10
-32.0232643119
 20
14.2357470956
 10
-31.9970229163
 20
14.2057514649
 10
-31.9703160275
 20
14.1761697853
 10
-31.943150152
 20
14.1470093014
 10
-31.9155319459
 20
14.1182771209
 10
-31.8874681388
 20
14.0899802815
 10
-31.8589656058
 20
14.0621256792
 10
-31.8300312931
 20
14.0347201379
 10
-31.8006722878
 20
14.0077703352
 10
-31.7708957461
 20
13.9812828745
 10
-31.7407089602
 20
13.9552642086
 10
-31.7101192891
 20
13.929720714
 10
-31.6791342232
 20
13.9046586122
 10
-31.6477613171
 20
13.8800840465
 10
-31.616008252
 20
13.8560030011
 10
-31.5838827706
 20
13.8324213803
 10
-31.5513927375
 20
13.8093449251
 10
-31.5185460762
 20
13.7867792947
 10
-31.4853508266
 20
13.7647299816
 10
-31.4518150853
 20
13.7432023943
 10
-31.4179470599
 20
13.7222017714
 10
-31.383755012
 20
13.7017332655
 10
-31.349247309
 20
13.681801856
 10
-31.3144323695
 20
13.6624124347
 10
-31.2793187122
 20
13.643569717
 10
-31.2439149046
 20
13.625278329
 10
-31.2082296085
 20
13.6075427175
 10
-31.1722715317
 20
13.5903672384
 10
-31.1360494709
 20
13.5737560655
 10
-31.0995722658
 20
13.5577132804
 10
-31.0628488391
 20
13.5422427798
 10
-31.0258881536
 20
13.5273483668
 10
-30.9886992495
 20
13.5130336572
 10
-30.9512912043
 20
13.4993021722
 10
-30.9136731665
 20
13.4861572429
 10
-30.8758543192
 20
13.4736021052
 10
-30.8378439106
 20
13.4616398025
 10
-30.7996512204
 20
13.4502732818
 10
-30.7612855874
 20
13.4395052961
 10
-30.7227563788
 20
13.4293385006
 10
-30.684073015
 20
13.4197753549
 10
-30.6452449415
 20
13.4108182204
 10
-30.6062816509
 20
13.4024692606
 10
-30.5671926579
 20
13.3947305404
 10
-30.5279875181
 20
13.3876039258
 10
-30.4886758061
 20
13.3810911828
 10
-30.4492671311
 20
13.3751938779
 10
-30.4097711182
 20
13.3699134769
 10
-30.3701974208
 20
13.3652512449
 10
-30.3305557053
 20
13.3612083462
 10
-30.2908556598
 20
13.3577857434
 10
-30.2511069822
 20
13.354984298
 10
-30.2113193861
 20
13.3528046692
 10
-30.1715025916
 20
13.3512474149
 10
-30.1316663282
 20
13.3503128902
 10
-30.0918203285
 20
13.3500013488
 10
-30.0519743285
 20
13.3503128415
 10
-30.0121380639
 20
13.3512473175
 10
-29.9723212675
 20
13.3528045232
 10
-29.9325336688
 20
13.3549841033
 10
-29.8927849878
 20
13.3577855001
 10
-29.8530849381
 20
13.3612080544
 10
-29.8134432176
 20
13.3652509047
 10
-29.7738695146
 20
13.3699130883
 10
-29.7343734952
 20
13.3751934411
 10
-29.694964813
 20
13.3810906979
 10
-29.6556530931
 20
13.3876033927
 10
-29.6164479446
 20
13.3947299595
 10
-29.5773589421
 20
13.4024686319
 10
-29.5383956413
 20
13.410817544
 10
-29.4995675569
 20
13.4197746312
 10
-29.4608841814
 20
13.4293377295
 10
-29.4223549604
 20
13.4395044779
 10
-29.3839893142
 20
13.4502724168
 10
-29.3457966101
 20
13.4616388908
 10
-29.307786187
 20
13.4736011471
 10
-29.2699673243
 20
13.4861562386
 10
-29.2323492704
 20
13.4993011218
 10
-29.1949412084
 20
13.5130325611
 10
-29.1577522869
 20
13.5273472253
 10
-29.1207915832
 20
13.5422415931
 10
-29.0840681376
 20
13.5577120489
 10
-29.0475909129
 20
13.5737547894
 10
-29.0113688318
 20
13.590365918
 10
-28.9754107341
 20
13.6075413531
 10
-28.9397254163
 20
13.6252769211
 10
-28.9043215863
 20
13.6435682658
 10
-28.869207906
 20
13.6624109406
 10
-28.8343929428
 20
13.6818003193
 10
-28.7998852154
 20
13.7017316866
 10
-28.7656931426
 20
13.7222001508
 10
-28.7318250916
 20
13.7432007323
 10
-28.698289324
 20
13.7647282786
 10
-28.6650940474
 20
13.7867775511
 10
-28.6322473586
 20
13.8093431414
 10
-28.5997572972
 20
13.8324195569
 10
-28.5676317871
 20
13.8560011385
 10
-28.5358786925
 20
13.880082145
 10
-28.5045057564
 20
13.9046566724
 10
-28.4735206599
 20
13.9297187363
 10
-28.4429309576
 20
13.9552621936
 10
-28.41274414
 20
13.9812808225
 10
-28.3829675659
 20
14.0077682468
 10
-28.3536085277
 20
14.0347180136
 10
-28.3246741815
 20
14.0621235196
 10
-28.2961716145
 20
14.0899780871
 10
-28.2681077729
 20
14.1182748922
 10
-28.2404895317
 20
14.147007039
 10
-28.2133236206
 20
14.1761674896
 10
-28.1866166956
 20
14.2057491366
 10
-28.1603752634
 20
14.2357447352
 10
-28.1346057546
 20
14.2661469732
 10
-28.1093144463
 20
14.2969484059
 10
-28.0845075373
 20
14.3281415238
 10
-28.0601910692
 20
14.3597186894
 10
-28.0363710032
 20
14.391672203
 10
-28.013053139
 20
14.4239942421
 10
-27.9902431946
 20
14.4566769243
 10
-27.9679467222
 20
14.4897122496
 10
-27.9461691907
 20
14.5230921606
 10
-27.9249158998
 20
14.5568084876
 10
-27.9041920638
 20
14.5908530063
 10
-27.8840027245
 20
14.6252173852
 10
-27.8643528367
 20
14.6598932408
 10
-27.8452471795
 20
14.6948720883
 10
-27.8266904432
 20
14.7301453933
 10
-27.8086871394
 20
14.7657045256
 10
-27.7912416895
 20
14.8015408085
 10
-27.7743583332
 20
14.8376454749
 10
-27.7580412185
 20
14.8740097139
 10
-27.7422943093
 20
14.9106246303
 10
-27.7271214762
 20
14.9474812878
 10
-27.712526403
 20
14.9845706716
 10
-27.6985126793
 20
15.0218837288
 10
-27.6850837055
 20
15.0594113337
 10
-27.6722427865
 20
15.0971443257
 10
-27.6599930357
 20
15.1350734771
 10
-27.6483374703
 20
15.1731895285
 10
-27.6372789139
 20
15.2114831595
 10
-27.6268200928
 20
15.2499450208
 10
-27.616963538
 20
15.2885657081
 10
-27.6077116823
 20
15.3273357916
 10
-27.5990667615
 20
15.3662457926
 10
-27.5910309127
 20
15.4052862094
 10
-27.5836060744
 20
15.4444474984
 10
-27.5767940857
 20
15.483720096
 10
-27.570596586
 20
15.5230944017
 10
-27.5650151145
 20
15.5625607989
 10
-27.5600510099
 20
15.6021096431
 10
-27.5557055104
 20
15.641731275
 10
-27.5519796522
 20
15.6814160036
 10
-27.5488743707
 20
15.7211541332
  0
LWPOLYLINE
  5
446
100
AcDbEntity
  8
218_INCISO
100
AcDbPolyline
 62
250
  6
CONTINUOUS
 90
200
 70
0
 10
-32.6390796737
 20
11.61489
 10
-32.640331047
 20
11.5750508337
 10
-32.6409597901
 20
11.5351959406
 10
-32.6409656691
 20
11.4953364622
 10
-32.6403487118
 20
11.4554820368
 10
-32.6391090583
 20
11.415642026
 10
-32.6372470358
 20
11.3758261905
 10
-32.63476307
 20
11.3360443604
 10
-32.6316577934
 20
11.2963062469
 10
-32.6279319404
 20
11.2566215342
 10
-32.6235864467
 20
11.2169999182
 10
-32.6186223484
 20
11.1774510898
 10
-32.6130408836
 20
11.1379847081
 10
-32.606843391
 20
11.0986104179
 10
-32.60003141
 20
11.0593378357
 10
-32.5926065798
 20
11.0201765618
 10
-32.5845707395
 20
10.9811361599
 10
-32.5759258278
 20
10.9422261738
 10
-32.5666739815
 20
10.9034561048
 10
-32.5568174366
 20
10.8648354319
 10
-32.5463586258
 20
10.8263735848
 10
-32.5353000802
 20
10.7880799677
 10
-32.5236445261
 20
10.74996393
 10
-32.511394787
 20
10.712034792
 10
-32.49855388
 20
10.6743018133
 10
-32.4851249187
 20
10.6367742213
 10
-32.4711112079
 20
10.5994611768
 10
-32.456516148
 20
10.5623718054
 10
-32.4413433287
 20
10.5255151599
 10
-32.4255964335
 20
10.4889002553
 10
-32.4092793334
 20
10.4525360277
 10
-32.392395992
 20
10.4164313725
 10
-32.3749505574
 20
10.3805951004
 10
-32.3569472692
 20
10.3450359785
 10
-32.3383905489
 20
10.3097626836
 10
-32.319284908
 20
10.2747838459
 10
-32.2996350369
 20
10.2401079996
 10
-32.2794457147
 20
10.2057436297
 10
-32.2587218961
 20
10.1716991196
 10
-32.2374686228
 20
10.1379828008
 10
-32.2156911094
 20
10.1046028976
 10
-32.1933946553
 20
10.0715675797
 10
-32.1705847295
 20
10.0388849045
 10
-32.1472668842
 20
10.006562872
 10
-32.1234468374
 20
9.9746093645
 10
-32.0991303887
 20
9.9430322046
 10
-32.0743234996
 20
9.911839092
 10
-32.0490322112
 20
9.881037664
 10
-32.0232627226
 20
9.8506354303
 10
-31.9970213109
 20
9.8206398356
 10
-31.9703144067
 20
9.791058192
 10
-31.9431485165
 20
9.7618977443
 10
-31.9155302964
 20
9.7331655999
 10
-31.8874664761
 20
9.7048687967
 10
-31.8589639306
 20
9.6770142307
 10
-31.8300296061
 20
9.6496087256
 10
-31.8006705898
 20
9.6226589592
 10
-31.7708940377
 20
9.5961715349
 10
-31.7407072421
 20
9.5701529053
 10
-31.7101175622
 20
9.5446094469
 10
-31.679132488
 20
9.5195473813
 10
-31.6477595745
 20
9.4949728518
 10
-31.6160065025
 20
9.4708918426
 10
-31.5838810151
 20
9.4473102577
 10
-31.5513909765
 20
9.4242338385
 10
-31.5185443105
 20
9.4016682438
 10
-31.4853490569
 20
9.3796189664
 10
-31.4518133122
 20
9.3580914147
 10
-31.4179452842
 20
9.3370908272
 10
-31.3837532343
 20
9.3166223566
 10
-31.34924553
 20
9.2966909821
 10
-31.3144305898
 20
9.2773015958
 10
-31.2793169325
 20
9.2584589127
 10
-31.2439131255
 20
9.2401675593
 10
-31.2082278306
 20
9.222431982
 10
-31.1722697558
 20
9.205256537
 10
-31.1360476975
 20
9.1886453979
 10
-31.0995704955
 20
9.1726026464
 10
-31.0628470726
 20
9.157132179
 10
-31.0258863915
 20
9.1422377991
 10
-30.9886974924
 20
9.1279231222
 10
-30.9512894527
 20
9.1141916696
 10
-30.913671421
 20
9.1010467726
 10
-30.8758525804
 20
9.0884916667
 10
-30.8378421791
 20
9.0765293955
 10
-30.7996494967
 20
9.065162906
 10
-30.7612838721
 20
9.054394951
 10
-30.7227546724
 20
9.044228186
 10
-30.684071318
 20
9.0346650704
 10
-30.6452432545
 20
9.0257079656
 10
-30.6062799743
 20
9.0173590352
 10
-30.5671909923
 20
9.009620344
 10
-30.527985864
 20
9.0024937579
 10
-30.4886741639
 20
8.9959810431
 10
-30.4492655014
 20
8.9900837658
 10
-30.4097695013
 20
8.9848033921
 10
-30.3701958173
 20
8.980141187
 10
-30.3305541155
 20
8.9760983148
 10
-30.2908540843
 20
8.972675738
 10
-30.2511054213
 20
8.9698743181
 10
-30.2113178403
 20
8.9676947144
 10
-30.1715010612
 20
8.9661374847
 10
-30.1316648136
 20
8.9652029842
 10
-30.0918188301
 20
8.9648914665
 10
-30.0519728467
 20
8.9652029823
 10
-30.012136599
 20
8.966137481
 10
-29.9723198199
 20
8.9676947089
 10
-29.9325322388
 20
8.9698743108
 10
-29.8927835757
 20
8.9726757288
 10
-29.8530835442
 20
8.9760983037
 10
-29.8134418423
 20
8.9801411742
 10
-29.773868158
 20
8.9848033775
 10
-29.7343721578
 20
8.9900837493
 10
-29.6949634949
 20
8.9959810248
 10
-29.6556517946
 20
9.0024937377
 10
-29.6164466659
 20
9.009620322
 10
-29.5773576835
 20
9.0173590114
 10
-29.538394403
 20
9.02570794
 10
-29.499566339
 20
9.0346650431
 10
-29.4608829842
 20
9.0442281569
 10
-29.4223537841
 20
9.0543949201
 10
-29.383988159
 20
9.0651628733
 10
-29.3457954761
 20
9.076529361
 10
-29.3077850742
 20
9.0884916305
 10
-29.269966233
 20
9.1010467346
 10
-29.2323482007
 20
9.11419163
 10
-29.1949401604
 20
9.1279230808
 10
-29.1577512607
 20
9.142237756
 10
-29.1207905789
 20
9.1571321342
 10
-29.0840671552
 20
9.1726025999
 10
-29.0475899524
 20
9.1886453497
 10
-29.0113678934
 20
9.2052564872
 10
-28.9754098178
 20
9.2224319305
 10
-28.9397245221
 20
9.2401675061
 10
-28.9043207143
 20
9.2584588579
 10
-28.8692070561
 20
9.2773015393
 10
-28.834392115
 20
9.2966909241
 10
-28.7998844097
 20
9.3166222969
 10
-28.765692359
 20
9.337090766
 10
-28.7318243299
 20
9.3580913519
 10
-28.6982885843
 20
9.3796189021
 10
-28.6650933296
 20
9.401668178
 10
-28.6322466626
 20
9.4242337711
 10
-28.599756623
 20
9.4473101888
 10
-28.5676311345
 20
9.4708917722
 10
-28.5358780614
 20
9.49497278
 10
-28.5045051467
 20
9.5195473081
 10
-28.4735200714
 20
9.5446093722
 10
-28.4429303902
 20
9.5701528292
 10
-28.4127435935
 20
9.5961714574
 10
-28.3829670402
 20
9.6226588804
 10
-28.3536080226
 20
9.6496086454
 10
-28.3246736969
 20
9.6770141491
 10
-28.29617115
 20
9.7048687139
 10
-28.2681073285
 20
9.7331655158
 10
-28.240489107
 20
9.7618976588
 10
-28.2133232155
 20
9.7910581053
 10
-28.1866163099
 20
9.8206397477
 10
-28.1603748968
 20
9.8506353412
 10
-28.1346054069
 20
9.8810375737
 10
-28.109314117
 20
9.9118390005
 10
-28.0845072264
 20
9.9430321119
 10
-28.0601907763
 20
9.9746092707
 10
-28.036370728
 20
10.0065627771
 10
-28.0130528813
 20
10.0388848086
 10
-27.9902429539
 20
10.0715674827
 10
-27.9679464984
 20
10.1046027996
 10
-27.9461689833
 20
10.1379827018
 10
-27.9249157086
 20
10.1716990196
 10
-27.9041918884
 20
10.2057435287
 10
-27.8840025645
 20
10.2401078977
 10
-27.8643526919
 20
10.2747837431
 10
-27.8452470494
 20
10.3097625799
 10
-27.8266903274
 20
10.345035874
 10
-27.8086870376
 20
10.380594995
 10
-27.7912416013
 20
10.4164312663
 10
-27.7743582583
 20
10.4525359207
 10
-27.7580411565
 20
10.4889001476
 10
-27.7422942597
 20
10.5255150515
 10
-27.7271214386
 20
10.5623716962
 10
-27.712526377
 20
10.599461067
 10
-27.6985126645
 20
10.6367741109
 10
-27.6850837014
 20
10.6743017022
 10
-27.6722427928
 20
10.7120346804
 10
-27.6599930519
 20
10.7499638178
 10
-27.648337496
 20
10.788079855
 10
-27.6372789486
 20
10.8263734715
 10
-27.6268201361
 20
10.8648353181
 10
-27.6169635894
 20
10.9034559906
 10
-27.6077117413
 20
10.9422260591
 10
-27.5990668278
 20
10.9811360448
 10
-27.5910309857
 20
11.0201764464
 10
-27.5836061537
 20
11.0593377199
 10
-27.5767941709
 20
11.0986103018
 10
-27.5705966765
 20
11.1379845918
 10
-27.5650152099
 20
11.1774509731
 10
-27.5600511097
 20
11.2169998014
 10
-27.5557056142
 20
11.2566214172
 10
-27.5519797594
 20
11.2963061297
 10
-27.5488744809
 20
11.336044243
  0
LINE
  5
447
100
AcDbEntity
  8
218_INCISO
100
AcDbLine
 62
7
  6
CONTINUOUS
 10
-27.5914189118
 20
2.907638
 11
-27.5245446135
 21
2.9745122983
  0
LINE
  5
448
100
AcDbEntity
  8
218_INCISO
100
AcDbLine
 62
250
  6
CONTINUOUS
 10
-29.6305505559
 20
-2.0466693452
 11
-28.9375454198
 21
-1.4960235222
  0
LINE
  5
449
100
AcDbEntity
  8
218_INCISO
100
AcDbLine
 62
250
  6
CONTINUOUS
 10
-40.1459096135
 20
-7.285246
 11
-41.0214486135
 21
-7.56635
  0
LINE
  5
44A
100
AcDbEntity
  8
218_INCISO
100
AcDbLine
 62
250
  6
CONTINUOUS
 10
-39.0245596135
 20
-6.925211
 11
-39.5948876135
 21
-7.108317
  0
LINE
  5
44B
100
AcDbEntity
  8
218_INCISO
100
AcDbLine
 62
250
  6
CONTINUOUS
 10
-39.522838335
 20
6.866738
 11
-39.0410521253
 21
6.866738
  0
LINE
  5
44C
100
AcDbEntity
  8
218_INCISO
100
AcDbLine
 62
250
  6
CONTINUOUS
 10
-25.6417067246
 20
6.9907141662
 11
-24.7132767192
 21
6.9907141662
  0
LINE
  5
44D
100
AcDbEntity
  8
218_INCISO
100
AcDbLine
 62
250
  6
CONTINUOUS
 10
-28.543401413
 20
7.092362
 11
-27.5245446135
 21
7.092362
  0
LINE
  5
44E
100
AcDbEntity
  8
218_INCISO
100
AcDbLine
 62
250
  6
CONTINUOUS
 10
-24.5275907103
 20
7.4642857409
 11
-25.827392714
 21
7.4642857409
  0
LINE
  5
44F
100
AcDbEntity
  8
218_INCISO
100
AcDbLine
 62
250
  6
CONTINUOUS
 10
-30.7916749379
 20
5.880593
 11
-33.6877587831
 21
6.149839
  0
LINE
  5
450
100
AcDbEntity
  8
218_INCISO
100
AcDbLine
 62
250
  6
CONTINUOUS
 10
-40.1372901242
 20
8.151456
 11
-41.3861786138
 21
8.581471
  0
LINE
  5
451
100
AcDbEntity
  8
218_INCISO
100
AcDbLine
 62
250
  6
CONTINUOUS
 10
-39.0410521253
 20
7.773964
 11
-39.6555039145
 21
7.990812
  0
LINE
  5
452
100
AcDbEntity
  8
218_INCISO
100
AcDbLine
 62
250
  6
CONTINUOUS
 10
-41.9401698241
 20
8.227849
 11
-39.0410521253
 21
7.179514
  0
LINE
  5
453
100
AcDbEntity
  8
218_INCISO
100
AcDbLine
 62
250
  6
CONTINUOUS
 10
-29.6167417025
 20
-0.7257172791
 11
-29.6704111636
 21
-0.661086151
  0
LINE
  5
454
100
AcDbEntity
  8
218_INCISO
100
AcDbLine
 62
250
  6
CONTINUOUS
 10
-29.6704111636
 20
-0.661086151
 11
-29.7034385242
 21
-0.6015799581
  0
LINE
  5
455
100
AcDbEntity
  8
218_INCISO
100
AcDbLine
 62
250
  6
CONTINUOUS
 10
-29.7576774225
 20
-0.4148045393
 11
-29.7786042415
 21
0.0686476879
  0
LINE
  5
456
100
AcDbEntity
  8
218_INCISO
100
AcDbLine
 62
250
  6
CONTINUOUS
 10
-30.2859728333
 20
-0.400568608
 11
-30.2962227039
 21
0.3385609455
  0
LINE
  5
457
100
AcDbEntity
  8
218_INCISO
100
AcDbLine
 62
250
  6
CONTINUOUS
 10
-30.4667045514
 20
14.1395
 11
-30.4667045514
 21
15.6
  0
LINE
  5
458
100
AcDbEntity
  8
218_INCISO
100
AcDbLine
 62
250
  6
CONTINUOUS
 10
-30.3535976693
 20
4.225174
 11
-30.3535976693
 21
5.571041
  0
LINE
  5
459
100
AcDbEntity
  8
218_INCISO
100
AcDbLine
 62
250
  6
CONTINUOUS
 10
-30.2859728333
 20
-0.5540319475
 11
-30.2859728333
 21
-0.400568608
  0
LINE
  5
45A
100
AcDbEntity
  8
218_INCISO
100
AcDbLine
 62
250
  6
CONTINUOUS
 10
-30.1571795893
 20
4.399503
 11
-30.1571795893
 21
4.281883
  0
LINE
  5
45B
100
AcDbEntity
  8
218_INCISO
100
AcDbLine
 62
250
  6
CONTINUOUS
 10
-29.9748484098
 20
-8.551724
 11
-29.9748484098
 21
-8.195402
  0
LINE
  5
45C
100
AcDbEntity
  8
218_INCISO
100
AcDbLine
 62
250
  6
CONTINUOUS
 10
-29.9748484098
 20
-7.045977
 11
-29.9748484098
 21
-6.488506
  0
LINE
  5
45D
100
AcDbEntity
  8
218_INCISO
100
AcDbLine
 62
250
  6
CONTINUOUS
 10
-29.7169329913
 20
15.6
 11
-29.7169329913
 21
14.1395
  0
LINE
  5
45E
100
AcDbEntity
  8
218_INCISO
100
AcDbLine
 62
250
  6
CONTINUOUS
 10
-29.5439456969
 20
-6.655172
 11
-29.5439456969
 21
-7.045977
  0
LINE
  5
45F
100
AcDbEntity
  8
218_INCISO
100
AcDbLine
 62
250
  6
CONTINUOUS
 10
-29.7081363815
 20
-2.2519514747
 11
-29.7030114463
 21
-2.186181472
  0
LINE
  5
460
100
AcDbEntity
  8
218_INCISO
100
AcDbLine
 62
250
  6
CONTINUOUS
 10
-29.7030114463
 20
-2.186181472
 11
-29.6940428095
 21
-2.1524423148
  0
LINE
  5
461
100
AcDbEntity
  8
218_INCISO
100
AcDbLine
 62
250
  6
CONTINUOUS
 10
-29.6940428095
 20
-2.1524423148
 11
-29.6802339562
 21
-2.1189878762
  0
LINE
  5
462
100
AcDbEntity
  8
218_INCISO
100
AcDbLine
 62
250
  6
CONTINUOUS
 10
-28.8885738161
 20
-1.4264098181
 11
-28.8749073221
 21
-1.394094254
  0
LINE
  5
463
100
AcDbEntity
  8
218_INCISO
100
AcDbLine
 62
250
  6
CONTINUOUS
 10
-28.9016708729
 20
-1.4520344944
 11
-28.8885738161
 21
-1.4264098181
  0
LINE
  5
464
100
AcDbEntity
  8
218_INCISO
100
AcDbLine
 62
250
  6
CONTINUOUS
 10
-29.6802339562
 20
-2.1189878762
 11
-29.6671368994
 21
-2.0936479185
  0
LINE
  5
465
100
AcDbEntity
  8
218_INCISO
100
AcDbLine
 62
250
  6
CONTINUOUS
 10
-29.6671368994
 20
-2.0936479185
 11
-29.6486301887
 21
-2.0667420083
  0
LINE
  5
466
100
AcDbEntity
  8
218_INCISO
100
AcDbLine
 62
250
  6
CONTINUOUS
 10
-28.9190387091
 20
-1.4769473742
 11
-28.9016708729
 21
-1.4520344944
  0
LINE
  5
467
100
AcDbEntity
  8
218_INCISO
100
AcDbLine
 62
250
  6
CONTINUOUS
 10
-29.6486301887
 20
-2.0667420083
 11
-29.6305505559
 21
-2.0466693452
  0
LINE
  5
468
100
AcDbEntity
  8
218_INCISO
100
AcDbLine
 62
250
  6
CONTINUOUS
 10
-28.9375454198
 20
-1.4960235222
 11
-28.9190387091
 21
-1.4769473742
  0
LINE
  5
469
100
AcDbEntity
  8
218_INCISO
100
AcDbLine
 62
250
  6
CONTINUOUS
 10
-40.0360136135
 20
-10.59258
 11
-41.9246826135
 21
-11.134148
  0
LINE
  5
46A
100
AcDbEntity
  8
218_INCISO
100
AcDbLine
 62
250
  6
CONTINUOUS
 10
-25.827392714
 20
13.899285183
 11
-24.5275907103
 21
14.2335718536
  0
LINE
  5
46B
100
AcDbEntity
  8
218_INCISO
100
AcDbLine
 62
250
  6
CONTINUOUS
 10
-24.5275907103
 20
9.4421425915
 11
-25.827392714
 21
9.4421425915
  0
LINE
  5
46C
100
AcDbEntity
  8
218_INCISO
100
AcDbLine
 62
250
  6
CONTINUOUS
 10
-24.5275907103
 20
9.9714285183
 11
-25.827392714
 21
9.9714285183
  0
LINE
  5
46D
100
AcDbEntity
  8
218_INCISO
100
AcDbLine
 62
250
  6
CONTINUOUS
 10
-39.0410521253
 20
10.292325
 11
-41.9401698241
 21
10.292325
  0
LINE
  5
46E
100
AcDbEntity
  8
218_INCISO
100
AcDbLine
 62
250
  6
CONTINUOUS
 10
-37.5256107474
 20
10.4428571671
 11
-35.6259001266
 21
10.4428571671
  0
LINE
  5
46F
100
AcDbEntity
  8
218_INCISO
100
AcDbLine
 62
250
  6
CONTINUOUS
 10
-24.5275907103
 20
10.5564285183
 11
-25.827392714
 21
10.5564285183
  0
LINE
  5
470
100
AcDbEntity
  8
218_INCISO
100
AcDbLine
 62
250
  6
CONTINUOUS
 10
-24.5275907103
 20
5.4028571528
 11
-25.827392714
 21
5.7371429169
  0
LINE
  5
471
100
AcDbEntity
  8
218_INCISO
100
AcDbLine
 62
250
  6
CONTINUOUS
 10
-25.0846487175
 20
4.7342857292
 11
-25.827392714
 21
5.0685714585
  0
LINE
  5
472
100
AcDbEntity
  8
218_INCISO
100
AcDbLine
 62
250
  6
CONTINUOUS
 10
-29.6139483387
 20
2.624378
 11
-34.6234632491
 21
7.56101
  0
LINE
  5
473
100
AcDbEntity
  8
218_INCISO
100
AcDbLine
 62
250
  6
CONTINUOUS
 10
-36.9828363166
 20
9.9
 11
-37.5256107474
 21
10.4428571671
  0
LINE
  5
474
100
AcDbEntity
  8
218_INCISO
100
AcDbLine
 62
250
  6
CONTINUOUS
 10
-30.237143589
 20
-0.6783116278
 11
-30.2859728333
 21
-0.5540319475
  0
LINE
  5
475
100
AcDbEntity
  8
218_INCISO
100
AcDbLine
 62
250
  6
CONTINUOUS
 10
-29.7034385242
 20
-0.6015799581
 11
-29.7202369231
 21
-0.5548861034
  0
LINE
  5
476
100
AcDbEntity
  8
218_INCISO
100
AcDbLine
 62
250
  6
CONTINUOUS
 10
-29.7202369231
 20
-0.5548861034
 11
-29.7435838505
 21
-0.4797203861
  0
LINE
  5
477
100
AcDbEntity
  8
218_INCISO
100
AcDbLine
 62
250
  6
CONTINUOUS
 10
-29.7435838505
 20
-0.4797203861
 11
-29.7576774225
 21
-0.4148045393
  0
LWPOLYLINE
  5
478
100
AcDbEntity
  8
218_INCISO
100
AcDbPolyline
 62
250
  6
CONTINUOUS
 90
185
 70
0
 10
-28.2951461741
 20
11.6148898891
 10
-28.2936981191
 20
11.584109177
 10
-28.2927769918
 20
11.5533072262
 10
-28.2923831604
 20
11.5224943644
 10
-28.2925167092
 20
11.4916795293
 10
-28.2931776055
 20
11.4608714034
 10
-28.2943656312
 20
11.4300790405
 10
-28.2960804692
 20
11.3993115597
 10
-28.2983215906
 20
11.3685779701
 10
-28.301088363
 20
11.337887256
 10
-28.30437995
 20
11.3072484118
 10
-28.3081954128
 20
11.2766704264
 10
-28.3125336076
 20
11.2461622581
 10
-28.3173932884
 20
11.2157328501
 10
-28.3227730054
 20
11.1853911166
 10
-28.3286712074
 20
11.1551459552
 10
-28.3350861404
 20
11.1250062251
 10
-28.3420159495
 20
11.094980765
 10
-28.3494585787
 20
11.065078369
 10
-28.3574118717
 20
11.0353078071
 10
-28.3658734725
 20
11.0056777978
 10
-28.3748409261
 20
10.9761970322
 10
-28.3843115797
 20
10.9468741429
 10
-28.394282682
 20
10.9177177319
 10
-28.4047512863
 20
10.8887363361
 10
-28.4157143489
 20
10.8599384579
 10
-28.4271686324
 20
10.8313325284
 10
-28.4391108039
 20
10.8029269409
 10
-28.4515373396
 20
10.7747300107
 10
-28.464444621
 20
10.7467500119
 10
-28.4778288419
 20
10.7189951343
 10
-28.4916861028
 20
10.6914735234
 10
-28.5060123195
 20
10.6641932337
 10
-28.520803316
 20
10.6371622725
 10
-28.5360547348
 20
10.6103885496
 10
-28.5517621284
 20
10.5838799246
 10
-28.5679208711
 20
10.5576441536
 10
-28.584526249
 20
10.5316889393
 10
-28.6015733737
 20
10.5060218747
 10
-28.6190572705
 20
10.4806504965
 10
-28.636972794
 20
10.4555822261
 10
-28.6553147144
 20
10.4308244255
 10
-28.6740776355
 20
10.4063843352
 10
-28.6932560786
 20
10.3822691339
 10
-28.7128444027
 20
10.3584858733
 10
-28.7328368868
 20
10.3350415401
 10
-28.7532276518
 20
10.3119429887
 10
-28.774010741
 20
10.2891970058
 10
-28.7951800441
 20
10.2668102406
 10
-28.8167293757
 20
10.2447892717
 10
-28.8386524017
 20
10.2231405351
 10
-28.8609427148
 20
10.201870394
 10
-28.8835937646
 20
10.1809850635
 10
-28.9065989298
 20
10.1604906837
 10
-28.9299514511
 20
10.1403932418
 10
-28.9536445009
 20
10.1206986476
 10
-28.977671119
 20
10.1014126532
 10
-29.0020242796
 20
10.0825409312
 10
-29.0266968296
 20
10.0640889922
 10
-29.0516815535
 20
10.0460622645
 10
-29.0769711135
 20
10.0284660107
 10
-29.1025581125
 20
10.0113054089
 10
-29.1284350371
 20
9.9945854673
 10
-29.1545943174
 20
9.9783111077
 10
-29.1810282729
 20
9.962487078
 10
-29.2077291695
 20
9.9471180379
 10
-29.234689169
 20
9.9322084696
 10
-29.2619003823
 20
9.9177627652
 10
-29.2893548224
 20
9.9037851357
 10
-29.3170444545
 20
9.8902797007
 10
-29.3449611521
 20
9.8772503952
 10
-29.3730967442
 20
9.8647010612
 10
-29.4014429743
 20
9.8526353531
 10
-29.4299915449
 20
9.8410568308
 10
-29.4587340791
 20
9.8299688638
 10
-29.4876621626
 20
9.819374726
 10
-29.516767308
 20
9.809277498
 10
-29.5460409937
 20
9.7996801635
 10
-29.5754746322
 20
9.7905855107
 10
-29.6050596047
 20
9.7819962298
 10
-29.6347872331
 20
9.7739148133
 10
-29.6646488117
 20
9.7663436547
 10
-29.6946355823
 20
9.7592849479
 10
-29.7247387623
 20
9.7527407867
 10
-29.7549495235
 20
9.746713064
 10
-29.7852590168
 20
9.7412035715
 10
-29.8156583546
 20
9.7362138988
 10
-29.8461386315
 20
9.7317455335
 10
-29.8766909106
 20
9.7277997598
 10
-29.9073062409
 20
9.7243777597
 10
-29.9379756469
 20
9.7214805105
 10
-29.9686901424
 20
9.7191088869
 10
-29.9994407236
 20
9.7172635583
 10
-30.0302183796
 20
9.7159450914
 10
-30.061014089
 20
9.7151538467
 10
-30.0918188269
 20
9.7148900819
 10
-30.1226235647
 20
9.7151538486
 10
-30.1534192741
 20
9.7159450952
 10
-30.18419693
 20
9.717263564
 10
-30.2149475111
 20
9.7191088945
 10
-30.2456620064
 20
9.72148052
 10
-30.2763314123
 20
9.7243777711
 10
-30.3069467424
 20
9.7277997731
 10
-30.3374990213
 20
9.7317455487
 10
-30.3679792979
 20
9.7362139158
 10
-30.3983786353
 20
9.7412035905
 10
-30.4286881283
 20
9.7467130848
 10
-30.4588988892
 20
9.7527408094
 10
-30.4890020687
 20
9.7592849724
 10
-30.5189888389
 20
9.7663436811
 10
-30.548850417
 20
9.7739148416
 10
-30.578578045
 20
9.7819962599
 10
-30.6081630169
 20
9.7905855426
 10
-30.6375966548
 20
9.7996801972
 10
-30.6668703399
 20
9.8092775335
 10
-30.6959754848
 20
9.8193747633
 10
-30.7249035675
 20
9.8299689029
 10
-30.7536461011
 20
9.8410568716
 10
-30.782194671
 20
9.8526353957
 10
-30.8105409004
 20
9.8647011056
 10
-30.8386764917
 20
9.8772504413
 10
-30.8665931884
 20
9.8902797485
 10
-30.8942828197
 20
9.9037851852
 10
-30.9217372589
 20
9.9177628164
 10
-30.9489484713
 20
9.9322085225
 10
-30.9759084699
 20
9.9471180925
 10
-31.0026093656
 20
9.9624871342
 10
-31.0290433201
 20
9.9783111656
 10
-31.0552025994
 20
9.9945855268
 10
-31.081079523
 20
10.01130547
 10
-31.106666521
 20
10.0284660733
 10
-31.1319560799
 20
10.0460623287
 10
-31.1569408026
 20
10.0640890579
 10
-31.1816133515
 20
10.0825409985
 10
-31.2059665109
 20
10.101412722
 10
-31.2299931278
 20
10.1206987179
 10
-31.2536861764
 20
10.1403933136
 10
-31.2770386964
 20
10.1604907569
 10
-31.3000438604
 20
10.1809851381
 10
-31.3226949089
 20
10.20187047
 10
-31.3449852207
 20
10.2231406125
 10
-31.3669082453
 20
10.2447893504
 10
-31.3884575756
 20
10.2668103206
 10
-31.4096268774
 20
10.2891970872
 10
-31.4304099651
 20
10.3119430713
 10
-31.4508007287
 20
10.335041624
 10
-31.4707932114
 20
10.3584859584
 10
-31.490381534
 20
10.3822692203
 10
-31.5095599756
 20
10.4063844227
 10
-31.5283228952
 20
10.4308245142
 10
-31.5466648141
 20
10.455582316
 10
-31.564580336
 20
10.4806505875
 10
-31.5820642313
 20
10.5060219667
 10
-31.5991113544
 20
10.5316890323
 10
-31.6157167307
 20
10.5576442477
 10
-31.6318754717
 20
10.5838800197
 10
-31.6475828637
 20
10.6103886456
 10
-31.6628342808
 20
10.6371623695
 10
-31.6776252757
 20
10.6641933316
 10
-31.6919514907
 20
10.6914736222
 10
-31.7058087499
 20
10.718995234
 10
-31.7191929691
 20
10.7467501124
 10
-31.7321002488
 20
10.7747301119
 10
-31.7445267827
 20
10.802927043
 10
-31.7564689524
 20
10.8313326312
 10
-31.7679232342
 20
10.8599385614
 10
-31.778886295
 20
10.8887364402
 10
-31.7893548976
 20
10.9177178368
 10
-31.7993259981
 20
10.9468742484
 10
-31.8087966498
 20
10.9761971382
 10
-31.8177641016
 20
11.0056779044
 10
-31.8262257006
 20
11.0353079142
 10
-31.8341789917
 20
11.0650784766
 10
-31.8416216191
 20
11.0949808731
 10
-31.8485514264
 20
11.1250063336
 10
-31.8549663575
 20
11.155146064
 10
-31.8608645576
 20
11.1853912258
 10
-31.8662442728
 20
11.2157329597
 10
-31.8711039517
 20
11.246162368
 10
-31.8754421446
 20
11.2766705366
 10
-31.8792576055
 20
11.3072485221
 10
-31.8825491906
 20
11.3378873666
 10
-31.8853159611
 20
11.3685780808
 10
-31.8875570807
 20
11.3993116706
 10
-31.8892719167
 20
11.4300791515
  0
LWPOLYLINE
  5
479
100
AcDbEntity
  8
218_INCISO
100
AcDbPolyline
 62
250
  6
CONTINUOUS
 90
83
 70
0
 10
-28.2951493816
 20
16.0000027662
 10
-28.2936905919
 20
15.9689438096
 10
-28.2927682991
 20
15.937863302
 10
-28.2923828796
 20
15.9067718539
 10
-28.2925344164
 20
15.8756786473
 10
-28.2932228709
 20
15.8445926024
 10
-28.2944480125
 20
15.8135230205
 10
-28.2962095076
 20
15.7824792699
 10
-28.2985068035
 20
15.7514706057
 10
-28.30133924
 20
15.720506257
 10
-28.3047059453
 20
15.6895954633
 10
-28.3086059418
 20
15.6587474581
 10
-28.313038039
 20
15.6279714427
 10
-28.3180009409
 20
15.5972766026
 10
-28.3234931402
 20
15.5666720931
 10
-28.3295130242
 20
15.5361670519
 10
-28.3360587704
 20
15.5057705765
 10
-28.3431284517
 20
15.4754917428
 10
-28.3507199324
 20
15.4453395799
 10
-28.3588309731
 20
15.415323092
 10
-28.3674591277
 20
15.3854512289
 10
-28.3766018473
 20
15.355732912
 10
-28.386256378
 20
15.3261770013
 10
-28.3964198643
 20
15.2967923247
 10
-28.4070892482
 20
15.267587642
 10
-28.418261371
 20
15.2385716769
 10
-28.429932874
 20
15.2097530784
 10
-28.4421002991
 20
15.1811404559
 10
-28.4547599911
 20
15.1527423371
 10
-28.4679081966
 20
15.124567207
 10
-28.4815409679
 20
15.0966234616
 10
-28.495654261
 20
15.0689194513
 10
-28.5102438407
 20
15.0414634307
 10
-28.5253053771
 20
15.0142636055
 10
-28.5408343523
 20
14.987328079
 10
-28.5568261556
 20
14.9606649023
 10
-28.5732759922
 20
14.9342820179
 10
-28.590178976
 20
14.9081873128
 10
-28.6075300407
 20
14.882388559
 10
-28.625324031
 20
14.8568934699
 10
-28.6435556151
 20
14.831709638
 10
-28.6622193744
 20
14.8068445938
 10
-28.6813097181
 20
14.7823057411
 10
-28.7008209709
 20
14.7581004187
 10
-28.7207472896
 20
14.7342358328
 10
-28.7410827487
 20
14.7107191217
 10
-28.76182126
 20
14.6875572854
 10
-28.7829566548
 20
14.6647572532
 10
-28.8044826068
 20
14.6423258106
 10
-28.8263927118
 20
14.6202696697
 10
-28.8486804129
 20
14.5985953931
 10
-28.871339078
 20
14.5773094677
 10
-28.8943619275
 20
14.5564182258
 10
-28.9177421092
 20
14.5359279211
 10
-28.9414726288
 20
14.515844648
 10
-28.9655464223
 20
14.4961744196
 10
-28.9899562892
 20
14.476923085
 10
-29.0146949622
 20
14.4580964097
 10
-29.0397550428
 20
14.4396999904
 10
-29.065129069
 20
14.4217393381
 10
-29.0908094537
 20
14.4042197906
 10
-29.1167885489
 20
14.3871465978
 10
-29.1430585876
 20
14.370524832
 10
-29.1696117452
 20
14.3543594757
 10
-29.1964400842
 20
14.33865533
 10
-29.2235356125
 20
14.323417104
 10
-29.2508902317
 20
14.3086493215
 10
-29.2784957916
 20
14.2943564128
 10
-29.3063440428
 20
14.2805426192
 10
-29.3344266869
 20
14.2672120867
 10
-29.3627353324
 20
14.254368769
 10
-29.3912615425
 20
14.2420165231
 10
-29.4199967964
 20
14.2301590099
 10
-29.44893253
 20
14.2187997923
 10
-29.4780600923
 20
14.2079422366
 10
-29.5073707991
 20
14.197589608
 10
-29.5368559204
 20
14.1877449653
 10
-29.566506673
 20
14.1784112699
 10
-29.5963141069
 20
14.1695913017
 10
-29.62626931
 20
14.1612877236
 10
-29.6563636873
 20
14.1535029127
 10
-29.6865883592
 20
14.146239198
 10
-29.7169329913
 20
14.139499
  0
LINE
  5
47A
100
AcDbEntity
  8
218_INCISO
100
AcDbLine
 62
250
  6
CONTINUOUS
 10
-29.1130429841
 20
-6.488506
 11
-29.1130429841
 21
-7.045977
  0
LINE
  5
47B
100
AcDbEntity
  8
218_INCISO
100
AcDbLine
 62
250
  6
CONTINUOUS
 10
-29.1130429841
 20
-8.195402
 11
-29.1130429841
 21
-8.551724
  0
LINE
  5
47C
100
AcDbEntity
  8
218_INCISO
100
AcDbLine
 62
250
  6
CONTINUOUS
 10
-28.6017037785
 20
-9.560345
 11
-28.6017037785
 21
-5.439655
  0
LINE
  5
47D
100
AcDbEntity
  8
218_INCISO
100
AcDbLine
 62
250
  6
CONTINUOUS
 10
-28.543401413
 20
2.907638
 11
-28.543401413
 21
7.092362
  0
LINE
  5
47E
100
AcDbEntity
  8
218_INCISO
100
AcDbLine
 62
250
  6
CONTINUOUS
 10
-28.0689890857
 20
-13.997789
 11
-28.0689890857
 21
-13.502211
  0
LINE
  5
47F
100
AcDbEntity
  8
218_INCISO
100
AcDbLine
 62
250
  6
CONTINUOUS
 10
-27.7973518479
 20
-9.482759
 11
-27.7973518479
 21
-5.517241
  0
LINE
  5
480
100
AcDbEntity
  8
218_INCISO
100
AcDbLine
 62
250
  6
CONTINUOUS
 10
-27.5245446135
 20
7.092362
 11
-27.5245446135
 21
2.907638
  0
LINE
  5
481
100
AcDbEntity
  8
218_INCISO
100
AcDbLine
 62
250
  6
CONTINUOUS
 10
-27.4546602589
 20
-13.214776
 11
-27.4546602589
 21
-13.75
  0
LWPOLYLINE
  5
482
100
AcDbEntity
  8
218_INCISO
100
AcDbPolyline
 62
250
  6
CONTINUOUS
 90
11
 70
0
 10
-27.5432887174
 20
15.8405918582
 10
-27.5429671989
 20
15.8565324358
 10
-27.5427453253
 20
15.872474711
 10
-27.5426231026
 20
15.8884180911
 10
-27.5426005367
 20
15.9043619833
 10
-27.5426776338
 20
15.9203057947
 10
-27.5428543954
 20
15.9362489087
 10
-27.5431308067
 20
15.952190612
 10
-27.5435068485
 20
15.9681301676
 10
-27.5439825016
 20
15.9840668383
 10
-27.5445577469
 20
15.9999998871
  0
LWPOLYLINE
  5
483
100
AcDbEntity
  8
218_INCISO
100
AcDbPolyline
 62
250
  6
CONTINUOUS
 90
11
 70
0
 10
-27.5432888336
 20
11.4554819191
 10
-27.5429673156
 20
11.4714224902
 10
-27.5427454424
 20
11.4873647589
 10
-27.54262322
 20
11.5033081324
 10
-27.5426006544
 20
11.519252018
 10
-27.5426777516
 20
11.5351958229
 10
-27.5428545133
 20
11.5511389303
 10
-27.5431309247
 20
11.5670806271
 10
-27.5435069664
 20
11.5830201761
 10
-27.5439826194
 20
11.5989568403
 10
-27.5445578644
 20
11.6148898824
  0
LINE
  5
484
100
AcDbEntity
  8
218_INCISO
100
AcDbLine
 62
250
  6
CONTINUOUS
 10
-28.8666504819
 20
-1.3609245341
 11
-28.8632338584
 21
-1.2968628432
  0
LWPOLYLINE
  5
485
100
AcDbEntity
  8
218_INCISO
100
AcDbPolyline
 62
250
  6
CONTINUOUS
 90
4
 70
0
 10
-27.5488743707
 20
15.7211541332
 10
-27.5463904006
 20
15.7609359794
 10
-27.5445283743
 20
15.8007518312
 10
-27.5432887174
 20
15.8405918582
  0
LWPOLYLINE
  5
486
100
AcDbEntity
  8
218_INCISO
100
AcDbPolyline
 62
250
  6
CONTINUOUS
 90
4
 70
0
 10
-27.5488744809
 20
11.336044243
 10
-27.5463905133
 20
11.375826073
 10
-27.544528489
 20
11.4156419085
 10
-27.5432888336
 20
11.4554819191
  0
LINE
  5
487
100
AcDbEntity
  8
218_INCISO
100
AcDbLine
 62
250
  6
CONTINUOUS
 10
-28.8749073221
 20
-1.394094254
 11
-28.8666504819
 21
-1.3609245341
  0
LWPOLYLINE
  5
488
100
AcDbEntity
  8
218_INCISO
100
AcDbPolyline
 62
250
  6
CONTINUOUS
 90
69
 70
0
 10
-31.6493022384
 20
-7.1733
 10
-31.6573286085
 20
-7.18060493
 10
-31.6651715583
 20
-7.1881075897
 10
-31.6728255014
 20
-7.1958027231
 10
-31.6802857818
 20
-7.2036856041
 10
-31.6875479657
 20
-7.211751555
 10
-31.6946075743
 20
-7.2199955631
 10
-31.7014601743
 20
-7.2284125085
 10
-31.7081015586
 20
-7.2369971785
 10
-31.7145276171
 20
-7.2457443
 10
-31.7207344023
 20
-7.2546484534
 10
-31.7267180541
 20
-7.2637041516
 10
-31.7324749003
 20
-7.2729057864
 10
-31.7380013627
 20
-7.2822476902
 10
-31.7432940517
 20
-7.2917240789
 10
-31.7483496739
 20
-7.3013291129
 10
-31.7531651314
 20
-7.3110568467
 10
-31.7577374252
 20
-7.3209012847
 10
-31.7620637563
 20
-7.3308563347
 10
-31.7661414273
 20
-7.3409158593
 10
-31.7699679453
 20
-7.351073635
 10
-31.7735409209
 20
-7.3613233976
 10
-31.7768581737
 20
-7.3716588075
 10
-31.7799176283
 20
-7.3820734896
 10
-31.7827174216
 20
-7.3925610035
 10
-31.7852557977
 20
-7.4031148791
 10
-31.7875312158
 20
-7.4137285913
 10
-31.7895422432
 20
-7.4243955906
 10
-31.7912876653
 20
-7.4351092835
 10
-31.7927663765
 20
-7.4458630572
 10
-31.7939774911
 20
-7.4566502662
 10
-31.7949202334
 20
-7.4674642509
 10
-31.7955940489
 20
-7.4782983298
 10
-31.7959984936
 20
-7.4891458131
 10
-31.7961333455
 20
-7.5
 10
-31.7959984936
 20
-7.5108541869
 10
-31.7955940489
 20
-7.5217016702
 10
-31.7949202334
 20
-7.5325357491
 10
-31.7939774911
 20
-7.5433497338
 10
-31.7927663765
 20
-7.5541369428
 10
-31.7912876653
 20
-7.5648907165
 10
-31.7895422432
 20
-7.5756044094
 10
-31.7875312158
 20
-7.5862714087
 10
-31.7852557977
 20
-7.5968851209
 10
-31.7827174216
 20
-7.6074389965
 10
-31.7799176283
 20
-7.6179265104
 10
-31.7768581737
 20
-7.6283411925
 10
-31.7735409209
 20
-7.6386766024
 10
-31.7699679453
 20
-7.648926365
 10
-31.7661414273
 20
-7.6590841407
 10
-31.7620637563
 20
-7.6691436653
 10
-31.7577374252
 20
-7.6790987153
 10
-31.7531651314
 20
-7.6889431533
 10
-31.7483496739
 20
-7.6986708871
 10
-31.7432940517
 20
-7.7082759211
 10
-31.7380013627
 20
-7.7177523098
 10
-31.7324749003
 20
-7.7270942136
 10
-31.7267180541
 20
-7.7362958484
 10
-31.7207344023
 20
-7.7453515466
 10
-31.7145276171
 20
-7.7542557
 10
-31.7081015586
 20
-7.7630028215
 10
-31.7014601743
 20
-7.7715874915
 10
-31.6946075743
 20
-7.7800044369
 10
-31.6875479657
 20
-7.788248445
 10
-31.6802857818
 20
-7.7963143959
 10
-31.6728255014
 20
-7.8041972769
 10
-31.6651715583
 20
-7.8118924103
 10
-31.6573286085
 20
-7.81939507
 10
-31.6493022384
 20
-7.8267
  0
LINE
  5
489
100
AcDbEntity
  8
218_INCISO
100
AcDbLine
 62
250
  6
CONTINUOUS
 10
-29.3281704392
 20
-5.112955
 11
-31.6493022384
 21
-7.1733
  0
LINE
  5
48A
100
AcDbEntity
  8
218_INCISO
100
AcDbLine
 62
250
  6
CONTINUOUS
 10
-29.8748788684
 20
-7.5
 11
-30.7366852939
 21
-7.920459
  0
LINE
  5
48B
100
AcDbEntity
  8
218_INCISO
100
AcDbLine
 62
250
  6
CONTINUOUS
 10
-40.9369936135
 20
-11.430963
 11
-39.0245516135
 21
-10.882587
  0
LINE
  5
48C
100
AcDbEntity
  8
218_INCISO
100
AcDbLine
 62
250
  6
CONTINUOUS
 10
-41.4674168622
 20
10.87477
 11
-39.0410521253
 21
10.87477
  0
LINE
  5
48D
100
AcDbEntity
  8
218_INCISO
100
AcDbLine
 62
250
  6
CONTINUOUS
 10
-32.6390826728
 20
11.61489
 11
-31.8884913624
 21
11.61489
  0
LINE
  5
48E
100
AcDbEntity
  8
218_INCISO
100
AcDbLine
 62
250
  6
CONTINUOUS
 10
-28.2951461803
 20
11.61489
 11
-27.5445548699
 21
11.61489
  0
LINE
  5
48F
100
AcDbEntity
  8
218_INCISO
100
AcDbLine
 62
250
  6
CONTINUOUS
 10
-35.6259001266
 20
11.6190476298
 11
-36.575755437
 21
11.6190476298
  0
LINE
  5
490
100
AcDbEntity
  8
218_INCISO
100
AcDbLine
 62
250
  6
CONTINUOUS
 10
-24.5275907103
 20
12.0328570366
 11
-25.827392714
 21
12.0328570366
  0
LINE
  5
491
100
AcDbEntity
  8
218_INCISO
100
AcDbLine
 62
250
  6
CONTINUOUS
 10
-39.6427557986
 20
12.328754
 11
-41.9401698241
 21
12.328754
  0
LINE
  5
492
100
AcDbEntity
  8
218_INCISO
100
AcDbLine
 62
250
  6
CONTINUOUS
 10
-36.1686746139
 20
12.4785713315
 11
-36.9828363166
 21
12.4785713315
  0
LINE
  5
493
100
AcDbEntity
  8
218_INCISO
100
AcDbLine
 62
250
  6
CONTINUOUS
 10
-36.0329809779
 20
10.9857143342
 11
-37.5256107474
 21
11.3928571105
  0
LINE
  5
494
100
AcDbEntity
  8
218_INCISO
100
AcDbLine
 62
250
  6
CONTINUOUS
 10
-41.9401698241
 20
14.252884
 11
-39.0410521253
 21
13.20444
  0
LINE
  5
495
100
AcDbEntity
  8
218_INCISO
100
AcDbLine
 62
250
  6
CONTINUOUS
 10
-36.9828363166
 20
12.4785713315
 11
-37.254223532
 21
12.614285779
  0
LINE
  5
496
100
AcDbEntity
  8
218_INCISO
100
AcDbLine
 62
250
  6
CONTINUOUS
 10
-37.254223532
 20
12.614285779
 11
-37.5256107474
 21
12.885714221
  0
LINE
  5
497
100
AcDbEntity
  8
218_INCISO
100
AcDbLine
 62
250
  6
CONTINUOUS
 10
-36.9828363166
 20
13.971428442
 11
-37.5256107474
 21
14.514285779
  0
LINE
  5
498
100
AcDbEntity
  8
218_INCISO
100
AcDbLine
 62
250
  6
CONTINUOUS
 10
-35.8972873702
 20
13.2928571105
 11
-35.6259001266
 21
13.0214286685
  0
LINE
  5
499
100
AcDbEntity
  8
218_INCISO
100
AcDbLine
 62
250
  6
CONTINUOUS
 10
-37.254223532
 20
15.192857337
 11
-37.5256107474
 21
15.464285779
  0
LINE
  5
49A
100
AcDbEntity
  8
218_INCISO
100
AcDbLine
 62
250
  6
CONTINUOUS
 10
-25.827392714
 20
6.4057143056
 11
-25.827392714
 21
6.8235713887
  0
LINE
  5
49B
100
AcDbEntity
  8
218_INCISO
100
AcDbLine
 62
250
  6
CONTINUOUS
 10
-25.827392714
 20
7.4642857409
 11
-25.827392714
 21
7.9657143521
  0
LINE
  5
49C
100
AcDbEntity
  8
218_INCISO
100
AcDbLine
 62
250
  6
CONTINUOUS
 10
-25.827392714
 20
12.5621429634
 11
-25.827392714
 21
13.2307140732
  0
LINE
  5
49D
100
AcDbEntity
  8
218_INCISO
100
AcDbLine
 62
250
  6
CONTINUOUS
 10
-25.8245446135
 20
-7.6428574085
 11
-25.8245446135
 21
-7.9214283943
  0
LINE
  5
49E
100
AcDbEntity
  8
218_INCISO
100
AcDbLine
 62
250
  6
CONTINUOUS
 10
-25.8245446135
 20
-9.6857141972
 11
-25.8245446135
 21
-9.9642858028
  0
LINE
  5
49F
100
AcDbEntity
  8
218_INCISO
100
AcDbLine
 62
250
  6
CONTINUOUS
 10
-25.8245446135
 20
-10.7071425915
 11
-25.8245446135
 21
-10.9857141972
  0
LINE
  5
4A0
100
AcDbEntity
  8
218_INCISO
100
AcDbLine
 62
250
  6
CONTINUOUS
 10
-25.8245446135
 20
-11.7285712957
 11
-25.8245446135
 21
-12.0071429014
  0
LINE
  5
4A1
100
AcDbEntity
  8
218_INCISO
100
AcDbLine
 62
250
  6
CONTINUOUS
 10
-25.8245446135
 20
-14.7928571761
 11
-25.8245446135
 21
-14.4214285493
  0
LINE
  5
4A2
100
AcDbEntity
  8
218_INCISO
100
AcDbLine
 62
250
  6
CONTINUOUS
 10
-25.2703347457
 20
7.7985712957
 11
-25.2703347457
 21
7.4642857409
  0
LINE
  5
4A3
100
AcDbEntity
  8
218_INCISO
100
AcDbLine
 62
250
  6
CONTINUOUS
 10
-25.2674017895
 20
-8.6642858028
 11
-25.2674017895
 21
-9.06666646
  0
LWPOLYLINE
  5
4A4
100
AcDbEntity
  8
268
100
AcDbPolyline
 62
7
  6
CONTINUOUS
 90
4
 70
0
 10
-34.5245446135
 20
-20.9000456915
 10
-34.52489631
 20
-20.9007135843
 10
-34.5259273188
 20
-20.9019806822
 10
-34.5276009195
 20
-20.9038469852
  0
LINE
  5
4A5
100
AcDbEntity
  8
218_INCISO
100
AcDbLine
 62
250
  6
CONTINUOUS
 10
-39.9277856135
 20
-14.778839
 11
-41.9246826135
 21
-15.419971
  0
LINE
  5
4A6
100
AcDbEntity
  8
218_INCISO
100
AcDbLine
 62
250
  6
CONTINUOUS
 10
-41.9246826135
 20
-16.0
 11
-39.0245446135
 21
-15.068868
  0
LINE
  5
4A7
100
AcDbEntity
  8
218_INCISO
100
AcDbLine
 62
250
  6
CONTINUOUS
 10
-24.5275907103
 20
12.8964285183
 11
-25.827392714
 21
12.8964285183
  0
LINE
  5
4A8
100
AcDbEntity
  8
218_INCISO
100
AcDbLine
 62
250
  6
CONTINUOUS
 10
-41.9401698241
 20
12.911198
 11
-39.0410521253
 21
12.911198
  0
LINE
  5
4A9
100
AcDbEntity
  8
218_INCISO
100
AcDbLine
 62
250
  6
CONTINUOUS
 10
-36.9828363166
 20
13.4285713315
 11
-36.1686746139
 21
13.4285713315
  0
LINE
  5
4AA
100
AcDbEntity
  8
218_INCISO
100
AcDbLine
 62
250
  6
CONTINUOUS
 10
-37.5256107474
 20
14.514285779
 11
-35.6259001266
 21
14.514285779
  0
LINE
  5
4AB
100
AcDbEntity
  8
218_INCISO
100
AcDbLine
 62
250
  6
CONTINUOUS
 10
-25.827392714
 20
14.5678574085
 11
-24.5275907103
 21
14.5678574085
  0
LINE
  5
4AC
100
AcDbEntity
  8
218_INCISO
100
AcDbLine
 62
250
  6
CONTINUOUS
 10
-40.1372901242
 20
14.176491
 11
-41.3860146637
 21
14.606449
  0
LINE
  5
4AD
100
AcDbEntity
  8
218_INCISO
100
AcDbLine
 62
250
  6
CONTINUOUS
 10
-39.0410521253
 20
13.798889
 11
-39.6555039145
 21
14.015846
  0
LINE
  5
4AE
100
AcDbEntity
  8
218_INCISO
100
AcDbLine
 62
250
  6
CONTINUOUS
 10
-36.1686746139
 20
13.4285713315
 11
-35.8972873702
 21
13.2928571105
  0
LINE
  5
4AF
100
AcDbEntity
  8
218_INCISO
100
AcDbLine
 62
250
  6
CONTINUOUS
 10
-36.9828363166
 20
15.057142663
 11
-37.254223532
 21
15.192857337
  0
LINE
  5
4B0
100
AcDbEntity
  8
218_INCISO
100
AcDbLine
 62
250
  6
CONTINUOUS
 10
-35.8972873702
 20
15.871428442
 11
-35.6259001266
 21
15.6
  0
LWPOLYLINE
  5
4B1
100
AcDbEntity
  8
268
100
AcDbPolyline
 62
7
  6
CONTINUOUS
 90
5
 70
0
 10
-34.5245446135
 20
20.9000456915
 10
-34.52489631
 20
20.9007135843
 10
-34.5259273188
 20
20.9019806822
 10
-34.5276009195
 20
20.9038469852
 10
-34.5327252082
 20
20.9094512519
  0
LINE
  5
4B2
100
AcDbEntity
  8
218_INCISO
100
AcDbLine
 62
7
  6
CONTINUOUS
 10
-22.526365946
 20
-18.069821267
 11
-22.5305232658
 21
-18.009035963
  0
LINE
  5
4B3
100
AcDbEntity
  8
218_STAMPATO
100
AcDbLine
 62
7
  6
CONTINUOUS
 10
-22.526365946
 20
-18.069821267
 11
-22.5305232658
 21
-18.009035963
  0
LINE
  5
4B4
100
AcDbEntity
  8
218_INCISO
100
AcDbLine
 62
7
  6
CONTINUOUS
 10
-22.5305232658
 20
-18.009035963
 11
-22.5322192507
 21
-17.9828228129
  0
LINE
  5
4B5
100
AcDbEntity
  8
218_STAMPATO
100
AcDbLine
 62
7
  6
CONTINUOUS
 10
-22.5305232658
 20
-18.009035963
 11
-22.5322192507
 21
-17.9828228129
  0
LWPOLYLINE
  5
4B6
100
AcDbEntity
  8
218_INCISO
100
AcDbPolyline
 62
7
  6
CONTINUOUS
 90
13
 70
0
 10
-22.5070870556
 20
-11.512988951
 10
-22.5111741812
 20
-11.4478413424
 10
-22.5131731559
 20
-11.4149206988
 10
-22.5150653496
 20
-11.3819654417
 10
-22.5168502424
 20
-11.348961119
 10
-22.5185283542
 20
-11.3159221827
 10
-22.5200255946
 20
-11.2830786433
 10
-22.5213364496
 20
-11.250428826
 10
-22.5224664332
 20
-11.2179744056
 10
-22.5233579963
 20
-11.1859504163
 10
-22.5239919558
 20
-11.1544352028
 10
-22.5243874949
 20
-11.1233504205
 10
-22.5245446135
 20
-11.0926960692
  0
LWPOLYLINE
  5
4B7
100
AcDbEntity
  8
218_STAMPATO
100
AcDbPolyline
 62
7
  6
CONTINUOUS
 90
13
 70
0
 10
-22.5070870556
 20
-11.512988951
 10
-22.5111741812
 20
-11.4478413424
 10
-22.5131731559
 20
-11.4149206988
 10
-22.5150653496
 20
-11.3819654417
 10
-22.5168502424
 20
-11.348961119
 10
-22.5185283542
 20
-11.3159221827
 10
-22.5200255946
 20
-11.2830786433
 10
-22.5213364496
 20
-11.250428826
 10
-22.5224664332
 20
-11.2179744056
 10
-22.5233579963
 20
-11.1859504163
 10
-22.5239919558
 20
-11.1544352028
 10
-22.5243874949
 20
-11.1233504205
 10
-22.5245446135
 20
-11.0926960692
  0
LINE
  5
4B8
100
AcDbEntity
  8
218_INCISO
100
AcDbLine
 62
7
  6
CONTINUOUS
 10
-22.5257128933
 20
-18.0802264936
 11
-22.526365946
 21
-18.069821267
  0
LINE
  5
4B9
100
AcDbEntity
  8
218_STAMPATO
100
AcDbLine
 62
7
  6
CONTINUOUS
 10
-22.5257128933
 20
-18.0802264936
 11
-22.526365946
 21
-18.069821267
  0
LINE
  5
4BA
100
AcDbEntity
  8
218_INCISO
100
AcDbLine
 62
7
  6
CONTINUOUS
 10
-22.5322192507
 20
-17.9828228129
 11
-22.5335708024
 21
-17.9603201842
  0
LINE
  5
4BB
100
AcDbEntity
  8
218_STAMPATO
100
AcDbLine
 62
7
  6
CONTINUOUS
 10
-22.5322192507
 20
-17.9828228129
 11
-22.5335708024
 21
-17.9603201842
  0
LINE
  5
4BC
100
AcDbEntity
  8
218_INCISO
100
AcDbLine
 62
7
  6
CONTINUOUS
 10
-22.5253460316
 20
-18.08662348
 11
-22.5257128933
 21
-18.0802264936
  0
LINE
  5
4BD
100
AcDbEntity
  8
218_STAMPATO
100
AcDbLine
 62
7
  6
CONTINUOUS
 10
-22.5253460316
 20
-18.08662348
 11
-22.5257128933
 21
-18.0802264936
  0
LINE
  5
4BE
100
AcDbEntity
  8
218_INCISO
100
AcDbLine
 62
7
  6
CONTINUOUS
 10
-22.5335708024
 20
-17.9603201842
 11
-22.5348805866
 21
-17.9365564398
  0
LINE
  5
4BF
100
AcDbEntity
  8
218_STAMPATO
100
AcDbLine
 62
7
  6
CONTINUOUS
 10
-22.5335708024
 20
-17.9603201842
 11
-22.5348805866
 21
-17.9365564398
  0
LINE
  5
4C0
100
AcDbEntity
  8
218_INCISO
100
AcDbLine
 62
7
  6
CONTINUOUS
 10
-22.5348805866
 20
-17.9365564398
 11
-22.5361155552
 21
-17.9116362066
  0
LINE
  5
4C1
100
AcDbEntity
  8
218_STAMPATO
100
AcDbLine
 62
7
  6
CONTINUOUS
 10
-22.5348805866
 20
-17.9365564398
 11
-22.5361155552
 21
-17.9116362066
  0
LINE
  5
4C2
100
AcDbEntity
  8
218_INCISO
100
AcDbLine
 62
7
  6
CONTINUOUS
 10
-22.5361155552
 20
-17.9116362066
 11
-22.5369762901
 21
-17.8922399024
  0
LINE
  5
4C3
100
AcDbEntity
  8
218_STAMPATO
100
AcDbLine
 62
7
  6
CONTINUOUS
 10
-22.5361155552
 20
-17.9116362066
 11
-22.5369762901
 21
-17.8922399024
  0
LINE
  5
4C4
100
AcDbEntity
  8
218_INCISO
100
AcDbLine
 62
7
  6
CONTINUOUS
 10
-22.5369762901
 20
-17.8922399024
 11
-22.537768959
 21
-17.8722820494
  0
LINE
  5
4C5
100
AcDbEntity
  8
218_STAMPATO
100
AcDbLine
 62
7
  6
CONTINUOUS
 10
-22.5369762901
 20
-17.8922399024
 11
-22.537768959
 21
-17.8722820494
  0
LINE
  5
4C6
100
AcDbEntity
  8
218_INCISO
100
AcDbLine
 62
7
  6
CONTINUOUS
 10
-22.537768959
 20
-17.8722820494
 11
-22.5384835319
 21
-17.8518185682
  0
LINE
  5
4C7
100
AcDbEntity
  8
218_STAMPATO
100
AcDbLine
 62
7
  6
CONTINUOUS
 10
-22.537768959
 20
-17.8722820494
 11
-22.5384835319
 21
-17.8518185682
  0
LINE
  5
4C8
100
AcDbEntity
  8
218_INCISO
100
AcDbLine
 62
7
  6
CONTINUOUS
 10
-22.5384835319
 20
-17.8518185682
 11
-22.5391120567
 21
-17.8308812135
  0
LINE
  5
4C9
100
AcDbEntity
  8
218_STAMPATO
100
AcDbLine
 62
7
  6
CONTINUOUS
 10
-22.5384835319
 20
-17.8518185682
 11
-22.5391120567
 21
-17.8308812135
  0
LINE
  5
4CA
100
AcDbEntity
  8
218_INCISO
100
AcDbLine
 62
7
  6
CONTINUOUS
 10
-22.5391120567
 20
-17.8308812135
 11
-22.5396468587
 21
-17.8095308454
  0
LINE
  5
4CB
100
AcDbEntity
  8
218_STAMPATO
100
AcDbLine
 62
7
  6
CONTINUOUS
 10
-22.5391120567
 20
-17.8308812135
 11
-22.5396468587
 21
-17.8095308454
  0
LINE
  5
4CC
100
AcDbEntity
  8
218_INCISO
100
AcDbLine
 62
250
  6
CONTINUOUS
 10
-23.5070144316
 20
-17.5415530406
 11
-23.507092207
 21
-17.5197402485
  0
LINE
  5
4CD
100
AcDbEntity
  8
218_STAMPATO
100
AcDbLine
 62
250
  6
CONTINUOUS
 10
-23.5070144316
 20
-17.5415530406
 11
-23.507092207
 21
-17.5197402485
  0
LINE
  5
4CE
100
AcDbEntity
  8
218_INCISO
100
AcDbLine
 62
250
  6
CONTINUOUS
 10
-23.5068651011
 20
-17.5851681627
 11
-23.5070144316
 21
-17.5415530406
  0
LINE
  5
4CF
100
AcDbEntity
  8
218_STAMPATO
100
AcDbLine
 62
250
  6
CONTINUOUS
 10
-23.5068651011
 20
-17.5851681627
 11
-23.5070144316
 21
-17.5415530406
  0
LINE
  5
4D0
100
AcDbEntity
  8
218_INCISO
100
AcDbLine
 62
250
  6
CONTINUOUS
 10
-23.5066569191
 20
-17.6505257871
 11
-23.5068651011
 21
-17.5851681627
  0
LINE
  5
4D1
100
AcDbEntity
  8
218_STAMPATO
100
AcDbLine
 62
250
  6
CONTINUOUS
 10
-23.5066569191
 20
-17.6505257871
 11
-23.5068651011
 21
-17.5851681627
  0
LINE
  5
4D2
100
AcDbEntity
  8
218_INCISO
100
AcDbLine
 62
250
  6
CONTINUOUS
 10
-23.5065287598
 20
-17.6940239732
 11
-23.5066569191
 21
-17.6505257871
  0
LINE
  5
4D3
100
AcDbEntity
  8
218_STAMPATO
100
AcDbLine
 62
250
  6
CONTINUOUS
 10
-23.5065287598
 20
-17.6940239732
 11
-23.5066569191
 21
-17.6505257871
  0
LINE
  5
4D4
100
AcDbEntity
  8
218_INCISO
100
AcDbLine
 62
250
  6
CONTINUOUS
 10
-23.5064091655
 20
-17.7374391434
 11
-23.5065287598
 21
-17.6940239732
  0
LINE
  5
4D5
100
AcDbEntity
  8
218_STAMPATO
100
AcDbLine
 62
250
  6
CONTINUOUS
 10
-23.5064091655
 20
-17.7374391434
 11
-23.5065287598
 21
-17.6940239732
  0
LINE
  5
4D6
100
AcDbEntity
  8
218_INCISO
100
AcDbLine
 62
250
  6
CONTINUOUS
 10
-23.5062982069
 20
-17.7807506398
 11
-23.5064091655
 21
-17.7374391434
  0
LINE
  5
4D7
100
AcDbEntity
  8
218_STAMPATO
100
AcDbLine
 62
250
  6
CONTINUOUS
 10
-23.5062982069
 20
-17.7807506398
 11
-23.5064091655
 21
-17.7374391434
  0
LINE
  5
4D8
100
AcDbEntity
  8
218_INCISO
100
AcDbLine
 62
250
  6
CONTINUOUS
 10
-23.5061023763
 20
18.6667088585
 11
-23.507092207
 21
18.9337384193
  0
LINE
  5
4D9
100
AcDbEntity
  8
218_STAMPATO
100
AcDbLine
 62
250
  6
CONTINUOUS
 10
-23.5061023763
 20
18.6667088585
 11
-23.507092207
 21
18.9337384193
  0
LINE
  5
4DA
100
AcDbEntity
  8
218_INCISO
100
AcDbLine
 62
250
  6
CONTINUOUS
 10
-23.5061959291
 20
-17.8239378631
 11
-23.5062982069
 21
-17.7807506398
  0
LINE
  5
4DB
100
AcDbEntity
  8
218_STAMPATO
100
AcDbLine
 62
250
  6
CONTINUOUS
 10
-23.5061959291
 20
-17.8239378631
 11
-23.5062982069
 21
-17.7807506398
  0
LINE
  5
4DC
100
AcDbEntity
  8
218_INCISO
100
AcDbLine
 62
250
  6
CONTINUOUS
 10
-23.506058893
 20
-17.8884407669
 11
-23.5061959291
 21
-17.8239378631
  0
LINE
  5
4DD
100
AcDbEntity
  8
218_STAMPATO
100
AcDbLine
 62
250
  6
CONTINUOUS
 10
-23.506058893
 20
-17.8884407669
 11
-23.5061959291
 21
-17.8239378631
  0
LINE
  5
4DE
100
AcDbEntity
  8
218_INCISO
100
AcDbLine
 62
250
  6
CONTINUOUS
 10
-23.5059785181
 20
-17.9312275778
 11
-23.506058893
 21
-17.8884407669
  0
LINE
  5
4DF
100
AcDbEntity
  8
218_STAMPATO
100
AcDbLine
 62
250
  6
CONTINUOUS
 10
-23.5059785181
 20
-17.9312275778
 11
-23.506058893
 21
-17.8884407669
  0
LINE
  5
4E0
100
AcDbEntity
  8
218_INCISO
100
AcDbLine
 62
250
  6
CONTINUOUS
 10
-23.5059069819
 20
-17.9738185259
 11
-23.5059785181
 21
-17.9312275778
  0
LINE
  5
4E1
100
AcDbEntity
  8
218_STAMPATO
100
AcDbLine
 62
250
  6
CONTINUOUS
 10
-23.5059069819
 20
-17.9738185259
 11
-23.5059785181
 21
-17.9312275778
  0
LINE
  5
4E2
100
AcDbEntity
  8
218_INCISO
100
AcDbLine
 62
250
  6
CONTINUOUS
 10
-23.5058163111
 20
-18.0372934098
 11
-23.5059069819
 21
-17.9738185259
  0
LINE
  5
4E3
100
AcDbEntity
  8
218_STAMPATO
100
AcDbLine
 62
250
  6
CONTINUOUS
 10
-23.5058163111
 20
-18.0372934098
 11
-23.5059069819
 21
-17.9738185259
  0
LINE
  5
4E4
100
AcDbEntity
  8
218_INCISO
100
AcDbLine
 62
250
  6
CONTINUOUS
 10
-23.5057669972
 20
-18.0793062845
 11
-23.5058163111
 21
-18.0372934098
  0
LINE
  5
4E5
100
AcDbEntity
  8
218_STAMPATO
100
AcDbLine
 62
250
  6
CONTINUOUS
 10
-23.5057669972
 20
-18.0793062845
 11
-23.5058163111
 21
-18.0372934098
  0
LINE
  5
4E6
100
AcDbEntity
  8
218_INCISO
100
AcDbLine
 62
250
  6
CONTINUOUS
 10
-23.5057266155
 20
18.4430860287
 11
-23.5061023763
 21
18.6667088585
  0
LINE
  5
4E7
100
AcDbEntity
  8
218_STAMPATO
100
AcDbLine
 62
250
  6
CONTINUOUS
 10
-23.5057266155
 20
18.4430860287
 11
-23.5061023763
 21
18.6667088585
  0
LINE
  5
4E8
100
AcDbEntity
  8
218_INCISO
100
AcDbLine
 62
250
  6
CONTINUOUS
 10
-23.5057097832
 20
-18.1418200597
 11
-23.5057669972
 21
-18.0793062845
  0
LINE
  5
4E9
100
AcDbEntity
  8
218_STAMPATO
100
AcDbLine
 62
250
  6
CONTINUOUS
 10
-23.5057097832
 20
-18.1418200597
 11
-23.5057669972
 21
-18.0793062845
  0
LINE
  5
4EA
100
AcDbEntity
  8
218_INCISO
100
AcDbLine
 62
250
  6
CONTINUOUS
 10
-23.505682838
 20
-18.1831299711
 11
-23.5057097832
 21
-18.1418200597
  0
LINE
  5
4EB
100
AcDbEntity
  8
218_STAMPATO
100
AcDbLine
 62
250
  6
CONTINUOUS
 10
-23.505682838
 20
-18.1831299711
 11
-23.5057097832
 21
-18.1418200597
  0
LINE
  5
4EC
100
AcDbEntity
  8
218_INCISO
100
AcDbLine
 62
250
  6
CONTINUOUS
 10
-23.5056592517
 20
-18.2444967993
 11
-23.505682838
 21
-18.1831299711
  0
LINE
  5
4ED
100
AcDbEntity
  8
218_STAMPATO
100
AcDbLine
 62
250
  6
CONTINUOUS
 10
-23.5056592517
 20
-18.2444967993
 11
-23.505682838
 21
-18.1831299711
  0
LINE
  5
4EE
100
AcDbEntity
  8
218_INCISO
100
AcDbLine
 62
250
  6
CONTINUOUS
 10
-24.898962728
 20
5.5142857176
 11
-24.898962728
 21
5.9600000465
  0
LINE
  5
4EF
100
AcDbEntity
  8
218_INCISO
100
AcDbLine
 62
250
  6
CONTINUOUS
 10
-24.898962728
 20
13.6764283323
 11
-24.898962728
 21
14.1221425915
  0
LINE
  5
4F0
100
AcDbEntity
  8
218_INCISO
100
AcDbLine
 62
250
  6
CONTINUOUS
 10
-24.5275907103
 20
6.8235713887
 11
-24.5275907103
 21
6.4057143056
  0
LINE
  5
4F1
100
AcDbEntity
  8
218_INCISO
100
AcDbLine
 62
250
  6
CONTINUOUS
 10
-24.5275907103
 20
7.4642857409
 11
-24.5275907103
 21
7.9657143521
  0
LINE
  5
4F2
100
AcDbEntity
  8
218_INCISO
100
AcDbLine
 62
250
  6
CONTINUOUS
 10
-24.5275907103
 20
14.5678574085
 11
-24.5275907103
 21
14.9857140732
  0
LINE
  5
4F3
100
AcDbEntity
  8
218_INCISO
100
AcDbLine
 62
250
  6
CONTINUOUS
 10
-24.5245446135
 20
-7.4571425915
 11
-24.5245446135
 21
-8.1071425915
  0
LINE
  5
4F4
100
AcDbEntity
  8
218_INCISO
100
AcDbLine
 62
250
  6
CONTINUOUS
 10
-24.5245446135
 20
-9.5
 11
-24.5245446135
 21
-10.15
  0
LINE
  5
4F5
100
AcDbEntity
  8
218_INCISO
100
AcDbLine
 62
250
  6
CONTINUOUS
 10
-24.5245446135
 20
-10.5214283943
 11
-24.5245446135
 21
-11.1714287043
  0
LINE
  5
4F6
100
AcDbEntity
  8
218_INCISO
100
AcDbLine
 62
250
  6
CONTINUOUS
 10
-24.5245446135
 20
-11.5428570986
 11
-24.5245446135
 21
-12.1928570986
  0
LINE
  5
4F7
100
AcDbEntity
  8
218_INCISO
100
AcDbLine
 62
250
  6
CONTINUOUS
 10
-24.5245446135
 20
-14.8857142746
 11
-24.5245446135
 21
-14.5142856479
  0
LINE
  5
4F8
100
AcDbEntity
  8
218_INCISO
100
AcDbLine
 62
250
  6
CONTINUOUS
 10
-24.5245446135
 20
-8.9428574085
 11
-24.5245446135
 21
-8.6642858028
  0
LINE
  5
4F9
100
AcDbEntity
  8
218_INCISO
100
AcDbLine
 62
250
  6
CONTINUOUS
 10
-23.507092207
 20
-19.4186688218
 11
-23.507092207
 21
-18.9337384193
  0
LINE
  5
4FA
100
AcDbEntity
  8
218_STAMPATO
100
AcDbLine
 62
250
  6
CONTINUOUS
 10
-23.507092207
 20
-19.4186688218
 11
-23.507092207
 21
-18.9337384193
  0
LINE
  5
4FB
100
AcDbEntity
  8
218_INCISO
100
AcDbLine
 62
250
  6
CONTINUOUS
 10
-23.507092207
 20
-17.5197402485
 11
-23.507092207
 21
17.5197402485
  0
LINE
  5
4FC
100
AcDbEntity
  8
218_STAMPATO
100
AcDbLine
 62
250
  6
CONTINUOUS
 10
-23.507092207
 20
-17.5197402485
 11
-23.507092207
 21
17.5197402485
  0
LINE
  5
4FD
100
AcDbEntity
  8
218_INCISO
100
AcDbLine
 62
250
  6
CONTINUOUS
 10
-23.507092207
 20
18.9337384193
 11
-23.507092207
 21
19.4186688218
  0
LINE
  5
4FE
100
AcDbEntity
  8
218_STAMPATO
100
AcDbLine
 62
250
  6
CONTINUOUS
 10
-23.507092207
 20
18.9337384193
 11
-23.507092207
 21
19.4186688218
  0
LINE
  5
4FF
100
AcDbEntity
  8
218_INCISO
100
AcDbLine
 62
250
  6
CONTINUOUS
 10
-23.5056558816
 20
-18.3050876532
 11
-23.5056592517
 21
-18.2444967993
  0
LINE
  5
500
100
AcDbEntity
  8
218_STAMPATO
100
AcDbLine
 62
250
  6
CONTINUOUS
 10
-23.5056558816
 20
-18.3050876532
 11
-23.5056592517
 21
-18.2444967993
  0
LINE
  5
501
100
AcDbEntity
  8
218_INCISO
100
AcDbLine
 62
250
  6
CONTINUOUS
 10
-23.5056727315
 20
-18.3648376798
 11
-23.5056558816
 21
-18.3050876532
  0
LINE
  5
502
100
AcDbEntity
  8
218_STAMPATO
100
AcDbLine
 62
250
  6
CONTINUOUS
 10
-23.5056727315
 20
-18.3648376798
 11
-23.5056558816
 21
-18.3050876532
  0
LINE
  5
503
100
AcDbEntity
  8
218_INCISO
100
AcDbLine
 62
250
  6
CONTINUOUS
 10
-23.5056951899
 20
18.1625132531
 11
-23.5057266155
 21
18.4430860287
  0
LINE
  5
504
100
AcDbEntity
  8
218_STAMPATO
100
AcDbLine
 62
250
  6
CONTINUOUS
 10
-23.5056951899
 20
18.1625132531
 11
-23.5057266155
 21
18.4430860287
  0
LINE
  5
505
100
AcDbEntity
  8
218_INCISO
100
AcDbLine
 62
250
  6
CONTINUOUS
 10
-23.5057097832
 20
-18.4236829252
 11
-23.5056727315
 21
-18.3648376798
  0
LINE
  5
506
100
AcDbEntity
  8
218_STAMPATO
100
AcDbLine
 62
250
  6
CONTINUOUS
 10
-23.5057097832
 20
-18.4236829252
 11
-23.5056727315
 21
-18.3648376798
  0
LINE
  5
507
100
AcDbEntity
  8
218_INCISO
100
AcDbLine
 62
250
  6
CONTINUOUS
 10
-23.5057669972
 20
-18.4815604027
 11
-23.5057097832
 21
-18.4236829252
  0
LINE
  5
508
100
AcDbEntity
  8
218_STAMPATO
100
AcDbLine
 62
250
  6
CONTINUOUS
 10
-23.5057669972
 20
-18.4815604027
 11
-23.5057097832
 21
-18.4236829252
  0
LINE
  5
509
100
AcDbEntity
  8
218_INCISO
100
AcDbLine
 62
250
  6
CONTINUOUS
 10
-23.5058443122
 20
-18.5384081602
 11
-23.5057669972
 21
-18.4815604027
  0
LINE
  5
50A
100
AcDbEntity
  8
218_STAMPATO
100
AcDbLine
 62
250
  6
CONTINUOUS
 10
-23.5058443122
 20
-18.5384081602
 11
-23.5057669972
 21
-18.4815604027
  0
LINE
  5
50B
100
AcDbEntity
  8
218_INCISO
100
AcDbLine
 62
250
  6
CONTINUOUS
 10
-23.5061023762
 20
17.8669802708
 11
-23.5056951899
 21
18.1625132531
  0
LINE
  5
50C
100
AcDbEntity
  8
218_STAMPATO
100
AcDbLine
 62
250
  6
CONTINUOUS
 10
-23.5061023762
 20
17.8669802708
 11
-23.5056951899
 21
18.1625132531
  0
LINE
  5
50D
100
AcDbEntity
  8
218_INCISO
100
AcDbLine
 62
250
  6
CONTINUOUS
 10
-23.5060176039
 20
-18.6307014189
 11
-23.5058443122
 21
-18.5384081602
  0
LINE
  5
50E
100
AcDbEntity
  8
218_STAMPATO
100
AcDbLine
 62
250
  6
CONTINUOUS
 10
-23.5060176039
 20
-18.6307014189
 11
-23.5058443122
 21
-18.5384081602
  0
LINE
  5
50F
100
AcDbEntity
  8
218_INCISO
100
AcDbLine
 62
250
  6
CONTINUOUS
 10
-23.5062459765
 20
-18.7196914276
 11
-23.5060176039
 21
-18.6307014189
  0
LINE
  5
510
100
AcDbEntity
  8
218_STAMPATO
100
AcDbLine
 62
250
  6
CONTINUOUS
 10
-23.5062459765
 20
-18.7196914276
 11
-23.5060176039
 21
-18.6307014189
  0
LINE
  5
511
100
AcDbEntity
  8
218_INCISO
100
AcDbLine
 62
250
  6
CONTINUOUS
 10
-23.5069387236
 20
17.5633632101
 11
-23.5061023762
 21
17.8669802708
  0
LINE
  5
512
100
AcDbEntity
  8
218_STAMPATO
100
AcDbLine
 62
250
  6
CONTINUOUS
 10
-23.5069387236
 20
17.5633632101
 11
-23.5061023762
 21
17.8669802708
  0
LINE
  5
513
100
AcDbEntity
  8
218_INCISO
100
AcDbLine
 62
250
  6
CONTINUOUS
 10
-23.507092207
 20
17.5197402485
 11
-23.5069387236
 21
17.5633632101
  0
LINE
  5
514
100
AcDbEntity
  8
218_STAMPATO
100
AcDbLine
 62
250
  6
CONTINUOUS
 10
-23.507092207
 20
17.5197402485
 11
-23.5069387236
 21
17.5633632101
  0
LINE
  5
515
100
AcDbEntity
  8
218_INCISO
100
AcDbLine
 62
250
  6
CONTINUOUS
 10
-23.507092207
 20
-18.9337384193
 11
-23.5062459765
 21
-18.7196914276
  0
LINE
  5
516
100
AcDbEntity
  8
218_STAMPATO
100
AcDbLine
 62
250
  6
CONTINUOUS
 10
-23.507092207
 20
-18.9337384193
 11
-23.5062459765
 21
-18.7196914276
  0
LINE
  5
517
100
AcDbEntity
  8
218_INCISO
100
AcDbLine
 62
250
  6
CONTINUOUS
 10
-30.7367732671
 20
-15.081022
 11
-29.7038969631
 21
-13.75
  0
LINE
  5
518
100
AcDbEntity
  8
218_INCISO
100
AcDbLine
 62
250
  6
CONTINUOUS
 10
-25.6388303388
 20
-7.4571425915
 11
-25.8245446135
 21
-7.6428574085
  0
LINE
  5
519
100
AcDbEntity
  8
218_INCISO
100
AcDbLine
 62
250
  6
CONTINUOUS
 10
-25.0816874761
 20
-8.4785716057
 11
-25.2674017895
 21
-8.6642858028
  0
LINE
  5
51A
100
AcDbEntity
  8
218_INCISO
100
AcDbLine
 62
250
  6
CONTINUOUS
 10
-25.6388303388
 20
-9.5
 11
-25.8245446135
 21
-9.6857141972
  0
LWPOLYLINE
  5
51B
100
AcDbEntity
  8
218_INCISO
100
AcDbPolyline
 62
250
  6
CONTINUOUS
 90
87
 70
0
 10
-30.736773381
 20
-12.4189778532
 10
-30.7129835177
 20
-12.4008419189
 10
-30.6888746842
 20
-12.3831307875
 10
-30.6644555411
 20
-12.3658509012
 10
-30.6397337273
 20
-12.3490076259
 10
-30.6147167345
 20
-12.3326060722
 10
-30.5894124872
 20
-12.3166514046
 10
-30.5638290268
 20
-12.3011487376
 10
-30.5379744294
 20
-12.2861029315
 10
-30.5118568129
 20
-12.2715187387
 10
-30.4854844279
 20
-12.2574007346
 10
-30.4588655828
 20
-12.2437534001
 10
-30.4320086834
 20
-12.2305810132
 10
-30.4049221847
 20
-12.2178877516
 10
-30.3776146398
 20
-12.2056775926
 10
-30.3500946484
 20
-12.1939544121
 10
-30.3223708993
 20
-12.182721881
 10
-30.2944521238
 20
-12.1719835671
 10
-30.2663471356
 20
-12.1617428304
 10
-30.2380647873
 20
-12.1520029263
 10
-30.2096140062
 20
-12.1427668997
 10
-30.1810037549
 20
-12.1340376895
 10
-30.1522430632
 20
-12.1258180215
 10
-30.1233409925
 20
-12.1181105144
 10
-30.0943066634
 20
-12.1109175717
 10
-30.0651492246
 20
-12.1042414886
 10
-30.0358778765
 20
-12.098084343
 10
-30.0065018432
 20
-12.0924481037
 10
-29.9770303931
 20
-12.0873345206
 10
-29.9474728145
 20
-12.0827452336
 10
-29.9178384321
 20
-12.0786816623
 10
-29.8881365865
 20
-12.0751451157
 10
-29.8583766468
 20
-12.0721366812
 10
-29.8285679943
 20
-12.0696573352
 10
-29.7987200308
 20
-12.0677078318
 10
-29.7688421662
 20
-12.0662888134
 10
-29.7389438233
 20
-12.0654006998
 10
-29.7090344289
 20
-12.0650437988
 10
-29.6791234145
 20
-12.065218195
 10
-29.6492202121
 20
-12.0659238614
 10
-29.6193342502
 20
-12.0671605475
 10
-29.589474954
 20
-12.0689278914
 10
-29.559651737
 20
-12.0712253077
 10
-29.5298740056
 20
-12.0740521
 10
-29.5001511468
 20
-12.0774073491
 10
-29.4704925361
 20
-12.0812900247
 10
-29.440907522
 20
-12.0856988748
 10
-29.4114054377
 20
-12.0906325368
 10
-29.3819955812
 20
-12.0960894275
 10
-29.3526872314
 20
-12.1020678535
 10
-29.3234896244
 20
-12.1085659025
 10
-29.2944119731
 20
-12.1155815526
 10
-29.2654634398
 20
-12.1231125645
 10
-29.2366531598
 20
-12.1311565905
 10
-29.2079902102
 20
-12.1397110671
 10
-29.1794836373
 20
-12.1487733238
 10
-29.1511424214
 20
-12.1583404762
 10
-29.1229755081
 20
-12.1684095342
 10
-29.09499177
 20
-12.1789772963
 10
-29.0672000408
 20
-12.1900404564
 10
-29.0396090737
 20
-12.2015955
 10
-29.0122275796
 20
-12.2136388093
 10
-28.9850641814
 20
-12.2261665612
 10
-28.9581274561
 20
-12.2391748306
 10
-28.9314258855
 20
-12.2526594907
 10
-28.9049679018
 20
-12.2666163141
 10
-28.878761835
 20
-12.2810408753
 10
-28.8528159619
 20
-12.2959286504
 10
-28.8271384501
 20
-12.3112749205
 10
-28.8017374106
 20
-12.3270748705
 10
-28.7766208385
 20
-12.3433234947
 10
-28.7517966687
 20
-12.3600156927
 10
-28.7272727133
 20
-12.3771461781
 10
-28.7030567214
 20
-12.394709572
 10
-28.6791563128
 20
-12.4127003133
 10
-28.6555790408
 20
-12.4311127512
 10
-28.6323323216
 20
-12.4499410593
 10
-28.6094235027
 20
-12.4691793225
 10
-28.5868597944
 20
-12.4888214478
 10
-28.5646483313
 20
-12.508861261
 10
-28.5427960815
 20
-12.5292924425
 10
-28.5213099502
 20
-12.5501085754
 10
-28.5001967563
 20
-12.5713030013
 10
-28.4794631941
 20
-12.5928690367
 10
-28.4591155453
 20
-12.61480014
 10
-28.4391601833
 20
-12.6370894895
 10
-28.4196042605
 20
-12.659729
  0
LINE
  5
51C
100
AcDbEntity
  8
268
100
AcDbLine
 62
7
  6
CONTINUOUS
 10
-47.8995446135
 20
-23.6278312164
 11
-47.0245446135
 21
-23.1226497308
  0
LINE
  5
51D
100
AcDbEntity
  8
218_INCISO
100
AcDbLine
 62
250
  6
CONTINUOUS
 10
-36.1686746139
 20
15.057142663
 11
-36.9828363166
 21
15.057142663
  0
LINE
  5
51E
100
AcDbEntity
  8
218_INCISO
100
AcDbLine
 62
250
  6
CONTINUOUS
 10
-30.4667045514
 20
15.6
 11
-29.7169329913
 21
15.6
  0
LINE
  5
51F
100
AcDbEntity
  8
218_INCISO
100
AcDbLine
 62
250
  6
CONTINUOUS
 10
-25.2703347457
 20
15.654285183
 11
-24.5275907103
 21
15.654285183
  0
LINE
  5
520
100
AcDbEntity
  8
218_INCISO
100
AcDbLine
 62
250
  6
CONTINUOUS
 10
-32.6390826728
 20
16.0
 11
-31.8884913624
 21
16.0
  0
LINE
  5
521
100
AcDbEntity
  8
218_INCISO
100
AcDbLine
 62
250
  6
CONTINUOUS
 10
-28.2951461803
 20
16.0
 11
-27.5445548699
 21
16.0
  0
LINE
  5
522
100
AcDbEntity
  8
218_INCISO
100
AcDbLine
 62
250
  6
CONTINUOUS
 10
-36.9828363166
 20
16.007142663
 11
-36.1686746139
 21
16.007142663
  0
LWPOLYLINE
  5
523
100
AcDbEntity
  8
218_INCISO
100
AcDbPolyline
 62
250
  6
CONTINUOUS
 90
83
 70
0
 10
-30.466704229
 20
14.1394958193
 10
-30.4970488928
 20
14.1462360069
 10
-30.5272735966
 20
14.1534997112
 10
-30.5573680061
 20
14.1612845119
 10
-30.5873232417
 20
14.16958808
 10
-30.6171307085
 20
14.1784080383
 10
-30.6467814941
 20
14.187741724
 10
-30.6762666487
 20
14.1975863572
 10
-30.7055773892
 20
14.2079389765
 10
-30.7347049855
 20
14.2187965231
 10
-30.7636407534
 20
14.2301557318
 10
-30.7923760418
 20
14.2420132363
 10
-30.8209022869
 20
14.2543654737
 10
-30.8492109675
 20
14.2672087831
 10
-30.8772936472
 20
14.2805393076
 10
-30.9051419341
 20
14.2943530935
 10
-30.9327475303
 20
14.3086459946
 10
-30.9601021859
 20
14.3234137698
 10
-30.987197751
 20
14.3386519889
 10
-31.0140261271
 20
14.3543561279
 10
-31.0405793221
 20
14.3705214777
 10
-31.0668493986
 20
14.3871432374
 10
-31.0928285319
 20
14.4042164244
 10
-31.118508955
 20
14.4217359665
 10
-31.14388302
 20
14.4396966136
 10
-31.1689431397
 20
14.458093028
 10
-31.193681852
 20
14.4769196988
 10
-31.2180917587
 20
14.4961710294
 10
-31.2421655923
 20
14.515841254
 10
-31.2658961523
 20
14.5359245237
 10
-31.2892763746
 20
14.5564148254
 10
-31.3122992651
 20
14.5773060647
 10
-31.3349579716
 20
14.5985919879
 10
-31.3572457144
 20
14.6202662627
 10
-31.3791558614
 20
14.6423224023
 10
-31.4006818557
 20
14.664753844
 10
-31.4218172931
 20
14.6875538757
 10
-31.4425558473
 20
14.7107157121
 10
-31.4628913497
 20
14.7342324236
 10
-31.4828177119
 20
14.7580970105
 10
-31.5023290085
 20
14.7823023343
 10
-31.5214193964
 20
14.806841189
 10
-31.5400832001
 20
14.8317062356
 10
-31.5583148289
 20
14.8568900706
 10
-31.5761088641
 20
14.8823851632
 10
-31.5934599741
 20
14.9081839211
 10
-31.6103630035
 20
14.9342786309
 10
-31.6268128858
 20
14.9606615204
 10
-31.6428047352
 20
14.9873247029
 10
-31.6583337567
 20
15.0142602358
 10
-31.6733953396
 20
15.041460068
 10
-31.6879849661
 20
15.0689160961
 10
-31.7020983063
 20
15.0966201146
 10
-31.7157311248
 20
15.1245638688
 10
-31.7288793777
 20
15.1527390085
 10
-31.7415391173
 20
15.1811371373
 10
-31.7537065903
 20
15.2097497706
 10
-31.7653781414
 20
15.2385683806
 10
-31.7765503124
 20
15.2675843578
 10
-31.7872197447
 20
15.2967890533
 10
-31.7973832796
 20
15.3261737434
 10
-31.807037859
 20
15.3557296683
 10
-31.8161806274
 20
15.3854480002
 10
-31.824808831
 20
15.4153198789
 10
-31.8329199208
 20
15.4453363833
 10
-31.8405114508
 20
15.4754885633
 10
-31.8475811813
 20
15.5057674149
 10
-31.854126977
 20
15.536163909
 10
-31.8601469104
 20
15.5666689696
 10
-31.8656391592
 20
15.5972734993
 10
-31.8706021107
 20
15.6279683604
 10
-31.8750342576
 20
15.6587443977
 10
-31.8789343037
 20
15.6895924255
 10
-31.8823010587
 20
15.7205032426
 10
-31.8851335448
 20
15.7514676155
 10
-31.8874308905
 20
15.7824763048
 10
-31.8891924352
 20
15.8135200813
 10
-31.8904176264
 20
15.8445896899
 10
-31.8911061304
 20
15.8756757623
 10
-31.8912577166
 20
15.9067689973
 10
-31.8908723465
 20
15.9378604747
 10
-31.889950103
 20
15.9689410124
 10
-31.8884913624
 20
16.0
  0
LINE
  5
524
100
AcDbEntity
  8
218_INCISO
100
AcDbLine
 62
250
  6
CONTINUOUS
 10
-36.1686746139
 20
16.007142663
 11
-35.8972873702
 21
15.871428442
  0
LINE
  5
525
100
AcDbEntity
  8
268
100
AcDbLine
 62
7
  6
CONTINUOUS
 10
-47.0245446135
 20
23.1226497308
 11
-47.8995446135
 21
23.6278312164
  0
LINE
  5
526
100
AcDbEntity
  8
218_INCISO
100
AcDbLine
 62
250
  6
CONTINUOUS
 10
-24.7132767192
 20
6.9907141662
 11
-24.5275907103
 21
6.8235713887
  0
LINE
  5
527
100
AcDbEntity
  8
218_INCISO
100
AcDbLine
 62
7
  6
CONTINUOUS
 10
-22.5396468587
 20
-17.8095308454
 11
-22.5400825195
 21
-17.7877860438
  0
LINE
  5
528
100
AcDbEntity
  8
218_STAMPATO
100
AcDbLine
 62
7
  6
CONTINUOUS
 10
-22.5396468587
 20
-17.8095308454
 11
-22.5400825195
 21
-17.7877860438
  0
LINE
  5
529
100
AcDbEntity
  8
218_INCISO
100
AcDbLine
 62
7
  6
CONTINUOUS
 10
-22.5400825195
 20
-17.7877860438
 11
-22.5404140228
 21
-17.7656866753
  0
LINE
  5
52A
100
AcDbEntity
  8
218_STAMPATO
100
AcDbLine
 62
7
  6
CONTINUOUS
 10
-22.5400825195
 20
-17.7877860438
 11
-22.5404140228
 21
-17.7656866753
  0
LINE
  5
52B
100
AcDbEntity
  8
218_INCISO
100
AcDbLine
 62
7
  6
CONTINUOUS
 10
-22.5404140228
 20
-17.7656866753
 11
-22.540637216
 21
-17.7433027148
  0
LINE
  5
52C
100
AcDbEntity
  8
218_STAMPATO
100
AcDbLine
 62
7
  6
CONTINUOUS
 10
-22.5404140228
 20
-17.7656866753
 11
-22.540637216
 21
-17.7433027148
  0
LWPOLYLINE
  5
52D
100
AcDbEntity
  8
218_INCISO
100
AcDbPolyline
 62
7
  6
CONTINUOUS
 90
9
 70
0
 10
-22.5245446135
 20
-18.1099111154
 10
-22.5245566516
 20
-18.1077738906
 10
-22.5245885042
 20
-18.1055232409
 10
-22.5246401632
 20
-18.1031593802
 10
-22.5247123458
 20
-18.100682273
 10
-22.5248043185
 20
-18.0980924447
 10
-22.5249138977
 20
-18.0953911011
 10
-22.5250410571
 20
-18.0925791371
 10
-22.5253460316
 20
-18.08662348
  0
LWPOLYLINE
  5
52E
100
AcDbEntity
  8
218_STAMPATO
100
AcDbPolyline
 62
7
  6
CONTINUOUS
 90
9
 70
0
 10
-22.5245446135
 20
-18.1099111154
 10
-22.5245566516
 20
-18.1077738906
 10
-22.5245885042
 20
-18.1055232409
 10
-22.5246401632
 20
-18.1031593802
 10
-22.5247123458
 20
-18.100682273
 10
-22.5248043185
 20
-18.0980924447
 10
-22.5249138977
 20
-18.0953911011
 10
-22.5250410571
 20
-18.0925791371
 10
-22.5253460316
 20
-18.08662348
  0
LINE
  5
52F
100
AcDbEntity
  8
218_INCISO
100
AcDbLine
 62
7
  6
CONTINUOUS
 10
-22.540637216
 20
-17.7433027148
 11
-22.5407496434
 21
-17.7207046345
  0
LINE
  5
530
100
AcDbEntity
  8
218_STAMPATO
100
AcDbLine
 62
7
  6
CONTINUOUS
 10
-22.540637216
 20
-17.7433027148
 11
-22.5407496434
 21
-17.7207046345
  0
LINE
  5
531
100
AcDbEntity
  8
218_INCISO
100
AcDbLine
 62
7
  6
CONTINUOUS
 10
-22.5245446135
 20
-18.4188211266
 11
-22.5245446135
 21
-18.1099111154
  0
LINE
  5
532
100
AcDbEntity
  8
218_STAMPATO
100
AcDbLine
 62
7
  6
CONTINUOUS
 10
-22.5245446135
 20
-18.4188211266
 11
-22.5245446135
 21
-18.1099111154
  0
LINE
  5
533
100
AcDbEntity
  8
218_INCISO
100
AcDbLine
 62
7
  6
CONTINUOUS
 10
-22.5245446135
 20
-18.1098441693
 11
-22.5245446135
 21
-13.1073039308
  0
LINE
  5
534
100
AcDbEntity
  8
218_STAMPATO
100
AcDbLine
 62
7
  6
CONTINUOUS
 10
-22.5245446135
 20
-18.1098441693
 11
-22.5245446135
 21
-13.1073039308
  0
LINE
  5
535
100
AcDbEntity
  8
218_INCISO
100
AcDbLine
 62
250
  6
CONTINUOUS
 10
-22.2506913363
 20
4.7760409428
 11
-22.2506913363
 21
-1.3760409428
  0
LINE
  5
536
100
AcDbEntity
  8
218_STAMPATO
100
AcDbLine
 62
250
  6
CONTINUOUS
 10
-22.2506913363
 20
4.7760409428
 11
-22.2506913363
 21
-1.3760409428
  0
LINE
  5
537
100
AcDbEntity
  8
218_INCISO
100
AcDbLine
 62
250
  6
CONTINUOUS
 10
-22.2506913363
 20
-9.0239590572
 11
-22.2506913363
 21
-15.1760409428
  0
LINE
  5
538
100
AcDbEntity
  8
218_STAMPATO
100
AcDbLine
 62
250
  6
CONTINUOUS
 10
-22.2506913363
 20
-9.0239590572
 11
-22.2506913363
 21
-15.1760409428
  0
LINE
  5
539
100
AcDbEntity
  8
218_INCISO
100
AcDbLine
 62
7
  6
CONTINUOUS
 10
-22.5407496434
 20
-17.7207046345
 11
-22.5407504101
 21
-17.6979107008
  0
LINE
  5
53A
100
AcDbEntity
  8
218_STAMPATO
100
AcDbLine
 62
7
  6
CONTINUOUS
 10
-22.5407496434
 20
-17.7207046345
 11
-22.5407504101
 21
-17.6979107008
  0
LINE
  5
53B
100
AcDbEntity
  8
218_INCISO
100
AcDbLine
 62
7
  6
CONTINUOUS
 10
-22.5392413345
 20
-17.5440242953
 11
-22.539188104
 21
-10.3636915726
  0
LINE
  5
53C
100
AcDbEntity
  8
218_STAMPATO
100
AcDbLine
 62
7
  6
CONTINUOUS
 10
-22.5392413345
 20
-17.5440242953
 11
-22.539188104
 21
-10.3636915726
  0
LINE
  5
53D
100
AcDbEntity
  8
218_INCISO
100
AcDbLine
 62
7
  6
CONTINUOUS
 10
-22.5245446135
 20
-11.0926960692
 11
-22.5245446135
 21
18.4188211266
  0
LINE
  5
53E
100
AcDbEntity
  8
218_STAMPATO
100
AcDbLine
 62
7
  6
CONTINUOUS
 10
-22.5245446135
 20
-11.0926960692
 11
-22.5245446135
 21
18.4188211266
  0
LWPOLYLINE
  5
53F
100
AcDbEntity
  8
218_INCISO
100
AcDbPolyline
 62
7
  6
CONTINUOUS
 90
11
 70
0
 10
-22.5245446135
 20
-13.1073039308
 10
-22.5243874949
 20
-13.0766495795
 10
-22.5239919558
 20
-13.0455647972
 10
-22.5233579963
 20
-13.0140495837
 10
-22.5224664332
 20
-12.9820255944
 10
-22.5213364496
 20
-12.949571174
 10
-22.5200255946
 20
-12.9169213567
 10
-22.5185283542
 20
-12.8840778173
 10
-22.5168502424
 20
-12.851038881
 10
-22.5150653496
 20
-12.8180345583
 10
-22.5131731559
 20
-12.7850793012
  0
LWPOLYLINE
  5
540
100
AcDbEntity
  8
218_STAMPATO
100
AcDbPolyline
 62
7
  6
CONTINUOUS
 90
11
 70
0
 10
-22.5245446135
 20
-13.1073039308
 10
-22.5243874949
 20
-13.0766495795
 10
-22.5239919558
 20
-13.0455647972
 10
-22.5233579963
 20
-13.0140495837
 10
-22.5224664332
 20
-12.9820255944
 10
-22.5213364496
 20
-12.949571174
 10
-22.5200255946
 20
-12.9169213567
 10
-22.5185283542
 20
-12.8840778173
 10
-22.5168502424
 20
-12.851038881
 10
-22.5150653496
 20
-12.8180345583
 10
-22.5131731559
 20
-12.7850793012
  0
LINE
  5
541
100
AcDbEntity
  8
218_INCISO
100
AcDbLine
 62
7
  6
CONTINUOUS
 10
-22.539188104
 20
-10.3636915726
 11
-22.5391116395
 21
-10.3487981978
  0
LINE
  5
542
100
AcDbEntity
  8
218_STAMPATO
100
AcDbLine
 62
7
  6
CONTINUOUS
 10
-22.539188104
 20
-10.3636915726
 11
-22.5391116395
 21
-10.3487981978
  0
LINE
  5
543
100
AcDbEntity
  8
218_INCISO
100
AcDbLine
 62
7
  6
CONTINUOUS
 10
-22.5407504101
 20
-17.6979107008
 11
-22.5406394821
 21
-17.6749677563
  0
LINE
  5
544
100
AcDbEntity
  8
218_STAMPATO
100
AcDbLine
 62
7
  6
CONTINUOUS
 10
-22.5407504101
 20
-17.6979107008
 11
-22.5406394821
 21
-17.6749677563
  0
LINE
  5
545
100
AcDbEntity
  8
218_INCISO
100
AcDbLine
 62
7
  6
CONTINUOUS
 10
-22.5394708848
 20
-17.5804202481
 11
-22.5392413345
 21
-17.5440242953
  0
LINE
  5
546
100
AcDbEntity
  8
218_STAMPATO
100
AcDbLine
 62
7
  6
CONTINUOUS
 10
-22.5394708848
 20
-17.5804202481
 11
-22.5392413345
 21
-17.5440242953
  0
LINE
  5
547
100
AcDbEntity
  8
218_INCISO
100
AcDbLine
 62
7
  6
CONTINUOUS
 10
-22.5406394821
 20
-17.6749677563
 11
-22.5404182284
 21
-17.6519384807
  0
LINE
  5
548
100
AcDbEntity
  8
218_STAMPATO
100
AcDbLine
 62
7
  6
CONTINUOUS
 10
-22.5406394821
 20
-17.6749677563
 11
-22.5404182284
 21
-17.6519384807
  0
LINE
  5
549
100
AcDbEntity
  8
218_INCISO
100
AcDbLine
 62
7
  6
CONTINUOUS
 10
-22.5391116395
 20
-10.3487981978
 11
-22.5389588123
 21
-10.3339169007
  0
LINE
  5
54A
100
AcDbEntity
  8
218_STAMPATO
100
AcDbLine
 62
7
  6
CONTINUOUS
 10
-22.5391116395
 20
-10.3487981978
 11
-22.5389588123
 21
-10.3339169007
  0
LINE
  5
54B
100
AcDbEntity
  8
218_INCISO
100
AcDbLine
 62
7
  6
CONTINUOUS
 10
-22.5399008532
 20
-17.6167586984
 11
-22.5394708848
 21
-17.5804202481
  0
LINE
  5
54C
100
AcDbEntity
  8
218_STAMPATO
100
AcDbLine
 62
7
  6
CONTINUOUS
 10
-22.5399008532
 20
-17.6167586984
 11
-22.5394708848
 21
-17.5804202481
  0
LINE
  5
54D
100
AcDbEntity
  8
218_INCISO
100
AcDbLine
 62
7
  6
CONTINUOUS
 10
-22.5404182284
 20
-17.6519384807
 11
-22.5399008532
 21
-17.6167586984
  0
LINE
  5
54E
100
AcDbEntity
  8
218_STAMPATO
100
AcDbLine
 62
7
  6
CONTINUOUS
 10
-22.5404182284
 20
-17.6519384807
 11
-22.5399008532
 21
-17.6167586984
  0
LINE
  5
54F
100
AcDbEntity
  8
218_INCISO
100
AcDbLine
 62
7
  6
CONTINUOUS
 10
-22.5389588123
 20
-10.3339169007
 11
-22.5387315181
 21
-10.3190624517
  0
LINE
  5
550
100
AcDbEntity
  8
218_STAMPATO
100
AcDbLine
 62
7
  6
CONTINUOUS
 10
-22.5389588123
 20
-10.3339169007
 11
-22.5387315181
 21
-10.3190624517
  0
LWPOLYLINE
  5
551
100
AcDbEntity
  8
218_INCISO
100
AcDbPolyline
 62
7
  6
CONTINUOUS
 90
4
 70
0
 10
-22.5247749748
 20
-10.0148174389
 10
-22.5246758785
 20
-10.0096968979
 10
-22.5246049871
 20
-10.0046652042
 10
-22.5245612303
 20
-9.9997225758
  0
LWPOLYLINE
  5
552
100
AcDbEntity
  8
218_STAMPATO
100
AcDbPolyline
 62
7
  6
CONTINUOUS
 90
4
 70
0
 10
-22.5247749748
 20
-10.0148174389
 10
-22.5246758785
 20
-10.0096968979
 10
-22.5246049871
 20
-10.0046652042
 10
-22.5245612303
 20
-9.9997225758
  0
LINE
  5
553
100
AcDbEntity
  8
218_INCISO
100
AcDbLine
 62
7
  6
CONTINUOUS
 10
-22.5387315181
 20
-10.3190624517
 11
-22.5384311452
 21
-10.3042464533
  0
LINE
  5
554
100
AcDbEntity
  8
218_STAMPATO
100
AcDbLine
 62
7
  6
CONTINUOUS
 10
-22.5387315181
 20
-10.3190624517
 11
-22.5384311452
 21
-10.3042464533
  0
LINE
  5
555
100
AcDbEntity
  8
218_INCISO
100
AcDbLine
 62
7
  6
CONTINUOUS
 10
-22.5384311452
 20
-10.3042464533
 11
-22.5380601274
 21
-10.2894742603
  0
LINE
  5
556
100
AcDbEntity
  8
218_STAMPATO
100
AcDbLine
 62
7
  6
CONTINUOUS
 10
-22.5384311452
 20
-10.3042464533
 11
-22.5380601274
 21
-10.2894742603
  0
LINE
  5
557
100
AcDbEntity
  8
218_INCISO
100
AcDbLine
 62
7
  6
CONTINUOUS
 10
-22.5250513083
 20
-10.0253201941
 11
-22.5247749748
 21
-10.0148174389
  0
LINE
  5
558
100
AcDbEntity
  8
218_STAMPATO
100
AcDbLine
 62
7
  6
CONTINUOUS
 10
-22.5250513083
 20
-10.0253201941
 11
-22.5247749748
 21
-10.0148174389
  0
LINE
  5
559
100
AcDbEntity
  8
218_INCISO
100
AcDbLine
 62
7
  6
CONTINUOUS
 10
-22.5380601274
 20
-10.2894742603
 11
-22.5376224803
 21
-10.274763333
  0
LINE
  5
55A
100
AcDbEntity
  8
218_STAMPATO
100
AcDbLine
 62
7
  6
CONTINUOUS
 10
-22.5380601274
 20
-10.2894742603
 11
-22.5376224803
 21
-10.274763333
  0
LINE
  5
55B
100
AcDbEntity
  8
218_INCISO
100
AcDbLine
 62
7
  6
CONTINUOUS
 10
-22.5254233005
 20
-10.0361633059
 11
-22.5250513083
 21
-10.0253201941
  0
LINE
  5
55C
100
AcDbEntity
  8
218_STAMPATO
100
AcDbLine
 62
7
  6
CONTINUOUS
 10
-22.5254233005
 20
-10.0361633059
 11
-22.5250513083
 21
-10.0253201941
  0
LINE
  5
55D
100
AcDbEntity
  8
218_INCISO
100
AcDbLine
 62
7
  6
CONTINUOUS
 10
-22.5376224803
 20
-10.274763333
 11
-22.5368480001
 21
-10.2528352539
  0
LINE
  5
55E
100
AcDbEntity
  8
218_STAMPATO
100
AcDbLine
 62
7
  6
CONTINUOUS
 10
-22.5376224803
 20
-10.274763333
 11
-22.5368480001
 21
-10.2528352539
  0
LINE
  5
55F
100
AcDbEntity
  8
218_INCISO
100
AcDbLine
 62
7
  6
CONTINUOUS
 10
-22.5258807445
 20
-10.0473408855
 11
-22.5254233005
 21
-10.0361633059
  0
LINE
  5
560
100
AcDbEntity
  8
218_STAMPATO
100
AcDbLine
 62
7
  6
CONTINUOUS
 10
-22.5258807445
 20
-10.0473408855
 11
-22.5254233005
 21
-10.0361633059
  0
LINE
  5
561
100
AcDbEntity
  8
218_INCISO
100
AcDbLine
 62
7
  6
CONTINUOUS
 10
-22.5368480001
 20
-10.2528352539
 11
-22.5359463868
 21
-10.2311071489
  0
LINE
  5
562
100
AcDbEntity
  8
218_STAMPATO
100
AcDbLine
 62
7
  6
CONTINUOUS
 10
-22.5368480001
 20
-10.2528352539
 11
-22.5359463868
 21
-10.2311071489
  0
LINE
  5
563
100
AcDbEntity
  8
218_INCISO
100
AcDbLine
 62
7
  6
CONTINUOUS
 10
-22.5264165912
 20
-10.0588433501
 11
-22.5258807445
 21
-10.0473408855
  0
LINE
  5
564
100
AcDbEntity
  8
218_STAMPATO
100
AcDbLine
 62
7
  6
CONTINUOUS
 10
-22.5264165912
 20
-10.0588433501
 11
-22.5258807445
 21
-10.0473408855
  0
LINE
  5
565
100
AcDbEntity
  8
218_INCISO
100
AcDbLine
 62
7
  6
CONTINUOUS
 10
-22.5359463868
 20
-10.2311071489
 11
-22.5349366871
 21
-10.209632142
  0
LINE
  5
566
100
AcDbEntity
  8
218_STAMPATO
100
AcDbLine
 62
7
  6
CONTINUOUS
 10
-22.5359463868
 20
-10.2311071489
 11
-22.5349366871
 21
-10.209632142
  0
LINE
  5
567
100
AcDbEntity
  8
218_INCISO
100
AcDbLine
 62
7
  6
CONTINUOUS
 10
-22.5349366871
 20
-10.209632142
 11
-22.5338406095
 21
-10.1884528335
  0
LINE
  5
568
100
AcDbEntity
  8
218_STAMPATO
100
AcDbLine
 62
7
  6
CONTINUOUS
 10
-22.5349366871
 20
-10.209632142
 11
-22.5338406095
 21
-10.1884528335
  0
LINE
  5
569
100
AcDbEntity
  8
218_INCISO
100
AcDbLine
 62
7
  6
CONTINUOUS
 10
-22.5273430793
 20
-10.0766711238
 11
-22.5264165912
 21
-10.0588433501
  0
LINE
  5
56A
100
AcDbEntity
  8
218_STAMPATO
100
AcDbLine
 62
7
  6
CONTINUOUS
 10
-22.5273430793
 20
-10.0766711238
 11
-22.5264165912
 21
-10.0588433501
  0
LINE
  5
56B
100
AcDbEntity
  8
218_INCISO
100
AcDbLine
 62
7
  6
CONTINUOUS
 10
-22.5338406095
 20
-10.1884528335
 11
-22.5322880498
 21
-10.1607718742
  0
LINE
  5
56C
100
AcDbEntity
  8
218_STAMPATO
100
AcDbLine
 62
7
  6
CONTINUOUS
 10
-22.5338406095
 20
-10.1884528335
 11
-22.5322880498
 21
-10.1607718742
  0
LINE
  5
56D
100
AcDbEntity
  8
218_INCISO
100
AcDbLine
 62
7
  6
CONTINUOUS
 10
-22.5291323669
 20
-10.1077899718
 11
-22.5273430793
 21
-10.0766711238
  0
LINE
  5
56E
100
AcDbEntity
  8
218_STAMPATO
100
AcDbLine
 62
7
  6
CONTINUOUS
 10
-22.5291323669
 20
-10.1077899718
 11
-22.5273430793
 21
-10.0766711238
  0
LWPOLYLINE
  5
56F
100
AcDbEntity
  8
218_INCISO
100
AcDbPolyline
 62
7
  6
CONTINUOUS
 90
33
 70
0
 10
-22.4970280994
 20
-12.5291563165
 10
-22.4952041808
 20
-12.4986458015
 10
-22.4934589613
 20
-12.468494458
 10
-22.4918218592
 20
-12.4386697522
 10
-22.4902967776
 20
-12.4091795077
 10
-22.4888798132
 20
-12.3800159009
 10
-22.4875886742
 20
-12.3511229278
 10
-22.4864262178
 20
-12.3225100983
 10
-22.4853895868
 20
-12.2941679024
 10
-22.4844879167
 20
-12.2660118057
 10
-22.4837228056
 20
-12.2380437871
 10
-22.4830926554
 20
-12.2102618676
 10
-22.4826018086
 20
-12.1825755763
 10
-22.4822513042
 20
-12.1549866321
 10
-22.482040103
 20
-12.127493316
 10
-22.4819694304
 20
-12.1
 10
-22.482040103
 20
-12.072506684
 10
-22.4822513042
 20
-12.0450133679
 10
-22.4826018086
 20
-12.0174244237
 10
-22.4830926554
 20
-11.9897381324
 10
-22.4837228056
 20
-11.9619562129
 10
-22.4844879167
 20
-11.9339881943
 10
-22.4853895868
 20
-11.9058320976
 10
-22.4864262178
 20
-11.8774899017
 10
-22.4875886742
 20
-11.8488770722
 10
-22.4888798132
 20
-11.8199840991
 10
-22.4902967776
 20
-11.7908204923
 10
-22.4918218592
 20
-11.7613302478
 10
-22.4934589613
 20
-11.731505542
 10
-22.4952041808
 20
-11.7013541985
 10
-22.4970280994
 20
-11.6708436835
 10
-22.498936518
 20
-11.6399495304
 10
-22.5070870556
 20
-11.512988951
  0
LWPOLYLINE
  5
570
100
AcDbEntity
  8
218_STAMPATO
100
AcDbPolyline
 62
7
  6
CONTINUOUS
 90
33
 70
0
 10
-22.4970280994
 20
-12.5291563165
 10
-22.4952041808
 20
-12.4986458015
 10
-22.4934589613
 20
-12.468494458
 10
-22.4918218592
 20
-12.4386697522
 10
-22.4902967776
 20
-12.4091795077
 10
-22.4888798132
 20
-12.3800159009
 10
-22.4875886742
 20
-12.3511229278
 10
-22.4864262178
 20
-12.3225100983
 10
-22.4853895868
 20
-12.2941679024
 10
-22.4844879167
 20
-12.2660118057
 10
-22.4837228056
 20
-12.2380437871
 10
-22.4830926554
 20
-12.2102618676
 10
-22.4826018086
 20
-12.1825755763
 10
-22.4822513042
 20
-12.1549866321
 10
-22.482040103
 20
-12.127493316
 10
-22.4819694304
 20
-12.1
 10
-22.482040103
 20
-12.072506684
 10
-22.4822513042
 20
-12.0450133679
 10
-22.4826018086
 20
-12.0174244237
 10
-22.4830926554
 20
-11.9897381324
 10
-22.4837228056
 20
-11.9619562129
 10
-22.4844879167
 20
-11.9339881943
 10
-22.4853895868
 20
-11.9058320976
 10
-22.4864262178
 20
-11.8774899017
 10
-22.4875886742
 20
-11.8488770722
 10
-22.4888798132
 20
-11.8199840991
 10
-22.4902967776
 20
-11.7908204923
 10
-22.4918218592
 20
-11.7613302478
 10
-22.4934589613
 20
-11.731505542
 10
-22.4952041808
 20
-11.7013541985
 10
-22.4970280994
 20
-11.6708436835
 10
-22.498936518
 20
-11.6399495304
 10
-22.5070870556
 20
-11.512988951
  0
LINE
  5
571
100
AcDbEntity
  8
218_INCISO
100
AcDbLine
 62
7
  6
CONTINUOUS
 10
-22.5322880498
 20
-10.1607718742
 11
-22.5291323669
 21
-10.1077899718
  0
LINE
  5
572
100
AcDbEntity
  8
218_STAMPATO
100
AcDbLine
 62
7
  6
CONTINUOUS
 10
-22.5322880498
 20
-10.1607718742
 11
-22.5291323669
 21
-10.1077899718
  0
LINE
  5
573
100
AcDbEntity
  8
218_INCISO
100
AcDbLine
 62
7
  6
CONTINUOUS
 10
-22.5131731559
 20
-12.7850793012
 11
-22.5091440765
 21
-12.7194592827
  0
LINE
  5
574
100
AcDbEntity
  8
218_STAMPATO
100
AcDbLine
 62
7
  6
CONTINUOUS
 10
-22.5131731559
 20
-12.7850793012
 11
-22.5091440765
 21
-12.7194592827
  0
LINE
  5
575
100
AcDbEntity
  8
218_INCISO
100
AcDbLine
 62
7
  6
CONTINUOUS
 10
-22.5009236358
 20
-12.5913037941
 11
-22.4970280994
 21
-12.5291563165
  0
LINE
  5
576
100
AcDbEntity
  8
218_STAMPATO
100
AcDbLine
 62
7
  6
CONTINUOUS
 10
-22.5009236358
 20
-12.5913037941
 11
-22.4970280994
 21
-12.5291563165
  0
LINE
  5
577
100
AcDbEntity
  8
218_INCISO
100
AcDbLine
 62
7
  6
CONTINUOUS
 10
-22.5091440765
 20
-12.7194592827
 11
-22.5009236358
 21
-12.5913037941
  0
LINE
  5
578
100
AcDbEntity
  8
218_STAMPATO
100
AcDbLine
 62
7
  6
CONTINUOUS
 10
-22.5091440765
 20
-12.7194592827
 11
-22.5009236358
 21
-12.5913037941
  0
LWPOLYLINE
  5
579
100
AcDbEntity
  8
218_INCISO
100
AcDbPolyline
 62
250
  6
CONTINUOUS
 90
87
 70
0
 10
-28.4196044021
 20
-14.8402708797
 10
-28.4391603229
 20
-14.8629103877
 10
-28.4591156826
 20
-14.8851997347
 10
-28.4794633292
 20
-14.9071308357
 10
-28.5001968891
 20
-14.9286968687
 10
-28.5213100806
 20
-14.9498912923
 10
-28.5427962096
 20
-14.9707074229
 10
-28.5646484569
 20
-14.9911386021
 10
-28.5868599176
 20
-15.0111784131
 10
-28.6094236234
 20
-15.0308205362
 10
-28.6323324398
 20
-15.0500587973
 10
-28.6555791564
 20
-15.0688871033
 10
-28.6791564258
 20
-15.0872995392
 10
-28.7030568318
 20
-15.1052902785
 10
-28.727272821
 20
-15.1228536705
 10
-28.7517967737
 20
-15.139984154
 10
-28.7766209407
 20
-15.1566763502
 10
-28.8017375101
 20
-15.1729249725
 10
-28.8271385468
 20
-15.1887249208
 10
-28.8528160558
 20
-15.2040711892
 10
-28.878761926
 20
-15.2189589626
 10
-28.90496799
 20
-15.2333835223
 10
-28.9314259707
 20
-15.2473403442
 10
-28.9581275384
 20
-15.2608250027
 10
-28.9850642607
 20
-15.2738332707
 10
-29.0122276559
 20
-15.2863610212
 10
-29.0396091469
 20
-15.2984043292
 10
-29.067200111
 20
-15.3099593715
 10
-29.0949918372
 20
-15.3210225304
 10
-29.1229755722
 20
-15.3315902914
 10
-29.1511424823
 20
-15.3416593482
 10
-29.1794836951
 20
-15.3512264996
 10
-29.2079902649
 20
-15.3602887552
 10
-29.2366532113
 20
-15.368843231
 10
-29.2654634881
 20
-15.376887256
 10
-29.2944120182
 20
-15.3844182671
 10
-29.3234896664
 20
-15.3914339164
 10
-29.3526872702
 20
-15.3979319647
 10
-29.3819956167
 20
-15.4039103901
 10
-29.4114054699
 20
-15.4093672802
 10
-29.440907551
 20
-15.4143009416
 10
-29.4704925618
 20
-15.4187097913
 10
-29.5001511692
 20
-15.4225924664
 10
-29.5298740248
 20
-15.4259477151
 10
-29.5596517529
 20
-15.4287745071
 10
-29.5894749666
 20
-15.4310719232
 10
-29.6193342596
 20
-15.4328392668
 10
-29.6492202181
 20
-15.4340759529
 10
-29.6791234172
 20
-15.4347816192
 10
-29.7090344283
 20
-15.4349560154
 10
-29.7389438194
 20
-15.4345991144
 10
-29.7688421591
 20
-15.4337110008
 10
-29.7987200203
 20
-15.4322919827
 10
-29.8285679806
 20
-15.4303424794
 10
-29.8583766298
 20
-15.4278631338
 10
-29.8881365662
 20
-15.4248546996
 10
-29.9178384085
 20
-15.4213181534
 10
-29.9474727877
 20
-15.4172545825
 10
-29.9770303629
 20
-15.412665296
 10
-30.0065018098
 20
-15.4075517135
 10
-30.0358778398
 20
-15.4019154748
 10
-30.0651491848
 20
-15.3957583299
 10
-30.0943066204
 20
-15.3890822475
 10
-30.1233409462
 20
-15.3818893056
 10
-30.1522430138
 20
-15.3741817994
 10
-30.1810037023
 20
-15.3659621323
 10
-30.2096139504
 20
-15.357232923
 10
-30.2380647283
 20
-15.3479968974
 10
-30.2663470735
 20
-15.3382569944
 10
-30.2944520587
 20
-15.3280162588
 10
-30.3223708311
 20
-15.3172779461
 10
-30.3500945772
 20
-15.3060454163
 10
-30.3776145655
 20
-15.2943222371
 10
-30.4049221074
 20
-15.2821120794
 10
-30.4320086031
 20
-15.2694188192
 10
-30.4588654995
 20
-15.2562464338
 10
-30.4854843417
 20
-15.2425991008
 10
-30.5118567238
 20
-15.2284810983
 10
-30.5379743374
 20
-15.213896907
 10
-30.563828932
 20
-15.1988511025
 10
-30.5894123895
 20
-15.1833484373
 10
-30.614716634
 20
-15.1673937715
 10
-30.6397336241
 20
-15.1509922196
 10
-30.6644554351
 20
-15.1341489461
 10
-30.6888745755
 20
-15.1168690617
 10
-30.7129834064
 20
-15.0991579323
 10
-30.7367732671
 20
-15.081022
  0
LWPOLYLINE
  5
57A
100
AcDbEntity
  8
268
100
AcDbPolyline
 62
7
  6
CONTINUOUS
 90
4
 70
0
 10
-34.5276009195
 20
-20.9038469852
 10
-34.5327252082
 20
-20.9094512519
 10
-34.5361025222
 20
-20.9130411249
 10
-34.5443004356
 20
-20.9216761805
  0
LINE
  5
57B
100
AcDbEntity
  8
268
100
AcDbLine
 62
7
  6
CONTINUOUS
 10
-34.5443004356
 20
-20.9216761805
 11
-34.565593947
 21
-20.9437323692
  0
LINE
  5
57C
100
AcDbEntity
  8
268
100
AcDbLine
 62
7
  6
CONTINUOUS
 10
-34.565593947
 20
-20.9437323692
 11
-34.5849952447
 21
-20.9636390078
  0
LINE
  5
57D
100
AcDbEntity
  8
268
100
AcDbLine
 62
7
  6
CONTINUOUS
 10
-34.5849952447
 20
-20.9636390078
 11
-34.6067017191
 21
-20.9857900719
  0
LINE
  5
57E
100
AcDbEntity
  8
268
100
AcDbLine
 62
7
  6
CONTINUOUS
 10
-34.6067017191
 20
-20.9857900719
 11
-34.6726399987
 21
-21.0526372927
  0
LINE
  5
57F
100
AcDbEntity
  8
268
100
AcDbLine
 62
7
  6
CONTINUOUS
 10
-34.6726399987
 20
-21.0526372927
 11
-34.7546559934
 21
-21.1352168029
  0
LINE
  5
580
100
AcDbEntity
  8
218_INCISO
100
AcDbLine
 62
250
  6
CONTINUOUS
 10
-24.7102589075
 20
-9.1285716057
 11
-24.5245446135
 21
-8.9428574085
  0
LINE
  5
581
100
AcDbEntity
  8
218_INCISO
100
AcDbLine
 62
250
  6
CONTINUOUS
 10
-25.6388303388
 20
-10.5214283943
 11
-25.8245446135
 21
-10.7071425915
  0
LINE
  5
582
100
AcDbEntity
  8
218_INCISO
100
AcDbLine
 62
250
  6
CONTINUOUS
 10
-25.6388303388
 20
-11.5428570986
 11
-25.8245446135
 21
-11.7285712957
  0
LINE
  5
583
100
AcDbEntity
  8
268
100
AcDbLine
 62
7
  6
CONTINUOUS
 10
-34.7546559934
 20
-21.1352168029
 11
-34.8193088915
 21
-21.2
  0
LWPOLYLINE
  5
584
100
AcDbEntity
  8
218_INCISO
100
AcDbPolyline
 62
250
  6
CONTINUOUS
 90
41
 70
0
 10
-27.1474958456
 20
-12.497369
 10
-27.1618652463
 20
-12.5113516625
 10
-27.1759495361
 20
-12.5256228582
 10
-27.1897420727
 20
-12.5401759475
 10
-27.2032372919
 20
-12.5550050127
 10
-27.2164298787
 20
-12.5701042212
 10
-27.229314437
 20
-12.5854673583
 10
-27.2418856098
 20
-12.6010880942
 10
-27.2541382772
 20
-12.6169600214
 10
-27.2660674181
 20
-12.6330766755
 10
-27.2776681704
 20
-12.6494314416
 10
-27.2889357584
 20
-12.6660176366
 10
-27.299865593
 20
-12.6828284559
 10
-27.310453178
 20
-12.6998570342
 10
-27.3206942029
 20
-12.7170963861
 10
-27.3305844514
 20
-12.7345394687
 10
-27.3401198991
 20
-12.752179128
 10
-27.3492966184
 20
-12.7700081565
 10
-27.3581108774
 20
-12.7880192433
 10
-27.3665590431
 20
-12.8062050278
 10
-27.3746376825
 20
-12.8245580539
 10
-27.3823434632
 20
-12.8430708201
 10
-27.3896732564
 20
-12.8617357376
 10
-27.396624036
 20
-12.8805451761
 10
-27.4031929827
 20
-12.8994914264
 10
-27.4093773812
 20
-12.9185667419
 10
-27.4151747264
 20
-12.9377633058
 10
-27.4205826186
 20
-12.9570732681
 10
-27.4255988709
 20
-12.9764887163
 10
-27.4302214029
 20
-12.9960017097
 10
-27.4344483494
 20
-13.0156042558
 10
-27.4382779531
 20
-13.0352883368
 10
-27.4417086735
 20
-13.0550458835
 10
-27.444739079
 20
-13.0748688115
 10
-27.4473679564
 20
-13.0947490248
 10
-27.4495942021
 20
-13.1146783953
 10
-27.4514169325
 20
-13.1346486768
 10
-27.4528353738
 20
-13.1546516743
 10
-27.4538489729
 20
-13.174679515
 10
-27.4544572873
 20
-13.1947240871
 10
-27.4546600956
 20
-13.214776
  0
LINE
  5
585
100
AcDbEntity
  8
218_INCISO
100
AcDbLine
 62
250
  6
CONTINUOUS
 10
-25.4531160642
 20
-13.4
 11
-24.5245446135
 21
-13.1214287043
  0
LINE
  5
586
100
AcDbEntity
  8
268
100
AcDbLine
 62
250
  6
CONTINUOUS
 10
-47.190573601
 20
17.3797991932
 11
-47.5779923089
 21
17.3730367745
  0
LINE
  5
587
100
AcDbEntity
  8
268
100
AcDbLine
 62
7
  6
CONTINUOUS
 10
-47.0675440623
 20
18.3817943769
 11
-47.4638470467
 21
18.3748768826
  0
LINE
  5
588
100
AcDbEntity
  8
284
100
AcDbLine
 62
7
  6
CONTINUOUS
 10
-47.4350579736
 20
18.6275553342
 11
-47.0365142472
 21
18.6345119408
  0
LINE
  5
589
100
AcDbEntity
  8
218_INCISO
100
AcDbLine
 62
250
  6
CONTINUOUS
 10
-23.507092207
 20
17.5197402485
 11
-22.5245446135
 21
17.5197402485
  0
LINE
  5
58A
100
AcDbEntity
  8
218_STAMPATO
100
AcDbLine
 62
250
  6
CONTINUOUS
 10
-23.507092207
 20
17.5197402485
 11
-22.5245446135
 21
17.5197402485
  0
LINE
  5
58B
100
AcDbEntity
  8
218_INCISO
100
AcDbLine
 62
250
  6
CONTINUOUS
 10
-23.507092207
 20
17.5197402485
 11
-44.5245446135
 21
17.6716990487
  0
LINE
  5
58C
100
AcDbEntity
  8
218_STAMPATO
100
AcDbLine
 62
250
  6
CONTINUOUS
 10
-23.507092207
 20
17.5197402485
 11
-44.5245446135
 21
17.6716990487
  0
LINE
  5
58D
100
AcDbEntity
  8
284
100
AcDbLine
 62
7
  6
CONTINUOUS
 10
-46.8966063649
 20
19.7739702018
 11
-47.2992141171
 21
19.819841561
  0
LINE
  5
58E
100
AcDbEntity
  8
RACCORDO
100
AcDbLine
 62
250
  6
CONTINUOUS
 10
-53.6750741138
 20
20.6446381503
 11
-53.9132454612
 21
20.6884288045
  0
LINE
  5
58F
100
AcDbEntity
  8
RACCORDO
100
AcDbLine
 62
250
  6
CONTINUOUS
 10
-53.9132454612
 20
20.6884288045
 11
-54.1268956003
 21
20.7278487021
  0
LINE
  5
590
100
AcDbEntity
  8
RACCORDO
100
AcDbLine
 62
250
  6
CONTINUOUS
 10
-54.1268956003
 20
20.7278487021
 11
-54.2455606599
 21
20.7498291352
  0
LINE
  5
591
100
AcDbEntity
  8
RACCORDO
100
AcDbLine
 62
250
  6
CONTINUOUS
 10
-54.2455606599
 20
20.7498291352
 11
-54.3392326138
 21
20.7672630961
  0
LWPOLYLINE
  5
592
100
AcDbEntity
  8
RACCORDO
100
AcDbPolyline
 62
250
  6
CONTINUOUS
 90
5
 70
0
 10
-54.3392326138
 20
20.7672630961
 10
-54.4039520863
 20
20.7794136771
 10
-54.4245484242
 20
20.7833378181
 10
-54.4369834807
 20
20.7857672915
 10
-54.4411255041
 20
20.7866763565
  0
LINE
  5
593
100
AcDbEntity
  8
218_INCISO
100
AcDbLine
 62
250
  6
CONTINUOUS
 10
-24.5275907103
 20
13.565000186
 11
-25.827392714
 21
13.899285183
  0
LINE
  5
594
100
AcDbEntity
  8
268
100
AcDbLine
 62
7
  6
CONTINUOUS
 10
-34.745364957
 20
21.125878276
 11
-34.8193088915
 21
21.2
  0
LINE
  5
595
100
AcDbEntity
  8
268
100
AcDbLine
 62
7
  6
CONTINUOUS
 10
-34.5597300018
 20
20.9376932259
 11
-34.745364957
 21
21.125878276
  0
LWPOLYLINE
  5
596
100
AcDbEntity
  8
268
100
AcDbPolyline
 62
7
  6
CONTINUOUS
 90
3
 70
0
 10
-34.5361025222
 20
20.9130411249
 10
-34.5443004356
 20
20.9216761805
 10
-34.5597300018
 20
20.9376932259
  0
LINE
  5
597
100
AcDbEntity
  8
268
100
AcDbLine
 62
7
  6
CONTINUOUS
 10
-34.5327252082
 20
20.9094512519
 11
-34.5361025222
 21
20.9130411249
  0
LINE
  5
598
100
AcDbEntity
  8
218_INCISO
100
AcDbLine
 62
250
  6
CONTINUOUS
 10
-20.7983978904
 20
4.6489817301
 11
-20.7983978904
 21
-1.2489817301
  0
LINE
  5
599
100
AcDbEntity
  8
218_STAMPATO
100
AcDbLine
 62
250
  6
CONTINUOUS
 10
-20.7983978904
 20
4.6489817301
 11
-20.7983978904
 21
-1.2489817301
  0
LINE
  5
59A
100
AcDbEntity
  8
218_INCISO
100
AcDbLine
 62
250
  6
CONTINUOUS
 10
-20.7983978904
 20
-9.1510182699
 11
-20.7983978904
 21
-15.0489817301
  0
LINE
  5
59B
100
AcDbEntity
  8
218_STAMPATO
100
AcDbLine
 62
250
  6
CONTINUOUS
 10
-20.7983978904
 20
-9.1510182699
 11
-20.7983978904
 21
-15.0489817301
  0
LINE
  5
59C
100
AcDbEntity
  8
218_INCISO
100
AcDbLine
 62
7
  6
CONTINUOUS
 10
-20.5245446135
 20
4.3501080118
 11
-20.5245446135
 21
-0.9501162948
  0
LINE
  5
59D
100
AcDbEntity
  8
218_STAMPATO
100
AcDbLine
 62
7
  6
CONTINUOUS
 10
-20.5245446135
 20
4.3501080118
 11
-20.5245446135
 21
-0.9501162948
  0
LINE
  5
59E
100
AcDbEntity
  8
218_INCISO
100
AcDbLine
 62
7
  6
CONTINUOUS
 10
-20.5245446135
 20
-9.4498919882
 11
-20.5245446135
 21
-14.7501162948
  0
LINE
  5
59F
100
AcDbEntity
  8
218_STAMPATO
100
AcDbLine
 62
7
  6
CONTINUOUS
 10
-20.5245446135
 20
-9.4498919882
 11
-20.5245446135
 21
-14.7501162948
  0
LINE
  5
5A0
100
AcDbEntity
  8
218_INCISO
100
AcDbLine
 62
250
  6
CONTINUOUS
 10
-24.8959732015
 20
-14.3285714507
 11
-25.4531160642
 21
-14.9785714507
  0
LINE
  5
5A1
100
AcDbEntity
  8
218_INCISO
100
AcDbLine
 62
250
  6
CONTINUOUS
 10
-25.8245446135
 20
-14.4214285493
 11
-25.7316874374
 21
-14.3285714507
  0
LINE
  5
5A2
100
AcDbEntity
  8
218_INCISO
100
AcDbLine
 62
250
  6
CONTINUOUS
 10
-25.8245446135
 20
-16.0
 11
-24.5245446135
 21
-15.35
  0
LINE
  5
5A3
100
AcDbEntity
  8
268
100
AcDbLine
 62
7
  6
CONTINUOUS
 10
-44.5245446135
 20
20.9
 11
-34.5245446135
 21
20.9
  0
LINE
  5
5A4
100
AcDbEntity
  8
218_INCISO
100
AcDbLine
 62
250
  6
CONTINUOUS
 10
-23.507092207
 20
18.9337384193
 11
-44.5245446135
 21
19.0856972195
  0
LINE
  5
5A5
100
AcDbEntity
  8
218_STAMPATO
100
AcDbLine
 62
250
  6
CONTINUOUS
 10
-23.507092207
 20
18.9337384193
 11
-44.5245446135
 21
19.0856972195
  0
LWPOLYLINE
  5
5A6
100
AcDbEntity
  8
218_INCISO
100
AcDbPolyline
 62
250
  6
CONTINUOUS
 90
121
 70
0
 10
-23.507092207
 20
18.9337384193
 10
-23.4941514768
 20
18.9335194473
 10
-23.4812158393
 20
18.9331820483
 10
-23.4682874618
 20
18.9327262789
 10
-23.4553685107
 20
18.9321522154
 10
-23.4424611507
 20
18.9314599541
 10
-23.4295675444
 20
18.930649611
 10
-23.4166898523
 20
18.9297213218
 10
-23.4038302322
 20
18.928675242
 10
-23.3909908388
 20
18.927511547
 10
-23.3781738234
 20
18.9262304317
 10
-23.3653813337
 20
18.9248321108
 10
-23.3526155132
 20
18.9233168186
 10
-23.3398785008
 20
18.921684809
 10
-23.3271724308
 20
18.9199363555
 10
-23.3144994321
 20
18.918071751
 10
-23.3018616283
 20
18.9160913079
 10
-23.2892611369
 20
18.9139953581
 10
-23.2767000691
 20
18.9117842528
 10
-23.2641805299
 20
18.9094583625
 10
-23.2517046168
 20
18.9070180769
 10
-23.2392744203
 20
18.9044638048
 10
-23.2268920233
 20
18.9017959743
 10
-23.2145595005
 20
18.8990150325
 10
-23.2022789182
 20
18.8961214451
 10
-23.1900523343
 20
18.8931156972
 10
-23.1778817974
 20
18.8899982924
 10
-23.1657693467
 20
18.8867697529
 10
-23.1537170119
 20
18.8834306198
 10
-23.1417268123
 20
18.8799814525
 10
-23.1298007571
 20
18.8764228291
 10
-23.1179408445
 20
18.8727553457
 10
-23.1061490618
 20
18.868979617
 10
-23.0944273848
 20
18.8650962754
 10
-23.0827777775
 20
18.8611059718
 10
-23.0712021919
 20
18.8570093748
 10
-23.0597025677
 20
18.8528071707
 10
-23.0482808317
 20
18.8485000637
 10
-23.0369388977
 20
18.8440887755
 10
-23.0256786661
 20
18.8395740451
 10
-23.0145020237
 20
18.8349566292
 10
-23.0034108432
 20
18.8302373014
 10
-22.992406983
 20
18.8254168524
 10
-22.981492287
 20
18.82049609
 10
-22.970668584
 20
18.8154758386
 10
-22.9599376875
 20
18.8103569395
 10
-22.9493013956
 20
18.8051402504
 10
-22.9387614906
 20
18.7998266453
 10
-22.9283197385
 20
18.7944170147
 10
-22.9179778888
 20
18.7889122649
 10
-22.9077376745
 20
18.7833133183
 10
-22.8976008114
 20
18.777621113
 10
-22.887568998
 20
18.7718366029
 10
-22.8776439152
 20
18.7659607572
 10
-22.867827226
 20
18.7599945603
 10
-22.8581205754
 20
18.7539390121
 10
-22.8485255896
 20
18.7477951272
 10
-22.8390438766
 20
18.741563935
 10
-22.8296770249
 20
18.7352464796
 10
-22.8204266042
 20
18.7288438196
 10
-22.8112941643
 20
18.7223570277
 10
-22.8022812355
 20
18.7157871909
 10
-22.7933893281
 20
18.7091354101
 10
-22.7846199318
 20
18.7024027997
 10
-22.7759745161
 20
18.695590488
 10
-22.7674545296
 20
18.6886996163
 10
-22.7590614
 20
18.6817313393
 10
-22.7507965334
 20
18.6746868245
 10
-22.7426613149
 20
18.6675672524
 10
-22.7346571075
 20
18.6603738158
 10
-22.7267852523
 20
18.6531077202
 10
-22.7190470684
 20
18.645770183
 10
-22.7114438524
 20
18.6383624336
 10
-22.7039768783
 20
18.6308857133
 10
-22.6966473971
 20
18.6233412749
 10
-22.6894566371
 20
18.6157303825
 10
-22.6824058031
 20
18.6080543114
 10
-22.6754960766
 20
18.6003143478
 10
-22.6687286152
 20
18.5925117885
 10
-22.662104553
 20
18.584647941
 10
-22.6556249999
 20
18.5767241229
 10
-22.6492910415
 20
18.568741662
 10
-22.6431037392
 20
18.5607018956
 10
-22.6370641298
 20
18.552606171
 10
-22.6311732251
 20
18.5444558447
 10
-22.6254320124
 20
18.5362522824
 10
-22.6198414535
 20
18.5279968585
 10
-22.6144024852
 20
18.5196909564
 10
-22.6091160188
 20
18.5113359678
 10
-22.6039829402
 20
18.5029332927
 10
-22.5990041094
 20
18.4944843389
 10
-22.5941803608
 20
18.4859905222
 10
-22.5895125024
 20
18.4774532658
 10
-22.5850013166
 20
18.4688740002
 10
-22.5806475591
 20
18.4602541629
 10
-22.5764519595
 20
18.4515951982
 10
-22.5724152207
 20
18.442898557
 10
-22.5685380193
 20
18.4341656966
 10
-22.5648210047
 20
18.4253980801
 10
-22.5612648
 20
18.4165971766
 10
-22.5578700008
 20
18.4077644609
 10
-22.5546371761
 20
18.3989014129
 10
-22.5515668675
 20
18.3900095177
 10
-22.5486595895
 20
18.3810902652
 10
-22.5459158292
 20
18.3721451499
 10
-22.5433360464
 20
18.3631756707
 10
-22.5409206734
 20
18.3541833304
 10
-22.5386701148
 20
18.3451696358
 10
-22.5365847477
 20
18.3361360972
 10
-22.5346649216
 20
18.3270842282
 10
-22.5329109582
 20
18.3180155457
 10
-22.5313231513
 20
18.308931569
 10
-22.529901767
 20
18.2998338203
 10
-22.5286470434
 20
18.290723824
 10
-22.5275591909
 20
18.2816031066
 10
-22.5266383916
 20
18.2724731963
 10
-22.5258847999
 20
18.263335623
 10
-22.525298542
 20
18.2541919176
 10
-22.5248797162
 20
18.2450436122
 10
-22.5246283927
 20
18.2358922399
 10
-22.5245446135
 20
18.2267393339
  0
LWPOLYLINE
  5
5A7
100
AcDbEntity
  8
218_STAMPATO
100
AcDbPolyline
 62
250
  6
CONTINUOUS
 90
121
 70
0
 10
-23.507092207
 20
18.9337384193
 10
-23.4941514768
 20
18.9335194473
 10
-23.4812158393
 20
18.9331820483
 10
-23.4682874618
 20
18.9327262789
 10
-23.4553685107
 20
18.9321522154
 10
-23.4424611507
 20
18.9314599541
 10
-23.4295675444
 20
18.930649611
 10
-23.4166898523
 20
18.9297213218
 10
-23.4038302322
 20
18.928675242
 10
-23.3909908388
 20
18.927511547
 10
-23.3781738234
 20
18.9262304317
 10
-23.3653813337
 20
18.9248321108
 10
-23.3526155132
 20
18.9233168186
 10
-23.3398785008
 20
18.921684809
 10
-23.3271724308
 20
18.9199363555
 10
-23.3144994321
 20
18.918071751
 10
-23.3018616283
 20
18.9160913079
 10
-23.2892611369
 20
18.9139953581
 10
-23.2767000691
 20
18.9117842528
 10
-23.2641805299
 20
18.9094583625
 10
-23.2517046168
 20
18.9070180769
 10
-23.2392744203
 20
18.9044638048
 10
-23.2268920233
 20
18.9017959743
 10
-23.2145595005
 20
18.8990150325
 10
-23.2022789182
 20
18.8961214451
 10
-23.1900523343
 20
18.8931156972
 10
-23.1778817974
 20
18.8899982924
 10
-23.1657693467
 20
18.8867697529
 10
-23.1537170119
 20
18.8834306198
 10
-23.1417268123
 20
18.8799814525
 10
-23.1298007571
 20
18.8764228291
 10
-23.1179408445
 20
18.8727553457
 10
-23.1061490618
 20
18.868979617
 10
-23.0944273848
 20
18.8650962754
 10
-23.0827777775
 20
18.8611059718
 10
-23.0712021919
 20
18.8570093748
 10
-23.0597025677
 20
18.8528071707
 10
-23.0482808317
 20
18.8485000637
 10
-23.0369388977
 20
18.8440887755
 10
-23.0256786661
 20
18.8395740451
 10
-23.0145020237
 20
18.8349566292
 10
-23.0034108432
 20
18.8302373014
 10
-22.992406983
 20
18.8254168524
 10
-22.981492287
 20
18.82049609
 10
-22.970668584
 20
18.8154758386
 10
-22.9599376875
 20
18.8103569395
 10
-22.9493013956
 20
18.8051402504
 10
-22.9387614906
 20
18.7998266453
 10
-22.9283197385
 20
18.7944170147
 10
-22.9179778888
 20
18.7889122649
 10
-22.9077376745
 20
18.7833133183
 10
-22.8976008114
 20
18.777621113
 10
-22.887568998
 20
18.7718366029
 10
-22.8776439152
 20
18.7659607572
 10
-22.867827226
 20
18.7599945603
 10
-22.8581205754
 20
18.7539390121
 10
-22.8485255896
 20
18.7477951272
 10
-22.8390438766
 20
18.741563935
 10
-22.8296770249
 20
18.7352464796
 10
-22.8204266042
 20
18.7288438196
 10
-22.8112941643
 20
18.7223570277
 10
-22.8022812355
 20
18.7157871909
 10
-22.7933893281
 20
18.7091354101
 10
-22.7846199318
 20
18.7024027997
 10
-22.7759745161
 20
18.695590488
 10
-22.7674545296
 20
18.6886996163
 10
-22.7590614
 20
18.6817313393
 10
-22.7507965334
 20
18.6746868245
 10
-22.7426613149
 20
18.6675672524
 10
-22.7346571075
 20
18.6603738158
 10
-22.7267852523
 20
18.6531077202
 10
-22.7190470684
 20
18.645770183
 10
-22.7114438524
 20
18.6383624336
 10
-22.7039768783
 20
18.6308857133
 10
-22.6966473971
 20
18.6233412749
 10
-22.6894566371
 20
18.6157303825
 10
-22.6824058031
 20
18.6080543114
 10
-22.6754960766
 20
18.6003143478
 10
-22.6687286152
 20
18.5925117885
 10
-22.662104553
 20
18.584647941
 10
-22.6556249999
 20
18.5767241229
 10
-22.6492910415
 20
18.568741662
 10
-22.6431037392
 20
18.5607018956
 10
-22.6370641298
 20
18.552606171
 10
-22.6311732251
 20
18.5444558447
 10
-22.6254320124
 20
18.5362522824
 10
-22.6198414535
 20
18.5279968585
 10
-22.6144024852
 20
18.5196909564
 10
-22.6091160188
 20
18.5113359678
 10
-22.6039829402
 20
18.5029332927
 10
-22.5990041094
 20
18.4944843389
 10
-22.5941803608
 20
18.4859905222
 10
-22.5895125024
 20
18.4774532658
 10
-22.5850013166
 20
18.4688740002
 10
-22.5806475591
 20
18.4602541629
 10
-22.5764519595
 20
18.4515951982
 10
-22.5724152207
 20
18.442898557
 10
-22.5685380193
 20
18.4341656966
 10
-22.5648210047
 20
18.4253980801
 10
-22.5612648
 20
18.4165971766
 10
-22.5578700008
 20
18.4077644609
 10
-22.5546371761
 20
18.3989014129
 10
-22.5515668675
 20
18.3900095177
 10
-22.5486595895
 20
18.3810902652
 10
-22.5459158292
 20
18.3721451499
 10
-22.5433360464
 20
18.3631756707
 10
-22.5409206734
 20
18.3541833304
 10
-22.5386701148
 20
18.3451696358
 10
-22.5365847477
 20
18.3361360972
 10
-22.5346649216
 20
18.3270842282
 10
-22.5329109582
 20
18.3180155457
 10
-22.5313231513
 20
18.308931569
 10
-22.529901767
 20
18.2998338203
 10
-22.5286470434
 20
18.290723824
 10
-22.5275591909
 20
18.2816031066
 10
-22.5266383916
 20
18.2724731963
 10
-22.5258847999
 20
18.263335623
 10
-22.525298542
 20
18.2541919176
 10
-22.5248797162
 20
18.2450436122
 10
-22.5246283927
 20
18.2358922399
 10
-22.5245446135
 20
18.2267393339
  0
LINE
  5
5A8
100
AcDbEntity
  8
218_INCISO
100
AcDbLine
 62
7
  6
CONTINUOUS
 10
-23.507092207
 20
19.4186688218
 11
-34.5245446135
 21
19.6109791689
  0
LINE
  5
5A9
100
AcDbEntity
  8
218_STAMPATO
100
AcDbLine
 62
7
  6
CONTINUOUS
 10
-23.507092207
 20
19.4186688218
 11
-34.5245446135
 21
19.6109791689
  0
LINE
  5
5AA
100
AcDbEntity
  8
218_INCISO
100
AcDbLine
 62
7
  6
CONTINUOUS
 10
-44.5245446135
 20
20.85
 11
-34.5245446135
 21
20.6754493507
  0
LINE
  5
5AB
100
AcDbEntity
  8
218_STAMPATO
100
AcDbLine
 62
7
  6
CONTINUOUS
 10
-44.5245446135
 20
20.85
 11
-34.5245446135
 21
20.6754493507
  0
LWPOLYLINE
  5
5AC
100
AcDbEntity
  8
RACCORDO
100
AcDbPolyline
 62
250
  6
CONTINUOUS
 90
22
 70
0
 10
-52.9134031236
 20
21.214445722
 10
-52.9632549758
 20
21.2178730854
 10
-53.0127954943
 20
21.217792135
 10
-53.0620246792
 20
21.2142028709
 10
-53.1112091121
 20
21.207055084
 10
-53.1600822114
 20
21.1963989833
 10
-53.207844232
 20
21.1823851958
 10
-53.2544611698
 20
21.1649583728
 10
-53.299967029
 20
21.1441738631
 10
-53.3436640769
 20
21.1203483388
 10
-53.385517656
 20
21.0934400106
 10
-53.4255624237
 20
21.063490668
 10
-53.4632046202
 20
21.030942351
 10
-53.4984155469
 20
20.9957473372
 10
-53.5312239022
 20
20.9579533492
 10
-53.5611220224
 20
20.9181455948
 10
-53.5880631438
 20
20.8762799672
 10
-53.61209403
 20
20.8324005733
 10
-53.6328473075
 20
20.7872249419
 10
-53.6502005183
 20
20.740992249
 10
-53.6642761204
 20
20.6934633185
 10
-53.6750741138
 20
20.6446381503
  0
LINE
  5
5AD
100
AcDbEntity
  8
RACCORDO
100
AcDbLine
 62
250
  6
CONTINUOUS
 10
-47.2086343062
 20
20.6148503581
 11
-52.9134031236
 21
21.214445722
  0
LINE
  5
5AE
100
AcDbEntity
  8
RACCORDO
100
AcDbLine
 62
7
  6
CONTINUOUS
 10
-47.1180889751
 20
21.40955653
 11
-52.8089734097
 21
22.0076925865
  0
LINE
  5
5AF
100
AcDbEntity
  8
268
100
AcDbLine
 62
7
  6
CONTINUOUS
 10
-48.0245446135
 20
22.0
 11
-46.8745446135
 21
21.858797755
  0
LINE
  5
5B0
100
AcDbEntity
  8
218_INCISO
100
AcDbLine
 62
250
  6
CONTINUOUS
 10
-25.2703347457
 20
15.654285183
 11
-25.827392714
 21
15.9885718536
  0
LWPOLYLINE
  5
5B1
100
AcDbEntity
  8
0
100
AcDbPolyline
 62
7
  6
CONTINUOUS
 90
10
 70
0
 43
0.3500000087
 10
-38.8289089966
 20
43.7482501984
 10
-38.7574815735
 20
43.6053953522
 10
-38.7574815735
 20
43.5339636658
 10
-38.9003364197
 20
43.3911088196
 10
-38.9717638428
 20
43.3911088196
 10
-39.0431955292
 20
43.4625362427
 10
-39.0431955292
 20
43.5339636658
 10
-38.9717638428
 20
43.6768227753
 10
-38.9003364197
 20
43.7482501984
 10
-38.8289089966
 20
43.7482501984
  0
LINE
  5
5B2
100
AcDbEntity
  8
218_INCISO
100
AcDbLine
 62
250
  6
CONTINUOUS
 10
-24.6174017605
 20
-14.9785714507
 11
-24.5245446135
 21
-14.8857142746
  0
LINE
  5
5B3
100
AcDbEntity
  8
268
100
AcDbLine
 62
250
  6
CONTINUOUS
 10
-44.5245446135
 20
21.2756902398
 11
-34.8193088915
 21
21.4450957595
  0
LINE
  5
5B4
100
AcDbEntity
  8
268
100
AcDbLine
 62
250
  6
CONTINUOUS
 10
-44.5245446135
 20
21.4879136641
 11
-34.6087109383
 21
21.6609951847
  0
LINE
  5
5B5
100
AcDbEntity
  8
268
100
AcDbLine
 62
250
  6
CONTINUOUS
 10
-45.5245446135
 20
22.0499866726
 11
-48.0245446135
 21
22.0281695031
  0
LINE
  5
5B6
100
AcDbEntity
  8
268
100
AcDbLine
 62
7
  6
CONTINUOUS
 10
-45.5245446135
 20
22.4
 11
-48.0245446135
 21
22.3781828305
  0
LINE
  5
5B7
100
AcDbEntity
  8
268
100
AcDbLine
 62
250
  6
CONTINUOUS
 10
-44.5245446135
 20
21.2
 11
-34.8193088915
 21
21.2
  0
LINE
  5
5B8
100
AcDbEntity
  8
268
100
AcDbLine
 62
250
  6
CONTINUOUS
 10
-44.5245446135
 20
22.0412598048
 11
-45.5245446135
 21
22.0499866726
  0
LINE
  5
5B9
100
AcDbEntity
  8
268
100
AcDbLine
 62
250
  6
CONTINUOUS
 10
-44.5245446135
 20
22.303393743
 11
-35.1066860522
 21
22.2212053365
  0
LINE
  5
5BA
100
AcDbEntity
  8
268
100
AcDbLine
 62
7
  6
CONTINUOUS
 10
-35.515818078
 20
22.3126551668
 11
-45.5245446135
 21
22.4
  0
LINE
  5
5BB
100
AcDbEntity
  8
268
100
AcDbLine
 62
7
  6
CONTINUOUS
 10
-47.7759990463
 20
24.3869014213
 11
-45.5245446135
 21
24.4
  0
LINE
  5
5BC
100
AcDbEntity
  8
268
100
AcDbLine
 62
7
  6
CONTINUOUS
 10
-44.5296409356
 20
23.7942118197
 11
-37.5245446135
 21
23.7534573615
  0
LINE
  5
5BD
100
AcDbEntity
  8
268
100
AcDbLine
 62
7
  6
CONTINUOUS
 10
-45.5245446135
 20
24.4
 11
-44.7730901806
 21
24.395628166
  0
LWPOLYLINE
  5
5BE
100
AcDbEntity
  8
0
100
AcDbPolyline
 62
7
  6
CONTINUOUS
 90
7
 70
0
 43
0.3500000087
 10
-33.3816876129
 20
33.150000592
 10
-34.8816869461
 20
33.150000592
 10
-33.3816876129
 20
35.2928573914
 10
-33.3816876129
 20
35.7214304565
 10
-33.8102585464
 20
36.1499992584
 10
-34.4531160126
 20
36.1499992584
 10
-34.8816869461
 20
35.507143924
  0
LWPOLYLINE
  5
5BF
100
AcDbEntity
  8
0
100
AcDbPolyline
 62
7
  6
CONTINUOUS
 90
3
 70
0
 43
0.3500000087
 10
-31.024544281
 20
33.7928559265
 10
-32.5245436142
 20
33.7928559265
 10
-31.8816882797
 20
36.1499992584
  0
LWPOLYLINE
  5
5C0
100
AcDbEntity
  8
0
100
AcDbPolyline
 62
7
  6
CONTINUOUS
 90
6
 70
0
 43
0.3500000087
 10
-43.9717644623
 20
43.2482497101
 10
-42.9003360626
 20
43.2482497101
 10
-42.68604953
 20
43.4625362427
 10
-42.68604953
 20
44.5339646423
 10
-43.1146225952
 20
44.9625377075
 10
-43.5431956604
 20
44.9625377075
  0
LWPOLYLINE
  5
5C1
100
AcDbEntity
  8
0
100
AcDbPolyline
 62
7
  6
CONTINUOUS
 90
8
 70
0
 43
0.3500000087
 10
-37.7574805969
 20
43.2482497101
 10
-36.9003387299
 20
43.2482497101
 10
-36.4717656647
 20
43.6768227753
 10
-36.4717656647
 20
44.5339646423
 10
-36.9003387299
 20
44.9625377075
 10
-37.7574805969
 20
44.9625377075
 10
-37.7574805969
 20
46.2482483765
 10
-36.4717656647
 20
46.2482483765
  0
LWPOLYLINE
  5
5C2
100
AcDbEntity
  8
0
100
AcDbPolyline
 62
7
  6
CONTINUOUS
 90
13
 70
0
 43
0.3500000087
 10
-41.4003388611
 20
44.9625377075
 10
-41.6860528168
 20
45.1768199768
 10
-41.6860528168
 20
45.8196795746
 10
-41.4003388611
 20
46.2482483765
 10
-40.7574792633
 20
46.2482483765
 10
-40.4717653076
 20
45.8196795746
 10
-40.4717653076
 20
45.1768199768
 10
-40.7574792633
 20
44.9625377075
 10
-40.3289104614
 20
44.5339646423
 10
-40.3289104614
 20
43.6768227753
 10
-40.7574792633
 20
43.2482497101
 10
-41.4003388611
 20
43.2482497101
 10
-41.828907663
 20
43.6768227753
  0
ARC
  5
5C3
100
AcDbEntity
  8
RACCORDO
100
AcDbCircle
 62
7
  6
CONTINUOUS
 10
-57.5618441734
 20
-19.8233497499
 40
1.5
100
AcDbArc
 50
177.3995301032
 51
263.0
  0
ARC
  5
5C4
100
AcDbEntity
  8
284
100
AcDbCircle
 62
7
  6
CONTINUOUS
 10
-51.3729462731
 20
-20.3516824302
 40
1.0
100
AcDbArc
 50
353.5
 51
76.0
  0
ARC
  5
5C5
100
AcDbEntity
  8
218_INCISO
100
AcDbCircle
 62
7
  6
CONTINUOUS
 10
-23.5245446135
 20
-18.4188211266
 40
1.0
100
AcDbArc
 50
271.0
 51
360.0
  0
ARC
  5
5C6
100
AcDbEntity
  8
218_STAMPATO
100
AcDbCircle
 62
7
  6
CONTINUOUS
 10
-23.5245446135
 20
-18.4188211266
 40
1.0
100
AcDbArc
 50
271.0
 51
360.0
  0
ARC
  5
5C7
100
AcDbEntity
  8
268
100
AcDbCircle
 62
7
  6
CONTINUOUS
 10
-35.5245446135
 20
-21.3126932437
 40
1.0
100
AcDbArc
 50
270.5
 51
360.0
  0
ARC
  5
5C8
100
AcDbEntity
  8
218_INCISO
100
AcDbCircle
 62
7
  6
CONTINUOUS
 10
-20.8245446135
 20
-9.4498766793
 40
0.3
100
AcDbArc
 50
0.0
 51
85.0
  0
ARC
  5
5C9
100
AcDbEntity
  8
218_INCISO
100
AcDbCircle
 62
7
  6
CONTINUOUS
 10
-20.8245446135
 20
-14.7501233207
 40
0.3
100
AcDbArc
 50
275.0
 51
360.0
  0
ARC
  5
5CA
100
AcDbEntity
  8
218_INCISO
100
AcDbCircle
 62
7
  6
CONTINUOUS
 10
-22.2245446135
 20
-8.7251006478
 40
0.3
100
AcDbArc
 50
180.0
 51
265.0
  0
ARC
  5
5CB
100
AcDbEntity
  8
218_INCISO
100
AcDbCircle
 62
7
  6
CONTINUOUS
 10
-22.2245446135
 20
-15.4748993522
 40
0.3
100
AcDbArc
 50
95.0
 51
179.0052238051
  0
ARC
  5
5CC
100
AcDbEntity
  8
218_STAMPATO
100
AcDbCircle
 62
7
  6
CONTINUOUS
 10
-20.8245446135
 20
-9.4498766793
 40
0.3
100
AcDbArc
 50
0.0
 51
85.0
  0
ARC
  5
5CD
100
AcDbEntity
  8
218_STAMPATO
100
AcDbCircle
 62
7
  6
CONTINUOUS
 10
-20.8245446135
 20
-14.7501233207
 40
0.3
100
AcDbArc
 50
275.0
 51
360.0
  0
ARC
  5
5CE
100
AcDbEntity
  8
218_STAMPATO
100
AcDbCircle
 62
7
  6
CONTINUOUS
 10
-22.2245446135
 20
-8.7251006478
 40
0.3
100
AcDbArc
 50
180.9947745346
 51
265.0
  0
ARC
  5
5CF
100
AcDbEntity
  8
218_STAMPATO
100
AcDbCircle
 62
7
  6
CONTINUOUS
 10
-22.2245446135
 20
-15.4748993522
 40
0.3
100
AcDbArc
 50
95.0
 51
180.0
  0
ARC
  5
5D0
100
AcDbEntity
  8
268
100
AcDbCircle
 62
7
  6
CONTINUOUS
 10
-47.7745446135
 20
-23.8443375673
 40
0.25
100
AcDbArc
 50
120.0
 51
180.0
  0
ARC
  5
5D1
100
AcDbEntity
  8
268
100
AcDbCircle
 62
7
  6
CONTINUOUS
 10
-47.7745446135
 20
-24.1369056521
 40
0.25
100
AcDbArc
 50
180.0
 51
269.6666666667
  0
ARC
  5
5D2
100
AcDbEntity
  8
268
100
AcDbCircle
 62
7
  6
CONTINUOUS
 10
-44.7745446135
 20
-24.1456323968
 40
0.25
100
AcDbArc
 50
270.3333333333
 51
360.0
  0
ARC
  5
5D3
100
AcDbEntity
  8
268
100
AcDbCircle
 62
7
  6
CONTINUOUS
 10
-44.7745446135
 20
-23.8443375673
 40
0.25
100
AcDbArc
 50
0.0
 51
60.0
  0
ARC
  5
5D4
100
AcDbEntity
  8
268
100
AcDbCircle
 62
7
  6
CONTINUOUS
 10
-45.2745446135
 20
-22.9783121635
 40
0.25
100
AcDbArc
 50
180.0
 51
240.0
  0
ARC
  5
5D5
100
AcDbEntity
  8
RACCORDO
100
AcDbCircle
 62
7
  6
CONTINUOUS
 10
-52.9657661046
 20
20.5159097435
 40
1.5
100
AcDbArc
 50
84.0
 51
169.6004698968
  0
ARC
  5
5D6
100
AcDbEntity
  8
218_INCISO
100
AcDbCircle
 62
7
  6
CONTINUOUS
 10
-23.5245446135
 20
18.4188211266
 40
1.0
100
AcDbArc
 50
0.0
 51
89.0
  0
ARC
  5
5D7
100
AcDbEntity
  8
218_STAMPATO
100
AcDbCircle
 62
7
  6
CONTINUOUS
 10
-23.5245446135
 20
18.4188211266
 40
1.0
100
AcDbArc
 50
0.0
 51
89.0
  0
ARC
  5
5D8
100
AcDbEntity
  8
268
100
AcDbCircle
 62
7
  6
CONTINUOUS
 10
-35.5245446135
 20
21.3126932437
 40
1.0
100
AcDbArc
 50
0.0
 51
89.5
  0
ARC
  5
5D9
100
AcDbEntity
  8
218_INCISO
100
AcDbCircle
 62
7
  6
CONTINUOUS
 10
-20.8245446135
 20
4.3501233207
 40
0.3
100
AcDbArc
 50
0.0
 51
85.0
  0
ARC
  5
5DA
100
AcDbEntity
  8
218_INCISO
100
AcDbCircle
 62
7
  6
CONTINUOUS
 10
-20.8245446135
 20
-0.9501233207
 40
0.3
100
AcDbArc
 50
275.0
 51
360.0
  0
ARC
  5
5DB
100
AcDbEntity
  8
218_INCISO
100
AcDbCircle
 62
7
  6
CONTINUOUS
 10
-22.2245446135
 20
5.0748993522
 40
0.3
100
AcDbArc
 50
180.0
 51
265.0
  0
ARC
  5
5DC
100
AcDbEntity
  8
218_INCISO
100
AcDbCircle
 62
7
  6
CONTINUOUS
 10
-22.2245446135
 20
-1.6748993522
 40
0.3
100
AcDbArc
 50
95.0
 51
179.0052238051
  0
ARC
  5
5DD
100
AcDbEntity
  8
218_STAMPATO
100
AcDbCircle
 62
7
  6
CONTINUOUS
 10
-20.8245446135
 20
4.3501233207
 40
0.3
100
AcDbArc
 50
0.0
 51
85.0
  0
ARC
  5
5DE
100
AcDbEntity
  8
218_STAMPATO
100
AcDbCircle
 62
7
  6
CONTINUOUS
 10
-20.8245446135
 20
-0.9501233207
 40
0.3
100
AcDbArc
 50
275.0
 51
360.0
  0
ARC
  5
5DF
100
AcDbEntity
  8
218_STAMPATO
100
AcDbCircle
 62
7
  6
CONTINUOUS
 10
-22.2245446135
 20
5.0748993522
 40
0.3
100
AcDbArc
 50
180.9947745346
 51
265.0
  0
ARC
  5
5E0
100
AcDbEntity
  8
218_STAMPATO
100
AcDbCircle
 62
7
  6
CONTINUOUS
 10
-22.2245446135
 20
-1.6748993522
 40
0.3
100
AcDbArc
 50
95.0
 51
180.0
  0
ARC
  5
5E1
100
AcDbEntity
  8
268
100
AcDbCircle
 62
7
  6
CONTINUOUS
 10
-47.7745446135
 20
23.8443375673
 40
0.25
100
AcDbArc
 50
180.0
 51
240.0
  0
ARC
  5
5E2
100
AcDbEntity
  8
268
100
AcDbCircle
 62
7
  6
CONTINUOUS
 10
-47.7745446135
 20
24.1369056521
 40
0.25
100
AcDbArc
 50
90.3333333333
 51
180.0
  0
ARC
  5
5E3
100
AcDbEntity
  8
268
100
AcDbCircle
 62
7
  6
CONTINUOUS
 10
-44.7745446135
 20
24.1456323968
 40
0.25
100
AcDbArc
 50
0.0
 51
89.6666666667
  0
ARC
  5
5E4
100
AcDbEntity
  8
268
100
AcDbCircle
 62
7
  6
CONTINUOUS
 10
-44.7745446135
 20
23.8443375673
 40
0.25
100
AcDbArc
 50
300.0
 51
360.0
  0
ARC
  5
5E5
100
AcDbEntity
  8
268
100
AcDbCircle
 62
7
  6
CONTINUOUS
 10
-45.2745446135
 20
22.9783121635
 40
0.25
100
AcDbArc
 50
120.0
 51
180.0
  0
ARC
  5
5E6
100
AcDbEntity
  8
RACCORDO
100
AcDbCircle
 62
7
  6
CONTINUOUS
 10
240.6307598472
 20
-33.3666472581
 40
300.0
100
AcDbArc
 50
169.6004698968
 51
177.3995301032
  0
ELLIPSE
  5
5E7
100
AcDbEntity
  8
RACCORDO
100
AcDbEllipse
 62
7
  6
CONTINUOUS
 10
10.299725766
 20
20.6146687786
 30
0.0
 11
0.8001614129
 21
0.013528477
 31
0.0
 40
0.9932653678
 41
-0.0167917429
 42
0.2270618516
  0
ELLIPSE
  5
5E8
100
AcDbEntity
  8
RACCORDO
100
AcDbEllipse
 62
7
  6
CONTINUOUS
 10
-10.299725766
 20
20.6146687786
 30
0.0
 11
0.8001614129
 21
-0.013528477
 31
0.0
 40
0.9932653678
 41
2.914530802
 42
3.1583843964
  0
ELLIPSE
  5
5E9
100
AcDbEntity
  8
RACCORDO
100
AcDbEllipse
 62
7
  6
CONTINUOUS
 10
-10.299725766
 20
-21.2146458116
 30
0.0
 11
0.8001614129
 21
0.013528477
 31
0.0
 40
0.9932653678
 41
3.1248009107
 42
4.6953688035
  0
ELLIPSE
  5
5EA
100
AcDbEntity
  8
RACCORDO
100
AcDbEllipse
 62
7
  6
CONTINUOUS
 10
10.299725766
 20
-21.2146458116
 30
0.0
 11
0.8001614129
 21
-0.013528477
 31
0.0
 40
0.9932653678
 41
-1.5537761499
 42
0.0167917429
  0
ELLIPSE
  5
5EB
100
AcDbEntity
  8
268
100
AcDbEllipse
 62
7
  6
CONTINUOUS
 10
10.8
 20
22.0281695031
 30
0.0
 11
-0.0
 21
-0.3500133274
 31
0.0
 40
0.9999619231
 41
1.5707963268
 42
3.1415926536
  0
ELLIPSE
  5
5EC
100
AcDbEntity
  8
268
100
AcDbEllipse
 62
7
  6
CONTINUOUS
 10
10.8
 20
-22.0281695031
 30
0.0
 11
-0.0
 21
-0.3500133274
 31
0.0
 40
0.9999619231
 41
-0.0
 42
1.5707963268
  0
ELLIPSE
  5
5ED
100
AcDbEntity
  8
268
100
AcDbEllipse
 62
7
  6
CONTINUOUS
 10
10.5869098829
 20
-23.8443375673
 30
0.0
 11
0.0
 21
0.25
 31
0.0
 40
0.0058178298
 41
0.5235987756
 42
1.5707963268
  0
ELLIPSE
  5
5EE
100
AcDbEntity
  8
268
100
AcDbEllipse
 62
7
  6
CONTINUOUS
 10
8.3130901171
 20
-23.8443375673
 30
0.0
 11
-0.0
 21
0.25
 31
0.0
 40
0.0058178298
 41
-1.5707963268
 42
-0.5235987756
  0
ELLIPSE
  5
5EF
100
AcDbEntity
  8
268
100
AcDbEllipse
 62
7
  6
CONTINUOUS
 10
8.3130901171
 20
-24.1369056521
 30
0.0
 11
0.0
 21
0.25
 31
0.0
 40
0.0058178298
 41
-3.1357748894
 42
-1.5707963268
  0
ELLIPSE
  5
5F0
100
AcDbEntity
  8
268
100
AcDbEllipse
 62
7
  6
CONTINUOUS
 10
10.5869098829
 20
-24.1369056521
 30
0.0
 11
-0.0
 21
0.25
 31
0.0
 40
0.0058178298
 41
-4.7123889804
 42
-3.1474104178
  0
ELLIPSE
  5
5F1
100
AcDbEntity
  8
268
100
AcDbEllipse
 62
7
  6
CONTINUOUS
 10
-8.3130901171
 20
-23.8443375673
 30
0.0
 11
0.0
 21
0.25
 31
0.0
 40
0.0058178298
 41
0.5235987756
 42
1.5707963268
  0
ELLIPSE
  5
5F2
100
AcDbEntity
  8
268
100
AcDbEllipse
 62
7
  6
CONTINUOUS
 10
-10.5869098829
 20
-23.8443375673
 30
0.0
 11
-0.0
 21
0.25
 31
0.0
 40
0.0058178298
 41
-1.5707963268
 42
-0.5235987756
  0
ELLIPSE
  5
5F3
100
AcDbEntity
  8
268
100
AcDbEllipse
 62
7
  6
CONTINUOUS
 10
-10.5869098829
 20
-24.1369056521
 30
0.0
 11
-0.0
 21
0.25
 31
0.0
 40
0.0058178298
 41
-3.1357748894
 42
-1.5707963268
  0
ELLIPSE
  5
5F4
100
AcDbEntity
  8
268
100
AcDbEllipse
 62
7
  6
CONTINUOUS
 10
-8.3130901171
 20
-24.1369056521
 30
0.0
 11
-0.0
 21
0.25
 31
0.0
 40
0.0058178298
 41
-4.7123889804
 42
-3.1474104178
  0
ELLIPSE
  5
5F5
100
AcDbEntity
  8
268
100
AcDbEllipse
 62
7
  6
CONTINUOUS
 10
-10.5869098829
 20
23.8443375673
 30
0.0
 11
-0.0
 21
0.25
 31
0.0
 40
0.0058178298
 41
-2.617993878
 42
-1.5707963268
  0
ELLIPSE
  5
5F6
100
AcDbEntity
  8
268
100
AcDbEllipse
 62
7
  6
CONTINUOUS
 10
-8.3130901171
 20
23.8443375673
 30
0.0
 11
-0.0
 21
0.25
 31
0.0
 40
0.0058178298
 41
-4.7123889804
 42
-3.6651914292
  0
ELLIPSE
  5
5F7
100
AcDbEntity
  8
268
100
AcDbEllipse
 62
7
  6
CONTINUOUS
 10
-8.3130901171
 20
24.1369056521
 30
0.0
 11
0.0
 21
0.25
 31
0.0
 40
0.0058178298
 41
0.0058177642
 42
1.5707963268
  0
ELLIPSE
  5
5F8
100
AcDbEntity
  8
268
100
AcDbEllipse
 62
7
  6
CONTINUOUS
 10
-10.5869098829
 20
24.1369056521
 30
0.0
 11
0.0
 21
0.25
 31
0.0
 40
0.0058178298
 41
-1.5707963268
 42
-0.0058177642
  0
ELLIPSE
  5
5F9
100
AcDbEntity
  8
268
100
AcDbEllipse
 62
7
  6
CONTINUOUS
 10
8.3130901171
 20
23.8443375673
 30
0.0
 11
-0.0
 21
0.25
 31
0.0
 40
0.0058178298
 41
-2.617993878
 42
-1.5707963268
  0
ELLIPSE
  5
5FA
100
AcDbEntity
  8
268
100
AcDbEllipse
 62
7
  6
CONTINUOUS
 10
10.5869098829
 20
23.8443375673
 30
0.0
 11
-0.0
 21
0.25
 31
0.0
 40
0.0058178298
 41
-4.7123889804
 42
-3.6651914292
  0
ELLIPSE
  5
5FB
100
AcDbEntity
  8
268
100
AcDbEllipse
 62
7
  6
CONTINUOUS
 10
10.5869098829
 20
24.1369056521
 30
0.0
 11
0.0
 21
0.25
 31
0.0
 40
0.0058178298
 41
0.0058177642
 42
1.5707963268
  0
ELLIPSE
  5
5FC
100
AcDbEntity
  8
268
100
AcDbEllipse
 62
7
  6
CONTINUOUS
 10
8.3130901171
 20
24.1369056521
 30
0.0
 11
0.0
 21
0.25
 31
0.0
 40
0.0058178298
 41
-1.5707963268
 42
-0.0058177642
  0
ELLIPSE
  5
5FD
100
AcDbEntity
  8
268
100
AcDbEllipse
 62
7
  6
CONTINUOUS
 10
-4.0959224421
 20
-22.3938911925
 30
0.0
 11
0.3
 21
0.0
 31
0.0
 40
0.0087268678
 41
1.5707963268
 42
3.1357748894
  0
ELLIPSE
  5
5FE
100
AcDbEntity
  8
268
100
AcDbEllipse
 62
7
  6
CONTINUOUS
 10
-4.0959224421
 20
-23.7959275191
 30
0.0
 11
0.3
 21
-0.0
 31
0.0
 40
0.0058178298
 41
1.5707963268
 42
3.1357748894
  0
ELLIPSE
  5
5FF
100
AcDbEntity
  8
268
100
AcDbEllipse
 62
7
  6
CONTINUOUS
 10
4.0959224421
 20
-23.7959275191
 30
0.0
 11
0.3
 21
-0.0
 31
0.0
 40
0.0058178298
 41
0.0058177642
 42
1.5707963268
  0
ELLIPSE
  5
600
100
AcDbEntity
  8
268
100
AcDbEllipse
 62
7
  6
CONTINUOUS
 10
4.0959224421
 20
-22.3938911925
 30
0.0
 11
0.3
 21
0.0
 31
0.0
 40
0.0087268678
 41
0.0058177642
 42
1.5707963268
  0
ELLIPSE
  5
601
100
AcDbEntity
  8
268
100
AcDbEllipse
 62
7
  6
CONTINUOUS
 10
-4.0959224421
 20
23.7959275191
 30
0.0
 11
0.3
 21
0.0
 31
0.0
 40
0.0058178298
 41
-3.1357748894
 42
-1.5707963268
  0
ELLIPSE
  5
602
100
AcDbEntity
  8
268
100
AcDbEllipse
 62
7
  6
CONTINUOUS
 10
-4.0959224421
 20
22.3938911925
 30
0.0
 11
0.3
 21
0.0
 31
0.0
 40
0.0087268678
 41
-3.1357748894
 42
-1.5707963268
  0
ELLIPSE
  5
603
100
AcDbEntity
  8
268
100
AcDbEllipse
 62
7
  6
CONTINUOUS
 10
4.0959224421
 20
22.3938911925
 30
0.0
 11
0.3
 21
0.0
 31
0.0
 40
0.0087268678
 41
-1.5707963268
 42
-0.0058177642
  0
ELLIPSE
  5
604
100
AcDbEntity
  8
268
100
AcDbEllipse
 62
7
  6
CONTINUOUS
 10
4.0959224421
 20
23.7959275191
 30
0.0
 11
0.3
 21
0.0
 31
0.0
 40
0.0058178298
 41
-1.5707963268
 42
-0.0058177642
  0
ELLIPSE
  5
605
100
AcDbEntity
  8
268
100
AcDbEllipse
 62
7
  6
CONTINUOUS
 10
-10.8
 20
-22.0281695031
 30
0.0
 11
0.0
 21
0.3500133274
 31
0.0
 40
0.9999619231
 41
1.5707963268
 42
3.1415926536
  0
ELLIPSE
  5
606
100
AcDbEntity
  8
268
100
AcDbEllipse
 62
7
  6
CONTINUOUS
 10
-10.8
 20
22.0281695031
 30
0.0
 11
0.0
 21
0.3500133274
 31
0.0
 40
0.9999619231
 41
-0.0
 42
1.5707963268
  0
ELLIPSE
  5
607
100
AcDbEntity
  8
218_INCISO
100
AcDbEllipse
 62
250
  6
CONTINUOUS
 10
-29.3141307168
 20
-8.195402
 30
0.0
 11
0.0
 21
0.201149
 31
0.0
 40
0.9996954135
 41
-1.5707963268
 42
0.0
  0
ELLIPSE
  5
608
100
AcDbEntity
  8
218_INCISO
100
AcDbEllipse
 62
250
  6
CONTINUOUS
 10
-29.7737606771
 20
-8.195402
 30
0.0
 11
0.0
 21
0.201149
 31
0.0
 40
0.9996954135
 41
0.0
 42
1.5707963268
  0
ELLIPSE
  5
609
100
AcDbEntity
  8
218_INCISO
100
AcDbEllipse
 62
250
  6
CONTINUOUS
 10
-29.0383527406
 20
-5.439655
 30
0.0
 11
-0.0
 21
0.436782
 31
0.0
 40
0.9996954135
 41
-1.5707963268
 42
0.7257970211
  0
ELLIPSE
  5
60A
100
AcDbEntity
  8
218_INCISO
100
AcDbEllipse
 62
250
  6
CONTINUOUS
 10
-41.0353016135
 20
-4.680795
 30
0.0
 11
0.352865
 21
-0.0
 31
0.0
 40
1.0
 41
0.0
 42
3.1415926536
  0
ELLIPSE
  5
60B
100
AcDbEntity
  8
218_INCISO
100
AcDbEllipse
 62
250
  6
CONTINUOUS
 10
-41.0353016135
 20
-4.600289
 30
0.0
 11
0.8893898871
 21
0.0
 31
0.0
 40
1.0
 41
0.3986832664
 42
3.1415926536
  0
ENDSEC
  0
SECTION
  2
OBJECTS
  0
DICTIONARY
  5
C
100
AcDbDictionary
280
0
281
1
  3
ACAD_GROUP
350
D
  3
ACAD_MLINESTYLE
350
17
  3
ACAD_LAYOUT
350
1A
  3
ACAD_PLOTSETTINGS
350
19
  3
ACAD_PLOTSTYLENAME
350
E
  0
DICTIONARY
  5
D
102
{ACAD_REACTORS
330
C
102
}
100
AcDbDictionary
280
0
281
1
  0
ACDBDICTIONARYWDFLT
  5
E
102
{ACAD_REACTORS
330
C
102
}
100
AcDbDictionary
281
1
  3
Normal
350
F
100
AcDbDictionaryWithDefault
340
F
  0
DICTIONARY
  5
17
102
{ACAD_REACTORS
330
C
102
}
100
AcDbDictionary
280
0
281
1
  3
Standard
350
18
  0
DICTIONARY
  5
19
102
{ACAD_REACTORS
330
C
102
}
100
AcDbDictionary
281
1
  0
DICTIONARY
  5
1A
102
{ACAD_REACTORS
330
C
102
}
100
AcDbDictionary
281
1
  3
Model
350
60C
  3
Layout1
350
60D
  0
ACDBPLACEHOLDER
  5
F
102
{ACAD_REACTORS
330
E
102
}
  0
MLINESTYLE
  5
18
102
{ACAD_REACTORS
330
17
102
}
100
AcDbMlineStyle
  2
STANDARD
 70
0
  3

 62
256
 51
90.0
 52
90.0
 71
2
 49
0.5
 62
256
  6
BYLAYER
 49
-0.5
 62
256
  6
BYLAYER
  0
LAYOUT
  5
60C
102
{ACAD_REACTORS
330
1A
102
}
100
AcDbPlotSettings
  1

  2
none_device
  4
ANSI_C_(22.00_x_17.00_Inches)
  6

 40
0.0
 41
0.0
 42
0.0
 43
0.0
 44
558.8
 45
431.8
 46
0.0
 47
0.0
 48
0.0
 49
0.0
140
0.0
141
0.0
142
1.0
143
1.0
 70
1024
 72
1
 73
0
 74
0
  7

 75
0
147
1.0
148
0.0
149
0.0
100
AcDbLayout
  1
Model
 70
0
 71
0
 10
0.0
 20
0.0
 11
558.8
 21
431.8
 12
0.0
 22
0.0
 32
0.0
 14
0.0
 24
0.0
 34
0.0
 15
0.0
 25
0.0
 35
0.0
146
0.0
 13
0.0
 23
0.0
 33
0.0
 16
1.0
 26
0.0
 36
0.0
 17
0.0
 27
1.0
 37
0.0
 76
0
330
229
345
0
346
0
  0
LAYOUT
  5
60D
102
{ACAD_REACTORS
330
1A
102
}
100
AcDbPlotSettings
  1

  2
none_device
  4
ANSI_C_(22.00_x_17.00_Inches)
  6

 40
0.0
 41
0.0
 42
0.0
 43
0.0
 44
558.8
 45
431.8
 46
0.0
 47
0.0
 48
0.0
 49
0.0
140
0.0
141
0.0
142
1.0
143
1.0
 70
0
 72
1
 73
0
 74
0
  7

 75
0
147
1.0
148
0.0
149
0.0
100
AcDbLayout
  1
Layout1
 70
0
 71
1
 10
0.0
 20
0.0
 11
558.8
 21
431.8
 12
0.0
 22
0.0
 32
0.0
 14
0.0
 24
0.0
 34
0.0
 15
0.0
 25
0.0
 35
0.0
146
0.0
 13
0.0
 23
0.0
 33
0.0
 16
1.0
 26
0.0
 36
0.0
 17
0.0
 27
1.0
 37
0.0
 76
0
330
22A
345
0
346
0
  0
ENDSEC
  0
EOF
