  0
SECTION
  2
HEADER
  9
$ACADVER
  1
AC1021
  9
$DWGCODEPAGE
  3
ANSI_1252
  9
$EXTMAX
 10
297.0
 20
210.0
 30
0.0
  9
$EXTMIN
 10
0.0
 20
0.0
 30
0.0
  9
$LIMMIN
 10
0.0
 20
0.0
  9
$LIMMAX
 10
297.0
 20
210.0
  9
$VIEWCTR
 10
148.5
 20
105.0
  9
$VIEWSIZE
 40
210.0
  9
$CLAYER
  8
0
  9
$LTSCALE
 40
16.335
  9
$CELTYPE
  6
BYLAYER
  9
$DIMSCALE
 40
1.0
  9
$DIMASZ
 40
3.0
  9
$DIMEXO
 40
0.5
  9
$DIMDLI
 40
11.286
  9
$DIMEXE
 40
1.5
  9
$DIMCEN
 40
2.673
  9
$DIMLFAC
 40
1.0
  9
$DIMBLK
  1
_FILLED
  9
$DIMALT
 70
0
  9
$DIMALTF
 40
25.4
  9
$DIMTXT
 40
3.0
  9
$DIMTOL
 70
1
  9
$DIMLIM
 70
0
  9
$DIMTFAC
 40
1.0
  9
$DIMTP
 40
0.01
  9
$DIMTM
 40
0.01
  9
$DIMGAP
 40
0.625
  9
$DIMDSEP
 70
44
  9
$AUNITS
 70
0
  9
$PDMODE
 70
3
  9
$PDSIZE
 40
3.0
  9
$HANDSEED
  5
549
  9
$TILEMODE
 70
1
  9
$MEASUREMENT
 70
1
  9
$INSUNITS
 70
4
  0
ENDSEC
  0
SECTION
  2
CLASSES
  0
CLASS
  1
ACDBDICTIONARYWDFLT
  2
AcDbDictionaryWithDefault
  3
AutoCAD 2000
 90
0
 91
1
280
0
281
0
  0
CLASS
  1
ACDBPLACEHOLDER
  2
AcDbPlaceHolder
  3
AutoCAD 2000
 90
0
 91
1
280
0
281
0
  0
CLASS
  1
LAYOUT
  2
AcDbLayout
  3
AutoCAD 2000
 90
0
 91
0
280
0
281
0
  0
ENDSEC
  0
SECTION
  2
TABLES
  0
TABLE
  2
VPORT
  5
8
100
AcDbSymbolTable
 70
2
  0
VPORT
  5
1F4
100
AcDbSymbolTableRecord
100
AcDbViewportTableRecord
  2
*ACTIVE
 70
0
 10
0.0
 20
0.0
 11
1.0
 21
1.0
 12
148.5
 22
105.0
 13
0.0
 23
0.0
 14
1.0
 24
1.0
 15
0.0
 25
0.0
 16
0.0
 26
0.0
 36
1.0
 17
0.0
 27
0.0
 37
0.0
 40
210.0
 41
1.4142857143
 42
50.0
 43
0.0
 44
0.0
 50
0.0
 51
0.0
 71
0
 72
100
 73
1
 74
1
 75
0
 76
0
 77
0
 78
0
  0
ENDTAB
  0
TABLE
  2
LTYPE
  5
5
100
AcDbSymbolTable
 70
6
  0
LTYPE
  5
14
100
AcDbSymbolTableRecord
100
AcDbLinetypeTableRecord
  2
BYBLOCK
 70
0
  3

 72
65
 73
0
 40
0.0
  0
LTYPE
  5
15
100
AcDbSymbolTableRecord
100
AcDbLinetypeTableRecord
  2
BYLAYER
 70
0
  3

 72
65
 73
0
 40
0.0
  0
LTYPE
  5
16
100
AcDbSymbolTableRecord
100
AcDbLinetypeTableRecord
  2
CONTINUOUS
 70
64
  3
Solid line
 72
65
 73
0
 40
0.0
  0
LTYPE
  5
1F5
100
AcDbSymbolTableRecord
100
AcDbLinetypeTableRecord
  2
CENTER
 70
64
  3
____ _ ____ _ ____ _ ____ _ ____ _ ____ _ ____
 72
65
 73
4
 40
0.6
 49
0.375
 74
0
 49
-0.075
 74
0
 49
0.075
 74
0
 49
-0.075
 74
0
  0
LTYPE
  5
1F6
100
AcDbSymbolTableRecord
100
AcDbLinetypeTableRecord
  2
HIDDEN
 70
64
  3
- - - - - - - - - - - - - - - - - - - -
 72
65
 73
2
 40
0.2
 49
0.1
 74
0
 49
-0.1
 74
0
  0
LTYPE
  5
1F7
100
AcDbSymbolTableRecord
100
AcDbLinetypeTableRecord
  2
PHANTOM
 70
64
  3
_____ _ _ _____ _ _ _____ _ _ _____
 72
65
 73
6
 40
0.8
 49
0.45
 74
0
 49
-0.05
 74
0
 49
0.1
 74
0
 49
-0.05
 74
0
 49
0.1
 74
0
 49
-0.05
 74
0
  0
LTYPE
  5
1F8
100
AcDbSymbolTableRecord
100
AcDbLinetypeTableRecord
  2
DOT
 70
64
  3
. . . . . . . . . . . . . . . . . . . .
 72
65
 73
2
 40
0.2
 49
0.1
 74
0
 49
-0.1
 74
0
  0
LTYPE
  5
1F9
100
AcDbSymbolTableRecord
100
AcDbLinetypeTableRecord
  2
DASHED
 70
64
  3
- - - - - - - - - - - - - - - - - - - -
 72
65
 73
2
 40
0.2
 49
0.1
 74
0
 49
-0.1
 74
0
  0
ENDTAB
  0
TABLE
  2
LAYER
  5
2
100
AcDbSymbolTable
 70
36
  0
LAYER
  5
10
100
AcDbSymbolTableRecord
100
AcDbLayerTableRecord
  2
0
 70
0
 62
7
  6
CONTINUOUS
370
-3
390
F
  0
LAYER
  5
1FA
100
AcDbSymbolTableRecord
100
AcDbLayerTableRecord
  2
DEFAULT_1
 70
0
 62
7
  6
CENTER
370
-3
390
F
  0
LAYER
  5
1FB
100
AcDbSymbolTableRecord
100
AcDbLayerTableRecord
  2
DEFAULT_2
 70
0
 62
7
  6
HIDDEN
370
-3
390
F
  0
LAYER
  5
1FC
100
AcDbSymbolTableRecord
100
AcDbLayerTableRecord
  2
DEFAULT_3
 70
0
 62
7
  6
PHANTOM
370
-3
390
F
  0
LAYER
  5
1FD
100
AcDbSymbolTableRecord
100
AcDbLayerTableRecord
  2
218
 70
0
 62
7
  6
CONTINUOUS
370
-3
390
F
  0
LAYER
  5
1FE
100
AcDbSymbolTableRecord
100
AcDbLayerTableRecord
  2
ASSI
 70
0
 62
7
  6
CONTINUOUS
370
-3
390
F
  0
LAYER
  5
1FF
100
AcDbSymbolTableRecord
100
AcDbLayerTableRecord
  2
COLORE_TOP
 70
0
 62
7
  6
CONTINUOUS
370
-3
390
F
  0
LAYER
  5
200
100
AcDbSymbolTableRecord
100
AcDbLayerTableRecord
  2
COORDINATE
 70
0
 62
7
  6
CONTINUOUS
370
-3
390
F
  0
LAYER
  5
201
100
AcDbSymbolTableRecord
100
AcDbLayerTableRecord
  2
COORD_ORIGINE
 70
0
 62
7
  6
CONTINUOUS
370
-3
390
F
  0
LAYER
  5
202
100
AcDbSymbolTableRecord
100
AcDbLayerTableRecord
  2
COPY-PUBBLISH
 70
0
 62
7
  6
CONTINUOUS
370
-3
390
F
  0
LAYER
  5
203
100
AcDbSymbolTableRecord
100
AcDbLayerTableRecord
  2
COSMETICHE
 70
0
 62
7
  6
CONTINUOUS
370
-3
390
F
  0
LAYER
  5
204
100
AcDbSymbolTableRecord
100
AcDbLayerTableRecord
  2
CURVE
 70
0
 62
7
  6
CONTINUOUS
370
-3
390
F
  0
LAYER
  5
205
100
AcDbSymbolTableRecord
100
AcDbLayerTableRecord
  2
DRAFT
 70
0
 62
7
  6
CONTINUOUS
370
-3
390
F
  0
LAYER
  5
206
100
AcDbSymbolTableRecord
100
AcDbLayerTableRecord
  2
IGES
 70
0
 62
7
  6
CONTINUOUS
370
-3
390
F
  0
LAYER
  5
207
100
AcDbSymbolTableRecord
100
AcDbLayerTableRecord
  2
IMPORT
 70
0
 62
7
  6
CONTINUOUS
370
-3
390
F
  0
LAYER
  5
208
100
AcDbSymbolTableRecord
100
AcDbLayerTableRecord
  2
IMPORTED
 70
0
 62
7
  6
CONTINUOUS
370
-3
390
F
  0
LAYER
  5
209
100
AcDbSymbolTableRecord
100
AcDbLayerTableRecord
  2
INTF_1
 70
0
 62
7
  6
CONTINUOUS
370
-3
390
F
  0
LAYER
  5
20A
100
AcDbSymbolTableRecord
100
AcDbLayerTableRecord
  2
INTF_11
 70
0
 62
7
  6
CONTINUOUS
370
-3
390
F
  0
LAYER
  5
20B
100
AcDbSymbolTableRecord
100
AcDbLayerTableRecord
  2
INTF_2
 70
0
 62
7
  6
CONTINUOUS
370
-3
390
F
  0
LAYER
  5
20C
100
AcDbSymbolTableRecord
100
AcDbLayerTableRecord
  2
NOTE
 70
0
 62
7
  6
CONTINUOUS
370
-3
390
F
  0
LAYER
  5
20D
100
AcDbSymbolTableRecord
100
AcDbLayerTableRecord
  2
PIANI
 70
0
 62
7
  6
CONTINUOUS
370
-3
390
F
  0
LAYER
  5
20E
100
AcDbSymbolTableRecord
100
AcDbLayerTableRecord
  2
PIANI_DI_RIFERIMENTO
 70
0
 62
7
  6
CONTINUOUS
370
-3
390
F
  0
LAYER
  5
20F
100
AcDbSymbolTableRecord
100
AcDbLayerTableRecord
  2
PIANI_ORIGINE
 70
0
 62
7
  6
CONTINUOUS
370
-3
390
F
  0
LAYER
  5
210
100
AcDbSymbolTableRecord
100
AcDbLayerTableRecord
  2
PIANI_RIFERIMENTO
 70
0
 62
7
  6
CONTINUOUS
370
-3
390
F
  0
LAYER
  5
211
100
AcDbSymbolTableRecord
100
AcDbLayerTableRecord
  2
PIANI_SFORMO
 70
0
 62
7
  6
CONTINUOUS
370
-3
390
F
  0
LAYER
  5
212
100
AcDbSymbolTableRecord
100
AcDbLayerTableRecord
  2
PUNTI
 70
0
 62
7
  6
CONTINUOUS
370
-3
390
F
  0
LAYER
  5
213
100
AcDbSymbolTableRecord
100
AcDbLayerTableRecord
  2
RACCORDO
 70
0
 62
7
  6
CONTINUOUS
370
-3
390
F
  0
LAYER
  5
214
100
AcDbSymbolTableRecord
100
AcDbLayerTableRecord
  2
RGB__255__255__255__
 70
0
 62
7
  6
CONTINUOUS
370
-3
390
F
  0
LAYER
  5
215
100
AcDbSymbolTableRecord
100
AcDbLayerTableRecord
  2
RGB____0____0____0__
 70
0
 62
7
  6
CONTINUOUS
370
-3
390
F
  0
LAYER
  5
216
100
AcDbSymbolTableRecord
100
AcDbLayerTableRecord
  2
RINTRACCIABILITA
 70
0
 62
7
  6
CONTINUOUS
370
-3
390
F
  0
LAYER
  5
217
100
AcDbSymbolTableRecord
100
AcDbLayerTableRecord
  2
SMUSSO
 70
0
 62
7
  6
CONTINUOUS
370
-3
390
F
  0
LAYER
  5
218
100
AcDbSymbolTableRecord
100
AcDbLayerTableRecord
  2
SNAPLINE
 70
0
 62
7
  6
CONTINUOUS
370
-3
390
F
  0
LAYER
  5
219
100
AcDbSymbolTableRecord
100
AcDbLayerTableRecord
  2
SUPERFICI
 70
0
 62
7
  6
CONTINUOUS
370
-3
390
F
  0
LAYER
  5
21A
100
AcDbSymbolTableRecord
100
AcDbLayerTableRecord
  2
TRASH
 70
0
 62
7
  6
CONTINUOUS
370
-3
390
F
  0
LAYER
  5
21B
100
AcDbSymbolTableRecord
100
AcDbLayerTableRecord
  2
XSEC_DATUMS
 70
0
 62
7
  6
CONTINUOUS
370
-3
390
F
  0
ENDTAB
  0
TABLE
  2
STYLE
  5
3
100
AcDbSymbolTable
 70
1
  0
STYLE
  5
11
100
AcDbSymbolTableRecord
100
AcDbTextStyleTableRecord
  2
STANDARD
 70
0
 40
0.0
 41
0.8
 50
0.0
 71
0
 42
0.2
  3
txt
  4

  0
STYLE
  5
21C
100
AcDbSymbolTableRecord
100
AcDbTextStyleTableRecord
  2
TEXTSTYLE_1
 70
0
 40
0.0
 41
0.8
 50
0.0
 71
0
 42
0.2
  3
gdt
  4

  0
ENDTAB
  0
TABLE
  2
VIEW
  5
6
100
AcDbSymbolTable
 70
0
  0
ENDTAB
  0
TABLE
  2
UCS
  5
7
100
AcDbSymbolTable
 70
0
  0
ENDTAB
  0
TABLE
  2
APPID
  5
9
100
AcDbSymbolTable
 70
1
  0
APPID
  5
21D
100
AcDbSymbolTableRecord
100
AcDbRegAppTableRecord
  2
ACAD
 70
0
  0
ENDTAB
  0
TABLE
  2
BLOCK_RECORD
  5
1
100
AcDbSymbolTable
 70
0
  0
BLOCK_RECORD
  5
21E
100
AcDbSymbolTableRecord
100
AcDbBlockTableRecord
  2
*Model_Space
  0
BLOCK_RECORD
  5
21F
100
AcDbSymbolTableRecord
100
AcDbBlockTableRecord
  2
*Paper_Space
  0
BLOCK_RECORD
  5
220
100
AcDbSymbolTableRecord
100
AcDbBlockTableRecord
  2
_FILLED
  0
BLOCK_RECORD
  5
221
100
AcDbSymbolTableRecord
100
AcDbBlockTableRecord
  2
*D0
  0
BLOCK_RECORD
  5
222
100
AcDbSymbolTableRecord
100
AcDbBlockTableRecord
  2
*D1
  0
BLOCK_RECORD
  5
223
100
AcDbSymbolTableRecord
100
AcDbBlockTableRecord
  2
*D2
  0
BLOCK_RECORD
  5
224
100
AcDbSymbolTableRecord
100
AcDbBlockTableRecord
  2
*D3
  0
ENDTAB
  0
TABLE
  2
DIMSTYLE
  5
A
100
AcDbSymbolTable
 70
1
100
AcDbDimStyleTable
 71
0
  0
DIMSTYLE
105
225
100
AcDbSymbolTableRecord
100
AcDbDimStyleTableRecord
  2
STANDARD
 70
0
  3

  4

 40
1.0
 41
3.0
 42
0.5
 43
0.38
 44
1.5
 45
0.0
 46
0.0
 47
0.01
 48
0.01
140
3.0
141
0.09
142
0.0
143
25.4
144
1.0
145
0.0
146
1.0
147
0.625
 71
1.0
 72
0.0
 73
0
 74
0
 75
0
 76
0
 77
1
 78
8
170
0
171
1
172
0
173
0
174
0
175
0
176
0
177
0
178
0
270
2
271
2
272
2
273
2
274
2
275
0
280
0
281
0
282
0
283
1
284
8
285
0
286
0
287
3
288
0
340
11
278
44
341
220
342
220
343
220
344
220
  0
DIMSTYLE
105
226
100
AcDbSymbolTableRecord
100
AcDbDimStyleTableRecord
  2
DIMSTYLE_1
 70
0
  3

  4

 40
1.0
 41
3.0
 42
0.5
 43
0.38
 44
1.5
 45
0.0
 46
0.0
 47
0.0
 48
0.0
140
3.0
141
0.09
142
0.0
143
25.4
144
1.0
145
0.0
146
1.0
147
0.75
 71
0.0
 72
0.0
 73
0
 74
0
 75
0
 76
0
 77
1
 78
8
170
0
171
1
172
0
173
0
174
0
175
0
176
0
177
0
178
0
270
2
271
2
272
2
273
2
274
2
275
0
280
0
281
0
282
0
283
1
284
8
285
0
286
0
287
3
288
0
340
11
278
44
341
220
342
220
343
220
344
220
  0
DIMSTYLE
105
227
100
AcDbSymbolTableRecord
100
AcDbDimStyleTableRecord
  2
DIMSTYLE_2
 70
0
  3

  4

 40
1.0
 41
3.0
 42
0.5
 43
0.38
 44
1.5
 45
0.0
 46
0.0
 47
0.0
 48
0.0
140
3.0
141
0.09
142
0.0
143
25.4
144
1.0
145
0.0
146
1.0
147
0.75
 71
0.0
 72
0.0
 73
0
 74
0
 75
0
 76
0
 77
1
 78
8
170
0
171
1
172
0
173
0
174
0
175
0
176
0
177
0
178
0
270
2
271
1
272
1
273
2
274
2
275
0
280
0
281
0
282
0
283
1
284
8
285
0
286
0
287
3
288
0
340
11
278
44
341
220
342
220
343
220
344
220
  0
ENDTAB
  0
ENDSEC
  0
SECTION
  2
BLOCKS
  0
BLOCK
  5
20
100
AcDbEntity
  8
0
100
AcDbBlockBegin
  2
*Model_Space
 70
0
 10
0.0
 20
0.0
 30
0.0
  3
*Model_Space
  1

  0
ENDBLK
  5
21
100
AcDbEntity
  8
0
100
AcDbBlockEnd
  0
BLOCK
  5
1C
100
AcDbEntity
  8
0
100
AcDbBlockBegin
  2
*Paper_Space
 70
0
 10
0.0
 20
0.0
 30
0.0
  3
*Paper_Space
  1

  0
ENDBLK
  5
1D
100
AcDbEntity
  8
0
100
AcDbBlockEnd
  0
BLOCK
  5
228
100
AcDbEntity
  8
0
100
AcDbBlockBegin
  2
_FILLED
 70
64
 10
0.0
 20
0.0
  3
_FILLED
  1

  0
SOLID
  5
229
100
AcDbEntity
  8
0
  6
BYBLOCK
 62
0
100
AcDbTrace
 10
0.0
 20
0.0
 11
-1.0
 21
0.3166666667
 12
-1.0
 22
-0.3166666667
 13
-1.0
 23
-0.3166666667
  0
ENDBLK
  5
22A
100
AcDbEntity
  8
0
  6
BYBLOCK
 62
0
100
AcDbBlockEnd
  0
BLOCK
  5
22B
100
AcDbEntity
  8
0
100
AcDbBlockBegin
 62
7
  6
CONTINUOUS
  2
*D0
 70
65
 10
0.0
 20
0.0
  3
*D0
  1

  0
MTEXT
  5
22C
100
AcDbEntity
  8
0
100
AcDbMText
 62
7
  6
CONTINUOUS
  7
STANDARD
 71
2
 72
1
 10
0.0
 20
38.15
 30
0.0
 11
1.0
 21
0.0
 31
0.0
 44
0.9
  1
22,3
 40
3.0
 41
12.8571428571
  0
LINE
  5
22D
100
AcDbEntity
  8
0
100
AcDbLine
 62
7
  6
CONTINUOUS
 10
-11.15
 20
22.358797755
 11
-11.15
 21
35.9
  0
LINE
  5
22E
100
AcDbEntity
  8
0
100
AcDbLine
 62
7
  6
CONTINUOUS
 10
11.15
 20
22.358797755
 11
11.15
 21
35.9
  0
LINE
  5
22F
100
AcDbEntity
  8
0
100
AcDbLine
 62
7
  6
CONTINUOUS
 10
-11.15
 20
34.4
 11
0.0
 21
34.4
  0
LINE
  5
230
100
AcDbEntity
  8
0
100
AcDbLine
 62
7
  6
CONTINUOUS
 10
11.15
 20
34.4
 11
0.0
 21
34.4
  0
INSERT
  5
231
100
AcDbEntity
  8
0
100
AcDbBlockReference
 62
7
  6
CONTINUOUS
  2
_FILLED
 10
-11.15
 20
34.4
 41
3.0
 42
3.0
 43
3.0
 50
180.0
  0
INSERT
  5
232
100
AcDbEntity
  8
0
100
AcDbBlockReference
 62
7
  6
CONTINUOUS
  2
_FILLED
 10
11.15
 20
34.4
 41
3.0
 42
3.0
 43
3.0
  0
ENDBLK
  5
233
100
AcDbEntity
  8
0
  6
BYBLOCK
 62
0
100
AcDbBlockEnd
  0
BLOCK
  5
234
100
AcDbEntity
  8
0
100
AcDbBlockBegin
 62
7
  6
CONTINUOUS
  2
*D1
 70
65
 10
0.0
 20
0.0
  3
*D1
  1

  0
MTEXT
  5
235
100
AcDbEntity
  8
0
100
AcDbMText
 62
7
  6
CONTINUOUS
  7
STANDARD
 71
2
 72
1
 10
18.25
 20
0.0
 30
0.0
 11
0.0
 21
1.0
 31
0.0
 44
0.9
  1
48,8
 40
3.0
 41
13.1785714286
  0
LINE
  5
236
100
AcDbEntity
  8
0
100
AcDbLine
 62
7
  6
CONTINUOUS
 10
11.1
 20
-24.4
 11
23.5
 21
-24.4
  0
LINE
  5
237
100
AcDbEntity
  8
0
100
AcDbLine
 62
7
  6
CONTINUOUS
 10
11.1
 20
24.4
 11
23.5
 21
24.4
  0
LINE
  5
238
100
AcDbEntity
  8
0
100
AcDbLine
 62
7
  6
CONTINUOUS
 10
22.0
 20
-24.4
 11
22.0
 21
0.0
  0
LINE
  5
239
100
AcDbEntity
  8
0
100
AcDbLine
 62
7
  6
CONTINUOUS
 10
22.0
 20
24.4
 11
22.0
 21
0.0
  0
INSERT
  5
23A
100
AcDbEntity
  8
0
100
AcDbBlockReference
 62
7
  6
CONTINUOUS
  2
_FILLED
 10
22.0
 20
-24.4
 41
3.0
 42
3.0
 43
3.0
 50
270.0
  0
INSERT
  5
23B
100
AcDbEntity
  8
0
100
AcDbBlockReference
 62
7
  6
CONTINUOUS
  2
_FILLED
 10
22.0
 20
24.4
 41
3.0
 42
3.0
 43
3.0
 50
90.0
  0
ENDBLK
  5
23C
100
AcDbEntity
  8
0
  6
BYBLOCK
 62
0
100
AcDbBlockEnd
  0
BLOCK
  5
23D
100
AcDbEntity
  8
0
100
AcDbBlockBegin
 62
7
  6
CONTINUOUS
  2
*D2
 70
65
 10
0.0
 20
0.0
  3
*D2
  1

  0
MTEXT
  5
23E
100
AcDbEntity
  8
0
100
AcDbMText
 62
7
  6
CONTINUOUS
  7
STANDARD
 71
2
 72
1
 10
-33.0721216151
 20
38.15
 30
0.0
 11
1.0
 21
0.0
 31
0.0
 44
0.9
  1
24
 40
3.0
 41
7.0714285714
  0
LINE
  5
23F
100
AcDbEntity
  8
0
100
AcDbLine
 62
7
  6
CONTINUOUS
 10
-21.0721216151
 20
15.2501233095
 11
-21.0721216151
 21
35.9
  0
LINE
  5
240
100
AcDbEntity
  8
0
100
AcDbLine
 62
7
  6
CONTINUOUS
 10
-45.0721216151
 20
22.5412598048
 11
-45.0721216151
 21
35.9
  0
LINE
  5
241
100
AcDbEntity
  8
0
100
AcDbLine
 62
7
  6
CONTINUOUS
 10
-21.0721216151
 20
34.4
 11
-33.0721216151
 21
34.4
  0
LINE
  5
242
100
AcDbEntity
  8
0
100
AcDbLine
 62
7
  6
CONTINUOUS
 10
-45.0721216151
 20
34.4
 11
-33.0721216151
 21
34.4
  0
INSERT
  5
243
100
AcDbEntity
  8
0
100
AcDbBlockReference
 62
7
  6
CONTINUOUS
  2
_FILLED
 10
-21.0721216151
 20
34.4
 41
3.0
 42
3.0
 43
3.0
  0
INSERT
  5
244
100
AcDbEntity
  8
0
100
AcDbBlockReference
 62
7
  6
CONTINUOUS
  2
_FILLED
 10
-45.0721216151
 20
34.4
 41
3.0
 42
3.0
 43
3.0
 50
180.0
  0
ENDBLK
  5
245
100
AcDbEntity
  8
0
  6
BYBLOCK
 62
0
100
AcDbBlockEnd
  0
BLOCK
  5
246
100
AcDbEntity
  8
0
100
AcDbBlockBegin
 62
7
  6
CONTINUOUS
  2
*D3
 70
65
 10
0.0
 20
0.0
  3
*D3
  1

  0
MTEXT
  5
247
100
AcDbEntity
  8
0
100
AcDbMText
 62
7
  6
CONTINUOUS
  7
STANDARD
 71
2
 72
1
 10
-40.2536712683
 20
46.15
 30
0.0
 11
1.0
 21
0.0
 31
0.0
 44
0.9
  1
38,4
 40
3.0
 41
12.8571428571
  0
LINE
  5
248
100
AcDbEntity
  8
0
100
AcDbLine
 62
7
  6
CONTINUOUS
 10
-21.0721216151
 20
15.2501233095
 11
-21.0721216151
 21
43.9
  0
LINE
  5
249
100
AcDbEntity
  8
0
100
AcDbLine
 62
7
  6
CONTINUOUS
 10
-59.4352209216
 20
20.3141932149
 11
-59.4352209216
 21
43.9
  0
LINE
  5
24A
100
AcDbEntity
  8
0
100
AcDbLine
 62
7
  6
CONTINUOUS
 10
-21.0721216151
 20
42.4
 11
-40.2536712683
 21
42.4
  0
LINE
  5
24B
100
AcDbEntity
  8
0
100
AcDbLine
 62
7
  6
CONTINUOUS
 10
-59.4352209216
 20
42.4
 11
-40.2536712683
 21
42.4
  0
INSERT
  5
24C
100
AcDbEntity
  8
0
100
AcDbBlockReference
 62
7
  6
CONTINUOUS
  2
_FILLED
 10
-21.0721216151
 20
42.4
 41
3.0
 42
3.0
 43
3.0
  0
INSERT
  5
24D
100
AcDbEntity
  8
0
100
AcDbBlockReference
 62
7
  6
CONTINUOUS
  2
_FILLED
 10
-59.4352209216
 20
42.4
 41
3.0
 42
3.0
 43
3.0
 50
180.0
  0
ENDBLK
  5
24E
100
AcDbEntity
  8
0
  6
BYBLOCK
 62
0
100
AcDbBlockEnd
  0
ENDSEC
  0
SECTION
  2
ENTITIES
  0
DIMENSION
  5
24F
100
AcDbEntity
  8
0
100
AcDbDimension
 62
7
  6
CONTINUOUS
  2
*D0
 10
11.15
 20
34.4
 11
-0.4285715189
 21
34.4
 70
160
 71
2
 42
22.3
  3
DIMSTYLE_1
100
AcDbAlignedDimension
 13
-11.15
 23
21.858797755
 14
11.15
 24
21.858797755
100
AcDbRotatedDimension
  0
DIMENSION
  5
250
100
AcDbEntity
  8
0
100
AcDbDimension
 62
7
  6
CONTINUOUS
  2
*D1
 10
22.0
 20
24.4
 11
22.0
 21
-0.4285718264
 70
160
 71
2
 42
48.8
  3
DIMSTYLE_1
100
AcDbAlignedDimension
 13
10.6
 23
-24.4
 14
10.6
 24
24.4
 50
90.0
100
AcDbRotatedDimension
  0
DIMENSION
  5
251
100
AcDbEntity
  8
0
100
AcDbDimension
 62
7
  6
CONTINUOUS
  2
*D2
 10
-45.0721216151
 20
34.4
 11
-33.5006922684
 21
34.4
 70
160
 71
2
 42
24.0
  3
DIMSTYLE_1
100
AcDbAlignedDimension
 13
-21.0721216151
 23
14.7501233095
 14
-45.0721216151
 24
22.0412598048
 50
180.0
100
AcDbRotatedDimension
  0
DIMENSION
  5
252
100
AcDbEntity
  8
0
100
AcDbDimension
 62
7
  6
CONTINUOUS
  2
*D3
 10
-59.4352209216
 20
42.4
 11
-40.6822429962
 21
42.4
 70
160
 71
2
 42
38.3630993065
  3
DIMSTYLE_2
100
AcDbAlignedDimension
 13
-21.0721216151
 23
14.7501233095
 14
-59.4352209216
 24
19.8141932149
 50
180.0
100
AcDbRotatedDimension
  0
LINE
  5
253
100
AcDbEntity
  8
DRAFT
100
AcDbLine
 62
7
  6
CONTINUOUS
 10
10.6
 20
-24.4
 11
8.3
 21
-24.4
  0
LINE
  5
254
100
AcDbEntity
  8
DRAFT
100
AcDbLine
 62
7
  6
CONTINUOUS
 10
-8.3
 20
-24.4
 11
-10.6
 21
-24.4
  0
LINE
  5
255
100
AcDbEntity
  8
RACCORDO
100
AcDbLine
 62
253
  6
CONTINUOUS
 10
-10.5869014213
 20
-24.3869014213
 11
-8.3130985787
 21
-24.3869014213
  0
LINE
  5
256
100
AcDbEntity
  8
RACCORDO
100
AcDbLine
 62
253
  6
CONTINUOUS
 10
8.3130985787
 20
-24.3869014213
 11
10.5869014213
 21
-24.3869014213
  0
LINE
  5
257
100
AcDbEntity
  8
RACCORDO
100
AcDbLine
 62
253
  6
CONTINUOUS
 10
-10.5854554255
 20
-24.1369056521
 11
-8.3145445745
 21
-24.1369056521
  0
LINE
  5
258
100
AcDbEntity
  8
RACCORDO
100
AcDbLine
 62
253
  6
CONTINUOUS
 10
8.3145445745
 20
-24.1369056521
 11
10.5854554255
 21
-24.1369056521
  0
LINE
  5
259
100
AcDbEntity
  8
RACCORDO
100
AcDbLine
 62
253
  6
CONTINUOUS
 10
10.5854554255
 20
-23.8443375673
 11
8.3145445745
 21
-23.8443375673
  0
LINE
  5
25A
100
AcDbEntity
  8
RACCORDO
100
AcDbLine
 62
253
  6
CONTINUOUS
 10
-8.3145445745
 20
-23.8443375673
 11
-10.5854554255
 21
-23.8443375673
  0
LINE
  5
25B
100
AcDbEntity
  8
DRAFT
100
AcDbLine
 62
7
  6
CONTINUOUS
 10
4.4
 20
-23.8
 11
-4.4
 21
-23.8
  0
LINE
  5
25C
100
AcDbEntity
  8
RACCORDO
100
AcDbLine
 62
7
  6
CONTINUOUS
 10
4.0959224421
 20
-23.7941821702
 11
-4.0959224421
 21
-23.7941821702
  0
LINE
  5
25D
100
AcDbEntity
  8
RACCORDO
100
AcDbLine
 62
253
  6
CONTINUOUS
 10
10.5861826542
 20
-23.6278312164
 11
8.3138173458
 21
-23.6278312164
  0
LINE
  5
25E
100
AcDbEntity
  8
RACCORDO
100
AcDbLine
 62
253
  6
CONTINUOUS
 10
-8.3138173458
 20
-23.6278312164
 11
-10.5861826542
 21
-23.6278312164
  0
LINE
  5
25F
100
AcDbEntity
  8
RACCORDO
100
AcDbLine
 62
7
  6
CONTINUOUS
 10
-8.3130985787
 20
24.3869014213
 11
-8.3
 21
24.4
  0
LWPOLYLINE
  5
260
100
AcDbEntity
  8
RACCORDO
100
AcDbPolyline
 62
7
  6
CONTINUOUS
 90
28
 70
0
 10
10.1483101244
 20
-22.0086395353
 10
10.1696308117
 20
-22.0083556109
 10
10.2174564198
 20
-22.0056477089
 10
10.2644015084
 20
-22.0001770421
 10
10.3103218729
 20
-21.9920738202
 10
10.3550998091
 20
-21.9814693796
 10
10.3986112761
 20
-21.9685018273
 10
10.4407465382
 20
-21.9533128173
 10
10.4814277043
 20
-21.9360380422
 10
10.5205705876
 20
-21.9168197562
 10
10.5581003281
 20
-21.8958024792
 10
10.5939689358
 20
-21.8731211239
 10
10.6281259298
 20
-21.8489159812
 10
10.6605292036
 20
-21.823327643
 10
10.6911571935
 20
-21.7964856569
 10
10.7199872308
 20
-21.7685245448
 10
10.7470070553
 20
-21.7395746682
 10
10.7722221617
 20
-21.7097512888
 10
10.7956160224
 20
-21.6792020126
 10
10.8172197083
 20
-21.6480203055
 10
10.8371082262
 20
-21.616220989
 10
10.8553934485
 20
-21.5837123645
 10
10.8719728756
 20
-21.5507699811
 10
10.8866650879
 20
-21.5179672075
 10
10.8995740909
 20
-21.4853811265
 10
10.9107859408
 20
-21.4531273177
 10
10.9202491825
 20
-21.4218291517
 10
11.0720215038
 20
-20.8663752938
  0
LINE
  5
261
100
AcDbEntity
  8
DRAFT
100
AcDbLine
 62
7
  6
CONTINUOUS
 10
10.5912732553
 20
-23.1226497308
 11
8.3087267447
 21
-23.1226497308
  0
LINE
  5
262
100
AcDbEntity
  8
DRAFT
100
AcDbLine
 62
7
  6
CONTINUOUS
 10
-8.3087267447
 20
-23.1226497308
 11
-10.5912732553
 21
-23.1226497308
  0
LINE
  5
263
100
AcDbEntity
  8
RACCORDO
100
AcDbLine
 62
7
  6
CONTINUOUS
 10
-10.8
 20
-22.4
 11
-10.6
 21
-22.4
  0
LINE
  5
264
100
AcDbEntity
  8
DRAFT
100
AcDbLine
 62
7
  6
CONTINUOUS
 10
-8.3
 20
-22.4
 11
-4.4
 21
-22.4
  0
LINE
  5
265
100
AcDbEntity
  8
DRAFT
100
AcDbLine
 62
7
  6
CONTINUOUS
 10
4.4
 20
-22.4
 11
8.3
 21
-22.4
  0
LINE
  5
266
100
AcDbEntity
  8
RACCORDO
100
AcDbLine
 62
7
  6
CONTINUOUS
 10
10.6
 20
-22.4
 11
10.8
 21
-22.4
  0
LINE
  5
267
100
AcDbEntity
  8
RACCORDO
100
AcDbLine
 62
7
  6
CONTINUOUS
 10
-4.0959224421
 20
-22.3912731322
 11
4.0959224421
 21
-22.3912731322
  0
LINE
  5
268
100
AcDbEntity
  8
DRAFT
100
AcDbLine
 62
7
  6
CONTINUOUS
 10
10.5912732553
 20
-22.3869096983
 11
8.3087267447
 21
-22.3869096983
  0
LINE
  5
269
100
AcDbEntity
  8
DRAFT
100
AcDbLine
 62
7
  6
CONTINUOUS
 10
-8.3087267447
 20
-22.3869096983
 11
-10.5912732553
 21
-22.3869096983
  0
LINE
  5
26A
100
AcDbEntity
  8
RACCORDO
100
AcDbLine
 62
7
  6
CONTINUOUS
 10
-10.8
 20
-22.3781828305
 11
10.8
 21
-22.3781828305
  0
LINE
  5
26B
100
AcDbEntity
  8
RACCORDO
100
AcDbLine
 62
7
  6
CONTINUOUS
 10
10.148314257
 20
-22.0086602648
 11
-10.1483142569
 21
-22.0086602648
  0
LINE
  5
26C
100
AcDbEntity
  8
ASSI
100
AcDbLine
 62
7
  6
CONTINUOUS
 10
-11.15
 20
-22.0
 11
-10.2655900344
 21
-22.0
  0
LINE
  5
26D
100
AcDbEntity
  8
ASSI
100
AcDbLine
 62
7
  6
CONTINUOUS
 10
10.2654047931
 20
-22.0
 11
11.15
 21
-22.0
  0
LINE
  5
26E
100
AcDbEntity
  8
0
100
AcDbLine
 62
7
  6
CONTINUOUS
 10
-11.15
 20
-21.858797755
 11
-10.6141616049
 21
-21.858797755
  0
LINE
  5
26F
100
AcDbEntity
  8
0
100
AcDbLine
 62
7
  6
CONTINUOUS
 10
10.6141813028
 20
-21.858797755
 11
11.15
 21
-21.858797755
  0
LINE
  5
270
100
AcDbEntity
  8
RACCORDO
100
AcDbLine
 62
7
  6
CONTINUOUS
 10
-8.3130985787
 20
-24.3869014213
 11
-8.3
 21
-24.4
  0
LINE
  5
271
100
AcDbEntity
  8
RACCORDO
100
AcDbLine
 62
253
  6
CONTINUOUS
 10
10.1319446292
 20
-20.7665417966
 11
-10.1319446292
 21
-20.7665417966
  0
LINE
  5
272
100
AcDbEntity
  8
0
100
AcDbLine
 62
7
  6
CONTINUOUS
 10
-11.15
 20
-19.9536487485
 11
-11.1
 21
-19.9536487485
  0
LINE
  5
273
100
AcDbEntity
  8
0
100
AcDbLine
 62
7
  6
CONTINUOUS
 10
11.1
 20
-19.9536487485
 11
11.15
 21
-19.9536487485
  0
LINE
  5
274
100
AcDbEntity
  8
DRAFT
100
AcDbLine
 62
7
  6
CONTINUOUS
 10
-8.3
 20
22.4
 11
-8.3087267447
 21
22.3869096983
  0
LINE
  5
275
100
AcDbEntity
  8
DRAFT
100
AcDbLine
 62
7
  6
CONTINUOUS
 10
-8.3087267447
 20
-22.3869096983
 11
-8.3
 21
-22.4
  0
LWPOLYLINE
  5
276
100
AcDbEntity
  8
RACCORDO
100
AcDbPolyline
 62
253
  6
CONTINUOUS
 90
16
 70
0
 10
-10.9316704892
 20
-20.6311939686
 10
-10.9252861261
 20
-20.6453196283
 10
-10.9104961545
 20
-20.659272431
 10
-10.8874572768
 20
-20.6729045441
 10
-10.8564135946
 20
-20.6860715325
 10
-10.8176940216
 20
-20.6986338896
 10
-10.7717087995
 20
-20.7104585146
 10
-10.7189451506
 20
-20.7214201233
 10
-10.6599621161
 20
-20.7314025754
 10
-10.5953846329
 20
-20.7403001048
 10
-10.525896912
 20
-20.7480184405
 10
-10.4522351894
 20
-20.754475805
 10
-10.3751799256
 20
-20.7596037817
 10
-10.2955475361
 20
-20.7633480387
 10
-10.2141817418
 20
-20.7656689046
 10
-10.1319446292
 20
-20.7665417896
  0
LWPOLYLINE
  5
277
100
AcDbEntity
  8
RACCORDO
100
AcDbPolyline
 62
253
  6
CONTINUOUS
 90
22
 70
0
 10
-10.9497982383
 20
-21.2076265926
 10
-10.9484900125
 20
-21.2106173868
 10
-10.9472004825
 20
-21.2101004016
 10
-10.9459296482
 20
-21.2060756371
 10
-10.9446707868
 20
-21.1984907203
 10
-10.9434306211
 20
-21.1873980242
 10
-10.9422293198
 20
-21.1729546679
 10
-10.9410678136
 20
-21.1551036124
 10
-10.9399451717
 20
-21.1339018967
 10
-10.9388787707
 20
-21.1096777574
 10
-10.937869713
 20
-21.0823905419
 10
-10.9369168962
 20
-21.0520809028
 10
-10.9360343902
 20
-21.0191990344
 10
-10.9352231175
 20
-20.9837001654
 10
-10.9344821556
 20
-20.9456290672
 10
-10.9338228072
 20
-20.905570248
 10
-10.9332463481
 20
-20.8634759602
 10
-10.9327515026
 20
-20.8193939515
 10
-10.9323457464
 20
-20.7740519729
 10
-10.9320315714
 20
-20.727692608
 10
-10.9318064856
 20
-20.6800732733
 10
-10.9261287923
 20
-17.2838801126
  0
LWPOLYLINE
  5
278
100
AcDbEntity
  8
RACCORDO
100
AcDbPolyline
 62
7
  6
CONTINUOUS
 90
27
 70
0
 10
-10.92172602
 20
-21.4165004327
 10
-10.9124746882
 20
-21.4478589913
 10
-10.9014502479
 20
-21.4802763032
 10
-10.8887069949
 20
-21.5130772978
 10
-10.8741503672
 20
-21.5461472334
 10
-10.8576694596
 20
-21.5794054541
 10
-10.8394671671
 20
-21.6122195336
 10
-10.8196595211
 20
-21.6442922343
 10
-10.7981252655
 20
-21.6757377967
 10
-10.7747839133
 20
-21.7065504926
 10
-10.7496027427
 20
-21.7366376233
 10
-10.7225993812
 20
-21.7658484224
 10
-10.6937653573
 20
-21.794069246
 10
-10.6631119582
 20
-21.8211685239
 10
-10.630662244
 20
-21.8470092959
 10
-10.5964364815
 20
-21.8714610156
 10
-10.5604767107
 20
-21.8943809357
 10
-10.5228336991
 20
-21.9156264541
 10
-10.4835547066
 20
-21.9350609299
 10
-10.442715266
 20
-21.9525372365
 10
-10.4004003062
 20
-21.9679105846
 10
-10.35668727
 20
-21.9810431511
 10
-10.3116872117
 20
-21.991790416
 10
-10.2655258564
 20
-22.0000114297
 10
-10.2183213468
 20
-22.0055722463
 10
-10.1702197096
 20
-22.0083397052
 10
-10.1483101175
 20
-22.0086395355
  0
LINE
  5
279
100
AcDbEntity
  8
RACCORDO
100
AcDbLine
 62
7
  6
CONTINUOUS
 10
-11.0720215038
 20
-20.8663752938
 11
-10.9216866874
 21
-21.4166516101
  0
LINE
  5
27A
100
AcDbEntity
  8
RACCORDO
100
AcDbLine
 62
253
  6
CONTINUOUS
 10
-11.1
 20
-20.6578369271
 11
-10.9497982383
 21
-21.2076265926
  0
LINE
  5
27B
100
AcDbEntity
  8
RACCORDO
100
AcDbLine
 62
7
  6
CONTINUOUS
 10
4.3959173652
 20
23.7959173652
 11
4.4
 21
23.8
  0
LWPOLYLINE
  5
27C
100
AcDbEntity
  8
RACCORDO
100
AcDbPolyline
 62
253
  6
CONTINUOUS
 90
16
 70
0
 10
10.9316704892
 20
19.8413257496
 10
10.9252861273
 20
19.8383280446
 10
10.9104961566
 20
19.8353852937
 10
10.8874572798
 20
19.8325286759
 10
10.8564135981
 20
19.8297884575
 10
10.8176940256
 20
19.8271936717
 10
10.7717088037
 20
19.8247718109
 10
10.7189451549
 20
19.8225485351
 10
10.6599621203
 20
19.8205474003
 10
10.5953846367
 20
19.8187896089
 10
10.5258969154
 20
19.8172937851
 10
10.4522351923
 20
19.8160757775
 10
10.3751799279
 20
19.8151484912
 10
10.2955475377
 20
19.814521751
 10
10.2141817426
 20
19.8142021974
 10
10.1319446292
 20
19.814193216
  0
LINE
  5
27D
100
AcDbEntity
  8
RACCORDO
100
AcDbLine
 62
7
  6
CONTINUOUS
 10
4.3959173652
 20
-23.7959173652
 11
4.4
 21
-23.8
  0
LWPOLYLINE
  5
27E
100
AcDbEntity
  8
RACCORDO
100
AcDbPolyline
 62
253
  6
CONTINUOUS
 90
4
 70
0
 10
-10.9497982383
 20
-21.2076265926
 10
-10.9453994994
 20
-21.2908396851
 10
-10.9322896276
 20
-21.3731174727
 10
-10.9217910306
 20
-21.4162700533
  0
LWPOLYLINE
  5
27F
100
AcDbEntity
  8
RACCORDO
100
AcDbPolyline
 62
7
  6
CONTINUOUS
 90
31
 70
0
 10
-11.15
 20
-22.0499866726
 10
-11.149520361
 20
-22.0683045068
 10
-11.1480827556
 20
-22.0865721551
 10
-11.1456911199
 20
-22.1047395529
 10
-11.1423520049
 20
-22.1227569124
 10
-11.1380745582
 20
-22.1405748519
 10
-11.1328704981
 20
-22.158144531
 10
-11.1267540833
 20
-22.1754177965
 10
-11.1197420733
 20
-22.1923473068
 10
-11.1118536816
 20
-22.2088866539
 10
-11.103110524
 20
-22.224990507
 10
-11.09353656
 20
-22.2406147282
 10
-11.0831580257
 20
-22.2557164847
 10
-11.0720033628
 20
-22.2702543843
 10
-11.0601031411
 20
-22.2841885798
 10
-11.0474899743
 20
-22.2974808689
 10
-11.03419843
 20
-22.3100948174
 10
-11.020264936
 20
-22.3219958502
 10
-11.0057276809
 20
-22.3331513373
 10
-10.9906265074
 20
-22.3435307
 10
-10.9750028045
 20
-22.3531054869
 10
-10.9588993951
 20
-22.3618494448
 10
-10.9423604162
 20
-22.3697386035
 10
-10.9254311989
 20
-22.3767513366
 10
-10.9081581451
 20
-22.3828684145
 10
-10.8905885996
 20
-22.3880730663
 10
-10.872770719
 20
-22.3923510231
 10
-10.854753341
 20
-22.3956905527
 10
-10.8365858509
 20
-22.3980824962
 10
-10.8183180464
 20
-22.3995202939
 10
-10.8
 20
-22.4
  0
LINE
  5
280
100
AcDbEntity
  8
RACCORDO
100
AcDbLine
 62
7
  6
CONTINUOUS
 10
-10.5861826542
 20
-23.6278312164
 11
-10.5912732553
 21
-23.1226497308
  0
LWPOLYLINE
  5
281
100
AcDbEntity
  8
RACCORDO
100
AcDbPolyline
 62
253
  6
CONTINUOUS
 90
21
 70
0
 10
-10.931806693
 20
19.8913306798
 10
-10.9320320149
 20
19.9407795027
 10
-10.9323464547
 20
19.9896722184
 10
-10.9327524896
 20
20.0382688384
 10
-10.9332476424
 20
20.0863093512
 10
-10.933824482
 20
20.1330137222
 10
-10.9344843559
 20
20.1783490114
 10
-10.9352259165
 20
20.2223481588
 10
-10.9360376905
 20
20.2643299496
 10
-10.9369205659
 20
20.304254004
 10
-10.9378736547
 20
20.3421607017
 10
-10.938882819
 20
20.3774899675
 10
-10.9399490843
 20
20.4102085039
 10
-10.9410714252
 20
20.4403496084
 10
-10.9422326269
 20
20.467453098
 10
-10.9434337383
 20
20.4914722962
 10
-10.9446737106
 20
20.5124538795
 10
-10.9459321828
 20
20.530077695
 10
-10.947202368
 20
20.544237025
 10
-10.9484910532
 20
20.5550385872
 10
-10.9497982383
 20
20.5624823816
  0
LINE
  5
282
100
AcDbEntity
  8
RACCORDO
100
AcDbLine
 62
7
  6
CONTINUOUS
 10
-11.15
 20
22.0281695031
 11
-11.15
 21
22.0
  0
LINE
  5
283
100
AcDbEntity
  8
ASSI
100
AcDbLine
 62
7
  6
CONTINUOUS
 10
-11.15
 20
22.0
 11
-11.15
 21
-22.0
  0
LINE
  5
284
100
AcDbEntity
  8
RACCORDO
100
AcDbLine
 62
7
  6
CONTINUOUS
 10
-11.15
 20
-22.0
 11
-11.15
 21
-22.0281695031
  0
LINE
  5
285
100
AcDbEntity
  8
RACCORDO
100
AcDbLine
 62
7
  6
CONTINUOUS
 10
-11.1
 20
-20.6578369271
 11
-11.1
 21
21.2118377824
  0
LINE
  5
286
100
AcDbEntity
  8
RACCORDO
100
AcDbLine
 62
253
  6
CONTINUOUS
 10
-10.8
 20
-22.4
 11
-10.8
 21
-22.3781828305
  0
LINE
  5
287
100
AcDbEntity
  8
RACCORDO
100
AcDbLine
 62
253
  6
CONTINUOUS
 10
-10.8
 20
22.3781828305
 11
-10.8
 21
22.4
  0
LWPOLYLINE
  5
288
100
AcDbEntity
  8
RACCORDO
100
AcDbPolyline
 62
253
  6
CONTINUOUS
 90
12
 70
0
 10
-10.9261287923
 20
-17.2838801126
 10
-10.9215945138
 20
-13.9312355257
 10
-10.9180676536
 20
-10.5732602078
 10
-10.9155480131
 20
-7.209518511
 10
-10.914035791
 20
-3.8404460832
 10
-10.9135315828
 20
-0.4673498684
 10
-10.9140357845
 20
2.9097710528
 10
-10.915548
 20
6.290915761
 10
-10.9180676375
 20
9.674774555
 10
-10.9215944995
 20
13.0609108675
 10
-10.9261287834
 20
16.4497612657
 10
-10.931806693
 20
19.8913306798
  0
LINE
  5
289
100
AcDbEntity
  8
RACCORDO
100
AcDbLine
 62
7
  6
CONTINUOUS
 10
-10.5912732553
 20
23.1226497308
 11
-10.5861826542
 21
23.6278312164
  0
LWPOLYLINE
  5
28A
100
AcDbEntity
  8
RACCORDO
100
AcDbPolyline
 62
7
  6
CONTINUOUS
 90
31
 70
0
 10
-11.15
 20
22.0499866726
 10
-11.149520361
 20
22.0683045068
 10
-11.1480827556
 20
22.0865721551
 10
-11.1456911199
 20
22.1047395529
 10
-11.1423520049
 20
22.1227569124
 10
-11.1380745582
 20
22.1405748519
 10
-11.1328704981
 20
22.158144531
 10
-11.1267540833
 20
22.1754177965
 10
-11.1197420733
 20
22.1923473068
 10
-11.1118536816
 20
22.2088866539
 10
-11.103110524
 20
22.224990507
 10
-11.09353656
 20
22.2406147282
 10
-11.0831580257
 20
22.2557164847
 10
-11.0720033628
 20
22.2702543843
 10
-11.0601031411
 20
22.2841885798
 10
-11.0474899743
 20
22.2974808689
 10
-11.03419843
 20
22.3100948174
 10
-11.020264936
 20
22.3219958502
 10
-11.0057276809
 20
22.3331513373
 10
-10.9906265074
 20
22.3435307
 10
-10.9750028045
 20
22.3531054869
 10
-10.9588993951
 20
22.3618494448
 10
-10.9423604162
 20
22.3697386035
 10
-10.9254311989
 20
22.3767513366
 10
-10.9081581451
 20
22.3828684145
 10
-10.8905885996
 20
22.3880730663
 10
-10.872770719
 20
22.3923510231
 10
-10.854753341
 20
22.3956905527
 10
-10.8365858509
 20
22.3980824962
 10
-10.8183180464
 20
22.3995202939
 10
-10.8
 20
22.4
  0
LWPOLYLINE
  5
28B
100
AcDbEntity
  8
RACCORDO
100
AcDbPolyline
 62
253
  6
CONTINUOUS
 90
16
 70
0
 10
-10.9497982383
 20
20.5624823816
 10
-10.9453994364
 20
20.6455676169
 10
-10.9322893966
 20
20.7277667935
 10
-10.9106117138
 20
20.8081795818
 10
-10.8806038239
 20
20.8859252183
 10
-10.8425944043
 20
20.9601521532
 10
-10.7969997732
 20
21.0300473769
 10
-10.7443193295
 20
21.0948453251
 10
-10.6851300838
 20
21.1538362644
 10
-10.6200803371
 20
21.2063740654
 10
-10.5498825812
 20
21.2518832803
 10
-10.4753056938
 20
21.2898654454
 10
-10.3971665175
 20
21.3199045411
 10
-10.3163209127
 20
21.3416715484
 10
-10.2336543835
 20
21.3549280527
 10
-10.1500723783
 20
21.3595288551
  0
LWPOLYLINE
  5
28C
100
AcDbEntity
  8
RACCORDO
100
AcDbPolyline
 62
253
  6
CONTINUOUS
 90
22
 70
0
 10
-10.1264029147
 20
16.4142777256
 10
-10.1320822269
 20
19.9209034783
 10
-10.1323085516
 20
20.0273439239
 10
-10.1326236031
 20
20.1329760654
 10
-10.1330297826
 20
20.2372595901
 10
-10.133524689
 20
20.3396736648
 10
-10.1341011193
 20
20.4397183422
 10
-10.1347605303
 20
20.5369015712
 10
-10.1355014652
 20
20.6307148526
 10
-10.1363123503
 20
20.7206569387
 10
-10.137193931
 20
20.8062567157
 10
-10.138145462
 20
20.8871040681
 10
-10.1391531329
 20
20.9628201754
 10
-10.1402181524
 20
21.0330333532
 10
-10.141339312
 20
21.0973687619
 10
-10.1424991749
 20
21.1554832563
 10
-10.1436979984
 20
21.2070777799
 10
-10.1449355254
 20
21.2519007984
 10
-10.1461935476
 20
21.2897317397
 10
-10.1474659959
 20
21.3203791081
 10
-10.1487589394
 20
21.3436845907
 10
-10.1500723783
 20
21.3595288551
  0
LINE
  5
28D
100
AcDbEntity
  8
RACCORDO
100
AcDbLine
 62
7
  6
CONTINUOUS
 10
-10.6
 20
-22.4
 11
-10.6
 21
-24.4
  0
LINE
  5
28E
100
AcDbEntity
  8
RACCORDO
100
AcDbLine
 62
7
  6
CONTINUOUS
 10
-10.6
 20
22.4
 11
-10.6
 21
24.4
  0
LINE
  5
28F
100
AcDbEntity
  8
DRAFT
100
AcDbLine
 62
7
  6
CONTINUOUS
 10
-10.5912732553
 20
-23.1226497308
 11
-10.5912732553
 21
-22.3869096983
  0
LINE
  5
290
100
AcDbEntity
  8
DRAFT
100
AcDbLine
 62
7
  6
CONTINUOUS
 10
-10.5912732553
 20
22.3869096983
 11
-10.5912732553
 21
23.1226497308
  0
LINE
  5
291
100
AcDbEntity
  8
RACCORDO
100
AcDbLine
 62
7
  6
CONTINUOUS
 10
-10.5854554255
 20
-24.1369056521
 11
-10.5854554255
 21
-23.8443375673
  0
LINE
  5
292
100
AcDbEntity
  8
RACCORDO
100
AcDbLine
 62
7
  6
CONTINUOUS
 10
-10.5854554255
 20
23.8443375673
 11
-10.5854554255
 21
24.1369056521
  0
LWPOLYLINE
  5
293
100
AcDbEntity
  8
RACCORDO
100
AcDbPolyline
 62
253
  6
CONTINUOUS
 90
12
 70
0
 10
-10.1320821807
 20
-20.8709384797
 10
-10.1264029145
 20
-17.4109811632
 10
-10.1218686253
 20
-14.0492161661
 10
-10.1183417615
 20
-10.6816793591
 10
-10.1158221288
 20
-7.3088040811
 10
-10.1143099215
 20
-3.9310242731
 10
-10.1138057229
 20
-0.5487744221
 10
-10.1143099216
 20
2.837510283
 10
-10.115822129
 20
6.2273941343
 10
-10.1183417618
 20
9.620441088
 10
-10.1218686255
 20
13.0162146088
 10
-10.1264029147
 20
16.4142777256
  0
LINE
  5
294
100
AcDbEntity
  8
RACCORDO
100
AcDbLine
 62
7
  6
CONTINUOUS
 10
10.5869014213
 20
24.3869014213
 11
10.6
 21
24.4
  0
LINE
  5
295
100
AcDbEntity
  8
RACCORDO
100
AcDbLine
 62
7
  6
CONTINUOUS
 10
10.5869014213
 20
-24.3869014213
 11
10.6
 21
-24.4
  0
LINE
  5
296
100
AcDbEntity
  8
RACCORDO
100
AcDbLine
 62
7
  6
CONTINUOUS
 10
-8.3087267447
 20
23.1226497308
 11
-8.3138173458
 21
23.6278312164
  0
LINE
  5
297
100
AcDbEntity
  8
RACCORDO
100
AcDbLine
 62
7
  6
CONTINUOUS
 10
-8.3145445745
 20
24.1369056521
 11
-8.3145445745
 21
23.8443375673
  0
LINE
  5
298
100
AcDbEntity
  8
RACCORDO
100
AcDbLine
 62
7
  6
CONTINUOUS
 10
-8.3145445745
 20
-23.8443375673
 11
-8.3145445745
 21
-24.1369056521
  0
LINE
  5
299
100
AcDbEntity
  8
DRAFT
100
AcDbLine
 62
7
  6
CONTINUOUS
 10
-8.3087267447
 20
-23.1226497308
 11
-8.3087267447
 21
-22.3869096983
  0
LINE
  5
29A
100
AcDbEntity
  8
DRAFT
100
AcDbLine
 62
7
  6
CONTINUOUS
 10
-8.3087267447
 20
22.3869096983
 11
-8.3087267447
 21
23.1226497308
  0
LINE
  5
29B
100
AcDbEntity
  8
RACCORDO
100
AcDbLine
 62
7
  6
CONTINUOUS
 10
-8.3
 20
-22.4
 11
-8.3
 21
-24.4
  0
LINE
  5
29C
100
AcDbEntity
  8
RACCORDO
100
AcDbLine
 62
7
  6
CONTINUOUS
 10
-8.3
 20
22.4
 11
-8.3
 21
24.4
  0
LINE
  5
29D
100
AcDbEntity
  8
RACCORDO
100
AcDbLine
 62
7
  6
CONTINUOUS
 10
-8.3138173458
 20
-23.6278312164
 11
-8.3087267447
 21
-23.1226497308
  0
LINE
  5
29E
100
AcDbEntity
  8
RACCORDO
100
AcDbLine
 62
7
  6
CONTINUOUS
 10
4.3959173652
 20
22.3938759614
 11
4.4
 21
22.4
  0
LINE
  5
29F
100
AcDbEntity
  8
RACCORDO
100
AcDbLine
 62
7
  6
CONTINUOUS
 10
4.3959173652
 20
-22.3938759614
 11
4.4
 21
-22.4
  0
LINE
  5
2A0
100
AcDbEntity
  8
RACCORDO
100
AcDbLine
 62
253
  6
CONTINUOUS
 10
-10.9497982383
 20
20.5624823816
 11
-11.1
 21
21.2118377824
  0
LINE
  5
2A1
100
AcDbEntity
  8
DRAFT
100
AcDbLine
 62
7
  6
CONTINUOUS
 10
-4.4
 20
-23.8
 11
-4.4
 21
-22.4
  0
LINE
  5
2A2
100
AcDbEntity
  8
DRAFT
100
AcDbLine
 62
7
  6
CONTINUOUS
 10
-4.4
 20
22.4
 11
-4.4
 21
23.8
  0
LINE
  5
2A3
100
AcDbEntity
  8
RACCORDO
100
AcDbLine
 62
253
  6
CONTINUOUS
 10
-4.3959173652
 20
23.7959173652
 11
-4.3959173652
 21
22.3938759614
  0
LINE
  5
2A4
100
AcDbEntity
  8
RACCORDO
100
AcDbLine
 62
253
  6
CONTINUOUS
 10
-4.3959173652
 20
-22.3938759614
 11
-4.3959173652
 21
-23.7959173652
  0
LINE
  5
2A5
100
AcDbEntity
  8
RACCORDO
100
AcDbLine
 62
253
  6
CONTINUOUS
 10
-4.0959224421
 20
23.7941821702
 11
-4.0959224421
 21
22.3912731322
  0
LINE
  5
2A6
100
AcDbEntity
  8
RACCORDO
100
AcDbLine
 62
253
  6
CONTINUOUS
 10
-4.0959224421
 20
-22.3912731322
 11
-4.0959224421
 21
-23.7941821702
  0
LINE
  5
2A7
100
AcDbEntity
  8
DRAFT
100
AcDbLine
 62
7
  6
CONTINUOUS
 10
10.6
 20
22.4
 11
10.5912732553
 21
22.3869096983
  0
LINE
  5
2A8
100
AcDbEntity
  8
DRAFT
100
AcDbLine
 62
7
  6
CONTINUOUS
 10
10.5912732553
 20
-22.3869096983
 11
10.6
 21
-22.4
  0
LINE
  5
2A9
100
AcDbEntity
  8
RACCORDO
100
AcDbLine
 62
253
  6
CONTINUOUS
 10
-10.1500723783
 20
21.3595288551
 11
-10.2999085759
 21
22.0073038415
  0
LINE
  5
2AA
100
AcDbEntity
  8
ASSI
100
AcDbLine
 62
7
  6
CONTINUOUS
 10
-11.15
 20
0.0
 11
-11.1
 21
0.0
  0
LINE
  5
2AB
100
AcDbEntity
  8
ASSI
100
AcDbLine
 62
7
  6
CONTINUOUS
 10
11.1
 20
0.0
 11
11.15
 21
0.0
  0
LWPOLYLINE
  5
2AC
100
AcDbEntity
  8
RACCORDO
100
AcDbPolyline
 62
253
  6
CONTINUOUS
 90
20
 70
0
 10
-10.1483029165
 20
-22.0086602537
 10
-10.147465615
 20
-22.0070511011
 10
-10.1461930728
 20
-21.9983220401
 10
-10.1449350639
 20
-21.9820578557
 10
-10.1436976146
 20
-21.9583423958
 10
-10.1424988041
 20
-21.9272914232
 10
-10.1413388011
 20
-21.889053644
 10
-10.1402174368
 20
-21.8438248589
 10
-10.1391522842
 20
-21.7918479557
 10
-10.1381446033
 20
-21.7334033021
 10
-10.1371931341
 20
-21.6687794636
 10
-10.1363116696
 20
-21.5982794129
 10
-10.1355009948
 20
-21.5222400911
 10
-10.1347603247
 20
-21.441057635
 10
-10.1341010979
 20
-21.3551631863
 10
-10.1335246937
 20
-21.2650047931
 10
-10.1330297326
 20
-21.1710284398
 10
-10.1326235156
 20
-21.0736965622
 10
-10.1323084761
 20
-20.9734962597
 10
-10.1320821807
 20
-20.8709384797
  0
LINE
  5
2AD
100
AcDbEntity
  8
DRAFT
100
AcDbLine
 62
7
  6
CONTINUOUS
 10
-10.5912732553
 20
-22.3869096983
 11
-10.6
 21
-22.4
  0
LINE
  5
2AE
100
AcDbEntity
  8
DRAFT
100
AcDbLine
 62
7
  6
CONTINUOUS
 10
-10.6
 20
22.4
 11
-10.5912732553
 21
22.3869096983
  0
LINE
  5
2AF
100
AcDbEntity
  8
RACCORDO
100
AcDbLine
 62
253
  6
CONTINUOUS
 10
4.0959224421
 20
-23.7941821702
 11
4.0959224421
 21
-22.3912731322
  0
LINE
  5
2B0
100
AcDbEntity
  8
RACCORDO
100
AcDbLine
 62
253
  6
CONTINUOUS
 10
4.0959224421
 20
22.3912731322
 11
4.0959224421
 21
23.7941821702
  0
LINE
  5
2B1
100
AcDbEntity
  8
RACCORDO
100
AcDbLine
 62
253
  6
CONTINUOUS
 10
4.3959173652
 20
-23.7959173652
 11
4.3959173652
 21
-22.3938759614
  0
LINE
  5
2B2
100
AcDbEntity
  8
RACCORDO
100
AcDbLine
 62
253
  6
CONTINUOUS
 10
4.3959173652
 20
22.3938759614
 11
4.3959173652
 21
23.7959173652
  0
LINE
  5
2B3
100
AcDbEntity
  8
DRAFT
100
AcDbLine
 62
7
  6
CONTINUOUS
 10
4.4
 20
23.8
 11
4.4
 21
22.4
  0
LINE
  5
2B4
100
AcDbEntity
  8
DRAFT
100
AcDbLine
 62
7
  6
CONTINUOUS
 10
4.4
 20
-22.4
 11
4.4
 21
-23.8
  0
LINE
  5
2B5
100
AcDbEntity
  8
RACCORDO
100
AcDbLine
 62
253
  6
CONTINUOUS
 10
10.2999085759
 20
22.0073038415
 11
10.1500723783
 21
21.3595288551
  0
LWPOLYLINE
  5
2B6
100
AcDbEntity
  8
RACCORDO
100
AcDbPolyline
 62
253
  6
CONTINUOUS
 90
22
 70
0
 10
10.9497982383
 20
20.5624823816
 10
10.9484910532
 20
20.5550385872
 10
10.947202368
 20
20.544237025
 10
10.9459321828
 20
20.530077695
 10
10.9446737106
 20
20.5124538795
 10
10.9434337383
 20
20.4914722962
 10
10.9422326269
 20
20.4674530981
 10
10.9410714252
 20
20.4403496084
 10
10.9399490843
 20
20.4102085039
 10
10.938882819
 20
20.3774899675
 10
10.9378736547
 20
20.3421607017
 10
10.9369205659
 20
20.304254004
 10
10.9360376905
 20
20.2643299496
 10
10.9352259165
 20
20.2223481588
 10
10.9344843559
 20
20.1783490114
 10
10.933824482
 20
20.1330137222
 10
10.9332476424
 20
20.0863093512
 10
10.9327524896
 20
20.0382688384
 10
10.9323464547
 20
19.9896722184
 10
10.9320320149
 20
19.9407795027
 10
10.931806693
 20
19.8913306798
 10
10.9261287834
 20
16.4497612657
  0
LINE
  5
2B7
100
AcDbEntity
  8
RACCORDO
100
AcDbLine
 62
253
  6
CONTINUOUS
 10
11.1
 20
21.2118377824
 11
10.9497982383
 21
20.5624823816
  0
LINE
  5
2B8
100
AcDbEntity
  8
RACCORDO
100
AcDbLine
 62
7
  6
CONTINUOUS
 10
8.3138173458
 20
-23.6278312164
 11
8.3087267447
 21
-23.1226497308
  0
LINE
  5
2B9
100
AcDbEntity
  8
RACCORDO
100
AcDbLine
 62
7
  6
CONTINUOUS
 10
8.3
 20
-22.4
 11
8.3
 21
-24.4
  0
LINE
  5
2BA
100
AcDbEntity
  8
RACCORDO
100
AcDbLine
 62
7
  6
CONTINUOUS
 10
8.3
 20
22.4
 11
8.3
 21
24.4
  0
LINE
  5
2BB
100
AcDbEntity
  8
DRAFT
100
AcDbLine
 62
7
  6
CONTINUOUS
 10
8.3087267447
 20
-23.1226497308
 11
8.3087267447
 21
-22.3869096983
  0
LINE
  5
2BC
100
AcDbEntity
  8
DRAFT
100
AcDbLine
 62
7
  6
CONTINUOUS
 10
8.3087267447
 20
22.3869096983
 11
8.3087267447
 21
23.1226497308
  0
LINE
  5
2BD
100
AcDbEntity
  8
RACCORDO
100
AcDbLine
 62
7
  6
CONTINUOUS
 10
8.3145445745
 20
-24.1369056521
 11
8.3145445745
 21
-23.8443375673
  0
LINE
  5
2BE
100
AcDbEntity
  8
RACCORDO
100
AcDbLine
 62
7
  6
CONTINUOUS
 10
8.3145445745
 20
23.8443375673
 11
8.3145445745
 21
24.1369056521
  0
LINE
  5
2BF
100
AcDbEntity
  8
RACCORDO
100
AcDbLine
 62
7
  6
CONTINUOUS
 10
8.3087267447
 20
23.1226497308
 11
8.3138173458
 21
23.6278312164
  0
LWPOLYLINE
  5
2C0
100
AcDbEntity
  8
RACCORDO
100
AcDbPolyline
 62
253
  6
CONTINUOUS
 90
21
 70
0
 10
10.1500723783
 20
21.3595288551
 10
10.1487589395
 20
21.3436845907
 10
10.1474659959
 20
21.3203791081
 10
10.1461935477
 20
21.2897317397
 10
10.1449355254
 20
21.2519007984
 10
10.1436979984
 20
21.2070777799
 10
10.1424991748
 20
21.1554832563
 10
10.1413393119
 20
21.0973687619
 10
10.1402181524
 20
21.0330333532
 10
10.1391531329
 20
20.9628201754
 10
10.138145462
 20
20.8871040681
 10
10.1371939311
 20
20.8062567157
 10
10.1363123503
 20
20.7206569387
 10
10.1355014652
 20
20.6307148526
 10
10.1347605303
 20
20.5369015712
 10
10.1341011193
 20
20.4397183422
 10
10.133524689
 20
20.3396736648
 10
10.1330297826
 20
20.2372595901
 10
10.1326236031
 20
20.1329760654
 10
10.1323085516
 20
20.0273439239
 10
10.1320822269
 20
19.9209034783
  0
LINE
  5
2C1
100
AcDbEntity
  8
RACCORDO
100
AcDbLine
 62
7
  6
CONTINUOUS
 10
-4.3959173652
 20
-22.3938759614
 11
-4.4
 21
-22.4
  0
LINE
  5
2C2
100
AcDbEntity
  8
RACCORDO
100
AcDbLine
 62
7
  6
CONTINUOUS
 10
-4.3959173652
 20
22.3938759614
 11
-4.4
 21
22.4
  0
LINE
  5
2C3
100
AcDbEntity
  8
RACCORDO
100
AcDbLine
 62
7
  6
CONTINUOUS
 10
10.5912732553
 20
23.1226497308
 11
10.5861826542
 21
23.6278312164
  0
LWPOLYLINE
  5
2C4
100
AcDbEntity
  8
RACCORDO
100
AcDbPolyline
 62
253
  6
CONTINUOUS
 90
21
 70
0
 10
10.9318064856
 20
-20.6800732733
 10
10.9320315714
 20
-20.7276926081
 10
10.9323457464
 20
-20.7740519729
 10
10.9327515026
 20
-20.8193939515
 10
10.9332463481
 20
-20.8634759603
 10
10.9338228072
 20
-20.905570248
 10
10.9344821556
 20
-20.9456290672
 10
10.9352231175
 20
-20.9837001654
 10
10.9360343902
 20
-21.0191990344
 10
10.9369168962
 20
-21.0520809028
 10
10.937869713
 20
-21.0823905419
 10
10.9388787707
 20
-21.1096777574
 10
10.9399451717
 20
-21.1339018967
 10
10.9410678136
 20
-21.1551036124
 10
10.9422293198
 20
-21.1729546679
 10
10.9434306211
 20
-21.1873980242
 10
10.9446707868
 20
-21.1984907203
 10
10.9459296482
 20
-21.2060756371
 10
10.9472004825
 20
-21.2101004015
 10
10.9484900125
 20
-21.2106173867
 10
10.9497982383
 20
-21.2076265926
  0
LWPOLYLINE
  5
2C5
100
AcDbEntity
  8
RACCORDO
100
AcDbPolyline
 62
253
  6
CONTINUOUS
 90
21
 70
0
 10
10.1264029145
 20
-17.4109811632
 10
10.1320821807
 20
-20.8709384797
 10
10.1323084761
 20
-20.9734962597
 10
10.1326235156
 20
-21.0736965622
 10
10.1330297326
 20
-21.1710284398
 10
10.1335246937
 20
-21.2650047931
 10
10.1341010979
 20
-21.3551631863
 10
10.1347603247
 20
-21.441057635
 10
10.1355009948
 20
-21.5222400911
 10
10.1363116696
 20
-21.5982794129
 10
10.1371931341
 20
-21.6687794636
 10
10.1381446033
 20
-21.7334033021
 10
10.1391522842
 20
-21.7918479557
 10
10.1402174368
 20
-21.8438248589
 10
10.1413388011
 20
-21.889053644
 10
10.1424988042
 20
-21.9272914232
 10
10.1436976146
 20
-21.9583423958
 10
10.1449350638
 20
-21.9820578557
 10
10.1461930727
 20
-21.9983220401
 10
10.1474656149
 20
-22.0070511011
 10
10.1483029232
 20
-22.0086602538
  0
LINE
  5
2C6
100
AcDbEntity
  8
RACCORDO
100
AcDbLine
 62
7
  6
CONTINUOUS
 10
10.5854554255
 20
24.1369056521
 11
10.5854554255
 21
23.8443375673
  0
LINE
  5
2C7
100
AcDbEntity
  8
RACCORDO
100
AcDbLine
 62
7
  6
CONTINUOUS
 10
10.5854554255
 20
-23.8443375673
 11
10.5854554255
 21
-24.1369056521
  0
LINE
  5
2C8
100
AcDbEntity
  8
DRAFT
100
AcDbLine
 62
7
  6
CONTINUOUS
 10
10.5912732553
 20
-23.1226497308
 11
10.5912732553
 21
-22.3869096983
  0
LINE
  5
2C9
100
AcDbEntity
  8
DRAFT
100
AcDbLine
 62
7
  6
CONTINUOUS
 10
10.5912732553
 20
22.3869096983
 11
10.5912732553
 21
23.1226497308
  0
LINE
  5
2CA
100
AcDbEntity
  8
RACCORDO
100
AcDbLine
 62
7
  6
CONTINUOUS
 10
10.6
 20
-22.4
 11
10.6
 21
-24.4
  0
LINE
  5
2CB
100
AcDbEntity
  8
RACCORDO
100
AcDbLine
 62
7
  6
CONTINUOUS
 10
10.6
 20
22.4
 11
10.6
 21
24.4
  0
LINE
  5
2CC
100
AcDbEntity
  8
RACCORDO
100
AcDbLine
 62
253
  6
CONTINUOUS
 10
10.8
 20
22.4
 11
10.8
 21
22.3781828305
  0
LINE
  5
2CD
100
AcDbEntity
  8
RACCORDO
100
AcDbLine
 62
253
  6
CONTINUOUS
 10
10.8
 20
-22.3781828305
 11
10.8
 21
-22.4
  0
LINE
  5
2CE
100
AcDbEntity
  8
RACCORDO
100
AcDbLine
 62
7
  6
CONTINUOUS
 10
11.1
 20
-20.6578369271
 11
11.1
 21
21.2118377824
  0
LWPOLYLINE
  5
2CF
100
AcDbEntity
  8
RACCORDO
100
AcDbPolyline
 62
253
  6
CONTINUOUS
 90
12
 70
0
 10
10.9261287834
 20
16.4497612657
 10
10.9215944995
 20
13.0609108675
 10
10.9180676375
 20
9.674774555
 10
10.915548
 20
6.290915761
 10
10.9140357845
 20
2.9097710528
 10
10.9135315828
 20
-0.4673498684
 10
10.914035791
 20
-3.8404460832
 10
10.9155480131
 20
-7.209518511
 10
10.9180676536
 20
-10.5732602078
 10
10.9215945138
 20
-13.9312355257
 10
10.9261287923
 20
-17.2838801126
 10
10.9318064856
 20
-20.6800732733
  0
LWPOLYLINE
  5
2D0
100
AcDbEntity
  8
RACCORDO
100
AcDbPolyline
 62
253
  6
CONTINUOUS
 90
12
 70
0
 10
10.1320822269
 20
19.9209034783
 10
10.1264029147
 20
16.4142777256
 10
10.1218686255
 20
13.0162146088
 10
10.1183417618
 20
9.620441088
 10
10.115822129
 20
6.2273941343
 10
10.1143099216
 20
2.837510283
 10
10.1138057229
 20
-0.5487744221
 10
10.1143099215
 20
-3.9310242731
 10
10.1158221288
 20
-7.3088040811
 10
10.1183417615
 20
-10.6816793591
 10
10.1218686253
 20
-14.0492161661
 10
10.1264029145
 20
-17.4109811632
  0
LINE
  5
2D1
100
AcDbEntity
  8
RACCORDO
100
AcDbLine
 62
7
  6
CONTINUOUS
 10
10.5861826542
 20
-23.6278312164
 11
10.5912732553
 21
-23.1226497308
  0
LINE
  5
2D2
100
AcDbEntity
  8
RACCORDO
100
AcDbLine
 62
7
  6
CONTINUOUS
 10
-10.5869014213
 20
-24.3869014213
 11
-10.6
 21
-24.4
  0
LINE
  5
2D3
100
AcDbEntity
  8
RACCORDO
100
AcDbLine
 62
7
  6
CONTINUOUS
 10
-10.5869014213
 20
24.3869014213
 11
-10.6
 21
24.4
  0
LWPOLYLINE
  5
2D4
100
AcDbEntity
  8
RACCORDO
100
AcDbPolyline
 62
253
  6
CONTINUOUS
 90
16
 70
0
 10
10.9497982383
 20
20.5624823816
 10
10.9453995334
 20
20.6455667001
 10
10.932289752
 20
20.7277651313
 10
10.9106124383
 20
20.8081773633
 10
10.8806049757
 20
20.8859226434
 10
10.8425959909
 20
20.9601494165
 10
10.7970017587
 20
21.0300446538
 10
10.7443216325
 20
21.0948427751
 10
10.6851325873
 20
21.1538340155
 10
10.620082911
 20
21.2063721981
 10
10.5498850719
 20
21.2518818427
 10
10.4753079375
 20
21.289864445
 10
10.397168377
 20
21.3199039345
 10
10.3163222669
 20
21.3416712579
 10
10.2336551122
 20
21.3549279743
 10
10.1500723784
 20
21.3595288554
  0
LWPOLYLINE
  5
2D5
100
AcDbEntity
  8
RACCORDO
100
AcDbPolyline
 62
7
  6
CONTINUOUS
 90
31
 70
0
 10
11.15
 20
22.0499866726
 10
11.149520361
 20
22.0683045068
 10
11.1480827556
 20
22.0865721551
 10
11.1456911199
 20
22.1047395529
 10
11.1423520049
 20
22.1227569124
 10
11.1380745582
 20
22.1405748519
 10
11.1328704981
 20
22.158144531
 10
11.1267540833
 20
22.1754177965
 10
11.1197420733
 20
22.1923473068
 10
11.1118536816
 20
22.2088866539
 10
11.103110524
 20
22.224990507
 10
11.09353656
 20
22.2406147282
 10
11.0831580257
 20
22.2557164847
 10
11.0720033628
 20
22.2702543843
 10
11.0601031411
 20
22.2841885798
 10
11.0474899743
 20
22.2974808689
 10
11.03419843
 20
22.3100948174
 10
11.020264936
 20
22.3219958502
 10
11.0057276809
 20
22.3331513373
 10
10.9906265074
 20
22.3435307
 10
10.9750028045
 20
22.3531054869
 10
10.9588993951
 20
22.3618494448
 10
10.9423604162
 20
22.3697386035
 10
10.9254311989
 20
22.3767513366
 10
10.9081581451
 20
22.3828684145
 10
10.8905885996
 20
22.3880730663
 10
10.872770719
 20
22.3923510231
 10
10.854753341
 20
22.3956905527
 10
10.8365858509
 20
22.3980824962
 10
10.8183180464
 20
22.3995202939
 10
10.8
 20
22.4
  0
LINE
  5
2D6
100
AcDbEntity
  8
RACCORDO
100
AcDbLine
 62
7
  6
CONTINUOUS
 10
11.15
 20
22.0281695031
 11
11.15
 21
22.0
  0
LINE
  5
2D7
100
AcDbEntity
  8
RACCORDO
100
AcDbLine
 62
7
  6
CONTINUOUS
 10
11.15
 20
-22.0
 11
11.15
 21
-22.0281695031
  0
LINE
  5
2D8
100
AcDbEntity
  8
ASSI
100
AcDbLine
 62
7
  6
CONTINUOUS
 10
11.15
 20
22.0
 11
11.15
 21
-22.0
  0
LWPOLYLINE
  5
2D9
100
AcDbEntity
  8
RACCORDO
100
AcDbPolyline
 62
7
  6
CONTINUOUS
 90
31
 70
0
 10
11.15
 20
-22.0499866726
 10
11.149520361
 20
-22.0683045068
 10
11.1480827556
 20
-22.0865721551
 10
11.1456911199
 20
-22.1047395529
 10
11.1423520049
 20
-22.1227569124
 10
11.1380745582
 20
-22.1405748519
 10
11.1328704981
 20
-22.158144531
 10
11.1267540833
 20
-22.1754177965
 10
11.1197420733
 20
-22.1923473068
 10
11.1118536816
 20
-22.2088866539
 10
11.103110524
 20
-22.224990507
 10
11.09353656
 20
-22.2406147282
 10
11.0831580257
 20
-22.2557164847
 10
11.0720033628
 20
-22.2702543843
 10
11.0601031411
 20
-22.2841885798
 10
11.0474899743
 20
-22.2974808689
 10
11.03419843
 20
-22.3100948174
 10
11.020264936
 20
-22.3219958502
 10
11.0057276809
 20
-22.3331513373
 10
10.9906265074
 20
-22.3435307
 10
10.9750028045
 20
-22.3531054869
 10
10.9588993951
 20
-22.3618494448
 10
10.9423604162
 20
-22.3697386035
 10
10.9254311989
 20
-22.3767513366
 10
10.9081581451
 20
-22.3828684145
 10
10.8905885996
 20
-22.3880730663
 10
10.872770719
 20
-22.3923510231
 10
10.854753341
 20
-22.3956905527
 10
10.8365858509
 20
-22.3980824962
 10
10.8183180464
 20
-22.3995202939
 10
10.8
 20
-22.4
  0
LWPOLYLINE
  5
2DA
100
AcDbEntity
  8
RACCORDO
100
AcDbPolyline
 62
253
  6
CONTINUOUS
 90
4
 70
0
 10
10.9497982383
 20
-21.2076265926
 10
10.9453994364
 20
-21.2908402819
 10
10.9322893966
 20
-21.3731185533
 10
10.921791031
 20
-21.4162700518
  0
LINE
  5
2DB
100
AcDbEntity
  8
RACCORDO
100
AcDbLine
 62
7
  6
CONTINUOUS
 10
-4.3959173652
 20
-23.7959173652
 11
-4.4
 21
-23.8
  0
LWPOLYLINE
  5
2DC
100
AcDbEntity
  8
RACCORDO
100
AcDbPolyline
 62
253
  6
CONTINUOUS
 90
16
 70
0
 10
-10.9316704891
 20
19.8413257496
 10
-10.925285543
 20
19.8383280851
 10
-10.910495078
 20
19.8353853754
 10
-10.8874558005
 20
19.8325287988
 10
-10.8564118137
 20
19.8297886209
 10
-10.8176920315
 20
19.8271938741
 10
-10.7717066938
 20
19.8247720501
 10
-10.7189430193
 20
19.8225488083
 10
-10.6599600441
 20
19.8205477042
 10
-10.5953826983
 20
19.8187899397
 10
-10.5258951849
 20
19.8172941384
 10
-10.4522337306
 20
19.8160761486
 10
-10.3751787852
 20
19.8151488751
 10
-10.2955467531
 20
19.8145221426
 10
-10.2141813431
 20
19.8142025914
 10
10.1319446292
 20
19.8141932149
  0
LINE
  5
2DD
100
AcDbEntity
  8
RACCORDO
100
AcDbLine
 62
7
  6
CONTINUOUS
 10
-4.3959173652
 20
23.7959173652
 11
-4.4
 21
23.8
  0
LINE
  5
2DE
100
AcDbEntity
  8
RACCORDO
100
AcDbLine
 62
253
  6
CONTINUOUS
 10
10.9497982383
 20
-21.2076265926
 11
11.1
 21
-20.6578369271
  0
LWPOLYLINE
  5
2DF
100
AcDbEntity
  8
RACCORDO
100
AcDbPolyline
 62
253
  6
CONTINUOUS
 90
16
 70
0
 10
10.9316704891
 20
-20.6311939686
 10
10.9252852741
 20
-20.6453193896
 10
10.9104945816
 20
-20.6592719414
 10
10.8874551196
 20
-20.6729037962
 10
10.8564109924
 20
-20.6860705239
 10
10.8176911138
 20
-20.6986326222
 10
10.7717057227
 20
-20.7104569953
 10
10.7189420364
 20
-20.7214183634
 10
10.6599590886
 20
-20.7314005903
 10
10.5953818062
 20
-20.7402979139
 10
10.5258943885
 20
-20.7480160666
 10
10.4522330579
 20
-20.7544732742
 10
10.3751782593
 20
-20.7596011225
 10
10.295546392
 20
-20.7633452819
 10
10.2141811592
 20
-20.7656660828
 10
10.1319446292
 20
-20.7665389361
  0
LINE
  5
2E0
100
AcDbEntity
  8
DRAFT
100
AcDbLine
 62
7
  6
CONTINUOUS
 10
8.3087267447
 20
-22.3869096983
 11
8.3
 21
-22.4
  0
LINE
  5
2E1
100
AcDbEntity
  8
0
100
AcDbLine
 62
7
  6
CONTINUOUS
 10
-11.15
 20
19.9536487485
 11
-11.1
 21
19.9536487485
  0
LINE
  5
2E2
100
AcDbEntity
  8
0
100
AcDbLine
 62
7
  6
CONTINUOUS
 10
11.1
 20
19.9536487485
 11
11.15
 21
19.9536487485
  0
LINE
  5
2E3
100
AcDbEntity
  8
DRAFT
100
AcDbLine
 62
7
  6
CONTINUOUS
 10
8.3
 20
22.4
 11
8.3087267447
 21
22.3869096983
  0
LINE
  5
2E4
100
AcDbEntity
  8
RACCORDO
100
AcDbLine
 62
253
  6
CONTINUOUS
 10
10.1500723783
 20
21.3595288551
 11
-10.1500723783
 21
21.3595288551
  0
LINE
  5
2E5
100
AcDbEntity
  8
0
100
AcDbLine
 62
7
  6
CONTINUOUS
 10
-11.15
 20
21.858797755
 11
-10.7647002351
 21
21.858797755
  0
LINE
  5
2E6
100
AcDbEntity
  8
0
100
AcDbLine
 62
7
  6
CONTINUOUS
 10
10.7647002378
 20
21.858797755
 11
11.15
 21
21.858797755
  0
LINE
  5
2E7
100
AcDbEntity
  8
RACCORDO
100
AcDbLine
 62
7
  6
CONTINUOUS
 10
8.3130985787
 20
-24.3869014213
 11
8.3
 21
-24.4
  0
LINE
  5
2E8
100
AcDbEntity
  8
ASSI
100
AcDbLine
 62
7
  6
CONTINUOUS
 10
-11.15
 20
22.0
 11
-10.4073577906
 21
22.0
  0
LINE
  5
2E9
100
AcDbEntity
  8
ASSI
100
AcDbLine
 62
7
  6
CONTINUOUS
 10
10.4073579204
 20
22.0
 11
11.15
 21
22.0
  0
LINE
  5
2EA
100
AcDbEntity
  8
RACCORDO
100
AcDbLine
 62
7
  6
CONTINUOUS
 10
-10.2999085759
 20
22.0073038415
 11
10.2999085759
 21
22.0073038415
  0
LINE
  5
2EB
100
AcDbEntity
  8
RACCORDO
100
AcDbLine
 62
7
  6
CONTINUOUS
 10
10.8
 20
22.3781828305
 11
-10.8
 21
22.3781828305
  0
LINE
  5
2EC
100
AcDbEntity
  8
DRAFT
100
AcDbLine
 62
7
  6
CONTINUOUS
 10
10.5912732553
 20
22.3869096983
 11
8.3087267447
 21
22.3869096983
  0
LINE
  5
2ED
100
AcDbEntity
  8
DRAFT
100
AcDbLine
 62
7
  6
CONTINUOUS
 10
-8.3087267447
 20
22.3869096983
 11
-10.5912732553
 21
22.3869096983
  0
LINE
  5
2EE
100
AcDbEntity
  8
RACCORDO
100
AcDbLine
 62
7
  6
CONTINUOUS
 10
-4.0959224421
 20
22.3912731322
 11
4.0959224421
 21
22.3912731322
  0
LINE
  5
2EF
100
AcDbEntity
  8
RACCORDO
100
AcDbLine
 62
7
  6
CONTINUOUS
 10
-10.8
 20
22.4
 11
-10.6
 21
22.4
  0
LINE
  5
2F0
100
AcDbEntity
  8
DRAFT
100
AcDbLine
 62
7
  6
CONTINUOUS
 10
-8.3
 20
22.4
 11
-4.4
 21
22.4
  0
LINE
  5
2F1
100
AcDbEntity
  8
DRAFT
100
AcDbLine
 62
7
  6
CONTINUOUS
 10
4.4
 20
22.4
 11
8.3
 21
22.4
  0
LINE
  5
2F2
100
AcDbEntity
  8
RACCORDO
100
AcDbLine
 62
7
  6
CONTINUOUS
 10
10.6
 20
22.4
 11
10.8
 21
22.4
  0
LINE
  5
2F3
100
AcDbEntity
  8
DRAFT
100
AcDbLine
 62
7
  6
CONTINUOUS
 10
10.5912732553
 20
23.1226497308
 11
8.3087267447
 21
23.1226497308
  0
LINE
  5
2F4
100
AcDbEntity
  8
DRAFT
100
AcDbLine
 62
7
  6
CONTINUOUS
 10
-8.3087267447
 20
23.1226497308
 11
-10.5912732553
 21
23.1226497308
  0
LINE
  5
2F5
100
AcDbEntity
  8
RACCORDO
100
AcDbLine
 62
253
  6
CONTINUOUS
 10
-10.5861826542
 20
23.6278312164
 11
-8.3138173458
 21
23.6278312164
  0
LINE
  5
2F6
100
AcDbEntity
  8
RACCORDO
100
AcDbLine
 62
253
  6
CONTINUOUS
 10
8.3138173458
 20
23.6278312164
 11
10.5861826542
 21
23.6278312164
  0
LINE
  5
2F7
100
AcDbEntity
  8
RACCORDO
100
AcDbLine
 62
7
  6
CONTINUOUS
 10
-4.0959224421
 20
23.7941821702
 11
4.0959224421
 21
23.7941821702
  0
LINE
  5
2F8
100
AcDbEntity
  8
DRAFT
100
AcDbLine
 62
7
  6
CONTINUOUS
 10
-4.4
 20
23.8
 11
4.4
 21
23.8
  0
LINE
  5
2F9
100
AcDbEntity
  8
RACCORDO
100
AcDbLine
 62
7
  6
CONTINUOUS
 10
8.3130985787
 20
24.3869014213
 11
8.3
 21
24.4
  0
LINE
  5
2FA
100
AcDbEntity
  8
RACCORDO
100
AcDbLine
 62
253
  6
CONTINUOUS
 10
-10.5854554255
 20
23.8443375673
 11
-8.3145445745
 21
23.8443375673
  0
LINE
  5
2FB
100
AcDbEntity
  8
RACCORDO
100
AcDbLine
 62
253
  6
CONTINUOUS
 10
8.3145445745
 20
23.8443375673
 11
10.5854554255
 21
23.8443375673
  0
LINE
  5
2FC
100
AcDbEntity
  8
RACCORDO
100
AcDbLine
 62
253
  6
CONTINUOUS
 10
10.5854554255
 20
24.1369056521
 11
8.3145445745
 21
24.1369056521
  0
LINE
  5
2FD
100
AcDbEntity
  8
RACCORDO
100
AcDbLine
 62
253
  6
CONTINUOUS
 10
-8.3145445745
 20
24.1369056521
 11
-10.5854554255
 21
24.1369056521
  0
LINE
  5
2FE
100
AcDbEntity
  8
RACCORDO
100
AcDbLine
 62
253
  6
CONTINUOUS
 10
10.5869014213
 20
24.3869014213
 11
8.3130985787
 21
24.3869014213
  0
LINE
  5
2FF
100
AcDbEntity
  8
RACCORDO
100
AcDbLine
 62
253
  6
CONTINUOUS
 10
-8.3130985787
 20
24.3869014213
 11
-10.5869014213
 21
24.3869014213
  0
LINE
  5
300
100
AcDbEntity
  8
DRAFT
100
AcDbLine
 62
7
  6
CONTINUOUS
 10
-10.6
 20
24.4
 11
-8.3
 21
24.4
  0
LINE
  5
301
100
AcDbEntity
  8
DRAFT
100
AcDbLine
 62
7
  6
CONTINUOUS
 10
8.3
 20
24.4
 11
10.6
 21
24.4
  0
LINE
  5
302
100
AcDbEntity
  8
RACCORDO
100
AcDbLine
 62
7
  6
CONTINUOUS
 10
-45.1971216151
 20
23.6278312164
 11
-45.9471216151
 21
23.1948185145
  0
LINE
  5
303
100
AcDbEntity
  8
RACCORDO
100
AcDbLine
 62
7
  6
CONTINUOUS
 10
-46.0721216151
 20
-24.4
 11
-45.3206671823
 21
-24.395628166
  0
LINE
  5
304
100
AcDbEntity
  8
RACCORDO
100
AcDbLine
 62
7
  6
CONTINUOUS
 10
-38.0721216151
 20
-23.7534573615
 11
-45.0772179373
 21
-23.7942118197
  0
LINE
  5
305
100
AcDbEntity
  8
RACCORDO
100
AcDbLine
 62
7
  6
CONTINUOUS
 10
-48.3235760479
 20
-24.3869014213
 11
-46.0721216151
 21
-24.4
  0
LINE
  5
306
100
AcDbEntity
  8
RACCORDO
100
AcDbLine
 62
7
  6
CONTINUOUS
 10
-45.9471216151
 20
-23.1948185145
 11
-45.1971216151
 21
-23.6278312164
  0
LINE
  5
307
100
AcDbEntity
  8
ASSI
100
AcDbLine
 62
7
  6
CONTINUOUS
 10
-47.4221216151
 20
-21.858797755
 11
-48.5721216151
 21
-22.0
  0
LINE
  5
308
100
AcDbEntity
  8
RACCORDO
100
AcDbLine
 62
7
  6
CONTINUOUS
 10
-53.5485790687
 20
-22.0017545624
 11
-47.85269167
 21
-21.4533029861
  0
LINE
  5
309
100
AcDbEntity
  8
RACCORDO
100
AcDbLine
 62
7
  6
CONTINUOUS
 10
-46.0721216151
 20
-22.4
 11
-36.0633950796
 21
-22.3126551668
  0
LINE
  5
30A
100
AcDbEntity
  8
RACCORDO
100
AcDbLine
 62
253
  6
CONTINUOUS
 10
-45.0721216151
 20
-22.303393743
 11
-35.6542630538
 21
-22.2212053365
  0
LINE
  5
30B
100
AcDbEntity
  8
RACCORDO
100
AcDbLine
 62
253
  6
CONTINUOUS
 10
-46.0721216151
 20
-22.0499866726
 11
-45.0721216151
 21
-22.0412598048
  0
LINE
  5
30C
100
AcDbEntity
  8
RACCORDO
100
AcDbLine
 62
253
  6
CONTINUOUS
 10
-45.0721216151
 20
-21.2
 11
-35.3668858932
 21
-21.2
  0
LINE
  5
30D
100
AcDbEntity
  8
RACCORDO
100
AcDbLine
 62
7
  6
CONTINUOUS
 10
-45.0721216151
 20
-20.9
 11
-35.0721216151
 21
-20.9
  0
LINE
  5
30E
100
AcDbEntity
  8
218
100
AcDbLine
 62
7
  6
CONTINUOUS
 10
-45.0721216151
 20
-20.85
 11
-35.0721216151
 21
-20.85
  0
LINE
  5
30F
100
AcDbEntity
  8
RACCORDO
100
AcDbLine
 62
7
  6
CONTINUOUS
 10
-48.5721216151
 20
-22.3781828305
 11
-46.0721216151
 21
-22.4
  0
LINE
  5
310
100
AcDbEntity
  8
RACCORDO
100
AcDbLine
 62
253
  6
CONTINUOUS
 10
-48.5721216151
 20
-22.0281695031
 11
-46.0721216151
 21
-22.0499866726
  0
LINE
  5
311
100
AcDbEntity
  8
RACCORDO
100
AcDbLine
 62
253
  6
CONTINUOUS
 10
-45.0721216151
 20
-21.4879136641
 11
-35.15628794
 21
-21.6609951847
  0
LINE
  5
312
100
AcDbEntity
  8
RACCORDO
100
AcDbLine
 62
253
  6
CONTINUOUS
 10
-45.0721216151
 20
-21.2756902398
 11
-35.3668858932
 21
-21.4450957595
  0
LINE
  5
313
100
AcDbEntity
  8
DRAFT
100
AcDbLine
 62
7
  6
CONTINUOUS
 10
-48.0199372112
 20
-19.8620679535
 11
-47.4408396792
 21
-19.8012023503
  0
LINE
  5
314
100
AcDbEntity
  8
RACCORDO
100
AcDbLine
 62
253
  6
CONTINUOUS
 10
-53.6460825093
 20
-21.2076265926
 11
-47.9362985218
 21
-20.6578369271
  0
LWPOLYLINE
  5
315
100
AcDbEntity
  8
218
100
AcDbPolyline
 62
253
  6
CONTINUOUS
 90
58
 70
0
 10
-33.7546692087
 20
-19.2951343418
 10
-33.7274315796
 20
-19.2945355681
 10
-33.7002271376
 20
-19.2934122177
 10
-33.6730760849
 20
-19.2917651246
 10
-33.6459985838
 20
-19.2895955122
 10
-33.6190147425
 20
-19.2869049916
 10
-33.5921445992
 20
-19.2836955607
 10
-33.5654081077
 20
-19.2799696029
 10
-33.5388251229
 20
-19.2757298851
 10
-33.5124153853
 20
-19.2709795557
 10
-33.486198507
 20
-19.2657221425
 10
-33.4601939568
 20
-19.2599615494
 10
-33.4344210458
 20
-19.2537020545
 10
-33.408898913
 20
-19.246948306
 10
-33.3836465114
 20
-19.2397053194
 10
-33.3586825936
 20
-19.2319784732
 10
-33.3340256979
 20
-19.2237735055
 10
-33.3096941346
 20
-19.2150965093
 10
-33.2857059725
 20
-19.2059539283
 10
-33.2620790253
 20
-19.1963525517
 10
-33.2388308386
 20
-19.1862995096
 10
-33.2159786765
 20
-19.1758022675
 10
-33.1935395092
 20
-19.1648686206
 10
-33.1715300002
 20
-19.1535066884
 10
-33.1499664938
 20
-19.1417249082
 10
-33.1288650033
 20
-19.1295320293
 10
-33.1082411986
 20
-19.1169371061
 10
-33.0881103951
 20
-19.1039494919
 10
-33.0684875422
 20
-19.0905788311
 10
-33.0493872118
 20
-19.0768350529
 10
-33.0308235879
 20
-19.0627283637
 10
-33.012810456
 20
-19.0482692389
 10
-32.9953611928
 20
-19.0334684161
 10
-32.9784887561
 20
-19.0183368865
 10
-32.9622056755
 20
-19.0028858868
 10
-32.946524043
 20
-18.987126891
 10
-32.9314555038
 20
-18.9710716018
 10
-32.9170112478
 20
-18.954731942
 10
-32.9032020015
 20
-18.9381200455
 10
-32.8900380197
 20
-18.9212482483
 10
-32.877529078
 20
-18.9041290796
 10
-32.8656844656
 20
-18.8867752521
 10
-32.8545129785
 20
-18.869199653
 10
-32.8440229126
 20
-18.8514153338
 10
-32.8342220578
 20
-18.8334355015
 10
-32.8251176925
 20
-18.8152735078
 10
-32.8167165774
 20
-18.79694284
 10
-32.8090249514
 20
-18.7784571106
 10
-32.8020485263
 20
-18.7598300471
 10
-32.7957924827
 20
-18.7410754821
 10
-32.7902614666
 20
-18.7222073429
 10
-32.7854595852
 20
-18.703239641
 10
-32.7813904044
 20
-18.6841864619
 10
-32.7780569461
 20
-18.6650619547
 10
-32.7754616857
 20
-18.6458803213
 10
-32.7736065504
 20
-18.6266558061
 10
-32.7724929179
 20
-18.6074026853
 10
-32.7721216151
 20
-18.5881352564
  0
LWPOLYLINE
  5
316
100
AcDbEntity
  8
218
100
AcDbPolyline
 62
253
  6
CONTINUOUS
 90
58
 70
0
 10
-33.7546692087
 20
-19.0038706282
 10
-33.7274315795
 20
-19.0032718545
 10
-33.7002271374
 20
-19.002148504
 10
-33.6730760845
 20
-19.000501411
 10
-33.6459985833
 20
-18.9983317985
 10
-33.6190147419
 20
-18.9956412779
 10
-33.5921445984
 20
-18.9924318469
 10
-33.5654081069
 20
-18.9887058891
 10
-33.5388251219
 20
-18.9844661713
 10
-33.5124153842
 20
-18.9797158419
 10
-33.4861985058
 20
-18.9744584285
 10
-33.4601939555
 20
-18.9686978355
 10
-33.4344210444
 20
-18.9624383405
 10
-33.4088989116
 20
-18.955684592
 10
-33.3836465099
 20
-18.9484416052
 10
-33.358682592
 20
-18.940714759
 10
-33.3340256962
 20
-18.9325097912
 10
-33.3096941329
 20
-18.923832795
 10
-33.2857059708
 20
-18.9146902139
 10
-33.2620790235
 20
-18.9050888373
 10
-33.2388308368
 20
-18.8950357952
 10
-33.2159786747
 20
-18.884538553
 10
-33.1935395074
 20
-18.873604906
 10
-33.1715299983
 20
-18.8622429737
 10
-33.1499664919
 20
-18.8504611934
 10
-33.1288650014
 20
-18.8382683145
 10
-33.1082411967
 20
-18.8256733913
 10
-33.0881103933
 20
-18.812685777
 10
-33.0684875404
 20
-18.7993151161
 10
-33.04938721
 20
-18.785571338
 10
-33.0308235862
 20
-18.7714646486
 10
-33.0128104543
 20
-18.7570055239
 10
-32.9953611912
 20
-18.7422047011
 10
-32.9784887545
 20
-18.7270731714
 10
-32.962205674
 20
-18.7116221717
 10
-32.9465240416
 20
-18.6958631759
 10
-32.9314555024
 20
-18.6798078867
 10
-32.9170112465
 20
-18.6634682268
 10
-32.9032020003
 20
-18.6468563303
 10
-32.8900380186
 20
-18.6299845331
 10
-32.877529077
 20
-18.6128653644
 10
-32.8656844647
 20
-18.595511537
 10
-32.8545129776
 20
-18.5779359379
 10
-32.8440229118
 20
-18.5601516188
 10
-32.8342220571
 20
-18.5421717865
 10
-32.8251176919
 20
-18.5240097929
 10
-32.8167165769
 20
-18.5056791252
 10
-32.809024951
 20
-18.4871933958
 10
-32.8020485259
 20
-18.4685663324
 10
-32.7957924824
 20
-18.4498117675
 10
-32.7902614663
 20
-18.4309436283
 10
-32.785459585
 20
-18.4119759265
 10
-32.7813904043
 20
-18.3929227476
 10
-32.778056946
 20
-18.3737982405
 10
-32.7754616856
 20
-18.3546166072
 10
-32.7736065503
 20
-18.3353920921
 10
-32.7724929178
 20
-18.3161389715
 10
-32.7721216151
 20
-18.2968715428
  0
LINE
  5
317
100
AcDbEntity
  8
218
100
AcDbLine
 62
7
  6
CONTINUOUS
 10
-33.7546692087
 20
-19.5879829516
 11
-35.0721216151
 21
-19.6109791689
  0
LINE
  5
318
100
AcDbEntity
  8
218
100
AcDbLine
 62
253
  6
CONTINUOUS
 10
-33.7546692087
 20
-19.2951343418
 11
-35.0721216151
 21
-19.3181305591
  0
LINE
  5
319
100
AcDbEntity
  8
218
100
AcDbLine
 62
253
  6
CONTINUOUS
 10
-45.0721216151
 20
-19.0856972195
 11
-33.7546692087
 21
-19.0038706282
  0
LINE
  5
31A
100
AcDbEntity
  8
RACCORDO
100
AcDbLine
 62
7
  6
CONTINUOUS
 10
-47.6151210639
 20
-18.3817943769
 11
-48.1765502321
 21
-18.3719945943
  0
LINE
  5
31B
100
AcDbEntity
  8
RACCORDO
100
AcDbLine
 62
7
  6
CONTINUOUS
 10
-47.5780766627
 20
-18.6834968137
 11
-48.1453713671
 21
-18.6686416791
  0
LWPOLYLINE
  5
31C
100
AcDbEntity
  8
RACCORDO
100
AcDbPolyline
 62
253
  6
CONTINUOUS
 90
13
 70
0
 10
-58.6565852856
 20
19.8413257496
 10
-58.5129124135
 20
16.4497612657
 10
-58.3308409991
 20
13.0609108675
 10
-58.1103710425
 20
9.674774555
 10
-57.8514642363
 20
6.290915761
 10
-57.5541588879
 20
2.9097710528
 10
-57.2185699192
 20
-0.4673498684
 10
-56.8446822257
 20
-3.8404460832
 10
-56.4325109121
 20
-7.209518511
 10
-55.9822162142
 20
-10.5732602078
 10
-55.4938515441
 20
-13.9312355257
 10
-54.9673634898
 20
-17.2838801126
 10
-54.4027520514
 20
-20.6311939686
  0
LWPOLYLINE
  5
31D
100
AcDbEntity
  8
RACCORDO
100
AcDbPolyline
 62
253
  6
CONTINUOUS
 90
3
 70
0
 10
-55.153392359
 20
-20.7633452819
 10
-55.1658477889
 20
-20.7656660828
 10
-55.1699974269
 20
-20.7665389361
  0
LINE
  5
31E
100
AcDbEntity
  8
RACCORDO
100
AcDbLine
 62
253
  6
CONTINUOUS
 10
-55.1041785889
 20
-20.7544732742
 11
-55.153392359
 21
-20.7633452819
  0
LINE
  5
31F
100
AcDbEntity
  8
RACCORDO
100
AcDbLine
 62
253
  6
CONTINUOUS
 10
-55.0244362806
 20
-20.7402979139
 11
-55.1041785889
 21
-20.7544732742
  0
LINE
  5
320
100
AcDbEntity
  8
RACCORDO
100
AcDbLine
 62
253
  6
CONTINUOUS
 10
-54.8552736757
 20
-20.7104569953
 11
-55.0244362806
 21
-20.7402979139
  0
LINE
  5
321
100
AcDbEntity
  8
RACCORDO
100
AcDbLine
 62
253
  6
CONTINUOUS
 10
-54.5634199966
 20
-20.6592719414
 11
-54.8552736757
 21
-20.7104569953
  0
LINE
  5
322
100
AcDbEntity
  8
RACCORDO
100
AcDbLine
 62
253
  6
CONTINUOUS
 10
-54.4027520514
 20
-20.6311939686
 11
-54.5634199966
 21
-20.6592719414
  0
LINE
  5
323
100
AcDbEntity
  8
218
100
AcDbLine
 62
253
  6
CONTINUOUS
 10
-45.0721216151
 20
-17.6716990487
 11
-33.7546692087
 21
-17.5898724574
  0
LINE
  5
324
100
AcDbEntity
  8
218
100
AcDbLine
 62
253
  6
CONTINUOUS
 10
-33.7546692087
 20
-17.5898724574
 11
-32.7721216151
 21
-17.5898724574
  0
LINE
  5
325
100
AcDbEntity
  8
218
100
AcDbLine
 62
7
  6
CONTINUOUS
 10
-32.7721216151
 20
-18.2442501721
 11
-32.7849437769
 21
-18.2441382748
  0
LINE
  5
326
100
AcDbEntity
  8
RACCORDO
100
AcDbLine
 62
253
  6
CONTINUOUS
 10
-47.7381506026
 20
-17.3797991932
 11
-48.2818316088
 21
-17.3703092059
  0
LWPOLYLINE
  5
327
100
AcDbEntity
  8
RACCORDO
100
AcDbPolyline
 62
253
  6
CONTINUOUS
 90
22
 70
0
 10
-54.4027520514
 20
-20.6311939686
 10
-54.3923925274
 20
-20.6800732733
 10
-54.3787445087
 20
-20.7276926081
 10
-54.3618079951
 20
-20.7740519729
 10
-54.3414618039
 20
-20.8193939515
 10
-54.3178271179
 20
-20.8634759603
 10
-54.2912674856
 20
-20.905570248
 10
-54.2617389412
 20
-20.9456290672
 10
-54.2292854505
 20
-20.9837001654
 10
-54.1944024593
 20
-21.0191990344
 10
-54.157059255
 20
-21.0520809028
 10
-54.1172865502
 20
-21.0823905419
 10
-54.0756719293
 20
-21.1096777574
 10
-54.0321773406
 20
-21.1339018967
 10
-53.9868408358
 20
-21.1551036124
 10
-53.940364154
 20
-21.1729546679
 10
-53.892717553
 20
-21.1873980242
 10
-53.8439307749
 20
-21.1984907203
 10
-53.794794785
 20
-21.2060756371
 10
-53.7455732383
 20
-21.2101004015
 10
-53.6960024797
 20
-21.2106173867
 10
-53.6460825093
 20
-21.2076265926
  0
LWPOLYLINE
  5
328
100
AcDbEntity
  8
RACCORDO
100
AcDbPolyline
 62
253
  6
CONTINUOUS
 90
16
 70
0
 10
-53.6460825093
 20
-21.2076265926
 10
-53.6379542273
 20
-21.2908402819
 10
-53.6296868577
 20
-21.3731185533
 10
-53.6213709532
 20
-21.453560211
 10
-53.6130975981
 20
-21.5312841754
 10
-53.6049574106
 20
-21.6054391339
 10
-53.5970395505
 20
-21.6752128653
 10
-53.5894307423
 20
-21.7398411362
 10
-53.5822143254
 20
-21.7986160714
 10
-53.5754693414
 20
-21.8508939075
 10
-53.5692696684
 20
-21.8961020441
 10
-53.5636832115
 20
-21.9337453153
 10
-53.5587711595
 20
-21.9634114134
 10
-53.5545873142
 20
-21.9847754048
 10
-53.5511775013
 20
-21.9976032892
 10
-53.5485790687
 20
-22.0017545624
  0
LINE
  5
329
100
AcDbEntity
  8
DRAFT
100
AcDbLine
 62
7
  6
CONTINUOUS
 10
-51.3737993878
 20
21.614571357
 11
-51.6569920821
 21
20.4787474979
  0
LINE
  5
32A
100
AcDbEntity
  8
218
100
AcDbLine
 62
253
  6
CONTINUOUS
 10
-39.5886291269
 20
16.0
 11
-42.4877468258
 21
14.991935
  0
LINE
  5
32B
100
AcDbEntity
  8
218
100
AcDbLine
 62
253
  6
CONTINUOUS
 10
-40.2030809162
 20
15.164584
 11
-39.5886291269
 21
15.373574
  0
LINE
  5
32C
100
AcDbEntity
  8
218
100
AcDbLine
 62
253
  6
CONTINUOUS
 10
-41.9335916654
 20
14.606449
 11
-40.6848671259
 21
15.007869
  0
LWPOLYLINE
  5
32D
100
AcDbEntity
  8
RACCORDO
100
AcDbPolyline
 62
253
  6
CONTINUOUS
 90
16
 70
0
 10
-58.03629787
 20
20.5624823816
 10
-58.0456482104
 20
20.6455667001
 10
-58.0546680416
 20
20.7277651313
 10
-58.0632585691
 20
20.8081773633
 10
-58.0713256998
 20
20.8859226434
 10
-58.078781072
 20
20.9601494165
 10
-58.0855430235
 20
21.0300446538
 10
-58.0915374873
 20
21.0948427751
 10
-58.096698802
 20
21.1538340155
 10
-58.1009704301
 20
21.2063721981
 10
-58.1043055805
 20
21.2518818427
 10
-58.1066677188
 20
21.289864445
 10
-58.1080309682
 20
21.3199039345
 10
-58.1083803938
 20
21.3416712579
 10
-58.1077121656
 20
21.3549279743
 10
-58.1060335997
 20
21.3595288554
  0
LINE
  5
32E
100
AcDbEntity
  8
218
100
AcDbLine
 62
253
  6
CONTINUOUS
 10
-42.487883784
 20
-13.171006
 11
-39.5886291269
 21
-13.171014
  0
LINE
  5
32F
100
AcDbEntity
  8
218
100
AcDbLine
 62
253
  6
CONTINUOUS
 10
-39.5886361248
 20
-12.590992
 11
-42.487883784
 21
-12.590985
  0
LINE
  5
330
100
AcDbEntity
  8
218
100
AcDbLine
 62
253
  6
CONTINUOUS
 10
-42.487883784
 20
-14.137714
 11
-40.4915950119
 21
-14.778839
  0
LINE
  5
331
100
AcDbEntity
  8
218
100
AcDbLine
 62
253
  6
CONTINUOUS
 10
-39.5886361248
 20
-14.488824
 11
-42.487883784
 21
-13.557685
  0
LWPOLYLINE
  5
332
100
AcDbEntity
  8
RACCORDO
100
AcDbPolyline
 62
7
  6
CONTINUOUS
 90
6
 70
0
 10
-35.1536500175
 20
21.6637626605
 10
-35.1510619981
 20
21.6665474971
 10
-35.1485238818
 20
21.6693496943
 10
-35.1460356686
 20
21.6721692523
 10
-35.1435973584
 20
21.675006171
 10
-35.1412089513
 20
21.6778604504
  0
LINE
  5
333
100
AcDbEntity
  8
RACCORDO
100
AcDbLine
 62
7
  6
CONTINUOUS
 10
-35.1536500175
 20
21.6637626605
 11
-35.1685417558
 21
21.6482000547
  0
LINE
  5
334
100
AcDbEntity
  8
RACCORDO
100
AcDbLine
 62
7
  6
CONTINUOUS
 10
-35.1685417558
 20
21.6482000547
 11
-35.2352779753
 21
21.5795859582
  0
LINE
  5
335
100
AcDbEntity
  8
RACCORDO
100
AcDbLine
 62
7
  6
CONTINUOUS
 10
-35.2352779753
 20
21.5795859582
 11
-35.3074386328
 21
21.5056938008
  0
LINE
  5
336
100
AcDbEntity
  8
RACCORDO
100
AcDbLine
 62
7
  6
CONTINUOUS
 10
-35.3074386328
 20
21.5056938008
 11
-35.3668858932
 21
21.4450957595
  0
LINE
  5
337
100
AcDbEntity
  8
218
100
AcDbLine
 62
253
  6
CONTINUOUS
 10
-37.8179881264
 20
13.0660713927
 11
-37.546600911
 21
13.216714178
  0
LINE
  5
338
100
AcDbEntity
  8
218
100
AcDbLine
 62
253
  6
CONTINUOUS
 10
-42.4877468258
 20
11.216139
 11
-40.1903328003
 21
12.328754
  0
LINE
  5
339
100
AcDbEntity
  8
218
100
AcDbLine
 62
253
  6
CONTINUOUS
 10
-39.5886291269
 20
12.027546
 11
-42.0149938638
 21
10.87477
  0
LINE
  5
33A
100
AcDbEntity
  8
218
100
AcDbLine
 62
253
  6
CONTINUOUS
 10
-42.487883784
 20
-12.010985
 11
-39.5886361248
 21
-12.010985
  0
LINE
  5
33B
100
AcDbEntity
  8
218
100
AcDbLine
 62
253
  6
CONTINUOUS
 10
-39.5886361248
 20
-11.430963
 11
-41.5004956208
 21
-11.430963
  0
LINE
  5
33C
100
AcDbEntity
  8
218
100
AcDbLine
 62
253
  6
CONTINUOUS
 10
-42.487883784
 20
-10.051012
 11
-40.5997900471
 21
-10.59258
  0
LINE
  5
33D
100
AcDbEntity
  8
RACCORDO
100
AcDbLine
 62
7
  6
CONTINUOUS
 10
-35.3074386328
 20
-21.5056938008
 11
-35.3520011747
 21
-21.4603167466
  0
LINE
  5
33E
100
AcDbEntity
  8
RACCORDO
100
AcDbLine
 62
7
  6
CONTINUOUS
 10
-35.3520011747
 20
-21.4603167466
 11
-35.3668858932
 21
-21.4450957595
  0
LINE
  5
33F
100
AcDbEntity
  8
RACCORDO
100
AcDbLine
 62
7
  6
CONTINUOUS
 10
-35.1685417558
 20
-21.6482000547
 11
-35.2077339367
 21
-21.6079244404
  0
LINE
  5
340
100
AcDbEntity
  8
RACCORDO
100
AcDbLine
 62
7
  6
CONTINUOUS
 10
-35.2077339367
 20
-21.6079244404
 11
-35.3074386328
 21
-21.5056938008
  0
LWPOLYLINE
  5
341
100
AcDbEntity
  8
RACCORDO
100
AcDbPolyline
 62
7
  6
CONTINUOUS
 90
7
 70
0
 10
-35.1685417558
 20
-21.6482000547
 10
-35.1536500175
 20
-21.6637626605
 10
-35.1510619981
 20
-21.6665474971
 10
-35.1485238818
 20
-21.6693496943
 10
-35.1460356686
 20
-21.6721692523
 10
-35.1435973584
 20
-21.675006171
 10
-35.1412089513
 20
-21.6778604504
  0
LINE
  5
342
100
AcDbEntity
  8
RACCORDO
100
AcDbLine
 62
7
  6
CONTINUOUS
 10
-47.85269167
 20
-21.4533029861
 11
-52.4205855148
 21
22.0073038415
  0
LINE
  5
343
100
AcDbEntity
  8
RACCORDO
100
AcDbLine
 62
7
  6
CONTINUOUS
 10
-50.7484341265
 20
20.4480044606
 11
-50.8765384401
 21
21.6668355887
  0
LINE
  5
344
100
AcDbEntity
  8
RACCORDO
100
AcDbLine
 62
7
  6
CONTINUOUS
 10
-48.5721216151
 20
24.1369056521
 11
-48.5721216151
 21
23.8443375673
  0
LINE
  5
345
100
AcDbEntity
  8
RACCORDO
100
AcDbLine
 62
7
  6
CONTINUOUS
 10
-48.5721216151
 20
-22.0
 11
-48.5721216151
 21
-22.3781828305
  0
LINE
  5
346
100
AcDbEntity
  8
RACCORDO
100
AcDbLine
 62
7
  6
CONTINUOUS
 10
-48.5721216151
 20
-23.8443375673
 11
-48.5721216151
 21
-24.1369056521
  0
LINE
  5
347
100
AcDbEntity
  8
RACCORDO
100
AcDbLine
 62
7
  6
CONTINUOUS
 10
-48.5721216151
 20
22.0
 11
-48.5721216151
 21
22.3781828305
  0
LINE
  5
348
100
AcDbEntity
  8
ASSI
100
AcDbLine
 62
7
  6
CONTINUOUS
 10
-47.4221216151
 20
19.9536487485
 11
-49.8721216151
 21
0.0
  0
LINE
  5
349
100
AcDbEntity
  8
218
100
AcDbLine
 62
253
  6
CONTINUOUS
 10
-37.0038264237
 20
15.9282855706
 11
-37.2752136957
 21
15.627
  0
LINE
  5
34A
100
AcDbEntity
  8
218
100
AcDbLine
 62
7
  6
CONTINUOUS
 10
-42.4013742992
 20
10.292325
 11
-41.8189292992
 21
10.87477
  0
LINE
  5
34B
100
AcDbEntity
  8
218
100
AcDbLine
 62
7
  6
CONTINUOUS
 10
-41.641463436
 20
11.0522358632
 11
-40.5289195102
 21
12.1647797889
  0
LINE
  5
34C
100
AcDbEntity
  8
218
100
AcDbLine
 62
7
  6
CONTINUOUS
 10
-40.3649452992
 20
12.328754
 11
-39.7825012992
 21
12.911198
  0
LINE
  5
34D
100
AcDbEntity
  8
218
100
AcDbLine
 62
253
  6
CONTINUOUS
 10
-37.8179881264
 20
15.8780714765
 11
-38.0893753418
 21
15.627
  0
LINE
  5
34E
100
AcDbEntity
  8
218
100
AcDbLine
 62
253
  6
CONTINUOUS
 10
-36.4610519646
 20
12.3128572147
 11
-36.7324392083
 21
12.162214178
  0
LINE
  5
34F
100
AcDbEntity
  8
218
100
AcDbLine
 62
253
  6
CONTINUOUS
 10
-39.5886291269
 20
9.975074
 11
-42.4877468258
 21
8.9669
  0
LINE
  5
350
100
AcDbEntity
  8
218
100
AcDbLine
 62
253
  6
CONTINUOUS
 10
-40.2030809162
 20
9.139549
 11
-39.5886291269
 21
9.348431
  0
LINE
  5
351
100
AcDbEntity
  8
218
100
AcDbLine
 62
253
  6
CONTINUOUS
 10
-41.9337556154
 20
8.581471
 11
-40.6848671259
 21
8.982943
  0
LWPOLYLINE
  5
352
100
AcDbEntity
  8
218
100
AcDbPolyline
 62
253
  6
CONTINUOUS
 90
49
 70
0
 10
-32.2809961274
 20
-9.126582904
 10
-32.2971636786
 20
-9.1271315536
 10
-32.3133050167
 20
-9.1282028516
 10
-32.3294032458
 20
-9.1297956765
 10
-32.3454415146
 20
-9.131908361
 10
-32.361403035
 20
-9.1345386937
 10
-32.3772710989
 20
-9.1376839213
 10
-32.3930290963
 20
-9.1413407513
 10
-32.4086605323
 20
-9.145505356
 10
-32.4241490444
 20
-9.150173376
 10
-32.4394784198
 20
-9.1553399249
 10
-32.4546326123
 20
-9.1609995948
 10
-32.469595759
 20
-9.1671464611
 10
-32.4843521969
 20
-9.1737740895
 10
-32.4988864797
 20
-9.1808755426
 10
-32.5131833933
 20
-9.1884433868
 10
-32.5272279723
 20
-9.1964697002
 10
-32.5410055152
 20
-9.2049460813
 10
-32.5545016003
 20
-9.2138636573
 10
-32.5677021003
 20
-9.2232130936
 10
-32.5805931974
 20
-9.2329846035
 10
-32.5931613976
 20
-9.2431679586
 10
-32.6053935451
 20
-9.2537524993
 10
-32.6172768357
 20
-9.264727146
 10
-32.6287988303
 20
-9.276080411
 10
-32.6399474681
 20
-9.2878004099
 10
-32.6507110792
 20
-9.2998748748
 10
-32.6610783965
 20
-9.3122911665
 10
-32.671038568
 20
-9.3250362881
 10
-32.6805811677
 20
-9.3380968985
 10
-32.6896962067
 20
-9.3514593262
 10
-32.6983741438
 20
-9.365109584
 10
-32.7066058952
 20
-9.3790333833
 10
-32.7143828441
 20
-9.3932161491
 10
-32.72169685
 20
-9.4076430354
 10
-32.7285402569
 20
-9.4222989407
 10
-32.7349059012
 20
-9.4371685237
 10
-32.7407871196
 20
-9.4522362194
 10
-32.746177756
 20
-9.4674862555
 10
-32.7510721676
 20
-9.4829026689
 10
-32.755465231
 20
-9.4984693221
 10
-32.7593523478
 20
-9.5141699206
 10
-32.7627294491
 20
-9.5299880296
 10
-32.7655929999
 20
-9.5459070912
 10
-32.7679400027
 20
-9.5619104418
 10
-32.7697680007
 20
-9.5779813299
 10
-32.7710750805
 20
-9.5941029329
 10
-32.7718598738
 20
-9.6102583753
 10
-32.7721215592
 20
-9.6264307462
  0
LINE
  5
353
100
AcDbEntity
  8
218
100
AcDbLine
 62
7
  6
CONTINUOUS
 10
-24.0546692087
 20
-8.9831390036
 11
-32.2808478183
 21
-9.1267274854
  0
LINE
  5
354
100
AcDbEntity
  8
218
100
AcDbLine
 62
253
  6
CONTINUOUS
 10
-24.0546692087
 20
-7.9832913085
 11
-33.7546692087
 21
-8.1526054383
  0
LINE
  5
355
100
AcDbEntity
  8
218
100
AcDbLine
 62
253
  6
CONTINUOUS
 10
-41.5004956208
 20
-9.754205
 11
-39.5886361248
 21
-9.754197
  0
LINE
  5
356
100
AcDbEntity
  8
218
100
AcDbLine
 62
253
  6
CONTINUOUS
 10
-39.5886361248
 20
-9.174176
 11
-42.487883784
 21
-9.174176
  0
LINE
  5
357
100
AcDbEntity
  8
218
100
AcDbLine
 62
253
  6
CONTINUOUS
 10
-39.5886441223
 20
-10.30258
 11
-41.5004956208
 21
-9.754205
  0
LINE
  5
358
100
AcDbEntity
  8
218
100
AcDbLine
 62
253
  6
CONTINUOUS
 10
-39.5886361248
 20
-8.787497
 11
-42.4878907819
 21
-7.856372
  0
LINE
  5
359
100
AcDbEntity
  8
ASSI
100
AcDbLine
 62
7
  6
CONTINUOUS
 10
-49.8721216151
 20
0.0
 11
-47.4221216151
 21
-19.9536487485
  0
LINE
  5
35A
100
AcDbEntity
  8
DRAFT
100
AcDbLine
 62
7
  6
CONTINUOUS
 10
-47.5721216151
 20
-23.1226497308
 11
-47.5721216151
 21
-22.3869096983
  0
LINE
  5
35B
100
AcDbEntity
  8
DRAFT
100
AcDbLine
 62
7
  6
CONTINUOUS
 10
-47.5721216151
 20
22.3869096983
 11
-47.5721216151
 21
23.1226497308
  0
LINE
  5
35C
100
AcDbEntity
  8
ASSI
100
AcDbLine
 62
7
  6
CONTINUOUS
 10
-47.4221216151
 20
21.858797755
 11
-47.4221216151
 21
19.9536487485
  0
LINE
  5
35D
100
AcDbEntity
  8
ASSI
100
AcDbLine
 62
7
  6
CONTINUOUS
 10
-47.4221216151
 20
-19.9536487485
 11
-47.4221216151
 21
-21.858797755
  0
LINE
  5
35E
100
AcDbEntity
  8
218
100
AcDbLine
 62
253
  6
CONTINUOUS
 10
-38.0893753418
 20
12.764785822
 11
-37.8179881264
 21
13.0660713927
  0
LWPOLYLINE
  5
35F
100
AcDbEntity
  8
218
100
AcDbPolyline
 62
253
  6
CONTINUOUS
 90
85
 70
0
 10
-24.0546692087
 20
11.07666485
 10
-24.0461953659
 20
11.0791820798
 10
-24.037687735
 20
11.0813957527
 10
-24.0291469599
 20
11.0833058687
 10
-24.0205822692
 20
11.0849176302
 10
-24.0119857604
 20
11.0862258347
 10
-24.0033324409
 20
11.0872148747
 10
-23.9946199213
 20
11.0878872964
 10
-23.9858521312
 20
11.0882405536
 10
-23.9770136721
 20
11.0882513992
 10
-23.9681027192
 20
11.0879205706
 10
-23.9591229084
 20
11.0872473304
 10
-23.9500671485
 20
11.0862062202
 10
-23.9409390185
 20
11.0847981233
 10
-23.9317370358
 20
11.0830221562
 10
-23.9224466678
 20
11.0808502107
 10
-23.9130885476
 20
11.0782927137
 10
-23.9036445066
 20
11.0753392383
 10
-23.8940423081
 20
11.0719303953
 10
-23.8842928027
 20
11.0680816384
 10
-23.8743888343
 20
11.0637775139
 10
-23.8642322813
 20
11.0589122723
 10
-23.8537932449
 20
11.0534751637
 10
-23.8431077218
 20
11.0474769379
 10
-23.8321773873
 20
11.0408440945
 10
-23.820998487
 20
11.033566514
 10
-23.8095822895
 20
11.0256543158
 10
-23.7979532228
 20
11.0170643589
 10
-23.7861175639
 20
11.0077904791
 10
-23.7740777265
 20
10.9978388404
 10
-23.761852398
 20
10.9871847938
 10
-23.7494650457
 20
10.9758417287
 10
-23.7369020738
 20
10.9637962557
 10
-23.7241274171
 20
10.9509835572
 10
-23.7111585089
 20
10.9374174018
 10
-23.6979909506
 20
10.9230840209
 10
-23.6845583313
 20
10.9078772918
 10
-23.6708665557
 20
10.8917955813
 10
-23.6569282621
 20
10.8748405225
 10
-23.6426905679
 20
10.8569108922
 10
-23.6281617049
 20
10.8379993988
 10
-23.6133588228
 20
10.8181133338
 10
-23.5982462251
 20
10.7971733488
 10
-23.5828412676
 20
10.7751758809
 10
-23.5671601556
 20
10.752124493
 10
-23.5511699949
 20
10.7279505252
 10
-23.5349038439
 20
10.7026658747
 10
-23.518372719
 20
10.6762586443
 10
-23.5015177104
 20
10.6486244823
 10
-23.4843964561
 20
10.6198043442
 10
-23.4670115991
 20
10.5897572744
 10
-23.4492360211
 20
10.5582560554
 10
-23.4310980665
 20
10.5252571963
 10
-23.412662997
 20
10.4908041879
 10
-23.3938787618
 20
10.4548002851
 10
-23.3746657819
 20
10.4169402789
 10
-23.3552417793
 20
10.3775293782
 10
-23.3359879111
 20
10.3373864657
 10
-23.3169927742
 20
10.2965924736
 10
-23.2982642112
 20
10.2550664695
 10
-23.2800206129
 20
10.2133845385
 10
-23.2622529481
 20
10.1714592249
 10
-23.2450437712
 20
10.1293779844
 10
-23.2286950635
 20
10.087979269
 10
-23.2132861628
 20
10.0475078716
 10
-23.1987247069
 20
10.0077189994
 10
-23.1850155579
 20
9.9687167258
 10
-23.1721511059
 20
9.9305123624
 10
-23.1601243721
 20
9.8930945977
 10
-23.1489362168
 20
9.8565335702
 10
-23.1385813736
 20
9.82086109
 10
-23.12904003
 20
9.7860453471
 10
-23.1202902035
 20
9.7520610502
 10
-23.1123183506
 20
9.7189057398
 10
-23.1051139579
 20
9.6865818753
 10
-23.0986615398
 20
9.6550715434
 10
-23.0929490996
 20
9.6243836832
 10
-23.0879618573
 20
9.5945093557
 10
-23.0836820136
 20
9.5654038303
 10
-23.0800970456
 20
9.5370692908
 10
-23.077193729
 20
9.5095035535
 10
-23.0749565247
 20
9.4826553361
 10
-23.0733731652
 20
9.4565075445
 10
-23.0724323733
 20
9.4310772729
 10
-23.0721216151
 20
9.4063645212
  0
LWPOLYLINE
  5
360
100
AcDbEntity
  8
218
100
AcDbPolyline
 62
7
  6
CONTINUOUS
 90
136
 70
0
 10
-23.8854750526
 20
-2.6350001476
 10
-23.7999829405
 20
-2.6142449462
 10
-23.7171962501
 20
-2.5937713524
 10
-23.6371149813
 20
-2.5735793662
 10
-23.5598184205
 20
-2.5536759546
 10
-23.4852272814
 20
-2.5340541505
 10
-23.4131037052
 20
-2.5146930529
 10
-23.3434372627
 20
-2.4955913047
 10
-23.276238383
 20
-2.476750263
 10
-23.2113004956
 20
-2.4581530984
 10
-23.1486175468
 20
-2.4397994107
 10
-23.0881955901
 20
-2.4216896
 10
-23.029846216
 20
-2.403808038
 10
-22.9735637812
 20
-2.3861543237
 10
-22.9193539289
 20
-2.368728858
 10
-22.8670451794
 20
-2.3515172151
 10
-22.8166322648
 20
-2.3345189746
 10
-22.7681204531
 20
-2.3177345568
 10
-22.7213540681
 20
-2.3011507971
 10
-22.6763282964
 20
-2.2847672759
 10
-22.6330479515
 20
-2.2685844129
 10
-22.5913717977
 20
-2.2525903022
 10
-22.5512954042
 20
-2.2367844924
 10
-22.512823202
 20
-2.2211674349
 10
-22.4758272481
 20
-2.2057285779
 10
-22.4403034465
 20
-2.1904673971
 10
-22.4062558933
 20
-2.1753844169
 10
-22.3735689345
 20
-2.1604706582
 10
-22.3422388134
 20
-2.145725485
 10
-22.3122692867
 20
-2.1311495333
 10
-22.2835559706
 20
-2.1167357325
 10
-22.2560954626
 20
-2.1024832762
 10
-22.2298911651
 20
-2.0883929708
 10
-22.2048489019
 20
-2.0744601647
 10
-22.1809656823
 20
-2.0606838105
 10
-22.1582444969
 20
-2.0470649556
 10
-22.1366001417
 20
-2.0336020902
 10
-22.1160301635
 20
-2.0202938579
 10
-22.0965370156
 20
-2.007141615
 10
-22.0780428536
 20
-1.9941479208
 10
-22.0605459358
 20
-1.9813110438
 10
-22.0440480039
 20
-1.9686327155
 10
-22.0284764396
 20
-1.9561206892
 10
-22.0138305911
 20
-1.9437730015
 10
-22.0001111102
 20
-1.9315916158
 10
-21.9872473335
 20
-1.9195901762
 10
-21.9752396385
 20
-1.9077663538
 10
-21.9640876478
 20
-1.8961224775
 10
-21.953719565
 20
-1.8846791779
 10
-21.9441374505
 20
-1.8734347838
 10
-21.935339244
 20
-1.8623909664
 10
-21.9272469688
 20
-1.8515733696
 10
-21.9198672889
 20
-1.8409897812
 10
-21.9131935403
 20
-1.8306324135
 10
-21.9071277537
 20
-1.8205035467
 10
-21.9016727229
 20
-1.8106175296
 10
-21.8968256542
 20
-1.8009600135
 10
-21.8924801964
 20
-1.7914902331
 10
-21.8886287111
 20
-1.782213993
 10
-21.8852788369
 20
-1.7731254887
 10
-21.8823471377
 20
-1.764166542
 10
-21.8798229636
 20
-1.7553358074
 10
-21.8777169646
 20
-1.7466346304
 10
-21.8759776546
 20
-1.7380088681
 10
-21.8745959859
 20
-1.7294573719
 10
-21.8735810061
 20
-1.7209812903
 10
-21.872908373
 20
-1.7125299272
 10
-21.8725699389
 20
-1.704103004
 10
-21.8725738513
 20
-1.6957007992
 10
-21.8729202104
 20
-1.6872734517
 10
-21.8736008835
 20
-1.6788211852
 10
-21.8746240033
 20
-1.670343776
 10
-21.8760140672
 20
-1.6617906912
 10
-21.8777619764
 20
-1.6531632485
 10
-21.8798768298
 20
-1.6444601301
 10
-21.8824104217
 20
-1.6356268501
 10
-21.8853517278
 20
-1.6266652834
 10
-21.8887117725
 20
-1.617573555
 10
-21.892575423
 20
-1.6082915537
 10
-21.8969352243
 20
-1.5988126852
 10
-21.9017986316
 20
-1.5891435439
 10
-21.9072728777
 20
-1.5792438017
 10
-21.9133614416
 20
-1.5690983984
 10
-21.9200608444
 20
-1.5587223942
 10
-21.9274678822
 20
-1.548120642
 10
-21.9355888923
 20
-1.5372861902
 10
-21.9444175374
 20
-1.5262259902
 10
-21.9540316018
 20
-1.5149657496
 10
-21.9644329265
 20
-1.5035073422
 10
-21.9756196704
 20
-1.4918488942
 10
-21.9876640946
 20
-1.4800104906
 10
-22.0005667799
 20
-1.4679942288
 10
-22.0143271455
 20
-1.4557980114
 10
-22.029015711
 20
-1.4434356329
 10
-22.0446317377
 20
-1.4309091352
 10
-22.0611759642
 20
-1.4182164764
 10
-22.0787211263
 20
-1.4053653235
 10
-22.0972654896
 20
-1.392357392
 10
-22.1168107883
 20
-1.3791909665
 10
-22.1374349611
 20
-1.3658685683
 10
-22.1591355393
 20
-1.3523915561
 10
-22.1819149915
 20
-1.3387585712
 10
-22.2058586621
 20
-1.324968058
 10
-22.2309635457
 20
-1.3110210644
 10
-22.2572326477
 20
-1.2969165424
 10
-22.2847603282
 20
-1.2826497926
 10
-22.3135431988
 20
-1.2682216093
 10
-22.3435846481
 20
-1.253631198
 10
-22.3749892013
 20
-1.2388714762
 10
-22.4077530048
 20
-1.2239431157
 10
-22.4418799124
 20
-1.2088454446
 10
-22.4774860104
 20
-1.1935693642
 10
-22.5145675258
 20
-1.1781152703
 10
-22.5531282317
 20
-1.1624827671
 10
-22.5932955334
 20
-1.1466615692
 10
-22.6350636917
 20
-1.1306525884
 10
-22.6784384458
 20
-1.1144549128
 10
-22.7235644184
 20
-1.0980555214
 10
-22.7704396591
 20
-1.0814538444
 10
-22.8190661182
 20
-1.0646504516
 10
-22.869594269
 20
-1.0476340312
 10
-22.9220311626
 20
-1.0304015997
 10
-22.9763697478
 20
-1.0129561407
 10
-23.032739344
 20
-0.9952952935
 10
-23.0911273505
 20
-0.9774223602
 10
-23.1515463679
 20
-0.9593340386
 10
-23.2141635171
 20
-0.9410180617
 10
-23.2789573463
 20
-0.9224790528
 10
-23.3459493072
 20
-0.9037123887
 10
-23.4153708752
 20
-0.8846919325
 10
-23.4872218004
 20
-0.8654159137
 10
-23.5615023325
 20
-0.845886103
 10
-23.638444697
 20
-0.826081675
 10
-23.7181263022
 20
-0.8059956881
 10
-23.8004697397
 20
-0.7856350841
 10
-23.8854750094
 20
-0.7649998628
  0
LWPOLYLINE
  5
361
100
AcDbEntity
  8
218
100
AcDbPolyline
 62
253
  6
CONTINUOUS
 90
17
 70
0
 10
-30.2414770106
 20
-5.999579326
 10
-29.8045979786
 20
-5.9567364372
 10
-29.3843595332
 20
-5.8298396431
 10
-28.9967684263
 20
-5.6237224033
 10
-28.6510264846
 20
-5.3406927962
 10
-28.3723962417
 20
-5.0014311158
 10
-28.1649587046
 20
-4.6145028129
 10
-28.0366151046
 20
-4.1946458665
 10
-27.9922403064
 20
-3.75
 10
-28.03507667
 20
-3.3130544191
 10
-28.1619541371
 20
-2.8927519596
 10
-28.3680399843
 20
-2.5051018116
 10
-28.6510264846
 20
-2.1593072038
 10
-28.9902364938
 20
-1.8806345177
 10
-29.3771058656
 20
-1.673165382
 10
-29.7968988658
 20
-1.5448022317
 10
-30.2414772072
 20
-1.500420674
  0
LINE
  5
362
100
AcDbEntity
  8
218
100
AcDbLine
 62
7
  6
CONTINUOUS
 10
-22.7982683379
 20
-4.7760409428
 11
-21.3459748923
 21
-4.6489817302
  0
LINE
  5
363
100
AcDbEntity
  8
218
100
AcDbLine
 62
253
  6
CONTINUOUS
 10
-24.0546692087
 20
-7.9832913085
 11
-23.0721216151
 21
-7.9832913085
  0
LINE
  5
364
100
AcDbEntity
  8
218
100
AcDbLine
 62
7
  6
CONTINUOUS
 10
-23.0721216151
 20
-7.4
 11
-22.8721216151
 21
-7.4
  0
LINE
  5
365
100
AcDbEntity
  8
218
100
AcDbLine
 62
253
  6
CONTINUOUS
 10
-33.5721216151
 20
-6.0
 11
-34.8721216151
 21
-6.0
  0
LINE
  5
366
100
AcDbEntity
  8
218
100
AcDbLine
 62
253
  6
CONTINUOUS
 10
-39.5886441223
 20
-5.958503
 11
-42.4878907819
 21
-5.958503
  0
LINE
  5
367
100
AcDbEntity
  8
218
100
AcDbLine
 62
253
  6
CONTINUOUS
 10
-41.5849248969
 20
-7.56635
 11
-40.7096525743
 21
-7.84744
  0
LINE
  5
368
100
AcDbEntity
  8
218
100
AcDbLine
 62
253
  6
CONTINUOUS
 10
-40.1587984081
 20
-8.024362
 11
-39.5886441223
 21
-8.207475
  0
LINE
  5
369
100
AcDbEntity
  8
RACCORDO
100
AcDbLine
 62
7
  6
CONTINUOUS
 10
-46.0721216151
 20
-22.0499866726
 11
-46.0721216151
 21
-24.4
  0
LINE
  5
36A
100
AcDbEntity
  8
RACCORDO
100
AcDbLine
 62
7
  6
CONTINUOUS
 10
-46.0721216151
 20
22.0499866726
 11
-46.0721216151
 21
24.4
  0
LINE
  5
36B
100
AcDbEntity
  8
RACCORDO
100
AcDbLine
 62
7
  6
CONTINUOUS
 10
-45.0721216151
 20
24.1456323968
 11
-45.0721216151
 21
23.8443375673
  0
LINE
  5
36C
100
AcDbEntity
  8
218
100
AcDbLine
 62
7
  6
CONTINUOUS
 10
-45.0721216151
 20
17.6716990487
 11
-45.0721216151
 21
-17.6716990487
  0
LINE
  5
36D
100
AcDbEntity
  8
RACCORDO
100
AcDbLine
 62
7
  6
CONTINUOUS
 10
-45.0721216151
 20
-23.8443375673
 11
-45.0721216151
 21
-24.1456323968
  0
LINE
  5
36E
100
AcDbEntity
  8
RACCORDO
100
AcDbLine
 62
7
  6
CONTINUOUS
 10
-45.0721216151
 20
-22.3912731322
 11
-45.0721216151
 21
22.3912731322
  0
LINE
  5
36F
100
AcDbEntity
  8
218
100
AcDbLine
 62
253
  6
CONTINUOUS
 10
-36.189664721
 20
12.6141427853
 11
-36.4610519646
 21
12.3128572147
  0
LINE
  5
370
100
AcDbEntity
  8
218
100
AcDbLine
 62
253
  6
CONTINUOUS
 10
-26.3928476347
 20
15.3266662741
 11
-25.8357896663
 21
15.6795232487
  0
LINE
  5
371
100
AcDbEntity
  8
218
100
AcDbLine
 62
253
  6
CONTINUOUS
 10
-34.8721216151
 20
-3.9571429014
 11
-33.5721216151
 21
-3.6785714507
  0
LINE
  5
372
100
AcDbEntity
  8
218
100
AcDbLine
 62
7
  6
CONTINUOUS
 10
-23.0721216151
 20
-5.5
 11
-22.8721216151
 21
-5.5
  0
LINE
  5
373
100
AcDbEntity
  8
218
100
AcDbLine
 62
253
  6
CONTINUOUS
 10
-41.9515321993
 20
-5.386478
 11
-41.2460181548
 21
-5.386471
  0
LINE
  5
374
100
AcDbEntity
  8
218
100
AcDbLine
 62
253
  6
CONTINUOUS
 10
-33.5721216151
 20
-5.35
 11
-34.8721216151
 21
-5.35
  0
LINE
  5
375
100
AcDbEntity
  8
RACCORDO
100
AcDbLine
 62
253
  6
CONTINUOUS
 10
-49.5609826509
 20
-5.2
 11
-49.2336418984
 21
-5.2
  0
LINE
  5
376
100
AcDbEntity
  8
RACCORDO
100
AcDbLine
 62
7
  6
CONTINUOUS
 10
-49.5820034979
 20
-5.0
 11
-49.2581988106
 21
-5.0
  0
LINE
  5
377
100
AcDbEntity
  8
218
100
AcDbLine
 62
253
  6
CONTINUOUS
 10
-34.5006930658
 20
-4.9785714507
 11
-34.6864073405
 21
-4.9785714507
  0
LINE
  5
378
100
AcDbEntity
  8
RACCORDO
100
AcDbLine
 62
253
  6
CONTINUOUS
 10
-49.603024345
 20
-4.8
 11
-49.2827557228
 21
-4.8
  0
LINE
  5
379
100
AcDbEntity
  8
218
100
AcDbLine
 62
253
  6
CONTINUOUS
 10
-33.7578359091
 20
-4.3285714507
 11
-33.9435502031
 21
-4.3285714507
  0
LINE
  5
37A
100
AcDbEntity
  8
218
100
AcDbLine
 62
253
  6
CONTINUOUS
 10
-40.7096595721
 20
-5.378409
 11
-39.5886441223
 21
-5.378474
  0
LINE
  5
37B
100
AcDbEntity
  8
218
100
AcDbLine
 62
253
  6
CONTINUOUS
 10
-42.4878907819
 20
-7.856372
 11
-42.4878907819
 21
-7.276321
  0
LINE
  5
37C
100
AcDbEntity
  8
218
100
AcDbLine
 62
253
  6
CONTINUOUS
 10
-42.4878907819
 20
-5.958503
 11
-42.4878907819
 21
-4.600288
  0
LINE
  5
37D
100
AcDbEntity
  8
218
100
AcDbLine
 62
253
  6
CONTINUOUS
 10
-42.487883784
 20
-9.174176
 11
-42.487883784
 21
-10.051012
  0
LINE
  5
37E
100
AcDbEntity
  8
218
100
AcDbLine
 62
253
  6
CONTINUOUS
 10
-42.487883784
 20
-11.134148
 11
-42.487883784
 21
-12.010985
  0
LINE
  5
37F
100
AcDbEntity
  8
218
100
AcDbLine
 62
253
  6
CONTINUOUS
 10
-42.487883784
 20
-12.590985
 11
-42.487883784
 21
-13.171006
  0
LINE
  5
380
100
AcDbEntity
  8
218
100
AcDbLine
 62
253
  6
CONTINUOUS
 10
-42.487883784
 20
-13.557685
 11
-42.487883784
 21
-14.137714
  0
LINE
  5
381
100
AcDbEntity
  8
218
100
AcDbLine
 62
253
  6
CONTINUOUS
 10
-42.487883784
 20
-15.419971
 11
-42.487883784
 21
-16.0
  0
LINE
  5
382
100
AcDbEntity
  8
218
100
AcDbLine
 62
253
  6
CONTINUOUS
 10
-42.4877468258
 20
14.991935
 11
-42.4877468258
 21
14.252884
  0
LINE
  5
383
100
AcDbEntity
  8
218
100
AcDbLine
 62
253
  6
CONTINUOUS
 10
-42.4877468258
 20
8.9669
 11
-42.4877468258
 21
8.227849
  0
LINE
  5
384
100
AcDbEntity
  8
218
100
AcDbLine
 62
253
  6
CONTINUOUS
 10
-42.4877468258
 20
3.58822
 11
-42.4877468258
 21
2.70079
  0
LINE
  5
385
100
AcDbEntity
  8
218
100
AcDbLine
 62
253
  6
CONTINUOUS
 10
-42.4877468258
 20
5.171133
 11
-42.4877468258
 21
5.793739
  0
LINE
  5
386
100
AcDbEntity
  8
218
100
AcDbLine
 62
253
  6
CONTINUOUS
 10
-42.4877468258
 20
10.292325
 11
-42.4877468258
 21
11.216139
  0
LINE
  5
387
100
AcDbEntity
  8
218
100
AcDbLine
 62
253
  6
CONTINUOUS
 10
-42.4877468258
 20
12.328754
 11
-42.4877468258
 21
12.911198
  0
LWPOLYLINE
  5
388
100
AcDbEntity
  8
218
100
AcDbPolyline
 62
253
  6
CONTINUOUS
 90
57
 70
0
 10
-42.0059605437
 20
3.6866121309
 10
-42.0024866413
 20
3.714923872
 10
-41.9990825775
 20
3.7432442726
 10
-41.9955909767
 20
3.7715537031
 10
-41.9928165605
 20
3.7927466622
 10
-41.9898014339
 20
3.8139075559
 10
-41.9876070831
 20
3.8279986342
 10
-41.9852408198
 20
3.8420612376
 10
-41.9826837846
 20
3.8560877855
 10
-41.979898891
 20
3.8701255212
 10
-41.9768425253
 20
3.8841094795
 10
-41.9734545073
 20
3.8980298647
 10
-41.9712366482
 20
3.906325364
 10
-41.9688305523
 20
3.9145681516
 10
-41.9661884285
 20
3.9227318138
 10
-41.9632624855
 20
3.9307899368
 10
-41.9600049324
 20
3.9387161066
 10
-41.9570198601
 20
3.9451768495
 10
-41.9537774361
 20
3.9515146174
 10
-41.9502817556
 20
3.9577155666
 10
-41.9465243316
 20
3.9637949166
 10
-41.9425429021
 20
3.969730484
 10
-41.9383647448
 20
3.9755304314
 10
-41.933125913
 20
3.9823208207
 10
-41.9276636568
 20
3.9889346782
 10
-41.9219984997
 20
3.9953789649
 10
-41.916150965
 20
4.0016606418
 10
-41.910141576
 20
4.0077866698
 10
-41.9024413201
 20
4.015223324
 10
-41.8945344036
 20
4.0224352454
 10
-41.8864343041
 20
4.0294292988
 10
-41.8781544993
 20
4.0362123491
 10
-41.8697039454
 20
4.0427868075
 10
-41.861080562
 20
4.0491318284
 10
-41.8522777932
 20
4.0552221692
 10
-41.8432890833
 20
4.0610325873
 10
-41.8341089367
 20
4.0665433622
 10
-41.8247500747
 20
4.07174858
 10
-41.8152263762
 20
4.0766480037
 10
-41.8055517202
 20
4.081241396
 10
-41.7957357235
 20
4.0855308465
 10
-41.7857938209
 20
4.0895179059
 10
-41.7757372916
 20
4.0932066888
 10
-41.7655774145
 20
4.0966013103
 10
-41.7538724184
 20
4.1001222011
 10
-41.7420613451
 20
4.1032811128
 10
-41.7301579854
 20
4.1060936904
 10
-41.7181761303
 20
4.1085755786
 10
-41.7061295706
 20
4.1107424223
 10
-41.6940320972
 20
4.1126098663
 10
-41.681897501
 20
4.1141935553
 10
-41.6676907347
 20
4.1157056975
 10
-41.6534583961
 20
4.116880005
 10
-41.6392067534
 20
4.1177445277
 10
-41.6249420748
 20
4.1183273155
 10
-41.6106706287
 20
4.1186564182
 10
-41.5963986834
 20
4.1187598859
  0
LINE
  5
389
100
AcDbEntity
  8
218
100
AcDbLine
 62
7
  6
CONTINUOUS
 10
-41.5924807387
 20
2.70079
 11
-40.7050509763
 21
3.5882197624
  0
LINE
  5
38A
100
AcDbEntity
  8
218
100
AcDbLine
 62
253
  6
CONTINUOUS
 10
-26.3928476347
 20
9.6809523249
 11
-25.093045631
 21
10.2984523249
  0
LWPOLYLINE
  5
38B
100
AcDbEntity
  8
218
100
AcDbPolyline
 62
253
  6
CONTINUOUS
 90
17
 70
0
 10
-30.2414770106
 20
-1.500420674
 10
-30.6783560426
 20
-1.5432635628
 10
-31.0985944879
 20
-1.6701603569
 10
-31.4861855949
 20
-1.8762775967
 10
-31.8319275366
 20
-2.1593072038
 10
-32.1105577795
 20
-2.4985688842
 10
-32.3179953166
 20
-2.8854971871
 10
-32.4463389166
 20
-3.3053541335
 10
-32.4907137147
 20
-3.75
 10
-32.4478773511
 20
-4.1869455809
 10
-32.3209998841
 20
-4.6072480404
 10
-32.1149140369
 20
-4.9948981884
 10
-31.8319275366
 20
-5.3406927962
 10
-31.4927175273
 20
-5.6193654823
 10
-31.1058481555
 20
-5.826834618
 10
-30.6860551554
 20
-5.9551977683
 10
-30.241476814
 20
-5.999579326
  0
LINE
  5
38C
100
AcDbEntity
  8
218
100
AcDbLine
 62
253
  6
CONTINUOUS
 10
-31.876384888
 20
-3.75
 11
-28.6065691332
 21
-3.75
  0
LINE
  5
38D
100
AcDbEntity
  8
DRAFT
100
AcDbLine
 62
7
  6
CONTINUOUS
 10
-49.6531824536
 20
-1.7831163775
 11
-49.9206021996
 21
-1.7784485485
  0
LINE
  5
38E
100
AcDbEntity
  8
218
100
AcDbLine
 62
253
  6
CONTINUOUS
 10
-33.7007295598
 20
-8.1877774331
 11
-33.7546691596
 21
-8.1526054374
  0
LINE
  5
38F
100
AcDbEntity
  8
218
100
AcDbLine
 62
253
  6
CONTINUOUS
 10
-33.5938475533
 20
-8.2577396851
 11
-33.7007295598
 21
-8.1877774331
  0
LINE
  5
390
100
AcDbEntity
  8
218
100
AcDbLine
 62
253
  6
CONTINUOUS
 10
-33.3345207324
 20
-8.4275540824
 11
-33.5938475533
 21
-8.2577396851
  0
LINE
  5
391
100
AcDbEntity
  8
218
100
AcDbLine
 62
253
  6
CONTINUOUS
 10
-33.3848838566
 20
-8.3945662641
 11
-33.4360264061
 21
-8.3610439119
  0
LINE
  5
392
100
AcDbEntity
  8
218
100
AcDbLine
 62
253
  6
CONTINUOUS
 10
-33.0992669595
 20
-8.5819694125
 11
-33.3345207324
 21
-8.4275540824
  0
LINE
  5
393
100
AcDbEntity
  8
218
100
AcDbLine
 62
253
  6
CONTINUOUS
 10
-32.8595966546
 20
-8.7396765904
 11
-33.0992669595
 21
-8.5819694125
  0
LINE
  5
394
100
AcDbEntity
  8
218
100
AcDbLine
 62
253
  6
CONTINUOUS
 10
-32.4908888404
 20
-8.9837084606
 11
-32.8595966546
 21
-8.7396765904
  0
LINE
  5
395
100
AcDbEntity
  8
218
100
AcDbLine
 62
253
  6
CONTINUOUS
 10
-32.3771266221
 20
-9.0598289998
 11
-32.4908888404
 21
-8.9837084606
  0
LINE
  5
396
100
AcDbEntity
  8
218
100
AcDbLine
 62
253
  6
CONTINUOUS
 10
-32.3394341821
 20
-9.0853139867
 11
-32.3771266221
 21
-9.0598289998
  0
LINE
  5
397
100
AcDbEntity
  8
218
100
AcDbLine
 62
253
  6
CONTINUOUS
 10
-32.317991586
 20
-9.0999572659
 11
-32.3394341821
 21
-9.0853139867
  0
LINE
  5
398
100
AcDbEntity
  8
218
100
AcDbLine
 62
253
  6
CONTINUOUS
 10
-32.3066624786
 20
-9.1077773286
 11
-32.317991586
 21
-9.0999572659
  0
LWPOLYLINE
  5
399
100
AcDbEntity
  8
218
100
AcDbPolyline
 62
253
  6
CONTINUOUS
 90
94
 70
0
 10
-40.7793853281
 20
-4.255024
 10
-40.7899186655
 20
-4.2310075578
 10
-40.8011576659
 20
-4.207307021
 10
-40.8130909309
 20
-4.1839468567
 10
-40.8257071071
 20
-4.1609505619
 10
-40.8389950201
 20
-4.1383377543
 10
-40.8529435406
 20
-4.1161270816
 10
-40.8675411654
 20
-4.094337226
 10
-40.8827748958
 20
-4.0729870078
 10
-40.8986313593
 20
-4.0520952816
 10
-40.9150969432
 20
-4.0316806363
 10
-40.9321570735
 20
-4.0117605981
 10
-40.9497969356
 20
-3.9923524272
 10
-40.968001463
 20
-3.9734731695
 10
-40.9867545806
 20
-3.9551390135
 10
-41.0060399614
 20
-3.9373659332
 10
-41.0258410557
 20
-3.9201696476
 10
-41.0461404239
 20
-3.9035648557
 10
-41.0669204039
 20
-3.8875660016
 10
-41.0881631319
 20
-3.8721872609
 10
-41.1098499373
 20
-3.8574417348
 10
-41.131961948
 20
-3.8433422562
 10
-41.154480115
 20
-3.8299013713
 10
-41.1773846838
 20
-3.8171304795
 10
-41.2006557231
 20
-3.8050406936
 10
-41.2242731511
 20
-3.7936428254
 10
-41.2482162832
 20
-3.7829464838
 10
-41.2724642844
 20
-3.7729609766
 10
-41.2969961961
 20
-3.763695299
 10
-41.3217905659
 20
-3.7551571935
 10
-41.3468258179
 20
-3.74735409
 10
-41.3720802809
 20
-3.7402930955
 10
-41.3975319027
 20
-3.7339800264
 10
-41.4231585352
 20
-3.7284203762
 10
-41.4489379645
 20
-3.7236193086
 10
-41.4748477103
 20
-3.7195806679
 10
-41.5008652264
 20
-3.7163079684
 10
-41.5269679292
 20
-3.7138043901
 10
-41.5531330871
 20
-3.7120717752
 10
-41.5793379315
 20
-3.7111116314
 10
-41.6055596862
 20
-3.7109251299
 10
-41.6317755458
 20
-3.7115120964
 10
-41.6579626975
 20
-3.7128720202
 10
-41.6840983509
 20
-3.7150040546
 10
-41.7101598052
 20
-3.7179060103
 10
-41.7361243818
 20
-3.7215753619
 10
-41.7619694544
 20
-3.7260092517
 10
-41.7876726043
 20
-3.7312034922
 10
-41.8132114648
 20
-3.7371535634
 10
-41.8385637505
 20
-3.7438546188
 10
-41.8637075002
 20
-3.7513005056
 10
-41.8886208343
 20
-3.7594847445
 10
-41.9132819824
 20
-3.7684005379
 10
-41.937669613
 20
-3.778039816
 10
-41.9617625041
 20
-3.7883941908
 10
-41.9855395713
 20
-3.7994549671
 10
-42.0089802793
 20
-3.811212221
 10
-42.0320642302
 20
-3.8236557214
 10
-42.05477119
 20
-3.8367749435
 10
-42.0770815805
 20
-3.850558187
 10
-42.0989759875
 20
-3.8649934579
 10
-42.1204351857
 20
-3.8800684839
 10
-42.1414407072
 20
-3.89576988
 10
-42.1619742732
 20
-3.912083983
 10
-42.1820178179
 20
-3.9289968693
 10
-42.2015541279
 20
-3.9464935738
 10
-42.2205662028
 20
-3.964558871
 10
-42.2390372777
 20
-3.983177295
 10
-42.2569515285
 20
-4.0023324175
 10
-42.2742933662
 20
-4.0220075699
 10
-42.2910474577
 20
-4.0421858648
 10
-42.3071994921
 20
-4.0628495398
 10
-42.3227354139
 20
-4.083980614
 10
-42.3376414418
 20
-4.105560911
 10
-42.3519048898
 20
-4.1275714713
 10
-42.3655133462
 20
-4.14999314
 10
-42.3784546889
 20
-4.1728065931
 10
-42.3907179567
 20
-4.1959918299
 10
-42.402292478
 20
-4.2195286806
 10
-42.4131678854
 20
-4.2433968266
 10
-42.4233350277
 20
-4.2675753553
 10
-42.4327850575
 20
-4.2920432051
 10
-42.441509443
 20
-4.316779215
 10
-42.4495009144
 20
-4.3417618251
 10
-42.4567525177
 20
-4.3669693761
 10
-42.4632576235
 20
-4.392380057
 10
-42.4690109005
 20
-4.4179714505
 10
-42.4740073425
 20
-4.4437209879
 10
-42.478242274
 20
-4.4696062773
 10
-42.4817123444
 20
-4.4956056346
 10
-42.4844145339
 20
-4.521697553
 10
-42.4863461581
 20
-4.5478596139
 10
-42.4875058727
 20
-4.5740657544
 10
-42.4878926684
 20
-4.600289
  0
LWPOLYLINE
  5
39A
100
AcDbEntity
  8
218
100
AcDbPolyline
 62
253
  6
CONTINUOUS
 90
56
 70
0
 10
-40.7050506816
 20
3.5882200575
 10
-40.7093488838
 20
3.6949149145
 10
-40.7117979358
 20
3.7482280064
 10
-40.7145527646
 20
3.8015261757
 10
-40.7177302981
 20
3.8548391481
 10
-40.7214642993
 20
3.9081159546
 10
-40.7236049076
 20
3.934774113
 10
-40.7260437711
 20
3.9614062067
 10
-40.728900984
 20
3.9879736233
 10
-40.7322988319
 20
4.0144780549
 10
-40.7363519802
 20
4.0408478553
 10
-40.7411960929
 20
4.0670815831
 10
-40.7469231134
 20
4.0931403755
 10
-40.7534573841
 20
4.1190103969
 10
-40.7606865957
 20
4.1447328178
 10
-40.7684511343
 20
4.170298734
 10
-40.7766154627
 20
4.1957356811
 10
-40.7851363699
 20
4.2210554833
 10
-40.7970298025
 20
4.2546024915
 10
-40.8096138004
 20
4.2878983452
 10
-40.8229840852
 20
4.3208934898
 10
-40.8335971427
 20
4.3454136383
 10
-40.8447952656
 20
4.369671016
 10
-40.8566670485
 20
4.3936000111
 10
-40.8693010862
 20
4.4171350117
 10
-40.8827723642
 20
4.4402129989
 10
-40.8970989001
 20
4.4627770448
 10
-40.9122850493
 20
4.4847728433
 10
-40.9283351674
 20
4.506146088
 10
-40.9452422889
 20
4.5268384338
 10
-40.9629885249
 20
4.5468168518
 10
-40.9815452483
 20
4.5660438199
 10
-41.0008838318
 20
4.5844818161
 10
-41.0210058382
 20
4.6021256376
 10
-41.0418360578
 20
4.6189286212
 10
-41.0633270165
 20
4.6348791161
 10
-41.0854312401
 20
4.6499654719
 10
-41.1081804421
 20
4.664225963
 10
-41.1314552001
 20
4.6776095775
 10
-41.1552113978
 20
4.6901212368
 10
-41.179404919
 20
4.7017658625
 10
-41.2039891003
 20
4.7125456873
 10
-41.2289320509
 20
4.7224629565
 10
-41.2541994656
 20
4.7315169358
 10
-41.2797570393
 20
4.739706891
 10
-41.3054572368
 20
4.7470089397
 10
-41.3313762765
 20
4.7534945384
 10
-41.3574793731
 20
4.7592044695
 10
-41.3837317416
 20
4.7641795157
 10
-41.4100921688
 20
4.7684575464
 10
-41.4365492482
 20
4.7720735279
 10
-41.4630852258
 20
4.7750590265
 10
-41.4896823473
 20
4.7774456088
 10
-41.5252171853
 20
4.7797469392
 10
-41.5607992691
 20
4.7810903355
 10
-41.5963986834
 20
4.7815268003
  0
LINE
  5
39B
100
AcDbEntity
  8
218
100
AcDbLine
 62
253
  6
CONTINUOUS
 10
-42.0059606161
 20
3.323396
 11
-42.0059606161
 21
3.686612
  0
LINE
  5
39C
100
AcDbEntity
  8
218
100
AcDbLine
 62
253
  6
CONTINUOUS
 10
-41.9515321993
 20
-4.680792
 11
-41.9515321993
 21
-5.386478
  0
LINE
  5
39D
100
AcDbEntity
  8
218
100
AcDbLine
 62
253
  6
CONTINUOUS
 10
-41.2460181548
 20
-5.386471
 11
-41.2460181548
 21
-4.680792
  0
LINE
  5
39E
100
AcDbEntity
  8
218
100
AcDbLine
 62
253
  6
CONTINUOUS
 10
-41.186837186
 20
3.323396
 11
-41.186837186
 21
3.686612
  0
LINE
  5
39F
100
AcDbEntity
  8
218
100
AcDbLine
 62
253
  6
CONTINUOUS
 10
-40.7096525743
 20
-7.84744
 11
-40.7096525743
 21
-7.285246
  0
LINE
  5
3A0
100
AcDbEntity
  8
218
100
AcDbLine
 62
253
  6
CONTINUOUS
 10
-40.7096525743
 20
-4.872178
 11
-40.7096595721
 21
-5.378409
  0
LINE
  5
3A1
100
AcDbEntity
  8
218
100
AcDbLine
 62
253
  6
CONTINUOUS
 10
-40.7050509763
 20
3.58822
 11
-40.7050509763
 21
3.323396
  0
LINE
  5
3A2
100
AcDbEntity
  8
218
100
AcDbLine
 62
253
  6
CONTINUOUS
 10
-40.6848671259
 20
15.007869
 11
-40.6848671259
 21
14.176491
  0
LINE
  5
3A3
100
AcDbEntity
  8
218
100
AcDbLine
 62
253
  6
CONTINUOUS
 10
-40.6848671259
 20
8.982943
 11
-40.6848671259
 21
8.151456
  0
LINE
  5
3A4
100
AcDbEntity
  8
218
100
AcDbLine
 62
253
  6
CONTINUOUS
 10
-40.2030809162
 20
7.990812
 11
-40.2030809162
 21
9.139549
  0
LINE
  5
3A5
100
AcDbEntity
  8
218
100
AcDbLine
 62
253
  6
CONTINUOUS
 10
-40.2030809162
 20
14.015846
 11
-40.2030809162
 21
15.164584
  0
LINE
  5
3A6
100
AcDbEntity
  8
218
100
AcDbLine
 62
253
  6
CONTINUOUS
 10
-40.1587984081
 20
-7.108317
 11
-40.1587984081
 21
-8.024362
  0
LINE
  5
3A7
100
AcDbEntity
  8
218
100
AcDbLine
 62
253
  6
CONTINUOUS
 10
-40.0704153366
 20
5.793739
 11
-40.0704153366
 21
6.866738
  0
LINE
  5
3A8
100
AcDbEntity
  8
218
100
AcDbLine
 62
253
  6
CONTINUOUS
 10
-34.5006930658
 20
-1.5428570986
 11
-34.6864073405
 21
-1.5428570986
  0
LINE
  5
3A9
100
AcDbEntity
  8
218
100
AcDbLine
 62
253
  6
CONTINUOUS
 10
-34.5006930658
 20
-0.5214283943
 11
-34.6864073405
 21
-0.5214283943
  0
LINE
  5
3AA
100
AcDbEntity
  8
218
100
AcDbLine
 62
253
  6
CONTINUOUS
 10
-33.5721216151
 20
-3.1214287043
 11
-34.8721216151
 21
-2.8428570986
  0
LINE
  5
3AB
100
AcDbEntity
  8
218
100
AcDbLine
 62
253
  6
CONTINUOUS
 10
-33.5721216151
 20
-3.6785714507
 11
-34.5006930658
 21
-3.4
  0
LINE
  5
3AC
100
AcDbEntity
  8
218
100
AcDbLine
 62
253
  6
CONTINUOUS
 10
-32.2808478183
 20
-9.1267274854
 11
-32.2809961255
 21
-9.1265830162
  0
LWPOLYLINE
  5
3AD
100
AcDbEntity
  8
218
100
AcDbPolyline
 62
253
  6
CONTINUOUS
 90
10
 70
0
 10
-32.2809961255
 20
-9.1265830162
 10
-32.281399242
 20
-9.1261187998
 10
-32.2822754325
 20
-9.1253407754
 10
-32.28362475
 20
-9.1242515846
 10
-32.2854409959
 20
-9.1228576588
 10
-32.2877304367
 20
-9.1211596462
 10
-32.2905119497
 20
-9.1191448142
 10
-32.2937769123
 20
-9.1168073259
 10
-32.2975343074
 20
-9.1141449998
 10
-32.3066624786
 20
-9.1077773286
  0
LINE
  5
3AE
100
AcDbEntity
  8
218
100
AcDbLine
 62
253
  6
CONTINUOUS
 10
-39.5886291269
 20
-15.068868
 11
-39.5886361248
 21
-14.488824
  0
LINE
  5
3AF
100
AcDbEntity
  8
218
100
AcDbLine
 62
253
  6
CONTINUOUS
 10
-39.5886291269
 20
-13.171014
 11
-39.5886361248
 21
-12.590992
  0
LINE
  5
3B0
100
AcDbEntity
  8
218
100
AcDbLine
 62
253
  6
CONTINUOUS
 10
-39.5886361248
 20
-10.882587
 11
-39.5886441223
 21
-10.30258
  0
LINE
  5
3B1
100
AcDbEntity
  8
218
100
AcDbLine
 62
253
  6
CONTINUOUS
 10
-39.5886441223
 20
-8.207475
 11
-39.5886361248
 21
-8.787497
  0
LINE
  5
3B2
100
AcDbEntity
  8
218
100
AcDbLine
 62
253
  6
CONTINUOUS
 10
-39.5886511202
 20
-3.637619
 11
-39.5886441223
 21
-4.290924
  0
LINE
  5
3B3
100
AcDbEntity
  8
218
100
AcDbLine
 62
253
  6
CONTINUOUS
 10
-39.5886441223
 20
-5.378474
 11
-39.5886441223
 21
-5.958503
  0
LINE
  5
3B4
100
AcDbEntity
  8
218
100
AcDbLine
 62
253
  6
CONTINUOUS
 10
-39.5886361248
 20
-12.010985
 11
-39.5886361248
 21
-11.430963
  0
LINE
  5
3B5
100
AcDbEntity
  8
218
100
AcDbLine
 62
253
  6
CONTINUOUS
 10
-39.5886361248
 20
-9.754197
 11
-39.5886361248
 21
-9.174176
  0
LINE
  5
3B6
100
AcDbEntity
  8
218
100
AcDbLine
 62
253
  6
CONTINUOUS
 10
-39.5886291269
 20
12.911198
 11
-39.5886291269
 21
12.027546
  0
LINE
  5
3B7
100
AcDbEntity
  8
218
100
AcDbLine
 62
253
  6
CONTINUOUS
 10
-39.5886291269
 20
10.87477
 11
-39.5886291269
 21
10.292325
  0
LINE
  5
3B8
100
AcDbEntity
  8
218
100
AcDbLine
 62
253
  6
CONTINUOUS
 10
-39.5886291269
 20
6.866738
 11
-39.5886291269
 21
5.171133
  0
LINE
  5
3B9
100
AcDbEntity
  8
218
100
AcDbLine
 62
253
  6
CONTINUOUS
 10
-39.5886291269
 20
2.70079
 11
-39.5886291269
 21
3.323396
  0
LINE
  5
3BA
100
AcDbEntity
  8
218
100
AcDbLine
 62
253
  6
CONTINUOUS
 10
-39.5886291269
 20
7.179514
 11
-39.5886291269
 21
7.773964
  0
LINE
  5
3BB
100
AcDbEntity
  8
218
100
AcDbLine
 62
253
  6
CONTINUOUS
 10
-39.5886291269
 20
9.348431
 11
-39.5886291269
 21
9.975074
  0
LINE
  5
3BC
100
AcDbEntity
  8
218
100
AcDbLine
 62
253
  6
CONTINUOUS
 10
-39.5886291269
 20
13.20444
 11
-39.5886291269
 21
13.798889
  0
LINE
  5
3BD
100
AcDbEntity
  8
218
100
AcDbLine
 62
253
  6
CONTINUOUS
 10
-39.5886291269
 20
15.373574
 11
-39.5886291269
 21
16.0
  0
LINE
  5
3BE
100
AcDbEntity
  8
218
100
AcDbLine
 62
253
  6
CONTINUOUS
 10
-39.5886361248
 20
-6.345182
 11
-39.5886441223
 21
-6.925211
  0
LINE
  5
3BF
100
AcDbEntity
  8
RACCORDO
100
AcDbLine
 62
253
  6
CONTINUOUS
 10
-38.3703762957
 20
23.7551925565
 11
-38.3703762957
 21
22.3327878868
  0
LINE
  5
3C0
100
AcDbEntity
  8
RACCORDO
100
AcDbLine
 62
253
  6
CONTINUOUS
 10
-38.3703762957
 20
-22.3327878868
 11
-38.3703762957
 21
-23.7551925565
  0
LINE
  5
3C1
100
AcDbEntity
  8
218
100
AcDbLine
 62
253
  6
CONTINUOUS
 10
-38.0893753418
 20
15.627
 11
-38.0893753418
 21
15.0244283559
  0
LINE
  5
3C2
100
AcDbEntity
  8
218
100
AcDbLine
 62
253
  6
CONTINUOUS
 10
-38.0893753418
 20
12.6141427853
 11
-38.0893753418
 21
12.764785822
  0
LINE
  5
3C3
100
AcDbEntity
  8
RACCORDO
100
AcDbLine
 62
7
  6
CONTINUOUS
 10
-38.0721216151
 20
23.7534573615
 11
-38.0721216151
 21
22.3301850577
  0
LINE
  5
3C4
100
AcDbEntity
  8
RACCORDO
100
AcDbLine
 62
7
  6
CONTINUOUS
 10
-38.0721216151
 20
-22.3301850577
 11
-38.0721216151
 21
-23.7534573615
  0
LINE
  5
3C5
100
AcDbEntity
  8
218
100
AcDbLine
 62
253
  6
CONTINUOUS
 10
-34.6864073405
 20
2.5428574085
 11
-34.8721216151
 21
2.3571425915
  0
LWPOLYLINE
  5
3C6
100
AcDbEntity
  8
218
100
AcDbPolyline
 62
7
  6
CONTINUOUS
 90
16
 70
0
 10
-24.0546692087
 20
11.0766645935
 10
-24.0452443273
 20
11.0847779491
 10
-24.0355410512
 20
11.092612028
 10
-24.0255593802
 20
11.1001668303
 10
-24.0152979019
 20
11.1074591457
 10
-24.0047580288
 20
11.1144721845
 10
-23.9939439986
 20
11.1211555774
 10
-23.9828476537
 20
11.1275061595
 10
-23.9714771518
 20
11.1335270957
 10
-23.9598612029
 20
11.1391775111
 10
-23.9479943021
 20
11.1444518395
 10
-23.9358819543
 20
11.1493556471
 10
-23.9235693846
 20
11.1538647575
 10
-23.9110716681
 20
11.1579711117
 10
-23.8983737296
 20
11.1616827686
 10
-23.8854755693
 20
11.1649997283
  0
LINE
  5
3C7
100
AcDbEntity
  8
218
100
AcDbLine
 62
253
  6
CONTINUOUS
 10
-26.3928476347
 20
5.2114286345
 11
-25.093045631
 21
5.5642857563
  0
LINE
  5
3C8
100
AcDbEntity
  8
DRAFT
100
AcDbLine
 62
7
  6
CONTINUOUS
 10
-50.2937625485
 20
1.7719350104
 11
-49.6531824536
 21
1.7831163775
  0
LINE
  5
3C9
100
AcDbEntity
  8
218
100
AcDbLine
 62
253
  6
CONTINUOUS
 10
-34.5006930658
 20
0.5
 11
-34.6864073405
 21
0.5
  0
LINE
  5
3CA
100
AcDbEntity
  8
218
100
AcDbLine
 62
253
  6
CONTINUOUS
 10
-34.2221216151
 20
0.8714283943
 11
-33.7578359091
 21
0.8714283943
  0
LINE
  5
3CB
100
AcDbEntity
  8
218
100
AcDbLine
 62
253
  6
CONTINUOUS
 10
-33.7578359091
 20
1.5214283943
 11
-34.1292644778
 21
1.5214283943
  0
LINE
  5
3CC
100
AcDbEntity
  8
218
100
AcDbLine
 62
7
  6
CONTINUOUS
 10
-23.0625974626
 20
1.6
 11
-22.8721216151
 21
1.6
  0
LINE
  5
3CD
100
AcDbEntity
  8
218
100
AcDbLine
 62
253
  6
CONTINUOUS
 10
-29.5621429896
 20
1.614581
 11
-29.7968534782
 21
1.614581
  0
LWPOLYLINE
  5
3CE
100
AcDbEntity
  8
218
100
AcDbPolyline
 62
253
  6
CONTINUOUS
 90
70
 70
0
 10
-23.8854750526
 20
-2.6350001476
 10
-23.8735442392
 20
-2.6377341491
 10
-23.8613627303
 20
-2.6409007513
 10
-23.8489305259
 20
-2.6444989589
 10
-23.836290019
 20
-2.6484880156
 10
-23.8233988165
 20
-2.6529065214
 10
-23.8101297391
 20
-2.6578720269
 10
-23.7964372189
 20
-2.663393524
 10
-23.7823668237
 20
-2.6694583506
 10
-23.7679280784
 20
-2.6761507206
 10
-23.7530835685
 20
-2.683494671
 10
-23.7378707085
 20
-2.69146087
 10
-23.7224112666
 20
-2.7000529836
 10
-23.7067317305
 20
-2.7092642124
 10
-23.6908056125
 20
-2.7190951197
 10
-23.6746752174
 20
-2.7295601419
 10
-23.6583763234
 20
-2.7406309517
 10
-23.6418731524
 20
-2.7523283734
 10
-23.6251006744
 20
-2.7647395873
 10
-23.6080636606
 20
-2.7778465033
 10
-23.5907573399
 20
-2.7916568398
 10
-23.5731023696
 20
-2.8062944127
 10
-23.5550632247
 20
-2.8217770651
 10
-23.5366754301
 20
-2.8380719748
 10
-23.5179662183
 20
-2.8552248446
 10
-23.4989303768
 20
-2.8732325633
 10
-23.479573118
 20
-2.8920793611
 10
-23.4599373116
 20
-2.9117903997
 10
-23.440056973
 20
-2.9323125814
 10
-23.4198980866
 20
-2.953676129
 10
-23.3994014756
 20
-2.9760278575
 10
-23.3785783418
 20
-2.9993178765
 10
-23.3574174833
 20
-3.0235640267
 10
-23.3358261177
 20
-3.0490072557
 10
-23.3137786819
 20
-3.0756251055
 10
-23.2913007391
 20
-3.1033917497
 10
-23.2683761964
 20
-3.1325322241
 10
-23.2449111436
 20
-3.1631183533
 10
-23.2209994909
 20
-3.1950068659
 10
-23.1969068751
 20
-3.228094259
 10
-23.1725478585
 20
-3.2624904211
 10
-23.1480078788
 20
-3.2980016216
 10
-23.1238088866
 20
-3.3340828472
 10
-23.0999886079
 20
-3.370710836
 10
-23.0765093168
 20
-3.4078458952
 10
-23.0537797855
 20
-3.4449493379
 10
-23.0318261595
 20
-3.4820410228
 10
-23.0106222933
 20
-3.5190669307
 10
-22.9904985229
 20
-3.5554168186
 10
-22.9715802259
 20
-3.5909131863
 10
-22.9537420246
 20
-3.6257490428
 10
-22.9369381222
 20
-3.6598936909
 10
-22.9211612899
 20
-3.6933692669
 10
-22.9064187563
 20
-3.7261677504
 10
-22.8926864111
 20
-3.7582176419
 10
-22.8799746109
 20
-3.7895077031
 10
-22.868272999
 20
-3.8200716132
 10
-22.8575263947
 20
-3.8499087336
 10
-22.8477331872
 20
-3.8790323621
 10
-22.8388949873
 20
-3.9074525372
 10
-22.8309614466
 20
-3.9351646291
 10
-22.8239334212
 20
-3.9621737364
 10
-22.8178100551
 20
-3.988500132
 10
-22.8125384317
 20
-4.0141620614
 10
-22.8081165094
 20
-4.03916468
 10
-22.8045463298
 20
-4.0635277832
 10
-22.801781102
 20
-4.0872897697
 10
-22.7998052289
 20
-4.1104702598
 10
-22.7986343075
 20
-4.1330716599
 10
-22.7982683379
 20
-4.1551052203
  0
LINE
  5
3CF
100
AcDbEntity
  8
218
100
AcDbLine
 62
253
  6
CONTINUOUS
 10
-34.8721216151
 20
-2.0071429014
 11
-34.5935501644
 21
-2.1928570986
  0
LINE
  5
3D0
100
AcDbEntity
  8
218
100
AcDbLine
 62
253
  6
CONTINUOUS
 10
-34.8721216151
 20
-0.9857141972
 11
-34.5935501644
 21
-1.1714287043
  0
LINE
  5
3D1
100
AcDbEntity
  8
218
100
AcDbLine
 62
253
  6
CONTINUOUS
 10
-33.5721216151
 20
-2.1928570986
 11
-34.5006930658
 21
-1.5428570986
  0
LINE
  5
3D2
100
AcDbEntity
  8
218
100
AcDbLine
 62
253
  6
CONTINUOUS
 10
-34.6864073405
 20
-4.9785714507
 11
-34.8721216151
 21
-4.7928571761
  0
LINE
  5
3D3
100
AcDbEntity
  8
218
100
AcDbLine
 62
253
  6
CONTINUOUS
 10
-33.5721216151
 20
-4.5142856479
 11
-33.7578359091
 21
-4.3285714507
  0
LINE
  5
3D4
100
AcDbEntity
  8
218
100
AcDbLine
 62
253
  6
CONTINUOUS
 10
-33.6112686412
 20
-8.3642565141
 11
-33.7185778744
 21
-8.2059427284
  0
LINE
  5
3D5
100
AcDbEntity
  8
218
100
AcDbLine
 62
253
  6
CONTINUOUS
 10
-33.7185778744
 20
-8.2059427284
 11
-33.7546692087
 21
-8.1526054873
  0
LINE
  5
3D6
100
AcDbEntity
  8
218
100
AcDbLine
 62
253
  6
CONTINUOUS
 10
-33.3763713662
 20
-8.7122494609
 11
-33.6112686412
 21
-8.3642565141
  0
LINE
  5
3D7
100
AcDbEntity
  8
218
100
AcDbLine
 62
253
  6
CONTINUOUS
 10
-33.2314108432
 20
-8.9278695497
 11
-33.3763713662
 21
-8.7122494609
  0
LINE
  5
3D8
100
AcDbEntity
  8
218
100
AcDbLine
 62
253
  6
CONTINUOUS
 10
-33.1098636661
 20
-9.1093824063
 11
-33.2314108432
 21
-8.9278695497
  0
LINE
  5
3D9
100
AcDbEntity
  8
218
100
AcDbLine
 62
253
  6
CONTINUOUS
 10
-33.029573874
 20
-9.2297682829
 11
-33.1098636661
 21
-9.1093824063
  0
LINE
  5
3DA
100
AcDbEntity
  8
218
100
AcDbLine
 62
253
  6
CONTINUOUS
 10
-32.9634540229
 20
-9.3292970884
 11
-33.029573874
 21
-9.2297682829
  0
LINE
  5
3DB
100
AcDbEntity
  8
218
100
AcDbLine
 62
253
  6
CONTINUOUS
 10
-32.8984001303
 20
-9.4278171697
 11
-32.9634540229
 21
-9.3292970884
  0
LINE
  5
3DC
100
AcDbEntity
  8
218
100
AcDbLine
 62
253
  6
CONTINUOUS
 10
-32.8584784698
 20
-9.488690849
 11
-32.8984001303
 21
-9.4278171697
  0
LINE
  5
3DD
100
AcDbEntity
  8
218
100
AcDbLine
 62
253
  6
CONTINUOUS
 10
-32.8276652539
 20
-9.5361150648
 11
-32.8584784698
 21
-9.488690849
  0
LINE
  5
3DE
100
AcDbEntity
  8
218
100
AcDbLine
 62
253
  6
CONTINUOUS
 10
-32.809750058
 20
-9.5639824636
 11
-32.8276652539
 21
-9.5361150648
  0
LINE
  5
3DF
100
AcDbEntity
  8
218
100
AcDbLine
 62
253
  6
CONTINUOUS
 10
-32.7999701781
 20
-9.5793539385
 11
-32.809750058
 21
-9.5639824636
  0
LINE
  5
3E0
100
AcDbEntity
  8
218
100
AcDbLine
 62
253
  6
CONTINUOUS
 10
-37.2752136957
 20
15.627
 11
-37.2752136957
 21
15.3257144294
  0
LINE
  5
3E1
100
AcDbEntity
  8
218
100
AcDbLine
 62
253
  6
CONTINUOUS
 10
-36.5967455723
 20
11.5596427853
 11
-36.5967455723
 21
10.505142911
  0
LINE
  5
3E2
100
AcDbEntity
  8
218
100
AcDbLine
 62
253
  6
CONTINUOUS
 10
-36.189664721
 20
12.764785822
 11
-36.189664721
 21
12.6141427853
  0
LINE
  5
3E3
100
AcDbEntity
  8
218
100
AcDbLine
 62
253
  6
CONTINUOUS
 10
-36.189664721
 20
15.0244283559
 11
-36.189664721
 21
15.7776427853
  0
LINE
  5
3E4
100
AcDbEntity
  8
218
100
AcDbLine
 62
253
  6
CONTINUOUS
 10
-29.0626871634
 20
7.362345
 11
-31.9486558685
 21
3.921934
  0
LINE
  5
3E5
100
AcDbEntity
  8
218
100
AcDbLine
 62
253
  6
CONTINUOUS
 10
-34.1292644778
 20
1.5214283943
 11
-34.3149787912
 21
1.3357141972
  0
LINE
  5
3E6
100
AcDbEntity
  8
218
100
AcDbLine
 62
253
  6
CONTINUOUS
 10
-34.6864073405
 20
0.5
 11
-34.8721216151
 21
0.3142858028
  0
LINE
  5
3E7
100
AcDbEntity
  8
218
100
AcDbLine
 62
253
  6
CONTINUOUS
 10
-33.7578359091
 20
0.8714283943
 11
-33.5721216151
 21
1.0571425915
  0
LINE
  5
3E8
100
AcDbEntity
  8
218
100
AcDbLine
 62
253
  6
CONTINUOUS
 10
-34.6864073405
 20
-0.5214283943
 11
-34.8721216151
 21
-0.7071425915
  0
LINE
  5
3E9
100
AcDbEntity
  8
218
100
AcDbLine
 62
253
  6
CONTINUOUS
 10
-29.8934990323
 20
4.245524
 11
-29.0427022524
 21
4.959644
  0
LINE
  5
3EA
100
AcDbEntity
  8
218
100
AcDbLine
 62
253
  6
CONTINUOUS
 10
-40.7793833288
 20
-4.255022
 11
-39.5886511202
 21
-3.637619
  0
LINE
  5
3EB
100
AcDbEntity
  8
218
100
AcDbLine
 62
253
  6
CONTINUOUS
 10
-39.5886441223
 20
-4.290924
 11
-40.7096525743
 21
-4.872178
  0
LINE
  5
3EC
100
AcDbEntity
  8
218
100
AcDbLine
 62
253
  6
CONTINUOUS
 10
-26.3928476347
 20
3.8
 11
-25.6501036381
 21
4.1528571586
  0
LINE
  5
3ED
100
AcDbEntity
  8
218
100
AcDbLine
 62
253
  6
CONTINUOUS
 10
-34.5006930658
 20
2.5428574085
 11
-34.6864073405
 21
2.5428574085
  0
LINE
  5
3EE
100
AcDbEntity
  8
218
100
AcDbLine
 62
253
  6
CONTINUOUS
 10
-42.4877468258
 20
2.70079
 11
-39.5886291269
 21
2.70079
  0
LINE
  5
3EF
100
AcDbEntity
  8
218
100
AcDbLine
 62
253
  6
CONTINUOUS
 10
-29.1048253248
 20
2.898978
 11
-29.3688518814
 21
2.898978
  0
LINE
  5
3F0
100
AcDbEntity
  8
218
100
AcDbLine
 62
253
  6
CONTINUOUS
 10
-29.1048253248
 20
3.106139
 11
-29.7968534782
 21
3.106139
  0
LINE
  5
3F1
100
AcDbEntity
  8
218
100
AcDbLine
 62
7
  6
CONTINUOUS
 10
-23.0721216151
 20
3.3
 11
-22.8721216151
 21
3.3
  0
LINE
  5
3F2
100
AcDbEntity
  8
218
100
AcDbLine
 62
253
  6
CONTINUOUS
 10
-39.5886291269
 20
3.323396
 11
-40.7050509763
 21
3.323396
  0
LINE
  5
3F3
100
AcDbEntity
  8
218
100
AcDbLine
 62
253
  6
CONTINUOUS
 10
-41.186837186
 20
3.323396
 11
-42.0059606161
 21
3.323396
  0
LINE
  5
3F4
100
AcDbEntity
  8
218
100
AcDbLine
 62
253
  6
CONTINUOUS
 10
-25.093045631
 20
3.8
 11
-26.3928476347
 21
3.8
  0
LWPOLYLINE
  5
3F5
100
AcDbEntity
  8
218
100
AcDbPolyline
 62
253
  6
CONTINUOUS
 90
57
 70
0
 10
-41.5963986834
 20
4.1187598859
 10
-41.582126738
 20
4.1186564182
 10
-41.5678552919
 20
4.1183273155
 10
-41.5535906134
 20
4.1177445277
 10
-41.5393389706
 20
4.116880005
 10
-41.525106632
 20
4.1157056975
 10
-41.5108998658
 20
4.1141935553
 10
-41.4987652695
 20
4.1126098663
 10
-41.4866677961
 20
4.1107424223
 10
-41.4746212364
 20
4.1085755786
 10
-41.4626393813
 20
4.1060936904
 10
-41.4507360217
 20
4.1032811128
 10
-41.4389249484
 20
4.1001222011
 10
-41.4272199523
 20
4.0966013103
 10
-41.4170600752
 20
4.0932066888
 10
-41.4070035458
 20
4.0895179059
 10
-41.3970616432
 20
4.0855308465
 10
-41.3872456465
 20
4.081241396
 10
-41.3775709905
 20
4.0766480037
 10
-41.3680472921
 20
4.07174858
 10
-41.3586884301
 20
4.0665433622
 10
-41.3495082835
 20
4.0610325873
 10
-41.3405195736
 20
4.0552221692
 10
-41.3317168048
 20
4.0491318284
 10
-41.3230934213
 20
4.0427868075
 10
-41.3146428674
 20
4.0362123491
 10
-41.3063630626
 20
4.0294292988
 10
-41.2982629632
 20
4.0224352454
 10
-41.2903560467
 20
4.015223324
 10
-41.2826557907
 20
4.0077866698
 10
-41.2766464018
 20
4.0016606418
 10
-41.2707988671
 20
3.9953789649
 10
-41.2651337099
 20
3.9889346782
 10
-41.2596714538
 20
3.9823208207
 10
-41.254432622
 20
3.9755304314
 10
-41.2502544646
 20
3.969730484
 10
-41.2462730352
 20
3.9637949166
 10
-41.2425156112
 20
3.9577155666
 10
-41.2390199307
 20
3.9515146174
 10
-41.2357775067
 20
3.9451768495
 10
-41.2327924344
 20
3.9387161066
 10
-41.2295348812
 20
3.9307899368
 10
-41.2266089383
 20
3.9227318138
 10
-41.2239668144
 20
3.9145681516
 10
-41.2215607185
 20
3.906325364
 10
-41.2193428594
 20
3.8980298647
 10
-41.2159548415
 20
3.8841094795
 10
-41.2128984757
 20
3.8701255212
 10
-41.2101135821
 20
3.8560877855
 10
-41.2075565469
 20
3.8420612376
 10
-41.2051902836
 20
3.8279986342
 10
-41.2029959328
 20
3.8139075559
 10
-41.1999808063
 20
3.7927466622
 10
-41.19720639
 20
3.7715537031
 10
-41.1937147893
 20
3.7432442726
 10
-41.1903107254
 20
3.714923872
 10
-41.1868368231
 20
3.6866121309
  0
LINE
  5
3F6
100
AcDbEntity
  8
218
100
AcDbLine
 62
7
  6
CONTINUOUS
 10
-22.7982683379
 20
1.3760409428
 11
-21.3459748923
 21
1.2489817302
  0
LWPOLYLINE
  5
3F7
100
AcDbEntity
  8
218
100
AcDbPolyline
 62
7
  6
CONTINUOUS
 90
16
 70
0
 10
-23.8854750094
 20
-0.7649998628
 10
-23.8983732206
 20
-0.7616829191
 10
-23.9110712086
 20
-0.757971272
 10
-23.9235689734
 20
-0.7538649214
 10
-23.9358815904
 20
-0.7493558076
 10
-23.9479939843
 20
-0.7444519903
 10
-23.9598609289
 20
-0.7391776492
 10
-23.9714769191
 20
-0.7335272187
 10
-23.9828474601
 20
-0.7275062644
 10
-23.9939438416
 20
-0.7211556629
 10
-24.0047579067
 20
-0.7144722473
 10
-24.0152978122
 20
-0.7074591845
 10
-24.0255593191
 20
-0.7001668511
 10
-24.0355410143
 20
-0.6926120394
 10
-24.0452443108
 20
-0.6847779572
 10
-24.0546692087
 20
-0.6766646044
  0
LINE
  5
3F8
100
AcDbEntity
  8
218
100
AcDbLine
 62
253
  6
CONTINUOUS
 10
-34.5935501644
 20
1.0571425915
 11
-34.2221216151
 21
0.8714283943
  0
LINE
  5
3F9
100
AcDbEntity
  8
218
100
AcDbLine
 62
253
  6
CONTINUOUS
 10
-34.8721216151
 20
0.0357141972
 11
-34.5935501644
 21
-0.15
  0
LINE
  5
3FA
100
AcDbEntity
  8
218
100
AcDbLine
 62
253
  6
CONTINUOUS
 10
-33.5721216151
 20
-1.1714287043
 11
-34.5006930658
 21
-0.5214283943
  0
LINE
  5
3FB
100
AcDbEntity
  8
218
100
AcDbLine
 62
253
  6
CONTINUOUS
 10
-33.5721216151
 20
-0.15
 11
-34.5006930658
 21
0.5
  0
LINE
  5
3FC
100
AcDbEntity
  8
218
100
AcDbLine
 62
253
  6
CONTINUOUS
 10
-33.7534729229
 20
-19.4391026788
 11
-33.7546692087
 21
-19.2951343418
  0
LINE
  5
3FD
100
AcDbEntity
  8
218
100
AcDbLine
 62
253
  6
CONTINUOUS
 10
-33.7535946049
 20
-17.9799897349
 11
-33.7546692087
 21
-17.5898724574
  0
LINE
  5
3FE
100
AcDbEntity
  8
218
100
AcDbLine
 62
253
  6
CONTINUOUS
 10
-33.7532337574
 20
-19.5061874591
 11
-33.7534729229
 21
-19.4391026788
  0
LINE
  5
3FF
100
AcDbEntity
  8
218
100
AcDbLine
 62
253
  6
CONTINUOUS
 10
-33.7533036173
 20
-18.1911848663
 11
-33.7535946049
 21
-17.9799897349
  0
LINE
  5
400
100
AcDbEntity
  8
RACCORDO
100
AcDbLine
 62
253
  6
CONTINUOUS
 10
-35.3695036545
 20
-20.9
 11
-35.3695036545
 21
-20.85
  0
LINE
  5
401
100
AcDbEntity
  8
RACCORDO
100
AcDbLine
 62
253
  6
CONTINUOUS
 10
-35.3695036545
 20
20.85
 11
-35.3695036545
 21
20.9
  0
LINE
  5
402
100
AcDbEntity
  8
RACCORDO
100
AcDbLine
 62
253
  6
CONTINUOUS
 10
-35.3668858932
 20
21.4450957595
 11
-35.3668858932
 21
21.2
  0
LINE
  5
403
100
AcDbEntity
  8
RACCORDO
100
AcDbLine
 62
253
  6
CONTINUOUS
 10
-35.3668858932
 20
-21.2
 11
-35.3668858932
 21
-21.4450957595
  0
LINE
  5
404
100
AcDbEntity
  8
RACCORDO
100
AcDbLine
 62
7
  6
CONTINUOUS
 10
-35.0721216151
 20
-20.85
 11
-35.0721216151
 21
-21.3126932437
  0
LINE
  5
405
100
AcDbEntity
  8
218
100
AcDbLine
 62
7
  6
CONTINUOUS
 10
-35.0721216151
 20
-20.85
 11
-35.0721216151
 21
-19.3181305591
  0
LINE
  5
406
100
AcDbEntity
  8
218
100
AcDbLine
 62
7
  6
CONTINUOUS
 10
-35.0721216151
 20
19.3181305591
 11
-35.0721216151
 21
20.85
  0
LINE
  5
407
100
AcDbEntity
  8
RACCORDO
100
AcDbLine
 62
7
  6
CONTINUOUS
 10
-35.0721216151
 20
20.85
 11
-35.0721216151
 21
21.3126932437
  0
LINE
  5
408
100
AcDbEntity
  8
218
100
AcDbLine
 62
253
  6
CONTINUOUS
 10
-34.8721216151
 20
2.3571425915
 11
-34.8721216151
 21
2.0785716057
  0
LINE
  5
409
100
AcDbEntity
  8
218
100
AcDbLine
 62
253
  6
CONTINUOUS
 10
-34.8721216151
 20
0.3142858028
 11
-34.8721216151
 21
0.0357141972
  0
LINE
  5
40A
100
AcDbEntity
  8
218
100
AcDbLine
 62
253
  6
CONTINUOUS
 10
-34.8721216151
 20
-0.7071425915
 11
-34.8721216151
 21
-0.9857141972
  0
LINE
  5
40B
100
AcDbEntity
  8
218
100
AcDbLine
 62
253
  6
CONTINUOUS
 10
-34.8721216151
 20
-1.7285712957
 11
-34.8721216151
 21
-2.0071429014
  0
LINE
  5
40C
100
AcDbEntity
  8
218
100
AcDbLine
 62
253
  6
CONTINUOUS
 10
-34.8721216151
 20
-4.7928571761
 11
-34.8721216151
 21
-4.4214285493
  0
LINE
  5
40D
100
AcDbEntity
  8
218
100
AcDbLine
 62
253
  6
CONTINUOUS
 10
-34.3149787912
 20
1.3357141972
 11
-34.3149787912
 21
0.93333354
  0
LINE
  5
40E
100
AcDbEntity
  8
218
100
AcDbLine
 62
253
  6
CONTINUOUS
 10
-34.6864073405
 20
-1.5428570986
 11
-34.8721216151
 21
-1.7285712957
  0
LINE
  5
40F
100
AcDbEntity
  8
218
100
AcDbLine
 62
253
  6
CONTINUOUS
 10
-26.3928476347
 20
6.3582142437
 11
-26.2071616453
 21
6.534642731
  0
LINE
  5
410
100
AcDbEntity
  8
218
100
AcDbLine
 62
253
  6
CONTINUOUS
 10
-42.4878907819
 20
-7.276321
 11
-39.5886361248
 21
-6.345182
  0
LINE
  5
411
100
AcDbEntity
  8
218
100
AcDbLine
 62
253
  6
CONTINUOUS
 10
-34.5006930658
 20
-3.4
 11
-33.5721216151
 21
-3.1214287043
  0
LWPOLYLINE
  5
412
100
AcDbEntity
  8
218
100
AcDbPolyline
 62
253
  6
CONTINUOUS
 90
56
 70
0
 10
-41.5963986834
 20
4.7815268003
 10
-41.6319980976
 20
4.7810903355
 10
-41.6675801815
 20
4.7797469392
 10
-41.7031150194
 20
4.7774456088
 10
-41.7297121409
 20
4.7750590265
 10
-41.7562481185
 20
4.7720735279
 10
-41.782705198
 20
4.7684575464
 10
-41.8090656251
 20
4.7641795157
 10
-41.8353179936
 20
4.7592044695
 10
-41.8614210903
 20
4.7534945384
 10
-41.8873401299
 20
4.7470089397
 10
-41.9130403275
 20
4.739706891
 10
-41.9385979012
 20
4.7315169358
 10
-41.9638653159
 20
4.7224629565
 10
-41.9888082665
 20
4.7125456873
 10
-42.0133924478
 20
4.7017658625
 10
-42.0375859689
 20
4.6901212368
 10
-42.0613421666
 20
4.6776095775
 10
-42.0846169246
 20
4.664225963
 10
-42.1073661266
 20
4.6499654719
 10
-42.1294703503
 20
4.6348791161
 10
-42.150961309
 20
4.6189286212
 10
-42.1717915286
 20
4.6021256376
 10
-42.1919135349
 20
4.5844818161
 10
-42.2112521184
 20
4.5660438199
 10
-42.2298088418
 20
4.5468168518
 10
-42.2475550779
 20
4.5268384338
 10
-42.2644621993
 20
4.506146088
 10
-42.2805123175
 20
4.4847728433
 10
-42.2956984667
 20
4.4627770448
 10
-42.3100250025
 20
4.4402129989
 10
-42.3234962806
 20
4.4171350117
 10
-42.3361303182
 20
4.3936000111
 10
-42.3480021012
 20
4.369671016
 10
-42.359200224
 20
4.3454136383
 10
-42.3698132815
 20
4.3208934898
 10
-42.3831835664
 20
4.2878983452
 10
-42.3957675643
 20
4.2546024915
 10
-42.4076609968
 20
4.2210554833
 10
-42.416181904
 20
4.1957356811
 10
-42.4243462325
 20
4.170298734
 10
-42.4321107711
 20
4.1447328178
 10
-42.4393399826
 20
4.1190103969
 10
-42.4458742534
 20
4.0931403755
 10
-42.4516012739
 20
4.0670815831
 10
-42.4564453865
 20
4.0408478553
 10
-42.4604985349
 20
4.0144780549
 10
-42.4638963827
 20
3.9879736233
 10
-42.4667535957
 20
3.9614062067
 10
-42.4691924592
 20
3.934774113
 10
-42.4713330674
 20
3.9081159546
 10
-42.4750670686
 20
3.8548391481
 10
-42.4782446022
 20
3.8015261757
 10
-42.480999431
 20
3.7482280064
 10
-42.4834484829
 20
3.6949149145
 10
-42.4877466851
 20
3.5882200575
  0
LINE
  5
413
100
AcDbEntity
  8
218
100
AcDbLine
 62
253
  6
CONTINUOUS
 10
-26.3928476347
 20
4.5057143173
 11
-25.093045631
 21
4.5057143173
  0
LINE
  5
414
100
AcDbEntity
  8
218
100
AcDbLine
 62
7
  6
CONTINUOUS
 10
-23.0721216151
 20
4.55
 11
-22.8721216151
 21
4.55
  0
LINE
  5
415
100
AcDbEntity
  8
RACCORDO
100
AcDbLine
 62
253
  6
CONTINUOUS
 10
-49.2827557228
 20
4.8
 11
-50.6120250035
 21
4.8
  0
LINE
  5
416
100
AcDbEntity
  8
RACCORDO
100
AcDbLine
 62
7
  6
CONTINUOUS
 10
-49.2581988106
 20
5.0
 11
-50.6330458506
 21
5.0
  0
LINE
  5
417
100
AcDbEntity
  8
218
100
AcDbLine
 62
253
  6
CONTINUOUS
 10
-39.5886291269
 20
5.171133
 11
-42.4877468258
 21
5.171133
  0
LINE
  5
418
100
AcDbEntity
  8
RACCORDO
100
AcDbLine
 62
253
  6
CONTINUOUS
 10
-49.2336418984
 20
5.2
 11
-50.6540666976
 21
5.2
  0
LINE
  5
419
100
AcDbEntity
  8
218
100
AcDbLine
 62
253
  6
CONTINUOUS
 10
-42.4877468258
 20
5.793739
 11
-40.0704153366
 21
5.793739
  0
LINE
  5
41A
100
AcDbEntity
  8
218
100
AcDbLine
 62
253
  6
CONTINUOUS
 10
-25.093045631
 20
5.9171428782
 11
-26.3928476347
 21
5.9171428782
  0
LINE
  5
41B
100
AcDbEntity
  8
218
100
AcDbLine
 62
253
  6
CONTINUOUS
 10
-34.8721216151
 20
2.0785716057
 11
-34.5935501644
 21
1.8928574085
  0
LINE
  5
41C
100
AcDbEntity
  8
218
100
AcDbLine
 62
253
  6
CONTINUOUS
 10
-33.5721216151
 20
1.8928574085
 11
-34.5006930658
 21
2.5428574085
  0
LINE
  5
41D
100
AcDbEntity
  8
218
100
AcDbLine
 62
253
  6
CONTINUOUS
 10
-34.8721216151
 20
1.3357141972
 11
-34.5935501644
 21
1.0571425915
  0
LINE
  5
41E
100
AcDbEntity
  8
218
100
AcDbLine
 62
253
  6
CONTINUOUS
 10
-33.5721216151
 20
1.3357141972
 11
-33.7578359091
 21
1.5214283943
  0
LINE
  5
41F
100
AcDbEntity
  8
218
100
AcDbLine
 62
253
  6
CONTINUOUS
 10
-30.2414770106
 20
-3.75
 11
-31.2743533146
 21
-2.418978
  0
LWPOLYLINE
  5
420
100
AcDbEntity
  8
218
100
AcDbPolyline
 62
253
  6
CONTINUOUS
 90
13
 70
0
 10
-32.7721216151
 20
-9.6264307462
 10
-32.7722838997
 20
-9.6257213219
 10
-32.7727691069
 20
-9.6245452809
 10
-32.7735746942
 20
-9.6229026232
 10
-32.7746949516
 20
-9.6208002725
 10
-32.7761287003
 20
-9.6182313051
 10
-32.7778869045
 20
-9.6151749494
 10
-32.7799751337
 20
-9.6116398225
 10
-32.7823960576
 20
-9.6076173074
 10
-32.7851677889
 20
-9.6030607812
 10
-32.7883024487
 20
-9.5979706914
 10
-32.7918055098
 20
-9.5923465907
 10
-32.7999701781
 20
-9.5793539385
  0
LWPOLYLINE
  5
421
100
AcDbEntity
  8
218
100
AcDbPolyline
 62
253
  6
CONTINUOUS
 90
13
 70
0
 10
-32.4360960946
 20
11.4153897453
 10
-32.4369385619
 20
11.432001668
 10
-32.4376275485
 20
11.4486208966
 10
-32.4381629718
 20
11.4652460822
 10
-32.4385447496
 20
11.4818758756
 10
-32.43877282
 20
11.4985088728
 10
-32.4388472034
 20
11.5151434491
 10
-32.4387679406
 20
11.5317779247
 10
-32.4385350724
 20
11.5484106199
 10
-32.4381486398
 20
11.5650398547
 10
-32.4376086836
 20
11.5816639496
 10
-32.4369152448
 20
11.5982812246
 10
-32.436068364
 20
11.61489
  0
LINE
  5
422
100
AcDbEntity
  8
218
100
AcDbLine
 62
253
  6
CONTINUOUS
 10
-33.7546692087
 20
-19.2951343418
 11
-33.7546692087
 21
-19.0038706282
  0
LINE
  5
423
100
AcDbEntity
  8
218
100
AcDbLine
 62
253
  6
CONTINUOUS
 10
-33.7546692087
 20
-17.5898724574
 11
-33.7546692087
 21
-8.1526054383
  0
LINE
  5
424
100
AcDbEntity
  8
218
100
AcDbLine
 62
253
  6
CONTINUOUS
 10
-33.5721216151
 20
2.5428574085
 11
-33.5721216151
 21
1.8928574085
  0
LINE
  5
425
100
AcDbEntity
  8
218
100
AcDbLine
 62
253
  6
CONTINUOUS
 10
-33.5721216151
 20
0.5
 11
-33.5721216151
 21
-0.15
  0
LINE
  5
426
100
AcDbEntity
  8
218
100
AcDbLine
 62
253
  6
CONTINUOUS
 10
-33.5721216151
 20
-0.5214283943
 11
-33.5721216151
 21
-1.1714287043
  0
LINE
  5
427
100
AcDbEntity
  8
218
100
AcDbLine
 62
253
  6
CONTINUOUS
 10
-33.5721216151
 20
-1.5428570986
 11
-33.5721216151
 21
-2.1928570986
  0
LINE
  5
428
100
AcDbEntity
  8
218
100
AcDbLine
 62
253
  6
CONTINUOUS
 10
-33.5721216151
 20
-4.8857142746
 11
-33.5721216151
 21
-4.5142856479
  0
LINE
  5
429
100
AcDbEntity
  8
218
100
AcDbLine
 62
253
  6
CONTINUOUS
 10
-33.5721216151
 20
1.0571425915
 11
-33.5721216151
 21
1.3357141972
  0
LINE
  5
42A
100
AcDbEntity
  8
218
100
AcDbLine
 62
7
  6
CONTINUOUS
 10
-32.7721216151
 20
-18.5881352564
 11
-32.7721216151
 21
-9.6264307462
  0
LINE
  5
42B
100
AcDbEntity
  8
218
100
AcDbLine
 62
253
  6
CONTINUOUS
 10
-31.876384888
 20
-3.997789
 11
-31.876384888
 21
-3.502211
  0
LINE
  5
42C
100
AcDbEntity
  8
218
100
AcDbLine
 62
253
  6
CONTINUOUS
 10
-33.7533036174
 20
-18.5132184133
 11
-33.7533036173
 21
-18.1911848663
  0
LINE
  5
42D
100
AcDbEntity
  8
218
100
AcDbLine
 62
253
  6
CONTINUOUS
 10
-33.7538752039
 20
-18.8072018599
 11
-33.7533036174
 21
-18.5132184133
  0
LINE
  5
42E
100
AcDbEntity
  8
218
100
AcDbLine
 62
253
  6
CONTINUOUS
 10
-33.7532816715
 20
-19.5372098137
 11
-33.7532337574
 21
-19.5061874591
  0
LINE
  5
42F
100
AcDbEntity
  8
218
100
AcDbLine
 62
253
  6
CONTINUOUS
 10
-33.7546692087
 20
-19.0038706282
 11
-33.7538752039
 21
-18.8072018599
  0
LINE
  5
430
100
AcDbEntity
  8
218
100
AcDbLine
 62
253
  6
CONTINUOUS
 10
-33.7533933136
 20
-19.5538922026
 11
-33.7532816715
 21
-19.5372098137
  0
LWPOLYLINE
  5
431
100
AcDbEntity
  8
218
100
AcDbPolyline
 62
253
  6
CONTINUOUS
 90
95
 70
0
 10
-33.1866566753
 20
16.000003
 10
-33.1885762101
 20
15.9145012404
 10
-33.1876286616
 20
15.8289730212
 10
-33.1838140138
 20
15.7435284291
 10
-33.1771371347
 20
15.6582625653
 10
-33.167605145
 20
15.5732676784
 10
-33.155229292
 20
15.4886395924
 10
-33.1400229269
 20
15.4044745847
 10
-33.1220036885
 20
15.3208671708
 10
-33.1011913324
 20
15.2379112534
 10
-33.0776097931
 20
15.1557000436
 10
-33.0512850791
 20
15.0743262462
 10
-33.022247317
 20
14.9938812336
 10
-32.990528668
 20
14.9144556676
 10
-32.9561653144
 20
14.8361387012
 10
-32.9191954208
 20
14.7590186601
 10
-32.8796610626
 20
14.6831820688
 10
-32.8376062376
 20
14.6087144888
 10
-32.7930787247
 20
14.5356994292
 10
-32.7461281567
 20
14.4642193103
 10
-32.6968078011
 20
14.3943542495
 10
-32.6451727025
 20
14.3261831534
 10
-32.5912813775
 20
14.2597823872
 10
-32.5351940345
 20
14.195226989
 10
-32.4769741762
 20
14.1325892288
 10
-32.4166869041
 20
14.0719399384
 10
-32.3544004212
 20
14.0133469671
 10
-32.2901844291
 20
13.9568766222
 10
-32.2241115243
 20
13.9025920269
 10
-32.1562556951
 20
13.8505546657
 10
-32.0866936048
 20
13.8008226518
 10
-32.0155031957
 20
13.7534523702
 10
-31.9427648528
 20
13.7084966628
 10
-31.8685601217
 20
13.6660065614
 10
-31.7929727479
 20
13.6260293988
 10
-31.7160875133
 20
13.5886106241
 10
-31.6379911469
 20
13.5537918481
 10
-31.5587712856
 20
13.5216127326
 10
-31.4785172519
 20
13.4921089794
 10
-31.3973191435
 20
13.4653142845
 10
-31.3152684743
 20
13.4412582801
 10
-31.2324573976
 20
13.4199685448
 10
-31.1489792072
 20
13.4014685078
 10
-31.0649276971
 20
13.3857795064
 10
-30.9803975214
 20
13.3729186613
 10
-30.8954836932
 20
13.3629009725
 10
-30.8102818008
 20
13.3557371752
 10
-30.7248876489
 20
13.3514358648
 10
-30.6393973302
 20
13.3500013425
 10
-30.5539070097
 20
13.3514357603
 10
-30.4685128525
 20
13.3557369664
 10
-30.3833109514
 20
13.3629006595
 10
-30.298397111
 20
13.3729182445
 10
-30.2138669196
 20
13.3857789864
 10
-30.1298153903
 20
13.4014678851
 10
-30.0463371773
 20
13.4199678201
 10
-29.9635260746
 20
13.4412574541
 10
-29.881475376
 20
13.4653133583
 10
-29.8002772349
 20
13.4921079539
 10
-29.7200231651
 20
13.521611609
 10
-29.6408032646
 20
13.5537906277
 10
-29.5627068556
 20
13.5886093083
 10
-29.4858215753
 20
13.6260279891
 10
-29.4102341527
 20
13.6660050592
 10
-29.3360293697
 20
13.70849507
 10
-29.2632909719
 20
13.7534506885
 10
-29.1921005049
 20
13.8008208831
 10
-29.1225383539
 20
13.850552812
 10
-29.0546824612
 20
13.9025900903
 10
-28.98860949
 20
13.9568746048
 10
-28.924393429
 20
14.0133448712
 10
-28.8621068745
 20
14.0719377664
 10
-28.8018195284
 20
14.1325869831
 10
-28.7435995936
 20
14.1952246722
 10
-28.6875121718
 20
14.2597800018
 10
-28.6336207656
 20
14.3261807022
 10
-28.5819855837
 20
14.3943517352
 10
-28.5326651428
 20
14.4642167357
 10
-28.4857144875
 20
14.5356967972
 10
-28.4411868854
 20
14.6087118024
 10
-28.3991319695
 20
14.683179331
 10
-28.3595975186
 20
14.759015874
 10
-28.3226275309
 20
14.8361358699
 10
-28.2882640816
 20
14.9144527943
 10
-28.2565453356
 20
14.9938783216
 10
-28.2275074753
 20
15.0743232987
 10
-28.2011826619
 20
15.1556970639
 10
-28.1776010222
 20
15.2379082449
 10
-28.1567885648
 20
15.3208641369
 10
-28.1387692243
 20
15.4044715287
 10
-28.1235627563
 20
15.4886365179
 10
-28.1111868
 20
15.5732645888
 10
-28.1016547065
 20
15.6582594639
 10
-28.0949777233
 20
15.7435253196
 10
-28.0911629711
 20
15.8289699071
  0
LWPOLYLINE
  5
432
100
AcDbEntity
  8
218
100
AcDbPolyline
 62
253
  6
CONTINUOUS
 90
95
 70
0
 10
-33.1866566753
 20
11.61489
 10
-33.1885761093
 20
11.5293882733
 10
-33.1876284623
 20
11.4438600904
 10
-33.1838137182
 20
11.3584155377
 10
-33.1771367454
 20
11.2731497166
 10
-33.1676046644
 20
11.1881548754
 10
-33.1552287227
 20
11.1035268379
 10
-33.1400222716
 20
11.0193618814
 10
-33.12200295
 20
10.9357545215
 10
-33.1011905137
 20
10.8527986605
 10
-33.0776088971
 20
10.7705875094
 10
-33.0512841087
 20
10.6892137731
 10
-33.0222462753
 20
10.6087688237
 10
-32.9905275582
 20
10.5293433227
 10
-32.9561641396
 20
10.4510264232
 10
-32.9191941843
 20
10.3739064507
 10
-32.8796597676
 20
10.2980699296
 10
-32.8376048874
 20
10.2236024212
 10
-32.7930773227
 20
10.1505874344
 10
-32.7461267061
 20
10.0791073895
 10
-32.6968063054
 20
10.0092424037
 10
-32.645171165
 20
9.9410713833
 10
-32.5912798015
 20
9.8746706936
 10
-32.5351924235
 20
9.8101153725
 10
-32.4769725336
 20
9.7474776897
 10
-32.4166852332
 20
9.686828477
 10
-32.3543987253
 20
9.6282355836
 10
-32.2901827116
 20
9.5717653166
 10
-32.2241097884
 20
9.5174807991
 10
-32.1562539442
 20
9.4654435153
 10
-32.086691842
 20
9.4157115786
 10
-32.0155014241
 20
9.3683413736
 10
-31.9427630757
 20
9.3233857422
 10
-31.8685583421
 20
9.2808957159
 10
-31.7929709688
 20
9.2409186277
 10
-31.7160857376
 20
9.2034999262
 10
-31.6379893775
 20
9.1686812224
 10
-31.5587695254
 20
9.1365021779
 10
-31.4785155036
 20
9.1069984943
 10
-31.3973174097
 20
9.0802038677
 10
-31.3152667576
 20
9.0561479299
 10
-31.2324557004
 20
9.0348582597
 10
-31.148977532
 20
9.016358286
 10
-31.0649260462
 20
9.0006693461
 10
-30.980395897
 20
8.9878085606
 10
-30.8954820974
 20
8.9777909296
 10
-30.8102802356
 20
8.9706271879
 10
-30.7248861162
 20
8.966325931
 10
-30.6393958318
 20
8.9648914601
 10
-30.5539055473
 20
8.9663259271
 10
-30.4685114277
 20
8.97062718
 10
-30.3833095656
 20
8.9777909177
 10
-30.2983957655
 20
8.9878085449
 10
-30.2138656157
 20
9.0006693265
 10
-30.1298141292
 20
9.0163582625
 10
-30.0463359599
 20
9.0348582323
 10
-29.9635249018
 20
9.0561478987
 10
-29.8814742486
 20
9.0802038327
 10
-29.8002761535
 20
9.1069984556
 10
-29.7200221303
 20
9.1365021355
 10
-29.6408022767
 20
9.1686811763
 10
-29.5627059149
 20
9.2034998765
 10
-29.4858206821
 20
9.2409185744
 10
-29.4102333069
 20
9.2808956592
 10
-29.3360285714
 20
9.323385682
 10
-29.2632902208
 20
9.3683413101
 10
-29.1920998008
 20
9.4157115118
 10
-29.1225376963
 20
9.4654434453
 10
-29.0546818496
 20
9.5174807259
 10
-28.9886089239
 20
9.5717652404
 10
-28.9243929077
 20
9.6282355045
 10
-28.862106397
 20
9.686828395
 10
-28.8018190939
 20
9.7474776049
 10
-28.7435992011
 20
9.810115285
 10
-28.6875118201
 20
9.8746706035
 10
-28.6336204536
 20
9.9410712907
 10
-28.58198531
 20
10.0092423087
 10
-28.5326649061
 20
10.0791072922
 10
-28.4857142862
 20
10.150587335
 10
-28.4411867181
 20
10.2236023197
 10
-28.3991318345
 20
10.2980698263
 10
-28.3595974143
 20
10.3739063455
 10
-28.3226274555
 20
10.4510263163
 10
-28.2882640332
 20
10.5293432142
 10
-28.2565453125
 20
10.6087687137
 10
-28.2275074753
 20
10.6892136618
 10
-28.2011826832
 20
10.7705873969
 10
-28.1776010628
 20
10.8527985469
 10
-28.1567886226
 20
10.9357544069
 10
-28.1387692972
 20
11.019361766
 10
-28.1235628422
 20
11.1035267218
 10
-28.1111868967
 20
11.1881547587
 10
-28.1016548118
 20
11.2731495994
 10
-28.0949778349
 20
11.3584154203
 10
-28.091163087
 20
11.4438599728
  0
LINE
  5
433
100
AcDbEntity
  8
218
100
AcDbLine
 62
253
  6
CONTINUOUS
 10
-33.9435502031
 20
-4.3285714507
 11
-34.5006930658
 21
-4.9785714507
  0
LINE
  5
434
100
AcDbEntity
  8
218
100
AcDbLine
 62
253
  6
CONTINUOUS
 10
-34.8721216151
 20
-4.4214285493
 11
-34.779264439
 21
-4.3285714507
  0
LINE
  5
435
100
AcDbEntity
  8
218
100
AcDbLine
 62
253
  6
CONTINUOUS
 10
-33.6649787621
 20
-4.9785714507
 11
-33.5721216151
 21
-4.8857142746
  0
LWPOLYLINE
  5
436
100
AcDbEntity
  8
218
100
AcDbPolyline
 62
253
  6
CONTINUOUS
 90
61
 70
0
 10
-31.2743534285
 20
-2.4189778532
 10
-31.2401588822
 20
-2.3931176694
 10
-31.2053119744
 20
-2.3681321257
 10
-31.1698392973
 20
-2.3440405276
 10
-31.1337667905
 20
-2.3208612272
 10
-31.0971177811
 20
-2.2986087632
 10
-31.0599149434
 20
-2.2772967209
 10
-31.0221813504
 20
-2.2569385531
 10
-30.9839416712
 20
-2.2375471819
 10
-30.9452209734
 20
-2.2191353966
 10
-30.9060444116
 20
-2.2017156183
 10
-30.8664374877
 20
-2.1852987939
 10
-30.8264257903
 20
-2.1698955017
 10
-30.7860350469
 20
-2.1555160013
 10
-30.7452915416
 20
-2.1421692764
 10
-30.7042216974
 20
-2.1298639919
 10
-30.6628520299
 20
-2.1186084694
 10
-30.6212094257
 20
-2.1084096569
 10
-30.5793208643
 20
-2.0992741591
 10
-30.5372133972
 20
-2.091208235
 10
-30.494914364
 20
-2.084216762
 10
-30.4524511765
 20
-2.0783042717
 10
-30.4098512905
 20
-2.0734749449
 10
-30.3671423375
 20
-2.0697315579
 10
-30.3243519932
 20
-2.0670765363
 10
-30.2815079504
 20
-2.0655119524
 10
-30.2386379722
 20
-2.0650384662
 10
-30.1957698388
 20
-2.0656563847
 10
-30.1529313211
 20
-2.0673656612
 10
-30.1101501514
 20
-2.0701648353
 10
-30.0674540524
 20
-2.0740520931
 10
-30.0248707103
 20
-2.0790252689
 10
-29.9824276652
 20
-2.0850807905
 10
-29.9401524207
 20
-2.0922147338
 10
-29.8980724172
 20
-2.1004228269
 10
-29.8562148423
 20
-2.1096994062
 10
-29.8146068202
 20
-2.1200384604
 10
-29.7732753857
 20
-2.1314336359
 10
-29.7322472147
 20
-2.1438772115
 10
-29.6915488939
 20
-2.1573611242
 10
-29.6512068943
 20
-2.171876976
 10
-29.6112472269
 20
-2.1874150313
 10
-29.5716957871
 20
-2.2039652197
 10
-29.5325783291
 20
-2.2215171477
 10
-29.4939200407
 20
-2.2400591285
 10
-29.4557459687
 20
-2.259579152
 10
-29.4180809981
 20
-2.2800648912
 10
-29.380949369
 20
-2.3015027509
 10
-29.3443751601
 20
-2.3238788194
 10
-29.3083822484
 20
-2.3471789011
 10
-29.2729937046
 20
-2.3713876665
 10
-29.2382323977
 20
-2.3964895024
 10
-29.204121036
 20
-2.4224684529
 10
-29.1706816852
 20
-2.4493071911
 10
-29.1379362503
 20
-2.4769880471
 10
-29.1059062187
 20
-2.505493303
 10
-29.074611407
 20
-2.5348050501
 10
-29.0440712144
 20
-2.5649053316
 10
-29.0143054831
 20
-2.5957751237
 10
-28.9853358282
 20
-2.6273911332
 10
-28.957184308
 20
-2.659729
  0
LINE
  5
437
100
AcDbEntity
  8
218
100
AcDbLine
 62
253
  6
CONTINUOUS
 10
-34.8721216151
 20
-6.0
 11
-33.5721216151
 21
-5.35
  0
LINE
  5
438
100
AcDbEntity
  8
218
100
AcDbLine
 62
253
  6
CONTINUOUS
 10
-40.7096525743
 20
-7.285246
 11
-41.5849248969
 21
-7.56635
  0
LINE
  5
439
100
AcDbEntity
  8
218
100
AcDbLine
 62
253
  6
CONTINUOUS
 10
-39.5886441223
 20
-6.925211
 11
-40.1587984081
 21
-7.108317
  0
LWPOLYLINE
  5
43A
100
AcDbEntity
  8
218
100
AcDbPolyline
 62
253
  6
CONTINUOUS
 90
85
 70
0
 10
-24.0546692087
 20
-2.72333515
 10
-24.0462685466
 20
-2.7208367691
 10
-24.037825068
 20
-2.7186363644
 10
-24.0293394095
 20
-2.716733936
 10
-24.020819625
 20
-2.7151233494
 10
-24.0122589846
 20
-2.7138107391
 10
-24.0036360101
 20
-2.7128145085
 10
-23.9949483041
 20
-2.7121325928
 10
-23.9861998095
 20
-2.7117670567
 10
-23.9773786636
 20
-2.7117424984
 10
-23.9684830631
 20
-2.7120586915
 10
-23.959516622
 20
-2.7127158623
 10
-23.9504757029
 20
-2.7137392879
 10
-23.9413630062
 20
-2.7151289421
 10
-23.9321779088
 20
-2.7168848511
 10
-23.9229119037
 20
-2.7190323702
 10
-23.9135842061
 20
-2.7215627522
 10
-23.9041779849
 20
-2.7244847443
 10
-23.8946310802
 20
-2.7278499434
 10
-23.8849658083
 20
-2.7316374781
 10
-23.8751632595
 20
-2.7358682199
 10
-23.8651006234
 20
-2.7406563792
 10
-23.854762891
 20
-2.7459973878
 10
-23.8441710774
 20
-2.7518958139
 10
-23.8332580189
 20
-2.7584795734
 10
-23.8219875626
 20
-2.7657762589
 10
-23.8104048642
 20
-2.7737582777
 10
-23.7985653106
 20
-2.7824707673
 10
-23.7864654487
 20
-2.7919359699
 10
-23.7741187584
 20
-2.8021316433
 10
-23.7616051754
 20
-2.8130361979
 10
-23.7489686258
 20
-2.8246230096
 10
-23.7361748649
 20
-2.8369187025
 10
-23.7231866967
 20
-2.8499815595
 10
-23.7100281951
 20
-2.8637891537
 10
-23.6966881774
 20
-2.8783639119
 10
-23.6830793482
 20
-2.8938313977
 10
-23.6692005238
 20
-2.910200651
 10
-23.6550722391
 20
-2.9274626319
 10
-23.6406436162
 20
-2.9457157842
 10
-23.6258988426
 20
-2.9650037912
 10
-23.6108804046
 20
-2.9852829697
 10
-23.5956268244
 20
-3.0065207134
 10
-23.5801896506
 20
-3.0286708294
 10
-23.5645467794
 20
-3.0517795105
 10
-23.5486296384
 20
-3.0759527297
 10
-23.5324806891
 20
-3.1011565347
 10
-23.516098846
 20
-3.1274248777
 10
-23.4993606098
 20
-3.1549655881
 10
-23.4823063451
 20
-3.1837665947
 10
-23.4649590425
 20
-3.2138399687
 10
-23.4471865221
 20
-3.2454297536
 10
-23.4289889719
 20
-3.2786376502
 10
-23.4104657243
 20
-3.3133619577
 10
-23.3916486023
 20
-3.3495416169
 10
-23.37250229
 20
-3.3873889306
 10
-23.3531919023
 20
-3.4266915961
 10
-23.3340362602
 20
-3.4667516456
 10
-23.3150929678
 20
-3.507557264
 10
-23.2964056523
 20
-3.5491202665
 10
-23.2782314523
 20
-3.5907781311
 10
-23.2605745093
 20
-3.6325788103
 10
-23.2434971486
 20
-3.6744743515
 10
-23.2272869634
 20
-3.7156583753
 10
-23.2120222874
 20
-3.7558841108
 10
-23.1976081417
 20
-3.7953983287
 10
-23.1840359181
 20
-3.8341349615
 10
-23.1712945113
 20
-3.872095032
 10
-23.1593812315
 20
-3.9092775173
 10
-23.1482971118
 20
-3.9456132812
 10
-23.138036533
 20
-3.9810726884
 10
-23.1285806514
 20
-4.0156853743
 10
-23.1199092958
 20
-4.0494711089
 10
-23.1120095912
 20
-4.0824291645
 10
-23.104870075
 20
-4.1145602689
 10
-23.0984745171
 20
-4.1458863759
 10
-23.0928111871
 20
-4.1763985404
 10
-23.0878654329
 20
-4.2061057074
 10
-23.0836190643
 20
-4.2350566665
 10
-23.0800608971
 20
-4.2632433901
 10
-23.0771771275
 20
-4.2906739056
 10
-23.0749510218
 20
-4.3174210851
 10
-23.0733722229
 20
-4.3435092191
 10
-23.0724325116
 20
-4.368914017
 10
-23.0721216151
 20
-4.3936354788
  0
LWPOLYLINE
  5
43B
100
AcDbEntity
  8
218
100
AcDbPolyline
 62
7
  6
CONTINUOUS
 90
136
 70
0
 10
-23.8854755693
 20
11.1649997283
 10
-23.7999834312
 20
11.1857549336
 10
-23.7171967158
 20
11.2062285312
 10
-23.6371154232
 20
11.2264205211
 10
-23.5598188397
 20
11.2463239364
 10
-23.4852276789
 20
11.2659457439
 10
-23.413104082
 20
11.2853068448
 10
-23.3434376195
 20
11.3044085964
 10
-23.2762387208
 20
11.3232496413
 10
-23.2113008152
 20
11.341846809
 10
-23.1486178489
 20
11.3602004999
 10
-23.0881958756
 20
11.3783103135
 10
-23.0298464855
 20
11.3961918785
 10
-22.9735640354
 20
11.4138455956
 10
-22.9193541686
 20
11.431271064
 10
-22.8670454052
 20
11.4484827096
 10
-22.8166324773
 20
11.4654809529
 10
-22.7681206529
 20
11.4822653732
 10
-22.7213542558
 20
11.4988491355
 10
-22.6763284726
 20
11.5152326591
 10
-22.6330481166
 20
11.5314155245
 10
-22.5913719524
 20
11.5474096376
 10
-22.5512955489
 20
11.5632154497
 10
-22.5128233371
 20
11.5788325095
 10
-22.4758273742
 20
11.5942713687
 10
-22.440303564
 20
11.6095325516
 10
-22.4062560026
 20
11.624615534
 10
-22.373569036
 20
11.6395292947
 10
-22.3422389076
 20
11.65427447
 10
-22.3122693739
 20
11.6688504237
 10
-22.2835560511
 20
11.6832642264
 10
-22.2560955368
 20
11.6975166846
 10
-22.2298912334
 20
11.7116069919
 10
-22.2048489646
 20
11.7255397998
 10
-22.1809657396
 20
11.7393161558
 10
-22.1582445492
 20
11.7529350125
 10
-22.1366001893
 20
11.7663978796
 10
-22.1160302067
 20
11.7797061136
 10
-22.0965370546
 20
11.7928583581
 10
-22.0780428887
 20
11.805852054
 10
-22.0605459672
 20
11.8186889326
 10
-22.0440480319
 20
11.8313672625
 10
-22.0284764644
 20
11.8438792904
 10
-22.013830613
 20
11.8562269796
 10
-22.0001111293
 20
11.8684083668
 10
-21.9872473501
 20
11.8804098079
 10
-21.9752396528
 20
11.8922336317
 10
-21.96408766
 20
11.9038775094
 10
-21.9537195753
 20
11.9153208104
 10
-21.9441374591
 20
11.9265652058
 10
-21.935339251
 20
11.9376090246
 10
-21.9272469744
 20
11.9484266226
 10
-21.9198672933
 20
11.9590102122
 10
-21.9131935436
 20
11.9693675812
 10
-21.9071277561
 20
11.9794964491
 10
-21.9016727246
 20
11.9893824673
 10
-21.8968256552
 20
11.9990399845
 10
-21.8924801968
 20
12.0085097658
 10
-21.8886287112
 20
12.0177860069
 10
-21.8852788366
 20
12.0268745121
 10
-21.8823471371
 20
12.0358334598
 10
-21.8798229629
 20
12.0446641951
 10
-21.8777169638
 20
12.053365373
 10
-21.8759776538
 20
12.0619911361
 10
-21.8745959851
 20
12.0705426333
 10
-21.8735810055
 20
12.0790187156
 10
-21.8729083726
 20
12.0874700796
 10
-21.8725699387
 20
12.0958970036
 10
-21.8725738515
 20
12.1042992093
 10
-21.872920211
 20
12.1127265577
 10
-21.8736008846
 20
12.121178825
 10
-21.8746240048
 20
12.1296562352
 10
-21.8760140694
 20
12.138209321
 10
-21.8777619793
 20
12.1468367647
 10
-21.8798768335
 20
12.155539884
 10
-21.8824104264
 20
12.1643731652
 10
-21.8853517335
 20
12.173334733
 10
-21.8887117794
 20
12.1824264627
 10
-21.8925754313
 20
12.1917084652
 10
-21.8969352342
 20
12.2011873351
 10
-21.9017986431
 20
12.210856478
 10
-21.9072728911
 20
12.2207562217
 10
-21.9133614571
 20
12.2309016266
 10
-21.9200608623
 20
12.2412776324
 10
-21.9274679026
 20
12.2518793863
 10
-21.9355889155
 20
12.2627138399
 10
-21.9444175637
 20
12.2737740415
 10
-21.9540316313
 20
12.2850342839
 10
-21.9644329594
 20
12.296492693
 10
-21.975619707
 20
12.3081511429
 10
-21.9876641352
 20
12.3199895482
 10
-22.0005668246
 20
12.3320058119
 10
-22.0143271947
 20
12.344202031
 10
-22.0290157649
 20
12.3565644114
 10
-22.0446317966
 20
12.3690909109
 10
-22.0611760284
 20
12.3817835717
 10
-22.078721196
 20
12.3946347265
 10
-22.0972655651
 20
12.4076426599
 10
-22.11681087
 20
12.4208090874
 10
-22.1374350493
 20
12.4341314876
 10
-22.1591356343
 20
12.4476085018
 10
-22.1819150937
 20
12.4612414888
 10
-22.2058587718
 20
12.4750320041
 10
-22.2309636633
 20
12.4889789998
 10
-22.2572327736
 20
12.503083524
 10
-22.2847604628
 20
12.517350276
 10
-22.3135433425
 20
12.5317784616
 10
-22.3435848013
 20
12.5463688751
 10
-22.3749893645
 20
12.5611285993
 10
-22.4077531785
 20
12.5760569623
 10
-22.4418800969
 20
12.5911546358
 10
-22.4774862063
 20
12.6064307187
 10
-22.5145677337
 20
12.6218848152
 10
-22.5531284521
 20
12.6375173209
 10
-22.5932957668
 20
12.6533385215
 10
-22.6350639388
 20
12.6693475051
 10
-22.6784387071
 20
12.6855451834
 10
-22.7235646945
 20
12.7019445777
 10
-22.7704399508
 20
12.7185462576
 10
-22.8190664262
 20
12.7353496535
 10
-22.8695945939
 20
12.7523660769
 10
-22.9220315052
 20
12.7695985115
 10
-22.9763701087
 20
12.7870439737
 10
-23.0327397238
 20
12.8047048241
 10
-23.0911277499
 20
12.8225777607
 10
-23.1515467875
 20
12.8406660855
 10
-23.2141639578
 20
12.8589820658
 10
-23.2789578093
 20
12.8775210782
 10
-23.3459497935
 20
12.896287746
 10
-23.4153713858
 20
12.915308206
 10
-23.4872223362
 20
12.9345842286
 10
-23.5615028947
 20
12.9541140433
 10
-23.6384452867
 20
12.9739184753
 10
-23.7181269207
 20
12.9940044663
 10
-23.8004703881
 20
13.0143650747
 10
-23.885475689
 20
13.0350003004
  0
LINE
  5
43C
100
AcDbEntity
  8
218
100
AcDbLine
 62
7
  6
CONTINUOUS
 10
-22.7982683379
 20
9.0239590572
 11
-21.3459748923
 21
9.1510182698
  0
LINE
  5
43D
100
AcDbEntity
  8
218
100
AcDbLine
 62
253
  6
CONTINUOUS
 10
-26.2071616453
 20
6.534642731
 11
-25.2787316398
 21
6.534642731
  0
LINE
  5
43E
100
AcDbEntity
  8
218
100
AcDbLine
 62
253
  6
CONTINUOUS
 10
-40.0704153366
 20
6.866738
 11
-39.5886291269
 21
6.866738
  0
LINE
  5
43F
100
AcDbEntity
  8
218
100
AcDbLine
 62
253
  6
CONTINUOUS
 10
-25.093045631
 20
7.0345238376
 11
-26.3928476347
 21
7.0345238376
  0
LINE
  5
440
100
AcDbEntity
  8
218
100
AcDbLine
 62
7
  6
CONTINUOUS
 10
-23.0721216151
 20
7.05
 11
-22.8721216151
 21
7.05
  0
LINE
  5
441
100
AcDbEntity
  8
218
100
AcDbLine
 62
253
  6
CONTINUOUS
 10
-40.6848671259
 20
8.151456
 11
-41.9337556154
 21
8.581471
  0
LINE
  5
442
100
AcDbEntity
  8
218
100
AcDbLine
 62
253
  6
CONTINUOUS
 10
-39.5886291269
 20
7.773964
 11
-40.2030809162
 21
7.990812
  0
LINE
  5
443
100
AcDbEntity
  8
218
100
AcDbLine
 62
253
  6
CONTINUOUS
 10
-42.4877468258
 20
8.227849
 11
-39.5886291269
 21
7.179514
  0
LINE
  5
444
100
AcDbEntity
  8
218
100
AcDbLine
 62
253
  6
CONTINUOUS
 10
-37.546600911
 20
9.3
 11
-38.0893753418
 21
9.9025714555
  0
LINE
  5
445
100
AcDbEntity
  8
218
100
AcDbLine
 62
253
  6
CONTINUOUS
 10
-31.014281553
 20
14.1395
 11
-31.014281553
 21
15.6
  0
LINE
  5
446
100
AcDbEntity
  8
218
100
AcDbLine
 62
253
  6
CONTINUOUS
 10
-30.2645099929
 20
15.6
 11
-30.2645099929
 21
14.1395
  0
LINE
  5
447
100
AcDbEntity
  8
218
100
AcDbLine
 62
253
  6
CONTINUOUS
 10
-29.8934990323
 20
1.711256
 11
-29.8934990323
 21
2.898978
  0
LINE
  5
448
100
AcDbEntity
  8
218
100
AcDbLine
 62
253
  6
CONTINUOUS
 10
-29.8934990323
 20
3.202814
 11
-29.8934990323
 21
4.245524
  0
LWPOLYLINE
  5
449
100
AcDbEntity
  8
218
100
AcDbPolyline
 62
7
  6
CONTINUOUS
 90
15
 70
0
 10
-32.7849437769
 20
-18.2441382748
 10
-32.7828652123
 20
-18.2197324032
 10
-32.780997549
 20
-18.1953271435
 10
-32.7793407871
 20
-18.1709224955
 10
-32.777909068
 20
-18.1465158779
 10
-32.7766882502
 20
-18.1221098722
 10
-32.7756359089
 20
-18.0977122228
 10
-32.7747519274
 20
-18.0733246144
 10
-32.7740364224
 20
-18.0489453623
 10
-32.7734473188
 20
-18.0245771574
 10
-32.7729839754
 20
-18.0002197597
 10
-32.7726470335
 20
-17.9758734092
 10
-32.7723963416
 20
-17.9515415159
 10
-32.7722185161
 20
-17.9272252164
 10
-32.7721269405
 20
-17.9029233741
  0
LINE
  5
44A
100
AcDbEntity
  8
218
100
AcDbLine
 62
253
  6
CONTINUOUS
 10
-31.2743533146
 20
-5.081022
 11
-30.2414770106
 21
-3.75
  0
LWPOLYLINE
  5
44B
100
AcDbEntity
  8
218
100
AcDbPolyline
 62
253
  6
CONTINUOUS
 90
37
 70
0
 10
-27.6850758931
 20
-2.497369
 10
-27.7010213206
 20
-2.5129203926
 10
-27.7166164055
 20
-2.5288295249
 10
-27.731851865
 20
-2.5450868452
 10
-27.7467184159
 20
-2.5616828018
 10
-27.761207217
 20
-2.5786080321
 10
-27.7753111935
 20
-2.5958539293
 10
-27.7890237126
 20
-2.6134120757
 10
-27.8023381412
 20
-2.6312740535
 10
-27.8152478984
 20
-2.6494312652
 10
-27.8277466115
 20
-2.6678743933
 10
-27.8398279598
 20
-2.6865939404
 10
-27.8514856225
 20
-2.7055804092
 10
-27.8627134463
 20
-2.7248242376
 10
-27.8735059472
 20
-2.7443156055
 10
-27.8838578086
 20
-2.7640446284
 10
-27.8937637139
 20
-2.7840014213
 10
-27.9032184924
 20
-2.8041760184
 10
-27.9122175568
 20
-2.8245581281
 10
-27.9207564661
 20
-2.8451373774
 10
-27.9288307788
 20
-2.8659033935
 10
-27.9364362134
 20
-2.8868457539
 10
-27.9435691263
 20
-2.9079538385
 10
-27.9502260334
 20
-2.9292169772
 10
-27.9564034509
 20
-2.9506245003
 10
-27.9620980568
 20
-2.9721656614
 10
-27.9673071782
 20
-2.9938294074
 10
-27.9720283041
 20
-3.0156046088
 10
-27.9762589235
 20
-3.037480136
 10
-27.9799966918
 20
-3.059444946
 10
-27.9832399286
 20
-3.0814883415
 10
-27.9859871196
 20
-3.1035997118
 10
-27.9882367507
 20
-3.1257684464
 10
-27.9899874756
 20
-3.1479834842
 10
-27.9912386201
 20
-3.1702319636
 10
-27.991989678
 20
-3.1925005728
 10
-27.9922401432
 20
-3.214776
  0
LINE
  5
44C
100
AcDbEntity
  8
218
100
AcDbLine
 62
253
  6
CONTINUOUS
 10
-40.5997900471
 20
-10.59258
 11
-42.487883784
 21
-11.134148
  0
LINE
  5
44D
100
AcDbEntity
  8
218
100
AcDbLine
 62
253
  6
CONTINUOUS
 10
-26.3928476347
 20
13.8270232487
 11
-25.093045631
 21
14.1798814011
  0
LINE
  5
44E
100
AcDbEntity
  8
218
100
AcDbLine
 62
253
  6
CONTINUOUS
 10
-25.093045631
 20
9.1222616243
 11
-26.3928476347
 21
9.1222616243
  0
LINE
  5
44F
100
AcDbEntity
  8
218
100
AcDbLine
 62
253
  6
CONTINUOUS
 10
-25.093045631
 20
9.6809523249
 11
-26.3928476347
 21
9.6809523249
  0
LINE
  5
450
100
AcDbEntity
  8
218
100
AcDbLine
 62
253
  6
CONTINUOUS
 10
-38.0893753418
 20
9.9025714555
 11
-36.189664721
 21
9.9025714555
  0
LINE
  5
451
100
AcDbEntity
  8
218
100
AcDbLine
 62
253
  6
CONTINUOUS
 10
-39.5886291269
 20
10.292325
 11
-42.4877468258
 21
10.292325
  0
LINE
  5
452
100
AcDbEntity
  8
218
100
AcDbLine
 62
253
  6
CONTINUOUS
 10
-25.093045631
 20
10.2984523249
 11
-26.3928476347
 21
10.2984523249
  0
LINE
  5
453
100
AcDbEntity
  8
218
100
AcDbLine
 62
253
  6
CONTINUOUS
 10
-25.093045631
 20
4.8585714391
 11
-26.3928476347
 21
5.2114286345
  0
LINE
  5
454
100
AcDbEntity
  8
218
100
AcDbLine
 62
253
  6
CONTINUOUS
 10
-25.6501036381
 20
4.1528571586
 11
-26.3928476347
 21
4.5057143173
  0
LINE
  5
455
100
AcDbEntity
  8
218
100
AcDbLine
 62
253
  6
CONTINUOUS
 10
-37.8179881264
 20
12.3128572147
 11
-38.0893753418
 21
12.6141427853
  0
LINE
  5
456
100
AcDbEntity
  8
218
100
AcDbLine
 62
253
  6
CONTINUOUS
 10
-31.9486558685
 20
3.478066
 11
-29.0626871634
 21
0.037655
  0
LWPOLYLINE
  5
457
100
AcDbEntity
  8
218
100
AcDbPolyline
 62
253
  6
CONTINUOUS
 90
49
 70
0
 10
-31.9486558685
 20
3.478066
 10
-31.9549946227
 20
3.4858499269
 10
-31.9611064643
 20
3.4938175984
 10
-31.9669853199
 20
3.5019610051
 10
-31.9726251158
 20
3.5102721372
 10
-31.9780201268
 20
3.5187431458
 10
-31.9831660215
 20
3.5273668249
 10
-31.9880588169
 20
3.5361361292
 10
-31.99269453
 20
3.5450440134
 10
-31.9970692685
 20
3.5540832908
 10
-32.0011795032
 20
3.5632462096
 10
-32.0050217956
 20
3.5725248769
 10
-32.0085927071
 20
3.5819113995
 10
-32.0118889693
 20
3.5913978459
 10
-32.0149079933
 20
3.6009761316
 10
-32.0176473605
 20
3.6106381334
 10
-32.0201046521
 20
3.6203757282
 10
-32.0222776055
 20
3.6301807502
 10
-32.0241645832
 20
3.6400448623
 10
-32.0257641038
 20
3.6499596844
 10
-32.0270746859
 20
3.6599168366
 10
-32.0280950132
 20
3.6699079211
 10
-32.0288244281
 20
3.6799244682
 10
-32.0292624382
 20
3.6899579903
 10
-32.029408551
 20
3.7
 10
-32.0292624382
 20
3.7100420097
 10
-32.0288244281
 20
3.7200755318
 10
-32.0280950132
 20
3.7300920789
 10
-32.0270746859
 20
3.7400831634
 10
-32.0257641038
 20
3.7500403156
 10
-32.0241645832
 20
3.7599551377
 10
-32.0222776055
 20
3.7698192498
 10
-32.0201046521
 20
3.7796242718
 10
-32.0176473605
 20
3.7893618666
 10
-32.0149079933
 20
3.7990238684
 10
-32.0118889693
 20
3.8086021541
 10
-32.0085927071
 20
3.8180886005
 10
-32.0050217956
 20
3.8274751231
 10
-32.0011795032
 20
3.8367537904
 10
-31.9970692685
 20
3.8459167092
 10
-31.99269453
 20
3.8549559866
 10
-31.9880588169
 20
3.8638638708
 10
-31.9831660215
 20
3.8726331751
 10
-31.9780201268
 20
3.8812568542
 10
-31.9726251158
 20
3.8897278628
 10
-31.9669853199
 20
3.8980389949
 10
-31.9611064643
 20
3.9061824016
 10
-31.9549946227
 20
3.9141500731
 10
-31.9486558685
 20
3.921934
  0
LINE
  5
458
100
AcDbEntity
  8
218
100
AcDbLine
 62
253
  6
CONTINUOUS
 10
-37.2752136957
 20
15.627
 11
-37.4109072467
 21
15.8780714765
  0
LWPOLYLINE
  5
459
100
AcDbEntity
  8
218
100
AcDbPolyline
 62
253
  6
CONTINUOUS
 90
58
 70
0
 10
-28.8427263833
 20
16.0000027662
 10
-28.8407973855
 20
15.9553189269
 10
-28.8399786037
 20
15.9105940368
 10
-28.8402708244
 20
15.8658607667
 10
-28.8416744314
 20
15.8211507153
 10
-28.8441881991
 20
15.7764911913
 10
-28.8478104995
 20
15.7319084315
 10
-28.8525393789
 20
15.6874289257
 10
-28.8583715803
 20
15.6430801784
 10
-28.8653035212
 20
15.5988899472
 10
-28.8733312764
 20
15.5548858561
 10
-28.8824495504
 20
15.5110949932
 10
-28.8926527051
 20
15.4675443125
 10
-28.9039347705
 20
15.4242607063
 10
-28.9162884486
 20
15.3812708188
 10
-28.9297061097
 20
15.3386012324
 10
-28.9441797976
 20
15.2962784168
 10
-28.9597002506
 20
15.2543283917
 10
-28.976257881
 20
15.212777064
 10
-28.9938427836
 20
15.1716502113
 10
-29.0124437852
 20
15.1309730925
 10
-29.0320493954
 20
15.0907708374
 10
-29.0526478173
 20
15.0510684205
 10
-29.0742260277
 20
15.0118901981
 10
-29.0967706971
 20
14.9732603712
 10
-29.1202682017
 20
14.9352029645
 10
-29.1447037409
 20
14.8977412961
 10
-29.17006222
 20
14.8608985076
 10
-29.1963282642
 20
14.8246975423
 10
-29.2234853779
 20
14.7891605507
 10
-29.251516785
 20
14.7543094853
 10
-29.2804054452
 20
14.7201660799
 10
-29.310133259
 20
14.6867511946
 10
-29.3406818625
 20
14.654085471
 10
-29.3720326439
 20
14.622189313
 10
-29.4041660016
 20
14.5910821741
 10
-29.4370620861
 20
14.5607832702
 10
-29.4707008182
 20
14.5313115617
 10
-29.5050612004
 20
14.5026849881
 10
-29.540122005
 20
14.4749212333
 10
-29.5758617966
 20
14.4480377093
 10
-29.6122583067
 20
14.4220507398
 10
-29.6492890588
 20
14.3969763763
 10
-29.6869313821
 20
14.372830385
 10
-29.725161829
 20
14.3496273901
 10
-29.7639567579
 20
14.3273817303
 10
-29.8032923801
 20
14.3061074401
 10
-29.8431443197
 20
14.2858173374
 10
-29.8834880535
 20
14.2665239358
 10
-29.9242988398
 20
14.2482394535
 10
-29.96555106
 20
14.2309749264
 10
-30.0072188766
 20
14.214741095
 10
-30.0492766114
 20
14.1995483187
 10
-30.0916992224
 20
14.1854054332
 10
-30.1344618271
 20
14.1723208931
 10
-30.1775384025
 20
14.1603030458
 10
-30.2208983655
 20
14.1493598107
 10
-30.2645099929
 20
14.139499
  0
LWPOLYLINE
  5
45A
100
AcDbEntity
  8
218
100
AcDbPolyline
 62
253
  6
CONTINUOUS
 90
86
 70
0
 10
-28.8427231757
 20
11.6148898891
 10
-28.8402564715
 20
11.5484105088
 10
-28.8402467984
 20
11.4818757645
 10
-28.8426954575
 20
11.4153896344
 10
-28.8475984916
 20
11.3490419843
 10
-28.8549495661
 20
11.2829199888
 10
-28.864738096
 20
11.2171141691
 10
-28.876951315
 20
11.1517154456
 10
-28.8915719842
 20
11.0868129906
 10
-28.9085806623
 20
11.0224953402
 10
-28.927953573
 20
10.958850235
 10
-28.94966479
 20
10.8959648526
 10
-28.9736841234
 20
10.8339249144
 10
-28.9999792813
 20
10.7728153588
 10
-29.0285138268
 20
10.7127194486
 10
-29.0592492845
 20
10.6537195275
 10
-29.0921431692
 20
10.5958959372
 10
-29.1271510306
 20
10.5393279477
 10
-29.1642245675
 20
10.4840925429
 10
-29.203313598
 20
10.4302654938
 10
-29.2443642685
 20
10.3779200054
 10
-29.2873209394
 20
10.3271279338
 10
-29.332124499
 20
10.2779583051
 10
-29.3787141543
 20
10.2304786687
 10
-29.4270258583
 20
10.184753495
 10
-29.4769939963
 20
10.1408456572
 10
-29.5285499361
 20
10.0988147177
 10
-29.5816235997
 20
10.0587185304
 10
-29.6361421446
 20
10.0206114243
 10
-29.6920314126
 20
9.9845459177
 10
-29.7492147484
 20
9.9505708097
 10
-29.8076143187
 20
9.9187329962
 10
-29.8671500746
 20
9.8890754795
 10
-29.9277409325
 20
9.8616392769
 10
-29.989303887
 20
9.8364613592
 10
-30.0517550476
 20
9.8135766412
 10
-30.1150089056
 20
9.79301586
 10
-30.1789792218
 20
9.7748076371
 10
-30.2435784515
 20
9.7589763083
 10
-30.3087184775
 20
9.7455440451
 10
-30.3743101976
 20
9.7345286491
 10
-30.4402640983
 20
9.7259457211
 10
-30.5064900061
 20
9.7198064309
 10
-30.5728975001
 20
9.7161197233
 10
-30.6393958285
 20
9.7148900754
 10
-30.7058941569
 20
9.7161197274
 10
-30.7723016506
 20
9.7198064391
 10
-30.8385275581
 20
9.7259457334
 10
-30.9044814582
 20
9.7345286655
 10
-30.9700731776
 20
9.7455440656
 10
-31.0352132029
 20
9.7589763327
 10
-31.0998124316
 20
9.7748076656
 10
-31.1637827466
 20
9.7930158924
 10
-31.2270366033
 20
9.8135766775
 10
-31.2894877625
 20
9.8364613994
 10
-31.3510507155
 20
9.8616393208
 10
-31.4116415717
 20
9.8890755272
 10
-31.4711773257
 20
9.9187330476
 10
-31.5295768941
 20
9.9505708647
 10
-31.5867602278
 20
9.9845459762
 10
-31.6426494936
 20
10.0206114862
 10
-31.6971680361
 20
10.0587185957
 10
-31.7502416973
 20
10.0988147863
 10
-31.8017976344
 20
10.140845729
 10
-31.8517657697
 20
10.1847535699
 10
-31.9000774709
 20
10.2304787466
 10
-31.9466671233
 20
10.2779583859
 10
-31.9914706799
 20
10.3271280173
 10
-32.0344273477
 20
10.3779200916
 10
-32.0754780149
 20
10.4302655825
 10
-32.114567042
 20
10.484092634
 10
-32.1516405755
 20
10.5393280411
 10
-32.1866484335
 20
10.5958960328
 10
-32.2195423146
 20
10.653719625
 10
-32.2502777687
 20
10.7127195481
 10
-32.2788123105
 20
10.77281546
 10
-32.3051074646
 20
10.8339250172
 10
-32.3291267942
 20
10.8959649569
 10
-32.3508380073
 20
10.9588503407
 10
-32.370210914
 20
11.0224954471
 10
-32.3872195882
 20
11.0868130985
 10
-32.4018402534
 20
11.1517155544
 10
-32.4140534684
 20
11.2171142786
 10
-32.4238419941
 20
11.282920099
 10
-32.4311930646
 20
11.3490420949
 10
-32.4360960946
 20
11.4153897453
  0
LINE
  5
45B
100
AcDbEntity
  8
218
100
AcDbLine
 62
253
  6
CONTINUOUS
 10
-29.4654964358
 20
2.802303
 11
-29.4654964358
 21
1.711256
  0
LINE
  5
45C
100
AcDbEntity
  8
218
100
AcDbLine
 62
253
  6
CONTINUOUS
 10
-29.4508389016
 20
3.106139
 11
-29.4508389016
 21
4.197186
  0
LINE
  5
45D
100
AcDbEntity
  8
218
100
AcDbLine
 62
253
  6
CONTINUOUS
 10
-29.008178771
 20
4.390536
 11
-29.008178771
 21
3.202814
  0
LINE
  5
45E
100
AcDbEntity
  8
218
100
AcDbLine
 62
253
  6
CONTINUOUS
 10
-29.008178771
 20
1.614581
 11
-29.008178771
 21
2.802303
  0
LINE
  5
45F
100
AcDbEntity
  8
218
100
AcDbLine
 62
253
  6
CONTINUOUS
 10
-28.6065691332
 20
-3.997789
 11
-28.6065691332
 21
-3.502211
  0
LINE
  5
460
100
AcDbEntity
  8
218
100
AcDbLine
 62
253
  6
CONTINUOUS
 10
-28.5262626009
 20
0.232957
 11
-28.5262626009
 21
7.167043
  0
LINE
  5
461
100
AcDbEntity
  8
218
100
AcDbLine
 62
253
  6
CONTINUOUS
 10
-27.9922403064
 20
-3.214776
 11
-27.9922403064
 21
-3.75
  0
LWPOLYLINE
  5
462
100
AcDbEntity
  8
218
100
AcDbPolyline
 62
253
  6
CONTINUOUS
 90
64
 70
0
 10
-28.5262642845
 20
0.232957
 10
-28.5264928278
 20
0.2211790342
 10
-28.5271777704
 20
0.2094143523
 10
-28.5283180814
 20
0.1976838989
 10
-28.5299123883
 20
0.1860078947
 10
-28.5319579535
 20
0.1744036635
 10
-28.534451698
 20
0.1628878053
 10
-28.5373902084
 20
0.1514770238
 10
-28.5407687335
 20
0.1401884393
 10
-28.544582188
 20
0.1290392759
 10
-28.5488251634
 20
0.1180465911
 10
-28.5534909598
 20
0.1072267756
 10
-28.5585725539
 20
0.0965960534
 10
-28.5640626156
 20
0.0861705073
 10
-28.5699525863
 20
0.0759656558
 10
-28.5762336003
 20
0.065996876
 10
-28.5828965047
 20
0.0562793529
 10
-28.5899309982
 20
0.0468275015
 10
-28.5973264923
 20
0.0376555445
 10
-28.6050721352
 20
0.0287774847
 10
-28.6131560221
 20
0.0202064444
 10
-28.621565985
 20
0.0119553263
 10
-28.63028962
 20
0.0040367826
 10
-28.6393135799
 20
-0.0035375357
 10
-28.6486242815
 20
-0.0107562279
 10
-28.6582079366
 20
-0.0176081689
 10
-28.668049936
 20
-0.0240833364
 10
-28.6781354652
 20
-0.0301719837
 10
-28.6884495381
 20
-0.0358646619
 10
-28.698976481
 20
-0.041153113
 10
-28.7097004486
 20
-0.0460293766
 10
-28.7206054593
 20
-0.0504858083
 10
-28.7316749872
 20
-0.0545160259
 10
-28.74289237
 20
-0.0581139631
 10
-28.7542408472
 20
-0.0612738827
 10
-28.7657032639
 20
-0.0639913652
 10
-28.7772623664
 20
-0.0662623199
 10
-28.7889008417
 20
-0.0680829951
 10
-28.8006011378
 20
-0.0694509931
 10
-28.8123456432
 20
-0.0703642548
 10
-28.8241167262
 20
-0.0708210642
 10
-28.8358966755
 20
-0.0708210781
 10
-28.8476677599
 20
-0.0703642961
 10
-28.859412268
 20
-0.0694510613
 10
-28.8711125675
 20
-0.0680830904
 10
-28.8827510463
 20
-0.0662624433
 10
-28.8943101521
 20
-0.063991518
 10
-28.9057725741
 20
-0.0612740636
 10
-28.9171210617
 20
-0.0581141669
 10
-28.9283384605
 20
-0.0545162471
 10
-28.9394080013
 20
-0.0504860511
 10
-28.9503130114
 20
-0.0460296582
 10
-28.9610369624
 20
-0.041153453
 10
-28.9715639043
 20
-0.0358650424
 10
-28.9818780319
 20
-0.0301723391
 10
-28.9919636798
 20
-0.0240835909
 10
-29.0018057441
 20
-0.0176083872
 10
-29.011389261
 20
-0.0107566524
 10
-29.0206995896
 20
-0.0035384466
 10
-29.0297233813
 20
0.0040356292
 10
-29.0384476106
 20
0.0119548385
 10
-29.0468590479
 20
0.0202076707
 10
-29.0549436484
 20
0.0287795184
 10
-29.0626871634
 20
0.037655
  0
LWPOLYLINE
  5
463
100
AcDbEntity
  8
218
100
AcDbPolyline
 62
253
  6
CONTINUOUS
 90
11
 70
0
 10
-28.0911629711
 20
15.8289699071
 10
-28.0907440145
 20
15.8460722032
 10
-28.0904397808
 20
15.8631770837
 10
-28.0902502601
 20
15.880283638
 10
-28.0901754425
 20
15.8973909554
 10
-28.0902153182
 20
15.9144981251
 10
-28.0903698771
 20
15.9316042367
 10
-28.0906391096
 20
15.9487083793
 10
-28.0910230055
 20
15.9658096423
 10
-28.0915215551
 20
15.9829071152
 10
-28.0921347485
 20
15.9999998871
  0
LWPOLYLINE
  5
464
100
AcDbEntity
  8
218
100
AcDbPolyline
 62
253
  6
CONTINUOUS
 90
11
 70
0
 10
-28.091163087
 20
11.4438599728
 10
-28.0907441309
 20
11.4609622619
 10
-28.0904398977
 20
11.4780671354
 10
-28.0902503774
 20
11.4951736826
 10
-28.0901755601
 20
11.5122809929
 10
-28.0902154359
 20
11.5293881557
 10
-28.0903699951
 20
11.5464942602
 10
-28.0906392275
 20
11.5635983958
 10
-28.0910231234
 20
11.5806996518
 10
-28.0915216729
 20
11.5977971176
 10
-28.092134866
 20
11.6148898824
  0
LWPOLYLINE
  5
465
100
AcDbEntity
  8
218
100
AcDbPolyline
 62
253
  6
CONTINUOUS
 90
61
 70
0
 10
-28.9571844496
 20
-4.8402708797
 10
-28.9853359667
 20
-4.8726087429
 10
-29.0143056185
 20
-4.904224749
 10
-29.0440713465
 20
-4.9350945376
 10
-29.0746115357
 20
-4.9651948159
 10
-29.1059063439
 20
-4.9945065597
 10
-29.137936372
 20
-5.0230118125
 10
-29.1706818033
 20
-5.0506926654
 10
-29.2041211504
 20
-5.0775314006
 10
-29.2382325083
 20
-5.1035103483
 10
-29.2729938114
 20
-5.1286121815
 10
-29.3083823513
 20
-5.1528209441
 10
-29.344375259
 20
-5.1761210233
 10
-29.3809494639
 20
-5.1984970893
 10
-29.4180810889
 20
-5.2199349467
 10
-29.4557460554
 20
-5.2404206836
 10
-29.4939201232
 20
-5.2599407049
 10
-29.5325784073
 20
-5.2784826837
 10
-29.571695861
 20
-5.2960346098
 10
-29.6112472964
 20
-5.3125847964
 10
-29.6512069595
 20
-5.3281228499
 10
-29.6915489545
 20
-5.3426387002
 10
-29.7322472709
 20
-5.3561226113
 10
-29.7732754373
 20
-5.3685661856
 10
-29.8146068673
 20
-5.3799613599
 10
-29.8562148848
 20
-5.3903004128
 10
-29.8980724551
 20
-5.3995769911
 10
-29.9401524539
 20
-5.4077850833
 10
-29.9824276937
 20
-5.4149190258
 10
-30.0248707341
 20
-5.4209745467
 10
-30.0674540716
 20
-5.4259477221
 10
-30.1101501659
 20
-5.4298349794
 10
-30.1529313309
 20
-5.4326341532
 10
-30.1957698438
 20
-5.4343434295
 10
-30.2386379725
 20
-5.4349613479
 10
-30.281507946
 20
-5.4344878618
 10
-30.324351984
 20
-5.4329232781
 10
-30.3671423237
 20
-5.4302682568
 10
-30.4098512719
 20
-5.4265248702
 10
-30.4524511532
 20
-5.4216955439
 10
-30.494914336
 20
-5.4157830542
 10
-30.5372133646
 20
-5.408791582
 10
-30.5793208271
 20
-5.4007256589
 10
-30.6212093838
 20
-5.391590162
 10
-30.6628519834
 20
-5.3813913506
 10
-30.7042216463
 20
-5.3701358294
 10
-30.7452914861
 20
-5.3578305463
 10
-30.7860349869
 20
-5.3444838228
 10
-30.8264257257
 20
-5.330104324
 10
-30.8664374188
 20
-5.3147010335
 10
-30.9060443383
 20
-5.2982842109
 10
-30.9452208958
 20
-5.2808644345
 10
-30.9839415893
 20
-5.2624526513
 10
-31.0221812643
 20
-5.2430612822
 10
-31.0599148531
 20
-5.2227031166
 10
-31.0971176867
 20
-5.2013910767
 10
-31.1337666921
 20
-5.1791386152
 10
-31.1698391949
 20
-5.1559593174
 10
-31.2053118681
 20
-5.1318677219
 10
-31.2401587721
 20
-5.1068821809
 10
-31.2743533146
 20
-5.081022
  0
LWPOLYLINE
  5
466
100
AcDbEntity
  8
218
100
AcDbPolyline
 62
7
  6
CONTINUOUS
 90
16
 70
0
 10
-24.0546692087
 20
-2.7233353961
 10
-24.045244313
 20
-2.7152220442
 10
-24.0355410188
 20
-2.7073879631
 10
-24.025559326
 20
-2.6998331526
 10
-24.0152978216
 20
-2.6925408207
 10
-24.0047579187
 20
-2.6855277595
 10
-23.9939438565
 20
-2.6788443455
 10
-23.982847478
 20
-2.6724937453
 10
-23.9714769401
 20
-2.6664727923
 10
-23.9598609531
 20
-2.6608223629
 10
-23.9479940117
 20
-2.6555480227
 10
-23.9358816211
 20
-2.650644206
 10
-23.9235690073
 20
-2.6461350922
 10
-23.9110712456
 20
-2.6420287411
 10
-23.8983732607
 20
-2.6383170929
 10
-23.8854750526
 20
-2.6350001476
  0
LINE
  5
467
100
AcDbEntity
  8
218
100
AcDbLine
 62
253
  6
CONTINUOUS
 10
-41.5004956208
 20
-11.430963
 11
-39.5886361248
 21
-10.882587
  0
LINE
  5
468
100
AcDbEntity
  8
218
100
AcDbLine
 62
253
  6
CONTINUOUS
 10
-42.0149938638
 20
10.87477
 11
-39.5886291269
 21
10.87477
  0
LINE
  5
469
100
AcDbEntity
  8
218
100
AcDbLine
 62
253
  6
CONTINUOUS
 10
-36.189664721
 20
11.2081428691
 11
-37.1395200314
 21
11.2081428691
  0
LINE
  5
46A
100
AcDbEntity
  8
218
100
AcDbLine
 62
253
  6
CONTINUOUS
 10
-33.1866596744
 20
11.61489
 11
-32.436068364
 21
11.61489
  0
LINE
  5
46B
100
AcDbEntity
  8
218
100
AcDbLine
 62
253
  6
CONTINUOUS
 10
-28.8427231819
 20
11.61489
 11
-28.0921318715
 21
11.61489
  0
LINE
  5
46C
100
AcDbEntity
  8
218
100
AcDbLine
 62
253
  6
CONTINUOUS
 10
-25.093045631
 20
11.8569046497
 11
-26.3928476347
 21
11.8569046497
  0
LINE
  5
46D
100
AcDbEntity
  8
218
100
AcDbLine
 62
253
  6
CONTINUOUS
 10
-36.7324392083
 20
12.162214178
 11
-37.546600911
 21
12.162214178
  0
LINE
  5
46E
100
AcDbEntity
  8
218
100
AcDbLine
 62
253
  6
CONTINUOUS
 10
-40.1903328003
 20
12.328754
 11
-42.4877468258
 21
12.328754
  0
LINE
  5
46F
100
AcDbEntity
  8
218
100
AcDbLine
 62
253
  6
CONTINUOUS
 10
-36.5967455723
 20
10.505142911
 11
-38.0893753418
 21
10.9570713927
  0
LINE
  5
470
100
AcDbEntity
  8
218
100
AcDbLine
 62
253
  6
CONTINUOUS
 10
-42.4877468258
 20
14.252884
 11
-39.5886291269
 21
13.20444
  0
LINE
  5
471
100
AcDbEntity
  8
218
100
AcDbLine
 62
253
  6
CONTINUOUS
 10
-37.546600911
 20
12.162214178
 11
-37.8179881264
 21
12.3128572147
  0
LINE
  5
472
100
AcDbEntity
  8
218
100
AcDbLine
 62
253
  6
CONTINUOUS
 10
-29.0427022524
 20
5.107759
 11
-29.8934990323
 21
5.821879
  0
LWPOLYLINE
  5
473
100
AcDbEntity
  8
218
100
AcDbPolyline
 62
253
  6
CONTINUOUS
 90
56
 70
0
 10
-29.0427027447
 20
5.1077584132
 10
-29.0403867818
 20
5.1057508773
 10
-29.0381344409
 20
5.1036697131
 10
-29.0359483568
 20
5.101517452
 10
-29.0338311639
 20
5.0992966254
 10
-29.0317854972
 20
5.0970097647
 10
-29.0298138385
 20
5.0946593782
 10
-29.0279180579
 20
5.0922478823
 10
-29.0260998731
 20
5.0897776701
 10
-29.0243610013
 20
5.087251135
 10
-29.02270316
 20
5.0846706703
 10
-29.0211280217
 20
5.0820387328
 10
-29.019637079
 20
5.0793580336
 10
-29.0182317794
 20
5.0766313474
 10
-29.0169135705
 20
5.0738614491
 10
-29.0156838999
 20
5.0710511133
 10
-29.0145441334
 20
5.0682031408
 10
-29.0134953093
 20
5.0653204366
 10
-29.0125383839
 20
5.0624059318
 10
-29.0116743137
 20
5.0594625575
 10
-29.0109040552
 20
5.0564932448
 10
-29.010228487
 20
5.0535009456
 10
-29.0096481773
 20
5.0504886947
 10
-29.0091636168
 20
5.0474595478
 10
-29.0087752959
 20
5.0444165605
 10
-29.0084837053
 20
5.0413627885
 10
-29.0082892536
 20
5.0383012934
 10
-29.0081920226
 20
5.0352351607
 10
-29.0081920124
 20
5.032167482
 10
-29.008289223
 20
5.0291013487
 10
-29.0084836543
 20
5.0260398523
 10
-29.0087752247
 20
5.0229860783
 10
-29.0091635254
 20
5.0199430885
 10
-29.0096480657
 20
5.0169139383
 10
-29.0102283554
 20
5.0139016836
 10
-29.0109039037
 20
5.0109093798
 10
-29.0116741425
 20
5.007940062
 10
-29.0125381931
 20
5.004996682
 10
-29.0134950991
 20
5.0020821709
 10
-29.0145439041
 20
4.9991994597
 10
-29.0156836517
 20
4.9963514796
 10
-29.0169133035
 20
4.9935411356
 10
-29.018231494
 20
4.9907712285
 10
-29.0196367755
 20
4.988044533
 10
-29.0211277004
 20
4.9853638239
 10
-29.0227028212
 20
4.9827318759
 10
-29.0243606453
 20
4.9801514001
 10
-29.0260995003
 20
4.9776248535
 10
-29.0279176688
 20
4.9751546292
 10
-29.0298134333
 20
4.9727431207
 10
-29.0317850764
 20
4.9703927211
 10
-29.0338307279
 20
4.9681058467
 10
-29.035947906
 20
4.9658850061
 10
-29.0381339759
 20
4.9637327305
 10
-29.0403863029
 20
4.9616515513
 10
-29.0427022524
 20
4.959644
  0
LINE
  5
474
100
AcDbEntity
  8
218
100
AcDbLine
 62
253
  6
CONTINUOUS
 10
-37.546600911
 20
13.8192855706
 11
-38.0893753418
 21
14.4218572147
  0
LINE
  5
475
100
AcDbEntity
  8
218
100
AcDbLine
 62
253
  6
CONTINUOUS
 10
-36.4610519646
 20
13.0660713927
 11
-36.189664721
 21
12.764785822
  0
LINE
  5
476
100
AcDbEntity
  8
218
100
AcDbLine
 62
253
  6
CONTINUOUS
 10
-26.3928476347
 20
5.9171428782
 11
-26.3928476347
 21
6.3582142437
  0
LINE
  5
477
100
AcDbEntity
  8
218
100
AcDbLine
 62
253
  6
CONTINUOUS
 10
-26.3928476347
 20
7.0345238376
 11
-26.3928476347
 21
7.5638095939
  0
LINE
  5
478
100
AcDbEntity
  8
218
100
AcDbLine
 62
253
  6
CONTINUOUS
 10
-26.3928476347
 20
12.4155953503
 11
-26.3928476347
 21
13.1213092995
  0
LINE
  5
479
100
AcDbEntity
  8
218
100
AcDbLine
 62
253
  6
CONTINUOUS
 10
-25.8357896663
 20
7.3873808122
 11
-25.8357896663
 21
7.0345238376
  0
LWPOLYLINE
  5
47A
100
AcDbEntity
  8
218
100
AcDbPolyline
 62
253
  6
CONTINUOUS
 90
9
 70
0
 10
-33.7546692087
 20
-19.5879829516
 10
-33.7544664067
 20
-19.5875564332
 10
-33.754278538
 20
-19.5862845764
 10
-33.7541057615
 20
-19.5841684569
 10
-33.7539482233
 20
-19.5812098647
 10
-33.7538060566
 20
-19.577411302
 10
-33.7536793818
 20
-19.572775982
 10
-33.7535683059
 20
-19.5673078253
 10
-33.7533933136
 20
-19.5538922026
  0
LWPOLYLINE
  5
47B
100
AcDbEntity
  8
RACCORDO
100
AcDbPolyline
 62
7
  6
CONTINUOUS
 90
4
 70
0
 10
-35.0721216151
 20
-20.9000456915
 10
-35.0724733116
 20
-20.9007135843
 10
-35.0735043204
 20
-20.9019806822
 10
-35.0751779211
 20
-20.9038469852
  0
LINE
  5
47C
100
AcDbEntity
  8
218
100
AcDbLine
 62
253
  6
CONTINUOUS
 10
-40.4915950119
 20
-14.778839
 11
-42.487883784
 21
-15.419971
  0
LINE
  5
47D
100
AcDbEntity
  8
218
100
AcDbLine
 62
253
  6
CONTINUOUS
 10
-42.487883784
 20
-16.0
 11
-39.5886291269
 21
-15.068868
  0
LINE
  5
47E
100
AcDbEntity
  8
218
100
AcDbLine
 62
253
  6
CONTINUOUS
 10
-25.093045631
 20
12.7684523249
 11
-26.3928476347
 21
12.7684523249
  0
LINE
  5
47F
100
AcDbEntity
  8
218
100
AcDbLine
 62
253
  6
CONTINUOUS
 10
-42.4877468258
 20
12.911198
 11
-39.5886291269
 21
12.911198
  0
LINE
  5
480
100
AcDbEntity
  8
218
100
AcDbLine
 62
253
  6
CONTINUOUS
 10
-37.546600911
 20
13.216714178
 11
-36.7324392083
 21
13.216714178
  0
LINE
  5
481
100
AcDbEntity
  8
218
100
AcDbLine
 62
253
  6
CONTINUOUS
 10
-38.0893753418
 20
14.4218572147
 11
-36.189664721
 21
14.4218572147
  0
LINE
  5
482
100
AcDbEntity
  8
218
100
AcDbLine
 62
253
  6
CONTINUOUS
 10
-26.3928476347
 20
14.5327383757
 11
-25.093045631
 21
14.5327383757
  0
LWPOLYLINE
  5
483
100
AcDbEntity
  8
218
100
AcDbPolyline
 62
253
  6
CONTINUOUS
 90
70
 70
0
 10
-23.8854755693
 20
11.1649997283
 10
-23.8734808337
 20
11.1622533719
 10
-23.8612143452
 20
11.1590612129
 10
-23.8486761039
 20
11.1554242895
 10
-23.8358789288
 20
11.1513712285
 10
-23.8228100009
 20
11.1468756921
 10
-23.8094308634
 20
11.1418566378
 10
-23.795719979
 20
11.1363076059
 10
-23.7816988849
 20
11.1302385288
 10
-23.7673937361
 20
11.1235935485
 10
-23.7527975585
 20
11.1163663234
 10
-23.7379173262
 20
11.1085678791
 10
-23.7228001162
 20
11.1001689091
 10
-23.7074596065
 20
11.0911758942
 10
-23.6918821192
 20
11.0815882058
 10
-23.6760736975
 20
11.0713664338
 10
-23.6600525949
 20
11.0605284429
 10
-23.6438005579
 20
11.0490637883
 10
-23.6272688699
 20
11.0368916632
 10
-23.6104595632
 20
11.0240252328
 10
-23.5933706054
 20
11.0104614449
 10
-23.575947183
 20
10.9960969753
 10
-23.5581798729
 20
10.9809373215
 10
-23.5400780981
 20
10.9649910285
 10
-23.5216153135
 20
10.9481617019
 10
-23.5027828072
 20
10.9304556305
 10
-23.4835892911
 20
10.9118855148
 10
-23.4640343564
 20
10.8923672981
 10
-23.4441154454
 20
10.8719165443
 10
-23.4238351159
 20
10.850542722
 10
-23.4032006314
 20
10.8281559632
 10
-23.3822239267
 20
10.8047982552
 10
-23.360893067
 20
10.7804604218
 10
-23.339179512
 20
10.7549812682
 10
-23.3170911011
 20
10.7284189876
 10
-23.2946199949
 20
10.700761069
 10
-23.2717141357
 20
10.6717502524
 10
-23.2482902761
 20
10.641336259
 10
-23.2244316635
 20
10.6096388619
 10
-23.200335982
 20
10.5766645966
 10
-23.1758733707
 20
10.5422451288
 10
-23.1511736907
 20
10.5066371605
 10
-23.126824209
 20
10.4704710575
 10
-23.1028979215
 20
10.4338213799
 10
-23.0793218323
 20
10.3966745762
 10
-23.056464222
 20
10.3594978179
 10
-23.0343279219
 20
10.3222385667
 10
-23.0129101005
 20
10.2849886231
 10
-22.9925705444
 20
10.2483936824
 10
-22.9734389156
 20
10.2126331412
 10
-22.955385552
 20
10.1775140046
 10
-22.9383812539
 20
10.1430971029
 10
-22.9224249189
 20
10.1093697988
 10
-22.9075176493
 20
10.0763299675
 10
-22.8936335524
 20
10.0440486046
 10
-22.880783218
 20
10.0125381074
 10
-22.8689560562
 20
9.9817631888
 10
-22.8580944051
 20
9.9517200187
 10
-22.8481955802
 20
9.9223924329
 10
-22.839262266
 20
9.8937732727
 10
-22.8312448542
 20
9.8658713124
 10
-22.8241446568
 20
9.8386810992
 10
-22.8179603619
 20
9.812182251
 10
-22.8126384246
 20
9.7863606588
 10
-22.808177326
 20
9.7612048996
 10
-22.8045785852
 20
9.7367007655
 10
-22.8017932147
 20
9.7128306394
 10
-22.7998048854
 20
9.6895804994
 10
-22.7986299265
 20
9.6669394104
 10
-22.7982683379
 20
9.6448947797
  0
LINE
  5
484
100
AcDbEntity
  8
218
100
AcDbLine
 62
253
  6
CONTINUOUS
 10
-40.6848671259
 20
14.176491
 11
-41.9335916654
 21
14.606449
  0
LINE
  5
485
100
AcDbEntity
  8
218
100
AcDbLine
 62
253
  6
CONTINUOUS
 10
-39.5886291269
 20
13.798889
 11
-40.2030809162
 21
14.015846
  0
LINE
  5
486
100
AcDbEntity
  8
218
100
AcDbLine
 62
253
  6
CONTINUOUS
 10
-36.7324392083
 20
13.216714178
 11
-36.4610519646
 21
13.0660713927
  0
LINE
  5
487
100
AcDbEntity
  8
218
100
AcDbLine
 62
253
  6
CONTINUOUS
 10
-36.189664721
 20
15.7776427853
 11
-36.3253583428
 21
15.9282855706
  0
LWPOLYLINE
  5
488
100
AcDbEntity
  8
RACCORDO
100
AcDbPolyline
 62
7
  6
CONTINUOUS
 90
5
 70
0
 10
-35.0721216151
 20
20.9000456915
 10
-35.0724733116
 20
20.9007135843
 10
-35.0735043204
 20
20.9019806822
 10
-35.0751779211
 20
20.9038469852
 10
-35.0803022098
 20
20.9094512519
  0
LWPOLYLINE
  5
489
100
AcDbEntity
  8
218
100
AcDbPolyline
 62
253
  6
CONTINUOUS
 90
8
 70
0
 10
-24.0535683059
 20
19.3979936955
 10
-24.0536793818
 20
19.4034618522
 10
-24.0538060566
 20
19.4080971722
 10
-24.0539482233
 20
19.4118957349
 10
-24.0541057615
 20
19.4148543271
 10
-24.054278538
 20
19.4169704466
 10
-24.0544664067
 20
19.4182423034
 10
-24.0546692087
 20
19.4186688218
  0
LINE
  5
48A
100
AcDbEntity
  8
218
100
AcDbLine
 62
253
  6
CONTINUOUS
 10
-24.052035972
 20
-8.1478311112
 11
-24.0546692087
 21
-7.9832913085
  0
LINE
  5
48B
100
AcDbEntity
  8
218
100
AcDbLine
 62
253
  6
CONTINUOUS
 10
-24.050257368
 20
-8.281707948
 11
-24.052035972
 21
-8.1478311112
  0
LINE
  5
48C
100
AcDbEntity
  8
218
100
AcDbLine
 62
253
  6
CONTINUOUS
 10
-24.0533933136
 20
19.3845780728
 11
-24.0535683059
 21
19.3979936955
  0
LINE
  5
48D
100
AcDbEntity
  8
218
100
AcDbLine
 62
253
  6
CONTINUOUS
 10
-24.0488930684
 20
-8.4099300884
 11
-24.050257368
 21
-8.281707948
  0
LINE
  5
48E
100
AcDbEntity
  8
218
100
AcDbLine
 62
253
  6
CONTINUOUS
 10
-24.0479689251
 20
-8.5300678487
 11
-24.0488930684
 21
-8.4099300884
  0
LINE
  5
48F
100
AcDbEntity
  8
218
100
AcDbLine
 62
253
  6
CONTINUOUS
 10
-24.0532816715
 20
19.3678956839
 11
-24.0533933136
 21
19.3845780728
  0
LINE
  5
490
100
AcDbEntity
  8
218
100
AcDbLine
 62
253
  6
CONTINUOUS
 10
-24.0546692087
 20
18.9337384193
 11
-24.0541057331
 21
18.805113345
  0
LINE
  5
491
100
AcDbEntity
  8
218
100
AcDbLine
 62
253
  6
CONTINUOUS
 10
-24.0475024493
 20
-8.6398447386
 11
-24.0479689251
 21
-8.5300678487
  0
LINE
  5
492
100
AcDbEntity
  8
218
100
AcDbLine
 62
253
  6
CONTINUOUS
 10
-24.0541057331
 20
18.805113345
 11
-24.0536793849
 21
18.6667088225
  0
LINE
  5
493
100
AcDbEntity
  8
218
100
AcDbLine
 62
253
  6
CONTINUOUS
 10
-24.0536793849
 20
18.6667088225
 11
-24.0533933116
 21
18.5195771595
  0
LINE
  5
494
100
AcDbEntity
  8
218
100
AcDbLine
 62
253
  6
CONTINUOUS
 10
-24.0533933116
 20
18.5195771595
 11
-24.0532497238
 21
18.3648378629
  0
LINE
  5
495
100
AcDbEntity
  8
218
100
AcDbLine
 62
253
  6
CONTINUOUS
 10
-25.4644176487
 20
4.9761904797
 11
-25.4644176487
 21
5.4466667157
  0
LINE
  5
496
100
AcDbEntity
  8
218
100
AcDbLine
 62
253
  6
CONTINUOUS
 10
-25.4644176487
 20
13.5917854619
 11
-25.4644176487
 21
14.0622616243
  0
LINE
  5
497
100
AcDbEntity
  8
218
100
AcDbLine
 62
253
  6
CONTINUOUS
 10
-25.093045631
 20
6.3582142437
 11
-25.093045631
 21
5.9171428782
  0
LINE
  5
498
100
AcDbEntity
  8
218
100
AcDbLine
 62
253
  6
CONTINUOUS
 10
-25.093045631
 20
7.0345238376
 11
-25.093045631
 21
7.5638095939
  0
LINE
  5
499
100
AcDbEntity
  8
218
100
AcDbLine
 62
253
  6
CONTINUOUS
 10
-25.093045631
 20
14.5327383757
 11
-25.093045631
 21
14.9738092995
  0
LINE
  5
49A
100
AcDbEntity
  8
218
100
AcDbLine
 62
253
  6
CONTINUOUS
 10
-24.0546692087
 20
19.125820212
 11
-24.0546692087
 21
18.9337384193
  0
LINE
  5
49B
100
AcDbEntity
  8
218
100
AcDbLine
 62
253
  6
CONTINUOUS
 10
-24.0546692087
 20
-7.9832913085
 11
-24.0546692087
 21
-2.7233353961
  0
LINE
  5
49C
100
AcDbEntity
  8
218
100
AcDbLine
 62
253
  6
CONTINUOUS
 10
-24.0546692087
 20
-0.6766646044
 11
-24.0546692087
 21
11.0766645935
  0
LINE
  5
49D
100
AcDbEntity
  8
218
100
AcDbLine
 62
253
  6
CONTINUOUS
 10
-24.0546692087
 20
13.1233354067
 11
-24.0546692087
 21
17.5197402485
  0
LINE
  5
49E
100
AcDbEntity
  8
218
100
AcDbLine
 62
253
  6
CONTINUOUS
 10
-24.0532337574
 20
19.3368733293
 11
-24.0532816715
 21
19.3678956839
  0
LINE
  5
49F
100
AcDbEntity
  8
218
100
AcDbLine
 62
253
  6
CONTINUOUS
 10
-24.0532497238
 20
18.3648378629
 11
-24.053249724
 21
18.2036675965
  0
LINE
  5
4A0
100
AcDbEntity
  8
218
100
AcDbLine
 62
253
  6
CONTINUOUS
 10
-24.0474650252
 20
-8.718800935
 11
-24.0475024493
 21
-8.6398447386
  0
LINE
  5
4A1
100
AcDbEntity
  8
218
100
AcDbLine
 62
253
  6
CONTINUOUS
 10
-24.053249724
 20
18.2036675965
 11
-24.0533933122
 21
18.0372933776
  0
LINE
  5
4A2
100
AcDbEntity
  8
218
100
AcDbLine
 62
253
  6
CONTINUOUS
 10
-24.0533933122
 20
18.0372933776
 11
-24.0536793859
 21
17.8669803437
  0
LINE
  5
4A3
100
AcDbEntity
  8
218
100
AcDbLine
 62
253
  6
CONTINUOUS
 10
-24.0536793859
 20
17.8669803437
 11
-24.0541057345
 21
17.6940243668
  0
LINE
  5
4A4
100
AcDbEntity
  8
218
100
AcDbLine
 62
253
  6
CONTINUOUS
 10
-24.0541057345
 20
17.6940243668
 11
-24.0546692087
 21
17.5197402485
  0
LINE
  5
4A5
100
AcDbEntity
  8
218
100
AcDbLine
 62
253
  6
CONTINUOUS
 10
-24.0534729229
 20
19.269788549
 11
-24.0532337574
 21
19.3368733293
  0
LINE
  5
4A6
100
AcDbEntity
  8
218
100
AcDbLine
 62
253
  6
CONTINUOUS
 10
-24.0477267887
 20
-8.7888322768
 11
-24.0474650252
 21
-8.718800935
  0
LINE
  5
4A7
100
AcDbEntity
  8
218
100
AcDbLine
 62
253
  6
CONTINUOUS
 10
-24.054278538
 20
19.1657262107
 11
-24.0534729229
 21
19.269788549
  0
LINE
  5
4A8
100
AcDbEntity
  8
218
100
AcDbLine
 62
253
  6
CONTINUOUS
 10
-24.0546692087
 20
19.125820212
 11
-24.054278538
 21
19.1657262107
  0
LINE
  5
4A9
100
AcDbEntity
  8
218
100
AcDbLine
 62
253
  6
CONTINUOUS
 10
-24.0481176777
 20
-8.8349832964
 11
-24.0477267887
 21
-8.7888322768
  0
LINE
  5
4AA
100
AcDbEntity
  8
218
100
AcDbLine
 62
253
  6
CONTINUOUS
 10
-24.0486724774
 20
-8.8753185372
 11
-24.0481176777
 21
-8.8349832964
  0
LINE
  5
4AB
100
AcDbEntity
  8
218
100
AcDbLine
 62
253
  6
CONTINUOUS
 10
-24.0491315798
 20
-8.8988400111
 11
-24.0486724774
 21
-8.8753185372
  0
LINE
  5
4AC
100
AcDbEntity
  8
RACCORDO
100
AcDbLine
 62
7
  6
CONTINUOUS
 10
-48.4471216151
 20
-23.6278312164
 11
-47.5721216151
 21
-23.1226497308
  0
LINE
  5
4AD
100
AcDbEntity
  8
218
100
AcDbLine
 62
253
  6
CONTINUOUS
 10
-31.014281553
 20
15.6
 11
-30.2645099929
 21
15.6
  0
LINE
  5
4AE
100
AcDbEntity
  8
218
100
AcDbLine
 62
253
  6
CONTINUOUS
 10
-25.8357896663
 20
15.6795232487
 11
-25.093045631
 21
15.6795232487
  0
LINE
  5
4AF
100
AcDbEntity
  8
218
100
AcDbLine
 62
253
  6
CONTINUOUS
 10
-37.4109072467
 20
15.8780714765
 11
-37.8179881264
 21
15.8780714765
  0
LINE
  5
4B0
100
AcDbEntity
  8
218
100
AcDbLine
 62
7
  6
CONTINUOUS
 10
-23.0721216151
 20
15.9
 11
-22.8721216151
 21
15.9
  0
LINE
  5
4B1
100
AcDbEntity
  8
218
100
AcDbLine
 62
253
  6
CONTINUOUS
 10
-36.3253583428
 20
15.9282855706
 11
-37.0038264237
 21
15.9282855706
  0
LINE
  5
4B2
100
AcDbEntity
  8
218
100
AcDbLine
 62
253
  6
CONTINUOUS
 10
-33.1866596744
 20
16.0
 11
-32.436068364
 21
16.0
  0
LINE
  5
4B3
100
AcDbEntity
  8
218
100
AcDbLine
 62
253
  6
CONTINUOUS
 10
-28.8427231819
 20
16.0
 11
-28.0921318715
 21
16.0
  0
LINE
  5
4B4
100
AcDbEntity
  8
218
100
AcDbLine
 62
7
  6
CONTINUOUS
 10
-22.7982683379
 20
15.1760409428
 11
-21.3459748923
 21
15.0489817302
  0
LWPOLYLINE
  5
4B5
100
AcDbEntity
  8
218
100
AcDbPolyline
 62
253
  6
CONTINUOUS
 90
58
 70
0
 10
-31.0142812307
 20
14.1394958193
 10
-31.0578929037
 20
14.1493566149
 10
-31.1012529129
 20
14.1602998353
 10
-31.1443295352
 20
14.1723176682
 10
-31.1870921872
 20
14.1854021943
 10
-31.2295148462
 20
14.1995450662
 10
-31.2715726296
 20
14.2147378291
 10
-31.3132404955
 20
14.2309716477
 10
-31.3544927656
 20
14.2482361623
 10
-31.3953036023
 20
14.2665206327
 10
-31.4356473874
 20
14.2858140228
 10
-31.4754993787
 20
14.3061041145
 10
-31.5148350534
 20
14.3273783943
 10
-31.5536300355
 20
14.3496240442
 10
-31.5918605362
 20
14.3728270299
 10
-31.629502914
 20
14.3969730125
 10
-31.6665337213
 20
14.422047368
 10
-31.7029302872
 20
14.4480343302
 10
-31.7386701353
 20
14.4749178476
 10
-31.7737309972
 20
14.5026815965
 10
-31.8080914372
 20
14.531308165
 10
-31.841730228
 20
14.5607798692
 10
-31.8746263717
 20
14.5910787696
 10
-31.9067597892
 20
14.6221859059
 10
-31.9381106312
 20
14.6540820621
 10
-31.9686592959
 20
14.6867477849
 10
-31.9983871715
 20
14.7201626704
 10
-32.0272758942
 20
14.7543060769
 10
-32.0553073644
 20
14.7891571445
 10
-32.0824645417
 20
14.8246941392
 10
-32.1087306502
 20
14.8608951088
 10
-32.1340891942
 20
14.8977379027
 10
-32.1585247988
 20
14.9351995776
 10
-32.1820223694
 20
14.973256992
 10
-32.2045671053
 20
15.0118868278
 10
-32.2261453827
 20
15.0510650604
 10
-32.2467438721
 20
15.0907674886
 10
-32.2663495503
 20
15.1309697565
 10
-32.2849506203
 20
15.1716468893
 10
-32.3025355917
 20
15.2127737574
 10
-32.3190932912
 20
15.2543251019
 10
-32.3346138138
 20
15.2962751452
 10
-32.3490875716
 20
15.3385979804
 10
-32.3625053029
 20
15.3812675879
 10
-32.3748590516
 20
15.4242574981
 10
-32.3861411877
 20
15.4675411284
 10
-32.3963444133
 20
15.5110918348
 10
-32.4054627584
 20
15.554882725
 10
-32.4134905848
 20
15.598886845
 10
-32.4204225971
 20
15.6430771067
 10
-32.4262548699
 20
15.6874258863
 10
-32.4309838207
 20
15.7319054259
 10
-32.4346061926
 20
15.7764882213
 10
-32.4371200317
 20
15.8211477825
 10
-32.43852371
 20
15.8658578729
 10
-32.4388160019
 20
15.9105911838
 10
-32.4379972911
 20
15.9553161164
 10
-32.436068364
 20
16.0
  0
LWPOLYLINE
  5
4B6
100
AcDbEntity
  8
218
100
AcDbPolyline
 62
7
  6
CONTINUOUS
 90
16
 70
0
 10
-23.885475689
 20
13.0350003004
 10
-23.8983738398
 20
13.0383172637
 10
-23.9110717686
 20
13.042028923
 10
-23.9235694754
 20
13.0461352781
 10
-23.9358820351
 20
13.0506443879
 10
-23.9479943729
 20
13.0555481935
 10
-23.9598612641
 20
13.0608225194
 10
-23.971477204
 20
13.0664729317
 10
-23.9828476974
 20
13.0724938643
 10
-23.9939440342
 20
13.0788444426
 10
-24.0047580567
 20
13.0855278313
 10
-24.0152979225
 20
13.0925408657
 10
-24.0255593943
 20
13.0998331773
 10
-24.0355410598
 20
13.1073879766
 10
-24.0452443312
 20
13.115222053
 10
-24.0546692087
 20
13.1233354067
  0
LINE
  5
4B7
100
AcDbEntity
  8
RACCORDO
100
AcDbLine
 62
7
  6
CONTINUOUS
 10
-47.5721216151
 20
23.1226497308
 11
-48.4471216151
 21
23.6278312164
  0
LINE
  5
4B8
100
AcDbEntity
  8
218
100
AcDbLine
 62
253
  6
CONTINUOUS
 10
-25.2787316398
 20
6.534642731
 11
-25.093045631
 21
6.3582142437
  0
LWPOLYLINE
  5
4B9
100
AcDbEntity
  8
218
100
AcDbPolyline
 62
253
  6
CONTINUOUS
 90
40
 70
0
 10
-23.0721216151
 20
0.9936354788
 10
-23.0719045938
 20
0.9845295084
 10
-23.071253844
 20
0.9754367127
 10
-23.0701703071
 20
0.9663702472
 10
-23.0686555509
 20
0.9573432293
 10
-23.0667117668
 20
0.9483687194
 10
-23.0643417673
 20
0.9394597018
 10
-23.0615489811
 20
0.9306290663
 10
-23.0583374491
 20
0.921889589
 10
-23.0547118175
 20
0.9132539144
 10
-23.0506773322
 20
0.9047345364
 10
-23.04623983
 20
0.8963437812
 10
-23.0414057314
 20
0.8880937884
 10
-23.0361820303
 20
0.8799964943
 10
-23.0305762843
 20
0.8720636141
 10
-23.0245966041
 20
0.864306625
 10
-23.0182516409
 20
0.8567367501
 10
-23.0115505747
 20
0.8493649414
 10
-23.0045031008
 20
0.8422018646
 10
-22.9971194154
 20
0.8352578831
 10
-22.9894102014
 20
0.8285430438
 10
-22.9813866124
 20
0.8220670615
 10
-22.9730602571
 20
0.8158393059
 10
-22.9644431822
 20
0.8098687873
 10
-22.9555478548
 20
0.8041641439
 10
-22.9463871448
 20
0.7987336292
 10
-22.936974306
 20
0.7935851001
 10
-22.927322957
 20
0.7887260055
 10
-22.9174470614
 20
0.7841633757
 10
-22.9073609077
 20
0.7799038119
 10
-22.8970790888
 20
0.7759534768
 10
-22.8866164803
 20
0.7723180859
 10
-22.8759882197
 20
0.7690028988
 10
-22.865209684
 20
0.7660127119
 10
-22.8542964677
 20
0.7633518516
 10
-22.8432643602
 20
0.7610241676
 10
-22.8321293227
 20
0.7590330275
 10
-22.8209074656
 20
0.7573813122
 10
-22.8096150246
 20
0.7560714114
 10
-22.7982683379
 20
0.7551052203
  0
LWPOLYLINE
  5
4BA
100
AcDbEntity
  8
218
100
AcDbPolyline
 62
253
  6
CONTINUOUS
 90
40
 70
0
 10
-23.0721216151
 20
14.7936354788
 10
-23.0719045938
 20
14.7845295084
 10
-23.071253844
 20
14.7754367127
 10
-23.0701703071
 20
14.7663702472
 10
-23.0686555509
 20
14.7573432293
 10
-23.0667117668
 20
14.7483687194
 10
-23.0643417673
 20
14.7394597018
 10
-23.0615489811
 20
14.7306290663
 10
-23.0583374491
 20
14.721889589
 10
-23.0547118175
 20
14.7132539144
 10
-23.0506773322
 20
14.7047345364
 10
-23.04623983
 20
14.6963437812
 10
-23.0414057314
 20
14.6880937884
 10
-23.0361820303
 20
14.6799964943
 10
-23.0305762843
 20
14.6720636141
 10
-23.0245966041
 20
14.664306625
 10
-23.0182516409
 20
14.6567367501
 10
-23.0115505747
 20
14.6493649414
 10
-23.0045031008
 20
14.6422018646
 10
-22.9971194154
 20
14.6352578831
 10
-22.9894102014
 20
14.6285430438
 10
-22.9813866124
 20
14.6220670615
 10
-22.9730602571
 20
14.6158393059
 10
-22.9644431822
 20
14.6098687873
 10
-22.9555478548
 20
14.6041641439
 10
-22.9463871448
 20
14.5987336292
 10
-22.936974306
 20
14.5935851001
 10
-22.927322957
 20
14.5887260055
 10
-22.9174470614
 20
14.5841633757
 10
-22.9073609077
 20
14.5799038119
 10
-22.8970790888
 20
14.5759534768
 10
-22.8866164803
 20
14.5723180859
 10
-22.8759882197
 20
14.5690028988
 10
-22.865209684
 20
14.5660127119
 10
-22.8542964677
 20
14.5633518516
 10
-22.8432643602
 20
14.5610241676
 10
-22.8321293227
 20
14.5590330275
 10
-22.8209074656
 20
14.5573813122
 10
-22.8096150246
 20
14.5560714114
 10
-22.7982683379
 20
14.5551052203
  0
LWPOLYLINE
  5
4BB
100
AcDbEntity
  8
218
100
AcDbPolyline
 62
253
  6
CONTINUOUS
 90
58
 70
0
 10
-23.0721216151
 20
18.2267393339
 10
-23.0724929178
 20
18.2460067625
 10
-23.0736065503
 20
18.265259883
 10
-23.0754616856
 20
18.284484398
 10
-23.0780569459
 20
18.3036660312
 10
-23.0813904042
 20
18.3227905382
 10
-23.0854595848
 20
18.341843717
 10
-23.0902614661
 20
18.3608114188
 10
-23.0957924822
 20
18.3796795578
 10
-23.1020485256
 20
18.3984341226
 10
-23.1090249506
 20
18.417061186
 10
-23.1167165765
 20
18.4355469153
 10
-23.1251176914
 20
18.453877583
 10
-23.1342220566
 20
18.4720395765
 10
-23.1440229111
 20
18.4900194088
 10
-23.1545129769
 20
18.5078037278
 10
-23.1656844639
 20
18.5253793269
 10
-23.1775290761
 20
18.5427331543
 10
-23.1900380176
 20
18.559852323
 10
-23.2032019993
 20
18.5767241202
 10
-23.2170112455
 20
18.5933360167
 10
-23.2314555013
 20
18.6096756765
 10
-23.2465240404
 20
18.6257309657
 10
-23.2622056728
 20
18.6414899616
 10
-23.2784887532
 20
18.6569409613
 10
-23.2953611898
 20
18.672072491
 10
-23.3128104529
 20
18.6868733138
 10
-23.3308235847
 20
18.7013324386
 10
-23.3493872085
 20
18.715439128
 10
-23.3684875388
 20
18.7291829062
 10
-23.3881103917
 20
18.742553567
 10
-23.4082411951
 20
18.7555411814
 10
-23.4288649998
 20
18.7681361046
 10
-23.4499664903
 20
18.7803289837
 10
-23.4715299967
 20
18.792110764
 10
-23.4935395058
 20
18.8034726963
 10
-23.5159786731
 20
18.8144063433
 10
-23.5388308352
 20
18.8249035856
 10
-23.562079022
 20
18.8349566278
 10
-23.5857059692
 20
18.8445580044
 10
-23.6096941314
 20
18.8537005856
 10
-23.6340256948
 20
18.8623775819
 10
-23.6586825906
 20
18.8705825497
 10
-23.6836465086
 20
18.878309396
 10
-23.7088989103
 20
18.8855523827
 10
-23.7344210432
 20
18.8923061313
 10
-23.7601939544
 20
18.8985656263
 10
-23.7861985048
 20
18.9043262194
 10
-23.8124153833
 20
18.9095836328
 10
-23.838825121
 20
18.9143339622
 10
-23.8654081061
 20
18.9185736801
 10
-23.8921445977
 20
18.922299638
 10
-23.9190147413
 20
18.9255090689
 10
-23.9459985829
 20
18.9281995896
 10
-23.9730760841
 20
18.9303692021
 10
-24.0002271371
 20
18.9320162951
 10
-24.0274315794
 20
18.9331396456
 10
-24.0546692087
 20
18.9337384193
  0
LWPOLYLINE
  5
4BC
100
AcDbEntity
  8
218
100
AcDbPolyline
 62
253
  6
CONTINUOUS
 90
58
 70
0
 10
-23.0721216151
 20
18.4188211266
 10
-23.0724929179
 20
18.4380885555
 10
-23.0736065504
 20
18.4573416763
 10
-23.0754616857
 20
18.4765661915
 10
-23.0780569461
 20
18.4957478249
 10
-23.0813904044
 20
18.5148723321
 10
-23.0854595852
 20
18.5339255111
 10
-23.0902614666
 20
18.5528932131
 10
-23.0957924827
 20
18.5717613523
 10
-23.1020485263
 20
18.5905159173
 10
-23.1090249514
 20
18.6091429808
 10
-23.1167165774
 20
18.6276287102
 10
-23.1251176925
 20
18.645959378
 10
-23.1342220578
 20
18.6641213717
 10
-23.1440229126
 20
18.682101204
 10
-23.1545129785
 20
18.6998855232
 10
-23.1656844656
 20
18.7174611223
 10
-23.177529078
 20
18.7348149498
 10
-23.1900380197
 20
18.7519341185
 10
-23.2032020015
 20
18.7688059157
 10
-23.2170112478
 20
18.7854178122
 10
-23.2314555038
 20
18.801757472
 10
-23.246524043
 20
18.8178127612
 10
-23.2622056755
 20
18.833571757
 10
-23.2784887561
 20
18.8490227567
 10
-23.2953611928
 20
18.8641542863
 10
-23.312810456
 20
18.8789551091
 10
-23.3308235879
 20
18.8934142338
 10
-23.3493872118
 20
18.9075209231
 10
-23.3684875422
 20
18.9212647013
 10
-23.3881103951
 20
18.934635362
 10
-23.4082411986
 20
18.9476229763
 10
-23.4288650033
 20
18.9602178995
 10
-23.4499664938
 20
18.9724107784
 10
-23.4715300002
 20
18.9841925586
 10
-23.4935395092
 20
18.9955544908
 10
-23.5159786765
 20
19.0064881377
 10
-23.5388308386
 20
19.0169853798
 10
-23.5620790253
 20
19.0270384219
 10
-23.5857059725
 20
19.0366397985
 10
-23.6096941346
 20
19.0457823795
 10
-23.6340256979
 20
19.0544593757
 10
-23.6586825936
 20
19.0626643434
 10
-23.6836465114
 20
19.0703911896
 10
-23.708898913
 20
19.0776341762
 10
-23.7344210458
 20
19.0843879247
 10
-23.7601939568
 20
19.0906474196
 10
-23.786198507
 20
19.0964080127
 10
-23.8124153853
 20
19.1016654259
 10
-23.8388251229
 20
19.1064157553
 10
-23.8654081077
 20
19.1106554731
 10
-23.8921445992
 20
19.1143814309
 10
-23.9190147425
 20
19.1175908618
 10
-23.9459985838
 20
19.1202813824
 10
-23.9730760849
 20
19.1224509948
 10
-24.0002271376
 20
19.1240980878
 10
-24.0274315796
 20
19.1252214383
 10
-24.0546692087
 20
19.125820212
  0
LINE
  5
4BD
100
AcDbEntity
  8
218
100
AcDbLine
 62
7
  6
CONTINUOUS
 10
-23.0721216151
 20
-7.9832913085
 11
-23.0721216151
 21
-4.3936354788
  0
LINE
  5
4BE
100
AcDbEntity
  8
218
100
AcDbLine
 62
7
  6
CONTINUOUS
 10
-23.0721216151
 20
0.9936354788
 11
-23.0721216151
 21
9.4063645212
  0
LINE
  5
4BF
100
AcDbEntity
  8
218
100
AcDbLine
 62
7
  6
CONTINUOUS
 10
-23.0721216151
 20
14.7936354788
 11
-23.0721216151
 21
18.4188211266
  0
LINE
  5
4C0
100
AcDbEntity
  8
218
100
AcDbLine
 62
7
  6
CONTINUOUS
 10
-22.8721216151
 20
17.8
 11
-22.8721216151
 21
15.9
  0
LINE
  5
4C1
100
AcDbEntity
  8
218
100
AcDbLine
 62
7
  6
CONTINUOUS
 10
-22.8721216151
 20
7.05
 11
-22.8721216151
 21
4.55
  0
LINE
  5
4C2
100
AcDbEntity
  8
218
100
AcDbLine
 62
7
  6
CONTINUOUS
 10
-22.8721216151
 20
3.3
 11
-22.8721216151
 21
1.6
  0
LINE
  5
4C3
100
AcDbEntity
  8
218
100
AcDbLine
 62
7
  6
CONTINUOUS
 10
-22.8721216151
 20
-5.5
 11
-22.8721216151
 21
-7.4
  0
LINE
  5
4C4
100
AcDbEntity
  8
218
100
AcDbLine
 62
253
  6
CONTINUOUS
 10
-22.7982683306
 20
15.1760409421
 11
-22.7982683379
 21
14.5551052203
  0
LINE
  5
4C5
100
AcDbEntity
  8
218
100
AcDbLine
 62
253
  6
CONTINUOUS
 10
-22.7982683379
 20
9.6448947797
 11
-22.7982683304
 21
9.0239590579
  0
LINE
  5
4C6
100
AcDbEntity
  8
218
100
AcDbLine
 62
253
  6
CONTINUOUS
 10
-22.7982683306
 20
1.3760409421
 11
-22.7982683379
 21
0.7551052203
  0
LINE
  5
4C7
100
AcDbEntity
  8
218
100
AcDbLine
 62
253
  6
CONTINUOUS
 10
-22.7982683379
 20
-4.1551052203
 11
-22.7982683304
 21
-4.7760409421
  0
LWPOLYLINE
  5
4C8
100
AcDbEntity
  8
218
100
AcDbPolyline
 62
253
  6
CONTINUOUS
 90
85
 70
0
 10
-23.0721216151
 20
14.7936354788
 10
-23.0724328505
 20
14.7689035768
 10
-23.0733750929
 20
14.7434530477
 10
-23.0749609044
 20
14.7172838916
 10
-23.0772015867
 20
14.6904132294
 10
-23.0801094341
 20
14.6628239401
 10
-23.0837000187
 20
14.634464661
 10
-23.0879865792
 20
14.6053332904
 10
-23.0929816733
 20
14.57543193
 10
-23.0987031875
 20
14.5447155223
 10
-23.1051658517
 20
14.5131756101
 10
-23.1123817787
 20
14.4808206505
 10
-23.1203669171
 20
14.4476309577
 10
-23.1291319063
 20
14.4136091284
 10
-23.1386904472
 20
14.3787525658
 10
-23.1490652548
 20
14.3430337931
 10
-23.1602718233
 20
14.3064364783
 10
-23.1723196669
 20
14.2689769534
 10
-23.1852243232
 20
14.2306767373
 10
-23.1990273585
 20
14.1914337545
 10
-23.2137108752
 20
14.1513500805
 10
-23.2291867088
 20
14.1107534605
 10
-23.2454670939
 20
14.0695753166
 10
-23.2625284248
 20
14.0278842268
 10
-23.28019361
 20
13.9862136705
 10
-23.2984590323
 20
13.944492863
 10
-23.317274009
 20
13.9027925891
 10
-23.3363445572
 20
13.8618586822
 10
-23.3556307834
 20
13.821671387
 10
-23.3750710501
 20
13.7822504587
 10
-23.3942897915
 20
13.7444009963
 10
-23.4130667834
 20
13.7084317028
 10
-23.4314827369
 20
13.6740338752
 10
-23.4496022302
 20
13.6410865037
 10
-23.4673658796
 20
13.6096229881
 10
-23.4847401096
 20
13.5796099286
 10
-23.5018484521
 20
13.5508261158
 10
-23.5186859458
 20
13.5232343804
 10
-23.5351972067
 20
13.4968718917
 10
-23.5514443445
 20
13.4716289485
 10
-23.5674177363
 20
13.4474915701
 10
-23.5830831766
 20
13.4244737371
 10
-23.598473026
 20
13.4025076902
 10
-23.6135712438
 20
13.3815969039
 10
-23.6283604394
 20
13.3617379037
 10
-23.6428754213
 20
13.3428525067
 10
-23.6570988404
 20
13.3249483486
 10
-23.6710227178
 20
13.3080177937
 10
-23.6846996917
 20
13.2919597519
 10
-23.6981172172
 20
13.2767758157
 10
-23.7112693321
 20
13.2624643925
 10
-23.7242219571
 20
13.248919615
 10
-23.7369793661
 20
13.2361278972
 10
-23.7495242623
 20
13.2241028251
 10
-23.7618926001
 20
13.2127792892
 10
-23.7740974592
 20
13.2021442439
 10
-23.7861158949
 20
13.1922107348
 10
-23.7979306815
 20
13.1829527883
 10
-23.8095390017
 20
13.1743765082
 10
-23.820935021
 20
13.1664757908
 10
-23.8320970825
 20
13.159206351
 10
-23.8430151091
 20
13.152577396
 10
-23.8536917443
 20
13.1465797186
 10
-23.8641246434
 20
13.1411414133
 10
-23.8742783358
 20
13.1362732378
 10
-23.8841822366
 20
13.1319644343
 10
-23.8939322602
 20
13.1281108241
 10
-23.9035346303
 20
13.1246974393
 10
-23.91297943
 20
13.1217392477
 10
-23.9223394774
 20
13.1191769746
 10
-23.9316331441
 20
13.1170000925
 10
-23.9408396023
 20
13.1152191287
 10
-23.9499733709
 20
13.1138063905
 10
-23.9590361714
 20
13.1127610256
 10
-23.9680241902
 20
13.1120838863
 10
-23.9769437909
 20
13.1117498364
 10
-23.9857913262
 20
13.1117582546
 10
-23.9945686295
 20
13.1121097624
 10
-24.0032903984
 20
13.1127810883
 10
-24.011952702
 20
13.1137697915
 10
-24.0205579255
 20
13.1150783129
 10
-24.0291303527
 20
13.1166907043
 10
-24.0376776479
 20
13.1186016496
 10
-24.0461908151
 20
13.1208164648
 10
-24.0546692087
 20
13.12333515
  0
LWPOLYLINE
  5
4C9
100
AcDbEntity
  8
218
100
AcDbPolyline
 62
253
  6
CONTINUOUS
 90
85
 70
0
 10
-23.0721216151
 20
0.9936354788
 10
-23.0724322922
 20
0.9689228133
 10
-23.073371331
 20
0.9435274566
 10
-23.0749489835
 20
0.9174494084
 10
-23.0771734452
 20
0.8907129875
 10
-23.0800550548
 20
0.8632938751
 10
-23.0836105393
 20
0.835119116
 10
-23.0878536916
 20
0.8061806827
 10
-23.0927956833
 20
0.7764866025
 10
-23.0984547081
 20
0.745988002
 10
-23.1048454456
 20
0.7146757792
 10
-23.1119795961
 20
0.682559036
 10
-23.1198732858
 20
0.6496162042
 10
-23.1285378711
 20
0.6158468639
 10
-23.137986267
 20
0.5812514351
 10
-23.148238767
 20
0.5458096086
 10
-23.159314313
 20
0.5094914737
 10
-23.1712184513
 20
0.4723269413
 10
-23.1839500228
 20
0.4343854346
 10
-23.1975113456
 20
0.3956690421
 10
-23.2119138377
 20
0.3561756753
 10
-23.2271671343
 20
0.3159684929
 10
-23.2433654352
 20
0.2748030779
 10
-23.2604313819
 20
0.2329238472
 10
-23.2780816785
 20
0.1911272095
 10
-23.2962575154
 20
0.1494544298
 10
-23.314952601
 20
0.1078642431
 10
-23.3339055382
 20
0.0670292625
 10
-23.3530709019
 20
0.0269412026
 10
-23.3723928021
 20
-0.0123916511
 10
-23.391552941
 20
-0.0502718285
 10
-23.4103873596
 20
-0.0864891595
 10
-23.4289302851
 20
-0.1212538142
 10
-23.4471468727
 20
-0.1544988328
 10
-23.4649365908
 20
-0.1861205693
 10
-23.4823000888
 20
-0.2162226697
 10
-23.4993694286
 20
-0.2450491126
 10
-23.5161210186
 20
-0.2726111749
 10
-23.5325148628
 20
-0.2988975798
 10
-23.5486758824
 20
-0.3241184751
 10
-23.5646053169
 20
-0.3483081937
 10
-23.580260497
 20
-0.3714324027
 10
-23.5957109724
 20
-0.3935982511
 10
-23.6109804015
 20
-0.4148539114
 10
-23.6260157152
 20
-0.435151211
 10
-23.6407746913
 20
-0.454452781
 10
-23.6552134034
 20
-0.4727129502
 10
-23.6693489225
 20
-0.4899773898
 10
-23.6832323999
 20
-0.506345744
 10
-23.696842893
 20
-0.5218086453
 10
-23.7101818897
 20
-0.5363754611
 10
-23.7233380677
 20
-0.5501739386
 10
-23.7363228349
 20
-0.5632268796
 10
-23.7491118656
 20
-0.5755114821
 10
-23.7617430581
 20
-0.5870870874
 10
-23.7742507925
 20
-0.5979805008
 10
-23.7865910057
 20
-0.6081649168
 10
-23.7986840708
 20
-0.6176192609
 10
-23.8105164226
 20
-0.6263213134
 10
-23.822091607
 20
-0.6342932939
 10
-23.8333548235
 20
-0.6415807866
 10
-23.8442610574
 20
-0.6481563708
 10
-23.8548463393
 20
-0.6540474673
 10
-23.8651780293
 20
-0.6593819218
 10
-23.8752352412
 20
-0.664164369
 10
-23.8850328702
 20
-0.6683901742
 10
-23.894693558
 20
-0.6721732802
 10
-23.9042362452
 20
-0.6755345259
 10
-23.9136385923
 20
-0.6784530724
 10
-23.9229625059
 20
-0.6809803453
 10
-23.9322247522
 20
-0.6831250473
 10
-23.9414061842
 20
-0.6848784757
 10
-23.9505152534
 20
-0.6862659494
 10
-23.9595525601
 20
-0.6872874894
 10
-23.9685154293
 20
-0.6879430747
 10
-23.9774075158
 20
-0.6882579599
 10
-23.9862252114
 20
-0.6882323745
 10
-23.9949703159
 20
-0.6878660891
 10
-24.0036546949
 20
-0.6871836703
 10
-24.0122744109
 20
-0.6861871822
 10
-24.0208318577
 20
-0.6848745607
 10
-24.0293485031
 20
-0.6832641794
 10
-24.0378310741
 20
-0.6813621627
 10
-24.0462715212
 20
-0.6791623863
 10
-24.0546692087
 20
-0.67666485
  0
LWPOLYLINE
  5
4CA
100
AcDbEntity
  8
218
100
AcDbPolyline
 62
253
  6
CONTINUOUS
 90
70
 70
0
 10
-22.7982683379
 20
14.5551052203
 10
-22.7986305833
 20
14.5330396934
 10
-22.79980776
 20
14.5103765979
 10
-22.801799868
 20
14.4871033066
 10
-22.8045905352
 20
14.4632088437
 10
-22.8081961338
 20
14.4386791593
 10
-22.8126657802
 20
14.4134966201
 10
-22.8179979345
 20
14.3876470297
 10
-22.8241941367
 20
14.3611188875
 10
-22.8313081235
 20
14.3338979286
 10
-22.8393410081
 20
14.3059641263
 10
-22.8482916773
 20
14.2773116064
 10
-22.8582105282
 20
14.2479477585
 10
-22.869095049
 20
14.2178646584
 10
-22.8809477514
 20
14.1870466982
 10
-22.8938265681
 20
14.1554906125
 10
-22.9077325334
 20
14.1231775345
 10
-22.922664613
 20
14.0901037629
 10
-22.9386776371
 20
14.056290074
 10
-22.9558168934
 20
14.0216512868
 10
-22.9740370941
 20
13.9862515273
 10
-22.9932572063
 20
13.950346776
 10
-23.0135269005
 20
13.9138945894
 10
-23.0347965061
 20
13.876938361
 10
-23.0568359786
 20
13.8398877138
 10
-23.079708899
 20
13.8027166173
 10
-23.1033516862
 20
13.7654810384
 10
-23.1273435526
 20
13.7287462585
 10
-23.1517459258
 20
13.6925262463
 10
-23.1764973781
 20
13.6568690281
 10
-23.2009928399
 20
13.6224258983
 10
-23.2250907942
 20
13.5894700908
 10
-23.2489327579
 20
13.557818347
 10
-23.2723382109
 20
13.5274508206
 10
-23.2952294413
 20
13.4984782967
 10
-23.3176841612
 20
13.470859203
 10
-23.3397549865
 20
13.4443358202
 10
-23.3614496882
 20
13.4188956667
 10
-23.3827604955
 20
13.394596791
 10
-23.4037167121
 20
13.3712772792
 10
-23.4243299973
 20
13.3489281137
 10
-23.4445886918
 20
13.3275910178
 10
-23.4644871217
 20
13.3071747531
 10
-23.4840236505
 20
13.2876878056
 10
-23.5031999148
 20
13.2691465988
 10
-23.5220151507
 20
13.2514684766
 10
-23.5404603923
 20
13.2346664669
 10
-23.5585446056
 20
13.2187464742
 10
-23.5762939239
 20
13.203612463
 10
-23.5936988709
 20
13.1892730541
 10
-23.610768923
 20
13.1757336304
 10
-23.6275586436
 20
13.1628909506
 10
-23.64407016
 20
13.1507419367
 10
-23.660301345
 20
13.139299751
 10
-23.6763003805
 20
13.1284837104
 10
-23.6920851314
 20
13.1182836204
 10
-23.7076377329
 20
13.1087170764
 10
-23.7229527718
 20
13.0997440122
 10
-23.7380431757
 20
13.0913639891
 10
-23.752896017
 20
13.0835832757
 10
-23.7674671
 20
13.0763712968
 10
-23.7817497019
 20
13.0697386258
 10
-23.7957505455
 20
13.0636793416
 10
-23.8094456029
 20
13.0581376205
 10
-23.8228146685
 20
13.0531228628
 10
-23.8358779481
 20
13.0486291164
 10
-23.8486720309
 20
13.0445769396
 10
-23.8612091136
 20
13.0409405284
 10
-23.8734769996
 20
13.0377479702
 10
-23.885475689
 20
13.0350003004
  0
LWPOLYLINE
  5
4CB
100
AcDbEntity
  8
218
100
AcDbPolyline
 62
253
  6
CONTINUOUS
 90
70
 70
0
 10
-22.7982683379
 20
0.7551052203
 10
-22.7986340151
 20
0.7330814869
 10
-22.7998038847
 20
0.7104905441
 10
-22.8017779468
 20
0.6873211622
 10
-22.8045406251
 20
0.6635709929
 10
-22.8081074958
 20
0.6392204002
 10
-22.812525288
 20
0.6142308915
 10
-22.8177919472
 20
0.588582691
 10
-22.8239095279
 20
0.5622706563
 10
-22.8309309222
 20
0.5352764285
 10
-22.8388570406
 20
0.5075795963
 10
-22.8476869727
 20
0.4791752159
 10
-22.8574708799
 20
0.4500682523
 10
-22.8682070513
 20
0.4202489709
 10
-22.8798971979
 20
0.3897038245
 10
-22.8925966135
 20
0.3584329498
 10
-22.9063157649
 20
0.3264023871
 10
-22.9210441855
 20
0.2936236494
 10
-22.9368057691
 20
0.2601685565
 10
-22.9535928672
 20
0.2260458817
 10
-22.9714131285
 20
0.1912327782
 10
-22.9903133927
 20
0.1557580042
 10
-23.0104172503
 20
0.1194307007
 10
-23.0316011108
 20
0.0824261481
 10
-23.0535410425
 20
0.0453456907
 10
-23.0762662963
 20
0.0082375953
 10
-23.0997476214
 20
-0.0289131035
 10
-23.1235733336
 20
-0.0655607058
 10
-23.147780222
 20
-0.1016635029
 10
-23.1723314976
 20
-0.1372003639
 10
-23.1967051095
 20
-0.1716251754
 10
-23.2208166444
 20
-0.2047452596
 10
-23.2447505156
 20
-0.236669496
 10
-23.2682379121
 20
-0.2672900296
 10
-23.2911844796
 20
-0.2964625466
 10
-23.3136845725
 20
-0.3242597214
 10
-23.3357524427
 20
-0.3509049514
 10
-23.3573615181
 20
-0.3763711475
 10
-23.3785383708
 20
-0.4006369211
 10
-23.3993769689
 20
-0.4239450993
 10
-23.4198883622
 20
-0.4463135594
 10
-23.4400615009
 20
-0.4676922996
 10
-23.4599572042
 20
-0.4882298565
 10
-23.4796108264
 20
-0.5079577832
 10
-23.4989870132
 20
-0.5268216478
 10
-23.5180405207
 20
-0.5448443374
 10
-23.5367662499
 20
-0.5620098315
 10
-23.5551692998
 20
-0.5783152078
 10
-23.5732197232
 20
-0.5938045131
 10
-23.590880567
 20
-0.6084436215
 10
-23.6081887844
 20
-0.6222515981
 10
-23.6252252877
 20
-0.6353543973
 10
-23.6419949068
 20
-0.6477599608
 10
-23.6584928119
 20
-0.6594499528
 10
-23.6747854263
 20
-0.6705130171
 10
-23.6909087293
 20
-0.6809702442
 10
-23.7068267416
 20
-0.6907930423
 10
-23.7224979481
 20
-0.6999965293
 10
-23.7379489763
 20
-0.7085814297
 10
-23.7531531987
 20
-0.716540792
 10
-23.7679892169
 20
-0.7238784981
 10
-23.7824196277
 20
-0.7305652822
 10
-23.7964818343
 20
-0.7366251246
 10
-23.8101666484
 20
-0.7421422729
 10
-23.8234286702
 20
-0.7471041438
 10
-23.8363132995
 20
-0.7515196572
 10
-23.848947547
 20
-0.7555061702
 10
-23.8613737496
 20
-0.759102219
 10
-23.8735495704
 20
-0.7622671144
 10
-23.8854750094
 20
-0.7649998628
  0
LWPOLYLINE
  5
4CC
100
AcDbEntity
  8
218
100
AcDbPolyline
 62
253
  6
CONTINUOUS
 90
40
 70
0
 10
-23.0721216151
 20
9.4063645212
 10
-23.0719045938
 20
9.4154704912
 10
-23.071253844
 20
9.4245632866
 10
-23.0701703072
 20
9.4336297518
 10
-23.068655551
 20
9.4426567695
 10
-23.066711767
 20
9.4516312792
 10
-23.0643417675
 20
9.4605402965
 10
-23.0615489814
 20
9.4693709318
 10
-23.0583374494
 20
9.478110409
 10
-23.0547118179
 20
9.4867460835
 10
-23.0506773325
 20
9.4952654613
 10
-23.0462398305
 20
9.5036562165
 10
-23.0414057318
 20
9.5119062092
 10
-23.0361820307
 20
9.5200035033
 10
-23.0305762848
 20
9.5279363835
 10
-23.0245966045
 20
9.5356933726
 10
-23.0182516413
 20
9.5432632475
 10
-23.0115505752
 20
9.5506350563
 10
-23.0045031012
 20
9.5577981331
 10
-22.9971194158
 20
9.5647421146
 10
-22.9894102017
 20
9.571456954
 10
-22.9813866127
 20
9.5779329364
 10
-22.9730602573
 20
9.5841606921
 10
-22.9644431823
 20
9.5901312108
 10
-22.9555478548
 20
9.5958358543
 10
-22.9463871448
 20
9.6012663691
 10
-22.9369743059
 20
9.6064148983
 10
-22.9273229568
 20
9.6112739929
 10
-22.9174470612
 20
9.6158366228
 10
-22.9073609075
 20
9.6200961868
 10
-22.8970790884
 20
9.624046522
 10
-22.8866164799
 20
9.627681913
 10
-22.8759882193
 20
9.6309971002
 10
-22.8652096836
 20
9.6339872872
 10
-22.8542964673
 20
9.6366481476
 10
-22.8432643598
 20
9.6389758318
 10
-22.8321293224
 20
9.640966972
 10
-22.8209074653
 20
9.6426186874
 10
-22.8096150245
 20
9.6439285884
 10
-22.7982683379
 20
9.6448947797
  0
LWPOLYLINE
  5
4CD
100
AcDbEntity
  8
218
100
AcDbPolyline
 62
253
  6
CONTINUOUS
 90
40
 70
0
 10
-23.0721216151
 20
-4.3936354788
 10
-23.0719045938
 20
-4.3845295088
 10
-23.071253844
 20
-4.3754367134
 10
-23.0701703072
 20
-4.3663702482
 10
-23.068655551
 20
-4.3573432305
 10
-23.066711767
 20
-4.3483687208
 10
-23.0643417675
 20
-4.3394597035
 10
-23.0615489814
 20
-4.3306290682
 10
-23.0583374494
 20
-4.321889591
 10
-23.0547118179
 20
-4.3132539165
 10
-23.0506773325
 20
-4.3047345387
 10
-23.0462398305
 20
-4.2963437835
 10
-23.0414057318
 20
-4.2880937908
 10
-23.0361820307
 20
-4.2799964967
 10
-23.0305762848
 20
-4.2720636165
 10
-23.0245966045
 20
-4.2643066274
 10
-23.0182516413
 20
-4.2567367525
 10
-23.0115505752
 20
-4.2493649437
 10
-23.0045031012
 20
-4.2422018669
 10
-22.9971194158
 20
-4.2352578854
 10
-22.9894102017
 20
-4.228543046
 10
-22.9813866127
 20
-4.2220670636
 10
-22.9730602573
 20
-4.2158393079
 10
-22.9644431823
 20
-4.2098687892
 10
-22.9555478548
 20
-4.2041641457
 10
-22.9463871448
 20
-4.1987336309
 10
-22.9369743059
 20
-4.1935851017
 10
-22.9273229568
 20
-4.1887260071
 10
-22.9174470612
 20
-4.1841633772
 10
-22.9073609075
 20
-4.1799038132
 10
-22.8970790884
 20
-4.175953478
 10
-22.8866164799
 20
-4.172318087
 10
-22.8759882193
 20
-4.1690028998
 10
-22.8652096836
 20
-4.1660127128
 10
-22.8542964673
 20
-4.1633518524
 10
-22.8432643598
 20
-4.1610241682
 10
-22.8321293224
 20
-4.159033028
 10
-22.8209074653
 20
-4.1573813126
 10
-22.8096150245
 20
-4.1560714116
 10
-22.7982683379
 20
-4.1551052203
  0
LWPOLYLINE
  5
4CE
100
AcDbEntity
  8
RACCORDO
100
AcDbPolyline
 62
7
  6
CONTINUOUS
 90
4
 70
0
 10
-35.0751779211
 20
-20.9038469852
 10
-35.0803022098
 20
-20.9094512519
 10
-35.0836795238
 20
-20.9130411249
 10
-35.0918774372
 20
-20.9216761805
  0
LINE
  5
4CF
100
AcDbEntity
  8
RACCORDO
100
AcDbLine
 62
7
  6
CONTINUOUS
 10
-35.0918774372
 20
-20.9216761805
 11
-35.1131709487
 21
-20.9437323692
  0
LINE
  5
4D0
100
AcDbEntity
  8
RACCORDO
100
AcDbLine
 62
7
  6
CONTINUOUS
 10
-35.1131709487
 20
-20.9437323692
 11
-35.1325722464
 21
-20.9636390078
  0
LINE
  5
4D1
100
AcDbEntity
  8
RACCORDO
100
AcDbLine
 62
7
  6
CONTINUOUS
 10
-35.1325722464
 20
-20.9636390078
 11
-35.1943832697
 21
-21.0265107668
  0
LINE
  5
4D2
100
AcDbEntity
  8
RACCORDO
100
AcDbLine
 62
7
  6
CONTINUOUS
 10
-35.1943832697
 20
-21.0265107668
 11
-35.2744297614
 21
-21.1072767362
  0
LINE
  5
4D3
100
AcDbEntity
  8
RACCORDO
100
AcDbLine
 62
7
  6
CONTINUOUS
 10
-35.2744297614
 20
-21.1072767362
 11
-35.3668858932
 21
-21.2
  0
LWPOLYLINE
  5
4D4
100
AcDbEntity
  8
218
100
AcDbPolyline
 62
253
  6
CONTINUOUS
 90
15
 70
0
 10
-24.0546692087
 20
-8.9831390036
 10
-24.0541952938
 20
-8.9827513082
 10
-24.0537349527
 20
-8.9816051996
 10
-24.0532885374
 20
-8.9797014103
 10
-24.0528563805
 20
-8.9770411866
 10
-24.0524388218
 20
-8.9736264418
 10
-24.052036205
 20
-8.9694599059
 10
-24.0516488434
 20
-8.9645448522
 10
-24.0512770227
 20
-8.9588849326
 10
-24.0509210242
 20
-8.9524844286
 10
-24.0505811178
 20
-8.9453481821
 10
-24.0502575623
 20
-8.9374816149
 10
-24.0499506041
 20
-8.9288907172
 10
-24.0496604764
 20
-8.9195820206
 10
-24.0491315798
 20
-8.8988400111
  0
LINE
  5
4D5
100
AcDbEntity
  8
RACCORDO
100
AcDbLine
 62
253
  6
CONTINUOUS
 10
-47.7381506026
 20
17.3797991932
 11
-51.9265311693
 21
17.3066907384
  0
LINE
  5
4D6
100
AcDbEntity
  8
RACCORDO
100
AcDbLine
 62
7
  6
CONTINUOUS
 10
-47.6151210639
 20
18.3817943769
 11
-52.0314269547
 21
18.3047074708
  0
LINE
  5
4D7
100
AcDbEntity
  8
218
100
AcDbLine
 62
7
  6
CONTINUOUS
 10
-23.0721216151
 20
17.8
 11
-22.8721216151
 21
17.8
  0
LWPOLYLINE
  5
4D8
100
AcDbEntity
  8
218
100
AcDbPolyline
 62
253
  6
CONTINUOUS
 90
8
 70
0
 10
-24.0546692087
 20
17.5197402485
 10
-23.2032020014
 20
17.519615505
 10
-23.1900380195
 20
17.5196120777
 10
-23.1775290778
 20
17.5196086451
 10
-23.1656844655
 20
17.5196052077
 10
-23.1545129783
 20
17.519601773
 10
-23.1440229124
 20
17.5195983397
 10
-23.1342220577
 20
17.519594909
  0
LWPOLYLINE
  5
4D9
100
AcDbEntity
  8
218
100
AcDbPolyline
 62
253
  6
CONTINUOUS
 90
4
 70
0
 10
-23.1342220577
 20
17.519594909
 10
-23.1167165773
 20
17.5195880883
 10
-23.1090249513
 20
17.5195846982
 10
-23.1020485262
 20
17.5195813371
  0
LINE
  5
4DA
100
AcDbEntity
  8
218
100
AcDbLine
 62
253
  6
CONTINUOUS
 10
-23.1020485262
 20
17.5195813371
 11
-23.0902614665
 21
17.5195746998
  0
LWPOLYLINE
  5
4DB
100
AcDbEntity
  8
218
100
AcDbPolyline
 62
253
  6
CONTINUOUS
 90
3
 70
0
 10
-23.0902614665
 20
17.5195746998
 10
-23.0724929179
 20
17.5195560128
 10
-23.0721216151
 20
17.5195531341
  0
LINE
  5
4DC
100
AcDbEntity
  8
218
100
AcDbLine
 62
253
  6
CONTINUOUS
 10
-24.0546692087
 20
17.5197402485
 11
-45.0721216151
 21
17.6716990487
  0
LINE
  5
4DD
100
AcDbEntity
  8
218
100
AcDbLine
 62
253
  6
CONTINUOUS
 10
-25.093045631
 20
13.474166863
 11
-26.3928476347
 21
13.8270232487
  0
LINE
  5
4DE
100
AcDbEntity
  8
RACCORDO
100
AcDbLine
 62
7
  6
CONTINUOUS
 10
-35.2929419586
 20
21.125878276
 11
-35.3668858932
 21
21.2
  0
LINE
  5
4DF
100
AcDbEntity
  8
RACCORDO
100
AcDbLine
 62
7
  6
CONTINUOUS
 10
-35.1073070034
 20
20.9376932259
 11
-35.2929419586
 21
21.125878276
  0
LWPOLYLINE
  5
4E0
100
AcDbEntity
  8
RACCORDO
100
AcDbPolyline
 62
7
  6
CONTINUOUS
 90
3
 70
0
 10
-35.0836795238
 20
20.9130411249
 10
-35.0918774372
 20
20.9216761805
 10
-35.1073070034
 20
20.9376932259
  0
LINE
  5
4E1
100
AcDbEntity
  8
RACCORDO
100
AcDbLine
 62
7
  6
CONTINUOUS
 10
-35.0803022098
 20
20.9094512519
 11
-35.0836795238
 21
20.9130411249
  0
LINE
  5
4E2
100
AcDbEntity
  8
218
100
AcDbLine
 62
253
  6
CONTINUOUS
 10
-21.3459748907
 20
15.04898173
 11
-21.3459748902
 21
9.15101827
  0
LINE
  5
4E3
100
AcDbEntity
  8
218
100
AcDbLine
 62
253
  6
CONTINUOUS
 10
-21.3459748907
 20
-4.64898173
 11
-21.3459748906
 21
1.24898173
  0
LINE
  5
4E4
100
AcDbEntity
  8
218
100
AcDbLine
 62
7
  6
CONTINUOUS
 10
-21.0721216151
 20
14.7500957889
 11
-21.0721216151
 21
9.4499042221
  0
LINE
  5
4E5
100
AcDbEntity
  8
218
100
AcDbLine
 62
7
  6
CONTINUOUS
 10
-21.0721216151
 20
-4.3501007551
 11
-21.0721216151
 21
0.9500957858
  0
LINE
  5
4E6
100
AcDbEntity
  8
RACCORDO
100
AcDbLine
 62
253
  6
CONTINUOUS
 10
-58.6565852856
 20
19.8413257496
 11
-58.8985890534
 21
19.8325286759
  0
LINE
  5
4E7
100
AcDbEntity
  8
RACCORDO
100
AcDbLine
 62
253
  6
CONTINUOUS
 10
-58.8985890534
 20
19.8325286759
 11
-59.1157068586
 21
19.8247718109
  0
LINE
  5
4E8
100
AcDbEntity
  8
RACCORDO
100
AcDbLine
 62
253
  6
CONTINUOUS
 10
-59.1157068586
 20
19.8247718109
 11
-59.2873810308
 21
19.8187896089
  0
LINE
  5
4E9
100
AcDbEntity
  8
RACCORDO
100
AcDbLine
 62
253
  6
CONTINUOUS
 10
-59.2873810308
 20
19.8187896089
 11
-59.3683299576
 21
19.8160757775
  0
LWPOLYLINE
  5
4EA
100
AcDbEntity
  8
RACCORDO
100
AcDbPolyline
 62
253
  6
CONTINUOUS
 90
4
 70
0
 10
-59.3683299576
 20
19.8160757775
 10
-59.4183141649
 20
19.814521751
 10
-59.4309802952
 20
19.8142021974
 10
-59.4352208937
 20
19.814193216
  0
LINE
  5
4EB
100
AcDbEntity
  8
218
100
AcDbLine
 62
7
  6
CONTINUOUS
 10
-45.0721216151
 20
20.85
 11
-35.0721216151
 21
20.85
  0
LINE
  5
4EC
100
AcDbEntity
  8
RACCORDO
100
AcDbLine
 62
7
  6
CONTINUOUS
 10
-45.0721216151
 20
20.9
 11
-35.0721216151
 21
20.9
  0
LINE
  5
4ED
100
AcDbEntity
  8
218
100
AcDbLine
 62
253
  6
CONTINUOUS
 10
-24.0546692087
 20
18.9337384193
 11
-45.0721216151
 21
19.0856972195
  0
LINE
  5
4EE
100
AcDbEntity
  8
218
100
AcDbLine
 62
253
  6
CONTINUOUS
 10
-35.0721216151
 20
19.3181305591
 11
-24.0546692087
 21
19.125820212
  0
LINE
  5
4EF
100
AcDbEntity
  8
218
100
AcDbLine
 62
7
  6
CONTINUOUS
 10
-35.0721216151
 20
19.6109791689
 11
-24.0546692087
 21
19.4186688218
  0
LINE
  5
4F0
100
AcDbEntity
  8
ASSI
100
AcDbLine
 62
7
  6
CONTINUOUS
 10
-48.5721216151
 20
22.0
 11
-47.4221216151
 21
21.858797755
  0
LINE
  5
4F1
100
AcDbEntity
  8
218
100
AcDbLine
 62
253
  6
CONTINUOUS
 10
-25.8357896663
 20
15.6795232487
 11
-26.3928476347
 21
16.0323814011
  0
LINE
  5
4F2
100
AcDbEntity
  8
RACCORDO
100
AcDbLine
 62
7
  6
CONTINUOUS
 10
-52.1279058176
 20
19.2226425344
 11
-51.509510658
 21
19.371106077
  0
LWPOLYLINE
  5
4F3
100
AcDbEntity
  8
RACCORDO
100
AcDbPolyline
 62
253
  6
CONTINUOUS
 90
22
 70
0
 10
-58.03629787
 20
20.5624823816
 10
-58.0857098514
 20
20.5550385872
 10
-58.134058541
 20
20.544237025
 10
-58.1813439387
 20
20.530077695
 10
-58.2278154399
 20
20.5124538795
 10
-58.2732236493
 20
20.4914722962
 10
-58.3168203805
 20
20.4674530981
 10
-58.358560456
 20
20.4403496084
 10
-58.3984890533
 20
20.4102085039
 10
-58.4359935195
 20
20.3774899675
 10
-58.4710309734
 20
20.3421607017
 10
-58.5036442961
 20
20.304254004
 10
-58.5333494771
 20
20.2643299496
 10
-58.560108169
 20
20.2223481588
 10
-58.5839587192
 20
20.1783490114
 10
-58.6045321595
 20
20.1330137222
 10
-58.6217732885
 20
20.0863093512
 10
-58.6357373077
 20
20.0382688384
 10
-58.6462208533
 20
19.9896722184
 10
-58.6531561376
 20
19.9407795027
 10
-58.6566109484
 20
19.8913306798
 10
-58.6565852856
 20
19.8413257496
  0
LINE
  5
4F4
100
AcDbEntity
  8
RACCORDO
100
AcDbLine
 62
253
  6
CONTINUOUS
 10
-52.336978663
 20
21.2118377824
 11
-58.03629787
 21
20.5624823816
  0
LINE
  5
4F5
100
AcDbEntity
  8
DRAFT
100
AcDbLine
 62
7
  6
CONTINUOUS
 10
-51.6569920821
 20
20.4787474979
 11
-52.2533399735
 21
20.4160688089
  0
LINE
  5
4F6
100
AcDbEntity
  8
0
100
AcDbLine
 62
7
  6
CONTINUOUS
 10
-50.8765384401
 20
21.6668355887
 11
-51.3737993878
 21
21.614571357
  0
LINE
  5
4F7
100
AcDbEntity
  8
RACCORDO
100
AcDbLine
 62
253
  6
CONTINUOUS
 10
-45.0721216151
 20
21.2756902398
 11
-35.3668858932
 21
21.4450957595
  0
LINE
  5
4F8
100
AcDbEntity
  8
RACCORDO
100
AcDbLine
 62
253
  6
CONTINUOUS
 10
-45.0721216151
 20
21.4879136641
 11
-35.15628794
 21
21.6609951847
  0
LINE
  5
4F9
100
AcDbEntity
  8
RACCORDO
100
AcDbLine
 62
253
  6
CONTINUOUS
 10
-46.0721216151
 20
22.0499866726
 11
-48.5721216151
 21
22.0281695031
  0
LINE
  5
4FA
100
AcDbEntity
  8
RACCORDO
100
AcDbLine
 62
7
  6
CONTINUOUS
 10
-46.0721216151
 20
22.4
 11
-48.5721216151
 21
22.3781828305
  0
LINE
  5
4FB
100
AcDbEntity
  8
RACCORDO
100
AcDbLine
 62
253
  6
CONTINUOUS
 10
-45.0721216151
 20
21.2
 11
-35.3668858932
 21
21.2
  0
LINE
  5
4FC
100
AcDbEntity
  8
RACCORDO
100
AcDbLine
 62
253
  6
CONTINUOUS
 10
-45.0721216151
 20
22.0412598048
 11
-46.0721216151
 21
22.0499866726
  0
LINE
  5
4FD
100
AcDbEntity
  8
RACCORDO
100
AcDbLine
 62
253
  6
CONTINUOUS
 10
-45.0721216151
 20
22.303393743
 11
-35.6542630538
 21
22.2212053365
  0
LINE
  5
4FE
100
AcDbEntity
  8
RACCORDO
100
AcDbLine
 62
7
  6
CONTINUOUS
 10
-36.0633950796
 20
22.3126551668
 11
-46.0721216151
 21
22.4
  0
LINE
  5
4FF
100
AcDbEntity
  8
RACCORDO
100
AcDbLine
 62
7
  6
CONTINUOUS
 10
-52.4205855148
 20
22.0073038415
 11
-58.1060336024
 21
21.3595288551
  0
LINE
  5
500
100
AcDbEntity
  8
RACCORDO
100
AcDbLine
 62
7
  6
CONTINUOUS
 10
-48.3235760479
 20
24.3869014213
 11
-46.0721216151
 21
24.4
  0
LINE
  5
501
100
AcDbEntity
  8
RACCORDO
100
AcDbLine
 62
7
  6
CONTINUOUS
 10
-45.0772179373
 20
23.7942118197
 11
-38.0721216151
 21
23.7534573615
  0
LINE
  5
502
100
AcDbEntity
  8
RACCORDO
100
AcDbLine
 62
7
  6
CONTINUOUS
 10
-46.0721216151
 20
24.4
 11
-45.3206671823
 21
24.395628166
  0
ARC
  5
503
100
AcDbEntity
  8
RACCORDO
100
AcDbCircle
 62
7
  6
CONTINUOUS
 10
-53.6923476975
 20
-20.5086602648
 40
1.5
100
AcDbArc
 50
189.8995301032
 51
275.5
  0
ARC
  5
504
100
AcDbEntity
  8
218
100
AcDbCircle
 62
7
  6
CONTINUOUS
 10
-24.0721216151
 20
-7.9832913085
 40
1.0
100
AcDbArc
 50
271.0
 51
360.0
  0
ARC
  5
505
100
AcDbEntity
  8
218
100
AcDbCircle
 62
7
  6
CONTINUOUS
 10
-33.7721216151
 20
-18.5881352564
 40
1.0
100
AcDbArc
 50
271.0
 51
360.0
  0
ARC
  5
506
100
AcDbEntity
  8
RACCORDO
100
AcDbCircle
 62
7
  6
CONTINUOUS
 10
-36.0721216151
 20
-21.3126932437
 40
1.0
100
AcDbArc
 50
270.5
 51
360.0
  0
ARC
  5
507
100
AcDbEntity
  8
218
100
AcDbCircle
 62
7
  6
CONTINUOUS
 10
-32.2721216151
 20
-9.6266513328
 40
0.5
100
AcDbArc
 50
91.0000000002
 51
180.0000000117
  0
ARC
  5
508
100
AcDbEntity
  8
218
100
AcDbCircle
 62
7
  6
CONTINUOUS
 10
-21.3721216151
 20
0.9501233207
 40
0.3
100
AcDbArc
 50
0.0
 51
85.0
  0
ARC
  5
509
100
AcDbEntity
  8
218
100
AcDbCircle
 62
7
  6
CONTINUOUS
 10
-21.3721216151
 20
-4.3501233207
 40
0.3
100
AcDbArc
 50
275.0
 51
360.0
  0
ARC
  5
50A
100
AcDbEntity
  8
218
100
AcDbCircle
 62
7
  6
CONTINUOUS
 10
-22.7721216151
 20
-5.0748993522
 40
0.3
100
AcDbArc
 50
95.0
 51
180.0
  0
ARC
  5
50B
100
AcDbEntity
  8
218
100
AcDbCircle
 62
7
  6
CONTINUOUS
 10
-22.7721216151
 20
1.6748993522
 40
0.3
100
AcDbArc
 50
180.0
 51
265.0
  0
ARC
  5
50C
100
AcDbEntity
  8
RACCORDO
100
AcDbCircle
 62
7
  6
CONTINUOUS
 10
-48.3221216151
 20
-23.8443375673
 40
0.25
100
AcDbArc
 50
120.0
 51
180.0
  0
ARC
  5
50D
100
AcDbEntity
  8
RACCORDO
100
AcDbCircle
 62
7
  6
CONTINUOUS
 10
-48.3221216151
 20
-24.1369056521
 40
0.25
100
AcDbArc
 50
180.0
 51
269.6666666667
  0
ARC
  5
50E
100
AcDbEntity
  8
RACCORDO
100
AcDbCircle
 62
7
  6
CONTINUOUS
 10
-45.3221216151
 20
-24.1456323968
 40
0.25
100
AcDbArc
 50
270.3333333333
 51
360.0
  0
ARC
  5
50F
100
AcDbEntity
  8
RACCORDO
100
AcDbCircle
 62
7
  6
CONTINUOUS
 10
-45.3221216151
 20
-23.8443375673
 40
0.25
100
AcDbArc
 50
0.0
 51
60.0
  0
ARC
  5
510
100
AcDbEntity
  8
RACCORDO
100
AcDbCircle
 62
7
  6
CONTINUOUS
 10
-45.8221216151
 20
-22.9783121635
 40
0.25
100
AcDbArc
 50
180.0
 51
240.0
  0
ARC
  5
511
100
AcDbEntity
  8
RACCORDO
100
AcDbCircle
 62
7
  6
CONTINUOUS
 10
-57.9362287818
 20
19.8691710716
 40
1.5
100
AcDbArc
 50
96.5
 51
182.1004698968
  0
ARC
  5
512
100
AcDbEntity
  8
RACCORDO
100
AcDbCircle
 62
7
  6
CONTINUOUS
 10
-51.7429560218
 20
20.3434759974
 40
1.0
100
AcDbArc
 50
283.5
 51
6.0
  0
ARC
  5
513
100
AcDbEntity
  8
218
100
AcDbCircle
 62
7
  6
CONTINUOUS
 10
-24.0721216151
 20
18.4188211266
 40
1.0
100
AcDbArc
 50
0.0
 51
89.0
  0
ARC
  5
514
100
AcDbEntity
  8
RACCORDO
100
AcDbCircle
 62
7
  6
CONTINUOUS
 10
-36.0721216151
 20
21.3126932437
 40
1.0
100
AcDbArc
 50
0.0
 51
89.5
  0
ARC
  5
515
100
AcDbEntity
  8
218
100
AcDbCircle
 62
7
  6
CONTINUOUS
 10
-21.3721216151
 20
14.7501233207
 40
0.3
100
AcDbArc
 50
0.0
 51
85.0
  0
ARC
  5
516
100
AcDbEntity
  8
218
100
AcDbCircle
 62
7
  6
CONTINUOUS
 10
-21.3721216151
 20
9.4498766793
 40
0.3
100
AcDbArc
 50
275.0
 51
360.0
  0
ARC
  5
517
100
AcDbEntity
  8
218
100
AcDbCircle
 62
7
  6
CONTINUOUS
 10
-22.7721216151
 20
15.4748993522
 40
0.3
100
AcDbArc
 50
180.0
 51
265.0
  0
ARC
  5
518
100
AcDbEntity
  8
218
100
AcDbCircle
 62
7
  6
CONTINUOUS
 10
-22.7721216151
 20
8.7251006478
 40
0.3
100
AcDbArc
 50
95.0
 51
180.0
  0
ARC
  5
519
100
AcDbEntity
  8
RACCORDO
100
AcDbCircle
 62
7
  6
CONTINUOUS
 10
-48.3221216151
 20
23.8443375673
 40
0.25
100
AcDbArc
 50
180.0
 51
240.0
  0
ARC
  5
51A
100
AcDbEntity
  8
RACCORDO
100
AcDbCircle
 62
7
  6
CONTINUOUS
 10
-48.3221216151
 20
24.1369056521
 40
0.25
100
AcDbArc
 50
90.3333333333
 51
180.0
  0
ARC
  5
51B
100
AcDbEntity
  8
RACCORDO
100
AcDbCircle
 62
7
  6
CONTINUOUS
 10
-45.3221216151
 20
24.1456323968
 40
0.25
100
AcDbArc
 50
0.0
 51
89.6666666667
  0
ARC
  5
51C
100
AcDbEntity
  8
RACCORDO
100
AcDbCircle
 62
7
  6
CONTINUOUS
 10
-45.3221216151
 20
23.8443375673
 40
0.25
100
AcDbArc
 50
300.0
 51
360.0
  0
ARC
  5
51D
100
AcDbEntity
  8
RACCORDO
100
AcDbCircle
 62
7
  6
CONTINUOUS
 10
-45.8221216151
 20
22.9783121635
 40
0.25
100
AcDbArc
 50
120.0
 51
180.0
  0
ARC
  5
51E
100
AcDbEntity
  8
RACCORDO
100
AcDbCircle
 62
7
  6
CONTINUOUS
 10
240.3632070447
 20
30.8097645481
 40
300.0
100
AcDbArc
 50
182.1004698968
 51
189.8995301032
  0
ELLIPSE
  5
51F
100
AcDbEntity
  8
RACCORDO
100
AcDbEllipse
 62
7
  6
CONTINUOUS
 10
-10.299725766
 20
-20.657655174
 30
0.0
 11
0.8001209013
 21
0.0157561768
 31
0.0
 40
0.9942144819
 41
3.1220168394
 42
3.3872215424
  0
ELLIPSE
  5
520
100
AcDbEntity
  8
RACCORDO
100
AcDbEllipse
 62
7
  6
CONTINUOUS
 10
-10.299725766
 20
21.2116560293
 30
0.0
 11
0.8001209013
 21
-0.0157561768
 31
0.0
 40
0.9942144819
 41
1.5906005751
 42
3.1611684678
  0
ELLIPSE
  5
521
100
AcDbEntity
  8
RACCORDO
100
AcDbEllipse
 62
7
  6
CONTINUOUS
 10
10.299725766
 20
21.2116560293
 30
0.0
 11
0.8001209013
 21
0.0157561768
 31
0.0
 40
0.9942144819
 41
-0.0195758142
 42
1.5509920785
  0
ELLIPSE
  5
522
100
AcDbEntity
  8
RACCORDO
100
AcDbEllipse
 62
7
  6
CONTINUOUS
 10
10.299725766
 20
-20.657655174
 30
0.0
 11
0.8001209013
 21
-0.0157561768
 31
0.0
 40
0.9942144819
 41
-0.2456288888
 42
0.0195758142
  0
ELLIPSE
  5
523
100
AcDbEntity
  8
RACCORDO
100
AcDbEllipse
 62
7
  6
CONTINUOUS
 10
10.8
 20
22.0281695031
 30
0.0
 11
-0.0
 21
-0.3500133274
 31
0.0
 40
0.9999619231
 41
1.5707963268
 42
3.1415926536
  0
ELLIPSE
  5
524
100
AcDbEntity
  8
RACCORDO
100
AcDbEllipse
 62
7
  6
CONTINUOUS
 10
10.8
 20
-22.0281695031
 30
0.0
 11
-0.0
 21
-0.3500133274
 31
0.0
 40
0.9999619231
 41
-0.0
 42
1.5707963268
  0
ELLIPSE
  5
525
100
AcDbEntity
  8
RACCORDO
100
AcDbEllipse
 62
7
  6
CONTINUOUS
 10
10.5869098829
 20
-23.8443375673
 30
0.0
 11
-0.0
 21
0.25
 31
0.0
 40
0.0058178298
 41
0.5235987756
 42
1.5707963268
  0
ELLIPSE
  5
526
100
AcDbEntity
  8
RACCORDO
100
AcDbEllipse
 62
7
  6
CONTINUOUS
 10
8.3130901171
 20
-23.8443375673
 30
0.0
 11
0.0
 21
0.25
 31
0.0
 40
0.0058178298
 41
-1.5707963268
 42
-0.5235987756
  0
ELLIPSE
  5
527
100
AcDbEntity
  8
RACCORDO
100
AcDbEllipse
 62
7
  6
CONTINUOUS
 10
8.3130901171
 20
-24.1369056521
 30
0.0
 11
-0.0
 21
0.25
 31
0.0
 40
0.0058178298
 41
-3.1357748894
 42
-1.5707963268
  0
ELLIPSE
  5
528
100
AcDbEntity
  8
RACCORDO
100
AcDbEllipse
 62
7
  6
CONTINUOUS
 10
10.5869098829
 20
-24.1369056521
 30
0.0
 11
-0.0
 21
0.25
 31
0.0
 40
0.0058178298
 41
1.5707963268
 42
3.1357748894
  0
ELLIPSE
  5
529
100
AcDbEntity
  8
RACCORDO
100
AcDbEllipse
 62
7
  6
CONTINUOUS
 10
-8.3130901171
 20
-23.8443375673
 30
0.0
 11
-0.0
 21
0.25
 31
0.0
 40
0.0058178298
 41
0.5235987756
 42
1.5707963268
  0
ELLIPSE
  5
52A
100
AcDbEntity
  8
RACCORDO
100
AcDbEllipse
 62
7
  6
CONTINUOUS
 10
-10.5869098829
 20
-23.8443375673
 30
0.0
 11
0.0
 21
0.25
 31
0.0
 40
0.0058178298
 41
-1.5707963268
 42
-0.5235987756
  0
ELLIPSE
  5
52B
100
AcDbEntity
  8
RACCORDO
100
AcDbEllipse
 62
7
  6
CONTINUOUS
 10
-10.5869098829
 20
-24.1369056521
 30
0.0
 11
0.0
 21
0.25
 31
0.0
 40
0.0058178298
 41
-3.1357748894
 42
-1.5707963268
  0
ELLIPSE
  5
52C
100
AcDbEntity
  8
RACCORDO
100
AcDbEllipse
 62
7
  6
CONTINUOUS
 10
-8.3130901171
 20
-24.1369056521
 30
0.0
 11
-0.0
 21
0.25
 31
0.0
 40
0.0058178298
 41
1.5707963268
 42
3.1357748894
  0
ELLIPSE
  5
52D
100
AcDbEntity
  8
RACCORDO
100
AcDbEllipse
 62
7
  6
CONTINUOUS
 10
-10.5869098829
 20
23.8443375673
 30
0.0
 11
0.0
 21
0.25
 31
0.0
 40
0.0058178298
 41
-2.617993878
 42
-1.5707963268
  0
ELLIPSE
  5
52E
100
AcDbEntity
  8
RACCORDO
100
AcDbEllipse
 62
7
  6
CONTINUOUS
 10
-8.3130901171
 20
23.8443375673
 30
0.0
 11
-0.0
 21
0.25
 31
0.0
 40
0.0058178298
 41
-4.7123889804
 42
-3.6651914292
  0
ELLIPSE
  5
52F
100
AcDbEntity
  8
RACCORDO
100
AcDbEllipse
 62
7
  6
CONTINUOUS
 10
-8.3130901171
 20
24.1369056521
 30
0.0
 11
-0.0
 21
0.25
 31
0.0
 40
0.0058178298
 41
0.0058177642
 42
1.5707963268
  0
ELLIPSE
  5
530
100
AcDbEntity
  8
RACCORDO
100
AcDbEllipse
 62
7
  6
CONTINUOUS
 10
-10.5869098829
 20
24.1369056521
 30
0.0
 11
-0.0
 21
0.25
 31
0.0
 40
0.0058178298
 41
-1.5707963268
 42
-0.0058177642
  0
ELLIPSE
  5
531
100
AcDbEntity
  8
RACCORDO
100
AcDbEllipse
 62
7
  6
CONTINUOUS
 10
8.3130901171
 20
23.8443375673
 30
0.0
 11
-0.0
 21
0.25
 31
0.0
 40
0.0058178298
 41
-2.617993878
 42
-1.5707963268
  0
ELLIPSE
  5
532
100
AcDbEntity
  8
RACCORDO
100
AcDbEllipse
 62
7
  6
CONTINUOUS
 10
10.5869098829
 20
23.8443375673
 30
0.0
 11
-0.0
 21
0.25
 31
0.0
 40
0.0058178298
 41
-4.7123889804
 42
-3.6651914292
  0
ELLIPSE
  5
533
100
AcDbEntity
  8
RACCORDO
100
AcDbEllipse
 62
7
  6
CONTINUOUS
 10
10.5869098829
 20
24.1369056521
 30
0.0
 11
0.0
 21
0.25
 31
0.0
 40
0.0058178298
 41
0.0058177642
 42
1.5707963268
  0
ELLIPSE
  5
534
100
AcDbEntity
  8
RACCORDO
100
AcDbEllipse
 62
7
  6
CONTINUOUS
 10
8.3130901171
 20
24.1369056521
 30
0.0
 11
-0.0
 21
0.25
 31
0.0
 40
0.0058178298
 41
-1.5707963268
 42
-0.0058177642
  0
ELLIPSE
  5
535
100
AcDbEntity
  8
RACCORDO
100
AcDbEllipse
 62
7
  6
CONTINUOUS
 10
-4.0959224421
 20
-22.3938911925
 30
0.0
 11
0.3
 21
-0.0
 31
0.0
 40
0.0087268678
 41
1.5707963268
 42
3.1357748894
  0
ELLIPSE
  5
536
100
AcDbEntity
  8
RACCORDO
100
AcDbEllipse
 62
7
  6
CONTINUOUS
 10
-4.0959224421
 20
-23.7959275191
 30
0.0
 11
0.3
 21
0.0
 31
0.0
 40
0.0058178298
 41
1.5707963268
 42
3.1357748894
  0
ELLIPSE
  5
537
100
AcDbEntity
  8
RACCORDO
100
AcDbEllipse
 62
7
  6
CONTINUOUS
 10
4.0959224421
 20
-23.7959275191
 30
0.0
 11
0.3
 21
0.0
 31
0.0
 40
0.0058178298
 41
0.0058177642
 42
1.5707963268
  0
ELLIPSE
  5
538
100
AcDbEntity
  8
RACCORDO
100
AcDbEllipse
 62
7
  6
CONTINUOUS
 10
4.0959224421
 20
-22.3938911925
 30
0.0
 11
0.3
 21
-0.0
 31
0.0
 40
0.0087268678
 41
0.0058177642
 42
1.5707963268
  0
ELLIPSE
  5
539
100
AcDbEntity
  8
RACCORDO
100
AcDbEllipse
 62
7
  6
CONTINUOUS
 10
-4.0959224421
 20
23.7959275191
 30
0.0
 11
0.3
 21
-0.0
 31
0.0
 40
0.0058178298
 41
-3.1357748894
 42
-1.5707963268
  0
ELLIPSE
  5
53A
100
AcDbEntity
  8
RACCORDO
100
AcDbEllipse
 62
7
  6
CONTINUOUS
 10
-4.0959224421
 20
22.3938911925
 30
0.0
 11
0.3
 21
-0.0
 31
0.0
 40
0.0087268678
 41
-3.1357748894
 42
-1.5707963268
  0
ELLIPSE
  5
53B
100
AcDbEntity
  8
RACCORDO
100
AcDbEllipse
 62
7
  6
CONTINUOUS
 10
4.0959224421
 20
22.3938911925
 30
0.0
 11
0.3
 21
0.0
 31
0.0
 40
0.0087268678
 41
-1.5707963268
 42
-0.0058177642
  0
ELLIPSE
  5
53C
100
AcDbEntity
  8
RACCORDO
100
AcDbEllipse
 62
7
  6
CONTINUOUS
 10
4.0959224421
 20
23.7959275191
 30
0.0
 11
0.3
 21
0.0
 31
0.0
 40
0.0058178298
 41
-1.5707963268
 42
-0.0058177642
  0
ELLIPSE
  5
53D
100
AcDbEntity
  8
RACCORDO
100
AcDbEllipse
 62
7
  6
CONTINUOUS
 10
-10.8
 20
-22.0281695031
 30
0.0
 11
0.0
 21
0.3500133274
 31
0.0
 40
0.9999619231
 41
1.5707963268
 42
3.1415926536
  0
ELLIPSE
  5
53E
100
AcDbEntity
  8
RACCORDO
100
AcDbEllipse
 62
7
  6
CONTINUOUS
 10
-10.8
 20
22.0281695031
 30
0.0
 11
0.0
 21
0.3500133274
 31
0.0
 40
0.9999619231
 41
-0.0
 42
1.5707963268
  0
ELLIPSE
  5
53F
100
AcDbEntity
  8
218
100
AcDbEllipse
 62
253
  6
CONTINUOUS
 10
-28.8300070563
 20
7.167043
 30
0.0
 11
-0.0
 21
0.303837
 31
0.0
 40
0.9996954135
 41
-1.5707963268
 42
0.8726628063
  0
ELLIPSE
  5
540
100
AcDbEntity
  8
218
100
AcDbEllipse
 62
253
  6
CONTINUOUS
 10
-29.7968534782
 20
1.711256
 30
0.0
 11
-0.0
 21
0.096675
 31
0.0
 40
0.9996954135
 41
1.5707963268
 42
3.1415926536
  0
ELLIPSE
  5
541
100
AcDbEntity
  8
218
100
AcDbEllipse
 62
253
  6
CONTINUOUS
 10
-29.5621429896
 20
1.711256
 30
0.0
 11
0.0
 21
0.096675
 31
0.0
 40
0.9996954135
 41
-3.1415926536
 42
-1.5707963268
  0
ELLIPSE
  5
542
100
AcDbEntity
  8
218
100
AcDbEllipse
 62
253
  6
CONTINUOUS
 10
-29.3688518814
 20
2.802303
 30
0.0
 11
0.0
 21
0.096675
 31
0.0
 40
0.9996954135
 41
0.0
 42
1.5707963268
  0
ELLIPSE
  5
543
100
AcDbEntity
  8
218
100
AcDbEllipse
 62
253
  6
CONTINUOUS
 10
-29.1048253248
 20
2.802303
 30
0.0
 11
-0.0
 21
0.096676
 31
0.0
 40
0.9996954135
 41
-1.5707963268
 42
0.0
  0
ELLIPSE
  5
544
100
AcDbEntity
  8
218
100
AcDbEllipse
 62
253
  6
CONTINUOUS
 10
-29.1048253248
 20
3.202814
 30
0.0
 11
0.0
 21
0.096675
 31
0.0
 40
0.9996954135
 41
-3.1415926536
 42
-1.5707963268
  0
ELLIPSE
  5
545
100
AcDbEntity
  8
218
100
AcDbEllipse
 62
253
  6
CONTINUOUS
 10
-29.7968534782
 20
3.202814
 30
0.0
 11
0.0
 21
0.096675
 31
0.0
 40
0.9996954135
 41
1.5707963268
 42
3.1415926536
  0
ELLIPSE
  5
546
100
AcDbEntity
  8
218
100
AcDbEllipse
 62
253
  6
CONTINUOUS
 10
-41.5987736775
 20
-4.680795
 30
0.0
 11
0.0
 21
0.352865
 31
0.0
 40
0.9996954135
 41
-1.5707963268
 42
1.5707963268
  0
ENDSEC
  0
SECTION
  2
OBJECTS
  0
DICTIONARY
  5
C
100
AcDbDictionary
280
0
281
1
  3
ACAD_GROUP
350
D
  3
ACAD_MLINESTYLE
350
17
  3
ACAD_LAYOUT
350
1A
  3
ACAD_PLOTSETTINGS
350
19
  3
ACAD_PLOTSTYLENAME
350
E
  0
DICTIONARY
  5
D
102
{ACAD_REACTORS
330
C
102
}
100
AcDbDictionary
280
0
281
1
  0
ACDBDICTIONARYWDFLT
  5
E
102
{ACAD_REACTORS
330
C
102
}
100
AcDbDictionary
281
1
  3
Normal
350
F
100
AcDbDictionaryWithDefault
340
F
  0
DICTIONARY
  5
17
102
{ACAD_REACTORS
330
C
102
}
100
AcDbDictionary
280
0
281
1
  3
Standard
350
18
  0
DICTIONARY
  5
19
102
{ACAD_REACTORS
330
C
102
}
100
AcDbDictionary
281
1
  0
DICTIONARY
  5
1A
102
{ACAD_REACTORS
330
C
102
}
100
AcDbDictionary
281
1
  3
Model
350
547
  3
Layout1
350
548
  0
ACDBPLACEHOLDER
  5
F
102
{ACAD_REACTORS
330
E
102
}
  0
MLINESTYLE
  5
18
102
{ACAD_REACTORS
330
17
102
}
100
AcDbMlineStyle
  2
STANDARD
 70
0
  3

 62
256
 51
90.0
 52
90.0
 71
2
 49
0.5
 62
256
  6
BYLAYER
 49
-0.5
 62
256
  6
BYLAYER
  0
LAYOUT
  5
547
102
{ACAD_REACTORS
330
1A
102
}
100
AcDbPlotSettings
  1

  2
none_device
  4
ISO_A4_(297.00_x_210.00_MM)
  6

 40
0.0
 41
0.0
 42
0.0
 43
0.0
 44
297.0
 45
210.0
 46
0.0
 47
0.0
 48
0.0
 49
0.0
140
0.0
141
0.0
142
1.0
143
1.0
 70
1024
 72
1
 73
0
 74
0
  7

 75
0
147
1.0
148
0.0
149
0.0
100
AcDbLayout
  1
Model
 70
0
 71
0
 10
0.0
 20
0.0
 11
297.0
 21
210.0
 12
0.0
 22
0.0
 32
0.0
 14
0.0
 24
0.0
 34
0.0
 15
0.0
 25
0.0
 35
0.0
146
0.0
 13
0.0
 23
0.0
 33
0.0
 16
1.0
 26
0.0
 36
0.0
 17
0.0
 27
1.0
 37
0.0
 76
0
330
21E
345
0
346
0
  0
LAYOUT
  5
548
102
{ACAD_REACTORS
330
1A
102
}
100
AcDbPlotSettings
  1

  2
none_device
  4
ISO_A4_(297.00_x_210.00_MM)
  6

 40
0.0
 41
0.0
 42
0.0
 43
0.0
 44
297.0
 45
210.0
 46
0.0
 47
0.0
 48
0.0
 49
0.0
140
0.0
141
0.0
142
1.0
143
1.0
 70
0
 72
1
 73
0
 74
0
  7

 75
0
147
1.0
148
0.0
149
0.0
100
AcDbLayout
  1
Layout1
 70
0
 71
1
 10
0.0
 20
0.0
 11
297.0
 21
210.0
 12
0.0
 22
0.0
 32
0.0
 14
0.0
 24
0.0
 34
0.0
 15
0.0
 25
0.0
 35
0.0
146
0.0
 13
0.0
 23
0.0
 33
0.0
 16
1.0
 26
0.0
 36
0.0
 17
0.0
 27
1.0
 37
0.0
 76
0
330
21F
345
0
346
0
  0
ENDSEC
  0
EOF
