  0
SECTION
  2
HEADER
  9
$ACADVER
  1
AC1024
  9
$DWGCODEPAGE
  3
ANSI_1252
  9
$EXTMAX
 10
297.0
 20
210.0
 30
0.0
  9
$EXTMIN
 10
0.0
 20
0.0
 30
0.0
  9
$LIMMIN
 10
0.0
 20
0.0
  9
$LIMMAX
 10
297.0
 20
210.0
  9
$VIEWCTR
 10
148.5
 20
105.0
  9
$VIEWSIZE
 40
210.0
  9
$CLAYER
  8
0
  9
$LTSCALE
 40
16.335
  9
$CELTYPE
  6
BYLAYER
  9
$DIMSCALE
 40
1.0
  9
$DIMASZ
 40
3.0
  9
$DIMEXO
 40
0.5
  9
$DIMDLI
 40
11.286
  9
$DIMEXE
 40
1.5
  9
$DIMCEN
 40
2.673
  9
$DIMLFAC
 40
1.0
  9
$DIMBLK
  1
_FILLED
  9
$DIMALT
 70
0
  9
$DIMALTF
 40
0.0393700787
  9
$DIMTXT
 40
3.0
  9
$DIMTOL
 70
1
  9
$DIMLIM
 70
0
  9
$DIMTFAC
 40
1.0
  9
$DIMTP
 40
0.01
  9
$DIMTM
 40
0.01
  9
$DIMGAP
 40
0.625
  9
$DIMDSEP
 70
44
  9
$AUNITS
 70
0
  9
$PDMODE
 70
3
  9
$PDSIZE
 40
3.0
  9
$HANDSEED
  5
2D8
  9
$TILEMODE
 70
1
  9
$MEASUREMENT
 70
1
  9
$INSUNITS
 70
4
  0
ENDSEC
  0
SECTION
  2
CLASSES
  0
CLASS
  1
ACDBDICTIONARYWDFLT
  2
AcDbDictionaryWithDefault
  3
AutoCAD 2000
 90
0
 91
1
280
0
281
0
  0
CLASS
  1
ACDBPLACEHOLDER
  2
AcDbPlaceHolder
  3
AutoCAD 2000
 90
0
 91
1
280
0
281
0
  0
CLASS
  1
LAYOUT
  2
AcDbLayout
  3
AutoCAD 2000
 90
0
 91
0
280
0
281
0
  0
ENDSEC
  0
SECTION
  2
TABLES
  0
TABLE
  2
VPORT
  5
8
100
AcDbSymbolTable
 70
2
  0
VPORT
  5
1F4
100
AcDbSymbolTableRecord
100
AcDbViewportTableRecord
  2
*ACTIVE
 70
0
 10
0.0
 20
0.0
 11
1.0
 21
1.0
 12
148.5
 22
105.0
 13
0.0
 23
0.0
 14
1.0
 24
1.0
 15
0.0
 25
0.0
 16
0.0
 26
0.0
 36
1.0
 17
0.0
 27
0.0
 37
0.0
 40
210.0
 41
1.4142857143
 42
50.0
 43
0.0
 44
0.0
 50
0.0
 51
0.0
 71
0
 72
100
 73
1
 74
1
 75
0
 76
0
 77
0
 78
0
  0
ENDTAB
  0
TABLE
  2
LTYPE
  5
5
100
AcDbSymbolTable
 70
6
  0
LTYPE
  5
14
100
AcDbSymbolTableRecord
100
AcDbLinetypeTableRecord
  2
BYBLOCK
 70
0
  3

 72
65
 73
0
 40
0.0
  0
LTYPE
  5
15
100
AcDbSymbolTableRecord
100
AcDbLinetypeTableRecord
  2
BYLAYER
 70
0
  3

 72
65
 73
0
 40
0.0
  0
LTYPE
  5
16
100
AcDbSymbolTableRecord
100
AcDbLinetypeTableRecord
  2
CONTINUOUS
 70
64
  3
Solid line
 72
65
 73
0
 40
0.0
  0
LTYPE
  5
1F5
100
AcDbSymbolTableRecord
100
AcDbLinetypeTableRecord
  2
CENTER
 70
64
  3
____ _ ____ _ ____ _ ____ _ ____ _ ____ _ ____
 72
65
 73
4
 40
0.6
 49
0.375
 74
0
 49
-0.075
 74
0
 49
0.075
 74
0
 49
-0.075
 74
0
  0
LTYPE
  5
1F6
100
AcDbSymbolTableRecord
100
AcDbLinetypeTableRecord
  2
HIDDEN
 70
64
  3
- - - - - - - - - - - - - - - - - - - -
 72
65
 73
2
 40
0.2
 49
0.1
 74
0
 49
-0.1
 74
0
  0
LTYPE
  5
1F7
100
AcDbSymbolTableRecord
100
AcDbLinetypeTableRecord
  2
PHANTOM
 70
64
  3
_____ _ _ _____ _ _ _____ _ _ _____
 72
65
 73
6
 40
0.8
 49
0.45
 74
0
 49
-0.05
 74
0
 49
0.1
 74
0
 49
-0.05
 74
0
 49
0.1
 74
0
 49
-0.05
 74
0
  0
LTYPE
  5
1F8
100
AcDbSymbolTableRecord
100
AcDbLinetypeTableRecord
  2
DOT
 70
64
  3
. . . . . . . . . . . . . . . . . . . .
 72
65
 73
2
 40
0.2
 49
0.1
 74
0
 49
-0.1
 74
0
  0
LTYPE
  5
1F9
100
AcDbSymbolTableRecord
100
AcDbLinetypeTableRecord
  2
DASHED
 70
64
  3
- - - - - - - - - - - - - - - - - - - -
 72
65
 73
2
 40
0.2
 49
0.1
 74
0
 49
-0.1
 74
0
  0
ENDTAB
  0
TABLE
  2
LAYER
  5
2
100
AcDbSymbolTable
 70
36
  0
LAYER
  5
10
100
AcDbSymbolTableRecord
100
AcDbLayerTableRecord
  2
0
 70
0
 62
7
  6
CONTINUOUS
370
-3
390
F
  0
LAYER
  5
1FA
100
AcDbSymbolTableRecord
100
AcDbLayerTableRecord
  2
DEFAULT_1
 70
0
 62
7
  6
CENTER
370
-3
390
F
  0
LAYER
  5
1FB
100
AcDbSymbolTableRecord
100
AcDbLayerTableRecord
  2
DEFAULT_2
 70
0
 62
7
  6
HIDDEN
370
-3
390
F
  0
LAYER
  5
1FC
100
AcDbSymbolTableRecord
100
AcDbLayerTableRecord
  2
DEFAULT_3
 70
0
 62
7
  6
PHANTOM
370
-3
390
F
  0
LAYER
  5
1FD
100
AcDbSymbolTableRecord
100
AcDbLayerTableRecord
  2
ASSI
 70
0
 62
7
  6
CONTINUOUS
370
-3
390
F
  0
LAYER
  5
1FE
100
AcDbSymbolTableRecord
100
AcDbLayerTableRecord
  2
COORDINATE
 70
0
 62
7
  6
CONTINUOUS
370
-3
390
F
  0
LAYER
  5
1FF
100
AcDbSymbolTableRecord
100
AcDbLayerTableRecord
  2
COORD_ORIGINE
 70
0
 62
7
  6
CONTINUOUS
370
-3
390
F
  0
LAYER
  5
200
100
AcDbSymbolTableRecord
100
AcDbLayerTableRecord
  2
COPY_PUBLISH
 70
0
 62
7
  6
CONTINUOUS
370
-3
390
F
  0
LAYER
  5
201
100
AcDbSymbolTableRecord
100
AcDbLayerTableRecord
  2
COSMETICI
 70
0
 62
7
  6
CONTINUOUS
370
-3
390
F
  0
LAYER
  5
202
100
AcDbSymbolTableRecord
100
AcDbLayerTableRecord
  2
CURVE
 70
0
 62
7
  6
CONTINUOUS
370
-3
390
F
  0
LAYER
  5
203
100
AcDbSymbolTableRecord
100
AcDbLayerTableRecord
  2
DRAFT
 70
0
 62
7
  6
CONTINUOUS
370
-3
390
F
  0
LAYER
  5
204
100
AcDbSymbolTableRecord
100
AcDbLayerTableRecord
  2
IGES
 70
0
 62
7
  6
CONTINUOUS
370
-3
390
F
  0
LAYER
  5
205
100
AcDbSymbolTableRecord
100
AcDbLayerTableRecord
  2
IMPORT_IGES
 70
0
 62
7
  6
CONTINUOUS
370
-3
390
F
  0
LAYER
  5
206
100
AcDbSymbolTableRecord
100
AcDbLayerTableRecord
  2
INTF_1
 70
0
 62
7
  6
CONTINUOUS
370
-3
390
F
  0
LAYER
  5
207
100
AcDbSymbolTableRecord
100
AcDbLayerTableRecord
  2
INTF_5
 70
0
 62
7
  6
CONTINUOUS
370
-3
390
F
  0
LAYER
  5
208
100
AcDbSymbolTableRecord
100
AcDbLayerTableRecord
  2
INTF_8
 70
0
 62
7
  6
CONTINUOUS
370
-3
390
F
  0
LAYER
  5
209
100
AcDbSymbolTableRecord
100
AcDbLayerTableRecord
  2
INTF_CYAN
 70
0
 62
7
  6
CONTINUOUS
370
-3
390
F
  0
LAYER
  5
20A
100
AcDbSymbolTableRecord
100
AcDbLayerTableRecord
  2
NOTE
 70
0
 62
7
  6
CONTINUOUS
370
-3
390
F
  0
LAYER
  5
20B
100
AcDbSymbolTableRecord
100
AcDbLayerTableRecord
  2
PIANI
 70
0
 62
7
  6
CONTINUOUS
370
-3
390
F
  0
LAYER
  5
20C
100
AcDbSymbolTableRecord
100
AcDbLayerTableRecord
  2
PIANI_ORIGINE
 70
0
 62
7
  6
CONTINUOUS
370
-3
390
F
  0
LAYER
  5
20D
100
AcDbSymbolTableRecord
100
AcDbLayerTableRecord
  2
PUNTI
 70
0
 62
7
  6
CONTINUOUS
370
-3
390
F
  0
LAYER
  5
20E
100
AcDbSymbolTableRecord
100
AcDbLayerTableRecord
  2
RACCORDO
 70
0
 62
7
  6
CONTINUOUS
370
-3
390
F
  0
LAYER
  5
20F
100
AcDbSymbolTableRecord
100
AcDbLayerTableRecord
  2
RGB____0____0____0__
 70
0
 62
7
  6
CONTINUOUS
370
-3
390
F
  0
LAYER
  5
210
100
AcDbSymbolTableRecord
100
AcDbLayerTableRecord
  2
SIMBOLI
 70
0
 62
7
  6
CONTINUOUS
370
-3
390
F
  0
LAYER
  5
211
100
AcDbSymbolTableRecord
100
AcDbLayerTableRecord
  2
SMUSSO
 70
0
 62
7
  6
CONTINUOUS
370
-3
390
F
  0
LAYER
  5
212
100
AcDbSymbolTableRecord
100
AcDbLayerTableRecord
  2
SNAPLINE
 70
0
 62
7
  6
CONTINUOUS
370
-3
390
F
  0
LAYER
  5
213
100
AcDbSymbolTableRecord
100
AcDbLayerTableRecord
  2
SUPERFICI
 70
0
 62
7
  6
CONTINUOUS
370
-3
390
F
  0
LAYER
  5
214
100
AcDbSymbolTableRecord
100
AcDbLayerTableRecord
  2
TRASH
 70
0
 62
7
  6
CONTINUOUS
370
-3
390
F
  0
LAYER
  5
215
100
AcDbSymbolTableRecord
100
AcDbLayerTableRecord
  2
WHITE
 70
0
 62
7
  6
CONTINUOUS
370
-3
390
F
  0
ENDTAB
  0
TABLE
  2
STYLE
  5
3
100
AcDbSymbolTable
 70
1
  0
STYLE
  5
11
100
AcDbSymbolTableRecord
100
AcDbTextStyleTableRecord
  2
STANDARD
 70
0
 40
0.0
 41
0.8
 50
0.0
 71
0
 42
0.2
  3
txt
  4

  0
STYLE
  5
216
100
AcDbSymbolTableRecord
100
AcDbTextStyleTableRecord
  2
TEXTSTYLE_1
 70
0
 40
0.0
 41
0.8
 50
0.0
 71
0
 42
0.2
  3
gdt
  4

  0
ENDTAB
  0
TABLE
  2
VIEW
  5
6
100
AcDbSymbolTable
 70
0
  0
ENDTAB
  0
TABLE
  2
UCS
  5
7
100
AcDbSymbolTable
 70
0
  0
ENDTAB
  0
TABLE
  2
APPID
  5
9
100
AcDbSymbolTable
 70
1
  0
APPID
  5
217
100
AcDbSymbolTableRecord
100
AcDbRegAppTableRecord
  2
ACAD
 70
0
  0
ENDTAB
  0
TABLE
  2
BLOCK_RECORD
  5
1
100
AcDbSymbolTable
 70
0
  0
BLOCK_RECORD
  5
218
100
AcDbSymbolTableRecord
100
AcDbBlockTableRecord
  2
*Model_Space
  0
BLOCK_RECORD
  5
219
100
AcDbSymbolTableRecord
100
AcDbBlockTableRecord
  2
*Paper_Space
  0
BLOCK_RECORD
  5
21A
100
AcDbSymbolTableRecord
100
AcDbBlockTableRecord
  2
_FILLED
  0
BLOCK_RECORD
  5
21B
100
AcDbSymbolTableRecord
100
AcDbBlockTableRecord
  2
*D0
  0
BLOCK_RECORD
  5
21C
100
AcDbSymbolTableRecord
100
AcDbBlockTableRecord
  2
*D1
  0
BLOCK_RECORD
  5
21D
100
AcDbSymbolTableRecord
100
AcDbBlockTableRecord
  2
*D2
  0
ENDTAB
  0
TABLE
  2
DIMSTYLE
  5
A
100
AcDbSymbolTable
 70
1
100
AcDbDimStyleTable
 71
0
  0
DIMSTYLE
105
21E
100
AcDbSymbolTableRecord
100
AcDbDimStyleTableRecord
  2
STANDARD
 70
0
  3

  4

 40
1.0
 41
3.0
 42
0.5
 43
0.38
 44
1.5
 45
0.0
 46
0.0
 47
0.01
 48
0.01
140
3.0
141
0.09
142
0.0
143
25.4
144
1.0
145
0.0
146
1.0
147
0.625
 71
1
 72
0
 73
0
 74
0
 75
0
 76
0
 77
1
 78
8
 79
2
170
0
171
1
172
0
173
0
174
0
175
0
176
0
177
0
178
0
270
2
179
2
271
2
272
2
273
2
274
2
275
0
280
0
281
0
282
0
283
1
284
8
285
0
286
0
287
3
288
0
340
11
278
44
341
21A
342
21A
343
21A
344
21A
  0
DIMSTYLE
105
21F
100
AcDbSymbolTableRecord
100
AcDbDimStyleTableRecord
  2
DIMSTYLE_1
 70
0
  3

  4

 40
1.0
 41
3.0
 42
0.5
 43
0.38
 44
1.5
 45
0.0
 46
0.0
 47
0.0
 48
0.0
140
3.0
141
0.09
142
0.0
143
25.4
144
1.0
145
0.0
146
1.0
147
0.75
 71
0
 72
0
 73
0
 74
0
 75
0
 76
0
 77
1
 78
8
 79
2
170
0
171
1
172
0
173
0
174
0
175
0
176
0
177
0
178
0
270
2
179
2
271
2
272
2
273
2
274
2
275
0
280
0
281
0
282
0
283
1
284
8
285
0
286
0
287
3
288
0
340
11
278
44
341
21A
342
21A
343
21A
344
21A
  0
ENDTAB
  0
ENDSEC
  0
SECTION
  2
BLOCKS
  0
BLOCK
  5
20
100
AcDbEntity
  8
0
100
AcDbBlockBegin
  2
*Model_Space
 70
0
 10
0.0
 20
0.0
 30
0.0
  3
*Model_Space
  1

  0
ENDBLK
  5
21
100
AcDbEntity
  8
0
100
AcDbBlockEnd
  0
BLOCK
  5
1C
100
AcDbEntity
  8
0
100
AcDbBlockBegin
  2
*Paper_Space
 70
0
 10
0.0
 20
0.0
 30
0.0
  3
*Paper_Space
  1

  0
ENDBLK
  5
1D
100
AcDbEntity
  8
0
100
AcDbBlockEnd
  0
BLOCK
  5
220
100
AcDbEntity
  8
0
100
AcDbBlockBegin
  2
_FILLED
 70
64
 10
0.0
 20
0.0
  3
_FILLED
  1

  0
SOLID
  5
221
100
AcDbEntity
  8
0
  6
BYBLOCK
 62
0
100
AcDbTrace
 10
0.0
 20
0.0
 11
-1.0
 21
0.3166666667
 12
-1.0
 22
-0.3166666667
 13
-1.0
 23
-0.3166666667
  0
ENDBLK
  5
222
100
AcDbEntity
  8
0
  6
BYBLOCK
 62
0
100
AcDbBlockEnd
  0
BLOCK
  5
223
100
AcDbEntity
  8
0
100
AcDbBlockBegin
 62
7
  6
CONTINUOUS
  2
*D0
 70
65
 10
0.0
 20
0.0
  3
*D0
  1

  0
MTEXT
  5
224
100
AcDbEntity
  8
0
100
AcDbMText
 62
7
  6
CONTINUOUS
  7
STANDARD
 71
2
 72
1
 10
87.3237189948
 20
114.7183501958
 30
0.0
 11
1.0
 21
0.0
 31
0.0
 73
2
 44
0.9
  1
{\ftxt;\W0.0001;\H0.0001;\~}{\ftxt;\W2.9285714286;\H3.0; }{\ftxt;\W0.0001;\H0.0001;\~}
 40
3.0
 41
13.1785714286
  0
LINE
  5
225
100
AcDbEntity
  8
0
100
AcDbLine
 62
7
  6
CONTINUOUS
 10
76.2237189948
 20
102.6685024873
 11
76.2237189948
 21
112.4683501958
  0
LINE
  5
226
100
AcDbEntity
  8
0
100
AcDbLine
 62
7
  6
CONTINUOUS
 10
98.4237189948
 20
102.6685024873
 11
98.4237189948
 21
112.4683501958
  0
LINE
  5
227
100
AcDbEntity
  8
0
100
AcDbLine
 62
7
  6
CONTINUOUS
 10
76.2237189948
 20
110.9683501958
 11
87.3237189948
 21
110.9683501958
  0
LINE
  5
228
100
AcDbEntity
  8
0
100
AcDbLine
 62
7
  6
CONTINUOUS
 10
98.4237189948
 20
110.9683501958
 11
87.3237189948
 21
110.9683501958
  0
INSERT
  5
229
100
AcDbEntity
  8
0
100
AcDbBlockReference
 62
7
  6
CONTINUOUS
  2
_FILLED
 10
76.2237189948
 20
110.9683501958
 41
3.0
 42
3.0
 43
3.0
 50
180.0
  0
INSERT
  5
22A
100
AcDbEntity
  8
0
100
AcDbBlockReference
 62
7
  6
CONTINUOUS
  2
_FILLED
 10
98.4237189948
 20
110.9683501958
 41
3.0
 42
3.0
 43
3.0
  0
ENDBLK
  5
22B
100
AcDbEntity
  8
0
  6
BYBLOCK
 62
0
100
AcDbBlockEnd
  0
BLOCK
  5
22C
100
AcDbEntity
  8
0
100
AcDbBlockBegin
 62
7
  6
CONTINUOUS
  2
*D1
 70
65
 10
0.0
 20
0.0
  3
*D1
  1

  0
MTEXT
  5
22D
100
AcDbEntity
  8
0
100
AcDbMText
 62
7
  6
CONTINUOUS
  7
STANDARD
 71
2
 72
1
 10
102.6737189948
 20
81.1183501958
 30
0.0
 11
0.0
 21
1.0
 31
0.0
 73
2
 44
0.9
  1
{\ftxt;\W0.0001;\H0.0001;\~}{\ftxt;\W2.8571428571;\H3.0; }{\ftxt;\W0.0001;\H0.0001;\~}
 40
3.0
 41
12.8571428571
  0
LINE
  5
22E
100
AcDbEntity
  8
0
100
AcDbLine
 62
7
  6
CONTINUOUS
 10
98.1236275707
 20
102.9683501958
 11
107.9237189948
 21
102.9683501958
  0
LINE
  5
22F
100
AcDbEntity
  8
0
100
AcDbLine
 62
7
  6
CONTINUOUS
 10
98.1236275707
 20
59.2683501958
 11
107.9237189948
 21
59.2683501958
  0
LINE
  5
230
100
AcDbEntity
  8
0
100
AcDbLine
 62
7
  6
CONTINUOUS
 10
106.4237189948
 20
102.9683501958
 11
106.4237189948
 21
81.1183501958
  0
LINE
  5
231
100
AcDbEntity
  8
0
100
AcDbLine
 62
7
  6
CONTINUOUS
 10
106.4237189948
 20
59.2683501958
 11
106.4237189948
 21
81.1183501958
  0
INSERT
  5
232
100
AcDbEntity
  8
0
100
AcDbBlockReference
 62
7
  6
CONTINUOUS
  2
_FILLED
 10
106.4237189948
 20
102.9683501958
 41
3.0
 42
3.0
 43
3.0
 50
90.0
  0
INSERT
  5
233
100
AcDbEntity
  8
0
100
AcDbBlockReference
 62
7
  6
CONTINUOUS
  2
_FILLED
 10
106.4237189948
 20
59.2683501958
 41
3.0
 42
3.0
 43
3.0
 50
270.0
  0
ENDBLK
  5
234
100
AcDbEntity
  8
0
  6
BYBLOCK
 62
0
100
AcDbBlockEnd
  0
BLOCK
  5
235
100
AcDbEntity
  8
0
100
AcDbBlockBegin
 62
7
  6
CONTINUOUS
  2
*D2
 70
65
 10
0.0
 20
0.0
  3
*D2
  1

  0
MTEXT
  5
236
100
AcDbEntity
  8
0
100
AcDbMText
 62
7
  6
CONTINUOUS
  7
STANDARD
 71
2
 72
1
 10
50.6833795692
 20
114.7183501958
 30
0.0
 11
1.0
 21
0.0
 31
0.0
 73
2
 44
0.9
  1
{\ftxt;\W0.0001;\H0.0001;\~}{\ftxt;\W2.1428571429;\H3.0; }{\ftxt;\W0.0001;\H0.0001;\~}
 40
3.0
 41
9.6428571429
  0
LINE
  5
237
100
AcDbEntity
  8
0
100
AcDbLine
 62
7
  6
CONTINUOUS
 10
54.6333795692
 20
102.6685024873
 11
54.6333795692
 21
112.4683501958
  0
LINE
  5
238
100
AcDbEntity
  8
0
100
AcDbLine
 62
7
  6
CONTINUOUS
 10
46.7333795692
 20
81.6183501958
 11
46.7333795692
 21
112.4683501958
  0
LINE
  5
239
100
AcDbEntity
  8
0
100
AcDbLine
 62
7
  6
CONTINUOUS
 10
54.6333795692
 20
110.9683501958
 11
58.6333795692
 21
110.9683501958
  0
LINE
  5
23A
100
AcDbEntity
  8
0
100
AcDbLine
 62
7
  6
CONTINUOUS
 10
58.6333795692
 20
110.9683501958
 11
50.6833795692
 21
110.9683501958
  0
LINE
  5
23B
100
AcDbEntity
  8
0
100
AcDbLine
 62
7
  6
CONTINUOUS
 10
46.7333795692
 20
110.9683501958
 11
42.7333795692
 21
110.9683501958
  0
LINE
  5
23C
100
AcDbEntity
  8
0
100
AcDbLine
 62
7
  6
CONTINUOUS
 10
42.7333795692
 20
110.9683501958
 11
50.6833795692
 21
110.9683501958
  0
INSERT
  5
23D
100
AcDbEntity
  8
0
100
AcDbBlockReference
 62
7
  6
CONTINUOUS
  2
_FILLED
 10
54.6333795692
 20
110.9683501958
 41
3.0
 42
3.0
 43
3.0
 50
180.0
  0
INSERT
  5
23E
100
AcDbEntity
  8
0
100
AcDbBlockReference
 62
7
  6
CONTINUOUS
  2
_FILLED
 10
46.7333795692
 20
110.9683501958
 41
3.0
 42
3.0
 43
3.0
  0
ENDBLK
  5
23F
100
AcDbEntity
  8
0
  6
BYBLOCK
 62
0
100
AcDbBlockEnd
  0
ENDSEC
  0
SECTION
  2
ENTITIES
  0
DIMENSION
  5
240
100
AcDbEntity
  8
0
100
AcDbDimension
 62
7
  6
CONTINUOUS
  2
*D0
 10
98.4237189948
 20
110.9683501958
 11
86.8951457062
 21
110.9683501958
 70
160
 71
2
 72
2
 41
0.9
 42
22.2
  1
{\ftxt;\W0.0001;\H0.0001;\~}{\ftxt;\W2.9285714286;\H3.0; }{\ftxt;\W0.0001;\H0.0001;\~}
  3
DIMSTYLE_1
100
AcDbAlignedDimension
 13
76.2237189948
 23
102.1685024873
 14
98.4237189948
 24
102.1685024873
100
AcDbRotatedDimension
  0
DIMENSION
  5
241
100
AcDbEntity
  8
0
100
AcDbDimension
 62
7
  6
CONTINUOUS
  2
*D1
 10
106.4237189948
 20
59.2683501958
 11
106.4237189948
 21
80.689780578
 70
160
 71
2
 72
2
 41
0.9
 42
43.7
  1
{\ftxt;\W0.0001;\H0.0001;\~}{\ftxt;\W2.8571428571;\H3.0; }{\ftxt;\W0.0001;\H0.0001;\~}
  3
DIMSTYLE_1
100
AcDbAlignedDimension
 13
97.6236275707
 23
102.9683501958
 14
97.6236275707
 24
59.2683501958
 50
270.0
100
AcDbRotatedDimension
  0
DIMENSION
  5
242
100
AcDbEntity
  8
0
100
AcDbDimension
 62
7
  6
CONTINUOUS
  2
*D2
 10
46.7333795692
 20
110.9683501958
 11
50.2548077774
 21
110.9683501958
 70
160
 71
2
 72
2
 41
0.9
 42
7.9
  1
{\ftxt;\W0.0001;\H0.0001;\~}{\ftxt;\W2.1428571429;\H3.0; }{\ftxt;\W0.0001;\H0.0001;\~}
  3
DIMSTYLE_1
100
AcDbAlignedDimension
 13
54.6333795692
 23
102.1685024873
 14
46.7333795692
 24
81.1183501958
 50
180.0
100
AcDbRotatedDimension
  0
LWPOLYLINE
  5
243
100
AcDbEntity
  8
RACCORDO
100
AcDbPolyline
 62
250
  6
CONTINUOUS
 90
16
 70
0
 10
76.3920485056
 20
101.4660770315
 10
76.3984334503
 20
101.471671603
 10
76.4132239141
 20
101.4772068942
 10
76.4362631907
 20
101.4826242581
 10
76.4673071767
 20
101.4878662973
 10
76.5060269583
 20
101.4928774718
 10
76.5520122958
 20
101.4976046878
 10
76.6047759703
 20
101.5019978601
 10
76.6637589456
 20
101.5060104425
 10
76.7283362917
 20
101.5095999214
 10
76.7978238056
 20
101.5127282659
 10
76.8714852606
 20
101.515362331
 10
76.9485402068
 20
101.5174742087
 10
77.0281722397
 20
101.5190415235
 10
77.1095376507
 20
101.5200476696
 10
77.1917743656
 20
101.5204819867
  0
LINE
  5
244
100
AcDbEntity
  8
RACCORDO
100
AcDbLine
 62
7
  6
CONTINUOUS
 10
77.0238104189
 20
59.2683501958
 11
97.6236275707
 21
59.2683501958
  0
LINE
  5
245
100
AcDbEntity
  8
RACCORDO
100
AcDbLine
 62
250
  6
CONTINUOUS
 10
97.4737913731
 20
59.3182854514
 11
77.1736466164
 21
59.3182854514
  0
LWPOLYLINE
  5
246
100
AcDbEntity
  8
RACCORDO
100
AcDbPolyline
 62
250
  6
CONTINUOUS
 90
16
 70
0
 10
76.3920485056
 20
60.7706233601
 10
76.3984328686
 20
60.7650287348
 10
76.4132228403
 20
60.7594933856
 10
76.4362617179
 20
60.7540759608
 10
76.4673054002
 20
60.748833859
 10
76.5060249731
 20
60.7438226212
 10
76.5520101952
 20
60.7390953426
 10
76.6047738441
 20
60.7347021095
 10
76.6637568786
 20
60.7306894692
 10
76.7283343619
 20
60.7270999364
 10
76.7978220828
 20
60.7239715428
 10
76.8714838053
 20
60.7213374344
 10
76.9485390692
 20
60.7192255199
 10
77.0281714586
 20
60.7176581754
 10
77.1095372529
 20
60.7166520073
 10
77.1917743656
 20
60.7162176761
  0
LINE
  5
247
100
AcDbEntity
  8
RACCORDO
100
AcDbLine
 62
250
  6
CONTINUOUS
 10
97.455663624
 20
60.7162176734
 11
77.1917743656
 21
60.7162176734
  0
LINE
  5
248
100
AcDbEntity
  8
RACCORDO
100
AcDbLine
 62
250
  6
CONTINUOUS
 10
97.6236275707
 20
102.9683501958
 11
97.4737913731
 21
102.9184149402
  0
LINE
  5
249
100
AcDbEntity
  8
RACCORDO
100
AcDbLine
 62
250
  6
CONTINUOUS
 10
98.4237189948
 20
102.1685024873
 11
98.2735172331
 21
102.1184454018
  0
LINE
  5
24A
100
AcDbEntity
  8
RACCORDO
100
AcDbLine
 62
250
  6
CONTINUOUS
 10
97.4737913731
 20
59.3182854514
 11
97.6236275707
 21
59.2683501958
  0
LINE
  5
24B
100
AcDbEntity
  8
RACCORDO
100
AcDbLine
 62
250
  6
CONTINUOUS
 10
98.2735172331
 20
60.1182549899
 11
98.4237189948
 21
60.0681979043
  0
LWPOLYLINE
  5
24C
100
AcDbEntity
  8
0
100
AcDbPolyline
 62
7
  6
CONTINUOUS
 90
3
 70
0
 10
87.5156219813
 20
67.1371144305
 10
87.4210581548
 20
67.1234163101
 10
87.3237189948
 20
67.1183501958
  0
LWPOLYLINE
  5
24D
100
AcDbEntity
  8
0
100
AcDbPolyline
 62
7
  6
CONTINUOUS
 90
8
 70
0
 10
87.3237189948
 20
67.1183501958
 10
87.2789427529
 20
67.1193299664
 10
87.2342971983
 20
67.1223330487
 10
87.1897823309
 20
67.1273594457
 10
87.1452588487
 20
67.1344290973
 10
87.1008660538
 20
67.1435220751
 10
87.0570218522
 20
67.1545785816
 10
87.0137340326
 20
67.1676368684
  0
LWPOLYLINE
  5
24E
100
AcDbEntity
  8
0
100
AcDbPolyline
 62
7
  6
CONTINUOUS
 90
3
 70
0
 10
87.3237189948
 20
67.1183501958
 10
87.2267772586
 20
67.1233500569
 10
87.1338942629
 20
67.1367569059
  0
LWPOLYLINE
  5
24F
100
AcDbEntity
  8
0
100
AcDbPolyline
 62
7
  6
CONTINUOUS
 90
18
 70
0
 10
87.132537964
 20
67.1369526758
 10
87.041001111
 20
67.1591581069
 10
86.9514450425
 20
67.1903227654
 10
86.8645914155
 20
67.2300904526
 10
86.7826052012
 20
67.2773923344
 10
86.7055720391
 20
67.3324303312
 10
86.6334062897
 20
67.395002879
 10
86.5680160053
 20
67.4634358869
 10
86.50957635
 20
67.5379083043
 10
86.4579121597
 20
67.6182415593
 10
86.4144059942
 20
67.702225171
 10
86.3792944519
 20
67.789879695
 10
86.3523409343
 20
67.8811848427
 10
86.3342182064
 20
67.9738687024
 10
86.325118988
 20
68.0680152638
 10
86.3248505591
 20
68.1635406343
 10
86.333507525
 20
68.2579208825
 10
86.3513520593
 20
68.3511736738
  0
LINE
  5
250
100
AcDbEntity
  8
0
100
AcDbLine
 62
7
  6
CONTINUOUS
 10
86.9709948064
 20
67.1826587062
 11
86.9291987139
 21
67.1994695769
  0
LWPOLYLINE
  5
251
100
AcDbEntity
  8
RACCORDO
100
AcDbPolyline
 62
250
  6
CONTINUOUS
 90
16
 70
0
 10
76.3739207565
 20
60.1182549899
 10
76.3783194956
 20
60.0346481159
 10
76.3914293678
 20
59.9519568839
 10
76.4131068115
 20
59.8710870068
 10
76.4431144251
 20
59.7929242515
 10
76.4811235642
 20
59.718324743
 10
76.5267179386
 20
59.6481055862
 10
76.5793981786
 20
59.5830359038
 10
76.6385872969
 20
59.5238284251
 10
76.703637
 20
59.4711316804
 10
76.7738348114
 20
59.4255228768
 10
76.8484118597
 20
59.3875015921
 10
76.9265512844
 20
59.3574843044
 10
77.0073972142
 20
59.335799813
 10
77.0900641447
 20
59.3226856429
 10
77.1736466164
 20
59.3182854514
  0
LWPOLYLINE
  5
252
100
AcDbEntity
  8
RACCORDO
100
AcDbPolyline
 62
250
  6
CONTINUOUS
 90
16
 70
0
 10
76.3739207565
 20
102.1184454018
 10
76.3783195584
 20
102.2020528745
 10
76.3914295981
 20
102.2847445924
 10
76.413107281
 20
102.365614831
 10
76.4431151709
 20
102.4437778165
 10
76.4811245904
 20
102.5183774277
 10
76.5267192216
 20
102.588596573
 10
76.5793996652
 20
102.6536661405
 10
76.638588911
 20
102.7128734214
 10
76.7036386577
 20
102.7655699169
 10
76.7738364136
 20
102.8111784409
 10
76.848413301
 20
102.8491994421
 10
76.9265524773
 20
102.8792164754
 10
77.007398082
 20
102.9009007636
 10
77.0900646113
 20
102.914014798
 10
77.1736466164
 20
102.9184149402
  0
LWPOLYLINE
  5
253
100
AcDbEntity
  8
0
100
AcDbPolyline
 62
7
  6
CONTINUOUS
 90
3
 70
0
 10
87.1317789071
 20
69.099577737
 10
87.2263592872
 20
69.1132807712
 10
87.3237189948
 20
69.1183501958
  0
LWPOLYLINE
  5
254
100
AcDbEntity
  8
0
100
AcDbPolyline
 62
7
  6
CONTINUOUS
 90
8
 70
0
 10
87.3237189948
 20
69.1183501958
 10
87.3685008307
 20
69.117370246
 10
87.4131520763
 20
69.1143663969
 10
87.4576727316
 20
69.109338651
 10
87.5022021095
 20
69.1022671186
 10
87.5466008972
 20
69.0931716992
 10
87.5904511559
 20
69.0821120811
 10
87.6337451154
 20
69.0690500463
  0
LWPOLYLINE
  5
255
100
AcDbEntity
  8
0
100
AcDbPolyline
 62
7
  6
CONTINUOUS
 90
3
 70
0
 10
87.3237189948
 20
69.1183501958
 10
87.4206834713
 20
69.1133466884
 10
87.5135994787
 20
69.0999322834
  0
LWPOLYLINE
  5
256
100
AcDbEntity
  8
0
100
AcDbPolyline
 62
7
  6
CONTINUOUS
 90
18
 70
0
 10
87.5149412527
 20
69.0997385697
 10
87.6064923389
 20
69.0775258867
 10
87.6960582394
 20
69.0463516629
 10
87.7829174447
 20
69.0065730625
 10
87.8649054265
 20
68.9592613719
 10
87.9419359269
 20
68.9042155082
 10
88.0140952038
 20
68.8416368733
 10
88.0794775027
 20
68.7732004566
 10
88.137907465
 20
68.6987291362
 10
88.1895604493
 20
68.6184003909
 10
88.2330567772
 20
68.5344210194
 10
88.2681610046
 20
68.4467695525
 10
88.2951085755
 20
68.3554677376
 10
88.3132261438
 20
68.2627870483
 10
88.3223213683
 20
68.1686443158
 10
88.3225865902
 20
68.0731228402
 10
88.313925487
 20
67.978743609
 10
88.2960752185
 20
67.8854860752
  0
LWPOLYLINE
  5
257
100
AcDbEntity
  8
0
100
AcDbPolyline
 62
7
  6
CONTINUOUS
 90
12
 70
0
 10
86.8884507076
 20
67.2180349792
 10
86.8486458349
 20
67.2383894436
 10
86.8098637794
 20
67.2604620009
 10
86.7722339993
 20
67.2840954873
 10
86.7356270363
 20
67.3094471015
 10
86.6997341994
 20
67.3369174239
 10
86.6644263063
 20
67.3664513522
 10
86.6298325394
 20
67.3981040433
 10
86.5960317546
 20
67.4324414815
 10
86.5628792779
 20
67.4694410708
 10
86.5305197833
 20
67.5091254935
 10
86.4994661486
 20
67.5521286762
  0
LWPOLYLINE
  5
258
100
AcDbEntity
  8
RACCORDO
100
AcDbPolyline
 62
250
  6
CONTINUOUS
 90
10
 70
0
 10
76.3848361795
 20
101.9762458622
 10
76.3837699156
 20
102.0048648577
 10
76.3826475762
 20
102.030667165
 10
76.3814863757
 20
102.0532591552
 10
76.3802852655
 20
102.0725896842
 10
76.3790452941
 20
102.0887098961
 10
76.3777868216
 20
102.1013795935
 10
76.3765166344
 20
102.1105187107
 10
76.3752279461
 20
102.1162073135
 10
76.3739207565
 20
102.1184454018
  0
LINE
  5
259
100
AcDbEntity
  8
RACCORDO
100
AcDbLine
 62
250
  6
CONTINUOUS
 10
76.3867984292
 20
101.9104826165
 11
76.3848361795
 21
101.9762458622
  0
LINE
  5
25A
100
AcDbEntity
  8
RACCORDO
100
AcDbLine
 62
250
  6
CONTINUOUS
 10
76.3884930755
 20
101.8349277062
 11
76.3867984292
 21
101.9104826165
  0
LINE
  5
25B
100
AcDbEntity
  8
RACCORDO
100
AcDbLine
 62
250
  6
CONTINUOUS
 10
77.1835008432
 20
102.6748706056
 11
77.1812198209
 21
102.7783941784
  0
LINE
  5
25C
100
AcDbEntity
  8
RACCORDO
100
AcDbLine
 62
250
  6
CONTINUOUS
 10
76.3898945077
 20
101.7507264333
 11
76.3884930755
 21
101.8349277062
  0
LINE
  5
25D
100
AcDbEntity
  8
RACCORDO
100
AcDbLine
 62
250
  6
CONTINUOUS
 10
77.1865250645
 20
102.4728551464
 11
77.1835008432
 21
102.6748706056
  0
LINE
  5
25E
100
AcDbEntity
  8
RACCORDO
100
AcDbLine
 62
250
  6
CONTINUOUS
 10
76.3913725359
 20
101.6125280154
 11
76.3898945077
 21
101.7507264333
  0
LINE
  5
25F
100
AcDbEntity
  8
RACCORDO
100
AcDbLine
 62
250
  6
CONTINUOUS
 10
77.1896178752
 20
102.130901419
 11
77.1865250645
 21
102.4728551464
  0
LINE
  5
260
100
AcDbEntity
  8
RACCORDO
100
AcDbLine
 62
250
  6
CONTINUOUS
 10
76.3920485056
 20
101.4660770315
 11
76.3913725359
 21
101.6125280154
  0
LINE
  5
261
100
AcDbEntity
  8
RACCORDO
100
AcDbLine
 62
250
  6
CONTINUOUS
 10
77.1916367677
 20
101.6266204844
 11
77.1896178752
 21
102.130901419
  0
LINE
  5
262
100
AcDbEntity
  8
RACCORDO
100
AcDbLine
 62
250
  6
CONTINUOUS
 10
76.4021244953
 20
94.6887563929
 11
76.3920485056
 21
101.4660770315
  0
LINE
  5
263
100
AcDbEntity
  8
RACCORDO
100
AcDbLine
 62
250
  6
CONTINUOUS
 10
77.2018503693
 20
94.7256075686
 11
77.1916367677
 21
101.6266204844
  0
LINE
  5
264
100
AcDbEntity
  8
RACCORDO
100
AcDbLine
 62
250
  6
CONTINUOUS
 10
76.4081709948
 20
87.9057395198
 11
76.4021244953
 21
94.6887563929
  0
LINE
  5
265
100
AcDbEntity
  8
RACCORDO
100
AcDbLine
 62
250
  6
CONTINUOUS
 10
77.2078968658
 20
87.9237298946
 11
77.2018503693
 21
94.7256075686
  0
LINE
  5
266
100
AcDbEntity
  8
RACCORDO
100
AcDbLine
 62
250
  6
CONTINUOUS
 10
76.4101874119
 20
81.1183409431
 11
76.4081709948
 21
87.9057395198
  0
LINE
  5
267
100
AcDbEntity
  8
RACCORDO
100
AcDbLine
 62
250
  6
CONTINUOUS
 10
77.2099132719
 20
81.1183502059
 11
77.2078968658
 21
87.9237298946
  0
LINE
  5
268
100
AcDbEntity
  8
RACCORDO
100
AcDbLine
 62
7
  6
CONTINUOUS
 10
76.2237189948
 20
60.0681979043
 11
76.2237189948
 21
102.1685024873
  0
LINE
  5
269
100
AcDbEntity
  8
RACCORDO
100
AcDbLine
 62
250
  6
CONTINUOUS
 10
76.4081709817
 20
74.3309411045
 11
76.4101874119
 21
81.1183409431
  0
LINE
  5
26A
100
AcDbEntity
  8
RACCORDO
100
AcDbLine
 62
250
  6
CONTINUOUS
 10
77.207896866
 20
74.3129705152
 11
77.2099132719
 21
81.1183502059
  0
LINE
  5
26B
100
AcDbEntity
  8
RACCORDO
100
AcDbLine
 62
250
  6
CONTINUOUS
 10
76.402124481
 20
67.5479297363
 11
76.4081709817
 21
74.3309411045
  0
LINE
  5
26C
100
AcDbEntity
  8
RACCORDO
100
AcDbLine
 62
250
  6
CONTINUOUS
 10
77.2018503695
 20
67.5110928346
 11
77.207896866
 21
74.3129705152
  0
LINE
  5
26D
100
AcDbEntity
  8
RACCORDO
100
AcDbLine
 62
250
  6
CONTINUOUS
 10
76.3916874215
 20
60.6721435897
 11
76.402124481
 21
67.5479297363
  0
LINE
  5
26E
100
AcDbEntity
  8
RACCORDO
100
AcDbLine
 62
250
  6
CONTINUOUS
 10
77.1901943013
 20
60.2014285353
 11
77.2018503695
 21
67.5110928346
  0
LINE
  5
26F
100
AcDbEntity
  8
RACCORDO
100
AcDbLine
 62
250
  6
CONTINUOUS
 10
77.1874073246
 20
59.8423353896
 11
77.1901943013
 21
60.2014285353
  0
LINE
  5
270
100
AcDbEntity
  8
RACCORDO
100
AcDbLine
 62
250
  6
CONTINUOUS
 10
76.390472643
 20
60.530736427
 11
76.3916874215
 21
60.6721435897
  0
LINE
  5
271
100
AcDbEntity
  8
RACCORDO
100
AcDbLine
 62
250
  6
CONTINUOUS
 10
77.1845667099
 20
59.6232685133
 11
77.1874073246
 21
59.8423353896
  0
LINE
  5
272
100
AcDbEntity
  8
RACCORDO
100
AcDbLine
 62
250
  6
CONTINUOUS
 10
76.3892368354
 20
60.443170644
 11
76.390472643
 21
60.530736427
  0
LINE
  5
273
100
AcDbEntity
  8
RACCORDO
100
AcDbLine
 62
250
  6
CONTINUOUS
 10
76.3876846016
 20
60.3629652317
 11
76.3892368354
 21
60.443170644
  0
LINE
  5
274
100
AcDbEntity
  8
0
100
AcDbLine
 62
7
  6
CONTINUOUS
 10
87.676490546
 20
69.0540238321
 11
87.7182928201
 21
69.0372078102
  0
LWPOLYLINE
  5
275
100
AcDbEntity
  8
0
100
AcDbPolyline
 62
7
  6
CONTINUOUS
 90
12
 70
0
 10
87.759047036
 20
69.0186364988
 10
87.7988580953
 20
68.9982754053
 10
87.837646075
 20
68.9761953861
 10
87.8752816092
 20
68.9525535641
 10
87.9118940638
 20
68.9271928475
 10
87.947791613
 20
68.8997127764
 10
87.9831034288
 20
68.8701684824
 10
88.0177003393
 20
68.8385048833
 10
88.0515030027
 20
68.8041562129
 10
88.08465598
 20
68.7671452629
 10
88.1170147101
 20
68.7274493212
 10
88.1480661682
 20
68.684434389
  0
LWPOLYLINE
  5
276
100
AcDbEntity
  8
RACCORDO
100
AcDbPolyline
 62
250
  6
CONTINUOUS
 90
7
 70
0
 10
77.1812198209
 20
102.7783941784
 10
77.1800209975
 20
102.8199446539
 10
77.1787834707
 20
102.8544028116
 10
77.1775254484
 20
102.8815991146
 10
77.1762529999
 20
102.9013953257
 10
77.1749600559
 20
102.9136884773
 10
77.1736466164
 20
102.9184149402
  0
LWPOLYLINE
  5
277
100
AcDbEntity
  8
0
100
AcDbPolyline
 62
7
  6
CONTINUOUS
 90
3
 70
0
 43
0.3500000006
 10
88.3594305725
 20
112.0040626831
 10
88.2880084534
 20
111.7897781982
 10
88.1451460876
 20
111.5040625305
  0
LWPOLYLINE
  5
278
100
AcDbEntity
  8
0
100
AcDbPolyline
 62
7
  6
CONTINUOUS
 90
6
 70
0
 10
86.4695607358
 20
67.5983840728
 10
86.4409611829
 20
67.6479583608
 10
86.414653282
 20
67.7016853387
 10
86.390340964
 20
67.7600189929
 10
86.3683202981
 20
67.8225055491
 10
86.3504652834
 20
67.8886171798
  0
LWPOLYLINE
  5
279
100
AcDbEntity
  8
0
100
AcDbPolyline
 62
7
  6
CONTINUOUS
 90
6
 70
0
 10
88.1779680399
 20
68.6381671495
 10
88.2065626395
 20
68.5885810437
 10
88.2328638846
 20
68.5348422443
 10
88.2571677611
 20
68.4764971688
 10
88.279178283
 20
68.4139996064
 10
88.2970214104
 20
68.3478768034
  0
LWPOLYLINE
  5
27A
100
AcDbEntity
  8
RACCORDO
100
AcDbPolyline
 62
250
  6
CONTINUOUS
 90
9
 70
0
 10
77.1736466164
 20
59.3182854514
 10
77.1749602786
 20
59.3230123917
 10
77.1762533809
 20
59.3353065466
 10
77.1775259233
 20
59.3551038282
 10
77.1787839323
 20
59.3823004262
 10
77.1800213815
 20
59.4167578718
 10
77.1812201918
 20
59.4583079204
 10
77.1823801942
 20
59.5067502117
 10
77.1845667099
 20
59.6232685133
  0
LWPOLYLINE
  5
27B
100
AcDbEntity
  8
0
100
AcDbPolyline
 62
7
  6
CONTINUOUS
 90
2
 70
0
 43
0.3500000006
 10
105.6737202759
 20
77.8326392212
 10
104.1737198181
 20
77.8326392212
  0
LWPOLYLINE
  5
27C
100
AcDbEntity
  8
0
100
AcDbPolyline
 62
7
  6
CONTINUOUS
 90
5
 70
0
 10
86.3367951125
 20
67.9585634934
 10
86.3272905929
 20
68.0321350965
 10
86.3237681469
 20
68.108175614
 10
86.3264076759
 20
68.1870870301
 10
86.3350292786
 20
68.2684675255
  0
LWPOLYLINE
  5
27D
100
AcDbEntity
  8
RACCORDO
100
AcDbPolyline
 62
250
  6
CONTINUOUS
 90
12
 70
0
 10
98.2735172331
 20
102.1184454018
 10
98.2722100435
 20
102.1162073134
 10
98.2709213551
 20
102.1105187107
 10
98.269651168
 20
102.1013795935
 10
98.2683926954
 20
102.0887098961
 10
98.2671527241
 20
102.0725896843
 10
98.2659516139
 20
102.0532591553
 10
98.2647904133
 20
102.0306671651
 10
98.2636680739
 20
102.0048648577
 10
98.2626018101
 20
101.9762458622
 10
98.2615926474
 20
101.9447725834
 10
98.2597566865
 20
101.8738823766
  0
LWPOLYLINE
  5
27E
100
AcDbEntity
  8
0
100
AcDbPolyline
 62
7
  6
CONTINUOUS
 90
6
 70
0
 10
88.3106777968
 20
68.2779178149
 10
88.3201667887
 20
68.2043338075
 10
88.3236723852
 20
68.1282851539
 10
88.3210143515
 20
68.0493721832
 10
88.3123729225
 20
67.9679947515
 10
88.2964728017
 20
67.8865124081
  0
LWPOLYLINE
  5
27F
100
AcDbEntity
  8
RACCORDO
100
AcDbPolyline
 62
250
  6
CONTINUOUS
 90
12
 70
0
 10
76.3739207565
 20
60.1182549899
 10
76.3752289893
 20
60.1204986888
 10
76.3765185242
 20
60.1261944393
 10
76.3777893612
 20
60.1353422413
 10
76.3790482226
 20
60.1480217436
 10
76.380288386
 20
60.1641532974
 10
76.3814896847
 20
60.1834979565
 10
76.3826511883
 20
60.2061093311
 10
76.3837738272
 20
60.2319338109
 10
76.3848402256
 20
60.2605716186
 10
76.3858492815
 20
60.2920592081
 10
76.3876846016
 20
60.3629652317
  0
LWPOLYLINE
  5
280
100
AcDbEntity
  8
0
100
AcDbPolyline
 62
7
  6
CONTINUOUS
 90
13
 70
0
 10
86.3509096736
 20
68.3499549028
 10
86.3781219884
 20
68.4432812325
 10
86.4131253969
 20
68.5316662634
 10
86.4566284768
 20
68.6162180108
 10
86.508365036
 20
68.6970469425
 10
86.5668445831
 20
68.7719074344
 10
86.6321764273
 20
68.8405689738
 10
86.7042512593
 20
68.9032617072
 10
86.7812506599
 20
68.9584309088
 10
86.8632835698
 20
69.0059280108
 10
86.9502410483
 20
69.045901262
 10
87.0399778542
 20
69.0772411408
 10
87.1317789071
 20
69.099577737
  0
LWPOLYLINE
  5
281
100
AcDbEntity
  8
0
100
AcDbPolyline
 62
7
  6
CONTINUOUS
 90
4
 70
0
 43
0.3500000006
 10
103.3165728149
 20
83.0469252319
 10
102.6737193604
 20
83.0469252319
 10
102.6737193604
 20
84.5469256897
 10
105.6737202759
 20
83.6897786865
  0
LWPOLYLINE
  5
282
100
AcDbEntity
  8
RACCORDO
100
AcDbPolyline
 62
250
  6
CONTINUOUS
 90
9
 70
0
 10
97.4737913731
 20
102.9184149402
 10
97.4724779337
 20
102.9136884773
 10
97.4711849897
 20
102.9013953257
 10
97.4699125412
 20
102.8815991146
 10
97.4686545189
 20
102.8544028116
 10
97.4674169921
 20
102.8199446539
 10
97.4662181686
 20
102.7783941784
 10
97.4650583058
 20
102.7299532718
 10
97.4628721268
 20
102.6134401892
  0
LWPOLYLINE
  5
283
100
AcDbEntity
  8
0
100
AcDbPolyline
 62
7
  6
CONTINUOUS
 90
13
 70
0
 10
88.2964728017
 20
67.8865124081
 10
88.2692986248
 20
67.793370711
 10
88.2342879043
 20
67.7049798233
 10
88.1907762845
 20
67.6204249952
 10
88.1390305378
 20
67.5395943669
 10
88.0805431796
 20
67.4647349012
 10
88.0152050394
 20
67.3960773208
 10
87.9431252878
 20
67.3333905156
 10
87.8661239526
 20
67.2782285944
 10
87.7840922934
 20
67.2307401553
 10
87.6971390506
 20
67.1907762439
 10
87.6074104744
 20
67.1594446122
 10
87.5156219813
 20
67.1371144305
  0
LWPOLYLINE
  5
284
100
AcDbEntity
  8
0
100
AcDbPolyline
 62
7
  6
CONTINUOUS
 90
15
 70
0
 10
86.3745425696
 20
68.4318225546
 10
86.405434258
 20
68.5137970901
 10
86.4433803305
 20
68.5926959445
 10
86.4886515681
 20
68.6681628584
 10
86.5409771899
 20
68.7405538748
 10
86.599340445
 20
68.807754718
 10
86.6639812068
 20
68.8696219324
 10
86.7346596018
 20
68.9262986897
 10
86.8096392589
 20
68.9761005714
 10
86.8891803492
 20
69.0187924471
 10
86.9730227016
 20
69.0546091842
 10
87.0586494308
 20
69.0825713385
 10
87.1452215752
 20
69.1023523727
 10
87.2335780966
 20
69.114278671
 10
87.3237189948
 20
69.1183501958
  0
LWPOLYLINE
  5
285
100
AcDbEntity
  8
0
100
AcDbPolyline
 62
7
  6
CONTINUOUS
 90
15
 70
0
 10
88.2728196821
 20
67.8046499375
 10
88.2419078706
 20
67.7226825817
 10
88.203944992
 20
67.643795376
 10
88.1586612125
 20
67.5683461377
 10
88.1063263659
 20
67.4959768378
 10
88.0479575777
 20
67.4287985623
 10
87.9833147467
 20
67.3669537097
 10
87.9126379742
 20
67.3102995786
 10
87.8376646892
 20
67.2605195087
 10
87.7581352969
 20
67.2178487052
 10
87.6743093921
 20
67.1820516679
 10
87.5887031881
 20
67.1541056498
 10
87.5021554228
 20
67.1343363371
 10
87.4138273584
 20
67.122417867
 10
87.3237189948
 20
67.1183501958
  0
LWPOLYLINE
  5
286
100
AcDbEntity
  8
0
100
AcDbPolyline
 62
7
  6
CONTINUOUS
 90
3
 70
0
 43
0.3500000006
 10
105.3880046082
 20
82.0469249268
 10
105.602289093
 20
81.9754937439
 10
105.8880047607
 20
81.8326404419
  0
LWPOLYLINE
  5
287
100
AcDbEntity
  8
0
100
AcDbPolyline
 62
7
  6
CONTINUOUS
 90
10
 70
0
 43
0.3500000006
 10
105.1737201233
 20
81.9754937439
 10
105.3165734253
 20
82.0469249268
 10
105.3880046082
 20
82.0469249268
 10
105.5308579102
 20
81.904062561
 10
105.5308579102
 20
81.8326404419
 10
105.459435791
 20
81.761209259
 10
105.3880046082
 20
81.761209259
 10
105.2451513062
 20
81.8326404419
 10
105.1737201233
 20
81.904062561
 10
105.1737201233
 20
81.9754937439
  0
LWPOLYLINE
  5
288
100
AcDbEntity
  8
RACCORDO
100
AcDbPolyline
 62
250
  6
CONTINUOUS
 90
7
 70
0
 10
97.4662177978
 20
59.4583079204
 10
97.4674166081
 20
59.4167578718
 10
97.4686540572
 20
59.3823004262
 10
97.4699120661
 20
59.3551038282
 10
97.4711846086
 20
59.3353065466
 10
97.4724777109
 20
59.3230123917
 10
97.4737913731
 20
59.3182854514
  0
LINE
  5
289
100
AcDbEntity
  8
RACCORDO
100
AcDbLine
 62
250
  6
CONTINUOUS
 10
97.4639364318
 20
59.561835582
 11
97.4662177978
 21
59.4583079204
  0
LINE
  5
28A
100
AcDbEntity
  8
RACCORDO
100
AcDbLine
 62
250
  6
CONTINUOUS
 10
97.4609121295
 20
59.7638557048
 11
97.4639364318
 21
59.561835582
  0
LWPOLYLINE
  5
28B
100
AcDbEntity
  8
RACCORDO
100
AcDbPolyline
 62
250
  6
CONTINUOUS
 90
3
 70
0
 10
97.4572436883
 20
60.2014285353
 10
97.4578200926
 20
60.1058021797
 10
97.4609121295
 20
59.7638557048
  0
LINE
  5
28C
100
AcDbEntity
  8
RACCORDO
100
AcDbLine
 62
250
  6
CONTINUOUS
 10
97.4600313445
 20
102.3943752954
 11
97.4572436842
 21
102.0352769628
  0
LINE
  5
28D
100
AcDbEntity
  8
RACCORDO
100
AcDbLine
 62
250
  6
CONTINUOUS
 10
97.4628721268
 20
102.6134401892
 11
97.4600313445
 21
102.3943752954
  0
LWPOLYLINE
  5
28E
100
AcDbEntity
  8
RACCORDO
100
AcDbPolyline
 62
250
  6
CONTINUOUS
 90
10
 70
0
 10
98.2625977639
 20
60.2605716186
 10
98.2636641623
 20
60.2319338109
 10
98.2647868012
 20
60.2061093311
 10
98.2659483049
 20
60.1834979565
 10
98.2671496036
 20
60.1641532975
 10
98.268389767
 20
60.1480217436
 10
98.2696486283
 20
60.1353422414
 10
98.2709194653
 20
60.1261944393
 10
98.2722090003
 20
60.1204986888
 10
98.2735172331
 20
60.1182549899
  0
LINE
  5
28F
100
AcDbEntity
  8
RACCORDO
100
AcDbLine
 62
250
  6
CONTINUOUS
 10
98.2606358928
 20
60.3263601254
 11
98.2625977639
 21
60.2605716186
  0
LINE
  5
290
100
AcDbEntity
  8
RACCORDO
100
AcDbLine
 62
250
  6
CONTINUOUS
 10
98.2589421158
 20
60.4019158433
 11
98.2606358928
 21
60.3263601254
  0
LINE
  5
291
100
AcDbEntity
  8
RACCORDO
100
AcDbLine
 62
250
  6
CONTINUOUS
 10
98.2575418058
 20
60.4860965454
 11
98.2589421158
 21
60.4019158433
  0
LINE
  5
292
100
AcDbEntity
  8
RACCORDO
100
AcDbLine
 62
250
  6
CONTINUOUS
 10
98.2560647438
 20
60.6242677666
 11
98.2575418058
 21
60.4860965454
  0
LINE
  5
293
100
AcDbEntity
  8
RACCORDO
100
AcDbLine
 62
250
  6
CONTINUOUS
 10
98.2553894839
 20
60.7706233601
 11
98.2560647438
 21
60.6242677666
  0
LINE
  5
294
100
AcDbEntity
  8
RACCORDO
100
AcDbLine
 62
250
  6
CONTINUOUS
 10
97.44558762
 20
67.5110928346
 11
97.4572436883
 21
60.2014285353
  0
LINE
  5
295
100
AcDbEntity
  8
RACCORDO
100
AcDbLine
 62
250
  6
CONTINUOUS
 10
98.2453135085
 20
67.5479297363
 11
98.2553894839
 21
60.7706233601
  0
LINE
  5
296
100
AcDbEntity
  8
RACCORDO
100
AcDbLine
 62
250
  6
CONTINUOUS
 10
97.4395411235
 20
74.3129705152
 11
97.44558762
 21
67.5110928346
  0
LINE
  5
297
100
AcDbEntity
  8
RACCORDO
100
AcDbLine
 62
250
  6
CONTINUOUS
 10
98.2392670079
 20
74.3309411045
 11
98.2453135085
 21
67.5479297363
  0
LINE
  5
298
100
AcDbEntity
  8
RACCORDO
100
AcDbLine
 62
250
  6
CONTINUOUS
 10
97.4375247176
 20
81.1183502059
 11
97.4395411235
 21
74.3129705152
  0
LINE
  5
299
100
AcDbEntity
  8
RACCORDO
100
AcDbLine
 62
250
  6
CONTINUOUS
 10
98.2372505776
 20
81.1183409431
 11
98.2392670079
 21
74.3309411045
  0
LINE
  5
29A
100
AcDbEntity
  8
RACCORDO
100
AcDbLine
 62
7
  6
CONTINUOUS
 10
98.4237189948
 20
60.0681979043
 11
98.4237189948
 21
102.1685024873
  0
LINE
  5
29B
100
AcDbEntity
  8
RACCORDO
100
AcDbLine
 62
250
  6
CONTINUOUS
 10
97.4395411238
 20
87.9237298946
 11
97.4375247176
 21
81.1183502059
  0
LINE
  5
29C
100
AcDbEntity
  8
RACCORDO
100
AcDbLine
 62
250
  6
CONTINUOUS
 10
98.2392669948
 20
87.9057395198
 11
98.2372505776
 21
81.1183409431
  0
LINE
  5
29D
100
AcDbEntity
  8
RACCORDO
100
AcDbLine
 62
250
  6
CONTINUOUS
 10
97.4455876203
 20
94.7256075686
 11
97.4395411238
 21
87.9237298946
  0
LINE
  5
29E
100
AcDbEntity
  8
RACCORDO
100
AcDbLine
 62
250
  6
CONTINUOUS
 10
98.2453134942
 20
94.6887563929
 11
98.2392669948
 21
87.9057395198
  0
LINE
  5
29F
100
AcDbEntity
  8
RACCORDO
100
AcDbLine
 62
250
  6
CONTINUOUS
 10
98.2557510128
 20
101.5646279725
 11
98.2453134942
 21
94.6887563929
  0
LINE
  5
2A0
100
AcDbEntity
  8
RACCORDO
100
AcDbLine
 62
250
  6
CONTINUOUS
 10
97.4572436842
 20
102.0352769628
 11
97.4455876203
 21
94.7256075686
  0
LINE
  5
2A1
100
AcDbEntity
  8
RACCORDO
100
AcDbLine
 62
250
  6
CONTINUOUS
 10
98.2569666424
 20
101.7060802019
 11
98.2557510128
 21
101.5646279725
  0
LINE
  5
2A2
100
AcDbEntity
  8
RACCORDO
100
AcDbLine
 62
250
  6
CONTINUOUS
 10
98.2582033548
 20
101.7936627628
 11
98.2569666424
 21
101.7060802019
  0
LINE
  5
2A3
100
AcDbEntity
  8
RACCORDO
100
AcDbLine
 62
250
  6
CONTINUOUS
 10
98.2597566865
 20
101.8738823766
 11
98.2582033548
 21
101.7936627628
  0
LWPOLYLINE
  5
2A4
100
AcDbEntity
  8
RACCORDO
100
AcDbPolyline
 62
250
  6
CONTINUOUS
 90
16
 70
0
 10
98.2735172331
 20
102.1184454018
 10
98.2691185279
 20
102.2020519545
 10
98.256008746
 20
102.2847429248
 10
98.2343314314
 20
102.3656126061
 10
98.2043239678
 20
102.443775235
 10
98.1663149821
 20
102.518374685
 10
98.120720749
 20
102.5885938453
 10
98.0680406221
 20
102.6536635874
 10
98.0088515764
 20
102.7128711712
 10
97.9438018999
 20
102.76556805
 10
97.873604061
 20
102.8111770052
 10
97.7990269272
 20
102.8491984446
 10
97.7208873675
 20
102.879215872
 10
97.6400412586
 20
102.900900476
 10
97.5573741053
 20
102.9140147213
 10
97.4737913732
 20
102.9184149403
  0
LWPOLYLINE
  5
2A5
100
AcDbEntity
  8
RACCORDO
100
AcDbPolyline
 62
250
  6
CONTINUOUS
 90
16
 70
0
 10
98.2735172331
 20
60.1182549899
 10
98.2691184311
 20
60.0346475171
 10
98.2560083914
 20
59.9519557992
 10
98.2343307085
 20
59.8710855606
 10
98.2043228187
 20
59.7929225751
 10
98.1663133991
 20
59.718322964
 10
98.1207187679
 20
59.6481038186
 10
98.0680383243
 20
59.5830342511
 10
98.0088490785
 20
59.5238269702
 10
97.9437993319
 20
59.4711304747
 10
97.8736015759
 20
59.4255219507
 10
97.7990246885
 20
59.3875009495
 10
97.7208855123
 20
59.3574839162
 10
97.6400399075
 20
59.3357996281
 10
97.5573733782
 20
59.3226855937
 10
97.4737913731
 20
59.3182854514
  0
LWPOLYLINE
  5
2A6
100
AcDbEntity
  8
0
100
AcDbPolyline
 62
7
  6
CONTINUOUS
 90
5
 70
0
 43
0.3500000006
 10
103.9594353333
 20
80.0469243164
 10
103.7451508484
 20
80.4040621033
 10
103.1022883301
 20
80.4040621033
 10
102.6737193604
 20
80.0469243164
 10
102.6737193604
 20
79.1897773132
  0
LWPOLYLINE
  5
2A7
100
AcDbEntity
  8
0
100
AcDbPolyline
 62
7
  6
CONTINUOUS
 90
10
 70
0
 43
0.3500000006
 10
88.2880084534
 20
112.218347168
 10
88.3594305725
 20
112.075493866
 10
88.3594305725
 20
112.0040626831
 10
88.2165772705
 20
111.8612093811
 10
88.1451460876
 20
111.8612093811
 10
88.0737149048
 20
111.9326315002
 10
88.0737149048
 20
112.0040626831
 10
88.1451460876
 20
112.1469250488
 10
88.2165772705
 20
112.218347168
 10
88.2880084534
 20
112.218347168
  0
LINE
  5
2A8
100
AcDbEntity
  8
RACCORDO
100
AcDbLine
 62
250
  6
CONTINUOUS
 10
76.2237189948
 20
60.0681979043
 11
76.3739207565
 21
60.1182549899
  0
LINE
  5
2A9
100
AcDbEntity
  8
RACCORDO
100
AcDbLine
 62
250
  6
CONTINUOUS
 10
76.3739207565
 20
102.1184454018
 11
76.2237189948
 21
102.1685024873
  0
LWPOLYLINE
  5
2AA
100
AcDbEntity
  8
0
100
AcDbPolyline
 62
7
  6
CONTINUOUS
 90
3
 70
0
 43
0.3500000006
 10
105.0308577576
 20
78.3326393738
 10
105.0308577576
 20
76.832638916
 10
102.6737193604
 20
77.4754923706
  0
LINE
  5
2AB
100
AcDbEntity
  8
RACCORDO
100
AcDbLine
 62
250
  6
CONTINUOUS
 10
77.0238104189
 20
59.2683501958
 11
77.1736466164
 21
59.3182854514
  0
LINE
  5
2AC
100
AcDbEntity
  8
RACCORDO
100
AcDbLine
 62
250
  6
CONTINUOUS
 10
77.1736466164
 20
102.9184149402
 11
77.0238104189
 21
102.9683501958
  0
LWPOLYLINE
  5
2AD
100
AcDbEntity
  8
0
100
AcDbPolyline
 62
7
  6
CONTINUOUS
 90
6
 70
0
 43
0.3500000006
 10
105.6737202759
 20
79.1897773132
 10
105.6737202759
 20
80.2612088013
 10
105.459435791
 20
80.4754932861
 10
104.388004303
 20
80.4754932861
 10
103.9594353333
 20
80.0469243164
 10
103.9594353333
 20
79.618346283
  0
LINE
  5
2AE
100
AcDbEntity
  8
RACCORDO
100
AcDbLine
 62
250
  6
CONTINUOUS
 10
97.455663624
 20
101.5204827182
 11
77.1917743656
 21
101.5204827182
  0
LWPOLYLINE
  5
2AF
100
AcDbEntity
  8
RACCORDO
100
AcDbPolyline
 62
250
  6
CONTINUOUS
 90
16
 70
0
 10
98.2553894839
 20
60.7706233601
 10
98.2490042706
 20
60.7650288265
 10
98.2342135796
 20
60.7594935743
 10
98.2111741188
 20
60.7540762496
 10
98.1801299925
 20
60.7488342494
 10
98.1414101145
 20
60.7438231128
 10
98.0954247238
 20
60.7390959331
 10
98.0426610376
 20
60.7347027949
 10
97.9836780896
 20
60.7306902437
 10
97.9191008068
 20
60.7271007927
 10
97.8496133885
 20
60.7239724723
 10
97.775952057
 20
60.7213384272
 10
97.6988972575
 20
60.7192265649
 10
97.6192653892
 20
60.7176592608
 10
97.5379001552
 20
60.7166531205
 10
97.455663624
 20
60.716218804
  0
LINE
  5
2B0
100
AcDbEntity
  8
RACCORDO
100
AcDbLine
 62
250
  6
CONTINUOUS
 10
97.4737913731
 20
102.9184149402
 11
77.1736466164
 21
102.9184149402
  0
LINE
  5
2B1
100
AcDbEntity
  8
RACCORDO
100
AcDbLine
 62
7
  6
CONTINUOUS
 10
77.0238104189
 20
102.9683501958
 11
97.6236275707
 21
102.9683501958
  0
LWPOLYLINE
  5
2B2
100
AcDbEntity
  8
0
100
AcDbPolyline
 62
7
  6
CONTINUOUS
 90
7
 70
0
 43
0.3500000006
 10
90.8594313354
 20
111.7183470154
 10
89.3594308777
 20
111.7183470154
 10
90.8594313354
 20
113.8612099915
 10
90.8594313354
 20
114.2897789612
 10
90.4308623657
 20
114.7183479309
 10
89.7880089111
 20
114.7183479309
 10
89.3594308777
 20
114.0754944763
  0
LWPOLYLINE
  5
2B3
100
AcDbEntity
  8
0
100
AcDbPolyline
 62
7
  6
CONTINUOUS
 90
7
 70
0
 43
0.3500000006
 10
86.7880079956
 20
111.7183470154
 10
85.2880075378
 20
111.7183470154
 10
86.7880079956
 20
113.8612099915
 10
86.7880079956
 20
114.2897789612
 10
86.3594299622
 20
114.7183479309
 10
85.7165765076
 20
114.7183479309
 10
85.2880075378
 20
114.0754944763
  0
LWPOLYLINE
  5
2B4
100
AcDbEntity
  8
0
100
AcDbPolyline
 62
7
  6
CONTINUOUS
 90
7
 70
0
 43
0.3500000006
 10
84.4308605347
 20
111.7183470154
 10
82.9308600769
 20
111.7183470154
 10
84.4308605347
 20
113.8612099915
 10
84.4308605347
 20
114.2897789612
 10
84.0022915649
 20
114.7183479309
 10
83.3594290466
 20
114.7183479309
 10
82.9308600769
 20
114.0754944763
  0
LWPOLYLINE
  5
2B5
100
AcDbEntity
  8
RACCORDO
100
AcDbPolyline
 62
250
  6
CONTINUOUS
 90
16
 70
0
 10
98.2553894839
 20
101.4660770315
 10
98.2490051221
 20
101.4716716569
 10
98.2342151514
 20
101.4772070061
 10
98.2111762746
 20
101.4826244311
 10
98.1801325929
 20
101.487866533
 10
98.1414130204
 20
101.4928777708
 10
98.0954277985
 20
101.4976050496
 10
98.0426641497
 20
101.5019982827
 10
97.9836811151
 20
101.5060109231
 10
97.9191036315
 20
101.5096004561
 10
97.8496159102
 20
101.5127288498
 10
97.7759541871
 20
101.5153629583
 10
97.6988989226
 20
101.5174748728
 10
97.6192665325
 20
101.5190422173
 10
97.5379007374
 20
101.5200483853
 10
97.455663624
 20
101.5204827164
  0
LWPOLYLINE
  5
2B6
100
AcDbEntity
  8
0
100
AcDbPolyline
 62
7
  6
CONTINUOUS
 90
10
 70
0
 43
0.3500000006
 10
51.969094986
 20
111.7183470154
 10
52.8262374573
 20
112.5754940186
 10
53.0405219421
 20
113.432631958
 10
53.0405219421
 20
114.2897789612
 10
52.6119529724
 20
114.7183479309
 10
51.969094986
 20
114.7183479309
 10
51.5405214844
 20
114.2897789612
 10
51.5405214844
 20
113.432631958
 10
51.969094986
 20
113.0040629883
 10
52.8976641083
 20
113.0040629883
  0
LINE
  5
2B7
100
AcDbEntity
  8
RACCORDO
100
AcDbLine
 62
7
  6
CONTINUOUS
 10
48.9113660372
 20
59.3182854514
 11
54.6333795692
 21
59.2683501958
  0
LINE
  5
2B8
100
AcDbEntity
  8
RACCORDO
100
AcDbLine
 62
250
  6
CONTINUOUS
 10
48.8974057069
 20
60.1182549899
 11
54.6333795692
 21
60.0681979043
  0
LWPOLYLINE
  5
2B9
100
AcDbEntity
  8
RACCORDO
100
AcDbPolyline
 62
250
  6
CONTINUOUS
 90
3
 70
0
 10
47.4447930646
 20
60.7176592608
 10
47.4321632762
 20
60.7166531205
 10
47.427945132
 20
60.716218804
  0
LINE
  5
2BA
100
AcDbEntity
  8
RACCORDO
100
AcDbLine
 62
250
  6
CONTINUOUS
 10
47.5754518213
 20
60.7271007927
 11
47.4447930646
 21
60.7176592608
  0
LINE
  5
2BB
100
AcDbEntity
  8
RACCORDO
100
AcDbLine
 62
250
  6
CONTINUOUS
 10
48.2051348962
 20
60.7706233601
 11
47.5754518213
 21
60.7271007927
  0
LWPOLYLINE
  5
2BC
100
AcDbEntity
  8
0
100
AcDbPolyline
 62
7
  6
CONTINUOUS
 90
3
 70
0
 43
0.3500000006
 10
50.5405211792
 20
112.0040626831
 10
50.4690945282
 20
111.7897781982
 10
50.3262366943
 20
111.5040625305
  0
LWPOLYLINE
  5
2BD
100
AcDbEntity
  8
RACCORDO
100
AcDbPolyline
 62
250
  6
CONTINUOUS
 90
22
 70
0
 10
48.2051348962
 20
60.7706233601
 10
48.2103284312
 20
60.7209287876
 10
48.2189241428
 20
60.6721435897
 10
48.2309220308
 20
60.6242677666
 10
48.2464172582
 20
60.5770474095
 10
48.2653146621
 20
60.530736427
 10
48.2873287537
 20
60.4860965454
 10
48.3125082502
 20
60.443170644
 10
48.3408044345
 20
60.4019158433
 10
48.371785666
 20
60.3629652317
 10
48.4054871672
 20
60.3263601254
 10
48.4418737156
 20
60.2920592081
 10
48.4804080038
 20
60.2605716186
 10
48.5211321144
 20
60.2319338109
 10
48.5640039648
 20
60.2061093311
 10
48.6083599993
 20
60.1834979565
 10
48.6542357457
 20
60.1641532975
 10
48.7015956762
 20
60.1480217436
 10
48.7496696516
 20
60.1353422414
 10
48.7982009586
 20
60.1261944393
 10
48.8474463104
 20
60.1204986888
 10
48.8974057069
 20
60.1182549899
  0
LWPOLYLINE
  5
2BE
100
AcDbEntity
  8
0
100
AcDbPolyline
 62
7
  6
CONTINUOUS
 90
4
 70
0
 43
0.3500000006
 10
47.4690936127
 20
114.0754944763
 10
47.4690936127
 20
114.7183479309
 10
48.9690940704
 20
114.7183479309
 10
48.1119515991
 20
111.7183470154
  0
LWPOLYLINE
  5
2BF
100
AcDbEntity
  8
RACCORDO
100
AcDbPolyline
 62
250
  6
CONTINUOUS
 90
13
 70
0
 10
48.2051348962
 20
101.4660770315
 10
47.9935056891
 20
98.0780739694
 10
47.8203483725
 20
94.6887563929
 10
47.6856629464
 20
91.298124302
 10
47.5894418747
 20
87.9057395198
 10
47.5316926934
 20
84.5120402233
 10
47.5124380106
 20
81.1183409431
 10
47.5316929437
 20
77.7246410156
 10
47.5894423754
 20
74.3309411045
 10
47.6856635609
 20
70.9385577312
 10
47.8203489188
 20
67.5479297363
 10
47.9935060305
 20
64.1586182793
 10
48.2051348962
 20
60.7706233601
  0
LWPOLYLINE
  5
2C0
100
AcDbEntity
  8
RACCORDO
100
AcDbPolyline
 62
250
  6
CONTINUOUS
 90
9
 70
0
 10
48.8981155613
 20
59.5830342511
 10
48.8991487923
 20
59.5238269702
 10
48.9003923046
 20
59.4711304747
 10
48.9018324781
 20
59.4255219507
 10
48.9034535385
 20
59.3875009495
 10
48.9052377302
 20
59.3574839162
 10
48.9071655107
 20
59.3357996281
 10
48.9092157653
 20
59.3226855937
 10
48.9113660372
 20
59.3182854514
  0
LINE
  5
2C1
100
AcDbEntity
  8
RACCORDO
100
AcDbLine
 62
250
  6
CONTINUOUS
 10
48.8967227844
 20
59.718322964
 11
48.8981155613
 21
59.5830342511
  0
LINE
  5
2C2
100
AcDbEntity
  8
RACCORDO
100
AcDbLine
 62
250
  6
CONTINUOUS
 10
48.8974057069
 20
102.1184454018
 11
48.8964129208
 21
102.2847429248
  0
LINE
  5
2C3
100
AcDbEntity
  8
RACCORDO
100
AcDbLine
 62
250
  6
CONTINUOUS
 10
48.8962748273
 20
59.8710855606
 11
48.8967227844
 21
59.718322964
  0
LINE
  5
2C4
100
AcDbEntity
  8
RACCORDO
100
AcDbLine
 62
250
  6
CONTINUOUS
 10
48.8964129208
 20
102.2847429248
 11
48.8963784767
 21
102.443775235
  0
LWPOLYLINE
  5
2C5
100
AcDbEntity
  8
RACCORDO
100
AcDbPolyline
 62
250
  6
CONTINUOUS
 90
3
 70
0
 10
48.8974057069
 20
60.1182549899
 10
48.8967912623
 20
60.0346475171
 10
48.8962748273
 20
59.8710855606
  0
LWPOLYLINE
  5
2C6
100
AcDbEntity
  8
RACCORDO
100
AcDbPolyline
 62
250
  6
CONTINUOUS
 90
11
 70
0
 10
48.8963784767
 20
102.443775235
 10
48.8973038893
 20
102.5885938453
 10
48.8981155118
 20
102.6536635874
 10
48.8991487351
 20
102.7128711712
 10
48.900392243
 20
102.76556805
 10
48.9018324161
 20
102.8111770052
 10
48.9034534808
 20
102.8491984446
 10
48.9052376812
 20
102.879215872
 10
48.9071654746
 20
102.900900476
 10
48.9092157464
 20
102.9140147213
 10
48.9113660399
 20
102.9184149403
  0
LINE
  5
2C7
100
AcDbEntity
  8
RACCORDO
100
AcDbLine
 62
7
  6
CONTINUOUS
 10
54.6333795692
 20
59.2683501958
 11
54.6333795692
 21
102.9683501958
  0
LWPOLYLINE
  5
2C8
100
AcDbEntity
  8
0
100
AcDbPolyline
 62
7
  6
CONTINUOUS
 90
10
 70
0
 43
0.3500000006
 10
50.4690945282
 20
112.218347168
 10
50.5405211792
 20
112.075493866
 10
50.5405211792
 20
112.0040626831
 10
50.3976633453
 20
111.8612093811
 10
50.3262366943
 20
111.8612093811
 10
50.2548100433
 20
111.9326315002
 10
50.2548100433
 20
112.0040626831
 10
50.3262366943
 20
112.1469250488
 10
50.3976633453
 20
112.218347168
 10
50.4690945282
 20
112.218347168
  0
LWPOLYLINE
  5
2C9
100
AcDbEntity
  8
RACCORDO
100
AcDbPolyline
 62
250
  6
CONTINUOUS
 90
22
 70
0
 10
48.8974057069
 20
102.1184454018
 10
48.8474861499
 20
102.1162073134
 10
48.7982731263
 20
102.1105187107
 10
48.7497666361
 20
102.1013795935
 10
48.7017075082
 20
102.0887098961
 10
48.6543549138
 20
102.0725896843
 10
48.6084863663
 20
102.0532591553
 10
48.5641419058
 20
102.0306671651
 10
48.5212814923
 20
102.0048648577
 10
48.4805625189
 20
101.9762458622
 10
48.4420241519
 20
101.9447725834
 10
48.4056272251
 20
101.9104826165
 10
48.3719116328
 20
101.8738823766
 10
48.3409112934
 20
101.8349277062
 10
48.3125922884
 20
101.7936627628
 10
48.2873927566
 20
101.7507264332
 10
48.2653641472
 20
101.7060802019
 10
48.246455011
 20
101.6597625845
 10
48.2309491387
 20
101.6125280154
 10
48.2189411272
 20
101.5646279725
 10
48.2103363797
 20
101.5158109779
 10
48.2051348962
 20
101.4660770315
  0
LINE
  5
2CA
100
AcDbEntity
  8
RACCORDO
100
AcDbLine
 62
250
  6
CONTINUOUS
 10
54.6333795692
 20
102.1685024873
 11
48.8974057069
 21
102.1184454018
  0
LINE
  5
2CB
100
AcDbEntity
  8
RACCORDO
100
AcDbLine
 62
7
  6
CONTINUOUS
 10
54.6333795692
 20
102.9683501958
 11
48.9113660372
 21
102.9184149402
  0
LINE
  5
2CC
100
AcDbEntity
  8
RACCORDO
100
AcDbLine
 62
250
  6
CONTINUOUS
 10
48.2051348962
 20
101.4660770315
 11
47.4946498951
 21
101.5153629583
  0
LWPOLYLINE
  5
2CD
100
AcDbEntity
  8
RACCORDO
100
AcDbPolyline
 62
250
  6
CONTINUOUS
 90
4
 70
0
 10
47.4946498951
 20
101.5153629583
 10
47.4447770666
 20
101.5190422173
 10
47.4321469202
 20
101.5200483853
 10
47.4279286133
 20
101.5204827164
  0
ARC
  5
2CE
100
AcDbEntity
  8
0
100
AcDbCircle
 62
7
  6
CONTINUOUS
 10
346.7333795692
 20
81.1183501958
 40
300.0
100
AcDbArc
 50
182.292442776
 51
182.6747744877
  0
ARC
  5
2CF
100
AcDbEntity
  8
RACCORDO
100
AcDbCircle
 62
7
  6
CONTINUOUS
 10
346.7333795692
 20
81.1183501958
 40
300.0
100
AcDbArc
 50
176.1004698968
 51
183.8995301032
  0
ARC
  5
2D0
100
AcDbEntity
  8
RACCORDO
100
AcDbCircle
 62
7
  6
CONTINUOUS
 10
48.9244558404
 20
101.4184720556
 40
1.5
100
AcDbArc
 50
90.5
 51
176.1004698968
  0
ARC
  5
2D1
100
AcDbEntity
  8
RACCORDO
100
AcDbCircle
 62
7
  6
CONTINUOUS
 10
48.9244558404
 20
60.818228336
 40
1.5
100
AcDbArc
 50
183.8995301032
 51
269.5
  0
ELLIPSE
  5
2D2
100
AcDbEntity
  8
RACCORDO
100
AcDbEllipse
 62
7
  6
CONTINUOUS
 10
77.0239932288
 20
60.0683806585
 30
0.0
 11
0.7592511077
 21
0.2530323029
 31
0.0
 40
0.9996192872
 41
2.8200172282
 42
4.3905851209
  0
ELLIPSE
  5
2D3
100
AcDbEntity
  8
RACCORDO
100
AcDbEllipse
 62
7
  6
CONTINUOUS
 10
77.0239932288
 20
102.1683197331
 30
0.0
 11
0.7592511077
 21
-0.2530323029
 31
0.0
 40
0.9996192872
 41
1.8926001863
 42
3.463168079
  0
ELLIPSE
  5
2D4
100
AcDbEntity
  8
RACCORDO
100
AcDbEllipse
 62
7
  6
CONTINUOUS
 10
97.6234447608
 20
102.1683197331
 30
0.0
 11
0.7592511077
 21
0.2530323029
 31
0.0
 40
0.9996192872
 41
-0.3215754254
 42
1.2489924673
  0
ELLIPSE
  5
2D5
100
AcDbEntity
  8
RACCORDO
100
AcDbEllipse
 62
7
  6
CONTINUOUS
 10
97.6234447608
 20
60.0683806585
 30
0.0
 11
0.7592511077
 21
-0.2530323029
 31
0.0
 40
0.9996192872
 41
-1.2489924673
 42
0.3215754254
  0
ENDSEC
  0
SECTION
  2
OBJECTS
  0
DICTIONARY
  5
C
100
AcDbDictionary
280
0
281
1
  3
ACAD_GROUP
350
D
  3
ACAD_MLINESTYLE
350
17
  3
ACAD_LAYOUT
350
1A
  3
ACAD_PLOTSETTINGS
350
19
  3
ACAD_PLOTSTYLENAME
350
E
  0
DICTIONARY
  5
D
102
{ACAD_REACTORS
330
C
102
}
100
AcDbDictionary
280
0
281
1
  0
ACDBDICTIONARYWDFLT
  5
E
102
{ACAD_REACTORS
330
C
102
}
100
AcDbDictionary
281
1
  3
Normal
350
F
100
AcDbDictionaryWithDefault
340
F
  0
DICTIONARY
  5
17
102
{ACAD_REACTORS
330
C
102
}
100
AcDbDictionary
280
0
281
1
  3
Standard
350
18
  0
DICTIONARY
  5
19
102
{ACAD_REACTORS
330
C
102
}
100
AcDbDictionary
281
1
  0
DICTIONARY
  5
1A
102
{ACAD_REACTORS
330
C
102
}
100
AcDbDictionary
281
1
  3
Model
350
2D6
  3
Layout1
350
2D7
  0
ACDBPLACEHOLDER
  5
F
102
{ACAD_REACTORS
330
E
102
}
  0
MLINESTYLE
  5
18
102
{ACAD_REACTORS
330
17
102
}
100
AcDbMlineStyle
  2
STANDARD
 70
0
  3

 62
256
 51
90.0
 52
90.0
 71
2
 49
0.5
 62
256
  6
BYLAYER
 49
-0.5
 62
256
  6
BYLAYER
  0
LAYOUT
  5
2D6
102
{ACAD_REACTORS
330
1A
102
}
100
AcDbPlotSettings
  1

  2
none_device
  4
ISO_A4_(297.00_x_210.00_MM)
  6

 40
0.0
 41
0.0
 42
0.0
 43
0.0
 44
297.0
 45
210.0
 46
0.0
 47
0.0
 48
0.0
 49
0.0
140
0.0
141
0.0
142
1.0
143
1.0
 70
1024
 72
1
 73
0
 74
0
  7

 75
0
147
1.0
148
0.0
149
0.0
100
AcDbLayout
  1
Model
 70
0
 71
0
 10
0.0
 20
0.0
 11
297.0
 21
210.0
 12
0.0
 22
0.0
 32
0.0
 14
0.0
 24
0.0
 34
0.0
 15
0.0
 25
0.0
 35
0.0
146
0.0
 13
0.0
 23
0.0
 33
0.0
 16
1.0
 26
0.0
 36
0.0
 17
0.0
 27
1.0
 37
0.0
 76
0
330
218
345
0
346
0
  0
LAYOUT
  5
2D7
102
{ACAD_REACTORS
330
1A
102
}
100
AcDbPlotSettings
  1

  2
none_device
  4
ISO_A4_(297.00_x_210.00_MM)
  6

 40
0.0
 41
0.0
 42
0.0
 43
0.0
 44
297.0
 45
210.0
 46
0.0
 47
0.0
 48
0.0
 49
0.0
140
0.0
141
0.0
142
1.0
143
1.0
 70
0
 72
1
 73
0
 74
0
  7

 75
0
147
1.0
148
0.0
149
0.0
100
AcDbLayout
  1
Layout1
 70
0
 71
1
 10
0.0
 20
0.0
 11
297.0
 21
210.0
 12
0.0
 22
0.0
 32
0.0
 14
0.0
 24
0.0
 34
0.0
 15
0.0
 25
0.0
 35
0.0
146
0.0
 13
0.0
 23
0.0
 33
0.0
 16
1.0
 26
0.0
 36
0.0
 17
0.0
 27
1.0
 37
0.0
 76
0
330
219
345
0
346
0
  0
ENDSEC
  0
EOF
