0
SECTION
2
HEADER
9
$ACADVER
1
AC1015
9
$DWGCODEPAGE
3
ANSI_1252
9
$EXTMAX
10
431.8000000000
20
558.8000000000
30
0.0000000000
9
$EXTMIN
10
0.0000000000
20
0.0000000000
30
0.0000000000
9
$LIMMIN
10
0.0000000000
20
0.0000000000
9
$LIMMAX
10
431.8000000000
20
558.8000000000
9
$VIEWCTR
10
215.9000000000
20
279.4000000000
9
$VIEWSIZE
40
558.8000000000
9
$CLAYER
8
0
9
$LTSCALE
40
36.4254814815
9
$CELTYPE
6
BYLAYER
9
$DIMSCALE
40
1
9
$DIMASZ
40
3.0000000000
9
$DIMEXO
40
4.1392592593
9
$DIMDLI
40
25.1666962963
9
$DIMEXE
40
11.9210666667
9
$DIMCEN
40
5.9605333333
9
$DIMLFAC
40
1.0000000000
9
$DIMBLK
1
_FILLED
9
$DIMTXT
40
3.0000000000
9
$DIMTOL
70
1
9
$DIMLIM
70
0
9
$DIMTFAC
40
1.0000000000
9
$DIMTP
40
0.0100000000
9
$DIMTM
40
0.0100000000
9
$PDMODE
70
3
9
$PDSIZE
40
3.0000000000
9
$HANDSEED
5
357
9
$MEASUREMENT
70
1
9
$INSUNITS
70
4
0
ENDSEC
0
SECTION
2
CLASSES
0
CLASS
1
ACDBDICTIONARYWDFLT
2
AcDbDictionaryWithDefault
3
AutoCAD 2000
90
0
280
0
281
0
0
CLASS
1
ACDBPLACEHOLDER
2
AcDbPlaceHolder
3
AutoCAD 2000
90
0
280
0
281
0
0
CLASS
1
LAYOUT
2
AcDbLayout
3
AutoCAD 2000
90
0
280
0
281
0
0
ENDSEC
0
SECTION
2
TABLES
0
TABLE
2
VPORT
5
8
100
AcDbSymbolTable
70
2
0
VPORT
5
1F4
100
AcDbSymbolTableRecord
100
AcDbViewportTableRecord
2
*ACTIVE
70
0
10
0.0
20
0.0
11
1.0
21
1.0
12
215.9000000000
22
279.4000000000
13
0.0
23
0.0
14
1.0
24
1.0
15
0.0
25
0.0
16
0.0
26
0.0
36
1.0
17
0.0
27
0.0
37
0.0
40
558.8000000000
41
0.7727272727
42
50.0
43
0.0
44
0.0
50
0.0
51
0.0
71
0
72
100
73
1
74
1
75
0
76
0
77
0
78
0
0
ENDTAB
0
TABLE
2
LTYPE
5
5
100
AcDbSymbolTable
70
6
0
LTYPE
5
14
100
AcDbSymbolTableRecord
100
AcDbLinetypeTableRecord
2
BYBLOCK
70
0
3

72
65
73
0
40
0.0
0
LTYPE
5
15
100
AcDbSymbolTableRecord
100
AcDbLinetypeTableRecord
2
BYLAYER
70
0
3

72
65
73
0
40
0.0
0
LTYPE
5
16
100
AcDbSymbolTableRecord
100
AcDbLinetypeTableRecord
2
CONTINUOUS
70
64
3
Solid line
72
65
73
0
40
0
0
LTYPE
5
1F5
100
AcDbSymbolTableRecord
100
AcDbLinetypeTableRecord
2
CENTER
70
64
3
____ _ ____ _ ____ _ ____ _ ____ _ ____ _ ____
72
65
73
4
40
0.6
49
0.375
74
0
49
-0.075
74
0
49
0.075
74
0
49
-0.075
74
0
0
LTYPE
5
1F6
100
AcDbSymbolTableRecord
100
AcDbLinetypeTableRecord
2
HIDDEN
70
64
3
- - - - - - - - - - - - - - - - - - - -
72
65
73
2
40
0.2
49
0.1
74
0
49
-0.1
74
0
0
LTYPE
5
1F7
100
AcDbSymbolTableRecord
100
AcDbLinetypeTableRecord
2
PHANTOM
70
64
3
_____ _ _ _____ _ _ _____ _ _ _____
72
65
73
6
40
0.8
49
0.45
74
0
49
-0.05
74
0
49
0.1
74
0
49
-0.05
74
0
49
0.1
74
0
49
-0.05
74
0
0
LTYPE
5
1F8
100
AcDbSymbolTableRecord
100
AcDbLinetypeTableRecord
2
DOT
70
64
3
. . . . . . . . . . . . . . . . . . . .
72
65
73
2
40
0.2
49
0.1
74
0
49
-0.1
74
0
0
LTYPE
5
1F9
100
AcDbSymbolTableRecord
100
AcDbLinetypeTableRecord
2
DASHED
70
64
3
- - - - - - - - - - - - - - - - - - - -
72
65
73
2
40
0.2
49
0.1
74
0
49
-0.1
74
0
0
ENDTAB
0
TABLE
2
LAYER
5
2
100
AcDbSymbolTable
70
36
0
LAYER
5
10
100
AcDbSymbolTableRecord
100
AcDbLayerTableRecord
2
0
70
0
62
7
6
CONTINUOUS
370
-3
390
F
0
LAYER
5
1FA
100
AcDbSymbolTableRecord
100
AcDbLayerTableRecord
2
DEFAULT_1
70
0
62
7
6
CENTER
370
-3
390
F
0
LAYER
5
1FB
100
AcDbSymbolTableRecord
100
AcDbLayerTableRecord
2
DEFAULT_2
70
0
62
9
6
HIDDEN
370
-3
390
F
0
LAYER
5
1FC
100
AcDbSymbolTableRecord
100
AcDbLayerTableRecord
2
DEFAULT_3
70
0
62
7
6
PHANTOM
370
-3
390
F
0
LAYER
5
1FD
100
AcDbSymbolTableRecord
100
AcDbLayerTableRecord
2
_BLACK_HOLE
70
0
62
7
6
CONTINUOUS
370
-3
390
F
0
LAYER
5
1FE
100
AcDbSymbolTableRecord
100
AcDbLayerTableRecord
2
ASSI
70
0
62
7
6
CONTINUOUS
370
-3
390
F
0
LAYER
5
1FF
100
AcDbSymbolTableRecord
100
AcDbLayerTableRecord
2
COORDINATE
70
0
62
7
6
CONTINUOUS
370
-3
390
F
0
LAYER
5
200
100
AcDbSymbolTableRecord
100
AcDbLayerTableRecord
2
COORD_ORIGINE
70
0
62
7
6
CONTINUOUS
370
-3
390
F
0
LAYER
5
201
100
AcDbSymbolTableRecord
100
AcDbLayerTableRecord
2
COPY_PUBLISH
70
0
62
7
6
CONTINUOUS
370
-3
390
F
0
LAYER
5
202
100
AcDbSymbolTableRecord
100
AcDbLayerTableRecord
2
COSMETIC
70
0
62
7
6
CONTINUOUS
370
-3
390
F
0
LAYER
5
203
100
AcDbSymbolTableRecord
100
AcDbLayerTableRecord
2
CURVE
70
0
62
7
6
CONTINUOUS
370
-3
390
F
0
LAYER
5
204
100
AcDbSymbolTableRecord
100
AcDbLayerTableRecord
2
DRAFT
70
0
62
7
6
CONTINUOUS
370
-3
390
F
0
LAYER
5
205
100
AcDbSymbolTableRecord
100
AcDbLayerTableRecord
2
IMPORT
70
0
62
7
6
CONTINUOUS
370
-3
390
F
0
LAYER
5
206
100
AcDbSymbolTableRecord
100
AcDbLayerTableRecord
2
IMPORT_IGES
70
0
62
7
6
CONTINUOUS
370
-3
390
F
0
LAYER
5
207
100
AcDbSymbolTableRecord
100
AcDbLayerTableRecord
2
INCISIONI_LASER
70
0
62
7
6
CONTINUOUS
370
-3
390
F
0
LAYER
5
208
100
AcDbSymbolTableRecord
100
AcDbLayerTableRecord
2
NOTE
70
0
62
7
6
CONTINUOUS
370
-3
390
F
0
LAYER
5
209
100
AcDbSymbolTableRecord
100
AcDbLayerTableRecord
2
PIANI
70
0
62
7
6
CONTINUOUS
370
-3
390
F
0
LAYER
5
20A
100
AcDbSymbolTableRecord
100
AcDbLayerTableRecord
2
PIANI_ORIGINE
70
0
62
7
6
CONTINUOUS
370
-3
390
F
0
LAYER
5
20B
100
AcDbSymbolTableRecord
100
AcDbLayerTableRecord
2
PUNTI
70
0
62
7
6
CONTINUOUS
370
-3
390
F
0
LAYER
5
20C
100
AcDbSymbolTableRecord
100
AcDbLayerTableRecord
2
RACCORDO
70
0
62
7
6
CONTINUOUS
370
-3
390
F
0
LAYER
5
20D
100
AcDbSymbolTableRecord
100
AcDbLayerTableRecord
2
SMUSSO
70
0
62
7
6
CONTINUOUS
370
-3
390
F
0
LAYER
5
20E
100
AcDbSymbolTableRecord
100
AcDbLayerTableRecord
2
SUPERFICI
70
0
62
7
6
CONTINUOUS
370
-3
390
F
0
LAYER
5
20F
100
AcDbSymbolTableRecord
100
AcDbLayerTableRecord
2
TRASH
70
0
62
7
6
CONTINUOUS
370
-3
390
F
0
LAYER
5
210
100
AcDbSymbolTableRecord
100
AcDbLayerTableRecord
2
XSEC_DATUMS
70
0
62
7
6
CONTINUOUS
370
-3
390
F
0
ENDTAB
0
TABLE
2
STYLE
5
3
100
AcDbSymbolTable
70
1
0
STYLE
5
11
100
AcDbSymbolTableRecord
100
AcDbTextStyleTableRecord
2
STANDARD
70
0
40
0.0
41
0.8000000000
50
0.0
71
0
42
0.2
3
txt
4

0
ENDTAB
0
TABLE
2
VIEW
5
6
100
AcDbSymbolTable
70
0
0
ENDTAB
0
TABLE
2
UCS
5
7
100
AcDbSymbolTable
70
0
0
ENDTAB
0
TABLE
2
APPID
5
9
100
AcDbSymbolTable
70
1
0
APPID
5
211
100
AcDbSymbolTableRecord
100
AcDbRegAppTableRecord
2
ACAD
70
0
0
ENDTAB
0
TABLE
2
BLOCK_RECORD
5
1
100
AcDbSymbolTable
70
0
0
BLOCK_RECORD
5
1F
100
AcDbSymbolTableRecord
100
AcDbBlockTableRecord
2
*MODEL_SPACE
0
BLOCK_RECORD
5
1B
100
AcDbSymbolTableRecord
100
AcDbBlockTableRecord
2
*PAPER_SPACE
0
BLOCK_RECORD
5
212
100
AcDbSymbolTableRecord
100
AcDbBlockTableRecord
2
_FILLED
0
BLOCK_RECORD
5
213
100
AcDbSymbolTableRecord
100
AcDbBlockTableRecord
2
*D0
0
BLOCK_RECORD
5
214
100
AcDbSymbolTableRecord
100
AcDbBlockTableRecord
2
*D1
0
BLOCK_RECORD
5
215
100
AcDbSymbolTableRecord
100
AcDbBlockTableRecord
2
*D2
0
ENDTAB
0
TABLE
2
DIMSTYLE
5
A
100
AcDbSymbolTable
70
1
100
AcDbDimStyleTable
71
0
0
DIMSTYLE
105
216
100
AcDbSymbolTableRecord
100
AcDbDimStyleTableRecord
2
STANDARD
70
0
3

4

40
1.0
41
3.0000000000
42
0.0625
43
0.38
44
0.18
45
0.0
46
0.0
47
0.0100000000
48
0.0100000000
140
3.0000000000
141
0.09
142
0.0
143
25.4
144
1.0000000000
145
0.0
146
1.0000000000
147
0.09
71
1
72
0
73
0
74
0
75
0
76
0
77
1
78
8
170
0
171
2
172
0
173
0
174
0
175
0
176
0
177
0
178
0
270
2
271
2
272
2
273
2
274
2
275
0
280
0
281
0
282
0
283
1
284
8
285
0
286
0
287
3
288
0
340
11
341
212
342
212
343
212
344
212
0
DIMSTYLE
105
217
100
AcDbSymbolTableRecord
100
AcDbDimStyleTableRecord
2
DIMSTYLE_1
70
0
3

4

40
1.0
41
3.0000000000
42
0.0625
43
0.38
44
0.18
45
0.0
46
0.0
47
0.0000000000
48
0.0000000000
140
3.0000000000
141
0.09
142
0.0
143
25.4
144
1.0000000000
145
0.0
146
1.0000000000
147
0.09
71
0
72
0
73
0
74
0
75
0
76
0
77
1
78
8
170
0
171
2
172
0
173
0
174
0
175
0
176
0
177
0
178
0
270
2
271
2
272
2
273
2
274
2
275
0
280
0
281
0
282
0
283
1
284
8
285
0
286
0
287
3
288
0
340
11
341
212
342
212
343
212
344
212
0
ENDTAB
0
ENDSEC
0
SECTION
2
BLOCKS
0
BLOCK
5
20
100
AcDbEntity
8
0
100
AcDbBlockBegin
2
*MODEL_SPACE
70
0
10
0.0
20
0.0
30
0.0
3
*MODEL_SPACE
1

0
ENDBLK
5
21
100
AcDbEntity
8
0
100
AcDbBlockEnd
0
BLOCK
5
1C
100
AcDbEntity
8
0
100
AcDbBlockBegin
2
*PAPER_SPACE
70
0
10
0.0
20
0.0
30
0.0
3
*PAPER_SPACE
1

0
ENDBLK
5
1D
100
AcDbEntity
8
0
100
AcDbBlockEnd
0
BLOCK
5
218
100
AcDbEntity
8
0
100
AcDbBlockBegin
62
0
6
CONTINUOUS
2
*D0
70
65
10
0.0000000000
20
0.0000000000
3
*D0
1

0
TEXT
5
219
100
AcDbEntity
8
0
100
AcDbText
62
0
6
CONTINUOUS
10
-18.8931506160
20
30.3092817931
7
STANDARD
40
3.0000000000
1
7,9
41
0.7142857143
72
0
100
AcDbText
0
LINE
5
21A
100
AcDbEntity
8
0
100
AcDbLine
62
0
6
CONTINUOUS
10
-12.1553616638
20
22.4292806319
11
-12.1553616638
21
31.0592817931
0
LINE
5
21B
100
AcDbEntity
8
0
100
AcDbLine
62
0
6
CONTINUOUS
10
-20.0553616638
20
1.7558579350
11
-20.0553616638
21
31.0592817931
0
LINE
5
21C
100
AcDbEntity
8
0
100
AcDbLine
62
0
6
CONTINUOUS
10
-12.1553616638
20
29.5592817931
11
-8.1553616638
21
29.5592817931
0
LINE
5
21D
100
AcDbEntity
8
0
100
AcDbLine
62
0
6
CONTINUOUS
10
-8.1553616638
20
29.5592817931
11
-16.1053616638
21
29.5592817931
0
LINE
5
21E
100
AcDbEntity
8
0
100
AcDbLine
62
0
6
CONTINUOUS
10
-20.0553616638
20
29.5592817931
11
-24.0553616638
21
29.5592817931
0
LINE
5
21F
100
AcDbEntity
8
0
100
AcDbLine
62
0
6
CONTINUOUS
10
-24.0553616638
20
29.5592817931
11
-16.1053616638
21
29.5592817931
0
INSERT
5
220
100
AcDbEntity
8
0
100
AcDbBlockReference
62
0
6
CONTINUOUS
2
_FILLED
10
-12.1553616638
20
29.5592817931
41
  3.000000
42
  3.000000
43
  3.000000
50
180.000000
0
INSERT
5
221
100
AcDbEntity
8
0
100
AcDbBlockReference
62
0
6
CONTINUOUS
2
_FILLED
10
-20.0553616638
20
29.5592817931
41
  3.000000
42
  3.000000
43
  3.000000
0
ENDBLK
5
222
100
AcDbEntity
8
0
6
BYBLOCK
62
0
100
AcDbBlockEnd
0
BLOCK
5
223
100
AcDbEntity
8
0
100
AcDbBlockBegin
62
0
6
CONTINUOUS
2
*D1
70
65
10
0.0000000000
20
0.0000000000
3
*D1
1

0
TEXT
5
224
100
AcDbEntity
8
0
100
AcDbText
62
0
6
CONTINUOUS
10
19.5782932219
20
30.2911345297
7
STANDARD
40
3.0000000000
1
22,2
41
0.7321428571
72
0
100
AcDbText
0
LINE
5
225
100
AcDbEntity
8
0
100
AcDbLine
62
0
6
CONTINUOUS
10
12.9863868203
20
21.9589477210
11
12.9863868203
21
31.0411345297
0
LINE
5
226
100
AcDbEntity
8
0
100
AcDbLine
62
0
6
CONTINUOUS
10
35.1863868203
20
21.8873333790
11
35.1863868203
21
31.0411345297
0
LINE
5
227
100
AcDbEntity
8
0
100
AcDbLine
62
0
6
CONTINUOUS
10
12.9863868203
20
29.5411345297
11
24.0863868203
21
29.5411345297
0
LINE
5
228
100
AcDbEntity
8
0
100
AcDbLine
62
0
6
CONTINUOUS
10
35.1863868203
20
29.5411345297
11
24.0863868203
21
29.5411345297
0
INSERT
5
229
100
AcDbEntity
8
0
100
AcDbBlockReference
62
0
6
CONTINUOUS
2
_FILLED
10
12.9863868203
20
29.5411345297
41
  3.000000
42
  3.000000
43
  3.000000
50
180.000000
0
INSERT
5
22A
100
AcDbEntity
8
0
100
AcDbBlockReference
62
0
6
CONTINUOUS
2
_FILLED
10
35.1863868203
20
29.5411345297
41
  3.000000
42
  3.000000
43
  3.000000
0
ENDBLK
5
22B
100
AcDbEntity
8
0
6
BYBLOCK
62
0
100
AcDbBlockEnd
0
BLOCK
5
22C
100
AcDbEntity
8
0
100
AcDbBlockBegin
62
0
6
CONTINUOUS
2
*D2
70
65
10
0.0000000000
20
0.0000000000
3
*D2
1

0
TEXT
5
22D
100
AcDbEntity
8
0
100
AcDbText
62
0
6
CONTINUOUS
10
44.2467121603
20
-4.0219598302
7
STANDARD
40
3.0000000000
1
43,7
50
90.0000000000
41
0.7142857143
72
0
100
AcDbText
0
LINE
5
22E
100
AcDbEntity
8
0
100
AcDbLine
62
0
6
CONTINUOUS
10
35.0933576151
20
21.9589844611
11
46.4967121603
21
21.9589844611
0
LINE
5
22F
100
AcDbEntity
8
0
100
AcDbLine
62
0
6
CONTINUOUS
10
35.1789977077
20
-21.7410155389
11
46.4967121603
21
-21.7410155389
0
LINE
5
230
100
AcDbEntity
8
0
100
AcDbLine
62
0
6
CONTINUOUS
10
44.9967121603
20
21.9589844611
11
44.9967121603
21
0.1089844611
0
LINE
5
231
100
AcDbEntity
8
0
100
AcDbLine
62
0
6
CONTINUOUS
10
44.9967121603
20
-21.7410155389
11
44.9967121603
21
0.1089844611
0
INSERT
5
232
100
AcDbEntity
8
0
100
AcDbBlockReference
62
0
6
CONTINUOUS
2
_FILLED
10
44.9967121603
20
21.9589844611
41
  3.000000
42
  3.000000
43
  3.000000
50
 90.000000
0
INSERT
5
233
100
AcDbEntity
8
0
100
AcDbBlockReference
62
0
6
CONTINUOUS
2
_FILLED
10
44.9967121603
20
-21.7410155389
41
  3.000000
42
  3.000000
43
  3.000000
50
270.000000
0
ENDBLK
5
234
100
AcDbEntity
8
0
6
BYBLOCK
62
0
100
AcDbBlockEnd
0
BLOCK
5
235
100
AcDbEntity
8
0
100
AcDbBlockBegin
2
_FILLED
70
64
10
0.0000000000
20
0.0000000000
3
_FILLED
1

0
SOLID
5
236
100
AcDbEntity
8
0
6
BYBLOCK
62
0
100
AcDbTrace
10
0.0000000000
20
0.0000000000
11
-1.0000000000
21
0.3166666667
12
-1.0000000000
22
-0.3166666667
13
-1.0000000000
23
-0.3166666667
0
ENDBLK
5
237
100
AcDbEntity
8
0
6
BYBLOCK
62
0
100
AcDbBlockEnd
0
ENDSEC
0
SECTION
2
ENTITIES
0
DIMENSION
5
238
100
AcDbEntity
8
0
100
AcDbDimension
62
0
6
CONTINUOUS
2
*D0
10
-20.0553616638
20
29.5592817931
11
-15.6788649017
21
31.8092817931
70
160
42
7.900000
3
DIMSTYLE_1
100
AcDbAlignedDimension
13
-12.1553616638
23
22.4292806319
14
-20.0553616638
24
1.7558579350
50
180.000000
100
AcDbRotatedDimension
0
DIMENSION
5
239
100
AcDbEntity
8
0
100
AcDbDimension
62
0
6
CONTINUOUS
2
*D1
10
35.1863868203
20
29.5411345297
11
23.9711503647
21
31.7911345297
70
160
42
22.200000
3
DIMSTYLE_1
100
AcDbAlignedDimension
13
12.9863868203
23
21.9589477210
14
35.1863868203
24
21.8873333790
100
AcDbRotatedDimension
0
DIMENSION
5
23A
100
AcDbEntity
8
0
100
AcDbDimension
62
0
6
CONTINUOUS
2
*D2
10
44.9967121603
20
-21.7410155389
11
42.7467121603
21
0.2637544555
70
160
42
43.700000
3
DIMSTYLE_1
100
AcDbAlignedDimension
13
35.0933576151
23
21.9589844611
14
35.1789977077
24
-21.7410155389
50
270.000000
100
AcDbRotatedDimension
0
LINE
5
23B
100
AcDbEntity
8
0
100
AcDbLine
62
0
6
CONTINUOUS
10
13.7862649764
20
-21.7410155389
11
34.3865086642
21
-21.7410155389
0
LINE
5
23C
100
AcDbEntity
8
0
100
AcDbLine
62
9
6
CONTINUOUS
10
34.2863425923
20
-21.6408494671
11
13.8864310482
21
-21.6408494671
0
LINE
5
23D
100
AcDbEntity
8
0
100
AcDbLine
62
9
6
CONTINUOUS
10
34.2743654383
20
-20.2428370318
11
13.8984082022
21
-20.2428370318
0
LINE
5
23E
100
AcDbEntity
8
0
100
AcDbLine
62
9
6
CONTINUOUS
10
26.1863868203
20
-17.4544887630
11
21.9863868203
21
-17.4544887630
0
LINE
5
23F
100
AcDbEntity
8
0
100
AcDbLine
62
9
6
CONTINUOUS
10
26.1863868203
20
-17.3486495024
11
21.9863868203
21
-17.3486495024
0
LINE
5
240
100
AcDbEntity
8
0
100
AcDbLine
62
9
6
CONTINUOUS
10
21.9863868203
20
-17.1760193224
11
26.1863868203
21
-17.1760193224
0
LINE
5
241
100
AcDbEntity
8
0
100
AcDbLine
62
9
6
CONTINUOUS
10
21.9863868203
20
-17.0817628926
11
26.1863868203
21
-17.0817628926
0
LINE
5
242
100
AcDbEntity
8
ASSI
100
AcDbLine
62
9
6
CONTINUOUS
10
23.9269138203
20
-14.8966215389
11
24.2583628203
21
-14.8966215389
0
LINE
5
243
100
AcDbEntity
8
INCISIONI_LASER
100
AcDbLine
62
9
6
CONTINUOUS
10
23.9269138203
20
-14.8966215389
11
24.2583628203
21
-14.8966215389
0
LINE
5
244
100
AcDbEntity
8
0
100
AcDbLine
62
0
6
CONTINUOUS
10
30.1616226623
20
-14.8910155389
11
29.9812963241
21
-14.8910155389
0
LINE
5
245
100
AcDbEntity
8
0
100
AcDbLine
62
0
6
CONTINUOUS
10
18.1914773165
20
-14.8910155389
11
18.0111509782
21
-14.8910155389
0
LINE
5
246
100
AcDbEntity
8
0
100
AcDbLine
62
0
6
CONTINUOUS
10
12.9863868203
20
-20.9411373828
11
12.9863868203
21
21.1591063050
0
LINE
5
247
100
AcDbEntity
8
0
100
AcDbLine
62
0
6
CONTINUOUS
10
18.0111509782
20
-10.8910155389
11
18.1914773165
21
-10.8910155389
0
LINE
5
248
100
AcDbEntity
8
0
100
AcDbLine
62
0
6
CONTINUOUS
10
29.9812963241
20
-10.8910155389
11
30.1616226623
21
-10.8910155389
0
LINE
5
249
100
AcDbEntity
8
ASSI
100
AcDbLine
62
9
6
CONTINUOUS
10
24.2583628203
20
-10.8722045389
11
23.9269138203
21
-10.8722045389
0
LINE
5
24A
100
AcDbEntity
8
INCISIONI_LASER
100
AcDbLine
62
9
6
CONTINUOUS
10
24.2583628203
20
-10.8722045389
11
23.9269138203
21
-10.8722045389
0
LINE
5
24B
100
AcDbEntity
8
0
100
AcDbLine
62
9
6
CONTINUOUS
10
13.8984082022
20
-20.2428370318
11
13.8984082022
21
20.4608059540
0
LINE
5
24C
100
AcDbEntity
8
0
100
AcDbLine
62
0
6
CONTINUOUS
10
18.3115435501
20
-10.3822666725
11
18.5026844147
21
-10.3822666725
0
LINE
5
24D
100
AcDbEntity
8
0
100
AcDbLine
62
0
6
CONTINUOUS
10
29.6700892259
20
-10.3822666725
11
29.8612310642
21
-10.3822666725
0
LINE
5
24E
100
AcDbEntity
8
0
100
AcDbLine
62
9
6
CONTINUOUS
10
34.3865086642
20
21.9589844611
11
34.2863425923
21
21.8588183893
0
LINE
5
24F
100
AcDbEntity
8
0
100
AcDbLine
62
9
6
CONTINUOUS
10
26.1863868203
20
-8.7152712642
11
21.9863868203
21
-8.7152712642
0
LINE
5
250
100
AcDbEntity
8
0
100
AcDbLine
62
9
6
CONTINUOUS
10
26.1863868203
20
-8.6123460563
11
21.9863868203
21
-8.6123460563
0
LINE
5
251
100
AcDbEntity
8
0
100
AcDbLine
62
9
6
CONTINUOUS
10
21.9863868203
20
-8.4264739536
11
26.1863868203
21
-8.4264739536
0
LINE
5
252
100
AcDbEntity
8
0
100
AcDbLine
62
9
6
CONTINUOUS
10
21.9863868203
20
-8.3293019462
11
26.1863868203
21
-8.3293019462
0
LINE
5
253
100
AcDbEntity
8
0
100
AcDbLine
62
9
6
CONTINUOUS
10
34.2863425923
20
-21.6408494671
11
34.3865086642
21
-21.7410155389
0
LINE
5
254
100
AcDbEntity
8
0
100
AcDbLine
62
9
6
CONTINUOUS
10
35.1863868203
20
21.1591063050
11
35.0862207485
21
21.0589402332
0
LINE
5
255
100
AcDbEntity
8
0
100
AcDbLine
62
9
6
CONTINUOUS
10
35.0862207485
20
-20.8409713109
11
35.1863868203
21
-20.9411373828
0
LINE
5
256
100
AcDbEntity
8
0
100
AcDbLine
62
0
6
CONTINUOUS
10
19.5863868203
20
-16.4589280939
11
19.5863868203
21
-16.6357699993
0
LINE
5
257
100
AcDbEntity
8
0
100
AcDbLine
62
9
6
CONTINUOUS
10
21.9863868203
20
-8.3293019462
11
21.9863868203
21
-8.4264739536
0
LINE
5
258
100
AcDbEntity
8
0
100
AcDbLine
62
9
6
CONTINUOUS
10
21.9863868203
20
-17.0817628926
11
21.9863868203
21
-17.1760193224
0
LINE
5
259
100
AcDbEntity
8
0
100
AcDbLine
62
9
6
CONTINUOUS
10
21.9863868203
20
-8.7152712642
11
21.9863868218
21
-8.6123460563
0
LINE
5
25A
100
AcDbEntity
8
0
100
AcDbLine
62
9
6
CONTINUOUS
10
21.9863868203
20
-17.4544887630
11
21.9863868339
21
-17.3486495024
0
LINE
5
25B
100
AcDbEntity
8
0
100
AcDbLine
62
0
6
CONTINUOUS
10
18.4985480352
20
-10.3910155389
11
18.5026844147
21
-10.3822666725
0
LINE
5
25C
100
AcDbEntity
8
0
100
AcDbLine
62
0
6
CONTINUOUS
10
29.6700892259
20
-10.3822666725
11
29.6742256054
21
-10.3910155389
0
LINE
5
25D
100
AcDbEntity
8
0
100
AcDbLine
62
9
6
CONTINUOUS
10
26.1863868203
20
-17.4544887630
11
26.1863868203
21
-17.3486495024
0
LINE
5
25E
100
AcDbEntity
8
0
100
AcDbLine
62
9
6
CONTINUOUS
10
26.1863868203
20
-8.7152712642
11
26.1863868203
21
-8.6123460563
0
LINE
5
25F
100
AcDbEntity
8
0
100
AcDbLine
62
9
6
CONTINUOUS
10
26.1863868203
20
-17.0817628926
11
26.1863868188
21
-17.1760193224
0
LINE
5
260
100
AcDbEntity
8
0
100
AcDbLine
62
9
6
CONTINUOUS
10
26.1863868203
20
-8.3293019462
11
26.1863868067
21
-8.4264739536
0
LINE
5
261
100
AcDbEntity
8
0
100
AcDbLine
62
0
6
CONTINUOUS
10
28.5863868203
20
-16.6357699993
11
28.5863868203
21
-16.4589280939
0
LINE
5
262
100
AcDbEntity
8
0
100
AcDbLine
62
9
6
CONTINUOUS
10
12.9863868203
20
-20.9411373828
11
13.0865528921
21
-20.8409713109
0
LINE
5
263
100
AcDbEntity
8
0
100
AcDbLine
62
9
6
CONTINUOUS
10
13.0865528921
20
21.0589402332
11
12.9863868203
21
21.1591063050
0
LINE
5
264
100
AcDbEntity
8
0
100
AcDbLine
62
9
6
CONTINUOUS
10
13.7862649764
20
-21.7410155389
11
13.8864310482
21
-21.6408494671
0
LINE
5
265
100
AcDbEntity
8
0
100
AcDbLine
62
9
6
CONTINUOUS
10
13.8864310482
20
21.8588183893
11
13.7862649764
21
21.9589844611
0
LINE
5
266
100
AcDbEntity
8
0
100
AcDbLine
62
9
6
CONTINUOUS
10
34.2743654383
20
20.4608059540
11
34.2743654383
21
-20.2428370318
0
LINE
5
267
100
AcDbEntity
8
0
100
AcDbLine
62
0
6
CONTINUOUS
10
35.1863868203
20
-20.9411373828
11
35.1863868203
21
21.1591063050
0
LINE
5
268
100
AcDbEntity
8
0
100
AcDbLine
62
9
6
CONTINUOUS
10
34.2743654383
20
20.4608059540
11
13.8984082022
21
20.4608059540
0
LINE
5
269
100
AcDbEntity
8
0
100
AcDbLine
62
9
6
CONTINUOUS
10
34.2863425923
20
21.8588183893
11
13.8864310482
21
21.8588183893
0
LINE
5
26A
100
AcDbEntity
8
0
100
AcDbLine
62
0
6
CONTINUOUS
10
13.7862649764
20
21.9589844611
11
34.3865086642
21
21.9589844611
0
LINE
5
26B
100
AcDbEntity
8
0
100
AcDbLine
62
0
6
CONTINUOUS
10
-17.8938720755
20
-21.6408494671
11
-12.1553616638
21
-21.7410155389
0
LINE
5
26C
100
AcDbEntity
8
0
100
AcDbLine
62
9
6
CONTINUOUS
10
-18.5800427688
20
-20.1885655078
11
-19.3642374306
21
-20.2428370035
0
LINE
5
26D
100
AcDbEntity
8
0
100
AcDbLine
62
9
6
CONTINUOUS
10
-17.8938720755
20
-20.8409713109
11
-12.1553616638
21
-20.9411373828
0
LINE
5
26E
100
AcDbEntity
8
0
100
AcDbLine
62
0
6
CONTINUOUS
10
-12.1553616638
20
21.9589844611
11
-12.1553616638
21
-21.7410155389
0
LINE
5
26F
100
AcDbEntity
8
0
100
AcDbLine
62
9
6
CONTINUOUS
10
-18.5800427688
20
20.4065344300
11
-19.3642378063
21
20.4608059513
0
LINE
5
270
100
AcDbEntity
8
0
100
AcDbLine
62
9
6
CONTINUOUS
10
-12.1553616638
20
21.1591063050
11
-17.8938720755
21
21.0589402332
0
LINE
5
271
100
AcDbEntity
8
0
100
AcDbLine
62
0
6
CONTINUOUS
10
-12.1553616638
20
21.9589844611
11
-17.8938720755
21
21.8588183893
0
ARC
5
272
100
AcDbEntity
8
0
100
AcDbCircle
62
0
6
CONTINUOUS
10
21.9863868203
20
-12.8910155389
40
4.2912724675
100
AcDbArc
50
144.3679448432
51
215.6320551568
0
ARC
5
273
100
AcDbEntity
8
0
100
AcDbCircle
62
0
6
CONTINUOUS
10
26.1863868203
20
-12.8910155389
40
4.2912724675
100
AcDbArc
50
324.3679448432
51
35.6320551568
0
ARC
5
274
100
AcDbEntity
8
0
100
AcDbCircle
62
0
6
CONTINUOUS
10
26.1863868203
20
-12.8910155389
40
4.3000000000
100
AcDbArc
50
269.9963756459
51
323.7316107101
0
ARC
5
275
100
AcDbEntity
8
0
100
AcDbCircle
62
0
6
CONTINUOUS
10
26.1863868203
20
-12.8910155389
40
4.2930179740
100
AcDbArc
50
35.7591200613
51
90.0036960346
0
ARC
5
276
100
AcDbEntity
8
0
100
AcDbCircle
62
0
6
CONTINUOUS
10
21.9863868203
20
-12.8910155389
40
4.2930179740
100
AcDbArc
50
89.9963039701
51
144.2408799387
0
ARC
5
277
100
AcDbEntity
8
0
100
AcDbCircle
62
0
6
CONTINUOUS
10
21.9863868203
20
-12.8910155389
40
4.3000000000
100
AcDbArc
50
216.2683892899
51
269.9963579683
0
ARC
5
278
100
AcDbEntity
8
0
100
AcDbCircle
62
0
6
CONTINUOUS
10
21.9863868203
20
-12.8910155389
40
4.4500000000
100
AcDbArc
50
90.0000000000
51
270.0000000000
0
ARC
5
279
100
AcDbEntity
8
0
100
AcDbCircle
62
0
6
CONTINUOUS
10
26.1863868203
20
-12.8910155389
40
4.4500000000
100
AcDbArc
50
270.0000000000
51
90.0000000000
0
ARC
5
27A
100
AcDbEntity
8
ASSI
100
AcDbCircle
62
9
6
CONTINUOUS
10
280.0446383362
20
0.1089844611
40
300.1000000000
100
AcDbArc
50
182.0970219093
51
182.8660998264
0
ARC
5
27B
100
AcDbEntity
8
0
100
AcDbCircle
62
0
6
CONTINUOUS
10
280.0446383362
20
0.1089844611
40
300.1000000000
100
AcDbArc
50
181.6849899905
51
183.2838944955
0
ARC
5
27C
100
AcDbEntity
8
INCISIONI_LASER
100
AcDbCircle
62
9
6
CONTINUOUS
10
280.0446383362
20
0.1089844611
40
300.1000000000
100
AcDbArc
50
182.0970219093
51
182.8660998264
0
ARC
5
27D
100
AcDbEntity
8
0
100
AcDbCircle
62
0
6
CONTINUOUS
10
-17.8676934659
20
-20.1410779243
40
1.5000000000
100
AcDbArc
50
183.8898991621
51
269.0000000000
0
ARC
5
27E
100
AcDbEntity
8
0
100
AcDbCircle
62
0
6
CONTINUOUS
10
279.9446383362
20
0.1089844611
40
300.0000000000
100
AcDbArc
50
176.1101008379
51
183.8898991621
0
ARC
5
27F
100
AcDbEntity
8
0
100
AcDbCircle
62
0
6
CONTINUOUS
10
-17.8676934659
20
20.3590468466
40
1.5000000000
100
AcDbArc
50
91.0000000000
51
176.1101008379
0
SPLINE
5
280
100
AcDbEntity
8
0
100
AcDbSpline
62
0
6
CONTINUOUS
70
0
71
3
72
9
73
5
74
3
42
0.0000001000
43
0.0000001000
44
0.0000000001
12
0.0041257553
22
0.0087538834
32
0.0000000000
13
0.0041469995
23
0.0087438394
33
0.0000000000
40
0.0000000000
40
0.0000000000
40
0.0000000000
40
0.0000000000
40
0.5000018101
40
1.0000000000
40
1.0000000000
40
1.0000000000
40
1.0000000000
10
18.4985480352
20
-10.3910155389
30
0.0000000000
10
18.4992356636
20
-10.3895565530
30
0.0000000000
10
18.5006126867
20
-10.3866394264
30
0.0000000000
10
18.5019932506
20
-10.3837239738
30
0.0000000000
10
18.5026844147
20
-10.3822666725
30
0.0000000000
11
18.4985480352
21
-10.3910155389
31
0.0000000000
11
18.5006135769
21
-10.3866398344
31
0.0000000000
11
18.5026844147
21
-10.3822666725
31
0.0000000000
0
SPLINE
5
281
100
AcDbEntity
8
0
100
AcDbSpline
62
0
6
CONTINUOUS
70
0
71
3
72
13
73
9
74
7
42
0.0000001000
43
0.0000001000
44
0.0000000001
12
-4.4751037933
22
-0.0002883409
32
0.0000000000
13
-2.2419078200
23
-3.8813588485
33
0.0000000000
40
0.0000000000
40
0.0000000000
40
0.0000000000
40
0.0000000000
40
0.1870024875
40
0.3746326481
40
0.5622880499
40
0.7498422086
40
0.9374573199
40
1.0000000000
40
1.0000000000
40
1.0000000000
40
1.0000000000
10
21.9863868203
20
-8.6123460563
30
0.0000000000
10
21.7074349732
20
-8.6123640298
30
0.0000000000
10
21.1470579074
20
-8.6673106024
30
0.0000000000
10
20.3393674757
20
-8.9119747730
30
0.0000000000
10
19.5939169529
20
-9.3100248926
30
0.0000000000
10
18.9405909635
20
-9.8458690516
30
0.0000000000
10
18.5235528616
20
-10.3537317531
30
0.0000000000
10
18.3260267573
20
-10.6712680542
30
0.0000000000
10
18.2792884494
20
-10.7521849158
30
0.0000000000
11
21.9863868203
21
-8.6123460563
31
0.0000000000
11
21.1535385386
21
-8.6941442197
31
0.0000000000
11
20.3499093654
21
-8.9374886924
31
0.0000000000
11
19.6091416321
21
-9.3330759152
31
0.0000000000
11
18.9601669981
21
-9.8653326697
31
0.0000000000
11
18.4273461980
21
-10.5141972798
31
0.0000000000
11
18.2792884494
21
-10.7521849158
31
0.0000000000
0
SPLINE
5
282
100
AcDbEntity
8
0
100
AcDbSpline
62
0
6
CONTINUOUS
70
0
71
3
72
8
73
4
74
2
42
0.0000001000
43
0.0000001000
44
0.0000000001
12
-0.0575060865
22
-0.1085780763
32
0.0000000000
13
-0.0543716711
23
-0.1101807458
33
0.0000000000
40
0.0000000000
40
0.0000000000
40
0.0000000000
40
0.0000000000
40
1.0000000000
40
1.0000000000
40
1.0000000000
40
1.0000000000
10
18.2030441714
20
-10.8899659174
30
0.0000000000
10
18.1838754759
20
-10.9261586095
30
0.0000000000
10
18.1652252056
20
-10.9626258597
30
0.0000000000
10
18.1471013152
20
-10.9993527750
30
0.0000000000
11
18.2030441714
21
-10.8899659174
31
0.0000000000
11
18.1471013152
21
-10.9993527750
31
0.0000000000
0
SPLINE
5
283
100
AcDbEntity
8
0
100
AcDbSpline
62
0
6
CONTINUOUS
70
0
71
3
72
13
73
9
74
7
42
0.0000001000
43
0.0000001000
44
0.0000000001
12
-1.7375520181
22
-3.5210390559
32
0.0000000000
13
1.7381516410
23
-3.5207490720
33
0.0000000000
40
0.0000000000
40
0.0000000000
40
0.0000000000
40
0.0000000000
40
0.0714049302
40
0.2856507837
40
0.4999352580
40
0.7142479150
40
0.9285659907
40
1.0000000000
40
1.0000000000
40
1.0000000000
40
1.0000000000
10
18.1471013152
20
-10.9993527750
30
0.0000000000
10
18.1057447217
20
-11.0831592910
30
0.0000000000
10
17.9512649680
20
-11.4238306934
30
0.0000000000
10
17.7603153628
20
-12.0529744610
30
0.0000000000
10
17.6774179893
20
-12.8943278502
30
0.0000000000
10
17.7603781967
20
-13.7357719629
30
0.0000000000
10
17.9514470587
20
-14.3650605205
30
0.0000000000
10
18.1060351508
20
-14.7058291810
30
0.0000000000
10
18.1474228644
20
-14.7896629217
30
0.0000000000
11
18.1471013152
21
-10.9993527750
31
0.0000000000
11
18.0313486161
21
-11.2546515863
31
0.0000000000
11
17.7874291674
21
-12.0583190418
31
0.0000000000
11
17.7050616317
21
-12.8942903312
31
0.0000000000
11
17.7874931379
21
-13.7303663304
31
0.0000000000
11
18.0315829754
21
-14.5342779383
31
0.0000000000
11
18.1474228644
21
-14.7896629217
31
0.0000000000
0
SPLINE
5
284
100
AcDbEntity
8
0
100
AcDbSpline
62
0
6
CONTINUOUS
70
0
71
3
72
12
73
8
74
6
42
0.0000001000
43
0.0000001000
44
0.0000000001
12
2.3356426188
22
-3.4918622462
32
0.0000000000
13
4.1942668513
23
-0.0002450599
33
0.0000000000
40
0.0000000000
40
0.0000000000
40
0.0000000000
40
0.0000000000
40
0.2002345386
40
0.4003576251
40
0.6004981728
40
0.8007082160
40
1.0000000000
40
1.0000000000
40
1.0000000000
40
1.0000000000
10
18.4278782190
20
-15.2749626955
30
0.0000000000
10
18.5837703263
20
-15.5080265040
30
0.0000000000
10
18.9413912382
20
-15.9433086426
30
0.0000000000
10
19.5948580839
20
-16.4789565255
30
0.0000000000
10
20.3403384410
20
-16.8767828090
30
0.0000000000
10
21.1476886107
20
-17.1211487571
30
0.0000000000
10
21.7077591792
20
-17.1760030430
30
0.0000000000
10
21.9863868203
20
-17.1760193224
30
0.0000000000
11
18.4278782190
21
-15.2749626955
31
0.0000000000
11
18.9610145117
21
-15.9238787374
31
0.0000000000
11
19.6101757739
21
-16.4559793207
31
0.0000000000
11
20.3507476090
21
-16.8512231472
31
0.0000000000
11
21.1544971835
21
-17.0944111378
31
0.0000000000
11
21.9863868203
21
-17.1760193224
31
0.0000000000
0
SPLINE
5
285
100
AcDbEntity
8
0
100
AcDbSpline
62
0
6
CONTINUOUS
70
0
71
3
72
9
73
5
74
3
42
0.0000001000
43
0.0000001000
44
0.0000000001
12
0.0041469995
22
-0.0087438394
32
0.0000000000
13
0.0041257553
23
-0.0087538834
33
0.0000000000
40
0.0000000000
40
0.0000000000
40
0.0000000000
40
0.0000000000
40
0.4999981899
40
1.0000000000
40
1.0000000000
40
1.0000000000
40
1.0000000000
10
29.6700892259
20
-10.3822666725
30
0.0000000000
10
29.6707803900
20
-10.3837239738
30
0.0000000000
10
29.6721609538
20
-10.3866394264
30
0.0000000000
10
29.6735379770
20
-10.3895565530
30
0.0000000000
10
29.6742256054
20
-10.3910155389
30
0.0000000000
11
29.6700892259
21
-10.3822666725
31
0.0000000000
11
29.6721600637
21
-10.3866398344
31
0.0000000000
11
29.6742256054
21
-10.3910155389
31
0.0000000000
0
SPLINE
5
286
100
AcDbEntity
8
0
100
AcDbSpline
62
0
6
CONTINUOUS
70
0
71
3
72
12
73
8
74
6
42
0.0000001000
43
0.0000001000
44
0.0000000001
12
4.1937802773
22
0.0002715527
32
0.0000000000
13
2.3357707508
23
3.4911907305
33
0.0000000000
40
0.0000000000
40
0.0000000000
40
0.0000000000
40
0.0000000000
40
0.1993398852
40
0.3994079599
40
0.5995915855
40
0.7997371408
40
1.0000000000
40
1.0000000000
40
1.0000000000
40
1.0000000000
10
26.1863868203
20
-17.1760193224
30
0.0000000000
10
26.4650493799
20
-17.1760012787
30
0.0000000000
10
27.0249247877
20
-17.1211614114
30
0.0000000000
10
27.8321164476
20
-16.8768924383
30
0.0000000000
10
28.5774687089
20
-16.4792580463
30
0.0000000000
10
29.2310250647
20
-15.9436663038
30
0.0000000000
10
29.5887008571
20
-15.5084210252
30
0.0000000000
10
29.7446235668
20
-15.2753690792
30
0.0000000000
11
26.1863868203
21
-17.1760193224
31
0.0000000000
11
27.0183797091
21
-17.0943906810
31
0.0000000000
11
27.8214799507
21
-16.8514488751
31
0.0000000000
11
28.5621759438
21
-16.4562608317
31
0.0000000000
11
29.2113980022
21
-15.9242393911
31
0.0000000000
11
29.7446235668
21
-15.2753690792
31
0.0000000000
0
SPLINE
5
287
100
AcDbEntity
8
0
100
AcDbSpline
62
0
6
CONTINUOUS
70
0
71
3
72
13
73
9
74
7
42
0.0000001000
43
0.0000001000
44
0.0000000001
12
1.7385809673
22
3.5206273138
32
0.0000000000
13
-1.7372609450
23
3.5212730792
33
0.0000000000
40
0.0000000000
40
0.0000000000
40
0.0000000000
40
0.0000000000
40
0.0714338183
40
0.2857519193
40
0.5000645606
40
0.7143491313
40
0.9285948999
40
1.0000000000
40
1.0000000000
40
1.0000000000
40
1.0000000000
10
30.0251388795
20
-14.7900921346
30
0.0000000000
10
30.0665367051
20
-14.7062615174
30
0.0000000000
10
30.2211657814
20
-14.3655032167
30
0.0000000000
10
30.4123068840
20
-13.7362225253
30
0.0000000000
10
30.4953567683
20
-12.8947694282
30
0.0000000000
10
30.4125421542
20
-12.0533901951
30
0.0000000000
10
30.2216491415
20
-11.4242147073
30
0.0000000000
10
30.0671980347
20
-11.0835217032
30
0.0000000000
10
30.0258482709
20
-10.9997094177
30
0.0000000000
11
30.0251388795
21
-14.7900921346
31
0.0000000000
11
30.1410092384
21
-14.5347154545
31
0.0000000000
11
30.3851914029
21
-13.7308137289
31
0.0000000000
11
30.4677119753
21
-12.8947292209
31
0.0000000000
11
30.3854266573
21
-12.0587321008
31
0.0000000000
11
30.1415797364
21
-11.2550249388
31
0.0000000000
11
30.0258482709
21
-10.9997094177
31
0.0000000000
0
SPLINE
5
288
100
AcDbEntity
8
0
100
AcDbSpline
62
0
6
CONTINUOUS
70
0
71
3
72
8
73
4
74
2
42
0.0000001000
43
0.0000001000
44
0.0000000001
12
-0.0545377877
22
0.1105432342
32
0.0000000000
13
-0.0576926425
23
0.1089302969
33
0.0000000000
40
0.0000000000
40
0.0000000000
40
0.0000000000
40
0.0000000000
40
1.0000000000
40
1.0000000000
40
1.0000000000
40
1.0000000000
10
30.0258482709
20
-10.9997094177
30
0.0000000000
10
30.0076690083
20
-10.9628616730
30
0.0000000000
10
29.9889599210
20
-10.9262752315
30
0.0000000000
10
29.9697290401
20
-10.8899651325
30
0.0000000000
11
30.0258482709
21
-10.9997094177
31
0.0000000000
11
29.9697290401
21
-10.8899651325
31
0.0000000000
0
SPLINE
5
289
100
AcDbEntity
8
0
100
AcDbSpline
62
0
6
CONTINUOUS
70
0
71
3
72
13
73
9
74
7
42
0.0000001000
43
0.0000001000
44
0.0000000001
12
-2.2417484054
22
3.8819013629
32
0.0000000000
13
-4.4754929216
23
0.0002604198
33
0.0000000000
40
0.0000000000
40
0.0000000000
40
0.0000000000
40
0.0000000000
40
0.0625385345
40
0.2501398191
40
0.4376862857
40
0.6253143268
40
0.8130622833
40
1.0000000000
40
1.0000000000
40
1.0000000000
40
1.0000000000
10
29.8936807562
20
-10.7525235104
30
0.0000000000
10
29.8469488696
20
-10.6716007029
30
0.0000000000
10
29.6494485589
20
-10.3540416742
30
0.0000000000
10
29.2324437130
20
-9.8461275529
30
0.0000000000
10
28.5791612552
20
-9.3102288744
30
0.0000000000
10
27.8335715399
20
-8.9120231512
30
0.0000000000
10
27.0257696100
20
-8.6673090730
30
0.0000000000
10
26.4652662963
20
-8.6123622837
30
0.0000000000
10
26.1863868203
20
-8.6123460563
30
0.0000000000
11
29.8936807562
21
-10.7525235104
31
0.0000000000
11
29.7456415214
21
-10.5145175236
31
0.0000000000
11
29.2128711930
21
-9.8655970779
31
0.0000000000
11
28.5639108415
21
-9.3332621130
31
0.0000000000
11
27.8232199882
21
-8.9376358682
31
0.0000000000
11
27.0190211116
21
-8.6941017808
31
0.0000000000
11
26.1863868203
21
-8.6123460563
31
0.0000000000
0
SPLINE
5
28A
100
AcDbEntity
8
0
100
AcDbSpline
62
9
6
CONTINUOUS
70
0
71
3
72
23
73
19
74
17
42
0.0000001000
43
0.0000001000
44
0.0000000001
12
13.1179636262
22
0.0017087169
32
0.0000000000
13
-13.1179636470
23
0.0015411171
33
0.0000000000
40
0.0000000000
40
0.0000000000
40
0.0000000000
40
0.0000000000
40
0.0622074724
40
0.1246799576
40
0.1871920199
40
0.2496962975
40
0.3122415340
40
0.3748053380
40
0.4373808886
40
0.4999567039
40
0.5625246426
40
0.6250798573
40
0.6876187878
40
0.7501454546
40
0.8126491694
40
0.8751757412
40
0.9377386516
40
1.0000000000
40
1.0000000000
40
1.0000000000
40
1.0000000000
10
26.1863868203
20
-17.0817628926
30
0.0000000000
10
26.4583986072
20
-17.0817274609
30
0.0000000000
10
27.0050778326
20
-17.0282254537
30
0.0000000000
10
27.7933360057
20
-16.7896563412
30
0.0000000000
10
28.5213674218
20
-16.4012258968
30
0.0000000000
10
29.1597382486
20
-15.8779691947
30
0.0000000000
10
29.6838864357
20
-15.2400098393
30
0.0000000000
10
30.0735559894
20
-14.5117276680
30
0.0000000000
10
30.3136014927
20
-13.7212604507
30
0.0000000000
10
30.3947304438
20
-12.8991250496
30
0.0000000000
10
30.3138449439
20
-12.0770569851
30
0.0000000000
10
30.0741290379
20
-11.2867375186
30
0.0000000000
10
29.6848856093
20
-10.5585507383
30
0.0000000000
10
29.1611625942
20
-9.9204968983
30
0.0000000000
10
28.5230677334
20
-9.3969359939
30
0.0000000000
10
27.7948175241
20
-9.0079359202
30
0.0000000000
10
27.0059475412
20
-8.7689207223
30
0.0000000000
10
26.4586341887
20
-8.7153032482
30
0.0000000000
10
26.1863868203
20
-8.7152712642
30
0.0000000000
11
26.1863868203
21
-17.0817628926
31
0.0000000000
11
26.9985246168
21
-17.0021016048
31
0.0000000000
11
27.7829303931
21
-16.7648103063
31
0.0000000000
11
28.5064082314
21
-16.3787654873
31
0.0000000000
11
29.1405488402
21
-15.8590068871
31
0.0000000000
11
29.6613974464
21
-15.2250657042
31
0.0000000000
11
30.0485891774
21
-14.5014311303
31
0.0000000000
11
30.2871132003
21
-13.7159862413
31
0.0000000000
11
30.3677271080
21
-12.8990869317
31
0.0000000000
11
30.2873564970
21
-12.0822674724
31
0.0000000000
11
30.0491689934
21
-11.2969992308
31
0.0000000000
11
29.6624212169
21
-10.5734972485
31
0.0000000000
11
29.1420249393
21
-9.9394998178
31
0.0000000000
11
28.5081494608
21
-9.4194295480
31
0.0000000000
11
27.7846889328
21
-9.0329481797
31
0.0000000000
11
26.9992211773
21
-8.7950709130
31
0.0000000000
11
26.1863868203
21
-8.7152712642
31
0.0000000000
0
SPLINE
5
28B
100
AcDbEntity
8
0
100
AcDbSpline
62
9
6
CONTINUOUS
70
0
71
3
72
23
73
19
74
17
42
0.0000001000
43
0.0000001000
44
0.0000000001
12
-13.1179636404
22
-0.0017022726
32
0.0000000000
13
13.1179636598
23
-0.0015456442
33
0.0000000000
40
0.0000000000
40
0.0000000000
40
0.0000000000
40
0.0000000000
40
0.0622698927
40
0.1247866899
40
0.1873155607
40
0.2498150272
40
0.3123394213
40
0.3748754648
40
0.4374279856
40
0.4999940621
40
0.5625691225
40
0.6251447923
40
0.6877089357
40
0.7502540253
40
0.8127599183
40
0.8752671755
40
0.9377926844
40
1.0000000000
40
1.0000000000
40
1.0000000000
40
1.0000000000
10
21.9863868203
20
-8.7152712642
30
0.0000000000
10
21.7141020910
20
-8.7153065977
30
0.0000000000
10
21.1669516857
20
-8.7689090652
30
0.0000000000
10
20.3782302174
20
-9.0078482553
30
0.0000000000
10
19.6501186871
20
-9.3966610385
30
0.0000000000
10
19.0119784436
20
-9.9201361817
30
0.0000000000
10
18.4881994676
20
-10.5580899120
30
0.0000000000
10
18.0988735993
20
-11.2861929419
30
0.0000000000
10
17.8590525850
20
-12.0764457662
30
0.0000000000
10
17.7780442792
20
-12.8984779545
30
0.0000000000
10
17.8590436153
20
-13.7206149417
30
0.0000000000
10
18.0989642556
20
-14.5111187706
30
0.0000000000
10
18.4885206712
20
-15.2394630120
30
0.0000000000
10
19.0125734182
20
-15.8775111342
30
0.0000000000
10
19.6508539290
20
-16.4008553240
30
0.0000000000
10
20.3790132508
20
-16.7895087219
30
0.0000000000
10
21.1674660693
20
-17.0281999266
30
0.0000000000
10
21.7143757186
20
-17.0817308425
30
0.0000000000
10
21.9863868203
20
-17.0817628926
30
0.0000000000
11
21.9863868203
21
-8.7152712642
31
0.0000000000
11
21.1734419536
21
-8.7950924326
31
0.0000000000
11
20.3885431178
21
-9.0327612707
31
0.0000000000
11
19.6650108982
21
-9.4191724329
31
0.0000000000
11
19.0311174859
21
-9.9391329771
31
0.0000000000
11
18.5106586988
21
-10.5730405203
31
0.0000000000
11
18.1238302215
21
-11.2964564125
31
0.0000000000
11
17.8855390445
21
-12.0816562720
31
0.0000000000
11
17.8050464848
21
-12.8984391771
31
0.0000000000
11
17.8855317009
21
-13.7153412272
31
0.0000000000
11
18.1239325627
21
-14.5008251428
31
0.0000000000
11
18.5110130775
21
-15.2245242625
31
0.0000000000
11
19.0317611543
21
-15.8585455338
31
0.0000000000
11
19.6658383533
21
-16.3784149132
31
0.0000000000
11
20.3891984276
21
-16.7645465194
31
0.0000000000
11
21.1742510877
21
-17.0021016341
31
0.0000000000
11
21.9863868203
21
-17.0817628926
31
0.0000000000
0
SPLINE
5
28C
100
AcDbEntity
8
ASSI
100
AcDbSpline
62
9
6
CONTINUOUS
70
0
71
3
72
26
73
22
74
20
42
0.0000001000
43
0.0000001000
44
0.0000000001
12
0.0000000000
22
-4.1871041798
32
-0.1606343616
13
-0.0000000000
23
-3.5381650738
33
-0.1719037707
40
0.0000000000
40
0.0000000000
40
0.0000000000
40
0.0000000000
40
0.2500000000
40
0.3750000000
40
0.5000000000
40
0.5625000000
40
0.6250000000
40
0.6562500000
40
0.6875000000
40
0.7187500000
40
0.7343750000
40
0.7421875000
40
0.7500000000
40
0.7578125000
40
0.7656250000
40
0.7812500000
40
0.8125000000
40
0.8437500000
40
0.8750000000
40
0.9375000000
40
1.0000000000
40
1.0000000000
40
1.0000000000
40
1.0000000000
10
23.9269138203
20
-10.8722045389
30
4.2490221527
10
23.9269138203
20
-11.2211298872
30
4.2356359559
10
23.9269138203
20
-11.7445695687
30
4.2168272171
10
23.9269138203
20
-12.4422825079
30
4.1866666732
10
23.9269138203
20
-12.8784171946
30
4.1692700889
10
23.9269138203
20
-13.2272227636
30
4.1531343642
10
23.9269138203
20
-13.4452505080
30
4.1433023620
10
23.9269138203
20
-13.6196400156
30
4.1353845927
10
23.9269138203
20
-13.7505156515
30
4.1294510731
10
23.9269138203
20
-13.8593139509
30
4.1245121852
10
23.9269138203
20
-13.9359921611
30
4.1210408657
10
23.9269138203
20
-13.9789972994
30
4.1190797089
10
23.9269138203
20
-14.0135356984
30
4.1175455063
10
23.9269138203
20
-14.0393414071
30
4.1162534167
10
23.9269138203
20
-14.0767950789
30
4.1144461789
10
23.9269138203
20
-14.1409197885
30
4.1113228604
10
23.9269138203
20
-14.2332685008
30
4.1068404052
10
23.9269138203
20
-14.3437693534
30
4.1014702646
10
23.9269138203
20
-14.4912148017
30
4.0943070002
10
23.9269138203
20
-14.6754832808
30
4.0853539825
10
23.9269138203
20
-14.8229097461
30
4.0781912444
10
23.9269138203
20
-14.8966215184
30
4.0746099158
11
23.9269138203
21
-10.8722045389
31
4.2490221527
11
23.9269138203
21
-11.9189805838
31
4.2088635623
11
23.9269138203
21
-12.4422953278
31
4.1869574243
11
23.9269138203
21
-12.9656100718
31
4.1650512863
11
23.9269138203
21
-13.2272276164
31
4.1531849293
11
23.9269138203
21
-13.4888451609
31
4.1413185724
11
23.9269138203
21
-13.6196539332
31
4.1353853939
11
23.9269138203
21
-13.7504627054
31
4.1294522154
11
23.9269138203
21
-13.8812714777
31
4.1235190370
11
23.9269138203
21
-13.9466758638
31
4.1205524477
11
23.9269138203
21
-13.9793780569
31
4.1190691531
11
23.9269138203
21
-14.0120802500
31
4.1175858585
11
23.9269138203
21
-14.0397221646
31
4.1162428603
11
23.9269138203
21
-14.0673640793
31
4.1148998621
11
23.9269138203
21
-14.1226479085
31
4.1122138657
11
23.9269138203
21
-14.2332155671
31
4.1068418728
11
23.9269138203
21
-14.3437832256
31
4.1014698800
11
23.9269138203
21
-14.4543508842
31
4.0960978872
11
23.9269138203
21
-14.6754862013
31
4.0853539015
11
23.9269138203
21
-14.8966215184
31
4.0746099158
0
SPLINE
5
28D
100
AcDbEntity
8
ASSI
100
AcDbSpline
62
9
6
CONTINUOUS
70
0
71
3
72
29
73
25
74
23
42
0.0000001000
43
0.0000001000
44
0.0000000001
12
0.0000000000
22
3.1390546746
32
0.1500365146
13
0.0000000000
23
4.8645589593
33
0.1938121315
40
0.0000000000
40
0.0000000000
40
0.0000000000
40
0.0000000000
40
0.1250000000
40
0.2500000000
40
0.3750000000
40
0.4375000000
40
0.5000000000
40
0.5625000000
40
0.5937500000
40
0.6250000000
40
0.6406250000
40
0.6562500000
40
0.6640625000
40
0.6679687500
40
0.6718750000
40
0.6796875000
40
0.6875000000
40
0.7031250000
40
0.7187500000
40
0.7500000000
40
0.7812500000
40
0.8125000000
40
0.8750000000
40
1.0000000000
40
1.0000000000
40
1.0000000000
40
1.0000000000
10
24.0909918203
20
-14.7416085389
30
4.0823304009
10
24.0909918203
20
-14.6108145941
30
4.0885819223
10
24.0909918203
20
-14.3492262495
30
4.1010732512
10
24.0909918203
20
-13.9568464628
30
4.1198805288
10
24.0909918203
20
-13.6298553443
30
4.1353482641
10
24.0909918203
20
-13.3682171204
30
4.1468095181
10
24.0909918203
20
-13.1720030671
30
4.1555276939
10
24.0909918203
20
-13.0084615276
30
4.1627657789
10
24.0909918203
20
-12.8776925770
30
4.1685600768
10
24.0909918203
20
-12.7958161945
30
4.1721854689
10
24.0909918203
20
-12.7306489105
30
4.1750753309
10
24.0909918203
20
-12.6891576972
30
4.1769056460
10
24.0909918203
20
-12.6616403119
30
4.1781384351
10
24.0909918203
20
-12.6435277945
30
4.1789186659
10
24.0909918203
20
-12.6164182094
30
4.1799843718
10
24.0909918203
20
-12.5856118071
30
4.1812187581
10
24.0909918203
20
-12.5345999922
30
4.1832484012
10
24.0909918203
20
-12.4714246919
30
4.1857667513
10
24.0909918203
20
-12.3700147571
30
4.1898065651
10
24.0909918203
20
-12.2433653719
30
4.1948527459
10
24.0909918203
20
-12.0913377315
30
4.2009096978
10
24.0909918203
20
-11.8886510905
30
4.2089850980
10
24.0909918203
20
-11.5339415564
30
4.2231172996
10
24.0909918203
20
-11.2299075257
30
4.2352305291
10
24.0909918203
20
-11.0272175691
30
4.2433060346
11
24.0909918203
21
-14.7416085389
31
4.0823304009
11
24.0909918203
21
-14.3492267046
31
4.1010849652
11
24.0909918203
21
-13.9568448702
31
4.1198395295
11
24.0909918203
21
-13.5644420109
31
4.1381374997
11
24.0909918203
21
-13.3682195562
31
4.1468298907
11
24.0909918203
21
-13.1719971014
31
4.1555222816
11
24.0909918203
21
-12.9757746467
31
4.1642146725
11
24.0909918203
21
-12.8776634193
31
4.1685608680
11
24.0909918203
21
-12.7795521920
31
4.1729070635
11
24.0909918203
21
-12.7304965783
31
4.1750801612
11
24.0909918203
21
-12.6814409646
31
4.1772532589
11
24.0909918203
21
-12.6569131578
31
4.1783398078
11
24.0909918203
21
-12.6424031610
31
4.1789543503
11
24.0909918203
21
-12.6234009776
31
4.1797114289
11
24.0909918203
21
-12.5853966107
31
4.1812255862
11
24.0909918203
21
-12.5473922438
31
4.1827397435
11
24.0909918203
21
-12.4713835101
31
4.1857680580
11
24.0909918203
21
-12.3953747764
31
4.1887963726
11
24.0909918203
21
-12.2433573089
31
4.1948530017
11
24.0909918203
21
-12.0913398414
31
4.2009096308
11
24.0909918203
21
-11.9393223739
31
4.2069662599
11
24.0909918203
21
-11.6352874390
31
4.2190795181
11
24.0909918203
21
-11.0272175691
31
4.2433060346
0
SPLINE
5
28E
100
AcDbEntity
8
ASSI
100
AcDbSpline
62
9
6
CONTINUOUS
70
0
71
3
72
26
73
22
74
20
42
0.0000001000
43
0.0000001000
44
0.0000000001
12
0.0000000000
22
4.1853022123
32
0.2022132597
13
0.0000000000
23
3.5397712131
33
0.1348434445
40
0.0000000000
40
0.0000000000
40
0.0000000000
40
0.0000000000
40
0.2500000000
40
0.3750000000
40
0.5000000000
40
0.5625000000
40
0.6250000000
40
0.6562500000
40
0.6875000000
40
0.7187500000
40
0.7343750000
40
0.7421875000
40
0.7500000000
40
0.7578125000
40
0.7656250000
40
0.7812500000
40
0.8125000000
40
0.8437500000
40
0.8750000000
40
0.9375000000
40
1.0000000000
40
1.0000000000
40
1.0000000000
40
1.0000000000
10
24.2583628203
20
-14.8966215389
30
4.0746099148
10
24.2583628203
20
-14.5478463545
30
4.0914610198
10
24.2583628203
20
-14.0247420342
30
4.1180079390
10
24.2583628203
20
-13.3270357823
30
4.1483227842
10
24.2583628203
20
-12.8910312864
30
4.1687234130
10
24.2583628203
20
-12.5421375581
30
4.1828249365
10
24.2583628203
20
-12.3240766783
30
4.1918923657
10
24.2583628203
20
-12.1496560264
30
4.1990915090
10
24.2583628203
20
-12.0187577614
30
4.2045028804
10
24.2583628203
20
-11.9099401059
30
4.2089951438
10
24.2583628203
20
-11.8332490743
30
4.2121706188
10
24.2583628203
20
-11.7902355114
30
4.2139373844
10
24.2583628203
20
-11.7556938803
30
4.2153970074
10
24.2583628203
20
-11.7298731432
30
4.2163423311
10
24.2583628203
20
-11.6924035483
30
4.2177821560
10
24.2583628203
20
-11.6282490561
30
4.2202182670
10
24.2583628203
20
-11.5358587996
30
4.2237421236
10
24.2583628203
20
-11.4253076649
30
4.2279520468
10
24.2583628203
20
-11.2777953237
30
4.2335718136
10
24.2583628203
20
-11.0934431767
30
4.2405942647
10
24.2583628203
20
-10.9459497930
30
4.2462129135
10
24.2583628203
20
-10.8722045594
30
4.2490221520
11
24.2583628203
21
-14.8966215389
31
4.0746099148
11
24.2583628203
21
-13.8502959858
31
4.1251632297
11
24.2583628203
21
-13.3270481646
31
4.1486135543
11
24.2583628203
21
-12.8038003433
31
4.1720638789
11
24.2583628203
21
-12.5421370982
31
4.1828757319
11
24.2583628203
21
-12.2804738530
31
4.1936875849
11
24.2583628203
21
-12.1496422304
31
4.1990935113
11
24.2583628203
21
-12.0188106078
31
4.2044994378
11
24.2583628203
21
-11.8879789852
31
4.2099053643
11
24.2583628203
21
-11.8225631739
31
4.2126083276
11
24.2583628203
21
-11.7898552683
31
4.2139598092
11
24.2583628203
21
-11.7571473626
31
4.2153112908
11
24.2583628203
21
-11.7294929000
31
4.2163647552
11
24.2583628203
21
-11.7018384374
31
4.2174182196
11
24.2583628203
21
-11.6465295122
31
4.2195251485
11
24.2583628203
21
-11.5359116618
31
4.2237390061
11
24.2583628203
21
-11.4252938114
31
4.2279528637
11
24.2583628203
21
-11.3146759610
31
4.2321667214
11
24.2583628203
21
-11.0934402602
31
4.2405944367
11
24.2583628203
21
-10.8722045594
31
4.2490221520
0
SPLINE
5
28F
100
AcDbEntity
8
0
100
AcDbSpline
62
0
6
CONTINUOUS
70
0
71
3
72
9
73
5
74
3
42
0.0000001000
43
0.0000001000
44
0.0000000001
12
-0.0212091994
22
0.0436162490
32
0.0000000000
13
-0.0206767351
23
0.0438711744
33
0.0000000000
40
0.0000000000
40
0.0000000000
40
0.0000000000
40
0.0000000000
40
0.4999975776
40
1.0000000000
40
1.0000000000
40
1.0000000000
40
1.0000000000
10
18.5194912674
20
-15.4347598706
30
0.0000000000
10
18.5159564180
20
-15.4274905310
30
0.0000000000
10
18.5089309235
20
-15.4129302279
30
0.0000000000
10
18.5019941744
20
-15.3983274367
30
0.0000000000
10
18.4985480352
20
-15.3910155389
30
0.0000000000
11
18.5194912674
21
-15.4347598706
31
0.0000000000
11
18.5089531437
21
-15.4129196765
31
0.0000000000
11
18.4985480352
21
-15.3910155389
31
0.0000000000
0
SPLINE
5
290
100
AcDbEntity
8
0
100
AcDbSpline
62
0
6
CONTINUOUS
70
0
71
3
72
8
73
4
74
2
42
0.0000001000
43
0.0000001000
44
0.0000000001
12
-0.2788631782
22
-0.0000179678
32
0.0000000000
13
-0.2786740195
23
-0.0182255256
33
0.0000000000
40
0.0000000000
40
0.0000000000
40
0.0000000000
40
0.0000000000
40
1.0000000000
40
1.0000000000
40
1.0000000000
40
1.0000000000
10
21.9863868203
20
-8.6123460563
30
0.0000000000
10
21.8934324276
20
-8.6123520455
30
0.0000000000
10
21.8003928393
20
-8.6154015749
30
0.0000000000
10
21.7075014994
20
-8.6214767501
30
0.0000000000
11
21.9863868203
21
-8.6123460563
31
0.0000000000
11
21.7075014994
21
-8.6214767501
31
0.0000000000
0
SPLINE
5
291
100
AcDbEntity
8
0
100
AcDbSpline
62
0
6
CONTINUOUS
70
0
71
3
72
11
73
7
74
5
42
0.0000001000
43
0.0000001000
44
0.0000000001
12
-3.0746715049
22
-0.2010862166
32
0.0000000000
13
-2.1797389344
23
-2.1783929234
33
0.0000000000
40
0.0000000000
40
0.0000000000
40
0.0000000000
40
0.0000000000
40
0.1813572164
40
0.4542627545
40
0.7272050057
40
1.0000000000
40
1.0000000000
40
1.0000000000
40
1.0000000000
10
21.7075014994
20
-8.6214767501
30
0.0000000000
10
21.5216302110
20
-8.6336328956
30
0.0000000000
10
21.0575473741
20
-8.6944249763
30
0.0000000000
10
20.3393674757
20
-8.9119747730
30
0.0000000000
10
19.5939169529
20
-9.3100248926
30
0.0000000000
10
19.1583742882
20
-9.6672477747
30
0.0000000000
10
18.9601669981
20
-9.8653326697
30
0.0000000000
11
21.7075014994
21
-8.6214767501
31
0.0000000000
11
21.1535385386
21
-8.6941442197
31
0.0000000000
11
20.3499093654
21
-8.9374886924
31
0.0000000000
11
19.6091416321
21
-9.3330759152
31
0.0000000000
11
18.9601669981
21
-9.8653326697
31
0.0000000000
0
SPLINE
5
292
100
AcDbEntity
8
0
100
AcDbSpline
62
0
6
CONTINUOUS
70
0
71
3
72
8
73
4
74
2
42
0.0000001000
43
0.0000001000
44
0.0000000001
12
-0.5948151148
22
-0.5944478104
32
0.0000000000
13
-0.4673860533
23
-0.6990951908
33
0.0000000000
40
0.0000000000
40
0.0000000000
40
0.0000000000
40
0.0000000000
40
1.0000000000
40
1.0000000000
40
1.0000000000
40
1.0000000000
10
18.9601669981
20
-9.8653326697
30
0.0000000000
10
18.7618952932
20
-10.0634819398
30
0.0000000000
10
18.5831415491
20
-10.2811655495
30
0.0000000000
10
18.4273461980
20
-10.5141972798
30
0.0000000000
11
18.9601669981
21
-9.8653326697
31
0.0000000000
11
18.4273461980
21
-10.5141972798
31
0.0000000000
0
SPLINE
5
293
100
AcDbEntity
8
0
100
AcDbSpline
62
0
6
CONTINUOUS
70
0
71
3
72
8
73
4
74
2
42
0.0000001000
43
0.0000001000
44
0.0000000001
12
-0.1558060873
22
-0.2330477890
32
0.0000000000
13
-0.1402149236
23
-0.2427505848
33
0.0000000000
40
0.0000000000
40
0.0000000000
40
0.0000000000
40
0.0000000000
40
1.0000000000
40
1.0000000000
40
1.0000000000
40
1.0000000000
10
18.4273461980
20
-10.5141972798
30
0.0000000000
10
18.3754108356
20
-10.5918798761
30
0.0000000000
10
18.3260267573
20
-10.6712680542
30
0.0000000000
10
18.2792884494
20
-10.7521849158
30
0.0000000000
11
18.4273461980
21
-10.5141972798
31
0.0000000000
11
18.2792884494
21
-10.7521849158
31
0.0000000000
0
SPLINE
5
294
100
AcDbEntity
8
0
100
AcDbSpline
62
0
6
CONTINUOUS
70
0
71
3
72
8
73
4
74
2
42
0.0000001000
43
0.0000001000
44
0.0000000001
12
-0.0787657507
22
-0.1363651711
32
0.0000000000
13
-0.0737060560
23
-0.1391654737
33
0.0000000000
40
0.0000000000
40
0.0000000000
40
0.0000000000
40
0.0000000000
40
1.0000000000
40
1.0000000000
40
1.0000000000
40
1.0000000000
10
18.2792884494
20
-10.7521849158
30
0.0000000000
10
18.2530331992
20
-10.7976399729
30
0.0000000000
10
18.2276128567
20
-10.8435774262
30
0.0000000000
10
18.2030441714
20
-10.8899659174
30
0.0000000000
11
18.2792884494
21
-10.7521849158
31
0.0000000000
11
18.2030441714
21
-10.8899659174
31
0.0000000000
0
SPLINE
5
295
100
AcDbEntity
8
0
100
AcDbSpline
62
0
6
CONTINUOUS
70
0
71
3
72
8
73
4
74
2
42
0.0000001000
43
0.0000001000
44
0.0000000001
12
-0.1887282357
22
-0.3563405201
32
0.0000000000
13
-0.1543816853
23
-0.3725043713
33
0.0000000000
40
0.0000000000
40
0.0000000000
40
0.0000000000
40
0.0000000000
40
1.0000000000
40
1.0000000000
40
1.0000000000
40
1.0000000000
10
18.2030441714
20
-10.8899659174
30
0.0000000000
10
18.1401347595
20
-11.0087460908
30
0.0000000000
10
18.0828091779
20
-11.1304834626
30
0.0000000000
10
18.0313486161
20
-11.2546515863
30
0.0000000000
11
18.2030441714
21
-10.8899659174
31
0.0000000000
11
18.0313486161
21
-11.2546515863
31
0.0000000000
0
SPLINE
5
296
100
AcDbEntity
8
0
100
AcDbSpline
62
0
6
CONTINUOUS
70
0
71
3
72
11
73
7
74
5
42
0.0000001000
43
0.0000001000
44
0.0000000001
12
-1.2885470429
22
-3.1091084749
32
0.0000000000
13
1.2889928630
23
-3.1089283723
33
0.0000000000
40
0.0000000000
40
0.0000000000
40
0.0000000000
40
0.0000000000
40
0.2499481875
40
0.4999414317
40
0.7499675550
40
1.0000000000
40
1.0000000000
40
1.0000000000
40
1.0000000000
10
18.0313486161
20
-11.2546515863
30
0.0000000000
10
17.9239919501
20
-11.5136902624
30
0.0000000000
10
17.7603153628
20
-12.0529744610
30
0.0000000000
10
17.6774179893
20
-12.8943278502
30
0.0000000000
10
17.7603781967
20
-13.7357719629
30
0.0000000000
10
17.9241529631
20
-14.2751669509
30
0.0000000000
10
18.0315829754
20
-14.5342779383
30
0.0000000000
11
18.0313486161
21
-11.2546515863
31
0.0000000000
11
17.7874291674
21
-12.0583190418
31
0.0000000000
11
17.7050616317
21
-12.8942903312
31
0.0000000000
11
17.7874931379
21
-13.7303663304
31
0.0000000000
11
18.0315829754
21
-14.5342779383
31
0.0000000000
0
SPLINE
5
297
100
AcDbEntity
8
0
100
AcDbSpline
62
0
6
CONTINUOUS
70
0
71
3
72
8
73
4
74
2
42
0.0000001000
43
0.0000001000
44
0.0000000001
12
0.1074219683
22
-0.2590915858
32
0.0000000000
13
0.1241631406
23
-0.2515012221
33
0.0000000000
40
0.0000000000
40
0.0000000000
40
0.0000000000
40
0.0000000000
40
1.0000000000
40
1.0000000000
40
1.0000000000
40
1.0000000000
10
18.0315829754
20
-14.5342779383
30
0.0000000000
10
18.0673902982
20
-14.6206418002
30
0.0000000000
10
18.1060351508
20
-14.7058291810
30
0.0000000000
10
18.1474228644
20
-14.7896629217
30
0.0000000000
11
18.0315829754
21
-14.5342779383
31
0.0000000000
11
18.1474228644
21
-14.7896629217
31
0.0000000000
0
SPLINE
5
298
100
AcDbEntity
8
0
100
AcDbSpline
62
0
6
CONTINUOUS
70
0
71
3
72
8
73
4
74
2
42
0.0000001000
43
0.0000001000
44
0.0000000001
12
0.0508872636
22
-0.1030757512
32
0.0000000000
13
0.0536320292
23
-0.1016749346
33
0.0000000000
40
0.0000000000
40
0.0000000000
40
0.0000000000
40
0.0000000000
40
1.0000000000
40
1.0000000000
40
1.0000000000
40
1.0000000000
10
18.1474228644
20
-14.7896629217
30
0.0000000000
10
18.1643852856
20
-14.8240215054
30
0.0000000000
10
18.1818084263
20
-14.8581527177
30
0.0000000000
10
18.1996857693
20
-14.8920443625
30
0.0000000000
11
18.1474228644
21
-14.7896629217
31
0.0000000000
11
18.1996857693
21
-14.8920443625
31
0.0000000000
0
SPLINE
5
299
100
AcDbEntity
8
0
100
AcDbSpline
62
0
6
CONTINUOUS
70
0
71
3
72
8
73
4
74
2
42
0.0000001000
43
0.0000001000
44
0.0000000001
12
0.0772211037
22
-0.1463948090
32
0.0000000000
13
0.0828124283
23
-0.1433056922
33
0.0000000000
40
0.0000000000
40
0.0000000000
40
0.0000000000
40
0.0000000000
40
1.0000000000
40
1.0000000000
40
1.0000000000
40
1.0000000000
10
18.1996857693
20
-14.8920443625
30
0.0000000000
10
18.2254261372
20
-14.9408426322
30
0.0000000000
10
18.2521081192
20
-14.9891442510
30
0.0000000000
10
18.2797122619
20
-15.0369128151
30
0.0000000000
11
18.1996857693
21
-14.8920443625
31
0.0000000000
11
18.2797122619
21
-15.0369128151
31
0.0000000000
0
SPLINE
5
29A
100
AcDbEntity
8
0
100
AcDbSpline
62
0
6
CONTINUOUS
70
0
71
3
72
8
73
4
74
2
42
0.0000001000
43
0.0000001000
44
0.0000000001
12
0.1403179760
22
-0.2428181990
32
0.0000000000
13
0.1559193044
23
-0.2331044690
33
0.0000000000
40
0.0000000000
40
0.0000000000
40
0.0000000000
40
0.0000000000
40
1.0000000000
40
1.0000000000
40
1.0000000000
40
1.0000000000
10
18.2797122619
20
-15.0369128151
30
0.0000000000
10
18.3264849206
20
-15.1178522147
30
0.0000000000
10
18.3759051175
20
-15.1972612058
30
0.0000000000
10
18.4278782190
20
-15.2749626955
30
0.0000000000
11
18.2797122619
21
-15.0369128151
31
0.0000000000
11
18.4278782190
21
-15.2749626955
31
0.0000000000
0
SPLINE
5
29B
100
AcDbEntity
8
0
100
AcDbSpline
62
0
6
CONTINUOUS
70
0
71
3
72
8
73
4
74
2
42
0.0000001000
43
0.0000001000
44
0.0000000001
12
0.1559102649
22
-0.2330909547
32
0.0000000000
13
0.1708430704
23
-0.2223815351
33
0.0000000000
40
0.0000000000
40
0.0000000000
40
0.0000000000
40
0.0000000000
40
1.0000000000
40
1.0000000000
40
1.0000000000
40
1.0000000000
10
18.4278782190
20
-15.2749626955
30
0.0000000000
10
18.4798483073
20
-15.3526596804
30
0.0000000000
10
18.5343710041
20
-15.4286493618
30
0.0000000000
10
18.5913186943
20
-15.5027765402
30
0.0000000000
11
18.4278782190
21
-15.2749626955
31
0.0000000000
11
18.5913186943
21
-15.5027765402
31
0.0000000000
0
SPLINE
5
29C
100
AcDbEntity
8
0
100
AcDbSpline
62
0
6
CONTINUOUS
70
0
71
3
72
8
73
4
74
2
42
0.0000001000
43
0.0000001000
44
0.0000000001
12
0.2782310073
22
-0.0181672153
32
0.0000000000
13
0.2784192419
23
-0.0000162673
33
0.0000000000
40
0.0000000000
40
0.0000000000
40
0.0000000000
40
0.0000000000
40
1.0000000000
40
1.0000000000
40
1.0000000000
40
1.0000000000
10
21.7079455636
20
-17.1669186361
30
0.0000000000
10
21.8006892327
20
-17.1729743745
30
0.0000000000
10
21.8935804063
20
-17.1760139000
30
0.0000000000
10
21.9863868203
20
-17.1760193224
30
0.0000000000
11
21.7079455636
21
-17.1669186361
31
0.0000000000
11
21.9863868203
21
-17.1760193224
31
0.0000000000
0
SPLINE
5
29D
100
AcDbEntity
8
0
100
AcDbSpline
62
0
6
CONTINUOUS
70
0
71
3
72
9
73
5
74
3
42
0.0000001000
43
0.0000001000
44
0.0000000001
12
-0.0206767351
22
-0.0438711744
32
0.0000000000
13
-0.0212091994
23
-0.0436162490
33
0.0000000000
40
0.0000000000
40
0.0000000000
40
0.0000000000
40
0.0000000000
40
0.5000024224
40
1.0000000000
40
1.0000000000
40
1.0000000000
40
1.0000000000
10
29.6742256054
20
-15.3910155389
30
0.0000000000
10
29.6707794661
20
-15.3983274367
30
0.0000000000
10
29.6638427170
20
-15.4129302279
30
0.0000000000
10
29.6568172226
20
-15.4274905310
30
0.0000000000
10
29.6532823732
20
-15.4347598706
30
0.0000000000
11
29.6742256054
21
-15.3910155389
31
0.0000000000
11
29.6638204969
21
-15.4129196765
31
0.0000000000
11
29.6532823732
21
-15.4347598706
31
0.0000000000
0
SPLINE
5
29E
100
AcDbEntity
8
0
100
AcDbSpline
62
0
6
CONTINUOUS
70
0
71
3
72
8
73
4
74
2
42
0.0000001000
43
0.0000001000
44
0.0000000001
12
0.2785429938
22
0.0000180360
32
0.0000000000
13
0.2783545131
23
0.0181835943
33
0.0000000000
40
0.0000000000
40
0.0000000000
40
0.0000000000
40
0.0000000000
40
1.0000000000
40
1.0000000000
40
1.0000000000
40
1.0000000000
10
26.1863868203
20
-17.1760193224
30
0.0000000000
10
26.2792344849
20
-17.1760133104
30
0.0000000000
10
26.3721670510
20
-17.1729708060
30
0.0000000000
10
26.4649518886
20
-17.1669096079
30
0.0000000000
11
26.1863868203
21
-17.1760193224
31
0.0000000000
11
26.4649518886
21
-17.1669096079
31
0.0000000000
0
SPLINE
5
29F
100
AcDbEntity
8
0
100
AcDbSpline
62
0
6
CONTINUOUS
70
0
71
3
72
8
73
4
74
2
42
0.0000001000
43
0.0000001000
44
0.0000000001
12
0.1708735037
22
0.2223677425
32
0.0000000000
13
0.1559411160
23
0.2330794572
33
0.0000000000
40
0.0000000000
40
0.0000000000
40
0.0000000000
40
0.0000000000
40
1.0000000000
40
1.0000000000
40
1.0000000000
40
1.0000000000
10
29.5811524324
20
-15.5031702782
30
0.0000000000
10
29.6381102670
20
-15.4290476974
30
0.0000000000
10
29.6926431948
20
-15.3530622316
30
0.0000000000
10
29.7446235668
20
-15.2753690792
30
0.0000000000
11
29.5811524324
21
-15.5031702782
31
0.0000000000
11
29.7446235668
21
-15.2753690792
31
0.0000000000
0
SPLINE
5
2A0
100
AcDbEntity
8
0
100
AcDbSpline
62
0
6
CONTINUOUS
70
0
71
3
72
8
73
4
74
2
42
0.0000001000
43
0.0000001000
44
0.0000000001
12
0.1559489793
22
0.2330912102
32
0.0000000000
13
0.1403481275
23
0.2428070869
33
0.0000000000
40
0.0000000000
40
0.0000000000
40
0.0000000000
40
0.0000000000
40
1.0000000000
40
1.0000000000
40
1.0000000000
40
1.0000000000
10
29.7446235668
20
-15.2753690792
30
0.0000000000
10
29.7966065599
20
-15.1976720091
30
0.0000000000
10
29.8460367398
20
-15.1182670802
30
0.0000000000
10
29.8928194489
20
-15.0373313846
30
0.0000000000
11
29.7446235668
21
-15.2753690792
31
0.0000000000
11
29.8928194489
21
-15.0373313846
31
0.0000000000
0
SPLINE
5
2A1
100
AcDbEntity
8
0
100
AcDbSpline
62
0
6
CONTINUOUS
70
0
71
3
72
8
73
4
74
2
42
0.0000001000
43
0.0000001000
44
0.0000000001
12
0.0830712861
22
0.1437161816
32
0.0000000000
13
0.0774473251
23
0.1468237388
33
0.0000000000
40
0.0000000000
40
0.0000000000
40
0.0000000000
40
0.0000000000
40
1.0000000000
40
1.0000000000
40
1.0000000000
40
1.0000000000
10
29.8928194489
20
-15.0373313846
30
0.0000000000
10
29.9205098776
20
-14.9894259907
30
0.0000000000
10
29.9472727938
20
-14.9409843094
30
0.0000000000
10
29.9730885688
20
-14.8920430632
30
0.0000000000
11
29.8928194489
21
-15.0373313846
31
0.0000000000
11
29.9730885688
21
-14.8920430632
31
0.0000000000
0
SPLINE
5
2A2
100
AcDbEntity
8
0
100
AcDbSpline
62
0
6
CONTINUOUS
70
0
71
3
72
8
73
4
74
2
42
0.0000001000
43
0.0000001000
44
0.0000000001
12
0.0534079977
22
0.1012502613
32
0.0000000000
13
0.0506861866
23
0.1026395529
33
0.0000000000
40
0.0000000000
40
0.0000000000
40
0.0000000000
40
0.0000000000
40
1.0000000000
40
1.0000000000
40
1.0000000000
40
1.0000000000
10
29.9730885688
20
-14.8920430632
30
0.0000000000
10
29.9908912347
20
-14.8582929761
30
0.0000000000
10
30.0082434840
20
-14.8243053189
30
0.0000000000
10
30.0251388795
20
-14.7900921346
30
0.0000000000
11
29.9730885688
21
-14.8920430632
31
0.0000000000
11
30.0251388795
21
-14.7900921346
31
0.0000000000
0
SPLINE
5
2A3
100
AcDbEntity
8
0
100
AcDbSpline
62
0
6
CONTINUOUS
70
0
71
3
72
8
73
4
74
2
42
0.0000001000
43
0.0000001000
44
0.0000000001
12
0.1241934768
22
0.2514918517
32
0.0000000000
13
0.1074525484
23
0.2590843510
33
0.0000000000
40
0.0000000000
40
0.0000000000
40
0.0000000000
40
0.0000000000
40
1.0000000000
40
1.0000000000
40
1.0000000000
40
1.0000000000
10
30.0251388795
20
-14.7900921346
30
0.0000000000
10
30.0665367051
20
-14.7062615174
30
0.0000000000
10
30.1051917222
20
-14.6210769049
30
0.0000000000
10
30.1410092384
20
-14.5347154545
30
0.0000000000
11
30.0251388795
21
-14.7900921346
31
0.0000000000
11
30.1410092384
21
-14.5347154545
31
0.0000000000
0
SPLINE
5
2A4
100
AcDbEntity
8
0
100
AcDbSpline
62
0
6
CONTINUOUS
70
0
71
3
72
11
73
7
74
5
42
0.0000001000
43
0.0000001000
44
0.0000000001
12
1.2893632856
22
3.1088499533
32
0.0000000000
13
-1.2882802770
23
3.1092942986
33
0.0000000000
40
0.0000000000
40
0.0000000000
40
0.0000000000
40
0.0000000000
40
0.2500324684
40
0.5000585672
40
0.7500519176
40
1.0000000000
40
1.0000000000
40
1.0000000000
40
1.0000000000
10
30.1410092384
20
-14.5347154545
30
0.0000000000
10
30.2484701334
20
-14.2756109786
30
0.0000000000
10
30.4123068840
20
-13.7362225253
30
0.0000000000
10
30.4953567683
20
-12.8947694282
30
0.0000000000
10
30.4125421542
20
-12.0533901951
30
0.0000000000
10
30.2489141313
20
-11.5140789880
30
0.0000000000
10
30.1415797364
20
-11.2550249388
30
0.0000000000
11
30.1410092384
21
-14.5347154545
31
0.0000000000
11
30.3851914029
21
-13.7308137289
31
0.0000000000
11
30.4677119753
21
-12.8947292209
31
0.0000000000
11
30.3854266573
21
-12.0587321008
31
0.0000000000
11
30.1415797364
21
-11.2550249388
31
0.0000000000
0
SPLINE
5
2A5
100
AcDbEntity
8
0
100
AcDbSpline
62
0
6
CONTINUOUS
70
0
71
3
72
8
73
4
74
2
42
0.0000001000
43
0.0000001000
44
0.0000000001
12
-0.1545015682
22
0.3728931147
32
0.0000000000
13
-0.1889178304
23
0.3566984360
33
0.0000000000
40
0.0000000000
40
0.0000000000
40
0.0000000000
40
0.0000000000
40
1.0000000000
40
1.0000000000
40
1.0000000000
40
1.0000000000
10
30.1415797364
20
-11.2550249388
30
0.0000000000
10
30.0900792136
20
-11.1307272339
30
0.0000000000
10
30.0327016503
20
-11.0088646111
30
0.0000000000
10
29.9697290401
20
-10.8899651325
30
0.0000000000
11
30.1415797364
21
-11.2550249388
31
0.0000000000
11
29.9697290401
21
-10.8899651325
31
0.0000000000
0
SPLINE
5
2A6
100
AcDbEntity
8
0
100
AcDbSpline
62
0
6
CONTINUOUS
70
0
71
3
72
8
73
4
74
2
42
0.0000001000
43
0.0000001000
44
0.0000000001
12
-0.0735226384
22
0.1388191367
32
0.0000000000
13
-0.0785573073
23
0.1360329810
33
0.0000000000
40
0.0000000000
40
0.0000000000
40
0.0000000000
40
0.0000000000
40
1.0000000000
40
1.0000000000
40
1.0000000000
40
1.0000000000
10
29.9697290401
20
-10.8899651325
30
0.0000000000
10
29.9452214940
20
-10.8436920869
30
0.0000000000
10
29.9198665253
20
-10.7978678374
30
0.0000000000
10
29.8936807562
20
-10.7525235104
30
0.0000000000
11
29.9697290401
21
-10.8899651325
31
0.0000000000
11
29.8936807562
21
-10.7525235104
31
0.0000000000
0
SPLINE
5
2A7
100
AcDbEntity
8
0
100
AcDbSpline
62
0
6
CONTINUOUS
70
0
71
3
72
8
73
4
74
2
42
0.0000001000
43
0.0000001000
44
0.0000000001
12
-0.1401956601
22
0.2427684225
32
0.0000000000
13
-0.1557883322
23
0.2330666327
33
0.0000000000
40
0.0000000000
40
0.0000000000
40
0.0000000000
40
0.0000000000
40
1.0000000000
40
1.0000000000
40
1.0000000000
40
1.0000000000
10
29.8936807562
20
-10.7525235104
30
0.0000000000
10
29.8469488696
20
-10.6716007029
30
0.0000000000
10
29.7975709655
20
-10.5922064012
30
0.0000000000
10
29.7456415214
20
-10.5145175236
30
0.0000000000
11
29.8936807562
21
-10.7525235104
31
0.0000000000
11
29.7456415214
21
-10.5145175236
31
0.0000000000
0
SPLINE
5
2A8
100
AcDbEntity
8
0
100
AcDbSpline
62
0
6
CONTINUOUS
70
0
71
3
72
8
73
4
74
2
42
0.0000001000
43
0.0000001000
44
0.0000000001
12
-0.1557859365
22
0.2330630487
32
0.0000000000
13
-0.1707124065
23
0.2223655482
33
0.0000000000
40
0.0000000000
40
0.0000000000
40
0.0000000000
40
0.0000000000
40
1.0000000000
40
1.0000000000
40
1.0000000000
40
1.0000000000
10
29.7456415214
20
-10.5145175236
30
0.0000000000
10
29.6937128759
20
-10.4368298407
30
0.0000000000
10
29.6392327689
20
-10.3608475296
30
0.0000000000
10
29.5823286334
20
-10.2867256801
30
0.0000000000
11
29.7456415214
21
-10.5145175236
31
0.0000000000
11
29.5823286334
21
-10.2867256801
31
0.0000000000
0
SPLINE
5
2A9
100
AcDbEntity
8
0
100
AcDbSpline
62
0
6
CONTINUOUS
70
0
71
3
72
8
73
4
74
2
42
0.0000001000
43
0.0000001000
44
0.0000000001
12
-0.3413936012
22
0.4446904409
32
0.0000000000
13
-0.3965020950
23
0.3963263841
33
0.0000000000
40
0.0000000000
40
0.0000000000
40
0.0000000000
40
0.0000000000
40
1.0000000000
40
1.0000000000
40
1.0000000000
40
1.0000000000
10
29.5823286334
20
-10.2867256801
30
0.0000000000
10
29.4685307663
20
-10.1384955332
30
0.0000000000
10
29.3450385580
20
-9.9977058726
30
0.0000000000
10
29.2128711930
20
-9.8655970779
30
0.0000000000
11
29.5823286334
21
-10.2867256801
31
0.0000000000
11
29.2128711930
21
-9.8655970779
31
0.0000000000
0
SPLINE
5
2AA
100
AcDbEntity
8
0
100
AcDbSpline
62
0
6
CONTINUOUS
70
0
71
3
72
11
73
7
74
5
42
0.0000001000
43
0.0000001000
44
0.0000000001
12
-2.1799288664
22
2.1789628255
32
0.0000000000
13
-3.0752093057
23
0.2010006999
33
0.0000000000
40
0.0000000000
40
0.0000000000
40
0.0000000000
40
0.0000000000
40
0.2727600343
40
0.5456387073
40
0.8186917804
40
1.0000000000
40
1.0000000000
40
1.0000000000
40
1.0000000000
10
29.2128711930
20
-9.8655970779
30
0.0000000000
10
29.0146720356
20
-9.6674857529
30
0.0000000000
10
28.5791612552
20
-9.3102288744
30
0.0000000000
10
27.8335715399
20
-8.9120231512
30
0.0000000000
10
27.1152281524
20
-8.6944094845
30
0.0000000000
10
26.6509621586
20
-8.6336128069
30
0.0000000000
10
26.4651085839
20
-8.6214651139
30
0.0000000000
11
29.2128711930
21
-9.8655970779
31
0.0000000000
11
28.5639108415
21
-9.3332621130
31
0.0000000000
11
27.8232199882
21
-8.9376358682
31
0.0000000000
11
27.0190211116
21
-8.6941017808
31
0.0000000000
11
26.4651085839
21
-8.6214651139
31
0.0000000000
0
SPLINE
5
2AB
100
AcDbEntity
8
0
100
AcDbSpline
62
0
6
CONTINUOUS
70
0
71
3
72
8
73
4
74
2
42
0.0000001000
43
0.0000001000
44
0.0000000001
12
-0.2785108618
22
0.0182039245
32
0.0000000000
13
-0.2786996874
23
0.0000162170
33
0.0000000000
40
0.0000000000
40
0.0000000000
40
0.0000000000
40
0.0000000000
40
1.0000000000
40
1.0000000000
40
1.0000000000
40
1.0000000000
10
26.4651085839
20
-8.6214651139
30
0.0000000000
10
26.3722716299
20
-8.6153971390
30
0.0000000000
10
26.2792867161
20
-8.6123514619
30
0.0000000000
10
26.1863868203
20
-8.6123460563
30
0.0000000000
11
26.4651085839
21
-8.6214651139
31
0.0000000000
11
26.1863868203
21
-8.6123460563
31
0.0000000000
0
SPLINE
5
2AC
100
AcDbEntity
8
0
100
AcDbSpline
62
9
6
CONTINUOUS
70
0
71
3
72
8
73
4
74
2
42
0.0000001000
43
0.0000001000
44
0.0000000001
12
0.2737747541
22
0.0000356613
32
0.0000000000
13
0.2735837628
23
0.0179915474
33
0.0000000000
40
0.0000000000
40
0.0000000000
40
0.0000000000
40
0.0000000000
40
1.0000000000
40
1.0000000000
40
1.0000000000
40
1.0000000000
10
26.1863868203
20
-17.0817628926
30
0.0000000000
10
26.2776450717
20
-17.0817510055
30
0.0000000000
10
26.3689873833
20
-17.0787385192
30
0.0000000000
10
26.4601819709
20
-17.0727413367
30
0.0000000000
11
26.1863868203
21
-17.0817628926
31
0.0000000000
11
26.4601819709
21
-17.0727413367
31
0.0000000000
0
SPLINE
5
2AD
100
AcDbEntity
8
0
100
AcDbSpline
62
9
6
CONTINUOUS
70
0
71
3
72
8
73
4
74
2
42
0.0000001000
43
0.0000001000
44
0.0000000001
12
0.2713647430
22
0.0178456192
32
0.0000000000
13
0.2698141486
23
0.0354179123
33
0.0000000000
40
0.0000000000
40
0.0000000000
40
0.0000000000
40
0.0000000000
40
1.0000000000
40
1.0000000000
40
1.0000000000
40
1.0000000000
10
26.4601819709
20
-17.0727413367
30
0.0000000000
10
26.5506368852
20
-17.0667927970
30
0.0000000000
10
26.6409464622
20
-17.0579077821
30
0.0000000000
10
26.7308845117
20
-17.0461018113
30
0.0000000000
11
26.4601819709
21
-17.0727413367
31
0.0000000000
11
26.7308845117
21
-17.0461018113
31
0.0000000000
0
SPLINE
5
2AE
100
AcDbEntity
8
0
100
AcDbSpline
62
9
6
CONTINUOUS
70
0
71
3
72
12
73
8
74
6
42
0.0000001000
43
0.0000001000
44
0.0000000001
12
3.2565093768
22
0.4274748533
32
0.0000000000
13
1.9997336814
23
2.6034236843
33
0.0000000000
40
0.0000000000
40
0.0000000000
40
0.0000000000
40
0.0000000000
40
0.0825951306
40
0.3326360522
40
0.5828353778
40
0.8330035460
40
1.0000000000
40
1.0000000000
40
1.0000000000
40
1.0000000000
10
26.7308845117
20
-17.0461018113
30
0.0000000000
10
26.8205417841
20
-17.0343326975
30
0.0000000000
10
27.1801323308
20
-16.9752445932
30
0.0000000000
10
27.7933360057
20
-16.7896563412
30
0.0000000000
10
28.5213674218
20
-16.4012258968
30
0.0000000000
10
29.0888722893
20
-15.9360562604
30
0.0000000000
10
29.3906437422
20
-15.5922360865
30
0.0000000000
10
29.5019598868
20
-15.4473152454
30
0.0000000000
11
26.7308845117
21
-17.0461018113
31
0.0000000000
11
26.9985246168
21
-17.0021016048
31
0.0000000000
11
27.7829303931
21
-16.7648103063
31
0.0000000000
11
28.5064082314
21
-16.3787654873
31
0.0000000000
11
29.1405488402
21
-15.8590068871
31
0.0000000000
11
29.5019598868
21
-15.4473152454
31
0.0000000000
0
SPLINE
5
2AF
100
AcDbEntity
8
0
100
AcDbSpline
62
9
6
CONTINUOUS
70
0
71
3
72
8
73
4
74
2
42
0.0000001000
43
0.0000001000
44
0.0000000001
12
0.1666491038
22
0.2169580019
32
0.0000000000
13
0.1521019764
23
0.2273900295
33
0.0000000000
40
0.0000000000
40
0.0000000000
40
0.0000000000
40
0.0000000000
40
1.0000000000
40
1.0000000000
40
1.0000000000
40
1.0000000000
10
29.5019598868
20
-15.4473152454
30
0.0000000000
10
29.5575095880
20
-15.3749959114
30
0.0000000000
10
29.6106967876
20
-15.3008623807
30
0.0000000000
10
29.6613974464
20
-15.2250657042
30
0.0000000000
11
29.5019598868
21
-15.4473152454
31
0.0000000000
11
29.6613974464
21
-15.2250657042
31
0.0000000000
0
SPLINE
5
2B0
100
AcDbEntity
8
0
100
AcDbSpline
62
9
6
CONTINUOUS
70
0
71
3
72
8
73
4
74
2
42
0.0000001000
43
0.0000001000
44
0.0000000001
12
0.1521137261
22
0.2274075951
32
0.0000000000
13
0.1369165487
23
0.2368710324
33
0.0000000000
40
0.0000000000
40
0.0000000000
40
0.0000000000
40
0.0000000000
40
1.0000000000
40
1.0000000000
40
1.0000000000
40
1.0000000000
10
29.6613974464
20
-15.2250657042
30
0.0000000000
10
29.7121020218
20
-15.1492631725
30
0.0000000000
10
29.7603196722
20
-15.0717972381
30
0.0000000000
10
29.8059585218
20
-14.9928402273
30
0.0000000000
11
29.6613974464
21
-15.2250657042
31
0.0000000000
11
29.8059585218
21
-14.9928402273
31
0.0000000000
0
SPLINE
5
2B1
100
AcDbEntity
8
0
100
AcDbSpline
62
9
6
CONTINUOUS
70
0
71
3
72
8
73
4
74
2
42
0.0000001000
43
0.0000001000
44
0.0000000001
12
0.0577710404
22
0.0999461797
32
0.0000000000
13
0.0549956143
23
0.1015001377
33
0.0000000000
40
0.0000000000
40
0.0000000000
40
0.0000000000
40
0.0000000000
40
1.0000000000
40
1.0000000000
40
1.0000000000
40
1.0000000000
10
29.8059585218
20
-14.9928402273
30
0.0000000000
10
29.8252155353
20
-14.9595248341
30
0.0000000000
10
29.8440134286
20
-14.9259439752
30
0.0000000000
10
29.8623453001
20
-14.8921105959
30
0.0000000000
11
29.8059585218
21
-14.9928402273
31
0.0000000000
11
29.8623453001
21
-14.8921105959
31
0.0000000000
0
SPLINE
5
2B2
100
AcDbEntity
8
0
100
AcDbSpline
62
9
6
CONTINUOUS
70
0
71
3
72
8
73
4
74
2
42
0.0000001000
43
0.0000001000
44
0.0000000001
12
0.2062765727
22
0.3807049128
32
0.0000000000
13
0.1658469899
23
0.3999709255
33
0.0000000000
40
0.0000000000
40
0.0000000000
40
0.0000000000
40
0.0000000000
40
1.0000000000
40
1.0000000000
40
1.0000000000
40
1.0000000000
10
29.8623453001
20
-14.8921105959
30
0.0000000000
10
29.9311041576
20
-14.7652089583
30
0.0000000000
10
29.9933068474
20
-14.6347547721
30
0.0000000000
10
30.0485891774
20
-14.5014311303
30
0.0000000000
11
29.8623453001
21
-14.8921105959
31
0.0000000000
11
30.0485891774
21
-14.5014311303
31
0.0000000000
0
SPLINE
5
2B3
100
AcDbEntity
8
0
100
AcDbSpline
62
9
6
CONTINUOUS
70
0
71
3
72
11
73
7
74
5
42
0.0000001000
43
0.0000001000
44
0.0000000001
12
1.2595229176
22
3.0375742558
32
0.0000000000
13
-1.2584225504
23
3.0380257181
33
0.0000000000
40
0.0000000000
40
0.0000000000
40
0.0000000000
40
0.0000000000
40
0.2500276526
40
0.5000563629
40
0.7500536017
40
1.0000000000
40
1.0000000000
40
1.0000000000
40
1.0000000000
10
30.0485891774
20
-14.5014311303
30
0.0000000000
10
30.1535610302
20
-14.2482719433
30
0.0000000000
10
30.3136014927
20
-13.7212604507
30
0.0000000000
10
30.3947304438
20
-12.8991250496
30
0.0000000000
10
30.3138449439
20
-12.0770569851
30
0.0000000000
10
30.1540150547
20
-11.5501137595
30
0.0000000000
10
30.0491689934
20
-11.2969992308
30
0.0000000000
11
30.0485891774
21
-14.5014311303
31
0.0000000000
11
30.2871132003
21
-13.7159862413
31
0.0000000000
11
30.3677271080
21
-12.8990869317
31
0.0000000000
11
30.2873564970
21
-12.0822674724
31
0.0000000000
11
30.0491689934
21
-11.2969992308
31
0.0000000000
0
SPLINE
5
2B4
100
AcDbEntity
8
0
100
AcDbSpline
62
9
6
CONTINUOUS
70
0
71
3
72
8
73
4
74
2
42
0.0000001000
43
0.0000001000
44
0.0000000001
12
-0.1727915334
22
0.4171453557
32
0.0000000000
13
-0.2167112758
23
0.3961160997
33
0.0000000000
40
0.0000000000
40
0.0000000000
40
0.0000000000
40
0.0000000000
40
1.0000000000
40
1.0000000000
40
1.0000000000
40
1.0000000000
10
30.0491689934
20
-11.2969992308
30
0.0000000000
10
29.9915718156
20
-11.1579507789
30
0.0000000000
10
29.9264483392
20
-11.0220198576
30
0.0000000000
10
29.8542112473
20
-10.8899811577
30
0.0000000000
11
30.0491689934
21
-11.2969992308
31
0.0000000000
11
29.8542112473
21
-10.8899811577
31
0.0000000000
0
SPLINE
5
2B5
100
AcDbEntity
8
0
100
AcDbSpline
62
9
6
CONTINUOUS
70
0
71
3
72
8
73
4
74
2
42
0.0000001000
43
0.0000001000
44
0.0000000001
12
-0.0464086407
22
0.0848281183
32
0.0000000000
13
-0.0483538672
23
0.0837343086
33
0.0000000000
40
0.0000000000
40
0.0000000000
40
0.0000000000
40
0.0000000000
40
1.0000000000
40
1.0000000000
40
1.0000000000
40
1.0000000000
10
29.8542112473
20
-10.8899811577
30
0.0000000000
10
29.8387417004
20
-10.8617051183
30
0.0000000000
10
29.8229459226
20
-10.8336075764
30
0.0000000000
10
29.8068279669
20
-10.8056961402
30
0.0000000000
11
29.8542112473
21
-10.8899811577
31
0.0000000000
11
29.8068279669
21
-10.8056961402
31
0.0000000000
0
SPLINE
5
2B6
100
AcDbEntity
8
0
100
AcDbSpline
62
9
6
CONTINUOUS
70
0
71
3
72
8
73
4
74
2
42
0.0000001000
43
0.0000001000
44
0.0000000001
12
-0.1367661067
22
0.2368376315
32
0.0000000000
13
-0.1519556847
23
0.2273879959
33
0.0000000000
40
0.0000000000
40
0.0000000000
40
0.0000000000
40
0.0000000000
40
1.0000000000
40
1.0000000000
40
1.0000000000
40
1.0000000000
10
29.8068279669
20
-10.8056961402
30
0.0000000000
10
29.7612392647
20
-10.7267502630
30
0.0000000000
10
29.7130731118
20
-10.6492932471
30
0.0000000000
10
29.6624212169
20
-10.5734972485
30
0.0000000000
11
29.8068279669
21
-10.8056961402
31
0.0000000000
11
29.6624212169
21
-10.5734972485
31
0.0000000000
0
SPLINE
5
2B7
100
AcDbEntity
8
0
100
AcDbSpline
62
9
6
CONTINUOUS
70
0
71
3
72
8
73
4
74
2
42
0.0000001000
43
0.0000001000
44
0.0000000001
12
-0.1519489530
22
0.2273779226
32
0.0000000000
13
-0.1664906369
23
0.2169597871
33
0.0000000000
40
0.0000000000
40
0.0000000000
40
0.0000000000
40
0.0000000000
40
1.0000000000
40
1.0000000000
40
1.0000000000
40
1.0000000000
10
29.6624212169
20
-10.5734972485
30
0.0000000000
10
29.6117715659
20
-10.4977046076
30
0.0000000000
10
29.5586363931
20
-10.4235728369
30
0.0000000000
10
29.5031395141
20
-10.3512529079
30
0.0000000000
11
29.6624212169
21
-10.5734972485
31
0.0000000000
11
29.5031395141
21
-10.3512529079
31
0.0000000000
0
SPLINE
5
2B8
100
AcDbEntity
8
0
100
AcDbSpline
62
9
6
CONTINUOUS
70
0
71
3
72
12
73
8
74
6
42
0.0000001000
43
0.0000001000
44
0.0000000001
12
-1.9994411315
22
2.6055418506
32
0.0000000000
13
-3.2579706934
23
0.4280195165
33
0.0000000000
40
0.0000000000
40
0.0000000000
40
0.0000000000
40
0.0000000000
40
0.1668744963
40
0.4169257578
40
0.6670684606
40
0.9173565385
40
1.0000000000
40
1.0000000000
40
1.0000000000
40
1.0000000000
10
29.5031395141
20
-10.3512529079
30
0.0000000000
10
29.3919209369
20
-10.2063200799
30
0.0000000000
10
29.0903500742
20
-9.8623947739
30
0.0000000000
10
28.5230677334
20
-9.3969359939
30
0.0000000000
10
27.7948175241
20
-9.0079359202
30
0.0000000000
10
27.1811255483
20
-8.8219969033
30
0.0000000000
10
26.8210565157
20
-8.7627782082
30
0.0000000000
10
26.7313065239
20
-8.7509872034
30
0.0000000000
11
29.5031395141
21
-10.3512529079
31
0.0000000000
11
29.1420249393
21
-9.9394998178
31
0.0000000000
11
28.5081494608
21
-9.4194295480
31
0.0000000000
11
27.7846889328
21
-9.0329481797
31
0.0000000000
11
26.9992211773
21
-8.7950709130
31
0.0000000000
11
26.7313065239
21
-8.7509872034
31
0.0000000000
0
SPLINE
5
2B9
100
AcDbEntity
8
0
100
AcDbSpline
62
9
6
CONTINUOUS
70
0
71
3
72
8
73
4
74
2
42
0.0000001000
43
0.0000001000
44
0.0000000001
12
-0.2700435555
22
0.0354772719
32
0.0000000000
13
-0.2715977447
23
0.0178734856
33
0.0000000000
40
0.0000000000
40
0.0000000000
40
0.0000000000
40
0.0000000000
40
1.0000000000
40
1.0000000000
40
1.0000000000
40
1.0000000000
10
26.7313065239
20
-8.7509872034
30
0.0000000000
10
26.6412920054
20
-8.7391614461
30
0.0000000000
10
26.5509051001
20
-8.7302616888
30
0.0000000000
10
26.4603725185
20
-8.7243038603
30
0.0000000000
11
26.7313065239
21
-8.7509872034
31
0.0000000000
11
26.4603725185
21
-8.7243038603
31
0.0000000000
0
SPLINE
5
2BA
100
AcDbEntity
8
0
100
AcDbSpline
62
9
6
CONTINUOUS
70
0
71
3
72
8
73
4
74
2
42
0.0000001000
43
0.0000001000
44
0.0000000001
12
-0.2737738423
22
0.0180166917
32
0.0000000000
13
-0.2739653503
23
0.0000321858
33
0.0000000000
40
0.0000000000
40
0.0000000000
40
0.0000000000
40
0.0000000000
40
1.0000000000
40
1.0000000000
40
1.0000000000
40
1.0000000000
10
26.4603725185
20
-8.7243038603
30
0.0000000000
10
26.3691145711
20
-8.7182982964
30
0.0000000000
10
26.2777086037
20
-8.7152819928
30
0.0000000000
10
26.1863868203
20
-8.7152712642
30
0.0000000000
11
26.4603725185
21
-8.7243038603
31
0.0000000000
11
26.1863868203
21
-8.7152712642
31
0.0000000000
0
SPLINE
5
2BB
100
AcDbEntity
8
0
100
AcDbSpline
62
9
6
CONTINUOUS
70
0
71
3
72
8
73
4
74
2
42
0.0000001000
43
0.0000001000
44
0.0000000001
12
-0.2740791303
22
-0.0000355663
32
0.0000000000
13
-0.2738874764
23
-0.0180316576
33
0.0000000000
40
0.0000000000
40
0.0000000000
40
0.0000000000
40
0.0000000000
40
1.0000000000
40
1.0000000000
40
1.0000000000
40
1.0000000000
10
21.9863868203
20
-8.7152712642
30
0.0000000000
10
21.8950271102
20
-8.7152831196
30
0.0000000000
10
21.8035830577
20
-8.7183023213
30
0.0000000000
10
21.7122872323
20
-8.7243128738
30
0.0000000000
11
21.9863868203
21
-8.7152712642
31
0.0000000000
11
21.7122872323
21
-8.7243128738
31
0.0000000000
0
SPLINE
5
2BC
100
AcDbEntity
8
0
100
AcDbSpline
62
9
6
CONTINUOUS
70
0
71
3
72
8
73
4
74
2
42
0.0000001000
43
0.0000001000
44
0.0000000001
12
-0.2716360921
22
-0.0178834354
32
0.0000000000
13
-0.2700806483
23
-0.0354908709
33
0.0000000000
40
0.0000000000
40
0.0000000000
40
0.0000000000
40
0.0000000000
40
1.0000000000
40
1.0000000000
40
1.0000000000
40
1.0000000000
10
21.7122872323
20
-8.7243128738
30
0.0000000000
10
21.6217418682
20
-8.7302740189
30
0.0000000000
10
21.5313423043
20
-8.7391775387
30
0.0000000000
10
21.4413154215
20
-8.7510078290
30
0.0000000000
11
21.7122872323
21
-8.7243128738
31
0.0000000000
11
21.4413154215
21
-8.7510078290
31
0.0000000000
0
SPLINE
5
2BD
100
AcDbEntity
8
0
100
AcDbSpline
62
9
6
CONTINUOUS
70
0
71
3
72
12
73
8
74
6
42
0.0000001000
43
0.0000001000
44
0.0000000001
12
-3.5285469881
22
-0.4636807794
32
0.0000000000
13
-1.9767547039
23
-2.9571895058
33
0.0000000000
40
0.0000000000
40
0.0000000000
40
0.0000000000
40
0.0000000000
40
0.0762945764
40
0.3072187716
40
0.5381875643
40
0.7690477435
40
1.0000000000
40
1.0000000000
40
1.0000000000
40
1.0000000000
10
21.4413154215
20
-8.7510078290
30
0.0000000000
10
21.3515790889
20
-8.7627999385
30
0.0000000000
10
20.9917248194
20
-8.8219931604
30
0.0000000000
10
20.3782302174
20
-9.0078482553
30
0.0000000000
10
19.6501186871
20
-9.3966610385
30
0.0000000000
10
19.0119784436
20
-9.9201361817
30
0.0000000000
10
18.6628373519
20
-10.3453839906
30
0.0000000000
10
18.5106586988
20
-10.5730405203
30
0.0000000000
11
21.4413154215
21
-8.7510078290
31
0.0000000000
11
21.1734419536
21
-8.7950924326
31
0.0000000000
11
20.3885431178
21
-9.0327612707
31
0.0000000000
11
19.6650108982
21
-9.4191724329
31
0.0000000000
11
19.0311174859
21
-9.9391329771
31
0.0000000000
11
18.5106586988
21
-10.5730405203
31
0.0000000000
0
SPLINE
5
2BE
100
AcDbEntity
8
0
100
AcDbSpline
62
9
6
CONTINUOUS
70
0
71
3
72
8
73
4
74
2
42
0.0000001000
43
0.0000001000
44
0.0000000001
12
-0.1519789757
22
-0.2273578159
32
0.0000000000
13
-0.1367919184
23
-0.2368087122
33
0.0000000000
40
0.0000000000
40
0.0000000000
40
0.0000000000
40
0.0000000000
40
1.0000000000
40
1.0000000000
40
1.0000000000
40
1.0000000000
10
18.5106586988
20
-10.5730405203
30
0.0000000000
10
18.4599990402
20
-10.6488264590
30
0.0000000000
10
18.4118247021
20
-10.7262736109
30
0.0000000000
10
18.3662273960
20
-10.8052098483
30
0.0000000000
11
18.5106586988
21
-10.5730405203
31
0.0000000000
11
18.3662273960
21
-10.8052098483
31
0.0000000000
0
SPLINE
5
2BF
100
AcDbEntity
8
0
100
AcDbSpline
62
9
6
CONTINUOUS
70
0
71
3
72
8
73
4
74
2
42
0.0000001000
43
0.0000001000
44
0.0000000001
12
-0.0486446557
22
-0.0842116874
32
0.0000000000
13
-0.0466769512
23
-0.0853183143
33
0.0000000000
40
0.0000000000
40
0.0000000000
40
0.0000000000
40
0.0000000000
40
1.0000000000
40
1.0000000000
40
1.0000000000
40
1.0000000000
10
18.3662273960
20
-10.8052098483
30
0.0000000000
10
18.3500125107
20
-10.8332804108
30
0.0000000000
10
18.3341235141
20
-10.8615392814
30
0.0000000000
10
18.3185645304
20
-10.8899787195
30
0.0000000000
11
18.3662273960
21
-10.8052098483
31
0.0000000000
11
18.3185645304
21
-10.8899787195
31
0.0000000000
0
SPLINE
5
2C0
100
AcDbEntity
8
0
100
AcDbSpline
62
9
6
CONTINUOUS
70
0
71
3
72
8
73
4
74
2
42
0.0000001000
43
0.0000001000
44
0.0000000001
12
-0.2164310865
22
-0.3956028615
32
0.0000000000
13
-0.1726263824
23
-0.4165808636
33
0.0000000000
40
0.0000000000
40
0.0000000000
40
0.0000000000
40
0.0000000000
40
1.0000000000
40
1.0000000000
40
1.0000000000
40
1.0000000000
10
18.3185645304
20
-10.8899787195
30
0.0000000000
10
18.2464208349
20
-11.0218463400
30
0.0000000000
10
18.1813723489
20
-11.1575961247
30
0.0000000000
10
18.1238302215
20
-11.2964564125
30
0.0000000000
11
18.3185645304
21
-10.8899787195
31
0.0000000000
11
18.1238302215
21
-11.2964564125
31
0.0000000000
0
SPLINE
5
2C1
100
AcDbEntity
8
0
100
AcDbSpline
62
9
6
CONTINUOUS
70
0
71
3
72
11
73
7
74
5
42
0.0000001000
43
0.0000001000
44
0.0000000001
12
-1.2588237558
22
-3.0377853017
32
0.0000000000
13
1.2590197237
23
-3.0377089135
33
0.0000000000
40
0.0000000000
40
0.0000000000
40
0.0000000000
40
0.0000000000
40
0.2499408194
40
0.4999358034
40
0.7499666843
40
1.0000000000
40
1.0000000000
40
1.0000000000
40
1.0000000000
10
18.1238302215
20
-11.2964564125
30
0.0000000000
10
18.0189530744
20
-11.5495452617
30
0.0000000000
10
17.8590525850
20
-12.0764457662
30
0.0000000000
10
17.7780442792
20
-12.8984779545
30
0.0000000000
10
17.8590436153
20
-13.7206149417
30
0.0000000000
10
18.0190002706
20
-14.2476489989
30
0.0000000000
10
18.1239325627
20
-14.5008251428
30
0.0000000000
11
18.1238302215
21
-11.2964564125
31
0.0000000000
11
17.8855390445
21
-12.0816562720
31
0.0000000000
11
17.8050464848
21
-12.8984391771
31
0.0000000000
11
17.8855317009
21
-13.7153412272
31
0.0000000000
11
18.1239325627
21
-14.5008251428
31
0.0000000000
0
SPLINE
5
2C2
100
AcDbEntity
8
0
100
AcDbSpline
62
9
6
CONTINUOUS
70
0
71
3
72
8
73
4
74
2
42
0.0000001000
43
0.0000001000
44
0.0000000001
12
0.1660346316
22
-0.4006012541
32
0.0000000000
13
0.2065878496
23
-0.3812802608
33
0.0000000000
40
0.0000000000
40
0.0000000000
40
0.0000000000
40
0.0000000000
40
1.0000000000
40
1.0000000000
40
1.0000000000
40
1.0000000000
10
18.1239325627
20
-14.5008251428
30
0.0000000000
10
18.1792774399
20
-14.6343588942
30
0.0000000000
10
18.2415640725
20
-14.7650155909
30
0.0000000000
10
18.3104266890
20
-14.8921090112
30
0.0000000000
11
18.1239325627
21
-14.5008251428
31
0.0000000000
11
18.3104266890
21
-14.8921090112
31
0.0000000000
0
SPLINE
5
2C3
100
AcDbEntity
8
0
100
AcDbSpline
62
9
6
CONTINUOUS
70
0
71
3
72
8
73
4
74
2
42
0.0000001000
43
0.0000001000
44
0.0000000001
12
0.0546854790
22
-0.1009279768
32
0.0000000000
13
0.0574298160
23
-0.0993917114
33
0.0000000000
40
0.0000000000
40
0.0000000000
40
0.0000000000
40
0.0000000000
40
1.0000000000
40
1.0000000000
40
1.0000000000
40
1.0000000000
10
18.3104266890
20
-14.8921090112
30
0.0000000000
10
18.3286551820
20
-14.9257516702
30
0.0000000000
10
18.3473444568
20
-14.9591446490
30
0.0000000000
10
18.3664877288
20
-14.9922752194
30
0.0000000000
11
18.3104266890
21
-14.8921090112
31
0.0000000000
11
18.3664877288
21
-14.9922752194
31
0.0000000000
0
SPLINE
5
2C4
100
AcDbEntity
8
0
100
AcDbSpline
62
9
6
CONTINUOUS
70
0
71
3
72
8
73
4
74
2
42
0.0000001000
43
0.0000001000
44
0.0000000001
12
0.1368800731
22
-0.2368934060
32
0.0000000000
13
0.1520787657
23
-0.2274323446
33
0.0000000000
40
0.0000000000
40
0.0000000000
40
0.0000000000
40
0.0000000000
40
1.0000000000
40
1.0000000000
40
1.0000000000
40
1.0000000000
10
18.3664877288
20
-14.9922752194
30
0.0000000000
10
18.4121144198
20
-15.0712396881
30
0.0000000000
10
18.4603201556
20
-15.1487134809
30
0.0000000000
10
18.5110130775
20
-15.2245242625
30
0.0000000000
11
18.3664877288
21
-14.9922752194
31
0.0000000000
11
18.5110130775
21
-15.2245242625
31
0.0000000000
0
SPLINE
5
2C5
100
AcDbEntity
8
0
100
AcDbSpline
62
9
6
CONTINUOUS
70
0
71
3
72
8
73
4
74
2
42
0.0000001000
43
0.0000001000
44
0.0000000001
12
0.1520658379
22
-0.2274130113
32
0.0000000000
13
0.1666144352
23
-0.2169833733
33
0.0000000000
40
0.0000000000
40
0.0000000000
40
0.0000000000
40
0.0000000000
40
1.0000000000
40
1.0000000000
40
1.0000000000
40
1.0000000000
10
18.5110130775
20
-15.2245242625
30
0.0000000000
10
18.5617016901
20
-15.3003285995
30
0.0000000000
10
18.6148770661
20
-15.3744702081
30
0.0000000000
10
18.6704152111
20
-15.4467979992
30
0.0000000000
11
18.5110130775
21
-15.2245242625
31
0.0000000000
11
18.6704152111
21
-15.4467979992
31
0.0000000000
0
SPLINE
5
2C6
100
AcDbEntity
8
0
100
AcDbSpline
62
9
6
CONTINUOUS
70
0
71
3
72
12
73
8
74
6
42
0.0000001000
43
0.0000001000
44
0.0000000001
12
1.9997684586
22
-2.6043151983
32
0.0000000000
13
3.2572389110
23
-0.4275259492
33
0.0000000000
40
0.0000000000
40
0.0000000000
40
0.0000000000
40
0.0000000000
40
0.1669591478
40
0.4170783129
40
0.6672029370
40
0.9174005955
40
1.0000000000
40
1.0000000000
40
1.0000000000
40
1.0000000000
10
18.6704152111
20
-15.4467979992
30
0.0000000000
10
18.7817084237
20
-15.5917360812
30
0.0000000000
10
19.0834303496
20
-15.9356087304
30
0.0000000000
10
19.6508539290
20
-16.4008553240
30
0.0000000000
10
20.3790132508
20
-16.7895087219
30
0.0000000000
10
20.9924377191
20
-16.9752129542
30
0.0000000000
10
21.3522830629
20
-17.0343413362
30
0.0000000000
10
21.4419650610
20
-17.0461124658
30
0.0000000000
11
18.6704152111
21
-15.4467979992
31
0.0000000000
11
19.0317611543
21
-15.8585455338
31
0.0000000000
11
19.6658383533
21
-16.3784149132
31
0.0000000000
11
20.3891984276
21
-16.7645465194
31
0.0000000000
11
21.1742510877
21
-17.0021016341
31
0.0000000000
11
21.4419650610
21
-17.0461124658
31
0.0000000000
0
SPLINE
5
2C7
100
AcDbEntity
8
0
100
AcDbSpline
62
9
6
CONTINUOUS
70
0
71
3
72
8
73
4
74
2
42
0.0000001000
43
0.0000001000
44
0.0000000001
12
0.2698128627
22
-0.0354140434
32
0.0000000000
13
0.2713628437
23
-0.0178406654
33
0.0000000000
40
0.0000000000
40
0.0000000000
40
0.0000000000
40
0.0000000000
40
1.0000000000
40
1.0000000000
40
1.0000000000
40
1.0000000000
10
21.4419650610
20
-17.0461124658
30
0.0000000000
10
21.5319026819
20
-17.0579171469
30
0.0000000000
10
21.6222116884
20
-17.0668008596
30
0.0000000000
10
21.7126659696
20
-17.0727477481
30
0.0000000000
11
21.4419650610
21
-17.0461124658
31
0.0000000000
11
21.7126659696
21
-17.0727477481
31
0.0000000000
0
SPLINE
5
2C8
100
AcDbEntity
8
0
100
AcDbSpline
62
9
6
CONTINUOUS
70
0
71
3
72
8
73
4
74
2
42
0.0000001000
43
0.0000001000
44
0.0000000001
12
0.2735096234
22
-0.0179818048
32
0.0000000000
13
0.2737005580
23
-0.0000322492
33
0.0000000000
40
0.0000000000
40
0.0000000000
40
0.0000000000
40
0.0000000000
40
1.0000000000
40
1.0000000000
40
1.0000000000
40
1.0000000000
10
21.7126659696
20
-17.0727477481
30
0.0000000000
10
21.8038358441
20
-17.0787416830
30
0.0000000000
10
21.8951533009
20
-17.0817521429
30
0.0000000000
10
21.9863868203
20
-17.0817628926
30
0.0000000000
11
21.7126659696
21
-17.0727477481
31
0.0000000000
11
21.9863868203
21
-17.0817628926
31
0.0000000000
0
SPLINE
5
2C9
100
AcDbEntity
8
INCISIONI_LASER
100
AcDbSpline
62
9
6
CONTINUOUS
70
0
71
3
72
26
73
22
74
20
42
0.0000001000
43
0.0000001000
44
0.0000000001
12
0.0000000000
22
-4.1871041798
32
-0.1606343616
13
-0.0000000000
23
-3.5381650738
33
-0.1719037707
40
0.0000000000
40
0.0000000000
40
0.0000000000
40
0.0000000000
40
0.2500000000
40
0.3750000000
40
0.5000000000
40
0.5625000000
40
0.6250000000
40
0.6562500000
40
0.6875000000
40
0.7187500000
40
0.7343750000
40
0.7421875000
40
0.7500000000
40
0.7578125000
40
0.7656250000
40
0.7812500000
40
0.8125000000
40
0.8437500000
40
0.8750000000
40
0.9375000000
40
1.0000000000
40
1.0000000000
40
1.0000000000
40
1.0000000000
10
23.9269138203
20
-10.8722045389
30
4.2490221527
10
23.9269138203
20
-11.2211298872
30
4.2356359559
10
23.9269138203
20
-11.7445695687
30
4.2168272171
10
23.9269138203
20
-12.4422825079
30
4.1866666732
10
23.9269138203
20
-12.8784171946
30
4.1692700889
10
23.9269138203
20
-13.2272227636
30
4.1531343642
10
23.9269138203
20
-13.4452505080
30
4.1433023620
10
23.9269138203
20
-13.6196400156
30
4.1353845927
10
23.9269138203
20
-13.7505156515
30
4.1294510731
10
23.9269138203
20
-13.8593139509
30
4.1245121852
10
23.9269138203
20
-13.9359921611
30
4.1210408657
10
23.9269138203
20
-13.9789972994
30
4.1190797089
10
23.9269138203
20
-14.0135356984
30
4.1175455063
10
23.9269138203
20
-14.0393414071
30
4.1162534167
10
23.9269138203
20
-14.0767950789
30
4.1144461789
10
23.9269138203
20
-14.1409197885
30
4.1113228604
10
23.9269138203
20
-14.2332685008
30
4.1068404052
10
23.9269138203
20
-14.3437693534
30
4.1014702646
10
23.9269138203
20
-14.4912148017
30
4.0943070002
10
23.9269138203
20
-14.6754832808
30
4.0853539825
10
23.9269138203
20
-14.8229097461
30
4.0781912444
10
23.9269138203
20
-14.8966215184
30
4.0746099158
11
23.9269138203
21
-10.8722045389
31
4.2490221527
11
23.9269138203
21
-11.9189805838
31
4.2088635623
11
23.9269138203
21
-12.4422953278
31
4.1869574243
11
23.9269138203
21
-12.9656100718
31
4.1650512863
11
23.9269138203
21
-13.2272276164
31
4.1531849293
11
23.9269138203
21
-13.4888451609
31
4.1413185724
11
23.9269138203
21
-13.6196539332
31
4.1353853939
11
23.9269138203
21
-13.7504627054
31
4.1294522154
11
23.9269138203
21
-13.8812714777
31
4.1235190370
11
23.9269138203
21
-13.9466758638
31
4.1205524477
11
23.9269138203
21
-13.9793780569
31
4.1190691531
11
23.9269138203
21
-14.0120802500
31
4.1175858585
11
23.9269138203
21
-14.0397221646
31
4.1162428603
11
23.9269138203
21
-14.0673640793
31
4.1148998621
11
23.9269138203
21
-14.1226479085
31
4.1122138657
11
23.9269138203
21
-14.2332155671
31
4.1068418728
11
23.9269138203
21
-14.3437832256
31
4.1014698800
11
23.9269138203
21
-14.4543508842
31
4.0960978872
11
23.9269138203
21
-14.6754862013
31
4.0853539015
11
23.9269138203
21
-14.8966215184
31
4.0746099158
0
SPLINE
5
2CA
100
AcDbEntity
8
INCISIONI_LASER
100
AcDbSpline
62
9
6
CONTINUOUS
70
0
71
3
72
29
73
25
74
23
42
0.0000001000
43
0.0000001000
44
0.0000000001
12
0.0000000000
22
3.1390546746
32
0.1500365146
13
0.0000000000
23
4.8645589593
33
0.1938121315
40
0.0000000000
40
0.0000000000
40
0.0000000000
40
0.0000000000
40
0.1250000000
40
0.2500000000
40
0.3750000000
40
0.4375000000
40
0.5000000000
40
0.5625000000
40
0.5937500000
40
0.6250000000
40
0.6406250000
40
0.6562500000
40
0.6640625000
40
0.6679687500
40
0.6718750000
40
0.6796875000
40
0.6875000000
40
0.7031250000
40
0.7187500000
40
0.7500000000
40
0.7812500000
40
0.8125000000
40
0.8750000000
40
1.0000000000
40
1.0000000000
40
1.0000000000
40
1.0000000000
10
24.0909918203
20
-14.7416085389
30
4.0823304009
10
24.0909918203
20
-14.6108145941
30
4.0885819223
10
24.0909918203
20
-14.3492262495
30
4.1010732512
10
24.0909918203
20
-13.9568464628
30
4.1198805288
10
24.0909918203
20
-13.6298553443
30
4.1353482641
10
24.0909918203
20
-13.3682171204
30
4.1468095181
10
24.0909918203
20
-13.1720030671
30
4.1555276939
10
24.0909918203
20
-13.0084615276
30
4.1627657789
10
24.0909918203
20
-12.8776925770
30
4.1685600768
10
24.0909918203
20
-12.7958161945
30
4.1721854689
10
24.0909918203
20
-12.7306489105
30
4.1750753309
10
24.0909918203
20
-12.6891576972
30
4.1769056460
10
24.0909918203
20
-12.6616403119
30
4.1781384351
10
24.0909918203
20
-12.6435277945
30
4.1789186659
10
24.0909918203
20
-12.6164182094
30
4.1799843718
10
24.0909918203
20
-12.5856118071
30
4.1812187581
10
24.0909918203
20
-12.5345999922
30
4.1832484012
10
24.0909918203
20
-12.4714246919
30
4.1857667513
10
24.0909918203
20
-12.3700147571
30
4.1898065651
10
24.0909918203
20
-12.2433653719
30
4.1948527459
10
24.0909918203
20
-12.0913377315
30
4.2009096978
10
24.0909918203
20
-11.8886510905
30
4.2089850980
10
24.0909918203
20
-11.5339415564
30
4.2231172996
10
24.0909918203
20
-11.2299075257
30
4.2352305291
10
24.0909918203
20
-11.0272175691
30
4.2433060346
11
24.0909918203
21
-14.7416085389
31
4.0823304009
11
24.0909918203
21
-14.3492267046
31
4.1010849652
11
24.0909918203
21
-13.9568448702
31
4.1198395295
11
24.0909918203
21
-13.5644420109
31
4.1381374997
11
24.0909918203
21
-13.3682195562
31
4.1468298907
11
24.0909918203
21
-13.1719971014
31
4.1555222816
11
24.0909918203
21
-12.9757746467
31
4.1642146725
11
24.0909918203
21
-12.8776634193
31
4.1685608680
11
24.0909918203
21
-12.7795521920
31
4.1729070635
11
24.0909918203
21
-12.7304965783
31
4.1750801612
11
24.0909918203
21
-12.6814409646
31
4.1772532589
11
24.0909918203
21
-12.6569131578
31
4.1783398078
11
24.0909918203
21
-12.6424031610
31
4.1789543503
11
24.0909918203
21
-12.6234009776
31
4.1797114289
11
24.0909918203
21
-12.5853966107
31
4.1812255862
11
24.0909918203
21
-12.5473922438
31
4.1827397435
11
24.0909918203
21
-12.4713835101
31
4.1857680580
11
24.0909918203
21
-12.3953747764
31
4.1887963726
11
24.0909918203
21
-12.2433573089
31
4.1948530017
11
24.0909918203
21
-12.0913398414
31
4.2009096308
11
24.0909918203
21
-11.9393223739
31
4.2069662599
11
24.0909918203
21
-11.6352874390
31
4.2190795181
11
24.0909918203
21
-11.0272175691
31
4.2433060346
0
SPLINE
5
2CB
100
AcDbEntity
8
INCISIONI_LASER
100
AcDbSpline
62
9
6
CONTINUOUS
70
0
71
3
72
26
73
22
74
20
42
0.0000001000
43
0.0000001000
44
0.0000000001
12
0.0000000000
22
4.1853022123
32
0.2022132597
13
0.0000000000
23
3.5397712131
33
0.1348434445
40
0.0000000000
40
0.0000000000
40
0.0000000000
40
0.0000000000
40
0.2500000000
40
0.3750000000
40
0.5000000000
40
0.5625000000
40
0.6250000000
40
0.6562500000
40
0.6875000000
40
0.7187500000
40
0.7343750000
40
0.7421875000
40
0.7500000000
40
0.7578125000
40
0.7656250000
40
0.7812500000
40
0.8125000000
40
0.8437500000
40
0.8750000000
40
0.9375000000
40
1.0000000000
40
1.0000000000
40
1.0000000000
40
1.0000000000
10
24.2583628203
20
-14.8966215389
30
4.0746099148
10
24.2583628203
20
-14.5478463545
30
4.0914610198
10
24.2583628203
20
-14.0247420342
30
4.1180079390
10
24.2583628203
20
-13.3270357823
30
4.1483227842
10
24.2583628203
20
-12.8910312864
30
4.1687234130
10
24.2583628203
20
-12.5421375581
30
4.1828249365
10
24.2583628203
20
-12.3240766783
30
4.1918923657
10
24.2583628203
20
-12.1496560264
30
4.1990915090
10
24.2583628203
20
-12.0187577614
30
4.2045028804
10
24.2583628203
20
-11.9099401059
30
4.2089951438
10
24.2583628203
20
-11.8332490743
30
4.2121706188
10
24.2583628203
20
-11.7902355114
30
4.2139373844
10
24.2583628203
20
-11.7556938803
30
4.2153970074
10
24.2583628203
20
-11.7298731432
30
4.2163423311
10
24.2583628203
20
-11.6924035483
30
4.2177821560
10
24.2583628203
20
-11.6282490561
30
4.2202182670
10
24.2583628203
20
-11.5358587996
30
4.2237421236
10
24.2583628203
20
-11.4253076649
30
4.2279520468
10
24.2583628203
20
-11.2777953237
30
4.2335718136
10
24.2583628203
20
-11.0934431767
30
4.2405942647
10
24.2583628203
20
-10.9459497930
30
4.2462129135
10
24.2583628203
20
-10.8722045594
30
4.2490221520
11
24.2583628203
21
-14.8966215389
31
4.0746099148
11
24.2583628203
21
-13.8502959858
31
4.1251632297
11
24.2583628203
21
-13.3270481646
31
4.1486135543
11
24.2583628203
21
-12.8038003433
31
4.1720638789
11
24.2583628203
21
-12.5421370982
31
4.1828757319
11
24.2583628203
21
-12.2804738530
31
4.1936875849
11
24.2583628203
21
-12.1496422304
31
4.1990935113
11
24.2583628203
21
-12.0188106078
31
4.2044994378
11
24.2583628203
21
-11.8879789852
31
4.2099053643
11
24.2583628203
21
-11.8225631739
31
4.2126083276
11
24.2583628203
21
-11.7898552683
31
4.2139598092
11
24.2583628203
21
-11.7571473626
31
4.2153112908
11
24.2583628203
21
-11.7294929000
31
4.2163647552
11
24.2583628203
21
-11.7018384374
31
4.2174182196
11
24.2583628203
21
-11.6465295122
31
4.2195251485
11
24.2583628203
21
-11.5359116618
31
4.2237390061
11
24.2583628203
21
-11.4252938114
31
4.2279528637
11
24.2583628203
21
-11.3146759610
31
4.2321667214
11
24.2583628203
21
-11.0934402602
31
4.2405944367
11
24.2583628203
21
-10.8722045594
31
4.2490221520
0
SPLINE
5
2CC
100
AcDbEntity
8
0
100
AcDbSpline
62
9
6
CONTINUOUS
70
0
71
3
72
12
73
8
74
6
42
0.0000001000
43
0.0000001000
44
0.0000000001
12
4.3525383389
22
-0.3582804502
32
0.0000000000
13
2.1311633799
23
-3.8129929014
33
0.0000000000
40
0.0000000000
40
0.0000000000
40
0.0000000000
40
0.0000000000
40
0.1671952107
40
0.4180448303
40
0.6677588402
40
0.9166960085
40
1.0000000000
40
1.0000000000
40
1.0000000000
40
1.0000000000
10
26.5514556534
20
-8.4415297390
30
0.0000000000
10
26.7940301749
20
-8.4614973308
30
0.0000000000
10
27.3974941526
20
-8.5609294500
30
0.0000000000
10
28.3109267778
20
-8.9138130577
30
0.0000000000
10
29.2100509229
20
-9.5468042522
30
0.0000000000
10
29.7685262658
20
-10.1923802178
30
0.0000000000
10
30.0217338950
20
-10.6050428923
30
0.0000000000
10
30.0809120337
20
-10.7109220683
30
0.0000000000
11
26.5514556534
21
-8.4415297390
31
0.0000000000
11
27.2716783922
21
-8.5604649688
31
0.0000000000
11
28.2913261590
21
-8.9541487447
31
0.0000000000
11
29.1809733422
21
-9.5805704881
31
0.0000000000
11
29.8906327172
21
-10.4008786249
31
0.0000000000
11
30.0809120337
21
-10.7109220683
31
0.0000000000
0
SPLINE
5
2CD
100
AcDbEntity
8
0
100
AcDbSpline
62
9
6
CONTINUOUS
70
0
71
3
72
8
73
4
74
2
42
0.0000001000
43
0.0000001000
44
0.0000000001
12
0.1535916409
22
-0.2812544864
32
0.0000000000
13
0.1330586182
23
-0.2915287750
33
0.0000000000
40
0.0000000000
40
0.0000000000
40
0.0000000000
40
0.0000000000
40
1.0000000000
40
1.0000000000
40
1.0000000000
40
1.0000000000
10
30.1021539152
20
-10.7493695831
30
0.0000000000
10
30.1533511288
20
-10.8431210786
30
0.0000000000
10
30.2011888703
20
-10.9387084555
30
0.0000000000
10
30.2455417430
20
-11.0358847139
30
0.0000000000
11
30.1021539152
21
-10.7493695831
31
0.0000000000
11
30.2455417430
21
-11.0358847139
31
0.0000000000
0
SPLINE
5
2CE
100
AcDbEntity
8
0
100
AcDbSpline
62
9
6
CONTINUOUS
70
0
71
3
72
8
73
4
74
2
42
0.0000001000
43
0.0000001000
44
0.0000000001
12
-0.1899848999
22
-0.3107192418
32
0.0000000000
13
-0.2147021459
23
-0.2941597017
33
0.0000000000
40
0.0000000000
40
0.0000000000
40
0.0000000000
40
0.0000000000
40
1.0000000000
40
1.0000000000
40
1.0000000000
40
1.0000000000
10
29.9927959374
20
-15.2148223769
30
0.0000000000
10
29.9294676375
20
-15.3183954575
30
0.0000000000
10
29.8619206081
20
-15.4193863321
30
0.0000000000
10
29.7903532261
20
-15.5174395660
30
0.0000000000
11
29.9927959374
21
-15.2148223769
31
0.0000000000
11
29.7903532261
21
-15.5174395660
31
0.0000000000
0
SPLINE
5
2CF
100
AcDbEntity
8
0
100
AcDbSpline
62
9
6
CONTINUOUS
70
0
71
3
72
11
73
7
74
5
42
0.0000001000
43
0.0000001000
44
0.0000000001
12
-0.1999128601
22
0.7789937706
32
0.0000000000
13
-0.8042359999
23
0.0009501350
33
0.0000000000
40
0.0000000000
40
0.0000000000
40
0.0000000000
40
0.0000000000
40
0.0845721315
40
0.3023924119
40
0.6232973344
40
1.0000000000
40
1.0000000000
40
1.0000000000
40
1.0000000000
10
35.0742435945
20
20.4065344300
30
0.0000000000
10
35.0686079089
20
20.4284948179
30
0.0000000000
10
34.9565484719
20
20.4231560739
30
0.0000000000
10
34.8172827036
20
20.4537696680
30
0.0000000000
10
34.5585763214
20
20.4558422885
30
0.0000000000
10
34.3753513866
20
20.4606866451
30
0.0000000000
10
34.2743654383
20
20.4608059513
30
0.0000000000
11
35.0742435945
21
20.4065344300
31
0.0000000000
11
35.0094074034
21
20.4270878877
31
0.0000000000
11
34.8351039150
21
20.4445803884
31
0.0000000000
11
34.5772915542
21
20.4564068337
31
0.0000000000
11
34.2743654383
21
20.4608059513
31
0.0000000000
0
SPLINE
5
2D0
100
AcDbEntity
8
0
100
AcDbSpline
62
9
6
CONTINUOUS
70
0
71
3
72
10
73
6
74
4
42
0.0000001000
43
0.0000001000
44
0.0000000001
12
-0.0481810615
22
-40.7036229017
32
0.0000000000
13
0.0481810159
23
-40.7036229018
33
0.0000000000
40
0.0000000000
40
0.0000000000
40
0.0000000000
40
0.0000000000
40
0.3332195173
40
0.6667804824
40
1.0000000000
40
1.0000000000
40
1.0000000000
40
1.0000000000
10
34.2743654383
20
20.4608059540
30
0.0000000000
10
34.2690138150
20
15.9397254282
30
0.0000000000
10
34.2618880022
20
6.8929269972
30
0.0000000000
10
34.2618879958
20
-6.6749580682
30
0.0000000000
10
34.2690138200
20
-15.7217565026
30
0.0000000000
10
34.2743654383
20
-20.2428370318
30
0.0000000000
11
34.2743654383
21
20.4608059540
31
0.0000000000
11
34.2636712793
21
6.8975590904
31
0.0000000000
11
34.2636712779
21
-6.6795901581
31
0.0000000000
11
34.2743654383
21
-20.2428370318
31
0.0000000000
0
SPLINE
5
2D1
100
AcDbEntity
8
0
100
AcDbSpline
62
9
6
CONTINUOUS
70
0
71
3
72
20
73
16
74
14
42
0.0000001000
43
0.0000001000
44
0.0000000001
12
-14.2974109294
22
0.0039823334
32
0.0000000000
13
14.2974112866
23
0.0023756779
33
0.0000000000
40
0.0000000000
40
0.0000000000
40
0.0000000000
40
0.0000000000
40
0.0780334902
40
0.1561378500
40
0.2339155286
40
0.3114901091
40
0.3894398537
40
0.4669515028
40
0.5449688204
40
0.6224255950
40
0.7004166079
40
0.7778925911
40
0.8559355306
40
0.9310860246
40
1.0000000000
40
1.0000000000
40
1.0000000000
40
1.0000000000
10
21.9863868203
20
-17.4544887630
30
0.0000000000
10
21.6144945284
20
-17.4543851779
30
0.0000000000
10
20.8671587933
20
-17.3626317878
30
0.0000000000
10
19.8170510351
20
-16.9574493367
30
0.0000000000
10
18.8976758347
20
-16.3110949535
30
0.0000000000
10
18.1624731285
20
-15.4623448459
30
0.0000000000
10
17.6548252130
20
-14.4619993503
30
0.0000000000
10
17.4036333235
20
-13.3667032625
30
0.0000000000
10
17.4247178476
20
-12.2453373504
30
0.0000000000
10
17.7167915776
20
-11.1603165733
30
0.0000000000
10
18.2613326953
20
-10.1801566815
30
0.0000000000
10
19.0284205511
20
-9.3588095021
30
0.0000000000
10
19.9603125925
20
-8.7547549464
30
0.0000000000
10
20.9691659471
20
-8.4039694162
30
0.0000000000
10
21.6579563372
20
-8.3293565187
30
0.0000000000
10
21.9863868203
20
-8.3293019462
30
0.0000000000
11
21.9863868203
21
-17.4544887630
31
0.0000000000
11
20.8790855368
21
-17.3180378383
31
0.0000000000
11
19.8371536600
21
-16.9163228892
31
0.0000000000
11
18.9275140194
21
-16.2766799886
31
0.0000000000
11
18.2012998007
21
-15.4383778119
31
0.0000000000
11
17.6969634577
21
-14.4445420246
31
0.0000000000
11
17.4492337620
21
-13.3643695508
31
0.0000000000
11
17.4702029423
21
-12.2491209754
31
0.0000000000
11
17.7580690904
21
-11.1797579221
31
0.0000000000
11
18.2995949545
21
-10.2050118222
31
0.0000000000
11
19.0556952911
21
-9.3954904257
31
0.0000000000
11
19.9919661173
21
-8.7885032739
31
0.0000000000
11
21.0068602441
21
-8.4357301058
31
0.0000000000
11
21.9863868203
21
-8.3293019462
31
0.0000000000
0
SPLINE
5
2D2
100
AcDbEntity
8
0
100
AcDbSpline
62
9
6
CONTINUOUS
70
0
71
3
72
18
73
14
74
12
42
0.0000001000
43
0.0000001000
44
0.0000000001
12
-0.5914063034
22
-1.2669350018
32
0.0000000000
13
-0.0007743033
23
-1.3981720620
33
0.0000000000
40
0.0000000000
40
0.0000000000
40
0.0000000000
40
0.0000000000
40
0.0090487950
40
0.0353344672
40
0.0827059280
40
0.1531459672
40
0.2462456032
40
0.3589810210
40
0.4860353632
40
0.6206384760
40
0.7555931045
40
0.8840764442
40
1.0000000000
40
1.0000000000
40
1.0000000000
40
1.0000000000
10
34.2863425923
20
21.8588183893
30
0.0000000000
10
34.2845587542
20
21.8549969776
30
0.0000000000
10
34.2856851888
20
21.8377611160
30
0.0000000000
10
34.2821494290
20
21.8000219226
30
0.0000000000
10
34.2819996969
20
21.7323980331
30
0.0000000000
10
34.2798533061
20
21.6343419302
30
0.0000000000
10
34.2786770597
20
21.5054968399
30
0.0000000000
10
34.2773038412
20
21.3503895398
30
0.0000000000
10
34.2762641116
20
21.1758934605
30
0.0000000000
10
34.2754302724
20
20.9910543698
30
0.0000000000
10
34.2748566412
20
20.8055443608
30
0.0000000000
10
34.2745086453
20
20.6287406329
30
0.0000000000
10
34.2743953583
20
20.5148329797
30
0.0000000000
10
34.2743654383
20
20.4608059540
30
0.0000000000
11
34.2863425923
21
21.8588183893
31
0.0000000000
11
34.2849627501
21
21.8462420851
31
0.0000000000
11
34.2834421431
21
21.8095216579
31
0.0000000000
11
34.2818496150
21
21.7433073430
31
0.0000000000
11
34.2802634970
21
21.6448328059
31
0.0000000000
11
34.2787662334
21
21.5146720873
31
0.0000000000
11
34.2774343574
21
21.3570541786
31
0.0000000000
11
34.2763267008
21
21.1794137731
31
0.0000000000
11
34.2754754578
21
20.9912173575
31
0.0000000000
11
34.2748835291
21
20.8025284659
31
0.0000000000
11
34.2745277751
21
20.6228869746
31
0.0000000000
11
34.2743654383
21
20.4608059540
31
0.0000000000
0
SPLINE
5
2D3
100
AcDbEntity
8
0
100
AcDbSpline
62
9
6
CONTINUOUS
70
0
71
3
72
17
73
13
74
11
42
0.0000001000
43
0.0000001000
44
0.0000000001
12
-0.4615409910
22
-0.4615179927
32
0.0000000000
13
-0.0007747218
23
-0.6527008072
33
0.0000000000
40
0.0000000000
40
0.0000000000
40
0.0000000000
40
0.0000000000
40
0.0355186739
40
0.0829092904
40
0.1533367832
40
0.2464044516
40
0.3591024752
40
0.4861253135
40
0.6207064296
40
0.7556445802
40
0.8841084421
40
1.0000000000
40
1.0000000000
40
1.0000000000
40
1.0000000000
10
35.0862207485
20
21.0589402332
30
0.0000000000
10
35.0807563071
20
21.0534760641
30
0.0000000000
10
35.0852875983
20
21.0320591336
30
0.0000000000
10
35.0803842082
20
21.0006463434
30
0.0000000000
10
35.0803594778
20
20.9539332390
30
0.0000000000
10
35.0783254709
20
20.8942049596
30
0.0000000000
10
35.0772585150
20
20.8216886581
30
0.0000000000
10
35.0761198937
20
20.7402994599
30
0.0000000000
10
35.0753149496
20
20.6540170336
30
0.0000000000
10
35.0747332780
20
20.5674339984
30
0.0000000000
10
35.0743872437
20
20.4849120527
30
0.0000000000
10
35.0742735224
20
20.4317486012
30
0.0000000000
10
35.0742435945
20
20.4065344300
30
0.0000000000
11
35.0862207485
21
21.0589402332
31
0.0000000000
11
35.0833205391
21
21.0359392735
31
0.0000000000
11
35.0817282129
21
21.0050483705
31
0.0000000000
11
35.0801422720
21
20.9591076231
31
0.0000000000
11
35.0786450798
21
20.8983806914
31
0.0000000000
11
35.0773131374
21
20.8248346086
31
0.0000000000
11
35.0762053072
21
20.7419340430
31
0.0000000000
11
35.0753538689
21
20.6540969046
31
0.0000000000
11
35.0747617828
21
20.5660245929
31
0.0000000000
11
35.0744059573
21
20.4821768224
31
0.0000000000
11
35.0742435945
21
20.4065344300
31
0.0000000000
0
SPLINE
5
2D4
100
AcDbEntity
8
0
100
AcDbSpline
62
9
6
CONTINUOUS
70
0
71
3
72
18
73
14
74
12
42
0.0000001000
43
0.0000001000
44
0.0000000001
12
0.5910671420
22
1.2670948058
32
0.0000000000
13
0.0007746693
23
1.3981734561
33
0.0000000000
40
0.0000000000
40
0.0000000000
40
0.0000000000
40
0.0000000000
40
0.0081608810
40
0.0321894586
40
0.0762946075
40
0.1430319688
40
0.2327334861
40
0.3431406870
40
0.4695403643
40
0.6054712273
40
0.7437424270
40
0.8773485377
40
1.0000000000
40
1.0000000000
40
1.0000000000
40
1.0000000000
10
13.8864310482
20
-21.6408494671
30
0.0000000000
10
13.8880389244
20
-21.6374025971
30
0.0000000000
10
13.8871470899
20
-21.6217182834
30
0.0000000000
10
13.8903908067
20
-21.5868936753
30
0.0000000000
10
13.8906357214
20
-21.5236060767
30
0.0000000000
10
13.8927219446
20
-21.4303695803
30
0.0000000000
10
13.8939194719
20
-21.3059221492
30
0.0000000000
10
13.8953152115
20
-21.1537885975
30
0.0000000000
10
13.8963924299
20
-20.9800638362
30
0.0000000000
10
13.8972676794
20
-20.7933654226
30
0.0000000000
10
13.8978789246
20
-20.6033032405
30
0.0000000000
10
13.8982546745
20
-20.4194305751
30
0.0000000000
10
13.8983765308
20
-20.2999997048
30
0.0000000000
10
13.8984082022
20
-20.2428370318
30
0.0000000000
11
13.8864310482
21
-21.6408494671
31
0.0000000000
11
13.8877320053
21
-21.6295135456
31
0.0000000000
11
13.8891923436
21
-21.5959491746
31
0.0000000000
11
13.8907453216
21
-21.5343020744
31
0.0000000000
11
13.8923146471
21
-21.4410048507
31
0.0000000000
11
13.8938179875
21
-21.3155955612
31
0.0000000000
11
13.8951755683
21
-21.1612330896
31
0.0000000000
11
13.8963219366
21
-20.9845081068
31
0.0000000000
11
13.8972163410
21
-20.7944552578
31
0.0000000000
11
13.8978474893
21
-20.6011291371
31
0.0000000000
11
13.8982318889
21
-20.4143249864
31
0.0000000000
11
13.8984082022
21
-20.2428370318
31
0.0000000000
0
SPLINE
5
2D5
100
AcDbEntity
8
0
100
AcDbSpline
62
9
6
CONTINUOUS
70
0
71
3
72
17
73
13
74
11
42
0.0000001000
43
0.0000001000
44
0.0000000001
12
0.4614544545
22
0.4616097109
32
0.0000000000
13
0.0007746968
23
0.6527044803
33
0.0000000000
40
0.0000000000
40
0.0000000000
40
0.0000000000
40
0.0000000000
40
0.0323832111
40
0.0765360825
40
0.1433054185
40
0.2330219807
40
0.3434211695
40
0.4697863650
40
0.6056606829
40
0.7438642573
40
0.8774041157
40
1.0000000000
40
1.0000000000
40
1.0000000000
40
1.0000000000
10
13.0865528921
20
-20.8409713109
30
0.0000000000
10
13.0915340178
20
-20.8359885094
30
0.0000000000
10
13.0875476720
20
-20.8162554301
30
0.0000000000
10
13.0921498982
20
-20.7868988187
30
0.0000000000
10
13.0922460268
20
-20.7424524297
30
0.0000000000
10
13.0942667495
20
-20.6847424285
30
0.0000000000
10
13.0953617606
20
-20.6135985753
30
0.0000000000
10
13.0965378992
20
-20.5325722323
30
0.0000000000
10
13.0973832018
20
-20.4454404041
30
0.0000000000
10
13.0980025897
20
-20.3567611037
30
0.0000000000
10
13.0983761212
20
-20.2709652202
30
0.0000000000
10
13.0984983879
20
-20.2152384688
30
0.0000000000
10
13.0985300461
20
-20.1885655078
30
0.0000000000
11
13.0865528921
21
-20.8409713109
31
0.0000000000
11
13.0893143610
21
-20.8200157959
31
0.0000000000
11
13.0908675722
21
-20.7912388848
31
0.0000000000
11
13.0924370885
21
-20.7476864809
31
0.0000000000
11
13.0939405133
21
-20.6891473401
31
0.0000000000
11
13.0952980319
21
-20.6171020326
31
0.0000000000
11
13.0964442347
21
-20.5346308100
31
0.0000000000
11
13.0973384492
21
-20.4459494797
31
0.0000000000
11
13.0979694509
21
-20.3557455310
31
0.0000000000
11
13.0983537732
21
-20.2685842529
31
0.0000000000
11
13.0985300461
21
-20.1885655078
31
0.0000000000
0
SPLINE
5
2D6
100
AcDbEntity
8
0
100
AcDbSpline
62
9
6
CONTINUOUS
70
0
71
3
72
11
73
7
74
5
42
0.0000001000
43
0.0000001000
44
0.0000000001
12
0.1999131865
22
-0.7789936862
32
0.0000000000
13
0.8042359993
23
-0.0009501350
33
0.0000000000
40
0.0000000000
40
0.0000000000
40
0.0000000000
40
0.0000000000
40
0.0845721394
40
0.3023924218
40
0.6232973410
40
1.0000000000
40
1.0000000000
40
1.0000000000
40
1.0000000000
10
13.0985300461
20
-20.1885655078
30
0.0000000000
10
13.1041657414
20
-20.2105258954
30
0.0000000000
10
13.2162251636
20
-20.2051871510
30
0.0000000000
10
13.3554909499
20
-20.2358007441
30
0.0000000000
10
13.6141973214
20
-20.2378733649
30
0.0000000000
10
13.7974222558
20
-20.2427177213
30
0.0000000000
10
13.8984082022
20
-20.2428370274
30
0.0000000000
11
13.0985300461
21
-20.1885655078
31
0.0000000000
11
13.1633662439
21
-20.2091189649
31
0.0000000000
11
13.3376697340
21
-20.2266114651
31
0.0000000000
11
13.5954820919
21
-20.2384379100
31
0.0000000000
11
13.8984082022
21
-20.2428370274
31
0.0000000000
0
SPLINE
5
2D7
100
AcDbEntity
8
0
100
AcDbSpline
62
9
6
CONTINUOUS
70
0
71
3
72
10
73
6
74
4
42
0.0000001000
43
0.0000001000
44
0.0000000001
12
0.0481810159
22
40.7036229018
32
0.0000000000
13
-0.0481810615
23
40.7036229017
33
0.0000000000
40
0.0000000000
40
0.0000000000
40
0.0000000000
40
0.0000000000
40
0.3332195176
40
0.6667804827
40
1.0000000000
40
1.0000000000
40
1.0000000000
40
1.0000000000
10
13.8984082022
20
-20.2428370318
30
0.0000000000
10
13.9037598205
20
-15.7217565026
30
0.0000000000
10
13.9108856448
20
-6.6749580682
30
0.0000000000
10
13.9108856384
20
6.8929269972
30
0.0000000000
10
13.9037598256
20
15.9397254282
30
0.0000000000
10
13.8984082022
20
20.4608059540
30
0.0000000000
11
13.8984082022
21
-20.2428370318
31
0.0000000000
11
13.9091023627
21
-6.6795901581
31
0.0000000000
11
13.9091023613
21
6.8975590904
31
0.0000000000
11
13.8984082022
21
20.4608059540
31
0.0000000000
0
SPLINE
5
2D8
100
AcDbEntity
8
0
100
AcDbSpline
62
9
6
CONTINUOUS
70
0
71
3
72
11
73
7
74
5
42
0.0000001000
43
0.0000001000
44
0.0000000001
12
0.1999126049
22
0.7789938362
32
0.0000000000
13
0.8042360000
23
0.0009501344
33
0.0000000000
40
0.0000000000
40
0.0000000000
40
0.0000000000
40
0.0000000000
40
0.0845721249
40
0.3023924036
40
0.6232973290
40
1.0000000000
40
1.0000000000
40
1.0000000000
40
1.0000000000
10
13.0985300461
20
20.4065344300
30
0.0000000000
10
13.1041657240
20
20.4284948180
30
0.0000000000
10
13.2162251728
20
20.4231560730
30
0.0000000000
10
13.3554909266
20
20.4537696679
30
0.0000000000
10
13.6141973175
20
20.4558422872
30
0.0000000000
10
13.7974222525
20
20.4606866439
30
0.0000000000
10
13.8984082022
20
20.4608059500
30
0.0000000000
11
13.0985300461
21
20.4065344300
31
0.0000000000
11
13.1633662317
21
20.4270878873
31
0.0000000000
11
13.3376697189
21
20.4445803877
31
0.0000000000
11
13.5954820820
21
20.4564068327
31
0.0000000000
11
13.8984082022
21
20.4608059500
31
0.0000000000
0
SPLINE
5
2D9
100
AcDbEntity
8
0
100
AcDbSpline
62
9
6
CONTINUOUS
70
0
71
3
72
18
73
14
74
12
42
0.0000001000
43
0.0000001000
44
0.0000000001
12
-0.0007744469
22
1.3981716157
32
0.0000000000
13
-0.5913774364
23
1.2669479841
33
0.0000000000
40
0.0000000000
40
0.0000000000
40
0.0000000000
40
0.0000000000
40
0.1135744195
40
0.2403390560
40
0.3742452115
40
0.5084745095
40
0.6357937138
40
0.7493167915
40
0.8435327594
40
0.9151814249
40
0.9636238968
40
0.9906560742
40
1.0000000000
40
1.0000000000
40
1.0000000000
40
1.0000000000
10
13.8984082022
20
20.4608059540
30
0.0000000000
10
13.8983788831
20
20.5137381306
30
0.0000000000
10
13.8982684851
20
20.6257499006
30
0.0000000000
10
13.8979297432
20
20.8001690954
30
0.0000000000
10
13.8973683474
20
20.9842151769
30
0.0000000000
10
13.8965477361
20
21.1685148687
30
0.0000000000
10
13.8955197886
20
21.3433272388
30
0.0000000000
10
13.8941535730
20
21.4994453038
30
0.0000000000
10
13.8929839003
20
21.6297420261
30
0.0000000000
10
13.8908182428
20
21.7293770776
30
0.0000000000
10
13.8906995567
20
21.7984229075
30
0.0000000000
10
13.8870679642
20
21.8371229279
30
0.0000000000
10
13.8882729772
20
21.8548723000
30
0.0000000000
10
13.8864310482
20
21.8588183893
30
0.0000000000
11
13.8984082022
21
20.4608059540
31
0.0000000000
11
13.8982506181
21
20.6196024298
31
0.0000000000
11
13.8979043683
21
20.7968408354
31
0.0000000000
11
13.8973251061
21
20.9840637539
31
0.0000000000
11
13.8964875478
21
21.1717375082
31
0.0000000000
11
13.8953919979
21
21.3497482618
31
0.0000000000
11
13.8940680847
21
21.5084675097
31
0.0000000000
11
13.8925726601
21
21.6401891336
31
0.0000000000
11
13.8909812254
21
21.7403536377
31
0.0000000000
11
13.8893761233
21
21.8080655155
31
0.0000000000
11
13.8878361892
21
21.8458297602
31
0.0000000000
11
13.8864310482
21
21.8588183893
31
0.0000000000
0
SPLINE
5
2DA
100
AcDbEntity
8
0
100
AcDbSpline
62
9
6
CONTINUOUS
70
0
71
3
72
17
73
13
74
11
42
0.0000001000
43
0.0000001000
44
0.0000000001
12
-0.0007747414
22
0.6526996489
32
0.0000000000
13
-0.4615064248
23
0.4615509200
33
0.0000000000
40
0.0000000000
40
0.0000000000
40
0.0000000000
40
0.0000000000
40
0.1135352287
40
0.2402705262
40
0.3741601247
40
0.5083720918
40
0.6356668330
40
0.7491589015
40
0.8433462394
40
0.9149822922
40
0.9634419046
40
1.0000000000
40
1.0000000000
40
1.0000000000
40
1.0000000000
10
13.0985300461
20
20.4065344300
30
0.0000000000
10
13.0985007260
20
20.4312358980
30
0.0000000000
10
13.0983899108
20
20.4835105264
30
0.0000000000
10
13.0980531020
20
20.5649154607
30
0.0000000000
10
13.0974838244
20
20.6508139505
30
0.0000000000
10
13.0966918866
20
20.7368468825
30
0.0000000000
10
13.0955651357
20
20.8183879749
30
0.0000000000
10
13.0945069929
20
20.8913798670
30
0.0000000000
10
13.0924683836
20
20.9517851927
30
0.0000000000
10
13.0924668228
20
20.9992494457
30
0.0000000000
10
13.0874648357
20
21.0313429048
30
0.0000000000
10
13.0921768241
20
21.0533157590
30
0.0000000000
10
13.0865528921
20
21.0589402332
30
0.0000000000
11
13.0985300461
21
20.4065344300
31
0.0000000000
11
13.0983724490
21
20.4806387186
31
0.0000000000
11
13.0980261623
21
20.5633581362
31
0.0000000000
11
13.0974467722
21
20.6507459710
31
0.0000000000
11
13.0966090283
21
20.7383421307
31
0.0000000000
11
13.0955132861
21
20.8214201963
31
0.0000000000
11
13.0941892632
21
20.8954846482
31
0.0000000000
11
13.0926938628
21
20.9569425435
31
0.0000000000
11
13.0911025778
21
21.0036723168
31
0.0000000000
11
13.0894976792
21
21.0352611682
31
0.0000000000
11
13.0865528921
21
21.0589402332
31
0.0000000000
0
SPLINE
5
2DB
100
AcDbEntity
8
0
100
AcDbSpline
62
9
6
CONTINUOUS
70
0
71
3
72
20
73
16
74
14
42
0.0000001000
43
0.0000001000
44
0.0000000001
12
14.2974066716
22
-0.0039710382
32
0.0000000000
13
-14.2974070257
23
-0.0023754192
33
0.0000000000
40
0.0000000000
40
0.0000000000
40
0.0000000000
40
0.0000000000
40
0.0781186076
40
0.1562877617
40
0.2341120247
40
0.3117019863
40
0.3896287264
40
0.4671263074
40
0.5451598349
40
0.6226585365
40
0.7006928028
40
0.7781719184
40
0.8561898412
40
0.9312263121
40
1.0000000000
40
1.0000000000
40
1.0000000000
40
1.0000000000
10
26.1863868203
20
-8.3293019462
30
0.0000000000
10
26.5586846541
20
-8.3294053502
30
0.0000000000
10
27.3067451804
20
-8.4213495337
30
0.0000000000
10
28.3576001399
20
-8.8272698489
30
0.0000000000
10
29.2771319085
20
-9.4744857206
30
0.0000000000
10
30.0119125207
20
-10.3238549802
30
0.0000000000
10
30.5188769341
20
-11.3244211682
30
0.0000000000
10
30.7694175130
20
-12.4197587205
30
0.0000000000
10
30.7476821994
20
-13.5413288173
30
0.0000000000
10
30.4547530959
20
-14.6266367982
30
0.0000000000
10
29.9092115195
20
-15.6067416953
30
0.0000000000
10
29.1413338345
20
-16.4274911606
30
0.0000000000
10
28.2094877384
20
-17.0304016026
30
0.0000000000
10
27.2017135491
20
-17.3801070602
30
0.0000000000
10
26.5141486233
20
-17.4544343076
30
0.0000000000
10
26.1863868203
20
-17.4544887630
30
0.0000000000
11
26.1863868203
21
-8.3293019462
31
0.0000000000
11
27.2948772391
21
-8.4660505522
31
0.0000000000
11
28.3375238076
21
-8.8684858484
31
0.0000000000
11
29.2473579432
21
-9.5090091940
31
0.0000000000
11
29.9731755160
21
-10.3479451907
31
0.0000000000
11
30.4767346478
21
-11.3418059331
31
0.0000000000
11
30.7237997538
21
-12.4219239396
31
0.0000000000
11
30.7021826058
21
-13.5373916143
31
0.0000000000
11
30.4134453515
21
-14.6071403609
31
0.0000000000
11
29.8708362869
21
-15.5819913276
31
0.0000000000
11
29.1139965386
21
-16.3908823531
31
0.0000000000
11
28.1775155987
21
-16.9968865647
31
0.0000000000
11
27.1639425592
21
-17.3484934826
31
0.0000000000
11
26.1863868203
21
-17.4544887630
31
0.0000000000
0
SPLINE
5
2DC
100
AcDbEntity
8
0
100
AcDbSpline
62
9
6
CONTINUOUS
70
0
71
3
72
11
73
7
74
5
42
0.0000001000
43
0.0000001000
44
0.0000000001
12
-3.9873194175
22
0.3278181156
32
0.0000000000
13
-2.2329402918
23
3.3204831179
33
0.0000000000
40
0.0000000000
40
0.0000000000
40
0.0000000000
40
0.0000000000
40
0.1823111659
40
0.4559028542
40
0.7283199089
40
1.0000000000
40
1.0000000000
40
1.0000000000
40
1.0000000000
10
21.6217570853
20
-17.3336300718
30
0.0000000000
10
21.3794461347
20
-17.3137084375
30
0.0000000000
10
20.7765473869
20
-17.2144854080
30
0.0000000000
10
19.8637510939
20
-16.8622516459
30
0.0000000000
10
18.9647906384
20
-16.2301378274
30
0.0000000000
10
18.4860911230
20
-15.6775297934
30
0.0000000000
10
18.2838759823
20
-15.3768267414
30
0.0000000000
11
21.6217570853
21
-17.3336300718
31
0.0000000000
11
20.9022997696
21
-17.2149603175
31
0.0000000000
11
19.8833768965
21
-16.8220063498
31
0.0000000000
11
18.9939305108
21
-16.1964801438
31
0.0000000000
11
18.2838759823
21
-15.3768267414
31
0.0000000000
0
SPLINE
5
2DD
100
AcDbEntity
8
0
100
AcDbSpline
62
9
6
CONTINUOUS
70
0
71
3
72
8
73
4
74
2
42
0.0000001000
43
0.0000001000
44
0.0000000001
12
-0.1556533789
22
0.2840657214
32
0.0000000000
13
-0.1346862362
23
0.2945847300
33
0.0000000000
40
0.0000000000
40
0.0000000000
40
0.0000000000
40
0.0000000000
40
1.0000000000
40
1.0000000000
40
1.0000000000
40
1.0000000000
10
18.0736780680
20
-15.0313440307
30
0.0000000000
10
18.0217936084
20
-14.9366554569
30
0.0000000000
10
17.9733388313
20
-14.8400862108
30
0.0000000000
10
17.9284434192
20
-14.7418913008
30
0.0000000000
11
18.0736780680
21
-15.0313440307
31
0.0000000000
11
17.9284434192
21
-14.7418913008
31
0.0000000000
0
SPLINE
5
2DE
100
AcDbEntity
8
0
100
AcDbSpline
62
9
6
CONTINUOUS
70
0
71
3
72
12
73
8
74
6
42
0.0000001000
43
0.0000001000
44
0.0000000001
12
2.2145601317
22
3.6289436782
32
0.0000000000
13
4.2373816821
23
0.2977576467
33
0.0000000000
40
0.0000000000
40
0.0000000000
40
0.0000000000
40
0.0000000000
40
0.0856314438
40
0.3410280231
40
0.5983406589
40
0.8461858709
40
1.0000000000
40
1.0000000000
40
1.0000000000
40
1.0000000000
10
18.1779670562
20
-10.5635916154
30
0.0000000000
10
18.2411790500
20
-10.4600077199
30
0.0000000000
10
18.5097173718
20
-10.0577442083
30
0.0000000000
10
19.0927291547
20
-9.4335398259
30
0.0000000000
10
20.0040396883
20
-8.8427637076
30
0.0000000000
10
20.8918090006
20
-8.5340609023
30
0.0000000000
10
21.4569896663
20
-8.4527227283
30
0.0000000000
10
21.6742460573
20
-8.4374562839
30
0.0000000000
11
18.1779670562
21
-10.5635916154
31
0.0000000000
11
18.3800575373
21
-10.2609240930
31
0.0000000000
11
19.1193390529
21
-9.4694374470
31
0.0000000000
11
20.0349107950
21
-8.8758190109
31
0.0000000000
11
21.0276504127
21
-8.5306845974
31
0.0000000000
11
21.6742460573
21
-8.4374562839
31
0.0000000000
0
SPLINE
5
2DF
100
AcDbEntity
8
0
100
AcDbSpline
62
9
6
CONTINUOUS
70
0
71
3
72
11
73
7
74
5
42
0.0000001000
43
0.0000001000
44
0.0000000001
12
-0.1999147830
22
-0.7789932714
32
0.0000000000
13
-0.8042359944
23
-0.0009501327
33
0.0000000000
40
0.0000000000
40
0.0000000000
40
0.0000000000
40
0.0000000000
40
0.0845721753
40
0.3023924673
40
0.6232973710
40
1.0000000000
40
1.0000000000
40
1.0000000000
40
1.0000000000
10
35.0742435945
20
-20.1885655078
30
0.0000000000
10
35.0686078518
20
-20.2105258930
30
0.0000000000
10
34.9565485005
20
-20.2051871373
30
0.0000000000
10
34.8172826290
20
-20.2358007267
30
0.0000000000
10
34.5585763086
20
-20.2378733430
30
0.0000000000
10
34.3753513761
20
-20.2427176977
30
0.0000000000
10
34.2743654383
20
-20.2428370035
30
0.0000000000
11
35.0742435945
21
-20.1885655078
31
0.0000000000
11
35.0094073644
21
-20.2091189571
31
0.0000000000
11
34.8351038668
21
-20.2266114497
31
0.0000000000
11
34.5772915227
21
-20.2384378888
31
0.0000000000
11
34.2743654383
21
-20.2428370035
31
0.0000000000
0
SPLINE
5
2E0
100
AcDbEntity
8
0
100
AcDbSpline
62
9
6
CONTINUOUS
70
0
71
3
72
18
73
14
74
12
42
0.0000001000
43
0.0000001000
44
0.0000000001
12
0.0007745772
22
-1.3981729821
32
0.0000000000
13
0.5910245426
23
-1.2671141535
33
0.0000000000
40
0.0000000000
40
0.0000000000
40
0.0000000000
40
0.0000000000
40
0.1204467536
40
0.2523961394
40
0.3896186033
40
0.5251444378
40
0.6517621455
40
0.7629077778
40
0.8536844702
40
0.9216028364
40
0.9667656096
40
0.9915402948
40
1.0000000000
40
1.0000000000
40
1.0000000000
40
1.0000000000
10
34.2743654383
20
-20.2428370318
30
0.0000000000
10
34.2743965368
20
-20.2989721640
30
0.0000000000
10
34.2745155888
20
-20.4166033422
30
0.0000000000
10
34.2748821765
20
-20.5981875413
30
0.0000000000
10
34.2754811260
20
-20.7868000051
30
0.0000000000
10
34.2763429017
20
-20.9729225235
30
0.0000000000
10
34.2774078934
20
-21.1469042536
30
0.0000000000
10
34.2787961220
20
-21.2999846420
30
0.0000000000
10
34.2799865007
20
-21.4258286795
30
0.0000000000
10
34.2820915543
20
-21.5206059210
30
0.0000000000
10
34.2823058026
20
-21.5852960544
30
0.0000000000
10
34.2856446180
20
-21.6210769055
30
0.0000000000
10
34.2846759612
20
-21.6372763296
30
0.0000000000
10
34.2863425923
20
-21.6408494671
30
0.0000000000
11
34.2743654383
21
-20.2428370318
31
0.0000000000
11
34.2745371323
21
-20.4112423668
31
0.0000000000
11
34.2749120856
21
-20.5957300802
31
0.0000000000
11
34.2755304356
21
-20.7875898548
31
0.0000000000
11
34.2764108292
21
-20.9770763989
31
0.0000000000
11
34.2775445777
21
-21.1541062536
31
0.0000000000
11
34.2788935670
21
-21.3095012424
31
0.0000000000
11
34.2803944639
21
-21.4364139060
31
0.0000000000
11
34.2819686980
21
-21.5313624957
31
0.0000000000
11
34.2835342255
21
-21.5944884651
31
0.0000000000
11
34.2850146252
21
-21.6290961171
31
0.0000000000
11
34.2863425923
21
-21.6408494671
31
0.0000000000
0
SPLINE
5
2E1
100
AcDbEntity
8
0
100
AcDbSpline
62
9
6
CONTINUOUS
70
0
71
3
72
17
73
13
74
11
42
0.0000001000
43
0.0000001000
44
0.0000000001
12
0.0007746662
22
-0.6527032221
32
0.0000000000
13
0.4614785162
23
-0.4615838768
33
0.0000000000
40
0.0000000000
40
0.0000000000
40
0.0000000000
40
0.0000000000
40
0.1203966916
40
0.2522836005
40
0.3894387643
40
0.5249045153
40
0.6514817994
40
0.7626138891
40
0.8534028996
40
0.9213538262
40
0.9665669588
40
1.0000000000
40
1.0000000000
40
1.0000000000
40
1.0000000000
10
35.0742435945
20
-20.1885655078
30
0.0000000000
10
35.0742746835
20
-20.2147599440
30
0.0000000000
10
35.0743941285
20
-20.2696484937
30
0.0000000000
10
35.0747585575
20
-20.3543780100
30
0.0000000000
10
35.0753655322
20
-20.4423806570
30
0.0000000000
10
35.0761975920
20
-20.5292414042
30
0.0000000000
10
35.0773613616
20
-20.6103847948
30
0.0000000000
10
35.0784470427
20
-20.6819675410
30
0.0000000000
10
35.0804715331
20
-20.7403253866
30
0.0000000000
10
35.0805444258
20
-20.7855046360
30
0.0000000000
10
35.0852450361
20
-20.8155363440
30
0.0000000000
10
35.0810778717
20
-20.8358272600
30
0.0000000000
10
35.0862207485
20
-20.8409713109
30
0.0000000000
11
35.0742435945
21
-20.1885655078
31
0.0000000000
11
35.0744152520
21
-20.2671486842
31
0.0000000000
11
35.0747901396
21
-20.3532309389
31
0.0000000000
11
35.0754083510
21
-20.4427504847
31
0.0000000000
11
35.0762885462
21
-20.5311650979
31
0.0000000000
11
35.0774220932
21
-20.6137747805
31
0.0000000000
11
35.0787709632
21
-20.6862985619
31
0.0000000000
11
35.0802718874
21
-20.7455378722
31
0.0000000000
11
35.0818462810
21
-20.7898617396
31
0.0000000000
11
35.0834120550
21
-20.8193309502
31
0.0000000000
11
35.0862207485
21
-20.8409713109
31
0.0000000000
0
SPLINE
5
2E2
100
AcDbEntity
8
ASSI
100
AcDbSpline
62
9
6
CONTINUOUS
70
0
71
3
72
21
73
17
74
15
42
0.0000001000
43
0.0000001000
44
0.0000000001
12
-7.9521618596
22
0.0000000000
32
0.0000000000
13
7.8428483182
23
0.0000000000
33
0.0000000000
40
0.0000000000
40
0.0000000000
40
0.0000000000
40
0.0000000000
40
0.0714285714
40
0.1428571429
40
0.2142857143
40
0.2857142857
40
0.3571428571
40
0.4285714286
40
0.5000000000
40
0.5714285714
40
0.6428571429
40
0.7142857143
40
0.7857142857
40
0.8571428571
40
0.9285714286
40
1.0000000000
40
1.0000000000
40
1.0000000000
40
1.0000000000
10
24.0863868203
20
10.7217154611
30
4.2622244685
10
23.8970496331
20
10.7217154611
30
4.2622244685
10
23.5451701769
20
10.7644750338
30
4.2607143323
10
23.0450589646
20
10.9385886650
30
4.2544980940
10
22.5858109732
20
11.2262514473
30
4.2440024598
10
22.2043977002
20
11.6076689129
30
4.2296520522
10
21.9161852429
20
12.0664546578
30
4.2117366284
10
21.7379942037
20
12.5782307977
30
4.1909076049
10
21.6787175878
20
13.1178302177
30
4.1679821433
10
21.7419383191
20
13.6567837092
30
4.1440949067
10
21.9236434509
20
14.1667708174
30
4.1205820571
10
22.2144551434
20
14.6226646713
30
4.0988140044
10
22.5971467756
20
15.0005194911
30
4.0802369631
10
23.0558500652
20
15.2842271124
30
4.0659689053
10
23.5520869948
20
15.4546568532
30
4.0572663373
10
23.8996523365
20
15.4962534611
30
4.0551267130
10
24.0863868203
20
15.4962534611
30
4.0551267130
11
24.0863868203
21
10.7217154611
31
4.2622244685
11
23.5497881723
21
10.7828040792
31
4.2600558266
11
23.0518695014
21
10.9575135235
31
4.2537848613
11
22.5987834263
21
11.2418772278
31
4.2433599976
11
22.2199311695
21
11.6205636261
31
4.2290578828
11
21.9345221459
21
12.0752863903
31
4.2112510284
11
21.7578132742
21
12.5828680110
31
4.1905581986
11
21.6991338123
21
13.1177225629
31
4.1678218475
11
21.7616857192
21
13.6519559787
31
4.1441573045
11
21.9418278777
21
14.1577552750
31
4.1208728566
11
22.2297684667
21
14.6096581656
31
4.0993458396
11
22.6098153852
21
14.9848282913
31
4.0809551270
11
23.0621056719
21
15.2653474657
31
4.0668964870
11
23.5562721753
21
15.4366510484
31
4.0581818592
11
24.0863868203
21
15.4962534611
31
4.0551267130
0
SPLINE
5
2E3
100
AcDbEntity
8
ASSI
100
AcDbSpline
62
9
6
CONTINUOUS
70
0
71
3
72
21
73
17
74
15
42
0.0000001000
43
0.0000001000
44
0.0000000001
12
6.8709955881
22
0.0000000000
32
0.0000000000
13
-6.7510946671
23
0.0000000000
33
0.0000000000
40
0.0000000000
40
0.0000000000
40
0.0000000000
40
0.0000000000
40
0.0714285714
40
0.1428571429
40
0.2142857143
40
0.2857142857
40
0.3571428571
40
0.4285714286
40
0.5000000000
40
0.5714285714
40
0.6428571429
40
0.7142857143
40
0.7857142857
40
0.8571428571
40
0.9285714286
40
1.0000000000
40
1.0000000000
40
1.0000000000
40
1.0000000000
10
24.0863868203
20
15.1637794611
30
4.0720171274
10
24.2499819533
20
15.1637794611
30
4.0720171274
10
24.5539035589
20
15.1266877364
30
4.0738834514
10
24.9851045117
20
14.9759853143
30
4.0814157442
10
25.3799888451
20
14.7278689804
30
4.0936485264
10
25.7076606353
20
14.3994504839
30
4.1095180590
10
25.9553359652
20
14.0042692065
30
4.1281278740
10
26.1081860726
20
13.5636640422
30
4.1482500217
10
26.1587049156
20
13.0995363471
30
4.1687326516
10
26.1039578798
20
12.6360700263
30
4.1884545235
10
25.9475179454
20
12.1978042747
30
4.2064324697
10
25.6974606670
20
11.8059657143
30
4.2219532727
10
25.3681551095
20
11.4808355327
30
4.2344361786
10
24.9733954430
20
11.2366904067
30
4.2435733051
10
24.5463089876
20
11.0900005373
30
4.2489660216
10
24.2471271695
20
11.0541894611
30
4.2502709931
10
24.0863868203
20
11.0541894611
30
4.2502709931
11
24.0863868203
21
15.1637794611
31
4.0720171274
11
24.5497899830
21
15.1108435972
31
4.0746722526
11
24.9790517418
21
14.9597496623
31
4.0821991591
11
25.3687867545
21
14.7144852866
31
4.0942546515
11
25.6943278919
21
14.3883233538
31
4.1099747727
11
25.9395317614
21
13.9966985587
31
4.1283799295
11
26.0911308619
21
13.5597436204
31
4.1483101021
11
26.1411606025
21
13.0996465761
31
4.1686058586
11
26.0870090634
21
12.6402701211
31
4.1881638692
11
25.9319150547
21
12.2055421399
31
4.2060229459
11
25.6842526205
21
11.8170837774
31
4.2214469565
11
25.3572460913
21
11.4943330420
31
4.2338785487
11
24.9680076448
21
11.2529329495
31
4.2429492368
11
24.5426946089
21
11.1054960798
31
4.2483934784
11
24.0863868203
21
11.0541894611
31
4.2502709931
0
SPLINE
5
2E4
100
AcDbEntity
8
ASSI
100
AcDbSpline
62
9
6
CONTINUOUS
70
0
71
3
72
21
73
17
74
15
42
0.0000001000
43
0.0000001000
44
0.0000000001
12
-6.8725490195
22
0.0000000000
32
0.0000000000
13
6.7496209932
23
0.0000000000
33
0.0000000000
40
0.0000000000
40
0.0000000000
40
0.0000000000
40
0.0000000000
40
0.0714285714
40
0.1428571429
40
0.2142857143
40
0.2857142857
40
0.3571428571
40
0.4285714286
40
0.5000000000
40
0.5714285714
40
0.6428571429
40
0.7142857143
40
0.7857142857
40
0.8571428571
40
0.9285714286
40
1.0000000000
40
1.0000000000
40
1.0000000000
40
1.0000000000
10
24.0863868203
20
11.0541894611
30
4.2502709931
10
23.9227547008
20
11.0541894611
30
4.2502709931
10
23.6187752718
20
11.0912971018
30
4.2489188680
10
23.1875157645
20
11.2420530746
30
4.2433751628
10
22.7926244112
20
11.4902251712
30
4.2340810173
10
22.4649707022
20
11.8186967248
30
4.2214576083
10
22.2173535564
20
12.2138841725
30
4.2057849787
10
22.0645530654
20
12.6544603982
30
4.1876861258
10
22.0140681758
20
13.1186165942
30
4.1679050682
10
22.0688573749
20
13.5820785350
30
4.1474219898
10
22.2253446393
20
14.0203496384
30
4.1273803964
10
22.4754451486
20
14.4121652553
30
4.1089100668
10
22.8047680663
20
14.7372489866
30
4.0931895861
10
23.1995240451
20
14.9813436258
30
4.0811488723
10
23.6265546347
20
15.1279831883
30
4.0738181783
10
23.9256815585
20
15.1637794611
30
4.0720171274
10
24.0863868203
20
15.1637794611
30
4.0720171274
11
24.0863868203
21
11.0541894611
31
4.2502709931
11
23.6228935445
21
11.1071461871
31
4.2483329484
11
23.1935771235
21
11.2582890952
31
4.2427500894
11
22.8038306853
21
11.5036084140
31
4.2335261401
11
22.4783101294
21
11.8298160405
31
4.2209494049
11
22.2331563322
21
12.2214489688
31
4.2053806082
11
22.0816056656
21
12.6583903932
31
4.1874057584
11
22.0316138572
21
13.1185008850
31
4.1677880647
11
22.0858070525
21
13.5778800621
31
4.1474955706
11
22.2409468468
21
14.0126070573
31
4.1276422737
11
22.4886488834
21
14.4010432744
31
4.1093683750
11
22.8156735765
21
14.7237508046
31
4.0938028806
11
23.2049031469
21
14.9651011130
31
4.0819338756
11
23.6301646007
21
15.1124923294
31
4.0745896979
11
24.0863868203
21
15.1637794611
31
4.0720171274
0
SPLINE
5
2E5
100
AcDbEntity
8
ASSI
100
AcDbSpline
62
9
6
CONTINUOUS
70
0
71
3
72
21
73
17
74
15
42
0.0000001000
43
0.0000001000
44
0.0000000001
12
7.4457763100
22
0.0000000000
32
0.0000000000
13
-7.3320783133
23
0.0000000000
33
0.0000000000
40
0.0000000000
40
0.0000000000
40
0.0000000000
40
0.0000000000
40
0.0714285714
40
0.1428571429
40
0.2142857143
40
0.2857142857
40
0.3571428571
40
0.4285714286
40
0.5000000000
40
0.5714285714
40
0.6428571429
40
0.7142857143
40
0.7857142857
40
0.8571428571
40
0.9285714286
40
1.0000000000
40
1.0000000000
40
1.0000000000
40
1.0000000000
10
24.0863868203
20
15.3407094611
30
4.0630747373
10
24.2636672086
20
15.3407094611
30
4.0630747373
10
24.5930900639
20
15.3006071572
30
4.0651165123
10
25.0609297896
20
15.1374692198
30
4.0733634490
10
25.4900318063
20
14.8683540308
30
4.0867698749
10
25.8462926217
20
14.5117936841
30
4.1041525933
10
26.1155846567
20
14.0827730293
30
4.1244952371
10
26.2819592165
20
13.6042740407
30
4.1464449840
10
26.3371670549
20
13.0999901894
30
4.1687350354
10
26.2779372484
20
12.5963325167
30
4.1901335242
10
26.1080750378
20
12.1198894996
30
4.2095822552
10
25.8363463073
20
11.6939387970
30
4.2263166360
10
25.4786094133
20
11.3407024616
30
4.2397272633
10
25.0497877553
20
11.0754759904
30
4.2495175727
10
24.5858868740
20
10.9161485116
30
4.2552842061
10
24.2609601135
20
10.8772594611
30
4.2566781336
10
24.0863868203
20
10.8772594611
30
4.2566781336
11
24.0863868203
21
15.3407094611
31
4.0630747373
11
24.5887076377
21
15.2834430770
31
4.0659805580
11
25.0544735048
21
15.1198063446
31
4.0742233638
11
25.4778916061
21
14.8537798378
31
4.0874325903
11
25.8317978250
21
14.4997169661
31
4.1046459142
11
26.0984317442
21
14.0745266403
31
4.1247630877
11
26.2634314296
21
13.5999765636
31
4.1465017015
11
26.3180941141
21
13.1000945525
31
4.1685864417
11
26.2594985144
21
12.6008682926
31
4.1898085646
11
26.0910972845
21
12.1283048853
31
4.2091298635
11
25.8220116134
21
11.7060578582
31
4.2257626771
11
25.4667619526
21
11.3553707723
31
4.2391238770
11
25.0439412181
21
11.0931258225
31
4.2488469600
11
24.5819719974
21
10.9329808288
31
4.2546715824
11
24.0863868203
21
10.8772594611
31
4.2566781336
0
SPLINE
5
2E6
100
AcDbEntity
8
ASSI
100
AcDbSpline
62
9
6
CONTINUOUS
70
0
71
3
72
21
73
17
74
15
42
0.0000001000
43
0.0000001000
44
0.0000000001
12
-7.4476072672
22
0.0000000000
32
0.0000000000
13
7.3302262251
23
0.0000000000
33
0.0000000000
40
0.0000000000
40
0.0000000000
40
0.0000000000
40
0.0000000000
40
0.0714285714
40
0.1428571429
40
0.2142857143
40
0.2857142857
40
0.3571428571
40
0.4285714286
40
0.5000000000
40
0.5714285714
40
0.6428571429
40
0.7142857143
40
0.7857142857
40
0.8571428571
40
0.9285714286
40
1.0000000000
40
1.0000000000
40
1.0000000000
40
1.0000000000
10
24.0863868203
20
10.8772594611
30
4.2566781336
10
23.9090628377
20
10.8772594611
30
4.2566781336
10
23.5795717775
20
10.9173804936
30
4.2552401427
10
23.1116631887
20
11.0805814031
30
4.2493317707
10
22.6825532859
20
11.3497619234
30
4.2393889942
10
22.3263139046
20
11.7063843447
30
4.2258368585
10
22.0570901954
20
12.1354121254
30
4.2089612511
10
21.8907738634
20
12.6138772169
30
4.1894028329
10
21.8356059381
20
13.1181936752
30
4.1679454820
10
21.8948845860
20
13.6218455890
30
4.1456524791
10
22.0648038975
20
14.0982994841
30
4.1237694559
10
22.3365869594
20
14.5242263251
30
4.1035533177
10
22.6943477650
20
14.8774087217
30
4.0863224444
10
23.1231678365
20
15.1425743694
30
4.0731063458
10
23.5870001626
20
15.3018391080
30
4.0650536959
10
23.9118576244
20
15.3407094611
30
4.0630747373
10
24.0863868203
20
15.3407094611
30
4.0630747373
11
24.0863868203
21
10.8772594611
31
4.2566781336
11
23.5839597777
21
10.9345503870
31
4.2546149118
11
23.1181296363
21
11.0982446715
31
4.2486593700
11
22.6946983728
21
11.3643355736
31
4.2387874343
11
22.3408165166
21
11.7184519046
31
4.2252829465
11
22.0742414250
21
12.1436516772
31
4.2085141159
11
21.9092985978
21
12.6181857780
31
4.1890863441
11
21.8546803670
21
13.1180829178
31
4.1678062067
11
21.9133246966
21
13.6173125859
31
4.1457208091
11
22.0817811893
21
14.0898783084
31
4.1240472701
11
22.3509165834
21
14.5121022511
31
4.1040508619
11
22.7061909760
21
14.8627392635
31
4.0869915735
11
23.1290032123
21
15.1249242178
31
4.0739669206
11
23.5909091404
21
15.2850125731
31
4.0659010646
11
24.0863868203
21
15.3407094611
31
4.0630747373
0
SPLINE
5
2E7
100
AcDbEntity
8
ASSI
100
AcDbSpline
62
9
6
CONTINUOUS
70
0
71
3
72
21
73
17
74
15
42
0.0000001000
43
0.0000001000
44
0.0000000001
12
7.9500511227
22
0.0000000000
32
0.0000000000
13
-7.8450683550
23
0.0000000000
33
-0.0000000000
40
0.0000000000
40
0.0000000000
40
0.0000000000
40
0.0000000000
40
0.0714285714
40
0.1428571429
40
0.2142857143
40
0.2857142857
40
0.3571428571
40
0.4285714286
40
0.5000000000
40
0.5714285714
40
0.6428571429
40
0.7142857143
40
0.7857142857
40
0.8571428571
40
0.9285714286
40
1.0000000000
40
1.0000000000
40
1.0000000000
40
1.0000000000
10
24.0863868203
20
15.4962534611
30
4.0551267130
10
24.2756737518
20
15.4962534611
30
4.0551267130
10
24.6274744907
20
15.4535154614
30
4.0573251397
10
25.1275066528
20
15.2794742365
30
4.0662106019
10
25.5867463416
20
14.9918860579
30
4.0806673229
10
25.9681846928
20
14.6105391210
30
4.0994026024
10
26.2564753331
20
14.1517613977
30
4.1212871080
10
26.4347329886
20
13.6399465629
30
4.1448562947
10
26.4940553236
20
13.1003834874
30
4.1687388721
10
26.4308898319
20
12.5614227871
30
4.1916056138
10
26.2492512235
20
12.0514519766
30
4.2123334005
10
25.9585046429
20
11.5955334826
30
4.2301157524
10
25.5758433555
20
11.2176175697
30
4.2443210980
10
25.1171405937
20
10.9338391332
30
4.2546686158
10
24.6208228174
20
10.7633345618
30
4.2607545209
10
24.2731741621
20
10.7217154611
30
4.2622244685
10
24.0863868203
20
10.7217154611
30
4.2622244685
11
24.0863868203
21
15.4962534611
31
4.0551267130
11
24.6228629996
21
15.4351930905
31
4.0582564434
11
25.1207079073
21
15.2605497442
31
4.0671391451
11
25.5737794520
21
14.9762595982
31
4.0813804160
11
25.9526600743
21
14.5976339899
31
4.0999274734
11
26.2381365023
21
14.1429218791
31
4.1215678882
11
26.4149104352
21
13.6353218561
31
4.1449085264
11
26.4736406858
21
13.1004838832
31
4.1685695661
11
26.4111443125
21
12.5662544354
31
4.1912491213
11
26.2310665615
21
12.0604606960
31
4.2118424947
11
25.9431855251
21
11.6085339128
31
4.2295195847
11
25.5631697764
21
11.2333071491
31
4.2436781267
11
25.1108714246
21
10.9527181107
31
4.2539583470
11
24.6166302829
21
10.7813472152
31
4.2601076903
11
24.0863868203
21
10.7217154611
31
4.2622244685
0
SPLINE
5
2E8
100
AcDbEntity
8
INCISIONI_LASER
100
AcDbSpline
62
9
6
CONTINUOUS
70
0
71
3
72
21
73
17
74
15
42
0.0000001000
43
0.0000001000
44
0.0000000001
12
-7.9521618596
22
0.0000000000
32
0.0000000000
13
7.8428483182
23
0.0000000000
33
0.0000000000
40
0.0000000000
40
0.0000000000
40
0.0000000000
40
0.0000000000
40
0.0714285714
40
0.1428571429
40
0.2142857143
40
0.2857142857
40
0.3571428571
40
0.4285714286
40
0.5000000000
40
0.5714285714
40
0.6428571429
40
0.7142857143
40
0.7857142857
40
0.8571428571
40
0.9285714286
40
1.0000000000
40
1.0000000000
40
1.0000000000
40
1.0000000000
10
24.0863868203
20
10.7217154611
30
4.2622244685
10
23.8970496331
20
10.7217154611
30
4.2622244685
10
23.5451701769
20
10.7644750338
30
4.2607143323
10
23.0450589646
20
10.9385886650
30
4.2544980940
10
22.5858109732
20
11.2262514473
30
4.2440024598
10
22.2043977002
20
11.6076689129
30
4.2296520522
10
21.9161852429
20
12.0664546578
30
4.2117366284
10
21.7379942037
20
12.5782307977
30
4.1909076049
10
21.6787175878
20
13.1178302177
30
4.1679821433
10
21.7419383191
20
13.6567837092
30
4.1440949067
10
21.9236434509
20
14.1667708174
30
4.1205820571
10
22.2144551434
20
14.6226646713
30
4.0988140044
10
22.5971467756
20
15.0005194911
30
4.0802369631
10
23.0558500652
20
15.2842271124
30
4.0659689053
10
23.5520869948
20
15.4546568532
30
4.0572663373
10
23.8996523365
20
15.4962534611
30
4.0551267130
10
24.0863868203
20
15.4962534611
30
4.0551267130
11
24.0863868203
21
10.7217154611
31
4.2622244685
11
23.5497881723
21
10.7828040792
31
4.2600558266
11
23.0518695014
21
10.9575135235
31
4.2537848613
11
22.5987834263
21
11.2418772278
31
4.2433599976
11
22.2199311695
21
11.6205636261
31
4.2290578828
11
21.9345221459
21
12.0752863903
31
4.2112510284
11
21.7578132742
21
12.5828680110
31
4.1905581986
11
21.6991338123
21
13.1177225629
31
4.1678218475
11
21.7616857192
21
13.6519559787
31
4.1441573045
11
21.9418278777
21
14.1577552750
31
4.1208728566
11
22.2297684667
21
14.6096581656
31
4.0993458396
11
22.6098153852
21
14.9848282913
31
4.0809551270
11
23.0621056719
21
15.2653474657
31
4.0668964870
11
23.5562721753
21
15.4366510484
31
4.0581818592
11
24.0863868203
21
15.4962534611
31
4.0551267130
0
SPLINE
5
2E9
100
AcDbEntity
8
INCISIONI_LASER
100
AcDbSpline
62
9
6
CONTINUOUS
70
0
71
3
72
21
73
17
74
15
42
0.0000001000
43
0.0000001000
44
0.0000000001
12
6.8709955881
22
0.0000000000
32
0.0000000000
13
-6.7510946671
23
0.0000000000
33
0.0000000000
40
0.0000000000
40
0.0000000000
40
0.0000000000
40
0.0000000000
40
0.0714285714
40
0.1428571429
40
0.2142857143
40
0.2857142857
40
0.3571428571
40
0.4285714286
40
0.5000000000
40
0.5714285714
40
0.6428571429
40
0.7142857143
40
0.7857142857
40
0.8571428571
40
0.9285714286
40
1.0000000000
40
1.0000000000
40
1.0000000000
40
1.0000000000
10
24.0863868203
20
15.1637794611
30
4.0720171274
10
24.2499819533
20
15.1637794611
30
4.0720171274
10
24.5539035589
20
15.1266877364
30
4.0738834514
10
24.9851045117
20
14.9759853143
30
4.0814157442
10
25.3799888451
20
14.7278689804
30
4.0936485264
10
25.7076606353
20
14.3994504839
30
4.1095180590
10
25.9553359652
20
14.0042692065
30
4.1281278740
10
26.1081860726
20
13.5636640422
30
4.1482500217
10
26.1587049156
20
13.0995363471
30
4.1687326516
10
26.1039578798
20
12.6360700263
30
4.1884545235
10
25.9475179454
20
12.1978042747
30
4.2064324697
10
25.6974606670
20
11.8059657143
30
4.2219532727
10
25.3681551095
20
11.4808355327
30
4.2344361786
10
24.9733954430
20
11.2366904067
30
4.2435733051
10
24.5463089876
20
11.0900005373
30
4.2489660216
10
24.2471271695
20
11.0541894611
30
4.2502709931
10
24.0863868203
20
11.0541894611
30
4.2502709931
11
24.0863868203
21
15.1637794611
31
4.0720171274
11
24.5497899830
21
15.1108435972
31
4.0746722526
11
24.9790517418
21
14.9597496623
31
4.0821991591
11
25.3687867545
21
14.7144852866
31
4.0942546515
11
25.6943278919
21
14.3883233538
31
4.1099747727
11
25.9395317614
21
13.9966985587
31
4.1283799295
11
26.0911308619
21
13.5597436204
31
4.1483101021
11
26.1411606025
21
13.0996465761
31
4.1686058586
11
26.0870090634
21
12.6402701211
31
4.1881638692
11
25.9319150547
21
12.2055421399
31
4.2060229459
11
25.6842526205
21
11.8170837774
31
4.2214469565
11
25.3572460913
21
11.4943330420
31
4.2338785487
11
24.9680076448
21
11.2529329495
31
4.2429492368
11
24.5426946089
21
11.1054960798
31
4.2483934784
11
24.0863868203
21
11.0541894611
31
4.2502709931
0
SPLINE
5
2EA
100
AcDbEntity
8
INCISIONI_LASER
100
AcDbSpline
62
9
6
CONTINUOUS
70
0
71
3
72
21
73
17
74
15
42
0.0000001000
43
0.0000001000
44
0.0000000001
12
-6.8725490195
22
0.0000000000
32
0.0000000000
13
6.7496209932
23
0.0000000000
33
0.0000000000
40
0.0000000000
40
0.0000000000
40
0.0000000000
40
0.0000000000
40
0.0714285714
40
0.1428571429
40
0.2142857143
40
0.2857142857
40
0.3571428571
40
0.4285714286
40
0.5000000000
40
0.5714285714
40
0.6428571429
40
0.7142857143
40
0.7857142857
40
0.8571428571
40
0.9285714286
40
1.0000000000
40
1.0000000000
40
1.0000000000
40
1.0000000000
10
24.0863868203
20
11.0541894611
30
4.2502709931
10
23.9227547008
20
11.0541894611
30
4.2502709931
10
23.6187752718
20
11.0912971018
30
4.2489188680
10
23.1875157645
20
11.2420530746
30
4.2433751628
10
22.7926244112
20
11.4902251712
30
4.2340810173
10
22.4649707022
20
11.8186967248
30
4.2214576083
10
22.2173535564
20
12.2138841725
30
4.2057849787
10
22.0645530654
20
12.6544603982
30
4.1876861258
10
22.0140681758
20
13.1186165942
30
4.1679050682
10
22.0688573749
20
13.5820785350
30
4.1474219898
10
22.2253446393
20
14.0203496384
30
4.1273803964
10
22.4754451486
20
14.4121652553
30
4.1089100668
10
22.8047680663
20
14.7372489866
30
4.0931895861
10
23.1995240451
20
14.9813436258
30
4.0811488723
10
23.6265546347
20
15.1279831883
30
4.0738181783
10
23.9256815585
20
15.1637794611
30
4.0720171274
10
24.0863868203
20
15.1637794611
30
4.0720171274
11
24.0863868203
21
11.0541894611
31
4.2502709931
11
23.6228935445
21
11.1071461871
31
4.2483329484
11
23.1935771235
21
11.2582890952
31
4.2427500894
11
22.8038306853
21
11.5036084140
31
4.2335261401
11
22.4783101294
21
11.8298160405
31
4.2209494049
11
22.2331563322
21
12.2214489688
31
4.2053806082
11
22.0816056656
21
12.6583903932
31
4.1874057584
11
22.0316138572
21
13.1185008850
31
4.1677880647
11
22.0858070525
21
13.5778800621
31
4.1474955706
11
22.2409468468
21
14.0126070573
31
4.1276422737
11
22.4886488834
21
14.4010432744
31
4.1093683750
11
22.8156735765
21
14.7237508046
31
4.0938028806
11
23.2049031469
21
14.9651011130
31
4.0819338756
11
23.6301646007
21
15.1124923294
31
4.0745896979
11
24.0863868203
21
15.1637794611
31
4.0720171274
0
SPLINE
5
2EB
100
AcDbEntity
8
INCISIONI_LASER
100
AcDbSpline
62
9
6
CONTINUOUS
70
0
71
3
72
21
73
17
74
15
42
0.0000001000
43
0.0000001000
44
0.0000000001
12
7.4457763100
22
0.0000000000
32
0.0000000000
13
-7.3320783133
23
0.0000000000
33
0.0000000000
40
0.0000000000
40
0.0000000000
40
0.0000000000
40
0.0000000000
40
0.0714285714
40
0.1428571429
40
0.2142857143
40
0.2857142857
40
0.3571428571
40
0.4285714286
40
0.5000000000
40
0.5714285714
40
0.6428571429
40
0.7142857143
40
0.7857142857
40
0.8571428571
40
0.9285714286
40
1.0000000000
40
1.0000000000
40
1.0000000000
40
1.0000000000
10
24.0863868203
20
15.3407094611
30
4.0630747373
10
24.2636672086
20
15.3407094611
30
4.0630747373
10
24.5930900639
20
15.3006071572
30
4.0651165123
10
25.0609297896
20
15.1374692198
30
4.0733634490
10
25.4900318063
20
14.8683540308
30
4.0867698749
10
25.8462926217
20
14.5117936841
30
4.1041525933
10
26.1155846567
20
14.0827730293
30
4.1244952371
10
26.2819592165
20
13.6042740407
30
4.1464449840
10
26.3371670549
20
13.0999901894
30
4.1687350354
10
26.2779372484
20
12.5963325167
30
4.1901335242
10
26.1080750378
20
12.1198894996
30
4.2095822552
10
25.8363463073
20
11.6939387970
30
4.2263166360
10
25.4786094133
20
11.3407024616
30
4.2397272633
10
25.0497877553
20
11.0754759904
30
4.2495175727
10
24.5858868740
20
10.9161485116
30
4.2552842061
10
24.2609601135
20
10.8772594611
30
4.2566781336
10
24.0863868203
20
10.8772594611
30
4.2566781336
11
24.0863868203
21
15.3407094611
31
4.0630747373
11
24.5887076377
21
15.2834430770
31
4.0659805580
11
25.0544735048
21
15.1198063446
31
4.0742233638
11
25.4778916061
21
14.8537798378
31
4.0874325903
11
25.8317978250
21
14.4997169661
31
4.1046459142
11
26.0984317442
21
14.0745266403
31
4.1247630877
11
26.2634314296
21
13.5999765636
31
4.1465017015
11
26.3180941141
21
13.1000945525
31
4.1685864417
11
26.2594985144
21
12.6008682926
31
4.1898085646
11
26.0910972845
21
12.1283048853
31
4.2091298635
11
25.8220116134
21
11.7060578582
31
4.2257626771
11
25.4667619526
21
11.3553707723
31
4.2391238770
11
25.0439412181
21
11.0931258225
31
4.2488469600
11
24.5819719974
21
10.9329808288
31
4.2546715824
11
24.0863868203
21
10.8772594611
31
4.2566781336
0
SPLINE
5
2EC
100
AcDbEntity
8
INCISIONI_LASER
100
AcDbSpline
62
9
6
CONTINUOUS
70
0
71
3
72
21
73
17
74
15
42
0.0000001000
43
0.0000001000
44
0.0000000001
12
-7.4476072672
22
0.0000000000
32
0.0000000000
13
7.3302262251
23
0.0000000000
33
0.0000000000
40
0.0000000000
40
0.0000000000
40
0.0000000000
40
0.0000000000
40
0.0714285714
40
0.1428571429
40
0.2142857143
40
0.2857142857
40
0.3571428571
40
0.4285714286
40
0.5000000000
40
0.5714285714
40
0.6428571429
40
0.7142857143
40
0.7857142857
40
0.8571428571
40
0.9285714286
40
1.0000000000
40
1.0000000000
40
1.0000000000
40
1.0000000000
10
24.0863868203
20
10.8772594611
30
4.2566781336
10
23.9090628377
20
10.8772594611
30
4.2566781336
10
23.5795717775
20
10.9173804936
30
4.2552401427
10
23.1116631887
20
11.0805814031
30
4.2493317707
10
22.6825532859
20
11.3497619234
30
4.2393889942
10
22.3263139046
20
11.7063843447
30
4.2258368585
10
22.0570901954
20
12.1354121254
30
4.2089612511
10
21.8907738634
20
12.6138772169
30
4.1894028329
10
21.8356059381
20
13.1181936752
30
4.1679454820
10
21.8948845860
20
13.6218455890
30
4.1456524791
10
22.0648038975
20
14.0982994841
30
4.1237694559
10
22.3365869594
20
14.5242263251
30
4.1035533177
10
22.6943477650
20
14.8774087217
30
4.0863224444
10
23.1231678365
20
15.1425743694
30
4.0731063458
10
23.5870001626
20
15.3018391080
30
4.0650536959
10
23.9118576244
20
15.3407094611
30
4.0630747373
10
24.0863868203
20
15.3407094611
30
4.0630747373
11
24.0863868203
21
10.8772594611
31
4.2566781336
11
23.5839597777
21
10.9345503870
31
4.2546149118
11
23.1181296363
21
11.0982446715
31
4.2486593700
11
22.6946983728
21
11.3643355736
31
4.2387874343
11
22.3408165166
21
11.7184519046
31
4.2252829465
11
22.0742414250
21
12.1436516772
31
4.2085141159
11
21.9092985978
21
12.6181857780
31
4.1890863441
11
21.8546803670
21
13.1180829178
31
4.1678062067
11
21.9133246966
21
13.6173125859
31
4.1457208091
11
22.0817811893
21
14.0898783084
31
4.1240472701
11
22.3509165834
21
14.5121022511
31
4.1040508619
11
22.7061909760
21
14.8627392635
31
4.0869915735
11
23.1290032123
21
15.1249242178
31
4.0739669206
11
23.5909091404
21
15.2850125731
31
4.0659010646
11
24.0863868203
21
15.3407094611
31
4.0630747373
0
SPLINE
5
2ED
100
AcDbEntity
8
INCISIONI_LASER
100
AcDbSpline
62
9
6
CONTINUOUS
70
0
71
3
72
21
73
17
74
15
42
0.0000001000
43
0.0000001000
44
0.0000000001
12
7.9500511227
22
0.0000000000
32
0.0000000000
13
-7.8450683550
23
0.0000000000
33
-0.0000000000
40
0.0000000000
40
0.0000000000
40
0.0000000000
40
0.0000000000
40
0.0714285714
40
0.1428571429
40
0.2142857143
40
0.2857142857
40
0.3571428571
40
0.4285714286
40
0.5000000000
40
0.5714285714
40
0.6428571429
40
0.7142857143
40
0.7857142857
40
0.8571428571
40
0.9285714286
40
1.0000000000
40
1.0000000000
40
1.0000000000
40
1.0000000000
10
24.0863868203
20
15.4962534611
30
4.0551267130
10
24.2756737518
20
15.4962534611
30
4.0551267130
10
24.6274744907
20
15.4535154614
30
4.0573251397
10
25.1275066528
20
15.2794742365
30
4.0662106019
10
25.5867463416
20
14.9918860579
30
4.0806673229
10
25.9681846928
20
14.6105391210
30
4.0994026024
10
26.2564753331
20
14.1517613977
30
4.1212871080
10
26.4347329886
20
13.6399465629
30
4.1448562947
10
26.4940553236
20
13.1003834874
30
4.1687388721
10
26.4308898319
20
12.5614227871
30
4.1916056138
10
26.2492512235
20
12.0514519766
30
4.2123334005
10
25.9585046429
20
11.5955334826
30
4.2301157524
10
25.5758433555
20
11.2176175697
30
4.2443210980
10
25.1171405937
20
10.9338391332
30
4.2546686158
10
24.6208228174
20
10.7633345618
30
4.2607545209
10
24.2731741621
20
10.7217154611
30
4.2622244685
10
24.0863868203
20
10.7217154611
30
4.2622244685
11
24.0863868203
21
15.4962534611
31
4.0551267130
11
24.6228629996
21
15.4351930905
31
4.0582564434
11
25.1207079073
21
15.2605497442
31
4.0671391451
11
25.5737794520
21
14.9762595982
31
4.0813804160
11
25.9526600743
21
14.5976339899
31
4.0999274734
11
26.2381365023
21
14.1429218791
31
4.1215678882
11
26.4149104352
21
13.6353218561
31
4.1449085264
11
26.4736406858
21
13.1004838832
31
4.1685695661
11
26.4111443125
21
12.5662544354
31
4.1912491213
11
26.2310665615
21
12.0604606960
31
4.2118424947
11
25.9431855251
21
11.6085339128
31
4.2295195847
11
25.5631697764
21
11.2333071491
31
4.2436781267
11
25.1108714246
21
10.9527181107
31
4.2539583470
11
24.6166302829
21
10.7813472152
31
4.2601076903
11
24.0863868203
21
10.7217154611
31
4.2622244685
0
SPLINE
5
2EE
100
AcDbEntity
8
0
100
AcDbSpline
62
0
6
CONTINUOUS
70
0
71
3
72
15
73
11
74
9
42
0.0000001000
43
0.0000001000
44
0.0000000001
12
-1.2544455271
22
0.0000000000
32
0.0000000000
13
0.0000000000
23
1.2544455271
33
0.0000000000
40
0.0000000000
40
0.0000000000
40
0.0000000000
40
0.0000000000
40
0.1249999808
40
0.2499998108
40
0.3750000468
40
0.5000001769
40
0.6250002546
40
0.7500003661
40
0.8750000750
40
1.0000000000
40
1.0000000000
40
1.0000000000
40
1.0000000000
10
13.7862649764
20
-21.7410155389
30
0.0000000000
10
13.7339964208
20
-21.7410155389
30
0.0000000000
10
13.6291697380
20
-21.7307061057
30
0.0000000000
10
13.4781956526
20
-21.6849020822
30
0.0000000000
10
13.3389972323
20
-21.6105141483
30
0.0000000000
10
13.2170048807
20
-21.5103971921
30
0.0000000000
10
13.1168880213
20
-21.3884048299
30
0.0000000000
10
13.0425001999
20
-21.2492064940
30
0.0000000000
10
12.9966962416
20
-21.0982325235
30
0.0000000000
10
12.9863868203
20
-20.9934059150
30
0.0000000000
10
12.9863868203
20
-20.9411373828
30
0.0000000000
11
13.7862649764
21
-21.7410155389
31
0.0000000000
11
13.6302140213
21
-21.7256494545
31
0.0000000000
11
13.4801584301
21
-21.6801381665
31
0.0000000000
11
13.3418648896
21
-21.6062259602
31
0.0000000000
11
13.2206507737
21
-21.5067512701
31
0.0000000000
11
13.1211761879
21
-21.3855371536
31
0.0000000000
11
13.0472641073
21
-21.2472437231
31
0.0000000000
11
13.0017528910
21
-21.0971882688
31
0.0000000000
11
12.9863868203
21
-20.9411373828
31
0.0000000000
0
SPLINE
5
2EF
100
AcDbEntity
8
0
100
AcDbSpline
62
0
6
CONTINUOUS
70
0
71
3
72
15
73
11
74
9
42
0.0000001000
43
0.0000001000
44
0.0000000001
12
0.0000000000
22
1.2544455271
32
0.0000000000
13
1.2544455271
23
0.0000000000
33
0.0000000000
40
0.0000000000
40
0.0000000000
40
0.0000000000
40
0.0000000000
40
0.1249999808
40
0.2499998108
40
0.3750000468
40
0.5000001769
40
0.6250002546
40
0.7500003661
40
0.8750000750
40
1.0000000000
40
1.0000000000
40
1.0000000000
40
1.0000000000
10
12.9863868203
20
21.1591063050
30
0.0000000000
10
12.9863868203
20
21.2113748606
30
0.0000000000
10
12.9966962535
20
21.3162015434
30
0.0000000000
10
13.0425002769
20
21.4671756288
30
0.0000000000
10
13.1168882109
20
21.6063740491
30
0.0000000000
10
13.2170051671
20
21.7283664007
30
0.0000000000
10
13.3389975292
20
21.8284832601
30
0.0000000000
10
13.4781958651
20
21.9028710815
30
0.0000000000
10
13.6291698356
20
21.9486750398
30
0.0000000000
10
13.7339964442
20
21.9589844611
30
0.0000000000
10
13.7862649764
20
21.9589844611
30
0.0000000000
11
12.9863868203
21
21.1591063050
31
0.0000000000
11
13.0017529047
21
21.3151572601
31
0.0000000000
11
13.0472641927
21
21.4652128513
31
0.0000000000
11
13.1211763989
21
21.6035063918
31
0.0000000000
11
13.2206510890
21
21.7247205077
31
0.0000000000
11
13.3418652055
21
21.8241950935
31
0.0000000000
11
13.4801586361
21
21.8981071741
31
0.0000000000
11
13.6302140903
21
21.9436183904
31
0.0000000000
11
13.7862649764
21
21.9589844611
31
0.0000000000
0
SPLINE
5
2F0
100
AcDbEntity
8
0
100
AcDbSpline
62
0
6
CONTINUOUS
70
0
71
3
72
15
73
11
74
9
42
0.0000001000
43
0.0000001000
44
0.0000000001
12
0.0000000000
22
-1.2544455271
32
0.0000000000
13
-1.2544455271
23
-0.0000000000
33
0.0000000000
40
0.0000000000
40
0.0000000000
40
0.0000000000
40
0.0000000000
40
0.1249999808
40
0.2499998108
40
0.3750000468
40
0.5000001769
40
0.6250002546
40
0.7500003661
40
0.8750000750
40
1.0000000000
40
1.0000000000
40
1.0000000000
40
1.0000000000
10
35.1863868203
20
-20.9411373828
30
0.0000000000
10
35.1863868203
20
-20.9934059384
30
0.0000000000
10
35.1760773871
20
-21.0982326212
30
0.0000000000
10
35.1302733636
20
-21.2492067066
30
0.0000000000
10
35.0558854297
20
-21.3884051269
30
0.0000000000
10
34.9557684735
20
-21.5103974785
30
0.0000000000
10
34.8337761113
20
-21.6105143378
30
0.0000000000
10
34.6945777754
20
-21.6849021592
30
0.0000000000
10
34.5436038049
20
-21.7307061176
30
0.0000000000
10
34.4387771964
20
-21.7410155389
30
0.0000000000
10
34.3865086642
20
-21.7410155389
30
0.0000000000
11
35.1863868203
21
-20.9411373828
31
0.0000000000
11
35.1710207359
21
-21.0971883379
31
0.0000000000
11
35.1255094479
21
-21.2472439291
31
0.0000000000
11
35.0515972416
21
-21.3855374695
31
0.0000000000
11
34.9521225515
21
-21.5067515855
31
0.0000000000
11
34.8309084350
21
-21.6062261713
31
0.0000000000
11
34.6926150045
21
-21.6801382518
31
0.0000000000
11
34.5425595502
21
-21.7256494682
31
0.0000000000
11
34.3865086642
21
-21.7410155389
31
0.0000000000
0
SPLINE
5
2F1
100
AcDbEntity
8
0
100
AcDbSpline
62
0
6
CONTINUOUS
70
0
71
3
72
15
73
11
74
9
42
0.0000001000
43
0.0000001000
44
0.0000000001
12
1.2544455271
22
0.0000000000
32
0.0000000000
13
-0.0000000000
23
-1.2544455271
33
0.0000000000
40
0.0000000000
40
0.0000000000
40
0.0000000000
40
0.0000000000
40
0.1249999808
40
0.2499998108
40
0.3750000468
40
0.5000001769
40
0.6250002546
40
0.7500003661
40
0.8750000750
40
1.0000000000
40
1.0000000000
40
1.0000000000
40
1.0000000000
10
34.3865086642
20
21.9589844611
30
0.0000000000
10
34.4387772198
20
21.9589844611
30
0.0000000000
10
34.5436039026
20
21.9486750279
30
0.0000000000
10
34.6945779880
20
21.9028710045
30
0.0000000000
10
34.8337764083
20
21.8284830705
30
0.0000000000
10
34.9557687599
20
21.7283661143
30
0.0000000000
10
35.0558856192
20
21.6063737521
30
0.0000000000
10
35.1302734406
20
21.4671754163
30
0.0000000000
10
35.1760773990
20
21.3162014458
30
0.0000000000
10
35.1863868203
20
21.2113748372
30
0.0000000000
10
35.1863868203
20
21.1591063050
30
0.0000000000
11
34.3865086642
21
21.9589844611
31
0.0000000000
11
34.5425596193
21
21.9436183767
31
0.0000000000
11
34.6926152105
21
21.8981070887
31
0.0000000000
11
34.8309087509
21
21.8241948825
31
0.0000000000
11
34.9521228669
21
21.7247201923
31
0.0000000000
11
35.0515974527
21
21.6035060758
31
0.0000000000
11
35.1255095332
21
21.4652126453
31
0.0000000000
11
35.1710207496
21
21.3151571911
31
0.0000000000
11
35.1863868203
21
21.1591063050
31
0.0000000000
0
SPLINE
5
2F2
100
AcDbEntity
8
0
100
AcDbSpline
62
9
6
CONTINUOUS
70
0
71
3
72
17
73
13
74
11
42
0.0000001000
43
0.0000001000
44
0.0000000001
12
0.0007745653
22
-1.3981515322
32
0.0000000000
13
0.5910154755
23
-1.2670947142
33
0.0000000000
40
0.0000000000
40
0.0000000000
40
0.0000000000
40
0.0000000000
40
0.1204486015
40
0.2524000115
40
0.3896245806
40
0.5251524944
40
0.6517721446
40
0.7629194820
40
0.8536975671
40
0.9216169752
40
0.9667804414
40
1.0000000000
40
1.0000000000
40
1.0000000000
40
1.0000000000
10
34.2743654383
20
-20.2428370318
30
0.0000000000
10
34.2743965368
20
-20.2989721640
30
0.0000000000
10
34.2745161438
20
-20.4166031727
30
0.0000000000
10
34.2748799978
20
-20.5981882066
30
0.0000000000
10
34.2754895078
20
-20.7867974454
30
0.0000000000
10
34.2763129624
20
-20.9729316666
30
0.0000000000
10
34.2775061968
20
-21.1468742328
30
0.0000000000
10
34.2785024206
20
-21.3000743351
30
0.0000000000
10
34.2807734560
20
-21.4255883523
30
0.0000000000
10
34.2802459996
20
-21.5211695326
30
0.0000000000
10
34.2862569365
20
-21.5880560273
30
0.0000000000
10
34.2797981679
20
-21.6268186913
30
0.0000000000
10
34.2863425923
20
-21.6408494671
30
0.0000000000
11
34.2743654383
21
-20.2428370318
31
0.0000000000
11
34.2745371323
21
-20.4112423668
31
0.0000000000
11
34.2749120856
21
-20.5957300802
31
0.0000000000
11
34.2755304356
21
-20.7875898548
31
0.0000000000
11
34.2764108292
21
-20.9770763989
31
0.0000000000
11
34.2775445777
21
-21.1541062536
31
0.0000000000
11
34.2788935670
21
-21.3095012424
31
0.0000000000
11
34.2803944639
21
-21.4364139060
31
0.0000000000
11
34.2819686980
21
-21.5313624957
31
0.0000000000
11
34.2835342255
21
-21.5944884651
31
0.0000000000
11
34.2863425923
21
-21.6408494671
31
0.0000000000
0
SPLINE
5
2F3
100
AcDbEntity
8
0
100
AcDbSpline
62
9
6
CONTINUOUS
70
0
71
3
72
16
73
12
74
10
42
0.0000001000
43
0.0000001000
44
0.0000000001
12
0.0007746232
22
-0.6526670100
32
0.0000000000
13
0.4614529132
23
-0.4615582680
33
0.0000000000
40
0.0000000000
40
0.0000000000
40
0.0000000000
40
0.0000000000
40
0.1204033716
40
0.2522975980
40
0.3894603717
40
0.5249336387
40
0.6515179458
40
0.7626562014
40
0.8534502492
40
0.9214049460
40
1.0000000000
40
1.0000000000
40
1.0000000000
40
1.0000000000
10
35.0742435945
20
-20.1885655078
30
0.0000000000
10
35.0742746835
20
-20.2147599440
30
0.0000000000
10
35.0743929308
20
-20.2696491340
30
0.0000000000
10
35.0747632589
20
-20.3543754962
30
0.0000000000
10
35.0753474448
20
-20.4423903282
30
0.0000000000
10
35.0762622059
20
-20.5292068555
30
0.0000000000
10
35.0771491610
20
-20.6104982573
30
0.0000000000
10
35.0790812310
20
-20.6816284442
30
0.0000000000
10
35.0787715895
20
-20.7412343367
30
0.0000000000
10
35.0854763159
20
-20.7902676870
30
0.0000000000
10
35.0741314429
20
-20.8288792453
30
0.0000000000
10
35.0862207485
20
-20.8409713109
30
0.0000000000
11
35.0742435945
21
-20.1885655078
31
0.0000000000
11
35.0744152520
21
-20.2671486842
31
0.0000000000
11
35.0747901396
21
-20.3532309389
31
0.0000000000
11
35.0754083510
21
-20.4427504847
31
0.0000000000
11
35.0762885462
21
-20.5311650979
31
0.0000000000
11
35.0774220932
21
-20.6137747805
31
0.0000000000
11
35.0787709632
21
-20.6862985619
31
0.0000000000
11
35.0802718874
21
-20.7455378722
31
0.0000000000
11
35.0818462810
21
-20.7898617396
31
0.0000000000
11
35.0862207485
21
-20.8409713109
31
0.0000000000
0
SPLINE
5
2F4
100
AcDbEntity
8
0
100
AcDbSpline
62
9
6
CONTINUOUS
70
0
71
3
72
11
73
7
74
5
42
0.0000001000
43
0.0000001000
44
0.0000000001
12
-0.1999128601
22
0.7789937706
32
0.0000000000
13
-0.8042359999
23
0.0009501350
33
0.0000000000
40
0.0000000000
40
0.0000000000
40
0.0000000000
40
0.0000000000
40
0.0845721315
40
0.3023924119
40
0.6232973344
40
1.0000000000
40
1.0000000000
40
1.0000000000
40
1.0000000000
10
35.0742435945
20
20.4065344300
30
0.0000000000
10
35.0686079089
20
20.4284948179
30
0.0000000000
10
34.9565484719
20
20.4231560739
30
0.0000000000
10
34.8172827036
20
20.4537696680
30
0.0000000000
10
34.5585763214
20
20.4558422885
30
0.0000000000
10
34.3753513866
20
20.4606866451
30
0.0000000000
10
34.2743654383
20
20.4608059513
30
0.0000000000
11
35.0742435945
21
20.4065344300
31
0.0000000000
11
35.0094074034
21
20.4270878877
31
0.0000000000
11
34.8351039150
21
20.4445803884
31
0.0000000000
11
34.5772915542
21
20.4564068337
31
0.0000000000
11
34.2743654383
21
20.4608059513
31
0.0000000000
0
SPLINE
5
2F5
100
AcDbEntity
8
0
100
AcDbSpline
62
9
6
CONTINUOUS
70
0
71
3
72
10
73
6
74
4
42
0.0000001000
43
0.0000001000
44
0.0000000001
12
-0.0481810599
22
-40.5950798001
32
0.0000000000
13
0.0481810144
23
-40.5950798001
33
0.0000000000
40
0.0000000000
40
0.0000000000
40
0.0000000000
40
0.0000000000
40
0.3332187590
40
0.6667828362
40
1.0000000000
40
1.0000000000
40
1.0000000000
40
1.0000000000
10
35.0742435945
20
20.4065344300
30
0.0000000000
10
35.0688919835
20
15.8975203932
30
0.0000000000
10
35.0617661371
20
6.8748149064
30
0.0000000000
10
35.0617661563
20
-6.6568891540
30
0.0000000000
10
35.0688920141
20
-15.6795730558
30
0.0000000000
10
35.0742435945
20
-20.1885655078
30
0.0000000000
11
35.0742435945
21
20.4065344300
31
0.0000000000
11
35.0635494476
21
6.8794870192
31
0.0000000000
11
35.0635494718
21
-6.6615828518
31
0.0000000000
11
35.0742435945
21
-20.1885655078
31
0.0000000000
0
SPLINE
5
2F6
100
AcDbEntity
8
0
100
AcDbSpline
62
9
6
CONTINUOUS
70
0
71
3
72
11
73
7
74
5
42
0.0000001000
43
0.0000001000
44
0.0000000001
12
-0.0003802072
22
1.2482731391
32
0.0000000000
13
-1.2482731391
23
0.0003802072
33
0.0000000000
40
0.0000000000
40
0.0000000000
40
0.0000000000
40
0.0000000000
40
0.2499896498
40
0.4999999322
40
0.7500102498
40
1.0000000000
40
1.0000000000
40
1.0000000000
40
1.0000000000
10
35.0862207485
20
21.0589402332
30
0.0000000000
10
35.0861890658
20
21.1629586881
30
0.0000000000
10
35.0445106122
20
21.3732659195
30
0.0000000000
10
34.8664895385
20
21.6390870749
30
0.0000000000
10
34.6006683796
20
21.8171082239
30
0.0000000000
10
34.3903610891
20
21.8587867067
30
0.0000000000
10
34.2863425923
20
21.8588183893
30
0.0000000000
11
35.0862207485
21
21.0589402332
31
0.0000000000
11
35.0252637647
21
21.3649840305
31
0.0000000000
11
34.8518558044
21
21.6244533232
31
0.0000000000
11
34.5923865077
21
21.7978613566
31
0.0000000000
11
34.2863425923
21
21.8588183893
31
0.0000000000
0
SPLINE
5
2F7
100
AcDbEntity
8
0
100
AcDbSpline
62
9
6
CONTINUOUS
70
0
71
3
72
17
73
13
74
11
42
0.0000001000
43
0.0000001000
44
0.0000000001
12
-0.5913971294
22
-1.2669153490
32
0.0000000000
13
-0.0007742913
23
-1.3981503734
33
0.0000000000
40
0.0000000000
40
0.0000000000
40
0.0000000000
40
0.0000000000
40
0.0353195030
40
0.0826916986
40
0.1531328306
40
0.2462339107
40
0.3589710773
40
0.4860273904
40
0.6206325913
40
0.7555893132
40
0.8840746460
40
1.0000000000
40
1.0000000000
40
1.0000000000
40
1.0000000000
10
34.2863425923
20
21.8588183893
30
0.0000000000
10
34.2793799748
20
21.8439027825
30
0.0000000000
10
34.2863471458
20
21.8029921829
30
0.0000000000
10
34.2800692902
20
21.7329829177
30
0.0000000000
10
34.2806637510
20
21.6340963774
30
0.0000000000
10
34.2783793159
20
21.5055870519
30
0.0000000000
10
34.2774019500
20
21.3503598143
30
0.0000000000
10
34.2762346834
20
21.1759023768
30
0.0000000000
10
34.2754383906
20
20.9910519101
30
0.0000000000
10
34.2748545620
20
20.8055449908
30
0.0000000000
10
34.2745091660
20
20.6287404751
30
0.0000000000
10
34.2743953583
20
20.5148329797
30
0.0000000000
10
34.2743654383
20
20.4608059540
30
0.0000000000
11
34.2863425923
21
21.8588183893
31
0.0000000000
11
34.2834421431
21
21.8095216579
31
0.0000000000
11
34.2818496150
21
21.7433073430
31
0.0000000000
11
34.2802634970
21
21.6448328059
31
0.0000000000
11
34.2787662334
21
21.5146720873
31
0.0000000000
11
34.2774343574
21
21.3570541786
31
0.0000000000
11
34.2763267008
21
21.1794137731
31
0.0000000000
11
34.2754754578
21
20.9912173575
31
0.0000000000
11
34.2748835291
21
20.8025284659
31
0.0000000000
11
34.2745277751
21
20.6228869746
31
0.0000000000
11
34.2743654383
21
20.4608059540
31
0.0000000000
0
SPLINE
5
2F8
100
AcDbEntity
8
0
100
AcDbSpline
62
9
6
CONTINUOUS
70
0
71
3
72
16
73
12
74
10
42
0.0000001000
43
0.0000001000
44
0.0000000001
12
-0.4615153881
22
-0.4614923911
32
0.0000000000
13
-0.0007746788
23
-0.6526646002
33
0.0000000000
40
0.0000000000
40
0.0000000000
40
0.0000000000
40
0.0000000000
40
0.0828584143
40
0.1532898141
40
0.2463626455
40
0.3590669211
40
0.4860968060
40
0.6206853880
40
0.7556310244
40
0.8841020130
40
1.0000000000
40
1.0000000000
40
1.0000000000
40
1.0000000000
10
35.0862207485
20
21.0589402332
30
0.0000000000
10
35.0734739374
20
21.0461940572
30
0.0000000000
10
35.0855300273
20
21.0057699649
30
0.0000000000
10
35.0786175140
20
20.9548587558
30
0.0000000000
10
35.0789654085
20
20.8938649565
30
0.0000000000
10
35.0770476308
20
20.8218007023
30
0.0000000000
10
35.0761831573
20
20.7402658476
30
0.0000000000
10
35.0752974960
20
20.6540263069
30
0.0000000000
10
35.0747377481
20
20.5674316234
30
0.0000000000
10
35.0743861244
20
20.4849126474
30
0.0000000000
10
35.0742735224
20
20.4317486012
30
0.0000000000
10
35.0742435945
20
20.4065344300
30
0.0000000000
11
35.0862207485
21
21.0589402332
31
0.0000000000
11
35.0817282129
21
21.0050483705
31
0.0000000000
11
35.0801422720
21
20.9591076231
31
0.0000000000
11
35.0786450798
21
20.8983806914
31
0.0000000000
11
35.0773131374
21
20.8248346086
31
0.0000000000
11
35.0762053072
21
20.7419340430
31
0.0000000000
11
35.0753538689
21
20.6540969046
31
0.0000000000
11
35.0747617828
21
20.5660245929
31
0.0000000000
11
35.0744059573
21
20.4821768224
31
0.0000000000
11
35.0742435945
21
20.4065344300
31
0.0000000000
0
SPLINE
5
2F9
100
AcDbEntity
8
0
100
AcDbSpline
62
9
6
CONTINUOUS
70
0
71
3
72
8
73
4
74
2
42
0.0000001000
43
0.0000001000
44
0.0000000001
12
0.3767993634
22
-0.0001046543
32
0.0000000000
13
0.3763749775
23
-0.0312882074
33
0.0000000000
40
0.0000000000
40
0.0000000000
40
0.0000000000
40
0.0000000000
40
1.0000000000
40
1.0000000000
40
1.0000000000
40
1.0000000000
10
26.1863868203
20
-8.3293019462
30
0.0000000000
10
26.3119866081
20
-8.3293368310
30
0.0000000000
10
26.4377698031
20
-8.3345905356
30
0.0000000000
10
26.5632281289
20
-8.3450199381
30
0.0000000000
11
26.1863868203
21
-8.3293019462
31
0.0000000000
11
26.5632281289
21
-8.3450199381
31
0.0000000000
0
SPLINE
5
2FA
100
AcDbEntity
8
0
100
AcDbSpline
62
9
6
CONTINUOUS
70
0
71
3
72
11
73
7
74
5
42
0.0000001000
43
0.0000001000
44
0.0000000001
12
3.9242238851
22
-0.3262223527
32
0.0000000000
13
2.3031478058
23
-3.1946902924
33
0.0000000000
40
0.0000000000
40
0.0000000000
40
0.0000000000
40
0.0000000000
40
0.1883838940
40
0.4728624193
40
0.7560857935
40
1.0000000000
40
1.0000000000
40
1.0000000000
40
1.0000000000
10
26.5632281289
20
-8.3450199381
30
0.0000000000
10
26.8096483211
20
-8.3655049505
30
0.0000000000
10
27.4250416945
20
-8.4670446678
30
0.0000000000
10
28.3576001399
20
-8.8272698489
30
0.0000000000
10
29.2355331590
20
-9.4452062853
30
0.0000000000
10
29.6994080187
20
-9.9638942864
30
0.0000000000
10
29.8866648419
20
-10.2236377356
30
0.0000000000
11
26.5632281289
21
-8.3450199381
31
0.0000000000
11
27.2948772391
21
-8.4660505522
31
0.0000000000
11
28.3375238076
21
-8.8684858484
31
0.0000000000
11
29.2473579432
21
-9.5090091940
31
0.0000000000
11
29.8866648419
21
-10.2236377356
31
0.0000000000
0
SPLINE
5
2FB
100
AcDbEntity
8
0
100
AcDbSpline
62
9
6
CONTINUOUS
70
0
71
3
72
8
73
4
74
2
42
0.0000001000
43
0.0000001000
44
0.0000000001
12
0.0885709613
22
-0.1228565486
32
0.0000000000
13
0.0844322881
23
-0.1257372573
33
0.0000000000
40
0.0000000000
40
0.0000000000
40
0.0000000000
40
0.0000000000
40
1.0000000000
40
1.0000000000
40
1.0000000000
40
1.0000000000
10
29.8866648419
20
-10.2236377356
30
0.0000000000
10
29.9161884956
20
-10.2645899185
30
0.0000000000
10
29.9450314199
20
-10.3060327716
30
0.0000000000
10
29.9731755160
20
-10.3479451907
30
0.0000000000
11
29.8866648419
21
-10.2236377356
31
0.0000000000
11
29.9731755160
21
-10.3479451907
31
0.0000000000
0
SPLINE
5
2FC
100
AcDbEntity
8
0
100
AcDbSpline
62
9
6
CONTINUOUS
70
0
71
3
72
8
73
4
74
2
42
0.0000001000
43
0.0000001000
44
0.0000000001
12
0.0224214729
22
-0.0333902417
32
0.0000000000
13
0.0221250750
23
-0.0335875238
33
0.0000000000
40
0.0000000000
40
0.0000000000
40
0.0000000000
40
0.0000000000
40
1.0000000000
40
1.0000000000
40
1.0000000000
40
1.0000000000
10
29.9731755160
20
-10.3479451907
30
0.0000000000
10
29.9806493403
20
-10.3590752713
30
0.0000000000
10
29.9880738833
20
-10.3702384656
30
0.0000000000
10
29.9954489083
20
-10.3814343068
30
0.0000000000
11
29.9731755160
21
-10.3479451907
31
0.0000000000
11
29.9954489083
21
-10.3814343068
31
0.0000000000
0
SPLINE
5
2FD
100
AcDbEntity
8
0
100
AcDbSpline
62
9
6
CONTINUOUS
70
0
71
3
72
8
73
4
74
2
42
0.0000001000
43
0.0000001000
44
0.0000000001
12
0.0553383928
22
-0.0840078322
32
0.0000000000
13
0.0534686223
23
-0.0852113267
33
0.0000000000
40
0.0000000000
40
0.0000000000
40
0.0000000000
40
0.0000000000
40
1.0000000000
40
1.0000000000
40
1.0000000000
40
1.0000000000
10
29.9954489083
20
-10.3814343068
30
0.0000000000
10
30.0138950393
20
-10.4094369176
30
0.0000000000
10
30.0320313946
20
-10.4376437619
30
0.0000000000
10
30.0498542687
20
-10.4660475374
30
0.0000000000
11
29.9954489083
21
-10.3814343068
31
0.0000000000
11
30.0498542687
21
-10.4660475374
31
0.0000000000
0
SPLINE
5
2FE
100
AcDbEntity
8
0
100
AcDbSpline
62
9
6
CONTINUOUS
70
0
71
3
72
8
73
4
74
2
42
0.0000001000
43
0.0000001000
44
0.0000000001
12
0.1225296446
22
-0.1952717897
32
0.0000000000
13
0.1125183600
23
-0.2012132770
33
0.0000000000
40
0.0000000000
40
0.0000000000
40
0.0000000000
40
0.0000000000
40
1.0000000000
40
1.0000000000
40
1.0000000000
40
1.0000000000
10
30.0498542687
20
-10.4660475374
30
0.0000000000
10
30.0906974835
20
-10.5311381340
30
0.0000000000
10
30.1298944482
20
-10.5972629176
30
0.0000000000
10
30.1674005682
20
-10.6643340099
30
0.0000000000
11
30.0498542687
21
-10.4660475374
31
0.0000000000
11
30.1674005682
21
-10.6643340099
31
0.0000000000
0
SPLINE
5
2FF
100
AcDbEntity
8
0
100
AcDbSpline
62
9
6
CONTINUOUS
70
0
71
3
72
8
73
4
74
2
42
0.0000001000
43
0.0000001000
44
0.0000000001
12
0.0226373773
22
-0.0404817567
32
0.0000000000
13
0.0222256487
23
-0.0407094307
33
0.0000000000
40
0.0000000000
40
0.0000000000
40
0.0000000000
40
0.0000000000
40
1.0000000000
40
1.0000000000
40
1.0000000000
40
1.0000000000
10
30.1674005682
20
-10.6643340099
30
0.0000000000
10
30.1749463606
20
-10.6778279288
30
0.0000000000
10
30.1824237132
20
-10.6913601512
30
0.0000000000
10
30.1898322628
20
-10.7049299615
30
0.0000000000
11
30.1674005682
21
-10.6643340099
31
0.0000000000
11
30.1898322628
21
-10.7049299615
31
0.0000000000
0
SPLINE
5
300
100
AcDbEntity
8
0
100
AcDbSpline
62
9
6
CONTINUOUS
70
0
71
3
72
8
73
4
74
2
42
0.0000001000
43
0.0000001000
44
0.0000000001
12
-0.1397236299
22
-0.3444561301
32
0.0000000000
13
-0.1673268034
23
-0.3319441124
33
0.0000000000
40
0.0000000000
40
0.0000000000
40
0.0000000000
40
0.0000000000
40
1.0000000000
40
1.0000000000
40
1.0000000000
40
1.0000000000
10
30.4134453515
20
-14.6071403609
30
0.0000000000
10
30.3668708083
20
-14.7219590709
30
0.0000000000
10
30.3155950364
20
-14.8348730920
30
0.0000000000
10
30.2598194353
20
-14.9455211294
30
0.0000000000
11
30.4134453515
21
-14.6071403609
31
0.0000000000
11
30.2598194353
21
-14.9455211294
31
0.0000000000
0
SPLINE
5
301
100
AcDbEntity
8
0
100
AcDbSpline
62
9
6
CONTINUOUS
70
0
71
3
72
8
73
4
74
2
42
0.0000001000
43
0.0000001000
44
0.0000000001
12
-0.1688246155
22
-0.3349154828
32
0.0000000000
13
-0.1956885441
23
-0.3199618346
33
0.0000000000
40
0.0000000000
40
0.0000000000
40
0.0000000000
40
0.0000000000
40
1.0000000000
40
1.0000000000
40
1.0000000000
40
1.0000000000
10
30.2598194353
20
-14.9455211294
30
0.0000000000
10
30.2035445635
20
-15.0571596237
30
0.0000000000
10
30.1426889421
20
-15.1664913853
30
0.0000000000
10
30.0774594274
20
-15.2731453302
30
0.0000000000
11
30.2598194353
21
-14.9455211294
31
0.0000000000
11
30.0774594274
21
-15.2731453302
31
0.0000000000
0
SPLINE
5
302
100
AcDbEntity
8
0
100
AcDbSpline
62
9
6
CONTINUOUS
70
0
71
3
72
8
73
4
74
2
42
0.0000001000
43
0.0000001000
44
0.0000000001
12
-0.1679577411
22
-0.2746204038
32
0.0000000000
13
-0.1868979024
23
-0.2620806243
33
0.0000000000
40
0.0000000000
40
0.0000000000
40
0.0000000000
40
0.0000000000
40
1.0000000000
40
1.0000000000
40
1.0000000000
40
1.0000000000
10
30.0774594274
20
-15.2731453302
30
0.0000000000
10
30.0214735137
20
-15.3646854647
30
0.0000000000
10
29.9622655118
20
-15.4542529491
30
0.0000000000
10
29.8999662110
20
-15.5416131572
30
0.0000000000
11
30.0774594274
21
-15.2731453302
31
0.0000000000
11
29.8999662110
21
-15.5416131572
31
0.0000000000
0
SPLINE
5
303
100
AcDbEntity
8
0
100
AcDbSpline
62
9
6
CONTINUOUS
70
0
71
3
72
8
73
4
74
2
42
0.0000001000
43
0.0000001000
44
0.0000000001
12
-0.0289085345
22
-0.0405374628
32
0.0000000000
13
-0.0293508296
23
-0.0402180099
33
0.0000000000
40
0.0000000000
40
0.0000000000
40
0.0000000000
40
0.0000000000
40
1.0000000000
40
1.0000000000
40
1.0000000000
40
1.0000000000
10
29.8999662110
20
-15.5416131572
30
0.0000000000
10
29.8903300328
20
-15.5551256448
30
0.0000000000
10
29.8806198968
20
-15.5685853243
30
0.0000000000
10
29.8708362869
20
-15.5819913276
30
0.0000000000
11
29.8999662110
21
-15.5416131572
31
0.0000000000
11
29.8708362869
21
-15.5819913276
31
0.0000000000
0
SPLINE
5
304
100
AcDbEntity
8
0
100
AcDbSpline
62
9
6
CONTINUOUS
70
0
71
3
72
11
73
7
74
5
42
0.0000001000
43
0.0000001000
44
0.0000000001
12
-2.3388432481
22
-3.2048027963
32
0.0000000000
13
-3.9545537742
23
-0.2801471253
33
0.0000000000
40
0.0000000000
40
0.0000000000
40
0.0000000000
40
0.0000000000
40
0.2798952543
40
0.5617369634
40
0.8328081024
40
1.0000000000
40
1.0000000000
40
1.0000000000
40
1.0000000000
10
29.8708362869
20
-15.5819913276
30
0.0000000000
10
29.6526259117
20
-15.8809943588
30
0.0000000000
10
29.1413338345
20
-16.4274911606
30
0.0000000000
10
28.2094877384
20
-17.0304016026
30
0.0000000000
10
27.3038979841
20
-17.3446482690
30
0.0000000000
10
26.7283874096
20
-17.4274564262
30
0.0000000000
10
26.5079976264
20
-17.4430692027
30
0.0000000000
11
29.8708362869
21
-15.5819913276
31
0.0000000000
11
29.1139965386
21
-16.3908823531
31
0.0000000000
11
28.1775155987
21
-16.9968865647
31
0.0000000000
11
27.1639425592
21
-17.3484934826
31
0.0000000000
11
26.5079976264
21
-17.4430692027
31
0.0000000000
0
SPLINE
5
305
100
AcDbEntity
8
0
100
AcDbSpline
62
9
6
CONTINUOUS
70
0
71
3
72
8
73
4
74
2
42
0.0000001000
43
0.0000001000
44
0.0000000001
12
-0.3213263983
22
-0.0227632931
32
0.0000000000
13
-0.3215846578
23
-0.0000534292
33
0.0000000000
40
0.0000000000
40
0.0000000000
40
0.0000000000
40
0.0000000000
40
1.0000000000
40
1.0000000000
40
1.0000000000
40
1.0000000000
10
26.5079976264
20
-17.4430692027
30
0.0000000000
10
26.4008888269
20
-17.4506569671
30
0.0000000000
10
26.2935817062
20
-17.4544709533
30
0.0000000000
10
26.1863868203
20
-17.4544887630
30
0.0000000000
11
26.5079976264
21
-17.4430692027
31
0.0000000000
11
26.1863868203
21
-17.4544887630
31
0.0000000000
0
SPLINE
5
306
100
AcDbEntity
8
0
100
AcDbSpline
62
9
6
CONTINUOUS
70
0
71
3
72
8
73
4
74
2
42
0.0000001000
43
0.0000001000
44
0.0000000001
12
-0.3645850719
22
0.0000506892
32
0.0000000000
13
-0.3641936598
23
0.0299422411
33
0.0000000000
40
0.0000000000
40
0.0000000000
40
0.0000000000
40
0.0000000000
40
1.0000000000
40
1.0000000000
40
1.0000000000
40
1.0000000000
10
21.9863868203
20
-17.3486495024
30
0.0000000000
10
21.8648584630
20
-17.3486326060
30
0.0000000000
10
21.7431549719
20
-17.3436108188
30
0.0000000000
10
21.6217570853
20
-17.3336300718
30
0.0000000000
11
21.9863868203
21
-17.3486495024
31
0.0000000000
11
21.6217570853
21
-17.3336300718
31
0.0000000000
0
SPLINE
5
307
100
AcDbEntity
8
0
100
AcDbSpline
62
9
6
CONTINUOUS
70
0
71
3
72
8
73
4
74
2
42
0.0000001000
43
0.0000001000
44
0.0000000001
12
-0.2261647379
22
0.2834852578
32
0.0000000000
13
-0.2023690973
23
0.3009319925
33
0.0000000000
40
0.0000000000
40
0.0000000000
40
0.0000000000
40
0.0000000000
40
1.0000000000
40
1.0000000000
40
1.0000000000
40
1.0000000000
10
18.4982732373
20
-15.6691863759
30
0.0000000000
10
18.4228849914
20
-15.5746912900
30
0.0000000000
10
18.3513323481
20
-15.4771374056
30
0.0000000000
10
18.2838759823
20
-15.3768267414
30
0.0000000000
11
18.4982732373
21
-15.6691863759
31
0.0000000000
11
18.2838759823
21
-15.3768267414
31
0.0000000000
0
SPLINE
5
308
100
AcDbEntity
8
0
100
AcDbSpline
62
9
6
CONTINUOUS
70
0
71
3
72
8
73
4
74
2
42
0.0000001000
43
0.0000001000
44
0.0000000001
12
-0.2030877005
22
0.3020005879
32
0.0000000000
13
-0.1777833053
23
0.3175737411
33
0.0000000000
40
0.0000000000
40
0.0000000000
40
0.0000000000
40
0.0000000000
40
1.0000000000
40
1.0000000000
40
1.0000000000
40
1.0000000000
10
18.2838759823
20
-15.3768267414
30
0.0000000000
10
18.2161800822
20
-15.2761598788
30
0.0000000000
10
18.1526096025
20
-15.1727166233
30
0.0000000000
10
18.0933485008
20
-15.0668587096
30
0.0000000000
11
18.2838759823
21
-15.3768267414
31
0.0000000000
11
18.0933485008
21
-15.0668587096
31
0.0000000000
0
SPLINE
5
309
100
AcDbEntity
8
0
100
AcDbSpline
62
9
6
CONTINUOUS
70
0
71
3
72
8
73
4
74
2
42
0.0000001000
43
0.0000001000
44
0.0000000001
12
-0.0198315553
22
0.0354250429
32
0.0000000000
13
-0.0195090549
23
0.0356038128
33
0.0000000000
40
0.0000000000
40
0.0000000000
40
0.0000000000
40
0.0000000000
40
1.0000000000
40
1.0000000000
40
1.0000000000
40
1.0000000000
10
18.0933485008
20
-15.0668587096
30
0.0000000000
10
18.0867379824
20
-15.0550503619
30
0.0000000000
10
18.0801810863
20
-15.0432119683
30
0.0000000000
10
18.0736780680
20
-15.0313440307
30
0.0000000000
11
18.0933485008
21
-15.0668587096
31
0.0000000000
11
18.0736780680
21
-15.0313440307
31
0.0000000000
0
SPLINE
5
30A
100
AcDbEntity
8
0
100
AcDbSpline
62
9
6
CONTINUOUS
70
0
71
3
72
8
73
4
74
2
42
0.0000001000
43
0.0000001000
44
0.0000000001
12
-0.0737461115
22
0.1345858505
32
0.0000000000
13
-0.0690855407
23
0.1370374329
33
0.0000000000
40
0.0000000000
40
0.0000000000
40
0.0000000000
40
0.0000000000
40
1.0000000000
40
1.0000000000
40
1.0000000000
40
1.0000000000
10
18.0736780680
20
-15.0313440307
30
0.0000000000
10
18.0490960308
20
-14.9864820805
30
0.0000000000
10
18.0252838595
20
-14.9411979731
30
0.0000000000
10
18.0022553459
20
-14.8955188288
30
0.0000000000
11
18.0736780680
21
-15.0313440307
31
0.0000000000
11
18.0022553459
21
-14.8955188288
31
0.0000000000
0
SPLINE
5
30B
100
AcDbEntity
8
0
100
AcDbSpline
62
9
6
CONTINUOUS
70
0
71
3
72
8
73
4
74
2
42
0.0000001000
43
0.0000001000
44
0.0000000001
12
-0.0767309318
22
0.1522027591
32
0.0000000000
13
-0.0708740256
23
0.1550151394
33
0.0000000000
40
0.0000000000
40
0.0000000000
40
0.0000000000
40
0.0000000000
40
1.0000000000
40
1.0000000000
40
1.0000000000
40
1.0000000000
10
18.0022553459
20
-14.8955188288
30
0.0000000000
10
17.9766783687
20
-14.8447845758
30
0.0000000000
10
17.9520680944
20
-14.7935630139
30
0.0000000000
10
17.9284434192
20
-14.7418913008
30
0.0000000000
11
18.0022553459
21
-14.8955188288
31
0.0000000000
11
17.9284434192
21
-14.7418913008
31
0.0000000000
0
SPLINE
5
30C
100
AcDbEntity
8
0
100
AcDbSpline
62
9
6
CONTINUOUS
70
0
71
3
72
11
73
7
74
5
42
0.0000001000
43
0.0000001000
44
0.0000000001
12
-1.5086380483
22
3.2996818717
32
0.0000000000
13
1.3613999290
23
3.3629504379
33
0.0000000000
40
0.0000000000
40
0.0000000000
40
0.0000000000
40
0.0000000000
40
0.1002777353
40
0.3996144452
40
0.7008867326
40
1.0000000000
40
1.0000000000
40
1.0000000000
40
1.0000000000
10
17.9284434192
20
-14.7418913008
30
0.0000000000
10
17.8780158169
20
-14.6315964257
30
0.0000000000
10
17.6949533851
20
-14.1838895615
30
0.0000000000
10
17.5040767792
20
-13.3515913679
30
0.0000000000
10
17.5247192957
20
-12.2554314942
30
0.0000000000
10
17.7148804526
20
-11.5491345866
30
0.0000000000
10
17.8506180463
20
-11.2138335554
30
0.0000000000
11
17.9284434192
21
-14.7418913008
31
0.0000000000
11
17.7908162119
21
-14.4052150778
31
0.0000000000
11
17.5486554187
21
-13.3492892193
31
0.0000000000
11
17.5691831447
21
-12.2591393474
31
0.0000000000
11
17.8506180463
21
-11.2138335554
31
0.0000000000
0
SPLINE
5
30D
100
AcDbEntity
8
0
100
AcDbSpline
62
9
6
CONTINUOUS
70
0
71
3
72
8
73
4
74
2
42
0.0000001000
43
0.0000001000
44
0.0000000001
12
0.1365762925
22
0.3373727976
32
0.0000000000
13
0.1636546156
23
0.3251192869
33
0.0000000000
40
0.0000000000
40
0.0000000000
40
0.0000000000
40
0.0000000000
40
1.0000000000
40
1.0000000000
40
1.0000000000
40
1.0000000000
10
17.8506180463
20
-11.2138335554
30
0.0000000000
10
17.8961434771
20
-11.1013759562
30
0.0000000000
10
17.9462808131
20
-10.9907831318
30
0.0000000000
10
18.0008323516
20
-10.8824100361
30
0.0000000000
11
17.8506180463
21
-11.2138335554
31
0.0000000000
11
18.0008323516
21
-10.8824100361
31
0.0000000000
0
SPLINE
5
30E
100
AcDbEntity
8
0
100
AcDbSpline
62
9
6
CONTINUOUS
70
0
71
3
72
8
73
4
74
2
42
0.0000001000
43
0.0000001000
44
0.0000000001
12
0.1640302955
22
0.3258656196
32
0.0000000000
13
0.1900400464
23
0.3114138177
33
0.0000000000
40
0.0000000000
40
0.0000000000
40
0.0000000000
40
0.0000000000
40
1.0000000000
40
1.0000000000
40
1.0000000000
40
1.0000000000
10
18.0008323516
20
-10.8824100361
30
0.0000000000
10
18.0555091168
20
-10.7737881630
30
0.0000000000
10
18.1146203740
20
-10.6673962213
30
0.0000000000
10
18.1779670562
20
-10.5635916154
30
0.0000000000
11
18.0008323516
21
-10.8824100361
31
0.0000000000
11
18.1779670562
21
-10.5635916154
31
0.0000000000
0
SPLINE
5
30F
100
AcDbEntity
8
0
100
AcDbSpline
62
9
6
CONTINUOUS
70
0
71
3
72
8
73
4
74
2
42
0.0000001000
43
0.0000001000
44
0.0000000001
12
0.0229939912
22
0.0376796718
32
0.0000000000
13
0.0233649708
23
0.0374505023
33
0.0000000000
40
0.0000000000
40
0.0000000000
40
0.0000000000
40
0.0000000000
40
1.0000000000
40
1.0000000000
40
1.0000000000
40
1.0000000000
10
18.1779670562
20
-10.5635916154
30
0.0000000000
10
18.1856317199
20
-10.5510317248
30
0.0000000000
10
18.1933583899
20
-10.5385097126
30
0.0000000000
10
18.2011467135
20
-10.5260262119
30
0.0000000000
11
18.1779670562
21
-10.5635916154
31
0.0000000000
11
18.2011467135
21
-10.5260262119
31
0.0000000000
0
SPLINE
5
310
100
AcDbEntity
8
0
100
AcDbSpline
62
9
6
CONTINUOUS
70
0
71
3
72
8
73
4
74
2
42
0.0000001000
43
0.0000001000
44
0.0000000001
12
0.0920802924
22
0.1475907345
32
0.0000000000
13
0.0977608443
23
0.1438857269
33
0.0000000000
40
0.0000000000
40
0.0000000000
40
0.0000000000
40
0.0000000000
40
1.0000000000
40
1.0000000000
40
1.0000000000
40
1.0000000000
10
18.2011467135
20
-10.5260262119
30
0.0000000000
10
18.2318401442
20
-10.4768293004
30
0.0000000000
10
18.2634911252
20
-10.4282305151
30
0.0000000000
10
18.2960780733
20
-10.3802686062
30
0.0000000000
11
18.2011467135
21
-10.5260262119
31
0.0000000000
11
18.2960780733
21
-10.3802686062
31
0.0000000000
0
SPLINE
5
311
100
AcDbEntity
8
0
100
AcDbSpline
62
9
6
CONTINUOUS
70
0
71
3
72
8
73
4
74
2
42
0.0000001000
43
0.0000001000
44
0.0000000001
12
0.0582118477
22
0.0856769812
32
0.0000000000
13
0.0601893311
23
0.0842975631
33
0.0000000000
40
0.0000000000
40
0.0000000000
40
0.0000000000
40
0.0000000000
40
1.0000000000
40
1.0000000000
40
1.0000000000
40
1.0000000000
10
18.2960780733
20
-10.3802686062
30
0.0000000000
10
18.3154820225
20
-10.3517096125
30
0.0000000000
10
18.3352178307
20
-10.3233764312
30
0.0000000000
10
18.3552809410
20
-10.2952772435
30
0.0000000000
11
18.2960780733
21
-10.3802686062
31
0.0000000000
11
18.3552809410
21
-10.2952772435
31
0.0000000000
0
SPLINE
5
312
100
AcDbEntity
8
0
100
AcDbSpline
62
9
6
CONTINUOUS
70
0
71
3
72
8
73
4
74
2
42
0.0000001000
43
0.0000001000
44
0.0000000001
12
0.0246127165
22
0.0344710929
32
0.0000000000
13
0.0249401645
23
0.0342346487
33
0.0000000000
40
0.0000000000
40
0.0000000000
40
0.0000000000
40
0.0000000000
40
1.0000000000
40
1.0000000000
40
1.0000000000
40
1.0000000000
10
18.3552809410
20
-10.2952772435
30
0.0000000000
10
18.3634851799
20
-10.2837868792
30
0.0000000000
10
18.3717441492
20
-10.2723356426
30
0.0000000000
10
18.3800575373
20
-10.2609240930
30
0.0000000000
11
18.3552809410
21
-10.2952772435
31
0.0000000000
11
18.3800575373
21
-10.2609240930
31
0.0000000000
0
SPLINE
5
313
100
AcDbEntity
8
0
100
AcDbSpline
62
9
6
CONTINUOUS
70
0
71
3
72
8
73
4
74
2
42
0.0000001000
43
0.0000001000
44
0.0000000001
12
0.3118724629
22
0.0219150451
32
0.0000000000
13
0.3121125286
23
0.0000259235
33
0.0000000000
40
0.0000000000
40
0.0000000000
40
0.0000000000
40
0.0000000000
40
1.0000000000
40
1.0000000000
40
1.0000000000
40
1.0000000000
10
21.6742460573
20
-8.4374562839
30
0.0000000000
10
21.7782035449
20
-8.4301512689
30
0.0000000000
10
21.8823493108
20
-8.4264825948
30
0.0000000000
10
21.9863868203
20
-8.4264739536
30
0.0000000000
11
21.6742460573
21
-8.4374562839
31
0.0000000000
11
21.9863868203
21
-8.4264739536
31
0.0000000000
0
SPLINE
5
314
100
AcDbEntity
8
0
100
AcDbSpline
62
9
6
CONTINUOUS
70
0
71
3
72
8
73
4
74
2
42
0.0000001000
43
0.0000001000
44
0.0000000001
12
0.3650240046
22
-0.0000506723
32
0.0000000000
13
0.3646311591
23
-0.0300147192
33
0.0000000000
40
0.0000000000
40
0.0000000000
40
0.0000000000
40
0.0000000000
40
1.0000000000
40
1.0000000000
40
1.0000000000
40
1.0000000000
10
26.1863868203
20
-8.4264739536
30
0.0000000000
10
26.3080614885
20
-8.4264908444
30
0.0000000000
10
26.4299119336
20
-8.4315248326
30
0.0000000000
10
26.5514556534
20
-8.4415297390
30
0.0000000000
11
26.1863868203
21
-8.4264739536
31
0.0000000000
11
26.5514556534
21
-8.4415297390
31
0.0000000000
0
SPLINE
5
315
100
AcDbEntity
8
0
100
AcDbSpline
62
9
6
CONTINUOUS
70
0
71
3
72
8
73
4
74
2
42
0.0000001000
43
0.0000001000
44
0.0000000001
12
0.0775382551
22
-0.1154766469
32
0.0000000000
13
0.0738901231
23
-0.1178467809
33
0.0000000000
40
0.0000000000
40
0.0000000000
40
0.0000000000
40
0.0000000000
40
1.0000000000
40
1.0000000000
40
1.0000000000
40
1.0000000000
10
29.8906327172
20
-10.4008786249
30
0.0000000000
10
29.9164788023
20
-10.4393708405
30
0.0000000000
10
29.9417219929
20
-10.4782681786
30
0.0000000000
10
29.9663520339
20
-10.5175504389
30
0.0000000000
11
29.8906327172
21
-10.4008786249
31
0.0000000000
11
29.9663520339
21
-10.5175504389
31
0.0000000000
0
SPLINE
5
316
100
AcDbEntity
8
0
100
AcDbSpline
62
9
6
CONTINUOUS
70
0
71
3
72
8
73
4
74
2
42
0.0000001000
43
0.0000001000
44
0.0000000001
12
0.1194069599
22
-0.1904412287
32
0.0000000000
13
0.1096697610
23
-0.1962167819
33
0.0000000000
40
0.0000000000
40
0.0000000000
40
0.0000000000
40
0.0000000000
40
1.0000000000
40
1.0000000000
40
1.0000000000
40
1.0000000000
10
29.9663520339
20
-10.5175504389
30
0.0000000000
10
30.0061543539
20
-10.5810308485
30
0.0000000000
10
30.0443554467
20
-10.6455164744
30
0.0000000000
10
30.0809120337
20
-10.7109220683
30
0.0000000000
11
29.9663520339
21
-10.5175504389
31
0.0000000000
11
30.0809120337
21
-10.7109220683
31
0.0000000000
0
SPLINE
5
317
100
AcDbEntity
8
0
100
AcDbSpline
62
9
6
CONTINUOUS
70
0
71
3
72
8
73
4
74
2
42
0.0000001000
43
0.0000001000
44
0.0000000001
12
0.0214305916
22
-0.0383427635
32
0.0000000000
13
0.0210528485
23
-0.0385516299
33
0.0000000000
40
0.0000000000
40
0.0000000000
40
0.0000000000
40
0.0000000000
40
1.0000000000
40
1.0000000000
40
1.0000000000
40
1.0000000000
10
30.0809120337
20
-10.7109220683
30
0.0000000000
10
30.0880555642
20
-10.7237029895
30
0.0000000000
10
30.0951362990
20
-10.7365190398
30
0.0000000000
10
30.1021539152
20
-10.7493695831
30
0.0000000000
11
30.0809120337
21
-10.7109220683
31
0.0000000000
11
30.1021539152
21
-10.7493695831
31
0.0000000000
0
SPLINE
5
318
100
AcDbEntity
8
0
100
AcDbSpline
62
9
6
CONTINUOUS
70
0
71
3
72
8
73
4
74
2
42
0.0000001000
43
0.0000001000
44
0.0000000001
12
0.0734578135
22
-0.1345147398
32
0.0000000000
13
0.0688059985
23
-0.1369533052
33
0.0000000000
40
0.0000000000
40
0.0000000000
40
0.0000000000
40
0.0000000000
40
1.0000000000
40
1.0000000000
40
1.0000000000
40
1.0000000000
10
30.1021539152
20
-10.7493695831
30
0.0000000000
10
30.1266398530
20
-10.7942078297
30
0.0000000000
10
30.1503573474
20
-10.8394660146
30
0.0000000000
10
30.1732926803
20
-10.8851171163
30
0.0000000000
11
30.1021539152
21
-10.7493695831
31
0.0000000000
11
30.1732926803
21
-10.8851171163
31
0.0000000000
0
SPLINE
5
319
100
AcDbEntity
8
0
100
AcDbSpline
62
9
6
CONTINUOUS
70
0
71
3
72
8
73
4
74
2
42
0.0000001000
43
0.0000001000
44
0.0000000001
12
0.0750592449
22
-0.1493999345
32
0.0000000000
13
0.0694210719
23
-0.1521001821
33
0.0000000000
40
0.0000000000
40
0.0000000000
40
0.0000000000
40
0.0000000000
40
1.0000000000
40
1.0000000000
40
1.0000000000
40
1.0000000000
10
30.1732926803
20
-10.8851171163
30
0.0000000000
10
30.1983124286
20
-10.9349170945
30
0.0000000000
10
30.2224013857
20
-10.9851846532
30
0.0000000000
10
30.2455417430
20
-11.0358847139
30
0.0000000000
11
30.1732926803
21
-10.8851171163
31
0.0000000000
11
30.2455417430
21
-11.0358847139
31
0.0000000000
0
SPLINE
5
31A
100
AcDbEntity
8
0
100
AcDbSpline
62
9
6
CONTINUOUS
70
0
71
3
72
11
73
7
74
5
42
0.0000001000
43
0.0000001000
44
0.0000000001
12
1.5066848716
22
-3.3011164622
32
0.0000000000
13
-1.3641689287
23
-3.3623793272
33
0.0000000000
40
0.0000000000
40
0.0000000000
40
0.0000000000
40
0.0000000000
40
0.1002324556
40
0.3994756833
40
0.7007687084
40
1.0000000000
40
1.0000000000
40
1.0000000000
40
1.0000000000
10
30.2455417430
20
-11.0358847139
30
0.0000000000
10
30.2958813178
20
-11.1461777170
30
0.0000000000
10
30.4786179218
20
-11.5939069839
30
0.0000000000
10
30.6689833400
20
-12.4262921576
30
0.0000000000
10
30.6476676604
20
-13.5226499751
30
0.0000000000
10
30.4569390959
20
-14.2290814764
30
0.0000000000
10
30.3208717524
20
-14.5644578461
30
0.0000000000
11
30.2455417430
21
-11.0358847139
31
0.0000000000
11
30.3829097468
21
-11.3725428776
31
0.0000000000
11
30.6243877196
21
-12.4284310221
31
0.0000000000
11
30.6031898073
21
-13.5187933158
31
0.0000000000
11
30.3208717524
21
-14.5644578461
31
0.0000000000
0
SPLINE
5
31B
100
AcDbEntity
8
0
100
AcDbSpline
62
9
6
CONTINUOUS
70
0
71
3
72
8
73
4
74
2
42
0.0000001000
43
0.0000001000
44
0.0000000001
12
-0.1369167313
22
-0.3374699255
32
0.0000000000
13
-0.1640177991
23
-0.3251802944
33
0.0000000000
40
0.0000000000
40
0.0000000000
40
0.0000000000
40
0.0000000000
40
1.0000000000
40
1.0000000000
40
1.0000000000
40
1.0000000000
10
30.3208717524
20
-14.5644578461
30
0.0000000000
10
30.2752328420
20
-14.6769478212
30
0.0000000000
10
30.2249778955
20
-14.7875672473
30
0.0000000000
10
30.1703052958
20
-14.8959606787
30
0.0000000000
11
30.3208717524
21
-14.5644578461
31
0.0000000000
11
30.1703052958
21
-14.8959606787
31
0.0000000000
0
SPLINE
5
31C
100
AcDbEntity
8
0
100
AcDbSpline
62
9
6
CONTINUOUS
70
0
71
3
72
8
73
4
74
2
42
0.0000001000
43
0.0000001000
44
0.0000000001
12
-0.1643951089
22
-0.3259283457
32
0.0000000000
13
-0.1904238526
23
-0.3114371466
33
0.0000000000
40
0.0000000000
40
0.0000000000
40
0.0000000000
40
0.0000000000
40
1.0000000000
40
1.0000000000
40
1.0000000000
40
1.0000000000
10
30.1703052958
20
-14.8959606787
30
0.0000000000
10
30.1155069261
20
-15.0046034606
30
0.0000000000
10
30.0562705550
20
-15.1110099947
30
0.0000000000
10
29.9927959374
20
-15.2148223769
30
0.0000000000
11
30.1703052958
21
-14.8959606787
31
0.0000000000
11
29.9927959374
21
-15.2148223769
31
0.0000000000
0
SPLINE
5
31D
100
AcDbEntity
8
0
100
AcDbSpline
62
9
6
CONTINUOUS
70
0
71
3
72
8
73
4
74
2
42
0.0000001000
43
0.0000001000
44
0.0000000001
12
-0.0235614613
22
-0.0329066565
32
0.0000000000
13
-0.0238601919
23
-0.0326904368
33
0.0000000000
40
0.0000000000
40
0.0000000000
40
0.0000000000
40
0.0000000000
40
1.0000000000
40
1.0000000000
40
1.0000000000
40
1.0000000000
10
29.8140641888
20
-15.4846407755
30
0.0000000000
10
29.8062103684
20
-15.4956096610
30
0.0000000000
10
29.7983066234
20
-15.5065427538
30
0.0000000000
10
29.7903532261
20
-15.5174395660
30
0.0000000000
11
29.8140641888
21
-15.4846407755
31
0.0000000000
11
29.7903532261
21
-15.5174395660
31
0.0000000000
0
SPLINE
5
31E
100
AcDbEntity
8
0
100
AcDbSpline
62
9
6
CONTINUOUS
70
0
71
3
72
11
73
7
74
5
42
0.0000001000
43
0.0000001000
44
0.0000000001
12
-2.2896765473
22
-3.1370462901
32
0.0000000000
13
-3.8712658571
23
-0.2714115491
33
0.0000000000
40
0.0000000000
40
0.0000000000
40
0.0000000000
40
0.0000000000
40
0.2795563834
40
0.5611073345
40
0.8319731326
40
1.0000000000
40
1.0000000000
40
1.0000000000
40
1.0000000000
10
29.7903532261
20
-15.5174395660
30
0.0000000000
10
29.5769886612
20
-15.8097666712
30
0.0000000000
10
29.0770147959
20
-16.3440995362
30
0.0000000000
10
28.1657618499
20
-16.9337242539
30
0.0000000000
10
27.2788704828
20
-17.2414895554
30
0.0000000000
10
26.7146480442
20
-17.3225154572
30
0.0000000000
10
26.4978224860
20
-17.3377169347
30
0.0000000000
11
29.7903532261
21
-15.5174395660
31
0.0000000000
11
29.0503448473
21
-16.3082745059
31
0.0000000000
11
28.1345794767
21
-16.9008995218
31
0.0000000000
11
27.1431575540
21
-17.2448708207
31
0.0000000000
11
26.4978224860
21
-17.3377169347
31
0.0000000000
0
SPLINE
5
31F
100
AcDbEntity
8
0
100
AcDbSpline
62
9
6
CONTINUOUS
70
0
71
3
72
8
73
4
74
2
42
0.0000001000
43
0.0000001000
44
0.0000000001
12
-0.3111692225
22
-0.0218158411
32
0.0000000000
13
-0.3114076007
23
-0.0000258219
33
0.0000000000
40
0.0000000000
40
0.0000000000
40
0.0000000000
40
0.0000000000
40
1.0000000000
40
1.0000000000
40
1.0000000000
40
1.0000000000
10
26.4978224860
20
-17.3377169347
30
0.0000000000
10
26.3940994118
20
-17.3449888817
30
0.0000000000
10
26.2901893539
20
-17.3486408951
30
0.0000000000
10
26.1863868203
20
-17.3486495024
30
0.0000000000
11
26.4978224860
21
-17.3377169347
31
0.0000000000
11
26.1863868203
21
-17.3486495024
31
0.0000000000
0
SPLINE
5
320
100
AcDbEntity
8
0
100
AcDbSpline
62
9
6
CONTINUOUS
70
0
71
3
72
11
73
7
74
5
42
0.0000001000
43
0.0000001000
44
0.0000000001
12
0.0003802072
22
-1.2482731391
32
0.0000000000
13
1.2482731391
23
-0.0003802072
33
0.0000000000
40
0.0000000000
40
0.0000000000
40
0.0000000000
40
0.0000000000
40
0.2499896958
40
0.4999999908
40
0.7500102906
40
1.0000000000
40
1.0000000000
40
1.0000000000
40
1.0000000000
10
13.0865528921
20
-20.8409713109
30
0.0000000000
10
13.0865845747
20
-20.9449897850
30
0.0000000000
10
13.1282630415
20
-21.1552970420
30
0.0000000000
10
13.3062841475
20
-21.4211181974
30
0.0000000000
10
13.5721053034
20
-21.5991393137
30
0.0000000000
10
13.7824125685
20
-21.6408177844
30
0.0000000000
10
13.8864310482
20
-21.6408494671
30
0.0000000000
11
13.0865528921
21
-20.8409713109
31
0.0000000000
11
13.1475098983
21
-21.1470151624
31
0.0000000000
11
13.3209178889
21
-21.4064844537
31
0.0000000000
11
13.5803871807
21
-21.5798924542
31
0.0000000000
11
13.8864310482
21
-21.6408494671
31
0.0000000000
0
SPLINE
5
321
100
AcDbEntity
8
0
100
AcDbSpline
62
9
6
CONTINUOUS
70
0
71
3
72
17
73
13
74
11
42
0.0000001000
43
0.0000001000
44
0.0000000001
12
0.5910581235
22
1.2670754723
32
0.0000000000
13
0.0007746575
23
1.3981521225
33
0.0000000000
40
0.0000000000
40
0.0000000000
40
0.0000000000
40
0.0000000000
40
0.0321746913
40
0.0762805132
40
0.1430188928
40
0.2327217789
40
0.3431306644
40
0.4695322704
40
0.6054652074
40
0.7437385170
40
0.8773466663
40
1.0000000000
40
1.0000000000
40
1.0000000000
40
1.0000000000
10
13.8864310482
20
-21.6408494671
30
0.0000000000
10
13.8927700858
20
-21.6272602130
30
0.0000000000
10
13.8865564489
20
-21.5895441600
30
0.0000000000
10
13.8924426227
20
-21.5241604180
30
0.0000000000
10
13.8919453126
20
-21.4301313165
30
0.0000000000
10
13.8942115231
20
-21.3060117479
30
0.0000000000
10
13.8952167502
20
-21.1537583904
30
0.0000000000
10
13.8964226269
20
-20.9800731004
30
0.0000000000
10
13.8972591672
20
-20.7933628111
30
0.0000000000
10
13.8978811531
20
-20.6033039242
30
0.0000000000
10
13.8982541022
20
-20.4194303995
30
0.0000000000
10
13.8983765308
20
-20.2999997048
30
0.0000000000
10
13.8984082022
20
-20.2428370318
30
0.0000000000
11
13.8864310482
21
-21.6408494671
31
0.0000000000
11
13.8891923436
21
-21.5959491746
31
0.0000000000
11
13.8907453216
21
-21.5343020744
31
0.0000000000
11
13.8923146471
21
-21.4410048507
31
0.0000000000
11
13.8938179875
21
-21.3155955612
31
0.0000000000
11
13.8951755683
21
-21.1612330896
31
0.0000000000
11
13.8963219366
21
-20.9845081068
31
0.0000000000
11
13.8972163410
21
-20.7944552578
31
0.0000000000
11
13.8978474893
21
-20.6011291371
31
0.0000000000
11
13.8982318889
21
-20.4143249864
31
0.0000000000
11
13.8984082022
21
-20.2428370318
31
0.0000000000
0
SPLINE
5
322
100
AcDbEntity
8
0
100
AcDbSpline
62
9
6
CONTINUOUS
70
0
71
3
72
16
73
12
74
10
42
0.0000001000
43
0.0000001000
44
0.0000000001
12
0.4614288349
22
0.4615840827
32
0.0000000000
13
0.0007746538
23
0.6526682427
33
0.0000000000
40
0.0000000000
40
0.0000000000
40
0.0000000000
40
0.0000000000
40
0.0764848096
40
0.1432578529
40
0.2329793963
40
0.3433847147
40
0.4697569263
40
0.6056387883
40
0.7438500360
40
0.8773973089
40
1.0000000000
40
1.0000000000
40
1.0000000000
40
1.0000000000
10
13.0865528921
20
-20.8409713109
30
0.0000000000
10
13.0983169910
20
-20.8292032540
30
0.0000000000
10
13.0873207519
20
-20.7914776091
30
0.0000000000
10
13.0939267762
20
-20.7433541711
30
0.0000000000
10
13.0936349376
20
-20.6844034541
30
0.0000000000
10
13.0955747029
20
-20.6137128213
30
0.0000000000
10
13.0964726073
20
-20.5325372024
30
0.0000000000
10
13.0974016043
20
-20.4454502773
30
0.0000000000
10
13.0979977722
20
-20.3567585190
30
0.0000000000
10
13.0983773585
20
-20.2709658840
30
0.0000000000
10
13.0984983879
20
-20.2152384688
30
0.0000000000
10
13.0985300461
20
-20.1885655078
30
0.0000000000
11
13.0865528921
21
-20.8409713109
31
0.0000000000
11
13.0908675722
21
-20.7912388848
31
0.0000000000
11
13.0924370885
21
-20.7476864809
31
0.0000000000
11
13.0939405133
21
-20.6891473401
31
0.0000000000
11
13.0952980319
21
-20.6171020326
31
0.0000000000
11
13.0964442347
21
-20.5346308100
31
0.0000000000
11
13.0973384492
21
-20.4459494797
31
0.0000000000
11
13.0979694509
21
-20.3557455310
31
0.0000000000
11
13.0983537732
21
-20.2685842529
31
0.0000000000
11
13.0985300461
21
-20.1885655078
31
0.0000000000
0
SPLINE
5
323
100
AcDbEntity
8
0
100
AcDbSpline
62
9
6
CONTINUOUS
70
0
71
3
72
11
73
7
74
5
42
0.0000001000
43
0.0000001000
44
0.0000000001
12
0.1999131865
22
-0.7789936862
32
0.0000000000
13
0.8042359993
23
-0.0009501350
33
0.0000000000
40
0.0000000000
40
0.0000000000
40
0.0000000000
40
0.0000000000
40
0.0845721394
40
0.3023924218
40
0.6232973410
40
1.0000000000
40
1.0000000000
40
1.0000000000
40
1.0000000000
10
13.0985300461
20
-20.1885655078
30
0.0000000000
10
13.1041657414
20
-20.2105258954
30
0.0000000000
10
13.2162251636
20
-20.2051871510
30
0.0000000000
10
13.3554909499
20
-20.2358007441
30
0.0000000000
10
13.6141973214
20
-20.2378733649
30
0.0000000000
10
13.7974222558
20
-20.2427177213
30
0.0000000000
10
13.8984082022
20
-20.2428370274
30
0.0000000000
11
13.0985300461
21
-20.1885655078
31
0.0000000000
11
13.1633662439
21
-20.2091189649
31
0.0000000000
11
13.3376697340
21
-20.2266114651
31
0.0000000000
11
13.5954820919
21
-20.2384379100
31
0.0000000000
11
13.8984082022
21
-20.2428370274
31
0.0000000000
0
SPLINE
5
324
100
AcDbEntity
8
0
100
AcDbSpline
62
9
6
CONTINUOUS
70
0
71
3
72
10
73
6
74
4
42
0.0000001000
43
0.0000001000
44
0.0000000001
12
0.0481810144
22
40.5950798001
32
0.0000000000
13
-0.0481810599
23
40.5950798001
33
0.0000000000
40
0.0000000000
40
0.0000000000
40
0.0000000000
40
0.0000000000
40
0.3332171638
40
0.6667812410
40
1.0000000000
40
1.0000000000
40
1.0000000000
40
1.0000000000
10
13.0985300461
20
-20.1885655078
30
0.0000000000
10
13.1038816264
20
-15.6795730558
30
0.0000000000
10
13.1110074843
20
-6.6568891540
30
0.0000000000
10
13.1110075034
20
6.8748149064
30
0.0000000000
10
13.1038816571
20
15.8975203932
30
0.0000000000
10
13.0985300461
20
20.4065344300
30
0.0000000000
11
13.0985300461
21
-20.1885655078
31
0.0000000000
11
13.1092241688
21
-6.6615828518
31
0.0000000000
11
13.1092241930
21
6.8794870192
31
0.0000000000
11
13.0985300461
21
20.4065344300
31
0.0000000000
0
SPLINE
5
325
100
AcDbEntity
8
0
100
AcDbSpline
62
9
6
CONTINUOUS
70
0
71
3
72
11
73
7
74
5
42
0.0000001000
43
0.0000001000
44
0.0000000001
12
0.1999126049
22
0.7789938362
32
0.0000000000
13
0.8042360000
23
0.0009501344
33
0.0000000000
40
0.0000000000
40
0.0000000000
40
0.0000000000
40
0.0000000000
40
0.0845721249
40
0.3023924036
40
0.6232973290
40
1.0000000000
40
1.0000000000
40
1.0000000000
40
1.0000000000
10
13.0985300461
20
20.4065344300
30
0.0000000000
10
13.1041657240
20
20.4284948180
30
0.0000000000
10
13.2162251728
20
20.4231560730
30
0.0000000000
10
13.3554909266
20
20.4537696679
30
0.0000000000
10
13.6141973175
20
20.4558422872
30
0.0000000000
10
13.7974222525
20
20.4606866439
30
0.0000000000
10
13.8984082022
20
20.4608059500
30
0.0000000000
11
13.0985300461
21
20.4065344300
31
0.0000000000
11
13.1633662317
21
20.4270878873
31
0.0000000000
11
13.3376697189
21
20.4445803877
31
0.0000000000
11
13.5954820820
21
20.4564068327
31
0.0000000000
11
13.8984082022
21
20.4608059500
31
0.0000000000
0
SPLINE
5
326
100
AcDbEntity
8
0
100
AcDbSpline
62
9
6
CONTINUOUS
70
0
71
3
72
17
73
13
74
11
42
0.0000001000
43
0.0000001000
44
0.0000000001
12
-0.0007744349
22
1.3981498230
32
0.0000000000
13
-0.5913682189
23
1.2669282367
33
0.0000000000
40
0.0000000000
40
0.0000000000
40
0.0000000000
40
0.0000000000
40
0.1135761898
40
0.2403428021
40
0.3742510448
40
0.5084824351
40
0.6358036238
40
0.7493284710
40
0.8435459074
40
0.9151956898
40
0.9636389167
40
1.0000000000
40
1.0000000000
40
1.0000000000
40
1.0000000000
10
13.8984082022
20
20.4608059540
30
0.0000000000
10
13.8983788831
20
20.5137381306
30
0.0000000000
10
13.8982679817
20
20.6257497487
30
0.0000000000
10
13.8979317736
20
20.8001697082
30
0.0000000000
10
13.8973603543
20
20.9842127648
30
0.0000000000
10
13.8965769244
20
21.1685236770
30
0.0000000000
10
13.8954217834
20
21.3432976631
30
0.0000000000
10
13.8944531151
20
21.4995356986
30
0.0000000000
10
13.8921627596
20
21.6294942250
30
0.0000000000
10
13.8927881668
20
21.7299715547
30
0.0000000000
10
13.8863835654
20
21.8015005569
30
0.0000000000
10
13.8935986446
20
21.8434627616
30
0.0000000000
10
13.8864310482
20
21.8588183893
30
0.0000000000
11
13.8984082022
21
20.4608059540
31
0.0000000000
11
13.8982506181
21
20.6196024298
31
0.0000000000
11
13.8979043683
21
20.7968408354
31
0.0000000000
11
13.8973251061
21
20.9840637539
31
0.0000000000
11
13.8964875478
21
21.1717375082
31
0.0000000000
11
13.8953919979
21
21.3497482618
31
0.0000000000
11
13.8940680847
21
21.5084675097
31
0.0000000000
11
13.8925726601
21
21.6401891336
31
0.0000000000
11
13.8909812254
21
21.7403536377
31
0.0000000000
11
13.8893761233
21
21.8080655155
31
0.0000000000
11
13.8864310482
21
21.8588183893
31
0.0000000000
0
SPLINE
5
327
100
AcDbEntity
8
0
100
AcDbSpline
62
9
6
CONTINUOUS
70
0
71
3
72
16
73
12
74
10
42
0.0000001000
43
0.0000001000
44
0.0000000001
12
-0.0007746984
22
0.6526634483
32
0.0000000000
13
-0.4614808284
23
0.4615253211
33
0.0000000000
40
0.0000000000
40
0.0000000000
40
0.0000000000
40
0.0000000000
40
0.1135415261
40
0.2402838530
40
0.3741808778
40
0.5084002892
40
0.6357020908
40
0.7492004543
40
0.8433930165
40
0.9150330426
40
1.0000000000
40
1.0000000000
40
1.0000000000
40
1.0000000000
10
13.0985300461
20
20.4065344300
30
0.0000000000
10
13.0985007260
20
20.4312358980
30
0.0000000000
10
13.0983909911
20
20.4835110986
30
0.0000000000
10
13.0980487444
20
20.5649131527
30
0.0000000000
10
13.0975009803
20
20.6508230370
30
0.0000000000
10
13.0966292404
20
20.7368137023
30
0.0000000000
10
13.0957754601
20
20.8184993720
30
0.0000000000
10
13.0938642230
20
20.8910394276
30
0.0000000000
10
13.0942304450
20
20.9527184585
30
0.0000000000
10
13.0872175579
20
21.0045547733
30
0.0000000000
10
13.0996230994
20
21.0458687657
30
0.0000000000
10
13.0865528921
20
21.0589402332
30
0.0000000000
11
13.0985300461
21
20.4065344300
31
0.0000000000
11
13.0983724490
21
20.4806387186
31
0.0000000000
11
13.0980261623
21
20.5633581362
31
0.0000000000
11
13.0974467722
21
20.6507459710
31
0.0000000000
11
13.0966090283
21
20.7383421307
31
0.0000000000
11
13.0955132861
21
20.8214201963
31
0.0000000000
11
13.0941892632
21
20.8954846482
31
0.0000000000
11
13.0926938628
21
20.9569425435
31
0.0000000000
11
13.0911025778
21
21.0036723168
31
0.0000000000
11
13.0865528921
21
21.0589402332
31
0.0000000000
0
SPLINE
5
328
100
AcDbEntity
8
0
100
AcDbSpline
62
9
6
CONTINUOUS
70
0
71
3
72
11
73
7
74
5
42
0.0000001000
43
0.0000001000
44
0.0000000001
12
0.0003802071
22
1.2482731391
32
0.0000000000
13
1.2482731391
23
0.0003802071
33
0.0000000000
40
0.0000000000
40
0.0000000000
40
0.0000000000
40
0.0000000000
40
0.2499897029
40
0.5000000000
40
0.7500102971
40
1.0000000000
40
1.0000000000
40
1.0000000000
40
1.0000000000
10
13.0865528921
20
21.0589402332
30
0.0000000000
10
13.0865845747
20
21.1629587102
30
0.0000000000
10
13.1282630435
20
21.3732659713
30
0.0000000000
10
13.3062841547
20
21.6390871267
30
0.0000000000
10
13.5721053101
20
21.8171082379
30
0.0000000000
10
13.7824125712
20
21.8587867067
30
0.0000000000
10
13.8864310482
20
21.8588183893
30
0.0000000000
11
13.0865528921
21
21.0589402332
31
0.0000000000
11
13.1475099018
21
21.3649840931
31
0.0000000000
11
13.3209178972
21
21.6244533842
31
0.0000000000
11
13.5803871883
21
21.7978613796
31
0.0000000000
11
13.8864310482
21
21.8588183893
31
0.0000000000
0
SPLINE
5
329
100
AcDbEntity
8
0
100
AcDbSpline
62
9
6
CONTINUOUS
70
0
71
3
72
8
73
4
74
2
42
0.0000001000
43
0.0000001000
44
0.0000000001
12
-0.3763494180
22
0.0001048266
32
0.0000000000
13
-0.3759265954
23
0.0312132618
33
0.0000000000
40
0.0000000000
40
0.0000000000
40
0.0000000000
40
0.0000000000
40
1.0000000000
40
1.0000000000
40
1.0000000000
40
1.0000000000
10
21.9863868203
20
-17.4544887630
30
0.0000000000
10
21.8609370143
20
-17.4544538208
30
0.0000000000
10
21.7353044642
20
-17.4492127075
30
0.0000000000
10
21.6099955990
20
-17.4388082869
30
0.0000000000
11
21.9863868203
21
-17.4544887630
31
0.0000000000
11
21.6099955990
21
-17.4388082869
31
0.0000000000
0
SPLINE
5
32A
100
AcDbEntity
8
0
100
AcDbSpline
62
9
6
CONTINUOUS
70
0
71
3
72
11
73
7
74
5
42
0.0000001000
43
0.0000001000
44
0.0000000001
12
-3.7038167496
22
0.3075286594
32
0.0000000000
13
-2.3176493315
23
2.9061609747
33
0.0000000000
40
0.0000000000
40
0.0000000000
40
0.0000000000
40
0.0000000000
40
0.1993880596
40
0.5005464641
40
0.8004452367
40
1.0000000000
40
1.0000000000
40
1.0000000000
40
1.0000000000
10
21.6099955990
20
-17.4388082869
30
0.0000000000
10
21.3638299874
20
-17.4183691060
30
0.0000000000
10
20.7489884050
20
-17.3170359266
30
0.0000000000
10
19.8170510351
20
-16.9574493367
30
0.0000000000
10
18.9993605481
20
-16.3825830251
30
0.0000000000
10
18.5742297172
20
-15.9300654922
30
0.0000000000
10
18.4200637293
20
-15.7367527370
30
0.0000000000
11
21.6099955990
21
-17.4388082869
31
0.0000000000
11
20.8790855368
21
-17.3180378383
31
0.0000000000
11
19.8371536600
21
-16.9163228892
31
0.0000000000
11
18.9275140194
21
-16.2766799886
31
0.0000000000
11
18.4200637293
21
-15.7367527370
31
0.0000000000
0
SPLINE
5
32B
100
AcDbEntity
8
0
100
AcDbSpline
62
9
6
CONTINUOUS
70
0
71
3
72
8
73
4
74
2
42
0.0000001000
43
0.0000001000
44
0.0000000001
12
-0.1151833378
22
0.1444313929
32
0.0000000000
13
-0.1092445171
23
0.1489725008
33
0.0000000000
40
0.0000000000
40
0.0000000000
40
0.0000000000
40
0.0000000000
40
1.0000000000
40
1.0000000000
40
1.0000000000
40
1.0000000000
10
18.4200637293
20
-15.7367527370
30
0.0000000000
10
18.3816692833
20
-15.6886089394
30
0.0000000000
10
18.3442482059
20
-15.6396891539
30
0.0000000000
10
18.3078333669
20
-15.5900316536
30
0.0000000000
11
18.4200637293
21
-15.7367527370
31
0.0000000000
11
18.3078333669
21
-15.5900316536
31
0.0000000000
0
SPLINE
5
32C
100
AcDbEntity
8
0
100
AcDbSpline
62
9
6
CONTINUOUS
70
0
71
3
72
8
73
4
74
2
42
0.0000001000
43
0.0000001000
44
0.0000000001
12
-0.0282060414
22
0.0384634821
32
0.0000000000
13
-0.0278018708
23
0.0387565756
33
0.0000000000
40
0.0000000000
40
0.0000000000
40
0.0000000000
40
0.0000000000
40
1.0000000000
40
1.0000000000
40
1.0000000000
40
1.0000000000
10
18.3078333669
20
-15.5900316536
30
0.0000000000
10
18.2984313530
20
-15.5772104929
30
0.0000000000
10
18.2890964181
20
-15.5643401539
30
0.0000000000
10
18.2798291279
20
-15.5514212954
30
0.0000000000
11
18.3078333669
21
-15.5900316536
31
0.0000000000
11
18.2798291279
21
-15.5514212954
31
0.0000000000
0
SPLINE
5
32D
100
AcDbEntity
8
0
100
AcDbSpline
62
9
6
CONTINUOUS
70
0
71
3
72
8
73
4
74
2
42
0.0000001000
43
0.0000001000
44
0.0000000001
12
-0.0802330270
22
0.1118470550
32
0.0000000000
13
-0.0768120298
23
0.1142240791
33
0.0000000000
40
0.0000000000
40
0.0000000000
40
0.0000000000
40
0.0000000000
40
1.0000000000
40
1.0000000000
40
1.0000000000
40
1.0000000000
10
18.2798291279
20
-15.5514212954
30
0.0000000000
10
18.2530847855
20
-15.5141389437
30
0.0000000000
10
18.2269038106
20
-15.4764525049
30
0.0000000000
10
18.2012998007
20
-15.4383778119
30
0.0000000000
11
18.2798291279
21
-15.5514212954
31
0.0000000000
11
18.2012998007
21
-15.4383778119
31
0.0000000000
0
SPLINE
5
32E
100
AcDbEntity
8
0
100
AcDbSpline
62
9
6
CONTINUOUS
70
0
71
3
72
8
73
4
74
2
42
0.0000001000
43
0.0000001000
44
0.0000000001
12
-0.2072612327
22
0.3082098407
32
0.0000000000
13
-0.1814964265
23
0.3240682732
33
0.0000000000
40
0.0000000000
40
0.0000000000
40
0.0000000000
40
0.0000000000
40
1.0000000000
40
1.0000000000
40
1.0000000000
40
1.0000000000
10
18.2012998007
20
-15.4383778119
30
0.0000000000
10
18.1322127231
20
-15.3356411983
30
0.0000000000
10
18.0673263986
20
-15.2300777924
30
0.0000000000
10
18.0068275898
20
-15.1220550347
30
0.0000000000
11
18.2012998007
21
-15.4383778119
31
0.0000000000
11
18.0068275898
21
-15.1220550347
31
0.0000000000
0
SPLINE
5
32F
100
AcDbEntity
8
0
100
AcDbSpline
62
9
6
CONTINUOUS
70
0
71
3
72
8
73
4
74
2
42
0.0000001000
43
0.0000001000
44
0.0000000001
12
-0.0247551413
22
0.0442011783
32
0.0000000000
13
-0.0242639807
23
0.0444728965
33
0.0000000000
40
0.0000000000
40
0.0000000000
40
0.0000000000
40
0.0000000000
40
1.0000000000
40
1.0000000000
40
1.0000000000
40
1.0000000000
10
18.0068275898
20
-15.1220550347
30
0.0000000000
10
17.9985758760
20
-15.1073213086
30
0.0000000000
10
17.9904057854
20
-15.0925418300
30
0.0000000000
10
17.9823177918
20
-15.0777175311
30
0.0000000000
11
18.0068275898
21
-15.1220550347
31
0.0000000000
11
17.9823177918
21
-15.0777175311
31
0.0000000000
0
SPLINE
5
330
100
AcDbEntity
8
0
100
AcDbSpline
62
9
6
CONTINUOUS
70
0
71
3
72
8
73
4
74
2
42
0.0000001000
43
0.0000001000
44
0.0000000001
12
-0.1551033248
22
0.2842853442
32
0.0000000000
13
-0.1346041510
23
0.2945433685
33
0.0000000000
40
0.0000000000
40
0.0000000000
40
0.0000000000
40
0.0000000000
40
1.0000000000
40
1.0000000000
40
1.0000000000
40
1.0000000000
10
17.9823177918
20
-15.0777175311
30
0.0000000000
10
17.9306166835
20
-14.9829557497
30
0.0000000000
10
17.8822702130
20
-14.8863625316
30
0.0000000000
10
17.8374021626
20
-14.7881814088
30
0.0000000000
11
17.9823177918
21
-15.0777175311
31
0.0000000000
11
17.8374021626
21
-14.7881814088
31
0.0000000000
0
SPLINE
5
331
100
AcDbEntity
8
0
100
AcDbSpline
62
9
6
CONTINUOUS
70
0
71
3
72
8
73
4
74
2
42
0.0000001000
43
0.0000001000
44
0.0000000001
12
0.1393862250
22
0.3443506682
32
0.0000000000
13
0.1669655163
23
0.3318747107
33
0.0000000000
40
0.0000000000
40
0.0000000000
40
0.0000000000
40
0.0000000000
40
1.0000000000
40
1.0000000000
40
1.0000000000
40
1.0000000000
10
17.7580690904
20
-11.1797579221
30
0.0000000000
10
17.8045311654
20
-11.0649743661
30
0.0000000000
10
17.8556901465
20
-10.9520897447
30
0.0000000000
10
17.9113453186
20
-10.8414648411
30
0.0000000000
11
17.7580690904
21
-11.1797579221
31
0.0000000000
11
17.9113453186
21
-10.8414648411
31
0.0000000000
0
SPLINE
5
332
100
AcDbEntity
8
0
100
AcDbSpline
62
9
6
CONTINUOUS
70
0
71
3
72
8
73
4
74
2
42
0.0000001000
43
0.0000001000
44
0.0000000001
12
0.1684566038
22
0.3348385216
32
0.0000000000
13
0.1952993191
23
0.3199253614
33
0.0000000000
40
0.0000000000
40
0.0000000000
40
0.0000000000
40
0.0000000000
40
1.0000000000
40
1.0000000000
40
1.0000000000
40
1.0000000000
10
17.9113453186
20
-10.8414648411
30
0.0000000000
10
17.9674975198
20
-10.7298520006
30
0.0000000000
10
18.0282265773
20
-10.6205394190
30
0.0000000000
10
18.0933263503
20
-10.5138976319
30
0.0000000000
11
17.9113453186
21
-10.8414648411
31
0.0000000000
11
18.0933263503
21
-10.5138976319
31
0.0000000000
0
SPLINE
5
333
100
AcDbEntity
8
0
100
AcDbSpline
62
9
6
CONTINUOUS
70
0
71
3
72
8
73
4
74
2
42
0.0000001000
43
0.0000001000
44
0.0000000001
12
0.0825963366
22
0.1353034048
32
0.0000000000
13
0.0872401076
23
0.1323530820
33
0.0000000000
40
0.0000000000
40
0.0000000000
40
0.0000000000
40
0.0000000000
40
1.0000000000
40
1.0000000000
40
1.0000000000
40
1.0000000000
10
18.0933263503
20
-10.5138976319
30
0.0000000000
10
18.1208584625
20
-10.4687964969
30
0.0000000000
10
18.1491723333
20
-10.4241730679
30
0.0000000000
10
18.1782523692
20
-10.3800553738
30
0.0000000000
11
18.0933263503
21
-10.5138976319
31
0.0000000000
11
18.1782523692
21
-10.3800553738
31
0.0000000000
0
SPLINE
5
334
100
AcDbEntity
8
0
100
AcDbSpline
62
9
6
CONTINUOUS
70
0
71
3
72
8
73
4
74
2
42
0.0000001000
43
0.0000001000
44
0.0000000001
12
0.0926985144
22
0.1406341007
32
0.0000000000
13
0.0978326241
23
0.1371072208
33
0.0000000000
40
0.0000000000
40
0.0000000000
40
0.0000000000
40
0.0000000000
40
1.0000000000
40
1.0000000000
40
1.0000000000
40
1.0000000000
10
18.1782523692
20
-10.3800553738
30
0.0000000000
10
18.2091518739
20
-10.3331773403
30
0.0000000000
10
18.2409164174
20
-10.2868703068
30
0.0000000000
10
18.2735272921
20
-10.2411678999
30
0.0000000000
11
18.1782523692
21
-10.3800553738
31
0.0000000000
11
18.2735272921
21
-10.2411678999
31
0.0000000000
0
SPLINE
5
335
100
AcDbEntity
8
0
100
AcDbSpline
62
9
6
CONTINUOUS
70
0
71
3
72
8
73
4
74
2
42
0.0000001000
43
0.0000001000
44
0.0000000001
12
0.0258901955
22
0.0362837324
32
0.0000000000
13
0.0262447825
23
0.0360277997
33
0.0000000000
40
0.0000000000
40
0.0000000000
40
0.0000000000
40
0.0000000000
40
1.0000000000
40
1.0000000000
40
1.0000000000
40
1.0000000000
10
18.2735272921
20
-10.2411678999
30
0.0000000000
10
18.2821573573
20
-10.2290733224
30
0.0000000000
10
18.2908466936
20
-10.2170210888
30
0.0000000000
10
18.2995949545
20
-10.2050118222
30
0.0000000000
11
18.2735272921
21
-10.2411678999
31
0.0000000000
11
18.2995949545
21
-10.2050118222
31
0.0000000000
0
SPLINE
5
336
100
AcDbEntity
8
0
100
AcDbSpline
62
9
6
CONTINUOUS
70
0
71
3
72
11
73
7
74
5
42
0.0000001000
43
0.0000001000
44
0.0000000001
12
2.3379488129
22
3.2094436805
32
0.0000000000
13
3.9577566664
23
0.2810142963
33
0.0000000000
40
0.0000000000
40
0.0000000000
40
0.0000000000
40
0.0000000000
40
0.2796564166
40
0.5613593118
40
0.8326216692
40
1.0000000000
40
1.0000000000
40
1.0000000000
40
1.0000000000
10
18.2995949545
20
-10.2050118222
30
0.0000000000
10
18.5175357502
20
-9.9058313159
30
0.0000000000
10
19.0284205511
20
-9.3588095021
30
0.0000000000
10
19.9603125925
20
-8.7547549464
30
0.0000000000
10
20.8667691539
20
-8.4395735138
30
0.0000000000
10
21.4432325930
20
-8.3564520576
30
0.0000000000
10
21.6640468278
20
-8.3407734897
30
0.0000000000
11
18.2995949545
21
-10.2050118222
31
0.0000000000
11
19.0556952911
21
-9.3954904257
31
0.0000000000
11
19.9919661173
21
-8.7885032739
31
0.0000000000
11
21.0068602441
21
-8.4357301058
31
0.0000000000
11
21.6640468278
21
-8.3407734897
31
0.0000000000
0
SPLINE
5
337
100
AcDbEntity
8
0
100
AcDbSpline
62
9
6
CONTINUOUS
70
0
71
3
72
8
73
4
74
2
42
0.0000001000
43
0.0000001000
44
0.0000000001
12
0.3220535865
22
0.0228669091
32
0.0000000000
13
0.3223137028
23
0.0000535561
33
0.0000000000
40
0.0000000000
40
0.0000000000
40
0.0000000000
40
0.0000000000
40
1.0000000000
40
1.0000000000
40
1.0000000000
40
1.0000000000
10
21.6640468278
20
-8.3407734897
30
0.0000000000
10
21.7713980233
20
-8.3331511866
30
0.0000000000
10
21.8789489193
20
-8.3293197983
30
0.0000000000
10
21.9863868203
20
-8.3293019462
30
0.0000000000
11
21.6640468278
21
-8.3407734897
31
0.0000000000
11
21.9863868203
21
-8.3293019462
31
0.0000000000
0
SPLINE
5
338
100
AcDbEntity
8
0
100
AcDbSpline
62
9
6
CONTINUOUS
70
0
71
3
72
11
73
7
74
5
42
0.0000001000
43
0.0000001000
44
0.0000000001
12
-0.0003802071
22
-1.2482731391
32
0.0000000000
13
-1.2482731391
23
-0.0003802071
33
0.0000000000
40
0.0000000000
40
0.0000000000
40
0.0000000000
40
0.0000000000
40
0.2499897029
40
0.5000000000
40
0.7500102971
40
1.0000000000
40
1.0000000000
40
1.0000000000
40
1.0000000000
10
35.0862207485
20
-20.8409713109
30
0.0000000000
10
35.0861890658
20
-20.9449897880
30
0.0000000000
10
35.0445105971
20
-21.1552970490
30
0.0000000000
10
34.8664894859
20
-21.4211182045
30
0.0000000000
10
34.6006683304
20
-21.5991393157
30
0.0000000000
10
34.3903610694
20
-21.6408177844
30
0.0000000000
10
34.2863425923
20
-21.6408494671
30
0.0000000000
11
35.0862207485
21
-20.8409713109
31
0.0000000000
11
35.0252637388
21
-21.1470151708
31
0.0000000000
11
34.8518557434
21
-21.4064844620
31
0.0000000000
11
34.5923864522
21
-21.5798924574
31
0.0000000000
11
34.2863425923
21
-21.6408494671
31
0.0000000000
0
SPLINE
5
339
100
AcDbEntity
8
0
100
AcDbSpline
62
9
6
CONTINUOUS
70
0
71
3
72
11
73
7
74
5
42
0.0000001000
43
0.0000001000
44
0.0000000001
12
-0.1999147830
22
-0.7789932714
32
0.0000000000
13
-0.8042359944
23
-0.0009501327
33
0.0000000000
40
0.0000000000
40
0.0000000000
40
0.0000000000
40
0.0000000000
40
0.0845721753
40
0.3023924673
40
0.6232973710
40
1.0000000000
40
1.0000000000
40
1.0000000000
40
1.0000000000
10
35.0742435945
20
-20.1885655078
30
0.0000000000
10
35.0686078518
20
-20.2105258930
30
0.0000000000
10
34.9565485005
20
-20.2051871373
30
0.0000000000
10
34.8172826290
20
-20.2358007267
30
0.0000000000
10
34.5585763086
20
-20.2378733430
30
0.0000000000
10
34.3753513761
20
-20.2427176977
30
0.0000000000
10
34.2743654383
20
-20.2428370035
30
0.0000000000
11
35.0742435945
21
-20.1885655078
31
0.0000000000
11
35.0094073644
21
-20.2091189571
31
0.0000000000
11
34.8351038668
21
-20.2266114497
31
0.0000000000
11
34.5772915227
21
-20.2384378888
31
0.0000000000
11
34.2743654383
21
-20.2428370035
31
0.0000000000
0
SPLINE
5
33A
100
AcDbEntity
8
0
100
AcDbSpline
62
9
6
CONTINUOUS
70
0
71
3
72
11
73
7
74
5
42
0.0000001000
43
0.0000001000
44
0.0000000001
12
-0.0139588767
22
0.7999470618
32
0.0000000000
13
0.7999469877
23
0.0139631266
33
0.0000000000
40
0.0000000000
40
0.0000000000
40
0.0000000000
40
0.0000000000
40
0.3825591995
40
0.7068733429
40
0.9236228661
40
1.0000000000
40
1.0000000000
40
1.0000000000
40
1.0000000000
10
-17.8938720755
20
21.0589402332
30
0.0000000000
10
-17.8956521078
20
21.1609492690
30
0.0000000000
10
-17.8930977837
20
21.3433664354
30
0.0000000000
10
-17.9132378069
20
21.6111024071
30
0.0000000000
10
-17.8761008256
20
21.7334530933
30
0.0000000000
10
-17.9142379616
20
21.8584629014
30
0.0000000000
10
-17.8938720755
20
21.8588183893
30
0.0000000000
11
-17.8938720755
21
21.0589402332
31
0.0000000000
11
-17.8981500823
21
21.3649840305
31
0.0000000000
11
-17.8996522886
21
21.6244533232
31
0.0000000000
11
-17.8981500835
21
21.7978613566
31
0.0000000000
11
-17.8938720755
21
21.8588183893
31
0.0000000000
0
SPLINE
5
33B
100
AcDbEntity
8
0
100
AcDbSpline
62
9
6
CONTINUOUS
70
0
71
3
72
11
73
7
74
5
42
0.0000001000
43
0.0000001000
44
0.0000000001
12
-0.0139588749
22
-0.7999470618
32
0.0000000000
13
0.7999469876
23
-0.0139631266
33
0.0000000000
40
0.0000000000
40
0.0000000000
40
0.0000000000
40
0.0000000000
40
0.3825592777
40
0.7068734192
40
0.9236228949
40
1.0000000000
40
1.0000000000
40
1.0000000000
40
1.0000000000
10
-17.8938720755
20
-20.8409713109
30
0.0000000000
10
-17.8956521079
20
-20.9429803677
30
0.0000000000
10
-17.8930977821
20
-21.1253975524
30
0.0000000000
10
-17.9132378065
20
-21.3931335343
30
0.0000000000
10
-17.8761008300
20
-21.5154842050
30
0.0000000000
10
-17.9142379539
20
-21.6404939793
30
0.0000000000
10
-17.8938720755
20
-21.6408494671
30
0.0000000000
11
-17.8938720755
21
-20.8409713109
31
0.0000000000
11
-17.8981500824
21
-21.1470151708
31
0.0000000000
11
-17.8996522879
21
-21.4064844620
31
0.0000000000
11
-17.8981500824
21
-21.5798924574
31
0.0000000000
11
-17.8938720755
21
-21.6408494671
31
0.0000000000
0
SPLINE
5
33C
100
AcDbEntity
8
ASSI
100
AcDbSpline
62
9
6
CONTINUOUS
70
0
71
3
72
18
73
14
74
12
42
0.0000001000
43
0.0000001000
44
0.0000000001
12
0.0000000000
22
0.0000000000
32
5.9454658168
13
-0.1495303479
23
-3.9626550931
33
-3.9591556927
40
0.0000000000
40
0.0000000000
40
0.0000000000
40
0.0000000000
40
0.0955115734
40
0.1910231467
40
0.2865347201
40
0.3820462934
40
0.4775578668
40
0.5730694401
40
0.6685810135
40
0.7640925868
40
0.8596041602
40
0.9551157335
40
1.0000000000
40
1.0000000000
40
1.0000000000
40
1.0000000000
10
-19.6604883768
20
15.4962534611
30
-0.0000000000
10
-19.6604883768
20
15.4962534611
30
0.1892869315
10
-19.6626868035
20
15.4535154614
30
0.5410876704
10
-19.6715722658
20
15.2794742365
30
1.0411198326
10
-19.6860289867
20
14.9918860579
30
1.5003595213
10
-19.7047642662
20
14.6105391210
30
1.8817978725
10
-19.7266487718
20
14.1517613977
30
2.1700885128
10
-19.7502179585
20
13.6399465629
30
2.3483461683
10
-19.7741005359
20
13.1003834874
30
2.4076685033
10
-19.7969672776
20
12.5614227871
30
2.3445030117
10
-19.8176950643
20
12.0514519766
30
2.1628644032
10
-19.8323354842
20
11.6760889053
30
1.9234893156
10
-19.8397603081
20
11.4807888248
30
1.7479295840
10
-19.8419974947
20
11.4215018690
30
1.6886949843
11
-19.6604883768
21
15.4962534611
31
-0.0000000000
11
-19.6636181072
21
15.4351930905
31
0.5364761794
11
-19.6725008089
21
15.2605497442
31
1.0343210870
11
-19.6867420798
21
14.9762595982
31
1.4873926317
11
-19.7052891372
21
14.5976339899
31
1.8662732540
11
-19.7269295520
21
14.1429218791
31
2.1517496820
11
-19.7502701903
21
13.6353218561
31
2.3285236149
11
-19.7739312299
21
13.1004838832
31
2.3872538655
11
-19.7966107851
21
12.5662544354
31
2.3247574922
11
-19.8172041585
21
12.0604606960
31
2.1446797412
11
-19.8348812485
21
11.6085339128
31
1.8567987048
11
-19.8419974947
21
11.4215018690
31
1.6886949843
0
SPLINE
5
33D
100
AcDbEntity
8
ASSI
100
AcDbSpline
62
9
6
CONTINUOUS
70
0
71
3
72
11
73
7
74
5
42
0.0000001000
43
0.0000001000
44
0.0000000001
12
-0.0504159552
22
-1.3360568232
32
-1.3348769583
13
0.0000000000
23
0.0000000000
33
-1.9781141662
40
0.0000000000
40
0.0000000000
40
0.0000000000
40
0.0000000000
40
0.1501572028
40
0.4334381352
40
0.7167190676
40
1.0000000000
40
1.0000000000
40
1.0000000000
40
1.0000000000
10
-19.8419974947
20
11.4215018690
30
1.6886949843
10
-19.8445209343
20
11.3546290172
30
1.6218811875
10
-19.8513036500
20
11.1731650616
30
1.4176029846
10
-19.8600302796
20
10.9338391332
30
1.0307537734
10
-19.8661161847
20
10.7633345618
30
0.5344359971
10
-19.8675861323
20
10.7217154611
30
0.1867873418
10
-19.8675861323
20
10.7217154611
30
-0.0000000000
11
-19.8419974947
21
11.4215018690
31
1.6886949843
11
-19.8490397905
21
11.2333071491
31
1.4767829561
11
-19.8593200108
21
10.9527181107
31
1.0244846043
11
-19.8654693541
21
10.7813472152
31
0.5302434626
11
-19.8675861323
21
10.7217154611
31
-0.0000000000
0
SPLINE
5
33E
100
AcDbEntity
8
ASSI
100
AcDbSpline
62
9
6
CONTINUOUS
70
0
71
3
72
21
73
17
74
15
42
0.0000001000
43
0.0000001000
44
0.0000000001
12
0.0000000000
22
0.0000000000
32
-7.9521618596
13
-0.0000000000
23
0.0000000000
33
7.8428483182
40
0.0000000000
40
0.0000000000
40
0.0000000000
40
0.0000000000
40
0.0714285714
40
0.1428571429
40
0.2142857143
40
0.2857142857
40
0.3571428571
40
0.4285714286
40
0.5000000000
40
0.5714285714
40
0.6428571429
40
0.7142857143
40
0.7857142857
40
0.8571428571
40
0.9285714286
40
1.0000000000
40
1.0000000000
40
1.0000000000
40
1.0000000000
10
-19.8675861323
20
10.7217154611
30
-0.0000000000
10
-19.8675861323
20
10.7217154611
30
-0.1893371871
10
-19.8660759961
20
10.7644750338
30
-0.5412166434
10
-19.8598597578
20
10.9385886650
30
-1.0413278557
10
-19.8493641236
20
11.2262514473
30
-1.5005758471
10
-19.8350137160
20
11.6076689129
30
-1.8819891200
10
-19.8170982922
20
12.0664546578
30
-2.1702015774
10
-19.7962692687
20
12.5782307977
30
-2.3483926166
10
-19.7733438071
20
13.1178302177
30
-2.4076692325
10
-19.7494565705
20
13.6567837092
30
-2.3444485012
10
-19.7259437209
20
14.1667708174
30
-2.1627433694
10
-19.7041756682
20
14.6226646713
30
-1.8719316769
10
-19.6855986269
20
15.0005194911
30
-1.4892400447
10
-19.6713305691
20
15.2842271124
30
-1.0305367551
10
-19.6626280011
20
15.4546568532
30
-0.5342998255
10
-19.6604883768
20
15.4962534611
30
-0.1867344838
10
-19.6604883768
20
15.4962534611
30
-0.0000000000
11
-19.8675861323
21
10.7217154611
31
-0.0000000000
11
-19.8654174904
21
10.7828040792
31
-0.5365986480
11
-19.8591465251
21
10.9575135235
31
-1.0345173189
11
-19.8487216614
21
11.2418772278
31
-1.4876033940
11
-19.8344195467
21
11.6205636261
31
-1.8664556508
11
-19.8166126923
21
12.0752863903
31
-2.1518646743
11
-19.7959198624
21
12.5828680110
31
-2.3285735460
11
-19.7731835113
21
13.1177225629
31
-2.3872530079
11
-19.7495189683
21
13.6519559787
31
-2.3247011011
11
-19.7262345204
21
14.1577552750
31
-2.1445589426
11
-19.7047075034
21
14.6096581656
31
-1.8566183536
11
-19.6863167908
21
14.9848282913
31
-1.4765714351
11
-19.6722581508
21
15.2653474657
31
-1.0242811484
11
-19.6635435230
21
15.4366510484
31
-0.5301146450
11
-19.6604883768
21
15.4962534611
31
-0.0000000000
0
SPLINE
5
33F
100
AcDbEntity
8
ASSI
100
AcDbSpline
62
9
6
CONTINUOUS
70
0
71
3
72
10
73
6
74
4
42
0.0000001000
43
0.0000001000
44
0.0000000001
12
0.0000000000
22
0.0000000000
32
-1.3266084101
13
0.0268874861
23
0.7125431385
33
-1.0266881350
40
0.0000000000
40
0.0000000000
40
0.0000000000
40
0.0000000000
40
0.3700386299
40
0.7400772599
40
1.0000000000
40
1.0000000000
40
1.0000000000
40
1.0000000000
10
-19.8556326569
20
11.0541894611
30
-0.0000000000
10
-19.8556326569
20
11.0541894611
30
-0.1636321195
10
-19.8542805318
20
11.0912971018
30
-0.4676115485
10
-19.8492867242
20
11.2270991151
30
-0.8560930677
10
-19.8443292083
20
11.3597049528
30
-1.0832541703
10
-19.8419996519
20
11.4214403412
30
-1.1722073681
11
-19.8556326569
21
11.0541894611
31
-0.0000000000
11
-19.8536946122
21
11.1071461871
31
-0.4634932758
11
-19.8481117532
21
11.2582890952
31
-0.8928096968
11
-19.8419996519
21
11.4214403412
31
-1.1722073681
0
SPLINE
5
340
100
AcDbEntity
8
ASSI
100
AcDbSpline
62
9
6
CONTINUOUS
70
0
71
3
72
19
73
15
74
13
42
0.0000001000
43
0.0000001000
44
0.0000000001
12
0.1124042330
22
2.9788156758
32
-4.2921116567
13
0.0000000000
23
0.0000000000
33
5.4467413849
40
0.0000000000
40
0.0000000000
40
0.0000000000
40
0.0000000000
40
0.0263401064
40
0.1148546421
40
0.2033691779
40
0.2918837137
40
0.3803982495
40
0.4689127853
40
0.5574273211
40
0.6459418569
40
0.7344563926
40
0.8229709284
40
0.9114854642
40
1.0000000000
40
1.0000000000
40
1.0000000000
40
1.0000000000
10
-19.8419996519
20
11.4214403412
30
-1.1722073681
10
-19.8410127388
20
11.4475944484
30
-1.2098922606
10
-19.8364870338
20
11.5671335616
30
-1.3704793092
10
-19.8268192721
20
11.8186967248
30
-1.6214161181
10
-19.8111466426
20
12.2138841725
30
-1.8690332639
10
-19.7930477896
20
12.6544603982
30
-2.0218337549
10
-19.7732667320
20
13.1186165942
30
-2.0723186445
10
-19.7527836536
20
13.5820785350
30
-2.0175294454
10
-19.7327420602
20
14.0203496384
30
-1.8610421810
10
-19.7142717306
20
14.4121652553
30
-1.6109416717
10
-19.6985512499
20
14.7372489866
30
-1.2816187540
10
-19.6865105361
20
14.9813436258
30
-0.8868627752
10
-19.6791798421
20
15.1279831883
30
-0.4598321855
10
-19.6773787912
20
15.1637794611
30
-0.1607052617
10
-19.6773787912
20
15.1637794611
30
-0.0000000000
11
-19.8419996519
21
11.4214403412
31
-1.1722073681
11
-19.8388878039
21
11.5036084140
31
-1.2825561350
11
-19.8263110687
21
11.8298160405
31
-1.6080766909
11
-19.8107422720
21
12.2214489688
31
-1.8532304881
11
-19.7927674222
21
12.6583903932
31
-2.0047811546
11
-19.7731497285
21
13.1185008850
31
-2.0547729631
11
-19.7528572344
21
13.5778800621
31
-2.0005797678
11
-19.7330039375
21
14.0126070573
31
-1.8454399735
11
-19.7147300388
21
14.4010432744
31
-1.5977379369
11
-19.6991645444
21
14.7237508046
31
-1.2707132438
11
-19.6872955394
21
14.9651011130
31
-0.8814836734
11
-19.6799513617
21
15.1124923294
31
-0.4562222195
11
-19.6773787912
21
15.1637794611
31
-0.0000000000
0
SPLINE
5
341
100
AcDbEntity
8
ASSI
100
AcDbSpline
62
9
6
CONTINUOUS
70
0
71
3
72
18
73
14
74
12
42
0.0000001000
43
0.0000001000
44
0.0000000001
12
0.0000000000
22
0.0000000000
32
5.7398097809
13
-0.1332408627
23
-3.5310144071
33
-4.0816183193
40
0.0000000000
40
0.0000000000
40
0.0000000000
40
0.0000000000
40
0.0926583259
40
0.1853166517
40
0.2779749776
40
0.3706333034
40
0.4632916293
40
0.5559499551
40
0.6486082810
40
0.7412666068
40
0.8339249327
40
0.9265832585
40
1.0000000000
40
1.0000000000
40
1.0000000000
40
1.0000000000
10
-19.6684364011
20
15.3407094611
30
-0.0000000000
10
-19.6684364011
20
15.3407094611
30
0.1772803883
10
-19.6704781761
20
15.3006071572
30
0.5067032436
10
-19.6787251128
20
15.1374692198
30
0.9745429693
10
-19.6921315387
20
14.8683540308
30
1.4036449861
10
-19.7095142571
20
14.5117936841
30
1.7599058014
10
-19.7298569009
20
14.0827730293
30
2.0291978364
10
-19.7518066479
20
13.6042740407
30
2.1955723962
10
-19.7740966993
20
13.0999901894
30
2.2507802346
10
-19.7954951880
20
12.5963325167
30
2.1915504281
10
-19.8149439191
20
12.1198894996
30
2.0216882175
10
-19.8305199365
20
11.7234233443
30
1.7687687026
10
-19.8387382471
20
11.5078729574
30
1.5603755621
10
-19.8419989504
20
11.4214611000
30
1.4604891898
11
-19.6684364011
21
15.3407094611
31
-0.0000000000
11
-19.6713422218
21
15.2834430770
31
0.5023208174
11
-19.6795850276
21
15.1198063446
31
0.9680866845
11
-19.6927942541
21
14.8537798378
31
1.3915047858
11
-19.7100075780
21
14.4997169661
31
1.7454110047
11
-19.7301247515
21
14.0745266403
31
2.0120449239
11
-19.7518633653
21
13.5999765636
31
2.1770446093
11
-19.7739481055
21
13.1000945525
31
2.2317072938
11
-19.7951702284
21
12.6008682926
31
2.1731116941
11
-19.8144915273
21
12.1283048853
31
2.0047104642
11
-19.8311243409
21
11.7060578582
31
1.7356247931
11
-19.8419989504
21
11.4214611000
31
1.4604891898
0
SPLINE
5
342
100
AcDbEntity
8
ASSI
100
AcDbSpline
62
9
6
CONTINUOUS
70
0
71
3
72
11
73
7
74
5
42
0.0000001000
43
0.0000001000
44
0.0000000001
12
-0.0396013911
22
-1.0494759621
32
-1.2131245639
13
-0.0000000000
23
-0.0000000000
33
-1.6799161928
40
0.0000000000
40
0.0000000000
40
0.0000000000
40
0.0000000000
40
0.0647392737
40
0.3764928492
40
0.6882464246
40
1.0000000000
40
1.0000000000
40
1.0000000000
40
1.0000000000
10
-19.8419989504
20
11.4214611000
30
1.4604891898
10
-19.8428535389
20
11.3988136628
30
1.4343102554
10
-19.8476746729
20
11.2706527634
30
1.2789653168
10
-19.8548792365
20
11.0754759904
30
0.9634009350
10
-19.8606458699
20
10.9161485116
30
0.4995000537
10
-19.8620397974
20
10.8772594611
30
0.1745732932
10
-19.8620397974
20
10.8772594611
30
-0.0000000000
11
-19.8419989504
21
11.4214611000
31
1.4604891898
11
-19.8444855408
21
11.3553707723
31
1.3803751323
11
-19.8542086238
21
11.0931258225
31
0.9575543978
11
-19.8600332462
21
10.9329808288
31
0.4955851771
11
-19.8620397974
21
10.8772594611
31
-0.0000000000
0
SPLINE
5
343
100
AcDbEntity
8
ASSI
100
AcDbSpline
62
9
6
CONTINUOUS
70
0
71
3
72
19
73
15
74
13
42
0.0000001000
43
0.0000001000
44
0.0000000001
12
0.0000000000
22
0.0000000000
32
5.5294798088
13
-0.1115830608
23
-2.9570554866
33
-4.2622095397
40
0.0000000000
40
0.0000000000
40
0.0000000000
40
0.0000000000
40
0.0887579693
40
0.1775159386
40
0.2662739079
40
0.3550318772
40
0.4437898465
40
0.5325478158
40
0.6213057851
40
0.7100637545
40
0.7988217238
40
0.8875796931
40
0.9763376624
40
1.0000000000
40
1.0000000000
40
1.0000000000
40
1.0000000000
10
-19.6773787912
20
15.1637794611
30
-0.0000000000
10
-19.6773787912
20
15.1637794611
30
0.1635951331
10
-19.6792451153
20
15.1266877364
30
0.4675167386
10
-19.6867774080
20
14.9759853143
30
0.8987176914
10
-19.6990101902
20
14.7278689804
30
1.2936020248
10
-19.7148797228
20
14.3994504839
30
1.6212738150
10
-19.7334895378
20
14.0042692065
30
1.8689491449
10
-19.7536116855
20
13.5636640422
30
2.0217992524
10
-19.7740943154
20
13.0995363471
30
2.0723180953
10
-19.7938161874
20
12.6360700263
30
2.0175710595
10
-19.8117941336
20
12.1978042747
30
1.8611311251
10
-19.8273149365
20
11.8059657143
30
1.6110738468
10
-19.8367461628
20
11.5603196802
30
1.3622731853
10
-19.8411218371
20
11.4447038906
30
1.2057401390
10
-19.8420019424
20
11.4213802755
30
1.1721221919
11
-19.6773787912
21
15.1637794611
31
-0.0000000000
11
-19.6800339164
21
15.1108435972
31
0.4634031627
11
-19.6875608229
21
14.9597496623
31
0.8926649215
11
-19.6996163153
21
14.7144852866
31
1.2823999342
11
-19.7153364365
21
14.3883233538
31
1.6079410716
11
-19.7337415933
21
13.9966985587
31
1.8531449412
11
-19.7536717659
21
13.5597436204
31
2.0047440416
11
-19.7739675224
21
13.0996465761
31
2.0547737822
11
-19.7935255331
21
12.6402701211
31
2.0006222431
11
-19.8113846097
21
12.2055421399
31
1.8455282345
11
-19.8268086203
21
11.8170837774
31
1.5978658002
11
-19.8392402125
21
11.4943330420
31
1.2708592710
11
-19.8420019424
21
11.4213802755
31
1.1721221919
0
SPLINE
5
344
100
AcDbEntity
8
ASSI
100
AcDbSpline
62
9
6
CONTINUOUS
70
0
71
3
72
10
73
6
74
4
42
0.0000001000
43
0.0000001000
44
0.0000000001
12
-0.0270713416
22
-0.7174158751
32
-1.0340613494
13
-0.0000000000
23
0.0000000000
33
-1.3181059291
40
0.0000000000
40
0.0000000000
40
0.0000000000
40
0.0000000000
40
0.2683121485
40
0.6341560743
40
1.0000000000
40
1.0000000000
40
1.0000000000
40
1.0000000000
10
-19.8420019424
20
11.4213802755
30
1.1721221919
10
-19.8444231323
20
11.3572164772
30
1.0796384511
10
-19.8494141908
20
11.2236548628
30
0.8490557343
10
-19.8543276854
20
11.0900005373
30
0.4599221673
10
-19.8556326569
20
11.0541894611
30
0.1607403492
10
-19.8556326569
20
11.0541894611
30
-0.0000000000
11
-19.8420019424
21
11.4213802755
31
1.1721221919
11
-19.8483109006
21
11.2529329495
31
0.8816208245
11
-19.8537551422
21
11.1054960798
31
0.4563077887
11
-19.8556326569
21
11.0541894611
31
-0.0000000000
0
SPLINE
5
345
100
AcDbEntity
8
ASSI
100
AcDbSpline
62
9
6
CONTINUOUS
70
0
71
3
72
11
73
7
74
5
42
0.0000001000
43
0.0000001000
44
0.0000000001
12
0.0000000000
22
0.0000000000
32
-1.6907996429
13
0.0393693664
23
1.0433249208
33
-1.2060368612
40
0.0000000000
40
0.0000000000
40
0.0000000000
40
0.0000000000
40
0.3146274308
40
0.6292548616
40
0.9438822924
40
1.0000000000
40
1.0000000000
40
1.0000000000
40
1.0000000000
10
-19.8620397974
20
10.8772594611
30
-0.0000000000
10
-19.8620397974
20
10.8772594611
30
-0.1773239826
10
-19.8606018065
20
10.9173804936
30
-0.5068150428
10
-19.8546934346
20
11.0805814031
30
-0.9747236316
10
-19.8474737776
20
11.2760389790
30
-1.2863092593
10
-19.8427330909
20
11.4020057814
30
-1.4379943383
10
-19.8419966513
20
11.4215221157
30
-1.4605543463
11
-19.8620397974
21
10.8772594611
31
-0.0000000000
11
-19.8599765756
21
10.9345503870
31
-0.5024270425
11
-19.8540210338
21
11.0982446715
31
-0.9682571839
11
-19.8441490981
21
11.3643355736
31
-1.3916884475
11
-19.8419966513
21
11.4215221157
31
-1.4605543463
0
SPLINE
5
346
100
AcDbEntity
8
ASSI
100
AcDbSpline
62
9
6
CONTINUOUS
70
0
71
3
72
18
73
14
74
12
42
0.0000001000
43
0.0000001000
44
0.0000000001
12
0.1340441902
22
3.5522960299
32
-4.1062950462
13
-0.0000000000
23
0.0000000000
33
5.6660751174
40
0.0000000000
40
0.0000000000
40
0.0000000000
40
0.0000000000
40
0.0759254393
40
0.1683328954
40
0.2607403514
40
0.3531478075
40
0.4455552636
40
0.5379627196
40
0.6303701757
40
0.7227776318
40
0.8151850879
40
0.9075925439
40
1.0000000000
40
1.0000000000
40
1.0000000000
40
1.0000000000
10
-19.8419966513
20
11.4215221157
30
-1.4605543463
10
-19.8386041967
20
11.5114253279
30
-1.5644784313
10
-19.8301951976
20
11.7318918214
30
-1.7760793791
10
-19.8143229149
20
12.1354121254
30
-2.0292966249
10
-19.7947644967
20
12.6138772169
30
-2.1956129569
10
-19.7733071458
20
13.1181936752
30
-2.2507808822
10
-19.7510141430
20
13.6218455890
30
-2.1915022342
10
-19.7291311197
20
14.0982994841
30
-2.0215829228
10
-19.7089149815
20
14.5242263251
30
-1.7497998609
10
-19.6916841082
20
14.8774087217
30
-1.3920390553
10
-19.6784680096
20
15.1425743694
30
-0.9632189838
10
-19.6704153598
20
15.3018391080
30
-0.4993866577
10
-19.6684364011
20
15.3407094611
30
-0.1745291958
10
-19.6684364011
20
15.3407094611
30
-0.0000000000
11
-19.8419966513
21
11.4215221157
31
-1.4605543463
11
-19.8306446103
21
11.7184519046
31
-1.7455703036
11
-19.8138757798
21
12.1436516772
31
-2.0121453953
11
-19.7944480079
21
12.6181857780
31
-2.1770882224
11
-19.7731678705
21
13.1180829178
31
-2.2317064533
11
-19.7510824729
21
13.6173125859
31
-2.1730621236
11
-19.7294089339
21
14.0898783084
31
-2.0046056310
11
-19.7094125257
21
14.5121022511
31
-1.7354702369
11
-19.6923532373
21
14.8627392635
31
-1.3801958443
11
-19.6793285844
21
15.1249242178
31
-0.9573836080
11
-19.6712627284
21
15.2850125731
31
-0.4954776799
11
-19.6684364011
21
15.3407094611
31
-0.0000000000
0
SPLINE
5
347
100
AcDbEntity
8
INCISIONI_LASER
100
AcDbSpline
62
9
6
CONTINUOUS
70
0
71
3
72
18
73
14
74
12
42
0.0000001000
43
0.0000001000
44
0.0000000001
12
0.0000000000
22
0.0000000000
32
5.9454658168
13
-0.1495303479
23
-3.9626550931
33
-3.9591556927
40
0.0000000000
40
0.0000000000
40
0.0000000000
40
0.0000000000
40
0.0955115734
40
0.1910231467
40
0.2865347201
40
0.3820462934
40
0.4775578668
40
0.5730694401
40
0.6685810135
40
0.7640925868
40
0.8596041602
40
0.9551157335
40
1.0000000000
40
1.0000000000
40
1.0000000000
40
1.0000000000
10
-19.6604883768
20
15.4962534611
30
-0.0000000000
10
-19.6604883768
20
15.4962534611
30
0.1892869315
10
-19.6626868035
20
15.4535154614
30
0.5410876704
10
-19.6715722658
20
15.2794742365
30
1.0411198326
10
-19.6860289867
20
14.9918860579
30
1.5003595213
10
-19.7047642662
20
14.6105391210
30
1.8817978725
10
-19.7266487718
20
14.1517613977
30
2.1700885128
10
-19.7502179585
20
13.6399465629
30
2.3483461683
10
-19.7741005359
20
13.1003834874
30
2.4076685033
10
-19.7969672776
20
12.5614227871
30
2.3445030117
10
-19.8176950643
20
12.0514519766
30
2.1628644032
10
-19.8323354842
20
11.6760889053
30
1.9234893156
10
-19.8397603081
20
11.4807888248
30
1.7479295840
10
-19.8419974947
20
11.4215018690
30
1.6886949843
11
-19.6604883768
21
15.4962534611
31
-0.0000000000
11
-19.6636181072
21
15.4351930905
31
0.5364761794
11
-19.6725008089
21
15.2605497442
31
1.0343210870
11
-19.6867420798
21
14.9762595982
31
1.4873926317
11
-19.7052891372
21
14.5976339899
31
1.8662732540
11
-19.7269295520
21
14.1429218791
31
2.1517496820
11
-19.7502701903
21
13.6353218561
31
2.3285236149
11
-19.7739312299
21
13.1004838832
31
2.3872538655
11
-19.7966107851
21
12.5662544354
31
2.3247574922
11
-19.8172041585
21
12.0604606960
31
2.1446797412
11
-19.8348812485
21
11.6085339128
31
1.8567987048
11
-19.8419974947
21
11.4215018690
31
1.6886949843
0
SPLINE
5
348
100
AcDbEntity
8
INCISIONI_LASER
100
AcDbSpline
62
9
6
CONTINUOUS
70
0
71
3
72
11
73
7
74
5
42
0.0000001000
43
0.0000001000
44
0.0000000001
12
-0.0504159552
22
-1.3360568232
32
-1.3348769583
13
0.0000000000
23
0.0000000000
33
-1.9781141662
40
0.0000000000
40
0.0000000000
40
0.0000000000
40
0.0000000000
40
0.1501572028
40
0.4334381352
40
0.7167190676
40
1.0000000000
40
1.0000000000
40
1.0000000000
40
1.0000000000
10
-19.8419974947
20
11.4215018690
30
1.6886949843
10
-19.8445209343
20
11.3546290172
30
1.6218811875
10
-19.8513036500
20
11.1731650616
30
1.4176029846
10
-19.8600302796
20
10.9338391332
30
1.0307537734
10
-19.8661161847
20
10.7633345618
30
0.5344359971
10
-19.8675861323
20
10.7217154611
30
0.1867873418
10
-19.8675861323
20
10.7217154611
30
-0.0000000000
11
-19.8419974947
21
11.4215018690
31
1.6886949843
11
-19.8490397905
21
11.2333071491
31
1.4767829561
11
-19.8593200108
21
10.9527181107
31
1.0244846043
11
-19.8654693541
21
10.7813472152
31
0.5302434626
11
-19.8675861323
21
10.7217154611
31
-0.0000000000
0
SPLINE
5
349
100
AcDbEntity
8
INCISIONI_LASER
100
AcDbSpline
62
9
6
CONTINUOUS
70
0
71
3
72
21
73
17
74
15
42
0.0000001000
43
0.0000001000
44
0.0000000001
12
0.0000000000
22
0.0000000000
32
-7.9521618596
13
-0.0000000000
23
0.0000000000
33
7.8428483182
40
0.0000000000
40
0.0000000000
40
0.0000000000
40
0.0000000000
40
0.0714285714
40
0.1428571429
40
0.2142857143
40
0.2857142857
40
0.3571428571
40
0.4285714286
40
0.5000000000
40
0.5714285714
40
0.6428571429
40
0.7142857143
40
0.7857142857
40
0.8571428571
40
0.9285714286
40
1.0000000000
40
1.0000000000
40
1.0000000000
40
1.0000000000
10
-19.8675861323
20
10.7217154611
30
-0.0000000000
10
-19.8675861323
20
10.7217154611
30
-0.1893371871
10
-19.8660759961
20
10.7644750338
30
-0.5412166434
10
-19.8598597578
20
10.9385886650
30
-1.0413278557
10
-19.8493641236
20
11.2262514473
30
-1.5005758471
10
-19.8350137160
20
11.6076689129
30
-1.8819891200
10
-19.8170982922
20
12.0664546578
30
-2.1702015774
10
-19.7962692687
20
12.5782307977
30
-2.3483926166
10
-19.7733438071
20
13.1178302177
30
-2.4076692325
10
-19.7494565705
20
13.6567837092
30
-2.3444485012
10
-19.7259437209
20
14.1667708174
30
-2.1627433694
10
-19.7041756682
20
14.6226646713
30
-1.8719316769
10
-19.6855986269
20
15.0005194911
30
-1.4892400447
10
-19.6713305691
20
15.2842271124
30
-1.0305367551
10
-19.6626280011
20
15.4546568532
30
-0.5342998255
10
-19.6604883768
20
15.4962534611
30
-0.1867344838
10
-19.6604883768
20
15.4962534611
30
-0.0000000000
11
-19.8675861323
21
10.7217154611
31
-0.0000000000
11
-19.8654174904
21
10.7828040792
31
-0.5365986480
11
-19.8591465251
21
10.9575135235
31
-1.0345173189
11
-19.8487216614
21
11.2418772278
31
-1.4876033940
11
-19.8344195467
21
11.6205636261
31
-1.8664556508
11
-19.8166126923
21
12.0752863903
31
-2.1518646743
11
-19.7959198624
21
12.5828680110
31
-2.3285735460
11
-19.7731835113
21
13.1177225629
31
-2.3872530079
11
-19.7495189683
21
13.6519559787
31
-2.3247011011
11
-19.7262345204
21
14.1577552750
31
-2.1445589426
11
-19.7047075034
21
14.6096581656
31
-1.8566183536
11
-19.6863167908
21
14.9848282913
31
-1.4765714351
11
-19.6722581508
21
15.2653474657
31
-1.0242811484
11
-19.6635435230
21
15.4366510484
31
-0.5301146450
11
-19.6604883768
21
15.4962534611
31
-0.0000000000
0
SPLINE
5
34A
100
AcDbEntity
8
INCISIONI_LASER
100
AcDbSpline
62
9
6
CONTINUOUS
70
0
71
3
72
10
73
6
74
4
42
0.0000001000
43
0.0000001000
44
0.0000000001
12
0.0000000000
22
0.0000000000
32
-1.3266084101
13
0.0268874861
23
0.7125431385
33
-1.0266881350
40
0.0000000000
40
0.0000000000
40
0.0000000000
40
0.0000000000
40
0.3700386299
40
0.7400772599
40
1.0000000000
40
1.0000000000
40
1.0000000000
40
1.0000000000
10
-19.8556326569
20
11.0541894611
30
-0.0000000000
10
-19.8556326569
20
11.0541894611
30
-0.1636321195
10
-19.8542805318
20
11.0912971018
30
-0.4676115485
10
-19.8492867242
20
11.2270991151
30
-0.8560930677
10
-19.8443292083
20
11.3597049528
30
-1.0832541703
10
-19.8419996519
20
11.4214403412
30
-1.1722073681
11
-19.8556326569
21
11.0541894611
31
-0.0000000000
11
-19.8536946122
21
11.1071461871
31
-0.4634932758
11
-19.8481117532
21
11.2582890952
31
-0.8928096968
11
-19.8419996519
21
11.4214403412
31
-1.1722073681
0
SPLINE
5
34B
100
AcDbEntity
8
INCISIONI_LASER
100
AcDbSpline
62
9
6
CONTINUOUS
70
0
71
3
72
19
73
15
74
13
42
0.0000001000
43
0.0000001000
44
0.0000000001
12
0.1124042330
22
2.9788156758
32
-4.2921116567
13
0.0000000000
23
0.0000000000
33
5.4467413849
40
0.0000000000
40
0.0000000000
40
0.0000000000
40
0.0000000000
40
0.0263401064
40
0.1148546421
40
0.2033691779
40
0.2918837137
40
0.3803982495
40
0.4689127853
40
0.5574273211
40
0.6459418569
40
0.7344563926
40
0.8229709284
40
0.9114854642
40
1.0000000000
40
1.0000000000
40
1.0000000000
40
1.0000000000
10
-19.8419996519
20
11.4214403412
30
-1.1722073681
10
-19.8410127388
20
11.4475944484
30
-1.2098922606
10
-19.8364870338
20
11.5671335616
30
-1.3704793092
10
-19.8268192721
20
11.8186967248
30
-1.6214161181
10
-19.8111466426
20
12.2138841725
30
-1.8690332639
10
-19.7930477896
20
12.6544603982
30
-2.0218337549
10
-19.7732667320
20
13.1186165942
30
-2.0723186445
10
-19.7527836536
20
13.5820785350
30
-2.0175294454
10
-19.7327420602
20
14.0203496384
30
-1.8610421810
10
-19.7142717306
20
14.4121652553
30
-1.6109416717
10
-19.6985512499
20
14.7372489866
30
-1.2816187540
10
-19.6865105361
20
14.9813436258
30
-0.8868627752
10
-19.6791798421
20
15.1279831883
30
-0.4598321855
10
-19.6773787912
20
15.1637794611
30
-0.1607052617
10
-19.6773787912
20
15.1637794611
30
-0.0000000000
11
-19.8419996519
21
11.4214403412
31
-1.1722073681
11
-19.8388878039
21
11.5036084140
31
-1.2825561350
11
-19.8263110687
21
11.8298160405
31
-1.6080766909
11
-19.8107422720
21
12.2214489688
31
-1.8532304881
11
-19.7927674222
21
12.6583903932
31
-2.0047811546
11
-19.7731497285
21
13.1185008850
31
-2.0547729631
11
-19.7528572344
21
13.5778800621
31
-2.0005797678
11
-19.7330039375
21
14.0126070573
31
-1.8454399735
11
-19.7147300388
21
14.4010432744
31
-1.5977379369
11
-19.6991645444
21
14.7237508046
31
-1.2707132438
11
-19.6872955394
21
14.9651011130
31
-0.8814836734
11
-19.6799513617
21
15.1124923294
31
-0.4562222195
11
-19.6773787912
21
15.1637794611
31
-0.0000000000
0
SPLINE
5
34C
100
AcDbEntity
8
INCISIONI_LASER
100
AcDbSpline
62
9
6
CONTINUOUS
70
0
71
3
72
18
73
14
74
12
42
0.0000001000
43
0.0000001000
44
0.0000000001
12
0.0000000000
22
0.0000000000
32
5.7398097809
13
-0.1332408627
23
-3.5310144071
33
-4.0816183193
40
0.0000000000
40
0.0000000000
40
0.0000000000
40
0.0000000000
40
0.0926583259
40
0.1853166517
40
0.2779749776
40
0.3706333034
40
0.4632916293
40
0.5559499551
40
0.6486082810
40
0.7412666068
40
0.8339249327
40
0.9265832585
40
1.0000000000
40
1.0000000000
40
1.0000000000
40
1.0000000000
10
-19.6684364011
20
15.3407094611
30
-0.0000000000
10
-19.6684364011
20
15.3407094611
30
0.1772803883
10
-19.6704781761
20
15.3006071572
30
0.5067032436
10
-19.6787251128
20
15.1374692198
30
0.9745429693
10
-19.6921315387
20
14.8683540308
30
1.4036449861
10
-19.7095142571
20
14.5117936841
30
1.7599058014
10
-19.7298569009
20
14.0827730293
30
2.0291978364
10
-19.7518066479
20
13.6042740407
30
2.1955723962
10
-19.7740966993
20
13.0999901894
30
2.2507802346
10
-19.7954951880
20
12.5963325167
30
2.1915504281
10
-19.8149439191
20
12.1198894996
30
2.0216882175
10
-19.8305199365
20
11.7234233443
30
1.7687687026
10
-19.8387382471
20
11.5078729574
30
1.5603755621
10
-19.8419989504
20
11.4214611000
30
1.4604891898
11
-19.6684364011
21
15.3407094611
31
-0.0000000000
11
-19.6713422218
21
15.2834430770
31
0.5023208174
11
-19.6795850276
21
15.1198063446
31
0.9680866845
11
-19.6927942541
21
14.8537798378
31
1.3915047858
11
-19.7100075780
21
14.4997169661
31
1.7454110047
11
-19.7301247515
21
14.0745266403
31
2.0120449239
11
-19.7518633653
21
13.5999765636
31
2.1770446093
11
-19.7739481055
21
13.1000945525
31
2.2317072938
11
-19.7951702284
21
12.6008682926
31
2.1731116941
11
-19.8144915273
21
12.1283048853
31
2.0047104642
11
-19.8311243409
21
11.7060578582
31
1.7356247931
11
-19.8419989504
21
11.4214611000
31
1.4604891898
0
SPLINE
5
34D
100
AcDbEntity
8
INCISIONI_LASER
100
AcDbSpline
62
9
6
CONTINUOUS
70
0
71
3
72
11
73
7
74
5
42
0.0000001000
43
0.0000001000
44
0.0000000001
12
-0.0396013911
22
-1.0494759621
32
-1.2131245639
13
-0.0000000000
23
-0.0000000000
33
-1.6799161928
40
0.0000000000
40
0.0000000000
40
0.0000000000
40
0.0000000000
40
0.0647392737
40
0.3764928492
40
0.6882464246
40
1.0000000000
40
1.0000000000
40
1.0000000000
40
1.0000000000
10
-19.8419989504
20
11.4214611000
30
1.4604891898
10
-19.8428535389
20
11.3988136628
30
1.4343102554
10
-19.8476746729
20
11.2706527634
30
1.2789653168
10
-19.8548792365
20
11.0754759904
30
0.9634009350
10
-19.8606458699
20
10.9161485116
30
0.4995000537
10
-19.8620397974
20
10.8772594611
30
0.1745732932
10
-19.8620397974
20
10.8772594611
30
-0.0000000000
11
-19.8419989504
21
11.4214611000
31
1.4604891898
11
-19.8444855408
21
11.3553707723
31
1.3803751323
11
-19.8542086238
21
11.0931258225
31
0.9575543978
11
-19.8600332462
21
10.9329808288
31
0.4955851771
11
-19.8620397974
21
10.8772594611
31
-0.0000000000
0
SPLINE
5
34E
100
AcDbEntity
8
INCISIONI_LASER
100
AcDbSpline
62
9
6
CONTINUOUS
70
0
71
3
72
19
73
15
74
13
42
0.0000001000
43
0.0000001000
44
0.0000000001
12
0.0000000000
22
0.0000000000
32
5.5294798088
13
-0.1115830608
23
-2.9570554866
33
-4.2622095397
40
0.0000000000
40
0.0000000000
40
0.0000000000
40
0.0000000000
40
0.0887579693
40
0.1775159386
40
0.2662739079
40
0.3550318772
40
0.4437898465
40
0.5325478158
40
0.6213057851
40
0.7100637545
40
0.7988217238
40
0.8875796931
40
0.9763376624
40
1.0000000000
40
1.0000000000
40
1.0000000000
40
1.0000000000
10
-19.6773787912
20
15.1637794611
30
-0.0000000000
10
-19.6773787912
20
15.1637794611
30
0.1635951331
10
-19.6792451153
20
15.1266877364
30
0.4675167386
10
-19.6867774080
20
14.9759853143
30
0.8987176914
10
-19.6990101902
20
14.7278689804
30
1.2936020248
10
-19.7148797228
20
14.3994504839
30
1.6212738150
10
-19.7334895378
20
14.0042692065
30
1.8689491449
10
-19.7536116855
20
13.5636640422
30
2.0217992524
10
-19.7740943154
20
13.0995363471
30
2.0723180953
10
-19.7938161874
20
12.6360700263
30
2.0175710595
10
-19.8117941336
20
12.1978042747
30
1.8611311251
10
-19.8273149365
20
11.8059657143
30
1.6110738468
10
-19.8367461628
20
11.5603196802
30
1.3622731853
10
-19.8411218371
20
11.4447038906
30
1.2057401390
10
-19.8420019424
20
11.4213802755
30
1.1721221919
11
-19.6773787912
21
15.1637794611
31
-0.0000000000
11
-19.6800339164
21
15.1108435972
31
0.4634031627
11
-19.6875608229
21
14.9597496623
31
0.8926649215
11
-19.6996163153
21
14.7144852866
31
1.2823999342
11
-19.7153364365
21
14.3883233538
31
1.6079410716
11
-19.7337415933
21
13.9966985587
31
1.8531449412
11
-19.7536717659
21
13.5597436204
31
2.0047440416
11
-19.7739675224
21
13.0996465761
31
2.0547737822
11
-19.7935255331
21
12.6402701211
31
2.0006222431
11
-19.8113846097
21
12.2055421399
31
1.8455282345
11
-19.8268086203
21
11.8170837774
31
1.5978658002
11
-19.8392402125
21
11.4943330420
31
1.2708592710
11
-19.8420019424
21
11.4213802755
31
1.1721221919
0
SPLINE
5
34F
100
AcDbEntity
8
INCISIONI_LASER
100
AcDbSpline
62
9
6
CONTINUOUS
70
0
71
3
72
10
73
6
74
4
42
0.0000001000
43
0.0000001000
44
0.0000000001
12
-0.0270713416
22
-0.7174158751
32
-1.0340613494
13
-0.0000000000
23
0.0000000000
33
-1.3181059291
40
0.0000000000
40
0.0000000000
40
0.0000000000
40
0.0000000000
40
0.2683121485
40
0.6341560743
40
1.0000000000
40
1.0000000000
40
1.0000000000
40
1.0000000000
10
-19.8420019424
20
11.4213802755
30
1.1721221919
10
-19.8444231323
20
11.3572164772
30
1.0796384511
10
-19.8494141908
20
11.2236548628
30
0.8490557343
10
-19.8543276854
20
11.0900005373
30
0.4599221673
10
-19.8556326569
20
11.0541894611
30
0.1607403492
10
-19.8556326569
20
11.0541894611
30
-0.0000000000
11
-19.8420019424
21
11.4213802755
31
1.1721221919
11
-19.8483109006
21
11.2529329495
31
0.8816208245
11
-19.8537551422
21
11.1054960798
31
0.4563077887
11
-19.8556326569
21
11.0541894611
31
-0.0000000000
0
SPLINE
5
350
100
AcDbEntity
8
INCISIONI_LASER
100
AcDbSpline
62
9
6
CONTINUOUS
70
0
71
3
72
11
73
7
74
5
42
0.0000001000
43
0.0000001000
44
0.0000000001
12
0.0000000000
22
0.0000000000
32
-1.6907996429
13
0.0393693664
23
1.0433249208
33
-1.2060368612
40
0.0000000000
40
0.0000000000
40
0.0000000000
40
0.0000000000
40
0.3146274308
40
0.6292548616
40
0.9438822924
40
1.0000000000
40
1.0000000000
40
1.0000000000
40
1.0000000000
10
-19.8620397974
20
10.8772594611
30
-0.0000000000
10
-19.8620397974
20
10.8772594611
30
-0.1773239826
10
-19.8606018065
20
10.9173804936
30
-0.5068150428
10
-19.8546934346
20
11.0805814031
30
-0.9747236316
10
-19.8474737776
20
11.2760389790
30
-1.2863092593
10
-19.8427330909
20
11.4020057814
30
-1.4379943383
10
-19.8419966513
20
11.4215221157
30
-1.4605543463
11
-19.8620397974
21
10.8772594611
31
-0.0000000000
11
-19.8599765756
21
10.9345503870
31
-0.5024270425
11
-19.8540210338
21
11.0982446715
31
-0.9682571839
11
-19.8441490981
21
11.3643355736
31
-1.3916884475
11
-19.8419966513
21
11.4215221157
31
-1.4605543463
0
SPLINE
5
351
100
AcDbEntity
8
INCISIONI_LASER
100
AcDbSpline
62
9
6
CONTINUOUS
70
0
71
3
72
18
73
14
74
12
42
0.0000001000
43
0.0000001000
44
0.0000000001
12
0.1340441902
22
3.5522960299
32
-4.1062950462
13
-0.0000000000
23
0.0000000000
33
5.6660751174
40
0.0000000000
40
0.0000000000
40
0.0000000000
40
0.0000000000
40
0.0759254393
40
0.1683328954
40
0.2607403514
40
0.3531478075
40
0.4455552636
40
0.5379627196
40
0.6303701757
40
0.7227776318
40
0.8151850879
40
0.9075925439
40
1.0000000000
40
1.0000000000
40
1.0000000000
40
1.0000000000
10
-19.8419966513
20
11.4215221157
30
-1.4605543463
10
-19.8386041967
20
11.5114253279
30
-1.5644784313
10
-19.8301951976
20
11.7318918214
30
-1.7760793791
10
-19.8143229149
20
12.1354121254
30
-2.0292966249
10
-19.7947644967
20
12.6138772169
30
-2.1956129569
10
-19.7733071458
20
13.1181936752
30
-2.2507808822
10
-19.7510141430
20
13.6218455890
30
-2.1915022342
10
-19.7291311197
20
14.0982994841
30
-2.0215829228
10
-19.7089149815
20
14.5242263251
30
-1.7497998609
10
-19.6916841082
20
14.8774087217
30
-1.3920390553
10
-19.6784680096
20
15.1425743694
30
-0.9632189838
10
-19.6704153598
20
15.3018391080
30
-0.4993866577
10
-19.6684364011
20
15.3407094611
30
-0.1745291958
10
-19.6684364011
20
15.3407094611
30
-0.0000000000
11
-19.8419966513
21
11.4215221157
31
-1.4605543463
11
-19.8306446103
21
11.7184519046
31
-1.7455703036
11
-19.8138757798
21
12.1436516772
31
-2.0121453953
11
-19.7944480079
21
12.6181857780
31
-2.1770882224
11
-19.7731678705
21
13.1180829178
31
-2.2317064533
11
-19.7510824729
21
13.6173125859
31
-2.1730621236
11
-19.7294089339
21
14.0898783084
31
-2.0046056310
11
-19.7094125257
21
14.5121022511
31
-1.7354702369
11
-19.6923532373
21
14.8627392635
31
-1.3801958443
11
-19.6793285844
21
15.1249242178
31
-0.9573836080
11
-19.6712627284
21
15.2850125731
31
-0.4954776799
11
-19.6684364011
21
15.3407094611
31
-0.0000000000
0
SPLINE
5
352
100
AcDbEntity
8
0
100
AcDbSpline
62
9
6
CONTINUOUS
70
0
71
3
72
10
73
6
74
4
42
0.0000001000
43
0.0000001000
44
0.0000000001
12
-2.7558149912
22
-40.5292509143
32
0.0000000000
13
2.7558124011
23
-40.5292510904
33
0.0000000000
40
0.0000000000
40
0.0000000000
40
0.0000000000
40
0.0000000000
40
0.3333325920
40
0.6666690020
40
1.0000000000
40
1.0000000000
40
1.0000000000
40
1.0000000000
10
-18.5800427688
20
20.4065344300
30
0.0000000000
10
-18.8862437535
20
15.9032943441
30
0.0000000000
10
-19.2948672642
20
6.8815168681
30
0.0000000000
10
-19.2948661628
20
-6.6635911434
30
0.0000000000
10
-18.8862420015
20
-15.6853469363
30
0.0000000000
10
-18.5800427688
20
-20.1885655078
30
0.0000000000
11
-18.5800427688
21
20.4065344300
31
0.0000000000
11
-19.1927100328
21
6.8794870192
31
0.0000000000
11
-19.1927086474
21
-6.6615828518
31
0.0000000000
11
-18.5800427688
21
-20.1885655078
31
0.0000000000
0
SPLINE
5
353
100
AcDbEntity
8
0
100
AcDbSpline
62
9
6
CONTINUOUS
70
0
71
3
72
11
73
7
74
5
42
0.0000001000
43
0.0000001000
44
0.0000000001
12
-0.0139588767
22
0.7999470618
32
0.0000000000
13
0.7999469877
23
0.0139631266
33
0.0000000000
40
0.0000000000
40
0.0000000000
40
0.0000000000
40
0.0000000000
40
0.3825591995
40
0.7068733429
40
0.9236228661
40
1.0000000000
40
1.0000000000
40
1.0000000000
40
1.0000000000
10
-17.8938720755
20
21.0589402332
30
0.0000000000
10
-17.8956521078
20
21.1609492690
30
0.0000000000
10
-17.8930977837
20
21.3433664354
30
0.0000000000
10
-17.9132378069
20
21.6111024071
30
0.0000000000
10
-17.8761008256
20
21.7334530933
30
0.0000000000
10
-17.9142379616
20
21.8584629014
30
0.0000000000
10
-17.8938720755
20
21.8588183893
30
0.0000000000
11
-17.8938720755
21
21.0589402332
31
0.0000000000
11
-17.8981500823
21
21.3649840305
31
0.0000000000
11
-17.8996522886
21
21.6244533232
31
0.0000000000
11
-17.8981500835
21
21.7978613566
31
0.0000000000
11
-17.8938720755
21
21.8588183893
31
0.0000000000
0
SPLINE
5
354
100
AcDbEntity
8
0
100
AcDbSpline
62
9
6
CONTINUOUS
70
0
71
3
72
18
73
14
74
12
42
0.0000001000
43
0.0000001000
44
0.0000000001
12
-1.0388411489
22
-0.0181321361
32
0.0000000000
13
-0.0704893733
23
-1.0366054964
33
0.0000000000
40
0.0000000000
40
0.0000000000
40
0.0000000000
40
0.0000000000
40
0.0762887184
40
0.1617318156
40
0.2544293028
40
0.3524203723
40
0.4535705499
40
0.5555725981
40
0.6560597604
40
0.7527610568
40
0.8435972019
40
0.9266484966
40
1.0000000000
40
1.0000000000
40
1.0000000000
40
1.0000000000
10
-17.8938720755
20
21.0589402332
30
0.0000000000
10
-17.9202893621
20
21.0584791407
30
0.0000000000
10
-17.9762871226
20
21.0543229258
30
0.0000000000
10
-18.0629727748
20
21.0372735745
30
0.0000000000
10
-18.1538439403
20
21.0065041294
30
0.0000000000
10
-18.2443621656
20
20.9607362174
30
0.0000000000
10
-18.3298061789
20
20.9002436881
30
0.0000000000
10
-18.4058137737
20
20.8269860292
30
0.0000000000
10
-18.4690375908
20
20.7444026103
30
0.0000000000
10
-18.5176330586
20
20.6568941892
30
0.0000000000
10
-18.5514162439
20
20.5691733869
30
0.0000000000
10
-18.5716946104
20
20.4857654360
30
0.0000000000
10
-18.5783192683
20
20.4318799539
30
0.0000000000
10
-18.5800427688
20
20.4065344300
30
0.0000000000
11
-17.8938720755
21
21.0589402332
31
0.0000000000
11
-17.9729184501
21
21.0530715525
31
0.0000000000
11
-18.0600249557
21
21.0359392735
31
0.0000000000
11
-18.1512492677
21
21.0050483705
31
0.0000000000
11
-18.2421077593
21
20.9591076231
31
0.0000000000
11
-18.3278818396
21
20.8983806914
31
0.0000000000
11
-18.4041887711
21
20.8248346086
31
0.0000000000
11
-18.4676563198
21
20.7419340430
31
0.0000000000
11
-18.5164351862
21
20.6540969046
31
0.0000000000
11
-18.5503557788
21
20.5660245929
31
0.0000000000
11
-18.5707410069
21
20.4821768224
31
0.0000000000
11
-18.5800427688
21
20.4065344300
31
0.0000000000
0
SPLINE
5
355
100
AcDbEntity
8
0
100
AcDbSpline
62
9
6
CONTINUOUS
70
0
71
3
72
11
73
7
74
5
42
0.0000001000
43
0.0000001000
44
0.0000000001
12
-0.0139588749
22
-0.7999470618
32
0.0000000000
13
0.7999469876
23
-0.0139631266
33
0.0000000000
40
0.0000000000
40
0.0000000000
40
0.0000000000
40
0.0000000000
40
0.3825592777
40
0.7068734192
40
0.9236228949
40
1.0000000000
40
1.0000000000
40
1.0000000000
40
1.0000000000
10
-17.8938720755
20
-20.8409713109
30
0.0000000000
10
-17.8956521079
20
-20.9429803677
30
0.0000000000
10
-17.8930977821
20
-21.1253975524
30
0.0000000000
10
-17.9132378065
20
-21.3931335343
30
0.0000000000
10
-17.8761008300
20
-21.5154842050
30
0.0000000000
10
-17.9142379539
20
-21.6404939793
30
0.0000000000
10
-17.8938720755
20
-21.6408494671
30
0.0000000000
11
-17.8938720755
21
-20.8409713109
31
0.0000000000
11
-17.8981500824
21
-21.1470151708
31
0.0000000000
11
-17.8996522879
21
-21.4064844620
31
0.0000000000
11
-17.8981500824
21
-21.5798924574
31
0.0000000000
11
-17.8938720755
21
-21.6408494671
31
0.0000000000
0
SPLINE
5
356
100
AcDbEntity
8
0
100
AcDbSpline
62
9
6
CONTINUOUS
70
0
71
3
72
18
73
14
74
12
42
0.0000001000
43
0.0000001000
44
0.0000000001
12
0.0704840794
22
-1.0366058803
32
0.0000000000
13
1.0388410847
23
-0.0181371786
33
0.0000000000
40
0.0000000000
40
0.0000000000
40
0.0000000000
40
0.0000000000
40
0.0762234677
40
0.1616143483
40
0.2542719093
40
0.3522352897
40
0.4533704559
40
0.5553707486
40
0.6558697984
40
0.7525967344
40
0.8434723761
40
0.9265779405
40
1.0000000000
40
1.0000000000
40
1.0000000000
40
1.0000000000
10
-18.5800427688
20
-20.1885655078
30
0.0000000000
10
-18.5782519218
20
-20.2149034061
30
0.0000000000
10
-18.5712855505
20
-20.2705800374
30
0.0000000000
10
-18.5499124032
20
-20.3562454884
30
0.0000000000
10
-18.5146342897
20
-20.4454180434
30
0.0000000000
10
-18.4643976992
20
-20.5335013590
30
0.0000000000
10
-18.3997074761
20
-20.6157931611
30
0.0000000000
10
-18.3227337546
20
-20.6880325175
30
0.0000000000
10
-18.2370746859
20
-20.7470444018
30
0.0000000000
10
-18.1472149611
20
-20.7912017278
30
0.0000000000
10
-18.0578691274
20
-20.8205515671
30
0.0000000000
10
-17.9734909021
20
-20.8366219544
30
0.0000000000
10
-17.9192966928
20
-20.8405274213
30
0.0000000000
10
-17.8938720755
20
-20.8409713109
30
0.0000000000
11
-18.5800427688
21
-20.1885655078
31
0.0000000000
11
-18.5702085143
21
-20.2671486842
31
0.0000000000
11
-18.5487312156
21
-20.3532309389
31
0.0000000000
11
-18.5133139128
21
-20.4427504847
31
0.0000000000
11
-18.4628875590
21
-20.5311650979
31
0.0000000000
11
-18.3979466948
21
-20.6137747805
31
0.0000000000
11
-18.3206699897
21
-20.6862985619
31
0.0000000000
11
-18.2346820990
21
-20.7455378722
31
0.0000000000
11
-18.1444851494
21
-20.7898617396
31
0.0000000000
11
-18.0547820143
21
-20.8193309502
31
0.0000000000
11
-17.9699600688
21
-20.8354857749
31
0.0000000000
11
-17.8938720755
21
-20.8409713109
31
0.0000000000
0
ENDSEC
0
SECTION
2
OBJECTS
0
DICTIONARY
5
C
100
AcDbDictionary
280
0
281
1
3
ACAD_GROUP
350
D
3
ACAD_MLINESTYLE
350
17
3
ACAD_LAYOUT
350
1A
3
ACAD_PLOTSETTINGS
350
19
3
ACAD_PLOTSTYLENAME
350
E
0
DICTIONARY
5
D
102
{ACAD_REACTORS
330
C
102
}
100
AcDbDictionary
280
0
281
1
0
ACDBDICTIONARYWDFLT
5
E
102
{ACAD_REACTORS
330
C
102
}
100
AcDbDictionary
281
1
3
Normal
350
F
100
AcDbDictionaryWithDefault
340
F
0
DICTIONARY
5
17
102
{ACAD_REACTORS
330
C
102
}
100
AcDbDictionary
280
0
281
1
3
Standard
350
18
0
DICTIONARY
5
19
102
{ACAD_REACTORS
330
C
102
}
100
AcDbDictionary
281
1
0
DICTIONARY
5
1A
102
{ACAD_REACTORS
330
C
102
}
100
AcDbDictionary
281
1
3
Layout1
350
1E
3
Model
350
22
0
ACDBPLACEHOLDER
5
F
102
{ACAD_REACTORS
330
E
102
}
0
MLINESTYLE
5
18
102
{ACAD_REACTORS
330
17
102
}
100
AcDbMlineStyle
2
STANDARD
70
0
3

62
256
51
90.0
52
90.0
71
2
49
0.5
62
256
6
BYLAYER
49
-0.5
62
256
6
BYLAYER
0
LAYOUT
5
1E
102
{ACAD_REACTORS
330
1A
102
}
100
AcDbPlotSettings
1

2

4

6

40
0.0
41
0.0
42
0.0
43
0.0
44
0.0
45
0.0
46
0.0
47
0.0
48
0.0
49
0.0
140
0.0
141
0.0
142
1.0
143
1.0
70
0
72
0
73
0
74
0
7

75
0
147
1.0
148
0.0
149
0.0
100
AcDbLayout
1
Layout1
70
0
71
0
10
0.0
20
0.0
11
0.0
21
0.0
12
0.0
22
0.0
32
0.0
14
0.0
24
0.0
34
0.0
15
0.0
25
0.0
35
0.0
146
0.0
13
0.0
23
0.0
33
0.0
16
0.0
26
0.0
36
0.0
17
0.0
27
0.0
37
0.0
76
0
330
1B
331
0
345
0
346
0
0
LAYOUT
5
22
102
{ACAD_REACTORS
330
1A
102
}
100
AcDbPlotSettings
1

2

4

6

40
0.0
41
0.0
42
0.0
43
0.0
44
0.0
45
0.0
46
0.0
47
0.0
48
0.0
49
0.0
140
0.0
141
0.0
142
1.0
143
1.0
70
0
72
0
73
0
74
0
7

75
0
147
1.0
148
0.0
149
0.0
100
AcDbLayout
1
Model
70
0
71
0
10
0.0
20
0.0
11
0.0
21
0.0
12
0.0
22
0.0
32
0.0
14
0.0
24
0.0
34
0.0
15
0.0
25
0.0
35
0.0
146
0.0
13
0.0
23
0.0
33
0.0
16
0.0
26
0.0
36
0.0
17
0.0
27
0.0
37
0.0
76
0
330
1F
331
0
345
0
346
0
0
ENDSEC
0
EOF
