0
SECTION
2
HEADER
9
$ACADVER
1
AC1015
9
$DWGCODEPAGE
3
ANSI_1252
9
$EXTMAX
10
431.8000000000
20
558.8000000000
30
0.0000000000
9
$EXTMIN
10
0.0000000000
20
0.0000000000
30
0.0000000000
9
$LIMMIN
10
0.0000000000
20
0.0000000000
9
$LIMMAX
10
431.8000000000
20
558.8000000000
9
$VIEWCTR
10
215.9000000000
20
279.4000000000
9
$VIEWSIZE
40
558.8000000000
9
$CLAYER
8
0
9
$LTSCALE
40
36.4254814815
9
$CELTYPE
6
BYLAYER
9
$DIMSCALE
40
1
9
$DIMASZ
40
3.0000000000
9
$DIMEXO
40
4.1392592593
9
$DIMDLI
40
25.1666962963
9
$DIMEXE
40
11.9210666667
9
$DIMCEN
40
5.9605333333
9
$DIMLFAC
40
1.0000000000
9
$DIMBLK
1
_FILLED
9
$DIMTXT
40
3.0000000000
9
$DIMTOL
70
1
9
$DIMLIM
70
0
9
$DIMTFAC
40
1.0000000000
9
$DIMTP
40
0.0100000000
9
$DIMTM
40
0.0100000000
9
$PDMODE
70
3
9
$PDSIZE
40
3.0000000000
9
$HANDSEED
5
36C
9
$MEASUREMENT
70
1
9
$INSUNITS
70
4
0
ENDSEC
0
SECTION
2
CLASSES
0
CLASS
1
ACDBDICTIONARYWDFLT
2
AcDbDictionaryWithDefault
3
AutoCAD 2000
90
0
280
0
281
0
0
CLASS
1
ACDBPLACEHOLDER
2
AcDbPlaceHolder
3
AutoCAD 2000
90
0
280
0
281
0
0
CLASS
1
LAYOUT
2
AcDbLayout
3
AutoCAD 2000
90
0
280
0
281
0
0
ENDSEC
0
SECTION
2
TABLES
0
TABLE
2
VPORT
5
8
100
AcDbSymbolTable
70
2
0
VPORT
5
1F4
100
AcDbSymbolTableRecord
100
AcDbViewportTableRecord
2
*ACTIVE
70
0
10
0.0
20
0.0
11
1.0
21
1.0
12
215.9000000000
22
279.4000000000
13
0.0
23
0.0
14
1.0
24
1.0
15
0.0
25
0.0
16
0.0
26
0.0
36
1.0
17
0.0
27
0.0
37
0.0
40
558.8000000000
41
0.7727272727
42
50.0
43
0.0
44
0.0
50
0.0
51
0.0
71
0
72
100
73
1
74
1
75
0
76
0
77
0
78
0
0
ENDTAB
0
TABLE
2
LTYPE
5
5
100
AcDbSymbolTable
70
6
0
LTYPE
5
14
100
AcDbSymbolTableRecord
100
AcDbLinetypeTableRecord
2
BYBLOCK
70
0
3

72
65
73
0
40
0.0
0
LTYPE
5
15
100
AcDbSymbolTableRecord
100
AcDbLinetypeTableRecord
2
BYLAYER
70
0
3

72
65
73
0
40
0.0
0
LTYPE
5
16
100
AcDbSymbolTableRecord
100
AcDbLinetypeTableRecord
2
CONTINUOUS
70
64
3
Solid line
72
65
73
0
40
0
0
LTYPE
5
1F5
100
AcDbSymbolTableRecord
100
AcDbLinetypeTableRecord
2
CENTER
70
64
3
____ _ ____ _ ____ _ ____ _ ____ _ ____ _ ____
72
65
73
4
40
0.6
49
0.375
74
0
49
-0.075
74
0
49
0.075
74
0
49
-0.075
74
0
0
LTYPE
5
1F6
100
AcDbSymbolTableRecord
100
AcDbLinetypeTableRecord
2
HIDDEN
70
64
3
- - - - - - - - - - - - - - - - - - - -
72
65
73
2
40
0.2
49
0.1
74
0
49
-0.1
74
0
0
LTYPE
5
1F7
100
AcDbSymbolTableRecord
100
AcDbLinetypeTableRecord
2
PHANTOM
70
64
3
_____ _ _ _____ _ _ _____ _ _ _____
72
65
73
6
40
0.8
49
0.45
74
0
49
-0.05
74
0
49
0.1
74
0
49
-0.05
74
0
49
0.1
74
0
49
-0.05
74
0
0
LTYPE
5
1F8
100
AcDbSymbolTableRecord
100
AcDbLinetypeTableRecord
2
DOT
70
64
3
. . . . . . . . . . . . . . . . . . . .
72
65
73
2
40
0.2
49
0.1
74
0
49
-0.1
74
0
0
LTYPE
5
1F9
100
AcDbSymbolTableRecord
100
AcDbLinetypeTableRecord
2
DASHED
70
64
3
- - - - - - - - - - - - - - - - - - - -
72
65
73
2
40
0.2
49
0.1
74
0
49
-0.1
74
0
0
ENDTAB
0
TABLE
2
LAYER
5
2
100
AcDbSymbolTable
70
36
0
LAYER
5
10
100
AcDbSymbolTableRecord
100
AcDbLayerTableRecord
2
0
70
0
62
7
6
CONTINUOUS
370
-3
390
F
0
LAYER
5
1FA
100
AcDbSymbolTableRecord
100
AcDbLayerTableRecord
2
DEFAULT_1
70
0
62
7
6
CENTER
370
-3
390
F
0
LAYER
5
1FB
100
AcDbSymbolTableRecord
100
AcDbLayerTableRecord
2
DEFAULT_2
70
0
62
9
6
HIDDEN
370
-3
390
F
0
LAYER
5
1FC
100
AcDbSymbolTableRecord
100
AcDbLayerTableRecord
2
DEFAULT_3
70
0
62
7
6
PHANTOM
370
-3
390
F
0
LAYER
5
1FD
100
AcDbSymbolTableRecord
100
AcDbLayerTableRecord
2
_2D_DELETED_OBJS
70
0
62
7
6
CONTINUOUS
370
-3
390
F
0
LAYER
5
1FE
100
AcDbSymbolTableRecord
100
AcDbLayerTableRecord
2
_BLACK_HOLE
70
0
62
7
6
CONTINUOUS
370
-3
390
F
0
LAYER
5
1FF
100
AcDbSymbolTableRecord
100
AcDbLayerTableRecord
2
ASSI
70
0
62
7
6
CONTINUOUS
370
-3
390
F
0
LAYER
5
200
100
AcDbSymbolTableRecord
100
AcDbLayerTableRecord
2
COORDINATE
70
0
62
7
6
CONTINUOUS
370
-3
390
F
0
LAYER
5
201
100
AcDbSymbolTableRecord
100
AcDbLayerTableRecord
2
COORD_ORIGINE
70
0
62
7
6
CONTINUOUS
370
-3
390
F
0
LAYER
5
202
100
AcDbSymbolTableRecord
100
AcDbLayerTableRecord
2
COPY_PUBLISH
70
0
62
7
6
CONTINUOUS
370
-3
390
F
0
LAYER
5
203
100
AcDbSymbolTableRecord
100
AcDbLayerTableRecord
2
COSMETIC
70
0
62
7
6
CONTINUOUS
370
-3
390
F
0
LAYER
5
204
100
AcDbSymbolTableRecord
100
AcDbLayerTableRecord
2
CURVE
70
0
62
7
6
CONTINUOUS
370
-3
390
F
0
LAYER
5
205
100
AcDbSymbolTableRecord
100
AcDbLayerTableRecord
2
DRAFT
70
0
62
7
6
CONTINUOUS
370
-3
390
F
0
LAYER
5
206
100
AcDbSymbolTableRecord
100
AcDbLayerTableRecord
2
IMPORT
70
0
62
7
6
CONTINUOUS
370
-3
390
F
0
LAYER
5
207
100
AcDbSymbolTableRecord
100
AcDbLayerTableRecord
2
IMPORT_IGES
70
0
62
7
6
CONTINUOUS
370
-3
390
F
0
LAYER
5
208
100
AcDbSymbolTableRecord
100
AcDbLayerTableRecord
2
INCISIONI_LASER
70
0
62
7
6
CONTINUOUS
370
-3
390
F
0
LAYER
5
209
100
AcDbSymbolTableRecord
100
AcDbLayerTableRecord
2
NOTE
70
0
62
7
6
CONTINUOUS
370
-3
390
F
0
LAYER
5
20A
100
AcDbSymbolTableRecord
100
AcDbLayerTableRecord
2
PIANI
70
0
62
7
6
CONTINUOUS
370
-3
390
F
0
LAYER
5
20B
100
AcDbSymbolTableRecord
100
AcDbLayerTableRecord
2
PIANI_ORIGINE
70
0
62
7
6
CONTINUOUS
370
-3
390
F
0
LAYER
5
20C
100
AcDbSymbolTableRecord
100
AcDbLayerTableRecord
2
PUNTI
70
0
62
7
6
CONTINUOUS
370
-3
390
F
0
LAYER
5
20D
100
AcDbSymbolTableRecord
100
AcDbLayerTableRecord
2
RACCORDO
70
0
62
7
6
CONTINUOUS
370
-3
390
F
0
LAYER
5
20E
100
AcDbSymbolTableRecord
100
AcDbLayerTableRecord
2
SMUSSO
70
0
62
7
6
CONTINUOUS
370
-3
390
F
0
LAYER
5
20F
100
AcDbSymbolTableRecord
100
AcDbLayerTableRecord
2
SNAPLINE
70
0
62
7
6
CONTINUOUS
370
-3
390
F
0
LAYER
5
210
100
AcDbSymbolTableRecord
100
AcDbLayerTableRecord
2
SUPERFICI
70
0
62
7
6
CONTINUOUS
370
-3
390
F
0
LAYER
5
211
100
AcDbSymbolTableRecord
100
AcDbLayerTableRecord
2
TRASH
70
0
62
7
6
CONTINUOUS
370
-3
390
F
0
LAYER
5
212
100
AcDbSymbolTableRecord
100
AcDbLayerTableRecord
2
XSEC_DATUMS
70
0
62
7
6
CONTINUOUS
370
-3
390
F
0
ENDTAB
0
TABLE
2
STYLE
5
3
100
AcDbSymbolTable
70
1
0
STYLE
5
11
100
AcDbSymbolTableRecord
100
AcDbTextStyleTableRecord
2
STANDARD
70
0
40
0.0
41
0.8000000000
50
0.0
71
0
42
0.2
3
txt
4

0
ENDTAB
0
TABLE
2
VIEW
5
6
100
AcDbSymbolTable
70
0
0
ENDTAB
0
TABLE
2
UCS
5
7
100
AcDbSymbolTable
70
0
0
ENDTAB
0
TABLE
2
APPID
5
9
100
AcDbSymbolTable
70
1
0
APPID
5
213
100
AcDbSymbolTableRecord
100
AcDbRegAppTableRecord
2
ACAD
70
0
0
ENDTAB
0
TABLE
2
BLOCK_RECORD
5
1
100
AcDbSymbolTable
70
0
0
BLOCK_RECORD
5
1F
100
AcDbSymbolTableRecord
100
AcDbBlockTableRecord
2
*MODEL_SPACE
0
BLOCK_RECORD
5
1B
100
AcDbSymbolTableRecord
100
AcDbBlockTableRecord
2
*PAPER_SPACE
0
BLOCK_RECORD
5
214
100
AcDbSymbolTableRecord
100
AcDbBlockTableRecord
2
_FILLED
0
BLOCK_RECORD
5
215
100
AcDbSymbolTableRecord
100
AcDbBlockTableRecord
2
*D0
0
BLOCK_RECORD
5
216
100
AcDbSymbolTableRecord
100
AcDbBlockTableRecord
2
*D1
0
BLOCK_RECORD
5
217
100
AcDbSymbolTableRecord
100
AcDbBlockTableRecord
2
*D2
0
ENDTAB
0
TABLE
2
DIMSTYLE
5
A
100
AcDbSymbolTable
70
1
100
AcDbDimStyleTable
71
0
0
DIMSTYLE
105
218
100
AcDbSymbolTableRecord
100
AcDbDimStyleTableRecord
2
STANDARD
70
0
3

4

40
1.0
41
3.0000000000
42
0.0625
43
0.38
44
0.18
45
0.0
46
0.0
47
0.0100000000
48
0.0100000000
140
3.0000000000
141
0.09
142
0.0
143
25.4
144
1.0000000000
145
0.0
146
1.0000000000
147
0.09
71
1
72
0
73
0
74
0
75
0
76
0
77
1
78
8
170
0
171
2
172
0
173
0
174
0
175
0
176
0
177
0
178
0
270
2
271
2
272
2
273
2
274
2
275
0
280
0
281
0
282
0
283
1
284
8
285
0
286
0
287
3
288
0
340
11
341
214
342
214
343
214
344
214
0
DIMSTYLE
105
219
100
AcDbSymbolTableRecord
100
AcDbDimStyleTableRecord
2
DIMSTYLE_1
70
0
3

4

40
1.0
41
3.0000000000
42
0.0625
43
0.38
44
0.18
45
0.0
46
0.0
47
0.0000000000
48
0.0000000000
140
3.0000000000
141
0.09
142
0.0
143
25.4
144
1.0000000000
145
0.0
146
1.0000000000
147
0.09
71
0
72
0
73
0
74
0
75
0
76
0
77
1
78
8
170
0
171
2
172
0
173
0
174
0
175
0
176
0
177
0
178
0
270
2
271
2
272
2
273
2
274
2
275
0
280
0
281
0
282
0
283
1
284
8
285
0
286
0
287
3
288
0
340
11
341
214
342
214
343
214
344
214
0
ENDTAB
0
ENDSEC
0
SECTION
2
BLOCKS
0
BLOCK
5
20
100
AcDbEntity
8
0
100
AcDbBlockBegin
2
*MODEL_SPACE
70
0
10
0.0
20
0.0
30
0.0
3
*MODEL_SPACE
1

0
ENDBLK
5
21
100
AcDbEntity
8
0
100
AcDbBlockEnd
0
BLOCK
5
1C
100
AcDbEntity
8
0
100
AcDbBlockBegin
2
*PAPER_SPACE
70
0
10
0.0
20
0.0
30
0.0
3
*PAPER_SPACE
1

0
ENDBLK
5
1D
100
AcDbEntity
8
0
100
AcDbBlockEnd
0
BLOCK
5
21A
100
AcDbEntity
8
0
100
AcDbBlockBegin
62
0
6
CONTINUOUS
2
*D0
70
65
10
0.0000000000
20
0.0000000000
3
*D0
1

0
TEXT
5
21B
100
AcDbEntity
8
0
100
AcDbText
62
0
6
CONTINUOUS
10
47.1188343808
20
-4.0146679940
7
STANDARD
40
3.0000000000
1
43,7
50
90.0000000000
41
0.7142857143
72
0
100
AcDbText
0
LINE
5
21C
100
AcDbEntity
8
0
100
AcDbLine
62
0
6
CONTINUOUS
10
35.6689562247
20
22.1210462917
11
49.3688343808
21
22.1210462917
0
LINE
5
21D
100
AcDbEntity
8
0
100
AcDbLine
62
0
6
CONTINUOUS
10
35.6689562247
20
-21.5789537083
11
49.3688343808
21
-21.5789537083
0
LINE
5
21E
100
AcDbEntity
8
0
100
AcDbLine
62
0
6
CONTINUOUS
10
47.8688343808
20
22.1210462917
11
47.8688343808
21
0.2710462917
0
LINE
5
21F
100
AcDbEntity
8
0
100
AcDbLine
62
0
6
CONTINUOUS
10
47.8688343808
20
-21.5789537083
11
47.8688343808
21
0.2710462917
0
INSERT
5
220
100
AcDbEntity
8
0
100
AcDbBlockReference
62
0
6
CONTINUOUS
2
_FILLED
10
47.8688343808
20
22.1210462917
41
  3.000000
42
  3.000000
43
  3.000000
50
 90.000000
0
INSERT
5
221
100
AcDbEntity
8
0
100
AcDbBlockReference
62
0
6
CONTINUOUS
2
_FILLED
10
47.8688343808
20
-21.5789537083
41
  3.000000
42
  3.000000
43
  3.000000
50
270.000000
0
ENDBLK
5
222
100
AcDbEntity
8
0
6
BYBLOCK
62
0
100
AcDbBlockEnd
0
BLOCK
5
223
100
AcDbEntity
8
0
100
AcDbBlockBegin
62
0
6
CONTINUOUS
2
*D1
70
65
10
0.0000000000
20
0.0000000000
3
*D1
1

0
TEXT
5
224
100
AcDbEntity
8
0
100
AcDbText
62
0
6
CONTINUOUS
10
20.4759772380
20
31.8594055436
7
STANDARD
40
3.0000000000
1
22,2
41
0.7321428571
72
0
100
AcDbText
0
LINE
5
225
100
AcDbEntity
8
0
100
AcDbLine
62
0
6
CONTINUOUS
10
35.9688343808
20
21.8211681356
11
35.9688343808
21
32.6094055436
0
LINE
5
226
100
AcDbEntity
8
0
100
AcDbLine
62
0
6
CONTINUOUS
10
13.7688343808
20
21.8211681356
11
13.7688343808
21
32.6094055436
0
LINE
5
227
100
AcDbEntity
8
0
100
AcDbLine
62
0
6
CONTINUOUS
10
35.9688343808
20
31.1094055436
11
24.8688343808
21
31.1094055436
0
LINE
5
228
100
AcDbEntity
8
0
100
AcDbLine
62
0
6
CONTINUOUS
10
13.7688343808
20
31.1094055436
11
24.8688343808
21
31.1094055436
0
INSERT
5
229
100
AcDbEntity
8
0
100
AcDbBlockReference
62
0
6
CONTINUOUS
2
_FILLED
10
35.9688343808
20
31.1094055436
41
  3.000000
42
  3.000000
43
  3.000000
0
INSERT
5
22A
100
AcDbEntity
8
0
100
AcDbBlockReference
62
0
6
CONTINUOUS
2
_FILLED
10
13.7688343808
20
31.1094055436
41
  3.000000
42
  3.000000
43
  3.000000
50
180.000000
0
ENDBLK
5
22B
100
AcDbEntity
8
0
6
BYBLOCK
62
0
100
AcDbBlockEnd
0
BLOCK
5
22C
100
AcDbEntity
8
0
100
AcDbBlockBegin
62
0
6
CONTINUOUS
2
*D2
70
65
10
0.0000000000
20
0.0000000000
3
*D2
1

0
TEXT
5
22D
100
AcDbEntity
8
0
100
AcDbText
62
0
6
CONTINUOUS
10
-19.4253639426
20
31.8594055436
7
STANDARD
40
3.0000000000
1
7,9
41
0.7142857143
72
0
100
AcDbText
0
LINE
5
22E
100
AcDbEntity
8
0
100
AcDbLine
62
0
6
CONTINUOUS
10
-12.2610782283
20
22.6210462917
11
-12.2610782283
21
32.6094055436
0
LINE
5
22F
100
AcDbEntity
8
0
100
AcDbLine
62
0
6
CONTINUOUS
10
-20.1610782283
20
0.7710462917
11
-20.1610782283
21
32.6094055436
0
LINE
5
230
100
AcDbEntity
8
0
100
AcDbLine
62
0
6
CONTINUOUS
10
-12.2610782283
20
31.1094055436
11
-8.2610782283
21
31.1094055436
0
LINE
5
231
100
AcDbEntity
8
0
100
AcDbLine
62
0
6
CONTINUOUS
10
-8.2610782283
20
31.1094055436
11
-16.2110782283
21
31.1094055436
0
LINE
5
232
100
AcDbEntity
8
0
100
AcDbLine
62
0
6
CONTINUOUS
10
-20.1610782283
20
31.1094055436
11
-24.1610782283
21
31.1094055436
0
LINE
5
233
100
AcDbEntity
8
0
100
AcDbLine
62
0
6
CONTINUOUS
10
-24.1610782283
20
31.1094055436
11
-16.2110782283
21
31.1094055436
0
INSERT
5
234
100
AcDbEntity
8
0
100
AcDbBlockReference
62
0
6
CONTINUOUS
2
_FILLED
10
-12.2610782283
20
31.1094055436
41
  3.000000
42
  3.000000
43
  3.000000
50
180.000000
0
INSERT
5
235
100
AcDbEntity
8
0
100
AcDbBlockReference
62
0
6
CONTINUOUS
2
_FILLED
10
-20.1610782283
20
31.1094055436
41
  3.000000
42
  3.000000
43
  3.000000
0
ENDBLK
5
236
100
AcDbEntity
8
0
6
BYBLOCK
62
0
100
AcDbBlockEnd
0
BLOCK
5
237
100
AcDbEntity
8
0
100
AcDbBlockBegin
2
_FILLED
70
64
10
0.0000000000
20
0.0000000000
3
_FILLED
1

0
SOLID
5
238
100
AcDbEntity
8
0
6
BYBLOCK
62
0
100
AcDbTrace
10
0.0000000000
20
0.0000000000
11
-1.0000000000
21
0.3166666667
12
-1.0000000000
22
-0.3166666667
13
-1.0000000000
23
-0.3166666667
0
ENDBLK
5
239
100
AcDbEntity
8
0
6
BYBLOCK
62
0
100
AcDbBlockEnd
0
ENDSEC
0
SECTION
2
ENTITIES
0
DIMENSION
5
23A
100
AcDbEntity
8
0
100
AcDbDimension
62
0
6
CONTINUOUS
2
*D0
10
47.8688343808
20
-21.5789537083
11
45.6188343808
21
0.2710462917
70
160
42
43.700000
3
DIMSTYLE_1
100
AcDbAlignedDimension
13
35.6689562247
23
22.1210462917
14
35.6689562247
24
-21.5789537083
50
270.000000
100
AcDbRotatedDimension
0
DIMENSION
5
23B
100
AcDbEntity
8
0
100
AcDbDimension
62
0
6
CONTINUOUS
2
*D1
10
13.7688343808
20
31.1094055436
11
24.8688343808
21
33.3594055436
70
160
42
22.200000
3
DIMSTYLE_1
100
AcDbAlignedDimension
13
35.9688343808
23
21.8211681356
14
13.7688343808
24
21.8211681356
50
180.000000
100
AcDbRotatedDimension
0
DIMENSION
5
23C
100
AcDbEntity
8
0
100
AcDbDimension
62
0
6
CONTINUOUS
2
*D2
10
-20.1610782283
20
31.1094055436
11
-16.2110782283
21
33.3594055436
70
160
42
7.900000
3
DIMSTYLE_1
100
AcDbAlignedDimension
13
-12.2610782283
23
22.6210462917
14
-20.1610782283
24
0.7710462917
50
180.000000
100
AcDbRotatedDimension
0
LINE
5
23D
100
AcDbEntity
8
0
100
AcDbLine
62
0
6
CONTINUOUS
10
14.5687125370
20
-21.5789537083
11
35.1689562247
21
-21.5789537083
0
LINE
5
23E
100
AcDbEntity
8
0
100
AcDbLine
62
9
6
CONTINUOUS
10
35.0687901529
20
-21.4787876365
11
14.6688786088
21
-21.4787876365
0
LINE
5
23F
100
AcDbEntity
8
0
100
AcDbLine
62
9
6
CONTINUOUS
10
35.0568129989
20
-20.0807752012
11
14.6808557628
21
-20.0807752012
0
LINE
5
240
100
AcDbEntity
8
0
100
AcDbLine
62
9
6
CONTINUOUS
10
26.9688343808
20
-17.2924269324
11
22.7688343808
21
-17.2924269324
0
LINE
5
241
100
AcDbEntity
8
0
100
AcDbLine
62
9
6
CONTINUOUS
10
26.9688343808
20
-17.1865876718
11
22.7688343808
21
-17.1865876718
0
LINE
5
242
100
AcDbEntity
8
0
100
AcDbLine
62
9
6
CONTINUOUS
10
22.7688343808
20
-17.0139574918
11
26.9688343808
21
-17.0139574918
0
LINE
5
243
100
AcDbEntity
8
0
100
AcDbLine
62
9
6
CONTINUOUS
10
22.7688343808
20
-16.9197010620
11
26.9688343808
21
-16.9197010620
0
LINE
5
244
100
AcDbEntity
8
ASSI
100
AcDbLine
62
9
6
CONTINUOUS
10
24.6084873808
20
-15.0369557083
11
24.3101143808
21
-15.0369557083
0
LINE
5
245
100
AcDbEntity
8
ASSI
100
AcDbLine
62
9
6
CONTINUOUS
10
23.4323723808
20
-15.0369557083
11
23.1325793808
21
-15.0369557083
0
LINE
5
246
100
AcDbEntity
8
0
100
AcDbLine
62
0
6
CONTINUOUS
10
30.9440702229
20
-14.7289537083
11
30.9288926355
21
-14.7289537083
0
LINE
5
247
100
AcDbEntity
8
0
100
AcDbLine
62
0
6
CONTINUOUS
10
18.8087761261
20
-14.7289537083
11
18.7935985388
21
-14.7289537083
0
LINE
5
248
100
AcDbEntity
8
ASSI
100
AcDbLine
62
9
6
CONTINUOUS
10
22.3822090814
20
-14.6480007083
11
27.3759251923
21
-14.6480007083
0
LINE
5
249
100
AcDbEntity
8
ASSI
100
AcDbLine
62
9
6
CONTINUOUS
10
27.3826623808
20
-14.5031017083
11
22.3752883808
21
-14.5031017083
0
LINE
5
24A
100
AcDbEntity
8
ASSI
100
AcDbLine
62
9
6
CONTINUOUS
10
27.1712833808
20
-14.3481017083
11
22.5866783808
21
-14.3481017083
0
LINE
5
24B
100
AcDbEntity
8
0
100
AcDbLine
62
0
6
CONTINUOUS
10
13.7688343808
20
-20.7790755522
11
13.7688343808
21
21.3211681356
0
LINE
5
24C
100
AcDbEntity
8
0
100
AcDbLine
62
0
6
CONTINUOUS
10
18.7935985388
20
-10.7289537083
11
18.8087761261
21
-10.7289537083
0
LINE
5
24D
100
AcDbEntity
8
0
100
AcDbLine
62
0
6
CONTINUOUS
10
30.9288926355
20
-10.7289537083
11
30.9440702229
21
-10.7289537083
0
LINE
5
24E
100
AcDbEntity
8
0
100
AcDbLine
62
0
6
CONTINUOUS
10
19.0920019452
20
-10.2202048419
11
19.2851319752
21
-10.2202048419
0
LINE
5
24F
100
AcDbEntity
8
0
100
AcDbLine
62
0
6
CONTINUOUS
10
30.4525367864
20
-10.2202048419
11
30.6456963791
21
-10.2202048419
0
LINE
5
250
100
AcDbEntity
8
0
100
AcDbLine
62
9
6
CONTINUOUS
10
35.1689562247
20
22.1210462917
11
35.0687901529
21
22.0208802199
0
LINE
5
251
100
AcDbEntity
8
0
100
AcDbLine
62
9
6
CONTINUOUS
10
26.9688343808
20
-8.5532094336
11
22.7688343808
21
-8.5532094336
0
LINE
5
252
100
AcDbEntity
8
0
100
AcDbLine
62
9
6
CONTINUOUS
10
26.9688343808
20
-8.4502842257
11
22.7688343808
21
-8.4502842257
0
LINE
5
253
100
AcDbEntity
8
0
100
AcDbLine
62
0
6
CONTINUOUS
10
26.9688343808
20
-8.2754632270
11
22.7688343808
21
-8.2754632270
0
LINE
5
254
100
AcDbEntity
8
0
100
AcDbLine
62
9
6
CONTINUOUS
10
22.7688343808
20
-8.2644121230
11
26.9688343808
21
-8.2644121230
0
LINE
5
255
100
AcDbEntity
8
0
100
AcDbLine
62
9
6
CONTINUOUS
10
22.7688343808
20
-8.1672401156
11
26.9688343808
21
-8.1672401156
0
LINE
5
256
100
AcDbEntity
8
0
100
AcDbLine
62
9
6
CONTINUOUS
10
35.0687901529
20
-21.4787876365
11
35.1689562247
21
-21.5789537083
0
LINE
5
257
100
AcDbEntity
8
0
100
AcDbLine
62
0
6
CONTINUOUS
10
18.7932085612
20
-10.7219607700
11
18.7935985388
21
-10.7289537083
0
LINE
5
258
100
AcDbEntity
8
0
100
AcDbLine
62
9
6
CONTINUOUS
10
35.9688343808
20
21.3211681356
11
35.8686683090
21
21.2210020638
0
LINE
5
259
100
AcDbEntity
8
0
100
AcDbLine
62
9
6
CONTINUOUS
10
35.8686683090
20
-20.6789094803
11
35.9688343808
21
-20.7790755522
0
LINE
5
25A
100
AcDbEntity
8
0
100
AcDbLine
62
0
6
CONTINUOUS
10
20.3688343808
20
-16.2968662633
11
20.3688343808
21
-16.4737081687
0
LINE
5
25B
100
AcDbEntity
8
0
100
AcDbLine
62
9
6
CONTINUOUS
10
22.7688343808
20
-8.1672401156
11
22.7688343808
21
-8.2754632270
0
LINE
5
25C
100
AcDbEntity
8
0
100
AcDbLine
62
9
6
CONTINUOUS
10
22.7688343808
20
-16.9197010620
11
22.7688343808
21
-17.0139574918
0
LINE
5
25D
100
AcDbEntity
8
0
100
AcDbLine
62
9
6
CONTINUOUS
10
22.7688343808
20
-8.5532094336
11
22.7688343823
21
-8.4502842257
0
LINE
5
25E
100
AcDbEntity
8
0
100
AcDbLine
62
9
6
CONTINUOUS
10
22.7688343808
20
-17.2924269324
11
22.7688343808
21
-17.1789537083
0
LINE
5
25F
100
AcDbEntity
8
0
100
AcDbLine
62
0
6
CONTINUOUS
10
19.2809955958
20
-10.2289537083
11
19.2851319752
21
-10.2202048419
0
LINE
5
260
100
AcDbEntity
8
0
100
AcDbLine
62
0
6
CONTINUOUS
10
30.4525367864
20
-10.2202048419
11
30.4566731659
21
-10.2289537083
0
LINE
5
261
100
AcDbEntity
8
0
100
AcDbLine
62
9
6
CONTINUOUS
10
26.9688343808
20
-8.5532094336
11
26.9688343808
21
-8.4502842257
0
LINE
5
262
100
AcDbEntity
8
0
100
AcDbLine
62
9
6
CONTINUOUS
10
26.9688343808
20
-17.1789537083
11
26.9688343808
21
-17.2924269324
0
LINE
5
263
100
AcDbEntity
8
0
100
AcDbLine
62
9
6
CONTINUOUS
10
26.9688343808
20
-16.9197010620
11
26.9688343793
21
-17.0139574918
0
LINE
5
264
100
AcDbEntity
8
0
100
AcDbLine
62
9
6
CONTINUOUS
10
26.9688343808
20
-8.1672401156
11
26.9688343808
21
-8.2754632270
0
LINE
5
265
100
AcDbEntity
8
0
100
AcDbLine
62
0
6
CONTINUOUS
10
29.3688343808
20
-16.4737081687
11
29.3688343808
21
-16.2968662633
0
LINE
5
266
100
AcDbEntity
8
0
100
AcDbLine
62
0
6
CONTINUOUS
10
30.9444601138
20
-10.7219623429
11
30.9440702229
21
-10.7289537083
0
LINE
5
267
100
AcDbEntity
8
0
100
AcDbLine
62
9
6
CONTINUOUS
10
13.7688343808
20
-20.7790755522
11
13.8690004527
21
-20.6789094803
0
LINE
5
268
100
AcDbEntity
8
0
100
AcDbLine
62
9
6
CONTINUOUS
10
13.8690004527
20
21.2210020638
11
13.7688343808
21
21.3211681356
0
LINE
5
269
100
AcDbEntity
8
0
100
AcDbLine
62
9
6
CONTINUOUS
10
14.5687125370
20
-21.5789537083
11
14.6688786088
21
-21.4787876365
0
LINE
5
26A
100
AcDbEntity
8
0
100
AcDbLine
62
9
6
CONTINUOUS
10
14.6688786088
20
22.0208802199
11
14.5687125370
21
22.1210462917
0
LINE
5
26B
100
AcDbEntity
8
0
100
AcDbLine
62
0
6
CONTINUOUS
10
35.9688343808
20
-20.7790755522
11
35.9688343808
21
21.3211681356
0
LINE
5
26C
100
AcDbEntity
8
0
100
AcDbLine
62
9
6
CONTINUOUS
10
35.0568129989
20
20.6228677846
11
14.6808557628
21
20.6228677846
0
LINE
5
26D
100
AcDbEntity
8
0
100
AcDbLine
62
9
6
CONTINUOUS
10
35.0687901529
20
22.0208802199
11
14.6688786088
21
22.0208802199
0
LINE
5
26E
100
AcDbEntity
8
0
100
AcDbLine
62
0
6
CONTINUOUS
10
14.5687125370
20
22.1210462917
11
35.1689562247
21
22.1210462917
0
LINE
5
26F
100
AcDbEntity
8
0
100
AcDbLine
62
0
6
CONTINUOUS
10
-17.9995886400
20
-21.4787876365
11
-12.2610782283
21
-21.5789537083
0
LINE
5
270
100
AcDbEntity
8
0
100
AcDbLine
62
9
6
CONTINUOUS
10
-18.6857593333
20
-20.0265036772
11
-19.4699539950
21
-20.0807751729
0
LINE
5
271
100
AcDbEntity
8
0
100
AcDbLine
62
9
6
CONTINUOUS
10
-17.9995886400
20
-20.6789094803
11
-12.2610782283
21
-20.7790755522
0
LINE
5
272
100
AcDbEntity
8
0
100
AcDbLine
62
0
6
CONTINUOUS
10
-12.2610782283
20
-21.5789537083
11
-12.2610782283
21
22.1210462917
0
LINE
5
273
100
AcDbEntity
8
0
100
AcDbLine
62
9
6
CONTINUOUS
10
-18.6857593333
20
20.5685962606
11
-19.4699543708
21
20.6228677819
0
LINE
5
274
100
AcDbEntity
8
0
100
AcDbLine
62
9
6
CONTINUOUS
10
-12.2610782283
20
21.3211681356
11
-17.9995886400
21
21.2210020638
0
LINE
5
275
100
AcDbEntity
8
0
100
AcDbLine
62
0
6
CONTINUOUS
10
-12.2610782283
20
22.1210462917
11
-17.9995886400
21
22.0208802199
0
ARC
5
276
100
AcDbEntity
8
0
100
AcDbCircle
62
0
6
CONTINUOUS
10
22.7688343808
20
-12.7289537083
40
4.2912724675
100
AcDbArc
50
144.3679448432
51
215.6320551568
0
ARC
5
277
100
AcDbEntity
8
0
100
AcDbCircle
62
0
6
CONTINUOUS
10
26.9688343808
20
-12.7289537083
40
4.2912724675
100
AcDbArc
50
324.3679448432
51
35.6320551568
0
ARC
5
278
100
AcDbEntity
8
0
100
AcDbCircle
62
0
6
CONTINUOUS
10
22.7688343808
20
-12.7289537083
40
4.2930179740
100
AcDbArc
50
89.9963039701
51
144.2408799387
0
ARC
5
279
100
AcDbEntity
8
0
100
AcDbCircle
62
0
6
CONTINUOUS
10
26.9688343808
20
-12.7289537083
40
4.3000000000
100
AcDbArc
50
269.9963756459
51
323.7316107101
0
ARC
5
27A
100
AcDbEntity
8
0
100
AcDbCircle
62
0
6
CONTINUOUS
10
22.7688343808
20
-12.7289537083
40
4.3000000000
100
AcDbArc
50
216.2683892899
51
269.9963579683
0
ARC
5
27B
100
AcDbEntity
8
0
100
AcDbCircle
62
0
6
CONTINUOUS
10
26.9688343808
20
-12.7289537083
40
4.2930179740
100
AcDbArc
50
35.7591200613
51
90.0036960346
0
ARC
5
27C
100
AcDbEntity
8
0
100
AcDbCircle
62
0
6
CONTINUOUS
10
26.9688343808
20
-12.7289537083
40
4.4534946176
100
AcDbArc
50
26.7857410370
51
90.0000000000
0
ARC
5
27D
100
AcDbEntity
8
0
100
AcDbCircle
62
0
6
CONTINUOUS
10
22.7688343808
20
-12.7289537083
40
4.4534954039
100
AcDbArc
50
90.0000000000
51
153.2142414002
0
ARC
5
27E
100
AcDbEntity
8
0
100
AcDbCircle
62
0
6
CONTINUOUS
10
22.7688343808
20
-12.7289537083
40
4.4500000000
100
AcDbArc
50
153.2923546979
51
270.0000000000
0
ARC
5
27F
100
AcDbEntity
8
0
100
AcDbCircle
62
0
6
CONTINUOUS
10
26.9688343808
20
-12.7289537083
40
4.4500000000
100
AcDbArc
50
270.0000000000
51
26.7076453021
0
ARC
5
280
100
AcDbEntity
8
0
100
AcDbCircle
62
0
6
CONTINUOUS
10
279.9389217717
20
0.2710462917
40
300.1000000000
100
AcDbArc
50
181.6849899905
51
183.2838944955
0
ARC
5
281
100
AcDbEntity
8
0
100
AcDbCircle
62
0
6
CONTINUOUS
10
-17.9734100304
20
-19.9790160937
40
1.5000000000
100
AcDbArc
50
183.8898991621
51
269.0000000000
0
ARC
5
282
100
AcDbEntity
8
0
100
AcDbCircle
62
0
6
CONTINUOUS
10
279.8389217717
20
0.2710462917
40
300.0000000000
100
AcDbArc
50
176.1101008379
51
183.8898991621
0
ARC
5
283
100
AcDbEntity
8
0
100
AcDbCircle
62
0
6
CONTINUOUS
10
-17.9734100304
20
20.5211086772
40
1.5000000000
100
AcDbArc
50
91.0000000000
51
176.1101008379
0
SPLINE
5
284
100
AcDbEntity
8
0
100
AcDbSpline
62
0
6
CONTINUOUS
70
0
71
3
72
9
73
5
74
3
42
0.0000001000
43
0.0000001000
44
0.0000000001
12
-0.0212091994
22
0.0436162490
32
0.0000000000
13
-0.0206767351
23
0.0438711744
33
0.0000000000
40
0.0000000000
40
0.0000000000
40
0.0000000000
40
0.0000000000
40
0.4999975776
40
1.0000000000
40
1.0000000000
40
1.0000000000
40
1.0000000000
10
19.3019388279
20
-15.2726980400
30
0.0000000000
10
19.2984039785
20
-15.2654287004
30
0.0000000000
10
19.2913784841
20
-15.2508683973
30
0.0000000000
10
19.2844417350
20
-15.2362656061
30
0.0000000000
10
19.2809955958
20
-15.2289537083
30
0.0000000000
11
19.3019388279
21
-15.2726980400
31
0.0000000000
11
19.2914007042
21
-15.2508578459
31
0.0000000000
11
19.2809955958
21
-15.2289537083
31
0.0000000000
0
SPLINE
5
285
100
AcDbEntity
8
0
100
AcDbSpline
62
0
6
CONTINUOUS
70
0
71
3
72
8
73
4
74
2
42
0.0000001000
43
0.0000001000
44
0.0000000001
12
-0.2788631782
22
-0.0000179678
32
0.0000000000
13
-0.2786740195
23
-0.0182255256
33
0.0000000000
40
0.0000000000
40
0.0000000000
40
0.0000000000
40
0.0000000000
40
1.0000000000
40
1.0000000000
40
1.0000000000
40
1.0000000000
10
22.7688343808
20
-8.4502842257
30
0.0000000000
10
22.6758799881
20
-8.4502902149
30
0.0000000000
10
22.5828403998
20
-8.4533397443
30
0.0000000000
10
22.4899490600
20
-8.4594149195
30
0.0000000000
11
22.7688343808
21
-8.4502842257
31
0.0000000000
11
22.4899490600
21
-8.4594149195
31
0.0000000000
0
SPLINE
5
286
100
AcDbEntity
8
0
100
AcDbSpline
62
0
6
CONTINUOUS
70
0
71
3
72
11
73
7
74
5
42
0.0000001000
43
0.0000001000
44
0.0000000001
12
-3.0746715049
22
-0.2010862166
32
0.0000000000
13
-2.1797389344
23
-2.1783929234
33
0.0000000000
40
0.0000000000
40
0.0000000000
40
0.0000000000
40
0.0000000000
40
0.1813572164
40
0.4542627545
40
0.7272050057
40
1.0000000000
40
1.0000000000
40
1.0000000000
40
1.0000000000
10
22.4899490600
20
-8.4594149195
30
0.0000000000
10
22.3040777715
20
-8.4715710650
30
0.0000000000
10
21.8399949347
20
-8.5323631457
30
0.0000000000
10
21.1218150363
20
-8.7499129424
30
0.0000000000
10
20.3763645135
20
-9.1479630620
30
0.0000000000
10
19.9408218488
20
-9.5051859441
30
0.0000000000
10
19.7426145587
20
-9.7032708391
30
0.0000000000
11
22.4899490600
21
-8.4594149195
31
0.0000000000
11
21.9359860991
21
-8.5320823891
31
0.0000000000
11
21.1323569259
21
-8.7754268618
31
0.0000000000
11
20.3915891927
21
-9.1710140846
31
0.0000000000
11
19.7426145587
21
-9.7032708391
31
0.0000000000
0
SPLINE
5
287
100
AcDbEntity
8
0
100
AcDbSpline
62
0
6
CONTINUOUS
70
0
71
3
72
8
73
4
74
2
42
0.0000001000
43
0.0000001000
44
0.0000000001
12
-0.5948151148
22
-0.5944478104
32
0.0000000000
13
-0.4673860533
23
-0.6990951908
33
0.0000000000
40
0.0000000000
40
0.0000000000
40
0.0000000000
40
0.0000000000
40
1.0000000000
40
1.0000000000
40
1.0000000000
40
1.0000000000
10
19.7426145587
20
-9.7032708391
30
0.0000000000
10
19.5443428538
20
-9.9014201092
30
0.0000000000
10
19.3655891096
20
-10.1191037189
30
0.0000000000
10
19.2097937586
20
-10.3521354492
30
0.0000000000
11
19.7426145587
21
-9.7032708391
31
0.0000000000
11
19.2097937586
21
-10.3521354492
31
0.0000000000
0
SPLINE
5
288
100
AcDbEntity
8
0
100
AcDbSpline
62
0
6
CONTINUOUS
70
0
71
3
72
8
73
4
74
2
42
0.0000001000
43
0.0000001000
44
0.0000000001
12
-0.1558060873
22
-0.2330477890
32
0.0000000000
13
-0.1402149236
23
-0.2427505848
33
0.0000000000
40
0.0000000000
40
0.0000000000
40
0.0000000000
40
0.0000000000
40
1.0000000000
40
1.0000000000
40
1.0000000000
40
1.0000000000
10
19.2097937586
20
-10.3521354492
30
0.0000000000
10
19.1578583961
20
-10.4298180455
30
0.0000000000
10
19.1084743178
20
-10.5092062236
30
0.0000000000
10
19.0617360100
20
-10.5901230852
30
0.0000000000
11
19.2097937586
21
-10.3521354492
31
0.0000000000
11
19.0617360100
21
-10.5901230852
31
0.0000000000
0
SPLINE
5
289
100
AcDbEntity
8
0
100
AcDbSpline
62
0
6
CONTINUOUS
70
0
71
3
72
13
73
9
74
7
42
0.0000001000
43
0.0000001000
44
0.0000000001
12
-2.2443711160
22
-3.8856234913
32
0.0000000000
13
2.2451418649
23
-3.8851850594
33
0.0000000000
40
0.0000000000
40
0.0000000000
40
0.0000000000
40
0.0000000000
40
0.1249568751
40
0.3124265154
40
0.4999299497
40
0.6874580445
40
0.8749908808
40
1.0000000000
40
1.0000000000
40
1.0000000000
40
1.0000000000
10
19.0617360100
20
-10.5901230852
30
0.0000000000
10
18.9682528096
20
-10.7519682083
30
0.0000000000
10
18.7609834667
20
-11.1719161463
30
0.0000000000
10
18.5427629233
20
-11.8909126304
30
0.0000000000
10
18.4598655499
20
-12.7322660196
30
0.0000000000
10
18.5428257573
20
-13.5737101323
30
0.0000000000
10
18.7611872257
20
-14.2928873550
30
0.0000000000
10
18.9686054201
20
-14.7129564637
30
0.0000000000
10
19.0621598225
20
-14.8748509845
30
0.0000000000
11
19.0617360100
21
-10.5901230852
31
0.0000000000
11
18.8137961767
21
-11.0925897557
31
0.0000000000
11
18.5698767279
21
-11.8962572112
31
0.0000000000
11
18.4875091923
21
-12.7322285006
31
0.0000000000
11
18.5699406984
21
-13.5683044998
31
0.0000000000
11
18.8140305360
21
-14.3722161077
31
0.0000000000
11
19.0621598225
21
-14.8748509845
31
0.0000000000
0
SPLINE
5
28A
100
AcDbEntity
8
0
100
AcDbSpline
62
0
6
CONTINUOUS
70
0
71
3
72
9
73
5
74
3
42
0.0000001000
43
0.0000001000
44
0.0000000001
12
0.2806278171
22
-0.4856223204
32
0.0000000000
13
0.3416960461
23
-0.4447759635
33
0.0000000000
40
0.0000000000
40
0.0000000000
40
0.0000000000
40
0.0000000000
40
0.5000144942
40
1.0000000000
40
1.0000000000
40
1.0000000000
40
1.0000000000
10
19.0621598225
20
-14.8748509845
30
0.0000000000
10
19.1089324812
20
-14.9557903841
30
0.0000000000
10
19.2077700098
20
-15.1146037625
30
0.0000000000
10
19.3168185647
20
-15.2665875312
30
0.0000000000
10
19.3737662548
20
-15.3407147096
30
0.0000000000
11
19.0621598225
21
-14.8748509845
31
0.0000000000
11
19.2103257795
21
-15.1129008649
31
0.0000000000
11
19.3737662548
21
-15.3407147096
31
0.0000000000
0
SPLINE
5
28B
100
AcDbEntity
8
0
100
AcDbSpline
62
0
6
CONTINUOUS
70
0
71
3
72
12
73
8
74
6
42
0.0000001000
43
0.0000001000
44
0.0000000001
12
2.2186114791
22
-2.8879030632
32
0.0000000000
13
3.6334111565
23
-0.2372451704
33
0.0000000000
40
0.0000000000
40
0.0000000000
40
0.0000000000
40
0.0000000000
40
0.1539820983
40
0.3848401290
40
0.6157183025
40
0.8466766448
40
1.0000000000
40
1.0000000000
40
1.0000000000
40
1.0000000000
10
19.3737662548
20
-15.3407147096
30
0.0000000000
10
19.4876417384
20
-15.4889431674
30
0.0000000000
10
19.7964795265
20
-15.8407905398
30
0.0000000000
10
20.3773056444
20
-16.3168946949
30
0.0000000000
10
21.1227860015
20
-16.7147209784
30
0.0000000000
10
21.8407618382
20
-16.9320354135
30
0.0000000000
10
22.3046975277
20
-16.9927317303
30
0.0000000000
10
22.4903931242
20
-17.0048568055
30
0.0000000000
11
19.3737662548
21
-15.3407147096
31
0.0000000000
11
19.7434620722
21
-15.7618169068
31
0.0000000000
11
20.3926233344
21
-16.2939174900
31
0.0000000000
11
21.1331951695
21
-16.6891613166
31
0.0000000000
11
21.9369447440
21
-16.9323493071
31
0.0000000000
11
22.4903931242
21
-17.0048568055
31
0.0000000000
0
SPLINE
5
28C
100
AcDbEntity
8
0
100
AcDbSpline
62
0
6
CONTINUOUS
70
0
71
3
72
8
73
4
74
2
42
0.0000001000
43
0.0000001000
44
0.0000000001
12
0.2782310073
22
-0.0181672153
32
0.0000000000
13
0.2784192419
23
-0.0000162673
33
0.0000000000
40
0.0000000000
40
0.0000000000
40
0.0000000000
40
0.0000000000
40
1.0000000000
40
1.0000000000
40
1.0000000000
40
1.0000000000
10
22.4903931242
20
-17.0048568055
30
0.0000000000
10
22.5831367933
20
-17.0109125439
30
0.0000000000
10
22.6760279669
20
-17.0139520694
30
0.0000000000
10
22.7688343808
20
-17.0139574918
30
0.0000000000
11
22.4903931242
21
-17.0048568055
31
0.0000000000
11
22.7688343808
21
-17.0139574918
31
0.0000000000
0
SPLINE
5
28D
100
AcDbEntity
8
0
100
AcDbSpline
62
0
6
CONTINUOUS
70
0
71
3
72
9
73
5
74
3
42
0.0000001000
43
0.0000001000
44
0.0000000001
12
-0.0206767351
22
-0.0438711744
32
0.0000000000
13
-0.0212091994
23
-0.0436162490
33
0.0000000000
40
0.0000000000
40
0.0000000000
40
0.0000000000
40
0.0000000000
40
0.5000024224
40
1.0000000000
40
1.0000000000
40
1.0000000000
40
1.0000000000
10
30.4566731659
20
-15.2289537083
30
0.0000000000
10
30.4532270267
20
-15.2362656061
30
0.0000000000
10
30.4462902776
20
-15.2508683973
30
0.0000000000
10
30.4392647832
20
-15.2654287004
30
0.0000000000
10
30.4357299337
20
-15.2726980400
30
0.0000000000
11
30.4566731659
21
-15.2289537083
31
0.0000000000
11
30.4462680574
21
-15.2508578459
31
0.0000000000
11
30.4357299337
21
-15.2726980400
31
0.0000000000
0
SPLINE
5
28E
100
AcDbEntity
8
0
100
AcDbSpline
62
0
6
CONTINUOUS
70
0
71
3
72
8
73
4
74
2
42
0.0000001000
43
0.0000001000
44
0.0000000001
12
0.2785429938
22
0.0000180360
32
0.0000000000
13
0.2783545131
23
0.0181835943
33
0.0000000000
40
0.0000000000
40
0.0000000000
40
0.0000000000
40
0.0000000000
40
1.0000000000
40
1.0000000000
40
1.0000000000
40
1.0000000000
10
26.9688343808
20
-17.0139574918
30
0.0000000000
10
27.0616820454
20
-17.0139514798
30
0.0000000000
10
27.1546146115
20
-17.0109089754
30
0.0000000000
10
27.2473994492
20
-17.0048477773
30
0.0000000000
11
26.9688343808
21
-17.0139574918
31
0.0000000000
11
27.2473994492
21
-17.0048477773
31
0.0000000000
0
SPLINE
5
28F
100
AcDbEntity
8
0
100
AcDbSpline
62
0
6
CONTINUOUS
70
0
71
3
72
12
73
8
74
6
42
0.0000001000
43
0.0000001000
44
0.0000000001
12
3.9125879738
22
0.2555910146
32
0.0000000000
13
2.1806332532
23
3.2593124123
33
0.0000000000
40
0.0000000000
40
0.0000000000
40
0.0000000000
40
0.0000000000
40
0.1423782634
40
0.3566798460
40
0.5711052000
40
0.7854897753
40
1.0000000000
40
1.0000000000
40
1.0000000000
40
1.0000000000
10
27.2473994492
20
-17.0048477773
30
0.0000000000
10
27.4330886095
20
-16.9927175757
30
0.0000000000
10
27.8967867969
20
-16.9320413533
30
0.0000000000
10
28.6145640082
20
-16.7148306076
30
0.0000000000
10
29.3599162695
20
-16.3171962157
30
0.0000000000
10
30.0134726253
20
-15.7816044732
30
0.0000000000
10
30.3711484176
20
-15.3463591945
30
0.0000000000
10
30.5270711273
20
-15.1133072486
30
0.0000000000
11
27.2473994492
21
-17.0048477773
31
0.0000000000
11
27.8008272697
21
-16.9323288504
31
0.0000000000
11
28.6039275112
21
-16.6893870445
31
0.0000000000
11
29.3446235043
21
-16.2941990011
31
0.0000000000
11
29.9938455628
21
-15.7621775605
31
0.0000000000
11
30.5270711273
21
-15.1133072486
31
0.0000000000
0
SPLINE
5
290
100
AcDbEntity
8
0
100
AcDbSpline
62
0
6
CONTINUOUS
70
0
71
3
72
8
73
4
74
2
42
0.0000001000
43
0.0000001000
44
0.0000000001
12
0.1559489793
22
0.2330912102
32
0.0000000000
13
0.1403481275
23
0.2428070869
33
0.0000000000
40
0.0000000000
40
0.0000000000
40
0.0000000000
40
0.0000000000
40
1.0000000000
40
1.0000000000
40
1.0000000000
40
1.0000000000
10
30.5270711273
20
-15.1133072486
30
0.0000000000
10
30.5790541204
20
-15.0356101785
30
0.0000000000
10
30.6284843003
20
-14.9562052496
30
0.0000000000
10
30.6752670095
20
-14.8752695540
30
0.0000000000
11
30.5270711273
21
-15.1133072486
31
0.0000000000
11
30.6752670095
21
-14.8752695540
31
0.0000000000
0
SPLINE
5
291
100
AcDbEntity
8
0
100
AcDbSpline
62
0
6
CONTINUOUS
70
0
71
3
72
13
73
9
74
7
42
0.0000001000
43
0.0000001000
44
0.0000000001
12
2.2456267791
22
3.8850115515
32
0.0000000000
13
-2.2440624818
23
3.8859085102
33
0.0000000000
40
0.0000000000
40
0.0000000000
40
0.0000000000
40
0.0000000000
40
0.1250087340
40
0.3125415971
40
0.5000696828
40
0.6875732062
40
0.8750427769
40
1.0000000000
40
1.0000000000
40
1.0000000000
40
1.0000000000
10
30.6752670095
20
-14.8752695540
30
0.0000000000
10
30.7688413297
20
-14.7133827622
30
0.0000000000
10
30.9763105032
20
-14.2933286422
30
0.0000000000
10
31.1947544445
20
-13.5741606947
30
0.0000000000
10
31.2778043288
20
-12.7327075976
30
0.0000000000
10
31.1949897147
20
-11.8913283645
30
0.0000000000
10
30.9768337706
20
-11.1722953804
30
0.0000000000
10
30.7695989222
20
-10.7523191253
30
0.0000000000
10
30.6761283168
20
-10.5904616798
30
0.0000000000
11
30.6752670095
21
-14.8752695540
31
0.0000000000
11
30.9234567989
21
-14.3726536239
31
0.0000000000
11
31.1676389635
21
-13.5687518983
31
0.0000000000
11
31.2501595358
21
-12.7326673903
31
0.0000000000
11
31.1678742179
21
-11.8966702702
31
0.0000000000
11
30.9240272969
21
-11.0929631082
31
0.0000000000
11
30.6761283168
21
-10.5904616798
31
0.0000000000
0
SPLINE
5
292
100
AcDbEntity
8
0
100
AcDbSpline
62
0
6
CONTINUOUS
70
0
71
3
72
8
73
4
74
2
42
0.0000001000
43
0.0000001000
44
0.0000000001
12
-0.1401956601
22
0.2427684225
32
0.0000000000
13
-0.1557883322
23
0.2330666327
33
0.0000000000
40
0.0000000000
40
0.0000000000
40
0.0000000000
40
0.0000000000
40
1.0000000000
40
1.0000000000
40
1.0000000000
40
1.0000000000
10
30.6761283168
20
-10.5904616798
30
0.0000000000
10
30.6293964301
20
-10.5095388723
30
0.0000000000
10
30.5800185260
20
-10.4301445705
30
0.0000000000
10
30.5280890819
20
-10.3524556930
30
0.0000000000
11
30.6761283168
21
-10.5904616798
31
0.0000000000
11
30.5280890819
21
-10.3524556930
31
0.0000000000
0
SPLINE
5
293
100
AcDbEntity
8
0
100
AcDbSpline
62
0
6
CONTINUOUS
70
0
71
3
72
8
73
4
74
2
42
0.0000001000
43
0.0000001000
44
0.0000000001
12
-0.1557859365
22
0.2330630487
32
0.0000000000
13
-0.1707124065
23
0.2223655482
33
0.0000000000
40
0.0000000000
40
0.0000000000
40
0.0000000000
40
0.0000000000
40
1.0000000000
40
1.0000000000
40
1.0000000000
40
1.0000000000
10
30.5280890819
20
-10.3524556930
30
0.0000000000
10
30.4761604364
20
-10.2747680101
30
0.0000000000
10
30.4216803294
20
-10.1987856990
30
0.0000000000
10
30.3647761939
20
-10.1246638495
30
0.0000000000
11
30.5280890819
21
-10.3524556930
31
0.0000000000
11
30.3647761939
21
-10.1246638495
31
0.0000000000
0
SPLINE
5
294
100
AcDbEntity
8
0
100
AcDbSpline
62
0
6
CONTINUOUS
70
0
71
3
72
8
73
4
74
2
42
0.0000001000
43
0.0000001000
44
0.0000000001
12
-0.3413936012
22
0.4446904409
32
0.0000000000
13
-0.3965020950
23
0.3963263841
33
0.0000000000
40
0.0000000000
40
0.0000000000
40
0.0000000000
40
0.0000000000
40
1.0000000000
40
1.0000000000
40
1.0000000000
40
1.0000000000
10
30.3647761939
20
-10.1246638495
30
0.0000000000
10
30.2509783269
20
-9.9764337026
30
0.0000000000
10
30.1274861185
20
-9.8356440420
30
0.0000000000
10
29.9953187535
20
-9.7035352473
30
0.0000000000
11
30.3647761939
21
-10.1246638495
31
0.0000000000
11
29.9953187535
21
-9.7035352473
31
0.0000000000
0
SPLINE
5
295
100
AcDbEntity
8
0
100
AcDbSpline
62
0
6
CONTINUOUS
70
0
71
3
72
11
73
7
74
5
42
0.0000001000
43
0.0000001000
44
0.0000000001
12
-2.1799288664
22
2.1789628255
32
0.0000000000
13
-3.0752093057
23
0.2010006999
33
0.0000000000
40
0.0000000000
40
0.0000000000
40
0.0000000000
40
0.0000000000
40
0.2727600343
40
0.5456387073
40
0.8186917804
40
1.0000000000
40
1.0000000000
40
1.0000000000
40
1.0000000000
10
29.9953187535
20
-9.7035352473
30
0.0000000000
10
29.7971195961
20
-9.5054239223
30
0.0000000000
10
29.3616088157
20
-9.1481670438
30
0.0000000000
10
28.6160191005
20
-8.7499613206
30
0.0000000000
10
27.8976757129
20
-8.5323476539
30
0.0000000000
10
27.4334097191
20
-8.4715509763
30
0.0000000000
10
27.2475561444
20
-8.4594032833
30
0.0000000000
11
29.9953187535
21
-9.7035352473
31
0.0000000000
11
29.3463584021
21
-9.1712002824
31
0.0000000000
11
28.6056675487
21
-8.7755740376
31
0.0000000000
11
27.8014686721
21
-8.5320399502
31
0.0000000000
11
27.2475561444
21
-8.4594032833
31
0.0000000000
0
SPLINE
5
296
100
AcDbEntity
8
0
100
AcDbSpline
62
0
6
CONTINUOUS
70
0
71
3
72
8
73
4
74
2
42
0.0000001000
43
0.0000001000
44
0.0000000001
12
-0.2785108618
22
0.0182039245
32
0.0000000000
13
-0.2786996874
23
0.0000162170
33
0.0000000000
40
0.0000000000
40
0.0000000000
40
0.0000000000
40
0.0000000000
40
1.0000000000
40
1.0000000000
40
1.0000000000
40
1.0000000000
10
27.2475561444
20
-8.4594032833
30
0.0000000000
10
27.1547191905
20
-8.4533353084
30
0.0000000000
10
27.0617342766
20
-8.4502896313
30
0.0000000000
10
26.9688343808
20
-8.4502842257
30
0.0000000000
11
27.2475561444
21
-8.4594032833
31
0.0000000000
11
26.9688343808
21
-8.4502842257
31
0.0000000000
0
SPLINE
5
297
100
AcDbEntity
8
0
100
AcDbSpline
62
9
6
CONTINUOUS
70
0
71
3
72
8
73
4
74
2
42
0.0000001000
43
0.0000001000
44
0.0000000001
12
0.5453289393
22
0.0000710333
32
0.0000000000
13
0.5418346374
23
0.0711254461
33
0.0000000000
40
0.0000000000
40
0.0000000000
40
0.0000000000
40
0.0000000000
40
1.0000000000
40
1.0000000000
40
1.0000000000
40
1.0000000000
10
26.9688343808
20
-16.9197010620
30
0.0000000000
10
27.1506106939
20
-16.9196773842
30
0.0000000000
10
27.3327205264
20
-16.9077484627
30
0.0000000000
10
27.5133320722
20
-16.8840399807
30
0.0000000000
11
26.9688343808
21
-16.9197010620
31
0.0000000000
11
27.5133320722
21
-16.8840399807
31
0.0000000000
0
SPLINE
5
298
100
AcDbEntity
8
0
100
AcDbSpline
62
9
6
CONTINUOUS
70
0
71
3
72
12
73
8
74
6
42
0.0000001000
43
0.0000001000
44
0.0000000001
12
3.5278926986
22
0.4630987476
32
0.0000000000
13
1.9772749797
23
2.9559945663
33
0.0000000000
40
0.0000000000
40
0.0000000000
40
0.0000000000
40
0.0000000000
40
0.0762414960
40
0.3070480073
40
0.5380007373
40
0.7689247067
40
1.0000000000
40
1.0000000000
40
1.0000000000
40
1.0000000000
10
27.5133320722
20
-16.8840399807
30
0.0000000000
10
27.6029893446
20
-16.8722708669
30
0.0000000000
10
27.9625798913
20
-16.8131827626
30
0.0000000000
10
28.5757835663
20
-16.6275945105
30
0.0000000000
10
29.3038149824
20
-16.2391640661
30
0.0000000000
10
29.9421858091
20
-15.7159073641
30
0.0000000000
10
30.2915452083
20
-15.2906896440
30
0.0000000000
10
30.4438450069
20
-15.0630038736
30
0.0000000000
11
27.5133320722
21
-16.8840399807
31
0.0000000000
11
27.7809721774
21
-16.8400397742
31
0.0000000000
11
28.5653779536
21
-16.6027484757
31
0.0000000000
11
29.2888557920
21
-16.2167036567
31
0.0000000000
11
29.9229964007
21
-15.6969450565
31
0.0000000000
11
30.4438450069
21
-15.0630038736
31
0.0000000000
0
SPLINE
5
299
100
AcDbEntity
8
0
100
AcDbSpline
62
9
6
CONTINUOUS
70
0
71
3
72
8
73
4
74
2
42
0.0000001000
43
0.0000001000
44
0.0000000001
12
0.1521137261
22
0.2274075951
32
0.0000000000
13
0.1369165487
23
0.2368710324
33
0.0000000000
40
0.0000000000
40
0.0000000000
40
0.0000000000
40
0.0000000000
40
1.0000000000
40
1.0000000000
40
1.0000000000
40
1.0000000000
10
30.4438450069
20
-15.0630038736
30
0.0000000000
10
30.4945495823
20
-14.9872013419
30
0.0000000000
10
30.5427672328
20
-14.9097354075
30
0.0000000000
10
30.5884060823
20
-14.8307783967
30
0.0000000000
11
30.4438450069
21
-15.0630038736
31
0.0000000000
11
30.5884060823
21
-14.8307783967
31
0.0000000000
0
SPLINE
5
29A
100
AcDbEntity
8
0
100
AcDbSpline
62
9
6
CONTINUOUS
70
0
71
3
72
13
73
9
74
7
42
0.0000001000
43
0.0000001000
44
0.0000000001
12
2.1944273196
22
3.7964458616
32
0.0000000000
13
-2.1928483073
23
3.7973516391
33
0.0000000000
40
0.0000000000
40
0.0000000000
40
0.0000000000
40
0.0000000000
40
0.1250702767
40
0.3125685882
40
0.5000676929
40
0.6875431967
40
0.8749805748
40
1.0000000000
40
1.0000000000
40
1.0000000000
40
1.0000000000
10
30.5884060823
20
-14.8307783967
30
0.0000000000
10
30.6798919597
20
-14.6725042186
30
0.0000000000
10
30.8826314099
20
-14.2619805857
30
0.0000000000
10
31.0960490532
20
-13.5591986201
30
0.0000000000
10
31.1771780043
20
-12.7370632190
30
0.0000000000
10
31.0962925044
20
-11.9149951545
30
0.0000000000
10
30.8831653245
20
-11.2123360696
30
0.0000000000
10
30.6806584058
20
-10.8018818827
30
0.0000000000
10
30.5892755274
20
-10.6436343096
30
0.0000000000
11
30.5884060823
21
-14.8307783967
31
0.0000000000
11
30.8310367379
21
-14.3393692997
31
0.0000000000
11
31.0695607608
21
-13.5539244107
31
0.0000000000
11
31.1501746685
21
-12.7370251011
31
0.0000000000
11
31.0698040575
21
-11.9202056418
31
0.0000000000
11
30.8316165540
21
-11.1349374002
31
0.0000000000
11
30.5892755274
21
-10.6436343096
31
0.0000000000
0
SPLINE
5
29B
100
AcDbEntity
8
0
100
AcDbSpline
62
9
6
CONTINUOUS
70
0
71
3
72
9
73
5
74
3
42
0.0000001000
43
0.0000001000
44
0.0000000001
12
-0.2735261546
22
0.4736647711
32
0.0000000000
13
-0.3329886497
23
0.4339291860
33
0.0000000000
40
0.0000000000
40
0.0000000000
40
0.0000000000
40
0.0000000000
40
0.5000110753
40
1.0000000000
40
1.0000000000
40
1.0000000000
40
1.0000000000
10
30.5892755274
20
-10.6436343096
30
0.0000000000
10
30.5436868252
20
-10.5646884324
30
0.0000000000
10
30.4473566532
20
-10.4097778319
30
0.0000000000
10
30.3410839536
20
-10.2615110063
30
0.0000000000
10
30.2855870747
20
-10.1891910773
30
0.0000000000
11
30.5892755274
21
-10.6436343096
31
0.0000000000
11
30.4448687774
21
-10.4114354179
31
0.0000000000
11
30.2855870747
21
-10.1891910773
31
0.0000000000
0
SPLINE
5
29C
100
AcDbEntity
8
0
100
AcDbSpline
62
9
6
CONTINUOUS
70
0
71
3
72
12
73
8
74
6
42
0.0000001000
43
0.0000001000
44
0.0000000001
12
-1.9994411315
22
2.6055418506
32
0.0000000000
13
-3.2579706934
23
0.4280195165
33
0.0000000000
40
0.0000000000
40
0.0000000000
40
0.0000000000
40
0.0000000000
40
0.1668744963
40
0.4169257578
40
0.6670684606
40
0.9173565385
40
1.0000000000
40
1.0000000000
40
1.0000000000
40
1.0000000000
10
30.2855870747
20
-10.1891910773
30
0.0000000000
10
30.1743684975
20
-10.0442582493
30
0.0000000000
10
29.8727976347
20
-9.7003329433
30
0.0000000000
10
29.3055152939
20
-9.2348741633
30
0.0000000000
10
28.5772650847
20
-8.8458740896
30
0.0000000000
10
27.9635731088
20
-8.6599350727
30
0.0000000000
10
27.6035040763
20
-8.6007163776
30
0.0000000000
10
27.5137540845
20
-8.5889253728
30
0.0000000000
11
30.2855870747
21
-10.1891910773
31
0.0000000000
11
29.9244724998
21
-9.7774379872
31
0.0000000000
11
29.2905970213
21
-9.2573677174
31
0.0000000000
11
28.5671364933
21
-8.8708863491
31
0.0000000000
11
27.7816687378
21
-8.6330090823
31
0.0000000000
11
27.5137540845
21
-8.5889253728
31
0.0000000000
0
SPLINE
5
29D
100
AcDbEntity
8
0
100
AcDbSpline
62
9
6
CONTINUOUS
70
0
71
3
72
8
73
4
74
2
42
0.0000001000
43
0.0000001000
44
0.0000000001
12
-0.5422507562
22
0.0712387950
32
0.0000000000
13
-0.5457530807
23
0.0000641159
33
0.0000000000
40
0.0000000000
40
0.0000000000
40
0.0000000000
40
0.0000000000
40
1.0000000000
40
1.0000000000
40
1.0000000000
40
1.0000000000
10
27.5137540845
20
-8.5889253728
30
0.0000000000
10
27.3330038324
20
-8.5651791078
30
0.0000000000
10
27.1507520744
20
-8.5532308056
30
0.0000000000
10
26.9688343808
20
-8.5532094336
30
0.0000000000
11
27.5137540845
21
-8.5889253728
31
0.0000000000
11
26.9688343808
21
-8.5532094336
31
0.0000000000
0
SPLINE
5
29E
100
AcDbEntity
8
0
100
AcDbSpline
62
9
6
CONTINUOUS
70
0
71
3
72
8
73
4
74
2
42
0.0000001000
43
0.0000001000
44
0.0000000001
12
-0.5459053009
22
-0.0000708402
32
0.0000000000
13
-0.5423997890
23
-0.0712758985
33
0.0000000000
40
0.0000000000
40
0.0000000000
40
0.0000000000
40
0.0000000000
40
1.0000000000
40
1.0000000000
40
1.0000000000
40
1.0000000000
10
22.7688343808
20
-8.5532094336
30
0.0000000000
10
22.5868659472
20
-8.5532330470
30
0.0000000000
10
22.4045629117
20
-8.5651873655
30
0.0000000000
10
22.2237629821
20
-8.5889459984
30
0.0000000000
11
22.7688343808
21
-8.5532094336
31
0.0000000000
11
22.2237629821
21
-8.5889459984
31
0.0000000000
0
SPLINE
5
29F
100
AcDbEntity
8
0
100
AcDbSpline
62
9
6
CONTINUOUS
70
0
71
3
72
12
73
8
74
6
42
0.0000001000
43
0.0000001000
44
0.0000000001
12
-3.5285469881
22
-0.4636807794
32
0.0000000000
13
-1.9767547039
23
-2.9571895058
33
0.0000000000
40
0.0000000000
40
0.0000000000
40
0.0000000000
40
0.0000000000
40
0.0762945764
40
0.3072187716
40
0.5381875643
40
0.7690477435
40
1.0000000000
40
1.0000000000
40
1.0000000000
40
1.0000000000
10
22.2237629821
20
-8.5889459984
30
0.0000000000
10
22.1340266494
20
-8.6007381079
30
0.0000000000
10
21.7741723800
20
-8.6599313298
30
0.0000000000
10
21.1606777779
20
-8.8457864247
30
0.0000000000
10
20.4325662477
20
-9.2345992079
30
0.0000000000
10
19.7944260042
20
-9.7580743511
30
0.0000000000
10
19.4452849124
20
-10.1833221600
30
0.0000000000
10
19.2931062593
20
-10.4109786897
30
0.0000000000
11
22.2237629821
21
-8.5889459984
31
0.0000000000
11
21.9558895141
21
-8.6330306020
31
0.0000000000
11
21.1709906783
21
-8.8706994401
31
0.0000000000
11
20.4474584587
21
-9.2571106023
31
0.0000000000
11
19.8135650464
21
-9.7770711465
31
0.0000000000
11
19.2931062593
21
-10.4109786897
31
0.0000000000
0
SPLINE
5
2A0
100
AcDbEntity
8
0
100
AcDbSpline
62
9
6
CONTINUOUS
70
0
71
3
72
8
73
4
74
2
42
0.0000001000
43
0.0000001000
44
0.0000000001
12
-0.1519789757
22
-0.2273578159
32
0.0000000000
13
-0.1367919184
23
-0.2368087122
33
0.0000000000
40
0.0000000000
40
0.0000000000
40
0.0000000000
40
0.0000000000
40
1.0000000000
40
1.0000000000
40
1.0000000000
40
1.0000000000
10
19.2931062593
20
-10.4109786897
30
0.0000000000
10
19.2424466007
20
-10.4867646284
30
0.0000000000
10
19.1942722626
20
-10.5642117803
30
0.0000000000
10
19.1486749565
20
-10.6431480177
30
0.0000000000
11
19.2931062593
21
-10.4109786897
31
0.0000000000
11
19.1486749565
21
-10.6431480177
31
0.0000000000
0
SPLINE
5
2A1
100
AcDbEntity
8
0
100
AcDbSpline
62
9
6
CONTINUOUS
70
0
71
3
72
13
73
9
74
7
42
0.0000001000
43
0.0000001000
44
0.0000000001
12
-2.1933137443
22
-3.7969772591
32
0.0000000000
13
2.1937884106
23
-3.7967104840
33
0.0000000000
40
0.0000000000
40
0.0000000000
40
0.0000000000
40
0.0000000000
40
0.1250161177
40
0.3124493013
40
0.4999231035
40
0.6874238252
40
0.8749263728
40
1.0000000000
40
1.0000000000
40
1.0000000000
40
1.0000000000
10
19.1486749565
20
-10.6431480177
30
0.0000000000
10
19.0572751001
20
-10.8013758030
30
0.0000000000
10
18.8547208962
20
-11.2117837030
30
0.0000000000
10
18.6415001455
20
-11.9143839355
30
0.0000000000
10
18.5604918398
20
-12.7364161239
30
0.0000000000
10
18.6414911759
20
-13.5585531111
30
0.0000000000
10
18.8547976569
20
-14.2613671324
30
0.0000000000
10
19.0574735980
20
-14.6719239382
30
0.0000000000
10
19.1489352893
20
-14.8302133888
30
0.0000000000
11
19.1486749565
21
-10.6431480177
31
0.0000000000
11
18.9062777820
21
-11.1343945819
31
0.0000000000
11
18.6679866051
21
-11.9195944414
31
0.0000000000
11
18.5874940454
21
-12.7363773465
31
0.0000000000
11
18.6679792615
21
-13.5532793966
31
0.0000000000
11
18.9063801232
21
-14.3387633122
31
0.0000000000
11
19.1489352893
21
-14.8302133888
31
0.0000000000
0
SPLINE
5
2A2
100
AcDbEntity
8
0
100
AcDbSpline
62
9
6
CONTINUOUS
70
0
71
3
72
9
73
5
74
3
42
0.0000001000
43
0.0000001000
44
0.0000000001
12
0.2737485105
22
-0.4737666744
32
0.0000000000
13
0.3332430351
23
-0.4339851932
33
0.0000000000
40
0.0000000000
40
0.0000000000
40
0.0000000000
40
0.0000000000
40
0.5000212526
40
1.0000000000
40
1.0000000000
40
1.0000000000
40
1.0000000000
10
19.1489352893
20
-14.8302133888
30
0.0000000000
10
19.1945619803
20
-14.9091778575
30
0.0000000000
10
19.2909693541
20
-15.0641188573
30
0.0000000000
10
19.3973246266
20
-15.2124083775
30
0.0000000000
10
19.4528627717
20
-15.2847361685
30
0.0000000000
11
19.1489352893
21
-14.8302133888
31
0.0000000000
11
19.2934606380
21
-15.0624624319
31
0.0000000000
11
19.4528627717
21
-15.2847361685
31
0.0000000000
0
SPLINE
5
2A3
100
AcDbEntity
8
0
100
AcDbSpline
62
9
6
CONTINUOUS
70
0
71
3
72
12
73
8
74
6
42
0.0000001000
43
0.0000001000
44
0.0000000001
12
1.9997684586
22
-2.6043151983
32
0.0000000000
13
3.2572389110
23
-0.4275259492
33
0.0000000000
40
0.0000000000
40
0.0000000000
40
0.0000000000
40
0.0000000000
40
0.1669591478
40
0.4170783129
40
0.6672029370
40
0.9174005955
40
1.0000000000
40
1.0000000000
40
1.0000000000
40
1.0000000000
10
19.4528627717
20
-15.2847361685
30
0.0000000000
10
19.5641559842
20
-15.4296742506
30
0.0000000000
10
19.8658779102
20
-15.7735468998
30
0.0000000000
10
20.4333014895
20
-16.2387934934
30
0.0000000000
10
21.1614608113
20
-16.6274468913
30
0.0000000000
10
21.7748852797
20
-16.8131511236
30
0.0000000000
10
22.1347306235
20
-16.8722795056
30
0.0000000000
10
22.2244126215
20
-16.8840506352
30
0.0000000000
11
19.4528627717
21
-15.2847361685
31
0.0000000000
11
19.8142087148
21
-15.6964837032
31
0.0000000000
11
20.4482859139
21
-16.2163530826
31
0.0000000000
11
21.1716459881
21
-16.6024846888
31
0.0000000000
11
21.9566986482
21
-16.8400398035
31
0.0000000000
11
22.2244126215
21
-16.8840506352
31
0.0000000000
0
SPLINE
5
2A4
100
AcDbEntity
8
0
100
AcDbSpline
62
9
6
CONTINUOUS
70
0
71
3
72
8
73
4
74
2
42
0.0000001000
43
0.0000001000
44
0.0000000001
12
0.5417602431
22
-0.0711082510
32
0.0000000000
13
0.5452528377
23
-0.0000642453
33
0.0000000000
40
0.0000000000
40
0.0000000000
40
0.0000000000
40
0.0000000000
40
1.0000000000
40
1.0000000000
40
1.0000000000
40
1.0000000000
10
22.2244126215
20
-16.8840506352
30
0.0000000000
10
22.4049993692
20
-16.9077533855
30
0.0000000000
10
22.5870834349
20
-16.9196796469
30
0.0000000000
10
22.7688343808
20
-16.9197010620
30
0.0000000000
11
22.2244126215
21
-16.8840506352
31
0.0000000000
11
22.7688343808
21
-16.9197010620
31
0.0000000000
0
SPLINE
5
2A5
100
AcDbEntity
8
ASSI
100
AcDbSpline
62
9
6
CONTINUOUS
70
0
71
3
72
31
73
27
74
25
42
0.0000001000
43
0.0000001000
44
0.0000000001
12
0.0202855427
22
-2.6299714302
32
-0.1343288498
13
0.0202872200
23
2.6301888855
33
0.1343399566
40
0.0000000000
40
0.0000000000
40
0.0000000000
40
0.0000000000
40
0.0250000000
40
0.0500000000
40
0.0750000000
40
0.1000000000
40
0.1500000000
40
0.1750000000
40
0.2000000000
40
0.2500000000
40
0.3000000000
40
0.3500000000
40
0.4000000000
40
0.5000000000
40
0.6000000000
40
0.6500000000
40
0.7000000000
40
0.7500000000
40
0.8000000000
40
0.8250000000
40
0.8500000000
40
0.9000000000
40
0.9250000000
40
0.9500000000
40
0.9750000000
40
1.0000000000
40
1.0000000000
40
1.0000000000
40
1.0000000000
10
23.1325793808
20
-15.0369557083
30
4.0593176309
10
23.1327484270
20
-15.0588721369
30
4.0581982238
10
23.1348161797
20
-15.0984973194
30
4.0561699643
10
23.1429159948
20
-15.1594228095
30
4.0530394150
10
23.1556636614
20
-15.2176134333
30
4.0500375460
10
23.1784614467
20
-15.2926178416
30
4.0461540650
10
23.2093397428
20
-15.3628363376
30
4.0424984873
10
23.2474490068
20
-15.4280360559
30
4.0390881652
10
23.2899559927
20
-15.4895116336
30
4.0358628929
10
23.3526529796
20
-15.5612361173
30
4.0320832710
10
23.4424975784
20
-15.6362677419
30
4.0281087958
10
23.5431879829
20
-15.6959355819
30
4.0249344565
10
23.6817757750
20
-15.7514818553
30
4.0219698379
10
23.8704915826
20
-15.7810711148
30
4.0203843694
10
24.0592124220
20
-15.7515030934
30
4.0219687014
10
24.1978158403
20
-15.6959672035
30
4.0249327713
10
24.2985223816
20
-15.6363017325
30
4.0281069916
10
24.3883823217
20
-15.5612677523
30
4.0320816000
10
24.4510888797
20
-15.4895397802
30
4.0358614129
10
24.4936016968
20
-15.4280614677
30
4.0390868341
10
24.5317162847
20
-15.3628583057
30
4.0424973417
10
24.5625988730
20
-15.2926356330
30
4.0461531416
10
24.5853998636
20
-15.2176262904
30
4.0500368818
10
24.5981493299
20
-15.1594316927
30
4.0530389579
10
24.6062502890
20
-15.0985017314
30
4.0561697383
10
24.6083183207
20
-15.0588739490
30
4.0581981312
10
24.6084873808
20
-15.0369557083
30
4.0593176309
11
23.1325793808
21
-15.0369557083
31
4.0593176309
11
23.1356492107
21
-15.0987452721
31
4.0561552709
11
23.1436906367
21
-15.1589669984
31
4.0530608617
11
23.1563887735
21
-15.2172905471
31
4.0500524224
11
23.1734353763
21
-15.2734679135
31
4.0471439272
11
23.2194696394
21
-15.3787180357
31
4.0416663448
11
23.2479987220
21
-15.4275705383
31
4.0391112964
11
23.2799667965
21
-15.4738014066
31
4.0366860088
11
23.3550876820
21
-15.5593964914
31
4.0321767828
11
23.4443052127
21
-15.6337071111
31
4.0282421518
11
23.5437297228
21
-15.6929342261
31
4.0250929357
11
23.6481608981
21
-15.7349390481
31
4.0228523462
11
23.8704925890
21
-15.7692396586
31
4.0210183295
11
24.0928321721
21
-15.7349623315
31
4.0228511026
11
24.1972748366
21
-15.6929649446
31
4.0250912993
11
24.2967146148
21
-15.6337403143
31
4.0282403896
11
24.3859469766
21
-15.5594278213
31
4.0321751278
11
24.4610793815
21
-15.4738288742
31
4.0366845657
11
24.4930519181
21
-15.4275958615
31
4.0391099699
11
24.5215849711
21
-15.3787408036
31
4.0416651558
11
24.5676256541
21
-15.2734844082
31
4.0471430717
11
24.5846746508
21
-15.2173033586
31
4.0500517603
11
24.5973745787
21
-15.1589757987
31
4.0530604086
11
24.6054171371
21
-15.0987497793
31
4.0561550398
11
24.6084873808
21
-15.0369557083
31
4.0593176309
0
SPLINE
5
2A6
100
AcDbEntity
8
ASSI
100
AcDbSpline
62
9
6
CONTINUOUS
70
0
71
3
72
31
73
27
74
25
42
0.0000001000
43
0.0000001000
44
0.0000000001
12
-0.0201606150
22
-1.5577305030
32
-0.0795628973
13
-0.0201606850
23
1.5577359109
33
0.0795631735
40
0.0000000000
40
0.0000000000
40
0.0000000000
40
0.0000000000
40
0.0250000000
40
0.0500000000
40
0.0750000000
40
0.1000000000
40
0.1500000000
40
0.1750000000
40
0.2000000000
40
0.2500000000
40
0.3000000000
40
0.3500000000
40
0.4000000000
40
0.5000000000
40
0.6000000000
40
0.6500000000
40
0.7000000000
40
0.7500000000
40
0.8000000000
40
0.8250000000
40
0.8500000000
40
0.9000000000
40
0.9250000000
40
0.9500000000
40
0.9750000000
40
1.0000000000
40
1.0000000000
40
1.0000000000
40
1.0000000000
10
24.3101143808
20
-15.0369557083
30
4.0593176309
10
24.3099463757
20
-15.0499367958
30
4.0586546067
10
24.3086023969
20
-15.0734137973
30
4.0574539622
10
24.3036309278
20
-15.1094906100
30
4.0556047344
10
24.2959226292
20
-15.1439423236
30
4.0538346539
10
24.2822249072
20
-15.1883394858
30
4.0515485997
10
24.2637641545
20
-15.2298940201
30
4.0494019465
10
24.2410395009
20
-15.2684703682
30
4.0474035342
10
24.2157219583
20
-15.3048387203
30
4.0455160948
10
24.1784330903
20
-15.3472544798
30
4.0433089842
10
24.1250756427
20
-15.3916059447
30
4.0409939583
10
24.0653306398
20
-15.4268686513
30
4.0391485588
10
23.9831205270
20
-15.4596979342
30
4.0374271730
10
23.8712444235
20
-15.4771736393
30
4.0365086695
10
23.7593681948
20
-15.4596984623
30
4.0374271452
10
23.6771576928
20
-15.4268694377
30
4.0391485176
10
23.6174122878
20
-15.3916067899
30
4.0409939141
10
23.5640544577
20
-15.3472552665
30
4.0433089432
10
23.5267653509
20
-15.3048394201
30
4.0455160584
10
23.5014476629
20
-15.2684710000
30
4.0474035014
10
23.4787228764
20
-15.2298945662
30
4.0494019182
10
23.4602620166
20
-15.1883399281
30
4.0515485769
10
23.4465642144
20
-15.1439426433
30
4.0538346375
10
23.4388558707
20
-15.1094908309
30
4.0556047231
10
23.4338843726
20
-15.0734139070
30
4.0574539566
10
23.4325403865
20
-15.0499368409
30
4.0586546044
10
23.4323723808
20
-15.0369557083
30
4.0593176309
11
24.3101143808
21
-15.0369557083
31
4.0593176309
11
24.3081098134
21
-15.0735573490
31
4.0574459187
11
24.3031747895
21
-15.1092197602
31
4.0556179256
11
24.2954951304
21
-15.1437500166
31
4.0538439106
11
24.2852524185
21
-15.1770033096
31
4.0521317300
11
24.2577276660
21
-15.2392899249
31
4.0489146968
11
24.2407153898
21
-15.2681943687
31
4.0474174058
11
24.2216752146
21
-15.2955436536
31
4.0459981005
11
24.1769979559
21
-15.3461632387
31
4.0433645687
11
24.1240110501
21
-15.3900911516
31
4.0410722294
11
24.0650118762
21
-15.4250951939
31
4.0392409521
11
24.0030654910
21
-15.4499198869
31
4.0379397347
11
23.8712443985
21
-15.4701834629
31
4.0368760654
11
23.7394231094
21
-15.4499204659
31
4.0379397043
11
23.6774764380
21
-15.4250959578
31
4.0392409121
11
23.6184768836
21
-15.3900919773
31
4.0410721862
11
23.5654896080
21
-15.3461640178
31
4.0433645281
11
23.5208120620
21
-15.2955443365
31
4.0459980651
11
23.5017717756
21
-15.2681949983
31
4.0474173731
11
23.4847594003
21
-15.2392904910
31
4.0489146675
11
23.4572344875
21
-15.1770037197
31
4.0521317089
11
23.4469917157
21
-15.1437503352
31
4.0538438942
11
23.4393120116
21
-15.1092199790
31
4.0556179144
11
23.4343769591
21
-15.0735574611
31
4.0574459130
11
23.4323723808
21
-15.0369557083
31
4.0593176309
0
SPLINE
5
2A7
100
AcDbEntity
8
ASSI
100
AcDbSpline
62
9
6
CONTINUOUS
70
0
71
3
72
8
73
4
74
2
42
0.0000001000
43
0.0000001000
44
0.0000000001
12
0.9065585357
22
2.8753655232
32
0.1402377865
13
0.9069409599
23
2.8765784725
33
0.1126491035
40
0.0000000000
40
0.0000000000
40
0.0000000000
40
0.0000000000
40
1.0000000000
40
1.0000000000
40
1.0000000000
40
1.0000000000
10
22.5866783808
20
-14.3481017083
30
4.0937080436
10
22.8888645594
20
-13.3896465339
30
4.1404539725
10
23.1911214287
20
-12.4309671469
30
4.1826027571
10
23.4934350820
20
-11.4721076561
30
4.2201524583
11
22.5866783808
21
-14.3481017083
31
4.0937080436
11
23.4934350820
21
-11.4721076561
31
4.2201524583
0
SPLINE
5
2A8
100
AcDbEntity
8
ASSI
100
AcDbSpline
62
9
6
CONTINUOUS
70
0
71
3
72
8
73
4
74
2
42
0.0000001000
43
0.0000001000
44
0.0000000001
12
0.9066807520
22
-2.8763019306
32
-0.1126409295
13
0.9062984702
23
-2.8750892017
33
-0.1402243097
40
0.0000000000
40
0.0000000000
40
0.0000000000
40
0.0000000000
40
1.0000000000
40
1.0000000000
40
1.0000000000
40
1.0000000000
10
26.2647868197
20
-11.4723840942
30
4.2201416326
10
26.5670137370
20
-12.4311514044
30
4.1825946561
10
26.8691838908
20
-13.3897386410
30
4.1404494802
10
27.1712833808
20
-14.3481017083
30
4.0937080436
11
26.2647868197
21
-11.4723840942
31
4.2201416326
11
27.1712833808
21
-14.3481017083
31
4.0937080436
0
SPLINE
5
2A9
100
AcDbEntity
8
ASSI
100
AcDbSpline
62
9
6
CONTINUOUS
70
0
71
3
72
21
73
17
74
15
42
0.0000001000
43
0.0000001000
44
0.0000000001
12
1.4549401575
22
4.6146879683
32
0.1807148568
13
1.4819130062
23
-4.7011356867
33
-0.1841045609
40
0.0000000000
40
0.0000000000
40
0.0000000000
40
0.0000000000
40
0.0833333333
40
0.1666666667
40
0.2500000000
40
0.3333333333
40
0.4166666667
40
0.4583333333
40
0.5000000000
40
0.5416666667
40
0.5833333333
40
0.6666666667
40
0.7500000000
40
0.8333333333
40
0.9166666667
40
1.0000000000
40
1.0000000000
40
1.0000000000
40
1.0000000000
10
23.4934353697
20
-11.4721077467
30
4.2201524547
10
23.5338503740
20
-11.3439219698
30
4.2251723119
10
23.6241013746
20
-11.1098539593
30
4.2341798809
10
23.8004915326
20
-10.7991182792
30
4.2457963649
10
24.0179634090
20
-10.5429908970
30
4.2551239383
10
24.2743735597
20
-10.3485996618
30
4.2620566565
10
24.5105997964
20
-10.2406357286
30
4.2658480764
10
24.7078897976
20
-10.1924182923
30
4.2675321939
10
24.8567307977
20
-10.1774718169
30
4.2680528718
10
25.0071344863
20
-10.1856990539
30
4.2677663858
10
25.2093189546
20
-10.2271277340
30
4.2663206838
10
25.4531226526
20
-10.3299759803
30
4.2627149102
10
25.7224452601
20
-10.5251439877
30
4.2557679925
10
25.9502744873
20
-10.7874347295
30
4.2462294442
10
26.1314978150
20
-11.1037164287
30
4.2344147307
10
26.2236218500
20
-11.3417972182
30
4.2252556393
10
26.2647861002
20
-11.4723843206
30
4.2201416238
11
23.4934353697
21
-11.4721077467
31
4.2201524547
11
23.6309369841
21
-11.1165816819
31
4.2338640693
11
23.8073384857
21
-10.8082196622
31
4.2454148798
11
24.0244531214
21
-10.5532802548
31
4.2547247957
11
24.2788837819
21
-10.3594054143
31
4.2616594875
11
24.5606147144
21
-10.2317608454
31
4.2661566876
11
24.7080353808
21
-10.1959543926
31
4.2674084589
11
24.8569912458
21
-10.1813341023
31
4.2679183445
11
25.0073402634
21
-10.1895064328
31
4.2676334207
11
25.1581777117
21
-10.2201747237
31
4.2665621996
11
25.4492490143
21
-10.3419343322
31
4.2622782453
11
25.7155296967
21
-10.5363311101
31
4.2553360541
11
25.9425068374
21
-10.7964332224
31
4.2458500833
11
26.1243249358
21
-11.1105230095
31
4.2340940768
11
26.2647861002
21
-11.4723843206
31
4.2201416238
0
SPLINE
5
2AA
100
AcDbEntity
8
ASSI
100
AcDbSpline
62
9
6
CONTINUOUS
70
0
71
3
72
8
73
4
74
2
42
0.0000001000
43
0.0000001000
44
0.0000000001
12
-0.9685697027
22
-3.0719891351
32
-0.1193737711
13
-0.9681333181
23
-3.0706050646
33
-0.1508372654
40
0.0000000000
40
0.0000000000
40
0.0000000000
40
0.0000000000
40
1.0000000000
40
1.0000000000
40
1.0000000000
40
1.0000000000
10
23.2074235553
20
-11.3816811290
30
4.2236799782
10
22.8845669877
20
-12.4056775074
30
4.1838887212
10
22.5617746821
20
-13.4294700674
30
4.1388523668
10
22.2390635761
20
-14.4530050890
30
4.0885732783
11
23.2074235553
21
-11.3816811290
31
4.2236799782
11
22.2390635761
21
-14.4530050890
31
4.0885732783
0
SPLINE
5
2AB
100
AcDbEntity
8
ASSI
100
AcDbSpline
62
9
6
CONTINUOUS
70
0
71
3
72
19
73
15
74
13
42
0.0000001000
43
0.0000001000
44
0.0000000001
12
-1.4533242522
22
4.6094785786
32
0.1791199138
13
-1.4526444574
23
-4.6041435132
33
-0.1789064655
40
0.0000000000
40
0.0000000000
40
0.0000000000
40
0.0000000000
40
0.0833333333
40
0.1666666667
40
0.2500000000
40
0.3333333333
40
0.4166666667
40
0.5000000000
40
0.5833333333
40
0.6666666667
40
0.7500000000
40
0.8333333333
40
0.9166666667
40
1.0000000000
40
1.0000000000
40
1.0000000000
40
1.0000000000
10
26.5505625542
20
-11.3817570038
30
4.2236770298
10
26.5101924360
20
-11.2537159321
30
4.2286525829
10
26.4156811074
20
-11.0056706253
30
4.2381276507
10
26.2237317744
20
-10.6573288217
30
4.2510132540
10
25.9711142648
20
-10.3453968386
30
4.2622002600
10
25.6549034735
20
-10.0963757605
30
4.2708918390
10
25.2829351882
20
-9.9252193014
30
4.2767421161
10
24.8778113909
20
-9.8587870614
30
4.2789844580
10
24.4727222818
20
-9.9259909532
30
4.2767159754
10
24.1012648912
20
-10.0975844986
30
4.2708501226
10
23.7857763610
20
-10.3466362983
30
4.2621563075
10
23.5338612359
20
-10.6580717221
30
4.2509859400
10
23.3423078252
20
-11.0057504596
30
4.2381244069
10
23.2478765276
20
-11.2534652975
30
4.2286621517
10
23.2075252926
20
-11.3813581729
30
4.2236925277
11
26.5505625542
21
-11.3817570038
31
4.2236770298
11
26.4073173841
21
-11.0096249847
31
4.2379064843
11
26.2136204117
21
-10.6633971251
31
4.2507301544
11
25.9605153845
21
-10.3558819894
31
4.2617843555
11
25.6456105578
21
-10.1093531970
31
4.2704182887
11
25.2774092696
21
-9.9426733379
31
4.2761407936
11
24.8778171723
21
-9.8810597500
31
4.2782326539
11
24.4783275682
21
-9.9433892288
31
4.2761164137
11
24.1105930346
21
-10.1104942077
31
4.2703787955
11
23.7963719285
21
-10.3570335690
31
4.2617435488
11
23.5439215216
21
-10.6641122744
31
4.2507040791
11
23.3506255692
21
-11.0097327128
31
4.2379024320
11
23.2075252926
21
-11.3813581729
31
4.2236925277
0
SPLINE
5
2AC
100
AcDbEntity
8
ASSI
100
AcDbSpline
62
9
6
CONTINUOUS
70
0
71
3
72
8
73
4
74
2
42
0.0000001000
43
0.0000001000
44
0.0000000001
12
-0.9681639857
22
3.0707057604
32
0.1508440251
13
-0.9686004026
23
3.0720899350
33
0.1193784658
40
0.0000000000
40
0.0000000000
40
0.0000000000
40
0.0000000000
40
1.0000000000
40
1.0000000000
40
1.0000000000
40
1.0000000000
10
27.5189534318
20
-14.4531816469
30
4.0885646052
10
27.1962321032
20
-13.4296130601
30
4.1388459469
10
26.8734295689
20
-12.4057869148
30
4.1838842104
10
26.5505627681
20
-11.3817569364
30
4.2236770324
11
27.5189534318
21
-14.4531816469
31
4.0885646052
11
26.5505627681
21
-11.3817569364
31
4.2236770324
0
SPLINE
5
2AD
100
AcDbEntity
8
ASSI
100
AcDbSpline
62
9
6
CONTINUOUS
70
0
71
3
72
27
73
23
74
21
42
0.0000001000
43
0.0000001000
44
0.0000000001
12
0.2769441615
22
0.0000000000
32
0.0000000000
13
-0.0842435422
23
0.2688791900
33
0.0132083689
40
0.0000000000
40
0.0000000000
40
0.0000000000
40
0.0000000000
40
0.0208333333
40
0.0416666667
40
0.0625000000
40
0.0833333333
40
0.1250000000
40
0.1666666667
40
0.2083333333
40
0.2500000000
40
0.3333333333
40
0.5000000000
40
0.6666666667
40
0.7500000000
40
0.7916666667
40
0.8333333333
40
0.8750000000
40
0.9166666667
40
0.9375000000
40
0.9583333333
40
0.9791666667
40
1.0000000000
40
1.0000000000
40
1.0000000000
40
1.0000000000
10
27.3759251923
20
-14.6479995777
30
4.0789309866
10
27.3778484156
20
-14.6479995777
30
4.0789309866
10
27.3813323503
20
-14.6478792991
30
4.0789369735
10
27.3868343888
20
-14.6473532929
30
4.0789631550
10
27.3922175659
20
-14.6465006329
30
4.0790055935
10
27.3993458663
20
-14.6449557163
30
4.0790824817
10
27.4080684425
20
-14.6423130747
30
4.0792139864
10
27.4181939730
20
-14.6381613706
30
4.0794205344
10
27.4279492519
20
-14.6331642729
30
4.0796690640
10
27.4404759305
20
-14.6254947387
30
4.0800503669
10
27.4610010819
20
-14.6098699089
30
4.0808267334
10
27.4876672139
20
-14.5809859721
30
4.0822599165
10
27.5075200520
20
-14.5469258295
30
4.0839454312
10
27.5165136697
20
-14.5225154239
30
4.0851507921
10
27.5202076558
20
-14.5081340576
30
4.0858601633
10
27.5221418541
20
-14.4972060572
30
4.0863987955
10
27.5231438216
20
-14.4861547372
30
4.0869430999
10
27.5230945652
20
-14.4769015173
30
4.0873984999
10
27.5224504623
20
-14.4695188466
30
4.0877616342
10
27.5216549709
20
-14.4640365514
30
4.0880311937
10
27.5205010392
20
-14.4585360562
30
4.0883015450
10
27.5195609230
20
-14.4551195658
30
4.0884694073
10
27.5189758984
20
-14.4532523492
30
4.0885611321
11
27.3759251923
21
-14.6479995777
31
4.0789309866
11
27.3813783730
21
-14.6478217011
31
4.0789398403
11
27.3868145786
21
-14.6472988506
31
4.0789658645
11
27.3922114073
21
-14.6464496284
31
4.0790081315
11
27.3975512713
21
-14.6452945124
31
4.0790656193
11
27.4080115157
21
-14.6421496523
31
4.0792221101
11
27.4181322644
21
-14.6380204716
31
4.0794275313
11
27.4278892069
21
-14.6330384307
31
4.0796753052
11
27.4372777591
21
-14.6273072106
31
4.0799602357
11
27.4549597187
21
-14.6138966292
31
4.0806265203
11
27.4863045551
21
-14.5799507309
31
4.0823103828
11
27.5096226695
21
-14.5398973035
31
4.0842922487
11
27.5173167309
21
-14.5188840354
31
4.0853298511
11
27.5200682739
21
-14.5081103950
31
4.0858612639
11
27.5219864823
21
-14.4971855040
31
4.0863997409
11
27.5229669758
21
-14.4861459799
31
4.0869434625
11
27.5228831480
21
-14.4750575084
31
4.0874891846
11
27.5223983933
21
-14.4695279646
31
4.0877611690
11
27.5215952308
21
-14.4640335181
31
4.0880313257
11
27.5204583321
21
-14.4585986828
31
4.0882984520
11
27.5189758984
21
-14.4532523492
31
4.0885611321
0
SPLINE
5
2AE
100
AcDbEntity
8
ASSI
100
AcDbSpline
62
9
6
CONTINUOUS
70
0
71
3
72
27
73
23
74
21
42
0.0000001000
43
0.0000001000
44
0.0000000001
12
-0.0836174204
22
-0.2652073504
32
-0.0130277750
13
0.2813813604
23
0.0000000000
33
0.0000000000
40
0.0000000000
40
0.0000000000
40
0.0000000000
40
0.0000000000
40
0.0208333333
40
0.0416666667
40
0.0625000000
40
0.0833333333
40
0.1250000000
40
0.1666666667
40
0.2083333333
40
0.2500000000
40
0.3333333333
40
0.5000000000
40
0.6666666667
40
0.7500000000
40
0.7916666667
40
0.8333333333
40
0.8750000000
40
0.9166666667
40
0.9375000000
40
0.9583333333
40
0.9791666667
40
1.0000000000
40
1.0000000000
40
1.0000000000
40
1.0000000000
10
22.2390639290
20
-14.4530051999
30
4.0885732729
10
22.2384832524
20
-14.4548469176
30
4.0884828022
10
22.2375469693
20
-14.4582200256
30
4.0883170747
10
22.2363919729
20
-14.4636476549
30
4.0880503111
10
22.2355871953
20
-14.4690595979
30
4.0877842184
10
22.2349215980
20
-14.4763504483
30
4.0874256126
10
22.2348304748
20
-14.4854966716
30
4.0869754968
10
22.2357660482
20
-14.4964367077
30
4.0864366998
10
22.2376243255
20
-14.5072728489
30
4.0859026250
10
22.2412114126
20
-14.5215588211
30
4.0851980024
10
22.2500176108
20
-14.5458720030
30
4.0839975248
10
22.2696643272
20
-14.5799979272
30
4.0823088826
10
22.2962768410
20
-14.6091287190
30
4.0808635383
10
22.3168938360
20
-14.6249919997
30
4.0800753542
10
22.3295142417
20
-14.6328042962
30
4.0796869644
10
22.3393619228
20
-14.6379071333
30
4.0794331811
10
22.3496027431
20
-14.6421572943
30
4.0792217378
10
22.3584400614
20
-14.6448692760
30
4.0790867835
10
22.3656699924
20
-14.6464570475
30
4.0790077628
10
22.3711327657
20
-14.6473341765
30
4.0789641065
10
22.3767193577
20
-14.6478756863
30
4.0789371533
10
22.3802550442
20
-14.6479995777
30
4.0789309866
10
22.3822090814
20
-14.6479995777
30
4.0789309866
11
22.2390639290
21
-14.4530051999
31
4.0885732729
11
22.2375885407
21
-14.4582813535
31
4.0883140460
11
22.2364503427
21
-14.4636450405
31
4.0880504229
11
22.2356381252
21
-14.4690689637
31
4.0877837415
11
22.2351373889
21
-14.4745299130
31
4.0875151401
11
22.2350046283
21
-14.4854907663
31
4.0869757205
11
22.2359198322
21
-14.4964193919
31
4.0864374868
11
22.2377629985
21
-14.5072525719
31
4.0859035596
11
22.2404350597
21
-14.5179546009
31
4.0853757110
11
22.2479726497
21
-14.5388849001
31
4.0843422734
11
22.2710574867
21
-14.5789989007
31
4.0823575422
11
22.3023567668
21
-14.6132298208
31
4.0806596340
11
22.3201188762
21
-14.6268407042
31
4.0799834235
11
22.3295779711
21
-14.6326782320
31
4.0796932159
11
22.3394274460
21
-14.6377650206
31
4.0794402378
11
22.3496634034
21
-14.6419913305
31
4.0792299875
11
22.3602608838
21
-14.6452177344
31
4.0790694402
11
22.3656767132
21
-14.6464047642
31
4.0790103644
11
22.3711534022
21
-14.6472782399
31
4.0789668904
11
22.3766721807
21
-14.6478164075
31
4.0789401038
11
22.3822090814
21
-14.6479995777
31
4.0789309866
0
SPLINE
5
2AF
100
AcDbEntity
8
ASSI
100
AcDbSpline
62
9
6
CONTINUOUS
70
0
71
3
72
27
73
23
74
21
42
0.0000001000
43
0.0000001000
44
0.0000000001
12
-0.4759288383
22
-1.6200059319
32
-0.0835837128
13
-0.4768874839
23
1.6137542580
33
0.0832659999
40
0.0000000000
40
0.0000000000
40
0.0000000000
40
0.0000000000
40
0.0312500000
40
0.0625000000
40
0.0937500000
40
0.1250000000
40
0.1875000000
40
0.2187500000
40
0.2500000000
40
0.3125000000
40
0.3750000000
40
0.4375000000
40
0.5000000000
40
0.6250000000
40
0.6875000000
40
0.7500000000
40
0.8125000000
40
0.8750000000
40
0.9062500000
40
0.9375000000
40
0.9687500000
40
1.0000000000
40
1.0000000000
40
1.0000000000
40
1.0000000000
10
24.4327995444
20
-15.1919541688
30
4.0513607189
10
24.4278419524
20
-15.2088292306
30
4.0504900552
10
24.4175825012
20
-15.2387278763
30
4.0489448842
10
24.3979284833
20
-15.2838457852
30
4.0466065569
10
24.3752645712
20
-15.3258219696
30
4.0444247899
10
24.3410553476
20
-15.3785963346
30
4.0416746458
10
24.3015134612
20
-15.4259786868
30
4.0391960450
10
24.2572502037
20
-15.4679517042
30
4.0369937831
10
24.2102580037
20
-15.5060718573
30
4.0349898501
10
24.1446691384
20
-15.5477448308
30
4.0327931359
10
24.0562472052
20
-15.5855964153
30
4.0307921425
10
23.9624634133
20
-15.6083131328
30
4.0295889237
10
23.8398017368
20
-15.6179261536
30
4.0290791376
10
23.7139575833
20
-15.5983221321
30
4.0301192947
10
23.5954725325
20
-15.5476869074
30
4.0327962164
10
23.5170240340
20
-15.4977934407
30
4.0354262206
10
23.4488522065
20
-15.4379703009
30
4.0385687110
10
23.3993984401
20
-15.3788071445
30
4.0416636300
10
23.3652643907
20
-15.3262107824
30
4.0444045475
10
23.3426298605
20
-15.2843812183
30
4.0465787588
10
23.3229895455
20
-15.2394345011
30
4.0489083057
10
23.3127249588
20
-15.2096606485
30
4.0504471067
10
23.3077573808
20
-15.1928507083
30
4.0513144609
11
24.4327995444
21
-15.1919541688
31
4.0513607189
11
24.4168716943
21
-15.2387728664
31
4.0489414557
11
24.3974268343
21
-15.2833221644
31
4.0466326503
11
24.3747657369
21
-15.3254227345
31
4.0444446497
11
24.3491632650
21
-15.3649534089
31
4.0423848104
11
24.2900541992
21
-15.4360211633
31
4.0386685078
11
24.2569090859
21
-15.4674700962
31
4.0370185742
11
24.2215494793
21
-15.4961433378
31
4.0355113802
11
24.1430499226
21
-15.5457188335
31
4.0328989799
11
24.0553535621
21
-15.5830739375
31
4.0309251049
11
23.9627613357
21
-15.6057286408
31
4.0297257369
11
23.8702019495
21
-15.6130881449
31
4.0293357461
11
23.6849495792
21
-15.5830773923
31
4.0309249222
11
23.5972084141
21
-15.5457007327
31
4.0328999352
11
23.5187368125
21
-15.4961384952
31
4.0355116349
11
23.4503234244
21
-15.4361081929
31
4.0386639464
11
23.3913173414
21
-15.3652192342
31
4.0423709413
11
23.3657587252
21
-15.3258137336
31
4.0444243014
11
23.3431288964
21
-15.2838616928
31
4.0466046481
11
23.3236967847
21
-15.2394821575
31
4.0489047481
11
23.3077573808
21
-15.1928507083
31
4.0513144609
0
SPLINE
5
2B0
100
AcDbEntity
8
ASSI
100
AcDbSpline
62
9
6
CONTINUOUS
70
0
71
3
72
8
73
4
74
2
42
0.0000001000
43
0.0000001000
44
0.0000000001
12
0.9702161826
22
3.0772705468
32
0.1516802589
13
0.9706560166
23
3.0786655844
33
0.1200797163
40
0.0000000000
40
0.0000000000
40
0.0000000000
40
0.0000000000
40
1.0000000000
40
1.0000000000
40
1.0000000000
40
1.0000000000
10
22.3752883808
20
-14.5031017083
30
4.0861081866
10
22.6986937750
20
-13.4773448593
30
4.1366682729
10
23.0221809989
20
-12.4513284683
30
4.1819627957
10
23.3457330044
20
-11.4251066068
30
4.2219893678
11
22.3752883808
21
-14.5031017083
31
4.0861081866
11
23.3457330044
21
-11.4251066068
31
4.2219893678
0
SPLINE
5
2B1
100
AcDbEntity
8
ASSI
100
AcDbSpline
62
9
6
CONTINUOUS
70
0
71
3
72
8
73
4
74
2
42
0.0000001000
43
0.0000001000
44
0.0000000001
12
0.9702657006
22
-3.0780127990
32
-0.1200609631
13
0.9698261258
23
-3.0766183182
33
-0.1516481102
40
0.0000000000
40
0.0000000000
40
0.0000000000
40
0.0000000000
40
1.0000000000
40
1.0000000000
40
1.0000000000
40
1.0000000000
10
26.4126079507
20
-11.4257591310
30
4.2219639161
10
26.7360298509
20
-12.4517633973
30
4.1819435951
10
27.0593870056
20
-13.4775622689
30
4.1366575567
10
27.3826623808
20
-14.5031017083
30
4.0861081866
11
26.4126079507
21
-11.4257591310
31
4.2219639161
11
27.3826623808
21
-14.5031017083
31
4.0861081866
0
SPLINE
5
2B2
100
AcDbEntity
8
ASSI
100
AcDbSpline
62
9
6
CONTINUOUS
70
0
71
3
72
25
73
21
74
19
42
0.0000001000
43
0.0000001000
44
0.0000000001
12
1.3375649072
22
4.2385741933
32
0.1653150109
13
1.3396826247
23
-4.2499289240
33
-0.1657727248
40
0.0000000000
40
0.0000000000
40
0.0000000000
40
0.0000000000
40
0.0833333333
40
0.1666666667
40
0.2500000000
40
0.2916666667
40
0.3333333333
40
0.3750000000
40
0.4166666667
40
0.4583333333
40
0.5000000000
40
0.5416666667
40
0.5833333333
40
0.6250000000
40
0.6666666667
40
0.7083333333
40
0.7500000000
40
0.8333333333
40
0.9166666667
40
1.0000000000
40
1.0000000000
40
1.0000000000
40
1.0000000000
10
23.3458569453
20
-11.4247130544
30
4.2220047175
10
23.3830115261
20
-11.3069748824
30
4.2265968012
10
23.4700042418
20
-11.0781754633
30
4.2353819563
10
23.6432952345
20
-10.7546434332
30
4.2474436787
10
23.8327651315
20
-10.5089744047
30
4.2563433178
10
24.0143212807
20
-10.3414114763
30
4.2623042682
10
24.1648186226
20
-10.2346859581
30
4.2660593226
10
24.3301514939
20
-10.1506463182
30
4.2689890667
10
24.5073571159
20
-10.0915103262
30
4.2710364764
10
24.6904049523
20
-10.0564527854
30
4.2722447822
10
24.8771687291
20
-10.0446211188
30
4.2726516559
10
25.0642278096
20
-10.0560057138
30
4.2722601656
10
25.2477541430
20
-10.0907225786
30
4.2710636772
10
25.4255334548
20
-10.1496271392
30
4.2690244660
10
25.5914937291
20
-10.2335761451
30
4.2660981937
10
25.7425160944
20
-10.3403608967
30
4.2623414583
10
25.9246726554
20
-10.5081675859
30
4.2563723870
10
26.1145892233
20
-10.7542210059
30
4.2474593862
10
26.2882325393
20
-11.0783478763
30
4.2353756935
10
26.3753939062
20
-11.3077057506
30
4.2265687062
10
26.4126073124
20
-11.4257593319
30
4.2219639083
11
23.3458569453
21
-11.4247130544
31
4.2220047175
11
23.4771378950
21
-11.0814533130
31
4.2351959546
11
23.6523073818
21
-10.7594316325
31
4.2472133194
11
23.8806525214
21
-10.4694980305
31
4.2577369920
11
24.0167096524
21
-10.3445692560
31
4.2621849918
11
24.1672912109
21
-10.2384669378
31
4.2659217709
11
24.3321302857
21
-10.1547969262
31
4.2688420110
11
24.5083308183
21
-10.0955234014
31
4.2708966258
11
24.6910242757
21
-10.0603237644
31
4.2721112102
11
24.8772179464
21
-10.0484904957
31
4.2725185952
11
25.0636390184
21
-10.0598944254
31
4.2721259992
11
25.2467963061
21
-10.0947538612
31
4.2709232234
11
25.4235636152
21
-10.1538012134
31
4.2688766225
11
25.5890040776
21
-10.2373821028
31
4.2659597832
11
25.7401152703
21
-10.3435392743
31
4.2622214470
11
25.8766149062
21
-10.4686355842
31
4.2577678774
11
26.1055464624
21
-10.7590314670
31
4.2472280376
11
26.2810823284
21
-11.0816661998
31
4.2351878954
11
26.4126073124
21
-11.4257593319
31
4.2219639083
0
SPLINE
5
2B3
100
AcDbEntity
8
0
100
AcDbSpline
62
0
6
CONTINUOUS
70
0
71
3
72
15
73
11
74
9
42
0.0000001000
43
0.0000001000
44
0.0000000001
12
-1.2544455271
22
0.0000000000
32
0.0000000000
13
0.0000000000
23
1.2544455271
33
0.0000000000
40
0.0000000000
40
0.0000000000
40
0.0000000000
40
0.0000000000
40
0.1249999808
40
0.2499998108
40
0.3750000468
40
0.5000001769
40
0.6250002546
40
0.7500003661
40
0.8750000750
40
1.0000000000
40
1.0000000000
40
1.0000000000
40
1.0000000000
10
14.5687125370
20
-21.5789537083
30
0.0000000000
10
14.5164439814
20
-21.5789537083
30
0.0000000000
10
14.4116172985
20
-21.5686442751
30
0.0000000000
10
14.2606432131
20
-21.5228402516
30
0.0000000000
10
14.1214447928
20
-21.4484523177
30
0.0000000000
10
13.9994524412
20
-21.3483353615
30
0.0000000000
10
13.8993355819
20
-21.2263429993
30
0.0000000000
10
13.8249477605
20
-21.0871446634
30
0.0000000000
10
13.7791438021
20
-20.9361706929
30
0.0000000000
10
13.7688343808
20
-20.8313440844
30
0.0000000000
10
13.7688343808
20
-20.7790755522
30
0.0000000000
11
14.5687125370
21
-21.5789537083
31
0.0000000000
11
14.4126615819
21
-21.5635876239
31
0.0000000000
11
14.2626059906
21
-21.5180763359
31
0.0000000000
11
14.1243124502
21
-21.4441641296
31
0.0000000000
11
14.0030983343
21
-21.3446894395
31
0.0000000000
11
13.9036237484
21
-21.2234753230
31
0.0000000000
11
13.8297116679
21
-21.0851818925
31
0.0000000000
11
13.7842004515
21
-20.9351264382
31
0.0000000000
11
13.7688343808
21
-20.7790755522
31
0.0000000000
0
SPLINE
5
2B4
100
AcDbEntity
8
0
100
AcDbSpline
62
0
6
CONTINUOUS
70
0
71
3
72
15
73
11
74
9
42
0.0000001000
43
0.0000001000
44
0.0000000001
12
0.0000000000
22
1.2544455271
32
0.0000000000
13
1.2544455271
23
0.0000000000
33
0.0000000000
40
0.0000000000
40
0.0000000000
40
0.0000000000
40
0.0000000000
40
0.1249999808
40
0.2499998108
40
0.3750000468
40
0.5000001769
40
0.6250002546
40
0.7500003661
40
0.8750000750
40
1.0000000000
40
1.0000000000
40
1.0000000000
40
1.0000000000
10
13.7688343808
20
21.3211681356
30
0.0000000000
10
13.7688343808
20
21.3734366912
30
0.0000000000
10
13.7791438140
20
21.4782633741
30
0.0000000000
10
13.8249478375
20
21.6292374594
30
0.0000000000
10
13.8993357714
20
21.7684358797
30
0.0000000000
10
13.9994527276
20
21.8904282313
30
0.0000000000
10
14.1214450898
20
21.9905450907
30
0.0000000000
10
14.2606434257
20
22.0649329121
30
0.0000000000
10
14.4116173962
20
22.1107368704
30
0.0000000000
10
14.5164440047
20
22.1210462917
30
0.0000000000
10
14.5687125370
20
22.1210462917
30
0.0000000000
11
13.7688343808
21
21.3211681356
31
0.0000000000
11
13.7842004652
21
21.4772190907
31
0.0000000000
11
13.8297117532
21
21.6272746819
31
0.0000000000
11
13.9036239595
21
21.7655682224
31
0.0000000000
11
14.0030986496
21
21.8867823383
31
0.0000000000
11
14.1243127661
21
21.9862569241
31
0.0000000000
11
14.2626061966
21
22.0601690047
31
0.0000000000
11
14.4126616509
21
22.1056802210
31
0.0000000000
11
14.5687125370
21
22.1210462917
31
0.0000000000
0
SPLINE
5
2B5
100
AcDbEntity
8
0
100
AcDbSpline
62
0
6
CONTINUOUS
70
0
71
3
72
15
73
11
74
9
42
0.0000001000
43
0.0000001000
44
0.0000000001
12
0.0000000000
22
-1.2544455271
32
0.0000000000
13
-1.2544455271
23
0.0000000000
33
0.0000000000
40
0.0000000000
40
0.0000000000
40
0.0000000000
40
0.0000000000
40
0.1249999808
40
0.2499998108
40
0.3750000468
40
0.5000001769
40
0.6250002546
40
0.7500003661
40
0.8750000750
40
1.0000000000
40
1.0000000000
40
1.0000000000
40
1.0000000000
10
35.9688343808
20
-20.7790755522
30
0.0000000000
10
35.9688343808
20
-20.8313441077
30
0.0000000000
10
35.9585249476
20
-20.9361707906
30
0.0000000000
10
35.9127209242
20
-21.0871448760
30
0.0000000000
10
35.8383329902
20
-21.2263432963
30
0.0000000000
10
35.7382160340
20
-21.3483356479
30
0.0000000000
10
35.6162236719
20
-21.4484525072
30
0.0000000000
10
35.4770253360
20
-21.5228403286
30
0.0000000000
10
35.3260513655
20
-21.5686442870
30
0.0000000000
10
35.2212247570
20
-21.5789537083
30
0.0000000000
10
35.1689562247
20
-21.5789537083
30
0.0000000000
11
35.9688343808
21
-20.7790755522
31
0.0000000000
11
35.9534682964
21
-20.9351265072
31
0.0000000000
11
35.9079570084
21
-21.0851820985
31
0.0000000000
11
35.8340448022
21
-21.2234756389
31
0.0000000000
11
35.7345701121
21
-21.3446897548
31
0.0000000000
11
35.6133559956
21
-21.4441643407
31
0.0000000000
11
35.4750625650
21
-21.5180764212
31
0.0000000000
11
35.3250071108
21
-21.5635876376
31
0.0000000000
11
35.1689562247
21
-21.5789537083
31
0.0000000000
0
SPLINE
5
2B6
100
AcDbEntity
8
0
100
AcDbSpline
62
0
6
CONTINUOUS
70
0
71
3
72
15
73
11
74
9
42
0.0000001000
43
0.0000001000
44
0.0000000001
12
1.2544455271
22
0.0000000000
32
0.0000000000
13
-0.0000000000
23
-1.2544455271
33
0.0000000000
40
0.0000000000
40
0.0000000000
40
0.0000000000
40
0.0000000000
40
0.1249999808
40
0.2499998108
40
0.3750000468
40
0.5000001769
40
0.6250002546
40
0.7500003661
40
0.8750000750
40
1.0000000000
40
1.0000000000
40
1.0000000000
40
1.0000000000
10
35.1689562247
20
22.1210462917
30
0.0000000000
10
35.2212247803
20
22.1210462917
30
0.0000000000
10
35.3260514632
20
22.1107368585
30
0.0000000000
10
35.4770255485
20
22.0649328351
30
0.0000000000
10
35.6162239688
20
21.9905449011
30
0.0000000000
10
35.7382163204
20
21.8904279449
30
0.0000000000
10
35.8383331798
20
21.7684355828
30
0.0000000000
10
35.9127210012
20
21.6292372469
30
0.0000000000
10
35.9585249595
20
21.4782632764
30
0.0000000000
10
35.9688343808
20
21.3734366679
30
0.0000000000
10
35.9688343808
20
21.3211681356
30
0.0000000000
11
35.1689562247
21
22.1210462917
31
0.0000000000
11
35.3250071798
21
22.1056802073
31
0.0000000000
11
35.4750627710
21
22.0601689193
31
0.0000000000
11
35.6133563115
21
21.9862567131
31
0.0000000000
11
35.7345704274
21
21.8867820230
31
0.0000000000
11
35.8340450132
21
21.7655679065
31
0.0000000000
11
35.9079570938
21
21.6272744759
31
0.0000000000
11
35.9534683101
21
21.4772190217
31
0.0000000000
11
35.9688343808
21
21.3211681356
31
0.0000000000
0
SPLINE
5
2B7
100
AcDbEntity
8
0
100
AcDbSpline
62
0
6
CONTINUOUS
70
0
71
3
72
8
73
4
74
2
42
0.0000001000
43
0.0000001000
44
0.0000000001
12
-0.0671033182
22
-0.0000000000
32
0.0000000000
13
-0.0641927601
23
-0.0225095105
33
0.0000000000
40
0.0000000000
40
0.0000000000
40
0.0000000000
40
0.0000000000
40
1.0000000000
40
1.0000000000
40
1.0000000000
40
1.0000000000
10
30.9288926355
20
-10.7289537083
30
0.0000000000
10
30.9065248628
20
-10.7289537083
30
0.0000000000
10
30.8838902939
20
-10.7328637205
30
0.0000000000
10
30.8624927072
20
-10.7403668906
30
0.0000000000
11
30.9288926355
21
-10.7289537083
31
0.0000000000
11
30.8624927072
21
-10.7403668906
31
0.0000000000
0
SPLINE
5
2B8
100
AcDbEntity
8
0
100
AcDbSpline
62
0
6
CONTINUOUS
70
0
71
3
72
9
73
5
74
3
42
0.0000001000
43
0.0000001000
44
0.0000000001
12
-0.0791956189
22
-0.0277703375
32
0.0000000000
13
-0.0607350194
23
-0.0575189094
33
0.0000000000
40
0.0000000000
40
0.0000000000
40
0.0000000000
40
0.0000000000
40
0.3829415685
40
1.0000000000
40
1.0000000000
40
1.0000000000
40
1.0000000000
10
30.8624927072
20
-10.7403668906
30
0.0000000000
10
30.8523836090
20
-10.7439116962
30
0.0000000000
10
30.8267060543
20
-10.7552627761
30
0.0000000000
10
30.8039925925
20
-10.7718549945
30
0.0000000000
10
30.7915002406
20
-10.7836858371
30
0.0000000000
11
30.8624927072
21
-10.7403668906
31
0.0000000000
11
30.8331522700
21
-10.7533738797
31
0.0000000000
11
30.7915002406
21
-10.7836858371
31
0.0000000000
0
SPLINE
5
2B9
100
AcDbEntity
8
0
100
AcDbSpline
62
0
6
CONTINUOUS
70
0
71
3
72
9
73
5
74
3
42
0.0000001000
43
0.0000001000
44
0.0000000001
12
0.1099733055
22
-0.1041268838
32
0.0000000000
13
0.1499032161
23
-0.0000000000
33
0.0000000000
40
0.0000000000
40
0.0000000000
40
0.0000000000
40
0.0000000000
40
0.3465134997
40
1.0000000000
40
1.0000000000
40
1.0000000000
40
1.0000000000
10
30.7915082436
20
-14.6742290544
30
0.0000000000
10
30.8042106552
20
-14.6862561781
30
0.0000000000
10
30.8454102866
20
-14.7162130783
30
0.0000000000
10
30.8962393928
20
-14.7289537083
30
0.0000000000
10
30.9288926355
20
-14.7289537083
30
0.0000000000
11
30.7915082436
21
-14.6742290544
31
0.0000000000
11
30.8339193386
21
-14.7049499335
31
0.0000000000
11
30.9288926355
21
-14.7289537083
31
0.0000000000
0
SPLINE
5
2BA
100
AcDbEntity
8
0
100
AcDbSpline
62
0
6
CONTINUOUS
70
0
71
3
72
9
73
5
74
3
42
0.0000001000
43
0.0000001000
44
0.0000000001
12
0.1498897384
22
0.0000000000
32
0.0000000000
13
0.1099643655
23
0.1041414069
33
0.0000000000
40
0.0000000000
40
0.0000000000
40
0.0000000000
40
0.0000000000
40
0.6591890869
40
1.0000000000
40
1.0000000000
40
1.0000000000
40
1.0000000000
10
18.8087761261
20
-14.7289537083
30
0.0000000000
10
18.8417113527
20
-14.7289537083
30
0.0000000000
10
18.8925520955
20
-14.7160936205
30
0.0000000000
10
18.9336761692
20
-14.6860524221
30
0.0000000000
10
18.9461685211
20
-14.6742215794
30
0.0000000000
11
18.8087761261
21
-14.7289537083
31
0.0000000000
11
18.9045164916
21
-14.7045335369
31
0.0000000000
11
18.9461685211
21
-14.6742215794
31
0.0000000000
0
SPLINE
5
2BB
100
AcDbEntity
8
0
100
AcDbSpline
62
0
6
CONTINUOUS
70
0
71
3
72
9
73
5
74
3
42
0.0000001000
43
0.0000001000
44
0.0000000001
12
-0.1099733055
22
0.1041268838
32
0.0000000000
13
-0.1499032161
23
0.0000000000
33
0.0000000000
40
0.0000000000
40
0.0000000000
40
0.0000000000
40
0.0000000000
40
0.3465134997
40
1.0000000000
40
1.0000000000
40
1.0000000000
40
1.0000000000
10
18.9461605181
20
-10.7836783621
30
0.0000000000
10
18.9334581064
20
-10.7716512385
30
0.0000000000
10
18.8922584750
20
-10.7416943382
30
0.0000000000
10
18.8414293688
20
-10.7289537083
30
0.0000000000
10
18.8087761261
20
-10.7289537083
30
0.0000000000
11
18.9461605181
21
-10.7836783621
31
0.0000000000
11
18.9037494230
21
-10.7529574830
31
0.0000000000
11
18.8087761261
21
-10.7289537083
31
0.0000000000
0
SPLINE
5
2BC
100
AcDbEntity
8
0
100
AcDbSpline
62
9
6
CONTINUOUS
70
0
71
3
72
11
73
7
74
5
42
0.0000001000
43
0.0000001000
44
0.0000000001
12
0.0003802071
22
1.2482731391
32
0.0000000000
13
1.2482731391
23
0.0003802071
33
0.0000000000
40
0.0000000000
40
0.0000000000
40
0.0000000000
40
0.0000000000
40
0.2499897029
40
0.5000000000
40
0.7500102971
40
1.0000000000
40
1.0000000000
40
1.0000000000
40
1.0000000000
10
13.8690004527
20
21.2210020638
30
0.0000000000
10
13.8690321353
20
21.3250205409
30
0.0000000000
10
13.9107106040
20
21.5353278019
30
0.0000000000
10
14.0887317152
20
21.8011489573
30
0.0000000000
10
14.3545528707
20
21.9791700685
30
0.0000000000
10
14.5648601317
20
22.0208485373
30
0.0000000000
10
14.6688786088
20
22.0208802199
30
0.0000000000
11
13.8690004527
21
21.2210020638
31
0.0000000000
11
13.9299574623
21
21.5270459237
31
0.0000000000
11
14.1033654577
21
21.7865152148
31
0.0000000000
11
14.3628347489
21
21.9599232102
31
0.0000000000
11
14.6688786088
21
22.0208802199
31
0.0000000000
0
SPLINE
5
2BD
100
AcDbEntity
8
0
100
AcDbSpline
62
9
6
CONTINUOUS
70
0
71
3
72
11
73
7
74
5
42
0.0000001000
43
0.0000001000
44
0.0000000001
12
-0.0003802071
22
-1.2482731391
32
0.0000000000
13
-1.2482731391
23
-0.0003802071
33
0.0000000000
40
0.0000000000
40
0.0000000000
40
0.0000000000
40
0.0000000000
40
0.2499897029
40
0.5000000000
40
0.7500102971
40
1.0000000000
40
1.0000000000
40
1.0000000000
40
1.0000000000
10
35.8686683090
20
-20.6789094803
30
0.0000000000
10
35.8686366264
20
-20.7829279574
30
0.0000000000
10
35.8269581576
20
-20.9932352184
30
0.0000000000
10
35.6489370464
20
-21.2590563739
30
0.0000000000
10
35.3831158910
20
-21.4370774851
30
0.0000000000
10
35.1728086300
20
-21.4787559538
30
0.0000000000
10
35.0687901529
20
-21.4787876365
30
0.0000000000
11
35.8686683090
21
-20.6789094803
31
0.0000000000
11
35.8077112993
21
-20.9849533402
31
0.0000000000
11
35.6343033039
21
-21.2444226314
31
0.0000000000
11
35.3748340128
21
-21.4178306268
31
0.0000000000
11
35.0687901529
21
-21.4787876365
31
0.0000000000
0
SPLINE
5
2BE
100
AcDbEntity
8
0
100
AcDbSpline
62
9
6
CONTINUOUS
70
0
71
3
72
8
73
4
74
2
42
0.0000001000
43
0.0000001000
44
0.0000000001
12
0.3650240046
22
-0.0000506723
32
0.0000000000
13
0.3646311591
23
-0.0300147192
33
0.0000000000
40
0.0000000000
40
0.0000000000
40
0.0000000000
40
0.0000000000
40
1.0000000000
40
1.0000000000
40
1.0000000000
40
1.0000000000
10
26.9688343808
20
-8.2644121230
30
0.0000000000
10
27.0905090490
20
-8.2644290138
30
0.0000000000
10
27.2123594942
20
-8.2694630020
30
0.0000000000
10
27.3339032139
20
-8.2794679084
30
0.0000000000
11
26.9688343808
21
-8.2644121230
31
0.0000000000
11
27.3339032139
21
-8.2794679084
31
0.0000000000
0
SPLINE
5
2BF
100
AcDbEntity
8
0
100
AcDbSpline
62
9
6
CONTINUOUS
70
0
71
3
72
20
73
16
74
14
42
0.0000001000
43
0.0000001000
44
0.0000000001
12
13.2909381362
22
-1.0940474105
32
0.0000000000
13
-13.2950725863
23
-0.9321075791
33
0.0000000000
40
0.0000000000
40
0.0000000000
40
0.0000000000
40
0.0000000000
40
0.0547533633
40
0.1369020104
40
0.2186787662
40
0.3002011206
40
0.3820673417
40
0.4634749220
40
0.5454401391
40
0.6268444723
40
0.7088195020
40
0.7902208689
40
0.8722030151
40
0.9510738531
40
1.0000000000
40
1.0000000000
40
1.0000000000
40
1.0000000000
10
27.3339032139
20
-8.2794679084
30
0.0000000000
10
27.5764777355
20
-8.2994355001
30
0.0000000000
10
28.1799417132
20
-8.3988676194
30
0.0000000000
10
29.0933743383
20
-8.7517512271
30
0.0000000000
10
29.9924984835
20
-9.3847424216
30
0.0000000000
10
30.7109319603
20
-10.2152238232
30
0.0000000000
10
31.2065457732
20
-11.1934541788
30
0.0000000000
10
31.4514309006
20
-12.2642303270
30
0.0000000000
10
31.4301152210
20
-13.3605881445
30
0.0000000000
10
31.1436835116
20
-14.4214904953
30
0.0000000000
10
30.6102900054
20
-15.3796119857
30
0.0000000000
10
29.8594623564
20
-16.1820377056
30
0.0000000000
10
28.9482094105
20
-16.7716624233
30
0.0000000000
10
28.0613180433
20
-17.0794277248
30
0.0000000000
10
27.4970956048
20
-17.1604536266
30
0.0000000000
10
27.2802700465
20
-17.1756551041
30
0.0000000000
11
27.3339032139
21
-8.2794679084
31
0.0000000000
11
28.0541259528
21
-8.3984031382
31
0.0000000000
11
29.0737737196
21
-8.7920869141
31
0.0000000000
11
29.9634209028
21
-9.4185086575
31
0.0000000000
11
30.6730802778
21
-10.2388167943
31
0.0000000000
11
31.1653573074
21
-11.2104810470
31
0.0000000000
11
31.4068352801
21
-12.2663691915
31
0.0000000000
11
31.3856373679
21
-13.3567314852
31
0.0000000000
11
31.1033193129
21
-14.4023960154
31
0.0000000000
11
30.5728007867
21
-15.3553777354
31
0.0000000000
11
29.8327924079
21
-16.1462126753
31
0.0000000000
11
28.9170270372
21
-16.7388376911
31
0.0000000000
11
27.9256051146
21
-17.0828089901
31
0.0000000000
11
27.2802700465
21
-17.1756551041
31
0.0000000000
0
SPLINE
5
2C0
100
AcDbEntity
8
0
100
AcDbSpline
62
9
6
CONTINUOUS
70
0
71
3
72
8
73
4
74
2
42
0.0000001000
43
0.0000001000
44
0.0000000001
12
-0.3111692225
22
-0.0218158411
32
0.0000000000
13
-0.3114076007
23
-0.0000258219
33
0.0000000000
40
0.0000000000
40
0.0000000000
40
0.0000000000
40
0.0000000000
40
1.0000000000
40
1.0000000000
40
1.0000000000
40
1.0000000000
10
27.2802700465
20
-17.1756551041
30
0.0000000000
10
27.1765469724
20
-17.1829270511
30
0.0000000000
10
27.0726369144
20
-17.1865790645
30
0.0000000000
10
26.9688343808
20
-17.1865876718
30
0.0000000000
11
27.2802700465
21
-17.1756551041
31
0.0000000000
11
26.9688343808
21
-17.1865876718
31
0.0000000000
0
SPLINE
5
2C1
100
AcDbEntity
8
0
100
AcDbSpline
62
9
6
CONTINUOUS
70
0
71
3
72
11
73
7
74
5
42
0.0000001000
43
0.0000001000
44
0.0000000001
12
-0.1999147830
22
-0.7789932714
32
0.0000000000
13
-0.8042359944
23
-0.0009501327
33
0.0000000000
40
0.0000000000
40
0.0000000000
40
0.0000000000
40
0.0000000000
40
0.0845721753
40
0.3023924673
40
0.6232973710
40
1.0000000000
40
1.0000000000
40
1.0000000000
40
1.0000000000
10
35.8566911550
20
-20.0265036772
30
0.0000000000
10
35.8510554123
20
-20.0484640624
30
0.0000000000
10
35.7389960611
20
-20.0431253067
30
0.0000000000
10
35.5997301896
20
-20.0737388961
30
0.0000000000
10
35.3410238691
20
-20.0758115124
30
0.0000000000
10
35.1577989367
20
-20.0806558671
30
0.0000000000
10
35.0568129989
20
-20.0807751729
30
0.0000000000
11
35.8566911550
21
-20.0265036772
31
0.0000000000
11
35.7918549249
21
-20.0470571265
31
0.0000000000
11
35.6175514274
21
-20.0645496191
31
0.0000000000
11
35.3597390832
21
-20.0763760582
31
0.0000000000
11
35.0568129989
21
-20.0807751729
31
0.0000000000
0
SPLINE
5
2C2
100
AcDbEntity
8
0
100
AcDbSpline
62
9
6
CONTINUOUS
70
0
71
3
72
18
73
14
74
12
42
0.0000001000
43
0.0000001000
44
0.0000000001
12
0.0007745772
22
-1.3981729821
32
0.0000000000
13
0.5910245426
23
-1.2671141535
33
0.0000000000
40
0.0000000000
40
0.0000000000
40
0.0000000000
40
0.0000000000
40
0.1204467536
40
0.2523961394
40
0.3896186033
40
0.5251444378
40
0.6517621455
40
0.7629077778
40
0.8536844702
40
0.9216028364
40
0.9667656096
40
0.9915402948
40
1.0000000000
40
1.0000000000
40
1.0000000000
40
1.0000000000
10
35.0568129989
20
-20.0807752012
30
0.0000000000
10
35.0568440973
20
-20.1369103334
30
0.0000000000
10
35.0569631494
20
-20.2545415116
30
0.0000000000
10
35.0573297370
20
-20.4361257106
30
0.0000000000
10
35.0579286866
20
-20.6247381745
30
0.0000000000
10
35.0587904622
20
-20.8108606929
30
0.0000000000
10
35.0598554539
20
-20.9848424230
30
0.0000000000
10
35.0612436826
20
-21.1379228114
30
0.0000000000
10
35.0624340612
20
-21.2637668489
30
0.0000000000
10
35.0645391149
20
-21.3585440904
30
0.0000000000
10
35.0647533632
20
-21.4232342238
30
0.0000000000
10
35.0680921785
20
-21.4590150749
30
0.0000000000
10
35.0671235217
20
-21.4752144990
30
0.0000000000
10
35.0687901529
20
-21.4787876365
30
0.0000000000
11
35.0568129989
21
-20.0807752012
31
0.0000000000
11
35.0569846928
21
-20.2491805362
31
0.0000000000
11
35.0573596461
21
-20.4336682496
31
0.0000000000
11
35.0579779962
21
-20.6255280242
31
0.0000000000
11
35.0588583897
21
-20.8150145683
31
0.0000000000
11
35.0599921382
21
-20.9920444230
31
0.0000000000
11
35.0613411276
21
-21.1474394118
31
0.0000000000
11
35.0628420244
21
-21.2743520754
31
0.0000000000
11
35.0644162585
21
-21.3693006651
31
0.0000000000
11
35.0659817860
21
-21.4324266345
31
0.0000000000
11
35.0674621858
21
-21.4670342865
31
0.0000000000
11
35.0687901529
21
-21.4787876365
31
0.0000000000
0
SPLINE
5
2C3
100
AcDbEntity
8
0
100
AcDbSpline
62
9
6
CONTINUOUS
70
0
71
3
72
17
73
13
74
11
42
0.0000001000
43
0.0000001000
44
0.0000000001
12
0.0007746662
22
-0.6527032221
32
0.0000000000
13
0.4614785162
23
-0.4615838768
33
0.0000000000
40
0.0000000000
40
0.0000000000
40
0.0000000000
40
0.0000000000
40
0.1203966916
40
0.2522836005
40
0.3894387643
40
0.5249045153
40
0.6514817994
40
0.7626138891
40
0.8534028996
40
0.9213538262
40
0.9665669588
40
1.0000000000
40
1.0000000000
40
1.0000000000
40
1.0000000000
10
35.8566911550
20
-20.0265036772
30
0.0000000000
10
35.8567222441
20
-20.0526981134
30
0.0000000000
10
35.8568416890
20
-20.1075866630
30
0.0000000000
10
35.8572061180
20
-20.1923161794
30
0.0000000000
10
35.8578130927
20
-20.2803188264
30
0.0000000000
10
35.8586451525
20
-20.3671795736
30
0.0000000000
10
35.8598089221
20
-20.4483229642
30
0.0000000000
10
35.8608946032
20
-20.5199057104
30
0.0000000000
10
35.8629190937
20
-20.5782635560
30
0.0000000000
10
35.8629919863
20
-20.6234428054
30
0.0000000000
10
35.8676925966
20
-20.6534745133
30
0.0000000000
10
35.8635254323
20
-20.6737654294
30
0.0000000000
10
35.8686683090
20
-20.6789094803
30
0.0000000000
11
35.8566911550
21
-20.0265036772
31
0.0000000000
11
35.8568628125
21
-20.1050868536
31
0.0000000000
11
35.8572377002
21
-20.1911691083
31
0.0000000000
11
35.8578559115
21
-20.2806886541
31
0.0000000000
11
35.8587361068
21
-20.3691032673
31
0.0000000000
11
35.8598696538
21
-20.4517129499
31
0.0000000000
11
35.8612185237
21
-20.5242367313
31
0.0000000000
11
35.8627194479
21
-20.5834760416
31
0.0000000000
11
35.8642938415
21
-20.6277999090
31
0.0000000000
11
35.8658596156
21
-20.6572691196
31
0.0000000000
11
35.8686683090
21
-20.6789094803
31
0.0000000000
0
SPLINE
5
2C4
100
AcDbEntity
8
0
100
AcDbSpline
62
9
6
CONTINUOUS
70
0
71
3
72
20
73
16
74
14
42
0.0000001000
43
0.0000001000
44
0.0000000001
12
-14.2974109294
22
0.0039823334
32
0.0000000000
13
14.2974112866
23
0.0023756779
33
0.0000000000
40
0.0000000000
40
0.0000000000
40
0.0000000000
40
0.0000000000
40
0.0780334902
40
0.1561378500
40
0.2339155286
40
0.3114901091
40
0.3894398537
40
0.4669515028
40
0.5449688204
40
0.6224255950
40
0.7004166079
40
0.7778925911
40
0.8559355306
40
0.9310860246
40
1.0000000000
40
1.0000000000
40
1.0000000000
40
1.0000000000
10
22.7688343808
20
-17.2924269324
30
0.0000000000
10
22.3969420890
20
-17.2923233473
30
0.0000000000
10
21.6496063538
20
-17.2005699572
30
0.0000000000
10
20.5994985956
20
-16.7953875061
30
0.0000000000
10
19.6801233953
20
-16.1490331229
30
0.0000000000
10
18.9449206891
20
-15.3002830153
30
0.0000000000
10
18.4372727736
20
-14.2999375197
30
0.0000000000
10
18.1860808840
20
-13.2046414318
30
0.0000000000
10
18.2071654081
20
-12.0832755198
30
0.0000000000
10
18.4992391382
20
-10.9982547427
30
0.0000000000
10
19.0437802559
20
-10.0180948509
30
0.0000000000
10
19.8108681116
20
-9.1967476715
30
0.0000000000
10
20.7427601531
20
-8.5926931158
30
0.0000000000
10
21.7516135076
20
-8.2419075856
30
0.0000000000
10
22.4404038978
20
-8.1672946881
30
0.0000000000
10
22.7688343808
20
-8.1672401156
30
0.0000000000
11
22.7688343808
21
-17.2924269324
31
0.0000000000
11
21.6615330974
21
-17.1559760077
31
0.0000000000
11
20.6196012205
21
-16.7542610586
31
0.0000000000
11
19.7099615799
21
-16.1146181580
31
0.0000000000
11
18.9837473612
21
-15.2763159812
31
0.0000000000
11
18.4794110182
21
-14.2824801939
31
0.0000000000
11
18.2316813225
21
-13.2023077202
31
0.0000000000
11
18.2526505028
21
-12.0870591448
31
0.0000000000
11
18.5405166510
21
-11.0176960915
31
0.0000000000
11
19.0820425150
21
-10.0429499916
31
0.0000000000
11
19.8381428517
21
-9.2334285951
31
0.0000000000
11
20.7744136778
21
-8.6264414433
31
0.0000000000
11
21.7893078047
21
-8.2736682752
31
0.0000000000
11
22.7688343808
21
-8.1672401156
31
0.0000000000
0
SPLINE
5
2C5
100
AcDbEntity
8
0
100
AcDbSpline
62
9
6
CONTINUOUS
70
0
71
3
72
11
73
7
74
5
42
0.0000001000
43
0.0000001000
44
0.0000000001
12
-0.1999128601
22
0.7789937706
32
0.0000000000
13
-0.8042359999
23
0.0009501350
33
0.0000000000
40
0.0000000000
40
0.0000000000
40
0.0000000000
40
0.0000000000
40
0.0845721315
40
0.3023924119
40
0.6232973344
40
1.0000000000
40
1.0000000000
40
1.0000000000
40
1.0000000000
10
35.8566911550
20
20.5685962606
30
0.0000000000
10
35.8510554694
20
20.5905566485
30
0.0000000000
10
35.7389960325
20
20.5852179045
30
0.0000000000
10
35.5997302642
20
20.6158314986
30
0.0000000000
10
35.3410238819
20
20.6179041191
30
0.0000000000
10
35.1577989472
20
20.6227484757
30
0.0000000000
10
35.0568129989
20
20.6228677819
30
0.0000000000
11
35.8566911550
21
20.5685962606
31
0.0000000000
11
35.7918549640
21
20.5891497183
31
0.0000000000
11
35.6175514755
21
20.6066422190
31
0.0000000000
11
35.3597391147
21
20.6184686643
31
0.0000000000
11
35.0568129989
21
20.6228677819
31
0.0000000000
0
SPLINE
5
2C6
100
AcDbEntity
8
0
100
AcDbSpline
62
9
6
CONTINUOUS
70
0
71
3
72
10
73
6
74
4
42
0.0000001000
43
0.0000001000
44
0.0000000001
12
-0.0481810615
22
-40.7036229017
32
0.0000000000
13
0.0481810159
23
-40.7036229018
33
0.0000000000
40
0.0000000000
40
0.0000000000
40
0.0000000000
40
0.0000000000
40
0.3332195173
40
0.6667804824
40
1.0000000000
40
1.0000000000
40
1.0000000000
40
1.0000000000
10
35.0568129989
20
20.6228677846
30
0.0000000000
10
35.0514613755
20
16.1017872588
30
0.0000000000
10
35.0443355627
20
7.0549888278
30
0.0000000000
10
35.0443355563
20
-6.5128962376
30
0.0000000000
10
35.0514613806
20
-15.5596946720
30
0.0000000000
10
35.0568129989
20
-20.0807752012
30
0.0000000000
11
35.0568129989
21
20.6228677846
31
0.0000000000
11
35.0461188398
21
7.0596209211
31
0.0000000000
11
35.0461188384
21
-6.5175283275
31
0.0000000000
11
35.0568129989
21
-20.0807752012
31
0.0000000000
0
SPLINE
5
2C7
100
AcDbEntity
8
0
100
AcDbSpline
62
9
6
CONTINUOUS
70
0
71
3
72
10
73
6
74
4
42
0.0000001000
43
0.0000001000
44
0.0000000001
12
-0.0481810599
22
-40.5950798001
32
0.0000000000
13
0.0481810144
23
-40.5950798001
33
0.0000000000
40
0.0000000000
40
0.0000000000
40
0.0000000000
40
0.0000000000
40
0.3332187590
40
0.6667828362
40
1.0000000000
40
1.0000000000
40
1.0000000000
40
1.0000000000
10
35.8566911550
20
20.5685962606
30
0.0000000000
10
35.8513395440
20
16.0595822238
30
0.0000000000
10
35.8442136977
20
7.0368767370
30
0.0000000000
10
35.8442137168
20
-6.4948273234
30
0.0000000000
10
35.8513395747
20
-15.5175112252
30
0.0000000000
10
35.8566911550
20
-20.0265036772
30
0.0000000000
11
35.8566911550
21
20.5685962606
31
0.0000000000
11
35.8459970081
21
7.0415488498
31
0.0000000000
11
35.8459970323
21
-6.4995210212
31
0.0000000000
11
35.8566911550
21
-20.0265036772
31
0.0000000000
0
SPLINE
5
2C8
100
AcDbEntity
8
0
100
AcDbSpline
62
9
6
CONTINUOUS
70
0
71
3
72
11
73
7
74
5
42
0.0000001000
43
0.0000001000
44
0.0000000001
12
-0.0003802072
22
1.2482731391
32
0.0000000000
13
-1.2482731391
23
0.0003802072
33
0.0000000000
40
0.0000000000
40
0.0000000000
40
0.0000000000
40
0.0000000000
40
0.2499896498
40
0.4999999322
40
0.7500102498
40
1.0000000000
40
1.0000000000
40
1.0000000000
40
1.0000000000
10
35.8686683090
20
21.2210020638
30
0.0000000000
10
35.8686366264
20
21.3250205187
30
0.0000000000
10
35.8269581727
20
21.5353277501
30
0.0000000000
10
35.6489370990
20
21.8011489055
30
0.0000000000
10
35.3831159401
20
21.9791700545
30
0.0000000000
10
35.1728086496
20
22.0208485373
30
0.0000000000
10
35.0687901529
20
22.0208802199
30
0.0000000000
11
35.8686683090
21
21.2210020638
31
0.0000000000
11
35.8077113252
21
21.5270458611
31
0.0000000000
11
35.6343033649
21
21.7865151538
31
0.0000000000
11
35.3748340683
21
21.9599231872
31
0.0000000000
11
35.0687901529
21
22.0208802199
31
0.0000000000
0
SPLINE
5
2C9
100
AcDbEntity
8
0
100
AcDbSpline
62
9
6
CONTINUOUS
70
0
71
3
72
18
73
14
74
12
42
0.0000001000
43
0.0000001000
44
0.0000000001
12
-0.5914063034
22
-1.2669350018
32
0.0000000000
13
-0.0007743033
23
-1.3981720620
33
0.0000000000
40
0.0000000000
40
0.0000000000
40
0.0000000000
40
0.0000000000
40
0.0090487950
40
0.0353344672
40
0.0827059280
40
0.1531459672
40
0.2462456032
40
0.3589810210
40
0.4860353632
40
0.6206384760
40
0.7555931045
40
0.8840764442
40
1.0000000000
40
1.0000000000
40
1.0000000000
40
1.0000000000
10
35.0687901529
20
22.0208802199
30
0.0000000000
10
35.0670063147
20
22.0170588082
30
0.0000000000
10
35.0681327493
20
21.9998229467
30
0.0000000000
10
35.0645969895
20
21.9620837532
30
0.0000000000
10
35.0644472574
20
21.8944598637
30
0.0000000000
10
35.0623008666
20
21.7964037608
30
0.0000000000
10
35.0611246202
20
21.6675586706
30
0.0000000000
10
35.0597514017
20
21.5124513704
30
0.0000000000
10
35.0587116721
20
21.3379552911
30
0.0000000000
10
35.0578778329
20
21.1531162004
30
0.0000000000
10
35.0573042017
20
20.9676061914
30
0.0000000000
10
35.0569562058
20
20.7908024635
30
0.0000000000
10
35.0568429189
20
20.6768948103
30
0.0000000000
10
35.0568129989
20
20.6228677846
30
0.0000000000
11
35.0687901529
21
22.0208802199
31
0.0000000000
11
35.0674103107
21
22.0083039157
31
0.0000000000
11
35.0658897037
21
21.9715834885
31
0.0000000000
11
35.0642971756
21
21.9053691736
31
0.0000000000
11
35.0627110576
21
21.8068946365
31
0.0000000000
11
35.0612137939
21
21.6767339179
31
0.0000000000
11
35.0598819180
21
21.5191160092
31
0.0000000000
11
35.0587742613
21
21.3414756037
31
0.0000000000
11
35.0579230184
21
21.1532791881
31
0.0000000000
11
35.0573310897
21
20.9645902965
31
0.0000000000
11
35.0569753356
21
20.7849488052
31
0.0000000000
11
35.0568129989
21
20.6228677846
31
0.0000000000
0
SPLINE
5
2CA
100
AcDbEntity
8
0
100
AcDbSpline
62
9
6
CONTINUOUS
70
0
71
3
72
17
73
13
74
11
42
0.0000001000
43
0.0000001000
44
0.0000000001
12
-0.4615409910
22
-0.4615179927
32
0.0000000000
13
-0.0007747218
23
-0.6527008072
33
0.0000000000
40
0.0000000000
40
0.0000000000
40
0.0000000000
40
0.0000000000
40
0.0355186739
40
0.0829092904
40
0.1533367832
40
0.2464044516
40
0.3591024752
40
0.4861253135
40
0.6207064296
40
0.7556445802
40
0.8841084421
40
1.0000000000
40
1.0000000000
40
1.0000000000
40
1.0000000000
10
35.8686683090
20
21.2210020638
30
0.0000000000
10
35.8632038677
20
21.2155378947
30
0.0000000000
10
35.8677351589
20
21.1941209642
30
0.0000000000
10
35.8628317688
20
21.1627081740
30
0.0000000000
10
35.8628070383
20
21.1159950696
30
0.0000000000
10
35.8607730314
20
21.0562667902
30
0.0000000000
10
35.8597060756
20
20.9837504887
30
0.0000000000
10
35.8585674542
20
20.9023612905
30
0.0000000000
10
35.8577625101
20
20.8160788642
30
0.0000000000
10
35.8571808386
20
20.7294958290
30
0.0000000000
10
35.8568348043
20
20.6469738833
30
0.0000000000
10
35.8567210829
20
20.5938104318
30
0.0000000000
10
35.8566911550
20
20.5685962606
30
0.0000000000
11
35.8686683090
21
21.2210020638
31
0.0000000000
11
35.8657680997
21
21.1980011042
31
0.0000000000
11
35.8641757734
21
21.1671102011
31
0.0000000000
11
35.8625898325
21
21.1211694537
31
0.0000000000
11
35.8610926404
21
21.0604425220
31
0.0000000000
11
35.8597606979
21
20.9868964392
31
0.0000000000
11
35.8586528678
21
20.9039958736
31
0.0000000000
11
35.8578014295
21
20.8161587352
31
0.0000000000
11
35.8572093433
21
20.7280864235
31
0.0000000000
11
35.8568535179
21
20.6442386530
31
0.0000000000
11
35.8566911550
21
20.5685962606
31
0.0000000000
0
SPLINE
5
2CB
100
AcDbEntity
8
0
100
AcDbSpline
62
9
6
CONTINUOUS
70
0
71
3
72
20
73
16
74
14
42
0.0000001000
43
0.0000001000
44
0.0000000001
12
14.2974066716
22
-0.0039710382
32
0.0000000000
13
-14.2974070257
23
-0.0023754192
33
0.0000000000
40
0.0000000000
40
0.0000000000
40
0.0000000000
40
0.0000000000
40
0.0781186076
40
0.1562877617
40
0.2341120247
40
0.3117019863
40
0.3896287264
40
0.4671263074
40
0.5451598349
40
0.6226585365
40
0.7006928028
40
0.7781719184
40
0.8561898412
40
0.9312263121
40
1.0000000000
40
1.0000000000
40
1.0000000000
40
1.0000000000
10
26.9688343808
20
-8.1672401156
30
0.0000000000
10
27.3411322147
20
-8.1673435196
30
0.0000000000
10
28.0891927410
20
-8.2592877031
30
0.0000000000
10
29.1400477004
20
-8.6652080183
30
0.0000000000
10
30.0595794690
20
-9.3124238900
30
0.0000000000
10
30.7943600812
20
-10.1617931496
30
0.0000000000
10
31.3013244947
20
-11.1623593376
30
0.0000000000
10
31.5518650736
20
-12.2576968899
30
0.0000000000
10
31.5301297600
20
-13.3792669866
30
0.0000000000
10
31.2372006564
20
-14.4645749676
30
0.0000000000
10
30.6916590800
20
-15.4446798647
30
0.0000000000
10
29.9237813951
20
-16.2654293300
30
0.0000000000
10
28.9919352989
20
-16.8683397720
30
0.0000000000
10
27.9841611096
20
-17.2180452296
30
0.0000000000
10
27.2965961838
20
-17.2923724770
30
0.0000000000
10
26.9688343808
20
-17.2924269324
30
0.0000000000
11
26.9688343808
21
-8.1672401156
31
0.0000000000
11
28.0773247997
21
-8.3039887216
31
0.0000000000
11
29.1199713682
21
-8.7064240178
31
0.0000000000
11
30.0298055037
21
-9.3469473634
31
0.0000000000
11
30.7556230765
21
-10.1858833601
31
0.0000000000
11
31.2591822083
21
-11.1797441025
31
0.0000000000
11
31.5062473143
21
-12.2598621090
31
0.0000000000
11
31.4846301663
21
-13.3753297836
31
0.0000000000
11
31.1958929121
21
-14.4450785303
31
0.0000000000
11
30.6532838475
21
-15.4199294970
31
0.0000000000
11
29.8964440992
21
-16.2288205225
31
0.0000000000
11
28.9599631593
21
-16.8348247341
31
0.0000000000
11
27.9463901198
21
-17.1864316520
31
0.0000000000
11
26.9688343808
21
-17.2924269324
31
0.0000000000
0
SPLINE
5
2CC
100
AcDbEntity
8
0
100
AcDbSpline
62
9
6
CONTINUOUS
70
0
71
3
72
11
73
7
74
5
42
0.0000001000
43
0.0000001000
44
0.0000000001
12
0.0003802072
22
-1.2482731391
32
0.0000000000
13
1.2482731391
23
-0.0003802072
33
0.0000000000
40
0.0000000000
40
0.0000000000
40
0.0000000000
40
0.0000000000
40
0.2499896958
40
0.4999999908
40
0.7500102906
40
1.0000000000
40
1.0000000000
40
1.0000000000
40
1.0000000000
10
13.8690004527
20
-20.6789094803
30
0.0000000000
10
13.8690321353
20
-20.7829279544
30
0.0000000000
10
13.9107106020
20
-20.9932352114
30
0.0000000000
10
14.0887317081
20
-21.2590563668
30
0.0000000000
10
14.3545528639
20
-21.4370774831
30
0.0000000000
10
14.5648601290
20
-21.4787559538
30
0.0000000000
10
14.6688786088
20
-21.4787876365
30
0.0000000000
11
13.8690004527
21
-20.6789094803
31
0.0000000000
11
13.9299574588
21
-20.9849533318
31
0.0000000000
11
14.1033654494
21
-21.2444226231
31
0.0000000000
11
14.3628347413
21
-21.4178306236
31
0.0000000000
11
14.6688786088
21
-21.4787876365
31
0.0000000000
0
SPLINE
5
2CD
100
AcDbEntity
8
0
100
AcDbSpline
62
9
6
CONTINUOUS
70
0
71
3
72
18
73
14
74
12
42
0.0000001000
43
0.0000001000
44
0.0000000001
12
0.5910671420
22
1.2670948058
32
0.0000000000
13
0.0007746693
23
1.3981734561
33
0.0000000000
40
0.0000000000
40
0.0000000000
40
0.0000000000
40
0.0000000000
40
0.0081608810
40
0.0321894586
40
0.0762946075
40
0.1430319688
40
0.2327334861
40
0.3431406870
40
0.4695403643
40
0.6054712273
40
0.7437424270
40
0.8773485377
40
1.0000000000
40
1.0000000000
40
1.0000000000
40
1.0000000000
10
14.6688786088
20
-21.4787876365
30
0.0000000000
10
14.6704864850
20
-21.4753407665
30
0.0000000000
10
14.6695946505
20
-21.4596564528
30
0.0000000000
10
14.6728383672
20
-21.4248318447
30
0.0000000000
10
14.6730832819
20
-21.3615442461
30
0.0000000000
10
14.6751695051
20
-21.2683077497
30
0.0000000000
10
14.6763670325
20
-21.1438603185
30
0.0000000000
10
14.6777627721
20
-20.9917267669
30
0.0000000000
10
14.6788399904
20
-20.8180020056
30
0.0000000000
10
14.6797152399
20
-20.6313035920
30
0.0000000000
10
14.6803264851
20
-20.4412414099
30
0.0000000000
10
14.6807022350
20
-20.2573687445
30
0.0000000000
10
14.6808240913
20
-20.1379378741
30
0.0000000000
10
14.6808557628
20
-20.0807752012
30
0.0000000000
11
14.6688786088
21
-21.4787876365
31
0.0000000000
11
14.6701795658
21
-21.4674517150
31
0.0000000000
11
14.6716399041
21
-21.4338873440
31
0.0000000000
11
14.6731928821
21
-21.3722402438
31
0.0000000000
11
14.6747622077
21
-21.2789430201
31
0.0000000000
11
14.6762655481
21
-21.1535337306
31
0.0000000000
11
14.6776231288
21
-20.9991712590
31
0.0000000000
11
14.6787694971
21
-20.8224462762
31
0.0000000000
11
14.6796639015
21
-20.6323934272
31
0.0000000000
11
14.6802950498
21
-20.4390673065
31
0.0000000000
11
14.6806794495
21
-20.2522631558
31
0.0000000000
11
14.6808557628
21
-20.0807752012
31
0.0000000000
0
SPLINE
5
2CE
100
AcDbEntity
8
0
100
AcDbSpline
62
9
6
CONTINUOUS
70
0
71
3
72
17
73
13
74
11
42
0.0000001000
43
0.0000001000
44
0.0000000001
12
0.4614544545
22
0.4616097109
32
0.0000000000
13
0.0007746968
23
0.6527044803
33
0.0000000000
40
0.0000000000
40
0.0000000000
40
0.0000000000
40
0.0000000000
40
0.0323832111
40
0.0765360825
40
0.1433054185
40
0.2330219807
40
0.3434211695
40
0.4697863650
40
0.6056606829
40
0.7438642573
40
0.8774041157
40
1.0000000000
40
1.0000000000
40
1.0000000000
40
1.0000000000
10
13.8690004527
20
-20.6789094803
30
0.0000000000
10
13.8739815783
20
-20.6739266788
30
0.0000000000
10
13.8699952326
20
-20.6541935995
30
0.0000000000
10
13.8745974588
20
-20.6248369881
30
0.0000000000
10
13.8746935873
20
-20.5803905990
30
0.0000000000
10
13.8767143101
20
-20.5226805979
30
0.0000000000
10
13.8778093212
20
-20.4515367447
30
0.0000000000
10
13.8789854598
20
-20.3705104017
30
0.0000000000
10
13.8798307624
20
-20.2833785735
30
0.0000000000
10
13.8804501502
20
-20.1946992731
30
0.0000000000
10
13.8808236818
20
-20.1089033896
30
0.0000000000
10
13.8809459484
20
-20.0531766382
30
0.0000000000
10
13.8809776067
20
-20.0265036772
30
0.0000000000
11
13.8690004527
21
-20.6789094803
31
0.0000000000
11
13.8717619215
21
-20.6579539653
31
0.0000000000
11
13.8733151327
21
-20.6291770542
31
0.0000000000
11
13.8748846491
21
-20.5856246503
31
0.0000000000
11
13.8763880739
21
-20.5270855095
31
0.0000000000
11
13.8777455925
21
-20.4550402020
31
0.0000000000
11
13.8788917952
21
-20.3725689794
31
0.0000000000
11
13.8797860098
21
-20.2838876491
31
0.0000000000
11
13.8804170114
21
-20.1936837004
31
0.0000000000
11
13.8808013337
21
-20.1065224223
31
0.0000000000
11
13.8809776067
21
-20.0265036772
31
0.0000000000
0
SPLINE
5
2CF
100
AcDbEntity
8
0
100
AcDbSpline
62
9
6
CONTINUOUS
70
0
71
3
72
11
73
7
74
5
42
0.0000001000
43
0.0000001000
44
0.0000000001
12
0.1999131865
22
-0.7789936862
32
0.0000000000
13
0.8042359993
23
-0.0009501350
33
0.0000000000
40
0.0000000000
40
0.0000000000
40
0.0000000000
40
0.0000000000
40
0.0845721394
40
0.3023924218
40
0.6232973410
40
1.0000000000
40
1.0000000000
40
1.0000000000
40
1.0000000000
10
13.8809776067
20
-20.0265036772
30
0.0000000000
10
13.8866133020
20
-20.0484640648
30
0.0000000000
10
13.9986727241
20
-20.0431253204
30
0.0000000000
10
14.1379385104
20
-20.0737389135
30
0.0000000000
10
14.3966448820
20
-20.0758115343
30
0.0000000000
10
14.5798698163
20
-20.0806558907
30
0.0000000000
10
14.6808557628
20
-20.0807751968
30
0.0000000000
11
13.8809776067
21
-20.0265036772
31
0.0000000000
11
13.9458138045
21
-20.0470571343
31
0.0000000000
11
14.1201172945
21
-20.0645496345
31
0.0000000000
11
14.3779296524
21
-20.0763760794
31
0.0000000000
11
14.6808557628
21
-20.0807751968
31
0.0000000000
0
SPLINE
5
2D0
100
AcDbEntity
8
0
100
AcDbSpline
62
9
6
CONTINUOUS
70
0
71
3
72
10
73
6
74
4
42
0.0000001000
43
0.0000001000
44
0.0000000001
12
0.0481810159
22
40.7036229018
32
0.0000000000
13
-0.0481810615
23
40.7036229017
33
0.0000000000
40
0.0000000000
40
0.0000000000
40
0.0000000000
40
0.0000000000
40
0.3332195176
40
0.6667804827
40
1.0000000000
40
1.0000000000
40
1.0000000000
40
1.0000000000
10
14.6808557628
20
-20.0807752012
30
0.0000000000
10
14.6862073811
20
-15.5596946720
30
0.0000000000
10
14.6933332054
20
-6.5128962376
30
0.0000000000
10
14.6933331989
20
7.0549888278
30
0.0000000000
10
14.6862073861
20
16.1017872588
30
0.0000000000
10
14.6808557628
20
20.6228677846
30
0.0000000000
11
14.6808557628
21
-20.0807752012
31
0.0000000000
11
14.6915499232
21
-6.5175283275
31
0.0000000000
11
14.6915499218
21
7.0596209211
31
0.0000000000
11
14.6808557628
21
20.6228677846
31
0.0000000000
0
SPLINE
5
2D1
100
AcDbEntity
8
0
100
AcDbSpline
62
9
6
CONTINUOUS
70
0
71
3
72
8
73
4
74
2
42
0.0000001000
43
0.0000001000
44
0.0000000001
12
-0.3645850719
22
0.0000506892
32
0.0000000000
13
-0.3641936598
23
0.0299422411
33
0.0000000000
40
0.0000000000
40
0.0000000000
40
0.0000000000
40
0.0000000000
40
1.0000000000
40
1.0000000000
40
1.0000000000
40
1.0000000000
10
22.7688343808
20
-17.1865876718
30
0.0000000000
10
22.6473060235
20
-17.1865707754
30
0.0000000000
10
22.5256025324
20
-17.1815489882
30
0.0000000000
10
22.4042046458
20
-17.1715682412
30
0.0000000000
11
22.7688343808
21
-17.1865876718
31
0.0000000000
11
22.4042046458
21
-17.1715682412
31
0.0000000000
0
SPLINE
5
2D2
100
AcDbEntity
8
0
100
AcDbSpline
62
9
6
CONTINUOUS
70
0
71
3
72
20
73
16
74
14
42
0.0000001000
43
0.0000001000
44
0.0000000001
12
-13.2907116907
22
1.0926980274
32
0.0000000000
13
13.2947620605
23
0.9342130027
33
0.0000000000
40
0.0000000000
40
0.0000000000
40
0.0000000000
40
0.0000000000
40
0.0546948026
40
0.1367744892
40
0.2185017765
40
0.3000079687
40
0.3818988807
40
0.4633222825
40
0.5452721861
40
0.6266348087
40
0.7085672874
40
0.7899687282
40
0.8719808654
40
0.9509754917
40
1.0000000000
40
1.0000000000
40
1.0000000000
40
1.0000000000
10
22.4042046458
20
-17.1715682412
30
0.0000000000
10
22.1618936952
20
-17.1516466069
30
0.0000000000
10
21.5589949475
20
-17.0524235774
30
0.0000000000
10
20.6461986545
20
-16.7001898153
30
0.0000000000
10
19.7472381990
20
-16.0680759968
30
0.0000000000
10
19.0283848867
20
-15.2382357675
30
0.0000000000
10
18.5320799124
20
-14.2602498521
30
0.0000000000
10
18.2865243397
20
-13.1895295373
30
0.0000000000
10
18.3071668562
20
-12.0933696636
30
0.0000000000
10
18.5927302172
20
-11.0327297201
30
0.0000000000
10
19.1251255621
20
-10.0745238866
30
0.0000000000
10
19.8751767153
20
-9.2714779953
30
0.0000000000
10
20.7864872488
20
-8.6807018770
30
0.0000000000
10
21.6742565612
20
-8.3719990717
30
0.0000000000
10
22.2394372268
20
-8.2906608977
30
0.0000000000
10
22.4566936178
20
-8.2753944533
30
0.0000000000
11
22.4042046458
21
-17.1715682412
31
0.0000000000
11
21.6847473301
21
-17.0528984869
31
0.0000000000
11
20.6658244570
21
-16.6599445192
31
0.0000000000
11
19.7763780713
21
-16.0344183132
31
0.0000000000
11
19.0663235429
21
-15.2147649108
31
0.0000000000
11
18.5732637724
21
-14.2431532472
31
0.0000000000
11
18.3311029793
21
-13.1872273887
31
0.0000000000
11
18.3516307053
21
-12.0970775168
31
0.0000000000
11
18.6330656068
21
-11.0517717248
31
0.0000000000
11
19.1625050979
21
-10.0988622624
31
0.0000000000
11
19.9017866135
21
-9.3073756164
31
0.0000000000
11
20.8173583555
21
-8.7137571803
31
0.0000000000
11
21.8100979732
21
-8.3686227668
31
0.0000000000
11
22.4566936178
21
-8.2753944533
31
0.0000000000
0
SPLINE
5
2D3
100
AcDbEntity
8
0
100
AcDbSpline
62
9
6
CONTINUOUS
70
0
71
3
72
8
73
4
74
2
42
0.0000001000
43
0.0000001000
44
0.0000000001
12
0.3118724629
22
0.0219150451
32
0.0000000000
13
0.3121125286
23
0.0000259235
33
0.0000000000
40
0.0000000000
40
0.0000000000
40
0.0000000000
40
0.0000000000
40
1.0000000000
40
1.0000000000
40
1.0000000000
40
1.0000000000
10
22.4566936178
20
-8.2753944533
30
0.0000000000
10
22.5606511055
20
-8.2680894383
30
0.0000000000
10
22.6647968713
20
-8.2644207642
30
0.0000000000
10
22.7688343808
20
-8.2644121230
30
0.0000000000
11
22.4566936178
21
-8.2753944533
31
0.0000000000
11
22.7688343808
21
-8.2644121230
31
0.0000000000
0
SPLINE
5
2D4
100
AcDbEntity
8
0
100
AcDbSpline
62
9
6
CONTINUOUS
70
0
71
3
72
10
73
6
74
4
42
0.0000001000
43
0.0000001000
44
0.0000000001
12
0.0481810144
22
40.5950798001
32
0.0000000000
13
-0.0481810599
23
40.5950798001
33
0.0000000000
40
0.0000000000
40
0.0000000000
40
0.0000000000
40
0.0000000000
40
0.3332171638
40
0.6667812410
40
1.0000000000
40
1.0000000000
40
1.0000000000
40
1.0000000000
10
13.8809776067
20
-20.0265036772
30
0.0000000000
10
13.8863291870
20
-15.5175112252
30
0.0000000000
10
13.8934550448
20
-6.4948273234
30
0.0000000000
10
13.8934550640
20
7.0368767370
30
0.0000000000
10
13.8863292177
20
16.0595822238
30
0.0000000000
10
13.8809776067
20
20.5685962606
30
0.0000000000
11
13.8809776067
21
-20.0265036772
31
0.0000000000
11
13.8916717293
21
-6.4995210212
31
0.0000000000
11
13.8916717535
21
7.0415488498
31
0.0000000000
11
13.8809776067
21
20.5685962606
31
0.0000000000
0
SPLINE
5
2D5
100
AcDbEntity
8
0
100
AcDbSpline
62
9
6
CONTINUOUS
70
0
71
3
72
11
73
7
74
5
42
0.0000001000
43
0.0000001000
44
0.0000000001
12
0.1999126049
22
0.7789938362
32
0.0000000000
13
0.8042360000
23
0.0009501344
33
0.0000000000
40
0.0000000000
40
0.0000000000
40
0.0000000000
40
0.0000000000
40
0.0845721249
40
0.3023924036
40
0.6232973290
40
1.0000000000
40
1.0000000000
40
1.0000000000
40
1.0000000000
10
13.8809776067
20
20.5685962606
30
0.0000000000
10
13.8866132846
20
20.5905566486
30
0.0000000000
10
13.9986727333
20
20.5852179036
30
0.0000000000
10
14.1379384871
20
20.6158314985
30
0.0000000000
10
14.3966448780
20
20.6179041178
30
0.0000000000
10
14.5798698130
20
20.6227484745
30
0.0000000000
10
14.6808557628
20
20.6228677806
30
0.0000000000
11
13.8809776067
21
20.5685962606
31
0.0000000000
11
13.9458137922
21
20.5891497179
31
0.0000000000
11
14.1201172794
21
20.6066422183
31
0.0000000000
11
14.3779296425
21
20.6184686633
31
0.0000000000
11
14.6808557628
21
20.6228677806
31
0.0000000000
0
SPLINE
5
2D6
100
AcDbEntity
8
0
100
AcDbSpline
62
9
6
CONTINUOUS
70
0
71
3
72
18
73
14
74
12
42
0.0000001000
43
0.0000001000
44
0.0000000001
12
-0.0007744469
22
1.3981716157
32
0.0000000000
13
-0.5913774364
23
1.2669479841
33
0.0000000000
40
0.0000000000
40
0.0000000000
40
0.0000000000
40
0.0000000000
40
0.1135744195
40
0.2403390560
40
0.3742452115
40
0.5084745095
40
0.6357937138
40
0.7493167915
40
0.8435327594
40
0.9151814249
40
0.9636238968
40
0.9906560742
40
1.0000000000
40
1.0000000000
40
1.0000000000
40
1.0000000000
10
14.6808557628
20
20.6228677846
30
0.0000000000
10
14.6808264437
20
20.6757999612
30
0.0000000000
10
14.6807160457
20
20.7878117312
30
0.0000000000
10
14.6803773037
20
20.9622309260
30
0.0000000000
10
14.6798159079
20
21.1462770075
30
0.0000000000
10
14.6789952966
20
21.3305766993
30
0.0000000000
10
14.6779673491
20
21.5053890694
30
0.0000000000
10
14.6766011335
20
21.6615071344
30
0.0000000000
10
14.6754314608
20
21.7918038567
30
0.0000000000
10
14.6732658033
20
21.8914389082
30
0.0000000000
10
14.6731471172
20
21.9604847381
30
0.0000000000
10
14.6695155247
20
21.9991847585
30
0.0000000000
10
14.6707205377
20
22.0169341306
30
0.0000000000
10
14.6688786088
20
22.0208802199
30
0.0000000000
11
14.6808557628
21
20.6228677846
31
0.0000000000
11
14.6806981786
21
20.7816642604
31
0.0000000000
11
14.6803519288
21
20.9589026660
31
0.0000000000
11
14.6797726666
21
21.1461255845
31
0.0000000000
11
14.6789351083
21
21.3337993388
31
0.0000000000
11
14.6778395584
21
21.5118100924
31
0.0000000000
11
14.6765156452
21
21.6705293403
31
0.0000000000
11
14.6750202207
21
21.8022509642
31
0.0000000000
11
14.6734287860
21
21.9024154683
31
0.0000000000
11
14.6718236838
21
21.9701273461
31
0.0000000000
11
14.6702837498
21
22.0078915908
31
0.0000000000
11
14.6688786088
21
22.0208802199
31
0.0000000000
0
SPLINE
5
2D7
100
AcDbEntity
8
0
100
AcDbSpline
62
9
6
CONTINUOUS
70
0
71
3
72
17
73
13
74
11
42
0.0000001000
43
0.0000001000
44
0.0000000001
12
-0.0007747414
22
0.6526996489
32
0.0000000000
13
-0.4615064248
23
0.4615509200
33
0.0000000000
40
0.0000000000
40
0.0000000000
40
0.0000000000
40
0.0000000000
40
0.1135352287
40
0.2402705262
40
0.3741601247
40
0.5083720918
40
0.6356668330
40
0.7491589015
40
0.8433462394
40
0.9149822922
40
0.9634419046
40
1.0000000000
40
1.0000000000
40
1.0000000000
40
1.0000000000
10
13.8809776067
20
20.5685962606
30
0.0000000000
10
13.8809482865
20
20.5932977286
30
0.0000000000
10
13.8808374714
20
20.6455723570
30
0.0000000000
10
13.8805006625
20
20.7269772913
30
0.0000000000
10
13.8799313849
20
20.8128757811
30
0.0000000000
10
13.8791394472
20
20.8989087131
30
0.0000000000
10
13.8780126963
20
20.9804498055
30
0.0000000000
10
13.8769545534
20
21.0534416976
30
0.0000000000
10
13.8749159441
20
21.1138470233
30
0.0000000000
10
13.8749143834
20
21.1613112763
30
0.0000000000
10
13.8699123962
20
21.1934047354
30
0.0000000000
10
13.8746243846
20
21.2153775896
30
0.0000000000
10
13.8690004527
20
21.2210020638
30
0.0000000000
11
13.8809776067
21
20.5685962606
31
0.0000000000
11
13.8808200095
21
20.6427005492
31
0.0000000000
11
13.8804737229
21
20.7254199668
31
0.0000000000
11
13.8798943327
21
20.8128078016
31
0.0000000000
11
13.8790565889
21
20.9004039613
31
0.0000000000
11
13.8779608466
21
20.9834820269
31
0.0000000000
11
13.8766368237
21
21.0575464788
31
0.0000000000
11
13.8751414234
21
21.1190043741
31
0.0000000000
11
13.8735501384
21
21.1657341474
31
0.0000000000
11
13.8719452397
21
21.1973229988
31
0.0000000000
11
13.8690004527
21
21.2210020638
31
0.0000000000
0
SPLINE
5
2D8
100
AcDbEntity
8
ASSI
100
AcDbSpline
62
9
6
CONTINUOUS
70
0
71
3
72
8
73
4
74
2
42
0.0000001000
43
0.0000001000
44
0.0000000001
12
-0.0149993853
22
0.3043056959
32
0.0959429164
13
-0.0146904327
23
0.3043207672
33
0.0959476681
40
0.0000000000
40
0.0000000000
40
0.0000000000
40
0.0000000000
40
1.0000000000
40
1.0000000000
40
1.0000000000
40
1.0000000000
10
-19.7971864149
20
-14.5031017083
30
-2.4935460000
10
-19.8021862101
20
-14.4016664763
30
-2.4615650279
10
-19.8071345143
20
-14.3002287063
30
-2.4295832556
10
-19.8120313252
20
-14.1987884506
30
-2.3976006995
11
-19.7971864149
21
-14.5031017083
31
-2.4935460000
11
-19.8120313252
21
-14.1987884506
31
-2.3976006995
0
SPLINE
5
2D9
100
AcDbEntity
8
ASSI
100
AcDbSpline
62
9
6
CONTINUOUS
70
0
71
3
72
8
73
4
74
2
42
0.0000001000
43
0.0000001000
44
0.0000000001
12
-0.0063528378
22
0.1316026917
32
0.0414923092
13
-0.0062950584
23
0.1316054681
33
0.0414931846
40
0.0000000000
40
0.0000000000
40
0.0000000000
40
0.0000000000
40
1.0000000000
40
1.0000000000
40
1.0000000000
40
1.0000000000
10
-19.8120313252
20
-14.1987884506
30
-2.3976006995
10
-19.8141489379
20
-14.1549208867
30
-2.3837699298
10
-19.8162569207
20
-14.1110528579
30
-2.3699390135
10
-19.8183552735
20
-14.0671843686
30
-2.3561079520
11
-19.8120313252
21
-14.1987884506
31
-2.3976006995
11
-19.8183552735
21
-14.0671843686
31
-2.3561079520
0
SPLINE
5
2DA
100
AcDbEntity
8
ASSI
100
AcDbSpline
62
9
6
CONTINUOUS
70
0
71
3
72
8
73
4
74
2
42
0.0000001000
43
0.0000001000
44
0.0000000001
12
-0.0072966708
22
0.1525453332
32
0.0480952028
13
-0.0072190401
23
0.1525490267
33
0.0480963673
40
0.0000000000
40
0.0000000000
40
0.0000000000
40
0.0000000000
40
1.0000000000
40
1.0000000000
40
1.0000000000
40
1.0000000000
10
-19.8183552735
20
-14.0671843686
30
-2.3561079520
10
-19.8207874971
20
-14.0163359242
30
-2.3400762177
10
-19.8232067824
20
-13.9654868609
30
-2.3240442883
10
-19.8256131291
20
-13.9146371853
30
-2.3080121659
11
-19.8183552735
21
-14.0671843686
31
-2.3561079520
11
-19.8256131291
21
-13.9146371853
31
-2.3080121659
0
SPLINE
5
2DB
100
AcDbEntity
8
ASSI
100
AcDbSpline
62
9
6
CONTINUOUS
70
0
71
3
72
8
73
4
74
2
42
0.0000001000
43
0.0000001000
44
0.0000000001
12
-0.0021158701
22
0.0447114739
32
0.0140968416
13
-0.0021092011
23
0.0447117890
33
0.0140969410
40
0.0000000000
40
0.0000000000
40
0.0000000000
40
0.0000000000
40
1.0000000000
40
1.0000000000
40
1.0000000000
40
1.0000000000
10
-19.8256131291
20
-13.9146371853
30
-2.3080121659
10
-19.8263184191
20
-13.8997333606
30
-2.3033132187
10
-19.8270225977
20
-13.8848294834
30
-2.2986142549
10
-19.8277256647
20
-13.8699255537
30
-2.2939152746
11
-19.8256131291
21
-13.9146371853
31
-2.3080121659
11
-19.8277256647
21
-13.8699255537
31
-2.2939152746
0
SPLINE
5
2DC
100
AcDbEntity
8
ASSI
100
AcDbSpline
62
9
6
CONTINUOUS
70
0
71
3
72
8
73
4
74
2
42
0.0000001000
43
0.0000001000
44
0.0000000001
12
-0.0059005145
22
0.1250817466
32
0.0394363553
13
-0.0058483219
23
0.1250841978
33
0.0394371282
40
0.0000000000
40
0.0000000000
40
0.0000000000
40
0.0000000000
40
1.0000000000
40
1.0000000000
40
1.0000000000
40
1.0000000000
10
-19.8277256647
20
-13.8699255537
30
-2.2939152746
10
-19.8296925029
20
-13.8282316382
30
-2.2807698228
10
-19.8316506424
20
-13.7865373123
30
-2.2676242417
10
-19.8336000830
20
-13.7448425797
30
-2.2544785323
11
-19.8277256647
21
-13.8699255537
31
-2.2939152746
11
-19.8336000830
21
-13.7448425797
31
-2.2544785323
0
SPLINE
5
2DD
100
AcDbEntity
8
ASSI
100
AcDbSpline
62
9
6
CONTINUOUS
70
0
71
3
72
8
73
4
74
2
42
0.0000001000
43
0.0000001000
44
0.0000000001
12
-0.0055967822
22
0.1197042526
32
0.0377409140
13
-0.0055489818
23
0.1197064779
33
0.0377416156
40
0.0000000000
40
0.0000000000
40
0.0000000000
40
0.0000000000
40
1.0000000000
40
1.0000000000
40
1.0000000000
40
1.0000000000
10
-19.8336000830
20
-13.7448425797
30
-2.2544785323
10
-19.8354656771
20
-13.7049411622
30
-2.2418982276
10
-19.8373233045
20
-13.6650393722
30
-2.2293178055
10
-19.8391729651
20
-13.6251372129
30
-2.2167372670
11
-19.8336000830
21
-13.7448425797
31
-2.2544785323
11
-19.8391729651
21
-13.6251372129
31
-2.2167372670
0
SPLINE
5
2DE
100
AcDbEntity
8
ASSI
100
AcDbSpline
62
9
6
CONTINUOUS
70
0
71
3
72
8
73
4
74
2
42
0.0000001000
43
0.0000001000
44
0.0000000001
12
-0.0161993752
22
0.3494641420
32
0.1101806814
13
-0.0157919790
23
0.3494827889
33
0.1101865605
40
0.0000000000
40
0.0000000000
40
0.0000000000
40
0.0000000000
40
1.0000000000
40
1.0000000000
40
1.0000000000
40
1.0000000000
10
-19.8391729651
20
-13.6251372129
30
-2.2167372670
10
-19.8445727568
20
-13.5086491655
30
-2.1800103732
10
-19.8499046510
20
-13.3921579708
30
-2.1432824870
10
-19.8551686440
20
-13.2756637079
30
-2.1065536335
11
-19.8391729651
21
-13.6251372129
31
-2.2167372670
11
-19.8551686440
21
-13.2756637079
31
-2.1065536335
0
SPLINE
5
2DF
100
AcDbEntity
8
ASSI
100
AcDbSpline
62
9
6
CONTINUOUS
70
0
71
3
72
8
73
4
74
2
42
0.0000001000
43
0.0000001000
44
0.0000000001
12
-0.0088378680
22
0.1955855405
32
0.0616651196
13
-0.0087102662
23
0.1955912647
33
0.0616669244
40
0.0000000000
40
0.0000000000
40
0.0000000000
40
0.0000000000
40
1.0000000000
40
1.0000000000
40
1.0000000000
40
1.0000000000
10
-19.8551686440
20
-13.2756637079
30
-2.1065536335
10
-19.8581146000
20
-13.2104685277
30
-2.0859985937
10
-19.8610392894
20
-13.1452723866
30
-2.0654432508
10
-19.8639427114
20
-13.0800752983
30
-2.0448876093
11
-19.8551686440
21
-13.2756637079
31
-2.1065536335
11
-19.8639427114
21
-13.0800752983
31
-2.0448876093
0
SPLINE
5
2E0
100
AcDbEntity
8
ASSI
100
AcDbSpline
62
9
6
CONTINUOUS
70
0
71
3
72
8
73
4
74
2
42
0.0000001000
43
0.0000001000
44
0.0000000001
12
-0.0087153843
22
0.1957061936
32
0.0617031597
13
-0.0085876288
23
0.1957118411
33
0.0617049403
40
0.0000000000
40
0.0000000000
40
0.0000000000
40
0.0000000000
40
1.0000000000
40
1.0000000000
40
1.0000000000
40
1.0000000000
10
-19.8639427114
20
-13.0800752983
30
-2.0448876093
10
-19.8668478395
20
-13.0148399005
30
-2.0243198894
10
-19.8697316754
20
-12.9496035544
30
-2.0037518706
10
-19.8725942183
20
-12.8843662741
30
-1.9831835571
11
-19.8639427114
21
-13.0800752983
31
-2.0448876093
11
-19.8725942183
21
-12.8843662741
31
-1.9831835571
0
SPLINE
5
2E1
100
AcDbEntity
8
ASSI
100
AcDbSpline
62
9
6
CONTINUOUS
70
0
71
3
72
8
73
4
74
2
42
0.0000001000
43
0.0000001000
44
0.0000000001
12
-0.0022552191
22
0.0522177894
32
0.0164634677
13
-0.0022461246
23
0.0522181814
33
0.0164635913
40
0.0000000000
40
0.0000000000
40
0.0000000000
40
0.0000000000
40
1.0000000000
40
1.0000000000
40
1.0000000000
40
1.0000000000
10
-19.8815861624
20
-12.6778155175
30
-1.9180612731
10
-19.8823379021
20
-12.6604095877
30
-1.9125734505
10
-19.8830881260
20
-12.6430035924
30
-1.9070856073
10
-19.8838368343
20
-12.6255975319
30
-1.9015977436
11
-19.8815861624
21
-12.6778155175
31
-1.9180612731
11
-19.8838368343
21
-12.6255975319
31
-1.9015977436
0
SPLINE
5
2E2
100
AcDbEntity
8
ASSI
100
AcDbSpline
62
9
6
CONTINUOUS
70
0
71
3
72
8
73
4
74
2
42
0.0000001000
43
0.0000001000
44
0.0000000001
12
-0.0083558523
22
0.1942578798
32
0.0612465286
13
-0.0082299891
23
0.1942632529
33
0.0612482227
40
0.0000000000
40
0.0000000000
40
0.0000000000
40
0.0000000000
40
1.0000000000
40
1.0000000000
40
1.0000000000
40
1.0000000000
10
-19.8838368343
20
-12.6255975319
30
-1.9015977436
10
-19.8866221184
20
-12.5608449053
30
-1.8811822340
10
-19.8893864255
20
-12.4960913764
30
-1.8607664400
10
-19.8921297552
20
-12.4313369588
30
-1.8403503658
11
-19.8838368343
21
-12.6255975319
31
-1.9015977436
11
-19.8921297552
21
-12.4313369588
31
-1.8403503658
0
SPLINE
5
2E3
100
AcDbEntity
8
ASSI
100
AcDbSpline
62
9
6
CONTINUOUS
70
0
71
3
72
8
73
4
74
2
42
0.0000001000
43
0.0000001000
44
0.0000000001
12
-0.0100035679
22
0.2361273642
32
0.0744473346
13
-0.0098176063
23
0.2361351692
33
0.0744497953
40
0.0000000000
40
0.0000000000
40
0.0000000000
40
0.0000000000
40
1.0000000000
40
1.0000000000
40
1.0000000000
40
1.0000000000
10
-19.8921297552
20
-12.4313369588
30
-1.8403503658
10
-19.8954642779
20
-12.3526278374
30
-1.8155345876
10
-19.8987678074
20
-12.2739174029
30
-1.7907183954
10
-19.9020403428
20
-12.1952056799
30
-1.7659017970
11
-19.8921297552
21
-12.4313369588
31
-1.8403503658
11
-19.9020403428
21
-12.1952056799
31
-1.7659017970
0
SPLINE
5
2E4
100
AcDbEntity
8
ASSI
100
AcDbSpline
62
9
6
CONTINUOUS
70
0
71
3
72
8
73
4
74
2
42
0.0000001000
43
0.0000001000
44
0.0000000001
12
-0.0051432647
22
0.1237069051
32
0.0390028889
13
-0.0050922259
23
0.1237090165
33
0.0390035546
40
0.0000000000
40
0.0000000000
40
0.0000000000
40
0.0000000000
40
1.0000000000
40
1.0000000000
40
1.0000000000
40
1.0000000000
10
-19.9020403428
20
-12.1952056799
30
-1.7659017970
10
-19.9037547644
20
-12.1539700449
30
-1.7529008340
10
-19.9054606796
20
-12.1127340562
30
-1.7398997595
10
-19.9071580883
20
-12.0714977173
30
-1.7268985747
11
-19.9020403428
21
-12.1952056799
31
-1.7659017970
11
-19.9071580883
21
-12.0714977173
31
-1.7268985747
0
SPLINE
5
2E5
100
AcDbEntity
8
ASSI
100
AcDbSpline
62
9
6
CONTINUOUS
70
0
71
3
72
8
73
4
74
2
42
0.0000001000
43
0.0000001000
44
0.0000000001
12
-0.0024134334
22
0.0586312304
32
0.0184855272
13
-0.0024019687
23
0.0586317012
33
0.0184856757
40
0.0000000000
40
0.0000000000
40
0.0000000000
40
0.0000000000
40
1.0000000000
40
1.0000000000
40
1.0000000000
40
1.0000000000
10
-19.9071580883
20
-12.0714977173
30
-1.7268985747
10
-19.9079625661
20
-12.0519539739
30
-1.7207367323
10
-19.9087651331
20
-12.0324101518
30
-1.7145748651
10
-19.9095657893
20
-12.0128662514
30
-1.7084129732
11
-19.9071580883
21
-12.0714977173
31
-1.7268985747
11
-19.9095657893
21
-12.0128662514
31
-1.7084129732
0
SPLINE
5
2E6
100
AcDbEntity
8
ASSI
100
AcDbSpline
62
9
6
CONTINUOUS
70
0
71
3
72
8
73
4
74
2
42
0.0000001000
43
0.0000001000
44
0.0000000001
12
-0.0162978265
22
0.4007933404
32
0.1263639900
13
-0.0157620971
23
0.4008147666
33
0.1263707454
40
0.0000000000
40
0.0000000000
40
0.0000000000
40
0.0000000000
40
1.0000000000
40
1.0000000000
40
1.0000000000
40
1.0000000000
10
-19.9132697295
20
-11.9221178547
30
-1.6798013962
10
-19.9187023384
20
-11.7885200745
30
-1.6376800662
10
-19.9240456614
20
-11.6549186637
30
-1.5955575915
10
-19.9292996937
20
-11.5213137415
30
-1.5534340097
11
-19.9132697295
21
-11.9221178547
31
-1.6798013962
11
-19.9292996937
21
-11.5213137415
31
-1.5534340097
0
SPLINE
5
2E7
100
AcDbEntity
8
ASSI
100
AcDbSpline
62
9
6
CONTINUOUS
70
0
71
3
72
8
73
4
74
2
42
0.0000001000
43
0.0000001000
44
0.0000000001
12
-0.0037833353
22
0.0962065294
32
0.0303324424
13
-0.0037524692
23
0.0962077383
33
0.0303328236
40
0.0000000000
40
0.0000000000
40
0.0000000000
40
0.0000000000
40
1.0000000000
40
1.0000000000
40
1.0000000000
40
1.0000000000
10
-19.9292996937
20
-11.5213137415
30
-1.5534340097
10
-19.9305608055
20
-11.4892448983
30
-1.5433231955
10
-19.9318167730
20
-11.4571758529
30
-1.5332123176
10
-19.9330675961
20
-11.4251066068
30
-1.5231013764
11
-19.9292996937
21
-11.5213137415
31
-1.5534340097
11
-19.9330675961
21
-11.4251066068
31
-1.5231013764
0
SPLINE
5
2E8
100
AcDbEntity
8
ASSI
100
AcDbSpline
62
9
6
CONTINUOUS
70
0
71
3
72
8
73
4
74
2
42
0.0000001000
43
0.0000001000
44
0.0000000001
12
0.0037423124
22
-0.0959419719
32
0.0302432805
13
0.0037730082
23
-0.0959407697
33
0.0302429016
40
0.0000000000
40
0.0000000000
40
0.0000000000
40
0.0000000000
40
1.0000000000
40
1.0000000000
40
1.0000000000
40
1.0000000000
10
-19.9330421444
20
-11.4257591310
30
1.5437735699
10
-19.9317947069
20
-11.4577397883
30
1.5538546634
10
-19.9305421535
20
-11.4897202460
30
1.5639356940
10
-19.9292844841
20
-11.5217005026
30
1.5740166612
11
-19.9330421444
21
-11.4257591310
31
1.5437735699
11
-19.9292844841
21
-11.5217005026
31
1.5740166612
0
SPLINE
5
2E9
100
AcDbEntity
8
ASSI
100
AcDbSpline
62
9
6
CONTINUOUS
70
0
71
3
72
8
73
4
74
2
42
0.0000001000
43
0.0000001000
44
0.0000000001
12
0.0157576825
22
-0.4006893453
32
0.1263071838
13
0.0162930767
23
-0.4006679319
33
0.1263004338
40
0.0000000000
40
0.0000000000
40
0.0000000000
40
0.0000000000
40
1.0000000000
40
1.0000000000
40
1.0000000000
40
1.0000000000
10
-19.9292844841
20
-11.5217005026
30
1.5740166612
10
-19.9240319232
20
-11.6552636177
30
1.6161190558
10
-19.9186901276
20
-11.7888232235
30
1.6582203442
10
-19.9132591021
20
-11.9223792008
30
1.7003204888
11
-19.9292844841
21
-11.5217005026
31
1.5740166612
11
-19.9132591021
21
-11.9223792008
31
1.7003204888
0
SPLINE
5
2EA
100
AcDbEntity
8
ASSI
100
AcDbSpline
62
9
6
CONTINUOUS
70
0
71
3
72
8
73
4
74
2
42
0.0000001000
43
0.0000001000
44
0.0000000001
12
0.0036978802
22
-0.0909356799
32
0.0286651736
13
0.0037254579
23
-0.0909345542
33
0.0286648187
40
0.0000000000
40
0.0000000000
40
0.0000000000
40
0.0000000000
40
1.0000000000
40
1.0000000000
40
1.0000000000
40
1.0000000000
10
-19.9132591021
20
-11.9223792008
30
1.7003204888
10
-19.9120264753
20
-11.9526910941
30
1.7098755466
10
-19.9107892523
20
-11.9830028005
30
1.7194305456
10
-19.9095474330
20
-12.0133143186
30
1.7289854851
11
-19.9132591021
21
-11.9223792008
31
1.7003204888
11
-19.9095474330
21
-12.0133143186
31
1.7289854851
0
SPLINE
5
2EB
100
AcDbEntity
8
ASSI
100
AcDbSpline
62
9
6
CONTINUOUS
70
0
71
3
72
8
73
4
74
2
42
0.0000001000
43
0.0000001000
44
0.0000000001
12
0.0024041568
22
-0.0586829678
32
0.0184983217
13
0.0024156415
23
-0.0586824961
33
0.0184981730
40
0.0000000000
40
0.0000000000
40
0.0000000000
40
0.0000000000
40
1.0000000000
40
1.0000000000
40
1.0000000000
40
1.0000000000
10
-19.9095474330
20
-12.0133143186
30
1.7289854851
10
-19.9087460474
20
-12.0328753078
30
1.7351515924
10
-19.9079427477
20
-12.0524362187
30
1.7413176749
10
-19.9071375338
20
-12.0719970507
30
1.7474837325
11
-19.9095474330
21
-12.0133143186
31
1.7289854851
11
-19.9071375338
21
-12.0719970507
31
1.7474837325
0
SPLINE
5
2EC
100
AcDbEntity
8
ASSI
100
AcDbSpline
62
9
6
CONTINUOUS
70
0
71
3
72
8
73
4
74
2
42
0.0000001000
43
0.0000001000
44
0.0000000001
12
0.0050857398
22
-0.1235464372
32
0.0389448902
13
0.0051366445
23
-0.1235443312
33
0.0389442263
40
0.0000000000
40
0.0000000000
40
0.0000000000
40
0.0000000000
40
1.0000000000
40
1.0000000000
40
1.0000000000
40
1.0000000000
10
-19.9071375338
20
-12.0719970507
30
1.7474837325
10
-19.9054422872
20
-12.1131791964
30
1.7604653626
10
-19.9037385564
20
-12.1543609929
30
1.7734468826
10
-19.9020263416
20
-12.1955424367
30
1.7864282913
11
-19.9071375338
21
-12.0719970507
31
1.7474837325
11
-19.9020263416
21
-12.1955424367
31
1.7864282913
0
SPLINE
5
2ED
100
AcDbEntity
8
ASSI
100
AcDbSpline
62
9
6
CONTINUOUS
70
0
71
3
72
8
73
4
74
2
42
0.0000001000
43
0.0000001000
44
0.0000000001
12
0.0098111463
22
-0.2359734055
32
0.0743846490
13
0.0099968532
23
-0.2359656111
33
0.0743821920
40
0.0000000000
40
0.0000000000
40
0.0000000000
40
0.0000000000
40
1.0000000000
40
1.0000000000
40
1.0000000000
40
1.0000000000
10
-19.9020263416
20
-12.1955424367
30
1.7864282913
10
-19.8987559595
20
-12.2742002385
30
1.8112231743
10
-19.8954546258
20
-12.3528567534
30
1.8360176517
10
-19.8921223414
20
-12.4315119571
30
1.8608117156
11
-19.9020263416
21
-12.1955424367
31
1.7864282913
11
-19.8921223414
21
-12.4315119571
31
1.8608117156
0
SPLINE
5
2EE
100
AcDbEntity
8
ASSI
100
AcDbSpline
62
9
6
CONTINUOUS
70
0
71
3
72
8
73
4
74
2
42
0.0000001000
43
0.0000001000
44
0.0000000001
12
0.0082406163
22
-0.1945114169
32
0.0613148055
13
0.0083668013
23
-0.1945060299
33
0.0613131074
40
0.0000000000
40
0.0000000000
40
0.0000000000
40
0.0000000000
40
1.0000000000
40
1.0000000000
40
1.0000000000
40
1.0000000000
10
-19.8921223414
20
-12.4315119571
30
1.8608117156
10
-19.8893754693
20
-12.4963490961
30
1.8812499842
10
-19.8866075660
20
-12.5611853440
30
1.9016879718
10
-19.8838186323
20
-12.6260206873
30
1.9221256743
11
-19.8921223414
21
-12.4315119571
31
1.8608117156
11
-19.8838186323
21
-12.6260206873
31
1.9221256743
0
SPLINE
5
2EF
100
AcDbEntity
8
ASSI
100
AcDbSpline
62
9
6
CONTINUOUS
70
0
71
3
72
8
73
4
74
2
42
0.0000001000
43
0.0000001000
44
0.0000000001
12
0.0022414072
22
-0.0521067978
32
0.0164253504
13
0.0022504630
23
-0.0521064075
33
0.0164252273
40
0.0000000000
40
0.0000000000
40
0.0000000000
40
0.0000000000
40
1.0000000000
40
1.0000000000
40
1.0000000000
40
1.0000000000
10
-19.8838186323
20
-12.6260206873
30
1.9221256743
10
-19.8830714965
20
-12.6433896199
30
1.9276007911
10
-19.8823228515
20
-12.6607584876
30
1.9330758874
10
-19.8815726972
20
-12.6781272901
30
1.9385509632
11
-19.8838186323
21
-12.6260206873
31
1.9221256743
11
-19.8815726972
21
-12.6781272901
31
1.9385509632
0
SPLINE
5
2F0
100
AcDbEntity
8
ASSI
100
AcDbSpline
62
9
6
CONTINUOUS
70
0
71
3
72
8
73
4
74
2
42
0.0000001000
43
0.0000001000
44
0.0000000001
12
0.0089215897
22
-0.2065672689
32
0.0651151080
13
0.0090639061
23
-0.2065610732
33
0.0651131550
40
0.0000000000
40
0.0000000000
40
0.0000000000
40
0.0000000000
40
1.0000000000
40
1.0000000000
40
1.0000000000
40
1.0000000000
10
-19.8815726972
20
-12.6781272901
30
1.9385509632
10
-19.8785988339
20
-12.7469830464
30
1.9602559992
10
-19.8756012509
20
-12.8158377783
30
1.9819607122
10
-19.8725799489
20
-12.8846914693
30
2.0036650972
11
-19.8815726972
21
-12.6781272901
31
1.9385509632
11
-19.8725799489
21
-12.8846914693
31
2.0036650972
0
SPLINE
5
2F1
100
AcDbEntity
8
ASSI
100
AcDbSpline
62
9
6
CONTINUOUS
70
0
71
3
72
8
73
4
74
2
42
0.0000001000
43
0.0000001000
44
0.0000000001
12
0.0085769321
22
-0.1954632213
32
0.0616148378
13
0.0087043632
23
-0.1954575880
33
0.0616130620
40
0.0000000000
40
0.0000000000
40
0.0000000000
40
0.0000000000
40
1.0000000000
40
1.0000000000
40
1.0000000000
40
1.0000000000
10
-19.8725799489
20
-12.8846914693
30
2.0036650972
10
-19.8697209715
20
-12.9498458764
30
2.0242033765
10
-19.8668407554
20
-13.0149993516
30
2.0447413620
10
-19.8639393010
20
-13.0801518809
30
2.0652790493
11
-19.8725799489
21
-12.8846914693
31
2.0036650972
11
-19.8639393010
21
-13.0801518809
31
2.0652790493
0
SPLINE
5
2F2
100
AcDbEntity
8
ASSI
100
AcDbSpline
62
9
6
CONTINUOUS
70
0
71
3
72
8
73
4
74
2
42
0.0000001000
43
0.0000001000
44
0.0000000001
12
0.0081876139
22
-0.1838539175
32
0.0579552983
13
0.0083003607
23
-0.1838488618
33
0.0579537047
40
0.0000000000
40
0.0000000000
40
0.0000000000
40
0.0000000000
40
1.0000000000
40
1.0000000000
40
1.0000000000
40
1.0000000000
10
-19.8639393010
20
-13.0801518809
30
2.0652790493
10
-19.8612100963
20
-13.1414365201
30
2.0845974821
10
-19.8584621003
20
-13.2027203224
30
2.1039156511
10
-19.8556953134
20
-13.2640032763
30
2.1232335527
11
-19.8639393010
21
-13.0801518809
31
2.0652790493
11
-19.8556953134
21
-13.2640032763
31
2.1232335527
0
SPLINE
5
2F3
100
AcDbEntity
8
ASSI
100
AcDbSpline
62
9
6
CONTINUOUS
70
0
71
3
72
8
73
4
74
2
42
0.0000001000
43
0.0000001000
44
0.0000000001
12
0.0163324432
22
-0.3617554943
32
0.1140342718
13
0.0167689535
23
-0.3617355230
33
0.1140279763
40
0.0000000000
40
0.0000000000
40
0.0000000000
40
0.0000000000
40
1.0000000000
40
1.0000000000
40
1.0000000000
40
1.0000000000
10
-19.8556953134
20
-13.2640032763
30
2.1232335527
10
-19.8502511657
20
-13.3845884411
30
2.1612449766
10
-19.8447342642
20
-13.5051703212
30
2.1992553651
10
-19.8391446130
20
-13.6257488289
30
2.2372646906
11
-19.8556953134
21
-13.2640032763
31
2.1232335527
11
-19.8391446130
21
-13.6257488289
31
2.2372646906
0
SPLINE
5
2F4
100
AcDbEntity
8
ASSI
100
AcDbSpline
62
9
6
CONTINUOUS
70
0
71
3
72
8
73
4
74
2
42
0.0000001000
43
0.0000001000
44
0.0000000001
12
0.0055225229
22
-0.1191304340
32
0.0375528568
13
0.0055698643
23
-0.1191282300
33
0.0375521621
40
0.0000000000
40
0.0000000000
40
0.0000000000
40
0.0000000000
40
1.0000000000
40
1.0000000000
40
1.0000000000
40
1.0000000000
10
-19.8391446130
20
-13.6257488289
30
2.2372646906
10
-19.8373037721
20
-13.6654589735
30
2.2497823095
10
-19.8354550408
20
-13.7051687524
30
2.2622998132
10
-19.8335984193
20
-13.7448781624
30
2.2748172005
11
-19.8391446130
21
-13.6257488289
31
2.2372646906
11
-19.8335984193
21
-13.7448781624
31
2.2748172005
0
SPLINE
5
2F5
100
AcDbEntity
8
ASSI
100
AcDbSpline
62
9
6
CONTINUOUS
70
0
71
3
72
8
73
4
74
2
42
0.0000001000
43
0.0000001000
44
0.0000000001
12
0.0058512850
22
-0.1251472532
32
0.0394495069
13
0.0059035302
23
-0.1251447995
33
0.0394487335
40
0.0000000000
40
0.0000000000
40
0.0000000000
40
0.0000000000
40
1.0000000000
40
1.0000000000
40
1.0000000000
40
1.0000000000
10
-19.8335984193
20
-13.7448781624
30
2.2748172005
10
-19.8316479910
20
-13.7865939135
30
2.2879670362
10
-19.8296888551
20
-13.8283092574
30
2.3011167435
10
-19.8277210117
20
-13.8700241906
30
2.3142663213
11
-19.8335984193
21
-13.7448781624
31
2.2748172005
11
-19.8277210117
21
-13.8700241906
31
2.3142663213
0
SPLINE
5
2F6
100
AcDbEntity
8
ASSI
100
AcDbSpline
62
9
6
CONTINUOUS
70
0
71
3
72
8
73
4
74
2
42
0.0000001000
43
0.0000001000
44
0.0000000001
12
0.0021119962
22
-0.0447707283
32
0.0141128400
13
0.0021186828
23
-0.0447704124
33
0.0141127404
40
0.0000000000
40
0.0000000000
40
0.0000000000
40
0.0000000000
40
1.0000000000
40
1.0000000000
40
1.0000000000
40
1.0000000000
10
-19.8277210117
20
-13.8700241906
30
2.3142663213
10
-19.8270170129
20
-13.8849477667
30
2.3189706013
10
-19.8263118997
20
-13.8998712903
30
2.3236748647
10
-19.8256056721
20
-13.9147947611
30
2.3283791115
11
-19.8277210117
21
-13.8700241906
31
2.3142663213
11
-19.8256056721
21
-13.9147947611
31
2.3283791115
0
SPLINE
5
2F7
100
AcDbEntity
8
ASSI
100
AcDbSpline
62
9
6
CONTINUOUS
70
0
71
3
72
8
73
4
74
2
42
0.0000001000
43
0.0000001000
44
0.0000000001
12
0.0072165982
22
-0.1524957276
32
0.0480704219
13
0.0072941747
23
-0.1524920366
33
0.0480692585
40
0.0000000000
40
0.0000000000
40
0.0000000000
40
0.0000000000
40
1.0000000000
40
1.0000000000
40
1.0000000000
40
1.0000000000
10
-19.8256056721
20
-13.9147947611
30
2.3283791115
10
-19.8232001394
20
-13.9656266703
30
2.3444025855
10
-19.8207816771
20
-14.0164579676
30
2.3604258666
10
-19.8183502855
20
-14.0672886465
30
2.3764489528
11
-19.8256056721
21
-13.9147947611
31
2.3283791115
11
-19.8183502855
21
-14.0672886465
31
2.3764489528
0
SPLINE
5
2F8
100
AcDbEntity
8
ASSI
100
AcDbSpline
62
9
6
CONTINUOUS
70
0
71
3
72
8
73
4
74
2
42
0.0000001000
43
0.0000001000
44
0.0000000001
12
0.0062783311
22
-0.1312548089
32
0.0413747594
13
0.0063358031
23
-0.1312520472
33
0.0413738889
40
0.0000000000
40
0.0000000000
40
0.0000000000
40
0.0000000000
40
1.0000000000
40
1.0000000000
40
1.0000000000
40
1.0000000000
10
-19.8183502855
20
-14.0672886465
30
2.3764489528
10
-19.8162575085
20
-14.1110402494
30
2.3902405392
10
-19.8141551527
20
-14.1547913942
30
2.4040319813
10
-19.8120432183
20
-14.1985420766
30
2.4178232776
11
-19.8183502855
21
-14.0672886465
31
2.3764489528
11
-19.8120432183
21
-14.1985420766
31
2.4178232776
0
SPLINE
5
2F9
100
AcDbEntity
8
ASSI
100
AcDbSpline
62
9
6
CONTINUOUS
70
0
71
3
72
8
73
4
74
2
42
0.0000001000
43
0.0000001000
44
0.0000000001
12
-0.0130956727
22
0.2665863460
32
-0.0840521103
13
-0.0128585666
23
0.2665978878
33
-0.0840557493
40
0.0000000000
40
0.0000000000
40
0.0000000000
40
0.0000000000
40
1.0000000000
40
1.0000000000
40
1.0000000000
40
1.0000000000
10
-19.7996428335
20
-14.4531816469
30
2.6501190510
10
-19.8040080578
20
-14.3643195315
30
2.6221016809
10
-19.8083337652
20
-14.2754554750
30
2.5940836987
10
-19.8126199540
20
-14.1865895124
30
2.5660651156
11
-19.7996428335
21
-14.4531816469
31
2.6501190510
11
-19.8126199540
21
-14.1865895124
31
2.5660651156
0
SPLINE
5
2FA
100
AcDbEntity
8
ASSI
100
AcDbSpline
62
9
6
CONTINUOUS
70
0
71
3
72
8
73
4
74
2
42
0.0000001000
43
0.0000001000
44
0.0000000001
12
-0.0068169559
22
0.1413365963
32
-0.0445620691
13
-0.0067503132
23
0.1413397948
33
-0.0445630776
40
0.0000000000
40
0.0000000000
40
0.0000000000
40
0.0000000000
40
1.0000000000
40
1.0000000000
40
1.0000000000
40
1.0000000000
10
-19.8126199540
20
-14.1865895124
30
2.5660651156
10
-19.8148922727
20
-14.1394773136
30
2.5512110926
10
-19.8171534843
20
-14.0923645792
30
2.5363569006
10
-19.8194035887
20
-14.0452513142
30
2.5215025414
11
-19.8126199540
21
-14.1865895124
31
2.5660651156
11
-19.8194035887
21
-14.0452513142
31
2.5215025414
0
SPLINE
5
2FB
100
AcDbEntity
8
ASSI
100
AcDbSpline
62
9
6
CONTINUOUS
70
0
71
3
72
8
73
4
74
2
42
0.0000001000
43
0.0000001000
44
0.0000000001
12
-0.0092897904
22
0.1945120236
32
-0.0613277698
13
-0.0091635704
23
0.1945180108
33
-0.0613296575
40
0.0000000000
40
0.0000000000
40
0.0000000000
40
0.0000000000
40
1.0000000000
40
1.0000000000
40
1.0000000000
40
1.0000000000
10
-19.8194035887
20
-14.0452513142
30
2.5215025414
10
-19.8225001855
20
-13.9804139730
30
2.5010599515
10
-19.8255757459
20
-13.9155756271
30
2.4806170448
10
-19.8286302694
20
-13.8507362902
30
2.4601738256
11
-19.8194035887
21
-14.0452513142
31
2.5215025414
11
-19.8286302694
21
-13.8507362902
31
2.4601738256
0
SPLINE
5
2FC
100
AcDbEntity
8
ASSI
100
AcDbSpline
62
9
6
CONTINUOUS
70
0
71
3
72
8
73
4
74
2
42
0.0000001000
43
0.0000001000
44
0.0000000001
12
-0.0065771582
22
0.1431080506
32
-0.0451205916
13
-0.0065088418
23
0.1431111740
33
-0.0451215764
40
0.0000000000
40
0.0000000000
40
0.0000000000
40
0.0000000000
40
1.0000000000
40
1.0000000000
40
1.0000000000
40
1.0000000000
10
-19.8446340580
20
-13.5068219796
30
2.3517409520
10
-19.8468264441
20
-13.4591192961
30
2.3367007548
10
-19.8490074442
20
-13.4114160893
30
2.3216603926
10
-19.8511770581
20
-13.3637123646
30
2.3066198671
11
-19.8446340580
21
-13.5068219796
31
2.3517409520
11
-19.8511770581
21
-13.3637123646
31
2.3066198671
0
SPLINE
5
2FD
100
AcDbEntity
8
ASSI
100
AcDbSpline
62
9
6
CONTINUOUS
70
0
71
3
72
8
73
4
74
2
42
0.0000001000
43
0.0000001000
44
0.0000000001
12
-0.0055691904
22
0.1224508770
32
-0.0386075835
13
-0.0055191743
23
0.1224531415
33
-0.0386082975
40
0.0000000000
40
0.0000000000
40
0.0000000000
40
0.0000000000
40
1.0000000000
40
1.0000000000
40
1.0000000000
40
1.0000000000
10
-19.8511770581
20
-13.3637123646
30
2.3066198671
10
-19.8530334549
20
-13.3228954056
30
2.2937506726
10
-19.8548815158
20
-13.2820780675
30
2.2808813585
10
-19.8567212405
20
-13.2412603536
30
2.2680119260
11
-19.8511770581
21
-13.3637123646
31
2.3066198671
11
-19.8567212405
21
-13.2412603536
31
2.2680119260
0
SPLINE
5
2FE
100
AcDbEntity
8
ASSI
100
AcDbSpline
62
9
6
CONTINUOUS
70
0
71
3
72
8
73
4
74
2
42
0.0000001000
43
0.0000001000
44
0.0000000001
12
-0.0019875960
22
0.0440985114
32
-0.0139038364
13
-0.0019811093
23
0.0440988033
33
-0.0139039284
40
0.0000000000
40
0.0000000000
40
0.0000000000
40
0.0000000000
40
1.0000000000
40
1.0000000000
40
1.0000000000
40
1.0000000000
10
-19.8567212405
20
-13.2412603536
30
2.2680119260
10
-19.8573837725
20
-13.2265608498
30
2.2633773139
10
-19.8580452234
20
-13.2118612973
30
2.2587426864
10
-19.8587055931
20
-13.1971616962
30
2.2541080436
11
-19.8567212405
21
-13.2412603536
31
2.2680119260
11
-19.8587055931
21
-13.1971616962
31
2.2541080436
0
SPLINE
5
2FF
100
AcDbEntity
8
ASSI
100
AcDbSpline
62
9
6
CONTINUOUS
70
0
71
3
72
8
73
4
74
2
42
0.0000001000
43
0.0000001000
44
0.0000000001
12
-0.0063438106
22
0.1412110192
32
-0.0445224759
13
-0.0062772966
23
0.1412139916
33
-0.0445234130
40
0.0000000000
40
0.0000000000
40
0.0000000000
40
0.0000000000
40
1.0000000000
40
1.0000000000
40
1.0000000000
40
1.0000000000
10
-19.8587055931
20
-13.1971616962
30
2.2541080436
10
-19.8608201967
20
-13.1500913565
30
2.2392672183
10
-19.8629237147
20
-13.1030205187
30
2.2244262360
10
-19.8650161469
20
-13.0559491882
30
2.2095850983
11
-19.8587055931
21
-13.1971616962
31
2.2541080436
11
-19.8650161469
21
-13.0559491882
31
2.2095850983
0
SPLINE
5
300
100
AcDbEntity
8
ASSI
100
AcDbSpline
62
9
6
CONTINUOUS
70
0
71
3
72
8
73
4
74
2
42
0.0000001000
43
0.0000001000
44
0.0000000001
12
-0.0087660811
22
0.1972016610
32
-0.0621757866
13
-0.0086363662
23
0.1972073844
33
-0.0621775911
40
0.0000000000
40
0.0000000000
40
0.0000000000
40
0.0000000000
40
1.0000000000
40
1.0000000000
40
1.0000000000
40
1.0000000000
10
-19.8650161469
20
-13.0559491882
30
2.2095850983
10
-19.8679381739
20
-12.9902153012
30
2.1888598361
10
-19.8708385821
20
-12.9244804532
30
2.1681342709
10
-19.8737173708
20
-12.8587446584
30
2.1474084072
11
-19.8650161469
21
-13.0559491882
31
2.2095850983
11
-19.8737173708
21
-12.8587446584
31
2.1474084072
0
SPLINE
5
301
100
AcDbEntity
8
ASSI
100
AcDbSpline
62
9
6
CONTINUOUS
70
0
71
3
72
8
73
4
74
2
42
0.0000001000
43
0.0000001000
44
0.0000000001
12
-0.0026089981
22
0.0605875545
32
-0.0191026731
13
-0.0025967547
23
0.0605880805
33
-0.0191028389
40
0.0000000000
40
0.0000000000
40
0.0000000000
40
0.0000000000
40
1.0000000000
40
1.0000000000
40
1.0000000000
40
1.0000000000
10
-19.8832264255
20
-12.6397805758
30
2.0783711384
10
-19.8840960916
20
-12.6195847243
30
2.0720035807
10
-19.8849637170
20
-12.5993887849
30
2.0656359953
10
-19.8858293019
20
-12.5791927581
30
2.0592683823
11
-19.8832264255
21
-12.6397805758
31
2.0783711384
11
-19.8858293019
21
-12.5791927581
31
2.0592683823
0
SPLINE
5
302
100
AcDbEntity
8
ASSI
100
AcDbSpline
62
9
6
CONTINUOUS
70
0
71
3
72
8
73
4
74
2
42
0.0000001000
43
0.0000001000
44
0.0000000001
12
-0.0077957254
22
0.1818916685
32
-0.0573486933
13
-0.0076853776
23
0.1818963644
33
-0.0573501738
40
0.0000000000
40
0.0000000000
40
0.0000000000
40
0.0000000000
40
1.0000000000
40
1.0000000000
40
1.0000000000
40
1.0000000000
10
-19.8858293019
20
-12.5791927581
30
2.0592683823
10
-19.8884278771
20
-12.5185622019
30
2.0401521512
10
-19.8910080611
20
-12.4579308575
30
2.0210356716
10
-19.8935698536
20
-12.3972987361
30
2.0019189470
11
-19.8858293019
21
-12.5791927581
31
2.0592683823
11
-19.8935698536
21
-12.3972987361
31
2.0019189470
0
SPLINE
5
303
100
AcDbEntity
8
ASSI
100
AcDbSpline
62
9
6
CONTINUOUS
70
0
71
3
72
8
73
4
74
2
42
0.0000001000
43
0.0000001000
44
0.0000000001
12
-0.0096267736
22
0.2278450361
32
-0.0718373480
13
-0.0094536297
23
0.2278522857
33
-0.0718396337
40
0.0000000000
40
0.0000000000
40
0.0000000000
40
0.0000000000
40
1.0000000000
40
1.0000000000
40
1.0000000000
40
1.0000000000
10
-19.8935698536
20
-12.3972987361
30
2.0019189470
10
-19.8967787782
20
-12.3213503907
30
1.9779731644
10
-19.8999588459
20
-12.2454008261
30
1.9540269973
10
-19.9031100558
20
-12.1694500642
30
1.9300804527
11
-19.8935698536
21
-12.3972987361
31
2.0019189470
11
-19.9031100558
21
-12.1694500642
31
1.9300804527
0
SPLINE
5
304
100
AcDbEntity
8
ASSI
100
AcDbSpline
62
9
6
CONTINUOUS
70
0
71
3
72
8
73
4
74
2
42
0.0000001000
43
0.0000001000
44
0.0000000001
12
-0.0059586185
22
0.1436151918
32
-0.0452804884
13
-0.0058898305
23
0.1436180293
33
-0.0452813830
40
0.0000000000
40
0.0000000000
40
0.0000000000
40
0.0000000000
40
1.0000000000
40
1.0000000000
40
1.0000000000
40
1.0000000000
10
-19.9031100558
20
-12.1694500642
30
1.9300804527
10
-19.9050962619
20
-12.1215783336
30
1.9149869566
10
-19.9070710035
20
-12.0737061273
30
1.8998933105
10
-19.9090342804
20
-12.0258334509
30
1.8847995161
11
-19.9031100558
21
-12.1694500642
31
1.9300804527
11
-19.9090342804
21
-12.0258334509
31
1.8847995161
0
SPLINE
5
305
100
AcDbEntity
8
ASSI
100
AcDbSpline
62
9
6
CONTINUOUS
70
0
71
3
72
8
73
4
74
2
42
0.0000001000
43
0.0000001000
44
0.0000000001
12
-0.0020422448
22
0.0497982373
32
-0.0157009051
13
-0.0020339744
23
0.0497985758
33
-0.0157010119
40
0.0000000000
40
0.0000000000
40
0.0000000000
40
0.0000000000
40
1.0000000000
40
1.0000000000
40
1.0000000000
40
1.0000000000
10
-19.9090342804
20
-12.0258334509
30
1.8847995161
10
-19.9097150286
20
-12.0092340385
30
1.8795658811
10
-19.9103943985
20
-11.9926345695
30
1.8743322282
10
-19.9110723900
20
-11.9760350443
30
1.8690985576
11
-19.9090342804
21
-12.0258334509
31
1.8847995161
11
-19.9110723900
21
-11.9760350443
31
1.8690985576
0
SPLINE
5
306
100
AcDbEntity
8
ASSI
100
AcDbSpline
62
9
6
CONTINUOUS
70
0
71
3
72
8
73
4
74
2
42
0.0000001000
43
0.0000001000
44
0.0000000001
12
-0.0162866871
22
0.4013177251
32
-0.1265316180
13
-0.0157495567
23
0.4013391634
33
-0.1265383773
40
0.0000000000
40
0.0000000000
40
0.0000000000
40
0.0000000000
40
1.0000000000
40
1.0000000000
40
1.0000000000
40
1.0000000000
10
-19.9142534421
20
-11.8979024793
30
1.8444641115
10
-19.9196823378
20
-11.7641299042
30
1.8022869055
10
-19.9250217142
20
-11.6303536962
30
1.7601085541
10
-19.9302715664
20
-11.4965739751
30
1.7179290950
11
-19.9142534421
21
-11.8979024793
31
1.8444641115
11
-19.9302715664
21
-11.4965739751
31
1.7179290950
0
SPLINE
5
307
100
AcDbEntity
8
ASSI
100
AcDbSpline
62
9
6
CONTINUOUS
70
0
71
3
72
8
73
4
74
2
42
0.0000001000
43
0.0000001000
44
0.0000000001
12
-0.0045056752
22
0.1148161789
32
-0.0362004367
13
-0.0044617132
23
0.1148178956
33
-0.0362009779
40
0.0000000000
40
0.0000000000
40
0.0000000000
40
0.0000000000
40
1.0000000000
40
1.0000000000
40
1.0000000000
40
1.0000000000
10
-19.9302715664
20
-11.4965739751
30
1.7179290950
10
-19.9317734582
20
-11.4583019155
30
1.7058622827
10
-19.9332680230
20
-11.4200295683
30
1.6937953799
10
-19.9347552607
20
-11.3817569364
30
1.6817283872
11
-19.9302715664
21
-11.4965739751
31
1.7179290950
11
-19.9347552607
21
-11.3817569364
31
1.6817283872
0
SPLINE
5
308
100
AcDbEntity
8
ASSI
100
AcDbSpline
62
9
6
CONTINUOUS
70
0
71
3
72
17
73
13
74
11
42
0.0000001000
43
0.0000001000
44
0.0000000001
12
0.0000000000
22
0.0000000000
32
0.1278106538
13
-0.0049718398
23
0.1002864723
33
0.0822263365
40
0.0000000000
40
0.0000000000
40
0.0000000000
40
0.0000000000
40
0.0451423247
40
0.0902846494
40
0.1354269741
40
0.1805692988
40
0.2708539482
40
0.3611385976
40
0.4514232470
40
0.5417078964
40
0.7222771952
40
1.0000000000
40
1.0000000000
40
1.0000000000
40
1.0000000000
10
-19.7900092149
20
-14.6479995777
30
2.5070908114
10
-19.7900092149
20
-14.6479995777
30
2.5090140348
10
-19.7900152018
20
-14.6478792991
30
2.5124979694
10
-19.7900413833
20
-14.6473532929
30
2.5180000080
10
-19.7900838218
20
-14.6465006329
30
2.5233831851
10
-19.7901607100
20
-14.6449557163
30
2.5305114855
10
-19.7902922147
20
-14.6423130747
30
2.5392340617
10
-19.7904987627
20
-14.6381613706
30
2.5493595921
10
-19.7907472923
20
-14.6331642729
30
2.5591148711
10
-19.7911285952
20
-14.6254947387
30
2.5716415496
10
-19.7918024902
20
-14.6119322079
30
2.5894576157
10
-19.7925046531
20
-14.5977834670
30
2.6032011254
10
-19.7929649176
20
-14.5884995202
30
2.6108131684
11
-19.7900092149
21
-14.6479995777
31
2.5070908114
11
-19.7900180686
21
-14.6478217011
31
2.5125439922
11
-19.7900440928
21
-14.6472988506
31
2.5179801977
11
-19.7900863598
21
-14.6464496284
31
2.5233770265
11
-19.7901438476
21
-14.6452945124
31
2.5287168904
11
-19.7903003384
21
-14.6421496523
31
2.5391771349
11
-19.7905057596
21
-14.6380204716
31
2.5492978836
11
-19.7907535335
21
-14.6330384307
31
2.5590548261
11
-19.7910384640
21
-14.6273072106
31
2.5684433783
11
-19.7917047486
21
-14.6138966292
31
2.5861253379
11
-19.7929649176
21
-14.5884995202
31
2.6108131684
0
SPLINE
5
309
100
AcDbEntity
8
ASSI
100
AcDbSpline
62
9
6
CONTINUOUS
70
0
71
3
72
18
73
14
74
12
42
0.0000001000
43
0.0000001000
44
0.0000000001
12
-0.0058012998
22
0.1170174235
32
0.0959442866
13
-0.0071126626
23
0.1447905475
33
-0.0453648667
40
0.0000000000
40
0.0000000000
40
0.0000000000
40
0.0000000000
40
0.0714891453
40
0.3809927636
40
0.5357445727
40
0.6131204772
40
0.6904963818
40
0.7678722863
40
0.8452481909
40
0.8839361432
40
0.9226240954
40
0.9613120477
40
1.0000000000
40
1.0000000000
40
1.0000000000
40
1.0000000000
10
-19.7929649176
20
-14.5884995202
30
2.6108131684
10
-19.7931031609
20
-14.5857110284
30
2.6130994934
10
-19.7938566226
20
-14.5705087997
30
2.6249397249
10
-19.7950236595
20
-14.5469258295
30
2.6386856712
10
-19.7962290204
20
-14.5225154239
30
2.6476792888
10
-19.7969383916
20
-14.5081340576
30
2.6513732750
10
-19.7974770238
20
-14.4972060572
30
2.6533074732
10
-19.7980213282
20
-14.4861547372
30
2.6543094408
10
-19.7984767282
20
-14.4769015173
30
2.6542601844
10
-19.7988398625
20
-14.4695188466
30
2.6536160815
10
-19.7991094220
20
-14.4640365514
30
2.6528205900
10
-19.7993797733
20
-14.4585360562
30
2.6516666584
10
-19.7995476356
20
-14.4551195658
30
2.6507265422
10
-19.7996393604
20
-14.4532523492
30
2.6501415176
11
-19.7929649176
21
-14.5884995202
31
2.6108131684
11
-19.7933886111
21
-14.5799507309
31
2.6174701743
11
-19.7953704770
21
-14.5398973035
31
2.6407882887
11
-19.7964080793
21
-14.5188840354
31
2.6484823500
11
-19.7969394922
21
-14.5081103950
31
2.6512338931
11
-19.7974779692
21
-14.4971855040
31
2.6531521015
11
-19.7980216908
21
-14.4861459799
31
2.6541325949
11
-19.7985674129
21
-14.4750575084
31
2.6540487672
11
-19.7988393973
21
-14.4695279646
31
2.6535640125
11
-19.7991095540
21
-14.4640335181
31
2.6527608500
11
-19.7993766803
21
-14.4585986828
31
2.6516239513
11
-19.7996393604
21
-14.4532523492
31
2.6501415176
0
SPLINE
5
30A
100
AcDbEntity
8
ASSI
100
AcDbSpline
62
9
6
CONTINUOUS
70
0
71
3
72
8
73
4
74
2
42
0.0000001000
43
0.0000001000
44
0.0000000001
12
-0.0011429143
22
0.0293036126
32
0.0092473275
13
-0.0011346985
23
0.0291658486
33
0.0095105792
40
0.0000000000
40
0.0000000000
40
0.0000000000
40
0.0000000000
40
1.0000000000
40
1.0000000000
40
1.0000000000
40
1.0000000000
10
-19.9330829458
20
-11.4247130544
30
-1.5229774355
10
-19.9334639173
20
-11.4149451836
30
-1.5198949930
10
-19.9338435155
20
-11.4052002907
30
-1.5167689013
10
-19.9342217484
20
-11.3954783411
30
-1.5135987082
11
-19.9330829458
21
-11.4247130544
31
-1.5229774355
11
-19.9342217484
21
-11.3954783411
31
-1.5135987082
0
SPLINE
5
30B
100
AcDbEntity
8
ASSI
100
AcDbSpline
62
9
6
CONTINUOUS
70
0
71
3
72
8
73
4
74
2
42
0.0000001000
43
0.0000001000
44
0.0000000001
12
-0.0102632169
22
0.2638017397
32
0.0860220931
13
-0.0096100908
23
0.2526166004
33
0.1086734468
40
0.0000000000
40
0.0000000000
40
0.0000000000
40
0.0000000000
40
1.0000000000
40
1.0000000000
40
1.0000000000
40
1.0000000000
10
-19.9342217484
20
-11.3954783411
30
-1.5135987082
10
-19.9376428207
20
-11.3075444279
30
-1.4849246772
10
-19.9409521856
20
-11.2214875099
30
-1.4526427160
10
-19.9441555492
20
-11.1372819764
30
-1.4164182337
11
-19.9342217484
21
-11.3954783411
31
-1.5135987082
11
-19.9441555492
21
-11.1372819764
31
-1.4164182337
0
SPLINE
5
30C
100
AcDbEntity
8
ASSI
100
AcDbSpline
62
9
6
CONTINUOUS
70
0
71
3
72
9
73
5
74
3
42
0.0000001000
43
0.0000001000
44
0.0000000001
12
-0.0097893912
22
0.2573297995
32
0.1107010238
13
-0.0091001153
23
0.2445971999
33
0.1371983834
40
0.0000000000
40
0.0000000000
40
0.0000000000
40
0.0000000000
40
0.2180172029
40
1.0000000000
40
1.0000000000
40
1.0000000000
40
1.0000000000
10
-19.9441555492
20
-11.1372819764
30
-1.4164182337
10
-19.9448669678
20
-11.1185812021
30
-1.4083733245
10
-19.9481061176
20
-11.0332234380
30
-1.3705810730
10
-19.9512365888
20
-10.9497808856
30
-1.3286207064
10
-19.9536086333
20
-10.8860239514
30
-1.2928584478
11
-19.9441555492
21
-11.1372819764
31
-1.4164182337
11
-19.9462741829
21
-11.0814533130
31
-1.3916964858
11
-19.9536086333
21
-10.8860239514
31
-1.2928584478
0
SPLINE
5
30D
100
AcDbEntity
8
ASSI
100
AcDbSpline
62
9
6
CONTINUOUS
70
0
71
3
72
9
73
5
74
3
42
0.0000001000
43
0.0000001000
44
0.0000000001
12
-0.0092296988
22
0.2480802054
32
0.1391520555
13
-0.0083652028
23
0.2298052875
33
0.1712630114
40
0.0000000000
40
0.0000000000
40
0.0000000000
40
0.0000000000
40
0.5188648420
40
1.0000000000
40
1.0000000000
40
1.0000000000
40
1.0000000000
10
-19.9536086333
20
-10.8860239514
30
-1.2928584478
10
-19.9552049554
20
-10.8431172525
30
-1.2687914114
10
-19.9582152459
20
-10.7617276368
30
-1.2198324995
10
-19.9610870795
20
-10.6832159576
30
-1.1654568568
10
-19.9624286772
20
-10.6463601565
30
-1.1379899715
11
-19.9536086333
21
-10.8860239514
31
-1.2928584478
11
-19.9582915477
21
-10.7594316325
31
-1.2165269990
11
-19.9624286772
21
-10.6463601565
31
-1.1379899715
0
SPLINE
5
30E
100
AcDbEntity
8
ASSI
100
AcDbSpline
62
9
6
CONTINUOUS
70
0
71
3
72
9
73
5
74
3
42
0.0000001000
43
0.0000001000
44
0.0000000001
12
-0.0091270830
22
0.2507353356
32
0.1868611863
13
-0.0076022814
23
0.2134093389
33
0.2286780470
40
0.0000000000
40
0.0000000000
40
0.0000000000
40
0.0000000000
40
0.7412248069
40
1.0000000000
40
1.0000000000
40
1.0000000000
40
1.0000000000
10
-19.9624286772
20
-10.6463601565
30
-1.1379899715
10
-19.9646837507
20
-10.5844097396
30
-1.0918212559
10
-19.9675730980
20
-10.5043340380
30
-1.0245603970
10
-19.9701860742
20
-10.4311683938
30
-0.9501490820
10
-19.9708418349
20
-10.4127600462
30
-0.9304236800
11
-19.9624286772
21
-10.6463601565
31
-1.1379899715
11
-19.9688152203
21
-10.4694980305
31
-0.9881818594
11
-19.9708418349
21
-10.4127600462
31
-0.9304236800
0
SPLINE
5
30F
100
AcDbEntity
8
ASSI
100
AcDbSpline
62
9
6
CONTINUOUS
70
0
71
3
72
15
73
11
74
9
42
0.0000001000
43
0.0000001000
44
0.0000000001
12
-0.0198930201
22
0.5703692039
32
1.1445859804
13
0.0199409141
23
-0.5717441380
33
1.1476677426
40
0.0000000000
40
0.0000000000
40
0.0000000000
40
0.0000000000
40
0.0649566461
40
0.2096742121
40
0.3543917781
40
0.4991093442
40
0.6438269102
40
0.7885444762
40
0.9332620422
40
1.0000000000
40
1.0000000000
40
1.0000000000
40
1.0000000000
10
-19.9787152173
20
-10.1894044107
30
-0.6123378543
10
-19.9791459453
20
-10.1770546539
30
-0.5875550322
10
-19.9804434375
20
-10.1397820735
30
-0.5061273287
10
-19.9821147047
20
-10.0915103262
30
-0.3614772649
10
-19.9833230105
20
-10.0564527854
30
-0.1784294285
10
-19.9837298842
20
-10.0446211188
30
0.0083343483
10
-19.9833383939
20
-10.0560057138
30
0.1953934287
10
-19.9821419055
20
-10.0907225786
30
0.3789197622
10
-19.9804689638
20
-10.1390470954
30
0.5247675412
10
-19.9791601149
20
-10.1766483598
30
0.6071499645
10
-19.9787165096
20
-10.1893673718
30
0.6326809650
11
-19.9787152173
21
-10.1894044107
31
-0.6123378543
11
-19.9799202393
21
-10.1547969262
31
-0.5367040951
11
-19.9819748541
21
-10.0955234014
31
-0.3605035625
11
-19.9831894385
21
-10.0603237644
31
-0.1778101051
11
-19.9835968235
21
-10.0484904957
31
0.0083835656
11
-19.9832042275
21
-10.0598944254
31
0.1948046376
11
-19.9820014517
21
-10.0947538612
31
0.3779619252
11
-19.9799548508
21
-10.1538012134
31
0.5547292344
11
-19.9787165096
21
-10.1893673718
31
0.6326809650
0
SPLINE
5
310
100
AcDbEntity
8
ASSI
100
AcDbSpline
62
9
6
CONTINUOUS
70
0
71
3
72
9
73
5
74
3
42
0.0000001000
43
0.0000001000
44
0.0000000001
12
0.0076043365
22
-0.2134679766
32
0.2287745827
13
0.0091253293
23
-0.2506884617
33
0.1868440227
40
0.0000000000
40
0.0000000000
40
0.0000000000
40
0.0000000000
40
0.2551156440
40
1.0000000000
40
1.0000000000
40
1.0000000000
40
1.0000000000
10
-19.9708436650
20
-10.4127086575
30
0.9507994497
10
-19.9701970033
20
-10.4308616642
30
0.9702541080
10
-19.9675845726
20
-10.5040148296
30
1.0447177073
10
-19.9646962875
20
-10.5840650240
30
1.1120022636
10
-19.9624305158
20
-10.6463096618
30
1.1583946601
11
-19.9708436650
21
-10.4127086575
31
0.9507994497
11
-19.9688461057
21
-10.4686355842
31
1.0077805254
11
-19.9624305158
21
-10.6463096618
31
1.1583946601
0
SPLINE
5
311
100
AcDbEntity
8
ASSI
100
AcDbSpline
62
9
6
CONTINUOUS
70
0
71
3
72
9
73
5
74
3
42
0.0000001000
43
0.0000001000
44
0.0000000001
12
0.0083687581
22
-0.2299041502
32
0.1713529852
13
0.0092341143
23
-0.2481978458
33
0.1392186332
40
0.0000000000
40
0.0000000000
40
0.0000000000
40
0.0000000000
40
0.4794837429
40
1.0000000000
40
1.0000000000
40
1.0000000000
40
1.0000000000
10
-19.9624305158
20
-10.6463096618
30
1.1583946601
10
-19.9610929547
20
-10.6830547627
30
1.1857816503
10
-19.9582202700
20
-10.7615911789
30
1.2401906229
10
-19.9552089297
20
-10.8430106802
30
1.2891799384
10
-19.9536067608
20
-10.8860743514
30
1.3133351257
11
-19.9624305158
21
-10.6463096618
31
1.1583946601
11
-19.9583062659
21
-10.7590314670
31
1.2367120816
11
-19.9536067608
21
-10.8860743514
31
1.3133351257
0
SPLINE
5
312
100
AcDbEntity
8
ASSI
100
AcDbSpline
62
9
6
CONTINUOUS
70
0
71
3
72
9
73
5
74
3
42
0.0000001000
43
0.0000001000
44
0.0000000001
12
0.0090993004
22
-0.2445742709
32
0.1371861049
13
0.0097914280
23
-0.2573819244
33
0.1107245012
40
0.0000000000
40
0.0000000000
40
0.0000000000
40
0.0000000000
40
0.7826184214
40
1.0000000000
40
1.0000000000
40
1.0000000000
40
1.0000000000
10
-19.9536067608
20
-10.8860743514
30
1.3133351257
10
-19.9512330007
20
-10.9498771280
30
1.3491232500
10
-19.9481025245
20
-11.0333189803
30
1.3910807196
10
-19.9448627565
20
-11.1186919781
30
1.4288770223
10
-19.9441532645
20
-11.1373420078
30
1.4369001780
11
-19.9536067608
21
-10.8860743514
31
1.3133351257
11
-19.9462661237
21
-11.0816661998
31
1.4122479475
11
-19.9441532645
21
-11.1373420078
31
1.4369001780
0
SPLINE
5
313
100
AcDbEntity
8
ASSI
100
AcDbSpline
62
9
6
CONTINUOUS
70
0
71
3
72
8
73
4
74
2
42
0.0000001000
43
0.0000001000
44
0.0000000001
12
0.0096087585
22
-0.2525801906
32
0.1086588177
13
0.0102648020
23
-0.2638410646
33
0.0860367959
40
0.0000000000
40
0.0000000000
40
0.0000000000
40
0.0000000000
40
1.0000000000
40
1.0000000000
40
1.0000000000
40
1.0000000000
10
-19.9441532645
20
-11.1373420078
30
1.4369001780
10
-19.9409503450
20
-11.2215354046
30
1.4731197838
10
-19.9376409184
20
-11.3075937985
30
1.5054048036
10
-19.9342193177
20
-11.3955408201
30
1.5340837356
11
-19.9441532645
21
-11.1373420078
31
1.4369001780
11
-19.9342193177
21
-11.3955408201
31
1.5340837356
0
SPLINE
5
314
100
AcDbEntity
8
ASSI
100
AcDbSpline
62
9
6
CONTINUOUS
70
0
71
3
72
8
73
4
74
2
42
0.0000001000
43
0.0000001000
44
0.0000000001
12
0.0011727799
22
-0.0301445161
32
0.0098299239
13
0.0011815909
23
-0.0302925427
33
0.0095489581
40
0.0000000000
40
0.0000000000
40
0.0000000000
40
0.0000000000
40
1.0000000000
40
1.0000000000
40
1.0000000000
40
1.0000000000
10
-19.9342193177
20
-11.3955408201
30
1.5340837356
10
-19.9338283911
20
-11.4055889921
30
1.5373603769
10
-19.9334360002
20
-11.4156618176
30
1.5405899456
10
-19.9330421366
20
-11.4257593319
30
1.5437729316
11
-19.9342193177
21
-11.3955408201
31
1.5340837356
11
-19.9330421366
21
-11.4257593319
31
1.5437729316
0
SPLINE
5
315
100
AcDbEntity
8
ASSI
100
AcDbSpline
62
9
6
CONTINUOUS
70
0
71
3
72
11
73
7
74
5
42
0.0000001000
43
0.0000001000
44
0.0000000001
12
0.0121760510
22
-0.2345630792
32
0.0862748003
13
0.0099495073
23
-0.1890907784
33
0.1541872342
40
0.0000000000
40
0.0000000000
40
0.0000000000
40
0.0000000000
40
0.4110147166
40
0.6433712088
40
0.8757277011
40
1.0000000000
40
1.0000000000
40
1.0000000000
40
1.0000000000
10
-19.7575652618
20
-15.2861276863
30
-1.6908732155
10
-19.7558970831
20
-15.3182639788
30
-1.6790531447
10
-19.7533796818
20
-15.3666032992
30
-1.6572928473
10
-19.7501663935
20
-15.4280360559
30
-1.6213853741
10
-19.7481225105
20
-15.4669936617
30
-1.5944483291
10
-19.7469245167
20
-15.4897782901
30
-1.5766361423
10
-19.7465123673
20
-15.4976112054
30
-1.5702490749
11
-19.7575652618
21
-15.2861276863
31
-1.6908732155
11
-19.7527445731
21
-15.3787180357
31
-1.6493647414
11
-19.7501895247
21
-15.4275705383
31
-1.6208356588
11
-19.7477642371
21
-15.4738014066
31
-1.5888675843
11
-19.7465123673
21
-15.4976112054
31
-1.5702490749
0
SPLINE
5
316
100
AcDbEntity
8
ASSI
100
AcDbSpline
62
9
6
CONTINUOUS
70
0
71
3
72
11
73
7
74
5
42
0.0000001000
43
0.0000001000
44
0.0000000001
12
0.0130340935
22
-0.2477134612
32
0.2019889801
13
0.0073776423
23
-0.1384560066
33
0.2892500969
40
0.0000000000
40
0.0000000000
40
0.0000000000
40
0.0000000000
40
0.2598736215
40
0.6146098541
40
0.9693460867
40
1.0000000000
40
1.0000000000
40
1.0000000000
40
1.0000000000
10
-19.7465123673
20
-15.4976112054
30
-1.5702490749
10
-19.7453832949
20
-15.5190692701
30
-1.5527518723
10
-19.7428072181
20
-15.5679243692
30
-1.5081727341
10
-19.7391870241
20
-15.6362677419
30
-1.4263368024
10
-19.7369793629
20
-15.6777649993
30
-1.3563095375
10
-19.7360168668
20
-15.6958304953
30
-1.3192063285
10
-19.7359414823
20
-15.6972452347
30
-1.3162507793
11
-19.7465123673
21
-15.4976112054
31
-1.5702490749
11
-19.7432550111
21
-15.5593964914
31
-1.5137466988
11
-19.7393203801
21
-15.6337071111
31
-1.4245291682
11
-19.7361711640
21
-15.6929342261
31
-1.3251046580
11
-19.7359414823
21
-15.6972452347
31
-1.3162507793
0
SPLINE
5
317
100
AcDbEntity
8
ASSI
100
AcDbSpline
62
9
6
CONTINUOUS
70
0
71
3
72
11
73
7
74
5
42
0.0000001000
43
0.0000001000
44
0.0000000001
12
-0.0073777981
22
0.1384589375
32
0.2892537870
13
-0.0130339086
23
0.2477099953
33
0.2019838424
40
0.0000000000
40
0.0000000000
40
0.0000000000
40
0.0000000000
40
0.0304308075
40
0.3852016198
40
0.7399724322
40
1.0000000000
40
1.0000000000
40
1.0000000000
40
1.0000000000
10
-19.7359415378
20
-15.6972441933
30
-0.6803492106
10
-19.7360163752
20
-15.6958397208
30
-0.6774151352
10
-19.7369783158
20
-15.6777846675
30
-0.6403290936
10
-19.7391852199
20
-15.6363017325
30
-0.5703119992
10
-19.7428060156
20
-15.5679471469
30
-0.4884512349
10
-19.7453828151
20
-15.5190783927
30
-0.4438573666
10
-19.7465125403
20
-15.4976079169
30
-0.4263502442
11
-19.7359415378
21
-15.6972441933
31
-0.6803492106
11
-19.7361695276
21
-15.6929649446
31
-0.6715595443
11
-19.7393186179
21
-15.6337403143
31
-0.5721197661
11
-19.7432533561
21
-15.5594278213
31
-0.4828874042
11
-19.7465125403
21
-15.4976079169
31
-0.4263502442
0
SPLINE
5
318
100
AcDbEntity
8
ASSI
100
AcDbSpline
62
9
6
CONTINUOUS
70
0
71
3
72
11
73
7
74
5
42
0.0000001000
43
0.0000001000
44
0.0000000001
12
-0.0099493957
22
0.1890886943
32
0.1541837704
13
-0.0121758363
23
0.2345589444
33
0.0862732320
40
0.0000000000
40
0.0000000000
40
0.0000000000
40
0.0000000000
40
0.1241155572
40
0.3564940094
40
0.5888724616
40
1.0000000000
40
1.0000000000
40
1.0000000000
40
1.0000000000
10
-19.7465125403
20
-15.4976079169
30
-0.4263502442
10
-19.7469241653
20
-15.4897849673
30
-0.4199713760
10
-19.7481216697
20
-15.4670096628
30
-0.4021657183
10
-19.7501650624
20
-15.4280614677
30
-0.3752326840
10
-19.7533787968
20
-15.3666202770
30
-0.3393171610
10
-19.7558966575
20
-15.3182721777
30
-0.3175518666
10
-19.7575652647
20
-15.2861276305
30
-0.3057287661
11
-19.7465125403
21
-15.4976079169
31
-0.4263502442
11
-19.7477627940
21
-15.4738288742
31
-0.4077549993
11
-19.7501881982
21
-15.4275958615
31
-0.3757824627
11
-19.7527433841
21
-15.3787408036
31
-0.3472494097
11
-19.7575652647
21
-15.2861276305
31
-0.3057287661
0
SPLINE
5
319
100
AcDbEntity
8
ASSI
100
AcDbSpline
62
9
6
CONTINUOUS
70
0
71
3
72
19
73
15
74
13
42
0.0000001000
43
0.0000001000
44
0.0000000001
12
0.0348992608
22
-0.6723379498
32
-0.4774410047
13
-0.0348993728
23
0.6723401094
33
-0.4774424524
40
0.0000000000
40
0.0000000000
40
0.0000000000
40
0.0000000000
40
0.0152643443
40
0.0960535348
40
0.1768427252
40
0.2576319157
40
0.3384211061
40
0.4999994870
40
0.6615778679
40
0.7423670584
40
0.8231562488
40
0.9039454393
40
0.9847346297
40
1.0000000000
40
1.0000000000
40
1.0000000000
40
1.0000000000
10
-19.7576042948
20
-15.2853756883
30
-0.6397158291
10
-19.7574267233
20
-15.2887966209
30
-0.6421451037
10
-19.7563197059
20
-15.3101162515
30
-0.6577520462
10
-19.7543872125
20
-15.3472544798
30
-0.6904012906
10
-19.7520721866
20
-15.3916059447
30
-0.7437587381
10
-19.7502267871
20
-15.4268686513
30
-0.8035037410
10
-19.7485054013
20
-15.4596979342
30
-0.8857138538
10
-19.7475868978
20
-15.4771736393
30
-0.9975899573
10
-19.7485053735
20
-15.4596984623
30
-1.1094661861
10
-19.7502267459
20
-15.4268694377
30
-1.1916766881
10
-19.7520721424
20
-15.3916067899
30
-1.2514220930
10
-19.7543871715
20
-15.3472552665
30
-1.3047799231
10
-19.7563196802
20
-15.3101167466
30
-1.3374295659
10
-19.7574267122
20
-15.2887968355
30
-1.3530367445
10
-19.7576042961
20
-15.2853756619
30
-1.3554661898
11
-19.7576042948
21
-15.2853756883
31
-0.6397158291
11
-19.7570763288
21
-15.2955436536
31
-0.6471591662
11
-19.7544427970
21
-15.3461632387
31
-0.6918364249
11
-19.7521504577
21
-15.3900911516
31
-0.7448233307
11
-19.7503191804
21
-15.4250951939
31
-0.8038225047
11
-19.7490179630
21
-15.4499198869
31
-0.8657688898
11
-19.7479542937
21
-15.4701834629
31
-0.9975899824
11
-19.7490179326
21
-15.4499204659
31
-1.1294112715
11
-19.7503191404
21
-15.4250959578
31
-1.1913579428
11
-19.7521504145
21
-15.3900919773
31
-1.2503574972
11
-19.7544427564
21
-15.3461640178
31
-1.3033447728
11
-19.7570762934
21
-15.2955443365
31
-1.3480223188
11
-19.7576042961
21
-15.2853756619
31
-1.3554661898
0
SPLINE
5
31A
100
AcDbEntity
8
ASSI
100
AcDbSpline
62
9
6
CONTINUOUS
70
0
71
3
72
8
73
4
74
2
42
0.0000001000
43
0.0000001000
44
0.0000000001
12
-0.0108046421
22
0.2215329845
32
0.0698459436
13
-0.0106409097
23
0.2215409095
33
0.0698484422
40
0.0000000000
40
0.0000000000
40
0.0000000000
40
0.0000000000
40
1.0000000000
40
1.0000000000
40
1.0000000000
40
1.0000000000
10
-19.8047862719
20
-14.3481017083
30
-2.2821560000
10
-19.8083878193
20
-14.2742573801
30
-2.2588740188
10
-19.8119620784
20
-14.2004117210
30
-2.2355916180
10
-19.8155090484
20
-14.1265647512
30
-2.2123088039
11
-19.8047862719
21
-14.3481017083
31
-2.2821560000
11
-19.8155090484
21
-14.1265647512
31
-2.2123088039
0
SPLINE
5
31B
100
AcDbEntity
8
ASSI
100
AcDbSpline
62
9
6
CONTINUOUS
70
0
71
3
72
8
73
4
74
2
42
0.0000001000
43
0.0000001000
44
0.0000000001
12
-0.0036123772
22
0.0752087322
32
0.0237121568
13
-0.0035935071
23
0.0752096362
33
0.0237124418
40
0.0000000000
40
0.0000000000
40
0.0000000000
40
0.0000000000
40
1.0000000000
40
1.0000000000
40
1.0000000000
40
1.0000000000
10
-19.8155090484
20
-14.1265647512
30
-2.2123088039
10
-19.8167131741
20
-14.1014951738
30
-2.2044047517
10
-19.8179141548
20
-14.0764254453
30
-2.1965006518
10
-19.8191119905
20
-14.0513555666
30
-2.1885965045
11
-19.8155090484
21
-14.1265647512
31
-2.2123088039
11
-19.8191119905
21
-14.0513555666
31
-2.1885965045
0
SPLINE
5
31C
100
AcDbEntity
8
ASSI
100
AcDbSpline
62
9
6
CONTINUOUS
70
0
71
3
72
8
73
4
74
2
42
0.0000001000
43
0.0000001000
44
0.0000000001
12
-0.0126357051
22
0.2644566290
32
0.0833791086
13
-0.0124023877
23
0.2644676737
33
0.0833825909
40
0.0000000000
40
0.0000000000
40
0.0000000000
40
0.0000000000
40
1.0000000000
40
1.0000000000
40
1.0000000000
40
1.0000000000
10
-19.8191119905
20
-14.0513555666
30
-2.1885965045
10
-19.8233238922
20
-13.9632033569
30
-2.1608034683
10
-19.8274969085
20
-13.8750492893
30
-2.1330098463
10
-19.8316310377
20
-13.7868933981
30
-2.1052156494
11
-19.8191119905
21
-14.0513555666
31
-2.1885965045
11
-19.8316310377
21
-13.7868933981
31
-2.1052156494
0
SPLINE
5
31D
100
AcDbEntity
8
ASSI
100
AcDbSpline
62
9
6
CONTINUOUS
70
0
71
3
72
8
73
4
74
2
42
0.0000001000
43
0.0000001000
44
0.0000000001
12
-0.0018574794
22
0.0396087657
32
0.0124880348
13
-0.0018522459
23
0.0396090108
33
0.0124881121
40
0.0000000000
40
0.0000000000
40
0.0000000000
40
0.0000000000
40
1.0000000000
40
1.0000000000
40
1.0000000000
40
1.0000000000
10
-19.8316310377
20
-13.7868933981
30
-2.1052156494
10
-19.8322501976
20
-13.7736904762
30
-2.1010529711
10
-19.8328684851
20
-13.7604875134
30
-2.0968902800
10
-19.8334859004
20
-13.7472845098
30
-2.0927275759
11
-19.8316310377
21
-13.7868933981
31
-2.1052156494
11
-19.8334859004
21
-13.7472845098
31
-2.0927275759
0
SPLINE
5
31E
100
AcDbEntity
8
ASSI
100
AcDbSpline
62
9
6
CONTINUOUS
70
0
71
3
72
8
73
4
74
2
42
0.0000001000
43
0.0000001000
44
0.0000000001
12
-0.0032550823
22
0.0712140732
32
0.0224527022
13
-0.0032381654
23
0.0712148444
33
0.0224529454
40
0.0000000000
40
0.0000000000
40
0.0000000000
40
0.0000000000
40
1.0000000000
40
1.0000000000
40
1.0000000000
40
1.0000000000
10
-19.8480752762
20
-13.4317417812
30
-1.9932418056
10
-19.8491603037
20
-13.4080037568
30
-1.9857575716
10
-19.8502425117
20
-13.3842656035
30
-1.9782732969
10
-19.8513219001
20
-13.3605273221
30
-1.9707889817
11
-19.8480752762
21
-13.4317417812
31
-1.9932418056
11
-19.8513219001
21
-13.3605273221
31
-1.9707889817
0
SPLINE
5
31F
100
AcDbEntity
8
ASSI
100
AcDbSpline
62
9
6
CONTINUOUS
70
0
71
3
72
8
73
4
74
2
42
0.0000001000
43
0.0000001000
44
0.0000000001
12
-0.0063124799
22
0.1388262241
32
0.0437697737
13
-0.0062481919
23
0.1388291323
33
0.0437706907
40
0.0000000000
40
0.0000000000
40
0.0000000000
40
0.0000000000
40
1.0000000000
40
1.0000000000
40
1.0000000000
40
1.0000000000
10
-19.8513219001
20
-13.3605273221
30
-1.9707889817
10
-19.8534260601
20
-13.3142519141
30
-1.9561990571
10
-19.8555195055
20
-13.2679760188
30
-1.9416089790
10
-19.8576022361
20
-13.2216996414
30
-1.9270187487
11
-19.8513219001
21
-13.3605273221
31
-1.9707889817
11
-19.8576022361
21
-13.2216996414
31
-1.9270187487
0
SPLINE
5
320
100
AcDbEntity
8
ASSI
100
AcDbSpline
62
9
6
CONTINUOUS
70
0
71
3
72
8
73
4
74
2
42
0.0000001000
43
0.0000001000
44
0.0000000001
12
-0.0026053927
22
0.0578894529
32
0.0182516543
13
-0.0025942145
23
0.0578899549
33
0.0182518126
40
0.0000000000
40
0.0000000000
40
0.0000000000
40
0.0000000000
40
1.0000000000
40
1.0000000000
40
1.0000000000
40
1.0000000000
10
-19.8576022361
20
-13.2216996414
30
-1.9270187487
10
-19.8584707004
20
-13.2024031571
30
-1.9209348640
10
-19.8593373016
20
-13.1831065890
30
-1.9148509527
10
-19.8602020397
20
-13.1638099373
30
-1.9087670152
11
-19.8576022361
21
-13.2216996414
31
-1.9270187487
11
-19.8602020397
21
-13.1638099373
31
-1.9087670152
0
SPLINE
5
321
100
AcDbEntity
8
ASSI
100
AcDbSpline
62
9
6
CONTINUOUS
70
0
71
3
72
8
73
4
74
2
42
0.0000001000
43
0.0000001000
44
0.0000000001
12
-0.0059133590
22
0.1319567403
32
0.0416039311
13
-0.0058552776
23
0.1319593303
33
0.0416047477
40
0.0000000000
40
0.0000000000
40
0.0000000000
40
0.0000000000
40
1.0000000000
40
1.0000000000
40
1.0000000000
40
1.0000000000
10
-19.8602020397
20
-13.1638099373
30
-1.9087670152
10
-19.8621731594
20
-13.1198243572
30
-1.8948990382
10
-19.8641345989
20
-13.0758383434
30
-1.8810309243
10
-19.8660863581
20
-13.0318518999
30
-1.8671626751
11
-19.8602020397
21
-13.1638099373
31
-1.9087670152
11
-19.8660863581
21
-13.0318518999
31
-1.8671626751
0
SPLINE
5
322
100
AcDbEntity
8
ASSI
100
AcDbSpline
62
9
6
CONTINUOUS
70
0
71
3
72
8
73
4
74
2
42
0.0000001000
43
0.0000001000
44
0.0000000001
12
-0.0049474149
22
0.1114989946
32
0.0351539185
13
-0.0049059476
23
0.1115008269
33
0.0351544962
40
0.0000000000
40
0.0000000000
40
0.0000000000
40
0.0000000000
40
1.0000000000
40
1.0000000000
40
1.0000000000
40
1.0000000000
10
-19.8660863581
20
-13.0318518999
30
-1.8671626751
10
-19.8677354964
20
-12.9946855684
30
-1.8554447023
10
-19.8693777235
20
-12.9575189302
30
-1.8437266327
10
-19.8710130394
20
-12.9203519879
30
-1.8320084673
11
-19.8660863581
21
-13.0318518999
31
-1.8671626751
11
-19.8710130394
21
-12.9203519879
31
-1.8320084673
0
SPLINE
5
323
100
AcDbEntity
8
ASSI
100
AcDbSpline
62
9
6
CONTINUOUS
70
0
71
3
72
8
73
4
74
2
42
0.0000001000
43
0.0000001000
44
0.0000000001
12
-0.0027431366
22
0.0636422504
32
0.0200654229
13
-0.0027296273
23
0.0636428312
33
0.0200656061
40
0.0000000000
40
0.0000000000
40
0.0000000000
40
0.0000000000
40
1.0000000000
40
1.0000000000
40
1.0000000000
40
1.0000000000
10
-19.8827000522
20
-12.6519985083
30
-1.7474007416
10
-19.8836144310
20
-12.6307844248
30
-1.7407122673
10
-19.8845265584
20
-12.6095702443
30
-1.7340237624
10
-19.8854364341
20
-12.5883559672
30
-1.7273352270
11
-19.8827000522
21
-12.6519985083
31
-1.7474007416
11
-19.8854364341
21
-12.5883559672
31
-1.7273352270
0
SPLINE
5
324
100
AcDbEntity
8
ASSI
100
AcDbSpline
62
9
6
CONTINUOUS
70
0
71
3
72
8
73
4
74
2
42
0.0000001000
43
0.0000001000
44
0.0000000001
12
-0.0094436162
22
0.2201833417
32
0.0694204219
13
-0.0092819166
23
0.2201902175
33
0.0694225898
40
0.0000000000
40
0.0000000000
40
0.0000000000
40
0.0000000000
40
1.0000000000
40
1.0000000000
40
1.0000000000
40
1.0000000000
10
-19.8854364341
20
-12.5883559672
30
-1.7273352270
10
-19.8885843062
20
-12.5149615200
30
-1.7041950864
10
-19.8917052288
20
-12.4415659169
30
-1.6810545813
10
-19.8947992010
20
-12.3681691777
30
-1.6579137181
11
-19.8854364341
21
-12.5883559672
31
-1.7273352270
11
-19.8947992010
21
-12.3681691777
31
-1.6579137181
0
SPLINE
5
325
100
AcDbEntity
8
ASSI
100
AcDbSpline
62
9
6
CONTINUOUS
70
0
71
3
72
8
73
4
74
2
42
0.0000001000
43
0.0000001000
44
0.0000000001
12
-0.0066240381
22
0.1571387072
32
0.0495434181
13
-0.0065416829
23
0.1571421572
33
0.0495445058
40
0.0000000000
40
0.0000000000
40
0.0000000000
40
0.0000000000
40
1.0000000000
40
1.0000000000
40
1.0000000000
40
1.0000000000
10
-19.8947992010
20
-12.3681691777
30
-1.6579137181
10
-19.8970072137
20
-12.3157896086
30
-1.6413992454
10
-19.8992015006
20
-12.2634094610
30
-1.6248845903
10
-19.9013820616
20
-12.2110287419
30
-1.6083697550
11
-19.8947992010
21
-12.3681691777
31
-1.6579137181
11
-19.9013820616
21
-12.2110287419
31
-1.6083697550
0
SPLINE
5
326
100
AcDbEntity
8
ASSI
100
AcDbSpline
62
9
6
CONTINUOUS
70
0
71
3
72
8
73
4
74
2
42
0.0000001000
43
0.0000001000
44
0.0000000001
12
-0.0054613021
22
0.1311896033
32
0.0413620647
13
-0.0054039020
23
0.1311919803
33
0.0413628141
40
0.0000000000
40
0.0000000000
40
0.0000000000
40
0.0000000000
40
1.0000000000
40
1.0000000000
40
1.0000000000
40
1.0000000000
10
-19.9013820616
20
-12.2110287419
30
-1.6083697550
10
-19.9032024956
20
-12.1672988741
30
-1.5945824001
10
-19.9050133631
20
-12.1235686081
30
-1.5807949196
10
-19.9068146637
20
-12.0798379480
30
-1.5670073150
11
-19.9013820616
21
-12.2110287419
31
-1.6083697550
11
-19.9068146637
21
-12.0798379480
31
-1.5670073150
0
SPLINE
5
327
100
AcDbEntity
8
ASSI
100
AcDbSpline
62
9
6
CONTINUOUS
70
0
71
3
72
8
73
4
74
2
42
0.0000001000
43
0.0000001000
44
0.0000000001
12
-0.0026018643
22
0.0631661592
32
0.0199153187
13
-0.0025885575
23
0.0631667060
33
0.0199154911
40
0.0000000000
40
0.0000000000
40
0.0000000000
40
0.0000000000
40
1.0000000000
40
1.0000000000
40
1.0000000000
40
1.0000000000
10
-19.9068146637
20
-12.0798379480
30
-1.5670073150
10
-19.9076819518
20
-12.0587825616
30
-1.5603688754
10
-19.9085470221
20
-12.0377270838
30
-1.5537304070
10
-19.9094098746
20
-12.0166715152
30
-1.5470919100
11
-19.9068146637
21
-12.0798379480
31
-1.5670073150
11
-19.9094098746
21
-12.0166715152
31
-1.5470919100
0
SPLINE
5
328
100
AcDbEntity
8
ASSI
100
AcDbSpline
62
9
6
CONTINUOUS
70
0
71
3
72
8
73
4
74
2
42
0.0000001000
43
0.0000001000
44
0.0000000001
12
-0.0083265910
22
0.2048345538
32
0.0645811851
13
-0.0081866629
23
0.2048401941
33
0.0645829634
40
0.0000000000
40
0.0000000000
40
0.0000000000
40
0.0000000000
40
1.0000000000
40
1.0000000000
40
1.0000000000
40
1.0000000000
10
-19.9134351512
20
-11.9180491538
30
-1.5159977959
10
-19.9162106815
20
-11.8497709692
30
-1.4944707342
10
-19.9189628908
20
-11.7814918366
30
-1.4729433736
10
-19.9216917784
20
-11.7132117719
30
-1.4514157191
11
-19.9134351512
21
-11.9180491538
31
-1.5159977959
11
-19.9216917784
21
-11.7132117719
31
-1.4514157191
0
SPLINE
5
329
100
AcDbEntity
8
ASSI
100
AcDbSpline
62
9
6
CONTINUOUS
70
0
71
3
72
8
73
4
74
2
42
0.0000001000
43
0.0000001000
44
0.0000000001
12
-0.0083943627
22
0.2100370942
32
0.0662214661
13
-0.0082472403
23
0.2100429225
33
0.0662233037
40
0.0000000000
40
0.0000000000
40
0.0000000000
40
0.0000000000
40
1.0000000000
40
1.0000000000
40
1.0000000000
40
1.0000000000
10
-19.9216917784
20
-11.7132117719
30
-1.4514157191
10
-19.9244898993
20
-11.6431994071
30
-1.4293418971
10
-19.9272635002
20
-11.5731860624
30
-1.4072677661
10
-19.9300125803
20
-11.5031717549
30
-1.3851933315
11
-19.9216917784
21
-11.7132117719
31
-1.4514157191
11
-19.9300125803
21
-11.5031717549
31
-1.3851933315
0
SPLINE
5
32A
100
AcDbEntity
8
ASSI
100
AcDbSpline
62
9
6
CONTINUOUS
70
0
71
3
72
8
73
4
74
2
42
0.0000001000
43
0.0000001000
44
0.0000000001
12
-0.0012197153
22
0.0310640357
32
0.0097940128
13
-0.0012164973
23
0.0310641619
33
0.0097940526
40
0.0000000000
40
0.0000000000
40
0.0000000000
40
0.0000000000
40
1.0000000000
40
1.0000000000
40
1.0000000000
40
1.0000000000
10
-19.9300125803
20
-11.5031717549
30
-1.3851933315
10
-19.9304191520
20
-11.4928170764
30
-1.3819286606
10
-19.9308251875
20
-11.4824623768
30
-1.3786639830
10
-19.9312306866
20
-11.4721076561
30
-1.3753992988
11
-19.9300125803
21
-11.5031717549
31
-1.3851933315
11
-19.9312306866
21
-11.4721076561
31
-1.3753992988
0
SPLINE
5
32B
100
AcDbEntity
8
ASSI
100
AcDbSpline
62
9
6
CONTINUOUS
70
0
71
3
72
27
73
23
74
21
42
0.0000001000
43
0.0000001000
44
0.0000000001
12
0.0130277750
22
-0.2652073504
32
-0.0836174204
13
0.0000000000
23
0.0000000000
33
0.2813813604
40
0.0000000000
40
0.0000000000
40
0.0000000000
40
0.0000000000
40
0.0208333333
40
0.0416666667
40
0.0625000000
40
0.0833333333
40
0.1250000000
40
0.1666666667
40
0.2083333333
40
0.2500000000
40
0.3333333333
40
0.5000000000
40
0.6666666667
40
0.7500000000
40
0.7916666667
40
0.8333333333
40
0.8750000000
40
0.9166666667
40
0.9375000000
40
0.9583333333
40
0.9791666667
40
1.0000000000
40
1.0000000000
40
1.0000000000
40
1.0000000000
10
-19.7996515012
20
-14.4530051999
30
-2.6297704519
10
-19.7995610305
20
-14.4548469176
30
-2.6303511284
10
-19.7993953030
20
-14.4582200256
30
-2.6312874115
10
-19.7991285394
20
-14.4636476549
30
-2.6324424079
10
-19.7988624467
20
-14.4690595979
30
-2.6332471855
10
-19.7985038409
20
-14.4763504483
30
-2.6339127829
10
-19.7980537251
20
-14.4854966716
30
-2.6340039060
10
-19.7975149281
20
-14.4964367077
30
-2.6330683327
10
-19.7969808533
20
-14.5072728489
30
-2.6312100554
10
-19.7962762307
20
-14.5215588211
30
-2.6276229682
10
-19.7950757531
20
-14.5458720030
30
-2.6188167700
10
-19.7933871109
20
-14.5799979272
30
-2.5991700536
10
-19.7919417666
20
-14.6091287190
30
-2.5725575398
10
-19.7911535825
20
-14.6249919997
30
-2.5519405449
10
-19.7907651927
20
-14.6328042962
30
-2.5393201391
10
-19.7905114094
20
-14.6379071333
30
-2.5294724581
10
-19.7902999661
20
-14.6421572943
30
-2.5192316377
10
-19.7901650118
20
-14.6448692760
30
-2.5103943194
10
-19.7900859911
20
-14.6464570475
30
-2.5031643885
10
-19.7900423348
20
-14.6473341765
30
-2.4977016151
10
-19.7900153816
20
-14.6478756863
30
-2.4921150231
10
-19.7900092149
20
-14.6479995777
30
-2.4885793367
10
-19.7900092149
20
-14.6479995777
30
-2.4866252994
11
-19.7996515012
21
-14.4530051999
31
-2.6297704519
11
-19.7993922743
21
-14.4582813535
31
-2.6312458401
11
-19.7991286512
21
-14.4636450405
31
-2.6323840381
11
-19.7988619698
21
-14.4690689637
31
-2.6331962556
11
-19.7985933684
21
-14.4745299130
31
-2.6336969920
11
-19.7980539488
21
-14.4854907663
31
-2.6338297525
11
-19.7975157151
21
-14.4964193919
31
-2.6329145487
11
-19.7969817879
21
-14.5072525719
31
-2.6310713824
11
-19.7964539393
21
-14.5179546009
31
-2.6283993212
11
-19.7954205017
21
-14.5388849001
31
-2.6208617311
11
-19.7934357705
21
-14.5789989007
31
-2.5977768941
11
-19.7917378623
21
-14.6132298208
31
-2.5664776141
11
-19.7910616518
21
-14.6268407042
31
-2.5487155046
11
-19.7907714442
21
-14.6326782320
31
-2.5392564097
11
-19.7905184661
21
-14.6377650206
31
-2.5294069349
11
-19.7903082158
21
-14.6419913305
31
-2.5191709774
11
-19.7901476685
21
-14.6452177344
31
-2.5085734970
11
-19.7900885926
21
-14.6464047642
31
-2.5031576676
11
-19.7900451187
21
-14.6472782399
31
-2.4976809786
11
-19.7900183321
21
-14.6478164075
31
-2.4921622002
11
-19.7900092149
21
-14.6479995777
31
-2.4866252994
0
SPLINE
5
32C
100
AcDbEntity
8
ASSI
100
AcDbSpline
62
9
6
CONTINUOUS
70
0
71
3
72
8
73
4
74
2
42
0.0000001000
43
0.0000001000
44
0.0000000001
12
0.0012175367
22
-0.0310899694
32
0.0098003191
13
0.0012207600
23
-0.0310898430
33
0.0098002793
40
0.0000000000
40
0.0000000000
40
0.0000000000
40
0.0000000000
40
1.0000000000
40
1.0000000000
40
1.0000000000
40
1.0000000000
10
-19.9312198609
20
-11.4723840942
30
1.3959524388
10
-19.9308140154
20
-11.4827474173
30
1.3992192119
10
-19.9304076326
20
-11.4931107194
30
1.4024859783
10
-19.9300007126
20
-11.5034740005
30
1.4057527381
11
-19.9312198609
21
-11.4723840942
31
1.3959524388
11
-19.9300007126
21
-11.5034740005
31
1.4057527381
0
SPLINE
5
32D
100
AcDbEntity
8
ASSI
100
AcDbSpline
62
9
6
CONTINUOUS
70
0
71
3
72
8
73
4
74
2
42
0.0000001000
43
0.0000001000
44
0.0000000001
12
0.0082534631
22
-0.2101960023
32
0.0662589234
13
0.0084008000
23
-0.2101901653
33
0.0662570835
40
0.0000000000
40
0.0000000000
40
0.0000000000
40
0.0000000000
40
1.0000000000
40
1.0000000000
40
1.0000000000
40
1.0000000000
10
-19.9300007126
20
-11.5034740005
30
1.4057527381
10
-19.9272495582
20
-11.5735393346
30
1.4278390459
10
-19.9244738474
20
-11.6436037044
30
1.4499250497
10
-19.9216735807
20
-11.7136670929
30
1.4720107442
11
-19.9300007126
21
-11.5034740005
31
1.4057527381
11
-19.9216735807
21
-11.7136670929
31
1.4720107442
0
SPLINE
5
32E
100
AcDbEntity
8
ASSI
100
AcDbSpline
62
9
6
CONTINUOUS
70
0
71
3
72
8
73
4
74
2
42
0.0000001000
43
0.0000001000
44
0.0000000001
12
0.0081726846
22
-0.2044826598
32
0.0644579381
13
0.0083121247
23
-0.2044770391
33
0.0644561663
40
0.0000000000
40
0.0000000000
40
0.0000000000
40
0.0000000000
40
1.0000000000
40
1.0000000000
40
1.0000000000
40
1.0000000000
10
-19.9216735807
20
-11.7136670929
30
1.4720107442
10
-19.9189493525
20
-11.7818279795
30
1.4934967236
10
-19.9162018840
20
-11.8499879372
30
1.5149824102
10
-19.9134311757
20
-11.9181469502
30
1.5364677989
11
-19.9216735807
21
-11.7136670929
31
1.4720107442
11
-19.9134311757
21
-11.9181469502
31
1.5364677989
0
SPLINE
5
32F
100
AcDbEntity
8
ASSI
100
AcDbSpline
62
9
6
CONTINUOUS
70
0
71
3
72
8
73
4
74
2
42
0.0000001000
43
0.0000001000
44
0.0000000001
12
0.0040128176
22
-0.0987147207
32
0.0311172955
13
0.0040453154
23
-0.0987133943
33
0.0311168774
40
0.0000000000
40
0.0000000000
40
0.0000000000
40
0.0000000000
40
1.0000000000
40
1.0000000000
40
1.0000000000
40
1.0000000000
10
-19.9134311757
20
-11.9181469502
30
1.5364677989
10
-19.9120935699
20
-11.9510518571
30
1.5468402308
10
-19.9107505476
20
-11.9839565439
30
1.5572125932
10
-19.9094021092
20
-12.0168610087
30
1.5675848857
11
-19.9134311757
21
-11.9181469502
31
1.5364677989
11
-19.9094021092
21
-12.0168610087
31
1.5675848857
0
SPLINE
5
330
100
AcDbEntity
8
ASSI
100
AcDbSpline
62
9
6
CONTINUOUS
70
0
71
3
72
8
73
4
74
2
42
0.0000001000
43
0.0000001000
44
0.0000000001
12
0.0025892236
22
-0.0631819843
32
0.0199165075
13
0.0026025368
23
-0.0631814373
33
0.0199163351
40
0.0000000000
40
0.0000000000
40
0.0000000000
40
0.0000000000
40
1.0000000000
40
1.0000000000
40
1.0000000000
40
1.0000000000
10
-19.9094021092
20
-12.0168610087
30
1.5675848857
10
-19.9085390346
20
-12.0379216701
30
1.5742237215
10
-19.9076737412
20
-12.0589822406
30
1.5808625287
10
-19.9068062289
20
-12.0800427197
30
1.5875013071
11
-19.9094021092
21
-12.0168610087
31
1.5675848857
11
-19.9068062289
21
-12.0800427197
31
1.5875013071
0
SPLINE
5
331
100
AcDbEntity
8
ASSI
100
AcDbSpline
62
9
6
CONTINUOUS
70
0
71
3
72
8
73
4
74
2
42
0.0000001000
43
0.0000001000
44
0.0000000001
12
0.0054007366
22
-0.1311129569
32
0.0413300124
13
0.0054580676
23
-0.1311105828
33
0.0413292640
40
0.0000000000
40
0.0000000000
40
0.0000000000
40
0.0000000000
40
1.0000000000
40
1.0000000000
40
1.0000000000
40
1.0000000000
10
-19.9068062289
20
-12.0800427197
30
1.5875013071
10
-19.9050059834
20
-12.1237470387
30
1.6012779779
10
-19.9031961826
20
-12.1674509640
30
1.6150545246
10
-19.9013768267
20
-12.2111544916
30
1.6288309459
11
-19.9068062289
21
-12.0800427197
31
1.5875013071
11
-19.9013768267
21
-12.2111544916
31
1.6288309459
0
SPLINE
5
332
100
AcDbEntity
8
ASSI
100
AcDbSpline
62
9
6
CONTINUOUS
70
0
71
3
72
8
73
4
74
2
42
0.0000001000
43
0.0000001000
44
0.0000000001
12
0.0065359471
22
-0.1570027878
32
0.0494911206
13
0.0066181562
23
-0.1569993439
33
0.0494900350
40
0.0000000000
40
0.0000000000
40
0.0000000000
40
0.0000000000
40
1.0000000000
40
1.0000000000
40
1.0000000000
40
1.0000000000
10
-19.9013768267
20
-12.2111544916
30
1.6288309459
10
-19.8991981777
20
-12.2634887542
30
1.6453279861
10
-19.8970058270
20
-12.3158224464
30
1.6618248465
10
-19.8947997750
20
-12.3681555610
30
1.6783215248
11
-19.9013768267
21
-12.2111544916
31
1.6288309459
11
-19.8947997750
21
-12.3681555610
31
1.6783215248
0
SPLINE
5
333
100
AcDbEntity
8
ASSI
100
AcDbSpline
62
9
6
CONTINUOUS
70
0
71
3
72
8
73
4
74
2
42
0.0000001000
43
0.0000001000
44
0.0000000001
12
0.0092890079
22
-0.2203586787
32
0.0694624477
13
0.0094509550
23
-0.2203517924
33
0.0694602770
40
0.0000000000
40
0.0000000000
40
0.0000000000
40
0.0000000000
40
1.0000000000
40
1.0000000000
40
1.0000000000
40
1.0000000000
10
-19.8947997750
20
-12.3681555610
30
1.6783215248
10
-19.8917034390
20
-12.4416084539
30
1.7014756741
10
-19.8885801114
20
-12.5150602090
30
1.7246294647
10
-19.8854297931
20
-12.5885108065
30
1.7477828903
11
-19.8947997750
21
-12.3681555610
31
1.6783215248
11
-19.8854297931
21
-12.5885108065
31
1.7477828903
0
SPLINE
5
334
100
AcDbEntity
8
ASSI
100
AcDbSpline
62
9
6
CONTINUOUS
70
0
71
3
72
8
73
4
74
2
42
0.0000001000
43
0.0000001000
44
0.0000000001
12
0.0027290565
22
-0.0636287532
32
0.0200573400
13
0.0027425597
23
-0.0636281726
33
0.0200571570
40
0.0000000000
40
0.0000000000
40
0.0000000000
40
0.0000000000
40
1.0000000000
40
1.0000000000
40
1.0000000000
40
1.0000000000
10
-19.8854297931
20
-12.5885108065
30
1.7477828903
10
-19.8845201076
20
-12.6097203909
30
1.7544686703
10
-19.8836081715
20
-12.6309298787
30
1.7611544199
10
-19.8826939850
20
-12.6521392696
30
1.7678401389
11
-19.8854297931
21
-12.5885108065
31
1.7477828903
11
-19.8826939850
21
-12.6521392696
31
1.7678401389
0
SPLINE
5
335
100
AcDbEntity
8
ASSI
100
AcDbSpline
62
9
6
CONTINUOUS
70
0
71
3
72
8
73
4
74
2
42
0.0000001000
43
0.0000001000
44
0.0000000001
12
0.0115641943
22
-0.2682926285
32
0.0845724017
13
0.0118042689
23
-0.2682821730
33
0.0845691058
40
0.0000000000
40
0.0000000000
40
0.0000000000
40
0.0000000000
40
1.0000000000
40
1.0000000000
40
1.0000000000
40
1.0000000000
10
-19.8826939850
20
-12.6521392696
30
1.7678401389
10
-19.8788392535
20
-12.7415701458
30
1.7960309394
10
-19.8749445089
20
-12.8309992973
30
1.8242211963
10
-19.8710097526
20
-12.9204266883
30
1.8524108983
11
-19.8826939850
21
-12.6521392696
31
1.7678401389
11
-19.8710097526
21
-12.9204266883
31
1.8524108983
0
SPLINE
5
336
100
AcDbEntity
8
ASSI
100
AcDbSpline
62
9
6
CONTINUOUS
70
0
71
3
72
8
73
4
74
2
42
0.0000001000
43
0.0000001000
44
0.0000000001
12
0.0049040563
22
-0.1114572109
32
0.0351340402
13
0.0049454913
23
-0.1114553800
33
0.0351334631
40
0.0000000000
40
0.0000000000
40
0.0000000000
40
0.0000000000
40
1.0000000000
40
1.0000000000
40
1.0000000000
40
1.0000000000
10
-19.8710097526
20
-12.9204266883
30
1.8524108983
10
-19.8693750672
20
-12.9575790919
30
1.8641222450
10
-19.8677334759
20
-12.9947311916
30
1.8758334960
10
-19.8660849788
20
-13.0318829850
30
1.8875446504
11
-19.8710097526
21
-12.9204266883
31
1.8524108983
11
-19.8660849788
21
-13.0318829850
31
1.8875446504
0
SPLINE
5
337
100
AcDbEntity
8
ASSI
100
AcDbSpline
62
9
6
CONTINUOUS
70
0
71
3
72
8
73
4
74
2
42
0.0000001000
43
0.0000001000
44
0.0000000001
12
0.0058589858
22
-0.1320425936
32
0.0416230566
13
0.0059171405
23
-0.1320400003
33
0.0416222391
40
0.0000000000
40
0.0000000000
40
0.0000000000
40
0.0000000000
40
1.0000000000
40
1.0000000000
40
1.0000000000
40
1.0000000000
10
-19.8660849788
20
-13.0318829850
30
1.8875446504
10
-19.8641319835
20
-13.0758971828
30
1.9014190026
10
-19.8621692957
20
-13.1199109506
30
1.9152932192
10
-19.8601969155
20
-13.1639242841
30
1.9291672989
11
-19.8660849788
21
-13.0318829850
31
1.8875446504
11
-19.8601969155
21
-13.1639242841
31
1.9291672989
0
SPLINE
5
338
100
AcDbEntity
8
ASSI
100
AcDbSpline
62
9
6
CONTINUOUS
70
0
71
3
72
8
73
4
74
2
42
0.0000001000
43
0.0000001000
44
0.0000000001
12
0.0025930622
22
-0.0578637482
32
0.0182400694
13
0.0026042303
23
-0.0578632466
33
0.0182399113
40
0.0000000000
40
0.0000000000
40
0.0000000000
40
0.0000000000
40
1.0000000000
40
1.0000000000
40
1.0000000000
40
1.0000000000
10
-19.8601969155
20
-13.1639242841
30
1.9291672989
10
-19.8593325614
20
-13.1832122001
30
1.9352473220
10
-19.8584663460
20
-13.2025000328
30
1.9413273188
10
-19.8575982693
20
-13.2217877816
30
1.9474072893
11
-19.8601969155
21
-13.1639242841
31
1.9291672989
11
-19.8575982693
21
-13.2217877816
31
1.9474072893
0
SPLINE
5
339
100
AcDbEntity
8
ASSI
100
AcDbSpline
62
9
6
CONTINUOUS
70
0
71
3
72
8
73
4
74
2
42
0.0000001000
43
0.0000001000
44
0.0000000001
12
0.0062471014
22
-0.1388039949
32
0.0437544157
13
0.0063113662
23
-0.1388010876
33
0.0437534993
40
0.0000000000
40
0.0000000000
40
0.0000000000
40
0.0000000000
40
1.0000000000
40
1.0000000000
40
1.0000000000
40
1.0000000000
10
-19.8575982693
20
-13.2217877816
30
1.9474072893
10
-19.8555159021
20
-13.2680557799
30
1.9619920945
10
-19.8534228241
20
-13.3143232961
30
1.9765767478
10
-19.8513190353
20
-13.3605903253
30
1.9911612476
11
-19.8575982693
21
-13.2217877816
31
1.9474072893
11
-19.8513190353
21
-13.3605903253
31
1.9911612476
0
SPLINE
5
33A
100
AcDbEntity
8
ASSI
100
AcDbSpline
62
9
6
CONTINUOUS
70
0
71
3
72
8
73
4
74
2
42
0.0000001000
43
0.0000001000
44
0.0000000001
12
0.0032279119
22
-0.0709890170
32
0.0223774753
13
0.0032447217
23
-0.0709882506
33
0.0223772337
40
0.0000000000
40
0.0000000000
40
0.0000000000
40
0.0000000000
40
1.0000000000
40
1.0000000000
40
1.0000000000
40
1.0000000000
10
-19.8513190353
20
-13.3605903253
30
1.9911612476
10
-19.8502430647
20
-13.3842533310
30
1.9986204060
10
-19.8491642924
20
-13.4079162093
30
2.0060795242
10
-19.8480827185
20
-13.4315789595
30
2.0135386021
11
-19.8513190353
21
-13.3605903253
31
1.9911612476
11
-19.8480827185
21
-13.4315789595
31
2.0135386021
0
SPLINE
5
33B
100
AcDbEntity
8
ASSI
100
AcDbSpline
62
9
6
CONTINUOUS
70
0
71
3
72
8
73
4
74
2
42
0.0000001000
43
0.0000001000
44
0.0000000001
12
0.0018510060
22
-0.0395823026
32
0.0124773104
13
0.0018562325
23
-0.0395820579
33
0.0124772332
40
0.0000000000
40
0.0000000000
40
0.0000000000
40
0.0000000000
40
1.0000000000
40
1.0000000000
40
1.0000000000
40
1.0000000000
10
-19.8334827094
20
-13.7473527482
30
2.1130782274
10
-19.8328657074
20
-13.7605468491
30
2.1172373308
10
-19.8322478343
20
-13.7737409093
30
2.1213964215
10
-19.8316290901
20
-13.7869349285
30
2.1255554992
11
-19.8334827094
21
-13.7473527482
31
2.1130782274
11
-19.8316290901
21
-13.7869349285
31
2.1255554992
0
SPLINE
5
33C
100
AcDbEntity
8
ASSI
100
AcDbSpline
62
9
6
CONTINUOUS
70
0
71
3
72
8
73
4
74
2
42
0.0000001000
43
0.0000001000
44
0.0000000001
12
0.0124032668
22
-0.2644856375
32
0.0833723449
13
0.0126366159
23
-0.2644745912
33
0.0833688629
40
0.0000000000
40
0.0000000000
40
0.0000000000
40
0.0000000000
40
1.0000000000
40
1.0000000000
40
1.0000000000
40
1.0000000000
10
-19.8316290901
20
-13.7869349285
30
2.1255554992
10
-19.8274946679
20
-13.8750968077
30
2.1533462808
10
-19.8233213533
20
-13.9632568630
30
2.1811364876
10
-19.8191091479
20
-14.0514150601
30
2.2089261085
11
-19.8316290901
21
-13.7869349285
31
2.1255554992
11
-19.8191091479
21
-14.0514150601
31
2.2089261085
0
SPLINE
5
33D
100
AcDbEntity
8
ASSI
100
AcDbSpline
62
9
6
CONTINUOUS
70
0
71
3
72
8
73
4
74
2
42
0.0000001000
43
0.0000001000
44
0.0000000001
12
0.0035893216
22
-0.0751217226
32
0.0236802052
13
0.0036081476
23
-0.0751208207
33
0.0236799209
40
0.0000000000
40
0.0000000000
40
0.0000000000
40
0.0000000000
40
1.0000000000
40
1.0000000000
40
1.0000000000
40
1.0000000000
10
-19.8191091479
20
-14.0514150601
30
2.2089261085
10
-19.8179127074
20
-14.0764556343
30
2.2168195103
10
-19.8167131292
20
-14.1014960585
30
2.2247128647
10
-19.8155104134
20
-14.1265363321
30
2.2326061717
11
-19.8191091479
21
-14.0514150601
31
2.2089261085
11
-19.8155104134
21
-14.1265363321
31
2.2326061717
0
SPLINE
5
33E
100
AcDbEntity
8
ASSI
100
AcDbSpline
62
9
6
CONTINUOUS
70
0
71
3
72
8
73
4
74
2
42
0.0000001000
43
0.0000001000
44
0.0000000001
12
0.0106422537
22
-0.2215693295
32
0.0698440745
13
0.0108060281
23
-0.2215614026
33
0.0698415757
40
0.0000000000
40
0.0000000000
40
0.0000000000
40
0.0000000000
40
1.0000000000
40
1.0000000000
40
1.0000000000
40
1.0000000000
10
-19.8155104134
20
-14.1265363321
30
2.2326061717
10
-19.8119629954
20
-14.2003927753
30
2.2558875299
10
-19.8083882813
20
-14.2742479074
30
2.2791684748
10
-19.8047862719
20
-14.3481017083
30
2.3024490000
11
-19.8155104134
21
-14.1265363321
31
2.2326061717
11
-19.8047862719
21
-14.3481017083
31
2.3024490000
0
SPLINE
5
33F
100
AcDbEntity
8
ASSI
100
AcDbSpline
62
9
6
CONTINUOUS
70
0
71
3
72
8
73
4
74
2
42
0.0000001000
43
0.0000001000
44
0.0000000001
12
-0.0031552533
22
0.0805717338
32
0.0254030287
13
-0.0030248521
23
0.0777565704
33
0.0267023491
40
0.0000000000
40
0.0000000000
40
0.0000000000
40
0.0000000000
40
1.0000000000
40
1.0000000000
40
1.0000000000
40
1.0000000000
10
-19.9312306830
20
-11.4721077467
30
-1.3753990112
10
-19.9322824341
20
-11.4452505021
30
-1.3669313349
10
-19.9333115307
20
-11.4188827962
30
-1.3582568780
10
-19.9343198148
20
-11.3929639395
30
-1.3493560950
11
-19.9312306830
21
-11.4721077467
31
-1.3753990112
11
-19.9343198148
21
-11.3929639395
31
-1.3493560950
0
SPLINE
5
340
100
AcDbEntity
8
ASSI
100
AcDbSpline
62
9
6
CONTINUOUS
70
0
71
3
72
8
73
4
74
2
42
0.0000001000
43
0.0000001000
44
0.0000000001
12
-0.0105103579
22
0.2701783000
32
0.0927818092
13
-0.0092344999
23
0.2427846071
33
0.1116367063
40
0.0000000000
40
0.0000000000
40
0.0000000000
40
0.0000000000
40
1.0000000000
40
1.0000000000
40
1.0000000000
40
1.0000000000
10
-19.9343198148
20
-11.3929639395
30
-1.3493560950
10
-19.9378232674
20
-11.3029045061
30
-1.3184288253
10
-19.9410754429
20
-11.2182641713
30
-1.2847690474
10
-19.9441536095
20
-11.1373359690
30
-1.2475568120
11
-19.9343198148
21
-11.3929639395
31
-1.3493560950
11
-19.9441536095
21
-11.1373359690
31
-1.2475568120
0
SPLINE
5
341
100
AcDbEntity
8
ASSI
100
AcDbSpline
62
9
6
CONTINUOUS
70
0
71
3
72
9
73
5
74
3
42
0.0000001000
43
0.0000001000
44
0.0000000001
12
-0.0098791236
22
0.2654514862
32
0.1652911461
13
-0.0080586193
23
0.2214113265
33
0.1975259021
40
0.0000000000
40
0.0000000000
40
0.0000000000
40
0.0000000000
40
0.3107874424
40
1.0000000000
40
1.0000000000
40
1.0000000000
40
1.0000000000
10
-19.9535077246
20
-10.8887267886
30
-1.1144400744
10
-19.9545311605
20
-10.8612271258
30
-1.0973166035
10
-19.9577346113
20
-10.7748256424
30
-1.0405318783
10
-19.9606353671
20
-10.6956457854
30
-0.9783143373
10
-19.9624867343
20
-10.6447792965
30
-0.9329352266
11
-19.9535077246
21
-10.8887267886
31
-1.1144400744
11
-19.9564931081
21
-10.8082196622
31
-1.0614958952
11
-19.9624867343
21
-10.6447792965
31
-0.9329352266
0
SPLINE
5
342
100
AcDbEntity
8
ASSI
100
AcDbSpline
62
9
6
CONTINUOUS
70
0
71
3
72
9
73
5
74
3
42
0.0000001000
43
0.0000001000
44
0.0000000001
12
-0.0097854611
22
0.2688564682
32
0.2398527540
13
-0.0069952283
23
0.1963918502
33
0.2824738175
40
0.0000000000
40
0.0000000000
40
0.0000000000
40
0.0000000000
40
0.3569312240
40
1.0000000000
40
1.0000000000
40
1.0000000000
40
1.0000000000
10
-19.9624867343
20
-10.6447792965
30
-0.9329352266
10
-19.9636509799
20
-10.6127915404
30
-0.9043982475
10
-19.9667489677
20
-10.5272779573
30
-0.8216796746
10
-19.9693799771
20
-10.4538024539
30
-0.7313684339
10
-19.9708794480
20
-10.4117046316
30
-0.6708184032
11
-19.9624867343
21
-10.6447792965
31
-0.9329352266
11
-19.9658030240
21
-10.5532802548
31
-0.8443812595
11
-19.9708794480
21
-10.4117046316
31
-0.6708184032
0
SPLINE
5
343
100
AcDbEntity
8
ASSI
100
AcDbSpline
62
9
6
CONTINUOUS
70
0
71
3
72
11
73
7
74
5
42
0.0000001000
43
0.0000001000
44
0.0000000001
12
-0.0126625775
22
0.3555033427
32
0.5113266474
13
-0.0025878694
23
0.0741970277
33
0.5823179487
40
0.0000000000
40
0.0000000000
40
0.0000000000
40
0.0000000000
40
0.1554820824
40
0.6662167084
40
0.9215840213
40
1.0000000000
40
1.0000000000
40
1.0000000000
40
1.0000000000
10
-19.9708794480
20
-10.4117046316
30
-0.6708184032
10
-19.9715357160
20
-10.3932798316
30
-0.6443176926
10
-19.9741897666
20
-10.3185609999
30
-0.5287359086
10
-19.9769263047
20
-10.2406357286
30
-0.3582345844
10
-19.9783186789
20
-10.2007711034
30
-0.1951215581
10
-19.9786576010
20
-10.1910563954
30
-0.1304048128
10
-19.9787252444
20
-10.1891169846
30
-0.1151838022
11
-19.9708794480
21
-10.4117046316
31
-0.6708184032
11
-19.9727377158
21
-10.3594054143
31
-0.5899505989
11
-19.9772349159
21
-10.2317608454
31
-0.3082196664
11
-19.9784866871
21
-10.1959543926
31
-0.1607990000
11
-19.9787252444
21
-10.1891169846
31
-0.1151838022
0
SPLINE
5
344
100
AcDbEntity
8
ASSI
100
AcDbSpline
62
9
6
CONTINUOUS
70
0
71
3
72
12
73
8
74
6
42
0.0000001000
43
0.0000001000
44
0.0000000001
12
-0.0036344940
22
0.1042048934
32
0.8178276363
13
0.0184003343
23
-0.5165787664
33
0.7426849854
40
0.0000000000
40
0.0000000000
40
0.0000000000
40
0.0000000000
40
0.1259946882
40
0.3078239187
40
0.4896531493
40
0.8533116104
40
1.0000000000
40
1.0000000000
40
1.0000000000
40
1.0000000000
10
-19.9787252444
20
-10.1891169846
30
-0.1151838022
10
-19.9788778867
20
-10.1847405636
30
-0.0808364896
10
-19.9791017762
20
-10.1783139331
30
0.0032913035
10
-19.9788446141
20
-10.1856990539
30
0.1383001055
10
-19.9773989121
20
-10.2271277340
30
0.3404845738
10
-19.9746536656
20
-10.3054309813
30
0.5261038912
10
-19.9717695872
20
-10.3867158758
30
0.6553335578
10
-19.9708698820
20
-10.4119745782
30
0.6916479793
11
-19.9787252444
21
-10.1891169846
31
-0.1151838022
11
-19.9789965728
21
-10.1813341023
31
-0.0118431350
11
-19.9787116490
21
-10.1895064328
31
0.1385058826
11
-19.9776404279
21
-10.2201747237
31
0.2893433309
11
-19.9733564736
21
-10.3419343322
31
0.5804146334
11
-19.9708698820
21
-10.4119745782
31
0.6916479793
0
SPLINE
5
345
100
AcDbEntity
8
ASSI
100
AcDbSpline
62
9
6
CONTINUOUS
70
0
71
3
72
9
73
5
74
3
42
0.0000001000
43
0.0000001000
44
0.0000000001
12
0.0069833511
22
-0.1960535528
32
0.2818660764
13
0.0097784109
23
-0.2686509028
33
0.2395306108
40
0.0000000000
40
0.0000000000
40
0.0000000000
40
0.0000000000
40
0.5716914093
40
1.0000000000
40
1.0000000000
40
1.0000000000
40
1.0000000000
10
-19.9708698820
20
-10.4119745782
30
0.6916479793
10
-19.9695391081
20
-10.4493352888
30
0.7453614507
10
-19.9669406179
20
-10.5219387514
30
0.8361408382
10
-19.9638716807
20
-10.6067267031
30
0.9193881182
10
-19.9624756215
20
-10.6450818663
30
0.9535857910
11
-19.9708698820
21
-10.4119745782
31
0.6916479793
11
-19.9664142824
21
-10.5363311101
31
0.8466953159
11
-19.9624756215
21
-10.6450818663
31
0.9535857910
0
SPLINE
5
346
100
AcDbEntity
8
ASSI
100
AcDbSpline
62
9
6
CONTINUOUS
70
0
71
3
72
9
73
5
74
3
42
0.0000001000
43
0.0000001000
44
0.0000000001
12
0.0080626466
22
-0.2215121977
32
0.1975014841
13
0.0097752575
23
-0.2626837123
33
0.1638090801
40
0.0000000000
40
0.0000000000
40
0.0000000000
40
0.0000000000
40
0.6426527750
40
1.0000000000
40
1.0000000000
40
1.0000000000
40
1.0000000000
10
-19.9624756215
20
-10.6450818663
30
0.9535857910
10
-19.9607484608
20
-10.6925336758
30
0.9958940832
10
-19.9578665511
20
-10.7712290975
30
1.0582557886
10
-19.9547037360
20
-10.8565876356
30
1.1148657802
10
-19.9535393490
20
-10.8878774008
30
1.1343780203
11
-19.9624756215
21
-10.6450818663
31
0.9535857910
11
-19.9569283116
21
-10.7964332224
31
1.0736724566
11
-19.9535393490
21
-10.8878774008
31
1.1343780203
0
SPLINE
5
347
100
AcDbEntity
8
ASSI
100
AcDbSpline
62
9
6
CONTINUOUS
70
0
71
3
72
8
73
4
74
2
42
0.0000001000
43
0.0000001000
44
0.0000000001
12
0.0092311596
22
-0.2426934927
32
0.1115620808
13
0.0104964603
23
-0.2698210375
33
0.0926761838
40
0.0000000000
40
0.0000000000
40
0.0000000000
40
0.0000000000
40
1.0000000000
40
1.0000000000
40
1.0000000000
40
1.0000000000
10
-19.9441468878
20
-11.1375138197
30
1.2680943298
10
-19.9410698346
20
-11.2184116506
30
1.3052816901
10
-19.9378207628
20
-11.3029691358
30
1.3389078584
10
-19.9343219427
20
-11.3929094816
30
1.3697999196
11
-19.9441468878
21
-11.1375138197
31
1.2680943298
11
-19.9343219427
21
-11.3929094816
31
1.3697999196
0
SPLINE
5
348
100
AcDbEntity
8
ASSI
100
AcDbSpline
62
9
6
CONTINUOUS
70
0
71
3
72
8
73
4
74
2
42
0.0000001000
43
0.0000001000
44
0.0000000001
12
0.0030374647
22
-0.0780807867
32
0.0268186254
13
0.0031686002
23
-0.0809106496
33
0.0255050167
40
0.0000000000
40
0.0000000000
40
0.0000000000
40
0.0000000000
40
1.0000000000
40
1.0000000000
40
1.0000000000
40
1.0000000000
10
-19.9343219427
20
-11.3929094816
30
1.3697999196
10
-19.9333094545
20
-11.4189364105
30
1.3787394614
10
-19.9322760521
20
-11.4454141041
30
1.3874500471
10
-19.9312198521
20
-11.4723843206
30
1.3959517194
11
-19.9343219427
21
-11.3929094816
31
1.3697999196
11
-19.9312198521
21
-11.4723843206
31
1.3959517194
0
SPLINE
5
349
100
AcDbEntity
8
ASSI
100
AcDbSpline
62
9
6
CONTINUOUS
70
0
71
3
72
8
73
4
74
2
42
0.0000001000
43
0.0000001000
44
0.0000000001
12
0.0044630449
22
-0.1148529146
32
-0.0362120595
13
0.0045070338
23
-0.1148511968
33
-0.0362115179
40
0.0000000000
40
0.0000000000
40
0.0000000000
40
0.0000000000
40
1.0000000000
40
1.0000000000
40
1.0000000000
40
1.0000000000
10
-19.9347582065
20
-11.3816811290
30
-1.6614108255
10
-19.9332705248
20
-11.4199654339
30
-1.6734815121
10
-19.9317755117
20
-11.4582494539
30
-1.6855521087
10
-19.9302731671
20
-11.4965331861
30
-1.6976226147
11
-19.9347582065
21
-11.3816811290
31
-1.6614108255
11
-19.9302731671
21
-11.4965331861
31
-1.6976226147
0
SPLINE
5
34A
100
AcDbEntity
8
ASSI
100
AcDbSpline
62
9
6
CONTINUOUS
70
0
71
3
72
8
73
4
74
2
42
0.0000001000
43
0.0000001000
44
0.0000000001
12
0.0157489968
22
-0.4013262888
32
-0.1265344593
13
0.0162860927
23
-0.4013048519
33
-0.1265277005
40
0.0000000000
40
0.0000000000
40
0.0000000000
40
0.0000000000
40
1.0000000000
40
1.0000000000
40
1.0000000000
40
1.0000000000
10
-19.9302731671
20
-11.4965331861
30
-1.6976226147
10
-19.9250235015
20
-11.6303086157
30
-1.7398007678
10
-19.9196843175
20
-11.7640805324
30
-1.7819778133
10
-19.9142556199
20
-11.8978488164
30
-1.8241537135
11
-19.9302731671
21
-11.4965331861
31
-1.6976226147
11
-19.9142556199
21
-11.8978488164
31
-1.8241537135
0
SPLINE
5
34B
100
AcDbEntity
8
ASSI
100
AcDbSpline
62
9
6
CONTINUOUS
70
0
71
3
72
8
73
4
74
2
42
0.0000001000
43
0.0000001000
44
0.0000000001
12
0.0020327220
22
-0.0497682204
32
-0.0156914586
13
0.0020409823
23
-0.0497678824
33
-0.0156913521
40
0.0000000000
40
0.0000000000
40
0.0000000000
40
0.0000000000
40
1.0000000000
40
1.0000000000
40
1.0000000000
40
1.0000000000
10
-19.9110754848
20
-11.9759592711
30
-1.8487812159
10
-19.9103979108
20
-11.9925486779
30
-1.8540117021
10
-19.9097189601
20
-12.0091380285
30
-1.8592421706
10
-19.9090386327
20
-12.0257273226
30
-1.8644726213
11
-19.9110754848
21
-11.9759592711
31
-1.8487812159
11
-19.9090386327
21
-12.0257273226
31
-1.8644726213
0
SPLINE
5
34C
100
AcDbEntity
8
ASSI
100
AcDbSpline
62
9
6
CONTINUOUS
70
0
71
3
72
8
73
4
74
2
42
0.0000001000
43
0.0000001000
44
0.0000000001
12
0.0058920840
22
-0.1436742204
32
-0.0452991501
13
0.0059609258
23
-0.1436713807
33
-0.0452982548
40
0.0000000000
40
0.0000000000
40
0.0000000000
40
0.0000000000
40
1.0000000000
40
1.0000000000
40
1.0000000000
40
1.0000000000
10
-19.9090386327
20
-12.0257273226
30
-1.8644726213
10
-19.9070746047
20
-12.0736187294
30
-1.8795723380
10
-19.9050991030
20
-12.1215096656
30
-1.8946719063
10
-19.9031121277
20
-12.1694001259
30
-1.9097713246
11
-19.9090386327
21
-12.0257273226
31
-1.8644726213
11
-19.9031121277
21
-12.1694001259
31
-1.9097713246
0
SPLINE
5
34D
100
AcDbEntity
8
ASSI
100
AcDbSpline
62
9
6
CONTINUOUS
70
0
71
3
72
8
73
4
74
2
42
0.0000001000
43
0.0000001000
44
0.0000000001
12
0.0094519586
22
-0.2278129242
32
-0.0718273036
13
0.0096250427
23
-0.2278056771
33
-0.0718250187
40
0.0000000000
40
0.0000000000
40
0.0000000000
40
0.0000000000
40
1.0000000000
40
1.0000000000
40
1.0000000000
40
1.0000000000
10
-19.9031121277
20
-12.1694001259
30
-1.9097713246
10
-19.8999614749
20
-12.2453377673
30
-1.9337137591
10
-19.8967819742
20
-12.3212742118
30
-1.9576558163
10
-19.8935736266
20
-12.3972094375
30
-1.9815974892
11
-19.9031121277
21
-12.1694001259
31
-1.9097713246
11
-19.8935736266
21
-12.3972094375
31
-1.9815974892
0
SPLINE
5
34E
100
AcDbEntity
8
ASSI
100
AcDbSpline
62
9
6
CONTINUOUS
70
0
71
3
72
8
73
4
74
2
42
0.0000001000
43
0.0000001000
44
0.0000000001
12
0.0076844947
22
-0.1818767539
32
-0.0573440549
13
0.0077948188
23
-0.1818720591
33
-0.0573425746
40
0.0000000000
40
0.0000000000
40
0.0000000000
40
0.0000000000
40
1.0000000000
40
1.0000000000
40
1.0000000000
40
1.0000000000
10
-19.8935736266
20
-12.3972094375
30
-1.9815974892
10
-19.8910121284
20
-12.4578350221
30
-2.0007121741
10
-19.8884322426
20
-12.5184598298
30
-2.0198266141
10
-19.8858339696
20
-12.5790838496
30
-2.0389408057
11
-19.8935736266
21
-12.3972094375
31
-1.9815974892
11
-19.8858339696
21
-12.5790838496
31
-2.0389408057
0
SPLINE
5
34F
100
AcDbEntity
8
ASSI
100
AcDbSpline
62
9
6
CONTINUOUS
70
0
71
3
72
8
73
4
74
2
42
0.0000001000
43
0.0000001000
44
0.0000000001
12
0.0025970819
22
-0.0605962301
32
-0.0191054298
13
0.0026093287
23
-0.0605957040
33
-0.0191052639
40
0.0000000000
40
0.0000000000
40
0.0000000000
40
0.0000000000
40
1.0000000000
40
1.0000000000
40
1.0000000000
40
1.0000000000
10
-19.8858339696
20
-12.5790838496
30
-2.0389408057
10
-19.8849682757
20
-12.5992825929
30
-2.0453092823
10
-19.8841005406
20
-12.6194812488
30
-2.0516777313
10
-19.8832307643
20
-12.6396798168
30
-2.0580461525
11
-19.8858339696
21
-12.5790838496
31
-2.0389408057
11
-19.8832307643
21
-12.6396798168
31
-2.0580461525
0
SPLINE
5
350
100
AcDbEntity
8
ASSI
100
AcDbSpline
62
9
6
CONTINUOUS
70
0
71
3
72
8
73
4
74
2
42
0.0000001000
43
0.0000001000
44
0.0000000001
12
0.0086350869
22
-0.1971788588
32
-0.0621686667
13
0.0087647644
23
-0.1971731371
33
-0.0621668627
40
0.0000000000
40
0.0000000000
40
0.0000000000
40
0.0000000000
40
1.0000000000
40
1.0000000000
40
1.0000000000
40
1.0000000000
10
-19.8737193666
20
-12.8586990846
30
-2.1271008978
10
-19.8708410043
20
-12.9244253709
30
-2.1478237867
10
-19.8679410288
20
-12.9901507106
30
-2.1685463771
10
-19.8650194407
20
-13.0558750896
30
-2.1892686647
11
-19.8737193666
21
-12.8586990846
31
-2.1271008978
11
-19.8650194407
21
-13.0558750896
31
-2.1892686647
0
SPLINE
5
351
100
AcDbEntity
8
ASSI
100
AcDbSpline
62
9
6
CONTINUOUS
70
0
71
3
72
8
73
4
74
2
42
0.0000001000
43
0.0000001000
44
0.0000000001
12
0.0062731287
22
-0.1411210170
32
-0.0444941487
13
0.0063395552
23
-0.1411180485
33
-0.0444932128
40
0.0000000000
40
0.0000000000
40
0.0000000000
40
0.0000000000
40
1.0000000000
40
1.0000000000
40
1.0000000000
40
1.0000000000
10
-19.8650194407
20
-13.0558750896
30
-2.1892686647
10
-19.8629283978
20
-13.1029154286
30
-2.2041000476
10
-19.8608262837
20
-13.1499552755
30
-2.2189312754
10
-19.8587130987
20
-13.1969946250
30
-2.2337623463
11
-19.8650194407
21
-13.0558750896
31
-2.1892686647
11
-19.8587130987
21
-13.1969946250
31
-2.2337623463
0
SPLINE
5
352
100
AcDbEntity
8
ASSI
100
AcDbSpline
62
9
6
CONTINUOUS
70
0
71
3
72
8
73
4
74
2
42
0.0000001000
43
0.0000001000
44
0.0000000001
12
0.0019839838
22
-0.0441633378
32
-0.0139242911
13
0.0019904895
23
-0.0441630451
33
-0.0139241988
40
0.0000000000
40
0.0000000000
40
0.0000000000
40
0.0000000000
40
1.0000000000
40
1.0000000000
40
1.0000000000
40
1.0000000000
10
-19.8587130987
20
-13.1969946250
30
-2.2337623463
10
-19.8580517707
20
-13.2117157376
30
-2.2384037767
10
-19.8573893585
20
-13.2264368015
30
-2.2430451917
10
-19.8567258620
20
-13.2411578165
30
-2.2476865913
11
-19.8587130987
21
-13.1969946250
31
-2.2337623463
11
-19.8567258620
21
-13.2411578165
31
-2.2476865913
0
SPLINE
5
353
100
AcDbEntity
8
ASSI
100
AcDbSpline
62
9
6
CONTINUOUS
70
0
71
3
72
8
73
4
74
2
42
0.0000001000
43
0.0000001000
44
0.0000000001
12
0.0055208756
22
-0.1224918212
32
-0.0386205360
13
0.0055709234
23
-0.1224895552
33
-0.0386198215
40
0.0000000000
40
0.0000000000
40
0.0000000000
40
0.0000000000
40
1.0000000000
40
1.0000000000
40
1.0000000000
40
1.0000000000
10
-19.8567258620
20
-13.2411578165
30
-2.2476865913
10
-19.8548855702
20
-13.2819884236
30
-2.2605601033
10
-19.8530369369
20
-13.3228186547
30
-2.2734334967
10
-19.8511799624
20
-13.3636485065
30
-2.2863067706
11
-19.8567258620
21
-13.2411578165
31
-2.2476865913
11
-19.8511799624
21
-13.3636485065
31
-2.2863067706
0
SPLINE
5
354
100
AcDbEntity
8
ASSI
100
AcDbSpline
62
9
6
CONTINUOUS
70
0
71
3
72
8
73
4
74
2
42
0.0000001000
43
0.0000001000
44
0.0000000001
12
0.0065125726
22
-0.1431938760
32
-0.0451477020
13
0.0065809680
23
-0.1431907489
33
-0.0451467160
40
0.0000000000
40
0.0000000000
40
0.0000000000
40
0.0000000000
40
1.0000000000
40
1.0000000000
40
1.0000000000
40
1.0000000000
10
-19.8511799624
20
-13.3636485065
30
-2.2863067706
10
-19.8490091049
20
-13.4113797984
30
-2.3013560045
10
-19.8468268480
20
-13.4591105720
30
-2.3164050751
10
-19.8446331920
20
-13.5068408216
30
-2.3314539804
11
-19.8511799624
21
-13.3636485065
31
-2.2863067706
11
-19.8446331920
21
-13.5068408216
31
-2.3314539804
0
SPLINE
5
355
100
AcDbEntity
8
ASSI
100
AcDbSpline
62
9
6
CONTINUOUS
70
0
71
3
72
8
73
4
74
2
42
0.0000001000
43
0.0000001000
44
0.0000000001
12
0.0150121805
22
-0.3266396953
32
-0.1029864686
13
0.0153680733
23
-0.3266231444
33
-0.1029812502
40
0.0000000000
40
0.0000000000
40
0.0000000000
40
0.0000000000
40
1.0000000000
40
1.0000000000
40
1.0000000000
40
1.0000000000
10
-19.8446331920
20
-13.5068408216
30
-2.3314539804
10
-19.8396291318
20
-13.6157207201
30
-2.3657828033
10
-19.8345657547
20
-13.7245978923
30
-2.4001107666
10
-19.8294430636
20
-13.8334722738
30
-2.4344378500
11
-19.8446331920
21
-13.5068408216
31
-2.3314539804
11
-19.8294430636
21
-13.8334722738
31
-2.4344378500
0
SPLINE
5
356
100
AcDbEntity
8
ASSI
100
AcDbSpline
62
9
6
CONTINUOUS
70
0
71
3
72
8
73
4
74
2
42
0.0000001000
43
0.0000001000
44
0.0000000001
12
0.0099617804
22
-0.2117212730
32
-0.0667537551
13
0.0101113130
23
-0.2117141844
33
-0.0667515201
40
0.0000000000
40
0.0000000000
40
0.0000000000
40
0.0000000000
40
1.0000000000
40
1.0000000000
40
1.0000000000
40
1.0000000000
10
-19.8294430636
20
-13.8334722738
30
-2.4344378500
10
-19.8261224701
20
-13.9040460315
30
-2.4566891017
10
-19.8227769541
20
-13.9746186165
30
-2.4789399837
10
-19.8194065165
20
-14.0451900113
30
-2.5011904904
11
-19.8294430636
21
-13.8334722738
31
-2.4344378500
11
-19.8194065165
21
-14.0451900113
31
-2.5011904904
0
SPLINE
5
357
100
AcDbEntity
8
ASSI
100
AcDbSpline
62
9
6
CONTINUOUS
70
0
71
3
72
8
73
4
74
2
42
0.0000001000
43
0.0000001000
44
0.0000000001
12
0.0067495953
22
-0.1413253703
32
-0.0445585794
13
0.0068162244
23
-0.1413221724
33
-0.0445575712
40
0.0000000000
40
0.0000000000
40
0.0000000000
40
0.0000000000
40
1.0000000000
40
1.0000000000
40
1.0000000000
40
1.0000000000
10
-19.8194065165
20
-14.0451900113
30
-2.5011904904
10
-19.8171566514
20
-14.0922984681
30
-2.5160433502
10
-19.8148956813
20
-14.1394063945
30
-2.5308960428
10
-19.8126236065
20
-14.1865137853
30
-2.5457485665
11
-19.8194065165
21
-14.0451900113
31
-2.5011904904
11
-19.8126236065
21
-14.1865137853
31
-2.5457485665
0
SPLINE
5
358
100
AcDbEntity
8
ASSI
100
AcDbSpline
62
9
6
CONTINUOUS
70
0
71
3
72
8
73
4
74
2
42
0.0000001000
43
0.0000001000
44
0.0000000001
12
-0.0096489897
22
0.2483074639
32
-0.0782889546
13
-0.0090658838
23
0.2382843801
33
-0.0967502824
40
0.0000000000
40
0.0000000000
40
0.0000000000
40
0.0000000000
40
1.0000000000
40
1.0000000000
40
1.0000000000
40
1.0000000000
10
-19.9347552581
20
-11.3817570038
30
1.6817281733
10
-19.9379715880
20
-11.2989878491
30
1.6556318551
10
-19.9410884574
20
-11.2178978603
30
1.6266582920
10
-19.9441104187
20
-11.1384697336
30
1.5944081978
11
-19.9347552581
21
-11.3817570038
31
1.6817281733
11
-19.9441104187
21
-11.1384697336
31
1.5944081978
0
SPLINE
5
359
100
AcDbEntity
8
ASSI
100
AcDbSpline
62
9
6
CONTINUOUS
70
0
71
3
72
9
73
5
74
3
42
0.0000001000
43
0.0000001000
44
0.0000000001
12
-0.0096502466
22
0.2536435579
32
-0.1029865485
13
-0.0090032933
23
0.2419050161
33
-0.1267687588
40
0.0000000000
40
0.0000000000
40
0.0000000000
40
0.0000000000
40
0.5138449624
40
1.0000000000
40
1.0000000000
40
1.0000000000
40
1.0000000000
10
-19.9441104187
20
-11.1384697336
30
1.5944081978
10
-19.9457633289
20
-11.0950252454
30
1.5767684915
10
-19.9489248201
20
-11.0114449655
30
1.5405319735
10
-19.9519815951
20
-10.9297369670
30
1.5003354606
10
-19.9534405938
20
-10.8905358529
30
1.4797923704
11
-19.9441104187
21
-11.1384697336
31
1.5944081978
11
-19.9489847126
21
-11.0096249847
31
1.5384830033
11
-19.9534405938
21
-10.8905358529
31
1.4797923704
0
SPLINE
5
35A
100
AcDbEntity
8
ASSI
100
AcDbSpline
62
9
6
CONTINUOUS
70
0
71
3
72
9
73
5
74
3
42
0.0000001000
43
0.0000001000
44
0.0000000001
12
-0.0093849664
22
0.2521600030
32
-0.1321428183
13
-0.0085693469
23
0.2354173438
33
-0.1616920007
40
0.0000000000
40
0.0000000000
40
0.0000000000
40
0.0000000000
40
0.9278037160
40
1.0000000000
40
1.0000000000
40
1.0000000000
40
1.0000000000
10
-19.9534405938
20
-10.8905358529
30
1.4797923704
10
-19.9563430628
20
-10.8125508570
30
1.4389248378
10
-19.9593559276
20
-10.7307225785
30
1.3906059679
10
-19.9622231471
20
-10.6520162426
30
1.3370851345
10
-19.9624293721
20
-10.6463508235
30
1.3331939473
11
-19.9534405938
21
-10.8905358529
31
1.4797923704
11
-19.9618083827
21
-10.6633971251
31
1.3447860308
11
-19.9624293721
21
-10.6463508235
31
1.3331939473
0
SPLINE
5
35B
100
AcDbEntity
8
ASSI
100
AcDbSpline
62
9
6
CONTINUOUS
70
0
71
3
72
9
73
5
74
3
42
0.0000001000
43
0.0000001000
44
0.0000000001
12
-0.0087832290
22
0.2465102515
32
-0.2288522298
13
-0.0069660410
23
0.1997292481
33
-0.2725780892
40
0.0000000000
40
0.0000000000
40
0.0000000000
40
0.0000000000
40
0.2392396852
40
1.0000000000
40
1.0000000000
40
1.0000000000
40
1.0000000000
10
-19.9708097941
20
-10.4136516344
30
1.1477151238
10
-19.9715102264
20
-10.3939932894
30
1.1294649453
10
-19.9743718990
20
-10.3134522985
30
1.0513980074
10
-19.9769384080
20
-10.2403525235
30
0.9658091409
10
-19.9787049038
20
-10.1897038283
30
0.8966869433
11
-19.9708097941
21
-10.4136516344
31
1.1477151238
11
-19.9728625838
21
-10.3558819894
31
1.0916810037
11
-19.9787049038
21
-10.1897038283
31
0.8966869433
0
SPLINE
5
35C
100
AcDbEntity
8
ASSI
100
AcDbSpline
62
9
6
CONTINUOUS
70
0
71
3
72
9
73
5
74
3
42
0.0000001000
43
0.0000001000
44
0.0000000001
12
-0.0090661908
22
0.2599444163
32
-0.3547560158
13
-0.0054466002
23
0.1593947515
33
-0.4156014094
40
0.0000000000
40
0.0000000000
40
0.0000000000
40
0.0000000000
40
0.3275336438
40
1.0000000000
40
1.0000000000
40
1.0000000000
40
1.0000000000
10
-19.9787049038
20
-10.1897038283
30
0.8966869433
10
-19.9796947313
20
-10.1613236477
30
0.8579554331
10
-19.9825384929
20
-10.0794327701
30
0.7358598361
10
-19.9848129915
20
-10.0131422943
30
0.6025930638
10
-19.9860338766
20
-9.9774130917
30
0.5094337420
11
-19.9787049038
21
-10.1897038283
31
0.8966869433
11
-19.9814965170
21
-10.1093531970
31
0.7767761770
11
-19.9860338766
21
-9.9774130917
31
0.5094337420
0
SPLINE
5
35D
100
AcDbEntity
8
ASSI
100
AcDbSpline
62
9
6
CONTINUOUS
70
0
71
3
72
11
73
7
74
5
42
0.0000001000
43
0.0000001000
44
0.0000000001
12
-0.0125166967
22
0.3663011208
32
-0.9550832801
13
0.0125126616
23
-0.3661813707
33
-0.9546766526
40
0.0000000000
40
0.0000000000
40
0.0000000000
40
0.0000000000
40
0.1042612860
40
0.5011441384
40
0.8980269907
40
1.0000000000
40
1.0000000000
40
1.0000000000
40
1.0000000000
10
-19.9860338766
20
-9.9774130917
30
0.5094337420
10
-19.9864688789
20
-9.9646827497
30
0.4762410050
10
-19.9883714370
20
-9.9088924802
30
0.3145349368
10
-19.9900626863
20
-9.8587870614
30
0.0089770101
10
-19.9883560805
20
-9.9093453284
30
-0.2957762233
10
-19.9864583971
20
-9.9649895735
30
-0.4566440455
10
-19.9860330791
20
-9.9774364456
30
-0.4890944625
11
-19.9860338766
21
-9.9774130917
31
0.5094337420
11
-19.9872190219
21
-9.9426733379
31
0.4085748887
11
-19.9893108822
21
-9.8810597500
31
0.0089827915
11
-19.9871946420
21
-9.9433892288
31
-0.3905068126
11
-19.9860330791
21
-9.9774364456
31
-0.4890944625
0
SPLINE
5
35E
100
AcDbEntity
8
ASSI
100
AcDbSpline
62
9
6
CONTINUOUS
70
0
71
3
72
9
73
5
74
3
42
0.0000001000
43
0.0000001000
44
0.0000000001
12
0.0054455632
22
-0.1593636805
32
-0.4154793149
13
0.0090548506
23
-0.2596223394
33
-0.3544215286
40
0.0000000000
40
0.0000000000
40
0.0000000000
40
0.0000000000
40
0.6776355205
40
1.0000000000
40
1.0000000000
40
1.0000000000
40
1.0000000000
10
-19.9860330791
20
-9.9774364456
30
-0.4890944625
10
-19.9848030435
20
-10.0134332758
30
-0.5829423098
10
-19.9825261717
20
-10.0797911378
30
-0.7160887633
10
-19.9796825600
20
-10.1616720833
30
-0.8380187326
10
-19.9787095726
20
-10.1895697567
30
-0.8761030364
11
-19.9860330791
21
-9.9774364456
31
-0.4890944625
11
-19.9814570238
21
-10.1104942077
31
-0.7582413462
11
-19.9787095726
21
-10.1895697567
31
-0.8761030364
0
SPLINE
5
35F
100
AcDbEntity
8
ASSI
100
AcDbSpline
62
9
6
CONTINUOUS
70
0
71
3
72
9
73
5
74
3
42
0.0000001000
43
0.0000001000
44
0.0000000001
12
0.0069667221
22
-0.1997511339
32
-0.2726887924
13
0.0087786037
23
-0.2463848298
33
-0.2288309483
40
0.0000000000
40
0.0000000000
40
0.0000000000
40
0.0000000000
40
0.7662964868
40
1.0000000000
40
1.0000000000
40
1.0000000000
40
1.0000000000
10
-19.9787095726
20
-10.1895697567
30
-0.8761030364
10
-19.9769300477
20
-10.2405926208
30
-0.9457565243
10
-19.9743620155
20
-10.3137334729
30
-1.0313204055
10
-19.9715001831
20
-10.3942750673
30
-1.1093423974
10
-19.9708163196
20
-10.4134687341
30
-1.1271685963
11
-19.9787095726
21
-10.1895697567
31
-0.8761030364
11
-19.9728217771
21
-10.3570335690
31
-1.0724624523
11
-19.9708163196
21
-10.4134687341
31
-1.1271685963
0
SPLINE
5
360
100
AcDbEntity
8
ASSI
100
AcDbSpline
62
9
6
CONTINUOUS
70
0
71
3
72
9
73
5
74
3
42
0.0000001000
43
0.0000001000
44
0.0000000001
12
0.0085648241
22
-0.2352920963
32
-0.1616134134
13
0.0093812558
23
-0.2520616238
33
-0.1321232516
40
0.0000000000
40
0.0000000000
40
0.0000000000
40
0.0000000000
40
0.0750413693
40
1.0000000000
40
1.0000000000
40
1.0000000000
40
1.0000000000
10
-19.9624275214
20
-10.6464016163
30
-1.3128730253
10
-19.9622132826
20
-10.6522871633
30
-1.3169155893
10
-19.9593471548
20
-10.7309608361
30
-1.3703960902
10
-19.9563355973
20
-10.8127512091
30
-1.4186858580
10
-19.9534431728
20
-10.8904667339
30
-1.4594220387
11
-19.9624275214
21
-10.6464016163
31
-1.3128730253
11
-19.9617823074
21
-10.6641122744
31
-1.3249128592
11
-19.9534431728
21
-10.8904667339
31
-1.4594220387
0
SPLINE
5
361
100
AcDbEntity
8
ASSI
100
AcDbSpline
62
9
6
CONTINUOUS
70
0
71
3
72
9
73
5
74
3
42
0.0000001000
43
0.0000001000
44
0.0000000001
12
0.0090033150
22
-0.2419068672
32
-0.1268004284
13
0.0096544712
23
-0.2537549095
33
-0.1030538085
40
0.0000000000
40
0.0000000000
40
0.0000000000
40
0.0000000000
40
0.4868190685
40
1.0000000000
40
1.0000000000
40
1.0000000000
40
1.0000000000
10
-19.9534431728
20
-10.8904667339
30
-1.4594220387
10
-19.9519821776
20
-10.9297216925
30
-1.4799983275
10
-19.9489250692
20
-11.0114384149
30
-1.5202055381
10
-19.9457624723
20
-11.0950476124
30
-1.5564599303
10
-19.9441109754
20
-11.1384550060
30
-1.5740883468
11
-19.9534431728
21
-10.8904667339
31
-1.4594220387
11
-19.9489806603
21
-11.0097327128
31
-1.5182088116
11
-19.9441109754
21
-11.1384550060
31
-1.5740883468
0
SPLINE
5
362
100
AcDbEntity
8
ASSI
100
AcDbSpline
62
9
6
CONTINUOUS
70
0
71
3
72
8
73
4
74
2
42
0.0000001000
43
0.0000001000
44
0.0000000001
12
0.0090503392
22
-0.2378761056
32
-0.0966051797
13
0.0096345584
23
-0.2479445864
33
-0.0782285192
40
0.0000000000
40
0.0000000000
40
0.0000000000
40
0.0000000000
40
1.0000000000
40
1.0000000000
40
1.0000000000
40
1.0000000000
10
-19.9441109754
20
-11.1384550060
30
-1.5740883468
10
-19.9410941957
20
-11.2177470412
30
-1.6062900733
10
-19.9379822755
20
-11.2987099774
30
-1.6352329151
10
-19.9347707560
20
-11.3813581729
30
-1.6613090882
11
-19.9441109754
21
-11.1384550060
31
-1.5740883468
11
-19.9347707560
21
-11.3813581729
31
-1.6613090882
0
SPLINE
5
363
100
AcDbEntity
8
ASSI
100
AcDbSpline
62
9
6
CONTINUOUS
70
0
71
3
72
10
73
6
74
4
42
0.0000001000
43
0.0000001000
44
0.0000000001
12
0.0053440840
22
-0.1035781680
32
-0.0304294177
13
0.0046093658
23
-0.0888024829
33
-0.0435739637
40
0.0000000000
40
0.0000000000
40
0.0000000000
40
0.0000000000
40
0.4887630894
40
0.9775261788
40
1.0000000000
40
1.0000000000
40
1.0000000000
40
1.0000000000
10
-19.7624389472
20
-15.1919541688
30
-0.4360348364
10
-19.7615682835
20
-15.2088292306
30
-0.4409924285
10
-19.7600231125
20
-15.2387278763
30
-0.4512518796
10
-19.7584283881
20
-15.2694980046
30
-0.4646557954
10
-19.7576416543
20
-15.2846559488
30
-0.4720572142
10
-19.7576071242
20
-15.2853211926
30
-0.4723836387
11
-19.7624389472
21
-15.1919541688
31
-0.4360348364
11
-19.7600196840
21
-15.2387728664
31
-0.4519626865
11
-19.7577108786
21
-15.2833221644
31
-0.4714075466
11
-19.7576071242
21
-15.2853211926
31
-0.4723836387
0
SPLINE
5
364
100
AcDbEntity
8
ASSI
100
AcDbSpline
62
9
6
CONTINUOUS
70
0
71
3
72
19
73
15
74
13
42
0.0000001000
43
0.0000001000
44
0.0000000001
12
0.0493480736
22
-0.9507233005
32
-0.4665047784
13
-0.0314709783
23
0.5981113006
33
-0.8057011188
40
0.0000000000
40
0.0000000000
40
0.0000000000
40
0.0000000000
40
0.0435538340
40
0.0892068393
40
0.1805128499
40
0.2261658553
40
0.2718188606
40
0.3631248712
40
0.4544308819
40
0.5457368925
40
0.6370429032
40
0.8196549245
40
0.9109609351
40
1.0000000000
40
1.0000000000
40
1.0000000000
40
1.0000000000
10
-19.7576071242
20
-15.2853211926
30
-0.4723836387
10
-19.7568906916
20
-15.2991237408
30
-0.4791563293
10
-19.7554714046
20
-15.3264286242
30
-0.4939630533
10
-19.7527528741
20
-15.3785963346
30
-0.5277790332
10
-19.7502742733
20
-15.4259786868
30
-0.5673209196
10
-19.7480720114
20
-15.4679517042
30
-0.6115841772
10
-19.7460680784
20
-15.5060718573
30
-0.6585763772
10
-19.7438713642
20
-15.5477448308
30
-0.7241652424
10
-19.7418703708
20
-15.5855964153
30
-0.8125871756
10
-19.7406671520
20
-15.6083131328
30
-0.9063709675
10
-19.7401573659
20
-15.6179261536
30
-1.0290326441
10
-19.7411975230
20
-15.5983221321
30
-1.1548767975
10
-19.7438578290
20
-15.5480012002
30
-1.2726264116
10
-19.7455843129
20
-15.5152492086
30
-1.3243612977
10
-19.7465183617
20
-15.4974974517
30
-1.3482742558
11
-19.7576071242
21
-15.2853211926
31
-0.4723836387
11
-19.7555228780
21
-15.3254227345
31
-0.4940686439
11
-19.7534630387
21
-15.3649534089
31
-0.5196711159
11
-19.7497467361
21
-15.4360211633
31
-0.5787801816
11
-19.7480968025
21
-15.4674700962
31
-0.6119252950
11
-19.7465896085
21
-15.4961433378
31
-0.6472849015
11
-19.7439772082
21
-15.5457188335
31
-0.7257844582
11
-19.7420033332
21
-15.5830739375
31
-0.8134808187
11
-19.7408039652
21
-15.6057286408
31
-0.9060730451
11
-19.7404139744
21
-15.6130881449
31
-0.9986324313
11
-19.7420031505
21
-15.5830773923
31
-1.1838848017
11
-19.7439781635
21
-15.5457007327
31
-1.2716259667
11
-19.7465183617
21
-15.4974974517
31
-1.3482742558
0
SPLINE
5
365
100
AcDbEntity
8
ASSI
100
AcDbSpline
62
9
6
CONTINUOUS
70
0
71
3
72
12
73
8
74
6
42
0.0000001000
43
0.0000001000
44
0.0000000001
12
-0.0086445337
22
0.1642908340
32
-0.2213121682
13
-0.0135183583
23
0.2604408217
33
-0.1277713113
40
0.0000000000
40
0.0000000000
40
0.0000000000
40
0.0000000000
40
0.0082529612
40
0.3406583393
40
0.6730637173
40
0.8392664064
40
1.0000000000
40
1.0000000000
40
1.0000000000
40
1.0000000000
10
-19.7465183617
20
-15.4974974517
30
-1.3482742558
10
-19.7465421427
20
-15.4970454897
30
-1.3488830827
10
-19.7475259384
20
-15.4783474904
30
-1.3739700993
10
-19.7496469393
20
-15.4379703009
30
-1.4199821744
10
-19.7527418583
20
-15.3788071445
30
-1.4694359407
10
-19.7554602276
20
-15.3266434687
30
-1.5032891848
10
-19.7568845748
20
-15.2992416105
30
-1.5181625977
10
-19.7576088595
20
-15.2852877474
30
-1.5250083117
11
-19.7465183617
21
-15.4974974517
31
-1.3482742558
11
-19.7465898632
21
-15.4961384952
31
-1.3500975684
11
-19.7497421747
21
-15.4361081929
31
-1.4185109564
11
-19.7534491696
21
-15.3652192342
31
-1.4775170394
11
-19.7555025297
21
-15.3258137336
31
-1.5030756556
11
-19.7576088595
21
-15.2852877474
31
-1.5250083117
0
SPLINE
5
366
100
AcDbEntity
8
ASSI
100
AcDbSpline
62
9
6
CONTINUOUS
70
0
71
3
72
10
73
6
74
4
42
0.0000001000
43
0.0000001000
44
0.0000000001
12
-0.0045675082
22
0.0879963055
32
-0.0431706645
13
-0.0052897489
23
0.1025190938
33
-0.0302958598
40
0.0000000000
40
0.0000000000
40
0.0000000000
40
0.0000000000
40
0.0161867670
40
0.5080933835
40
1.0000000000
40
1.0000000000
40
1.0000000000
40
1.0000000000
10
-19.7576088595
20
-15.2852877474
30
-1.5250083117
10
-19.7576335039
20
-15.2848129555
30
-1.5252412429
10
-19.7584079506
20
-15.2698919875
30
-1.5325358627
10
-19.7599865340
20
-15.2394345011
30
-1.5458448353
10
-19.7615253350
20
-15.2096606485
30
-1.5561094220
10
-19.7623926892
20
-15.1928507083
30
-1.5610770000
11
-19.7576088595
21
-15.2852877474
31
-1.5250083117
11
-19.7576828764
21
-15.2838616928
31
-1.5257054844
11
-19.7599829764
21
-15.2394821575
31
-1.5451375962
11
-19.7623926892
21
-15.1928507083
31
-1.5610770000
0
SPLINE
5
367
100
AcDbEntity
8
0
100
AcDbSpline
62
9
6
CONTINUOUS
70
0
71
3
72
11
73
7
74
5
42
0.0000001000
43
0.0000001000
44
0.0000000001
12
-0.0139588749
22
-0.7999470618
32
0.0000000000
13
0.7999469876
23
-0.0139631266
33
0.0000000000
40
0.0000000000
40
0.0000000000
40
0.0000000000
40
0.0000000000
40
0.3825592777
40
0.7068734192
40
0.9236228949
40
1.0000000000
40
1.0000000000
40
1.0000000000
40
1.0000000000
10
-17.9995886400
20
-20.6789094803
30
0.0000000000
10
-18.0013686724
20
-20.7809185371
30
0.0000000000
10
-17.9988143466
20
-20.9633357218
30
0.0000000000
10
-18.0189543709
20
-21.2310717037
30
0.0000000000
10
-17.9818173945
20
-21.3534223744
30
0.0000000000
10
-18.0199545184
20
-21.4784321487
30
0.0000000000
10
-17.9995886400
20
-21.4787876365
30
0.0000000000
11
-17.9995886400
21
-20.6789094803
31
0.0000000000
11
-18.0038666469
21
-20.9849533402
31
0.0000000000
11
-18.0053688524
21
-21.2444226314
31
0.0000000000
11
-18.0038666469
21
-21.4178306268
31
0.0000000000
11
-17.9995886400
21
-21.4787876365
31
0.0000000000
0
SPLINE
5
368
100
AcDbEntity
8
0
100
AcDbSpline
62
9
6
CONTINUOUS
70
0
71
3
72
18
73
14
74
12
42
0.0000001000
43
0.0000001000
44
0.0000000001
12
0.0704840794
22
-1.0366058803
32
0.0000000000
13
1.0388410847
23
-0.0181371786
33
0.0000000000
40
0.0000000000
40
0.0000000000
40
0.0000000000
40
0.0000000000
40
0.0762234677
40
0.1616143483
40
0.2542719093
40
0.3522352897
40
0.4533704559
40
0.5553707486
40
0.6558697984
40
0.7525967344
40
0.8434723761
40
0.9265779405
40
1.0000000000
40
1.0000000000
40
1.0000000000
40
1.0000000000
10
-18.6857593333
20
-20.0265036772
30
0.0000000000
10
-18.6839684863
20
-20.0528415755
30
0.0000000000
10
-18.6770021150
20
-20.1085182067
30
0.0000000000
10
-18.6556289677
20
-20.1941836578
30
0.0000000000
10
-18.6203508542
20
-20.2833562128
30
0.0000000000
10
-18.5701142637
20
-20.3714395284
30
0.0000000000
10
-18.5054240406
20
-20.4537313305
30
0.0000000000
10
-18.4284503191
20
-20.5259706869
30
0.0000000000
10
-18.3427912504
20
-20.5849825712
30
0.0000000000
10
-18.2529315256
20
-20.6291398972
30
0.0000000000
10
-18.1635856919
20
-20.6584897365
30
0.0000000000
10
-18.0792074666
20
-20.6745601238
30
0.0000000000
10
-18.0250132573
20
-20.6784655907
30
0.0000000000
10
-17.9995886400
20
-20.6789094803
30
0.0000000000
11
-18.6857593333
21
-20.0265036772
31
0.0000000000
11
-18.6759250788
21
-20.1050868536
31
0.0000000000
11
-18.6544477801
21
-20.1911691083
31
0.0000000000
11
-18.6190304773
21
-20.2806886541
31
0.0000000000
11
-18.5686041235
21
-20.3691032673
31
0.0000000000
11
-18.5036632593
21
-20.4517129499
31
0.0000000000
11
-18.4263865542
21
-20.5242367313
31
0.0000000000
11
-18.3403986634
21
-20.5834760416
31
0.0000000000
11
-18.2502017139
21
-20.6277999090
31
0.0000000000
11
-18.1604985788
21
-20.6572691196
31
0.0000000000
11
-18.0756766333
21
-20.6734239443
31
0.0000000000
11
-17.9995886400
21
-20.6789094803
31
0.0000000000
0
SPLINE
5
369
100
AcDbEntity
8
0
100
AcDbSpline
62
9
6
CONTINUOUS
70
0
71
3
72
10
73
6
74
4
42
0.0000001000
43
0.0000001000
44
0.0000000001
12
-2.7558149912
22
-40.5292509143
32
0.0000000000
13
2.7558124011
23
-40.5292510904
33
0.0000000000
40
0.0000000000
40
0.0000000000
40
0.0000000000
40
0.0000000000
40
0.3333325920
40
0.6666690020
40
1.0000000000
40
1.0000000000
40
1.0000000000
40
1.0000000000
10
-18.6857593333
20
20.5685962606
30
0.0000000000
10
-18.9919603179
20
16.0653561747
30
0.0000000000
10
-19.4005838287
20
7.0435786987
30
0.0000000000
10
-19.4005827273
20
-6.5015293128
30
0.0000000000
10
-18.9919585659
20
-15.5232851057
30
0.0000000000
10
-18.6857593333
20
-20.0265036772
30
0.0000000000
11
-18.6857593333
21
20.5685962606
31
0.0000000000
11
-19.2984265973
21
7.0415488498
31
0.0000000000
11
-19.2984252119
21
-6.4995210212
31
0.0000000000
11
-18.6857593333
21
-20.0265036772
31
0.0000000000
0
SPLINE
5
36A
100
AcDbEntity
8
0
100
AcDbSpline
62
9
6
CONTINUOUS
70
0
71
3
72
11
73
7
74
5
42
0.0000001000
43
0.0000001000
44
0.0000000001
12
-0.0139588767
22
0.7999470618
32
0.0000000000
13
0.7999469877
23
0.0139631266
33
0.0000000000
40
0.0000000000
40
0.0000000000
40
0.0000000000
40
0.0000000000
40
0.3825591995
40
0.7068733429
40
0.9236228661
40
1.0000000000
40
1.0000000000
40
1.0000000000
40
1.0000000000
10
-17.9995886400
20
21.2210020638
30
0.0000000000
10
-18.0013686723
20
21.3230110997
30
0.0000000000
10
-17.9988143482
20
21.5054282660
30
0.0000000000
10
-18.0189543714
20
21.7731642377
30
0.0000000000
10
-17.9818173901
20
21.8955149240
30
0.0000000000
10
-18.0199545261
20
22.0205247320
30
0.0000000000
10
-17.9995886400
20
22.0208802199
30
0.0000000000
11
-17.9995886400
21
21.2210020638
31
0.0000000000
11
-18.0038666468
21
21.5270458611
31
0.0000000000
11
-18.0053688531
21
21.7865151538
31
0.0000000000
11
-18.0038666480
21
21.9599231872
31
0.0000000000
11
-17.9995886400
21
22.0208802199
31
0.0000000000
0
SPLINE
5
36B
100
AcDbEntity
8
0
100
AcDbSpline
62
9
6
CONTINUOUS
70
0
71
3
72
18
73
14
74
12
42
0.0000001000
43
0.0000001000
44
0.0000000001
12
-1.0388411489
22
-0.0181321361
32
0.0000000000
13
-0.0704893733
23
-1.0366054964
33
0.0000000000
40
0.0000000000
40
0.0000000000
40
0.0000000000
40
0.0000000000
40
0.0762887184
40
0.1617318156
40
0.2544293028
40
0.3524203723
40
0.4535705499
40
0.5555725981
40
0.6560597604
40
0.7527610568
40
0.8435972019
40
0.9266484966
40
1.0000000000
40
1.0000000000
40
1.0000000000
40
1.0000000000
10
-17.9995886400
20
21.2210020638
30
0.0000000000
10
-18.0260059266
20
21.2205409713
30
0.0000000000
10
-18.0820036871
20
21.2163847564
30
0.0000000000
10
-18.1686893393
20
21.1993354051
30
0.0000000000
10
-18.2595605048
20
21.1685659600
30
0.0000000000
10
-18.3500787301
20
21.1227980480
30
0.0000000000
10
-18.4355227434
20
21.0623055187
30
0.0000000000
10
-18.5115303382
20
20.9890478598
30
0.0000000000
10
-18.5747541553
20
20.9064644409
30
0.0000000000
10
-18.6233496230
20
20.8189560198
30
0.0000000000
10
-18.6571328084
20
20.7312352175
30
0.0000000000
10
-18.6774111749
20
20.6478272667
30
0.0000000000
10
-18.6840358328
20
20.5939417845
30
0.0000000000
10
-18.6857593333
20
20.5685962606
30
0.0000000000
11
-17.9995886400
21
21.2210020638
31
0.0000000000
11
-18.0786350146
21
21.2151333831
31
0.0000000000
11
-18.1657415202
21
21.1980011042
31
0.0000000000
11
-18.2569658322
21
21.1671102011
31
0.0000000000
11
-18.3478243238
21
21.1211694537
31
0.0000000000
11
-18.4335984041
21
21.0604425220
31
0.0000000000
11
-18.5099053356
21
20.9868964392
31
0.0000000000
11
-18.5733728842
21
20.9039958736
31
0.0000000000
11
-18.6221517507
21
20.8161587352
31
0.0000000000
11
-18.6560723433
21
20.7280864235
31
0.0000000000
11
-18.6764575714
21
20.6442386530
31
0.0000000000
11
-18.6857593333
21
20.5685962606
31
0.0000000000
0
ENDSEC
0
SECTION
2
OBJECTS
0
DICTIONARY
5
C
100
AcDbDictionary
280
0
281
1
3
ACAD_GROUP
350
D
3
ACAD_MLINESTYLE
350
17
3
ACAD_LAYOUT
350
1A
3
ACAD_PLOTSETTINGS
350
19
3
ACAD_PLOTSTYLENAME
350
E
0
DICTIONARY
5
D
102
{ACAD_REACTORS
330
C
102
}
100
AcDbDictionary
280
0
281
1
0
ACDBDICTIONARYWDFLT
5
E
102
{ACAD_REACTORS
330
C
102
}
100
AcDbDictionary
281
1
3
Normal
350
F
100
AcDbDictionaryWithDefault
340
F
0
DICTIONARY
5
17
102
{ACAD_REACTORS
330
C
102
}
100
AcDbDictionary
280
0
281
1
3
Standard
350
18
0
DICTIONARY
5
19
102
{ACAD_REACTORS
330
C
102
}
100
AcDbDictionary
281
1
0
DICTIONARY
5
1A
102
{ACAD_REACTORS
330
C
102
}
100
AcDbDictionary
281
1
3
Layout1
350
1E
3
Model
350
22
0
ACDBPLACEHOLDER
5
F
102
{ACAD_REACTORS
330
E
102
}
0
MLINESTYLE
5
18
102
{ACAD_REACTORS
330
17
102
}
100
AcDbMlineStyle
2
STANDARD
70
0
3

62
256
51
90.0
52
90.0
71
2
49
0.5
62
256
6
BYLAYER
49
-0.5
62
256
6
BYLAYER
0
LAYOUT
5
1E
102
{ACAD_REACTORS
330
1A
102
}
100
AcDbPlotSettings
1

2

4

6

40
0.0
41
0.0
42
0.0
43
0.0
44
0.0
45
0.0
46
0.0
47
0.0
48
0.0
49
0.0
140
0.0
141
0.0
142
1.0
143
1.0
70
0
72
0
73
0
74
0
7

75
0
147
1.0
148
0.0
149
0.0
100
AcDbLayout
1
Layout1
70
0
71
0
10
0.0
20
0.0
11
0.0
21
0.0
12
0.0
22
0.0
32
0.0
14
0.0
24
0.0
34
0.0
15
0.0
25
0.0
35
0.0
146
0.0
13
0.0
23
0.0
33
0.0
16
0.0
26
0.0
36
0.0
17
0.0
27
0.0
37
0.0
76
0
330
1B
331
0
345
0
346
0
0
LAYOUT
5
22
102
{ACAD_REACTORS
330
1A
102
}
100
AcDbPlotSettings
1

2

4

6

40
0.0
41
0.0
42
0.0
43
0.0
44
0.0
45
0.0
46
0.0
47
0.0
48
0.0
49
0.0
140
0.0
141
0.0
142
1.0
143
1.0
70
0
72
0
73
0
74
0
7

75
0
147
1.0
148
0.0
149
0.0
100
AcDbLayout
1
Model
70
0
71
0
10
0.0
20
0.0
11
0.0
21
0.0
12
0.0
22
0.0
32
0.0
14
0.0
24
0.0
34
0.0
15
0.0
25
0.0
35
0.0
146
0.0
13
0.0
23
0.0
33
0.0
16
0.0
26
0.0
36
0.0
17
0.0
27
0.0
37
0.0
76
0
330
1F
331
0
345
0
346
0
0
ENDSEC
0
EOF
