0
SECTION
2
HEADER
9
$ACADVER
1
AC1015
9
$DWGCODEPAGE
3
ANSI_1252
9
$EXTMAX
10
210.0000000000
20
297.0000000000
30
0.0000000000
9
$EXTMIN
10
0.0000000000
20
0.0000000000
30
0.0000000000
9
$LIMMIN
10
0.0000000000
20
0.0000000000
9
$LIMMAX
10
210.0000000000
20
297.0000000000
9
$VIEWCTR
10
105.0000000000
20
148.5000000000
9
$VIEWSIZE
40
297.0000000000
9
$CLAYER
8
0
9
$LTSCALE
40
19.3600000000
9
$CELTYPE
6
BYLAYER
9
$DIMSCALE
40
1
9
$DIMASZ
40
3.0000000000
9
$DIMEXO
40
2.2000000000
9
$DIMDLI
40
13.3760000000
9
$DIMEXE
40
6.3360000000
9
$DIMCEN
40
3.1680000000
9
$DIMLFAC
40
1.0000000000
9
$DIMBLK
1
_FILLED
9
$DIMTXT
40
3.0000000000
9
$DIMTOL
70
1
9
$DIMLIM
70
0
9
$DIMTFAC
40
1.0000000000
9
$DIMTP
40
0.0100000000
9
$DIMTM
40
0.0100000000
9
$PDMODE
70
3
9
$PDSIZE
40
3.0000000000
9
$HANDSEED
5
2F6
9
$MEASUREMENT
70
1
9
$INSUNITS
70
4
0
ENDSEC
0
SECTION
2
CLASSES
0
CLASS
1
ACDBDICTIONARYWDFLT
2
AcDbDictionaryWithDefault
3
AutoCAD 2000
90
0
280
0
281
0
0
CLASS
1
ACDBPLACEHOLDER
2
AcDbPlaceHolder
3
AutoCAD 2000
90
0
280
0
281
0
0
CLASS
1
LAYOUT
2
AcDbLayout
3
AutoCAD 2000
90
0
280
0
281
0
0
ENDSEC
0
SECTION
2
TABLES
0
TABLE
2
VPORT
5
8
100
AcDbSymbolTable
70
2
0
VPORT
5
1F4
100
AcDbSymbolTableRecord
100
AcDbViewportTableRecord
2
*ACTIVE
70
0
10
0.0
20
0.0
11
1.0
21
1.0
12
105.0000000000
22
148.5000000000
13
0.0
23
0.0
14
1.0
24
1.0
15
0.0
25
0.0
16
0.0
26
0.0
36
1.0
17
0.0
27
0.0
37
0.0
40
297.0000000000
41
0.7070707071
42
50.0
43
0.0
44
0.0
50
0.0
51
0.0
71
0
72
100
73
1
74
1
75
0
76
0
77
0
78
0
0
ENDTAB
0
TABLE
2
LTYPE
5
5
100
AcDbSymbolTable
70
6
0
LTYPE
5
14
100
AcDbSymbolTableRecord
100
AcDbLinetypeTableRecord
2
BYBLOCK
70
0
3

72
65
73
0
40
0.0
0
LTYPE
5
15
100
AcDbSymbolTableRecord
100
AcDbLinetypeTableRecord
2
BYLAYER
70
0
3

72
65
73
0
40
0.0
0
LTYPE
5
16
100
AcDbSymbolTableRecord
100
AcDbLinetypeTableRecord
2
CONTINUOUS
70
64
3
Solid line
72
65
73
0
40
0
0
LTYPE
5
1F5
100
AcDbSymbolTableRecord
100
AcDbLinetypeTableRecord
2
CENTER
70
64
3
____ _ ____ _ ____ _ ____ _ ____ _ ____ _ ____
72
65
73
4
40
0.6
49
0.375
74
0
49
-0.075
74
0
49
0.075
74
0
49
-0.075
74
0
0
LTYPE
5
1F6
100
AcDbSymbolTableRecord
100
AcDbLinetypeTableRecord
2
HIDDEN
70
64
3
- - - - - - - - - - - - - - - - - - - -
72
65
73
2
40
0.2
49
0.1
74
0
49
-0.1
74
0
0
LTYPE
5
1F7
100
AcDbSymbolTableRecord
100
AcDbLinetypeTableRecord
2
PHANTOM
70
64
3
_____ _ _ _____ _ _ _____ _ _ _____
72
65
73
6
40
0.8
49
0.45
74
0
49
-0.05
74
0
49
0.1
74
0
49
-0.05
74
0
49
0.1
74
0
49
-0.05
74
0
0
LTYPE
5
1F8
100
AcDbSymbolTableRecord
100
AcDbLinetypeTableRecord
2
DOT
70
64
3
. . . . . . . . . . . . . . . . . . . .
72
65
73
2
40
0.2
49
0.1
74
0
49
-0.1
74
0
0
LTYPE
5
1F9
100
AcDbSymbolTableRecord
100
AcDbLinetypeTableRecord
2
DASHED
70
64
3
- - - - - - - - - - - - - - - - - - - -
72
65
73
2
40
0.2
49
0.1
74
0
49
-0.1
74
0
0
ENDTAB
0
TABLE
2
LAYER
5
2
100
AcDbSymbolTable
70
36
0
LAYER
5
10
100
AcDbSymbolTableRecord
100
AcDbLayerTableRecord
2
0
70
0
62
7
6
CONTINUOUS
370
-3
390
F
0
LAYER
5
1FA
100
AcDbSymbolTableRecord
100
AcDbLayerTableRecord
2
DEFAULT_1
70
0
62
7
6
CENTER
370
-3
390
F
0
LAYER
5
1FB
100
AcDbSymbolTableRecord
100
AcDbLayerTableRecord
2
DEFAULT_2
70
0
62
0
6
HIDDEN
370
-3
390
F
0
LAYER
5
1FC
100
AcDbSymbolTableRecord
100
AcDbLayerTableRecord
2
DEFAULT_3
70
0
62
7
6
PHANTOM
370
-3
390
F
0
LAYER
5
1FD
100
AcDbSymbolTableRecord
100
AcDbLayerTableRecord
2
_2D_DELETED_OBJS
70
0
62
7
6
CONTINUOUS
370
-3
390
F
0
LAYER
5
1FE
100
AcDbSymbolTableRecord
100
AcDbLayerTableRecord
2
_BLACK_HOLE
70
0
62
7
6
CONTINUOUS
370
-3
390
F
0
LAYER
5
1FF
100
AcDbSymbolTableRecord
100
AcDbLayerTableRecord
2
ASSI
70
0
62
7
6
CONTINUOUS
370
-3
390
F
0
LAYER
5
200
100
AcDbSymbolTableRecord
100
AcDbLayerTableRecord
2
COORDINATE
70
0
62
7
6
CONTINUOUS
370
-3
390
F
0
LAYER
5
201
100
AcDbSymbolTableRecord
100
AcDbLayerTableRecord
2
COORD_ORIGINE
70
0
62
7
6
CONTINUOUS
370
-3
390
F
0
LAYER
5
202
100
AcDbSymbolTableRecord
100
AcDbLayerTableRecord
2
COPY_PUBLISH
70
0
62
7
6
CONTINUOUS
370
-3
390
F
0
LAYER
5
203
100
AcDbSymbolTableRecord
100
AcDbLayerTableRecord
2
COSMETIC
70
0
62
7
6
CONTINUOUS
370
-3
390
F
0
LAYER
5
204
100
AcDbSymbolTableRecord
100
AcDbLayerTableRecord
2
CURVE
70
0
62
7
6
CONTINUOUS
370
-3
390
F
0
LAYER
5
205
100
AcDbSymbolTableRecord
100
AcDbLayerTableRecord
2
DRAFT
70
0
62
7
6
CONTINUOUS
370
-3
390
F
0
LAYER
5
206
100
AcDbSymbolTableRecord
100
AcDbLayerTableRecord
2
IMPORT
70
0
62
7
6
CONTINUOUS
370
-3
390
F
0
LAYER
5
207
100
AcDbSymbolTableRecord
100
AcDbLayerTableRecord
2
IMPORT_IGES
70
0
62
7
6
CONTINUOUS
370
-3
390
F
0
LAYER
5
208
100
AcDbSymbolTableRecord
100
AcDbLayerTableRecord
2
NOTE
70
0
62
7
6
CONTINUOUS
370
-3
390
F
0
LAYER
5
209
100
AcDbSymbolTableRecord
100
AcDbLayerTableRecord
2
PIANI
70
0
62
7
6
CONTINUOUS
370
-3
390
F
0
LAYER
5
20A
100
AcDbSymbolTableRecord
100
AcDbLayerTableRecord
2
PIANI_ORIGINE
70
0
62
7
6
CONTINUOUS
370
-3
390
F
0
LAYER
5
20B
100
AcDbSymbolTableRecord
100
AcDbLayerTableRecord
2
PUNTI
70
0
62
7
6
CONTINUOUS
370
-3
390
F
0
LAYER
5
20C
100
AcDbSymbolTableRecord
100
AcDbLayerTableRecord
2
RACCORDO
70
0
62
7
6
CONTINUOUS
370
-3
390
F
0
LAYER
5
20D
100
AcDbSymbolTableRecord
100
AcDbLayerTableRecord
2
SMUSSO
70
0
62
7
6
CONTINUOUS
370
-3
390
F
0
LAYER
5
20E
100
AcDbSymbolTableRecord
100
AcDbLayerTableRecord
2
SNAPLINE
70
0
62
7
6
CONTINUOUS
370
-3
390
F
0
LAYER
5
20F
100
AcDbSymbolTableRecord
100
AcDbLayerTableRecord
2
SUPERFICI
70
0
62
7
6
CONTINUOUS
370
-3
390
F
0
LAYER
5
210
100
AcDbSymbolTableRecord
100
AcDbLayerTableRecord
2
TRASH
70
0
62
7
6
CONTINUOUS
370
-3
390
F
0
LAYER
5
211
100
AcDbSymbolTableRecord
100
AcDbLayerTableRecord
2
XSEC_DATUMS
70
0
62
7
6
CONTINUOUS
370
-3
390
F
0
ENDTAB
0
TABLE
2
STYLE
5
3
100
AcDbSymbolTable
70
1
0
STYLE
5
11
100
AcDbSymbolTableRecord
100
AcDbTextStyleTableRecord
2
STANDARD
70
0
40
0.0
41
0.8000000000
50
0.0
71
0
42
0.2
3
txt
4

0
ENDTAB
0
TABLE
2
VIEW
5
6
100
AcDbSymbolTable
70
0
0
ENDTAB
0
TABLE
2
UCS
5
7
100
AcDbSymbolTable
70
0
0
ENDTAB
0
TABLE
2
APPID
5
9
100
AcDbSymbolTable
70
1
0
APPID
5
212
100
AcDbSymbolTableRecord
100
AcDbRegAppTableRecord
2
ACAD
70
0
0
ENDTAB
0
TABLE
2
BLOCK_RECORD
5
1
100
AcDbSymbolTable
70
0
0
BLOCK_RECORD
5
1F
100
AcDbSymbolTableRecord
100
AcDbBlockTableRecord
2
*MODEL_SPACE
0
BLOCK_RECORD
5
1B
100
AcDbSymbolTableRecord
100
AcDbBlockTableRecord
2
*PAPER_SPACE
0
BLOCK_RECORD
5
213
100
AcDbSymbolTableRecord
100
AcDbBlockTableRecord
2
_FILLED
0
BLOCK_RECORD
5
214
100
AcDbSymbolTableRecord
100
AcDbBlockTableRecord
2
*D0
0
BLOCK_RECORD
5
215
100
AcDbSymbolTableRecord
100
AcDbBlockTableRecord
2
*D1
0
BLOCK_RECORD
5
216
100
AcDbSymbolTableRecord
100
AcDbBlockTableRecord
2
*D2
0
BLOCK_RECORD
5
217
100
AcDbSymbolTableRecord
100
AcDbBlockTableRecord
2
*D3
0
BLOCK_RECORD
5
218
100
AcDbSymbolTableRecord
100
AcDbBlockTableRecord
2
*D4
0
ENDTAB
0
TABLE
2
DIMSTYLE
5
A
100
AcDbSymbolTable
70
1
100
AcDbDimStyleTable
71
0
0
DIMSTYLE
105
219
100
AcDbSymbolTableRecord
100
AcDbDimStyleTableRecord
2
STANDARD
70
0
3

4

40
1.0
41
3.0000000000
42
0.0625
43
0.38
44
0.18
45
0.0
46
0.0
47
0.0100000000
48
0.0100000000
140
3.0000000000
141
0.09
142
0.0
143
25.4
144
1.0000000000
145
0.0
146
1.0000000000
147
0.09
71
1
72
0
73
0
74
0
75
0
76
0
77
1
78
8
170
0
171
2
172
0
173
0
174
0
175
0
176
0
177
0
178
0
270
2
271
2
272
2
273
2
274
2
275
0
280
0
281
0
282
0
283
1
284
8
285
0
286
0
287
3
288
0
340
11
341
213
342
213
343
213
344
213
0
DIMSTYLE
105
21A
100
AcDbSymbolTableRecord
100
AcDbDimStyleTableRecord
2
DIMSTYLE_1
70
0
3

4

40
1.0
41
3.0000000000
42
0.0625
43
0.38
44
0.18
45
0.0
46
0.0
47
0.0000000000
48
0.0000000000
140
3.0000000000
141
0.09
142
0.0
143
25.4
144
1.0000000000
145
0.0
146
1.0000000000
147
0.09
71
0
72
0
73
0
74
0
75
0
76
0
77
1
78
8
170
0
171
2
172
0
173
0
174
0
175
0
176
0
177
0
178
0
270
2
271
1
272
1
273
2
274
2
275
0
280
0
281
0
282
0
283
1
284
8
285
0
286
0
287
3
288
0
340
11
341
213
342
213
343
213
344
213
0
DIMSTYLE
105
21B
100
AcDbSymbolTableRecord
100
AcDbDimStyleTableRecord
2
DIMSTYLE_2
70
0
3

4

40
1.0
41
3.0000000000
42
0.0625
43
0.38
44
0.18
45
0.0
46
0.0
47
0.0000000000
48
0.0000000000
140
3.0000000000
141
0.09
142
0.0
143
25.4
144
1.0000000000
145
0.0
146
1.0000000000
147
0.09
71
0
72
0
73
0
74
0
75
0
76
0
77
1
78
8
170
0
171
2
172
0
173
0
174
0
175
0
176
0
177
0
178
0
270
2
271
0
272
0
273
2
274
2
275
0
280
0
281
0
282
0
283
1
284
8
285
0
286
0
287
3
288
0
340
11
341
213
342
213
343
213
344
213
0
DIMSTYLE
105
21C
100
AcDbSymbolTableRecord
100
AcDbDimStyleTableRecord
2
DIMSTYLE_3
70
0
3

4

40
1.0
41
3.0000000000
42
0.0625
43
0.38
44
0.18
45
0.0
46
0.0
47
0.0000000000
48
0.0000000000
140
3.0000000000
141
0.09
142
0.0
143
25.4
144
1.0000000000
145
0.0
146
1.0000000000
147
0.09
71
0
72
0
73
0
74
0
75
0
76
0
77
1
78
8
170
0
171
2
172
0
173
0
174
0
175
0
176
0
177
0
178
0
270
2
271
2
272
2
273
2
274
2
275
0
280
0
281
0
282
0
283
1
284
8
285
0
286
0
287
3
288
0
340
11
341
213
342
213
343
213
344
213
0
ENDTAB
0
ENDSEC
0
SECTION
2
BLOCKS
0
BLOCK
5
20
100
AcDbEntity
8
0
100
AcDbBlockBegin
2
*MODEL_SPACE
70
0
10
0.0
20
0.0
30
0.0
3
*MODEL_SPACE
1

0
ENDBLK
5
21
100
AcDbEntity
8
0
100
AcDbBlockEnd
0
BLOCK
5
1C
100
AcDbEntity
8
0
100
AcDbBlockBegin
2
*PAPER_SPACE
70
0
10
0.0
20
0.0
30
0.0
3
*PAPER_SPACE
1

0
ENDBLK
5
1D
100
AcDbEntity
8
0
100
AcDbBlockEnd
0
BLOCK
5
21D
100
AcDbEntity
8
0
100
AcDbBlockBegin
62
0
6
CONTINUOUS
2
*D0
70
65
10
0.0000000000
20
0.0000000000
3
*D0
1

0
TEXT
5
21E
100
AcDbEntity
8
0
100
AcDbText
62
0
6
CONTINUOUS
10
22.2500000000
20
-15.0460079896
7
STANDARD
40
3.0000000000
1
8,5
50
90.0000000000
41
0.6904761905
72
0
100
AcDbText
0
LINE
5
21F
100
AcDbEntity
8
0
100
AcDbLine
62
0
6
CONTINUOUS
10
2.9415634177
20
-8.8242557253
11
24.5000000000
21
-8.8242557253
0
LINE
5
220
100
AcDbEntity
8
0
100
AcDbLine
62
0
6
CONTINUOUS
10
2.6742929206
20
-17.2850037836
11
24.5000000000
21
-17.2850037836
0
LINE
5
221
100
AcDbEntity
8
0
100
AcDbLine
62
0
6
CONTINUOUS
10
23.0000000000
20
-8.8242557253
11
23.0000000000
21
-4.8242557253
0
LINE
5
222
100
AcDbEntity
8
0
100
AcDbLine
62
0
6
CONTINUOUS
10
23.0000000000
20
-4.8242557253
11
23.0000000000
21
-13.0546297544
0
LINE
5
223
100
AcDbEntity
8
0
100
AcDbLine
62
0
6
CONTINUOUS
10
23.0000000000
20
-17.2850037836
11
23.0000000000
21
-21.2850037836
0
LINE
5
224
100
AcDbEntity
8
0
100
AcDbLine
62
0
6
CONTINUOUS
10
23.0000000000
20
-21.2850037836
11
23.0000000000
21
-13.0546297544
0
INSERT
5
225
100
AcDbEntity
8
0
100
AcDbBlockReference
62
0
6
CONTINUOUS
2
_FILLED
10
23.0000000000
20
-8.8242557253
41
  3.000000
42
  3.000000
43
  3.000000
50
270.000000
0
INSERT
5
226
100
AcDbEntity
8
0
100
AcDbBlockReference
62
0
6
CONTINUOUS
2
_FILLED
10
23.0000000000
20
-17.2850037836
41
  3.000000
42
  3.000000
43
  3.000000
50
 90.000000
0
ENDBLK
5
227
100
AcDbEntity
8
0
6
BYBLOCK
62
0
100
AcDbBlockEnd
0
BLOCK
5
228
100
AcDbEntity
8
0
100
AcDbBlockBegin
62
0
6
CONTINUOUS
2
*D1
70
65
10
0.0000000000
20
0.0000000000
3
*D1
1

0
TEXT
5
229
100
AcDbEntity
8
0
100
AcDbText
62
0
6
CONTINUOUS
10
-2.0548712572
20
31.5883592518
7
STANDARD
40
3.0000000000
1
13
41
0.6428571429
72
0
100
AcDbText
0
LINE
5
22A
100
AcDbEntity
8
0
100
AcDbLine
62
0
6
CONTINUOUS
10
6.5500000000
20
-12.5000000000
11
6.5500000000
21
32.3383592518
0
LINE
5
22B
100
AcDbEntity
8
0
100
AcDbLine
62
0
6
CONTINUOUS
10
-6.5500000000
20
-12.5000000000
11
-6.5500000000
21
32.3383592518
0
LINE
5
22C
100
AcDbEntity
8
0
100
AcDbLine
62
0
6
CONTINUOUS
10
6.5500000000
20
30.8383592518
11
0.0000000000
21
30.8383592518
0
LINE
5
22D
100
AcDbEntity
8
0
100
AcDbLine
62
0
6
CONTINUOUS
10
-6.5500000000
20
30.8383592518
11
0.0000000000
21
30.8383592518
0
INSERT
5
22E
100
AcDbEntity
8
0
100
AcDbBlockReference
62
0
6
CONTINUOUS
2
_FILLED
10
6.5500000000
20
30.8383592518
41
  3.000000
42
  3.000000
43
  3.000000
0
INSERT
5
22F
100
AcDbEntity
8
0
100
AcDbBlockReference
62
0
6
CONTINUOUS
2
_FILLED
10
-6.5500000000
20
30.8383592518
41
  3.000000
42
  3.000000
43
  3.000000
50
180.000000
0
ENDBLK
5
230
100
AcDbEntity
8
0
6
BYBLOCK
62
0
100
AcDbBlockEnd
0
BLOCK
5
231
100
AcDbEntity
8
0
100
AcDbBlockBegin
62
0
6
CONTINUOUS
2
*D2
70
65
10
0.0000000000
20
0.0000000000
3
*D2
1

0
TEXT
5
232
100
AcDbEntity
8
0
100
AcDbText
62
0
6
CONTINUOUS
10
-3.7186451430
20
41.5883592518
7
STANDARD
40
3.0000000000
1
21,8
41
0.6785714286
72
0
100
AcDbText
0
LINE
5
233
100
AcDbEntity
8
0
100
AcDbLine
62
0
6
CONTINUOUS
10
10.9000000000
20
21.3501218439
11
10.9000000000
21
42.3383592518
0
LINE
5
234
100
AcDbEntity
8
0
100
AcDbLine
62
0
6
CONTINUOUS
10
-10.9000000000
20
21.3501218439
11
-10.9000000000
21
42.3383592518
0
LINE
5
235
100
AcDbEntity
8
0
100
AcDbLine
62
0
6
CONTINUOUS
10
10.9000000000
20
40.8383592518
11
0.0000000000
21
40.8383592518
0
LINE
5
236
100
AcDbEntity
8
0
100
AcDbLine
62
0
6
CONTINUOUS
10
-10.9000000000
20
40.8383592518
11
0.0000000000
21
40.8383592518
0
INSERT
5
237
100
AcDbEntity
8
0
100
AcDbBlockReference
62
0
6
CONTINUOUS
2
_FILLED
10
10.9000000000
20
40.8383592518
41
  3.000000
42
  3.000000
43
  3.000000
0
INSERT
5
238
100
AcDbEntity
8
0
100
AcDbBlockReference
62
0
6
CONTINUOUS
2
_FILLED
10
-10.9000000000
20
40.8383592518
41
  3.000000
42
  3.000000
43
  3.000000
50
180.000000
0
ENDBLK
5
239
100
AcDbEntity
8
0
6
BYBLOCK
62
0
100
AcDbBlockEnd
0
BLOCK
5
23A
100
AcDbEntity
8
0
100
AcDbBlockBegin
62
0
6
CONTINUOUS
2
*D3
70
65
10
0.0000000000
20
0.0000000000
3
*D3
1

0
TEXT
5
23B
100
AcDbEntity
8
0
100
AcDbText
62
0
6
CONTINUOUS
10
32.2500000000
20
-3.9480428502
7
STANDARD
40
3.0000000000
1
43,3
50
90.0000000000
41
0.6964285714
72
0
100
AcDbText
0
LINE
5
23C
100
AcDbEntity
8
0
100
AcDbLine
62
0
6
CONTINUOUS
10
10.6001218439
20
21.6500000000
11
34.5000000000
21
21.6500000000
0
LINE
5
23D
100
AcDbEntity
8
0
100
AcDbLine
62
0
6
CONTINUOUS
10
10.6001218439
20
-21.6500000000
11
34.5000000000
21
-21.6500000000
0
LINE
5
23E
100
AcDbEntity
8
0
100
AcDbLine
62
0
6
CONTINUOUS
10
33.0000000000
20
21.6500000000
11
33.0000000000
21
0.0000000000
0
LINE
5
23F
100
AcDbEntity
8
0
100
AcDbLine
62
0
6
CONTINUOUS
10
33.0000000000
20
-21.6500000000
11
33.0000000000
21
0.0000000000
0
INSERT
5
240
100
AcDbEntity
8
0
100
AcDbBlockReference
62
0
6
CONTINUOUS
2
_FILLED
10
33.0000000000
20
21.6500000000
41
  3.000000
42
  3.000000
43
  3.000000
50
 90.000000
0
INSERT
5
241
100
AcDbEntity
8
0
100
AcDbBlockReference
62
0
6
CONTINUOUS
2
_FILLED
10
33.0000000000
20
-21.6500000000
41
  3.000000
42
  3.000000
43
  3.000000
50
270.000000
0
ENDBLK
5
242
100
AcDbEntity
8
0
6
BYBLOCK
62
0
100
AcDbBlockEnd
0
BLOCK
5
243
100
AcDbEntity
8
0
100
AcDbBlockBegin
62
0
6
CONTINUOUS
2
*D4
70
65
10
0.0000000000
20
0.0000000000
3
*D4
1

0
TEXT
5
244
100
AcDbEntity
8
0
100
AcDbText
62
0
6
CONTINUOUS
10
-34.1476645731
20
31.5883592518
7
STANDARD
40
3.0000000000
1
7,8
41
0.7142857143
72
0
100
AcDbText
0
LINE
5
245
100
AcDbEntity
8
0
100
AcDbLine
62
0
6
CONTINUOUS
10
-27.0046245479
20
21.3501218439
11
-27.0046245479
21
32.3383592518
0
LINE
5
246
100
AcDbEntity
8
0
100
AcDbLine
62
0
6
CONTINUOUS
10
-34.8046245479
20
0.5000000000
11
-34.8046245479
21
32.3383592518
0
LINE
5
247
100
AcDbEntity
8
0
100
AcDbLine
62
0
6
CONTINUOUS
10
-27.0046245479
20
30.8383592518
11
-23.0046245479
21
30.8383592518
0
LINE
5
248
100
AcDbEntity
8
0
100
AcDbLine
62
0
6
CONTINUOUS
10
-23.0046245479
20
30.8383592518
11
-30.9046245479
21
30.8383592518
0
LINE
5
249
100
AcDbEntity
8
0
100
AcDbLine
62
0
6
CONTINUOUS
10
-34.8046245479
20
30.8383592518
11
-38.8046245479
21
30.8383592518
0
LINE
5
24A
100
AcDbEntity
8
0
100
AcDbLine
62
0
6
CONTINUOUS
10
-38.8046245479
20
30.8383592518
11
-30.9046245479
21
30.8383592518
0
INSERT
5
24B
100
AcDbEntity
8
0
100
AcDbBlockReference
62
0
6
CONTINUOUS
2
_FILLED
10
-27.0046245479
20
30.8383592518
41
  3.000000
42
  3.000000
43
  3.000000
50
180.000000
0
INSERT
5
24C
100
AcDbEntity
8
0
100
AcDbBlockReference
62
0
6
CONTINUOUS
2
_FILLED
10
-34.8046245479
20
30.8383592518
41
  3.000000
42
  3.000000
43
  3.000000
0
ENDBLK
5
24D
100
AcDbEntity
8
0
6
BYBLOCK
62
0
100
AcDbBlockEnd
0
BLOCK
5
24E
100
AcDbEntity
8
0
100
AcDbBlockBegin
2
_FILLED
70
64
10
0.0000000000
20
0.0000000000
3
_FILLED
1

0
SOLID
5
24F
100
AcDbEntity
8
0
6
BYBLOCK
62
0
100
AcDbTrace
10
0.0000000000
20
0.0000000000
11
-1.0000000000
21
0.3166666667
12
-1.0000000000
22
-0.3166666667
13
-1.0000000000
23
-0.3166666667
0
ENDBLK
5
250
100
AcDbEntity
8
0
6
BYBLOCK
62
0
100
AcDbBlockEnd
0
ENDSEC
0
SECTION
2
ENTITIES
0
DIMENSION
5
251
100
AcDbEntity
8
0
100
AcDbDimension
62
0
6
CONTINUOUS
2
*D0
10
23.0000000000
20
-17.2850037836
11
20.7500000000
21
-11.9388651325
70
160
42
8.460748
3
DIMSTYLE_1
100
AcDbAlignedDimension
13
2.9415634177
23
-8.8242557253
14
2.6742929206
24
-17.2850037836
50
270.000000
100
AcDbRotatedDimension
0
DIMENSION
5
252
100
AcDbEntity
8
0
100
AcDbDimension
62
0
6
CONTINUOUS
2
*D1
10
-6.5500000000
20
30.8383592518
11
-0.1262998287
21
33.0883592518
70
160
42
13.100000
3
DIMSTYLE_2
100
AcDbAlignedDimension
13
6.5500000000
23
-12.5000000000
14
-6.5500000000
24
-12.5000000000
50
180.000000
100
AcDbRotatedDimension
0
DIMENSION
5
253
100
AcDbEntity
8
0
100
AcDbDimension
62
0
6
CONTINUOUS
2
*D2
10
-10.9000000000
20
40.8383592518
11
0.3527834284
21
43.0883592518
70
160
42
21.800000
3
DIMSTYLE_3
100
AcDbAlignedDimension
13
10.9000000000
23
21.3501218439
14
-10.9000000000
24
21.3501218439
50
180.000000
100
AcDbRotatedDimension
0
DIMENSION
5
254
100
AcDbEntity
8
0
100
AcDbDimension
62
0
6
CONTINUOUS
2
*D3
10
33.0000000000
20
-21.6500000000
11
30.7500000000
21
0.2305285784
70
160
42
43.300000
3
DIMSTYLE_3
100
AcDbAlignedDimension
13
10.6001218439
23
21.6500000000
14
10.6001218439
24
-21.6500000000
50
270.000000
100
AcDbRotatedDimension
0
DIMENSION
5
255
100
AcDbEntity
8
0
100
AcDbDimension
62
0
6
CONTINUOUS
2
*D4
10
-34.8046245479
20
30.8383592518
11
-30.9333788588
21
33.0883592518
70
160
42
7.800000
3
DIMSTYLE_3
100
AcDbAlignedDimension
13
-27.0046245479
23
21.3501218439
14
-34.8046245479
24
0.5000000000
50
180.000000
100
AcDbRotatedDimension
0
LINE
5
256
100
AcDbEntity
8
0
100
AcDbLine
62
0
6
CONTINUOUS
10
-10.1001218439
20
-21.6500000000
11
10.1001218439
21
-21.6500000000
0
LINE
5
257
100
AcDbEntity
8
0
100
AcDbLine
62
0
6
CONTINUOUS
10
10.0014668568
20
-21.5513450129
11
-10.0014668568
21
-21.5513450129
0
LINE
5
258
100
AcDbEntity
8
0
100
AcDbLine
62
0
6
CONTINUOUS
10
9.9894891530
20
-20.1523351459
11
-9.9894891530
21
-20.1523351459
0
LINE
5
259
100
AcDbEntity
8
0
100
AcDbLine
62
0
6
CONTINUOUS
10
2.1000000000
20
-17.5617289211
11
-2.1000000000
21
-17.5617289211
0
LINE
5
25A
100
AcDbEntity
8
0
100
AcDbLine
62
0
6
CONTINUOUS
10
2.1000000000
20
-17.4558902419
11
-2.1000000000
21
-17.4558902419
0
LINE
5
25B
100
AcDbEntity
8
0
100
AcDbLine
62
0
6
CONTINUOUS
10
-2.1000000000
20
-17.2850037836
11
2.1000000000
21
-17.2850037836
0
LINE
5
25C
100
AcDbEntity
8
0
100
AcDbLine
62
0
6
CONTINUOUS
10
-2.1000000000
20
-17.1907473537
11
2.1000000000
21
-17.1907473537
0
LINE
5
25D
100
AcDbEntity
8
0
100
AcDbLine
62
0
6
CONTINUOUS
10
6.0752358421
20
-15.0000000000
11
6.0600582547
21
-15.0000000000
0
LINE
5
25E
100
AcDbEntity
8
0
100
AcDbLine
62
0
6
CONTINUOUS
10
-6.0600582547
20
-15.0000000000
11
-6.0752358421
21
-15.0000000000
0
LINE
5
25F
100
AcDbEntity
8
0
100
AcDbLine
62
0
6
CONTINUOUS
10
-10.9000000000
20
-20.8501218439
11
-10.9000000000
21
20.8501218439
0
LINE
5
260
100
AcDbEntity
8
0
100
AcDbLine
62
0
6
CONTINUOUS
10
-6.0752358421
20
-11.0000000000
11
-6.0600582547
21
-11.0000000000
0
LINE
5
261
100
AcDbEntity
8
0
100
AcDbLine
62
0
6
CONTINUOUS
10
6.0600582547
20
-11.0000000000
11
6.0752358421
21
-11.0000000000
0
LINE
5
262
100
AcDbEntity
8
0
100
AcDbLine
62
0
6
CONTINUOUS
10
-5.7768324408
20
-10.4912511336
11
-5.5837024056
21
-10.4912511336
0
LINE
5
263
100
AcDbEntity
8
0
100
AcDbLine
62
0
6
CONTINUOUS
10
5.5837024056
20
-10.4912511336
11
5.7768620092
21
-10.4912511336
0
LINE
5
264
100
AcDbEntity
8
0
100
AcDbLine
62
0
6
CONTINUOUS
10
10.1001218439
20
21.6500000000
11
10.0014668568
21
21.5513450129
0
LINE
5
265
100
AcDbEntity
8
0
100
AcDbLine
62
0
6
CONTINUOUS
10
2.1000000000
20
-8.8242557253
11
-2.1000000000
21
-8.8242557253
0
LINE
5
266
100
AcDbEntity
8
0
100
AcDbLine
62
0
6
CONTINUOUS
10
2.1000000000
20
-8.7213305174
11
-2.1000000000
21
-8.7213305174
0
LINE
5
267
100
AcDbEntity
8
0
100
AcDbLine
62
0
6
CONTINUOUS
10
-2.1000000000
20
-8.5372047791
11
2.1000000000
21
-8.5372047791
0
LINE
5
268
100
AcDbEntity
8
0
100
AcDbLine
62
0
6
CONTINUOUS
10
-2.1000000000
20
-8.4400333540
11
2.1000000000
21
-8.4400333540
0
LINE
5
269
100
AcDbEntity
8
0
100
AcDbLine
62
0
6
CONTINUOUS
10
10.0014668568
20
-21.5513450129
11
10.1001218439
21
-21.6500000000
0
LINE
5
26A
100
AcDbEntity
8
0
100
AcDbLine
62
0
6
CONTINUOUS
10
-6.0756258196
20
-10.9930070622
11
-6.0752358421
21
-11.0000000000
0
LINE
5
26B
100
AcDbEntity
8
0
100
AcDbLine
62
0
6
CONTINUOUS
10
10.9000000000
20
20.8501218439
11
10.8013450129
21
20.7514668568
0
LINE
5
26C
100
AcDbEntity
8
0
100
AcDbLine
62
0
6
CONTINUOUS
10
10.8013450129
20
-20.7514668568
11
10.9000000000
21
-20.8501218439
0
LINE
5
26D
100
AcDbEntity
8
0
100
AcDbLine
62
0
6
CONTINUOUS
10
-4.5000000000
20
-16.5679125550
11
-4.5000000000
21
-16.7447544604
0
LINE
5
26E
100
AcDbEntity
8
0
100
AcDbLine
62
0
6
CONTINUOUS
10
-4.3000000000
20
-16.6945906404
11
-4.3000000000
21
-16.8652651705
0
LINE
5
26F
100
AcDbEntity
8
0
100
AcDbLine
62
0
6
CONTINUOUS
10
-2.1000000000
20
-8.4400333540
11
-2.1000000000
21
-8.5372047791
0
LINE
5
270
100
AcDbEntity
8
0
100
AcDbLine
62
0
6
CONTINUOUS
10
-2.1000000000
20
-17.1907473537
11
-2.1000000000
21
-17.2850037836
0
LINE
5
271
100
AcDbEntity
8
0
100
AcDbLine
62
0
6
CONTINUOUS
10
-2.1000000000
20
-8.8242557253
11
-2.0999999985
21
-8.7213305174
0
LINE
5
272
100
AcDbEntity
8
0
100
AcDbLine
62
0
6
CONTINUOUS
10
-2.1000000000
20
-17.5617289211
11
-2.1000000000
21
-17.4500000000
0
LINE
5
273
100
AcDbEntity
8
0
100
AcDbLine
62
0
6
CONTINUOUS
10
2.1000000000
20
-8.8242557253
11
2.1000000000
21
-8.7213305174
0
LINE
5
274
100
AcDbEntity
8
0
100
AcDbLine
62
0
6
CONTINUOUS
10
2.1000000000
20
-17.4500000000
11
2.1000000000
21
-17.5617289211
0
LINE
5
275
100
AcDbEntity
8
0
100
AcDbLine
62
0
6
CONTINUOUS
10
2.1000000000
20
-17.1907473537
11
2.0999999985
21
-17.2850037836
0
LINE
5
276
100
AcDbEntity
8
0
100
AcDbLine
62
0
6
CONTINUOUS
10
2.1000000000
20
-8.4400333540
11
2.1000000000
21
-8.5465095187
0
LINE
5
277
100
AcDbEntity
8
0
100
AcDbLine
62
0
6
CONTINUOUS
10
4.3000000000
20
-16.8652651705
11
4.3000000000
21
-16.6945906404
0
LINE
5
278
100
AcDbEntity
8
0
100
AcDbLine
62
0
6
CONTINUOUS
10
4.5000000000
20
-16.7447544604
11
4.5000000000
21
-16.5679125550
0
LINE
5
279
100
AcDbEntity
8
0
100
AcDbLine
62
0
6
CONTINUOUS
10
6.0756257329
20
-10.9930086355
11
6.0752358421
21
-11.0000000000
0
LINE
5
27A
100
AcDbEntity
8
0
100
AcDbLine
62
0
6
CONTINUOUS
10
-10.9000000000
20
-20.8501218439
11
-10.8013450129
21
-20.7514668568
0
LINE
5
27B
100
AcDbEntity
8
0
100
AcDbLine
62
0
6
CONTINUOUS
10
-10.8013450129
20
20.7514668568
11
-10.9000000000
21
20.8501218439
0
LINE
5
27C
100
AcDbEntity
8
0
100
AcDbLine
62
0
6
CONTINUOUS
10
-10.1001218439
20
-21.6500000000
11
-10.0014668568
21
-21.5513450129
0
LINE
5
27D
100
AcDbEntity
8
0
100
AcDbLine
62
0
6
CONTINUOUS
10
-10.0014668568
20
21.5513450129
11
-10.1001218439
21
21.6500000000
0
LINE
5
27E
100
AcDbEntity
8
0
100
AcDbLine
62
0
6
CONTINUOUS
10
10.9000000000
20
-20.8501218439
11
10.9000000000
21
20.8501218439
0
LINE
5
27F
100
AcDbEntity
8
0
100
AcDbLine
62
0
6
CONTINUOUS
10
9.9894891530
20
20.1523351459
11
-9.9894891530
21
20.1523351459
0
LINE
5
280
100
AcDbEntity
8
0
100
AcDbLine
62
0
6
CONTINUOUS
10
10.0014668568
20
21.5513450129
11
-10.0014668568
21
21.5513450129
0
LINE
5
281
100
AcDbEntity
8
0
100
AcDbLine
62
0
6
CONTINUOUS
10
-10.1001218439
20
21.6500000000
11
10.1001218439
21
21.6500000000
0
LINE
5
282
100
AcDbEntity
8
0
100
AcDbLine
62
0
6
CONTINUOUS
10
-32.6565649737
20
-21.5513450129
11
-27.0046245479
21
-21.6500000000
0
LINE
5
283
100
AcDbEntity
8
0
100
AcDbLine
62
0
6
CONTINUOUS
10
-32.6565649737
20
-20.7514668568
11
-27.0046245479
21
-20.8501218439
0
LINE
5
284
100
AcDbEntity
8
0
100
AcDbLine
62
0
6
CONTINUOUS
10
-33.3427671611
20
-20.0985955855
11
-34.1269978158
21
-20.1523351178
0
LINE
5
285
100
AcDbEntity
8
0
100
AcDbLine
62
0
6
CONTINUOUS
10
-34.3062459751
20
-17.2851348927
11
-34.3137572124
21
-17.2850037836
0
LINE
5
286
100
AcDbEntity
8
0
100
AcDbLine
62
0
6
CONTINUOUS
10
-27.0046245479
20
21.6500000000
11
-27.0046245479
21
-21.6500000000
0
LINE
5
287
100
AcDbEntity
8
0
100
AcDbLine
62
0
6
CONTINUOUS
10
-33.3427671611
20
20.0985955855
11
-34.1269981930
21
20.1523351432
0
LINE
5
288
100
AcDbEntity
8
0
100
AcDbLine
62
0
6
CONTINUOUS
10
-27.0046245479
20
20.8501218439
11
-32.6565649737
21
20.7514668568
0
LINE
5
289
100
AcDbEntity
8
0
100
AcDbLine
62
0
6
CONTINUOUS
10
-27.0046245479
20
21.6500000000
11
-32.6565649737
21
21.5513450129
0
ARC
5
28A
100
AcDbEntity
8
0
100
AcDbCircle
62
0
6
CONTINUOUS
10
-2.1000000000
20
-13.0000000000
40
4.2912724675
100
AcDbArc
50
144.3679448432
51
215.6320551568
0
ARC
5
28B
100
AcDbEntity
8
0
100
AcDbCircle
62
0
6
CONTINUOUS
10
2.1000000000
20
-13.0000000000
40
4.2912724675
100
AcDbArc
50
324.3679448432
51
35.6320551568
0
ARC
5
28C
100
AcDbEntity
8
0
100
AcDbCircle
62
0
6
CONTINUOUS
10
2.1000000000
20
-13.0000000000
40
4.3000000000
100
AcDbArc
50
269.9963756459
51
323.7316107101
0
ARC
5
28D
100
AcDbEntity
8
0
100
AcDbCircle
62
0
6
CONTINUOUS
10
-2.1000000000
20
-13.0000000000
40
4.2930179740
100
AcDbArc
50
89.9963039701
51
144.2408799387
0
ARC
5
28E
100
AcDbEntity
8
0
100
AcDbCircle
62
0
6
CONTINUOUS
10
2.1000000000
20
-13.0000000000
40
4.2930179740
100
AcDbArc
50
35.7591200613
51
90.0036960346
0
ARC
5
28F
100
AcDbEntity
8
0
100
AcDbCircle
62
0
6
CONTINUOUS
10
-2.1000000000
20
-13.0000000000
40
4.3000000000
100
AcDbArc
50
216.2683892899
51
269.9963579683
0
ARC
5
290
100
AcDbEntity
8
0
100
AcDbCircle
62
0
6
CONTINUOUS
10
2.1000000000
20
-13.0000000000
40
4.4534946172
100
AcDbArc
50
26.7857410275
51
90.0000000000
0
ARC
5
291
100
AcDbEntity
8
0
100
AcDbCircle
62
0
6
CONTINUOUS
10
-2.1000000000
20
-13.0000000000
40
4.4534954036
100
AcDbArc
50
90.0000000000
51
153.2142414053
0
ARC
5
292
100
AcDbEntity
8
0
100
AcDbCircle
62
0
6
CONTINUOUS
10
-2.1000000000
20
-13.0000000000
40
4.4500000000
100
AcDbArc
50
153.2923546979
51
270.0000000000
0
ARC
5
293
100
AcDbEntity
8
0
100
AcDbCircle
62
0
6
CONTINUOUS
10
2.1000000000
20
-13.0000000000
40
4.4500000000
100
AcDbArc
50
270.0000000000
51
26.7076453021
0
ARC
5
294
100
AcDbEntity
8
0
100
AcDbCircle
62
0
6
CONTINUOUS
10
-34.3120119718
20
-17.1850190140
40
0.1000000000
100
AcDbArc
50
183.2838944955
51
269.0000000000
0
ARC
5
295
100
AcDbEntity
8
0
100
AcDbCircle
62
0
6
CONTINUOUS
10
-34.6749038298
20
-8.8213152869
40
0.1000000000
100
AcDbArc
50
91.0000000000
51
181.6849899906
0
ARC
5
296
100
AcDbEntity
8
0
100
AcDbCircle
62
0
6
CONTINUOUS
10
265.1953754521
20
0.0000000000
40
300.1000000000
100
AcDbArc
50
181.6849899905
51
183.2838944955
0
ARC
5
297
100
AcDbEntity
8
0
100
AcDbCircle
62
0
6
CONTINUOUS
10
-32.6303863640
20
-20.0515734702
40
1.5000000000
100
AcDbArc
50
183.8517129654
51
269.0000000000
0
ARC
5
298
100
AcDbEntity
8
0
100
AcDbCircle
62
0
6
CONTINUOUS
10
265.1953754521
20
0.0000000000
40
300.0000000000
100
AcDbArc
50
176.1482870346
51
183.8517129654
0
ARC
5
299
100
AcDbEntity
8
0
100
AcDbCircle
62
0
6
CONTINUOUS
10
-32.6303863640
20
20.0515734702
40
1.5000000000
100
AcDbArc
50
91.0000000000
51
176.1482870346
0
SPLINE
5
29A
100
AcDbEntity
8
0
100
AcDbSpline
62
0
6
CONTINUOUS
70
0
71
3
72
23
73
19
74
17
42
0.0000001000
43
0.0000001000
44
0.0000000001
12
13.4293859832
22
0.0008695689
32
0.0000000000
13
-13.4293859886
23
0.0007814285
33
0.0000000000
40
0.0000000000
40
0.0000000000
40
0.0000000000
40
0.0000000000
40
0.0622506255
40
0.1247286530
40
0.1872427651
40
0.2497449885
40
0.3122838440
40
0.3748372033
40
0.4373991390
40
0.4999594809
40
0.5625116287
40
0.6250524498
40
0.6875804928
40
0.7501007168
40
0.8126026722
40
0.8751318132
40
0.9377009173
40
1.0000000000
40
1.0000000000
40
1.0000000000
40
1.0000000000
10
2.1000000000
20
-17.2850037836
30
0.0000000000
10
2.3786625594
20
-17.2849857398
30
0.0000000000
10
2.9385379671
20
-17.2301458726
30
0.0000000000
10
3.7457296269
20
-16.9858768996
30
0.0000000000
10
4.4910818884
20
-16.5882425076
30
0.0000000000
10
5.1446382443
20
-16.0526507651
30
0.0000000000
10
5.6812458129
20
-15.3996686072
30
0.0000000000
10
6.0801751244
20
-14.6542561299
30
0.0000000000
10
6.3259200636
20
-13.8452069866
30
0.0000000000
10
6.4089699480
20
-13.0037538895
30
0.0000000000
10
6.3261553339
20
-12.1623746563
30
0.0000000000
10
6.0807374220
20
-11.3534873519
30
0.0000000000
10
5.6822374092
20
-10.6081827362
30
0.0000000000
10
5.1460568928
20
-9.9551120141
30
0.0000000000
10
4.4927744351
20
-9.4192133356
30
0.0000000000
10
3.7471847199
20
-9.0210076125
30
0.0000000000
10
2.9393827899
20
-8.7762935342
30
0.0000000000
10
2.3788794761
20
-8.7213467448
30
0.0000000000
10
2.1000000000
20
-8.7213305174
30
0.0000000000
11
2.1000000000
21
-17.2850037836
31
0.0000000000
11
2.9319928881
21
-17.2033751423
31
0.0000000000
11
3.7350931300
21
-16.9604333364
31
0.0000000000
11
4.4757891233
21
-16.5652452929
31
0.0000000000
11
5.1250111818
21
-16.0332238524
31
0.0000000000
11
5.6582367464
21
-15.3843535405
31
0.0000000000
11
6.0546224180
21
-14.6436999158
31
0.0000000000
11
6.2988045826
21
-13.8397981902
31
0.0000000000
11
6.3813251550
21
-13.0037136822
31
0.0000000000
11
6.2990398371
21
-12.1677165621
31
0.0000000000
11
6.0551929161
21
-11.3640094001
31
0.0000000000
11
5.6592547012
21
-10.6235019848
31
0.0000000000
11
5.1264843728
21
-9.9745815391
31
0.0000000000
11
4.4775240214
21
-9.4422465742
31
0.0000000000
11
3.7368331681
21
-9.0466203294
31
0.0000000000
11
2.9326342917
21
-8.8030862420
31
0.0000000000
11
2.1000000000
21
-8.7213305174
31
0.0000000000
0
SPLINE
5
29B
100
AcDbEntity
8
0
100
AcDbSpline
62
0
6
CONTINUOUS
70
0
71
3
72
8
73
4
74
2
42
0.0000001000
43
0.0000001000
44
0.0000000001
12
0.0013823266
22
-0.0029145994
32
0.0000000000
13
0.0013799671
23
-0.0029157176
33
0.0000000000
40
0.0000000000
40
0.0000000000
40
0.0000000000
40
0.0000000000
40
1.0000000000
40
1.0000000000
40
1.0000000000
40
1.0000000000
10
5.5837024056
20
-10.4912511336
30
0.0000000000
10
5.5841631812
20
-10.4922226668
30
0.0000000000
10
5.5846235635
20
-10.4931943865
30
0.0000000000
10
5.5850835526
20
-10.4941662923
30
0.0000000000
11
5.5837024056
21
-10.4912511336
31
0.0000000000
11
5.5850835526
21
-10.4941662923
31
0.0000000000
0
SPLINE
5
29C
100
AcDbEntity
8
0
100
AcDbSpline
62
0
6
CONTINUOUS
70
0
71
3
72
8
73
4
74
2
42
0.0000001000
43
0.0000001000
44
0.0000000001
12
-0.0070106650
22
-0.0145673010
32
0.0000000000
13
-0.0070697093
23
-0.0145387006
33
0.0000000000
40
0.0000000000
40
0.0000000000
40
0.0000000000
40
0.0000000000
40
1.0000000000
40
1.0000000000
40
1.0000000000
40
1.0000000000
10
5.5739357499
20
-15.5291913080
30
0.0000000000
10
5.5715988616
20
-15.5340470750
30
0.0000000000
10
5.5692521227
20
-15.5388980982
30
0.0000000000
10
5.5668955529
20
-15.5437443318
30
0.0000000000
11
5.5739357499
21
-15.5291913080
31
0.0000000000
11
5.5668955529
21
-15.5437443318
31
0.0000000000
0
SPLINE
5
29D
100
AcDbEntity
8
0
100
AcDbSpline
62
0
6
CONTINUOUS
70
0
71
3
72
23
73
19
74
17
42
0.0000001000
43
0.0000001000
44
0.0000000001
12
-13.4293859917
22
-0.0008652853
32
0.0000000000
13
13.4293859966
23
-0.0007846436
33
0.0000000000
40
0.0000000000
40
0.0000000000
40
0.0000000000
40
0.0000000000
40
0.0623152497
40
0.1248396603
40
0.1873724820
40
0.2498715663
40
0.3123909620
40
0.3749176022
40
0.4374571621
40
0.5000079957
40
0.5625670560
40
0.6251276980
40
0.6876799243
40
0.7502171905
40
0.8127196481
40
0.8752275591
40
0.9377571749
40
1.0000000000
40
1.0000000000
40
1.0000000000
40
1.0000000000
10
-2.1000000000
20
-8.7213305174
30
0.0000000000
10
-2.3789518471
20
-8.7213484909
30
0.0000000000
10
-2.9393289129
20
-8.7762950635
30
0.0000000000
10
-3.7470193446
20
-9.0209592341
30
0.0000000000
10
-4.4924698674
20
-9.4190093537
30
0.0000000000
10
-5.1457958568
20
-9.9548535127
30
0.0000000000
10
-5.6820197287
20
-10.6078588448
30
0.0000000000
10
-6.0805808571
20
-11.3531126245
30
0.0000000000
10
-6.3260714575
20
-12.1619589221
30
0.0000000000
10
-6.4089688310
20
-13.0033123113
30
0.0000000000
10
-6.3260086236
20
-13.8447564241
30
0.0000000000
10
-6.0803564546
20
-14.6538160348
30
0.0000000000
10
-5.6815195139
20
-15.3992572306
30
0.0000000000
10
-5.1449955820
20
-16.0522931037
30
0.0000000000
10
-4.4915287364
20
-16.5879409866
30
0.0000000000
10
-3.7460483793
20
-16.9857672701
30
0.0000000000
10
-2.9386982095
20
-17.2301332182
30
0.0000000000
10
-2.3786276411
20
-17.2849875041
30
0.0000000000
10
-2.1000000000
20
-17.2850037836
30
0.0000000000
11
-2.1000000000
21
-8.7213305174
31
0.0000000000
11
-2.9328482817
21
-8.8031286808
31
0.0000000000
11
-3.7364774549
21
-9.0464731536
31
0.0000000000
11
-4.4772451882
21
-9.4420603763
31
0.0000000000
11
-5.1262198221
21
-9.9743171308
31
0.0000000000
11
-5.6590406223
21
-10.6231817409
31
0.0000000000
11
-6.0550382042
21
-11.3636360475
31
0.0000000000
11
-6.2989576529
21
-12.1673035030
31
0.0000000000
11
-6.3813251886
21
-13.0032747923
31
0.0000000000
11
-6.2988936824
21
-13.8393507916
31
0.0000000000
11
-6.0548038448
21
-14.6432623994
31
0.0000000000
11
-5.6585086013
21
-15.3839471566
31
0.0000000000
11
-5.1253723086
21
-16.0328631985
31
0.0000000000
11
-4.4762110464
21
-16.5649637818
31
0.0000000000
11
-3.7356392113
21
-16.9602076083
31
0.0000000000
11
-2.9318896368
21
-17.2033955989
31
0.0000000000
11
-2.1000000000
21
-17.2850037836
31
0.0000000000
0
SPLINE
5
29E
100
AcDbEntity
8
0
100
AcDbSpline
62
0
6
CONTINUOUS
70
0
71
3
72
8
73
4
74
2
42
0.0000001000
43
0.0000001000
44
0.0000000001
12
-0.0035348653
22
0.0072693722
32
0.0000000000
13
-0.0035201116
23
0.0072765396
33
0.0000000000
40
0.0000000000
40
0.0000000000
40
0.0000000000
40
0.0000000000
40
1.0000000000
40
1.0000000000
40
1.0000000000
40
1.0000000000
10
-5.5668955529
20
-15.5437443318
30
0.0000000000
10
-5.5680738413
20
-15.5413212077
30
0.0000000000
10
-5.5692496720
20
-15.5388968862
30
0.0000000000
10
-5.5704230426
20
-15.5364713730
30
0.0000000000
11
-5.5668955529
21
-15.5437443318
31
0.0000000000
11
-5.5704230426
21
-15.5364713730
31
0.0000000000
0
SPLINE
5
29F
100
AcDbEntity
8
0
100
AcDbSpline
62
0
6
CONTINUOUS
70
0
71
3
72
8
73
4
74
2
42
0.0000001000
43
0.0000001000
44
0.0000000001
12
-0.0035200903
22
0.0072764957
32
0.0000000000
13
-0.0035053219
23
0.0072836285
33
0.0000000000
40
0.0000000000
40
0.0000000000
40
0.0000000000
40
0.0000000000
40
1.0000000000
40
1.0000000000
40
1.0000000000
40
1.0000000000
10
-5.5704230426
20
-15.5364713730
30
0.0000000000
10
-5.5715964060
20
-15.5340458744
30
0.0000000000
10
-5.5727673093
20
-15.5316191842
30
0.0000000000
10
-5.5739357499
20
-15.5291913080
30
0.0000000000
11
-5.5704230426
21
-15.5364713730
31
0.0000000000
11
-5.5739357499
21
-15.5291913080
31
0.0000000000
0
SPLINE
5
2A0
100
AcDbEntity
8
0
100
AcDbSpline
62
0
6
CONTINUOUS
70
0
71
3
72
23
73
19
74
17
42
0.0000001000
43
0.0000001000
44
0.0000000001
12
13.1179636263
22
0.0017087145
32
0.0000000000
13
-13.1179636470
23
0.0015411169
33
0.0000000000
40
0.0000000000
40
0.0000000000
40
0.0000000000
40
0.0000000000
40
0.0622074725
40
0.1246799577
40
0.1871920200
40
0.2496962976
40
0.3122415341
40
0.3748053382
40
0.4373808887
40
0.4999567040
40
0.5625246427
40
0.6250798574
40
0.6876187879
40
0.7501454547
40
0.8126491695
40
0.8751757413
40
0.9377386515
40
1.0000000000
40
1.0000000000
40
1.0000000000
40
1.0000000000
10
2.1000000000
20
-17.1907473537
30
0.0000000000
10
2.3720117872
20
-17.1907119221
30
0.0000000000
10
2.9186910130
20
-17.1372099147
30
0.0000000000
10
3.7069491866
20
-16.8986408019
30
0.0000000000
10
4.4349806028
20
-16.5102103571
30
0.0000000000
10
5.0733514295
20
-15.9869536547
30
0.0000000000
10
5.5974996164
20
-15.3489942990
30
0.0000000000
10
5.9871691698
20
-14.6207121274
30
0.0000000000
10
6.2272146727
20
-13.8302449100
30
0.0000000000
10
6.3083436235
20
-13.0081095089
30
0.0000000000
10
6.2274581232
20
-12.1860414446
30
0.0000000000
10
5.9877422171
20
-11.3957219785
30
0.0000000000
10
5.5984987884
20
-10.6675351985
30
0.0000000000
10
5.0747757733
20
-10.0294813589
30
0.0000000000
10
4.4366809127
20
-9.5059204548
30
0.0000000000
10
3.7084307038
20
-9.1169203814
30
0.0000000000
10
2.9195607210
20
-8.8779051834
30
0.0000000000
10
2.3722473686
20
-8.8242877093
30
0.0000000000
10
2.1000000000
20
-8.8242557253
30
0.0000000000
11
2.1000000000
21
-17.1907473537
31
0.0000000000
11
2.9121377973
21
-17.1110860657
31
0.0000000000
11
3.6965435740
21
-16.8737947670
31
0.0000000000
11
4.4200214124
21
-16.4877499476
31
0.0000000000
11
5.0541620211
21
-15.9679913470
31
0.0000000000
11
5.5750106271
21
-15.3340501638
31
0.0000000000
11
5.9622023578
21
-14.6104155897
31
0.0000000000
11
6.2007263803
21
-13.8249707006
31
0.0000000000
11
6.2813402877
21
-13.0080713911
31
0.0000000000
11
6.2009696764
21
-12.1912519318
31
0.0000000000
11
5.9627821726
21
-11.4059836906
31
0.0000000000
11
5.5760343960
21
-10.6824817087
31
0.0000000000
11
5.0556381185
21
-10.0484842784
31
0.0000000000
11
4.4217626402
21
-9.5284140089
31
0.0000000000
11
3.6983021124
21
-9.1419326408
31
0.0000000000
11
2.9128343574
21
-8.9040553741
31
0.0000000000
11
2.1000000000
21
-8.8242557253
31
0.0000000000
0
SPLINE
5
2A1
100
AcDbEntity
8
0
100
AcDbSpline
62
0
6
CONTINUOUS
70
0
71
3
72
23
73
19
74
17
42
0.0000001000
43
0.0000001000
44
0.0000000001
12
-13.1179636404
22
-0.0017022726
32
0.0000000000
13
13.1179636598
23
-0.0015456442
33
0.0000000000
40
0.0000000000
40
0.0000000000
40
0.0000000000
40
0.0000000000
40
0.0622698927
40
0.1247866899
40
0.1873155607
40
0.2498150272
40
0.3123394213
40
0.3748754648
40
0.4374279856
40
0.4999940621
40
0.5625691225
40
0.6251447923
40
0.6877089357
40
0.7502540253
40
0.8127599183
40
0.8752671755
40
0.9377926844
40
1.0000000000
40
1.0000000000
40
1.0000000000
40
1.0000000000
10
-2.1000000000
20
-8.8242557253
30
0.0000000000
10
-2.3722847292
20
-8.8242910588
30
0.0000000000
10
-2.9194351346
20
-8.8778935263
30
0.0000000000
10
-3.7081566029
20
-9.1168327164
30
0.0000000000
10
-4.4362681332
20
-9.5056454996
30
0.0000000000
10
-5.0744083766
20
-10.0291206429
30
0.0000000000
10
-5.5981873527
20
-10.6670743732
30
0.0000000000
10
-5.9875132210
20
-11.3951774030
30
0.0000000000
10
-6.2273342353
20
-12.1854302273
30
0.0000000000
10
-6.3083425410
20
-13.0074624156
30
0.0000000000
10
-6.2273432050
20
-13.8295994028
30
0.0000000000
10
-5.9874225646
20
-14.6201032317
30
0.0000000000
10
-5.5978661491
20
-15.3484474731
30
0.0000000000
10
-5.0738134021
20
-15.9864955953
30
0.0000000000
10
-4.4355328913
20
-16.5098397851
30
0.0000000000
10
-3.7073735695
20
-16.8984931830
30
0.0000000000
10
-2.9189207510
20
-17.1371843877
30
0.0000000000
10
-2.3720111017
20
-17.1907153036
30
0.0000000000
10
-2.1000000000
20
-17.1907473537
30
0.0000000000
11
-2.1000000000
21
-8.8242557253
31
0.0000000000
11
-2.9129448667
21
-8.9040768937
31
0.0000000000
11
-3.6978437025
21
-9.1417457319
31
0.0000000000
11
-4.4213759221
21
-9.5281568940
31
0.0000000000
11
-5.0552693344
21
-10.0481174382
31
0.0000000000
11
-5.5757281215
21
-10.6820249815
31
0.0000000000
11
-5.9625565988
21
-11.4054408736
31
0.0000000000
11
-6.2008477758
21
-12.1906407331
31
0.0000000000
11
-6.2813403355
21
-13.0074236383
31
0.0000000000
11
-6.2008551194
21
-13.8243256883
31
0.0000000000
11
-5.9624542576
21
-14.6098096040
31
0.0000000000
11
-5.5753737428
21
-15.3335087236
31
0.0000000000
11
-5.0546256660
21
-15.9675299949
31
0.0000000000
11
-4.4205484669
21
-16.4873993743
31
0.0000000000
11
-3.6971883927
21
-16.8735309806
31
0.0000000000
11
-2.9121357326
21
-17.1110860952
31
0.0000000000
11
-2.1000000000
21
-17.1907473537
31
0.0000000000
0
SPLINE
5
2A2
100
AcDbEntity
8
0
100
AcDbSpline
62
0
6
CONTINUOUS
70
0
71
3
72
8
73
4
74
2
42
0.0000001000
43
0.0000001000
44
0.0000000001
12
0.0041257545
22
0.0087538818
32
0.0000000000
13
0.0041469987
23
0.0087438378
33
0.0000000000
40
0.0000000000
40
0.0000000000
40
0.0000000000
40
0.0000000000
40
1.0000000000
40
1.0000000000
40
1.0000000000
40
1.0000000000
10
-5.5878387851
20
-10.5000000000
30
0.0000000000
10
-5.5864635336
20
-10.4970820394
30
0.0000000000
10
-5.5850847385
20
-10.4941657462
30
0.0000000000
10
-5.5837024056
20
-10.4912511336
30
0.0000000000
11
-5.5878387851
21
-10.5000000000
31
0.0000000000
11
-5.5837024056
21
-10.4912511336
31
0.0000000000
0
SPLINE
5
2A3
100
AcDbEntity
8
0
100
AcDbSpline
62
0
6
CONTINUOUS
70
0
71
3
72
9
73
5
74
3
42
0.0000001000
43
0.0000001000
44
0.0000000001
12
-0.0212091994
22
0.0436162490
32
0.0000000000
13
-0.0206767351
23
0.0438711744
33
0.0000000000
40
0.0000000000
40
0.0000000000
40
0.0000000000
40
0.0000000000
40
0.4999975776
40
1.0000000000
40
1.0000000000
40
1.0000000000
40
1.0000000000
10
-5.5668955529
20
-15.5437443318
30
0.0000000000
10
-5.5704304023
20
-15.5364749921
30
0.0000000000
10
-5.5774558967
20
-15.5219146890
30
0.0000000000
10
-5.5843926459
20
-15.5073118978
30
0.0000000000
10
-5.5878387851
20
-15.5000000000
30
0.0000000000
11
-5.5668955529
21
-15.5437443318
31
0.0000000000
11
-5.5774336766
21
-15.5219041376
31
0.0000000000
11
-5.5878387851
21
-15.5000000000
31
0.0000000000
0
SPLINE
5
2A4
100
AcDbEntity
8
0
100
AcDbSpline
62
0
6
CONTINUOUS
70
0
71
3
72
8
73
4
74
2
42
0.0000001000
43
0.0000001000
44
0.0000000001
12
-0.2788631782
22
-0.0000179678
32
0.0000000000
13
-0.2786740195
23
-0.0182255256
33
0.0000000000
40
0.0000000000
40
0.0000000000
40
0.0000000000
40
0.0000000000
40
1.0000000000
40
1.0000000000
40
1.0000000000
40
1.0000000000
10
-2.1000000000
20
-8.7213305174
30
0.0000000000
10
-2.1929543927
20
-8.7213365066
30
0.0000000000
10
-2.2859939810
20
-8.7243860360
30
0.0000000000
10
-2.3788853208
20
-8.7304612112
30
0.0000000000
11
-2.1000000000
21
-8.7213305174
31
0.0000000000
11
-2.3788853208
21
-8.7304612112
31
0.0000000000
0
SPLINE
5
2A5
100
AcDbEntity
8
0
100
AcDbSpline
62
0
6
CONTINUOUS
70
0
71
3
72
12
73
8
74
6
42
0.0000001000
43
0.0000001000
44
0.0000000001
12
-3.9136990853
22
-0.2559593572
32
0.0000000000
13
-2.1801528483
23
-3.2609752917
33
0.0000000000
40
0.0000000000
40
0.0000000000
40
0.0000000000
40
0.0000000000
40
0.1424774499
40
0.3568768872
40
0.5713051669
40
0.7856177590
40
1.0000000000
40
1.0000000000
40
1.0000000000
40
1.0000000000
10
-2.3788853208
20
-8.7304612112
30
0.0000000000
10
-2.5647566093
20
-8.7426173567
30
0.0000000000
10
-3.0288394462
20
-8.8034094374
30
0.0000000000
10
-3.7470193446
20
-9.0209592341
30
0.0000000000
10
-4.4924698674
20
-9.4190093537
30
0.0000000000
10
-5.1457958568
20
-9.9548535127
30
0.0000000000
10
-5.5032452712
20
-10.3901500107
30
0.0000000000
10
-5.6590406223
20
-10.6231817409
30
0.0000000000
11
-2.3788853208
21
-8.7304612112
31
0.0000000000
11
-2.9328482817
21
-8.8031286808
31
0.0000000000
11
-3.7364774549
21
-9.0464731536
31
0.0000000000
11
-4.4772451882
21
-9.4420603763
31
0.0000000000
11
-5.1262198221
21
-9.9743171308
31
0.0000000000
11
-5.6590406223
21
-10.6231817409
31
0.0000000000
0
SPLINE
5
2A6
100
AcDbEntity
8
0
100
AcDbSpline
62
0
6
CONTINUOUS
70
0
71
3
72
8
73
4
74
2
42
0.0000001000
43
0.0000001000
44
0.0000000001
12
-0.1558060873
22
-0.2330477890
32
0.0000000000
13
-0.1402149236
23
-0.2427505848
33
0.0000000000
40
0.0000000000
40
0.0000000000
40
0.0000000000
40
0.0000000000
40
1.0000000000
40
1.0000000000
40
1.0000000000
40
1.0000000000
10
-5.6590406223
20
-10.6231817409
30
0.0000000000
10
-5.7109759847
20
-10.7008643372
30
0.0000000000
10
-5.7603600630
20
-10.7802525153
30
0.0000000000
10
-5.8070983708
20
-10.8611693769
30
0.0000000000
11
-5.6590406223
21
-10.6231817409
31
0.0000000000
11
-5.8070983708
21
-10.8611693769
31
0.0000000000
0
SPLINE
5
2A7
100
AcDbEntity
8
0
100
AcDbSpline
62
0
6
CONTINUOUS
70
0
71
3
72
9
73
5
74
3
42
0.0000001000
43
0.0000001000
44
0.0000000001
12
0.2806278171
22
-0.4856223204
32
0.0000000000
13
0.3416960461
23
-0.4447759635
33
0.0000000000
40
0.0000000000
40
0.0000000000
40
0.0000000000
40
0.0000000000
40
0.5000144942
40
1.0000000000
40
1.0000000000
40
1.0000000000
40
1.0000000000
10
-5.8066745584
20
-15.1458972762
30
0.0000000000
10
-5.7599018997
20
-15.2268366758
30
0.0000000000
10
-5.6610643710
20
-15.3856500542
30
0.0000000000
10
-5.5520158161
20
-15.5376338230
30
0.0000000000
10
-5.4950681260
20
-15.6117610013
30
0.0000000000
11
-5.8066745584
21
-15.1458972762
31
0.0000000000
11
-5.6585086013
21
-15.3839471566
31
0.0000000000
11
-5.4950681260
21
-15.6117610013
31
0.0000000000
0
SPLINE
5
2A8
100
AcDbEntity
8
0
100
AcDbSpline
62
0
6
CONTINUOUS
70
0
71
3
72
12
73
8
74
6
42
0.0000001000
43
0.0000001000
44
0.0000000001
12
2.2186114791
22
-2.8879030632
32
0.0000000000
13
3.6334111565
23
-0.2372451704
33
0.0000000000
40
0.0000000000
40
0.0000000000
40
0.0000000000
40
0.0000000000
40
0.1539820983
40
0.3848401290
40
0.6157183025
40
0.8466766448
40
1.0000000000
40
1.0000000000
40
1.0000000000
40
1.0000000000
10
-5.4950681260
20
-15.6117610013
30
0.0000000000
10
-5.3811926424
20
-15.7599894591
30
0.0000000000
10
-5.0723548544
20
-16.1118368315
30
0.0000000000
10
-4.4915287364
20
-16.5879409866
30
0.0000000000
10
-3.7460483793
20
-16.9857672701
30
0.0000000000
10
-3.0280725426
20
-17.2030817052
30
0.0000000000
10
-2.5641368531
20
-17.2637780220
30
0.0000000000
10
-2.3784412567
20
-17.2759030972
30
0.0000000000
11
-5.4950681260
21
-15.6117610013
31
0.0000000000
11
-5.1253723086
21
-16.0328631985
31
0.0000000000
11
-4.4762110464
21
-16.5649637818
31
0.0000000000
11
-3.7356392113
21
-16.9602076083
31
0.0000000000
11
-2.9318896368
21
-17.2033955989
31
0.0000000000
11
-2.3784412567
21
-17.2759030972
31
0.0000000000
0
SPLINE
5
2A9
100
AcDbEntity
8
0
100
AcDbSpline
62
0
6
CONTINUOUS
70
0
71
3
72
8
73
4
74
2
42
0.0000001000
43
0.0000001000
44
0.0000000001
12
0.2782310073
22
-0.0181672153
32
0.0000000000
13
0.2784192419
23
-0.0000162673
33
0.0000000000
40
0.0000000000
40
0.0000000000
40
0.0000000000
40
0.0000000000
40
1.0000000000
40
1.0000000000
40
1.0000000000
40
1.0000000000
10
-2.3784412567
20
-17.2759030972
30
0.0000000000
10
-2.2856975876
20
-17.2819588356
30
0.0000000000
10
-2.1928064140
20
-17.2849983611
30
0.0000000000
10
-2.1000000000
20
-17.2850037836
30
0.0000000000
11
-2.3784412567
21
-17.2759030972
31
0.0000000000
11
-2.1000000000
21
-17.2850037836
31
0.0000000000
0
SPLINE
5
2AA
100
AcDbEntity
8
0
100
AcDbSpline
62
0
6
CONTINUOUS
70
0
71
3
72
9
73
5
74
3
42
0.0000001000
43
0.0000001000
44
0.0000000001
12
-0.0172306138
22
-0.0365593146
32
0.0000000000
13
-0.0176005654
23
-0.0363827134
33
0.0000000000
40
0.0000000000
40
0.0000000000
40
0.0000000000
40
0.0000000000
40
0.6000028640
40
1.0000000000
40
1.0000000000
40
1.0000000000
40
1.0000000000
10
5.5878387851
20
-15.5000000000
30
0.0000000000
10
5.5843926459
20
-15.5073118978
30
0.0000000000
10
5.5786120212
20
-15.5194808913
30
0.0000000000
10
5.5727697678
20
-15.5316203793
30
0.0000000000
10
5.5704230426
20
-15.5364713730
30
0.0000000000
11
5.5878387851
21
-15.5000000000
31
0.0000000000
11
5.5774336766
21
-15.5219041376
31
0.0000000000
11
5.5704230426
21
-15.5364713730
31
0.0000000000
0
SPLINE
5
2AB
100
AcDbEntity
8
0
100
AcDbSpline
62
0
6
CONTINUOUS
70
0
71
3
72
8
73
4
74
2
42
0.0000001000
43
0.0000001000
44
0.0000000001
12
-0.0035201116
22
-0.0072765396
32
0.0000000000
13
-0.0035348653
23
-0.0072693722
33
0.0000000000
40
0.0000000000
40
0.0000000000
40
0.0000000000
40
0.0000000000
40
1.0000000000
40
1.0000000000
40
1.0000000000
40
1.0000000000
10
5.5704230426
20
-15.5364713730
30
0.0000000000
10
5.5692496720
20
-15.5388968862
30
0.0000000000
10
5.5680738413
20
-15.5413212077
30
0.0000000000
10
5.5668955529
20
-15.5437443318
30
0.0000000000
11
5.5704230426
21
-15.5364713730
31
0.0000000000
11
5.5668955529
21
-15.5437443318
31
0.0000000000
0
SPLINE
5
2AC
100
AcDbEntity
8
0
100
AcDbSpline
62
0
6
CONTINUOUS
70
0
71
3
72
8
73
4
74
2
42
0.0000001000
43
0.0000001000
44
0.0000000001
12
0.0041469987
22
-0.0087438378
32
0.0000000000
13
0.0041257545
23
-0.0087538818
33
0.0000000000
40
0.0000000000
40
0.0000000000
40
0.0000000000
40
0.0000000000
40
1.0000000000
40
1.0000000000
40
1.0000000000
40
1.0000000000
10
5.5837024056
20
-10.4912511336
30
0.0000000000
10
5.5850847385
20
-10.4941657462
30
0.0000000000
10
5.5864635336
20
-10.4970820394
30
0.0000000000
10
5.5878387851
20
-10.5000000000
30
0.0000000000
11
5.5837024056
21
-10.4912511336
31
0.0000000000
11
5.5878387851
21
-10.5000000000
31
0.0000000000
0
SPLINE
5
2AD
100
AcDbEntity
8
0
100
AcDbSpline
62
0
6
CONTINUOUS
70
0
71
3
72
8
73
4
74
2
42
0.0000001000
43
0.0000001000
44
0.0000000001
12
0.2785429938
22
0.0000180360
32
0.0000000000
13
0.2783545131
23
0.0181835943
33
0.0000000000
40
0.0000000000
40
0.0000000000
40
0.0000000000
40
0.0000000000
40
1.0000000000
40
1.0000000000
40
1.0000000000
40
1.0000000000
10
2.1000000000
20
-17.2850037836
30
0.0000000000
10
2.1928476646
20
-17.2849977716
30
0.0000000000
10
2.2857802307
20
-17.2819552671
30
0.0000000000
10
2.3785650684
20
-17.2758940690
30
0.0000000000
11
2.1000000000
21
-17.2850037836
31
0.0000000000
11
2.3785650684
21
-17.2758940690
31
0.0000000000
0
SPLINE
5
2AE
100
AcDbEntity
8
0
100
AcDbSpline
62
0
6
CONTINUOUS
70
0
71
3
72
12
73
8
74
6
42
0.0000001000
43
0.0000001000
44
0.0000000001
12
3.9125879738
22
0.2555910146
32
0.0000000000
13
2.1806332532
23
3.2593124123
33
0.0000000000
40
0.0000000000
40
0.0000000000
40
0.0000000000
40
0.0000000000
40
0.1423782634
40
0.3566798460
40
0.5711052000
40
0.7854897753
40
1.0000000000
40
1.0000000000
40
1.0000000000
40
1.0000000000
10
2.3785650684
20
-17.2758940690
30
0.0000000000
10
2.5642542287
20
-17.2637638674
30
0.0000000000
10
3.0279524160
20
-17.2030876450
30
0.0000000000
10
3.7457296273
20
-16.9858768994
30
0.0000000000
10
4.4910818886
20
-16.5882425074
30
0.0000000000
10
5.1446382444
20
-16.0526507649
30
0.0000000000
10
5.5023140368
20
-15.6174054863
30
0.0000000000
10
5.6582367465
20
-15.3843535403
30
0.0000000000
11
2.3785650684
21
-17.2758940690
31
0.0000000000
11
2.9319928888
21
-17.2033751422
31
0.0000000000
11
3.7350931304
21
-16.9604333362
31
0.0000000000
11
4.4757891235
21
-16.5652452928
31
0.0000000000
11
5.1250111819
21
-16.0332238522
31
0.0000000000
11
5.6582367465
21
-15.3843535403
31
0.0000000000
0
SPLINE
5
2AF
100
AcDbEntity
8
0
100
AcDbSpline
62
0
6
CONTINUOUS
70
0
71
3
72
8
73
4
74
2
42
0.0000001000
43
0.0000001000
44
0.0000000001
12
0.1559489793
22
0.2330912102
32
0.0000000000
13
0.1403481275
23
0.2428070869
33
0.0000000000
40
0.0000000000
40
0.0000000000
40
0.0000000000
40
0.0000000000
40
1.0000000000
40
1.0000000000
40
1.0000000000
40
1.0000000000
10
5.6582367465
20
-15.3843535403
30
0.0000000000
10
5.7102197396
20
-15.3066564703
30
0.0000000000
10
5.7596499195
20
-15.2272515413
30
0.0000000000
10
5.8064326287
20
-15.1463158457
30
0.0000000000
11
5.6582367465
21
-15.3843535403
31
0.0000000000
11
5.8064326287
21
-15.1463158457
31
0.0000000000
0
SPLINE
5
2B0
100
AcDbEntity
8
0
100
AcDbSpline
62
0
6
CONTINUOUS
70
0
71
3
72
9
73
5
74
3
42
0.0000001000
43
0.0000001000
44
0.0000000001
12
-0.2803891642
22
0.4855331117
32
0.0000000000
13
-0.3414274382
23
0.4447345160
33
0.0000000000
40
0.0000000000
40
0.0000000000
40
0.0000000000
40
0.0000000000
40
0.5000038445
40
1.0000000000
40
1.0000000000
40
1.0000000000
40
1.0000000000
10
5.8072939360
20
-10.8615079715
30
0.0000000000
10
5.7605620493
20
-10.7805851640
30
0.0000000000
10
5.6618070004
20
-10.6217977814
30
0.0000000000
10
5.5528459486
20
-10.4698319907
30
0.0000000000
10
5.4959418131
20
-10.3957101413
30
0.0000000000
11
5.8072939360
21
-10.8615079715
31
0.0000000000
11
5.6592547011
21
-10.6235019847
31
0.0000000000
11
5.4959418131
21
-10.3957101413
31
0.0000000000
0
SPLINE
5
2B1
100
AcDbEntity
8
0
100
AcDbSpline
62
0
6
CONTINUOUS
70
0
71
3
72
12
73
8
74
6
42
0.0000001000
43
0.0000001000
44
0.0000000001
12
-2.2183414800
22
2.8895540139
32
0.0000000000
13
-3.6345518379
23
0.2375602408
33
0.0000000000
40
0.0000000000
40
0.0000000000
40
0.0000000000
40
0.0000000000
40
0.1538958741
40
0.3846792645
40
0.6155630356
40
0.8465943673
40
1.0000000000
40
1.0000000000
40
1.0000000000
40
1.0000000000
10
5.4959418131
20
-10.3957101413
30
0.0000000000
10
5.3821439460
20
-10.2474799943
30
0.0000000000
10
5.0734619093
20
-9.8955611180
30
0.0000000000
10
4.4927744349
20
-9.4192133355
30
0.0000000000
10
3.7471847196
20
-9.0210076123
30
0.0000000000
10
3.0288413321
20
-8.8033939457
30
0.0000000000
10
2.5645753383
20
-8.7425972680
30
0.0000000000
10
2.3787217636
20
-8.7304495750
30
0.0000000000
11
5.4959418131
21
-10.3957101413
31
0.0000000000
11
5.1264843727
21
-9.9745815390
31
0.0000000000
11
4.4775240213
21
-9.4422465742
31
0.0000000000
11
3.7368331679
21
-9.0466203293
31
0.0000000000
11
2.9326342913
21
-8.8030862419
31
0.0000000000
11
2.3787217636
21
-8.7304495750
31
0.0000000000
0
SPLINE
5
2B2
100
AcDbEntity
8
0
100
AcDbSpline
62
0
6
CONTINUOUS
70
0
71
3
72
8
73
4
74
2
42
0.0000001000
43
0.0000001000
44
0.0000000001
12
-0.2785108618
22
0.0182039245
32
0.0000000000
13
-0.2786996874
23
0.0000162170
33
0.0000000000
40
0.0000000000
40
0.0000000000
40
0.0000000000
40
0.0000000000
40
1.0000000000
40
1.0000000000
40
1.0000000000
40
1.0000000000
10
2.3787217636
20
-8.7304495750
30
0.0000000000
10
2.2858848096
20
-8.7243816001
30
0.0000000000
10
2.1928998958
20
-8.7213359230
30
0.0000000000
10
2.1000000000
20
-8.7213305174
30
0.0000000000
11
2.3787217636
21
-8.7304495750
31
0.0000000000
11
2.1000000000
21
-8.7213305174
31
0.0000000000
0
SPLINE
5
2B3
100
AcDbEntity
8
0
100
AcDbSpline
62
0
6
CONTINUOUS
70
0
71
3
72
8
73
4
74
2
42
0.0000001000
43
0.0000001000
44
0.0000000001
12
0.2737747541
22
0.0000356613
32
0.0000000000
13
0.2735837628
23
0.0179915474
33
0.0000000000
40
0.0000000000
40
0.0000000000
40
0.0000000000
40
0.0000000000
40
1.0000000000
40
1.0000000000
40
1.0000000000
40
1.0000000000
10
2.1000000000
20
-17.1907473537
30
0.0000000000
10
2.1912582514
20
-17.1907354666
30
0.0000000000
10
2.2826005630
20
-17.1877229803
30
0.0000000000
10
2.3737951506
20
-17.1817257978
30
0.0000000000
11
2.1000000000
21
-17.1907473537
31
0.0000000000
11
2.3737951506
21
-17.1817257978
31
0.0000000000
0
SPLINE
5
2B4
100
AcDbEntity
8
0
100
AcDbSpline
62
0
6
CONTINUOUS
70
0
71
3
72
8
73
4
74
2
42
0.0000001000
43
0.0000001000
44
0.0000000001
12
0.2713647430
22
0.0178456192
32
0.0000000000
13
0.2698141486
23
0.0354179123
33
0.0000000000
40
0.0000000000
40
0.0000000000
40
0.0000000000
40
0.0000000000
40
1.0000000000
40
1.0000000000
40
1.0000000000
40
1.0000000000
10
2.3737951506
20
-17.1817257978
30
0.0000000000
10
2.4642500650
20
-17.1757772581
30
0.0000000000
10
2.5545596419
20
-17.1668922432
30
0.0000000000
10
2.6444976914
20
-17.1550862724
30
0.0000000000
11
2.3737951506
21
-17.1817257978
31
0.0000000000
11
2.6444976914
21
-17.1550862724
31
0.0000000000
0
SPLINE
5
2B5
100
AcDbEntity
8
0
100
AcDbSpline
62
0
6
CONTINUOUS
70
0
71
3
72
23
73
19
74
17
42
0.0000001000
43
0.0000001000
44
0.0000000001
12
11.9498170097
22
1.5686263057
32
0.0000000000
13
-11.9497001259
23
1.5699051193
33
0.0000000000
40
0.0000000000
40
0.0000000000
40
0.0000000000
40
0.0000000000
40
0.0225084465
40
0.0906484528
40
0.1588316266
40
0.2270063095
40
0.2952256671
40
0.3634652768
40
0.4317176985
40
0.4999704090
40
0.5682145285
40
0.6364447695
40
0.7046572491
40
0.7728563523
40
0.8410304214
40
0.9092294211
40
0.9774680559
40
1.0000000000
40
1.0000000000
40
1.0000000000
40
1.0000000000
10
2.6444976914
20
-17.1550862724
30
0.0000000000
10
2.7341549638
20
-17.1433171587
30
0.0000000000
10
3.0937455105
20
-17.0842290544
30
0.0000000000
10
3.7069491854
20
-16.8986408023
30
0.0000000000
10
4.4349806015
20
-16.5102103579
30
0.0000000000
10
5.0733514283
20
-15.9869536558
30
0.0000000000
10
5.5974996154
20
-15.3489943004
30
0.0000000000
10
5.9871691691
20
-14.6207121291
30
0.0000000000
10
6.2272146724
20
-13.8302449118
30
0.0000000000
10
6.3083436235
20
-13.0081095107
30
0.0000000000
10
6.2274581236
20
-12.1860414463
30
0.0000000000
10
5.9877422177
20
-11.3957219797
30
0.0000000000
10
5.5984987890
20
-10.6675351994
30
0.0000000000
10
5.0747757739
20
-10.0294813594
30
0.0000000000
10
4.4366809131
20
-9.5059204550
30
0.0000000000
10
3.7084307038
20
-9.1169203814
30
0.0000000000
10
3.0947387280
20
-8.9309813644
30
0.0000000000
10
2.7346696955
20
-8.8717626693
30
0.0000000000
10
2.6449197036
20
-8.8599716645
30
0.0000000000
11
2.6444976914
21
-17.1550862724
31
0.0000000000
11
2.9121377965
21
-17.1110860659
31
0.0000000000
11
3.6965435728
21
-16.8737947674
31
0.0000000000
11
4.4200214112
21
-16.4877499484
31
0.0000000000
11
5.0541620199
21
-15.9679913482
31
0.0000000000
11
5.5750106261
21
-15.3340501653
31
0.0000000000
11
5.9622023571
21
-14.6104155914
31
0.0000000000
11
6.2007263800
21
-13.8249707024
31
0.0000000000
11
6.2813402877
21
-13.0080713928
31
0.0000000000
11
6.2009696767
21
-12.1912519335
31
0.0000000000
11
5.9627821731
21
-11.4059836919
31
0.0000000000
11
5.5760343966
21
-10.6824817096
31
0.0000000000
11
5.0556381190
21
-10.0484842789
31
0.0000000000
11
4.4217626405
21
-9.5284140091
31
0.0000000000
11
3.6983021125
21
-9.1419326408
31
0.0000000000
11
2.9128343570
21
-8.9040553741
31
0.0000000000
11
2.6449197036
21
-8.8599716645
31
0.0000000000
0
SPLINE
5
2B6
100
AcDbEntity
8
0
100
AcDbSpline
62
0
6
CONTINUOUS
70
0
71
3
72
8
73
4
74
2
42
0.0000001000
43
0.0000001000
44
0.0000000001
12
-0.2700435555
22
0.0354772719
32
0.0000000000
13
-0.2715977447
23
0.0178734856
33
0.0000000000
40
0.0000000000
40
0.0000000000
40
0.0000000000
40
0.0000000000
40
1.0000000000
40
1.0000000000
40
1.0000000000
40
1.0000000000
10
2.6449197036
20
-8.8599716645
30
0.0000000000
10
2.5549051851
20
-8.8481459072
30
0.0000000000
10
2.4645182798
20
-8.8392461499
30
0.0000000000
10
2.3739856982
20
-8.8332883214
30
0.0000000000
11
2.6449197036
21
-8.8599716645
31
0.0000000000
11
2.3739856982
21
-8.8332883214
31
0.0000000000
0
SPLINE
5
2B7
100
AcDbEntity
8
0
100
AcDbSpline
62
0
6
CONTINUOUS
70
0
71
3
72
8
73
4
74
2
42
0.0000001000
43
0.0000001000
44
0.0000000001
12
-0.2737738423
22
0.0180166917
32
0.0000000000
13
-0.2739653503
23
0.0000321858
33
0.0000000000
40
0.0000000000
40
0.0000000000
40
0.0000000000
40
0.0000000000
40
1.0000000000
40
1.0000000000
40
1.0000000000
40
1.0000000000
10
2.3739856982
20
-8.8332883214
30
0.0000000000
10
2.2827277508
20
-8.8272827575
30
0.0000000000
10
2.1913217834
20
-8.8242664539
30
0.0000000000
10
2.1000000000
20
-8.8242557253
30
0.0000000000
11
2.3739856982
21
-8.8332883214
31
0.0000000000
11
2.1000000000
21
-8.8242557253
31
0.0000000000
0
SPLINE
5
2B8
100
AcDbEntity
8
0
100
AcDbSpline
62
0
6
CONTINUOUS
70
0
71
3
72
8
73
4
74
2
42
0.0000001000
43
0.0000001000
44
0.0000000001
12
-0.2740791303
22
-0.0000355663
32
0.0000000000
13
-0.2738874764
23
-0.0180316576
33
0.0000000000
40
0.0000000000
40
0.0000000000
40
0.0000000000
40
0.0000000000
40
1.0000000000
40
1.0000000000
40
1.0000000000
40
1.0000000000
10
-2.1000000000
20
-8.8242557253
30
0.0000000000
10
-2.1913597101
20
-8.8242675808
30
0.0000000000
10
-2.2828037625
20
-8.8272867824
30
0.0000000000
10
-2.3740995880
20
-8.8332973349
30
0.0000000000
11
-2.1000000000
21
-8.8242557253
31
0.0000000000
11
-2.3740995880
21
-8.8332973349
31
0.0000000000
0
SPLINE
5
2B9
100
AcDbEntity
8
0
100
AcDbSpline
62
0
6
CONTINUOUS
70
0
71
3
72
8
73
4
74
2
42
0.0000001000
43
0.0000001000
44
0.0000000001
12
-0.2716360921
22
-0.0178834354
32
0.0000000000
13
-0.2700806483
23
-0.0354908709
33
0.0000000000
40
0.0000000000
40
0.0000000000
40
0.0000000000
40
0.0000000000
40
1.0000000000
40
1.0000000000
40
1.0000000000
40
1.0000000000
10
-2.3740995880
20
-8.8332973349
30
0.0000000000
10
-2.4646449520
20
-8.8392584801
30
0.0000000000
10
-2.5550445160
20
-8.8481619998
30
0.0000000000
10
-2.6450713987
20
-8.8599922901
30
0.0000000000
11
-2.3740995880
21
-8.8332973349
31
0.0000000000
11
-2.6450713987
21
-8.8599922901
31
0.0000000000
0
SPLINE
5
2BA
100
AcDbEntity
8
0
100
AcDbSpline
62
0
6
CONTINUOUS
70
0
71
3
72
23
73
19
74
17
42
0.0000001000
43
0.0000001000
44
0.0000000001
12
-11.9495757884
22
-1.5702748563
32
0.0000000000
13
11.9497683117
23
-1.5684560388
33
0.0000000000
40
0.0000000000
40
0.0000000000
40
0.0000000000
40
0.0000000000
40
0.0225287494
40
0.0907175192
40
0.1589194581
40
0.2270893249
40
0.2952863809
40
0.3634961432
40
0.4317238778
40
0.4999663980
40
0.5682187171
40
0.6364717009
40
0.7047121126
40
0.7729317417
40
0.8411086180
40
0.9092869824
40
0.9774852543
40
1.0000000000
40
1.0000000000
40
1.0000000000
40
1.0000000000
10
-2.6450713987
20
-8.8599922901
30
0.0000000000
10
-2.7348077314
20
-8.8717843996
30
0.0000000000
10
-3.0946620009
20
-8.9309776215
30
0.0000000000
10
-3.7081566029
20
-9.1168327164
30
0.0000000000
10
-4.4362681332
20
-9.5056454996
30
0.0000000000
10
-5.0744083766
20
-10.0291206429
30
0.0000000000
10
-5.5981873527
20
-10.6670743732
30
0.0000000000
10
-5.9875132210
20
-11.3951774030
30
0.0000000000
10
-6.2273342353
20
-12.1854302273
30
0.0000000000
10
-6.3083425410
20
-13.0074624156
30
0.0000000000
10
-6.2273432050
20
-13.8295994028
30
0.0000000000
10
-5.9874225646
20
-14.6201032317
30
0.0000000000
10
-5.5978661491
20
-15.3484474731
30
0.0000000000
10
-5.0738134021
20
-15.9864955953
30
0.0000000000
10
-4.4355328913
20
-16.5098397851
30
0.0000000000
10
-3.7073735695
20
-16.8984931830
30
0.0000000000
10
-3.0939491012
20
-17.0841974153
30
0.0000000000
10
-2.7341037574
20
-17.1433257973
30
0.0000000000
10
-2.6444217593
20
-17.1550969269
30
0.0000000000
11
-2.6450713987
21
-8.8599922901
31
0.0000000000
11
-2.9129448667
21
-8.9040768937
31
0.0000000000
11
-3.6978437025
21
-9.1417457319
31
0.0000000000
11
-4.4213759221
21
-9.5281568940
31
0.0000000000
11
-5.0552693344
21
-10.0481174382
31
0.0000000000
11
-5.5757281215
21
-10.6820249815
31
0.0000000000
11
-5.9625565988
21
-11.4054408736
31
0.0000000000
11
-6.2008477758
21
-12.1906407332
31
0.0000000000
11
-6.2813403355
21
-13.0074236383
31
0.0000000000
11
-6.2008551194
21
-13.8243256883
31
0.0000000000
11
-5.9624542576
21
-14.6098096040
31
0.0000000000
11
-5.5753737428
21
-15.3335087236
31
0.0000000000
11
-5.0546256660
21
-15.9675299949
31
0.0000000000
11
-4.4205484669
21
-16.4873993743
31
0.0000000000
11
-3.6971883927
21
-16.8735309806
31
0.0000000000
11
-2.9121357326
21
-17.1110860952
31
0.0000000000
11
-2.6444217593
21
-17.1550969269
31
0.0000000000
0
SPLINE
5
2BB
100
AcDbEntity
8
0
100
AcDbSpline
62
0
6
CONTINUOUS
70
0
71
3
72
8
73
4
74
2
42
0.0000001000
43
0.0000001000
44
0.0000000001
12
0.2698128627
22
-0.0354140434
32
0.0000000000
13
0.2713628437
23
-0.0178406654
33
0.0000000000
40
0.0000000000
40
0.0000000000
40
0.0000000000
40
0.0000000000
40
1.0000000000
40
1.0000000000
40
1.0000000000
40
1.0000000000
10
-2.6444217593
20
-17.1550969269
30
0.0000000000
10
-2.5544841384
20
-17.1669016081
30
0.0000000000
10
-2.4641751319
20
-17.1757853207
30
0.0000000000
10
-2.3737208506
20
-17.1817322092
30
0.0000000000
11
-2.6444217593
21
-17.1550969269
31
0.0000000000
11
-2.3737208506
21
-17.1817322092
31
0.0000000000
0
SPLINE
5
2BC
100
AcDbEntity
8
0
100
AcDbSpline
62
0
6
CONTINUOUS
70
0
71
3
72
8
73
4
74
2
42
0.0000001000
43
0.0000001000
44
0.0000000001
12
0.2735096234
22
-0.0179818048
32
0.0000000000
13
0.2737005580
23
-0.0000322492
33
0.0000000000
40
0.0000000000
40
0.0000000000
40
0.0000000000
40
0.0000000000
40
1.0000000000
40
1.0000000000
40
1.0000000000
40
1.0000000000
10
-2.3737208506
20
-17.1817322092
30
0.0000000000
10
-2.2825509762
20
-17.1877261441
30
0.0000000000
10
-2.1912335193
20
-17.1907366040
30
0.0000000000
10
-2.1000000000
20
-17.1907473537
30
0.0000000000
11
-2.3737208506
21
-17.1817322092
31
0.0000000000
11
-2.1000000000
21
-17.1907473537
31
0.0000000000
0
SPLINE
5
2BD
100
AcDbEntity
8
0
100
AcDbSpline
62
0
6
CONTINUOUS
70
0
71
3
72
15
73
11
74
9
42
0.0000001000
43
0.0000001000
44
0.0000000001
12
-1.2544455271
22
0.0000000000
32
0.0000000000
13
0.0000000000
23
1.2544455271
33
0.0000000000
40
0.0000000000
40
0.0000000000
40
0.0000000000
40
0.0000000000
40
0.1249999808
40
0.2499998107
40
0.3750000467
40
0.5000001768
40
0.6250002546
40
0.7500003661
40
0.8750000750
40
1.0000000000
40
1.0000000000
40
1.0000000000
40
1.0000000000
10
-10.1001218439
20
-21.6500000000
30
0.0000000000
10
-10.1523903995
20
-21.6500000000
30
0.0000000000
10
-10.2572170823
20
-21.6396905668
30
0.0000000000
10
-10.4081911676
20
-21.5938865434
30
0.0000000000
10
-10.5473895879
20
-21.5194986094
30
0.0000000000
10
-10.6693819396
20
-21.4193816533
30
0.0000000000
10
-10.7694987989
20
-21.2973892911
30
0.0000000000
10
-10.8438866203
20
-21.1581909552
30
0.0000000000
10
-10.8896905787
20
-21.0072169847
30
0.0000000000
10
-10.9000000000
20
-20.9023903761
30
0.0000000000
10
-10.9000000000
20
-20.8501218439
30
0.0000000000
11
-10.1001218439
21
-21.6500000000
31
0.0000000000
11
-10.2561727990
21
-21.6346339156
31
0.0000000000
11
-10.4062283902
21
-21.5891226276
31
0.0000000000
11
-10.5445219306
21
-21.5152104214
31
0.0000000000
11
-10.6657360465
21
-21.4157357313
31
0.0000000000
11
-10.7652106324
21
-21.2945216148
31
0.0000000000
11
-10.8391227129
21
-21.1562281843
31
0.0000000000
11
-10.8846339293
21
-21.0061727300
31
0.0000000000
11
-10.9000000000
21
-20.8501218439
31
0.0000000000
0
SPLINE
5
2BE
100
AcDbEntity
8
0
100
AcDbSpline
62
0
6
CONTINUOUS
70
0
71
3
72
15
73
11
74
9
42
0.0000001000
43
0.0000001000
44
0.0000000001
12
0.0000000000
22
1.2544455271
32
0.0000000000
13
1.2544455271
23
0.0000000000
33
0.0000000000
40
0.0000000000
40
0.0000000000
40
0.0000000000
40
0.0000000000
40
0.1249999808
40
0.2499998107
40
0.3750000467
40
0.5000001768
40
0.6250002546
40
0.7500003661
40
0.8750000750
40
1.0000000000
40
1.0000000000
40
1.0000000000
40
1.0000000000
10
-10.9000000000
20
20.8501218439
30
0.0000000000
10
-10.9000000000
20
20.9023903995
30
0.0000000000
10
-10.8896905668
20
21.0072170823
30
0.0000000000
10
-10.8438865434
20
21.1581911676
30
0.0000000000
10
-10.7694986094
20
21.2973895879
30
0.0000000000
10
-10.6693816533
20
21.4193819396
30
0.0000000000
10
-10.5473892911
20
21.5194987989
30
0.0000000000
10
-10.4081909552
20
21.5938866203
30
0.0000000000
10
-10.2572169847
20
21.6396905787
30
0.0000000000
10
-10.1523903761
20
21.6500000000
30
0.0000000000
10
-10.1001218439
20
21.6500000000
30
0.0000000000
11
-10.9000000000
21
20.8501218439
31
0.0000000000
11
-10.8846339156
21
21.0061727990
31
0.0000000000
11
-10.8391226276
21
21.1562283902
31
0.0000000000
11
-10.7652104214
21
21.2945219306
31
0.0000000000
11
-10.6657357313
21
21.4157360465
31
0.0000000000
11
-10.5445216148
21
21.5152106324
31
0.0000000000
11
-10.4062281843
21
21.5891227129
31
0.0000000000
11
-10.2561727300
21
21.6346339293
31
0.0000000000
11
-10.1001218439
21
21.6500000000
31
0.0000000000
0
SPLINE
5
2BF
100
AcDbEntity
8
0
100
AcDbSpline
62
0
6
CONTINUOUS
70
0
71
3
72
15
73
11
74
9
42
0.0000001000
43
0.0000001000
44
0.0000000001
12
0.0000000000
22
-1.2544455271
32
0.0000000000
13
-1.2544455271
23
0.0000000000
33
0.0000000000
40
0.0000000000
40
0.0000000000
40
0.0000000000
40
0.0000000000
40
0.1249999808
40
0.2499998107
40
0.3750000467
40
0.5000001768
40
0.6250002546
40
0.7500003661
40
0.8750000750
40
1.0000000000
40
1.0000000000
40
1.0000000000
40
1.0000000000
10
10.9000000000
20
-20.8501218439
30
0.0000000000
10
10.9000000000
20
-20.9023903995
30
0.0000000000
10
10.8896905668
20
-21.0072170823
30
0.0000000000
10
10.8438865434
20
-21.1581911676
30
0.0000000000
10
10.7694986094
20
-21.2973895879
30
0.0000000000
10
10.6693816533
20
-21.4193819396
30
0.0000000000
10
10.5473892911
20
-21.5194987989
30
0.0000000000
10
10.4081909552
20
-21.5938866203
30
0.0000000000
10
10.2572169847
20
-21.6396905787
30
0.0000000000
10
10.1523903761
20
-21.6500000000
30
0.0000000000
10
10.1001218439
20
-21.6500000000
30
0.0000000000
11
10.9000000000
21
-20.8501218439
31
0.0000000000
11
10.8846339156
21
-21.0061727990
31
0.0000000000
11
10.8391226276
21
-21.1562283902
31
0.0000000000
11
10.7652104214
21
-21.2945219306
31
0.0000000000
11
10.6657357313
21
-21.4157360465
31
0.0000000000
11
10.5445216148
21
-21.5152106324
31
0.0000000000
11
10.4062281843
21
-21.5891227129
31
0.0000000000
11
10.2561727300
21
-21.6346339293
31
0.0000000000
11
10.1001218439
21
-21.6500000000
31
0.0000000000
0
SPLINE
5
2C0
100
AcDbEntity
8
0
100
AcDbSpline
62
0
6
CONTINUOUS
70
0
71
3
72
15
73
11
74
9
42
0.0000001000
43
0.0000001000
44
0.0000000001
12
1.2544455271
22
0.0000000000
32
0.0000000000
13
-0.0000000000
23
-1.2544455271
33
0.0000000000
40
0.0000000000
40
0.0000000000
40
0.0000000000
40
0.0000000000
40
0.1249999808
40
0.2499998107
40
0.3750000467
40
0.5000001768
40
0.6250002546
40
0.7500003661
40
0.8750000750
40
1.0000000000
40
1.0000000000
40
1.0000000000
40
1.0000000000
10
10.1001218439
20
21.6500000000
30
0.0000000000
10
10.1523903995
20
21.6500000000
30
0.0000000000
10
10.2572170823
20
21.6396905668
30
0.0000000000
10
10.4081911676
20
21.5938865434
30
0.0000000000
10
10.5473895879
20
21.5194986094
30
0.0000000000
10
10.6693819396
20
21.4193816533
30
0.0000000000
10
10.7694987989
20
21.2973892911
30
0.0000000000
10
10.8438866203
20
21.1581909552
30
0.0000000000
10
10.8896905787
20
21.0072169847
30
0.0000000000
10
10.9000000000
20
20.9023903761
30
0.0000000000
10
10.9000000000
20
20.8501218439
30
0.0000000000
11
10.1001218439
21
21.6500000000
31
0.0000000000
11
10.2561727990
21
21.6346339156
31
0.0000000000
11
10.4062283902
21
21.5891226276
31
0.0000000000
11
10.5445219306
21
21.5152104214
31
0.0000000000
11
10.6657360465
21
21.4157357313
31
0.0000000000
11
10.7652106324
21
21.2945216148
31
0.0000000000
11
10.8391227129
21
21.1562281843
31
0.0000000000
11
10.8846339293
21
21.0061727300
31
0.0000000000
11
10.9000000000
21
20.8501218439
31
0.0000000000
0
SPLINE
5
2C1
100
AcDbEntity
8
0
100
AcDbSpline
62
0
6
CONTINUOUS
70
0
71
3
72
8
73
4
74
2
42
0.0000001000
43
0.0000001000
44
0.0000000001
12
-0.0671033182
22
-0.0000000000
32
0.0000000000
13
-0.0641927601
23
-0.0225095105
33
0.0000000000
40
0.0000000000
40
0.0000000000
40
0.0000000000
40
0.0000000000
40
1.0000000000
40
1.0000000000
40
1.0000000000
40
1.0000000000
10
6.0600582547
20
-11.0000000000
30
0.0000000000
10
6.0376904820
20
-11.0000000000
30
0.0000000000
10
6.0150559130
20
-11.0039100122
30
0.0000000000
10
5.9936583263
20
-11.0114131824
30
0.0000000000
11
6.0600582547
21
-11.0000000000
31
0.0000000000
11
5.9936583263
21
-11.0114131824
31
0.0000000000
0
SPLINE
5
2C2
100
AcDbEntity
8
0
100
AcDbSpline
62
0
6
CONTINUOUS
70
0
71
3
72
9
73
5
74
3
42
0.0000001000
43
0.0000001000
44
0.0000000001
12
-0.0791956189
22
-0.0277703375
32
0.0000000000
13
-0.0607350194
23
-0.0575189094
33
0.0000000000
40
0.0000000000
40
0.0000000000
40
0.0000000000
40
0.0000000000
40
0.3829415685
40
1.0000000000
40
1.0000000000
40
1.0000000000
40
1.0000000000
10
5.9936583263
20
-11.0114131824
30
0.0000000000
10
5.9835492282
20
-11.0149579879
30
0.0000000000
10
5.9578716734
20
-11.0263090678
30
0.0000000000
10
5.9351582117
20
-11.0429012862
30
0.0000000000
10
5.9226658597
20
-11.0547321289
30
0.0000000000
11
5.9936583263
21
-11.0114131824
31
0.0000000000
11
5.9643178892
21
-11.0244201714
31
0.0000000000
11
5.9226658597
21
-11.0547321289
31
0.0000000000
0
SPLINE
5
2C3
100
AcDbEntity
8
0
100
AcDbSpline
62
0
6
CONTINUOUS
70
0
71
3
72
9
73
5
74
3
42
0.0000001000
43
0.0000001000
44
0.0000000001
12
0.1099733055
22
-0.1041268838
32
0.0000000000
13
0.1499032161
23
-0.0000000000
33
0.0000000000
40
0.0000000000
40
0.0000000000
40
0.0000000000
40
0.0000000000
40
0.3465134997
40
1.0000000000
40
1.0000000000
40
1.0000000000
40
1.0000000000
10
5.9226738627
20
-14.9452753461
30
0.0000000000
10
5.9353762744
20
-14.9573024698
30
0.0000000000
10
5.9765759058
20
-14.9872593700
30
0.0000000000
10
6.0274050120
20
-15.0000000000
30
0.0000000000
10
6.0600582547
20
-15.0000000000
30
0.0000000000
11
5.9226738627
21
-14.9452753461
31
0.0000000000
11
5.9650849578
21
-14.9759962253
31
0.0000000000
11
6.0600582547
21
-15.0000000000
31
0.0000000000
0
SPLINE
5
2C4
100
AcDbEntity
8
0
100
AcDbSpline
62
0
6
CONTINUOUS
70
0
71
3
72
9
73
5
74
3
42
0.0000001000
43
0.0000001000
44
0.0000000001
12
0.1498897384
22
0.0000000000
32
0.0000000000
13
0.1099643655
23
0.1041414069
33
0.0000000000
40
0.0000000000
40
0.0000000000
40
0.0000000000
40
0.0000000000
40
0.6591890869
40
1.0000000000
40
1.0000000000
40
1.0000000000
40
1.0000000000
10
-6.0600582547
20
-15.0000000000
30
0.0000000000
10
-6.0271230281
20
-15.0000000000
30
0.0000000000
10
-5.9762822853
20
-14.9871399122
30
0.0000000000
10
-5.9351582117
20
-14.9570987138
30
0.0000000000
10
-5.9226658597
20
-14.9452678711
30
0.0000000000
11
-6.0600582547
21
-15.0000000000
31
0.0000000000
11
-5.9643178892
21
-14.9755798286
31
0.0000000000
11
-5.9226658597
21
-14.9452678711
31
0.0000000000
0
SPLINE
5
2C5
100
AcDbEntity
8
0
100
AcDbSpline
62
0
6
CONTINUOUS
70
0
71
3
72
9
73
5
74
3
42
0.0000001000
43
0.0000001000
44
0.0000000001
12
-0.1099733055
22
0.1041268838
32
0.0000000000
13
-0.1499032161
23
0.0000000000
33
0.0000000000
40
0.0000000000
40
0.0000000000
40
0.0000000000
40
0.0000000000
40
0.3465134997
40
1.0000000000
40
1.0000000000
40
1.0000000000
40
1.0000000000
10
-5.9226738627
20
-11.0547246539
30
0.0000000000
10
-5.9353762744
20
-11.0426975302
30
0.0000000000
10
-5.9765759058
20
-11.0127406300
30
0.0000000000
10
-6.0274050120
20
-11.0000000000
30
0.0000000000
10
-6.0600582547
20
-11.0000000000
30
0.0000000000
11
-5.9226738627
21
-11.0547246539
31
0.0000000000
11
-5.9650849578
21
-11.0240037747
31
0.0000000000
11
-6.0600582547
21
-11.0000000000
31
0.0000000000
0
SPLINE
5
2C6
100
AcDbEntity
8
0
100
AcDbSpline
62
0
6
CONTINUOUS
70
0
71
3
72
11
73
7
74
5
42
0.0000001000
43
0.0000001000
44
0.0000000001
12
-0.0003802072
22
1.2482731391
32
0.0000000000
13
-1.2482731391
23
0.0003802072
33
0.0000000000
40
0.0000000000
40
0.0000000000
40
0.0000000000
40
0.0000000000
40
0.2499896497
40
0.4999999321
40
0.7500102498
40
1.0000000000
40
1.0000000000
40
1.0000000000
40
1.0000000000
10
10.8013450129
20
20.7514668568
30
0.0000000000
10
10.8013133303
20
20.8554853117
30
0.0000000000
10
10.7596348766
20
21.0657925431
30
0.0000000000
10
10.5816138030
20
21.3316136984
30
0.0000000000
10
10.3157926440
20
21.5096348475
30
0.0000000000
10
10.1054853535
20
21.5513133303
30
0.0000000000
10
10.0014668568
20
21.5513450129
30
0.0000000000
11
10.8013450129
21
20.7514668568
31
0.0000000000
11
10.7403880292
21
21.0575106541
31
0.0000000000
11
10.5669800689
21
21.3169799467
31
0.0000000000
11
10.3075107722
21
21.4903879802
31
0.0000000000
11
10.0014668568
21
21.5513450129
31
0.0000000000
0
SPLINE
5
2C7
100
AcDbEntity
8
0
100
AcDbSpline
62
0
6
CONTINUOUS
70
0
71
3
72
18
73
14
74
12
42
0.0000001000
43
0.0000001000
44
0.0000000001
12
-0.5918284763
22
-1.2678386772
32
0.0000000000
13
-0.0007672283
23
-1.3991694923
33
0.0000000000
40
0.0000000000
40
0.0000000000
40
0.0000000000
40
0.0000000000
40
0.0090453641
40
0.0353272451
40
0.0826998006
40
0.1531492676
40
0.2462670014
40
0.3590256829
40
0.4861017406
40
0.6207170773
40
0.7556674969
40
0.8841254914
40
1.0000000000
40
1.0000000000
40
1.0000000000
40
1.0000000000
10
10.0014668568
20
21.5513450129
30
0.0000000000
10
9.9996824221
20
21.5475223254
30
0.0000000000
10
10.0008098053
20
21.5302776694
30
0.0000000000
10
9.9972718616
20
21.4925143979
30
0.0000000000
10
9.9971227931
20
21.4248390272
30
0.0000000000
10
9.9949750700
20
21.3266996916
30
0.0000000000
10
9.9937986081
20
21.1977389535
30
0.0000000000
10
9.9924249871
20
21.0424915926
30
0.0000000000
10
9.9913853000
20
20.8678443434
30
0.0000000000
10
9.9905517750
20
20.6828595229
30
0.0000000000
10
9.9899787373
20
20.4972252546
30
0.0000000000
10
9.9896315066
20
20.3203320555
30
0.0000000000
10
9.9895187871
20
20.2063778384
30
0.0000000000
10
9.9894891530
20
20.1523351459
30
0.0000000000
11
10.0014668568
21
21.5513450129
31
0.0000000000
11
10.0000867529
21
21.5387644868
31
0.0000000000
11
9.9985656308
21
21.5020231497
31
0.0000000000
11
9.9969724374
21
21.4357600555
31
0.0000000000
11
9.9953856287
21
21.3372020688
31
0.0000000000
11
9.9938877867
21
21.2069231671
31
0.0000000000
11
9.9925555703
21
21.0491602611
31
0.0000000000
11
9.9914478930
21
20.8713627415
31
0.0000000000
11
9.9905969645
21
20.6830149632
31
0.0000000000
11
9.9900056334
21
20.4941973506
31
0.0000000000
11
9.9896506588
21
20.3144631672
31
0.0000000000
11
9.9894891530
21
20.1523351459
31
0.0000000000
0
SPLINE
5
2C8
100
AcDbEntity
8
0
100
AcDbSpline
62
0
6
CONTINUOUS
70
0
71
3
72
18
73
14
74
12
42
0.0000001000
43
0.0000001000
44
0.0000000001
12
-0.4619023147
22
-0.4618788824
32
0.0000000000
13
-0.0007676943
23
-0.6532114979
33
0.0000000000
40
0.0000000000
40
0.0000000000
40
0.0000000000
40
0.0000000000
40
0.0092323379
40
0.0355781179
40
0.0829665137
40
0.1533985093
40
0.2464777768
40
0.3591912291
40
0.4862270049
40
0.6208110910
40
0.7557357756
40
0.8841654698
40
1.0000000000
40
1.0000000000
40
1.0000000000
40
1.0000000000
10
10.8013450129
20
20.7514668568
30
0.0000000000
10
10.7999235335
20
20.7500454495
30
0.0000000000
10
10.8001869039
20
20.7412788051
30
0.0000000000
10
10.7975032368
20
20.7243176112
30
0.0000000000
10
10.7968239238
20
20.6923140003
30
0.0000000000
10
10.7949286960
20
20.6467248527
30
0.0000000000
10
10.7936500061
20
20.5864726284
30
0.0000000000
10
10.7923127699
20
20.5140588777
30
0.0000000000
10
10.7912611500
20
20.4325450319
30
0.0000000000
10
10.7904309159
20
20.3462104941
30
0.0000000000
10
10.7898567921
20
20.2595651047
30
0.0000000000
10
10.7895097499
20
20.1770024808
30
0.0000000000
10
10.7893969510
20
20.1238170678
30
0.0000000000
10
10.7893673092
20
20.0985955855
30
0.0000000000
11
10.8013450129
21
20.7514668568
31
0.0000000000
11
10.7999649916
21
20.7455962040
31
0.0000000000
11
10.7984440269
21
20.7284541690
31
0.0000000000
11
10.7968510357
21
20.6975405191
31
0.0000000000
11
10.7952644047
21
20.6515608649
31
0.0000000000
11
10.7937666344
21
20.5907788262
31
0.0000000000
11
10.7924343514
21
20.5171651073
31
0.0000000000
11
10.7913265001
21
20.4341912162
31
0.0000000000
11
10.7904753758
21
20.3462834032
31
0.0000000000
11
10.7898838871
21
20.2581509719
31
0.0000000000
11
10.7895288410
21
20.1742599123
31
0.0000000000
11
10.7893673092
21
20.0985955855
31
0.0000000000
0
SPLINE
5
2C9
100
AcDbEntity
8
0
100
AcDbSpline
62
0
6
CONTINUOUS
70
0
71
3
72
8
73
4
74
2
42
0.0000001000
43
0.0000001000
44
0.0000000001
12
-0.3644903123
22
0.0000506999
32
0.0000000000
13
-0.3640988977
23
0.0299384335
33
0.0000000000
40
0.0000000000
40
0.0000000000
40
0.0000000000
40
0.0000000000
40
1.0000000000
40
1.0000000000
40
1.0000000000
40
1.0000000000
10
-2.1000000000
20
-17.4558902419
30
0.0000000000
10
-2.2214967708
20
-17.4558733420
30
0.0000000000
10
-2.3431686756
20
-17.4508521847
30
0.0000000000
10
-2.4645349749
20
-17.4408727069
30
0.0000000000
11
-2.1000000000
21
-17.4558902419
31
0.0000000000
11
-2.4645349749
21
-17.4408727069
31
0.0000000000
0
SPLINE
5
2CA
100
AcDbEntity
8
0
100
AcDbSpline
62
0
6
CONTINUOUS
70
0
71
3
72
11
73
7
74
5
42
0.0000001000
43
0.0000001000
44
0.0000000001
12
-3.9862970251
22
0.3277776698
32
0.0000000000
13
-2.2319294916
23
3.3199310111
33
0.0000000000
40
0.0000000000
40
0.0000000000
40
0.0000000000
40
0.0000000000
40
0.1823105389
40
0.4559017142
40
0.7283181092
40
1.0000000000
40
1.0000000000
40
1.0000000000
40
1.0000000000
10
-2.4645349749
20
-17.4408727069
30
0.0000000000
10
-2.7067829612
20
-17.4209535990
30
0.0000000000
10
-3.3095248073
20
-17.3217431290
30
0.0000000000
10
-4.2220701719
20
-16.9695548329
30
0.0000000000
10
-5.1207518794
20
-16.3375274131
30
0.0000000000
10
-5.5992674436
20
-15.7850029986
30
0.0000000000
10
-5.8013923851
20
-15.4843479537
30
0.0000000000
11
-2.4645349749
21
-17.4408727069
31
0.0000000000
11
-3.1838033664
21
-17.3222181784
31
0.0000000000
11
-4.2024441439
21
-16.9293157737
31
0.0000000000
11
-5.0916095071
21
-16.3038786977
31
0.0000000000
11
-5.8013923851
21
-15.4843479537
31
0.0000000000
0
SPLINE
5
2CB
100
AcDbEntity
8
0
100
AcDbSpline
62
0
6
CONTINUOUS
70
0
71
3
72
12
73
8
74
6
42
0.0000001000
43
0.0000001000
44
0.0000000001
12
-2.6329811757
22
3.9164838718
32
0.0000000000
13
2.1231393142
23
4.2149475905
33
0.0000000000
40
0.0000000000
40
0.0000000000
40
0.0000000000
40
0.0000000000
40
0.2313846098
40
0.4614503890
40
0.6930019725
40
0.9228953370
40
1.0000000000
40
1.0000000000
40
1.0000000000
40
1.0000000000
10
-5.8013923851
20
-15.4843479537
30
0.0000000000
10
-6.0044694925
20
-15.1822765895
30
0.0000000000
10
-6.3353630530
20
-14.5299987612
30
0.0000000000
10
-6.5806611754
20
-13.4595039651
30
0.0000000000
10
-6.5597866921
20
-12.3636232156
30
0.0000000000
10
-6.3377009295
20
-11.5395717749
30
0.0000000000
10
-6.1380054576
20
-11.0994029907
30
0.0000000000
10
-6.0834374772
20
-10.9910722862
30
0.0000000000
11
-5.8013923851
21
-15.4843479537
31
0.0000000000
11
-6.2941798475
21
-14.5129143305
31
0.0000000000
11
-6.5360874513
21
-13.4572077908
31
0.0000000000
11
-6.5153291901
21
-12.3673431494
31
0.0000000000
11
-6.2337043329
21
-11.3223716160
31
0.0000000000
11
-6.0834374772
21
-10.9910722862
31
0.0000000000
0
SPLINE
5
2CC
100
AcDbEntity
8
0
100
AcDbSpline
62
0
6
CONTINUOUS
70
0
71
3
72
8
73
4
74
2
42
0.0000001000
43
0.0000001000
44
0.0000000001
12
0.1640797555
22
0.3257381960
32
0.0000000000
13
0.1900824837
23
0.3112806191
33
0.0000000000
40
0.0000000000
40
0.0000000000
40
0.0000000000
40
0.0000000000
40
1.0000000000
40
1.0000000000
40
1.0000000000
40
1.0000000000
10
-6.0834374772
20
-10.9910722862
30
0.0000000000
10
-6.0287442254
20
-10.8824928875
30
0.0000000000
10
-5.9696175968
20
-10.7761444053
30
0.0000000000
10
-5.9062567689
20
-10.6723841989
30
0.0000000000
11
-6.0834374772
21
-10.9910722862
31
0.0000000000
11
-5.9062567689
21
-10.6723841989
31
0.0000000000
0
SPLINE
5
2CD
100
AcDbEntity
8
0
100
AcDbSpline
62
0
6
CONTINUOUS
70
0
71
3
72
8
73
4
74
2
42
0.0000001000
43
0.0000001000
44
0.0000000001
12
0.1896781229
22
0.3106184346
32
0.0000000000
13
0.2143816188
23
0.2940895307
33
0.0000000000
40
0.0000000000
40
0.0000000000
40
0.0000000000
40
0.0000000000
40
1.0000000000
40
1.0000000000
40
1.0000000000
40
1.0000000000
10
-5.9062567689
20
-10.6723841989
30
0.0000000000
10
-5.8430307280
20
-10.5688447207
30
0.0000000000
10
-5.7755884832
20
-10.4678825181
30
0.0000000000
10
-5.7041279436
20
-10.3698526745
30
0.0000000000
11
-5.9062567689
21
-10.6723841989
31
0.0000000000
11
-5.7041279436
21
-10.3698526745
31
0.0000000000
0
SPLINE
5
2CE
100
AcDbEntity
8
0
100
AcDbSpline
62
0
6
CONTINUOUS
70
0
71
3
72
11
73
7
74
5
42
0.0000001000
43
0.0000001000
44
0.0000000001
12
2.2883283359
22
3.1391376282
32
0.0000000000
13
3.8721567186
23
0.2716820575
33
0.0000000000
40
0.0000000000
40
0.0000000000
40
0.0000000000
40
0.0000000000
40
0.2794150546
40
0.5609371053
40
0.8319255920
40
1.0000000000
40
1.0000000000
40
1.0000000000
40
1.0000000000
10
-5.7041279436
20
-10.3698526745
30
0.0000000000
10
-5.4909968146
20
-10.0774785705
30
0.0000000000
10
-4.9913698806
20
-9.5428908391
30
0.0000000000
10
-4.0802473863
20
-8.9526966678
30
0.0000000000
10
-3.1930552292
20
-8.6445147539
30
0.0000000000
10
-2.6284875219
20
-8.5633706539
30
0.0000000000
10
-2.4115507058
20
-8.5481497203
30
0.0000000000
11
-5.7041279436
21
-10.3698526745
31
0.0000000000
11
-4.9647841762
21
-9.5788030450
31
0.0000000000
11
-4.0492005857
21
-8.9856391282
31
0.0000000000
11
-3.0572082305
21
-8.6411211467
31
0.0000000000
11
-2.4115507058
21
-8.5481497203
31
0.0000000000
0
SPLINE
5
2CF
100
AcDbEntity
8
0
100
AcDbSpline
62
0
6
CONTINUOUS
70
0
71
3
72
8
73
4
74
2
42
0.0000001000
43
0.0000001000
44
0.0000000001
12
0.3112837659
22
0.0218405969
32
0.0000000000
13
0.3115225998
23
0.0000257504
33
0.0000000000
40
0.0000000000
40
0.0000000000
40
0.0000000000
40
0.0000000000
40
1.0000000000
40
1.0000000000
40
1.0000000000
40
1.0000000000
10
-2.4115507058
20
-8.5481497203
30
0.0000000000
10
-2.3077894505
20
-8.5408695213
30
0.0000000000
10
-2.2038408666
20
-8.5372133625
30
0.0000000000
10
-2.1000000000
20
-8.5372047791
30
0.0000000000
11
-2.4115507058
21
-8.5481497203
31
0.0000000000
11
-2.1000000000
21
-8.5372047791
31
0.0000000000
0
SPLINE
5
2D0
100
AcDbEntity
8
0
100
AcDbSpline
62
0
6
CONTINUOUS
70
0
71
3
72
8
73
4
74
2
42
0.0000001000
43
0.0000001000
44
0.0000000001
12
0.3649292597
22
-0.0000506831
32
0.0000000000
13
0.3645364113
23
-0.0300109237
33
0.0000000000
40
0.0000000000
40
0.0000000000
40
0.0000000000
40
0.0000000000
40
1.0000000000
40
1.0000000000
40
1.0000000000
40
1.0000000000
10
2.1000000000
20
-8.5372047791
30
0.0000000000
10
2.2216430866
20
-8.5372216734
30
0.0000000000
10
2.3434619506
20
-8.5422550338
30
0.0000000000
10
2.4649740877
20
-8.5522586751
30
0.0000000000
11
2.1000000000
21
-8.5372047791
31
0.0000000000
11
2.4649740877
21
-8.5522586751
31
0.0000000000
0
SPLINE
5
2D1
100
AcDbEntity
8
0
100
AcDbSpline
62
0
6
CONTINUOUS
70
0
71
3
72
11
73
7
74
5
42
0.0000001000
43
0.0000001000
44
0.0000000001
12
3.9889330877
22
-0.3283939900
32
0.0000000000
13
2.2310923829
23
-3.3236910842
33
0.0000000000
40
0.0000000000
40
0.0000000000
40
0.0000000000
40
0.0000000000
40
0.1823883025
40
0.4560331550
40
0.7284390669
40
1.0000000000
40
1.0000000000
40
1.0000000000
40
1.0000000000
10
2.4649740877
20
-8.5522586751
30
0.0000000000
10
2.7074856659
20
-8.5722237492
30
0.0000000000
10
3.3107928205
20
-8.6716433567
30
0.0000000000
10
4.2239746348
20
-9.0244816834
30
0.0000000000
10
5.1228201078
20
-9.6573868294
30
0.0000000000
10
5.6011684772
20
-10.2104684800
30
0.0000000000
10
5.8031276537
20
-10.5113300308
30
0.0000000000
11
2.4649740877
21
-8.5522586751
31
0.0000000000
11
3.1850079568
21
-8.6711787318
31
0.0000000000
11
4.2043737289
21
-9.0648111390
31
0.0000000000
11
5.0937399565
21
-9.6911440936
31
0.0000000000
11
5.8031276537
21
-10.5113300308
31
0.0000000000
0
SPLINE
5
2D2
100
AcDbEntity
8
0
100
AcDbSpline
62
0
6
CONTINUOUS
70
0
71
3
72
8
73
4
74
2
42
0.0000001000
43
0.0000001000
44
0.0000000001
12
0.2027483888
22
-0.3020372520
32
0.0000000000
13
0.1774430956
23
-0.3175816561
33
0.0000000000
40
0.0000000000
40
0.0000000000
40
0.0000000000
40
0.0000000000
40
1.0000000000
40
1.0000000000
40
1.0000000000
40
1.0000000000
10
5.8031276537
20
-10.5113300308
30
0.0000000000
10
5.8707104500
20
-10.6120091148
30
0.0000000000
10
5.9341674686
20
-10.7154597665
30
0.0000000000
10
5.9933151672
20
-10.8213203186
30
0.0000000000
11
5.8031276537
21
-10.5113300308
31
0.0000000000
11
5.9933151672
21
-10.8213203186
31
0.0000000000
0
SPLINE
5
2D3
100
AcDbEntity
8
0
100
AcDbSpline
62
0
6
CONTINUOUS
70
0
71
3
72
8
73
4
74
2
42
0.0000001000
43
0.0000001000
44
0.0000000001
12
0.0928747716
22
-0.1662241276
32
0.0000000000
13
0.0857124904
23
-0.1700297581
33
0.0000000000
40
0.0000000000
40
0.0000000000
40
0.0000000000
40
0.0000000000
40
1.0000000000
40
1.0000000000
40
1.0000000000
40
1.0000000000
10
5.9933151672
20
-10.8213203186
30
0.0000000000
10
6.0242734244
20
-10.8767283611
30
0.0000000000
10
6.0540511270
20
-10.9327966050
30
0.0000000000
10
6.0826219571
20
-10.9894731910
30
0.0000000000
11
5.9933151672
21
-10.8213203186
31
0.0000000000
11
6.0826219571
21
-10.9894731910
31
0.0000000000
0
SPLINE
5
2D4
100
AcDbEntity
8
0
100
AcDbSpline
62
0
6
CONTINUOUS
70
0
71
3
72
12
73
8
74
6
42
0.0000001000
43
0.0000001000
44
0.0000000001
12
2.0394852898
22
-4.0457719635
32
0.0000000000
13
-2.3646000925
23
-3.8647626637
33
0.0000000000
40
0.0000000000
40
0.0000000000
40
0.0000000000
40
0.0000000000
40
0.1186344125
40
0.3582420548
40
0.5994891282
40
0.8390864622
40
1.0000000000
40
1.0000000000
40
1.0000000000
40
1.0000000000
10
6.0826219571
20
-10.9894731910
30
0.0000000000
10
6.1632730035
20
-11.1494624510
30
0.0000000000
10
6.3777758050
20
-11.6472225524
30
0.0000000000
10
6.5809475193
20
-12.5363542505
30
0.0000000000
10
6.5593988175
20
-13.6324338627
30
0.0000000000
10
6.3046706513
20
-14.5749703172
30
0.0000000000
10
6.0310746212
20
-15.1167074843
30
0.0000000000
10
5.9042425658
20
-15.3240050287
30
0.0000000000
11
6.0826219571
21
-10.9894731910
31
0.0000000000
11
6.2951323672
21
-11.4828171128
31
0.0000000000
11
6.5363567373
21
-12.5384870483
31
0.0000000000
11
6.5149272371
21
-13.6285652453
31
0.0000000000
11
6.2324177511
21
-14.6738956737
31
0.0000000000
11
5.9042425658
21
-15.3240050287
31
0.0000000000
0
SPLINE
5
2D5
100
AcDbEntity
8
0
100
AcDbSpline
62
0
6
CONTINUOUS
70
0
71
3
72
8
73
4
74
2
42
0.0000001000
43
0.0000001000
44
0.0000000001
12
-0.1900274111
22
-0.3105856445
32
0.0000000000
13
-0.2147369222
23
-0.2940206220
33
0.0000000000
40
0.0000000000
40
0.0000000000
40
0.0000000000
40
0.0000000000
40
1.0000000000
40
1.0000000000
40
1.0000000000
40
1.0000000000
10
5.9042425658
20
-15.3240050287
30
0.0000000000
10
5.8409000954
20
-15.4275335768
30
0.0000000000
10
5.7733401300
20
-15.5284789822
30
0.0000000000
10
5.7017611559
20
-15.6264858562
30
0.0000000000
11
5.9042425658
21
-15.3240050287
31
0.0000000000
11
5.7017611559
21
-15.6264858562
31
0.0000000000
0
SPLINE
5
2D6
100
AcDbEntity
8
0
100
AcDbSpline
62
0
6
CONTINUOUS
70
0
71
3
72
8
73
4
74
2
42
0.0000001000
43
0.0000001000
44
0.0000000001
12
-0.0112685953
22
-0.0154291091
32
0.0000000000
13
-0.0113348804
23
-0.0153804292
33
0.0000000000
40
0.0000000000
40
0.0000000000
40
0.0000000000
40
0.0000000000
40
1.0000000000
40
1.0000000000
40
1.0000000000
40
1.0000000000
10
5.7017611559
20
-15.6264858562
30
0.0000000000
10
5.6980049575
20
-15.6316288926
30
0.0000000000
10
5.6942376916
20
-15.6367638370
30
0.0000000000
10
5.6904593982
20
-15.6418906467
30
0.0000000000
11
5.7017611559
21
-15.6264858562
31
0.0000000000
11
5.6904593982
21
-15.6418906467
31
0.0000000000
0
SPLINE
5
2D7
100
AcDbEntity
8
0
100
AcDbSpline
62
0
6
CONTINUOUS
70
0
71
3
72
11
73
7
74
5
42
0.0000001000
43
0.0000001000
44
0.0000000001
12
-2.2913450720
22
-3.1091524152
32
0.0000000000
13
-3.8498443895
23
-0.2695004444
33
0.0000000000
40
0.0000000000
40
0.0000000000
40
0.0000000000
40
0.0000000000
40
0.2760940517
40
0.5591506045
40
0.8312874549
40
1.0000000000
40
1.0000000000
40
1.0000000000
40
1.0000000000
10
5.6904593982
20
-15.6418906467
30
0.0000000000
10
5.4795838166
20
-15.9280301425
30
0.0000000000
10
4.9829458807
20
-16.4562069091
30
0.0000000000
10
4.0772713988
20
-17.0417633776
30
0.0000000000
10
3.1909591748
20
-17.3490070942
30
0.0000000000
10
2.6273513910
20
-17.4298389447
30
0.0000000000
10
2.4108457093
20
-17.4449949800
30
0.0000000000
11
5.6904593982
21
-15.6418906467
31
0.0000000000
11
4.9616893922
21
-16.4168829351
31
0.0000000000
11
4.0459122091
21
-17.0090518677
31
0.0000000000
11
3.0552416893
21
-17.3524054811
31
0.0000000000
11
2.4108457093
21
-17.4449949800
31
0.0000000000
0
SPLINE
5
2D8
100
AcDbEntity
8
0
100
AcDbSpline
62
0
6
CONTINUOUS
70
0
71
3
72
8
73
4
74
2
42
0.0000001000
43
0.0000001000
44
0.0000000001
12
-0.3105806200
22
-0.0217415580
32
0.0000000000
13
-0.3108177720
23
-0.0000256491
33
0.0000000000
40
0.0000000000
40
0.0000000000
40
0.0000000000
40
0.0000000000
40
1.0000000000
40
1.0000000000
40
1.0000000000
40
1.0000000000
10
2.4108457093
20
-17.4449949800
30
0.0000000000
10
2.3073188359
20
-17.4522421660
30
0.0000000000
10
2.2036059240
20
-17.4558816922
30
0.0000000000
10
2.1000000000
20
-17.4558902419
30
0.0000000000
11
2.4108457093
21
-17.4449949800
31
0.0000000000
11
2.1000000000
21
-17.4558902419
31
0.0000000000
0
SPLINE
5
2D9
100
AcDbEntity
8
0
100
AcDbSpline
62
0
6
CONTINUOUS
70
0
71
3
72
20
73
16
74
14
42
0.0000001000
43
0.0000001000
44
0.0000000001
12
-14.2919382065
22
0.0039826755
32
0.0000000000
13
14.2919385660
23
0.0023633803
33
0.0000000000
40
0.0000000000
40
0.0000000000
40
0.0000000000
40
0.0000000000
40
0.0780437453
40
0.1561585363
40
0.2339465647
40
0.3115321794
40
0.3894922930
40
0.4670149779
40
0.5450427849
40
0.6225103202
40
0.7005121862
40
0.7779986729
40
0.8560550672
40
0.9311697947
40
1.0000000000
40
1.0000000000
40
1.0000000000
40
1.0000000000
10
-2.1000000000
20
-17.5617289211
30
0.0000000000
10
-2.4717987951
20
-17.5616253134
30
0.0000000000
10
-3.2189482803
20
-17.4698826610
30
0.0000000000
10
-4.2687762707
20
-17.0647491352
30
0.0000000000
10
-5.1878745231
20
-16.4184774271
30
0.0000000000
10
-5.9228000785
20
-15.5698495466
30
0.0000000000
10
-6.4301765807
20
-14.5696694970
30
0.0000000000
10
-6.6811072284
20
-13.4745941029
30
0.0000000000
10
-6.6597848650
20
-12.3535036778
30
0.0000000000
10
-6.3675106796
20
-11.2688191709
30
0.0000000000
10
-5.8228227796
20
-10.2890513941
30
0.0000000000
10
-5.0556514451
20
-9.4681379657
30
0.0000000000
10
-4.1239449231
20
-8.8646745939
30
0.0000000000
10
-3.1158549380
20
-8.5145181846
30
0.0000000000
10
-2.4279056886
20
-8.4400875780
30
0.0000000000
10
-2.1000000000
20
-8.4400333540
30
0.0000000000
11
-2.1000000000
21
-17.5617289211
31
0.0000000000
11
-3.2070206913
21
-17.4252943879
31
0.0000000000
11
-4.2486732284
21
-17.0236287081
31
0.0000000000
11
-5.1580334900
21
-16.3840713547
31
0.0000000000
11
-5.8839763420
21
-15.5458871529
31
0.0000000000
11
-6.3880386071
21
-14.5522244933
31
0.0000000000
11
-6.6355113737
21
-13.4722665099
31
0.0000000000
11
-6.6143058173
21
-12.3572995071
31
0.0000000000
11
-6.3262424452
21
-11.2882693039
31
0.0000000000
11
-5.7845715382
21
-10.3139146630
31
0.0000000000
11
-5.0284008733
21
-9.5048338054
31
0.0000000000
11
-4.0921111856
21
-8.8983075275
31
0.0000000000
11
-3.0779754248
21
-8.5461623330
31
0.0000000000
11
-2.1000000000
21
-8.4400333540
31
0.0000000000
0
SPLINE
5
2DA
100
AcDbEntity
8
0
100
AcDbSpline
62
0
6
CONTINUOUS
70
0
71
3
72
20
73
16
74
14
42
0.0000001000
43
0.0000001000
44
0.0000000001
12
14.2919338986
22
-0.0039713971
32
0.0000000000
13
-14.2919342550
23
-0.0023630952
33
0.0000000000
40
0.0000000000
40
0.0000000000
40
0.0000000000
40
0.0000000000
40
0.0781289015
40
0.1563085254
40
0.2341431783
40
0.3117442099
40
0.3896813736
40
0.4671900650
40
0.5452341822
40
0.6227437139
40
0.7007888465
40
0.7782785010
40
0.8563098298
40
0.9313101964
40
1.0000000000
40
1.0000000000
40
1.0000000000
40
1.0000000000
10
2.1000000000
20
-8.4400333540
30
0.0000000000
10
2.4722043652
20
-8.4401367810
30
0.0000000000
10
3.2200787379
20
-8.5320702709
30
0.0000000000
10
4.2706540527
20
-8.9379418694
30
0.0000000000
10
5.1899089577
20
-9.5850754253
30
0.0000000000
10
5.9244124869
20
-10.4343230309
30
0.0000000000
10
6.4311054217
20
-11.4347246363
30
0.0000000000
10
6.6813843194
20
-12.5298426635
30
0.0000000000
10
6.6594100844
20
-13.6511382323
30
0.0000000000
10
6.3662790202
20
-14.7361100768
30
0.0000000000
10
5.8205892582
20
-15.7158222457
30
0.0000000000
10
5.0526272284
20
-16.5361366764
30
0.0000000000
10
4.1209675920
20
-17.1384540995
30
0.0000000000
10
3.1139588400
20
-17.4875298042
30
0.0000000000
10
2.4272367189
20
-17.5616748142
30
0.0000000000
10
2.1000000000
20
-17.5617289211
30
0.0000000000
11
2.1000000000
21
-8.4400333540
31
0.0000000000
11
3.2082099019
21
-8.5767656283
31
0.0000000000
11
4.2505772401
21
-8.9791518542
31
0.0000000000
11
5.1601320724
21
-9.6195900036
31
0.0000000000
11
5.8856782567
21
-10.4584084976
31
0.0000000000
11
6.3889633064
21
-11.4520970045
31
0.0000000000
11
6.6357710648
21
-12.5320016675
31
0.0000000000
11
6.6139164608
21
-13.6471889496
31
0.0000000000
11
6.3249804602
21
-14.7166050264
31
0.0000000000
11
5.7822251327
21
-15.6910635061
31
0.0000000000
11
5.0253138723
21
-16.4995131270
31
0.0000000000
11
4.0888140954
21
-17.1050548466
31
0.0000000000
11
3.0760036480
21
-17.4560324816
31
0.0000000000
11
2.1000000000
21
-17.5617289211
31
0.0000000000
0
SPLINE
5
2DB
100
AcDbEntity
8
0
100
AcDbSpline
62
0
6
CONTINUOUS
70
0
71
3
72
11
73
7
74
5
42
0.0000001000
43
0.0000001000
44
0.0000000001
12
0.0003802072
22
-1.2482731391
32
0.0000000000
13
1.2482731391
23
-0.0003802072
33
0.0000000000
40
0.0000000000
40
0.0000000000
40
0.0000000000
40
0.0000000000
40
0.2499896957
40
0.4999999907
40
0.7500102905
40
1.0000000000
40
1.0000000000
40
1.0000000000
40
1.0000000000
10
-10.8013450129
20
-20.7514668568
30
0.0000000000
10
-10.8013133303
20
-20.8554853308
30
0.0000000000
10
-10.7596348636
20
-21.0657925878
30
0.0000000000
10
-10.5816137575
20
-21.3316137432
30
0.0000000000
10
-10.3157926017
20
-21.5096348596
30
0.0000000000
10
-10.1054853366
20
-21.5513133303
30
0.0000000000
10
-10.0014668568
20
-21.5513450129
30
0.0000000000
11
-10.8013450129
21
-20.7514668568
31
0.0000000000
11
-10.7403880068
21
-21.0575107082
31
0.0000000000
11
-10.5669800162
21
-21.3169799994
31
0.0000000000
11
-10.3075107244
21
-21.4903880000
31
0.0000000000
11
-10.0014668568
21
-21.5513450129
31
0.0000000000
0
SPLINE
5
2DC
100
AcDbEntity
8
0
100
AcDbSpline
62
0
6
CONTINUOUS
70
0
71
3
72
18
73
14
74
12
42
0.0000001000
43
0.0000001000
44
0.0000000001
12
0.5914889368
22
1.2679986600
32
0.0000000000
13
0.0007675893
23
1.3991708884
33
0.0000000000
40
0.0000000000
40
0.0000000000
40
0.0000000000
40
0.0000000000
40
0.0081565672
40
0.0321788859
40
0.0762813276
40
0.1430236695
40
0.2327392920
40
0.3431673885
40
0.4695887911
40
0.6055343056
40
0.7438055704
40
0.8773916838
40
1.0000000000
40
1.0000000000
40
1.0000000000
40
1.0000000000
10
-10.0014668568
20
-21.5513450129
30
0.0000000000
10
-9.9998586837
20
-21.5478975075
30
0.0000000000
10
-10.0007510223
20
-21.5322071600
30
0.0000000000
10
-9.9975056695
20
-21.4973638041
30
0.0000000000
10
-9.9972611958
20
-21.4340328610
30
0.0000000000
10
-9.9951737472
20
-21.3407222642
30
0.0000000000
10
-9.9939759425
20
-21.2161673666
30
0.0000000000
10
-9.9925797451
20
-21.0638988376
30
0.0000000000
10
-9.9915024945
20
-20.8900234238
30
0.0000000000
10
-9.9906274907
20
-20.7031748241
30
0.0000000000
10
-9.9900167941
20
-20.5129795152
30
0.0000000000
10
-9.9896417983
20
-20.3290050958
30
0.0000000000
10
-9.9895205240
20
-20.2095184748
30
0.0000000000
10
-9.9894891530
20
-20.1523351459
30
0.0000000000
11
-10.0014668568
21
-21.5513450129
31
0.0000000000
11
-10.0001657629
21
-21.5400069890
31
0.0000000000
11
-9.9987050003
21
-21.5064274127
31
0.0000000000
11
-9.9971514096
21
-21.4447401113
31
0.0000000000
11
-9.9955814043
21
-21.3513693541
31
0.0000000000
11
-9.9940774544
21
-21.2258508578
31
0.0000000000
11
-9.9927194689
21
-21.0713490245
31
0.0000000000
11
-9.9915730005
21
-20.8944675671
31
0.0000000000
11
-9.9906788375
21
-20.7042586339
31
0.0000000000
11
-9.9900482389
21
-20.5107945040
31
0.0000000000
11
-9.9896646069
21
-20.3238850687
31
0.0000000000
11
-9.9894891530
21
-20.1523351459
31
0.0000000000
0
SPLINE
5
2DD
100
AcDbEntity
8
0
100
AcDbSpline
62
0
6
CONTINUOUS
70
0
71
3
72
18
73
14
74
12
42
0.0000001000
43
0.0000001000
44
0.0000000001
12
0.4618146069
22
0.4619706131
32
0.0000000000
13
0.0007676681
23
0.6532143517
33
0.0000000000
40
0.0000000000
40
0.0000000000
40
0.0000000000
40
0.0000000000
40
0.0083413750
40
0.0324382702
40
0.0765854156
40
0.1433552201
40
0.2330798420
40
0.3434924706
40
0.4698708201
40
0.6057505425
40
0.7439447710
40
0.8774555581
40
1.0000000000
40
1.0000000000
40
1.0000000000
40
1.0000000000
10
-10.8013450129
20
-20.7514668568
30
0.0000000000
10
-10.8000609566
20
-20.7501823667
30
0.0000000000
10
-10.8001769528
20
-20.7422221696
30
0.0000000000
10
-10.7977093092
20
-20.7265452758
30
0.0000000000
10
-10.7969712204
20
-20.6965875787
30
0.0000000000
10
-10.7951237705
20
-20.6532140930
30
0.0000000000
10
-10.7938263516
20
-20.5949959828
30
0.0000000000
10
-10.7924665677
20
-20.5239563849
30
0.0000000000
10
-10.7913774540
20
-20.4428046372
30
0.0000000000
10
-10.7905062099
20
-20.3556193140
30
0.0000000000
10
-10.7898946364
20
-20.2668733219
30
0.0000000000
10
-10.7895199644
20
-20.1810311798
30
0.0000000000
10
-10.7893986670
20
-20.1252781816
30
0.0000000000
10
-10.7893673092
20
-20.0985955855
30
0.0000000000
11
-10.8013450129
21
-20.7514668568
31
0.0000000000
11
-10.8000438303
21
-20.7461757925
31
0.0000000000
11
-10.7985829835
21
-20.7305032800
31
0.0000000000
11
-10.7970291593
21
-20.7017076031
31
0.0000000000
11
-10.7954589626
21
-20.6581208521
31
0.0000000000
11
-10.7939549277
21
-20.5995307023
31
0.0000000000
11
-10.7925970044
21
-20.5274203234
31
0.0000000000
11
-10.7914507018
21
-20.4448760739
31
0.0000000000
11
-10.7905567289
21
-20.3561219299
31
0.0000000000
11
-10.7899262773
21
-20.2658536158
31
0.0000000000
11
-10.7895427227
21
-20.1786432367
31
0.0000000000
11
-10.7893673092
21
-20.0985955855
31
0.0000000000
0
SPLINE
5
2DE
100
AcDbEntity
8
0
100
AcDbSpline
62
0
6
CONTINUOUS
70
0
71
3
72
11
73
7
74
5
42
0.0000001000
43
0.0000001000
44
0.0000000001
12
0.2017556644
22
-0.7784322003
32
0.0000000000
13
0.8041524442
23
-0.0009407666
33
0.0000000000
40
0.0000000000
40
0.0000000000
40
0.0000000000
40
0.0000000000
40
0.0845057642
40
0.3023275439
40
0.6232591445
40
1.0000000000
40
1.0000000000
40
1.0000000000
40
1.0000000000
10
-10.7893673092
20
-20.0985955855
30
0.0000000000
10
-10.7836841370
20
-20.1205229215
30
0.0000000000
10
-10.6716545487
20
-20.1148306613
30
0.0000000000
10
-10.5323982786
20
-20.1454933965
30
0.0000000000
10
-10.2736979341
20
-20.1473708947
30
0.0000000000
10
-10.0904748463
20
-20.1522169999
30
0.0000000000
10
-9.9894891530
20
-20.1523351417
30
0.0000000000
11
-10.7893673092
21
-20.0985955855
31
0.0000000000
11
-10.7245309359
21
-20.1189475704
31
0.0000000000
11
-10.5502274055
21
-20.1362686060
31
0.0000000000
11
-10.2924151226
21
-20.1479791321
31
0.0000000000
11
-9.9894891530
21
-20.1523351417
31
0.0000000000
0
SPLINE
5
2DF
100
AcDbEntity
8
0
100
AcDbSpline
62
0
6
CONTINUOUS
70
0
71
3
72
10
73
6
74
4
42
0.0000001000
43
0.0000001000
44
0.0000000001
12
0.0472389891
22
40.3046507947
32
0.0000000000
13
-0.0472390333
23
40.3046507946
33
0.0000000000
40
0.0000000000
40
0.0000000000
40
0.0000000000
40
0.0000000000
40
0.3332217423
40
0.6667782579
40
1.0000000000
40
1.0000000000
40
1.0000000000
40
1.0000000000
10
-9.9894891530
20
-20.1523351459
30
0.0000000000
10
-9.9842421336
20
-15.6755398251
30
0.0000000000
10
-9.9772553996
20
-6.7174470211
30
0.0000000000
10
-9.9772554059
20
6.7174470277
30
0.0000000000
10
-9.9842421287
20
15.6755398284
30
0.0000000000
10
-9.9894891530
20
20.1523351459
30
0.0000000000
11
-9.9894891530
21
-20.1523351459
31
0.0000000000
11
-9.9790038385
21
-6.7219440518
31
0.0000000000
11
-9.9790038399
21
6.7219440617
31
0.0000000000
11
-9.9894891530
21
20.1523351459
31
0.0000000000
0
SPLINE
5
2E0
100
AcDbEntity
8
0
100
AcDbSpline
62
0
6
CONTINUOUS
70
0
71
3
72
10
73
6
74
4
42
0.0000001000
43
0.0000001000
44
0.0000000001
12
0.0472389876
22
40.1971716217
32
0.0000000000
13
-0.0472390318
23
40.1971716217
33
0.0000000000
40
0.0000000000
40
0.0000000000
40
0.0000000000
40
0.0000000000
40
0.3332194118
40
0.6667790090
40
1.0000000000
40
1.0000000000
40
1.0000000000
40
1.0000000000
10
-10.7893673092
20
-20.0985955855
30
0.0000000000
10
-10.7841203266
20
-15.6337696240
30
0.0000000000
10
-10.7771335600
20
-6.6995550028
30
0.0000000000
10
-10.7771335415
20
6.6995126830
30
0.0000000000
10
-10.7841202968
20
15.6337484641
30
0.0000000000
10
-10.7893673092
20
20.0985955855
30
0.0000000000
11
-10.7893673092
21
-20.0985955855
31
0.0000000000
11
-10.7788820313
21
-6.7041125557
31
0.0000000000
11
-10.7788820079
21
6.7040490760
31
0.0000000000
11
-10.7893673092
21
20.0985955855
31
0.0000000000
0
SPLINE
5
2E1
100
AcDbEntity
8
0
100
AcDbSpline
62
0
6
CONTINUOUS
70
0
71
3
72
11
73
7
74
5
42
0.0000001000
43
0.0000001000
44
0.0000000001
12
0.2017551039
22
0.7784323462
32
0.0000000000
13
0.8041524448
23
0.0009407660
33
0.0000000000
40
0.0000000000
40
0.0000000000
40
0.0000000000
40
0.0000000000
40
0.0845057503
40
0.3023275264
40
0.6232591330
40
1.0000000000
40
1.0000000000
40
1.0000000000
40
1.0000000000
10
-10.7893673092
20
20.0985955855
30
0.0000000000
10
-10.7836841537
20
20.1205229220
30
0.0000000000
10
-10.6716545397
20
20.1148306609
30
0.0000000000
10
-10.5323983010
20
20.1454933979
30
0.0000000000
10
-10.2736979378
20
20.1473708946
30
0.0000000000
10
-10.0904748495
20
20.1522170002
30
0.0000000000
10
-9.9894891530
20
20.1523351419
30
0.0000000000
11
-10.7893673092
21
20.0985955855
31
0.0000000000
11
-10.7245309476
21
20.1189475705
31
0.0000000000
11
-10.5502274199
21
20.1362686063
31
0.0000000000
11
-10.2924151320
21
20.1479791324
31
0.0000000000
11
-9.9894891530
21
20.1523351419
31
0.0000000000
0
SPLINE
5
2E2
100
AcDbEntity
8
0
100
AcDbSpline
62
0
6
CONTINUOUS
70
0
71
3
72
18
73
14
74
12
42
0.0000001000
43
0.0000001000
44
0.0000000001
12
-0.0007673718
22
1.3991690438
32
0.0000000000
13
-0.5917994243
23
1.2678517435
33
0.0000000000
40
0.0000000000
40
0.0000000000
40
0.0000000000
40
0.0000000000
40
0.1135147105
40
0.2402459530
40
0.3741427891
40
0.5083823037
40
0.6357243001
40
0.7492743338
40
0.8435137523
40
0.9151776446
40
0.9636262961
40
0.9906581634
40
1.0000000000
40
1.0000000000
40
1.0000000000
40
1.0000000000
10
-9.9894891530
20
20.1523351459
30
0.0000000000
10
-9.9895181890
20
20.2052772355
30
0.0000000000
10
-9.9896280144
20
20.3173254905
30
0.0000000000
10
-9.9899659545
20
20.4918213453
30
0.0000000000
10
-9.9905266982
20
20.6759835681
30
0.0000000000
10
-9.9913469261
20
20.8604257872
30
0.0000000000
10
-9.9923747657
20
21.0353908407
30
0.0000000000
10
-9.9937413418
20
21.1916544080
30
0.0000000000
10
-9.9949111878
20
21.3220747413
30
0.0000000000
10
-9.9970782810
20
21.4218017063
30
0.0000000000
10
-9.9971961199
20
21.4909067873
30
0.0000000000
10
-10.0008304192
20
21.5296360795
30
0.0000000000
10
-9.9996240256
20
21.5473969916
30
0.0000000000
10
-10.0014668568
20
21.5513450129
30
0.0000000000
11
-9.9894891530
21
20.1523351459
31
0.0000000000
11
-9.9896458993
21
20.3111613613
31
0.0000000000
11
-9.9899913319
21
20.4884794830
31
0.0000000000
11
-9.9905699355
21
20.6758229258
31
0.0000000000
11
-9.9914071073
21
20.8636448616
31
0.0000000000
11
-9.9925026099
21
21.0418144998
31
0.0000000000
11
-9.9938268155
21
21.2006846971
31
0.0000000000
11
-9.9953228028
21
21.3325331074
31
0.0000000000
11
-9.9969149510
21
21.4327903808
31
0.0000000000
11
-9.9985207801
21
21.5005592215
31
0.0000000000
11
-10.0000613263
21
21.5383499919
31
0.0000000000
11
-10.0014668568
21
21.5513450129
31
0.0000000000
0
SPLINE
5
2E3
100
AcDbEntity
8
0
100
AcDbSpline
62
0
6
CONTINUOUS
70
0
71
3
72
18
73
14
74
12
42
0.0000001000
43
0.0000001000
44
0.0000000001
12
-0.0007677143
22
0.6532105893
32
0.0000000000
13
-0.4618676861
23
0.4619122253
33
0.0000000000
40
0.0000000000
40
0.0000000000
40
0.0000000000
40
0.0000000000
40
0.1134676171
40
0.2401606870
40
0.3740317075
40
0.5082446430
40
0.6355533861
40
0.7490645307
40
0.8432687359
40
0.9149149804
40
0.9633773500
40
0.9904710199
40
1.0000000000
40
1.0000000000
40
1.0000000000
40
1.0000000000
10
-10.7893673092
20
20.0985955855
30
0.0000000000
10
-10.7893963461
20
20.1233016685
30
0.0000000000
10
-10.7895062445
20
20.1755935156
30
0.0000000000
10
-10.7898439833
20
20.2570331442
30
0.0000000000
10
-10.7904057569
20
20.3429900952
30
0.0000000000
10
-10.7912227269
20
20.4290738615
30
0.0000000000
10
-10.7922624361
20
20.5107400382
30
0.0000000000
10
-10.7935926259
20
20.5836317275
30
0.0000000000
10
-10.7948655406
20
20.6445686357
30
0.0000000000
10
-10.7967763727
20
20.6908952243
30
0.0000000000
10
-10.7974362048
20
20.7235770915
30
0.0000000000
10
-10.8001914281
20
20.7409651217
30
0.0000000000
10
-10.7998779702
20
20.7499996726
30
0.0000000000
10
-10.8013450129
20
20.7514668568
30
0.0000000000
11
-10.7893673092
21
20.0985955855
31
0.0000000000
11
-10.7895240683
21
20.1727137200
31
0.0000000000
11
-10.7898695375
21
20.2554703109
31
0.0000000000
11
-10.7904482690
21
20.3429144244
31
0.0000000000
11
-10.7912856267
21
20.4305797965
31
0.0000000000
11
-10.7923813222
21
20.5137320545
31
0.0000000000
11
-10.7937056380
21
20.5878669597
31
0.0000000000
11
-10.7952016012
21
20.6493840000
31
0.0000000000
11
-10.7967935995
21
20.6961570326
31
0.0000000000
11
-10.7983992247
21
20.7277724420
31
0.0000000000
11
-10.7999395811
21
20.7454031654
31
0.0000000000
11
-10.8013450129
21
20.7514668568
31
0.0000000000
0
SPLINE
5
2E4
100
AcDbEntity
8
0
100
AcDbSpline
62
0
6
CONTINUOUS
70
0
71
3
72
11
73
7
74
5
42
0.0000001000
43
0.0000001000
44
0.0000000001
12
0.0003802071
22
1.2482731391
32
0.0000000000
13
1.2482731391
23
0.0003802071
33
0.0000000000
40
0.0000000000
40
0.0000000000
40
0.0000000000
40
0.0000000000
40
0.2499897029
40
0.5000000000
40
0.7500102971
40
1.0000000000
40
1.0000000000
40
1.0000000000
40
1.0000000000
10
-10.8013450129
20
20.7514668568
30
0.0000000000
10
-10.8013133303
20
20.8554853339
30
0.0000000000
10
-10.7596348615
20
21.0657925949
30
0.0000000000
10
-10.5816137503
20
21.3316137503
30
0.0000000000
10
-10.3157925949
20
21.5096348615
30
0.0000000000
10
-10.1054853339
20
21.5513133303
30
0.0000000000
10
-10.0014668568
20
21.5513450129
30
0.0000000000
11
-10.8013450129
21
20.7514668568
31
0.0000000000
11
-10.7403880032
21
21.0575107167
31
0.0000000000
11
-10.5669800078
21
21.3169800078
31
0.0000000000
11
-10.3075107167
21
21.4903880032
31
0.0000000000
11
-10.0014668568
21
21.5513450129
31
0.0000000000
0
SPLINE
5
2E5
100
AcDbEntity
8
0
100
AcDbSpline
62
0
6
CONTINUOUS
70
0
71
3
72
11
73
7
74
5
42
0.0000001000
43
0.0000001000
44
0.0000000001
12
-0.0003802071
22
-1.2482731391
32
0.0000000000
13
-1.2482731391
23
-0.0003802071
33
0.0000000000
40
0.0000000000
40
0.0000000000
40
0.0000000000
40
0.0000000000
40
0.2499897029
40
0.5000000000
40
0.7500102971
40
1.0000000000
40
1.0000000000
40
1.0000000000
40
1.0000000000
10
10.8013450129
20
-20.7514668568
30
0.0000000000
10
10.8013133303
20
-20.8554853339
30
0.0000000000
10
10.7596348615
20
-21.0657925949
30
0.0000000000
10
10.5816137503
20
-21.3316137503
30
0.0000000000
10
10.3157925949
20
-21.5096348615
30
0.0000000000
10
10.1054853339
20
-21.5513133303
30
0.0000000000
10
10.0014668568
20
-21.5513450129
30
0.0000000000
11
10.8013450129
21
-20.7514668568
31
0.0000000000
11
10.7403880032
21
-21.0575107167
31
0.0000000000
11
10.5669800078
21
-21.3169800078
31
0.0000000000
11
10.3075107167
21
-21.4903880032
31
0.0000000000
11
10.0014668568
21
-21.5513450129
31
0.0000000000
0
SPLINE
5
2E6
100
AcDbEntity
8
0
100
AcDbSpline
62
0
6
CONTINUOUS
70
0
71
3
72
11
73
7
74
5
42
0.0000001000
43
0.0000001000
44
0.0000000001
12
-0.2017572988
22
-0.7784317716
32
0.0000000000
13
-0.8041524393
23
-0.0009407642
33
0.0000000000
40
0.0000000000
40
0.0000000000
40
0.0000000000
40
0.0000000000
40
0.0845058007
40
0.3023275902
40
0.6232591751
40
1.0000000000
40
1.0000000000
40
1.0000000000
40
1.0000000000
10
10.7893673092
20
-20.0985955855
30
0.0000000000
10
10.7836840885
20
-20.1205229189
30
0.0000000000
10
10.6716545732
20
-20.1148306480
30
0.0000000000
10
10.5323982156
20
-20.1454933789
30
0.0000000000
10
10.2736979235
20
-20.1473708729
30
0.0000000000
10
10.0904748375
20
-20.1522169764
30
0.0000000000
10
9.9894891530
20
-20.1523351178
30
0.0000000000
11
10.7893673092
21
-20.0985955855
31
0.0000000000
11
10.7245309031
21
-20.1189475626
31
0.0000000000
11
10.5502273651
21
-20.1362685907
31
0.0000000000
11
10.2924150961
21
-20.1479791110
31
0.0000000000
11
9.9894891530
21
-20.1523351178
31
0.0000000000
0
SPLINE
5
2E7
100
AcDbEntity
8
0
100
AcDbSpline
62
0
6
CONTINUOUS
70
0
71
3
72
18
73
14
74
12
42
0.0000001000
43
0.0000001000
44
0.0000000001
12
0.0007674966
22
-1.3991704121
32
0.0000000000
13
0.5914460252
23
-1.2680181506
33
0.0000000000
40
0.0000000000
40
0.0000000000
40
0.0000000000
40
0.0000000000
40
0.1203937903
40
0.2523155061
40
0.3895329217
40
0.5250712023
40
0.6517114181
40
0.7628813339
40
0.8536772408
40
0.9216062349
40
0.9667713244
40
0.9915432432
40
1.0000000000
40
1.0000000000
40
1.0000000000
40
1.0000000000
10
9.9894891530
20
-20.1523351459
30
0.0000000000
10
9.9895199536
20
-20.2084856223
30
0.0000000000
10
9.9896384185
20
-20.3261631100
30
0.0000000000
10
9.9900042155
20
-20.5078368883
30
0.0000000000
10
9.9906025577
20
-20.6965744527
30
0.0000000000
10
9.9914640172
20
-20.8828436982
30
0.0000000000
10
9.9925289730
20
-21.0569771804
30
0.0000000000
10
9.9939176143
20
-21.2101975497
30
0.0000000000
10
9.9951082243
20
-21.3361566511
30
0.0000000000
10
9.9972146044
20
-21.4310164341
30
0.0000000000
10
9.9974282296
20
-21.4957575735
30
0.0000000000
10
10.0007692010
20
-21.5315623507
30
0.0000000000
10
9.9997996184
20
-21.5477705725
30
0.0000000000
10
10.0014668568
20
-21.5513450129
30
0.0000000000
11
9.9894891530
21
-20.1523351459
31
0.0000000000
11
9.9896599804
21
-20.3207865138
31
0.0000000000
11
9.9900341282
21
-20.5053671238
31
0.0000000000
11
9.9906518670
21
-20.6973567068
31
0.0000000000
11
9.9915319453
21
-20.8869958452
31
0.0000000000
11
9.9926657229
21
-21.0641834875
31
0.0000000000
11
9.9940150649
21
-21.2197233149
31
0.0000000000
11
9.9955165517
21
-21.3467534071
31
0.0000000000
11
9.9970914858
21
-21.4417846104
31
0.0000000000
11
9.9986576875
21
-21.5049588652
31
0.0000000000
11
10.0001386138
21
-21.5395873541
31
0.0000000000
11
10.0014668568
21
-21.5513450129
31
0.0000000000
0
SPLINE
5
2E8
100
AcDbEntity
8
0
100
AcDbSpline
62
0
6
CONTINUOUS
70
0
71
3
72
18
73
14
74
12
42
0.0000001000
43
0.0000001000
44
0.0000000001
12
0.0007676376
22
-0.6532133714
32
0.0000000000
13
0.4618389629
23
-0.4619448779
33
0.0000000000
40
0.0000000000
40
0.0000000000
40
0.0000000000
40
0.0000000000
40
0.1203355659
40
0.2521858139
40
0.3893265334
40
0.5247954247
40
0.6513865285
40
0.7625353037
40
0.8533373516
40
0.9212942930
40
0.9665066587
40
0.9913565152
40
1.0000000000
40
1.0000000000
40
1.0000000000
40
1.0000000000
10
10.7893673092
20
-20.0985955855
30
0.0000000000
10
10.7893981005
20
-20.1247971857
30
0.0000000000
10
10.7895165816
20
-20.1797075818
30
0.0000000000
10
10.7898820749
20
-20.2644777213
30
0.0000000000
10
10.7904812768
20
-20.3525432225
30
0.0000000000
10
10.7913390221
20
-20.4394560491
30
0.0000000000
10
10.7924157237
20
-20.5207249819
30
0.0000000000
10
10.7937679234
20
-20.5922056612
30
0.0000000000
10
10.7950587882
20
-20.6510788662
30
0.0000000000
10
10.7969216296
20
-20.6951715554
30
0.0000000000
10
10.7976400219
20
-20.7258011276
30
0.0000000000
10
10.8001794524
20
-20.7419046748
30
0.0000000000
10
10.8000143802
20
-20.7501359189
30
0.0000000000
10
10.8013450129
20
-20.7514668568
30
0.0000000000
11
10.7893673092
21
-20.0985955855
31
0.0000000000
11
10.7895381001
21
-20.1772002549
31
0.0000000000
11
10.7899121824
21
-20.2633258470
31
0.0000000000
11
10.7905297822
21
-20.3529059317
31
0.0000000000
11
10.7914096618
21
-20.4413917095
31
0.0000000000
11
10.7925432373
21
-20.5240749981
31
0.0000000000
11
10.7938924595
21
-20.5966663767
31
0.0000000000
11
10.7953939737
21
-20.6559605211
31
0.0000000000
11
10.7969690676
21
-20.7003229813
31
0.0000000000
11
10.7985355165
21
-20.7298147521
31
0.0000000000
11
10.8000166160
21
-20.7459793098
31
0.0000000000
11
10.8013450129
21
-20.7514668568
31
0.0000000000
0
SPLINE
5
2E9
100
AcDbEntity
8
0
100
AcDbSpline
62
0
6
CONTINUOUS
70
0
71
3
72
11
73
7
74
5
42
0.0000001000
43
0.0000001000
44
0.0000000001
12
-0.2017553434
22
0.7784322840
32
0.0000000000
13
-0.8041524447
23
0.0009407666
33
0.0000000000
40
0.0000000000
40
0.0000000000
40
0.0000000000
40
0.0000000000
40
0.0845057565
40
0.3023275341
40
0.6232591380
40
1.0000000000
40
1.0000000000
40
1.0000000000
40
1.0000000000
10
10.7893673092
20
20.0985955855
30
0.0000000000
10
10.7836841465
20
20.1205229218
30
0.0000000000
10
10.6716545436
20
20.1148306619
30
0.0000000000
10
10.5323982912
20
20.1454933981
30
0.0000000000
10
10.2736979362
20
20.1473708960
30
0.0000000000
10
10.0904748481
20
20.1522170015
30
0.0000000000
10
9.9894891530
20
20.1523351432
30
0.0000000000
11
10.7893673092
21
20.0985955855
31
0.0000000000
11
10.7245309425
21
20.1189475709
31
0.0000000000
11
10.5502274137
21
20.1362686070
31
0.0000000000
11
10.2924151279
21
20.1479791335
31
0.0000000000
11
9.9894891530
21
20.1523351432
31
0.0000000000
0
SPLINE
5
2EA
100
AcDbEntity
8
0
100
AcDbSpline
62
0
6
CONTINUOUS
70
0
71
3
72
10
73
6
74
4
42
0.0000001000
43
0.0000001000
44
0.0000000001
12
-0.0472390333
22
-40.3046507946
32
0.0000000000
13
0.0472389891
23
-40.3046507947
33
0.0000000000
40
0.0000000000
40
0.0000000000
40
0.0000000000
40
0.0000000000
40
0.3332217421
40
0.6667782577
40
1.0000000000
40
1.0000000000
40
1.0000000000
40
1.0000000000
10
9.9894891530
20
20.1523351459
30
0.0000000000
10
9.9842421287
20
15.6755398284
30
0.0000000000
10
9.9772554059
20
6.7174470277
30
0.0000000000
10
9.9772553996
20
-6.7174470211
30
0.0000000000
10
9.9842421336
20
-15.6755398251
30
0.0000000000
10
9.9894891530
20
-20.1523351459
30
0.0000000000
11
9.9894891530
21
20.1523351459
31
0.0000000000
11
9.9790038399
21
6.7219440617
31
0.0000000000
11
9.9790038385
21
-6.7219440518
31
0.0000000000
11
9.9894891530
21
-20.1523351459
31
0.0000000000
0
SPLINE
5
2EB
100
AcDbEntity
8
0
100
AcDbSpline
62
0
6
CONTINUOUS
70
0
71
3
72
10
73
6
74
4
42
0.0000001000
43
0.0000001000
44
0.0000000001
12
-0.0472390318
22
-40.1971716217
32
0.0000000000
13
0.0472389876
23
-40.1971716217
33
0.0000000000
40
0.0000000000
40
0.0000000000
40
0.0000000000
40
0.0000000000
40
0.3332209910
40
0.6667805882
40
1.0000000000
40
1.0000000000
40
1.0000000000
40
1.0000000000
10
10.7893673092
20
20.0985955855
30
0.0000000000
10
10.7841202968
20
15.6337484641
30
0.0000000000
10
10.7771335415
20
6.6995126830
30
0.0000000000
10
10.7771335600
20
-6.6995550028
30
0.0000000000
10
10.7841203266
20
-15.6337696240
30
0.0000000000
10
10.7893673092
20
-20.0985955855
30
0.0000000000
11
10.7893673092
21
20.0985955855
31
0.0000000000
11
10.7788820079
21
6.7040490760
31
0.0000000000
11
10.7788820313
21
-6.7041125557
31
0.0000000000
11
10.7893673092
21
-20.0985955855
31
0.0000000000
0
SPLINE
5
2EC
100
AcDbEntity
8
0
100
AcDbSpline
62
0
6
CONTINUOUS
70
0
71
3
72
8
73
4
74
2
42
0.0000001000
43
0.0000001000
44
0.0000000001
12
-0.0054489974
22
0.0984981433
32
0.0000000000
13
-0.0054179621
23
0.0984998565
33
0.0000000000
40
0.0000000000
40
0.0000000000
40
0.0000000000
40
0.0000000000
40
1.0000000000
40
1.0000000000
40
1.0000000000
40
1.0000000000
10
-34.3263447507
20
-17.0589323358
30
0.0000000000
10
-34.3281610832
20
-17.0260996214
30
0.0000000000
10
-34.3299722659
20
-16.9932666219
30
0.0000000000
10
-34.3317782533
20
-16.9604333364
30
0.0000000000
11
-34.3263447507
21
-17.0589323358
31
0.0000000000
11
-34.3317782533
21
-16.9604333364
31
0.0000000000
0
SPLINE
5
2ED
100
AcDbEntity
8
0
100
AcDbSpline
62
0
6
CONTINUOUS
70
0
71
3
72
16
73
12
74
10
42
0.0000001000
43
0.0000001000
44
0.0000000001
12
-0.3316818589
22
6.0300561507
32
0.0000000000
13
-0.2157959241
23
6.0353157219
33
0.0000000000
40
0.0000000000
40
0.0000000000
40
0.0000000000
40
0.0000000000
40
0.0655341148
40
0.1537523573
40
0.2613356273
40
0.3841230960
40
0.5173804145
40
0.6559561687
40
0.7945018152
40
0.9276823992
40
1.0000000000
40
1.0000000000
40
1.0000000000
40
1.0000000000
10
-34.3317782533
20
-16.9604333364
30
0.0000000000
10
-34.3390237456
20
-16.8287085391
30
0.0000000000
10
-34.3558265089
20
-16.5196526237
30
0.0000000000
10
-34.3836130164
20
-15.9943031742
30
0.0000000000
10
-34.4162814942
20
-15.3537975034
30
0.0000000000
10
-34.4519511740
20
-14.6226623955
30
0.0000000000
10
-34.4887096826
20
-13.8291187806
30
0.0000000000
10
-34.5247816747
20
-13.0037899490
30
0.0000000000
10
-34.5586508357
20
-12.1785223864
30
0.0000000000
10
-34.5852448803
20
-11.4864525524
30
0.0000000000
10
-34.6003138470
20
-11.0730473357
30
0.0000000000
10
-34.6055157948
20
-10.9275608180
30
0.0000000000
11
-34.3317782533
21
-16.9604333364
31
0.0000000000
11
-34.3532648136
21
-16.5652452929
31
0.0000000000
11
-34.3814036348
21
-16.0332238524
31
0.0000000000
11
-34.4144990005
21
-15.3843535405
31
0.0000000000
11
-34.4506329763
21
-14.6436999158
31
0.0000000000
11
-34.4878713371
21
-13.8397981902
31
0.0000000000
11
-34.5244134268
21
-13.0037136822
31
0.0000000000
11
-34.5587229487
21
-12.1677165621
31
0.0000000000
11
-34.5896068780
21
-11.3640094001
31
0.0000000000
11
-34.6055157948
21
-10.9275608180
31
0.0000000000
0
SPLINE
5
2EE
100
AcDbEntity
8
0
100
AcDbSpline
62
0
6
CONTINUOUS
70
0
71
3
72
9
73
5
74
3
42
0.0000001000
43
0.0000001000
44
0.0000000001
12
-0.0081227476
22
0.1449566816
32
0.0000000000
13
-0.0080567505
23
0.1449603680
33
0.0000000000
40
0.0000000000
40
0.0000000000
40
0.0000000000
40
0.0000000000
40
0.5631203534
40
1.0000000000
40
1.0000000000
40
1.0000000000
40
1.0000000000
10
-34.3137572124
20
-17.2850037836
30
0.0000000000
10
-34.3152819072
20
-17.2577944310
30
0.0000000000
10
-34.3179833368
20
-17.2094751919
30
0.0000000000
10
-34.3206737576
20
-17.1611553383
30
0.0000000000
10
-34.3218470344
20
-17.1400452602
30
0.0000000000
11
-34.3137572124
21
-17.2850037836
31
0.0000000000
11
-34.3183208763
21
-17.2033751422
31
0.0000000000
11
-34.3218470344
21
-17.1400452602
31
0.0000000000
0
SPLINE
5
2EF
100
AcDbEntity
8
0
100
AcDbSpline
62
0
6
CONTINUOUS
70
0
71
3
72
8
73
4
74
2
42
0.0000001000
43
0.0000001000
44
0.0000000001
12
-0.0045081420
22
0.0811123456
32
0.0000000000
13
-0.0044872650
23
0.0811135040
33
0.0000000000
40
0.0000000000
40
0.0000000000
40
0.0000000000
40
0.0000000000
40
1.0000000000
40
1.0000000000
40
1.0000000000
40
1.0000000000
10
-34.3218470344
20
-17.1400452602
30
0.0000000000
10
-34.3233497484
20
-17.1130078117
30
0.0000000000
10
-34.3248489957
20
-17.0859701703
30
0.0000000000
10
-34.3263447507
20
-17.0589323357
30
0.0000000000
11
-34.3218470344
21
-17.1400452602
31
0.0000000000
11
-34.3263447507
21
-17.0589323357
31
0.0000000000
0
SPLINE
5
2F0
100
AcDbEntity
8
0
100
AcDbSpline
62
0
6
CONTINUOUS
70
0
71
3
72
9
73
5
74
3
42
0.0000001000
43
0.0000001000
44
0.0000000001
12
-0.0191334631
22
0.3458637353
32
0.0000000000
13
-0.0187505763
23
0.3458847203
33
0.0000000000
40
0.0000000000
40
0.0000000000
40
0.0000000000
40
0.0000000000
40
0.2847888727
40
1.0000000000
40
1.0000000000
40
1.0000000000
40
1.0000000000
10
-34.3263447507
20
-17.0589323357
30
0.0000000000
10
-34.3281610832
20
-17.0260996212
30
0.0000000000
10
-34.3345208218
20
-16.9108107084
30
0.0000000000
10
-34.3408165020
20
-16.7955182695
30
0.0000000000
10
-34.3452867090
20
-16.7130580693
30
0.0000000000
11
-34.3263447507
21
-17.0589323357
31
0.0000000000
11
-34.3317782533
21
-16.9604333362
31
0.0000000000
11
-34.3452867090
21
-16.7130580693
31
0.0000000000
0
SPLINE
5
2F1
100
AcDbEntity
8
0
100
AcDbSpline
62
0
6
CONTINUOUS
70
0
71
3
72
11
73
7
74
5
42
0.0000001000
43
0.0000001000
44
0.0000000001
12
-0.0139588749
22
-0.7999470618
32
0.0000000000
13
0.7999469876
23
-0.0139631266
33
0.0000000000
40
0.0000000000
40
0.0000000000
40
0.0000000000
40
0.0000000000
40
0.3825592777
40
0.7068734192
40
0.9236228949
40
1.0000000000
40
1.0000000000
40
1.0000000000
40
1.0000000000
10
-32.6565649737
20
-20.7514668568
30
0.0000000000
10
-32.6583450061
20
-20.8534759135
30
0.0000000000
10
-32.6557906802
20
-21.0358930982
30
0.0000000000
10
-32.6759307046
20
-21.3036290801
30
0.0000000000
10
-32.6387937281
20
-21.4259797509
30
0.0000000000
10
-32.6769308521
20
-21.5509895252
30
0.0000000000
10
-32.6565649737
20
-21.5513450129
30
0.0000000000
11
-32.6565649737
21
-20.7514668568
31
0.0000000000
11
-32.6608429806
21
-21.0575107167
31
0.0000000000
11
-32.6623451861
21
-21.3169800078
31
0.0000000000
11
-32.6608429806
21
-21.4903880032
31
0.0000000000
11
-32.6565649737
21
-21.5513450129
31
0.0000000000
0
SPLINE
5
2F2
100
AcDbEntity
8
0
100
AcDbSpline
62
0
6
CONTINUOUS
70
0
71
3
72
18
73
14
74
12
42
0.0000001000
43
0.0000001000
44
0.0000000001
12
0.0698244364
22
-1.0371169484
32
0.0000000000
13
1.0393063860
23
-0.0181453208
33
0.0000000000
40
0.0000000000
40
0.0000000000
40
0.0000000000
40
0.0000000000
40
0.0762039446
40
0.1615863182
40
0.2542441692
40
0.3522145530
40
0.4533610908
40
0.5553743834
40
0.6558851452
40
0.7526197950
40
0.8434968593
40
0.9265955004
40
1.0000000000
40
1.0000000000
40
1.0000000000
40
1.0000000000
10
-33.3427671611
20
-20.0985955855
30
0.0000000000
10
-33.3409935286
20
-20.1249397197
30
0.0000000000
10
-33.3340617544
20
-20.1806362330
30
0.0000000000
10
-33.3127346898
20
-20.2663441596
30
0.0000000000
10
-33.2774916385
20
-20.3555766036
30
0.0000000000
10
-33.2272732616
20
-20.4437304803
30
0.0000000000
10
-33.1625816704
20
-20.5260952768
30
0.0000000000
10
-33.0855881673
20
-20.5984016634
30
0.0000000000
10
-32.9998957682
20
-20.6574679366
30
0.0000000000
10
-32.9099964047
20
-20.7016635436
30
0.0000000000
10
-32.8206124795
20
-20.7310357126
30
0.0000000000
10
-32.7362049013
20
-20.7471156506
30
0.0000000000
10
-32.6819948954
20
-20.7510228740
30
0.0000000000
10
-32.6565649737
20
-20.7514668568
30
0.0000000000
11
-33.3427671611
21
-20.0985955855
31
0.0000000000
11
-33.3329825537
21
-20.1772002549
31
0.0000000000
11
-33.3115513964
21
-20.2633258470
31
0.0000000000
11
-33.2761691233
21
-20.3529059317
31
0.0000000000
11
-33.2257608561
21
-20.4413917095
31
0.0000000000
11
-33.1608183574
21
-20.5240749981
31
0.0000000000
11
-33.0835214699
21
-20.5966663767
31
0.0000000000
11
-32.9974997820
21
-20.6559605211
31
0.0000000000
11
-32.9072627094
21
-20.7003229813
31
0.0000000000
11
-32.8175209151
21
-20.7298147521
31
0.0000000000
11
-32.7326687791
21
-20.7459793098
31
0.0000000000
11
-32.6565649737
21
-20.7514668568
31
0.0000000000
0
SPLINE
5
2F3
100
AcDbEntity
8
0
100
AcDbSpline
62
0
6
CONTINUOUS
70
0
71
3
72
10
73
6
74
4
42
0.0000001000
43
0.0000001000
44
0.0000000001
12
-2.7020195074
22
-40.1332617315
32
0.0000000000
13
2.7020169943
23
-40.1332619007
33
0.0000000000
40
0.0000000000
40
0.0000000000
40
0.0000000000
40
0.0000000000
40
0.3333325989
40
0.6666689791
40
1.0000000000
40
1.0000000000
40
1.0000000000
40
1.0000000000
10
-33.3427671611
20
20.0985955855
30
0.0000000000
10
-33.6429908894
20
15.6393541065
30
0.0000000000
10
-34.0436310166
20
6.7060192072
30
0.0000000000
10
-34.0436299475
20
-6.7060615537
30
0.0000000000
10
-33.6429891888
20
-15.6393751986
30
0.0000000000
10
-33.3427671611
20
-20.0985955855
30
0.0000000000
11
-33.3427671611
21
20.0985955855
31
0.0000000000
11
-33.9434696705
21
6.7040490760
31
0.0000000000
11
-33.9434683257
21
-6.7041125557
31
0.0000000000
11
-33.3427671611
21
-20.0985955855
31
0.0000000000
0
SPLINE
5
2F4
100
AcDbEntity
8
0
100
AcDbSpline
62
0
6
CONTINUOUS
70
0
71
3
72
11
73
7
74
5
42
0.0000001000
43
0.0000001000
44
0.0000000001
12
-0.0139588767
22
0.7999470618
32
0.0000000000
13
0.7999469877
23
0.0139631266
33
0.0000000000
40
0.0000000000
40
0.0000000000
40
0.0000000000
40
0.0000000000
40
0.3825591995
40
0.7068733428
40
0.9236228660
40
1.0000000000
40
1.0000000000
40
1.0000000000
40
1.0000000000
10
-32.6565649737
20
20.7514668568
30
0.0000000000
10
-32.6583450059
20
20.8534758926
30
0.0000000000
10
-32.6557906819
20
21.0358930590
30
0.0000000000
10
-32.6759307050
20
21.3036290307
30
0.0000000000
10
-32.6387937238
20
21.4259797169
30
0.0000000000
10
-32.6769308598
20
21.5509895250
30
0.0000000000
10
-32.6565649737
20
21.5513450129
30
0.0000000000
11
-32.6565649737
21
20.7514668568
31
0.0000000000
11
-32.6608429805
21
21.0575106541
31
0.0000000000
11
-32.6623451868
21
21.3169799467
31
0.0000000000
11
-32.6608429817
21
21.4903879802
31
0.0000000000
11
-32.6565649737
21
21.5513450129
31
0.0000000000
0
SPLINE
5
2F5
100
AcDbEntity
8
0
100
AcDbSpline
62
0
6
CONTINUOUS
70
0
71
3
72
18
73
14
74
12
42
0.0000001000
43
0.0000001000
44
0.0000000001
12
-1.0393064509
22
-0.0181402413
32
0.0000000000
13
-0.0698297677
23
-1.0371165656
33
0.0000000000
40
0.0000000000
40
0.0000000000
40
0.0000000000
40
0.0000000000
40
0.0762690869
40
0.1617035925
40
0.2544013087
40
0.3523993441
40
0.4535608786
40
0.5555759335
40
0.6560748343
40
0.7527838895
40
0.8436215191
40
0.9266659672
40
1.0000000000
40
1.0000000000
40
1.0000000000
40
1.0000000000
10
-32.6565649737
20
20.7514668568
30
0.0000000000
10
-32.6829872917
20
20.7510056769
30
0.0000000000
10
-32.7390003610
20
20.7468477181
30
0.0000000000
10
-32.8257147148
20
20.7297887902
30
0.0000000000
10
-32.9166234036
20
20.6989968339
30
0.0000000000
10
-33.0071806751
20
20.6531903391
30
0.0000000000
10
-33.0926573412
20
20.5926431585
30
0.0000000000
10
-33.1686840500
20
20.5193184356
30
0.0000000000
10
-33.2319088193
20
20.4366622980
30
0.0000000000
10
-33.2804861848
20
20.3490837930
30
0.0000000000
10
-33.3142351177
20
20.2613035189
30
0.0000000000
10
-33.3344689059
20
20.1778531785
30
0.0000000000
10
-33.3410601949
20
20.1239475656
30
0.0000000000
10
-33.3427671611
20
20.0985955855
30
0.0000000000
11
-32.6565649737
21
20.7514668568
31
0.0000000000
11
-32.7356263398
21
20.7455962040
31
0.0000000000
11
-32.8227623494
21
20.7284541690
31
0.0000000000
11
-32.9140247546
21
20.6975405191
31
0.0000000000
11
-33.0049227864
21
20.6515608649
31
0.0000000000
11
-33.0907299876
21
20.5907788262
31
0.0000000000
11
-33.1670564276
21
20.5171651073
31
0.0000000000
11
-33.2305251850
21
20.4341912162
31
0.0000000000
11
-33.2792860659
21
20.3462834032
31
0.0000000000
11
-33.3131724304
21
20.2581509719
31
0.0000000000
11
-33.3335130110
21
20.1742599123
31
0.0000000000
11
-33.3427671611
21
20.0985955855
31
0.0000000000
0
ENDSEC
0
SECTION
2
OBJECTS
0
DICTIONARY
5
C
100
AcDbDictionary
280
0
281
1
3
ACAD_GROUP
350
D
3
ACAD_MLINESTYLE
350
17
3
ACAD_LAYOUT
350
1A
3
ACAD_PLOTSETTINGS
350
19
3
ACAD_PLOTSTYLENAME
350
E
0
DICTIONARY
5
D
102
{ACAD_REACTORS
330
C
102
}
100
AcDbDictionary
280
0
281
1
0
ACDBDICTIONARYWDFLT
5
E
102
{ACAD_REACTORS
330
C
102
}
100
AcDbDictionary
281
1
3
Normal
350
F
100
AcDbDictionaryWithDefault
340
F
0
DICTIONARY
5
17
102
{ACAD_REACTORS
330
C
102
}
100
AcDbDictionary
280
0
281
1
3
Standard
350
18
0
DICTIONARY
5
19
102
{ACAD_REACTORS
330
C
102
}
100
AcDbDictionary
281
1
0
DICTIONARY
5
1A
102
{ACAD_REACTORS
330
C
102
}
100
AcDbDictionary
281
1
3
Layout1
350
1E
3
Model
350
22
0
ACDBPLACEHOLDER
5
F
102
{ACAD_REACTORS
330
E
102
}
0
MLINESTYLE
5
18
102
{ACAD_REACTORS
330
17
102
}
100
AcDbMlineStyle
2
STANDARD
70
0
3

62
256
51
90.0
52
90.0
71
2
49
0.5
62
256
6
BYLAYER
49
-0.5
62
256
6
BYLAYER
0
LAYOUT
5
1E
102
{ACAD_REACTORS
330
1A
102
}
100
AcDbPlotSettings
1

2

4

6

40
0.0
41
0.0
42
0.0
43
0.0
44
0.0
45
0.0
46
0.0
47
0.0
48
0.0
49
0.0
140
0.0
141
0.0
142
1.0
143
1.0
70
0
72
0
73
0
74
0
7

75
0
147
1.0
148
0.0
149
0.0
100
AcDbLayout
1
Layout1
70
0
71
0
10
0.0
20
0.0
11
0.0
21
0.0
12
0.0
22
0.0
32
0.0
14
0.0
24
0.0
34
0.0
15
0.0
25
0.0
35
0.0
146
0.0
13
0.0
23
0.0
33
0.0
16
0.0
26
0.0
36
0.0
17
0.0
27
0.0
37
0.0
76
0
330
1B
331
0
345
0
346
0
0
LAYOUT
5
22
102
{ACAD_REACTORS
330
1A
102
}
100
AcDbPlotSettings
1

2

4

6

40
0.0
41
0.0
42
0.0
43
0.0
44
0.0
45
0.0
46
0.0
47
0.0
48
0.0
49
0.0
140
0.0
141
0.0
142
1.0
143
1.0
70
0
72
0
73
0
74
0
7

75
0
147
1.0
148
0.0
149
0.0
100
AcDbLayout
1
Model
70
0
71
0
10
0.0
20
0.0
11
0.0
21
0.0
12
0.0
22
0.0
32
0.0
14
0.0
24
0.0
34
0.0
15
0.0
25
0.0
35
0.0
146
0.0
13
0.0
23
0.0
33
0.0
16
0.0
26
0.0
36
0.0
17
0.0
27
0.0
37
0.0
76
0
330
1F
331
0
345
0
346
0
0
ENDSEC
0
EOF
