0
SECTION
2
HEADER
9
$ACADVER
1
AC1015
9
$DWGCODEPAGE
3
ANSI_1252
9
$EXTMAX
10
431.8000000000
20
558.8000000000
30
0.0000000000
9
$EXTMIN
10
0.0000000000
20
0.0000000000
30
0.0000000000
9
$LIMMIN
10
0.0000000000
20
0.0000000000
9
$LIMMAX
10
431.8000000000
20
558.8000000000
9
$VIEWCTR
10
215.9000000000
20
279.4000000000
9
$VIEWSIZE
40
558.8000000000
9
$CLAYER
8
0
9
$LTSCALE
40
36.4254814815
9
$CELTYPE
6
BYLAYER
9
$DIMSCALE
40
1
9
$DIMASZ
40
3.0000000000
9
$DIMEXO
40
4.1392592593
9
$DIMDLI
40
25.1666962963
9
$DIMEXE
40
11.9210666667
9
$DIMCEN
40
5.9605333333
9
$DIMLFAC
40
1.0000000000
9
$DIMBLK
1
_FILLED
9
$DIMTXT
40
3.0000000000
9
$DIMTOL
70
1
9
$DIMLIM
70
0
9
$DIMTFAC
40
1.0000000000
9
$DIMTP
40
0.0100000000
9
$DIMTM
40
0.0100000000
9
$PDMODE
70
3
9
$PDSIZE
40
3.0000000000
9
$HANDSEED
5
3BA
9
$MEASUREMENT
70
1
9
$INSUNITS
70
4
0
ENDSEC
0
SECTION
2
CLASSES
0
CLASS
1
ACDBDICTIONARYWDFLT
2
AcDbDictionaryWithDefault
3
AutoCAD 2000
90
0
280
0
281
0
0
CLASS
1
ACDBPLACEHOLDER
2
AcDbPlaceHolder
3
AutoCAD 2000
90
0
280
0
281
0
0
CLASS
1
LAYOUT
2
AcDbLayout
3
AutoCAD 2000
90
0
280
0
281
0
0
ENDSEC
0
SECTION
2
TABLES
0
TABLE
2
VPORT
5
8
100
AcDbSymbolTable
70
2
0
VPORT
5
1F4
100
AcDbSymbolTableRecord
100
AcDbViewportTableRecord
2
*ACTIVE
70
0
10
0.0
20
0.0
11
1.0
21
1.0
12
215.9000000000
22
279.4000000000
13
0.0
23
0.0
14
1.0
24
1.0
15
0.0
25
0.0
16
0.0
26
0.0
36
1.0
17
0.0
27
0.0
37
0.0
40
558.8000000000
41
0.7727272727
42
50.0
43
0.0
44
0.0
50
0.0
51
0.0
71
0
72
100
73
1
74
1
75
0
76
0
77
0
78
0
0
ENDTAB
0
TABLE
2
LTYPE
5
5
100
AcDbSymbolTable
70
6
0
LTYPE
5
14
100
AcDbSymbolTableRecord
100
AcDbLinetypeTableRecord
2
BYBLOCK
70
0
3

72
65
73
0
40
0.0
0
LTYPE
5
15
100
AcDbSymbolTableRecord
100
AcDbLinetypeTableRecord
2
BYLAYER
70
0
3

72
65
73
0
40
0.0
0
LTYPE
5
16
100
AcDbSymbolTableRecord
100
AcDbLinetypeTableRecord
2
CONTINUOUS
70
64
3
Solid line
72
65
73
0
40
0
0
LTYPE
5
1F5
100
AcDbSymbolTableRecord
100
AcDbLinetypeTableRecord
2
CENTER
70
64
3
____ _ ____ _ ____ _ ____ _ ____ _ ____ _ ____
72
65
73
4
40
0.6
49
0.375
74
0
49
-0.075
74
0
49
0.075
74
0
49
-0.075
74
0
0
LTYPE
5
1F6
100
AcDbSymbolTableRecord
100
AcDbLinetypeTableRecord
2
HIDDEN
70
64
3
- - - - - - - - - - - - - - - - - - - -
72
65
73
2
40
0.2
49
0.1
74
0
49
-0.1
74
0
0
LTYPE
5
1F7
100
AcDbSymbolTableRecord
100
AcDbLinetypeTableRecord
2
PHANTOM
70
64
3
_____ _ _ _____ _ _ _____ _ _ _____
72
65
73
6
40
0.8
49
0.45
74
0
49
-0.05
74
0
49
0.1
74
0
49
-0.05
74
0
49
0.1
74
0
49
-0.05
74
0
0
LTYPE
5
1F8
100
AcDbSymbolTableRecord
100
AcDbLinetypeTableRecord
2
DOT
70
64
3
. . . . . . . . . . . . . . . . . . . .
72
65
73
2
40
0.2
49
0.1
74
0
49
-0.1
74
0
0
LTYPE
5
1F9
100
AcDbSymbolTableRecord
100
AcDbLinetypeTableRecord
2
DASHED
70
64
3
- - - - - - - - - - - - - - - - - - - -
72
65
73
2
40
0.2
49
0.1
74
0
49
-0.1
74
0
0
ENDTAB
0
TABLE
2
LAYER
5
2
100
AcDbSymbolTable
70
36
0
LAYER
5
10
100
AcDbSymbolTableRecord
100
AcDbLayerTableRecord
2
0
70
0
62
7
6
CONTINUOUS
370
-3
390
F
0
LAYER
5
1FA
100
AcDbSymbolTableRecord
100
AcDbLayerTableRecord
2
DEFAULT_1
70
0
62
7
6
CENTER
370
-3
390
F
0
LAYER
5
1FB
100
AcDbSymbolTableRecord
100
AcDbLayerTableRecord
2
DEFAULT_2
70
0
62
9
6
HIDDEN
370
-3
390
F
0
LAYER
5
1FC
100
AcDbSymbolTableRecord
100
AcDbLayerTableRecord
2
DEFAULT_3
70
0
62
7
6
PHANTOM
370
-3
390
F
0
LAYER
5
1FD
100
AcDbSymbolTableRecord
100
AcDbLayerTableRecord
2
_2D_DELETED_OBJS
70
0
62
7
6
CONTINUOUS
370
-3
390
F
0
LAYER
5
1FE
100
AcDbSymbolTableRecord
100
AcDbLayerTableRecord
2
_BLACK_HOLE
70
0
62
7
6
CONTINUOUS
370
-3
390
F
0
LAYER
5
1FF
100
AcDbSymbolTableRecord
100
AcDbLayerTableRecord
2
ASSI
70
0
62
7
6
CONTINUOUS
370
-3
390
F
0
LAYER
5
200
100
AcDbSymbolTableRecord
100
AcDbLayerTableRecord
2
COORDINATE
70
0
62
7
6
CONTINUOUS
370
-3
390
F
0
LAYER
5
201
100
AcDbSymbolTableRecord
100
AcDbLayerTableRecord
2
COORD_ORIGINE
70
0
62
7
6
CONTINUOUS
370
-3
390
F
0
LAYER
5
202
100
AcDbSymbolTableRecord
100
AcDbLayerTableRecord
2
COPY_PUBLISH
70
0
62
7
6
CONTINUOUS
370
-3
390
F
0
LAYER
5
203
100
AcDbSymbolTableRecord
100
AcDbLayerTableRecord
2
COSMETIC
70
0
62
7
6
CONTINUOUS
370
-3
390
F
0
LAYER
5
204
100
AcDbSymbolTableRecord
100
AcDbLayerTableRecord
2
CURVE
70
0
62
7
6
CONTINUOUS
370
-3
390
F
0
LAYER
5
205
100
AcDbSymbolTableRecord
100
AcDbLayerTableRecord
2
DRAFT
70
0
62
7
6
CONTINUOUS
370
-3
390
F
0
LAYER
5
206
100
AcDbSymbolTableRecord
100
AcDbLayerTableRecord
2
IMPORT
70
0
62
7
6
CONTINUOUS
370
-3
390
F
0
LAYER
5
207
100
AcDbSymbolTableRecord
100
AcDbLayerTableRecord
2
IMPORT_IGES
70
0
62
7
6
CONTINUOUS
370
-3
390
F
0
LAYER
5
208
100
AcDbSymbolTableRecord
100
AcDbLayerTableRecord
2
INCISIONI_LASER
70
0
62
7
6
CONTINUOUS
370
-3
390
F
0
LAYER
5
209
100
AcDbSymbolTableRecord
100
AcDbLayerTableRecord
2
NOTE
70
0
62
7
6
CONTINUOUS
370
-3
390
F
0
LAYER
5
20A
100
AcDbSymbolTableRecord
100
AcDbLayerTableRecord
2
PIANI
70
0
62
7
6
CONTINUOUS
370
-3
390
F
0
LAYER
5
20B
100
AcDbSymbolTableRecord
100
AcDbLayerTableRecord
2
PIANI_ORIGINE
70
0
62
7
6
CONTINUOUS
370
-3
390
F
0
LAYER
5
20C
100
AcDbSymbolTableRecord
100
AcDbLayerTableRecord
2
PUNTI
70
0
62
7
6
CONTINUOUS
370
-3
390
F
0
LAYER
5
20D
100
AcDbSymbolTableRecord
100
AcDbLayerTableRecord
2
RACCORDO
70
0
62
7
6
CONTINUOUS
370
-3
390
F
0
LAYER
5
20E
100
AcDbSymbolTableRecord
100
AcDbLayerTableRecord
2
SMUSSO
70
0
62
7
6
CONTINUOUS
370
-3
390
F
0
LAYER
5
20F
100
AcDbSymbolTableRecord
100
AcDbLayerTableRecord
2
SUPERFICI
70
0
62
7
6
CONTINUOUS
370
-3
390
F
0
LAYER
5
210
100
AcDbSymbolTableRecord
100
AcDbLayerTableRecord
2
TRASH
70
0
62
7
6
CONTINUOUS
370
-3
390
F
0
LAYER
5
211
100
AcDbSymbolTableRecord
100
AcDbLayerTableRecord
2
XSEC_DATUMS
70
0
62
7
6
CONTINUOUS
370
-3
390
F
0
ENDTAB
0
TABLE
2
STYLE
5
3
100
AcDbSymbolTable
70
1
0
STYLE
5
11
100
AcDbSymbolTableRecord
100
AcDbTextStyleTableRecord
2
STANDARD
70
0
40
0.0
41
0.8000000000
50
0.0
71
0
42
0.2
3
txt
4

0
ENDTAB
0
TABLE
2
VIEW
5
6
100
AcDbSymbolTable
70
0
0
ENDTAB
0
TABLE
2
UCS
5
7
100
AcDbSymbolTable
70
0
0
ENDTAB
0
TABLE
2
APPID
5
9
100
AcDbSymbolTable
70
1
0
APPID
5
212
100
AcDbSymbolTableRecord
100
AcDbRegAppTableRecord
2
ACAD
70
0
0
ENDTAB
0
TABLE
2
BLOCK_RECORD
5
1
100
AcDbSymbolTable
70
0
0
BLOCK_RECORD
5
1F
100
AcDbSymbolTableRecord
100
AcDbBlockTableRecord
2
*MODEL_SPACE
0
BLOCK_RECORD
5
1B
100
AcDbSymbolTableRecord
100
AcDbBlockTableRecord
2
*PAPER_SPACE
0
BLOCK_RECORD
5
213
100
AcDbSymbolTableRecord
100
AcDbBlockTableRecord
2
_FILLED
0
BLOCK_RECORD
5
214
100
AcDbSymbolTableRecord
100
AcDbBlockTableRecord
2
*D0
0
BLOCK_RECORD
5
215
100
AcDbSymbolTableRecord
100
AcDbBlockTableRecord
2
*D1
0
BLOCK_RECORD
5
216
100
AcDbSymbolTableRecord
100
AcDbBlockTableRecord
2
*D2
0
ENDTAB
0
TABLE
2
DIMSTYLE
5
A
100
AcDbSymbolTable
70
1
100
AcDbDimStyleTable
71
0
0
DIMSTYLE
105
217
100
AcDbSymbolTableRecord
100
AcDbDimStyleTableRecord
2
STANDARD
70
0
3

4

40
1.0
41
3.0000000000
42
0.0625
43
0.38
44
0.18
45
0.0
46
0.0
47
0.0100000000
48
0.0100000000
140
3.0000000000
141
0.09
142
0.0
143
25.4
144
1.0000000000
145
0.0
146
1.0000000000
147
0.09
71
1
72
0
73
0
74
0
75
0
76
0
77
1
78
8
170
0
171
2
172
0
173
0
174
0
175
0
176
0
177
0
178
0
270
2
271
2
272
2
273
2
274
2
275
0
280
0
281
0
282
0
283
1
284
8
285
0
286
0
287
3
288
0
340
11
341
213
342
213
343
213
344
213
0
DIMSTYLE
105
218
100
AcDbSymbolTableRecord
100
AcDbDimStyleTableRecord
2
DIMSTYLE_1
70
0
3

4

40
1.0
41
3.0000000000
42
0.0625
43
0.38
44
0.18
45
0.0
46
0.0
47
0.0000000000
48
0.0000000000
140
3.0000000000
141
0.09
142
0.0
143
25.4
144
1.0000000000
145
0.0
146
1.0000000000
147
0.09
71
0
72
0
73
0
74
0
75
0
76
0
77
1
78
8
170
0
171
2
172
0
173
0
174
0
175
0
176
0
177
0
178
0
270
2
271
2
272
2
273
2
274
2
275
0
280
0
281
0
282
0
283
1
284
8
285
0
286
0
287
3
288
0
340
11
341
213
342
213
343
213
344
213
0
ENDTAB
0
ENDSEC
0
SECTION
2
BLOCKS
0
BLOCK
5
20
100
AcDbEntity
8
0
100
AcDbBlockBegin
2
*MODEL_SPACE
70
0
10
0.0
20
0.0
30
0.0
3
*MODEL_SPACE
1

0
ENDBLK
5
21
100
AcDbEntity
8
0
100
AcDbBlockEnd
0
BLOCK
5
1C
100
AcDbEntity
8
0
100
AcDbBlockBegin
2
*PAPER_SPACE
70
0
10
0.0
20
0.0
30
0.0
3
*PAPER_SPACE
1

0
ENDBLK
5
1D
100
AcDbEntity
8
0
100
AcDbBlockEnd
0
BLOCK
5
219
100
AcDbEntity
8
0
100
AcDbBlockBegin
62
0
6
CONTINUOUS
2
*D0
70
65
10
0.0000000000
20
0.0000000000
3
*D0
1

0
TEXT
5
21A
100
AcDbEntity
8
0
100
AcDbText
62
0
6
CONTINUOUS
10
-17.7974484296
20
30.0106396311
7
STANDARD
40
3.0000000000
1
7,9
41
0.7142857143
72
0
100
AcDbText
0
LINE
5
21B
100
AcDbEntity
8
0
100
AcDbLine
62
0
6
CONTINUOUS
10
-18.8118258175
20
4.4175546540
11
-18.8118258175
21
30.7606396311
0
LINE
5
21C
100
AcDbEntity
8
0
100
AcDbLine
62
0
6
CONTINUOUS
10
-10.9118258175
20
22.1594443803
11
-10.9118258175
21
30.7606396311
0
LINE
5
21D
100
AcDbEntity
8
0
100
AcDbLine
62
0
6
CONTINUOUS
10
-18.8118258175
20
29.2606396311
11
-22.8118258175
21
29.2606396311
0
LINE
5
21E
100
AcDbEntity
8
0
100
AcDbLine
62
0
6
CONTINUOUS
10
-22.8118258175
20
29.2606396311
11
-14.8618258175
21
29.2606396311
0
LINE
5
21F
100
AcDbEntity
8
0
100
AcDbLine
62
0
6
CONTINUOUS
10
-10.9118258175
20
29.2606396311
11
-6.9118258175
21
29.2606396311
0
LINE
5
220
100
AcDbEntity
8
0
100
AcDbLine
62
0
6
CONTINUOUS
10
-6.9118258175
20
29.2606396311
11
-14.8618258175
21
29.2606396311
0
INSERT
5
221
100
AcDbEntity
8
0
100
AcDbBlockReference
62
0
6
CONTINUOUS
2
_FILLED
10
-18.8118258175
20
29.2606396311
41
  3.000000
42
  3.000000
43
  3.000000
0
INSERT
5
222
100
AcDbEntity
8
0
100
AcDbBlockReference
62
0
6
CONTINUOUS
2
_FILLED
10
-10.9118258175
20
29.2606396311
41
  3.000000
42
  3.000000
43
  3.000000
50
180.000000
0
ENDBLK
5
223
100
AcDbEntity
8
0
6
BYBLOCK
62
0
100
AcDbBlockEnd
0
BLOCK
5
224
100
AcDbEntity
8
0
100
AcDbBlockBegin
62
0
6
CONTINUOUS
2
*D1
70
65
10
0.0000000000
20
0.0000000000
3
*D1
1

0
TEXT
5
225
100
AcDbEntity
8
0
100
AcDbText
62
0
6
CONTINUOUS
10
18.6576379638
20
28.9129912780
7
STANDARD
40
3.0000000000
1
22,2
41
0.7321428571
72
0
100
AcDbText
0
LINE
5
226
100
AcDbEntity
8
0
100
AcDbLine
62
0
6
CONTINUOUS
10
11.9023201320
20
22.1594443803
11
11.9023201320
21
29.6629912780
0
LINE
5
227
100
AcDbEntity
8
0
100
AcDbLine
62
0
6
CONTINUOUS
10
34.1023201320
20
22.1594443803
11
34.1023201320
21
29.6629912780
0
LINE
5
228
100
AcDbEntity
8
0
100
AcDbLine
62
0
6
CONTINUOUS
10
11.9023201320
20
28.1629912780
11
23.0023201320
21
28.1629912780
0
LINE
5
229
100
AcDbEntity
8
0
100
AcDbLine
62
0
6
CONTINUOUS
10
34.1023201320
20
28.1629912780
11
23.0023201320
21
28.1629912780
0
INSERT
5
22A
100
AcDbEntity
8
0
100
AcDbBlockReference
62
0
6
CONTINUOUS
2
_FILLED
10
11.9023201320
20
28.1629912780
41
  3.000000
42
  3.000000
43
  3.000000
50
180.000000
0
INSERT
5
22B
100
AcDbEntity
8
0
100
AcDbBlockReference
62
0
6
CONTINUOUS
2
_FILLED
10
34.1023201320
20
28.1629912780
41
  3.000000
42
  3.000000
43
  3.000000
0
ENDBLK
5
22C
100
AcDbEntity
8
0
6
BYBLOCK
62
0
100
AcDbBlockEnd
0
BLOCK
5
22D
100
AcDbEntity
8
0
100
AcDbBlockBegin
62
0
6
CONTINUOUS
2
*D2
70
65
10
0.0000000000
20
0.0000000000
3
*D2
1

0
TEXT
5
22E
100
AcDbEntity
8
0
100
AcDbText
62
0
6
CONTINUOUS
10
40.2674305785
20
-4.4006534952
7
STANDARD
40
3.0000000000
1
43,7
50
90.0000000000
41
0.7142857143
72
0
100
AcDbText
0
LINE
5
22F
100
AcDbEntity
8
0
100
AcDbLine
62
0
6
CONTINUOUS
10
34.7340915475
20
21.7987433734
11
42.5174305785
21
21.7987433734
0
LINE
5
230
100
AcDbEntity
8
0
100
AcDbLine
62
0
6
CONTINUOUS
10
34.7340915475
20
-21.9012566266
11
42.5174305785
21
-21.9012566266
0
LINE
5
231
100
AcDbEntity
8
0
100
AcDbLine
62
0
6
CONTINUOUS
10
41.0174305785
20
21.7987433734
11
41.0174305785
21
-0.0512566266
0
LINE
5
232
100
AcDbEntity
8
0
100
AcDbLine
62
0
6
CONTINUOUS
10
41.0174305785
20
-21.9012566266
11
41.0174305785
21
-0.0512566266
0
INSERT
5
233
100
AcDbEntity
8
0
100
AcDbBlockReference
62
0
6
CONTINUOUS
2
_FILLED
10
41.0174305785
20
21.7987433734
41
  3.000000
42
  3.000000
43
  3.000000
50
 90.000000
0
INSERT
5
234
100
AcDbEntity
8
0
100
AcDbBlockReference
62
0
6
CONTINUOUS
2
_FILLED
10
41.0174305785
20
-21.9012566266
41
  3.000000
42
  3.000000
43
  3.000000
50
270.000000
0
ENDBLK
5
235
100
AcDbEntity
8
0
6
BYBLOCK
62
0
100
AcDbBlockEnd
0
BLOCK
5
236
100
AcDbEntity
8
0
100
AcDbBlockBegin
2
_FILLED
70
64
10
0.0000000000
20
0.0000000000
3
_FILLED
1

0
SOLID
5
237
100
AcDbEntity
8
0
6
BYBLOCK
62
0
100
AcDbTrace
10
0.0000000000
20
0.0000000000
11
-1.0000000000
21
0.3166666667
12
-1.0000000000
22
-0.3166666667
13
-1.0000000000
23
-0.3166666667
0
ENDBLK
5
238
100
AcDbEntity
8
0
6
BYBLOCK
62
0
100
AcDbBlockEnd
0
ENDSEC
0
SECTION
2
ENTITIES
0
DIMENSION
5
239
100
AcDbEntity
8
0
100
AcDbDimension
62
0
6
CONTINUOUS
2
*D0
10
-10.9118258175
20
29.2606396311
11
-14.5831627153
21
31.5106396311
70
160
42
7.900000
3
DIMSTYLE_1
100
AcDbAlignedDimension
13
-18.8118258175
23
4.4175546540
14
-10.9118258175
24
22.1594443803
100
AcDbRotatedDimension
0
DIMENSION
5
23A
100
AcDbEntity
8
0
100
AcDbDimension
62
0
6
CONTINUOUS
2
*D1
10
34.1023201320
20
28.1629912780
11
23.0504951066
21
30.4129912780
70
160
42
22.200000
3
DIMSTYLE_1
100
AcDbAlignedDimension
13
11.9023201320
23
22.1594443803
14
34.1023201320
24
22.1594443803
100
AcDbRotatedDimension
0
DIMENSION
5
23B
100
AcDbEntity
8
0
100
AcDbDimension
62
0
6
CONTINUOUS
2
*D2
10
41.0174305785
20
-21.9012566266
11
38.7674305785
21
-0.1149392095
70
160
42
43.700000
3
DIMSTYLE_1
100
AcDbAlignedDimension
13
34.7340915475
23
21.7987433734
14
34.7340915475
24
-21.9012566266
50
270.000000
100
AcDbRotatedDimension
0
LINE
5
23C
100
AcDbEntity
8
0
100
AcDbLine
62
0
6
CONTINUOUS
10
12.7021982881
20
-21.9012566266
11
33.3024419759
21
-21.9012566266
0
LINE
5
23D
100
AcDbEntity
8
0
100
AcDbLine
62
9
6
CONTINUOUS
10
33.2022759041
20
-21.8010905548
11
12.8023643600
21
-21.8010905548
0
LINE
5
23E
100
AcDbEntity
8
0
100
AcDbLine
62
9
6
CONTINUOUS
10
33.1902987501
20
-20.4030781195
11
12.8143415140
21
-20.4030781195
0
LINE
5
23F
100
AcDbEntity
8
0
100
AcDbLine
62
9
6
CONTINUOUS
10
25.1023201320
20
-17.6147298507
11
20.9023201320
21
-17.6147298507
0
LINE
5
240
100
AcDbEntity
8
0
100
AcDbLine
62
9
6
CONTINUOUS
10
25.1023201320
20
-17.5088905901
11
20.9023201320
21
-17.5088905901
0
LINE
5
241
100
AcDbEntity
8
0
100
AcDbLine
62
9
6
CONTINUOUS
10
20.9023201320
20
-17.3362604102
11
25.1023201320
21
-17.3362604102
0
LINE
5
242
100
AcDbEntity
8
0
100
AcDbLine
62
9
6
CONTINUOUS
10
20.9023201320
20
-17.2420039803
11
25.1023201320
21
-17.2420039803
0
LINE
5
243
100
AcDbEntity
8
ASSI
100
AcDbLine
62
9
6
CONTINUOUS
10
26.3041641320
20
-13.2445256266
11
25.6053841320
21
-13.2445256266
0
LINE
5
244
100
AcDbEntity
8
ASSI
100
AcDbLine
62
9
6
CONTINUOUS
10
20.4142981320
20
-13.2445256266
11
19.7155171320
21
-13.2445256266
0
LINE
5
245
100
AcDbEntity
8
ASSI
100
AcDbLine
62
9
6
CONTINUOUS
10
26.3041641320
20
-13.0996766266
11
25.6053841320
21
-13.0996766266
0
LINE
5
246
100
AcDbEntity
8
ASSI
100
AcDbLine
62
9
6
CONTINUOUS
10
19.7155171320
20
-13.0895776266
11
20.4142981320
21
-13.0895776266
0
LINE
5
247
100
AcDbEntity
8
ASSI
100
AcDbLine
62
9
6
CONTINUOUS
10
25.6053841320
20
-12.9447286266
11
26.3041641320
21
-12.9447286266
0
LINE
5
248
100
AcDbEntity
8
ASSI
100
AcDbLine
62
9
6
CONTINUOUS
10
19.7155171320
20
-12.9445556266
11
20.4142981320
21
-12.9445556266
0
LINE
5
249
100
AcDbEntity
8
0
100
AcDbLine
62
0
6
CONTINUOUS
10
11.9023201320
20
-21.1013784705
11
11.9023201320
21
20.9988652173
0
LINE
5
24A
100
AcDbEntity
8
0
100
AcDbLine
62
0
6
CONTINUOUS
10
16.9266943124
20
-11.0442636883
11
16.9346730836
21
-11.0512566266
0
LINE
5
24B
100
AcDbEntity
8
0
100
AcDbLine
62
9
6
CONTINUOUS
10
12.8143415140
20
-20.4030781195
11
12.8143415140
21
20.3005648663
0
LINE
5
24C
100
AcDbEntity
8
0
100
AcDbLine
62
0
6
CONTINUOUS
10
17.2254876964
20
-10.5425077603
11
17.4186177264
21
-10.5425077603
0
LINE
5
24D
100
AcDbEntity
8
0
100
AcDbLine
62
0
6
CONTINUOUS
10
28.5860225376
20
-10.5425077603
11
28.7791821303
21
-10.5425077603
0
LINE
5
24E
100
AcDbEntity
8
ASSI
100
AcDbLine
62
9
6
CONTINUOUS
10
23.7993691320
20
-10.5155286266
11
22.2333991320
21
-10.5155286266
0
LINE
5
24F
100
AcDbEntity
8
ASSI
100
AcDbLine
62
9
6
CONTINUOUS
10
22.0784521320
20
-10.3605816266
11
23.9543171320
21
-10.3605816266
0
LINE
5
250
100
AcDbEntity
8
ASSI
100
AcDbLine
62
9
6
CONTINUOUS
10
22.0835115875
20
-10.2156286266
11
23.9491825829
21
-10.2155596266
0
LINE
5
251
100
AcDbEntity
8
0
100
AcDbLine
62
9
6
CONTINUOUS
10
33.3024419759
20
21.7987433734
11
33.2022759041
21
21.6985773016
0
LINE
5
252
100
AcDbEntity
8
0
100
AcDbLine
62
9
6
CONTINUOUS
10
25.1023201320
20
-8.8755123519
11
20.9023201320
21
-8.8755123519
0
LINE
5
253
100
AcDbEntity
8
0
100
AcDbLine
62
9
6
CONTINUOUS
10
25.1023201320
20
-8.7725871440
11
20.9023201320
21
-8.7725871440
0
LINE
5
254
100
AcDbEntity
8
0
100
AcDbLine
62
9
6
CONTINUOUS
10
20.9023201320
20
-8.5867150413
11
25.1023201320
21
-8.5867150413
0
LINE
5
255
100
AcDbEntity
8
0
100
AcDbLine
62
9
6
CONTINUOUS
10
20.9023201320
20
-8.4895430340
11
25.1023201320
21
-8.4895430340
0
LINE
5
256
100
AcDbEntity
8
0
100
AcDbLine
62
9
6
CONTINUOUS
10
33.2022759041
20
-21.8010905548
11
33.3024419759
21
-21.9012566266
0
LINE
5
257
100
AcDbEntity
8
0
100
AcDbLine
62
9
6
CONTINUOUS
10
34.1023201320
20
20.9988652173
11
34.0021540602
21
20.8986991454
0
LINE
5
258
100
AcDbEntity
8
0
100
AcDbLine
62
9
6
CONTINUOUS
10
34.0021540602
20
-21.0012123987
11
34.1023201320
21
-21.1013784705
0
LINE
5
259
100
AcDbEntity
8
0
100
AcDbLine
62
0
6
CONTINUOUS
10
18.5023201320
20
-16.6191691816
11
18.5023201320
21
-16.7960110870
0
LINE
5
25A
100
AcDbEntity
8
0
100
AcDbLine
62
9
6
CONTINUOUS
10
20.9023201320
20
-8.4895430340
11
20.9023201320
21
-8.5867150413
0
LINE
5
25B
100
AcDbEntity
8
0
100
AcDbLine
62
9
6
CONTINUOUS
10
20.9023201320
20
-17.2420039803
11
20.9023201320
21
-17.3362604102
0
LINE
5
25C
100
AcDbEntity
8
0
100
AcDbLine
62
9
6
CONTINUOUS
10
20.9023201320
20
-8.8755123519
11
20.9023201335
21
-8.7725871440
0
LINE
5
25D
100
AcDbEntity
8
0
100
AcDbLine
62
9
6
CONTINUOUS
10
20.9023201320
20
-17.6147298507
11
20.9023201456
21
-17.5088905901
0
LINE
5
25E
100
AcDbEntity
8
ASSI
100
AcDbLine
62
9
6
CONTINUOUS
10
21.9336031320
20
-11.4204086266
11
21.9336031320
21
-10.3655446561
0
LINE
5
25F
100
AcDbEntity
8
ASSI
100
AcDbLine
62
9
6
CONTINUOUS
10
22.0784521320
20
-11.5030106266
11
22.0784521320
21
-10.3605816607
0
LINE
5
260
100
AcDbEntity
8
ASSI
100
AcDbLine
62
9
6
CONTINUOUS
10
22.2333991320
20
-10.5155286266
11
22.2333991320
21
-11.4869276582
0
LINE
5
261
100
AcDbEntity
8
ASSI
100
AcDbLine
62
9
6
CONTINUOUS
10
22.8598561320
20
-16.3888646266
11
22.8598561320
21
-15.6900846320
0
LINE
5
262
100
AcDbEntity
8
ASSI
100
AcDbLine
62
9
6
CONTINUOUS
10
23.0047061320
20
-16.3888646266
11
23.0047061320
21
-15.6900846320
0
LINE
5
263
100
AcDbEntity
8
ASSI
100
AcDbLine
62
9
6
CONTINUOUS
10
23.1596541320
20
-15.6900846266
11
23.1596541320
21
-16.3888646212
0
LINE
5
264
100
AcDbEntity
8
0
100
AcDbLine
62
0
6
CONTINUOUS
10
17.4144813469
20
-10.5512566266
11
17.4186177264
21
-10.5425077603
0
LINE
5
265
100
AcDbEntity
8
ASSI
100
AcDbLine
62
9
6
CONTINUOUS
10
23.7993691320
20
-11.5058406266
11
23.7993691320
21
-10.5155286573
0
LINE
5
266
100
AcDbEntity
8
ASSI
100
AcDbLine
62
9
6
CONTINUOUS
10
23.9543171320
20
-10.3605816266
11
23.9543171320
21
-11.5030695918
0
LINE
5
267
100
AcDbEntity
8
ASSI
100
AcDbLine
62
9
6
CONTINUOUS
10
24.0991976311
20
-10.3656082728
11
24.0991976311
21
-11.4241620644
0
LINE
5
268
100
AcDbEntity
8
0
100
AcDbLine
62
0
6
CONTINUOUS
10
28.5860225376
20
-10.5425077603
11
28.5901589171
21
-10.5512566266
0
LINE
5
269
100
AcDbEntity
8
0
100
AcDbLine
62
9
6
CONTINUOUS
10
25.1023201320
20
-17.6147298507
11
25.1023201320
21
-17.5088905901
0
LINE
5
26A
100
AcDbEntity
8
0
100
AcDbLine
62
9
6
CONTINUOUS
10
25.1023201320
20
-8.8755123519
11
25.1023201320
21
-8.7725871440
0
LINE
5
26B
100
AcDbEntity
8
0
100
AcDbLine
62
9
6
CONTINUOUS
10
25.1023201320
20
-17.2420039803
11
25.1023201305
21
-17.3362604102
0
LINE
5
26C
100
AcDbEntity
8
0
100
AcDbLine
62
9
6
CONTINUOUS
10
25.1023201320
20
-8.4895430340
11
25.1023201185
21
-8.5867150413
0
LINE
5
26D
100
AcDbEntity
8
0
100
AcDbLine
62
0
6
CONTINUOUS
10
27.5023201320
20
-16.7960110870
11
27.5023201320
21
-16.6191691816
0
LINE
5
26E
100
AcDbEntity
8
0
100
AcDbLine
62
9
6
CONTINUOUS
10
11.9023201320
20
-21.1013784705
11
12.0024862038
21
-21.0012123987
0
LINE
5
26F
100
AcDbEntity
8
0
100
AcDbLine
62
9
6
CONTINUOUS
10
12.0024862038
20
20.8986991454
11
11.9023201320
21
20.9988652173
0
LINE
5
270
100
AcDbEntity
8
0
100
AcDbLine
62
9
6
CONTINUOUS
10
12.7021982881
20
-21.9012566266
11
12.8023643600
21
-21.8010905548
0
LINE
5
271
100
AcDbEntity
8
0
100
AcDbLine
62
9
6
CONTINUOUS
10
12.8023643600
20
21.6985773016
11
12.7021982881
21
21.7987433734
0
LINE
5
272
100
AcDbEntity
8
0
100
AcDbLine
62
9
6
CONTINUOUS
10
33.1902987501
20
20.3005648663
11
33.1902987501
21
-20.4030781195
0
LINE
5
273
100
AcDbEntity
8
0
100
AcDbLine
62
0
6
CONTINUOUS
10
34.1023201320
20
-21.1013784705
11
34.1023201320
21
20.9988652173
0
LINE
5
274
100
AcDbEntity
8
0
100
AcDbLine
62
0
6
CONTINUOUS
10
29.0779458650
20
-11.0442652613
11
29.0699671804
21
-11.0512566266
0
LINE
5
275
100
AcDbEntity
8
0
100
AcDbLine
62
9
6
CONTINUOUS
10
33.1902987501
20
20.3005648663
11
12.8143415140
21
20.3005648663
0
LINE
5
276
100
AcDbEntity
8
0
100
AcDbLine
62
9
6
CONTINUOUS
10
33.2022759041
20
21.6985773016
11
12.8023643600
21
21.6985773016
0
LINE
5
277
100
AcDbEntity
8
0
100
AcDbLine
62
0
6
CONTINUOUS
10
12.7021982881
20
21.7987433734
11
33.3024419759
21
21.7987433734
0
LINE
5
278
100
AcDbEntity
8
0
100
AcDbLine
62
0
6
CONTINUOUS
10
-16.6503362292
20
-21.8010905548
11
-10.9118258175
21
-21.9012566266
0
LINE
5
279
100
AcDbEntity
8
0
100
AcDbLine
62
9
6
CONTINUOUS
10
-17.3365069225
20
-20.3488065955
11
-18.1207015843
21
-20.4030780912
0
LINE
5
27A
100
AcDbEntity
8
0
100
AcDbLine
62
9
6
CONTINUOUS
10
-16.6503362292
20
-21.0012123987
11
-10.9118258175
21
-21.1013784705
0
LINE
5
27B
100
AcDbEntity
8
ASSI
100
AcDbLine
62
9
6
CONTINUOUS
10
-18.6396430367
20
-10.2156286266
11
-18.6396453750
21
-10.2155596266
0
LINE
5
27C
100
AcDbEntity
8
0
100
AcDbLine
62
0
6
CONTINUOUS
10
-10.9118258175
20
-21.9012566266
11
-10.9118258175
21
21.7987433734
0
LINE
5
27D
100
AcDbEntity
8
0
100
AcDbLine
62
9
6
CONTINUOUS
10
-17.3365069225
20
20.2462933423
11
-18.1207019600
21
20.3005648635
0
LINE
5
27E
100
AcDbEntity
8
0
100
AcDbLine
62
9
6
CONTINUOUS
10
-10.9118258175
20
20.9988652173
11
-16.6503362292
21
20.8986991454
0
LINE
5
27F
100
AcDbEntity
8
0
100
AcDbLine
62
0
6
CONTINUOUS
10
-10.9118258175
20
21.7987433734
11
-16.6503362292
21
21.6985773016
0
ARC
5
280
100
AcDbEntity
8
0
100
AcDbCircle
62
0
6
CONTINUOUS
10
25.1023201320
20
-13.0512566266
40
4.2912724675
100
AcDbArc
50
324.3679448432
51
35.6320551568
0
ARC
5
281
100
AcDbEntity
8
0
100
AcDbCircle
62
0
6
CONTINUOUS
10
20.9023201320
20
-13.0512566266
40
4.2912724675
100
AcDbArc
50
144.3679448432
51
215.6320551568
0
ARC
5
282
100
AcDbEntity
8
0
100
AcDbCircle
62
0
6
CONTINUOUS
10
20.9023201320
20
-13.0512566266
40
4.2930179740
100
AcDbArc
50
89.9963039701
51
144.2408799387
0
ARC
5
283
100
AcDbEntity
8
0
100
AcDbCircle
62
0
6
CONTINUOUS
10
25.1023201320
20
-13.0512566266
40
4.2930179740
100
AcDbArc
50
35.7591200613
51
90.0036960346
0
ARC
5
284
100
AcDbEntity
8
0
100
AcDbCircle
62
0
6
CONTINUOUS
10
25.1023201320
20
-13.0512566266
40
4.3000000000
100
AcDbArc
50
269.9963756459
51
323.7316107101
0
ARC
5
285
100
AcDbEntity
8
0
100
AcDbCircle
62
0
6
CONTINUOUS
10
20.9023201320
20
-13.0512566266
40
4.3000000000
100
AcDbArc
50
216.2683892899
51
269.9963579683
0
ARC
5
286
100
AcDbEntity
8
0
100
AcDbCircle
62
0
6
CONTINUOUS
10
25.1023201320
20
-13.0512566266
40
4.4534946176
100
AcDbArc
50
26.7857410370
51
90.0000000000
0
ARC
5
287
100
AcDbEntity
8
0
100
AcDbCircle
62
0
6
CONTINUOUS
10
20.9023201320
20
-13.0512566266
40
4.4534954039
100
AcDbArc
50
90.0000000000
51
153.2142414002
0
ARC
5
288
100
AcDbEntity
8
0
100
AcDbCircle
62
0
6
CONTINUOUS
10
20.9023201320
20
-13.0512566266
40
4.4500000000
100
AcDbArc
50
153.2445513122
51
270.0000000000
0
ARC
5
289
100
AcDbEntity
8
0
100
AcDbCircle
62
0
6
CONTINUOUS
10
25.1023201320
20
-13.0512566266
40
4.4500000000
100
AcDbArc
50
270.0000000000
51
26.7558508609
0
ARC
5
28A
100
AcDbEntity
8
0
100
AcDbCircle
62
0
6
CONTINUOUS
10
281.2881741825
20
-0.0512566266
40
300.1000000000
100
AcDbArc
50
181.6849899905
51
183.2838944955
0
ARC
5
28B
100
AcDbEntity
8
ASSI
100
AcDbCircle
62
9
6
CONTINUOUS
10
281.2881741825
20
-0.0512566266
40
300.1000000000
100
AcDbArc
50
182.9871539301
51
183.0571242329
0
ARC
5
28C
100
AcDbEntity
8
ASSI
100
AcDbCircle
62
9
6
CONTINUOUS
10
281.2881741825
20
-0.0512566266
40
300.1000000000
100
AcDbArc
50
181.9686672893
51
182.1874667881
0
ARC
5
28D
100
AcDbEntity
8
0
100
AcDbCircle
62
0
6
CONTINUOUS
10
-16.6241576196
20
-20.3013190121
40
1.5000000000
100
AcDbArc
50
183.8898991621
51
269.0000000000
0
ARC
5
28E
100
AcDbEntity
8
0
100
AcDbCircle
62
0
6
CONTINUOUS
10
281.1881741825
20
-0.0512566266
40
300.0000000000
100
AcDbArc
50
176.1101008379
51
183.8898991621
0
ARC
5
28F
100
AcDbEntity
8
0
100
AcDbCircle
62
0
6
CONTINUOUS
10
-16.6241576196
20
20.1988057588
40
1.5000000000
100
AcDbArc
50
91.0000000000
51
176.1101008379
0
SPLINE
5
290
100
AcDbEntity
8
0
100
AcDbSpline
62
0
6
CONTINUOUS
70
0
71
3
72
8
73
4
74
2
42
0.0000001000
43
0.0000001000
44
0.0000000001
12
0.2785429938
22
0.0000180360
32
0.0000000000
13
0.2783545131
23
0.0181835943
33
0.0000000000
40
0.0000000000
40
0.0000000000
40
0.0000000000
40
0.0000000000
40
1.0000000000
40
1.0000000000
40
1.0000000000
40
1.0000000000
10
25.1023201320
20
-17.3362604102
30
0.0000000000
10
25.1951677966
20
-17.3362543982
30
0.0000000000
10
25.2881003627
20
-17.3332118937
30
0.0000000000
10
25.3808852004
20
-17.3271506956
30
0.0000000000
11
25.1023201320
21
-17.3362604102
31
0.0000000000
11
25.3808852004
21
-17.3271506956
31
0.0000000000
0
SPLINE
5
291
100
AcDbEntity
8
0
100
AcDbSpline
62
0
6
CONTINUOUS
70
0
71
3
72
12
73
8
74
6
42
0.0000001000
43
0.0000001000
44
0.0000000001
12
3.6327915732
22
0.2373132285
32
0.0000000000
13
2.2185697285
23
2.8871553011
33
0.0000000000
40
0.0000000000
40
0.0000000000
40
0.0000000000
40
0.0000000000
40
0.1533441899
40
0.3841512093
40
0.6150915329
40
0.8459879370
40
1.0000000000
40
1.0000000000
40
1.0000000000
40
1.0000000000
10
25.3808852004
20
-17.3271506956
30
0.0000000000
10
25.5665743607
20
-17.3150204940
30
0.0000000000
10
26.0302725480
20
-17.2543442717
30
0.0000000000
10
26.7480497594
20
-17.0371335260
30
0.0000000000
10
27.4934020207
20
-16.6394991341
30
0.0000000000
10
28.0743086652
20
-16.1634440866
30
0.0000000000
10
28.3831902439
20
-15.8116302807
30
0.0000000000
10
28.4970857442
20
-15.6634113659
30
0.0000000000
11
25.3808852004
21
-17.3271506956
31
0.0000000000
11
25.9343130209
21
-17.2546317688
31
0.0000000000
11
26.7374132624
21
-17.0116899629
31
0.0000000000
11
27.4781092555
21
-16.6165019194
31
0.0000000000
11
28.1273313139
21
-16.0844804788
31
0.0000000000
11
28.4970857442
21
-15.6634113659
31
0.0000000000
0
SPLINE
5
292
100
AcDbEntity
8
0
100
AcDbSpline
62
0
6
CONTINUOUS
70
0
71
3
72
8
73
4
74
2
42
0.0000001000
43
0.0000001000
44
0.0000000001
12
0.1708735037
22
0.2223677425
32
0.0000000000
13
0.1559411160
23
0.2330794572
33
0.0000000000
40
0.0000000000
40
0.0000000000
40
0.0000000000
40
0.0000000000
40
1.0000000000
40
1.0000000000
40
1.0000000000
40
1.0000000000
10
28.4970857442
20
-15.6634113659
30
0.0000000000
10
28.5540435787
20
-15.5892887851
30
0.0000000000
10
28.6085765065
20
-15.5133033193
30
0.0000000000
10
28.6605568785
20
-15.4356101669
30
0.0000000000
11
28.4970857442
21
-15.6634113659
31
0.0000000000
11
28.6605568785
21
-15.4356101669
31
0.0000000000
0
SPLINE
5
293
100
AcDbEntity
8
0
100
AcDbSpline
62
0
6
CONTINUOUS
70
0
71
3
72
8
73
4
74
2
42
0.0000001000
43
0.0000001000
44
0.0000000001
12
0.1559489793
22
0.2330912102
32
0.0000000000
13
0.1403481275
23
0.2428070869
33
0.0000000000
40
0.0000000000
40
0.0000000000
40
0.0000000000
40
0.0000000000
40
1.0000000000
40
1.0000000000
40
1.0000000000
40
1.0000000000
10
28.6605568785
20
-15.4356101669
30
0.0000000000
10
28.7125398716
20
-15.3579130969
30
0.0000000000
10
28.7619700515
20
-15.2785081680
30
0.0000000000
10
28.8087527607
20
-15.1975724723
30
0.0000000000
11
28.6605568785
21
-15.4356101669
31
0.0000000000
11
28.8087527607
21
-15.1975724723
31
0.0000000000
0
SPLINE
5
294
100
AcDbEntity
8
0
100
AcDbSpline
62
0
6
CONTINUOUS
70
0
71
3
72
8
73
4
74
2
42
0.0000001000
43
0.0000001000
44
0.0000000001
12
0.1174945002
22
0.2032695258
32
0.0000000000
13
0.1061950910
23
0.2093947929
33
0.0000000000
40
0.0000000000
40
0.0000000000
40
0.0000000000
40
0.0000000000
40
1.0000000000
40
1.0000000000
40
1.0000000000
40
1.0000000000
10
28.8087527607
20
-15.1975724723
30
0.0000000000
10
28.8479175941
20
-15.1298159638
30
0.0000000000
10
28.8852269615
20
-15.0609866253
30
0.0000000000
10
28.9206253251
20
-14.9911883610
30
0.0000000000
11
28.8087527607
21
-15.1975724723
31
0.0000000000
11
28.9206253251
21
-14.9911883610
31
0.0000000000
0
SPLINE
5
295
100
AcDbEntity
8
0
100
AcDbSpline
62
0
6
CONTINUOUS
70
0
71
3
72
8
73
4
74
2
42
0.0000001000
43
0.0000001000
44
0.0000000001
12
0.0206643542
22
0.0407458399
32
0.0000000000
13
0.0202289689
23
0.0409636719
33
0.0000000000
40
0.0000000000
40
0.0000000000
40
0.0000000000
40
0.0000000000
40
1.0000000000
40
1.0000000000
40
1.0000000000
40
1.0000000000
10
28.9206253251
20
-14.9911883610
30
0.0000000000
10
28.9275134432
20
-14.9776064144
30
0.0000000000
10
28.9343292016
20
-14.9639877796
30
0.0000000000
10
28.9410721913
20
-14.9503332223
30
0.0000000000
11
28.9206253251
21
-14.9911883610
31
0.0000000000
11
28.9410721913
21
-14.9503332223
31
0.0000000000
0
SPLINE
5
296
100
AcDbEntity
8
0
100
AcDbSpline
62
0
6
CONTINUOUS
70
0
71
3
72
8
73
4
74
2
42
0.0000001000
43
0.0000001000
44
0.0000000001
12
0.1241934768
22
0.2514918517
32
0.0000000000
13
0.1074525484
23
0.2590843510
33
0.0000000000
40
0.0000000000
40
0.0000000000
40
0.0000000000
40
0.0000000000
40
1.0000000000
40
1.0000000000
40
1.0000000000
40
1.0000000000
10
28.9410721913
20
-14.9503332223
30
0.0000000000
10
28.9824700169
20
-14.8665026051
30
0.0000000000
10
29.0211250340
20
-14.7813179926
30
0.0000000000
10
29.0569425501
20
-14.6949565423
30
0.0000000000
11
28.9410721913
21
-14.9503332223
31
0.0000000000
11
29.0569425501
21
-14.6949565423
31
0.0000000000
0
SPLINE
5
297
100
AcDbEntity
8
0
100
AcDbSpline
62
0
6
CONTINUOUS
70
0
71
3
72
8
73
4
74
2
42
0.0000001000
43
0.0000001000
44
0.0000000001
12
0.1074583215
22
0.2590982708
32
0.0000000000
13
0.0902563775
23
0.2655832914
33
0.0000000000
40
0.0000000000
40
0.0000000000
40
0.0000000000
40
0.0000000000
40
1.0000000000
40
1.0000000000
40
1.0000000000
40
1.0000000000
10
29.0569425501
20
-14.6949565423
30
0.0000000000
10
29.0927619906
20
-14.6085904520
30
0.0000000000
10
29.1257436252
20
-14.5210473974
30
0.0000000000
10
29.1558290844
20
-14.4325196337
30
0.0000000000
11
29.0569425501
21
-14.6949565423
31
0.0000000000
11
29.1558290844
21
-14.4325196337
31
0.0000000000
0
SPLINE
5
298
100
AcDbEntity
8
0
100
AcDbSpline
62
0
6
CONTINUOUS
70
0
71
3
72
11
73
7
74
5
42
0.0000001000
43
0.0000001000
44
0.0000000001
12
0.9024830600
22
2.6555954062
32
0.0000000000
13
-0.9016240783
23
2.6558836749
33
0.0000000000
40
0.0000000000
40
0.0000000000
40
0.0000000000
40
0.0000000000
40
0.2000250726
40
0.5000514454
40
0.8000385209
40
1.0000000000
40
1.0000000000
40
1.0000000000
40
1.0000000000
10
29.1558290844
20
-14.4325196337
30
0.0000000000
10
29.2160021643
20
-14.2554577457
30
0.0000000000
10
29.3374682992
20
-13.8029653935
30
0.0000000000
10
29.4112900800
20
-13.0550105160
30
0.0000000000
10
29.3376749965
20
-12.3070965976
30
0.0000000000
10
29.2163709302
20
-11.8546617521
30
0.0000000000
10
29.1562742355
20
-11.6776369428
30
0.0000000000
11
29.1558290844
21
-14.4325196337
31
0.0000000000
11
29.3011247146
21
-13.8910548166
31
0.0000000000
11
29.3836452870
21
-13.0549703086
31
0.0000000000
11
29.3013599691
21
-12.2189731886
31
0.0000000000
11
29.1562742355
21
-11.6776369428
31
0.0000000000
0
SPLINE
5
299
100
AcDbEntity
8
0
100
AcDbSpline
62
0
6
CONTINUOUS
70
0
71
3
72
8
73
4
74
2
42
0.0000001000
43
0.0000001000
44
0.0000000001
12
-0.0901365092
22
0.2655120789
32
0.0000000000
13
-0.1073276214
23
0.2590377010
33
0.0000000000
40
0.0000000000
40
0.0000000000
40
0.0000000000
40
0.0000000000
40
1.0000000000
40
1.0000000000
40
1.0000000000
40
1.0000000000
10
29.1562742355
20
-11.6776369428
30
0.0000000000
10
29.1262287324
20
-11.5891329165
30
0.0000000000
10
29.0932889219
20
-11.5016119269
30
0.0000000000
10
29.0575130481
20
-11.4152660265
30
0.0000000000
11
29.1562742355
21
-11.6776369428
31
0.0000000000
11
29.0575130481
21
-11.4152660265
31
0.0000000000
0
SPLINE
5
29A
100
AcDbEntity
8
0
100
AcDbSpline
62
0
6
CONTINUOUS
70
0
71
3
72
8
73
4
74
2
42
0.0000001000
43
0.0000001000
44
0.0000000001
12
-0.1272105423
22
0.3070255913
32
0.0000000000
13
-0.1506434254
23
0.2962365474
33
0.0000000000
40
0.0000000000
40
0.0000000000
40
0.0000000000
40
0.0000000000
40
1.0000000000
40
1.0000000000
40
1.0000000000
40
1.0000000000
10
29.0575130481
20
-11.4152660265
30
0.0000000000
10
29.0151095340
20
-11.3129241628
30
0.0000000000
10
28.9687218384
20
-11.2122330974
30
0.0000000000
10
28.9185073633
20
-11.1134875816
30
0.0000000000
11
29.0575130481
21
-11.4152660265
31
0.0000000000
11
28.9185073633
21
-11.1134875816
31
0.0000000000
0
SPLINE
5
29B
100
AcDbEntity
8
0
100
AcDbSpline
62
0
6
CONTINUOUS
70
0
71
3
72
8
73
4
74
2
42
0.0000001000
43
0.0000001000
44
0.0000000001
12
-0.1035227921
22
0.2035749946
32
0.0000000000
13
-0.1142127165
23
0.1977753162
33
0.0000000000
40
0.0000000000
40
0.0000000000
40
0.0000000000
40
0.0000000000
40
1.0000000000
40
1.0000000000
40
1.0000000000
40
1.0000000000
10
28.9185073633
20
-11.1134875816
30
0.0000000000
10
28.8839997659
20
-11.0456292501
30
0.0000000000
10
28.8476849735
20
-10.9786897035
30
0.0000000000
10
28.8096140680
20
-10.9127645981
30
0.0000000000
11
28.9185073633
21
-11.1134875816
31
0.0000000000
11
28.8096140680
21
-10.9127645981
31
0.0000000000
0
SPLINE
5
29C
100
AcDbEntity
8
0
100
AcDbSpline
62
0
6
CONTINUOUS
70
0
71
3
72
8
73
4
74
2
42
0.0000001000
43
0.0000001000
44
0.0000000001
12
-0.1401956601
22
0.2427684225
32
0.0000000000
13
-0.1557883322
23
0.2330666327
33
0.0000000000
40
0.0000000000
40
0.0000000000
40
0.0000000000
40
0.0000000000
40
1.0000000000
40
1.0000000000
40
1.0000000000
40
1.0000000000
10
28.8096140680
20
-10.9127645981
30
0.0000000000
10
28.7628821813
20
-10.8318417907
30
0.0000000000
10
28.7135042772
20
-10.7524474889
30
0.0000000000
10
28.6615748331
20
-10.6747586113
30
0.0000000000
11
28.8096140680
21
-10.9127645981
31
0.0000000000
11
28.6615748331
21
-10.6747586113
31
0.0000000000
0
SPLINE
5
29D
100
AcDbEntity
8
0
100
AcDbSpline
62
0
6
CONTINUOUS
70
0
71
3
72
8
73
4
74
2
42
0.0000001000
43
0.0000001000
44
0.0000000001
12
-0.1557859365
22
0.2330630487
32
0.0000000000
13
-0.1707124065
23
0.2223655482
33
0.0000000000
40
0.0000000000
40
0.0000000000
40
0.0000000000
40
0.0000000000
40
1.0000000000
40
1.0000000000
40
1.0000000000
40
1.0000000000
10
28.6615748331
20
-10.6747586113
30
0.0000000000
10
28.6096461876
20
-10.5970709284
30
0.0000000000
10
28.5551660806
20
-10.5210886173
30
0.0000000000
10
28.4982619451
20
-10.4469667679
30
0.0000000000
11
28.6615748331
21
-10.6747586113
31
0.0000000000
11
28.4982619451
21
-10.4469667679
31
0.0000000000
0
SPLINE
5
29E
100
AcDbEntity
8
0
100
AcDbSpline
62
0
6
CONTINUOUS
70
0
71
3
72
8
73
4
74
2
42
0.0000001000
43
0.0000001000
44
0.0000000001
12
-0.3413936012
22
0.4446904409
32
0.0000000000
13
-0.3965020950
23
0.3963263841
33
0.0000000000
40
0.0000000000
40
0.0000000000
40
0.0000000000
40
0.0000000000
40
1.0000000000
40
1.0000000000
40
1.0000000000
40
1.0000000000
10
28.4982619451
20
-10.4469667679
30
0.0000000000
10
28.3844640781
20
-10.2987366209
30
0.0000000000
10
28.2609718697
20
-10.1579469603
30
0.0000000000
10
28.1288045047
20
-10.0258381656
30
0.0000000000
11
28.4982619451
21
-10.4469667679
31
0.0000000000
11
28.1288045047
21
-10.0258381656
31
0.0000000000
0
SPLINE
5
29F
100
AcDbEntity
8
0
100
AcDbSpline
62
0
6
CONTINUOUS
70
0
71
3
72
11
73
7
74
5
42
0.0000001000
43
0.0000001000
44
0.0000000001
12
-2.1799288664
22
2.1789628255
32
0.0000000000
13
-3.0752093057
23
0.2010006999
33
0.0000000000
40
0.0000000000
40
0.0000000000
40
0.0000000000
40
0.0000000000
40
0.2727600343
40
0.5456387073
40
0.8186917804
40
1.0000000000
40
1.0000000000
40
1.0000000000
40
1.0000000000
10
28.1288045047
20
-10.0258381656
30
0.0000000000
10
27.9306053473
20
-9.8277268406
30
0.0000000000
10
27.4950945669
20
-9.4704699621
30
0.0000000000
10
26.7495048516
20
-9.0722642390
30
0.0000000000
10
26.0311614641
20
-8.8546505723
30
0.0000000000
10
25.5668954703
20
-8.7938538946
30
0.0000000000
10
25.3810418956
20
-8.7817062016
30
0.0000000000
11
28.1288045047
21
-10.0258381656
31
0.0000000000
11
27.4798441533
21
-9.4935032008
31
0.0000000000
11
26.7391532999
21
-9.0978769560
31
0.0000000000
11
25.9349544233
21
-8.8543428685
31
0.0000000000
11
25.3810418956
21
-8.7817062016
31
0.0000000000
0
SPLINE
5
2A0
100
AcDbEntity
8
0
100
AcDbSpline
62
0
6
CONTINUOUS
70
0
71
3
72
8
73
4
74
2
42
0.0000001000
43
0.0000001000
44
0.0000000001
12
-0.2785108618
22
0.0182039245
32
0.0000000000
13
-0.2786996874
23
0.0000162170
33
0.0000000000
40
0.0000000000
40
0.0000000000
40
0.0000000000
40
0.0000000000
40
1.0000000000
40
1.0000000000
40
1.0000000000
40
1.0000000000
10
25.3810418956
20
-8.7817062016
30
0.0000000000
10
25.2882049417
20
-8.7756382268
30
0.0000000000
10
25.1952200278
20
-8.7725925497
30
0.0000000000
10
25.1023201320
20
-8.7725871440
30
0.0000000000
11
25.3810418956
21
-8.7817062016
31
0.0000000000
11
25.1023201320
21
-8.7725871440
31
0.0000000000
0
SPLINE
5
2A1
100
AcDbEntity
8
0
100
AcDbSpline
62
0
6
CONTINUOUS
70
0
71
3
72
9
73
5
74
3
42
0.0000001000
43
0.0000001000
44
0.0000000001
12
-0.0206767351
22
-0.0438711744
32
0.0000000000
13
-0.0212091994
23
-0.0436162490
33
0.0000000000
40
0.0000000000
40
0.0000000000
40
0.0000000000
40
0.0000000000
40
0.5000024224
40
1.0000000000
40
1.0000000000
40
1.0000000000
40
1.0000000000
10
28.5901589171
20
-15.5512566266
30
0.0000000000
10
28.5867127779
20
-15.5585685244
30
0.0000000000
10
28.5797760288
20
-15.5731713156
30
0.0000000000
10
28.5727505343
20
-15.5877316188
30
0.0000000000
10
28.5692156849
20
-15.5950009584
30
0.0000000000
11
28.5901589171
21
-15.5512566266
31
0.0000000000
11
28.5797538086
21
-15.5731607642
31
0.0000000000
11
28.5692156849
21
-15.5950009584
31
0.0000000000
0
SPLINE
5
2A2
100
AcDbEntity
8
0
100
AcDbSpline
62
0
6
CONTINUOUS
70
0
71
3
72
8
73
4
74
2
42
0.0000001000
43
0.0000001000
44
0.0000000001
12
-0.2788631782
22
-0.0000179678
32
0.0000000000
13
-0.2786740195
23
-0.0182255256
33
0.0000000000
40
0.0000000000
40
0.0000000000
40
0.0000000000
40
0.0000000000
40
1.0000000000
40
1.0000000000
40
1.0000000000
40
1.0000000000
10
20.9023201320
20
-8.7725871440
30
0.0000000000
10
20.8093657393
20
-8.7725931333
30
0.0000000000
10
20.7163261510
20
-8.7756426626
30
0.0000000000
10
20.6234348112
20
-8.7817178378
30
0.0000000000
11
20.9023201320
21
-8.7725871440
31
0.0000000000
11
20.6234348112
21
-8.7817178378
31
0.0000000000
0
SPLINE
5
2A3
100
AcDbEntity
8
0
100
AcDbSpline
62
0
6
CONTINUOUS
70
0
71
3
72
11
73
7
74
5
42
0.0000001000
43
0.0000001000
44
0.0000000001
12
-3.0746715049
22
-0.2010862166
32
0.0000000000
13
-2.1797389344
23
-2.1783929234
33
0.0000000000
40
0.0000000000
40
0.0000000000
40
0.0000000000
40
0.0000000000
40
0.1813572164
40
0.4542627545
40
0.7272050057
40
1.0000000000
40
1.0000000000
40
1.0000000000
40
1.0000000000
10
20.6234348112
20
-8.7817178378
30
0.0000000000
10
20.4375635227
20
-8.7938739833
30
0.0000000000
10
19.9734806859
20
-8.8546660640
30
0.0000000000
10
19.2553007875
20
-9.0722158607
30
0.0000000000
10
18.5098502646
20
-9.4702659804
30
0.0000000000
10
18.0743075999
20
-9.8274888624
30
0.0000000000
10
17.8761003099
20
-10.0255737574
30
0.0000000000
11
20.6234348112
21
-8.7817178378
31
0.0000000000
11
20.0694718503
21
-8.8543853074
31
0.0000000000
11
19.2658426771
21
-9.0977297802
31
0.0000000000
11
18.5250749439
21
-9.4933170029
31
0.0000000000
11
17.8761003099
21
-10.0255737574
31
0.0000000000
0
SPLINE
5
2A4
100
AcDbEntity
8
0
100
AcDbSpline
62
0
6
CONTINUOUS
70
0
71
3
72
8
73
4
74
2
42
0.0000001000
43
0.0000001000
44
0.0000000001
12
-0.5948151148
22
-0.5944478104
32
0.0000000000
13
-0.4673860533
23
-0.6990951908
33
0.0000000000
40
0.0000000000
40
0.0000000000
40
0.0000000000
40
0.0000000000
40
1.0000000000
40
1.0000000000
40
1.0000000000
40
1.0000000000
10
17.8761003099
20
-10.0255737574
30
0.0000000000
10
17.6778286050
20
-10.2237230276
30
0.0000000000
10
17.4990748608
20
-10.4414066373
30
0.0000000000
10
17.3432795097
20
-10.6744383675
30
0.0000000000
11
17.8761003099
21
-10.0255737574
31
0.0000000000
11
17.3432795097
21
-10.6744383675
31
0.0000000000
0
SPLINE
5
2A5
100
AcDbEntity
8
0
100
AcDbSpline
62
0
6
CONTINUOUS
70
0
71
3
72
8
73
4
74
2
42
0.0000001000
43
0.0000001000
44
0.0000000001
12
-0.1558060873
22
-0.2330477890
32
0.0000000000
13
-0.1402149236
23
-0.2427505848
33
0.0000000000
40
0.0000000000
40
0.0000000000
40
0.0000000000
40
0.0000000000
40
1.0000000000
40
1.0000000000
40
1.0000000000
40
1.0000000000
10
17.3432795097
20
-10.6744383675
30
0.0000000000
10
17.2913441473
20
-10.7521209639
30
0.0000000000
10
17.2419600690
20
-10.8315091420
30
0.0000000000
10
17.1952217612
20
-10.9124260036
30
0.0000000000
11
17.3432795097
21
-10.6744383675
31
0.0000000000
11
17.1952217612
21
-10.9124260036
31
0.0000000000
0
SPLINE
5
2A6
100
AcDbEntity
8
0
100
AcDbSpline
62
0
6
CONTINUOUS
70
0
71
3
72
8
73
4
74
2
42
0.0000001000
43
0.0000001000
44
0.0000000001
12
-0.1143748236
22
-0.1980142669
32
0.0000000000
13
-0.1036582524
23
-0.2038291964
33
0.0000000000
40
0.0000000000
40
0.0000000000
40
0.0000000000
40
0.0000000000
40
1.0000000000
40
1.0000000000
40
1.0000000000
40
1.0000000000
10
17.1952217612
20
-10.9124260036
30
0.0000000000
10
17.1570968200
20
-10.9784307592
30
0.0000000000
10
17.1207323323
20
-11.0454526765
30
0.0000000000
10
17.0861795815
20
-11.1133957419
30
0.0000000000
11
17.1952217612
21
-10.9124260036
31
0.0000000000
11
17.0861795815
21
-11.1133957419
31
0.0000000000
0
SPLINE
5
2A7
100
AcDbEntity
8
0
100
AcDbSpline
62
0
6
CONTINUOUS
70
0
71
3
72
8
73
4
74
2
42
0.0000001000
43
0.0000001000
44
0.0000000001
12
-0.1505140789
22
-0.2959645086
32
0.0000000000
13
-0.1271242293
23
-0.3067354202
33
0.0000000000
40
0.0000000000
40
0.0000000000
40
0.0000000000
40
0.0000000000
40
1.0000000000
40
1.0000000000
40
1.0000000000
40
1.0000000000
10
17.0861795815
20
-11.1133957419
30
0.0000000000
10
17.0360082218
20
-11.2120505782
30
0.0000000000
10
16.9896566710
20
-11.3126475340
30
0.0000000000
10
16.9472819279
20
-11.4148926741
30
0.0000000000
11
17.0861795815
21
-11.1133957419
31
0.0000000000
11
16.9472819279
21
-11.4148926741
31
0.0000000000
0
SPLINE
5
2A8
100
AcDbEntity
8
0
100
AcDbSpline
62
0
6
CONTINUOUS
70
0
71
3
72
8
73
4
74
2
42
0.0000001000
43
0.0000001000
44
0.0000000001
12
-0.1073498475
22
-0.2590222239
32
0.0000000000
13
-0.0901600654
23
-0.2654979704
33
0.0000000000
40
0.0000000000
40
0.0000000000
40
0.0000000000
40
0.0000000000
40
1.0000000000
40
1.0000000000
40
1.0000000000
40
1.0000000000
10
16.9472819279
20
-11.4148926741
30
0.0000000000
10
16.9114986454
20
-11.5012334154
30
0.0000000000
10
16.8785511968
20
-11.5887494653
30
0.0000000000
10
16.8484978417
20
-11.6772487888
30
0.0000000000
11
16.9472819279
21
-11.4148926741
31
0.0000000000
11
16.8484978417
21
-11.6772487888
31
0.0000000000
0
SPLINE
5
2A9
100
AcDbEntity
8
0
100
AcDbSpline
62
0
6
CONTINUOUS
70
0
71
3
72
11
73
7
74
5
42
0.0000001000
43
0.0000001000
44
0.0000000001
12
-0.9018596516
22
-2.6557423861
32
0.0000000000
13
0.9021741810
23
-2.6556390492
33
0.0000000000
40
0.0000000000
40
0.0000000000
40
0.0000000000
40
0.0000000000
40
0.1999616131
40
0.4999485749
40
0.7999749912
40
1.0000000000
40
1.0000000000
40
1.0000000000
40
1.0000000000
10
16.8484978417
20
-11.6772487888
30
0.0000000000
10
16.7883854048
20
-11.8542642993
30
0.0000000000
10
16.6670399507
20
-12.3066779912
30
0.0000000000
10
16.5933513011
20
-13.0545689379
30
0.0000000000
10
16.6670933639
20
-13.8025157744
30
0.0000000000
10
16.7885081339
20
-14.2550118045
30
0.0000000000
10
16.8486606001
20
-14.4320765459
30
0.0000000000
11
16.8484978417
21
-11.6772487888
31
0.0000000000
11
16.7033624791
21
-12.2185601296
31
0.0000000000
11
16.6209949435
21
-13.0545314190
31
0.0000000000
11
16.7034264496
21
-13.8906074182
31
0.0000000000
11
16.8486606001
21
-14.4320765459
31
0.0000000000
0
SPLINE
5
2AA
100
AcDbEntity
8
0
100
AcDbSpline
62
0
6
CONTINUOUS
70
0
71
3
72
8
73
4
74
2
42
0.0000001000
43
0.0000001000
44
0.0000000001
12
0.0902255316
22
-0.2655877878
32
0.0000000000
13
0.1074274980
23
-0.2591049229
33
0.0000000000
40
0.0000000000
40
0.0000000000
40
0.0000000000
40
0.0000000000
40
1.0000000000
40
1.0000000000
40
1.0000000000
40
1.0000000000
10
16.8486606001
20
-14.4320765459
30
0.0000000000
10
16.8787357772
20
-14.5206058085
30
0.0000000000
10
16.9117071212
20
-14.6081507184
30
0.0000000000
10
16.9475162872
20
-14.6945190260
30
0.0000000000
11
16.8486606001
21
-14.4320765459
31
0.0000000000
11
16.9475162872
21
-14.6945190260
31
0.0000000000
0
SPLINE
5
2AB
100
AcDbEntity
8
0
100
AcDbSpline
62
0
6
CONTINUOUS
70
0
71
3
72
8
73
4
74
2
42
0.0000001000
43
0.0000001000
44
0.0000000001
12
0.1074219683
22
-0.2590915858
32
0.0000000000
13
0.1241631406
23
-0.2515012221
33
0.0000000000
40
0.0000000000
40
0.0000000000
40
0.0000000000
40
0.0000000000
40
1.0000000000
40
1.0000000000
40
1.0000000000
40
1.0000000000
10
16.9475162872
20
-14.6945190260
30
0.0000000000
10
16.9833236099
20
-14.7808828879
30
0.0000000000
10
17.0219684626
20
-14.8660702687
30
0.0000000000
10
17.0633561761
20
-14.9499040094
30
0.0000000000
11
16.9475162872
21
-14.6945190260
31
0.0000000000
11
17.0633561761
21
-14.9499040094
31
0.0000000000
0
SPLINE
5
2AC
100
AcDbEntity
8
0
100
AcDbSpline
62
0
6
CONTINUOUS
70
0
71
3
72
8
73
4
74
2
42
0.0000001000
43
0.0000001000
44
0.0000000001
12
0.0203995159
22
-0.0413206621
32
0.0000000000
13
0.0208424879
23
-0.0410990706
33
0.0000000000
40
0.0000000000
40
0.0000000000
40
0.0000000000
40
0.0000000000
40
1.0000000000
40
1.0000000000
40
1.0000000000
40
1.0000000000
10
17.0633561761
20
-14.9499040094
30
0.0000000000
10
17.0701560147
20
-14.9636775635
30
0.0000000000
10
17.0770298920
20
-14.9774145784
30
0.0000000000
10
17.0839773879
20
-14.9911142686
30
0.0000000000
11
17.0633561761
21
-14.9499040094
31
0.0000000000
11
17.0839773879
21
-14.9911142686
31
0.0000000000
0
SPLINE
5
2AD
100
AcDbEntity
8
0
100
AcDbSpline
62
0
6
CONTINUOUS
70
0
71
3
72
8
73
4
74
2
42
0.0000001000
43
0.0000001000
44
0.0000000001
12
0.1060099127
22
-0.2090397707
32
0.0000000000
13
0.1172712155
23
-0.2029361179
33
0.0000000000
40
0.0000000000
40
0.0000000000
40
0.0000000000
40
0.0000000000
40
1.0000000000
40
1.0000000000
40
1.0000000000
40
1.0000000000
10
17.0839773879
20
-14.9911142686
30
0.0000000000
10
17.1193140255
20
-15.0607941922
30
0.0000000000
10
17.1565551685
20
-15.1295085302
30
0.0000000000
10
17.1956455737
20
-15.1971539028
30
0.0000000000
11
17.0839773879
21
-14.9911142686
31
0.0000000000
11
17.1956455737
21
-15.1971539028
31
0.0000000000
0
SPLINE
5
2AE
100
AcDbEntity
8
0
100
AcDbSpline
62
0
6
CONTINUOUS
70
0
71
3
72
8
73
4
74
2
42
0.0000001000
43
0.0000001000
44
0.0000000001
12
0.1403179760
22
-0.2428181990
32
0.0000000000
13
0.1559193044
23
-0.2331044690
33
0.0000000000
40
0.0000000000
40
0.0000000000
40
0.0000000000
40
0.0000000000
40
1.0000000000
40
1.0000000000
40
1.0000000000
40
1.0000000000
10
17.1956455737
20
-15.1971539028
30
0.0000000000
10
17.2424182323
20
-15.2780933024
30
0.0000000000
10
17.2918384293
20
-15.3575022935
30
0.0000000000
10
17.3438115307
20
-15.4352037832
30
0.0000000000
11
17.1956455737
21
-15.1971539028
31
0.0000000000
11
17.3438115307
21
-15.4352037832
31
0.0000000000
0
SPLINE
5
2AF
100
AcDbEntity
8
0
100
AcDbSpline
62
0
6
CONTINUOUS
70
0
71
3
72
8
73
4
74
2
42
0.0000001000
43
0.0000001000
44
0.0000000001
12
0.1559102649
22
-0.2330909547
32
0.0000000000
13
0.1708430704
23
-0.2223815351
33
0.0000000000
40
0.0000000000
40
0.0000000000
40
0.0000000000
40
0.0000000000
40
1.0000000000
40
1.0000000000
40
1.0000000000
40
1.0000000000
10
17.3438115307
20
-15.4352037832
30
0.0000000000
10
17.3957816190
20
-15.5129007681
30
0.0000000000
10
17.4503043159
20
-15.5888904496
30
0.0000000000
10
17.5072520060
20
-15.6630176279
30
0.0000000000
11
17.3438115307
21
-15.4352037832
31
0.0000000000
11
17.5072520060
21
-15.6630176279
31
0.0000000000
0
SPLINE
5
2B0
100
AcDbEntity
8
0
100
AcDbSpline
62
0
6
CONTINUOUS
70
0
71
3
72
12
73
8
74
6
42
0.0000001000
43
0.0000001000
44
0.0000000001
12
2.2186114791
22
-2.8879030632
32
0.0000000000
13
3.6334111565
23
-0.2372451704
33
0.0000000000
40
0.0000000000
40
0.0000000000
40
0.0000000000
40
0.0000000000
40
0.1539820983
40
0.3848401290
40
0.6157183025
40
0.8466766448
40
1.0000000000
40
1.0000000000
40
1.0000000000
40
1.0000000000
10
17.5072520060
20
-15.6630176279
30
0.0000000000
10
17.6211274896
20
-15.8112460857
30
0.0000000000
10
17.9299652776
20
-16.1630934581
30
0.0000000000
10
18.5107913956
20
-16.6391976133
30
0.0000000000
10
19.2562717527
20
-17.0370238967
30
0.0000000000
10
19.9742475894
20
-17.2543383318
30
0.0000000000
10
20.4381832789
20
-17.3150346486
30
0.0000000000
10
20.6238788754
20
-17.3271597238
30
0.0000000000
11
17.5072520060
21
-15.6630176279
31
0.0000000000
11
17.8769478234
21
-16.0841198251
31
0.0000000000
11
18.5261090856
21
-16.6162204084
31
0.0000000000
11
19.2666809207
21
-17.0114642350
31
0.0000000000
11
20.0704304952
21
-17.2546522255
31
0.0000000000
11
20.6238788754
21
-17.3271597238
31
0.0000000000
0
SPLINE
5
2B1
100
AcDbEntity
8
0
100
AcDbSpline
62
0
6
CONTINUOUS
70
0
71
3
72
8
73
4
74
2
42
0.0000001000
43
0.0000001000
44
0.0000000001
12
0.2782310073
22
-0.0181672153
32
0.0000000000
13
0.2784192419
23
-0.0000162673
33
0.0000000000
40
0.0000000000
40
0.0000000000
40
0.0000000000
40
0.0000000000
40
1.0000000000
40
1.0000000000
40
1.0000000000
40
1.0000000000
10
20.6238788754
20
-17.3271597238
30
0.0000000000
10
20.7166225445
20
-17.3332154622
30
0.0000000000
10
20.8095137181
20
-17.3362549877
30
0.0000000000
10
20.9023201320
20
-17.3362604102
30
0.0000000000
11
20.6238788754
21
-17.3271597238
31
0.0000000000
11
20.9023201320
21
-17.3362604102
31
0.0000000000
0
SPLINE
5
2B2
100
AcDbEntity
8
0
100
AcDbSpline
62
0
6
CONTINUOUS
70
0
71
3
72
9
73
5
74
3
42
0.0000001000
43
0.0000001000
44
0.0000000001
12
-0.0212091994
22
0.0436162490
32
0.0000000000
13
-0.0206767351
23
0.0438711744
33
0.0000000000
40
0.0000000000
40
0.0000000000
40
0.0000000000
40
0.0000000000
40
0.4999975776
40
1.0000000000
40
1.0000000000
40
1.0000000000
40
1.0000000000
10
17.4354245791
20
-15.5950009584
30
0.0000000000
10
17.4318897297
20
-15.5877316188
30
0.0000000000
10
17.4248642353
20
-15.5731713156
30
0.0000000000
10
17.4179274862
20
-15.5585685244
30
0.0000000000
10
17.4144813469
20
-15.5512566266
30
0.0000000000
11
17.4354245791
21
-15.5950009584
31
0.0000000000
11
17.4248864554
21
-15.5731607642
31
0.0000000000
11
17.4144813469
21
-15.5512566266
31
0.0000000000
0
SPLINE
5
2B3
100
AcDbEntity
8
0
100
AcDbSpline
62
9
6
CONTINUOUS
70
0
71
3
72
8
73
4
74
2
42
0.0000001000
43
0.0000001000
44
0.0000000001
12
-0.5459053009
22
-0.0000708402
32
0.0000000000
13
-0.5423997890
23
-0.0712758985
33
0.0000000000
40
0.0000000000
40
0.0000000000
40
0.0000000000
40
0.0000000000
40
1.0000000000
40
1.0000000000
40
1.0000000000
40
1.0000000000
10
20.9023201320
20
-8.8755123519
30
0.0000000000
10
20.7203516984
20
-8.8755359654
30
0.0000000000
10
20.5380486629
20
-8.8874902839
30
0.0000000000
10
20.3572487333
20
-8.9112489167
30
0.0000000000
11
20.9023201320
21
-8.8755123519
31
0.0000000000
11
20.3572487333
21
-8.9112489167
31
0.0000000000
0
SPLINE
5
2B4
100
AcDbEntity
8
0
100
AcDbSpline
62
9
6
CONTINUOUS
70
0
71
3
72
12
73
8
74
6
42
0.0000001000
43
0.0000001000
44
0.0000000001
12
-3.5285469881
22
-0.4636807794
32
0.0000000000
13
-1.9767547039
23
-2.9571895058
33
0.0000000000
40
0.0000000000
40
0.0000000000
40
0.0000000000
40
0.0000000000
40
0.0762945764
40
0.3072187716
40
0.5381875643
40
0.7690477435
40
1.0000000000
40
1.0000000000
40
1.0000000000
40
1.0000000000
10
20.3572487333
20
-8.9112489167
30
0.0000000000
10
20.2675124006
20
-8.9230410263
30
0.0000000000
10
19.9076581312
20
-8.9822342481
30
0.0000000000
10
19.2941635291
20
-9.1680893430
30
0.0000000000
10
18.5660519988
20
-9.5569021262
30
0.0000000000
10
17.9279117554
20
-10.0803772695
30
0.0000000000
10
17.5787706636
20
-10.5056250784
30
0.0000000000
10
17.4265920105
20
-10.7332816081
30
0.0000000000
11
20.3572487333
21
-8.9112489167
31
0.0000000000
11
20.0893752653
21
-8.9553335204
31
0.0000000000
11
19.3044764295
21
-9.1930023585
31
0.0000000000
11
18.5809442099
21
-9.5794135207
31
0.0000000000
11
17.9470507976
21
-10.0993740648
31
0.0000000000
11
17.4265920105
21
-10.7332816081
31
0.0000000000
0
SPLINE
5
2B5
100
AcDbEntity
8
0
100
AcDbSpline
62
9
6
CONTINUOUS
70
0
71
3
72
8
73
4
74
2
42
0.0000001000
43
0.0000001000
44
0.0000000001
12
-0.1519789757
22
-0.2273578159
32
0.0000000000
13
-0.1367919184
23
-0.2368087122
33
0.0000000000
40
0.0000000000
40
0.0000000000
40
0.0000000000
40
0.0000000000
40
1.0000000000
40
1.0000000000
40
1.0000000000
40
1.0000000000
10
17.4265920105
20
-10.7332816081
30
0.0000000000
10
17.3759323519
20
-10.8090675467
30
0.0000000000
10
17.3277580138
20
-10.8865146986
30
0.0000000000
10
17.2821607077
20
-10.9654509361
30
0.0000000000
11
17.4265920105
21
-10.7332816081
31
0.0000000000
11
17.2821607077
21
-10.9654509361
31
0.0000000000
0
SPLINE
5
2B6
100
AcDbEntity
8
0
100
AcDbSpline
62
9
6
CONTINUOUS
70
0
71
3
72
8
73
4
74
2
42
0.0000001000
43
0.0000001000
44
0.0000000001
12
-0.1515043334
22
-0.2622782583
32
0.0000000000
13
-0.1321634623
23
-0.2725364326
33
0.0000000000
40
0.0000000000
40
0.0000000000
40
0.0000000000
40
0.0000000000
40
1.0000000000
40
1.0000000000
40
1.0000000000
40
1.0000000000
10
17.2821607077
20
-10.9654509361
30
0.0000000000
10
17.2316592632
20
-11.0528770221
30
0.0000000000
10
17.1843189974
20
-11.1421297310
30
0.0000000000
10
17.1402645099
20
-11.2329752085
30
0.0000000000
11
17.2821607077
21
-10.9654509361
31
0.0000000000
11
17.1402645099
21
-11.2329752085
31
0.0000000000
0
SPLINE
5
2B7
100
AcDbEntity
8
0
100
AcDbSpline
62
9
6
CONTINUOUS
70
0
71
3
72
8
73
4
74
2
42
0.0000001000
43
0.0000001000
44
0.0000000001
12
-0.1070321013
22
-0.2207126430
32
0.0000000000
13
-0.0939036724
23
-0.2266077315
33
0.0000000000
40
0.0000000000
40
0.0000000000
40
0.0000000000
40
0.0000000000
40
1.0000000000
40
1.0000000000
40
1.0000000000
40
1.0000000000
10
17.1402645099
20
-11.2329752085
30
0.0000000000
10
17.1045871428
20
-11.3065460895
30
0.0000000000
10
17.0710647573
20
-11.3811615898
30
0.0000000000
10
17.0397635332
20
-11.4566975003
30
0.0000000000
11
17.1402645099
21
-11.2329752085
31
0.0000000000
11
17.0397635332
21
-11.4566975003
31
0.0000000000
0
SPLINE
5
2B8
100
AcDbEntity
8
0
100
AcDbSpline
62
9
6
CONTINUOUS
70
0
71
3
72
8
73
4
74
2
42
0.0000001000
43
0.0000001000
44
0.0000000001
12
-0.1047188912
22
-0.2527069474
32
0.0000000000
13
-0.0879756864
23
-0.2590144836
33
0.0000000000
40
0.0000000000
40
0.0000000000
40
0.0000000000
40
0.0000000000
40
1.0000000000
40
1.0000000000
40
1.0000000000
40
1.0000000000
10
17.0397635332
20
-11.4566975003
30
0.0000000000
10
17.0048572361
20
-11.5409331494
30
0.0000000000
10
16.9727132021
20
-11.6263134318
30
0.0000000000
10
16.9433879733
20
-11.7126515930
30
0.0000000000
11
17.0397635332
21
-11.4566975003
31
0.0000000000
11
16.9433879733
21
-11.7126515930
31
0.0000000000
0
SPLINE
5
2B9
100
AcDbEntity
8
0
100
AcDbSpline
62
9
6
CONTINUOUS
70
0
71
3
72
11
73
7
74
5
42
0.0000001000
43
0.0000001000
44
0.0000000001
12
-0.8815668533
22
-2.5954737339
32
0.0000000000
13
0.8816642355
23
-2.5954443879
33
0.0000000000
40
0.0000000000
40
0.0000000000
40
0.0000000000
40
0.0000000000
40
0.2000418122
40
0.4999432867
40
0.7998878243
40
1.0000000000
40
1.0000000000
40
1.0000000000
40
1.0000000000
10
16.9433879733
20
-11.7126515930
30
0.0000000000
10
16.8846045630
20
-11.8857193494
30
0.0000000000
10
16.7660002843
20
-12.3278684012
30
0.0000000000
10
16.6939775910
20
-13.0587190423
30
0.0000000000
10
16.7659897629
20
-13.7896370094
30
0.0000000000
10
16.8846274860
20
-14.2318859028
30
0.0000000000
10
16.9434380688
20
-14.4050125773
30
0.0000000000
11
16.9433879733
21
-11.7126515930
31
0.0000000000
11
16.8014723562
21
-12.2418973598
31
0.0000000000
11
16.7209797966
21
-13.0586802649
31
0.0000000000
11
16.8014650126
21
-13.8755823149
31
0.0000000000
11
16.9434380688
21
-14.4050125773
31
0.0000000000
0
SPLINE
5
2BA
100
AcDbEntity
8
0
100
AcDbSpline
62
9
6
CONTINUOUS
70
0
71
3
72
8
73
4
74
2
42
0.0000001000
43
0.0000001000
44
0.0000000001
12
0.0880211983
22
-0.2591169245
32
0.0000000000
13
0.1047778011
23
-0.2528033949
33
0.0000000000
40
0.0000000000
40
0.0000000000
40
0.0000000000
40
0.0000000000
40
1.0000000000
40
1.0000000000
40
1.0000000000
40
1.0000000000
10
16.9434380688
20
-14.4050125773
30
0.0000000000
10
16.9727784682
20
-14.4913848854
30
0.0000000000
10
17.0049399407
20
-14.5767984323
30
0.0000000000
10
17.0398658744
20
-14.6610662306
30
0.0000000000
11
16.9434380688
21
-14.4050125773
31
0.0000000000
11
17.0398658744
21
-14.6610662306
31
0.0000000000
0
SPLINE
5
2BB
100
AcDbEntity
8
0
100
AcDbSpline
62
9
6
CONTINUOUS
70
0
71
3
72
8
73
4
74
2
42
0.0000001000
43
0.0000001000
44
0.0000000001
12
0.0921238666
22
-0.2222725232
32
0.0000000000
13
0.1047587778
23
-0.2166065738
33
0.0000000000
40
0.0000000000
40
0.0000000000
40
0.0000000000
40
0.0000000000
40
1.0000000000
40
1.0000000000
40
1.0000000000
40
1.0000000000
10
17.0398658744
20
-14.6610662306
30
0.0000000000
10
17.0705738299
20
-14.7351570717
30
0.0000000000
10
17.1034188432
20
-14.8083621956
30
0.0000000000
10
17.1383384358
20
-14.8805643868
30
0.0000000000
11
17.0398658744
21
-14.6610662306
31
0.0000000000
11
17.1383384358
21
-14.8805643868
31
0.0000000000
0
SPLINE
5
2BC
100
AcDbEntity
8
0
100
AcDbSpline
62
9
6
CONTINUOUS
70
0
71
3
72
8
73
4
74
2
42
0.0000001000
43
0.0000001000
44
0.0000000001
12
0.1340263372
22
-0.2771222262
32
0.0000000000
13
0.1540080354
23
-0.2665361526
33
0.0000000000
40
0.0000000000
40
0.0000000000
40
0.0000000000
40
0.0000000000
40
1.0000000000
40
1.0000000000
40
1.0000000000
40
1.0000000000
10
17.1383384358
20
-14.8805643868
30
0.0000000000
10
17.1830138816
20
-14.9729384622
30
0.0000000000
10
17.2310850287
20
-15.0636709230
30
0.0000000000
10
17.2824210405
20
-15.1525163072
30
0.0000000000
11
17.1383384358
21
-14.8805643868
31
0.0000000000
11
17.2824210405
21
-15.1525163072
31
0.0000000000
0
SPLINE
5
2BD
100
AcDbEntity
8
0
100
AcDbSpline
62
9
6
CONTINUOUS
70
0
71
3
72
8
73
4
74
2
42
0.0000001000
43
0.0000001000
44
0.0000000001
12
0.1368800731
22
-0.2368934060
32
0.0000000000
13
0.1520787657
23
-0.2274323446
33
0.0000000000
40
0.0000000000
40
0.0000000000
40
0.0000000000
40
0.0000000000
40
1.0000000000
40
1.0000000000
40
1.0000000000
40
1.0000000000
10
17.2824210405
20
-15.1525163072
30
0.0000000000
10
17.3280477315
20
-15.2314807758
30
0.0000000000
10
17.3762534673
20
-15.3089545687
30
0.0000000000
10
17.4269463892
20
-15.3847653502
30
0.0000000000
11
17.2824210405
21
-15.1525163072
31
0.0000000000
11
17.4269463892
21
-15.3847653502
31
0.0000000000
0
SPLINE
5
2BE
100
AcDbEntity
8
0
100
AcDbSpline
62
9
6
CONTINUOUS
70
0
71
3
72
8
73
4
74
2
42
0.0000001000
43
0.0000001000
44
0.0000000001
12
0.1520658379
22
-0.2274130113
32
0.0000000000
13
0.1666144352
23
-0.2169833733
33
0.0000000000
40
0.0000000000
40
0.0000000000
40
0.0000000000
40
0.0000000000
40
1.0000000000
40
1.0000000000
40
1.0000000000
40
1.0000000000
10
17.4269463892
20
-15.3847653502
30
0.0000000000
10
17.4776350019
20
-15.4605696873
30
0.0000000000
10
17.5308103778
20
-15.5347112958
30
0.0000000000
10
17.5863485229
20
-15.6070390869
30
0.0000000000
11
17.4269463892
21
-15.3847653502
31
0.0000000000
11
17.5863485229
21
-15.6070390869
31
0.0000000000
0
SPLINE
5
2BF
100
AcDbEntity
8
0
100
AcDbSpline
62
9
6
CONTINUOUS
70
0
71
3
72
12
73
8
74
6
42
0.0000001000
43
0.0000001000
44
0.0000000001
12
1.9997684586
22
-2.6043151983
32
0.0000000000
13
3.2572389110
23
-0.4275259492
33
0.0000000000
40
0.0000000000
40
0.0000000000
40
0.0000000000
40
0.0000000000
40
0.1669591478
40
0.4170783129
40
0.6672029370
40
0.9174005955
40
1.0000000000
40
1.0000000000
40
1.0000000000
40
1.0000000000
10
17.5863485229
20
-15.6070390869
30
0.0000000000
10
17.6976417354
20
-15.7519771690
30
0.0000000000
10
17.9993636614
20
-16.0958498182
30
0.0000000000
10
18.5667872407
20
-16.5610964117
30
0.0000000000
10
19.2949465625
20
-16.9497498097
30
0.0000000000
10
19.9083710309
20
-17.1354540419
30
0.0000000000
10
20.2682163746
20
-17.1945824239
30
0.0000000000
10
20.3578983727
20
-17.2063535535
30
0.0000000000
11
17.5863485229
21
-15.6070390869
31
0.0000000000
11
17.9476944660
21
-16.0187866215
31
0.0000000000
11
18.5817716651
21
-16.5386560009
31
0.0000000000
11
19.3051317393
21
-16.9247876072
31
0.0000000000
11
20.0901843994
21
-17.1623427218
31
0.0000000000
11
20.3578983727
21
-17.2063535535
31
0.0000000000
0
SPLINE
5
2C0
100
AcDbEntity
8
0
100
AcDbSpline
62
9
6
CONTINUOUS
70
0
71
3
72
8
73
4
74
2
42
0.0000001000
43
0.0000001000
44
0.0000000001
12
0.5417602431
22
-0.0711082510
32
0.0000000000
13
0.5452528377
23
-0.0000642453
33
0.0000000000
40
0.0000000000
40
0.0000000000
40
0.0000000000
40
0.0000000000
40
1.0000000000
40
1.0000000000
40
1.0000000000
40
1.0000000000
10
20.3578983727
20
-17.2063535535
30
0.0000000000
10
20.5384851204
20
-17.2300563039
30
0.0000000000
10
20.7205691861
20
-17.2419825652
30
0.0000000000
10
20.9023201320
20
-17.2420039803
30
0.0000000000
11
20.3578983727
21
-17.2063535535
31
0.0000000000
11
20.9023201320
21
-17.2420039803
31
0.0000000000
0
SPLINE
5
2C1
100
AcDbEntity
8
0
100
AcDbSpline
62
9
6
CONTINUOUS
70
0
71
3
72
8
73
4
74
2
42
0.0000001000
43
0.0000001000
44
0.0000000001
12
0.5453289393
22
0.0000710333
32
0.0000000000
13
0.5418346374
23
0.0711254461
33
0.0000000000
40
0.0000000000
40
0.0000000000
40
0.0000000000
40
0.0000000000
40
1.0000000000
40
1.0000000000
40
1.0000000000
40
1.0000000000
10
25.1023201320
20
-17.2420039803
30
0.0000000000
10
25.2840964451
20
-17.2419803026
30
0.0000000000
10
25.4662062776
20
-17.2300513811
30
0.0000000000
10
25.6468178234
20
-17.2063428991
30
0.0000000000
11
25.1023201320
21
-17.2420039803
31
0.0000000000
11
25.6468178234
21
-17.2063428991
31
0.0000000000
0
SPLINE
5
2C2
100
AcDbEntity
8
0
100
AcDbSpline
62
9
6
CONTINUOUS
70
0
71
3
72
12
73
8
74
6
42
0.0000001000
43
0.0000001000
44
0.0000000001
12
3.2565093768
22
0.4274748533
32
0.0000000000
13
1.9997336814
23
2.6034236843
33
0.0000000000
40
0.0000000000
40
0.0000000000
40
0.0000000000
40
0.0000000000
40
0.0825951306
40
0.3326360522
40
0.5828353778
40
0.8330035460
40
1.0000000000
40
1.0000000000
40
1.0000000000
40
1.0000000000
10
25.6468178234
20
-17.2063428991
30
0.0000000000
10
25.7364750958
20
-17.1945737853
30
0.0000000000
10
26.0960656425
20
-17.1354856810
30
0.0000000000
10
26.7092693175
20
-16.9498974289
30
0.0000000000
10
27.4373007336
20
-16.5614669845
30
0.0000000000
10
28.0048056011
20
-16.0962973481
30
0.0000000000
10
28.3065770539
20
-15.7524771742
30
0.0000000000
10
28.4178931985
20
-15.6075563331
30
0.0000000000
11
25.6468178234
21
-17.2063428991
31
0.0000000000
11
25.9144579285
21
-17.1623426925
31
0.0000000000
11
26.6988637048
21
-16.9250513940
31
0.0000000000
11
27.4223415432
21
-16.5390065751
31
0.0000000000
11
28.0564821519
21
-16.0192479748
31
0.0000000000
11
28.4178931985
21
-15.6075563331
31
0.0000000000
0
SPLINE
5
2C3
100
AcDbEntity
8
0
100
AcDbSpline
62
9
6
CONTINUOUS
70
0
71
3
72
8
73
4
74
2
42
0.0000001000
43
0.0000001000
44
0.0000000001
12
0.1666491038
22
0.2169580019
32
0.0000000000
13
0.1521019764
23
0.2273900295
33
0.0000000000
40
0.0000000000
40
0.0000000000
40
0.0000000000
40
0.0000000000
40
1.0000000000
40
1.0000000000
40
1.0000000000
40
1.0000000000
10
28.4178931985
20
-15.6075563331
30
0.0000000000
10
28.4734428998
20
-15.5352369991
30
0.0000000000
10
28.5266300993
20
-15.4611034684
30
0.0000000000
10
28.5773307581
20
-15.3853067919
30
0.0000000000
11
28.4178931985
21
-15.6075563331
31
0.0000000000
11
28.5773307581
21
-15.3853067919
31
0.0000000000
0
SPLINE
5
2C4
100
AcDbEntity
8
0
100
AcDbSpline
62
9
6
CONTINUOUS
70
0
71
3
72
8
73
4
74
2
42
0.0000001000
43
0.0000001000
44
0.0000000001
12
0.1521137261
22
0.2274075951
32
0.0000000000
13
0.1369165487
23
0.2368710324
33
0.0000000000
40
0.0000000000
40
0.0000000000
40
0.0000000000
40
0.0000000000
40
1.0000000000
40
1.0000000000
40
1.0000000000
40
1.0000000000
10
28.5773307581
20
-15.3853067919
30
0.0000000000
10
28.6280353335
20
-15.3095042602
30
0.0000000000
10
28.6762529840
20
-15.2320383258
30
0.0000000000
10
28.7218918335
20
-15.1530813150
30
0.0000000000
11
28.5773307581
21
-15.3853067919
31
0.0000000000
11
28.7218918335
21
-15.1530813150
31
0.0000000000
0
SPLINE
5
2C5
100
AcDbEntity
8
0
100
AcDbSpline
62
9
6
CONTINUOUS
70
0
71
3
72
8
73
4
74
2
42
0.0000001000
43
0.0000001000
44
0.0000000001
12
0.1543840172
22
0.2670904422
32
0.0000000000
13
0.1343162626
23
0.2777240866
33
0.0000000000
40
0.0000000000
40
0.0000000000
40
0.0000000000
40
0.0000000000
40
1.0000000000
40
1.0000000000
40
1.0000000000
40
1.0000000000
10
28.7218918335
20
-15.1530813150
30
0.0000000000
10
28.7733531726
20
-15.0640511676
30
0.0000000000
10
28.8215357443
20
-14.9731252195
30
0.0000000000
10
28.8663078318
20
-14.8805505240
30
0.0000000000
11
28.7218918335
21
-15.1530813150
31
0.0000000000
11
28.8663078318
21
-14.8805505240
31
0.0000000000
0
SPLINE
5
2C6
100
AcDbEntity
8
0
100
AcDbSpline
62
9
6
CONTINUOUS
70
0
71
3
72
8
73
4
74
2
42
0.0000001000
43
0.0000001000
44
0.0000000001
12
0.1044657308
22
0.2160025086
32
0.0000000000
13
0.0919016144
23
0.2216378710
33
0.0000000000
40
0.0000000000
40
0.0000000000
40
0.0000000000
40
0.0000000000
40
1.0000000000
40
1.0000000000
40
1.0000000000
40
1.0000000000
10
28.8663078318
20
-14.8805505240
30
0.0000000000
10
28.9011297421
20
-14.8085496877
30
0.0000000000
10
28.9338886176
20
-14.7355515084
30
0.0000000000
10
28.9645224891
20
-14.6616722180
30
0.0000000000
11
28.8663078318
21
-14.8805505240
31
0.0000000000
11
28.9645224891
21
-14.6616722180
31
0.0000000000
0
SPLINE
5
2C7
100
AcDbEntity
8
0
100
AcDbSpline
62
9
6
CONTINUOUS
70
0
71
3
72
8
73
4
74
2
42
0.0000001000
43
0.0000001000
44
0.0000000001
12
0.1048170683
22
0.2527858951
32
0.0000000000
13
0.0880616304
23
0.2591019841
33
0.0000000000
40
0.0000000000
40
0.0000000000
40
0.0000000000
40
0.0000000000
40
1.0000000000
40
1.0000000000
40
1.0000000000
40
1.0000000000
10
28.9645224891
20
-14.6616722180
30
0.0000000000
10
28.9994615119
20
-14.5774102530
30
0.0000000000
10
29.0316362835
20
-14.4920021198
30
0.0000000000
10
29.0609901602
20
-14.4056347917
30
0.0000000000
11
28.9645224891
21
-14.6616722180
31
0.0000000000
11
29.0609901602
21
-14.4056347917
31
0.0000000000
0
SPLINE
5
2C8
100
AcDbEntity
8
0
100
AcDbSpline
62
9
6
CONTINUOUS
70
0
71
3
72
11
73
7
74
5
42
0.0000001000
43
0.0000001000
44
0.0000000001
12
0.8820912374
22
2.5953595091
32
0.0000000000
13
-0.8812120626
23
2.5956548427
33
0.0000000000
40
0.0000000000
40
0.0000000000
40
0.0000000000
40
0.0000000000
40
0.2001078551
40
0.5000497704
40
0.7999539314
40
1.0000000000
40
1.0000000000
40
1.0000000000
40
1.0000000000
10
29.0609901602
20
-14.4056347917
30
0.0000000000
10
29.1198279554
20
-14.2325175168
30
0.0000000000
10
29.2385361927
20
-13.7902842868
30
0.0000000000
10
29.3106637555
20
-13.0593661373
30
0.0000000000
10
29.2387503963
20
-12.3284851258
30
0.0000000000
10
29.1202068025
20
-11.8863031886
30
0.0000000000
10
29.0614457996
20
-11.7132196731
30
0.0000000000
11
29.0609901602
21
-14.4056347917
31
0.0000000000
11
29.2030465120
21
-13.8762273290
31
0.0000000000
11
29.2836604197
21
-13.0593280195
31
0.0000000000
11
29.2032898087
21
-12.2425085601
31
0.0000000000
11
29.0614457996
21
-11.7132196731
31
0.0000000000
0
SPLINE
5
2C9
100
AcDbEntity
8
0
100
AcDbSpline
62
9
6
CONTINUOUS
70
0
71
3
72
8
73
4
74
2
42
0.0000001000
43
0.0000001000
44
0.0000000001
12
-0.0879424107
22
0.2590388329
32
0.0000000000
13
-0.1046880585
23
0.2527330855
33
0.0000000000
40
0.0000000000
40
0.0000000000
40
0.0000000000
40
0.0000000000
40
1.0000000000
40
1.0000000000
40
1.0000000000
40
1.0000000000
10
29.0614457996
20
-11.7132196731
30
0.0000000000
10
29.0321316627
20
-11.6268733954
30
0.0000000000
10
28.9999983246
20
-11.5414846804
30
0.0000000000
10
28.9651023051
20
-11.4572403185
30
0.0000000000
11
29.0614457996
21
-11.7132196731
31
0.0000000000
11
28.9651023051
21
-11.4572403185
31
0.0000000000
0
SPLINE
5
2CA
100
AcDbEntity
8
0
100
AcDbSpline
62
9
6
CONTINUOUS
70
0
71
3
72
8
73
4
74
2
42
0.0000001000
43
0.0000001000
44
0.0000000001
12
-0.0940636883
22
0.2270842206
32
0.0000000000
13
-0.1072462929
23
0.2211660857
33
0.0000000000
40
0.0000000000
40
0.0000000000
40
0.0000000000
40
0.0000000000
40
1.0000000000
40
1.0000000000
40
1.0000000000
40
1.0000000000
10
28.9651023051
20
-11.4572403185
30
0.0000000000
10
28.9337477424
20
-11.3815455783
30
0.0000000000
10
28.9001627911
20
-11.3067747059
30
0.0000000000
10
28.8644140268
20
-11.2330526773
30
0.0000000000
11
28.9651023051
21
-11.4572403185
31
0.0000000000
11
28.8644140268
21
-11.2330526773
31
0.0000000000
0
SPLINE
5
2CB
100
AcDbEntity
8
0
100
AcDbSpline
62
9
6
CONTINUOUS
70
0
71
3
72
8
73
4
74
2
42
0.0000001000
43
0.0000001000
44
0.0000000001
12
-0.1319502828
22
0.2721112942
32
0.0000000000
13
-0.1512312198
23
0.2618868431
33
0.0000000000
40
0.0000000000
40
0.0000000000
40
0.0000000000
40
0.0000000000
40
1.0000000000
40
1.0000000000
40
1.0000000000
40
1.0000000000
10
28.8644140268
20
-11.2330526773
30
0.0000000000
10
28.8204305992
20
-11.1423489126
30
0.0000000000
10
28.7731716852
20
-11.0532328423
30
0.0000000000
10
28.7227612786
20
-10.9659372279
30
0.0000000000
11
28.8644140268
21
-11.2330526773
31
0.0000000000
11
28.7227612786
21
-10.9659372279
31
0.0000000000
0
SPLINE
5
2CC
100
AcDbEntity
8
0
100
AcDbSpline
62
9
6
CONTINUOUS
70
0
71
3
72
8
73
4
74
2
42
0.0000001000
43
0.0000001000
44
0.0000000001
12
-0.1367661067
22
0.2368376315
32
0.0000000000
13
-0.1519556847
23
0.2273879959
33
0.0000000000
40
0.0000000000
40
0.0000000000
40
0.0000000000
40
0.0000000000
40
1.0000000000
40
1.0000000000
40
1.0000000000
40
1.0000000000
10
28.7227612786
20
-10.9659372279
30
0.0000000000
10
28.6771725764
20
-10.8869913508
30
0.0000000000
10
28.6290064235
20
-10.8095343348
30
0.0000000000
10
28.5783545286
20
-10.7337383362
30
0.0000000000
11
28.7227612786
21
-10.9659372279
31
0.0000000000
11
28.5783545286
21
-10.7337383362
31
0.0000000000
0
SPLINE
5
2CD
100
AcDbEntity
8
0
100
AcDbSpline
62
9
6
CONTINUOUS
70
0
71
3
72
8
73
4
74
2
42
0.0000001000
43
0.0000001000
44
0.0000000001
12
-0.1519489530
22
0.2273779226
32
0.0000000000
13
-0.1664906369
23
0.2169597871
33
0.0000000000
40
0.0000000000
40
0.0000000000
40
0.0000000000
40
0.0000000000
40
1.0000000000
40
1.0000000000
40
1.0000000000
40
1.0000000000
10
28.5783545286
20
-10.7337383362
30
0.0000000000
10
28.5277048776
20
-10.6579456954
30
0.0000000000
10
28.4745697048
20
-10.5838139246
30
0.0000000000
10
28.4190728259
20
-10.5114939956
30
0.0000000000
11
28.5783545286
21
-10.7337383362
31
0.0000000000
11
28.4190728259
21
-10.5114939956
31
0.0000000000
0
SPLINE
5
2CE
100
AcDbEntity
8
0
100
AcDbSpline
62
9
6
CONTINUOUS
70
0
71
3
72
12
73
8
74
6
42
0.0000001000
43
0.0000001000
44
0.0000000001
12
-1.9994411315
22
2.6055418506
32
0.0000000000
13
-3.2579706934
23
0.4280195165
33
0.0000000000
40
0.0000000000
40
0.0000000000
40
0.0000000000
40
0.0000000000
40
0.1668744963
40
0.4169257578
40
0.6670684606
40
0.9173565385
40
1.0000000000
40
1.0000000000
40
1.0000000000
40
1.0000000000
10
28.4190728259
20
-10.5114939956
30
0.0000000000
10
28.3078542487
20
-10.3665611677
30
0.0000000000
10
28.0062833859
20
-10.0226358616
30
0.0000000000
10
27.4390010451
20
-9.5571770816
30
0.0000000000
10
26.7107508359
20
-9.1681770080
30
0.0000000000
10
26.0970588600
20
-8.9822379911
30
0.0000000000
10
25.7369898275
20
-8.9230192959
30
0.0000000000
10
25.6472398357
20
-8.9112282911
30
0.0000000000
11
28.4190728259
21
-10.5114939956
31
0.0000000000
11
28.0579582510
21
-10.0997409055
31
0.0000000000
11
27.4240827725
21
-9.5796706358
31
0.0000000000
11
26.7006222445
21
-9.1931892674
31
0.0000000000
11
25.9151544890
21
-8.9553120007
31
0.0000000000
11
25.6472398357
21
-8.9112282911
31
0.0000000000
0
SPLINE
5
2CF
100
AcDbEntity
8
0
100
AcDbSpline
62
9
6
CONTINUOUS
70
0
71
3
72
8
73
4
74
2
42
0.0000001000
43
0.0000001000
44
0.0000000001
12
-0.5422507562
22
0.0712387950
32
0.0000000000
13
-0.5457530807
23
0.0000641159
33
0.0000000000
40
0.0000000000
40
0.0000000000
40
0.0000000000
40
0.0000000000
40
1.0000000000
40
1.0000000000
40
1.0000000000
40
1.0000000000
10
25.6472398357
20
-8.9112282911
30
0.0000000000
10
25.4664895836
20
-8.8874820261
30
0.0000000000
10
25.2842378256
20
-8.8755337239
30
0.0000000000
10
25.1023201320
20
-8.8755123519
30
0.0000000000
11
25.6472398357
21
-8.9112282911
31
0.0000000000
11
25.1023201320
21
-8.8755123519
31
0.0000000000
0
SPLINE
5
2D0
100
AcDbEntity
8
ASSI
100
AcDbSpline
62
9
6
CONTINUOUS
70
0
71
3
72
33
73
29
74
27
42
0.0000001000
43
0.0000001000
44
0.0000000001
12
-0.5692282939
22
0.0000000000
32
0.0000000000
13
0.5470437860
23
0.0000000000
33
0.0000000000
40
0.0000000000
40
0.0000000000
40
0.0000000000
40
0.0000000000
40
0.0156250000
40
0.0312500000
40
0.0468750000
40
0.0625000000
40
0.0937500000
40
0.1250000000
40
0.1562500000
40
0.1875000000
40
0.2500000000
40
0.3125000000
40
0.3750000000
40
0.4375000000
40
0.5000000000
40
0.5625000000
40
0.6250000000
40
0.6875000000
40
0.7500000000
40
0.8125000000
40
0.8437500000
40
0.8750000000
40
0.9062500000
40
0.9375000000
40
0.9531250000
40
0.9687500000
40
0.9843750000
40
1.0000000000
40
1.0000000000
40
1.0000000000
40
1.0000000000
10
19.7155171320
20
-13.2445256266
30
4.1598524950
10
19.7125524013
20
-13.2445256266
30
4.1598524950
10
19.7073983355
20
-13.2443743859
30
4.1598591505
10
19.6991826184
20
-13.2437091706
30
4.1598884229
10
19.6912694972
20
-13.2426230121
30
4.1599362153
10
19.6808820373
20
-13.2406384766
30
4.1600235290
10
19.6683787694
20
-13.2372013809
30
4.1601747250
10
19.6542208595
20
-13.2317016797
30
4.1604165646
10
19.6409952941
20
-13.2249792578
30
4.1607120333
10
19.6246251683
20
-13.2145210017
30
4.1611714442
10
19.6067595141
20
-13.1991137426
30
4.1618476524
10
19.5886572533
20
-13.1763760696
30
4.1628440341
10
19.5747847124
20
-13.1493450224
30
4.1640262814
10
19.5667447445
20
-13.1200635838
30
4.1653040926
10
19.5646970707
20
-13.0916051657
30
4.1665431926
10
19.5678251166
20
-13.0635091263
30
4.1677639095
10
19.5767413126
20
-13.0350616449
30
4.1689971693
10
19.5911429329
20
-13.0090467477
30
4.1701225182
10
19.6094677921
20
-12.9872750418
30
4.1710625598
10
19.6272569865
20
-12.9726461861
30
4.1716932411
10
19.6433643507
20
-12.9627925861
30
4.1721176881
10
19.6562925245
20
-12.9564893655
30
4.1723890553
10
19.6700530353
20
-12.9513559332
30
4.1726099622
10
19.6821488613
20
-12.9481600500
30
4.1727474423
10
19.6921715588
20
-12.9463184024
30
4.1728266531
10
19.6997972530
20
-12.9453116424
30
4.1728699507
10
19.7077044331
20
-12.9446956019
30
4.1728964429
10
19.7126679456
20
-12.9445556266
30
4.1729024623
10
19.7155171320
20
-12.9445556266
30
4.1729024623
11
19.7155171320
21
-13.2445256266
31
4.1598524950
11
19.7073175658
21
-13.2443013269
31
4.1598623654
11
19.6992330511
21
-13.2436390134
31
4.1598915095
11
19.6912899182
21
-13.2425559716
31
4.1599391641
11
19.6835109727
21
-13.2410708487
31
4.1600045042
11
19.6685197713
21
-13.2369721832
31
4.1601847924
11
19.6543762503
21
-13.2314978930
31
4.1604255028
11
19.6411532893
21
-13.2247923795
31
4.1607202149
11
19.6288908333
21
-13.2169799365
31
4.1610633878
11
19.6073156015
21
-13.1984055823
31
4.1618784744
11
19.5893622066
21
-13.1756605072
31
4.1628750117
11
19.5757568079
21
-13.1489699571
31
4.1640422087
11
19.5677434602
21
-13.1202007539
31
4.1652976407
11
19.5655596906
21
-13.0916655622
31
4.1665401288
11
19.5687898083
21
-13.0634505526
31
4.1677660000
11
19.5776555500
21
-13.0354670756
31
4.1689791841
11
19.5917968060
21
-13.0097539463
31
4.1700916337
11
19.6099714877
21
-12.9879778883
31
4.1710320224
11
19.6314401616
21
-12.9703369098
31
4.1717926780
11
19.6435056258
21
-12.9629737493
31
4.1721098601
11
19.6564312474
21
-12.9566843302
31
4.1723806453
11
19.6701787820
21
-12.9515723286
31
4.1726006404
11
19.6846833721
21
-12.9477592263
31
4.1727646806
11
19.6921896707
21
-12.9463808150
31
4.1728239680
11
19.6998441673
21
-12.9453767623
31
4.1728671498
11
19.7076274479
21
-12.9447632815
31
4.1728935324
11
19.7155171320
21
-12.9445556266
31
4.1729024623
0
SPLINE
5
2D1
100
AcDbEntity
8
ASSI
100
AcDbSpline
62
9
6
CONTINUOUS
70
0
71
3
72
33
73
29
74
27
42
0.0000001000
43
0.0000001000
44
0.0000000001
12
0.5692354149
22
0.0000000000
32
0.0000000000
13
-0.5470352244
23
0.0000000000
33
0.0000000000
40
0.0000000000
40
0.0000000000
40
0.0000000000
40
0.0000000000
40
0.0156250000
40
0.0312500000
40
0.0468750000
40
0.0625000000
40
0.0937500000
40
0.1250000000
40
0.1562500000
40
0.1875000000
40
0.2500000000
40
0.3125000000
40
0.3750000000
40
0.4375000000
40
0.5000000000
40
0.5625000000
40
0.6250000000
40
0.6875000000
40
0.7500000000
40
0.8125000000
40
0.8437500000
40
0.8750000000
40
0.9062500000
40
0.9375000000
40
0.9531250000
40
0.9687500000
40
0.9843750000
40
1.0000000000
40
1.0000000000
40
1.0000000000
40
1.0000000000
10
20.4142981320
20
-12.9445556266
30
4.1729024623
10
20.4172628998
20
-12.9445556266
30
4.1729024623
10
20.4224170532
20
-12.9447068720
30
4.1728959583
10
20.4306328715
20
-12.9453721056
30
4.1728673505
10
20.4385460857
20
-12.9464582917
30
4.1728206367
10
20.4489336545
20
-12.9484428745
30
4.1727352769
10
20.4614370391
20
-12.9518800467
30
4.1725874131
10
20.4755950671
20
-12.9573798640
30
4.1723507269
10
20.4888207334
20
-12.9641024261
30
4.1720612817
10
20.5051909616
20
-12.9745608922
30
4.1716107265
10
20.5230567033
20
-12.9899684799
30
4.1709463581
10
20.5411587773
20
-13.0127063868
30
4.1699643591
10
20.5550309520
20
-13.0397373231
30
4.1687946808
10
20.5630706363
20
-13.0690184768
30
4.1675247710
10
20.5651181820
20
-13.0974766944
30
4.1662877563
10
20.5619899981
20
-13.1255729547
30
4.1650638700
10
20.5530734831
20
-13.1540207720
30
4.1638219430
10
20.5386714395
20
-13.1800358235
30
4.1626837685
10
20.5203463481
20
-13.2018073031
30
4.1617294967
10
20.5025572306
20
-13.2164358097
30
4.1610873586
10
20.4864499753
20
-13.2262891750
30
4.1606544690
10
20.4735219183
20
-13.2325922337
30
4.1603774096
10
20.4597615533
20
-13.2377255280
30
4.1601516704
10
20.4476658760
20
-13.2409213190
30
4.1600110854
10
20.4376433168
20
-13.2427629100
30
4.1599300598
10
20.4300177387
20
-13.2437696374
30
4.1598857621
10
20.4221106834
20
-13.2443856566
30
4.1598586545
10
20.4171472738
20
-13.2445256266
30
4.1598524950
10
20.4142981320
20
-13.2445256266
30
4.1598524950
11
20.4142981320
21
-12.9445556266
31
4.1729024623
11
20.4224978179
21
-12.9447799329
31
4.1728928163
11
20.4305824375
21
-12.9454422644
31
4.1728643328
11
20.4385256627
21
-12.9465253336
31
4.1728177524
11
20.4463046905
21
-12.9480104917
31
4.1727538726
11
20.4612960335
21
-12.9521092485
31
4.1725775382
11
20.4754396735
21
-12.9575836548
31
4.1723419338
11
20.4886627342
21
-12.9642893074
31
4.1720532032
11
20.5009252683
21
-12.9721019094
31
4.1717166204
11
20.5225005673
21
-12.9906766135
31
4.1709155653
11
20.5404537941
21
-13.0134218917
31
4.1699330792
11
20.5540588702
21
-13.0401123594
31
4.1687779756
11
20.5620719465
21
-13.0688813208
31
4.1675302535
11
20.5642555604
21
-13.0974163682
31
4.1662899444
11
20.5610252763
21
-13.1256315475
31
4.1650608632
11
20.5521592284
21
-13.1536153111
31
4.1638392351
11
20.5380175982
21
-13.1793285615
31
4.1627144190
11
20.5198427065
21
-13.2011044245
31
4.1617601144
11
20.4983740867
21
-13.2187450310
31
4.1609858713
11
20.4863087060
21
-13.2261080141
31
4.1606624037
11
20.4733832003
21
-13.2323972729
31
4.1603859630
11
20.4596358120
21
-13.2375091371
31
4.1601611766
11
20.4451314014
21
-13.2413221300
31
4.1599934492
11
20.4376252070
21
-13.2427004990
31
4.1599328050
11
20.4299708259
21
-13.2437045193
31
4.1598886271
11
20.4221876736
21
-13.2443179792
31
4.1598616326
11
20.4142981320
21
-13.2445256266
31
4.1598524950
0
SPLINE
5
2D2
100
AcDbEntity
8
ASSI
100
AcDbSpline
62
9
6
CONTINUOUS
70
0
71
3
72
33
73
29
74
27
42
0.0000001000
43
0.0000001000
44
0.0000000001
12
-0.4022324691
22
-0.4020916734
32
-0.0207671267
13
0.3867481169
23
0.3868827643
33
0.0197072652
40
0.0000000000
40
0.0000000000
40
0.0000000000
40
0.0000000000
40
0.0156250000
40
0.0312500000
40
0.0468750000
40
0.0625000000
40
0.0937500000
40
0.1250000000
40
0.1562500000
40
0.1875000000
40
0.2500000000
40
0.3125000000
40
0.3750000000
40
0.4375000000
40
0.5000000000
40
0.5625000000
40
0.6250000000
40
0.6875000000
40
0.7500000000
40
0.8125000000
40
0.8437500000
40
0.8750000000
40
0.9062500000
40
0.9375000000
40
0.9531250000
40
0.9687500000
40
0.9843750000
40
1.0000000000
40
1.0000000000
40
1.0000000000
40
1.0000000000
10
20.7862470789
20
-15.5301126797
30
4.0505422339
10
20.7841521181
20
-15.5322069072
30
4.0504340718
10
20.7804017376
20
-15.5357422579
30
4.0502514410
10
20.7741253034
20
-15.5410764984
30
4.0499757912
10
20.7677649878
20
-15.5458997766
30
4.0497264609
10
20.7590212360
20
-15.5518362004
30
4.0494194979
10
20.7477557688
20
-15.5582409074
30
4.0490881771
10
20.7338637146
20
-15.5643568032
30
4.0487716564
10
20.7197670856
20
-15.5689496987
30
4.0485338747
10
20.7008098355
20
-15.5731238851
30
4.0483177157
10
20.6773003634
20
-15.5748570827
30
4.0482279344
10
20.6484583040
20
-15.5715803228
30
4.0483976654
10
20.6195812595
20
-15.5622929008
30
4.0488785488
10
20.5932293586
20
-15.5473049995
30
4.0496539562
10
20.5716770155
20
-15.5286639374
30
4.0506172802
10
20.5540231881
20
-15.5066108119
30
4.0517554567
10
20.5402070200
20
-15.4802137515
30
4.0531156708
10
20.5319852024
20
-15.4516548785
30
4.0545845653
10
20.5295353134
20
-15.4233193087
30
4.0560392249
10
20.5317579167
20
-15.4004064721
30
4.0572133703
10
20.5361701088
20
-15.3820543020
30
4.0581525511
10
20.5408475146
20
-15.3684578623
30
4.0588477291
10
20.5469412749
20
-15.3550984650
30
4.0595301840
10
20.5532299885
20
-15.3442848546
30
4.0600821112
10
20.5590120461
20
-15.3358942520
30
4.0605101016
10
20.5636907428
20
-15.3297889130
30
4.0608213992
10
20.5688450693
20
-15.3237607440
30
4.0611286366
10
20.5722558720
20
-15.3201505879
30
4.0613125681
10
20.5742701851
20
-15.3181355735
30
4.0614152101
11
20.7862470789
21
-15.5301126797
31
4.0505422339
11
20.7802932603
21
-15.5357474603
31
4.0502511571
11
20.7741113231
21
-15.5409913380
31
4.0499801778
11
20.7677320714
21
-15.5458379499
31
4.0497296456
11
20.7611847888
21
-15.5502843729
31
4.0494997308
11
20.7476935199
21
-15.5579792819
31
4.0491016878
11
20.7338296188
21
-15.5641029698
31
4.0487847795
11
20.7197468675
21
-15.5687059894
31
4.0485464851
11
20.7055616207
21
-15.5718480362
31
4.0483837833
11
20.6771952479
21
-15.5739643165
31
4.0482741792
11
20.6484524732
21
-15.5705785457
31
4.0484495241
11
20.6200021168
21
-15.5613428209
31
4.0489276361
11
20.5940292849
21
-15.5466961394
31
4.0496852756
11
20.5723267681
21
-15.5280952602
31
4.0506464222
11
20.5546627980
21
-15.5058868228
31
4.0517924629
11
20.5411394118
21
-15.4798534494
31
4.0531337842
11
20.5329471905
21
-15.4516920957
31
4.0545821928
11
20.5303881489
21
-15.4234593363
31
4.0560316107
11
20.5330804738
21
-15.3958166045
31
4.0574481542
11
20.5363981524
21
-15.3820822500
31
4.0581510165
11
20.5410835737
21
-15.3684973694
31
4.0588456086
11
20.5471833909
21
-15.3551623091
31
4.0595268270
11
20.5547380935
21
-15.3422088944
31
4.0601879796
11
20.5590690717
21
-15.3359255208
31
4.0605084858
11
20.5637700144
21
-15.3298017746
31
4.0608207225
11
20.5688387155
21
-15.3238628998
31
4.0611234132
11
20.5742701851
21
-15.3181355735
31
4.0614152101
0
SPLINE
5
2D3
100
AcDbEntity
8
ASSI
100
AcDbSpline
62
9
6
CONTINUOUS
70
0
71
3
72
8
73
4
74
2
42
0.0000001000
43
0.0000001000
44
0.0000000001
12
-0.4942295743
22
-0.4940565671
32
-0.0247004153
13
-0.4941881734
23
-0.4940151807
33
-0.0255147657
40
0.0000000000
40
0.0000000000
40
0.0000000000
40
0.0000000000
40
1.0000000000
40
1.0000000000
40
1.0000000000
40
1.0000000000
10
21.2804545630
20
-15.0360751958
30
4.0756499075
10
21.1157113716
20
-15.2007607181
30
4.0674164357
10
20.9509749684
20
-15.3654394546
30
4.0590472332
10
20.7862455772
20
-15.5301111815
30
4.0505423113
11
21.2804545630
21
-15.0360751958
31
4.0756499075
11
20.7862455772
21
-15.5301111815
31
4.0505423113
0
SPLINE
5
2D4
100
AcDbEntity
8
ASSI
100
AcDbSpline
62
9
6
CONTINUOUS
70
0
71
3
72
33
73
29
74
27
42
0.0000001000
43
0.0000001000
44
0.0000000001
12
0.4025416680
22
0.4026818140
32
0.0198464053
13
-0.3872911697
23
-0.3871555967
33
-0.0193558889
40
0.0000000000
40
0.0000000000
40
0.0000000000
40
0.0000000000
40
0.0156250000
40
0.0312500000
40
0.0468750000
40
0.0625000000
40
0.0937500000
40
0.1250000000
40
0.1562500000
40
0.1875000000
40
0.2500000000
40
0.3125000000
40
0.3750000000
40
0.4375000000
40
0.5000000000
40
0.5625000000
40
0.6250000000
40
0.6875000000
40
0.7500000000
40
0.8125000000
40
0.8437500000
40
0.8750000000
40
0.9062500000
40
0.9375000000
40
0.9531250000
40
0.9687500000
40
0.9843750000
40
1.0000000000
40
1.0000000000
40
1.0000000000
40
1.0000000000
10
21.0683066702
20
-14.8239270883
30
4.0861810116
10
21.0704032413
20
-14.8218297872
30
4.0862843783
10
21.0741563377
20
-14.8182894647
30
4.0864588272
10
21.0804378323
20
-14.8129473756
30
4.0867219664
10
21.0868034582
20
-14.8081169424
30
4.0869598176
10
21.0955547993
20
-14.8021715495
30
4.0872524787
10
21.1068304735
20
-14.7957569010
30
4.0875680948
10
21.1207356327
20
-14.7896310578
30
4.0878693602
10
21.1348459406
20
-14.7850301520
30
4.0880955478
10
21.1538220178
20
-14.7808477522
30
4.0883011063
10
21.1773553273
20
-14.7791087061
30
4.0883865495
10
21.2062282024
20
-14.7823851060
30
4.0882255645
10
21.2351373840
20
-14.7916803402
30
4.0877686554
10
21.2615182113
20
-14.8066840156
30
4.0870305107
10
21.2830925185
20
-14.8253453300
30
4.0861113353
10
21.3007623729
20
-14.8474216730
30
4.0850224733
10
21.3145894266
20
-14.8738462405
30
4.0837169863
10
21.3228153118
20
-14.9024342823
30
4.0823018937
10
21.3252627097
20
-14.9307981305
30
4.0808951445
10
21.3230331802
20
-14.9537333035
30
4.0797555070
10
21.3186122974
20
-14.9721028158
30
4.0788414751
10
21.3139267551
20
-14.9857117844
30
4.0781636918
10
21.3078231832
20
-14.9990830881
30
4.0774971409
10
21.3015248854
20
-15.0099059063
30
4.0769571515
10
21.2957343040
20
-15.0183033266
30
4.0765379072
10
21.2910488527
20
-15.0244134336
30
4.0762327322
10
21.2858871909
20
-15.0304461242
30
4.0759312983
10
21.2824717045
20
-15.0340587604
30
4.0757507194
10
21.2804545630
20
-15.0360751958
30
4.0756499075
11
21.0683066702
21
-14.8239270883
31
4.0861810116
11
21.0742649794
21
-14.8182841971
31
4.0864590715
11
21.0804518542
21
-14.8130326516
31
4.0867177517
11
21.0868364382
21
-14.8081788405
31
4.0869567584
11
21.0933893972
21
-14.8037257039
31
4.0871759661
11
21.1068928652
21
-14.7960188568
31
4.0875551825
11
21.1207698241
21
-14.7898852140
31
4.0878568472
11
21.1348662323
21
-14.7852741697
31
4.0880835447
11
21.1490655460
21
-14.7821259491
31
4.0882382830
11
21.1774608112
21
-14.7800025820
31
4.0883426300
11
21.2062342535
21
-14.7833882450
31
4.0881762438
11
21.2347159916
21
-14.7926317470
31
4.0877217828
11
21.2607171246
21
-14.8072936221
31
4.0870003389
11
21.2824417764
21
-14.8259145015
31
4.0860830542
11
21.3001219061
21
-14.8481463771
31
4.0849863691
11
21.3136558985
21
-14.8742068195
31
4.0836987187
11
21.3218522306
21
-14.9023969167
31
4.0823032843
11
21.3244089042
21
-14.9306578571
31
4.0809016752
11
21.3217081879
21
-14.9583274627
31
4.0795268056
11
21.3183839840
21
-14.9720747882
31
4.0788427652
11
21.3136904169
21
-14.9856721736
31
4.0781655639
11
21.3075807857
21
-14.9990191011
31
4.0775002348
11
21.3000145782
21
-15.0119835252
31
4.0768534027
11
21.2956772182
21
-15.0182720002
31
4.0765394502
11
21.2909694843
21
-15.0244005309
31
4.0762333557
11
21.2858935963
21
-15.0303438348
31
4.0759363926
11
21.2804545630
21
-15.0360751958
31
4.0756499075
0
SPLINE
5
2D5
100
AcDbEntity
8
ASSI
100
AcDbSpline
62
9
6
CONTINUOUS
70
0
71
3
72
8
73
4
74
2
42
0.0000001000
43
0.0000001000
44
0.0000000001
12
0.4940159623
22
0.4941879553
32
0.0251732410
13
0.4940567839
23
0.4942287911
33
0.0243583509
40
0.0000000000
40
0.0000000000
40
0.0000000000
40
0.0000000000
40
1.0000000000
40
1.0000000000
40
1.0000000000
40
1.0000000000
10
20.5742701851
20
-15.3181355735
30
4.0614152101
10
20.7389421726
20
-15.1534062551
30
4.0698062904
10
20.9036210755
20
-14.9886700187
30
4.0780615613
10
21.0683066702
20
-14.8239270883
30
4.0861810116
11
20.5742701851
21
-15.3181355735
31
4.0614152101
11
21.0683066702
21
-14.8239270883
31
4.0861810116
0
SPLINE
5
2D6
100
AcDbEntity
8
ASSI
100
AcDbSpline
62
9
6
CONTINUOUS
70
0
71
3
72
33
73
29
74
27
42
0.0000001000
43
0.0000001000
44
0.0000000001
12
0.5689052213
22
0.0000000000
32
0.0000000000
13
-0.5467179120
23
0.0000000000
33
0.0000000000
40
0.0000000000
40
0.0000000000
40
0.0000000000
40
0.0000000000
40
0.0156250000
40
0.0312500000
40
0.0468750000
40
0.0625000000
40
0.0937500000
40
0.1250000000
40
0.1562500000
40
0.1875000000
40
0.2500000000
40
0.3125000000
40
0.3750000000
40
0.4375000000
40
0.5000000000
40
0.5625000000
40
0.6250000000
40
0.6875000000
40
0.7500000000
40
0.8125000000
40
0.8437500000
40
0.8750000000
40
0.9062500000
40
0.9375000000
40
0.9531250000
40
0.9687500000
40
0.9843750000
40
1.0000000000
40
1.0000000000
40
1.0000000000
40
1.0000000000
10
26.3041641320
20
-12.9447296266
30
4.1728949797
10
26.3071271800
20
-12.9447296266
30
4.1728949797
10
26.3122783437
20
-12.9448807843
30
4.1728884794
10
26.3204893962
20
-12.9455456320
30
4.1728598878
10
26.3283980202
20
-12.9466311880
30
4.1728132005
10
26.3387795637
20
-12.9486146196
30
4.1727278890
10
26.3512756955
20
-12.9520497980
30
4.1725801091
10
26.3654255110
20
-12.9575464250
30
4.1723435571
10
26.3786435055
20
-12.9642650876
30
4.1720542761
10
26.3950042380
20
-12.9747174871
30
4.1716039766
10
26.4128596165
20
-12.9901161372
30
4.1709399857
10
26.4309511904
20
-13.0128408548
30
4.1699585456
10
26.4448153186
20
-13.0398561118
30
4.1687895342
10
26.4528503396
20
-13.0691202809
30
4.1675203502
10
26.4548966977
20
-13.0975619912
30
4.1662840441
10
26.4517703283
20
-13.1256419540
30
4.1650608606
10
26.4428589854
20
-13.1540732700
30
4.1638196482
10
26.4284652958
20
-13.1800732313
30
4.1626821301
10
26.4101508340
20
-13.2018320822
30
4.1617284096
10
26.3923720352
20
-13.2164521035
30
4.1610866431
10
26.3762741230
20
-13.2262997532
30
4.1606540041
10
26.3633535650
20
-13.2325991557
30
4.1603771052
10
26.3496011818
20
-13.2377294724
30
4.1601514969
10
26.3375125207
20
-13.2409234097
30
4.1600109935
10
26.3274957752
20
-13.2427639325
30
4.1599300148
10
26.3198746204
20
-13.2437700759
30
4.1598857428
10
26.3119721517
20
-13.2443857378
30
4.1598586510
10
26.3070116211
20
-13.2445256266
30
4.1598524950
10
26.3041641320
20
-13.2445256266
30
4.1598524950
11
26.3041641320
21
-12.9447296266
31
4.1728949797
11
26.3123590615
21
-12.9449538028
31
4.1728853392
11
26.3204389915
21
-12.9456157501
31
4.1728568718
11
26.3283776092
21
-12.9466981910
31
4.1728103178
11
26.3361521247
21
-12.9481824876
31
4.1727464742
11
26.3511347717
21
-12.9522788668
31
4.1725702397
11
26.3652702075
21
-12.9577500976
31
4.1723347689
11
26.3784855980
21
-12.9644518604
31
4.1720462022
11
26.3907410191
21
-12.9722599306
31
4.1717098104
11
26.4123038031
21
-12.9908238601
31
4.1709092105
11
26.4302466161
21
-13.0135559447
31
4.1699272837
11
26.4438438007
21
-13.0402309305
31
4.1687728388
11
26.4518522291
21
-13.0689832044
31
4.1675258299
11
26.4540345764
21
-13.0975016999
31
4.1662862312
11
26.4508061660
21
-13.1257005129
31
4.1650578558
11
26.4419452609
21
-13.1536680443
31
4.1638369306
11
26.4278118338
21
-13.1793663796
31
4.1627127630
11
26.4096474845
21
-13.2011296113
31
4.1617590097
11
26.3881913177
21
-13.2187599853
31
4.1609852145
11
26.3761329357
21
-13.2261186974
31
4.1606619342
11
26.3632149275
21
-13.2324043081
31
4.1603856537
11
26.3494755135
21
-13.2375132071
31
4.1601609976
11
26.3349795163
21
-13.2413239882
31
4.1599933675
11
26.3274776760
21
-13.2427015577
31
4.1599327585
11
26.3198277348
21
-13.2437049956
31
4.1598886061
11
26.3120490972
21
-13.2443180997
31
4.1598616273
11
26.3041641320
21
-13.2445256266
31
4.1598524950
0
SPLINE
5
2D7
100
AcDbEntity
8
ASSI
100
AcDbSpline
62
9
6
CONTINUOUS
70
0
71
3
72
13
73
9
74
7
42
0.0000001000
43
0.0000001000
44
0.0000000001
12
-0.1647974411
22
0.0756361533
32
0.0029239891
13
-0.0000000000
23
0.1814473425
33
0.0069307547
40
0.0000000000
40
0.0000000000
40
0.0000000000
40
0.0000000000
40
0.1666666667
40
0.3333333333
40
0.5000000000
40
0.6666666667
40
0.8333333333
40
1.0000000000
40
1.0000000000
40
1.0000000000
40
1.0000000000
10
23.8880058022
20
-11.6440481528
30
4.2260030156
10
23.8788503888
20
-11.6398461443
30
4.2261654595
10
23.8623089739
20
-11.6301362438
30
4.2265406603
10
23.8406460836
20
-11.6113321833
30
4.2272662253
10
23.8226594371
20
-11.5884490142
30
4.2281475758
10
23.8093581309
20
-11.5625569078
30
4.2291426690
10
23.8012967792
20
-11.5350167878
30
4.2301986015
10
23.7993691320
20
-11.5159210345
30
4.2309289898
10
23.7993691320
20
-11.5058406266
30
4.2313140317
11
23.8880058022
21
-11.6440481528
31
4.2260030156
11
23.8628338459
21
-11.6294297088
31
4.2265677876
11
23.8412587909
21
-11.6106523319
31
4.2272921895
11
23.8234403271
21
-11.5879475247
31
4.2281665329
11
23.8102314566
21
-11.5622822388
31
4.2291528089
11
23.8021584260
21
-11.5348328695
31
4.2302052098
11
23.7993691320
21
-11.5058406266
31
4.2313140317
0
SPLINE
5
2D8
100
AcDbEntity
8
ASSI
100
AcDbSpline
62
9
6
CONTINUOUS
70
0
71
3
72
13
73
9
74
7
42
0.0000001000
43
0.0000001000
44
0.0000000001
12
0.0327182596
22
1.8385139872
32
0.0801802754
13
-1.5676127768
23
0.9584344304
33
0.0370517495
40
0.0000000000
40
0.0000000000
40
0.0000000000
40
0.0000000000
40
0.1666666667
40
0.3333333333
40
0.5000000000
40
0.6666666667
40
0.8333333333
40
1.0000000000
40
1.0000000000
40
1.0000000000
40
1.0000000000
10
24.7020321361
20
-13.1266266421
30
4.1650174674
10
24.7038498172
20
-13.0244869762
30
4.1694719271
10
24.6895327967
20
-12.8290095091
30
4.1778951011
10
24.6192822308
20
-12.5442942955
30
4.1898909021
10
24.4996469739
20
-12.2727747312
30
4.2010750451
10
24.3347267777
20
-12.0261642131
30
4.2110165392
10
24.1322439271
20
-11.8141960326
30
4.2193976641
10
23.9750954009
20
-11.6972945100
30
4.2239445851
10
23.8880058022
20
-11.6440481528
30
4.2260030156
11
24.7020321361
21
-13.1266266421
31
4.1650174674
11
24.6814036242
21
-12.8304263403
31
4.1777886078
11
24.6110514490
21
-12.5464935704
31
4.1897556258
11
24.4920994840
21
-12.2769262389
31
4.2008679369
11
24.3284663353
21
-12.0319379360
31
4.2107564777
11
24.1267039373
21
-11.8202986821
31
4.2191375402
11
23.8880058022
21
-11.6440481528
31
4.2260030156
0
SPLINE
5
2D9
100
AcDbEntity
8
ASSI
100
AcDbSpline
62
9
6
CONTINUOUS
70
0
71
3
72
15
73
11
74
9
42
0.0000001000
43
0.0000001000
44
0.0000000001
12
2.7737107209
22
-0.0019307442
32
-0.0000952301
13
0.0164718632
23
2.8167913262
33
0.1228443764
40
0.0000000000
40
0.0000000000
40
0.0000000000
40
0.0000000000
40
0.1250000000
40
0.2500000000
40
0.3750000000
40
0.5000000000
40
0.6250000000
40
0.7500000000
40
0.8750000000
40
1.0000000000
40
1.0000000000
40
1.0000000000
40
1.0000000000
10
22.9924138679
20
-14.8351197215
30
4.0856291668
10
23.1079851479
20
-14.8352001691
30
4.0856251988
10
23.3259064944
20
-14.8124945668
30
4.0867460956
10
23.6432259609
20
-14.7186829796
30
4.0913580662
10
23.9427394139
20
-14.5607137643
30
4.0990569976
10
24.2048910832
20
-14.3474528340
30
4.1093162215
10
24.4196654477
20
-14.0856532008
30
4.1217006816
10
24.5799922539
20
-13.7850983629
30
4.1356307522
10
24.6768282877
20
-13.4650780359
30
4.1501240966
10
24.7013458085
20
-13.2439929474
30
4.1598989517
10
24.7020321361
20
-13.1266266421
30
4.1650174674
11
22.9924138679
21
-14.8351197215
31
4.0856291668
11
23.3243127355
21
-14.8025357029
31
4.0872345332
11
23.6402582920
21
-14.7079900416
31
4.0918725597
11
23.9365124500
21
-14.5514984784
31
4.0994837130
11
24.1969948658
21
-14.3393630502
31
4.1096704275
11
24.4105908546
21
-14.0791940000
31
4.1219582834
11
24.5694104585
21
-13.7818541147
31
4.1357246311
11
24.6668183289
21
-13.4631434849
31
4.1501522530
11
24.7020321361
21
-13.1266266421
31
4.1650174674
0
SPLINE
5
2DA
100
AcDbEntity
8
ASSI
100
AcDbSpline
62
9
6
CONTINUOUS
70
0
71
3
72
15
73
11
74
9
42
0.0000001000
43
0.0000001000
44
0.0000000001
12
-0.0000793974
22
-2.7130059647
32
-0.1183176376
13
2.7285491481
23
-0.0018993078
33
-0.0000936796
40
0.0000000000
40
0.0000000000
40
0.0000000000
40
0.0000000000
40
0.1250000000
40
0.2500000000
40
0.3750000000
40
0.5000000000
40
0.6250000000
40
0.7500000000
40
0.8750000000
40
1.0000000000
40
1.0000000000
40
1.0000000000
40
1.0000000000
10
21.2851043647
20
-13.1265701266
30
4.1650199321
10
21.2851010565
20
-13.2396120418
30
4.1600900305
10
21.3070486460
20
-13.4608105577
30
4.1503167326
10
21.4045473898
20
-13.7836875286
30
4.1356950396
10
21.5629631112
20
-14.0804418580
30
4.1219434478
10
21.7761477507
20
-14.3409042211
30
4.1096285703
10
22.0362138308
20
-14.5548969622
30
4.0993386731
10
22.3329044969
20
-14.7142132334
30
4.0915772365
10
22.6565007982
20
-14.8126796516
30
4.0867372078
10
22.8787243204
20
-14.8350400756
30
4.0856330951
10
22.9924138683
20
-14.8351192134
30
4.0856291918
11
21.2851043647
21
-13.1265701266
31
4.1650199321
11
21.3178115393
21
-13.4593237572
31
4.1503231083
11
21.4147002194
21
-13.7793337550
31
4.1358400565
11
21.5720912642
21
-14.0743931970
31
4.1221829002
11
21.7839613241
21
-14.3331592841
31
4.1099660670
11
22.0423179285
21
-14.5457842173
31
4.0997600832
11
22.3373887694
21
-14.7040715912
31
4.0920641378
11
22.6581239619
21
-14.8018586879
31
4.0872678511
11
22.9924138683
21
-14.8351192134
31
4.0856291918
0
SPLINE
5
2DB
100
AcDbEntity
8
ASSI
100
AcDbSpline
62
9
6
CONTINUOUS
70
0
71
3
72
13
73
9
74
7
42
0.0000001000
43
0.0000001000
44
0.0000000001
12
-1.6449602545
22
-0.9239767024
32
-0.0356964885
13
0.0000662879
23
-1.8880241414
33
-0.0823391257
40
0.0000000000
40
0.0000000000
40
0.0000000000
40
0.0000000000
40
0.1666666667
40
0.3333333333
40
0.5000000000
40
0.6666666667
40
0.8333333333
40
1.0000000000
40
1.0000000000
40
1.0000000000
40
1.0000000000
10
22.1571171320
20
-11.6365386266
30
4.2262932294
10
22.0657304512
20
-11.6878706656
30
4.2243100911
10
21.9006107029
20
-11.8019876705
30
4.2198756988
10
21.6867267698
20
-12.0122271152
30
4.2115725532
10
21.5115260519
20
-12.2586979766
30
4.2016486605
10
21.3823760337
20
-12.5321625174
30
4.1903972087
10
21.3037527353
20
-12.8216979138
30
4.1782084889
10
21.2851006821
20
-13.0216798966
30
4.1695943280
10
21.2851043647
20
-13.1265701266
30
4.1650199321
11
22.1571171320
21
-11.6365386266
31
4.2262932294
11
21.9062433178
21
-11.8084983267
31
4.2196004393
11
21.6931739723
21
-12.0182656847
31
4.2113024286
11
21.5192011685
21
-12.2631969232
31
4.2014274006
11
21.3907971536
21
-12.5348409933
31
4.1902409974
11
21.3121936050
21
-12.8234375101
31
4.1780864020
11
21.2851043647
21
-13.1265701266
31
4.1650199321
0
SPLINE
5
2DC
100
AcDbEntity
8
ASSI
100
AcDbSpline
62
9
6
CONTINUOUS
70
0
71
3
72
13
73
9
74
7
42
0.0000001000
43
0.0000001000
44
0.0000000001
12
0.0000000000
22
-0.1799224082
32
-0.0068611428
13
-0.1455318682
23
-0.1056117932
33
-0.0040801572
40
0.0000000000
40
0.0000000000
40
0.0000000000
40
0.0000000000
40
0.1666666667
40
0.3333333333
40
0.5000000000
40
0.6666666667
40
0.8333333333
40
1.0000000000
40
1.0000000000
40
1.0000000000
40
1.0000000000
10
22.2334000224
20
-11.4869276266
30
4.2320358554
10
22.2334000224
20
-11.4969233160
30
4.2316546808
10
22.2318227838
20
-11.5161701870
30
4.2309197434
10
22.2250755037
20
-11.5442842649
30
4.2298435569
10
22.2139066108
20
-11.5712569658
30
4.2288085528
10
22.1986339403
20
-11.5961338412
30
4.2278517901
10
22.1798459843
20
-11.6180980321
30
4.2270053171
10
22.1652022358
20
-11.6306713048
30
4.2265199048
10
22.1571171320
20
-11.6365386266
30
4.2262932294
11
22.2334000224
21
-11.4869276266
31
4.2320358554
11
22.2310925468
21
-11.5160441489
31
4.2309241133
11
22.2243385682
21
-11.5440940354
31
4.2298504206
11
22.2132226479
21
-11.5709076616
31
4.2288215930
11
22.1980480594
21
-11.5956483938
31
4.2278701717
11
22.1793163732
21
-11.6175806518
31
4.2270250428
11
22.1571171320
21
-11.6365386266
31
4.2262932294
0
SPLINE
5
2DD
100
AcDbEntity
8
ASSI
100
AcDbSpline
62
9
6
CONTINUOUS
70
0
71
3
72
33
73
29
74
27
42
0.0000001000
43
0.0000001000
44
0.0000000001
12
0.0000000000
22
0.5692646883
32
0.0297059164
13
0.0000000000
23
-0.5472093459
33
-0.0285550034
40
0.0000000000
40
0.0000000000
40
0.0000000000
40
0.0000000000
40
0.0156250000
40
0.0312500000
40
0.0468750000
40
0.0625000000
40
0.0937500000
40
0.1250000000
40
0.1562500000
40
0.1875000000
40
0.2500000000
40
0.3125000000
40
0.3750000000
40
0.4375000000
40
0.5000000000
40
0.5625000000
40
0.6250000000
40
0.6875000000
40
0.7500000000
40
0.8125000000
40
0.8437500000
40
0.8750000000
40
0.9062500000
40
0.9375000000
40
0.9531250000
40
0.9687500000
40
0.9843750000
40
1.0000000000
40
1.0000000000
40
1.0000000000
40
1.0000000000
10
22.8598561320
20
-15.6900846266
30
4.0422372348
10
22.8598561320
20
-15.6871197064
30
4.0423919531
10
22.8600075881
20
-15.6819620884
30
4.0426610168
10
22.8606736508
20
-15.6737444534
30
4.0430895041
10
22.8617610705
20
-15.6658293378
30
4.0435019973
10
22.8637477070
20
-15.6554403163
30
4.0440431476
10
22.8671879903
20
-15.6429365229
30
4.0446939622
10
22.8726917597
20
-15.6287802920
30
4.0454300937
10
22.8794179496
20
-15.6155585143
30
4.0461170273
10
22.8898798274
20
-15.5991963392
30
4.0469664183
10
22.9052890863
20
-15.5813442390
30
4.0478920644
10
22.9280131344
20
-15.5632689372
30
4.0488280944
10
22.9550119563
20
-15.5494231927
30
4.0495443316
10
22.9842538811
20
-15.5413976638
30
4.0499591874
10
23.0126801322
20
-15.5393517127
30
4.0500649131
10
23.0407442225
20
-15.5424734939
30
4.0499035869
10
23.0691534079
20
-15.5513703372
30
4.0494436431
10
23.0951387750
20
-15.5657411166
30
4.0487001344
10
23.1169005052
20
-15.5840367902
30
4.0477525285
10
23.1315347912
20
-15.6018123717
30
4.0468306853
10
23.1413949444
20
-15.6179130768
30
4.0459947336
10
23.1477040619
20
-15.6308391607
30
4.0453230659
10
23.1528434807
20
-15.6446004190
30
4.0446073860
10
23.1560438269
20
-15.6566993349
30
4.0439775863
10
23.1578883227
20
-15.6667258873
30
4.0434552817
10
23.1588967527
20
-15.6743553709
30
4.0430576547
10
23.1595138874
20
-15.6822663568
30
4.0426451449
10
23.1596541320
20
-15.6872345779
30
4.0423859588
10
23.1596541320
20
-15.6900846266
30
4.0422372348
11
22.8598561320
21
-15.6900846266
31
4.0422372348
11
22.8600807345
21
-15.6818818871
31
4.0426651654
11
22.8607438769
21
-15.6737948733
31
4.0430868384
11
22.8618281634
21
-15.6658498961
31
4.0435008922
11
22.8633148471
21
-15.6580697373
31
4.0439061518
11
22.8674172285
21
-15.6430779098
31
4.0446864879
11
22.8728954965
21
-15.6289360342
31
4.0454218941
11
22.8796046527
21
-15.6157168720
31
4.0461087123
11
22.8874198187
21
-15.6034602576
31
4.0467449977
11
22.9059945758
21
-15.5819021087
31
4.0478629402
11
22.9287255967
21
-15.5639738634
31
4.0487914622
11
22.9553858068
21
-15.5503932286
31
4.0494941013
11
22.9841179355
21
-15.5423942601
31
4.0499076657
11
23.0126197721
21
-15.5402130014
31
4.0500204044
11
23.0408017383
21
-15.5434360043
31
4.0498538173
11
23.0687494382
21
-15.5522826599
31
4.0493963823
11
23.0944348355
21
-15.5663952656
31
4.0486661182
11
23.1162004073
21
-15.5845426276
31
4.0477260942
11
23.1338458898
21
-15.6059942346
31
4.0466134910
11
23.1412139448
21
-15.6180548360
31
4.0459872830
11
23.1475091121
21
-15.6309783564
31
4.0453157305
11
23.1526269801
21
-15.6447266591
31
4.0446007060
11
23.1564453024
21
-15.6592349246
31
4.0438454714
11
23.1578258324
21
-15.6667441489
31
4.0434542986
11
23.1588315368
21
-15.6744022879
31
4.0430551742
11
23.1594460927
21
-15.6821899144
31
4.0426491000
11
23.1596541320
21
-15.6900846266
31
4.0422372348
0
SPLINE
5
2DE
100
AcDbEntity
8
ASSI
100
AcDbSpline
62
9
6
CONTINUOUS
70
0
71
3
72
33
73
29
74
27
42
0.0000001000
43
0.0000001000
44
0.0000000001
12
0.0000000000
22
-0.5692916892
32
-0.0310385805
13
0.0000000000
23
0.5472534251
33
0.0298370234
40
0.0000000000
40
0.0000000000
40
0.0000000000
40
0.0000000000
40
0.0156250000
40
0.0312500000
40
0.0468750000
40
0.0625000000
40
0.0937500000
40
0.1250000000
40
0.1562500000
40
0.1875000000
40
0.2500000000
40
0.3125000000
40
0.3750000000
40
0.4375000000
40
0.5000000000
40
0.5625000000
40
0.6250000000
40
0.6875000000
40
0.7500000000
40
0.8125000000
40
0.8437500000
40
0.8750000000
40
0.9062500000
40
0.9375000000
40
0.9531250000
40
0.9687500000
40
0.9843750000
40
1.0000000000
40
1.0000000000
40
1.0000000000
40
1.0000000000
10
23.1596541320
20
-16.3888646266
30
4.0049558490
10
23.1596541320
20
-16.3918296875
30
4.0047941897
10
23.1595026527
20
-16.3969878079
30
4.0045128857
10
23.1588364979
20
-16.4052059279
30
4.0040644888
10
23.1577489408
20
-16.4131215068
30
4.0036323791
10
23.1557620763
20
-16.4235110293
30
4.0030649477
10
23.1523214507
20
-16.4360152755
30
4.0023815276
10
23.1468172519
20
-16.4501717875
30
4.0016071110
10
23.1400906683
20
-16.4633936268
30
4.0008832185
10
23.1296283751
20
-16.4797556362
30
3.9999867011
10
23.1142188274
20
-16.4976072207
30
3.9990074758
10
23.0914951776
20
-16.5156814764
30
3.9980148465
10
23.0644974694
20
-16.5295262787
30
3.9972537313
10
23.0352569135
20
-16.5375514148
30
3.9968122481
10
23.0068317968
20
-16.5395975087
30
3.9966996535
10
22.9787687804
20
-16.5364762510
30
3.9968714070
10
22.9503607398
20
-16.5275804748
30
3.9973607384
10
22.9243760565
20
-16.5132111880
30
3.9981505754
10
22.9026141301
20
-16.4949168573
30
3.9991551273
10
22.8879789843
20
-16.4771417638
30
4.0001299921
10
22.8781179586
20
-16.4610410205
30
4.0010120600
10
22.8718081255
20
-16.4481146284
30
4.0017196800
10
22.8666679964
20
-16.4343527536
30
4.0024724213
10
22.8634671253
20
-16.4222530420
30
4.0031336729
10
22.8616222953
20
-16.4122256859
30
4.0036812896
10
22.8606136699
20
-16.4045955029
30
4.0040978001
10
22.8599964078
20
-16.3966837838
30
4.0045294671
10
22.8598561320
20
-16.3917149049
30
4.0048004478
10
22.8598561320
20
-16.3888646266
30
4.0049558490
11
23.1596541320
21
-16.3888646266
31
4.0049558490
11
23.1594294967
21
-16.3970679645
31
4.0045084789
11
23.1587662642
21
-16.4051555044
31
4.0040672033
11
23.1576818423
21
-16.4131009339
31
4.0036334685
11
23.1561949894
21
-16.4208814716
31
4.0032085302
11
23.1520922094
21
-16.4358738450
31
4.0023891422
11
23.1466135211
21
-16.4500160087
31
4.0016155316
11
23.1399039789
21
-16.4632352381
31
4.0008918025
11
23.1320885030
21
-16.4754917387
31
4.0002202585
11
23.1135134619
21
-16.4970492797
31
3.9990378827
11
23.0907828345
21
-16.5149765675
31
3.9980534322
11
23.0641236615
21
-16.5285563343
31
3.9973070033
11
23.0353928200
21
-16.5365549078
31
3.9968670628
11
23.0068921469
21
-16.5387362834
31
3.9967470449
11
22.9787112764
21
-16.5355138313
31
3.9969243366
11
22.9507646327
21
-16.5266682230
31
3.9974108227
11
22.9250798493
21
-16.5125570140
31
3.9981863612
11
22.9033140887
21
-16.4944108937
31
3.9991826749
11
22.8856676521
21
-16.4729598556
31
4.0003590237
11
22.8782989480
21
-16.4608992147
31
4.0010197382
11
22.8720030762
21
-16.4479753813
31
4.0017272002
11
22.8668845103
21
-16.4342264571
31
4.0024792147
11
22.8630655734
21
-16.4197172374
31
4.0032721284
11
22.8616847949
21
-16.4122074082
31
4.0036822559
11
22.8606788972
21
-16.4045485802
31
4.0041003262
11
22.8600642159
21
-16.3967601839
31
4.0045252678
11
22.8598561320
21
-16.3888646266
31
4.0049558490
0
SPLINE
5
2DF
100
AcDbEntity
8
ASSI
100
AcDbSpline
62
9
6
CONTINUOUS
70
0
71
3
72
33
73
29
74
27
42
0.0000001000
43
0.0000001000
44
0.0000000001
12
-0.4026449530
22
0.4026449459
32
0.0201301628
13
0.3867230405
23
-0.3867230405
33
-0.0190598687
40
0.0000000000
40
0.0000000000
40
0.0000000000
40
0.0000000000
40
0.0156250000
40
0.0312500000
40
0.0468750000
40
0.0625000000
40
0.0937500000
40
0.1250000000
40
0.1562500000
40
0.1875000000
40
0.2500000000
40
0.3125000000
40
0.3750000000
40
0.4375000000
40
0.5000000000
40
0.5625000000
40
0.6250000000
40
0.6875000000
40
0.7500000000
40
0.8125000000
40
0.8437500000
40
0.8750000000
40
0.9062500000
40
0.9375000000
40
0.9531250000
40
0.9687500000
40
0.9843750000
40
1.0000000000
40
1.0000000000
40
1.0000000000
40
1.0000000000
10
24.7389711330
20
-15.0359876276
30
4.0756542854
10
24.7368740238
20
-15.0338905185
30
4.0757591300
10
24.7333346951
20
-15.0301370544
30
4.0759467458
10
24.7279941512
20
-15.0238547689
30
4.0762606422
10
24.7231657294
20
-15.0174888191
30
4.0765785809
10
24.7172233823
20
-15.0087374706
30
4.0770154675
10
24.7108131085
20
-14.9974627098
30
4.0775779551
10
24.7046928223
20
-14.9835598605
30
4.0782709152
10
24.7000973561
20
-14.9694527165
30
4.0789733958
10
24.6959218120
20
-14.9504810703
30
4.0799172050
10
24.6941902898
20
-14.9269546158
30
4.0810859421
10
24.6974766812
20
-14.8980799587
30
4.0825176248
10
24.7067905773
20
-14.8691615698
30
4.0839486236
10
24.7218194378
20
-14.8427791635
30
4.0852516033
10
24.7405001174
20
-14.8212200818
30
4.0863146237
10
24.7625705447
20
-14.8035859642
30
4.0871829834
10
24.7889673099
20
-14.7897960601
30
4.0878612986
10
24.8175174709
20
-14.7815948682
30
4.0882643951
10
24.8458504660
20
-14.7791576211
30
4.0883841462
10
24.8687674915
20
-14.7813897074
30
4.0882744749
10
24.8871209608
20
-14.7858094926
30
4.0880572385
10
24.9007178674
20
-14.7904923834
30
4.0878270070
10
24.9140767169
20
-14.7965911728
30
4.0875270541
10
24.9248889076
20
-14.8028833505
30
4.0872174469
10
24.9332777693
20
-14.8086674855
30
4.0869327117
10
24.9393815684
20
-14.8133473608
30
4.0867022663
10
24.9454078470
20
-14.8185023237
30
4.0864483392
10
24.9490169495
20
-14.8219134441
30
4.0862802552
10
24.9510311320
20
-14.8239276266
30
4.0861809851
11
24.7389711330
21
-15.0359876276
31
4.0756542854
11
24.7333294366
21
-15.0300283728
31
4.0759521579
11
24.7280795049
21
-15.0238408249
31
4.0762613159
11
24.7232276730
21
-15.0174558922
31
4.0765802019
11
24.7187768131
21
-15.0109029360
31
4.0769073378
11
24.7110751156
21
-14.9974005204
31
4.0775809509
11
24.7049469590
21
-14.9835258114
31
4.0782725019
11
24.7003413242
21
-14.9694324514
31
4.0789742919
11
24.6971982253
21
-14.9552365221
31
4.0796805178
11
24.6950843261
21
-14.9268474638
31
4.0810908085
11
24.6984812653
21
-14.8980726700
31
4.0825175108
11
24.7077430714
21
-14.8695842336
31
4.0839272871
11
24.7224280743
21
-14.8435830509
31
4.0852116101
11
24.7410650753
21
-14.8218742425
31
4.0862821803
11
24.7632916010
21
-14.8042266665
31
4.0871513093
11
24.7893262092
21
-14.7907275122
31
4.0878154288
11
24.8174812766
21
-14.7825555257
31
4.0882171708
11
24.8457117053
21
-14.7800102462
31
4.0883422534
11
24.8733575129
21
-14.7827141634
31
4.0882093742
11
24.8870929283
21
-14.7860375012
31
4.0880460211
11
24.9006781913
21
-14.7907283665
31
4.0878153868
11
24.9140126802
21
-14.7968331434
31
4.0875151248
11
24.9269643821
21
-14.8043919170
31
4.0871431757
11
24.9332464615
21
-14.8087244479
31
4.0869298960
11
24.9393686483
21
-14.8134265421
31
4.0866983527
11
24.9453057428
21
-14.8184959433
31
4.0864486394
11
24.9510311320
21
-14.8239276266
31
4.0861809851
0
SPLINE
5
2E0
100
AcDbEntity
8
ASSI
100
AcDbSpline
62
9
6
CONTINUOUS
70
0
71
3
72
8
73
4
74
2
42
0.0000001000
43
0.0000001000
44
0.0000000001
12
-0.4941016886
22
0.4941016886
32
0.0255192344
13
-0.4941430894
23
0.4941430894
33
0.0247045987
40
0.0000000000
40
0.0000000000
40
0.0000000000
40
0.0000000000
40
1.0000000000
40
1.0000000000
40
1.0000000000
40
1.0000000000
10
25.2330921320
20
-15.5301116266
30
4.0505422883
10
25.0683915691
20
-15.3654110637
30
4.0590486998
10
24.9036839942
20
-15.2007034888
30
4.0674193443
10
24.7389696311
20
-15.0359891257
30
4.0756542105
11
25.2330921320
21
-15.5301116266
31
4.0505422883
11
24.7389696311
21
-15.0359891257
31
4.0756542105
0
SPLINE
5
2E1
100
AcDbEntity
8
ASSI
100
AcDbSpline
62
9
6
CONTINUOUS
70
0
71
3
72
33
73
29
74
27
42
0.0000001000
43
0.0000001000
44
0.0000000001
12
0.4027963310
22
-0.4027963288
32
-0.0205178818
13
-0.3865174890
23
0.3871486482
33
0.0199953518
40
0.0000000000
40
0.0000000000
40
0.0000000000
40
0.0000000000
40
0.0156250000
40
0.0312500000
40
0.0468750000
40
0.0625000000
40
0.0937500000
40
0.1250000000
40
0.1562500000
40
0.1875000000
40
0.2500000000
40
0.3125000000
40
0.3750000000
40
0.4375000000
40
0.5000000000
40
0.5625000000
40
0.6250000000
40
0.6875000000
40
0.7500000000
40
0.8125000000
40
0.8437500000
40
0.8750000000
40
0.9062500000
40
0.9375000000
40
0.9531250000
40
0.9687500000
40
0.9843750000
40
1.0000000000
40
1.0000000000
40
1.0000000000
40
1.0000000000
10
25.4452396670
20
-15.3181370910
30
4.0614151328
10
25.4473375646
20
-15.3202349886
30
4.0613082688
10
25.4508779768
20
-15.3239896828
30
4.0611169719
10
25.4562202101
20
-15.3302742976
30
4.0607966569
10
25.4610499559
20
-15.3366426048
30
4.0604719381
10
25.4669937237
20
-15.3453972355
30
4.0600253534
10
25.4734050581
20
-15.3566762056
30
4.0594496253
10
25.4795255458
20
-15.3705840745
30
4.0587390655
10
25.4841202354
20
-15.3846960280
30
4.0580174164
10
25.4882935688
20
-15.4036737249
30
4.0570460401
10
25.4900204722
20
-15.4272065718
30
4.0558398400
10
25.4867255994
20
-15.4560886768
30
4.0543567158
10
25.4773992574
20
-15.4850137318
30
4.0528685317
10
25.4623550461
20
-15.5113989308
30
4.0515084925
10
25.4436596430
20
-15.5329552669
30
4.0503956151
10
25.4215759205
20
-15.5505822509
30
4.0494844654
10
25.3951658992
20
-15.5643612700
30
4.0487714768
10
25.3666046928
20
-15.5725478501
30
4.0483475530
10
25.3382642769
20
-15.5749681665
30
4.0482221807
10
25.3153438986
20
-15.5727206844
30
4.0483385995
10
25.2969893366
20
-15.5682874087
30
4.0485681665
10
25.2833925456
20
-15.5635938719
30
4.0488111468
10
25.2700348592
20
-15.5574839082
30
4.0491273443
10
25.2592246414
20
-15.5511820354
30
4.0494533298
10
25.2508380498
20
-15.5453899509
30
4.0497528181
10
25.2447363096
20
-15.5407040800
30
4.0499950383
10
25.2387125118
20
-15.5355429344
30
4.0502617384
10
25.2351052439
20
-15.5321280258
30
4.0504381458
10
25.2330921320
20
-15.5301116266
30
4.0505422883
11
25.4452396670
21
-15.3181370910
31
4.0614151328
11
25.4508832460
21
-15.3240984451
31
4.0611114103
11
25.4561347955
21
-15.3302882463
31
4.0607959229
11
25.4609879692
21
-15.3366755491
31
4.0604702348
11
25.4654398901
21
-15.3432309566
31
4.0601358331
11
25.4731428725
21
-15.3567383897
31
4.0594463443
11
25.4792712461
21
-15.3706180886
31
4.0587372173
11
25.4838761204
21
-15.3847162479
31
4.0580162692
11
25.4870175846
21
-15.3989166824
31
4.0572894189
11
25.4891259461
21
-15.4273136866
31
4.0558338927
11
25.4857203545
21
-15.4560958351
31
4.0543558725
11
25.4764462792
21
-15.4845904225
31
4.0528898892
11
25.4617465141
21
-15.5105941203
31
4.0515496861
11
25.4430949231
21
-15.5323003749
31
4.0504292364
11
25.4208548707
21
-15.5499409234
31
4.0495174922
11
25.3948073683
21
-15.5634291969
31
4.0488196543
11
25.3666414912
21
-15.5715868062
31
4.0483973116
11
25.3384036039
21
-15.5741152840
31
4.0482663599
11
25.3107537365
21
-15.5713927579
31
4.0484073606
11
25.2970175250
21
-15.5680593120
31
4.0485799673
11
25.2834323963
21
-15.5633578008
31
4.0488233496
11
25.2700990967
21
-15.5572418609
31
4.0491398418
11
25.2571497921
21
-15.5496714654
31
4.0495314269
11
25.2508694171
21
-15.5453329830
31
4.0497557521
11
25.2447493000
21
-15.5406248675
31
4.0499991183
11
25.2388146611
21
-15.5355493982
31
4.0502613902
11
25.2330921320
21
-15.5301116266
31
4.0505422883
0
SPLINE
5
2E2
100
AcDbEntity
8
ASSI
100
AcDbSpline
62
9
6
CONTINUOUS
70
0
71
3
72
15
73
11
74
9
42
0.0000001000
43
0.0000001000
44
0.0000000001
12
-2.9647488267
22
0.0018144150
32
0.0000904327
13
0.0000890200
23
2.9622167606
33
0.1291859777
40
0.0000000000
40
0.0000000000
40
0.0000000000
40
0.0000000000
40
0.1250000000
40
0.2500000000
40
0.3750000000
40
0.5000000000
40
0.6250000000
40
0.7500000000
40
0.8750000000
40
1.0000000000
40
1.0000000000
40
1.0000000000
40
1.0000000000
10
22.9924627097
20
-14.9900672785
30
4.0779465387
10
22.8689315086
20
-14.9899916779
30
4.0779503067
10
22.6272568099
20
-14.9658115160
30
4.0791569227
10
22.2745577773
20
-14.8588451592
30
4.0844687151
10
21.9507091154
20
-14.6853321985
30
4.0930026346
10
21.6666789994
20
-14.4520078981
30
4.1043175904
10
21.4337499436
20
-14.1677857897
30
4.1178513517
10
21.2606916163
20
-13.8439577608
30
4.1329385428
10
21.1541390364
20
-13.4914836849
30
4.1489547398
10
21.1301531732
20
-13.2499953249
30
4.1596372048
10
21.1301568824
20
-13.1265696266
30
4.1650199539
11
22.9924627097
21
-14.9900672785
31
4.0779465387
11
22.6288923125
21
-14.9540288303
31
4.0797405675
11
22.2793661724
21
-14.8477540585
31
4.0850057363
11
21.9573455397
21
-14.6753636419
31
4.0934661406
11
21.6751958428
21
-14.4435249301
31
4.1046873913
11
21.4437283984
21
-14.1611848030
31
4.1181102567
11
21.2717759075
21
-13.8391834197
31
4.1330933771
11
21.1659013339
21
-13.4898572743
31
4.1489559899
11
21.1301568824
21
-13.1265696266
31
4.1650199539
0
SPLINE
5
2E3
100
AcDbEntity
8
ASSI
100
AcDbSpline
62
9
6
CONTINUOUS
70
0
71
3
72
15
73
11
74
9
42
0.0000001000
43
0.0000001000
44
0.0000000001
12
-0.0194254030
22
-3.0812882609
32
-0.1343973009
13
-3.0315964035
23
0.0027374653
33
0.0001364386
40
0.0000000000
40
0.0000000000
40
0.0000000000
40
0.0000000000
40
0.1250000000
40
0.2500000000
40
0.3750000000
40
0.5000000000
40
0.6250000000
40
0.7500000000
40
0.8750000000
40
1.0000000000
40
1.0000000000
40
1.0000000000
40
1.0000000000
10
24.8569719983
20
-13.1283580071
30
4.1649419550
10
24.8561626065
20
-13.2567450180
30
4.1593420675
10
24.8287563325
20
-13.4980640275
30
4.1486575851
10
24.7222724777
20
-13.8475251644
30
4.1327747860
10
24.5477545398
20
-14.1747830566
30
4.1175225397
10
24.3131385901
20
-14.4584266913
30
4.1040087175
10
24.0289004824
20
-14.6909274879
30
4.0927291632
10
23.7024532086
20
-14.8621087860
30
4.0843068455
10
23.3559945659
20
-14.9649265737
30
4.0792008181
10
23.1182843183
20
-14.9901809867
30
4.0779408713
10
22.9919678015
20
-14.9900669256
30
4.0779465563
11
24.8569719983
21
-13.1283580071
31
4.1649419550
11
24.8178605919
21
-13.4959777980
31
4.1486815725
11
24.7109334638
21
-13.8438246236
31
4.1328798782
11
24.5377382045
21
-14.1675140137
31
4.1178122771
11
24.3048682304
21
-14.4499028849
31
4.1043810955
11
24.0218656214
21
-14.6807075715
31
4.0932053693
11
23.6991179805
21
-14.8507148676
31
4.0848595605
11
23.3543101111
21
-14.9541038790
31
4.0797368360
11
22.9919678015
21
-14.9900669256
31
4.0779465563
0
SPLINE
5
2E4
100
AcDbEntity
8
ASSI
100
AcDbSpline
62
9
6
CONTINUOUS
70
0
71
3
72
13
73
9
74
7
42
0.0000001000
43
0.0000001000
44
0.0000000001
12
1.7350065473
22
-1.0391271958
32
-0.0396819860
13
-0.0348946477
23
-2.0236376027
33
-0.0882654944
40
0.0000000000
40
0.0000000000
40
0.0000000000
40
0.0000000000
40
0.1666666667
40
0.3333333333
40
0.5000000000
40
0.6666666667
40
0.8333333333
40
1.0000000000
40
1.0000000000
40
1.0000000000
40
1.0000000000
10
23.9543171320
20
-11.5030695982
30
4.2314198640
10
24.0507063846
20
-11.5607988868
30
4.2292153092
10
24.2246299413
20
-11.6879463507
30
4.2243273233
10
24.4489696576
20
-11.9195296446
30
4.2152618018
10
24.6319123811
20
-12.1898178354
30
4.2044524803
10
24.7647547700
20
-12.4879802310
30
4.1922410149
10
24.8428672454
20
-12.8009338447
30
4.1790999102
10
24.8589105899
20
-13.0159336959
30
4.1698455936
10
24.8569719983
20
-13.1283580071
30
4.1649419550
11
23.9543171320
21
-11.5030695982
31
4.2314198640
11
24.2185390049
21
-11.6947567004
31
4.2240383995
11
24.4420701588
21
-11.9259804608
31
4.2149711685
11
24.6235623253
21
-12.1944635362
31
4.2042187897
11
24.7556331178
21
-12.4904454340
31
4.1920860750
11
24.8338593356
21
-12.8025248719
31
4.1789765152
11
24.8569719983
21
-13.1283580071
31
4.1649419550
0
SPLINE
5
2E5
100
AcDbEntity
8
ASSI
100
AcDbSpline
62
9
6
CONTINUOUS
70
0
71
3
72
13
73
9
74
7
42
0.0000001000
43
0.0000001000
44
0.0000000001
12
-0.0000716843
22
2.0555514659
32
0.0896452389
13
1.7892985117
23
1.0090878335
33
0.0385346500
40
0.0000000000
40
0.0000000000
40
0.0000000000
40
0.0000000000
40
0.1666666667
40
0.3333333333
40
0.5000000000
40
0.6666666667
40
0.8333333333
40
1.0000000000
40
1.0000000000
40
1.0000000000
40
1.0000000000
10
21.1301568824
20
-13.1265696266
30
4.1650199539
10
21.1301529000
20
-13.0123723229
30
4.1700002449
10
21.1504266798
20
-12.7946214822
30
4.1793694342
10
21.2359020433
20
-12.4793032742
30
4.1926011410
10
21.3763177111
20
-12.1814291003
30
4.2047915410
10
21.5668235777
20
-11.9128538728
30
4.2155253828
10
21.7994353892
20
-11.6836153825
30
4.2244946580
10
21.9790466591
20
-11.5590710618
30
4.2292813021
10
22.0784521320
20
-11.5030106266
30
4.2314221160
11
21.1301568824
21
-13.1265696266
31
4.1650199539
11
21.1596041288
21
-12.7965061577
31
4.1792324214
11
21.2450587607
21
-12.4822106132
31
4.1924275899
11
21.3846660776
21
-12.1863122581
31
4.2045487813
11
21.5738412352
21
-11.9194099957
31
4.2152312883
11
21.8055695714
21
-11.6906857174
31
4.2241964398
11
22.0784521320
21
-11.5030106266
31
4.2314221160
0
SPLINE
5
2E6
100
AcDbEntity
8
ASSI
100
AcDbSpline
62
9
6
CONTINUOUS
70
0
71
3
72
21
73
17
74
15
42
0.0000001000
43
0.0000001000
44
0.0000000001
12
0.0000000000
22
0.2552206008
32
0.0087769908
13
0.2550262984
23
0.0000094319
33
0.0000003196
40
0.0000000000
40
0.0000000000
40
0.0000000000
40
0.0000000000
40
0.0416666667
40
0.0833333333
40
0.1250000000
40
0.1666666667
40
0.2500000000
40
0.3333333333
40
0.5000000000
40
0.6666666667
40
0.7500000000
40
0.8333333333
40
0.8750000000
40
0.9166666667
40
0.9583333333
40
1.0000000000
40
1.0000000000
40
1.0000000000
40
1.0000000000
10
21.9336011319
20
-10.3655446266
30
4.2726991461
10
21.9336011319
20
-10.3619998961
30
4.2728210487
10
21.9338335422
20
-10.3554307318
30
4.2730468446
10
21.9348510785
20
-10.3453690507
30
4.2733923566
10
21.9365102996
20
-10.3356132899
30
4.2737270355
10
21.9395403951
20
-10.3228785865
30
4.2741635022
10
21.9448223156
20
-10.3075739577
30
4.2746873116
10
21.9561185407
20
-10.2847121514
30
4.2754684276
10
21.9762630985
20
-10.2582595619
30
4.2763698988
10
22.0027192517
20
-10.2381246760
30
4.2770541074
10
22.0255762632
20
-10.2268377219
30
4.2774371700
10
22.0408745705
20
-10.2215612244
30
4.2776161162
10
22.0536021638
20
-10.2185346011
30
4.2777187255
10
22.0633515662
20
-10.2168773699
30
4.2777748984
10
22.0734060495
20
-10.2158610223
30
4.2778093435
10
22.0799695556
20
-10.2156287576
30
4.2778172147
10
22.0835115875
20
-10.2156286266
30
4.2778172192
11
21.9336011319
21
-10.3655446266
31
4.2726991461
11
21.9339450290
21
-10.3553960760
31
4.2730479810
11
21.9349580260
21
-10.3454200375
31
4.2733905511
11
21.9366125247
21
-10.3356474121
31
4.2737258140
11
21.9388824913
21
-10.3261031790
31
4.2740529339
11
21.9451779597
21
-10.3077771577
31
4.2746801892
11
21.9536961029
21
-10.2905692475
31
4.2752681537
11
21.9775254176
21
-10.2595231026
31
4.2763264463
11
22.0085745120
21
-10.2357046837
31
4.2771361811
11
22.0257787982
21
-10.2271932916
31
4.2774250764
11
22.0440972145
21
-10.2209041165
31
4.2776383895
11
22.0536361151
21
-10.2186367238
31
4.2777152615
11
22.0634024130
21
-10.2169841838
31
4.2777712771
11
22.0733711788
21
-10.2159723474
31
4.2778055705
11
22.0835115875
21
-10.2156286266
31
4.2778172192
0
SPLINE
5
2E7
100
AcDbEntity
8
ASSI
100
AcDbSpline
62
9
6
CONTINUOUS
70
0
71
3
72
13
73
9
74
7
42
0.0000001000
43
0.0000001000
44
0.0000000001
12
0.0012782213
22
2.1191160418
32
0.0924173434
13
1.7980346553
23
1.1189385940
33
0.0424209327
40
0.0000000000
40
0.0000000000
40
0.0000000000
40
0.0000000000
40
0.1666666667
40
0.3333333333
40
0.5000000000
40
0.6666666667
40
0.8333333333
40
1.0000000000
40
1.0000000000
40
1.0000000000
40
1.0000000000
10
20.9851346430
20
-13.1265706263
30
4.1650199103
10
20.9852056553
20
-13.0088419573
30
4.1701542071
10
21.0053685942
20
-12.7835495969
30
4.1798440285
10
21.0904246727
20
-12.4563918978
30
4.1935541666
10
21.2301719371
20
-12.1458763798
30
4.2062319641
10
21.4201723817
20
-11.8633400730
30
4.2174841206
10
21.6531036817
20
-11.6185244099
30
4.2270164416
10
21.8337123178
20
-11.4825718818
30
4.2322083775
10
21.9336031320
20
-11.4204086266
30
4.2345650960
11
20.9851346430
21
-13.1265706263
31
4.1650199103
11
21.0145038726
21
-12.7853464038
31
4.1797065962
11
21.0995398704
21
-12.4591655946
31
4.1933821098
11
21.2385474672
21
-12.1505395817
31
4.2059943572
11
21.4273275243
21
-11.8696268470
31
4.2171974814
11
21.6594339574
21
-11.6253388884
31
4.2267257054
11
21.9336031320
21
-11.4204086266
31
4.2345650960
0
SPLINE
5
2E8
100
AcDbEntity
8
ASSI
100
AcDbSpline
62
9
6
CONTINUOUS
70
0
71
3
72
14
73
10
74
8
42
0.0000001000
43
0.0000001000
44
0.0000000001
12
-3.2152365427
22
-0.0002865688
32
-0.0000144218
13
0.0000127117
23
3.1911807457
33
0.1391714474
40
0.0000000000
40
0.0000000000
40
0.0000000000
40
0.0000000000
40
0.1428571429
40
0.2857142857
40
0.4285714286
40
0.5714285714
40
0.7142857143
40
0.8571428571
40
1.0000000000
40
1.0000000000
40
1.0000000000
40
1.0000000000
10
22.9936541321
20
-15.1349186226
30
4.0706918796
10
22.8405476300
20
-15.1349322688
30
4.0706911929
10
22.5430629450
20
-15.1009267584
30
4.0724054452
10
22.1129490608
20
-14.9506136904
30
4.0799313744
10
21.7291416621
20
-14.7086874720
30
4.0918828481
10
21.4085723362
20
-14.3874765825
30
4.1074432526
10
21.1674269112
20
-14.0027909400
30
4.1256180637
10
21.0186934933
20
-13.5742404388
30
4.1452684319
10
20.9851340377
20
-13.2785316142
30
4.1583926985
10
20.9851346430
20
-13.1265706263
30
4.1650199103
11
22.9936541321
21
-15.1349186226
31
4.0706918796
11
22.5457484689
21
-15.0843759580
31
4.0732312037
11
22.1206668084
21
-14.9353448320
31
4.0806689651
11
21.7396813409
21
-14.6954733602
31
4.0924843366
11
21.4218096530
21
-14.3768974570
31
4.1078789870
11
21.1828289124
21
-13.9954801302
31
4.1258639899
11
21.0350925324
21
-13.5717383162
31
4.1452744372
11
20.9851346430
21
-13.1265706263
31
4.1650199103
0
SPLINE
5
2E9
100
AcDbEntity
8
ASSI
100
AcDbSpline
62
9
6
CONTINUOUS
70
0
71
3
72
14
73
10
74
8
42
0.0000001000
43
0.0000001000
44
0.0000000001
12
0.0000704077
22
-3.2136373614
32
-0.1401508090
13
-3.1922532711
23
0.0000715287
33
0.0000035997
40
0.0000000000
40
0.0000000000
40
0.0000000000
40
0.0000000000
40
0.1428571429
40
0.2857142857
40
0.4285714286
40
0.5714285714
40
0.7142857143
40
0.8571428571
40
1.0000000000
40
1.0000000000
40
1.0000000000
40
1.0000000000
10
25.0020026320
20
-13.1265701266
30
4.1650199321
10
25.0020059848
20
-13.2796004772
30
4.1583460840
10
24.9680111905
20
-13.5769434318
30
4.1451474937
10
24.8178289223
20
-14.0068208528
30
4.1254304950
10
24.5760792800
20
-14.3905408127
30
4.1072962531
10
24.2549593318
20
-14.7111901591
30
4.0917603518
10
23.8702110713
20
-14.9524958637
30
4.0798375501
10
23.4414735398
20
-15.1013486948
30
4.0723841152
10
23.1456661926
20
-15.1349220288
30
4.0706917082
10
22.9936541321
20
-15.1349186226
30
4.0706918796
11
25.0020026320
21
-13.1265701266
31
4.1650199321
11
24.9514795110
21
-13.5742539300
31
4.1451609748
11
24.8025676933
21
-13.9991279426
31
4.1256942878
11
24.5628508956
21
-14.3800290438
31
4.1077293099
11
24.2443546130
21
-14.6979662188
31
4.0923625351
11
23.8628795261
21
-14.9370870514
31
4.0805824446
11
23.4389779582
21
-15.0849332231
31
4.0732032526
11
22.9936541321
21
-15.1349186226
31
4.0706918796
0
SPLINE
5
2EA
100
AcDbEntity
8
ASSI
100
AcDbSpline
62
9
6
CONTINUOUS
70
0
71
3
72
13
73
9
74
7
42
0.0000001000
43
0.0000001000
44
0.0000000001
12
1.7213703873
22
-1.1649980361
32
-0.0441817296
13
-0.0012302275
23
-2.0799219115
33
-0.0907080306
40
0.0000000000
40
0.0000000000
40
0.0000000000
40
0.0000000000
40
0.1666666667
40
0.3333333333
40
0.5000000000
40
0.6666666667
40
0.8333333333
40
1.0000000000
40
1.0000000000
40
1.0000000000
40
1.0000000000
10
24.0991671320
20
-11.4241620383
30
4.2344227740
10
24.1947988202
20
-11.4888841514
30
4.2319682335
10
24.3677761036
20
-11.6287758109
30
4.2266219410
10
24.5899978022
20
-11.8763273295
30
4.2169726145
10
24.7705370070
20
-12.1585152723
30
4.2057213622
10
24.9029304816
20
-12.4662801281
30
4.1931436131
10
24.9832737874
20
-12.7892115103
30
4.1796018497
10
25.0020709780
20
-13.0110189093
30
4.1700592671
10
25.0020026320
20
-13.1265701266
30
4.1650199321
11
24.0991671320
21
-11.4241620383
31
4.2344227740
11
24.3615687325
21
-11.6350614824
31
4.2263502930
11
24.5830507199
21
-11.8821000669
31
4.2167056268
11
24.7625127186
21
-12.1627780911
31
4.2055002794
11
24.8942554535
21
-12.4688078825
31
4.1929829441
11
24.9745825341
21
-12.7908414630
31
4.1794731647
11
25.0020026320
21
-13.1265701266
31
4.1650199321
0
SPLINE
5
2EB
100
AcDbEntity
8
ASSI
100
AcDbSpline
62
9
6
CONTINUOUS
70
0
71
3
72
21
73
17
74
15
42
0.0000001000
43
0.0000001000
44
0.0000000001
12
0.2552849486
22
0.0000094415
32
0.0000003200
13
-0.0000147195
23
-0.2554326811
33
-0.0087843385
40
0.0000000000
40
0.0000000000
40
0.0000000000
40
0.0000000000
40
0.0416666667
40
0.0833333333
40
0.1250000000
40
0.1666666667
40
0.2500000000
40
0.3333333333
40
0.5000000000
40
0.6666666667
40
0.7500000000
40
0.8333333333
40
0.8750000000
40
0.9166666667
40
0.9583333333
40
1.0000000000
40
1.0000000000
40
1.0000000000
40
1.0000000000
10
23.9491825829
20
-10.2155596265
30
4.2778195575
10
23.9527282072
20
-10.2155594954
30
4.2778195620
10
23.9592983335
20
-10.2157915519
30
4.2778116979
10
23.9693629401
20
-10.2168083554
30
4.2777772375
10
23.9791220840
20
-10.2184667979
30
4.2777210239
10
23.9918622849
20
-10.2214959626
30
4.2776183292
10
24.0071755019
20
-10.2267772835
30
4.2774392206
10
24.0300542029
20
-10.2380748872
30
4.2770557987
10
24.0565344525
20
-10.2582289537
30
4.2763709413
10
24.0766960129
20
-10.2847062886
30
4.2754686283
10
24.0880008112
20
-10.3075884715
30
4.2746868156
10
24.0932863693
20
-10.3229064111
30
4.2741625495
10
24.0963182797
20
-10.3356519803
30
4.2737257089
10
24.0979783200
20
-10.3454159632
30
4.2733907466
10
24.0989961152
20
-10.3554860539
30
4.2730449441
10
24.0992283364
20
-10.3620605967
30
4.2728189620
10
24.0992281320
20
-10.3656082728
30
4.2726969573
11
23.9491825829
21
-10.2155596265
31
4.2778195575
11
23.9593332364
21
-10.2159030050
31
4.2778079205
11
23.9693120297
21
-10.2169152952
31
4.2777736120
11
23.9790880851
21
-10.2185690364
31
4.2777175560
11
23.9886364324
21
-10.2208383291
31
4.2776406202
11
24.0069726961
21
-10.2271332198
31
4.2774271146
11
24.0241933192
21
-10.2356526237
31
4.2771379488
11
24.0552707147
21
-10.2594936074
31
4.2763274502
11
24.0791201750
21
-10.2905685272
31
4.2752681783
11
24.0876448230
21
-10.3077917866
31
4.2746796889
11
24.0939446356
21
-10.3261337382
31
4.2740518870
11
24.0962159643
21
-10.3356861146
31
4.2737244869
11
24.0978712792
21
-10.3454669811
31
4.2733889399
11
24.0988845380
21
-10.3554513411
31
4.2730460823
11
24.0992281320
21
-10.3656082728
31
4.2726969573
0
SPLINE
5
2EC
100
AcDbEntity
8
ASSI
100
AcDbSpline
62
9
6
CONTINUOUS
70
0
71
3
72
8
73
4
74
2
42
0.0000001000
43
0.0000001000
44
0.0000000001
12
0.4942293063
22
-0.4942293063
32
-0.0243583771
13
0.4941884704
23
-0.4941884704
33
-0.0251732690
40
0.0000000000
40
0.0000000000
40
0.0000000000
40
0.0000000000
40
1.0000000000
40
1.0000000000
40
1.0000000000
40
1.0000000000
10
24.9510311320
20
-14.8239276266
30
4.0861809851
10
25.1157742341
20
-14.9886707287
30
4.0780615260
10
25.2805106422
20
-15.1534071368
30
4.0698062461
10
25.4452401323
20
-15.3181366269
30
4.0614151564
11
24.9510311320
21
-14.8239276266
31
4.0861809851
11
25.4452401323
21
-15.3181366269
31
4.0614151564
0
SPLINE
5
2ED
100
AcDbEntity
8
ASSI
100
AcDbSpline
62
9
6
CONTINUOUS
70
0
71
3
72
33
73
29
74
27
42
0.0000001000
43
0.0000001000
44
0.0000000001
12
-0.5689019036
22
0.0000000000
32
0.0000000000
13
0.5467301111
23
0.0000000000
33
0.0000000000
40
0.0000000000
40
0.0000000000
40
0.0000000000
40
0.0000000000
40
0.0156250000
40
0.0312500000
40
0.0468750000
40
0.0625000000
40
0.0937500000
40
0.1250000000
40
0.1562500000
40
0.1875000000
40
0.2500000000
40
0.3125000000
40
0.3750000000
40
0.4375000000
40
0.5000000000
40
0.5625000000
40
0.6250000000
40
0.6875000000
40
0.7500000000
40
0.8125000000
40
0.8437500000
40
0.8750000000
40
0.9062500000
40
0.9375000000
40
0.9531250000
40
0.9687500000
40
0.9843750000
40
1.0000000000
40
1.0000000000
40
1.0000000000
40
1.0000000000
10
25.6053841320
20
-13.2445266266
30
4.1598524510
10
25.6024211013
20
-13.2445266266
30
4.1598524510
10
25.5972699907
20
-13.2443754726
30
4.1598591027
10
25.5890589845
20
-13.2437106387
30
4.1598883582
10
25.5811504006
20
-13.2426251030
30
4.1599361233
10
25.5707688968
20
-13.2406417055
30
4.1600233869
10
25.5582727981
20
-13.2372065806
30
4.1601744963
10
25.5441230063
20
-13.2317100329
30
4.1604161973
10
25.5309050242
20
-13.2249914655
30
4.1607114969
10
25.5145442849
20
-13.2145392061
30
4.1611706449
10
25.4966888747
20
-13.1991407814
30
4.1618464664
10
25.4785969936
20
-13.1764161458
30
4.1628422793
10
25.4647324070
20
-13.1494005979
30
4.1640238529
10
25.4566970491
20
-13.1201359489
30
4.1653009377
10
25.4546505495
20
-13.0916938487
30
4.1665393349
10
25.4577768019
20
-13.0636139191
30
4.1677593609
10
25.4666878856
20
-13.0351827491
30
4.1689919243
10
25.4810812484
20
-13.0091827684
30
4.1701166392
10
25.4993956004
20
-12.9874235462
30
4.1710561521
10
25.5171745946
20
-12.9728030788
30
4.1716864793
10
25.5332727230
20
-12.9629551289
30
4.1721106883
10
25.5461934839
20
-12.9566555226
30
4.1723819033
10
25.5599461044
20
-12.9515250338
30
4.1726026865
10
25.5720349947
20
-12.9483309831
30
4.1727400895
10
25.5820519452
20
-12.9464903916
30
4.1728192560
10
25.5896732668
20
-12.9454842089
30
4.1728625293
10
25.5975759130
20
-12.9448685216
30
4.1728890067
10
25.6025365794
20
-12.9447286266
30
4.1728950227
10
25.6053841320
20
-12.9447286266
30
4.1728950227
11
25.6053841320
21
-13.2445266266
31
4.1598524510
11
25.5971892673
21
-13.2443024555
31
4.1598623157
11
25.5891093882
21
-13.2436405217
31
4.1598914432
11
25.5811708099
21
-13.2425581009
31
4.1599390704
11
25.5733963248
21
-13.2410738297
31
4.1600043730
11
25.5584137192
21
-13.2369775143
31
4.1601845580
11
25.5442783079
21
-13.2315063630
31
4.1604251304
11
25.5310629288
21
-13.2248046943
31
4.1607196738
11
25.5188075040
21
-13.2169967309
31
4.1610626503
11
25.4972446432
21
-13.1984330271
31
4.1618772709
11
25.4793015427
21
-13.1757009938
31
4.1628732394
11
25.4657039451
21
-13.1490257477
31
4.1640397714
11
25.4576951922
21
-13.1202730404
31
4.1652944898
11
25.4555126748
21
-13.0917542105
31
4.1665362730
11
25.4587409405
21
-13.0635553790
31
4.1677614505
11
25.4676015988
21
-13.0355879473
31
4.1689739495
11
25.4817347466
21
-13.0098895615
31
4.1700857722
11
25.4998990072
21
-12.9881259898
31
4.1710256321
11
25.5213553711
21
-12.9704951267
31
4.1717858605
11
25.5334139171
21
-12.9631361882
31
4.1721028647
11
25.5463321272
21
-12.9568503755
31
4.1723734980
11
25.5600717790
21
-12.9517413051
31
4.1725933699
11
25.5745680522
21
-12.9479303893
31
4.1727573181
11
25.5820700466
21
-12.9465527684
31
4.1728165724
11
25.5897201542
21
-12.9455492915
31
4.1728597300
11
25.5974989719
21
-12.9449361624
31
4.1728860978
11
25.6053841320
21
-12.9447286266
31
4.1728950227
0
SPLINE
5
2EE
100
AcDbEntity
8
ASSI
100
AcDbSpline
62
9
6
CONTINUOUS
70
0
71
3
72
8
73
4
74
2
42
0.0000001000
43
0.0000001000
44
0.0000000001
12
-0.4941873205
22
0.4941873205
32
0.0253543402
13
-0.4942284556
23
0.4942284556
33
0.0245394366
40
0.0000000000
40
0.0000000000
40
0.0000000000
40
0.0000000000
40
1.0000000000
40
1.0000000000
40
1.0000000000
40
1.0000000000
10
25.3356751320
20
-15.4276996266
30
4.0558140922
10
25.1709460252
20
-15.2629705198
30
4.0642655389
10
25.0062099505
20
-15.0982344451
30
4.0725811740
10
24.8414671320
20
-14.9334916266
30
4.0807609863
11
25.3356751320
21
-15.4276996266
31
4.0558140922
11
24.8414671320
21
-14.9334916266
31
4.0807609863
0
SPLINE
5
2EF
100
AcDbEntity
8
ASSI
100
AcDbSpline
62
9
6
CONTINUOUS
70
0
71
3
72
8
73
4
74
2
42
0.0000001000
43
0.0000001000
44
0.0000000001
12
0.4941893373
22
0.4940153446
32
0.0253336640
13
0.4942304389
23
0.4940564317
33
0.0245193285
40
0.0000000000
40
0.0000000000
40
0.0000000000
40
0.0000000000
40
1.0000000000
40
1.0000000000
40
1.0000000000
40
1.0000000000
10
20.6766991320
20
-15.4205276266
30
4.0561819665
10
20.8414289111
20
-15.2558558451
30
4.0646265211
10
21.0061656524
20
-15.0911771039
30
4.0729353589
10
21.1709091320
20
-14.9264916266
30
4.0811084684
11
20.6766991320
21
-15.4205276266
31
4.0561819665
11
21.1709091320
21
-14.9264916266
31
4.0811084684
0
SPLINE
5
2F0
100
AcDbEntity
8
0
100
AcDbSpline
62
0
6
CONTINUOUS
70
0
71
3
72
15
73
11
74
9
42
0.0000001000
43
0.0000001000
44
0.0000000001
12
-1.2544455271
22
0.0000000000
32
0.0000000000
13
0.0000000000
23
1.2544455271
33
0.0000000000
40
0.0000000000
40
0.0000000000
40
0.0000000000
40
0.0000000000
40
0.1249999808
40
0.2499998108
40
0.3750000468
40
0.5000001769
40
0.6250002546
40
0.7500003661
40
0.8750000750
40
1.0000000000
40
1.0000000000
40
1.0000000000
40
1.0000000000
10
12.7021982881
20
-21.9012566266
30
0.0000000000
10
12.6499297325
20
-21.9012566266
30
0.0000000000
10
12.5451030497
20
-21.8909471934
30
0.0000000000
10
12.3941289643
20
-21.8451431700
30
0.0000000000
10
12.2549305440
20
-21.7707552360
30
0.0000000000
10
12.1329381924
20
-21.6706382798
30
0.0000000000
10
12.0328213331
20
-21.5486459177
30
0.0000000000
10
11.9584335117
20
-21.4094475818
30
0.0000000000
10
11.9126295533
20
-21.2584736113
30
0.0000000000
10
11.9023201320
20
-21.1536470027
30
0.0000000000
10
11.9023201320
20
-21.1013784705
30
0.0000000000
11
12.7021982881
21
-21.9012566266
31
0.0000000000
11
12.5461473330
21
-21.8858905422
31
0.0000000000
11
12.3960917418
21
-21.8403792542
31
0.0000000000
11
12.2577982014
21
-21.7664670480
31
0.0000000000
11
12.1365840854
21
-21.6669923579
31
0.0000000000
11
12.0371094996
21
-21.5457782414
31
0.0000000000
11
11.9631974191
21
-21.4074848108
31
0.0000000000
11
11.9176862027
21
-21.2574293566
31
0.0000000000
11
11.9023201320
21
-21.1013784705
31
0.0000000000
0
SPLINE
5
2F1
100
AcDbEntity
8
0
100
AcDbSpline
62
0
6
CONTINUOUS
70
0
71
3
72
15
73
11
74
9
42
0.0000001000
43
0.0000001000
44
0.0000000001
12
0.0000000000
22
1.2544455271
32
0.0000000000
13
1.2544455271
23
0.0000000000
33
0.0000000000
40
0.0000000000
40
0.0000000000
40
0.0000000000
40
0.0000000000
40
0.1249999808
40
0.2499998108
40
0.3750000468
40
0.5000001769
40
0.6250002546
40
0.7500003661
40
0.8750000750
40
1.0000000000
40
1.0000000000
40
1.0000000000
40
1.0000000000
10
11.9023201320
20
20.9988652173
30
0.0000000000
10
11.9023201320
20
21.0511337729
30
0.0000000000
10
11.9126295652
20
21.1559604557
30
0.0000000000
10
11.9584335887
20
21.3069345411
30
0.0000000000
10
12.0328215226
20
21.4461329614
30
0.0000000000
10
12.1329384788
20
21.5681253130
30
0.0000000000
10
12.2549308410
20
21.6682421723
30
0.0000000000
10
12.3941291769
20
21.7426299937
30
0.0000000000
10
12.5451031474
20
21.7884339521
30
0.0000000000
10
12.6499297559
20
21.7987433734
30
0.0000000000
10
12.7021982881
20
21.7987433734
30
0.0000000000
11
11.9023201320
21
20.9988652173
31
0.0000000000
11
11.9176862164
21
21.1549161723
31
0.0000000000
11
11.9631975044
21
21.3049717636
31
0.0000000000
11
12.0371097107
21
21.4432653040
31
0.0000000000
11
12.1365844008
21
21.5644794199
31
0.0000000000
11
12.2577985173
21
21.6639540058
31
0.0000000000
11
12.3960919478
21
21.7378660863
31
0.0000000000
11
12.5461474021
21
21.7833773027
31
0.0000000000
11
12.7021982881
21
21.7987433734
31
0.0000000000
0
SPLINE
5
2F2
100
AcDbEntity
8
0
100
AcDbSpline
62
0
6
CONTINUOUS
70
0
71
3
72
15
73
11
74
9
42
0.0000001000
43
0.0000001000
44
0.0000000001
12
0.0000000000
22
-1.2544455271
32
0.0000000000
13
-1.2544455271
23
-0.0000000000
33
0.0000000000
40
0.0000000000
40
0.0000000000
40
0.0000000000
40
0.0000000000
40
0.1249999808
40
0.2499998108
40
0.3750000468
40
0.5000001769
40
0.6250002546
40
0.7500003661
40
0.8750000750
40
1.0000000000
40
1.0000000000
40
1.0000000000
40
1.0000000000
10
34.1023201320
20
-21.1013784705
30
0.0000000000
10
34.1023201320
20
-21.1536470261
30
0.0000000000
10
34.0920106988
20
-21.2584737089
30
0.0000000000
10
34.0462066754
20
-21.4094477943
30
0.0000000000
10
33.9718187414
20
-21.5486462146
30
0.0000000000
10
33.8717017852
20
-21.6706385662
30
0.0000000000
10
33.7497094231
20
-21.7707554256
30
0.0000000000
10
33.6105110872
20
-21.8451432470
30
0.0000000000
10
33.4595371167
20
-21.8909472053
30
0.0000000000
10
33.3547105081
20
-21.9012566266
30
0.0000000000
10
33.3024419759
20
-21.9012566266
30
0.0000000000
11
34.1023201320
21
-21.1013784705
31
0.0000000000
11
34.0869540476
21
-21.2574294256
31
0.0000000000
11
34.0414427596
21
-21.4074850168
31
0.0000000000
11
33.9675305534
21
-21.5457785573
31
0.0000000000
11
33.8680558633
21
-21.6669926732
31
0.0000000000
11
33.7468417468
21
-21.7664672590
31
0.0000000000
11
33.6085483162
21
-21.8403793396
31
0.0000000000
11
33.4584928620
21
-21.8858905559
31
0.0000000000
11
33.3024419759
21
-21.9012566266
31
0.0000000000
0
SPLINE
5
2F3
100
AcDbEntity
8
0
100
AcDbSpline
62
0
6
CONTINUOUS
70
0
71
3
72
15
73
11
74
9
42
0.0000001000
43
0.0000001000
44
0.0000000001
12
1.2544455271
22
0.0000000000
32
0.0000000000
13
0.0000000000
23
-1.2544455271
33
0.0000000000
40
0.0000000000
40
0.0000000000
40
0.0000000000
40
0.0000000000
40
0.1249999808
40
0.2499998108
40
0.3750000468
40
0.5000001769
40
0.6250002546
40
0.7500003661
40
0.8750000750
40
1.0000000000
40
1.0000000000
40
1.0000000000
40
1.0000000000
10
33.3024419759
20
21.7987433734
30
0.0000000000
10
33.3547105315
20
21.7987433734
30
0.0000000000
10
33.4595372143
20
21.7884339402
30
0.0000000000
10
33.6105112997
20
21.7426299167
30
0.0000000000
10
33.7497097200
20
21.6682419828
30
0.0000000000
10
33.8717020716
20
21.5681250266
30
0.0000000000
10
33.9718189310
20
21.4461326644
30
0.0000000000
10
34.0462067524
20
21.3069343285
30
0.0000000000
10
34.0920107107
20
21.1559603580
30
0.0000000000
10
34.1023201320
20
21.0511337495
30
0.0000000000
10
34.1023201320
20
20.9988652173
30
0.0000000000
11
33.3024419759
21
21.7987433734
31
0.0000000000
11
33.4584929310
21
21.7833772890
31
0.0000000000
11
33.6085485222
21
21.7378660010
31
0.0000000000
11
33.7468420627
21
21.6639537947
31
0.0000000000
11
33.8680561786
21
21.5644791046
31
0.0000000000
11
33.9675307644
21
21.4432649881
31
0.0000000000
11
34.0414428450
21
21.3049715576
31
0.0000000000
11
34.0869540613
21
21.1549161033
31
0.0000000000
11
34.1023201320
21
20.9988652173
31
0.0000000000
0
SPLINE
5
2F4
100
AcDbEntity
8
0
100
AcDbSpline
62
0
6
CONTINUOUS
70
0
71
3
72
9
73
5
74
3
42
0.0000001000
43
0.0000001000
44
0.0000000001
12
-0.1752678795
22
-0.0000000000
32
0.0000000000
13
-0.1218639015
23
-0.1282234995
33
0.0000000000
40
0.0000000000
40
0.0000000000
40
0.0000000000
40
0.0000000000
40
0.6455077779
40
1.0000000000
40
1.0000000000
40
1.0000000000
40
1.0000000000
10
29.0762648831
20
-11.0477146449
30
0.0000000000
10
29.0385526233
20
-11.0477146449
30
0.0000000000
10
28.9788304595
20
-11.0622685485
30
0.0000000000
10
28.9315582255
20
-11.0988365414
30
0.0000000000
10
28.9171582904
20
-11.1139879525
30
0.0000000000
11
29.0762648831
21
-11.0477146449
31
0.0000000000
11
28.9666380212
21
-11.0756767980
31
0.0000000000
11
28.9171582904
21
-11.1139879525
31
0.0000000000
0
SPLINE
5
2F5
100
AcDbEntity
8
0
100
AcDbSpline
62
0
6
CONTINUOUS
70
0
71
3
72
9
73
5
74
3
42
0.0000001000
43
0.0000001000
44
0.0000000001
12
0.0930702005
22
-0.0949171752
32
0.0000000000
13
0.1310946888
23
-0.0233299967
33
0.0000000000
40
0.0000000000
40
0.0000000000
40
0.0000000000
40
0.0000000000
40
0.4546227237
40
1.0000000000
40
1.0000000000
40
1.0000000000
40
1.0000000000
10
28.9193475609
20
-14.9907986530
30
0.0000000000
10
28.9334515036
20
-15.0051824879
30
0.0000000000
10
28.9692113055
20
-15.0322855973
30
0.0000000000
10
29.0119342219
20
-15.0469395477
30
0.0000000000
10
29.0357662434
20
-15.0511807644
30
0.0000000000
11
28.9193475609
21
-14.9907986530
31
0.0000000000
11
28.9674050898
21
-15.0272528519
31
0.0000000000
11
29.0357662434
21
-15.0511807644
31
0.0000000000
0
SPLINE
5
2F6
100
AcDbEntity
8
0
100
AcDbSpline
62
0
6
CONTINUOUS
70
0
71
3
72
8
73
4
74
2
42
0.0000001000
43
0.0000001000
44
0.0000000001
12
0.0402781617
22
-0.0071680202
32
0.0000000000
13
0.0404654623
23
-0.0000000000
33
0.0000000000
40
0.0000000000
40
0.0000000000
40
0.0000000000
40
0.0000000000
40
1.0000000000
40
1.0000000000
40
1.0000000000
40
1.0000000000
10
29.0357662434
20
-15.0511807644
30
0.0000000000
10
29.0491922973
20
-15.0535701044
30
0.0000000000
10
29.0627871682
20
-15.0547690551
30
0.0000000000
10
29.0762756556
20
-15.0547690551
30
0.0000000000
11
29.0357662434
21
-15.0511807644
31
0.0000000000
11
29.0762756556
21
-15.0547690551
31
0.0000000000
0
SPLINE
5
2F7
100
AcDbEntity
8
0
100
AcDbSpline
62
0
6
CONTINUOUS
70
0
71
3
72
8
73
4
74
2
42
0.0000001000
43
0.0000001000
44
0.0000000001
12
0.0782619225
22
0.0000000000
32
0.0000000000
13
0.0746858741
23
0.0267525005
33
0.0000000000
40
0.0000000000
40
0.0000000000
40
0.0000000000
40
0.0000000000
40
1.0000000000
40
1.0000000000
40
1.0000000000
40
1.0000000000
10
16.9283753809
20
-15.0547986083
30
0.0000000000
10
16.9544626884
20
-15.0547986083
30
0.0000000000
10
16.9809514017
20
-15.0503031459
30
0.0000000000
10
17.0058466931
20
-15.0413856457
30
0.0000000000
11
16.9283753809
21
-15.0547986083
31
0.0000000000
11
17.0058466931
21
-15.0413856457
31
0.0000000000
0
SPLINE
5
2F8
100
AcDbEntity
8
0
100
AcDbSpline
62
0
6
CONTINUOUS
70
0
71
3
72
9
73
5
74
3
42
0.0000001000
43
0.0000001000
44
0.0000000001
12
0.0896225313
22
0.0321028151
32
0.0000000000
13
0.0663535968
23
0.0677117446
33
0.0000000000
40
0.0000000000
40
0.0000000000
40
0.0000000000
40
0.0000000000
40
0.3713497915
40
1.0000000000
40
1.0000000000
40
1.0000000000
40
1.0000000000
10
17.0058466931
20
-15.0413856457
30
0.0000000000
10
17.0169404625
20
-15.0374118545
30
0.0000000000
10
17.0459625771
20
-15.0243462866
30
0.0000000000
10
17.0714101470
20
-15.0049601733
30
0.0000000000
10
17.0853145479
20
-14.9907711725
30
0.0000000000
11
17.0058466931
21
-15.0413856457
31
0.0000000000
11
17.0380022428
21
-15.0268364552
31
0.0000000000
11
17.0853145479
21
-14.9907711725
31
0.0000000000
0
SPLINE
5
2F9
100
AcDbEntity
8
0
100
AcDbSpline
62
0
6
CONTINUOUS
70
0
71
3
72
9
73
5
74
3
42
0.0000001000
43
0.0000001000
44
0.0000000001
12
-0.1218806863
22
0.1281605647
32
0.0000000000
13
-0.1752572171
23
0.0000000000
33
0.0000000000
40
0.0000000000
40
0.0000000000
40
0.0000000000
40
0.0000000000
40
0.3592617879
40
1.0000000000
40
1.0000000000
40
1.0000000000
40
1.0000000000
10
17.0874572095
20
-11.1139560566
30
0.0000000000
10
17.0728615184
20
-11.0986083254
30
0.0000000000
10
17.0254936210
20
-11.0621542234
30
0.0000000000
10
16.9657959404
20
-11.0477441981
30
0.0000000000
10
16.9283646084
20
-11.0477441981
30
0.0000000000
11
17.0874572095
21
-11.1139560566
31
0.0000000000
11
17.0372351742
21
-11.0752604014
31
0.0000000000
11
16.9283646084
21
-11.0477441981
31
0.0000000000
0
SPLINE
5
2FA
100
AcDbEntity
8
0
100
AcDbSpline
62
9
6
CONTINUOUS
70
0
71
3
72
11
73
7
74
5
42
0.0000001000
43
0.0000001000
44
0.0000000001
12
-0.1999128601
22
0.7789937706
32
0.0000000000
13
-0.8042359999
23
0.0009501350
33
0.0000000000
40
0.0000000000
40
0.0000000000
40
0.0000000000
40
0.0000000000
40
0.0845721315
40
0.3023924119
40
0.6232973344
40
1.0000000000
40
1.0000000000
40
1.0000000000
40
1.0000000000
10
33.9901769062
20
20.2462933423
30
0.0000000000
10
33.9845412206
20
20.2682537302
30
0.0000000000
10
33.8724817837
20
20.2629149862
30
0.0000000000
10
33.7332160154
20
20.2935285803
30
0.0000000000
10
33.4745096331
20
20.2956012008
30
0.0000000000
10
33.2912846984
20
20.3004455574
30
0.0000000000
10
33.1902987501
20
20.3005648635
30
0.0000000000
11
33.9901769062
21
20.2462933423
31
0.0000000000
11
33.9253407152
21
20.2668467999
31
0.0000000000
11
33.7510372267
21
20.2843393007
31
0.0000000000
11
33.4932248659
21
20.2961657460
31
0.0000000000
11
33.1902987501
21
20.3005648635
31
0.0000000000
0
SPLINE
5
2FB
100
AcDbEntity
8
0
100
AcDbSpline
62
9
6
CONTINUOUS
70
0
71
3
72
10
73
6
74
4
42
0.0000001000
43
0.0000001000
44
0.0000000001
12
-0.0481810599
22
-40.5950798001
32
0.0000000000
13
0.0481810144
23
-40.5950798001
33
0.0000000000
40
0.0000000000
40
0.0000000000
40
0.0000000000
40
0.0000000000
40
0.3332187590
40
0.6667828362
40
1.0000000000
40
1.0000000000
40
1.0000000000
40
1.0000000000
10
33.9901769062
20
20.2462933423
30
0.0000000000
10
33.9848252952
20
15.7372793054
30
0.0000000000
10
33.9776994489
20
6.7145738187
30
0.0000000000
10
33.9776994680
20
-6.8171302418
30
0.0000000000
10
33.9848253259
20
-15.8398141436
30
0.0000000000
10
33.9901769062
20
-20.3488065955
30
0.0000000000
11
33.9901769062
21
20.2462933423
31
0.0000000000
11
33.9794827593
21
6.7192459315
31
0.0000000000
11
33.9794827835
21
-6.8218239395
31
0.0000000000
11
33.9901769062
21
-20.3488065955
31
0.0000000000
0
SPLINE
5
2FC
100
AcDbEntity
8
0
100
AcDbSpline
62
9
6
CONTINUOUS
70
0
71
3
72
11
73
7
74
5
42
0.0000001000
43
0.0000001000
44
0.0000000001
12
-0.0003802072
22
1.2482731391
32
0.0000000000
13
-1.2482731391
23
0.0003802072
33
0.0000000000
40
0.0000000000
40
0.0000000000
40
0.0000000000
40
0.0000000000
40
0.2499896498
40
0.4999999322
40
0.7500102498
40
1.0000000000
40
1.0000000000
40
1.0000000000
40
1.0000000000
10
34.0021540602
20
20.8986991454
30
0.0000000000
10
34.0021223776
20
21.0027176004
30
0.0000000000
10
33.9604439239
20
21.2130248318
30
0.0000000000
10
33.7824228502
20
21.4788459871
30
0.0000000000
10
33.5166016913
20
21.6568671361
30
0.0000000000
10
33.3062944008
20
21.6985456189
30
0.0000000000
10
33.2022759041
20
21.6985773016
30
0.0000000000
11
34.0021540602
21
20.8986991454
31
0.0000000000
11
33.9411970764
21
21.2047429428
31
0.0000000000
11
33.7677891161
21
21.4642122354
31
0.0000000000
11
33.5083198195
21
21.6376202689
31
0.0000000000
11
33.2022759041
21
21.6985773016
31
0.0000000000
0
SPLINE
5
2FD
100
AcDbEntity
8
0
100
AcDbSpline
62
9
6
CONTINUOUS
70
0
71
3
72
17
73
13
74
11
42
0.0000001000
43
0.0000001000
44
0.0000000001
12
-0.5913971294
22
-1.2669153490
32
0.0000000000
13
-0.0007742913
23
-1.3981503734
33
0.0000000000
40
0.0000000000
40
0.0000000000
40
0.0000000000
40
0.0000000000
40
0.0353195030
40
0.0826916986
40
0.1531328306
40
0.2462339107
40
0.3589710773
40
0.4860273904
40
0.6206325913
40
0.7555893132
40
0.8840746460
40
1.0000000000
40
1.0000000000
40
1.0000000000
40
1.0000000000
10
33.2022759041
20
21.6985773016
30
0.0000000000
10
33.1953132865
20
21.6836616947
30
0.0000000000
10
33.2022804575
20
21.6427510952
30
0.0000000000
10
33.1960026019
20
21.5727418300
30
0.0000000000
10
33.1965970627
20
21.4738552897
30
0.0000000000
10
33.1943126277
20
21.3453459642
30
0.0000000000
10
33.1933352618
20
21.1901187266
30
0.0000000000
10
33.1921679951
20
21.0156612891
30
0.0000000000
10
33.1913717023
20
20.8308108223
30
0.0000000000
10
33.1907878737
20
20.6453039030
30
0.0000000000
10
33.1904424777
20
20.4684993874
30
0.0000000000
10
33.1903286701
20
20.3545918919
30
0.0000000000
10
33.1902987501
20
20.3005648663
30
0.0000000000
11
33.2022759041
21
21.6985773016
31
0.0000000000
11
33.1993754549
21
21.6492805702
31
0.0000000000
11
33.1977829268
21
21.5830662552
31
0.0000000000
11
33.1961968088
21
21.4845917181
31
0.0000000000
11
33.1946995451
21
21.3544309996
31
0.0000000000
11
33.1933676691
21
21.1968130909
31
0.0000000000
11
33.1922600125
21
21.0191726853
31
0.0000000000
11
33.1914087696
21
20.8309762698
31
0.0000000000
11
33.1908168408
21
20.6422873782
31
0.0000000000
11
33.1904610868
21
20.4626458868
31
0.0000000000
11
33.1902987501
21
20.3005648663
31
0.0000000000
0
SPLINE
5
2FE
100
AcDbEntity
8
0
100
AcDbSpline
62
9
6
CONTINUOUS
70
0
71
3
72
16
73
12
74
10
42
0.0000001000
43
0.0000001000
44
0.0000000001
12
-0.4615153881
22
-0.4614923911
32
0.0000000000
13
-0.0007746788
23
-0.6526646002
33
0.0000000000
40
0.0000000000
40
0.0000000000
40
0.0000000000
40
0.0000000000
40
0.0828584143
40
0.1532898141
40
0.2463626455
40
0.3590669211
40
0.4860968060
40
0.6206853880
40
0.7556310244
40
0.8841020130
40
1.0000000000
40
1.0000000000
40
1.0000000000
40
1.0000000000
10
34.0021540602
20
20.8986991454
30
0.0000000000
10
33.9894072491
20
20.8859529695
30
0.0000000000
10
34.0014633390
20
20.8455288771
30
0.0000000000
10
33.9945508257
20
20.7946176681
30
0.0000000000
10
33.9948987203
20
20.7336238688
30
0.0000000000
10
33.9929809425
20
20.6615596145
30
0.0000000000
10
33.9921164690
20
20.5800247598
30
0.0000000000
10
33.9912308077
20
20.4937852191
30
0.0000000000
10
33.9906710598
20
20.4071905357
30
0.0000000000
10
33.9903194361
20
20.3246715597
30
0.0000000000
10
33.9902068341
20
20.2715075134
30
0.0000000000
10
33.9901769062
20
20.2462933423
30
0.0000000000
11
34.0021540602
21
20.8986991454
31
0.0000000000
11
33.9976615246
21
20.8448072828
31
0.0000000000
11
33.9960755837
21
20.7988665353
31
0.0000000000
11
33.9945783916
21
20.7381396037
31
0.0000000000
11
33.9932464491
21
20.6645935209
31
0.0000000000
11
33.9921386190
21
20.5816929552
31
0.0000000000
11
33.9912871807
21
20.4938558168
31
0.0000000000
11
33.9906950945
21
20.4057835052
31
0.0000000000
11
33.9903392690
21
20.3219357347
31
0.0000000000
11
33.9901769062
21
20.2462933423
31
0.0000000000
0
SPLINE
5
2FF
100
AcDbEntity
8
0
100
AcDbSpline
62
9
6
CONTINUOUS
70
0
71
3
72
8
73
4
74
2
42
0.0000001000
43
0.0000001000
44
0.0000000001
12
-0.3763494180
22
0.0001048266
32
0.0000000000
13
-0.3759265954
23
0.0312132618
33
0.0000000000
40
0.0000000000
40
0.0000000000
40
0.0000000000
40
0.0000000000
40
1.0000000000
40
1.0000000000
40
1.0000000000
40
1.0000000000
10
20.9023201320
20
-17.6147298507
30
0.0000000000
10
20.7768703260
20
-17.6146949085
30
0.0000000000
10
20.6512377759
20
-17.6094537952
30
0.0000000000
10
20.5259289108
20
-17.5990493746
30
0.0000000000
11
20.9023201320
21
-17.6147298507
31
0.0000000000
11
20.5259289108
21
-17.5990493746
31
0.0000000000
0
SPLINE
5
300
100
AcDbEntity
8
0
100
AcDbSpline
62
9
6
CONTINUOUS
70
0
71
3
72
11
73
7
74
5
42
0.0000001000
43
0.0000001000
44
0.0000000001
12
-3.7038167496
22
0.3075286594
32
0.0000000000
13
-2.3176493315
23
2.9061609747
33
0.0000000000
40
0.0000000000
40
0.0000000000
40
0.0000000000
40
0.0000000000
40
0.1993880596
40
0.5005464641
40
0.8004452367
40
1.0000000000
40
1.0000000000
40
1.0000000000
40
1.0000000000
10
20.5259289108
20
-17.5990493746
30
0.0000000000
10
20.2797632992
20
-17.5786101937
30
0.0000000000
10
19.6649217167
20
-17.4772770144
30
0.0000000000
10
18.7329843468
20
-17.1176904244
30
0.0000000000
10
17.9152938599
20
-16.5428241129
30
0.0000000000
10
17.4901630289
20
-16.0903065799
30
0.0000000000
10
17.3359970410
20
-15.8969938248
30
0.0000000000
11
20.5259289108
21
-17.5990493746
31
0.0000000000
11
19.7950188485
21
-17.4782789260
31
0.0000000000
11
18.7530869717
21
-17.0765639770
31
0.0000000000
11
17.8434473311
21
-16.4369210764
31
0.0000000000
11
17.3359970410
21
-15.8969938248
31
0.0000000000
0
SPLINE
5
301
100
AcDbEntity
8
0
100
AcDbSpline
62
9
6
CONTINUOUS
70
0
71
3
72
8
73
4
74
2
42
0.0000001000
43
0.0000001000
44
0.0000000001
12
-0.1151833378
22
0.1444313929
32
0.0000000000
13
-0.1092445171
23
0.1489725008
33
0.0000000000
40
0.0000000000
40
0.0000000000
40
0.0000000000
40
0.0000000000
40
1.0000000000
40
1.0000000000
40
1.0000000000
40
1.0000000000
10
17.3359970410
20
-15.8969938248
30
0.0000000000
10
17.2976025951
20
-15.8488500271
30
0.0000000000
10
17.2601815176
20
-15.7999302416
30
0.0000000000
10
17.2237666786
20
-15.7502727413
30
0.0000000000
11
17.3359970410
21
-15.8969938248
31
0.0000000000
11
17.2237666786
21
-15.7502727413
31
0.0000000000
0
SPLINE
5
302
100
AcDbEntity
8
0
100
AcDbSpline
62
9
6
CONTINUOUS
70
0
71
3
72
8
73
4
74
2
42
0.0000001000
43
0.0000001000
44
0.0000000001
12
-0.0282060414
22
0.0384634821
32
0.0000000000
13
-0.0278018708
23
0.0387565756
33
0.0000000000
40
0.0000000000
40
0.0000000000
40
0.0000000000
40
0.0000000000
40
1.0000000000
40
1.0000000000
40
1.0000000000
40
1.0000000000
10
17.2237666786
20
-15.7502727413
30
0.0000000000
10
17.2143646648
20
-15.7374515806
30
0.0000000000
10
17.2050297299
20
-15.7245812416
30
0.0000000000
10
17.1957624396
20
-15.7116623831
30
0.0000000000
11
17.2237666786
21
-15.7502727413
31
0.0000000000
11
17.1957624396
21
-15.7116623831
31
0.0000000000
0
SPLINE
5
303
100
AcDbEntity
8
0
100
AcDbSpline
62
9
6
CONTINUOUS
70
0
71
3
72
9
73
5
74
3
42
0.0000001000
43
0.0000001000
44
0.0000000001
12
-0.2967251069
22
0.4136429921
32
0.0000000000
13
-0.2487598926
23
0.4441695652
33
0.0000000000
40
0.0000000000
40
0.0000000000
40
0.0000000000
40
0.0000000000
40
0.2703951406
40
1.0000000000
40
1.0000000000
40
1.0000000000
40
1.0000000000
10
17.1957624396
20
-15.7116623831
30
0.0000000000
10
17.1690180973
20
-15.6743800314
30
0.0000000000
10
17.0721932250
20
-15.5350046022
30
0.0000000000
10
16.9832597103
20
-15.3903188802
30
0.0000000000
10
16.9227609015
20
-15.2822961224
30
0.0000000000
11
17.1957624396
21
-15.7116623831
31
0.0000000000
11
17.1172331124
21
-15.5986188996
31
0.0000000000
11
16.9227609015
21
-15.2822961224
31
0.0000000000
0
SPLINE
5
304
100
AcDbEntity
8
0
100
AcDbSpline
62
9
6
CONTINUOUS
70
0
71
3
72
8
73
4
74
2
42
0.0000001000
43
0.0000001000
44
0.0000000001
12
-0.1829981257
22
0.3267496102
32
0.0000000000
13
-0.1556612917
23
0.3406210050
33
0.0000000000
40
0.0000000000
40
0.0000000000
40
0.0000000000
40
0.0000000000
40
1.0000000000
40
1.0000000000
40
1.0000000000
40
1.0000000000
10
16.9227609015
20
-15.2822961224
30
0.0000000000
10
16.8617615262
20
-15.1733795857
30
0.0000000000
10
16.8052225716
20
-15.0619628315
30
0.0000000000
10
16.7533354743
20
-14.9484224965
30
0.0000000000
11
16.9227609015
21
-15.2822961224
31
0.0000000000
11
16.7533354743
21
-14.9484224965
31
0.0000000000
0
SPLINE
5
305
100
AcDbEntity
8
0
100
AcDbSpline
62
9
6
CONTINUOUS
70
0
71
3
72
8
73
4
74
2
42
0.0000001000
43
0.0000001000
44
0.0000000001
12
-0.0107122514
22
0.0234407526
32
0.0000000000
13
-0.0105798805
23
0.0235007264
33
0.0000000000
40
0.0000000000
40
0.0000000000
40
0.0000000000
40
0.0000000000
40
1.0000000000
40
1.0000000000
40
1.0000000000
40
1.0000000000
10
16.7533354743
20
-14.9484224965
30
0.0000000000
10
16.7497647239
20
-14.9406089123
30
0.0000000000
10
16.7462160040
20
-14.9327852711
30
0.0000000000
10
16.7426893772
20
-14.9249516956
30
0.0000000000
11
16.7533354743
21
-14.9484224965
31
0.0000000000
11
16.7426893772
21
-14.9249516956
31
0.0000000000
0
SPLINE
5
306
100
AcDbEntity
8
0
100
AcDbSpline
62
9
6
CONTINUOUS
70
0
71
3
72
8
73
4
74
2
42
0.0000001000
43
0.0000001000
44
0.0000000001
12
-0.1418589418
22
0.3151064120
32
0.0000000000
13
-0.1175758717
23
0.3249348505
33
0.0000000000
40
0.0000000000
40
0.0000000000
40
0.0000000000
40
0.0000000000
40
1.0000000000
40
1.0000000000
40
1.0000000000
40
1.0000000000
10
16.7426893772
20
-14.9249516956
30
0.0000000000
10
16.6954030633
20
-14.8199162249
30
0.0000000000
10
16.6520887266
20
-14.7130947291
30
0.0000000000
10
16.6128967694
20
-14.6047831123
30
0.0000000000
11
16.7426893772
21
-14.9249516956
31
0.0000000000
11
16.6128967694
21
-14.6047831123
31
0.0000000000
0
SPLINE
5
307
100
AcDbEntity
8
0
100
AcDbSpline
62
9
6
CONTINUOUS
70
0
71
3
72
10
73
6
74
4
42
0.0000001000
43
0.0000001000
44
0.0000000001
12
-1.1362141792
22
3.1400624892
32
0.0000000000
13
1.2529346880
23
3.0953481737
33
0.0000000000
40
0.0000000000
40
0.0000000000
40
0.0000000000
40
0.0000000000
40
0.3326883813
40
0.6675471461
40
1.0000000000
40
1.0000000000
40
1.0000000000
40
1.0000000000
10
16.6128967694
20
-14.6047831123
30
0.0000000000
10
16.4868950174
20
-14.2565623434
30
0.0000000000
10
16.3195666352
20
-13.5269443502
30
0.0000000000
10
16.3406511593
20
-12.4055784381
30
0.0000000000
10
16.5351551646
20
-11.6830181213
30
0.0000000000
10
16.6740024022
20
-11.3399990099
30
0.0000000000
11
16.6128967694
21
-14.6047831123
31
0.0000000000
11
16.3651670737
21
-13.5246106385
31
0.0000000000
11
16.3861362540
21
-12.4093620631
31
0.0000000000
11
16.6740024022
21
-11.3399990099
31
0.0000000000
0
SPLINE
5
308
100
AcDbEntity
8
0
100
AcDbSpline
62
9
6
CONTINUOUS
70
0
71
3
72
8
73
4
74
2
42
0.0000001000
43
0.0000001000
44
0.0000000001
12
0.1393862250
22
0.3443506682
32
0.0000000000
13
0.1669655163
23
0.3318747107
33
0.0000000000
40
0.0000000000
40
0.0000000000
40
0.0000000000
40
0.0000000000
40
1.0000000000
40
1.0000000000
40
1.0000000000
40
1.0000000000
10
16.6740024022
20
-11.3399990099
30
0.0000000000
10
16.7204644772
20
-11.2252154538
30
0.0000000000
10
16.7716234582
20
-11.1123308324
30
0.0000000000
10
16.8272786303
20
-11.0017059289
30
0.0000000000
11
16.6740024022
21
-11.3399990099
31
0.0000000000
11
16.8272786303
21
-11.0017059289
31
0.0000000000
0
SPLINE
5
309
100
AcDbEntity
8
0
100
AcDbSpline
62
9
6
CONTINUOUS
70
0
71
3
72
8
73
4
74
2
42
0.0000001000
43
0.0000001000
44
0.0000000001
12
0.1684566038
22
0.3348385216
32
0.0000000000
13
0.1952993191
23
0.3199253614
33
0.0000000000
40
0.0000000000
40
0.0000000000
40
0.0000000000
40
0.0000000000
40
1.0000000000
40
1.0000000000
40
1.0000000000
40
1.0000000000
10
16.8272786303
20
-11.0017059289
30
0.0000000000
10
16.8834308316
20
-10.8900930883
30
0.0000000000
10
16.9441598890
20
-10.7807805067
30
0.0000000000
10
17.0092596620
20
-10.6741387196
30
0.0000000000
11
16.8272786303
21
-11.0017059289
31
0.0000000000
11
17.0092596620
21
-10.6741387196
31
0.0000000000
0
SPLINE
5
30A
100
AcDbEntity
8
0
100
AcDbSpline
62
9
6
CONTINUOUS
70
0
71
3
72
8
73
4
74
2
42
0.0000001000
43
0.0000001000
44
0.0000000001
12
0.0825963366
22
0.1353034048
32
0.0000000000
13
0.0872401076
23
0.1323530820
33
0.0000000000
40
0.0000000000
40
0.0000000000
40
0.0000000000
40
0.0000000000
40
1.0000000000
40
1.0000000000
40
1.0000000000
40
1.0000000000
10
17.0092596620
20
-10.6741387196
30
0.0000000000
10
17.0367917742
20
-10.6290375846
30
0.0000000000
10
17.0651056450
20
-10.5844141556
30
0.0000000000
10
17.0941856809
20
-10.5402964616
30
0.0000000000
11
17.0092596620
21
-10.6741387196
31
0.0000000000
11
17.0941856809
21
-10.5402964616
31
0.0000000000
0
SPLINE
5
30B
100
AcDbEntity
8
0
100
AcDbSpline
62
9
6
CONTINUOUS
70
0
71
3
72
8
73
4
74
2
42
0.0000001000
43
0.0000001000
44
0.0000000001
12
0.1172300312
22
0.1778511784
32
0.0000000000
13
0.1254173029
23
0.1721679140
33
0.0000000000
40
0.0000000000
40
0.0000000000
40
0.0000000000
40
0.0000000000
40
1.0000000000
40
1.0000000000
40
1.0000000000
40
1.0000000000
10
17.0941856809
20
-10.5402964616
30
0.0000000000
10
17.1332623580
20
-10.4810127354
30
0.0000000000
10
17.1737224986
20
-10.4226422146
30
0.0000000000
10
17.2155282662
20
-10.3652529099
30
0.0000000000
11
17.0941856809
21
-10.5402964616
31
0.0000000000
11
17.2155282662
21
-10.3652529099
31
0.0000000000
0
SPLINE
5
30C
100
AcDbEntity
8
0
100
AcDbSpline
62
9
6
CONTINUOUS
70
0
71
3
72
11
73
7
74
5
42
0.0000001000
43
0.0000001000
44
0.0000000001
12
2.3379488129
22
3.2094436805
32
0.0000000000
13
3.9577566664
23
0.2810142963
33
0.0000000000
40
0.0000000000
40
0.0000000000
40
0.0000000000
40
0.0000000000
40
0.2796564166
40
0.5613593118
40
0.8326216692
40
1.0000000000
40
1.0000000000
40
1.0000000000
40
1.0000000000
10
17.2155282662
20
-10.3652529099
30
0.0000000000
10
17.4334690619
20
-10.0660724036
30
0.0000000000
10
17.9443538628
20
-9.5190505898
30
0.0000000000
10
18.8762459043
20
-8.9149960341
30
0.0000000000
10
19.7827024656
20
-8.5998146016
30
0.0000000000
10
20.3591659048
20
-8.5166931454
30
0.0000000000
10
20.5799801395
20
-8.5010145774
30
0.0000000000
11
17.2155282662
21
-10.3652529099
31
0.0000000000
11
17.9716286029
21
-9.5557315134
31
0.0000000000
11
18.9078994290
21
-8.9487443616
31
0.0000000000
11
19.9227935559
21
-8.5959711936
31
0.0000000000
11
20.5799801395
21
-8.5010145774
31
0.0000000000
0
SPLINE
5
30D
100
AcDbEntity
8
0
100
AcDbSpline
62
9
6
CONTINUOUS
70
0
71
3
72
8
73
4
74
2
42
0.0000001000
43
0.0000001000
44
0.0000000001
12
0.3220535865
22
0.0228669091
32
0.0000000000
13
0.3223137028
23
0.0000535561
33
0.0000000000
40
0.0000000000
40
0.0000000000
40
0.0000000000
40
0.0000000000
40
1.0000000000
40
1.0000000000
40
1.0000000000
40
1.0000000000
10
20.5799801395
20
-8.5010145774
30
0.0000000000
10
20.6873313350
20
-8.4933922744
30
0.0000000000
10
20.7948822311
20
-8.4895608860
30
0.0000000000
10
20.9023201320
20
-8.4895430340
30
0.0000000000
11
20.5799801395
21
-8.5010145774
31
0.0000000000
11
20.9023201320
21
-8.4895430340
31
0.0000000000
0
SPLINE
5
30E
100
AcDbEntity
8
0
100
AcDbSpline
62
9
6
CONTINUOUS
70
0
71
3
72
8
73
4
74
2
42
0.0000001000
43
0.0000001000
44
0.0000000001
12
-0.3645850719
22
0.0000506892
32
0.0000000000
13
-0.3641936598
23
0.0299422411
33
0.0000000000
40
0.0000000000
40
0.0000000000
40
0.0000000000
40
0.0000000000
40
1.0000000000
40
1.0000000000
40
1.0000000000
40
1.0000000000
10
20.9023201320
20
-17.5088905901
30
0.0000000000
10
20.7807917747
20
-17.5088736937
30
0.0000000000
10
20.6590882836
20
-17.5038519065
30
0.0000000000
10
20.5376903970
20
-17.4938711595
30
0.0000000000
11
20.9023201320
21
-17.5088905901
31
0.0000000000
11
20.5376903970
21
-17.4938711595
31
0.0000000000
0
SPLINE
5
30F
100
AcDbEntity
8
0
100
AcDbSpline
62
9
6
CONTINUOUS
70
0
71
3
72
11
73
7
74
5
42
0.0000001000
43
0.0000001000
44
0.0000000001
12
-3.6259527324
22
0.2981082947
32
0.0000000000
13
-2.2693366142
23
2.8444906175
33
0.0000000000
40
0.0000000000
40
0.0000000000
40
0.0000000000
40
0.0000000000
40
0.2004805096
40
0.5013386653
40
0.8009051218
40
1.0000000000
40
1.0000000000
40
1.0000000000
40
1.0000000000
10
20.5376903970
20
-17.4938711595
30
0.0000000000
10
20.2953794464
20
-17.4739495252
30
0.0000000000
10
19.6924806987
20
-17.3747264958
30
0.0000000000
10
18.7796844057
20
-17.0224927336
30
0.0000000000
10
17.9803607120
20
-16.4604395876
30
0.0000000000
10
17.5648109813
20
-16.0182019680
30
0.0000000000
10
17.4142065491
20
-15.8294274637
30
0.0000000000
11
20.5376903970
21
-17.4938711595
31
0.0000000000
11
19.8182330813
21
-17.3752014052
31
0.0000000000
11
18.7993102082
21
-16.9822474375
31
0.0000000000
11
17.9098638225
21
-16.3567212315
31
0.0000000000
11
17.4142065491
21
-15.8294274637
31
0.0000000000
0
SPLINE
5
310
100
AcDbEntity
8
0
100
AcDbSpline
62
9
6
CONTINUOUS
70
0
71
3
72
8
73
4
74
2
42
0.0000001000
43
0.0000001000
44
0.0000000001
12
-0.2261647379
22
0.2834852578
32
0.0000000000
13
-0.2023690973
23
0.3009319925
33
0.0000000000
40
0.0000000000
40
0.0000000000
40
0.0000000000
40
0.0000000000
40
1.0000000000
40
1.0000000000
40
1.0000000000
40
1.0000000000
10
17.4142065491
20
-15.8294274637
30
0.0000000000
10
17.3388183031
20
-15.7349323778
30
0.0000000000
10
17.2672656598
20
-15.6373784933
30
0.0000000000
10
17.1998092941
20
-15.5370678291
30
0.0000000000
11
17.4142065491
21
-15.8294274637
31
0.0000000000
11
17.1998092941
21
-15.5370678291
31
0.0000000000
0
SPLINE
5
311
100
AcDbEntity
8
0
100
AcDbSpline
62
9
6
CONTINUOUS
70
0
71
3
72
8
73
4
74
2
42
0.0000001000
43
0.0000001000
44
0.0000000001
12
-0.2030877005
22
0.3020005879
32
0.0000000000
13
-0.1777833053
23
0.3175737411
33
0.0000000000
40
0.0000000000
40
0.0000000000
40
0.0000000000
40
0.0000000000
40
1.0000000000
40
1.0000000000
40
1.0000000000
40
1.0000000000
10
17.1998092941
20
-15.5370678291
30
0.0000000000
10
17.1321133939
20
-15.4364009665
30
0.0000000000
10
17.0685429143
20
-15.3329577110
30
0.0000000000
10
17.0092818125
20
-15.2270997973
30
0.0000000000
11
17.1998092941
21
-15.5370678291
31
0.0000000000
11
17.0092818125
21
-15.2270997973
31
0.0000000000
0
SPLINE
5
312
100
AcDbEntity
8
0
100
AcDbSpline
62
9
6
CONTINUOUS
70
0
71
3
72
8
73
4
74
2
42
0.0000001000
43
0.0000001000
44
0.0000000001
12
-0.3557817533
22
0.6355317910
32
0.0000000000
13
-0.2478084928
23
0.6848563393
33
0.0000000000
40
0.0000000000
40
0.0000000000
40
0.0000000000
40
0.0000000000
40
1.0000000000
40
1.0000000000
40
1.0000000000
40
1.0000000000
10
17.0092818125
20
-15.2270997973
30
0.0000000000
10
16.8906878948
20
-15.0152558670
30
0.0000000000
10
16.7893523546
20
-14.7937416119
30
0.0000000000
10
16.7067495236
20
-14.5654561655
30
0.0000000000
11
17.0092818125
21
-15.2270997973
31
0.0000000000
11
16.7067495236
21
-14.5654561655
31
0.0000000000
0
SPLINE
5
313
100
AcDbEntity
8
0
100
AcDbSpline
62
9
6
CONTINUOUS
70
0
71
3
72
10
73
6
74
4
42
0.0000001000
43
0.0000001000
44
0.0000000001
12
-0.9874881275
22
2.7290731499
32
0.0000000000
13
0.8670974643
23
2.7696787473
33
0.0000000000
40
0.0000000000
40
0.0000000000
40
0.0000000000
40
0.0000000000
40
0.3741980752
40
0.7508157981
40
1.0000000000
40
1.0000000000
40
1.0000000000
40
1.0000000000
10
16.7067495236
20
-14.5654561655
30
0.0000000000
10
16.5835774714
20
-14.2250515256
30
0.0000000000
10
16.4200100909
20
-13.5118324557
30
0.0000000000
10
16.4383633250
20
-12.5372381625
30
0.0000000000
10
16.5724783950
20
-11.9448353370
30
0.0000000000
10
16.6445007249
20
-11.7147819409
30
0.0000000000
11
16.7067495236
21
-14.5654561655
31
0.0000000000
11
16.4645887305
21
-13.5095303070
31
0.0000000000
11
16.4851164565
21
-12.4193804352
31
0.0000000000
11
16.6445007249
21
-11.7147819409
31
0.0000000000
0
SPLINE
5
314
100
AcDbEntity
8
0
100
AcDbSpline
62
9
6
CONTINUOUS
70
0
71
3
72
8
73
4
74
2
42
0.0000001000
43
0.0000001000
44
0.0000000001
12
0.1081570119
22
0.3454746319
32
0.0000000000
13
0.1358410155
23
0.3355565053
33
0.0000000000
40
0.0000000000
40
0.0000000000
40
0.0000000000
40
0.0000000000
40
1.0000000000
40
1.0000000000
40
1.0000000000
40
1.0000000000
10
16.6445007249
20
-11.7147819409
30
0.0000000000
10
16.6805530622
20
-11.5996237303
30
0.0000000000
10
16.7212710195
20
-11.4859268116
30
0.0000000000
10
16.7665513580
20
-11.3740746432
30
0.0000000000
11
16.6445007249
21
-11.7147819409
31
0.0000000000
11
16.7665513580
21
-11.3740746432
31
0.0000000000
0
SPLINE
5
315
100
AcDbEntity
8
0
100
AcDbSpline
62
9
6
CONTINUOUS
70
0
71
3
72
8
73
4
74
2
42
0.0000001000
43
0.0000001000
44
0.0000000001
12
0.1365762925
22
0.3373727976
32
0.0000000000
13
0.1636546156
23
0.3251192869
33
0.0000000000
40
0.0000000000
40
0.0000000000
40
0.0000000000
40
0.0000000000
40
1.0000000000
40
1.0000000000
40
1.0000000000
40
1.0000000000
10
16.7665513580
20
-11.3740746432
30
0.0000000000
10
16.8120767889
20
-11.2616170440
30
0.0000000000
10
16.8622141248
20
-11.1510242195
30
0.0000000000
10
16.9167656633
20
-11.0426511239
30
0.0000000000
11
16.7665513580
21
-11.3740746432
31
0.0000000000
11
16.9167656633
21
-11.0426511239
31
0.0000000000
0
SPLINE
5
316
100
AcDbEntity
8
0
100
AcDbSpline
62
9
6
CONTINUOUS
70
0
71
3
72
8
73
4
74
2
42
0.0000001000
43
0.0000001000
44
0.0000000001
12
0.1640302955
22
0.3258656196
32
0.0000000000
13
0.1900400464
23
0.3114138177
33
0.0000000000
40
0.0000000000
40
0.0000000000
40
0.0000000000
40
0.0000000000
40
1.0000000000
40
1.0000000000
40
1.0000000000
40
1.0000000000
10
16.9167656633
20
-11.0426511239
30
0.0000000000
10
16.9714424285
20
-10.9340292507
30
0.0000000000
10
17.0305536857
20
-10.8276373091
30
0.0000000000
10
17.0939003679
20
-10.7238327032
30
0.0000000000
11
16.9167656633
21
-11.0426511239
31
0.0000000000
11
17.0939003679
21
-10.7238327032
31
0.0000000000
0
SPLINE
5
317
100
AcDbEntity
8
0
100
AcDbSpline
62
9
6
CONTINUOUS
70
0
71
3
72
8
73
4
74
2
42
0.0000001000
43
0.0000001000
44
0.0000000001
12
0.1136122696
22
0.1861735528
32
0.0000000000
13
0.1225672302
23
0.1803960997
33
0.0000000000
40
0.0000000000
40
0.0000000000
40
0.0000000000
40
0.0000000000
40
1.0000000000
40
1.0000000000
40
1.0000000000
40
1.0000000000
10
17.0939003679
20
-10.7238327032
30
0.0000000000
10
17.1317711244
20
-10.6617748522
30
0.0000000000
10
17.1711556416
20
-10.6006417272
30
0.0000000000
10
17.2120113850
20
-10.5405096939
30
0.0000000000
11
17.0939003679
21
-10.7238327032
31
0.0000000000
11
17.2120113850
21
-10.5405096939
31
0.0000000000
0
SPLINE
5
318
100
AcDbEntity
8
0
100
AcDbSpline
62
9
6
CONTINUOUS
70
0
71
3
72
8
73
4
74
2
42
0.0000001000
43
0.0000001000
44
0.0000000001
12
0.0820159286
22
0.1207121480
32
0.0000000000
13
0.0859302553
23
0.1179539976
33
0.0000000000
40
0.0000000000
40
0.0000000000
40
0.0000000000
40
0.0000000000
40
1.0000000000
40
1.0000000000
40
1.0000000000
40
1.0000000000
10
17.2120113850
20
-10.5405096939
30
0.0000000000
10
17.2393500279
20
-10.5002723113
30
0.0000000000
10
17.2673474306
20
-10.4604831799
30
0.0000000000
10
17.2959908491
20
-10.4211651807
30
0.0000000000
11
17.2120113850
21
-10.5405096939
31
0.0000000000
11
17.2959908491
21
-10.4211651807
31
0.0000000000
0
SPLINE
5
319
100
AcDbEntity
8
0
100
AcDbSpline
62
9
6
CONTINUOUS
70
0
71
3
72
11
73
7
74
5
42
0.0000001000
43
0.0000001000
44
0.0000000001
12
2.2887891825
22
3.1417552831
32
0.0000000000
13
3.8745285708
23
0.2722602295
33
0.0000000000
40
0.0000000000
40
0.0000000000
40
0.0000000000
40
0.0000000000
40
0.2793147004
40
0.5607248977
40
0.8317810384
40
1.0000000000
40
1.0000000000
40
1.0000000000
40
1.0000000000
10
17.2959908491
20
-10.4211651807
30
0.0000000000
10
17.5090883373
20
-10.1286523689
30
0.0000000000
10
18.0086624665
20
-9.5937809137
30
0.0000000000
10
18.9199730000
20
-9.0030047953
30
0.0000000000
10
19.8077423124
20
-8.6943019901
30
0.0000000000
10
20.3729229780
20
-8.6129638160
30
0.0000000000
10
20.5901793690
20
-8.5976973717
30
0.0000000000
11
17.2959908491
21
-10.4211651807
31
0.0000000000
11
18.0352723647
21
-9.6296785347
31
0.0000000000
11
18.9508441067
21
-9.0360600986
31
0.0000000000
11
19.9435837244
21
-8.6909256852
31
0.0000000000
11
20.5901793690
21
-8.5976973717
31
0.0000000000
0
SPLINE
5
31A
100
AcDbEntity
8
0
100
AcDbSpline
62
9
6
CONTINUOUS
70
0
71
3
72
8
73
4
74
2
42
0.0000001000
43
0.0000001000
44
0.0000000001
12
0.3118724629
22
0.0219150451
32
0.0000000000
13
0.3121125286
23
0.0000259235
33
0.0000000000
40
0.0000000000
40
0.0000000000
40
0.0000000000
40
0.0000000000
40
1.0000000000
40
1.0000000000
40
1.0000000000
40
1.0000000000
10
20.5901793690
20
-8.5976973717
30
0.0000000000
10
20.6941368566
20
-8.5903923566
30
0.0000000000
10
20.7982826225
20
-8.5867236825
30
0.0000000000
10
20.9023201320
20
-8.5867150413
30
0.0000000000
11
20.5901793690
21
-8.5976973717
31
0.0000000000
11
20.9023201320
21
-8.5867150413
31
0.0000000000
0
SPLINE
5
31B
100
AcDbEntity
8
0
100
AcDbSpline
62
9
6
CONTINUOUS
70
0
71
3
72
8
73
4
74
2
42
0.0000001000
43
0.0000001000
44
0.0000000001
12
0.3650240046
22
-0.0000506723
32
0.0000000000
13
0.3646311591
23
-0.0300147192
33
0.0000000000
40
0.0000000000
40
0.0000000000
40
0.0000000000
40
0.0000000000
40
1.0000000000
40
1.0000000000
40
1.0000000000
40
1.0000000000
10
25.1023201320
20
-8.5867150413
30
0.0000000000
10
25.2239948002
20
-8.5867319321
30
0.0000000000
10
25.3458452454
20
-8.5917659203
30
0.0000000000
10
25.4673889651
20
-8.6017708267
30
0.0000000000
11
25.1023201320
21
-8.5867150413
31
0.0000000000
11
25.4673889651
21
-8.6017708267
31
0.0000000000
0
SPLINE
5
31C
100
AcDbEntity
8
0
100
AcDbSpline
62
9
6
CONTINUOUS
70
0
71
3
72
11
73
7
74
5
42
0.0000001000
43
0.0000001000
44
0.0000000001
12
3.9899545221
22
-0.3284342586
32
0.0000000000
13
2.2321041913
23
-3.3242417821
33
0.0000000000
40
0.0000000000
40
0.0000000000
40
0.0000000000
40
0.0000000000
40
0.1823889372
40
0.4560343084
40
0.7284408724
40
1.0000000000
40
1.0000000000
40
1.0000000000
40
1.0000000000
10
25.4673889651
20
-8.6017708267
30
0.0000000000
10
25.7099634866
20
-8.6217384185
30
0.0000000000
10
26.3134274644
20
-8.7211705377
30
0.0000000000
10
27.2268600895
20
-9.0740541454
30
0.0000000000
10
28.1259842347
20
-9.7070453399
30
0.0000000000
10
28.6045166066
20
-10.2602103132
30
0.0000000000
10
28.8065660289
20
-10.5611197126
30
0.0000000000
11
25.4673889651
21
-8.6017708267
31
0.0000000000
11
26.1876117040
21
-8.7207060566
31
0.0000000000
11
27.2072594708
21
-9.1143898325
31
0.0000000000
11
28.0969066540
21
-9.7408115758
31
0.0000000000
11
28.8065660289
21
-10.5611197126
31
0.0000000000
0
SPLINE
5
31D
100
AcDbEntity
8
0
100
AcDbSpline
62
9
6
CONTINUOUS
70
0
71
3
72
8
73
4
74
2
42
0.0000001000
43
0.0000001000
44
0.0000000001
12
0.0775382551
22
-0.1154766469
32
0.0000000000
13
0.0738901231
23
-0.1178467809
33
0.0000000000
40
0.0000000000
40
0.0000000000
40
0.0000000000
40
0.0000000000
40
1.0000000000
40
1.0000000000
40
1.0000000000
40
1.0000000000
10
28.8065660289
20
-10.5611197126
30
0.0000000000
10
28.8324121140
20
-10.5996119283
30
0.0000000000
10
28.8576553046
20
-10.6385092663
30
0.0000000000
10
28.8822853457
20
-10.6777915266
30
0.0000000000
11
28.8065660289
21
-10.5611197126
31
0.0000000000
11
28.8822853457
21
-10.6777915266
31
0.0000000000
0
SPLINE
5
31E
100
AcDbEntity
8
0
100
AcDbSpline
62
9
6
CONTINUOUS
70
0
71
3
72
8
73
4
74
2
42
0.0000001000
43
0.0000001000
44
0.0000000001
12
0.1194069599
22
-0.1904412287
32
0.0000000000
13
0.1096697610
23
-0.1962167819
33
0.0000000000
40
0.0000000000
40
0.0000000000
40
0.0000000000
40
0.0000000000
40
1.0000000000
40
1.0000000000
40
1.0000000000
40
1.0000000000
10
28.8822853457
20
-10.6777915266
30
0.0000000000
10
28.9220876656
20
-10.7412719362
30
0.0000000000
10
28.9602887584
20
-10.8057575621
30
0.0000000000
10
28.9968453454
20
-10.8711631561
30
0.0000000000
11
28.8822853457
21
-10.6777915266
31
0.0000000000
11
28.9968453454
21
-10.8711631561
31
0.0000000000
0
SPLINE
5
31F
100
AcDbEntity
8
0
100
AcDbSpline
62
9
6
CONTINUOUS
70
0
71
3
72
8
73
4
74
2
42
0.0000001000
43
0.0000001000
44
0.0000000001
12
0.1777780672
22
-0.3180734591
32
0.0000000000
13
0.1512969996
23
-0.3314887045
33
0.0000000000
40
0.0000000000
40
0.0000000000
40
0.0000000000
40
0.0000000000
40
1.0000000000
40
1.0000000000
40
1.0000000000
40
1.0000000000
10
28.9968453454
20
-10.8711631561
30
0.0000000000
10
29.0561047011
20
-10.9771876425
30
0.0000000000
10
29.1110427215
20
-11.0856295668
30
0.0000000000
10
29.1614750547
20
-11.1961258016
30
0.0000000000
11
28.9968453454
21
-10.8711631561
31
0.0000000000
11
29.1614750547
21
-11.1961258016
31
0.0000000000
0
SPLINE
5
320
100
AcDbEntity
8
0
100
AcDbSpline
62
9
6
CONTINUOUS
70
0
71
3
72
8
73
4
74
2
42
0.0000001000
43
0.0000001000
44
0.0000000001
12
0.1510187245
22
-0.3308790093
32
0.0000000000
13
0.1235339467
23
-0.3420761907
33
0.0000000000
40
0.0000000000
40
0.0000000000
40
0.0000000000
40
0.0000000000
40
1.0000000000
40
1.0000000000
40
1.0000000000
40
1.0000000000
10
29.1614750547
20
-11.1961258016
30
0.0000000000
10
29.2118146296
20
-11.3064188047
30
0.0000000000
10
29.2576650763
20
-11.4187585684
30
0.0000000000
10
29.2988430585
20
-11.5327839653
30
0.0000000000
11
29.1614750547
21
-11.1961258016
31
0.0000000000
11
29.2988430585
21
-11.5327839653
31
0.0000000000
0
SPLINE
5
321
100
AcDbEntity
8
0
100
AcDbSpline
62
9
6
CONTINUOUS
70
0
71
3
72
10
73
6
74
4
42
0.0000001000
43
0.0000001000
44
0.0000000001
12
0.9859107286
22
-2.7300721415
32
0.0000000000
13
-0.8692152203
23
-2.7694509319
33
0.0000000000
40
0.0000000000
40
0.0000000000
40
0.0000000000
40
0.0000000000
40
0.3740801675
40
0.7507227608
40
1.0000000000
40
1.0000000000
40
1.0000000000
40
1.0000000000
10
29.2988430585
20
-11.5327839653
30
0.0000000000
10
29.4217796087
20
-11.8732059134
30
0.0000000000
10
29.5849166517
20
-12.5865332453
30
0.0000000000
10
29.5659658099
20
-13.5612572026
30
0.0000000000
10
29.4314039221
20
-14.1537672917
30
0.0000000000
10
29.3591787320
20
-14.3838876525
30
0.0000000000
11
29.2988430585
21
-11.5327839653
31
0.0000000000
11
29.5403210313
21
-12.5886721098
31
0.0000000000
11
29.5191231191
21
-13.6790344036
31
0.0000000000
11
29.3591787320
21
-14.3838876525
31
0.0000000000
0
SPLINE
5
322
100
AcDbEntity
8
0
100
AcDbSpline
62
9
6
CONTINUOUS
70
0
71
3
72
8
73
4
74
2
42
0.0000001000
43
0.0000001000
44
0.0000000001
12
-0.1084676352
22
-0.3455942630
32
0.0000000000
13
-0.1361760239
23
-0.3356442432
33
0.0000000000
40
0.0000000000
40
0.0000000000
40
0.0000000000
40
0.0000000000
40
1.0000000000
40
1.0000000000
40
1.0000000000
40
1.0000000000
10
29.3591787320
20
-14.3838876525
30
0.0000000000
10
29.3230228536
20
-14.4990857401
30
0.0000000000
10
29.2821970721
20
-14.6128175194
30
0.0000000000
10
29.2368050641
20
-14.7246989338
30
0.0000000000
11
29.3591787320
21
-14.3838876525
31
0.0000000000
11
29.2368050641
21
-14.7246989338
31
0.0000000000
0
SPLINE
5
323
100
AcDbEntity
8
0
100
AcDbSpline
62
9
6
CONTINUOUS
70
0
71
3
72
8
73
4
74
2
42
0.0000001000
43
0.0000001000
44
0.0000000001
12
-0.1369167313
22
-0.3374699255
32
0.0000000000
13
-0.1640177991
23
-0.3251802944
33
0.0000000000
40
0.0000000000
40
0.0000000000
40
0.0000000000
40
0.0000000000
40
1.0000000000
40
1.0000000000
40
1.0000000000
40
1.0000000000
10
29.2368050641
20
-14.7246989338
30
0.0000000000
10
29.1911661537
20
-14.8371889089
30
0.0000000000
10
29.1409112072
20
-14.9478083350
30
0.0000000000
10
29.0862386075
20
-15.0562017665
30
0.0000000000
11
29.2368050641
21
-14.7246989338
31
0.0000000000
11
29.0862386075
21
-15.0562017665
31
0.0000000000
0
SPLINE
5
324
100
AcDbEntity
8
0
100
AcDbSpline
62
9
6
CONTINUOUS
70
0
71
3
72
8
73
4
74
2
42
0.0000001000
43
0.0000001000
44
0.0000000001
12
-0.1643951089
22
-0.3259283457
32
0.0000000000
13
-0.1904238526
23
-0.3114371466
33
0.0000000000
40
0.0000000000
40
0.0000000000
40
0.0000000000
40
0.0000000000
40
1.0000000000
40
1.0000000000
40
1.0000000000
40
1.0000000000
10
29.0862386075
20
-15.0562017665
30
0.0000000000
10
29.0314402379
20
-15.1648445484
30
0.0000000000
10
28.9722038667
20
-15.2712510825
30
0.0000000000
10
28.9087292492
20
-15.3750634646
30
0.0000000000
11
29.0862386075
21
-15.0562017665
31
0.0000000000
11
28.9087292492
21
-15.3750634646
31
0.0000000000
0
SPLINE
5
325
100
AcDbEntity
8
0
100
AcDbSpline
62
9
6
CONTINUOUS
70
0
71
3
72
8
73
4
74
2
42
0.0000001000
43
0.0000001000
44
0.0000000001
12
-0.1899848999
22
-0.3107192418
32
0.0000000000
13
-0.2147021459
23
-0.2941597017
33
0.0000000000
40
0.0000000000
40
0.0000000000
40
0.0000000000
40
0.0000000000
40
1.0000000000
40
1.0000000000
40
1.0000000000
40
1.0000000000
10
28.9087292492
20
-15.3750634646
30
0.0000000000
10
28.8454009492
20
-15.4786365452
30
0.0000000000
10
28.7778539198
20
-15.5796274199
30
0.0000000000
10
28.7062865378
20
-15.6776806538
30
0.0000000000
11
28.9087292492
21
-15.3750634646
31
0.0000000000
11
28.7062865378
21
-15.6776806538
31
0.0000000000
0
SPLINE
5
326
100
AcDbEntity
8
0
100
AcDbSpline
62
9
6
CONTINUOUS
70
0
71
3
72
11
73
7
74
5
42
0.0000001000
43
0.0000001000
44
0.0000000001
12
-2.2896765473
22
-3.1370462901
32
0.0000000000
13
-3.8712658571
23
-0.2714115491
33
0.0000000000
40
0.0000000000
40
0.0000000000
40
0.0000000000
40
0.0000000000
40
0.2795563834
40
0.5611073345
40
0.8319731326
40
1.0000000000
40
1.0000000000
40
1.0000000000
40
1.0000000000
10
28.7062865378
20
-15.6776806538
30
0.0000000000
10
28.4929219730
20
-15.9700077589
30
0.0000000000
10
27.9929481076
20
-16.5043406239
30
0.0000000000
10
27.0816951617
20
-17.0939653416
30
0.0000000000
10
26.1948037945
20
-17.4017306431
30
0.0000000000
10
25.6305813560
20
-17.4827565450
30
0.0000000000
10
25.4137557977
20
-17.4979580224
30
0.0000000000
11
28.7062865378
21
-15.6776806538
31
0.0000000000
11
27.9662781591
21
-16.4685155937
31
0.0000000000
11
27.0505127884
21
-17.0611406095
31
0.0000000000
11
26.0590908658
21
-17.4051119085
31
0.0000000000
11
25.4137557977
21
-17.4979580224
31
0.0000000000
0
SPLINE
5
327
100
AcDbEntity
8
0
100
AcDbSpline
62
9
6
CONTINUOUS
70
0
71
3
72
8
73
4
74
2
42
0.0000001000
43
0.0000001000
44
0.0000000001
12
-0.3111692225
22
-0.0218158411
32
0.0000000000
13
-0.3114076007
23
-0.0000258219
33
0.0000000000
40
0.0000000000
40
0.0000000000
40
0.0000000000
40
0.0000000000
40
1.0000000000
40
1.0000000000
40
1.0000000000
40
1.0000000000
10
25.4137557977
20
-17.4979580224
30
0.0000000000
10
25.3100327236
20
-17.5052299695
30
0.0000000000
10
25.2061226656
20
-17.5088819828
30
0.0000000000
10
25.1023201320
20
-17.5088905901
30
0.0000000000
11
25.4137557977
21
-17.4979580224
31
0.0000000000
11
25.1023201320
21
-17.5088905901
31
0.0000000000
0
SPLINE
5
328
100
AcDbEntity
8
0
100
AcDbSpline
62
9
6
CONTINUOUS
70
0
71
3
72
11
73
7
74
5
42
0.0000001000
43
0.0000001000
44
0.0000000001
12
0.0003802072
22
-1.2482731391
32
0.0000000000
13
1.2482731391
23
-0.0003802072
33
0.0000000000
40
0.0000000000
40
0.0000000000
40
0.0000000000
40
0.0000000000
40
0.2499896958
40
0.4999999908
40
0.7500102906
40
1.0000000000
40
1.0000000000
40
1.0000000000
40
1.0000000000
10
12.0024862038
20
-21.0012123987
30
0.0000000000
10
12.0025178865
20
-21.1052308728
30
0.0000000000
10
12.0441963532
20
-21.3155381298
30
0.0000000000
10
12.2222174593
20
-21.5813592852
30
0.0000000000
10
12.4880386151
20
-21.7593804015
30
0.0000000000
10
12.6983458802
20
-21.8010588722
30
0.0000000000
10
12.8023643600
20
-21.8010905548
30
0.0000000000
11
12.0024862038
21
-21.0012123987
31
0.0000000000
11
12.0634432100
21
-21.3072562501
31
0.0000000000
11
12.2368512006
21
-21.5667255414
31
0.0000000000
11
12.4963204924
21
-21.7401335420
31
0.0000000000
11
12.8023643600
21
-21.8010905548
31
0.0000000000
0
SPLINE
5
329
100
AcDbEntity
8
0
100
AcDbSpline
62
9
6
CONTINUOUS
70
0
71
3
72
17
73
13
74
11
42
0.0000001000
43
0.0000001000
44
0.0000000001
12
0.5910581235
22
1.2670754723
32
0.0000000000
13
0.0007746575
23
1.3981521225
33
0.0000000000
40
0.0000000000
40
0.0000000000
40
0.0000000000
40
0.0000000000
40
0.0321746913
40
0.0762805132
40
0.1430188928
40
0.2327217789
40
0.3431306644
40
0.4695322704
40
0.6054652074
40
0.7437385170
40
0.8773466663
40
1.0000000000
40
1.0000000000
40
1.0000000000
40
1.0000000000
10
12.8023643600
20
-21.8010905548
30
0.0000000000
10
12.8087033975
20
-21.7875013007
30
0.0000000000
10
12.8024897607
20
-21.7497852477
30
0.0000000000
10
12.8083759345
20
-21.6844015057
30
0.0000000000
10
12.8078786243
20
-21.5903724042
30
0.0000000000
10
12.8101448349
20
-21.4662528356
30
0.0000000000
10
12.8111500620
20
-21.3139994781
30
0.0000000000
10
12.8123559387
20
-21.1403141881
30
0.0000000000
10
12.8131924789
20
-20.9536038988
30
0.0000000000
10
12.8138144648
20
-20.7635450119
30
0.0000000000
10
12.8141874139
20
-20.5796714872
30
0.0000000000
10
12.8143098425
20
-20.4602407925
30
0.0000000000
10
12.8143415140
20
-20.4030781195
30
0.0000000000
11
12.8023643600
21
-21.8010905548
31
0.0000000000
11
12.8051256553
21
-21.7561902624
31
0.0000000000
11
12.8066786333
21
-21.6945431622
31
0.0000000000
11
12.8082479589
21
-21.6012459384
31
0.0000000000
11
12.8097512993
21
-21.4758366490
31
0.0000000000
11
12.8111088800
21
-21.3214741773
31
0.0000000000
11
12.8122552483
21
-21.1447491945
31
0.0000000000
11
12.8131496527
21
-20.9546963455
31
0.0000000000
11
12.8137808010
21
-20.7613702248
31
0.0000000000
11
12.8141652006
21
-20.5745660741
31
0.0000000000
11
12.8143415140
21
-20.4030781195
31
0.0000000000
0
SPLINE
5
32A
100
AcDbEntity
8
0
100
AcDbSpline
62
9
6
CONTINUOUS
70
0
71
3
72
16
73
12
74
10
42
0.0000001000
43
0.0000001000
44
0.0000000001
12
0.4614288349
22
0.4615840827
32
0.0000000000
13
0.0007746538
23
0.6526682427
33
0.0000000000
40
0.0000000000
40
0.0000000000
40
0.0000000000
40
0.0000000000
40
0.0764848096
40
0.1432578529
40
0.2329793963
40
0.3433847147
40
0.4697569263
40
0.6056387883
40
0.7438500360
40
0.8773973089
40
1.0000000000
40
1.0000000000
40
1.0000000000
40
1.0000000000
10
12.0024862038
20
-21.0012123987
30
0.0000000000
10
12.0142503027
20
-20.9894443418
30
0.0000000000
10
12.0032540636
20
-20.9517186969
30
0.0000000000
10
12.0098600879
20
-20.9035952589
30
0.0000000000
10
12.0095682493
20
-20.8446445418
30
0.0000000000
10
12.0115080146
20
-20.7739539090
30
0.0000000000
10
12.0124059191
20
-20.6927782902
30
0.0000000000
10
12.0133349160
20
-20.6056913650
30
0.0000000000
10
12.0139310839
20
-20.5169996068
30
0.0000000000
10
12.0143106703
20
-20.4312069718
30
0.0000000000
10
12.0144316996
20
-20.3754795565
30
0.0000000000
10
12.0144633578
20
-20.3488065955
30
0.0000000000
11
12.0024862038
21
-21.0012123987
31
0.0000000000
11
12.0068008839
21
-20.9514799726
31
0.0000000000
11
12.0083704003
21
-20.9079275686
31
0.0000000000
11
12.0098738251
21
-20.8493884278
31
0.0000000000
11
12.0112313437
21
-20.7773431204
31
0.0000000000
11
12.0123775464
21
-20.6948718977
31
0.0000000000
11
12.0132717610
21
-20.6061905674
31
0.0000000000
11
12.0139027626
21
-20.5159866187
31
0.0000000000
11
12.0142870849
21
-20.4288253407
31
0.0000000000
11
12.0144633578
21
-20.3488065955
31
0.0000000000
0
SPLINE
5
32B
100
AcDbEntity
8
0
100
AcDbSpline
62
9
6
CONTINUOUS
70
0
71
3
72
11
73
7
74
5
42
0.0000001000
43
0.0000001000
44
0.0000000001
12
0.1999131865
22
-0.7789936862
32
0.0000000000
13
0.8042359993
23
-0.0009501350
33
0.0000000000
40
0.0000000000
40
0.0000000000
40
0.0000000000
40
0.0000000000
40
0.0845721394
40
0.3023924218
40
0.6232973410
40
1.0000000000
40
1.0000000000
40
1.0000000000
40
1.0000000000
10
12.0144633578
20
-20.3488065955
30
0.0000000000
10
12.0200990531
20
-20.3707669831
30
0.0000000000
10
12.1321584753
20
-20.3654282388
30
0.0000000000
10
12.2714242616
20
-20.3960418319
30
0.0000000000
10
12.5301306332
20
-20.3981144526
30
0.0000000000
10
12.7133555675
20
-20.4029588090
30
0.0000000000
10
12.8143415140
20
-20.4030781151
30
0.0000000000
11
12.0144633578
21
-20.3488065955
31
0.0000000000
11
12.0792995557
21
-20.3693600527
31
0.0000000000
11
12.2536030457
21
-20.3868525529
31
0.0000000000
11
12.5114154036
21
-20.3986789977
31
0.0000000000
11
12.8143415140
21
-20.4030781151
31
0.0000000000
0
SPLINE
5
32C
100
AcDbEntity
8
0
100
AcDbSpline
62
9
6
CONTINUOUS
70
0
71
3
72
8
73
4
74
2
42
0.0000001000
43
0.0000001000
44
0.0000000001
12
0.3767993634
22
-0.0001046543
32
0.0000000000
13
0.3763749775
23
-0.0312882074
33
0.0000000000
40
0.0000000000
40
0.0000000000
40
0.0000000000
40
0.0000000000
40
1.0000000000
40
1.0000000000
40
1.0000000000
40
1.0000000000
10
25.1023201320
20
-8.4895430340
30
0.0000000000
10
25.2279199198
20
-8.4895779187
30
0.0000000000
10
25.3537031149
20
-8.4948316234
30
0.0000000000
10
25.4791614407
20
-8.5052610258
30
0.0000000000
11
25.1023201320
21
-8.4895430340
31
0.0000000000
11
25.4791614407
21
-8.5052610258
31
0.0000000000
0
SPLINE
5
32D
100
AcDbEntity
8
0
100
AcDbSpline
62
9
6
CONTINUOUS
70
0
71
3
72
11
73
7
74
5
42
0.0000001000
43
0.0000001000
44
0.0000000001
12
3.9242238851
22
-0.3262223527
32
0.0000000000
13
2.3031478058
23
-3.1946902924
33
0.0000000000
40
0.0000000000
40
0.0000000000
40
0.0000000000
40
0.0000000000
40
0.1883838940
40
0.4728624193
40
0.7560857935
40
1.0000000000
40
1.0000000000
40
1.0000000000
40
1.0000000000
10
25.4791614407
20
-8.5052610258
30
0.0000000000
10
25.7255816328
20
-8.5257460382
30
0.0000000000
10
26.3409750063
20
-8.6272857555
30
0.0000000000
10
27.2735334516
20
-8.9875109366
30
0.0000000000
10
28.1514664708
20
-9.6054473731
30
0.0000000000
10
28.6153413304
20
-10.1241353741
30
0.0000000000
10
28.8025981536
20
-10.3838788234
30
0.0000000000
11
25.4791614407
21
-8.5052610258
31
0.0000000000
11
26.2108105508
21
-8.6262916400
31
0.0000000000
11
27.2534571194
21
-9.0287269361
31
0.0000000000
11
28.1632912549
21
-9.6692502818
31
0.0000000000
11
28.8025981536
21
-10.3838788234
31
0.0000000000
0
SPLINE
5
32E
100
AcDbEntity
8
0
100
AcDbSpline
62
9
6
CONTINUOUS
70
0
71
3
72
8
73
4
74
2
42
0.0000001000
43
0.0000001000
44
0.0000000001
12
0.0885709613
22
-0.1228565486
32
0.0000000000
13
0.0844322881
23
-0.1257372573
33
0.0000000000
40
0.0000000000
40
0.0000000000
40
0.0000000000
40
0.0000000000
40
1.0000000000
40
1.0000000000
40
1.0000000000
40
1.0000000000
10
28.8025981536
20
-10.3838788234
30
0.0000000000
10
28.8321218074
20
-10.4248310062
30
0.0000000000
10
28.8609647317
20
-10.4662738594
30
0.0000000000
10
28.8891088277
20
-10.5081862785
30
0.0000000000
11
28.8025981536
21
-10.3838788234
31
0.0000000000
11
28.8891088277
21
-10.5081862785
31
0.0000000000
0
SPLINE
5
32F
100
AcDbEntity
8
0
100
AcDbSpline
62
9
6
CONTINUOUS
70
0
71
3
72
8
73
4
74
2
42
0.0000001000
43
0.0000001000
44
0.0000000001
12
0.0224214729
22
-0.0333902417
32
0.0000000000
13
0.0221250750
23
-0.0335875238
33
0.0000000000
40
0.0000000000
40
0.0000000000
40
0.0000000000
40
0.0000000000
40
1.0000000000
40
1.0000000000
40
1.0000000000
40
1.0000000000
10
28.8891088277
20
-10.5081862785
30
0.0000000000
10
28.8965826520
20
-10.5193163590
30
0.0000000000
10
28.9040071951
20
-10.5304795533
30
0.0000000000
10
28.9113822201
20
-10.5416753946
30
0.0000000000
11
28.8891088277
21
-10.5081862785
31
0.0000000000
11
28.9113822201
21
-10.5416753946
31
0.0000000000
0
SPLINE
5
330
100
AcDbEntity
8
0
100
AcDbSpline
62
9
6
CONTINUOUS
70
0
71
3
72
8
73
4
74
2
42
0.0000001000
43
0.0000001000
44
0.0000000001
12
0.0553383928
22
-0.0840078322
32
0.0000000000
13
0.0534686223
23
-0.0852113267
33
0.0000000000
40
0.0000000000
40
0.0000000000
40
0.0000000000
40
0.0000000000
40
1.0000000000
40
1.0000000000
40
1.0000000000
40
1.0000000000
10
28.9113822201
20
-10.5416753946
30
0.0000000000
10
28.9298283510
20
-10.5696780053
30
0.0000000000
10
28.9479647063
20
-10.5978848496
30
0.0000000000
10
28.9657875804
20
-10.6262886252
30
0.0000000000
11
28.9113822201
21
-10.5416753946
31
0.0000000000
11
28.9657875804
21
-10.6262886252
31
0.0000000000
0
SPLINE
5
331
100
AcDbEntity
8
0
100
AcDbSpline
62
9
6
CONTINUOUS
70
0
71
3
72
8
73
4
74
2
42
0.0000001000
43
0.0000001000
44
0.0000000001
12
0.1225296446
22
-0.1952717897
32
0.0000000000
13
0.1125183600
23
-0.2012132770
33
0.0000000000
40
0.0000000000
40
0.0000000000
40
0.0000000000
40
0.0000000000
40
1.0000000000
40
1.0000000000
40
1.0000000000
40
1.0000000000
10
28.9657875804
20
-10.6262886252
30
0.0000000000
10
29.0066307953
20
-10.6913792217
30
0.0000000000
10
29.0458277599
20
-10.7575040053
30
0.0000000000
10
29.0833338799
20
-10.8245750977
30
0.0000000000
11
28.9657875804
21
-10.6262886252
31
0.0000000000
11
29.0833338799
21
-10.8245750977
31
0.0000000000
0
SPLINE
5
332
100
AcDbEntity
8
0
100
AcDbSpline
62
9
6
CONTINUOUS
70
0
71
3
72
8
73
4
74
2
42
0.0000001000
43
0.0000001000
44
0.0000000001
12
0.1771589222
22
-0.3168080951
32
0.0000000000
13
0.1514869595
23
-0.3298545641
33
0.0000000000
40
0.0000000000
40
0.0000000000
40
0.0000000000
40
0.0000000000
40
1.0000000000
40
1.0000000000
40
1.0000000000
40
1.0000000000
10
29.0833338799
20
-10.8245750977
30
0.0000000000
10
29.1423868540
20
-10.9301777961
30
0.0000000000
10
29.1972481977
20
-11.0381264086
30
0.0000000000
10
29.2477438508
20
-11.1480779299
30
0.0000000000
11
29.0833338799
21
-10.8245750977
31
0.0000000000
11
29.2477438508
21
-11.1480779299
31
0.0000000000
0
SPLINE
5
333
100
AcDbEntity
8
0
100
AcDbSpline
62
9
6
CONTINUOUS
70
0
71
3
72
8
73
4
74
2
42
0.0000001000
43
0.0000001000
44
0.0000000001
12
0.0137559000
22
-0.0299527194
32
0.0000000000
13
0.0135395199
23
-0.0300510412
33
0.0000000000
40
0.0000000000
40
0.0000000000
40
0.0000000000
40
0.0000000000
40
1.0000000000
40
1.0000000000
40
1.0000000000
40
1.0000000000
10
29.2477438508
20
-11.1480779299
30
0.0000000000
10
29.2523291508
20
-11.1580621697
30
0.0000000000
10
29.2568784527
20
-11.1680629249
30
0.0000000000
10
29.2613916260
20
-11.1780799386
30
0.0000000000
11
29.2477438508
21
-11.1480779299
31
0.0000000000
11
29.2613916260
21
-11.1780799386
31
0.0000000000
0
SPLINE
5
334
100
AcDbEntity
8
0
100
AcDbSpline
62
9
6
CONTINUOUS
70
0
71
3
72
8
73
4
74
2
42
0.0000001000
43
0.0000001000
44
0.0000000001
12
0.1436287589
22
-0.3187848441
32
0.0000000000
13
0.1187683276
23
-0.3288427312
33
0.0000000000
40
0.0000000000
40
0.0000000000
40
0.0000000000
40
0.0000000000
40
1.0000000000
40
1.0000000000
40
1.0000000000
40
1.0000000000
10
29.2613916260
20
-11.1780799386
30
0.0000000000
10
29.3092678789
20
-11.2843415534
30
0.0000000000
10
29.3530785169
20
-11.3924327771
30
0.0000000000
10
29.3926679595
20
-11.5020470208
30
0.0000000000
11
29.2613916260
21
-11.1780799386
31
0.0000000000
11
29.3926679595
21
-11.5020470208
31
0.0000000000
0
SPLINE
5
335
100
AcDbEntity
8
0
100
AcDbSpline
62
9
6
CONTINUOUS
70
0
71
3
72
10
73
6
74
4
42
0.0000001000
43
0.0000001000
44
0.0000000001
12
1.1345550215
22
-3.1413271483
32
0.0000000000
13
-1.2554501768
23
-3.0950205770
33
0.0000000000
40
0.0000000000
40
0.0000000000
40
0.0000000000
40
0.0000000000
40
0.3325650951
40
0.6674300956
40
1.0000000000
40
1.0000000000
40
1.0000000000
40
1.0000000000
10
29.3926679595
20
-11.5020470208
30
0.0000000000
10
29.5184390924
20
-11.8502789414
30
0.0000000000
10
29.6853508248
20
-12.5799998082
30
0.0000000000
10
29.6636155111
20
-13.7015699050
30
0.0000000000
10
29.4685536451
20
-14.4242778828
30
0.0000000000
10
29.3293786633
20
-14.7673814486
30
0.0000000000
11
29.3926679595
21
-11.5020470208
31
0.0000000000
11
29.6397330655
21
-12.5821650273
31
0.0000000000
11
29.6181159175
21
-13.6976327020
31
0.0000000000
11
29.3293786633
21
-14.7673814486
31
0.0000000000
0
SPLINE
5
336
100
AcDbEntity
8
0
100
AcDbSpline
62
9
6
CONTINUOUS
70
0
71
3
72
8
73
4
74
2
42
0.0000001000
43
0.0000001000
44
0.0000000001
12
-0.1397236299
22
-0.3444561301
32
0.0000000000
13
-0.1673268034
23
-0.3319441124
33
0.0000000000
40
0.0000000000
40
0.0000000000
40
0.0000000000
40
0.0000000000
40
1.0000000000
40
1.0000000000
40
1.0000000000
40
1.0000000000
10
29.3293786633
20
-14.7673814486
30
0.0000000000
10
29.2828041200
20
-14.8822001587
30
0.0000000000
10
29.2315283482
20
-14.9951141797
30
0.0000000000
10
29.1757527470
20
-15.1057622172
30
0.0000000000
11
29.3293786633
21
-14.7673814486
31
0.0000000000
11
29.1757527470
21
-15.1057622172
31
0.0000000000
0
SPLINE
5
337
100
AcDbEntity
8
0
100
AcDbSpline
62
9
6
CONTINUOUS
70
0
71
3
72
8
73
4
74
2
42
0.0000001000
43
0.0000001000
44
0.0000000001
12
-0.1688246155
22
-0.3349154828
32
0.0000000000
13
-0.1956885441
23
-0.3199618346
33
0.0000000000
40
0.0000000000
40
0.0000000000
40
0.0000000000
40
0.0000000000
40
1.0000000000
40
1.0000000000
40
1.0000000000
40
1.0000000000
10
29.1757527470
20
-15.1057622172
30
0.0000000000
10
29.1194778752
20
-15.2174007114
30
0.0000000000
10
29.0586222538
20
-15.3267324730
30
0.0000000000
10
28.9933927391
20
-15.4333864179
30
0.0000000000
11
29.1757527470
21
-15.1057622172
31
0.0000000000
11
28.9933927391
21
-15.4333864179
31
0.0000000000
0
SPLINE
5
338
100
AcDbEntity
8
0
100
AcDbSpline
62
9
6
CONTINUOUS
70
0
71
3
72
8
73
4
74
2
42
0.0000001000
43
0.0000001000
44
0.0000000001
12
-0.1939366958
22
-0.3170974637
32
0.0000000000
13
-0.2191082348
23
-0.3002333243
33
0.0000000000
40
0.0000000000
40
0.0000000000
40
0.0000000000
40
0.0000000000
40
1.0000000000
40
1.0000000000
40
1.0000000000
40
1.0000000000
10
28.9933927391
20
-15.4333864179
30
0.0000000000
10
28.9287471739
20
-15.5390855725
30
0.0000000000
10
28.8598056769
20
-15.6421546406
30
0.0000000000
10
28.7867695987
20
-15.7422324154
30
0.0000000000
11
28.9933927391
21
-15.4333864179
31
0.0000000000
11
28.7867695987
21
-15.7422324154
31
0.0000000000
0
SPLINE
5
339
100
AcDbEntity
8
0
100
AcDbSpline
62
9
6
CONTINUOUS
70
0
71
3
72
11
73
7
74
5
42
0.0000001000
43
0.0000001000
44
0.0000000001
12
-2.3388432481
22
-3.2048027963
32
0.0000000000
13
-3.9545537742
23
-0.2801471253
33
0.0000000000
40
0.0000000000
40
0.0000000000
40
0.0000000000
40
0.0000000000
40
0.2798952543
40
0.5617369634
40
0.8328081024
40
1.0000000000
40
1.0000000000
40
1.0000000000
40
1.0000000000
10
28.7867695987
20
-15.7422324154
30
0.0000000000
10
28.5685592234
20
-16.0412354466
30
0.0000000000
10
28.0572671463
20
-16.5877322483
30
0.0000000000
10
27.1254210501
20
-17.1906426904
30
0.0000000000
10
26.2198312958
20
-17.5048893567
30
0.0000000000
10
25.6443207214
20
-17.5876975139
30
0.0000000000
10
25.4239309381
20
-17.6033102904
30
0.0000000000
11
28.7867695987
21
-15.7422324154
31
0.0000000000
11
28.0299298504
21
-16.5511234408
31
0.0000000000
11
27.0934489105
21
-17.1571276525
31
0.0000000000
11
26.0798758710
21
-17.5087345703
31
0.0000000000
11
25.4239309381
21
-17.6033102904
31
0.0000000000
0
SPLINE
5
33A
100
AcDbEntity
8
0
100
AcDbSpline
62
9
6
CONTINUOUS
70
0
71
3
72
8
73
4
74
2
42
0.0000001000
43
0.0000001000
44
0.0000000001
12
-0.3213263983
22
-0.0227632931
32
0.0000000000
13
-0.3215846578
23
-0.0000534292
33
0.0000000000
40
0.0000000000
40
0.0000000000
40
0.0000000000
40
0.0000000000
40
1.0000000000
40
1.0000000000
40
1.0000000000
40
1.0000000000
10
25.4239309381
20
-17.6033102904
30
0.0000000000
10
25.3168221387
20
-17.6108980548
30
0.0000000000
10
25.2095150180
20
-17.6147120410
30
0.0000000000
10
25.1023201320
20
-17.6147298507
30
0.0000000000
11
25.4239309381
21
-17.6033102904
31
0.0000000000
11
25.1023201320
21
-17.6147298507
31
0.0000000000
0
SPLINE
5
33B
100
AcDbEntity
8
0
100
AcDbSpline
62
9
6
CONTINUOUS
70
0
71
3
72
10
73
6
74
4
42
0.0000001000
43
0.0000001000
44
0.0000000001
12
0.0481810144
22
40.5950798001
32
0.0000000000
13
-0.0481810599
23
40.5950798001
33
0.0000000000
40
0.0000000000
40
0.0000000000
40
0.0000000000
40
0.0000000000
40
0.3332171638
40
0.6667812410
40
1.0000000000
40
1.0000000000
40
1.0000000000
40
1.0000000000
10
12.0144633578
20
-20.3488065955
30
0.0000000000
10
12.0198149382
20
-15.8398141436
30
0.0000000000
10
12.0269407960
20
-6.8171302418
30
0.0000000000
10
12.0269408152
20
6.7145738187
30
0.0000000000
10
12.0198149688
20
15.7372793054
30
0.0000000000
10
12.0144633578
20
20.2462933423
30
0.0000000000
11
12.0144633578
21
-20.3488065955
31
0.0000000000
11
12.0251574805
21
-6.8218239395
31
0.0000000000
11
12.0251575047
21
6.7192459315
31
0.0000000000
11
12.0144633578
21
20.2462933423
31
0.0000000000
0
SPLINE
5
33C
100
AcDbEntity
8
0
100
AcDbSpline
62
9
6
CONTINUOUS
70
0
71
3
72
11
73
7
74
5
42
0.0000001000
43
0.0000001000
44
0.0000000001
12
0.1999126049
22
0.7789938362
32
0.0000000000
13
0.8042360000
23
0.0009501344
33
0.0000000000
40
0.0000000000
40
0.0000000000
40
0.0000000000
40
0.0000000000
40
0.0845721249
40
0.3023924036
40
0.6232973290
40
1.0000000000
40
1.0000000000
40
1.0000000000
40
1.0000000000
10
12.0144633578
20
20.2462933423
30
0.0000000000
10
12.0200990358
20
20.2682537303
30
0.0000000000
10
12.1321584845
20
20.2629149853
30
0.0000000000
10
12.2714242383
20
20.2935285801
30
0.0000000000
10
12.5301306292
20
20.2956011995
30
0.0000000000
10
12.7133555642
20
20.3004455562
30
0.0000000000
10
12.8143415140
20
20.3005648623
30
0.0000000000
11
12.0144633578
21
20.2462933423
31
0.0000000000
11
12.0792995434
21
20.2668467995
31
0.0000000000
11
12.2536030306
21
20.2843393000
31
0.0000000000
11
12.5114153937
21
20.2961657449
31
0.0000000000
11
12.8143415140
21
20.3005648623
31
0.0000000000
0
SPLINE
5
33D
100
AcDbEntity
8
0
100
AcDbSpline
62
9
6
CONTINUOUS
70
0
71
3
72
17
73
13
74
11
42
0.0000001000
43
0.0000001000
44
0.0000000001
12
-0.0007744349
22
1.3981498230
32
0.0000000000
13
-0.5913682189
23
1.2669282367
33
0.0000000000
40
0.0000000000
40
0.0000000000
40
0.0000000000
40
0.0000000000
40
0.1135761898
40
0.2403428021
40
0.3742510448
40
0.5084824351
40
0.6358036238
40
0.7493284710
40
0.8435459074
40
0.9151956898
40
0.9636389167
40
1.0000000000
40
1.0000000000
40
1.0000000000
40
1.0000000000
10
12.8143415140
20
20.3005648663
30
0.0000000000
10
12.8143121949
20
20.3534970428
30
0.0000000000
10
12.8142012934
20
20.4655086609
30
0.0000000000
10
12.8138650854
20
20.6399286204
30
0.0000000000
10
12.8132936661
20
20.8239716771
30
0.0000000000
10
12.8125102362
20
21.0082825893
30
0.0000000000
10
12.8113550951
20
21.1830565754
30
0.0000000000
10
12.8103864268
20
21.3392946109
30
0.0000000000
10
12.8080960713
20
21.4692531372
30
0.0000000000
10
12.8087214785
20
21.5697304670
30
0.0000000000
10
12.8023168771
20
21.6412594692
30
0.0000000000
10
12.8095319563
20
21.6832216738
30
0.0000000000
10
12.8023643600
20
21.6985773016
30
0.0000000000
11
12.8143415140
21
20.3005648663
31
0.0000000000
11
12.8141839298
21
20.4593613421
31
0.0000000000
11
12.8138376800
21
20.6365997476
31
0.0000000000
11
12.8132584178
21
20.8238226661
31
0.0000000000
11
12.8124208595
21
21.0114964205
31
0.0000000000
11
12.8113253096
21
21.1895071741
31
0.0000000000
11
12.8100013964
21
21.3482264220
31
0.0000000000
11
12.8085059719
21
21.4799480458
31
0.0000000000
11
12.8069145372
21
21.5801125499
31
0.0000000000
11
12.8053094350
21
21.6478244277
31
0.0000000000
11
12.8023643600
21
21.6985773016
31
0.0000000000
0
SPLINE
5
33E
100
AcDbEntity
8
0
100
AcDbSpline
62
9
6
CONTINUOUS
70
0
71
3
72
16
73
12
74
10
42
0.0000001000
43
0.0000001000
44
0.0000000001
12
-0.0007746984
22
0.6526634483
32
0.0000000000
13
-0.4614808284
23
0.4615253211
33
0.0000000000
40
0.0000000000
40
0.0000000000
40
0.0000000000
40
0.0000000000
40
0.1135415261
40
0.2402838530
40
0.3741808778
40
0.5084002892
40
0.6357020908
40
0.7492004543
40
0.8433930165
40
0.9150330426
40
1.0000000000
40
1.0000000000
40
1.0000000000
40
1.0000000000
10
12.0144633578
20
20.2462933423
30
0.0000000000
10
12.0144340377
20
20.2709948103
30
0.0000000000
10
12.0143243028
20
20.3232700108
30
0.0000000000
10
12.0139820562
20
20.4046720650
30
0.0000000000
10
12.0134342920
20
20.4905819493
30
0.0000000000
10
12.0125625522
20
20.5765726145
30
0.0000000000
10
12.0117087719
20
20.6582582843
30
0.0000000000
10
12.0097975348
20
20.7307983399
30
0.0000000000
10
12.0101637568
20
20.7924773707
30
0.0000000000
10
12.0031508696
20
20.8443136856
30
0.0000000000
10
12.0155564111
20
20.8856276780
30
0.0000000000
10
12.0024862038
20
20.8986991454
30
0.0000000000
11
12.0144633578
21
20.2462933423
31
0.0000000000
11
12.0143057607
21
20.3203976308
31
0.0000000000
11
12.0139594741
21
20.4031170484
31
0.0000000000
11
12.0133800839
21
20.4905048833
31
0.0000000000
11
12.0125423401
21
20.5781010429
31
0.0000000000
11
12.0114465978
21
20.6611791086
31
0.0000000000
11
12.0101225749
21
20.7352435605
31
0.0000000000
11
12.0086271746
21
20.7967014558
31
0.0000000000
11
12.0070358895
21
20.8434312291
31
0.0000000000
11
12.0024862038
21
20.8986991454
31
0.0000000000
0
SPLINE
5
33F
100
AcDbEntity
8
0
100
AcDbSpline
62
9
6
CONTINUOUS
70
0
71
3
72
11
73
7
74
5
42
0.0000001000
43
0.0000001000
44
0.0000000001
12
0.0003802071
22
1.2482731391
32
0.0000000000
13
1.2482731391
23
0.0003802071
33
0.0000000000
40
0.0000000000
40
0.0000000000
40
0.0000000000
40
0.0000000000
40
0.2499897029
40
0.5000000000
40
0.7500102971
40
1.0000000000
40
1.0000000000
40
1.0000000000
40
1.0000000000
10
12.0024862038
20
20.8986991454
30
0.0000000000
10
12.0025178865
20
21.0027176225
30
0.0000000000
10
12.0441963552
20
21.2130248835
30
0.0000000000
10
12.2222174664
20
21.4788460390
30
0.0000000000
10
12.4880386219
20
21.6568671502
30
0.0000000000
10
12.6983458829
20
21.6985456189
30
0.0000000000
10
12.8023643600
20
21.6985773016
30
0.0000000000
11
12.0024862038
21
20.8986991454
31
0.0000000000
11
12.0634432135
21
21.2047430053
31
0.0000000000
11
12.2368512089
21
21.4642122965
31
0.0000000000
11
12.4963205001
21
21.6376202919
31
0.0000000000
11
12.8023643600
21
21.6985773016
31
0.0000000000
0
SPLINE
5
340
100
AcDbEntity
8
0
100
AcDbSpline
62
9
6
CONTINUOUS
70
0
71
3
72
11
73
7
74
5
42
0.0000001000
43
0.0000001000
44
0.0000000001
12
-0.0003802071
22
-1.2482731391
32
0.0000000000
13
-1.2482731391
23
-0.0003802071
33
0.0000000000
40
0.0000000000
40
0.0000000000
40
0.0000000000
40
0.0000000000
40
0.2499897029
40
0.5000000000
40
0.7500102971
40
1.0000000000
40
1.0000000000
40
1.0000000000
40
1.0000000000
10
34.0021540602
20
-21.0012123987
30
0.0000000000
10
34.0021223776
20
-21.1052308757
30
0.0000000000
10
33.9604439088
20
-21.3155381368
30
0.0000000000
10
33.7824227976
20
-21.5813592922
30
0.0000000000
10
33.5166016422
20
-21.7593804034
30
0.0000000000
10
33.3062943811
20
-21.8010588722
30
0.0000000000
10
33.2022759041
20
-21.8010905548
30
0.0000000000
11
34.0021540602
21
-21.0012123987
31
0.0000000000
11
33.9411970505
21
-21.3072562586
31
0.0000000000
11
33.7677890551
21
-21.5667255497
31
0.0000000000
11
33.5083197640
21
-21.7401335451
31
0.0000000000
11
33.2022759041
21
-21.8010905548
31
0.0000000000
0
SPLINE
5
341
100
AcDbEntity
8
0
100
AcDbSpline
62
9
6
CONTINUOUS
70
0
71
3
72
11
73
7
74
5
42
0.0000001000
43
0.0000001000
44
0.0000000001
12
-0.1999147830
22
-0.7789932714
32
0.0000000000
13
-0.8042359944
23
-0.0009501327
33
0.0000000000
40
0.0000000000
40
0.0000000000
40
0.0000000000
40
0.0000000000
40
0.0845721753
40
0.3023924673
40
0.6232973710
40
1.0000000000
40
1.0000000000
40
1.0000000000
40
1.0000000000
10
33.9901769062
20
-20.3488065955
30
0.0000000000
10
33.9845411635
20
-20.3707669807
30
0.0000000000
10
33.8724818123
20
-20.3654282250
30
0.0000000000
10
33.7332159408
20
-20.3960418144
30
0.0000000000
10
33.4745096203
20
-20.3981144307
30
0.0000000000
10
33.2912846879
20
-20.4029587854
30
0.0000000000
10
33.1902987501
20
-20.4030780912
30
0.0000000000
11
33.9901769062
21
-20.3488065955
31
0.0000000000
11
33.9253406761
21
-20.3693600448
31
0.0000000000
11
33.7510371786
21
-20.3868525374
31
0.0000000000
11
33.4932248344
21
-20.3986789765
31
0.0000000000
11
33.1902987501
21
-20.4030780912
31
0.0000000000
0
SPLINE
5
342
100
AcDbEntity
8
0
100
AcDbSpline
62
9
6
CONTINUOUS
70
0
71
3
72
17
73
13
74
11
42
0.0000001000
43
0.0000001000
44
0.0000000001
12
0.0007745653
22
-1.3981515322
32
0.0000000000
13
0.5910154755
23
-1.2670947142
33
0.0000000000
40
0.0000000000
40
0.0000000000
40
0.0000000000
40
0.0000000000
40
0.1204486015
40
0.2524000115
40
0.3896245806
40
0.5251524944
40
0.6517721446
40
0.7629194820
40
0.8536975671
40
0.9216169752
40
0.9667804414
40
1.0000000000
40
1.0000000000
40
1.0000000000
40
1.0000000000
10
33.1902987501
20
-20.4030781195
30
0.0000000000
10
33.1903298485
20
-20.4592132517
30
0.0000000000
10
33.1904494555
20
-20.5768442604
30
0.0000000000
10
33.1908133095
20
-20.7584292943
30
0.0000000000
10
33.1914228195
20
-20.9470385332
30
0.0000000000
10
33.1922462742
20
-21.1331727544
30
0.0000000000
10
33.1934395085
20
-21.3071153205
30
0.0000000000
10
33.1944357324
20
-21.4603154228
30
0.0000000000
10
33.1967067677
20
-21.5858294400
30
0.0000000000
10
33.1961793114
20
-21.6814106203
30
0.0000000000
10
33.2021902483
20
-21.7482971150
30
0.0000000000
10
33.1957314796
20
-21.7870597791
30
0.0000000000
10
33.2022759041
20
-21.8010905548
30
0.0000000000
11
33.1902987501
21
-20.4030781195
31
0.0000000000
11
33.1904704440
21
-20.5714834545
31
0.0000000000
11
33.1908453973
21
-20.7559711680
31
0.0000000000
11
33.1914637474
21
-20.9478309425
31
0.0000000000
11
33.1923441409
21
-21.1373174866
31
0.0000000000
11
33.1934778894
21
-21.3143473413
31
0.0000000000
11
33.1948268788
21
-21.4697423301
31
0.0000000000
11
33.1963277756
21
-21.5966549937
31
0.0000000000
11
33.1979020097
21
-21.6916035834
31
0.0000000000
11
33.1994675372
21
-21.7547295529
31
0.0000000000
11
33.2022759041
21
-21.8010905548
31
0.0000000000
0
SPLINE
5
343
100
AcDbEntity
8
0
100
AcDbSpline
62
9
6
CONTINUOUS
70
0
71
3
72
16
73
12
74
10
42
0.0000001000
43
0.0000001000
44
0.0000000001
12
0.0007746232
22
-0.6526670100
32
0.0000000000
13
0.4614529132
23
-0.4615582680
33
0.0000000000
40
0.0000000000
40
0.0000000000
40
0.0000000000
40
0.0000000000
40
0.1204033716
40
0.2522975980
40
0.3894603717
40
0.5249336387
40
0.6515179458
40
0.7626562014
40
0.8534502492
40
0.9214049460
40
1.0000000000
40
1.0000000000
40
1.0000000000
40
1.0000000000
10
33.9901769062
20
-20.3488065955
30
0.0000000000
10
33.9902079953
20
-20.3750010317
30
0.0000000000
10
33.9903262426
20
-20.4298902218
30
0.0000000000
10
33.9906965707
20
-20.5146165839
30
0.0000000000
10
33.9912807565
20
-20.6026314160
30
0.0000000000
10
33.9921955176
20
-20.6894479432
30
0.0000000000
10
33.9930824727
20
-20.7707393450
30
0.0000000000
10
33.9950145427
20
-20.8418695319
30
0.0000000000
10
33.9947049012
20
-20.9014754245
30
0.0000000000
10
34.0014096277
20
-20.9505087747
30
0.0000000000
10
33.9900647546
20
-20.9891203330
30
0.0000000000
10
34.0021540602
20
-21.0012123987
30
0.0000000000
11
33.9901769062
21
-20.3488065955
31
0.0000000000
11
33.9903485637
21
-20.4273897719
31
0.0000000000
11
33.9907234514
21
-20.5134720266
31
0.0000000000
11
33.9913416627
21
-20.6029915724
31
0.0000000000
11
33.9922218580
21
-20.6914061856
31
0.0000000000
11
33.9933554050
21
-20.7740158683
31
0.0000000000
11
33.9947042749
21
-20.8465396496
31
0.0000000000
11
33.9962051991
21
-20.9057789599
31
0.0000000000
11
33.9977795927
21
-20.9501028273
31
0.0000000000
11
34.0021540602
21
-21.0012123987
31
0.0000000000
0
SPLINE
5
344
100
AcDbEntity
8
ASSI
100
AcDbSpline
62
9
6
CONTINUOUS
70
0
71
3
72
9
73
5
74
3
42
0.0000001000
43
0.0000001000
44
0.0000000001
12
0.0072109021
22
-0.1888273544
32
0.3152806485
13
0.0091098542
23
-0.2342336780
33
0.2609015227
40
0.0000000000
40
0.0000000000
40
0.0000000000
40
0.0000000000
40
0.9171757267
40
1.0000000000
40
1.0000000000
40
1.0000000000
40
1.0000000000
10
-18.5932456815
20
-11.5030695982
30
0.9519970000
10
-18.5910411268
20
-11.5607988868
30
1.0483862526
10
-18.5883764324
20
-11.6301135559
30
1.1432009929
10
-18.5853682765
20
-11.7075241094
30
1.2307750597
10
-18.5851167708
20
-11.7139908542
30
1.2379780527
11
-18.5932456815
21
-11.5030695982
31
0.9519970000
11
-18.5858642170
21
-11.6947567004
31
1.2162188728
11
-18.5851167708
21
-11.7139908542
31
1.2379780527
0
SPLINE
5
345
100
AcDbEntity
8
ASSI
100
AcDbSpline
62
9
6
CONTINUOUS
70
0
71
3
72
9
73
5
74
3
42
0.0000001000
43
0.0000001000
44
0.0000000001
12
0.0092882144
22
-0.2388196953
32
0.2660096648
13
0.0114306810
23
-0.2873966437
33
0.2168868325
40
0.0000000000
40
0.0000000000
40
0.0000000000
40
0.0000000000
40
0.8183295328
40
1.0000000000
40
1.0000000000
40
1.0000000000
40
1.0000000000
10
-18.5851167708
20
-11.7139908542
30
1.2379780527
10
-18.5825831641
20
-11.7791352574
30
1.3105392410
10
-18.5791947582
20
-11.8655960539
30
1.3929757434
10
-18.5754471973
20
-11.9600285543
30
1.4668860747
10
-18.5747549916
20
-11.9774323818
30
1.4800200521
11
-18.5851167708
21
-11.7139908542
31
1.2379780527
11
-18.5767969860
21
-11.9259804608
31
1.4397500268
11
-18.5747549916
21
-11.9774323818
31
1.4800200521
0
SPLINE
5
346
100
AcDbEntity
8
ASSI
100
AcDbSpline
62
9
6
CONTINUOUS
70
0
71
3
72
9
73
5
74
3
42
0.0000001000
43
0.0000001000
44
0.0000000001
12
0.0099695084
22
-0.2506590148
32
0.1891624031
13
0.0113863060
23
-0.2800188271
33
0.1446878705
40
0.0000000000
40
0.0000000000
40
0.0000000000
40
0.0000000000
40
0.8231102467
40
1.0000000000
40
1.0000000000
40
1.0000000000
40
1.0000000000
10
-18.5747549916
20
-11.9774323818
30
1.4800200521
10
-18.5720196568
20
-12.0462057163
30
1.5319205562
10
-18.5684805092
20
-12.1344679382
30
1.5894095734
10
-18.5647216863
20
-12.2270972386
30
1.6390493228
10
-18.5640503127
20
-12.2436080590
30
1.6475805901
11
-18.5747549916
21
-11.9774323818
31
1.4800200521
11
-18.5660446072
21
-12.1944635362
31
1.6212421933
11
-18.5640503127
21
-12.2436080590
31
1.6475805901
0
SPLINE
5
347
100
AcDbEntity
8
ASSI
100
AcDbSpline
62
9
6
CONTINUOUS
70
0
71
3
72
9
73
5
74
3
42
0.0000001000
43
0.0000001000
44
0.0000000001
12
0.0106408134
22
-0.2616852276
32
0.1352147594
13
0.0115504301
23
-0.2778823437
33
0.0917250150
40
0.0000000000
40
0.0000000000
40
0.0000000000
40
0.0000000000
40
0.9143846050
40
1.0000000000
40
1.0000000000
40
1.0000000000
40
1.0000000000
10
-18.5640503127
20
-12.2436080590
30
1.6475805901
10
-18.5608070474
20
-12.3233683735
30
1.6887933549
10
-18.5570948222
20
-12.4138034747
30
1.7274974155
10
-18.5532553971
20
-12.5062624170
30
1.7587129347
10
-18.5529257656
20
-12.5141927525
30
1.7613306259
11
-18.5640503127
21
-12.2436080590
31
1.6475805901
11
-18.5539118925
21
-12.4904454340
31
1.7533129857
11
-18.5529257656
21
-12.5141927525
31
1.7613306259
0
SPLINE
5
348
100
AcDbEntity
8
ASSI
100
AcDbSpline
62
9
6
CONTINUOUS
70
0
71
3
72
8
73
4
74
2
42
0.0000001000
43
0.0000001000
44
0.0000000001
12
0.0111604762
22
-0.2685007601
32
0.0886282875
13
0.0117982573
23
-0.2777660831
33
0.0469492230
40
0.0000000000
40
0.0000000000
40
0.0000000000
40
0.0000000000
40
1.0000000000
40
1.0000000000
40
1.0000000000
40
1.0000000000
10
-18.5529257656
20
-12.5141927525
30
1.7613306259
10
-18.5492056068
20
-12.6036930059
30
1.7908733884
10
-18.5453685676
20
-12.6950307771
30
1.8134314781
10
-18.5414358151
20
-12.7876194714
30
1.8290812191
11
-18.5529257656
21
-12.5141927525
31
1.7613306259
11
-18.5414358151
21
-12.7876194714
31
1.8290812191
0
SPLINE
5
349
100
AcDbEntity
8
ASSI
100
AcDbSpline
62
9
6
CONTINUOUS
70
0
71
3
72
9
73
5
74
3
42
0.0000001000
43
0.0000001000
44
0.0000000001
12
0.0113929901
22
-0.2682248865
32
0.0453365287
13
0.0121698505
23
-0.2804424183
33
0.0051674869
40
0.0000000000
40
0.0000000000
40
0.0000000000
40
0.0000000000
40
0.0555306414
40
1.0000000000
40
1.0000000000
40
1.0000000000
40
1.0000000000
10
-18.5414358151
20
-12.7876194714
30
1.8290812191
10
-18.5412249284
20
-12.7925843714
30
1.8299204079
10
-18.5374223089
20
-12.8820574413
30
1.8446748613
10
-18.5335314972
20
-12.9726676412
30
1.8529912314
10
-18.5297001469
20
-13.0609573982
30
1.8546180758
11
-18.5414358151
21
-12.7876194714
31
1.8290812191
11
-18.5408023327
21
-12.8025248719
31
1.8315392036
11
-18.5297001469
21
-13.0609573982
31
1.8546180758
0
SPLINE
5
34A
100
AcDbEntity
8
ASSI
100
AcDbSpline
62
9
6
CONTINUOUS
70
0
71
3
72
8
73
4
74
2
42
0.0000001000
43
0.0000001000
44
0.0000000001
12
0.0029011908
22
-0.0668551319
32
0.0012318857
13
0.0029648112
23
-0.0679733727
33
-0.0011721006
40
0.0000000000
40
0.0000000000
40
0.0000000000
40
0.0000000000
40
1.0000000000
40
1.0000000000
40
1.0000000000
40
1.0000000000
10
-18.5297001469
20
-13.0609573982
30
1.8546180758
10
-18.5287330833
20
-13.0832424422
30
1.8550287043
10
-18.5277560429
20
-13.1057002162
30
1.8550425665
10
-18.5267677725
20
-13.1283580071
30
1.8546518663
11
-18.5297001469
21
-13.0609573982
31
1.8546180758
11
-18.5267677725
21
-13.1283580071
31
1.8546518663
0
SPLINE
5
34B
100
AcDbEntity
8
ASSI
100
AcDbSpline
62
9
6
CONTINUOUS
70
0
71
3
72
8
73
4
74
2
42
0.0000001000
43
0.0000001000
44
0.0000000001
12
-0.0028890086
22
0.0662445196
32
-0.0000023102
13
-0.0028261152
23
0.0651251848
33
0.0022517463
40
0.0000000000
40
0.0000000000
40
0.0000000000
40
0.0000000000
40
1.0000000000
40
1.0000000000
40
1.0000000000
40
1.0000000000
10
-18.5268457714
20
-13.1265696266
30
-1.8721632496
10
-18.5278087743
20
-13.1044881201
30
-1.8721640197
10
-18.5287607213
20
-13.0826055943
30
-1.8717856310
10
-18.5297027597
20
-13.0608971993
30
-1.8710350489
11
-18.5268457714
21
-13.1265696266
31
-1.8721632496
11
-18.5297027597
21
-13.0608971993
31
-1.8710350489
0
SPLINE
5
34C
100
AcDbEntity
8
ASSI
100
AcDbSpline
62
9
6
CONTINUOUS
70
0
71
3
72
9
73
5
74
3
42
0.0000001000
43
0.0000001000
44
0.0000000001
12
-0.0122146508
22
0.2814752165
32
0.0097321915
13
-0.0113815378
23
0.2679678486
33
0.0497631038
40
0.0000000000
40
0.0000000000
40
0.0000000000
40
0.0000000000
40
0.9651931280
40
1.0000000000
40
1.0000000000
40
1.0000000000
40
1.0000000000
10
-18.5297027597
20
-13.0608971993
30
-1.8710350489
10
-18.5336325920
20
-12.9703378844
30
-1.8679039008
10
-18.5375254897
20
-12.8796523981
30
-1.8579491753
10
-18.5413226923
20
-12.7902832414
30
-1.8415845673
10
-18.5414547442
20
-12.7871742005
30
-1.8410072013
11
-18.5297027597
21
-13.0608971993
31
-1.8710350489
11
-18.5410582389
21
-12.7965061577
31
-1.8427160033
11
-18.5414547442
21
-12.7871742005
31
-1.8410072013
0
SPLINE
5
34D
100
AcDbEntity
8
ASSI
100
AcDbSpline
62
9
6
CONTINUOUS
70
0
71
3
72
8
73
4
74
2
42
0.0000001000
43
0.0000001000
44
0.0000000001
12
-0.0118185670
22
0.2782572981
32
0.0516739112
13
-0.0111230138
23
0.2676016112
33
0.0931000636
40
0.0000000000
40
0.0000000000
40
0.0000000000
40
0.0000000000
40
1.0000000000
40
1.0000000000
40
1.0000000000
40
1.0000000000
10
-18.5414547442
20
-12.7871742005
30
-1.8410072013
10
-18.5453942665
20
-12.6944217678
30
-1.8237825643
10
-18.5492298033
20
-12.6031110983
30
-1.7996467938
10
-18.5529374746
20
-12.5139105612
30
-1.7686134393
11
-18.5414547442
21
-12.7871742005
31
-1.8410072013
11
-18.5529374746
21
-12.5139105612
31
-1.7686134393
0
SPLINE
5
34E
100
AcDbEntity
8
ASSI
100
AcDbSpline
62
9
6
CONTINUOUS
70
0
71
3
72
9
73
5
74
3
42
0.0000001000
43
0.0000001000
44
0.0000000001
12
-0.0115499274
22
0.2778724573
32
0.0966733471
13
-0.0105862574
23
0.2603351865
33
0.1398951472
40
0.0000000000
40
0.0000000000
40
0.0000000000
40
0.0000000000
40
0.1144064757
40
1.0000000000
40
1.0000000000
40
1.0000000000
40
1.0000000000
10
-18.5529374746
20
-12.5139105612
30
-1.7686134393
10
-18.5533779367
20
-12.5033137583
30
-1.7649267536
10
-18.5572121394
20
-12.4109499057
30
-1.7318514386
10
-18.5609054143
20
-12.3209468851
30
-1.6913406403
10
-18.5640304546
20
-12.2440965000
30
-1.6500438948
11
-18.5529374746
21
-12.5139105612
31
-1.7686134393
11
-18.5542534074
21
-12.4822106132
31
-1.7572613713
11
-18.5640304546
21
-12.2440965000
31
-1.6500438948
0
SPLINE
5
34F
100
AcDbEntity
8
ASSI
100
AcDbSpline
62
9
6
CONTINUOUS
70
0
71
3
72
9
73
5
74
3
42
0.0000001000
43
0.0000001000
44
0.0000000001
12
-0.0114316572
22
0.2811250953
32
0.1510669269
13
-0.0099715783
23
0.2507132684
33
0.1962835488
40
0.0000000000
40
0.0000000000
40
0.0000000000
40
0.0000000000
40
0.2075562333
40
1.0000000000
40
1.0000000000
40
1.0000000000
40
1.0000000000
10
-18.5640304546
20
-12.2440965000
30
-1.6500438948
10
-18.5648213585
20
-12.2246467447
30
-1.6395922673
10
-18.5685869475
20
-12.1318196599
30
-1.5875637968
10
-18.5721226679
20
-12.0436164240
30
-1.5276302805
10
-18.5747566396
20
-11.9773910351
30
-1.4757823889
11
-18.5640304546
21
-12.2440965000
31
-1.6500438948
11
-18.5663745988
21
-12.1863122581
31
-1.6176540545
11
-18.5747566396
21
-11.9773910351
31
-1.4757823889
0
SPLINE
5
350
100
AcDbEntity
8
ASSI
100
AcDbSpline
62
9
6
CONTINUOUS
70
0
71
3
72
9
73
5
74
3
42
0.0000001000
43
0.0000001000
44
0.0000000001
12
-0.0114665252
22
0.2883003987
32
0.2257105327
13
-0.0092551733
23
0.2379735428
33
0.2763157305
40
0.0000000000
40
0.0000000000
40
0.0000000000
40
0.0000000000
40
0.2045481068
40
1.0000000000
40
1.0000000000
40
1.0000000000
40
1.0000000000
10
-18.5747566396
20
-11.9773910351
30
-1.4757823889
10
-18.5755384583
20
-11.9577339349
30
-1.4603928349
10
-18.5792883207
20
-11.8632148503
30
-1.3832806599
10
-18.5826699478
20
-11.7769046817
30
-1.2973816819
10
-18.5851239629
20
-11.7138058466
30
-1.2241163916
11
-18.5747566396
21
-11.9773910351
31
-1.4757823889
11
-18.5770571059
21
-11.9194099957
31
-1.4284788969
11
-18.5851239629
21
-11.7138058466
31
-1.2241163916
0
SPLINE
5
351
100
AcDbEntity
8
ASSI
100
AcDbSpline
62
9
6
CONTINUOUS
70
0
71
3
72
9
73
5
74
3
42
0.0000001000
43
0.0000001000
44
0.0000000001
12
-0.0091802280
22
0.2360465115
32
0.2740782168
13
-0.0071283406
23
0.1866663325
33
0.3309937746
40
0.0000000000
40
0.0000000000
40
0.0000000000
40
0.0000000000
40
0.0990271071
40
1.0000000000
40
1.0000000000
40
1.0000000000
40
1.0000000000
10
-18.5851239629
20
-11.7138058466
30
-1.2241163916
10
-18.5854269933
20
-11.7060141789
30
-1.2150693339
10
-18.5884507444
20
-11.6281876366
30
-1.1229497625
10
-18.5911071196
20
-11.5590710618
30
-1.0232734729
10
-18.5932479335
20
-11.5030106266
30
-0.9238680000
11
-18.5851239629
21
-11.7138058466
31
-1.2241163916
11
-18.5860222574
21
-11.6906857174
31
-1.1967505606
11
-18.5932479335
21
-11.5030106266
31
-0.9238680000
0
SPLINE
5
352
100
AcDbEntity
8
ASSI
100
AcDbSpline
62
9
6
CONTINUOUS
70
0
71
3
72
13
73
9
74
7
42
0.0000001000
43
0.0000001000
44
0.0000000001
12
-0.0025483147
22
0.0741008422
32
0.0000000000
13
-0.0020486862
23
0.0599577241
33
0.0295120329
40
0.0000000000
40
0.0000000000
40
0.0000000000
40
0.0000000000
40
0.1435097278
40
0.2870194557
40
0.4305291835
40
0.5740389114
40
0.8610583671
40
1.0000000000
40
1.0000000000
40
1.0000000000
40
1.0000000000
10
-18.6345249636
20
-10.3655446266
30
-1.0687190001
10
-18.6346468662
20
-10.3619998961
30
-1.0687190001
10
-18.6348726622
20
-10.3554307318
30
-1.0684865899
10
-18.6352181741
20
-10.3453690507
30
-1.0674690535
10
-18.6355528530
20
-10.3356132899
30
-1.0658098324
10
-18.6359893197
20
-10.3228785865
30
-1.0627797369
10
-18.6364050325
20
-10.3107323166
30
-1.0585878265
10
-18.6367002964
20
-10.3020945216
30
-1.0546689920
10
-18.6367951790
20
-10.2993176469
30
-1.0533021753
11
-18.6345249636
21
-10.3655446266
31
-1.0687190001
11
-18.6348737985
21
-10.3553960760
31
-1.0683751030
11
-18.6352163686
21
-10.3454200375
31
-1.0673621061
11
-18.6355516315
21
-10.3356474121
31
-1.0657076073
11
-18.6358787515
21
-10.3261031790
31
-1.0634376407
11
-18.6365060067
21
-10.3077771577
31
-1.0571421724
11
-18.6367951790
21
-10.2993176469
31
-1.0533021753
0
SPLINE
5
353
100
AcDbEntity
8
ASSI
100
AcDbSpline
62
9
6
CONTINUOUS
70
0
71
3
72
16
73
12
74
10
42
0.0000001000
43
0.0000001000
44
0.0000000001
12
-0.0050074673
22
0.1465506758
32
0.0721342986
13
-0.0000002268
23
0.0000066934
33
0.1809818700
40
0.0000000000
40
0.0000000000
40
0.0000000000
40
0.0000000000
40
0.0605825199
40
0.2954368899
40
0.5302912600
40
0.6477184450
40
0.7651456300
40
0.8238592225
40
0.8825728150
40
0.9412864075
40
1.0000000000
40
1.0000000000
40
1.0000000000
40
1.0000000000
10
-18.6367951790
20
-10.2993176469
30
-1.0533021753
10
-18.6368963006
20
-10.2963581772
30
-1.0518454828
10
-18.6373815227
20
-10.2821510943
30
-1.0442512582
10
-18.6381957163
20
-10.2582595619
30
-1.0260570335
10
-18.6388799250
20
-10.2381246760
30
-0.9996008803
10
-18.6392629876
20
-10.2268377219
30
-0.9767438688
10
-18.6394419337
20
-10.2215612244
30
-0.9614455615
10
-18.6395445430
20
-10.2185346011
30
-0.9487179682
10
-18.6396007159
20
-10.2168773699
30
-0.9389685658
10
-18.6396351611
20
-10.2158610223
30
-0.9289140826
10
-18.6396430322
20
-10.2156287576
30
-0.9223505764
10
-18.6396430367
20
-10.2156286266
30
-0.9188085445
11
-18.6367951790
21
-10.2993176469
31
-1.0533021753
11
-18.6370939712
21
-10.2905692475
31
-1.0486240291
11
-18.6381522638
21
-10.2595231026
31
-1.0247947144
11
-18.6389619986
21
-10.2357046837
31
-0.9937456200
11
-18.6392508940
21
-10.2271932916
31
-0.9765413338
11
-18.6394642071
21
-10.2209041165
31
-0.9582229176
11
-18.6395410790
21
-10.2186367238
31
-0.9486840170
11
-18.6395970946
21
-10.2169841838
31
-0.9389177190
11
-18.6396313880
21
-10.2159723474
31
-0.9289489532
11
-18.6396430367
21
-10.2156286266
31
-0.9188085445
0
SPLINE
5
354
100
AcDbEntity
8
ASSI
100
AcDbSpline
62
9
6
CONTINUOUS
70
0
71
3
72
8
73
4
74
2
42
0.0000001000
43
0.0000001000
44
0.0000000001
12
-0.0028853210
22
0.0661599838
32
0.0000399068
13
-0.0028273900
23
0.0651547077
33
0.0021302524
40
0.0000000000
40
0.0000000000
40
0.0000000000
40
0.0000000000
40
1.0000000000
40
1.0000000000
40
1.0000000000
40
1.0000000000
10
-18.5268457278
20
-13.1265706263
30
-2.0171854890
10
-18.5278075015
20
-13.1045172984
30
-2.0171721867
10
-18.5287591205
20
-13.0826423152
30
-2.0168076172
10
-18.5297015839
20
-13.0609240792
30
-2.0160975331
11
-18.5268457278
21
-13.1265706263
31
-2.0171854890
11
-18.5297015839
21
-13.0609240792
31
-2.0160975331
0
SPLINE
5
355
100
AcDbEntity
8
ASSI
100
AcDbSpline
62
9
6
CONTINUOUS
70
0
71
3
72
8
73
4
74
2
42
0.0000001000
43
0.0000001000
44
0.0000000001
12
-0.0122373454
22
0.2819988257
32
0.0092200349
13
-0.0114512155
23
0.2696341527
33
0.0466555359
40
0.0000000000
40
0.0000000000
40
0.0000000000
40
0.0000000000
40
1.0000000000
40
1.0000000000
40
1.0000000000
40
1.0000000000
10
-18.5297015839
20
-13.0609240792
30
-2.0160975331
10
-18.5337806990
20
-12.9669244707
30
-2.0130241881
10
-18.5376883011
20
-12.8758611804
30
-2.0034783831
10
-18.5415053730
20
-12.7859831295
30
-1.9879265378
11
-18.5297015839
21
-13.0609240792
31
-2.0160975331
11
-18.5415053730
21
-12.7859831295
31
-1.9879265378
0
SPLINE
5
356
100
AcDbEntity
8
ASSI
100
AcDbSpline
62
9
6
CONTINUOUS
70
0
71
3
72
8
73
4
74
2
42
0.0000001000
43
0.0000001000
44
0.0000000001
12
-0.0117426746
22
0.2764969478
32
0.0478430242
13
-0.0111132762
23
0.2673685098
33
0.0856956152
40
0.0000000000
40
0.0000000000
40
0.0000000000
40
0.0000000000
40
1.0000000000
40
1.0000000000
40
1.0000000000
40
1.0000000000
10
-18.5415053730
20
-12.7859831295
30
-1.9879265378
10
-18.5454195978
20
-12.6938174802
30
-1.9719788630
10
-18.5492388711
20
-12.6028925569
30
-1.9497166492
10
-18.5529432965
20
-12.5137697203
30
-1.9211514442
11
-18.5415053730
21
-12.7859831295
31
-1.9879265378
11
-18.5529432965
21
-12.5137697203
31
-1.9211514442
0
SPLINE
5
357
100
AcDbEntity
8
ASSI
100
AcDbSpline
62
9
6
CONTINUOUS
70
0
71
3
72
9
73
5
74
3
42
0.0000001000
43
0.0000001000
44
0.0000000001
12
-0.0115072331
22
0.2768465129
32
0.0887334573
13
-0.0106640866
23
0.2622607138
33
0.1283560480
40
0.0000000000
40
0.0000000000
40
0.0000000000
40
0.0000000000
40
0.1980750359
40
1.0000000000
40
1.0000000000
40
1.0000000000
40
1.0000000000
10
-18.5529432965
20
-12.5137697203
30
-1.9211514442
10
-18.5537030617
20
-12.4954909260
30
-1.9152928166
10
-18.5575144161
20
-12.4035914618
30
-1.8843764486
10
-18.5611982596
20
-12.3137475771
30
-1.8467048314
10
-18.5640488587
20
-12.2436431060
30
-1.8123941917
11
-18.5529432965
21
-12.5137697203
31
-1.9211514442
11
-18.5552079273
21
-12.4591655946
31
-1.9027802616
11
-18.5640488587
21
-12.2436431060
31
-1.8123941917
0
SPLINE
5
358
100
AcDbEntity
8
ASSI
100
AcDbSpline
62
9
6
CONTINUOUS
70
0
71
3
72
9
73
5
74
3
42
0.0000001000
43
0.0000001000
44
0.0000000001
12
-0.0113013416
22
0.2779326559
32
0.1360262344
13
-0.0100832183
23
0.2535270180
33
0.1768336805
40
0.0000000000
40
0.0000000000
40
0.0000000000
40
0.0000000000
40
0.3394083604
40
1.0000000000
40
1.0000000000
40
1.0000000000
40
1.0000000000
10
-18.5640488587
20
-12.2436431060
30
-1.8123941917
10
-18.5653274486
20
-12.2121988836
30
-1.7970047113
10
-18.5690331737
20
-12.1207067136
30
-1.7492318879
10
-18.5725411349
20
-12.0330957985
30
-1.6944879812
10
-18.5747614315
20
-11.9772698557
30
-1.6555496976
11
-18.5640488587
21
-12.2436431060
31
-1.8123941917
11
-18.5678201748
21
-12.1505395817
31
-1.7637726649
11
-18.5747614315
21
-11.9772698557
31
-1.6555496976
0
SPLINE
5
359
100
AcDbEntity
8
ASSI
100
AcDbSpline
62
9
6
CONTINUOUS
70
0
71
3
72
9
73
5
74
3
42
0.0000001000
43
0.0000001000
44
0.0000000001
12
-0.0112160817
22
0.2820111261
32
0.1967011870
13
-0.0094637284
23
0.2433324993
33
0.2405423927
40
0.0000000000
40
0.0000000000
40
0.0000000000
40
0.0000000000
40
0.3915337460
40
1.0000000000
40
1.0000000000
40
1.0000000000
40
1.0000000000
10
-18.5747614315
20
-11.9772698557
30
-1.6555496976
10
-18.5762252563
20
-11.9404642315
30
-1.6298779801
10
-18.5798562274
20
-11.8487353539
30
-1.5612303059
10
-18.5831920044
20
-11.7634808804
30
-1.4852139425
10
-18.5851114575
20
-11.7141276757
30
-1.4364266329
11
-18.5747614315
21
-11.9772698557
31
-1.6555496976
11
-18.5790232989
21
-11.8696268470
31
-1.5749926077
11
-18.5851114575
21
-11.7141276757
31
-1.4364266329
0
SPLINE
5
35A
100
AcDbEntity
8
ASSI
100
AcDbSpline
62
9
6
CONTINUOUS
70
0
71
3
72
9
73
5
74
3
42
0.0000001000
43
0.0000001000
44
0.0000000001
12
-0.0110586501
22
0.2843413138
32
0.2810809907
13
-0.0087259578
23
0.2294193998
33
0.3423961694
40
0.0000000000
40
0.0000000000
40
0.0000000000
40
0.0000000000
40
0.3225737342
40
1.0000000000
40
1.0000000000
40
1.0000000000
40
1.0000000000
10
-18.5851114575
20
-11.7141276757
30
-1.4364266329
10
-18.5863005342
20
-11.6835539959
30
-1.4062035180
10
-18.5898555816
20
-11.5917730952
30
-1.3094952648
10
-18.5930017914
20
-11.5095748149
30
-1.2038852845
10
-18.5949721891
20
-11.4577699058
30
-1.1265692317
11
-18.5851114575
21
-11.7141276757
31
-1.4364266329
11
-18.5885515229
21
-11.6253388884
31
-1.3428861746
11
-18.5949721891
21
-11.4577699058
31
-1.1265692317
0
SPLINE
5
35B
100
AcDbEntity
8
ASSI
100
AcDbSpline
62
9
6
CONTINUOUS
70
0
71
3
72
10
73
6
74
4
42
0.0000001000
43
0.0000001000
44
0.0000000001
12
0.0000043654
22
-0.0000867425
32
-0.9732308699
13
-0.0217371647
23
0.4384356275
33
-0.8503751620
40
0.0000000000
40
0.0000000000
40
0.0000000000
40
0.0000000000
40
0.4719532850
40
0.9439065700
40
1.0000000000
40
1.0000000000
40
1.0000000000
40
1.0000000000
10
-18.4325176971
20
-15.1349186226
30
-0.0086660000
10
-18.4325170104
20
-15.1349322688
30
-0.1617725020
10
-18.4342312628
20
-15.1009267584
30
-0.4592571870
10
-18.4395467105
20
-14.9947629545
30
-0.7630399962
10
-18.4432768563
20
-14.9195894340
30
-0.9137901737
10
-18.4436832937
20
-14.9113916479
30
-0.9296903269
11
-18.4325176971
21
-15.1349186226
31
-0.0086660000
11
-18.4350570212
21
-15.0843759580
31
-0.4565716631
11
-18.4424947827
21
-14.9353448320
31
-0.8816533236
11
-18.4436832937
21
-14.9113916479
31
-0.9296903269
0
SPLINE
5
35C
100
AcDbEntity
8
ASSI
100
AcDbSpline
62
9
6
CONTINUOUS
70
0
71
3
72
9
73
5
74
3
42
0.0000001000
43
0.0000001000
44
0.0000000001
12
-0.0102043265
22
0.2058198638
32
-0.3992013629
13
-0.0140838993
23
0.2889220572
33
-0.3430688869
40
0.0000000000
40
0.0000000000
40
0.0000000000
40
0.0000000000
40
0.8858609324
40
1.0000000000
40
1.0000000000
40
1.0000000000
40
1.0000000000
10
-18.4436832937
20
-14.9113916479
30
-0.9296903269
10
-18.4466964984
20
-14.8506157225
30
-1.0475692907
10
-18.4507302291
20
-14.7688406526
30
-1.1735781797
10
-18.4553590628
20
-14.6739917524
30
-1.2891592794
10
-18.4558949038
20
-14.6629993210
30
-1.3022118004
11
-18.4436832937
21
-14.9113916479
31
-0.9296903269
11
-18.4543101541
21
-14.6954733602
31
-1.2626387911
11
-18.4558949038
21
-14.6629993210
31
-1.3022118004
0
SPLINE
5
35D
100
AcDbEntity
8
ASSI
100
AcDbSpline
62
9
6
CONTINUOUS
70
0
71
3
72
8
73
4
74
2
42
0.0000001000
43
0.0000001000
44
0.0000000001
12
-0.0112910627
22
0.2316288268
32
-0.2750383428
13
-0.0132620262
23
0.2768960336
33
-0.2295529168
40
0.0000000000
40
0.0000000000
40
0.0000000000
40
0.0000000000
40
1.0000000000
40
1.0000000000
40
1.0000000000
40
1.0000000000
10
-18.4558949038
20
-14.6629993210
30
-1.3022118004
10
-18.4596585914
20
-14.5857897120
30
-1.3938912480
10
-18.4637927988
20
-14.5003674841
30
-1.4786737607
10
-18.4682134742
20
-14.4080688062
30
-1.5551913997
11
-18.4558949038
21
-14.6629993210
31
-1.3022118004
11
-18.4682134742
21
-14.4080688062
31
-1.5551913997
0
SPLINE
5
35E
100
AcDbEntity
8
ASSI
100
AcDbSpline
62
9
6
CONTINUOUS
70
0
71
3
72
9
73
5
74
3
42
0.0000001000
43
0.0000001000
44
0.0000000001
12
-0.0118439194
22
0.2472875760
32
-0.2050068526
13
-0.0130152339
23
0.2768138387
33
-0.1629747688
40
0.0000000000
40
0.0000000000
40
0.0000000000
40
0.0000000000
40
0.1250205926
40
1.0000000000
40
1.0000000000
40
1.0000000000
40
1.0000000000
10
-18.4682134742
20
-14.4080688062
30
-1.5551913997
10
-18.4687070521
20
-14.3977634598
30
-1.5637347591
10
-18.4726835899
20
-14.3146485949
30
-1.6312462595
10
-18.4768811223
20
-14.2261682377
30
-1.6920440933
10
-18.4806771429
20
-14.1454327682
30
-1.7395772821
11
-18.4682134742
21
-14.4080688062
31
-1.5551913997
11
-18.4697048045
21
-14.3768974570
31
-1.5805104790
11
-18.4806771429
21
-14.1454327682
31
-1.7395772821
0
SPLINE
5
35F
100
AcDbEntity
8
ASSI
100
AcDbSpline
62
9
6
CONTINUOUS
70
0
71
3
72
9
73
5
74
3
42
0.0000001000
43
0.0000001000
44
0.0000000001
12
-0.0121075790
22
0.2575094259
32
-0.1516092525
13
-0.0127698867
23
0.2769048255
33
-0.1114985638
40
0.0000000000
40
0.0000000000
40
0.0000000000
40
0.0000000000
40
0.5688632147
40
1.0000000000
40
1.0000000000
40
1.0000000000
40
1.0000000000
10
-18.4806771429
20
-14.1454327682
30
-1.7395772821
10
-18.4829729950
20
-14.0966035549
30
-1.7683255911
10
-18.4870881170
20
-14.0086342038
30
-1.8152201732
10
-18.4913111771
20
-13.9174561020
30
-1.8553547408
10
-18.4931463664
20
-13.8776614833
30
-1.8713784516
11
-18.4806771429
21
-14.1454327682
31
-1.7395772821
11
-18.4876898074
21
-13.9954801302
31
-1.8194912196
11
-18.4931463664
21
-13.8776614833
31
-1.8713784516
0
SPLINE
5
360
100
AcDbEntity
8
ASSI
100
AcDbSpline
62
9
6
CONTINUOUS
70
0
71
3
72
9
73
5
74
3
42
0.0000001000
43
0.0000001000
44
0.0000000001
12
-0.0123282973
22
0.2725424251
32
-0.0678649627
13
-0.0123782381
23
0.2793924533
33
-0.0289789430
40
0.0000000000
40
0.0000000000
40
0.0000000000
40
0.0000000000
40
0.1411510372
40
1.0000000000
40
1.0000000000
40
1.0000000000
40
1.0000000000
10
-18.5053596289
20
-13.6102734425
30
-1.9580324556
10
-18.5059396795
20
-13.5974502272
30
-1.9612255255
10
-18.5100506240
20
-13.5064402428
30
-1.9829418271
10
-18.5141639301
20
-13.4144463211
30
-1.9982093539
10
-18.5177076090
20
-13.3344610149
30
-2.0065055323
11
-18.5053596289
21
-13.6102734425
31
-1.9580324556
11
-18.5071002547
21
-13.5717383162
31
-1.9672275996
11
-18.5177076090
21
-13.3344610149
31
-2.0065055323
0
SPLINE
5
361
100
AcDbEntity
8
ASSI
100
AcDbSpline
62
9
6
CONTINUOUS
70
0
71
3
72
8
73
4
74
2
42
0.0000001000
43
0.0000001000
44
0.0000000001
12
-0.0091081577
22
0.2055826121
32
-0.0213232918
13
-0.0091738834
23
0.2103557919
33
0.0000008379
40
0.0000000000
40
0.0000000000
40
0.0000000000
40
0.0000000000
40
1.0000000000
40
1.0000000000
40
1.0000000000
40
1.0000000000
10
-18.5177076090
20
-13.3344610149
30
-2.0065055323
10
-18.5207436616
20
-13.2659334775
30
-2.0136132962
10
-18.5237877667
20
-13.1966892236
30
-2.0171857683
10
-18.5268457278
20
-13.1265706263
30
-2.0171854890
11
-18.5177076090
21
-13.3344610149
31
-2.0065055323
11
-18.5268457278
21
-13.1265706263
31
-2.0171854890
0
SPLINE
5
362
100
AcDbEntity
8
ASSI
100
AcDbSpline
62
9
6
CONTINUOUS
70
0
71
3
72
8
73
4
74
2
42
0.0000001000
43
0.0000001000
44
0.0000000001
12
0.0091686976
22
-0.2102368818
32
0.0000046061
13
0.0090924855
23
-0.2052332281
33
-0.0212516658
40
0.0000000000
40
0.0000000000
40
0.0000000000
40
0.0000000000
40
1.0000000000
40
1.0000000000
40
1.0000000000
40
1.0000000000
10
-18.5268457496
20
-13.1265701266
30
1.9996825000
10
-18.5237895171
20
-13.1966490872
30
1.9996840354
10
-18.5207489191
20
-13.2658139464
30
1.9961203351
10
-18.5177180906
20
-13.3342250224
30
1.9890364465
11
-18.5268457496
21
-13.1265701266
31
1.9996825000
11
-18.5177180906
21
-13.3342250224
31
1.9890364465
0
SPLINE
5
363
100
AcDbEntity
8
ASSI
100
AcDbSpline
62
9
6
CONTINUOUS
70
0
71
3
72
9
73
5
74
3
42
0.0000001000
43
0.0000001000
44
0.0000000001
12
0.0124052517
22
-0.2800081269
32
-0.0289945210
13
0.0123368308
23
-0.2727252958
33
-0.0679564654
40
0.0000000000
40
0.0000000000
40
0.0000000000
40
0.0000000000
40
0.8675870395
40
1.0000000000
40
1.0000000000
40
1.0000000000
40
1.0000000000
10
-18.5177180906
20
-13.3342250224
30
1.9890364465
10
-18.5141305454
20
-13.4152021630
30
1.9806513563
10
-18.5100112387
20
-13.5073208836
30
1.9653015892
10
-18.5058971946
20
-13.5983897283
30
1.9434985042
10
-18.5053526758
20
-13.6104271829
30
1.9404990653
11
-18.5177180906
21
-13.3342250224
31
1.9890364465
11
-18.5069867924
21
-13.5742539300
31
1.9491593790
11
-18.5053526758
21
-13.6104271829
31
1.9404990653
0
SPLINE
5
364
100
AcDbEntity
8
ASSI
100
AcDbSpline
62
9
6
CONTINUOUS
70
0
71
3
72
9
73
5
74
3
42
0.0000001000
43
0.0000001000
44
0.0000000001
12
0.0127459469
22
-0.2763713433
32
-0.1113994535
13
0.0120543900
23
-0.2563816155
33
-0.1509086047
40
0.0000000000
40
0.0000000000
40
0.0000000000
40
0.0000000000
40
0.4428985438
40
1.0000000000
40
1.0000000000
40
1.0000000000
40
1.0000000000
10
-18.4931102100
20
-13.8784435791
30
1.8535568351
10
-18.4912284896
20
-13.9192450676
30
1.8371106165
10
-18.4870165805
20
-14.0101681518
30
1.7969652691
10
-18.4829194383
20
-14.0977443197
30
1.7501802945
10
-18.4806809323
20
-14.1453545101
30
1.7221564933
11
-18.4931102100
21
-13.8784435791
31
1.8535568351
11
-18.4875201053
21
-13.9991279426
31
1.8002475612
11
-18.4806809323
21
-14.1453545101
31
1.7221564933
0
SPLINE
5
365
100
AcDbEntity
8
ASSI
100
AcDbSpline
62
9
6
CONTINUOUS
70
0
71
3
72
9
73
5
74
3
42
0.0000001000
43
0.0000001000
44
0.0000000001
12
0.0130331503
22
-0.2771986090
32
-0.1631616808
13
0.0118542161
23
-0.2474971716
33
-0.2052317839
40
0.0000000000
40
0.0000000000
40
0.0000000000
40
0.0000000000
40
0.8869639578
40
1.0000000000
40
1.0000000000
40
1.0000000000
40
1.0000000000
10
-18.4806809323
20
-14.1453545101
30
1.7221564933
10
-18.4768276208
20
-14.2273095686
30
1.6739169833
10
-18.4726302903
20
-14.3157716136
30
1.6129824492
10
-18.4686532054
20
-14.3988875434
30
1.5453201732
10
-18.4682065542
20
-14.4082129103
30
1.5375873103
11
-18.4806809323
21
-14.1453545101
31
1.7221564933
11
-18.4695551274
21
-14.3800290438
31
1.5605307636
11
-18.4682065542
21
-14.4082129103
31
1.5375873103
0
SPLINE
5
366
100
AcDbEntity
8
ASSI
100
AcDbSpline
62
9
6
CONTINUOUS
70
0
71
3
72
8
73
4
74
2
42
0.0000001000
43
0.0000001000
44
0.0000000001
12
0.0132303563
22
-0.2762287907
32
-0.2290568700
13
0.0112765918
23
-0.2313385042
33
-0.2745666745
40
0.0000000000
40
0.0000000000
40
0.0000000000
40
0.0000000000
40
1.0000000000
40
1.0000000000
40
1.0000000000
40
1.0000000000
10
-18.4682065542
20
-14.4082129103
30
1.5375873103
10
-18.4637964354
20
-14.5002891738
30
1.4612350203
10
-18.4596693037
20
-14.5855675197
30
1.3766362804
10
-18.4559104397
20
-14.6626803544
30
1.2851140556
11
-18.4682065542
21
-14.4082129103
31
1.5375873103
11
-18.4559104397
21
-14.6626803544
31
1.2851140556
0
SPLINE
5
367
100
AcDbEntity
8
ASSI
100
AcDbSpline
62
9
6
CONTINUOUS
70
0
71
3
72
9
73
5
74
3
42
0.0000001000
43
0.0000001000
44
0.0000000001
12
0.0140902006
22
-0.2890594951
32
-0.3430734740
13
0.0102011008
23
-0.2057579441
33
-0.3987170954
40
0.0000000000
40
0.0000000000
40
0.0000000000
40
0.0000000000
40
0.1241275395
40
1.0000000000
40
1.0000000000
40
1.0000000000
40
1.0000000000
10
-18.4559104397
20
-14.6626803544
30
1.2851140556
10
-18.4553274458
20
-14.6746404357
30
1.2709191002
10
-18.4507020814
20
-14.7694111502
30
1.1552195258
10
-18.4466723342
20
-14.8511021149
30
1.0290308639
10
-18.4436940465
20
-14.9111746872
30
0.9126224227
11
-18.4559104397
21
-14.6626803544
31
1.2851140556
11
-18.4541883526
21
-14.6979662188
31
1.2420344810
11
-18.4436940465
21
-14.9111746872
31
0.9126224227
0
SPLINE
5
368
100
AcDbEntity
8
ASSI
100
AcDbSpline
62
9
6
CONTINUOUS
70
0
71
3
72
10
73
6
74
4
42
0.0000001000
43
0.0000001000
44
0.0000000001
12
0.0218366616
22
-0.4404491898
32
-0.8535010515
13
-0.0000010948
23
0.0000217541
33
-0.9708626217
40
0.0000000000
40
0.0000000000
40
0.0000000000
40
0.0000000000
40
0.0605546626
40
0.5302773313
40
1.0000000000
40
1.0000000000
40
1.0000000000
40
1.0000000000
10
-18.4436940465
20
-14.9111746872
30
0.9126224227
10
-18.4432532759
20
-14.9200651046
30
0.8953946000
10
-18.4394991778
20
-14.9957169813
30
0.7434021060
10
-18.4342099327
20
-15.1013486948
30
0.4391534078
10
-18.4325175257
20
-15.1349220288
30
0.1433460606
10
-18.4325176971
20
-15.1349186226
30
-0.0086660000
11
-18.4436940465
21
-14.9111746872
31
0.9126224227
11
-18.4424082621
21
-14.9370870514
31
0.8605593941
11
-18.4350290701
21
-15.0849332231
31
0.4366578262
11
-18.4325176971
21
-15.1349186226
31
-0.0086660000
0
SPLINE
5
369
100
AcDbEntity
8
ASSI
100
AcDbSpline
62
9
6
CONTINUOUS
70
0
71
3
72
9
73
5
74
3
42
0.0000001000
43
0.0000001000
44
0.0000000001
12
0.0088291464
22
-0.2321348502
32
0.3231392376
13
0.0109047056
23
-0.2804021626
33
0.2654116308
40
0.0000000000
40
0.0000000000
40
0.0000000000
40
0.0000000000
40
0.7136797678
40
1.0000000000
40
1.0000000000
40
1.0000000000
40
1.0000000000
10
-18.5949781366
20
-11.4576133264
30
1.1448198580
10
-18.5928777422
20
-11.5128366418
30
1.2216925033
10
-18.5897149376
20
-11.5954324062
30
1.3210599937
10
-18.5861846519
20
-11.6865313293
30
1.4120302490
10
-18.5851439060
20
-11.7132929334
30
1.4373611556
11
-18.5949781366
21
-11.4576133264
31
1.1448198580
11
-18.5881761105
21
-11.6350614824
31
1.3592486005
11
-18.5851439060
21
-11.7132929334
31
1.4373611556
0
SPLINE
5
36A
100
AcDbEntity
8
ASSI
100
AcDbSpline
62
9
6
CONTINUOUS
70
0
71
3
72
9
73
5
74
3
42
0.0000001000
43
0.0000001000
44
0.0000000001
12
0.0095400643
22
-0.2453119547
32
0.2321973745
13
0.0111877878
23
-0.2813042491
33
0.1896402357
40
0.0000000000
40
0.0000000000
40
0.0000000000
40
0.0000000000
40
0.6554855802
40
1.0000000000
40
1.0000000000
40
1.0000000000
40
1.0000000000
10
-18.5851439060
20
-11.7132929334
30
1.4373611556
10
-18.5830594478
20
-11.7668924164
30
1.4880951658
10
-18.5796961170
20
-11.8528131117
30
1.5611142744
10
-18.5760563504
20
-11.9447108325
30
1.6269404542
10
-18.5747715657
20
-11.9770152893
30
1.6487183861
11
-18.5851439060
21
-11.7132929334
31
1.4373611556
11
-18.5785314444
21
-11.8821000669
31
1.5807305879
11
-18.5747715657
21
-11.9770152893
31
1.6487183861
0
SPLINE
5
36B
100
AcDbEntity
8
ASSI
100
AcDbSpline
62
9
6
CONTINUOUS
70
0
71
3
72
9
73
5
74
3
42
0.0000001000
43
0.0000001000
44
0.0000000001
12
0.0101604299
22
-0.2554724984
32
0.1722258550
13
0.0113342505
23
-0.2787169053
33
0.1322346588
40
0.0000000000
40
0.0000000000
40
0.0000000000
40
0.0000000000
40
0.7027830806
40
1.0000000000
40
1.0000000000
40
1.0000000000
40
1.0000000000
10
-18.5747715657
20
-11.9770152893
30
1.6487183861
10
-18.5723913729
20
-12.0368625391
30
1.6890641918
10
-18.5688539879
20
-12.1251668835
30
1.7420768832
10
-18.5651278064
20
-12.2171115172
30
1.7882371296
10
-18.5640048961
20
-12.2447246439
30
1.8013379223
11
-18.5747715657
21
-11.9770152893
31
1.6487183861
11
-18.5673260969
21
-12.1627780911
31
1.7601925866
11
-18.5640048961
21
-12.2447246439
31
1.8013379223
0
SPLINE
5
36C
100
AcDbEntity
8
ASSI
100
AcDbSpline
62
9
6
CONTINUOUS
70
0
71
3
72
9
73
5
74
3
42
0.0000001000
43
0.0000001000
44
0.0000000001
12
0.0106404083
22
-0.2616548553
32
0.1241397269
13
0.0114469753
23
-0.2753978780
33
0.0858564363
40
0.0000000000
40
0.0000000000
40
0.0000000000
40
0.0000000000
40
0.8360986459
40
1.0000000000
40
1.0000000000
40
1.0000000000
40
1.0000000000
10
-18.5640048961
20
-12.2447246439
30
1.8013379223
10
-18.5610394191
20
-12.3176477340
30
1.8359356081
10
-18.5573639400
20
-12.4072485522
30
1.8721537159
10
-18.5535675397
20
-12.4987517839
30
1.9018429103
10
-18.5529421481
20
-12.5137978122
30
1.9065335723
11
-18.5640048961
21
-12.2447246439
31
1.8013379223
11
-18.5548087616
21
-12.4688078825
31
1.8919353215
11
-18.5529421481
21
-12.5137978122
31
1.9065335723
0
SPLINE
5
36D
100
AcDbEntity
8
ASSI
100
AcDbSpline
62
9
6
CONTINUOUS
70
0
71
3
72
8
73
4
74
2
42
0.0000001000
43
0.0000001000
44
0.0000000001
12
0.0111505692
22
-0.2682667705
32
0.0836332838
13
0.0117616162
23
-0.2769253242
33
0.0464229810
40
0.0000000000
40
0.0000000000
40
0.0000000000
40
0.0000000000
40
1.0000000000
40
1.0000000000
40
1.0000000000
40
1.0000000000
10
-18.5529421481
20
-12.5137978122
30
1.9065335723
10
-18.5492252917
20
-12.6032200691
30
1.9344113336
10
-18.5453969430
20
-12.6943563277
30
1.9560922737
10
-18.5414764043
20
-12.7866647691
30
1.9715666007
11
-18.5529421481
21
-12.5137978122
31
1.9065335723
11
-18.5414764043
21
-12.7866647691
31
1.9715666007
0
SPLINE
5
36E
100
AcDbEntity
8
ASSI
100
AcDbSpline
62
9
6
CONTINUOUS
70
0
71
3
72
9
73
5
74
3
42
0.0000001000
43
0.0000001000
44
0.0000000001
12
0.0114413800
22
-0.2693854146
32
0.0451590118
13
0.0121882789
23
-0.2808690546
33
0.0086657750
40
0.0000000000
40
0.0000000000
40
0.0000000000
40
0.0000000000
40
0.0155015674
40
1.0000000000
40
1.0000000000
40
1.0000000000
40
1.0000000000
10
-18.5414764043
20
-12.7866647691
30
1.9715666007
10
-18.5414172845
20
-12.7880567345
30
1.9717999458
10
-18.5376021389
20
-12.8778690674
30
1.9867619054
10
-18.5337000304
20
-12.9687828899
30
1.9958504889
10
-18.5297002499
20
-13.0609546045
30
1.9986943028
11
-18.5414764043
21
-12.7866647691
31
1.9715666007
11
-18.5412989822
21
-12.7908414630
31
1.9722624021
11
-18.5297002499
21
-13.0609546045
31
1.9986943028
0
SPLINE
5
36F
100
AcDbEntity
8
ASSI
100
AcDbSpline
62
9
6
CONTINUOUS
70
0
71
3
72
8
73
4
74
2
42
0.0000001000
43
0.0000001000
44
0.0000000001
12
0.0028271940
22
-0.0651504056
32
0.0020101138
13
0.0028827728
23
-0.0661015606
33
-0.0000390976
40
0.0000000000
40
0.0000000000
40
0.0000000000
40
0.0000000000
40
1.0000000000
40
1.0000000000
40
1.0000000000
40
1.0000000000
10
-18.5297002499
20
-13.0609546045
30
1.9986943028
10
-18.5287578519
20
-13.0826714064
30
1.9993643408
10
-18.5278066739
20
-13.1045362731
30
1.9996955325
10
-18.5268457496
20
-13.1265701266
30
1.9996825000
11
-18.5297002499
21
-13.0609546045
31
1.9986943028
11
-18.5268457496
21
-13.1265701266
31
1.9996825000
0
SPLINE
5
370
100
AcDbEntity
8
ASSI
100
AcDbSpline
62
9
6
CONTINUOUS
70
0
71
3
72
22
73
18
74
16
42
0.0000001000
43
0.0000001000
44
0.0000000001
12
0.0000000000
22
0.0000000000
32
-0.3253394399
13
-0.0112255242
23
0.2587357192
33
0.0627015536
40
0.0000000000
40
0.0000000000
40
0.0000000000
40
0.0000000000
40
0.0273381921
40
0.0546763841
40
0.0820145762
40
0.1093527682
40
0.1640291523
40
0.2187055365
40
0.2733819206
40
0.3280583047
40
0.4374110729
40
0.5467638411
40
0.6561166094
40
0.7654693776
40
0.8748221458
40
0.9841749140
40
1.0000000000
40
1.0000000000
40
1.0000000000
40
1.0000000000
10
-18.5216783125
20
-13.2445256266
30
-3.2868030000
10
-18.5216783125
20
-13.2445256266
30
-3.2897677307
10
-18.5216849680
20
-13.2443743859
30
-3.2949217965
10
-18.5217142404
20
-13.2437091706
30
-3.3031375136
10
-18.5217620328
20
-13.2426230121
30
-3.3110506348
10
-18.5218493465
20
-13.2406384766
30
-3.3214380947
10
-18.5220005425
20
-13.2372013809
30
-3.3339413626
10
-18.5222423821
20
-13.2317016797
30
-3.3480992725
10
-18.5225378508
20
-13.2249792578
30
-3.3613248379
10
-18.5229972618
20
-13.2145210017
30
-3.3776949637
10
-18.5236734699
20
-13.1991137426
30
-3.3955606179
10
-18.5246698516
20
-13.1763760696
30
-3.4136628787
10
-18.5258520989
20
-13.1493450224
30
-3.4275354197
10
-18.5271299101
20
-13.1200635838
30
-3.4355753875
10
-18.5283690102
20
-13.0916051657
30
-3.4376230614
10
-18.5292417071
20
-13.0715191581
30
-3.4353868047
10
-18.5297102378
20
-13.0607217435
30
-3.4329291226
10
-18.5297694527
20
-13.0593569052
30
-3.4325983701
11
-18.5216783125
21
-13.2445256266
31
-3.2868030000
11
-18.5216881829
21
-13.2443013269
31
-3.2950025663
11
-18.5217173271
21
-13.2436390134
31
-3.3030870810
11
-18.5217649816
21
-13.2425559716
31
-3.3110302138
11
-18.5218303217
21
-13.2410708487
31
-3.3188091593
11
-18.5220106099
21
-13.2369721832
31
-3.3338003607
11
-18.5222513203
21
-13.2314978930
31
-3.3479438818
11
-18.5225460324
21
-13.2247923795
31
-3.3611668428
11
-18.5228892053
21
-13.2169799365
31
-3.3734292987
11
-18.5237042919
21
-13.1984055823
31
-3.3950045305
11
-18.5247008292
21
-13.1756605072
31
-3.4129579254
11
-18.5258680262
21
-13.1489699571
31
-3.4265633241
11
-18.5271234582
21
-13.1202007539
31
-3.4345766719
11
-18.5283659463
21
-13.0916655622
31
-3.4367604414
11
-18.5295918175
21
-13.0634505526
31
-3.4335303237
11
-18.5297694527
21
-13.0593569052
31
-3.4325983701
0
SPLINE
5
371
100
AcDbEntity
8
ASSI
100
AcDbSpline
62
9
6
CONTINUOUS
70
0
71
3
72
19
73
15
74
13
42
0.0000001000
43
0.0000001000
44
0.0000000001
12
-0.0084151501
22
0.1939597549
32
0.0470038617
13
0.0000000000
23
0.0000000000
33
0.2343837850
40
0.0000000000
40
0.0000000000
40
0.0000000000
40
0.0000000000
40
0.1247627486
40
0.2706356238
40
0.4165084990
40
0.5623813743
40
0.6353178119
40
0.7082542495
40
0.7811906871
40
0.8541271248
40
0.8905953436
40
0.9270635624
40
0.9635317812
40
1.0000000000
40
1.0000000000
40
1.0000000000
40
1.0000000000
10
-18.5297694527
20
-13.0593569052
30
-3.4325983701
10
-18.5301194185
20
-13.0512905878
30
-3.4306435932
10
-18.5308772721
20
-13.0338067217
30
-3.4248841049
10
-18.5319483357
20
-13.0090467477
30
-3.4111771991
10
-18.5328883773
20
-12.9872750418
30
-3.3928523400
10
-18.5335190586
20
-12.9726461861
30
-3.3750631456
10
-18.5339435056
20
-12.9627925861
30
-3.3589557813
10
-18.5342148728
20
-12.9564893655
30
-3.3460276075
10
-18.5344357798
20
-12.9513559332
30
-3.3322670967
10
-18.5345732598
20
-12.9481600500
30
-3.3201712707
10
-18.5346524706
20
-12.9463184024
30
-3.3101485732
10
-18.5346957682
20
-12.9453116424
30
-3.3025228790
10
-18.5347222605
20
-12.9446956019
30
-3.2946156989
10
-18.5347282798
20
-12.9445556266
30
-3.2896521864
10
-18.5347282798
20
-12.9445556266
30
-3.2868030000
11
-18.5297694527
21
-13.0593569052
31
-3.4325983701
11
-18.5308050016
21
-13.0354670756
31
-3.4246645820
11
-18.5319174512
21
-13.0097539463
31
-3.4105233260
11
-18.5328578399
21
-12.9879778883
31
-3.3923486443
11
-18.5336184955
21
-12.9703369098
31
-3.3708799704
11
-18.5339356776
21
-12.9629737493
31
-3.3588145062
11
-18.5342064628
21
-12.9566843302
31
-3.3458888847
11
-18.5344264579
21
-12.9515723286
31
-3.3321413500
11
-18.5345904981
21
-12.9477592263
31
-3.3176367599
11
-18.5346497855
21
-12.9463808150
31
-3.3101304614
11
-18.5346929673
21
-12.9453767623
31
-3.3024759647
11
-18.5347193499
21
-12.9447632815
31
-3.2946926841
11
-18.5347282798
21
-12.9445556266
31
-3.2868030000
0
SPLINE
5
372
100
AcDbEntity
8
ASSI
100
AcDbSpline
62
9
6
CONTINUOUS
70
0
71
3
72
21
73
17
74
15
42
0.0000001000
43
0.0000001000
44
0.0000000001
12
-0.0000003200
22
0.0000094415
32
0.2552849486
13
0.0087843385
23
-0.2554326811
33
-0.0000147195
40
0.0000000000
40
0.0000000000
40
0.0000000000
40
0.0000000000
40
0.0416666667
40
0.0833333333
40
0.1250000000
40
0.1666666667
40
0.2500000000
40
0.3333333333
40
0.5000000000
40
0.6666666667
40
0.7500000000
40
0.8333333333
40
0.8750000000
40
0.9166666667
40
0.9583333333
40
1.0000000000
40
1.0000000000
40
1.0000000000
40
1.0000000000
10
-18.6396453750
20
-10.2155596265
30
0.9468624509
10
-18.6396453795
20
-10.2155594954
30
0.9504080752
10
-18.6396375154
20
-10.2157915519
30
0.9569782015
10
-18.6396030550
20
-10.2168083554
30
0.9670428081
10
-18.6395468414
20
-10.2184667979
30
0.9768019520
10
-18.6394441467
20
-10.2214959626
30
0.9895421529
10
-18.6392650381
20
-10.2267772835
30
1.0048553699
10
-18.6388816162
20
-10.2380748872
30
1.0277340709
10
-18.6381967588
20
-10.2582289537
30
1.0542143205
10
-18.6372944458
20
-10.2847062886
30
1.0743758809
10
-18.6365126331
20
-10.3075884715
30
1.0856806792
10
-18.6359883670
20
-10.3229064111
30
1.0909662373
10
-18.6355515264
20
-10.3356519803
30
1.0939981477
10
-18.6352165641
20
-10.3454159632
30
1.0956581880
10
-18.6348707616
20
-10.3554860539
30
1.0966759832
10
-18.6346447795
20
-10.3620605967
30
1.0969082044
10
-18.6345227748
20
-10.3656082728
30
1.0969080000
11
-18.6396453750
21
-10.2155596265
31
0.9468624509
11
-18.6396337380
21
-10.2159030050
31
0.9570131044
11
-18.6395994295
21
-10.2169152952
31
0.9669918976
11
-18.6395433735
21
-10.2185690364
31
0.9767679531
11
-18.6394664377
21
-10.2208383291
31
0.9863163004
11
-18.6392529321
21
-10.2271332198
31
1.0046525641
11
-18.6389637663
21
-10.2356526237
31
1.0218731872
11
-18.6381532677
21
-10.2594936074
31
1.0529505827
11
-18.6370939958
21
-10.2905685272
31
1.0768000430
11
-18.6365055065
21
-10.3077917866
31
1.0853246910
11
-18.6358777046
21
-10.3261337382
31
1.0916245035
11
-18.6355503044
21
-10.3356861146
31
1.0938958323
11
-18.6352147574
21
-10.3454669811
31
1.0955511472
11
-18.6348718998
21
-10.3554513411
31
1.0965644060
11
-18.6345227748
21
-10.3656082728
31
1.0969080000
0
SPLINE
5
373
100
AcDbEntity
8
ASSI
100
AcDbSpline
62
9
6
CONTINUOUS
70
0
71
3
72
26
73
22
74
20
42
0.0000001000
43
0.0000001000
44
0.0000000001
12
0.0173686211
22
-0.3362900424
32
-0.3364077971
13
-0.0187799231
23
0.3670574037
33
0.0982419816
40
0.0000000000
40
0.0000000000
40
0.0000000000
40
0.0000000000
40
0.0186823325
40
0.0373646651
40
0.0560469976
40
0.0747293301
40
0.1120939952
40
0.1494586602
40
0.1868233253
40
0.2241879903
40
0.2989173204
40
0.3736466505
40
0.4483759806
40
0.5231053107
40
0.5978346408
40
0.6725639710
40
0.7472933011
40
0.8220226312
40
0.8967519613
40
0.9714812914
40
1.0000000000
40
1.0000000000
40
1.0000000000
40
1.0000000000
10
-18.4123680514
20
-15.5301126797
30
-2.2160730531
10
-18.4122598893
20
-15.5322069072
30
-2.2181680139
10
-18.4120772586
20
-15.5357422579
30
-2.2219183944
10
-18.4118016087
20
-15.5410764984
30
-2.2281948286
10
-18.4115522784
20
-15.5458997766
30
-2.2345551443
10
-18.4112453154
20
-15.5518362004
30
-2.2432988960
10
-18.4109139946
20
-15.5582409074
30
-2.2545643632
10
-18.4105974739
20
-15.5643568032
30
-2.2684564174
10
-18.4103596922
20
-15.5689496987
30
-2.2825530464
10
-18.4101435332
20
-15.5731238851
30
-2.3015102965
10
-18.4100537519
20
-15.5748570827
30
-2.3250197686
10
-18.4102234829
20
-15.5715803228
30
-2.3538618280
10
-18.4107043663
20
-15.5622929008
30
-2.3827388725
10
-18.4114797737
20
-15.5473049995
30
-2.4090907734
10
-18.4124430977
20
-15.5286639374
30
-2.4306431165
10
-18.4135812742
20
-15.5066108119
30
-2.4482969439
10
-18.4149414884
20
-15.4802137515
30
-2.4621131120
10
-18.4164103828
20
-15.4516548785
30
-2.4703349296
10
-18.4178650425
20
-15.4233193087
30
-2.4727848186
10
-18.4189835928
20
-15.4014913792
30
-2.4706674541
10
-18.4196323988
20
-15.3888146489
30
-2.4677630537
10
-18.4198109252
20
-15.3853253145
30
-2.4668291422
11
-18.4123680514
21
-15.5301126797
31
-2.2160730531
11
-18.4120769746
21
-15.5357474603
31
-2.2220268717
11
-18.4118059953
21
-15.5409913380
31
-2.2282088089
11
-18.4115554631
21
-15.5458379499
31
-2.2345880606
11
-18.4113255484
21
-15.5502843729
31
-2.2411353432
11
-18.4109275053
21
-15.5579792819
31
-2.2546266121
11
-18.4106105971
21
-15.5641029698
31
-2.2684905132
11
-18.4103723026
21
-15.5687059894
31
-2.2825732645
11
-18.4102096008
21
-15.5718480362
31
-2.2967585113
11
-18.4100999967
21
-15.5739643165
31
-2.3251248841
11
-18.4102753416
21
-15.5705785457
31
-2.3538676588
11
-18.4107534536
21
-15.5613428209
31
-2.3823180152
11
-18.4115110931
21
-15.5466961394
31
-2.4082908471
11
-18.4124722398
21
-15.5280952602
31
-2.4299933639
11
-18.4136182805
21
-15.5058868228
31
-2.4476573340
11
-18.4149596017
21
-15.4798534494
31
-2.4611807203
11
-18.4164080103
21
-15.4516920957
31
-2.4693729415
11
-18.4178574282
21
-15.4234593363
31
-2.4719319831
11
-18.4192739717
21
-15.3958166045
31
-2.4692396582
11
-18.4198109252
21
-15.3853253145
31
-2.4668291422
0
SPLINE
5
374
100
AcDbEntity
8
ASSI
100
AcDbSpline
62
9
6
CONTINUOUS
70
0
71
3
72
15
73
11
74
9
42
0.0000001000
43
0.0000001000
44
0.0000000001
12
-0.0036746541
22
0.0718218585
32
0.0192229380
13
-0.0032250610
23
0.0633127185
33
0.0632906836
40
0.0000000000
40
0.0000000000
40
0.0000000000
40
0.0000000000
40
0.0452087132
40
0.2361669705
40
0.4271252279
40
0.6180834853
40
0.7135626139
40
0.8090417426
40
0.9045208713
40
1.0000000000
40
1.0000000000
40
1.0000000000
40
1.0000000000
10
-18.4198109252
20
-15.3853253145
30
-2.4668291422
10
-18.4198663007
20
-15.3842429899
30
-2.4665394607
10
-18.4201552342
20
-15.3785951256
30
-2.4649600079
10
-18.4206735466
20
-15.3684578623
30
-2.4614726174
10
-18.4213560016
20
-15.3550984650
30
-2.4553788571
10
-18.4219079288
20
-15.3442848546
30
-2.4490901435
10
-18.4223359191
20
-15.3358942520
30
-2.4433080859
10
-18.4226472167
20
-15.3297889130
30
-2.4386293892
10
-18.4229544541
20
-15.3237607440
30
-2.4334750628
10
-18.4231383856
20
-15.3201505879
30
-2.4300642600
10
-18.4232410276
20
-15.3181355735
30
-2.4280499469
11
-18.4198109252
21
-15.3853253145
31
-2.4668291422
11
-18.4199768340
21
-15.3820822500
31
-2.4659219796
11
-18.4206714261
21
-15.3684973694
31
-2.4612365583
11
-18.4213526445
21
-15.3551623091
31
-2.4551367411
11
-18.4220137971
21
-15.3422088944
31
-2.4475820386
11
-18.4223343033
21
-15.3359255208
31
-2.4432510603
11
-18.4226465400
21
-15.3298017746
31
-2.4385501176
11
-18.4229492308
21
-15.3238628998
31
-2.4334814165
11
-18.4232410276
21
-15.3181355735
31
-2.4280499469
0
SPLINE
5
375
100
AcDbEntity
8
ASSI
100
AcDbSpline
62
9
6
CONTINUOUS
70
0
71
3
72
8
73
4
74
2
42
0.0000001000
43
0.0000001000
44
0.0000000001
12
0.0062782098
22
-0.1255764627
32
-0.1256204366
13
0.0063308222
23
-0.1255738213
33
-0.1256177943
40
0.0000000000
40
0.0000000000
40
0.0000000000
40
0.0000000000
40
1.0000000000
40
1.0000000000
40
1.0000000000
40
1.0000000000
10
-18.4374757250
20
-15.0360751958
30
-1.7218655690
10
-18.4353829884
20
-15.0779340167
30
-1.7637390479
10
-18.4332814830
20
-15.1197923992
30
-1.8056120882
10
-18.4311712089
20
-15.1616503396
30
-1.8474846863
11
-18.4374757250
21
-15.0360751958
31
-1.7218655690
11
-18.4311712089
21
-15.1616503396
31
-1.8474846863
0
SPLINE
5
376
100
AcDbEntity
8
ASSI
100
AcDbSpline
62
9
6
CONTINUOUS
70
0
71
3
72
8
73
4
74
2
42
0.0000001000
43
0.0000001000
44
0.0000000001
12
0.0107327247
22
-0.2128869224
32
-0.2129614705
13
0.0108839329
23
-0.2128792454
33
-0.2129537907
40
0.0000000000
40
0.0000000000
40
0.0000000000
40
0.0000000000
40
1.0000000000
40
1.0000000000
40
1.0000000000
40
1.0000000000
10
-18.4311712089
20
-15.1616503396
30
-1.8474846863
10
-18.4275936340
20
-15.2326126470
30
-1.9184718431
10
-18.4239908573
20
-15.3035736839
30
-1.9894577290
10
-18.4203628797
20
-15.3745334324
30
-2.0604423259
11
-18.4311712089
21
-15.1616503396
31
-1.8474846863
11
-18.4203628797
21
-15.3745334324
31
-2.0604423259
0
SPLINE
5
377
100
AcDbEntity
8
ASSI
100
AcDbSpline
62
9
6
CONTINUOUS
70
0
71
3
72
8
73
4
74
2
42
0.0000001000
43
0.0000001000
44
0.0000000001
12
0.0010931452
22
-0.0213808669
32
-0.0213883540
13
0.0010946705
23
-0.0213807888
33
-0.0213882759
40
0.0000000000
40
0.0000000000
40
0.0000000000
40
0.0000000000
40
1.0000000000
40
1.0000000000
40
1.0000000000
40
1.0000000000
10
-18.4203628797
20
-15.3745334324
30
-2.0604423259
10
-18.4199984979
20
-15.3816603880
30
-2.0675717772
10
-18.4196338620
20
-15.3887873306
30
-2.0747012155
10
-18.4192689718
20
-15.3959142602
30
-2.0818306408
11
-18.4203628797
21
-15.3745334324
31
-2.0604423259
11
-18.4192689718
21
-15.3959142602
31
-2.0818306408
0
SPLINE
5
378
100
AcDbEntity
8
ASSI
100
AcDbSpline
62
9
6
CONTINUOUS
70
0
71
3
72
17
73
13
74
11
42
0.0000001000
43
0.0000001000
44
0.0000000001
12
-0.0057356134
22
0.1147241477
32
-0.1147241497
13
-0.0065133446
23
0.1313802963
33
0.0168926567
40
0.0000000000
40
0.0000000000
40
0.0000000000
40
0.0000000000
40
0.0548387363
40
0.1096774725
40
0.1645162088
40
0.2193549450
40
0.3290324175
40
0.4387098901
40
0.5483873626
40
0.6580648351
40
0.8774197801
40
1.0000000000
40
1.0000000000
40
1.0000000000
40
1.0000000000
10
-18.4374801029
20
-15.0359876276
30
1.7366510009
10
-18.4375849475
20
-15.0338905185
30
1.7345538918
10
-18.4377725633
20
-15.0301370544
30
1.7310145631
10
-18.4380864597
20
-15.0238547689
30
1.7256740192
10
-18.4384043984
20
-15.0174888191
30
1.7208455974
10
-18.4388412851
20
-15.0087374706
30
1.7149032503
10
-18.4394037726
20
-14.9974627098
30
1.7084929765
10
-18.4400967327
20
-14.9835598605
30
1.7023726903
10
-18.4407992134
20
-14.9694527165
30
1.6977772241
10
-18.4417430225
20
-14.9504810703
30
1.6936016800
10
-18.4427055109
20
-14.9311063638
30
1.6921757220
10
-18.4434460767
20
-14.9161765772
30
1.6932685088
10
-18.4437122124
20
-14.9108083687
30
1.6939587440
11
-18.4374801029
21
-15.0359876276
31
1.7366510009
11
-18.4377779754
21
-15.0300283728
31
1.7310093046
11
-18.4380871334
21
-15.0238408249
31
1.7257593729
11
-18.4384060194
21
-15.0174558922
31
1.7209075410
11
-18.4387331553
21
-15.0109029360
31
1.7164566811
11
-18.4394067685
21
-14.9974005204
31
1.7087549836
11
-18.4400983194
21
-14.9835258114
31
1.7026268270
11
-18.4408001094
21
-14.9694324514
31
1.6980211921
11
-18.4415063353
21
-14.9552365221
31
1.6948780932
11
-18.4429166260
21
-14.9268474638
31
1.6927641941
11
-18.4437122124
21
-14.9108083687
31
1.6939587440
0
SPLINE
5
379
100
AcDbEntity
8
ASSI
100
AcDbSpline
62
9
6
CONTINUOUS
70
0
71
3
72
8
73
4
74
2
42
0.0000001000
43
0.0000001000
44
0.0000000001
12
-0.0010949811
22
0.0213868555
32
-0.0213868555
13
-0.0010934550
23
0.0213869336
33
-0.0213869336
40
0.0000000000
40
0.0000000000
40
0.0000000000
40
0.0000000000
40
1.0000000000
40
1.0000000000
40
1.0000000000
40
1.0000000000
10
-18.4192689407
20
-15.3959148693
30
2.0965752426
10
-18.4196339344
20
-15.3887859174
30
2.0894462908
10
-18.4199986737
20
-15.3816569526
30
2.0823173260
10
-18.4203631587
20
-15.3745279747
30
2.0751883481
11
-18.4192689407
21
-15.3959148693
31
2.0965752426
11
-18.4203631587
21
-15.3745279747
31
2.0751883481
0
SPLINE
5
37A
100
AcDbEntity
8
ASSI
100
AcDbSpline
62
9
6
CONTINUOUS
70
0
71
3
72
8
73
4
74
2
42
0.0000001000
43
0.0000001000
44
0.0000000001
12
-0.0108825746
22
0.2128527545
32
-0.2128527545
13
-0.0107314040
23
0.2128604296
33
-0.2128604296
40
0.0000000000
40
0.0000000000
40
0.0000000000
40
0.0000000000
40
1.0000000000
40
1.0000000000
40
1.0000000000
40
1.0000000000
10
-18.4203631587
20
-15.3745279747
30
2.0751883481
10
-18.4239906836
20
-15.3035770566
30
2.0042374299
10
-18.4275930138
20
-15.2326248503
30
1.9332852236
10
-18.4311701485
20
-15.1616713737
30
1.8623317471
11
-18.4203631587
21
-15.3745279747
31
2.0751883481
11
-18.4311701485
21
-15.1616713737
31
1.8623317471
0
SPLINE
5
37B
100
AcDbEntity
8
ASSI
100
AcDbSpline
62
9
6
CONTINUOUS
70
0
71
3
72
8
73
4
74
2
42
0.0000001000
43
0.0000001000
44
0.0000000001
12
-0.0063362306
22
0.1256809232
32
-0.1256809232
13
-0.0062835284
23
0.1256835691
33
-0.1256835691
40
0.0000000000
40
0.0000000000
40
0.0000000000
40
0.0000000000
40
1.0000000000
40
1.0000000000
40
1.0000000000
40
1.0000000000
10
-18.4311701485
20
-15.1616713737
30
1.8623317471
10
-18.4332822253
20
-15.1197777326
30
1.8204381060
10
-18.4353855186
20
-15.0778836487
30
1.7785440221
10
-18.4374800280
20
-15.0359891257
30
1.7366494991
11
-18.4311701485
21
-15.1616713737
31
1.8623317471
11
-18.4374800280
21
-15.0359891257
31
1.7366494991
0
SPLINE
5
37C
100
AcDbEntity
8
ASSI
100
AcDbSpline
62
9
6
CONTINUOUS
70
0
71
3
72
33
73
29
74
27
42
0.0000001000
43
0.0000001000
44
0.0000000001
12
-0.0198464053
22
0.4026818140
32
0.4025416680
13
0.0193558889
23
-0.3871555967
33
-0.3872911697
40
0.0000000000
40
0.0000000000
40
0.0000000000
40
0.0000000000
40
0.0156250000
40
0.0312500000
40
0.0468750000
40
0.0625000000
40
0.0937500000
40
0.1250000000
40
0.1562500000
40
0.1875000000
40
0.2500000000
40
0.3125000000
40
0.3750000000
40
0.4375000000
40
0.5000000000
40
0.5625000000
40
0.6250000000
40
0.6875000000
40
0.7500000000
40
0.8125000000
40
0.8437500000
40
0.8750000000
40
0.9062500000
40
0.9375000000
40
0.9531250000
40
0.9687500000
40
0.9843750000
40
1.0000000000
40
1.0000000000
40
1.0000000000
40
1.0000000000
10
-18.4480068291
20
-14.8239270883
30
-1.9340134619
10
-18.4481101958
20
-14.8218297872
30
-1.9319168907
10
-18.4482846447
20
-14.8182894647
30
-1.9281637943
10
-18.4485477839
20
-14.8129473756
30
-1.9218822997
10
-18.4487856351
20
-14.8081169424
30
-1.9155166738
10
-18.4490782962
20
-14.8021715495
30
-1.9067653327
10
-18.4493939123
20
-14.7957569010
30
-1.8954896585
10
-18.4496951777
20
-14.7896310578
30
-1.8815844993
10
-18.4499213653
20
-14.7850301520
30
-1.8674741914
10
-18.4501269238
20
-14.7808477522
30
-1.8484981142
10
-18.4502123670
20
-14.7791087061
30
-1.8249648047
10
-18.4500513820
20
-14.7823851060
30
-1.7960919296
10
-18.4495944729
20
-14.7916803402
30
-1.7671827480
10
-18.4488563282
20
-14.8066840156
30
-1.7408019207
10
-18.4479371528
20
-14.8253453300
30
-1.7192276135
10
-18.4468482908
20
-14.8474216730
30
-1.7015577591
10
-18.4455428038
20
-14.8738462405
30
-1.6877307054
10
-18.4441277112
20
-14.9024342823
30
-1.6795048202
10
-18.4427209620
20
-14.9307981305
30
-1.6770574223
10
-18.4415813245
20
-14.9537333035
30
-1.6792869518
10
-18.4406672927
20
-14.9721028158
30
-1.6837078346
10
-18.4399895093
20
-14.9857117844
30
-1.6883933769
10
-18.4393229584
20
-14.9990830881
30
-1.6944969488
10
-18.4387829690
20
-15.0099059063
30
-1.7007952466
10
-18.4383637247
20
-15.0183033266
30
-1.7065858280
10
-18.4380585498
20
-15.0244134336
30
-1.7112712793
10
-18.4377571158
20
-15.0304461242
30
-1.7164329411
10
-18.4375765369
20
-15.0340587604
30
-1.7198484275
10
-18.4374757250
20
-15.0360751958
30
-1.7218655690
11
-18.4480068291
21
-14.8239270883
31
-1.9340134619
11
-18.4482848890
21
-14.8182841971
31
-1.9280551526
11
-18.4485435693
21
-14.8130326516
31
-1.9218682778
11
-18.4487825759
21
-14.8081788405
31
-1.9154836939
11
-18.4490017836
21
-14.8037257039
31
-1.9089307348
11
-18.4493810000
21
-14.7960188568
31
-1.8954272668
11
-18.4496826647
21
-14.7898852140
31
-1.8815503079
11
-18.4499093622
21
-14.7852741697
31
-1.8674538997
11
-18.4500641005
21
-14.7821259491
31
-1.8532545860
11
-18.4501684475
21
-14.7800025820
31
-1.8248593208
11
-18.4500020613
21
-14.7833882450
31
-1.7960858785
11
-18.4495476003
21
-14.7926317470
31
-1.7676041404
11
-18.4488261565
21
-14.8072936221
31
-1.7416030074
11
-18.4479088717
21
-14.8259145015
31
-1.7198783556
11
-18.4468121867
21
-14.8481463771
31
-1.7021982259
11
-18.4455245362
21
-14.8742068195
31
-1.6886642335
11
-18.4441291018
21
-14.9023969167
31
-1.6804679014
11
-18.4427274927
21
-14.9306578571
31
-1.6779112279
11
-18.4413526231
21
-14.9583274627
31
-1.6806119441
11
-18.4406685828
21
-14.9720747882
31
-1.6839361480
11
-18.4399913814
21
-14.9856721736
31
-1.6886297152
11
-18.4393260523
21
-14.9990191011
31
-1.6947393464
11
-18.4386792202
21
-15.0119835252
31
-1.7023055539
11
-18.4383652677
21
-15.0182720002
31
-1.7066429139
11
-18.4380591733
21
-15.0244005309
31
-1.7113506477
11
-18.4377622101
21
-15.0303438348
31
-1.7164265357
11
-18.4374757250
21
-15.0360751958
31
-1.7218655690
0
SPLINE
5
37D
100
AcDbEntity
8
ASSI
100
AcDbSpline
62
9
6
CONTINUOUS
70
0
71
3
72
8
73
4
74
2
42
0.0000001000
43
0.0000001000
44
0.0000000001
12
0.0044426430
22
-0.0901408310
32
0.0901408310
13
0.0044697512
23
-0.0901394909
33
0.0901394909
40
0.0000000000
40
0.0000000000
40
0.0000000000
40
0.0000000000
40
1.0000000000
40
1.0000000000
40
1.0000000000
40
1.0000000000
10
-18.4480068026
20
-14.8239276266
30
1.9487110000
10
-18.4465259216
20
-14.8539745703
30
1.9787579437
10
-18.4450405225
20
-14.8840212913
30
2.0088046647
10
-18.4435506055
20
-14.9140677883
30
2.0388511616
11
-18.4480068026
21
-14.8239276266
31
1.9487110000
11
-18.4435506055
21
-14.9140677883
31
2.0388511616
0
SPLINE
5
37E
100
AcDbEntity
8
ASSI
100
AcDbSpline
62
9
6
CONTINUOUS
70
0
71
3
72
8
73
4
74
2
42
0.0000001000
43
0.0000001000
44
0.0000000001
12
0.0123886148
22
-0.2498357043
32
0.2498357043
13
0.0125968563
23
-0.2498252912
33
0.2498252912
40
0.0000000000
40
0.0000000000
40
0.0000000000
40
0.0000000000
40
1.0000000000
40
1.0000000000
40
1.0000000000
40
1.0000000000
10
-18.4435506055
20
-14.9140677883
30
2.0388511616
10
-18.4394210672
20
-14.9973463563
30
2.1221297297
10
-18.4352568213
20
-15.0806232034
30
2.2054065768
10
-18.4310578692
20
-15.1638983004
30
2.2886816738
11
-18.4435506055
21
-14.9140677883
31
2.0388511616
11
-18.4310578692
21
-15.1638983004
31
2.2886816738
0
SPLINE
5
37F
100
AcDbEntity
8
ASSI
100
AcDbSpline
62
9
6
CONTINUOUS
70
0
71
3
72
8
73
4
74
2
42
0.0000001000
43
0.0000001000
44
0.0000000001
12
0.0077772083
22
-0.1542403344
32
0.1542403344
13
0.0078565818
23
-0.1542363117
33
0.1542363117
40
0.0000000000
40
0.0000000000
40
0.0000000000
40
0.0000000000
40
1.0000000000
40
1.0000000000
40
1.0000000000
40
1.0000000000
10
-18.4310578692
20
-15.1638983004
30
2.2886816738
10
-18.4284654664
20
-15.2153117452
30
2.3400951186
10
-18.4258598345
20
-15.2667245230
30
2.3915078964
10
-18.4232409739
20
-15.3181366269
30
2.4429200003
11
-18.4310578692
21
-15.1638983004
31
2.2886816738
11
-18.4232409739
21
-15.3181366269
31
2.4429200003
0
SPLINE
5
380
100
AcDbEntity
8
ASSI
100
AcDbSpline
62
9
6
CONTINUOUS
70
0
71
3
72
22
73
18
74
16
42
0.0000001000
43
0.0000001000
44
0.0000000001
12
0.0000000000
22
0.0000000000
32
-0.3252888551
13
-0.0112236927
23
0.2586935070
33
0.0628926220
40
0.0000000000
40
0.0000000000
40
0.0000000000
40
0.0000000000
40
0.0273267654
40
0.0546535309
40
0.0819802963
40
0.1093070618
40
0.1639605926
40
0.2186141235
40
0.2732676544
40
0.3279211853
40
0.4372282470
40
0.5465353088
40
0.6558423705
40
0.7651494323
40
0.8744564940
40
0.9837635558
40
1.0000000000
40
1.0000000000
40
1.0000000000
40
1.0000000000
10
-18.5216782685
20
-13.2445266266
30
2.6030640000
10
-18.5216782685
20
-13.2445266266
30
2.6001009693
10
-18.5216849202
20
-13.2443754726
30
2.5949498587
10
-18.5217141758
20
-13.2437106387
30
2.5867388525
10
-18.5217619408
20
-13.2426251030
30
2.5788302686
10
-18.5218492044
20
-13.2406417055
30
2.5684487647
10
-18.5220003138
20
-13.2372065806
30
2.5559526661
10
-18.5222420149
20
-13.2317100329
30
2.5418028742
10
-18.5225373144
20
-13.2249914655
30
2.5285848922
10
-18.5229964624
20
-13.2145392061
30
2.5122241529
10
-18.5236722839
20
-13.1991407814
30
2.4943687427
10
-18.5246680968
20
-13.1764161458
30
2.4762768616
10
-18.5258496704
20
-13.1494005979
30
2.4624122749
10
-18.5271267552
20
-13.1201359489
30
2.4543769171
10
-18.5283651524
20
-13.0916938487
30
2.4523304175
10
-18.5292389106
20
-13.0715835670
30
2.4545693767
10
-18.5297087498
20
-13.0607560391
30
2.4570380889
10
-18.5297694941
20
-13.0593559515
30
2.4573784731
11
-18.5216782685
21
-13.2445266266
31
2.6030640000
11
-18.5216881332
21
-13.2443024555
31
2.5948691353
11
-18.5217172607
21
-13.2436405217
31
2.5867892562
11
-18.5217648879
21
-13.2425581009
31
2.5788506779
11
-18.5218301905
21
-13.2410738297
31
2.5710761928
11
-18.5220103755
21
-13.2369775143
31
2.5560935872
11
-18.5222509479
21
-13.2315063630
31
2.5419581759
11
-18.5225454913
21
-13.2248046943
31
2.5287427968
11
-18.5228884678
21
-13.2169967309
31
2.5164873720
11
-18.5237030884
21
-13.1984330271
31
2.4949245112
11
-18.5246990569
21
-13.1757009938
31
2.4769814106
11
-18.5258655889
21
-13.1490257477
31
2.4633838131
11
-18.5271203073
21
-13.1202730404
31
2.4553750602
11
-18.5283620906
21
-13.0917542105
31
2.4531925428
11
-18.5295872680
21
-13.0635553790
31
2.4564208084
11
-18.5297694941
21
-13.0593559515
31
2.4573784731
0
SPLINE
5
381
100
AcDbEntity
8
ASSI
100
AcDbSpline
62
9
6
CONTINUOUS
70
0
71
3
72
19
73
15
74
13
42
0.0000001000
43
0.0000001000
44
0.0000000001
12
-0.0084055693
22
0.1937389273
32
0.0471011014
13
0.0000000000
23
0.0000000000
33
0.2341187263
40
0.0000000000
40
0.0000000000
40
0.0000000000
40
0.0000000000
40
0.1242742735
40
0.2702285613
40
0.4161828490
40
0.5621371368
40
0.6351142806
40
0.7080914245
40
0.7810685684
40
0.8540457123
40
0.8905342842
40
0.9270228561
40
0.9635114281
40
1.0000000000
40
1.0000000000
40
1.0000000000
40
1.0000000000
10
-18.5297694941
20
-13.0593559515
30
2.4573784731
10
-18.5301176927
20
-13.0513303634
30
2.4593296248
10
-18.5308734301
20
-13.0338954055
30
2.4650804158
10
-18.5319424567
20
-13.0091827684
30
2.4787611164
10
-18.5328819697
20
-12.9874235462
30
2.4970754684
10
-18.5335122969
20
-12.9728030788
30
2.5148544626
10
-18.5339365058
20
-12.9629551289
30
2.5309525910
10
-18.5342077209
20
-12.9566555226
30
2.5438733519
10
-18.5344285040
20
-12.9515250338
30
2.5576259724
10
-18.5345659070
20
-12.9483309831
30
2.5697148627
10
-18.5346450735
20
-12.9464903916
30
2.5797318132
10
-18.5346883468
20
-12.9454842089
30
2.5873531348
10
-18.5347148243
20
-12.9448685216
30
2.5952557809
10
-18.5347208402
20
-12.9447286266
30
2.6002164473
10
-18.5347208402
20
-12.9447286266
30
2.6030640000
11
-18.5297694941
21
-13.0593559515
31
2.4573784731
11
-18.5307997671
21
-13.0355879473
31
2.4652814668
11
-18.5319115897
21
-13.0098895615
31
2.4794146146
11
-18.5328514496
21
-12.9881259898
31
2.4975788752
11
-18.5336116780
21
-12.9704951267
31
2.5190352391
11
-18.5339286822
21
-12.9631361882
31
2.5310937851
11
-18.5341993155
21
-12.9568503755
31
2.5440119951
11
-18.5344191874
21
-12.9517413051
31
2.5577516470
11
-18.5345831357
21
-12.9479303893
31
2.5722479201
11
-18.5346423899
21
-12.9465527684
31
2.5797499146
11
-18.5346855475
21
-12.9455492915
31
2.5874000222
11
-18.5347119153
21
-12.9449361624
31
2.5951788398
11
-18.5347208402
21
-12.9447286266
31
2.6030640000
0
SPLINE
5
382
100
AcDbEntity
8
ASSI
100
AcDbSpline
62
9
6
CONTINUOUS
70
0
71
3
72
8
73
4
74
2
42
0.0000001000
43
0.0000001000
44
0.0000000001
12
-0.0078565262
22
0.1542352298
32
0.1541815511
13
-0.0077771538
23
0.1542392525
33
0.1541855724
40
0.0000000000
40
0.0000000000
40
0.0000000000
40
0.0000000000
40
1.0000000000
40
1.0000000000
40
1.0000000000
40
1.0000000000
10
-18.4232410276
20
-15.3181355735
30
-2.4280499469
10
-18.4258598696
20
-15.2667238302
30
-2.3766560965
10
-18.4284654831
20
-15.2153114131
30
-2.3252615725
10
-18.4310578677
20
-15.1638983289
30
-2.2738663818
11
-18.4232410276
21
-15.3181355735
31
-2.4280499469
11
-18.4310578677
21
-15.1638983289
31
-2.2738663818
0
SPLINE
5
383
100
AcDbEntity
8
ASSI
100
AcDbSpline
62
9
6
CONTINUOUS
70
0
71
3
72
8
73
4
74
2
42
0.0000001000
43
0.0000001000
44
0.0000000001
12
-0.0125968662
22
0.2498254872
32
0.2497385400
13
-0.0123886244
23
0.2498359003
33
0.2497489495
40
0.0000000000
40
0.0000000000
40
0.0000000000
40
0.0000000000
40
1.0000000000
40
1.0000000000
40
1.0000000000
40
1.0000000000
10
-18.4310578677
20
-15.1638983289
30
-2.2738663818
10
-18.4352568232
20
-15.0806231665
30
-2.1906202017
10
-18.4394210723
20
-14.9973462541
30
-2.1073722724
10
-18.4435506138
20
-14.9140676207
30
-2.0241226225
11
-18.4310578677
21
-15.1638983289
31
-2.2738663818
11
-18.4435506138
21
-14.9140676207
31
-2.0241226225
0
SPLINE
5
384
100
AcDbEntity
8
ASSI
100
AcDbSpline
62
9
6
CONTINUOUS
70
0
71
3
72
8
73
4
74
2
42
0.0000001000
43
0.0000001000
44
0.0000000001
12
-0.0044697695
22
0.0901398617
32
0.0901084901
13
-0.0044426611
23
0.0901412018
33
0.0901098298
40
0.0000000000
40
0.0000000000
40
0.0000000000
40
0.0000000000
40
1.0000000000
40
1.0000000000
40
1.0000000000
40
1.0000000000
10
-18.4435506138
20
-14.9140676207
30
-2.0241226225
10
-18.4450405370
20
-14.8840210001
30
-1.9940864591
10
-18.4465259421
20
-14.8539741556
30
-1.9640500718
10
-18.4480068291
20
-14.8239270883
30
-1.9340134619
11
-18.4435506138
21
-14.9140676207
31
-2.0241226225
11
-18.4480068291
21
-14.8239270883
31
-1.9340134619
0
SPLINE
5
385
100
AcDbEntity
8
ASSI
100
AcDbSpline
62
9
6
CONTINUOUS
70
0
71
3
72
15
73
11
74
9
42
0.0000001000
43
0.0000001000
44
0.0000000001
12
-0.0052558180
22
0.1007190471
32
-0.0000000000
13
-0.0035554398
23
0.0684968010
33
0.0452173082
40
0.0000000000
40
0.0000000000
40
0.0000000000
40
0.0000000000
40
0.0883125983
40
0.1766251967
40
0.2649377950
40
0.3532503933
40
0.5298755900
40
0.7065007867
40
0.8831259833
40
1.0000000000
40
1.0000000000
40
1.0000000000
40
1.0000000000
10
-18.4040630523
20
-15.6900846266
30
-0.1424640000
10
-18.4042177706
20
-15.6871197064
30
-0.1424640000
10
-18.4044868344
20
-15.6819620884
30
-0.1423125439
10
-18.4049153216
20
-15.6737444534
30
-0.1416464812
10
-18.4053278148
20
-15.6658293378
30
-0.1405590615
10
-18.4058689651
20
-15.6554403163
30
-0.1385724250
10
-18.4065197797
20
-15.6429365229
30
-0.1351321418
10
-18.4072559113
20
-15.6287802920
30
-0.1296283723
10
-18.4078653831
20
-15.6170494620
30
-0.1236606582
10
-18.4082229169
20
-15.6101631595
30
-0.1194194701
10
-18.4083614298
20
-15.6074946607
30
-0.1176578939
11
-18.4040630523
21
-15.6900846266
31
-0.1424640000
11
-18.4044909830
21
-15.6818818871
31
-0.1422393975
11
-18.4049126559
21
-15.6737948733
31
-0.1415762551
11
-18.4053267097
21
-15.6658498961
31
-0.1404919686
11
-18.4057319693
21
-15.6580697373
31
-0.1390052850
11
-18.4065123054
21
-15.6430779098
31
-0.1349029035
11
-18.4072477116
21
-15.6289360342
31
-0.1294246356
11
-18.4079345298
21
-15.6157168720
31
-0.1227154793
11
-18.4083614298
21
-15.6074946607
31
-0.1176578939
0
SPLINE
5
386
100
AcDbEntity
8
ASSI
100
AcDbSpline
62
9
6
CONTINUOUS
70
0
71
3
72
8
73
4
74
2
42
0.0000001000
43
0.0000001000
44
0.0000000001
12
-0.0010799669
22
0.0210942621
32
-0.0210942621
13
-0.0010784822
23
0.0210943381
33
-0.0210943381
40
0.0000000000
40
0.0000000000
40
0.0000000000
40
0.0000000000
40
1.0000000000
40
1.0000000000
40
1.0000000000
40
1.0000000000
10
-18.4192934741
20
-15.3954356816
30
2.3010910550
10
-18.4196534631
20
-15.3884042609
30
2.2940596343
10
-18.4200132046
20
-15.3813728275
30
2.2870282009
10
-18.4203726986
20
-15.3743413815
30
2.2799967549
11
-18.4192934741
21
-15.3954356816
31
2.3010910550
11
-18.4203726986
21
-15.3743413815
31
2.2799967549
0
SPLINE
5
387
100
AcDbEntity
8
ASSI
100
AcDbSpline
62
9
6
CONTINUOUS
70
0
71
3
72
8
73
4
74
2
42
0.0000001000
43
0.0000001000
44
0.0000000001
12
-0.0108292231
22
0.2118118360
32
-0.2118118360
13
-0.0106795275
23
0.2118194364
33
-0.2118194364
40
0.0000000000
40
0.0000000000
40
0.0000000000
40
0.0000000000
40
1.0000000000
40
1.0000000000
40
1.0000000000
40
1.0000000000
10
-18.4203726986
20
-15.3743413815
30
2.2799967549
10
-18.4239824397
20
-15.3037374362
30
2.2093928095
10
-18.4275672319
20
-15.2331322153
30
2.1387875887
10
-18.4311270744
20
-15.1625257365
30
2.0681811099
11
-18.4203726986
21
-15.3743413815
31
2.2799967549
11
-18.4311270744
21
-15.1625257365
31
2.0681811099
0
SPLINE
5
388
100
AcDbEntity
8
ASSI
100
AcDbSpline
62
9
6
CONTINUOUS
70
0
71
3
72
8
73
4
74
2
42
0.0000001000
43
0.0000001000
44
0.0000000001
12
-0.0115472368
22
0.2290297203
32
-0.2290297203
13
-0.0113722210
23
0.2290384772
33
-0.2290384772
40
0.0000000000
40
0.0000000000
40
0.0000000000
40
0.0000000000
40
1.0000000000
40
1.0000000000
40
1.0000000000
40
1.0000000000
10
-18.4311270744
20
-15.1625257365
30
2.0681811099
10
-18.4349761533
20
-15.0861824964
30
1.9918378698
10
-18.4387960635
20
-15.0098377857
30
1.9154931591
10
-18.4425868038
20
-14.9334916266
30
1.8391470000
11
-18.4311270744
21
-15.1625257365
31
2.0681811099
11
-18.4425868038
21
-14.9334916266
31
1.8391470000
0
SPLINE
5
389
100
AcDbEntity
8
ASSI
100
AcDbSpline
62
9
6
CONTINUOUS
70
0
71
3
72
13
73
9
74
7
42
0.0000001000
43
0.0000001000
44
0.0000000001
12
-0.0029239891
22
0.0756361533
32
-0.1647974411
13
-0.0069307547
23
0.1814473425
33
0.0000000000
40
0.0000000000
40
0.0000000000
40
0.0000000000
40
0.0000000000
40
0.1666666667
40
0.3333333333
40
0.5000000000
40
0.6666666667
40
0.8333333333
40
1.0000000000
40
1.0000000000
40
1.0000000000
40
1.0000000000
10
-18.5878288331
20
-11.6440481528
30
0.8856856702
10
-18.5879912770
20
-11.6398461443
30
0.8765302568
10
-18.5883664779
20
-11.6301362438
30
0.8599888418
10
-18.5890920428
20
-11.6113321833
30
0.8383259516
10
-18.5899733933
20
-11.5884490142
30
0.8203393051
10
-18.5909684865
20
-11.5625569078
30
0.8070379989
10
-18.5920244190
20
-11.5350167878
30
0.7989766472
10
-18.5927548073
20
-11.5159210345
30
0.7970490000
10
-18.5931398492
20
-11.5058406266
30
0.7970490000
11
-18.5878288331
21
-11.6440481528
31
0.8856856702
11
-18.5883936051
21
-11.6294297088
31
0.8605137139
11
-18.5891180071
21
-11.6106523319
31
0.8389386589
11
-18.5899923504
21
-11.5879475247
31
0.8211201951
11
-18.5909786264
21
-11.5622822388
31
0.8079113246
11
-18.5920310273
21
-11.5348328695
31
0.7998382940
11
-18.5931398492
21
-11.5058406266
31
0.7970490000
0
SPLINE
5
38A
100
AcDbEntity
8
ASSI
100
AcDbSpline
62
9
6
CONTINUOUS
70
0
71
3
72
8
73
4
74
2
42
0.0000001000
43
0.0000001000
44
0.0000000001
12
-0.0029012647
22
0.0665252855
32
0.0011838863
13
-0.0028367649
23
0.0653722728
33
-0.0013286590
40
0.0000000000
40
0.0000000000
40
0.0000000000
40
0.0000000000
40
1.0000000000
40
1.0000000000
40
1.0000000000
40
1.0000000000
10
-18.5268432849
20
-13.1266266421
30
1.6997120041
10
-18.5278103731
20
-13.1044515470
30
1.7001066328
10
-18.5287660136
20
-13.0824838891
30
1.7000781702
10
-18.5297116019
20
-13.0606931315
30
1.6996352839
11
-18.5268432849
21
-13.1266266421
31
1.6997120041
11
-18.5297116019
21
-13.0606931315
31
1.6996352839
0
SPLINE
5
38B
100
AcDbEntity
8
ASSI
100
AcDbSpline
62
9
6
CONTINUOUS
70
0
71
3
72
9
73
5
74
3
42
0.0000001000
43
0.0000001000
44
0.0000000001
12
-0.0122203049
22
0.2816127312
32
-0.0057236388
13
-0.0114249972
23
0.2689941351
33
-0.0498504524
40
0.0000000000
40
0.0000000000
40
0.0000000000
40
0.0000000000
40
0.8370924375
40
1.0000000000
40
1.0000000000
40
1.0000000000
40
1.0000000000
10
-18.5297116019
20
-13.0606931315
30
1.6996352839
10
-18.5331214435
20
-12.9821145023
30
1.6980382123
10
-18.5370387254
20
-12.8909916080
30
1.6896925639
10
-18.5408628575
20
-12.8011080171
30
1.6742363219
10
-18.5414832636
20
-12.7865009575
30
1.6715293166
11
-18.5297116019
21
-13.0606931315
31
1.6996352839
11
-18.5396144253
21
-12.8304263403
31
1.6790834922
11
-18.5414832636
21
-12.7865009575
31
1.6715293166
0
SPLINE
5
38C
100
AcDbEntity
8
ASSI
100
AcDbSpline
62
9
6
CONTINUOUS
70
0
71
3
72
9
73
5
74
3
42
0.0000001000
43
0.0000001000
44
0.0000000001
12
-0.0118191210
22
0.2782735241
32
-0.0515701247
13
-0.0111163656
23
0.2674715355
33
-0.0975582433
40
0.0000000000
40
0.0000000000
40
0.0000000000
40
0.0000000000
40
0.8760978199
40
1.0000000000
40
1.0000000000
40
1.0000000000
40
1.0000000000
10
-18.5414832636
20
-12.7865009575
30
1.6715293166
10
-18.5449348323
20
-12.7052360149
30
1.6564691587
10
-18.5487836070
20
-12.6137378935
30
1.6325996334
10
-18.5525057507
20
-12.5242984917
30
1.6010253544
10
-18.5529648647
20
-12.5132517229
30
1.5969961281
11
-18.5414832636
21
-12.7865009575
31
1.6715293166
11
-18.5515814433
21
-12.5464935704
31
1.6087313170
11
-18.5529648647
21
-12.5132517229
31
1.5969961281
0
SPLINE
5
38D
100
AcDbEntity
8
ASSI
100
AcDbSpline
62
9
6
CONTINUOUS
70
0
71
3
72
9
73
5
74
3
42
0.0000001000
43
0.0000001000
44
0.0000000001
12
-0.0116333235
22
0.2799100891
32
-0.1020951127
13
-0.0105255816
23
0.2588809472
33
-0.1500594862
40
0.0000000000
40
0.0000000000
40
0.0000000000
40
0.0000000000
40
0.8692471827
40
1.0000000000
40
1.0000000000
40
1.0000000000
40
1.0000000000
10
-18.5529648647
20
-12.5132517229
30
1.5969961281
10
-18.5563356093
20
-12.4321480374
30
1.5674141650
10
-18.5600851609
20
-12.3410130737
30
1.5261207267
10
-18.5636223896
20
-12.2541341478
30
1.4770897614
10
-18.5640811394
20
-12.2428510100
30
1.4705495279
11
-18.5529648647
21
-12.5132517229
31
1.5969961281
11
-18.5626937544
21
-12.2769262389
31
1.4897793520
11
-18.5640811394
21
-12.2428510100
31
1.4705495279
0
SPLINE
5
38E
100
AcDbEntity
8
ASSI
100
AcDbSpline
62
9
6
CONTINUOUS
70
0
71
3
72
9
73
5
74
3
42
0.0000001000
43
0.0000001000
44
0.0000000001
12
-0.0115694832
22
0.2845561307
32
-0.1649420215
13
-0.0097698645
23
0.2456586838
33
-0.2145575206
40
0.0000000000
40
0.0000000000
40
0.0000000000
40
0.0000000000
40
0.7795743323
40
1.0000000000
40
1.0000000000
40
1.0000000000
40
1.0000000000
10
-18.5640811394
20
-12.2428510100
30
1.4705495279
10
-18.5670875635
20
-12.1689067915
30
1.4276880058
10
-18.5707373071
20
-12.0782707764
30
1.3655840766
10
-18.5740649353
20
-11.9947861649
30
1.2957258871
10
-18.5747827783
20
-11.9767363385
30
1.2799612255
11
-18.5640811394
21
-12.2428510100
31
1.4705495279
11
-18.5725822952
21
-12.0319379360
31
1.3261462033
11
-18.5747827783
21
-11.9767363385
31
1.2799612255
0
SPLINE
5
38F
100
AcDbEntity
8
ASSI
100
AcDbSpline
62
9
6
CONTINUOUS
70
0
71
3
72
9
73
5
74
3
42
0.0000001000
43
0.0000001000
44
0.0000000001
12
-0.0117525329
22
0.2955119546
32
-0.2580992103
13
-0.0090170789
23
0.2318669609
33
-0.3234016877
40
0.0000000000
40
0.0000000000
40
0.0000000000
40
0.0000000000
40
0.5637067624
40
1.0000000000
40
1.0000000000
40
1.0000000000
40
1.0000000000
10
-18.5747827783
20
-11.9767363385
30
1.2799612255
10
-18.5769911057
20
-11.9212089761
30
1.2314638021
10
-18.5806458464
20
-11.8286200347
30
1.1392840264
10
-18.5838343559
20
-11.7469691366
30
1.0371746867
10
-18.5851457194
20
-11.7132484742
30
0.9901420303
11
-18.5747827783
21
-11.9767363385
31
1.2799612255
11
-18.5809633577
21
-11.8202986821
31
1.1243838053
11
-18.5851457194
21
-11.7132484742
31
0.9901420303
0
SPLINE
5
390
100
AcDbEntity
8
ASSI
100
AcDbSpline
62
9
6
CONTINUOUS
70
0
71
3
72
8
73
4
74
2
42
0.0000001000
43
0.0000001000
44
0.0000000001
12
-0.0028011834
22
0.0720301858
32
-0.1004657307
13
-0.0025682881
23
0.0664350751
33
-0.1086610302
40
0.0000000000
40
0.0000000000
40
0.0000000000
40
0.0000000000
40
1.0000000000
40
1.0000000000
40
1.0000000000
40
1.0000000000
10
-18.5851457194
20
-11.7132484742
30
0.9901420303
10
-18.5860794472
20
-11.6892384123
30
0.9566534534
10
-18.5869727371
20
-11.6661931778
30
0.9219060136
10
-18.5878288331
20
-11.6440481528
30
0.8856856702
11
-18.5851457194
21
-11.7132484742
31
0.9901420303
11
-18.5878288331
21
-11.6440481528
31
0.8856856702
0
SPLINE
5
391
100
AcDbEntity
8
ASSI
100
AcDbSpline
62
9
6
CONTINUOUS
70
0
71
3
72
10
73
6
74
4
42
0.0000001000
43
0.0000001000
44
0.0000000001
12
0.0000278335
22
-0.0005643113
32
0.8106907429
13
-0.0167635325
23
0.3439096163
33
0.7044468561
40
0.0000000000
40
0.0000000000
40
0.0000000000
40
0.0000000000
40
0.4276770682
40
0.8553541364
40
1.0000000000
40
1.0000000000
40
1.0000000000
40
1.0000000000
10
-18.4474549843
20
-14.8351197215
30
-0.0099062641
10
-18.4474510164
20
-14.8352001691
30
0.1056650159
10
-18.4485719132
20
-14.8124945668
30
0.3235863623
10
-18.4521665027
20
-14.7393774151
30
0.5709065097
10
-18.4551451306
20
-14.6783817344
30
0.7071389598
10
-18.4559533892
20
-14.6618000333
30
0.7411040678
11
-18.4474549843
21
-14.8351197215
31
-0.0099062641
11
-18.4490603507
21
-14.8025357029
31
0.3219926035
11
-18.4536983772
21
-14.7079900416
31
0.6379381600
11
-18.4559533892
21
-14.6618000333
31
0.7411040678
0
SPLINE
5
392
100
AcDbEntity
8
ASSI
100
AcDbSpline
62
9
6
CONTINUOUS
70
0
71
3
72
9
73
5
74
3
42
0.0000001000
43
0.0000001000
44
0.0000000001
12
-0.0098183798
22
0.2014274280
32
0.4125936341
13
-0.0146289458
23
0.3054698253
33
0.3449514965
40
0.0000000000
40
0.0000000000
40
0.0000000000
40
0.0000000000
40
0.4832368359
40
1.0000000000
40
1.0000000000
40
1.0000000000
40
1.0000000000
10
-18.4559533892
20
-14.6618000333
30
0.7411040678
10
-18.4575349235
20
-14.6293543156
30
0.8075642152
10
-18.4612471010
20
-14.5529736632
30
0.9414067418
10
-18.4657595825
20
-14.4593097591
30
1.0635706088
10
-18.4682794826
20
-14.4066912412
30
1.1229900178
11
-18.4559533892
21
-14.6618000333
31
0.7411040678
11
-18.4613095306
21
-14.5514984784
31
0.9341923180
11
-18.4682794826
21
-14.4066912412
31
1.1229900178
0
SPLINE
5
393
100
AcDbEntity
8
ASSI
100
AcDbSpline
62
9
6
CONTINUOUS
70
0
71
3
72
9
73
5
74
3
42
0.0000001000
43
0.0000001000
44
0.0000000001
12
-0.0112773376
22
0.2354842511
32
0.2659203564
13
-0.0134873409
23
0.2868782387
33
0.2113919982
40
0.0000000000
40
0.0000000000
40
0.0000000000
40
0.0000000000
40
0.2768696188
40
1.0000000000
40
1.0000000000
40
1.0000000000
40
1.0000000000
10
-18.4682794826
20
-14.4066912412
30
1.1229900178
10
-18.4693202667
20
-14.3849584296
30
1.1475317737
10
-18.4731952233
20
-14.3038657487
30
1.2338857810
10
-18.4774649640
20
-14.2137565123
30
1.3114389742
10
-18.4807159994
20
-14.1446063889
30
1.3623936329
11
-18.4682794826
21
-14.4066912412
31
1.1229900178
11
-18.4714962451
21
-14.3393630502
31
1.1946747337
11
-18.4807159994
21
-14.1446063889
31
1.3623936329
0
SPLINE
5
394
100
AcDbEntity
8
ASSI
100
AcDbSpline
62
9
6
CONTINUOUS
70
0
71
3
72
9
73
5
74
3
42
0.0000001000
43
0.0000001000
44
0.0000000001
12
-0.0118064287
22
0.2511249260
32
0.1850464508
13
-0.0129268646
23
0.2802632402
33
0.1367522904
40
0.0000000000
40
0.0000000000
40
0.0000000000
40
0.0000000000
40
0.2559870331
40
1.0000000000
40
1.0000000000
40
1.0000000000
40
1.0000000000
10
-18.4807159994
20
-14.1446063889
30
1.3623936329
10
-18.4817234302
20
-14.1231781473
30
1.3781834636
10
-18.4857202220
20
-14.0379733397
30
1.4379425990
10
-18.4899370209
20
-13.9472519896
30
1.4899514911
10
-18.4931429392
20
-13.8777454947
30
1.5238666502
11
-18.4807159994
21
-14.1446063889
31
1.3623936329
11
-18.4837841009
21
-14.0791940000
31
1.4082707226
11
-18.4931429392
21
-13.8777454947
31
1.5238666502
0
SPLINE
5
395
100
AcDbEntity
8
ASSI
100
AcDbSpline
62
9
6
CONTINUOUS
70
0
71
3
72
9
73
5
74
3
42
0.0000001000
43
0.0000001000
44
0.0000000001
12
-0.0120342685
22
0.2609111486
32
0.1273095863
13
-0.0124415147
23
0.2751143037
33
0.0811373684
40
0.0000000000
40
0.0000000000
40
0.0000000000
40
0.0000000000
40
0.3631326080
40
1.0000000000
40
1.0000000000
40
1.0000000000
40
1.0000000000
10
-18.4931429392
20
-13.8777454947
30
1.5238666502
10
-18.4945996177
20
-13.8461637127
30
1.5392767376
10
-18.4986500222
20
-13.7580513510
30
1.5789955944
10
-18.5027699148
20
-13.6675376404
30
1.6108819488
10
-18.5054111131
20
-13.6091338641
30
1.6281065302
11
-18.4931429392
21
-13.8777454947
31
1.5238666502
11
-18.4975504487
21
-13.7818541147
31
1.5670903265
11
-18.5054111131
21
-13.6091338641
31
1.6281065302
0
SPLINE
5
396
100
AcDbEntity
8
ASSI
100
AcDbSpline
62
9
6
CONTINUOUS
70
0
71
3
72
9
73
5
74
3
42
0.0000001000
43
0.0000001000
44
0.0000000001
12
-0.0122576670
22
0.2710489516
32
0.0799384050
13
-0.0124939389
23
0.2820143556
33
0.0358682805
40
0.0000000000
40
0.0000000000
40
0.0000000000
40
0.0000000000
40
0.5333437104
40
1.0000000000
40
1.0000000000
40
1.0000000000
40
1.0000000000
10
-18.5054111131
20
-13.6091338641
30
1.6281065302
10
-18.5075902963
20
-13.5609464462
30
1.6423180787
10
-18.5116983599
20
-13.4696286071
30
1.6650294076
10
-18.5158266531
20
-13.3769208459
30
1.6805488539
10
-18.5177701115
20
-13.3330529216
30
1.6861282401
11
-18.5054111131
21
-13.6091338641
31
1.6281065302
11
-18.5119780705
21
-13.4631434849
31
1.6644981969
11
-18.5177701115
21
-13.3330529216
31
1.6861282401
0
SPLINE
5
397
100
AcDbEntity
8
ASSI
100
AcDbSpline
62
9
6
CONTINUOUS
70
0
71
3
72
8
73
4
74
2
42
0.0000001000
43
0.0000001000
44
0.0000000001
12
-0.0089095144
22
0.2011063901
32
0.0255779192
13
-0.0092816480
23
0.2128259061
33
0.0012445506
40
0.0000000000
40
0.0000000000
40
0.0000000000
40
0.0000000000
40
1.0000000000
40
1.0000000000
40
1.0000000000
40
1.0000000000
10
-18.5177701115
20
-13.3330529216
30
1.6861282401
10
-18.5207399496
20
-13.2660174582
30
1.6946542132
10
-18.5237494022
20
-13.1975686108
30
1.6992971539
10
-18.5268432849
20
-13.1266266421
30
1.6997120041
11
-18.5177701115
21
-13.3330529216
31
1.6861282401
11
-18.5268432849
21
-13.1266266421
31
1.6997120041
0
SPLINE
5
398
100
AcDbEntity
8
ASSI
100
AcDbSpline
62
9
6
CONTINUOUS
70
0
71
3
72
8
73
4
74
2
42
0.0000001000
43
0.0000001000
44
0.0000000001
12
0.0091834624
22
-0.2105754378
32
-0.0000061626
13
0.0091098892
23
-0.2056111899
33
0.0252340898
40
0.0000000000
40
0.0000000000
40
0.0000000000
40
0.0000000000
40
1.0000000000
40
1.0000000000
40
1.0000000000
40
1.0000000000
10
-18.5268457496
20
-13.1265701266
30
-1.7172157673
10
-18.5237845955
20
-13.1967619392
30
-1.7172178215
10
-18.5207401179
20
-13.2660119567
30
-1.7129875250
10
-18.5177034882
20
-13.3345490200
30
-1.7045761618
11
-18.5268457496
21
-13.1265701266
31
-1.7172157673
11
-18.5177034882
21
-13.3345490200
31
-1.7045761618
0
SPLINE
5
399
100
AcDbEntity
8
ASSI
100
AcDbSpline
62
9
6
CONTINUOUS
70
0
71
3
72
9
73
5
74
3
42
0.0000001000
43
0.0000001000
44
0.0000000001
12
0.0123313516
22
-0.2783199476
32
0.0341574336
13
0.0122165255
23
-0.2701320604
33
0.0795289661
40
0.0000000000
40
0.0000000000
40
0.0000000000
40
0.0000000000
40
0.4509909435
40
1.0000000000
40
1.0000000000
40
1.0000000000
40
1.0000000000
10
-18.5177034882
20
-13.3345490200
30
-1.7045761618
10
-18.5158497122
20
-13.3763889453
30
-1.6994412640
10
-18.5117457467
20
-13.4685731128
30
-1.6846004365
10
-18.5076462854
20
-13.5597069117
30
-1.6621560291
10
-18.5054106243
20
-13.6091418942
30
-1.6476019882
11
-18.5177034882
21
-13.3345490200
31
-1.7045761618
11
-18.5121489258
21
-13.4593237572
31
-1.6845085928
11
-18.5054106243
21
-13.6091418942
31
-1.6476019882
0
SPLINE
5
39A
100
AcDbEntity
8
ASSI
100
AcDbSpline
62
9
6
CONTINUOUS
70
0
71
3
72
9
73
5
74
3
42
0.0000001000
43
0.0000001000
44
0.0000000001
12
0.0124686445
22
-0.2757069193
32
0.0811702477
13
0.0119070240
23
-0.2581779448
33
0.1261869279
40
0.0000000000
40
0.0000000000
40
0.0000000000
40
0.0000000000
40
0.6277843346
40
1.0000000000
40
1.0000000000
40
1.0000000000
40
1.0000000000
10
-18.5054106243
20
-13.6091418942
30
-1.6476019882
10
-18.5028014178
20
-13.6668367225
30
-1.6306161849
10
-18.4986777054
20
-13.7574409163
30
-1.5987170311
10
-18.4946607143
20
-13.8448410697
30
-1.5593461804
10
-18.4931833873
20
-13.8768736949
30
-1.5436899299
11
-18.5054106243
21
-13.6091418942
31
-1.6476019882
11
-18.4976658740
21
-13.7793337550
31
-1.5876199126
11
-18.4931833873
21
-13.8768736949
31
-1.5436899299
0
SPLINE
5
39B
100
AcDbEntity
8
ASSI
100
AcDbSpline
62
9
6
CONTINUOUS
70
0
71
3
72
9
73
5
74
3
42
0.0000001000
43
0.0000001000
44
0.0000000001
12
0.0130185271
22
-0.2822784744
32
0.1379662912
13
0.0118594706
23
-0.2522452027
33
0.1872392927
40
0.0000000000
40
0.0000000000
40
0.0000000000
40
0.0000000000
40
0.7257307409
40
1.0000000000
40
1.0000000000
40
1.0000000000
40
1.0000000000
10
-18.4931833873
20
-13.8768736949
30
-1.5436899299
10
-18.4900340722
20
-13.9451597504
30
-1.5103144703
10
-18.4858064006
20
-14.0361273985
30
-1.4580525544
10
-18.4817893823
20
-14.1217738581
30
-1.3977603287
10
-18.4807051529
20
-14.1448348931
30
-1.3806423347
11
-18.4931833873
21
-13.8768736949
31
-1.5436899299
11
-18.4840087177
21
-14.0743931970
31
-1.4302288678
11
-18.4807051529
21
-14.1448348931
31
-1.3806423347
0
SPLINE
5
39C
100
AcDbEntity
8
ASSI
100
AcDbSpline
62
9
6
CONTINUOUS
70
0
71
3
72
9
73
5
74
3
42
0.0000001000
43
0.0000001000
44
0.0000000001
12
0.0134051197
22
-0.2851204098
32
0.2116422563
13
0.0112742148
23
-0.2354273053
33
0.2660950255
40
0.0000000000
40
0.0000000000
40
0.0000000000
40
0.0000000000
40
0.7005897928
40
1.0000000000
40
1.0000000000
40
1.0000000000
40
1.0000000000
10
-18.4807051529
20
-14.1448348931
30
-1.3806423347
10
-18.4775746563
20
-14.2114190427
30
-1.3312175332
10
-18.4733147011
20
-14.3013525351
30
-1.2537484287
10
-18.4694340869
20
-14.3825808414
30
-1.1674969919
10
-18.4683088819
20
-14.4060772875
30
-1.1409398030
11
-18.4807051529
21
-14.1448348931
31
-1.3806423347
11
-18.4717918845
21
-14.3331592841
31
-1.2183588079
11
-18.4683088819
21
-14.4060772875
31
-1.1409398030
0
SPLINE
5
39D
100
AcDbEntity
8
ASSI
100
AcDbSpline
62
9
6
CONTINUOUS
70
0
71
3
72
9
73
5
74
3
42
0.0000001000
43
0.0000001000
44
0.0000000001
12
0.0146556842
22
-0.3060388972
32
0.3459047712
13
0.0098839382
23
-0.2027669040
33
0.4155193702
40
0.0000000000
40
0.0000000000
40
0.0000000000
40
0.0000000000
40
0.4952767137
40
1.0000000000
40
1.0000000000
40
1.0000000000
40
1.0000000000
10
-18.4683088819
20
-14.4060772875
30
-1.1409398030
10
-18.4658893422
20
-14.4566019339
30
-1.0838336102
10
-18.4613466516
20
-14.5509208638
30
-0.9616923048
10
-18.4576043566
20
-14.6279317103
30
-0.8279573213
10
-18.4559414720
20
-14.6620454363
30
-0.7580498873
11
-18.4683088819
21
-14.4060772875
31
-1.1409398030
11
-18.4615859007
21
-14.5457842173
31
-0.9600022036
11
-18.4559414720
21
-14.6620454363
31
-0.7580498873
0
SPLINE
5
39E
100
AcDbEntity
8
ASSI
100
AcDbSpline
62
9
6
CONTINUOUS
70
0
71
3
72
10
73
6
74
4
42
0.0000001000
43
0.0000001000
44
0.0000000001
12
0.0165268438
22
-0.3390447079
32
0.6947861843
13
0.0000269845
23
-0.0005470980
33
0.7859620501
40
0.0000000000
40
0.0000000000
40
0.0000000000
40
0.0000000000
40
0.1320989519
40
0.5660494760
40
1.0000000000
40
1.0000000000
40
1.0000000000
40
1.0000000000
10
-18.4559414720
20
-14.6620454363
30
-0.7580498873
10
-18.4552137457
20
-14.6769745865
30
-0.7274563783
10
-18.4522808291
20
-14.7370439798
30
-0.5943855362
10
-18.4485630253
20
-14.8126796516
30
-0.3458193338
10
-18.4474589126
20
-14.8350400756
30
-0.1235958116
10
-18.4474550093
20
-14.8351192134
30
-0.0099062638
11
-18.4559414720
21
-14.6620454363
31
-0.7580498873
11
-18.4538899554
21
-14.7040715912
31
-0.6649313626
11
-18.4490936686
21
-14.8018586879
31
-0.3441961702
11
-18.4474550093
21
-14.8351192134
31
-0.0099062638
0
SPLINE
5
39F
100
AcDbEntity
8
ASSI
100
AcDbSpline
62
9
6
CONTINUOUS
70
0
71
3
72
8
73
4
74
2
42
0.0000001000
43
0.0000001000
44
0.0000000001
12
0.0028206780
22
-0.0730111230
32
-0.1299820603
13
0.0031495204
23
-0.0809850206
33
-0.1190987211
40
0.0000000000
40
0.0000000000
40
0.0000000000
40
0.0000000000
40
1.0000000000
40
1.0000000000
40
1.0000000000
40
1.0000000000
10
-18.5881190469
20
-11.6365386266
30
-0.8452030000
10
-18.5871788209
20
-11.6608756676
30
-0.8885303534
10
-18.5861859833
20
-11.6864999056
30
-0.9298736134
10
-18.5851361431
20
-11.7134949124
30
-0.9695731871
11
-18.5881190469
21
-11.6365386266
31
-0.8452030000
11
-18.5851361431
21
-11.7134949124
31
-0.9695731871
0
SPLINE
5
3A0
100
AcDbEntity
8
ASSI
100
AcDbSpline
62
9
6
CONTINUOUS
70
0
71
3
72
9
73
5
74
3
42
0.0000001000
43
0.0000001000
44
0.0000000001
12
0.0089111044
22
-0.2291351928
32
-0.3369722969
13
0.0118233510
23
-0.2972913241
33
-0.2704243730
40
0.0000000000
40
0.0000000000
40
0.0000000000
40
0.0000000000
40
0.3920382359
40
1.0000000000
40
1.0000000000
40
1.0000000000
40
1.0000000000
10
-18.5851361431
20
-11.7134949124
30
-0.9695731871
10
-18.5839716452
20
-11.7434381647
30
-1.0136085287
10
-18.5808223827
20
-11.8241185273
30
-1.1207741500
10
-18.5771778125
20
-11.9165142998
30
-1.2178043274
10
-18.5747817641
20
-11.9767615524
30
-1.2726068870
11
-18.5851361431
21
-11.7134949124
31
-0.9695731871
11
-18.5814262568
21
-11.8084983267
31
-1.0960768142
11
-18.5747817641
21
-11.9767615524
31
-1.2726068870
0
SPLINE
5
3A1
100
AcDbEntity
8
ASSI
100
AcDbSpline
62
9
6
CONTINUOUS
70
0
71
3
72
9
73
5
74
3
42
0.0000001000
43
0.0000001000
44
0.0000000001
12
0.0097766228
22
-0.2458275268
32
-0.2236114862
13
0.0116322412
23
-0.2860771334
33
-0.1726155457
40
0.0000000000
40
0.0000000000
40
0.0000000000
40
0.0000000000
40
0.1663026811
40
1.0000000000
40
1.0000000000
40
1.0000000000
40
1.0000000000
10
-18.5747817641
20
-11.9767615524
30
-1.2726068870
10
-18.5742398045
20
-11.9903888113
30
-1.2850026169
10
-18.5709254661
20
-12.0735846949
30
-1.3582513572
10
-18.5672787794
20
-12.1642101426
30
-1.4235677710
10
-18.5640461900
20
-12.2437107223
30
-1.4715374769
11
-18.5747817641
21
-11.9767615524
31
-1.2726068870
11
-18.5731282462
21
-12.0182656847
31
-1.3091461597
11
-18.5640461900
21
-12.2437107223
31
-1.4715374769
0
SPLINE
5
3A2
100
AcDbEntity
8
ASSI
100
AcDbSpline
62
9
6
CONTINUOUS
70
0
71
3
72
9
73
5
74
3
42
0.0000001000
43
0.0000001000
44
0.0000000001
12
0.0104938058
22
-0.2580790609
32
-0.1557218412
13
0.0116567086
23
-0.2804542284
33
-0.1077138766
40
0.0000000000
40
0.0000000000
40
0.0000000000
40
0.0000000000
40
0.0752035298
40
1.0000000000
40
1.0000000000
40
1.0000000000
40
1.0000000000
10
-18.5640461900
20
-12.2437107223
30
-1.4715374769
10
-18.5637831329
20
-12.2501802077
30
-1.4754410876
10
-18.5602682594
20
-12.3365540658
30
-1.5267773742
10
-18.5565318362
20
-12.4274327636
30
-1.5704284905
10
-18.5529384752
20
-12.5138871238
30
-1.6036329615
11
-18.5640461900
21
-12.2437107223
31
-1.4715374769
11
-18.5632532181
21
-12.2631969232
31
-1.4831189635
11
-18.5529384752
21
-12.5138871238
31
-1.6036329615
0
SPLINE
5
3A3
100
AcDbEntity
8
ASSI
100
AcDbSpline
62
9
6
CONTINUOUS
70
0
71
3
72
9
73
5
74
3
42
0.0000001000
43
0.0000001000
44
0.0000000001
12
0.0110681927
22
-0.2662948471
32
-0.1022756920
13
0.0118407859
23
-0.2787803069
33
-0.0566311061
40
0.0000000000
40
0.0000000000
40
0.0000000000
40
0.0000000000
40
0.0785131301
40
1.0000000000
40
1.0000000000
40
1.0000000000
40
1.0000000000
10
-18.5529384752
20
-12.5138871238
30
-1.6036329615
10
-18.5526488091
20
-12.5208563378
30
-1.6063096231
10
-18.5489479956
20
-12.6098207578
30
-1.6398085914
10
-18.5451061615
20
-12.7012031861
30
-1.6657053489
10
-18.5414691186
20
-12.7868339836
30
-1.6831002891
11
-18.5529384752
21
-12.5138871238
31
-1.6036329615
11
-18.5520668149
21
-12.5348409933
31
-1.6115229784
11
-18.5414691186
21
-12.7868339836
31
-1.6831002891
0
SPLINE
5
3A4
100
AcDbEntity
8
ASSI
100
AcDbSpline
62
9
6
CONTINUOUS
70
0
71
3
72
9
73
5
74
3
42
0.0000001000
43
0.0000001000
44
0.0000000001
12
0.0113820279
22
-0.2679792763
32
-0.0544369974
13
0.0122421408
23
-0.2821131493
33
-0.0106761840
40
0.0000000000
40
0.0000000000
40
0.0000000000
40
0.0000000000
40
0.1362756898
40
1.0000000000
40
1.0000000000
40
1.0000000000
40
1.0000000000
10
-18.5414691186
20
-12.7868339836
30
-1.6831002891
10
-18.5409520874
20
-12.7990070038
30
-1.6855731022
10
-18.5371437170
20
-12.8885444624
30
-1.7027595277
10
-18.5332335068
20
-12.9795330190
30
-1.7129049346
10
-18.5297088953
20
-13.0607556807
30
-1.7159786945
11
-18.5414691186
21
-12.7868339836
31
-1.6831002891
11
-18.5399122195
21
-12.8234375101
31
-1.6901265270
11
-18.5297088953
21
-13.0607556807
31
-1.7159786945
0
SPLINE
5
3A5
100
AcDbEntity
8
ASSI
100
AcDbSpline
62
9
6
CONTINUOUS
70
0
71
3
72
8
73
4
74
2
42
0.0000001000
43
0.0000001000
44
0.0000000001
12
0.0028301284
22
-0.0652186952
32
-0.0024681118
13
0.0028975299
23
-0.0664399377
33
0.0000023327
40
0.0000000000
40
0.0000000000
40
0.0000000000
40
0.0000000000
40
1.0000000000
40
1.0000000000
40
1.0000000000
40
1.0000000000
10
-18.5297088953
20
-13.0607556807
30
-1.7159786945
10
-18.5287655191
20
-13.0824952458
30
-1.7168013984
10
-18.5278115929
20
-13.1044234807
30
-1.7172165448
10
-18.5268457496
20
-13.1265701266
30
-1.7172157673
11
-18.5297088953
21
-13.0607556807
31
-1.7159786945
11
-18.5268457496
21
-13.1265701266
31
-1.7172157673
0
SPLINE
5
3A6
100
AcDbEntity
8
ASSI
100
AcDbSpline
62
9
6
CONTINUOUS
70
0
71
3
72
8
73
4
74
2
42
0.0000001000
43
0.0000001000
44
0.0000000001
12
-0.0010197903
22
0.0199204236
32
0.0199274396
13
-0.0010184662
23
0.0199204913
33
0.0199275073
40
0.0000000000
40
0.0000000000
40
0.0000000000
40
0.0000000000
40
1.0000000000
40
1.0000000000
40
1.0000000000
40
1.0000000000
10
-18.4193544412
20
-15.3942448059
30
-2.2993289225
10
-18.4196943713
20
-15.3876046647
30
-2.2926864426
10
-18.4200340807
20
-15.3809645123
30
-2.2860439515
10
-18.4203735695
20
-15.3743243485
30
-2.2794014490
11
-18.4193544412
21
-15.3942448059
31
-2.2993289225
11
-18.4203735695
21
-15.3743243485
31
-2.2794014490
0
SPLINE
5
3A7
100
AcDbEntity
8
ASSI
100
AcDbSpline
62
9
6
CONTINUOUS
70
0
71
3
72
8
73
4
74
2
42
0.0000001000
43
0.0000001000
44
0.0000000001
12
-0.0107737594
22
0.2107272411
32
0.2108014595
13
-0.0106255929
23
0.2107347642
33
0.2108089852
40
0.0000000000
40
0.0000000000
40
0.0000000000
40
0.0000000000
40
1.0000000000
40
1.0000000000
40
1.0000000000
40
1.0000000000
10
-18.4203735695
20
-15.3743243485
30
-2.2794014490
10
-18.4239648226
20
-15.3040819348
30
-2.2091342959
10
-18.4275313818
20
-15.2338382586
30
-2.1388658797
10
-18.4310732461
20
-15.1635933372
30
-2.0685962180
11
-18.4203735695
21
-15.3743243485
31
-2.2794014490
11
-18.4310732461
21
-15.1635933372
31
-2.0685962180
0
SPLINE
5
3A8
100
AcDbEntity
8
ASSI
100
AcDbSpline
62
9
6
CONTINUOUS
70
0
71
3
72
8
73
4
74
2
42
0.0000001000
43
0.0000001000
44
0.0000000001
12
-0.0119548205
22
0.2370970068
32
0.2371805126
13
-0.0117672579
23
0.2371063896
33
0.2371898987
40
0.0000000000
40
0.0000000000
40
0.0000000000
40
0.0000000000
40
1.0000000000
40
1.0000000000
40
1.0000000000
40
1.0000000000
10
-18.4310732461
20
-15.1635933372
30
-2.0685962180
10
-18.4350581862
20
-15.0845610016
30
-1.9895360472
10
-18.4390118666
20
-15.0055270898
30
-1.9104742996
10
-18.4429342859
20
-14.9264916266
30
-1.8314110000
11
-18.4310732461
21
-15.1635933372
31
-2.0685962180
11
-18.4429342859
21
-14.9264916266
31
-1.8314110000
0
SPLINE
5
3A9
100
AcDbEntity
8
ASSI
100
AcDbSpline
62
9
6
CONTINUOUS
70
0
71
3
72
13
73
9
74
7
42
0.0000001000
43
0.0000001000
44
0.0000000001
12
0.0068611428
22
-0.1799224082
32
-0.0000000000
13
0.0040801572
23
-0.1056117932
33
-0.1455318682
40
0.0000000000
40
0.0000000000
40
0.0000000000
40
0.0000000000
40
0.1666666667
40
0.3333333333
40
0.5000000000
40
0.6666666667
40
0.8333333333
40
1.0000000000
40
1.0000000000
40
1.0000000000
40
1.0000000000
10
-18.5938616729
20
-11.4869276266
30
-0.7689201096
10
-18.5934804983
20
-11.4969233160
30
-0.7689201096
10
-18.5927455609
20
-11.5161701870
30
-0.7704973482
10
-18.5916693744
20
-11.5442842649
30
-0.7772446283
10
-18.5906343703
20
-11.5712569658
30
-0.7884135212
10
-18.5896776076
20
-11.5961338412
30
-0.8036861917
10
-18.5888311346
20
-11.6180980321
30
-0.8224741477
10
-18.5883457223
20
-11.6306713048
30
-0.8371178962
10
-18.5881190469
20
-11.6365386266
30
-0.8452030000
11
-18.5938616729
21
-11.4869276266
31
-0.7689201096
11
-18.5927499309
21
-11.5160441489
31
-0.7712275852
11
-18.5916762381
21
-11.5440940354
31
-0.7779815638
11
-18.5906474106
21
-11.5709076616
31
-0.7890974841
11
-18.5896959892
21
-11.5956483938
31
-0.8042720726
11
-18.5888508604
21
-11.6175806518
31
-0.8230037588
11
-18.5881190469
21
-11.6365386266
31
-0.8452030000
0
SPLINE
5
3AA
100
AcDbEntity
8
ASSI
100
AcDbSpline
62
9
6
CONTINUOUS
70
0
71
3
72
11
73
7
74
5
42
0.0000001000
43
0.0000001000
44
0.0000000001
12
-0.0000345940
22
0.0006940839
32
-1.1341310596
13
-0.0308820025
23
0.6335134144
33
-0.9227366357
40
0.0000000000
40
0.0000000000
40
0.0000000000
40
0.0000000000
40
0.3267643542
40
0.6535287085
40
0.9802930627
40
1.0000000000
40
1.0000000000
40
1.0000000000
40
1.0000000000
10
-18.4397723562
20
-14.9900672785
30
-0.0098574223
10
-18.4397761242
20
-14.9899916779
30
-0.1333886234
10
-18.4409827403
20
-14.9658115160
30
-0.3750633221
10
-18.4462945327
20
-14.8588451592
30
-0.7277623547
10
-18.4521553706
20
-14.7396817023
30
-0.9501718273
10
-18.4556926681
20
-14.6671486907
30
-1.0571707069
10
-18.4558955313
20
-14.6629871543
30
-1.0632321446
11
-18.4397723562
21
-14.9900672785
31
-0.0098574223
11
-18.4415663850
21
-14.9540288303
31
-0.3734278195
11
-18.4468315538
21
-14.8477540585
31
-0.7229539596
11
-18.4552919582
21
-14.6753636419
31
-1.0449745923
11
-18.4558955313
21
-14.6629871543
31
-1.0632321446
0
SPLINE
5
3AB
100
AcDbEntity
8
ASSI
100
AcDbSpline
62
9
6
CONTINUOUS
70
0
71
3
72
9
73
5
74
3
42
0.0000001000
43
0.0000001000
44
0.0000000001
12
-0.0108952718
22
0.2235056119
32
-0.3255445137
13
-0.0137427585
23
0.2869679640
33
-0.2712602579
40
0.0000000000
40
0.0000000000
40
0.0000000000
40
0.0000000000
40
0.8703360554
40
1.0000000000
40
1.0000000000
40
1.0000000000
40
1.0000000000
10
-18.4558955313
20
-14.6629871543
30
-1.0632321446
10
-18.4590563806
20
-14.5981454901
30
-1.1576765206
10
-18.4631526645
20
-14.5136207018
30
-1.2593431690
10
-18.4676800344
20
-14.4192071107
30
-1.3510815253
10
-18.4682740145
20
-14.4068039780
30
-1.3628057504
11
-18.4558955313
21
-14.6629871543
31
-1.0632321446
11
-18.4665132089
21
-14.4435249301
31
-1.3271242893
11
-18.4682740145
21
-14.4068039780
31
-1.3628057504
0
SPLINE
5
3AC
100
AcDbEntity
8
ASSI
100
AcDbSpline
62
9
6
CONTINUOUS
70
0
71
3
72
9
73
5
74
3
42
0.0000001000
43
0.0000001000
44
0.0000000001
12
-0.0116236782
22
0.2427186136
32
-0.2294329750
13
-0.0131430407
23
0.2795467746
33
-0.1824573226
40
0.0000000000
40
0.0000000000
40
0.0000000000
40
0.0000000000
40
0.9417434565
40
1.0000000000
40
1.0000000000
40
1.0000000000
40
1.0000000000
10
-18.4682740145
20
-14.4068039780
30
-1.3628057504
10
-18.4719228554
20
-14.3306110893
30
-1.4348280847
10
-18.4760756483
20
-14.2432496345
30
-1.5044562691
10
-18.4804443526
20
-14.1503833476
30
-1.5657630132
10
-18.4806995754
20
-14.1449548714
30
-1.5693061241
11
-18.4682740145
21
-14.4068039780
31
-1.3628057504
11
-18.4799360742
21
-14.1611848030
31
-1.5585917336
11
-18.4806995754
21
-14.1449548714
31
-1.5693061241
0
SPLINE
5
3AD
100
AcDbEntity
8
ASSI
100
AcDbSpline
62
9
6
CONTINUOUS
70
0
71
3
72
8
73
4
74
2
42
0.0000001000
43
0.0000001000
44
0.0000000001
12
-0.0119378980
22
0.2539139103
32
-0.1657270141
13
-0.0128056531
23
0.2776349665
33
-0.1223988070
40
0.0000000000
40
0.0000000000
40
0.0000000000
40
0.0000000000
40
1.0000000000
40
1.0000000000
40
1.0000000000
40
1.0000000000
10
-18.4806995754
20
-14.1449548714
30
-1.5693061241
10
-18.4846788747
20
-14.0603169013
30
-1.6245484622
10
-18.4888324958
20
-13.9712041993
30
-1.6728849762
10
-18.4931010468
20
-13.8786592105
30
-1.7136845786
11
-18.4806995754
21
-14.1449548714
31
-1.5693061241
11
-18.4931010468
21
-13.8786592105
31
-1.7136845786
0
SPLINE
5
3AE
100
AcDbEntity
8
ASSI
100
AcDbSpline
62
9
6
CONTINUOUS
70
0
71
3
72
9
73
5
74
3
42
0.0000001000
43
0.0000001000
44
0.0000000001
12
-0.0121414132
22
0.2632338100
32
-0.1160498792
13
-0.0125571464
23
0.2776853601
33
-0.0742363357
40
0.0000000000
40
0.0000000000
40
0.0000000000
40
0.0000000000
40
0.1491932503
40
1.0000000000
40
1.0000000000
40
1.0000000000
40
1.0000000000
10
-18.4931010468
20
-13.8786592105
30
-1.7136845786
10
-18.4937048524
20
-13.8655683079
30
-1.7194558648
10
-18.4977674042
20
-13.7773633762
30
-1.7571283290
10
-18.5019257199
20
-13.6862055515
30
-1.7879452452
10
-18.5054869548
20
-13.6074533586
30
-1.8089988370
11
-18.4931010468
21
-13.8786592105
31
-1.7136845786
11
-18.4949191946
21
-13.8391834197
31
-1.7305442245
11
-18.5054869548
21
-13.6074533586
31
-1.8089988370
0
SPLINE
5
3AF
100
AcDbEntity
8
ASSI
100
AcDbSpline
62
9
6
CONTINUOUS
70
0
71
3
72
9
73
5
74
3
42
0.0000001000
43
0.0000001000
44
0.0000000001
12
-0.0121358604
22
0.2683691534
32
-0.0717457433
13
-0.0121954467
23
0.2752355061
33
-0.0310469489
40
0.0000000000
40
0.0000000000
40
0.0000000000
40
0.0000000000
40
0.4353472783
40
1.0000000000
40
1.0000000000
40
1.0000000000
40
1.0000000000
10
-18.5054869548
20
-13.6074533586
30
-1.8089988370
10
-18.5072480594
20
-13.5685087651
30
-1.8194102751
10
-18.5113064414
20
-13.4783813853
30
-1.8404237857
10
-18.5153655456
20
-13.3873144473
30
-1.8546423563
10
-18.5176609430
20
-13.3355102881
30
-1.8604859377
11
-18.5054869548
21
-13.6074533586
31
-1.8089988370
11
-18.5107818074
21
-13.4898572743
31
-1.8364187981
11
-18.5176609430
21
-13.3355102881
31
-1.8604859377
0
SPLINE
5
3B0
100
AcDbEntity
8
ASSI
100
AcDbSpline
62
9
6
CONTINUOUS
70
0
71
3
72
8
73
4
74
2
42
0.0000001000
43
0.0000001000
44
0.0000000001
12
-0.0091592236
22
0.2067118666
32
-0.0233173868
13
-0.0092179230
23
0.2113657110
33
0.0000063519
40
0.0000000000
40
0.0000000000
40
0.0000000000
40
0.0000000000
40
1.0000000000
40
1.0000000000
40
1.0000000000
40
1.0000000000
10
-18.5176609430
20
-13.3355102881
30
-1.8604859377
10
-18.5207140175
20
-13.2666063326
30
-1.8682584000
10
-18.5237731304
20
-13.1970248636
30
-1.8721653669
10
-18.5268457714
20
-13.1265696266
30
-1.8721632496
11
-18.5176609430
21
-13.3355102881
31
-1.8604859377
11
-18.5268457714
21
-13.1265696266
31
-1.8721632496
0
SPLINE
5
3B1
100
AcDbEntity
8
ASSI
100
AcDbSpline
62
9
6
CONTINUOUS
70
0
71
3
72
9
73
5
74
3
42
0.0000001000
43
0.0000001000
44
0.0000000001
12
0.0221345964
22
-0.5074735244
32
-0.0031992715
13
0.0209288382
23
-0.4628020626
33
-0.1247614910
40
0.0000000000
40
0.0000000000
40
0.0000000000
40
0.0000000000
40
0.7589775901
40
1.0000000000
40
1.0000000000
40
1.0000000000
40
1.0000000000
10
-18.5267677725
20
-13.1283580071
30
1.8546518663
10
-18.5211678850
20
-13.2567450180
30
1.8538424745
10
-18.5141291512
20
-13.4157213914
30
1.8357877425
10
-18.5071320589
20
-13.5710761339
30
1.7988183369
10
-18.5054506192
20
-13.6082580234
30
1.7887948985
11
-18.5267677725
21
-13.1283580071
31
1.8546518663
11
-18.5105073900
21
-13.4959777980
31
1.8155404599
11
-18.5054506192
21
-13.6082580234
31
1.7887948985
0
SPLINE
5
3B2
100
AcDbEntity
8
ASSI
100
AcDbSpline
62
9
6
CONTINUOUS
70
0
71
3
72
9
73
5
74
3
42
0.0000001000
43
0.0000001000
44
0.0000000001
12
0.0125080999
22
-0.2765932035
32
-0.0745635840
13
0.0122015395
23
-0.2645089288
33
-0.1162267454
40
0.0000000000
40
0.0000000000
40
0.0000000000
40
0.0000000000
40
0.8666544322
40
1.0000000000
40
1.0000000000
40
1.0000000000
40
1.0000000000
10
-18.5054506192
20
-13.6082580234
30
1.7887948985
10
-18.5018372192
20
-13.6881615986
30
1.7672546116
10
-18.4976945835
20
-13.7789627537
30
1.7364692990
10
-18.4936171113
20
-13.8674693472
30
1.6986531043
10
-18.4930747709
20
-13.8792263783
30
1.6934869972
11
-18.5054506192
21
-13.6082580234
31
1.7887948985
11
-18.4947056957
21
-13.8438246236
31
1.7086133318
11
-18.4930747709
21
-13.8792263783
31
1.6934869972
0
SPLINE
5
3B3
100
AcDbEntity
8
ASSI
100
AcDbSpline
62
9
6
CONTINUOUS
70
0
71
3
72
10
73
6
74
4
42
0.0000001000
43
0.0000001000
44
0.0000000001
12
0.0288041574
22
-0.6126761920
32
-0.3976179878
13
0.0200455059
23
-0.4112161870
33
-0.5990865917
40
0.0000000000
40
0.0000000000
40
0.0000000000
40
0.0000000000
40
0.0361671584
40
0.5397414139
40
1.0000000000
40
1.0000000000
40
1.0000000000
40
1.0000000000
10
-18.4806755123
20
-14.1454650992
30
1.5499547653
10
-18.4803282575
20
-14.1528513515
30
1.5451611944
10
-18.4751672748
20
-14.2625404207
30
1.4728458678
10
-18.4662220053
20
-14.4502940185
30
1.3175454017
10
-18.4589644054
20
-14.6000315609
30
1.1375646305
10
-18.4558890334
20
-14.6631201545
30
1.0456530479
11
-18.4806755123
21
-14.1454650992
31
1.5499547653
11
-18.4796380946
21
-14.1675140137
31
1.5354180725
11
-18.4662069130
21
-14.4499028849
31
1.3025480984
11
-18.4558890334
21
-14.6631201545
31
1.0456530479
0
SPLINE
5
3B4
100
AcDbEntity
8
ASSI
100
AcDbSpline
62
9
6
CONTINUOUS
70
0
71
3
72
11
73
7
74
5
42
0.0000001000
43
0.0000001000
44
0.0000000001
12
0.0311514867
22
-0.6390457600
32
-0.9310035900
13
-0.0000526315
23
0.0010559829
33
-1.1694445461
40
0.0000000000
40
0.0000000000
40
0.0000000000
40
0.0000000000
40
0.0278729717
40
0.3519153145
40
0.6759576572
40
1.0000000000
40
1.0000000000
40
1.0000000000
40
1.0000000000
10
-18.4558890334
20
-14.6631201545
30
1.0456530479
10
-18.4555996052
20
-14.6690575226
30
1.0370031023
10
-18.4519890274
20
-14.7430797848
30
0.9271245376
10
-18.4461326630
20
-14.8621087860
30
0.7001330766
10
-18.4410266356
20
-14.9649265737
30
0.3536744339
10
-18.4397666889
20
-14.9901809867
30
0.1159641863
10
-18.4397723738
20
-14.9900669256
30
-0.0103523305
11
-18.4558890334
21
-14.6631201545
31
1.0456530479
11
-18.4550311868
21
-14.6807075715
31
1.0195454894
11
-18.4466853780
21
-14.8507148676
31
0.6967978484
11
-18.4415626535
21
-14.9541038790
31
0.3519899791
11
-18.4397723738
21
-14.9900669256
31
-0.0103523305
0
SPLINE
5
3B5
100
AcDbEntity
8
0
100
AcDbSpline
62
9
6
CONTINUOUS
70
0
71
3
72
11
73
7
74
5
42
0.0000001000
43
0.0000001000
44
0.0000000001
12
-0.0139588767
22
0.7999470618
32
0.0000000000
13
0.7999469877
23
0.0139631266
33
0.0000000000
40
0.0000000000
40
0.0000000000
40
0.0000000000
40
0.0000000000
40
0.3825591995
40
0.7068733429
40
0.9236228661
40
1.0000000000
40
1.0000000000
40
1.0000000000
40
1.0000000000
10
-16.6503362292
20
20.8986991454
30
0.0000000000
10
-16.6521162615
20
21.0007081813
30
0.0000000000
10
-16.6495619374
20
21.1831253477
30
0.0000000000
10
-16.6697019606
20
21.4508613194
30
0.0000000000
10
-16.6325649793
20
21.5732120056
30
0.0000000000
10
-16.6707021153
20
21.6982218137
30
0.0000000000
10
-16.6503362292
20
21.6985773016
30
0.0000000000
11
-16.6503362292
21
20.8986991454
31
0.0000000000
11
-16.6546142360
21
21.2047429428
31
0.0000000000
11
-16.6561164423
21
21.4642122354
31
0.0000000000
11
-16.6546142372
21
21.6376202689
31
0.0000000000
11
-16.6503362292
21
21.6985773016
31
0.0000000000
0
SPLINE
5
3B6
100
AcDbEntity
8
0
100
AcDbSpline
62
9
6
CONTINUOUS
70
0
71
3
72
18
73
14
74
12
42
0.0000001000
43
0.0000001000
44
0.0000000001
12
-1.0388411489
22
-0.0181321361
32
0.0000000000
13
-0.0704893733
23
-1.0366054964
33
0.0000000000
40
0.0000000000
40
0.0000000000
40
0.0000000000
40
0.0000000000
40
0.0762887184
40
0.1617318156
40
0.2544293028
40
0.3524203723
40
0.4535705499
40
0.5555725981
40
0.6560597604
40
0.7527610568
40
0.8435972019
40
0.9266484966
40
1.0000000000
40
1.0000000000
40
1.0000000000
40
1.0000000000
10
-16.6503362292
20
20.8986991454
30
0.0000000000
10
-16.6767535159
20
20.8982380530
30
0.0000000000
10
-16.7327512763
20
20.8940818380
30
0.0000000000
10
-16.8194369286
20
20.8770324868
30
0.0000000000
10
-16.9103080940
20
20.8462630417
30
0.0000000000
10
-17.0008263193
20
20.8004951297
30
0.0000000000
10
-17.0862703326
20
20.7400026003
30
0.0000000000
10
-17.1622779274
20
20.6667449415
30
0.0000000000
10
-17.2255017445
20
20.5841615226
30
0.0000000000
10
-17.2740972123
20
20.4966531015
30
0.0000000000
10
-17.3078803976
20
20.4089322992
30
0.0000000000
10
-17.3281587641
20
20.3255243483
30
0.0000000000
10
-17.3347834220
20
20.2716388662
30
0.0000000000
10
-17.3365069225
20
20.2462933423
30
0.0000000000
11
-16.6503362292
21
20.8986991454
31
0.0000000000
11
-16.7293826038
21
20.8928304648
31
0.0000000000
11
-16.8164891094
21
20.8756981858
31
0.0000000000
11
-16.9077134214
21
20.8448072828
31
0.0000000000
11
-16.9985719131
21
20.7988665353
31
0.0000000000
11
-17.0843459933
21
20.7381396037
31
0.0000000000
11
-17.1606529248
21
20.6645935209
31
0.0000000000
11
-17.2241204735
21
20.5816929552
31
0.0000000000
11
-17.2728993399
21
20.4938558168
31
0.0000000000
11
-17.3068199325
21
20.4057835052
31
0.0000000000
11
-17.3272051606
21
20.3219357347
31
0.0000000000
11
-17.3365069225
21
20.2462933423
31
0.0000000000
0
SPLINE
5
3B7
100
AcDbEntity
8
0
100
AcDbSpline
62
9
6
CONTINUOUS
70
0
71
3
72
11
73
7
74
5
42
0.0000001000
43
0.0000001000
44
0.0000000001
12
-0.0139588749
22
-0.7999470618
32
0.0000000000
13
0.7999469876
23
-0.0139631266
33
0.0000000000
40
0.0000000000
40
0.0000000000
40
0.0000000000
40
0.0000000000
40
0.3825592777
40
0.7068734192
40
0.9236228949
40
1.0000000000
40
1.0000000000
40
1.0000000000
40
1.0000000000
10
-16.6503362292
20
-21.0012123987
30
0.0000000000
10
-16.6521162616
20
-21.1032214554
30
0.0000000000
10
-16.6495619358
20
-21.2856386401
30
0.0000000000
10
-16.6697019602
20
-21.5533746220
30
0.0000000000
10
-16.6325649837
20
-21.6757252928
30
0.0000000000
10
-16.6707021076
20
-21.8007350671
30
0.0000000000
10
-16.6503362292
20
-21.8010905548
30
0.0000000000
11
-16.6503362292
21
-21.0012123987
31
0.0000000000
11
-16.6546142361
21
-21.3072562586
31
0.0000000000
11
-16.6561164416
21
-21.5667255497
31
0.0000000000
11
-16.6546142361
21
-21.7401335451
31
0.0000000000
11
-16.6503362292
21
-21.8010905548
31
0.0000000000
0
SPLINE
5
3B8
100
AcDbEntity
8
0
100
AcDbSpline
62
9
6
CONTINUOUS
70
0
71
3
72
18
73
14
74
12
42
0.0000001000
43
0.0000001000
44
0.0000000001
12
0.0704840794
22
-1.0366058803
32
0.0000000000
13
1.0388410847
23
-0.0181371786
33
0.0000000000
40
0.0000000000
40
0.0000000000
40
0.0000000000
40
0.0000000000
40
0.0762234677
40
0.1616143483
40
0.2542719093
40
0.3522352897
40
0.4533704559
40
0.5553707486
40
0.6558697984
40
0.7525967344
40
0.8434723761
40
0.9265779405
40
1.0000000000
40
1.0000000000
40
1.0000000000
40
1.0000000000
10
-17.3365069225
20
-20.3488065955
30
0.0000000000
10
-17.3347160755
20
-20.3751444938
30
0.0000000000
10
-17.3277497042
20
-20.4308211251
30
0.0000000000
10
-17.3063765569
20
-20.5164865761
30
0.0000000000
10
-17.2710984434
20
-20.6056591312
30
0.0000000000
10
-17.2208618529
20
-20.6937424467
30
0.0000000000
10
-17.1561716298
20
-20.7760342488
30
0.0000000000
10
-17.0791979083
20
-20.8482736053
30
0.0000000000
10
-16.9935388396
20
-20.9072854896
30
0.0000000000
10
-16.9036791148
20
-20.9514428155
30
0.0000000000
10
-16.8143332811
20
-20.9807926548
30
0.0000000000
10
-16.7299550558
20
-20.9968630422
30
0.0000000000
10
-16.6757608466
20
-21.0007685090
30
0.0000000000
10
-16.6503362292
20
-21.0012123987
30
0.0000000000
11
-17.3365069225
21
-20.3488065955
31
0.0000000000
11
-17.3266726680
21
-20.4273897719
31
0.0000000000
11
-17.3051953693
21
-20.5134720266
31
0.0000000000
11
-17.2697780665
21
-20.6029915724
31
0.0000000000
11
-17.2193517127
21
-20.6914061856
31
0.0000000000
11
-17.1544108485
21
-20.7740158683
31
0.0000000000
11
-17.0771341434
21
-20.8465396496
31
0.0000000000
11
-16.9911462527
21
-20.9057789599
31
0.0000000000
11
-16.9009493031
21
-20.9501028273
31
0.0000000000
11
-16.8112461680
21
-20.9795720380
31
0.0000000000
11
-16.7264242225
21
-20.9957268626
31
0.0000000000
11
-16.6503362292
21
-21.0012123987
31
0.0000000000
0
SPLINE
5
3B9
100
AcDbEntity
8
0
100
AcDbSpline
62
9
6
CONTINUOUS
70
0
71
3
72
10
73
6
74
4
42
0.0000001000
43
0.0000001000
44
0.0000000001
12
-2.7558149912
22
-40.5292509143
32
0.0000000000
13
2.7558124011
23
-40.5292510904
33
0.0000000000
40
0.0000000000
40
0.0000000000
40
0.0000000000
40
0.0000000000
40
0.3333325920
40
0.6666690020
40
1.0000000000
40
1.0000000000
40
1.0000000000
40
1.0000000000
10
-17.3365069225
20
20.2462933423
30
0.0000000000
10
-17.6427079072
20
15.7430532564
30
0.0000000000
10
-18.0513314179
20
6.7212757803
30
0.0000000000
10
-18.0513303165
20
-6.8238322312
30
0.0000000000
10
-17.6427061552
20
-15.8455880240
30
0.0000000000
10
-17.3365069225
20
-20.3488065955
30
0.0000000000
11
-17.3365069225
21
20.2462933423
31
0.0000000000
11
-17.9491741865
21
6.7192459315
31
0.0000000000
11
-17.9491728011
21
-6.8218239395
31
0.0000000000
11
-17.3365069225
21
-20.3488065955
31
0.0000000000
0
ENDSEC
0
SECTION
2
OBJECTS
0
DICTIONARY
5
C
100
AcDbDictionary
280
0
281
1
3
ACAD_GROUP
350
D
3
ACAD_MLINESTYLE
350
17
3
ACAD_LAYOUT
350
1A
3
ACAD_PLOTSETTINGS
350
19
3
ACAD_PLOTSTYLENAME
350
E
0
DICTIONARY
5
D
102
{ACAD_REACTORS
330
C
102
}
100
AcDbDictionary
280
0
281
1
0
ACDBDICTIONARYWDFLT
5
E
102
{ACAD_REACTORS
330
C
102
}
100
AcDbDictionary
281
1
3
Normal
350
F
100
AcDbDictionaryWithDefault
340
F
0
DICTIONARY
5
17
102
{ACAD_REACTORS
330
C
102
}
100
AcDbDictionary
280
0
281
1
3
Standard
350
18
0
DICTIONARY
5
19
102
{ACAD_REACTORS
330
C
102
}
100
AcDbDictionary
281
1
0
DICTIONARY
5
1A
102
{ACAD_REACTORS
330
C
102
}
100
AcDbDictionary
281
1
3
Layout1
350
1E
3
Model
350
22
0
ACDBPLACEHOLDER
5
F
102
{ACAD_REACTORS
330
E
102
}
0
MLINESTYLE
5
18
102
{ACAD_REACTORS
330
17
102
}
100
AcDbMlineStyle
2
STANDARD
70
0
3

62
256
51
90.0
52
90.0
71
2
49
0.5
62
256
6
BYLAYER
49
-0.5
62
256
6
BYLAYER
0
LAYOUT
5
1E
102
{ACAD_REACTORS
330
1A
102
}
100
AcDbPlotSettings
1

2

4

6

40
0.0
41
0.0
42
0.0
43
0.0
44
0.0
45
0.0
46
0.0
47
0.0
48
0.0
49
0.0
140
0.0
141
0.0
142
1.0
143
1.0
70
0
72
0
73
0
74
0
7

75
0
147
1.0
148
0.0
149
0.0
100
AcDbLayout
1
Layout1
70
0
71
0
10
0.0
20
0.0
11
0.0
21
0.0
12
0.0
22
0.0
32
0.0
14
0.0
24
0.0
34
0.0
15
0.0
25
0.0
35
0.0
146
0.0
13
0.0
23
0.0
33
0.0
16
0.0
26
0.0
36
0.0
17
0.0
27
0.0
37
0.0
76
0
330
1B
331
0
345
0
346
0
0
LAYOUT
5
22
102
{ACAD_REACTORS
330
1A
102
}
100
AcDbPlotSettings
1

2

4

6

40
0.0
41
0.0
42
0.0
43
0.0
44
0.0
45
0.0
46
0.0
47
0.0
48
0.0
49
0.0
140
0.0
141
0.0
142
1.0
143
1.0
70
0
72
0
73
0
74
0
7

75
0
147
1.0
148
0.0
149
0.0
100
AcDbLayout
1
Model
70
0
71
0
10
0.0
20
0.0
11
0.0
21
0.0
12
0.0
22
0.0
32
0.0
14
0.0
24
0.0
34
0.0
15
0.0
25
0.0
35
0.0
146
0.0
13
0.0
23
0.0
33
0.0
16
0.0
26
0.0
36
0.0
17
0.0
27
0.0
37
0.0
76
0
330
1F
331
0
345
0
346
0
0
ENDSEC
0
EOF
