0
SECTION
2
HEADER
9
$ACADVER
1
AC1014
9
$HANDSEED
5
       27B
9
$EXTMAX
10
297.0000000000
20
210.0000000000
9
$EXTMIN
10
0.0000000000
20
0.0000000000
9
$LIMMIN
10
0.0000000000
20
0.0000000000
9
$LIMMAX
10
297.0000000000
20
210.0000000000
9
$VIEWCTR
10
148.5000000000
20
105.0000000000
9
$VIEWSIZE
40
210.0000000000
9
$CLAYER
8
0
9
$LTSCALE
40
16.3350000000
9
$CELTYPE
6
BYLAYER
9
$DIMSCALE
40
1
9
$DIMASZ
40
3.0000000000
9
$DIMEXO
40
1.8562500000
9
$DIMDLI
40
11.2860000000
9
$DIMEXE
40
5.3460000000
9
$DIMCEN
40
2.6730000000
9
$DIMLFAC
40
1.0000000000
9
$DIMTXT
40
3.0000000000
9
$DIMTOL
70
1
9
$DIMLIM
70
0
9
$DIMTFAC
40
1.0000000000
9
$DIMTP
40
0.0100000000
9
$DIMTM
40
0.0100000000
9
$MEASUREMENT
70
1
0
ENDSEC
0
SECTION
2
CLASSES
0
ENDSEC
0
SECTION
2
TABLES
0
TABLE
2
VPORT
5
8
100
AcDbSymbolTable
70
2
0
VPORT
5
1F4
100
AcDbSymbolTableRecord
100
AcDbViewportTableRecord
2
*ACTIVE
70
0
10
0.0
20
0.0
11
1.0
21
1.0
12
148.5000000000
22
105.0000000000
13
0.0
23
0.0
14
1.0
24
1.0
15
0.0
25
0.0
16
0.0
26
0.0
36
1.0
17
0.0
27
0.0
37
0.0
40
210.0000000000
41
1.4142857143
42
50.0
43
0.0
44
0.0
50
0.0
51
0.0
71
0
72
100
73
1
74
1
75
0
76
0
77
0
78
0
0
ENDTAB
0
TABLE
2
LTYPE
5
5
100
AcDbSymbolTable
70
6
0
LTYPE
5
14
100
AcDbSymbolTableRecord
100
AcDbLinetypeTableRecord
2
BYBLOCK
70
0
3

72
65
73
0
40
0.0
0
LTYPE
5
15
100
AcDbSymbolTableRecord
100
AcDbLinetypeTableRecord
2
BYLAYER
70
0
3

72
65
73
0
40
0.0
0
LTYPE
5
16
100
AcDbSymbolTableRecord
100
AcDbLinetypeTableRecord
2
CONTINUOUS
70
64
3
Solid line
72
65
73
0
40
0
0
LTYPE
5
1F5
100
AcDbSymbolTableRecord
100
AcDbLinetypeTableRecord
2
CENTER
70
64
3
____ _ ____ _ ____ _ ____ _ ____ _ ____ _ ____
72
65
73
4
40
0.6
49
0.375
74
0
49
-0.075
74
0
49
0.075
74
0
49
-0.075
74
0
0
LTYPE
5
1F6
100
AcDbSymbolTableRecord
100
AcDbLinetypeTableRecord
2
HIDDEN
70
64
3
- - - - - - - - - - - - - - - - - - - -
72
65
73
2
40
0.2
49
0.1
74
0
49
-0.1
74
0
0
LTYPE
5
1F7
100
AcDbSymbolTableRecord
100
AcDbLinetypeTableRecord
2
PHANTOM
70
64
3
_____ _ _ _____ _ _ _____ _ _ _____
72
65
73
6
40
0.8
49
0.45
74
0
49
-0.05
74
0
49
0.1
74
0
49
-0.05
74
0
49
0.1
74
0
49
-0.05
74
0
0
LTYPE
5
1F8
100
AcDbSymbolTableRecord
100
AcDbLinetypeTableRecord
2
DOT
70
64
3
. . . . . . . . . . . . . . . . . . . .
72
65
73
2
40
0.2
49
0.1
74
0
49
-0.1
74
0
0
LTYPE
5
1F9
100
AcDbSymbolTableRecord
100
AcDbLinetypeTableRecord
2
DASHED
70
64
3
- - - - - - - - - - - - - - - - - - - -
72
65
73
2
40
0.2
49
0.1
74
0
49
-0.1
74
0
0
ENDTAB
0
TABLE
2
LAYER
5
2
100
AcDbSymbolTable
70
36
0
LAYER
5
10
100
AcDbSymbolTableRecord
100
AcDbLayerTableRecord
2
0
70
0
62
7
6
CONTINUOUS
0
LAYER
5
1FA
100
AcDbSymbolTableRecord
100
AcDbLayerTableRecord
2
DEFAULT_1
70
0
62
7
6
CENTER
0
LAYER
5
1FB
100
AcDbSymbolTableRecord
100
AcDbLayerTableRecord
2
DEFAULT_2
70
0
62
8
6
HIDDEN
0
LAYER
5
1FC
100
AcDbSymbolTableRecord
100
AcDbLayerTableRecord
2
DEFAULT_3
70
0
62
7
6
PHANTOM
0
LAYER
5
1FD
100
AcDbSymbolTableRecord
100
AcDbLayerTableRecord
2
ASSI
70
0
62
7
6
CONTINUOUS
0
LAYER
5
1FE
100
AcDbSymbolTableRecord
100
AcDbLayerTableRecord
2
COORDINATE
70
0
62
7
6
CONTINUOUS
0
LAYER
5
1FF
100
AcDbSymbolTableRecord
100
AcDbLayerTableRecord
2
COORD_ORIGINE
70
0
62
7
6
CONTINUOUS
0
LAYER
5
200
100
AcDbSymbolTableRecord
100
AcDbLayerTableRecord
2
CURVE
70
0
62
7
6
CONTINUOUS
0
LAYER
5
201
100
AcDbSymbolTableRecord
100
AcDbLayerTableRecord
2
DRAFT
70
0
62
7
6
CONTINUOUS
0
LAYER
5
202
100
AcDbSymbolTableRecord
100
AcDbLayerTableRecord
2
NOTE
70
0
62
7
6
CONTINUOUS
0
LAYER
5
203
100
AcDbSymbolTableRecord
100
AcDbLayerTableRecord
2
PIANI
70
0
62
7
6
CONTINUOUS
0
LAYER
5
204
100
AcDbSymbolTableRecord
100
AcDbLayerTableRecord
2
PIANI_ORIGINE
70
0
62
7
6
CONTINUOUS
0
LAYER
5
205
100
AcDbSymbolTableRecord
100
AcDbLayerTableRecord
2
PUNTI
70
0
62
7
6
CONTINUOUS
0
LAYER
5
206
100
AcDbSymbolTableRecord
100
AcDbLayerTableRecord
2
RACCORDO
70
0
62
7
6
CONTINUOUS
0
LAYER
5
207
100
AcDbSymbolTableRecord
100
AcDbLayerTableRecord
2
SNAPLINE
70
0
62
7
6
CONTINUOUS
0
LAYER
5
208
100
AcDbSymbolTableRecord
100
AcDbLayerTableRecord
2
SUPERFICI
70
0
62
7
6
CONTINUOUS
0
LAYER
5
209
100
AcDbSymbolTableRecord
100
AcDbLayerTableRecord
2
TRASH
70
0
62
7
6
CONTINUOUS
0
ENDTAB
0
TABLE
2
STYLE
5
3
100
AcDbSymbolTable
70
1
0
STYLE
5
11
100
AcDbSymbolTableRecord
100
AcDbTextStyleTableRecord
2
STANDARD
70
0
40
0.0
41
0.8000000000
50
0.0
71
0
42
0.2
3
txt
4

0
ENDTAB
0
TABLE
2
VIEW
5
6
100
AcDbSymbolTable
70
0
0
ENDTAB
0
TABLE
2
UCS
5
7
100
AcDbSymbolTable
70
0
0
ENDTAB
0
TABLE
2
APPID
5
9
100
AcDbSymbolTable
70
1
0
APPID
5
20A
100
AcDbSymbolTableRecord
100
AcDbRegAppTableRecord
2
ACAD
70
0
0
ENDTAB
0
TABLE
2
DIMSTYLE
5
A
100
AcDbSymbolTable
70
1
0
DIMSTYLE
105
20B
100
AcDbSymbolTableRecord
100
AcDbDimStyleTableRecord
2
STANDARD
70
0
3

4

5

6

7

40
1.0
41
3.0000000000
42
0.0625
43
0.38
44
0.18
45
0.0
46
0.0
47
0.0100000000
48
0.0100000000
140
3.0000000000
141
0.09
142
0.0
143
25.4
144
1.0000000000
145
0.0
146
1.0000000000
147
0.09
71
1
72
0
73
0
74
0
75
0
76
0
77
1
78
8
170
0
171
2
172
0
173
0
174
0
175
0
176
0
177
0
178
0
270
2
271
2
272
2
273
2
274
2
340
11
275
0
280
0
281
0
282
0
283
1
284
8
285
0
286
0
287
3
288
0
0
DIMSTYLE
105
20C
100
AcDbSymbolTableRecord
100
AcDbDimStyleTableRecord
2
DIMSTYLE_1
70
0
3

4

5

6

7

40
1.0
41
3.0000000000
42
0.0625
43
0.38
44
0.18
45
0.0
46
0.0
47
0.0000000000
48
0.0000000000
140
3.0000000000
141
0.09
142
0.0
143
25.4
144
1.0000000000
145
0.0
146
1.0000000000
147
0.09
71
0
72
0
73
0
74
0
75
0
76
0
77
1
78
8
170
0
171
2
172
0
173
0
174
0
175
0
176
0
177
0
178
0
270
2
271
2
272
2
273
2
274
2
340
11
275
0
280
0
281
0
282
0
283
1
284
8
285
0
286
0
287
3
288
0
0
ENDTAB
0
TABLE
2
BLOCK_RECORD
5
1
100
AcDbSymbolTable
70
0
0
BLOCK_RECORD
5
1B
100
AcDbSymbolTableRecord
100
AcDbBlockTableRecord
2
*MODEL_SPACE
0
BLOCK_RECORD
5
1C
100
AcDbSymbolTableRecord
100
AcDbBlockTableRecord
2
*PAPER_SPACE
0
BLOCK_RECORD
5
20D
100
AcDbSymbolTableRecord
100
AcDbBlockTableRecord
2
*D0
0
BLOCK_RECORD
5
20E
100
AcDbSymbolTableRecord
100
AcDbBlockTableRecord
2
*D1
0
BLOCK_RECORD
5
20F
100
AcDbSymbolTableRecord
100
AcDbBlockTableRecord
2
*D2
0
ENDTAB
0
ENDSEC
0
SECTION
2
BLOCKS
0
BLOCK
5
1E
100
AcDbEntity
8
0
100
AcDbBlockBegin
2
*MODEL_SPACE
70
0
10
0.0
20
0.0
30
0.0
3
*MODEL_SPACE
1

0
ENDBLK
5
1F
100
AcDbEntity
8
0
100
AcDbBlockEnd
0
BLOCK
5
20
100
AcDbEntity
8
0
100
AcDbBlockBegin
2
*PAPER_SPACE
70
0
10
0.0
20
0.0
30
0.0
3
*PAPER_SPACE
1

0
ENDBLK
5
21
100
AcDbEntity
8
0
100
AcDbBlockEnd
0
BLOCK
5
210
100
AcDbEntity
8
0
100
AcDbBlockBegin
62
7
6
CONTINUOUS
2
*D0
70
65
10
0.0000000000
20
0.0000000000
3
*D0
1

0
TEXT
5
211
100
AcDbEntity
8
0
100
AcDbText
62
7
6
CONTINUOUS
10
-4.4127857870
20
30.6000000000
7
STANDARD
40
3.0000000000
1
22,2
41
0.7321428732
72
0
100
AcDbText
0
LINE
5
212
100
AcDbEntity
8
0
100
AcDbLine
62
7
6
CONTINUOUS
10
11.1000000000
20
21.5501218439
11
11.1000000000
21
31.3500000000
0
LINE
5
213
100
AcDbEntity
8
0
100
AcDbLine
62
7
6
CONTINUOUS
10
-11.1000000000
20
21.5501218439
11
-11.1000000000
21
31.3500000000
0
LINE
5
214
100
AcDbEntity
8
0
100
AcDbLine
62
7
6
CONTINUOUS
10
11.1000000000
20
29.8500000000
11
0.0000000000
21
29.8500000000
0
LINE
5
215
100
AcDbEntity
8
0
100
AcDbLine
62
7
6
CONTINUOUS
10
-11.1000000000
20
29.8500000000
11
0.0000000000
21
29.8500000000
0
SOLID
5
216
100
AcDbEntity
8
0
100
AcDbTrace
62
7
6
CONTINUOUS
10
8.1000000000
20
28.9000000000
11
11.1000000000
21
29.8500000000
12
8.1000000000
22
30.8000000000
13
8.1000000000
23
30.8000000000
0
SOLID
5
217
100
AcDbEntity
8
0
100
AcDbTrace
62
7
6
CONTINUOUS
10
-8.1000000000
20
30.8000000000
11
-11.1000000000
21
29.8500000000
12
-8.1000000000
22
28.9000000000
13
-8.1000000000
23
28.9000000000
0
ENDBLK
5
218
100
AcDbEntity
8
0
100
AcDbBlockEnd
0
BLOCK
5
219
100
AcDbEntity
8
0
100
AcDbBlockBegin
62
7
6
CONTINUOUS
2
*D1
70
65
10
0.0000000000
20
0.0000000000
3
*D1
1

0
TEXT
5
21A
100
AcDbEntity
8
0
100
AcDbText
62
7
6
CONTINUOUS
10
-31.3751797455
20
30.6000000000
7
STANDARD
40
3.0000000000
1
7,9
41
0.7142857300
72
0
100
AcDbText
0
LINE
5
21B
100
AcDbEntity
8
0
100
AcDbLine
62
7
6
CONTINUOUS
10
-24.9615044248
20
-20.5501218439
11
-24.9615044248
21
31.3500000000
0
LINE
5
21C
100
AcDbEntity
8
0
100
AcDbLine
62
7
6
CONTINUOUS
10
-32.8615044248
20
0.5000000000
11
-32.8615044248
21
31.3500000000
0
LINE
5
21D
100
AcDbEntity
8
0
100
AcDbLine
62
7
6
CONTINUOUS
10
-24.9615044248
20
29.8500000000
11
-28.9115044248
21
29.8500000000
0
LINE
5
21E
100
AcDbEntity
8
0
100
AcDbLine
62
7
6
CONTINUOUS
10
-32.8615044248
20
29.8500000000
11
-28.9115044248
21
29.8500000000
0
SOLID
5
21F
100
AcDbEntity
8
0
100
AcDbTrace
62
7
6
CONTINUOUS
10
-27.9615044248
20
28.9000000000
11
-24.9615044248
21
29.8500000000
12
-27.9615044248
22
30.8000000000
13
-27.9615044248
23
30.8000000000
0
SOLID
5
220
100
AcDbEntity
8
0
100
AcDbTrace
62
7
6
CONTINUOUS
10
-29.8615044248
20
30.8000000000
11
-32.8615044248
21
29.8500000000
12
-29.8615044248
22
28.9000000000
13
-29.8615044248
23
28.9000000000
0
ENDBLK
5
221
100
AcDbEntity
8
0
100
AcDbBlockEnd
0
BLOCK
5
222
100
AcDbEntity
8
0
100
AcDbBlockBegin
62
7
6
CONTINUOUS
2
*D2
70
65
10
0.0000000000
20
0.0000000000
3
*D2
1

0
TEXT
5
223
100
AcDbEntity
8
0
100
AcDbText
62
7
6
CONTINUOUS
10
21.9512952610
20
-3.6144312054
7
STANDARD
40
3.0000000000
1
43,7
50
90.0000000000
41
0.7142857143
72
0
100
AcDbText
0
LINE
5
224
100
AcDbEntity
8
0
100
AcDbLine
62
7
6
CONTINUOUS
10
10.8001218439
20
-21.8500000000
11
24.2012952610
21
-21.8500000000
0
LINE
5
225
100
AcDbEntity
8
0
100
AcDbLine
62
7
6
CONTINUOUS
10
10.8001218439
20
21.8500000000
11
24.2012952610
21
21.8500000000
0
LINE
5
226
100
AcDbEntity
8
0
100
AcDbLine
62
7
6
CONTINUOUS
10
22.7012952610
20
-21.8500000000
11
22.7012952610
21
0.0000000000
0
LINE
5
227
100
AcDbEntity
8
0
100
AcDbLine
62
7
6
CONTINUOUS
10
22.7012952610
20
21.8500000000
11
22.7012952610
21
0.0000000000
0
SOLID
5
228
100
AcDbEntity
8
0
100
AcDbTrace
62
7
6
CONTINUOUS
10
21.7512952610
20
-18.8500000000
11
22.7012952610
21
-21.8500000000
12
23.6512952610
22
-18.8500000000
13
23.6512952610
23
-18.8500000000
0
SOLID
5
229
100
AcDbEntity
8
0
100
AcDbTrace
62
7
6
CONTINUOUS
10
23.6512952610
20
18.8500000000
11
22.7012952610
21
21.8500000000
12
21.7512952610
22
18.8500000000
13
21.7512952610
23
18.8500000000
0
ENDBLK
5
22A
100
AcDbEntity
8
0
100
AcDbBlockEnd
0
ENDSEC
0
SECTION
2
ENTITIES
0
DIMENSION
5
22B
100
AcDbEntity
8
0
100
AcDbDimension
62
7
6
CONTINUOUS
2
*D0
10
-11.1000000000
20
29.8500000000
11
-0.0199285478
21
32.1000000000
70
160
3
DIMSTYLE_1
100
AcDbAlignedDimension
13
11.1000000000
23
21.5501218439
14
-11.1000000000
24
21.5501218439
50
180.000000
100
AcDbRotatedDimension
0
DIMENSION
5
22C
100
AcDbEntity
8
0
100
AcDbDimension
62
7
6
CONTINUOUS
2
*D1
10
-32.8615044248
20
29.8500000000
11
-28.1608939607
21
32.1000000000
70
160
3
DIMSTYLE_1
100
AcDbAlignedDimension
13
-24.9615044248
23
-20.5501218439
14
-32.8615044248
24
0.5000000000
50
180.000000
100
AcDbRotatedDimension
0
DIMENSION
5
22D
100
AcDbEntity
8
0
100
AcDbDimension
62
7
6
CONTINUOUS
2
*D2
10
22.7012952610
20
21.8500000000
11
20.4512952610
21
0.6712830803
70
160
3
DIMSTYLE_1
100
AcDbAlignedDimension
13
10.8001218439
23
-21.8500000000
14
10.8001218439
24
21.8500000000
50
90.000000
100
AcDbRotatedDimension
0
LINE
5
22E
100
AcDbEntity
8
0
100
AcDbLine
62
7
6
CONTINUOUS
10
-10.3001218439
20
-21.8500000000
11
10.3001218439
21
-21.8500000000
0
LINE
5
22F
100
AcDbEntity
8
0
100
AcDbLine
62
9
6
CONTINUOUS
10
10.1999557720
20
-21.7498339282
11
-10.1999557720
21
-21.7498339282
0
LINE
5
230
100
AcDbEntity
8
0
100
AcDbLine
62
9
6
CONTINUOUS
10
10.1879786180
20
-20.3518214929
11
-10.1879786180
21
-20.3518214929
0
LINE
5
231
100
AcDbEntity
8
0
100
AcDbLine
62
9
6
CONTINUOUS
10
0.0868949879
20
-14.0500000000
11
-4.1200000000
21
-14.0500000000
0
LINE
5
232
100
AcDbEntity
8
0
100
AcDbLine
62
9
6
CONTINUOUS
10
-4.1200000000
20
-11.9500000000
11
0.0868949879
21
-11.9500000000
0
LINE
5
233
100
AcDbEntity
8
0
100
AcDbLine
62
7
6
CONTINUOUS
10
-11.1000000000
20
-21.0501218439
11
-11.1000000000
21
21.0501218439
0
LINE
5
234
100
AcDbEntity
8
0
100
AcDbLine
62
9
6
CONTINUOUS
10
10.3001218439
20
21.8500000000
11
10.1999557720
21
21.7498339282
0
LINE
5
235
100
AcDbEntity
8
0
100
AcDbLine
62
9
6
CONTINUOUS
10
10.1999557720
20
-21.7498339282
11
10.3001218439
21
-21.8500000000
0
LINE
5
236
100
AcDbEntity
8
0
100
AcDbLine
62
9
6
CONTINUOUS
10
11.1000000000
20
21.0501218439
11
10.9998339282
21
20.9499557720
0
LINE
5
237
100
AcDbEntity
8
0
100
AcDbLine
62
9
6
CONTINUOUS
10
10.9998339282
20
-20.9499557720
11
11.1000000000
21
-21.0501218439
0
LINE
5
238
100
AcDbEntity
8
0
100
AcDbLine
62
9
6
CONTINUOUS
10
-11.1000000000
20
-21.0501218439
11
-10.9998339282
21
-20.9499557720
0
LINE
5
239
100
AcDbEntity
8
0
100
AcDbLine
62
9
6
CONTINUOUS
10
-10.3001218439
20
-21.8500000000
11
-10.1999557720
21
-21.7498339282
0
LINE
5
23A
100
AcDbEntity
8
0
100
AcDbLine
62
9
6
CONTINUOUS
10
-10.9998339282
20
20.9499557720
11
-11.1000000000
21
21.0501218439
0
LINE
5
23B
100
AcDbEntity
8
0
100
AcDbLine
62
9
6
CONTINUOUS
10
-10.1999557720
20
21.7498339282
11
-10.3001218439
21
21.8500000000
0
LINE
5
23C
100
AcDbEntity
8
0
100
AcDbLine
62
7
6
CONTINUOUS
10
11.1000000000
20
-21.0501218439
11
11.1000000000
21
21.0501218439
0
LINE
5
23D
100
AcDbEntity
8
0
100
AcDbLine
62
9
6
CONTINUOUS
10
10.1879786180
20
20.3518214929
11
-10.1879786180
21
20.3518214929
0
LINE
5
23E
100
AcDbEntity
8
0
100
AcDbLine
62
9
6
CONTINUOUS
10
10.1999557720
20
21.7498339282
11
-10.1999557720
21
21.7498339282
0
LINE
5
23F
100
AcDbEntity
8
0
100
AcDbLine
62
7
6
CONTINUOUS
10
-10.3001218439
20
21.8500000000
11
10.3001218439
21
21.8500000000
0
LINE
5
240
100
AcDbEntity
8
0
100
AcDbLine
62
7
6
CONTINUOUS
10
-30.7000148365
20
-21.7498339282
11
-24.9615044248
21
-21.8500000000
0
LINE
5
241
100
AcDbEntity
8
0
100
AcDbLine
62
9
6
CONTINUOUS
10
-30.7000148365
20
-20.9499557720
11
-24.9615044248
21
-21.0501218439
0
LINE
5
242
100
AcDbEntity
8
0
100
AcDbLine
62
9
6
CONTINUOUS
10
-31.3861855298
20
-20.2975499689
11
-32.1703643384
21
-20.3518203840
0
LINE
5
243
100
AcDbEntity
8
0
100
AcDbLine
62
7
6
CONTINUOUS
10
-24.9615044248
20
-21.8500000000
11
-24.9615044248
21
21.8500000000
0
LINE
5
244
100
AcDbEntity
8
0
100
AcDbLine
62
9
6
CONTINUOUS
10
-24.9615044248
20
21.0501218439
11
-30.7000148365
21
20.9499557720
0
LINE
5
245
100
AcDbEntity
8
0
100
AcDbLine
62
7
6
CONTINUOUS
10
-24.9615044248
20
21.8500000000
11
-30.7000148339
21
21.7498339282
0
LINE
5
246
100
AcDbEntity
8
0
100
AcDbLine
62
9
6
CONTINUOUS
10
-31.3861855298
20
20.2975499689
11
-32.1703805802
21
20.3518214910
0
ARC
5
247
100
AcDbEntity
8
0
100
AcDbCircle
62
7
6
CONTINUOUS
10
-30.6738362268
20
20.2500623854
40
1.5000000000
100
AcDbArc
50
91.0000000000
51
176.1101008379
0
ARC
5
248
100
AcDbEntity
8
0
100
AcDbCircle
62
7
6
CONTINUOUS
10
267.1384955752
20
-0.0000000000
40
300.0000000000
100
AcDbArc
50
176.1101008379
51
183.8898991621
0
ARC
5
249
100
AcDbEntity
8
0
100
AcDbCircle
62
7
6
CONTINUOUS
10
-30.6738362268
20
-20.2500623854
40
1.5000000000
100
AcDbArc
50
183.8898991621
51
269.0000000000
0
SPLINE
5
24A
100
AcDbEntity
8
0
100
AcDbSpline
62
7
6
CONTINUOUS
70
0
71
3
72
15
73
11
74
9
42
0.0000001000
43
0.0000001000
44
0.0000000001
12
-1.2544455271
22
0.0000000000
32
0.0000000000
13
-0.0000000000
23
1.2544455271
33
0.0000000000
40
0.0000000000
40
0.0000000000
40
0.0000000000
40
0.0000000000
40
0.1249999833
40
0.2499998186
40
0.3750000602
40
0.5000001926
40
0.6250002680
40
0.7500003740
40
0.8750000775
40
1.0000000000
40
1.0000000000
40
1.0000000000
40
1.0000000000
10
-10.3001218439
20
-21.8500000000
30
0.0000000000
10
-10.3523904005
20
-21.8500000000
30
0.0000000000
10
-10.4572170867
20
-21.8396905663
30
0.0000000000
10
-10.6081911771
20
-21.7938865399
30
0.0000000000
10
-10.7473896012
20
-21.7194986010
30
0.0000000000
10
-10.8693819523
20
-21.6193816405
30
0.0000000000
10
-10.9694988074
20
-21.4973892779
30
0.0000000000
10
-11.0438866238
20
-21.3581909457
30
0.0000000000
10
-11.0896905792
20
-21.2072169803
30
0.0000000000
10
-11.1000000000
20
-21.1023903751
30
0.0000000000
10
-11.1000000000
20
-21.0501218439
30
0.0000000000
11
-10.3001218439
21
-21.8500000000
31
0.0000000000
11
-10.4561728020
21
-21.8346339150
31
0.0000000000
11
-10.6062283994
21
-21.7891226238
31
0.0000000000
11
-10.7445219447
21
-21.7152104120
31
0.0000000000
11
-10.8657360606
21
-21.6157357172
31
0.0000000000
11
-10.9652106418
21
-21.4945216007
31
0.0000000000
11
-11.0391227167
21
-21.3562281751
31
0.0000000000
11
-11.0846339299
21
-21.2061727269
31
0.0000000000
11
-11.1000000000
21
-21.0501218439
31
0.0000000000
0
SPLINE
5
24B
100
AcDbEntity
8
0
100
AcDbSpline
62
7
6
CONTINUOUS
70
0
71
3
72
15
73
11
74
9
42
0.0000001000
43
0.0000001000
44
0.0000000001
12
0.0000000000
22
1.2544455271
32
0.0000000000
13
1.2544455271
23
0.0000000000
33
0.0000000000
40
0.0000000000
40
0.0000000000
40
0.0000000000
40
0.0000000000
40
0.1249999833
40
0.2499998186
40
0.3750000602
40
0.5000001926
40
0.6250002680
40
0.7500003740
40
0.8750000775
40
1.0000000000
40
1.0000000000
40
1.0000000000
40
1.0000000000
10
-11.1000000000
20
21.0501218439
30
0.0000000000
10
-11.1000000000
20
21.1023904005
30
0.0000000000
10
-11.0896905663
20
21.2072170867
30
0.0000000000
10
-11.0438865399
20
21.3581911771
30
0.0000000000
10
-10.9694986010
20
21.4973896012
30
0.0000000000
10
-10.8693816405
20
21.6193819523
30
0.0000000000
10
-10.7473892779
20
21.7194988074
30
0.0000000000
10
-10.6081909457
20
21.7938866238
30
0.0000000000
10
-10.4572169803
20
21.8396905792
30
0.0000000000
10
-10.3523903751
20
21.8500000000
30
0.0000000000
10
-10.3001218439
20
21.8500000000
30
0.0000000000
11
-11.1000000000
21
21.0501218439
31
0.0000000000
11
-11.0846339150
21
21.2061728020
31
0.0000000000
11
-11.0391226238
21
21.3562283994
31
0.0000000000
11
-10.9652104120
21
21.4945219447
31
0.0000000000
11
-10.8657357172
21
21.6157360606
31
0.0000000000
11
-10.7445216007
21
21.7152106418
31
0.0000000000
11
-10.6062281751
21
21.7891227167
31
0.0000000000
11
-10.4561727269
21
21.8346339299
31
0.0000000000
11
-10.3001218439
21
21.8500000000
31
0.0000000000
0
SPLINE
5
24C
100
AcDbEntity
8
0
100
AcDbSpline
62
7
6
CONTINUOUS
70
0
71
3
72
15
73
11
74
9
42
0.0000001000
43
0.0000001000
44
0.0000000001
12
0.0000000000
22
-1.2544455271
32
0.0000000000
13
-1.2544455271
23
0.0000000000
33
0.0000000000
40
0.0000000000
40
0.0000000000
40
0.0000000000
40
0.0000000000
40
0.1249999833
40
0.2499998186
40
0.3750000602
40
0.5000001926
40
0.6250002680
40
0.7500003740
40
0.8750000775
40
1.0000000000
40
1.0000000000
40
1.0000000000
40
1.0000000000
10
11.1000000000
20
-21.0501218439
30
0.0000000000
10
11.1000000000
20
-21.1023904005
30
0.0000000000
10
11.0896905663
20
-21.2072170867
30
0.0000000000
10
11.0438865399
20
-21.3581911771
30
0.0000000000
10
10.9694986010
20
-21.4973896012
30
0.0000000000
10
10.8693816405
20
-21.6193819523
30
0.0000000000
10
10.7473892779
20
-21.7194988074
30
0.0000000000
10
10.6081909457
20
-21.7938866238
30
0.0000000000
10
10.4572169803
20
-21.8396905792
30
0.0000000000
10
10.3523903751
20
-21.8500000000
30
0.0000000000
10
10.3001218439
20
-21.8500000000
30
0.0000000000
11
11.1000000000
21
-21.0501218439
31
0.0000000000
11
11.0846339150
21
-21.2061728020
31
0.0000000000
11
11.0391226238
21
-21.3562283994
31
0.0000000000
11
10.9652104120
21
-21.4945219447
31
0.0000000000
11
10.8657357172
21
-21.6157360606
31
0.0000000000
11
10.7445216007
21
-21.7152106418
31
0.0000000000
11
10.6062281751
21
-21.7891227167
31
0.0000000000
11
10.4561727269
21
-21.8346339299
31
0.0000000000
11
10.3001218439
21
-21.8500000000
31
0.0000000000
0
SPLINE
5
24D
100
AcDbEntity
8
0
100
AcDbSpline
62
7
6
CONTINUOUS
70
0
71
3
72
15
73
11
74
9
42
0.0000001000
43
0.0000001000
44
0.0000000001
12
1.2544455271
22
0.0000000000
32
0.0000000000
13
0.0000000000
23
-1.2544455271
33
0.0000000000
40
0.0000000000
40
0.0000000000
40
0.0000000000
40
0.0000000000
40
0.1249999833
40
0.2499998186
40
0.3750000602
40
0.5000001926
40
0.6250002680
40
0.7500003740
40
0.8750000775
40
1.0000000000
40
1.0000000000
40
1.0000000000
40
1.0000000000
10
10.3001218439
20
21.8500000000
30
0.0000000000
10
10.3523904005
20
21.8500000000
30
0.0000000000
10
10.4572170867
20
21.8396905663
30
0.0000000000
10
10.6081911771
20
21.7938865399
30
0.0000000000
10
10.7473896012
20
21.7194986010
30
0.0000000000
10
10.8693819523
20
21.6193816405
30
0.0000000000
10
10.9694988074
20
21.4973892779
30
0.0000000000
10
11.0438866238
20
21.3581909457
30
0.0000000000
10
11.0896905792
20
21.2072169803
30
0.0000000000
10
11.1000000000
20
21.1023903751
30
0.0000000000
10
11.1000000000
20
21.0501218439
30
0.0000000000
11
10.3001218439
21
21.8500000000
31
0.0000000000
11
10.4561728020
21
21.8346339150
31
0.0000000000
11
10.6062283994
21
21.7891226238
31
0.0000000000
11
10.7445219447
21
21.7152104120
31
0.0000000000
11
10.8657360606
21
21.6157357172
31
0.0000000000
11
10.9652106418
21
21.4945216007
31
0.0000000000
11
11.0391227167
21
21.3562281751
31
0.0000000000
11
11.0846339299
21
21.2061727269
31
0.0000000000
11
11.1000000000
21
21.0501218439
31
0.0000000000
0
SPLINE
5
24E
100
AcDbEntity
8
0
100
AcDbSpline
62
9
6
CONTINUOUS
70
0
71
3
72
14
73
10
74
8
42
0.0000001000
43
0.0000001000
44
0.0000000001
12
0.0007765848
22
-0.6527078142
32
0.0000000000
13
0.4588215053
23
-0.4642315371
33
0.0000000000
40
0.0000000000
40
0.0000000000
40
0.0000000000
40
0.0000000000
40
0.2229915677
40
0.4336500918
40
0.6216443072
40
0.7783822279
40
0.8969387602
40
0.9718696985
40
1.0000000000
40
1.0000000000
40
1.0000000000
40
1.0000000000
10
10.9878567742
20
-20.2975499689
30
0.0000000000
10
10.9879144981
20
-20.3460660818
30
0.0000000000
10
10.9881640152
20
-20.4404346945
30
0.0000000000
10
10.9892333764
20
-20.5756007472
30
0.0000000000
10
10.9902098656
20
-20.6966809797
30
0.0000000000
10
10.9931514510
20
-20.7967530680
30
0.0000000000
10
10.9923096783
20
-20.8746639089
30
0.0000000000
10
10.9997729353
20
-20.9195681217
30
0.0000000000
10
10.9955316657
20
-20.9456027810
30
0.0000000000
10
10.9998339282
20
-20.9499557720
30
0.0000000000
11
10.9878567742
21
-20.2975499689
31
0.0000000000
11
10.9883023849
21
-20.4430977285
31
0.0000000000
11
10.9892765926
21
-20.5805928393
31
0.0000000000
11
10.9907355042
21
-20.7032895464
31
0.0000000000
11
10.9926127877
21
-20.8055764589
31
0.0000000000
11
10.9948257927
21
-20.8829276383
31
0.0000000000
11
10.9972724077
21
-20.9317744478
31
0.0000000000
11
10.9998339282
21
-20.9499557720
31
0.0000000000
0
SPLINE
5
24F
100
AcDbEntity
8
0
100
AcDbSpline
62
9
6
CONTINUOUS
70
0
71
3
72
12
73
8
74
6
42
0.0000001000
43
0.0000001000
44
0.0000000001
12
-0.1999866462
22
0.7792820197
32
0.0000000000
13
-0.8045335428
23
0.0009504912
33
0.0000000000
40
0.0000000000
40
0.0000000000
40
0.0000000000
40
0.0000000000
40
0.0567682445
40
0.2009962621
40
0.4209526986
40
0.6959989235
40
1.0000000000
40
1.0000000000
40
1.0000000000
40
1.0000000000
10
10.9878567742
20
20.2975499689
30
0.0000000000
10
10.9840724772
20
20.3122961263
30
0.0000000000
10
10.9116560657
20
20.3144901892
30
0.0000000000
10
10.8161530888
20
20.3350473693
30
0.0000000000
10
10.6365452645
20
20.3416319971
30
0.0000000000
10
10.4256401279
20
20.3503770952
30
0.0000000000
10
10.2695049724
20
20.3517251742
30
0.0000000000
10
10.1879786180
20
20.3518214910
30
0.0000000000
11
10.9878567742
21
20.2975499689
31
0.0000000000
11
10.9453057818
21
20.3141434497
31
0.0000000000
11
10.8302436464
21
20.3291481686
31
0.0000000000
11
10.6536871217
21
20.3411274820
31
0.0000000000
11
10.4325408114
21
20.3489344170
31
0.0000000000
11
10.1879786180
21
20.3518214910
31
0.0000000000
0
SPLINE
5
250
100
AcDbEntity
8
0
100
AcDbSpline
62
9
6
CONTINUOUS
70
0
71
3
72
11
73
7
74
5
42
0.0000001000
43
0.0000001000
44
0.0000000001
12
-0.0481810396
22
-40.7036233637
32
0.0000000000
13
0.0481810304
23
-40.7036233637
33
0.0000000000
40
0.0000000000
40
0.0000000000
40
0.0000000000
40
0.0000000000
40
0.2498559490
40
0.4999999999
40
0.7501440508
40
1.0000000000
40
1.0000000000
40
1.0000000000
40
1.0000000000
10
10.1879786180
20
20.3518214929
30
0.0000000000
10
10.1839658449
20
16.9618073445
30
0.0000000000
10
10.1779506743
20
10.1778675645
30
0.0000000000
10
10.1749448506
20
0.0000000026
30
0.0000000000
10
10.1779506737
20
-10.1778675609
30
0.0000000000
10
10.1839658457
20
-16.9618073429
30
0.0000000000
10
10.1879786180
20
-20.3518214929
30
0.0000000000
11
10.1879786180
21
20.3518214929
31
0.0000000000
11
10.1789559031
21
10.1817759252
31
0.0000000000
11
10.1759471766
21
0.0000000029
31
0.0000000000
11
10.1789559029
21
-10.1817759203
31
0.0000000000
11
10.1879786180
21
-20.3518214929
31
0.0000000000
0
SPLINE
5
251
100
AcDbEntity
8
0
100
AcDbSpline
62
9
6
CONTINUOUS
70
0
71
3
72
11
73
7
74
5
42
0.0000001000
43
0.0000001000
44
0.0000000001
12
-0.0481810384
22
-40.5950802632
32
0.0000000000
13
0.0481810293
23
-40.5950802633
33
0.0000000000
40
0.0000000000
40
0.0000000000
40
0.0000000000
40
0.0000000000
40
0.2498555179
40
0.5000002270
40
0.7501449323
40
1.0000000000
40
1.0000000000
40
1.0000000000
40
1.0000000000
10
10.9878567742
20
20.2975499689
30
0.0000000000
10
10.9838440081
20
16.9165817008
30
0.0000000000
10
10.9778288311
20
10.1507293584
30
0.0000000000
10
10.9748230015
20
-0.0000091639
30
0.0000000000
10
10.9778288396
20
-10.1507415936
30
0.0000000000
10
10.9838440161
20
-16.9165877933
30
0.0000000000
10
10.9878567742
20
-20.2975499689
30
0.0000000000
11
10.9878567742
21
20.2975499689
31
0.0000000000
11
10.9788340696
21
10.1546420336
31
0.0000000000
11
10.9758253327
21
-0.0000092139
31
0.0000000000
11
10.9788340803
21
-10.1546603114
31
0.0000000000
11
10.9878567742
21
-20.2975499689
31
0.0000000000
0
SPLINE
5
252
100
AcDbEntity
8
0
100
AcDbSpline
62
9
6
CONTINUOUS
70
0
71
3
72
12
73
8
74
6
42
0.0000001000
43
0.0000001000
44
0.0000000001
12
-0.0003810896
22
1.2511678077
32
0.0000000000
13
-1.2511678077
23
0.0003810895
33
0.0000000000
40
0.0000000000
40
0.0000000000
40
0.0000000000
40
0.0000000000
40
0.1999878838
40
0.3999920063
40
0.6000028980
40
0.8000087765
40
1.0000000000
40
1.0000000000
40
1.0000000000
40
1.0000000000
10
10.9998339282
20
20.9499557720
30
0.0000000000
10
10.9998085237
20
21.0333619061
30
0.0000000000
10
10.9732294802
20
21.2013473936
30
0.0000000000
10
10.8577221592
20
21.4277848786
30
0.0000000000
10
10.6777896628
20
21.6077188276
30
0.0000000000
10
10.4513509696
20
21.7232286813
30
0.0000000000
10
10.2833632990
20
21.7498085234
30
0.0000000000
10
10.1999557721
20
21.7498339282
30
0.0000000000
11
10.9998339282
21
20.9499557720
31
0.0000000000
11
10.9606256012
21
21.1970831920
31
0.0000000000
11
10.8469868447
21
21.4200308441
31
0.0000000000
11
10.6700360660
21
21.5969830502
31
0.0000000000
11
10.4470872152
21
21.7106242930
31
0.0000000000
11
10.1999557721
21
21.7498339282
31
0.0000000000
0
SPLINE
5
253
100
AcDbEntity
8
0
100
AcDbSpline
62
9
6
CONTINUOUS
70
0
71
3
72
14
73
10
74
8
42
0.0000001000
43
0.0000001000
44
0.0000000001
12
-0.5896908548
22
-1.2677140030
32
0.0000000000
13
-0.0007800886
23
-1.3981536000
33
0.0000000000
40
0.0000000000
40
0.0000000000
40
0.0000000000
40
0.0000000000
40
0.0280715852
40
0.1029638271
40
0.2213794689
40
0.3779055901
40
0.5656904241
40
0.7761677789
40
1.0000000000
40
1.0000000000
40
1.0000000000
40
1.0000000000
10
10.1999557720
20
21.7498339282
30
0.0000000000
10
10.1944379197
20
21.7379716810
30
0.0000000000
10
10.2014284644
20
21.6873997205
30
0.0000000000
10
10.1915207286
20
21.5865743731
30
0.0000000000
10
10.1936628647
20
21.4223087739
30
0.0000000000
10
10.1901930470
20
21.2071669824
30
0.0000000000
10
10.1894041325
20
20.9484315634
30
0.0000000000
10
10.1882719223
20
20.6585633683
30
0.0000000000
10
10.1880368210
20
20.4561387681
30
0.0000000000
10
10.1879786180
20
20.3518214929
30
0.0000000000
11
10.1999557720
21
21.7498339282
31
0.0000000000
11
10.1973875318
21
21.7106696515
31
0.0000000000
11
10.1949448237
21
21.6059872732
31
0.0000000000
11
10.1927347732
21
21.4404387430
31
0.0000000000
11
10.1908598442
21
21.2215991806
31
0.0000000000
11
10.1894011627
21
20.9590511501
31
0.0000000000
11
10.1884266564
21
20.6647730465
31
0.0000000000
11
10.1879786180
21
20.3518214929
31
0.0000000000
0
SPLINE
5
254
100
AcDbEntity
8
0
100
AcDbSpline
62
9
6
CONTINUOUS
70
0
71
3
72
14
73
10
74
8
42
0.0000001000
43
0.0000001000
44
0.0000000001
12
-0.4593434485
22
-0.4637151515
32
0.0000000000
13
-0.0007770393
23
-0.6527078532
33
0.0000000000
40
0.0000000000
40
0.0000000000
40
0.0000000000
40
0.0000000000
40
0.0280971635
40
0.1029748729
40
0.2214400599
40
0.3781329396
40
0.5661654017
40
0.7768657501
40
1.0000000000
40
1.0000000000
40
1.0000000000
40
1.0000000000
10
10.9998339282
20
20.9499557720
30
0.0000000000
10
10.9955318455
20
20.9456127452
30
0.0000000000
10
10.9997773223
20
20.9195896000
30
0.0000000000
10
10.9923104003
20
20.8747312625
30
0.0000000000
10
10.9931548545
20
20.7968575831
30
0.0000000000
10
10.9902110264
20
20.6968089129
30
0.0000000000
10
10.9892345705
20
20.5757201886
30
0.0000000000
10
10.9881641841
20
20.4405059695
30
0.0000000000
10
10.9879145689
20
20.3460971280
30
0.0000000000
10
10.9878567742
20
20.2975499689
30
0.0000000000
11
10.9998339282
21
20.9499557720
31
0.0000000000
11
10.9972740557
21
20.9317960577
31
0.0000000000
11
10.9948279489
21
20.8829840062
31
0.0000000000
11
10.9926154318
21
20.8056924543
31
0.0000000000
11
10.9907376590
21
20.7034349483
31
0.0000000000
11
10.9892776832
21
20.5807132807
31
0.0000000000
11
10.9883028444
21
20.4431908662
31
0.0000000000
11
10.9878567742
21
20.2975499689
31
0.0000000000
0
SPLINE
5
255
100
AcDbEntity
8
0
100
AcDbSpline
62
9
6
CONTINUOUS
70
0
71
3
72
12
73
8
74
6
42
0.0000001000
43
0.0000001000
44
0.0000000001
12
0.0003810907
22
-1.2511678074
32
0.0000000000
13
1.2511678074
23
-0.0003810906
33
0.0000000000
40
0.0000000000
40
0.0000000000
40
0.0000000000
40
0.0000000000
40
0.1999885193
40
0.3999929275
40
0.6000037713
40
0.8000093172
40
1.0000000000
40
1.0000000000
40
1.0000000000
40
1.0000000000
10
-10.9998339282
20
-20.9499557720
30
0.0000000000
10
-10.9998085236
20
-21.0333621711
30
0.0000000000
10
-10.9732293310
20
-21.2013480537
30
0.0000000000
10
-10.8577215562
20
-21.4277857346
30
0.0000000000
10
-10.6777888340
20
-21.6077193979
30
0.0000000000
10
-10.4513503704
20
-21.7232288135
30
0.0000000000
10
-10.2833630735
20
-21.7498085233
30
0.0000000000
10
-10.1999557721
20
-21.7498339282
30
0.0000000000
11
-10.9998339282
21
-20.9499557720
31
0.0000000000
11
-10.9606253521
21
-21.1970839574
31
0.0000000000
11
-10.8469861584
21
-21.4200317879
31
0.0000000000
11
-10.6700351708
21
-21.5969837002
31
0.0000000000
11
-10.4470865638
21
-21.7106245046
31
0.0000000000
11
-10.1999557721
21
-21.7498339282
31
0.0000000000
0
SPLINE
5
256
100
AcDbEntity
8
0
100
AcDbSpline
62
9
6
CONTINUOUS
70
0
71
3
72
14
73
10
74
8
42
0.0000001000
43
0.0000001000
44
0.0000000001
12
0.5887297014
22
1.2681606660
32
0.0000000000
13
0.0007802868
23
1.3981536136
33
0.0000000000
40
0.0000000000
40
0.0000000000
40
0.0000000000
40
0.0000000000
40
0.0280734310
40
0.1029650140
40
0.2213853306
40
0.3779128788
40
0.5656927456
40
0.7761754503
40
1.0000000000
40
1.0000000000
40
1.0000000000
40
1.0000000000
10
-10.1999557720
20
-21.7498339282
30
0.0000000000
10
-10.1944465512
20
-21.7379667212
30
0.0000000000
10
-10.2014164976
20
-21.6874036671
30
0.0000000000
10
-10.1915273211
20
-21.5865671087
30
0.0000000000
10
-10.1936592488
20
-21.4223034543
30
0.0000000000
10
-10.1901936976
20
-21.2071592850
30
0.0000000000
10
-10.1894038929
20
-20.9484236755
30
0.0000000000
10
-10.1882719204
20
-20.6585586624
30
0.0000000000
10
-10.1880368338
20
-20.4561351939
30
0.0000000000
10
-10.1879786180
20
-20.3518214929
30
0.0000000000
11
-10.1999557720
21
-21.7498339282
31
0.0000000000
11
-10.1973872223
21
-21.7106670850
31
0.0000000000
11
-10.1949445815
21
-21.6059856258
31
0.0000000000
11
-10.1927342177
21
-21.4404305613
31
0.0000000000
11
-10.1908593992
21
-21.2215890008
31
0.0000000000
11
-10.1894011495
21
-20.9590479103
31
0.0000000000
11
-10.1884265997
21
-20.6647623240
31
0.0000000000
11
-10.1879786180
21
-20.3518214929
31
0.0000000000
0
SPLINE
5
257
100
AcDbEntity
8
0
100
AcDbSpline
62
9
6
CONTINUOUS
70
0
71
3
72
14
73
10
74
8
42
0.0000001000
43
0.0000001000
44
0.0000000001
12
0.4588213572
22
0.4642316835
32
0.0000000000
13
0.0007765848
23
0.6527078142
33
0.0000000000
40
0.0000000000
40
0.0000000000
40
0.0000000000
40
0.0000000000
40
0.0281303015
40
0.1030612398
40
0.2216177721
40
0.3783556928
40
0.5663499083
40
0.7770084323
40
1.0000000000
40
1.0000000000
40
1.0000000000
40
1.0000000000
10
-10.9998339282
20
-20.9499557720
30
0.0000000000
10
-10.9955316671
20
-20.9456027796
30
0.0000000000
10
-10.9997729335
20
-20.9195681235
30
0.0000000000
10
-10.9923096794
20
-20.8746639079
30
0.0000000000
10
-10.9931514506
20
-20.7967530684
30
0.0000000000
10
-10.9902098657
20
-20.6966809796
30
0.0000000000
10
-10.9892333764
20
-20.5756007473
30
0.0000000000
10
-10.9881640152
20
-20.4404346945
30
0.0000000000
10
-10.9879144981
20
-20.3460660818
30
0.0000000000
10
-10.9878567742
20
-20.2975499689
30
0.0000000000
11
-10.9998339282
21
-20.9499557720
31
0.0000000000
11
-10.9972724077
21
-20.9317744479
31
0.0000000000
11
-10.9948257927
21
-20.8829276383
31
0.0000000000
11
-10.9926127877
21
-20.8055764589
31
0.0000000000
11
-10.9907355042
21
-20.7032895464
31
0.0000000000
11
-10.9892765926
21
-20.5805928393
31
0.0000000000
11
-10.9883023849
21
-20.4430977285
31
0.0000000000
11
-10.9878567742
21
-20.2975499689
31
0.0000000000
0
SPLINE
5
258
100
AcDbEntity
8
0
100
AcDbSpline
62
9
6
CONTINUOUS
70
0
71
3
72
12
73
8
74
6
42
0.0000001000
43
0.0000001000
44
0.0000000001
12
0.1999868123
22
-0.7792819767
32
0.0000000000
13
0.8045335424
23
-0.0009504927
33
0.0000000000
40
0.0000000000
40
0.0000000000
40
0.0000000000
40
0.0000000000
40
0.0567682478
40
0.2009962670
40
0.4209527031
40
0.6959989262
40
1.0000000000
40
1.0000000000
40
1.0000000000
40
1.0000000000
10
-10.9878567742
20
-20.2975499689
30
0.0000000000
10
-10.9840724739
20
-20.3122961264
30
0.0000000000
10
-10.9116560664
20
-20.3144901885
30
0.0000000000
10
-10.8161530831
20
-20.3350473687
30
0.0000000000
10
-10.6365452619
20
-20.3416319962
30
0.0000000000
10
-10.4256401256
20
-20.3503770941
30
0.0000000000
10
-10.2695049717
20
-20.3517251733
30
0.0000000000
10
-10.1879786180
20
-20.3518214902
30
0.0000000000
11
-10.9878567742
21
-20.2975499689
31
0.0000000000
11
-10.9453057789
21
-20.3141434495
31
0.0000000000
11
-10.8302436422
21
-20.3291481681
31
0.0000000000
11
-10.6536871179
21
-20.3411274812
31
0.0000000000
11
-10.4325408091
21
-20.3489344160
31
0.0000000000
11
-10.1879786180
21
-20.3518214902
31
0.0000000000
0
SPLINE
5
259
100
AcDbEntity
8
0
100
AcDbSpline
62
9
6
CONTINUOUS
70
0
71
3
72
11
73
7
74
5
42
0.0000001000
43
0.0000001000
44
0.0000000001
12
0.0481810304
22
40.7036233637
32
0.0000000000
13
-0.0481810396
23
40.7036233637
33
0.0000000000
40
0.0000000000
40
0.0000000000
40
0.0000000000
40
0.0000000000
40
0.2498559492
40
0.5000000001
40
0.7501440510
40
1.0000000000
40
1.0000000000
40
1.0000000000
40
1.0000000000
10
-10.1879786180
20
-20.3518214929
30
0.0000000000
10
-10.1839658457
20
-16.9618073429
30
0.0000000000
10
-10.1779506737
20
-10.1778675609
30
0.0000000000
10
-10.1749448506
20
0.0000000026
30
0.0000000000
10
-10.1779506743
20
10.1778675645
30
0.0000000000
10
-10.1839658449
20
16.9618073445
30
0.0000000000
10
-10.1879786180
20
20.3518214929
30
0.0000000000
11
-10.1879786180
21
-20.3518214929
31
0.0000000000
11
-10.1789559029
21
-10.1817759203
31
0.0000000000
11
-10.1759471766
21
0.0000000029
31
0.0000000000
11
-10.1789559031
21
10.1817759252
31
0.0000000000
11
-10.1879786180
21
20.3518214929
31
0.0000000000
0
SPLINE
5
25A
100
AcDbEntity
8
0
100
AcDbSpline
62
9
6
CONTINUOUS
70
0
71
3
72
11
73
7
74
5
42
0.0000001000
43
0.0000001000
44
0.0000000001
12
0.0481810293
22
40.5950802633
32
0.0000000000
13
-0.0481810384
23
40.5950802632
33
0.0000000000
40
0.0000000000
40
0.0000000000
40
0.0000000000
40
0.0000000000
40
0.2498550677
40
0.4999997730
40
0.7501444821
40
1.0000000000
40
1.0000000000
40
1.0000000000
40
1.0000000000
10
-10.9878567742
20
-20.2975499689
30
0.0000000000
10
-10.9838440161
20
-16.9165877933
30
0.0000000000
10
-10.9778288396
20
-10.1507415936
30
0.0000000000
10
-10.9748230015
20
-0.0000091639
30
0.0000000000
10
-10.9778288311
20
10.1507293584
30
0.0000000000
10
-10.9838440081
20
16.9165817008
30
0.0000000000
10
-10.9878567742
20
20.2975499689
30
0.0000000000
11
-10.9878567742
21
-20.2975499689
31
0.0000000000
11
-10.9788340803
21
-10.1546603114
31
0.0000000000
11
-10.9758253327
21
-0.0000092139
31
0.0000000000
11
-10.9788340696
21
10.1546420336
31
0.0000000000
11
-10.9878567742
21
20.2975499689
31
0.0000000000
0
SPLINE
5
25B
100
AcDbEntity
8
0
100
AcDbSpline
62
9
6
CONTINUOUS
70
0
71
3
72
12
73
8
74
6
42
0.0000001000
43
0.0000001000
44
0.0000000001
12
0.2000698874
22
0.7792604376
32
0.0000000000
13
0.8045333344
23
0.0009504120
33
0.0000000000
40
0.0000000000
40
0.0000000000
40
0.0000000000
40
0.0000000000
40
0.0567698951
40
0.2009986976
40
0.4209549630
40
0.6960002640
40
1.0000000000
40
1.0000000000
40
1.0000000000
40
1.0000000000
10
-10.9878567741
20
20.2975499689
30
0.0000000000
10
-10.9840707920
20
20.3122961467
30
0.0000000000
10
-10.9116563816
20
20.3144897087
30
0.0000000000
10
-10.8161502735
20
20.3350470062
30
0.0000000000
10
-10.6365439276
20
20.3416314172
30
0.0000000000
10
-10.4256389601
20
20.3503764295
30
0.0000000000
10
-10.2695045918
20
20.3517244660
30
0.0000000000
10
-10.1879786180
20
20.3518207743
30
0.0000000000
11
-10.9878567741
21
20.2975499689
31
0.0000000000
11
-10.9453043024
21
20.3141432785
31
0.0000000000
11
-10.8302415361
21
20.3291478107
31
0.0000000000
11
-10.6536851839
21
20.3411269537
31
0.0000000000
11
-10.4325396701
21
20.3489337624
31
0.0000000000
11
-10.1879786180
21
20.3518207743
31
0.0000000000
0
SPLINE
5
25C
100
AcDbEntity
8
0
100
AcDbSpline
62
9
6
CONTINUOUS
70
0
71
3
72
14
73
10
74
8
42
0.0000001000
43
0.0000001000
44
0.0000000001
12
-0.0007800886
22
1.3981536000
32
0.0000000000
13
-0.5896906941
23
1.2677140777
33
0.0000000000
40
0.0000000000
40
0.0000000000
40
0.0000000000
40
0.0000000000
40
0.2238322211
40
0.4343095759
40
0.6220944099
40
0.7786205311
40
0.8970361729
40
0.9719284148
40
1.0000000000
40
1.0000000000
40
1.0000000000
40
1.0000000000
10
-10.1879786180
20
20.3518214929
30
0.0000000000
10
-10.1880368210
20
20.4561387681
30
0.0000000000
10
-10.1882719223
20
20.6585633683
30
0.0000000000
10
-10.1894041325
20
20.9484315634
30
0.0000000000
10
-10.1901930472
20
21.2071669823
30
0.0000000000
10
-10.1936628642
20
21.4223087741
30
0.0000000000
10
-10.1915207298
20
21.5865743726
30
0.0000000000
10
-10.2014284623
20
21.6873997214
30
0.0000000000
10
-10.1944379212
20
21.7379716803
30
0.0000000000
10
-10.1999557720
20
21.7498339282
30
0.0000000000
11
-10.1879786180
21
20.3518214929
31
0.0000000000
11
-10.1884266564
21
20.6647730465
31
0.0000000000
11
-10.1894011627
21
20.9590511501
31
0.0000000000
11
-10.1908598442
21
21.2215991806
31
0.0000000000
11
-10.1927347732
21
21.4404387430
31
0.0000000000
11
-10.1949448237
21
21.6059872732
31
0.0000000000
11
-10.1973875318
21
21.7106696515
31
0.0000000000
11
-10.1999557720
21
21.7498339282
31
0.0000000000
0
SPLINE
5
25D
100
AcDbEntity
8
0
100
AcDbSpline
62
9
6
CONTINUOUS
70
0
71
3
72
14
73
10
74
8
42
0.0000001000
43
0.0000001000
44
0.0000000001
12
-0.0007770394
22
0.6527078532
32
0.0000000000
13
-0.4593434087
23
0.4637151910
33
0.0000000000
40
0.0000000000
40
0.0000000000
40
0.0000000000
40
0.0000000000
40
0.2231342499
40
0.4338345984
40
0.6218670604
40
0.7785599401
40
0.8970251270
40
0.9719028365
40
1.0000000000
40
1.0000000000
40
1.0000000000
40
1.0000000000
10
-10.9878567742
20
20.2975499689
30
0.0000000000
10
-10.9879145689
20
20.3460971280
30
0.0000000000
10
-10.9881641841
20
20.4405059696
30
0.0000000000
10
-10.9892345705
20
20.5757201886
30
0.0000000000
10
-10.9902110265
20
20.6968089129
30
0.0000000000
10
-10.9931548543
20
20.7968575832
30
0.0000000000
10
-10.9923104005
20
20.8747312622
30
0.0000000000
10
-10.9997773218
20
20.9195896004
30
0.0000000000
10
-10.9955318459
20
20.9456127449
30
0.0000000000
10
-10.9998339282
20
20.9499557720
30
0.0000000000
11
-10.9878567742
21
20.2975499689
31
0.0000000000
11
-10.9883028444
21
20.4431908662
31
0.0000000000
11
-10.9892776832
21
20.5807132807
31
0.0000000000
11
-10.9907376590
21
20.7034349483
31
0.0000000000
11
-10.9926154318
21
20.8056924543
31
0.0000000000
11
-10.9948279489
21
20.8829840061
31
0.0000000000
11
-10.9972740557
21
20.9317960577
31
0.0000000000
11
-10.9998339282
21
20.9499557720
31
0.0000000000
0
SPLINE
5
25E
100
AcDbEntity
8
0
100
AcDbSpline
62
9
6
CONTINUOUS
70
0
71
3
72
12
73
8
74
6
42
0.0000001000
43
0.0000001000
44
0.0000000001
12
0.0003810888
22
1.2511678080
32
0.0000000000
13
1.2511678080
23
0.0003810886
33
0.0000000000
40
0.0000000000
40
0.0000000000
40
0.0000000000
40
0.0000000000
40
0.1999897043
40
0.3999946302
40
0.6000053697
40
0.8000102956
40
1.0000000000
40
1.0000000000
40
1.0000000000
40
1.0000000000
10
-10.9998339282
20
20.9499557720
30
0.0000000000
10
-10.9998085236
20
21.0333626654
30
0.0000000000
10
-10.9732290547
20
21.2013492788
30
0.0000000000
10
-10.8577204427
20
21.4277873148
30
0.0000000000
10
-10.6777873149
20
21.6077204426
30
0.0000000000
10
-10.4513492789
20
21.7232290548
30
0.0000000000
10
-10.2833626654
20
21.7498085236
30
0.0000000000
10
-10.1999557720
20
21.7498339282
30
0.0000000000
11
-10.9998339282
21
20.9499557720
31
0.0000000000
11
-10.9606248882
21
21.1970853851
31
0.0000000000
11
-10.8469848910
21
21.4200335331
31
0.0000000000
11
-10.6700335333
21
21.5969848909
31
0.0000000000
11
-10.4470853852
21
21.7106248882
31
0.0000000000
11
-10.1999557720
21
21.7498339282
31
0.0000000000
0
SPLINE
5
25F
100
AcDbEntity
8
0
100
AcDbSpline
62
9
6
CONTINUOUS
70
0
71
3
72
12
73
8
74
6
42
0.0000001000
43
0.0000001000
44
0.0000000001
12
-0.0003810888
22
-1.2511678080
32
0.0000000000
13
-1.2511678080
23
-0.0003810887
33
0.0000000000
40
0.0000000000
40
0.0000000000
40
0.0000000000
40
0.0000000000
40
0.1999897043
40
0.3999946302
40
0.6000053697
40
0.8000102957
40
1.0000000000
40
1.0000000000
40
1.0000000000
40
1.0000000000
10
10.9998339282
20
-20.9499557720
30
0.0000000000
10
10.9998085236
20
-21.0333626654
30
0.0000000000
10
10.9732290547
20
-21.2013492788
30
0.0000000000
10
10.8577204426
20
-21.4277873148
30
0.0000000000
10
10.6777873149
20
-21.6077204426
30
0.0000000000
10
10.4513492789
20
-21.7232290548
30
0.0000000000
10
10.2833626654
20
-21.7498085236
30
0.0000000000
10
10.1999557720
20
-21.7498339282
30
0.0000000000
11
10.9998339282
21
-20.9499557720
31
0.0000000000
11
10.9606248882
21
-21.1970853851
31
0.0000000000
11
10.8469848910
21
-21.4200335331
31
0.0000000000
11
10.6700335332
21
-21.5969848910
31
0.0000000000
11
10.4470853852
21
-21.7106248882
31
0.0000000000
11
10.1999557720
21
-21.7498339282
31
0.0000000000
0
SPLINE
5
260
100
AcDbEntity
8
0
100
AcDbSpline
62
9
6
CONTINUOUS
70
0
71
3
72
12
73
8
74
6
42
0.0000001000
43
0.0000001000
44
0.0000000001
12
-0.2001086233
22
-0.7792503747
32
0.0000000000
13
-0.8045332213
23
-0.0009504378
33
0.0000000000
40
0.0000000000
40
0.0000000000
40
0.0000000000
40
0.0000000000
40
0.0567706395
40
0.2009998020
40
0.4209559923
40
0.6960008741
40
1.0000000000
40
1.0000000000
40
1.0000000000
40
1.0000000000
10
10.9878567741
20
-20.2975499689
30
0.0000000000
10
10.9840700093
20
-20.3122961496
30
0.0000000000
10
10.9116565197
20
-20.3144894205
30
0.0000000000
10
10.8161489784
20
-20.3350467843
30
0.0000000000
10
10.6365433115
20
-20.3416310685
30
0.0000000000
10
10.4256384230
20
-20.3503760492
30
0.0000000000
10
10.2695044167
20
-20.3517240733
30
0.0000000000
10
10.1879786180
20
-20.3518203840
30
0.0000000000
11
10.9878567741
21
-20.2975499689
31
0.0000000000
11
10.9453036217
21
-20.3141431638
31
0.0000000000
11
10.8302405652
21
-20.3291475845
31
0.0000000000
11
10.6536842923
21
-20.3411266361
31
0.0000000000
11
10.4325391451
21
-20.3489333873
31
0.0000000000
11
10.1879786180
21
-20.3518203840
31
0.0000000000
0
SPLINE
5
261
100
AcDbEntity
8
0
100
AcDbSpline
62
9
6
CONTINUOUS
70
0
71
3
72
14
73
10
74
8
42
0.0000001000
43
0.0000001000
44
0.0000000001
12
0.0007802866
22
-1.3981536136
32
0.0000000000
13
0.5887295681
23
-1.2681607279
33
0.0000000000
40
0.0000000000
40
0.0000000000
40
0.0000000000
40
0.0000000000
40
0.2238245497
40
0.4343072544
40
0.6220871212
40
0.7786146694
40
0.8970349860
40
0.9719265690
40
1.0000000000
40
1.0000000000
40
1.0000000000
40
1.0000000000
10
10.1879786180
20
-20.3518214929
30
0.0000000000
10
10.1880368338
20
-20.4561351939
30
0.0000000000
10
10.1882719205
20
-20.6585586624
30
0.0000000000
10
10.1894038928
20
-20.9484236755
30
0.0000000000
10
10.1901936978
20
-21.2071592849
30
0.0000000000
10
10.1936592483
20
-21.4223034545
30
0.0000000000
10
10.1915273222
20
-21.5865671083
30
0.0000000000
10
10.2014164959
20
-21.6874036678
30
0.0000000000
10
10.1944465524
20
-21.7379667206
30
0.0000000000
10
10.1999557720
20
-21.7498339282
30
0.0000000000
11
10.1879786180
21
-20.3518214929
31
0.0000000000
11
10.1884265997
21
-20.6647623240
31
0.0000000000
11
10.1894011495
21
-20.9590479103
31
0.0000000000
11
10.1908593992
21
-21.2215890008
31
0.0000000000
11
10.1927342177
21
-21.4404305613
31
0.0000000000
11
10.1949445815
21
-21.6059856258
31
0.0000000000
11
10.1973872222
21
-21.7106670850
31
0.0000000000
11
10.1999557720
21
-21.7498339282
31
0.0000000000
0
SPLINE
5
262
100
AcDbEntity
8
0
100
AcDbSpline
62
9
6
CONTINUOUS
70
0
71
3
72
8
73
4
74
2
42
0.0000001000
43
0.0000001000
44
0.0000000001
12
-1.0499159164
22
1.0499159164
32
0.0492250759
13
-1.0500819355
23
1.0500819355
33
0.0455463336
40
0.0000000000
40
0.0000000000
40
0.0000000000
40
0.0000000000
40
1.0000000000
40
1.0000000000
40
1.0000000000
40
1.0000000000
10
-4.1200000000
20
-14.0500000000
30
3.6208152290
10
-4.4699719721
20
-13.7000280279
30
3.6372235876
10
-4.8199726882
20
-13.3500273118
30
3.6530188710
10
-5.1700000000
20
-13.0000000000
30
3.6682009822
11
-4.1200000000
21
-14.0500000000
31
3.6208152290
11
-5.1700000000
21
-13.0000000000
31
3.6682009822
0
SPLINE
5
263
100
AcDbEntity
8
0
100
AcDbSpline
62
9
6
CONTINUOUS
70
0
71
3
72
26
73
22
74
20
42
0.0000001000
43
0.0000001000
44
0.0000000001
12
3.3814541226
22
7.8356504514
32
0.3123679910
13
-3.5464884210
23
-7.5783477974
33
-0.3571682549
40
0.0000000000
40
0.0000000000
40
0.0000000000
40
0.0000000000
40
0.0689655172
40
0.1379310345
40
0.2068965517
40
0.2758620690
40
0.3448275862
40
0.4137931034
40
0.4827586207
40
0.5517241379
40
0.6206896552
40
0.6896551724
40
0.7241379310
40
0.7586206897
40
0.7931034483
40
0.8275862069
40
0.8620689655
40
0.8965517241
40
0.9310344828
40
0.9655172414
40
1.0000000000
40
1.0000000000
40
1.0000000000
40
1.0000000000
10
0.0868949879
20
-11.9500000000
30
3.7119013484
10
0.1646295654
20
-11.7698701046
30
3.7190822217
10
0.3547619766
20
-11.4360215887
30
3.7320722384
10
0.7478132055
20
-11.0012074130
30
3.7483050898
10
1.2216354929
20
-10.6655405755
30
3.7603936254
10
1.7618236415
20
-10.4386956775
30
3.7683486224
10
2.3321571162
20
-10.3353522992
30
3.7719140224
10
2.9186224035
20
-10.3587525264
30
3.7711095427
10
3.4780342716
20
-10.5064609517
30
3.7659911201
10
4.0002436631
20
-10.7764534686
30
3.7564407124
10
4.4438249347
20
-11.1468748970
30
3.7429389711
10
4.7433354237
20
-11.5353587559
30
3.7282256525
10
4.9250755053
20
-11.8749880188
30
3.7149201501
10
5.0331564678
20
-12.1428833268
30
3.7041920126
10
5.1121143708
20
-12.4238543247
30
3.6926814850
10
5.1596097781
20
-12.7118277904
30
3.6806078675
10
5.1752124043
20
-13.0003193382
30
3.6682334434
10
5.1595404891
20
-13.2888132027
30
3.6555810446
10
5.1119681200
20
-13.5768103338
30
3.6426717409
10
5.0329243879
20
-13.8578024837
30
3.6298067463
10
4.9608061235
20
-14.0364133292
30
3.6214645672
10
4.9200418888
20
-14.1235207751
30
3.6173591850
11
0.0868949879
21
-11.9500000000
31
3.7119013484
11
0.3727374120
21
-11.4470146884
31
3.7315302095
11
0.7612750486
21
-11.0177319693
31
3.7476143705
11
1.2326964698
21
-10.6836775654
31
3.7597047023
11
1.7668478625
21
-10.4592792641
31
3.7676170229
11
2.3348457516
21
-10.3564762335
31
3.7711857091
11
2.9141135003
21
-10.3794705594
31
3.7703905523
11
3.4718338589
21
-10.5268416336
31
3.7652524559
11
3.9871389765
21
-10.7931916205
31
3.7557821568
11
4.4297968206
21
-11.1628347641
31
3.7422465976
11
4.7839480850
21
-11.6226695863
31
3.7247713729
11
4.9203714889
21
-11.8771835789
31
3.7147953150
11
5.0283026246
21
-12.1450626084
31
3.7040616142
11
5.1068706215
21
-12.4250214027
31
3.6925876367
11
5.1542943146
21
-12.7119141374
31
3.6805577330
11
5.1699999807
21
-13.0003197243
31
3.6681871143
11
5.1542237468
21
-13.2887304138
31
3.6555382271
11
5.1067228928
21
-13.5756428369
31
3.6426791257
11
5.0280687771
21
-13.8556231701
31
3.6298653673
11
4.9200418888
21
-14.1235207751
31
3.6173591850
0
SPLINE
5
264
100
AcDbEntity
8
0
100
AcDbSpline
62
9
6
CONTINUOUS
70
0
71
3
72
27
73
23
74
21
42
0.0000001000
43
0.0000001000
44
0.0000000001
12
0.0000000000
22
2.0760537969
32
0.0900469150
13
-0.0000000000
23
-2.0783226830
33
-0.0901453258
40
0.0000000000
40
0.0000000000
40
0.0000000000
40
0.0000000000
40
0.0454545455
40
0.0909090909
40
0.1363636364
40
0.1818181818
40
0.2727272727
40
0.3181818182
40
0.3636363636
40
0.4090909091
40
0.4545454545
40
0.5000000000
40
0.5454545455
40
0.5909090909
40
0.6363636364
40
0.6818181818
40
0.7272727273
40
0.8181818182
40
0.8636363636
40
0.9090909091
40
0.9545454545
40
1.0000000000
40
1.0000000000
40
1.0000000000
40
1.0000000000
10
4.0200000000
20
-13.0000000000
30
3.6682009822
10
4.0200000000
20
-12.9685446394
30
3.6695653294
10
4.0155355377
20
-12.9075006722
30
3.6722033109
10
3.9961706027
20
-12.8175841235
30
3.6760619144
10
3.9637926950
20
-12.7301993271
30
3.6797856883
10
3.9045287790
20
-12.6210700077
30
3.6844050268
10
3.8218594468
20
-12.5255547566
30
3.6884080542
10
3.7228239065
20
-12.4515008067
30
3.6914902056
10
3.6415035316
20
-12.4069672151
30
3.6933363142
10
3.5534315521
20
-12.3740486839
30
3.6946966085
10
3.4615279040
20
-12.3542289768
30
3.6955138506
10
3.3691401499
20
-12.3478248971
30
3.6957776356
10
3.2767832795
20
-12.3544748065
30
3.6955037222
10
3.1851192270
20
-12.3744886217
30
3.6946784503
10
3.0973129363
20
-12.4075130305
30
3.6933137283
10
3.0160042156
20
-12.4522512505
30
3.6914590406
10
2.9170912295
20
-12.5265501710
30
3.6883664916
10
2.8347309633
20
-12.6221960315
30
3.6843575578
10
2.7759835796
20
-12.7307673048
30
3.6797615113
10
2.7438265676
20
-12.8176507190
30
3.6760590341
10
2.7244727825
20
-12.9074439796
30
3.6722057514
10
2.7200000000
20
-12.9685102624
30
3.6695668205
10
2.7200000000
20
-13.0000000000
30
3.6682009822
11
4.0200000000
21
-13.0000000000
31
3.6682009822
11
4.0134241641
21
-12.9077755726
31
3.6721869161
11
3.9940017739
21
-12.8180060822
31
3.6760394428
11
3.9617810234
21
-12.7311222949
31
3.6797424766
11
3.9173943066
21
-12.6494868432
31
3.6831988329
11
3.7957367110
21
-12.5088297109
31
3.6891018524
11
3.7216499532
21
-12.4533352852
31
3.6914126214
11
3.6403782642
21
-12.4089030585
31
3.6932553451
11
3.5527929407
21
-12.3762318212
31
3.6946060998
11
3.4614472197
21
-12.3564649147
31
3.6954216078
11
3.3691452972
21
-12.3500005619
31
3.6956880192
11
3.2768987492
21
-12.3567021241
31
3.6954118291
11
3.1857621873
21
-12.3766570540
31
3.6945885419
11
3.0983958646
21
-12.4094653324
31
3.6932320673
11
3.0171915458
21
-12.4540822456
31
3.6913815866
11
2.9431988693
21
-12.5097543525
31
3.6890632634
11
2.8220118576
21
-12.6504159676
31
3.6831596201
11
2.7779675006
21
-12.7316764647
31
3.6797189376
11
2.7459604388
21
-12.8181356934
31
3.6760338999
11
2.7265802177
21
-12.9077450069
31
3.6721882324
11
2.7200000000
21
-13.0000000000
31
3.6682009822
0
SPLINE
5
265
100
AcDbEntity
8
0
100
AcDbSpline
62
9
6
CONTINUOUS
70
0
71
3
72
27
73
23
74
21
42
0.0000001000
43
0.0000001000
44
0.0000000001
12
-0.0000000000
22
-2.0761059825
32
-0.0900491785
13
-0.0000000000
23
2.0783832509
33
0.0901479529
40
0.0000000000
40
0.0000000000
40
0.0000000000
40
0.0000000000
40
0.0454545455
40
0.0909090909
40
0.1363636364
40
0.1818181818
40
0.2727272727
40
0.3181818182
40
0.3636363636
40
0.4090909091
40
0.4545454545
40
0.5000000000
40
0.5454545455
40
0.5909090909
40
0.6363636364
40
0.6818181818
40
0.7272727273
40
0.8181818182
40
0.8636363636
40
0.9090909091
40
0.9545454545
40
1.0000000000
40
1.0000000000
40
1.0000000000
40
1.0000000000
10
2.7200000000
20
-13.0000000000
30
3.6682009822
10
2.7200000000
20
-13.0314561512
30
3.6668366007
10
2.7244647008
20
-13.0925016596
30
3.6641790635
10
2.7438305826
20
-13.1824206238
30
3.6602374636
10
2.7762112454
20
-13.2698099357
30
3.6563805603
10
2.8354802332
20
-13.3789436293
30
3.6515329183
10
2.9181561220
20
-13.4744601778
30
3.6472500848
10
3.0171935166
20
-13.5485103180
30
3.6439083320
10
3.0985134151
20
-13.5930403462
30
3.6418913725
10
3.1865811411
20
-13.6259547270
30
3.6403962150
10
3.2784789034
20
-13.6457716573
30
3.6394942487
10
3.3708591855
20
-13.6521747342
30
3.6392025334
10
3.4632086215
20
-13.6455260395
30
3.6395054361
10
3.5548671365
20
-13.6255151209
30
3.6404162058
10
3.6426695158
20
-13.5924948544
30
3.6419161207
10
3.7239777866
20
-13.5477602982
30
3.6439422478
10
3.8228926509
20
-13.4734653194
30
3.6472948479
10
3.9052592436
20
-13.3778187700
30
3.6515830781
10
3.9640120918
20
-13.2692428857
30
3.6564056133
10
3.9961720826
20
-13.1823546429
30
3.6602403333
10
4.0155269419
20
-13.0925587071
30
3.6641765705
10
4.0200000000
20
-13.0314906553
30
3.6668351041
10
4.0200000000
20
-13.0000000000
30
3.6682009822
11
2.7200000000
21
-13.0000000000
31
3.6682009822
11
2.7265761726
21
-13.0922267766
31
3.6641865145
11
2.7459997127
21
-13.1819990151
31
3.6602515797
11
2.7782230917
21
-13.2688867621
31
3.6564174223
11
2.8226135613
21
-13.3505254438
31
3.6527918962
11
2.9442789295
21
-13.4911838455
31
3.6464930700
11
3.0183671587
21
-13.5466757219
31
3.6439898912
11
3.0996380530
21
-13.5911044050
31
3.6419783395
11
3.1872194805
21
-13.6237718186
31
3.6404950802
11
3.2785593234
21
-13.6435360150
31
3.6395959572
11
3.3708540445
21
-13.6499994389
31
3.6393016364
11
3.4630934680
21
-13.6432990022
31
3.6396067473
11
3.5542244472
21
-13.6233468962
31
3.6405143967
11
3.6415871644
21
-13.5905424728
31
3.6420038228
11
3.7227907662
21
-13.5459291852
31
3.6440236350
11
3.7967849122
21
-13.4902597666
31
3.6465346670
11
3.9179796436
21
-13.3495973544
31
3.6528332373
11
3.9620279843
21
-13.2683334975
31
3.6564419164
11
3.9940378940
21
-13.1818700274
31
3.6602572529
11
4.0134193965
21
-13.0922576834
31
3.6641851644
11
4.0200000000
21
-13.0000000000
31
3.6682009822
0
SPLINE
5
266
100
AcDbEntity
8
0
100
AcDbSpline
62
9
6
CONTINUOUS
70
0
71
3
72
8
73
4
74
2
42
0.0000001000
43
0.0000001000
44
0.0000000001
12
1.0499223844
22
1.0499223844
32
0.0455394132
13
1.0500754682
23
1.0500754682
33
0.0418612298
40
0.0000000000
40
0.0000000000
40
0.0000000000
40
0.0000000000
40
1.0000000000
40
1.0000000000
40
1.0000000000
40
1.0000000000
10
-5.1700000000
20
-13.0000000000
30
3.6682009822
10
-4.8200258719
20
-12.6500258719
30
3.6833807866
10
-4.4700251561
20
-12.3000251561
30
3.6979476051
10
-4.1200000000
20
-11.9500000000
30
3.7119013484
11
-5.1700000000
21
-13.0000000000
31
3.6682009822
11
-4.1200000000
21
-11.9500000000
31
3.7119013484
0
SPLINE
5
267
100
AcDbEntity
8
0
100
AcDbSpline
62
9
6
CONTINUOUS
70
0
71
3
72
18
73
14
74
12
42
0.0000001000
43
0.0000001000
44
0.0000000001
12
-2.5681467876
22
-5.4877690947
32
-0.2586390812
13
-2.4495299283
23
5.6761557581
33
0.2661253093
40
0.0000000000
40
0.0000000000
40
0.0000000000
40
0.0000000000
40
0.0476190476
40
0.1428571429
40
0.2380952381
40
0.3333333333
40
0.4285714286
40
0.5238095238
40
0.6190476190
40
0.7142857143
40
0.8095238095
40
0.9047619048
40
1.0000000000
40
1.0000000000
40
1.0000000000
40
1.0000000000
10
4.9200418888
20
-14.1235207751
30
3.6173591850
10
4.8792776540
20
-14.2106282211
30
3.6132538028
10
4.7428696423
20
-14.4653566285
30
3.6011347779
10
4.4431779998
20
-14.8538028729
30
3.5821472278
10
3.9994603549
20
-15.2240620352
30
3.5635206809
10
3.4772740098
20
-15.4938167270
30
3.5496593516
10
2.9180458136
20
-15.6413142788
30
3.5419737966
10
2.3318738924
20
-15.6646062351
30
3.5407537771
10
1.7618011622
20
-15.5612819770
30
3.5461532602
10
1.2217452325
20
-15.3345121889
30
3.5578747944
10
0.7479499406
20
-14.9989113112
30
3.5749038446
10
0.3548551536
20
-14.5641160024
30
3.5963916484
10
0.1646578427
20
-14.2301954209
30
3.6123668065
10
0.0868949879
20
-14.0500000000
30
3.6208152290
11
4.9200418888
21
-14.1235207751
31
3.6173591850
11
4.7835159824
21
-14.3780404193
31
3.6052551745
11
4.4291633875
21
-14.8378234844
31
3.5828403133
11
3.9863822382
21
-15.2073112901
31
3.5643148839
11
3.4711003680
21
-15.4734405370
31
3.5506886473
11
2.9135551928
21
-15.6206133462
31
3.5430513859
11
2.3345570909
21
-15.6435035327
31
3.5418570276
11
1.7668039623
21
-15.5407077220
31
3.5472069354
11
1.2327886721
21
-15.3163736739
31
3.5587593804
11
0.7614000247
21
-14.9823789060
31
3.5756469702
11
0.3728216237
21
-14.5531017418
31
3.5968041373
11
0.0868949879
21
-14.0500000000
31
3.6208152290
0
SPLINE
5
268
100
AcDbEntity
8
0
100
AcDbSpline
62
9
6
CONTINUOUS
70
0
71
3
72
14
73
10
74
8
42
0.0000001000
43
0.0000001000
44
0.0000000001
12
-1.0377045613
22
-0.0182855890
32
0.0000000000
13
-0.0706213583
23
-1.0354601601
33
0.0000000000
40
0.0000000000
40
0.0000000000
40
0.0000000000
40
0.0000000000
40
0.1423835914
40
0.2853645962
40
0.4284096110
40
0.5714179619
40
0.7145141281
40
0.8575287905
40
1.0000000000
40
1.0000000000
40
1.0000000000
40
1.0000000000
10
-30.7000148365
20
20.9499557720
30
0.0000000000
10
-30.7492655373
20
20.9490879161
30
0.0000000000
10
-30.8481079854
20
20.9368772186
30
0.0000000000
10
-30.9890726101
20
20.8877505385
30
0.0000000000
10
-31.1167708175
20
20.8098964676
30
0.0000000000
10
-31.2251880539
20
20.7068397159
30
0.0000000000
10
-31.3094281734
20
20.5832242963
30
0.0000000000
10
-31.3656420468
20
20.4448671937
30
0.0000000000
10
-31.3828316930
20
20.3467243894
30
0.0000000000
10
-31.3861855298
20
20.2975499689
30
0.0000000000
11
-30.7000148365
21
20.9499557720
31
0.0000000000
11
-30.8466698298
21
20.9317960577
31
0.0000000000
11
-30.9868071971
21
20.8829840062
31
0.0000000000
11
-31.1135622183
21
20.8056924543
31
0.0000000000
11
-31.2211397471
21
20.7034349483
31
0.0000000000
11
-31.3047817082
21
20.5807132807
31
0.0000000000
11
-31.3606301843
21
20.4431908662
31
0.0000000000
11
-31.3861855298
21
20.2975499689
31
0.0000000000
0
SPLINE
5
269
100
AcDbEntity
8
0
100
AcDbSpline
62
9
6
CONTINUOUS
70
0
71
3
72
12
73
8
74
6
42
0.0000001000
43
0.0000001000
44
0.0000000001
12
-0.0139593881
22
0.7999748070
32
0.0000000000
13
0.7999747333
23
0.0139636109
33
0.0000000000
40
0.0000000000
40
0.0000000000
40
0.0000000000
40
0.0000000000
40
0.3089052873
40
0.5875664122
40
0.8087299666
40
0.9507843884
40
1.0000000000
40
1.0000000000
40
1.0000000000
40
1.0000000000
10
-30.7000148365
20
20.9499557720
30
0.0000000000
10
-30.7014522128
20
21.0323279212
30
0.0000000000
10
-30.7049896504
20
21.1904967302
30
0.0000000000
10
-30.7022512453
20
21.4004573993
30
0.0000000000
10
-30.7145199212
20
21.5862962501
30
0.0000000000
10
-30.6903070670
20
21.6682888105
30
0.0000000000
10
-30.7131385825
20
21.7496048523
30
0.0000000000
10
-30.7000148339
20
21.7498339282
30
0.0000000000
11
-30.7000148365
21
20.9499557720
31
0.0000000000
11
-30.7036440849
21
21.1970831920
31
0.0000000000
11
-30.7055520820
21
21.4200308441
31
0.0000000000
11
-30.7055521059
21
21.5969830502
31
0.0000000000
11
-30.7036441296
21
21.7106242930
31
0.0000000000
11
-30.7000148339
21
21.7498339282
31
0.0000000000
0
SPLINE
5
26A
100
AcDbEntity
8
0
100
AcDbSpline
62
9
6
CONTINUOUS
70
0
71
3
72
11
73
7
74
5
42
0.0000001000
43
0.0000001000
44
0.0000000001
12
-2.7559166551
22
-40.5307645686
32
0.0000000000
13
2.7559161348
23
-40.5307646039
33
0.0000000000
40
0.0000000000
40
0.0000000000
40
0.0000000000
40
0.0000000000
40
0.2499995827
40
0.5000002268
40
0.7500008674
40
1.0000000000
40
1.0000000000
40
1.0000000000
40
1.0000000000
10
-31.3861855298
20
20.2975499689
30
0.0000000000
10
-31.6158448677
20
16.9199918924
30
0.0000000000
10
-31.9605371743
20
10.1565086298
30
0.0000000000
10
-32.1329312062
20
-0.0000091684
30
0.0000000000
10
-31.9605366909
20
-10.1565208650
30
0.0000000000
10
-31.6158444108
20
-16.9199979705
30
0.0000000000
10
-31.3861855298
20
-20.2975499689
30
0.0000000000
11
-31.3861855298
21
20.2975499689
31
0.0000000000
11
-31.9030959283
21
10.1546420336
31
0.0000000000
11
-32.0754663499
21
-0.0000092139
31
0.0000000000
11
-31.9030953180
21
-10.1546603114
31
0.0000000000
11
-31.3861855298
21
-20.2975499689
31
0.0000000000
0
SPLINE
5
26B
100
AcDbEntity
8
0
100
AcDbSpline
62
9
6
CONTINUOUS
70
0
71
3
72
14
73
10
74
8
42
0.0000001000
43
0.0000001000
44
0.0000000001
12
0.0705802489
22
-1.0354629628
32
0.0000000000
13
1.0377038347
23
-0.0183267631
33
0.0000000000
40
0.0000000000
40
0.0000000000
40
0.0000000000
40
0.0000000000
40
0.1423784375
40
0.2853556202
40
0.4283988301
40
0.5714071330
40
0.7145050584
40
0.8575235697
40
1.0000000000
40
1.0000000000
40
1.0000000000
40
1.0000000000
10
-31.3861855298
20
-20.2975499689
30
0.0000000000
10
-31.3828358279
20
-20.3466925018
30
0.0000000000
10
-31.3656582634
20
-20.4447905392
30
0.0000000000
10
-31.3094899585
20
-20.5830961397
30
0.0000000000
10
-31.2252997063
20
-20.7067063722
30
0.0000000000
10
-31.1169096429
20
-20.8097916541
30
0.0000000000
10
-30.9892037841
20
-20.8876952593
30
0.0000000000
10
-30.8481854155
20
-20.9368648750
30
0.0000000000
10
-30.7492976159
20
-20.9490853948
30
0.0000000000
10
-30.7000148365
20
-20.9499557720
30
0.0000000000
11
-31.3861855298
21
-20.2975499689
31
0.0000000000
11
-31.3606565056
21
-20.4430977285
31
0.0000000000
11
-31.3048441839
21
-20.5805928393
31
0.0000000000
11
-31.2212631977
21
-20.7032895464
31
0.0000000000
11
-31.1137136976
21
-20.8055764589
31
0.0000000000
11
-30.9869307228
21
-20.8829276383
31
0.0000000000
11
-30.8467642438
21
-20.9317744478
31
0.0000000000
11
-30.7000148365
21
-20.9499557720
31
0.0000000000
0
SPLINE
5
26C
100
AcDbEntity
8
0
100
AcDbSpline
62
9
6
CONTINUOUS
70
0
71
3
72
12
73
8
74
6
42
0.0000001000
43
0.0000001000
44
0.0000000001
12
-0.0139593591
22
-0.7999748074
32
0.0000000000
13
0.7999747332
23
-0.0139636109
33
0.0000000000
40
0.0000000000
40
0.0000000000
40
0.0000000000
40
0.0000000000
40
0.3089080285
40
0.5875697731
40
0.8087322673
40
0.9507851325
40
1.0000000000
40
1.0000000000
40
1.0000000000
40
1.0000000000
10
-30.7000148365
20
-20.9499557720
30
0.0000000000
10
-30.7014522225
20
-21.0323286523
30
0.0000000000
10
-30.7049896822
20
-21.1904983800
30
0.0000000000
10
-30.7022512336
20
-21.4004596170
30
0.0000000000
10
-30.7145198572
20
-21.5862979183
30
0.0000000000
10
-30.6903072194
20
-21.6682898175
30
0.0000000000
10
-30.7131383867
20
-21.7496048558
30
0.0000000000
10
-30.7000148365
20
-21.7498339282
30
0.0000000000
11
-30.7000148365
21
-20.9499557720
31
0.0000000000
11
-30.7036441035
21
-21.1970853851
31
0.0000000000
11
-30.7055520842
21
-21.4200335331
31
0.0000000000
11
-30.7055520839
21
-21.5969848910
31
0.0000000000
11
-30.7036441027
21
-21.7106248882
31
0.0000000000
11
-30.7000148365
21
-21.7498339282
31
0.0000000000
0
SPLINE
5
26D
100
AcDbEntity
8
0
100
AcDbSpline
62
9
6
CONTINUOUS
70
0
71
3
72
8
73
4
74
2
42
0.0000001000
43
0.0000001000
44
0.0000000001
12
-0.0455394132
22
1.0499223844
32
1.0499223844
13
-0.0418612298
23
1.0500754682
33
1.0500754682
40
0.0000000000
40
0.0000000000
40
0.0000000000
40
0.0000000000
40
1.0000000000
40
1.0000000000
40
1.0000000000
40
1.0000000000
10
-32.5797054070
20
-13.0000000000
30
-5.1700000000
10
-32.5948852114
20
-12.6500258719
30
-4.8200258719
10
-32.6094520299
20
-12.3000251561
30
-4.4700251561
10
-32.6234057732
20
-11.9500000000
30
-4.1200000000
11
-32.5797054070
21
-13.0000000000
31
-5.1700000000
11
-32.6234057732
21
-11.9500000000
31
-4.1200000000
0
SPLINE
5
26E
100
AcDbEntity
8
0
100
AcDbSpline
62
9
6
CONTINUOUS
70
0
71
3
72
8
73
4
74
2
42
0.0000001000
43
0.0000001000
44
0.0000000001
12
-0.0222152853
22
0.4738272351
32
-0.4738272351
13
-0.0214660616
23
0.4738617686
33
-0.4738617686
40
0.0000000000
40
0.0000000000
40
0.0000000000
40
0.0000000000
40
1.0000000000
40
1.0000000000
40
1.0000000000
40
1.0000000000
10
-32.5323196538
20
-14.0500000000
30
-4.1200000000
10
-32.5397247489
20
-13.8920575883
30
-4.2779424117
10
-32.5470049779
20
-13.7341093223
30
-4.4358906777
10
-32.5541603317
20
-13.5761553994
30
-4.5938446006
11
-32.5323196538
21
-14.0500000000
31
-4.1200000000
11
-32.5541603317
21
-13.5761553994
31
-4.5938446006
0
SPLINE
5
26F
100
AcDbEntity
8
0
100
AcDbSpline
62
9
6
CONTINUOUS
70
0
71
3
72
8
73
4
74
2
42
0.0000001000
43
0.0000001000
44
0.0000000001
12
-0.0002314989
22
0.0051103225
32
-0.0051103225
13
-0.0002314118
23
0.0051103265
33
-0.0051103265
40
0.0000000000
40
0.0000000000
40
0.0000000000
40
0.0000000000
40
1.0000000000
40
1.0000000000
40
1.0000000000
40
1.0000000000
10
-32.5541603317
20
-13.5761553994
30
-4.5938446006
10
-32.5542374981
20
-13.5744519586
30
-4.5955480414
10
-32.5543146498
20
-13.5727485171
30
-4.5972514829
10
-32.5543917871
20
-13.5710450749
30
-4.5989549251
11
-32.5541603317
21
-13.5761553994
31
-4.5938446006
11
-32.5543917871
21
-13.5710450749
31
-4.5989549251
0
SPLINE
5
270
100
AcDbEntity
8
0
100
AcDbSpline
62
9
6
CONTINUOUS
70
0
71
3
72
8
73
4
74
2
42
0.0000001000
43
0.0000001000
44
0.0000000001
12
-0.0258576335
22
0.5710207865
32
-0.5710207865
13
-0.0247695909
23
0.5710690179
33
-0.5710690179
40
0.0000000000
40
0.0000000000
40
0.0000000000
40
0.0000000000
40
1.0000000000
40
1.0000000000
40
1.0000000000
40
1.0000000000
10
-32.5543917871
20
-13.5710450749
30
-4.5989549251
10
-32.5630109983
20
-13.3807048128
30
-4.7892951872
10
-32.5714488767
20
-13.1903563393
30
-4.9796436607
10
-32.5797054070
20
-13.0000000000
30
-5.1700000000
11
-32.5543917871
21
-13.5710450749
31
-4.5989549251
11
-32.5797054070
21
-13.0000000000
31
-5.1700000000
0
SPLINE
5
271
100
AcDbEntity
8
0
100
AcDbSpline
62
9
6
CONTINUOUS
70
0
71
3
72
24
73
20
74
18
42
0.0000001000
43
0.0000001000
44
0.0000000001
12
-0.2907489750
22
7.2933443991
32
3.1474233873
13
0.3478699022
23
-7.6806741774
33
-1.7028429281
40
0.0000000000
40
0.0000000000
40
0.0000000000
40
0.0000000000
40
0.0740935374
40
0.1481870749
40
0.2222806123
40
0.2963741498
40
0.3704676872
40
0.4445612246
40
0.5186547621
40
0.5927482995
40
0.6668418370
40
0.7409353744
40
0.7779821431
40
0.8150289119
40
0.8520756806
40
0.8891224493
40
0.9261692180
40
0.9632159867
40
1.0000000000
40
1.0000000000
40
1.0000000000
40
1.0000000000
10
-32.6234057732
20
-11.9500000000
30
0.0868949879
10
-32.6305866465
20
-11.7698701046
30
0.1646295654
10
-32.6435766632
20
-11.4360215887
30
0.3547619766
10
-32.6598095146
20
-11.0012074130
30
0.7478132055
10
-32.6718980502
20
-10.6655405755
30
1.2216354929
10
-32.6798530471
20
-10.4386956775
30
1.7618236415
10
-32.6834184472
20
-10.3353522992
30
2.3321571162
10
-32.6826139675
20
-10.3587525264
30
2.9186224035
10
-32.6774955449
20
-10.5064609517
30
3.4780342716
10
-32.6679451371
20
-10.7764534686
30
4.0002436631
10
-32.6544433959
20
-11.1468748970
30
4.4438249347
10
-32.6397300772
20
-11.5353587559
30
4.7433354237
10
-32.6264245749
20
-11.8749880188
30
4.9250755053
10
-32.6156964374
20
-12.1428833268
30
5.0331564678
10
-32.6041859098
20
-12.4238543247
30
5.1121143708
10
-32.5921122922
20
-12.7118277904
30
5.1596097781
10
-32.5797378682
20
-13.0003193382
30
5.1752124043
10
-32.5671153819
20
-13.2881311519
30
5.1595775403
10
-32.5585403045
20
-13.4794495330
30
5.1280502480
10
-32.5542749542
20
-13.5736248733
30
5.1071711157
11
-32.6234057732
21
-11.9500000000
31
0.0868949879
11
-32.6430346342
21
-11.4470146884
31
0.3727374120
11
-32.6591187953
21
-11.0177319693
31
0.7612750486
11
-32.6712091271
21
-10.6836775654
31
1.2326964698
11
-32.6791214477
21
-10.4592792641
31
1.7668478625
11
-32.6826901339
21
-10.3564762335
31
2.3348457516
11
-32.6818949770
21
-10.3794705594
31
2.9141135003
11
-32.6767568807
21
-10.5268416336
31
3.4718338589
11
-32.6672865816
21
-10.7931916205
31
3.9871389765
11
-32.6537510224
21
-11.1628347641
31
4.4297968206
11
-32.6362757977
21
-11.6226695863
31
4.7839480850
11
-32.6262997398
21
-11.8771835789
31
4.9203714889
11
-32.6155660390
21
-12.1450626084
31
5.0283026246
11
-32.6040920615
21
-12.4250214027
31
5.1068706215
11
-32.5920621578
21
-12.7119141374
31
5.1542943146
11
-32.5796915391
21
-13.0003197243
31
5.1699999807
11
-32.5670426519
21
-13.2887304138
31
5.1542237468
11
-32.5542749542
21
-13.5736248733
31
5.1071711157
0
SPLINE
5
272
100
AcDbEntity
8
0
100
AcDbSpline
62
9
6
CONTINUOUS
70
0
71
3
72
20
73
16
74
14
42
0.0000001000
43
0.0000001000
44
0.0000000001
12
0.2965028884
22
-6.5465338160
32
-1.4513984782
13
-0.2915604580
23
6.2186590839
33
-2.6836457965
40
0.0000000000
40
0.0000000000
40
0.0000000000
40
0.0000000000
40
0.0437731335
40
0.0872379911
40
0.1307028487
40
0.2176325638
40
0.3045622789
40
0.3914919941
40
0.4784217092
40
0.5653514243
40
0.6522811395
40
0.7392108546
40
0.8261405697
40
0.9130702849
40
1.0000000000
40
1.0000000000
40
1.0000000000
40
1.0000000000
10
-32.5542749542
20
-13.5736248733
30
5.1071711157
10
-32.5499486673
20
-13.6691456396
30
5.0859936959
10
-32.5413407547
20
-13.8571690837
30
5.0331801458
10
-32.5287979025
20
-14.1257187515
30
4.9247469894
10
-32.5126392027
20
-14.4653566288
30
4.7428696434
10
-32.4936516526
20
-14.8538028729
30
4.4431779994
10
-32.4750251057
20
-15.2240620352
30
3.9994603550
10
-32.4611637764
20
-15.4938167270
30
3.4772740098
10
-32.4534782214
20
-15.6413142788
30
2.9180458136
10
-32.4522582019
20
-15.6646062351
30
2.3318738924
10
-32.4576576850
20
-15.5612819770
30
1.7618011622
10
-32.4693792192
20
-15.3345121889
30
1.2217452325
10
-32.4864082694
20
-14.9989113112
30
0.7479499406
10
-32.5078960732
20
-14.5641160024
30
0.3548551536
10
-32.5238712312
20
-14.2301954209
30
0.1646578427
10
-32.5323196538
20
-14.0500000000
30
0.0868949879
11
-32.5542749542
21
-13.5736248733
31
5.1071711157
11
-32.5413697921
21
-13.8556231701
31
5.0280687771
11
-32.5288636098
21
-14.1235207751
31
4.9200418888
11
-32.5167595993
21
-14.3780404193
31
4.7835159824
11
-32.4943447381
21
-14.8378234844
31
4.4291633875
11
-32.4758193086
21
-15.2073112901
31
3.9863822382
11
-32.4621930721
21
-15.4734405370
31
3.4711003680
11
-32.4545558106
21
-15.6206133462
31
2.9135551928
11
-32.4533614523
21
-15.6435035327
31
2.3345570909
11
-32.4587113602
21
-15.5407077220
31
1.7668039623
11
-32.4702638052
21
-15.3163736739
31
1.2327886721
11
-32.4871513950
21
-14.9823789060
31
0.7614000247
11
-32.5083085621
21
-14.5531017418
31
0.3728216237
11
-32.5323196538
21
-14.0500000000
31
0.0868949879
0
SPLINE
5
273
100
AcDbEntity
8
0
100
AcDbSpline
62
9
6
CONTINUOUS
70
0
71
3
72
27
73
23
74
21
42
0.0000001000
43
0.0000001000
44
0.0000000001
12
-0.0900469150
22
2.0760537969
32
-0.0000000000
13
0.0901453258
23
-2.0783226830
33
-0.0000000000
40
0.0000000000
40
0.0000000000
40
0.0000000000
40
0.0000000000
40
0.0454545455
40
0.0909090909
40
0.1363636364
40
0.1818181818
40
0.2727272727
40
0.3181818182
40
0.3636363636
40
0.4090909091
40
0.4545454545
40
0.5000000000
40
0.5454545455
40
0.5909090909
40
0.6363636364
40
0.6818181818
40
0.7272727273
40
0.8181818182
40
0.8636363636
40
0.9090909091
40
0.9545454545
40
1.0000000000
40
1.0000000000
40
1.0000000000
40
1.0000000000
10
-32.5797054070
20
-13.0000000000
30
4.0200000000
10
-32.5810697542
20
-12.9685446394
30
4.0200000000
10
-32.5837077357
20
-12.9075006722
30
4.0155355377
10
-32.5875663392
20
-12.8175841235
30
3.9961706027
10
-32.5912901131
20
-12.7301993271
30
3.9637926950
10
-32.5959094515
20
-12.6210700077
30
3.9045287790
10
-32.5999124790
20
-12.5255547566
30
3.8218594468
10
-32.6029946303
20
-12.4515008067
30
3.7228239065
10
-32.6048407389
20
-12.4069672151
30
3.6415035316
10
-32.6062010332
20
-12.3740486839
30
3.5534315521
10
-32.6070182754
20
-12.3542289768
30
3.4615279040
10
-32.6072820604
20
-12.3478248971
30
3.3691401499
10
-32.6070081470
20
-12.3544748065
30
3.2767832795
10
-32.6061828750
20
-12.3744886217
30
3.1851192270
10
-32.6048181531
20
-12.4075130305
30
3.0973129363
10
-32.6029634653
20
-12.4522512505
30
3.0160042156
10
-32.5998709164
20
-12.5265501710
30
2.9170912295
10
-32.5958619826
20
-12.6221960315
30
2.8347309633
10
-32.5912659361
20
-12.7307673048
30
2.7759835796
10
-32.5875634589
20
-12.8176507190
30
2.7438265676
10
-32.5837101761
20
-12.9074439796
30
2.7244727825
10
-32.5810712452
20
-12.9685102624
30
2.7200000000
10
-32.5797054070
20
-13.0000000000
30
2.7200000000
11
-32.5797054070
21
-13.0000000000
31
4.0200000000
11
-32.5836913409
21
-12.9077755726
31
4.0134241641
11
-32.5875438676
21
-12.8180060822
31
3.9940017739
11
-32.5912469014
21
-12.7311222949
31
3.9617810234
11
-32.5947032577
21
-12.6494868432
31
3.9173943066
11
-32.6006062771
21
-12.5088297109
31
3.7957367110
11
-32.6029170462
21
-12.4533352852
31
3.7216499532
11
-32.6047597699
21
-12.4089030585
31
3.6403782642
11
-32.6061105245
21
-12.3762318212
31
3.5527929407
11
-32.6069260325
21
-12.3564649147
31
3.4614472197
11
-32.6071924440
21
-12.3500005619
31
3.3691452972
11
-32.6069162539
21
-12.3567021241
31
3.2768987492
11
-32.6060929667
21
-12.3766570540
31
3.1857621873
11
-32.6047364921
21
-12.4094653324
31
3.0983958646
11
-32.6028860113
21
-12.4540822456
31
3.0171915458
11
-32.6005676882
21
-12.5097543525
31
2.9431988693
11
-32.5946640449
21
-12.6504159676
31
2.8220118576
11
-32.5912233624
21
-12.7316764647
31
2.7779675006
11
-32.5875383246
21
-12.8181356934
31
2.7459604388
11
-32.5836926572
21
-12.9077450069
31
2.7265802177
11
-32.5797054070
21
-13.0000000000
31
2.7200000000
0
SPLINE
5
274
100
AcDbEntity
8
0
100
AcDbSpline
62
9
6
CONTINUOUS
70
0
71
3
72
14
73
10
74
8
42
0.0000001000
43
0.0000001000
44
0.0000000001
12
0.0310183674
22
-0.7151360984
32
-0.0000000000
13
0.0149539583
23
-0.3301670427
33
0.6200492912
40
0.0000000000
40
0.0000000000
40
0.0000000000
40
0.0000000000
40
0.1319587334
40
0.2639174668
40
0.3958762002
40
0.5278349336
40
0.7917524003
40
0.9237111337
40
1.0000000000
40
1.0000000000
40
1.0000000000
40
1.0000000000
10
-32.5797054070
20
-13.0000000000
30
2.7200000000
10
-32.5783410255
20
-13.0314561512
30
2.7200000000
10
-32.5756834883
20
-13.0925016596
30
2.7244647008
10
-32.5717418884
20
-13.1824206238
30
2.7438305826
10
-32.5678849851
20
-13.2698099357
30
2.7762112454
10
-32.5630373431
20
-13.3789436293
30
2.8354802332
10
-32.5587545096
20
-13.4744601778
30
2.9181561220
10
-32.5557652058
20
-13.5407003737
30
3.0067482083
10
-32.5546499004
20
-13.5653464673
30
3.0487445340
10
-32.5542696268
20
-13.5737424904
30
3.0645121532
11
-32.5797054070
21
-13.0000000000
31
2.7200000000
11
-32.5756909392
21
-13.0922267766
31
2.7265761726
11
-32.5717560045
21
-13.1819990151
31
2.7459997127
11
-32.5679218471
21
-13.2688867621
31
2.7782230917
11
-32.5642963210
21
-13.3505254438
31
2.8226135613
11
-32.5579974948
21
-13.4911838455
31
2.9442789295
11
-32.5554943159
21
-13.5466757219
31
3.0183671587
11
-32.5542696268
21
-13.5737424904
31
3.0645121532
0
SPLINE
5
275
100
AcDbEntity
8
0
100
AcDbSpline
62
9
6
CONTINUOUS
70
0
71
3
72
15
73
11
74
9
42
0.0000001000
43
0.0000001000
44
0.0000000001
12
0.0134758454
22
-0.2975319264
32
0.5587609791
13
-0.0134816328
23
0.2976597083
33
0.5590201092
40
0.0000000000
40
0.0000000000
40
0.0000000000
40
0.0000000000
40
0.0617760777
40
0.2082088498
40
0.3546416219
40
0.5010743940
40
0.6475071661
40
0.7939399381
40
0.9403727102
40
1.0000000000
40
1.0000000000
40
1.0000000000
40
1.0000000000
10
-32.5542696268
20
-13.5737424904
30
3.0645121532
10
-32.5539921319
20
-13.5798692755
30
3.0760181737
10
-32.5531076671
20
-13.5993832403
30
3.1154848495
10
-32.5519006398
20
-13.6259547270
30
3.1865811411
10
-32.5509986735
20
-13.6457716573
30
3.2784789034
10
-32.5507069582
20
-13.6521747342
30
3.3708591855
10
-32.5510098609
20
-13.6455260395
30
3.4632086215
10
-32.5519206306
20
-13.6255151209
30
3.5548671365
10
-32.5531241619
20
-13.5990196692
30
3.6253197386
10
-32.5540013898
20
-13.5796648489
30
3.6643615988
10
-32.5542693476
20
-13.5737486350
30
3.6754725501
11
-32.5542696268
21
-13.5737424904
31
3.0645121532
11
-32.5534827643
21
-13.5911044050
31
3.0996380530
11
-32.5519995050
21
-13.6237718186
31
3.1872194805
11
-32.5511003820
21
-13.6435360150
31
3.2785593234
11
-32.5508060612
21
-13.6499994389
31
3.3708540445
11
-32.5511111721
21
-13.6432990022
31
3.4630934680
11
-32.5520188215
21
-13.6233468962
31
3.5542244472
11
-32.5535082475
21
-13.5905424728
31
3.6415871644
11
-32.5542693476
21
-13.5737486350
31
3.6754725501
0
SPLINE
5
276
100
AcDbEntity
8
0
100
AcDbSpline
62
9
6
CONTINUOUS
70
0
71
3
72
14
73
10
74
8
42
0.0000001000
43
0.0000001000
44
0.0000000001
12
-0.0149893497
22
0.3309484481
32
0.6215380599
13
-0.0311125209
23
0.7173068302
33
0.0000000000
40
0.0000000000
40
0.0000000000
40
0.0000000000
40
0.0000000000
40
0.0780740768
40
0.2097777801
40
0.4731851867
40
0.6048888900
40
0.7365925934
40
0.8682962967
40
1.0000000000
40
1.0000000000
40
1.0000000000
40
1.0000000000
10
-32.5542693476
20
-13.5737486350
30
3.6754725501
10
-32.5546594408
20
-13.5651358035
30
3.6916478868
10
-32.5557879665
20
-13.5401970865
30
3.7340472970
10
-32.5587992727
20
-13.4734653194
30
3.8228926509
10
-32.5630875029
20
-13.3778187700
30
3.9052592436
10
-32.5679100381
20
-13.2692428857
30
3.9640120918
10
-32.5717447581
20
-13.1823546429
30
3.9961720826
10
-32.5756809953
20
-13.0925587071
30
4.0155269419
10
-32.5783395289
20
-13.0314906553
30
4.0200000000
10
-32.5797054070
20
-13.0000000000
30
4.0200000000
11
-32.5542693476
21
-13.5737486350
31
3.6754725501
11
-32.5555280597
21
-13.5459291852
31
3.7227907662
11
-32.5580390918
21
-13.4902597666
31
3.7967849122
11
-32.5643376621
21
-13.3495973544
31
3.9179796436
11
-32.5679463412
21
-13.2683334975
31
3.9620279843
11
-32.5717616776
21
-13.1818700274
31
3.9940378940
11
-32.5756895892
21
-13.0922576834
31
4.0134193965
11
-32.5797054070
21
-13.0000000000
31
4.0200000000
0
ENDSEC
0
SECTION
2
OBJECTS
0
DICTIONARY
5
277
100
AcDbDictionary
3
ACAD_GROUP
350
278
3
ACAD_MLINESTYLE
350
279
0
DICTIONARY
5
278
102
{ACAD_REACTORS
330
277
102
}
100
AcDbDictionary
0
DICTIONARY
5
279
102
{ACAD_REACTORS
330
277
102
}
100
AcDbDictionary
3
STANDARD
350
27A
0
MLINESTYLE
5
27A
102
{ACAD_REACTORS
330
279
102
}
100
AcDbMlineStyle
2
STANDARD
70
0
3

62
256
51
90.0
52
90.0
71
2
49
0.5
62
256
6
BYLAYER
49
-0.5
62
256
6
BYLAYER
0
ENDSEC
0
EOF
