0
SECTION
2
HEADER
9
$ACADVER
1
AC1015
9
$DWGCODEPAGE
3
ANSI_1252
9
$EXTMAX
10
431.8000000000
20
558.8000000000
30
0.0000000000
9
$EXTMIN
10
0.0000000000
20
0.0000000000
30
0.0000000000
9
$LIMMIN
10
0.0000000000
20
0.0000000000
9
$LIMMAX
10
431.8000000000
20
558.8000000000
9
$VIEWCTR
10
215.9000000000
20
279.4000000000
9
$VIEWSIZE
40
558.8000000000
9
$CLAYER
8
0
9
$LTSCALE
40
36.4254814815
9
$CELTYPE
6
BYLAYER
9
$DIMSCALE
40
1
9
$DIMASZ
40
3.0000000000
9
$DIMEXO
40
4.1392592593
9
$DIMDLI
40
25.1666962963
9
$DIMEXE
40
11.9210666667
9
$DIMCEN
40
5.9605333333
9
$DIMLFAC
40
1.0000000000
9
$DIMBLK
1
_FILLED
9
$DIMTXT
40
3.0000000000
9
$DIMTOL
70
1
9
$DIMLIM
70
0
9
$DIMTFAC
40
1.0000000000
9
$DIMTP
40
0.0100000000
9
$DIMTM
40
0.0100000000
9
$PDMODE
70
3
9
$PDSIZE
40
3.0000000000
9
$HANDSEED
5
373
9
$MEASUREMENT
70
1
9
$INSUNITS
70
4
0
ENDSEC
0
SECTION
2
CLASSES
0
CLASS
1
ACDBDICTIONARYWDFLT
2
AcDbDictionaryWithDefault
3
AutoCAD 2000
90
0
280
0
281
0
0
CLASS
1
ACDBPLACEHOLDER
2
AcDbPlaceHolder
3
AutoCAD 2000
90
0
280
0
281
0
0
CLASS
1
LAYOUT
2
AcDbLayout
3
AutoCAD 2000
90
0
280
0
281
0
0
ENDSEC
0
SECTION
2
TABLES
0
TABLE
2
VPORT
5
8
100
AcDbSymbolTable
70
2
0
VPORT
5
1F4
100
AcDbSymbolTableRecord
100
AcDbViewportTableRecord
2
*ACTIVE
70
0
10
0.0
20
0.0
11
1.0
21
1.0
12
215.9000000000
22
279.4000000000
13
0.0
23
0.0
14
1.0
24
1.0
15
0.0
25
0.0
16
0.0
26
0.0
36
1.0
17
0.0
27
0.0
37
0.0
40
558.8000000000
41
0.7727272727
42
50.0
43
0.0
44
0.0
50
0.0
51
0.0
71
0
72
100
73
1
74
1
75
0
76
0
77
0
78
0
0
ENDTAB
0
TABLE
2
LTYPE
5
5
100
AcDbSymbolTable
70
6
0
LTYPE
5
14
100
AcDbSymbolTableRecord
100
AcDbLinetypeTableRecord
2
BYBLOCK
70
0
3

72
65
73
0
40
0.0
0
LTYPE
5
15
100
AcDbSymbolTableRecord
100
AcDbLinetypeTableRecord
2
BYLAYER
70
0
3

72
65
73
0
40
0.0
0
LTYPE
5
16
100
AcDbSymbolTableRecord
100
AcDbLinetypeTableRecord
2
CONTINUOUS
70
64
3
Solid line
72
65
73
0
40
0
0
LTYPE
5
1F5
100
AcDbSymbolTableRecord
100
AcDbLinetypeTableRecord
2
CENTER
70
64
3
____ _ ____ _ ____ _ ____ _ ____ _ ____ _ ____
72
65
73
4
40
0.6
49
0.375
74
0
49
-0.075
74
0
49
0.075
74
0
49
-0.075
74
0
0
LTYPE
5
1F6
100
AcDbSymbolTableRecord
100
AcDbLinetypeTableRecord
2
HIDDEN
70
64
3
- - - - - - - - - - - - - - - - - - - -
72
65
73
2
40
0.2
49
0.1
74
0
49
-0.1
74
0
0
LTYPE
5
1F7
100
AcDbSymbolTableRecord
100
AcDbLinetypeTableRecord
2
PHANTOM
70
64
3
_____ _ _ _____ _ _ _____ _ _ _____
72
65
73
6
40
0.8
49
0.45
74
0
49
-0.05
74
0
49
0.1
74
0
49
-0.05
74
0
49
0.1
74
0
49
-0.05
74
0
0
LTYPE
5
1F8
100
AcDbSymbolTableRecord
100
AcDbLinetypeTableRecord
2
DOT
70
64
3
. . . . . . . . . . . . . . . . . . . .
72
65
73
2
40
0.2
49
0.1
74
0
49
-0.1
74
0
0
LTYPE
5
1F9
100
AcDbSymbolTableRecord
100
AcDbLinetypeTableRecord
2
DASHED
70
64
3
- - - - - - - - - - - - - - - - - - - -
72
65
73
2
40
0.2
49
0.1
74
0
49
-0.1
74
0
0
ENDTAB
0
TABLE
2
LAYER
5
2
100
AcDbSymbolTable
70
36
0
LAYER
5
10
100
AcDbSymbolTableRecord
100
AcDbLayerTableRecord
2
0
70
0
62
7
6
CONTINUOUS
370
-3
390
F
0
LAYER
5
1FA
100
AcDbSymbolTableRecord
100
AcDbLayerTableRecord
2
DEFAULT_1
70
0
62
7
6
CENTER
370
-3
390
F
0
LAYER
5
1FB
100
AcDbSymbolTableRecord
100
AcDbLayerTableRecord
2
DEFAULT_2
70
0
62
9
6
HIDDEN
370
-3
390
F
0
LAYER
5
1FC
100
AcDbSymbolTableRecord
100
AcDbLayerTableRecord
2
DEFAULT_3
70
0
62
7
6
PHANTOM
370
-3
390
F
0
LAYER
5
1FD
100
AcDbSymbolTableRecord
100
AcDbLayerTableRecord
2
_2D_DELETED_OBJS
70
0
62
7
6
CONTINUOUS
370
-3
390
F
0
LAYER
5
1FE
100
AcDbSymbolTableRecord
100
AcDbLayerTableRecord
2
_BLACK_HOLE
70
0
62
7
6
CONTINUOUS
370
-3
390
F
0
LAYER
5
1FF
100
AcDbSymbolTableRecord
100
AcDbLayerTableRecord
2
ASSI
70
0
62
7
6
CONTINUOUS
370
-3
390
F
0
LAYER
5
200
100
AcDbSymbolTableRecord
100
AcDbLayerTableRecord
2
COORDINATE
70
0
62
7
6
CONTINUOUS
370
-3
390
F
0
LAYER
5
201
100
AcDbSymbolTableRecord
100
AcDbLayerTableRecord
2
COORD_ORIGINE
70
0
62
7
6
CONTINUOUS
370
-3
390
F
0
LAYER
5
202
100
AcDbSymbolTableRecord
100
AcDbLayerTableRecord
2
COPY_PUBLISH
70
0
62
7
6
CONTINUOUS
370
-3
390
F
0
LAYER
5
203
100
AcDbSymbolTableRecord
100
AcDbLayerTableRecord
2
COSMETIC
70
0
62
7
6
CONTINUOUS
370
-3
390
F
0
LAYER
5
204
100
AcDbSymbolTableRecord
100
AcDbLayerTableRecord
2
CURVE
70
0
62
7
6
CONTINUOUS
370
-3
390
F
0
LAYER
5
205
100
AcDbSymbolTableRecord
100
AcDbLayerTableRecord
2
DRAFT
70
0
62
7
6
CONTINUOUS
370
-3
390
F
0
LAYER
5
206
100
AcDbSymbolTableRecord
100
AcDbLayerTableRecord
2
IMPORT
70
0
62
7
6
CONTINUOUS
370
-3
390
F
0
LAYER
5
207
100
AcDbSymbolTableRecord
100
AcDbLayerTableRecord
2
IMPORT_IGES
70
0
62
7
6
CONTINUOUS
370
-3
390
F
0
LAYER
5
208
100
AcDbSymbolTableRecord
100
AcDbLayerTableRecord
2
NOTE
70
0
62
7
6
CONTINUOUS
370
-3
390
F
0
LAYER
5
209
100
AcDbSymbolTableRecord
100
AcDbLayerTableRecord
2
PIANI
70
0
62
7
6
CONTINUOUS
370
-3
390
F
0
LAYER
5
20A
100
AcDbSymbolTableRecord
100
AcDbLayerTableRecord
2
PIANI_ORIGINE
70
0
62
7
6
CONTINUOUS
370
-3
390
F
0
LAYER
5
20B
100
AcDbSymbolTableRecord
100
AcDbLayerTableRecord
2
PUNTI
70
0
62
7
6
CONTINUOUS
370
-3
390
F
0
LAYER
5
20C
100
AcDbSymbolTableRecord
100
AcDbLayerTableRecord
2
RACCORDO
70
0
62
7
6
CONTINUOUS
370
-3
390
F
0
LAYER
5
20D
100
AcDbSymbolTableRecord
100
AcDbLayerTableRecord
2
SMUSSO
70
0
62
7
6
CONTINUOUS
370
-3
390
F
0
LAYER
5
20E
100
AcDbSymbolTableRecord
100
AcDbLayerTableRecord
2
SUPERFICI
70
0
62
7
6
CONTINUOUS
370
-3
390
F
0
LAYER
5
20F
100
AcDbSymbolTableRecord
100
AcDbLayerTableRecord
2
TRASH
70
0
62
7
6
CONTINUOUS
370
-3
390
F
0
LAYER
5
210
100
AcDbSymbolTableRecord
100
AcDbLayerTableRecord
2
XSEC_DATUMS
70
0
62
7
6
CONTINUOUS
370
-3
390
F
0
ENDTAB
0
TABLE
2
STYLE
5
3
100
AcDbSymbolTable
70
1
0
STYLE
5
11
100
AcDbSymbolTableRecord
100
AcDbTextStyleTableRecord
2
STANDARD
70
0
40
0.0
41
0.8000000000
50
0.0
71
0
42
0.2
3
txt
4

0
ENDTAB
0
TABLE
2
VIEW
5
6
100
AcDbSymbolTable
70
0
0
ENDTAB
0
TABLE
2
UCS
5
7
100
AcDbSymbolTable
70
0
0
ENDTAB
0
TABLE
2
APPID
5
9
100
AcDbSymbolTable
70
1
0
APPID
5
211
100
AcDbSymbolTableRecord
100
AcDbRegAppTableRecord
2
ACAD
70
0
0
ENDTAB
0
TABLE
2
BLOCK_RECORD
5
1
100
AcDbSymbolTable
70
0
0
BLOCK_RECORD
5
1F
100
AcDbSymbolTableRecord
100
AcDbBlockTableRecord
2
*MODEL_SPACE
0
BLOCK_RECORD
5
1B
100
AcDbSymbolTableRecord
100
AcDbBlockTableRecord
2
*PAPER_SPACE
0
BLOCK_RECORD
5
212
100
AcDbSymbolTableRecord
100
AcDbBlockTableRecord
2
_FILLED
0
BLOCK_RECORD
5
213
100
AcDbSymbolTableRecord
100
AcDbBlockTableRecord
2
*D0
0
BLOCK_RECORD
5
214
100
AcDbSymbolTableRecord
100
AcDbBlockTableRecord
2
*D1
0
BLOCK_RECORD
5
215
100
AcDbSymbolTableRecord
100
AcDbBlockTableRecord
2
*D2
0
ENDTAB
0
TABLE
2
DIMSTYLE
5
A
100
AcDbSymbolTable
70
1
100
AcDbDimStyleTable
71
0
0
DIMSTYLE
105
216
100
AcDbSymbolTableRecord
100
AcDbDimStyleTableRecord
2
STANDARD
70
0
3

4

40
1.0
41
3.0000000000
42
0.0625
43
0.38
44
0.18
45
0.0
46
0.0
47
0.0100000000
48
0.0100000000
140
3.0000000000
141
0.09
142
0.0
143
25.4
144
1.0000000000
145
0.0
146
1.0000000000
147
0.09
71
1
72
0
73
0
74
0
75
0
76
0
77
1
78
8
170
0
171
2
172
0
173
0
174
0
175
0
176
0
177
0
178
0
270
2
271
2
272
2
273
2
274
2
275
0
280
0
281
0
282
0
283
1
284
8
285
0
286
0
287
3
288
0
340
11
341
212
342
212
343
212
344
212
0
DIMSTYLE
105
217
100
AcDbSymbolTableRecord
100
AcDbDimStyleTableRecord
2
DIMSTYLE_1
70
0
3

4

40
1.0
41
3.0000000000
42
0.0625
43
0.38
44
0.18
45
0.0
46
0.0
47
0.0000000000
48
0.0000000000
140
3.0000000000
141
0.09
142
0.0
143
25.4
144
1.0000000000
145
0.0
146
1.0000000000
147
0.09
71
0
72
0
73
0
74
0
75
0
76
0
77
1
78
8
170
0
171
2
172
0
173
0
174
0
175
0
176
0
177
0
178
0
270
2
271
2
272
2
273
2
274
2
275
0
280
0
281
0
282
0
283
1
284
8
285
0
286
0
287
3
288
0
340
11
341
212
342
212
343
212
344
212
0
ENDTAB
0
ENDSEC
0
SECTION
2
BLOCKS
0
BLOCK
5
20
100
AcDbEntity
8
0
100
AcDbBlockBegin
2
*MODEL_SPACE
70
0
10
0.0
20
0.0
30
0.0
3
*MODEL_SPACE
1

0
ENDBLK
5
21
100
AcDbEntity
8
0
100
AcDbBlockEnd
0
BLOCK
5
1C
100
AcDbEntity
8
0
100
AcDbBlockBegin
2
*PAPER_SPACE
70
0
10
0.0
20
0.0
30
0.0
3
*PAPER_SPACE
1

0
ENDBLK
5
1D
100
AcDbEntity
8
0
100
AcDbBlockEnd
0
BLOCK
5
218
100
AcDbEntity
8
0
100
AcDbBlockBegin
62
0
6
CONTINUOUS
2
*D0
70
65
10
0.0000000000
20
0.0000000000
3
*D0
1

0
TEXT
5
219
100
AcDbEntity
8
0
100
AcDbText
62
0
6
CONTINUOUS
10
-17.5939377110
20
30.3575126086
7
STANDARD
40
3.0000000000
1
7,9
41
0.7142857143
72
0
100
AcDbText
0
LINE
5
21A
100
AcDbEntity
8
0
100
AcDbLine
62
0
6
CONTINUOUS
10
-10.7486926403
20
21.4956665286
11
-10.7486926403
21
31.1075126086
0
LINE
5
21B
100
AcDbEntity
8
0
100
AcDbLine
62
0
6
CONTINUOUS
10
-18.6486926403
20
0.4455446848
11
-18.6486926403
21
31.1075126086
0
LINE
5
21C
100
AcDbEntity
8
0
100
AcDbLine
62
0
6
CONTINUOUS
10
-10.7486926403
20
29.6075126086
11
-6.7486926403
21
29.6075126086
0
LINE
5
21D
100
AcDbEntity
8
0
100
AcDbLine
62
0
6
CONTINUOUS
10
-6.7486926403
20
29.6075126086
11
-14.6986926403
21
29.6075126086
0
LINE
5
21E
100
AcDbEntity
8
0
100
AcDbLine
62
0
6
CONTINUOUS
10
-18.6486926403
20
29.6075126086
11
-22.6486926403
21
29.6075126086
0
LINE
5
21F
100
AcDbEntity
8
0
100
AcDbLine
62
0
6
CONTINUOUS
10
-22.6486926403
20
29.6075126086
11
-14.6986926403
21
29.6075126086
0
INSERT
5
220
100
AcDbEntity
8
0
100
AcDbBlockReference
62
0
6
CONTINUOUS
2
_FILLED
10
-10.7486926403
20
29.6075126086
41
  3.000000
42
  3.000000
43
  3.000000
50
180.000000
0
INSERT
5
221
100
AcDbEntity
8
0
100
AcDbBlockReference
62
0
6
CONTINUOUS
2
_FILLED
10
-18.6486926403
20
29.6075126086
41
  3.000000
42
  3.000000
43
  3.000000
0
ENDBLK
5
222
100
AcDbEntity
8
0
6
BYBLOCK
62
0
100
AcDbBlockEnd
0
BLOCK
5
223
100
AcDbEntity
8
0
100
AcDbBlockBegin
62
0
6
CONTINUOUS
2
*D1
70
65
10
0.0000000000
20
0.0000000000
3
*D1
1

0
TEXT
5
224
100
AcDbEntity
8
0
100
AcDbText
62
0
6
CONTINUOUS
10
20.1912867626
20
30.3720257452
7
STANDARD
40
3.0000000000
1
22,2
41
0.7321428571
72
0
100
AcDbText
0
LINE
5
225
100
AcDbEntity
8
0
100
AcDbLine
62
0
6
CONTINUOUS
10
35.3450321164
20
21.4956665286
11
35.3450321164
21
31.1220257452
0
LINE
5
226
100
AcDbEntity
8
0
100
AcDbLine
62
0
6
CONTINUOUS
10
13.1450321164
20
21.4956665286
11
13.1450321164
21
31.1220257452
0
LINE
5
227
100
AcDbEntity
8
0
100
AcDbLine
62
0
6
CONTINUOUS
10
35.3450321164
20
29.6220257452
11
24.2450321164
21
29.6220257452
0
LINE
5
228
100
AcDbEntity
8
0
100
AcDbLine
62
0
6
CONTINUOUS
10
13.1450321164
20
29.6220257452
11
24.2450321164
21
29.6220257452
0
INSERT
5
229
100
AcDbEntity
8
0
100
AcDbBlockReference
62
0
6
CONTINUOUS
2
_FILLED
10
35.3450321164
20
29.6220257452
41
  3.000000
42
  3.000000
43
  3.000000
0
INSERT
5
22A
100
AcDbEntity
8
0
100
AcDbBlockReference
62
0
6
CONTINUOUS
2
_FILLED
10
13.1450321164
20
29.6220257452
41
  3.000000
42
  3.000000
43
  3.000000
50
180.000000
0
ENDBLK
5
22B
100
AcDbEntity
8
0
6
BYBLOCK
62
0
100
AcDbBlockEnd
0
BLOCK
5
22C
100
AcDbEntity
8
0
100
AcDbBlockBegin
62
0
6
CONTINUOUS
2
*D2
70
65
10
0.0000000000
20
0.0000000000
3
*D2
1

0
TEXT
5
22D
100
AcDbEntity
8
0
100
AcDbText
62
0
6
CONTINUOUS
10
44.8436541782
20
-3.6737762976
7
STANDARD
40
3.0000000000
1
43,7
50
90.0000000000
41
0.7142857143
72
0
100
AcDbText
0
LINE
5
22E
100
AcDbEntity
8
0
100
AcDbLine
62
0
6
CONTINUOUS
10
35.0451539602
20
21.7955446848
11
47.0936541782
21
21.7955446848
0
LINE
5
22F
100
AcDbEntity
8
0
100
AcDbLine
62
0
6
CONTINUOUS
10
35.0451539602
20
-21.9044553152
11
47.0936541782
21
-21.9044553152
0
LINE
5
230
100
AcDbEntity
8
0
100
AcDbLine
62
0
6
CONTINUOUS
10
45.5936541782
20
21.7955446848
11
45.5936541782
21
-0.0544553152
0
LINE
5
231
100
AcDbEntity
8
0
100
AcDbLine
62
0
6
CONTINUOUS
10
45.5936541782
20
-21.9044553152
11
45.5936541782
21
-0.0544553152
0
INSERT
5
232
100
AcDbEntity
8
0
100
AcDbBlockReference
62
0
6
CONTINUOUS
2
_FILLED
10
45.5936541782
20
21.7955446848
41
  3.000000
42
  3.000000
43
  3.000000
50
 90.000000
0
INSERT
5
233
100
AcDbEntity
8
0
100
AcDbBlockReference
62
0
6
CONTINUOUS
2
_FILLED
10
45.5936541782
20
-21.9044553152
41
  3.000000
42
  3.000000
43
  3.000000
50
270.000000
0
ENDBLK
5
234
100
AcDbEntity
8
0
6
BYBLOCK
62
0
100
AcDbBlockEnd
0
BLOCK
5
235
100
AcDbEntity
8
0
100
AcDbBlockBegin
2
_FILLED
70
64
10
0.0000000000
20
0.0000000000
3
_FILLED
1

0
SOLID
5
236
100
AcDbEntity
8
0
6
BYBLOCK
62
0
100
AcDbTrace
10
0.0000000000
20
0.0000000000
11
-1.0000000000
21
0.3166666667
12
-1.0000000000
22
-0.3166666667
13
-1.0000000000
23
-0.3166666667
0
ENDBLK
5
237
100
AcDbEntity
8
0
6
BYBLOCK
62
0
100
AcDbBlockEnd
0
ENDSEC
0
SECTION
2
ENTITIES
0
DIMENSION
5
238
100
AcDbEntity
8
0
100
AcDbDimension
62
0
6
CONTINUOUS
2
*D0
10
-18.6486926403
20
29.6075126086
11
-14.3796519968
21
31.8575126086
70
160
42
7.900000
3
DIMSTYLE_1
100
AcDbAlignedDimension
13
-10.7486926403
23
21.4956665286
14
-18.6486926403
24
0.4455446848
50
180.000000
100
AcDbRotatedDimension
0
DIMENSION
5
239
100
AcDbEntity
8
0
100
AcDbDimension
62
0
6
CONTINUOUS
2
*D1
10
13.1450321164
20
29.6220257452
11
24.5841439055
21
31.8720257452
70
160
42
22.200000
3
DIMSTYLE_1
100
AcDbAlignedDimension
13
35.3450321164
23
21.4956665286
14
13.1450321164
24
21.4956665286
50
180.000000
100
AcDbRotatedDimension
0
DIMENSION
5
23A
100
AcDbEntity
8
0
100
AcDbDimension
62
0
6
CONTINUOUS
2
*D2
10
45.5936541782
20
-21.9044553152
11
43.3436541782
21
0.6119379881
70
160
42
43.700000
3
DIMSTYLE_1
100
AcDbAlignedDimension
13
35.0451539602
23
21.7955446848
14
35.0451539602
24
-21.9044553152
50
270.000000
100
AcDbRotatedDimension
0
LINE
5
23B
100
AcDbEntity
8
0
100
AcDbLine
62
0
6
CONTINUOUS
10
13.9449102725
20
-21.9044553152
11
34.5451539602
21
-21.9044553152
0
LINE
5
23C
100
AcDbEntity
8
0
100
AcDbLine
62
9
6
CONTINUOUS
10
34.4449878884
20
-21.8042892434
11
14.0450763443
21
-21.8042892434
0
LINE
5
23D
100
AcDbEntity
8
0
100
AcDbLine
62
9
6
CONTINUOUS
10
34.4330107344
20
-20.4062768082
11
14.0570534983
21
-20.4062768082
0
LINE
5
23E
100
AcDbEntity
8
0
100
AcDbLine
62
9
6
CONTINUOUS
10
26.3450321164
20
-17.6179285394
11
22.1450321164
21
-17.6179285394
0
LINE
5
23F
100
AcDbEntity
8
0
100
AcDbLine
62
9
6
CONTINUOUS
10
26.3450321164
20
-17.5120892788
11
22.1450321164
21
-17.5120892788
0
LINE
5
240
100
AcDbEntity
8
0
100
AcDbLine
62
9
6
CONTINUOUS
10
22.1450321164
20
-17.3394590988
11
26.3450321164
21
-17.3394590988
0
LINE
5
241
100
AcDbEntity
8
0
100
AcDbLine
62
9
6
CONTINUOUS
10
22.1450321164
20
-17.2452026690
11
26.3450321164
21
-17.2452026690
0
LINE
5
242
100
AcDbEntity
8
ASSI
100
AcDbLine
62
9
6
CONTINUOUS
10
24.0476051164
20
-14.0495543152
11
20.4956651164
21
-14.0495543152
0
LINE
5
243
100
AcDbEntity
8
ASSI
100
AcDbLine
62
9
6
CONTINUOUS
10
24.1511851164
20
-13.9037573152
11
20.4905751164
21
-13.9037573152
0
LINE
5
244
100
AcDbEntity
8
ASSI
100
AcDbLine
62
9
6
CONTINUOUS
10
20.5716491164
20
-13.7479813152
11
24.1739501164
21
-13.7479813152
0
LINE
5
245
100
AcDbEntity
8
0
100
AcDbLine
62
0
6
CONTINUOUS
10
13.1450321164
20
-21.1045771591
11
13.1450321164
21
20.9956665286
0
LINE
5
246
100
AcDbEntity
8
ASSI
100
AcDbLine
62
9
6
CONTINUOUS
10
24.1682101164
20
-12.3462353152
11
20.5717721164
21
-12.3462353152
0
LINE
5
247
100
AcDbEntity
8
ASSI
100
AcDbLine
62
9
6
CONTINUOUS
10
20.4906991164
20
-12.1904593152
11
24.1451467543
21
-12.1904593152
0
LINE
5
248
100
AcDbEntity
8
ASSI
100
AcDbLine
62
9
6
CONTINUOUS
10
20.4956641164
20
-12.0448363152
11
24.0408135925
21
-12.0448363152
0
LINE
5
249
100
AcDbEntity
8
0
100
AcDbLine
62
0
6
CONTINUOUS
10
18.1694062967
20
-11.0474623769
11
18.1773850680
21
-11.0544553152
0
LINE
5
24A
100
AcDbEntity
8
0
100
AcDbLine
62
9
6
CONTINUOUS
10
14.0570534983
20
-20.4062768082
11
14.0570534983
21
20.2973661777
0
LINE
5
24B
100
AcDbEntity
8
0
100
AcDbLine
62
0
6
CONTINUOUS
10
18.4681996808
20
-10.5457064489
11
18.6613297107
21
-10.5457064489
0
LINE
5
24C
100
AcDbEntity
8
0
100
AcDbLine
62
0
6
CONTINUOUS
10
29.8287345220
20
-10.5457064489
11
30.0218941146
21
-10.5457064489
0
LINE
5
24D
100
AcDbEntity
8
0
100
AcDbLine
62
9
6
CONTINUOUS
10
34.5451539602
20
21.7955446848
11
34.4449878884
21
21.6953786129
0
LINE
5
24E
100
AcDbEntity
8
0
100
AcDbLine
62
9
6
CONTINUOUS
10
26.3450321164
20
-8.8787110406
11
22.1450321164
21
-8.8787110406
0
LINE
5
24F
100
AcDbEntity
8
0
100
AcDbLine
62
9
6
CONTINUOUS
10
26.3450321164
20
-8.7757858326
11
22.1450321164
21
-8.7757858326
0
LINE
5
250
100
AcDbEntity
8
0
100
AcDbLine
62
9
6
CONTINUOUS
10
22.1450321164
20
-8.5899137300
11
26.3450321164
21
-8.5899137300
0
LINE
5
251
100
AcDbEntity
8
0
100
AcDbLine
62
9
6
CONTINUOUS
10
22.1450321164
20
-8.4927417226
11
26.3450321164
21
-8.4927417226
0
LINE
5
252
100
AcDbEntity
8
0
100
AcDbLine
62
9
6
CONTINUOUS
10
34.4449878884
20
-21.8042892434
11
34.5451539602
21
-21.9044553152
0
LINE
5
253
100
AcDbEntity
8
0
100
AcDbLine
62
9
6
CONTINUOUS
10
35.3450321164
20
20.9956665286
11
35.2448660445
21
20.8955004568
0
LINE
5
254
100
AcDbEntity
8
0
100
AcDbLine
62
9
6
CONTINUOUS
10
35.2448660445
20
-21.0044110873
11
35.3450321164
21
-21.1045771591
0
LINE
5
255
100
AcDbEntity
8
0
100
AcDbLine
62
0
6
CONTINUOUS
10
19.7450321164
20
-16.6223678702
11
19.7450321164
21
-16.7992097756
0
LINE
5
256
100
AcDbEntity
8
0
100
AcDbLine
62
9
6
CONTINUOUS
10
22.1450321164
20
-8.4927417226
11
22.1450321164
21
-8.5899137300
0
LINE
5
257
100
AcDbEntity
8
0
100
AcDbLine
62
9
6
CONTINUOUS
10
22.1450321164
20
-17.2452026690
11
22.1450321164
21
-17.3394590988
0
LINE
5
258
100
AcDbEntity
8
0
100
AcDbLine
62
9
6
CONTINUOUS
10
22.1450321164
20
-8.8787110406
11
22.1450321179
21
-8.7757858326
0
LINE
5
259
100
AcDbEntity
8
0
100
AcDbLine
62
9
6
CONTINUOUS
10
22.1450321164
20
-17.6179285394
11
22.1450321300
21
-17.5120892788
0
LINE
5
25A
100
AcDbEntity
8
0
100
AcDbLine
62
0
6
CONTINUOUS
10
18.6571933313
20
-10.5544553152
11
18.6613297107
21
-10.5457064489
0
LINE
5
25B
100
AcDbEntity
8
0
100
AcDbLine
62
0
6
CONTINUOUS
10
29.8287345220
20
-10.5457064489
11
29.8328709014
21
-10.5544553152
0
LINE
5
25C
100
AcDbEntity
8
0
100
AcDbLine
62
9
6
CONTINUOUS
10
26.3450321164
20
-17.6179285394
11
26.3450321164
21
-17.5120892788
0
LINE
5
25D
100
AcDbEntity
8
0
100
AcDbLine
62
9
6
CONTINUOUS
10
26.3450321164
20
-8.8787110406
11
26.3450321164
21
-8.7757858326
0
LINE
5
25E
100
AcDbEntity
8
0
100
AcDbLine
62
9
6
CONTINUOUS
10
26.3450321164
20
-17.2452026690
11
26.3450321149
21
-17.3394590988
0
LINE
5
25F
100
AcDbEntity
8
0
100
AcDbLine
62
9
6
CONTINUOUS
10
26.3450321164
20
-8.4927417226
11
26.3450321028
21
-8.5899137300
0
LINE
5
260
100
AcDbEntity
8
0
100
AcDbLine
62
0
6
CONTINUOUS
10
28.7450321164
20
-16.7992097756
11
28.7450321164
21
-16.6223678702
0
LINE
5
261
100
AcDbEntity
8
0
100
AcDbLine
62
9
6
CONTINUOUS
10
13.1450321164
20
-21.1045771591
11
13.2451981882
21
-21.0044110873
0
LINE
5
262
100
AcDbEntity
8
0
100
AcDbLine
62
9
6
CONTINUOUS
10
13.2451981882
20
20.8955004568
11
13.1450321164
21
20.9956665286
0
LINE
5
263
100
AcDbEntity
8
0
100
AcDbLine
62
9
6
CONTINUOUS
10
13.9449102725
20
-21.9044553152
11
14.0450763443
21
-21.8042892434
0
LINE
5
264
100
AcDbEntity
8
0
100
AcDbLine
62
9
6
CONTINUOUS
10
14.0450763443
20
21.6953786129
11
13.9449102725
21
21.7955446848
0
LINE
5
265
100
AcDbEntity
8
0
100
AcDbLine
62
9
6
CONTINUOUS
10
34.4330107344
20
20.2973661777
11
34.4330107344
21
-20.4062768082
0
LINE
5
266
100
AcDbEntity
8
0
100
AcDbLine
62
0
6
CONTINUOUS
10
35.3450321164
20
-21.1045771591
11
35.3450321164
21
20.9956665286
0
LINE
5
267
100
AcDbEntity
8
0
100
AcDbLine
62
0
6
CONTINUOUS
10
30.3206578493
20
-11.0474639499
11
30.3126791647
21
-11.0544553152
0
LINE
5
268
100
AcDbEntity
8
0
100
AcDbLine
62
9
6
CONTINUOUS
10
34.4330107344
20
20.2973661777
11
14.0570534983
21
20.2973661777
0
LINE
5
269
100
AcDbEntity
8
0
100
AcDbLine
62
9
6
CONTINUOUS
10
34.4449878884
20
21.6953786129
11
14.0450763443
21
21.6953786129
0
LINE
5
26A
100
AcDbEntity
8
0
100
AcDbLine
62
0
6
CONTINUOUS
10
13.9449102725
20
21.7955446848
11
34.5451539602
21
21.7955446848
0
LINE
5
26B
100
AcDbEntity
8
0
100
AcDbLine
62
0
6
CONTINUOUS
10
-16.4872030520
20
-21.8042892434
11
-10.7486926403
21
-21.9044553152
0
LINE
5
26C
100
AcDbEntity
8
0
100
AcDbLine
62
9
6
CONTINUOUS
10
-17.1733737453
20
-20.3520052842
11
-17.9575684071
21
-20.4062767798
0
LINE
5
26D
100
AcDbEntity
8
0
100
AcDbLine
62
9
6
CONTINUOUS
10
-16.4872030520
20
-21.0044110873
11
-10.7486926403
21
-21.1045771591
0
LINE
5
26E
100
AcDbEntity
8
0
100
AcDbLine
62
0
6
CONTINUOUS
10
-10.7486926403
20
21.7955446848
11
-10.7486926403
21
-21.9044553152
0
LINE
5
26F
100
AcDbEntity
8
0
100
AcDbLine
62
9
6
CONTINUOUS
10
-17.1733737453
20
20.2430946537
11
-17.9575687828
21
20.2973661749
0
LINE
5
270
100
AcDbEntity
8
0
100
AcDbLine
62
9
6
CONTINUOUS
10
-10.7486926403
20
20.9956665286
11
-16.4872030520
21
20.8955004568
0
LINE
5
271
100
AcDbEntity
8
0
100
AcDbLine
62
0
6
CONTINUOUS
10
-10.7486926403
20
21.7955446848
11
-16.4872030520
21
21.6953786129
0
ARC
5
272
100
AcDbEntity
8
0
100
AcDbCircle
62
0
6
CONTINUOUS
10
22.1450321164
20
-13.0544553152
40
4.2912724675
100
AcDbArc
50
144.3679448432
51
215.6320551568
0
ARC
5
273
100
AcDbEntity
8
0
100
AcDbCircle
62
0
6
CONTINUOUS
10
26.3450321164
20
-13.0544553152
40
4.2912724675
100
AcDbArc
50
324.3679448432
51
35.6320551568
0
ARC
5
274
100
AcDbEntity
8
0
100
AcDbCircle
62
0
6
CONTINUOUS
10
22.1450321164
20
-13.0544553152
40
4.3000000000
100
AcDbArc
50
216.2683892899
51
269.9963579683
0
ARC
5
275
100
AcDbEntity
8
0
100
AcDbCircle
62
0
6
CONTINUOUS
10
26.3450321164
20
-13.0544553152
40
4.3000000000
100
AcDbArc
50
269.9963756459
51
323.7316107101
0
ARC
5
276
100
AcDbEntity
8
0
100
AcDbCircle
62
0
6
CONTINUOUS
10
26.3450321164
20
-13.0544553152
40
4.2930179740
100
AcDbArc
50
35.7591200613
51
90.0036960346
0
ARC
5
277
100
AcDbEntity
8
0
100
AcDbCircle
62
0
6
CONTINUOUS
10
22.1450321164
20
-13.0544553152
40
4.2930179740
100
AcDbArc
50
89.9963039701
51
144.2408799387
0
ARC
5
278
100
AcDbEntity
8
0
100
AcDbCircle
62
0
6
CONTINUOUS
10
26.3450321164
20
-13.0544553152
40
4.4534946176
100
AcDbArc
50
26.7857410370
51
90.0000000000
0
ARC
5
279
100
AcDbEntity
8
0
100
AcDbCircle
62
0
6
CONTINUOUS
10
22.1450321164
20
-13.0544553152
40
4.4534954039
100
AcDbArc
50
90.0000000000
51
153.2142414002
0
ARC
5
27A
100
AcDbEntity
8
0
100
AcDbCircle
62
0
6
CONTINUOUS
10
22.1450321164
20
-13.0544553152
40
4.4500000000
100
AcDbArc
50
153.2445513122
51
270.0000000000
0
ARC
5
27B
100
AcDbEntity
8
0
100
AcDbCircle
62
0
6
CONTINUOUS
10
26.3450321164
20
-13.0544553152
40
4.4500000000
100
AcDbArc
50
270.0000000000
51
26.7558508609
0
ARC
5
27C
100
AcDbEntity
8
0
100
AcDbCircle
62
0
6
CONTINUOUS
10
281.4513073597
20
-0.0544553152
40
300.1000000000
100
AcDbArc
50
181.6849899905
51
183.2838944955
0
ARC
5
27D
100
AcDbEntity
8
0
100
AcDbCircle
62
0
6
CONTINUOUS
10
-16.4610244424
20
-20.3045177007
40
1.5000000000
100
AcDbArc
50
183.8898991621
51
269.0000000000
0
ARC
5
27E
100
AcDbEntity
8
0
100
AcDbCircle
62
0
6
CONTINUOUS
10
281.3513073597
20
-0.0544553152
40
300.0000000000
100
AcDbArc
50
176.1101008379
51
183.8898991621
0
ARC
5
27F
100
AcDbEntity
8
0
100
AcDbCircle
62
0
6
CONTINUOUS
10
-16.4610244424
20
20.1956070702
40
1.5000000000
100
AcDbArc
50
91.0000000000
51
176.1101008379
0
SPLINE
5
280
100
AcDbEntity
8
0
100
AcDbSpline
62
0
6
CONTINUOUS
70
0
71
3
72
9
73
5
74
3
42
0.0000001000
43
0.0000001000
44
0.0000000001
12
-0.0212091994
22
0.0436162490
32
0.0000000000
13
-0.0206767351
23
0.0438711744
33
0.0000000000
40
0.0000000000
40
0.0000000000
40
0.0000000000
40
0.0000000000
40
0.4999975776
40
1.0000000000
40
1.0000000000
40
1.0000000000
40
1.0000000000
10
18.6781365635
20
-15.5981996470
30
0.0000000000
10
18.6746017140
20
-15.5909303074
30
0.0000000000
10
18.6675762196
20
-15.5763700042
30
0.0000000000
10
18.6606394705
20
-15.5617672131
30
0.0000000000
10
18.6571933313
20
-15.5544553152
30
0.0000000000
11
18.6781365635
21
-15.5981996470
31
0.0000000000
11
18.6675984398
21
-15.5763594529
31
0.0000000000
11
18.6571933313
21
-15.5544553152
31
0.0000000000
0
SPLINE
5
281
100
AcDbEntity
8
0
100
AcDbSpline
62
0
6
CONTINUOUS
70
0
71
3
72
8
73
4
74
2
42
0.0000001000
43
0.0000001000
44
0.0000000001
12
-0.2788631782
22
-0.0000179678
32
0.0000000000
13
-0.2786740195
23
-0.0182255256
33
0.0000000000
40
0.0000000000
40
0.0000000000
40
0.0000000000
40
0.0000000000
40
1.0000000000
40
1.0000000000
40
1.0000000000
40
1.0000000000
10
22.1450321164
20
-8.7757858326
30
0.0000000000
10
22.0520777236
20
-8.7757918219
30
0.0000000000
10
21.9590381354
20
-8.7788413513
30
0.0000000000
10
21.8661467955
20
-8.7849165265
30
0.0000000000
11
22.1450321164
21
-8.7757858326
31
0.0000000000
11
21.8661467955
21
-8.7849165265
31
0.0000000000
0
SPLINE
5
282
100
AcDbEntity
8
0
100
AcDbSpline
62
0
6
CONTINUOUS
70
0
71
3
72
11
73
7
74
5
42
0.0000001000
43
0.0000001000
44
0.0000000001
12
-3.0746715049
22
-0.2010862166
32
0.0000000000
13
-2.1797389344
23
-2.1783929234
33
0.0000000000
40
0.0000000000
40
0.0000000000
40
0.0000000000
40
0.0000000000
40
0.1813572164
40
0.4542627545
40
0.7272050057
40
1.0000000000
40
1.0000000000
40
1.0000000000
40
1.0000000000
10
21.8661467955
20
-8.7849165265
30
0.0000000000
10
21.6802755071
20
-8.7970726720
30
0.0000000000
10
21.2161926702
20
-8.8578647526
30
0.0000000000
10
20.4980127718
20
-9.0754145494
30
0.0000000000
10
19.7525622490
20
-9.4734646690
30
0.0000000000
10
19.3170195843
20
-9.8306875510
30
0.0000000000
10
19.1188122942
20
-10.0287724461
30
0.0000000000
11
21.8661467955
21
-8.7849165265
31
0.0000000000
11
21.3121838346
21
-8.8575839961
31
0.0000000000
11
20.5085546615
21
-9.1009284688
31
0.0000000000
11
19.7677869282
21
-9.4965156915
31
0.0000000000
11
19.1188122942
21
-10.0287724461
31
0.0000000000
0
SPLINE
5
283
100
AcDbEntity
8
0
100
AcDbSpline
62
0
6
CONTINUOUS
70
0
71
3
72
8
73
4
74
2
42
0.0000001000
43
0.0000001000
44
0.0000000001
12
-0.5948151148
22
-0.5944478104
32
0.0000000000
13
-0.4673860533
23
-0.6990951908
33
0.0000000000
40
0.0000000000
40
0.0000000000
40
0.0000000000
40
0.0000000000
40
1.0000000000
40
1.0000000000
40
1.0000000000
40
1.0000000000
10
19.1188122942
20
-10.0287724461
30
0.0000000000
10
18.9205405893
20
-10.2269217162
30
0.0000000000
10
18.7417868452
20
-10.4446053259
30
0.0000000000
10
18.5859914941
20
-10.6776370562
30
0.0000000000
11
19.1188122942
21
-10.0287724461
31
0.0000000000
11
18.5859914941
21
-10.6776370562
31
0.0000000000
0
SPLINE
5
284
100
AcDbEntity
8
0
100
AcDbSpline
62
0
6
CONTINUOUS
70
0
71
3
72
8
73
4
74
2
42
0.0000001000
43
0.0000001000
44
0.0000000001
12
-0.1558060873
22
-0.2330477890
32
0.0000000000
13
-0.1402149236
23
-0.2427505848
33
0.0000000000
40
0.0000000000
40
0.0000000000
40
0.0000000000
40
0.0000000000
40
1.0000000000
40
1.0000000000
40
1.0000000000
40
1.0000000000
10
18.5859914941
20
-10.6776370562
30
0.0000000000
10
18.5340561317
20
-10.7553196525
30
0.0000000000
10
18.4846720534
20
-10.8347078306
30
0.0000000000
10
18.4379337455
20
-10.9156246922
30
0.0000000000
11
18.5859914941
21
-10.6776370562
31
0.0000000000
11
18.4379337455
21
-10.9156246922
31
0.0000000000
0
SPLINE
5
285
100
AcDbEntity
8
0
100
AcDbSpline
62
0
6
CONTINUOUS
70
0
71
3
72
8
73
4
74
2
42
0.0000001000
43
0.0000001000
44
0.0000000001
12
-0.1143748236
22
-0.1980142669
32
0.0000000000
13
-0.1036582524
23
-0.2038291964
33
0.0000000000
40
0.0000000000
40
0.0000000000
40
0.0000000000
40
0.0000000000
40
1.0000000000
40
1.0000000000
40
1.0000000000
40
1.0000000000
10
18.4379337455
20
-10.9156246922
30
0.0000000000
10
18.3998088043
20
-10.9816294478
30
0.0000000000
10
18.3634443166
20
-11.0486513651
30
0.0000000000
10
18.3288915658
20
-11.1165944306
30
0.0000000000
11
18.4379337455
21
-10.9156246922
31
0.0000000000
11
18.3288915658
21
-11.1165944306
31
0.0000000000
0
SPLINE
5
286
100
AcDbEntity
8
0
100
AcDbSpline
62
0
6
CONTINUOUS
70
0
71
3
72
8
73
4
74
2
42
0.0000001000
43
0.0000001000
44
0.0000000001
12
-0.1505140789
22
-0.2959645086
32
0.0000000000
13
-0.1271242293
23
-0.3067354202
33
0.0000000000
40
0.0000000000
40
0.0000000000
40
0.0000000000
40
0.0000000000
40
1.0000000000
40
1.0000000000
40
1.0000000000
40
1.0000000000
10
18.3288915658
20
-11.1165944306
30
0.0000000000
10
18.2787202062
20
-11.2152492668
30
0.0000000000
10
18.2323686553
20
-11.3158462226
30
0.0000000000
10
18.1899939122
20
-11.4180913627
30
0.0000000000
11
18.3288915658
21
-11.1165944306
31
0.0000000000
11
18.1899939122
21
-11.4180913627
31
0.0000000000
0
SPLINE
5
287
100
AcDbEntity
8
0
100
AcDbSpline
62
0
6
CONTINUOUS
70
0
71
3
72
8
73
4
74
2
42
0.0000001000
43
0.0000001000
44
0.0000000001
12
-0.1073498475
22
-0.2590222239
32
0.0000000000
13
-0.0901600654
23
-0.2654979704
33
0.0000000000
40
0.0000000000
40
0.0000000000
40
0.0000000000
40
0.0000000000
40
1.0000000000
40
1.0000000000
40
1.0000000000
40
1.0000000000
10
18.1899939122
20
-11.4180913627
30
0.0000000000
10
18.1542106297
20
-11.5044321040
30
0.0000000000
10
18.1212631812
20
-11.5919481540
30
0.0000000000
10
18.0912098261
20
-11.6804474774
30
0.0000000000
11
18.1899939122
21
-11.4180913627
31
0.0000000000
11
18.0912098261
21
-11.6804474774
31
0.0000000000
0
SPLINE
5
288
100
AcDbEntity
8
0
100
AcDbSpline
62
0
6
CONTINUOUS
70
0
71
3
72
11
73
7
74
5
42
0.0000001000
43
0.0000001000
44
0.0000000001
12
-0.9018596516
22
-2.6557423861
32
0.0000000000
13
0.9021741810
23
-2.6556390492
33
0.0000000000
40
0.0000000000
40
0.0000000000
40
0.0000000000
40
0.0000000000
40
0.1999616131
40
0.4999485749
40
0.7999749912
40
1.0000000000
40
1.0000000000
40
1.0000000000
40
1.0000000000
10
18.0912098261
20
-11.6804474774
30
0.0000000000
10
18.0310973892
20
-11.8574629879
30
0.0000000000
10
17.9097519350
20
-12.3098766798
30
0.0000000000
10
17.8360632854
20
-13.0577676266
30
0.0000000000
10
17.9098053483
20
-13.8057144630
30
0.0000000000
10
18.0312201182
20
-14.2582104931
30
0.0000000000
10
18.0913725844
20
-14.4352752345
30
0.0000000000
11
18.0912098261
21
-11.6804474774
31
0.0000000000
11
17.9460744635
21
-12.2217588182
31
0.0000000000
11
17.8637069278
21
-13.0577301076
31
0.0000000000
11
17.9461384340
21
-13.8938061068
31
0.0000000000
11
18.0913725844
21
-14.4352752345
31
0.0000000000
0
SPLINE
5
289
100
AcDbEntity
8
0
100
AcDbSpline
62
0
6
CONTINUOUS
70
0
71
3
72
8
73
4
74
2
42
0.0000001000
43
0.0000001000
44
0.0000000001
12
0.0902255316
22
-0.2655877878
32
0.0000000000
13
0.1074274980
23
-0.2591049229
33
0.0000000000
40
0.0000000000
40
0.0000000000
40
0.0000000000
40
0.0000000000
40
1.0000000000
40
1.0000000000
40
1.0000000000
40
1.0000000000
10
18.0913725844
20
-14.4352752345
30
0.0000000000
10
18.1214477616
20
-14.5238044971
30
0.0000000000
10
18.1544191055
20
-14.6113494070
30
0.0000000000
10
18.1902282715
20
-14.6977177146
30
0.0000000000
11
18.0913725844
21
-14.4352752345
31
0.0000000000
11
18.1902282715
21
-14.6977177146
31
0.0000000000
0
SPLINE
5
28A
100
AcDbEntity
8
0
100
AcDbSpline
62
0
6
CONTINUOUS
70
0
71
3
72
8
73
4
74
2
42
0.0000001000
43
0.0000001000
44
0.0000000001
12
0.1074219683
22
-0.2590915858
32
0.0000000000
13
0.1241631406
23
-0.2515012221
33
0.0000000000
40
0.0000000000
40
0.0000000000
40
0.0000000000
40
0.0000000000
40
1.0000000000
40
1.0000000000
40
1.0000000000
40
1.0000000000
10
18.1902282715
20
-14.6977177146
30
0.0000000000
10
18.2260355943
20
-14.7840815766
30
0.0000000000
10
18.2646804469
20
-14.8692689574
30
0.0000000000
10
18.3060681605
20
-14.9531026981
30
0.0000000000
11
18.1902282715
21
-14.6977177146
31
0.0000000000
11
18.3060681605
21
-14.9531026981
31
0.0000000000
0
SPLINE
5
28B
100
AcDbEntity
8
0
100
AcDbSpline
62
0
6
CONTINUOUS
70
0
71
3
72
8
73
4
74
2
42
0.0000001000
43
0.0000001000
44
0.0000000001
12
0.0203995159
22
-0.0413206621
32
0.0000000000
13
0.0208424879
23
-0.0410990706
33
0.0000000000
40
0.0000000000
40
0.0000000000
40
0.0000000000
40
0.0000000000
40
1.0000000000
40
1.0000000000
40
1.0000000000
40
1.0000000000
10
18.3060681605
20
-14.9531026981
30
0.0000000000
10
18.3128679991
20
-14.9668762521
30
0.0000000000
10
18.3197418763
20
-14.9806132671
30
0.0000000000
10
18.3266893723
20
-14.9943129573
30
0.0000000000
11
18.3060681605
21
-14.9531026981
31
0.0000000000
11
18.3266893723
21
-14.9943129573
31
0.0000000000
0
SPLINE
5
28C
100
AcDbEntity
8
0
100
AcDbSpline
62
0
6
CONTINUOUS
70
0
71
3
72
8
73
4
74
2
42
0.0000001000
43
0.0000001000
44
0.0000000001
12
0.1060099127
22
-0.2090397707
32
0.0000000000
13
0.1172712155
23
-0.2029361179
33
0.0000000000
40
0.0000000000
40
0.0000000000
40
0.0000000000
40
0.0000000000
40
1.0000000000
40
1.0000000000
40
1.0000000000
40
1.0000000000
10
18.3266893723
20
-14.9943129573
30
0.0000000000
10
18.3620260098
20
-15.0639928808
30
0.0000000000
10
18.3992671529
20
-15.1327072188
30
0.0000000000
10
18.4383575580
20
-15.2003525914
30
0.0000000000
11
18.3266893723
21
-14.9943129573
31
0.0000000000
11
18.4383575580
21
-15.2003525914
31
0.0000000000
0
SPLINE
5
28D
100
AcDbEntity
8
0
100
AcDbSpline
62
0
6
CONTINUOUS
70
0
71
3
72
8
73
4
74
2
42
0.0000001000
43
0.0000001000
44
0.0000000001
12
0.1403179760
22
-0.2428181990
32
0.0000000000
13
0.1559193044
23
-0.2331044690
33
0.0000000000
40
0.0000000000
40
0.0000000000
40
0.0000000000
40
0.0000000000
40
1.0000000000
40
1.0000000000
40
1.0000000000
40
1.0000000000
10
18.4383575580
20
-15.2003525914
30
0.0000000000
10
18.4851302167
20
-15.2812919911
30
0.0000000000
10
18.5345504136
20
-15.3607009822
30
0.0000000000
10
18.5865235151
20
-15.4384024718
30
0.0000000000
11
18.4383575580
21
-15.2003525914
31
0.0000000000
11
18.5865235151
21
-15.4384024718
31
0.0000000000
0
SPLINE
5
28E
100
AcDbEntity
8
0
100
AcDbSpline
62
0
6
CONTINUOUS
70
0
71
3
72
8
73
4
74
2
42
0.0000001000
43
0.0000001000
44
0.0000000001
12
0.1559102649
22
-0.2330909547
32
0.0000000000
13
0.1708430704
23
-0.2223815351
33
0.0000000000
40
0.0000000000
40
0.0000000000
40
0.0000000000
40
0.0000000000
40
1.0000000000
40
1.0000000000
40
1.0000000000
40
1.0000000000
10
18.5865235151
20
-15.4384024718
30
0.0000000000
10
18.6384936034
20
-15.5160994567
30
0.0000000000
10
18.6930163002
20
-15.5920891382
30
0.0000000000
10
18.7499639904
20
-15.6662163166
30
0.0000000000
11
18.5865235151
21
-15.4384024718
31
0.0000000000
11
18.7499639904
21
-15.6662163166
31
0.0000000000
0
SPLINE
5
28F
100
AcDbEntity
8
0
100
AcDbSpline
62
0
6
CONTINUOUS
70
0
71
3
72
12
73
8
74
6
42
0.0000001000
43
0.0000001000
44
0.0000000001
12
2.2186114791
22
-2.8879030632
32
0.0000000000
13
3.6334111565
23
-0.2372451704
33
0.0000000000
40
0.0000000000
40
0.0000000000
40
0.0000000000
40
0.0000000000
40
0.1539820983
40
0.3848401290
40
0.6157183025
40
0.8466766448
40
1.0000000000
40
1.0000000000
40
1.0000000000
40
1.0000000000
10
18.7499639904
20
-15.6662163166
30
0.0000000000
10
18.8638394740
20
-15.8144447743
30
0.0000000000
10
19.1726772620
20
-16.1662921468
30
0.0000000000
10
19.7535033799
20
-16.6423963019
30
0.0000000000
10
20.4989837371
20
-17.0402225854
30
0.0000000000
10
21.2169595738
20
-17.2575370204
30
0.0000000000
10
21.6808952632
20
-17.3182333373
30
0.0000000000
10
21.8665908597
20
-17.3303584124
30
0.0000000000
11
18.7499639904
21
-15.6662163166
31
0.0000000000
11
19.1196598078
21
-16.0873185138
31
0.0000000000
11
19.7688210700
21
-16.6194190970
31
0.0000000000
11
20.5093929051
21
-17.0146629236
31
0.0000000000
11
21.3131424796
21
-17.2578509141
31
0.0000000000
11
21.8665908597
21
-17.3303584124
31
0.0000000000
0
SPLINE
5
290
100
AcDbEntity
8
0
100
AcDbSpline
62
0
6
CONTINUOUS
70
0
71
3
72
8
73
4
74
2
42
0.0000001000
43
0.0000001000
44
0.0000000001
12
0.2782310073
22
-0.0181672153
32
0.0000000000
13
0.2784192419
23
-0.0000162673
33
0.0000000000
40
0.0000000000
40
0.0000000000
40
0.0000000000
40
0.0000000000
40
1.0000000000
40
1.0000000000
40
1.0000000000
40
1.0000000000
10
21.8665908597
20
-17.3303584124
30
0.0000000000
10
21.9593345288
20
-17.3364141509
30
0.0000000000
10
22.0522257024
20
-17.3394536764
30
0.0000000000
10
22.1450321164
20
-17.3394590988
30
0.0000000000
11
21.8665908597
21
-17.3303584124
31
0.0000000000
11
22.1450321164
21
-17.3394590988
31
0.0000000000
0
SPLINE
5
291
100
AcDbEntity
8
0
100
AcDbSpline
62
0
6
CONTINUOUS
70
0
71
3
72
9
73
5
74
3
42
0.0000001000
43
0.0000001000
44
0.0000000001
12
-0.0206767351
22
-0.0438711744
32
0.0000000000
13
-0.0212091994
23
-0.0436162490
33
0.0000000000
40
0.0000000000
40
0.0000000000
40
0.0000000000
40
0.0000000000
40
0.5000024224
40
1.0000000000
40
1.0000000000
40
1.0000000000
40
1.0000000000
10
29.8328709014
20
-15.5544553152
30
0.0000000000
10
29.8294247622
20
-15.5617672131
30
0.0000000000
10
29.8224880131
20
-15.5763700042
30
0.0000000000
10
29.8154625187
20
-15.5909303074
30
0.0000000000
10
29.8119276693
20
-15.5981996470
30
0.0000000000
11
29.8328709014
21
-15.5544553152
31
0.0000000000
11
29.8224657930
21
-15.5763594529
31
0.0000000000
11
29.8119276693
21
-15.5981996470
31
0.0000000000
0
SPLINE
5
292
100
AcDbEntity
8
0
100
AcDbSpline
62
0
6
CONTINUOUS
70
0
71
3
72
8
73
4
74
2
42
0.0000001000
43
0.0000001000
44
0.0000000001
12
0.2785429938
22
0.0000180360
32
0.0000000000
13
0.2783545131
23
0.0181835943
33
0.0000000000
40
0.0000000000
40
0.0000000000
40
0.0000000000
40
0.0000000000
40
1.0000000000
40
1.0000000000
40
1.0000000000
40
1.0000000000
10
26.3450321164
20
-17.3394590988
30
0.0000000000
10
26.4378797810
20
-17.3394530868
30
0.0000000000
10
26.5308123470
20
-17.3364105824
30
0.0000000000
10
26.6235971847
20
-17.3303493843
30
0.0000000000
11
26.3450321164
21
-17.3394590988
31
0.0000000000
11
26.6235971847
21
-17.3303493843
31
0.0000000000
0
SPLINE
5
293
100
AcDbEntity
8
0
100
AcDbSpline
62
0
6
CONTINUOUS
70
0
71
3
72
12
73
8
74
6
42
0.0000001000
43
0.0000001000
44
0.0000000001
12
3.6327915732
22
0.2373132285
32
0.0000000000
13
2.2185697285
23
2.8871553011
33
0.0000000000
40
0.0000000000
40
0.0000000000
40
0.0000000000
40
0.0000000000
40
0.1533441899
40
0.3841512093
40
0.6150915329
40
0.8459879370
40
1.0000000000
40
1.0000000000
40
1.0000000000
40
1.0000000000
10
26.6235971847
20
-17.3303493843
30
0.0000000000
10
26.8092863451
20
-17.3182191827
30
0.0000000000
10
27.2729845324
20
-17.2575429603
30
0.0000000000
10
27.9907617437
20
-17.0403322146
30
0.0000000000
10
28.7361140050
20
-16.6426978227
30
0.0000000000
10
29.3170206495
20
-16.1666427752
30
0.0000000000
10
29.6259022282
20
-15.8148289693
30
0.0000000000
10
29.7397977285
20
-15.6666100546
30
0.0000000000
11
26.6235971847
21
-17.3303493843
31
0.0000000000
11
27.1770250052
21
-17.2578304574
31
0.0000000000
11
27.9801252468
21
-17.0148886515
31
0.0000000000
11
28.7208212399
21
-16.6197006080
31
0.0000000000
11
29.3700432983
21
-16.0876791675
31
0.0000000000
11
29.7397977285
21
-15.6666100546
31
0.0000000000
0
SPLINE
5
294
100
AcDbEntity
8
0
100
AcDbSpline
62
0
6
CONTINUOUS
70
0
71
3
72
8
73
4
74
2
42
0.0000001000
43
0.0000001000
44
0.0000000001
12
0.1708735037
22
0.2223677425
32
0.0000000000
13
0.1559411160
23
0.2330794572
33
0.0000000000
40
0.0000000000
40
0.0000000000
40
0.0000000000
40
0.0000000000
40
1.0000000000
40
1.0000000000
40
1.0000000000
40
1.0000000000
10
29.7397977285
20
-15.6666100546
30
0.0000000000
10
29.7967555631
20
-15.5924874737
30
0.0000000000
10
29.8512884909
20
-15.5165020080
30
0.0000000000
10
29.9032688629
20
-15.4388088556
30
0.0000000000
11
29.7397977285
21
-15.6666100546
31
0.0000000000
11
29.9032688629
21
-15.4388088556
31
0.0000000000
0
SPLINE
5
295
100
AcDbEntity
8
0
100
AcDbSpline
62
0
6
CONTINUOUS
70
0
71
3
72
8
73
4
74
2
42
0.0000001000
43
0.0000001000
44
0.0000000001
12
0.1559489793
22
0.2330912102
32
0.0000000000
13
0.1403481275
23
0.2428070869
33
0.0000000000
40
0.0000000000
40
0.0000000000
40
0.0000000000
40
0.0000000000
40
1.0000000000
40
1.0000000000
40
1.0000000000
40
1.0000000000
10
29.9032688629
20
-15.4388088556
30
0.0000000000
10
29.9552518560
20
-15.3611117855
30
0.0000000000
10
30.0046820359
20
-15.2817068566
30
0.0000000000
10
30.0514647450
20
-15.2007711610
30
0.0000000000
11
29.9032688629
21
-15.4388088556
31
0.0000000000
11
30.0514647450
21
-15.2007711610
31
0.0000000000
0
SPLINE
5
296
100
AcDbEntity
8
0
100
AcDbSpline
62
0
6
CONTINUOUS
70
0
71
3
72
8
73
4
74
2
42
0.0000001000
43
0.0000001000
44
0.0000000001
12
0.1174945002
22
0.2032695258
32
0.0000000000
13
0.1061950910
23
0.2093947929
33
0.0000000000
40
0.0000000000
40
0.0000000000
40
0.0000000000
40
0.0000000000
40
1.0000000000
40
1.0000000000
40
1.0000000000
40
1.0000000000
10
30.0514647450
20
-15.2007711610
30
0.0000000000
10
30.0906295784
20
-15.1330146524
30
0.0000000000
10
30.1279389458
20
-15.0641853140
30
0.0000000000
10
30.1633373095
20
-14.9943870497
30
0.0000000000
11
30.0514647450
21
-15.2007711610
31
0.0000000000
11
30.1633373095
21
-14.9943870497
31
0.0000000000
0
SPLINE
5
297
100
AcDbEntity
8
0
100
AcDbSpline
62
0
6
CONTINUOUS
70
0
71
3
72
8
73
4
74
2
42
0.0000001000
43
0.0000001000
44
0.0000000001
12
0.0206643542
22
0.0407458399
32
0.0000000000
13
0.0202289689
23
0.0409636719
33
0.0000000000
40
0.0000000000
40
0.0000000000
40
0.0000000000
40
0.0000000000
40
1.0000000000
40
1.0000000000
40
1.0000000000
40
1.0000000000
10
30.1633373095
20
-14.9943870497
30
0.0000000000
10
30.1702254275
20
-14.9808051030
30
0.0000000000
10
30.1770411860
20
-14.9671864683
30
0.0000000000
10
30.1837841756
20
-14.9535319110
30
0.0000000000
11
30.1633373095
21
-14.9943870497
31
0.0000000000
11
30.1837841756
21
-14.9535319110
31
0.0000000000
0
SPLINE
5
298
100
AcDbEntity
8
0
100
AcDbSpline
62
0
6
CONTINUOUS
70
0
71
3
72
8
73
4
74
2
42
0.0000001000
43
0.0000001000
44
0.0000000001
12
0.1241934768
22
0.2514918517
32
0.0000000000
13
0.1074525484
23
0.2590843510
33
0.0000000000
40
0.0000000000
40
0.0000000000
40
0.0000000000
40
0.0000000000
40
1.0000000000
40
1.0000000000
40
1.0000000000
40
1.0000000000
10
30.1837841756
20
-14.9535319110
30
0.0000000000
10
30.2251820012
20
-14.8697012937
30
0.0000000000
10
30.2638370183
20
-14.7845166812
30
0.0000000000
10
30.2996545345
20
-14.6981552309
30
0.0000000000
11
30.1837841756
21
-14.9535319110
31
0.0000000000
11
30.2996545345
21
-14.6981552309
31
0.0000000000
0
SPLINE
5
299
100
AcDbEntity
8
0
100
AcDbSpline
62
0
6
CONTINUOUS
70
0
71
3
72
8
73
4
74
2
42
0.0000001000
43
0.0000001000
44
0.0000000001
12
0.1074583215
22
0.2590982708
32
0.0000000000
13
0.0902563775
23
0.2655832914
33
0.0000000000
40
0.0000000000
40
0.0000000000
40
0.0000000000
40
0.0000000000
40
1.0000000000
40
1.0000000000
40
1.0000000000
40
1.0000000000
10
30.2996545345
20
-14.6981552309
30
0.0000000000
10
30.3354739750
20
-14.6117891406
30
0.0000000000
10
30.3684556096
20
-14.5242460861
30
0.0000000000
10
30.3985410687
20
-14.4357183223
30
0.0000000000
11
30.2996545345
21
-14.6981552309
31
0.0000000000
11
30.3985410687
21
-14.4357183223
31
0.0000000000
0
SPLINE
5
29A
100
AcDbEntity
8
0
100
AcDbSpline
62
0
6
CONTINUOUS
70
0
71
3
72
11
73
7
74
5
42
0.0000001000
43
0.0000001000
44
0.0000000001
12
0.9024830600
22
2.6555954062
32
0.0000000000
13
-0.9016240783
23
2.6558836749
33
0.0000000000
40
0.0000000000
40
0.0000000000
40
0.0000000000
40
0.0000000000
40
0.2000250726
40
0.5000514454
40
0.8000385209
40
1.0000000000
40
1.0000000000
40
1.0000000000
40
1.0000000000
10
30.3985410687
20
-14.4357183223
30
0.0000000000
10
30.4587141486
20
-14.2586564343
30
0.0000000000
10
30.5801802836
20
-13.8061640822
30
0.0000000000
10
30.6540020644
20
-13.0582092046
30
0.0000000000
10
30.5803869808
20
-12.3102952863
30
0.0000000000
10
30.4590829146
20
-11.8578604407
30
0.0000000000
10
30.3989862198
20
-11.6808356314
30
0.0000000000
11
30.3985410687
21
-14.4357183223
31
0.0000000000
11
30.5438366990
21
-13.8942535053
31
0.0000000000
11
30.6263572714
21
-13.0581689972
31
0.0000000000
11
30.5440719534
21
-12.2221718772
31
0.0000000000
11
30.3989862198
21
-11.6808356314
31
0.0000000000
0
SPLINE
5
29B
100
AcDbEntity
8
0
100
AcDbSpline
62
0
6
CONTINUOUS
70
0
71
3
72
8
73
4
74
2
42
0.0000001000
43
0.0000001000
44
0.0000000001
12
-0.0901365092
22
0.2655120789
32
0.0000000000
13
-0.1073276214
23
0.2590377010
33
0.0000000000
40
0.0000000000
40
0.0000000000
40
0.0000000000
40
0.0000000000
40
1.0000000000
40
1.0000000000
40
1.0000000000
40
1.0000000000
10
30.3989862198
20
-11.6808356314
30
0.0000000000
10
30.3689407168
20
-11.5923316051
30
0.0000000000
10
30.3360009062
20
-11.5048106155
30
0.0000000000
10
30.3002250325
20
-11.4184647152
30
0.0000000000
11
30.3989862198
21
-11.6808356314
31
0.0000000000
11
30.3002250325
21
-11.4184647152
31
0.0000000000
0
SPLINE
5
29C
100
AcDbEntity
8
0
100
AcDbSpline
62
0
6
CONTINUOUS
70
0
71
3
72
8
73
4
74
2
42
0.0000001000
43
0.0000001000
44
0.0000000001
12
-0.1272105423
22
0.3070255913
32
0.0000000000
13
-0.1506434254
23
0.2962365474
33
0.0000000000
40
0.0000000000
40
0.0000000000
40
0.0000000000
40
0.0000000000
40
1.0000000000
40
1.0000000000
40
1.0000000000
40
1.0000000000
10
30.3002250325
20
-11.4184647152
30
0.0000000000
10
30.2578215184
20
-11.3161228514
30
0.0000000000
10
30.2114338227
20
-11.2154317860
30
0.0000000000
10
30.1612193476
20
-11.1166862702
30
0.0000000000
11
30.3002250325
21
-11.4184647152
31
0.0000000000
11
30.1612193476
21
-11.1166862702
31
0.0000000000
0
SPLINE
5
29D
100
AcDbEntity
8
0
100
AcDbSpline
62
0
6
CONTINUOUS
70
0
71
3
72
8
73
4
74
2
42
0.0000001000
43
0.0000001000
44
0.0000000001
12
-0.1035227921
22
0.2035749946
32
0.0000000000
13
-0.1142127165
23
0.1977753162
33
0.0000000000
40
0.0000000000
40
0.0000000000
40
0.0000000000
40
0.0000000000
40
1.0000000000
40
1.0000000000
40
1.0000000000
40
1.0000000000
10
30.1612193476
20
-11.1166862702
30
0.0000000000
10
30.1267117502
20
-11.0488279387
30
0.0000000000
10
30.0903969578
20
-10.9818883922
30
0.0000000000
10
30.0523260523
20
-10.9159632868
30
0.0000000000
11
30.1612193476
21
-11.1166862702
31
0.0000000000
11
30.0523260523
21
-10.9159632868
31
0.0000000000
0
SPLINE
5
29E
100
AcDbEntity
8
0
100
AcDbSpline
62
0
6
CONTINUOUS
70
0
71
3
72
8
73
4
74
2
42
0.0000001000
43
0.0000001000
44
0.0000000001
12
-0.1401956601
22
0.2427684225
32
0.0000000000
13
-0.1557883322
23
0.2330666327
33
0.0000000000
40
0.0000000000
40
0.0000000000
40
0.0000000000
40
0.0000000000
40
1.0000000000
40
1.0000000000
40
1.0000000000
40
1.0000000000
10
30.0523260523
20
-10.9159632868
30
0.0000000000
10
30.0055941656
20
-10.8350404793
30
0.0000000000
10
29.9562162616
20
-10.7556461775
30
0.0000000000
10
29.9042868175
20
-10.6779572999
30
0.0000000000
11
30.0523260523
21
-10.9159632868
31
0.0000000000
11
29.9042868175
21
-10.6779572999
31
0.0000000000
0
SPLINE
5
29F
100
AcDbEntity
8
0
100
AcDbSpline
62
0
6
CONTINUOUS
70
0
71
3
72
8
73
4
74
2
42
0.0000001000
43
0.0000001000
44
0.0000000001
12
-0.1557859365
22
0.2330630487
32
0.0000000000
13
-0.1707124065
23
0.2223655482
33
0.0000000000
40
0.0000000000
40
0.0000000000
40
0.0000000000
40
0.0000000000
40
1.0000000000
40
1.0000000000
40
1.0000000000
40
1.0000000000
10
29.9042868175
20
-10.6779572999
30
0.0000000000
10
29.8523581720
20
-10.6002696171
30
0.0000000000
10
29.7978780650
20
-10.5242873059
30
0.0000000000
10
29.7409739295
20
-10.4501654565
30
0.0000000000
11
29.9042868175
21
-10.6779572999
31
0.0000000000
11
29.7409739295
21
-10.4501654565
31
0.0000000000
0
SPLINE
5
2A0
100
AcDbEntity
8
0
100
AcDbSpline
62
0
6
CONTINUOUS
70
0
71
3
72
8
73
4
74
2
42
0.0000001000
43
0.0000001000
44
0.0000000001
12
-0.3413936012
22
0.4446904409
32
0.0000000000
13
-0.3965020950
23
0.3963263841
33
0.0000000000
40
0.0000000000
40
0.0000000000
40
0.0000000000
40
0.0000000000
40
1.0000000000
40
1.0000000000
40
1.0000000000
40
1.0000000000
10
29.7409739295
20
-10.4501654565
30
0.0000000000
10
29.6271760624
20
-10.3019353096
30
0.0000000000
10
29.5036838541
20
-10.1611456490
30
0.0000000000
10
29.3715164891
20
-10.0290368543
30
0.0000000000
11
29.7409739295
21
-10.4501654565
31
0.0000000000
11
29.3715164891
21
-10.0290368543
31
0.0000000000
0
SPLINE
5
2A1
100
AcDbEntity
8
0
100
AcDbSpline
62
0
6
CONTINUOUS
70
0
71
3
72
11
73
7
74
5
42
0.0000001000
43
0.0000001000
44
0.0000000001
12
-2.1799288664
22
2.1789628255
32
0.0000000000
13
-3.0752093057
23
0.2010006999
33
0.0000000000
40
0.0000000000
40
0.0000000000
40
0.0000000000
40
0.0000000000
40
0.2727600343
40
0.5456387073
40
0.8186917804
40
1.0000000000
40
1.0000000000
40
1.0000000000
40
1.0000000000
10
29.3715164891
20
-10.0290368543
30
0.0000000000
10
29.1733173317
20
-9.8309255293
30
0.0000000000
10
28.7378065513
20
-9.4736686508
30
0.0000000000
10
27.9922168360
20
-9.0754629276
30
0.0000000000
10
27.2738734485
20
-8.8578492609
30
0.0000000000
10
26.8096074546
20
-8.7970525832
30
0.0000000000
10
26.6237538799
20
-8.7849048902
30
0.0000000000
11
29.3715164891
21
-10.0290368543
31
0.0000000000
11
28.7225561376
21
-9.4967018894
31
0.0000000000
11
27.9818652842
21
-9.1010756446
31
0.0000000000
11
27.1776664077
21
-8.8575415571
31
0.0000000000
11
26.6237538799
21
-8.7849048902
31
0.0000000000
0
SPLINE
5
2A2
100
AcDbEntity
8
0
100
AcDbSpline
62
0
6
CONTINUOUS
70
0
71
3
72
8
73
4
74
2
42
0.0000001000
43
0.0000001000
44
0.0000000001
12
-0.2785108618
22
0.0182039245
32
0.0000000000
13
-0.2786996874
23
0.0000162170
33
0.0000000000
40
0.0000000000
40
0.0000000000
40
0.0000000000
40
0.0000000000
40
1.0000000000
40
1.0000000000
40
1.0000000000
40
1.0000000000
10
26.6237538799
20
-8.7849048902
30
0.0000000000
10
26.5309169260
20
-8.7788369154
30
0.0000000000
10
26.4379320122
20
-8.7757912383
30
0.0000000000
10
26.3450321164
20
-8.7757858326
30
0.0000000000
11
26.6237538799
21
-8.7849048902
31
0.0000000000
11
26.3450321164
21
-8.7757858326
31
0.0000000000
0
SPLINE
5
2A3
100
AcDbEntity
8
0
100
AcDbSpline
62
9
6
CONTINUOUS
70
0
71
3
72
8
73
4
74
2
42
0.0000001000
43
0.0000001000
44
0.0000000001
12
-0.5459053009
22
-0.0000708402
32
0.0000000000
13
-0.5423997890
23
-0.0712758985
33
0.0000000000
40
0.0000000000
40
0.0000000000
40
0.0000000000
40
0.0000000000
40
1.0000000000
40
1.0000000000
40
1.0000000000
40
1.0000000000
10
22.1450321164
20
-8.8787110406
30
0.0000000000
10
21.9630636827
20
-8.8787346540
30
0.0000000000
10
21.7807606473
20
-8.8906889725
30
0.0000000000
10
21.5999607176
20
-8.9144476053
30
0.0000000000
11
22.1450321164
21
-8.8787110406
31
0.0000000000
11
21.5999607176
21
-8.9144476053
31
0.0000000000
0
SPLINE
5
2A4
100
AcDbEntity
8
0
100
AcDbSpline
62
9
6
CONTINUOUS
70
0
71
3
72
12
73
8
74
6
42
0.0000001000
43
0.0000001000
44
0.0000000001
12
-3.5285469881
22
-0.4636807794
32
0.0000000000
13
-1.9767547039
23
-2.9571895058
33
0.0000000000
40
0.0000000000
40
0.0000000000
40
0.0000000000
40
0.0000000000
40
0.0762945764
40
0.3072187716
40
0.5381875643
40
0.7690477435
40
1.0000000000
40
1.0000000000
40
1.0000000000
40
1.0000000000
10
21.5999607176
20
-8.9144476053
30
0.0000000000
10
21.5102243850
20
-8.9262397149
30
0.0000000000
10
21.1503701155
20
-8.9854329368
30
0.0000000000
10
20.5368755135
20
-9.1712880317
30
0.0000000000
10
19.8087639832
20
-9.5601008148
30
0.0000000000
10
19.1706237397
20
-10.0835759581
30
0.0000000000
10
18.8214826479
20
-10.5088237670
30
0.0000000000
10
18.6693039948
20
-10.7364802967
30
0.0000000000
11
21.5999607176
21
-8.9144476053
31
0.0000000000
11
21.3320872497
21
-8.9585322090
31
0.0000000000
11
20.5471884139
21
-9.1962010471
31
0.0000000000
11
19.8236561943
21
-9.5826122093
31
0.0000000000
11
19.1897627819
21
-10.1025727534
31
0.0000000000
11
18.6693039948
21
-10.7364802967
31
0.0000000000
0
SPLINE
5
2A5
100
AcDbEntity
8
0
100
AcDbSpline
62
9
6
CONTINUOUS
70
0
71
3
72
8
73
4
74
2
42
0.0000001000
43
0.0000001000
44
0.0000000001
12
-0.1519789757
22
-0.2273578159
32
0.0000000000
13
-0.1367919184
23
-0.2368087122
33
0.0000000000
40
0.0000000000
40
0.0000000000
40
0.0000000000
40
0.0000000000
40
1.0000000000
40
1.0000000000
40
1.0000000000
40
1.0000000000
10
18.6693039948
20
-10.7364802967
30
0.0000000000
10
18.6186443363
20
-10.8122662354
30
0.0000000000
10
18.5704699982
20
-10.8897133873
30
0.0000000000
10
18.5248726921
20
-10.9686496247
30
0.0000000000
11
18.6693039948
21
-10.7364802967
31
0.0000000000
11
18.5248726921
21
-10.9686496247
31
0.0000000000
0
SPLINE
5
2A6
100
AcDbEntity
8
0
100
AcDbSpline
62
9
6
CONTINUOUS
70
0
71
3
72
8
73
4
74
2
42
0.0000001000
43
0.0000001000
44
0.0000000001
12
-0.1515043334
22
-0.2622782583
32
0.0000000000
13
-0.1321634623
23
-0.2725364326
33
0.0000000000
40
0.0000000000
40
0.0000000000
40
0.0000000000
40
0.0000000000
40
1.0000000000
40
1.0000000000
40
1.0000000000
40
1.0000000000
10
18.5248726921
20
-10.9686496247
30
0.0000000000
10
18.4743712476
20
-11.0560757108
30
0.0000000000
10
18.4270309817
20
-11.1453284196
30
0.0000000000
10
18.3829764943
20
-11.2361738972
30
0.0000000000
11
18.5248726921
21
-10.9686496247
31
0.0000000000
11
18.3829764943
21
-11.2361738972
31
0.0000000000
0
SPLINE
5
2A7
100
AcDbEntity
8
0
100
AcDbSpline
62
9
6
CONTINUOUS
70
0
71
3
72
8
73
4
74
2
42
0.0000001000
43
0.0000001000
44
0.0000000001
12
-0.1070321013
22
-0.2207126430
32
0.0000000000
13
-0.0939036724
23
-0.2266077315
33
0.0000000000
40
0.0000000000
40
0.0000000000
40
0.0000000000
40
0.0000000000
40
1.0000000000
40
1.0000000000
40
1.0000000000
40
1.0000000000
10
18.3829764943
20
-11.2361738972
30
0.0000000000
10
18.3472991272
20
-11.3097447782
30
0.0000000000
10
18.3137767417
20
-11.3843602784
30
0.0000000000
10
18.2824755175
20
-11.4598961889
30
0.0000000000
11
18.3829764943
21
-11.2361738972
31
0.0000000000
11
18.2824755175
21
-11.4598961889
31
0.0000000000
0
SPLINE
5
2A8
100
AcDbEntity
8
0
100
AcDbSpline
62
9
6
CONTINUOUS
70
0
71
3
72
8
73
4
74
2
42
0.0000001000
43
0.0000001000
44
0.0000000001
12
-0.1047188912
22
-0.2527069474
32
0.0000000000
13
-0.0879756864
23
-0.2590144836
33
0.0000000000
40
0.0000000000
40
0.0000000000
40
0.0000000000
40
0.0000000000
40
1.0000000000
40
1.0000000000
40
1.0000000000
40
1.0000000000
10
18.2824755175
20
-11.4598961889
30
0.0000000000
10
18.2475692205
20
-11.5441318380
30
0.0000000000
10
18.2154251864
20
-11.6295121205
30
0.0000000000
10
18.1860999576
20
-11.7158502817
30
0.0000000000
11
18.2824755175
21
-11.4598961889
31
0.0000000000
11
18.1860999576
21
-11.7158502817
31
0.0000000000
0
SPLINE
5
2A9
100
AcDbEntity
8
0
100
AcDbSpline
62
9
6
CONTINUOUS
70
0
71
3
72
11
73
7
74
5
42
0.0000001000
43
0.0000001000
44
0.0000000001
12
-0.8815668533
22
-2.5954737339
32
0.0000000000
13
0.8816642355
23
-2.5954443879
33
0.0000000000
40
0.0000000000
40
0.0000000000
40
0.0000000000
40
0.0000000000
40
0.2000418122
40
0.4999432867
40
0.7998878243
40
1.0000000000
40
1.0000000000
40
1.0000000000
40
1.0000000000
10
18.1860999576
20
-11.7158502817
30
0.0000000000
10
18.1273165473
20
-11.8889180381
30
0.0000000000
10
18.0087122686
20
-12.3310670898
30
0.0000000000
10
17.9366895753
20
-13.0619177309
30
0.0000000000
10
18.0087017472
20
-13.7928356980
30
0.0000000000
10
18.1273394703
20
-14.2350845915
30
0.0000000000
10
18.1861500531
20
-14.4082112659
30
0.0000000000
11
18.1860999576
21
-11.7158502817
31
0.0000000000
11
18.0441843406
21
-12.2450960484
31
0.0000000000
11
17.9636917809
21
-13.0618789535
31
0.0000000000
11
18.0441769970
21
-13.8787810035
31
0.0000000000
11
18.1861500531
21
-14.4082112659
31
0.0000000000
0
SPLINE
5
2AA
100
AcDbEntity
8
0
100
AcDbSpline
62
9
6
CONTINUOUS
70
0
71
3
72
8
73
4
74
2
42
0.0000001000
43
0.0000001000
44
0.0000000001
12
0.0880211983
22
-0.2591169245
32
0.0000000000
13
0.1047778011
23
-0.2528033949
33
0.0000000000
40
0.0000000000
40
0.0000000000
40
0.0000000000
40
0.0000000000
40
1.0000000000
40
1.0000000000
40
1.0000000000
40
1.0000000000
10
18.1861500531
20
-14.4082112659
30
0.0000000000
10
18.2154904526
20
-14.4945835741
30
0.0000000000
10
18.2476519250
20
-14.5799971209
30
0.0000000000
10
18.2825778587
20
-14.6642649192
30
0.0000000000
11
18.1861500531
21
-14.4082112659
31
0.0000000000
11
18.2825778587
21
-14.6642649192
31
0.0000000000
0
SPLINE
5
2AB
100
AcDbEntity
8
0
100
AcDbSpline
62
9
6
CONTINUOUS
70
0
71
3
72
8
73
4
74
2
42
0.0000001000
43
0.0000001000
44
0.0000000001
12
0.0921238666
22
-0.2222725232
32
0.0000000000
13
0.1047587778
23
-0.2166065738
33
0.0000000000
40
0.0000000000
40
0.0000000000
40
0.0000000000
40
0.0000000000
40
1.0000000000
40
1.0000000000
40
1.0000000000
40
1.0000000000
10
18.2825778587
20
-14.6642649192
30
0.0000000000
10
18.3132858143
20
-14.7383557603
30
0.0000000000
10
18.3461308276
20
-14.8115608842
30
0.0000000000
10
18.3810504202
20
-14.8837630755
30
0.0000000000
11
18.2825778587
21
-14.6642649192
31
0.0000000000
11
18.3810504202
21
-14.8837630755
31
0.0000000000
0
SPLINE
5
2AC
100
AcDbEntity
8
0
100
AcDbSpline
62
9
6
CONTINUOUS
70
0
71
3
72
8
73
4
74
2
42
0.0000001000
43
0.0000001000
44
0.0000000001
12
0.1340263372
22
-0.2771222262
32
0.0000000000
13
0.1540080354
23
-0.2665361526
33
0.0000000000
40
0.0000000000
40
0.0000000000
40
0.0000000000
40
0.0000000000
40
1.0000000000
40
1.0000000000
40
1.0000000000
40
1.0000000000
10
18.3810504202
20
-14.8837630755
30
0.0000000000
10
18.4257258659
20
-14.9761371508
30
0.0000000000
10
18.4737970131
20
-15.0668696116
30
0.0000000000
10
18.5251330248
20
-15.1557149958
30
0.0000000000
11
18.3810504202
21
-14.8837630755
31
0.0000000000
11
18.5251330248
21
-15.1557149958
31
0.0000000000
0
SPLINE
5
2AD
100
AcDbEntity
8
0
100
AcDbSpline
62
9
6
CONTINUOUS
70
0
71
3
72
8
73
4
74
2
42
0.0000001000
43
0.0000001000
44
0.0000000001
12
0.1368800731
22
-0.2368934060
32
0.0000000000
13
0.1520787657
23
-0.2274323446
33
0.0000000000
40
0.0000000000
40
0.0000000000
40
0.0000000000
40
0.0000000000
40
1.0000000000
40
1.0000000000
40
1.0000000000
40
1.0000000000
10
18.5251330248
20
-15.1557149958
30
0.0000000000
10
18.5707597159
20
-15.2346794645
30
0.0000000000
10
18.6189654517
20
-15.3121532573
30
0.0000000000
10
18.6696583736
20
-15.3879640388
30
0.0000000000
11
18.5251330248
21
-15.1557149958
31
0.0000000000
11
18.6696583736
21
-15.3879640388
31
0.0000000000
0
SPLINE
5
2AE
100
AcDbEntity
8
0
100
AcDbSpline
62
9
6
CONTINUOUS
70
0
71
3
72
8
73
4
74
2
42
0.0000001000
43
0.0000001000
44
0.0000000001
12
0.1520658379
22
-0.2274130113
32
0.0000000000
13
0.1666144352
23
-0.2169833733
33
0.0000000000
40
0.0000000000
40
0.0000000000
40
0.0000000000
40
0.0000000000
40
1.0000000000
40
1.0000000000
40
1.0000000000
40
1.0000000000
10
18.6696583736
20
-15.3879640388
30
0.0000000000
10
18.7203469862
20
-15.4637683759
30
0.0000000000
10
18.7735223621
20
-15.5379099844
30
0.0000000000
10
18.8290605072
20
-15.6102377755
30
0.0000000000
11
18.6696583736
21
-15.3879640388
31
0.0000000000
11
18.8290605072
21
-15.6102377755
31
0.0000000000
0
SPLINE
5
2AF
100
AcDbEntity
8
0
100
AcDbSpline
62
9
6
CONTINUOUS
70
0
71
3
72
12
73
8
74
6
42
0.0000001000
43
0.0000001000
44
0.0000000001
12
1.9997684586
22
-2.6043151983
32
0.0000000000
13
3.2572389110
23
-0.4275259492
33
0.0000000000
40
0.0000000000
40
0.0000000000
40
0.0000000000
40
0.0000000000
40
0.1669591478
40
0.4170783129
40
0.6672029370
40
0.9174005955
40
1.0000000000
40
1.0000000000
40
1.0000000000
40
1.0000000000
10
18.8290605072
20
-15.6102377755
30
0.0000000000
10
18.9403537198
20
-15.7551758576
30
0.0000000000
10
19.2420756457
20
-16.0990485068
30
0.0000000000
10
19.8094992251
20
-16.5642951004
30
0.0000000000
10
20.5376585469
20
-16.9529484983
30
0.0000000000
10
21.1510830152
20
-17.1386527306
30
0.0000000000
10
21.5109283590
20
-17.1977811126
30
0.0000000000
10
21.6006103571
20
-17.2095522422
30
0.0000000000
11
18.8290605072
21
-15.6102377755
31
0.0000000000
11
19.1904064503
21
-16.0219853102
31
0.0000000000
11
19.8244836494
21
-16.5418546895
31
0.0000000000
11
20.5478437236
21
-16.9279862958
31
0.0000000000
11
21.3328963837
21
-17.1655414104
31
0.0000000000
11
21.6006103571
21
-17.2095522422
31
0.0000000000
0
SPLINE
5
2B0
100
AcDbEntity
8
0
100
AcDbSpline
62
9
6
CONTINUOUS
70
0
71
3
72
8
73
4
74
2
42
0.0000001000
43
0.0000001000
44
0.0000000001
12
0.5417602431
22
-0.0711082510
32
0.0000000000
13
0.5452528377
23
-0.0000642453
33
0.0000000000
40
0.0000000000
40
0.0000000000
40
0.0000000000
40
0.0000000000
40
1.0000000000
40
1.0000000000
40
1.0000000000
40
1.0000000000
10
21.6006103571
20
-17.2095522422
30
0.0000000000
10
21.7811971048
20
-17.2332549925
30
0.0000000000
10
21.9632811705
20
-17.2451812539
30
0.0000000000
10
22.1450321164
20
-17.2452026690
30
0.0000000000
11
21.6006103571
21
-17.2095522422
31
0.0000000000
11
22.1450321164
21
-17.2452026690
31
0.0000000000
0
SPLINE
5
2B1
100
AcDbEntity
8
0
100
AcDbSpline
62
9
6
CONTINUOUS
70
0
71
3
72
8
73
4
74
2
42
0.0000001000
43
0.0000001000
44
0.0000000001
12
0.5453289393
22
0.0000710333
32
0.0000000000
13
0.5418346374
23
0.0711254461
33
0.0000000000
40
0.0000000000
40
0.0000000000
40
0.0000000000
40
0.0000000000
40
1.0000000000
40
1.0000000000
40
1.0000000000
40
1.0000000000
10
26.3450321164
20
-17.2452026690
30
0.0000000000
10
26.5268084295
20
-17.2451789912
30
0.0000000000
10
26.7089182620
20
-17.2332500697
30
0.0000000000
10
26.8895298078
20
-17.2095415877
30
0.0000000000
11
26.3450321164
21
-17.2452026690
31
0.0000000000
11
26.8895298078
21
-17.2095415877
31
0.0000000000
0
SPLINE
5
2B2
100
AcDbEntity
8
0
100
AcDbSpline
62
9
6
CONTINUOUS
70
0
71
3
72
12
73
8
74
6
42
0.0000001000
43
0.0000001000
44
0.0000000001
12
3.2565093768
22
0.4274748533
32
0.0000000000
13
1.9997336814
23
2.6034236843
33
0.0000000000
40
0.0000000000
40
0.0000000000
40
0.0000000000
40
0.0000000000
40
0.0825951306
40
0.3326360522
40
0.5828353778
40
0.8330035460
40
1.0000000000
40
1.0000000000
40
1.0000000000
40
1.0000000000
10
26.8895298078
20
-17.2095415877
30
0.0000000000
10
26.9791870801
20
-17.1977724739
30
0.0000000000
10
27.3387776269
20
-17.1386843696
30
0.0000000000
10
27.9519813018
20
-16.9530961175
30
0.0000000000
10
28.6800127179
20
-16.5646656731
30
0.0000000000
10
29.2475175854
20
-16.0994960367
30
0.0000000000
10
29.5492890383
20
-15.7556758629
30
0.0000000000
10
29.6606051828
20
-15.6107550217
30
0.0000000000
11
26.8895298078
21
-17.2095415877
31
0.0000000000
11
27.1571699129
21
-17.1655413811
31
0.0000000000
11
27.9415756892
21
-16.9282500827
31
0.0000000000
11
28.6650535275
21
-16.5422052637
31
0.0000000000
11
29.2991941363
21
-16.0224466634
31
0.0000000000
11
29.6606051828
21
-15.6107550217
31
0.0000000000
0
SPLINE
5
2B3
100
AcDbEntity
8
0
100
AcDbSpline
62
9
6
CONTINUOUS
70
0
71
3
72
8
73
4
74
2
42
0.0000001000
43
0.0000001000
44
0.0000000001
12
0.1666491038
22
0.2169580019
32
0.0000000000
13
0.1521019764
23
0.2273900295
33
0.0000000000
40
0.0000000000
40
0.0000000000
40
0.0000000000
40
0.0000000000
40
1.0000000000
40
1.0000000000
40
1.0000000000
40
1.0000000000
10
29.6606051828
20
-15.6107550217
30
0.0000000000
10
29.7161548841
20
-15.5384356878
30
0.0000000000
10
29.7693420837
20
-15.4643021570
30
0.0000000000
10
29.8200427425
20
-15.3885054805
30
0.0000000000
11
29.6606051828
21
-15.6107550217
31
0.0000000000
11
29.8200427425
21
-15.3885054805
31
0.0000000000
0
SPLINE
5
2B4
100
AcDbEntity
8
0
100
AcDbSpline
62
9
6
CONTINUOUS
70
0
71
3
72
8
73
4
74
2
42
0.0000001000
43
0.0000001000
44
0.0000000001
12
0.1521137261
22
0.2274075951
32
0.0000000000
13
0.1369165487
23
0.2368710324
33
0.0000000000
40
0.0000000000
40
0.0000000000
40
0.0000000000
40
0.0000000000
40
1.0000000000
40
1.0000000000
40
1.0000000000
40
1.0000000000
10
29.8200427425
20
-15.3885054805
30
0.0000000000
10
29.8707473179
20
-15.3127029488
30
0.0000000000
10
29.9189649683
20
-15.2352370145
30
0.0000000000
10
29.9646038179
20
-15.1562800037
30
0.0000000000
11
29.8200427425
21
-15.3885054805
31
0.0000000000
11
29.9646038179
21
-15.1562800037
31
0.0000000000
0
SPLINE
5
2B5
100
AcDbEntity
8
0
100
AcDbSpline
62
9
6
CONTINUOUS
70
0
71
3
72
8
73
4
74
2
42
0.0000001000
43
0.0000001000
44
0.0000000001
12
0.1543840172
22
0.2670904422
32
0.0000000000
13
0.1343162626
23
0.2777240866
33
0.0000000000
40
0.0000000000
40
0.0000000000
40
0.0000000000
40
0.0000000000
40
1.0000000000
40
1.0000000000
40
1.0000000000
40
1.0000000000
10
29.9646038179
20
-15.1562800037
30
0.0000000000
10
30.0160651570
20
-15.0672498563
30
0.0000000000
10
30.0642477287
20
-14.9763239081
30
0.0000000000
10
30.1090198162
20
-14.8837492126
30
0.0000000000
11
29.9646038179
21
-15.1562800037
31
0.0000000000
11
30.1090198162
21
-14.8837492126
31
0.0000000000
0
SPLINE
5
2B6
100
AcDbEntity
8
0
100
AcDbSpline
62
9
6
CONTINUOUS
70
0
71
3
72
8
73
4
74
2
42
0.0000001000
43
0.0000001000
44
0.0000000001
12
0.1044657308
22
0.2160025086
32
0.0000000000
13
0.0919016144
23
0.2216378710
33
0.0000000000
40
0.0000000000
40
0.0000000000
40
0.0000000000
40
0.0000000000
40
1.0000000000
40
1.0000000000
40
1.0000000000
40
1.0000000000
10
30.1090198162
20
-14.8837492126
30
0.0000000000
10
30.1438417265
20
-14.8117483764
30
0.0000000000
10
30.1766006020
20
-14.7387501970
30
0.0000000000
10
30.2072344735
20
-14.6648709067
30
0.0000000000
11
30.1090198162
21
-14.8837492126
31
0.0000000000
11
30.2072344735
21
-14.6648709067
31
0.0000000000
0
SPLINE
5
2B7
100
AcDbEntity
8
0
100
AcDbSpline
62
9
6
CONTINUOUS
70
0
71
3
72
8
73
4
74
2
42
0.0000001000
43
0.0000001000
44
0.0000000001
12
0.1048170683
22
0.2527858951
32
0.0000000000
13
0.0880616304
23
0.2591019841
33
0.0000000000
40
0.0000000000
40
0.0000000000
40
0.0000000000
40
0.0000000000
40
1.0000000000
40
1.0000000000
40
1.0000000000
40
1.0000000000
10
30.2072344735
20
-14.6648709067
30
0.0000000000
10
30.2421734962
20
-14.5806089416
30
0.0000000000
10
30.2743482678
20
-14.4952008084
30
0.0000000000
10
30.3037021446
20
-14.4088334804
30
0.0000000000
11
30.2072344735
21
-14.6648709067
31
0.0000000000
11
30.3037021446
21
-14.4088334804
31
0.0000000000
0
SPLINE
5
2B8
100
AcDbEntity
8
0
100
AcDbSpline
62
9
6
CONTINUOUS
70
0
71
3
72
11
73
7
74
5
42
0.0000001000
43
0.0000001000
44
0.0000000001
12
0.8820912374
22
2.5953595091
32
0.0000000000
13
-0.8812120626
23
2.5956548427
33
0.0000000000
40
0.0000000000
40
0.0000000000
40
0.0000000000
40
0.0000000000
40
0.2001078551
40
0.5000497704
40
0.7999539314
40
1.0000000000
40
1.0000000000
40
1.0000000000
40
1.0000000000
10
30.3037021446
20
-14.4088334804
30
0.0000000000
10
30.3625399398
20
-14.2357162055
30
0.0000000000
10
30.4812481770
20
-13.7934829754
30
0.0000000000
10
30.5533757399
20
-13.0625648260
30
0.0000000000
10
30.4814623807
20
-12.3316838145
30
0.0000000000
10
30.3629187868
20
-11.8895018773
30
0.0000000000
10
30.3041577839
20
-11.7164183617
30
0.0000000000
11
30.3037021446
21
-14.4088334804
31
0.0000000000
11
30.4457584963
21
-13.8794260177
31
0.0000000000
11
30.5263724041
21
-13.0625267081
31
0.0000000000
11
30.4460017930
21
-12.2457072487
31
0.0000000000
11
30.3041577839
21
-11.7164183617
31
0.0000000000
0
SPLINE
5
2B9
100
AcDbEntity
8
0
100
AcDbSpline
62
9
6
CONTINUOUS
70
0
71
3
72
8
73
4
74
2
42
0.0000001000
43
0.0000001000
44
0.0000000001
12
-0.0879424107
22
0.2590388329
32
0.0000000000
13
-0.1046880585
23
0.2527330855
33
0.0000000000
40
0.0000000000
40
0.0000000000
40
0.0000000000
40
0.0000000000
40
1.0000000000
40
1.0000000000
40
1.0000000000
40
1.0000000000
10
30.3041577839
20
-11.7164183617
30
0.0000000000
10
30.2748436470
20
-11.6300720841
30
0.0000000000
10
30.2427103090
20
-11.5446833690
30
0.0000000000
10
30.2078142895
20
-11.4604390072
30
0.0000000000
11
30.3041577839
21
-11.7164183617
31
0.0000000000
11
30.2078142895
21
-11.4604390072
31
0.0000000000
0
SPLINE
5
2BA
100
AcDbEntity
8
0
100
AcDbSpline
62
9
6
CONTINUOUS
70
0
71
3
72
8
73
4
74
2
42
0.0000001000
43
0.0000001000
44
0.0000000001
12
-0.0940636883
22
0.2270842206
32
0.0000000000
13
-0.1072462929
23
0.2211660857
33
0.0000000000
40
0.0000000000
40
0.0000000000
40
0.0000000000
40
0.0000000000
40
1.0000000000
40
1.0000000000
40
1.0000000000
40
1.0000000000
10
30.2078142895
20
-11.4604390072
30
0.0000000000
10
30.1764597267
20
-11.3847442670
30
0.0000000000
10
30.1428747754
20
-11.3099733945
30
0.0000000000
10
30.1071260111
20
-11.2362513660
30
0.0000000000
11
30.2078142895
21
-11.4604390072
31
0.0000000000
11
30.1071260111
21
-11.2362513660
31
0.0000000000
0
SPLINE
5
2BB
100
AcDbEntity
8
0
100
AcDbSpline
62
9
6
CONTINUOUS
70
0
71
3
72
8
73
4
74
2
42
0.0000001000
43
0.0000001000
44
0.0000000001
12
-0.1319502828
22
0.2721112942
32
0.0000000000
13
-0.1512312198
23
0.2618868431
33
0.0000000000
40
0.0000000000
40
0.0000000000
40
0.0000000000
40
0.0000000000
40
1.0000000000
40
1.0000000000
40
1.0000000000
40
1.0000000000
10
30.1071260111
20
-11.2362513660
30
0.0000000000
10
30.0631425835
20
-11.1455476012
30
0.0000000000
10
30.0158836696
20
-11.0564315309
30
0.0000000000
10
29.9654732630
20
-10.9691359166
30
0.0000000000
11
30.1071260111
21
-11.2362513660
31
0.0000000000
11
29.9654732630
21
-10.9691359166
31
0.0000000000
0
SPLINE
5
2BC
100
AcDbEntity
8
0
100
AcDbSpline
62
9
6
CONTINUOUS
70
0
71
3
72
8
73
4
74
2
42
0.0000001000
43
0.0000001000
44
0.0000000001
12
-0.1367661067
22
0.2368376315
32
0.0000000000
13
-0.1519556847
23
0.2273879959
33
0.0000000000
40
0.0000000000
40
0.0000000000
40
0.0000000000
40
0.0000000000
40
1.0000000000
40
1.0000000000
40
1.0000000000
40
1.0000000000
10
29.9654732630
20
-10.9691359166
30
0.0000000000
10
29.9198845608
20
-10.8901900394
30
0.0000000000
10
29.8717184078
20
-10.8127330235
30
0.0000000000
10
29.8210665129
20
-10.7369370248
30
0.0000000000
11
29.9654732630
21
-10.9691359166
31
0.0000000000
11
29.8210665129
21
-10.7369370248
31
0.0000000000
0
SPLINE
5
2BD
100
AcDbEntity
8
0
100
AcDbSpline
62
9
6
CONTINUOUS
70
0
71
3
72
8
73
4
74
2
42
0.0000001000
43
0.0000001000
44
0.0000000001
12
-0.1519489530
22
0.2273779226
32
0.0000000000
13
-0.1664906369
23
0.2169597871
33
0.0000000000
40
0.0000000000
40
0.0000000000
40
0.0000000000
40
0.0000000000
40
1.0000000000
40
1.0000000000
40
1.0000000000
40
1.0000000000
10
29.8210665129
20
-10.7369370248
30
0.0000000000
10
29.7704168619
20
-10.6611443840
30
0.0000000000
10
29.7172816892
20
-10.5870126133
30
0.0000000000
10
29.6617848102
20
-10.5146926842
30
0.0000000000
11
29.8210665129
21
-10.7369370248
31
0.0000000000
11
29.6617848102
21
-10.5146926842
31
0.0000000000
0
SPLINE
5
2BE
100
AcDbEntity
8
0
100
AcDbSpline
62
9
6
CONTINUOUS
70
0
71
3
72
12
73
8
74
6
42
0.0000001000
43
0.0000001000
44
0.0000000001
12
-1.9994411315
22
2.6055418506
32
0.0000000000
13
-3.2579706934
23
0.4280195165
33
0.0000000000
40
0.0000000000
40
0.0000000000
40
0.0000000000
40
0.0000000000
40
0.1668744963
40
0.4169257578
40
0.6670684606
40
0.9173565385
40
1.0000000000
40
1.0000000000
40
1.0000000000
40
1.0000000000
10
29.6617848102
20
-10.5146926842
30
0.0000000000
10
29.5505662330
20
-10.3697598563
30
0.0000000000
10
29.2489953703
20
-10.0258345502
30
0.0000000000
10
28.6817130295
20
-9.5603757703
30
0.0000000000
10
27.9534628202
20
-9.1713756966
30
0.0000000000
10
27.3397708444
20
-8.9854366797
30
0.0000000000
10
26.9797018118
20
-8.9262179846
30
0.0000000000
10
26.8899518200
20
-8.9144269798
30
0.0000000000
11
29.6617848102
21
-10.5146926842
31
0.0000000000
11
29.3006702354
21
-10.1029395941
31
0.0000000000
11
28.6667947569
21
-9.5828693244
31
0.0000000000
11
27.9433342289
21
-9.1963879560
31
0.0000000000
11
27.1578664734
21
-8.9585106893
31
0.0000000000
11
26.8899518200
21
-8.9144269798
31
0.0000000000
0
SPLINE
5
2BF
100
AcDbEntity
8
0
100
AcDbSpline
62
9
6
CONTINUOUS
70
0
71
3
72
8
73
4
74
2
42
0.0000001000
43
0.0000001000
44
0.0000000001
12
-0.5422507562
22
0.0712387950
32
0.0000000000
13
-0.5457530807
23
0.0000641159
33
0.0000000000
40
0.0000000000
40
0.0000000000
40
0.0000000000
40
0.0000000000
40
1.0000000000
40
1.0000000000
40
1.0000000000
40
1.0000000000
10
26.8899518200
20
-8.9144269798
30
0.0000000000
10
26.7092015679
20
-8.8906807147
30
0.0000000000
10
26.5269498099
20
-8.8787324125
30
0.0000000000
10
26.3450321164
20
-8.8787110406
30
0.0000000000
11
26.8899518200
21
-8.9144269798
31
0.0000000000
11
26.3450321164
21
-8.8787110406
31
0.0000000000
0
SPLINE
5
2C0
100
AcDbEntity
8
ASSI
100
AcDbSpline
62
9
6
CONTINUOUS
70
0
71
3
72
27
73
23
74
21
42
0.0000001000
43
0.0000001000
44
0.0000000001
12
-2.3131450614
22
0.0000000000
32
0.0000000000
13
2.2721046625
23
-0.0000000000
33
0.0000000000
40
0.0000000000
40
0.0000000000
40
0.0000000000
40
0.0000000000
40
0.0208333333
40
0.0416666667
40
0.0625000000
40
0.0833333333
40
0.1250000000
40
0.1458333333
40
0.1666666667
40
0.2083333333
40
0.2500000000
40
0.3333333333
40
0.4166666667
40
0.5000000000
40
0.5833333333
40
0.6666666667
40
0.7500000000
40
0.8333333333
40
0.8750000000
40
0.9166666667
40
0.9583333333
40
1.0000000000
40
1.0000000000
40
1.0000000000
40
1.0000000000
10
26.8193071164
20
-13.7186853152
30
4.1387569915
10
26.8032436090
20
-13.7186853152
30
4.1387569915
10
26.7735183136
20
-13.7176261315
30
4.1388052714
10
26.7279512437
20
-13.7129874063
30
4.1390166652
10
26.6837848869
20
-13.7054258524
30
4.1393611024
10
26.6261157552
20
-13.6916016323
30
4.1399903909
10
26.5707767939
20
-13.6723969557
30
4.1408635988
10
26.5179290900
20
-13.6481121475
30
4.1419655699
10
26.4670149224
20
-13.6206185477
30
4.1432113516
10
26.4057910684
20
-13.5795481182
30
4.1450681278
10
26.3151354622
20
-13.4992270004
30
4.1486845131
10
26.2255886244
20
-13.3801104760
30
4.1540109555
10
26.1587860805
20
-13.2146068975
30
4.1613246983
10
26.1373092385
20
-13.0379730380
30
4.1690268348
10
26.1619984989
20
-12.8624406480
30
4.1765753622
10
26.2310976582
20
-12.6993083293
30
4.1834962669
10
26.3394403449
20
-12.5595314244
30
4.1893540965
10
26.4584440957
20
-12.4696046071
30
4.1930846267
10
26.5608064662
20
-12.4196074963
30
4.1951489687
10
26.6426751635
20
-12.3915709546
30
4.1963035443
10
26.7296396513
20
-12.3741221055
30
4.1970207447
10
26.7877501072
20
-12.3700213152
30
4.1971891382
10
26.8193071164
20
-12.3700213152
30
4.1971891382
11
26.8193071164
21
-13.7186853152
31
4.1387569915
11
26.7733551258
21
-13.7171178066
31
4.1388284337
11
26.7281846959
21
-13.7125002682
31
4.1390388391
11
26.6839373049
21
-13.7049580839
31
4.1393823573
11
26.6407272190
21
-13.6946093160
31
4.1398533954
11
26.5577724727
21
-13.6659024094
31
4.1411581551
11
26.5181707820
21
-13.6477110486
31
4.1419835462
11
26.4799047213
21
-13.6270450523
31
4.1429198761
11
26.4067038884
21
-13.5777220643
31
4.1451488207
11
26.3393842084
21
-13.5180596047
31
4.1478341475
11
26.2323642347
21
-13.3763498511
31
4.1541646241
11
26.1663403642
21
-13.2127518507
31
4.1613894306
11
26.1450035889
21
-13.0381566162
31
4.1690012333
11
26.1694001487
21
-12.8645073265
31
4.1764707585
11
26.2376382461
21
-12.7032008983
31
4.1833190877
11
26.3451839806
21
-12.5648422117
31
4.1891238976
11
26.4846313025
21
-12.4589340246
31
4.1935240387
11
26.5616559528
21
-12.4211843782
31
4.1950833552
11
26.6435244619
21
-12.3933355700
31
4.1962306484
11
26.7296731840
21
-12.3760050495
31
4.1969433097
11
26.8193071164
21
-12.3700213152
31
4.1971891382
0
SPLINE
5
2C1
100
AcDbEntity
8
ASSI
100
AcDbSpline
62
9
6
CONTINUOUS
70
0
71
3
72
8
73
4
74
2
42
0.0000001000
43
0.0000001000
44
0.0000000001
12
0.4909163109
22
-0.7008221333
32
-0.0303703622
13
0.4908652421
23
-0.7007492285
33
-0.0320084404
40
0.0000000000
40
0.0000000000
40
0.0000000000
40
0.0000000000
40
1.0000000000
40
1.0000000000
40
1.0000000000
40
1.0000000000
10
20.0807581164
20
-13.0471953152
30
4.1686096747
10
20.2443968867
20
-13.2808026930
30
4.1584862207
10
20.4080273690
20
-13.5143982391
30
4.1480897394
10
20.5716491164
20
-13.7479813152
30
4.1374202592
11
20.0807581164
21
-13.0471953152
31
4.1686096747
11
20.5716491164
21
-13.7479813152
31
4.1374202592
0
SPLINE
5
2C2
100
AcDbEntity
8
ASSI
100
AcDbSpline
62
9
6
CONTINUOUS
70
0
71
3
72
8
73
4
74
2
42
0.0000001000
43
0.0000001000
44
0.0000000001
12
-0.4910379767
22
-0.7009942286
32
-0.0287360999
13
-0.4909895760
23
-0.7009251329
33
-0.0303748257
40
0.0000000000
40
0.0000000000
40
0.0000000000
40
0.0000000000
40
1.0000000000
40
1.0000000000
40
1.0000000000
40
1.0000000000
10
20.5717721164
20
-12.3462353152
30
4.1981651510
10
20.4080927908
20
-12.5799000581
30
4.1885864510
10
20.2444213084
20
-12.8135536043
30
4.1787346166
10
20.0807581164
20
-13.0471953152
30
4.1686096747
11
20.5717721164
21
-12.3462353152
31
4.1981651510
11
20.0807581164
21
-13.0471953152
31
4.1686096747
0
SPLINE
5
2C3
100
AcDbEntity
8
ASSI
100
AcDbSpline
62
9
6
CONTINUOUS
70
0
71
3
72
13
73
9
74
7
42
0.0000001000
43
0.0000001000
44
0.0000000001
12
-0.0492023228
22
-0.1184424851
32
-0.0048300272
13
-0.1281391667
23
0.0000000000
33
-0.0000000000
40
0.0000000000
40
0.0000000000
40
0.0000000000
40
0.0000000000
40
0.1666666667
40
0.3333333333
40
0.5000000000
40
0.6666666667
40
0.8333333333
40
1.0000000000
40
1.0000000000
40
1.0000000000
40
1.0000000000
10
24.2641143506
20
-12.2822249985
30
4.2007823044
10
24.2613808882
20
-12.2888051365
30
4.2005139696
10
24.2549203547
20
-12.3006893958
30
4.2000289188
10
24.2420887143
20
-12.3163116481
30
4.1993904427
10
24.2262244611
20
-12.3293331063
30
4.1988576237
10
24.2081129037
20
-12.3389815833
30
4.1984624503
10
24.1887710659
20
-12.3448309061
30
4.1982227265
10
24.1753289590
20
-12.3462353152
30
4.1981651510
10
24.1682101164
20
-12.3462353152
30
4.1981651510
11
24.2641143506
21
-12.2822249985
31
4.2007823044
11
24.2543968813
21
-12.3003220397
31
4.2000437688
11
24.2415832788
21
-12.3158781824
31
4.1994080522
11
24.2258499104
21
-12.3287709428
31
4.1988805647
11
24.2079078569
21
-12.3383483909
31
4.1984883585
11
24.1886341788
21
-12.3442071212
31
4.1982482866
11
24.1682101164
21
-12.3462353152
31
4.1981651510
0
SPLINE
5
2C4
100
AcDbEntity
8
ASSI
100
AcDbSpline
62
9
6
CONTINUOUS
70
0
71
3
72
20
73
16
74
14
42
0.0000001000
43
0.0000001000
44
0.0000000001
12
2.6919459336
22
-6.3519175675
32
-0.2914840352
13
-2.6254652589
23
5.6732728851
33
0.2299403800
40
0.0000000000
40
0.0000000000
40
0.0000000000
40
0.0000000000
40
0.0392857143
40
0.0785714286
40
0.1178571429
40
0.1571428571
40
0.2357142857
40
0.3142857143
40
0.3928571429
40
0.4714285714
40
0.5500000000
40
0.6285714286
40
0.7857142857
40
0.9428571429
40
1.0000000000
40
1.0000000000
40
1.0000000000
40
1.0000000000
10
24.2695684909
20
-13.8113091989
30
4.1345209000
10
24.3048201638
20
-13.8944890718
30
4.1307038471
10
24.3807590428
20
-14.0440643738
30
4.1237752481
10
24.5231147371
20
-14.2543582181
30
4.1138838627
10
24.6867254648
20
-14.4395611017
30
4.1050476541
10
24.9292956623
20
-14.6547907901
30
4.0946558514
10
25.2884964313
20
-14.8697188708
30
4.0841004781
10
25.7630298444
20
-15.0097884190
30
4.0771246115
10
26.2569175426
20
-15.0295414997
30
4.0761359081
10
26.7395929716
20
-14.9276139074
30
4.0812250323
10
27.1835892351
20
-14.7097380912
30
4.0919828210
10
27.6862903055
20
-14.2829522660
30
4.1126713736
10
28.0866313353
20
-13.5389830117
30
4.1474392902
10
28.0838558306
20
-12.7422870566
30
4.1819257009
10
27.9326173822
20
-12.3204554916
30
4.1992381547
10
27.8826085202
20
-12.2123931509
30
4.2036179715
11
24.2695684909
21
-13.8113091989
31
4.1345209000
11
24.3855002721
21
-14.0417195223
31
4.1238588336
11
24.5266572427
21
-14.2501763913
31
4.1140597255
11
24.6897782849
21
-14.4355976655
31
4.1052213802
11
24.8723856478
21
-14.5973760993
31
4.0974160941
11
25.2957451797
21
-14.8500781794
31
4.0850489083
11
25.7662555586
21
-14.9897356744
31
4.0781224720
11
26.2550488311
21
-15.0092613875
31
4.0771488793
11
26.7331464440
21
-14.9082892035
31
4.0821698097
11
27.1724274917
21
-14.6927024991
31
4.0927759253
11
27.5454126840
21
-14.3756162575
31
4.1080930505
11
28.0059760033
21
-13.5192450259
31
4.1477809091
11
28.0026370208
21
-12.5481203772
31
4.1898211267
11
27.8826085202
21
-12.2123931509
31
4.2036179715
0
SPLINE
5
2C5
100
AcDbEntity
8
ASSI
100
AcDbSpline
62
9
6
CONTINUOUS
70
0
71
3
72
13
73
9
74
7
42
0.0000001000
43
0.0000001000
44
0.0000000001
12
0.1272918752
22
0.0000000000
32
0.0000000000
13
0.0497189355
23
-0.1173168360
33
-0.0053835687
40
0.0000000000
40
0.0000000000
40
0.0000000000
40
0.0000000000
40
0.1666666667
40
0.3333333333
40
0.5000000000
40
0.6666666667
40
0.8333333333
40
1.0000000000
40
1.0000000000
40
1.0000000000
40
1.0000000000
10
24.1739501164
20
-13.7479814775
30
4.1374202518
10
24.1810218872
20
-13.7479814775
30
4.1374202518
10
24.1943837691
20
-13.7493679828
30
4.1373569238
10
24.2136204483
20
-13.7551480919
30
4.1370928449
10
24.2316488204
20
-13.7646836883
30
4.1366569413
10
24.2474696324
20
-13.7775589077
30
4.1360678816
10
24.2603083961
20
-13.7930197747
30
4.1353597770
10
24.2668063278
20
-13.8047915969
30
4.1348199871
10
24.2695684909
20
-13.8113091989
30
4.1345209000
11
24.1739501164
21
-13.7479814775
31
4.1374202518
11
24.1942494119
21
-13.7499847080
31
4.1373287426
11
24.2134190638
21
-13.7557740065
31
4.1370642075
11
24.2312808937
21
-13.7652402921
31
4.1366314153
11
24.2469726244
21
-13.7779898490
31
4.1360480408
11
24.2597930851
21
-13.7933859191
31
4.1353428469
11
24.2695684909
21
-13.8113091989
31
4.1345209000
0
SPLINE
5
2C6
100
AcDbEntity
8
ASSI
100
AcDbSpline
62
9
6
CONTINUOUS
70
0
71
3
72
8
73
4
74
2
42
0.0000001000
43
0.0000001000
44
0.0000000001
12
0.6077406282
22
0.8679490553
32
0.0374158447
13
0.6078139237
23
0.8680537329
33
0.0349030782
40
0.0000000000
40
0.0000000000
40
0.0000000000
40
0.0000000000
40
1.0000000000
40
1.0000000000
40
1.0000000000
40
1.0000000000
10
19.7602816122
20
-12.9792650352
30
4.1715457463
10
19.9628618216
20
-12.6899486835
30
4.1840176945
10
20.1654546714
20
-12.4006142792
30
4.1960708736
10
20.3680593126
20
-12.1112630350
30
4.2077052330
11
19.7602816122
21
-12.9792650352
31
4.1715457463
11
20.3680593126
21
-12.1112630350
31
4.2077052330
0
SPLINE
5
2C7
100
AcDbEntity
8
ASSI
100
AcDbSpline
62
9
6
CONTINUOUS
70
0
71
3
72
13
73
9
74
7
42
0.0000001000
43
0.0000001000
44
0.0000000001
12
-0.1255670327
22
0.1276370981
32
0.0055680026
13
0.1027043091
23
0.1466778819
33
0.0063230403
40
0.0000000000
40
0.0000000000
40
0.0000000000
40
0.0000000000
40
0.1666666667
40
0.3333333333
40
0.5000000000
40
0.6666666667
40
0.8333333333
40
1.0000000000
40
1.0000000000
40
1.0000000000
40
1.0000000000
10
19.7731396871
20
-13.1334891304
30
4.1648576613
10
19.7661637409
20
-13.1263981805
30
4.1651669948
10
19.7549106762
20
-13.1116489506
30
4.1658099216
10
19.7433513345
20
-13.0865092011
30
4.1669038072
10
19.7377253034
20
-13.0587952567
30
4.1681072111
10
19.7386836555
20
-13.0305320073
30
4.1693317494
10
19.7459200533
20
-13.0038241027
30
4.1704864009
10
19.7545758173
20
-12.9874138064
30
4.1711944663
10
19.7602816122
20
-12.9792650352
30
4.1715457463
11
19.7731396871
21
-13.1334891304
31
4.1648576613
11
19.7557973854
21
-13.1111462998
31
4.1658315042
11
19.7443402196
21
-13.0860801686
31
4.1669220602
11
19.7388227006
21
-13.0587037059
31
4.1681107335
11
19.7397299965
21
-13.0307912314
31
4.1693201016
11
19.7468779280
21
-13.0041728461
31
4.1704709753
11
19.7602816122
21
-12.9792650352
31
4.1715457463
0
SPLINE
5
2C8
100
AcDbEntity
8
ASSI
100
AcDbSpline
62
9
6
CONTINUOUS
70
0
71
3
72
8
73
4
74
2
42
0.0000001000
43
0.0000001000
44
0.0000000001
12
-0.5948823345
22
0.8495837797
32
0.0394746443
13
-0.5949582797
23
0.8496922411
33
0.0370667206
40
0.0000000000
40
0.0000000000
40
0.0000000000
40
0.0000000000
40
1.0000000000
40
1.0000000000
40
1.0000000000
40
1.0000000000
10
20.3680603924
20
-13.9831277095
30
4.1265869532
10
20.1697662809
20
-13.6999331162
30
4.1397451680
10
19.9714591137
20
-13.4167198774
30
4.1525020878
10
19.7731396871
20
-13.1334891304
30
4.1648576613
11
20.3680603924
21
-13.9831277095
31
4.1265869532
11
19.7731396871
21
-13.1334891304
31
4.1648576613
0
SPLINE
5
2C9
100
AcDbEntity
8
ASSI
100
AcDbSpline
62
9
6
CONTINUOUS
70
0
71
3
72
18
73
14
74
12
42
0.0000001000
43
0.0000001000
44
0.0000000001
12
2.9335310630
22
6.7098733204
32
0.2715685328
13
-2.9185538768
23
-6.0508008327
33
-0.2806156471
40
0.0000000000
40
0.0000000000
40
0.0000000000
40
0.0000000000
40
0.0714285714
40
0.1428571429
40
0.2142857143
40
0.2857142857
40
0.3571428571
40
0.4285714286
40
0.5000000000
40
0.5714285714
40
0.7142857143
40
0.8571428571
40
1.0000000000
40
1.0000000000
40
1.0000000000
40
1.0000000000
10
24.1451467543
20
-12.1904593152
30
4.2045103995
10
24.2149927320
20
-12.0307004267
30
4.2109763169
10
24.3816980270
20
-11.7512392591
30
4.2220449612
10
24.7134214099
20
-11.4009784891
30
4.2354766445
10
25.1218541782
20
-11.1312651814
30
4.2455318836
10
25.5767458937
20
-10.9628411291
30
4.2516854314
10
26.0560133017
20
-10.9009548171
30
4.2539226327
10
26.5360318496
20
-10.9479550228
30
4.2522248649
10
26.9935396894
20
-11.1014046177
30
4.2466291724
10
27.5422066414
20
-11.4371535784
30
4.2341565559
10
28.0595380156
20
-12.0732081916
30
4.2096699077
10
28.2840882713
20
-13.0327828678
30
4.1697850671
10
28.1387308498
20
-13.6736164918
30
4.1409421289
10
27.9997520937
20
-13.9617498648
30
4.1275794790
11
24.1451467543
21
-12.1904593152
31
4.2045103995
11
24.3953089337
21
-11.7627277560
31
4.2215164140
11
24.7262063075
21
-11.4144030661
31
4.2349139038
11
25.1295973361
21
-11.1481467240
31
4.2448816017
11
25.5808085091
21
-10.9805974192
31
4.2510327070
11
26.0561384917
21
-10.9191025700
31
4.2532668045
11
26.5322800649
21
-10.9656965877
31
4.2515752108
11
26.9858717517
21
-11.1177983053
31
4.2460027107
11
27.3938064157
21
-11.3676408990
31
4.2366816515
11
27.9934967834
21
-12.1059263817
31
4.2079197639
11
28.2103238733
21
-13.0330621611
31
4.1692218060
11
27.9997520937
21
-13.9617498648
31
4.1275794790
0
SPLINE
5
2CA
100
AcDbEntity
8
ASSI
100
AcDbSpline
62
9
6
CONTINUOUS
70
0
71
3
72
8
73
4
74
2
42
0.0000001000
43
0.0000001000
44
0.0000000001
12
0.6000976634
22
0.8566841268
32
0.0371246939
13
0.6001695200
23
0.8567867074
33
0.0346767067
40
0.0000000000
40
0.0000000000
40
0.0000000000
40
0.0000000000
40
1.0000000000
40
1.0000000000
40
1.0000000000
40
1.0000000000
10
19.8905651164
20
-13.0471953152
30
4.1686096747
10
20.0905976708
20
-12.7616339397
30
4.1809845727
10
20.2906426097
20
-12.4760548844
30
4.1929514972
10
20.4906991164
20
-12.1904593152
30
4.2045103995
11
19.8905651164
21
-13.0471953152
31
4.1686096747
11
20.4906991164
21
-12.1904593152
31
4.2045103995
0
SPLINE
5
2CB
100
AcDbEntity
8
ASSI
100
AcDbSpline
62
9
6
CONTINUOUS
70
0
71
3
72
8
73
4
74
2
42
0.0000001000
43
0.0000001000
44
0.0000000001
12
-0.5999712201
22
0.8565066387
32
0.0395690461
13
-0.6000479635
23
0.8566161960
33
0.0371217501
40
0.0000000000
40
0.0000000000
40
0.0000000000
40
0.0000000000
40
1.0000000000
40
1.0000000000
40
1.0000000000
40
1.0000000000
10
20.4905751164
20
-13.9037573152
30
4.1302642505
10
20.2905847097
20
-13.6182551024
30
4.1434539326
10
20.0905811042
20
-13.3327340472
30
4.1562357580
10
19.8905651164
20
-13.0471953152
30
4.1686096747
11
20.4905751164
21
-13.9037573152
31
4.1302642505
11
19.8905651164
21
-13.0471953152
31
4.1686096747
0
SPLINE
5
2CC
100
AcDbEntity
8
ASSI
100
AcDbSpline
62
9
6
CONTINUOUS
70
0
71
3
72
13
73
9
74
7
42
0.0000001000
43
0.0000001000
44
0.0000000001
12
-0.1544037791
22
0.0000000000
32
0.0000000000
13
-0.0886381846
23
0.1265890068
33
0.0058817696
40
0.0000000000
40
0.0000000000
40
0.0000000000
40
0.0000000000
40
0.1666666667
40
0.3333333333
40
0.5000000000
40
0.6666666667
40
0.8333333333
40
1.0000000000
40
1.0000000000
40
1.0000000000
40
1.0000000000
10
20.4956651164
20
-14.0495546929
30
4.1234931468
10
20.4870871286
20
-14.0495546929
30
4.1234931468
10
20.4705906792
20
-14.0481776838
30
4.1235574374
10
20.4465110291
20
-14.0422947069
30
4.1238320281
10
20.4234410415
20
-14.0325563729
30
4.1242863139
10
20.4022257168
20
-14.0192471770
30
4.1249066589
10
20.3835839923
20
-14.0028927668
30
4.1256681188
10
20.3729847360
20
-13.9901604321
30
4.1262601883
10
20.3680603924
20
-13.9831277095
30
4.1265869532
11
20.4956651164
21
-14.0495546929
31
4.1234931468
11
20.4707015165
21
-14.0475414399
31
4.1235871299
11
20.4466793062
21
-14.0416521474
31
4.1238619773
11
20.4237501520
21
-14.0319612293
31
4.1243139904
11
20.4026546502
21
-14.0187396413
31
4.1249301781
11
20.3840411323
21
-14.0024354181
31
4.1256892262
11
20.3680603924
21
-13.9831277095
31
4.1265869532
0
SPLINE
5
2CD
100
AcDbEntity
8
ASSI
100
AcDbSpline
62
9
6
CONTINUOUS
70
0
71
3
72
18
73
14
74
12
42
0.0000001000
43
0.0000001000
44
0.0000000001
12
3.4263202998
22
7.0496615338
32
0.2818916286
13
-3.3790716151
23
-6.3667188102
33
-0.2984718419
40
0.0000000000
40
0.0000000000
40
0.0000000000
40
0.0000000000
40
0.0704225352
40
0.1408450704
40
0.2112676056
40
0.2816901408
40
0.3521126761
40
0.4225352113
40
0.5633802817
40
0.7042253521
40
0.8450704225
40
0.9859154930
40
1.0000000000
40
1.0000000000
40
1.0000000000
40
1.0000000000
10
24.0408135925
20
-12.0448363152
30
4.2103687777
10
24.1212436465
20
-11.8793513027
30
4.2169859520
10
24.3085813364
20
-11.5908488419
30
4.2282625997
10
24.6721535513
20
-11.2329099718
30
4.2417901069
10
25.1127206153
20
-10.9615538454
30
4.2517518173
10
25.5985629950
20
-10.7970552982
30
4.2576685917
10
26.1068620354
20
-10.7442656672
30
4.2595491608
10
26.7823018673
20
-10.8248957113
30
4.2566727810
10
27.5612875872
20
-11.2038158457
30
4.2430418239
10
28.2090435039
20
-12.0176144074
30
4.2119502201
10
28.4429783001
20
-13.0325776641
30
4.1698567423
10
28.2838402485
20
-13.7442404830
30
4.1377612117
10
28.1167174485
20
-14.0769701921
30
4.1222138917
10
28.1008532625
20
-14.1068608907
30
4.1208126155
11
24.0408135925
21
-12.0448363152
31
4.2103687777
11
24.3223422831
21
-11.6033179787
31
4.2276980223
11
24.6849860262
21
-11.2473404290
31
4.2411958075
11
25.1202665012
21
-10.9793634419
31
4.2510776613
11
25.6023057718
21
-10.8156734509
31
4.2569958908
11
26.1065755077
21
-10.7631426946
31
4.2588761851
11
26.6090876380
21
-10.8232803722
31
4.2567228438
11
27.5134497627
21
-11.2636649125
31
4.2405860813
11
28.1400733171
21
-12.0511418566
31
4.2101165744
11
28.3660991551
21
-13.0328606497
31
4.1692305290
11
28.1464111413
21
-14.0161429222
31
4.1250511286
11
28.1008532625
21
-14.1068608907
31
4.1208126155
0
SPLINE
5
2CE
100
AcDbEntity
8
ASSI
100
AcDbSpline
62
9
6
CONTINUOUS
70
0
71
3
72
32
73
28
74
26
42
0.0000001000
43
0.0000001000
44
0.0000000001
12
1.3383383330
22
0.0000000000
32
0.0000000000
13
-1.2755497755
23
0.0000000000
33
0.0000000000
40
0.0000000000
40
0.0000000000
40
0.0000000000
40
0.0000000000
40
0.0250000000
40
0.0500000000
40
0.0750000000
40
0.1000000000
40
0.1500000000
40
0.1750000000
40
0.2000000000
40
0.2500000000
40
0.3000000000
40
0.3500000000
40
0.4000000000
40
0.5000000000
40
0.5500000000
40
0.6000000000
40
0.6250000000
40
0.6500000000
40
0.7000000000
40
0.7500000000
40
0.8000000000
40
0.8500000000
40
0.9000000000
40
0.9250000000
40
0.9500000000
40
0.9750000000
40
1.0000000000
40
1.0000000000
40
1.0000000000
40
1.0000000000
10
26.8193071164
20
-12.6706603152
30
4.1846900734
10
26.8304599358
20
-12.6706603152
30
4.1846900734
10
26.8505293008
20
-12.6715560393
30
4.1846523858
10
26.8815191565
20
-12.6754393068
30
4.1844889625
10
26.9111398807
20
-12.6817072210
30
4.1842250770
10
26.9493916140
20
-12.6930494362
30
4.1837472743
10
26.9853012176
20
-12.7085737411
30
4.1830926286
10
27.0187490153
20
-12.7278957125
30
4.1822764266
10
27.0503352638
20
-12.7495351824
30
4.1813612172
10
27.0873946629
20
-12.7817341969
30
4.1799967946
10
27.1262669432
20
-12.8283186613
30
4.1780161313
10
27.1570096377
20
-12.8807328832
30
4.1757786628
10
27.1851720038
20
-12.9527654481
30
4.1726908927
10
27.1965058180
20
-13.0311229363
30
4.1693104704
10
27.1886385654
20
-13.1106920950
30
4.1658531625
10
27.1764313220
20
-13.1571956128
30
4.1638234860
10
27.1627497402
20
-13.1925750205
30
4.1622746715
10
27.1459596647
20
-13.2277032858
30
4.1607337524
10
27.1194657933
20
-13.2696152203
30
4.1588896506
10
27.0800042305
20
-13.3142237162
30
4.1569196895
10
27.0356800191
20
-13.3507564543
30
4.1553013611
10
26.9877872208
20
-13.3794727503
30
4.1540261889
10
26.9440715591
20
-13.3975120834
30
4.1532236194
10
26.9071853847
20
-13.4079447774
30
4.1527590507
10
26.8787391686
20
-13.4136890056
30
4.1525031286
10
26.8490943116
20
-13.4172320547
30
4.1523452200
10
26.8299366978
20
-13.4180463152
30
4.1523089230
10
26.8193071164
20
-13.4180463152
30
4.1523089230
11
26.8193071164
21
-12.6706603152
31
4.1846900734
11
26.8506769355
21
-12.6719793195
31
4.1846345705
11
26.8812909679
21
-12.6758367479
31
4.1844722188
11
26.9109845600
21
-12.6820803455
31
4.1842093326
11
26.9396335032
21
-12.6905623899
31
4.1838519881
11
26.9934580165
21
-12.7137207061
31
4.1828751151
11
27.0185163217
21
-12.7281853998
31
4.1822640507
11
27.0422771409
21
-12.7444686267
31
4.1815753255
11
27.0864614965
21
-12.7830584714
31
4.1799395686
11
27.1249120122
21
-12.8292902875
31
4.1779733304
11
27.1554061510
21
-12.8810012502
31
4.1757656029
11
27.1767290329
21
-12.9352843838
31
4.1734384475
11
27.1929389159
21
-13.0511161985
31
4.1684397363
11
27.1871805233
21
-13.1100466537
31
4.1658793907
11
27.1726846110
21
-13.1658885141
31
4.1634425263
11
27.1623611785
21
-13.1925436277
31
4.1622756584
11
27.1497900984
21
-13.2187879930
31
4.1611244520
11
27.1181876404
21
-13.2686675827
31
4.1589301441
11
27.0791937891
21
-13.3128777566
31
4.1569782950
11
27.0350852546
21
-13.3494537140
31
4.1553585538
11
26.9870262215
21
-13.3782945676
31
4.1540782037
11
26.9346905451
21
-13.3997870258
31
4.1531222678
11
26.9070551205
21
-13.4075980620
31
4.1527744681
11
26.8785393951
21
-13.4133221424
31
4.1525194642
11
26.8492457176
21
-13.4168451117
31
4.1523624639
11
26.8193071164
21
-13.4180463152
31
4.1523089230
0
SPLINE
5
2CF
100
AcDbEntity
8
ASSI
100
AcDbSpline
62
9
6
CONTINUOUS
70
0
71
3
72
32
73
28
74
26
42
0.0000001000
43
0.0000001000
44
0.0000000001
12
-1.3382869353
22
0.0000000000
32
0.0000000000
13
1.2755746765
23
0.0000000000
33
0.0000000000
40
0.0000000000
40
0.0000000000
40
0.0000000000
40
0.0000000000
40
0.0250000000
40
0.0500000000
40
0.0750000000
40
0.1000000000
40
0.1500000000
40
0.1750000000
40
0.2000000000
40
0.2500000000
40
0.3000000000
40
0.3500000000
40
0.4000000000
40
0.5000000000
40
0.5500000000
40
0.6000000000
40
0.6250000000
40
0.6500000000
40
0.7000000000
40
0.7500000000
40
0.8000000000
40
0.8500000000
40
0.9000000000
40
0.9250000000
40
0.9500000000
40
0.9750000000
40
1.0000000000
40
1.0000000000
40
1.0000000000
40
1.0000000000
10
26.8193071164
20
-13.4180463152
30
4.1523089230
10
26.8081547252
20
-13.4180463152
30
4.1523089230
10
26.7880861621
20
-13.4171506640
30
4.1523488484
10
26.7570973240
20
-13.4132676751
30
4.1525219051
10
26.7274774763
20
-13.4070001759
30
4.1528011276
10
26.6892267453
20
-13.3956586659
30
4.1533061176
10
26.6533179291
20
-13.3801352686
30
4.1539966414
10
26.6198706690
20
-13.3608143309
30
4.1548546778
10
26.5882848309
20
-13.3391759904
30
4.1558145180
10
26.5512252100
20
-13.3069781738
30
4.1572401453
10
26.5123518121
20
-13.2603944348
30
4.1592960768
10
26.4816078330
20
-13.2079804656
30
4.1616003813
10
26.4534441290
20
-13.1359485568
30
4.1647543286
10
26.4421087644
20
-13.0575923711
30
4.1681636594
10
26.4499741182
20
-12.9780230563
30
4.1716011618
10
26.4621804296
20
-12.9315187875
30
4.1736011273
10
26.4758614868
20
-12.8961385471
30
4.1751180353
10
26.4926511031
20
-12.8610094672
30
4.1766210762
10
26.5191446243
20
-12.8190964069
30
4.1784087650
10
26.5586062040
20
-12.7744864983
30
4.1803042697
10
26.6029309445
20
-12.7379524044
30
4.1818516265
10
26.6508245630
20
-12.7092350498
30
4.1830648187
10
26.6945408558
20
-12.6911951624
30
4.1838254143
10
26.7314275252
20
-12.6807621622
30
4.1842648708
10
26.7598741186
20
-12.6750177657
30
4.1845067040
10
26.7895194073
20
-12.6714746057
30
4.1846558119
10
26.8086773274
20
-12.6706603152
30
4.1846900734
10
26.8193071164
20
-12.6706603152
30
4.1846900734
11
26.8193071164
21
-13.4180463152
31
4.1523089230
11
26.7879384965
21
-13.4167274120
31
4.1523677098
11
26.7573254891
21
-13.4128702567
31
4.1525395994
11
26.7276327762
21
-13.4066270703
31
4.1528177143
11
26.6989845876
21
-13.3981455528
31
4.1531953313
11
26.6451612438
21
-13.3749885724
31
4.1542251099
11
26.6201033467
21
-13.3605246555
31
4.1548674033
11
26.5963428022
21
-13.3442422495
31
4.1555896131
11
26.5521582346
21
-13.3056537806
31
4.1572976751
11
26.5137067152
21
-13.2594227298
31
4.1593374723
11
26.4832113665
21
-13.2077121386
31
4.1616105739
11
26.4618874166
21
-13.1534295110
31
4.1639871237
11
26.4456751627
21
-13.0375989483
31
4.1690253827
11
26.4514322113
21
-12.9786683669
31
4.1715714671
11
26.4659270279
21
-12.9228256586
31
4.1739734323
11
26.4762500567
21
-12.8961699421
31
4.1751163019
11
26.4888207991
21
-12.8699249565
31
4.1762392418
11
26.5204228500
21
-12.8200440342
31
4.1783671447
11
26.5594167308
21
-12.7758324674
31
4.1802462450
11
26.6035257575
21
-12.7392551943
31
4.1817959324
11
26.6515855518
21
-12.7104132981
31
4.1830147391
11
26.7039219928
21
-12.6889201549
31
4.1839211934
11
26.7315577905
21
-12.6811088878
31
4.1842502443
11
26.7600739012
21
-12.6753846384
31
4.1844912498
11
26.7893680058
21
-12.6718615598
31
4.1846395260
11
26.8193071164
21
-12.6706603152
31
4.1846900734
0
SPLINE
5
2D0
100
AcDbEntity
8
ASSI
100
AcDbSpline
62
9
6
CONTINUOUS
70
0
71
3
72
13
73
9
74
7
42
0.0000001000
43
0.0000001000
44
0.0000000001
12
0.0886281727
22
0.1265749483
32
0.0050893801
13
0.1544165909
23
0.0000000000
33
0.0000000000
40
0.0000000000
40
0.0000000000
40
0.0000000000
40
0.0000000000
40
0.1666666667
40
0.3333333333
40
0.5000000000
40
0.6666666667
40
0.8333333333
40
1.0000000000
40
1.0000000000
40
1.0000000000
40
1.0000000000
10
20.3680596221
20
-12.1112632513
30
4.2077052243
10
20.3729834095
20
-12.1042313097
30
4.2079879677
10
20.3835814261
20
-12.0915001588
30
4.2084993873
10
20.4022217940
20
-12.0751461393
30
4.2091553816
10
20.4234367115
20
-12.0618363905
30
4.2096885943
10
20.4465071027
20
-12.0520972369
30
4.2100783832
10
20.4705877711
20
-12.0462135605
30
4.2103137106
10
20.4870854169
20
-12.0448363152
30
4.2103687777
10
20.4956641164
20
-12.0448363152
30
4.2103687777
11
20.3680596221
21
-12.1112632513
31
4.2077052243
11
20.3840386499
21
-12.0919572766
31
4.2084808648
11
20.4026508856
21
-12.0756535177
31
4.2091349180
11
20.4237459571
21
-12.0624314897
31
4.2096646903
11
20.4466754823
21
-12.0527398164
31
4.2100526396
11
20.4706987378
21
-12.0468498619
31
4.2102882561
11
20.4956641164
21
-12.0448363152
31
4.2103687777
0
SPLINE
5
2D1
100
AcDbEntity
8
ASSI
100
AcDbSpline
62
9
6
CONTINUOUS
70
0
71
3
72
35
73
31
74
29
42
0.0000001000
43
0.0000001000
44
0.0000000001
12
1.8180531318
22
0.0000000000
32
0.0000000000
13
-1.8166822720
23
0.0000000000
33
0.0000000000
40
0.0000000000
40
0.0000000000
40
0.0000000000
40
0.0000000000
40
0.0250000000
40
0.0500000000
40
0.0750000000
40
0.1000000000
40
0.1500000000
40
0.1750000000
40
0.2000000000
40
0.2500000000
40
0.3000000000
40
0.3500000000
40
0.3750000000
40
0.4000000000
40
0.4500000000
40
0.5000000000
40
0.5500000000
40
0.6000000000
40
0.6250000000
40
0.6500000000
40
0.7000000000
40
0.7500000000
40
0.8000000000
40
0.8250000000
40
0.8500000000
40
0.9000000000
40
0.9250000000
40
0.9500000000
40
0.9750000000
40
1.0000000000
40
1.0000000000
40
1.0000000000
40
1.0000000000
10
26.8193071164
20
-12.5257983152
30
4.1907504056
10
26.8344575591
20
-12.5257983152
30
4.1907504056
10
26.8617628354
20
-12.5269910679
30
4.1907007986
10
26.9039368606
20
-12.5321693045
30
4.1904853725
10
26.9443129616
20
-12.5405398704
30
4.1901369480
10
26.9965414863
20
-12.5557120603
30
4.1895048985
10
27.0457271461
20
-12.5765310231
30
4.1886364159
10
27.0917053063
20
-12.6025213562
30
4.1875496523
10
27.1352468057
20
-12.6316919133
30
4.1863278896
10
27.1865029702
20
-12.6751476662
30
4.1845030825
10
27.2406409380
20
-12.7382572178
30
4.1818406909
10
27.2766560792
20
-12.7972931282
30
4.1793366933
10
27.2992438089
20
-12.8466281338
30
4.1772348752
10
27.3174728633
20
-12.8962162984
30
4.1751161414
10
27.3333445847
20
-12.9613038996
30
4.1723231303
10
27.3401099343
20
-13.0442140216
30
4.1687427741
10
27.3333882674
20
-13.1271363928
30
4.1651383741
10
27.3175454620
20
-13.1922507294
30
4.1622903214
10
27.2993250675
20
-13.2418837554
30
4.1601102207
10
27.2767293154
20
-13.2912847647
30
4.1579341960
10
27.2406719744
20
-13.3504189796
30
4.1553182958
10
27.1864482903
20
-13.4136210567
30
4.1525080073
10
27.1351364091
20
-13.4571001124
30
4.1505662356
10
27.0915791501
20
-13.4862631071
30
4.1492606433
10
27.0455925047
20
-13.5122406215
30
4.1480958614
10
26.9964157396
20
-13.5330388596
30
4.1471612663
10
26.9442124992
20
-13.5481909665
30
4.1464795167
10
26.9038636218
20
-13.5565485897
30
4.1461031968
10
26.8617219896
20
-13.5617178448
30
4.1458703225
10
26.8344461353
20
-13.5629083152
30
4.1458166779
10
26.8193071164
20
-13.5629083152
30
4.1458166779
11
26.8193071164
21
-12.5257983152
31
4.1907504056
11
26.8619655205
21
-12.5275559192
31
4.1906772960
11
26.9036372066
21
-12.5327013594
31
4.1904632061
11
26.9441121770
21
-12.5410412998
31
4.1901160126
11
26.9832307830
21
-12.5523895772
31
4.1896432081
11
27.0569543945
21
-12.5834595539
31
4.1883465349
11
27.0914007237
21
-12.6029188842
31
4.1875327774
11
27.1241500502
21
-12.6248654445
31
4.1866134901
11
27.1852747319
21
-12.6769747742
31
4.1844243120
11
27.2388209716
21
-12.7395461413
31
4.1817836233
11
27.2817843130
21
-12.8098024027
31
4.1788030205
11
27.2986989745
21
-12.8466597787
31
4.1772327607
11
27.3124546266
21
-12.8840260836
31
4.1756361853
11
27.3312977987
21
-12.9621047330
31
4.1722850065
11
27.3378620982
21
-13.0442160631
31
4.1687387668
11
27.3313399841
21
-13.1263388649
31
4.1651694969
11
27.3125281842
21
-13.2044541156
31
4.1617534913
11
27.2987781478
21
-13.2418547533
31
4.1601107302
11
27.2818574101
21
-13.2787600426
31
4.1584851442
11
27.2388461619
21
-13.3491258161
31
4.1553730944
11
27.1852231947
21
-13.4117831883
31
4.1525880343
11
27.1240381149
21
-13.4639225069
31
4.1502604896
11
27.0912754768
21
-13.4858649220
31
4.1492782446
11
27.0568233227
21
-13.5053146365
31
4.1484062391
11
26.9831127232
21
-13.5363563754
31
4.1470118994
11
26.9440130914
21
-13.5476898903
31
4.1465020155
11
26.9035648293
21
-13.5560171950
31
4.1461271044
11
26.8619266314
21
-13.5611539199
31
4.1458957237
11
26.8193071164
21
-13.5629083152
31
4.1458166779
0
SPLINE
5
2D2
100
AcDbEntity
8
ASSI
100
AcDbSpline
62
9
6
CONTINUOUS
70
0
71
3
72
35
73
31
74
29
42
0.0000001000
43
0.0000001000
44
0.0000000001
12
-1.8179637909
22
0.0000000000
32
0.0000000000
13
1.8167475622
23
0.0000000000
33
0.0000000000
40
0.0000000000
40
0.0000000000
40
0.0000000000
40
0.0000000000
40
0.0250000000
40
0.0500000000
40
0.0750000000
40
0.1000000000
40
0.1500000000
40
0.1750000000
40
0.2000000000
40
0.2500000000
40
0.3000000000
40
0.3500000000
40
0.3750000000
40
0.4000000000
40
0.4500000000
40
0.5000000000
40
0.5500000000
40
0.6000000000
40
0.6250000000
40
0.6500000000
40
0.7000000000
40
0.7500000000
40
0.8000000000
40
0.8250000000
40
0.8500000000
40
0.9000000000
40
0.9250000000
40
0.9500000000
40
0.9750000000
40
1.0000000000
40
1.0000000000
40
1.0000000000
40
1.0000000000
10
26.8193071164
20
-13.5629083152
30
4.1458166779
10
26.8041574181
20
-13.5629083152
30
4.1458166779
10
26.7768534627
20
-13.5617156828
30
4.1458704200
10
26.7346811778
20
-13.5565379081
30
4.1461036780
10
26.6943065841
20
-13.5481680363
30
4.1464805490
10
26.6420798336
20
-13.5329970429
30
4.1471631469
10
26.5928956520
20
-13.5121796584
30
4.1480985985
10
26.5469186240
20
-13.4861912091
30
4.1492638646
10
26.5033780630
20
-13.4570227558
30
4.1505696940
10
26.4521220052
20
-13.4135695452
30
4.1525102985
10
26.3979826852
20
-13.3504622906
30
4.1553163663
10
26.3619658973
20
-13.2914278088
30
4.1579278751
10
26.3393767562
20
-13.2420938406
30
4.1601009781
10
26.3211463332
20
-13.1925069038
30
4.1622790929
10
26.3052725730
20
-13.1274206479
30
4.1651259778
10
26.2985042842
20
-13.0445108049
30
4.1687299157
10
26.3052231278
20
-12.9615874675
30
4.1723109251
10
26.3210641287
20
-12.8964713696
30
4.1751052192
10
26.3392833950
20
-12.8468368539
30
4.1772259718
10
26.3618780512
20
-12.7974345166
30
4.1793306895
10
26.3979342607
20
-12.7382985566
30
4.1818389509
10
26.4521572799
20
-12.6750940549
30
4.1845053432
10
26.5034696307
20
-12.6316126890
30
4.1863312127
10
26.5470278620
20
-12.6024479334
30
4.1875527249
10
26.5930155607
20
-12.5764689118
30
4.1886390093
10
26.6421935161
20
-12.5556695029
30
4.1895066724
10
26.6943980411
20
-12.5405165499
30
4.1901379190
10
26.7347479628
20
-12.5321584457
30
4.1904858243
10
26.7768907972
20
-12.5269888709
30
4.1907008900
10
26.8041675533
20
-12.5257983152
30
4.1907504056
10
26.8193071164
20
-12.5257983152
30
4.1907504056
11
26.8193071164
21
-13.5629083152
31
4.1458166779
11
26.7766507374
21
-13.5611508785
31
4.1458958608
11
26.7349807930
21
-13.5560058919
31
4.1461276135
11
26.6945073392
21
-13.5476666408
31
4.1465030619
11
26.6553900686
21
-13.5363192587
31
4.1470135685
11
26.5816686578
21
-13.5052516240
31
4.1484090663
11
26.5472231824
21
-13.4857937086
31
4.1492814350
11
26.5144745128
21
-13.4638486929
31
4.1502637912
11
26.4533499967
21
-13.4117423116
31
4.1525898556
11
26.3998025476
21
-13.3491732700
31
4.1553709901
11
26.3568373028
21
-13.2789187849
31
4.1584781422
11
26.3399215959
21
-13.2420622195
31
4.1601016046
11
26.3261648902
21
-13.2046967990
31
4.1617428469
11
26.3073192769
21
-13.1266195919
31
4.1651572571
11
26.3007521396
21
-13.0445085558
31
4.1687260943
11
26.3072715207
21
-12.9623848042
31
4.1722729490
11
26.3260811508
21
-12.8842676042
31
4.1756258505
11
26.3398303188
21
-12.8468658762
31
4.1772239675
11
26.3567502465
21
-12.8099595650
31
4.1787963344
11
26.3997601887
21
-12.7395916650
31
4.1817816973
11
26.4533825802
21
-12.6769318654
31
4.1844261184
11
26.5145682177
21
-12.6247898615
31
4.1866166588
11
26.5473315454
21
-12.6028461502
31
4.1875358214
11
26.5817844908
21
-12.5833953016
31
4.1883492197
11
26.6554968615
21
-12.5523518026
31
4.1896447827
11
26.6945974624
21
-12.5410176517
31
4.1901169974
11
26.7350467816
21
-12.5326898673
31
4.1904636844
11
26.7766861805
21
-12.5275528278
31
4.1906774246
11
26.8193071164
21
-12.5257983152
31
4.1907504056
0
SPLINE
5
2D3
100
AcDbEntity
8
ASSI
100
AcDbSpline
62
9
6
CONTINUOUS
70
0
71
3
72
27
73
23
74
21
42
0.0000001000
43
0.0000001000
44
0.0000000001
12
2.3133376758
22
0.0000000000
32
0.0000000000
13
-2.2720022439
23
0.0000000000
33
0.0000000000
40
0.0000000000
40
0.0000000000
40
0.0000000000
40
0.0000000000
40
0.0208333333
40
0.0416666667
40
0.0625000000
40
0.0833333333
40
0.1250000000
40
0.1458333333
40
0.1666666667
40
0.2083333333
40
0.2500000000
40
0.3333333333
40
0.4166666667
40
0.5000000000
40
0.5833333333
40
0.6666666667
40
0.7500000000
40
0.8333333333
40
0.8750000000
40
0.9166666667
40
0.9583333333
40
1.0000000000
40
1.0000000000
40
1.0000000000
40
1.0000000000
10
26.8193071164
20
-12.3700213152
30
4.1971891382
10
26.8353719613
20
-12.3700213152
30
4.1971891382
10
26.8650997407
20
-12.3710806802
30
4.1971456299
10
26.9106701672
20
-12.3757201309
30
4.1969550376
10
26.9548394772
20
-12.3832827889
30
4.1966442032
10
27.0125120434
20
-12.3971089006
30
4.1960755133
10
27.0678537104
20
-12.4163159937
30
4.1952844924
10
27.1207033435
20
-12.4406035175
30
4.1942820182
10
27.1716190270
20
-12.4681000253
30
4.1931452982
10
27.2328430352
20
-12.5091738052
30
4.1914430932
10
27.3234957963
20
-12.5894985269
30
4.1880993344
10
27.4130385837
20
-12.7086186758
30
4.1831039413
10
27.4798353191
20
-12.8741274425
30
4.1760762722
10
27.5013046669
20
-13.0507604474
30
4.1684728089
10
27.4766083907
20
-13.2262921647
30
4.1608111734
10
27.4075042912
20
-13.3894184206
30
4.1535966282
10
27.2991601749
20
-13.5291882156
30
4.1473428296
10
27.1801575938
20
-13.6191095186
30
4.1432812573
10
27.0777984872
20
-13.6691028207
30
4.1410134108
10
26.9959323898
20
-13.6971373431
30
4.1397386479
10
26.9089709241
20
-13.7145848768
30
4.1389439250
10
26.8508627031
20
-13.7186853152
30
4.1387569915
10
26.8193071164
20
-13.7186853152
30
4.1387569915
11
26.8193071164
21
-12.3700213152
31
4.1971891382
11
26.8652628669
21
-12.3715890808
31
4.1971247416
11
26.9104366478
21
-12.3762073322
31
4.1969349972
11
26.9546869963
21
-12.3837506099
31
4.1966249227
11
26.9978996603
21
-12.3941007878
31
4.1961991582
11
27.0808584492
21
-12.4228112439
31
4.1950162528
11
27.1204615998
21
-12.4410046405
31
4.1942652375
11
27.1587287330
21
-12.4616727747
31
4.1934107245
11
27.2319298287
21
-12.5109996394
31
4.1913655644
11
27.2992477284
21
-12.5706649629
31
4.1888808945
11
27.4062628155
21
-12.7123794405
31
4.1829317417
11
27.4722807545
21
-12.8759814822
31
4.1759803065
11
27.4936103962
21
-13.0505768994
31
4.1684631135
11
27.4692070868
21
-13.2242245878
31
4.1608856885
11
27.4009642884
21
-13.3855256771
31
4.1537567527
11
27.2934170114
21
-13.5238775104
31
4.1475728149
11
27.1539713970
21
-13.6297791991
31
4.1427960800
11
27.0769490260
21
-13.6675260783
31
4.1410844311
11
26.9950831618
21
-13.6953728450
31
4.1398186546
11
26.9089374465
21
-13.7127020641
31
4.1390296454
11
26.8193071164
21
-13.7186853152
31
4.1387569915
0
SPLINE
5
2D4
100
AcDbEntity
8
ASSI
100
AcDbSpline
62
9
6
CONTINUOUS
70
0
71
3
72
18
73
14
74
12
42
0.0000001000
43
0.0000001000
44
0.0000000001
12
-1.9128389743
22
4.1333845306
32
0.1675279912
13
-1.9279150590
23
-4.6409811325
33
-0.1892569649
40
0.0000000000
40
0.0000000000
40
0.0000000000
40
0.0000000000
40
0.1372549020
40
0.2450980392
40
0.3529411765
40
0.4607843137
40
0.5686274510
40
0.6764705882
40
0.7843137255
40
0.8382352941
40
0.8921568627
40
0.9460784314
40
1.0000000000
40
1.0000000000
40
1.0000000000
40
1.0000000000
10
27.8826085202
20
-12.2123931509
30
4.2036179715
10
27.7950930115
20
-12.0232840547
30
4.2112826508
10
27.5858854236
20
-11.7097943469
30
4.2236743726
10
27.1722016247
20
-11.3633825966
30
4.2368807148
10
26.7266928091
20
-11.1485152806
30
4.2448808883
10
26.2431487820
20
-11.0498628454
30
4.2485006253
10
25.7492212886
20
-11.0730693088
30
4.2476517855
10
25.2755465336
20
-11.2165252063
30
4.2423667953
10
24.9177932331
20
-11.4340653007
30
4.2341998268
10
24.6767449979
20
-11.6510477623
30
4.2258727216
10
24.5144595826
20
-11.8374237248
30
4.2186130707
10
24.3736207593
20
-12.0487221500
30
4.2102393953
10
24.2987667316
20
-12.1988088007
30
4.2041839766
10
24.2641146635
20
-12.2822251282
30
4.2007822991
11
27.8826085202
21
-12.2123931509
31
4.2036179715
11
27.5362968742
21
-11.6950451731
31
4.2241513831
11
27.1611518469
21
-11.3804953947
31
4.2361964414
11
26.7203536072
21
-11.1678844274
31
4.2441508155
11
26.2414182043
21
-11.0701726618
31
4.2477558625
11
25.7525967450
21
-11.0931108811
31
4.2469124271
11
25.2829416660
21
-11.2361239089
31
4.2416142333
11
24.8612940414
21
-11.4918901149
31
4.2319685896
11
24.6798284581
21
-11.6549876150
31
4.2257036680
11
24.5180340146
21
-11.8415774686
31
4.2184274000
11
24.3783803896
21
-12.0510274085
31
4.2101211532
11
24.2641146635
21
-12.2822251282
31
4.2007822991
0
SPLINE
5
2D5
100
AcDbEntity
8
ASSI
100
AcDbSpline
62
9
6
CONTINUOUS
70
0
71
3
72
16
73
12
74
10
42
0.0000001000
43
0.0000001000
44
0.0000000001
12
-2.0846813406
22
-4.3220005948
32
-0.2004397479
13
-2.1295242489
23
4.7788070049
33
0.2207721765
40
0.0000000000
40
0.0000000000
40
0.0000000000
40
0.0000000000
40
0.2000000000
40
0.3000000000
40
0.4000000000
40
0.5000000000
40
0.6000000000
40
0.7000000000
40
0.8000000000
40
0.9000000000
40
1.0000000000
40
1.0000000000
40
1.0000000000
40
1.0000000000
10
27.9997520937
20
-13.9617498648
30
4.1275794790
10
27.8607733377
20
-14.2498832378
30
4.1142168292
10
27.5528551357
20
-14.6336581387
30
4.0957610832
10
27.0065384986
20
-14.9730048295
30
4.0789785175
10
26.5501771590
20
-15.1294976881
30
4.0711306180
10
26.0706807546
20
-15.1797413274
30
4.0685931348
10
25.5911924859
20
-15.1211906358
30
4.0715491830
10
25.1352802126
20
-14.9560014233
30
4.0798270732
10
24.7250604945
20
-14.6892459201
30
4.0929983433
10
24.3908765649
20
-14.3413682225
30
4.1098067333
10
24.2221692580
20
-14.0630508821
30
4.1229051780
10
24.1511851164
20
-13.9037573152
30
4.1302642505
11
27.9997520937
21
-13.9617498648
31
4.1275794790
11
27.4049627236
21
-14.7041320467
31
4.0922175331
11
26.9987678550
21
-14.9566686362
31
4.0797683550
11
26.5463213149
21
-15.1117894848
31
4.0720156874
11
26.0706821106
21
-15.1616089389
31
4.0695087234
11
25.5951218184
21
-15.1034175490
31
4.0724361567
11
25.1428956384
21
-14.9390737082
31
4.0806426365
11
24.7377331259
21
-14.6757255544
31
4.0936045299
11
24.4043970598
21
-14.3297685037
31
4.1102799461
11
24.1511851164
21
-13.9037573152
31
4.1302642505
0
SPLINE
5
2D6
100
AcDbEntity
8
ASSI
100
AcDbSpline
62
9
6
CONTINUOUS
70
0
71
3
72
15
73
11
74
9
42
0.0000001000
43
0.0000001000
44
0.0000000001
12
-2.3320353400
22
-4.3939327000
32
-0.2059876092
13
-2.3980680539
23
4.8501664495
33
0.2264328274
40
0.0000000000
40
0.0000000000
40
0.0000000000
40
0.0000000000
40
0.1836734694
40
0.3877551020
40
0.4897959184
40
0.5918367347
40
0.6938775510
40
0.7959183673
40
0.8979591837
40
1.0000000000
40
1.0000000000
40
1.0000000000
40
1.0000000000
10
28.1008532625
20
-14.1068608907
30
4.1208126155
10
27.9580755886
20
-14.3758771785
30
4.1082011292
10
27.5418801412
20
-14.8826753520
30
4.0836487971
10
26.7965481138
20
-15.2510949993
30
4.0649937120
10
26.1219300351
20
-15.3360870616
30
4.0606629104
10
25.6135177556
20
-15.2866825784
30
4.0631831439
10
25.1267597052
20
-15.1255035886
30
4.0713515706
10
24.6844931818
20
-14.8572223596
30
4.0847513056
10
24.3185040249
20
-14.5017958442
30
4.1021218849
10
24.1291720570
20
-14.2145259632
30
4.1157913675
10
24.0476051164
20
-14.0495543152
30
4.1234931644
11
28.1008532625
21
-14.1068608907
31
4.1208126155
11
27.5247752340
21
-14.8077310100
31
4.0871362649
11
26.6234345895
21
-15.2538409890
31
4.0648456035
11
26.1215219150
21
-15.3172289733
31
4.0616242995
11
25.6171267938
21
-15.2680534940
31
4.0641245094
11
25.1341749597
21
-15.1076532154
31
4.0722234553
11
24.6972060762
21
-14.8426981452
31
4.0854131130
11
24.3321692257
21
-14.4892161265
31
4.1026441590
11
24.0476051164
21
-14.0495543152
31
4.1234931644
0
SPLINE
5
2D7
100
AcDbEntity
8
0
100
AcDbSpline
62
0
6
CONTINUOUS
70
0
71
3
72
15
73
11
74
9
42
0.0000001000
43
0.0000001000
44
0.0000000001
12
-1.2544455271
22
0.0000000000
32
0.0000000000
13
-0.0000000000
23
1.2544455271
33
0.0000000000
40
0.0000000000
40
0.0000000000
40
0.0000000000
40
0.0000000000
40
0.1249999808
40
0.2499998108
40
0.3750000468
40
0.5000001769
40
0.6250002546
40
0.7500003661
40
0.8750000750
40
1.0000000000
40
1.0000000000
40
1.0000000000
40
1.0000000000
10
13.9449102725
20
-21.9044553152
30
0.0000000000
10
13.8926417169
20
-21.9044553152
30
0.0000000000
10
13.7878150340
20
-21.8941458820
30
0.0000000000
10
13.6368409487
20
-21.8483418586
30
0.0000000000
10
13.4976425284
20
-21.7739539246
30
0.0000000000
10
13.3756501768
20
-21.6738369685
30
0.0000000000
10
13.2755333174
20
-21.5518446063
30
0.0000000000
10
13.2011454960
20
-21.4126462704
30
0.0000000000
10
13.1553415377
20
-21.2616722999
30
0.0000000000
10
13.1450321164
20
-21.1568456914
30
0.0000000000
10
13.1450321164
20
-21.1045771591
30
0.0000000000
11
13.9449102725
21
-21.9044553152
31
0.0000000000
11
13.7888593174
21
-21.8890892308
31
0.0000000000
11
13.6388037261
21
-21.8435779429
31
0.0000000000
11
13.5005101857
21
-21.7696657366
31
0.0000000000
11
13.3792960698
21
-21.6701910465
31
0.0000000000
11
13.2798214839
21
-21.5489769300
31
0.0000000000
11
13.2059094034
21
-21.4106834995
31
0.0000000000
11
13.1603981871
21
-21.2606280452
31
0.0000000000
11
13.1450321164
21
-21.1045771591
31
0.0000000000
0
SPLINE
5
2D8
100
AcDbEntity
8
0
100
AcDbSpline
62
0
6
CONTINUOUS
70
0
71
3
72
15
73
11
74
9
42
0.0000001000
43
0.0000001000
44
0.0000000001
12
0.0000000000
22
1.2544455271
32
0.0000000000
13
1.2544455271
23
0.0000000000
33
0.0000000000
40
0.0000000000
40
0.0000000000
40
0.0000000000
40
0.0000000000
40
0.1249999808
40
0.2499998108
40
0.3750000468
40
0.5000001769
40
0.6250002546
40
0.7500003661
40
0.8750000750
40
1.0000000000
40
1.0000000000
40
1.0000000000
40
1.0000000000
10
13.1450321164
20
20.9956665286
30
0.0000000000
10
13.1450321164
20
21.0479350842
30
0.0000000000
10
13.1553415496
20
21.1527617671
30
0.0000000000
10
13.2011455730
20
21.3037358524
30
0.0000000000
10
13.2755335070
20
21.4429342727
30
0.0000000000
10
13.3756504632
20
21.5649266244
30
0.0000000000
10
13.4976428253
20
21.6650434837
30
0.0000000000
10
13.6368411612
20
21.7394313051
30
0.0000000000
10
13.7878151317
20
21.7852352635
30
0.0000000000
10
13.8926417402
20
21.7955446848
30
0.0000000000
10
13.9449102725
20
21.7955446848
30
0.0000000000
11
13.1450321164
21
20.9956665286
31
0.0000000000
11
13.1603982008
21
21.1517174837
31
0.0000000000
11
13.2059094887
21
21.3017730750
31
0.0000000000
11
13.2798216950
21
21.4400666154
31
0.0000000000
11
13.3792963851
21
21.5612807313
31
0.0000000000
11
13.5005105016
21
21.6607553172
31
0.0000000000
11
13.6388039321
21
21.7346673977
31
0.0000000000
11
13.7888593864
21
21.7801786141
31
0.0000000000
11
13.9449102725
21
21.7955446848
31
0.0000000000
0
SPLINE
5
2D9
100
AcDbEntity
8
0
100
AcDbSpline
62
0
6
CONTINUOUS
70
0
71
3
72
15
73
11
74
9
42
0.0000001000
43
0.0000001000
44
0.0000000001
12
0.0000000000
22
-1.2544455271
32
0.0000000000
13
-1.2544455271
23
0.0000000000
33
0.0000000000
40
0.0000000000
40
0.0000000000
40
0.0000000000
40
0.0000000000
40
0.1249999808
40
0.2499998108
40
0.3750000468
40
0.5000001769
40
0.6250002546
40
0.7500003661
40
0.8750000750
40
1.0000000000
40
1.0000000000
40
1.0000000000
40
1.0000000000
10
35.3450321164
20
-21.1045771591
30
0.0000000000
10
35.3450321164
20
-21.1568457147
30
0.0000000000
10
35.3347226831
20
-21.2616723976
30
0.0000000000
10
35.2889186597
20
-21.4126464829
30
0.0000000000
10
35.2145307258
20
-21.5518449032
30
0.0000000000
10
35.1144137696
20
-21.6738372549
30
0.0000000000
10
34.9924214074
20
-21.7739541142
30
0.0000000000
10
34.8532230715
20
-21.8483419356
30
0.0000000000
10
34.7022491010
20
-21.8941458940
30
0.0000000000
10
34.5974224925
20
-21.9044553152
30
0.0000000000
10
34.5451539602
20
-21.9044553152
30
0.0000000000
11
35.3450321164
21
-21.1045771591
31
0.0000000000
11
35.3296660320
21
-21.2606281142
31
0.0000000000
11
35.2841547440
21
-21.4106837055
31
0.0000000000
11
35.2102425377
21
-21.5489772459
31
0.0000000000
11
35.1107678476
21
-21.6701913618
31
0.0000000000
11
34.9895537311
21
-21.7696659477
31
0.0000000000
11
34.8512603006
21
-21.8435780282
31
0.0000000000
11
34.7012048463
21
-21.8890892446
31
0.0000000000
11
34.5451539602
21
-21.9044553152
31
0.0000000000
0
SPLINE
5
2DA
100
AcDbEntity
8
0
100
AcDbSpline
62
0
6
CONTINUOUS
70
0
71
3
72
15
73
11
74
9
42
0.0000001000
43
0.0000001000
44
0.0000000001
12
1.2544455271
22
0.0000000000
32
0.0000000000
13
0.0000000000
23
-1.2544455271
33
0.0000000000
40
0.0000000000
40
0.0000000000
40
0.0000000000
40
0.0000000000
40
0.1249999808
40
0.2499998108
40
0.3750000468
40
0.5000001769
40
0.6250002546
40
0.7500003661
40
0.8750000750
40
1.0000000000
40
1.0000000000
40
1.0000000000
40
1.0000000000
10
34.5451539602
20
21.7955446848
30
0.0000000000
10
34.5974225158
20
21.7955446848
30
0.0000000000
10
34.7022491987
20
21.7852352515
30
0.0000000000
10
34.8532232841
20
21.7394312281
30
0.0000000000
10
34.9924217044
20
21.6650432941
30
0.0000000000
10
35.1144140560
20
21.5649263380
30
0.0000000000
10
35.2145309153
20
21.4429339758
30
0.0000000000
10
35.2889187367
20
21.3037356399
30
0.0000000000
10
35.3347226951
20
21.1527616694
30
0.0000000000
10
35.3450321164
20
21.0479350609
30
0.0000000000
10
35.3450321164
20
20.9956665286
30
0.0000000000
11
34.5451539602
21
21.7955446848
31
0.0000000000
11
34.7012049153
21
21.7801786003
31
0.0000000000
11
34.8512605066
21
21.7346673124
31
0.0000000000
11
34.9895540470
21
21.6607551061
31
0.0000000000
11
35.1107681629
21
21.5612804160
31
0.0000000000
11
35.2102427488
21
21.4400662995
31
0.0000000000
11
35.2841548293
21
21.3017728690
31
0.0000000000
11
35.3296660457
21
21.1517174147
31
0.0000000000
11
35.3450321164
21
20.9956665286
31
0.0000000000
0
SPLINE
5
2DB
100
AcDbEntity
8
0
100
AcDbSpline
62
0
6
CONTINUOUS
70
0
71
3
72
9
73
5
74
3
42
0.0000001000
43
0.0000001000
44
0.0000000001
12
-0.1640754144
22
-0.0000000000
32
0.0000000000
13
-0.1206074876
23
-0.1136404124
33
0.0000000000
40
0.0000000000
40
0.0000000000
40
0.0000000000
40
0.0000000000
40
0.6895413300
40
1.0000000000
40
1.0000000000
40
1.0000000000
40
1.0000000000
10
30.3189768675
20
-11.0509133336
30
0.0000000000
10
30.2812646077
20
-11.0509133336
30
0.0000000000
10
30.2253562530
20
-11.0645378366
30
0.0000000000
10
30.1803585139
20
-11.0974545984
30
0.0000000000
10
30.1678773005
20
-11.1092148155
30
0.0000000000
11
30.3189768675
21
-11.0509133336
31
0.0000000000
11
30.2093500055
21
-11.0788754866
31
0.0000000000
11
30.1678773005
21
-11.1092148155
31
0.0000000000
0
SPLINE
5
2DC
100
AcDbEntity
8
0
100
AcDbSpline
62
0
6
CONTINUOUS
70
0
71
3
72
9
73
5
74
3
42
0.0000001000
43
0.0000001000
44
0.0000000001
12
0.0908812796
22
-0.0855955503
32
0.0000000000
13
0.1230577632
23
-0.0218997218
33
0.0000000000
40
0.0000000000
40
0.0000000000
40
0.0000000000
40
0.0000000000
40
0.4190040314
40
1.0000000000
40
1.0000000000
40
1.0000000000
40
1.0000000000
10
30.1678810507
20
-14.9997026075
30
0.0000000000
10
30.1805742582
20
-15.0116575677
30
0.0000000000
10
30.2145424722
20
-15.0363826649
30
0.0000000000
10
30.2546462063
20
-15.0501382363
30
0.0000000000
10
30.2784782277
20
-15.0543794530
30
0.0000000000
11
30.1678810507
21
-14.9997026075
31
0.0000000000
11
30.2101170742
21
-15.0304515405
31
0.0000000000
11
30.2784782277
21
-15.0543794530
31
0.0000000000
0
SPLINE
5
2DD
100
AcDbEntity
8
0
100
AcDbSpline
62
0
6
CONTINUOUS
70
0
71
3
72
8
73
4
74
2
42
0.0000001000
43
0.0000001000
44
0.0000000001
12
0.0402781617
22
-0.0071680202
32
0.0000000000
13
0.0404654623
23
-0.0000000000
33
0.0000000000
40
0.0000000000
40
0.0000000000
40
0.0000000000
40
0.0000000000
40
1.0000000000
40
1.0000000000
40
1.0000000000
40
1.0000000000
10
30.2784782277
20
-15.0543794530
30
0.0000000000
10
30.2919042816
20
-15.0567687931
30
0.0000000000
10
30.3054991525
20
-15.0579677437
30
0.0000000000
10
30.3189876400
20
-15.0579677437
30
0.0000000000
11
30.2784782277
21
-15.0543794530
31
0.0000000000
11
30.3189876400
21
-15.0579677437
31
0.0000000000
0
SPLINE
5
2DE
100
AcDbEntity
8
0
100
AcDbSpline
62
0
6
CONTINUOUS
70
0
71
3
72
8
73
4
74
2
42
0.0000001000
43
0.0000001000
44
0.0000000001
12
0.0782619225
22
0.0000000000
32
0.0000000000
13
0.0746858741
23
0.0267525005
33
0.0000000000
40
0.0000000000
40
0.0000000000
40
0.0000000000
40
0.0000000000
40
1.0000000000
40
1.0000000000
40
1.0000000000
40
1.0000000000
10
18.1710873652
20
-15.0579972969
30
0.0000000000
10
18.1971746728
20
-15.0579972969
30
0.0000000000
10
18.2236633861
20
-15.0535018345
30
0.0000000000
10
18.2485586774
20
-15.0445843343
30
0.0000000000
11
18.1710873652
21
-15.0579972969
31
0.0000000000
11
18.2485586774
21
-15.0445843343
31
0.0000000000
0
SPLINE
5
2DF
100
AcDbEntity
8
0
100
AcDbSpline
62
0
6
CONTINUOUS
70
0
71
3
72
9
73
5
74
3
42
0.0000001000
43
0.0000001000
44
0.0000000001
12
0.0818923870
22
0.0293338753
32
0.0000000000
13
0.0630792230
23
0.0594353556
33
0.0000000000
40
0.0000000000
40
0.0000000000
40
0.0000000000
40
0.0000000000
40
0.4064029579
40
1.0000000000
40
1.0000000000
40
1.0000000000
40
1.0000000000
10
18.2485586774
20
-15.0445843343
30
0.0000000000
10
18.2596524469
20
-15.0406105431
30
0.0000000000
10
18.2861713390
20
-15.0286719098
30
0.0000000000
10
18.3097057188
20
-15.0114560321
30
0.0000000000
10
18.3221869322
20
-14.9996958150
30
0.0000000000
11
18.2485586774
21
-15.0445843343
31
0.0000000000
11
18.2807142272
21
-15.0300351439
31
0.0000000000
11
18.3221869322
21
-14.9996958150
31
0.0000000000
0
SPLINE
5
2E0
100
AcDbEntity
8
0
100
AcDbSpline
62
0
6
CONTINUOUS
70
0
71
3
72
9
73
5
74
3
42
0.0000001000
43
0.0000001000
44
0.0000000001
12
-0.1206277238
22
0.1136119170
32
0.0000000000
13
-0.1640954658
23
0.0000000000
33
0.0000000000
40
0.0000000000
40
0.0000000000
40
0.0000000000
40
0.0000000000
40
0.3156788617
40
1.0000000000
40
1.0000000000
40
1.0000000000
40
1.0000000000
10
18.3221831820
20
-11.1092080230
30
0.0000000000
10
18.3094899745
20
-11.0972530628
30
0.0000000000
10
18.2644035898
20
-11.0644351689
30
0.0000000000
10
18.2085079248
20
-11.0509428868
30
0.0000000000
10
18.1710765928
20
-11.0509428868
30
0.0000000000
11
18.3221831820
21
-11.1092080230
31
0.0000000000
11
18.2799471585
21
-11.0784590900
31
0.0000000000
11
18.1710765928
21
-11.0509428868
31
0.0000000000
0
SPLINE
5
2E1
100
AcDbEntity
8
0
100
AcDbSpline
62
9
6
CONTINUOUS
70
0
71
3
72
16
73
12
74
10
42
0.0000001000
43
0.0000001000
44
0.0000000001
12
0.0007746232
22
-0.6526670100
32
0.0000000000
13
0.4614529132
23
-0.4615582680
33
0.0000000000
40
0.0000000000
40
0.0000000000
40
0.0000000000
40
0.0000000000
40
0.1204033716
40
0.2522975980
40
0.3894603717
40
0.5249336387
40
0.6515179458
40
0.7626562014
40
0.8534502492
40
0.9214049460
40
1.0000000000
40
1.0000000000
40
1.0000000000
40
1.0000000000
10
35.2328888905
20
-20.3520052842
30
0.0000000000
10
35.2329199796
20
-20.3781997203
30
0.0000000000
10
35.2330382269
20
-20.4330889104
30
0.0000000000
10
35.2334085550
20
-20.5178152725
30
0.0000000000
10
35.2339927409
20
-20.6058301046
30
0.0000000000
10
35.2349075020
20
-20.6926466318
30
0.0000000000
10
35.2357944571
20
-20.7739380336
30
0.0000000000
10
35.2377265271
20
-20.8450682205
30
0.0000000000
10
35.2374168856
20
-20.9046741131
30
0.0000000000
10
35.2441216120
20
-20.9537074634
30
0.0000000000
10
35.2327767390
20
-20.9923190216
30
0.0000000000
10
35.2448660445
20
-21.0044110873
30
0.0000000000
11
35.2328888905
21
-20.3520052842
31
0.0000000000
11
35.2330605481
21
-20.4305884606
31
0.0000000000
11
35.2334354357
21
-20.5166707153
31
0.0000000000
11
35.2340536470
21
-20.6061902610
31
0.0000000000
11
35.2349338423
21
-20.6946048743
31
0.0000000000
11
35.2360673893
21
-20.7772145569
31
0.0000000000
11
35.2374162592
21
-20.8497383382
31
0.0000000000
11
35.2389171835
21
-20.9089776486
31
0.0000000000
11
35.2404915771
21
-20.9533015160
31
0.0000000000
11
35.2448660445
21
-21.0044110873
31
0.0000000000
0
SPLINE
5
2E2
100
AcDbEntity
8
0
100
AcDbSpline
62
9
6
CONTINUOUS
70
0
71
3
72
11
73
7
74
5
42
0.0000001000
43
0.0000001000
44
0.0000000001
12
-0.1999128601
22
0.7789937706
32
0.0000000000
13
-0.8042359999
23
0.0009501350
33
0.0000000000
40
0.0000000000
40
0.0000000000
40
0.0000000000
40
0.0000000000
40
0.0845721315
40
0.3023924119
40
0.6232973344
40
1.0000000000
40
1.0000000000
40
1.0000000000
40
1.0000000000
10
35.2328888905
20
20.2430946537
30
0.0000000000
10
35.2272532050
20
20.2650550415
30
0.0000000000
10
35.1151937680
20
20.2597162976
30
0.0000000000
10
34.9759279997
20
20.2903298916
30
0.0000000000
10
34.7172216174
20
20.2924025121
30
0.0000000000
10
34.5339966827
20
20.2972468688
30
0.0000000000
10
34.4330107344
20
20.2973661749
30
0.0000000000
11
35.2328888905
21
20.2430946537
31
0.0000000000
11
35.1680526995
21
20.2636481113
31
0.0000000000
11
34.9937492111
21
20.2811406121
31
0.0000000000
11
34.7359368503
21
20.2929670573
31
0.0000000000
11
34.4330107344
21
20.2973661749
31
0.0000000000
0
SPLINE
5
2E3
100
AcDbEntity
8
0
100
AcDbSpline
62
9
6
CONTINUOUS
70
0
71
3
72
10
73
6
74
4
42
0.0000001000
43
0.0000001000
44
0.0000000001
12
-0.0481810599
22
-40.5950798001
32
0.0000000000
13
0.0481810144
23
-40.5950798001
33
0.0000000000
40
0.0000000000
40
0.0000000000
40
0.0000000000
40
0.0000000000
40
0.3332187590
40
0.6667828362
40
1.0000000000
40
1.0000000000
40
1.0000000000
40
1.0000000000
10
35.2328888905
20
20.2430946537
30
0.0000000000
10
35.2275372795
20
15.7340806168
30
0.0000000000
10
35.2204114332
20
6.7113751300
30
0.0000000000
10
35.2204114524
20
-6.8203289304
30
0.0000000000
10
35.2275373102
20
-15.8430128322
30
0.0000000000
10
35.2328888905
20
-20.3520052842
30
0.0000000000
11
35.2328888905
21
20.2430946537
31
0.0000000000
11
35.2221947437
21
6.7160472428
31
0.0000000000
11
35.2221947678
21
-6.8250226281
31
0.0000000000
11
35.2328888905
21
-20.3520052842
31
0.0000000000
0
SPLINE
5
2E4
100
AcDbEntity
8
0
100
AcDbSpline
62
9
6
CONTINUOUS
70
0
71
3
72
11
73
7
74
5
42
0.0000001000
43
0.0000001000
44
0.0000000001
12
-0.0003802072
22
1.2482731391
32
0.0000000000
13
-1.2482731391
23
0.0003802072
33
0.0000000000
40
0.0000000000
40
0.0000000000
40
0.0000000000
40
0.0000000000
40
0.2499896498
40
0.4999999322
40
0.7500102498
40
1.0000000000
40
1.0000000000
40
1.0000000000
40
1.0000000000
10
35.2448660445
20
20.8955004568
30
0.0000000000
10
35.2448343619
20
20.9995189118
30
0.0000000000
10
35.2031559082
20
21.2098261432
30
0.0000000000
10
35.0251348346
20
21.4756472985
30
0.0000000000
10
34.7593136756
20
21.6536684475
30
0.0000000000
10
34.5490063851
20
21.6953469303
30
0.0000000000
10
34.4449878884
20
21.6953786129
30
0.0000000000
11
35.2448660445
21
20.8955004568
31
0.0000000000
11
35.1839090608
21
21.2015442542
31
0.0000000000
11
35.0105011005
21
21.4610135468
31
0.0000000000
11
34.7510318038
21
21.6344215803
31
0.0000000000
11
34.4449878884
21
21.6953786129
31
0.0000000000
0
SPLINE
5
2E5
100
AcDbEntity
8
0
100
AcDbSpline
62
9
6
CONTINUOUS
70
0
71
3
72
17
73
13
74
11
42
0.0000001000
43
0.0000001000
44
0.0000000001
12
-0.5913971294
22
-1.2669153490
32
0.0000000000
13
-0.0007742913
23
-1.3981503734
33
0.0000000000
40
0.0000000000
40
0.0000000000
40
0.0000000000
40
0.0000000000
40
0.0353195030
40
0.0826916986
40
0.1531328306
40
0.2462339107
40
0.3589710773
40
0.4860273904
40
0.6206325913
40
0.7555893132
40
0.8840746460
40
1.0000000000
40
1.0000000000
40
1.0000000000
40
1.0000000000
10
34.4449878884
20
21.6953786129
30
0.0000000000
10
34.4380252709
20
21.6804630061
30
0.0000000000
10
34.4449924419
20
21.6395524066
30
0.0000000000
10
34.4387145863
20
21.5695431414
30
0.0000000000
10
34.4393090470
20
21.4706566011
30
0.0000000000
10
34.4370246120
20
21.3421472755
30
0.0000000000
10
34.4360472461
20
21.1869200379
30
0.0000000000
10
34.4348799795
20
21.0124626005
30
0.0000000000
10
34.4340836867
20
20.8276121337
30
0.0000000000
10
34.4334998581
20
20.6421052144
30
0.0000000000
10
34.4331544621
20
20.4653006987
30
0.0000000000
10
34.4330406544
20
20.3513932033
30
0.0000000000
10
34.4330107344
20
20.2973661777
30
0.0000000000
11
34.4449878884
21
21.6953786129
31
0.0000000000
11
34.4420874392
21
21.6460818816
31
0.0000000000
11
34.4404949111
21
21.5798675666
31
0.0000000000
11
34.4389087931
21
21.4813930295
31
0.0000000000
11
34.4374115294
21
21.3512323109
31
0.0000000000
11
34.4360796535
21
21.1936144023
31
0.0000000000
11
34.4349719969
21
21.0159739967
31
0.0000000000
11
34.4341207539
21
20.8277775812
31
0.0000000000
11
34.4335288252
21
20.6390886895
31
0.0000000000
11
34.4331730712
21
20.4594471982
31
0.0000000000
11
34.4330107344
21
20.2973661777
31
0.0000000000
0
SPLINE
5
2E6
100
AcDbEntity
8
0
100
AcDbSpline
62
9
6
CONTINUOUS
70
0
71
3
72
16
73
12
74
10
42
0.0000001000
43
0.0000001000
44
0.0000000001
12
-0.4615153881
22
-0.4614923911
32
0.0000000000
13
-0.0007746788
23
-0.6526646002
33
0.0000000000
40
0.0000000000
40
0.0000000000
40
0.0000000000
40
0.0000000000
40
0.0828584143
40
0.1532898141
40
0.2463626455
40
0.3590669211
40
0.4860968060
40
0.6206853880
40
0.7556310244
40
0.8841020130
40
1.0000000000
40
1.0000000000
40
1.0000000000
40
1.0000000000
10
35.2448660445
20
20.8955004568
30
0.0000000000
10
35.2321192335
20
20.8827542809
30
0.0000000000
10
35.2441753233
20
20.8423301885
30
0.0000000000
10
35.2372628101
20
20.7914189794
30
0.0000000000
10
35.2376107046
20
20.7304251802
30
0.0000000000
10
35.2356929269
20
20.6583609259
30
0.0000000000
10
35.2348284534
20
20.5768260712
30
0.0000000000
10
35.2339427920
20
20.4905865305
30
0.0000000000
10
35.2333830442
20
20.4039918470
30
0.0000000000
10
35.2330314204
20
20.3214728710
30
0.0000000000
10
35.2329188184
20
20.2683088248
30
0.0000000000
10
35.2328888905
20
20.2430946537
30
0.0000000000
11
35.2448660445
21
20.8955004568
31
0.0000000000
11
35.2403735089
21
20.8416085941
31
0.0000000000
11
35.2387875681
21
20.7956678467
31
0.0000000000
11
35.2372903759
21
20.7349409151
31
0.0000000000
11
35.2359584335
21
20.6613948322
31
0.0000000000
11
35.2348506033
21
20.5784942666
31
0.0000000000
11
35.2339991650
21
20.4906571282
31
0.0000000000
11
35.2334070789
21
20.4025848165
31
0.0000000000
11
35.2330512534
21
20.3187370461
31
0.0000000000
11
35.2328888905
21
20.2430946537
31
0.0000000000
0
SPLINE
5
2E7
100
AcDbEntity
8
0
100
AcDbSpline
62
9
6
CONTINUOUS
70
0
71
3
72
8
73
4
74
2
42
0.0000001000
43
0.0000001000
44
0.0000000001
12
0.3650240046
22
-0.0000506723
32
0.0000000000
13
0.3646311591
23
-0.0300147192
33
0.0000000000
40
0.0000000000
40
0.0000000000
40
0.0000000000
40
0.0000000000
40
1.0000000000
40
1.0000000000
40
1.0000000000
40
1.0000000000
10
26.3450321164
20
-8.5899137300
30
0.0000000000
10
26.4667067846
20
-8.5899306207
30
0.0000000000
10
26.5885572297
20
-8.5949646089
30
0.0000000000
10
26.7101009494
20
-8.6049695153
30
0.0000000000
11
26.3450321164
21
-8.5899137300
31
0.0000000000
11
26.7101009494
21
-8.6049695153
31
0.0000000000
0
SPLINE
5
2E8
100
AcDbEntity
8
0
100
AcDbSpline
62
9
6
CONTINUOUS
70
0
71
3
72
11
73
7
74
5
42
0.0000001000
43
0.0000001000
44
0.0000000001
12
3.9899545221
22
-0.3284342586
32
0.0000000000
13
2.2321041913
23
-3.3242417821
33
0.0000000000
40
0.0000000000
40
0.0000000000
40
0.0000000000
40
0.0000000000
40
0.1823889372
40
0.4560343084
40
0.7284408724
40
1.0000000000
40
1.0000000000
40
1.0000000000
40
1.0000000000
10
26.7101009494
20
-8.6049695153
30
0.0000000000
10
26.9526754710
20
-8.6249371071
30
0.0000000000
10
27.5561394487
20
-8.7243692264
30
0.0000000000
10
28.4695720738
20
-9.0772528341
30
0.0000000000
10
29.3686962190
20
-9.7102440285
30
0.0000000000
10
29.8472285910
20
-10.2634090018
30
0.0000000000
10
30.0492780133
20
-10.5643184013
30
0.0000000000
11
26.7101009494
21
-8.6049695153
31
0.0000000000
11
27.4303236883
21
-8.7239047452
31
0.0000000000
11
28.4499714551
21
-9.1175885211
31
0.0000000000
11
29.3396186383
21
-9.7440102645
31
0.0000000000
11
30.0492780133
21
-10.5643184013
31
0.0000000000
0
SPLINE
5
2E9
100
AcDbEntity
8
0
100
AcDbSpline
62
9
6
CONTINUOUS
70
0
71
3
72
8
73
4
74
2
42
0.0000001000
43
0.0000001000
44
0.0000000001
12
0.0775382551
22
-0.1154766469
32
0.0000000000
13
0.0738901231
23
-0.1178467809
33
0.0000000000
40
0.0000000000
40
0.0000000000
40
0.0000000000
40
0.0000000000
40
1.0000000000
40
1.0000000000
40
1.0000000000
40
1.0000000000
10
30.0492780133
20
-10.5643184013
30
0.0000000000
10
30.0751240983
20
-10.6028106169
30
0.0000000000
10
30.1003672890
20
-10.6417079549
30
0.0000000000
10
30.1249973300
20
-10.6809902153
30
0.0000000000
11
30.0492780133
21
-10.5643184013
31
0.0000000000
11
30.1249973300
21
-10.6809902153
31
0.0000000000
0
SPLINE
5
2EA
100
AcDbEntity
8
0
100
AcDbSpline
62
9
6
CONTINUOUS
70
0
71
3
72
8
73
4
74
2
42
0.0000001000
43
0.0000001000
44
0.0000000001
12
0.1194069599
22
-0.1904412287
32
0.0000000000
13
0.1096697610
23
-0.1962167819
33
0.0000000000
40
0.0000000000
40
0.0000000000
40
0.0000000000
40
0.0000000000
40
1.0000000000
40
1.0000000000
40
1.0000000000
40
1.0000000000
10
30.1249973300
20
-10.6809902153
30
0.0000000000
10
30.1647996500
20
-10.7444706248
30
0.0000000000
10
30.2030007428
20
-10.8089562507
30
0.0000000000
10
30.2395573298
20
-10.8743618447
30
0.0000000000
11
30.1249973300
21
-10.6809902153
31
0.0000000000
11
30.2395573298
21
-10.8743618447
31
0.0000000000
0
SPLINE
5
2EB
100
AcDbEntity
8
0
100
AcDbSpline
62
9
6
CONTINUOUS
70
0
71
3
72
8
73
4
74
2
42
0.0000001000
43
0.0000001000
44
0.0000000001
12
0.1777780672
22
-0.3180734591
32
0.0000000000
13
0.1512969996
23
-0.3314887045
33
0.0000000000
40
0.0000000000
40
0.0000000000
40
0.0000000000
40
0.0000000000
40
1.0000000000
40
1.0000000000
40
1.0000000000
40
1.0000000000
10
30.2395573298
20
-10.8743618447
30
0.0000000000
10
30.2988166855
20
-10.9803863311
30
0.0000000000
10
30.3537547059
20
-11.0888282554
30
0.0000000000
10
30.4041870391
20
-11.1993244902
30
0.0000000000
11
30.2395573298
21
-10.8743618447
31
0.0000000000
11
30.4041870391
21
-11.1993244902
31
0.0000000000
0
SPLINE
5
2EC
100
AcDbEntity
8
0
100
AcDbSpline
62
9
6
CONTINUOUS
70
0
71
3
72
8
73
4
74
2
42
0.0000001000
43
0.0000001000
44
0.0000000001
12
0.1510187245
22
-0.3308790093
32
0.0000000000
13
0.1235339467
23
-0.3420761907
33
0.0000000000
40
0.0000000000
40
0.0000000000
40
0.0000000000
40
0.0000000000
40
1.0000000000
40
1.0000000000
40
1.0000000000
40
1.0000000000
10
30.4041870391
20
-11.1993244902
30
0.0000000000
10
30.4545266139
20
-11.3096174934
30
0.0000000000
10
30.5003770607
20
-11.4219572571
30
0.0000000000
10
30.5415550429
20
-11.5359826540
30
0.0000000000
11
30.4041870391
21
-11.1993244902
31
0.0000000000
11
30.5415550429
21
-11.5359826540
31
0.0000000000
0
SPLINE
5
2ED
100
AcDbEntity
8
0
100
AcDbSpline
62
9
6
CONTINUOUS
70
0
71
3
72
10
73
6
74
4
42
0.0000001000
43
0.0000001000
44
0.0000000001
12
0.9859107286
22
-2.7300721415
32
0.0000000000
13
-0.8692152203
23
-2.7694509319
33
0.0000000000
40
0.0000000000
40
0.0000000000
40
0.0000000000
40
0.0000000000
40
0.3740801675
40
0.7507227608
40
1.0000000000
40
1.0000000000
40
1.0000000000
40
1.0000000000
10
30.5415550429
20
-11.5359826540
30
0.0000000000
10
30.6644915931
20
-11.8764046020
30
0.0000000000
10
30.8276286361
20
-12.5897319340
30
0.0000000000
10
30.8086777943
20
-13.5644558912
30
0.0000000000
10
30.6741159065
20
-14.1569659803
30
0.0000000000
10
30.6018907163
20
-14.3870863411
30
0.0000000000
11
30.5415550429
21
-11.5359826540
31
0.0000000000
11
30.7830330157
21
-12.5918707984
31
0.0000000000
11
30.7618351034
21
-13.6822330922
31
0.0000000000
11
30.6018907163
21
-14.3870863411
31
0.0000000000
0
SPLINE
5
2EE
100
AcDbEntity
8
0
100
AcDbSpline
62
9
6
CONTINUOUS
70
0
71
3
72
8
73
4
74
2
42
0.0000001000
43
0.0000001000
44
0.0000000001
12
-0.1084676352
22
-0.3455942630
32
0.0000000000
13
-0.1361760239
23
-0.3356442432
33
0.0000000000
40
0.0000000000
40
0.0000000000
40
0.0000000000
40
0.0000000000
40
1.0000000000
40
1.0000000000
40
1.0000000000
40
1.0000000000
10
30.6018907163
20
-14.3870863411
30
0.0000000000
10
30.5657348379
20
-14.5022844287
30
0.0000000000
10
30.5249090564
20
-14.6160162080
30
0.0000000000
10
30.4795170485
20
-14.7278976224
30
0.0000000000
11
30.6018907163
21
-14.3870863411
31
0.0000000000
11
30.4795170485
21
-14.7278976224
31
0.0000000000
0
SPLINE
5
2EF
100
AcDbEntity
8
0
100
AcDbSpline
62
9
6
CONTINUOUS
70
0
71
3
72
8
73
4
74
2
42
0.0000001000
43
0.0000001000
44
0.0000000001
12
-0.1369167313
22
-0.3374699255
32
0.0000000000
13
-0.1640177991
23
-0.3251802944
33
0.0000000000
40
0.0000000000
40
0.0000000000
40
0.0000000000
40
0.0000000000
40
1.0000000000
40
1.0000000000
40
1.0000000000
40
1.0000000000
10
30.4795170485
20
-14.7278976224
30
0.0000000000
10
30.4338781381
20
-14.8403875976
30
0.0000000000
10
30.3836231916
20
-14.9510070236
30
0.0000000000
10
30.3289505919
20
-15.0594004551
30
0.0000000000
11
30.4795170485
21
-14.7278976224
31
0.0000000000
11
30.3289505919
21
-15.0594004551
31
0.0000000000
0
SPLINE
5
2F0
100
AcDbEntity
8
0
100
AcDbSpline
62
9
6
CONTINUOUS
70
0
71
3
72
8
73
4
74
2
42
0.0000001000
43
0.0000001000
44
0.0000000001
12
-0.1643951089
22
-0.3259283457
32
0.0000000000
13
-0.1904238526
23
-0.3114371466
33
0.0000000000
40
0.0000000000
40
0.0000000000
40
0.0000000000
40
0.0000000000
40
1.0000000000
40
1.0000000000
40
1.0000000000
40
1.0000000000
10
30.3289505919
20
-15.0594004551
30
0.0000000000
10
30.2741522222
20
-15.1680432370
30
0.0000000000
10
30.2149158511
20
-15.2744497711
30
0.0000000000
10
30.1514412335
20
-15.3782621533
30
0.0000000000
11
30.3289505919
21
-15.0594004551
31
0.0000000000
11
30.1514412335
21
-15.3782621533
31
0.0000000000
0
SPLINE
5
2F1
100
AcDbEntity
8
0
100
AcDbSpline
62
9
6
CONTINUOUS
70
0
71
3
72
8
73
4
74
2
42
0.0000001000
43
0.0000001000
44
0.0000000001
12
-0.1899848999
22
-0.3107192418
32
0.0000000000
13
-0.2147021459
23
-0.2941597017
33
0.0000000000
40
0.0000000000
40
0.0000000000
40
0.0000000000
40
0.0000000000
40
1.0000000000
40
1.0000000000
40
1.0000000000
40
1.0000000000
10
30.1514412335
20
-15.3782621533
30
0.0000000000
10
30.0881129336
20
-15.4818352339
30
0.0000000000
10
30.0205659042
20
-15.5828261085
30
0.0000000000
10
29.9489985222
20
-15.6808793424
30
0.0000000000
11
30.1514412335
21
-15.3782621533
31
0.0000000000
11
29.9489985222
21
-15.6808793424
31
0.0000000000
0
SPLINE
5
2F2
100
AcDbEntity
8
0
100
AcDbSpline
62
9
6
CONTINUOUS
70
0
71
3
72
11
73
7
74
5
42
0.0000001000
43
0.0000001000
44
0.0000000001
12
-2.2896765473
22
-3.1370462901
32
0.0000000000
13
-3.8712658571
23
-0.2714115491
33
0.0000000000
40
0.0000000000
40
0.0000000000
40
0.0000000000
40
0.0000000000
40
0.2795563834
40
0.5611073345
40
0.8319731326
40
1.0000000000
40
1.0000000000
40
1.0000000000
40
1.0000000000
10
29.9489985222
20
-15.6808793424
30
0.0000000000
10
29.7356339573
20
-15.9732064475
30
0.0000000000
10
29.2356600919
20
-16.5075393125
30
0.0000000000
10
28.3244071460
20
-17.0971640303
30
0.0000000000
10
27.4375157789
20
-17.4049293317
30
0.0000000000
10
26.8732933403
20
-17.4859552336
30
0.0000000000
10
26.6564677821
20
-17.5011567111
30
0.0000000000
11
29.9489985222
21
-15.6808793424
31
0.0000000000
11
29.2089901434
21
-16.4717142823
31
0.0000000000
11
28.2932247728
21
-17.0643392981
31
0.0000000000
11
27.3018028501
21
-17.4083105971
31
0.0000000000
11
26.6564677821
21
-17.5011567111
31
0.0000000000
0
SPLINE
5
2F3
100
AcDbEntity
8
0
100
AcDbSpline
62
9
6
CONTINUOUS
70
0
71
3
72
8
73
4
74
2
42
0.0000001000
43
0.0000001000
44
0.0000000001
12
-0.3111692225
22
-0.0218158411
32
0.0000000000
13
-0.3114076007
23
-0.0000258219
33
0.0000000000
40
0.0000000000
40
0.0000000000
40
0.0000000000
40
0.0000000000
40
1.0000000000
40
1.0000000000
40
1.0000000000
40
1.0000000000
10
26.6564677821
20
-17.5011567111
30
0.0000000000
10
26.5527447079
20
-17.5084286581
30
0.0000000000
10
26.4488346499
20
-17.5120806715
30
0.0000000000
10
26.3450321164
20
-17.5120892788
30
0.0000000000
11
26.6564677821
21
-17.5011567111
31
0.0000000000
11
26.3450321164
21
-17.5120892788
31
0.0000000000
0
SPLINE
5
2F4
100
AcDbEntity
8
0
100
AcDbSpline
62
9
6
CONTINUOUS
70
0
71
3
72
8
73
4
74
2
42
0.0000001000
43
0.0000001000
44
0.0000000001
12
-0.3763494180
22
0.0001048266
32
0.0000000000
13
-0.3759265954
23
0.0312132618
33
0.0000000000
40
0.0000000000
40
0.0000000000
40
0.0000000000
40
0.0000000000
40
1.0000000000
40
1.0000000000
40
1.0000000000
40
1.0000000000
10
22.1450321164
20
-17.6179285394
30
0.0000000000
10
22.0195823104
20
-17.6178935972
30
0.0000000000
10
21.8939497602
20
-17.6126524838
30
0.0000000000
10
21.7686408951
20
-17.6022480632
30
0.0000000000
11
22.1450321164
21
-17.6179285394
31
0.0000000000
11
21.7686408951
21
-17.6022480632
31
0.0000000000
0
SPLINE
5
2F5
100
AcDbEntity
8
0
100
AcDbSpline
62
9
6
CONTINUOUS
70
0
71
3
72
11
73
7
74
5
42
0.0000001000
43
0.0000001000
44
0.0000000001
12
-3.7038167496
22
0.3075286594
32
0.0000000000
13
-2.3176493315
23
2.9061609747
33
0.0000000000
40
0.0000000000
40
0.0000000000
40
0.0000000000
40
0.0000000000
40
0.1993880596
40
0.5005464641
40
0.8004452367
40
1.0000000000
40
1.0000000000
40
1.0000000000
40
1.0000000000
10
21.7686408951
20
-17.6022480632
30
0.0000000000
10
21.5224752835
20
-17.5818088823
30
0.0000000000
10
20.9076337011
20
-17.4804757030
30
0.0000000000
10
19.9756963312
20
-17.1208891131
30
0.0000000000
10
19.1580058442
20
-16.5460228015
30
0.0000000000
10
18.7328750133
20
-16.0935052685
30
0.0000000000
10
18.5787090253
20
-15.9001925134
30
0.0000000000
11
21.7686408951
21
-17.6022480632
31
0.0000000000
11
21.0377308329
21
-17.4814776147
31
0.0000000000
11
19.9957989561
21
-17.0797626656
31
0.0000000000
11
19.0861593155
21
-16.4401197650
31
0.0000000000
11
18.5787090253
21
-15.9001925134
31
0.0000000000
0
SPLINE
5
2F6
100
AcDbEntity
8
0
100
AcDbSpline
62
9
6
CONTINUOUS
70
0
71
3
72
8
73
4
74
2
42
0.0000001000
43
0.0000001000
44
0.0000000001
12
-0.1151833378
22
0.1444313929
32
0.0000000000
13
-0.1092445171
23
0.1489725008
33
0.0000000000
40
0.0000000000
40
0.0000000000
40
0.0000000000
40
0.0000000000
40
1.0000000000
40
1.0000000000
40
1.0000000000
40
1.0000000000
10
18.5787090253
20
-15.9001925134
30
0.0000000000
10
18.5403145794
20
-15.8520487157
30
0.0000000000
10
18.5028935020
20
-15.8031289302
30
0.0000000000
10
18.4664786629
20
-15.7534714299
30
0.0000000000
11
18.5787090253
21
-15.9001925134
31
0.0000000000
11
18.4664786629
21
-15.7534714299
31
0.0000000000
0
SPLINE
5
2F7
100
AcDbEntity
8
0
100
AcDbSpline
62
9
6
CONTINUOUS
70
0
71
3
72
8
73
4
74
2
42
0.0000001000
43
0.0000001000
44
0.0000000001
12
-0.0282060414
22
0.0384634821
32
0.0000000000
13
-0.0278018708
23
0.0387565756
33
0.0000000000
40
0.0000000000
40
0.0000000000
40
0.0000000000
40
0.0000000000
40
1.0000000000
40
1.0000000000
40
1.0000000000
40
1.0000000000
10
18.4664786629
20
-15.7534714299
30
0.0000000000
10
18.4570766491
20
-15.7406502692
30
0.0000000000
10
18.4477417142
20
-15.7277799303
30
0.0000000000
10
18.4384744239
20
-15.7148610717
30
0.0000000000
11
18.4664786629
21
-15.7534714299
31
0.0000000000
11
18.4384744239
21
-15.7148610717
31
0.0000000000
0
SPLINE
5
2F8
100
AcDbEntity
8
0
100
AcDbSpline
62
9
6
CONTINUOUS
70
0
71
3
72
9
73
5
74
3
42
0.0000001000
43
0.0000001000
44
0.0000000001
12
-0.2967251069
22
0.4136429921
32
0.0000000000
13
-0.2487598926
23
0.4441695652
33
0.0000000000
40
0.0000000000
40
0.0000000000
40
0.0000000000
40
0.0000000000
40
0.2703951406
40
1.0000000000
40
1.0000000000
40
1.0000000000
40
1.0000000000
10
18.4384744239
20
-15.7148610717
30
0.0000000000
10
18.4117300816
20
-15.6775787200
30
0.0000000000
10
18.3149052094
20
-15.5382032908
30
0.0000000000
10
18.2259716947
20
-15.3935175688
30
0.0000000000
10
18.1654728858
20
-15.2854948111
30
0.0000000000
11
18.4384744239
21
-15.7148610717
31
0.0000000000
11
18.3599450968
21
-15.6018175882
31
0.0000000000
11
18.1654728858
21
-15.2854948111
31
0.0000000000
0
SPLINE
5
2F9
100
AcDbEntity
8
0
100
AcDbSpline
62
9
6
CONTINUOUS
70
0
71
3
72
8
73
4
74
2
42
0.0000001000
43
0.0000001000
44
0.0000000001
12
-0.1829981257
22
0.3267496102
32
0.0000000000
13
-0.1556612917
23
0.3406210050
33
0.0000000000
40
0.0000000000
40
0.0000000000
40
0.0000000000
40
0.0000000000
40
1.0000000000
40
1.0000000000
40
1.0000000000
40
1.0000000000
10
18.1654728858
20
-15.2854948111
30
0.0000000000
10
18.1044735106
20
-15.1765782743
30
0.0000000000
10
18.0479345559
20
-15.0651615201
30
0.0000000000
10
17.9960474587
20
-14.9516211851
30
0.0000000000
11
18.1654728858
21
-15.2854948111
31
0.0000000000
11
17.9960474587
21
-14.9516211851
31
0.0000000000
0
SPLINE
5
2FA
100
AcDbEntity
8
0
100
AcDbSpline
62
9
6
CONTINUOUS
70
0
71
3
72
8
73
4
74
2
42
0.0000001000
43
0.0000001000
44
0.0000000001
12
-0.0107122514
22
0.0234407526
32
0.0000000000
13
-0.0105798805
23
0.0235007264
33
0.0000000000
40
0.0000000000
40
0.0000000000
40
0.0000000000
40
0.0000000000
40
1.0000000000
40
1.0000000000
40
1.0000000000
40
1.0000000000
10
17.9960474587
20
-14.9516211851
30
0.0000000000
10
17.9924767082
20
-14.9438076009
30
0.0000000000
10
17.9889279884
20
-14.9359839597
30
0.0000000000
10
17.9854013616
20
-14.9281503842
30
0.0000000000
11
17.9960474587
21
-14.9516211851
31
0.0000000000
11
17.9854013616
21
-14.9281503842
31
0.0000000000
0
SPLINE
5
2FB
100
AcDbEntity
8
0
100
AcDbSpline
62
9
6
CONTINUOUS
70
0
71
3
72
8
73
4
74
2
42
0.0000001000
43
0.0000001000
44
0.0000000001
12
-0.1418589418
22
0.3151064120
32
0.0000000000
13
-0.1175758717
23
0.3249348505
33
0.0000000000
40
0.0000000000
40
0.0000000000
40
0.0000000000
40
0.0000000000
40
1.0000000000
40
1.0000000000
40
1.0000000000
40
1.0000000000
10
17.9854013616
20
-14.9281503842
30
0.0000000000
10
17.9381150476
20
-14.8231149136
30
0.0000000000
10
17.8948007110
20
-14.7162934178
30
0.0000000000
10
17.8556087537
20
-14.6079818009
30
0.0000000000
11
17.9854013616
21
-14.9281503842
31
0.0000000000
11
17.8556087537
21
-14.6079818009
31
0.0000000000
0
SPLINE
5
2FC
100
AcDbEntity
8
0
100
AcDbSpline
62
9
6
CONTINUOUS
70
0
71
3
72
10
73
6
74
4
42
0.0000001000
43
0.0000001000
44
0.0000000001
12
-1.1362141792
22
3.1400624892
32
0.0000000000
13
1.2529346880
23
3.0953481737
33
0.0000000000
40
0.0000000000
40
0.0000000000
40
0.0000000000
40
0.0000000000
40
0.3326883813
40
0.6675471461
40
1.0000000000
40
1.0000000000
40
1.0000000000
40
1.0000000000
10
17.8556087537
20
-14.6079818009
30
0.0000000000
10
17.7296070017
20
-14.2597610320
30
0.0000000000
10
17.5622786196
20
-13.5301430388
30
0.0000000000
10
17.5833631437
20
-12.4087771267
30
0.0000000000
10
17.7778671489
20
-11.6862168099
30
0.0000000000
10
17.9167143865
20
-11.3431976985
30
0.0000000000
11
17.8556087537
21
-14.6079818009
31
0.0000000000
11
17.6078790580
21
-13.5278093272
31
0.0000000000
11
17.6288482384
21
-12.4125607517
31
0.0000000000
11
17.9167143865
21
-11.3431976985
31
0.0000000000
0
SPLINE
5
2FD
100
AcDbEntity
8
0
100
AcDbSpline
62
9
6
CONTINUOUS
70
0
71
3
72
8
73
4
74
2
42
0.0000001000
43
0.0000001000
44
0.0000000001
12
0.1393862250
22
0.3443506682
32
0.0000000000
13
0.1669655163
23
0.3318747107
33
0.0000000000
40
0.0000000000
40
0.0000000000
40
0.0000000000
40
0.0000000000
40
1.0000000000
40
1.0000000000
40
1.0000000000
40
1.0000000000
10
17.9167143865
20
-11.3431976985
30
0.0000000000
10
17.9631764615
20
-11.2284141424
30
0.0000000000
10
18.0143354426
20
-11.1155295211
30
0.0000000000
10
18.0699906147
20
-11.0049046175
30
0.0000000000
11
17.9167143865
21
-11.3431976985
31
0.0000000000
11
18.0699906147
21
-11.0049046175
31
0.0000000000
0
SPLINE
5
2FE
100
AcDbEntity
8
0
100
AcDbSpline
62
9
6
CONTINUOUS
70
0
71
3
72
8
73
4
74
2
42
0.0000001000
43
0.0000001000
44
0.0000000001
12
0.1684566038
22
0.3348385216
32
0.0000000000
13
0.1952993191
23
0.3199253614
33
0.0000000000
40
0.0000000000
40
0.0000000000
40
0.0000000000
40
0.0000000000
40
1.0000000000
40
1.0000000000
40
1.0000000000
40
1.0000000000
10
18.0699906147
20
-11.0049046175
30
0.0000000000
10
18.1261428159
20
-10.8932917770
30
0.0000000000
10
18.1868718734
20
-10.7839791953
30
0.0000000000
10
18.2519716464
20
-10.6773374082
30
0.0000000000
11
18.0699906147
21
-11.0049046175
31
0.0000000000
11
18.2519716464
21
-10.6773374082
31
0.0000000000
0
SPLINE
5
2FF
100
AcDbEntity
8
0
100
AcDbSpline
62
9
6
CONTINUOUS
70
0
71
3
72
8
73
4
74
2
42
0.0000001000
43
0.0000001000
44
0.0000000001
12
0.0825963366
22
0.1353034048
32
0.0000000000
13
0.0872401076
23
0.1323530820
33
0.0000000000
40
0.0000000000
40
0.0000000000
40
0.0000000000
40
0.0000000000
40
1.0000000000
40
1.0000000000
40
1.0000000000
40
1.0000000000
10
18.2519716464
20
-10.6773374082
30
0.0000000000
10
18.2795037586
20
-10.6322362733
30
0.0000000000
10
18.3078176294
20
-10.5876128442
30
0.0000000000
10
18.3368976652
20
-10.5434951502
30
0.0000000000
11
18.2519716464
21
-10.6773374082
31
0.0000000000
11
18.3368976652
21
-10.5434951502
31
0.0000000000
0
SPLINE
5
300
100
AcDbEntity
8
0
100
AcDbSpline
62
9
6
CONTINUOUS
70
0
71
3
72
8
73
4
74
2
42
0.0000001000
43
0.0000001000
44
0.0000000001
12
0.1172300312
22
0.1778511784
32
0.0000000000
13
0.1254173029
23
0.1721679140
33
0.0000000000
40
0.0000000000
40
0.0000000000
40
0.0000000000
40
0.0000000000
40
1.0000000000
40
1.0000000000
40
1.0000000000
40
1.0000000000
10
18.3368976652
20
-10.5434951502
30
0.0000000000
10
18.3759743423
20
-10.4842114241
30
0.0000000000
10
18.4164344829
20
-10.4258409032
30
0.0000000000
10
18.4582402506
20
-10.3684515986
30
0.0000000000
11
18.3368976652
21
-10.5434951502
31
0.0000000000
11
18.4582402506
21
-10.3684515986
31
0.0000000000
0
SPLINE
5
301
100
AcDbEntity
8
0
100
AcDbSpline
62
9
6
CONTINUOUS
70
0
71
3
72
11
73
7
74
5
42
0.0000001000
43
0.0000001000
44
0.0000000001
12
2.3379488129
22
3.2094436805
32
0.0000000000
13
3.9577566664
23
0.2810142963
33
0.0000000000
40
0.0000000000
40
0.0000000000
40
0.0000000000
40
0.0000000000
40
0.2796564166
40
0.5613593118
40
0.8326216692
40
1.0000000000
40
1.0000000000
40
1.0000000000
40
1.0000000000
10
18.4582402506
20
-10.3684515986
30
0.0000000000
10
18.6761810463
20
-10.0692710923
30
0.0000000000
10
19.1870658472
20
-9.5222492784
30
0.0000000000
10
20.1189578886
20
-8.9181947227
30
0.0000000000
10
21.0254144500
20
-8.6030132902
30
0.0000000000
10
21.6018778891
20
-8.5198918340
30
0.0000000000
10
21.8226921239
20
-8.5042132660
30
0.0000000000
11
18.4582402506
21
-10.3684515986
31
0.0000000000
11
19.2143405872
21
-9.5589302021
31
0.0000000000
11
20.1506114134
21
-8.9519430503
31
0.0000000000
11
21.1655055402
21
-8.5991698822
31
0.0000000000
11
21.8226921239
21
-8.5042132660
31
0.0000000000
0
SPLINE
5
302
100
AcDbEntity
8
0
100
AcDbSpline
62
9
6
CONTINUOUS
70
0
71
3
72
8
73
4
74
2
42
0.0000001000
43
0.0000001000
44
0.0000000001
12
0.3220535865
22
0.0228669091
32
0.0000000000
13
0.3223137028
23
0.0000535561
33
0.0000000000
40
0.0000000000
40
0.0000000000
40
0.0000000000
40
0.0000000000
40
1.0000000000
40
1.0000000000
40
1.0000000000
40
1.0000000000
10
21.8226921239
20
-8.5042132660
30
0.0000000000
10
21.9300433194
20
-8.4965909630
30
0.0000000000
10
22.0375942154
20
-8.4927595746
30
0.0000000000
10
22.1450321164
20
-8.4927417226
30
0.0000000000
11
21.8226921239
21
-8.5042132660
31
0.0000000000
11
22.1450321164
21
-8.4927417226
31
0.0000000000
0
SPLINE
5
303
100
AcDbEntity
8
0
100
AcDbSpline
62
9
6
CONTINUOUS
70
0
71
3
72
8
73
4
74
2
42
0.0000001000
43
0.0000001000
44
0.0000000001
12
0.3767993634
22
-0.0001046543
32
0.0000000000
13
0.3763749775
23
-0.0312882074
33
0.0000000000
40
0.0000000000
40
0.0000000000
40
0.0000000000
40
0.0000000000
40
1.0000000000
40
1.0000000000
40
1.0000000000
40
1.0000000000
10
26.3450321164
20
-8.4927417226
30
0.0000000000
10
26.4706319042
20
-8.4927766074
30
0.0000000000
10
26.5964150992
20
-8.4980303120
30
0.0000000000
10
26.7218734250
20
-8.5084597145
30
0.0000000000
11
26.3450321164
21
-8.4927417226
31
0.0000000000
11
26.7218734250
21
-8.5084597145
31
0.0000000000
0
SPLINE
5
304
100
AcDbEntity
8
0
100
AcDbSpline
62
9
6
CONTINUOUS
70
0
71
3
72
11
73
7
74
5
42
0.0000001000
43
0.0000001000
44
0.0000000001
12
3.9242238851
22
-0.3262223527
32
0.0000000000
13
2.3031478058
23
-3.1946902924
33
0.0000000000
40
0.0000000000
40
0.0000000000
40
0.0000000000
40
0.0000000000
40
0.1883838940
40
0.4728624193
40
0.7560857935
40
1.0000000000
40
1.0000000000
40
1.0000000000
40
1.0000000000
10
26.7218734250
20
-8.5084597145
30
0.0000000000
10
26.9682936172
20
-8.5289447268
30
0.0000000000
10
27.5836869906
20
-8.6304844441
30
0.0000000000
10
28.5162454360
20
-8.9907096252
30
0.0000000000
10
29.3941784551
20
-9.6086460617
30
0.0000000000
10
29.8580533148
20
-10.1273340628
30
0.0000000000
10
30.0453101379
20
-10.3870775120
30
0.0000000000
11
26.7218734250
21
-8.5084597145
31
0.0000000000
11
27.4535225352
21
-8.6294903286
31
0.0000000000
11
28.4961691037
21
-9.0319256248
31
0.0000000000
11
29.4060032393
21
-9.6724489704
31
0.0000000000
11
30.0453101379
21
-10.3870775120
31
0.0000000000
0
SPLINE
5
305
100
AcDbEntity
8
0
100
AcDbSpline
62
9
6
CONTINUOUS
70
0
71
3
72
8
73
4
74
2
42
0.0000001000
43
0.0000001000
44
0.0000000001
12
0.0885709613
22
-0.1228565486
32
0.0000000000
13
0.0844322881
23
-0.1257372573
33
0.0000000000
40
0.0000000000
40
0.0000000000
40
0.0000000000
40
0.0000000000
40
1.0000000000
40
1.0000000000
40
1.0000000000
40
1.0000000000
10
30.0453101379
20
-10.3870775120
30
0.0000000000
10
30.0748337917
20
-10.4280296949
30
0.0000000000
10
30.1036767160
20
-10.4694725480
30
0.0000000000
10
30.1318208121
20
-10.5113849671
30
0.0000000000
11
30.0453101379
21
-10.3870775120
31
0.0000000000
11
30.1318208121
21
-10.5113849671
31
0.0000000000
0
SPLINE
5
306
100
AcDbEntity
8
0
100
AcDbSpline
62
9
6
CONTINUOUS
70
0
71
3
72
8
73
4
74
2
42
0.0000001000
43
0.0000001000
44
0.0000000001
12
0.0224214729
22
-0.0333902417
32
0.0000000000
13
0.0221250750
23
-0.0335875238
33
0.0000000000
40
0.0000000000
40
0.0000000000
40
0.0000000000
40
0.0000000000
40
1.0000000000
40
1.0000000000
40
1.0000000000
40
1.0000000000
10
30.1318208121
20
-10.5113849671
30
0.0000000000
10
30.1392946364
20
-10.5225150477
30
0.0000000000
10
30.1467191794
20
-10.5336782419
30
0.0000000000
10
30.1540942044
20
-10.5448740832
30
0.0000000000
11
30.1318208121
21
-10.5113849671
31
0.0000000000
11
30.1540942044
21
-10.5448740832
31
0.0000000000
0
SPLINE
5
307
100
AcDbEntity
8
0
100
AcDbSpline
62
9
6
CONTINUOUS
70
0
71
3
72
8
73
4
74
2
42
0.0000001000
43
0.0000001000
44
0.0000000001
12
0.0553383928
22
-0.0840078322
32
0.0000000000
13
0.0534686223
23
-0.0852113267
33
0.0000000000
40
0.0000000000
40
0.0000000000
40
0.0000000000
40
0.0000000000
40
1.0000000000
40
1.0000000000
40
1.0000000000
40
1.0000000000
10
30.1540942044
20
-10.5448740832
30
0.0000000000
10
30.1725403354
20
-10.5728766939
30
0.0000000000
10
30.1906766907
20
-10.6010835382
30
0.0000000000
10
30.2084995648
20
-10.6294873138
30
0.0000000000
11
30.1540942044
21
-10.5448740832
31
0.0000000000
11
30.2084995648
21
-10.6294873138
31
0.0000000000
0
SPLINE
5
308
100
AcDbEntity
8
0
100
AcDbSpline
62
9
6
CONTINUOUS
70
0
71
3
72
8
73
4
74
2
42
0.0000001000
43
0.0000001000
44
0.0000000001
12
0.1225296446
22
-0.1952717897
32
0.0000000000
13
0.1125183600
23
-0.2012132770
33
0.0000000000
40
0.0000000000
40
0.0000000000
40
0.0000000000
40
0.0000000000
40
1.0000000000
40
1.0000000000
40
1.0000000000
40
1.0000000000
10
30.2084995648
20
-10.6294873138
30
0.0000000000
10
30.2493427796
20
-10.6945779103
30
0.0000000000
10
30.2885397443
20
-10.7607026940
30
0.0000000000
10
30.3260458643
20
-10.8277737863
30
0.0000000000
11
30.2084995648
21
-10.6294873138
31
0.0000000000
11
30.3260458643
21
-10.8277737863
31
0.0000000000
0
SPLINE
5
309
100
AcDbEntity
8
0
100
AcDbSpline
62
9
6
CONTINUOUS
70
0
71
3
72
8
73
4
74
2
42
0.0000001000
43
0.0000001000
44
0.0000000001
12
0.1771589222
22
-0.3168080951
32
0.0000000000
13
0.1514869595
23
-0.3298545641
33
0.0000000000
40
0.0000000000
40
0.0000000000
40
0.0000000000
40
0.0000000000
40
1.0000000000
40
1.0000000000
40
1.0000000000
40
1.0000000000
10
30.3260458643
20
-10.8277737863
30
0.0000000000
10
30.3850988383
20
-10.9333764847
30
0.0000000000
10
30.4399601820
20
-11.0413250972
30
0.0000000000
10
30.4904558352
20
-11.1512766186
30
0.0000000000
11
30.3260458643
21
-10.8277737863
31
0.0000000000
11
30.4904558352
21
-11.1512766186
31
0.0000000000
0
SPLINE
5
30A
100
AcDbEntity
8
0
100
AcDbSpline
62
9
6
CONTINUOUS
70
0
71
3
72
8
73
4
74
2
42
0.0000001000
43
0.0000001000
44
0.0000000001
12
0.0137559000
22
-0.0299527194
32
0.0000000000
13
0.0135395199
23
-0.0300510412
33
0.0000000000
40
0.0000000000
40
0.0000000000
40
0.0000000000
40
0.0000000000
40
1.0000000000
40
1.0000000000
40
1.0000000000
40
1.0000000000
10
30.4904558352
20
-11.1512766186
30
0.0000000000
10
30.4950411352
20
-11.1612608583
30
0.0000000000
10
30.4995904370
20
-11.1712616135
30
0.0000000000
10
30.5041036103
20
-11.1812786273
30
0.0000000000
11
30.4904558352
21
-11.1512766186
31
0.0000000000
11
30.5041036103
21
-11.1812786273
31
0.0000000000
0
SPLINE
5
30B
100
AcDbEntity
8
0
100
AcDbSpline
62
9
6
CONTINUOUS
70
0
71
3
72
8
73
4
74
2
42
0.0000001000
43
0.0000001000
44
0.0000000001
12
0.1436287589
22
-0.3187848441
32
0.0000000000
13
0.1187683276
23
-0.3288427312
33
0.0000000000
40
0.0000000000
40
0.0000000000
40
0.0000000000
40
0.0000000000
40
1.0000000000
40
1.0000000000
40
1.0000000000
40
1.0000000000
10
30.5041036103
20
-11.1812786273
30
0.0000000000
10
30.5519798633
20
-11.2875402420
30
0.0000000000
10
30.5957905013
20
-11.3956314657
30
0.0000000000
10
30.6353799438
20
-11.5052457094
30
0.0000000000
11
30.5041036103
21
-11.1812786273
31
0.0000000000
11
30.6353799438
21
-11.5052457094
31
0.0000000000
0
SPLINE
5
30C
100
AcDbEntity
8
0
100
AcDbSpline
62
9
6
CONTINUOUS
70
0
71
3
72
10
73
6
74
4
42
0.0000001000
43
0.0000001000
44
0.0000000001
12
1.1345550215
22
-3.1413271483
32
0.0000000000
13
-1.2554501768
23
-3.0950205770
33
0.0000000000
40
0.0000000000
40
0.0000000000
40
0.0000000000
40
0.0000000000
40
0.3325650951
40
0.6674300956
40
1.0000000000
40
1.0000000000
40
1.0000000000
40
1.0000000000
10
30.6353799438
20
-11.5052457094
30
0.0000000000
10
30.7611510767
20
-11.8534776301
30
0.0000000000
10
30.9280628091
20
-12.5831984968
30
0.0000000000
10
30.9063274955
20
-13.7047685936
30
0.0000000000
10
30.7112656294
20
-14.4274765714
30
0.0000000000
10
30.5720906476
20
-14.7705801373
30
0.0000000000
11
30.6353799438
21
-11.5052457094
31
0.0000000000
11
30.8824450499
21
-12.5853637159
31
0.0000000000
11
30.8608279019
21
-13.7008313906
31
0.0000000000
11
30.5720906476
21
-14.7705801373
31
0.0000000000
0
SPLINE
5
30D
100
AcDbEntity
8
0
100
AcDbSpline
62
9
6
CONTINUOUS
70
0
71
3
72
8
73
4
74
2
42
0.0000001000
43
0.0000001000
44
0.0000000001
12
-0.1397236299
22
-0.3444561301
32
0.0000000000
13
-0.1673268034
23
-0.3319441124
33
0.0000000000
40
0.0000000000
40
0.0000000000
40
0.0000000000
40
0.0000000000
40
1.0000000000
40
1.0000000000
40
1.0000000000
40
1.0000000000
10
30.5720906476
20
-14.7705801373
30
0.0000000000
10
30.5255161043
20
-14.8853988473
30
0.0000000000
10
30.4742403325
20
-14.9983128683
30
0.0000000000
10
30.4184647314
20
-15.1089609058
30
0.0000000000
11
30.5720906476
21
-14.7705801373
31
0.0000000000
11
30.4184647314
21
-15.1089609058
31
0.0000000000
0
SPLINE
5
30E
100
AcDbEntity
8
0
100
AcDbSpline
62
9
6
CONTINUOUS
70
0
71
3
72
8
73
4
74
2
42
0.0000001000
43
0.0000001000
44
0.0000000001
12
-0.1688246155
22
-0.3349154828
32
0.0000000000
13
-0.1956885441
23
-0.3199618346
33
0.0000000000
40
0.0000000000
40
0.0000000000
40
0.0000000000
40
0.0000000000
40
1.0000000000
40
1.0000000000
40
1.0000000000
40
1.0000000000
10
30.4184647314
20
-15.1089609058
30
0.0000000000
10
30.3621898596
20
-15.2205994001
30
0.0000000000
10
30.3013342382
20
-15.3299311617
30
0.0000000000
10
30.2361047235
20
-15.4365851065
30
0.0000000000
11
30.4184647314
21
-15.1089609058
31
0.0000000000
11
30.2361047235
21
-15.4365851065
31
0.0000000000
0
SPLINE
5
30F
100
AcDbEntity
8
0
100
AcDbSpline
62
9
6
CONTINUOUS
70
0
71
3
72
8
73
4
74
2
42
0.0000001000
43
0.0000001000
44
0.0000000001
12
-0.1939366958
22
-0.3170974637
32
0.0000000000
13
-0.2191082348
23
-0.3002333243
33
0.0000000000
40
0.0000000000
40
0.0000000000
40
0.0000000000
40
0.0000000000
40
1.0000000000
40
1.0000000000
40
1.0000000000
40
1.0000000000
10
30.2361047235
20
-15.4365851065
30
0.0000000000
10
30.1714591582
20
-15.5422842611
30
0.0000000000
10
30.1025176613
20
-15.6453533292
30
0.0000000000
10
30.0294815830
20
-15.7454311040
30
0.0000000000
11
30.2361047235
21
-15.4365851065
31
0.0000000000
11
30.0294815830
21
-15.7454311040
31
0.0000000000
0
SPLINE
5
310
100
AcDbEntity
8
0
100
AcDbSpline
62
9
6
CONTINUOUS
70
0
71
3
72
11
73
7
74
5
42
0.0000001000
43
0.0000001000
44
0.0000000001
12
-2.3388432481
22
-3.2048027963
32
0.0000000000
13
-3.9545537742
23
-0.2801471253
33
0.0000000000
40
0.0000000000
40
0.0000000000
40
0.0000000000
40
0.0000000000
40
0.2798952543
40
0.5617369634
40
0.8328081024
40
1.0000000000
40
1.0000000000
40
1.0000000000
40
1.0000000000
10
30.0294815830
20
-15.7454311040
30
0.0000000000
10
29.8112712078
20
-16.0444341352
30
0.0000000000
10
29.2999791306
20
-16.5909309370
30
0.0000000000
10
28.3681330345
20
-17.1938413790
30
0.0000000000
10
27.4625432801
20
-17.5080880453
30
0.0000000000
10
26.8870327057
20
-17.5908962025
30
0.0000000000
10
26.6666429224
20
-17.6065089790
30
0.0000000000
11
30.0294815830
21
-15.7454311040
31
0.0000000000
11
29.2726418347
21
-16.5543221295
31
0.0000000000
11
28.3361608948
21
-17.1603263411
31
0.0000000000
11
27.3225878553
21
-17.5119332590
31
0.0000000000
11
26.6666429224
21
-17.6065089790
31
0.0000000000
0
SPLINE
5
311
100
AcDbEntity
8
0
100
AcDbSpline
62
9
6
CONTINUOUS
70
0
71
3
72
8
73
4
74
2
42
0.0000001000
43
0.0000001000
44
0.0000000001
12
-0.3213263983
22
-0.0227632931
32
0.0000000000
13
-0.3215846578
23
-0.0000534292
33
0.0000000000
40
0.0000000000
40
0.0000000000
40
0.0000000000
40
0.0000000000
40
1.0000000000
40
1.0000000000
40
1.0000000000
40
1.0000000000
10
26.6666429224
20
-17.6065089790
30
0.0000000000
10
26.5595341230
20
-17.6140967434
30
0.0000000000
10
26.4522270023
20
-17.6179107297
30
0.0000000000
10
26.3450321164
20
-17.6179285394
30
0.0000000000
11
26.6666429224
21
-17.6065089790
31
0.0000000000
11
26.3450321164
21
-17.6179285394
31
0.0000000000
0
SPLINE
5
312
100
AcDbEntity
8
0
100
AcDbSpline
62
9
6
CONTINUOUS
70
0
71
3
72
11
73
7
74
5
42
0.0000001000
43
0.0000001000
44
0.0000000001
12
0.0003802072
22
-1.2482731391
32
0.0000000000
13
1.2482731391
23
-0.0003802072
33
0.0000000000
40
0.0000000000
40
0.0000000000
40
0.0000000000
40
0.0000000000
40
0.2499896958
40
0.4999999908
40
0.7500102906
40
1.0000000000
40
1.0000000000
40
1.0000000000
40
1.0000000000
10
13.2451981882
20
-21.0044110873
30
0.0000000000
10
13.2452298708
20
-21.1084295614
30
0.0000000000
10
13.2869083375
20
-21.3187368184
30
0.0000000000
10
13.4649294436
20
-21.5845579738
30
0.0000000000
10
13.7307505995
20
-21.7625790901
30
0.0000000000
10
13.9410578645
20
-21.8042575608
30
0.0000000000
10
14.0450763443
20
-21.8042892434
30
0.0000000000
11
13.2451981882
21
-21.0044110873
31
0.0000000000
11
13.3061551944
21
-21.3104549388
31
0.0000000000
11
13.4795631850
21
-21.5699242300
31
0.0000000000
11
13.7390324768
21
-21.7433322306
31
0.0000000000
11
14.0450763443
21
-21.8042892434
31
0.0000000000
0
SPLINE
5
313
100
AcDbEntity
8
0
100
AcDbSpline
62
9
6
CONTINUOUS
70
0
71
3
72
17
73
13
74
11
42
0.0000001000
43
0.0000001000
44
0.0000000001
12
0.5910581235
22
1.2670754723
32
0.0000000000
13
0.0007746575
23
1.3981521225
33
0.0000000000
40
0.0000000000
40
0.0000000000
40
0.0000000000
40
0.0000000000
40
0.0321746913
40
0.0762805132
40
0.1430188928
40
0.2327217789
40
0.3431306644
40
0.4695322704
40
0.6054652074
40
0.7437385170
40
0.8773466663
40
1.0000000000
40
1.0000000000
40
1.0000000000
40
1.0000000000
10
14.0450763443
20
-21.8042892434
30
0.0000000000
10
14.0514153819
20
-21.7906999893
30
0.0000000000
10
14.0452017450
20
-21.7529839364
30
0.0000000000
10
14.0510879188
20
-21.6876001944
30
0.0000000000
10
14.0505906086
20
-21.5935710929
30
0.0000000000
10
14.0528568192
20
-21.4694515242
30
0.0000000000
10
14.0538620463
20
-21.3171981668
30
0.0000000000
10
14.0550679230
20
-21.1435128767
30
0.0000000000
10
14.0559044633
20
-20.9568025875
30
0.0000000000
10
14.0565264491
20
-20.7667437006
30
0.0000000000
10
14.0568993983
20
-20.5828701758
30
0.0000000000
10
14.0570218269
20
-20.4634394811
30
0.0000000000
10
14.0570534983
20
-20.4062768082
30
0.0000000000
11
14.0450763443
21
-21.8042892434
31
0.0000000000
11
14.0478376397
21
-21.7593889510
31
0.0000000000
11
14.0493906177
21
-21.6977418508
31
0.0000000000
11
14.0509599432
21
-21.6044446271
31
0.0000000000
11
14.0524632836
21
-21.4790353376
31
0.0000000000
11
14.0538208644
21
-21.3246728660
31
0.0000000000
11
14.0549672327
21
-21.1479478832
31
0.0000000000
11
14.0558616370
21
-20.9578950341
31
0.0000000000
11
14.0564927854
21
-20.7645689134
31
0.0000000000
11
14.0568771850
21
-20.5777647627
31
0.0000000000
11
14.0570534983
21
-20.4062768082
31
0.0000000000
0
SPLINE
5
314
100
AcDbEntity
8
0
100
AcDbSpline
62
9
6
CONTINUOUS
70
0
71
3
72
16
73
12
74
10
42
0.0000001000
43
0.0000001000
44
0.0000000001
12
0.4614288349
22
0.4615840827
32
0.0000000000
13
0.0007746538
23
0.6526682427
33
0.0000000000
40
0.0000000000
40
0.0000000000
40
0.0000000000
40
0.0000000000
40
0.0764848096
40
0.1432578529
40
0.2329793963
40
0.3433847147
40
0.4697569263
40
0.6056387883
40
0.7438500360
40
0.8773973089
40
1.0000000000
40
1.0000000000
40
1.0000000000
40
1.0000000000
10
13.2451981882
20
-21.0044110873
30
0.0000000000
10
13.2569622871
20
-20.9926430304
30
0.0000000000
10
13.2459660480
20
-20.9549173855
30
0.0000000000
10
13.2525720723
20
-20.9067939475
30
0.0000000000
10
13.2522802337
20
-20.8478432304
30
0.0000000000
10
13.2542199990
20
-20.7771525977
30
0.0000000000
10
13.2551179034
20
-20.6959769788
30
0.0000000000
10
13.2560469004
20
-20.6088900536
30
0.0000000000
10
13.2566430683
20
-20.5201982954
30
0.0000000000
10
13.2570226546
20
-20.4344056604
30
0.0000000000
10
13.2571436840
20
-20.3786782451
30
0.0000000000
10
13.2571753422
20
-20.3520052842
30
0.0000000000
11
13.2451981882
21
-21.0044110873
31
0.0000000000
11
13.2495128683
21
-20.9546786612
31
0.0000000000
11
13.2510823846
21
-20.9111262572
31
0.0000000000
11
13.2525858094
21
-20.8525871164
31
0.0000000000
11
13.2539433280
21
-20.7805418090
31
0.0000000000
11
13.2550895307
21
-20.6980705863
31
0.0000000000
11
13.2559837453
21
-20.6093892561
31
0.0000000000
11
13.2566147470
21
-20.5191853073
31
0.0000000000
11
13.2569990693
21
-20.4320240293
31
0.0000000000
11
13.2571753422
21
-20.3520052842
31
0.0000000000
0
SPLINE
5
315
100
AcDbEntity
8
0
100
AcDbSpline
62
9
6
CONTINUOUS
70
0
71
3
72
11
73
7
74
5
42
0.0000001000
43
0.0000001000
44
0.0000000001
12
0.1999131865
22
-0.7789936862
32
0.0000000000
13
0.8042359993
23
-0.0009501350
33
0.0000000000
40
0.0000000000
40
0.0000000000
40
0.0000000000
40
0.0000000000
40
0.0845721394
40
0.3023924218
40
0.6232973410
40
1.0000000000
40
1.0000000000
40
1.0000000000
40
1.0000000000
10
13.2571753422
20
-20.3520052842
30
0.0000000000
10
13.2628110375
20
-20.3739656717
30
0.0000000000
10
13.3748704596
20
-20.3686269274
30
0.0000000000
10
13.5141362460
20
-20.3992405205
30
0.0000000000
10
13.7728426175
20
-20.4013131413
30
0.0000000000
10
13.9560675518
20
-20.4061574976
30
0.0000000000
10
14.0570534983
20
-20.4062768038
30
0.0000000000
11
13.2571753422
21
-20.3520052842
31
0.0000000000
11
13.3220115400
21
-20.3725587413
31
0.0000000000
11
13.4963150301
21
-20.3900512415
31
0.0000000000
11
13.7541273879
21
-20.4018776864
31
0.0000000000
11
14.0570534983
21
-20.4062768038
31
0.0000000000
0
SPLINE
5
316
100
AcDbEntity
8
0
100
AcDbSpline
62
9
6
CONTINUOUS
70
0
71
3
72
10
73
6
74
4
42
0.0000001000
43
0.0000001000
44
0.0000000001
12
0.0481810144
22
40.5950798001
32
0.0000000000
13
-0.0481810599
23
40.5950798001
33
0.0000000000
40
0.0000000000
40
0.0000000000
40
0.0000000000
40
0.0000000000
40
0.3332171638
40
0.6667812410
40
1.0000000000
40
1.0000000000
40
1.0000000000
40
1.0000000000
10
13.2571753422
20
-20.3520052842
30
0.0000000000
10
13.2625269225
20
-15.8430128322
30
0.0000000000
10
13.2696527804
20
-6.8203289304
30
0.0000000000
10
13.2696527995
20
6.7113751300
30
0.0000000000
10
13.2625269532
20
15.7340806168
30
0.0000000000
10
13.2571753422
20
20.2430946537
30
0.0000000000
11
13.2571753422
21
-20.3520052842
31
0.0000000000
11
13.2678694649
21
-6.8250226281
31
0.0000000000
11
13.2678694891
21
6.7160472428
31
0.0000000000
11
13.2571753422
21
20.2430946537
31
0.0000000000
0
SPLINE
5
317
100
AcDbEntity
8
0
100
AcDbSpline
62
9
6
CONTINUOUS
70
0
71
3
72
11
73
7
74
5
42
0.0000001000
43
0.0000001000
44
0.0000000001
12
0.1999126049
22
0.7789938362
32
0.0000000000
13
0.8042360000
23
0.0009501344
33
0.0000000000
40
0.0000000000
40
0.0000000000
40
0.0000000000
40
0.0000000000
40
0.0845721249
40
0.3023924036
40
0.6232973290
40
1.0000000000
40
1.0000000000
40
1.0000000000
40
1.0000000000
10
13.2571753422
20
20.2430946537
30
0.0000000000
10
13.2628110201
20
20.2650550417
30
0.0000000000
10
13.3748704689
20
20.2597162966
30
0.0000000000
10
13.5141362227
20
20.2903298915
30
0.0000000000
10
13.7728426135
20
20.2924025109
30
0.0000000000
10
13.9560675485
20
20.2972468676
30
0.0000000000
10
14.0570534983
20
20.2973661736
30
0.0000000000
11
13.2571753422
21
20.2430946537
31
0.0000000000
11
13.3220115278
21
20.2636481109
31
0.0000000000
11
13.4963150150
21
20.2811406113
31
0.0000000000
11
13.7541273781
21
20.2929670563
31
0.0000000000
11
14.0570534983
21
20.2973661736
31
0.0000000000
0
SPLINE
5
318
100
AcDbEntity
8
0
100
AcDbSpline
62
9
6
CONTINUOUS
70
0
71
3
72
17
73
13
74
11
42
0.0000001000
43
0.0000001000
44
0.0000000001
12
-0.0007744349
22
1.3981498230
32
0.0000000000
13
-0.5913682189
23
1.2669282367
33
0.0000000000
40
0.0000000000
40
0.0000000000
40
0.0000000000
40
0.0000000000
40
0.1135761898
40
0.2403428021
40
0.3742510448
40
0.5084824351
40
0.6358036238
40
0.7493284710
40
0.8435459074
40
0.9151956898
40
0.9636389167
40
1.0000000000
40
1.0000000000
40
1.0000000000
40
1.0000000000
10
14.0570534983
20
20.2973661777
30
0.0000000000
10
14.0570241792
20
20.3502983542
30
0.0000000000
10
14.0569132778
20
20.4623099723
30
0.0000000000
10
14.0565770697
20
20.6367299318
30
0.0000000000
10
14.0560056504
20
20.8207729885
30
0.0000000000
10
14.0552222205
20
21.0050839007
30
0.0000000000
10
14.0540670795
20
21.1798578868
30
0.0000000000
10
14.0530984112
20
21.3360959223
30
0.0000000000
10
14.0508080557
20
21.4660544486
30
0.0000000000
10
14.0514334629
20
21.5665317784
30
0.0000000000
10
14.0450288615
20
21.6380607806
30
0.0000000000
10
14.0522439407
20
21.6800229852
30
0.0000000000
10
14.0450763443
20
21.6953786129
30
0.0000000000
11
14.0570534983
21
20.2973661777
31
0.0000000000
11
14.0568959142
21
20.4561626535
31
0.0000000000
11
14.0565496644
21
20.6334010590
31
0.0000000000
11
14.0559704022
21
20.8206239775
31
0.0000000000
11
14.0551328439
21
21.0082977318
31
0.0000000000
11
14.0540372939
21
21.1863084855
31
0.0000000000
11
14.0527133807
21
21.3450277333
31
0.0000000000
11
14.0512179562
21
21.4767493572
31
0.0000000000
11
14.0496265215
21
21.5769138613
31
0.0000000000
11
14.0480214194
21
21.6446257391
31
0.0000000000
11
14.0450763443
21
21.6953786129
31
0.0000000000
0
SPLINE
5
319
100
AcDbEntity
8
0
100
AcDbSpline
62
9
6
CONTINUOUS
70
0
71
3
72
16
73
12
74
10
42
0.0000001000
43
0.0000001000
44
0.0000000001
12
-0.0007746984
22
0.6526634483
32
0.0000000000
13
-0.4614808284
23
0.4615253211
33
0.0000000000
40
0.0000000000
40
0.0000000000
40
0.0000000000
40
0.0000000000
40
0.1135415261
40
0.2402838530
40
0.3741808778
40
0.5084002892
40
0.6357020908
40
0.7492004543
40
0.8433930165
40
0.9150330426
40
1.0000000000
40
1.0000000000
40
1.0000000000
40
1.0000000000
10
13.2571753422
20
20.2430946537
30
0.0000000000
10
13.2571460221
20
20.2677961216
30
0.0000000000
10
13.2570362872
20
20.3200713222
30
0.0000000000
10
13.2566940405
20
20.4014733763
30
0.0000000000
10
13.2561462764
20
20.4873832607
30
0.0000000000
10
13.2552745365
20
20.5733739259
30
0.0000000000
10
13.2544207562
20
20.6550595957
30
0.0000000000
10
13.2525095191
20
20.7275996512
30
0.0000000000
10
13.2528757411
20
20.7892786821
30
0.0000000000
10
13.2458628539
20
20.8411149969
30
0.0000000000
10
13.2582683955
20
20.8824289894
30
0.0000000000
10
13.2451981882
20
20.8955004568
30
0.0000000000
11
13.2571753422
21
20.2430946537
31
0.0000000000
11
13.2570177450
21
20.3171989422
31
0.0000000000
11
13.2566714584
21
20.3999183598
31
0.0000000000
11
13.2560920683
21
20.4873061946
31
0.0000000000
11
13.2552543244
21
20.5749023543
31
0.0000000000
11
13.2541585822
21
20.6579804200
31
0.0000000000
11
13.2528345593
21
20.7320448718
31
0.0000000000
11
13.2513391589
21
20.7935027671
31
0.0000000000
11
13.2497478739
21
20.8402325404
31
0.0000000000
11
13.2451981882
21
20.8955004568
31
0.0000000000
0
SPLINE
5
31A
100
AcDbEntity
8
0
100
AcDbSpline
62
9
6
CONTINUOUS
70
0
71
3
72
11
73
7
74
5
42
0.0000001000
43
0.0000001000
44
0.0000000001
12
0.0003802071
22
1.2482731391
32
0.0000000000
13
1.2482731391
23
0.0003802071
33
0.0000000000
40
0.0000000000
40
0.0000000000
40
0.0000000000
40
0.0000000000
40
0.2499897029
40
0.5000000000
40
0.7500102971
40
1.0000000000
40
1.0000000000
40
1.0000000000
40
1.0000000000
10
13.2451981882
20
20.8955004568
30
0.0000000000
10
13.2452298708
20
20.9995189339
30
0.0000000000
10
13.2869083396
20
21.2098261949
30
0.0000000000
10
13.4649294508
20
21.4756473504
30
0.0000000000
10
13.7307506062
20
21.6536684615
30
0.0000000000
10
13.9410578672
20
21.6953469303
30
0.0000000000
10
14.0450763443
20
21.6953786129
30
0.0000000000
11
13.2451981882
21
20.8955004568
31
0.0000000000
11
13.3061551979
21
21.2015443167
31
0.0000000000
11
13.4795631933
21
21.4610136078
31
0.0000000000
11
13.7390324844
21
21.6344216033
31
0.0000000000
11
14.0450763443
21
21.6953786129
31
0.0000000000
0
SPLINE
5
31B
100
AcDbEntity
8
0
100
AcDbSpline
62
9
6
CONTINUOUS
70
0
71
3
72
8
73
4
74
2
42
0.0000001000
43
0.0000001000
44
0.0000000001
12
-0.3645850719
22
0.0000506892
32
0.0000000000
13
-0.3641936598
23
0.0299422411
33
0.0000000000
40
0.0000000000
40
0.0000000000
40
0.0000000000
40
0.0000000000
40
1.0000000000
40
1.0000000000
40
1.0000000000
40
1.0000000000
10
22.1450321164
20
-17.5120892788
30
0.0000000000
10
22.0235037591
20
-17.5120723824
30
0.0000000000
10
21.9018002680
20
-17.5070505952
30
0.0000000000
10
21.7804023814
20
-17.4970698481
30
0.0000000000
11
22.1450321164
21
-17.5120892788
31
0.0000000000
11
21.7804023814
21
-17.4970698481
31
0.0000000000
0
SPLINE
5
31C
100
AcDbEntity
8
0
100
AcDbSpline
62
9
6
CONTINUOUS
70
0
71
3
72
11
73
7
74
5
42
0.0000001000
43
0.0000001000
44
0.0000000001
12
-3.6259527324
22
0.2981082947
32
0.0000000000
13
-2.2693366142
23
2.8444906175
33
0.0000000000
40
0.0000000000
40
0.0000000000
40
0.0000000000
40
0.0000000000
40
0.2004805096
40
0.5013386653
40
0.8009051218
40
1.0000000000
40
1.0000000000
40
1.0000000000
40
1.0000000000
10
21.7804023814
20
-17.4970698481
30
0.0000000000
10
21.5380914308
20
-17.4771482139
30
0.0000000000
10
20.9351926830
20
-17.3779251844
30
0.0000000000
10
20.0223963900
20
-17.0256914223
30
0.0000000000
10
19.2230726964
20
-16.4636382762
30
0.0000000000
10
18.8075229657
20
-16.0214006566
30
0.0000000000
10
18.6569185334
20
-15.8326261523
30
0.0000000000
11
21.7804023814
21
-17.4970698481
31
0.0000000000
11
21.0609450657
21
-17.3784000938
31
0.0000000000
11
20.0420221926
21
-16.9854461262
31
0.0000000000
11
19.1525758069
21
-16.3599199202
31
0.0000000000
11
18.6569185334
21
-15.8326261523
31
0.0000000000
0
SPLINE
5
31D
100
AcDbEntity
8
0
100
AcDbSpline
62
9
6
CONTINUOUS
70
0
71
3
72
8
73
4
74
2
42
0.0000001000
43
0.0000001000
44
0.0000000001
12
-0.2261647379
22
0.2834852578
32
0.0000000000
13
-0.2023690973
23
0.3009319925
33
0.0000000000
40
0.0000000000
40
0.0000000000
40
0.0000000000
40
0.0000000000
40
1.0000000000
40
1.0000000000
40
1.0000000000
40
1.0000000000
10
18.6569185334
20
-15.8326261523
30
0.0000000000
10
18.5815302874
20
-15.7381310664
30
0.0000000000
10
18.5099776442
20
-15.6405771819
30
0.0000000000
10
18.4425212784
20
-15.5402665178
30
0.0000000000
11
18.6569185334
21
-15.8326261523
31
0.0000000000
11
18.4425212784
21
-15.5402665178
31
0.0000000000
0
SPLINE
5
31E
100
AcDbEntity
8
0
100
AcDbSpline
62
9
6
CONTINUOUS
70
0
71
3
72
8
73
4
74
2
42
0.0000001000
43
0.0000001000
44
0.0000000001
12
-0.2030877005
22
0.3020005879
32
0.0000000000
13
-0.1777833053
23
0.3175737411
33
0.0000000000
40
0.0000000000
40
0.0000000000
40
0.0000000000
40
0.0000000000
40
1.0000000000
40
1.0000000000
40
1.0000000000
40
1.0000000000
10
18.4425212784
20
-15.5402665178
30
0.0000000000
10
18.3748253783
20
-15.4395996551
30
0.0000000000
10
18.3112548986
20
-15.3361563996
30
0.0000000000
10
18.2519937969
20
-15.2302984859
30
0.0000000000
11
18.4425212784
21
-15.5402665178
31
0.0000000000
11
18.2519937969
21
-15.2302984859
31
0.0000000000
0
SPLINE
5
31F
100
AcDbEntity
8
0
100
AcDbSpline
62
9
6
CONTINUOUS
70
0
71
3
72
8
73
4
74
2
42
0.0000001000
43
0.0000001000
44
0.0000000001
12
-0.3557817533
22
0.6355317910
32
0.0000000000
13
-0.2478084928
23
0.6848563393
33
0.0000000000
40
0.0000000000
40
0.0000000000
40
0.0000000000
40
0.0000000000
40
1.0000000000
40
1.0000000000
40
1.0000000000
40
1.0000000000
10
18.2519937969
20
-15.2302984859
30
0.0000000000
10
18.1333998791
20
-15.0184545556
30
0.0000000000
10
18.0320643389
20
-14.7969403006
30
0.0000000000
10
17.9494615080
20
-14.5686548541
30
0.0000000000
11
18.2519937969
21
-15.2302984859
31
0.0000000000
11
17.9494615080
21
-14.5686548541
31
0.0000000000
0
SPLINE
5
320
100
AcDbEntity
8
0
100
AcDbSpline
62
9
6
CONTINUOUS
70
0
71
3
72
10
73
6
74
4
42
0.0000001000
43
0.0000001000
44
0.0000000001
12
-0.9874881275
22
2.7290731499
32
0.0000000000
13
0.8670974643
23
2.7696787473
33
0.0000000000
40
0.0000000000
40
0.0000000000
40
0.0000000000
40
0.0000000000
40
0.3741980752
40
0.7508157981
40
1.0000000000
40
1.0000000000
40
1.0000000000
40
1.0000000000
10
17.9494615080
20
-14.5686548541
30
0.0000000000
10
17.8262894558
20
-14.2282502142
30
0.0000000000
10
17.6627220753
20
-13.5150311443
30
0.0000000000
10
17.6810753094
20
-12.5404368511
30
0.0000000000
10
17.8151903793
20
-11.9480340256
30
0.0000000000
10
17.8872127092
20
-11.7179806296
30
0.0000000000
11
17.9494615080
21
-14.5686548541
31
0.0000000000
11
17.7073007148
21
-13.5127289956
31
0.0000000000
11
17.7278284408
21
-12.4225791238
31
0.0000000000
11
17.8872127092
21
-11.7179806296
31
0.0000000000
0
SPLINE
5
321
100
AcDbEntity
8
0
100
AcDbSpline
62
9
6
CONTINUOUS
70
0
71
3
72
8
73
4
74
2
42
0.0000001000
43
0.0000001000
44
0.0000000001
12
0.1081570119
22
0.3454746319
32
0.0000000000
13
0.1358410155
23
0.3355565053
33
0.0000000000
40
0.0000000000
40
0.0000000000
40
0.0000000000
40
0.0000000000
40
1.0000000000
40
1.0000000000
40
1.0000000000
40
1.0000000000
10
17.8872127092
20
-11.7179806296
30
0.0000000000
10
17.9232650465
20
-11.6028224189
30
0.0000000000
10
17.9639830039
20
-11.4891255002
30
0.0000000000
10
18.0092633424
20
-11.3772733318
30
0.0000000000
11
17.8872127092
21
-11.7179806296
31
0.0000000000
11
18.0092633424
21
-11.3772733318
31
0.0000000000
0
SPLINE
5
322
100
AcDbEntity
8
0
100
AcDbSpline
62
9
6
CONTINUOUS
70
0
71
3
72
8
73
4
74
2
42
0.0000001000
43
0.0000001000
44
0.0000000001
12
0.1365762925
22
0.3373727976
32
0.0000000000
13
0.1636546156
23
0.3251192869
33
0.0000000000
40
0.0000000000
40
0.0000000000
40
0.0000000000
40
0.0000000000
40
1.0000000000
40
1.0000000000
40
1.0000000000
40
1.0000000000
10
18.0092633424
20
-11.3772733318
30
0.0000000000
10
18.0547887732
20
-11.2648157326
30
0.0000000000
10
18.1049261091
20
-11.1542229081
30
0.0000000000
10
18.1594776477
20
-11.0458498125
30
0.0000000000
11
18.0092633424
21
-11.3772733318
31
0.0000000000
11
18.1594776477
21
-11.0458498125
31
0.0000000000
0
SPLINE
5
323
100
AcDbEntity
8
0
100
AcDbSpline
62
9
6
CONTINUOUS
70
0
71
3
72
8
73
4
74
2
42
0.0000001000
43
0.0000001000
44
0.0000000001
12
0.1640302955
22
0.3258656196
32
0.0000000000
13
0.1900400464
23
0.3114138177
33
0.0000000000
40
0.0000000000
40
0.0000000000
40
0.0000000000
40
0.0000000000
40
1.0000000000
40
1.0000000000
40
1.0000000000
40
1.0000000000
10
18.1594776477
20
-11.0458498125
30
0.0000000000
10
18.2141544129
20
-10.9372279393
30
0.0000000000
10
18.2732656701
20
-10.8308359977
30
0.0000000000
10
18.3366123522
20
-10.7270313918
30
0.0000000000
11
18.1594776477
21
-11.0458498125
31
0.0000000000
11
18.3366123522
21
-10.7270313918
31
0.0000000000
0
SPLINE
5
324
100
AcDbEntity
8
0
100
AcDbSpline
62
9
6
CONTINUOUS
70
0
71
3
72
8
73
4
74
2
42
0.0000001000
43
0.0000001000
44
0.0000000001
12
0.1136122696
22
0.1861735528
32
0.0000000000
13
0.1225672302
23
0.1803960997
33
0.0000000000
40
0.0000000000
40
0.0000000000
40
0.0000000000
40
0.0000000000
40
1.0000000000
40
1.0000000000
40
1.0000000000
40
1.0000000000
10
18.3366123522
20
-10.7270313918
30
0.0000000000
10
18.3744831088
20
-10.6649735409
30
0.0000000000
10
18.4138676259
20
-10.6038404158
30
0.0000000000
10
18.4547233694
20
-10.5437083826
30
0.0000000000
11
18.3366123522
21
-10.7270313918
31
0.0000000000
11
18.4547233694
21
-10.5437083826
31
0.0000000000
0
SPLINE
5
325
100
AcDbEntity
8
0
100
AcDbSpline
62
9
6
CONTINUOUS
70
0
71
3
72
8
73
4
74
2
42
0.0000001000
43
0.0000001000
44
0.0000000001
12
0.0820159286
22
0.1207121480
32
0.0000000000
13
0.0859302553
23
0.1179539976
33
0.0000000000
40
0.0000000000
40
0.0000000000
40
0.0000000000
40
0.0000000000
40
1.0000000000
40
1.0000000000
40
1.0000000000
40
1.0000000000
10
18.4547233694
20
-10.5437083826
30
0.0000000000
10
18.4820620122
20
-10.5034709999
30
0.0000000000
10
18.5100594150
20
-10.4636818686
30
0.0000000000
10
18.5387028334
20
-10.4243638694
30
0.0000000000
11
18.4547233694
21
-10.5437083826
31
0.0000000000
11
18.5387028334
21
-10.4243638694
31
0.0000000000
0
SPLINE
5
326
100
AcDbEntity
8
0
100
AcDbSpline
62
9
6
CONTINUOUS
70
0
71
3
72
11
73
7
74
5
42
0.0000001000
43
0.0000001000
44
0.0000000001
12
2.2887891825
22
3.1417552831
32
0.0000000000
13
3.8745285708
23
0.2722602295
33
0.0000000000
40
0.0000000000
40
0.0000000000
40
0.0000000000
40
0.0000000000
40
0.2793147004
40
0.5607248977
40
0.8317810384
40
1.0000000000
40
1.0000000000
40
1.0000000000
40
1.0000000000
10
18.5387028334
20
-10.4243638694
30
0.0000000000
10
18.7518003217
20
-10.1318510575
30
0.0000000000
10
19.2513744508
20
-9.5969796023
30
0.0000000000
10
20.1626849844
20
-9.0062034839
30
0.0000000000
10
21.0504542967
20
-8.6975006787
30
0.0000000000
10
21.6156349624
20
-8.6161625047
30
0.0000000000
10
21.8328913534
20
-8.6008960603
30
0.0000000000
11
18.5387028334
21
-10.4243638694
31
0.0000000000
11
19.2779843490
21
-9.6328772234
31
0.0000000000
11
20.1935560911
21
-9.0392587872
31
0.0000000000
11
21.1862957088
21
-8.6941243738
31
0.0000000000
11
21.8328913534
21
-8.6008960603
31
0.0000000000
0
SPLINE
5
327
100
AcDbEntity
8
0
100
AcDbSpline
62
9
6
CONTINUOUS
70
0
71
3
72
8
73
4
74
2
42
0.0000001000
43
0.0000001000
44
0.0000000001
12
0.3118724629
22
0.0219150451
32
0.0000000000
13
0.3121125286
23
0.0000259235
33
0.0000000000
40
0.0000000000
40
0.0000000000
40
0.0000000000
40
0.0000000000
40
1.0000000000
40
1.0000000000
40
1.0000000000
40
1.0000000000
10
21.8328913534
20
-8.6008960603
30
0.0000000000
10
21.9368488410
20
-8.5935910453
30
0.0000000000
10
22.0409946068
20
-8.5899223711
30
0.0000000000
10
22.1450321164
20
-8.5899137300
30
0.0000000000
11
21.8328913534
21
-8.6008960603
31
0.0000000000
11
22.1450321164
21
-8.5899137300
31
0.0000000000
0
SPLINE
5
328
100
AcDbEntity
8
0
100
AcDbSpline
62
9
6
CONTINUOUS
70
0
71
3
72
11
73
7
74
5
42
0.0000001000
43
0.0000001000
44
0.0000000001
12
-0.0003802071
22
-1.2482731391
32
0.0000000000
13
-1.2482731391
23
-0.0003802071
33
0.0000000000
40
0.0000000000
40
0.0000000000
40
0.0000000000
40
0.0000000000
40
0.2499897029
40
0.5000000000
40
0.7500102971
40
1.0000000000
40
1.0000000000
40
1.0000000000
40
1.0000000000
10
35.2448660445
20
-21.0044110873
30
0.0000000000
10
35.2448343619
20
-21.1084295644
30
0.0000000000
10
35.2031558932
20
-21.3187368254
30
0.0000000000
10
35.0251347820
20
-21.5845579809
30
0.0000000000
10
34.7593136265
20
-21.7625790920
30
0.0000000000
10
34.5490063655
20
-21.8042575608
30
0.0000000000
10
34.4449878884
20
-21.8042892434
30
0.0000000000
11
35.2448660445
21
-21.0044110873
31
0.0000000000
11
35.1839090349
21
-21.3104549472
31
0.0000000000
11
35.0105010395
21
-21.5699242383
31
0.0000000000
11
34.7510317483
21
-21.7433322338
31
0.0000000000
11
34.4449878884
21
-21.8042892434
31
0.0000000000
0
SPLINE
5
329
100
AcDbEntity
8
0
100
AcDbSpline
62
9
6
CONTINUOUS
70
0
71
3
72
11
73
7
74
5
42
0.0000001000
43
0.0000001000
44
0.0000000001
12
-0.1999147830
22
-0.7789932714
32
0.0000000000
13
-0.8042359944
23
-0.0009501327
33
0.0000000000
40
0.0000000000
40
0.0000000000
40
0.0000000000
40
0.0000000000
40
0.0845721753
40
0.3023924673
40
0.6232973710
40
1.0000000000
40
1.0000000000
40
1.0000000000
40
1.0000000000
10
35.2328888905
20
-20.3520052842
30
0.0000000000
10
35.2272531478
20
-20.3739656693
30
0.0000000000
10
35.1151937966
20
-20.3686269136
30
0.0000000000
10
34.9759279251
20
-20.3992405031
30
0.0000000000
10
34.7172216047
20
-20.4013131194
30
0.0000000000
10
34.5339966722
20
-20.4061574740
30
0.0000000000
10
34.4330107344
20
-20.4062767798
30
0.0000000000
11
35.2328888905
21
-20.3520052842
31
0.0000000000
11
35.1680526605
21
-20.3725587335
31
0.0000000000
11
34.9937491629
21
-20.3900512261
31
0.0000000000
11
34.7359368188
21
-20.4018776652
31
0.0000000000
11
34.4330107344
21
-20.4062767798
31
0.0000000000
0
SPLINE
5
32A
100
AcDbEntity
8
0
100
AcDbSpline
62
9
6
CONTINUOUS
70
0
71
3
72
17
73
13
74
11
42
0.0000001000
43
0.0000001000
44
0.0000000001
12
0.0007745653
22
-1.3981515322
32
0.0000000000
13
0.5910154755
23
-1.2670947142
33
0.0000000000
40
0.0000000000
40
0.0000000000
40
0.0000000000
40
0.0000000000
40
0.1204486015
40
0.2524000115
40
0.3896245806
40
0.5251524944
40
0.6517721446
40
0.7629194820
40
0.8536975671
40
0.9216169752
40
0.9667804414
40
1.0000000000
40
1.0000000000
40
1.0000000000
40
1.0000000000
10
34.4330107344
20
-20.4062768082
30
0.0000000000
10
34.4330418328
20
-20.4624119404
30
0.0000000000
10
34.4331614399
20
-20.5800429491
30
0.0000000000
10
34.4335252939
20
-20.7616279830
30
0.0000000000
10
34.4341348039
20
-20.9502372218
30
0.0000000000
10
34.4349582585
20
-21.1363714430
30
0.0000000000
10
34.4361514929
20
-21.3103140092
30
0.0000000000
10
34.4371477167
20
-21.4635141114
30
0.0000000000
10
34.4394187521
20
-21.5890281286
30
0.0000000000
10
34.4388912957
20
-21.6846093089
30
0.0000000000
10
34.4449022326
20
-21.7514958037
30
0.0000000000
10
34.4384434640
20
-21.7902584677
30
0.0000000000
10
34.4449878884
20
-21.8042892434
30
0.0000000000
11
34.4330107344
21
-20.4062768082
31
0.0000000000
11
34.4331824284
21
-20.5746821431
31
0.0000000000
11
34.4335573816
21
-20.7591698566
31
0.0000000000
11
34.4341757317
21
-20.9510296312
31
0.0000000000
11
34.4350561253
21
-21.1405161752
31
0.0000000000
11
34.4361898738
21
-21.3175460299
31
0.0000000000
11
34.4375388631
21
-21.4729410188
31
0.0000000000
11
34.4390397600
21
-21.5998536824
31
0.0000000000
11
34.4406139940
21
-21.6948022721
31
0.0000000000
11
34.4421795216
21
-21.7579282415
31
0.0000000000
11
34.4449878884
21
-21.8042892434
31
0.0000000000
0
SPLINE
5
32B
100
AcDbEntity
8
ASSI
100
AcDbSpline
62
9
6
CONTINUOUS
70
0
71
3
72
8
73
4
74
2
42
0.0000001000
43
0.0000001000
44
0.0000000001
12
-0.0025217251
22
0.0630643373
32
0.0306509210
13
-0.0024295017
23
0.0610624082
33
0.0319358940
40
0.0000000000
40
0.0000000000
40
0.0000000000
40
0.0000000000
40
1.0000000000
40
1.0000000000
40
1.0000000000
40
1.0000000000
10
-18.4090614180
20
-12.0448363152
30
-0.2042185239
10
-18.4099019930
20
-12.0238148695
30
-0.1940015502
10
-18.4107267729
20
-12.0031360615
30
-0.1835709495
10
-18.4115366068
20
-11.9827819254
30
-0.1729256515
11
-18.4090614180
21
-12.0448363152
31
-0.2042185239
11
-18.4115366068
21
-11.9827819254
31
-0.1729256515
0
SPLINE
5
32C
100
AcDbEntity
8
ASSI
100
AcDbSpline
62
9
6
CONTINUOUS
70
0
71
3
72
25
73
21
74
19
42
0.0000001000
43
0.0000001000
44
0.0000000001
12
-0.4528368384
22
11.3814730626
32
5.9525578508
13
-0.5238812667
23
11.1482930797
33
-6.1598455578
40
0.0000000000
40
0.0000000000
40
0.0000000000
40
0.0000000000
40
0.0368698360
40
0.0791047427
40
0.1213396494
40
0.1635745561
40
0.2058094628
40
0.2480443695
40
0.3325141829
40
0.4169839963
40
0.5014538097
40
0.5859236232
40
0.6703934366
40
0.7548632500
40
0.7970981567
40
0.8393330634
40
0.8815679701
40
0.9238028768
40
0.9660377835
40
1.0000000000
40
1.0000000000
40
1.0000000000
40
1.0000000000
10
-18.4115366068
20
-11.9827819254
30
-0.1729256515
10
-18.4171019468
20
-11.8429042438
30
-0.0997690410
10
-18.4275280367
20
-11.5756926002
30
0.0789439951
10
-18.4404827472
20
-11.2329099718
30
0.4271214350
10
-18.4504444577
20
-10.9615538454
30
0.8676884989
10
-18.4563612320
20
-10.7970552982
30
1.3535308786
10
-18.4582418011
20
-10.7442656672
30
1.8618299191
10
-18.4553654213
20
-10.8248957113
30
2.5372697510
10
-18.4417344642
20
-11.2038158457
30
3.3162554708
10
-18.4106428604
20
-12.0176144074
30
3.9640113875
10
-18.3685493827
20
-13.0325776641
30
4.1979461838
10
-18.3226986246
20
-14.0492388340
30
3.9706061099
10
-18.2831187326
20
-14.8673245333
30
3.3279035260
10
-18.2636863524
20
-15.2510949993
30
2.5515159974
10
-18.2593555507
20
-15.3360870616
30
1.8768979187
10
-18.2618757842
20
-15.2866825784
30
1.3684856392
10
-18.2700442109
20
-15.1255035886
30
0.8817275888
10
-18.2834439459
20
-14.8572223596
30
0.4394610654
10
-18.2996803810
20
-14.5250020315
30
0.0973677422
10
-18.3118265590
20
-14.2703118227
30
-0.0782506997
10
-18.3177572820
20
-14.1441049084
30
-0.1479847025
11
-18.4115366068
21
-11.9827819254
31
-0.1729256515
11
-18.4263906627
21
-11.6033179787
31
0.0773101667
11
-18.4398884478
21
-11.2473404290
31
0.4399539098
11
-18.4497703016
21
-10.9793634419
31
0.8752343849
11
-18.4556885311
21
-10.8156734509
31
1.3572736554
11
-18.4575688254
21
-10.7631426946
31
1.8615433913
11
-18.4554154841
21
-10.8232803722
31
2.3640555216
11
-18.4392787216
21
-11.2636649125
31
3.2684176463
11
-18.4088092147
21
-12.0511418566
31
3.8950412008
11
-18.3679231693
21
-13.0328606497
31
4.1210670388
11
-18.3237437689
21
-14.0161429222
31
3.9013790249
11
-18.2858289052
21
-14.8077310100
31
3.2797431176
11
-18.2635382438
21
-15.2538409890
31
2.3784024731
11
-18.2603169398
21
-15.3172289733
31
1.8764897987
11
-18.2628171497
21
-15.2680534940
31
1.3720946774
11
-18.2709160956
21
-15.1076532154
31
0.8891428433
11
-18.2841057533
21
-14.8426981452
31
0.4521739598
11
-18.3013367993
21
-14.4892161265
31
0.0871371093
11
-18.3177572820
21
-14.1441049084
31
-0.1479847025
0
SPLINE
5
32D
100
AcDbEntity
8
ASSI
100
AcDbSpline
62
9
6
CONTINUOUS
70
0
71
3
72
8
73
4
74
2
42
0.0000001000
43
0.0000001000
44
0.0000000001
12
-0.0043339074
22
0.0922263752
32
-0.0509584941
13
-0.0045257289
23
0.0969406194
33
-0.0479303556
40
0.0000000000
40
0.0000000000
40
0.0000000000
40
0.0000000000
40
1.0000000000
40
1.0000000000
40
1.0000000000
40
1.0000000000
10
-18.3177572820
20
-14.1441049084
30
-0.1479847025
10
-18.3192019178
20
-14.1133627833
30
-0.1649708672
10
-18.3206772284
20
-14.0818678551
30
-0.1814502148
10
-18.3221858047
20
-14.0495543152
30
-0.1974270000
11
-18.3177572820
21
-14.1441049084
31
-0.1479847025
11
-18.3221858047
21
-14.0495543152
31
-0.1974270000
0
SPLINE
5
32E
100
AcDbEntity
8
ASSI
100
AcDbSpline
62
9
6
CONTINUOUS
70
0
71
3
72
8
73
4
74
2
42
0.0000001000
43
0.0000001000
44
0.0000000001
12
0.0065667291
22
-0.1601901160
32
-0.1122112383
13
0.0066523077
23
-0.1601865849
33
-0.1122087648
40
0.0000000000
40
0.0000000000
40
0.0000000000
40
0.0000000000
40
1.0000000000
40
1.0000000000
40
1.0000000000
40
1.0000000000
10
-18.3968577913
20
-12.3462353152
30
-3.6732600000
10
-18.3946688816
20
-12.3996320206
30
-3.7106637461
10
-18.3924657087
20
-12.4530281412
30
-3.7480670826
10
-18.3902482728
20
-12.5064236695
30
-3.7854700042
11
-18.3968577913
21
-12.3462353152
31
-3.6732600000
11
-18.3902482728
21
-12.5064236695
31
-3.7854700042
0
SPLINE
5
32F
100
AcDbEntity
8
ASSI
100
AcDbSpline
62
9
6
CONTINUOUS
70
0
71
3
72
8
73
4
74
2
42
0.0000001000
43
0.0000001000
44
0.0000000001
12
0.0010851652
22
-0.0261306168
32
-0.0183041809
13
0.0010874424
23
-0.0261305221
33
-0.0183041146
40
0.0000000000
40
0.0000000000
40
0.0000000000
40
0.0000000000
40
1.0000000000
40
1.0000000000
40
1.0000000000
40
1.0000000000
10
-18.3902482728
20
-12.5064236695
30
-3.7854700042
10
-18.3898865511
20
-12.5151338751
30
-3.7915713979
10
-18.3895244498
20
-12.5238440649
30
-3.7976727805
10
-18.3891619690
20
-12.5325542389
30
-3.8037741520
11
-18.3902482728
21
-12.5064236695
31
-3.7854700042
11
-18.3891619690
21
-12.5325542389
31
-3.8037741520
0
SPLINE
5
330
100
AcDbEntity
8
ASSI
100
AcDbSpline
62
9
6
CONTINUOUS
70
0
71
3
72
8
73
4
74
2
42
0.0000001000
43
0.0000001000
44
0.0000000001
12
0.0112901927
22
-0.2712958678
32
-0.1900394733
13
0.0115356567
23
-0.2712855413
33
-0.1900322398
40
0.0000000000
40
0.0000000000
40
0.0000000000
40
0.0000000000
40
1.0000000000
40
1.0000000000
40
1.0000000000
40
1.0000000000
10
-18.3891619690
20
-12.5325542389
30
-3.8037741520
10
-18.3853985714
20
-12.6229861949
30
-3.8671206431
10
-18.3815942624
20
-12.7134164482
30
-3.9304659416
10
-18.3777490435
20
-12.8038449620
30
-3.9938100215
11
-18.3891619690
21
-12.5325542389
31
-3.8037741520
11
-18.3777490435
21
-12.8038449620
31
-3.9938100215
0
SPLINE
5
331
100
AcDbEntity
8
ASSI
100
AcDbSpline
62
9
6
CONTINUOUS
70
0
71
3
72
8
73
4
74
2
42
0.0000001000
43
0.0000001000
44
0.0000000001
12
0.0103479709
22
-0.2433545794
32
-0.1704669388
13
0.0105454849
23
-0.2433461004
33
-0.1704609994
40
0.0000000000
40
0.0000000000
40
0.0000000000
40
0.0000000000
40
1.0000000000
40
1.0000000000
40
1.0000000000
40
1.0000000000
10
-18.3777490435
20
-12.8038449620
30
-3.9938100215
10
-18.3742997199
20
-12.8849631551
30
-4.0506323345
10
-18.3708174767
20
-12.9660799485
30
-4.1074536669
10
-18.3673023151
20
-13.0471953152
30
-4.1642740000
11
-18.3777490435
21
-12.8038449620
31
-3.9938100215
11
-18.3673023151
21
-13.0471953152
31
-4.1642740000
0
SPLINE
5
332
100
AcDbEntity
8
ASSI
100
AcDbSpline
62
9
6
CONTINUOUS
70
0
71
3
72
13
73
9
74
7
42
0.0000001000
43
0.0000001000
44
0.0000000001
12
-0.0050893801
22
0.1265749483
32
0.0886281727
13
-0.0000000000
23
0.0000000000
33
0.1544165909
40
0.0000000000
40
0.0000000000
40
0.0000000000
40
0.0000000000
40
0.1666666667
40
0.3333333333
40
0.5000000000
40
0.6666666667
40
0.8333333333
40
1.0000000000
40
1.0000000000
40
1.0000000000
40
1.0000000000
10
-18.4063978646
20
-12.1112632513
30
-3.8769724942
10
-18.4066806080
20
-12.1042313097
30
-3.8720487069
10
-18.4071920276
20
-12.0915001588
30
-3.8614506903
10
-18.4078480219
20
-12.0751461393
30
-3.8428103224
10
-18.4083812346
20
-12.0618363905
30
-3.8215954048
10
-18.4087710235
20
-12.0520972369
30
-3.7985250136
10
-18.4090063509
20
-12.0462135605
30
-3.7744443452
10
-18.4090614180
20
-12.0448363152
30
-3.7579466995
10
-18.4090614180
20
-12.0448363152
30
-3.7493680000
11
-18.4063978646
21
-12.1112632513
31
-3.8769724942
11
-18.4071735051
21
-12.0919572766
31
-3.8609934664
11
-18.4078275583
21
-12.0756535177
31
-3.8423812308
11
-18.4083573306
21
-12.0624314897
31
-3.8212861592
11
-18.4087452799
21
-12.0527398164
31
-3.7983566341
11
-18.4089808964
21
-12.0468498619
31
-3.7743333785
11
-18.4090614180
21
-12.0448363152
31
-3.7493680000
0
SPLINE
5
333
100
AcDbEntity
8
ASSI
100
AcDbSpline
62
9
6
CONTINUOUS
70
0
71
3
72
8
73
4
74
2
42
0.0000001000
43
0.0000001000
44
0.0000000001
12
-0.0079271241
22
0.1838884008
32
0.1287592302
13
-0.0078143390
23
0.1838932281
33
0.1287626103
40
0.0000000000
40
0.0000000000
40
0.0000000000
40
0.0000000000
40
1.0000000000
40
1.0000000000
40
1.0000000000
40
1.0000000000
10
-18.3702383866
20
-12.9792650352
30
-4.4847505041
10
-18.3728807613
20
-12.9179689016
30
-4.4418307607
10
-18.3755043387
20
-12.8566719577
30
-4.3989104500
10
-18.3781091184
20
-12.7953742150
30
-4.3559895799
11
-18.3702383866
21
-12.9792650352
31
-4.4847505041
11
-18.3781091184
21
-12.7953742150
31
-4.3559895799
0
SPLINE
5
334
100
AcDbEntity
8
ASSI
100
AcDbSpline
62
9
6
CONTINUOUS
70
0
71
3
72
8
73
4
74
2
42
0.0000001000
43
0.0000001000
44
0.0000000001
12
-0.0010997176
22
0.0258794274
32
0.0181208556
13
-0.0010974838
23
0.0258795223
33
0.0181209220
40
0.0000000000
40
0.0000000000
40
0.0000000000
40
0.0000000000
40
1.0000000000
40
1.0000000000
40
1.0000000000
40
1.0000000000
10
-18.3781091184
20
-12.7953742150
30
-4.3559895799
10
-18.3784756909
20
-12.7867477392
30
-4.3499492947
10
-18.3788418912
20
-12.7781212476
30
-4.3439089984
10
-18.3792077191
20
-12.7694947402
30
-4.3378686911
11
-18.3781091184
21
-12.7953742150
31
-4.3559895799
11
-18.3792077191
21
-12.7694947402
31
-4.3378686911
0
SPLINE
5
335
100
AcDbEntity
8
ASSI
100
AcDbSpline
62
9
6
CONTINUOUS
70
0
71
3
72
8
73
4
74
2
42
0.0000001000
43
0.0000001000
44
0.0000000001
12
-0.0094472072
22
0.2227724905
32
0.1559859907
13
-0.0092816858
23
0.2227794482
33
0.1559908626
40
0.0000000000
40
0.0000000000
40
0.0000000000
40
0.0000000000
40
1.0000000000
40
1.0000000000
40
1.0000000000
40
1.0000000000
10
-18.3792077191
20
-12.7694947402
30
-4.3378686911
10
-18.3823567882
20
-12.6952372433
30
-4.2858733608
10
-18.3854782708
20
-12.6209785766
30
-4.2338772114
10
-18.3885721661
20
-12.5467187606
30
-4.1818802572
11
-18.3792077191
21
-12.7694947402
31
-4.3378686911
11
-18.3885721661
21
-12.5467187606
31
-4.1818802572
0
SPLINE
5
336
100
AcDbEntity
8
ASSI
100
AcDbSpline
62
9
6
CONTINUOUS
70
0
71
3
72
8
73
4
74
2
42
0.0000001000
43
0.0000001000
44
0.0000000001
12
-0.0021371752
22
0.0512965764
32
0.0359180223
13
-0.0021283993
23
0.0512969412
33
0.0359182778
40
0.0000000000
40
0.0000000000
40
0.0000000000
40
0.0000000000
40
1.0000000000
40
1.0000000000
40
1.0000000000
40
1.0000000000
10
-18.3885721661
20
-12.5467187606
30
-4.1818802572
10
-18.3892845578
20
-12.5296199018
30
-4.1699075831
10
-18.3899954869
20
-12.5125209821
30
-4.1579348664
10
-18.3907049533
20
-12.4954220016
30
-4.1459621071
11
-18.3885721661
21
-12.5467187606
31
-4.1818802572
11
-18.3907049533
21
-12.4954220016
31
-4.1459621071
0
SPLINE
5
337
100
AcDbEntity
8
ASSI
100
AcDbSpline
62
9
6
CONTINUOUS
70
0
71
3
72
8
73
4
74
2
42
0.0000001000
43
0.0000001000
44
0.0000000001
12
-0.0097627472
22
0.2352937544
32
0.1647534187
13
-0.0095781031
23
0.2353013430
33
0.1647587323
40
0.0000000000
40
0.0000000000
40
0.0000000000
40
0.0000000000
40
1.0000000000
40
1.0000000000
40
1.0000000000
40
1.0000000000
10
-18.3907049533
20
-12.4954220016
30
-4.1459621071
10
-18.3939592024
20
-12.4169907502
30
-4.0910443009
10
-18.3971826779
20
-12.3385582219
30
-4.0361256006
10
-18.4003753790
20
-12.2601244409
30
-3.9812060232
11
-18.3907049533
21
-12.4954220016
31
-4.1459621071
11
-18.4003753790
21
-12.2601244409
31
-3.9812060232
0
SPLINE
5
338
100
AcDbEntity
8
ASSI
100
AcDbSpline
62
9
6
CONTINUOUS
70
0
71
3
72
8
73
4
74
2
42
0.0000001000
43
0.0000001000
44
0.0000000001
12
-0.0042042745
22
0.1036691610
32
0.0725894690
13
-0.0041684325
23
0.1036706084
33
0.0725904824
40
0.0000000000
40
0.0000000000
40
0.0000000000
40
0.0000000000
40
1.0000000000
40
1.0000000000
40
1.0000000000
40
1.0000000000
10
-18.4022115198
20
-12.2149329207
30
-3.9495627802
10
-18.4036129446
20
-12.1803765337
30
-3.9253662905
10
-18.4050083958
20
-12.1458199044
30
-3.9011696312
10
-18.4063978733
20
-12.1112630350
30
-3.8769728037
11
-18.4022115198
21
-12.2149329207
31
-3.9495627802
11
-18.4063978733
21
-12.1112630350
31
-3.8769728037
0
SPLINE
5
339
100
AcDbEntity
8
ASSI
100
AcDbSpline
62
9
6
CONTINUOUS
70
0
71
3
72
11
73
7
74
5
42
0.0000001000
43
0.0000001000
44
0.0000000001
12
-0.0037965454
22
0.0875046091
32
-0.0101319128
13
-0.0033058990
23
0.0766881496
33
0.0536972809
40
0.0000000000
40
0.0000000000
40
0.0000000000
40
0.0000000000
40
0.0436730922
40
0.3624487281
40
0.6812243641
40
1.0000000000
40
1.0000000000
40
1.0000000000
40
1.0000000000
10
-18.3666372928
20
-13.0625321936
30
-4.5058281592
10
-18.3666925618
20
-13.0612583280
30
-4.5059756565
10
-18.3671521092
20
-13.0506648865
30
-4.5070311278
10
-18.3680243897
20
-13.0305320073
30
-4.5063484609
10
-18.3691790412
20
-13.0038241027
30
-4.4991120630
10
-18.3698871066
20
-12.9874138064
30
-4.4904562991
10
-18.3702383866
20
-12.9792650352
30
-4.4847505041
11
-18.3666372928
21
-13.0625321936
31
-4.5058281592
11
-18.3668033738
21
-13.0587037059
31
-4.5062094157
11
-18.3680127419
21
-13.0307912314
31
-4.5053021199
11
-18.3691636156
21
-13.0041728461
31
-4.4981541884
11
-18.3702383866
21
-12.9792650352
31
-4.4847505041
0
SPLINE
5
33A
100
AcDbEntity
8
ASSI
100
AcDbSpline
62
9
6
CONTINUOUS
70
0
71
3
72
13
73
9
74
7
42
0.0000001000
43
0.0000001000
44
0.0000000001
12
0.0048300272
22
-0.1184424851
32
-0.0492023228
13
0.0000000000
23
0.0000000000
33
-0.1281391667
40
0.0000000000
40
0.0000000000
40
0.0000000000
40
0.0000000000
40
0.1666666667
40
0.3333333333
40
0.5000000000
40
0.6666666667
40
0.8333333333
40
1.0000000000
40
1.0000000000
40
1.0000000000
40
1.0000000000
10
-18.3994749447
20
-12.2822249985
30
0.0190822342
10
-18.3992066099
20
-12.2888051365
30
0.0163487718
10
-18.3987215591
20
-12.3006893958
30
0.0098882383
10
-18.3980830830
20
-12.3163116481
30
-0.0029434021
10
-18.3975502641
20
-12.3293331063
30
-0.0188076552
10
-18.3971550906
20
-12.3389815833
30
-0.0369192127
10
-18.3969153668
20
-12.3448309061
30
-0.0562610505
10
-18.3968577913
20
-12.3462353152
30
-0.0697031574
10
-18.3968577913
20
-12.3462353152
30
-0.0768220000
11
-18.3994749447
21
-12.2822249985
31
0.0190822342
11
-18.3987364091
21
-12.3003220397
31
0.0093647650
11
-18.3981006925
21
-12.3158781824
31
-0.0034488375
11
-18.3975732050
21
-12.3287709428
31
-0.0191822060
11
-18.3971809989
21
-12.3383483909
31
-0.0371242594
11
-18.3969409269
21
-12.3442071212
31
-0.0563979376
11
-18.3968577913
21
-12.3462353152
31
-0.0768220000
0
SPLINE
5
33B
100
AcDbEntity
8
ASSI
100
AcDbSpline
62
9
6
CONTINUOUS
70
0
71
3
72
8
73
4
74
2
42
0.0000001000
43
0.0000001000
44
0.0000000001
12
0.0031865797
22
-0.0694408244
32
0.0294290571
13
0.0030400828
23
-0.0659325371
33
0.0308226081
40
0.0000000000
40
0.0000000000
40
0.0000000000
40
0.0000000000
40
1.0000000000
40
1.0000000000
40
1.0000000000
40
1.0000000000
10
-18.3332135403
20
-13.8113091989
30
0.0245363745
10
-18.3321513470
20
-13.8344561404
30
0.0343460602
10
-18.3311164701
20
-13.8569532101
30
0.0443662027
10
-18.3301031092
20
-13.8789307224
30
0.0546404054
11
-18.3332135403
21
-13.8113091989
31
0.0245363745
11
-18.3301031092
21
-13.8789307224
31
0.0546404054
0
SPLINE
5
33C
100
AcDbEntity
8
ASSI
100
AcDbSpline
62
9
6
CONTINUOUS
70
0
71
3
72
30
73
26
74
24
42
0.0000001000
43
0.0000001000
44
0.0000000001
12
0.4761550927
22
-10.3267297508
32
4.8276125629
13
0.4320534630
23
-10.6228552955
33
-4.6349073391
40
0.0000000000
40
0.0000000000
40
0.0000000000
40
0.0000000000
40
0.0165589545
40
0.0395025573
40
0.0624461601
40
0.0853897629
40
0.1312769684
40
0.1771641740
40
0.2230513796
40
0.2689385851
40
0.3148257907
40
0.3607129962
40
0.4524874074
40
0.5442618185
40
0.6360362296
40
0.6819234352
40
0.7278106408
40
0.7736978463
40
0.8195850519
40
0.8654722574
40
0.9113594630
40
0.9343030658
40
0.9572466686
40
0.9801902713
40
1.0000000000
40
1.0000000000
40
1.0000000000
40
1.0000000000
10
-18.3301031092
20
-13.8789307224
30
0.0546404054
10
-18.3274748990
20
-13.9359306719
30
0.0812871443
10
-18.3215503775
20
-14.0635709328
30
0.1489316390
10
-18.3125765031
20
-14.2543582181
30
0.2780826208
10
-18.3037402944
20
-14.4395611017
30
0.4416933485
10
-18.2933484917
20
-14.6547907901
30
0.6842635460
10
-18.2827931184
20
-14.8697188708
30
1.0434643149
10
-18.2758172518
20
-15.0097884190
30
1.5179977280
10
-18.2748285484
20
-15.0295414997
30
2.0118854262
10
-18.2799176726
20
-14.9276139074
30
2.4945608553
10
-18.2906754613
20
-14.7097380912
30
2.9385571187
10
-18.3113640139
20
-14.2829522660
30
3.4412581892
10
-18.3461319305
20
-13.5389830117
30
3.8415992189
10
-18.3899031441
20
-12.5277919917
30
3.8380764629
10
-18.4194322702
20
-11.7867747358
30
3.4327830403
10
-18.4355733551
20
-11.3633825966
30
2.9271695084
10
-18.4435735286
20
-11.1485152806
30
2.4816606927
10
-18.4471932656
20
-11.0498628454
30
1.9981166657
10
-18.4463444258
20
-11.0730693088
30
1.5041891722
10
-18.4410594356
20
-11.2165252063
30
1.0305144173
10
-18.4328924671
20
-11.4340653007
30
0.6727611168
10
-18.4245653620
20
-11.6510477623
30
0.4317128815
10
-18.4173057111
20
-11.8374237248
30
0.2694274662
10
-18.4093132900
20
-12.0391017099
30
0.1350010497
10
-18.4037015225
20
-12.1783514255
30
0.0640477511
10
-18.4008485685
20
-12.2484967191
30
0.0334423322
11
-18.3301031092
21
-13.8789307224
31
0.0546404054
11
-18.3225514739
21
-14.0417195223
31
0.1404681558
11
-18.3127523658
21
-14.2501763913
31
0.2816251263
11
-18.3039140205
21
-14.4355976655
31
0.4447461685
11
-18.2961087344
21
-14.5973760993
31
0.6273535314
11
-18.2837415486
21
-14.8500781794
31
1.0507130633
11
-18.2768151123
21
-14.9897356744
31
1.5212234422
11
-18.2758415197
21
-15.0092613875
31
2.0100167147
11
-18.2808624500
21
-14.9082892035
31
2.4881143277
11
-18.2914685656
21
-14.6927024991
31
2.9273953753
11
-18.3067856908
21
-14.3756162575
31
3.3003805677
11
-18.3464735495
21
-13.5192450259
31
3.7609438870
11
-18.3885137671
21
-12.5481203772
31
3.7576049044
11
-18.4228440235
21
-11.6950451731
31
3.2912647578
11
-18.4348890818
21
-11.3804953947
31
2.9161197306
11
-18.4428434558
21
-11.1678844274
31
2.4753214908
11
-18.4464485028
21
-11.0701726618
31
1.9963860879
11
-18.4456050674
21
-11.0931108811
31
1.5075646286
11
-18.4403068736
21
-11.2361239089
31
1.0379095497
11
-18.4306612300
21
-11.4918901149
31
0.6162619251
11
-18.4243963083
21
-11.6549876150
31
0.4347963417
11
-18.4171200403
21
-11.8415774686
31
0.2730018982
11
-18.4088137935
21
-12.0510274085
31
0.1333482732
11
-18.4008485685
21
-12.2484967191
31
0.0334423322
0
SPLINE
5
33D
100
AcDbEntity
8
ASSI
100
AcDbSpline
62
9
6
CONTINUOUS
70
0
71
3
72
13
73
9
74
7
42
0.0000001000
43
0.0000001000
44
0.0000000001
12
0.0000000000
22
0.0000000000
32
0.1272918752
13
0.0053835687
23
-0.1173168360
33
0.0497189355
40
0.0000000000
40
0.0000000000
40
0.0000000000
40
0.0000000000
40
0.1666666667
40
0.3333333333
40
0.5000000000
40
0.6666666667
40
0.8333333333
40
1.0000000000
40
1.0000000000
40
1.0000000000
40
1.0000000000
10
-18.3361128921
20
-13.7479814775
30
-0.0710820000
10
-18.3361128921
20
-13.7479814775
30
-0.0640102292
10
-18.3360495641
20
-13.7493679828
30
-0.0506483472
10
-18.3357854852
20
-13.7551480919
30
-0.0314116681
10
-18.3353495816
20
-13.7646836883
30
-0.0133832960
10
-18.3347605219
20
-13.7775589077
30
0.0024375160
10
-18.3340524173
20
-13.7930197747
30
0.0152762797
10
-18.3335126274
20
-13.8047915969
30
0.0217742114
10
-18.3332135403
20
-13.8113091989
30
0.0245363745
11
-18.3361128921
21
-13.7479814775
31
-0.0710820000
11
-18.3360213830
21
-13.7499847080
31
-0.0507827045
11
-18.3357568478
21
-13.7557740065
31
-0.0316130526
11
-18.3353240556
21
-13.7652402921
31
-0.0137512226
11
-18.3347406811
21
-13.7779898490
31
0.0019405080
11
-18.3340354873
21
-13.7933859191
31
0.0147609687
11
-18.3332135403
21
-13.8113091989
31
0.0245363745
0
SPLINE
5
33E
100
AcDbEntity
8
ASSI
100
AcDbSpline
62
9
6
CONTINUOUS
70
0
71
3
72
16
73
12
74
10
42
0.0000001000
43
0.0000001000
44
0.0000000001
12
0.0000000000
22
0.0000000000
32
0.3439930085
13
0.0095430336
23
-0.2246846380
33
0.2100425761
40
0.0000000000
40
0.0000000000
40
0.0000000000
40
0.0000000000
40
0.0972649371
40
0.1945298742
40
0.2917948112
40
0.3890597483
40
0.5835896225
40
0.6808545596
40
0.7781194966
40
0.9726493708
40
1.0000000000
40
1.0000000000
40
1.0000000000
40
1.0000000000
10
-18.3833827137
20
-12.6706603152
30
2.5742750000
10
-18.3833827137
20
-12.6706603152
30
2.5854278194
10
-18.3833450261
20
-12.6715560393
30
2.6054971844
10
-18.3831816028
20
-12.6754393068
30
2.6364870402
10
-18.3829177173
20
-12.6817072210
30
2.6661077643
10
-18.3824399146
20
-12.6930494362
30
2.7043594976
10
-18.3817852689
20
-12.7085737411
30
2.7402691012
10
-18.3809690669
20
-12.7278957125
30
2.7737168990
10
-18.3800538575
20
-12.7495351824
30
2.8053031474
10
-18.3791584696
20
-12.7706654457
30
2.8296229869
10
-18.3784615171
20
-12.7870787411
30
2.8453169294
10
-18.3783745145
20
-12.7891271632
30
2.8472318616
11
-18.3833827137
21
-12.6706603152
31
2.5742750000
11
-18.3833272108
21
-12.6719793195
31
2.6056448191
11
-18.3831648591
21
-12.6758367479
31
2.6362588516
11
-18.3829019729
21
-12.6820803455
31
2.6659524436
11
-18.3825446284
21
-12.6905623899
31
2.6946013868
11
-18.3815677554
21
-12.7137207061
31
2.7484259002
11
-18.3809566910
21
-12.7281853998
31
2.7734842053
11
-18.3802679658
21
-12.7444686267
31
2.7972450245
11
-18.3786322089
21
-12.7830584714
31
2.8414293801
11
-18.3783745145
21
-12.7891271632
31
2.8472318616
0
SPLINE
5
33F
100
AcDbEntity
8
ASSI
100
AcDbSpline
62
9
6
CONTINUOUS
70
0
71
3
72
12
73
8
74
6
42
0.0000001000
43
0.0000001000
44
0.0000000001
12
0.0093822599
22
-0.2208993239
32
0.2065039402
13
0.0130268350
23
-0.3002428633
33
-0.0149205360
40
0.0000000000
40
0.0000000000
40
0.0000000000
40
0.0000000000
40
0.1700440159
40
0.3679073393
40
0.5657706627
40
0.9614973095
40
1.0000000000
40
1.0000000000
40
1.0000000000
40
1.0000000000
10
-18.3783745145
20
-12.7891271632
30
2.8472318616
10
-18.3778427154
20
-12.8016480326
30
2.8589367814
10
-18.3766039100
20
-12.8307751168
30
2.8826756201
10
-18.3744713031
20
-12.8807328832
30
2.9119775213
10
-18.3713835330
20
-12.9527654481
30
2.9401398874
10
-18.3686837652
20
-13.0153455063
30
2.9491916165
10
-18.3667982447
20
-13.0588225001
30
2.9477034868
10
-18.3666310553
20
-13.0626758861
30
2.9475119933
11
-18.3783745145
21
-12.7891271632
31
2.8472318616
11
-18.3766659707
21
-12.8292902875
31
2.8798798958
11
-18.3744582432
21
-12.8810012502
31
2.9103740346
11
-18.3721310879
21
-12.9352843838
31
2.9316969166
11
-18.3671323766
21
-13.0511161985
31
2.9479067996
11
-18.3666310553
21
-13.0626758861
31
2.9475119933
0
SPLINE
5
340
100
AcDbEntity
8
ASSI
100
AcDbSpline
62
9
6
CONTINUOUS
70
0
71
3
72
20
73
16
74
14
42
0.0000001000
43
0.0000001000
44
0.0000000001
12
0.0252737605
22
-0.5825103496
32
-0.0289477877
13
0.0000000000
23
-0.0000000000
33
-0.6253642759
40
0.0000000000
40
0.0000000000
40
0.0000000000
40
0.0000000000
40
0.0821391290
40
0.1841236702
40
0.2351159408
40
0.2861082114
40
0.3880927526
40
0.4900772939
40
0.5920618351
40
0.6940463763
40
0.7960309175
40
0.8470231882
40
0.8980154588
40
0.9490077294
40
1.0000000000
40
1.0000000000
40
1.0000000000
40
1.0000000000
10
-18.3666310553
20
-13.0626758861
30
2.9475119933
10
-18.3659390670
20
-13.0786248503
30
2.9467194112
10
-18.3643878190
20
-13.1143117866
30
2.9426562745
10
-18.3625161264
20
-13.1571956128
30
2.9313992056
10
-18.3609673118
20
-13.1925750205
30
2.9177176239
10
-18.3594263927
20
-13.2277032858
30
2.9009275483
10
-18.3575822909
20
-13.2696152203
30
2.8744336769
10
-18.3556123299
20
-13.3142237162
30
2.8349721141
10
-18.3539940014
20
-13.3507564543
30
2.7906479027
10
-18.3527188292
20
-13.3794727503
30
2.7427551044
10
-18.3519162597
20
-13.3975120834
30
2.6990394427
10
-18.3514516910
20
-13.4079447774
30
2.6621532683
10
-18.3511957690
20
-13.4136890056
30
2.6337070522
10
-18.3510378603
20
-13.4172320547
30
2.6040621952
10
-18.3510015634
20
-13.4180463152
30
2.5849045815
10
-18.3510015634
20
-13.4180463152
30
2.5742750000
11
-18.3666310553
21
-13.0626758861
31
2.9475119933
11
-18.3645720310
21
-13.1100466537
31
2.9421484069
11
-18.3621351666
21
-13.1658885141
31
2.9276524946
11
-18.3609682988
21
-13.1925436277
31
2.9173290621
11
-18.3598170923
21
-13.2187879930
31
2.9047579821
11
-18.3576227844
21
-13.2686675827
31
2.8731555241
11
-18.3556709353
21
-13.3128777566
31
2.8341616727
11
-18.3540511941
21
-13.3494537140
31
2.7900531382
11
-18.3527708440
21
-13.3782945676
31
2.7419941051
11
-18.3518149081
21
-13.3997870258
31
2.6896584287
11
-18.3514671084
21
-13.4075980620
31
2.6620230041
11
-18.3512121045
21
-13.4133221424
31
2.6335072787
11
-18.3510551042
21
-13.4168451117
31
2.6042136013
11
-18.3510015634
21
-13.4180463152
31
2.5742750000
0
SPLINE
5
341
100
AcDbEntity
8
ASSI
100
AcDbSpline
62
9
6
CONTINUOUS
70
0
71
3
72
8
73
4
74
2
42
0.0000001000
43
0.0000001000
44
0.0000000001
12
-0.0108320789
22
0.2352642495
32
-0.1647330720
13
-0.0106474441
23
0.2352726779
33
-0.1647389736
40
0.0000000000
40
0.0000000000
40
0.0000000000
40
0.0000000000
40
1.0000000000
40
1.0000000000
40
1.0000000000
40
1.0000000000
10
-18.3311091377
20
-13.8570912580
30
-3.9652230069
10
-18.3347198307
20
-13.7786698415
30
-4.0201340309
10
-18.3382997517
20
-13.7002470082
30
-4.0750460469
10
-18.3418488998
20
-13.6218227822
30
-4.1299590381
11
-18.3311091377
21
-13.8570912580
31
-3.9652230069
11
-18.3418488998
21
-13.6218227822
31
-4.1299590381
0
SPLINE
5
342
100
AcDbEntity
8
ASSI
100
AcDbSpline
62
9
6
CONTINUOUS
70
0
71
3
72
8
73
4
74
2
42
0.0000001000
43
0.0000001000
44
0.0000000001
12
-0.0017769097
22
0.0392637232
32
-0.0274926333
13
-0.0017717673
23
0.0392639556
33
-0.0274927960
40
0.0000000000
40
0.0000000000
40
0.0000000000
40
0.0000000000
40
1.0000000000
40
1.0000000000
40
1.0000000000
40
1.0000000000
10
-18.3418488998
20
-13.6218227822
30
-4.1299590381
10
-18.3424412030
20
-13.6087348745
30
-4.1391232492
10
-18.3430326492
20
-13.5956469280
30
-4.1482874875
10
-18.3436232383
20
-13.5825589428
30
-4.1574517528
11
-18.3418488998
21
-13.6218227822
31
-4.1299590381
11
-18.3436232383
21
-13.5825589428
31
-4.1574517528
0
SPLINE
5
343
100
AcDbEntity
8
ASSI
100
AcDbSpline
62
9
6
CONTINUOUS
70
0
71
3
72
8
73
4
74
2
42
0.0000001000
43
0.0000001000
44
0.0000000001
12
-0.0099296202
22
0.2200493049
32
-0.1540795003
13
-0.0097681015
23
0.2200565340
33
-0.1540845621
40
0.0000000000
40
0.0000000000
40
0.0000000000
40
0.0000000000
40
1.0000000000
40
1.0000000000
40
1.0000000000
40
1.0000000000
10
-18.3436232383
20
-13.5825589428
30
-4.1574517528
10
-18.3469331117
20
-13.5092091745
30
-4.2088115862
10
-18.3502160657
20
-13.4358581915
30
-4.2601722702
10
-18.3534720996
20
-13.3625060135
30
-4.3115337909
11
-18.3436232383
21
-13.5825589428
31
-4.1574517528
11
-18.3534720996
21
-13.3625060135
31
-4.3115337909
0
SPLINE
5
344
100
AcDbEntity
8
ASSI
100
AcDbSpline
62
9
6
CONTINUOUS
70
0
71
3
72
8
73
4
74
2
42
0.0000001000
43
0.0000001000
44
0.0000000001
12
-0.0017020901
22
0.0383448156
32
-0.0268492101
13
-0.0016971858
23
0.0383450330
33
-0.0268493623
40
0.0000000000
40
0.0000000000
40
0.0000000000
40
0.0000000000
40
1.0000000000
40
1.0000000000
40
1.0000000000
40
1.0000000000
10
-18.3534720996
20
-13.3625060135
30
-4.3115337909
10
-18.3540394629
20
-13.3497244083
30
-4.3204835276
10
-18.3546060089
20
-13.3369427668
30
-4.3294332897
10
-18.3551717375
20
-13.3241610891
30
-4.3383830772
11
-18.3534720996
21
-13.3625060135
31
-4.3115337909
11
-18.3551717375
21
-13.3241610891
31
-4.3383830772
0
SPLINE
5
345
100
AcDbEntity
8
ASSI
100
AcDbSpline
62
9
6
CONTINUOUS
70
0
71
3
72
8
73
4
74
2
42
0.0000001000
43
0.0000001000
44
0.0000000001
12
-0.0084391950
22
0.1906692880
32
-0.1335074820
13
-0.0083179325
23
0.1906746166
33
-0.1335112131
40
0.0000000000
40
0.0000000000
40
0.0000000000
40
0.0000000000
40
1.0000000000
40
1.0000000000
40
1.0000000000
40
1.0000000000
10
-18.3551717375
20
-13.3241610891
30
-4.3383830772
10
-18.3579848026
20
-13.2606046598
30
-4.3828855712
10
-18.3607776574
20
-13.1970473359
30
-4.4273886915
10
-18.3635503016
20
-13.1334891304
30
-4.4718924292
11
-18.3551717375
21
-13.3241610891
31
-4.3383830772
11
-18.3635503016
21
-13.1334891304
31
-4.4718924292
0
SPLINE
5
346
100
AcDbEntity
8
ASSI
100
AcDbSpline
62
9
6
CONTINUOUS
70
0
71
3
72
15
73
11
74
9
42
0.0000001000
43
0.0000001000
44
0.0000000001
12
0.0000000000
22
0.0000000000
32
-0.2831675137
13
-0.0068276084
23
0.1541196989
33
-0.1923981324
40
0.0000000000
40
0.0000000000
40
0.0000000000
40
0.0000000000
40
0.1181532900
40
0.2363065801
40
0.3544598701
40
0.4726131602
40
0.7089197403
40
0.8270730303
40
0.9452263204
40
1.0000000000
40
1.0000000000
40
1.0000000000
40
1.0000000000
10
-18.3510015634
20
-13.4180463152
30
2.5742750000
10
-18.3510015634
20
-13.4180463152
30
2.5631226089
10
-18.3510414887
20
-13.4171506640
30
2.5430540457
10
-18.3512145454
20
-13.4132676751
30
2.5120652076
10
-18.3514937679
20
-13.4070001759
30
2.4824453599
10
-18.3519987580
20
-13.3956586659
30
2.4441946289
10
-18.3526892817
20
-13.3801352686
30
2.4082858128
10
-18.3535473182
20
-13.3608143309
30
2.3748385526
10
-18.3541384792
20
-13.3474873771
30
2.3553849810
10
-18.3545219295
20
-13.3388345796
30
2.3441738386
10
-18.3546465872
20
-13.3360206786
30
2.3406610541
11
-18.3510015634
21
-13.4180463152
31
2.5742750000
11
-18.3510603501
21
-13.4167274120
31
2.5429063802
11
-18.3512322397
21
-13.4128702567
31
2.5122933727
11
-18.3515103546
21
-13.4066270703
31
2.4826006599
11
-18.3518879716
21
-13.3981455528
31
2.4539524713
11
-18.3529177502
21
-13.3749885724
31
2.4001291274
11
-18.3535600436
21
-13.3605246555
31
2.3750712304
11
-18.3542822534
21
-13.3442422495
31
2.3513106859
11
-18.3546465872
21
-13.3360206786
31
2.3406610541
0
SPLINE
5
347
100
AcDbEntity
8
ASSI
100
AcDbSpline
62
9
6
CONTINUOUS
70
0
71
3
72
12
73
8
74
6
42
0.0000001000
43
0.0000001000
44
0.0000000001
12
-0.0086207944
22
0.1945973111
32
-0.2429290966
13
-0.0136784649
23
0.3152526406
33
-0.0156432003
40
0.0000000000
40
0.0000000000
40
0.0000000000
40
0.0000000000
40
0.1437727777
40
0.3309259237
40
0.5180790697
40
0.7052322156
40
1.0000000000
40
1.0000000000
40
1.0000000000
40
1.0000000000
10
-18.3546465872
20
-13.3360206786
30
2.3406610541
10
-18.3550597324
20
-13.3266947466
30
2.3290188571
10
-18.3560916342
20
-13.3033789472
30
2.3031895956
10
-18.3579887171
20
-13.2603944348
30
2.2673196957
10
-18.3602930216
20
-13.2079804656
30
2.2365757166
10
-18.3631118686
20
-13.1436017952
30
2.2114043468
10
-18.3652833425
20
-13.0937365866
30
2.2025724978
10
-18.3666273328
20
-13.0627611458
30
2.2010354607
11
-18.3546465872
21
-13.3360206786
31
2.3406610541
11
-18.3559903154
21
-13.3056537806
31
2.3071261182
11
-18.3580301126
21
-13.2594227298
31
2.2686745989
11
-18.3603032143
21
-13.2077121386
31
2.2381792501
11
-18.3626797640
21
-13.1534295110
31
2.2168553002
11
-18.3666273328
21
-13.0627611458
31
2.2010354607
0
SPLINE
5
348
100
AcDbEntity
8
ASSI
100
AcDbSpline
62
9
6
CONTINUOUS
70
0
71
3
72
14
73
10
74
8
42
0.0000001000
43
0.0000001000
44
0.0000000001
12
-0.0130738084
22
0.3013168971
32
-0.0149516926
13
-0.0093313229
23
0.2196991863
33
0.2053275451
40
0.0000000000
40
0.0000000000
40
0.0000000000
40
0.0000000000
40
0.0832171205
40
0.2790259982
40
0.4748348760
40
0.5727393148
40
0.6706437537
40
0.8664526314
40
1.0000000000
40
1.0000000000
40
1.0000000000
40
1.0000000000
10
-18.3666273328
20
-13.0627611458
30
2.2010354607
10
-18.3669899877
20
-13.0544029043
30
2.2006207151
10
-18.3682098236
20
-13.0262617855
30
2.2001736477
10
-18.3702938021
20
-12.9780230563
30
2.2049420018
10
-18.3722937676
20
-12.9315187875
30
2.2171483132
10
-18.3738106756
20
-12.8961385471
30
2.2308293705
10
-18.3753137165
20
-12.8610094672
30
2.2476189867
10
-18.3768740322
20
-12.8244272589
30
2.2707428413
10
-18.3779590570
20
-12.7989087109
30
2.2921843761
10
-18.3783744482
20
-12.7891286281
30
2.3013246939
11
-18.3666273328
21
-13.0627611458
31
2.2010354607
11
-18.3677180230
21
-13.0375989483
31
2.2006430464
11
-18.3702641074
21
-12.9786683669
31
2.2064000949
11
-18.3726660726
21
-12.9228256586
31
2.2208949115
11
-18.3738089422
21
-12.8961699421
31
2.2312179403
11
-18.3749318821
21
-12.8699249565
31
2.2437886827
11
-18.3770597850
21
-12.8200440342
31
2.2753907336
11
-18.3783744482
21
-12.7891286281
31
2.3013246939
0
SPLINE
5
349
100
AcDbEntity
8
ASSI
100
AcDbSpline
62
9
6
CONTINUOUS
70
0
71
3
72
15
73
11
74
9
42
0.0000001000
43
0.0000001000
44
0.0000000001
12
-0.0097167616
22
0.2287740584
32
0.2138087837
13
-0.0000000000
23
0.0000000000
33
0.3391734453
40
0.0000000000
40
0.0000000000
40
0.0000000000
40
0.0000000000
40
0.0597917570
40
0.2478334056
40
0.4358750542
40
0.6239167028
40
0.7179375271
40
0.8119583514
40
0.9059791757
40
1.0000000000
40
1.0000000000
40
1.0000000000
40
1.0000000000
10
-18.3783744482
20
-12.7891286281
30
2.3013246939
10
-18.3785681089
20
-12.7845690272
30
2.3055860282
10
-18.3793486908
20
-12.7661807255
30
2.3236510098
10
-18.3805442668
20
-12.7379524044
30
2.3578988282
10
-18.3817574590
20
-12.7092350498
30
2.4057924467
10
-18.3825180546
20
-12.6911951624
30
2.4495087394
10
-18.3829575112
20
-12.6807621622
30
2.4863954089
10
-18.3831993443
20
-12.6750177657
30
2.5148420022
10
-18.3833484522
20
-12.6714746057
30
2.5444872909
10
-18.3833827137
20
-12.6706603152
30
2.5636452110
10
-18.3833827137
20
-12.6706603152
30
2.5742750000
11
-18.3783744482
21
-12.7891286281
31
2.3013246939
11
-18.3789388853
21
-12.7758324674
31
2.3143846144
11
-18.3804885727
21
-12.7392551943
31
2.3584936412
11
-18.3817073794
21
-12.7104132981
31
2.4065534355
11
-18.3826138337
21
-12.6889201549
31
2.4588898764
11
-18.3829428846
21
-12.6811088878
31
2.4865256741
11
-18.3831838901
21
-12.6753846384
31
2.5150417848
11
-18.3833321663
21
-12.6718615598
31
2.5443358895
11
-18.3833827137
21
-12.6706603152
31
2.5742750000
0
SPLINE
5
34A
100
AcDbEntity
8
ASSI
100
AcDbSpline
62
9
6
CONTINUOUS
70
0
71
3
72
17
73
13
74
11
42
0.0000001000
43
0.0000001000
44
0.0000000001
12
0.0000000000
22
0.0000000000
32
0.6104274385
13
0.0204232068
23
-0.4808518029
33
0.2718133251
40
0.0000000000
40
0.0000000000
40
0.0000000000
40
0.0000000000
40
0.0744582000
40
0.1489164000
40
0.2233746000
40
0.2978327999
40
0.4467491999
40
0.5212073999
40
0.5956655999
40
0.7445819998
40
0.8934983998
40
1.0000000000
40
1.0000000000
40
1.0000000000
40
1.0000000000
10
-18.3894430459
20
-12.5257983152
30
2.5742750000
10
-18.3894430459
20
-12.5257983152
30
2.5894254428
10
-18.3893934389
20
-12.5269910679
30
2.6167307190
10
-18.3891780128
20
-12.5321693045
30
2.6589047443
10
-18.3888295884
20
-12.5405398704
30
2.6992808452
10
-18.3881975388
20
-12.5557120603
30
2.7515093699
10
-18.3873290562
20
-12.5765310231
30
2.8006950297
10
-18.3862422926
20
-12.6025213562
30
2.8466731899
10
-18.3850205299
20
-12.6316919133
30
2.8902146893
10
-18.3831957228
20
-12.6751476662
30
2.9414708538
10
-18.3807861012
20
-12.7322655361
30
2.9904689107
10
-18.3790960603
20
-12.7721386858
30
3.0160669422
10
-18.3783710255
20
-12.7892091813
30
3.0257164602
11
-18.3894430459
21
-12.5257983152
31
2.5742750000
11
-18.3893699363
21
-12.5275559192
31
2.6169334042
11
-18.3891558464
21
-12.5327013594
31
2.6586050902
11
-18.3888086529
21
-12.5410412998
31
2.6990800606
11
-18.3883358485
21
-12.5523895772
31
2.7381986667
11
-18.3870391752
21
-12.5834595539
31
2.8119222781
11
-18.3862254177
21
-12.6029188842
31
2.8463686073
11
-18.3853061304
21
-12.6248654445
31
2.8791179338
11
-18.3831169523
21
-12.6769747742
31
2.9402426156
11
-18.3804762636
21
-12.7395461413
31
2.9937888552
11
-18.3783710255
21
-12.7892091813
31
3.0257164602
0
SPLINE
5
34B
100
AcDbEntity
8
ASSI
100
AcDbSpline
62
9
6
CONTINUOUS
70
0
71
3
72
13
73
9
74
7
42
0.0000001000
43
0.0000001000
44
0.0000000001
12
0.0106685929
22
-0.2511854382
32
0.1419887557
13
0.0126019356
23
-0.2904485893
33
-0.0103703032
40
0.0000000000
40
0.0000000000
40
0.0000000000
40
0.0000000000
40
0.0811959208
40
0.2237334817
40
0.3662710426
40
0.6513461645
40
0.9364212863
40
1.0000000000
40
1.0000000000
40
1.0000000000
40
1.0000000000
10
-18.3783710255
20
-12.7892091813
30
3.0257164602
10
-18.3780822768
20
-12.7960075923
30
3.0295594294
10
-18.3772777475
20
-12.8149347615
30
3.0397010765
10
-18.3759275155
20
-12.8466281338
30
3.0542116925
10
-18.3738087817
20
-12.8962162984
30
3.0724407469
10
-18.3710157706
20
-12.9613038996
30
3.0883124683
10
-18.3683626975
20
-13.0227409749
30
3.0933256474
10
-18.3668970824
20
-13.0565443966
30
3.0927214222
10
-18.3666300108
20
-13.0626998458
30
3.0925016453
11
-18.3783710255
21
-12.7892091813
31
3.0257164602
11
-18.3774956608
21
-12.8098024027
31
3.0367521967
11
-18.3759254011
21
-12.8466597787
31
3.0536668581
11
-18.3743288256
21
-12.8840260836
31
3.0674225102
11
-18.3709776468
21
-12.9621047330
31
3.0862656823
11
-18.3674314071
21
-13.0442160631
31
3.0928299818
11
-18.3666300108
21
-13.0626998458
31
3.0925016453
0
SPLINE
5
34C
100
AcDbEntity
8
ASSI
100
AcDbSpline
62
9
6
CONTINUOUS
70
0
71
3
72
12
73
8
74
6
42
0.0000001000
43
0.0000001000
44
0.0000000001
12
0.0128853258
22
-0.2969801494
32
-0.0106035089
13
0.0108832194
23
-0.2456661049
33
-0.1672642606
40
0.0000000000
40
0.0000000000
40
0.0000000000
40
0.0000000000
40
0.2166249811
40
0.4954303731
40
0.6348330691
40
0.7742357651
40
1.0000000000
40
1.0000000000
40
1.0000000000
40
1.0000000000
10
-18.3666300108
20
-13.0626998458
30
3.0925016453
10
-18.3656995830
20
-13.0841442855
30
3.0917359837
10
-18.3635769403
20
-13.1329452276
30
3.0869428180
10
-18.3609829617
20
-13.1922507294
30
3.0725133456
10
-18.3588028610
20
-13.2418837554
30
3.0542929511
10
-18.3568338246
20
-13.2865856327
30
3.0338465564
10
-18.3554564294
20
-13.3177400740
30
3.0154751561
10
-18.3546374155
20
-13.3362276141
30
3.0028877268
11
-18.3666300108
21
-13.0626998458
31
3.0925016453
11
-18.3638621372
21
-13.1263388649
31
3.0863078678
11
-18.3604461316
21
-13.2044541156
31
3.0674960678
11
-18.3588033705
21
-13.2418547533
31
3.0537460314
11
-18.3571777845
21
-13.2787600426
31
3.0368252937
11
-18.3546374155
21
-13.3362276141
31
3.0028877268
0
SPLINE
5
34D
100
AcDbEntity
8
ASSI
100
AcDbSpline
62
9
6
CONTINUOUS
70
0
71
3
72
17
73
13
74
11
42
0.0000001000
43
0.0000001000
44
0.0000000001
12
0.0187830601
22
-0.4239886225
32
-0.2886769563
13
-0.0000000000
23
-0.0000000000
33
-0.5622853606
40
0.0000000000
40
0.0000000000
40
0.0000000000
40
0.0000000000
40
0.0307329342
40
0.1922774452
40
0.3538219562
40
0.4345942116
40
0.5153664671
40
0.6769109781
40
0.7576832336
40
0.8384554890
40
0.9192277445
40
1.0000000000
40
1.0000000000
40
1.0000000000
40
1.0000000000
10
-18.3546374155
20
-13.3362276141
30
3.0028877268
10
-18.3544449960
20
-13.3405710856
30
2.9999304301
10
-18.3532523871
20
-13.3674783921
30
2.9810038802
10
-18.3512006476
20
-13.4136210567
30
2.9414161739
10
-18.3492588759
20
-13.4571001124
30
2.8901042927
10
-18.3479532836
20
-13.4862631071
30
2.8465470338
10
-18.3467885018
20
-13.5122406215
30
2.8005603883
10
-18.3458539066
20
-13.5330388596
30
2.7513836232
10
-18.3451721571
20
-13.5481909665
30
2.6991803829
10
-18.3447958371
20
-13.5565485897
30
2.6588315054
10
-18.3445629628
20
-13.5617178448
30
2.6166898733
10
-18.3445093182
20
-13.5629083152
30
2.5894140189
10
-18.3445093182
20
-13.5629083152
30
2.5742750000
11
-18.3546374155
21
-13.3362276141
31
3.0028877268
11
-18.3540657347
21
-13.3491258161
31
2.9938140455
11
-18.3512806747
21
-13.4117831883
31
2.9401910784
11
-18.3489531299
21
-13.4639225069
31
2.8790059985
11
-18.3479708849
21
-13.4858649220
31
2.8462433605
11
-18.3470988794
21
-13.5053146365
31
2.8117912064
11
-18.3457045397
21
-13.5363563754
31
2.7380806069
11
-18.3451946558
21
-13.5476898903
31
2.6989809750
11
-18.3448197447
21
-13.5560171950
31
2.6585327130
11
-18.3445883641
21
-13.5611539199
31
2.6168945150
11
-18.3445093182
21
-13.5629083152
31
2.5742750000
0
SPLINE
5
34E
100
AcDbEntity
8
ASSI
100
AcDbSpline
62
9
6
CONTINUOUS
70
0
71
3
72
9
73
5
74
3
42
0.0000001000
43
0.0000001000
44
0.0000000001
12
-0.0214550460
22
0.5301079603
32
0.2317611815
13
-0.0162367485
23
0.4173713645
33
0.3312911234
40
0.0000000000
40
0.0000000000
40
0.0000000000
40
0.0000000000
40
0.9041114295
40
1.0000000000
40
1.0000000000
40
1.0000000000
40
1.0000000000
10
-18.4032030398
20
-12.1904593152
30
-0.0998853621
10
-18.4096689572
20
-12.0307004267
30
-0.0300393844
10
-18.4157902405
20
-11.8761502471
30
0.0621535077
10
-18.4212649176
20
-11.7356546935
30
0.1709975079
10
-18.4217838904
20
-11.7223143123
30
0.1815865187
11
-18.4032030398
21
-12.1904593152
31
-0.0998853621
11
-18.4202090543
21
-11.7627277560
31
0.1502768173
11
-18.4217838904
21
-11.7223143123
31
0.1815865187
0
SPLINE
5
34F
100
AcDbEntity
8
ASSI
100
AcDbSpline
62
9
6
CONTINUOUS
70
0
71
3
72
8
73
4
74
2
42
0.0000001000
43
0.0000001000
44
0.0000000001
12
-0.0106845346
22
0.2272922145
32
-0.1388081327
13
-0.0119475361
23
0.2586148757
33
-0.1152435426
40
0.0000000000
40
0.0000000000
40
0.0000000000
40
0.0000000000
40
1.0000000000
40
1.0000000000
40
1.0000000000
40
1.0000000000
10
-18.3176675323
20
-14.1460344899
30
0.0331668730
10
-18.3212290439
20
-14.0702704184
30
-0.0131025045
10
-18.3249743788
20
-13.9899622738
30
-0.0554324858
10
-18.3289568908
20
-13.9037573152
30
-0.0938470000
11
-18.3176675323
21
-14.1460344899
31
0.0331668730
11
-18.3289568908
21
-13.9037573152
31
-0.0938470000
0
SPLINE
5
350
100
AcDbEntity
8
ASSI
100
AcDbSpline
62
9
6
CONTINUOUS
70
0
71
3
72
8
73
4
74
2
42
0.0000001000
43
0.0000001000
44
0.0000000001
12
-0.0100129495
22
0.2310573901
32
0.1618531213
13
-0.0098348805
23
0.2310650381
33
0.1618584786
40
0.0000000000
40
0.0000000000
40
0.0000000000
40
0.0000000000
40
1.0000000000
40
1.0000000000
40
1.0000000000
40
1.0000000000
10
-18.3673023151
20
-13.0471953152
30
-4.3544670000
10
-18.3706399649
20
-12.9701761852
30
-4.3005159596
10
-18.3739479370
20
-12.8931557691
30
-4.2465640182
10
-18.3772262305
20
-12.8161340897
30
-4.1926111920
11
-18.3673023151
21
-13.0471953152
31
-4.3544670000
11
-18.3772262305
21
-12.8161340897
31
-4.1926111920
0
SPLINE
5
351
100
AcDbEntity
8
ASSI
100
AcDbSpline
62
9
6
CONTINUOUS
70
0
71
3
72
8
73
4
74
2
42
0.0000001000
43
0.0000001000
44
0.0000000001
12
-0.0022846811
22
0.0536773095
32
0.0376003558
13
-0.0022750714
23
0.0536777176
33
0.0376006417
40
0.0000000000
40
0.0000000000
40
0.0000000000
40
0.0000000000
40
1.0000000000
40
1.0000000000
40
1.0000000000
40
1.0000000000
10
-18.3772262305
20
-12.8161340897
30
-4.1926111920
10
-18.3779877909
20
-12.7982416532
30
-4.1800777401
10
-18.3787477496
20
-12.7803491486
30
-4.1675442404
10
-18.3795061068
20
-12.7624565760
30
-4.1550106931
11
-18.3772262305
21
-12.8161340897
31
-4.1926111920
11
-18.3795061068
21
-12.7624565760
31
-4.1550106931
0
SPLINE
5
352
100
AcDbEntity
8
ASSI
100
AcDbSpline
62
9
6
CONTINUOUS
70
0
71
3
72
8
73
4
74
2
42
0.0000001000
43
0.0000001000
44
0.0000000001
12
-0.0101819923
22
0.2402325089
32
0.1682801896
13
-0.0099895083
23
0.2402405899
33
0.1682858502
40
0.0000000000
40
0.0000000000
40
0.0000000000
40
0.0000000000
40
1.0000000000
40
1.0000000000
40
1.0000000000
40
1.0000000000
10
-18.3795061068
20
-12.7624565760
30
-4.1550106931
10
-18.3829001042
20
-12.6823790730
30
-4.0989172966
10
-18.3862620215
20
-12.6023002104
30
-4.0428229476
10
-18.3895918576
20
-12.5222200137
30
-3.9867276642
11
-18.3795061068
21
-12.7624565760
31
-4.1550106931
11
-18.3895918576
21
-12.5222200137
31
-3.9867276642
0
SPLINE
5
353
100
AcDbEntity
8
ASSI
100
AcDbSpline
62
9
6
CONTINUOUS
70
0
71
3
72
8
73
4
74
2
42
0.0000001000
43
0.0000001000
44
0.0000000001
12
-0.0011124286
22
0.0267531195
32
0.0187402614
13
-0.0011100416
23
0.0267532187
33
0.0187403309
40
0.0000000000
40
0.0000000000
40
0.0000000000
40
0.0000000000
40
1.0000000000
40
1.0000000000
40
1.0000000000
40
1.0000000000
10
-18.3895918576
20
-12.5222200137
30
-3.9867276642
10
-18.3899626671
20
-12.5133023072
30
-3.9804809104
10
-18.3903330788
20
-12.5043845842
30
-3.9742341450
10
-18.3907030927
20
-12.4954668446
30
-3.9679873680
11
-18.3895918576
21
-12.5222200137
31
-3.9867276642
11
-18.3907030927
21
-12.4954668446
31
-3.9679873680
0
SPLINE
5
354
100
AcDbEntity
8
ASSI
100
AcDbSpline
62
9
6
CONTINUOUS
70
0
71
3
72
8
73
4
74
2
42
0.0000001000
43
0.0000001000
44
0.0000000001
12
-0.0090898498
22
0.2190753400
32
0.1534598291
13
-0.0089297831
23
0.2190819229
33
0.1534644403
40
0.0000000000
40
0.0000000000
40
0.0000000000
40
0.0000000000
40
1.0000000000
40
1.0000000000
40
1.0000000000
40
1.0000000000
10
-18.3907030927
20
-12.4954668446
30
-3.9679873680
10
-18.3937330426
20
-12.4224417313
30
-3.9168340917
10
-18.3967363152
20
-12.3494155111
30
-3.8656800400
10
-18.3997129095
20
-12.2763882034
30
-3.8145252265
11
-18.3907030927
21
-12.4954668446
31
-3.9679873680
11
-18.3997129095
21
-12.2763882034
31
-3.8145252265
0
SPLINE
5
355
100
AcDbEntity
8
ASSI
100
AcDbSpline
62
9
6
CONTINUOUS
70
0
71
3
72
17
73
13
74
11
42
0.0000001000
43
0.0000001000
44
0.0000000001
12
0.0000000000
22
0.0000000000
32
-0.5627776468
13
-0.0187578246
23
0.4234190345
33
-0.2882850229
40
0.0000000000
40
0.0000000000
40
0.0000000000
40
0.0000000000
40
0.0807585287
40
0.1615170575
40
0.2422755862
40
0.3230341150
40
0.4845511725
40
0.5653097012
40
0.6460682300
40
0.8075852875
40
0.9691023450
40
1.0000000000
40
1.0000000000
40
1.0000000000
40
1.0000000000
10
-18.3445093182
20
-13.5629083152
30
2.5742750000
10
-18.3445093182
20
-13.5629083152
30
2.5591253017
10
-18.3445630603
20
-13.5617156828
30
2.5318213464
10
-18.3447963183
20
-13.5565379081
30
2.4896490614
10
-18.3451731893
20
-13.5481680363
30
2.4492744678
10
-18.3458557872
20
-13.5329970429
30
2.3970477172
10
-18.3467912388
20
-13.5121796584
30
2.3478635357
10
-18.3479565049
20
-13.4861912091
30
2.3018865077
10
-18.3492623343
20
-13.4570227558
30
2.2583459466
10
-18.3512029388
20
-13.4135695452
30
2.2070898888
10
-18.3532525810
20
-13.3674739756
30
2.1675447872
10
-18.3544443887
20
-13.3405847956
30
2.1486288515
10
-18.3546375797
20
-13.3362239105
30
2.1456597411
11
-18.3445093182
21
-13.5629083152
31
2.5742750000
11
-18.3445885011
21
-13.5611508785
31
2.5316186210
11
-18.3448202538
21
-13.5560058919
31
2.4899486766
11
-18.3451957022
21
-13.5476666408
31
2.4494752229
11
-18.3457062088
21
-13.5363192587
31
2.4103579523
11
-18.3471017066
21
-13.5052516240
31
2.3366365415
11
-18.3479740753
21
-13.4857937086
31
2.3021910660
11
-18.3489564315
21
-13.4638486929
31
2.2694423964
11
-18.3512824959
21
-13.4117423116
31
2.2083178804
11
-18.3540636304
21
-13.3491732700
31
2.1547704313
11
-18.3546375797
21
-13.3362239105
31
2.1456597411
0
SPLINE
5
356
100
AcDbEntity
8
ASSI
100
AcDbSpline
62
9
6
CONTINUOUS
70
0
71
3
72
12
73
8
74
6
42
0.0000001000
43
0.0000001000
44
0.0000000001
12
-0.0108736604
22
0.2454503595
32
-0.1671149777
13
-0.0128932687
23
0.2971628793
33
-0.0106184724
40
0.0000000000
40
0.0000000000
40
0.0000000000
40
0.0000000000
40
0.2253276036
40
0.3646417131
40
0.5039558227
40
0.7825840418
40
1.0000000000
40
1.0000000000
40
1.0000000000
40
1.0000000000
10
-18.3546375797
20
-13.3362239105
30
2.1456597411
10
-18.3554542916
20
-13.3177883301
30
2.1331078687
10
-18.3568283690
20
-13.2867091000
30
2.1147731686
10
-18.3587936184
20
-13.2420938406
30
2.0943446398
10
-18.3609717332
20
-13.1925069038
30
2.0761142169
10
-18.3635684435
20
-13.1331402076
30
2.0616353889
10
-18.3656949166
20
-13.0842518171
30
2.0568183375
10
-18.3666293174
20
-13.0627158331
30
2.0560487957
11
-18.3546375797
21
-13.3362239105
31
2.1456597411
11
-18.3571707825
21
-13.2789187849
31
2.1118051864
11
-18.3587942449
21
-13.2420622195
31
2.0948894796
11
-18.3604354873
21
-13.2046967990
31
2.0811327738
11
-18.3638498975
21
-13.1266195919
31
2.0622871605
11
-18.3666293174
21
-13.0627158331
31
2.0560487957
0
SPLINE
5
357
100
AcDbEntity
8
ASSI
100
AcDbSpline
62
9
6
CONTINUOUS
70
0
71
3
72
13
73
9
74
7
42
0.0000001000
43
0.0000001000
44
0.0000000001
12
-0.0125957388
22
0.2903054375
32
-0.0103734365
13
-0.0106790173
23
0.2514307904
33
0.1421239440
40
0.0000000000
40
0.0000000000
40
0.0000000000
40
0.0000000000
40
0.0626581846
40
0.3478680124
40
0.6330778402
40
0.7756827541
40
0.9182876680
40
1.0000000000
40
1.0000000000
40
1.0000000000
40
1.0000000000
10
-18.3666293174
20
-13.0627158331
30
2.0560487957
10
-18.3668923928
20
-13.0566524959
30
2.0558321355
10
-18.3683539867
20
-13.0229422108
30
2.0552197580
10
-18.3710035654
20
-12.9615874675
30
2.0601910114
10
-18.3737978595
20
-12.8964713696
30
2.0760320123
10
-18.3759186122
20
-12.8468368539
30
2.0942512787
10
-18.3772724708
20
-12.8150588250
30
2.1087852800
10
-18.3780799206
20
-12.7960630610
30
2.1189593913
10
-18.3783707897
20
-12.7892147289
30
2.1228304843
11
-18.3666293174
21
-13.0627158331
31
2.0560487957
11
-18.3674187346
21
-13.0445085558
31
2.0557200232
11
-18.3709655893
21
-12.9623848042
31
2.0622394043
11
-18.3743184908
21
-12.8842676042
31
2.0810490344
11
-18.3759166078
21
-12.8468658762
31
2.0947982024
11
-18.3774889747
21
-12.8099595650
31
2.1117181301
11
-18.3783707897
21
-12.7892147289
31
2.1228304843
0
SPLINE
5
358
100
AcDbEntity
8
ASSI
100
AcDbSpline
62
9
6
CONTINUOUS
70
0
71
3
72
17
73
13
74
11
42
0.0000001000
43
0.0000001000
44
0.0000000001
12
-0.0204477174
22
0.4814287308
32
0.2721327403
13
-0.0000000000
23
0.0000000000
33
0.6098368283
40
0.0000000000
40
0.0000000000
40
0.0000000000
40
0.0000000000
40
0.1062785267
40
0.2552321056
40
0.4041856845
40
0.4786624739
40
0.5531392633
40
0.7020928422
40
0.7765696317
40
0.8510464211
40
0.9255232106
40
1.0000000000
40
1.0000000000
40
1.0000000000
40
1.0000000000
10
-18.3783707897
20
-12.7892147289
30
2.1228304843
10
-18.3790951742
20
-12.7721595502
30
2.1324711065
10
-18.3807862308
20
-12.7322625476
30
2.1580804247
10
-18.3831979835
20
-12.6750940549
30
2.2071251635
10
-18.3850238530
20
-12.6316126890
30
2.2584375143
10
-18.3862453652
20
-12.6024479334
30
2.3019957456
10
-18.3873316496
20
-12.5764689118
30
2.3479834444
10
-18.3881993127
20
-12.5556695029
30
2.3971613998
10
-18.3888305593
20
-12.5405165499
30
2.4493659247
10
-18.3891784646
20
-12.5321584457
30
2.4897158465
10
-18.3893935303
20
-12.5269888709
30
2.5318586808
10
-18.3894430459
20
-12.5257983152
30
2.5591354370
10
-18.3894430459
20
-12.5257983152
30
2.5742750000
11
-18.3783707897
21
-12.7892147289
31
2.1228304843
11
-18.3804743376
21
-12.7395916650
31
2.1547280723
11
-18.3831187587
21
-12.6769318654
31
2.2083504638
11
-18.3853092991
21
-12.6247898615
31
2.2695361014
11
-18.3862284617
21
-12.6028461502
31
2.3022994290
11
-18.3870418601
21
-12.5833953016
31
2.3367523744
11
-18.3883374230
21
-12.5523518026
31
2.4104647451
11
-18.3888096377
21
-12.5410176517
31
2.4495653460
11
-18.3891563247
21
-12.5326898673
31
2.4900146652
11
-18.3893700649
21
-12.5275528278
31
2.5316540641
11
-18.3894430459
21
-12.5257983152
31
2.5742750000
0
SPLINE
5
359
100
AcDbEntity
8
ASSI
100
AcDbSpline
62
9
6
CONTINUOUS
70
0
71
3
72
16
73
12
74
10
42
0.0000001000
43
0.0000001000
44
0.0000000001
12
0.0000000000
22
0.0000000000
32
0.4902118638
13
0.0117715854
23
-0.2832403367
33
0.3572465992
40
0.0000000000
40
0.0000000000
40
0.0000000000
40
0.0000000000
40
0.0983136853
40
0.1966273706
40
0.2949410559
40
0.3932547413
40
0.5898821119
40
0.6881957972
40
0.7865094825
40
0.9831368532
40
1.0000000000
40
1.0000000000
40
1.0000000000
40
1.0000000000
10
-18.3958817785
20
-12.3700213152
30
2.5742750000
10
-18.3958817785
20
-12.3700213152
30
2.5903398450
10
-18.3958382702
20
-12.3710806802
30
2.6200676243
10
-18.3956476779
20
-12.3757201309
30
2.6656380508
10
-18.3953368435
20
-12.3832827889
30
2.7098073609
10
-18.3947681536
20
-12.3971089006
30
2.7674799270
10
-18.3939771327
20
-12.4163159937
30
2.8228215941
10
-18.3929746585
20
-12.4406035175
30
2.8756712271
10
-18.3918379385
20
-12.4681000253
30
2.9265869106
10
-18.3907582217
20
-12.4941533202
30
2.9654215917
10
-18.3899275489
20
-12.5141442969
30
2.9909349111
10
-18.3898613802
20
-12.5157364047
30
2.9929430118
11
-18.3958817785
21
-12.3700213152
31
2.5742750000
11
-18.3958173819
21
-12.3715890808
31
2.6202307506
11
-18.3956276375
21
-12.3762073322
31
2.6654045314
11
-18.3953175630
21
-12.3837506099
31
2.7096548800
11
-18.3948917985
21
-12.3941007878
31
2.7528675439
11
-18.3937088931
21
-12.4228112439
31
2.8358263328
11
-18.3929578778
21
-12.4410046405
31
2.8754294834
11
-18.3921033648
21
-12.4616727747
31
2.9136966167
11
-18.3900582047
21
-12.5109996394
31
2.9868977123
11
-18.3898613802
21
-12.5157364047
31
2.9929430118
0
SPLINE
5
35A
100
AcDbEntity
8
ASSI
100
AcDbSpline
62
9
6
CONTINUOUS
70
0
71
3
72
10
73
6
74
4
42
0.0000001000
43
0.0000001000
44
0.0000000001
12
0.0089922913
22
-0.2163667466
32
0.2728999877
13
0.0135172594
23
-0.3182425743
33
0.1298378836
40
0.0000000000
40
0.0000000000
40
0.0000000000
40
0.0000000000
40
0.2353248827
40
0.7501249020
40
1.0000000000
40
1.0000000000
40
1.0000000000
40
1.0000000000
10
-18.3898613802
20
-12.5157364047
30
2.9929430118
10
-18.3891560102
20
-12.5327085644
30
3.0143497310
10
-18.3867062918
20
-12.5915417222
30
3.0799995528
10
-18.3828248676
20
-12.6840981670
30
3.1495743656
10
-18.3794769045
20
-12.7631713863
30
3.1878266947
10
-18.3783510290
20
-12.7896783511
30
3.1986411127
11
-18.3898613802
21
-12.5157364047
31
2.9929430118
11
-18.3875735348
21
-12.5706649629
31
3.0542156121
11
-18.3816243820
21
-12.7123794405
31
3.1612306991
11
-18.3783510290
21
-12.7896783511
31
3.1986411127
0
SPLINE
5
35B
100
AcDbEntity
8
ASSI
100
AcDbSpline
62
9
6
CONTINUOUS
70
0
71
3
72
10
73
6
74
4
42
0.0000001000
43
0.0000001000
44
0.0000000001
12
0.0110357836
22
-0.2598201370
32
0.1060024630
13
0.0121090054
23
-0.2790790827
33
-0.0077706669
40
0.0000000000
40
0.0000000000
40
0.0000000000
40
0.0000000000
40
0.3244952063
40
0.9550517338
40
1.0000000000
40
1.0000000000
40
1.0000000000
40
1.0000000000
10
-18.3783510290
20
-12.7896783511
30
3.1986411127
10
-18.3771573427
20
-12.8177818140
30
3.2101068764
10
-18.3735387156
20
-12.9027056527
30
3.2382768204
10
-18.3695192699
20
-12.9960797844
30
3.2496262379
10
-18.3667929881
20
-13.0589438096
30
3.2484625071
10
-18.3666115619
20
-13.0631251832
30
3.2483460811
11
-18.3783510290
21
-12.7896783511
31
3.1986411127
11
-18.3746729468
21
-12.8759814822
31
3.2272486381
11
-18.3671557539
21
-13.0505768994
31
3.2485782799
11
-18.3666115619
21
-13.0631251832
31
3.2483460811
0
SPLINE
5
35C
100
AcDbEntity
8
ASSI
100
AcDbSpline
62
9
6
CONTINUOUS
70
0
71
3
72
9
73
5
74
3
42
0.0000001000
43
0.0000001000
44
0.0000000001
12
0.0123089148
22
-0.2836864420
32
-0.0078989540
13
0.0113049351
23
-0.2551838238
33
-0.1225832860
40
0.0000000000
40
0.0000000000
40
0.0000000000
40
0.0000000000
40
0.5760973817
40
1.0000000000
40
1.0000000000
40
1.0000000000
40
1.0000000000
10
-18.3666115619
20
-13.0631251832
30
3.2483460811
10
-18.3642478507
20
-13.1176021887
30
3.2468292255
10
-18.3601393507
20
-13.2116884641
30
3.2327078940
10
-18.3562245011
20
-13.3004015000
30
3.1993519798
10
-18.3546271039
20
-13.3364591970
30
3.1820308545
11
-18.3666115619
21
-13.0631251832
31
3.2483460811
11
-18.3595783288
21
-13.2242245878
31
3.2241749704
11
-18.3546271039
21
-13.3364591970
31
3.1820308545
0
SPLINE
5
35D
100
AcDbEntity
8
ASSI
100
AcDbSpline
62
9
6
CONTINUOUS
70
0
71
3
72
10
73
6
74
4
42
0.0000001000
43
0.0000001000
44
0.0000000001
12
0.0146977148
22
-0.3317682965
32
-0.1593723591
13
0.0090365457
23
-0.1998573598
33
-0.3066492584
40
0.0000000000
40
0.0000000000
40
0.0000000000
40
0.0000000000
40
0.1510735863
40
0.6281972871
40
1.0000000000
40
1.0000000000
40
1.0000000000
40
1.0000000000
10
-18.3546271039
20
-13.3364591970
30
3.1820308545
10
-18.3538869584
20
-13.3531663391
30
3.1740052032
10
-18.3508647241
20
-13.4212563958
30
3.1377926130
10
-18.3464956275
20
-13.5189038855
30
3.0621000717
10
-18.3435146645
20
-13.5849869958
30
2.9796611916
10
-18.3423947271
20
-13.6097561653
30
2.9416568495
11
-18.3546271039
21
-13.3364591970
31
3.1820308545
11
-18.3524493930
21
-13.3855256771
31
3.1559321720
11
-18.3462654553
21
-13.5238775104
31
3.0483848950
11
-18.3423947271
21
-13.6097561653
31
2.9416568495
0
SPLINE
5
35E
100
AcDbEntity
8
ASSI
100
AcDbSpline
62
9
6
CONTINUOUS
70
0
71
3
72
12
73
8
74
6
42
0.0000001000
43
0.0000001000
44
0.0000000001
12
0.0095748382
22
-0.2117625409
32
-0.3249158608
13
-0.0000000000
23
-0.0000000000
33
-0.4204608006
40
0.0000000000
40
0.0000000000
40
0.0000000000
40
0.0000000000
40
0.0993998961
40
0.3245499221
40
0.5496999481
40
0.7748499740
40
1.0000000000
40
1.0000000000
40
1.0000000000
40
1.0000000000
10
-18.3423947271
20
-13.6097561653
30
2.9416568495
10
-18.3420774811
20
-13.6167725568
30
2.9308913152
10
-18.3410902783
20
-13.6385883721
30
2.8952433740
10
-18.3397060511
20
-13.6691028207
30
2.8327663708
10
-18.3384312882
20
-13.6971373431
30
2.7509002734
10
-18.3376365653
20
-13.7145848768
30
2.6639388078
10
-18.3374496318
20
-13.7186853152
30
2.6058305867
10
-18.3374496318
20
-13.7186853152
30
2.5742750000
11
-18.3423947271
21
-13.6097561653
31
2.9416568495
11
-18.3414887203
21
-13.6297791991
31
2.9089392806
11
-18.3397770715
21
-13.6675260783
31
2.8319169096
11
-18.3385112949
21
-13.6953728450
31
2.7500510454
11
-18.3377222857
21
-13.7127020641
31
2.6639053301
11
-18.3374496318
21
-13.7186853152
31
2.5742750000
0
SPLINE
5
35F
100
AcDbEntity
8
ASSI
100
AcDbSpline
62
9
6
CONTINUOUS
70
0
71
3
72
15
73
11
74
9
42
0.0000001000
43
0.0000001000
44
0.0000000001
12
0.0000000000
22
0.0000000000
32
-0.4219992269
13
-0.0095022039
23
0.2101537018
33
-0.3232344083
40
0.0000000000
40
0.0000000000
40
0.0000000000
40
0.0000000000
40
0.1141957592
40
0.2283915185
40
0.3425872777
40
0.4567830369
40
0.6851745554
40
0.7993703146
40
0.9135660738
40
1.0000000000
40
1.0000000000
40
1.0000000000
40
1.0000000000
10
-18.3374496318
20
-13.7186853152
30
2.5742750000
10
-18.3374496318
20
-13.7186853152
30
2.5582114926
10
-18.3374979117
20
-13.7176261315
30
2.5284861973
10
-18.3377093055
20
-13.7129874063
30
2.4829191273
10
-18.3380537428
20
-13.7054258524
30
2.4387527705
10
-18.3386830312
20
-13.6916016323
30
2.3810836388
10
-18.3395562391
20
-13.6723969557
30
2.3257446775
10
-18.3406582102
20
-13.6481121475
30
2.2728969736
10
-18.3415168318
20
-13.6291629220
30
2.2378057505
10
-18.3421256486
20
-13.6157076773
30
2.2159408168
10
-18.3423994195
20
-13.6096528741
30
2.2066280105
11
-18.3374496318
21
-13.7186853152
31
2.5742750000
11
-18.3375210740
21
-13.7171178066
31
2.5283230095
11
-18.3377314794
21
-13.7125002682
31
2.4831525795
11
-18.3380749976
21
-13.7049580839
31
2.4389051885
11
-18.3385460357
21
-13.6946093160
31
2.3956951026
11
-18.3398507955
21
-13.6659024094
31
2.3127403563
11
-18.3406761865
21
-13.6477110486
31
2.2731386656
11
-18.3416125164
21
-13.6270450523
31
2.2348726049
11
-18.3423994195
21
-13.6096528741
31
2.2066280105
0
SPLINE
5
360
100
AcDbEntity
8
ASSI
100
AcDbSpline
62
9
6
CONTINUOUS
70
0
71
3
72
11
73
7
74
5
42
0.0000001000
43
0.0000001000
44
0.0000000001
12
-0.0089626053
22
0.1982197715
32
-0.3048790005
13
-0.0145984919
23
0.3295310462
33
-0.1582693406
40
0.0000000000
40
0.0000000000
40
0.0000000000
40
0.0000000000
40
0.1505042272
40
0.3926461826
40
0.8769300934
40
1.0000000000
40
1.0000000000
40
1.0000000000
40
1.0000000000
10
-18.3423994195
20
-13.6096528741
30
2.2066280105
10
-18.3428490562
20
-13.5997085696
30
2.1913328177
10
-18.3441029200
20
-13.5719488106
30
2.1521818822
10
-18.3473771534
20
-13.4992270004
30
2.0701033459
10
-18.3511144572
20
-13.4156487673
30
2.0072727141
10
-18.3540281682
20
-13.3499789928
30
1.9730083738
10
-18.3546270465
20
-13.3364605411
30
1.9665156428
11
-18.3423994195
21
-13.6096528741
31
2.2066280105
11
-18.3438414610
21
-13.5777220643
31
2.1616717721
11
-18.3465267878
21
-13.5180596047
31
2.0943520921
11
-18.3528572644
21
-13.3763498511
31
1.9873321183
11
-18.3546270465
21
-13.3364605411
31
1.9665156428
0
SPLINE
5
361
100
AcDbEntity
8
ASSI
100
AcDbSpline
62
9
6
CONTINUOUS
70
0
71
3
72
9
73
5
74
3
42
0.0000001000
43
0.0000001000
44
0.0000000001
12
-0.0113604592
22
0.2564390910
32
-0.1231642551
13
-0.0122790109
23
0.2830034887
33
-0.0077157695
40
0.0000000000
40
0.0000000000
40
0.0000000000
40
0.0000000000
40
0.4641695939
40
1.0000000000
40
1.0000000000
40
1.0000000000
40
1.0000000000
10
-18.3546270465
20
-13.3364605411
30
1.9665156428
10
-18.3563847731
20
-13.2967834649
30
1.9474592754
10
-18.3603286824
20
-13.2073769148
30
1.9147625308
10
-18.3644397379
20
-13.1131804191
30
1.9015718208
10
-18.3666328937
20
-13.0626331277
30
1.9001937062
11
-18.3546270465
21
-13.3364605411
31
1.9665156428
11
-18.3600820709
21
-13.2127518507
31
1.9213082478
11
-18.3666328937
21
-13.0626331277
31
1.9001937062
0
SPLINE
5
362
100
AcDbEntity
8
ASSI
100
AcDbSpline
62
9
6
CONTINUOUS
70
0
71
3
72
10
73
6
74
4
42
0.0000001000
43
0.0000001000
44
0.0000000001
12
-0.0121549005
22
0.2801430245
32
-0.0076377822
13
-0.0109863541
23
0.2586626858
33
0.1056611376
40
0.0000000000
40
0.0000000000
40
0.0000000000
40
0.0000000000
40
0.0873703861
40
0.7160423968
40
1.0000000000
40
1.0000000000
40
1.0000000000
40
1.0000000000
10
-18.3666328937
20
-13.0626331277
30
1.9001937062
10
-18.3669868865
20
-13.0544743929
30
1.8999712675
10
-18.3698859626
20
-12.9875938438
30
1.8993631365
10
-18.3738883291
20
-12.8945233783
30
1.9124538314
10
-18.3773205684
20
-12.8139397725
30
1.9399988045
10
-18.3783604547
20
-12.7894566937
30
1.9499998990
11
-18.3666328937
21
-13.0626331277
31
1.9001937062
11
-18.3676938736
21
-13.0381566162
31
1.8999714725
11
-18.3751633988
21
-12.8645073265
31
1.9243680324
11
-18.3783604547
21
-12.7894566937
31
1.9499998990
0
SPLINE
5
363
100
AcDbEntity
8
ASSI
100
AcDbSpline
62
9
6
CONTINUOUS
70
0
71
3
72
10
73
6
74
4
42
0.0000001000
43
0.0000001000
44
0.0000000001
12
-0.0135998179
22
0.3201940694
32
0.1307960965
13
-0.0089503153
23
0.2153625512
33
0.2722984975
40
0.0000000000
40
0.0000000000
40
0.0000000000
40
0.0000000000
40
0.2784709743
40
0.7863316948
40
1.0000000000
40
1.0000000000
40
1.0000000000
40
1.0000000000
10
-18.3783604547
20
-12.7894566937
30
1.9499998990
10
-18.3796228396
20
-12.7597351089
30
1.9621408711
10
-18.3830708591
20
-12.6782635905
30
2.0023775610
10
-18.3869156334
20
-12.5865213080
30
2.0734880593
10
-18.3892251043
20
-12.5310461562
30
2.1363895992
10
-18.3898625706
20
-12.5157074391
30
2.1557834520
11
-18.3783604547
21
-12.7894566937
31
1.9499998990
11
-18.3820117281
21
-12.7032008983
31
1.9926061297
11
-18.3878165379
21
-12.5648422117
31
2.1001518643
11
-18.3898625706
21
-12.5157074391
31
2.1557834520
0
SPLINE
5
364
100
AcDbEntity
8
ASSI
100
AcDbSpline
62
9
6
CONTINUOUS
70
0
71
3
72
12
73
8
74
6
42
0.0000001000
43
0.0000001000
44
0.0000000001
12
-0.0117241420
22
0.2821063899
32
0.3566875749
13
0.0000000000
23
0.0000000000
33
0.4883657501
40
0.0000000000
40
0.0000000000
40
0.0000000000
40
0.0000000000
40
0.2245891315
40
0.4184418486
40
0.6122945657
40
0.8061472829
40
1.0000000000
40
1.0000000000
40
1.0000000000
40
1.0000000000
10
-18.3898625706
20
-12.5157074391
30
2.1557834520
10
-18.3907402755
20
-12.4945880961
30
2.1824861696
10
-18.3922115243
20
-12.4590871586
30
2.2349450428
10
-18.3938416090
20
-12.4196074963
30
2.3157743499
10
-18.3949961846
20
-12.3915709546
30
2.3976430471
10
-18.3957133850
20
-12.3741221055
30
2.4846075349
10
-18.3958817785
20
-12.3700213152
30
2.5427179908
10
-18.3958817785
20
-12.3700213152
30
2.5742750000
11
-18.3898625706
21
-12.5157074391
31
2.1557834520
11
-18.3922166790
21
-12.4589340246
31
2.2395991861
11
-18.3937759955
21
-12.4211843782
31
2.3166238364
11
-18.3949232887
21
-12.3933355700
31
2.3984923456
11
-18.3956359500
21
-12.3760050495
31
2.4846410676
11
-18.3958817785
21
-12.3700213152
31
2.5742750000
0
SPLINE
5
365
100
AcDbEntity
8
ASSI
100
AcDbSpline
62
9
6
CONTINUOUS
70
0
71
3
72
8
73
4
74
2
42
0.0000001000
43
0.0000001000
44
0.0000000001
12
0.0116907502
22
-0.2692134970
32
0.1885803694
13
0.0119324789
23
-0.2692028911
33
0.1885729401
40
0.0000000000
40
0.0000000000
40
0.0000000000
40
0.0000000000
40
1.0000000000
40
1.0000000000
40
1.0000000000
40
1.0000000000
10
-18.3661308752
20
-13.0741991780
30
-4.1453581638
10
-18.3622339585
20
-13.1639370103
30
-4.0824980407
10
-18.3582967529
20
-13.2536730931
30
-4.0196391431
10
-18.3543192599
20
-13.3434073901
30
-3.9567814964
11
-18.3661308752
21
-13.0741991780
31
-4.1453581638
11
-18.3543192599
21
-13.3434073901
31
-3.9567814964
0
SPLINE
5
366
100
AcDbEntity
8
ASSI
100
AcDbSpline
62
9
6
CONTINUOUS
70
0
71
3
72
8
73
4
74
2
42
0.0000001000
43
0.0000001000
44
0.0000000001
12
0.0118677101
22
-0.2677416722
32
0.1875493763
13
0.0121068122
23
-0.2677309670
33
0.1875418774
40
0.0000000000
40
0.0000000000
40
0.0000000000
40
0.0000000000
40
1.0000000000
40
1.0000000000
40
1.0000000000
40
1.0000000000
10
-18.3543192599
20
-13.3434073901
30
-3.9567814964
10
-18.3503633565
20
-13.4326546141
30
-3.8942650376
10
-18.3463676020
20
-13.5219000718
30
-3.8317498162
10
-18.3423319979
20
-13.6111437275
30
-3.7692358571
11
-18.3543192599
21
-13.3434073901
31
-3.9567814964
11
-18.3423319979
21
-13.6111437275
31
-3.7692358571
0
SPLINE
5
367
100
AcDbEntity
8
ASSI
100
AcDbSpline
62
9
6
CONTINUOUS
70
0
71
3
72
8
73
4
74
2
42
0.0000001000
43
0.0000001000
44
0.0000000001
12
0.0061878689
22
-0.1368390047
32
0.0958538496
13
0.0062503276
23
-0.1368361661
33
0.0958518612
40
0.0000000000
40
0.0000000000
40
0.0000000000
40
0.0000000000
40
1.0000000000
40
1.0000000000
40
1.0000000000
40
1.0000000000
10
-18.3423319979
20
-13.6111437275
30
-3.7692358571
10
-18.3402693750
20
-13.6567567290
30
-3.7372845739
10
-18.3381963421
20
-13.7023692599
30
-3.7053336204
10
-18.3361128995
20
-13.7479813152
30
-3.6733830000
11
-18.3423319979
21
-13.6111437275
31
-3.7692358571
11
-18.3361128995
21
-13.7479813152
31
-3.6733830000
0
SPLINE
5
368
100
AcDbEntity
8
ASSI
100
AcDbSpline
62
9
6
CONTINUOUS
70
0
71
3
72
8
73
4
74
2
42
0.0000001000
43
0.0000001000
44
0.0000000001
12
-0.0099100867
22
0.2152695880
32
-0.1507934107
13
-0.0097555021
23
0.2152766488
33
-0.1507983567
40
0.0000000000
40
0.0000000000
40
0.0000000000
40
0.0000000000
40
1.0000000000
40
1.0000000000
40
1.0000000000
40
1.0000000000
10
-18.3311983462
20
-13.8551535848
30
-3.7885032504
10
-18.3345017084
20
-13.7833970555
30
-3.8387677206
10
-18.3377793070
20
-13.7116393401
30
-3.8890330217
10
-18.3410311410
20
-13.6398804572
30
-3.9392991406
11
-18.3311983462
21
-13.8551535848
31
-3.7885032504
11
-18.3410311410
21
-13.6398804572
31
-3.9392991406
0
SPLINE
5
369
100
AcDbEntity
8
ASSI
100
AcDbSpline
62
9
6
CONTINUOUS
70
0
71
3
72
8
73
4
74
2
42
0.0000001000
43
0.0000001000
44
0.0000000001
12
-0.0021522239
22
0.0474935616
32
-0.0332685922
13
-0.0021446998
23
0.0474939019
33
-0.0332688306
40
0.0000000000
40
0.0000000000
40
0.0000000000
40
0.0000000000
40
1.0000000000
40
1.0000000000
40
1.0000000000
40
1.0000000000
10
-18.3410311410
20
-13.6398804572
30
-3.9392991406
10
-18.3417485490
20
-13.6240492700
30
-3.9503886713
10
-18.3424647029
20
-13.6082180260
30
-3.9614782418
10
-18.3431796029
20
-13.5923867253
30
-3.9725678520
11
-18.3410311410
21
-13.6398804572
31
-3.9392991406
11
-18.3431796029
21
-13.5923867253
31
-3.9725678520
0
SPLINE
5
36A
100
AcDbEntity
8
ASSI
100
AcDbSpline
62
9
6
CONTINUOUS
70
0
71
3
72
8
73
4
74
2
42
0.0000001000
43
0.0000001000
44
0.0000000001
12
-0.0107308457
22
0.2376321969
32
-0.1664581133
13
-0.0105424831
23
0.2376406280
33
-0.1664640192
40
0.0000000000
40
0.0000000000
40
0.0000000000
40
0.0000000000
40
1.0000000000
40
1.0000000000
40
1.0000000000
40
1.0000000000
10
-18.3431796029
20
-13.5923867253
30
-3.9725678520
10
-18.3467565514
20
-13.5131759930
30
-4.0280538898
10
-18.3503021068
20
-13.4339638431
30
-4.0835409206
10
-18.3538162678
20
-13.3547503004
30
-4.1390289270
11
-18.3431796029
21
-13.5923867253
31
-3.9725678520
11
-18.3538162678
21
-13.3547503004
31
-4.1390289270
0
SPLINE
5
36B
100
AcDbEntity
8
ASSI
100
AcDbSpline
62
9
6
CONTINUOUS
70
0
71
3
72
8
73
4
74
2
42
0.0000001000
43
0.0000001000
44
0.0000000001
12
-0.0021697669
22
0.0489092343
32
-0.0342602517
13
-0.0021617880
23
0.0489095877
33
-0.0342604992
40
0.0000000000
40
0.0000000000
40
0.0000000000
40
0.0000000000
40
1.0000000000
40
1.0000000000
40
1.0000000000
40
1.0000000000
10
-18.3538162678
20
-13.3547503004
30
-4.1390289270
10
-18.3545395235
20
-13.3384472223
30
-4.1504490109
10
-18.3552614493
20
-13.3221440852
30
-4.1618691361
10
-18.3559820453
20
-13.3058408893
30
-4.1732893025
11
-18.3538162678
21
-13.3547503004
31
-4.1390289270
11
-18.3559820453
21
-13.3058408893
31
-4.1732893025
0
SPLINE
5
36C
100
AcDbEntity
8
ASSI
100
AcDbSpline
62
9
6
CONTINUOUS
70
0
71
3
72
8
73
4
74
2
42
0.0000001000
43
0.0000001000
44
0.0000000001
12
-0.0099582903
22
0.2253023287
32
-0.1578212088
13
-0.0097889750
23
0.2253097486
33
-0.1578264064
40
0.0000000000
40
0.0000000000
40
0.0000000000
40
0.0000000000
40
1.0000000000
40
1.0000000000
40
1.0000000000
40
1.0000000000
10
-18.3559820453
20
-13.3058408893
30
-4.1732893025
10
-18.3593014754
20
-13.2307401131
30
-4.2258963721
10
-18.3625926868
20
-13.1556380896
30
-4.2785043154
10
-18.3658556784
20
-13.0805348401
30
-4.3311131175
11
-18.3559820453
21
-13.3058408893
31
-4.1732893025
11
-18.3658556784
21
-13.0805348401
31
-4.3311131175
0
SPLINE
5
36D
100
AcDbEntity
8
ASSI
100
AcDbSpline
62
9
6
CONTINUOUS
70
0
71
3
72
13
73
9
74
7
42
0.0000001000
43
0.0000001000
44
0.0000000001
12
0.0000000000
22
0.0000000000
32
-0.1544037791
13
-0.0058817696
23
0.1265890068
33
-0.0886381846
40
0.0000000000
40
0.0000000000
40
0.0000000000
40
0.0000000000
40
0.1666666667
40
0.3333333333
40
0.5000000000
40
0.6666666667
40
0.8333333333
40
1.0000000000
40
1.0000000000
40
1.0000000000
40
1.0000000000
10
-18.3221857871
20
-14.0495546929
30
-3.7493670000
10
-18.3221857871
20
-14.0495546929
30
-3.7579449877
10
-18.3222500777
20
-14.0481776838
30
-3.7744414372
10
-18.3225246684
20
-14.0422947069
30
-3.7985210873
10
-18.3229789542
20
-14.0325563729
30
-3.8215910748
10
-18.3235992992
20
-14.0192471770
30
-3.8428063996
10
-18.3243607592
20
-14.0028927668
30
-3.8614481241
10
-18.3249528286
20
-13.9901604321
30
-3.8720473804
10
-18.3252795936
20
-13.9831277095
30
-3.8769717239
11
-18.3221857871
21
-14.0495546929
31
-3.7493670000
11
-18.3222797702
21
-14.0475414399
31
-3.7743305998
11
-18.3225546176
21
-14.0416521474
31
-3.7983528102
11
-18.3230066307
21
-14.0319612293
31
-3.8212819644
11
-18.3236228184
21
-14.0187396413
31
-3.8423774662
11
-18.3243818665
21
-14.0024354181
31
-3.8609909841
11
-18.3252795936
21
-13.9831277095
31
-3.8769717239
0
SPLINE
5
36E
100
AcDbEntity
8
0
100
AcDbSpline
62
9
6
CONTINUOUS
70
0
71
3
72
18
73
14
74
12
42
0.0000001000
43
0.0000001000
44
0.0000000001
12
0.0704840794
22
-1.0366058803
32
0.0000000000
13
1.0388410847
23
-0.0181371786
33
0.0000000000
40
0.0000000000
40
0.0000000000
40
0.0000000000
40
0.0000000000
40
0.0762234677
40
0.1616143483
40
0.2542719093
40
0.3522352897
40
0.4533704559
40
0.5553707486
40
0.6558697984
40
0.7525967344
40
0.8434723761
40
0.9265779405
40
1.0000000000
40
1.0000000000
40
1.0000000000
40
1.0000000000
10
-17.1733737453
20
-20.3520052842
30
0.0000000000
10
-17.1715828983
20
-20.3783431825
30
0.0000000000
10
-17.1646165270
20
-20.4340198137
30
0.0000000000
10
-17.1432433797
20
-20.5196852647
30
0.0000000000
10
-17.1079652662
20
-20.6088578198
30
0.0000000000
10
-17.0577286757
20
-20.6969411353
30
0.0000000000
10
-16.9930384526
20
-20.7792329374
30
0.0000000000
10
-16.9160647311
20
-20.8514722939
30
0.0000000000
10
-16.8304056624
20
-20.9104841782
30
0.0000000000
10
-16.7405459376
20
-20.9546415041
30
0.0000000000
10
-16.6512001039
20
-20.9839913434
30
0.0000000000
10
-16.5668218786
20
-21.0000617308
30
0.0000000000
10
-16.5126276694
20
-21.0039671976
30
0.0000000000
10
-16.4872030520
20
-21.0044110873
30
0.0000000000
11
-17.1733737453
21
-20.3520052842
31
0.0000000000
11
-17.1635394908
21
-20.4305884606
31
0.0000000000
11
-17.1420621921
21
-20.5166707153
31
0.0000000000
11
-17.1066448893
21
-20.6061902610
31
0.0000000000
11
-17.0562185355
21
-20.6946048743
31
0.0000000000
11
-16.9912776713
21
-20.7772145569
31
0.0000000000
11
-16.9140009662
21
-20.8497383382
31
0.0000000000
11
-16.8280130755
21
-20.9089776486
31
0.0000000000
11
-16.7378161259
21
-20.9533015160
31
0.0000000000
11
-16.6481129908
21
-20.9827707266
31
0.0000000000
11
-16.5632910453
21
-20.9989255513
31
0.0000000000
11
-16.4872030520
21
-21.0044110873
31
0.0000000000
0
SPLINE
5
36F
100
AcDbEntity
8
0
100
AcDbSpline
62
9
6
CONTINUOUS
70
0
71
3
72
10
73
6
74
4
42
0.0000001000
43
0.0000001000
44
0.0000000001
12
-2.7558149912
22
-40.5292509143
32
0.0000000000
13
2.7558124011
23
-40.5292510904
33
0.0000000000
40
0.0000000000
40
0.0000000000
40
0.0000000000
40
0.0000000000
40
0.3333325920
40
0.6666690020
40
1.0000000000
40
1.0000000000
40
1.0000000000
40
1.0000000000
10
-17.1733737453
20
20.2430946537
30
0.0000000000
10
-17.4795747300
20
15.7398545677
30
0.0000000000
10
-17.8881982407
20
6.7180770917
30
0.0000000000
10
-17.8881971393
20
-6.8270309198
30
0.0000000000
10
-17.4795729780
20
-15.8487867127
30
0.0000000000
10
-17.1733737453
20
-20.3520052842
30
0.0000000000
11
-17.1733737453
21
20.2430946537
31
0.0000000000
11
-17.7860410093
21
6.7160472428
31
0.0000000000
11
-17.7860396239
21
-6.8250226281
31
0.0000000000
11
-17.1733737453
21
-20.3520052842
31
0.0000000000
0
SPLINE
5
370
100
AcDbEntity
8
0
100
AcDbSpline
62
9
6
CONTINUOUS
70
0
71
3
72
11
73
7
74
5
42
0.0000001000
43
0.0000001000
44
0.0000000001
12
-0.0139588767
22
0.7999470618
32
0.0000000000
13
0.7999469877
23
0.0139631266
33
0.0000000000
40
0.0000000000
40
0.0000000000
40
0.0000000000
40
0.0000000000
40
0.3825591995
40
0.7068733429
40
0.9236228661
40
1.0000000000
40
1.0000000000
40
1.0000000000
40
1.0000000000
10
-16.4872030520
20
20.8955004568
30
0.0000000000
10
-16.4889830843
20
20.9975094927
30
0.0000000000
10
-16.4864287602
20
21.1799266591
30
0.0000000000
10
-16.5065687834
20
21.4476626308
30
0.0000000000
10
-16.4694318021
20
21.5700133170
30
0.0000000000
10
-16.5075689381
20
21.6950231251
30
0.0000000000
10
-16.4872030520
20
21.6953786129
30
0.0000000000
11
-16.4872030520
21
20.8955004568
31
0.0000000000
11
-16.4914810588
21
21.2015442542
31
0.0000000000
11
-16.4929832651
21
21.4610135468
31
0.0000000000
11
-16.4914810600
21
21.6344215803
31
0.0000000000
11
-16.4872030520
21
21.6953786129
31
0.0000000000
0
SPLINE
5
371
100
AcDbEntity
8
0
100
AcDbSpline
62
9
6
CONTINUOUS
70
0
71
3
72
18
73
14
74
12
42
0.0000001000
43
0.0000001000
44
0.0000000001
12
-1.0388411489
22
-0.0181321361
32
0.0000000000
13
-0.0704893733
23
-1.0366054964
33
0.0000000000
40
0.0000000000
40
0.0000000000
40
0.0000000000
40
0.0000000000
40
0.0762887184
40
0.1617318156
40
0.2544293028
40
0.3524203723
40
0.4535705499
40
0.5555725981
40
0.6560597604
40
0.7527610568
40
0.8435972019
40
0.9266484966
40
1.0000000000
40
1.0000000000
40
1.0000000000
40
1.0000000000
10
-16.4872030520
20
20.8955004568
30
0.0000000000
10
-16.5136203386
20
20.8950393643
30
0.0000000000
10
-16.5696180991
20
20.8908831494
30
0.0000000000
10
-16.6563037514
20
20.8738337981
30
0.0000000000
10
-16.7471749168
20
20.8430643531
30
0.0000000000
10
-16.8376931421
20
20.7972964410
30
0.0000000000
10
-16.9231371554
20
20.7368039117
30
0.0000000000
10
-16.9991447502
20
20.6635462529
30
0.0000000000
10
-17.0623685673
20
20.5809628340
30
0.0000000000
10
-17.1109640351
20
20.4934544129
30
0.0000000000
10
-17.1447472204
20
20.4057336106
30
0.0000000000
10
-17.1650255869
20
20.3223256597
30
0.0000000000
10
-17.1716502448
20
20.2684401775
30
0.0000000000
10
-17.1733737453
20
20.2430946537
30
0.0000000000
11
-16.4872030520
21
20.8955004568
31
0.0000000000
11
-16.5662494266
21
20.8896317761
31
0.0000000000
11
-16.6533559322
21
20.8724994972
31
0.0000000000
11
-16.7445802442
21
20.8416085941
31
0.0000000000
11
-16.8354387359
21
20.7956678467
31
0.0000000000
11
-16.9212128161
21
20.7349409151
31
0.0000000000
11
-16.9975197476
21
20.6613948322
31
0.0000000000
11
-17.0609872963
21
20.5784942666
31
0.0000000000
11
-17.1097661627
21
20.4906571282
31
0.0000000000
11
-17.1436867553
21
20.4025848165
31
0.0000000000
11
-17.1640719834
21
20.3187370461
31
0.0000000000
11
-17.1733737453
21
20.2430946537
31
0.0000000000
0
SPLINE
5
372
100
AcDbEntity
8
0
100
AcDbSpline
62
9
6
CONTINUOUS
70
0
71
3
72
11
73
7
74
5
42
0.0000001000
43
0.0000001000
44
0.0000000001
12
-0.0139588749
22
-0.7999470618
32
0.0000000000
13
0.7999469876
23
-0.0139631266
33
0.0000000000
40
0.0000000000
40
0.0000000000
40
0.0000000000
40
0.0000000000
40
0.3825592777
40
0.7068734192
40
0.9236228949
40
1.0000000000
40
1.0000000000
40
1.0000000000
40
1.0000000000
10
-16.4872030520
20
-21.0044110873
30
0.0000000000
10
-16.4889830844
20
-21.1064201440
30
0.0000000000
10
-16.4864287586
20
-21.2888373288
30
0.0000000000
10
-16.5065687830
20
-21.5565733106
30
0.0000000000
10
-16.4694318065
20
-21.6789239814
30
0.0000000000
10
-16.5075689304
20
-21.8039337557
30
0.0000000000
10
-16.4872030520
20
-21.8042892434
30
0.0000000000
11
-16.4872030520
21
-21.0044110873
31
0.0000000000
11
-16.4914810589
21
-21.3104549472
31
0.0000000000
11
-16.4929832644
21
-21.5699242383
31
0.0000000000
11
-16.4914810589
21
-21.7433322338
31
0.0000000000
11
-16.4872030520
21
-21.8042892434
31
0.0000000000
0
ENDSEC
0
SECTION
2
OBJECTS
0
DICTIONARY
5
C
100
AcDbDictionary
280
0
281
1
3
ACAD_GROUP
350
D
3
ACAD_MLINESTYLE
350
17
3
ACAD_LAYOUT
350
1A
3
ACAD_PLOTSETTINGS
350
19
3
ACAD_PLOTSTYLENAME
350
E
0
DICTIONARY
5
D
102
{ACAD_REACTORS
330
C
102
}
100
AcDbDictionary
280
0
281
1
0
ACDBDICTIONARYWDFLT
5
E
102
{ACAD_REACTORS
330
C
102
}
100
AcDbDictionary
281
1
3
Normal
350
F
100
AcDbDictionaryWithDefault
340
F
0
DICTIONARY
5
17
102
{ACAD_REACTORS
330
C
102
}
100
AcDbDictionary
280
0
281
1
3
Standard
350
18
0
DICTIONARY
5
19
102
{ACAD_REACTORS
330
C
102
}
100
AcDbDictionary
281
1
0
DICTIONARY
5
1A
102
{ACAD_REACTORS
330
C
102
}
100
AcDbDictionary
281
1
3
Layout1
350
1E
3
Model
350
22
0
ACDBPLACEHOLDER
5
F
102
{ACAD_REACTORS
330
E
102
}
0
MLINESTYLE
5
18
102
{ACAD_REACTORS
330
17
102
}
100
AcDbMlineStyle
2
STANDARD
70
0
3

62
256
51
90.0
52
90.0
71
2
49
0.5
62
256
6
BYLAYER
49
-0.5
62
256
6
BYLAYER
0
LAYOUT
5
1E
102
{ACAD_REACTORS
330
1A
102
}
100
AcDbPlotSettings
1

2

4

6

40
0.0
41
0.0
42
0.0
43
0.0
44
0.0
45
0.0
46
0.0
47
0.0
48
0.0
49
0.0
140
0.0
141
0.0
142
1.0
143
1.0
70
0
72
0
73
0
74
0
7

75
0
147
1.0
148
0.0
149
0.0
100
AcDbLayout
1
Layout1
70
0
71
0
10
0.0
20
0.0
11
0.0
21
0.0
12
0.0
22
0.0
32
0.0
14
0.0
24
0.0
34
0.0
15
0.0
25
0.0
35
0.0
146
0.0
13
0.0
23
0.0
33
0.0
16
0.0
26
0.0
36
0.0
17
0.0
27
0.0
37
0.0
76
0
330
1B
331
0
345
0
346
0
0
LAYOUT
5
22
102
{ACAD_REACTORS
330
1A
102
}
100
AcDbPlotSettings
1

2

4

6

40
0.0
41
0.0
42
0.0
43
0.0
44
0.0
45
0.0
46
0.0
47
0.0
48
0.0
49
0.0
140
0.0
141
0.0
142
1.0
143
1.0
70
0
72
0
73
0
74
0
7

75
0
147
1.0
148
0.0
149
0.0
100
AcDbLayout
1
Model
70
0
71
0
10
0.0
20
0.0
11
0.0
21
0.0
12
0.0
22
0.0
32
0.0
14
0.0
24
0.0
34
0.0
15
0.0
25
0.0
35
0.0
146
0.0
13
0.0
23
0.0
33
0.0
16
0.0
26
0.0
36
0.0
17
0.0
27
0.0
37
0.0
76
0
330
1F
331
0
345
0
346
0
0
ENDSEC
0
EOF
