0
SECTION
2
HEADER
9
$ACADVER
1
AC1015
9
$DWGCODEPAGE
3
ANSI_1252
9
$EXTMAX
10
431.8000000000
20
558.8000000000
30
0.0000000000
9
$EXTMIN
10
0.0000000000
20
0.0000000000
30
0.0000000000
9
$LIMMIN
10
0.0000000000
20
0.0000000000
9
$LIMMAX
10
431.8000000000
20
558.8000000000
9
$VIEWCTR
10
215.9000000000
20
279.4000000000
9
$VIEWSIZE
40
558.8000000000
9
$CLAYER
8
0
9
$LTSCALE
40
36.4254814815
9
$CELTYPE
6
BYLAYER
9
$DIMSCALE
40
1
9
$DIMASZ
40
3.0000000000
9
$DIMEXO
40
4.1392592593
9
$DIMDLI
40
25.1666962963
9
$DIMEXE
40
11.9210666667
9
$DIMCEN
40
5.9605333333
9
$DIMLFAC
40
1.0000000000
9
$DIMBLK
1
_FILLED
9
$DIMTXT
40
3.0000000000
9
$DIMTOL
70
1
9
$DIMLIM
70
0
9
$DIMTFAC
40
1.0000000000
9
$DIMTP
40
0.0100000000
9
$DIMTM
40
0.0100000000
9
$PDMODE
70
3
9
$PDSIZE
40
3.0000000000
9
$HANDSEED
5
277
9
$MEASUREMENT
70
1
9
$INSUNITS
70
4
0
ENDSEC
0
SECTION
2
CLASSES
0
CLASS
1
ACDBDICTIONARYWDFLT
2
AcDbDictionaryWithDefault
3
AutoCAD 2000
90
0
280
0
281
0
0
CLASS
1
ACDBPLACEHOLDER
2
AcDbPlaceHolder
3
AutoCAD 2000
90
0
280
0
281
0
0
CLASS
1
LAYOUT
2
AcDbLayout
3
AutoCAD 2000
90
0
280
0
281
0
0
ENDSEC
0
SECTION
2
TABLES
0
TABLE
2
VPORT
5
8
100
AcDbSymbolTable
70
2
0
VPORT
5
1F4
100
AcDbSymbolTableRecord
100
AcDbViewportTableRecord
2
*ACTIVE
70
0
10
0.0
20
0.0
11
1.0
21
1.0
12
215.9000000000
22
279.4000000000
13
0.0
23
0.0
14
1.0
24
1.0
15
0.0
25
0.0
16
0.0
26
0.0
36
1.0
17
0.0
27
0.0
37
0.0
40
558.8000000000
41
0.7727272727
42
50.0
43
0.0
44
0.0
50
0.0
51
0.0
71
0
72
100
73
1
74
1
75
0
76
0
77
0
78
0
0
ENDTAB
0
TABLE
2
LTYPE
5
5
100
AcDbSymbolTable
70
6
0
LTYPE
5
14
100
AcDbSymbolTableRecord
100
AcDbLinetypeTableRecord
2
BYBLOCK
70
0
3

72
65
73
0
40
0.0
0
LTYPE
5
15
100
AcDbSymbolTableRecord
100
AcDbLinetypeTableRecord
2
BYLAYER
70
0
3

72
65
73
0
40
0.0
0
LTYPE
5
16
100
AcDbSymbolTableRecord
100
AcDbLinetypeTableRecord
2
CONTINUOUS
70
64
3
Solid line
72
65
73
0
40
0
0
LTYPE
5
1F5
100
AcDbSymbolTableRecord
100
AcDbLinetypeTableRecord
2
CENTER
70
64
3
____ _ ____ _ ____ _ ____ _ ____ _ ____ _ ____
72
65
73
4
40
0.6
49
0.375
74
0
49
-0.075
74
0
49
0.075
74
0
49
-0.075
74
0
0
LTYPE
5
1F6
100
AcDbSymbolTableRecord
100
AcDbLinetypeTableRecord
2
HIDDEN
70
64
3
- - - - - - - - - - - - - - - - - - - -
72
65
73
2
40
0.2
49
0.1
74
0
49
-0.1
74
0
0
LTYPE
5
1F7
100
AcDbSymbolTableRecord
100
AcDbLinetypeTableRecord
2
PHANTOM
70
64
3
_____ _ _ _____ _ _ _____ _ _ _____
72
65
73
6
40
0.8
49
0.45
74
0
49
-0.05
74
0
49
0.1
74
0
49
-0.05
74
0
49
0.1
74
0
49
-0.05
74
0
0
LTYPE
5
1F8
100
AcDbSymbolTableRecord
100
AcDbLinetypeTableRecord
2
DOT
70
64
3
. . . . . . . . . . . . . . . . . . . .
72
65
73
2
40
0.2
49
0.1
74
0
49
-0.1
74
0
0
LTYPE
5
1F9
100
AcDbSymbolTableRecord
100
AcDbLinetypeTableRecord
2
DASHED
70
64
3
- - - - - - - - - - - - - - - - - - - -
72
65
73
2
40
0.2
49
0.1
74
0
49
-0.1
74
0
0
ENDTAB
0
TABLE
2
LAYER
5
2
100
AcDbSymbolTable
70
36
0
LAYER
5
10
100
AcDbSymbolTableRecord
100
AcDbLayerTableRecord
2
0
70
0
62
7
6
CONTINUOUS
370
-3
390
F
0
LAYER
5
1FA
100
AcDbSymbolTableRecord
100
AcDbLayerTableRecord
2
DEFAULT_1
70
0
62
7
6
CENTER
370
-3
390
F
0
LAYER
5
1FB
100
AcDbSymbolTableRecord
100
AcDbLayerTableRecord
2
DEFAULT_2
70
0
62
9
6
HIDDEN
370
-3
390
F
0
LAYER
5
1FC
100
AcDbSymbolTableRecord
100
AcDbLayerTableRecord
2
DEFAULT_3
70
0
62
7
6
PHANTOM
370
-3
390
F
0
LAYER
5
1FD
100
AcDbSymbolTableRecord
100
AcDbLayerTableRecord
2
_BLACK_HOLE
70
0
62
7
6
CONTINUOUS
370
-3
390
F
0
LAYER
5
1FE
100
AcDbSymbolTableRecord
100
AcDbLayerTableRecord
2
ASSI
70
0
62
7
6
CONTINUOUS
370
-3
390
F
0
LAYER
5
1FF
100
AcDbSymbolTableRecord
100
AcDbLayerTableRecord
2
COORDINATE
70
0
62
7
6
CONTINUOUS
370
-3
390
F
0
LAYER
5
200
100
AcDbSymbolTableRecord
100
AcDbLayerTableRecord
2
COORD_ORIGINE
70
0
62
7
6
CONTINUOUS
370
-3
390
F
0
LAYER
5
201
100
AcDbSymbolTableRecord
100
AcDbLayerTableRecord
2
CURVE
70
0
62
7
6
CONTINUOUS
370
-3
390
F
0
LAYER
5
202
100
AcDbSymbolTableRecord
100
AcDbLayerTableRecord
2
DRAFT
70
0
62
7
6
CONTINUOUS
370
-3
390
F
0
LAYER
5
203
100
AcDbSymbolTableRecord
100
AcDbLayerTableRecord
2
NOTE
70
0
62
7
6
CONTINUOUS
370
-3
390
F
0
LAYER
5
204
100
AcDbSymbolTableRecord
100
AcDbLayerTableRecord
2
PIANI
70
0
62
7
6
CONTINUOUS
370
-3
390
F
0
LAYER
5
205
100
AcDbSymbolTableRecord
100
AcDbLayerTableRecord
2
PIANI_ORIGINE
70
0
62
7
6
CONTINUOUS
370
-3
390
F
0
LAYER
5
206
100
AcDbSymbolTableRecord
100
AcDbLayerTableRecord
2
PUNTI
70
0
62
7
6
CONTINUOUS
370
-3
390
F
0
LAYER
5
207
100
AcDbSymbolTableRecord
100
AcDbLayerTableRecord
2
RACCORDO
70
0
62
7
6
CONTINUOUS
370
-3
390
F
0
LAYER
5
208
100
AcDbSymbolTableRecord
100
AcDbLayerTableRecord
2
SMUSSO
70
0
62
7
6
CONTINUOUS
370
-3
390
F
0
LAYER
5
209
100
AcDbSymbolTableRecord
100
AcDbLayerTableRecord
2
SNAPLINE
70
0
62
7
6
CONTINUOUS
370
-3
390
F
0
LAYER
5
20A
100
AcDbSymbolTableRecord
100
AcDbLayerTableRecord
2
SUPERFICI
70
0
62
7
6
CONTINUOUS
370
-3
390
F
0
LAYER
5
20B
100
AcDbSymbolTableRecord
100
AcDbLayerTableRecord
2
TRASH
70
0
62
7
6
CONTINUOUS
370
-3
390
F
0
ENDTAB
0
TABLE
2
STYLE
5
3
100
AcDbSymbolTable
70
1
0
STYLE
5
11
100
AcDbSymbolTableRecord
100
AcDbTextStyleTableRecord
2
STANDARD
70
0
40
0.0
41
0.8000000000
50
0.0
71
0
42
0.2
3
txt
4

0
ENDTAB
0
TABLE
2
VIEW
5
6
100
AcDbSymbolTable
70
0
0
ENDTAB
0
TABLE
2
UCS
5
7
100
AcDbSymbolTable
70
0
0
ENDTAB
0
TABLE
2
APPID
5
9
100
AcDbSymbolTable
70
1
0
APPID
5
20C
100
AcDbSymbolTableRecord
100
AcDbRegAppTableRecord
2
ACAD
70
0
0
ENDTAB
0
TABLE
2
BLOCK_RECORD
5
1
100
AcDbSymbolTable
70
0
0
BLOCK_RECORD
5
1F
100
AcDbSymbolTableRecord
100
AcDbBlockTableRecord
2
*MODEL_SPACE
0
BLOCK_RECORD
5
1B
100
AcDbSymbolTableRecord
100
AcDbBlockTableRecord
2
*PAPER_SPACE
0
BLOCK_RECORD
5
20D
100
AcDbSymbolTableRecord
100
AcDbBlockTableRecord
2
_FILLED
0
BLOCK_RECORD
5
20E
100
AcDbSymbolTableRecord
100
AcDbBlockTableRecord
2
*D0
0
BLOCK_RECORD
5
20F
100
AcDbSymbolTableRecord
100
AcDbBlockTableRecord
2
*D1
0
BLOCK_RECORD
5
210
100
AcDbSymbolTableRecord
100
AcDbBlockTableRecord
2
*D2
0
ENDTAB
0
TABLE
2
DIMSTYLE
5
A
100
AcDbSymbolTable
70
1
100
AcDbDimStyleTable
71
0
0
DIMSTYLE
105
211
100
AcDbSymbolTableRecord
100
AcDbDimStyleTableRecord
2
STANDARD
70
0
3

4

40
1.0
41
3.0000000000
42
0.0625
43
0.38
44
0.18
45
0.0
46
0.0
47
0.0100000000
48
0.0100000000
140
3.0000000000
141
0.09
142
0.0
143
25.4
144
1.0000000000
145
0.0
146
1.0000000000
147
0.09
71
1
72
0
73
0
74
0
75
0
76
0
77
1
78
8
170
0
171
2
172
0
173
0
174
0
175
0
176
0
177
0
178
0
270
2
271
2
272
2
273
2
274
2
275
0
280
0
281
0
282
0
283
1
284
8
285
0
286
0
287
3
288
0
340
11
341
20D
342
20D
343
20D
344
20D
0
DIMSTYLE
105
212
100
AcDbSymbolTableRecord
100
AcDbDimStyleTableRecord
2
DIMSTYLE_1
70
0
3

4

40
1.0
41
3.0000000000
42
0.0625
43
0.38
44
0.18
45
0.0
46
0.0
47
0.0000000000
48
0.0000000000
140
3.0000000000
141
0.09
142
0.0
143
25.4
144
1.0000000000
145
0.0
146
1.0000000000
147
0.09
71
0
72
0
73
0
74
0
75
0
76
0
77
1
78
8
170
0
171
2
172
0
173
0
174
0
175
0
176
0
177
0
178
0
270
2
271
2
272
2
273
2
274
2
275
0
280
0
281
0
282
0
283
1
284
8
285
0
286
0
287
3
288
0
340
11
341
20D
342
20D
343
20D
344
20D
0
ENDTAB
0
ENDSEC
0
SECTION
2
BLOCKS
0
BLOCK
5
20
100
AcDbEntity
8
0
100
AcDbBlockBegin
2
*MODEL_SPACE
70
0
10
0.0
20
0.0
30
0.0
3
*MODEL_SPACE
1

0
ENDBLK
5
21
100
AcDbEntity
8
0
100
AcDbBlockEnd
0
BLOCK
5
1C
100
AcDbEntity
8
0
100
AcDbBlockBegin
2
*PAPER_SPACE
70
0
10
0.0
20
0.0
30
0.0
3
*PAPER_SPACE
1

0
ENDBLK
5
1D
100
AcDbEntity
8
0
100
AcDbBlockEnd
0
BLOCK
5
213
100
AcDbEntity
8
0
100
AcDbBlockBegin
62
0
6
CONTINUOUS
2
*D0
70
65
10
0.0000000000
20
0.0000000000
3
*D0
1

0
TEXT
5
214
100
AcDbEntity
8
0
100
AcDbText
62
0
6
CONTINUOUS
10
-19.0842572640
20
30.9305952895
7
STANDARD
40
3.0000000000
1
7,9
41
0.7142857143
72
0
100
AcDbText
0
LINE
5
215
100
AcDbEntity
8
0
100
AcDbLine
62
0
6
CONTINUOUS
10
-19.8199715497
20
0.8305952895
11
-19.8199715497
21
31.6805952895
0
LINE
5
216
100
AcDbEntity
8
0
100
AcDbLine
62
0
6
CONTINUOUS
10
-11.9199715497
20
22.6805952895
11
-11.9199715497
21
31.6805952895
0
LINE
5
217
100
AcDbEntity
8
0
100
AcDbLine
62
0
6
CONTINUOUS
10
-19.8199715497
20
30.1805952895
11
-23.8199715497
21
30.1805952895
0
LINE
5
218
100
AcDbEntity
8
0
100
AcDbLine
62
0
6
CONTINUOUS
10
-23.8199715497
20
30.1805952895
11
-15.8699715497
21
30.1805952895
0
LINE
5
219
100
AcDbEntity
8
0
100
AcDbLine
62
0
6
CONTINUOUS
10
-11.9199715497
20
30.1805952895
11
-7.9199715497
21
30.1805952895
0
LINE
5
21A
100
AcDbEntity
8
0
100
AcDbLine
62
0
6
CONTINUOUS
10
-7.9199715497
20
30.1805952895
11
-15.8699715497
21
30.1805952895
0
INSERT
5
21B
100
AcDbEntity
8
0
100
AcDbBlockReference
62
0
6
CONTINUOUS
2
_FILLED
10
-19.8199715497
20
30.1805952895
41
  3.000000
42
  3.000000
43
  3.000000
0
INSERT
5
21C
100
AcDbEntity
8
0
100
AcDbBlockReference
62
0
6
CONTINUOUS
2
_FILLED
10
-11.9199715497
20
30.1805952895
41
  3.000000
42
  3.000000
43
  3.000000
50
180.000000
0
ENDBLK
5
21D
100
AcDbEntity
8
0
6
BYBLOCK
62
0
100
AcDbBlockEnd
0
BLOCK
5
21E
100
AcDbEntity
8
0
100
AcDbBlockBegin
62
0
6
CONTINUOUS
2
*D1
70
65
10
0.0000000000
20
0.0000000000
3
*D1
1

0
TEXT
5
21F
100
AcDbEntity
8
0
100
AcDbText
62
0
6
CONTINUOUS
10
19.9518895534
20
30.9305952895
7
STANDARD
40
3.0000000000
1
22,2
41
0.7321428571
72
0
100
AcDbText
0
LINE
5
220
100
AcDbEntity
8
0
100
AcDbLine
62
0
6
CONTINUOUS
10
13.2447466962
20
21.8807171334
11
13.2447466962
21
31.6805952895
0
LINE
5
221
100
AcDbEntity
8
0
100
AcDbLine
62
0
6
CONTINUOUS
10
35.4447466962
20
21.8807171334
11
35.4447466962
21
31.6805952895
0
LINE
5
222
100
AcDbEntity
8
0
100
AcDbLine
62
0
6
CONTINUOUS
10
13.2447466962
20
30.1805952895
11
24.3447466962
21
30.1805952895
0
LINE
5
223
100
AcDbEntity
8
0
100
AcDbLine
62
0
6
CONTINUOUS
10
35.4447466962
20
30.1805952895
11
24.3447466962
21
30.1805952895
0
INSERT
5
224
100
AcDbEntity
8
0
100
AcDbBlockReference
62
0
6
CONTINUOUS
2
_FILLED
10
13.2447466962
20
30.1805952895
41
  3.000000
42
  3.000000
43
  3.000000
50
180.000000
0
INSERT
5
225
100
AcDbEntity
8
0
100
AcDbBlockReference
62
0
6
CONTINUOUS
2
_FILLED
10
35.4447466962
20
30.1805952895
41
  3.000000
42
  3.000000
43
  3.000000
0
ENDBLK
5
226
100
AcDbEntity
8
0
6
BYBLOCK
62
0
100
AcDbBlockEnd
0
BLOCK
5
227
100
AcDbEntity
8
0
100
AcDbBlockBegin
62
0
6
CONTINUOUS
2
*D2
70
65
10
0.0000000000
20
0.0000000000
3
*D2
1

0
TEXT
5
228
100
AcDbEntity
8
0
100
AcDbText
62
0
6
CONTINUOUS
10
43.4947466962
20
-3.9551189962
7
STANDARD
40
3.0000000000
1
43,7
50
90.0000000000
41
0.7142857143
72
0
100
AcDbText
0
LINE
5
229
100
AcDbEntity
8
0
100
AcDbLine
62
0
6
CONTINUOUS
10
35.1448685401
20
22.1805952895
11
45.7447466962
21
22.1805952895
0
LINE
5
22A
100
AcDbEntity
8
0
100
AcDbLine
62
0
6
CONTINUOUS
10
35.1448685401
20
-21.5194047105
11
45.7447466962
21
-21.5194047105
0
LINE
5
22B
100
AcDbEntity
8
0
100
AcDbLine
62
0
6
CONTINUOUS
10
44.2447466962
20
22.1805952895
11
44.2447466962
21
0.3305952895
0
LINE
5
22C
100
AcDbEntity
8
0
100
AcDbLine
62
0
6
CONTINUOUS
10
44.2447466962
20
-21.5194047105
11
44.2447466962
21
0.3305952895
0
INSERT
5
22D
100
AcDbEntity
8
0
100
AcDbBlockReference
62
0
6
CONTINUOUS
2
_FILLED
10
44.2447466962
20
22.1805952895
41
  3.000000
42
  3.000000
43
  3.000000
50
 90.000000
0
INSERT
5
22E
100
AcDbEntity
8
0
100
AcDbBlockReference
62
0
6
CONTINUOUS
2
_FILLED
10
44.2447466962
20
-21.5194047105
41
  3.000000
42
  3.000000
43
  3.000000
50
270.000000
0
ENDBLK
5
22F
100
AcDbEntity
8
0
6
BYBLOCK
62
0
100
AcDbBlockEnd
0
BLOCK
5
230
100
AcDbEntity
8
0
100
AcDbBlockBegin
2
_FILLED
70
64
10
0.0000000000
20
0.0000000000
3
_FILLED
1

0
SOLID
5
231
100
AcDbEntity
8
0
6
BYBLOCK
62
0
100
AcDbTrace
10
0.0000000000
20
0.0000000000
11
-1.0000000000
21
0.3166666667
12
-1.0000000000
22
-0.3166666667
13
-1.0000000000
23
-0.3166666667
0
ENDBLK
5
232
100
AcDbEntity
8
0
6
BYBLOCK
62
0
100
AcDbBlockEnd
0
ENDSEC
0
SECTION
2
ENTITIES
0
DIMENSION
5
233
100
AcDbEntity
8
0
100
AcDbDimension
62
0
6
CONTINUOUS
2
*D0
10
-11.9199715497
20
30.1805952895
11
-15.8699715497
21
32.4305952895
70
160
42
7.900000
3
DIMSTYLE_1
100
AcDbAlignedDimension
13
-19.8199715497
23
0.8305952895
14
-11.9199715497
24
22.6805952895
100
AcDbRotatedDimension
0
DIMENSION
5
234
100
AcDbEntity
8
0
100
AcDbDimension
62
0
6
CONTINUOUS
2
*D1
10
35.4447466962
20
30.1805952895
11
24.3447466962
21
32.4305952895
70
160
42
22.200000
3
DIMSTYLE_1
100
AcDbAlignedDimension
13
13.2447466962
23
21.8807171334
14
35.4447466962
24
21.8807171334
100
AcDbRotatedDimension
0
DIMENSION
5
235
100
AcDbEntity
8
0
100
AcDbDimension
62
0
6
CONTINUOUS
2
*D2
10
44.2447466962
20
-21.5194047105
11
41.9947466962
21
0.3305952895
70
160
42
43.700000
3
DIMSTYLE_1
100
AcDbAlignedDimension
13
35.1448685401
23
22.1805952895
14
35.1448685401
24
-21.5194047105
50
270.000000
100
AcDbRotatedDimension
0
LINE
5
236
100
AcDbEntity
8
0
100
AcDbLine
62
0
6
CONTINUOUS
10
14.0446248523
20
-21.5194047105
11
34.6448685401
21
-21.5194047105
0
LINE
5
237
100
AcDbEntity
8
0
100
AcDbLine
62
9
6
CONTINUOUS
10
34.5447024683
20
-21.4192386387
11
14.1447909242
21
-21.4192386387
0
LINE
5
238
100
AcDbEntity
8
0
100
AcDbLine
62
9
6
CONTINUOUS
10
34.5327253143
20
-20.0212262034
11
14.1567680782
21
-20.0212262034
0
LINE
5
239
100
AcDbEntity
8
0
100
AcDbLine
62
0
6
CONTINUOUS
10
13.2447466962
20
-20.7195265544
11
13.2447466962
21
21.3807171334
0
LINE
5
23A
100
AcDbEntity
8
0
100
AcDbLine
62
9
6
CONTINUOUS
10
34.6448685401
20
22.1805952895
11
34.5447024683
21
22.0804292177
0
LINE
5
23B
100
AcDbEntity
8
0
100
AcDbLine
62
9
6
CONTINUOUS
10
34.5447024683
20
-21.4192386387
11
34.6448685401
21
-21.5194047105
0
LINE
5
23C
100
AcDbEntity
8
0
100
AcDbLine
62
9
6
CONTINUOUS
10
35.4447466962
20
21.3807171334
11
35.3445806244
21
21.2805510616
0
LINE
5
23D
100
AcDbEntity
8
0
100
AcDbLine
62
9
6
CONTINUOUS
10
35.3445806244
20
-20.6193604825
11
35.4447466962
21
-20.7195265544
0
LINE
5
23E
100
AcDbEntity
8
0
100
AcDbLine
62
9
6
CONTINUOUS
10
13.2447466962
20
-20.7195265544
11
13.3449127680
21
-20.6193604825
0
LINE
5
23F
100
AcDbEntity
8
0
100
AcDbLine
62
9
6
CONTINUOUS
10
14.0446248523
20
-21.5194047105
11
14.1447909242
21
-21.4192386387
0
LINE
5
240
100
AcDbEntity
8
0
100
AcDbLine
62
9
6
CONTINUOUS
10
13.3449127680
20
21.2805510616
11
13.2447466962
21
21.3807171334
0
LINE
5
241
100
AcDbEntity
8
0
100
AcDbLine
62
9
6
CONTINUOUS
10
14.1447909242
20
22.0804292177
11
14.0446248523
21
22.1805952895
0
LINE
5
242
100
AcDbEntity
8
0
100
AcDbLine
62
0
6
CONTINUOUS
10
35.4447466962
20
-20.7195265544
11
35.4447466962
21
21.3807171334
0
LINE
5
243
100
AcDbEntity
8
0
100
AcDbLine
62
9
6
CONTINUOUS
10
34.5327253143
20
20.6824167824
11
14.1567680782
21
20.6824167824
0
LINE
5
244
100
AcDbEntity
8
0
100
AcDbLine
62
9
6
CONTINUOUS
10
34.5447024683
20
22.0804292177
11
14.1447909242
21
22.0804292177
0
LINE
5
245
100
AcDbEntity
8
0
100
AcDbLine
62
0
6
CONTINUOUS
10
14.0446248523
20
22.1805952895
11
34.6448685401
21
22.1805952895
0
LINE
5
246
100
AcDbEntity
8
0
100
AcDbLine
62
0
6
CONTINUOUS
10
-17.6584819615
20
-21.4192386387
11
-11.9199715497
21
-21.5194047105
0
LINE
5
247
100
AcDbEntity
8
0
100
AcDbLine
62
9
6
CONTINUOUS
10
-17.6584819615
20
-20.6193604825
11
-11.9199715497
21
-20.7195265544
0
LINE
5
248
100
AcDbEntity
8
0
100
AcDbLine
62
9
6
CONTINUOUS
10
-18.3446526547
20
-19.9669546794
11
-19.1288313068
21
-20.0212250839
0
LINE
5
249
100
AcDbEntity
8
0
100
AcDbLine
62
9
6
CONTINUOUS
10
-19.5791215730
20
-13.5723614170
11
-19.5791215730
21
-11.7664480039
0
LINE
5
24A
100
AcDbEntity
8
0
100
AcDbLine
62
0
6
CONTINUOUS
10
-11.9199715497
20
-21.5194047105
11
-11.9199715497
21
22.1805952895
0
LINE
5
24B
100
AcDbEntity
8
0
100
AcDbLine
62
9
6
CONTINUOUS
10
-11.9199715497
20
21.3807171334
11
-17.6584819615
21
21.2805510616
0
LINE
5
24C
100
AcDbEntity
8
0
100
AcDbLine
62
0
6
CONTINUOUS
10
-11.9199715497
20
22.1805952895
11
-17.6584819589
21
22.0804292177
0
LINE
5
24D
100
AcDbEntity
8
0
100
AcDbLine
62
9
6
CONTINUOUS
10
-18.3446526547
20
20.6281452584
11
-19.1288477049
21
20.6824167805
0
CIRCLE
5
24E
100
AcDbEntity
8
0
100
AcDbCircle
62
0
6
CONTINUOUS
10
24.3447466962
20
-12.6694047105
40
0.9939257687
0
CIRCLE
5
24F
100
AcDbEntity
8
0
100
AcDbCircle
62
9
6
CONTINUOUS
10
24.3447466962
20
-12.6694047105
40
0.9029566839
0
CIRCLE
5
250
100
AcDbEntity
8
0
100
AcDbCircle
62
0
6
CONTINUOUS
10
24.3447466962
20
-12.6694047105
40
1.0000000000
0
CIRCLE
5
251
100
AcDbEntity
8
0
100
AcDbCircle
62
0
6
CONTINUOUS
10
24.3447466962
20
-12.6694047105
40
1.2000000000
0
ARC
5
252
100
AcDbEntity
8
0
100
AcDbCircle
62
0
6
CONTINUOUS
10
-19.4795300728
20
-11.7754775710
40
0.1000000000
100
AcDbArc
50
166.2905044916
51
174.8193829711
0
ARC
5
253
100
AcDbEntity
8
0
100
AcDbCircle
62
0
6
CONTINUOUS
10
-19.4795300728
20
-13.5633318500
40
0.1000000000
100
AcDbArc
50
185.1806170292
51
261.9830326617
0
ARC
5
254
100
AcDbEntity
8
0
100
AcDbCircle
62
0
6
CONTINUOUS
10
-9.6199715497
20
-12.6694047105
40
10.0000000000
100
AcDbArc
50
174.8193829706
51
185.1806170294
0
ARC
5
255
100
AcDbEntity
8
0
100
AcDbCircle
62
0
6
CONTINUOUS
10
-17.6323033518
20
-19.9194670959
40
1.5000000000
100
AcDbArc
50
183.8898991621
51
269.0000000000
0
ARC
5
256
100
AcDbEntity
8
0
100
AcDbCircle
62
0
6
CONTINUOUS
10
280.1800284503
20
0.3305952895
40
300.0000000000
100
AcDbArc
50
176.1101008379
51
183.8898991621
0
ARC
5
257
100
AcDbEntity
8
0
100
AcDbCircle
62
0
6
CONTINUOUS
10
-17.6323033518
20
20.5806576749
40
1.5000000000
100
AcDbArc
50
91.0000000000
51
176.1101008379
0
SPLINE
5
258
100
AcDbEntity
8
0
100
AcDbSpline
62
0
6
CONTINUOUS
70
0
71
3
72
15
73
11
74
9
42
0.0000001000
43
0.0000001000
44
0.0000000001
12
-1.2544455271
22
0.0000000000
32
0.0000000000
13
0.0000000000
23
1.2544455271
33
0.0000000000
40
0.0000000000
40
0.0000000000
40
0.0000000000
40
0.0000000000
40
0.1249999832
40
0.2499998185
40
0.3750000600
40
0.5000001924
40
0.6250002678
40
0.7500003739
40
0.8750000775
40
1.0000000000
40
1.0000000000
40
1.0000000000
40
1.0000000000
10
14.0446248523
20
-21.5194047105
30
0.0000000000
10
13.9923562957
20
-21.5194047105
30
0.0000000000
10
13.8875296096
20
-21.5090952767
30
0.0000000000
10
13.7365555192
20
-21.4632912505
30
0.0000000000
10
13.5973570952
20
-21.3889033116
30
0.0000000000
10
13.4753647441
20
-21.2887863512
30
0.0000000000
10
13.3752478890
20
-21.1667939885
30
0.0000000000
10
13.3008600725
20
-21.0275956563
30
0.0000000000
10
13.2550561170
20
-20.8766216909
30
0.0000000000
10
13.2447466962
20
-20.7717950856
30
0.0000000000
10
13.2447466962
20
-20.7195265544
30
0.0000000000
11
14.0446248523
21
-21.5194047105
31
0.0000000000
11
13.8885738942
21
-21.5040386255
31
0.0000000000
11
13.7385182970
21
-21.4585273344
31
0.0000000000
11
13.6002247517
21
-21.3846151226
31
0.0000000000
11
13.4790106359
21
-21.2851404279
31
0.0000000000
11
13.3795360546
21
-21.1639263114
31
0.0000000000
11
13.3056239795
21
-21.0256328857
31
0.0000000000
11
13.2601127663
21
-20.8755774374
31
0.0000000000
11
13.2447466962
21
-20.7195265544
31
0.0000000000
0
SPLINE
5
259
100
AcDbEntity
8
0
100
AcDbSpline
62
0
6
CONTINUOUS
70
0
71
3
72
15
73
11
74
9
42
0.0000001000
43
0.0000001000
44
0.0000000001
12
0.0000000000
22
1.2544455271
32
0.0000000000
13
1.2544455271
23
0.0000000000
33
0.0000000000
40
0.0000000000
40
0.0000000000
40
0.0000000000
40
0.0000000000
40
0.1249999832
40
0.2499998185
40
0.3750000600
40
0.5000001924
40
0.6250002678
40
0.7500003739
40
0.8750000775
40
1.0000000000
40
1.0000000000
40
1.0000000000
40
1.0000000000
10
13.2447466962
20
21.3807171334
30
0.0000000000
10
13.2447466962
20
21.4329856900
30
0.0000000000
10
13.2550561300
20
21.5378123761
30
0.0000000000
10
13.3008601562
20
21.6887864665
30
0.0000000000
10
13.3752480951
20
21.8279848905
30
0.0000000000
10
13.4753650555
20
21.9499772417
30
0.0000000000
10
13.5973574182
20
22.0500940967
30
0.0000000000
10
13.7365557504
20
22.1244819132
30
0.0000000000
10
13.8875297158
20
22.1702858687
30
0.0000000000
10
13.9923563211
20
22.1805952895
30
0.0000000000
10
14.0446248523
20
22.1805952895
30
0.0000000000
11
13.2447466962
21
21.3807171334
31
0.0000000000
11
13.2601127812
21
21.5367680915
31
0.0000000000
11
13.3056240723
21
21.6868236887
31
0.0000000000
11
13.3795362841
21
21.8251172340
31
0.0000000000
11
13.4790109788
21
21.9463313499
31
0.0000000000
11
13.6002250953
21
22.0458059312
31
0.0000000000
11
13.7385185210
21
22.1197180062
31
0.0000000000
11
13.8885739693
21
22.1652292194
31
0.0000000000
11
14.0446248523
21
22.1805952895
31
0.0000000000
0
SPLINE
5
25A
100
AcDbEntity
8
0
100
AcDbSpline
62
0
6
CONTINUOUS
70
0
71
3
72
15
73
11
74
9
42
0.0000001000
43
0.0000001000
44
0.0000000001
12
0.0000000000
22
-1.2544455271
32
0.0000000000
13
-1.2544455271
23
-0.0000000000
33
0.0000000000
40
0.0000000000
40
0.0000000000
40
0.0000000000
40
0.0000000000
40
0.1249999832
40
0.2499998185
40
0.3750000600
40
0.5000001924
40
0.6250002678
40
0.7500003739
40
0.8750000775
40
1.0000000000
40
1.0000000000
40
1.0000000000
40
1.0000000000
10
35.4447466962
20
-20.7195265544
30
0.0000000000
10
35.4447466962
20
-20.7717951110
30
0.0000000000
10
35.4344372625
20
-20.8766217971
30
0.0000000000
10
35.3886332362
20
-21.0275958875
30
0.0000000000
10
35.3142452973
20
-21.1667943115
30
0.0000000000
10
35.2141283369
20
-21.2887866626
30
0.0000000000
10
35.0921359743
20
-21.3889035177
30
0.0000000000
10
34.9529376421
20
-21.4632913342
30
0.0000000000
10
34.8019636766
20
-21.5090952897
30
0.0000000000
10
34.6971370713
20
-21.5194047105
30
0.0000000000
10
34.6448685401
20
-21.5194047105
30
0.0000000000
11
35.4447466962
21
-20.7195265544
31
0.0000000000
11
35.4293806112
21
-20.8755775125
31
0.0000000000
11
35.3838693201
21
-21.0256331097
31
0.0000000000
11
35.3099571083
21
-21.1639266550
31
0.0000000000
11
35.2104824137
21
-21.2851407709
31
0.0000000000
11
35.0892682971
21
-21.3846153521
31
0.0000000000
11
34.9509748714
21
-21.4585274272
31
0.0000000000
11
34.8009194232
21
-21.5040386404
31
0.0000000000
11
34.6448685401
21
-21.5194047105
31
0.0000000000
0
SPLINE
5
25B
100
AcDbEntity
8
0
100
AcDbSpline
62
0
6
CONTINUOUS
70
0
71
3
72
15
73
11
74
9
42
0.0000001000
43
0.0000001000
44
0.0000000001
12
1.2544455271
22
0.0000000000
32
0.0000000000
13
-0.0000000000
23
-1.2544455271
33
0.0000000000
40
0.0000000000
40
0.0000000000
40
0.0000000000
40
0.0000000000
40
0.1249999832
40
0.2499998185
40
0.3750000600
40
0.5000001924
40
0.6250002678
40
0.7500003739
40
0.8750000775
40
1.0000000000
40
1.0000000000
40
1.0000000000
40
1.0000000000
10
34.6448685401
20
22.1805952895
30
0.0000000000
10
34.6971370967
20
22.1805952895
30
0.0000000000
10
34.8019637828
20
22.1702858558
30
0.0000000000
10
34.9529378732
20
22.1244818295
30
0.0000000000
10
35.0921362972
20
22.0500938906
30
0.0000000000
10
35.2141286484
20
21.9499769302
30
0.0000000000
10
35.3142455034
20
21.8279845676
30
0.0000000000
10
35.3886333199
20
21.6887862353
30
0.0000000000
10
35.4344372754
20
21.5378122699
30
0.0000000000
10
35.4447466962
20
21.4329856646
30
0.0000000000
10
35.4447466962
20
21.3807171334
30
0.0000000000
11
34.6448685401
21
22.1805952895
31
0.0000000000
11
34.8009194982
21
22.1652292045
31
0.0000000000
11
34.9509750954
21
22.1197179134
31
0.0000000000
11
35.0892686407
21
22.0458057016
31
0.0000000000
11
35.2104827566
21
21.9463310070
31
0.0000000000
11
35.3099573379
21
21.8251168904
31
0.0000000000
11
35.3838694129
21
21.6868234647
31
0.0000000000
11
35.4293806261
21
21.5367680165
31
0.0000000000
11
35.4447466962
21
21.3807171334
31
0.0000000000
0
SPLINE
5
25C
100
AcDbEntity
8
0
100
AcDbSpline
62
9
6
CONTINUOUS
70
0
71
3
72
14
73
10
74
8
42
0.0000001000
43
0.0000001000
44
0.0000000001
12
-0.5897139951
22
-1.2677032387
32
0.0000000000
13
-0.0007801158
23
-1.3981535998
33
0.0000000000
40
0.0000000000
40
0.0000000000
40
0.0000000000
40
0.0000000000
40
0.0280715672
40
0.1029638232
40
0.2213794943
40
0.3779054851
40
0.5656904278
40
0.7761677722
40
1.0000000000
40
1.0000000000
40
1.0000000000
40
1.0000000000
10
34.5447024683
20
22.0804292177
30
0.0000000000
10
34.5391844029
20
22.0685670788
30
0.0000000000
10
34.5461754423
20
22.0179948914
30
0.0000000000
10
34.5362672614
20
21.9171697372
30
0.0000000000
10
34.5384096341
20
21.7529040699
30
0.0000000000
10
34.5349397176
20
21.5377623191
30
0.0000000000
10
34.5341508363
20
21.2790268993
30
0.0000000000
10
34.5330186136
20
20.9891586604
30
0.0000000000
10
34.5327835193
20
20.7867340607
30
0.0000000000
10
34.5327253143
20
20.6824167824
30
0.0000000000
11
34.5447024683
21
22.0804292177
31
0.0000000000
11
34.5421342314
21
22.0412649660
31
0.0000000000
11
34.5396915225
21
21.9365825680
31
0.0000000000
11
34.5374814716
21
21.7710339968
31
0.0000000000
11
34.5356065420
21
21.5521946169
31
0.0000000000
11
34.5341478579
21
21.2896464344
31
0.0000000000
11
34.5331733516
21
20.9953683454
31
0.0000000000
11
34.5327253143
21
20.6824167824
31
0.0000000000
0
SPLINE
5
25D
100
AcDbEntity
8
0
100
AcDbSpline
62
9
6
CONTINUOUS
70
0
71
3
72
14
73
10
74
8
42
0.0000001000
43
0.0000001000
44
0.0000000001
12
-0.4593576322
22
-0.4637011019
32
0.0000000000
13
-0.0007770399
23
-0.6527078538
33
0.0000000000
40
0.0000000000
40
0.0000000000
40
0.0000000000
40
0.0000000000
40
0.0280966395
40
0.1029740393
40
0.2214393913
40
0.3781333105
40
0.5661677215
40
0.7768692820
40
1.0000000000
40
1.0000000000
40
1.0000000000
40
1.0000000000
10
35.3445806244
20
21.2805510616
30
0.0000000000
10
35.3402784891
20
21.2762082473
30
0.0000000000
10
35.3445241743
20
21.2501850287
30
0.0000000000
10
35.3370570126
20
21.2053270963
30
0.0000000000
10
35.3379016029
20
21.1274530711
30
0.0000000000
10
35.3349576950
20
21.0274037816
30
0.0000000000
10
35.3339812596
20
20.9063141186
30
0.0000000000
10
35.3329108740
20
20.7710999874
30
0.0000000000
10
35.3326612642
20
20.6766916491
30
0.0000000000
10
35.3326034704
20
20.6281452584
30
0.0000000000
11
35.3445806244
21
21.2805510616
31
0.0000000000
11
35.3420207782
21
21.2623916888
31
0.0000000000
11
35.3395746664
21
21.2135798399
31
0.0000000000
11
35.3373621381
21
21.1362881806
31
0.0000000000
11
35.3354843517
21
21.0340299961
31
0.0000000000
11
35.3340243654
21
20.9113070564
31
0.0000000000
11
35.3330495290
21
20.7737838506
31
0.0000000000
11
35.3326034704
21
20.6281452584
31
0.0000000000
0
SPLINE
5
25E
100
AcDbEntity
8
0
100
AcDbSpline
62
9
6
CONTINUOUS
70
0
71
3
72
20
73
16
74
14
42
0.0000001000
43
0.0000001000
44
0.0000000001
12
4.0748104505
22
-0.0007072854
32
0.0000000000
13
-4.0748103714
23
-0.0010700355
33
0.0000000000
40
0.0000000000
40
0.0000000000
40
0.0000000000
40
0.0000000000
40
0.0765040767
40
0.1533844804
40
0.2303268615
40
0.3072336137
40
0.3842377005
40
0.4612448061
40
0.5382883449
40
0.6153278092
40
0.6923531515
40
0.7693085878
40
0.8462331165
40
0.9232242648
40
1.0000000000
40
1.0000000000
40
1.0000000000
40
1.0000000000
10
24.3447466962
20
-11.3733060109
30
0.0000000000
10
24.4486599000
20
-11.3733240477
30
0.0000000000
10
24.6578614147
20
-11.3985216048
30
0.0000000000
10
24.9532192347
20
-11.5102172753
30
0.0000000000
10
25.2139236195
20
-11.6896598397
30
0.0000000000
10
25.4241470604
20
-11.9264182094
30
0.0000000000
10
25.5716518661
20
-12.2066956911
30
0.0000000000
10
25.6477811209
20
-12.5143239427
30
0.0000000000
10
25.6480153436
20
-12.8312832676
30
0.0000000000
10
25.5723053081
20
-13.1390936381
30
0.0000000000
10
25.4251112062
20
-13.4196944900
30
0.0000000000
10
25.2151260093
20
-13.6567659215
30
0.0000000000
10
24.9544780839
20
-13.8366271392
30
0.0000000000
10
24.6587587144
20
-13.9488088098
30
0.0000000000
10
24.4490288836
20
-13.9741455823
30
0.0000000000
10
24.3447466962
20
-13.9741729666
30
0.0000000000
11
24.3447466962
21
-11.3733060109
31
0.0000000000
11
24.6542359328
21
-11.4106958575
31
0.0000000000
11
24.9472827295
21
-11.5214369785
31
0.0000000000
11
25.2055260939
21
-11.6992252824
31
0.0000000000
11
25.4136110631
21
-11.9335497310
31
0.0000000000
11
25.5597418726
21
-12.2112218962
31
0.0000000000
11
25.6351247591
21
-12.5158219373
31
0.0000000000
11
25.6353564138
21
-12.8297596739
31
0.0000000000
11
25.5603757037
21
-13.1345947518
31
0.0000000000
11
25.4145767714
21
-13.4125391304
31
0.0000000000
11
25.2066474099
21
-13.6472667544
31
0.0000000000
11
24.9486746936
21
-13.8253195114
31
0.0000000000
11
24.6553190608
21
-13.9365194868
31
0.0000000000
11
24.3447466962
21
-13.9741729666
31
0.0000000000
0
SPLINE
5
25F
100
AcDbEntity
8
0
100
AcDbSpline
62
9
6
CONTINUOUS
70
0
71
3
72
12
73
8
74
6
42
0.0000001000
43
0.0000001000
44
0.0000000001
12
0.0003810907
22
-1.2511678074
32
0.0000000000
13
1.2511678074
23
-0.0003810906
33
0.0000000000
40
0.0000000000
40
0.0000000000
40
0.0000000000
40
0.0000000000
40
0.1999885056
40
0.3999929077
40
0.6000037526
40
0.8000093056
40
1.0000000000
40
1.0000000000
40
1.0000000000
40
1.0000000000
10
13.3449127680
20
-20.6193604825
30
0.0000000000
10
13.3449381726
20
-20.7027668759
30
0.0000000000
10
13.3715173620
20
-20.8707527500
30
0.0000000000
10
13.4870251271
20
-21.0971904267
30
0.0000000000
10
13.6669578445
20
-21.2771240961
30
0.0000000000
10
13.8933963130
20
-21.3926335212
30
0.0000000000
10
14.0613836179
20
-21.4192132338
30
0.0000000000
10
14.1447909241
20
-21.4192386387
30
0.0000000000
11
13.3449127680
21
-20.6193604825
31
0.0000000000
11
13.3841213388
21
-20.8664886514
31
0.0000000000
11
13.4977605230
21
-21.0894364781
31
0.0000000000
11
13.6747115062
21
-21.2663883968
31
0.0000000000
11
13.8976601185
21
-21.3800292106
31
0.0000000000
11
14.1447909241
21
-21.4192386387
31
0.0000000000
0
SPLINE
5
260
100
AcDbEntity
8
0
100
AcDbSpline
62
9
6
CONTINUOUS
70
0
71
3
72
14
73
10
74
8
42
0.0000001000
43
0.0000001000
44
0.0000000001
12
0.5887376636
22
1.2681569694
32
0.0000000000
13
0.0007802820
23
1.3981536134
33
0.0000000000
40
0.0000000000
40
0.0000000000
40
0.0000000000
40
0.0000000000
40
0.0280734319
40
0.1029650103
40
0.2213854109
40
0.3779128421
40
0.5656927490
40
0.7761755230
40
1.0000000000
40
1.0000000000
40
1.0000000000
40
1.0000000000
10
14.1447909242
20
-21.4192386387
30
0.0000000000
10
14.1503002197
20
-21.4073714659
30
0.0000000000
10
14.1433300956
20
-21.3568083344
30
0.0000000000
10
14.1532194337
20
-21.2559718098
30
0.0000000000
10
14.1510874250
20
-21.0917081351
30
0.0000000000
10
14.1545530104
20
-20.8765639776
30
0.0000000000
10
14.1553427988
20
-20.6178283662
30
0.0000000000
10
14.1564747772
20
-20.3279633378
30
0.0000000000
10
14.1567098628
20
-20.1255398705
30
0.0000000000
10
14.1567680782
20
-20.0212262034
30
0.0000000000
11
14.1447909242
21
-21.4192386387
31
0.0000000000
11
14.1473594703
21
-21.3800717941
31
0.0000000000
11
14.1498021117
21
-21.2753903413
31
0.0000000000
11
14.1520124804
21
-21.1098351594
31
0.0000000000
11
14.1538872985
21
-20.8909937625
31
0.0000000000
11
14.1553455462
21
-20.6284526160
31
0.0000000000
11
14.1563200968
21
-20.3341669328
31
0.0000000000
11
14.1567680782
21
-20.0212262034
31
0.0000000000
0
SPLINE
5
261
100
AcDbEntity
8
0
100
AcDbSpline
62
9
6
CONTINUOUS
70
0
71
3
72
14
73
10
74
8
42
0.0000001000
43
0.0000001000
44
0.0000000001
12
0.4588206489
22
0.4642323850
32
0.0000000000
13
0.0007765725
23
0.6527078152
33
0.0000000000
40
0.0000000000
40
0.0000000000
40
0.0000000000
40
0.0000000000
40
0.0281294635
40
0.1030601314
40
0.2216174751
40
0.3783565383
40
0.5663517302
40
0.7770107074
40
1.0000000000
40
1.0000000000
40
1.0000000000
40
1.0000000000
10
13.3449127680
20
-20.6193604825
30
0.0000000000
10
13.3492148943
20
-20.6150076132
30
0.0000000000
10
13.3449737880
20
-20.5889732775
30
0.0000000000
10
13.3524370065
20
-20.5440691157
30
0.0000000000
10
13.3515952401
20
-20.4661578960
30
0.0000000000
10
13.3545368401
20
-20.3660851767
30
0.0000000000
10
13.3555133293
20
-20.2450043826
30
0.0000000000
10
13.3565826835
20
-20.1098385136
30
0.0000000000
10
13.3568321996
20
-20.0154702974
30
0.0000000000
10
13.3568899220
20
-19.9669546794
30
0.0000000000
11
13.3449127680
21
-20.6193604825
31
0.0000000000
11
13.3474742477
21
-20.6011797049
31
0.0000000000
11
13.3499208763
21
-20.5523330727
31
0.0000000000
11
13.3521339041
21
-20.4749813640
31
0.0000000000
11
13.3540112001
21
-20.3726937058
31
0.0000000000
11
13.3554701141
21
-20.2499963611
31
0.0000000000
11
13.3564443185
21
-20.1125009543
31
0.0000000000
11
13.3568899220
21
-19.9669546794
31
0.0000000000
0
SPLINE
5
262
100
AcDbEntity
8
0
100
AcDbSpline
62
9
6
CONTINUOUS
70
0
71
3
72
12
73
8
74
6
42
0.0000001000
43
0.0000001000
44
0.0000000001
12
0.1999868165
22
-0.7792819756
32
0.0000000000
13
0.8045335424
23
-0.0009504927
33
0.0000000000
40
0.0000000000
40
0.0000000000
40
0.0000000000
40
0.0000000000
40
0.0567682479
40
0.2009962671
40
0.4209527033
40
0.6959989263
40
1.0000000000
40
1.0000000000
40
1.0000000000
40
1.0000000000
10
13.3568899220
20
-19.9669546794
30
0.0000000000
10
13.3606742224
20
-19.9817008369
30
0.0000000000
10
13.4330906298
20
-19.9838948990
30
0.0000000000
10
13.5285936132
20
-20.0044520792
30
0.0000000000
10
13.7082014344
20
-20.0110367067
30
0.0000000000
10
13.9191065707
20
-20.0197818045
30
0.0000000000
10
14.0752417246
20
-20.0211298837
30
0.0000000000
10
14.1567680782
20
-20.0212262007
30
0.0000000000
11
13.3568899220
21
-19.9669546794
31
0.0000000000
11
13.3994409174
21
-19.9835481600
31
0.0000000000
11
13.5145030541
21
-19.9985528786
31
0.0000000000
11
13.6910595784
21
-20.0105321916
31
0.0000000000
11
13.9122058872
21
-20.0183391264
31
0.0000000000
11
14.1567680782
21
-20.0212262007
31
0.0000000000
0
SPLINE
5
263
100
AcDbEntity
8
0
100
AcDbSpline
62
9
6
CONTINUOUS
70
0
71
3
72
11
73
7
74
5
42
0.0000001000
43
0.0000001000
44
0.0000000001
12
0.0481810301
22
40.7036233637
32
0.0000000000
13
-0.0481810394
23
40.7036233637
33
0.0000000000
40
0.0000000000
40
0.0000000000
40
0.0000000000
40
0.0000000000
40
0.2498559492
40
0.5000000001
40
0.7501440510
40
1.0000000000
40
1.0000000000
40
1.0000000000
40
1.0000000000
10
14.1567680782
20
-20.0212262034
30
0.0000000000
10
14.1607808505
20
-16.6312120533
30
0.0000000000
10
14.1667960225
20
-9.8472722714
30
0.0000000000
10
14.1698018456
20
0.3305952921
30
0.0000000000
10
14.1667960219
20
10.5084628540
30
0.0000000000
10
14.1607808513
20
17.2924026340
30
0.0000000000
10
14.1567680782
20
20.6824167824
30
0.0000000000
11
14.1567680782
21
-20.0212262034
31
0.0000000000
11
14.1657907933
21
-9.8511806308
31
0.0000000000
11
14.1687995196
21
0.3305952925
31
0.0000000000
11
14.1657907931
21
10.5123712146
31
0.0000000000
11
14.1567680782
21
20.6824167824
31
0.0000000000
0
SPLINE
5
264
100
AcDbEntity
8
0
100
AcDbSpline
62
9
6
CONTINUOUS
70
0
71
3
72
11
73
7
74
5
42
0.0000001000
43
0.0000001000
44
0.0000000001
12
0.0481810291
22
40.5950802633
32
0.0000000000
13
-0.0481810383
23
40.5950802632
33
0.0000000000
40
0.0000000000
40
0.0000000000
40
0.0000000000
40
0.0000000000
40
0.2498550612
40
0.4999997714
40
0.7501444853
40
1.0000000000
40
1.0000000000
40
1.0000000000
40
1.0000000000
10
13.3568899220
20
-19.9669546794
30
0.0000000000
10
13.3609026800
20
-16.5859925914
30
0.0000000000
10
13.3669178566
20
-9.8201464141
30
0.0000000000
10
13.3699236947
20
0.3305860588
30
0.0000000000
10
13.3669178651
20
10.4813246687
30
0.0000000000
10
13.3609026881
20
17.2471770336
30
0.0000000000
10
13.3568899220
20
20.6281452584
30
0.0000000000
11
13.3568899220
21
-19.9669546794
31
0.0000000000
11
13.3659126158
21
-9.8240652845
31
0.0000000000
11
13.3689213635
21
0.3305860081
31
0.0000000000
11
13.3659126265
21
10.4852374530
31
0.0000000000
11
13.3568899220
21
20.6281452584
31
0.0000000000
0
SPLINE
5
265
100
AcDbEntity
8
0
100
AcDbSpline
62
9
6
CONTINUOUS
70
0
71
3
72
12
73
8
74
6
42
0.0000001000
43
0.0000001000
44
0.0000000001
12
0.2000707636
22
0.7792602101
32
0.0000000000
13
0.8045333320
23
0.0009504121
33
0.0000000000
40
0.0000000000
40
0.0000000000
40
0.0000000000
40
0.0000000000
40
0.0567699121
40
0.2009987228
40
0.4209549865
40
0.6960002779
40
1.0000000000
40
1.0000000000
40
1.0000000000
40
1.0000000000
10
13.3568899221
20
20.6281452584
30
0.0000000000
10
13.3606759220
20
20.6428914363
30
0.0000000000
10
13.4330903115
20
20.6450849923
30
0.0000000000
10
13.5285964521
20
20.6656422911
30
0.0000000000
10
13.7082027826
20
20.6722266995
30
0.0000000000
10
13.9191077483
20
20.6809717109
30
0.0000000000
10
14.0752421084
20
20.6823197471
30
0.0000000000
10
14.1567680782
20
20.6824160554
30
0.0000000000
11
13.3568899221
21
20.6281452584
31
0.0000000000
11
13.3994424093
21
20.6447385657
31
0.0000000000
11
13.5145051821
21
20.6597430956
31
0.0000000000
11
13.6910615326
21
20.6717222366
31
0.0000000000
11
13.9122070380
21
20.6795290440
31
0.0000000000
11
14.1567680782
21
20.6824160554
31
0.0000000000
0
SPLINE
5
266
100
AcDbEntity
8
0
100
AcDbSpline
62
9
6
CONTINUOUS
70
0
71
3
72
14
73
10
74
8
42
0.0000001000
43
0.0000001000
44
0.0000000001
12
-0.0007801157
22
1.3981535998
32
0.0000000000
13
-0.5897138336
23
1.2677033138
33
0.0000000000
40
0.0000000000
40
0.0000000000
40
0.0000000000
40
0.0000000000
40
0.2238322278
40
0.4343095722
40
0.6220945149
40
0.7786205057
40
0.8970361768
40
0.9719284328
40
1.0000000000
40
1.0000000000
40
1.0000000000
40
1.0000000000
10
14.1567680782
20
20.6824167824
30
0.0000000000
10
14.1567098732
20
20.7867340607
30
0.0000000000
10
14.1564747788
20
20.9891586604
30
0.0000000000
10
14.1553425561
20
21.2790268993
30
0.0000000000
10
14.1545536747
20
21.5377623190
30
0.0000000000
10
14.1510837589
20
21.7529040702
30
0.0000000000
10
14.1532261297
20
21.9171697366
30
0.0000000000
10
14.1433179521
20
22.0179948923
30
0.0000000000
10
14.1503089880
20
22.0685670781
30
0.0000000000
10
14.1447909242
20
22.0804292177
30
0.0000000000
11
14.1567680782
21
20.6824167824
31
0.0000000000
11
14.1563200408
21
20.9953683454
31
0.0000000000
11
14.1553455345
21
21.2896464344
31
0.0000000000
11
14.1538868504
21
21.5521946169
31
0.0000000000
11
14.1520119208
21
21.7710339968
31
0.0000000000
11
14.1498018698
21
21.9365825680
31
0.0000000000
11
14.1473591610
21
22.0412649660
31
0.0000000000
11
14.1447909242
21
22.0804292177
31
0.0000000000
0
SPLINE
5
267
100
AcDbEntity
8
0
100
AcDbSpline
62
9
6
CONTINUOUS
70
0
71
3
72
14
73
10
74
8
42
0.0000001000
43
0.0000001000
44
0.0000000001
12
-0.0007770400
22
0.6527078538
32
0.0000000000
13
-0.4593575887
23
0.4637011450
33
0.0000000000
40
0.0000000000
40
0.0000000000
40
0.0000000000
40
0.0000000000
40
0.2231307180
40
0.4338322786
40
0.6218666895
40
0.7785606087
40
0.8970259606
40
0.9719033605
40
1.0000000000
40
1.0000000000
40
1.0000000000
40
1.0000000000
10
13.3568899220
20
20.6281452584
30
0.0000000000
10
13.3568321282
20
20.6766916491
30
0.0000000000
10
13.3565825184
20
20.7710999874
30
0.0000000000
10
13.3555121329
20
20.9063141186
30
0.0000000000
10
13.3545356974
20
21.0274037815
30
0.0000000000
10
13.3515917897
20
21.1274530713
30
0.0000000000
10
13.3524363795
20
21.2053270960
30
0.0000000000
10
13.3449692187
20
21.2501850292
30
0.0000000000
10
13.3492149029
20
21.2762082469
30
0.0000000000
10
13.3449127680
20
21.2805510616
30
0.0000000000
11
13.3568899220
21
20.6281452584
31
0.0000000000
11
13.3564438634
21
20.7737838506
31
0.0000000000
11
13.3554690270
21
20.9113070564
31
0.0000000000
11
13.3540090408
21
21.0340299961
31
0.0000000000
11
13.3521312544
21
21.1362881806
31
0.0000000000
11
13.3499187260
21
21.2135798399
31
0.0000000000
11
13.3474726142
21
21.2623916888
31
0.0000000000
11
13.3449127680
21
21.2805510616
31
0.0000000000
0
SPLINE
5
268
100
AcDbEntity
8
0
100
AcDbSpline
62
9
6
CONTINUOUS
70
0
71
3
72
12
73
8
74
6
42
0.0000001000
43
0.0000001000
44
0.0000000001
12
0.0003810888
22
1.2511678080
32
0.0000000000
13
1.2511678080
23
0.0003810886
33
0.0000000000
40
0.0000000000
40
0.0000000000
40
0.0000000000
40
0.0000000000
40
0.1999897043
40
0.3999946302
40
0.6000053697
40
0.8000102956
40
1.0000000000
40
1.0000000000
40
1.0000000000
40
1.0000000000
10
13.3449127680
20
21.2805510616
30
0.0000000000
10
13.3449381727
20
21.3639579549
30
0.0000000000
10
13.3715176415
20
21.5319445683
30
0.0000000000
10
13.4870262536
20
21.7583826043
30
0.0000000000
10
13.6669593813
20
21.9383157321
30
0.0000000000
10
13.8933974173
20
22.0538243443
30
0.0000000000
10
14.0613840308
20
22.0804038131
30
0.0000000000
10
14.1447909242
20
22.0804292177
30
0.0000000000
11
13.3449127680
21
21.2805510616
31
0.0000000000
11
13.3841218080
21
21.5276806746
31
0.0000000000
11
13.4977618052
21
21.7506288226
31
0.0000000000
11
13.6747131630
21
21.9275801804
31
0.0000000000
11
13.8976613110
21
22.0412201777
31
0.0000000000
11
14.1447909242
21
22.0804292177
31
0.0000000000
0
SPLINE
5
269
100
AcDbEntity
8
0
100
AcDbSpline
62
9
6
CONTINUOUS
70
0
71
3
72
12
73
8
74
6
42
0.0000001000
43
0.0000001000
44
0.0000000001
12
-0.0003810888
22
-1.2511678080
32
0.0000000000
13
-1.2511678080
23
-0.0003810887
33
0.0000000000
40
0.0000000000
40
0.0000000000
40
0.0000000000
40
0.0000000000
40
0.1999897043
40
0.3999946302
40
0.6000053697
40
0.8000102957
40
1.0000000000
40
1.0000000000
40
1.0000000000
40
1.0000000000
10
35.3445806244
20
-20.6193604825
30
0.0000000000
10
35.3445552198
20
-20.7027673759
30
0.0000000000
10
35.3179757509
20
-20.8707539893
30
0.0000000000
10
35.2024671388
20
-21.0971920253
30
0.0000000000
10
35.0225340111
20
-21.2771251531
30
0.0000000000
10
34.7960959751
20
-21.3926337652
30
0.0000000000
10
34.6281093616
20
-21.4192132341
30
0.0000000000
10
34.5447024683
20
-21.4192386387
30
0.0000000000
11
35.3445806244
21
-20.6193604825
31
0.0000000000
11
35.3053715844
21
-20.8664900956
31
0.0000000000
11
35.1917315872
21
-21.0894382436
31
0.0000000000
11
35.0147802294
21
-21.2663896015
31
0.0000000000
11
34.7918320814
21
-21.3800295987
31
0.0000000000
11
34.5447024683
21
-21.4192386387
31
0.0000000000
0
SPLINE
5
26A
100
AcDbEntity
8
0
100
AcDbSpline
62
9
6
CONTINUOUS
70
0
71
3
72
20
73
16
74
14
42
0.0000001000
43
0.0000001000
44
0.0000000001
12
-4.0748104910
22
0.0007032650
32
0.0000000000
13
4.0748104101
23
0.0010744128
33
0.0000000000
40
0.0000000000
40
0.0000000000
40
0.0000000000
40
0.0000000000
40
0.0764828007
40
0.1533492939
40
0.2302893089
40
0.3072027707
40
0.3842178723
40
0.4612329517
40
0.5382767383
40
0.6153085833
40
0.6923231991
40
0.7692719643
40
0.8461992679
40
0.9232039148
40
1.0000000000
40
1.0000000000
40
1.0000000000
40
1.0000000000
10
24.3447466962
20
-13.9741729666
30
0.0000000000
10
24.2408623900
20
-13.9741550374
30
0.0000000000
10
24.0317094045
20
-13.9489702092
30
0.0000000000
10
23.7363906290
20
-13.8373198799
30
0.0000000000
10
23.4756766781
20
-13.6579146438
30
0.0000000000
10
23.2654132797
20
-13.4211628603
30
0.0000000000
10
23.1178692618
20
-13.1408651364
30
0.0000000000
10
23.0417181612
20
-12.8332144353
30
0.0000000000
10
23.0414722259
20
-12.5162542703
30
0.0000000000
10
23.1171612113
20
-12.2084649304
30
0.0000000000
10
23.2643171972
20
-11.9278838415
30
0.0000000000
10
23.4742637816
20
-11.6908057256
30
0.0000000000
10
23.7349027792
20
-11.5109080146
30
0.0000000000
10
24.0306603505
20
-11.3986825050
30
0.0000000000
10
24.2404368671
20
-11.3733335145
30
0.0000000000
10
24.3447466962
20
-11.3733060109
30
0.0000000000
11
24.3447466962
21
-13.9741729666
31
0.0000000000
11
24.0353422707
21
-13.9368039133
31
0.0000000000
11
23.7423385685
21
-13.8261090977
31
0.0000000000
11
23.4840827686
21
-13.6483558572
31
0.0000000000
11
23.2759543584
21
-13.4140334188
31
0.0000000000
11
23.1297804681
21
-13.1363332042
31
0.0000000000
11
23.0543745556
21
-12.8317053867
31
0.0000000000
11
23.0541312658
21
-12.5177666468
31
0.0000000000
11
23.1290897162
21
-12.2129580631
31
0.0000000000
11
23.2748467801
21
-11.9350410768
31
0.0000000000
11
23.4827334614
21
-11.7003119586
31
0.0000000000
11
23.7406957066
21
-11.5222241223
31
0.0000000000
11
24.0340932177
21
-11.4109794388
31
0.0000000000
11
24.3447466962
21
-11.3733060109
31
0.0000000000
0
SPLINE
5
26B
100
AcDbEntity
8
0
100
AcDbSpline
62
9
6
CONTINUOUS
70
0
71
3
72
12
73
8
74
6
42
0.0000001000
43
0.0000001000
44
0.0000000001
12
-0.2001096880
22
-0.7792500981
32
0.0000000000
13
-0.8045332182
23
-0.0009504384
33
0.0000000000
40
0.0000000000
40
0.0000000000
40
0.0000000000
40
0.0000000000
40
0.0567706600
40
0.2009998324
40
0.4209560206
40
0.6960008909
40
1.0000000000
40
1.0000000000
40
1.0000000000
40
1.0000000000
10
35.3326034703
20
-19.9669546794
30
0.0000000000
10
35.3288166840
20
-19.9817008602
30
0.0000000000
10
35.2564032197
20
-19.9838941231
30
0.0000000000
10
35.1608956390
20
-20.0044514887
30
0.0000000000
10
34.9812899907
20
-20.0110357695
30
0.0000000000
10
34.7703851044
20
-20.0197807493
30
0.0000000000
10
34.6142511081
20
-20.0211287731
30
0.0000000000
10
34.5327253143
20
-20.0212250839
30
0.0000000000
11
35.3326034703
21
-19.9669546794
31
0.0000000000
11
35.2900502992
21
-19.9835478712
31
0.0000000000
11
35.1749872347
21
-19.9985522889
31
0.0000000000
11
34.9984309640
21
-20.0105313380
31
0.0000000000
11
34.7772858268
21
-20.0183380876
31
0.0000000000
11
34.5327253143
21
-20.0212250839
31
0.0000000000
0
SPLINE
5
26C
100
AcDbEntity
8
0
100
AcDbSpline
62
9
6
CONTINUOUS
70
0
71
3
72
14
73
10
74
8
42
0.0000001000
43
0.0000001000
44
0.0000000001
12
0.0007802818
22
-1.3981536134
32
0.0000000000
13
0.5887375291
23
-1.2681570319
33
0.0000000000
40
0.0000000000
40
0.0000000000
40
0.0000000000
40
0.0000000000
40
0.2238244770
40
0.4343072510
40
0.6220871579
40
0.7786145891
40
0.8970349897
40
0.9719265681
40
1.0000000000
40
1.0000000000
40
1.0000000000
40
1.0000000000
10
34.5327253143
20
-20.0212262034
30
0.0000000000
10
34.5327835296
20
-20.1255398705
30
0.0000000000
10
34.5330186152
20
-20.3279633378
30
0.0000000000
10
34.5341505935
20
-20.6178283662
30
0.0000000000
10
34.5349403822
20
-20.8765639775
30
0.0000000000
10
34.5384059670
20
-21.0917081353
30
0.0000000000
10
34.5362739598
20
-21.2559718094
30
0.0000000000
10
34.5461632951
20
-21.3568083352
30
0.0000000000
10
34.5391931740
20
-21.4073714653
30
0.0000000000
10
34.5447024683
20
-21.4192386387
30
0.0000000000
11
34.5327253143
21
-20.0212262034
31
0.0000000000
11
34.5331732956
21
-20.3341669328
31
0.0000000000
11
34.5341478462
21
-20.6284526160
31
0.0000000000
11
34.5356060939
21
-20.8909937625
31
0.0000000000
11
34.5374809120
21
-21.1098351594
31
0.0000000000
11
34.5396912808
21
-21.2753903413
31
0.0000000000
11
34.5421339221
21
-21.3800717941
31
0.0000000000
11
34.5447024683
21
-21.4192386387
31
0.0000000000
0
SPLINE
5
26D
100
AcDbEntity
8
0
100
AcDbSpline
62
9
6
CONTINUOUS
70
0
71
3
72
14
73
10
74
8
42
0.0000001000
43
0.0000001000
44
0.0000000001
12
0.0007765725
22
-0.6527078152
32
0.0000000000
13
0.4588207939
23
-0.4642322416
33
0.0000000000
40
0.0000000000
40
0.0000000000
40
0.0000000000
40
0.0000000000
40
0.2229892927
40
0.4336482699
40
0.6216434617
40
0.7783825249
40
0.8969398685
40
0.9718705364
40
1.0000000000
40
1.0000000000
40
1.0000000000
40
1.0000000000
10
35.3326034704
20
-19.9669546794
30
0.0000000000
10
35.3326611928
20
-20.0154702974
30
0.0000000000
10
35.3329107089
20
-20.1098385137
30
0.0000000000
10
35.3339800631
20
-20.2450043826
30
0.0000000000
10
35.3349565522
20
-20.3660851769
30
0.0000000000
10
35.3378981528
20
-20.4661578955
30
0.0000000000
10
35.3370563849
20
-20.5440691167
30
0.0000000000
10
35.3445196062
20
-20.5889732758
30
0.0000000000
10
35.3402784968
20
-20.6150076146
30
0.0000000000
10
35.3445806244
20
-20.6193604825
30
0.0000000000
11
35.3326034704
21
-19.9669546794
31
0.0000000000
11
35.3330490739
21
-20.1125009543
31
0.0000000000
11
35.3340232783
21
-20.2499963612
31
0.0000000000
11
35.3354821923
21
-20.3726937058
31
0.0000000000
11
35.3373594883
21
-20.4749813640
31
0.0000000000
11
35.3395725161
21
-20.5523330727
31
0.0000000000
11
35.3420191448
21
-20.6011797049
31
0.0000000000
11
35.3445806244
21
-20.6193604825
31
0.0000000000
0
SPLINE
5
26E
100
AcDbEntity
8
0
100
AcDbSpline
62
9
6
CONTINUOUS
70
0
71
3
72
12
73
8
74
6
42
0.0000001000
43
0.0000001000
44
0.0000000001
12
-0.1999866491
22
0.7792820190
32
0.0000000000
13
-0.8045335428
23
0.0009504913
33
0.0000000000
40
0.0000000000
40
0.0000000000
40
0.0000000000
40
0.0000000000
40
0.0567682445
40
0.2009962622
40
0.4209526987
40
0.6959989236
40
1.0000000000
40
1.0000000000
40
1.0000000000
40
1.0000000000
10
35.3326034704
20
20.6281452584
30
0.0000000000
10
35.3288191734
20
20.6428914158
30
0.0000000000
10
35.2564027620
20
20.6450854787
30
0.0000000000
10
35.1608997849
20
20.6656426588
30
0.0000000000
10
34.9812919607
20
20.6722272866
30
0.0000000000
10
34.7703868241
20
20.6809723847
30
0.0000000000
10
34.6142516686
20
20.6823204637
30
0.0000000000
10
34.5327253143
20
20.6824167805
30
0.0000000000
11
35.3326034704
21
20.6281452584
31
0.0000000000
11
35.2900524780
21
20.6447387392
31
0.0000000000
11
35.1749903425
21
20.6597434581
31
0.0000000000
11
34.9984338179
21
20.6717227715
31
0.0000000000
11
34.7772875075
21
20.6795297065
31
0.0000000000
11
34.5327253143
21
20.6824167805
31
0.0000000000
0
SPLINE
5
26F
100
AcDbEntity
8
0
100
AcDbSpline
62
9
6
CONTINUOUS
70
0
71
3
72
11
73
7
74
5
42
0.0000001000
43
0.0000001000
44
0.0000000001
12
-0.0481810394
22
-40.7036233637
32
0.0000000000
13
0.0481810301
23
-40.7036233637
33
0.0000000000
40
0.0000000000
40
0.0000000000
40
0.0000000000
40
0.0000000000
40
0.2498559490
40
0.4999999999
40
0.7501440508
40
1.0000000000
40
1.0000000000
40
1.0000000000
40
1.0000000000
10
34.5327253143
20
20.6824167824
30
0.0000000000
10
34.5287125411
20
17.2924026340
30
0.0000000000
10
34.5226973705
20
10.5084628540
30
0.0000000000
10
34.5196915469
20
0.3305952921
30
0.0000000000
10
34.5226973699
20
-9.8472722714
30
0.0000000000
10
34.5287125419
20
-16.6312120533
30
0.0000000000
10
34.5327253143
20
-20.0212262034
30
0.0000000000
11
34.5327253143
21
20.6824167824
31
0.0000000000
11
34.5237025993
21
10.5123712146
31
0.0000000000
11
34.5206938728
21
0.3305952925
31
0.0000000000
11
34.5237025991
21
-9.8511806308
31
0.0000000000
11
34.5327253143
21
-20.0212262034
31
0.0000000000
0
SPLINE
5
270
100
AcDbEntity
8
0
100
AcDbSpline
62
9
6
CONTINUOUS
70
0
71
3
72
11
73
7
74
5
42
0.0000001000
43
0.0000001000
44
0.0000000001
12
-0.0481810383
22
-40.5950802632
32
0.0000000000
13
0.0481810291
23
-40.5950802633
33
0.0000000000
40
0.0000000000
40
0.0000000000
40
0.0000000000
40
0.0000000000
40
0.2498555147
40
0.5000002286
40
0.7501449388
40
1.0000000000
40
1.0000000000
40
1.0000000000
40
1.0000000000
10
35.3326034704
20
20.6281452584
30
0.0000000000
10
35.3285907043
20
17.2471770336
30
0.0000000000
10
35.3225755274
20
10.4813246687
30
0.0000000000
10
35.3195696977
20
0.3305860588
30
0.0000000000
10
35.3225755358
20
-9.8201464141
30
0.0000000000
10
35.3285907124
20
-16.5859925914
30
0.0000000000
10
35.3326034704
20
-19.9669546794
30
0.0000000000
11
35.3326034704
21
20.6281452584
31
0.0000000000
11
35.3235807659
21
10.4852374530
31
0.0000000000
11
35.3205720289
21
0.3305860081
31
0.0000000000
11
35.3235807766
21
-9.8240652845
31
0.0000000000
11
35.3326034704
21
-19.9669546794
31
0.0000000000
0
SPLINE
5
271
100
AcDbEntity
8
0
100
AcDbSpline
62
9
6
CONTINUOUS
70
0
71
3
72
12
73
8
74
6
42
0.0000001000
43
0.0000001000
44
0.0000000001
12
-0.0003810896
22
1.2511678077
32
0.0000000000
13
-1.2511678077
23
0.0003810895
33
0.0000000000
40
0.0000000000
40
0.0000000000
40
0.0000000000
40
0.0000000000
40
0.1999878664
40
0.3999919811
40
0.6000028741
40
0.8000087618
40
1.0000000000
40
1.0000000000
40
1.0000000000
40
1.0000000000
10
35.3445806244
20
21.2805510616
30
0.0000000000
10
35.3445552200
20
21.3639571884
30
0.0000000000
10
35.3179761805
20
21.5319426650
30
0.0000000000
10
35.2024688719
20
21.7583801447
30
0.0000000000
10
35.0225363817
20
21.9383141015
30
0.0000000000
10
34.7960976822
20
22.0538239672
30
0.0000000000
10
34.6281100013
20
22.0804038129
30
0.0000000000
10
34.5447024683
20
22.0804292177
30
0.0000000000
11
35.3445806244
21
21.2805510616
31
0.0000000000
11
35.3053723042
21
21.5276784605
31
0.0000000000
11
35.1917335597
21
21.7506261078
31
0.0000000000
11
35.0147827866
21
21.9275783219
31
0.0000000000
11
34.7918339292
21
22.0412195768
31
0.0000000000
11
34.5447024683
21
22.0804292177
31
0.0000000000
0
SPLINE
5
272
100
AcDbEntity
8
0
100
AcDbSpline
62
9
6
CONTINUOUS
70
0
71
3
72
11
73
7
74
5
42
0.0000001000
43
0.0000001000
44
0.0000000001
12
-2.7559166443
22
-40.5307645693
32
0.0000000000
13
2.7559161204
23
-40.5307646049
33
0.0000000000
40
0.0000000000
40
0.0000000000
40
0.0000000000
40
0.0000000000
40
0.2499995795
40
0.5000002284
40
0.7500008739
40
1.0000000000
40
1.0000000000
40
1.0000000000
40
1.0000000000
10
-18.3446526547
20
20.6281452584
30
0.0000000000
10
-18.5743119888
20
17.2505872251
30
0.0000000000
10
-18.9190042995
20
10.4871039402
30
0.0000000000
10
-19.0913983330
20
0.3305860543
30
0.0000000000
10
-18.9190038126
20
-9.8259256856
30
0.0000000000
10
-18.5743115287
20
-16.5894027683
30
0.0000000000
10
-18.3446526547
20
-19.9669546794
30
0.0000000000
11
-18.3446526547
21
20.6281452584
31
0.0000000000
11
-18.8615630489
21
10.4852374530
31
0.0000000000
11
-19.0339334749
21
0.3305860081
31
0.0000000000
11
-18.8615624342
21
-9.8240652845
31
0.0000000000
11
-18.3446526547
21
-19.9669546794
31
0.0000000000
0
SPLINE
5
273
100
AcDbEntity
8
0
100
AcDbSpline
62
9
6
CONTINUOUS
70
0
71
3
72
12
73
8
74
6
42
0.0000001000
43
0.0000001000
44
0.0000000001
12
-0.0139593870
22
0.7999748069
32
0.0000000000
13
0.7999747332
23
0.0139636109
33
0.0000000000
40
0.0000000000
40
0.0000000000
40
0.0000000000
40
0.0000000000
40
0.3089052612
40
0.5875663800
40
0.8087299445
40
0.9507843812
40
1.0000000000
40
1.0000000000
40
1.0000000000
40
1.0000000000
10
-17.6584819615
20
21.2805510616
30
0.0000000000
10
-17.6599193375
20
21.3629232038
30
0.0000000000
10
-17.6634567747
20
21.5210920039
30
0.0000000000
10
-17.6607183698
20
21.7310526676
30
0.0000000000
10
-17.6729870464
20
21.9168915236
30
0.0000000000
10
-17.6487741897
20
21.9988840902
30
0.0000000000
10
-17.6716057094
20
22.0802001418
30
0.0000000000
10
-17.6584819589
20
22.0804292177
30
0.0000000000
11
-17.6584819615
21
21.2805510616
31
0.0000000000
11
-17.6621112094
21
21.5276784605
31
0.0000000000
11
-17.6640192064
21
21.7506261078
31
0.0000000000
11
-17.6640192306
21
21.9275783219
31
0.0000000000
11
-17.6621112545
21
22.0412195768
31
0.0000000000
11
-17.6584819589
21
22.0804292177
31
0.0000000000
0
SPLINE
5
274
100
AcDbEntity
8
0
100
AcDbSpline
62
9
6
CONTINUOUS
70
0
71
3
72
14
73
10
74
8
42
0.0000001000
43
0.0000001000
44
0.0000000001
12
-1.0377045699
22
-0.0182844705
32
0.0000000000
13
-0.0706214137
23
-1.0354601452
33
0.0000000000
40
0.0000000000
40
0.0000000000
40
0.0000000000
40
0.0000000000
40
0.1423821125
40
0.2853633141
40
0.4284089140
40
0.5714182628
40
0.7145157664
40
0.8575310870
40
1.0000000000
40
1.0000000000
40
1.0000000000
40
1.0000000000
10
-17.6584819615
20
21.2805510616
30
0.0000000000
10
-17.7077321511
20
21.2796832677
30
0.0000000000
10
-17.8065741482
20
21.2674726555
30
0.0000000000
10
-17.9475386332
20
21.2183463388
30
0.0000000000
10
-18.0752375135
20
21.1404921631
30
0.0000000000
10
-18.1836555310
20
21.0374347300
30
0.0000000000
10
-18.2678960520
20
20.9138183002
30
0.0000000000
10
-18.3241095069
20
20.7754611264
30
0.0000000000
10
-18.3412988694
20
20.6773188855
30
0.0000000000
10
-18.3446526547
20
20.6281452584
30
0.0000000000
11
-17.6584819615
21
21.2805510616
31
0.0000000000
11
-17.8051354488
21
21.2623916888
31
0.0000000000
11
-17.9452731013
21
21.2135798399
31
0.0000000000
11
-18.0720287663
21
21.1362881806
31
0.0000000000
11
-18.1796070769
21
21.0340299961
31
0.0000000000
11
-18.2632496333
21
20.9113070564
31
0.0000000000
11
-18.3190979725
21
20.7737838506
31
0.0000000000
11
-18.3446526547
21
20.6281452584
31
0.0000000000
0
SPLINE
5
275
100
AcDbEntity
8
0
100
AcDbSpline
62
9
6
CONTINUOUS
70
0
71
3
72
12
73
8
74
6
42
0.0000001000
43
0.0000001000
44
0.0000000001
12
-0.0139593591
22
-0.7999748074
32
0.0000000000
13
0.7999747332
23
-0.0139636109
33
0.0000000000
40
0.0000000000
40
0.0000000000
40
0.0000000000
40
0.0000000000
40
0.3089080285
40
0.5875697731
40
0.8087322673
40
0.9507851325
40
1.0000000000
40
1.0000000000
40
1.0000000000
40
1.0000000000
10
-17.6584819615
20
-20.6193604825
30
0.0000000000
10
-17.6599193475
20
-20.7017333627
30
0.0000000000
10
-17.6634568071
20
-20.8599030905
30
0.0000000000
10
-17.6607183586
20
-21.0698643275
30
0.0000000000
10
-17.6729869822
20
-21.2557026288
30
0.0000000000
10
-17.6487743443
20
-21.3376945280
30
0.0000000000
10
-17.6716055116
20
-21.4190095662
30
0.0000000000
10
-17.6584819615
20
-21.4192386387
30
0.0000000000
11
-17.6584819615
21
-20.6193604825
31
0.0000000000
11
-17.6621112285
21
-20.8664900956
31
0.0000000000
11
-17.6640192091
21
-21.0894382436
31
0.0000000000
11
-17.6640192088
21
-21.2663896015
31
0.0000000000
11
-17.6621112277
21
-21.3800295987
31
0.0000000000
11
-17.6584819615
21
-21.4192386387
31
0.0000000000
0
SPLINE
5
276
100
AcDbEntity
8
0
100
AcDbSpline
62
9
6
CONTINUOUS
70
0
71
3
72
14
73
10
74
8
42
0.0000001000
43
0.0000001000
44
0.0000000001
12
0.0705791315
22
-1.0354630278
32
0.0000000000
13
1.0377038226
23
-0.0183268191
33
0.0000000000
40
0.0000000000
40
0.0000000000
40
0.0000000000
40
0.0000000000
40
0.1423769607
40
0.2853543414
40
0.4283981369
40
0.5714074373
40
0.7145066992
40
0.8575258680
40
1.0000000000
40
1.0000000000
40
1.0000000000
40
1.0000000000
10
-18.3446526547
20
-19.9669546794
30
0.0000000000
10
-18.3413030406
20
-20.0160967057
30
0.0000000000
10
-18.3241255836
20
-20.1141942981
30
0.0000000000
10
-18.2679576477
20
-20.2524997784
30
0.0000000000
10
-18.1837672559
20
-20.3761106776
30
0.0000000000
10
-18.0753764722
20
-20.4791967045
30
0.0000000000
10
-17.9476695847
20
-20.5571006589
30
0.0000000000
10
-17.8066511670
20
-20.6062698520
30
0.0000000000
10
-17.7077639453
20
-20.6184901167
30
0.0000000000
10
-17.6584819615
20
-20.6193604825
30
0.0000000000
11
-18.3446526547
21
-19.9669546794
31
0.0000000000
11
-18.3191240470
21
-20.1125009543
31
0.0000000000
11
-18.2633119123
21
-20.2499963612
31
0.0000000000
11
-18.1797307854
21
-20.3726937058
31
0.0000000000
11
-18.0721805680
21
-20.4749813640
31
0.0000000000
11
-17.9453962931
21
-20.5523330727
31
0.0000000000
11
-17.8052290313
21
-20.6011797049
31
0.0000000000
11
-17.6584819615
21
-20.6193604825
31
0.0000000000
0
ENDSEC
0
SECTION
2
OBJECTS
0
DICTIONARY
5
C
100
AcDbDictionary
280
0
281
1
3
ACAD_GROUP
350
D
3
ACAD_MLINESTYLE
350
17
3
ACAD_LAYOUT
350
1A
3
ACAD_PLOTSETTINGS
350
19
3
ACAD_PLOTSTYLENAME
350
E
0
DICTIONARY
5
D
102
{ACAD_REACTORS
330
C
102
}
100
AcDbDictionary
280
0
281
1
0
ACDBDICTIONARYWDFLT
5
E
102
{ACAD_REACTORS
330
C
102
}
100
AcDbDictionary
281
1
3
Normal
350
F
100
AcDbDictionaryWithDefault
340
F
0
DICTIONARY
5
17
102
{ACAD_REACTORS
330
C
102
}
100
AcDbDictionary
280
0
281
1
3
Standard
350
18
0
DICTIONARY
5
19
102
{ACAD_REACTORS
330
C
102
}
100
AcDbDictionary
281
1
0
DICTIONARY
5
1A
102
{ACAD_REACTORS
330
C
102
}
100
AcDbDictionary
281
1
3
Layout1
350
1E
3
Model
350
22
0
ACDBPLACEHOLDER
5
F
102
{ACAD_REACTORS
330
E
102
}
0
MLINESTYLE
5
18
102
{ACAD_REACTORS
330
17
102
}
100
AcDbMlineStyle
2
STANDARD
70
0
3

62
256
51
90.0
52
90.0
71
2
49
0.5
62
256
6
BYLAYER
49
-0.5
62
256
6
BYLAYER
0
LAYOUT
5
1E
102
{ACAD_REACTORS
330
1A
102
}
100
AcDbPlotSettings
1

2

4

6

40
0.0
41
0.0
42
0.0
43
0.0
44
0.0
45
0.0
46
0.0
47
0.0
48
0.0
49
0.0
140
0.0
141
0.0
142
1.0
143
1.0
70
0
72
0
73
0
74
0
7

75
0
147
1.0
148
0.0
149
0.0
100
AcDbLayout
1
Layout1
70
0
71
0
10
0.0
20
0.0
11
0.0
21
0.0
12
0.0
22
0.0
32
0.0
14
0.0
24
0.0
34
0.0
15
0.0
25
0.0
35
0.0
146
0.0
13
0.0
23
0.0
33
0.0
16
0.0
26
0.0
36
0.0
17
0.0
27
0.0
37
0.0
76
0
330
1B
331
0
345
0
346
0
0
LAYOUT
5
22
102
{ACAD_REACTORS
330
1A
102
}
100
AcDbPlotSettings
1

2

4

6

40
0.0
41
0.0
42
0.0
43
0.0
44
0.0
45
0.0
46
0.0
47
0.0
48
0.0
49
0.0
140
0.0
141
0.0
142
1.0
143
1.0
70
0
72
0
73
0
74
0
7

75
0
147
1.0
148
0.0
149
0.0
100
AcDbLayout
1
Model
70
0
71
0
10
0.0
20
0.0
11
0.0
21
0.0
12
0.0
22
0.0
32
0.0
14
0.0
24
0.0
34
0.0
15
0.0
25
0.0
35
0.0
146
0.0
13
0.0
23
0.0
33
0.0
16
0.0
26
0.0
36
0.0
17
0.0
27
0.0
37
0.0
76
0
330
1F
331
0
345
0
346
0
0
ENDSEC
0
EOF
