  0
SECTION
  2
HEADER
  9
$ACADVER
  1
AC1015
  9
$DWGCODEPAGE
  3
ANSI_1252
  9
$EXTMAX
 10
297.0
 20
210.0
 30
0.0
  9
$EXTMIN
 10
0.0
 20
0.0
 30
0.0
  9
$LIMMIN
 10
0.0
 20
0.0
  9
$LIMMAX
 10
297.0
 20
210.0
  9
$VIEWCTR
 10
148.5
 20
105.0
  9
$VIEWSIZE
 40
210.0
  9
$CLAYER
  8
0
  9
$LTSCALE
 40
16.335
  9
$CELTYPE
  6
BYLAYER
  9
$DIMSCALE
 40
1.0
  9
$DIMASZ
 40
3.0
  9
$DIMEXO
 40
1.85625
  9
$DIMDLI
 40
11.286
  9
$DIMEXE
 40
5.346
  9
$DIMCEN
 40
2.673
  9
$DIMLFAC
 40
1.0
  9
$DIMBLK
  1
_FILLED
  9
$DIMTXT
 40
3.0
  9
$DIMTOL
 70
1
  9
$DIMLIM
 70
0
  9
$DIMTFAC
 40
1.0
  9
$DIMTP
 40
0.01
  9
$DIMTM
 40
0.01
  9
$PDMODE
 70
3
  9
$PDSIZE
 40
3.0
  9
$HANDSEED
  5
584
  9
$TILEMODE
 70
1
  9
$MEASUREMENT
 70
1
  9
$INSUNITS
 70
4
  0
ENDSEC
  0
SECTION
  2
CLASSES
  0
CLASS
  1
ACDBDICTIONARYWDFLT
  2
AcDbDictionaryWithDefault
  3
AutoCAD 2000
 90
0
280
0
281
0
  0
CLASS
  1
ACDBPLACEHOLDER
  2
AcDbPlaceHolder
  3
AutoCAD 2000
 90
0
280
0
281
0
  0
CLASS
  1
LAYOUT
  2
AcDbLayout
  3
AutoCAD 2000
 90
0
280
0
281
0
  0
ENDSEC
  0
SECTION
  2
TABLES
  0
TABLE
  2
VPORT
  5
8
100
AcDbSymbolTable
 70
2
  0
VPORT
  5
1F4
100
AcDbSymbolTableRecord
100
AcDbViewportTableRecord
  2
*ACTIVE
 70
0
 10
0.0
 20
0.0
 11
1.0
 21
1.0
 12
148.5
 22
105.0
 13
0.0
 23
0.0
 14
1.0
 24
1.0
 15
0.0
 25
0.0
 16
0.0
 26
0.0
 36
1.0
 17
0.0
 27
0.0
 37
0.0
 40
210.0
 41
1.4142857143
 42
50.0
 43
0.0
 44
0.0
 50
0.0
 51
0.0
 71
0
 72
100
 73
1
 74
1
 75
0
 76
0
 77
0
 78
0
  0
ENDTAB
  0
TABLE
  2
LTYPE
  5
5
100
AcDbSymbolTable
 70
6
  0
LTYPE
  5
14
100
AcDbSymbolTableRecord
100
AcDbLinetypeTableRecord
  2
BYBLOCK
 70
0
  3

 72
65
 73
0
 40
0.0
  0
LTYPE
  5
15
100
AcDbSymbolTableRecord
100
AcDbLinetypeTableRecord
  2
BYLAYER
 70
0
  3

 72
65
 73
0
 40
0.0
  0
LTYPE
  5
16
100
AcDbSymbolTableRecord
100
AcDbLinetypeTableRecord
  2
CONTINUOUS
 70
64
  3
Solid line
 72
65
 73
0
 40
0.0
  0
LTYPE
  5
1F5
100
AcDbSymbolTableRecord
100
AcDbLinetypeTableRecord
  2
CENTER
 70
64
  3
____ _ ____ _ ____ _ ____ _ ____ _ ____ _ ____
 72
65
 73
4
 40
0.6
 49
0.375
 74
0
 49
-0.075
 74
0
 49
0.075
 74
0
 49
-0.075
 74
0
  0
LTYPE
  5
1F6
100
AcDbSymbolTableRecord
100
AcDbLinetypeTableRecord
  2
HIDDEN
 70
64
  3
- - - - - - - - - - - - - - - - - - - -
 72
65
 73
2
 40
0.2
 49
0.1
 74
0
 49
-0.1
 74
0
  0
LTYPE
  5
1F7
100
AcDbSymbolTableRecord
100
AcDbLinetypeTableRecord
  2
PHANTOM
 70
64
  3
_____ _ _ _____ _ _ _____ _ _ _____
 72
65
 73
6
 40
0.8
 49
0.45
 74
0
 49
-0.05
 74
0
 49
0.1
 74
0
 49
-0.05
 74
0
 49
0.1
 74
0
 49
-0.05
 74
0
  0
LTYPE
  5
1F8
100
AcDbSymbolTableRecord
100
AcDbLinetypeTableRecord
  2
DOT
 70
64
  3
. . . . . . . . . . . . . . . . . . . .
 72
65
 73
2
 40
0.2
 49
0.1
 74
0
 49
-0.1
 74
0
  0
LTYPE
  5
1F9
100
AcDbSymbolTableRecord
100
AcDbLinetypeTableRecord
  2
DASHED
 70
64
  3
- - - - - - - - - - - - - - - - - - - -
 72
65
 73
2
 40
0.2
 49
0.1
 74
0
 49
-0.1
 74
0
  0
ENDTAB
  0
TABLE
  2
LAYER
  5
2
100
AcDbSymbolTable
 70
36
  0
LAYER
  5
10
100
AcDbSymbolTableRecord
100
AcDbLayerTableRecord
  2
0
 70
0
 62
7
  6
CONTINUOUS
370
-3
390
F
  0
LAYER
  5
1FA
100
AcDbSymbolTableRecord
100
AcDbLayerTableRecord
  2
DEFAULT_1
 70
0
 62
7
  6
CENTER
370
-3
390
F
  0
LAYER
  5
1FB
100
AcDbSymbolTableRecord
100
AcDbLayerTableRecord
  2
DEFAULT_2
 70
0
 62
7
  6
HIDDEN
370
-3
390
F
  0
LAYER
  5
1FC
100
AcDbSymbolTableRecord
100
AcDbLayerTableRecord
  2
DEFAULT_3
 70
0
 62
7
  6
PHANTOM
370
-3
390
F
  0
LAYER
  5
1FD
100
AcDbSymbolTableRecord
100
AcDbLayerTableRecord
  2
ASSI
 70
0
 62
7
  6
CONTINUOUS
370
-3
390
F
  0
LAYER
  5
1FE
100
AcDbSymbolTableRecord
100
AcDbLayerTableRecord
  2
COORDINATE
 70
0
 62
7
  6
CONTINUOUS
370
-3
390
F
  0
LAYER
  5
1FF
100
AcDbSymbolTableRecord
100
AcDbLayerTableRecord
  2
COORD_ORIGINE
 70
0
 62
7
  6
CONTINUOUS
370
-3
390
F
  0
LAYER
  5
200
100
AcDbSymbolTableRecord
100
AcDbLayerTableRecord
  2
COPY_PUBLISH
 70
0
 62
7
  6
CONTINUOUS
370
-3
390
F
  0
LAYER
  5
201
100
AcDbSymbolTableRecord
100
AcDbLayerTableRecord
  2
COSMETIC
 70
0
 62
7
  6
CONTINUOUS
370
-3
390
F
  0
LAYER
  5
202
100
AcDbSymbolTableRecord
100
AcDbLayerTableRecord
  2
CURVE
 70
0
 62
7
  6
CONTINUOUS
370
-3
390
F
  0
LAYER
  5
203
100
AcDbSymbolTableRecord
100
AcDbLayerTableRecord
  2
DRAFT
 70
0
 62
7
  6
CONTINUOUS
370
-3
390
F
  0
LAYER
  5
204
100
AcDbSymbolTableRecord
100
AcDbLayerTableRecord
  2
IMPORT
 70
0
 62
7
  6
CONTINUOUS
370
-3
390
F
  0
LAYER
  5
205
100
AcDbSymbolTableRecord
100
AcDbLayerTableRecord
  2
IMPORT_IGES
 70
0
 62
7
  6
CONTINUOUS
370
-3
390
F
  0
LAYER
  5
206
100
AcDbSymbolTableRecord
100
AcDbLayerTableRecord
  2
INTFCLR_2
 70
0
 62
7
  6
CONTINUOUS
370
-3
390
F
  0
LAYER
  5
207
100
AcDbSymbolTableRecord
100
AcDbLayerTableRecord
  2
NOTE
 70
0
 62
7
  6
CONTINUOUS
370
-3
390
F
  0
LAYER
  5
208
100
AcDbSymbolTableRecord
100
AcDbLayerTableRecord
  2
PIANI
 70
0
 62
7
  6
CONTINUOUS
370
-3
390
F
  0
LAYER
  5
209
100
AcDbSymbolTableRecord
100
AcDbLayerTableRecord
  2
PIANI_ORIGINE
 70
0
 62
7
  6
CONTINUOUS
370
-3
390
F
  0
LAYER
  5
20A
100
AcDbSymbolTableRecord
100
AcDbLayerTableRecord
  2
PUNTI
 70
0
 62
7
  6
CONTINUOUS
370
-3
390
F
  0
LAYER
  5
20B
100
AcDbSymbolTableRecord
100
AcDbLayerTableRecord
  2
RACCORDO
 70
0
 62
7
  6
CONTINUOUS
370
-3
390
F
  0
LAYER
  5
20C
100
AcDbSymbolTableRecord
100
AcDbLayerTableRecord
  2
SMUSSO
 70
0
 62
7
  6
CONTINUOUS
370
-3
390
F
  0
LAYER
  5
20D
100
AcDbSymbolTableRecord
100
AcDbLayerTableRecord
  2
SNAPLINE
 70
0
 62
7
  6
CONTINUOUS
370
-3
390
F
  0
LAYER
  5
20E
100
AcDbSymbolTableRecord
100
AcDbLayerTableRecord
  2
SUPERFICI
 70
0
 62
7
  6
CONTINUOUS
370
-3
390
F
  0
LAYER
  5
20F
100
AcDbSymbolTableRecord
100
AcDbLayerTableRecord
  2
TRASH
 70
0
 62
7
  6
CONTINUOUS
370
-3
390
F
  0
LAYER
  5
210
100
AcDbSymbolTableRecord
100
AcDbLayerTableRecord
  2
XSEC_DATUMS
 70
0
 62
7
  6
CONTINUOUS
370
-3
390
F
  0
ENDTAB
  0
TABLE
  2
STYLE
  5
3
100
AcDbSymbolTable
 70
1
  0
STYLE
  5
11
100
AcDbSymbolTableRecord
100
AcDbTextStyleTableRecord
  2
STANDARD
 70
0
 40
0.0
 41
0.8
 50
0.0
 71
0
 42
0.2
  3
txt
  4

  0
STYLE
  5
211
100
AcDbSymbolTableRecord
100
AcDbTextStyleTableRecord
  2
TEXTSTYLE_1
 70
0
 40
0.0
 41
0.8
 50
0.0
 71
0
 42
0.2
  3
gdt
  4

  0
ENDTAB
  0
TABLE
  2
VIEW
  5
6
100
AcDbSymbolTable
 70
0
  0
ENDTAB
  0
TABLE
  2
UCS
  5
7
100
AcDbSymbolTable
 70
0
  0
ENDTAB
  0
TABLE
  2
APPID
  5
9
100
AcDbSymbolTable
 70
1
  0
APPID
  5
212
100
AcDbSymbolTableRecord
100
AcDbRegAppTableRecord
  2
ACAD
 70
0
  0
ENDTAB
  0
TABLE
  2
BLOCK_RECORD
  5
1
100
AcDbSymbolTable
 70
0
  0
BLOCK_RECORD
  5
213
100
AcDbSymbolTableRecord
100
AcDbBlockTableRecord
  2
*Model_Space
  0
BLOCK_RECORD
  5
214
100
AcDbSymbolTableRecord
100
AcDbBlockTableRecord
  2
*Paper_Space
  0
BLOCK_RECORD
  5
215
100
AcDbSymbolTableRecord
100
AcDbBlockTableRecord
  2
_FILLED
  0
BLOCK_RECORD
  5
216
100
AcDbSymbolTableRecord
100
AcDbBlockTableRecord
  2
*D0
  0
BLOCK_RECORD
  5
217
100
AcDbSymbolTableRecord
100
AcDbBlockTableRecord
  2
*D1
  0
BLOCK_RECORD
  5
218
100
AcDbSymbolTableRecord
100
AcDbBlockTableRecord
  2
*D2
  0
ENDTAB
  0
TABLE
  2
DIMSTYLE
  5
A
100
AcDbSymbolTable
 70
1
100
AcDbDimStyleTable
 71
0
  0
DIMSTYLE
105
219
100
AcDbSymbolTableRecord
100
AcDbDimStyleTableRecord
  2
STANDARD
 70
0
  3

  4

 40
1.0
 41
3.0
 42
0.0625
 43
0.38
 44
0.18
 45
0.0
 46
0.0
 47
0.01
 48
0.01
140
3.0
141
0.09
142
0.0
143
25.4
144
1.0
145
0.0
146
1.0
147
0.09
 71
1.0
 72
0.0
 73
0
 74
0
 75
0
 76
0
 77
1
 78
8
170
0
171
2
172
0
173
0
174
0
175
0
176
0
177
0
178
0
270
2
271
2
272
2
273
2
274
2
275
0
280
0
281
0
282
0
283
1
284
8
285
0
286
0
287
3
288
0
340
11
341
215
342
215
343
215
344
215
  0
DIMSTYLE
105
21A
100
AcDbSymbolTableRecord
100
AcDbDimStyleTableRecord
  2
DIMSTYLE_1
 70
0
  3

  4

 40
1.0
 41
3.0
 42
0.0625
 43
0.38
 44
0.18
 45
0.0
 46
0.0
 47
0.0
 48
0.0
140
3.0
141
0.09
142
0.0
143
25.4
144
1.0
145
0.0
146
1.0
147
0.09
 71
0.0
 72
0.0
 73
0
 74
0
 75
0
 76
0
 77
1
 78
8
170
0
171
2
172
0
173
0
174
0
175
0
176
0
177
0
178
0
270
2
271
2
272
2
273
2
274
2
275
0
280
0
281
0
282
0
283
1
284
8
285
0
286
0
287
3
288
0
340
11
341
215
342
215
343
215
344
215
  0
ENDTAB
  0
ENDSEC
  0
SECTION
  2
BLOCKS
  0
BLOCK
  5
20
100
AcDbEntity
  8
0
100
AcDbBlockBegin
  2
*Model_Space
 70
0
 10
0.0
 20
0.0
 30
0.0
  3
*Model_Space
  1

  0
ENDBLK
  5
21
100
AcDbEntity
  8
0
100
AcDbBlockEnd
  0
BLOCK
  5
1C
100
AcDbEntity
  8
0
100
AcDbBlockBegin
  2
*Paper_Space
 70
0
 10
0.0
 20
0.0
 30
0.0
  3
*Paper_Space
  1

  0
ENDBLK
  5
1D
100
AcDbEntity
  8
0
100
AcDbBlockEnd
  0
BLOCK
  5
21B
100
AcDbEntity
  8
0
100
AcDbBlockBegin
  2
_FILLED
 70
64
 10
0.0
 20
0.0
  3
_FILLED
  1

  0
SOLID
  5
21C
100
AcDbEntity
  8
0
  6
BYBLOCK
 62
0
100
AcDbTrace
 10
0.0
 20
0.0
 11
-1.0
 21
0.3166666667
 12
-1.0
 22
-0.3166666667
 13
-1.0
 23
-0.3166666667
  0
ENDBLK
  5
21D
100
AcDbEntity
  8
0
  6
BYBLOCK
 62
0
100
AcDbBlockEnd
  0
BLOCK
  5
21E
100
AcDbEntity
  8
0
100
AcDbBlockBegin
 62
7
  6
CONTINUOUS
  2
*D0
 70
65
 10
0.0
 20
0.0
  3
*D0
  1

  0
MTEXT
  5
21F
100
AcDbEntity
  8
0
100
AcDbMText
 62
7
  6
CONTINUOUS
  7
STANDARD
 71
2
 72
1
 10
0.0
 20
34.5883592518
 30
0.0
 11
1.0
 21
0.0
 31
0.0
 44
0.9
  1
21,8
 40
3.0
 41
8.1428571429
  0
LINE
  5
220
100
AcDbEntity
  8
0
100
AcDbLine
 62
7
  6
CONTINUOUS
 10
-10.9
 20
21.3501218439
 11
-10.9
 21
32.3383592518
  0
LINE
  5
221
100
AcDbEntity
  8
0
100
AcDbLine
 62
7
  6
CONTINUOUS
 10
10.9
 20
21.3501218439
 11
10.9
 21
32.3383592518
  0
LINE
  5
222
100
AcDbEntity
  8
0
100
AcDbLine
 62
7
  6
CONTINUOUS
 10
-10.9
 20
30.8383592518
 11
0.0
 21
30.8383592518
  0
LINE
  5
223
100
AcDbEntity
  8
0
100
AcDbLine
 62
7
  6
CONTINUOUS
 10
10.9
 20
30.8383592518
 11
0.0
 21
30.8383592518
  0
INSERT
  5
224
100
AcDbEntity
  8
0
100
AcDbBlockReference
 62
7
  6
CONTINUOUS
  2
_FILLED
 10
-10.9
 20
30.8383592518
 41
3.0
 42
3.0
 43
3.0
 50
180.0
  0
INSERT
  5
225
100
AcDbEntity
  8
0
100
AcDbBlockReference
 62
7
  6
CONTINUOUS
  2
_FILLED
 10
10.9
 20
30.8383592518
 41
3.0
 42
3.0
 43
3.0
  0
ENDBLK
  5
226
100
AcDbEntity
  8
0
  6
BYBLOCK
 62
0
100
AcDbBlockEnd
  0
BLOCK
  5
227
100
AcDbEntity
  8
0
100
AcDbBlockBegin
 62
7
  6
CONTINUOUS
  2
*D1
 70
65
 10
0.0
 20
0.0
  3
*D1
  1

  0
MTEXT
  5
228
100
AcDbEntity
  8
0
100
AcDbMText
 62
7
  6
CONTINUOUS
  7
STANDARD
 71
2
 72
1
 10
19.25
 20
0.0
 30
0.0
 11
0.0
 21
1.0
 31
0.0
 44
0.9
  1
43,3
 40
3.0
 41
8.3571428571
  0
LINE
  5
229
100
AcDbEntity
  8
0
100
AcDbLine
 62
7
  6
CONTINUOUS
 10
10.6001218439
 20
21.65
 11
24.5
 21
21.65
  0
LINE
  5
22A
100
AcDbEntity
  8
0
100
AcDbLine
 62
7
  6
CONTINUOUS
 10
10.6001218439
 20
-21.65
 11
24.5
 21
-21.65
  0
LINE
  5
22B
100
AcDbEntity
  8
0
100
AcDbLine
 62
7
  6
CONTINUOUS
 10
23.0
 20
21.65
 11
23.0
 21
0.0
  0
LINE
  5
22C
100
AcDbEntity
  8
0
100
AcDbLine
 62
7
  6
CONTINUOUS
 10
23.0
 20
-21.65
 11
23.0
 21
0.0
  0
INSERT
  5
22D
100
AcDbEntity
  8
0
100
AcDbBlockReference
 62
7
  6
CONTINUOUS
  2
_FILLED
 10
23.0
 20
21.65
 41
3.0
 42
3.0
 43
3.0
 50
90.0
  0
INSERT
  5
22E
100
AcDbEntity
  8
0
100
AcDbBlockReference
 62
7
  6
CONTINUOUS
  2
_FILLED
 10
23.0
 20
-21.65
 41
3.0
 42
3.0
 43
3.0
 50
270.0
  0
ENDBLK
  5
22F
100
AcDbEntity
  8
0
  6
BYBLOCK
 62
0
100
AcDbBlockEnd
  0
BLOCK
  5
230
100
AcDbEntity
  8
0
100
AcDbBlockBegin
 62
7
  6
CONTINUOUS
  2
*D2
 70
65
 10
0.0
 20
0.0
  3
*D2
  1

  0
MTEXT
  5
231
100
AcDbEntity
  8
0
100
AcDbMText
 62
7
  6
CONTINUOUS
  7
STANDARD
 71
2
 72
1
 10
-27.3297818545
 20
34.5883592518
 30
0.0
 11
1.0
 21
0.0
 31
0.0
 44
0.9
  1
7,8
 40
3.0
 41
6.4285714286
  0
LINE
  5
232
100
AcDbEntity
  8
0
100
AcDbLine
 62
7
  6
CONTINUOUS
 10
-23.4297818545
 20
21.3501218439
 11
-23.4297818545
 21
32.3383592518
  0
LINE
  5
233
100
AcDbEntity
  8
0
100
AcDbLine
 62
7
  6
CONTINUOUS
 10
-31.2297818545
 20
0.5
 11
-31.2297818545
 21
32.3383592518
  0
LINE
  5
234
100
AcDbEntity
  8
0
100
AcDbLine
 62
7
  6
CONTINUOUS
 10
-23.4297818545
 20
30.8383592518
 11
-19.4297818545
 21
30.8383592518
  0
LINE
  5
235
100
AcDbEntity
  8
0
100
AcDbLine
 62
7
  6
CONTINUOUS
 10
-19.4297818545
 20
30.8383592518
 11
-27.3297818545
 21
30.8383592518
  0
LINE
  5
236
100
AcDbEntity
  8
0
100
AcDbLine
 62
7
  6
CONTINUOUS
 10
-31.2297818545
 20
30.8383592518
 11
-35.2297818545
 21
30.8383592518
  0
LINE
  5
237
100
AcDbEntity
  8
0
100
AcDbLine
 62
7
  6
CONTINUOUS
 10
-35.2297818545
 20
30.8383592518
 11
-27.3297818545
 21
30.8383592518
  0
INSERT
  5
238
100
AcDbEntity
  8
0
100
AcDbBlockReference
 62
7
  6
CONTINUOUS
  2
_FILLED
 10
-23.4297818545
 20
30.8383592518
 41
3.0
 42
3.0
 43
3.0
 50
180.0
  0
INSERT
  5
239
100
AcDbEntity
  8
0
100
AcDbBlockReference
 62
7
  6
CONTINUOUS
  2
_FILLED
 10
-31.2297818545
 20
30.8383592518
 41
3.0
 42
3.0
 43
3.0
  0
ENDBLK
  5
23A
100
AcDbEntity
  8
0
  6
BYBLOCK
 62
0
100
AcDbBlockEnd
  0
ENDSEC
  0
SECTION
  2
ENTITIES
  0
DIMENSION
  5
23B
100
AcDbEntity
  8
0
100
AcDbDimension
 62
7
  6
CONTINUOUS
  2
*D0
 10
10.9
 20
30.8383592518
 11
-4.0714285714
 21
33.0883592518
 70
160
 71
2
 42
21.8
  3
DIMSTYLE_1
100
AcDbAlignedDimension
 13
-10.9
 23
21.3501218439
 14
10.9
 24
21.3501218439
100
AcDbRotatedDimension
  0
DIMENSION
  5
23C
100
AcDbEntity
  8
0
100
AcDbDimension
 62
7
  6
CONTINUOUS
  2
*D1
 10
23.0
 20
-21.65
 11
22.6223076103
 21
-3.7356289158
 70
160
 71
2
 42
43.3
  3
DIMSTYLE_1
100
AcDbAlignedDimension
 13
10.6001218439
 23
21.65
 14
10.6001218439
 24
-21.65
 50
270.0
100
AcDbRotatedDimension
  0
DIMENSION
  5
23D
100
AcDbEntity
  8
0
100
AcDbDimension
 62
7
  6
CONTINUOUS
  2
*D2
 10
-31.2297818545
 20
30.8383592518
 11
-30.5440675688
 21
33.0883592518
 70
160
 71
2
 42
7.8
  3
DIMSTYLE_1
100
AcDbAlignedDimension
 13
-23.4297818545
 23
21.3501218439
 14
-31.2297818545
 24
0.5
 50
180.0
100
AcDbRotatedDimension
  0
LINE
  5
23E
100
AcDbEntity
  8
RACCORDO
100
AcDbLine
 62
7
  6
CONTINUOUS
 10
-10.1001218439
 20
-21.65
 11
10.1001218439
 21
-21.65
  0
LINE
  5
23F
100
AcDbEntity
  8
ASSI
100
AcDbLine
 62
7
  6
CONTINUOUS
 10
-10.1001218439
 20
-21.65
 11
10.1001218439
 21
-21.65
  0
LINE
  5
240
100
AcDbEntity
  8
RACCORDO
100
AcDbLine
 62
253
  6
CONTINUOUS
 10
10.0014668568
 20
-21.5513450129
 11
-10.0014668568
 21
-21.5513450129
  0
LINE
  5
241
100
AcDbEntity
  8
ASSI
100
AcDbLine
 62
253
  6
CONTINUOUS
 10
10.0014668568
 20
-21.5513450129
 11
-10.0014668568
 21
-21.5513450129
  0
LINE
  5
242
100
AcDbEntity
  8
RACCORDO
100
AcDbLine
 62
253
  6
CONTINUOUS
 10
9.989489153
 20
-20.1523351459
 11
-9.989489153
 21
-20.1523351459
  0
LINE
  5
243
100
AcDbEntity
  8
ASSI
100
AcDbLine
 62
253
  6
CONTINUOUS
 10
9.989489153
 20
-20.1523351459
 11
-9.989489153
 21
-20.1523351459
  0
LINE
  5
244
100
AcDbEntity
  8
RACCORDO
100
AcDbLine
 62
253
  6
CONTINUOUS
 10
2.1
 20
-17.5617289211
 11
-2.1
 21
-17.5617289211
  0
LINE
  5
245
100
AcDbEntity
  8
ASSI
100
AcDbLine
 62
253
  6
CONTINUOUS
 10
2.1
 20
-17.5617289211
 11
-2.1
 21
-17.5617289211
  0
LINE
  5
246
100
AcDbEntity
  8
RACCORDO
100
AcDbLine
 62
253
  6
CONTINUOUS
 10
2.1
 20
-17.4558902419
 11
-2.1
 21
-17.4558902419
  0
LINE
  5
247
100
AcDbEntity
  8
ASSI
100
AcDbLine
 62
253
  6
CONTINUOUS
 10
2.1
 20
-17.4558902419
 11
-2.1
 21
-17.4558902419
  0
LINE
  5
248
100
AcDbEntity
  8
0
100
AcDbLine
 62
7
  6
CONTINUOUS
 10
2.0788145
 20
-17.4428418068
 11
-2.0788135
 21
-17.4428418068
  0
LINE
  5
249
100
AcDbEntity
  8
ASSI
100
AcDbLine
 62
253
  6
CONTINUOUS
 10
-2.1
 20
-17.2850037836
 11
2.1
 21
-17.2850037836
  0
LINE
  5
24A
100
AcDbEntity
  8
RACCORDO
100
AcDbLine
 62
253
  6
CONTINUOUS
 10
-2.1
 20
-17.2850037836
 11
2.1
 21
-17.2850037836
  0
LINE
  5
24B
100
AcDbEntity
  8
ASSI
100
AcDbLine
 62
253
  6
CONTINUOUS
 10
-2.1
 20
-17.1907473537
 11
2.1
 21
-17.1907473537
  0
LINE
  5
24C
100
AcDbEntity
  8
RACCORDO
100
AcDbLine
 62
253
  6
CONTINUOUS
 10
-2.1
 20
-17.1907473537
 11
2.1
 21
-17.1907473537
  0
LINE
  5
24D
100
AcDbEntity
  8
RACCORDO
100
AcDbLine
 62
7
  6
CONTINUOUS
 10
6.0752358421
 20
-15.0
 11
6.0600582547
 21
-15.0
  0
LINE
  5
24E
100
AcDbEntity
  8
RACCORDO
100
AcDbLine
 62
7
  6
CONTINUOUS
 10
-6.0600582547
 20
-15.0
 11
-6.0752358421
 21
-15.0
  0
LINE
  5
24F
100
AcDbEntity
  8
0
100
AcDbLine
 62
7
  6
CONTINUOUS
 10
-3.3484255
 20
-14.6375112174
 11
-3.0789385
 21
-14.6375112174
  0
LINE
  5
250
100
AcDbEntity
  8
CURVE
100
AcDbLine
 62
253
  6
CONTINUOUS
 10
-3.3484255
 20
-14.6375112174
 11
-3.0789385
 21
-14.6375112174
  0
LINE
  5
251
100
AcDbEntity
  8
0
100
AcDbLine
 62
7
  6
CONTINUOUS
 10
0.4467225
 20
-13.5372444095
 11
0.2292355
 21
-13.5953627285
  0
LINE
  5
252
100
AcDbEntity
  8
CURVE
100
AcDbLine
 62
253
  6
CONTINUOUS
 10
0.4467225
 20
-13.5372444095
 11
0.2292355
 21
-13.5953627285
  0
LINE
  5
253
100
AcDbEntity
  8
CURVE
100
AcDbLine
 62
253
  6
CONTINUOUS
 10
2.8430715
 20
-12.6295893817
 11
3.0088775
 21
-12.5883891451
  0
LINE
  5
254
100
AcDbEntity
  8
0
100
AcDbLine
 62
7
  6
CONTINUOUS
 10
2.8430715
 20
-12.6295893817
 11
3.0088775
 21
-12.5883891451
  0
LINE
  5
255
100
AcDbEntity
  8
CURVE
100
AcDbLine
 62
253
  6
CONTINUOUS
 10
1.5095715
 20
-12.6295893817
 11
1.6753775
 21
-12.5883891451
  0
LINE
  5
256
100
AcDbEntity
  8
0
100
AcDbLine
 62
7
  6
CONTINUOUS
 10
1.5095715
 20
-12.6295893817
 11
1.6753775
 21
-12.5883891451
  0
LINE
  5
257
100
AcDbEntity
  8
CURVE
100
AcDbLine
 62
253
  6
CONTINUOUS
 10
3.1686855
 20
-13.5335438911
 11
2.9728585
 21
-13.5773876405
  0
LINE
  5
258
100
AcDbEntity
  8
0
100
AcDbLine
 62
7
  6
CONTINUOUS
 10
3.1686855
 20
-13.5335438911
 11
2.9728585
 21
-13.5773876405
  0
LINE
  5
259
100
AcDbEntity
  8
CURVE
100
AcDbLine
 62
253
  6
CONTINUOUS
 10
1.8351855
 20
-13.5335438911
 11
1.6393585
 21
-13.5773876405
  0
LINE
  5
25A
100
AcDbEntity
  8
0
100
AcDbLine
 62
7
  6
CONTINUOUS
 10
1.8351855
 20
-13.5335438911
 11
1.6393585
 21
-13.5773876405
  0
LINE
  5
25B
100
AcDbEntity
  8
0
100
AcDbLine
 62
7
  6
CONTINUOUS
 10
0.1932525
 20
-13.8286472415
 11
0.5542495
 21
-13.7564661535
  0
LINE
  5
25C
100
AcDbEntity
  8
CURVE
100
AcDbLine
 62
253
  6
CONTINUOUS
 10
0.1932525
 20
-13.8286472415
 11
0.5542495
 21
-13.7564661535
  0
LINE
  5
25D
100
AcDbEntity
  8
CURVE
100
AcDbLine
 62
253
  6
CONTINUOUS
 10
3.0238705
 20
-12.3371295441
 11
2.7652845
 21
-12.3845339434
  0
LINE
  5
25E
100
AcDbEntity
  8
0
100
AcDbLine
 62
7
  6
CONTINUOUS
 10
3.0238705
 20
-12.3371295441
 11
2.7652845
 21
-12.3845339434
  0
LINE
  5
25F
100
AcDbEntity
  8
CURVE
100
AcDbLine
 62
253
  6
CONTINUOUS
 10
2.9728585
 20
-13.8286472415
 11
3.2474605
 21
-13.7842030571
  0
LINE
  5
260
100
AcDbEntity
  8
0
100
AcDbLine
 62
7
  6
CONTINUOUS
 10
2.9728585
 20
-13.8286472415
 11
3.2474605
 21
-13.7842030571
  0
LINE
  5
261
100
AcDbEntity
  8
CURVE
100
AcDbLine
 62
253
  6
CONTINUOUS
 10
1.6393585
 20
-13.8286472415
 11
1.9139615
 21
-13.7842030571
  0
LINE
  5
262
100
AcDbEntity
  8
0
100
AcDbLine
 62
7
  6
CONTINUOUS
 10
1.6393585
 20
-13.8286472415
 11
1.9139615
 21
-13.7842030571
  0
LINE
  5
263
100
AcDbEntity
  8
0
100
AcDbLine
 62
7
  6
CONTINUOUS
 10
-1.5140155
 20
-13.7926970654
 11
-1.2445295
 21
-13.7926970654
  0
LINE
  5
264
100
AcDbEntity
  8
CURVE
100
AcDbLine
 62
253
  6
CONTINUOUS
 10
-1.5140155
 20
-13.7926970654
 11
-1.2445295
 21
-13.7926970654
  0
LINE
  5
265
100
AcDbEntity
  8
CURVE
100
AcDbLine
 62
7
  6
CONTINUOUS
 10
-3.0789385
 20
-13.5893353994
 11
-3.0729405
 21
-13.5893353994
  0
LINE
  5
266
100
AcDbEntity
  8
0
100
AcDbLine
 62
7
  6
CONTINUOUS
 10
-0.2507545
 20
-13.1815560608
 11
0.8887185
 21
-13.1815560608
  0
LINE
  5
267
100
AcDbEntity
  8
CURVE
100
AcDbLine
 62
253
  6
CONTINUOUS
 10
-0.2507545
 20
-13.1815560608
 11
0.8887185
 21
-13.1815560608
  0
LINE
  5
268
100
AcDbEntity
  8
CURVE
100
AcDbLine
 62
253
  6
CONTINUOUS
 10
0.6012395
 20
-12.9662466359
 11
-0.2507545
 21
-12.9662466359
  0
LINE
  5
269
100
AcDbEntity
  8
0
100
AcDbLine
 62
7
  6
CONTINUOUS
 10
0.6012395
 20
-12.9662466359
 11
-0.2507545
 21
-12.9662466359
  0
LINE
  5
26A
100
AcDbEntity
  8
CURVE
100
AcDbLine
 62
7
  6
CONTINUOUS
 10
-1.2441405
 20
-12.5917719624
 11
-1.2381435
 21
-12.5917719624
  0
LINE
  5
26B
100
AcDbEntity
  8
CURVE
100
AcDbLine
 62
253
  6
CONTINUOUS
 10
-3.0789385
 20
-12.5764054201
 11
-3.0729405
 21
-12.5764054201
  0
LINE
  5
26C
100
AcDbEntity
  8
0
100
AcDbLine
 62
7
  6
CONTINUOUS
 10
-0.8367175
 20
-12.6243383222
 11
-0.7718425
 21
-12.6303296852
  0
LINE
  5
26D
100
AcDbEntity
  8
CURVE
100
AcDbLine
 62
253
  6
CONTINUOUS
 10
-0.8367175
 20
-12.6243383222
 11
-0.7718425
 21
-12.6303296852
  0
LINE
  5
26E
100
AcDbEntity
  8
CURVE
100
AcDbLine
 62
253
  6
CONTINUOUS
 10
1.3301495
 20
-13.7747929107
 11
1.6393585
 21
-13.8286472415
  0
LINE
  5
26F
100
AcDbEntity
  8
0
100
AcDbLine
 62
7
  6
CONTINUOUS
 10
1.3301495
 20
-13.7747929107
 11
1.6393585
 21
-13.8286472415
  0
LINE
  5
270
100
AcDbEntity
  8
CURVE
100
AcDbLine
 62
253
  6
CONTINUOUS
 10
2.6636495
 20
-13.7747929107
 11
2.9728585
 21
-13.8286472415
  0
LINE
  5
271
100
AcDbEntity
  8
0
100
AcDbLine
 62
7
  6
CONTINUOUS
 10
2.6636495
 20
-13.7747929107
 11
2.9728585
 21
-13.8286472415
  0
LINE
  5
272
100
AcDbEntity
  8
0
100
AcDbLine
 62
7
  6
CONTINUOUS
 10
-2.8659665
 20
-13.7639730906
 11
-2.5779585
 21
-13.8286472415
  0
LINE
  5
273
100
AcDbEntity
  8
CURVE
100
AcDbLine
 62
253
  6
CONTINUOUS
 10
-2.8659665
 20
-13.7639730906
 11
-2.5779585
 21
-13.8286472415
  0
LINE
  5
274
100
AcDbEntity
  8
CURVE
100
AcDbLine
 62
253
  6
CONTINUOUS
 10
1.6393585
 20
-13.5773876405
 11
1.4410275
 21
-13.5260369541
  0
LINE
  5
275
100
AcDbEntity
  8
0
100
AcDbLine
 62
7
  6
CONTINUOUS
 10
1.6393585
 20
-13.5773876405
 11
1.4410275
 21
-13.5260369541
  0
LINE
  5
276
100
AcDbEntity
  8
RACCORDO
100
AcDbLine
 62
7
  6
CONTINUOUS
 10
-10.9
 20
-20.8501218439
 11
-10.9
 21
20.8501218439
  0
LINE
  5
277
100
AcDbEntity
  8
ASSI
100
AcDbLine
 62
7
  6
CONTINUOUS
 10
-10.9
 20
-20.8501218439
 11
-10.9
 21
20.8501218439
  0
LINE
  5
278
100
AcDbEntity
  8
0
100
AcDbLine
 62
7
  6
CONTINUOUS
 10
-0.8126235
 20
-12.3371295441
 11
-1.0658475
 21
-12.4082536266
  0
LINE
  5
279
100
AcDbEntity
  8
CURVE
100
AcDbLine
 62
253
  6
CONTINUOUS
 10
-0.8126235
 20
-12.3371295441
 11
-1.0658475
 21
-12.4082536266
  0
LINE
  5
27A
100
AcDbEntity
  8
CURVE
100
AcDbLine
 62
253
  6
CONTINUOUS
 10
-0.0427565
 20
-12.6177475232
 11
0.1902535
 21
-12.5524389691
  0
LINE
  5
27B
100
AcDbEntity
  8
0
100
AcDbLine
 62
7
  6
CONTINUOUS
 10
-0.0427565
 20
-12.6177475232
 11
0.1902535
 21
-12.5524389691
  0
LINE
  5
27C
100
AcDbEntity
  8
0
100
AcDbLine
 62
7
  6
CONTINUOUS
 10
-2.5779585
 20
-12.3371295441
 11
-2.8580645
 21
-12.3995478175
  0
LINE
  5
27D
100
AcDbEntity
  8
CURVE
100
AcDbLine
 62
253
  6
CONTINUOUS
 10
-2.5779585
 20
-12.3371295441
 11
-2.8580645
 21
-12.3995478175
  0
LINE
  5
27E
100
AcDbEntity
  8
CURVE
100
AcDbLine
 62
253
  6
CONTINUOUS
 10
1.6903705
 20
-12.3371295441
 11
1.4318195
 21
-12.3845339434
  0
LINE
  5
27F
100
AcDbEntity
  8
0
100
AcDbLine
 62
7
  6
CONTINUOUS
 10
1.6903705
 20
-12.3371295441
 11
1.4318195
 21
-12.3845339434
  0
LINE
  5
280
100
AcDbEntity
  8
0
100
AcDbLine
 62
7
  6
CONTINUOUS
 10
-1.2445295
 20
-12.3730797202
 11
-1.5140155
 21
-12.3730797202
  0
LINE
  5
281
100
AcDbEntity
  8
CURVE
100
AcDbLine
 62
253
  6
CONTINUOUS
 10
-1.2445295
 20
-12.3730797202
 11
-1.5140155
 21
-12.3730797202
  0
LINE
  5
282
100
AcDbEntity
  8
0
100
AcDbLine
 62
7
  6
CONTINUOUS
 10
-3.0789385
 20
-12.3730797202
 11
-3.3484255
 21
-12.3730797202
  0
LINE
  5
283
100
AcDbEntity
  8
CURVE
100
AcDbLine
 62
253
  6
CONTINUOUS
 10
-3.0789385
 20
-12.3730797202
 11
-3.3484255
 21
-12.3730797202
  0
LINE
  5
284
100
AcDbEntity
  8
SMUSSO
100
AcDbLine
 62
7
  6
CONTINUOUS
 10
-6.0752358421
 20
-11.0
 11
-6.0600582547
 21
-11.0
  0
LINE
  5
285
100
AcDbEntity
  8
SMUSSO
100
AcDbLine
 62
7
  6
CONTINUOUS
 10
6.0600582547
 20
-11.0
 11
6.0752358421
 21
-11.0
  0
LINE
  5
286
100
AcDbEntity
  8
0
100
AcDbLine
 62
7
  6
CONTINUOUS
 10
-0.7504635
 20
-12.3416063321
 11
-0.8126235
 21
-12.3371295441
  0
LINE
  5
287
100
AcDbEntity
  8
CURVE
100
AcDbLine
 62
253
  6
CONTINUOUS
 10
-0.7504635
 20
-12.3416063321
 11
-0.8126235
 21
-12.3371295441
  0
LINE
  5
288
100
AcDbEntity
  8
CURVE
100
AcDbLine
 62
253
  6
CONTINUOUS
 10
1.9659255
 20
-12.3909489079
 11
1.6903705
 21
-12.3371295441
  0
LINE
  5
289
100
AcDbEntity
  8
0
100
AcDbLine
 62
7
  6
CONTINUOUS
 10
1.9659255
 20
-12.3909489079
 11
1.6903705
 21
-12.3371295441
  0
LINE
  5
28A
100
AcDbEntity
  8
CURVE
100
AcDbLine
 62
253
  6
CONTINUOUS
 10
3.2993895
 20
-12.3909489079
 11
3.0238705
 21
-12.3371295441
  0
LINE
  5
28B
100
AcDbEntity
  8
0
100
AcDbLine
 62
7
  6
CONTINUOUS
 10
3.2993895
 20
-12.3909489079
 11
3.0238705
 21
-12.3371295441
  0
LINE
  5
28C
100
AcDbEntity
  8
CURVE
100
AcDbLine
 62
253
  6
CONTINUOUS
 10
1.8014245
 20
-12.96899505
 11
1.6539285
 21
-12.9374866948
  0
LINE
  5
28D
100
AcDbEntity
  8
0
100
AcDbLine
 62
7
  6
CONTINUOUS
 10
1.8014245
 20
-12.96899505
 11
1.6539285
 21
-12.9374866948
  0
LINE
  5
28E
100
AcDbEntity
  8
CURVE
100
AcDbLine
 62
253
  6
CONTINUOUS
 10
3.1348895
 20
-12.96899505
 11
2.9874285
 21
-12.9374866948
  0
LINE
  5
28F
100
AcDbEntity
  8
0
100
AcDbLine
 62
7
  6
CONTINUOUS
 10
3.1348895
 20
-12.96899505
 11
2.9874285
 21
-12.9374866948
  0
LINE
  5
290
100
AcDbEntity
  8
0
100
AcDbLine
 62
7
  6
CONTINUOUS
 10
-0.7718425
 20
-12.6303296852
 11
-0.7047785
 21
-12.6453085922
  0
LINE
  5
291
100
AcDbEntity
  8
CURVE
100
AcDbLine
 62
253
  6
CONTINUOUS
 10
-0.7718425
 20
-12.6303296852
 11
-0.7047785
 21
-12.6453085922
  0
LINE
  5
292
100
AcDbEntity
  8
CURVE
100
AcDbLine
 62
253
  6
CONTINUOUS
 10
1.5853485
 20
-13.1787716805
 11
1.7260715
 21
-13.2115138748
  0
LINE
  5
293
100
AcDbEntity
  8
0
100
AcDbLine
 62
7
  6
CONTINUOUS
 10
1.5853485
 20
-13.1787716805
 11
1.7260715
 21
-13.2115138748
  0
LINE
  5
294
100
AcDbEntity
  8
CURVE
100
AcDbLine
 62
253
  6
CONTINUOUS
 10
2.9188485
 20
-13.1787716805
 11
3.0595365
 21
-13.2115138748
  0
LINE
  5
295
100
AcDbEntity
  8
0
100
AcDbLine
 62
7
  6
CONTINUOUS
 10
2.9188485
 20
-13.1787716805
 11
3.0595365
 21
-13.2115138748
  0
LINE
  5
296
100
AcDbEntity
  8
0
100
AcDbLine
 62
7
  6
CONTINUOUS
 10
-0.6927845
 20
-12.3550696651
 11
-0.7504635
 21
-12.3416063321
  0
LINE
  5
297
100
AcDbEntity
  8
CURVE
100
AcDbLine
 62
253
  6
CONTINUOUS
 10
-0.6927845
 20
-12.3550696651
 11
-0.7504635
 21
-12.3416063321
  0
LINE
  5
298
100
AcDbEntity
  8
CURVE
100
AcDbLine
 62
253
  6
CONTINUOUS
 10
1.6753775
 20
-12.5883891451
 11
1.8479205
 21
-12.6295893817
  0
LINE
  5
299
100
AcDbEntity
  8
0
100
AcDbLine
 62
7
  6
CONTINUOUS
 10
1.6753775
 20
-12.5883891451
 11
1.8479205
 21
-12.6295893817
  0
LINE
  5
29A
100
AcDbEntity
  8
CURVE
100
AcDbLine
 62
253
  6
CONTINUOUS
 10
3.0088775
 20
-12.5883891451
 11
3.1814205
 21
-12.6295893817
  0
LINE
  5
29B
100
AcDbEntity
  8
0
100
AcDbLine
 62
7
  6
CONTINUOUS
 10
3.0088775
 20
-12.5883891451
 11
3.1814205
 21
-12.6295893817
  0
LINE
  5
29C
100
AcDbEntity
  8
CURVE
100
AcDbLine
 62
253
  6
CONTINUOUS
 10
2.9728585
 20
-13.5773876405
 11
2.7744915
 21
-13.5260369541
  0
LINE
  5
29D
100
AcDbEntity
  8
0
100
AcDbLine
 62
7
  6
CONTINUOUS
 10
2.9728585
 20
-13.5773876405
 11
2.7744915
 21
-13.5260369541
  0
LINE
  5
29E
100
AcDbEntity
  8
CURVE
100
AcDbLine
 62
253
  6
CONTINUOUS
 10
1.2815015
 20
-13.0573888842
 11
1.5853485
 21
-13.1787716805
  0
LINE
  5
29F
100
AcDbEntity
  8
0
100
AcDbLine
 62
7
  6
CONTINUOUS
 10
1.2815015
 20
-13.0573888842
 11
1.5853485
 21
-13.1787716805
  0
LINE
  5
2A0
100
AcDbEntity
  8
CURVE
100
AcDbLine
 62
253
  6
CONTINUOUS
 10
2.6150005
 20
-13.0573888842
 11
2.9188485
 21
-13.1787716805
  0
LINE
  5
2A1
100
AcDbEntity
  8
0
100
AcDbLine
 62
7
  6
CONTINUOUS
 10
2.6150005
 20
-13.0573888842
 11
2.9188485
 21
-13.1787716805
  0
LINE
  5
2A2
100
AcDbEntity
  8
CURVE
100
AcDbLine
 62
253
  6
CONTINUOUS
 10
1.6539285
 20
-12.9374866948
 11
1.5057615
 21
-12.874645819
  0
LINE
  5
2A3
100
AcDbEntity
  8
0
100
AcDbLine
 62
7
  6
CONTINUOUS
 10
1.6539285
 20
-12.9374866948
 11
1.5057615
 21
-12.874645819
  0
LINE
  5
2A4
100
AcDbEntity
  8
CURVE
100
AcDbLine
 62
253
  6
CONTINUOUS
 10
2.9874285
 20
-12.9374866948
 11
2.8392615
 21
-12.874645819
  0
LINE
  5
2A5
100
AcDbEntity
  8
0
100
AcDbLine
 62
7
  6
CONTINUOUS
 10
2.9874285
 20
-12.9374866948
 11
2.8392615
 21
-12.874645819
  0
LINE
  5
2A6
100
AcDbEntity
  8
CURVE
100
AcDbLine
 62
253
  6
CONTINUOUS
 10
2.0958885
 20
-13.0971095128
 11
1.8014245
 21
-12.96899505
  0
LINE
  5
2A7
100
AcDbEntity
  8
0
100
AcDbLine
 62
7
  6
CONTINUOUS
 10
2.0958885
 20
-13.0971095128
 11
1.8014245
 21
-12.96899505
  0
LINE
  5
2A8
100
AcDbEntity
  8
CURVE
100
AcDbLine
 62
253
  6
CONTINUOUS
 10
1.7260715
 20
-13.2115138748
 11
1.8647835
 21
-13.2749182205
  0
LINE
  5
2A9
100
AcDbEntity
  8
0
100
AcDbLine
 62
7
  6
CONTINUOUS
 10
1.7260715
 20
-13.2115138748
 11
1.8647835
 21
-13.2749182205
  0
LINE
  5
2AA
100
AcDbEntity
  8
CURVE
100
AcDbLine
 62
253
  6
CONTINUOUS
 10
3.0595365
 20
-13.2115138748
 11
3.1982485
 21
-13.2749182205
  0
LINE
  5
2AB
100
AcDbEntity
  8
0
100
AcDbLine
 62
7
  6
CONTINUOUS
 10
3.0595365
 20
-13.2115138748
 11
3.1982485
 21
-13.2749182205
  0
LINE
  5
2AC
100
AcDbEntity
  8
0
100
AcDbLine
 62
7
  6
CONTINUOUS
 10
-3.0729405
 20
-13.5893353994
 11
-2.8659665
 21
-13.7639730906
  0
LINE
  5
2AD
100
AcDbEntity
  8
CURVE
100
AcDbLine
 62
253
  6
CONTINUOUS
 10
-3.0729405
 20
-13.5893353994
 11
-2.8659665
 21
-13.7639730906
  0
LINE
  5
2AE
100
AcDbEntity
  8
ASSI
100
AcDbLine
 62
253
  6
CONTINUOUS
 10
-9.989489153
 20
-20.1523351459
 11
-9.989489153
 21
20.1523351459
  0
LINE
  5
2AF
100
AcDbEntity
  8
ASSI
100
AcDbLine
 62
7
  6
CONTINUOUS
 10
-5.7768324408
 20
-10.4912511336
 11
-5.5837024056
 21
-10.4912511336
  0
LINE
  5
2B0
100
AcDbEntity
  8
RACCORDO
100
AcDbLine
 62
7
  6
CONTINUOUS
 10
-5.7768324408
 20
-10.4912511336
 11
-5.5837024056
 21
-10.4912511336
  0
LINE
  5
2B1
100
AcDbEntity
  8
ASSI
100
AcDbLine
 62
7
  6
CONTINUOUS
 10
5.5837024056
 20
-10.4912511336
 11
5.7768620092
 21
-10.4912511336
  0
LINE
  5
2B2
100
AcDbEntity
  8
RACCORDO
100
AcDbLine
 62
7
  6
CONTINUOUS
 10
5.5837024056
 20
-10.4912511336
 11
5.7768620092
 21
-10.4912511336
  0
LINE
  5
2B3
100
AcDbEntity
  8
CURVE
100
AcDbLine
 62
253
  6
CONTINUOUS
 10
3.4293535
 20
-13.0971095128
 11
3.1348895
 21
-12.96899505
  0
LINE
  5
2B4
100
AcDbEntity
  8
0
100
AcDbLine
 62
7
  6
CONTINUOUS
 10
3.4293535
 20
-13.0971095128
 11
3.1348895
 21
-12.96899505
  0
LINE
  5
2B5
100
AcDbEntity
  8
0
100
AcDbLine
 62
7
  6
CONTINUOUS
 10
0.8228545
 20
-13.5383723483
 11
0.6191955
 21
-13.3824500486
  0
LINE
  5
2B6
100
AcDbEntity
  8
CURVE
100
AcDbLine
 62
253
  6
CONTINUOUS
 10
0.8228545
 20
-13.5383723483
 11
0.6191955
 21
-13.3824500486
  0
LINE
  5
2B7
100
AcDbEntity
  8
CURVE
100
AcDbLine
 62
253
  6
CONTINUOUS
 10
1.4410275
 20
-13.5260369541
 11
1.2945535
 21
-13.4095535481
  0
LINE
  5
2B8
100
AcDbEntity
  8
0
100
AcDbLine
 62
7
  6
CONTINUOUS
 10
1.4410275
 20
-13.5260369541
 11
1.2945535
 21
-13.4095535481
  0
LINE
  5
2B9
100
AcDbEntity
  8
CURVE
100
AcDbLine
 62
253
  6
CONTINUOUS
 10
1.0908595
 20
-13.5773876405
 11
1.3301495
 21
-13.7747929107
  0
LINE
  5
2BA
100
AcDbEntity
  8
0
100
AcDbLine
 62
7
  6
CONTINUOUS
 10
1.0908595
 20
-13.5773876405
 11
1.3301495
 21
-13.7747929107
  0
LINE
  5
2BB
100
AcDbEntity
  8
CURVE
100
AcDbLine
 62
253
  6
CONTINUOUS
 10
2.4243245
 20
-13.5773876405
 11
2.6636495
 21
-13.7747929107
  0
LINE
  5
2BC
100
AcDbEntity
  8
0
100
AcDbLine
 62
7
  6
CONTINUOUS
 10
2.4243245
 20
-13.5773876405
 11
2.6636495
 21
-13.7747929107
  0
LINE
  5
2BD
100
AcDbEntity
  8
RACCORDO
100
AcDbLine
 62
253
  6
CONTINUOUS
 10
10.1001218439
 20
21.65
 11
10.0014668568
 21
21.5513450129
  0
LINE
  5
2BE
100
AcDbEntity
  8
ASSI
100
AcDbLine
 62
253
  6
CONTINUOUS
 10
10.1001218439
 20
21.65
 11
10.0014668568
 21
21.5513450129
  0
LINE
  5
2BF
100
AcDbEntity
  8
ASSI
100
AcDbLine
 62
253
  6
CONTINUOUS
 10
2.1
 20
-8.8242557253
 11
-2.1
 21
-8.8242557253
  0
LINE
  5
2C0
100
AcDbEntity
  8
RACCORDO
100
AcDbLine
 62
253
  6
CONTINUOUS
 10
2.1
 20
-8.8242557253
 11
-2.1
 21
-8.8242557253
  0
LINE
  5
2C1
100
AcDbEntity
  8
ASSI
100
AcDbLine
 62
253
  6
CONTINUOUS
 10
2.1
 20
-8.7213305174
 11
-2.1
 21
-8.7213305174
  0
LINE
  5
2C2
100
AcDbEntity
  8
RACCORDO
100
AcDbLine
 62
253
  6
CONTINUOUS
 10
2.1
 20
-8.7213305174
 11
-2.1
 21
-8.7213305174
  0
LINE
  5
2C3
100
AcDbEntity
  8
RACCORDO
100
AcDbLine
 62
253
  6
CONTINUOUS
 10
-2.1
 20
-8.5372047791
 11
2.1
 21
-8.5372047791
  0
LINE
  5
2C4
100
AcDbEntity
  8
ASSI
100
AcDbLine
 62
253
  6
CONTINUOUS
 10
-2.1
 20
-8.5372047791
 11
2.1
 21
-8.5372047791
  0
LINE
  5
2C5
100
AcDbEntity
  8
0
100
AcDbLine
 62
7
  6
CONTINUOUS
 10
-2.0788135
 20
-8.5327199437
 11
2.0788145
 21
-8.5327199437
  0
LINE
  5
2C6
100
AcDbEntity
  8
RACCORDO
100
AcDbLine
 62
253
  6
CONTINUOUS
 10
-2.1
 20
-8.440033354
 11
2.1
 21
-8.440033354
  0
LINE
  5
2C7
100
AcDbEntity
  8
ASSI
100
AcDbLine
 62
253
  6
CONTINUOUS
 10
-2.1
 20
-8.440033354
 11
2.1
 21
-8.440033354
  0
LINE
  5
2C8
100
AcDbEntity
  8
CURVE
100
AcDbLine
 62
253
  6
CONTINUOUS
 10
2.7744915
 20
-13.5260369541
 11
2.6280535
 21
-13.4095535481
  0
LINE
  5
2C9
100
AcDbEntity
  8
0
100
AcDbLine
 62
7
  6
CONTINUOUS
 10
2.7744915
 20
-13.5260369541
 11
2.6280535
 21
-13.4095535481
  0
LINE
  5
2CA
100
AcDbEntity
  8
CURVE
100
AcDbLine
 62
253
  6
CONTINUOUS
 10
1.8479205
 20
-12.6295893817
 11
1.9663835
 21
-12.7292266374
  0
LINE
  5
2CB
100
AcDbEntity
  8
0
100
AcDbLine
 62
7
  6
CONTINUOUS
 10
1.8479205
 20
-12.6295893817
 11
1.9663835
 21
-12.7292266374
  0
LINE
  5
2CC
100
AcDbEntity
  8
CURVE
100
AcDbLine
 62
253
  6
CONTINUOUS
 10
3.1814205
 20
-12.6295893817
 11
3.2998835
 21
-12.7292266374
  0
LINE
  5
2CD
100
AcDbEntity
  8
0
100
AcDbLine
 62
7
  6
CONTINUOUS
 10
3.1814205
 20
-12.6295893817
 11
3.2998835
 21
-12.7292266374
  0
LINE
  5
2CE
100
AcDbEntity
  8
CURVE
100
AcDbLine
 62
253
  6
CONTINUOUS
 10
2.1760045
 20
-12.5704490242
 11
1.9659255
 21
-12.3909489079
  0
LINE
  5
2CF
100
AcDbEntity
  8
0
100
AcDbLine
 62
7
  6
CONTINUOUS
 10
2.1760045
 20
-12.5704490242
 11
1.9659255
 21
-12.3909489079
  0
LINE
  5
2D0
100
AcDbEntity
  8
CURVE
100
AcDbLine
 62
253
  6
CONTINUOUS
 10
3.5095045
 20
-12.5704490242
 11
3.2993895
 21
-12.3909489079
  0
LINE
  5
2D1
100
AcDbEntity
  8
0
100
AcDbLine
 62
7
  6
CONTINUOUS
 10
3.5095045
 20
-12.5704490242
 11
3.2993895
 21
-12.3909489079
  0
LINE
  5
2D2
100
AcDbEntity
  8
RACCORDO
100
AcDbLine
 62
253
  6
CONTINUOUS
 10
10.0014668568
 20
-21.5513450129
 11
10.1001218439
 21
-21.65
  0
LINE
  5
2D3
100
AcDbEntity
  8
ASSI
100
AcDbLine
 62
253
  6
CONTINUOUS
 10
10.0014668568
 20
-21.5513450129
 11
10.1001218439
 21
-21.65
  0
LINE
  5
2D4
100
AcDbEntity
  8
SMUSSO
100
AcDbLine
 62
7
  6
CONTINUOUS
 10
-6.0756258196
 20
-10.9930070622
 11
-6.0752358421
 21
-11.0
  0
LINE
  5
2D5
100
AcDbEntity
  8
RACCORDO
100
AcDbLine
 62
253
  6
CONTINUOUS
 10
10.9
 20
20.8501218439
 11
10.8013450129
 21
20.7514668568
  0
LINE
  5
2D6
100
AcDbEntity
  8
ASSI
100
AcDbLine
 62
253
  6
CONTINUOUS
 10
10.9
 20
20.8501218439
 11
10.8013450129
 21
20.7514668568
  0
LINE
  5
2D7
100
AcDbEntity
  8
RACCORDO
100
AcDbLine
 62
253
  6
CONTINUOUS
 10
10.8013450129
 20
-20.7514668568
 11
10.9
 21
-20.8501218439
  0
LINE
  5
2D8
100
AcDbEntity
  8
ASSI
100
AcDbLine
 62
253
  6
CONTINUOUS
 10
10.8013450129
 20
-20.7514668568
 11
10.9
 21
-20.8501218439
  0
LINE
  5
2D9
100
AcDbEntity
  8
ASSI
100
AcDbLine
 62
7
  6
CONTINUOUS
 10
-4.5
 20
-16.567912555
 11
-4.5
 21
-16.7447544604
  0
LINE
  5
2DA
100
AcDbEntity
  8
ASSI
100
AcDbLine
 62
7
  6
CONTINUOUS
 10
-4.3
 20
-16.6945906404
 11
-4.3
 21
-16.8652651705
  0
LINE
  5
2DB
100
AcDbEntity
  8
RACCORDO
100
AcDbLine
 62
7
  6
CONTINUOUS
 10
-4.3
 20
-16.6945906404
 11
-4.3
 21
-16.8652651705
  0
LINE
  5
2DC
100
AcDbEntity
  8
CURVE
100
AcDbLine
 62
253
  6
CONTINUOUS
 10
1.5057615
 20
-12.874645819
 11
1.4383105
 21
-12.7472366926
  0
LINE
  5
2DD
100
AcDbEntity
  8
0
100
AcDbLine
 62
7
  6
CONTINUOUS
 10
1.5057615
 20
-12.874645819
 11
1.4383105
 21
-12.7472366926
  0
LINE
  5
2DE
100
AcDbEntity
  8
CURVE
100
AcDbLine
 62
253
  6
CONTINUOUS
 10
2.8392615
 20
-12.874645819
 11
2.7718105
 21
-12.7472366926
  0
LINE
  5
2DF
100
AcDbEntity
  8
0
100
AcDbLine
 62
7
  6
CONTINUOUS
 10
2.8392615
 20
-12.874645819
 11
2.7718105
 21
-12.7472366926
  0
LINE
  5
2E0
100
AcDbEntity
  8
0
100
AcDbLine
 62
7
  6
CONTINUOUS
 10
-3.3484255
 20
-12.3730797202
 11
-3.3484255
 21
-14.6375112174
  0
LINE
  5
2E1
100
AcDbEntity
  8
CURVE
100
AcDbLine
 62
253
  6
CONTINUOUS
 10
-3.3484255
 20
-12.3730797202
 11
-3.3484255
 21
-14.6375112174
  0
LINE
  5
2E2
100
AcDbEntity
  8
0
100
AcDbLine
 62
7
  6
CONTINUOUS
 10
-3.0789385
 20
-14.6375112174
 11
-3.0789385
 21
-13.5893353994
  0
LINE
  5
2E3
100
AcDbEntity
  8
CURVE
100
AcDbLine
 62
253
  6
CONTINUOUS
 10
-3.0789385
 20
-14.6375112174
 11
-3.0789385
 21
-13.5893353994
  0
LINE
  5
2E4
100
AcDbEntity
  8
0
100
AcDbLine
 62
7
  6
CONTINUOUS
 10
-3.0789385
 20
-12.5764054201
 11
-3.0789385
 21
-12.3730797202
  0
LINE
  5
2E5
100
AcDbEntity
  8
CURVE
100
AcDbLine
 62
253
  6
CONTINUOUS
 10
-3.0789385
 20
-12.5764054201
 11
-3.0789385
 21
-12.3730797202
  0
LINE
  5
2E6
100
AcDbEntity
  8
RACCORDO
100
AcDbLine
 62
253
  6
CONTINUOUS
 10
-2.1
 20
-8.440033354
 11
-2.1
 21
-8.5372047791
  0
LINE
  5
2E7
100
AcDbEntity
  8
ASSI
100
AcDbLine
 62
253
  6
CONTINUOUS
 10
-2.1
 20
-8.440033354
 11
-2.1
 21
-8.5372047791
  0
LINE
  5
2E8
100
AcDbEntity
  8
ASSI
100
AcDbLine
 62
253
  6
CONTINUOUS
 10
-2.1
 20
-17.1907473537
 11
-2.1
 21
-17.2850037836
  0
LINE
  5
2E9
100
AcDbEntity
  8
RACCORDO
100
AcDbLine
 62
253
  6
CONTINUOUS
 10
-2.1
 20
-17.1907473537
 11
-2.1
 21
-17.2850037836
  0
LINE
  5
2EA
100
AcDbEntity
  8
ASSI
100
AcDbLine
 62
253
  6
CONTINUOUS
 10
-2.1
 20
-8.8242557253
 11
-2.0999999985
 21
-8.7213305174
  0
LINE
  5
2EB
100
AcDbEntity
  8
RACCORDO
100
AcDbLine
 62
253
  6
CONTINUOUS
 10
-2.1
 20
-8.8242557253
 11
-2.0999999985
 21
-8.7213305174
  0
LINE
  5
2EC
100
AcDbEntity
  8
RACCORDO
100
AcDbLine
 62
253
  6
CONTINUOUS
 10
-2.1
 20
-17.5617289211
 11
-2.0999999864
 21
-17.4558902419
  0
LINE
  5
2ED
100
AcDbEntity
  8
ASSI
100
AcDbLine
 62
253
  6
CONTINUOUS
 10
-2.1
 20
-17.5617289211
 11
-2.0999999864
 21
-17.4558902419
  0
LINE
  5
2EE
100
AcDbEntity
  8
0
100
AcDbLine
 62
7
  6
CONTINUOUS
 10
0.8887185
 20
-13.0858660912
 11
0.8204905
 21
-12.7292965716
  0
LINE
  5
2EF
100
AcDbEntity
  8
CURVE
100
AcDbLine
 62
253
  6
CONTINUOUS
 10
0.8887185
 20
-13.0858660912
 11
0.8204905
 21
-12.7292965716
  0
LINE
  5
2F0
100
AcDbEntity
  8
0
100
AcDbLine
 62
7
  6
CONTINUOUS
 10
-1.2441405
 20
-12.5917719624
 11
-1.2445295
 21
-12.3730797202
  0
LINE
  5
2F1
100
AcDbEntity
  8
CURVE
100
AcDbLine
 62
253
  6
CONTINUOUS
 10
-1.2441405
 20
-12.5917719624
 11
-1.2445295
 21
-12.3730797202
  0
LINE
  5
2F2
100
AcDbEntity
  8
0
100
AcDbLine
 62
7
  6
CONTINUOUS
 10
-1.5140155
 20
-12.3730797202
 11
-1.5140155
 21
-13.7926970654
  0
LINE
  5
2F3
100
AcDbEntity
  8
CURVE
100
AcDbLine
 62
253
  6
CONTINUOUS
 10
-1.5140155
 20
-12.3730797202
 11
-1.5140155
 21
-13.7926970654
  0
LINE
  5
2F4
100
AcDbEntity
  8
0
100
AcDbLine
 62
7
  6
CONTINUOUS
 10
-1.2445295
 20
-13.7926970654
 11
-1.2445295
 21
-13.0796988937
  0
LINE
  5
2F5
100
AcDbEntity
  8
CURVE
100
AcDbLine
 62
253
  6
CONTINUOUS
 10
-1.2445295
 20
-13.7926970654
 11
-1.2445295
 21
-13.0796988937
  0
LINE
  5
2F6
100
AcDbEntity
  8
0
100
AcDbLine
 62
7
  6
CONTINUOUS
 10
-0.7047785
 20
-12.6453085922
 11
-0.6927845
 21
-12.3550696651
  0
LINE
  5
2F7
100
AcDbEntity
  8
CURVE
100
AcDbLine
 62
253
  6
CONTINUOUS
 10
-0.7047785
 20
-12.6453085922
 11
-0.6927845
 21
-12.3550696651
  0
LINE
  5
2F8
100
AcDbEntity
  8
0
100
AcDbLine
 62
7
  6
CONTINUOUS
 10
0.8887185
 20
-13.1815560608
 11
0.8887185
 21
-13.0858660912
  0
LINE
  5
2F9
100
AcDbEntity
  8
CURVE
100
AcDbLine
 62
253
  6
CONTINUOUS
 10
0.8887185
 20
-13.1815560608
 11
0.8887185
 21
-13.0858660912
  0
LINE
  5
2FA
100
AcDbEntity
  8
RACCORDO
100
AcDbLine
 62
253
  6
CONTINUOUS
 10
2.1
 20
-17.5617289211
 11
2.1
 21
-17.4558902419
  0
LINE
  5
2FB
100
AcDbEntity
  8
ASSI
100
AcDbLine
 62
253
  6
CONTINUOUS
 10
2.1
 20
-17.5617289211
 11
2.1
 21
-17.4558902419
  0
LINE
  5
2FC
100
AcDbEntity
  8
ASSI
100
AcDbLine
 62
253
  6
CONTINUOUS
 10
2.1
 20
-8.8242557253
 11
2.1
 21
-8.7213305174
  0
LINE
  5
2FD
100
AcDbEntity
  8
RACCORDO
100
AcDbLine
 62
253
  6
CONTINUOUS
 10
2.1
 20
-8.8242557253
 11
2.1
 21
-8.7213305174
  0
LINE
  5
2FE
100
AcDbEntity
  8
ASSI
100
AcDbLine
 62
253
  6
CONTINUOUS
 10
2.1
 20
-17.1907473537
 11
2.0999999985
 21
-17.2850037836
  0
LINE
  5
2FF
100
AcDbEntity
  8
RACCORDO
100
AcDbLine
 62
253
  6
CONTINUOUS
 10
2.1
 20
-17.1907473537
 11
2.0999999985
 21
-17.2850037836
  0
LINE
  5
300
100
AcDbEntity
  8
RACCORDO
100
AcDbLine
 62
253
  6
CONTINUOUS
 10
2.1
 20
-8.440033354
 11
2.0999999865
 21
-8.5372047791
  0
LINE
  5
301
100
AcDbEntity
  8
ASSI
100
AcDbLine
 62
253
  6
CONTINUOUS
 10
2.1
 20
-8.440033354
 11
2.0999999865
 21
-8.5372047791
  0
LINE
  5
302
100
AcDbEntity
  8
CURVE
100
AcDbLine
 62
253
  6
CONTINUOUS
 10
-0.2507545
 20
-12.9662466359
 11
-0.1957555
 21
-12.7750085632
  0
LINE
  5
303
100
AcDbEntity
  8
0
100
AcDbLine
 62
7
  6
CONTINUOUS
 10
-0.2507545
 20
-12.9662466359
 11
-0.1957555
 21
-12.7750085632
  0
LINE
  5
304
100
AcDbEntity
  8
ASSI
100
AcDbLine
 62
7
  6
CONTINUOUS
 10
4.3
 20
-16.8652651705
 11
4.3
 21
-16.6945906404
  0
LINE
  5
305
100
AcDbEntity
  8
RACCORDO
100
AcDbLine
 62
7
  6
CONTINUOUS
 10
4.3
 20
-16.8652651705
 11
4.3
 21
-16.6945906404
  0
LINE
  5
306
100
AcDbEntity
  8
ASSI
100
AcDbLine
 62
7
  6
CONTINUOUS
 10
4.5
 20
-16.7447544604
 11
4.5
 21
-16.567912555
  0
LINE
  5
307
100
AcDbEntity
  8
CURVE
100
AcDbLine
 62
253
  6
CONTINUOUS
 10
1.2313715
 20
-12.5291069212
 11
1.1508325
 21
-12.7741983256
  0
LINE
  5
308
100
AcDbEntity
  8
0
100
AcDbLine
 62
7
  6
CONTINUOUS
 10
1.2313715
 20
-12.5291069212
 11
1.1508325
 21
-12.7741983256
  0
LINE
  5
309
100
AcDbEntity
  8
SMUSSO
100
AcDbLine
 62
7
  6
CONTINUOUS
 10
6.0756257329
 20
-10.9930086355
 11
6.0752358421
 21
-11.0
  0
LINE
  5
30A
100
AcDbEntity
  8
CURVE
100
AcDbLine
 62
253
  6
CONTINUOUS
 10
2.5648355
 20
-12.5291069212
 11
2.4842965
 21
-12.7741983256
  0
LINE
  5
30B
100
AcDbEntity
  8
0
100
AcDbLine
 62
7
  6
CONTINUOUS
 10
2.5648355
 20
-12.5291069212
 11
2.4842965
 21
-12.7741983256
  0
LINE
  5
30C
100
AcDbEntity
  8
CURVE
100
AcDbLine
 62
253
  6
CONTINUOUS
 10
2.1284145
 20
-13.6406521178
 11
2.2149505
 21
-13.3825909161
  0
LINE
  5
30D
100
AcDbEntity
  8
0
100
AcDbLine
 62
7
  6
CONTINUOUS
 10
2.1284145
 20
-13.6406521178
 11
2.2149505
 21
-13.3825909161
  0
LINE
  5
30E
100
AcDbEntity
  8
ASSI
100
AcDbLine
 62
7
  6
CONTINUOUS
 10
-3.3484255
 20
-12.5147326573
 11
-3.2067725629
 21
-12.3730797202
  0
LINE
  5
30F
100
AcDbEntity
  8
CURVE
100
AcDbLine
 62
7
  6
CONTINUOUS
 10
-3.3484255
 20
-12.5147326573
 11
-3.2067725629
 21
-12.3730797202
  0
LINE
  5
310
100
AcDbEntity
  8
ASSI
100
AcDbLine
 62
7
  6
CONTINUOUS
 10
-3.3484255
 20
-12.7247433714
 11
-3.0789385
 21
-12.4552563714
  0
LINE
  5
311
100
AcDbEntity
  8
CURVE
100
AcDbLine
 62
7
  6
CONTINUOUS
 10
-3.3484255
 20
-12.7247433714
 11
-3.0789385
 21
-12.4552563714
  0
LINE
  5
312
100
AcDbEntity
  8
ASSI
100
AcDbLine
 62
7
  6
CONTINUOUS
 10
-3.3484255
 20
-12.9347540854
 11
-2.8003606732
 21
-12.3866892586
  0
LINE
  5
313
100
AcDbEntity
  8
CURVE
100
AcDbLine
 62
7
  6
CONTINUOUS
 10
-3.3484255
 20
-12.9347540854
 11
-2.8003606732
 21
-12.3866892586
  0
LINE
  5
314
100
AcDbEntity
  8
ASSI
100
AcDbLine
 62
7
  6
CONTINUOUS
 10
-3.3484255
 20
-13.1447647994
 11
-3.0080692332
 21
-12.8044085326
  0
LINE
  5
315
100
AcDbEntity
  8
CURVE
100
AcDbLine
 62
7
  6
CONTINUOUS
 10
-3.3484255
 20
-13.1447647994
 11
-3.0080692332
 21
-12.8044085326
  0
LINE
  5
316
100
AcDbEntity
  8
ASSI
100
AcDbLine
 62
7
  6
CONTINUOUS
 10
-2.8525042776
 20
-12.648843577
 11
-2.5415103869
 21
-12.3378496863
  0
LINE
  5
317
100
AcDbEntity
  8
CURVE
100
AcDbLine
 62
7
  6
CONTINUOUS
 10
-2.8525042776
 20
-12.648843577
 11
-2.5415103869
 21
-12.3378496863
  0
LINE
  5
318
100
AcDbEntity
  8
RACCORDO
100
AcDbLine
 62
253
  6
CONTINUOUS
 10
-10.9
 20
-20.8501218439
 11
-10.8013450129
 21
-20.7514668568
  0
LINE
  5
319
100
AcDbEntity
  8
ASSI
100
AcDbLine
 62
253
  6
CONTINUOUS
 10
-10.9
 20
-20.8501218439
 11
-10.8013450129
 21
-20.7514668568
  0
LINE
  5
31A
100
AcDbEntity
  8
ASSI
100
AcDbLine
 62
7
  6
CONTINUOUS
 10
-3.3484255
 20
-13.3547755134
 11
-3.0789453351
 21
-13.0852953485
  0
LINE
  5
31B
100
AcDbEntity
  8
CURVE
100
AcDbLine
 62
7
  6
CONTINUOUS
 10
-3.3484255
 20
-13.3547755134
 11
-3.0789453351
 21
-13.0852953485
  0
LINE
  5
31C
100
AcDbEntity
  8
ASSI
100
AcDbLine
 62
7
  6
CONTINUOUS
 10
-2.5820684894
 20
-12.5884185028
 11
-2.3611582653
 21
-12.3675082786
  0
LINE
  5
31D
100
AcDbEntity
  8
CURVE
100
AcDbLine
 62
7
  6
CONTINUOUS
 10
-2.5820684894
 20
-12.5884185028
 11
-2.3611582653
 21
-12.3675082786
  0
LINE
  5
31E
100
AcDbEntity
  8
ASSI
100
AcDbLine
 62
7
  6
CONTINUOUS
 10
-3.3484255
 20
-13.5647862274
 11
-3.0511867306
 21
-13.267547458
  0
LINE
  5
31F
100
AcDbEntity
  8
CURVE
100
AcDbLine
 62
7
  6
CONTINUOUS
 10
-3.3484255
 20
-13.5647862274
 11
-3.0511867306
 21
-13.267547458
  0
LINE
  5
320
100
AcDbEntity
  8
ASSI
100
AcDbLine
 62
7
  6
CONTINUOUS
 10
-2.411335056
 20
-12.6276957834
 11
-2.2133443026
 21
-12.42970503
  0
LINE
  5
321
100
AcDbEntity
  8
CURVE
100
AcDbLine
 62
7
  6
CONTINUOUS
 10
-2.411335056
 20
-12.6276957834
 11
-2.2133443026
 21
-12.42970503
  0
LINE
  5
322
100
AcDbEntity
  8
ASSI
100
AcDbLine
 62
7
  6
CONTINUOUS
 10
-3.3484255
 20
-13.7747969414
 11
-2.9788947873
 21
-13.4052662287
  0
LINE
  5
323
100
AcDbEntity
  8
CURVE
100
AcDbLine
 62
7
  6
CONTINUOUS
 10
-3.3484255
 20
-13.7747969414
 11
-2.9788947873
 21
-13.4052662287
  0
LINE
  5
324
100
AcDbEntity
  8
ASSI
100
AcDbLine
 62
7
  6
CONTINUOUS
 10
-2.2853848315
 20
-12.711756273
 11
-2.0900773668
 21
-12.5164488082
  0
LINE
  5
325
100
AcDbEntity
  8
CURVE
100
AcDbLine
 62
7
  6
CONTINUOUS
 10
-2.2853848315
 20
-12.711756273
 11
-2.0900773668
 21
-12.5164488082
  0
LINE
  5
326
100
AcDbEntity
  8
ASSI
100
AcDbLine
 62
7
  6
CONTINUOUS
 10
-3.3484255
 20
-13.9848076554
 11
-3.0789385
 21
-13.7153206554
  0
LINE
  5
327
100
AcDbEntity
  8
CURVE
100
AcDbLine
 62
7
  6
CONTINUOUS
 10
-3.3484255
 20
-13.9848076554
 11
-3.0789385
 21
-13.7153206554
  0
LINE
  5
328
100
AcDbEntity
  8
ASSI
100
AcDbLine
 62
7
  6
CONTINUOUS
 10
-3.0078632424
 20
-13.6442453978
 11
-2.8697600191
 21
-13.5061421746
  0
LINE
  5
329
100
AcDbEntity
  8
CURVE
100
AcDbLine
 62
7
  6
CONTINUOUS
 10
-3.0078632424
 20
-13.6442453978
 11
-2.8697600191
 21
-13.5061421746
  0
LINE
  5
32A
100
AcDbEntity
  8
ASSI
100
AcDbLine
 62
7
  6
CONTINUOUS
 10
-2.1976399979
 20
-12.8340221533
 11
-1.9917300607
 21
-12.6281122161
  0
LINE
  5
32B
100
AcDbEntity
  8
CURVE
100
AcDbLine
 62
7
  6
CONTINUOUS
 10
-2.1976399979
 20
-12.8340221533
 11
-1.9917300607
 21
-12.6281122161
  0
LINE
  5
32C
100
AcDbEntity
  8
RACCORDO
100
AcDbLine
 62
253
  6
CONTINUOUS
 10
-10.8013450129
 20
20.7514668568
 11
-10.9
 21
20.8501218439
  0
LINE
  5
32D
100
AcDbEntity
  8
ASSI
100
AcDbLine
 62
253
  6
CONTINUOUS
 10
-10.8013450129
 20
20.7514668568
 11
-10.9
 21
20.8501218439
  0
LINE
  5
32E
100
AcDbEntity
  8
CURVE
100
AcDbLine
 62
253
  6
CONTINUOUS
 10
3.4619145
 20
-13.6406521178
 11
3.5484515
 21
-13.3825909161
  0
LINE
  5
32F
100
AcDbEntity
  8
0
100
AcDbLine
 62
7
  6
CONTINUOUS
 10
3.4619145
 20
-13.6406521178
 11
3.5484515
 21
-13.3825909161
  0
LINE
  5
330
100
AcDbEntity
  8
CURVE
100
AcDbLine
 62
253
  6
CONTINUOUS
 10
1.4383105
 20
-12.7472366926
 11
1.5095715
 21
-12.6295893817
  0
LINE
  5
331
100
AcDbEntity
  8
0
100
AcDbLine
 62
7
  6
CONTINUOUS
 10
1.4383105
 20
-12.7472366926
 11
1.5095715
 21
-12.6295893817
  0
LINE
  5
332
100
AcDbEntity
  8
CURVE
100
AcDbLine
 62
253
  6
CONTINUOUS
 10
2.7718105
 20
-12.7472366926
 11
2.8430715
 21
-12.6295893817
  0
LINE
  5
333
100
AcDbEntity
  8
0
100
AcDbLine
 62
7
  6
CONTINUOUS
 10
2.7718105
 20
-12.7472366926
 11
2.8430715
 21
-12.6295893817
  0
LINE
  5
334
100
AcDbEntity
  8
0
100
AcDbLine
 62
7
  6
CONTINUOUS
 10
-1.0658475
 20
-12.4082536266
 11
-1.2381435
 21
-12.5917719624
  0
LINE
  5
335
100
AcDbEntity
  8
CURVE
100
AcDbLine
 62
253
  6
CONTINUOUS
 10
-1.0658475
 20
-12.4082536266
 11
-1.2381435
 21
-12.5917719624
  0
LINE
  5
336
100
AcDbEntity
  8
CURVE
100
AcDbLine
 62
253
  6
CONTINUOUS
 10
-0.1957555
 20
-12.7750085632
 11
-0.0427565
 21
-12.6177475232
  0
LINE
  5
337
100
AcDbEntity
  8
0
100
AcDbLine
 62
7
  6
CONTINUOUS
 10
-0.1957555
 20
-12.7750085632
 11
-0.0427565
 21
-12.6177475232
  0
LINE
  5
338
100
AcDbEntity
  8
ASSI
100
AcDbLine
 62
7
  6
CONTINUOUS
 10
-3.3484255
 20
-14.1948183694
 11
-3.0789385
 21
-13.9253313694
  0
LINE
  5
339
100
AcDbEntity
  8
CURVE
100
AcDbLine
 62
7
  6
CONTINUOUS
 10
-3.3484255
 20
-14.1948183694
 11
-3.0789385
 21
-13.9253313694
  0
LINE
  5
33A
100
AcDbEntity
  8
ASSI
100
AcDbLine
 62
7
  6
CONTINUOUS
 10
-2.8939601348
 20
-13.7403530042
 11
-2.7209456271
 21
-13.5673384965
  0
LINE
  5
33B
100
AcDbEntity
  8
CURVE
100
AcDbLine
 62
7
  6
CONTINUOUS
 10
-2.8939601348
 20
-13.7403530042
 11
-2.7209456271
 21
-13.5673384965
  0
LINE
  5
33C
100
AcDbEntity
  8
ASSI
100
AcDbLine
 62
7
  6
CONTINUOUS
 10
-2.1478023156
 20
-12.9941951851
 11
-1.9171313171
 21
-12.7635241865
  0
LINE
  5
33D
100
AcDbEntity
  8
CURVE
100
AcDbLine
 62
7
  6
CONTINUOUS
 10
-2.1478023156
 20
-12.9941951851
 11
-1.9171313171
 21
-12.7635241865
  0
LINE
  5
33E
100
AcDbEntity
  8
ASSI
100
AcDbLine
 62
7
  6
CONTINUOUS
 10
-3.3484255
 20
-14.4048290835
 11
-3.0789385
 21
-14.1353420835
  0
LINE
  5
33F
100
AcDbEntity
  8
CURVE
100
AcDbLine
 62
7
  6
CONTINUOUS
 10
-3.3484255
 20
-14.4048290835
 11
-3.0789385
 21
-14.1353420835
  0
LINE
  5
340
100
AcDbEntity
  8
ASSI
100
AcDbLine
 62
7
  6
CONTINUOUS
 10
-2.7366160324
 20
-13.7930196159
 11
-2.5136557897
 21
-13.5700593732
  0
LINE
  5
341
100
AcDbEntity
  8
CURVE
100
AcDbLine
 62
7
  6
CONTINUOUS
 10
-2.7366160324
 20
-13.7930196159
 11
-2.5136557897
 21
-13.5700593732
  0
LINE
  5
342
100
AcDbEntity
  8
ASSI
100
AcDbLine
 62
7
  6
CONTINUOUS
 10
-2.1547590271
 20
-13.2111626106
 11
-1.8684231376
 21
-12.9248267211
  0
LINE
  5
343
100
AcDbEntity
  8
CURVE
100
AcDbLine
 62
7
  6
CONTINUOUS
 10
-2.1547590271
 20
-13.2111626106
 11
-1.8684231376
 21
-12.9248267211
  0
LINE
  5
344
100
AcDbEntity
  8
ASSI
100
AcDbLine
 62
7
  6
CONTINUOUS
 10
-1.5140155
 20
-12.5704190835
 11
-1.3166761367
 21
-12.3730797202
  0
LINE
  5
345
100
AcDbEntity
  8
CURVE
100
AcDbLine
 62
7
  6
CONTINUOUS
 10
-1.5140155
 20
-12.5704190835
 11
-1.3166761367
 21
-12.3730797202
  0
LINE
  5
346
100
AcDbEntity
  8
ASSI
100
AcDbLine
 62
7
  6
CONTINUOUS
 10
-3.3484255
 20
-14.6148397975
 11
-3.0789385
 21
-14.3453527975
  0
LINE
  5
347
100
AcDbEntity
  8
CURVE
100
AcDbLine
 62
7
  6
CONTINUOUS
 10
-3.3484255
 20
-14.6148397975
 11
-3.0789385
 21
-14.3453527975
  0
LINE
  5
348
100
AcDbEntity
  8
ASSI
100
AcDbLine
 62
7
  6
CONTINUOUS
 10
-2.5621350299
 20
-13.8285493274
 11
-1.8557124984
 21
-13.1221267959
  0
LINE
  5
349
100
AcDbEntity
  8
CURVE
100
AcDbLine
 62
7
  6
CONTINUOUS
 10
-2.5621350299
 20
-13.8285493274
 11
-1.8557124984
 21
-13.1221267959
  0
LINE
  5
34A
100
AcDbEntity
  8
ASSI
100
AcDbLine
 62
7
  6
CONTINUOUS
 10
-1.5140155
 20
-12.7804297975
 11
-1.244284709
 21
-12.5106990064
  0
LINE
  5
34B
100
AcDbEntity
  8
CURVE
100
AcDbLine
 62
7
  6
CONTINUOUS
 10
-1.5140155
 20
-12.7804297975
 11
-1.244284709
 21
-12.5106990064
  0
LINE
  5
34C
100
AcDbEntity
  8
ASSI
100
AcDbLine
 62
7
  6
CONTINUOUS
 10
-3.1610862059
 20
-14.6375112174
 11
-3.0789385
 21
-14.5553635115
  0
LINE
  5
34D
100
AcDbEntity
  8
CURVE
100
AcDbLine
 62
7
  6
CONTINUOUS
 10
-3.1610862059
 20
-14.6375112174
 11
-3.0789385
 21
-14.5553635115
  0
LINE
  5
34E
100
AcDbEntity
  8
ASSI
100
AcDbLine
 62
7
  6
CONTINUOUS
 10
-2.3053391329
 20
-13.7817641444
 11
-1.9102461863
 21
-13.3866711978
  0
LINE
  5
34F
100
AcDbEntity
  8
CURVE
100
AcDbLine
 62
7
  6
CONTINUOUS
 10
-2.3053391329
 20
-13.7817641444
 11
-1.9102461863
 21
-13.3866711978
  0
LINE
  5
350
100
AcDbEntity
  8
ASSI
100
AcDbLine
 62
7
  6
CONTINUOUS
 10
-1.5140155
 20
-12.9904405115
 11
-0.8794838895
 21
-12.355908901
  0
LINE
  5
351
100
AcDbEntity
  8
CURVE
100
AcDbLine
 62
7
  6
CONTINUOUS
 10
-1.5140155
 20
-12.9904405115
 11
-0.8794838895
 21
-12.355908901
  0
LINE
  5
352
100
AcDbEntity
  8
RACCORDO
100
AcDbLine
 62
253
  6
CONTINUOUS
 10
-10.1001218439
 20
-21.65
 11
-10.0014668568
 21
-21.5513450129
  0
LINE
  5
353
100
AcDbEntity
  8
ASSI
100
AcDbLine
 62
253
  6
CONTINUOUS
 10
-10.1001218439
 20
-21.65
 11
-10.0014668568
 21
-21.5513450129
  0
LINE
  5
354
100
AcDbEntity
  8
ASSI
100
AcDbLine
 62
7
  6
CONTINUOUS
 10
-1.5140155
 20
-13.2004512255
 11
-1.2296505298
 21
-12.9160862553
  0
LINE
  5
355
100
AcDbEntity
  8
CURVE
100
AcDbLine
 62
7
  6
CONTINUOUS
 10
-1.5140155
 20
-13.2004512255
 11
-1.2296505298
 21
-12.9160862553
  0
LINE
  5
356
100
AcDbEntity
  8
ASSI
100
AcDbLine
 62
7
  6
CONTINUOUS
 10
-0.9451415408
 20
-12.6315772663
 11
-0.6938255318
 21
-12.3802612573
  0
LINE
  5
357
100
AcDbEntity
  8
CURVE
100
AcDbLine
 62
7
  6
CONTINUOUS
 10
-0.9451415408
 20
-12.6315772663
 11
-0.6938255318
 21
-12.3802612573
  0
LINE
  5
358
100
AcDbEntity
  8
ASSI
100
AcDbLine
 62
7
  6
CONTINUOUS
 10
-1.5140155
 20
-13.4104619395
 11
-1.2445295
 21
-13.1409759395
  0
LINE
  5
359
100
AcDbEntity
  8
CURVE
100
AcDbLine
 62
7
  6
CONTINUOUS
 10
-1.5140155
 20
-13.4104619395
 11
-1.2445295
 21
-13.1409759395
  0
LINE
  5
35A
100
AcDbEntity
  8
ASSI
100
AcDbLine
 62
7
  6
CONTINUOUS
 10
-0.740813621
 20
-12.6372600605
 11
-0.7028782342
 21
-12.5993246737
  0
LINE
  5
35B
100
AcDbEntity
  8
CURVE
100
AcDbLine
 62
7
  6
CONTINUOUS
 10
-0.740813621
 20
-12.6372600605
 11
-0.7028782342
 21
-12.5993246737
  0
LINE
  5
35C
100
AcDbEntity
  8
ASSI
100
AcDbLine
 62
7
  6
CONTINUOUS
 10
-1.5140155
 20
-13.6204726535
 11
-1.2445295
 21
-13.3509866535
  0
LINE
  5
35D
100
AcDbEntity
  8
CURVE
100
AcDbLine
 62
7
  6
CONTINUOUS
 10
-1.5140155
 20
-13.6204726535
 11
-1.2445295
 21
-13.3509866535
  0
LINE
  5
35E
100
AcDbEntity
  8
ASSI
100
AcDbLine
 62
7
  6
CONTINUOUS
 10
-1.4762291979
 20
-13.7926970654
 11
-1.2445295
 21
-13.5609973675
  0
LINE
  5
35F
100
AcDbEntity
  8
CURVE
100
AcDbLine
 62
7
  6
CONTINUOUS
 10
-1.4762291979
 20
-13.7926970654
 11
-1.2445295
 21
-13.5609973675
  0
LINE
  5
360
100
AcDbEntity
  8
ASSI
100
AcDbLine
 62
7
  6
CONTINUOUS
 10
-0.4911167346
 20
-12.8075846021
 11
-0.0592888388
 21
-12.3757567063
  0
LINE
  5
361
100
AcDbEntity
  8
CURVE
100
AcDbLine
 62
7
  6
CONTINUOUS
 10
-0.4911167346
 20
-12.8075846021
 11
-0.0592888388
 21
-12.3757567063
  0
LINE
  5
362
100
AcDbEntity
  8
ASSI
100
AcDbLine
 62
7
  6
CONTINUOUS
 10
-1.2662184839
 20
-13.7926970654
 11
-1.2445295
 21
-13.7710080815
  0
LINE
  5
363
100
AcDbEntity
  8
CURVE
100
AcDbLine
 62
7
  6
CONTINUOUS
 10
-1.2662184839
 20
-13.7926970654
 11
-1.2445295
 21
-13.7710080815
  0
LINE
  5
364
100
AcDbEntity
  8
ASSI
100
AcDbLine
 62
7
  6
CONTINUOUS
 10
-0.5379754341
 20
-13.0644540157
 11
0.1893777286
 21
-12.3371008529
  0
LINE
  5
365
100
AcDbEntity
  8
CURVE
100
AcDbLine
 62
7
  6
CONTINUOUS
 10
-0.5379754341
 20
-13.0644540157
 11
0.1893777286
 21
-12.3371008529
  0
LINE
  5
366
100
AcDbEntity
  8
ASSI
100
AcDbLine
 62
7
  6
CONTINUOUS
 10
-0.5220909632
 20
-13.2585802588
 11
-0.2297573444
 21
-12.9662466399
  0
LINE
  5
367
100
AcDbEntity
  8
CURVE
100
AcDbLine
 62
7
  6
CONTINUOUS
 10
-0.5220909632
 20
-13.2585802588
 11
-0.2297573444
 21
-12.9662466399
  0
LINE
  5
368
100
AcDbEntity
  8
ASSI
100
AcDbLine
 62
7
  6
CONTINUOUS
 10
0.1816346032
 20
-12.5548546924
 11
0.380380926
 21
-12.3561083695
  0
LINE
  5
369
100
AcDbEntity
  8
CURVE
100
AcDbLine
 62
7
  6
CONTINUOUS
 10
0.1816346032
 20
-12.5548546924
 11
0.380380926
 21
-12.3561083695
  0
LINE
  5
36A
100
AcDbEntity
  8
ASSI
100
AcDbLine
 62
7
  6
CONTINUOUS
 10
-0.4705381672
 20
-13.4170381768
 11
-0.2501687525
 21
-13.1966687621
  0
LINE
  5
36B
100
AcDbEntity
  8
CURVE
100
AcDbLine
 62
7
  6
CONTINUOUS
 10
-0.4705381672
 20
-13.4170381768
 11
-0.2501687525
 21
-13.1966687621
  0
LINE
  5
36C
100
AcDbEntity
  8
ASSI
100
AcDbLine
 62
7
  6
CONTINUOUS
 10
-0.2350558232
 20
-13.1815558327
 11
-0.0197466709
 21
-12.9662466804
  0
LINE
  5
36D
100
AcDbEntity
  8
CURVE
100
AcDbLine
 62
7
  6
CONTINUOUS
 10
-0.2350558232
 20
-13.1815558327
 11
-0.0197466709
 21
-12.9662466804
  0
LINE
  5
36E
100
AcDbEntity
  8
ASSI
100
AcDbLine
 62
7
  6
CONTINUOUS
 10
0.3643403303
 20
-12.5821596793
 11
0.5335595222
 21
-12.4129404874
  0
LINE
  5
36F
100
AcDbEntity
  8
CURVE
100
AcDbLine
 62
7
  6
CONTINUOUS
 10
0.3643403303
 20
-12.5821596793
 11
0.5335595222
 21
-12.4129404874
  0
LINE
  5
370
100
AcDbEntity
  8
ASSI
100
AcDbLine
 62
7
  6
CONTINUOUS
 10
-0.393209257
 20
-13.5497199805
 11
-0.2050832516
 21
-13.3615939752
  0
LINE
  5
371
100
AcDbEntity
  8
CURVE
100
AcDbLine
 62
7
  6
CONTINUOUS
 10
-0.393209257
 20
-13.5497199805
 11
-0.2050832516
 21
-13.3615939752
  0
LINE
  5
372
100
AcDbEntity
  8
ASSI
100
AcDbLine
 62
7
  6
CONTINUOUS
 10
-0.0250451518
 20
-13.1815558754
 11
0.1902640026
 21
-12.966246721
  0
LINE
  5
373
100
AcDbEntity
  8
CURVE
100
AcDbLine
 62
7
  6
CONTINUOUS
 10
-0.0250451518
 20
-13.1815558754
 11
0.1902640026
 21
-12.966246721
  0
LINE
  5
374
100
AcDbEntity
  8
ASSI
100
AcDbLine
 62
7
  6
CONTINUOUS
 10
0.4907995491
 20
-12.6657111745
 11
0.6584733308
 21
-12.4980373928
  0
LINE
  5
375
100
AcDbEntity
  8
CURVE
100
AcDbLine
 62
7
  6
CONTINUOUS
 10
0.4907995491
 20
-12.6657111745
 11
0.6584733308
 21
-12.4980373928
  0
LINE
  5
376
100
AcDbEntity
  8
0
100
AcDbLine
 62
7
  6
CONTINUOUS
 10
-2.8580645
 20
-12.3995478175
 11
-3.0729405
 21
-12.5764054201
  0
LINE
  5
377
100
AcDbEntity
  8
CURVE
100
AcDbLine
 62
253
  6
CONTINUOUS
 10
-2.8580645
 20
-12.3995478175
 11
-3.0729405
 21
-12.5764054201
  0
LINE
  5
378
100
AcDbEntity
  8
RACCORDO
100
AcDbLine
 62
253
  6
CONTINUOUS
 10
-10.0014668568
 20
21.5513450129
 11
-10.1001218439
 21
21.65
  0
LINE
  5
379
100
AcDbEntity
  8
ASSI
100
AcDbLine
 62
253
  6
CONTINUOUS
 10
-10.0014668568
 20
21.5513450129
 11
-10.1001218439
 21
21.65
  0
LINE
  5
37A
100
AcDbEntity
  8
ASSI
100
AcDbLine
 62
253
  6
CONTINUOUS
 10
9.989489153
 20
20.1523351459
 11
9.989489153
 21
-20.1523351459
  0
LINE
  5
37B
100
AcDbEntity
  8
RACCORDO
100
AcDbLine
 62
7
  6
CONTINUOUS
 10
10.9
 20
-20.8501218439
 11
10.9
 21
20.8501218439
  0
LINE
  5
37C
100
AcDbEntity
  8
ASSI
100
AcDbLine
 62
7
  6
CONTINUOUS
 10
10.9
 20
-20.8501218439
 11
10.9
 21
20.8501218439
  0
LINE
  5
37D
100
AcDbEntity
  8
ASSI
100
AcDbLine
 62
7
  6
CONTINUOUS
 10
-0.2924847873
 20
-13.6590062248
 11
-0.1101622543
 21
-13.4766836919
  0
LINE
  5
37E
100
AcDbEntity
  8
CURVE
100
AcDbLine
 62
7
  6
CONTINUOUS
 10
-0.2924847873
 20
-13.6590062248
 11
-0.1101622543
 21
-13.4766836919
  0
LINE
  5
37F
100
AcDbEntity
  8
ASSI
100
AcDbLine
 62
7
  6
CONTINUOUS
 10
0.1849655196
 20
-13.181555918
 11
0.4002746761
 21
-12.9662467615
  0
LINE
  5
380
100
AcDbEntity
  8
CURVE
100
AcDbLine
 62
7
  6
CONTINUOUS
 10
0.1849655196
 20
-13.181555918
 11
0.4002746761
 21
-12.9662467615
  0
LINE
  5
381
100
AcDbEntity
  8
ASSI
100
AcDbLine
 62
7
  6
CONTINUOUS
 10
0.5705040868
 20
-12.7960173508
 11
0.7563039691
 21
-12.6102174685
  0
LINE
  5
382
100
AcDbEntity
  8
CURVE
100
AcDbLine
 62
7
  6
CONTINUOUS
 10
0.5705040868
 20
-12.7960173508
 11
0.7563039691
 21
-12.6102174685
  0
LINE
  5
383
100
AcDbEntity
  8
ASSI
100
AcDbLine
 62
7
  6
CONTINUOUS
 10
-0.1674237309
 20
-13.7439558825
 11
0.0216595844
 21
-13.5548725672
  0
LINE
  5
384
100
AcDbEntity
  8
CURVE
100
AcDbLine
 62
7
  6
CONTINUOUS
 10
-0.1674237309
 20
-13.7439558825
 11
0.0216595844
 21
-13.5548725672
  0
LINE
  5
385
100
AcDbEntity
  8
ASSI
100
AcDbLine
 62
7
  6
CONTINUOUS
 10
0.394976191
 20
-13.1815559606
 11
0.8247861073
 21
-12.7517460443
  0
LINE
  5
386
100
AcDbEntity
  8
CURVE
100
AcDbLine
 62
7
  6
CONTINUOUS
 10
0.394976191
 20
-13.1815559606
 11
0.8247861073
 21
-12.7517460443
  0
LINE
  5
387
100
AcDbEntity
  8
ASSI
100
AcDbLine
 62
7
  6
CONTINUOUS
 10
-0.0171327977
 20
-13.8036756633
 11
0.1923678474
 21
-13.5941750182
  0
LINE
  5
388
100
AcDbEntity
  8
CURVE
100
AcDbLine
 62
7
  6
CONTINUOUS
 10
-0.0171327977
 20
-13.8036756633
 11
0.1923678474
 21
-13.5941750182
  0
LINE
  5
389
100
AcDbEntity
  8
ASSI
100
AcDbLine
 62
7
  6
CONTINUOUS
 10
0.6049868624
 20
-13.1815560032
 11
0.8585165561
 21
-12.9280263095
  0
LINE
  5
38A
100
AcDbEntity
  8
CURVE
100
AcDbLine
 62
7
  6
CONTINUOUS
 10
0.6049868624
 20
-13.1815560032
 11
0.8585165561
 21
-12.9280263095
  0
LINE
  5
38B
100
AcDbEntity
  8
ASSI
100
AcDbLine
 62
7
  6
CONTINUOUS
 10
1.2186144437
 20
-12.5679284219
 11
1.3248759954
 21
-12.4616668702
  0
LINE
  5
38C
100
AcDbEntity
  8
CURVE
100
AcDbLine
 62
7
  6
CONTINUOUS
 10
1.2186144437
 20
-12.5679284219
 11
1.3248759954
 21
-12.4616668702
  0
LINE
  5
38D
100
AcDbEntity
  8
ASSI
100
AcDbLine
 62
7
  6
CONTINUOUS
 10
0.1679739979
 20
-13.8285795817
 11
0.569518194
 21
-13.4270353856
  0
LINE
  5
38E
100
AcDbEntity
  8
CURVE
100
AcDbLine
 62
7
  6
CONTINUOUS
 10
0.1679739979
 20
-13.8285795817
 11
0.569518194
 21
-13.4270353856
  0
LINE
  5
38F
100
AcDbEntity
  8
ASSI
100
AcDbLine
 62
7
  6
CONTINUOUS
 10
0.8149975338
 20
-13.1815560458
 11
0.8887185
 21
-13.1078350796
  0
LINE
  5
390
100
AcDbEntity
  8
CURVE
100
AcDbLine
 62
7
  6
CONTINUOUS
 10
0.8149975338
 20
-13.1815560458
 11
0.8887185
 21
-13.1078350796
  0
LINE
  5
391
100
AcDbEntity
  8
ASSI
100
AcDbLine
 62
7
  6
CONTINUOUS
 10
1.1539463562
 20
-12.8426072234
 11
1.6524762629
 21
-12.3440773167
  0
LINE
  5
392
100
AcDbEntity
  8
CURVE
100
AcDbLine
 62
7
  6
CONTINUOUS
 10
1.1539463562
 20
-12.8426072234
 11
1.6524762629
 21
-12.3440773167
  0
LINE
  5
393
100
AcDbEntity
  8
ASSI
100
AcDbLine
 62
7
  6
CONTINUOUS
 10
0.4240684928
 20
-13.7824958009
 11
0.7352570047
 21
-13.4713072889
  0
LINE
  5
394
100
AcDbEntity
  8
CURVE
100
AcDbLine
 62
7
  6
CONTINUOUS
 10
0.4240684928
 20
-13.7824958009
 11
0.7352570047
 21
-13.4713072889
  0
LINE
  5
395
100
AcDbEntity
  8
ASSI
100
AcDbLine
 62
7
  6
CONTINUOUS
 10
1.2155888187
 20
-12.9909754749
 11
1.4455855876
 21
-12.7609787061
  0
LINE
  5
396
100
AcDbEntity
  8
CURVE
100
AcDbLine
 62
7
  6
CONTINUOUS
 10
1.2155888187
 20
-12.9909754749
 11
1.4455855876
 21
-12.7609787061
  0
LINE
  5
397
100
AcDbEntity
  8
ASSI
100
AcDbLine
 62
7
  6
CONTINUOUS
 10
1.5992614936
 20
-12.6073028001
 11
1.8401758726
 21
-12.3663884211
  0
LINE
  5
398
100
AcDbEntity
  8
CURVE
100
AcDbLine
 62
7
  6
CONTINUOUS
 10
1.5992614936
 20
-12.6073028001
 11
1.8401758726
 21
-12.3663884211
  0
LINE
  5
399
100
AcDbEntity
  8
ASSI
100
AcDbLine
 62
7
  6
CONTINUOUS
 10
1.337011109
 20
-13.0795638986
 11
1.531157983
 21
-12.8854170247
  0
LINE
  5
39A
100
AcDbEntity
  8
CURVE
100
AcDbLine
 62
7
  6
CONTINUOUS
 10
1.337011109
 20
-13.0795638986
 11
1.531157983
 21
-12.8854170247
  0
LINE
  5
39B
100
AcDbEntity
  8
ASSI
100
AcDbLine
 62
7
  6
CONTINUOUS
 10
1.7987311729
 20
-12.6178438347
 11
1.9981188127
 21
-12.418456195
  0
LINE
  5
39C
100
AcDbEntity
  8
CURVE
100
AcDbLine
 62
7
  6
CONTINUOUS
 10
1.7987311729
 20
-12.6178438347
 11
1.9981188127
 21
-12.418456195
  0
LINE
  5
39D
100
AcDbEntity
  8
ASSI
100
AcDbLine
 62
7
  6
CONTINUOUS
 10
1.487073653
 20
-13.1395120686
 11
1.682908309
 21
-12.9436774126
  0
LINE
  5
39E
100
AcDbEntity
  8
CURVE
100
AcDbLine
 62
7
  6
CONTINUOUS
 10
1.487073653
 20
-13.1395120686
 11
1.682908309
 21
-12.9436774126
  0
LINE
  5
39F
100
AcDbEntity
  8
ASSI
100
AcDbLine
 62
7
  6
CONTINUOUS
 10
1.9288923043
 20
-12.6976934173
 11
2.1113662608
 21
-12.5152194608
  0
LINE
  5
3A0
100
AcDbEntity
  8
CURVE
100
AcDbLine
 62
7
  6
CONTINUOUS
 10
1.9288923043
 20
-12.6976934173
 11
2.1113662608
 21
-12.5152194608
  0
LINE
  5
3A1
100
AcDbEntity
  8
ASSI
100
AcDbLine
 62
7
  6
CONTINUOUS
 10
1.183107586
 20
-13.6534888497
 11
1.3683534772
 21
-13.4682429585
  0
LINE
  5
3A2
100
AcDbEntity
  8
CURVE
100
AcDbLine
 62
7
  6
CONTINUOUS
 10
1.183107586
 20
-13.6534888497
 11
1.3683534772
 21
-13.4682429585
  0
LINE
  5
3A3
100
AcDbEntity
  8
ASSI
100
AcDbLine
 62
7
  6
CONTINUOUS
 10
1.6441445951
 20
-13.1924518406
 11
1.8475382707
 21
-12.989058165
  0
LINE
  5
3A4
100
AcDbEntity
  8
CURVE
100
AcDbLine
 62
7
  6
CONTINUOUS
 10
1.6441445951
 20
-13.1924518406
 11
1.8475382707
 21
-12.989058165
  0
LINE
  5
3A5
100
AcDbEntity
  8
ASSI
100
AcDbLine
 62
7
  6
CONTINUOUS
 10
1.2981843161
 20
-13.7484228335
 11
1.5042110782
 21
-13.5423960715
  0
LINE
  5
3A6
100
AcDbEntity
  8
CURVE
100
AcDbLine
 62
7
  6
CONTINUOUS
 10
1.2981843161
 20
-13.7484228335
 11
1.5042110782
 21
-13.5423960715
  0
LINE
  5
3A7
100
AcDbEntity
  8
ASSI
100
AcDbLine
 62
7
  6
CONTINUOUS
 10
1.8008929024
 20
-13.2457142473
 11
1.9938791843
 21
-13.0527279654
  0
LINE
  5
3A8
100
AcDbEntity
  8
CURVE
100
AcDbLine
 62
7
  6
CONTINUOUS
 10
1.8008929024
 20
-13.2457142473
 11
1.9938791843
 21
-13.0527279654
  0
LINE
  5
3A9
100
AcDbEntity
  8
ASSI
100
AcDbLine
 62
7
  6
CONTINUOUS
 10
1.4593264539
 20
-13.7972914098
 11
1.6907322917
 21
-13.565885572
  0
LINE
  5
3AA
100
AcDbEntity
  8
CURVE
100
AcDbLine
 62
7
  6
CONTINUOUS
 10
1.4593264539
 20
-13.7972914098
 11
1.6907322917
 21
-13.565885572
  0
LINE
  5
3AB
100
AcDbEntity
  8
ASSI
100
AcDbLine
 62
7
  6
CONTINUOUS
 10
1.9163663566
 20
-13.3402515071
 11
2.1276586809
 21
-13.1289591828
  0
LINE
  5
3AC
100
AcDbEntity
  8
CURVE
100
AcDbLine
 62
7
  6
CONTINUOUS
 10
1.9163663566
 20
-13.3402515071
 11
2.1276586809
 21
-13.1289591828
  0
LINE
  5
3AD
100
AcDbEntity
  8
ASSI
100
AcDbLine
 62
7
  6
CONTINUOUS
 10
2.4852151656
 20
-12.7714026981
 11
2.8960574215
 21
-12.3605604422
  0
LINE
  5
3AE
100
AcDbEntity
  8
CURVE
100
AcDbLine
 62
7
  6
CONTINUOUS
 10
2.4852151656
 20
-12.7714026981
 11
2.8960574215
 21
-12.3605604422
  0
LINE
  5
3AF
100
AcDbEntity
  8
ASSI
100
AcDbLine
 62
7
  6
CONTINUOUS
 10
1.6381856152
 20
-13.8284429625
 11
2.2019989079
 21
-13.2646296698
  0
LINE
  5
3B0
100
AcDbEntity
  8
CURVE
100
AcDbLine
 62
7
  6
CONTINUOUS
 10
1.6381856152
 20
-13.8284429625
 11
2.2019989079
 21
-13.2646296698
  0
LINE
  5
3B1
100
AcDbEntity
  8
ASSI
100
AcDbLine
 62
7
  6
CONTINUOUS
 10
2.5207663043
 20
-12.9458622735
 11
3.1122375752
 21
-12.3543910025
  0
LINE
  5
3B2
100
AcDbEntity
  8
CURVE
100
AcDbLine
 62
7
  6
CONTINUOUS
 10
2.5207663043
 20
-12.9458622735
 11
3.1122375752
 21
-12.3543910025
  0
LINE
  5
3B3
100
AcDbEntity
  8
ASSI
100
AcDbLine
 62
7
  6
CONTINUOUS
 10
1.8882796575
 20
-13.7883596342
 11
2.1750449135
 21
-13.5015943782
  0
LINE
  5
3B4
100
AcDbEntity
  8
CURVE
100
AcDbLine
 62
7
  6
CONTINUOUS
 10
1.8882796575
 20
-13.7883596342
 11
2.1750449135
 21
-13.5015943782
  0
LINE
  5
3B5
100
AcDbEntity
  8
ASSI
100
AcDbLine
 62
7
  6
CONTINUOUS
 10
2.6180371312
 20
-13.0586021605
 11
2.8263611404
 21
-12.8502781513
  0
LINE
  5
3B6
100
AcDbEntity
  8
CURVE
100
AcDbLine
 62
7
  6
CONTINUOUS
 10
2.6180371312
 20
-13.0586021605
 11
2.8263611404
 21
-12.8502781513
  0
LINE
  5
3B7
100
AcDbEntity
  8
ASSI
100
AcDbLine
 62
7
  6
CONTINUOUS
 10
3.0729506131
 20
-12.6036886787
 11
3.2879290472
 21
-12.3887102446
  0
LINE
  5
3B8
100
AcDbEntity
  8
CURVE
100
AcDbLine
 62
7
  6
CONTINUOUS
 10
3.0729506131
 20
-12.6036886787
 11
3.2879290472
 21
-12.3887102446
  0
LINE
  5
3B9
100
AcDbEntity
  8
0
100
AcDbLine
 62
7
  6
CONTINUOUS
 10
0.6191955
 20
-13.3824500486
 11
0.4467225
 21
-13.5372444095
  0
LINE
  5
3BA
100
AcDbEntity
  8
CURVE
100
AcDbLine
 62
253
  6
CONTINUOUS
 10
0.6191955
 20
-13.3824500486
 11
0.4467225
 21
-13.5372444095
  0
LINE
  5
3BB
100
AcDbEntity
  8
CURVE
100
AcDbLine
 62
253
  6
CONTINUOUS
 10
1.2945535
 20
-13.4095535481
 11
1.0908595
 21
-13.5773876405
  0
LINE
  5
3BC
100
AcDbEntity
  8
0
100
AcDbLine
 62
7
  6
CONTINUOUS
 10
1.2945535
 20
-13.4095535481
 11
1.0908595
 21
-13.5773876405
  0
LINE
  5
3BD
100
AcDbEntity
  8
0
100
AcDbLine
 62
7
  6
CONTINUOUS
 10
0.5542495
 20
-13.7564661535
 11
0.8228545
 21
-13.5383723483
  0
LINE
  5
3BE
100
AcDbEntity
  8
CURVE
100
AcDbLine
 62
253
  6
CONTINUOUS
 10
0.5542495
 20
-13.7564661535
 11
0.8228545
 21
-13.5383723483
  0
LINE
  5
3BF
100
AcDbEntity
  8
CURVE
100
AcDbLine
 62
253
  6
CONTINUOUS
 10
1.4318195
 20
-12.3845339434
 11
1.2313715
 21
-12.5291069212
  0
LINE
  5
3C0
100
AcDbEntity
  8
0
100
AcDbLine
 62
7
  6
CONTINUOUS
 10
1.4318195
 20
-12.3845339434
 11
1.2313715
 21
-12.5291069212
  0
LINE
  5
3C1
100
AcDbEntity
  8
ASSI
100
AcDbLine
 62
7
  6
CONTINUOUS
 10
2.7681000248
 20
-13.1185499809
 11
2.9605591794
 21
-12.9260908264
  0
LINE
  5
3C2
100
AcDbEntity
  8
CURVE
100
AcDbLine
 62
7
  6
CONTINUOUS
 10
2.7681000248
 20
-13.1185499809
 11
2.9605591794
 21
-12.9260908264
  0
LINE
  5
3C3
100
AcDbEntity
  8
ASSI
100
AcDbLine
 62
7
  6
CONTINUOUS
 10
3.2225050736
 20
-12.6641449321
 11
3.4052581115
 21
-12.4813918942
  0
LINE
  5
3C4
100
AcDbEntity
  8
CURVE
100
AcDbLine
 62
7
  6
CONTINUOUS
 10
3.2225050736
 20
-12.6641449321
 11
3.4052581115
 21
-12.4813918942
  0
LINE
  5
3C5
100
AcDbEntity
  8
ASSI
100
AcDbLine
 62
7
  6
CONTINUOUS
 10
2.4763556283
 20
-13.6203050914
 11
2.6609443235
 21
-13.4357163962
  0
LINE
  5
3C6
100
AcDbEntity
  8
CURVE
100
AcDbLine
 62
7
  6
CONTINUOUS
 10
2.4763556283
 20
-13.6203050914
 11
2.6609443235
 21
-13.4357163962
  0
LINE
  5
3C7
100
AcDbEntity
  8
ASSI
100
AcDbLine
 62
7
  6
CONTINUOUS
 10
2.9181629185
 20
-13.1784978012
 11
3.1289374574
 21
-12.9677232624
  0
LINE
  5
3C8
100
AcDbEntity
  8
CURVE
100
AcDbLine
 62
7
  6
CONTINUOUS
 10
2.9181629185
 20
-13.1784978012
 11
3.1289374574
 21
-12.9677232624
  0
LINE
  5
3C9
100
AcDbEntity
  8
ASSI
100
AcDbLine
 62
7
  6
CONTINUOUS
 10
2.5914399666
 20
-13.7152314672
 11
2.7793712683
 21
-13.5273001655
  0
LINE
  5
3CA
100
AcDbEntity
  8
CURVE
100
AcDbLine
 62
7
  6
CONTINUOUS
 10
2.5914399666
 20
-13.7152314672
 11
2.7793712683
 21
-13.5273001655
  0
LINE
  5
3CB
100
AcDbEntity
  8
ASSI
100
AcDbLine
 62
7
  6
CONTINUOUS
 10
3.0839831538
 20
-13.22268828
 11
3.2761968625
 21
-13.0304745712
  0
LINE
  5
3CC
100
AcDbEntity
  8
CURVE
100
AcDbLine
 62
7
  6
CONTINUOUS
 10
3.0839831538
 20
-13.22268828
 11
3.2761968625
 21
-13.0304745712
  0
LINE
  5
3CD
100
AcDbEntity
  8
ASSI
100
AcDbLine
 62
7
  6
CONTINUOUS
 10
2.7302836897
 20
-13.7863984581
 11
2.9461964376
 21
-13.5704857102
  0
LINE
  5
3CE
100
AcDbEntity
  8
CURVE
100
AcDbLine
 62
7
  6
CONTINUOUS
 10
2.7302836897
 20
-13.7863984581
 11
2.9461964376
 21
-13.5704857102
  0
LINE
  5
3CF
100
AcDbEntity
  8
ASSI
100
AcDbLine
 62
7
  6
CONTINUOUS
 10
3.2213759582
 20
-13.2953061895
 11
3.4225379845
 21
-13.0941441632
  0
LINE
  5
3D0
100
AcDbEntity
  8
CURVE
100
AcDbLine
 62
7
  6
CONTINUOUS
 10
3.2213759582
 20
-13.2953061895
 11
3.4225379845
 21
-13.0941441632
  0
LINE
  5
3D1
100
AcDbEntity
  8
ASSI
100
AcDbLine
 62
7
  6
CONTINUOUS
 10
2.9091428511
 20
-13.8175500107
 11
3.5154097303
 21
-13.2112831315
  0
LINE
  5
3D2
100
AcDbEntity
  8
CURVE
100
AcDbLine
 62
7
  6
CONTINUOUS
 10
2.9091428511
 20
-13.8175500107
 11
3.5154097303
 21
-13.2112831315
  0
LINE
  5
3D3
100
AcDbEntity
  8
ASSI
100
AcDbLine
 62
7
  6
CONTINUOUS
 10
3.1341634533
 20
-13.8025401225
 11
3.5455953446
 21
-13.3911082312
  0
LINE
  5
3D4
100
AcDbEntity
  8
CURVE
100
AcDbLine
 62
7
  6
CONTINUOUS
 10
3.1341634533
 20
-13.8025401225
 11
3.5455953446
 21
-13.3911082312
  0
LINE
  5
3D5
100
AcDbEntity
  8
CURVE
100
AcDbLine
 62
253
  6
CONTINUOUS
 10
2.6280535
 20
-13.4095535481
 11
2.4243245
 21
-13.5773876405
  0
LINE
  5
3D6
100
AcDbEntity
  8
0
100
AcDbLine
 62
7
  6
CONTINUOUS
 10
2.6280535
 20
-13.4095535481
 11
2.4243245
 21
-13.5773876405
  0
LINE
  5
3D7
100
AcDbEntity
  8
CURVE
100
AcDbLine
 62
253
  6
CONTINUOUS
 10
1.9663835
 20
-12.7292266374
 11
2.1760045
 21
-12.5704490242
  0
LINE
  5
3D8
100
AcDbEntity
  8
0
100
AcDbLine
 62
7
  6
CONTINUOUS
 10
1.9663835
 20
-12.7292266374
 11
2.1760045
 21
-12.5704490242
  0
LINE
  5
3D9
100
AcDbEntity
  8
CURVE
100
AcDbLine
 62
253
  6
CONTINUOUS
 10
3.2998835
 20
-12.7292266374
 11
3.5095045
 21
-12.5704490242
  0
LINE
  5
3DA
100
AcDbEntity
  8
0
100
AcDbLine
 62
7
  6
CONTINUOUS
 10
3.2998835
 20
-12.7292266374
 11
3.5095045
 21
-12.5704490242
  0
LINE
  5
3DB
100
AcDbEntity
  8
CURVE
100
AcDbLine
 62
253
  6
CONTINUOUS
 10
2.7652845
 20
-12.3845339434
 11
2.5648355
 21
-12.5291069212
  0
LINE
  5
3DC
100
AcDbEntity
  8
0
100
AcDbLine
 62
7
  6
CONTINUOUS
 10
2.7652845
 20
-12.3845339434
 11
2.5648355
 21
-12.5291069212
  0
LINE
  5
3DD
100
AcDbEntity
  8
CURVE
100
AcDbLine
 62
253
  6
CONTINUOUS
 10
1.9139615
 20
-13.7842030571
 11
2.1284145
 21
-13.6406521178
  0
LINE
  5
3DE
100
AcDbEntity
  8
0
100
AcDbLine
 62
7
  6
CONTINUOUS
 10
1.9139615
 20
-13.7842030571
 11
2.1284145
 21
-13.6406521178
  0
LINE
  5
3DF
100
AcDbEntity
  8
CURVE
100
AcDbLine
 62
253
  6
CONTINUOUS
 10
3.2474605
 20
-13.7842030571
 11
3.4619145
 21
-13.6406521178
  0
LINE
  5
3E0
100
AcDbEntity
  8
0
100
AcDbLine
 62
7
  6
CONTINUOUS
 10
3.2474605
 20
-13.7842030571
 11
3.4619145
 21
-13.6406521178
  0
LINE
  5
3E1
100
AcDbEntity
  8
RACCORDO
100
AcDbLine
 62
253
  6
CONTINUOUS
 10
9.989489153
 20
20.1523351459
 11
-9.989489153
 21
20.1523351459
  0
LINE
  5
3E2
100
AcDbEntity
  8
ASSI
100
AcDbLine
 62
253
  6
CONTINUOUS
 10
9.989489153
 20
20.1523351459
 11
-9.989489153
 21
20.1523351459
  0
LINE
  5
3E3
100
AcDbEntity
  8
RACCORDO
100
AcDbLine
 62
253
  6
CONTINUOUS
 10
10.0014668568
 20
21.5513450129
 11
-10.0014668568
 21
21.5513450129
  0
LINE
  5
3E4
100
AcDbEntity
  8
ASSI
100
AcDbLine
 62
253
  6
CONTINUOUS
 10
10.0014668568
 20
21.5513450129
 11
-10.0014668568
 21
21.5513450129
  0
LINE
  5
3E5
100
AcDbEntity
  8
RACCORDO
100
AcDbLine
 62
7
  6
CONTINUOUS
 10
-10.1001218439
 20
21.65
 11
10.1001218439
 21
21.65
  0
LINE
  5
3E6
100
AcDbEntity
  8
ASSI
100
AcDbLine
 62
7
  6
CONTINUOUS
 10
-10.1001218439
 20
21.65
 11
10.1001218439
 21
21.65
  0
LINE
  5
3E7
100
AcDbEntity
  8
RACCORDO
100
AcDbLine
 62
7
  6
CONTINUOUS
 10
-29.0817222803
 20
-21.5513450129
 11
-23.4297818545
 21
-21.65
  0
LINE
  5
3E8
100
AcDbEntity
  8
ASSI
100
AcDbLine
 62
7
  6
CONTINUOUS
 10
-29.0817222803
 20
-21.5513450129
 11
-23.4297818545
 21
-21.65
  0
LINE
  5
3E9
100
AcDbEntity
  8
RACCORDO
100
AcDbLine
 62
253
  6
CONTINUOUS
 10
-29.0817222803
 20
-20.7514668568
 11
-23.4297818545
 21
-20.8501218439
  0
LINE
  5
3EA
100
AcDbEntity
  8
ASSI
100
AcDbLine
 62
253
  6
CONTINUOUS
 10
-29.0817222803
 20
-20.7514668568
 11
-23.4297818545
 21
-20.8501218439
  0
LINE
  5
3EB
100
AcDbEntity
  8
RACCORDO
100
AcDbLine
 62
253
  6
CONTINUOUS
 10
-29.7679244677
 20
-20.0985955855
 11
-30.5521551224
 21
-20.1523351178
  0
LINE
  5
3EC
100
AcDbEntity
  8
ASSI
100
AcDbLine
 62
253
  6
CONTINUOUS
 10
-29.7679244677
 20
-20.0985955855
 11
-30.5521551224
 21
-20.1523351178
  0
LINE
  5
3ED
100
AcDbEntity
  8
ASSI
100
AcDbLine
 62
7
  6
CONTINUOUS
 10
-30.738914519
 20
-17.2850037836
 11
-30.7314032817
 21
-17.2851348927
  0
LINE
  5
3EE
100
AcDbEntity
  8
DRAFT
100
AcDbLine
 62
7
  6
CONTINUOUS
 10
-30.738914519
 20
-17.2850037836
 11
-30.7314032817
 21
-17.2851348927
  0
LINE
  5
3EF
100
AcDbEntity
  8
RACCORDO
100
AcDbLine
 62
7
  6
CONTINUOUS
 10
-30.7314032817
 20
-17.2851348927
 11
-30.738914519
 21
-17.2850037836
  0
LINE
  5
3F0
100
AcDbEntity
  8
CURVE
100
AcDbLine
 62
253
  6
CONTINUOUS
 10
-31.0976452277
 20
-12.3371295441
 11
-30.9978342101
 21
-14.6375112174
  0
LINE
  5
3F1
100
AcDbEntity
  8
0
100
AcDbLine
 62
7
  6
CONTINUOUS
 10
-31.2627117533
 20
-8.5327798873
 11
-30.87612169
 21
-17.4426649725
  0
LINE
  5
3F2
100
AcDbEntity
  8
RACCORDO
100
AcDbLine
 62
7
  6
CONTINUOUS
 10
-23.4297818545
 20
-21.65
 11
-23.4297818545
 21
21.65
  0
LINE
  5
3F3
100
AcDbEntity
  8
ASSI
100
AcDbLine
 62
7
  6
CONTINUOUS
 10
-23.4297818545
 20
-21.65
 11
-23.4297818545
 21
21.65
  0
LINE
  5
3F4
100
AcDbEntity
  8
RACCORDO
100
AcDbLine
 62
253
  6
CONTINUOUS
 10
-29.7679244677
 20
20.0985955855
 11
-30.5521554996
 21
20.1523351432
  0
LINE
  5
3F5
100
AcDbEntity
  8
ASSI
100
AcDbLine
 62
253
  6
CONTINUOUS
 10
-29.7679244677
 20
20.0985955855
 11
-30.5521554996
 21
20.1523351432
  0
LINE
  5
3F6
100
AcDbEntity
  8
RACCORDO
100
AcDbLine
 62
253
  6
CONTINUOUS
 10
-23.4297818545
 20
20.8501218439
 11
-29.0817222803
 21
20.7514668568
  0
LINE
  5
3F7
100
AcDbEntity
  8
ASSI
100
AcDbLine
 62
253
  6
CONTINUOUS
 10
-23.4297818545
 20
20.8501218439
 11
-29.0817222803
 21
20.7514668568
  0
LINE
  5
3F8
100
AcDbEntity
  8
RACCORDO
100
AcDbLine
 62
7
  6
CONTINUOUS
 10
-23.4297818545
 20
21.65
 11
-29.0817222803
 21
21.5513450129
  0
LINE
  5
3F9
100
AcDbEntity
  8
ASSI
100
AcDbLine
 62
7
  6
CONTINUOUS
 10
-23.4297818545
 20
21.65
 11
-29.0817222803
 21
21.5513450129
  0
ARC
  5
3FA
100
AcDbEntity
  8
RACCORDO
100
AcDbCircle
 62
253
  6
CONTINUOUS
 10
-10.0011741627
 20
-20.7511741627
 40
0.8001723635
100
AcDbArc
 50
180.0209581941
 51
269.9790418059
  0
ARC
  5
3FB
100
AcDbEntity
  8
ASSI
100
AcDbCircle
 62
253
  6
CONTINUOUS
 10
-10.0011741627
 20
-20.7511741627
 40
0.8001723635
100
AcDbArc
 50
180.0209581941
 51
269.9790418059
  0
ARC
  5
3FC
100
AcDbEntity
  8
ASSI
100
AcDbCircle
 62
7
  6
CONTINUOUS
 10
-6.0691452961
 20
-11.2134025484
 40
0.2161028678
100
AcDbArc
 50
61.2145253809
 51
70.5245594818
  0
ARC
  5
3FD
100
AcDbEntity
  8
ASSI
100
AcDbCircle
 62
7
  6
CONTINUOUS
 10
-6.0691285698
 20
-14.7867434874
 40
0.215973245
100
AcDbArc
 50
289.6581814492
 51
299.0317850478
  0
ARC
  5
3FE
100
AcDbEntity
  8
ASSI
100
AcDbCircle
 62
7
  6
CONTINUOUS
 10
-6.0658595552
 20
-11.2068071108
 40
0.2087404588
100
AcDbArc
 50
46.7555736423
 51
61.1332253035
  0
ARC
  5
3FF
100
AcDbEntity
  8
ASSI
100
AcDbCircle
 62
7
  6
CONTINUOUS
 10
-6.0658474334
 20
-14.7932773484
 40
0.2086682598
100
AcDbArc
 50
299.1147035331
 51
313.2599179186
  0
ARC
  5
400
100
AcDbEntity
  8
RACCORDO
100
AcDbCircle
 62
7
  6
CONTINUOUS
 10
-6.0600881039
 20
-11.1997938015
 40
0.1998192465
100
AcDbArc
 50
46.5522559511
 51
61.611644588
  0
ARC
  5
401
100
AcDbEntity
  8
RACCORDO
100
AcDbCircle
 62
7
  6
CONTINUOUS
 10
-6.0600209432
 20
-14.8002998393
 40
0.1997051556
100
AcDbArc
 50
298.6345855473
 51
313.4553721898
  0
ARC
  5
402
100
AcDbEntity
  8
RACCORDO
100
AcDbCircle
 62
7
  6
CONTINUOUS
 10
-6.0602432347
 20
-11.1984307409
 40
0.1984308272
100
AcDbArc
 50
80.0328680749
 51
89.9465880515
  0
ARC
  5
403
100
AcDbEntity
  8
RACCORDO
100
AcDbCircle
 62
7
  6
CONTINUOUS
 10
-6.0602492322
 20
-14.8015940772
 40
0.1984060147
100
AcDbArc
 50
270.0551505803
 51
280.0749403648
  0
ARC
  5
404
100
AcDbEntity
  8
ASSI
100
AcDbCircle
 62
253
  6
CONTINUOUS
 10
-2.087280924
 20
-13.0070890569
 40
4.5742295657
100
AcDbArc
 50
148.5822835246
 51
153.2761602606
  0
ARC
  5
405
100
AcDbEntity
  8
RACCORDO
100
AcDbCircle
 62
253
  6
CONTINUOUS
 10
-2.0872252993
 20
-12.9951939556
 40
4.5740327127
100
AcDbArc
 50
204.5521298592
 51
209.2421390022
  0
ARC
  5
406
100
AcDbEntity
  8
ASSI
100
AcDbCircle
 62
253
  6
CONTINUOUS
 10
-2.0886053344
 20
-12.9958862007
 40
4.57248985
100
AcDbArc
 50
204.649404092
 51
209.2427876123
  0
ARC
  5
407
100
AcDbEntity
  8
ASSI
100
AcDbCircle
 62
253
  6
CONTINUOUS
 10
-2.0917720327
 20
-12.9973591814
 40
4.5689973831
100
AcDbArc
 50
204.2367775015
 51
204.6491778668
  0
ARC
  5
408
100
AcDbEntity
  8
ASSI
100
AcDbCircle
 62
253
  6
CONTINUOUS
 10
-2.0920943451
 20
-13.0042374353
 40
4.5686353676
100
AcDbArc
 50
147.9716105214
 51
148.5813358599
  0
ARC
  5
409
100
AcDbEntity
  8
RACCORDO
100
AcDbCircle
 62
253
  6
CONTINUOUS
 10
-2.0953233564
 20
-13.0029745777
 40
4.5651960038
100
AcDbArc
 50
153.1546685253
 51
155.545716714
  0
ARC
  5
40A
100
AcDbEntity
  8
ASSI
100
AcDbCircle
 62
253
  6
CONTINUOUS
 10
-2.0982943368
 20
-12.9974735658
 40
4.564255674
100
AcDbArc
 50
265.2494279037
 51
269.9785885558
  0
ARC
  5
40B
100
AcDbEntity
  8
ASSI
100
AcDbCircle
 62
253
  6
CONTINUOUS
 10
-2.0958529803
 20
-13.0018741981
 40
4.5641955337
100
AcDbArc
 50
146.5950379006
 51
147.9717381348
  0
ARC
  5
40C
100
AcDbEntity
  8
ASSI
100
AcDbCircle
 62
253
  6
CONTINUOUS
 10
-2.0972425131
 20
-12.9993880078
 40
4.5633447535
100
AcDbArc
 50
216.2533862895
 51
218.5655008573
  0
ARC
  5
40D
100
AcDbEntity
  8
ASSI
100
AcDbCircle
 62
253
  6
CONTINUOUS
 10
-2.0975183156
 20
-13.0008939322
 40
4.562366807
100
AcDbArc
 50
157.9521531552
 51
199.878554624
  0
ARC
  5
40E
100
AcDbEntity
  8
RACCORDO
100
AcDbCircle
 62
253
  6
CONTINUOUS
 10
-2.0980302128
 20
-13.0008198359
 40
4.5618700466
100
AcDbArc
 50
157.9506022967
 51
204.5442481309
  0
ARC
  5
40F
100
AcDbEntity
  8
ASSI
100
AcDbCircle
 62
253
  6
CONTINUOUS
 10
-2.098976985
 20
-13.0015977453
 40
4.561564506
100
AcDbArc
 50
90.0128496358
 51
94.0573886181
  0
ARC
  5
410
100
AcDbEntity
  8
RACCORDO
100
AcDbCircle
 62
253
  6
CONTINUOUS
 10
-2.099693899
 20
-13.0000047147
 40
4.559956274
100
AcDbArc
 50
90.0128496358
 51
153.1631641141
  0
ARC
  5
411
100
AcDbEntity
  8
ASSI
100
AcDbCircle
 62
253
  6
CONTINUOUS
 10
-2.0998292679
 20
-12.9998915614
 40
4.5598023529
100
AcDbArc
 50
94.0482230991
 51
143.9099839867
  0
ARC
  5
412
100
AcDbEntity
  8
ASSI
100
AcDbCircle
 62
253
  6
CONTINUOUS
 10
-2.1002719332
 20
-13.0026257492
 40
4.5589576706
100
AcDbArc
 50
218.5574196833
 51
265.2688338517
  0
ARC
  5
413
100
AcDbEntity
  8
RACCORDO
100
AcDbCircle
 62
253
  6
CONTINUOUS
 10
-2.1004800779
 20
-13.0026748123
 40
4.5588126732
100
AcDbArc
 50
209.241478679
 51
269.9971359157
  0
ARC
  5
414
100
AcDbEntity
  8
ASSI
100
AcDbCircle
 62
253
  6
CONTINUOUS
 10
-2.1004800779
 20
-13.0026748123
 40
4.5588126732
100
AcDbArc
 50
209.241478679
 51
213.908432593
  0
ARC
  5
415
100
AcDbEntity
  8
ASSI
100
AcDbCircle
 62
253
  6
CONTINUOUS
 10
-2.1015389302
 20
-12.9999736831
 40
4.5582948207
100
AcDbArc
 50
153.2754519422
 51
157.9439036321
  0
ARC
  5
416
100
AcDbEntity
  8
RACCORDO
100
AcDbCircle
 62
253
  6
CONTINUOUS
 10
-2.1023327548
 20
-12.9997306145
 40
4.5574725119
100
AcDbArc
 50
155.5463615658
 51
155.7303346704
  0
ARC
  5
417
100
AcDbEntity
  8
ASSI
100
AcDbCircle
 62
253
  6
CONTINUOUS
 10
-2.102610049
 20
-13.0021016339
 40
4.5571678492
100
AcDbArc
 50
199.8860427619
 51
204.2383448034
  0
ARC
  5
418
100
AcDbEntity
  8
ASSI
100
AcDbCircle
 62
253
  6
CONTINUOUS
 10
-2.1037724014
 20
-13.0042273926
 40
4.5552171832
100
AcDbArc
 50
215.6529213807
 51
216.2528702193
  0
ARC
  5
419
100
AcDbEntity
  8
ASSI
100
AcDbCircle
 62
253
  6
CONTINUOUS
 10
-2.1054692018
 20
-12.9954954638
 40
4.5526560788
100
AcDbArc
 50
144.3687341394
 51
146.5954246234
  0
ARC
  5
41A
100
AcDbEntity
  8
RACCORDO
100
AcDbCircle
 62
253
  6
CONTINUOUS
 10
-2.110506774
 20
-12.9961013972
 40
4.5485291808
100
AcDbArc
 50
155.7296883305
 51
157.9466918337
  0
ARC
  5
41B
100
AcDbEntity
  8
ASSI
100
AcDbCircle
 62
253
  6
CONTINUOUS
 10
-2.1105746108
 20
-13.0090728598
 40
4.5468656657
100
AcDbArc
 50
213.9124835712
 51
215.6532689601
  0
ARC
  5
41C
100
AcDbEntity
  8
ASSI
100
AcDbCircle
 62
253
  6
CONTINUOUS
 10
-2.1149671794
 20
-12.988762527
 40
4.5410139006
100
AcDbArc
 50
143.9109456697
 51
144.3679671541
  0
ARC
  5
41D
100
AcDbEntity
  8
RACCORDO
100
AcDbCircle
 62
253
  6
CONTINUOUS
 10
-2.0896193066
 20
-13.0029127867
 40
4.4719217881
100
AcDbArc
 50
148.5907848244
 51
153.2638536659
  0
ARC
  5
41E
100
AcDbEntity
  8
ASSI
100
AcDbCircle
 62
253
  6
CONTINUOUS
 10
-2.0896193066
 20
-13.0029127867
 40
4.4719217881
100
AcDbArc
 50
148.5907848244
 51
153.2638536659
  0
ARC
  5
41F
100
AcDbEntity
  8
RACCORDO
100
AcDbCircle
 62
253
  6
CONTINUOUS
 10
-2.0897169129
 20
-12.9907783037
 40
4.4715573365
100
AcDbArc
 50
204.5622715876
 51
209.231782987
  0
ARC
  5
420
100
AcDbEntity
  8
ASSI
100
AcDbCircle
 62
253
  6
CONTINUOUS
 10
-2.0910779589
 20
-12.9914616881
 40
4.4700353813
100
AcDbArc
 50
204.5615565796
 51
209.232433405
  0
ARC
  5
421
100
AcDbEntity
  8
ASSI
100
AcDbCircle
 62
253
  6
CONTINUOUS
 10
-2.0941178862
 20
-13.0002504136
 40
4.466694912
100
AcDbArc
 50
148.042104793
 51
148.5898590329
  0
ARC
  5
422
100
AcDbEntity
  8
RACCORDO
100
AcDbCircle
 62
253
  6
CONTINUOUS
 10
-2.0948365585
 20
-12.9932002642
 40
4.4658941976
100
AcDbArc
 50
204.1529130224
 51
204.5612781369
  0
ARC
  5
423
100
AcDbEntity
  8
RACCORDO
100
AcDbCircle
 62
253
  6
CONTINUOUS
 10
-2.0979405778
 20
-12.9986674343
 40
4.4625802532
100
AcDbArc
 50
153.2644683767
 51
155.5884667557
  0
ARC
  5
424
100
AcDbEntity
  8
ASSI
100
AcDbCircle
 62
253
  6
CONTINUOUS
 10
-2.0979405778
 20
-12.9986674343
 40
4.4625802532
100
AcDbArc
 50
153.2644683767
 51
155.5884667557
  0
ARC
  5
425
100
AcDbEntity
  8
ASSI
100
AcDbCircle
 62
253
  6
CONTINUOUS
 10
-2.0994545082
 20
-12.9968848224
 40
4.4603857294
100
AcDbArc
 50
145.7919013299
 51
148.042500958
  0
ARC
  5
426
100
AcDbEntity
  8
RACCORDO
100
AcDbCircle
 62
253
  6
CONTINUOUS
 10
-2.1001251523
 20
-12.997394684
 40
4.4601450679
100
AcDbArc
 50
94.0038932297
 51
143.9056260348
  0
ARC
  5
427
100
AcDbEntity
  8
ASSI
100
AcDbCircle
 62
253
  6
CONTINUOUS
 10
-2.1001243849
 20
-12.997409025
 40
4.4601450679
100
AcDbArc
 50
94.0038901998
 51
143.9054829777
  0
ARC
  5
428
100
AcDbEntity
  8
RACCORDO
100
AcDbCircle
 62
253
  6
CONTINUOUS
 10
-2.1003321351
 20
-12.9959960625
 40
4.4597970973
100
AcDbArc
 50
213.9143167366
 51
265.3157766386
  0
ARC
  5
429
100
AcDbEntity
  8
ASSI
100
AcDbCircle
 62
253
  6
CONTINUOUS
 10
-2.1005377974
 20
-12.9963852866
 40
4.4593672676
100
AcDbArc
 50
218.5698647175
 51
265.3180018517
  0
ARC
  5
42A
100
AcDbEntity
  8
ASSI
100
AcDbCircle
 62
253
  6
CONTINUOUS
 10
-2.1007472056
 20
-12.996583714
 40
4.4591631346
100
AcDbArc
 50
162.597966676
 51
199.8798136931
  0
ARC
  5
42B
100
AcDbEntity
  8
RACCORDO
100
AcDbCircle
 62
253
  6
CONTINUOUS
 10
-2.1008976985
 20
-12.9964951069
 40
4.4590166164
100
AcDbArc
 50
157.948041283
 51
204.1461497964
  0
ARC
  5
42C
100
AcDbEntity
  8
RACCORDO
100
AcDbCircle
 62
253
  6
CONTINUOUS
 10
-2.0993574282
 20
-12.995124285
 40
4.4579195523
100
AcDbArc
 50
90.0082587076
 51
94.0157738903
  0
ARC
  5
42D
100
AcDbEntity
  8
ASSI
100
AcDbCircle
 62
253
  6
CONTINUOUS
 10
-2.0993574282
 20
-12.995124285
 40
4.4579195523
100
AcDbArc
 50
90.0082587076
 51
94.0157738903
  0
ARC
  5
42E
100
AcDbEntity
  8
RACCORDO
100
AcDbCircle
 62
253
  6
CONTINUOUS
 10
-2.0989305785
 20
-12.9982674199
 40
4.4576229503
100
AcDbArc
 50
265.2954378259
 51
269.9862542571
  0
ARC
  5
42F
100
AcDbEntity
  8
ASSI
100
AcDbCircle
 62
253
  6
CONTINUOUS
 10
-2.0989305785
 20
-12.9982674199
 40
4.4576229503
100
AcDbArc
 50
265.2954378259
 51
269.9862542571
  0
ARC
  5
430
100
AcDbEntity
  8
RACCORDO
100
AcDbCircle
 62
253
  6
CONTINUOUS
 10
-2.1024399618
 20
-12.9950183882
 40
4.4568656411
100
AcDbArc
 50
143.912779761
 51
148.5915068437
  0
ARC
  5
431
100
AcDbEntity
  8
RACCORDO
100
AcDbCircle
 62
253
  6
CONTINUOUS
 10
-2.1025945573
 20
-12.9980450423
 40
4.4567709767
100
AcDbArc
 50
209.2311066242
 51
213.9086849718
  0
ARC
  5
432
100
AcDbEntity
  8
ASSI
100
AcDbCircle
 62
253
  6
CONTINUOUS
 10
-2.1037378656
 20
-12.9971286126
 40
4.4561654307
100
AcDbArc
 50
199.8863009106
 51
204.5629477434
  0
ARC
  5
433
100
AcDbEntity
  8
ASSI
100
AcDbCircle
 62
253
  6
CONTINUOUS
 10
-2.1034630058
 20
-12.9979714135
 40
4.4560913359
100
AcDbArc
 50
209.2311066242
 51
218.5773693874
  0
ARC
  5
434
100
AcDbEntity
  8
ASSI
100
AcDbCircle
 62
253
  6
CONTINUOUS
 10
-2.1043476984
 20
-12.9950214093
 40
4.4552602108
100
AcDbArc
 50
157.9489491454
 51
162.6032905832
  0
ARC
  5
435
100
AcDbEntity
  8
SMUSSO
100
AcDbCircle
 62
7
  6
CONTINUOUS
 10
-2.1
 20
-13.0
 40
4.4534954036
100
AcDbArc
 50
90.0
 51
153.2142414053
  0
ARC
  5
436
100
AcDbEntity
  8
ASSI
100
AcDbCircle
 62
7
  6
CONTINUOUS
 10
-2.1
 20
-13.0
 40
4.4534954036
100
AcDbArc
 50
90.0
 51
153.2142414053
  0
ARC
  5
437
100
AcDbEntity
  8
0
100
AcDbCircle
 62
7
  6
CONTINUOUS
 10
-2.1
 20
-13.0
 40
4.45
100
AcDbArc
 50
206.7076453021
 51
270.0
  0
ARC
  5
438
100
AcDbEntity
  8
SMUSSO
100
AcDbCircle
 62
7
  6
CONTINUOUS
 10
-2.1
 20
-13.0
 40
4.45
100
AcDbArc
 50
153.2923546979
 51
206.7076453021
  0
ARC
  5
439
100
AcDbEntity
  8
ASSI
100
AcDbCircle
 62
7
  6
CONTINUOUS
 10
-2.1
 20
-13.0
 40
4.45
100
AcDbArc
 50
153.2445513122
 51
270.0
  0
ARC
  5
43A
100
AcDbEntity
  8
ASSI
100
AcDbCircle
 62
253
  6
CONTINUOUS
 10
-2.1099269561
 20
-12.9897985327
 40
4.4477410893
100
AcDbArc
 50
144.3483714627
 51
145.7915503771
  0
ARC
  5
43B
100
AcDbEntity
  8
RACCORDO
100
AcDbCircle
 62
253
  6
CONTINUOUS
 10
-2.1119656717
 20
-12.9923102758
 40
4.4471816602
100
AcDbArc
 50
155.5883692558
 51
157.9444756699
  0
ARC
  5
43C
100
AcDbEntity
  8
ASSI
100
AcDbCircle
 62
253
  6
CONTINUOUS
 10
-2.1119656717
 20
-12.9923102758
 40
4.4471816602
100
AcDbArc
 50
155.5883692558
 51
157.9444756699
  0
ARC
  5
43D
100
AcDbEntity
  8
ASSI
100
AcDbCircle
 62
253
  6
CONTINUOUS
 10
-2.1165772158
 20
-12.9850578046
 40
4.4395740896
100
AcDbArc
 50
143.909195709
 51
144.3480625204
  0
ARC
  5
43E
100
AcDbEntity
  8
DRAFT
100
AcDbCircle
 62
7
  6
CONTINUOUS
 10
-2.1
 20
-13.0
 40
4.3
100
AcDbArc
 50
216.2683892899
 51
269.99635809
  0
ARC
  5
43F
100
AcDbEntity
  8
ASSI
100
AcDbCircle
 62
7
  6
CONTINUOUS
 10
-2.1
 20
-13.0
 40
4.3
100
AcDbArc
 50
216.2683892899
 51
269.9963579683
  0
ARC
  5
440
100
AcDbEntity
  8
DRAFT
100
AcDbCircle
 62
7
  6
CONTINUOUS
 10
-2.1
 20
-13.0
 40
4.293017974
100
AcDbArc
 50
89.9963039701
 51
144.2408799387
  0
ARC
  5
441
100
AcDbEntity
  8
ASSI
100
AcDbCircle
 62
7
  6
CONTINUOUS
 10
-2.1
 20
-13.0
 40
4.293017974
100
AcDbArc
 50
89.9963039701
 51
144.2408799387
  0
ARC
  5
442
100
AcDbEntity
  8
DRAFT
100
AcDbCircle
 62
7
  6
CONTINUOUS
 10
-2.1
 20
-13.0
 40
4.2912724675
100
AcDbArc
 50
144.3679448432
 51
215.6320551568
  0
ARC
  5
443
100
AcDbEntity
  8
ASSI
100
AcDbCircle
 62
7
  6
CONTINUOUS
 10
-2.1
 20
-13.0
 40
4.2912724675
100
AcDbArc
 50
144.3679448432
 51
215.6320551568
  0
ARC
  5
444
100
AcDbEntity
  8
ASSI
100
AcDbCircle
 62
7
  6
CONTINUOUS
 10
-2.093068124
 20
-13.0063946491
 40
4.289057247
100
AcDbArc
 50
149.9892534703
 51
153.0440259883
  0
ARC
  5
445
100
AcDbEntity
  8
RACCORDO
100
AcDbCircle
 62
7
  6
CONTINUOUS
 10
-2.0930995559
 20
-12.9999544969
 40
4.2890221586
100
AcDbArc
 50
206.8910066938
 51
210.0221021928
  0
ARC
  5
446
100
AcDbEntity
  8
ASSI
100
AcDbCircle
 62
7
  6
CONTINUOUS
 10
-2.0930995559
 20
-12.9999544969
 40
4.2890221586
100
AcDbArc
 50
206.8910066938
 51
210.0221021928
  0
ARC
  5
447
100
AcDbEntity
  8
ASSI
100
AcDbCircle
 62
7
  6
CONTINUOUS
 10
-2.0996985458
 20
-13.0097486318
 40
4.288418125
100
AcDbArc
 50
90.0040276043
 51
93.6443224349
  0
ARC
  5
448
100
AcDbEntity
  8
ASSI
100
AcDbCircle
 62
7
  6
CONTINUOUS
 10
-2.0997193503
 20
-12.9971427082
 40
4.2878610845
100
AcDbArc
 50
266.361017464
 51
269.9962498688
  0
ARC
  5
449
100
AcDbEntity
  8
RACCORDO
100
AcDbCircle
 62
7
  6
CONTINUOUS
 10
-2.0945080876
 20
-13.0056485167
 40
4.2874355022
100
AcDbArc
 50
149.9892534703
 51
153.7347010869
  0
ARC
  5
44A
100
AcDbEntity
  8
RACCORDO
100
AcDbCircle
 62
7
  6
CONTINUOUS
 10
-2.0946310107
 20
-13.0007474578
 40
4.2872976502
100
AcDbArc
 50
206.2749740762
 51
206.890812274
  0
ARC
  5
44B
100
AcDbEntity
  8
ASSI
100
AcDbCircle
 62
7
  6
CONTINUOUS
 10
-2.0946310107
 20
-13.0007474578
 40
4.2872976502
100
AcDbArc
 50
206.2749740762
 51
206.890812274
  0
ARC
  5
44C
100
AcDbEntity
  8
ASSI
100
AcDbCircle
 62
7
  6
CONTINUOUS
 10
-2.0975731799
 20
-13.0021658085
 40
4.2840546072
100
AcDbArc
 50
210.0231508143
 51
215.163216431
  0
ARC
  5
44D
100
AcDbEntity
  8
RACCORDO
100
AcDbCircle
 62
7
  6
CONTINUOUS
 10
-2.0990161373
 20
-13.0031665378
 40
4.2823090526
100
AcDbArc
 50
157.4889676801
 51
202.5192209355
  0
ARC
  5
44E
100
AcDbEntity
  8
RACCORDO
100
AcDbCircle
 62
7
  6
CONTINUOUS
 10
-2.0998451299
 20
-13.0026260447
 40
4.2813063001
100
AcDbArc
 50
90.002072598
 51
149.9875638931
  0
ARC
  5
44F
100
AcDbEntity
  8
RACCORDO
100
AcDbCircle
 62
7
  6
CONTINUOUS
 10
-2.1010369342
 20
-13.0038428876
 40
4.2801833044
100
AcDbArc
 50
202.5212178073
 51
206.275779421
  0
ARC
  5
450
100
AcDbEntity
  8
RACCORDO
100
AcDbCircle
 62
7
  6
CONTINUOUS
 10
-2.101060721
 20
-13.0024828108
 40
4.2801584844
100
AcDbArc
 50
153.7338863476
 51
157.4869441835
  0
ARC
  5
451
100
AcDbEntity
  8
RACCORDO
100
AcDbCircle
 62
7
  6
CONTINUOUS
 10
-2.1009983632
 20
-13.0045591147
 40
4.2798792679
100
AcDbArc
 50
210.0216365122
 51
269.9975302371
  0
ARC
  5
452
100
AcDbEntity
  8
ASSI
100
AcDbCircle
 62
7
  6
CONTINUOUS
 10
-2.1009983632
 20
-13.0045591147
 40
4.2798792679
100
AcDbArc
 50
210.0216365122
 51
266.3579716761
  0
ARC
  5
453
100
AcDbEntity
  8
ASSI
100
AcDbCircle
 62
7
  6
CONTINUOUS
 10
-2.0998935205
 20
-13.0025796674
 40
4.2812512722
100
AcDbArc
 50
93.6478166864
 51
210.0218807421
  0
ARC
  5
454
100
AcDbEntity
  8
ASSI
100
AcDbCircle
 62
7
  6
CONTINUOUS
 10
-2.0995065794
 20
-13.0000378389
 40
4.2787073499
100
AcDbArc
 50
90.0066073506
 51
93.7437984736
  0
ARC
  5
455
100
AcDbEntity
  8
ASSI
100
AcDbCircle
 62
7
  6
CONTINUOUS
 10
-2.099531325
 20
-13.0066732431
 40
4.2783305661
100
AcDbArc
 50
266.2621620999
 51
269.9937234636
  0
ARC
  5
456
100
AcDbEntity
  8
ASSI
100
AcDbCircle
 62
253
  6
CONTINUOUS
 10
-2.0984125393
 20
-13.0203271454
 40
4.1960959836
100
AcDbArc
 50
93.7670945704
 51
97.4856551593
  0
ARC
  5
457
100
AcDbEntity
  8
ASSI
100
AcDbCircle
 62
253
  6
CONTINUOUS
 10
-2.0984250787
 20
-12.9949207493
 40
4.1958522468
100
AcDbArc
 50
262.5230282741
 51
266.2380410921
  0
ARC
  5
458
100
AcDbEntity
  8
ASSI
100
AcDbCircle
 62
253
  6
CONTINUOUS
 10
-2.0910686063
 20
-13.0104749771
 40
4.1910252602
100
AcDbArc
 50
149.9878756849
 51
154.1287453379
  0
ARC
  5
459
100
AcDbEntity
  8
ASSI
100
AcDbCircle
 62
253
  6
CONTINUOUS
 10
-2.0911097042
 20
-13.0045504848
 40
4.190978792
100
AcDbArc
 50
205.8108205031
 51
210.0192572456
  0
ARC
  5
45A
100
AcDbEntity
  8
RACCORDO
100
AcDbCircle
 62
253
  6
CONTINUOUS
 10
-2.0928053432
 20
-13.0095827843
 40
4.1890733017
100
AcDbArc
 50
153.2306283596
 51
153.7433368827
  0
ARC
  5
45B
100
AcDbEntity
  8
ASSI
100
AcDbCircle
 62
253
  6
CONTINUOUS
 10
-2.0929625763
 20
-13.0095462714
 40
4.1889177447
100
AcDbArc
 50
151.6817487324
 51
155.1109577487
  0
ARC
  5
45C
100
AcDbEntity
  8
ASSI
100
AcDbCircle
 62
253
  6
CONTINUOUS
 10
-2.0965356111
 20
-13.0075019114
 40
4.1848047251
100
AcDbArc
 50
161.2363281526
 51
198.7657982737
  0
ARC
  5
45D
100
AcDbEntity
  8
RACCORDO
100
AcDbCircle
 62
253
  6
CONTINUOUS
 10
-2.0983017053
 20
-13.0077859547
 40
4.1831771947
100
AcDbArc
 50
153.7321044371
 51
269.9767377448
  0
ARC
  5
45E
100
AcDbEntity
  8
ASSI
100
AcDbCircle
 62
253
  6
CONTINUOUS
 10
-2.0983272698
 20
-13.0078111351
 40
4.1831449708
100
AcDbArc
 50
155.1015920841
 51
269.9770877746
  0
ARC
  5
45F
100
AcDbEntity
  8
ASSI
100
AcDbCircle
 62
253
  6
CONTINUOUS
 10
-2.0998308502
 20
-13.006228171
 40
4.1812881006
100
AcDbArc
 50
154.1287147634
 51
157.4899493032
  0
ARC
  5
460
100
AcDbEntity
  8
RACCORDO
100
AcDbCircle
 62
253
  6
CONTINUOUS
 10
-2.0995371691
 20
-13.0053811872
 40
4.1811498101
100
AcDbArc
 50
90.0063423726
 51
153.2404848801
  0
ARC
  5
461
100
AcDbEntity
  8
ASSI
100
AcDbCircle
 62
253
  6
CONTINUOUS
 10
-2.0999632411
 20
-13.0088361752
 40
4.1811425199
100
AcDbArc
 50
202.5136384695
 51
205.8107753467
  0
ARC
  5
462
100
AcDbEntity
  8
ASSI
100
AcDbCircle
 62
253
  6
CONTINUOUS
 10
-2.0995849068
 20
-13.0052867326
 40
4.1810490013
100
AcDbArc
 50
90.0056883306
 51
151.6900854414
  0
ARC
  5
463
100
AcDbEntity
  8
ASSI
100
AcDbCircle
 62
253
  6
CONTINUOUS
 10
-2.0993033444
 20
-13.0097896349
 40
4.1809577768
100
AcDbArc
 50
266.2366817224
 51
269.9904530422
  0
ARC
  5
464
100
AcDbEntity
  8
ASSI
100
AcDbCircle
 62
253
  6
CONTINUOUS
 10
-2.0996697337
 20
-13.0099105734
 40
4.1808279748
100
AcDbArc
 50
213.7715775874
 51
262.5132087989
  0
ARC
  5
465
100
AcDbEntity
  8
CURVE
100
AcDbCircle
 62
253
  6
CONTINUOUS
 10
-2.6210876169
 20
-13.0643926513
 40
0.7658083623
100
AcDbArc
 50
358.6174031432
 51
41.9312769903
  0
ARC
  5
466
100
AcDbEntity
  8
CURVE
100
AcDbCircle
 62
253
  6
CONTINUOUS
 10
-2.6189690556
 20
-13.1030981415
 40
0.7637320199
100
AcDbArc
 50
317.87770197
 51
1.5176316536
  0
ARC
  5
467
100
AcDbEntity
  8
CURVE
100
AcDbCircle
 62
253
  6
CONTINUOUS
 10
-2.5678291262
 20
-13.0634730435
 40
0.7264147586
100
AcDbArc
 50
44.6854398324
 51
90.7989543601
  0
ARC
  5
468
100
AcDbEntity
  8
CURVE
100
AcDbCircle
 62
253
  6
CONTINUOUS
 10
-2.5578279137
 20
-13.1243429326
 40
0.704587558
100
AcDbArc
 50
268.3628303978
 51
315.8239311947
  0
ARC
  5
469
100
AcDbEntity
  8
RACCORDO
100
AcDbCircle
 62
253
  6
CONTINUOUS
 10
-17218.8163657162
 20
-0.0
 40
17208.8386762191
100
AcDbArc
 50
359.9329040131
 51
0.0670959869
  0
ARC
  5
46A
100
AcDbEntity
  8
RACCORDO
100
AcDbCircle
 62
253
  6
CONTINUOUS
 10
-17127.9582426184
 20
-0.0
 40
17117.1806749652
100
AcDbArc
 50
359.9327246123
 51
0.0672753877
  0
ARC
  5
46B
100
AcDbEntity
  8
ASSI
100
AcDbCircle
 62
253
  6
CONTINUOUS
 10
-17127.9582426184
 20
-0.0
 40
17117.1806749652
100
AcDbArc
 50
359.9327246123
 51
0.0672753877
  0
ARC
  5
46C
100
AcDbEntity
  8
RACCORDO
100
AcDbCircle
 62
253
  6
CONTINUOUS
 10
-10.0011741627
 20
20.7511741627
 40
0.8001723635
100
AcDbArc
 50
90.020958193
 51
179.979041807
  0
ARC
  5
46D
100
AcDbEntity
  8
ASSI
100
AcDbCircle
 62
253
  6
CONTINUOUS
 10
-10.0011741627
 20
20.7511741627
 40
0.8001723635
100
AcDbArc
 50
90.020958193
 51
179.979041807
  0
ARC
  5
46E
100
AcDbEntity
  8
CURVE
100
AcDbCircle
 62
253
  6
CONTINUOUS
 10
0.222384626
 20
-13.1030674027
 40
0.7608882749
100
AcDbArc
 50
178.4789800181
 51
222.2048183143
  0
ARC
  5
46F
100
AcDbEntity
  8
CURVE
100
AcDbCircle
 62
253
  6
CONTINUOUS
 10
0.1703616829
 20
-13.1123302397
 40
0.716683666
100
AcDbArc
 50
224.4508456672
 51
271.8303450847
  0
ARC
  5
470
100
AcDbEntity
  8
CURVE
100
AcDbCircle
 62
253
  6
CONTINUOUS
 10
0.2129170562
 20
-13.0689232494
 40
0.7512790975
100
AcDbArc
 50
136.3584543258
 51
181.0637473073
  0
ARC
  5
471
100
AcDbEntity
  8
CURVE
100
AcDbCircle
 62
253
  6
CONTINUOUS
 10
0.218003213
 20
-13.0322119442
 40
0.6954227587
100
AcDbArc
 50
56.8436047081
 51
91.7924412426
  0
ARC
  5
472
100
AcDbEntity
  8
CURVE
100
AcDbCircle
 62
253
  6
CONTINUOUS
 10
0.1687594081
 20
-13.0269309244
 40
0.6903440963
100
AcDbArc
 50
87.7177747557
 51
136.3513015608
  0
ARC
  5
473
100
AcDbEntity
  8
CURVE
100
AcDbCircle
 62
253
  6
CONTINUOUS
 10
0.2370897821
 20
-12.9653615169
 40
0.6293537537
100
AcDbArc
 50
22.0299750579
 51
54.9694010961
  0
ARC
  5
474
100
AcDbEntity
  8
CURVE
100
AcDbCircle
 62
253
  6
CONTINUOUS
 10
1.4781532572
 20
-12.7949052664
 40
0.3279785726
100
AcDbArc
 50
176.3801584898
 51
233.1594639041
  0
ARC
  5
475
100
AcDbEntity
  8
CURVE
100
AcDbCircle
 62
253
  6
CONTINUOUS
 10
3.1996417347
 20
-13.360527556
 40
0.3495095377
100
AcDbArc
 50
356.3806282784
 51
48.91019841
  0
ARC
  5
476
100
AcDbEntity
  8
CURVE
100
AcDbCircle
 62
253
  6
CONTINUOUS
 10
1.8662706142
 20
-13.3604455844
 40
0.3493856486
100
AcDbArc
 50
356.3658878336
 51
48.9128780564
  0
ARC
  5
477
100
AcDbEntity
  8
RACCORDO
100
AcDbCircle
 62
253
  6
CONTINUOUS
 10
2.0871366748
 20
-13.0066063379
 40
4.5741285075
100
AcDbArc
 50
24.6663707885
 51
29.2047016134
  0
ARC
  5
478
100
AcDbEntity
  8
ASSI
100
AcDbCircle
 62
253
  6
CONTINUOUS
 10
2.0873977101
 20
-12.9947256239
 40
4.5741025176
100
AcDbArc
 50
328.5342770622
 51
333.2312162731
  0
ARC
  5
479
100
AcDbEntity
  8
ASSI
100
AcDbCircle
 62
253
  6
CONTINUOUS
 10
2.0884000414
 20
-13.0059701514
 40
4.5727149171
100
AcDbArc
 50
24.6657331274
 51
29.2053102866
  0
ARC
  5
47A
100
AcDbEntity
  8
RACCORDO
100
AcDbCircle
 62
253
  6
CONTINUOUS
 10
2.0892069205
 20
-12.9954971173
 40
4.5721397258
100
AcDbArc
 50
323.8739658623
 51
333.2296368157
  0
ARC
  5
47B
100
AcDbEntity
  8
ASSI
100
AcDbCircle
 62
253
  6
CONTINUOUS
 10
2.0914991696
 20
-13.0045276689
 40
4.5692965778
100
AcDbArc
 50
24.2539085392
 51
24.665513339
  0
ARC
  5
47C
100
AcDbEntity
  8
RACCORDO
100
AcDbCircle
 62
253
  6
CONTINUOUS
 10
2.0957904676
 20
-12.999015031
 40
4.5646772899
100
AcDbArc
 50
333.2318400208
 51
335.5619984277
  0
ARC
  5
47D
100
AcDbEntity
  8
ASSI
100
AcDbCircle
 62
253
  6
CONTINUOUS
 10
2.098298917
 20
-13.0043014436
 40
4.5642684066
100
AcDbArc
 50
85.2438293783
 51
89.9786461118
  0
ARC
  5
47E
100
AcDbEntity
  8
ASSI
100
AcDbCircle
 62
253
  6
CONTINUOUS
 10
2.0963243162
 20
-13.0014995998
 40
4.5636170431
100
AcDbArc
 50
29.2050199774
 51
32.1070088419
  0
ARC
  5
47F
100
AcDbEntity
  8
ASSI
100
AcDbCircle
 62
253
  6
CONTINUOUS
 10
2.0975189568
 20
-13.0008677097
 40
4.5623661956
100
AcDbArc
 50
337.9099693442
 51
19.8443766612
  0
ARC
  5
480
100
AcDbEntity
  8
RACCORDO
100
AcDbCircle
 62
253
  6
CONTINUOUS
 10
2.098033636
 20
-13.0009428179
 40
4.5618665465
100
AcDbArc
 50
337.9084124769
 51
24.5085986738
  0
ARC
  5
481
100
AcDbEntity
  8
RACCORDO
100
AcDbCircle
 62
253
  6
CONTINUOUS
 10
2.0989772346
 20
-13.0001874907
 40
4.5615415451
100
AcDbArc
 50
270.0128465653
 51
274.048216537
  0
ARC
  5
482
100
AcDbEntity
  8
ASSI
100
AcDbCircle
 62
253
  6
CONTINUOUS
 10
2.0989772346
 20
-13.0001874907
 40
4.5615415451
100
AcDbArc
 50
270.0128465653
 51
274.048216537
  0
ARC
  5
483
100
AcDbEntity
  8
ASSI
100
AcDbCircle
 62
253
  6
CONTINUOUS
 10
2.0989278627
 20
-13.0018024862
 40
4.5605738042
100
AcDbArc
 50
324.5069080465
 51
328.5344984571
  0
ARC
  5
484
100
AcDbEntity
  8
RACCORDO
100
AcDbCircle
 62
253
  6
CONTINUOUS
 10
2.0996822071
 20
-12.9999263584
 40
4.5599215814
100
AcDbArc
 50
29.2083520679
 51
89.9960068821
  0
ARC
  5
485
100
AcDbEntity
  8
RACCORDO
100
AcDbCircle
 62
253
  6
CONTINUOUS
 10
2.0998143425
 20
-13.0018999766
 40
4.559801944
100
AcDbArc
 50
274.0392432119
 51
323.8603698569
  0
ARC
  5
486
100
AcDbEntity
  8
ASSI
100
AcDbCircle
 62
253
  6
CONTINUOUS
 10
2.099829381
 20
-13.0018711932
 40
4.559801944
100
AcDbArc
 50
274.0390292403
 51
323.8599663314
  0
ARC
  5
487
100
AcDbEntity
  8
ASSI
100
AcDbCircle
 62
253
  6
CONTINUOUS
 10
2.1001081005
 20
-12.999511367
 40
4.5593450316
100
AcDbArc
 50
35.7814666965
 51
85.2614953747
  0
ARC
  5
488
100
AcDbEntity
  8
ASSI
100
AcDbCircle
 62
253
  6
CONTINUOUS
 10
2.1015026832
 20
-13.0017808203
 40
4.5583315579
100
AcDbArc
 50
333.2305418592
 51
337.9017734335
  0
ARC
  5
489
100
AcDbEntity
  8
ASSI
100
AcDbCircle
 62
253
  6
CONTINUOUS
 10
2.1024692318
 20
-12.9997257089
 40
4.5573222465
100
AcDbArc
 50
19.8519987885
 51
24.2555200928
  0
ARC
  5
48A
100
AcDbEntity
  8
RACCORDO
100
AcDbCircle
 62
253
  6
CONTINUOUS
 10
2.1026765628
 20
-13.0021980347
 40
4.5570912887
100
AcDbArc
 50
335.5626145198
 51
335.7466015111
  0
ARC
  5
48B
100
AcDbEntity
  8
ASSI
100
AcDbCircle
 62
253
  6
CONTINUOUS
 10
2.1085928654
 20
-12.9938796256
 40
4.5491748511
100
AcDbArc
 50
32.1078427298
 51
33.3878585357
  0
ARC
  5
48C
100
AcDbEntity
  8
RACCORDO
100
AcDbCircle
 62
253
  6
CONTINUOUS
 10
2.1106198093
 20
-13.0057236745
 40
4.5484008944
100
AcDbArc
 50
335.7459916697
 51
337.9045874647
  0
ARC
  5
48D
100
AcDbEntity
  8
ASSI
100
AcDbCircle
 62
253
  6
CONTINUOUS
 10
2.1101559027
 20
-12.9929931283
 40
4.5473825764
100
AcDbArc
 50
33.8742619601
 51
35.7888622566
  0
ARC
  5
48E
100
AcDbEntity
  8
ASSI
100
AcDbCircle
 62
253
  6
CONTINUOUS
 10
2.1140436947
 20
-13.0123509892
 40
4.542142205
100
AcDbArc
 50
323.8609780987
 51
324.5045380019
  0
ARC
  5
48F
100
AcDbEntity
  8
ASSI
100
AcDbCircle
 62
253
  6
CONTINUOUS
 10
2.1151157461
 20
-12.9896021206
 40
4.54137455
100
AcDbArc
 50
33.3880856474
 51
33.8736191735
  0
ARC
  5
490
100
AcDbEntity
  8
RACCORDO
100
AcDbCircle
 62
253
  6
CONTINUOUS
 10
2.0897390996
 20
-12.9902360725
 40
4.4717914431
100
AcDbArc
 50
328.5410676995
 51
333.2171416555
  0
ARC
  5
491
100
AcDbEntity
  8
ASSI
100
AcDbCircle
 62
253
  6
CONTINUOUS
 10
2.0897390996
 20
-12.9902360725
 40
4.4717914431
100
AcDbArc
 50
328.5410676995
 51
333.2171416555
  0
ARC
  5
492
100
AcDbEntity
  8
RACCORDO
100
AcDbCircle
 62
253
  6
CONTINUOUS
 10
2.0909914187
 20
-13.0016695111
 40
4.4701283481
100
AcDbArc
 50
24.5241329155
 51
29.1931656697
  0
ARC
  5
493
100
AcDbEntity
  8
ASSI
100
AcDbCircle
 62
253
  6
CONTINUOUS
 10
2.0909914187
 20
-13.0016695111
 40
4.4701283481
100
AcDbArc
 50
24.5241329155
 51
29.1931656697
  0
ARC
  5
494
100
AcDbEntity
  8
RACCORDO
100
AcDbCircle
 62
253
  6
CONTINUOUS
 10
2.094903021
 20
-12.9998662003
 40
4.4658211049
100
AcDbArc
 50
24.0683630067
 51
24.5238663709
  0
ARC
  5
495
100
AcDbEntity
  8
RACCORDO
100
AcDbCircle
 62
253
  6
CONTINUOUS
 10
2.0979069843
 20
-12.9944144933
 40
4.4626169637
100
AcDbArc
 50
333.2177788344
 51
335.5045778454
  0
ARC
  5
496
100
AcDbEntity
  8
ASSI
100
AcDbCircle
 62
253
  6
CONTINUOUS
 10
2.0979069843
 20
-12.9944144934
 40
4.4626169637
100
AcDbArc
 50
333.2177788344
 51
335.5045778454
  0
ARC
  5
497
100
AcDbEntity
  8
ASSI
100
AcDbCircle
 62
253
  6
CONTINUOUS
 10
2.0985065551
 20
-12.9974209212
 40
4.4614961182
100
AcDbArc
 50
29.1928846451
 51
32.087387571
  0
ARC
  5
498
100
AcDbEntity
  8
ASSI
100
AcDbCircle
 62
253
  6
CONTINUOUS
 10
2.100123179
 20
-12.995683718
 40
4.460147532
100
AcDbArc
 50
273.9948192287
 51
323.8538882103
  0
ARC
  5
499
100
AcDbEntity
  8
RACCORDO
100
AcDbCircle
 62
253
  6
CONTINUOUS
 10
2.1001303145
 20
-12.9957070947
 40
4.4601378806
100
AcDbArc
 50
273.9947487081
 51
323.6086477586
  0
ARC
  5
49A
100
AcDbEntity
  8
RACCORDO
100
AcDbCircle
 62
253
  6
CONTINUOUS
 10
2.1003310194
 20
-12.9971004842
 40
4.4597987402
100
AcDbArc
 50
33.8743480557
 51
85.3101085633
  0
ARC
  5
49B
100
AcDbEntity
  8
ASSI
100
AcDbCircle
 62
253
  6
CONTINUOUS
 10
2.1003420903
 20
-12.9971264573
 40
4.4597987402
100
AcDbArc
 50
33.8747043728
 51
85.3102775986
  0
ARC
  5
49C
100
AcDbEntity
  8
ASSI
100
AcDbCircle
 62
253
  6
CONTINUOUS
 10
2.1007458809
 20
-12.9965113958
 40
4.4591645382
100
AcDbArc
 50
342.5566215157
 51
19.8437904803
  0
ARC
  5
49D
100
AcDbEntity
  8
RACCORDO
100
AcDbCircle
 62
253
  6
CONTINUOUS
 10
2.1008957126
 20
-12.9965999433
 40
4.4590183864
100
AcDbArc
 50
337.9040645061
 51
24.0614460448
  0
ARC
  5
49E
100
AcDbEntity
  8
ASSI
100
AcDbCircle
 62
253
  6
CONTINUOUS
 10
2.1010983444
 20
-12.9972139758
 40
4.4584601642
100
AcDbArc
 50
324.3982855174
 51
328.5413762127
  0
ARC
  5
49F
100
AcDbEntity
  8
RACCORDO
100
AcDbCircle
 62
253
  6
CONTINUOUS
 10
2.0993581459
 20
-12.9980071745
 40
4.4578831137
100
AcDbArc
 50
270.008249551
 51
274.0067084917
  0
ARC
  5
4A0
100
AcDbEntity
  8
ASSI
100
AcDbCircle
 62
253
  6
CONTINUOUS
 10
2.0993581459
 20
-12.9980071745
 40
4.4578831137
100
AcDbArc
 50
270.008249551
 51
274.0067084917
  0
ARC
  5
4A1
100
AcDbEntity
  8
RACCORDO
100
AcDbCircle
 62
253
  6
CONTINUOUS
 10
2.0989325989
 20
-12.9948734085
 40
4.4576687572
100
AcDbArc
 50
85.2898539373
 51
89.9862803671
  0
ARC
  5
4A2
100
AcDbEntity
  8
ASSI
100
AcDbCircle
 62
253
  6
CONTINUOUS
 10
2.0989325989
 20
-12.9948734085
 40
4.4576687572
100
AcDbArc
 50
85.2898539373
 51
89.9862803671
  0
ARC
  5
4A3
100
AcDbEntity
  8
RACCORDO
100
AcDbCircle
 62
253
  6
CONTINUOUS
 10
2.1023805374
 20
-12.9980330528
 40
4.4569389694
100
AcDbArc
 50
323.8611596065
 51
328.5417558641
  0
ARC
  5
4A4
100
AcDbEntity
  8
RACCORDO
100
AcDbCircle
 62
253
  6
CONTINUOUS
 10
2.1026593781
 20
-12.995005658
 40
4.4566927289
100
AcDbArc
 50
29.1918183803
 51
33.8686722184
  0
ARC
  5
4A5
100
AcDbEntity
  8
ASSI
100
AcDbCircle
 62
253
  6
CONTINUOUS
 10
2.10376982
 20
-12.9959621342
 40
4.4561337343
100
AcDbArc
 50
19.8503459918
 51
24.5255668002
  0
ARC
  5
4A6
100
AcDbEntity
  8
ASSI
100
AcDbCircle
 62
253
  6
CONTINUOUS
 10
2.1042584184
 20
-12.9980408952
 40
4.4553550605
100
AcDbArc
 50
337.9049674201
 51
342.5618456767
  0
ARC
  5
4A7
100
AcDbEntity
  8
SMUSSO
100
AcDbCircle
 62
7
  6
CONTINUOUS
 10
2.1
 20
-13.0
 40
4.4534946172
100
AcDbArc
 50
26.7857410275
 51
90.0
  0
ARC
  5
4A8
100
AcDbEntity
  8
ASSI
100
AcDbCircle
 62
7
  6
CONTINUOUS
 10
2.1
 20
-13.0
 40
4.4534946172
100
AcDbArc
 50
26.7857410275
 51
90.0
  0
ARC
  5
4A9
100
AcDbEntity
  8
0
100
AcDbCircle
 62
7
  6
CONTINUOUS
 10
2.1
 20
-13.0
 40
4.45
100
AcDbArc
 50
270.0
 51
333.2923546979
  0
ARC
  5
4AA
100
AcDbEntity
  8
SMUSSO
100
AcDbCircle
 62
7
  6
CONTINUOUS
 10
2.1
 20
-13.0
 40
4.45
100
AcDbArc
 50
333.2923546979
 51
26.7076453021
  0
ARC
  5
4AB
100
AcDbEntity
  8
ASSI
100
AcDbCircle
 62
7
  6
CONTINUOUS
 10
2.1
 20
-13.0
 40
4.45
100
AcDbArc
 50
270.0
 51
26.7558508609
  0
ARC
  5
4AC
100
AcDbEntity
  8
RACCORDO
100
AcDbCircle
 62
253
  6
CONTINUOUS
 10
2.11169534
 20
-13.0006852503
 40
4.4474696526
100
AcDbArc
 50
335.5044415238
 51
337.9004945702
  0
ARC
  5
4AD
100
AcDbEntity
  8
ASSI
100
AcDbCircle
 62
253
  6
CONTINUOUS
 10
2.11169534
 20
-13.0006852503
 40
4.4474696526
100
AcDbArc
 50
335.5044415238
 51
337.9004945702
  0
ARC
  5
4AE
100
AcDbEntity
  8
ASSI
100
AcDbCircle
 62
253
  6
CONTINUOUS
 10
2.1121233593
 20
-12.9889389615
 40
4.445453713
100
AcDbArc
 50
32.0879954621
 51
33.8717256799
  0
ARC
  5
4AF
100
AcDbEntity
  8
ASSI
100
AcDbCircle
 62
253
  6
CONTINUOUS
 10
2.1159856867
 20
-13.0076288999
 40
4.4402924986
100
AcDbArc
 50
323.857623482
 51
324.3957251209
  0
ARC
  5
4B0
100
AcDbEntity
  8
RACCORDO
100
AcDbCircle
 62
253
  6
CONTINUOUS
 10
2.1171077956
 20
-13.0084425989
 40
4.4389064206
100
AcDbArc
 50
323.610960465
 51
323.8575627251
  0
ARC
  5
4B1
100
AcDbEntity
  8
DRAFT
100
AcDbCircle
 62
7
  6
CONTINUOUS
 10
2.1
 20
-13.0
 40
4.3
100
AcDbArc
 50
269.9963846663
 51
323.7316107101
  0
ARC
  5
4B2
100
AcDbEntity
  8
ASSI
100
AcDbCircle
 62
7
  6
CONTINUOUS
 10
2.1
 20
-13.0
 40
4.3
100
AcDbArc
 50
269.9963756459
 51
323.7316107101
  0
ARC
  5
4B3
100
AcDbEntity
  8
DRAFT
100
AcDbCircle
 62
7
  6
CONTINUOUS
 10
2.1
 20
-13.0
 40
4.293017974
100
AcDbArc
 50
35.7591200613
 51
90.0036960346
  0
ARC
  5
4B4
100
AcDbEntity
  8
ASSI
100
AcDbCircle
 62
7
  6
CONTINUOUS
 10
2.1
 20
-13.0
 40
4.293017974
100
AcDbArc
 50
35.7591200613
 51
90.0036960346
  0
ARC
  5
4B5
100
AcDbEntity
  8
DRAFT
100
AcDbCircle
 62
7
  6
CONTINUOUS
 10
2.1
 20
-13.0
 40
4.2912724675
100
AcDbArc
 50
324.3679448432
 51
35.6320551568
  0
ARC
  5
4B6
100
AcDbEntity
  8
ASSI
100
AcDbCircle
 62
7
  6
CONTINUOUS
 10
2.1
 20
-13.0
 40
4.2912724675
100
AcDbArc
 50
324.3679448432
 51
35.6320551568
  0
ARC
  5
4B7
100
AcDbEntity
  8
ASSI
100
AcDbCircle
 62
7
  6
CONTINUOUS
 10
2.0930673865
 20
-13.0063943499
 40
4.2890577477
100
AcDbArc
 50
26.9545896809
 51
30.0055147421
  0
ARC
  5
4B8
100
AcDbEntity
  8
RACCORDO
100
AcDbCircle
 62
7
  6
CONTINUOUS
 10
2.0930995121
 20
-12.9999536307
 40
4.2890226112
100
AcDbArc
 50
329.9714297237
 51
333.1078735985
  0
ARC
  5
4B9
100
AcDbEntity
  8
ASSI
100
AcDbCircle
 62
7
  6
CONTINUOUS
 10
2.0930995121
 20
-12.9999536307
 40
4.2890226111
100
AcDbArc
 50
329.9714297266
 51
333.1078735985
  0
ARC
  5
4BA
100
AcDbEntity
  8
ASSI
100
AcDbCircle
 62
7
  6
CONTINUOUS
 10
2.0996971217
 20
-12.9965661649
 40
4.2884376293
100
AcDbArc
 50
270.0040466134
 51
273.6403657474
  0
ARC
  5
4BB
100
AcDbEntity
  8
ASSI
100
AcDbCircle
 62
7
  6
CONTINUOUS
 10
2.0997205213
 20
-13.0091806606
 40
4.2878501523
100
AcDbArc
 50
86.357537007
 51
89.9962655057
  0
ARC
  5
4BC
100
AcDbEntity
  8
RACCORDO
100
AcDbCircle
 62
7
  6
CONTINUOUS
 10
2.0945030749
 20
-13.0056505481
 40
4.2874408702
100
AcDbArc
 50
26.2599791347
 51
30.0055147399
  0
ARC
  5
4BD
100
AcDbEntity
  8
RACCORDO
100
AcDbCircle
 62
7
  6
CONTINUOUS
 10
2.0946370328
 20
-13.0007498716
 40
4.287291209
100
AcDbArc
 50
333.1080699951
 51
333.7186222433
  0
ARC
  5
4BE
100
AcDbEntity
  8
ASSI
100
AcDbCircle
 62
7
  6
CONTINUOUS
 10
2.0946370328
 20
-13.0007498716
 40
4.287291209
100
AcDbArc
 50
333.1080699951
 51
333.7186222461
  0
ARC
  5
4BF
100
AcDbEntity
  8
ASSI
100
AcDbCircle
 62
7
  6
CONTINUOUS
 10
2.0975696794
 20
-13.0021649132
 40
4.2840580322
100
AcDbArc
 50
324.8650164176
 51
330.008054456
  0
ARC
  5
4C0
100
AcDbEntity
  8
RACCORDO
100
AcDbCircle
 62
7
  6
CONTINUOUS
 10
2.0990161412
 20
-13.0031665355
 40
4.2823090488
100
AcDbArc
 50
337.4744418593
 51
22.5056250803
  0
ARC
  5
4C1
100
AcDbEntity
  8
RACCORDO
100
AcDbCircle
 62
7
  6
CONTINUOUS
 10
2.099845588
 20
-13.0026255621
 40
4.2813056406
100
AcDbArc
 50
30.0072007186
 51
89.9979335323
  0
ARC
  5
4C2
100
AcDbEntity
  8
RACCORDO
100
AcDbCircle
 62
7
  6
CONTINUOUS
 10
2.1010369628
 20
-13.0038432121
 40
4.280183169
100
AcDbArc
 50
333.717816702
 51
337.4724457544
  0
ARC
  5
4C3
100
AcDbEntity
  8
RACCORDO
100
AcDbCircle
 62
7
  6
CONTINUOUS
 10
2.1010608296
 20
-13.0024830643
 40
4.2801584675
100
AcDbArc
 50
22.5076495608
 51
26.2607938184
  0
ARC
  5
4C4
100
AcDbEntity
  8
RACCORDO
100
AcDbCircle
 62
7
  6
CONTINUOUS
 10
2.1010008648
 20
-13.0045608186
 40
4.2798762268
100
AcDbArc
 50
270.002477483
 51
329.9718943224
  0
ARC
  5
4C5
100
AcDbEntity
  8
ASSI
100
AcDbCircle
 62
7
  6
CONTINUOUS
 10
2.1010008648
 20
-13.0045608186
 40
4.2798762268
100
AcDbArc
 50
273.643597614
 51
329.9718943253
  0
ARC
  5
4C6
100
AcDbEntity
  8
ASSI
100
AcDbCircle
 62
7
  6
CONTINUOUS
 10
2.0998929397
 20
-13.002579997
 40
4.281251876
100
AcDbArc
 50
330.0093113941
 51
86.3542277933
  0
ARC
  5
4C7
100
AcDbEntity
  8
ASSI
100
AcDbCircle
 62
7
  6
CONTINUOUS
 10
2.0995049135
 20
-13.0063052573
 40
4.2786985549
100
AcDbArc
 50
270.0066296718
 51
273.739531958
  0
ARC
  5
4C8
100
AcDbEntity
  8
ASSI
100
AcDbCircle
 62
7
  6
CONTINUOUS
 10
2.0995327541
 20
-12.9996766154
 40
4.2783461235
100
AcDbArc
 50
86.2584313321
 51
89.9937426239
  0
ARC
  5
4C9
100
AcDbEntity
  8
ASSI
100
AcDbCircle
 62
253
  6
CONTINUOUS
 10
2.0984079286
 20
-12.9946142359
 40
4.1961577026
100
AcDbArc
 50
273.7629361195
 51
277.4777063178
  0
ARC
  5
4CA
100
AcDbEntity
  8
ASSI
100
AcDbCircle
 62
253
  6
CONTINUOUS
 10
2.0984298659
 20
-13.020021826
 40
4.1957916985
100
AcDbArc
 50
82.5161268079
 51
86.2344275674
  0
ARC
  5
4CB
100
AcDbEntity
  8
ASSI
100
AcDbCircle
 62
253
  6
CONTINUOUS
 10
2.0911178953
 20
-13.0045529481
 40
4.1909697139
100
AcDbArc
 50
329.9717884754
 51
334.1893675043
  0
ARC
  5
4CC
100
AcDbEntity
  8
ASSI
100
AcDbCircle
 62
253
  6
CONTINUOUS
 10
2.0925238561
 20
-13.0097530082
 40
4.1894017957
100
AcDbArc
 50
24.8951337657
 51
30.0044144479
  0
ARC
  5
4CD
100
AcDbEntity
  8
RACCORDO
100
AcDbCircle
 62
253
  6
CONTINUOUS
 10
2.092793733
 20
-13.0095872003
 40
4.1890863099
100
AcDbArc
 50
26.248780698
 51
26.7698451733
  0
ARC
  5
4CE
100
AcDbEntity
  8
ASSI
100
AcDbCircle
 62
253
  6
CONTINUOUS
 10
2.0965355151
 20
-13.0075002312
 40
4.1848048116
100
AcDbArc
 50
341.2251803306
 51
18.7554329809
  0
ARC
  5
4CF
100
AcDbEntity
  8
RACCORDO
100
AcDbCircle
 62
253
  6
CONTINUOUS
 10
2.0983234044
 20
-13.0077992169
 40
4.1831539428
100
AcDbArc
 50
270.0229651054
 51
26.2603128267
  0
ARC
  5
4D0
100
AcDbEntity
  8
ASSI
100
AcDbCircle
 62
253
  6
CONTINUOUS
 10
2.0998201999
 20
-13.0062325818
 40
4.1813002423
100
AcDbArc
 50
22.5019958122
 51
25.8700921045
  0
ARC
  5
4D1
100
AcDbEntity
  8
RACCORDO
100
AcDbCircle
 62
253
  6
CONTINUOUS
 10
2.0995405761
 20
-13.0053753113
 40
4.1811443514
100
AcDbArc
 50
26.7599563047
 51
89.9937043056
  0
ARC
  5
4D2
100
AcDbEntity
  8
ASSI
100
AcDbCircle
 62
253
  6
CONTINUOUS
 10
2.0993052604
 20
-13.0052226625
 40
4.1809669948
100
AcDbArc
 50
28.3161127656
 51
89.9904793203
  0
ARC
  5
4D3
100
AcDbEntity
  8
ASSI
100
AcDbCircle
 62
253
  6
CONTINUOUS
 10
2.0992537729
 20
-13.0089898886
 40
4.1817575317
100
AcDbArc
 50
270.0102243294
 51
24.9047258371
  0
ARC
  5
4D4
100
AcDbEntity
  8
CURVE
100
AcDbCircle
 62
253
  6
CONTINUOUS
 10
2.8115514297
 20
-12.7949122392
 40
0.3279127443
100
AcDbArc
 50
176.3783173047
 51
233.1730738217
  0
ARC
  5
4D5
100
AcDbEntity
  8
RACCORDO
100
AcDbCircle
 62
253
  6
CONTINUOUS
 10
10.0011743592
 20
-20.7511743592
 40
0.8001723635
100
AcDbArc
 50
270.020944126
 51
359.979055874
  0
ARC
  5
4D6
100
AcDbEntity
  8
ASSI
100
AcDbCircle
 62
253
  6
CONTINUOUS
 10
10.0011743592
 20
-20.7511743592
 40
0.8001723635
100
AcDbArc
 50
270.020944126
 51
359.979055874
  0
ARC
  5
4D7
100
AcDbEntity
  8
ASSI
100
AcDbCircle
 62
7
  6
CONTINUOUS
 10
6.0740619539
 20
-14.7718546147
 40
0.2316578382
100
AcDbArc
 50
259.9023198033
 51
269.9736766541
  0
ARC
  5
4D8
100
AcDbEntity
  8
ASSI
100
AcDbCircle
 62
7
  6
CONTINUOUS
 10
6.0734746481
 20
-14.7744738943
 40
0.2289761909
100
AcDbArc
 50
250.514645972
 51
259.9320913288
  0
ARC
  5
4D9
100
AcDbEntity
  8
ASSI
100
AcDbCircle
 62
7
  6
CONTINUOUS
 10
6.0691452961
 20
-14.7865974516
 40
0.2161028678
100
AcDbArc
 50
241.2145253809
 51
250.5245594818
  0
ARC
  5
4DA
100
AcDbEntity
  8
ASSI
100
AcDbCircle
 62
7
  6
CONTINUOUS
 10
6.0691285698
 20
-11.2132565126
 40
0.215973245
100
AcDbArc
 50
109.6581814492
 51
119.0317850478
  0
ARC
  5
4DB
100
AcDbEntity
  8
ASSI
100
AcDbCircle
 62
7
  6
CONTINUOUS
 10
6.0658595552
 20
-14.7931928892
 40
0.2087404588
100
AcDbArc
 50
226.7555736423
 51
241.1332253035
  0
ARC
  5
4DC
100
AcDbEntity
  8
ASSI
100
AcDbCircle
 62
7
  6
CONTINUOUS
 10
6.0658474334
 20
-11.2067226516
 40
0.2086682598
100
AcDbArc
 50
119.114703533
 51
133.2599179186
  0
ARC
  5
4DD
100
AcDbEntity
  8
RACCORDO
100
AcDbCircle
 62
7
  6
CONTINUOUS
 10
6.0611241725
 20
-11.2038811282
 40
0.2039498727
100
AcDbArc
 50
100.0478691503
 51
109.3171096906
  0
ARC
  5
4DE
100
AcDbEntity
  8
RACCORDO
100
AcDbCircle
 62
7
  6
CONTINUOUS
 10
6.0600881039
 20
-14.8002061985
 40
0.1998192465
100
AcDbArc
 50
226.5522559511
 51
241.611644588
  0
ARC
  5
4DF
100
AcDbEntity
  8
RACCORDO
100
AcDbCircle
 62
7
  6
CONTINUOUS
 10
6.0596394125
 20
-11.1998453721
 40
0.1996501788
100
AcDbArc
 50
109.2981234787
 51
133.4553721898
  0
ARC
  5
4E0
100
AcDbEntity
  8
RACCORDO
100
AcDbCircle
 62
7
  6
CONTINUOUS
 10
6.0602432347
 20
-14.8015692591
 40
0.1984308272
100
AcDbArc
 50
260.0328680749
 51
269.9465880515
  0
ARC
  5
4E1
100
AcDbEntity
  8
RACCORDO
100
AcDbCircle
 62
7
  6
CONTINUOUS
 10
6.0602492322
 20
-11.1984059228
 40
0.1984060147
100
AcDbArc
 50
90.0551505803
 51
100.0749403648
  0
ARC
  5
4E2
100
AcDbEntity
  8
RACCORDO
100
AcDbCircle
 62
253
  6
CONTINUOUS
 10
17218.8166878049
 20
0.0
 40
17208.8389983076
100
AcDbArc
 50
179.9329040143
 51
180.0670959857
  0
ARC
  5
4E3
100
AcDbEntity
  8
RACCORDO
100
AcDbCircle
 62
253
  6
CONTINUOUS
 10
17127.958564639
 20
0.0
 40
17117.1809969855
100
AcDbArc
 50
179.9327246136
 51
180.0672753864
  0
ARC
  5
4E4
100
AcDbEntity
  8
ASSI
100
AcDbCircle
 62
253
  6
CONTINUOUS
 10
17127.958564639
 20
0.0
 40
17117.1809969855
100
AcDbArc
 50
179.9327246136
 51
180.0672753864
  0
ARC
  5
4E5
100
AcDbEntity
  8
RACCORDO
100
AcDbCircle
 62
253
  6
CONTINUOUS
 10
10.0011743592
 20
20.7511743592
 40
0.8001723635
100
AcDbArc
 50
0.0209441291
 51
89.9790558709
  0
ARC
  5
4E6
100
AcDbEntity
  8
ASSI
100
AcDbCircle
 62
253
  6
CONTINUOUS
 10
10.0011743592
 20
20.7511743592
 40
0.8001723635
100
AcDbArc
 50
0.0209441291
 51
89.9790558709
  0
ARC
  5
4E7
100
AcDbEntity
  8
RACCORDO
100
AcDbCircle
 62
7
  6
CONTINUOUS
 10
-30.7371692784
 20
-17.185019014
 40
0.1
100
AcDbArc
 50
183.2838944955
 51
269.0005914039
  0
ARC
  5
4E8
100
AcDbEntity
  8
ASSI
100
AcDbCircle
 62
7
  6
CONTINUOUS
 10
-30.7371692784
 20
-17.185019014
 40
0.1
100
AcDbArc
 50
183.2838944955
 51
269.0
  0
ARC
  5
4E9
100
AcDbEntity
  8
RACCORDO
100
AcDbCircle
 62
7
  6
CONTINUOUS
 10
-31.1000611364
 20
-8.8213152869
 40
0.1
100
AcDbArc
 50
91.0
 51
181.6849899906
  0
ARC
  5
4EA
100
AcDbEntity
  8
ASSI
100
AcDbCircle
 62
7
  6
CONTINUOUS
 10
-31.1000611364
 20
-8.8213152869
 40
0.1
100
AcDbArc
 50
91.0
 51
181.6849899906
  0
ARC
  5
4EB
100
AcDbEntity
  8
RACCORDO
100
AcDbCircle
 62
7
  6
CONTINUOUS
 10
-29.0555436706
 20
-20.0515734702
 40
1.5
100
AcDbArc
 50
183.8517129654
 51
269.0
  0
ARC
  5
4EC
100
AcDbEntity
  8
ASSI
100
AcDbCircle
 62
7
  6
CONTINUOUS
 10
-29.0555436706
 20
-20.0515734702
 40
1.5
100
AcDbArc
 50
183.8517129654
 51
269.0
  0
ARC
  5
4ED
100
AcDbEntity
  8
RACCORDO
100
AcDbCircle
 62
253
  6
CONTINUOUS
 10
-29.0695015254
 20
-20.051569192
 40
0.7000043486
100
AcDbArc
 50
183.8520399671
 51
268.9996729983
  0
ARC
  5
4EE
100
AcDbEntity
  8
ASSI
100
AcDbCircle
 62
253
  6
CONTINUOUS
 10
-29.0695015254
 20
-20.051569192
 40
0.7000043486
100
AcDbArc
 50
183.8520399671
 51
268.9996729983
  0
ARC
  5
4EF
100
AcDbEntity
  8
RACCORDO
100
AcDbCircle
 62
7
  6
CONTINUOUS
 10
-29.0555436706
 20
20.0515734702
 40
1.5
100
AcDbArc
 50
91.0
 51
176.1482870346
  0
ARC
  5
4F0
100
AcDbEntity
  8
ASSI
100
AcDbCircle
 62
7
  6
CONTINUOUS
 10
-29.0555436706
 20
20.0515734702
 40
1.5
100
AcDbArc
 50
91.0
 51
176.1482870346
  0
ARC
  5
4F1
100
AcDbEntity
  8
RACCORDO
100
AcDbCircle
 62
253
  6
CONTINUOUS
 10
-29.0695015494
 20
20.0515692172
 40
0.700004323
100
AcDbArc
 50
91.0003250745
 51
176.1479619601
  0
ARC
  5
4F2
100
AcDbEntity
  8
ASSI
100
AcDbCircle
 62
253
  6
CONTINUOUS
 10
-29.0695015494
 20
20.0515692172
 40
0.700004323
100
AcDbArc
 50
91.0003250745
 51
176.1479619601
  0
ARC
  5
4F3
100
AcDbEntity
  8
ASSI
100
AcDbCircle
 62
253
  6
CONTINUOUS
 10
283.2065219963
 20
0.3080139121
 40
314.4379947928
100
AcDbArc
 50
182.043696179
 51
183.1398931431
  0
ARC
  5
4F4
100
AcDbEntity
  8
ASSI
100
AcDbCircle
 62
253
  6
CONTINUOUS
 10
283.2043357502
 20
0.3079440322
 40
314.4358074387
100
AcDbArc
 50
182.0475867605
 51
183.1030423426
  0
ARC
  5
4F5
100
AcDbEntity
  8
RACCORDO
100
AcDbCircle
 62
253
  6
CONTINUOUS
 10
283.1931736546
 20
0.3074591233
 40
314.4246351446
100
AcDbArc
 50
182.0475711288
 51
183.1482119017
  0
ARC
  5
4F6
100
AcDbEntity
  8
RACCORDO
100
AcDbCircle
 62
7
  6
CONTINUOUS
 10
268.7702181455
 20
0.0
 40
300.1
100
AcDbArc
 50
181.6849899905
 51
183.2838944955
  0
ARC
  5
4F7
100
AcDbEntity
  8
ASSI
100
AcDbCircle
 62
7
  6
CONTINUOUS
 10
268.7702181455
 20
0.0
 40
300.1
100
AcDbArc
 50
181.6849899905
 51
183.2838944955
  0
ARC
  5
4F8
100
AcDbEntity
  8
RACCORDO
100
AcDbCircle
 62
7
  6
CONTINUOUS
 10
268.7702181455
 20
0.0
 40
300.0
100
AcDbArc
 50
176.1482870346
 51
183.8517129654
  0
ARC
  5
4F9
100
AcDbEntity
  8
ASSI
100
AcDbCircle
 62
7
  6
CONTINUOUS
 10
268.7702181455
 20
0.0
 40
300.0
100
AcDbArc
 50
176.1482870346
 51
183.8517129654
  0
ARC
  5
4FA
100
AcDbEntity
  8
ASSI
100
AcDbCircle
 62
253
  6
CONTINUOUS
 10
268.7600487418
 20
0.0
 40
299.2037839552
100
AcDbArc
 50
176.1483358197
 51
183.8516641803
  0
ARC
  5
4FB
100
AcDbEntity
  8
RACCORDO
100
AcDbCircle
 62
253
  6
CONTINUOUS
 10
268.7546464626
 20
0.0
 40
299.1983938783
100
AcDbArc
 50
176.1482663271
 51
183.8517336729
  0
SPLINE
  5
4FC
100
AcDbEntity
  8
CURVE
100
AcDbSpline
 62
253
  6
CONTINUOUS
 70
0
 71
3
 72
11
 73
7
 74
5
 42
0.0000001
 43
0.0000001
 44
0.0000000001
 12
0.2590495674
 22
-0.1834805601
 32
0.0
 13
-0.2937860851
 23
-0.1204060428
 33
0.0
 40
0.0
 40
0.0
 40
0.0
 40
0.0
 40
0.25
 40
0.5
 40
0.75
 40
1.0
 40
1.0
 40
1.0
 40
1.0
 10
3.1982478571
 20
-13.2749191997
 30
0.0
 10
3.2198353211
 20
-13.2902092464
 30
0.0
 10
3.2546080281
 20
-13.3325554842
 30
0.0
 10
3.2671726506
 20
-13.4137815739
 30
0.0
 10
3.2366010928
 20
-13.4900861399
 30
0.0
 10
3.193167342
 20
-13.5235095911
 30
0.0
 10
3.1686851682
 20
-13.533543428
 30
0.0
 11
3.1982478571
 21
-13.2749191997
 31
0.0
 11
3.2480089551
 21
-13.3355066064
 31
0.0
 11
3.2599832872
 21
-13.41296132
 31
0.0
 11
3.2308379147
 21
-13.4857245751
 31
0.0
 11
3.1686851682
 21
-13.533543428
 31
0.0
  0
SPLINE
  5
4FD
100
AcDbEntity
  8
CURVE
100
AcDbSpline
 62
253
  6
CONTINUOUS
 70
0
 71
3
 72
11
 73
7
 74
5
 42
0.0000001
 43
0.0000001
 44
0.0000000001
 12
0.2590796466
 22
-0.1834851189
 32
0.0
 13
-0.2938488322
 23
-0.1203247299
 33
0.0
 40
0.0
 40
0.0
 40
0.0
 40
0.0
 40
0.25
 40
0.5
 40
0.75
 40
1.0
 40
1.0
 40
1.0
 40
1.0
 10
1.8647836943
 20
-13.2749192867
 30
0.0
 10
1.8863736649
 20
-13.2902097133
 30
0.0
 10
1.921149692
 20
-13.3325601164
 30
0.0
 10
1.9337082161
 20
-13.4137952516
 30
0.0
 10
1.9031200082
 20
-13.4901017849
 30
0.0
 10
1.8596730827
 20
-13.5235168694
 30
0.0
 10
1.8351856801
 20
-13.5335439302
 30
0.0
 11
1.8647836943
 21
-13.2749192867
 31
0.0
 11
1.9145487726
 21
-13.3355117048
 31
0.0
 11
1.9265170941
 21
-13.412973818
 31
0.0
 11
1.8973563115
 21
-13.4857378005
 31
0.0
 11
1.8351856801
 21
-13.5335439302
 31
0.0
  0
SPLINE
  5
4FE
100
AcDbEntity
  8
CURVE
100
AcDbSpline
 62
253
  6
CONTINUOUS
 70
0
 71
3
 72
10
 73
6
 74
4
 42
0.0000001
 43
0.0000001
 44
0.0000000001
 12
0.2073912965
 22
-0.244922676
 32
0.0
 13
-0.0058339647
 23
-0.3207545408
 33
0.0
 40
0.0
 40
0.0
 40
0.0
 40
0.0
 40
0.3333333333
 40
0.6666666667
 40
1.0
 40
1.0
 40
1.0
 40
1.0
 10
0.4958651644
 20
-12.6705091152
 30
0.0
 10
0.5189086418
 20
-12.6977227459
 30
0.0
 10
0.5584223388
 20
-12.7577024394
 30
0.0
 10
0.5945780931
 20
-12.8591747415
 30
0.0
 10
0.6018881388
 20
-12.9306074069
 30
0.0
 10
0.6012399205
 20
-12.9662468003
 30
0.0
 11
0.4958651644
 21
-12.6705091152
 31
0.0
 11
0.5545698736
 21
-12.7596195664
 31
0.0
 11
0.5903796454
 21
-12.8601208575
 31
0.0
 11
0.6012399205
 21
-12.9662468003
 31
0.0
  0
SPLINE
  5
4FF
100
AcDbEntity
  8
CURVE
100
AcDbSpline
 62
253
  6
CONTINUOUS
 70
0
 71
3
 72
10
 73
6
 74
4
 42
0.0000001
 43
0.0000001
 44
0.0000000001
 12
0.337222215
 22
0.0190035312
 32
0.0
 13
0.2366891386
 23
-0.2407276303
 33
0.0
 40
0.0
 40
0.0
 40
0.0
 40
0.0
 40
0.3333333333
 40
0.6666666667
 40
1.0
 40
1.0
 40
1.0
 40
1.0
 10
0.1902530896
 20
-12.5524391006
 30
0.0
 10
0.2277222246
 20
-12.5503275971
 30
0.0
 10
0.3032589803
 20
-12.5567907193
 30
0.0
 10
0.409328969
 20
-12.5977696484
 30
0.0
 10
0.4695656744
 20
-12.6437610528
 30
0.0
 10
0.4958644676
 20
-12.6705085672
 30
0.0
 11
0.1902530896
 21
-12.5524391006
 31
0.0
 11
0.3020531228
 21
-12.5620047603
 31
0.0
 11
0.4067098139
 21
-12.602437678
 31
0.0
 11
0.4958644676
 21
-12.6705085672
 31
0.0
  0
SPLINE
  5
500
100
AcDbEntity
  8
0
100
AcDbSpline
 62
7
  6
CONTINUOUS
 70
0
 71
3
 72
8
 73
4
 74
2
 42
0.0000001
 43
0.0000001
 44
0.0000000001
 12
0.186782251
 22
0.0006513698
 32
0.0
 13
0.1866517803
 23
0.0071637063
 33
0.0
 40
0.0
 40
0.0
 40
0.0
 40
0.0
 40
1.0
 40
1.0
 40
1.0
 40
1.0
 10
2.0789671887
 20
-17.4427808641
 30
0.0
 10
2.141227939
 20
-17.4425637408
 30
0.0
 10
2.2034800912
 20
-17.4412609954
 30
0.0
 10
2.2656973513
 20
-17.4388730933
 30
0.0
 11
2.0789671887
 21
-17.4427808641
 31
0.0
 11
2.2656973513
 21
-17.4388730933
 31
0.0
  0
SPLINE
  5
501
100
AcDbEntity
  8
0
100
AcDbSpline
 62
7
  6
CONTINUOUS
 70
0
 71
3
 72
102
 73
98
 74
96
 42
0.0000001
 43
0.0000001
 44
0.0000000001
 12
8.4355368503
 22
1.2595157696
 32
0.0
 13
-2.4766559023
 23
8.299803721
 33
0.0
 40
0.0
 40
0.0
 40
0.0
 40
0.0
 40
0.03125
 40
0.0625
 40
0.078125
 40
0.0859375
 40
0.09375
 40
0.1015625
 40
0.10546875
 40
0.109375
 40
0.1171875
 40
0.125
 40
0.140625
 40
0.15625
 40
0.171875
 40
0.1875
 40
0.203125
 40
0.2109375
 40
0.21484375
 40
0.21875
 40
0.22265625
 40
0.224609375
 40
0.2265625
 40
0.234375
 40
0.25
 40
0.265625
 40
0.28125
 40
0.296875
 40
0.3125
 40
0.3203125
 40
0.328125
 40
0.33203125
 40
0.333984375
 40
0.3359375
 40
0.33984375
 40
0.34375
 40
0.359375
 40
0.375
 40
0.390625
 40
0.40625
 40
0.421875
 40
0.4296875
 40
0.4375
 40
0.44140625
 40
0.4453125
 40
0.44921875
 40
0.453125
 40
0.4609375
 40
0.46875
 40
0.5
 40
0.53125
 40
0.5390625
 40
0.546875
 40
0.55078125
 40
0.5546875
 40
0.55859375
 40
0.5625
 40
0.5703125
 40
0.578125
 40
0.59375
 40
0.609375
 40
0.625
 40
0.640625
 40
0.65625
 40
0.66015625
 40
0.6640625
 40
0.666015625
 40
0.66796875
 40
0.671875
 40
0.6796875
 40
0.6875
 40
0.703125
 40
0.71875
 40
0.734375
 40
0.75
 40
0.765625
 40
0.7734375
 40
0.775390625
 40
0.77734375
 40
0.78125
 40
0.7890625
 40
0.796875
 40
0.8125
 40
0.828125
 40
0.84375
 40
0.859375
 40
0.875
 40
0.8828125
 40
0.890625
 40
0.89453125
 40
0.8984375
 40
0.90625
 40
0.9140625
 40
0.921875
 40
0.9375
 40
0.96875
 40
1.0
 40
1.0
 40
1.0
 40
1.0
 10
2.2656973553
 20
-17.4388730931
 30
0.0
 10
2.3535675308
 20
-17.4257531372
 30
0.0
 10
2.5293073876
 20
-17.3995113296
 30
0.0
 10
2.7489846799
 20
-17.3667185487
 30
0.0
 10
2.9027542435
 20
-17.3437461852
 30
0.0
 10
2.9906296087
 20
-17.3306461342
 30
0.0
 10
3.0565163005
 20
-17.3207450307
 30
0.0
 10
3.1114850495
 20
-17.3127364062
 30
0.0
 10
3.1553183507
 20
-17.3057860311
 30
0.0
 10
3.1996679058
 20
-17.3008157215
 30
0.0
 10
3.2514100685
 20
-17.2804316885
 30
0.0
 10
3.3345999203
 20
-17.2493606186
 30
0.0
 10
3.4384492994
 20
-17.2099925188
 30
0.0
 10
3.563127058
 20
-17.1629761842
 30
0.0
 10
3.6877914989
 20
-17.1159051287
 30
0.0
 10
3.8124507069
 20
-17.0688275716
 30
0.0
 10
3.9163619214
 20
-17.029663547
 30
0.0
 10
3.9890421246
 20
-17.0021103008
 30
0.0
 10
4.0306639302
 20
-16.9865827136
 30
0.0
 10
4.0616259721
 20
-16.9743251996
 30
0.0
 10
4.0882377726
 20
-16.966059548
 30
0.0
 10
4.1067874868
 20
-16.9528557658
 30
0.0
 10
4.1353159762
 20
-16.9347435877
 30
0.0
 10
4.1967163288
 20
-16.8945108026
 30
0.0
 10
4.291456122
 20
-16.8332827273
 30
0.0
 10
4.4050259916
 20
-16.7595236726
 30
0.0
 10
4.5186230502
 20
-16.6858364479
 30
0.0
 10
4.6322292352
 20
-16.6121472671
 30
0.0
 10
4.7268479774
 20
-16.5506862787
 30
0.0
 10
4.8026657965
 20
-16.5016464765
 30
0.0
 10
4.8497714096
 20
-16.4707007977
 30
0.0
 10
4.8833075707
 20
-16.4496317915
 30
0.0
 10
4.9015914223
 20
-16.4366645818
 30
0.0
 10
4.9165620078
 20
-16.4202029007
 30
0.0
 10
4.936407728
 20
-16.4008202243
 30
0.0
 10
4.9831053673
 20
-16.353318735
 30
0.0
 10
5.0535433016
 20
-16.2824793913
 30
0.0
 10
5.1472368572
 20
-16.1877909834
 30
0.0
 10
5.2409900262
 20
-16.0931655412
 30
0.0
 10
5.3347284318
 20
-15.9985241859
 30
0.0
 10
5.412843303
 20
-15.9196569622
 30
0.0
 10
5.4753437021
 20
-15.856569766
 30
0.0
 10
5.5143854296
 20
-15.8171235252
 30
0.0
 10
5.5456671386
 20
-15.7856050706
 30
0.0
 10
5.5689960527
 20
-15.7618606615
 30
0.0
 10
5.5854518243
 20
-15.7326346555
 30
0.0
 10
5.6097933386
 20
-15.6955811196
 30
0.0
 10
5.639399447
 20
-15.6486096521
 30
0.0
 10
5.7111321812
 20
-15.5364183703
 30
0.0
 10
5.8184095857
 20
-15.3678824159
 30
0.0
 10
5.9259566662
 20
-15.1995322278
 30
0.0
 10
5.9974197244
 20
-15.0871551798
 30
0.0
 10
6.0275127477
 20
-15.0405191236
 30
0.0
 10
6.0508504683
 20
-15.0027741243
 30
0.0
 10
6.0703738035
 20
-14.9756612095
 30
0.0
 10
6.0821853085
 20
-14.9439830335
 30
0.0
 10
6.097735956
 20
-14.9016282364
 30
0.0
 10
6.1172420384
 20
-14.8487248741
 30
0.0
 10
6.1484140745
 20
-14.7640570948
 30
0.0
 10
6.1873907449
 20
-14.6582298321
 30
0.0
 10
6.2341634922
 20
-14.5312349012
 30
0.0
 10
6.2809146677
 20
-14.4042368945
 30
0.0
 10
6.3277513872
 20
-14.2772534068
 30
0.0
 10
6.362638474
 20
-14.1819745408
 30
0.0
 10
6.386270554
 20
-14.1185195099
 30
0.0
 10
6.3955606762
 20
-14.0919843502
 30
0.0
 10
6.4042911586
 20
-14.0709791536
 30
0.0
 10
6.4082733645
 20
-14.0491586833
 30
0.0
 10
6.4130360665
 20
-14.0105940648
 30
0.0
 10
6.420990971
 20
-13.95569939
 30
0.0
 10
6.4330756639
 20
-13.8677574553
 30
0.0
 10
6.4484010091
 20
-13.7578679011
 30
0.0
 10
6.4667026555
 20
-13.6259843702
 30
0.0
 10
6.4850082066
 20
-13.4941045204
 30
0.0
 10
6.5033869065
 20
-13.362226012
 30
0.0
 10
6.5184554066
 20
-13.2523197159
 30
0.0
 10
6.5287020272
 20
-13.1808947796
 30
0.0
 10
6.5329559161
 20
-13.147914504
 30
0.0
 10
6.5369666262
 20
-13.1259645375
 30
0.0
 10
6.531982859
 20
-13.0871752591
 30
0.0
 10
6.5289715363
 20
-13.0318909886
 30
0.0
 10
6.5218571095
 20
-12.9433640804
 30
0.0
 10
6.5137530251
 20
-12.8327300733
 30
0.0
 10
6.5036856335
 20
-12.6999591628
 30
0.0
 10
6.4937258849
 20
-12.567189255
 30
0.0
 10
6.4836780547
 20
-12.4344254387
 30
0.0
 10
6.4755087655
 20
-12.3237677842
 30
0.0
 10
6.4685280088
 20
-12.2352893531
 30
0.0
 10
6.4651763978
 20
-12.179881673
 30
0.0
 10
6.450610712
 20
-12.1368326002
 30
0.0
 10
6.4381207125
 20
-12.0935604787
 30
0.0
 10
6.4217960623
 20
-12.039546853
 30
0.0
 10
6.402511277
 20
-11.9746977496
 30
0.0
 10
6.3766919118
 20
-11.8882437031
 30
0.0
 10
6.3315575799
 20
-11.7369437963
 30
0.0
 10
6.2670538803
 20
-11.5208038752
 30
0.0
 10
6.2154588696
 20
-11.3478910842
 30
0.0
 10
6.1896603706
 20
-11.2614347954
 30
0.0
 11
2.2656973553
 21
-17.4388730931
 31
0.0
 11
2.5293078819
 21
-17.3995132253
 31
0.0
 11
2.7929184084
 21
-17.3601533575
 31
0.0
 11
2.9247236717
 21
-17.3404734236
 31
0.0
 11
2.9906263034
 21
-17.3306334567
 31
0.0
 11
3.056528935
 21
-17.3207934897
 31
0.0
 11
3.1224315666
 21
-17.3109535228
 31
0.0
 11
3.1553828825
 21
-17.3060335393
 31
0.0
 11
3.1883341983
 21
-17.3011135558
 31
0.0
 11
3.2514603675
 21
-17.2806246114
 31
0.0
 11
3.3137932616
 21
-17.2570931019
 31
0.0
 11
3.43845905
 21
-17.210030083
 31
0.0
 11
3.5631248384
 21
-17.162967064
 31
0.0
 11
3.6877906268
 21
-17.1159040451
 31
0.0
 11
3.8124564152
 21
-17.0688410262
 31
0.0
 11
3.9371222035
 21
-17.0217780072
 31
0.0
 11
3.9994550977
 21
-16.9982464978
 31
0.0
 11
4.0306215448
 21
-16.986480743
 31
0.0
 11
4.0617879919
 21
-16.9747149883
 31
0.0
 11
4.0926468907
 21
-16.9622093307
 31
0.0
 11
4.1068461467
 21
-16.9529968904
 31
0.0
 11
4.1210454027
 21
-16.9437844501
 31
0.0
 11
4.1778424268
 21
-16.9069346889
 31
0.0
 11
4.291436475
 21
-16.8332351666
 31
0.0
 11
4.4050305231
 21
-16.7595356442
 31
0.0
 11
4.5186245713
 21
-16.6858361219
 31
0.0
 11
4.6322186195
 21
-16.6121365996
 31
0.0
 11
4.7458126676
 21
-16.5384370772
 31
0.0
 11
4.8026096917
 21
-16.501587316
 31
0.0
 11
4.8594067158
 21
-16.4647375549
 31
0.0
 11
4.8878052278
 21
-16.4463126743
 31
0.0
 11
4.9011772641
 21
-16.4362277729
 31
0.0
 11
4.9128948607
 21
-16.4243979493
 31
0.0
 11
4.9363300539
 21
-16.4007383022
 31
0.0
 11
4.9597652471
 21
-16.377078655
 31
0.0
 11
5.0535060199
 21
-16.2824400663
 31
0.0
 11
5.1472467928
 21
-16.1878014777
 31
0.0
 11
5.2409875656
 21
-16.093162889
 31
0.0
 11
5.3347283384
 21
-15.9985243004
 31
0.0
 11
5.4284691113
 21
-15.9038857117
 31
0.0
 11
5.4753394977
 21
-15.8565664174
 31
0.0
 11
5.5222098841
 21
-15.8092471231
 31
0.0
 11
5.5456450773
 21
-15.7855874759
 31
0.0
 11
5.567850529
 21
-15.760947062
 31
0.0
 11
5.585751885
 21
-15.7328739645
 31
0.0
 11
5.6036532411
 21
-15.704800867
 31
0.0
 11
5.6394559532
 21
-15.6486546721
 31
0.0
 11
5.6752586653
 21
-15.5925084771
 31
0.0
 11
5.8184695137
 21
-15.3679236973
 31
0.0
 11
5.9616803621
 21
-15.1433389175
 31
0.0
 11
5.9974830742
 21
-15.0871927225
 31
0.0
 11
6.0332857863
 21
-15.0310465276
 31
0.0
 11
6.0511871424
 21
-15.0029734301
 31
0.0
 11
6.0690884984
 21
-14.9749003326
 31
0.0
 11
6.0821605553
 21
-14.9439683799
 31
0.0
 11
6.0938528123
 21
-14.9122196113
 31
0.0
 11
6.1172373264
 21
-14.8487220742
 31
0.0
 11
6.1406218405
 21
-14.785224537
 31
0.0
 11
6.1873908687
 21
-14.6582294628
 31
0.0
 11
6.2341598969
 21
-14.5312343885
 31
0.0
 11
6.2809289251
 21
-14.4042393143
 31
0.0
 11
6.3276979532
 21
-14.27724424
 31
0.0
 11
6.3744669814
 21
-14.1502491658
 31
0.0
 11
6.3861592385
 21
-14.1185003972
 31
0.0
 11
6.3978514955
 21
-14.0867516287
 31
0.0
 11
6.403697624
 21
-14.0708772444
 31
0.0
 11
6.4071727579
 21
-14.054595763
 31
0.0
 11
6.4117520308
 21
-14.021625703
 31
0.0
 11
6.4209105767
 21
-13.9556855831
 31
0.0
 11
6.4300691226
 21
-13.8897454633
 31
0.0
 11
6.4483862145
 21
-13.7578652235
 31
0.0
 11
6.4667033063
 21
-13.6259849837
 31
0.0
 11
6.4850203981
 21
-13.4941047439
 31
0.0
 11
6.5033374899
 21
-13.3622245041
 31
0.0
 11
6.5216545817
 21
-13.2303442644
 31
0.0
 11
6.5308131276
 21
-13.1644041445
 31
0.0
 11
6.5331027641
 21
-13.1479191145
 31
0.0
 11
6.5353924006
 21
-13.1314340845
 31
0.0
 11
6.5336806822
 21
-13.0982665091
 31
0.0
 11
6.5286844975
 21
-13.0318819792
 31
0.0
 11
6.5236883128
 21
-12.9654974493
 31
0.0
 11
6.5136959434
 21
-12.8327283896
 31
0.0
 11
6.503703574
 21
-12.6999593299
 31
0.0
 11
6.4937112046
 21
-12.5671902702
 31
0.0
 11
6.4837188352
 21
-12.4344212105
 31
0.0
 11
6.4737264659
 21
-12.3016521508
 31
0.0
 11
6.4687302812
 21
-12.235267621
 31
0.0
 11
6.4605446099
 21
-12.1692258274
 31
0.0
 11
6.4508701728
 21
-12.1368047191
 31
0.0
 11
6.4411957357
 21
-12.1043836108
 31
0.0
 11
6.4218468614
 21
-12.0395413943
 31
0.0
 11
6.4024979872
 21
-11.9746991777
 31
0.0
 11
6.383149113
 21
-11.9098569611
 31
0.0
 11
6.3444513645
 21
-11.780172528
 31
0.0
 11
6.2670558675
 21
-11.5208036617
 31
0.0
 11
6.1896603706
 21
-11.2614347954
 31
0.0
  0
SPLINE
  5
502
100
AcDbEntity
  8
0
100
AcDbSpline
 62
7
  6
CONTINUOUS
 70
0
 71
3
 72
13
 73
9
 74
7
 42
0.0000001
 43
0.0000001
 44
0.0000000001
 12
-0.1099255468
 22
0.2574670019
 32
0.0
 13
-0.1469239834
 23
0.298868028
 33
0.0
 40
0.0
 40
0.0
 40
0.0
 40
0.0
 40
0.5
 40
0.625
 40
0.75
 40
0.8125
 40
0.875
 40
1.0
 40
1.0
 40
1.0
 40
1.0
 10
6.1896604402
 20
-11.2614349609
 30
0.0
 10
6.1713395158
 20
-11.218523794
 30
0.0
 10
6.1481177079
 20
-11.1648753887
 30
0.0
 10
6.1186929969
 20
-11.1016258175
 30
0.0
 10
6.1060058787
 20
-11.0749023695
 30
0.0
 10
6.0963727314
 20
-11.0546094825
 30
0.0
 10
6.0845723998
 20
-11.0304766907
 30
0.0
 10
6.0752234007
 20
-11.01150761
 30
0.0
 10
6.0691015681
 20
-10.9990547755
 30
0.0
 11
6.1896604402
 21
-11.2614349609
 31
0.0
 11
6.133353401
 21
-11.1332882203
 31
0.0
 11
6.1186076325
 21
-11.1015519255
 31
0.0
 11
6.1036406375
 21
-11.069919637
 31
0.0
 11
6.0961018333
 21
-11.0541294944
 31
0.0
 11
6.087467066
 21
-11.036413279
 31
0.0
 11
6.0691015681
 21
-10.9990547755
 31
0.0
  0
SPLINE
  5
503
100
AcDbEntity
  8
0
100
AcDbSpline
 62
7
  6
CONTINUOUS
 70
0
 71
3
 72
16
 73
12
 74
10
 42
0.0000001
 43
0.0000001
 44
0.0000000001
 12
-0.0839670919
 22
0.1666890921
 32
0.0
 13
-0.1585757593
 23
0.2782309722
 33
0.0
 40
0.0
 40
0.0
 40
0.0
 40
0.0
 40
0.125
 40
0.15625
 40
0.1875
 40
0.25
 40
0.375
 40
0.5
 40
0.75
 40
0.875
 40
1.0
 40
1.0
 40
1.0
 40
1.0
 10
6.0691015737
 20
-10.9990547868
 30
0.0
 10
6.0656029448
 20
-10.9921094079
 30
0.0
 10
6.0609460531
 20
-10.982900017
 30
0.0
 10
6.0562086001
 20
-10.97343175
 30
0.0
 10
6.0512352215
 20
-10.9637425008
 30
0.0
 10
6.0416734893
 20
-10.9451590735
 30
0.0
 10
6.0283766833
 20
-10.9195242711
 30
0.0
 10
6.0065282587
 20
-10.87807629
 30
0.0
 10
5.9843579269
 20
-10.8376547813
 30
0.0
 10
5.9609993391
 20
-10.7958661089
 30
0.0
 10
5.9472729082
 20
-10.7719163351
 30
0.0
 10
5.9406655849
 20
-10.760323378
 30
0.0
 11
6.0691015737
 21
-10.9990547868
 31
0.0
 11
6.0586056872
 21
-10.9782186502
 31
0.0
 11
6.0559817156
 21
-10.9730096161
 31
0.0
 11
6.0524376938
 21
-10.9660873254
 31
0.0
 11
6.0444296003
 21
-10.9505294876
 31
0.0
 11
6.0283049914
 21
-10.9194702339
 31
0.0
 11
6.0119635393
 21
-10.8885238247
 31
0.0
 11
5.9784192586
 21
-10.8270936829
 31
0.0
 11
5.9604875548
 21
-10.7951022495
 31
0.0
 11
5.9406655849
 21
-10.760323378
 31
0.0
  0
SPLINE
  5
504
100
AcDbEntity
  8
0
100
AcDbSpline
 62
7
  6
CONTINUOUS
 70
0
 71
3
 72
25
 73
21
 74
19
 42
0.0000001
 43
0.0000001
 44
0.0000000001
 12
-0.6307029197
 22
1.0363225837
 32
0.0
 13
-0.8925803318
 23
0.8993020378
 33
0.0
 40
0.0
 40
0.0
 40
0.0
 40
0.0
 40
0.125
 40
0.1875
 40
0.25
 40
0.3125
 40
0.34375
 40
0.375
 40
0.4375
 40
0.46875
 40
0.5
 40
0.53125
 40
0.5625
 40
0.625
 40
0.65625
 40
0.6875
 40
0.75
 40
0.8125
 40
0.875
 40
1.0
 40
1.0
 40
1.0
 40
1.0
 10
5.9406655809
 20
-10.760323371
 30
0.0
 10
5.9143862926
 20
-10.7171432633
 30
0.0
 10
5.8752348405
 20
-10.652184791
 30
0.0
 10
5.8219629828
 20
-10.5663267379
 30
0.0
 10
5.7788831865
 20
-10.5037564021
 30
0.0
 10
5.7441809892
 20
-10.4514004445
 30
0.0
 10
5.7151078637
 20
-10.4091177031
 30
0.0
 10
5.681790299
 20
-10.365106322
 30
0.0
 10
5.6496553277
 20
-10.3213895046
 30
0.0
 10
5.6171559054
 20
-10.278085476
 30
0.0
 10
5.5926920982
 20
-10.2440745246
 30
0.0
 10
5.5687674786
 20
-10.2159888984
 30
0.0
 10
5.5367516377
 20
-10.1764911421
 30
0.0
 10
5.50435551
 20
-10.1374442644
 30
0.0
 10
5.4731875036
 20
-10.0985824418
 30
0.0
 10
5.4376140611
 20
-10.0583792272
 30
0.0
 10
5.391567187
 20
-10.0079264761
 30
0.0
 10
5.337269157
 20
-9.946338039
 30
0.0
 10
5.2631321005
 20
-9.8702181439
 30
0.0
 10
5.2072540906
 20
-9.8144535385
 30
0.0
 10
5.1700632434
 20
-9.7769826203
 30
0.0
 11
5.9406655809
 21
-10.760323371
 31
0.0
 11
5.8618277159
 21
-10.630783048
 31
0.0
 11
5.821441999
 21
-10.5666306053
 31
0.0
 11
5.7791227131
 21
-10.5037135999
 31
0.0
 11
5.7368034272
 21
-10.4407965945
 31
0.0
 11
5.7145773088
 21
-10.4089016231
 31
0.0
 11
5.6902182396
 21
-10.3761337142
 31
0.0
 11
5.6415001012
 21
-10.3105978965
 31
0.0
 11
5.617141032
 21
-10.2778299876
 31
0.0
 11
5.5927819628
 21
-10.2450620788
 31
0.0
 11
5.5687529351
 21
-10.2157326166
 31
0.0
 11
5.5447239073
 21
-10.1864031544
 31
0.0
 11
5.4966658518
 21
-10.12774423
 31
0.0
 11
5.4726368241
 21
-10.0984147678
 31
0.0
 11
5.4464020837
 21
-10.068416782
 31
0.0
 11
5.3917268901
 21
-10.0077522868
 31
0.0
 11
5.3370516966
 21
-9.9470877917
 31
0.0
 11
5.2816357849
 21
-9.889395375
 31
0.0
 11
5.1700632434
 21
-9.7769826203
 31
0.0
  0
SPLINE
  5
505
100
AcDbEntity
  8
0
100
AcDbSpline
 62
7
  6
CONTINUOUS
 70
0
 71
3
 72
11
 73
7
 74
5
 42
0.0000001
 43
0.0000001
 44
0.0000000001
 12
-0.0449494199
 22
0.043040936
 32
0.0
 13
-0.0582036735
 23
0.0545219858
 33
0.0
 40
0.0
 40
0.0
 40
0.0
 40
0.0
 40
0.375
 40
0.5625
 40
0.75
 40
1.0
 40
1.0
 40
1.0
 40
1.0
 10
5.1700632782
 20
-9.7769826537
 30
0.0
 10
5.1644446007
 20
-9.7716025367
 30
0.0
 10
5.156116829
 20
-9.7636282906
 30
0.0
 10
5.1445558647
 20
-9.7526711264
 30
0.0
 10
5.1360357847
 20
-9.7446062563
 30
0.0
 10
5.1265381571
 20
-9.7357328479
 30
0.0
 10
5.121687851
 20
-9.731189349
 30
0.0
 11
5.1700632782
 21
-9.7769826537
 31
0.0
 11
5.1531884822
 21
-9.7608619299
 31
0.0
 11
5.1447229732
 21
-9.7528310414
 31
0.0
 11
5.1362387694
 21
-9.7448198455
 31
0.0
 11
5.121687851
 21
-9.731189349
 31
0.0
  0
SPLINE
  5
506
100
AcDbEntity
  8
0
100
AcDbSpline
 62
7
  6
CONTINUOUS
 70
0
 71
3
 72
25
 73
21
 74
19
 42
0.0000001
 43
0.0000001
 44
0.0000000001
 12
-0.0683823547
 22
0.0635475119
 32
0.0
 13
-0.1496404343
 23
0.1318687235
 33
0.0
 40
0.0
 40
0.0
 40
0.0
 40
0.0
 40
0.125
 40
0.15625
 40
0.1875
 40
0.25
 40
0.3125
 40
0.34375
 40
0.375
 40
0.4375
 40
0.5
 40
0.5625
 40
0.625
 40
0.65625
 40
0.6875
 40
0.75
 40
0.8125
 40
0.84375
 40
0.875
 40
1.0
 40
1.0
 40
1.0
 40
1.0
 10
5.1216878523
 20
-9.7311893502
 30
0.0
 10
5.1188385875
 20
-9.7285415372
 30
0.0
 10
5.1148326334
 20
-9.7248273649
 30
0.0
 10
5.1113586078
 20
-9.7215835764
 30
0.0
 10
5.106198603
 20
-9.7168328516
 30
0.0
 10
5.0988349574
 20
-9.7100649063
 30
0.0
 10
5.0914885255
 20
-9.7033055595
 30
0.0
 10
5.0863009787
 20
-9.698541077
 30
0.0
 10
5.0840399353
 20
-9.6964934902
 30
0.0
 10
5.0797728655
 20
-9.6926126244
 30
0.0
 10
5.0771783016
 20
-9.6902228768
 30
0.0
 10
5.0667852835
 20
-9.6808781754
 30
0.0
 10
5.0602327432
 20
-9.6749770843
 30
0.0
 10
5.0538299985
 20
-9.6692069043
 30
0.0
 10
5.0503834574
 20
-9.6661250244
 30
0.0
 10
5.0469316372
 20
-9.663056476
 30
0.0
 10
5.0435514689
 20
-9.6600371525
 30
0.0
 10
5.0399902848
 20
-9.6568765128
 30
0.0
 10
5.0297121997
 20
-9.6478268324
 30
0.0
 10
5.0224326259
 20
-9.6414074948
 30
0.0
 10
5.0161976078
 20
-9.6359129647
 30
0.0
 11
5.1216878523
 21
-9.7311893502
 31
0.0
 11
5.1131400579
 21
-9.7232459113
 31
0.0
 11
5.1110031093
 21
-9.7212600515
 31
0.0
 11
5.1074276949
 21
-9.7179652302
 31
0.0
 11
5.0988384001
 21
-9.710066626
 31
0.0
 11
5.0902491053
 21
-9.7021680218
 31
0.0
 11
5.0866667916
 21
-9.698880689
 31
0.0
 11
5.0845091451
 21
-9.6969172948
 31
0.0
 11
5.0801938522
 21
-9.6929905063
 31
0.0
 11
5.0758785592
 21
-9.6890637178
 31
0.0
 11
5.0672069451
 21
-9.6812554074
 31
0.0
 11
5.058535331
 21
-9.673447097
 31
0.0
 11
5.0541995239
 21
-9.6695429418
 31
0.0
 11
5.0513021831
 21
-9.6669477478
 31
0.0
 11
5.0469459676
 21
-9.663066321
 31
0.0
 11
5.0425897521
 21
-9.6591848942
 31
0.0
 11
5.0395789257
 21
-9.6565174527
 31
0.0
 11
5.0349026621
 21
-9.6523965551
 31
0.0
 11
5.0161976078
 21
-9.6359129647
 31
0.0
  0
SPLINE
  5
507
100
AcDbEntity
  8
0
100
AcDbSpline
 62
7
  6
CONTINUOUS
 70
0
 71
3
 72
20
 73
16
 74
14
 42
0.0000001
 43
0.0000001
 44
0.0000000001
 12
-0.1409655496
 22
0.1224276556
 32
0.0
 13
-0.214378801
 23
0.1691970674
 33
0.0
 40
0.0
 40
0.0
 40
0.0
 40
0.0
 40
0.125
 40
0.15625
 40
0.1875
 40
0.25
 40
0.3125
 40
0.34375
 40
0.375
 40
0.4375
 40
0.5
 40
0.5625
 40
0.625
 40
0.75
 40
1.0
 40
1.0
 40
1.0
 40
1.0
 10
5.0161976113
 20
-9.6359129677
 30
0.0
 10
5.0103240467
 20
-9.6308118153
 30
0.0
 10
5.0025182464
 20
-9.6240532319
 30
0.0
 10
4.9945428198
 20
-9.6170893609
 30
0.0
 10
4.9862572635
 20
-9.6100010647
 30
0.0
 10
4.9749446391
 20
-9.6003594409
 30
0.0
 10
4.9636573369
 20
-9.5907163409
 30
0.0
 10
4.955331265
 20
-9.5836304067
 30
0.0
 10
4.9499999431
 20
-9.5791847551
 30
0.0
 10
4.9418582803
 20
-9.5723647068
 30
0.0
 10
4.9346882101
 20
-9.5662825471
 30
0.0
 10
4.9194824559
 20
-9.5538135687
 30
0.0
 10
4.9020463983
 20
-9.5394002166
 30
0.0
 10
4.8698562382
 20
-9.5133052161
 30
0.0
 10
4.8431126275
 20
-9.4921474938
 30
0.0
 10
4.8252477275
 20
-9.4780477382
 30
0.0
 11
5.0161976113
 21
-9.6359129677
 31
0.0
 11
4.9985769176
 21
-9.6206095107
 31
0.0
 11
4.9941717441
 21
-9.6167836465
 31
0.0
 11
4.9882649406
 21
-9.6117210552
 31
0.0
 11
4.9749497035
 21
-9.6003591457
 31
0.0
 11
4.9616344664
 21
-9.5889972361
 31
0.0
 11
4.9557056087
 21
-9.583960442
 31
0.0
 11
4.9512342729
 21
-9.5802119691
 31
0.0
 11
4.9422916012
 21
-9.5727150232
 31
0.0
 11
4.9333489295
 21
-9.5652180773
 31
0.0
 11
4.9198372411
 21
-9.5540900628
 31
0.0
 11
4.9063255527
 21
-9.5429620482
 31
0.0
 11
4.879147644
 21
-9.5208953106
 31
0.0
 11
4.8252477275
 21
-9.4780477382
 31
0.0
  0
LINE
  5
508
100
AcDbEntity
  8
0
100
AcDbLine
 62
7
  6
CONTINUOUS
 10
4.8252477229
 20
-9.4780477346
 11
4.7836558854
 21
-9.4459575002
  0
SPLINE
  5
509
100
AcDbEntity
  8
0
100
AcDbSpline
 62
7
  6
CONTINUOUS
 70
0
 71
3
 72
39
 73
35
 74
33
 42
0.0000001
 43
0.0000001
 44
0.0000000001
 12
-2.2326732476
 22
1.5296217348
 32
0.0
 13
-2.7609958204
 23
0.2592765868
 33
0.0
 40
0.0
 40
0.0
 40
0.0
 40
0.0
 40
0.0625
 40
0.125
 40
0.15625
 40
0.171875
 40
0.1875
 40
0.21875
 40
0.25
 40
0.28125
 40
0.3125
 40
0.328125
 40
0.34375
 40
0.375
 40
0.4375
 40
0.46875
 40
0.484375
 40
0.5
 40
0.515625
 40
0.53125
 40
0.5625
 40
0.625
 40
0.65625
 40
0.671875
 40
0.6875
 40
0.71875
 40
0.75
 40
0.78125
 40
0.8125
 40
0.828125
 40
0.84375
 40
0.875
 40
0.9375
 40
1.0
 40
1.0
 40
1.0
 40
1.0
 10
4.7836558863
 20
-9.4459575009
 30
0.0
 10
4.7371418603
 20
-9.4140903814
 30
0.0
 10
4.6441695093
 20
-9.3502654828
 30
0.0
 10
4.5276755657
 20
-9.2709376579
 30
0.0
 10
4.4466415578
 20
-9.2145752447
 30
0.0
 10
4.3995426716
 20
-9.1836600519
 30
0.0
 10
4.3494532191
 20
-9.1576130738
 30
0.0
 10
4.2878731931
 20
-9.1233722696
 30
0.0
 10
4.2135104214
 20
-9.0830549742
 30
0.0
 10
4.139363748
 20
-9.042342331
 30
0.0
 10
4.0772434763
 20
-9.0090898965
 30
0.0
 10
4.028234515
 20
-8.9810661791
 30
0.0
 10
3.9767416313
 20
-8.9581897261
 30
0.0
 10
3.8854835173
 20
-8.9205234042
 30
0.0
 10
3.7816247287
 20
-8.876614958
 30
0.0
 10
3.6907488343
 20
-8.8380883023
 30
0.0
 10
3.6386007171
 20
-8.8166867073
 30
0.0
 10
3.6001465771
 20
-8.7988251047
 30
0.0
 10
3.559174163
 20
-8.7878983091
 30
0.0
 10
3.5054213274
 20
-8.7709157787
 30
0.0
 10
3.4109588005
 20
-8.7422659564
 30
0.0
 10
3.3030794915
 20
-8.7094292707
 30
0.0
 10
3.2088757663
 20
-8.6798743978
 30
0.0
 10
3.1546792707
 20
-8.6644433826
 30
0.0
 10
3.0990849285
 20
-8.6545534278
 30
0.0
 10
3.0300766226
 20
-8.6402770166
 30
0.0
 10
2.9470372405
 20
-8.6240207777
 30
0.0
 10
2.8641401237
 20
-8.6073250691
 30
0.0
 10
2.7947761543
 20
-8.594147332
 30
0.0
 10
2.7398931391
 20
-8.5820600289
 30
0.0
 10
2.6828039138
 20
-8.575564897
 30
0.0
 10
2.5818729073
 20
-8.566795565
 30
0.0
 10
2.4382251562
 20
-8.5529010274
 30
0.0
 10
2.3231425665
 20
-8.5422019826
 30
0.0
 10
2.2656218202
 20
-8.536800387
 30
0.0
 11
4.7836558863
 21
-9.4459575009
 31
0.0
 11
4.6441138083
 21
-9.3503561425
 31
0.0
 11
4.5045717304
 21
-9.2547547841
 31
0.0
 11
4.4348006914
 21
-9.2069541048
 31
0.0
 11
4.3991688508
 21
-9.1842685787
 31
0.0
 11
4.3620443682
 21
-9.1640126796
 31
0.0
 11
4.287795403
 21
-9.1235008812
 31
0.0
 11
4.2135464378
 21
-9.0829890829
 31
0.0
 11
4.1392974725
 21
-9.0424772846
 31
0.0
 11
4.0650485073
 21
-9.0019654863
 31
0.0
 11
4.0279240247
 21
-8.9817095871
 31
0.0
 11
3.9895603014
 21
-8.9640215761
 31
0.0
 11
3.9115936141
 21
-8.931213442
 31
0.0
 11
3.7556602394
 21
-8.865597174
 31
0.0
 11
3.6776935521
 21
-8.8327890399
 31
0.0
 11
3.6387102084
 21
-8.8163849729
 31
0.0
 11
3.5997268648
 21
-8.7999809059
 31
0.0
 11
3.5592837942
 21
-8.7875966254
 31
0.0
 11
3.5188407237
 21
-8.7752123449
 31
0.0
 11
3.4379545826
 21
-8.7504437839
 31
0.0
 11
3.2761823005
 21
-8.700906662
 31
0.0
 11
3.1952961594
 21
-8.676138101
 31
0.0
 11
3.1545045398
 21
-8.6651360152
 31
0.0
 11
3.1130158222
 21
-8.6568983187
 31
0.0
 11
3.0300383868
 21
-8.6404229257
 31
0.0
 11
2.9470609514
 21
-8.6239475327
 31
0.0
 11
2.864083516
 21
-8.6074721398
 31
0.0
 11
2.7811060806
 21
-8.5909967468
 31
0.0
 11
2.7396173629
 21
-8.5827590503
 31
0.0
 11
2.6970274172
 21
-8.5773123537
 31
0.0
 11
2.6107462978
 21
-8.5692099604
 31
0.0
 11
2.438184059
 21
-8.5530051737
 31
0.0
 11
2.2656218202
 21
-8.536800387
 31
0.0
  0
SPLINE
  5
50A
100
AcDbEntity
  8
0
100
AcDbSpline
 62
7
  6
CONTINUOUS
 70
0
 71
3
 72
8
 73
4
 74
2
 42
0.0000001
 43
0.0000001
 44
0.0000000001
 12
-0.1866458343
 22
0.0071603346
 32
0.0
 13
-0.186788333
 23
0.0006482498
 33
0.0
 40
0.0
 40
0.0
 40
0.0
 40
0.0
 40
1.0
 40
1.0
 40
1.0
 40
1.0
 10
2.2656218519
 20
-8.5368003884
 30
0.0
 10
2.2034065739
 20
-8.5344136101
 30
0.0
 10
2.1411544008
 20
-8.5331118622
 30
0.0
 10
2.0788916231
 20
-8.5328957789
 30
0.0
 11
2.2656218519
 21
-8.5368003884
 31
0.0
 11
2.0788916231
 21
-8.5328957789
 31
0.0
  0
SPLINE
  5
50B
100
AcDbEntity
  8
0
100
AcDbSpline
 62
7
  6
CONTINUOUS
 70
0
 71
3
 72
8
 73
4
 74
2
 42
0.0000001
 43
0.0000001
 44
0.0000000001
 12
-0.186782251
 22
-0.0006513698
 32
0.0
 13
-0.1866517803
 23
-0.0071637063
 33
0.0
 40
0.0
 40
0.0
 40
0.0
 40
0.0
 40
1.0
 40
1.0
 40
1.0
 40
1.0
 10
-2.0789671887
 20
-8.5327798873
 30
0.0
 10
-2.141227939
 20
-8.5329970106
 30
0.0
 10
-2.2034800912
 20
-8.5342997561
 30
0.0
 10
-2.2656973513
 20
-8.5366876581
 30
0.0
 11
-2.0789671887
 21
-8.5327798873
 31
0.0
 11
-2.2656973513
 21
-8.5366876581
 31
0.0
  0
SPLINE
  5
50C
100
AcDbEntity
  8
0
100
AcDbSpline
 62
7
  6
CONTINUOUS
 70
0
 71
3
 72
39
 73
35
 74
33
 42
0.0000001
 43
0.0000001
 44
0.0000000001
 12
-2.6956342186
 22
-0.2498317997
 32
0.0
 13
-2.291100333
 23
-1.5657251136
 33
0.0
 40
0.0
 40
0.0
 40
0.0
 40
0.0
 40
0.0625
 40
0.125
 40
0.15625
 40
0.171875
 40
0.1875
 40
0.21875
 40
0.25
 40
0.28125
 40
0.3125
 40
0.328125
 40
0.34375
 40
0.375
 40
0.4375
 40
0.46875
 40
0.484375
 40
0.5
 40
0.515625
 40
0.53125
 40
0.5625
 40
0.625
 40
0.65625
 40
0.671875
 40
0.6875
 40
0.71875
 40
0.75
 40
0.78125
 40
0.8125
 40
0.828125
 40
0.84375
 40
0.875
 40
0.9375
 40
1.0
 40
1.0
 40
1.0
 40
1.0
 10
-2.2656973553
 20
-8.5366876583
 30
0.0
 10
-2.3218564015
 20
-8.5418924875
 30
0.0
 10
-2.4341896771
 20
-8.5521968564
 30
0.0
 10
-2.5745303559
 20
-8.5656037645
 30
0.0
 10
-2.6729083261
 20
-8.574021254
 30
0.0
 10
-2.7289079494
 20
-8.5803316216
 30
0.0
 10
-2.7840919301
 20
-8.592295499
 30
0.0
 10
-2.8533548989
 20
-8.6052978978
 30
0.0
 10
-2.9363355594
 20
-8.621792262
 30
0.0
 10
-3.0194030397
 20
-8.6378446001
 30
0.0
 10
-3.0884489589
 20
-8.6519520642
 30
0.0
 10
-3.1440670388
 20
-8.6617058109
 30
0.0
 10
-3.1983013257
 20
-8.6770040434
 30
0.0
 10
-3.2925772351
 20
-8.7063280982
 30
0.0
 10
-3.4005368235
 20
-8.7389004646
 30
0.0
 10
-3.4950693645
 20
-8.7673188398
 30
0.0
 10
-3.5488637115
 20
-8.7841696659
 30
0.0
 10
-3.5898628151
 20
-8.7949960776
 30
0.0
 10
-3.6283606692
 20
-8.8127634433
 30
0.0
 10
-3.6805611455
 20
-8.8340372508
 30
0.0
 10
-3.7715313089
 20
-8.8723412171
 30
0.0
 10
-3.8754975071
 20
-8.9159951394
 30
0.0
 10
-3.9668478205
 20
-8.9534378709
 30
0.0
 10
-4.0183966111
 20
-8.9761880809
 30
0.0
 10
-4.0674744924
 20
-9.0040919088
 30
0.0
 10
-4.129673863
 20
-9.0371903393
 30
0.0
 10
-4.2039297806
 20
-9.07772853
 30
0.0
 10
-4.2783557762
 20
-9.1178365913
 30
0.0
 10
-4.3401299518
 20
-9.1520103454
 30
0.0
 10
-4.3900582231
 20
-9.1777635262
 30
0.0
 10
-4.438148761
 20
-9.2092597008
 30
0.0
 10
-4.52145391
 20
-9.2670453655
 30
0.0
 10
-4.640910367
 20
-9.3481924419
 30
0.0
 10
-4.7363386636
 20
-9.4135379501
 30
0.0
 10
-4.7840699206
 20
-9.4461572233
 30
0.0
 11
-2.2656973553
 21
-8.5366876583
 31
0.0
 11
-2.434174494
 21
-8.5523021458
 31
0.0
 11
-2.6026516326
 21
-8.5679166333
 31
0.0
 11
-2.6868902019
 21
-8.575723877
 31
0.0
 11
-2.7288059941
 21
-8.5810383103
 31
0.0
 11
-2.7703148011
 21
-8.5891743664
 31
0.0
 11
-2.8533324152
 21
-8.6054464787
 31
0.0
 11
-2.9363500294
 21
-8.621718591
 31
0.0
 11
-3.0193676435
 21
-8.6379907032
 31
0.0
 11
-3.1023852576
 21
-8.6542628155
 31
0.0
 11
-3.1438940647
 21
-8.6623988716
 31
0.0
 11
-3.1847125591
 21
-8.6733010161
 31
0.0
 11
-3.2656592353
 21
-8.6978713936
 31
0.0
 11
-3.4275525877
 21
-8.7470121484
 31
0.0
 11
-3.508499264
 21
-8.7715825258
 31
0.0
 11
-3.5489726021
 21
-8.7838677146
 31
0.0
 11
-3.5894459402
 21
-8.7961529033
 31
0.0
 11
-3.6284694197
 21
-8.8124614416
 31
0.0
 11
-3.6674928993
 21
-8.82876998
 31
0.0
 11
-3.7455398584
 21
-8.8613870568
 31
0.0
 11
-3.9016337767
 21
-8.9266212103
 31
0.0
 11
-3.9796807358
 21
-8.959238287
 31
0.0
 11
-4.0180877475
 21
-8.9768322832
 31
0.0
 11
-4.0552618234
 21
-8.9969971949
 31
0.0
 11
-4.1296099751
 21
-9.0373270183
 31
0.0
 11
-4.2039581269
 21
-9.0776568418
 31
0.0
 11
-4.2783062787
 21
-9.1179866653
 31
0.0
 11
-4.3526544305
 21
-9.1583164887
 31
0.0
 11
-4.3898285064
 21
-9.1784814004
 31
0.0
 11
-4.4260854935
 21
-9.2015126743
 31
0.0
 11
-4.4976823789
 21
-9.2504415841
 31
0.0
 11
-4.6408761498
 21
-9.3482994037
 31
0.0
 11
-4.7840699206
 21
-9.4461572233
 31
0.0
  0
LINE
  5
50D
100
AcDbEntity
  8
0
100
AcDbLine
 62
7
  6
CONTINUOUS
 10
-4.7840698316
 20
-9.4461571554
 11
-4.8220774819
 21
-9.4754582103
  0
SPLINE
  5
50E
100
AcDbEntity
  8
0
100
AcDbSpline
 62
7
  6
CONTINUOUS
 70
0
 71
3
 72
21
 73
17
 74
15
 42
0.0000001
 43
0.0000001
 44
0.0000000001
 12
-0.1468575174
 22
-0.1153077326
 32
0.0
 13
-0.2288839801
 23
-0.1979967918
 33
0.0
 40
0.0
 40
0.0
 40
0.0
 40
0.0
 40
0.125
 40
0.15625
 40
0.1875
 40
0.25
 40
0.375
 40
0.4375
 40
0.5
 40
0.5625
 40
0.625
 40
0.65625
 40
0.6875
 40
0.75
 40
0.875
 40
1.0
 40
1.0
 40
1.0
 40
1.0
 10
-4.8220774835
 20
-9.4754582115
 30
0.0
 10
-4.8281965467
 20
-9.4802627004
 30
0.0
 10
-4.8363074376
 20
-9.4866511801
 30
0.0
 10
-4.8446543212
 20
-9.4931687498
 30
0.0
 10
-4.8531761057
 20
-9.4999641556
 30
0.0
 10
-4.8694692105
 20
-9.5129920893
 30
0.0
 10
-4.8877328434
 20
-9.527632387
 30
0.0
 10
-4.9052599074
 20
-9.5420056293
 30
0.0
 10
-4.9205107273
 20
-9.5544052802
 30
0.0
 10
-4.9277077441
 20
-9.560459582
 30
0.0
 10
-4.9358766871
 20
-9.5672453536
 30
0.0
 10
-4.9412273135
 20
-9.5716693973
 30
0.0
 10
-4.9495789085
 20
-9.5787193191
 30
0.0
 10
-4.9654765495
 20
-9.592171122
 30
0.0
 10
-4.9878848333
 20
-9.6112229977
 30
0.0
 10
-5.0073408443
 20
-9.6281421411
 30
0.0
 10
-5.0168776768
 20
-9.6363920074
 30
0.0
 11
-4.8220774835
 21
-9.4754582115
 31
0.0
 11
-4.8404346732
 21
-9.4898716781
 31
0.0
 11
-4.8450239706
 21
-9.4934750447
 31
0.0
 11
-4.851111373
 21
-9.4983193981
 31
0.0
 11
-4.8647842828
 21
-9.5092490918
 31
0.0
 11
-4.8920532287
 21
-9.531203443
 31
0.0
 11
-4.9056108277
 21
-9.5422755825
 31
0.0
 11
-4.9191684268
 21
-9.553347722
 31
0.0
 11
-4.9281420299
 21
-9.5608076861
 31
0.0
 11
-4.937115633
 21
-9.5682676501
 31
0.0
 11
-4.9416024346
 21
-9.5719976321
 31
0.0
 11
-4.947552074
 21
-9.5770099072
 31
0.0
 11
-4.9609141909
 21
-9.5883167507
 31
0.0
 11
-4.9882671793
 21
-9.6116424084
 31
0.0
 11
-5.0168776768
 21
-9.6363920074
 31
0.0
  0
SPLINE
  5
50F
100
AcDbEntity
  8
0
100
AcDbSpline
 62
7
  6
CONTINUOUS
 70
0
 71
3
 72
21
 73
17
 74
15
 42
0.0000001
 43
0.0000001
 44
0.0000000001
 12
-0.0701486038
 22
-0.061595989
 32
0.0
 13
-0.1252767268
 23
-0.1158789992
 33
0.0
 40
0.0
 40
0.0
 40
0.0
 40
0.0
 40
0.125
 40
0.25
 40
0.3125
 40
0.34375
 40
0.375
 40
0.4375
 40
0.5
 40
0.5625
 40
0.625
 40
0.65625
 40
0.6875
 40
0.75
 40
0.875
 40
1.0
 40
1.0
 40
1.0
 40
1.0
 10
-5.0168776776
 20
-9.6363920081
 30
0.0
 10
-5.0198005361
 20
-9.6389585076
 30
0.0
 10
-5.025598276
 20
-9.6440385854
 30
0.0
 10
-5.0330853364
 20
-9.6506532893
 30
0.0
 10
-5.0378383177
 20
-9.6548507987
 30
0.0
 10
-5.0413053685
 20
-9.657927174
 30
0.0
 10
-5.0477276162
 20
-9.6636713925
 30
0.0
 10
-5.0543034467
 20
-9.6695487211
 30
0.0
 10
-5.0647311482
 20
-9.6788538841
 30
0.0
 10
-5.0673351967
 20
-9.6812342834
 30
0.0
 10
-5.0716155784
 20
-9.6850979702
 30
0.0
 10
-5.0738868911
 20
-9.6871392517
 30
0.0
 10
-5.0790819012
 20
-9.6918751886
 30
0.0
 10
-5.089514648
 20
-9.7013961058
 30
0.0
 10
-5.1034010035
 20
-9.7141022149
 30
0.0
 10
-5.1136176117
 20
-9.7235893635
 30
0.0
 10
-5.1188374753
 20
-9.7284176552
 30
0.0
 11
-5.0168776776
 21
-9.6363920081
 31
0.0
 11
-5.0256462531
 21
-9.6440915067
 31
0.0
 11
-5.0343968586
 21
-9.6518113603
 31
0.0
 11
-5.0387676688
 21
-9.6556763757
 31
0.0
 11
-5.0416747681
 21
-9.6582606544
 31
0.0
 11
-5.0460252557
 21
-9.6621484749
 31
0.0
 11
-5.0547262309
 21
-9.6699241158
 31
0.0
 11
-5.063427206
 21
-9.6776997568
 31
0.0
 11
-5.0677572649
 21
-9.6816102875
 31
0.0
 11
-5.0720873239
 21
-9.6855208183
 31
0.0
 11
-5.0742523533
 21
-9.6874760836
 31
0.0
 11
-5.0778470287
 21
-9.69074992
 31
0.0
 11
-5.0864660253
 21
-9.6986161637
 31
0.0
 11
-5.1031778845
 21
-9.7139327803
 31
0.0
 11
-5.1188374753
 21
-9.7284176552
 31
0.0
  0
SPLINE
  5
510
100
AcDbEntity
  8
0
100
AcDbSpline
 62
7
  6
CONTINUOUS
 70
0
 71
3
 72
11
 73
7
 74
5
 42
0.0000001
 43
0.0000001
 44
0.0000000001
 12
-0.0568464055
 22
-0.0531050454
 32
0.0
 13
-0.0702829608
 23
-0.0675791226
 33
0.0
 40
0.0
 40
0.0
 40
0.0
 40
0.0
 40
0.375
 40
0.5625
 40
0.75
 40
1.0
 40
1.0
 40
1.0
 40
1.0
 10
-5.1188374734
 20
-9.7284176534
 30
0.0
 10
-5.1259432741
 20
-9.735055784
 30
0.0
 10
-5.1365205611
 20
-9.7449401022
 30
0.0
 10
-5.1508516733
 20
-9.7585146129
 30
0.0
 10
-5.1618889186
 20
-9.7690162481
 30
0.0
 10
-5.1722906544
 20
-9.7790229057
 30
0.0
 10
-5.1781475678
 20
-9.7846544992
 30
0.0
 11
-5.1188374734
 21
-9.7284176534
 31
0.0
 11
-5.1401223444
 21
-9.7483666815
 31
0.0
 11
-5.150715871
 21
-9.7583930443
 31
0.0
 11
-5.1612766426
 21
-9.7684538318
 31
0.0
 11
-5.1781475678
 21
-9.7846544992
 31
0.0
  0
SPLINE
  5
511
100
AcDbEntity
  8
0
100
AcDbSpline
 62
7
  6
CONTINUOUS
 70
0
 71
3
 72
25
 73
21
 74
19
 42
0.0000001
 43
0.0000001
 44
0.0000000001
 12
-0.8534822995
 22
-0.8625195289
 32
0.0
 13
-0.6739681599
 23
-1.1037273291
 33
0.0
 40
0.0
 40
0.0
 40
0.0
 40
0.0
 40
0.125
 40
0.1875
 40
0.25
 40
0.3125
 40
0.375
 40
0.4375
 40
0.46875
 40
0.5
 40
0.53125
 40
0.5625
 40
0.625
 40
0.65625
 40
0.6875
 40
0.75
 40
0.8125
 40
0.84375
 40
0.875
 40
1.0
 40
1.0
 40
1.0
 40
1.0
 10
-5.1781475683
 20
-9.7846544998
 30
0.0
 10
-5.2137093308
 20
-9.8205928135
 30
0.0
 10
-5.2672791472
 20
-9.8742849929
 30
0.0
 10
-5.3377968784
 20
-9.94673573
 30
0.0
 10
-5.3879516689
 20
-10.0036448978
 30
0.0
 10
-5.4394843671
 20
-10.0592870765
 30
0.0
 10
-5.4882389427
 20
-10.1174260965
 30
0.0
 10
-5.528288942
 20
-10.1660955071
 30
0.0
 10
-5.5604998659
 20
-10.2055002316
 30
0.0
 10
-5.5844925736
 20
-10.2335140507
 30
0.0
 10
-5.6090617599
 20
-10.2674521689
 30
0.0
 10
-5.6416891049
 20
-10.3106592906
 30
0.0
 10
-5.6739529124
 20
-10.3542800298
 30
0.0
 10
-5.7074060101
 20
-10.3981926934
 30
0.0
 10
-5.7365866636
 20
-10.4403861695
 30
0.0
 10
-5.7715860381
 20
-10.492658225
 30
0.0
 10
-5.8071540171
 20
-10.544625493
 30
0.0
 10
-5.8354249034
 20
-10.587306629
 30
0.0
 10
-5.877482532
 20
-10.6574344919
 30
0.0
 10
-5.9126213633
 20
-10.7142842321
 30
0.0
 10
-5.94070337
 20
-10.7602728708
 30
0.0
 11
-5.1781475683
 21
-9.7846544998
 31
0.0
 11
-5.2848328558
 21
-9.8924694409
 31
0.0
 11
-5.3373412937
 21
-9.9471642492
 31
0.0
 11
-5.3881813202
 21
-10.0034337329
 31
0.0
 11
-5.4390213467
 21
-10.0597032167
 31
0.0
 11
-5.48812318
 21
-10.1174701419
 31
0.0
 11
-5.5363559167
 21
-10.1759857879
 31
0.0
 11
-5.560472285
 21
-10.2052436109
 31
0.0
 11
-5.5845886534
 21
-10.2345014339
 31
0.0
 11
-5.6090453136
 21
-10.2671967061
 31
0.0
 11
-5.6335019739
 21
-10.2998919783
 31
0.0
 11
-5.6824152944
 21
-10.3652825227
 31
0.0
 11
-5.7068719546
 21
-10.397977795
 31
0.0
 11
-5.7291930708
 21
-10.4298064811
 31
0.0
 11
-5.771699759
 21
-10.4925972675
 31
0.0
 11
-5.8142064473
 21
-10.5553880538
 31
0.0
 11
-5.835395845
 21
-10.5878154756
 31
0.0
 11
-5.85645735
 21
-10.6223069546
 31
0.0
 11
-5.94070337
 21
-10.7602728708
 31
0.0
  0
SPLINE
  5
512
100
AcDbEntity
  8
0
100
AcDbSpline
 62
7
  6
CONTINUOUS
 70
0
 71
3
 72
16
 73
12
 74
10
 42
0.0000001
 43
0.0000001
 44
0.0000000001
 12
-0.0928255688
 22
-0.1619323394
 32
0.0
 13
-0.1448162661
 23
-0.2857184162
 33
0.0
 40
0.0
 40
0.0
 40
0.0
 40
0.0
 40
0.125
 40
0.15625
 40
0.1875
 40
0.25
 40
0.375
 40
0.5
 40
0.75
 40
0.875
 40
1.0
 40
1.0
 40
1.0
 40
1.0
 10
-5.9407033659
 20
-10.7602728636
 30
0.0
 10
-5.9445710979
 20
-10.7670200444
 30
0.0
 10
-5.9496897879
 20
-10.7759814626
 30
0.0
 10
-5.954980141
 20
-10.7851528379
 30
0.0
 10
-5.960324803
 20
-10.7946427179
 30
0.0
 10
-5.9705628305
 20
-10.8128629984
 30
0.0
 10
-5.984626605
 20
-10.8380859223
 30
0.0
 10
-6.0071731965
 20
-10.8791592165
 30
0.0
 10
-6.0286846946
 20
-10.9199332323
 30
0.0
 10
-6.050683574
 20
-10.9624549908
 30
0.0
 10
-6.0631077903
 20
-10.9871145218
 30
0.0
 10
-6.0691418014
 20
-10.9990194558
 30
0.0
 11
-5.9407033659
 21
-10.7602728636
 31
0.0
 11
-5.952306562
 21
-10.780514406
 31
0.0
 11
-5.955207361
 21
-10.7855747916
 31
0.0
 11
-5.9590307741
 21
-10.792347057
 31
0.0
 11
-5.9676002145
 21
-10.8076034674
 31
0.0
 11
-5.984632174
 21
-10.8381754993
 31
0.0
 11
-6.0014502908
 21
-10.8688659531
 31
0.0
 11
-6.0342250296
 21
-10.9307093172
 31
0.0
 11
-6.0510397681
 21
-10.9633046538
 31
0.0
 11
-6.0691418014
 21
-10.9990194558
 31
0.0
  0
SPLINE
  5
513
100
AcDbEntity
  8
0
100
AcDbSpline
 62
7
  6
CONTINUOUS
 70
0
 71
3
 72
13
 73
9
 74
7
 42
0.0000001
 43
0.0000001
 44
0.0000000001
 12
-0.1237564682
 22
-0.2511240583
 32
0.0
 13
-0.1310263421
 23
-0.3060628526
 33
0.0
 40
0.0
 40
0.0
 40
0.0
 40
0.0
 40
0.5
 40
0.625
 40
0.75
 40
0.8125
 40
0.875
 40
1.0
 40
1.0
 40
1.0
 40
1.0
 10
-6.0691417999
 20
-10.9990194529
 30
0.0
 10
-6.089767878
 20
-11.0408734626
 30
0.0
 10
-6.1153485247
 20
-11.0934398562
 30
0.0
 10
-6.1441729619
 20
-11.1569651378
 30
0.0
 10
-6.1561849839
 20
-11.1839974285
 30
0.0
 10
-6.1653079327
 20
-11.2045258632
 30
0.0
 10
-6.17592976
 20
-11.2291927367
 30
0.0
 10
-6.1842302944
 20
-11.2486360516
 30
0.0
 10
-6.1896897253
 20
-11.2613886704
 30
0.0
 11
-6.0691417999
 21
-10.9990194529
 31
0.0
 11
-6.129698332
 21
-11.1252173506
 31
0.0
 11
-6.1441733299
 21
-11.1570778225
 31
0.0
 11
-6.1584251654
 21
-11.1890380873
 31
0.0
 11
-6.1654952925
 21
-11.2050431681
 31
0.0
 11
-6.1733114325
 21
-11.2231308138
 31
0.0
 11
-6.1896897253
 21
-11.2613886704
 31
0.0
  0
SPLINE
  5
514
100
AcDbEntity
  8
0
100
AcDbSpline
 62
7
  6
CONTINUOUS
 70
0
 71
3
 72
102
 73
98
 74
96
 42
0.0000001
 43
0.0000001
 44
0.0000000001
 12
-2.45091047
 22
-8.1618182191
 32
0.0
 13
8.5714694241
 23
-1.2949930366
 33
0.0
 40
0.0
 40
0.0
 40
0.0
 40
0.0
 40
0.03125
 40
0.0625
 40
0.078125
 40
0.0859375
 40
0.09375
 40
0.1015625
 40
0.10546875
 40
0.109375
 40
0.1171875
 40
0.125
 40
0.140625
 40
0.15625
 40
0.171875
 40
0.1875
 40
0.203125
 40
0.2109375
 40
0.21484375
 40
0.21875
 40
0.22265625
 40
0.224609375
 40
0.2265625
 40
0.234375
 40
0.25
 40
0.265625
 40
0.28125
 40
0.296875
 40
0.3125
 40
0.3203125
 40
0.328125
 40
0.33203125
 40
0.333984375
 40
0.3359375
 40
0.33984375
 40
0.34375
 40
0.359375
 40
0.375
 40
0.390625
 40
0.40625
 40
0.421875
 40
0.4296875
 40
0.4375
 40
0.44140625
 40
0.4453125
 40
0.44921875
 40
0.453125
 40
0.4609375
 40
0.46875
 40
0.5
 40
0.53125
 40
0.5390625
 40
0.546875
 40
0.55078125
 40
0.5546875
 40
0.55859375
 40
0.5625
 40
0.5703125
 40
0.578125
 40
0.59375
 40
0.609375
 40
0.625
 40
0.640625
 40
0.65625
 40
0.66015625
 40
0.6640625
 40
0.666015625
 40
0.66796875
 40
0.671875
 40
0.6796875
 40
0.6875
 40
0.703125
 40
0.71875
 40
0.734375
 40
0.75
 40
0.765625
 40
0.7734375
 40
0.775390625
 40
0.77734375
 40
0.78125
 40
0.7890625
 40
0.796875
 40
0.8125
 40
0.828125
 40
0.84375
 40
0.859375
 40
0.875
 40
0.8828125
 40
0.890625
 40
0.89453125
 40
0.8984375
 40
0.90625
 40
0.9140625
 40
0.921875
 40
0.9375
 40
0.96875
 40
1.0
 40
1.0
 40
1.0
 40
1.0
 10
-6.1896897248
 20
-11.2613886693
 30
0.0
 10
-6.2152200422
 20
-11.3464076091
 30
0.0
 10
-6.2662787496
 20
-11.516445849
 30
0.0
 10
-6.3301117707
 20
-11.7289918471
 30
0.0
 10
-6.3747771779
 20
-11.8777773565
 30
0.0
 10
-6.4003277325
 20
-11.9627925127
 30
0.0
 10
-6.4194133135
 20
-12.0265683386
 30
0.0
 10
-6.4355643036
 20
-12.0796688039
 30
0.0
 10
-6.4479325491
 20
-12.1222524817
 30
0.0
 10
-6.4623139094
 20
-12.1644597824
 30
0.0
 10
-6.4658829318
 20
-12.2199126048
 30
0.0
 10
-6.4731625076
 20
-12.3083437421
 30
0.0
 10
-6.4817239053
 20
-12.4189833189
 30
0.0
 10
-6.4922266188
 20
-12.5517077341
 30
0.0
 10
-6.5026741024
 20
-12.684443409
 30
0.0
 10
-6.5131134695
 20
-12.8171771218
 30
0.0
 10
-6.5218860221
 20
-12.9277857066
 30
0.0
 10
-6.5278768918
 20
-13.0052185437
 30
0.0
 10
-6.5315353226
 20
-13.0494550272
 30
0.0
 10
-6.5336167492
 20
-13.0826629952
 30
0.0
 10
-6.5374613111
 20
-13.1102388055
 30
0.0
 10
-6.5334008776
 20
-13.132629184
 30
0.0
 10
-6.5291437035
 20
-13.1661300334
 30
0.0
 10
-6.5188482919
 20
-13.2387647352
 30
0.0
 10
-6.5037329031
 20
-13.3504768394
 30
0.0
 10
-6.4852857962
 20
-13.484546302
 30
0.0
 10
-6.4669153209
 20
-13.6186097596
 30
0.0
 10
-6.4485469596
 20
-13.7526823
 30
0.0
 10
-6.4331690855
 20
-13.864384145
 30
0.0
 10
-6.4210359044
 20
-13.9538017325
 30
0.0
 10
-6.4130653239
 20
-14.0095600819
 30
0.0
 10
-6.4082623418
 20
-14.0488467018
 30
0.0
 10
-6.4043029702
 20
-14.0708960198
 30
0.0
 10
-6.3957680206
 20
-14.0914380684
 30
0.0
 10
-6.3866632854
 20
-14.1176308201
 30
0.0
 10
-6.3635247176
 20
-14.1800693989
 30
0.0
 10
-6.3293574927
 20
-14.2739053547
 30
0.0
 10
-6.2834922564
 20
-14.3989182124
 30
0.0
 10
-6.2377094287
 20
-14.5239581502
 30
0.0
 10
-6.191905903
 20
-14.6489915176
 30
0.0
 10
-6.1537366178
 20
-14.7531853248
 30
0.0
 10
-6.1232107716
 20
-14.8365452535
 30
0.0
 10
-6.1041080032
 20
-14.8886333344
 30
0.0
 10
-6.0888812679
 20
-14.9303310772
 30
0.0
 10
-6.0773092467
 20
-14.9615296748
 30
0.0
 10
-6.057846244
 20
-14.9888490148
 30
0.0
 10
-6.0346515383
 20
-15.0266296584
 30
0.0
 10
-6.0047158764
 20
-15.0733921801
 30
0.0
 10
-5.9336482792
 20
-15.1860051768
 30
0.0
 10
-5.8266843702
 20
-15.3547398958
 30
0.0
 10
-5.7200035271
 20
-15.5236393018
 30
0.0
 10
-5.648652864
 20
-15.6360876115
 30
0.0
 10
-5.6192282934
 20
-15.6831474847
 30
0.0
 10
-5.5949799535
 20
-15.7203151266
 30
0.0
 10
-5.5787368252
 20
-15.7495077815
 30
0.0
 10
-5.5550755321
 20
-15.7736728709
 30
0.0
 10
-5.5233366548
 20
-15.8057638919
 30
0.0
 10
-5.4837282629
 20
-15.8459218455
 30
0.0
 10
-5.420318499
 20
-15.9101500323
 30
0.0
 10
-5.3410680016
 20
-15.9904425979
 30
0.0
 10
-5.2459657143
 20
-16.0867952915
 30
0.0
 10
-5.1508514567
 20
-16.1831297943
 30
0.0
 10
-5.0557867709
 20
-16.2795354452
 30
0.0
 10
-4.9843485186
 20
-16.3516398822
 30
0.0
 10
-4.9369404225
 20
-16.400020275
 30
0.0
 10
-4.9168635228
 20
-16.4197163256
 30
0.0
 10
-4.9015567257
 20
-16.4365519606
 30
0.0
 10
-4.8834898593
 20
-16.4494423746
 30
0.0
 10
-4.850590451
 20
-16.4701675593
 30
0.0
 10
-4.8042603772
 20
-16.5007313373
 30
0.0
 10
-4.7297583838
 20
-16.5490990131
 30
0.0
 10
-4.6367586334
 20
-16.6097408906
 30
0.0
 10
-4.5251065873
 20
-16.6824377398
 30
0.0
 10
-4.4134595376
 20
-16.7551365515
 30
0.0
 10
-4.3018448477
 20
-16.8279009171
 30
0.0
 10
-4.2087205766
 20
-16.8883177402
 30
0.0
 10
-4.1483951118
 20
-16.9279913329
 30
0.0
 10
-4.1203366974
 20
-16.9458788946
 30
0.0
 10
-4.1021646851
 20
-16.958850212
 30
0.0
 10
-4.0649120161
 20
-16.9708604459
 30
0.0
 10
-4.0135599614
 20
-16.9916768627
 30
0.0
 10
-3.9303536879
 20
-17.0229380007
 30
0.0
 10
-3.8267040651
 20
-17.0627171308
 30
0.0
 10
-3.7021695453
 20
-17.1101467838
 30
0.0
 10
-3.577681765
 20
-17.157673317
 30
0.0
 10
-3.453161999
 20
-17.2051176326
 30
0.0
 10
-3.3494631967
 20
-17.2448478872
 30
0.0
 10
-3.2663577412
 20
-17.27620922
 30
0.0
 10
-3.2147490309
 20
-17.2967705678
 30
0.0
 10
-3.169558618
 20
-17.3019326556
 30
0.0
 10
-3.1250499667
 20
-17.3090660888
 30
0.0
 10
-3.0691802458
 20
-17.3173065278
 30
0.0
 10
-3.002236691
 20
-17.3274845282
 30
0.0
 10
-2.9129436977
 20
-17.3409542218
 30
0.0
 10
-2.7566972364
 20
-17.3645732515
 30
0.0
 10
-2.5334794392
 20
-17.3982899509
 30
0.0
 10
-2.3549078122
 20
-17.4252708598
 30
0.0
 10
-2.2656216724
 20
-17.4387603706
 30
0.0
 11
-6.1896897248
 21
-11.2613886693
 31
0.0
 11
-6.266280677
 21
-11.5164454886
 31
0.0
 11
-6.3428716292
 21
-11.771502308
 31
0.0
 11
-6.3811671053
 21
-11.8990307176
 31
0.0
 11
-6.4003148433
 21
-11.9627949225
 31
0.0
 11
-6.4194625814
 21
-12.0265591273
 31
0.0
 11
-6.4386103194
 21
-12.0903233322
 31
0.0
 11
-6.4481841884
 21
-12.1222054346
 31
0.0
 11
-6.4577580575
 21
-12.154087537
 31
0.0
 11
-6.4660790743
 21
-12.2198759325
 31
0.0
 11
-6.4713067422
 21
-12.2862426681
 31
0.0
 11
-6.481762078
 21
-12.4189761394
 31
0.0
 11
-6.4922174138
 21
-12.5517096107
 31
0.0
 11
-6.5026727497
 21
-12.684443082
 31
0.0
 11
-6.5131280855
 21
-12.8171765533
 31
0.0
 11
-6.5235834213
 21
-12.9499100246
 31
0.0
 11
-6.5288110892
 21
-13.0162767602
 31
0.0
 11
-6.5314249232
 21
-13.0494601281
 31
0.0
 11
-6.5340387571
 21
-13.0826434959
 31
0.0
 11
-6.5358515291
 21
-13.1158638776
 31
0.0
 11
-6.5335536673
 21
-13.1326221241
 31
0.0
 11
-6.5312558054
 21
-13.1493803707
 31
0.0
 11
-6.5220643579
 21
-13.2164133568
 31
0.0
 11
-6.503681463
 21
-13.350479329
 31
0.0
 11
-6.4852985681
 21
-13.4845453012
 31
0.0
 11
-6.4669156732
 21
-13.6186112734
 31
0.0
 11
-6.4485327783
 21
-13.7526772456
 31
0.0
 11
-6.4301498834
 21
-13.8867432178
 31
0.0
 11
-6.4209584359
 21
-13.9537762039
 31
0.0
 11
-6.4117669885
 21
-14.02080919
 31
0.0
 11
-6.4071712647
 21
-14.0543256831
 31
0.0
 11
-6.403731023
 21
-14.0707076111
 31
0.0
 11
-6.3980060215
 21
-14.0863369023
 31
0.0
 11
-6.3865560184
 21
-14.1175954847
 31
0.0
 11
-6.3751060154
 21
-14.148854067
 31
0.0
 11
-6.3293060033
 21
-14.2738883964
 31
0.0
 11
-6.2835059912
 21
-14.3989227258
 31
0.0
 11
-6.237705979
 21
-14.5239570551
 31
0.0
 11
-6.1919059669
 21
-14.6489913845
 31
0.0
 11
-6.1461059548
 21
-14.7740257139
 31
0.0
 11
-6.1232059487
 21
-14.8365428786
 31
0.0
 11
-6.1003059426
 21
-14.8990600432
 31
0.0
 11
-6.0888559396
 21
-14.9303186256
 31
0.0
 11
-6.0759940831
 21
-14.9608831319
 31
0.0
 11
-6.0581907396
 21
-14.9890183719
 31
0.0
 11
-6.0403873961
 21
-15.017153612
 31
0.0
 11
-6.004780709
 21
-15.0734240922
 31
0.0
 11
-5.969174022
 21
-15.1296945723
 31
0.0
 11
-5.8267472738
 21
-15.3547764929
 31
0.0
 11
-5.6843205255
 21
-15.5798584135
 31
0.0
 11
-5.6487138385
 21
-15.6361288937
 31
0.0
 11
-5.6131071514
 21
-15.6923993738
 31
0.0
 11
-5.5953038079
 21
-15.7205346139
 31
0.0
 11
-5.5775004644
 21
-15.748669854
 31
0.0
 11
-5.5550517213
 21
-15.7736567336
 31
0.0
 11
-5.5312757211
 21
-15.7977440818
 31
0.0
 11
-5.4837237208
 21
-15.8459187781
 31
0.0
 11
-5.4361717205
 21
-15.8940934744
 31
0.0
 11
-5.3410677199
 21
-15.9904428671
 31
0.0
 11
-5.2459637193
 21
-16.0867922597
 31
0.0
 11
-5.1508597186
 21
-16.1831416523
 31
0.0
 11
-5.055755718
 21
-16.2794910449
 31
0.0
 11
-4.9606517174
 21
-16.3758404375
 31
0.0
 11
-4.9368757173
 21
-16.3999277857
 31
0.0
 11
-4.9130997171
 21
-16.4240151339
 31
0.0
 11
-4.901211717
 21
-16.4360588079
 31
0.0
 11
-4.8879455096
 21
-16.4461324835
 31
0.0
 11
-4.8600348873
 21
-16.4643098361
 31
0.0
 11
-4.8042136427
 21
-16.5006645412
 31
0.0
 11
-4.7483923982
 21
-16.5370192463
 31
0.0
 11
-4.6367499091
 21
-16.6097286566
 31
0.0
 11
-4.52510742
 21
-16.6824380669
 31
0.0
 11
-4.4134649309
 21
-16.7551474772
 31
0.0
 11
-4.3018224418
 21
-16.8278568874
 31
0.0
 11
-4.1901799527
 21
-16.9005662977
 31
0.0
 11
-4.1343587082
 21
-16.9369210028
 31
0.0
 11
-4.120403397
 21
-16.9460096791
 31
0.0
 11
-4.1064480859
 21
-16.9550983554
 31
0.0
 11
-4.0756800387
 21
-16.9676728798
 31
0.0
 11
-4.0134295881
 21
-16.9914212216
 31
0.0
 11
-3.9511791375
 21
-17.0151695634
 31
0.0
 11
-3.8266782364
 21
-17.0626662469
 31
0.0
 11
-3.7021773352
 21
-17.1101629305
 31
0.0
 11
-3.577676434
 21
-17.157659614
 31
0.0
 11
-3.4531755328
 21
-17.2051562976
 31
0.0
 11
-3.3286746317
 21
-17.2526529812
 31
0.0
 11
-3.2664241811
 21
-17.2764013229
 31
0.0
 11
-3.2031261406
 21
-17.2971205072
 31
0.0
 11
-3.1696438382
 21
-17.3021790738
 31
0.0
 11
-3.1361615358
 21
-17.3072376403
 31
0.0
 11
-3.0691969309
 21
-17.3173547734
 31
0.0
 11
-3.002232326
 21
-17.3274719065
 31
0.0
 11
-2.9352677211
 21
-17.3375890396
 31
0.0
 11
-2.8013385114
 21
-17.3578233058
 31
0.0
 11
-2.5334800919
 21
-17.3982918382
 31
0.0
 11
-2.2656216724
 21
-17.4387603706
 31
0.0
  0
SPLINE
  5
515
100
AcDbEntity
  8
0
100
AcDbSpline
 62
7
  6
CONTINUOUS
 70
0
 71
3
 72
8
 73
4
 74
2
 42
0.0000001
 43
0.0000001
 44
0.0000000001
 12
0.1866458343
 22
-0.0071603346
 32
0.0
 13
0.186788333
 23
-0.0006482498
 33
0.0
 40
0.0
 40
0.0
 40
0.0
 40
0.0
 40
1.0
 40
1.0
 40
1.0
 40
1.0
 10
-2.2656218519
 20
-17.4387603631
 30
0.0
 10
-2.2034065739
 20
-17.4411471413
 30
0.0
 10
-2.1411544008
 20
-17.4424488893
 30
0.0
 10
-2.0788916231
 20
-17.4426649725
 30
0.0
 11
-2.2656218519
 21
-17.4387603631
 31
0.0
 11
-2.0788916231
 21
-17.4426649725
 31
0.0
  0
SPLINE
  5
516
100
AcDbEntity
  8
0
100
AcDbSpline
 62
7
  6
CONTINUOUS
 70
0
 71
3
 72
21
 73
17
 74
15
 42
0.0000001
 43
0.0000001
 44
0.0000000001
 12
-0.0223142185
 22
0.5768695599
 32
0.0
 13
-0.3621107927
 23
0.4587945244
 33
0.0
 40
0.0
 40
0.0
 40
0.0
 40
0.0
 40
0.125
 40
0.1875
 40
0.25
 40
0.3125
 40
0.375
 40
0.4375
 40
0.5
 40
0.5625
 40
0.625
 40
0.6875
 40
0.75
 40
0.8125
 40
0.875
 40
1.0
 40
1.0
 40
1.0
 40
1.0
 10
-1.8555051595
 20
-13.0828704067
 30
0.0
 10
-1.8564349186
 20
-13.0588341751
 30
0.0
 10
-1.857417139
 20
-13.0227416296
 30
0.0
 10
-1.8603764394
 20
-12.9747710275
 30
0.0
 10
-1.8674958562
 20
-12.9393289554
 30
0.0
 10
-1.8722389196
 20
-12.9035026881
 30
0.0
 10
-1.8815874552
 20
-12.8686773217
 30
0.0
 10
-1.8925660963
 20
-12.8343137092
 30
0.0
 10
-1.9012566633
 20
-12.7991427616
 30
0.0
 10
-1.917469421
 20
-12.7667394003
 30
0.0
 10
-1.9314179049
 20
-12.733466395
 30
0.0
 10
-1.9469012932
 20
-12.7009043793
 30
0.0
 10
-1.9665615522
 20
-12.6705403325
 30
0.0
 10
-1.9840838533
 20
-12.6390179868
 30
0.0
 10
-2.0132802026
 20
-12.600235161
 30
0.0
 10
-2.0362794584
 20
-12.571766734
 30
0.0
 10
-2.0513674081
 20
-12.5526502955
 30
0.0
 11
-1.8555051595
 21
-13.0828704067
 31
0.0
 11
-1.8582944368
 21
-13.0107617117
 31
0.0
 11
-1.8611930963
 21
-12.9748603408
 31
0.0
 11
-1.8670997973
 21
-12.9392649228
 31
0.0
 11
-1.8730064983
 21
-12.9036695049
 31
0.0
 11
-1.8818591394
 21
-12.8687542807
 31
0.0
 11
-1.8921847506
 21
-12.8341791534
 31
0.0
 11
-1.9025103618
 21
-12.799604026
 31
0.0
 11
-1.9170920421
 21
-12.7665944597
 31
0.0
 11
-1.9316737223
 21
-12.7335848933
 31
0.0
 11
-1.9475974384
 21
-12.7012707075
 31
0.0
 11
-1.9662052259
 21
-12.6703472827
 31
0.0
 11
-1.9848130135
 21
-12.6394238579
 31
0.0
 11
-2.006103559
 21
-12.6099996111
 31
0.0
 11
-2.0513674081
 21
-12.5526502955
 31
0.0
  0
SPLINE
  5
517
100
AcDbEntity
  8
0
100
AcDbSpline
 62
7
  6
CONTINUOUS
 70
0
 71
3
 72
21
 73
17
 74
15
 42
0.0000001
 43
0.0000001
 44
0.0000000001
 12
0.3586960065
 22
0.4507144433
 32
0.0
 13
0.0225997349
 23
0.5918847553
 33
0.0
 40
0.0
 40
0.0
 40
0.0
 40
0.0
 40
0.125
 40
0.1875
 40
0.25
 40
0.3125
 40
0.375
 40
0.4375
 40
0.5
 40
0.5625
 40
0.625
 40
0.6875
 40
0.75
 40
0.8125
 40
0.875
 40
1.0
 40
1.0
 40
1.0
 40
1.0
 10
-2.0524954067
 20
-13.615346948
 30
0.0
 10
-2.0375497397
 20
-13.5965671795
 30
0.0
 10
-2.0147919441
 20
-13.5686298275
 30
0.0
 10
-1.9858053976
 20
-13.5304508221
 30
0.0
 10
-1.9680939189
 20
-13.4989695431
 30
0.0
 10
-1.9484328933
 20
-13.4690009015
 30
0.0
 10
-1.9325416241
 20
-13.4358287351
 30
0.0
 10
-1.9181484985
 20
-13.4018073517
 30
0.0
 10
-1.9013068534
 20
-13.3683110214
 30
0.0
 10
-1.8927611426
 20
-13.3335636957
 30
0.0
 10
-1.8817209447
 20
-13.2992124838
 30
0.0
 10
-1.8723627608
 20
-13.2645278121
 30
0.0
 10
-1.867583448
 20
-13.2287340371
 30
0.0
 10
-1.8604315163
 20
-13.1936164779
 30
0.0
 10
-1.8574444138
 20
-13.1446653859
 30
0.0
 10
-1.8564458521
 20
-13.1075328496
 30
0.0
 10
-1.8555041965
 20
-13.0828709848
 30
0.0
 11
-2.0524954067
 21
-13.615346948
 31
0.0
 11
-2.0076584059
 21
-13.5590076426
 31
0.0
 11
-1.9864768028
 21
-13.5299763179
 31
0.0
 11
-1.9677689944
 21
-13.4992216493
 31
0.0
 11
-1.949061186
 21
-13.4684669807
 31
0.0
 11
-1.9327913147
 21
-13.4356871989
 31
0.0
 11
-1.9177404119
 21
-13.4018948606
 31
0.0
 11
-1.9026895091
 21
-13.3681025222
 31
0.0
 11
-1.8923453947
 21
-13.3336297147
 31
0.0
 11
-1.8820012804
 21
-13.2991569072
 31
0.0
 11
-1.873125906
 21
-13.2643429615
 31
0.0
 11
-1.8671880115
 21
-13.2288467397
 31
0.0
 11
-1.8612501171
 21
-13.1933505179
 31
0.0
 11
-1.8583291633
 21
-13.1568565792
 31
0.0
 11
-1.8555041965
 21
-13.0828709848
 31
0.0
  0
SPLINE
  5
518
100
AcDbEntity
  8
0
100
AcDbSpline
 62
7
  6
CONTINUOUS
 70
0
 71
3
 72
21
 73
17
 74
15
 42
0.0000001
 43
0.0000001
 44
0.0000000001
 12
0.0207848536
 22
-0.5732129665
 32
0.0
 13
0.3624956823
 23
-0.4548978499
 33
0.0
 40
0.0
 40
0.0
 40
0.0
 40
0.0
 40
0.125
 40
0.1875
 40
0.25
 40
0.3125
 40
0.375
 40
0.4375
 40
0.5
 40
0.5625
 40
0.625
 40
0.6875
 40
0.75
 40
0.8125
 40
0.875
 40
1.0
 40
1.0
 40
1.0
 40
1.0
 10
-0.5382325126
 20
-13.0828707019
 30
0.0
 10
-0.537366477
 20
-13.1067545756
 30
0.0
 10
-0.5364748068
 20
-13.1426241646
 30
0.0
 10
-0.5336563806
 20
-13.1902751688
 30
0.0
 10
-0.5266481008
 20
-13.2255608907
 30
0.0
 10
-0.5220958446
 20
-13.2609636602
 30
0.0
 10
-0.5126139541
 20
-13.2963507704
 30
0.0
 10
-0.5014468543
 20
-13.331412264
 30
0.0
 10
-0.4924763648
 20
-13.3676562802
 30
0.0
 10
-0.4764046432
 20
-13.399495823
 30
0.0
 10
-0.4625226754
 20
-13.4325843397
 30
0.0
 10
-0.4469829246
 20
-13.4650814342
 30
0.0
 10
-0.4267508229
 20
-13.4961781941
 30
0.0
 10
-0.4086784496
 20
-13.5284336151
 30
0.0
 10
-0.3793198682
 20
-13.5671284298
 30
0.0
 10
-0.356345366
 20
-13.5952645477
 30
0.0
 10
-0.3412413793
 20
-13.6142186248
 30
0.0
 11
-0.5382325126
 21
-13.0828707019
 31
0.0
 11
-0.5356344059
 21
-13.1545223228
 31
0.0
 11
-0.5328406373
 21
-13.1901997469
 31
0.0
 11
-0.5270574381
 21
-13.2255803986
 31
0.0
 11
-0.5212742389
 21
-13.2609610503
 31
0.0
 11
-0.5123330859
 21
-13.296296501
 31
0.0
 11
-0.501812956
 21
-13.3316093511
 31
0.0
 11
-0.4912928261
 21
-13.3669222013
 31
0.0
 11
-0.4767696022
 21
-13.3997039853
 31
0.0
 11
-0.4622463782
 21
-13.4324857694
 31
0.0
 11
-0.4462008661
 21
-13.4648480451
 31
0.0
 11
-0.4271107776
 21
-13.4963713043
 31
0.0
 11
-0.4080206892
 21
-13.5278945634
 31
0.0
 11
-0.3865533396
 21
-13.5573563936
 31
0.0
 11
-0.3412413793
 21
-13.6142186248
 31
0.0
  0
SPLINE
  5
519
100
AcDbEntity
  8
0
100
AcDbSpline
 62
7
  6
CONTINUOUS
 70
0
 71
3
 72
21
 73
17
 74
15
 42
0.0000001
 43
0.0000001
 44
0.0000000001
 12
-0.3738040657
 22
-0.4465429536
 32
0.0
 13
-0.0274108326
 23
-0.587133544
 33
0.0
 40
0.0
 40
0.0
 40
0.0
 40
0.0
 40
0.125
 40
0.1875
 40
0.25
 40
0.3125
 40
0.375
 40
0.4375
 40
0.5
 40
0.5625
 40
0.625
 40
0.6875
 40
0.75
 40
0.8125
 40
0.875
 40
1.0
 40
1.0
 40
1.0
 40
1.0
 10
-0.3307646672
 20
-12.550429887
 30
0.0
 10
-0.3463398366
 20
-12.5690358434
 30
0.0
 10
-0.3700465828
 20
-12.5966882647
 30
0.0
 10
-0.4002796093
 20
-12.6345842129
 30
0.0
 10
-0.4188092715
 20
-12.6659885261
 30
0.0
 10
-0.4394372909
 20
-12.6960453746
 30
0.0
 10
-0.4558169893
 20
-12.72850973
 30
0.0
 10
-0.470617578
 20
-12.7617420841
 30
0.0
 10
-0.487745908
 20
-12.7940202173
 30
0.0
 10
-0.4971423828
 20
-12.8293472353
 30
0.0
 10
-0.508883143
 20
-12.8637160231
 30
0.0
 10
-0.5189786166
 20
-12.8988688467
 30
0.0
 10
-0.5244133705
 20
-12.9360720952
 30
0.0
 10
-0.5323411276
 20
-12.9727462832
 30
0.0
 10
-0.5358297463
 20
-13.0217329565
 30
0.0
 10
-0.5370912799
 20
-13.0584067238
 30
0.0
 10
-0.5382333979
 20
-13.0828706214
 30
0.0
 11
-0.3307646672
 21
-12.550429887
 31
0.0
 11
-0.3774901754
 21
-12.6062477562
 31
0.0
 11
-0.399588758
 21
-12.6350812716
 31
0.0
 11
-0.4191589977
 21
-12.6657639487
 31
0.0
 11
-0.4387292374
 21
-12.6964466258
 31
0.0
 11
-0.4555538043
 21
-12.7286377298
 31
0.0
 11
-0.4710055349
 21
-12.7615830473
 31
0.0
 11
-0.4864572655
 21
-12.7945283647
 31
0.0
 11
-0.497533097
 21
-12.8291875302
 31
0.0
 11
-0.5086089286
 21
-12.8638466957
 31
0.0
 11
-0.51820183
 21
-12.8992105841
 31
0.0
 11
-0.524828871
 21
-12.9359839184
 31
0.0
 11
-0.5314559121
 21
-12.9727572527
 31
0.0
 11
-0.5348070438
 21
-13.0094789285
 31
0.0
 11
-0.5382333979
 21
-13.0828706214
 31
0.0
  0
SPLINE
  5
51A
100
AcDbEntity
  8
0
100
AcDbSpline
 62
7
  6
CONTINUOUS
 70
0
 71
3
 72
21
 73
17
 74
15
 42
0.0000001
 43
0.0000001
 44
0.0000000001
 12
-0.4320990261
 22
0.3826089806
 32
0.0
 13
-0.5876999587
 23
0.0315620494
 33
0.0
 40
0.0
 40
0.0
 40
0.0
 40
0.0
 40
0.125
 40
0.1875
 40
0.25
 40
0.3125
 40
0.375
 40
0.4375
 40
0.5
 40
0.5625
 40
0.625
 40
0.6875
 40
0.75
 40
0.8125
 40
0.875
 40
1.0
 40
1.0
 40
1.0
 40
1.0
 10
-2.0513667079
 20
-12.5526505895
 30
0.0
 10
-2.069370834
 20
-12.5367085486
 30
0.0
 10
-2.0961126797
 20
-12.5124502961
 30
0.0
 10
-2.1328258476
 20
-12.4814867243
 30
0.0
 10
-2.1635740814
 20
-12.4623690274
 30
0.0
 10
-2.1926537811
 20
-12.4412548084
 30
0.0
 10
-2.2251942594
 20
-12.4240216961
 30
0.0
 10
-2.258683337
 20
-12.4083391137
 30
0.0
 10
-2.2914788291
 20
-12.3901125221
 30
0.0
 10
-2.3261000638
 20
-12.3805114376
 30
0.0
 10
-2.3600898123
 20
-12.3683232733
 30
0.0
 10
-2.3947797629
 20
-12.3578579213
 30
0.0
 10
-2.4316224212
 20
-12.3520977572
 30
0.0
 10
-2.4677981063
 20
-12.3438127434
 30
0.0
 10
-2.5167192663
 20
-12.3399583397
 30
0.0
 10
-2.5534707024
 20
-12.338444799
 30
0.0
 10
-2.5779582007
 20
-12.3371297136
 30
0.0
 11
-2.0513667079
 21
-12.5526505895
 31
0.0
 11
-2.1053790862
 21
-12.5048244669
 31
0.0
 11
-2.1333614073
 21
-12.482170888
 31
0.0
 11
-2.1632959924
 21
-12.4620362737
 31
0.0
 11
-2.1932305775
 21
-12.4419016595
 31
0.0
 11
-2.2253523593
 21
-12.4242801178
 31
0.0
 11
-2.2585677394
 21
-12.4079151122
 31
0.0
 11
-2.2917831196
 21
-12.3915501066
 31
0.0
 11
-2.3259948161
 21
-12.3800802577
 31
0.0
 11
-2.3602065126
 21
-12.3686104087
 31
0.0
 11
-2.3951385475
 21
-12.3586421193
 31
0.0
 11
-2.431511259
 21
-12.351676949
 31
0.0
 11
-2.4678839704
 21
-12.3447117786
 31
0.0
 11
-2.5044957059
 21
-12.3410749698
 31
0.0
 11
-2.5779582007
 21
-12.3371297136
 31
0.0
  0
SPLINE
  5
51B
100
AcDbEntity
  8
0
100
AcDbSpline
 62
7
  6
CONTINUOUS
 70
0
 71
3
 72
21
 73
17
 74
15
 42
0.0000001
 43
0.0000001
 44
0.0000000001
 12
0.4365929547
 22
-0.3884268943
 32
0.0
 13
0.6002260998
 23
-0.0228093018
 33
0.0
 40
0.0
 40
0.0
 40
0.0
 40
0.0
 40
0.125
 40
0.1875
 40
0.25
 40
0.3125
 40
0.375
 40
0.4375
 40
0.5
 40
0.5625
 40
0.625
 40
0.6875
 40
0.75
 40
0.8125
 40
0.875
 40
1.0
 40
1.0
 40
1.0
 40
1.0
 10
-0.3412412393
 20
-13.6142190015
 30
0.0
 10
-0.3230498662
 20
-13.6304034554
 30
0.0
 10
-0.2961297018
 20
-13.654985912
 30
0.0
 10
-0.2587685681
 20
-13.6865394181
 30
0.0
 10
-0.2267001046
 20
-13.7063469639
 30
0.0
 10
-0.1961227521
 20
-13.7283657159
 30
0.0
 10
-0.1636285691
 20
-13.745397227
 30
0.0
 10
-0.1304024498
 20
-13.7606373145
 30
0.0
 10
-0.0985668324
 20
-13.7782657468
 30
0.0
 10
-0.0619011436
 20
-13.7881322237
 30
0.0
 10
-0.0265442286
 20
-13.8003987021
 30
0.0
 10
0.0092177105
 20
-13.8108271297
 30
0.0
 10
0.0453306924
 20
-13.8158725025
 30
0.0
 10
0.0809592092
 20
-13.823617632
 30
0.0
 10
0.1305796552
 20
-13.8267231756
 30
0.0
 10
0.1682431848
 20
-13.8276969688
 30
0.0
 10
0.1932526056
 20
-13.8286473563
 30
0.0
 11
-0.3412412393
 21
-13.6142190015
 31
0.0
 11
-0.2866671199
 21
-13.6627723633
 31
0.0
 11
-0.2580939659
 21
-13.6858964875
 31
0.0
 11
-0.2269486231
 21
-13.7067154983
 31
0.0
 11
-0.1958032804
 21
-13.7275345091
 31
0.0
 11
-0.1635065797
 21
-13.7450986564
 31
0.0
 11
-0.1306342001
 21
-13.761035372
 31
0.0
 11
-0.0977618205
 21
-13.7769720876
 31
0.0
 11
-0.0621192725
 21
-13.7885322239
 31
0.0
 11
-0.0264767246
 21
-13.8000923603
 31
0.0
 11
0.0092762176
 21
-13.8099299539
 31
0.0
 11
0.0452499482
 21
-13.816322462
 31
0.0
 11
0.0812236788
 21
-13.82271497
 31
0.0
 11
0.1182243432
 21
-13.8257961936
 31
0.0
 11
0.1932526056
 21
-13.8286473563
 31
0.0
  0
SPLINE
  5
51C
100
AcDbEntity
  8
0
100
AcDbSpline
 62
7
  6
CONTINUOUS
 70
0
 71
3
 72
21
 73
17
 74
15
 42
0.0000001
 43
0.0000001
 44
0.0000000001
 12
0.5743948791
 22
0.0227322807
 32
0.0
 13
0.4442388839
 23
0.3969954844
 33
0.0
 40
0.0
 40
0.0
 40
0.0
 40
0.0
 40
0.125
 40
0.1875
 40
0.25
 40
0.3125
 40
0.375
 40
0.4375
 40
0.5
 40
0.5625
 40
0.625
 40
0.6875
 40
0.75
 40
0.8125
 40
0.875
 40
1.0
 40
1.0
 40
1.0
 40
1.0
 10
-2.577958169
 20
-13.8286467203
 30
0.0
 10
-2.5540250491
 20
-13.8276995419
 30
0.0
 10
-2.5181761995
 20
-13.826745388
 30
0.0
 10
-2.4701744119
 20
-13.8236067283
 30
0.0
 10
-2.4339431074
 20
-13.8157622373
 30
0.0
 10
-2.3972567832
 20
-13.8104996937
 30
0.0
 10
-2.3626205015
 20
-13.8003998565
 30
0.0
 10
-2.3286898966
 20
-13.7885328862
 30
0.0
 10
-2.2941119554
 20
-13.7793045616
 30
0.0
 10
-2.2614176824
 20
-13.7612887875
 30
0.0
 10
-2.2280091064
 20
-13.7458630018
 30
0.0
 10
-2.1955740741
 20
-13.7288647124
 30
0.0
 10
-2.166550583
 20
-13.7077988168
 30
0.0
 10
-2.1360902095
 20
-13.689040585
 30
0.0
 10
-2.0985910292
 20
-13.6571455441
 30
0.0
 10
-2.0710058264
 20
-13.6318878578
 30
0.0
 10
-2.052495873
 20
-13.6153463793
 30
0.0
 11
-2.577958169
 21
-13.8286467203
 31
0.0
 11
-2.5061588091
 21
-13.8258051852
 31
0.0
 11
-2.4701360846
 21
-13.8226916456
 31
0.0
 11
-2.4338672708
 21
-13.8161925618
 31
0.0
 11
-2.397598457
 21
-13.8096934781
 31
0.0
 11
-2.3627381143
 21
-13.8001053343
 31
0.0
 11
-2.3285820072
 21
-13.7889726605
 31
0.0
 11
-2.2944259001
 21
-13.7778399867
 31
0.0
 11
-2.2612986319
 21
-13.7617204523
 31
0.0
 11
-2.2281713637
 21
-13.7456009178
 31
0.0
 11
-2.1961426643
 21
-13.728186778
 31
0.0
 11
-2.1663111026
 21
-13.7081834274
 31
0.0
 11
-2.1364795408
 21
-13.6881800769
 31
0.0
 11
-2.1080257334
 21
-13.6649708148
 31
0.0
 11
-2.052495873
 21
-13.6153463793
 31
0.0
  0
SPLINE
  5
51D
100
AcDbEntity
  8
0
100
AcDbSpline
 62
7
  6
CONTINUOUS
 70
0
 71
3
 72
13
 73
9
 74
7
 42
0.0000001
 43
0.0000001
 44
0.0000000001
 12
-0.3643125783
 22
0.2125602
 32
0.0
 13
-0.4347310622
 23
0.0090683157
 33
0.0
 40
0.0
 40
0.0
 40
0.0
 40
0.0
 40
0.125
 40
0.25
 40
0.5
 40
0.75
 40
0.875
 40
1.0
 40
1.0
 40
1.0
 40
1.0
 10
0.5983475501
 20
-12.4500183235
 30
0.0
 10
0.5831678593
 20
-12.4411616485
 30
0.0
 10
0.5532160169
 20
-12.422660151
 30
0.0
 10
0.4900520193
 20
-12.3919623358
 30
0.0
 10
0.4079481564
 20
-12.3595493642
 30
0.0
 10
0.321246385
 20
-12.3442452546
 30
0.0
 10
0.250952805
 20
-12.3373691546
 30
0.0
 10
0.2143649503
 20
-12.3375075806
 30
0.0
 10
0.196251156
 20
-12.3371297341
 30
0.0
 11
0.5983475501
 21
-12.4500183235
 31
0.0
 11
0.5528084778
 21
-12.4234482985
 31
0.0
 11
0.5056330943
 21
-12.4000340761
 31
0.0
 11
0.4070285747
 21
-12.3629711366
 31
0.0
 11
0.3035953097
 21
-12.3429734952
 31
0.0
 11
0.2505925388
 21
-12.3382632736
 31
0.0
 11
0.196251156
 21
-12.3371297341
 31
0.0
  0
SPLINE
  5
51E
100
AcDbEntity
  8
0
100
AcDbSpline
 62
7
  6
CONTINUOUS
 70
0
 71
3
 72
21
 73
17
 74
15
 42
0.0000001
 43
0.0000001
 44
0.0000000001
 12
-0.5773835077
 22
-0.0173530483
 32
0.0
 13
-0.4414800351
 23
-0.4006853732
 33
0.0
 40
0.0
 40
0.0
 40
0.0
 40
0.0
 40
0.125
 40
0.1875
 40
0.25
 40
0.3125
 40
0.375
 40
0.4375
 40
0.5
 40
0.5625
 40
0.625
 40
0.6875
 40
0.75
 40
0.8125
 40
0.875
 40
1.0
 40
1.0
 40
1.0
 40
1.0
 10
0.1962503228
 20
-12.3371303583
 30
0.0
 10
0.1721926766
 20
-12.337853402
 30
0.0
 10
0.1361575686
 20
-12.3384582908
 30
0.0
 10
0.087905313
 20
-12.3411835159
 30
0.0
 10
0.0514800015
 20
-12.3488758861
 30
0.0
 10
0.0146024267
 20
-12.3539055335
 30
0.0
 10
-0.0202299748
 20
-12.3639376204
 30
0.0
 10
-0.0543484234
 20
-12.3757933421
 30
0.0
 10
-0.0891466658
 20
-12.3849374202
 30
0.0
 10
-0.121939686
 20
-12.4031044378
 30
0.0
 10
-0.1554830966
 20
-12.4186096872
 30
0.0
 10
-0.1880301677
 20
-12.4357390701
 30
0.0
 10
-0.2170818842
 20
-12.4570618561
 30
0.0
 10
-0.2476507132
 20
-12.4760432337
 30
0.0
 10
-0.2849783575
 20
-12.5082480442
 30
0.0
 10
-0.3123692442
 20
-12.533735494
 30
0.0
 10
-0.3307642457
 20
-12.5504307179
 30
0.0
 11
0.1962503228
 21
-12.3371303583
 31
0.0
 11
0.1240773843
 21
-12.3392994893
 31
0.0
 11
0.0878659597
 21
-12.3421249245
 31
0.0
 11
0.0514046243
 21
-12.348432099
 31
0.0
 11
0.0149432889
 21
-12.3547392734
 31
0.0
 11
-0.0201109827
 21
-12.3642415596
 31
0.0
 11
-0.0544617224
 21
-12.3753414015
 31
0.0
 11
-0.0888124621
 21
-12.3864412434
 31
0.0
 11
-0.1220647511
 21
-12.4026608098
 31
0.0
 11
-0.15531704
 21
-12.4188803761
 31
0.0
 11
-0.1874476086
 21
-12.4364379706
 31
0.0
 11
-0.2173347363
 21
-12.4566716214
 31
0.0
 11
-0.2472218639
 21
-12.4769052721
 31
0.0
 11
-0.2755792413
 21
-12.5003450462
 31
0.0
 11
-0.3307642457
 21
-12.5504307179
 31
0.0
  0
SPLINE
  5
51F
100
AcDbEntity
  8
0
100
AcDbSpline
 62
7
  6
CONTINUOUS
 70
0
 71
3
 72
16
 73
12
 74
10
 42
0.0000001
 43
0.0000001
 44
0.0000000001
 12
-0.148794973
 22
0.3231164212
 32
0.0
 13
-0.2882420529
 23
0.2235885765
 33
0.0
 40
0.0
 40
0.0
 40
0.0
 40
0.0
 40
0.25
 40
0.375
 40
0.4375
 40
0.5
 40
0.5625
 40
0.625
 40
0.75
 40
0.875
 40
1.0
 40
1.0
 40
1.0
 40
1.0
 10
0.8204915471
 20
-12.7292967917
 30
0.0
 10
0.808091966
 20
-12.7023704233
 30
0.0
 10
0.7890869131
 20
-12.6623246012
 30
0.0
 10
0.7618206935
 20
-12.6177753494
 30
0.0
 10
0.7433877061
 20
-12.5930860602
 30
0.0
 10
0.7304833511
 20
-12.5736000334
 30
0.0
 10
0.7153235994
 20
-12.5576065332
 30
0.0
 10
0.6963533695
 20
-12.5348872711
 30
0.0
 10
0.6689582803
 20
-12.508216341
 30
0.0
 10
0.6347916952
 20
-12.4773095038
 30
0.0
 10
0.6103573749
 20
-12.4593345147
 30
0.0
 10
0.5983472894
 20
-12.450018324
 30
0.0
 11
0.8204915471
 21
-12.7292967917
 31
0.0
 11
0.7808114544
 21
-12.6498029934
 31
0.0
 11
0.7569747558
 21
-12.6116669793
 31
0.0
 11
0.7435411037
 21
-12.5929245502
 31
0.0
 11
0.7301074516
 21
-12.5741821212
 31
0.0
 11
0.7154789459
 21
-12.5574322088
 31
0.0
 11
0.7008504402
 21
-12.5406822965
 31
0.0
 11
0.6687428673
 21
-12.5083993875
 31
0.0
 11
0.634377546
 21
-12.477966896
 31
0.0
 11
0.5983472894
 21
-12.450018324
 31
0.0
  0
SPLINE
  5
520
100
AcDbEntity
  8
0
100
AcDbSpline
 62
7
  6
CONTINUOUS
 70
0
 71
3
 72
13
 73
9
 74
7
 42
0.0000001
 43
0.0000001
 44
0.0000000001
 12
0.2849821291
 22
-0.1988288639
 32
0.0
 13
0.3690619769
 23
-0.0188871082
 33
0.0
 40
0.0
 40
0.0
 40
0.0
 40
0.0
 40
0.125
 40
0.25
 40
0.5
 40
0.75
 40
0.875
 40
1.0
 40
1.0
 40
1.0
 40
1.0
 10
-0.1041390034
 20
-13.4817686297
 30
0.0
 10
-0.092264748
 20
-13.4900531657
 30
0.0
 10
-0.0691563029
 20
-13.507171828
 30
0.0
 10
-0.0178188872
 20
-13.5370124299
 30
0.0
 10
0.0501865786
 20
-13.5693143149
 30
0.0
 10
0.1232688041
 20
-13.5857047358
 30
0.0
 10
0.18276776
 20
-13.5938307479
 30
0.0
 10
0.2138581537
 20
-13.5945749801
 30
0.0
 10
0.229235736
 20
-13.595361943
 30
0.0
 11
-0.1041390034
 21
-13.4817686297
 31
0.0
 11
-0.0685162372
 21
-13.5066222376
 31
0.0
 11
-0.0303976614
 21
-13.5292190216
 31
0.0
 11
0.0512019305
 21
-13.5661320221
 31
0.0
 11
0.138229641
 21
-13.5873207118
 31
0.0
 11
0.1831029889
 21
-13.5930010545
 31
0.0
 11
0.229235736
 21
-13.595361943
 31
0.0
  0
SPLINE
  5
521
100
AcDbEntity
  8
0
100
AcDbSpline
 62
7
  6
CONTINUOUS
 70
0
 71
3
 72
21
 73
17
 74
15
 42
0.0000001
 43
0.0000001
 44
0.0000000001
 12
0.229676753
 22
0.2990850656
 32
0.0
 13
0.0118856606
 23
0.3959174684
 33
0.0
 40
0.0
 40
0.0
 40
0.0
 40
0.0
 40
0.125
 40
0.1875
 40
0.25
 40
0.3125
 40
0.375
 40
0.4375
 40
0.5
 40
0.5625
 40
0.625
 40
0.6875
 40
0.75
 40
0.8125
 40
0.875
 40
1.0
 40
1.0
 40
1.0
 40
1.0
 10
-2.2689960312
 20
-13.43803077
 30
0.0
 10
-2.2594261665
 20
-13.4255688923
 30
0.0
 10
-2.2448856169
 20
-13.4070833192
 30
0.0
 10
-2.2262412275
 20
-13.3816069144
 30
0.0
 10
-2.2145648756
 20
-13.360153754
 30
0.0
 10
-2.2016181891
 20
-13.3396619234
 30
0.0
 10
-2.1914459005
 20
-13.3176706304
 30
0.0
 10
-2.1823221478
 20
-13.2952282725
 30
0.0
 10
-2.1716677496
 20
-13.2733458447
 30
0.0
 10
-2.1660873977
 20
-13.2496747612
 30
0.0
 10
-2.1589591927
 20
-13.2264746258
 30
0.0
 10
-2.1529483538
 20
-13.2031793539
 30
0.0
 10
-2.1500904084
 20
-13.179828565
 30
0.0
 10
-2.145652532
 20
-13.1568647515
 30
0.0
 10
-2.1439578041
 20
-13.1242564874
 30
0.0
 10
-2.1434790464
 20
-13.0993673238
 30
0.0
 10
-2.1429838105
 20
-13.0828707626
 30
0.0
 11
-2.2689960312
 21
-13.43803077
 31
0.0
 11
-2.2402864371
 21
-13.4006451368
 31
0.0
 11
-2.2266257175
 21
-13.3812159382
 31
0.0
 11
-2.2143531532
 21
-13.3603139756
 31
0.0
 11
-2.2020805888
 21
-13.339412013
 31
0.0
 11
-2.1916206565
 21
-13.3175954529
 31
0.0
 11
-2.1820670403
 21
-13.2953215941
 31
0.0
 11
-2.172513424
 21
-13.2730477354
 31
0.0
 11
-2.1658294222
 21
-13.2497532525
 31
0.0
 11
-2.1591454204
 21
-13.2264587697
 31
0.0
 11
-2.153473836
 21
-13.2031701011
 31
0.0
 11
-2.1498270866
 21
-13.1798930609
 31
0.0
 11
-2.1461803371
 21
-13.1566160207
 31
0.0
 11
-2.1444695181
 21
-13.1323604461
 31
0.0
 11
-2.1429838105
 21
-13.0828707626
 31
0.0
  0
SPLINE
  5
522
100
AcDbEntity
  8
0
100
AcDbSpline
 62
7
  6
CONTINUOUS
 70
0
 71
3
 72
21
 73
17
 74
15
 42
0.0000001
 43
0.0000001
 44
0.0000000001
 12
0.0101409857
 22
-0.3768308878
 32
0.0
 13
0.2403537328
 23
-0.3150083831
 33
0.0
 40
0.0
 40
0.0
 40
0.0
 40
0.0
 40
0.125
 40
0.1875
 40
0.25
 40
0.3125
 40
0.375
 40
0.4375
 40
0.5
 40
0.5625
 40
0.625
 40
0.6875
 40
0.75
 40
0.8125
 40
0.875
 40
1.0
 40
1.0
 40
1.0
 40
1.0
 10
-3.0789381894
 20
-13.082870761
 30
0.0
 10
-3.0785156484
 20
-13.098572048
 30
0.0
 10
-3.0781567665
 20
-13.1220798798
 30
0.0
 10
-3.0765785383
 20
-13.1536000503
 30
0.0
 10
-3.0721241209
 20
-13.1776107677
 30
0.0
 10
-3.0692624598
 20
-13.2016740828
 30
0.0
 10
-3.0633005198
 20
-13.2251564176
 30
0.0
 10
-3.0562397762
 20
-13.2483293642
 30
0.0
 10
-3.0507209443
 20
-13.272030488
 30
0.0
 10
-3.0401332693
 20
-13.2939282911
 30
0.0
 10
-3.0310447776
 20
-13.3164342158
 30
0.0
 10
-3.0210283956
 20
-13.3383109751
 30
0.0
 10
-3.0085279987
 20
-13.3582470115
 30
0.0
 10
-2.9974987655
 20
-13.3788765791
 30
0.0
 10
-2.9782589346
 20
-13.4052714663
 30
0.0
 10
-2.9629407087
 20
-13.4249054195
 30
0.0
 10
-2.9529259699
 20
-13.4380307688
 30
0.0
 11
-3.0789381894
 21
-13.082870761
 31
0.0
 11
-3.0776705662
 21
-13.129974622
 31
0.0
 11
-3.0760334139
 21
-13.1536618152
 31
0.0
 11
-3.0723895803
 21
-13.177619534
 31
0.0
 11
-3.0687457467
 21
-13.2015772527
 31
0.0
 11
-3.0631173859
 21
-13.2251048529
 31
0.0
 11
-3.0564967615
 21
-13.2484173937
 31
0.0
 11
-3.0498761371
 21
-13.2717299345
 31
0.0
 11
-3.0403831332
 21
-13.2940296447
 31
0.0
 11
-3.0308901292
 21
-13.3163293549
 31
0.0
 11
-3.0206143931
 21
-13.3379875213
 31
0.0
 11
-3.0087731926
 21
-13.3583626
 31
0.0
 11
-2.9969319922
 21
-13.3787376787
 31
0.0
 11
-2.9829701865
 21
-13.398654721
 31
0.0
 11
-2.9529259699
 21
-13.4380307688
 31
0.0
  0
SPLINE
  5
523
100
AcDbEntity
  8
0
100
AcDbSpline
 62
7
  6
CONTINUOUS
 70
0
 71
3
 72
13
 73
9
 74
7
 42
0.0000001
 43
0.0000001
 44
0.0000000001
 12
-0.0101183943
 22
0.3767187417
 32
0.0
 13
-0.2346131313
 23
0.306354332
 33
0.0
 40
0.0
 40
0.0
 40
0.0
 40
0.0
 40
0.125
 40
0.25
 40
0.5
 40
0.75
 40
0.875
 40
1.0
 40
1.0
 40
1.0
 40
1.0
 10
-2.1429836346
 20
-13.0828704842
 30
0.0
 10
-2.1434052344
 20
-13.06717387
 30
0.0
 10
-2.1432474839
 20
-13.0359377523
 30
0.0
 10
-2.1509395832
 20
-12.9722086305
 30
0.0
 10
-2.1681868495
 20
-12.892679088
 30
0.0
 10
-2.2046358425
 20
-12.8200854728
 30
0.0
 10
-2.238855499
 20
-12.765442584
 30
0.0
 10
-2.2592203487
 20
-12.7405103619
 30
0.0
 10
-2.2689958958
 20
-12.7277455981
 30
0.0
 11
-2.1429836346
 21
-13.0828704842
 31
0.0
 11
-2.1442484339
 21
-13.0357806415
 31
0.0
 11
-2.1495253678
 21
-12.9881497016
 31
0.0
 11
-2.1720271948
 21
-12.8940662735
 31
0.0
 11
-2.2136124618
 21
-12.8067107509
 31
0.0
 11
-2.2396692544
 21
-12.7660398896
 31
0.0
 11
-2.2689958958
 21
-12.7277455981
 31
0.0
  0
SPLINE
  5
524
100
AcDbEntity
  8
0
100
AcDbSpline
 62
7
  6
CONTINUOUS
 70
0
 71
3
 72
13
 73
9
 74
7
 42
0.0000001
 43
0.0000001
 44
0.0000000001
 12
-0.229642313
 22
-0.2989693985
 32
0.0
 13
-0.0109133091
 23
-0.3855826655
 33
0.0
 40
0.0
 40
0.0
 40
0.0
 40
0.0
 40
0.125
 40
0.25
 40
0.5
 40
0.75
 40
0.875
 40
1.0
 40
1.0
 40
1.0
 40
1.0
 10
-2.9529260955
 20
-12.7277455881
 30
0.0
 10
-2.9624945252
 20
-12.7402026463
 30
0.0
 10
-2.9823097852
 20
-12.7643648722
 30
0.0
 10
-3.0165131005
 20
-12.8187044494
 30
0.0
 10
-3.0532561314
 20
-12.8913291274
 30
0.0
 10
-3.0707121973
 20
-12.9706495159
 30
0.0
 10
-3.0785828262
 20
-13.0346245066
 30
0.0
 10
-3.0784836446
 20
-13.0668045265
 30
0.0
 10
-3.0789383658
 20
-13.0828704709
 30
0.0
 11
-2.9529260955
 21
-12.7277455881
 31
0.0
 11
-2.9816313846
 21
-12.7651167629
 31
0.0
 11
-3.0075615308
 21
-12.8054329022
 31
0.0
 11
-3.0493987384
 21
-12.8926682695
 31
0.0
 11
-3.0721720025
 21
-12.9866864869
 31
0.0
 11
-3.0775742022
 21
-13.0346726377
 31
0.0
 11
-3.0789383658
 21
-13.0828704709
 31
0.0
  0
SPLINE
  5
525
100
AcDbEntity
  8
0
100
AcDbSpline
 62
7
  6
CONTINUOUS
 70
0
 71
3
 72
21
 73
17
 74
15
 42
0.0000001
 43
0.0000001
 44
0.0000000001
 12
-0.2066664705
 22
-0.2967934719
 32
0.0
 13
0.0056644906
 23
-0.3716061346
 33
0.0
 40
0.0
 40
0.0
 40
0.0
 40
0.0
 40
0.125
 40
0.1875
 40
0.25
 40
0.3125
 40
0.375
 40
0.4375
 40
0.5
 40
0.5625
 40
0.625
 40
0.6875
 40
0.75
 40
0.8125
 40
0.875
 40
1.0
 40
1.0
 40
1.0
 40
1.0
 10
-1.1395772859
 20
-12.7351823976
 30
0.0
 10
-1.1481883888
 20
-12.7475487923
 30
0.0
 10
-1.1612908775
 20
-12.7659036335
 30
0.0
 10
-1.1780175254
 20
-12.7911557582
 30
0.0
 10
-1.1882334505
 20
-12.812194408
 30
0.0
 10
-1.1997624806
 20
-12.832539459
 30
0.0
 10
-1.2083681516
 20
-12.8535593487
 30
0.0
 10
-1.2159317726
 20
-12.8748745388
 30
0.0
 10
-1.2248757622
 20
-12.8954842172
 30
0.0
 10
-1.2293403272
 20
-12.918620642
 30
0.0
 10
-1.2351827199
 20
-12.9410471086
 30
0.0
 10
-1.2399932263
 20
-12.9637866612
 30
0.0
 10
-1.2417980131
 20
-12.9869899981
 30
0.0
 10
-1.2451466903
 20
-13.0100374513
 30
0.0
 10
-1.2453851374
 20
-13.0409803896
 30
0.0
 10
-1.2447646737
 20
-13.0642148628
 30
0.0
 10
-1.2445286533
 20
-13.0796984518
 30
0.0
 11
-1.1395772859
 21
-12.7351823976
 31
0.0
 11
-1.1654105947
 21
-12.7722815816
 31
0.0
 11
-1.1776293486
 21
-12.7915056842
 31
0.0
 11
-1.1884523013
 21
-12.8120788082
 31
0.0
 11
-1.1992752541
 21
-12.8326519321
 31
0.0
 11
-1.2081944766
 21
-12.8536085655
 31
0.0
 11
-1.216161834
 21
-12.8747569535
 31
0.0
 11
-1.2241291914
 21
-12.8959053416
 31
0.0
 11
-1.2295699652
 21
-12.9185023156
 31
0.0
 11
-1.2350107389
 21
-12.9410992896
 31
0.0
 11
-1.2394922731
 21
-12.9638639586
 31
0.0
 11
-1.2420553282
 21
-12.9869640175
 31
0.0
 11
-1.2446183833
 21
-13.0100640764
 31
0.0
 11
-1.2452367146
 21
-13.0332476849
 31
0.0
 11
-1.2445286533
 21
-13.0796984518
 31
0.0
  0
SPLINE
  5
526
100
AcDbEntity
  8
0
100
AcDbSpline
 62
7
  6
CONTINUOUS
 70
0
 71
3
 72
21
 73
17
 74
15
 42
0.0000001
 43
0.0000001
 44
0.0000000001
 12
0.3778121774
 22
0.0135421095
 32
0.0
 13
0.2821028914
 23
0.2563592951
 33
0.0
 40
0.0
 40
0.0
 40
0.0
 40
0.0
 40
0.125
 40
0.1875
 40
0.25
 40
0.3125
 40
0.375
 40
0.4375
 40
0.5
 40
0.5625
 40
0.625
 40
0.6875
 40
0.75
 40
0.8125
 40
0.875
 40
1.0
 40
1.0
 40
1.0
 40
1.0
 10
-2.6109782318
 20
-13.5773883654
 30
0.0
 10
-2.5952360577
 20
-13.5768241109
 30
0.0
 10
-2.5715940389
 20
-13.5762771569
 30
0.0
 10
-2.5401863782
 20
-13.5743501734
 30
0.0
 10
-2.517038469
 20
-13.5693492052
 30
0.0
 10
-2.4935925269
 20
-13.566069996
 30
0.0
 10
-2.4709308802
 20
-13.5594594811
 30
0.0
 10
-2.4486322634
 20
-13.5516732832
 30
0.0
 10
-2.4256983207
 20
-13.5455315499
 30
0.0
 10
-2.4049426516
 20
-13.5339876413
 30
0.0
 10
-2.3835360167
 20
-13.5240936549
 30
0.0
 10
-2.3625549713
 20
-13.5130021551
 30
0.0
 10
-2.3428947009
 20
-13.4986198658
 30
0.0
 10
-2.3222700752
 20
-13.4857364054
 30
0.0
 10
-2.2981527694
 20
-13.4649524232
 30
0.0
 10
-2.280749613
 20
-13.4487127326
 30
0.0
 10
-2.2689953259
 20
-13.4380310953
 30
0.0
 11
-2.6109782318
 21
-13.5773883654
 31
0.0
 11
-2.5637517096
 21
-13.5756956017
 31
0.0
 11
-2.5402543509
 21
-13.5737575516
 31
0.0
 11
-2.5169887969
 21
-13.569636165
 31
0.0
 11
-2.4937232428
 21
-13.5655147784
 31
0.0
 11
-2.4709913852
 21
-13.559263534
 31
0.0
 11
-2.4485263757
 21
-13.5519473607
 31
0.0
 11
-2.4260613663
 21
-13.5446311874
 31
0.0
 11
-2.4048341573
 21
-13.5342626284
 31
0.0
 11
-2.3836069483
 21
-13.5238940694
 31
0.0
 11
-2.3627751004
 21
-13.5124536902
 31
0.0
 11
-2.342733975
 21
-13.4988696706
 31
0.0
 11
-2.3226928496
 21
-13.485285651
 31
0.0
 11
-2.3042581873
 21
-13.4700760072
 31
0.0
 11
-2.2689953259
 21
-13.4380310953
 31
0.0
  0
SPLINE
  5
527
100
AcDbEntity
  8
0
100
AcDbSpline
 62
7
  6
CONTINUOUS
 70
0
 71
3
 72
21
 73
17
 74
15
 42
0.0000001
 43
0.0000001
 44
0.0000000001
 12
0.2794916969
 22
-0.2543080646
 32
0.0
 13
0.3809914087
 23
-0.0139019034
 33
0.0
 40
0.0
 40
0.0
 40
0.0
 40
0.0
 40
0.125
 40
0.1875
 40
0.25
 40
0.3125
 40
0.375
 40
0.4375
 40
0.5
 40
0.5625
 40
0.625
 40
0.6875
 40
0.75
 40
0.8125
 40
0.875
 40
1.0
 40
1.0
 40
1.0
 40
1.0
 10
-2.9529261779
 20
-13.4380309339
 30
0.0
 10
-2.9412806905
 20
-13.4486271033
 30
0.0
 10
-2.9240015183
 20
-13.4647554437
 30
0.0
 10
-2.9002063868
 20
-13.485323552
 30
0.0
 10
-2.8801623577
 20
-13.4979234882
 30
0.0
 10
-2.8611106311
 20
-13.5119621595
 30
0.0
 10
-2.8402873749
 20
-13.5230720352
 30
0.0
 10
-2.8189005416
 20
-13.5330880259
 30
0.0
 10
-2.7982108499
 20
-13.5447231861
 30
0.0
 10
-2.7752961691
 20
-13.5509755532
 30
0.0
 10
-2.7530712976
 20
-13.558861919
 30
0.0
 10
-2.7303121777
 20
-13.5655950831
 30
0.0
 10
-2.7061936685
 20
-13.5690535689
 30
0.0
 10
-2.6824338171
 20
-13.5742569962
 30
0.0
 10
-2.6506536925
 20
-13.5762547821
 30
0.0
 10
-2.6268532947
 20
-13.5768089159
 30
0.0
 10
-2.6109786527
 20
-13.5773881618
 30
0.0
 11
-2.9529261779
 21
-13.4380309339
 31
0.0
 11
-2.9179897158
 21
-13.469819442
 31
0.0
 11
-2.8998401067
 21
-13.4848525279
 31
0.0
 11
-2.8803277414
 21
-13.4981632774
 31
0.0
 11
-2.8608153761
 21
-13.5114740269
 31
0.0
 11
-2.8401934454
 21
-13.5228897211
 31
0.0
 11
-2.8190167319
 21
-13.5333578875
 31
0.0
 11
-2.7978400184
 21
-13.543826054
 31
0.0
 11
-2.7754111373
 21
-13.5512478863
 31
0.0
 11
-2.7529822562
 21
-13.5586697187
 31
0.0
 11
-2.7300856128
 21
-13.5650493034
 31
0.0
 11
-2.7062534448
 21
-13.5693443925
 31
0.0
 11
-2.6824212768
 21
-13.5736394816
 31
0.0
 11
-2.6586025788
 21
-13.5756504239
 31
0.0
 11
-2.6109786527
 21
-13.5773881618
 31
0.0
  0
SPLINE
  5
528
100
AcDbEntity
  8
0
100
AcDbSpline
 62
7
  6
CONTINUOUS
 70
0
 71
3
 72
21
 73
17
 74
15
 42
0.0000001
 43
0.0000001
 44
0.0000000001
 12
-0.2792911933
 22
0.2542435777
 32
0.0
 13
-0.3822408724
 23
0.0139336994
 33
0.0
 40
0.0
 40
0.0
 40
0.0
 40
0.0
 40
0.125
 40
0.1875
 40
0.25
 40
0.3125
 40
0.375
 40
0.4375
 40
0.5
 40
0.5625
 40
0.625
 40
0.6875
 40
0.75
 40
0.8125
 40
0.875
 40
1.0
 40
1.0
 40
1.0
 40
1.0
 10
-2.2689954535
 20
-12.7277454178
 30
0.0
 10
-2.2806325866
 20
-12.7171519354
 30
0.0
 10
-2.2978992691
 20
-12.7010277877
 30
0.0
 10
-2.3216775806
 20
-12.6804646204
 30
0.0
 10
-2.3417085335
 20
-12.66786645
 30
0.0
 10
-2.360747354
 20
-12.6538305028
 30
0.0
 10
-2.381557485
 20
-12.6427214575
 30
0.0
 10
-2.402931151
 20
-12.6327056122
 30
0.0
 10
-2.4236076889
 20
-12.6210715804
 30
0.0
 10
-2.4465092044
 20
-12.6148170946
 30
0.0
 10
-2.4687213574
 20
-12.6069296139
 30
0.0
 10
-2.4914659826
 20
-12.6001945668
 30
0.0
 10
-2.5155766775
 20
-12.5967324481
 30
0.0
 10
-2.5393038134
 20
-12.5915255184
 30
0.0
 10
-2.571164216
 20
-12.5895246997
 30
0.0
 10
-2.5950516468
 20
-12.5889687224
 30
0.0
 10
-2.6109783499
 20
-12.5883881516
 30
0.0
 11
-2.2689954535
 21
-12.7277454178
 31
0.0
 11
-2.3039068527
 21
-12.6959649706
 31
0.0
 11
-2.3220437838
 21
-12.6809353212
 31
0.0
 11
-2.3415431781
 21
-12.6676268205
 31
0.0
 11
-2.3610425724
 21
-12.6543183198
 31
0.0
 11
-2.3816514075
 21
-12.6429036575
 31
0.0
 11
-2.402814963
 21
-12.6324359145
 31
0.0
 11
-2.4239785185
 21
-12.6219681714
 31
0.0
 11
-2.4463943106
 21
-12.6145449288
 31
0.0
 11
-2.4688101028
 21
-12.6071216862
 31
0.0
 11
-2.4916936609
 21
-12.6007400549
 31
0.0
 11
-2.515512751
 21
-12.5964416463
 31
0.0
 11
-2.5393318411
 21
-12.5921432377
 31
0.0
 11
-2.5631982408
 21
-12.590129864
 31
0.0
 11
-2.6109783499
 21
-12.5883881516
 31
0.0
  0
SPLINE
  5
529
100
AcDbEntity
  8
0
100
AcDbSpline
 62
7
  6
CONTINUOUS
 70
0
 71
3
 72
21
 73
17
 74
15
 42
0.0000001
 43
0.0000001
 44
0.0000000001
 12
-0.3775814996
 22
-0.0134578785
 32
0.0
 13
-0.2828673547
 23
-0.2570726306
 33
0.0
 40
0.0
 40
0.0
 40
0.0
 40
0.0
 40
0.125
 40
0.1875
 40
0.25
 40
0.3125
 40
0.375
 40
0.4375
 40
0.5
 40
0.5625
 40
0.625
 40
0.6875
 40
0.75
 40
0.8125
 40
0.875
 40
1.0
 40
1.0
 40
1.0
 40
1.0
 10
-2.6109785169
 20
-12.5883883499
 30
0.0
 10
-2.6267110794
 20
-12.5889490949
 30
0.0
 10
-2.6503386029
 20
-12.5894909636
 30
0.0
 10
-2.6817272484
 20
-12.59141045
 30
0.0
 10
-2.7048618636
 20
-12.5964036807
 30
0.0
 10
-2.7282939808
 20
-12.5996761557
 30
0.0
 10
-2.7509429589
 20
-12.6062780376
 30
0.0
 10
-2.7732293622
 20
-12.6140549432
 30
0.0
 10
-2.796150389
 20
-12.6201882944
 30
0.0
 10
-2.8168954967
 20
-12.6317208393
 30
0.0
 10
-2.8382911273
 20
-12.6416046554
 30
0.0
 10
-2.8592605851
 20
-12.6526841929
 30
0.0
 10
-2.8789148034
 20
-12.6670569981
 30
0.0
 10
-2.8995173368
 20
-12.6799158605
 30
0.0
 10
-2.9236833536
 20
-12.7007443481
 30
0.0
 10
-2.9411399118
 20
-12.7170342244
 30
0.0
 10
-2.9529260515
 20
-12.727745584
 30
0.0
 11
-2.6109785169
 21
-12.5883883499
 31
0.0
 11
-2.6581762043
 21
-12.5900705847
 31
0.0
 11
-2.6816594369
 21
-12.5920027193
 31
0.0
 11
-2.7049114473
 21
-12.5961168881
 31
0.0
 11
-2.7281634576
 21
-12.6002310569
 31
0.0
 11
-2.7508825298
 21
-12.6064738749
 31
0.0
 11
-2.7733351328
 21
-12.6137810174
 31
0.0
 11
-2.7957877358
 21
-12.62108816
 31
0.0
 11
-2.8170039172
 21
-12.6314460511
 31
0.0
 11
-2.8382200985
 21
-12.6418039423
 31
0.0
 11
-2.8590413786
 21
-12.6532330709
 31
0.0
 11
-2.8790728559
 21
-12.6668046743
 31
0.0
 11
-2.8991043333
 21
-12.6803762777
 31
0.0
 11
-2.9175676322
 21
-12.6956115052
 31
0.0
 11
-2.9529260515
 21
-12.727745584
 31
0.0
  0
SPLINE
  5
52A
100
AcDbEntity
  8
0
100
AcDbSpline
 62
7
  6
CONTINUOUS
 70
0
 71
3
 72
17
 73
13
 74
11
 42
0.0000001
 43
0.0000001
 44
0.0000000001
 12
-0.0130584497
 22
0.316690728
 32
0.0
 13
-0.1971258172
 23
0.264268527
 33
0.0
 40
0.0
 40
0.0
 40
0.0
 40
0.0
 40
0.125
 40
0.25
 40
0.375
 40
0.4375
 40
0.5
 40
0.5625
 40
0.625
 40
0.75
 40
0.875
 40
1.0
 40
1.0
 40
1.0
 40
1.0
 10
0.6012399205
 20
-12.9662468003
 30
0.0
 10
0.6006958184
 20
-12.9530513533
 30
0.0
 10
0.600408811
 20
-12.926569822
 30
0.0
 10
0.5951711196
 20
-12.887391349
 30
0.0
 10
0.5892269611
 20
-12.8547283335
 30
0.0
 10
0.5810056276
 20
-12.82875435
 30
0.0
 10
0.5762251225
 20
-12.808658128
 30
0.0
 10
0.5676356405
 20
-12.7909466293
 30
0.0
 10
0.5579435634
 20
-12.7662773246
 30
0.0
 10
0.5421466678
 20
-12.737383683
 30
0.0
 10
0.5213630261
 20
-12.7033119919
 30
0.0
 10
0.5040787446
 20
-12.6815203091
 30
0.0
 10
0.4958651689
 20
-12.6705091205
 30
0.0
 11
0.6012399205
 21
-12.9662468003
 31
0.0
 11
0.5996076143
 21
-12.9266604593
 31
0.0
 11
0.5948552365
 21
-12.8873884914
 31
0.0
 11
0.5868827938
 21
-12.8482478734
 31
0.0
 11
0.5812365434
 21
-12.8286517276
 31
0.0
 11
0.575590293
 21
-12.8090555819
 31
0.0
 11
0.5678557112
 21
-12.7908148827
 31
0.0
 11
0.5601211294
 21
-12.7725741834
 31
0.0
 11
0.5418421066
 21
-12.7374837961
 31
0.0
 11
0.520505896
 21
-12.7035426863
 31
0.0
 11
0.4958651689
 21
-12.6705091205
 31
0.0
  0
SPLINE
  5
52B
100
AcDbEntity
  8
0
100
AcDbSpline
 62
7
  6
CONTINUOUS
 70
0
 71
3
 72
21
 73
17
 74
15
 42
0.0000001
 43
0.0000001
 44
0.0000000001
 12
-0.2488783736
 22
0.2200717188
 32
0.0
 13
-0.3381304688
 23
0.0049623176
 33
0.0
 40
0.0
 40
0.0
 40
0.0
 40
0.0
 40
0.125
 40
0.1875
 40
0.25
 40
0.3125
 40
0.375
 40
0.4375
 40
0.5
 40
0.5625
 40
0.625
 40
0.6875
 40
0.75
 40
0.8125
 40
0.875
 40
1.0
 40
1.0
 40
1.0
 40
1.0
 10
0.4958644676
 20
-12.6705085672
 30
0.0
 10
0.4854945353
 20
-12.6613389123
 30
0.0
 10
0.4701503978
 20
-12.6474035785
 30
0.0
 10
0.4488485045
 20
-12.6295465389
 30
0.0
 10
0.4305448447
 20
-12.6184285556
 30
0.0
 10
0.4131019702
 20
-12.6060163039
 30
0.0
 10
0.3945431946
 20
-12.5965063295
 30
0.0
 10
0.3755634894
 20
-12.5880418499
 30
0.0
 10
0.3573715298
 20
-12.5781732818
 30
0.0
 10
0.3364495174
 20
-12.5728755729
 30
0.0
 10
0.3163045382
 20
-12.5661704063
 30
0.0
 10
0.2957814794
 20
-12.560524211
 30
0.0
 10
0.2746124279
 20
-12.5579742654
 30
0.0
 10
0.2536428718
 20
-12.5538297035
 30
0.0
 10
0.2254808116
 20
-12.5526799082
 30
0.0
 10
0.2043418527
 20
-12.5526458642
 30
0.0
 10
0.1902530832
 20
-12.552439101
 30
0.0
 11
0.4958644676
 21
-12.6705085672
 31
0.0
 11
0.4647546709
 21
-12.6429996024
 31
0.0
 11
0.4484606312
 21
-12.6299256716
 31
0.0
 11
0.4306883089
 21
-12.6182128442
 31
0.0
 11
0.4129159867
 21
-12.6065000168
 31
0.0
 11
0.3944730397
 21
-12.5966805786
 31
0.0
 11
0.3756947803
 21
-12.5878078351
 31
0.0
 11
0.356916521
 21
-12.5789350916
 31
0.0
 11
0.336579023
 21
-12.5726409966
 31
0.0
 11
0.3162415249
 21
-12.5663469015
 31
0.0
 11
0.2956738139
 21
-12.5610402526
 31
0.0
 11
0.2746456771
 21
-12.557708496
 31
0.0
 11
0.2536175403
 21
-12.5543767394
 31
0.0
 11
0.2325193918
 21
-12.5530593907
 31
0.0
 11
0.1902530832
 21
-12.552439101
 31
0.0
  0
SPLINE
  5
52C
100
AcDbEntity
  8
0
100
AcDbSpline
 62
7
  6
CONTINUOUS
 70
0
 71
3
 72
21
 73
17
 74
15
 42
0.0000001
 43
0.0000001
 44
0.0000000001
 12
-0.3281069617
 22
0.001004794
 32
0.0
 13
-0.2561128559
 23
-0.2171461112
 33
0.0
 40
0.0
 40
0.0
 40
0.0
 40
0.0
 40
0.125
 40
0.1875
 40
0.25
 40
0.3125
 40
0.375
 40
0.4375
 40
0.5
 40
0.5625
 40
0.625
 40
0.6875
 40
0.75
 40
0.8125
 40
0.875
 40
1.0
 40
1.0
 40
1.0
 40
1.0
 10
-0.8367176913
 20
-12.624337788
 30
0.0
 10
-0.8503888147
 20
-12.6242959216
 30
0.0
 10
-0.8709138331
 20
-12.6239737352
 30
0.0
 10
-0.898207191
 20
-12.6245817004
 30
0.0
 10
-0.9184789
 20
-12.6281476215
 30
0.0
 10
-0.9388172276
 20
-12.6301626103
 30
0.0
 10
-0.9590873904
 20
-12.635271381
 30
0.0
 10
-0.9791481046
 20
-12.6414451784
 30
0.0
 10
-0.9999070337
 20
-12.6462096979
 30
0.0
 10
-1.0180825517
 20
-12.6555463024
 30
0.0
 10
-1.037003514
 20
-12.6634812464
 30
0.0
 10
-1.05552611
 20
-12.6724507471
 30
0.0
 10
-1.0730371775
 20
-12.6843343498
 30
0.0
 10
-1.0912736255
 20
-12.6948283235
 30
0.0
 10
-1.1130688979
 20
-12.7123461737
 30
0.0
 10
-1.128906251
 20
-12.7261344278
 30
0.0
 10
-1.13957762
 20
-12.7351821824
 30
0.0
 11
-0.8367176913
 21
-12.624337788
 31
0.0
 11
-0.8777310615
 21
-12.6242121888
 31
0.0
 11
-0.8981741394
 21
-12.625100025
 31
0.0
 11
-0.9184900031
 21
-12.6278891328
 31
0.0
 11
-0.9388058668
 21
-12.6306782406
 31
0.0
 11
-0.9590524823
 21
-12.6354488855
 31
0.0
 11
-0.9792644737
 21
-12.6412102988
 31
0.0
 11
-0.9994764652
 21
-12.6469717121
 31
0.0
 11
-1.0182067924
 21
-12.6553126923
 31
0.0
 11
-1.0369371196
 21
-12.6636536725
 31
0.0
 11
-1.0553575219
 21
-12.6729364307
 31
0.0
 11
-1.0731580742
 21
-12.6841027449
 31
0.0
 11
-1.0909586266
 21
-12.6952690591
 31
0.0
 11
-1.107563513
 21
-12.7080389185
 31
0.0
 11
-1.13957762
 21
-12.7351821824
 31
0.0
  0
SPLINE
  5
52D
100
AcDbEntity
  8
0
100
AcDbSpline
 62
7
  6
CONTINUOUS
 70
0
 71
3
 72
21
 73
17
 74
15
 42
0.0000001
 43
0.0000001
 44
0.0000000001
 12
0.0260240228
 22
-0.3422611792
 32
0.0
 13
0.2575156571
 23
-0.2348562595
 33
0.0
 40
0.0
 40
0.0
 40
0.0
 40
0.0
 40
0.125
 40
0.1875
 40
0.25
 40
0.3125
 40
0.375
 40
0.4375
 40
0.5
 40
0.5625
 40
0.625
 40
0.6875
 40
0.75
 40
0.8125
 40
0.875
 40
1.0
 40
1.0
 40
1.0
 40
1.0
 10
-0.250754387
 20
-13.1815558296
 30
0.0
 10
-0.2496700527
 20
-13.195816712
 30
0.0
 10
-0.2483348723
 20
-13.217248979
 30
0.0
 10
-0.2453893477
 20
-13.2456615618
 30
0.0
 10
-0.2397264529
 20
-13.2664134185
 30
0.0
 10
-0.2357272825
 20
-13.2875434565
 30
0.0
 10
-0.2285269659
 20
-13.3077183495
 30
0.0
 10
-0.2201662396
 20
-13.3275209783
 30
0.0
 10
-0.2134976633
 20
-13.3478604773
 30
0.0
 10
-0.2012208965
 20
-13.3664247598
 30
0.0
 10
-0.1905961583
 20
-13.3856067394
 30
0.0
 10
-0.1789714959
 20
-13.4040931467
 30
0.0
 10
-0.1648335818
 20
-13.4201884354
 30
0.0
 10
-0.1520267588
 20
-13.4374323493
 30
0.0
 10
-0.1312028443
 20
-13.4574863916
 30
0.0
 10
-0.1148697194
 20
-13.4719839001
 30
0.0
 10
-0.1041399003
 20
-13.4817695775
 30
0.0
 11
-0.250754387
 21
-13.1815558296
 31
0.0
 11
-0.2475013841
 21
-13.224338477
 31
0.0
 11
-0.2448137225
 21
-13.2455686317
 31
0.0
 11
-0.2400037403
 21
-13.2664764487
 31
0.0
 11
-0.2351937581
 21
-13.2873842657
 31
0.0
 11
-0.2283335643
 21
-13.3076563055
 31
0.0
 11
-0.2204482646
 21
-13.3276104567
 31
0.0
 11
-0.2125629649
 21
-13.3475646079
 31
0.0
 11
-0.2014962346
 21
-13.3665277093
 31
0.0
 11
-0.1904295043
 21
-13.3854908107
 31
0.0
 11
-0.1785526207
 21
-13.403694627
 31
0.0
 11
-0.1650554303
 21
-13.420379873
 31
0.0
 11
-0.15155824
 21
-13.437065119
 31
0.0
 11
-0.1363293575
 21
-13.4524125451
 31
0.0
 11
-0.1041399003
 21
-13.4817695775
 31
0.0
  0
SPLINE
  5
52E
100
AcDbEntity
  8
0
100
AcDbSpline
 62
7
  6
CONTINUOUS
 70
0
 71
3
 72
21
 73
17
 74
15
 42
0.0000001
 43
0.0000001
 44
0.0000000001
 12
-0.0037108001
 22
0.3145595406
 32
0.0
 13
-0.2281165674
 23
0.2325157248
 33
0.0
 40
0.0
 40
0.0
 40
0.0
 40
0.0
 40
0.125
 40
0.1875
 40
0.25
 40
0.3125
 40
0.375
 40
0.4375
 40
0.5
 40
0.5625
 40
0.625
 40
0.6875
 40
0.75
 40
0.8125
 40
0.875
 40
1.0
 40
1.0
 40
1.0
 40
1.0
 10
3.5484513997
 20
-13.382591202
 30
0.0
 10
3.548296783
 20
-13.3694845545
 30
0.0
 10
3.5483433702
 20
-13.3498480122
 30
0.0
 10
3.5472914377
 20
-13.3235722399
 30
0.0
 10
3.5431909658
 20
-13.3037217048
 30
0.0
 10
3.5407003197
 20
-13.2837368603
 30
0.0
 10
3.5350818932
 20
-13.2644329591
 30
0.0
 10
3.5283613451
 20
-13.2454796508
 30
0.0
 10
3.523175355
 20
-13.2259130562
 30
0.0
 10
3.5129532548
 20
-13.2084490136
 30
0.0
 10
3.5042231756
 20
-13.1902981601
 30
0.0
 10
3.4945611225
 20
-13.1727919983
 30
0.0
 10
3.4824489257
 20
-13.1573085457
 30
0.0
 10
3.47169724
 20
-13.1409188938
 30
0.0
 10
3.453372458
 20
-13.1212021423
 30
0.0
 10
3.4388583231
 20
-13.1067975749
 30
0.0
 10
3.4293534661
 20
-13.0971094197
 30
0.0
 11
3.5484513997
 21
-13.382591202
 31
0.0
 11
3.5479875496
 21
-13.3432712595
 31
0.0
 11
3.5467395173
 21
-13.3235482889
 31
0.0
 11
3.5434592701
 21
-13.3036993199
 31
0.0
 11
3.540179023
 21
-13.2838503509
 31
0.0
 11
3.5348982063
 21
-13.2644913913
 31
0.0
 11
3.5286171048
 21
-13.2453774364
 31
0.0
 11
3.5223360033
 21
-13.2262634815
 31
0.0
 11
3.513201925
 21
-13.2083345451
 31
0.0
 11
3.5040678466
 21
-13.1904056087
 31
0.0
 11
3.4941527652
 21
-13.1731291165
 31
0.0
 11
3.4826756775
 21
-13.1571575125
 31
0.0
 11
3.4711985899
 21
-13.1411859085
 31
0.0
 11
3.457868037
 21
-13.1261738853
 31
0.0
 11
3.4293534661
 21
-13.0971094197
 31
0.0
  0
SPLINE
  5
52F
100
AcDbEntity
  8
0
100
AcDbSpline
 62
7
  6
CONTINUOUS
 70
0
 71
3
 72
21
 73
17
 74
15
 42
0.0000001
 43
0.0000001
 44
0.0000000001
 12
-0.0036285741
 22
0.3144490272
 32
0.0
 13
-0.2284562543
 23
0.2329109563
 33
0.0
 40
0.0
 40
0.0
 40
0.0
 40
0.0
 40
0.125
 40
0.1875
 40
0.25
 40
0.3125
 40
0.375
 40
0.4375
 40
0.5
 40
0.5625
 40
0.625
 40
0.6875
 40
0.75
 40
0.8125
 40
0.875
 40
1.0
 40
1.0
 40
1.0
 40
1.0
 10
2.2149509505
 20
-13.3825911149
 30
0.0
 10
2.2147997599
 20
-13.3694890721
 30
0.0
 10
2.2148513815
 20
-13.3498595001
 30
0.0
 10
2.2138065804
 20
-13.3235927688
 30
0.0
 10
2.2097126675
 20
-13.303748215
 30
0.0
 10
2.2072280446
 20
-13.283769813
 30
0.0
 10
2.2016165737
 20
-13.2644713093
 30
0.0
 10
2.1949032847
 20
-13.2455229938
 30
0.0
 10
2.1897241563
 20
-13.2259619935
 30
0.0
 10
2.1795102038
 20
-13.2085015441
 30
0.0
 10
2.1707877626
 20
-13.1903547727
 30
0.0
 10
2.1611341004
 20
-13.1728527386
 30
0.0
 10
2.1490284457
 20
-13.1573701515
 30
0.0
 10
2.1382912518
 20
-13.1409891883
 30
0.0
 10
2.1199458589
 20
-13.1212466473
 30
0.0
 10
2.1054076074
 20
-13.106814698
 30
0.0
 10
2.0958885968
 20
-13.0971100748
 30
0.0
 11
2.2149509505
 21
-13.3825911149
 31
0.0
 11
2.2144973787
 21
-13.3432849865
 31
0.0
 11
2.2132548617
 21
-13.3235686846
 31
0.0
 11
2.2099808825
 21
-13.303725907
 31
0.0
 11
2.2067069033
 21
-13.2838831294
 31
0.0
 11
2.2014329374
 21
-13.264529674
 31
0.0
 11
2.1951589781
 21
-13.2454208796
 31
0.0
 11
2.1888850189
 21
-13.2263120853
 31
0.0
 11
2.179758789
 21
-13.2083871571
 31
0.0
 11
2.1706325591
 21
-13.1904622289
 31
0.0
 11
2.160725435
 21
-13.1731893131
 31
0.0
 11
2.1492565225
 21
-13.1572204222
 31
0.0
 11
2.13778761
 21
-13.1412515312
 31
0.0
 11
2.1244456286
 21
-13.1262239444
 31
0.0
 11
2.0958885968
 21
-13.0971100748
 31
0.0
  0
SPLINE
  5
530
100
AcDbEntity
  8
0
100
AcDbSpline
 62
7
  6
CONTINUOUS
 70
0
 71
3
 72
21
 73
17
 74
15
 42
0.0000001
 43
0.0000001
 44
0.0000000001
 12
0.0060443107
 22
-0.3225167049
 32
0.0
 13
0.2451607572
 23
-0.2178501902
 33
0.0
 40
0.0
 40
0.0
 40
0.0
 40
0.0
 40
0.125
 40
0.1875
 40
0.25
 40
0.3125
 40
0.375
 40
0.4375
 40
0.5
 40
0.5625
 40
0.625
 40
0.6875
 40
0.75
 40
0.8125
 40
0.875
 40
1.0
 40
1.0
 40
1.0
 40
1.0
 10
1.1508323487
 20
-12.774198178
 30
0.0
 10
1.151084195
 20
-12.7876363741
 30
0.0
 10
1.1511609771
 20
-12.8078204152
 30
0.0
 10
1.1524673025
 20
-12.8346254817
 30
0.0
 10
1.1570176421
 20
-12.8543321317
 30
0.0
 10
1.159844562
 20
-12.8743516334
 30
0.0
 10
1.1659945651
 20
-12.8935168783
 30
0.0
 10
1.1733425658
 20
-12.9123274036
 30
0.0
 10
1.1789589478
 20
-12.9316816162
 30
0.0
 10
1.190303807
 20
-12.9492157994
 30
0.0
 10
1.1999562929
 20
-12.9673772043
 30
0.0
 10
1.2106497948
 20
-12.9848497519
 30
0.0
 10
1.2239848401
 20
-12.9999585243
 30
0.0
 10
1.2359391649
 20
-13.0162272892
 30
0.0
 10
1.2557200492
 20
-13.0348840492
 30
0.0
 10
1.2712860386
 20
-13.0483112195
 30
0.0
 10
1.2815010701
 20
-13.0573883108
 30
0.0
 11
1.1508323487
 21
-12.774198178
 31
0.0
 11
1.1515878876
 21
-12.8145127662
 31
0.0
 11
1.1530624018
 21
-12.8345592901
 31
0.0
 11
1.1567304055
 21
-12.8543842737
 31
0.0
 11
1.1603984092
 21
-12.8742092573
 31
0.0
 11
1.1661942313
 21
-12.8934577584
 31
0.0
 11
1.1730539627
 21
-12.9124180182
 31
0.0
 11
1.179913694
 21
-12.931378278
 31
0.0
 11
1.1900217448
 21
-12.9493203364
 31
0.0
 11
1.2001297955
 21
-12.9672623947
 31
0.0
 11
1.211090052
 21
-12.9844557893
 31
0.0
 11
1.22375472
 21
-13.0001518564
 31
0.0
 11
1.2364193879
 21
-13.0158479234
 31
0.0
 11
1.2508559755
 21
-13.030157037
 31
0.0
 11
1.2815010701
 21
-13.0573883108
 31
0.0
  0
SPLINE
  5
531
100
AcDbEntity
  8
0
100
AcDbSpline
 62
7
  6
CONTINUOUS
 70
0
 71
3
 72
21
 73
17
 74
15
 42
0.0000001
 43
0.0000001
 44
0.0000000001
 12
0.0060326914
 22
-0.3224520764
 32
0.0
 13
0.2455294899
 23
-0.2181327645
 33
0.0
 40
0.0
 40
0.0
 40
0.0
 40
0.0
 40
0.125
 40
0.1875
 40
0.25
 40
0.3125
 40
0.375
 40
0.4375
 40
0.5
 40
0.5625
 40
0.625
 40
0.6875
 40
0.75
 40
0.8125
 40
0.875
 40
1.0
 40
1.0
 40
1.0
 40
1.0
 10
2.4842968863
 20
-12.7741987909
 30
0.0
 10
2.4845482484
 20
-12.7876342941
 30
0.0
 10
2.4846243639
 20
-12.8078142809
 30
0.0
 10
2.485929562
 20
-12.8346140018
 30
0.0
 10
2.4904783513
 20
-12.8543168375
 30
0.0
 10
2.4933040571
 20
-12.8743324064
 30
0.0
 10
2.4994522063
 20
-12.8934939977
 30
0.0
 10
2.5067981212
 20
-12.9123009773
 30
0.0
 10
2.5124127579
 20
-12.9316514866
 30
0.0
 10
2.5237547417
 20
-12.9491824888
 30
0.0
 10
2.5334048117
 20
-12.9673406366
 30
0.0
 10
2.5440951899
 20
-12.9848097089
 30
0.0
 10
2.5574286007
 20
-12.9999170227
 30
0.0
 10
2.5693742761
 20
-13.0161786156
 30
0.0
 10
2.5891790548
 20
-13.0348535958
 30
0.0
 10
2.6047706525
 20
-13.0483004248
 30
0.0
 10
2.6150010479
 20
-13.05738929
 30
0.0
 11
2.4842968863
 21
-12.7741987909
 31
0.0
 11
2.4850509727
 21
-12.8145053005
 31
0.0
 11
2.4865245438
 21
-12.8345478427
 31
0.0
 11
2.4901911707
 21
-12.8543689597
 31
0.0
 11
2.4938577977
 21
-12.8741900768
 31
0.0
 11
2.4996518339
 21
-12.8934348957
 31
0.0
 11
2.5065095748
 21
-12.9123915656
 31
0.0
 11
2.5133673158
 21
-12.9313482354
 31
0.0
 11
2.5234727561
 21
-12.9492870131
 31
0.0
 11
2.5335781964
 21
-12.9672257907
 31
0.0
 11
2.5445356954
 21
-12.9844160825
 31
0.0
 11
2.5571973115
 21
-13.0001094026
 31
0.0
 11
2.5698589276
 21
-13.0158027226
 31
0.0
 11
2.5843098617
 21
-13.0301226945
 31
0.0
 11
2.6150010479
 21
-13.05738929
 31
0.0
  0
SPLINE
  5
532
100
AcDbEntity
  8
0
100
AcDbSpline
 62
7
  6
CONTINUOUS
 70
0
 71
3
 72
13
 73
9
 74
7
 42
0.0000001
 43
0.0000001
 44
0.0000000001
 12
0.2779671639
 22
0.150185204
 32
0.0
 13
-0.2397245588
 23
0.2120024903
 33
0.0
 40
0.0
 40
0.0
 40
0.0
 40
0.0
 40
0.125
 40
0.25
 40
0.5
 40
0.75
 40
0.875
 40
1.0
 40
1.0
 40
1.0
 40
1.0
 10
3.1686851682
 20
-13.533543428
 30
0.0
 10
3.1802671334
 20
-13.5272857112
 30
0.0
 10
3.2037827628
 20
-13.5151582338
 30
0.0
 10
3.2403913573
 20
-13.4767407609
 30
0.0
 10
3.2679546548
 20
-13.4145767245
 30
0.0
 10
3.2553921238
 20
-13.346656501
 30
0.0
 10
3.2286459231
 20
-13.30114892
 30
0.0
 10
3.2082363753
 20
-13.2837526332
 30
0.0
 10
3.198247852
 20
-13.2749191961
 30
0.0
 11
3.1686851682
 21
-13.533543428
 31
0.0
 11
3.2024799298
 21
-13.513387919
 31
0.0
 11
3.2300260456
 21
-13.4854023161
 31
0.0
 11
3.2599294891
 21
-13.4134254871
 31
0.0
 11
3.2473142256
 21
-13.3360153222
 31
0.0
 11
3.2268868112
 21
-13.3024882959
 31
0.0
 11
3.198247852
 21
-13.2749191961
 31
0.0
  0
SPLINE
  5
533
100
AcDbEntity
  8
0
100
AcDbSpline
 62
7
  6
CONTINUOUS
 70
0
 71
3
 72
13
 73
9
 74
7
 42
0.0000001
 43
0.0000001
 44
0.0000000001
 12
0.2779916304
 22
0.1500864112
 32
0.0
 13
-0.2400695268
 23
0.2123651501
 33
0.0
 40
0.0
 40
0.0
 40
0.0
 40
0.0
 40
0.125
 40
0.25
 40
0.5
 40
0.75
 40
0.875
 40
1.0
 40
1.0
 40
1.0
 40
1.0
 10
1.8351856801
 20
-13.5335439302
 30
0.0
 10
1.8467686647
 20
-13.5272903298
 30
0.0
 10
1.8702862405
 20
-13.5151712038
 30
0.0
 10
1.9069035366
 20
-13.4767680045
 30
0.0
 10
1.934486595
 20
-13.4146194016
 30
0.0
 10
1.9219374471
 20
-13.3466944777
 30
0.0
 10
1.8952255446
 20
-13.3011949309
 30
0.0
 10
1.8747866046
 20
-13.283767844
 30
0.0
 10
1.8647837076
 20
-13.2749192961
 30
0.0
 11
1.8351856801
 21
-13.5335439302
 31
0.0
 11
1.8689840085
 21
-13.5134005854
 31
0.0
 11
1.8965366418
 21
-13.4854258307
 31
0.0
 11
1.9264601537
 21
-13.4134641374
 31
0.0
 11
1.9138700895
 21
-13.3360562904
 31
0.0
 11
1.8934547974
 21
-13.3025256026
 31
0.0
 11
1.8647837076
 21
-13.2749192961
 31
0.0
  0
SPLINE
  5
534
100
AcDbEntity
  8
CURVE
100
AcDbSpline
 62
253
  6
CONTINUOUS
 70
0
 71
3
 72
10
 73
6
 74
4
 42
0.0000001
 43
0.0000001
 44
0.0000000001
 12
0.2626658451
 22
0.2749914635
 32
0.0
 13
0.3802462852
 23
-0.0129791805
 33
0.0
 40
0.0
 40
0.0
 40
0.0
 40
0.0
 40
0.3333333333
 40
0.6666666667
 40
1.0
 40
1.0
 40
1.0
 40
1.0
 10
-2.9529260467
 20
-12.727745579
 30
0.0
 10
-2.9237409528
 20
-12.6971909719
 30
0.0
 10
-2.8567244933
 20
-12.6443322246
 30
0.0
 10
-2.73813029
 20
-12.5960003663
 30
0.0
 10
-2.6532281041
 20
-12.5869462188
 30
0.0
 10
-2.6109785169
 20
-12.5883883499
 30
0.0
 11
-2.9529260467
 21
-12.727745579
 31
0.0
 11
-2.8537129076
 21
-12.6494916017
 31
0.0
 11
-2.7366704441
 21
-12.6017921391
 31
0.0
 11
-2.6109785169
 21
-12.5883883499
 31
0.0
  0
SPLINE
  5
535
100
AcDbEntity
  8
CURVE
100
AcDbSpline
 62
253
  6
CONTINUOUS
 70
0
 71
3
 72
10
 73
6
 74
4
 42
0.0000001
 43
0.0000001
 44
0.0000000001
 12
0.3802801626
 22
0.0129997416
 32
0.0
 13
0.2626955232
 23
-0.2750108961
 33
0.0
 40
0.0
 40
0.0
 40
0.0
 40
0.0
 40
0.3333333333
 40
0.6666666667
 40
1.0
 40
1.0
 40
1.0
 40
1.0
 10
-2.6109783511
 20
-12.5883881516
 30
0.0
 10
-2.5687249997
 20
-12.5869437359
 30
0.0
 10
-2.4838146253
 20
-12.5959948069
 30
0.0
 10
-2.3652078207
 20
-12.6443268146
 30
0.0
 10
-2.298183845
 20
-12.6971886515
 30
0.0
 10
-2.2689954535
 20
-12.7277454178
 30
0.0
 11
-2.6109783511
 21
-12.5883881516
 31
0.0
 11
-2.4852744181
 21
-12.6017873738
 31
0.0
 11
-2.3682196275
 21
-12.6494869392
 31
0.0
 11
-2.2689954535
 21
-12.7277454178
 31
0.0
  0
SPLINE
  5
536
100
AcDbEntity
  8
CURVE
100
AcDbSpline
 62
253
  6
CONTINUOUS
 70
0
 71
3
 72
10
 73
6
 74
4
 42
0.0000001
 43
0.0000001
 44
0.0000000001
 12
0.2533277371
 22
-0.2911225724
 32
0.0
 13
-0.0132253899
 23
-0.3855283696
 33
0.0
 40
0.0
 40
0.0
 40
0.0
 40
0.0
 40
0.3333333333
 40
0.6666666667
 40
1.0
 40
1.0
 40
1.0
 40
1.0
 10
-2.2689959045
 20
-12.7277455881
 30
0.0
 10
-2.2408483782
 20
-12.7600925406
 30
0.0
 10
-2.1926907766
 20
-12.8318497277
 30
0.0
 10
-2.1493486625
 20
-12.9539954819
 30
0.0
 10
-2.1415141469
 20
-13.0400339987
 30
0.0
 10
-2.1429836346
 20
-13.0828704842
 30
0.0
 11
-2.2689959045
 21
-12.7277455881
 31
0.0
 11
-2.1975064913
 21
-12.8342680566
 31
0.0
 11
-2.1546137193
 21
-12.9551474854
 31
0.0
 11
-2.1429836346
 21
-13.0828704842
 31
0.0
  0
SPLINE
  5
537
100
AcDbEntity
  8
CURVE
100
AcDbSpline
 62
253
  6
CONTINUOUS
 70
0
 71
3
 72
10
 73
6
 74
4
 42
0.0000001
 43
0.0000001
 44
0.0000000001
 12
0.0132063941
 22
-0.3855588578
 32
0.0
 13
-0.2533139838
 23
-0.2911740285
 33
0.0
 40
0.0
 40
0.0
 40
0.0
 40
0.0
 40
0.3333333333
 40
0.6666666667
 40
1.0
 40
1.0
 40
1.0
 40
1.0
 10
-2.1429838106
 20
-13.082870761
 30
0.0
 10
-2.1415164335
 20
-13.1257106341
 30
0.0
 10
-2.1493536086
 20
-13.2117553163
 30
0.0
 10
-2.1926951008
 20
-13.333911443
 30
0.0
 10
-2.240850033
 20
-13.4056781002
 30
0.0
 10
-2.2689960312
 20
-13.43803077
 30
0.0
 11
-2.1429838106
 21
-13.082870761
 31
0.0
 11
-2.1546178968
 21
-13.2106035002
 31
0.0
 11
-2.1975102518
 21
-13.3314937528
 31
0.0
 11
-2.2689960312
 21
-13.43803077
 31
0.0
  0
SPLINE
  5
538
100
AcDbEntity
  8
CURVE
100
AcDbSpline
 62
253
  6
CONTINUOUS
 70
0
 71
3
 72
10
 73
6
 74
4
 42
0.0000001
 43
0.0000001
 44
0.0000000001
 12
-0.2627555074
 22
-0.2749348687
 32
0.0
 13
-0.3802698109
 23
0.012903489
 33
0.0
 40
0.0
 40
0.0
 40
0.0
 40
0.0
 40
0.3333333333
 40
0.6666666667
 40
1.0
 40
1.0
 40
1.0
 40
1.0
 10
-2.2689953267
 20
-13.4380310962
 30
0.0
 10
-2.2981903831
 20
-13.4685794149
 30
0.0
 10
-2.3652200638
 20
-13.5214274832
 30
0.0
 10
-2.4838212176
 20
-13.5697571882
 30
0.0
 10
-2.5687260306
 20
-13.5788220864
 30
0.0
 10
-2.6109782318
 20
-13.5773883654
 30
0.0
 11
-2.2689953267
 21
-13.4380310962
 31
0.0
 11
-2.3682295026
 21
-13.5162704169
 31
0.0
 11
-2.4852805619
 21
-13.5639684619
 31
0.0
 11
-2.6109782318
 21
-13.5773883654
 31
0.0
  0
SPLINE
  5
539
100
AcDbEntity
  8
CURVE
100
AcDbSpline
 62
253
  6
CONTINUOUS
 70
0
 71
3
 72
10
 73
6
 74
4
 42
0.0000001
 43
0.0000001
 44
0.0000000001
 12
-0.3802359102
 22
-0.0128829232
 32
0.0
 13
-0.2627258166
 23
0.2749154253
 33
0.0
 40
0.0
 40
0.0
 40
0.0
 40
0.0
 40
0.3333333333
 40
0.6666666667
 40
1.0
 40
1.0
 40
1.0
 40
1.0
 10
-2.6109786587
 20
-13.5773881621
 30
0.0
 10
-2.6532270932
 20
-13.578819598
 30
0.0
 10
-2.7381237128
 20
-13.5697516231
 30
0.0
 10
-2.8567122592
 20
-13.521422069
 30
0.0
 10
-2.9237344205
 20
-13.4685770923
 30
0.0
 10
-2.9529261779
 20
-13.4380309339
 30
0.0
 11
-2.6109786587
 21
-13.5773881621
 31
0.0
 11
-2.7366643156
 21
-13.5639636911
 31
0.0
 11
-2.8537030418
 21
-13.5162657505
 31
0.0
 11
-2.9529261779
 21
-13.4380309339
 31
0.0
  0
SPLINE
  5
53A
100
AcDbEntity
  8
CURVE
100
AcDbSpline
 62
253
  6
CONTINUOUS
 70
0
 71
3
 72
10
 73
6
 74
4
 42
0.0000001
 43
0.0000001
 44
0.0000000001
 12
-0.2533139838
 22
0.2911740285
 32
0.0
 13
0.0132063941
 23
0.3855588578
 33
0.0
 40
0.0
 40
0.0
 40
0.0
 40
0.0
 40
0.3333333333
 40
0.6666666667
 40
1.0
 40
1.0
 40
1.0
 40
1.0
 10
-2.9529259688
 20
-13.43803077
 30
0.0
 10
-2.981071967
 20
-13.4056781002
 30
0.0
 10
-3.0292268992
 20
-13.333911443
 30
0.0
 10
-3.0725683914
 20
-13.2117553163
 30
0.0
 10
-3.0804055665
 20
-13.1257106341
 30
0.0
 10
-3.0789381894
 20
-13.082870761
 30
0.0
 11
-2.9529259688
 21
-13.43803077
 31
0.0
 11
-3.0244117482
 21
-13.3314937528
 31
0.0
 11
-3.0673041032
 21
-13.2106035002
 31
0.0
 11
-3.0789381894
 21
-13.082870761
 31
0.0
  0
SPLINE
  5
53B
100
AcDbEntity
  8
CURVE
100
AcDbSpline
 62
253
  6
CONTINUOUS
 70
0
 71
3
 72
10
 73
6
 74
4
 42
0.0000001
 43
0.0000001
 44
0.0000000001
 12
-0.0132253899
 22
0.3855283696
 32
0.0
 13
0.2533277371
 23
0.2911225724
 33
0.0
 40
0.0
 40
0.0
 40
0.0
 40
0.0
 40
0.3333333333
 40
0.6666666667
 40
1.0
 40
1.0
 40
1.0
 40
1.0
 10
-3.0789383654
 20
-13.0828704842
 30
0.0
 10
-3.0804078531
 20
-13.0400339987
 30
0.0
 10
-3.0725733375
 20
-12.9539954819
 30
0.0
 10
-3.0292312234
 20
-12.8318497277
 30
0.0
 10
-2.9810736218
 20
-12.7600925406
 30
0.0
 10
-2.9529260955
 20
-12.7277455881
 30
0.0
 11
-3.0789383654
 21
-13.0828704842
 31
0.0
 11
-3.0673082807
 21
-12.9551474854
 31
0.0
 11
-3.0244155087
 21
-12.8342680566
 31
0.0
 11
-2.9529260955
 21
-12.7277455881
 31
0.0
  0
SPLINE
  5
53C
100
AcDbEntity
  8
CURVE
100
AcDbSpline
 62
253
  6
CONTINUOUS
 70
0
 71
3
 72
10
 73
6
 74
4
 42
0.0000001
 43
0.0000001
 44
0.0000000001
 12
-0.0287593939
 22
0.3675066731
 32
0.0
 13
0.2288114111
 23
0.2891892442
 33
0.0
 40
0.0
 40
0.0
 40
0.0
 40
0.0
 40
0.3333333333
 40
0.6666666667
 40
1.0
 40
1.0
 40
1.0
 40
1.0
 10
-1.2445286524
 20
-13.0796984633
 30
0.0
 10
-1.2477241406
 20
-13.0388643885
 30
0.0
 10
-1.2438860056
 20
-12.956400409
 30
0.0
 10
-1.2077967613
 20
-12.8379329234
 30
0.0
 10
-1.165000776
 20
-12.7673145359
 30
0.0
 10
-1.1395772859
 20
-12.7351823976
 30
0.0
 11
-1.2445286524
 21
-13.0796984633
 31
0.0
 11
-1.2388306653
 21
-12.9572718229
 31
0.0
 11
-1.203112639
 21
-12.8400229074
 31
0.0
 11
-1.1395772859
 21
-12.7351823976
 31
0.0
  0
SPLINE
  5
53D
100
AcDbEntity
  8
CURVE
100
AcDbSpline
 62
253
  6
CONTINUOUS
 70
0
 71
3
 72
10
 73
6
 74
4
 42
0.0000001
 43
0.0000001
 44
0.0000000001
 12
0.2374409855
 22
0.2324216525
 32
0.0
 13
0.3315326354
 23
-0.0241816969
 33
0.0
 40
0.0
 40
0.0
 40
0.0
 40
0.0
 40
0.3333333333
 40
0.6666666667
 40
1.0
 40
1.0
 40
1.0
 40
1.0
 10
-1.1395776249
 20
-12.7351821872
 30
0.0
 10
-1.1131952932
 20
-12.7093575591
 30
0.0
 10
-1.0530781057
 20
-12.6652122098
 30
0.0
 10
-0.9479892029
 20
-12.6267504822
 30
0.0
 10
-0.8735546508
 20
-12.6216509328
 30
0.0
 10
-0.8367176913
 20
-12.624337788
 30
0.0
 11
-1.1395776249
 21
-12.7351821872
 31
0.0
 11
-1.0505925854
 21
-12.6698382592
 31
0.0
 11
-0.946895382
 21
-12.6318858828
 31
0.0
 11
-0.8367176913
 21
-12.624337788
 31
0.0
  0
SPLINE
  5
53E
100
AcDbEntity
  8
CURVE
100
AcDbSpline
 62
253
  6
CONTINUOUS
 70
0
 71
3
 72
10
 73
6
 74
4
 42
0.0000001
 43
0.0000001
 44
0.0000000001
 12
-0.358900254
 22
-0.0022755707
 32
0.0
 13
-0.2827136173
 23
0.2208975514
 33
0.0
 40
0.0
 40
0.0
 40
0.0
 40
0.0
 40
0.3333333333
 40
0.6666666667
 40
1.0
 40
1.0
 40
1.0
 40
1.0
 10
0.2292357346
 20
-13.595361943
 30
0.0
 10
0.1893579286
 20
-13.5956147842
 30
0.0
 10
0.1095475357
 20
-13.5871848956
 30
0.0
 10
-0.0043926396
 20
-13.5483611919
 30
0.0
 10
-0.0727263792
 20
-13.506312802
 30
0.0
 10
-0.1041390034
 20
-13.4817686297
 30
0.0
 11
0.2292357346
 21
-13.595361943
 31
0.0
 11
0.1105101047
 21
-13.5828217505
 31
0.0
 11
-0.0024860453
 21
-13.5443197117
 31
0.0
 11
-0.1041390034
 21
-13.4817686297
 31
0.0
  0
SPLINE
  5
53F
100
AcDbEntity
  8
CURVE
100
AcDbSpline
 62
253
  6
CONTINUOUS
 70
0
 71
3
 72
10
 73
6
 74
4
 42
0.0000001
 43
0.0000001
 44
0.0000000001
 12
-0.2726107353
 22
0.212999891
 32
0.0
 13
-0.0002662471
 23
0.3457540319
 33
0.0
 40
0.0
 40
0.0
 40
0.0
 40
0.0
 40
0.3333333333
 40
0.6666666667
 40
1.0
 40
1.0
 40
1.0
 40
1.0
 10
-0.1041398944
 20
-13.4817695822
 30
0.0
 10
-0.1344299761
 20
-13.4581029277
 30
0.0
 10
-0.1877940842
 20
-13.4015617621
 30
0.0
 10
-0.238960278
 20
-13.2967917986
 30
0.0
 10
-0.250724804
 20
-13.2199729442
 30
0.0
 10
-0.250754387
 20
-13.1815558296
 30
0.0
 11
-0.1041398944
 21
-13.4817695822
 31
0.0
 11
-0.1829807561
 21
-13.3982353929
 31
0.0
 11
-0.2333737105
 21
-13.2950487456
 31
0.0
 11
-0.250754387
 21
-13.1815558296
 31
0.0
  0
SPLINE
  5
540
100
AcDbEntity
  8
RACCORDO
100
AcDbSpline
 62
7
  6
CONTINUOUS
 70
0
 71
3
 72
8
 73
4
 74
2
 42
0.0000001
 43
0.0000001
 44
0.0000000001
 12
-0.0566440839
 22
0.0305135134
 32
0.0
 13
-0.0633756118
 23
0.011097683
 33
0.0
 40
0.0
 40
0.0
 40
0.0
 40
0.0
 40
1.0
 40
1.0
 40
1.0
 40
1.0
 10
-5.9650849578
 20
-11.0240037747
 30
0.0
 10
-5.9839663191
 20
-11.0138326036
 30
0.0
 10
-6.0047729866
 20
-11.0066940172
 30
0.0
 10
-6.0258981906
 20
-11.0029947895
 30
0.0
 11
-5.9650849578
 21
-11.0240037747
 31
0.0
 11
-6.0258981906
 21
-11.0029947895
 31
0.0
  0
SPLINE
  5
541
100
AcDbEntity
  8
RACCORDO
100
AcDbSpline
 62
7
  6
CONTINUOUS
 70
0
 71
3
 72
8
 73
4
 74
2
 42
0.0000001
 43
0.0000001
 44
0.0000000001
 12
0.0638496041
 22
0.0113032467
 32
0.0
 13
0.0569527986
 23
0.0309986138
 33
0.0
 40
0.0
 40
0.0
 40
0.0
 40
0.0
 40
1.0
 40
1.0
 40
1.0
 40
1.0
 10
-6.025540855
 20
-14.9969406288
 30
0.0
 10
-6.0042576536
 20
-14.9931728799
 30
0.0
 10
-5.9833021554
 20
-14.9859126999
 30
0.0
 10
-5.9643178892
 20
-14.9755798286
 30
0.0
 11
-6.025540855
 21
-14.9969406288
 31
0.0
 11
-5.9643178892
 21
-14.9755798286
 31
0.0
  0
SPLINE
  5
542
100
AcDbEntity
  8
RACCORDO
100
AcDbSpline
 62
7
  6
CONTINUOUS
 70
0
 71
3
 72
8
 73
4
 74
2
 42
0.0000001
 43
0.0000001
 44
0.0000000001
 12
0.0566440839
 22
-0.0305135134
 32
0.0
 13
0.0633756118
 23
-0.011097683
 33
0.0
 40
0.0
 40
0.0
 40
0.0
 40
0.0
 40
1.0
 40
1.0
 40
1.0
 40
1.0
 10
5.9650849578
 20
-14.9759962253
 30
0.0
 10
5.9839663191
 20
-14.9861673964
 30
0.0
 10
6.0047729866
 20
-14.9933059828
 30
0.0
 10
6.0258981906
 20
-14.9970052105
 30
0.0
 11
5.9650849578
 21
-14.9759962253
 31
0.0
 11
6.0258981906
 21
-14.9970052105
 31
0.0
  0
SPLINE
  5
543
100
AcDbEntity
  8
RACCORDO
100
AcDbSpline
 62
253
  6
CONTINUOUS
 70
0
 71
3
 72
19
 73
15
 74
13
 42
0.0000001
 43
0.0000001
 44
0.0000000001
 12
0.5914904966
 22
1.2680020038
 32
0.0
 13
0.0007675914
 23
1.3991745781
 33
0.0
 40
0.0
 40
0.0
 40
0.0
 40
0.0
 40
0.0064033297
 40
0.0219586965
 40
0.0465568764
 40
0.0799916708
 40
0.1219803192
 40
0.1721609075
 40
0.2301007281
 40
0.2953034481
 40
0.445179324
 40
0.6166207739
 40
0.8037097515
 40
1.0
 40
1.0
 40
1.0
 40
1.0
 10
-10.0014668568
 20
-21.5513450129
 30
0.0
 10
-10.0002043539
 20
-21.5486385346
 30
0.0
 10
-10.000630997
 20
-21.537944757
 30
0.0
 10
-9.9985938337
 20
-21.5166590442
 30
0.0
 10
-9.9981247281
 20
-21.4821374781
 30
0.0
 10
-9.9968587574
 20
-21.4355906147
 30
0.0
 10
-9.9959461487
 20
-21.3769839397
 30
0.0
 10
-9.9949536392
 20
-21.3069928945
 30
0.0
 10
-9.9940551717
 20
-21.2261575044
 30
0.0
 10
-9.9928667702
 20
-21.0988310814
 30
0.0
 10
-9.9916272965
 20
-20.918564471
 30
0.0
 10
-9.9905151102
 20
-20.6814508728
 30
0.0
 10
-9.9897706321
 20
-20.4226880088
 30
0.0
 10
-9.9895393766
 20
-20.2438832544
 30
0.0
 10
-9.989489153
 20
-20.1523351459
 30
0.0
 11
-10.0014668568
 21
-21.5513450129
 31
0.0
 11
-10.0003351945
 21
-21.5424573932
 31
0.0
 11
-9.9992147812
 21
-21.5207215738
 31
0.0
 11
-9.9981155584
 21
-21.4863219787
 31
0.0
 11
-9.9970469289
 21
-21.4395530644
 31
0.0
 11
-9.9960181762
 21
-21.380812614
 31
0.0
 11
-9.9950382039
 21
-21.3106080392
 31
0.0
 11
-9.9941154736
 21
-21.2295453546
 31
0.0
 11
-9.9932579918
 21
-21.1383193824
 31
0.0
 11
-9.9917676996
 21
-20.9286221311
 31
0.0
 11
-9.9906186755
 21
-20.6887483286
 31
0.0
 11
-9.9898504154
 21
-20.4269792752
 31
0.0
 11
-9.989489153
 21
-20.1523351459
 31
0.0
  0
SPLINE
  5
544
100
AcDbEntity
  8
RACCORDO
100
AcDbSpline
 62
253
  6
CONTINUOUS
 70
0
 71
3
 72
18
 73
14
 74
12
 42
0.0000001
 43
0.0000001
 44
0.0000000001
 12
0.4618198041
 22
0.461975812
 32
0.0
 13
0.0007676767
 23
0.6532217028
 33
0.0
 40
0.0
 40
0.0
 40
0.0
 40
0.0
 40
0.0065809759
 40
0.0222019493
 40
0.046832292
 40
0.080281293
 40
0.1222720909
 40
0.1724458595
 40
0.2955550026
 40
0.4453798145
 40
0.6167593763
 40
0.8037804695
 40
1.0
 40
1.0
 40
1.0
 40
1.0
 10
-10.8013450129
 20
-20.7514668568
 30
0.0
 10
-10.8003319379
 20
-20.7504534395
 30
0.0
 10
-10.8002279526
 20
-20.745040913
 30
0.0
 10
-10.7986406979
 20
-20.735422452
 30
0.0
 10
-10.7979294025
 20
-20.7191256697
 30
0.0
 10
-10.7967660212
 20
-20.697478927
 30
0.0
 10
-10.7958140965
 20
-20.6701012712
 30
0.0
 10
-10.7944142326
 20
-20.623267662
 30
0.0
 10
-10.7929415855
 20
-20.5529159856
 30
0.0
 10
-10.7915022765
 20
-20.4561863132
 30
0.0
 10
-10.7903944949
 20
-20.34552841
 30
0.0
 10
-10.7896484612
 20
-20.2247676152
 30
0.0
 10
-10.7894175202
 20
-20.1413205375
 30
0.0
 10
-10.7893673092
 20
-20.0985955855
 30
0.0
 11
-10.8013450129
 21
-20.7514668568
 31
0.0
 11
-10.8002133151
 21
-20.7473196554
 31
0.0
 11
-10.7990930028
 21
-20.7371773766
 31
0.0
 11
-10.7979938891
 21
-20.7211258775
 31
0.0
 11
-10.7969253524
 21
-20.6993023926
 31
0.0
 11
-10.7958966841
 21
-20.6718923687
 31
0.0
 11
-10.7949167665
 21
-20.639132404
 31
0.0
 11
-10.7931365568
 21
-20.5587344911
 31
0.0
 11
-10.7916461581
 21
-20.4608769536
 31
0.0
 11
-10.7904969826
 21
-20.3489339255
 31
0.0
 11
-10.7897286016
 21
-20.2267700207
 31
0.0
 11
-10.7893673092
 21
-20.0985955855
 31
0.0
  0
SPLINE
  5
545
100
AcDbEntity
  8
RACCORDO
100
AcDbSpline
 62
253
  6
CONTINUOUS
 70
0
 71
3
 72
17
 73
13
 74
11
 42
0.0000001
 43
0.0000001
 44
0.0000000001
 12
0.2020552724
 22
-0.7795881752
 32
0.0
 13
0.8053466138
 23
-0.0009421636
 33
0.0
 40
0.0
 40
0.0
 40
0.0
 40
0.0
 40
0.0090673028
 40
0.0259980322
 40
0.0515595755
 40
0.085794964
 40
0.1793850619
 40
0.3033394286
 40
0.4532952028
 40
0.6238092114
 40
0.8087080567
 40
1.0
 40
1.0
 40
1.0
 40
1.0
 10
-10.7893673092
 20
-20.0985955855
 30
0.0
 10
-10.7887566104
 20
-20.1009518395
 30
0.0
 10
-10.782239661
 20
-20.1053999826
 30
0.0
 10
-10.7696308725
 20
-20.1098319214
 30
0.0
 10
-10.7493620157
 20
-20.1147833741
 30
0.0
 10
-10.7089099768
 20
-20.1218052198
 30
0.0
 10
-10.6416201653
 20
-20.1294740758
 30
0.0
 10
-10.5433049876
 20
-20.1371824689
 30
0.0
 10
-10.4241447138
 20
-20.1435849563
 30
0.0
 10
-10.2885663998
 20
-20.1484490156
 30
0.0
 10
-10.1418291797
 20
-20.1514959898
 30
0.0
 10
-10.0408412593
 20
-20.1522750655
 30
0.0
 10
-9.989489153
 20
-20.1523351417
 30
0.0
 11
-10.7893673092
 21
-20.0985955855
 31
0.0
 11
-10.7842301561
 21
-20.1037853477
 31
0.0
 11
-10.771609177
 21
-20.1089455071
 31
0.0
 11
-10.7516581707
 21
-20.1140187018
 31
0.0
 11
-10.7245309359
 21
-20.1189475704
 31
0.0
 11
-10.6497244408
 21
-20.1281673894
 31
0.0
 11
-10.5502274055
 21
-20.136268606
 31
0.0
 11
-10.4296460953
 21
-20.1429532822
 31
0.0
 11
-10.2924151226
 21
-20.1479791321
 31
0.0
 11
-10.1435409574
 21
-20.151142068
 31
0.0
 11
-9.989489153
 21
-20.1523351417
 31
0.0
  0
SPLINE
  5
546
100
AcDbEntity
  8
RACCORDO
100
AcDbSpline
 62
253
  6
CONTINUOUS
 70
0
 71
3
 72
17
 73
13
 74
11
 42
0.0000001
 43
0.0000001
 44
0.0000000001
 12
0.2020547113
 22
0.7795883222
 32
0.0
 13
0.8053466153
 23
0.000942163
 33
0.0
 40
0.0
 40
0.0
 40
0.0
 40
0.0
 40
0.0090672998
 40
0.0259980261
 40
0.0515595673
 40
0.0857949544
 40
0.179385052
 40
0.3033394205
 40
0.4532951971
 40
0.6238092082
 40
0.8087080553
 40
1.0
 40
1.0
 40
1.0
 40
1.0
 10
-10.7893673092
 20
20.0985955855
 30
0.0
 10
-10.7887566123
 20
20.1009518392
 30
0.0
 10
-10.7822396646
 20
20.1053999836
 30
0.0
 10
-10.7696308786
 20
20.1098319216
 30
0.0
 10
-10.7493620234
 20
20.1147833748
 30
0.0
 10
-10.7089099856
 20
20.1218052203
 30
0.0
 10
-10.641620174
 20
20.1294740766
 30
0.0
 10
-10.543304995
 20
20.1371824696
 30
0.0
 10
-10.4241447192
 20
20.143584957
 30
0.0
 10
-10.2885664032
 20
20.1484490161
 30
0.0
 10
-10.1418291813
 20
20.1514959901
 30
0.0
 10
-10.0408412598
 20
20.1522750658
 30
0.0
 10
-9.989489153
 20
20.1523351419
 30
0.0
 11
-10.7893673092
 21
20.0985955855
 31
0.0
 11
-10.7842301596
 21
20.1037853478
 31
0.0
 11
-10.7716091831
 21
20.1089455073
 31
0.0
 11
-10.7516581787
 21
20.1140187022
 31
0.0
 11
-10.724530945
 21
20.1189475709
 31
0.0
 11
-10.64972445
 21
20.1281673901
 31
0.0
 11
-10.5502274132
 21
20.1362686067
 31
0.0
 11
-10.4296461007
 21
20.1429532828
 31
0.0
 11
-10.2924151257
 21
20.1479791326
 31
0.0
 11
-10.1435409588
 21
20.1511420684
 31
0.0
 11
-9.989489153
 21
20.1523351419
 31
0.0
  0
SPLINE
  5
547
100
AcDbEntity
  8
RACCORDO
100
AcDbSpline
 62
253
  6
CONTINUOUS
 70
0
 71
3
 72
19
 73
15
 74
13
 42
0.0000001
 43
0.0000001
 44
0.0000000001
 12
-0.0007673748
 22
1.3991745725
 32
0.0
 13
-0.5918017628
 23
1.2678567533
 33
0.0
 40
0.0
 40
0.0
 40
0.0
 40
0.0
 40
0.196275874
 40
0.383358028
 40
0.5547963937
 40
0.7046749118
 40
0.7698795882
 40
0.8278236176
 40
0.8780067107
 40
0.9199993778
 40
0.9534377118
 40
0.9780382112
 40
0.9935957747
 40
1.0
 40
1.0
 40
1.0
 40
1.0
 10
-9.989489153
 20
20.1523351459
 30
0.0
 10
-9.9895393588
 20
20.2438765499
 30
0.0
 10
-9.98977055
 20
20.422671417
 30
0.0
 10
-9.9905150421
 20
20.6814229551
 30
0.0
 10
-9.9916273606
 20
20.9185331625
 30
0.0
 10
-9.9928668536
 20
21.0988004795
 30
0.0
 10
-9.9940553184
 20
21.2261310071
 30
0.0
 10
-9.9949536955
 20
21.3069704472
 30
0.0
 10
-9.9959462593
 20
21.3769664809
 30
0.0
 10
-9.9968586872
 20
21.4355779004
 30
0.0
 10
-9.9981248217
 20
21.4821292408
 30
0.0
 10
-9.9985933261
 20
21.5166548797
 30
0.0
 10
-10.0006316548
 20
21.5379425118
 30
0.0
 10
-10.0002035128
 20
21.5486384661
 30
0.0
 10
-10.0014668568
 20
21.5513450129
 30
0.0
 11
-9.989489153
 21
20.1523351459
 31
0.0
 11
-9.9898503427
 21
20.4269591618
 31
0.0
 11
-9.9906186202
 21
20.6887186665
 31
0.0
 11
-9.991767731
 21
20.9285881523
 31
0.0
 11
-9.9932580878
 21
21.1382890993
 31
0.0
 11
-9.9941155813
 21
21.2295178083
 31
0.0
 11
-9.9950382874
 21
21.3105863823
 31
0.0
 11
-9.9960182242
 21
21.3807944622
 31
0.0
 11
-9.9970469127
 21
21.4395405372
 31
0.0
 11
-9.9981154792
 21
21.4863144066
 31
0.0
 11
-9.9992146712
 21
21.5207172496
 31
0.0
 11
-10.0003350514
 21
21.5424561481
 31
0.0
 11
-10.0014668568
 21
21.5513450129
 31
0.0
  0
SPLINE
  5
548
100
AcDbEntity
  8
RACCORDO
100
AcDbSpline
 62
253
  6
CONTINUOUS
 70
0
 71
3
 72
18
 73
14
 74
12
 42
0.0000001
 43
0.0000001
 44
0.0000000001
 12
-0.0007677273
 22
0.6532216794
 32
0.0
 13
-0.4618755276
 23
0.4619200676
 33
0.0
 40
0.0
 40
0.0
 40
0.0
 40
0.0
 40
0.1962053381
 40
0.3832197859
 40
0.5545961962
 40
0.704423212
 40
0.8275379326
 40
0.8777139637
 40
0.9197086808
 40
0.9531613208
 40
0.9777939883
 40
0.9934175633
 40
1.0
 40
1.0
 40
1.0
 40
1.0
 10
-10.7893673092
 20
20.0985955855
 30
0.0
 10
-10.7894175199
 20
20.1413174457
 30
0.0
 10
-10.7896484175
 20
20.2247599833
 30
0.0
 10
-10.7903943795
 20
20.3455155504
 30
0.0
 10
-10.7915020983
 20
20.4561717977
 30
0.0
 10
-10.7929413619
 20
20.5529024727
 30
0.0
 10
-10.7944139182
 20
20.6232563428
 30
0.0
 10
-10.7958138636
 20
20.6700924988
 30
0.0
 10
-10.796765751
 20
20.6974723198
 30
0.0
 10
-10.7979292604
 20
20.7191211413
 30
0.0
 10
-10.7986403547
 20
20.7354199648
 30
0.0
 10
-10.8002282422
 20
20.745039446
 30
0.0
 10
-10.8003315908
 20
20.7504533369
 30
0.0
 10
-10.8013450129
 20
20.7514668568
 30
0.0
 11
-10.7893673092
 21
20.0985955855
 31
0.0
 11
-10.7897285469
 21
20.2267607454
 31
0.0
 11
-10.790496856
 21
20.3489203054
 31
0.0
 11
-10.7916459588
 21
20.4608612714
 31
0.0
 11
-10.7931362952
 21
20.5587202461
 31
0.0
 11
-10.7949164831
 21
20.6391218008
 31
0.0
 11
-10.7958964163
 21
20.6718832426
 31
0.0
 11
-10.7969251088
 21
20.6992958265
 31
0.0
 11
-10.7979936824
 21
20.7211216887
 31
0.0
 11
-10.7990928385
 21
20.7371747064
 31
0.0
 11
-10.8002132532
 21
20.7473186834
 31
0.0
 11
-10.8013450129
 21
20.7514668568
 31
0.0
  0
LINE
  5
549
100
AcDbEntity
  8
RACCORDO
100
AcDbLine
 62
253
  6
CONTINUOUS
 10
6.243890978
 20
-11.0976680816
 11
6.2488690043
 21
-11.1085457938
  0
SPLINE
  5
54A
100
AcDbEntity
  8
RACCORDO
100
AcDbSpline
 62
253
  6
CONTINUOUS
 70
0
 71
3
 72
17
 73
13
 74
11
 42
0.0000001
 43
0.0000001
 44
0.0000000001
 12
-0.2020569084
 22
-0.7795877427
 32
0.0
 13
-0.8053466056
 23
-0.0009421613
 33
0.0
 40
0.0
 40
0.0
 40
0.0
 40
0.0
 40
0.0090673123
 40
0.0259980555
 40
0.0515596139
 40
0.0857950174
 40
0.1793851416
 40
0.3033395243
 40
0.453295298
 40
0.6238092887
 40
0.8087080996
 40
1.0
 40
1.0
 40
1.0
 40
1.0
 10
10.7893673092
 20
-20.0985955855
 30
0.0
 10
10.7887566048
 20
-20.1009518407
 30
0.0
 10
10.7822396471
 20
-20.105399979
 30
0.0
 10
10.7696308476
 20
-20.1098319192
 30
0.0
 10
10.7493619787
 20
-20.1147833695
 30
0.0
 10
10.7089099244
 20
-20.1218052134
 30
0.0
 10
10.6416200979
 20
-20.1294740659
 30
0.0
 10
10.5433049096
 20
-20.1371824556
 30
0.0
 10
10.4241446375
 20
-20.1435849392
 30
0.0
 10
10.288566339
 20
-20.1484489952
 30
0.0
 10
10.1418291459
 20
-20.151495967
 30
0.0
 10
10.0408412473
 20
-20.1522750419
 30
0.0
 10
9.989489153
 20
-20.1523351178
 30
0.0
 11
10.7893673092
 21
-20.0985955855
 31
0.0
 11
10.7842301442
 21
-20.1037853466
 31
0.0
 11
10.7716091527
 21
-20.1089455047
 31
0.0
 11
10.7516581338
 21
-20.1140186981
 31
0.0
 11
10.7245308867
 21
-20.1189475652
 31
0.0
 11
10.6497243706
 21
-20.1281673808
 31
0.0
 11
10.5502273232
 21
-20.1362685935
 31
0.0
 11
10.4296460143
 21
-20.1429532657
 31
0.0
 11
10.2924150573
 21
-20.1479791121
 31
0.0
 11
10.1435409213
 21
-20.1511420454
 31
0.0
 11
9.989489153
 21
-20.1523351178
 31
0.0
  0
SPLINE
  5
54B
100
AcDbEntity
  8
RACCORDO
100
AcDbSpline
 62
253
  6
CONTINUOUS
 70
0
 71
3
 72
19
 73
15
 74
13
 42
0.0000001
 43
0.0000001
 44
0.0000000001
 12
0.0007674989
 22
-1.3991745804
 32
0.0
 13
0.5914477872
 23
-1.2680219282
 33
0.0
 40
0.0
 40
0.0
 40
0.0
 40
0.0
 40
0.1962867594
 40
0.3833741521
 40
0.5548147917
 40
0.70469124
 40
0.769894503
 40
0.8278352525
 40
0.8780164226
 40
0.9200061312
 40
0.9534417231
 40
0.9780405002
 40
0.9935964411
 40
1.0
 40
1.0
 40
1.0
 40
1.0
 10
9.989489153
 20
-20.1523351459
 30
0.0
 10
9.9895393697
 20
-20.2438816273
 30
0.0
 10
9.9897706401
 20
-20.4226840155
 30
0.0
 10
9.9905151046
 20
-20.6814441355
 30
0.0
 10
9.9916272825
 20
-20.918556884
 30
0.0
 10
9.9928667201
 20
-21.098823637
 30
0.0
 10
9.9940551
 20
-21.2261510142
 30
0.0
 10
9.9949535387
 20
-21.306987362
 30
0.0
 10
9.9959460501
 20
-21.3769796084
 30
0.0
 10
9.9968586433
 20
-21.4355874163
 30
0.0
 10
9.9981246059
 20
-21.4821354392
 30
0.0
 10
9.9985937512
 20
-21.5166578905
 30
0.0
 10
10.000630886
 20
-21.5379443153
 30
0.0
 10
10.0002043999
 20
-21.5486383952
 30
0.0
 10
10.0014668568
 20
-21.5513450129
 30
0.0
 11
9.989489153
 21
-20.1523351459
 31
0.0
 11
9.9898504152
 21
-20.4269743938
 31
0.0
 11
9.990618668
 21
-20.68874123
 31
0.0
 11
9.9917676736
 21
-20.9286138992
 31
0.0
 11
9.9932579323
 21
-21.1383119521
 31
0.0
 11
9.9941153955
 21
-21.2295386843
 31
0.0
 11
9.9950381081
 21
-21.310602669
 31
0.0
 11
9.9960180692
 21
-21.3808080583
 31
0.0
 11
9.9970468147
 21
-21.4395499924
 31
0.0
 11
9.9981154471
 21
-21.4863200229
 31
0.0
 11
9.9992146784
 21
-21.5207204538
 31
0.0
 11
10.0003351629
 21
-21.5424570739
 31
0.0
 11
10.0014668568
 21
-21.5513450129
 31
0.0
  0
SPLINE
  5
54C
100
AcDbEntity
  8
RACCORDO
100
AcDbSpline
 62
253
  6
CONTINUOUS
 70
0
 71
3
 72
18
 73
14
 74
12
 42
0.0000001
 43
0.0000001
 44
0.0000000001
 12
0.0007676474
 22
-0.653221702
 32
0.0
 13
0.4618448528
 23
-0.4619507692
 33
0.0
 40
0.0
 40
0.0
 40
0.0
 40
0.0
 40
0.1962160321
 40
0.383235486
 40
0.5546141688
 40
0.7044395099
 40
0.8275501455
 40
0.8777245373
 40
0.9197164472
 40
0.9531662871
 40
0.9777972766
 40
0.9934188542
 40
1.0
 40
1.0
 40
1.0
 40
1.0
 10
10.7893673092
 20
-20.0985955855
 30
0.0
 10
10.7894175174
 20
-20.1413197757
 30
0.0
 10
10.7896484558
 20
-20.2247657346
 30
0.0
 10
10.7903944697
 20
-20.3455252191
 30
0.0
 10
10.7915022386
 20
-20.4561826896
 30
0.0
 10
10.7929415365
 20
-20.5529126097
 30
0.0
 10
10.7944141556
 20
-20.6232648652
 30
0.0
 10
10.7958140412
 20
-20.6700991729
 30
0.0
 10
10.7967659479
 20
-20.6974773991
 30
0.0
 10
10.7979293685
 20
-20.719124682
 30
0.0
 10
10.7986406107
 20
-20.7354219807
 30
0.0
 10
10.8002280075
 20
-20.7450406305
 30
0.0
 10
10.8003318568
 20
-20.7504534683
 30
0.0
 10
10.8013450129
 20
-20.7514668568
 30
0.0
 11
10.7893673092
 21
-20.0985955855
 31
0.0
 11
10.7897285912
 21
-20.2267677353
 31
0.0
 11
10.7904969557
 21
-20.3489305692
 31
0.0
 11
10.7916461143
 21
-20.4608730232
 31
0.0
 11
10.7931364963
 21
-20.5587309064
 31
0.0
 11
10.7949166976
 21
-20.6391297946
 31
0.0
 11
10.7958966176
 21
-20.6718901665
 31
0.0
 11
10.7969252903
 21
-20.699300917
 31
0.0
 11
10.7979938363
 21
-20.7211249501
 31
0.0
 11
10.7990929601
 21
-20.737176872
 31
0.0
 11
10.8002132981
 21
-20.747319545
 31
0.0
 11
10.8013450129
 21
-20.7514668568
 31
0.0
  0
SPLINE
  5
54D
100
AcDbEntity
  8
RACCORDO
100
AcDbSpline
 62
253
  6
CONTINUOUS
 70
0
 71
3
 72
17
 73
13
 74
11
 42
0.0000001
 43
0.0000001
 44
0.0000000001
 12
-0.202054951
 22
0.7795882596
 32
0.0
 13
-0.8053466149
 23
0.0009421636
 33
0.0
 40
0.0
 40
0.0
 40
0.0
 40
0.0
 40
0.0090673011
 40
0.0259980283
 40
0.0515595699
 40
0.0857949569
 40
0.179385053
 40
0.3033394194
 40
0.4532951945
 40
0.6238092053
 40
0.8087080534
 40
1.0
 40
1.0
 40
1.0
 40
1.0
 10
10.7893673092
 20
20.0985955855
 30
0.0
 10
10.7887566115
 20
20.1009518393
 30
0.0
 10
10.7822396633
 20
20.1053999832
 30
0.0
 10
10.7696308764
 20
20.1098319216
 30
0.0
 10
10.749362021
 20
20.1147833746
 30
0.0
 10
10.7089099835
 20
20.1218052204
 30
0.0
 10
10.6416201729
 20
20.1294740767
 30
0.0
 10
10.5433049954
 20
20.13718247
 30
0.0
 10
10.4241447207
 20
20.1435849576
 30
0.0
 10
10.288566405
 20
20.1484490171
 30
0.0
 10
10.1418291825
 20
20.1514959914
 30
0.0
 10
10.0408412602
 20
20.1522750671
 30
0.0
 10
9.989489153
 20
20.1523351432
 30
0.0
 11
10.7893673092
 21
20.0985955855
 31
0.0
 11
10.7842301582
 21
20.1037853478
 31
0.0
 11
10.7716091809
 21
20.1089455073
 31
0.0
 11
10.7516581761
 21
20.1140187022
 31
0.0
 11
10.7245309425
 21
20.1189475709
 31
0.0
 11
10.6497244488
 21
20.1281673902
 31
0.0
 11
10.5502274137
 21
20.136268607
 31
0.0
 11
10.4296461025
 21
20.1429532834
 31
0.0
 11
10.2924151279
 21
20.1479791335
 31
0.0
 11
10.1435409602
 21
20.1511420695
 31
0.0
 11
9.989489153
 21
20.1523351432
 31
0.0
  0
SPLINE
  5
54E
100
AcDbEntity
  8
RACCORDO
100
AcDbSpline
 62
253
  6
CONTINUOUS
 70
0
 71
3
 72
19
 73
15
 74
13
 42
0.0000001
 43
0.0000001
 44
0.0000000001
 12
-0.591830627
 22
-1.2678432846
 32
0.0
 13
-0.0007672311
 23
-1.3991745769
 33
0.0
 40
0.0
 40
0.0
 40
0.0
 40
0.0
 40
0.0064039947
 40
0.0219610562
 40
0.0465609967
 40
0.0799984053
 40
0.1219901919
 40
0.1721726622
 40
0.230115611
 40
0.2953198755
 40
0.4451976444
 40
0.6166365979
 40
0.8037204281
 40
1.0
 40
1.0
 40
1.0
 40
1.0
 10
10.0014668568
 20
21.5513450129
 30
0.0
 10
10.0002034967
 20
21.5486385923
 30
0.0
 10
10.0006316516
 20
21.5379429468
 30
0.0
 10
9.9985933083
 20
21.5166559483
 30
0.0
 10
9.9981248523
 20
21.4821312172
 30
0.0
 10
9.9968587057
 20
21.4355809876
 30
0.0
 10
9.9959462966
 20
21.3769706974
 30
0.0
 10
9.9949537589
 20
21.3069758696
 30
0.0
 10
9.994055375
 20
21.2261374155
 30
0.0
 10
9.9928669367
 20
21.098807933
 30
0.0
 10
9.9916274292
 20
20.9185408828
 30
0.0
 10
9.9905150956
 20
20.6814299683
 30
0.0
 10
9.9897705743
 20
20.4226756489
 30
0.0
 10
9.9895393503
 20
20.2438782749
 30
0.0
 10
9.989489153
 20
20.1523351459
 30
0.0
 11
10.0014668568
 21
21.5513450129
 31
0.0
 11
10.0003350415
 21
21.5424564746
 31
0.0
 11
9.9992146682
 21
21.5207182789
 31
0.0
 11
9.998115495
 21
21.4863162177
 31
0.0
 11
9.9970469392
 21
21.439543643
 31
0.0
 11
9.996018264
 21
21.3807987998
 31
0.0
 11
9.9950383432
 21
21.3105915909
 31
0.0
 11
9.994115646
 21
21.2295245287
 31
0.0
 11
9.993258162
 21
21.1382963955
 31
0.0
 11
9.9917678055
 21
20.9285964961
 31
0.0
 11
9.9906186753
 21
20.6887261874
 31
0.0
 11
9.9898503668
 21
20.4269643366
 31
0.0
 11
9.989489153
 21
20.1523351459
 31
0.0
  0
SPLINE
  5
54F
100
AcDbEntity
  8
RACCORDO
100
AcDbSpline
 62
253
  6
CONTINUOUS
 70
0
 71
3
 72
18
 73
14
 74
12
 42
0.0000001
 43
0.0000001
 44
0.0000000001
 12
-0.4619095161
 22
-0.4618860835
 32
0.0
 13
-0.0007677063
 23
-0.653221682
 33
0.0
 40
0.0
 40
0.0
 40
0.0
 40
0.0
 40
0.0065821818
 40
0.0222052791
 40
0.0468374475
 40
0.0802892188
 40
0.1222830934
 40
0.1724585347
 40
0.2955717671
 40
0.4453979723
 40
0.6167748867
 40
0.8037909646
 40
1.0
 40
1.0
 40
1.0
 40
1.0
 10
10.8013450129
 20
20.7514668568
 30
0.0
 10
10.8003315554
 20
20.7504534507
 30
0.0
 10
10.8002283069
 20
20.7450395975
 30
0.0
 10
10.7986403683
 20
20.7354204891
 30
0.0
 10
10.797929329
 20
20.71912201
 30
0.0
 10
10.7967658029
 20
20.6974736943
 30
0.0
 10
10.7958139287
 20
20.670094365
 30
0.0
 10
10.7944139922
 20
20.623258849
 30
0.0
 10
10.7929414211
 20
20.5529056053
 30
0.0
 10
10.7915021412
 20
20.4561753222
 30
0.0
 10
10.7903944044
 20
20.345518786
 30
0.0
 10
10.7896484246
 20
20.2247619488
 30
0.0
 10
10.7894175195
 20
20.1413182509
 30
0.0
 10
10.7893673092
 20
20.0985955855
 30
0.0
 11
10.8013450129
 21
20.7514668568
 31
0.0
 11
10.8002132678
 21
20.7473188519
 31
0.0
 11
10.7990928789
 21
20.7371751861
 31
0.0
 11
10.7979937336
 21
20.7211224944
 31
0.0
 11
10.7969251687
 21
20.6992971997
 31
0.0
 11
10.7958964829
 21
20.6718851662
 31
0.0
 11
10.7949165538
 21
20.6391241097
 31
0.0
 11
10.7931363607
 21
20.5587235271
 31
0.0
 11
10.7916460077
 21
20.4608650818
 31
0.0
 11
10.7904968847
 21
20.3489237862
 31
0.0
 11
10.7897285577
 21
20.226763161
 31
0.0
 11
10.7893673092
 21
20.0985955855
 31
0.0
  0
SPLINE
  5
550
100
AcDbEntity
  8
ASSI
100
AcDbSpline
 62
7
  6
CONTINUOUS
 70
0
 71
3
 72
9
 73
5
 74
3
 42
0.0000001
 43
0.0000001
 44
0.0000000001
 12
-0.0003249726
 22
-0.0058973164
 32
0.0
 13
-0.0050711863
 23
-0.0030277083
 33
0.0
 40
0.0
 40
0.0
 40
0.0
 40
0.0
 40
0.4031222598
 40
1.0
 40
1.0
 40
1.0
 40
1.0
 10
6.0756257329
 20
-10.9930086355
 30
0.0
 10
6.075582065
 20
-10.993801082
 30
0.0
 10
6.0737866578
 20
-10.9952658929
 30
0.0
 10
6.072195167
 20
-10.9961696778
 30
0.0
 10
6.0711862076
 20
-10.9967720684
 30
0.0
 11
6.0756257329
 21
-10.9930086355
 31
0.0
 11
6.0741676657
 21
-10.9948909068
 31
0.0
 11
6.0711862076
 21
-10.9967720684
 31
0.0
  0
SPLINE
  5
551
100
AcDbEntity
  8
ASSI
100
AcDbSpline
 62
7
  6
CONTINUOUS
 70
0
 71
3
 72
9
 73
5
 74
3
 42
0.0000001
 43
0.0000001
 44
0.0000000001
 12
-0.004184525
 22
-0.0024983348
 32
0.0
 13
-0.0002745795
 23
-0.0048658537
 33
0.0
 40
0.0
 40
0.0
 40
0.0
 40
0.0
 40
0.5971980444
 40
1.0
 40
1.0
 40
1.0
 40
1.0
 10
6.0711862076
 20
-10.9967720684
 30
0.0
 10
6.0703532109
 20
-10.997269402
 30
0.0
 10
6.0690284732
 20
-10.9980494942
 30
0.0
 10
6.0676839154
 20
-10.9993466749
 30
0.0
 10
6.0676470484
 20
-11.0
 30
0.0
 11
6.0711862076
 21
-10.9967720684
 31
0.0
 11
6.0687638807
 21
-10.9983855584
 31
0.0
 11
6.0676470484
 21
-11.0
 31
0.0
  0
SPLINE
  5
552
100
AcDbEntity
  8
ASSI
100
AcDbSpline
 62
7
  6
CONTINUOUS
 70
0
 71
3
 72
9
 73
5
 74
3
 42
0.0000001
 43
0.0000001
 44
0.0000000001
 12
0.000328199
 22
-0.0059558993
 32
0.0
 13
0.0051194243
 23
-0.0030613634
 33
0.0
 40
0.0
 40
0.0
 40
0.0
 40
0.0
 40
0.4033007188
 40
1.0
 40
1.0
 40
1.0
 40
1.0
 10
-6.0756258196
 20
-10.9930070622
 30
0.0
 10
-6.0755816986
 20
-10.993807735
 30
0.0
 10
-6.0737601758
 20
-10.9952813047
 30
0.0
 10
-6.0721539161
 20
-10.9961926651
 30
0.0
 10
-6.0711356638
 20
-10.9968015696
 30
0.0
 11
-6.0756258196
 21
-10.9930070622
 31
0.0
 11
-6.0741474686
 21
-10.9949048743
 31
0.0
 11
-6.0711356638
 21
-10.9968015696
 31
0.0
  0
SPLINE
  5
553
100
AcDbEntity
  8
ASSI
100
AcDbSpline
 62
7
  6
CONTINUOUS
 70
0
 71
3
 72
9
 73
5
 74
3
 42
0.0000001
 43
0.0000001
 44
0.0000000001
 12
0.0041333819
 22
-0.0024717201
 32
0.0
 13
0.0002713369
 23
-0.0048083908
 33
0.0
 40
0.0
 40
0.0
 40
0.0
 40
0.0
 40
0.597056803
 40
1.0
 40
1.0
 40
1.0
 40
1.0
 10
-6.0711356638
 20
-10.9968015696
 30
0.0
 10
-6.0703130426
 20
-10.9972934887
 30
0.0
 10
-6.0690036407
 20
-10.9980671244
 30
0.0
 10
-6.0676834928
 20
-10.9993541639
 30
0.0
 10
-6.0676470484
 20
-11.0
 30
0.0
 11
-6.0711356638
 21
-10.9968015696
 31
0.0
 11
-6.0687456373
 21
-10.9984003141
 31
0.0
 11
-6.0676470484
 21
-11.0
 31
0.0
  0
SPLINE
  5
554
100
AcDbEntity
  8
ASSI
100
AcDbSpline
 62
7
  6
CONTINUOUS
 70
0
 71
3
 72
8
 73
4
 74
2
 42
0.0000001
 43
0.0000001
 44
0.0000000001
 12
-0.0786238626
 22
-0.0
 32
0.0
 13
-0.0740185633
 23
-0.0265134695
 33
0.0
 40
0.0
 40
0.0
 40
0.0
 40
0.0
 40
1.0
 40
1.0
 40
1.0
 40
1.0
 10
6.0739447511
 20
-10.9964580183
 30
0.0
 10
6.0477367969
 20
-10.9964580183
 30
0.0
 10
6.0211462934
 20
-11.0010331577
 30
0.0
 10
5.9964734389
 20
-11.0098709809
 30
0.0
 11
6.0739447511
 21
-10.9964580183
 31
0.0
 11
5.9964734389
 21
-11.0098709809
 31
0.0
  0
SPLINE
  5
555
100
AcDbEntity
  8
ASSI
100
AcDbSpline
 62
7
  6
CONTINUOUS
 70
0
 71
3
 72
8
 73
4
 74
2
 42
0.0000001
 43
0.0000001
 44
0.0000000001
 12
0.0786238626
 22
0.0
 32
0.0
 13
0.0740185633
 23
0.0265134695
 33
0.0
 40
0.0
 40
0.0
 40
0.0
 40
0.0
 40
1.0
 40
1.0
 40
1.0
 40
1.0
 10
-6.0739447511
 20
-15.0035419817
 30
0.0
 10
-6.0477367969
 20
-15.0035419817
 30
0.0
 10
-6.0211462934
 20
-14.9989668423
 30
0.0
 10
-5.9964734389
 20
-14.9901290191
 30
0.0
 11
-6.0739447511
 21
-15.0035419817
 31
0.0
 11
-5.9964734389
 21
-14.9901290191
 31
0.0
  0
SPLINE
  5
556
100
AcDbEntity
  8
ASSI
100
AcDbSpline
 62
7
  6
CONTINUOUS
 70
0
 71
3
 72
8
 73
4
 74
2
 42
0.0000001
 43
0.0000001
 44
0.0000000001
 12
-0.0734969126
 22
0.0260616838
 32
0.0
 13
-0.0779808151
 23
0.0
 33
0.0
 40
0.0
 40
0.0
 40
0.0
 40
0.0
 40
1.0
 40
1.0
 40
1.0
 40
1.0
 10
-5.9970960012
 20
-11.0096641166
 30
0.0
 10
-6.021594972
 20
-11.0009768887
 30
0.0
 10
-6.0479619185
 20
-10.9964875715
 30
0.0
 10
-6.0739555236
 20
-10.9964875715
 30
0.0
 11
-5.9970960012
 21
-11.0096641166
 31
0.0
 11
-6.0739555236
 21
-10.9964875715
 31
0.0
  0
SPLINE
  5
557
100
AcDbEntity
  8
ASSI
100
AcDbSpline
 62
253
  6
CONTINUOUS
 70
0
 71
3
 72
14
 73
10
 74
8
 42
0.0000001
 43
0.0000001
 44
0.0000000001
 12
0.000767601
 22
-0.6531821851
 32
0.0
 13
0.4618169134
 23
-0.4619228234
 33
0.0
 40
0.0
 40
0.0
 40
0.0
 40
0.0
 40
0.3832580945
 40
0.5546471456
 40
0.704481551
 40
0.8275996346
 40
0.9197708507
 40
0.9778525124
 40
1.0
 40
1.0
 40
1.0
 40
1.0
 10
10.7893673092
 20
-20.0985955855
 30
0.0
 10
10.7894653723
 20
-20.1820413721
 30
0.0
 10
10.7899118513
 20
-20.3028388457
 30
0.0
 10
10.7915817147
 20
-20.4561318109
 30
0.0
 10
10.7926996205
 20
-20.553066893
 30
0.0
 10
10.7952592208
 20
-20.631991022
 30
0.0
 10
10.7950033813
 20
-20.692826942
 30
0.0
 10
10.8007993882
 20
-20.7278013584
 30
0.0
 10
10.7979356514
 20
-20.7480567134
 30
0.0
 10
10.8013450129
 20
-20.7514668568
 30
0.0
 11
10.7893673092
 21
-20.0985955855
 31
0.0
 11
10.7904969557
 21
-20.3489305692
 31
0.0
 11
10.7916461143
 21
-20.4608730232
 31
0.0
 11
10.7931364963
 21
-20.5587309064
 31
0.0
 11
10.7949166976
 21
-20.6391297946
 31
0.0
 11
10.7969252903
 21
-20.699300917
 31
0.0
 11
10.7990929601
 21
-20.737176872
 31
0.0
 11
10.8013450129
 21
-20.7514668568
 31
0.0
  0
SPLINE
  5
558
100
AcDbEntity
  8
ASSI
100
AcDbSpline
 62
253
  6
CONTINUOUS
 70
0
 71
3
 72
14
 73
10
 74
8
 42
0.0000001
 43
0.0000001
 44
0.0000000001
 12
-0.201949956
 22
0.7791831574
 32
0.0
 13
-0.8049281277
 23
0.000941674
 33
0.0
 40
0.0
 40
0.0
 40
0.0
 40
0.0
 40
0.0255353353
 40
0.0853282255
 40
0.1789669796
 40
0.3029857907
 40
0.4530195288
 40
0.6236221909
 40
1.0
 40
1.0
 40
1.0
 40
1.0
 10
10.7893673092
 20
20.0985955855
 30
0.0
 10
10.7876483559
 20
20.1052278199
 30
0.0
 10
10.7596729203
 20
20.1117246835
 30
0.0
 10
10.7175010496
 20
20.1213506775
 30
0.0
 10
10.640863682
 20
20.1293360471
 30
0.0
 10
10.5435824337
 20
20.1372326477
 30
0.0
 10
10.4240539795
 20
20.1435706876
 30
0.0
 10
10.2373135894
 20
20.1502868614
 30
0.0
 10
10.0904748481
 20
20.1522170015
 30
0.0
 10
9.989489153
 20
20.1523351432
 30
0.0
 11
10.7893673092
 21
20.0985955855
 31
0.0
 11
10.7716091809
 21
20.1089455073
 31
0.0
 11
10.7245309425
 21
20.1189475709
 31
0.0
 11
10.6497244488
 21
20.1281673902
 31
0.0
 11
10.5502274137
 21
20.136268607
 31
0.0
 11
10.4296461025
 21
20.1429532834
 31
0.0
 11
10.2924151279
 21
20.1479791335
 31
0.0
 11
9.989489153
 21
20.1523351432
 31
0.0
  0
SPLINE
  5
559
100
AcDbEntity
  8
ASSI
100
AcDbSpline
 62
253
  6
CONTINUOUS
 70
0
 71
3
 72
16
 73
12
 74
10
 42
0.0000001
 43
0.0000001
 44
0.0000000001
 12
-0.5918304316
 22
-1.2678428659
 32
0.0
 13
-0.0007672308
 23
-1.3991741149
 33
0.0
 40
0.0
 40
0.0
 40
0.0
 40
0.0
 40
0.0064039968
 40
0.0219610635
 40
0.0465610121
 40
0.0799984318
 40
0.1721725748
 40
0.2953197685
 40
0.4451975869
 40
0.616636597
 40
1.0
 40
1.0
 40
1.0
 40
1.0
 10
10.0014668568
 20
21.5513450129
 30
0.0
 10
10.0002034967
 20
21.5486385923
 30
0.0
 10
10.0006315998
 20
21.5379429646
 30
0.0
 10
9.9985938997
 20
21.5166557451
 30
0.0
 10
9.9981207639
 20
21.4821326218
 30
0.0
 10
9.9962606698
 20
21.4122150374
 30
0.0
 10
9.9948269903
 20
21.296118963
 30
0.0
 10
9.9930262214
 20
21.1258415849
 30
0.0
 10
9.99163586
 20
20.9185375755
 30
0.0
 10
9.9900816245
 20
20.5898903205
 30
0.0
 10
9.9895871958
 20
20.3311325293
 30
0.0
 10
9.989489153
 20
20.1523351459
 30
0.0
 11
10.0014668568
 21
21.5513450129
 31
0.0
 11
10.0003350415
 21
21.5424564746
 31
0.0
 11
9.9992146682
 21
21.5207182789
 31
0.0
 11
9.998115495
 21
21.4863162177
 31
0.0
 11
9.9970469392
 21
21.439543643
 31
0.0
 11
9.9950383432
 21
21.3105915909
 31
0.0
 11
9.993258162
 21
21.1382963955
 31
0.0
 11
9.9917678055
 21
20.9285964961
 31
0.0
 11
9.9906186753
 21
20.6887261874
 31
0.0
 11
9.989489153
 21
20.1523351459
 31
0.0
  0
SPLINE
  5
55A
100
AcDbEntity
  8
ASSI
100
AcDbSpline
 62
253
  6
CONTINUOUS
 70
0
 71
3
 72
14
 73
10
 74
8
 42
0.0000001
 43
0.0000001
 44
0.0000000001
 12
-0.4618815791
 22
-0.4618581479
 32
0.0
 13
-0.0007676598
 23
-0.6531821741
 33
0.0
 40
0.0
 40
0.0
 40
0.0
 40
0.0
 40
0.0221500569
 40
0.0802348281
 40
0.1724090574
 40
0.2955297364
 40
0.4453650039
 40
0.616752284
 40
1.0
 40
1.0
 40
1.0
 40
1.0
 10
10.8013450129
 20
20.7514668568
 30
0.0
 10
10.7979347785
 20
20.7480567954
 30
0.0
 10
10.8008002247
 20
20.727798843
 30
0.0
 10
10.7950027841
 20
20.692823633
 30
0.0
 10
10.7952592771
 20
20.6319852677
 30
0.0
 10
10.7926994286
 20
20.5530599472
 30
0.0
 10
10.7915816415
 20
20.4561244254
 30
0.0
 10
10.7899117893
 20
20.302833949
 30
0.0
 10
10.7894653771
 20
20.182039111
 30
0.0
 10
10.7893673092
 20
20.0985955855
 30
0.0
 11
10.8013450129
 21
20.7514668568
 31
0.0
 11
10.7990928789
 21
20.7371751861
 31
0.0
 11
10.7969251687
 21
20.6992971997
 31
0.0
 11
10.7949165538
 21
20.6391241097
 31
0.0
 11
10.7931363607
 21
20.5587235271
 31
0.0
 11
10.7916460077
 21
20.4608650818
 31
0.0
 11
10.7904968847
 21
20.3489237862
 31
0.0
 11
10.7893673092
 21
20.0985955855
 31
0.0
  0
SPLINE
  5
55B
100
AcDbEntity
  8
ASSI
100
AcDbSpline
 62
253
  6
CONTINUOUS
 70
0
 71
3
 72
16
 73
12
 74
10
 42
0.0000001
 43
0.0000001
 44
0.0000000001
 12
0.5914903012
 22
1.268001585
 32
0.0
 13
0.0007675911
 23
1.3991741159
 33
0.0
 40
0.0
 40
0.0
 40
0.0
 40
0.0
 40
0.0064033318
 40
0.0219587038
 40
0.0465568918
 40
0.0799916972
 40
0.17216082
 40
0.2953033409
 40
0.4451792663
 40
0.6166207728
 40
1.0
 40
1.0
 40
1.0
 40
1.0
 10
-10.0014668568
 20
-21.5513450129
 30
0.0
 10
-10.0002043539
 20
-21.5486385346
 30
0.0
 10
-10.0006309453
 20
-21.5379447748
 30
0.0
 10
-9.9985944245
 20
-21.5166588414
 30
0.0
 10
-9.9981206443
 20
-21.4821388805
 30
0.0
 10
-9.9962607442
 20
-21.4122254942
 30
0.0
 10
-9.9948267358
 20
-21.2961352932
 30
0.0
 10
-9.9930260428
 20
-21.1258632599
 30
0.0
 10
-9.9916357268
 20
-20.9185611683
 30
0.0
 10
-9.9900816784
 20
-20.589906242
 30
0.0
 10
-9.9895872459
 20
-20.3311399096
 30
0.0
 10
-9.989489153
 20
-20.1523351459
 30
0.0
 11
-10.0014668568
 21
-21.5513450129
 31
0.0
 11
-10.0003351945
 21
-21.5424573932
 31
0.0
 11
-9.9992147812
 21
-21.5207215738
 31
0.0
 11
-9.9981155584
 21
-21.4863219787
 31
0.0
 11
-9.9970469289
 21
-21.4395530644
 31
0.0
 11
-9.9950382039
 21
-21.3106080392
 31
0.0
 11
-9.9932579918
 21
-21.1383193824
 31
0.0
 11
-9.9917676996
 21
-20.9286221311
 31
0.0
 11
-9.9906186755
 21
-20.6887483286
 31
0.0
 11
-9.989489153
 21
-20.1523351459
 31
0.0
  0
SPLINE
  5
55C
100
AcDbEntity
  8
ASSI
100
AcDbSpline
 62
253
  6
CONTINUOUS
 70
0
 71
3
 72
14
 73
10
 74
8
 42
0.0000001
 43
0.0000001
 44
0.0000000001
 12
0.4617918665
 22
0.461947865
 32
0.0
 13
0.0007676303
 23
0.6531821865
 33
0.0
 40
0.0
 40
0.0
 40
0.0
 40
0.0
 40
0.0221467142
 40
0.0802268901
 40
0.1723963707
 40
0.2955129617
 40
0.4453468378
 40
0.6167367677
 40
1.0
 40
1.0
 40
1.0
 40
1.0
 10
-10.8013450129
 20
-20.7514668568
 30
0.0
 10
-10.7979359554
 20
-20.7480566477
 30
0.0
 10
-10.8007991132
 20
-20.7278022954
 30
0.0
 10
-10.7950036183
 20
-20.6928283167
 30
0.0
 10
-10.7952592156
 20
-20.6319936422
 30
0.0
 10
-10.7926996971
 20
-20.5530702462
 30
0.0
 10
-10.7915817447
 20
-20.4561354414
 30
0.0
 10
-10.7899118693
 20
-20.3028412705
 30
0.0
 10
-10.7894653773
 20
-20.1820424908
 30
0.0
 10
-10.7893673092
 20
-20.0985955855
 30
0.0
 11
-10.8013450129
 21
-20.7514668568
 31
0.0
 11
-10.7990930028
 21
-20.7371773766
 31
0.0
 11
-10.7969253524
 21
-20.6993023926
 31
0.0
 11
-10.7949167665
 21
-20.639132404
 31
0.0
 11
-10.7931365568
 21
-20.5587344911
 31
0.0
 11
-10.7916461581
 21
-20.4608769536
 31
0.0
 11
-10.7904969826
 21
-20.3489339255
 31
0.0
 11
-10.7893673092
 21
-20.0985955855
 31
0.0
  0
SPLINE
  5
55D
100
AcDbEntity
  8
ASSI
100
AcDbSpline
 62
253
  6
CONTINUOUS
 70
0
 71
3
 72
14
 73
10
 74
8
 42
0.0000001
 43
0.0000001
 44
0.0000000001
 12
0.2019502772
 22
-0.7791830733
 32
0.0
 13
0.8049281268
 23
-0.000941674
 33
0.0
 40
0.0
 40
0.0
 40
0.0
 40
0.0
 40
0.0255353394
 40
0.0853282329
 40
0.1789669888
 40
0.3029858002
 40
0.4530195372
 40
0.6236221971
 40
1.0
 40
1.0
 40
1.0
 40
1.0
 10
-10.7893673092
 20
-20.0985955855
 30
0.0
 10
-10.7876483529
 20
-20.1052278202
 30
0.0
 10
-10.7596729183
 20
-20.1117246821
 30
0.0
 10
-10.7175010422
 20
-20.1213506773
 30
0.0
 10
-10.6408636749
 20
-20.129336046
 30
0.0
 10
-10.5435824257
 20
-20.1372326467
 30
0.0
 10
-10.4240539726
 20
-20.1435706863
 30
0.0
 10
-10.2373135852
 20
-20.1502868599
 30
0.0
 10
-10.0904748463
 20
-20.1522169999
 30
0.0
 10
-9.989489153
 20
-20.1523351417
 30
0.0
 11
-10.7893673092
 21
-20.0985955855
 31
0.0
 11
-10.771609177
 21
-20.1089455071
 31
0.0
 11
-10.7245309359
 21
-20.1189475704
 31
0.0
 11
-10.6497244408
 21
-20.1281673894
 31
0.0
 11
-10.5502274055
 21
-20.136268606
 31
0.0
 11
-10.4296460953
 21
-20.1429532822
 31
0.0
 11
-10.2924151226
 21
-20.1479791321
 31
0.0
 11
-9.989489153
 21
-20.1523351417
 31
0.0
  0
SPLINE
  5
55E
100
AcDbEntity
  8
ASSI
100
AcDbSpline
 62
253
  6
CONTINUOUS
 70
0
 71
3
 72
14
 73
10
 74
8
 42
0.0000001
 43
0.0000001
 44
0.0000000001
 12
0.2019497163
 22
0.7791832197
 32
0.0
 13
0.8049281279
 23
0.0009416734
 33
0.0
 40
0.0
 40
0.0
 40
0.0
 40
0.0
 40
0.0255353329
 40
0.0853282228
 40
0.1789669785
 40
0.3029857916
 40
0.4530195312
 40
0.6236221937
 40
1.0
 40
1.0
 40
1.0
 40
1.0
 10
-10.7893673092
 20
20.0985955855
 30
0.0
 10
-10.7876483581
 20
20.1052278198
 30
0.0
 10
-10.7596729204
 20
20.1117246842
 30
0.0
 10
-10.7175010525
 20
20.1213506773
 30
0.0
 10
-10.6408636826
 20
20.129336047
 30
0.0
 10
-10.5435824335
 20
20.1372326473
 30
0.0
 10
-10.4240539779
 20
20.1435706869
 30
0.0
 10
-10.2373135881
 20
20.1502868603
 30
0.0
 10
-10.0904748474
 20
20.1522170002
 30
0.0
 10
-9.989489153
 20
20.1523351419
 30
0.0
 11
-10.7893673092
 21
20.0985955855
 31
0.0
 11
-10.7716091831
 21
20.1089455073
 31
0.0
 11
-10.724530945
 21
20.1189475709
 31
0.0
 11
-10.64972445
 21
20.1281673901
 31
0.0
 11
-10.5502274132
 21
20.1362686067
 31
0.0
 11
-10.4296461007
 21
20.1429532828
 31
0.0
 11
-10.2924151257
 21
20.1479791326
 31
0.0
 11
-9.989489153
 21
20.1523351419
 31
0.0
  0
SPLINE
  5
55F
100
AcDbEntity
  8
ASSI
100
AcDbSpline
 62
253
  6
CONTINUOUS
 70
0
 71
3
 72
16
 73
12
 74
10
 42
0.0000001
 43
0.0000001
 44
0.0000000001
 12
-0.0007673745
 22
1.3991741105
 32
0.0
 13
-0.5918015674
 23
1.2678563347
 33
0.0
 40
0.0
 40
0.0
 40
0.0
 40
0.0
 40
0.3833580289
 40
0.5547964513
 40
0.7046750188
 40
0.827823705
 40
0.9199993514
 40
0.9534376964
 40
0.978038204
 40
0.9935957726
 40
1.0
 40
1.0
 40
1.0
 40
1.0
 10
-9.989489153
 20
20.1523351459
 30
0.0
 10
-9.9895872128
 20
20.3311300223
 30
0.0
 10
-9.9900815811
 20
20.5898850319
 30
0.0
 10
-9.9916357874
 20
20.9185298557
 30
0.0
 10
-9.993026154
 20
21.1258346341
 30
0.0
 10
-9.9948269203
 20
21.2961137626
 30
0.0
 10
-9.9962606626
 20
21.4122116563
 30
0.0
 10
-9.9981207336
 20
21.4821306452
 30
0.0
 10
-9.9985939175
 20
21.5166546765
 30
0.0
 10
-10.000631603
 20
21.5379425296
 30
0.0
 10
-10.0002035128
 20
21.5486384661
 30
0.0
 10
-10.0014668568
 20
21.5513450129
 30
0.0
 11
-9.989489153
 21
20.1523351459
 31
0.0
 11
-9.9906186202
 21
20.6887186665
 31
0.0
 11
-9.991767731
 21
20.9285881523
 31
0.0
 11
-9.9932580878
 21
21.1382890993
 31
0.0
 11
-9.9950382874
 21
21.3105863823
 31
0.0
 11
-9.9970469127
 21
21.4395405372
 31
0.0
 11
-9.9981154792
 21
21.4863144066
 31
0.0
 11
-9.9992146712
 21
21.5207172496
 31
0.0
 11
-10.0003350514
 21
21.5424561481
 31
0.0
 11
-10.0014668568
 21
21.5513450129
 31
0.0
  0
SPLINE
  5
560
100
AcDbEntity
  8
ASSI
100
AcDbSpline
 62
253
  6
CONTINUOUS
 70
0
 71
3
 72
14
 73
10
 74
8
 42
0.0000001
 43
0.0000001
 44
0.0000000001
 12
-0.0007676809
 22
0.6531821731
 32
0.0
 13
-0.4618475938
 23
0.4618921311
 33
0.0
 40
0.0
 40
0.0
 40
0.0
 40
0.0
 40
0.3832423874
 40
0.5546291629
 40
0.7044652408
 40
0.8275874076
 40
0.9197630693
 40
0.9778492081
 40
1.0
 40
1.0
 40
1.0
 40
1.0
 10
-10.7893673092
 20
20.0985955855
 30
0.0
 10
-10.7894653784
 20
20.1820379506
 30
0.0
 10
-10.7899117854
 20
20.3028315106
 30
0.0
 10
-10.7915815888
 20
20.4561209115
 30
0.0
 10
-10.7926993966
 20
20.5530567842
 30
0.0
 10
-10.7952591351
 20
20.631983023
 30
0.0
 10
-10.7950028793
 20
20.6928220753
 30
0.0
 10
-10.8007999525
 20
20.7277984963
 30
0.0
 10
-10.7979349163
 20
20.7480564313
 30
0.0
 10
-10.8013450129
 20
20.7514668568
 30
0.0
 11
-10.7893673092
 21
20.0985955855
 31
0.0
 11
-10.790496856
 21
20.3489203054
 31
0.0
 11
-10.7916459588
 21
20.4608612714
 31
0.0
 11
-10.7931362952
 21
20.5587202461
 31
0.0
 11
-10.7949164831
 21
20.6391218008
 31
0.0
 11
-10.7969251088
 21
20.6992958265
 31
0.0
 11
-10.7990928385
 21
20.7371747064
 31
0.0
 11
-10.8013450129
 21
20.7514668568
 31
0.0
  0
SPLINE
  5
561
100
AcDbEntity
  8
ASSI
100
AcDbSpline
 62
253
  6
CONTINUOUS
 70
0
 71
3
 72
14
 73
10
 74
8
 42
0.0000001
 43
0.0000001
 44
0.0000000001
 12
-0.2019519127
 22
-0.7791826422
 32
0.0
 13
-0.8049281199
 23
-0.0009416717
 33
0.0
 40
0.0
 40
0.0
 40
0.0
 40
0.0
 40
0.0255353642
 40
0.0853282877
 40
0.1789670699
 40
0.3029858969
 40
0.4530196333
 40
0.623622275
 40
1.0
 40
1.0
 40
1.0
 40
1.0
 10
10.7893673092
 20
-20.0985955855
 30
0.0
 10
10.7876483373
 20
-20.105227823
 30
0.0
 10
10.7596728991
 20
-20.1117246718
 30
0.0
 10
10.7175009892
 20
-20.1213506738
 30
0.0
 10
10.6408636097
 20
-20.129336035
 30
0.0
 10
10.5435823469
 20
-20.1372326338
 30
0.0
 10
10.4240538967
 20
-20.143570669
 30
0.0
 10
10.2373135361
 20
-20.1502868381
 30
0.0
 10
10.0904748246
 20
-20.1522169764
 30
0.0
 10
9.989489153
 20
-20.1523351178
 30
0.0
 11
10.7893673092
 21
-20.0985955855
 31
0.0
 11
10.7716091527
 21
-20.1089455047
 31
0.0
 11
10.7245308867
 21
-20.1189475652
 31
0.0
 11
10.6497243706
 21
-20.1281673808
 31
0.0
 11
10.5502273232
 21
-20.1362685935
 31
0.0
 11
10.4296460143
 21
-20.1429532657
 31
0.0
 11
10.2924150573
 21
-20.1479791121
 31
0.0
 11
9.989489153
 21
-20.1523351178
 31
0.0
  0
SPLINE
  5
562
100
AcDbEntity
  8
ASSI
100
AcDbSpline
 62
253
  6
CONTINUOUS
 70
0
 71
3
 72
16
 73
12
 74
10
 42
0.0000001
 43
0.0000001
 44
0.0000000001
 12
0.0007674987
 22
-1.3991741183
 32
0.0
 13
0.5914475918
 23
-1.2680215094
 33
0.0
 40
0.0
 40
0.0
 40
0.0
 40
0.0
 40
0.3833741531
 40
0.5548148494
 40
0.7046913471
 40
0.8278353399
 40
0.9200061047
 40
0.9534417077
 40
0.9780404929
 40
0.993596439
 40
1.0
 40
1.0
 40
1.0
 40
1.0
 10
9.989489153
 20
-20.1523351459
 30
0.0
 10
9.9895872328
 20
-20.3311375434
 30
0.0
 10
9.9900816891
 20
-20.5899011312
 30
0.0
 10
9.9916357096
 20
-20.918553582
 30
0.0
 10
9.9930259972
 20
-21.125856247
 30
0.0
 10
9.9948266411
 20
-21.2961300072
 30
0.0
 10
9.9962606436
 20
-21.4122220186
 30
0.0
 10
9.998120522
 20
-21.4821368414
 30
0.0
 10
9.998594342
 20
-21.5166576877
 30
0.0
 10
10.0006308343
 20
-21.5379443331
 30
0.0
 10
10.0002043999
 20
-21.5486383952
 30
0.0
 10
10.0014668568
 20
-21.5513450129
 30
0.0
 11
9.989489153
 21
-20.1523351459
 31
0.0
 11
9.990618668
 21
-20.68874123
 31
0.0
 11
9.9917676736
 21
-20.9286138992
 31
0.0
 11
9.9932579323
 21
-21.1383119521
 31
0.0
 11
9.9950381081
 21
-21.310602669
 31
0.0
 11
9.9970468147
 21
-21.4395499924
 31
0.0
 11
9.9981154471
 21
-21.4863200229
 31
0.0
 11
9.9992146784
 21
-21.5207204538
 31
0.0
 11
10.0003351629
 21
-21.5424570739
 31
0.0
 11
10.0014668568
 21
-21.5513450129
 31
0.0
  0
LINE
  5
563
100
AcDbEntity
  8
RACCORDO
100
AcDbLine
 62
253
  6
CONTINUOUS
 10
-30.738914519
 20
-17.2850037836
 11
-30.7443687924
 21
-17.1874002599
  0
LINE
  5
564
100
AcDbEntity
  8
RACCORDO
100
AcDbLine
 62
253
  6
CONTINUOUS
 10
-30.7443687924
 20
-17.1874002599
 11
-30.7470043481
 21
-17.1400497511
  0
LINE
  5
565
100
AcDbEntity
  8
RACCORDO
100
AcDbLine
 62
253
  6
CONTINUOUS
 10
-30.7470043481
 20
-17.1400497511
 11
-30.7515023271
 21
-17.0589349763
  0
LINE
  5
566
100
AcDbEntity
  8
RACCORDO
100
AcDbLine
 62
253
  6
CONTINUOUS
 10
-30.7515023271
 20
-17.0589349763
 11
-30.7569355599
 21
-16.9604333364
  0
LINE
  5
567
100
AcDbEntity
  8
ASSI
100
AcDbLine
 62
253
  6
CONTINUOUS
 10
-30.738914519
 20
-17.2850037836
 11
-30.7457281533
 21
-17.163001982
  0
LINE
  5
568
100
AcDbEntity
  8
ASSI
100
AcDbLine
 62
253
  6
CONTINUOUS
 10
-30.7457281533
 20
-17.163001982
 11
-30.7566645103
 21
-16.9653620407
  0
LINE
  5
569
100
AcDbEntity
  8
ASSI
100
AcDbLine
 62
253
  6
CONTINUOUS
 10
-30.7566645103
 20
-16.9653620407
 11
-30.7594306223
 21
-16.9150277946
  0
LINE
  5
56A
100
AcDbEntity
  8
ASSI
100
AcDbLine
 62
253
  6
CONTINUOUS
 10
-30.738914519
 20
-17.2850037836
 11
-30.7443687924
 21
-17.1874002599
  0
LINE
  5
56B
100
AcDbEntity
  8
ASSI
100
AcDbLine
 62
253
  6
CONTINUOUS
 10
-30.7443687924
 20
-17.1874002599
 11
-30.7470043481
 21
-17.1400497509
  0
LINE
  5
56C
100
AcDbEntity
  8
ASSI
100
AcDbLine
 62
253
  6
CONTINUOUS
 10
-30.7470043481
 20
-17.1400497509
 11
-30.7515023271
 21
-17.0589349762
  0
LINE
  5
56D
100
AcDbEntity
  8
ASSI
100
AcDbLine
 62
253
  6
CONTINUOUS
 10
-30.7515023271
 20
-17.0589349762
 11
-30.770445088
 21
-16.7130429318
  0
SPLINE
  5
56E
100
AcDbEntity
  8
RACCORDO
100
AcDbSpline
 62
253
  6
CONTINUOUS
 70
0
 71
3
 72
21
 73
17
 74
15
 42
0.0000001
 43
0.0000001
 44
0.0000000001
 12
-0.0139627882
 22
-0.8001713228
 32
0.0
 13
0.8001712486
 23
-0.0139670411
 33
0.0
 40
0.0
 40
0.0
 40
0.0
 40
0.0
 40
0.1945730275
 40
0.3824526612
 40
0.5552996706
 40
0.7066769114
 40
0.7724859355
 40
0.8308974182
 40
0.8813717272
 40
0.9233700361
 40
0.956415119
 40
0.9802732594
 40
0.988706854
 40
0.9947882227
 40
0.99851645
 40
1.0
 40
1.0
 40
1.0
 40
1.0
 10
-29.0817222803
 20
-20.7514668568
 30
0.0
 10
-29.0826278743
 20
-20.803364109
 30
0.0
 10
-29.0842325409
 20
-20.9053764471
 30
0.0
 10
-29.0860549785
 20
-21.0534998081
 30
0.0
 10
-29.0871912462
 20
-21.1901063165
 30
0.0
 10
-29.0875667008
 20
-21.294153803
 30
0.0
 10
-29.0874491236
 20
-21.3676726247
 30
0.0
 10
-29.0871802164
 20
-21.4142765969
 30
0.0
 10
-29.0867319046
 20
-21.4545181548
 30
0.0
 10
-29.0861151896
 20
-21.4880155048
 30
0.0
 10
-29.0853308689
 20
-21.5143386753
 30
0.0
 10
-29.0845092344
 20
-21.5318538984
 30
0.0
 10
-29.0837108067
 20
-21.5419213791
 30
0.0
 10
-29.0831459219
 20
-21.5469897676
 30
0.0
 10
-29.082628364
 20
-21.5495315431
 30
0.0
 10
-29.0821179783
 20
-21.551338106
 30
0.0
 10
-29.0817222803
 20
-21.5513450129
 30
0.0
 11
-29.0817222803
 21
-20.7514668568
 31
0.0
 11
-29.0841701656
 21
-20.9071630735
 31
0.0
 11
-29.0860002872
 21
-21.0575107167
 31
0.0
 11
-29.0871231295
 21
-21.1958344348
 31
0.0
 11
-29.0875024927
 21
-21.3169800078
 31
0.0
 11
-29.0874071754
 21
-21.3696464319
 31
0.0
 11
-29.0871231295
 21
-21.4163918776
 31
0.0
 11
-29.0866532138
 21
-21.4567833873
 31
0.0
 11
-29.0860002872
 21
-21.4903880032
 31
0.0
 11
-29.0851688746
 21
-21.5168206839
 31
0.0
 11
-29.0841701656
 21
-21.5358880527
 31
0.0
 11
-29.0836120923
 21
-21.5426142887
 31
0.0
 11
-29.0830170156
 21
-21.5474446491
 31
0.0
 11
-29.0823865427
 21
-21.5503609514
 31
0.0
 11
-29.0817222803
 21
-21.5513450129
 31
0.0
  0
SPLINE
  5
56F
100
AcDbEntity
  8
RACCORDO
100
AcDbSpline
 62
253
  6
CONTINUOUS
 70
0
 71
3
 72
21
 73
17
 74
15
 42
0.0000001
 43
0.0000001
 44
0.0000000001
 12
-0.01396279
 22
0.8001713229
 32
0.0
 13
0.8001712487
 23
0.0139670411
 33
0.0
 40
0.0
 40
0.0
 40
0.0
 40
0.0
 40
0.1945730272
 40
0.3824526602
 40
0.5552996693
 40
0.7066769103
 40
0.7724859345
 40
0.8308974174
 40
0.8813717266
 40
0.9233700357
 40
0.9564151186
 40
0.9802732591
 40
0.9887068538
 40
0.9947882226
 40
0.99851645
 40
1.0
 40
1.0
 40
1.0
 40
1.0
 10
-29.0817222803
 20
20.7514668568
 30
0.0
 10
-29.0826278744
 20
20.803364109
 30
0.0
 10
-29.0842325412
 20
20.9053764467
 30
0.0
 10
-29.0860549791
 20
21.0534998075
 30
0.0
 10
-29.0871912469
 20
21.1901063156
 30
0.0
 10
-29.0875667015
 20
21.2941538021
 30
0.0
 10
-29.0874491243
 20
21.3676726239
 30
0.0
 10
-29.0871802171
 20
21.4142765963
 30
0.0
 10
-29.0867319052
 20
21.4545181544
 30
0.0
 10
-29.0861151901
 20
21.4880155045
 30
0.0
 10
-29.0853308693
 20
21.514338675
 30
0.0
 10
-29.0845092347
 20
21.5318538983
 30
0.0
 10
-29.0837108069
 20
21.541921379
 30
0.0
 10
-29.0831459221
 20
21.5469897675
 30
0.0
 10
-29.0826283642
 20
21.5495315431
 30
0.0
 10
-29.0821179783
 20
21.551338106
 30
0.0
 10
-29.0817222803
 20
21.5513450129
 30
0.0
 11
-29.0817222803
 21
20.7514668568
 31
0.0
 11
-29.0841701659
 21
20.9071630733
 31
0.0
 11
-29.0860002877
 21
21.057510716
 31
0.0
 11
-29.0871231301
 21
21.1958344339
 31
0.0
 11
-29.0875024934
 21
21.316980007
 31
0.0
 11
-29.0874071761
 21
21.3696464311
 31
0.0
 11
-29.0871231301
 21
21.4163918771
 31
0.0
 11
-29.0866532144
 21
21.4567833869
 31
0.0
 11
-29.0860002877
 21
21.4903880029
 31
0.0
 11
-29.0851688751
 21
21.5168206837
 31
0.0
 11
-29.0841701659
 21
21.5358880525
 31
0.0
 11
-29.0836120925
 21
21.5426142886
 31
0.0
 11
-29.0830170158
 21
21.5474446491
 31
0.0
 11
-29.0823865427
 21
21.5503609514
 31
0.0
 11
-29.0817222803
 21
21.5513450129
 31
0.0
  0
SPLINE
  5
570
100
AcDbEntity
  8
ASSI
100
AcDbSpline
 62
253
  6
CONTINUOUS
 70
0
 71
3
 72
16
 73
12
 74
10
 42
0.0000001
 43
0.0000001
 44
0.0000000001
 12
-0.0139616575
 22
-0.8001065239
 32
0.0
 13
0.8001064497
 23
-0.01396591
 33
0.0
 40
0.0
 40
0.0
 40
0.0
 40
0.0
 40
0.3824830332
 40
0.5553440412
 40
0.7067335417
 40
0.8309638272
 40
0.923443238
 40
0.9564909971
 40
0.9803510697
 40
0.9948644103
 40
1.0
 40
1.0
 40
1.0
 40
1.0
 10
-29.0817222803
 20
-20.7514668568
 30
0.0
 10
-29.0835023126
 20
-20.8534759135
 30
0.0
 10
-29.0856271448
 20
-21.0016140898
 30
0.0
 10
-29.0871805395
 20
-21.1900815155
 30
0.0
 10
-29.0876572242
 20
-21.3098111948
 30
0.0
 10
-29.0872357288
 20
-21.4077194801
 30
0.0
 10
-29.0866823547
 20
-21.474947594
 30
0.0
 10
-29.0851445798
 20
-21.5139373637
 30
0.0
 10
-29.0848517569
 20
-21.5343843726
 30
0.0
 10
-29.0827868608
 20
-21.5434028432
 30
0.0
 10
-29.0830919531
 20
-21.5513211052
 30
0.0
 10
-29.0817222803
 20
-21.5513450129
 30
0.0
 11
-29.0817222803
 21
-20.7514668568
 31
0.0
 11
-29.0860002872
 21
-21.0575107167
 31
0.0
 11
-29.0871231295
 21
-21.1958344348
 31
0.0
 11
-29.0875024927
 21
-21.3169800078
 31
0.0
 11
-29.0871231295
 21
-21.4163918776
 31
0.0
 11
-29.0860002872
 21
-21.4903880032
 31
0.0
 11
-29.0851688746
 21
-21.5168206839
 31
0.0
 11
-29.0841701656
 21
-21.5358880527
 31
0.0
 11
-29.0830170156
 21
-21.5474446491
 31
0.0
 11
-29.0817222803
 21
-21.5513450129
 31
0.0
  0
SPLINE
  5
571
100
AcDbEntity
  8
ASSI
100
AcDbSpline
 62
253
  6
CONTINUOUS
 70
0
 71
3
 72
16
 73
12
 74
10
 42
0.0000001
 43
0.0000001
 44
0.0000000001
 12
-0.0139616593
 22
0.800106524
 32
0.0
 13
0.8001064498
 23
0.01396591
 33
0.0
 40
0.0
 40
0.0
 40
0.0
 40
0.0
 40
0.3824830323
 40
0.5553440399
 40
0.7067335406
 40
0.8309638264
 40
0.9234432375
 40
0.9564909967
 40
0.9803510695
 40
0.9948644101
 40
1.0
 40
1.0
 40
1.0
 40
1.0
 10
-29.0817222803
 20
20.7514668568
 30
0.0
 10
-29.0835023129
 20
20.8534759133
 30
0.0
 10
-29.0856271453
 20
21.0016140892
 30
0.0
 10
-29.0871805401
 20
21.1900815147
 30
0.0
 10
-29.087657225
 20
21.309811194
 30
0.0
 10
-29.0872357295
 20
21.4077194796
 30
0.0
 10
-29.0866823553
 20
21.4749475936
 30
0.0
 10
-29.0851445803
 20
21.5139373635
 30
0.0
 10
-29.0848517571
 20
21.5343843724
 30
0.0
 10
-29.0827868612
 20
21.5434028432
 30
0.0
 10
-29.0830919531
 20
21.5513211052
 30
0.0
 10
-29.0817222803
 20
21.5513450129
 30
0.0
 11
-29.0817222803
 21
20.7514668568
 31
0.0
 11
-29.0860002877
 21
21.057510716
 31
0.0
 11
-29.0871231301
 21
21.1958344339
 31
0.0
 11
-29.0875024934
 21
21.316980007
 31
0.0
 11
-29.0871231301
 21
21.4163918771
 31
0.0
 11
-29.0860002877
 21
21.4903880029
 31
0.0
 11
-29.0851688751
 21
21.5168206837
 31
0.0
 11
-29.0841701659
 21
21.5358880525
 31
0.0
 11
-29.0830170158
 21
21.5474446491
 31
0.0
 11
-29.0817222803
 21
21.5513450129
 31
0.0
  0
ELLIPSE
  5
572
100
AcDbEntity
  8
DRAFT
100
AcDbEllipse
 62
7
  6
CONTINUOUS
 10
2.1
 20
-12.2119841407
 30
0.0
 11
0.0
 21
3.9497105654
 31
0.0
 40
0.979895321
 41
-1.1224837646
 42
-1.1200243461
  0
ELLIPSE
  5
573
100
AcDbEntity
  8
DRAFT
100
AcDbEllipse
 62
7
  6
CONTINUOUS
 10
2.1
 20
-13.7880158593
 30
0.0
 11
-0.0
 21
3.9497105654
 31
0.0
 40
0.979895321
 41
-2.0314355491
 42
-2.019108889
  0
ELLIPSE
  5
574
100
AcDbEntity
  8
DRAFT
100
AcDbEllipse
 62
7
  6
CONTINUOUS
 10
-2.1
 20
-13.7880158593
 30
0.0
 11
-0.0
 21
3.9497105654
 31
0.0
 40
0.979895321
 41
-4.2640764182
 42
-4.2517497581
  0
ELLIPSE
  5
575
100
AcDbEntity
  8
DRAFT
100
AcDbEllipse
 62
7
  6
CONTINUOUS
 10
-2.1
 20
-12.2119841407
 30
0.0
 11
0.0
 21
3.9497105654
 31
0.0
 40
0.979895321
 41
1.1200243461
 42
1.1224837646
  0
ELLIPSE
  5
576
100
AcDbEntity
  8
ASSI
100
AcDbEllipse
 62
7
  6
CONTINUOUS
 10
-2.1
 20
-12.2119841407
 30
0.0
 11
0.0
 21
3.9497105654
 31
0.0
 40
0.979895321
 41
1.1200243461
 42
1.1224837646
  0
ELLIPSE
  5
577
100
AcDbEntity
  8
ASSI
100
AcDbEllipse
 62
7
  6
CONTINUOUS
 10
-2.1
 20
-13.7880158593
 30
0.0
 11
0.0
 21
3.9497105654
 31
0.0
 40
0.979895321
 41
-4.2640764182
 42
-4.2517497581
  0
ELLIPSE
  5
578
100
AcDbEntity
  8
ASSI
100
AcDbEllipse
 62
7
  6
CONTINUOUS
 10
2.1
 20
-13.7880158593
 30
0.0
 11
-0.0
 21
3.9497105654
 31
0.0
 40
0.979895321
 41
-2.0314355491
 42
-2.019108889
  0
ELLIPSE
  5
579
100
AcDbEntity
  8
ASSI
100
AcDbEllipse
 62
7
  6
CONTINUOUS
 10
2.1
 20
-12.2119841407
 30
0.0
 11
0.0
 21
3.9497105654
 31
0.0
 40
0.979895321
 41
-1.1224837646
 42
-1.1200243461
  0
ELLIPSE
  5
57A
100
AcDbEntity
  8
RACCORDO
100
AcDbEllipse
 62
7
  6
CONTINUOUS
 10
-10.0998781376
 20
-20.8498781376
 30
0.0
 11
0.5658577513
 21
0.5658577513
 31
0.0
 40
0.9996954599
 41
2.3563467834
 42
3.9268385237
  0
ELLIPSE
  5
57B
100
AcDbEntity
  8
RACCORDO
100
AcDbEllipse
 62
7
  6
CONTINUOUS
 10
-10.0998781376
 20
20.8498781376
 30
0.0
 11
0.5658577513
 21
-0.5658577513
 31
0.0
 40
0.9996954599
 41
2.3563467834
 42
3.9268385237
  0
ELLIPSE
  5
57C
100
AcDbEntity
  8
RACCORDO
100
AcDbEllipse
 62
7
  6
CONTINUOUS
 10
10.0998781376
 20
-20.8498781376
 30
0.0
 11
0.5658577513
 21
-0.5658577513
 31
0.0
 40
0.9996954599
 41
-0.7852458702
 42
0.7852458701
  0
ELLIPSE
  5
57D
100
AcDbEntity
  8
RACCORDO
100
AcDbEllipse
 62
7
  6
CONTINUOUS
 10
10.0998781376
 20
20.8498781376
 30
0.0
 11
0.5658577513
 21
0.5658577513
 31
0.0
 40
0.9996954599
 41
-0.7852458702
 42
0.7852458701
  0
ELLIPSE
  5
57E
100
AcDbEntity
  8
ASSI
100
AcDbEllipse
 62
7
  6
CONTINUOUS
 10
-10.0998781376
 20
-20.8498781376
 30
0.0
 11
0.5658577513
 21
0.5658577513
 31
0.0
 40
0.9996954599
 41
2.3563467834
 42
3.9268385237
  0
ELLIPSE
  5
57F
100
AcDbEntity
  8
ASSI
100
AcDbEllipse
 62
7
  6
CONTINUOUS
 10
-10.0998781376
 20
20.8498781376
 30
0.0
 11
0.5658577513
 21
-0.5658577513
 31
0.0
 40
0.9996954599
 41
2.3563467834
 42
3.9268385237
  0
ELLIPSE
  5
580
100
AcDbEntity
  8
ASSI
100
AcDbEllipse
 62
7
  6
CONTINUOUS
 10
10.0998781376
 20
-20.8498781376
 30
0.0
 11
0.5658577513
 21
-0.5658577513
 31
0.0
 40
0.9996954599
 41
-0.7852458702
 42
0.7852458701
  0
ELLIPSE
  5
581
100
AcDbEntity
  8
ASSI
100
AcDbEllipse
 62
7
  6
CONTINUOUS
 10
10.0998781376
 20
20.8498781376
 30
0.0
 11
0.5658577513
 21
0.5658577513
 31
0.0
 40
0.9996954599
 41
-0.7852458702
 42
0.7852458701
  0
ENDSEC
  0
SECTION
  2
OBJECTS
  0
DICTIONARY
  5
C
100
AcDbDictionary
280
0
281
1
  3
ACAD_GROUP
350
D
  3
ACAD_MLINESTYLE
350
17
  3
ACAD_LAYOUT
350
1A
  3
ACAD_PLOTSETTINGS
350
19
  3
ACAD_PLOTSTYLENAME
350
E
  0
DICTIONARY
  5
D
102
{ACAD_REACTORS
330
C
102
}
100
AcDbDictionary
280
0
281
1
  0
ACDBDICTIONARYWDFLT
  5
E
102
{ACAD_REACTORS
330
C
102
}
100
AcDbDictionary
281
1
  3
Normal
350
F
100
AcDbDictionaryWithDefault
340
F
  0
DICTIONARY
  5
17
102
{ACAD_REACTORS
330
C
102
}
100
AcDbDictionary
280
0
281
1
  3
Standard
350
18
  0
DICTIONARY
  5
19
102
{ACAD_REACTORS
330
C
102
}
100
AcDbDictionary
281
1
  0
DICTIONARY
  5
1A
102
{ACAD_REACTORS
330
C
102
}
100
AcDbDictionary
281
1
  3
Model
350
582
  3
Layout1
350
583
  0
ACDBPLACEHOLDER
  5
F
102
{ACAD_REACTORS
330
E
102
}
  0
MLINESTYLE
  5
18
102
{ACAD_REACTORS
330
17
102
}
100
AcDbMlineStyle
  2
STANDARD
 70
0
  3

 62
256
 51
90.0
 52
90.0
 71
2
 49
0.5
 62
256
  6
BYLAYER
 49
-0.5
 62
256
  6
BYLAYER
  0
LAYOUT
  5
582
102
{ACAD_REACTORS
330
1A
102
}
100
AcDbPlotSettings
  1

  2
none_device
  4
ISO_A4_(297.00_x_210.00_MM)
  6

 40
0.0
 41
0.0
 42
0.0
 43
0.0
 44
297.0
 45
210.0
 46
0.0
 47
0.0
 48
0.0
 49
0.0
140
0.0
141
0.0
142
1.0
143
1.0
 70
1024
 72
1
 73
0
 74
0
  7

 75
0
147
1.0
148
0.0
149
0.0
100
AcDbLayout
  1
Model
 70
0
 71
0
 10
0.0
 20
0.0
 11
297.0
 21
210.0
 12
0.0
 22
0.0
 32
0.0
 14
0.0
 24
0.0
 34
0.0
 15
0.0
 25
0.0
 35
0.0
146
0.0
 13
0.0
 23
0.0
 33
0.0
 16
1.0
 26
0.0
 36
0.0
 17
0.0
 27
1.0
 37
0.0
 76
0
330
213
345
0
346
0
  0
LAYOUT
  5
583
102
{ACAD_REACTORS
330
1A
102
}
100
AcDbPlotSettings
  1

  2
none_device
  4
ISO_A4_(297.00_x_210.00_MM)
  6

 40
0.0
 41
0.0
 42
0.0
 43
0.0
 44
297.0
 45
210.0
 46
0.0
 47
0.0
 48
0.0
 49
0.0
140
0.0
141
0.0
142
1.0
143
1.0
 70
0
 72
1
 73
0
 74
0
  7

 75
0
147
1.0
148
0.0
149
0.0
100
AcDbLayout
  1
Layout1
 70
0
 71
1
 10
0.0
 20
0.0
 11
297.0
 21
210.0
 12
0.0
 22
0.0
 32
0.0
 14
0.0
 24
0.0
 34
0.0
 15
0.0
 25
0.0
 35
0.0
146
0.0
 13
0.0
 23
0.0
 33
0.0
 16
1.0
 26
0.0
 36
0.0
 17
0.0
 27
1.0
 37
0.0
 76
0
330
214
345
0
346
0
  0
ENDSEC
  0
EOF
