  0
SECTION
  2
HEADER
  9
$ACADVER
  1
AC1024
  9
$DWGCODEPAGE
  3
ANSI_1252
  9
$EXTMAX
 10
297.0
 20
210.0
 30
0.0
  9
$EXTMIN
 10
0.0
 20
0.0
 30
0.0
  9
$LIMMIN
 10
0.0
 20
0.0
  9
$LIMMAX
 10
297.0
 20
210.0
  9
$VIEWCTR
 10
148.5
 20
105.0
  9
$VIEWSIZE
 40
210.0
  9
$CLAYER
  8
0
  9
$LTSCALE
 40
16.335
  9
$CELTYPE
  6
BYLAYER
  9
$DIMSCALE
 40
1.0
  9
$DIMASZ
 40
3.0
  9
$DIMEXO
 40
0.5
  9
$DIMDLI
 40
11.286
  9
$DIMEXE
 40
1.5
  9
$DIMCEN
 40
2.673
  9
$DIMLFAC
 40
1.0
  9
$DIMBLK
  1
_FILLED
  9
$DIMALT
 70
0
  9
$DIMALTF
 40
0.0393700787
  9
$DIMTXT
 40
3.0
  9
$DIMTOL
 70
1
  9
$DIMLIM
 70
0
  9
$DIMTFAC
 40
1.0
  9
$DIMTP
 40
0.01
  9
$DIMTM
 40
0.01
  9
$DIMGAP
 40
0.625
  9
$DIMDSEP
 70
44
  9
$AUNITS
 70
0
  9
$PDMODE
 70
3
  9
$PDSIZE
 40
3.0
  9
$HANDSEED
  5
4CA
  9
$TILEMODE
 70
1
  9
$MEASUREMENT
 70
1
  9
$INSUNITS
 70
4
  0
ENDSEC
  0
SECTION
  2
CLASSES
  0
CLASS
  1
ACDBDICTIONARYWDFLT
  2
AcDbDictionaryWithDefault
  3
AutoCAD 2000
 90
0
 91
1
280
0
281
0
  0
CLASS
  1
ACDBPLACEHOLDER
  2
AcDbPlaceHolder
  3
AutoCAD 2000
 90
0
 91
1
280
0
281
0
  0
CLASS
  1
LAYOUT
  2
AcDbLayout
  3
AutoCAD 2000
 90
0
 91
0
280
0
281
0
  0
ENDSEC
  0
SECTION
  2
TABLES
  0
TABLE
  2
VPORT
  5
8
100
AcDbSymbolTable
 70
2
  0
VPORT
  5
1F4
100
AcDbSymbolTableRecord
100
AcDbViewportTableRecord
  2
*ACTIVE
 70
0
 10
0.0
 20
0.0
 11
1.0
 21
1.0
 12
148.5
 22
105.0
 13
0.0
 23
0.0
 14
1.0
 24
1.0
 15
0.0
 25
0.0
 16
0.0
 26
0.0
 36
1.0
 17
0.0
 27
0.0
 37
0.0
 40
210.0
 41
1.4142857143
 42
50.0
 43
0.0
 44
0.0
 50
0.0
 51
0.0
 71
0
 72
100
 73
1
 74
1
 75
0
 76
0
 77
0
 78
0
  0
ENDTAB
  0
TABLE
  2
LTYPE
  5
5
100
AcDbSymbolTable
 70
6
  0
LTYPE
  5
14
100
AcDbSymbolTableRecord
100
AcDbLinetypeTableRecord
  2
BYBLOCK
 70
0
  3

 72
65
 73
0
 40
0.0
  0
LTYPE
  5
15
100
AcDbSymbolTableRecord
100
AcDbLinetypeTableRecord
  2
BYLAYER
 70
0
  3

 72
65
 73
0
 40
0.0
  0
LTYPE
  5
16
100
AcDbSymbolTableRecord
100
AcDbLinetypeTableRecord
  2
CONTINUOUS
 70
64
  3
Solid line
 72
65
 73
0
 40
0.0
  0
LTYPE
  5
1F5
100
AcDbSymbolTableRecord
100
AcDbLinetypeTableRecord
  2
CENTER
 70
64
  3
____ _ ____ _ ____ _ ____ _ ____ _ ____ _ ____
 72
65
 73
4
 40
0.6
 49
0.375
 74
0
 49
-0.075
 74
0
 49
0.075
 74
0
 49
-0.075
 74
0
  0
LTYPE
  5
1F6
100
AcDbSymbolTableRecord
100
AcDbLinetypeTableRecord
  2
HIDDEN
 70
64
  3
- - - - - - - - - - - - - - - - - - - -
 72
65
 73
2
 40
0.2
 49
0.1
 74
0
 49
-0.1
 74
0
  0
LTYPE
  5
1F7
100
AcDbSymbolTableRecord
100
AcDbLinetypeTableRecord
  2
PHANTOM
 70
64
  3
_____ _ _ _____ _ _ _____ _ _ _____
 72
65
 73
6
 40
0.8
 49
0.45
 74
0
 49
-0.05
 74
0
 49
0.1
 74
0
 49
-0.05
 74
0
 49
0.1
 74
0
 49
-0.05
 74
0
  0
LTYPE
  5
1F8
100
AcDbSymbolTableRecord
100
AcDbLinetypeTableRecord
  2
DOT
 70
64
  3
. . . . . . . . . . . . . . . . . . . .
 72
65
 73
2
 40
0.2
 49
0.1
 74
0
 49
-0.1
 74
0
  0
LTYPE
  5
1F9
100
AcDbSymbolTableRecord
100
AcDbLinetypeTableRecord
  2
DASHED
 70
64
  3
- - - - - - - - - - - - - - - - - - - -
 72
65
 73
2
 40
0.2
 49
0.1
 74
0
 49
-0.1
 74
0
  0
ENDTAB
  0
TABLE
  2
LAYER
  5
2
100
AcDbSymbolTable
 70
36
  0
LAYER
  5
10
100
AcDbSymbolTableRecord
100
AcDbLayerTableRecord
  2
0
 70
0
 62
7
  6
CONTINUOUS
370
-3
390
F
  0
LAYER
  5
1FA
100
AcDbSymbolTableRecord
100
AcDbLayerTableRecord
  2
DEFAULT_1
 70
0
 62
7
  6
CENTER
370
-3
390
F
  0
LAYER
  5
1FB
100
AcDbSymbolTableRecord
100
AcDbLayerTableRecord
  2
DEFAULT_2
 70
0
 62
7
  6
HIDDEN
370
-3
390
F
  0
LAYER
  5
1FC
100
AcDbSymbolTableRecord
100
AcDbLayerTableRecord
  2
DEFAULT_3
 70
0
 62
7
  6
PHANTOM
370
-3
390
F
  0
LAYER
  5
1FD
100
AcDbSymbolTableRecord
100
AcDbLayerTableRecord
  2
ASSI
 70
0
 62
7
  6
CONTINUOUS
370
-3
390
F
  0
LAYER
  5
1FE
100
AcDbSymbolTableRecord
100
AcDbLayerTableRecord
  2
COORDINATE
 70
0
 62
7
  6
CONTINUOUS
370
-3
390
F
  0
LAYER
  5
1FF
100
AcDbSymbolTableRecord
100
AcDbLayerTableRecord
  2
COORD_ORIGINE
 70
0
 62
7
  6
CONTINUOUS
370
-3
390
F
  0
LAYER
  5
200
100
AcDbSymbolTableRecord
100
AcDbLayerTableRecord
  2
COPY_PUBLISH
 70
0
 62
7
  6
CONTINUOUS
370
-3
390
F
  0
LAYER
  5
201
100
AcDbSymbolTableRecord
100
AcDbLayerTableRecord
  2
COSMETICI
 70
0
 62
7
  6
CONTINUOUS
370
-3
390
F
  0
LAYER
  5
202
100
AcDbSymbolTableRecord
100
AcDbLayerTableRecord
  2
CURVE
 70
0
 62
7
  6
CONTINUOUS
370
-3
390
F
  0
LAYER
  5
203
100
AcDbSymbolTableRecord
100
AcDbLayerTableRecord
  2
DRAFT
 70
0
 62
7
  6
CONTINUOUS
370
-3
390
F
  0
LAYER
  5
204
100
AcDbSymbolTableRecord
100
AcDbLayerTableRecord
  2
IGES
 70
0
 62
7
  6
CONTINUOUS
370
-3
390
F
  0
LAYER
  5
205
100
AcDbSymbolTableRecord
100
AcDbLayerTableRecord
  2
IMPORT_IGES
 70
0
 62
7
  6
CONTINUOUS
370
-3
390
F
  0
LAYER
  5
206
100
AcDbSymbolTableRecord
100
AcDbLayerTableRecord
  2
INTF_1
 70
0
 62
7
  6
CONTINUOUS
370
-3
390
F
  0
LAYER
  5
207
100
AcDbSymbolTableRecord
100
AcDbLayerTableRecord
  2
INTF_5
 70
0
 62
7
  6
CONTINUOUS
370
-3
390
F
  0
LAYER
  5
208
100
AcDbSymbolTableRecord
100
AcDbLayerTableRecord
  2
NOTE
 70
0
 62
7
  6
CONTINUOUS
370
-3
390
F
  0
LAYER
  5
209
100
AcDbSymbolTableRecord
100
AcDbLayerTableRecord
  2
PIANI
 70
0
 62
7
  6
CONTINUOUS
370
-3
390
F
  0
LAYER
  5
20A
100
AcDbSymbolTableRecord
100
AcDbLayerTableRecord
  2
PIANI_ORIGINE
 70
0
 62
7
  6
CONTINUOUS
370
-3
390
F
  0
LAYER
  5
20B
100
AcDbSymbolTableRecord
100
AcDbLayerTableRecord
  2
PIANI_RIFERIMENTO
 70
0
 62
7
  6
CONTINUOUS
370
-3
390
F
  0
LAYER
  5
20C
100
AcDbSymbolTableRecord
100
AcDbLayerTableRecord
  2
PUNTI
 70
0
 62
7
  6
CONTINUOUS
370
-3
390
F
  0
LAYER
  5
20D
100
AcDbSymbolTableRecord
100
AcDbLayerTableRecord
  2
RACCORDO
 70
0
 62
7
  6
CONTINUOUS
370
-3
390
F
  0
LAYER
  5
20E
100
AcDbSymbolTableRecord
100
AcDbLayerTableRecord
  2
RGB____0____0____0__
 70
0
 62
7
  6
CONTINUOUS
370
-3
390
F
  0
LAYER
  5
20F
100
AcDbSymbolTableRecord
100
AcDbLayerTableRecord
  2
SIMBOLI
 70
0
 62
7
  6
CONTINUOUS
370
-3
390
F
  0
LAYER
  5
210
100
AcDbSymbolTableRecord
100
AcDbLayerTableRecord
  2
SMUSSO
 70
0
 62
7
  6
CONTINUOUS
370
-3
390
F
  0
LAYER
  5
211
100
AcDbSymbolTableRecord
100
AcDbLayerTableRecord
  2
SNAPLINE
 70
0
 62
7
  6
CONTINUOUS
370
-3
390
F
  0
LAYER
  5
212
100
AcDbSymbolTableRecord
100
AcDbLayerTableRecord
  2
SUPERFICI
 70
0
 62
7
  6
CONTINUOUS
370
-3
390
F
  0
LAYER
  5
213
100
AcDbSymbolTableRecord
100
AcDbLayerTableRecord
  2
TRASH
 70
0
 62
7
  6
CONTINUOUS
370
-3
390
F
  0
ENDTAB
  0
TABLE
  2
STYLE
  5
3
100
AcDbSymbolTable
 70
1
  0
STYLE
  5
11
100
AcDbSymbolTableRecord
100
AcDbTextStyleTableRecord
  2
STANDARD
 70
0
 40
0.0
 41
0.8
 50
0.0
 71
0
 42
0.2
  3
txt
  4

  0
STYLE
  5
214
100
AcDbSymbolTableRecord
100
AcDbTextStyleTableRecord
  2
TEXTSTYLE_1
 70
0
 40
0.0
 41
0.8
 50
0.0
 71
0
 42
0.2
  3
gdt
  4

  0
ENDTAB
  0
TABLE
  2
VIEW
  5
6
100
AcDbSymbolTable
 70
0
  0
ENDTAB
  0
TABLE
  2
UCS
  5
7
100
AcDbSymbolTable
 70
0
  0
ENDTAB
  0
TABLE
  2
APPID
  5
9
100
AcDbSymbolTable
 70
1
  0
APPID
  5
215
100
AcDbSymbolTableRecord
100
AcDbRegAppTableRecord
  2
ACAD
 70
0
  0
ENDTAB
  0
TABLE
  2
BLOCK_RECORD
  5
1
100
AcDbSymbolTable
 70
0
  0
BLOCK_RECORD
  5
216
100
AcDbSymbolTableRecord
100
AcDbBlockTableRecord
  2
*Model_Space
  0
BLOCK_RECORD
  5
217
100
AcDbSymbolTableRecord
100
AcDbBlockTableRecord
  2
*Paper_Space
  0
BLOCK_RECORD
  5
218
100
AcDbSymbolTableRecord
100
AcDbBlockTableRecord
  2
_FILLED
  0
BLOCK_RECORD
  5
219
100
AcDbSymbolTableRecord
100
AcDbBlockTableRecord
  2
*D0
  0
BLOCK_RECORD
  5
21A
100
AcDbSymbolTableRecord
100
AcDbBlockTableRecord
  2
*D1
  0
BLOCK_RECORD
  5
21B
100
AcDbSymbolTableRecord
100
AcDbBlockTableRecord
  2
*D2
  0
BLOCK_RECORD
  5
21C
100
AcDbSymbolTableRecord
100
AcDbBlockTableRecord
  2
*D3
  0
ENDTAB
  0
TABLE
  2
DIMSTYLE
  5
A
100
AcDbSymbolTable
 70
1
100
AcDbDimStyleTable
 71
0
  0
DIMSTYLE
105
21D
100
AcDbSymbolTableRecord
100
AcDbDimStyleTableRecord
  2
STANDARD
 70
0
  3

  4

 40
1.0
 41
3.0
 42
0.5
 43
0.38
 44
1.5
 45
0.0
 46
0.0
 47
0.01
 48
0.01
140
3.0
141
0.09
142
0.0
143
25.4
144
1.0
145
0.0
146
1.0
147
0.625
 71
1
 72
0
 73
0
 74
0
 75
0
 76
0
 77
1
 78
8
 79
2
170
0
171
1
172
0
173
0
174
0
175
0
176
0
177
0
178
0
270
2
179
2
271
2
272
2
273
2
274
2
275
0
280
0
281
0
282
0
283
1
284
8
285
0
286
0
287
3
288
0
340
11
278
44
341
218
342
218
343
218
344
218
  0
DIMSTYLE
105
21E
100
AcDbSymbolTableRecord
100
AcDbDimStyleTableRecord
  2
DIMSTYLE_1
 70
0
  3

  4

 40
1.0
 41
3.0
 42
0.5
 43
0.38
 44
1.5
 45
0.0
 46
0.0
 47
0.0
 48
0.0
140
3.0
141
0.09
142
0.0
143
25.4
144
1.0
145
0.0
146
1.0
147
0.75
 71
0
 72
0
 73
0
 74
0
 75
0
 76
0
 77
1
 78
8
 79
2
170
0
171
1
172
0
173
0
174
0
175
0
176
0
177
0
178
0
270
2
179
2
271
2
272
2
273
2
274
2
275
0
280
0
281
0
282
0
283
1
284
8
285
0
286
0
287
3
288
0
340
11
278
44
341
218
342
218
343
218
344
218
  0
DIMSTYLE
105
21F
100
AcDbSymbolTableRecord
100
AcDbDimStyleTableRecord
  2
DIMSTYLE_2
 70
0
  3

  4

 40
1.0
 41
3.0
 42
0.5
 43
0.38
 44
1.5
 45
0.0
 46
0.0
 47
0.0
 48
0.0
140
3.0
141
0.09
142
0.0
143
25.4
144
1.0
145
0.0
146
1.0
147
0.75
 71
0
 72
0
 73
0
 74
0
 75
0
 76
0
 77
1
 78
8
 79
2
170
0
171
1
172
0
173
0
174
0
175
0
176
0
177
0
178
0
270
2
179
2
271
1
272
1
273
2
274
2
275
0
280
0
281
0
282
0
283
1
284
8
285
0
286
0
287
3
288
0
340
11
278
44
341
218
342
218
343
218
344
218
  0
ENDTAB
  0
ENDSEC
  0
SECTION
  2
BLOCKS
  0
BLOCK
  5
20
100
AcDbEntity
  8
0
100
AcDbBlockBegin
  2
*Model_Space
 70
0
 10
0.0
 20
0.0
 30
0.0
  3
*Model_Space
  1

  0
ENDBLK
  5
21
100
AcDbEntity
  8
0
100
AcDbBlockEnd
  0
BLOCK
  5
1C
100
AcDbEntity
  8
0
100
AcDbBlockBegin
  2
*Paper_Space
 70
0
 10
0.0
 20
0.0
 30
0.0
  3
*Paper_Space
  1

  0
ENDBLK
  5
1D
100
AcDbEntity
  8
0
100
AcDbBlockEnd
  0
BLOCK
  5
220
100
AcDbEntity
  8
0
100
AcDbBlockBegin
  2
_FILLED
 70
64
 10
0.0
 20
0.0
  3
_FILLED
  1

  0
SOLID
  5
221
100
AcDbEntity
  8
0
  6
BYBLOCK
 62
0
100
AcDbTrace
 10
0.0
 20
0.0
 11
-1.0
 21
0.3166666667
 12
-1.0
 22
-0.3166666667
 13
-1.0
 23
-0.3166666667
  0
ENDBLK
  5
222
100
AcDbEntity
  8
0
  6
BYBLOCK
 62
0
100
AcDbBlockEnd
  0
BLOCK
  5
223
100
AcDbEntity
  8
0
100
AcDbBlockBegin
 62
7
  6
CONTINUOUS
  2
*D0
 70
65
 10
0.0
 20
0.0
  3
*D0
  1

  0
MTEXT
  5
224
100
AcDbEntity
  8
0
100
AcDbMText
 62
7
  6
CONTINUOUS
  7
STANDARD
 71
2
 72
1
 10
99.100970953
 20
97.4124510444
 30
0.0
 11
1.0
 21
0.0
 31
0.0
 73
2
 44
0.9
  1
{\ftxt;\W0.0001;\H0.0001;\~}{\ftxt;\W3.6428571429;\H3.0; }{\ftxt;\W0.0001;\H0.0001;\~}
 40
3.0
 41
16.3928571429
  0
LINE
  5
225
100
AcDbEntity
  8
0
100
AcDbLine
 62
7
  6
CONTINUOUS
 10
76.775970953
 20
82.1961841297
 11
76.775970953
 21
95.1624510444
  0
LINE
  5
226
100
AcDbEntity
  8
0
100
AcDbLine
 62
7
  6
CONTINUOUS
 10
121.425970953
 20
83.544767499
 11
121.425970953
 21
95.1624510444
  0
LINE
  5
227
100
AcDbEntity
  8
0
100
AcDbLine
 62
7
  6
CONTINUOUS
 10
76.775970953
 20
93.6624510444
 11
99.100970953
 21
93.6624510444
  0
LINE
  5
228
100
AcDbEntity
  8
0
100
AcDbLine
 62
7
  6
CONTINUOUS
 10
121.425970953
 20
93.6624510444
 11
99.100970953
 21
93.6624510444
  0
INSERT
  5
229
100
AcDbEntity
  8
0
100
AcDbBlockReference
 62
7
  6
CONTINUOUS
  2
_FILLED
 10
76.775970953
 20
93.6624510444
 41
3.0
 42
3.0
 43
3.0
 50
180.0
  0
INSERT
  5
22A
100
AcDbEntity
  8
0
100
AcDbBlockReference
 62
7
  6
CONTINUOUS
  2
_FILLED
 10
121.425970953
 20
93.6624510444
 41
3.0
 42
3.0
 43
3.0
 50
0.0
  0
ENDBLK
  5
22B
100
AcDbEntity
  8
0
  6
BYBLOCK
 62
0
100
AcDbBlockEnd
  0
BLOCK
  5
22C
100
AcDbEntity
  8
0
100
AcDbBlockBegin
 62
7
  6
CONTINUOUS
  2
*D1
 70
65
 10
0.0
 20
0.0
  3
*D1
  1

  0
MTEXT
  5
22D
100
AcDbEntity
  8
0
100
AcDbMText
 62
7
  6
CONTINUOUS
  7
STANDARD
 71
2
 72
1
 10
125.675970953
 20
61.1624510444
 30
0.0
 11
0.0
 21
1.0
 31
0.0
 73
2
 44
0.9
  1
{\ftxt;\W0.0001;\H0.0001;\~}{\ftxt;\W1.5714285714;\H3.0; }{\ftxt;\W0.0001;\H0.0001;\~}
 40
3.0
 41
7.0714285714
  0
LINE
  5
22E
100
AcDbEntity
  8
0
100
AcDbLine
 62
7
  6
CONTINUOUS
 10
121.175970953
 20
85.6624510444
 11
130.925970953
 21
85.6624510444
  0
LINE
  5
22F
100
AcDbEntity
  8
0
100
AcDbLine
 62
7
  6
CONTINUOUS
 10
121.175970953
 20
36.6624510444
 11
130.925970953
 21
36.6624510444
  0
LINE
  5
230
100
AcDbEntity
  8
0
100
AcDbLine
 62
7
  6
CONTINUOUS
 10
129.425970953
 20
85.6624510444
 11
129.425970953
 21
61.1624510444
  0
LINE
  5
231
100
AcDbEntity
  8
0
100
AcDbLine
 62
7
  6
CONTINUOUS
 10
129.425970953
 20
36.6624510444
 11
129.425970953
 21
61.1624510444
  0
INSERT
  5
232
100
AcDbEntity
  8
0
100
AcDbBlockReference
 62
7
  6
CONTINUOUS
  2
_FILLED
 10
129.425970953
 20
85.6624510444
 41
3.0
 42
3.0
 43
3.0
 50
90.0
  0
INSERT
  5
233
100
AcDbEntity
  8
0
100
AcDbBlockReference
 62
7
  6
CONTINUOUS
  2
_FILLED
 10
129.425970953
 20
36.6624510444
 41
3.0
 42
3.0
 43
3.0
 50
270.0
  0
ENDBLK
  5
234
100
AcDbEntity
  8
0
  6
BYBLOCK
 62
0
100
AcDbBlockEnd
  0
BLOCK
  5
235
100
AcDbEntity
  8
0
100
AcDbBlockBegin
 62
7
  6
CONTINUOUS
  2
*D2
 70
65
 10
0.0
 20
0.0
  3
*D2
  1

  0
MTEXT
  5
236
100
AcDbEntity
  8
0
100
AcDbMText
 62
7
  6
CONTINUOUS
  7
STANDARD
 71
2
 72
1
 10
57.057004902
 20
97.4124510444
 30
0.0
 11
1.0
 21
0.0
 31
0.0
 73
2
 44
0.9
  1
{\ftxt;\W0.0001;\H0.0001;\~}{\ftxt;\W1.3571428571;\H3.0; }{\ftxt;\W0.0001;\H0.0001;\~}
 40
3.0
 41
6.1071428571
  0
LINE
  5
237
100
AcDbEntity
  8
0
100
AcDbLine
 62
7
  6
CONTINUOUS
 10
62.057004902
 20
82.5624510444
 11
62.057004902
 21
95.1624510444
  0
LINE
  5
238
100
AcDbEntity
  8
0
100
AcDbLine
 62
7
  6
CONTINUOUS
 10
52.057004902
 20
81.6881869757
 11
52.057004902
 21
95.1624510444
  0
LINE
  5
239
100
AcDbEntity
  8
0
100
AcDbLine
 62
7
  6
CONTINUOUS
 10
62.057004902
 20
93.6624510444
 11
66.057004902
 21
93.6624510444
  0
LINE
  5
23A
100
AcDbEntity
  8
0
100
AcDbLine
 62
7
  6
CONTINUOUS
 10
66.057004902
 20
93.6624510444
 11
57.057004902
 21
93.6624510444
  0
LINE
  5
23B
100
AcDbEntity
  8
0
100
AcDbLine
 62
7
  6
CONTINUOUS
 10
52.057004902
 20
93.6624510444
 11
48.057004902
 21
93.6624510444
  0
LINE
  5
23C
100
AcDbEntity
  8
0
100
AcDbLine
 62
7
  6
CONTINUOUS
 10
48.057004902
 20
93.6624510444
 11
57.057004902
 21
93.6624510444
  0
INSERT
  5
23D
100
AcDbEntity
  8
0
100
AcDbBlockReference
 62
7
  6
CONTINUOUS
  2
_FILLED
 10
62.057004902
 20
93.6624510444
 41
3.0
 42
3.0
 43
3.0
 50
180.0
  0
INSERT
  5
23E
100
AcDbEntity
  8
0
100
AcDbBlockReference
 62
7
  6
CONTINUOUS
  2
_FILLED
 10
52.057004902
 20
93.6624510444
 41
3.0
 42
3.0
 43
3.0
  0
ENDBLK
  5
23F
100
AcDbEntity
  8
0
  6
BYBLOCK
 62
0
100
AcDbBlockEnd
  0
BLOCK
  5
240
100
AcDbEntity
  8
0
100
AcDbBlockBegin
 62
7
  6
CONTINUOUS
  2
*D3
 70
65
 10
0.0
 20
0.0
  3
*D3
  1

  0
MTEXT
  5
241
100
AcDbEntity
  8
0
100
AcDbMText
 62
7
  6
CONTINUOUS
  7
STANDARD
 71
2
 72
1
 10
49.7008440761
 20
107.4124510444
 30
0.0
 11
1.0
 21
0.0
 31
0.0
 73
2
 44
0.9
  1
{\ftxt;\W0.0001;\H0.0001;\~}{\ftxt;\W2.9285714286;\H3.0; }{\ftxt;\W0.0001;\H0.0001;\~}
 40
3.0
 41
13.1785714286
  0
LINE
  5
242
100
AcDbEntity
  8
0
100
AcDbLine
 62
7
  6
CONTINUOUS
 10
37.3446832502
 20
41.8498714379
 11
37.3446832502
 21
105.1624510444
  0
LINE
  5
243
100
AcDbEntity
  8
0
100
AcDbLine
 62
7
  6
CONTINUOUS
 10
62.057004902
 20
81.7497197223
 11
62.057004902
 21
105.1624510444
  0
LINE
  5
244
100
AcDbEntity
  8
0
100
AcDbLine
 62
7
  6
CONTINUOUS
 10
37.3446832502
 20
103.6624510444
 11
49.7008440761
 21
103.6624510444
  0
LINE
  5
245
100
AcDbEntity
  8
0
100
AcDbLine
 62
7
  6
CONTINUOUS
 10
62.057004902
 20
103.6624510444
 11
49.7008440761
 21
103.6624510444
  0
INSERT
  5
246
100
AcDbEntity
  8
0
100
AcDbBlockReference
 62
7
  6
CONTINUOUS
  2
_FILLED
 10
37.3446832502
 20
103.6624510444
 41
3.0
 42
3.0
 43
3.0
 50
180.0
  0
INSERT
  5
247
100
AcDbEntity
  8
0
100
AcDbBlockReference
 62
7
  6
CONTINUOUS
  2
_FILLED
 10
62.057004902
 20
103.6624510444
 41
3.0
 42
3.0
 43
3.0
  0
ENDBLK
  5
248
100
AcDbEntity
  8
0
  6
BYBLOCK
 62
0
100
AcDbBlockEnd
  0
ENDSEC
  0
SECTION
  2
ENTITIES
  0
DIMENSION
  5
249
100
AcDbEntity
  8
0
100
AcDbDimension
 62
7
  6
CONTINUOUS
  2
*D0
 10
121.425970953
 20
93.6624510444
 11
98.6723993683
 21
93.6624510444
 70
160
 71
2
 72
2
 41
0.9
 42
44.65
  1
{\ftxt;\W0.0001;\H0.0001;\~}{\ftxt;\W3.6428571429;\H3.0; }{\ftxt;\W0.0001;\H0.0001;\~}
  3
DIMSTYLE_1
100
AcDbAlignedDimension
 13
76.775970953
 23
81.6961841297
 14
121.425970953
 24
83.044767499
100
AcDbRotatedDimension
  0
DIMENSION
  5
24A
100
AcDbEntity
  8
0
100
AcDbDimension
 62
7
  6
CONTINUOUS
  2
*D1
 10
129.425970953
 20
36.6624510444
 11
129.425970953
 21
60.7338817594
 70
160
 71
2
 72
2
 41
0.9
 42
49.0
  1
{\ftxt;\W0.0001;\H0.0001;\~}{\ftxt;\W1.5714285714;\H3.0; }{\ftxt;\W0.0001;\H0.0001;\~}
  3
DIMSTYLE_1
100
AcDbAlignedDimension
 13
120.675970953
 23
85.6624510444
 14
120.675970953
 24
36.6624510444
 50
270.0
100
AcDbRotatedDimension
  0
DIMENSION
  5
24B
100
AcDbEntity
  8
0
100
AcDbDimension
 62
7
  6
CONTINUOUS
  2
*D2
 10
52.057004902
 20
93.6624510444
 11
56.6284320374
 21
93.6624510444
 70
160
 71
2
 72
2
 41
0.9
 42
10.0
  1
{\ftxt;\W0.0001;\H0.0001;\~}{\ftxt;\W1.3571428571;\H3.0; }{\ftxt;\W0.0001;\H0.0001;\~}
  3
DIMSTYLE_1
100
AcDbAlignedDimension
 13
62.057004902
 23
82.0624510444
 14
52.057004902
 24
81.1881869757
 50
180.0
100
AcDbRotatedDimension
  0
DIMENSION
  5
24C
100
AcDbEntity
  8
0
100
AcDbDimension
 62
7
  6
CONTINUOUS
  2
*D3
 10
62.057004902
 20
103.6624510444
 11
49.2722709961
 21
103.6624510444
 70
160
 71
2
 72
2
 41
0.9
 42
24.7123216517
  1
{\ftxt;\W0.0001;\H0.0001;\~}{\ftxt;\W2.9285714286;\H3.0; }{\ftxt;\W0.0001;\H0.0001;\~}
  3
DIMSTYLE_2
100
AcDbAlignedDimension
 13
37.3446832502
 23
41.3498714379
 14
62.057004902
 24
81.2497197223
100
AcDbRotatedDimension
  0
LINE
  5
24D
100
AcDbEntity
  8
0
100
AcDbLine
 62
7
  6
CONTINUOUS
 10
76.9464779014
 20
82.5232744289
 11
76.7962491707
 21
81.8738024354
  0
LINE
  5
24E
100
AcDbEntity
  8
0
100
AcDbLine
 62
250
  6
CONTINUOUS
 10
76.9261727147
 20
82.3455395305
 11
76.775970953
 21
81.6961841297
  0
LWPOLYLINE
  5
24F
100
AcDbEntity
  8
0
100
AcDbPolyline
 62
250
  6
CONTINUOUS
 90
16
 70
0
 10
76.9443004639
 20
81.7824003872
 10
76.9506847165
 20
81.7979351959
 10
76.9654744403
 20
81.8132783971
 10
76.988512977
 20
81.8282674274
 10
77.0195562713
 20
81.842743474
 10
77.0582754532
 20
81.856553159
 10
77.1042603192
 20
81.8695501652
 10
77.1570236866
 20
81.8815967851
 10
77.2160065449
 20
81.8925653765
 10
77.2805839693
 20
81.9023397177
 10
77.3500717692
 20
81.9108162417
 10
77.4237337174
 20
81.9179051331
 10
77.5007893312
 20
81.9235312797
 10
77.5804221813
 20
81.9276350675
 10
77.661788546
 20
81.9301730112
 10
77.7440263238
 20
81.9311182161
  0
LWPOLYLINE
  5
250
100
AcDbEntity
  8
0
100
AcDbPolyline
 62
7
  6
CONTINUOUS
 90
10
 70
0
 43
0.3500000006
 10
101.1366845398
 20
97.4124512329
 10
100.4938310852
 20
96.7695977783
 10
100.0652530518
 20
95.9124507751
 10
100.0652530518
 20
94.8410192871
 10
100.4938310852
 20
94.4124503174
 10
101.1366845398
 20
94.4124503174
 10
101.5652535095
 20
94.8410192871
 10
101.5652535095
 20
95.6981662903
 10
101.1366845398
 20
96.12673526
 10
100.2081154175
 20
96.12673526
  0
LINE
  5
251
100
AcDbEntity
  8
RACCORDO
100
AcDbLine
 62
7
  6
CONTINUOUS
 10
120.675970953
 20
36.6624510444
 11
118.775970953
 21
36.6624510444
  0
LINE
  5
252
100
AcDbEntity
  8
RACCORDO
100
AcDbLine
 62
7
  6
CONTINUOUS
 10
101.775970953
 20
36.6624510444
 11
99.875970953
 21
36.6624510444
  0
LINE
  5
253
100
AcDbEntity
  8
RACCORDO
100
AcDbLine
 62
250
  6
CONTINUOUS
 10
99.625970953
 20
36.9124510444
 11
102.025970953
 21
36.9124510444
  0
LINE
  5
254
100
AcDbEntity
  8
RACCORDO
100
AcDbLine
 62
250
  6
CONTINUOUS
 10
118.525970953
 20
36.9124510444
 11
120.925970953
 21
36.9124510444
  0
LWPOLYLINE
  5
255
100
AcDbEntity
  8
0
100
AcDbPolyline
 62
250
  6
CONTINUOUS
 90
16
 70
0
 10
76.9261727147
 20
40.6584121689
 10
76.9305714279
 20
40.5755036107
 10
76.9436812316
 20
40.4934750514
 10
76.9653585775
 20
40.4132249432
 10
76.9953660778
 20
40.3356322635
 10
77.0333751012
 20
40.2615468952
 10
77.0789693693
 20
40.1917803164
 10
77.1316495244
 20
40.1270966969
 10
77.1908385885
 20
40.0682045448
 10
77.2558882722
 20
40.0157489479
 10
77.326086105
 20
39.9703044793
 10
77.4006632184
 20
39.9323689261
 10
77.4788027453
 20
39.9023578395
 10
77.5596488101
 20
39.8805999586
 10
77.6423159083
 20
39.8673336187
 10
77.7258985757
 20
39.8627041509
  0
LINE
  5
256
100
AcDbEntity
  8
0
100
AcDbLine
 62
250
  6
CONTINUOUS
 10
76.9427858839
 20
82.0084808647
 11
76.9416352887
 21
82.0860922008
  0
LINE
  5
257
100
AcDbEntity
  8
0
100
AcDbLine
 62
250
  6
CONTINUOUS
 10
76.9436304143
 20
81.9238578477
 11
76.9427858839
 21
82.0084808647
  0
LINE
  5
258
100
AcDbEntity
  8
0
100
AcDbLine
 62
250
  6
CONTINUOUS
 10
76.9443004638
 20
81.7824004043
 11
76.9436304143
 21
81.9238578477
  0
LINE
  5
259
100
AcDbEntity
  8
0
100
AcDbLine
 62
250
  6
CONTINUOUS
 10
76.95507132
 20
74.4003656024
 11
76.9443004638
 21
81.7824004043
  0
LINE
  5
25A
100
AcDbEntity
  8
0
100
AcDbLine
 62
250
  6
CONTINUOUS
 10
76.9610305406
 20
67.4127046099
 11
76.95507132
 21
74.4003656024
  0
LINE
  5
25B
100
AcDbEntity
  8
0
100
AcDbLine
 62
7
  6
CONTINUOUS
 10
76.775970953
 20
39.9096888329
 11
76.775970953
 21
81.6961841297
  0
LINE
  5
25C
100
AcDbEntity
  8
0
100
AcDbLine
 62
250
  6
CONTINUOUS
 10
76.9624033839
 20
60.7705146854
 11
76.9610305406
 21
67.4127046099
  0
LINE
  5
25D
100
AcDbEntity
  8
0
100
AcDbLine
 62
250
  6
CONTINUOUS
 10
76.9600656142
 20
54.3115646057
 11
76.9624033839
 21
60.7705146854
  0
LINE
  5
25E
100
AcDbEntity
  8
0
100
AcDbLine
 62
250
  6
CONTINUOUS
 10
76.954018673
 20
47.8681777399
 11
76.9600656142
 21
54.3115646057
  0
LINE
  5
25F
100
AcDbEntity
  8
0
100
AcDbLine
 62
250
  6
CONTINUOUS
 10
76.94386593
 20
41.2792210748
 11
76.954018673
 21
47.8681777399
  0
LINE
  5
260
100
AcDbEntity
  8
0
100
AcDbLine
 62
250
  6
CONTINUOUS
 10
76.9430346493
 20
41.1738722558
 11
76.94386593
 21
41.2792210748
  0
LINE
  5
261
100
AcDbEntity
  8
0
100
AcDbLine
 62
250
  6
CONTINUOUS
 10
76.9411295232
 20
41.029667143
 11
76.9430346493
 21
41.1738722558
  0
LWPOLYLINE
  5
262
100
AcDbEntity
  8
0
100
AcDbPolyline
 62
250
  6
CONTINUOUS
 90
4
 70
0
 10
76.9261727147
 20
82.3455395305
 10
76.9305715166
 20
82.4285986878
 10
76.9436815563
 20
82.5107201423
 10
76.9464779014
 20
82.5232744289
  0
LINE
  5
263
100
AcDbEntity
  8
RACCORDO
100
AcDbLine
 62
250
  6
CONTINUOUS
 10
99.613826609
 20
38.7317823689
 11
99.5719952946
 21
38.7294985468
  0
LWPOLYLINE
  5
264
100
AcDbEntity
  8
RACCORDO
100
AcDbPolyline
 62
250
  6
CONTINUOUS
 90
3
 70
0
 10
99.5719952946
 20
38.7294985468
 10
99.5512317378
 20
38.7285176205
 10
99.5418705943
 20
38.7281378124
  0
LWPOLYLINE
  5
265
100
AcDbEntity
  8
RACCORDO
100
AcDbPolyline
 62
250
  6
CONTINUOUS
 90
4
 70
0
 10
120.877823773
 20
38.5359666604
 10
120.8614261671
 20
38.5353362483
 10
120.8430740356
 20
38.5347574887
 10
120.8229014865
 20
38.53424639
  0
LWPOLYLINE
  5
266
100
AcDbEntity
  8
RACCORDO
100
AcDbPolyline
 62
250
  6
CONTINUOUS
 90
4
 70
0
 10
101.977823773
 20
38.5359666604
 10
101.9614261671
 20
38.5353362483
 10
101.9430740356
 20
38.5347574887
 10
101.9229014865
 20
38.53424639
  0
LWPOLYLINE
  5
267
100
AcDbEntity
  8
RACCORDO
100
AcDbPolyline
 62
250
  6
CONTINUOUS
 90
11
 70
0
 10
99.5418705943
 20
38.7281378124
 10
99.5333442108
 20
38.7278369164
 10
99.5256592916
 20
38.7276173281
 10
99.5188556232
 20
38.7274781446
 10
99.5129474629
 20
38.7274105024
 10
99.5078876813
 20
38.7274052777
 10
99.5036763835
 20
38.7274570061
 10
99.5002975712
 20
38.7275638852
 10
99.4977056026
 20
38.7277258273
 10
99.4958803886
 20
38.7279406999
 10
99.4948398195
 20
38.7281841565
  0
LINE
  5
268
100
AcDbEntity
  8
RACCORDO
100
AcDbLine
 62
250
  6
CONTINUOUS
 10
120.8229014865
 20
38.53424639
 11
120.7779333445
 21
38.5334293822
  0
LINE
  5
269
100
AcDbEntity
  8
RACCORDO
100
AcDbLine
 62
250
  6
CONTINUOUS
 10
101.9229014865
 20
38.53424639
 11
101.8779333445
 21
38.5334293822
  0
LINE
  5
26A
100
AcDbEntity
  8
RACCORDO
100
AcDbLine
 62
250
  6
CONTINUOUS
 10
120.7779333445
 20
38.5334293822
 11
120.7282705513
 21
38.5329253426
  0
LINE
  5
26B
100
AcDbEntity
  8
RACCORDO
100
AcDbLine
 62
250
  6
CONTINUOUS
 10
101.8779333445
 20
38.5334293822
 11
101.8282705513
 21
38.5329253426
  0
LINE
  5
26C
100
AcDbEntity
  8
RACCORDO
100
AcDbLine
 62
250
  6
CONTINUOUS
 10
120.7282705513
 20
38.5329253426
 11
120.675970953
 21
38.5327469684
  0
LINE
  5
26D
100
AcDbEntity
  8
RACCORDO
100
AcDbLine
 62
250
  6
CONTINUOUS
 10
101.8282705513
 20
38.5329253426
 11
101.775970953
 21
38.5327469684
  0
LINE
  5
26E
100
AcDbEntity
  8
RACCORDO
100
AcDbLine
 62
250
  6
CONTINUOUS
 10
99.625970953
 20
37.3181134771
 11
102.025970953
 21
37.3181134771
  0
LINE
  5
26F
100
AcDbEntity
  8
RACCORDO
100
AcDbLine
 62
250
  6
CONTINUOUS
 10
118.525970953
 20
37.3181134771
 11
120.925970953
 21
37.3181134771
  0
LINE
  5
270
100
AcDbEntity
  8
RACCORDO
100
AcDbLine
 62
7
  6
CONTINUOUS
 10
114.6788341916
 20
37.3624510444
 11
105.8731077144
 21
37.3624510444
  0
LINE
  5
271
100
AcDbEntity
  8
RACCORDO
100
AcDbLine
 62
250
  6
CONTINUOUS
 10
120.675970953
 20
37.534619828
 11
118.775970953
 21
37.534619828
  0
LINE
  5
272
100
AcDbEntity
  8
RACCORDO
100
AcDbLine
 62
250
  6
CONTINUOUS
 10
101.775970953
 20
37.534619828
 11
99.875970953
 21
37.534619828
  0
LINE
  5
273
100
AcDbEntity
  8
RACCORDO
100
AcDbLine
 62
250
  6
CONTINUOUS
 10
99.875970953
 20
37.9676325299
 11
101.775970953
 21
37.9676325299
  0
LINE
  5
274
100
AcDbEntity
  8
RACCORDO
100
AcDbLine
 62
250
  6
CONTINUOUS
 10
118.775970953
 20
37.9676325299
 11
120.675970953
 21
37.9676325299
  0
LINE
  5
275
100
AcDbEntity
  8
RACCORDO
100
AcDbLine
 62
250
  6
CONTINUOUS
 10
99.625970953
 20
38.1841388809
 11
102.025970953
 21
38.1841388809
  0
LINE
  5
276
100
AcDbEntity
  8
RACCORDO
100
AcDbLine
 62
250
  6
CONTINUOUS
 10
118.525970953
 20
38.1841388809
 11
120.925970953
 21
38.1841388809
  0
LINE
  5
277
100
AcDbEntity
  8
RACCORDO
100
AcDbLine
 62
7
  6
CONTINUOUS
 10
99.6785646283
 20
38.7275409145
 11
120.8733772778
 21
38.7275409145
  0
LINE
  5
278
100
AcDbEntity
  8
0
100
AcDbLine
 62
7
  6
CONTINUOUS
 10
77.5760623771
 20
39.115803068
 11
120.4758795289
 21
39.115803068
  0
LINE
  5
279
100
AcDbEntity
  8
DRAFT
100
AcDbLine
 62
7
  6
CONTINUOUS
 10
120.9309530991
 20
39.2576410798
 11
121.3736057582
 21
39.2576410798
  0
LINE
  5
27A
100
AcDbEntity
  8
DRAFT
100
AcDbLine
 62
7
  6
CONTINUOUS
 10
121.0289182443
 20
39.3374510444
 11
121.3849515504
 21
39.3374510444
  0
LINE
  5
27B
100
AcDbEntity
  8
RACCORDO
100
AcDbLine
 62
250
  6
CONTINUOUS
 10
101.775970953
 20
38.5327469684
 11
99.8496335965
 21
38.5327959763
  0
LINE
  5
27C
100
AcDbEntity
  8
RACCORDO
100
AcDbLine
 62
250
  6
CONTINUOUS
 10
120.675970953
 20
38.5327469684
 11
118.7496335965
 21
38.5327959763
  0
LINE
  5
27D
100
AcDbEntity
  8
RACCORDO
100
AcDbLine
 62
250
  6
CONTINUOUS
 10
99.8496335965
 20
38.5327959763
 11
99.7983671953
 21
38.5331350669
  0
LINE
  5
27E
100
AcDbEntity
  8
RACCORDO
100
AcDbLine
 62
250
  6
CONTINUOUS
 10
118.7496335965
 20
38.5327959763
 11
118.6983671953
 21
38.5331350669
  0
LWPOLYLINE
  5
27F
100
AcDbEntity
  8
RACCORDO
100
AcDbPolyline
 62
250
  6
CONTINUOUS
 90
12
 70
0
 10
99.7983671953
 20
38.5331350669
 10
99.7508342738
 20
38.5338040557
 10
99.7290404195
 20
38.53424639
 10
99.7088678704
 20
38.5347574886
 10
99.6905157389
 20
38.535336248
 10
99.674118133
 20
38.5359666601
 10
99.6598564533
 20
38.5366507993
 10
99.6479178933
 20
38.5373865913
 10
99.6384423159
 20
38.5381518052
 10
99.6315591897
 20
38.5389390308
 10
99.6273768484
 20
38.5397556782
 10
99.6259709718
 20
38.5405986092
  0
LWPOLYLINE
  5
280
100
AcDbEntity
  8
RACCORDO
100
AcDbPolyline
 62
250
  6
CONTINUOUS
 90
12
 70
0
 10
118.6983671953
 20
38.5331350669
 10
118.6508342738
 20
38.5338040557
 10
118.6290404195
 20
38.53424639
 10
118.6088678704
 20
38.5347574886
 10
118.5905157389
 20
38.535336248
 10
118.574118133
 20
38.5359666601
 10
118.5598564533
 20
38.5366507993
 10
118.5479178933
 20
38.5373865913
 10
118.5384423159
 20
38.5381518052
 10
118.5315591897
 20
38.5389390308
 10
118.5273768484
 20
38.5397556782
 10
118.5259709718
 20
38.5405986092
  0
LWPOLYLINE
  5
281
100
AcDbEntity
  8
0
100
AcDbPolyline
 62
250
  6
CONTINUOUS
 90
11
 70
0
 10
76.938512571
 20
82.2165599734
 10
76.9375700864
 20
82.2431042768
 10
76.9365547751
 20
82.2674339914
 10
76.9354695142
 20
82.2893328841
 10
76.9343162533
 20
82.3080905856
 10
76.9330882302
 20
82.3237559177
 10
76.931792207
 20
82.3362800585
 10
76.9304504202
 20
82.3448061737
 10
76.929070282
 20
82.3490486516
 10
76.9276443801
 20
82.3492931039
 10
76.9261727147
 20
82.3455395305
  0
LWPOLYLINE
  5
282
100
AcDbEntity
  8
0
100
AcDbPolyline
 62
250
  6
CONTINUOUS
 90
7
 70
0
 10
77.7351950231
 20
83.0171173525
 10
77.734041641
 20
83.0575971402
 10
77.7328141477
 20
83.091478563
 10
77.7315189448
 20
83.1179410103
 10
77.7301776266
 20
83.1362734041
 10
77.7287973912
 20
83.1459762393
 10
77.7279859556
 20
83.1474870975
  0
LINE
  5
283
100
AcDbEntity
  8
0
100
AcDbLine
 62
250
  6
CONTINUOUS
 10
76.9401943736
 20
82.1562405701
 11
76.938512571
 21
82.2165599734
  0
LINE
  5
284
100
AcDbEntity
  8
0
100
AcDbLine
 62
250
  6
CONTINUOUS
 10
77.7372962679
 20
82.9183407675
 11
77.7351950231
 21
83.0171173525
  0
LINE
  5
285
100
AcDbEntity
  8
0
100
AcDbLine
 62
250
  6
CONTINUOUS
 10
76.9416352887
 20
82.0860922008
 11
76.9401943736
 21
82.1562405701
  0
LINE
  5
286
100
AcDbEntity
  8
0
100
AcDbLine
 62
250
  6
CONTINUOUS
 10
77.7391108838
 20
82.7993235477
 11
77.7372962679
 21
82.9183407675
  0
LINE
  5
287
100
AcDbEntity
  8
0
100
AcDbLine
 62
250
  6
CONTINUOUS
 10
77.7413613013
 20
82.5820644397
 11
77.7391108838
 21
82.7993235477
  0
LINE
  5
288
100
AcDbEntity
  8
0
100
AcDbLine
 62
250
  6
CONTINUOUS
 10
77.7433559721
 20
82.2342412741
 11
77.7413613013
 21
82.5820644397
  0
LINE
  5
289
100
AcDbEntity
  8
0
100
AcDbLine
 62
250
  6
CONTINUOUS
 10
77.75479718
 20
74.5307810948
 11
77.7433559721
 21
82.2342412741
  0
LINE
  5
28A
100
AcDbEntity
  8
0
100
AcDbLine
 62
250
  6
CONTINUOUS
 10
77.7607564006
 20
67.5224359755
 11
77.75479718
 21
74.5307810948
  0
LINE
  5
28B
100
AcDbEntity
  8
0
100
AcDbLine
 62
250
  6
CONTINUOUS
 10
77.7621292439
 20
60.8630509505
 11
77.7607564006
 21
67.5224359755
  0
LINE
  5
28C
100
AcDbEntity
  8
0
100
AcDbLine
 62
250
  6
CONTINUOUS
 10
77.7597914741
 20
54.3868396805
 11
77.7621292439
 21
60.8630509505
  0
LINE
  5
28D
100
AcDbEntity
  8
0
100
AcDbLine
 62
250
  6
CONTINUOUS
 10
77.753744533
 20
47.9257133624
 11
77.7597914741
 21
54.3868396805
  0
LINE
  5
28E
100
AcDbEntity
  8
0
100
AcDbLine
 62
250
  6
CONTINUOUS
 10
77.7421950681
 20
40.8589050437
 11
77.753744533
 21
47.9257133624
  0
LINE
  5
28F
100
AcDbEntity
  8
0
100
AcDbLine
 62
250
  6
CONTINUOUS
 10
77.739255675
 20
40.4791070263
 11
77.7421950681
 21
40.8589050437
  0
LINE
  5
290
100
AcDbEntity
  8
0
100
AcDbLine
 62
250
  6
CONTINUOUS
 10
77.7364914909
 20
40.2513516276
 11
77.739255675
 21
40.4791070263
  0
LINE
  5
291
100
AcDbEntity
  8
0
100
AcDbLine
 62
250
  6
CONTINUOUS
 10
77.7343813316
 20
40.1232665918
 11
77.7364914909
 21
40.2513516276
  0
LINE
  5
292
100
AcDbEntity
  8
0
100
AcDbLine
 62
250
  6
CONTINUOUS
 10
76.939530097
 20
40.9460668456
 11
76.9411295232
 21
41.029667143
  0
LINE
  5
293
100
AcDbEntity
  8
0
100
AcDbLine
 62
250
  6
CONTINUOUS
 10
76.9377379497
 20
40.872845742
 11
76.939530097
 21
40.9460668456
  0
LWPOLYLINE
  5
294
100
AcDbEntity
  8
0
100
AcDbPolyline
 62
250
  6
CONTINUOUS
 90
7
 70
0
 10
77.7258985747
 20
39.8627041458
 10
77.7272178994
 20
39.8805020189
 10
77.7285007721
 20
39.9054208977
 10
77.7297471928
 20
39.9370361825
 10
77.7309560034
 20
39.9746948261
 10
77.732128362
 20
40.0180845036
 10
77.7343813316
 20
40.1232665918
  0
LWPOLYLINE
  5
295
100
AcDbEntity
  8
RACCORDO
100
AcDbPolyline
 62
7
  6
CONTINUOUS
 90
6
 70
0
 10
99.4948538061
 20
83.596724479
 10
99.5018606386
 20
83.5994253867
 10
99.512735801
 20
83.6042433792
 10
99.5239700116
 20
83.6100773558
 10
99.5351289022
 20
83.6168212485
 10
99.5460281893
 20
83.6244348209
  0
LWPOLYLINE
  5
296
100
AcDbEntity
  8
RACCORDO
100
AcDbPolyline
 62
7
  6
CONTINUOUS
 90
3
 70
0
 10
99.4948283642
 20
83.5967154809
 10
99.483780258
 20
83.5925498551
 10
99.4396351942
 20
83.5727975765
  0
LINE
  5
297
100
AcDbEntity
  8
0
100
AcDbLine
 62
250
  6
CONTINUOUS
 10
120.3260433313
 20
39.8627041458
 11
77.7258985747
 21
39.8627041458
  0
LINE
  5
298
100
AcDbEntity
  8
DRAFT
100
AcDbLine
 62
7
  6
CONTINUOUS
 10
121.275970953
 20
41.2088022958
 11
121.3849515504
 21
41.2088022958
  0
LWPOLYLINE
  5
299
100
AcDbEntity
  8
RACCORDO
100
AcDbPolyline
 62
250
  6
CONTINUOUS
 90
11
 70
0
 10
121.0102884474
 20
38.7281004753
 10
121.0187292381
 20
38.7278320945
 10
121.0263577922
 20
38.7276222962
 10
121.033118274
 20
38.7274683765
 10
121.0390797598
 20
38.7274009098
 10
121.0441831483
 20
38.7274006217
 10
121.0483906987
 20
38.7274508448
 10
121.051752242
 20
38.7275613231
 10
121.0543387468
 20
38.7277413742
 10
121.0561744688
 20
38.727975506
 10
121.0571875425
 20
38.7282152362
  0
LINE
  5
29A
100
AcDbEntity
  8
RACCORDO
100
AcDbLine
 62
250
  6
CONTINUOUS
 10
121.0012859406
 20
38.7284776428
 11
121.0102884474
 21
38.7281004753
  0
LINE
  5
29B
100
AcDbEntity
  8
RACCORDO
100
AcDbLine
 62
250
  6
CONTINUOUS
 10
120.981544492
 20
38.7294174475
 11
121.0012859406
 21
38.7284776428
  0
LINE
  5
29C
100
AcDbEntity
  8
RACCORDO
100
AcDbLine
 62
250
  6
CONTINUOUS
 10
120.9381131593
 20
38.7317821591
 11
120.981544492
 21
38.7294174475
  0
LINE
  5
29D
100
AcDbEntity
  8
RACCORDO
100
AcDbLine
 62
7
  6
CONTINUOUS
 10
99.4447066001
 20
38.7495725115
 11
99.48970781
 21
38.7300820233
  0
LWPOLYLINE
  5
29E
100
AcDbEntity
  8
0
100
AcDbPolyline
 62
250
  6
CONTINUOUS
 90
10
 70
0
 10
76.9261727147
 20
40.6584121689
 10
76.9274913851
 20
40.6670614241
 10
76.9287739027
 20
40.6786241861
 10
76.9300202674
 20
40.6931004547
 10
76.9312295133
 20
40.7105406269
 10
76.9324026062
 20
40.7308943058
 10
76.9335424444
 20
40.7540103011
 10
76.9346558762
 20
40.7799991674
 10
76.9357360531
 20
40.8087503501
 10
76.9377379497
 20
40.872845742
  0
LINE
  5
29F
100
AcDbEntity
  8
0
100
AcDbLine
 62
250
  6
CONTINUOUS
 10
76.775970953
 20
39.9096888329
 11
76.9261727147
 21
40.6584121689
  0
LWPOLYLINE
  5
2A0
100
AcDbEntity
  8
RACCORDO
100
AcDbPolyline
 62
7
  6
CONTINUOUS
 90
5
 70
0
 10
99.4396351942
 20
83.5727975765
 10
99.3976658145
 20
83.548914249
 10
99.3582505329
 20
83.521139752
 10
99.3217395409
 20
83.4897458417
 10
99.2884654209
 20
83.4550468953
  0
LWPOLYLINE
  5
2A1
100
AcDbEntity
  8
RACCORDO
100
AcDbPolyline
 62
7
  6
CONTINUOUS
 90
6
 70
0
 10
99.5448539791
 20
38.7013408202
 10
99.5333092415
 20
38.7092501
 10
99.5216726527
 20
38.7160931659
 10
99.5098750579
 20
38.7220033533
 10
99.4981885817
 20
38.7269317435
 10
99.48970781
 20
38.7300820233
  0
LINE
  5
2A2
100
AcDbEntity
  8
0
100
AcDbLine
 62
250
  6
CONTINUOUS
 10
77.5760623771
 20
39.115803068
 11
77.7258985747
 21
39.8627041458
  0
LWPOLYLINE
  5
2A3
100
AcDbEntity
  8
RACCORDO
100
AcDbPolyline
 62
7
  6
CONTINUOUS
 90
12
 70
0
 10
99.5460281893
 20
83.6244348209
 10
99.5566779605
 20
83.6330008624
 10
99.5669681535
 20
83.6425256786
 10
99.57679646
 20
83.6530153566
 10
99.586056419
 20
83.6644670066
 10
99.5946299778
 20
83.6768556273
 10
99.6024053893
 20
83.6901538764
 10
99.6092688541
 20
83.7043216456
 10
99.6151017104
 20
83.7192931183
 10
99.619793277
 20
83.7349993137
 10
99.6232357125
 20
83.7513574642
 10
99.6253244384
 20
83.7682577461
  0
LWPOLYLINE
  5
2A4
100
AcDbEntity
  8
0
100
AcDbPolyline
 62
7
  6
CONTINUOUS
 90
14
 70
0
 10
87.4509520074
 20
47.8844585183
 10
87.4063691024
 20
47.9009552977
 10
87.3628604883
 20
47.9193974478
 10
87.3205880775
 20
47.9397048038
 10
87.2793899576
 20
47.9619574737
 10
87.2392208707
 20
47.986192202
 10
87.2001367015
 20
48.0122646397
 10
87.1620815652
 20
48.0403190611
 10
87.1248425496
 20
48.0708251306
 10
87.0882646712
 20
48.1037400129
 10
87.0525029134
 20
48.1391064239
 10
87.0178093143
 20
48.1775223208
 10
86.9840400214
 20
48.2189260004
 10
86.9513388872
 20
48.2633789782
  0
LWPOLYLINE
  5
2A5
100
AcDbEntity
  8
RACCORDO
100
AcDbPolyline
 62
7
  6
CONTINUOUS
 90
4
 70
0
 10
99.3244142647
 20
38.8326454929
 10
99.3616780061
 20
38.8011181992
 10
99.4018978549
 20
38.7733335131
 10
99.4447066001
 20
38.7495725115
  0
LINE
  5
2A6
100
AcDbEntity
  8
RACCORDO
100
AcDbLine
 62
7
  6
CONTINUOUS
 10
99.2904551821
 20
38.867589209
 11
99.3244142647
 21
38.8326454929
  0
LWPOLYLINE
  5
2A7
100
AcDbEntity
  8
0
100
AcDbPolyline
 62
7
  6
CONTINUOUS
 90
13
 70
0
 10
86.9203895078
 20
48.3116639842
 10
86.8909469411
 20
48.3637946722
 10
86.8632561292
 20
48.4197570871
 10
86.8387354942
 20
48.4802924684
 10
86.8171020592
 20
48.5459672692
 10
86.7986388011
 20
48.6162145616
 10
86.7856130726
 20
48.6900755068
 10
86.7780322307
 20
48.7676433188
 10
86.7758889183
 20
48.8488243391
 10
86.7814284171
 20
48.9323795353
 10
86.7950470377
 20
49.0192286236
 10
86.8163484695
 20
49.1084515101
 10
86.846389062
 20
49.1960498023
  0
LINE
  5
2A8
100
AcDbEntity
  8
RACCORDO
100
AcDbLine
 62
7
  6
CONTINUOUS
 10
99.2462394864
 20
83.4006599917
 11
99.2661125562
 21
83.4274518774
  0
LINE
  5
2A9
100
AcDbEntity
  8
RACCORDO
100
AcDbLine
 62
7
  6
CONTINUOUS
 10
99.2485910281
 20
83.4038128051
 11
99.2479293534
 21
83.4029292736
  0
LINE
  5
2AA
100
AcDbEntity
  8
RACCORDO
100
AcDbLine
 62
7
  6
CONTINUOUS
 10
99.2884654209
 20
83.4550468953
 11
99.2661097013
 21
83.4274540452
  0
LWPOLYLINE
  5
2AB
100
AcDbEntity
  8
RACCORDO
100
AcDbPolyline
 62
7
  6
CONTINUOUS
 90
18
 70
0
 10
118.3963685273
 20
83.5973611742
 10
118.4011802905
 20
83.5991483802
 10
118.4116916579
 20
83.6037455646
 10
118.422389488
 20
83.6092002594
 10
118.433220307
 20
83.6155955884
 10
118.4438747206
 20
83.6228431816
 10
118.4542367908
 20
83.6309292729
 10
118.4642632118
 20
83.6398896006
 10
118.4737909286
 20
83.6496442376
 10
118.4827173326
 20
83.6601356463
 10
118.4910053582
 20
83.6713720412
 10
118.4985998429
 20
83.6833503457
 10
118.5054226333
 20
83.6960344827
 10
118.5113966763
 20
83.70938123
 10
118.516456752
 20
83.7233723127
 10
118.5205211973
 20
83.7379489734
 10
118.5235111268
 20
83.7530433875
 10
118.5253540139
 20
83.7686138927
  0
LWPOLYLINE
  5
2AC
100
AcDbEntity
  8
0
100
AcDbPolyline
 62
7
  6
CONTINUOUS
 90
7
 70
0
 10
87.775970953
 20
47.8302258208
 10
87.7288435915
 20
47.831316234
 10
87.6819136926
 20
47.8346294898
 10
87.6351812564
 20
47.8401655827
 10
87.5885008333
 20
47.8479490772
 10
87.5420178729
 20
47.8579553862
 10
87.4961687233
 20
47.8701107714
  0
LINE
  5
2AD
100
AcDbEntity
  8
0
100
AcDbLine
 62
7
  6
CONTINUOUS
 10
87.775970953
 20
47.8302258208
 11
87.6876408224
 21
47.8342788756
  0
LWPOLYLINE
  5
2AE
100
AcDbEntity
  8
0
100
AcDbPolyline
 62
7
  6
CONTINUOUS
 90
22
 70
0
 10
87.6876408224
 20
47.8342788756
 10
87.6012778481
 20
47.8456439005
 10
87.5168820299
 20
47.8643208322
 10
87.4337970887
 20
47.8906062692
 10
87.3526793037
 20
47.9242033596
 10
87.2754975126
 20
47.9642218262
 10
87.2024692586
 20
48.010721961
 10
87.1333769987
 20
48.0636430448
 10
87.0695369415
 20
48.1219133016
 10
87.0109716071
 20
48.1856937924
 10
86.9576584755
 20
48.2548229442
 10
86.9108461961
 20
48.327745121
 10
86.8706923448
 20
48.4045263991
 10
86.8370393457
 20
48.4851002497
 10
86.810663121
 20
48.5677123027
 10
86.7917257754
 20
48.6524692282
 10
86.7800652041
 20
48.7392640707
 10
86.7759710157
 20
48.8260222665
 10
86.7796299688
 20
48.9126870008
 10
86.7908553046
 20
48.9993150812
 10
86.8093763557
 20
49.0840026503
 10
86.8353425743
 20
49.1667085529
  0
LWPOLYLINE
  5
2AF
100
AcDbEntity
  8
0
100
AcDbPolyline
 62
7
  6
CONTINUOUS
 90
14
 70
0
 10
88.1009817321
 20
49.7717032862
 10
88.1455645463
 20
49.7552196725
 10
88.1890735494
 20
49.7367915969
 10
88.2313468926
 20
49.7164991124
 10
88.2725464247
 20
49.6942621051
 10
88.3127173339
 20
49.670043439
 10
88.3518038371
 20
49.6439872377
 10
88.3898617173
 20
49.6159492982
 10
88.4271035116
 20
49.5854599784
 10
88.4636842226
 20
49.552561924
 10
88.4994488477
 20
49.5172123637
 10
88.5341449155
 20
49.4788134947
 10
88.5679162294
 20
49.4374268182
 10
88.6006189861
 20
49.3929906377
  0
LINE
  5
2B0
100
AcDbEntity
  8
RACCORDO
100
AcDbLine
 62
7
  6
CONTINUOUS
 10
99.2667433926
 20
38.8966145804
 11
99.2904551821
 21
38.867589209
  0
LINE
  5
2B1
100
AcDbEntity
  8
RACCORDO
100
AcDbLine
 62
7
  6
CONTINUOUS
 10
99.254022376
 20
38.9144469037
 11
99.24792942
 21
38.9219719702
  0
LINE
  5
2B2
100
AcDbEntity
  8
RACCORDO
100
AcDbLine
 62
7
  6
CONTINUOUS
 10
99.2667432943
 20
38.8966145096
 11
99.2622543795
 21
38.9026429183
  0
LINE
  5
2B3
100
AcDbEntity
  8
RACCORDO
100
AcDbLine
 62
7
  6
CONTINUOUS
 10
99.2462648844
 20
38.9242064632
 11
99.2542178402
 21
38.913539516
  0
LWPOLYLINE
  5
2B4
100
AcDbEntity
  8
RACCORDO
100
AcDbPolyline
 62
7
  6
CONTINUOUS
 90
3
 70
0
 10
99.2542178402
 20
38.913539516
 10
99.2617117245
 20
38.9033829326
 10
99.2622543795
 20
38.9026429183
  0
LINE
  5
2B5
100
AcDbEntity
  8
0
100
AcDbLine
 62
7
  6
CONTINUOUS
 10
88.6315693046
 20
49.3447222971
 11
88.6610120339
 21
49.2926080519
  0
LINE
  5
2B6
100
AcDbEntity
  8
0
100
AcDbLine
 62
7
  6
CONTINUOUS
 10
88.6610120339
 20
49.2926080519
 11
88.6797012928
 21
49.25589214
  0
LWPOLYLINE
  5
2B7
100
AcDbEntity
  8
0
100
AcDbPolyline
 62
7
  6
CONTINUOUS
 90
3
 70
0
 10
88.6797012928
 20
49.25589214
 10
88.6887023251
 20
49.2366613376
 10
88.7132217499
 20
49.1761401884
  0
LINE
  5
2B8
100
AcDbEntity
  8
0
100
AcDbLine
 62
7
  6
CONTINUOUS
 10
88.6794374325
 20
49.2557661738
 11
88.7143953541
 21
49.1725777205
  0
LWPOLYLINE
  5
2B9
100
AcDbEntity
  8
0
100
AcDbPolyline
 62
7
  6
CONTINUOUS
 90
22
 70
0
 10
88.7132217499
 20
49.1761401884
 10
88.7348532925
 20
49.1104777788
 10
88.7533139688
 20
49.0402404568
 10
88.7663363976
 20
48.9663860145
 10
88.7739131394
 20
48.8888206672
 10
88.7760516337
 20
48.8076377692
 10
88.770506819
 20
48.7240759398
 10
88.7568823295
 20
48.6372150551
 10
88.7355745309
 20
48.5479748921
 10
88.7055274584
 20
48.4603542738
 10
88.6662858103
 20
48.3746067305
 10
88.6183048883
 20
48.2904789771
 10
88.5618946336
 20
48.2112100967
 10
88.49631903
 20
48.1367637782
 10
88.4223140938
 20
48.0671769179
 10
88.3423978138
 20
48.0057987669
 10
88.2562179251
 20
47.9532424918
 10
88.1641266926
 20
47.9088956634
 10
88.0696989008
 20
47.8742692873
 10
87.9741261443
 20
47.8498671989
 10
87.8762168283
 20
47.8351860073
 10
87.775970953
 20
47.8302258208
  0
LWPOLYLINE
  5
2BA
100
AcDbEntity
  8
0
100
AcDbPolyline
 62
7
  6
CONTINUOUS
 90
15
 70
0
 10
88.7149184374
 20
49.1713329528
 10
88.7412885696
 20
49.0887471486
 10
88.7602217859
 20
49.0040096731
 10
88.7718795554
 20
48.9172277738
 10
88.7759709549
 20
48.8304743323
 10
88.7723091974
 20
48.7438051914
 10
88.7610810699
 20
48.6571645296
 10
88.7425560096
 20
48.5724580045
 10
88.7165839459
 20
48.4897265575
 10
88.6833149495
 20
48.4089295162
 10
88.6434686696
 20
48.3318503529
 10
88.596885593
 20
48.2585511407
 10
88.5437252329
 20
48.1889702523
 10
88.4851857777
 20
48.1247057887
 10
88.421177247
 20
48.065892155
  0
LINE
  5
2BB
100
AcDbEntity
  8
RACCORDO
100
AcDbLine
 62
7
  6
CONTINUOUS
 10
99.2243919977
 20
83.3686360798
 11
99.2113698136
 21
83.3466398458
  0
LWPOLYLINE
  5
2BC
100
AcDbEntity
  8
RACCORDO
100
AcDbPolyline
 62
7
  6
CONTINUOUS
 90
3
 70
0
 10
99.2328795941
 20
83.3773016629
 10
99.2559104939
 20
83.4134035572
 10
99.2622543792
 20
83.4222591701
  0
LINE
  5
2BD
100
AcDbEntity
  8
RACCORDO
100
AcDbLine
 62
7
  6
CONTINUOUS
 10
99.2388161715
 20
83.3903649539
 11
99.2243919977
 21
83.3686360798
  0
LINE
  5
2BE
100
AcDbEntity
  8
RACCORDO
100
AcDbLine
 62
7
  6
CONTINUOUS
 10
99.2462394864
 20
83.4006599917
 11
99.2388161715
 21
83.3903649539
  0
LINE
  5
2BF
100
AcDbEntity
  8
0
100
AcDbLine
 62
7
  6
CONTINUOUS
 10
87.6756995045
 20
49.8209290351
 11
87.775970953
 21
49.8258901233
  0
LWPOLYLINE
  5
2C0
100
AcDbEntity
  8
0
100
AcDbPolyline
 62
7
  6
CONTINUOUS
 90
7
 70
0
 10
87.775970953
 20
49.8258901233
 10
87.8230967612
 20
49.8248007092
 10
87.8700252136
 20
49.8214903528
 10
87.9167563102
 20
49.815959048
 10
87.9634354167
 20
49.8081822982
 10
88.0099171673
 20
49.7981845755
 10
88.0557654656
 20
49.7860393213
  0
LWPOLYLINE
  5
2C1
100
AcDbEntity
  8
0
100
AcDbPolyline
 62
7
  6
CONTINUOUS
 90
14
 70
0
 10
87.775970953
 20
49.8258901233
 10
87.8643212732
 20
49.8218376105
 10
87.9507011282
 20
49.8104772246
 10
88.035110518
 20
49.791808897
 10
88.1182058268
 20
49.7655353625
 10
88.1993306703
 20
49.7319536121
 10
88.2765158958
 20
49.6919549205
 10
88.3495432597
 20
49.6454790294
 10
88.4186310055
 20
49.5925857417
 10
88.482464711
 20
49.5343464454
 10
88.541021594
 20
49.4706005883
 10
88.5943244367
 20
49.4015081901
 10
88.6411271631
 20
49.3286215976
 10
88.6794374325
 20
49.2557661738
  0
LWPOLYLINE
  5
2C2
100
AcDbEntity
  8
RACCORDO
100
AcDbPolyline
 62
250
  6
CONTINUOUS
 90
8
 70
0
 10
121.3793253603
 20
39.2334844886
 10
121.3798192811
 20
39.2333005509
 10
121.3802908569
 20
39.2326116986
 10
121.3807400877
 20
39.2314179318
 10
121.3811659509
 20
39.2296056291
 10
121.3815694691
 20
39.2272884119
 10
121.3819537101
 20
39.224807144
 10
121.3823191212
 20
39.222197783
  0
LINE
  5
2C3
100
AcDbEntity
  8
RACCORDO
100
AcDbLine
 62
7
  6
CONTINUOUS
 10
99.2622543795
 20
38.9026429183
 11
99.2559104939
 21
38.9114985316
  0
LINE
  5
2C4
100
AcDbEntity
  8
RACCORDO
100
AcDbLine
 62
250
  6
CONTINUOUS
 10
99.2422800533
 20
38.9296637917
 11
99.2141542589
 21
38.9733611928
  0
LINE
  5
2C5
100
AcDbEntity
  8
RACCORDO
100
AcDbLine
 62
7
  6
CONTINUOUS
 10
99.2559104939
 20
38.9114985316
 11
99.2337538507
 21
38.9460970236
  0
LINE
  5
2C6
100
AcDbEntity
  8
RACCORDO
100
AcDbLine
 62
250
  6
CONTINUOUS
 10
99.2337538507
 20
38.9460970236
 11
99.2288992712
 21
38.9546021618
  0
LWPOLYLINE
  5
2C7
100
AcDbEntity
  8
0
100
AcDbPolyline
 62
7
  6
CONTINUOUS
 90
3
 70
0
 43
0.3500000006
 10
99.0652527466
 20
94.6981659851
 10
98.9938306274
 20
94.4838815002
 10
98.8509682617
 20
94.1981658325
  0
LWPOLYLINE
  5
2C8
100
AcDbEntity
  8
RACCORDO
100
AcDbPolyline
 62
7
  6
CONTINUOUS
 90
13
 70
0
 10
99.1997743341
 20
83.3245957468
 10
99.1897094614
 20
83.3029769924
 10
99.1810611077
 20
83.2819014835
 10
99.1737045764
 20
83.2614496348
 10
99.1676213045
 20
83.2420437703
 10
99.1626213009
 20
83.2236282703
 10
99.1585856349
 20
83.2063444047
 10
99.1554889164
 20
83.1908653708
 10
99.1531549096
 20
83.1772847299
 10
99.1513850862
 20
83.1653888959
 10
99.1500786183
 20
83.1554045238
 10
99.1491564042
 20
83.147607823
 10
99.1491430303
 20
83.1474870975
  0
LINE
  5
2C9
100
AcDbEntity
  8
RACCORDO
100
AcDbLine
 62
7
  6
CONTINUOUS
 10
99.2113698136
 20
83.3466398458
 11
99.1997743341
 21
83.3245957468
  0
LWPOLYLINE
  5
2CA
100
AcDbEntity
  8
RACCORDO
100
AcDbPolyline
 62
250
  6
CONTINUOUS
 90
7
 70
0
 10
118.5259709708
 20
83.7843033988
 10
118.5273768484
 20
83.7851464111
 10
118.5315591897
 20
83.7859630589
 10
118.5384423159
 20
83.7867502845
 10
118.5479178933
 20
83.7875154981
 10
118.5598564533
 20
83.7882512895
 10
118.574118133
 20
83.7889354284
  0
LINE
  5
2CB
100
AcDbEntity
  8
RACCORDO
100
AcDbLine
 62
250
  6
CONTINUOUS
 10
99.2141542589
 20
38.9733611928
 11
99.2070426625
 21
38.9861814567
  0
LWPOLYLINE
  5
2CC
100
AcDbEntity
  8
RACCORDO
100
AcDbPolyline
 62
250
  6
CONTINUOUS
 90
4
 70
0
 10
99.1973209224
 20
39.0053352957
 10
99.1907196507
 20
39.0197443654
 10
99.1722295864
 20
39.0683118486
 10
99.1596108096
 20
39.115803068
  0
LWPOLYLINE
  5
2CD
100
AcDbEntity
  8
RACCORDO
100
AcDbPolyline
 62
250
  6
CONTINUOUS
 90
5
 70
0
 10
99.2288992712
 20
38.9546021618
 10
99.2064110569
 20
39.0002296253
 10
99.1886788085
 20
39.0479082628
 10
99.1758862158
 20
39.0971441671
 10
99.1730213485
 20
39.115803068
  0
LWPOLYLINE
  5
2CE
100
AcDbEntity
  8
0
100
AcDbPolyline
 62
7
  6
CONTINUOUS
 90
3
 70
0
 10
86.8353425743
 20
49.1667085529
 10
86.8686045081
 20
49.2474741929
 10
86.8725286338
 20
49.2558489855
  0
LINE
  5
2CF
100
AcDbEntity
  8
0
100
AcDbLine
 62
7
  6
CONTINUOUS
 10
86.846389062
 20
49.1960498023
 11
86.8727602285
 21
49.2557389005
  0
LWPOLYLINE
  5
2D0
100
AcDbEntity
  8
RACCORDO
100
AcDbPolyline
 62
7
  6
CONTINUOUS
 90
9
 70
0
 10
99.616470653
 20
38.60148633
 10
99.6106752682
 20
38.61728077
 10
99.6037290431
 20
38.6322276545
 10
99.5957561478
 20
38.6462601993
 10
99.5868842631
 20
38.6593226946
 10
99.577233382
 20
38.6713839536
 10
99.5669278834
 20
38.682416599
 10
99.5561036878
 20
38.6923948191
 10
99.5448539791
 20
38.7013408202
  0
LWPOLYLINE
  5
2D1
100
AcDbEntity
  8
0
100
AcDbPolyline
 62
7
  6
CONTINUOUS
 90
2
 70
0
 43
0.3500000006
 10
94.6366825562
 20
94.4124503174
 10
94.6366825562
 20
95.9124507751
  0
LINE
  5
2D2
100
AcDbEntity
  8
0
100
AcDbLine
 62
7
  6
CONTINUOUS
 10
86.8727602285
 20
49.2557389005
 11
86.8856240492
 21
49.2817697975
  0
LWPOLYLINE
  5
2D3
100
AcDbEntity
  8
0
100
AcDbPolyline
 62
7
  6
CONTINUOUS
 90
6
 70
0
 10
86.8725286338
 20
49.2558489855
 10
86.9084431318
 20
49.3245197941
 10
86.9550174095
 20
49.3977840629
 10
87.0081683772
 20
49.4673287382
 10
87.0667001172
 20
49.5315587833
 10
87.1307028027
 20
49.5903411975
  0
LWPOLYLINE
  5
2D4
100
AcDbEntity
  8
0
100
AcDbPolyline
 62
7
  6
CONTINUOUS
 90
11
 70
0
 10
86.8856240492
 20
49.2817697975
 10
86.9335981972
 20
49.3658654219
 10
86.9900021537
 20
49.4451002276
 10
87.0555716279
 20
49.5195110133
 10
87.1295709106
 20
49.5890615755
 10
87.209483523
 20
49.650406344
 10
87.2956608318
 20
49.7029338515
 10
87.3877514703
 20
49.7472563462
 10
87.4821848596
 20
49.7818639941
 10
87.5777708067
 20
49.806253698
 10
87.6756995045
 20
49.8209290351
  0
LWPOLYLINE
  5
2D5
100
AcDbEntity
  8
RACCORDO
100
AcDbPolyline
 62
7
  6
CONTINUOUS
 90
13
 70
0
 10
99.1592248704
 20
39.115803068
 10
99.1599386695
 20
39.1124582187
 10
99.1638012935
 20
39.0966751169
 10
99.1685810821
 20
39.0796086905
 10
99.1742488846
 20
39.0618402958
 10
99.1808846924
 20
39.0434608817
 10
99.1886037067
 20
39.0244745471
 10
99.1973209224
 20
39.0053352957
 10
99.2070426625
 20
38.9861814567
 10
99.2178516253
 20
38.9669932719
 10
99.2297045352
 20
38.947973748
 10
99.2425919852
 20
38.9292307027
 10
99.2462648844
 20
38.9242064632
  0
LWPOLYLINE
  5
2D6
100
AcDbEntity
  8
0
100
AcDbPolyline
 62
7
  6
CONTINUOUS
 90
2
 70
0
 43
0.3500000006
 10
96.9938300171
 20
94.4124503174
 10
96.9938300171
 20
95.9124507751
  0
LWPOLYLINE
  5
2D7
100
AcDbEntity
  8
0
100
AcDbPolyline
 62
250
  6
CONTINUOUS
 90
16
 70
0
 10
121.1076414422
 20
41.3902844699
 10
121.1012572351
 20
41.3947135177
 10
121.0864676161
 20
41.3990686101
 10
121.0634292248
 20
41.4033036044
 10
121.0323860973
 20
41.4073736298
 10
120.993667085
 20
41.4112355627
 10
120.9476823745
 20
41.4148484844
 10
120.8949191315
 20
41.4181741142
 10
120.8359363532
 20
41.4211772142
 10
120.771358958
 20
41.4238259629
 10
120.7018711275
 20
41.4260922939
 10
120.6282090846
 20
41.4279521928
 10
120.5511533204
 20
41.4293859516
 10
120.4715202694
 20
41.4303783776
 10
120.390153654
 20
41.430918954
 10
77.6617892066
 20
41.4309189521
  0
LWPOLYLINE
  5
2D8
100
AcDbEntity
  8
RACCORDO
100
AcDbPolyline
 62
7
  6
CONTINUOUS
 90
5
 70
0
 10
99.625970674
 20
38.5405970874
 10
99.6257524308
 20
38.5499376732
 10
99.6241242525
 20
38.567704659
 10
99.6209932732
 20
38.5849264384
 10
99.616470653
 20
38.60148633
  0
LINE
  5
2D9
100
AcDbEntity
  8
RACCORDO
100
AcDbLine
 62
7
  6
CONTINUOUS
 10
99.6253244384
 20
83.7682577461
 11
99.6259693253
 21
83.7843004088
  0
LWPOLYLINE
  5
2DA
100
AcDbEntity
  8
RACCORDO
100
AcDbPolyline
 62
250
  6
CONTINUOUS
 90
7
 70
0
 10
99.1666500113
 20
83.1474870975
 10
99.1681657986
 20
83.1774747898
 10
99.1758862158
 20
83.2277579217
 10
99.1886788085
 20
83.276993826
 10
99.206411057
 20
83.3246724635
 10
99.2288992712
 20
83.370299927
 10
99.2328795941
 20
83.3773016629
  0
LWPOLYLINE
  5
2DB
100
AcDbEntity
  8
RACCORDO
100
AcDbPolyline
 62
250
  6
CONTINUOUS
 90
8
 70
0
 10
99.1504364829
 20
83.1474870975
 10
99.150825482
 20
83.1550172904
 10
99.158882564
 20
83.2063603143
 10
99.1722283252
 20
83.2565871138
 10
99.190718482
 20
83.3051546773
 10
99.2141531337
 20
83.3515379314
 10
99.2422789237
 20
83.3952354178
 10
99.2462394864
 20
83.4006599917
  0
LWPOLYLINE
  5
2DC
100
AcDbEntity
  8
0
100
AcDbPolyline
 62
7
  6
CONTINUOUS
 90
2
 70
0
 43
0.3500000006
 10
128.6759750977
 20
59.8053066101
 10
127.1759746399
 20
59.8053066101
  0
LINE
  5
2DD
100
AcDbEntity
  8
DRAFT
100
AcDbLine
 62
7
  6
CONTINUOUS
 10
121.275970953
 20
61.1624510444
 11
121.3421866413
 21
61.1624510444
  0
LWPOLYLINE
  5
2DE
100
AcDbEntity
  8
RACCORDO
100
AcDbPolyline
 62
250
  6
CONTINUOUS
 90
13
 70
0
 10
102.025970953
 20
37.751126179
 10
102.0238321683
 20
37.7793859286
 10
102.0174524096
 20
37.807162146
 10
102.0069408361
 20
37.8339795725
 10
101.9924773039
 20
37.8593793545
 10
101.9743092881
 20
37.8829268946
 10
101.9527476483
 20
37.9042192879
 10
101.9281613103
 20
37.9228922157
 10
101.900970953
 20
37.938626179
 10
101.8716418111
 20
37.9511519653
 10
101.8406757143
 20
37.9602552549
 10
101.8086025011
 20
37.9657802881
 10
101.775970953
 20
37.9676325299
  0
LWPOLYLINE
  5
2DF
100
AcDbEntity
  8
RACCORDO
100
AcDbPolyline
 62
250
  6
CONTINUOUS
 90
13
 70
0
 10
99.625970953
 20
84.5737759098
 10
99.6281097377
 20
84.5455161602
 10
99.6344894964
 20
84.5177399428
 10
99.6450010699
 20
84.4909225163
 10
99.6594646021
 20
84.4655227343
 10
99.6776326179
 20
84.4419751942
 10
99.6991942577
 20
84.4206828009
 10
99.7237805958
 20
84.4020098731
 10
99.750970953
 20
84.3862759098
 10
99.7803000949
 20
84.3737501235
 10
99.8112661917
 20
84.3646468339
 10
99.8433394049
 20
84.3591218007
 10
99.875970953
 20
84.3572695588
  0
LWPOLYLINE
  5
2E0
100
AcDbEntity
  8
RACCORDO
100
AcDbPolyline
 62
250
  6
CONTINUOUS
 90
13
 70
0
 10
102.025970953
 20
37.3181134771
 10
102.0238628549
 20
37.3461706282
 10
102.0175553499
 20
37.3738156708
 10
102.0071274969
 20
37.4005755239
 10
101.9927176986
 20
37.4260052572
 10
101.9745533241
 20
37.4496383091
 10
101.9529745624
 20
37.4710098201
 10
101.9283714572
 20
37.4897397127
 10
101.9011519013
 20
37.5055229156
 10
101.8717844088
 20
37.5180880661
 10
101.8407737847
 20
37.5272197772
 10
101.808652152
 20
37.5327619209
 10
101.775970953
 20
37.534619828
  0
LWPOLYLINE
  5
2E1
100
AcDbEntity
  8
RACCORDO
100
AcDbPolyline
 62
250
  6
CONTINUOUS
 90
13
 70
0
 10
99.625970953
 20
85.0067886117
 10
99.6280790511
 20
84.9787314606
 10
99.6343865561
 20
84.951086418
 10
99.6448144091
 20
84.9243265649
 10
99.6592242074
 20
84.8988968316
 10
99.6773885819
 20
84.8752637797
 10
99.6989673436
 20
84.8538922687
 10
99.7235704488
 20
84.8351623761
 10
99.7507900047
 20
84.8193791732
 10
99.7801574972
 20
84.8068140226
 10
99.8111681213
 20
84.7976823116
 10
99.843289754
 20
84.7921401679
 10
99.875970953
 20
84.7902822607
  0
LINE
  5
2E2
100
AcDbEntity
  8
RACCORDO
100
AcDbLine
 62
7
  6
CONTINUOUS
 10
99.625970953
 20
36.9124510444
 11
99.625970953
 21
38.5406017476
  0
LINE
  5
2E3
100
AcDbEntity
  8
RACCORDO
100
AcDbLine
 62
7
  6
CONTINUOUS
 10
99.625970953
 20
83.7843003412
 11
99.625970953
 21
85.4124510444
  0
LINE
  5
2E4
100
AcDbEntity
  8
RACCORDO
100
AcDbLine
 62
250
  6
CONTINUOUS
 10
99.8759709533
 20
83.5973611742
 11
99.875970953
 21
85.6624510444
  0
LINE
  5
2E5
100
AcDbEntity
  8
RACCORDO
100
AcDbLine
 62
250
  6
CONTINUOUS
 10
99.8759709546
 20
38.7275409145
 11
99.875970953
 21
36.6624510444
  0
LWPOLYLINE
  5
2E6
100
AcDbEntity
  8
RACCORDO
100
AcDbPolyline
 62
250
  6
CONTINUOUS
 90
13
 70
0
 10
102.025970953
 20
85.0067886117
 10
102.0238628549
 20
84.9787314606
 10
102.0175553499
 20
84.951086418
 10
102.0071274969
 20
84.9243265649
 10
101.9927176986
 20
84.8988968316
 10
101.9745533241
 20
84.8752637797
 10
101.9529745624
 20
84.8538922687
 10
101.9283714572
 20
84.8351623761
 10
101.9011519013
 20
84.8193791732
 10
101.8717844088
 20
84.8068140226
 10
101.8407737847
 20
84.7976823116
 10
101.808652152
 20
84.7921401679
 10
101.775970953
 20
84.7902822607
  0
LWPOLYLINE
  5
2E7
100
AcDbEntity
  8
RACCORDO
100
AcDbPolyline
 62
250
  6
CONTINUOUS
 90
13
 70
0
 10
102.025970953
 20
84.5737759098
 10
102.0238321683
 20
84.5455161602
 10
102.0174524096
 20
84.5177399428
 10
102.0069408361
 20
84.4909225163
 10
101.9924773039
 20
84.4655227343
 10
101.9743092881
 20
84.4419751942
 10
101.9527476483
 20
84.4206828009
 10
101.9281613103
 20
84.4020098731
 10
101.900970953
 20
84.3862759098
 10
101.8716418111
 20
84.3737501235
 10
101.8406757143
 20
84.3646468339
 10
101.8086025011
 20
84.3591218007
 10
101.775970953
 20
84.3572695588
  0
LWPOLYLINE
  5
2E8
100
AcDbEntity
  8
RACCORDO
100
AcDbPolyline
 62
250
  6
CONTINUOUS
 90
13
 70
0
 10
99.625970953
 20
37.751126179
 10
99.6281097377
 20
37.7793859286
 10
99.6344894964
 20
37.807162146
 10
99.6450010699
 20
37.8339795725
 10
99.6594646021
 20
37.8593793545
 10
99.6776326179
 20
37.8829268946
 10
99.6991942577
 20
37.9042192879
 10
99.7237805958
 20
37.9228922157
 10
99.750970953
 20
37.938626179
 10
99.7803000949
 20
37.9511519653
 10
99.8112661917
 20
37.9602552549
 10
99.8433394049
 20
37.9657802881
 10
99.875970953
 20
37.9676325299
  0
LWPOLYLINE
  5
2E9
100
AcDbEntity
  8
RACCORDO
100
AcDbPolyline
 62
250
  6
CONTINUOUS
 90
13
 70
0
 10
99.625970953
 20
37.3181134771
 10
99.6281097377
 20
37.3463732267
 10
99.6344894964
 20
37.3741494441
 10
99.6450010699
 20
37.4009668706
 10
99.6594646021
 20
37.4263666526
 10
99.6776326179
 20
37.4499141927
 10
99.6991942577
 20
37.471206586
 10
99.7237805958
 20
37.4898795138
 10
99.750970953
 20
37.5056134771
 10
99.7803000949
 20
37.5181392634
 10
99.8112661917
 20
37.527242553
 10
99.8433394049
 20
37.5327675862
 10
99.875970953
 20
37.534619828
  0
LWPOLYLINE
  5
2EA
100
AcDbEntity
  8
RACCORDO
100
AcDbPolyline
 62
7
  6
CONTINUOUS
 90
5
 70
0
 10
102.0259725773
 20
83.7843003985
 10
102.0264953314
 20
83.7698543293
 10
102.0284088838
 20
83.7531887923
 10
102.0316408115
 20
83.7370391429
 10
102.0360937084
 20
83.7215052369
  0
LINE
  5
2EB
100
AcDbEntity
  8
RACCORDO
100
AcDbLine
 62
250
  6
CONTINUOUS
 10
101.775970953
 20
36.6624510444
 11
101.7759709529
 21
38.7275409145
  0
LINE
  5
2EC
100
AcDbEntity
  8
RACCORDO
100
AcDbLine
 62
250
  6
CONTINUOUS
 10
101.775970953
 20
83.5973611742
 11
101.775970953
 21
85.6624510444
  0
LINE
  5
2ED
100
AcDbEntity
  8
RACCORDO
100
AcDbLine
 62
7
  6
CONTINUOUS
 10
102.025970953
 20
36.9124510444
 11
102.025970953
 21
38.5406017476
  0
LINE
  5
2EE
100
AcDbEntity
  8
RACCORDO
100
AcDbLine
 62
7
  6
CONTINUOUS
 10
102.025970953
 20
83.7843003412
 11
102.025970953
 21
85.4124510444
  0
LINE
  5
2EF
100
AcDbEntity
  8
RACCORDO
100
AcDbLine
 62
7
  6
CONTINUOUS
 10
102.0265878921
 20
38.556288196
 11
102.0259712316
 21
38.5405971596
  0
LWPOLYLINE
  5
2F0
100
AcDbEntity
  8
0
100
AcDbPolyline
 62
250
  6
CONTINUOUS
 90
15
 70
0
 10
76.9443004638
 20
41.3902844735
 10
76.9506848227
 20
41.3947135829
 10
76.9654747902
 20
41.3990687247
 10
76.9885136641
 20
41.4033037554
 10
77.019557343
 20
41.4073738038
 10
77.0582769132
 20
41.4112357471
 10
77.1042621335
 20
41.4148486672
 10
77.1570257813
 20
41.4181742845
 10
77.2160088158
 20
41.4211773634
 10
77.2805862998
 20
41.4238260857
 10
77.3500740225
 20
41.4260923877
 10
77.4237357476
 20
41.4279522574
 10
77.5007910147
 20
41.4293859892
 10
77.580423408
 20
41.4303783923
 10
77.6617892066
 20
41.4309189521
  0
LWPOLYLINE
  5
2F1
100
AcDbEntity
  8
0
100
AcDbPolyline
 62
7
  6
CONTINUOUS
 90
7
 70
0
 10
87.2000862605
 20
49.6438095141
 10
87.2733840538
 20
49.6907686066
 10
87.3507172975
 20
49.731100295
 10
87.4319648767
 20
49.7649232269
 10
87.51529701
 20
49.791397541
 10
87.6001037702
 20
49.810243385
 10
87.6869950846
 20
49.8217408892
  0
LINE
  5
2F2
100
AcDbEntity
  8
RACCORDO
100
AcDbLine
 62
7
  6
CONTINUOUS
 10
105.8731077144
 20
37.3624510444
 11
105.8731077144
 21
38.7275409145
  0
LINE
  5
2F3
100
AcDbEntity
  8
RACCORDO
100
AcDbLine
 62
7
  6
CONTINUOUS
 10
105.8731077144
 20
83.5973611742
 11
105.8731077144
 21
84.9624510444
  0
LWPOLYLINE
  5
2F4
100
AcDbEntity
  8
0
100
AcDbPolyline
 62
250
  6
CONTINUOUS
 90
9
 70
0
 10
120.3239575099
 20
83.1474870975
 10
120.3232999815
 20
83.1464960625
 10
120.3219840359
 20
83.1384174077
 10
120.3207050585
 20
83.1225683957
 10
120.319463234
 20
83.0992774611
 10
120.3182591161
 20
83.0684266028
 10
120.3170846384
 20
83.0298220427
 10
120.3159478673
 20
82.9837884366
 10
120.3138616631
 20
82.8710761836
  0
LWPOLYLINE
  5
2F5
100
AcDbEntity
  8
0
100
AcDbPolyline
 62
7
  6
CONTINUOUS
 90
7
 70
0
 10
88.3517896213
 20
48.0123954585
 10
88.2784910298
 20
47.9654114531
 10
88.201161016
 20
47.9250592705
 10
88.1199200364
 20
47.8912202176
 10
88.0365975904
 20
47.864733331
 10
87.951803511
 20
47.845878383
 10
87.8649279652
 20
47.8343758582
  0
LINE
  5
2F6
100
AcDbEntity
  8
RACCORDO
100
AcDbLine
 62
250
  6
CONTINUOUS
 10
106.3730994212
 20
37.3624510444
 11
106.3730994212
 21
38.7275409145
  0
LINE
  5
2F7
100
AcDbEntity
  8
RACCORDO
100
AcDbLine
 62
250
  6
CONTINUOUS
 10
106.3730994212
 20
83.5973611742
 11
106.3730994212
 21
84.9624510444
  0
LWPOLYLINE
  5
2F8
100
AcDbEntity
  8
RACCORDO
100
AcDbPolyline
 62
7
  6
CONTINUOUS
 90
14
 70
0
 10
102.0360937084
 20
83.7215052369
 10
102.041666316
 20
83.7066678312
 10
102.0482544244
 20
83.6925948756
 10
102.0557494108
 20
83.6793462552
 10
102.0640454132
 20
83.6669626593
 10
102.0730366673
 20
83.6554750324
 10
102.0826133933
 20
83.6449094384
 10
102.0926804843
 20
83.6352679381
 10
102.1031354217
 20
83.6265551119
 10
102.1138560402
 20
83.6187809409
 10
102.1248346776
 20
83.6118733065
 10
102.1359063755
 20
83.605863236
 10
102.1466819664
 20
83.6008477483
 10
102.1554826139
 20
83.5973611742
  0
LWPOLYLINE
  5
2F9
100
AcDbEntity
  8
RACCORDO
100
AcDbPolyline
 62
7
  6
CONTINUOUS
 90
14
 70
0
 10
118.516470653
 20
38.60148633
 10
118.5106752682
 20
38.61728077
 10
118.5037290431
 20
38.6322276545
 10
118.4957561478
 20
38.6462601993
 10
118.4868842631
 20
38.6593226946
 10
118.477233382
 20
38.6713839536
 10
118.4669278834
 20
38.682416599
 10
118.4561036878
 20
38.6923948191
 10
118.4448539791
 20
38.7013408202
 10
118.4333092415
 20
38.7092501
 10
118.4216726527
 20
38.7160931659
 10
118.4098750579
 20
38.7220033533
 10
118.3981885817
 20
38.7269317435
 10
118.3964545979
 20
38.7275409145
  0
LINE
  5
2FA
100
AcDbEntity
  8
RACCORDO
100
AcDbLine
 62
250
  6
CONTINUOUS
 10
114.1788424848
 20
84.9624510444
 11
114.1788424848
 21
83.5973611742
  0
LINE
  5
2FB
100
AcDbEntity
  8
RACCORDO
100
AcDbLine
 62
250
  6
CONTINUOUS
 10
114.1788424848
 20
38.7275409145
 11
114.1788424848
 21
37.3624510444
  0
LINE
  5
2FC
100
AcDbEntity
  8
RACCORDO
100
AcDbLine
 62
7
  6
CONTINUOUS
 10
114.6788341916
 20
84.9624510444
 11
114.6788341916
 21
83.5973611742
  0
LINE
  5
2FD
100
AcDbEntity
  8
RACCORDO
100
AcDbLine
 62
7
  6
CONTINUOUS
 10
114.6788341916
 20
38.7275409145
 11
114.6788341916
 21
37.3624510444
  0
LWPOLYLINE
  5
2FE
100
AcDbEntity
  8
0
100
AcDbPolyline
 62
7
  6
CONTINUOUS
 90
10
 70
0
 43
0.3500000006
 10
98.9938306274
 20
94.91245047
 10
99.0652527466
 20
94.769597168
 10
99.0652527466
 20
94.6981659851
 10
98.9223994446
 20
94.5553126831
 10
98.8509682617
 20
94.5553126831
 10
98.7795461426
 20
94.6267348022
 10
98.7795461426
 20
94.6981659851
 10
98.8509682617
 20
94.8410192871
 10
98.9223994446
 20
94.91245047
 10
98.9938306274
 20
94.91245047
  0
LINE
  5
2FF
100
AcDbEntity
  8
0
100
AcDbLine
 62
250
  6
CONTINUOUS
 10
120.3260433313
 20
39.8627041458
 11
120.4758795289
 21
39.115803068
  0
LINE
  5
300
100
AcDbEntity
  8
0
100
AcDbLine
 62
250
  6
CONTINUOUS
 10
121.1257691913
 20
40.6584121689
 11
121.275970953
 21
39.9096888329
  0
LWPOLYLINE
  5
301
100
AcDbEntity
  8
RACCORDO
100
AcDbPolyline
 62
250
  6
CONTINUOUS
 90
13
 70
0
 10
120.925970953
 20
37.3181134771
 10
120.9238321683
 20
37.3463732267
 10
120.9174524096
 20
37.3741494441
 10
120.9069408361
 20
37.4009668706
 10
120.8924773039
 20
37.4263666526
 10
120.8743092881
 20
37.4499141927
 10
120.8527476483
 20
37.471206586
 10
120.8281613103
 20
37.4898795138
 10
120.800970953
 20
37.5056134771
 10
120.7716418111
 20
37.5181392634
 10
120.7406757143
 20
37.527242553
 10
120.7086025011
 20
37.5327675862
 10
120.675970953
 20
37.534619828
  0
LWPOLYLINE
  5
302
100
AcDbEntity
  8
RACCORDO
100
AcDbPolyline
 62
250
  6
CONTINUOUS
 90
13
 70
0
 10
120.925970953
 20
37.751126179
 10
120.9238321683
 20
37.7793859286
 10
120.9174524096
 20
37.807162146
 10
120.9069408361
 20
37.8339795725
 10
120.8924773039
 20
37.8593793545
 10
120.8743092881
 20
37.8829268946
 10
120.8527476483
 20
37.9042192879
 10
120.8281613103
 20
37.9228922157
 10
120.800970953
 20
37.938626179
 10
120.7716418111
 20
37.9511519653
 10
120.7406757143
 20
37.9602552549
 10
120.7086025011
 20
37.9657802881
 10
120.675970953
 20
37.9676325299
  0
LWPOLYLINE
  5
303
100
AcDbEntity
  8
RACCORDO
100
AcDbPolyline
 62
7
  6
CONTINUOUS
 90
5
 70
0
 10
118.525970674
 20
38.5405970874
 10
118.5257524308
 20
38.5499376732
 10
118.5241242525
 20
38.567704659
 10
118.5209932732
 20
38.5849264384
 10
118.516470653
 20
38.60148633
  0
LINE
  5
304
100
AcDbEntity
  8
RACCORDO
100
AcDbLine
 62
7
  6
CONTINUOUS
 10
118.525970953
 20
36.9124510444
 11
118.525970953
 21
38.5406017476
  0
LINE
  5
305
100
AcDbEntity
  8
RACCORDO
100
AcDbLine
 62
7
  6
CONTINUOUS
 10
118.525970953
 20
83.7843003412
 11
118.525970953
 21
85.4124510444
  0
LINE
  5
306
100
AcDbEntity
  8
RACCORDO
100
AcDbLine
 62
250
  6
CONTINUOUS
 10
118.775970953
 20
36.6624510444
 11
118.7759709546
 21
38.7275409145
  0
LINE
  5
307
100
AcDbEntity
  8
RACCORDO
100
AcDbLine
 62
250
  6
CONTINUOUS
 10
118.7759709531
 20
83.5973611742
 11
118.775970953
 21
85.6624510444
  0
LINE
  5
308
100
AcDbEntity
  8
RACCORDO
100
AcDbLine
 62
7
  6
CONTINUOUS
 10
118.5253540139
 20
83.7686138927
 11
118.5259706744
 21
83.7843049292
  0
LWPOLYLINE
  5
309
100
AcDbEntity
  8
RACCORDO
100
AcDbPolyline
 62
250
  6
CONTINUOUS
 90
13
 70
0
 10
120.925970953
 20
85.0067886117
 10
120.9238628549
 20
84.9787314606
 10
120.9175553499
 20
84.951086418
 10
120.9071274969
 20
84.9243265649
 10
120.8927176986
 20
84.8988968316
 10
120.8745533241
 20
84.8752637797
 10
120.8529745624
 20
84.8538922687
 10
120.8283714572
 20
84.8351623761
 10
120.8011519013
 20
84.8193791732
 10
120.7717844088
 20
84.8068140226
 10
120.7407737847
 20
84.7976823116
 10
120.708652152
 20
84.7921401679
 10
120.675970953
 20
84.7902822607
  0
LWPOLYLINE
  5
30A
100
AcDbEntity
  8
RACCORDO
100
AcDbPolyline
 62
250
  6
CONTINUOUS
 90
13
 70
0
 10
120.925970953
 20
84.5737759098
 10
120.9238321683
 20
84.5455161602
 10
120.9174524096
 20
84.5177399428
 10
120.9069408361
 20
84.4909225163
 10
120.8924773039
 20
84.4655227343
 10
120.8743092881
 20
84.4419751942
 10
120.8527476483
 20
84.4206828009
 10
120.8281613103
 20
84.4020098731
 10
120.800970953
 20
84.3862759098
 10
120.7716418111
 20
84.3737501235
 10
120.7406757143
 20
84.3646468339
 10
120.7086025011
 20
84.3591218007
 10
120.675970953
 20
84.3572695588
  0
LWPOLYLINE
  5
30B
100
AcDbEntity
  8
RACCORDO
100
AcDbPolyline
 62
250
  6
CONTINUOUS
 90
14
 70
0
 10
121.383257727
 20
83.1103715673
 10
121.3838606309
 20
83.1155207455
 10
121.3841316131
 20
83.1176940513
 10
121.3843831367
 20
83.1196327806
 10
121.3846215582
 20
83.1213275759
 10
121.3848475973
 20
83.1227655756
 10
121.3850605342
 20
83.1239596413
 10
121.3852645659
 20
83.1249390003
 10
121.3854597595
 20
83.1257023512
 10
121.3856460479
 20
83.1262509954
 10
121.3858274273
 20
83.1266180652
 10
121.3860052297
 20
83.1268146047
 10
121.386178123
 20
83.1268295697
 10
121.3863461072
 20
83.1266629604
  0
LINE
  5
30C
100
AcDbEntity
  8
DRAFT
100
AcDbLine
 62
7
  6
CONTINUOUS
 10
121.275970953
 20
81.1160997929
 11
121.3849515504
 21
81.1160997929
  0
LWPOLYLINE
  5
30D
100
AcDbEntity
  8
RACCORDO
100
AcDbPolyline
 62
250
  6
CONTINUOUS
 90
13
 70
0
 10
121.3838759913
 20
39.209253126
 10
121.3841391755
 20
39.2071461467
 10
121.3843874941
 20
39.2052359073
 10
121.3846243562
 20
39.2035570104
 10
121.3848499735
 20
39.202126237
 10
121.3850641343
 20
39.2009268062
 10
121.3852696123
 20
39.1999429772
 10
121.3854665756
 20
39.1991805042
 10
121.3856548561
 20
39.1986336331
 10
121.3858367225
 20
39.19826936
 10
121.3860129309
 20
39.1980766838
 10
121.3861827251
 20
39.1980666057
 10
121.3863461051
 20
39.1982391256
  0
LINE
  5
30E
100
AcDbEntity
  8
RACCORDO
100
AcDbLine
 62
250
  6
CONTINUOUS
 10
121.3823191212
 20
39.222197783
 11
121.3829938365
 21
39.2167199006
  0
LINE
  5
30F
100
AcDbEntity
  8
RACCORDO
100
AcDbLine
 62
250
  6
CONTINUOUS
 10
121.3829938365
 20
39.2167199006
 11
121.3838759913
 21
39.209253126
  0
LWPOLYLINE
  5
310
100
AcDbEntity
  8
RACCORDO
100
AcDbPolyline
 62
250
  6
CONTINUOUS
 90
13
 70
0
 10
118.525970953
 20
84.5737759098
 10
118.5281097377
 20
84.5455161602
 10
118.5344894964
 20
84.5177399428
 10
118.5450010699
 20
84.4909225163
 10
118.5594646021
 20
84.4655227343
 10
118.5776326179
 20
84.4419751942
 10
118.5991942577
 20
84.4206828009
 10
118.6237805958
 20
84.4020098731
 10
118.650970953
 20
84.3862759098
 10
118.6803000949
 20
84.3737501235
 10
118.7112661917
 20
84.3646468339
 10
118.7433394049
 20
84.3591218007
 10
118.775970953
 20
84.3572695588
  0
LWPOLYLINE
  5
311
100
AcDbEntity
  8
RACCORDO
100
AcDbPolyline
 62
250
  6
CONTINUOUS
 90
13
 70
0
 10
118.525970953
 20
85.0067886117
 10
118.5280790511
 20
84.9787314606
 10
118.5343865561
 20
84.951086418
 10
118.5448144091
 20
84.9243265649
 10
118.5592242074
 20
84.8988968316
 10
118.5773885819
 20
84.8752637797
 10
118.5989673436
 20
84.8538922687
 10
118.6235704488
 20
84.8351623761
 10
118.6507900047
 20
84.8193791732
 10
118.6801574972
 20
84.8068140226
 10
118.7111681213
 20
84.7976823116
 10
118.743289754
 20
84.7921401679
 10
118.775970953
 20
84.7902822607
  0
LWPOLYLINE
  5
312
100
AcDbEntity
  8
0
100
AcDbPolyline
 62
250
  6
CONTINUOUS
 90
9
 70
0
 10
121.1161689333
 20
40.8095491373
 10
121.1172248886
 20
40.7814000064
 10
121.1183090764
 20
40.7559856847
 10
121.1194084976
 20
40.7331881784
 10
121.1205361512
 20
40.7131254814
 10
121.1217320464
 20
40.6956329921
 10
121.1230095198
 20
40.6806558433
 10
121.1243552347
 20
40.6682489023
 10
121.1257691913
 20
40.6584121689
  0
LWPOLYLINE
  5
313
100
AcDbEntity
  8
0
100
AcDbPolyline
 62
250
  6
CONTINUOUS
 90
5
 70
0
 10
120.3208093449
 20
39.9807347686
 10
120.3220046911
 20
39.9424630464
 10
120.3232822593
 20
39.9090489384
 10
120.3246284727
 20
39.8821192334
 10
120.3260433313
 20
39.8627041458
  0
LINE
  5
314
100
AcDbEntity
  8
0
100
AcDbLine
 62
250
  6
CONTINUOUS
 10
121.114124542
 20
40.8761309581
 11
121.1161689333
 21
40.8095491373
  0
LWPOLYLINE
  5
315
100
AcDbEntity
  8
RACCORDO
100
AcDbPolyline
 62
7
  6
CONTINUOUS
 90
5
 70
0
 10
120.925971232
 20
83.7843050013
 10
120.9261894752
 20
83.7749644156
 10
120.9278176535
 20
83.7571974298
 10
120.9309486328
 20
83.7399756504
 10
120.935471253
 20
83.7234157587
  0
LINE
  5
316
100
AcDbEntity
  8
0
100
AcDbLine
 62
250
  6
CONTINUOUS
 10
120.3185838585
 20
40.0717902548
 11
120.3208093449
 21
39.9807347686
  0
LINE
  5
317
100
AcDbEntity
  8
0
100
AcDbLine
 62
250
  6
CONTINUOUS
 10
121.1122163031
 20
40.9551981697
 11
121.114124542
 21
40.8761309581
  0
LINE
  5
318
100
AcDbEntity
  8
0
100
AcDbLine
 62
250
  6
CONTINUOUS
 10
120.3164432747
 20
40.1867115418
 11
120.3185838585
 21
40.0717902548
  0
LINE
  5
319
100
AcDbEntity
  8
0
100
AcDbLine
 62
250
  6
CONTINUOUS
 10
121.1105990397
 20
41.0430151036
 11
121.1122163031
 21
40.9551981697
  0
LINE
  5
31A
100
AcDbEntity
  8
0
100
AcDbLine
 62
250
  6
CONTINUOUS
 10
120.3134103513
 20
40.4112272447
 11
120.3164432747
 21
40.1867115418
  0
LINE
  5
31B
100
AcDbEntity
  8
0
100
AcDbLine
 62
250
  6
CONTINUOUS
 10
121.108796691
 20
41.1848564269
 11
121.1105990397
 21
41.0430151036
  0
LINE
  5
31C
100
AcDbEntity
  8
0
100
AcDbLine
 62
250
  6
CONTINUOUS
 10
120.3101839243
 20
40.7859519978
 11
120.3134103513
 21
40.4112272447
  0
LINE
  5
31D
100
AcDbEntity
  8
0
100
AcDbLine
 62
250
  6
CONTINUOUS
 10
121.1077954166
 20
41.3371591845
 11
121.108796691
 21
41.1848564269
  0
LINE
  5
31E
100
AcDbEntity
  8
0
100
AcDbLine
 62
250
  6
CONTINUOUS
 10
120.3080697902
 20
41.3180915735
 11
120.3101839243
 21
40.7859519978
  0
LINE
  5
31F
100
AcDbEntity
  8
DRAFT
100
AcDbLine
 62
7
  6
CONTINUOUS
 10
121.3421866413
 20
61.1624510444
 11
121.3849515504
 21
41.2088022958
  0
LINE
  5
320
100
AcDbEntity
  8
0
100
AcDbLine
 62
250
  6
CONTINUOUS
 10
120.2971452416
 20
48.9327039996
 11
120.3080697902
 21
41.3180915735
  0
LINE
  5
321
100
AcDbEntity
  8
0
100
AcDbLine
 62
250
  6
CONTINUOUS
 10
121.0968711016
 20
48.8722308475
 11
121.1077954166
 21
41.3371591845
  0
LINE
  5
322
100
AcDbEntity
  8
0
100
AcDbLine
 62
250
  6
CONTINUOUS
 10
120.2911859749
 20
55.9940533767
 11
120.2971452416
 21
48.9327039996
  0
LINE
  5
323
100
AcDbEntity
  8
0
100
AcDbLine
 62
250
  6
CONTINUOUS
 10
121.0909118349
 20
55.9144878522
 11
121.0968711016
 21
48.8722308475
  0
LINE
  5
324
100
AcDbEntity
  8
0
100
AcDbLine
 62
250
  6
CONTINUOUS
 10
120.2898124726
 20
62.6656428954
 11
120.2911859749
 21
55.9940533767
  0
LINE
  5
325
100
AcDbEntity
  8
RACCORDO
100
AcDbLine
 62
250
  6
CONTINUOUS
 10
120.675970953
 20
36.6624510444
 11
120.6759709529
 21
38.7275409145
  0
LINE
  5
326
100
AcDbEntity
  8
RACCORDO
100
AcDbLine
 62
250
  6
CONTINUOUS
 10
120.6759709514
 20
83.5973611742
 11
120.675970953
 21
85.6624510444
  0
LINE
  5
327
100
AcDbEntity
  8
RACCORDO
100
AcDbLine
 62
7
  6
CONTINUOUS
 10
120.925970953
 20
36.9124510444
 11
120.925970953
 21
38.5406017476
  0
LINE
  5
328
100
AcDbEntity
  8
RACCORDO
100
AcDbLine
 62
7
  6
CONTINUOUS
 10
120.925970953
 20
83.7843003412
 11
120.925970953
 21
85.4124510444
  0
LINE
  5
329
100
AcDbEntity
  8
0
100
AcDbLine
 62
250
  6
CONTINUOUS
 10
121.0895383326
 20
62.5682997184
 11
121.0909118349
 21
55.9144878522
  0
LINE
  5
32A
100
AcDbEntity
  8
0
100
AcDbLine
 62
7
  6
CONTINUOUS
 10
121.275970953
 20
39.9096888329
 11
121.275970953
 21
81.6961841297
  0
LINE
  5
32B
100
AcDbEntity
  8
RACCORDO
100
AcDbLine
 62
7
  6
CONTINUOUS
 10
121.3736057582
 20
83.0971326938
 11
121.3736057582
 21
83.067261009
  0
LINE
  5
32C
100
AcDbEntity
  8
RACCORDO
100
AcDbLine
 62
7
  6
CONTINUOUS
 10
121.3736057582
 20
39.227769395
 11
121.3736057582
 21
39.2576410798
  0
LINE
  5
32D
100
AcDbEntity
  8
DRAFT
100
AcDbLine
 62
7
  6
CONTINUOUS
 10
121.3849515504
 20
82.9874510444
 11
121.3849515504
 21
81.1160997929
  0
LINE
  5
32E
100
AcDbEntity
  8
DRAFT
100
AcDbLine
 62
7
  6
CONTINUOUS
 10
121.3849515504
 20
41.2088022958
 11
121.3849515504
 21
39.3374510444
  0
LINE
  5
32F
100
AcDbEntity
  8
RACCORDO
100
AcDbLine
 62
7
  6
CONTINUOUS
 10
121.425970953
 20
39.2801345898
 11
121.425970953
 21
83.044767499
  0
LINE
  5
330
100
AcDbEntity
  8
0
100
AcDbLine
 62
250
  6
CONTINUOUS
 10
120.2921482498
 20
69.1191782174
 11
120.2898124726
 21
62.6656428954
  0
LINE
  5
331
100
AcDbEntity
  8
0
100
AcDbLine
 62
250
  6
CONTINUOUS
 10
121.0918741097
 20
69.0048683444
 11
121.0895383326
 21
62.5682997184
  0
LINE
  5
332
100
AcDbEntity
  8
0
100
AcDbLine
 62
250
  6
CONTINUOUS
 10
120.298194996
 20
75.5248295816
 11
120.2921482498
 21
69.1191782174
  0
LINE
  5
333
100
AcDbEntity
  8
0
100
AcDbLine
 62
250
  6
CONTINUOUS
 10
121.097920856
 20
75.3926810605
 11
121.0918741097
 21
69.0048683444
  0
LINE
  5
334
100
AcDbEntity
  8
DRAFT
100
AcDbLine
 62
7
  6
CONTINUOUS
 10
121.3849515504
 20
81.1160997929
 11
121.3421866413
 21
61.1624510444
  0
LINE
  5
335
100
AcDbEntity
  8
0
100
AcDbLine
 62
250
  6
CONTINUOUS
 10
121.108052637
 20
81.8843445878
 11
121.097920856
 21
75.3926810605
  0
LINE
  5
336
100
AcDbEntity
  8
0
100
AcDbLine
 62
250
  6
CONTINUOUS
 10
120.3094822142
 20
82.4251297799
 11
120.298194996
 21
75.5248295816
  0
LINE
  5
337
100
AcDbEntity
  8
0
100
AcDbLine
 62
250
  6
CONTINUOUS
 10
121.1087512105
 20
81.9734312483
 11
121.108052637
 21
81.8843445878
  0
LINE
  5
338
100
AcDbEntity
  8
0
100
AcDbLine
 62
250
  6
CONTINUOUS
 10
120.312050137
 20
82.7347313331
 11
120.3094822142
 21
82.4251297799
  0
LINE
  5
339
100
AcDbEntity
  8
0
100
AcDbLine
 62
250
  6
CONTINUOUS
 10
121.1097389703
 20
82.0511677955
 11
121.1087512105
 21
81.9734312483
  0
LINE
  5
33A
100
AcDbEntity
  8
0
100
AcDbLine
 62
250
  6
CONTINUOUS
 10
120.3138616631
 20
82.8710761836
 11
120.312050137
 21
82.7347313331
  0
LINE
  5
33B
100
AcDbEntity
  8
0
100
AcDbLine
 62
250
  6
CONTINUOUS
 10
121.1110140739
 20
82.1236205526
 11
121.1097389703
 21
82.0511677955
  0
LWPOLYLINE
  5
33C
100
AcDbEntity
  8
RACCORDO
100
AcDbPolyline
 62
250
  6
CONTINUOUS
 90
13
 70
0
 10
118.525970953
 20
37.3181134771
 10
118.5280790511
 20
37.3461706282
 10
118.5343865561
 20
37.3738156708
 10
118.5448144091
 20
37.4005755239
 10
118.5592242074
 20
37.4260052572
 10
118.5773885819
 20
37.4496383091
 10
118.5989673436
 20
37.4710098201
 10
118.6235704488
 20
37.4897397127
 10
118.6507900047
 20
37.5055229156
 10
118.6801574972
 20
37.5180880661
 10
118.7111681213
 20
37.5272197772
 10
118.743289754
 20
37.5327619209
 10
118.775970953
 20
37.534619828
  0
LWPOLYLINE
  5
33D
100
AcDbEntity
  8
RACCORDO
100
AcDbPolyline
 62
250
  6
CONTINUOUS
 90
13
 70
0
 10
118.525970953
 20
37.751126179
 10
118.5281097377
 20
37.7793859286
 10
118.5344894964
 20
37.807162146
 10
118.5450010699
 20
37.8339795725
 10
118.5594646021
 20
37.8593793545
 10
118.5776326179
 20
37.8829268946
 10
118.5991942577
 20
37.9042192879
 10
118.6237805958
 20
37.9228922157
 10
118.650970953
 20
37.938626179
 10
118.6803000949
 20
37.9511519653
 10
118.7112661917
 20
37.9602552549
 10
118.7433394049
 20
37.9657802881
 10
118.775970953
 20
37.9676325299
  0
LWPOLYLINE
  5
33E
100
AcDbEntity
  8
RACCORDO
100
AcDbPolyline
 62
250
  6
CONTINUOUS
 90
7
 70
0
 10
102.0259709352
 20
38.54059869
 10
102.0245650576
 20
38.5397556777
 10
102.0203827163
 20
38.5389390299
 10
102.0134995902
 20
38.5381518043
 10
102.0040240127
 20
38.5373865907
 10
101.9920854527
 20
38.5366507993
 10
101.977823773
 20
38.5359666604
  0
LWPOLYLINE
  5
33F
100
AcDbEntity
  8
RACCORDO
100
AcDbPolyline
 62
7
  6
CONTINUOUS
 90
18
 70
0
 10
102.1555733787
 20
38.7275409145
 10
102.1507616155
 20
38.7257537086
 10
102.1402502482
 20
38.7211565242
 10
102.129552418
 20
38.7157018294
 10
102.118721599
 20
38.7093065003
 10
102.1080671854
 20
38.7020589071
 10
102.0977051152
 20
38.6939728159
 10
102.0876786942
 20
38.6850124882
 10
102.0781509774
 20
38.6752578512
 10
102.0692245734
 20
38.6647664424
 10
102.0609365478
 20
38.6535300475
 10
102.0533420631
 20
38.641551743
 10
102.0465192727
 20
38.6288676061
 10
102.0405452297
 20
38.6155208588
 10
102.035485154
 20
38.6015297761
 10
102.0314207087
 20
38.5869531154
 10
102.0284307792
 20
38.5718587013
 10
102.0265878921
 20
38.556288196
  0
LINE
  5
340
100
AcDbEntity
  8
RACCORDO
100
AcDbLine
 62
250
  6
CONTINUOUS
 10
120.938115297
 20
83.5931197198
 11
120.9799466115
 21
83.5954035419
  0
LWPOLYLINE
  5
341
100
AcDbEntity
  8
RACCORDO
100
AcDbPolyline
 62
250
  6
CONTINUOUS
 90
3
 70
0
 10
120.9799466115
 20
83.5954035419
 10
121.0007101682
 20
83.5963844683
 10
121.0100713118
 20
83.5967642764
  0
LWPOLYLINE
  5
342
100
AcDbEntity
  8
RACCORDO
100
AcDbPolyline
 62
250
  6
CONTINUOUS
 90
4
 70
0
 10
118.574118133
 20
83.7889354284
 10
118.590515739
 20
83.7895658405
 10
118.6088678704
 20
83.7901446001
 10
118.6290404195
 20
83.7906556988
  0
LWPOLYLINE
  5
343
100
AcDbEntity
  8
RACCORDO
100
AcDbPolyline
 62
250
  6
CONTINUOUS
 90
11
 70
0
 10
121.0100713118
 20
83.5967642764
 10
121.0185976952
 20
83.5970651724
 10
121.0262826144
 20
83.5972847607
 10
121.0330862828
 20
83.5974239442
 10
121.0389944431
 20
83.5974915864
 10
121.0440542247
 20
83.5974968111
 10
121.0482655225
 20
83.5974450827
 10
121.0516443348
 20
83.5973382036
 10
121.0542363034
 20
83.5971762615
 10
121.0560615174
 20
83.5969613889
 10
121.0571020865
 20
83.5967179323
  0
LWPOLYLINE
  5
344
100
AcDbEntity
  8
RACCORDO
100
AcDbPolyline
 62
250
  6
CONTINUOUS
 90
3
 70
0
 10
118.6290404195
 20
83.7906556988
 10
118.6740085616
 20
83.7914727065
 10
118.6983671953
 20
83.7917670217
  0
LWPOLYLINE
  5
345
100
AcDbEntity
  8
0
100
AcDbPolyline
 62
7
  6
CONTINUOUS
 90
28
 70
0
 10
77.727970151
 20
83.1474617274
 10
77.72082763
 20
83.1474298571
 10
77.6706516198
 20
83.1454069276
 10
77.6214054141
 20
83.1403367813
 10
77.5732544925
 20
83.1323679698
 10
77.5263289753
 20
83.1216492225
 10
77.4807720801
 20
83.1083375732
 10
77.4367099492
 20
83.0925944069
 10
77.3942256963
 20
83.0745717095
 10
77.3534152393
 20
83.0544304777
 10
77.3143639766
 20
83.0323346707
 10
77.2771213137
 20
83.0084338974
 10
77.2417448237
 20
82.98288671
 10
77.2082810036
 20
82.9558511853
 10
77.1767477346
 20
82.9274675708
 10
77.1471781393
 20
82.8978944795
 10
77.1195769237
 20
82.8672701126
 10
77.0939117089
 20
82.8356893349
 10
77.0702001866
 20
82.8033070567
 10
77.0484171737
 20
82.7702291183
 10
77.0284756789
 20
82.7364486315
 10
77.0102137759
 20
82.701753107
 10
76.9938080783
 20
82.6665450206
 10
76.9795614276
 20
82.6317599151
 10
76.9673130376
 20
82.5974697035
 10
76.9569335782
 20
82.5638145409
 10
76.9485012525
 20
82.5318179608
 10
76.9466650433
 20
82.5240815548
  0
LINE
  5
346
100
AcDbEntity
  8
0
100
AcDbLine
 62
250
  6
CONTINUOUS
 10
120.3079155822
 20
81.9311181821
 11
77.7440263238
 21
81.9311181821
  0
LINE
  5
347
100
AcDbEntity
  8
DRAFT
100
AcDbLine
 62
7
  6
CONTINUOUS
 10
120.8037935124
 20
82.9874510444
 11
121.3849515504
 21
82.9874510444
  0
LINE
  5
348
100
AcDbEntity
  8
DRAFT
100
AcDbLine
 62
7
  6
CONTINUOUS
 10
120.6725825504
 20
83.067261009
 11
121.3736057582
 21
83.067261009
  0
LINE
  5
349
100
AcDbEntity
  8
0
100
AcDbLine
 62
7
  6
CONTINUOUS
 10
120.323969857
 20
83.1474870975
 11
77.7279714567
 21
83.1474870975
  0
LWPOLYLINE
  5
34A
100
AcDbEntity
  8
RACCORDO
100
AcDbPolyline
 62
250
  6
CONTINUOUS
 90
7
 70
0
 10
102.025970953
 20
83.7843003647
 10
102.0245741829
 20
83.785143256
 10
102.0204174184
 20
83.7859572516
 10
102.0135734018
 20
83.7867423281
 10
102.0041491201
 20
83.7875058076
 10
101.9922698286
 20
83.7882403679
 10
101.9780643432
 20
83.7889240423
  0
LWPOLYLINE
  5
34B
100
AcDbEntity
  8
0
100
AcDbPolyline
 62
7
  6
CONTINUOUS
 90
10
 70
0
 43
0.3500000006
 10
128.6759750977
 20
61.5910227356
 10
127.8188280945
 20
62.4481697388
 10
126.9616810913
 20
62.6624542236
 10
126.1045431519
 20
62.6624542236
 10
125.6759741821
 20
62.2338761902
 10
125.6759741821
 20
61.5910227356
 10
126.1045431519
 20
61.1624537659
 10
126.9616810913
 20
61.1624537659
 10
127.3902591248
 20
61.5910227356
 10
127.3902591248
 20
62.5195918579
  0
LINE
  5
34C
100
AcDbEntity
  8
RACCORDO
100
AcDbLine
 62
7
  6
CONTINUOUS
 10
121.4043579719
 20
83.1331607505
 11
121.4033253668
 21
83.142761587
  0
LWPOLYLINE
  5
34D
100
AcDbEntity
  8
RACCORDO
100
AcDbPolyline
 62
250
  6
CONTINUOUS
 90
3
 70
0
 10
121.4060891919
 20
83.0895272743
 10
121.4070772502
 20
83.0803213534
 10
121.4073555605
 20
83.0778045874
  0
LWPOLYLINE
  5
34E
100
AcDbEntity
  8
0
100
AcDbPolyline
 62
250
  6
CONTINUOUS
 90
4
 70
0
 10
121.1257691913
 20
82.3455395305
 10
121.1213705159
 20
82.4285974936
 10
121.1082608133
 20
82.5107179779
 10
121.1054640046
 20
82.5232744289
  0
LINE
  5
34F
100
AcDbEntity
  8
RACCORDO
100
AcDbLine
 62
7
  6
CONTINUOUS
 10
120.9265878921
 20
38.556288196
 11
120.9259712316
 21
38.5405971596
  0
LWPOLYLINE
  5
350
100
AcDbEntity
  8
RACCORDO
100
AcDbPolyline
 62
250
  6
CONTINUOUS
 90
8
 70
0
 10
121.3863443728
 20
39.1982367707
 10
121.3837761075
 20
39.1474272989
 10
121.3760556902
 20
39.0971441671
 10
121.3632630976
 20
39.0479082628
 10
121.3455308491
 20
39.0002296253
 10
121.3230426348
 20
38.9546021618
 10
121.2960314122
 20
38.9114985316
 10
121.2896875259
 20
38.9026429175
  0
LWPOLYLINE
  5
351
100
AcDbEntity
  8
RACCORDO
100
AcDbPolyline
 62
250
  6
CONTINUOUS
 90
4
 70
0
 10
121.4037958859
 20
39.2217855767
 10
121.4011147541
 20
39.1698812527
 10
121.3930578091
 20
39.118538085
 10
121.3898301362
 20
39.1033171747
  0
LWPOLYLINE
  5
352
100
AcDbEntity
  8
RACCORDO
100
AcDbPolyline
 62
250
  6
CONTINUOUS
 90
3
 70
0
 10
121.4104895224
 20
39.2646532394
 10
121.4077657625
 20
39.2123869579
 10
121.4040495487
 20
39.1888830766
  0
LWPOLYLINE
  5
353
100
AcDbEntity
  8
0
100
AcDbPolyline
 62
250
  6
CONTINUOUS
 90
16
 70
0
 10
121.1257691913
 20
40.6584121689
 10
121.1213703894
 20
40.5755027753
 10
121.1082603497
 20
40.493473537
 10
121.0865826668
 20
40.4132229225
 10
121.0565747769
 20
40.3356299189
 10
121.0185653571
 20
40.2615444043
 10
120.9729707258
 20
40.1917778389
 10
120.9202902821
 20
40.1270943776
 10
120.8611010362
 20
40.0682025002
 10
120.7960512894
 20
40.0157472509
 10
120.7258535334
 20
39.9703031735
 10
120.6512766459
 20
39.9323680181
 10
120.5731374696
 20
39.9023572888
 10
120.492291865
 20
39.8805996938
 10
120.409625336
 20
39.8673335446
 10
120.3260433313
 20
39.8627041458
  0
LWPOLYLINE
  5
354
100
AcDbEntity
  8
RACCORDO
100
AcDbPolyline
 62
250
  6
CONTINUOUS
 90
3
 70
0
 10
121.4062497723
 20
39.2368386045
 10
121.4070900681
 20
39.2446782244
 10
121.4074002794
 20
39.2474906305
  0
LWPOLYLINE
  5
355
100
AcDbEntity
  8
RACCORDO
100
AcDbPolyline
 62
250
  6
CONTINUOUS
 90
10
 70
0
 10
99.7287209855
 20
83.790647784
 10
99.708556319
 20
83.7901350778
 10
99.6902317117
 20
83.7895550031
 10
99.6738775628
 20
83.7889240424
 10
99.6596720774
 20
83.7882403678
 10
99.6477927859
 20
83.7875058072
 10
99.6383685043
 20
83.7867423276
 10
99.6315244876
 20
83.7859572512
 10
99.6273677231
 20
83.7851432557
 10
99.625970953
 20
83.784300374
  0
LINE
  5
356
100
AcDbEntity
  8
RACCORDO
100
AcDbLine
 62
250
  6
CONTINUOUS
 10
99.773754888
 20
83.7914690798
 11
99.7287209855
 21
83.790647784
  0
LINE
  5
357
100
AcDbEntity
  8
RACCORDO
100
AcDbLine
 62
250
  6
CONTINUOUS
 10
99.8235339806
 20
83.791976014
 11
99.773754888
 21
83.7914690798
  0
LINE
  5
358
100
AcDbEntity
  8
RACCORDO
100
AcDbLine
 62
250
  6
CONTINUOUS
 10
118.6983671953
 20
83.7917670217
 11
118.7496335965
 21
83.7921061124
  0
LINE
  5
359
100
AcDbEntity
  8
RACCORDO
100
AcDbLine
 62
250
  6
CONTINUOUS
 10
99.875970953
 20
83.7921551204
 11
99.8235339806
 21
83.791976014
  0
LINE
  5
35A
100
AcDbEntity
  8
RACCORDO
100
AcDbLine
 62
7
  6
CONTINUOUS
 10
120.8733772778
 20
83.5973611742
 11
99.6785646283
 21
83.5973611742
  0
LINE
  5
35B
100
AcDbEntity
  8
RACCORDO
100
AcDbLine
 62
250
  6
CONTINUOUS
 10
118.7496335965
 20
83.7921061124
 11
120.675970953
 21
83.7921551204
  0
LINE
  5
35C
100
AcDbEntity
  8
RACCORDO
100
AcDbLine
 62
250
  6
CONTINUOUS
 10
99.625970953
 20
84.1407632079
 11
102.025970953
 21
84.1407632079
  0
LINE
  5
35D
100
AcDbEntity
  8
RACCORDO
100
AcDbLine
 62
250
  6
CONTINUOUS
 10
118.525970953
 20
84.1407632079
 11
120.925970953
 21
84.1407632079
  0
LINE
  5
35E
100
AcDbEntity
  8
RACCORDO
100
AcDbLine
 62
250
  6
CONTINUOUS
 10
99.875970953
 20
84.3572695588
 11
101.775970953
 21
84.3572695588
  0
LINE
  5
35F
100
AcDbEntity
  8
RACCORDO
100
AcDbLine
 62
250
  6
CONTINUOUS
 10
118.775970953
 20
84.3572695588
 11
120.675970953
 21
84.3572695588
  0
LINE
  5
360
100
AcDbEntity
  8
RACCORDO
100
AcDbLine
 62
250
  6
CONTINUOUS
 10
120.675970953
 20
84.7902822607
 11
118.775970953
 21
84.7902822607
  0
LINE
  5
361
100
AcDbEntity
  8
RACCORDO
100
AcDbLine
 62
250
  6
CONTINUOUS
 10
101.775970953
 20
84.7902822607
 11
99.875970953
 21
84.7902822607
  0
LINE
  5
362
100
AcDbEntity
  8
RACCORDO
100
AcDbLine
 62
7
  6
CONTINUOUS
 10
105.8731077144
 20
84.9624510444
 11
114.6788341916
 21
84.9624510444
  0
LINE
  5
363
100
AcDbEntity
  8
RACCORDO
100
AcDbLine
 62
250
  6
CONTINUOUS
 10
99.625970953
 20
85.0067886117
 11
102.025970953
 21
85.0067886117
  0
LINE
  5
364
100
AcDbEntity
  8
RACCORDO
100
AcDbLine
 62
250
  6
CONTINUOUS
 10
118.525970953
 20
85.0067886117
 11
120.925970953
 21
85.0067886117
  0
LINE
  5
365
100
AcDbEntity
  8
RACCORDO
100
AcDbLine
 62
250
  6
CONTINUOUS
 10
99.625970953
 20
85.4124510444
 11
102.025970953
 21
85.4124510444
  0
LINE
  5
366
100
AcDbEntity
  8
RACCORDO
100
AcDbLine
 62
250
  6
CONTINUOUS
 10
118.525970953
 20
85.4124510444
 11
120.925970953
 21
85.4124510444
  0
LINE
  5
367
100
AcDbEntity
  8
RACCORDO
100
AcDbLine
 62
7
  6
CONTINUOUS
 10
99.875970953
 20
85.6624510444
 11
101.775970953
 21
85.6624510444
  0
LINE
  5
368
100
AcDbEntity
  8
RACCORDO
100
AcDbLine
 62
7
  6
CONTINUOUS
 10
118.775970953
 20
85.6624510444
 11
120.675970953
 21
85.6624510444
  0
LINE
  5
369
100
AcDbEntity
  8
RACCORDO
100
AcDbLine
 62
250
  6
CONTINUOUS
 10
101.802379258
 20
83.7921059847
 11
99.875970953
 21
83.7921551204
  0
LINE
  5
36A
100
AcDbEntity
  8
RACCORDO
100
AcDbLine
 62
250
  6
CONTINUOUS
 10
120.675970953
 20
83.7921551204
 11
120.7282705513
 21
83.7919767463
  0
LINE
  5
36B
100
AcDbEntity
  8
RACCORDO
100
AcDbLine
 62
250
  6
CONTINUOUS
 10
101.8537718702
 20
83.7917652089
 11
101.802379258
 21
83.7921059847
  0
LINE
  5
36C
100
AcDbEntity
  8
RACCORDO
100
AcDbLine
 62
250
  6
CONTINUOUS
 10
120.7282705513
 20
83.7919767463
 11
120.7779333445
 21
83.7914727066
  0
LWPOLYLINE
  5
36D
100
AcDbEntity
  8
RACCORDO
100
AcDbPolyline
 62
250
  6
CONTINUOUS
 90
11
 70
0
 10
120.7779333445
 20
83.7914727066
 10
120.8229014865
 20
83.7906556988
 10
120.8430740356
 20
83.7901446002
 10
120.8614261671
 20
83.7895658408
 10
120.877823773
 20
83.7889354286
 10
120.8920854527
 20
83.7882512894
 10
120.9040240127
 20
83.7875154975
 10
120.9134995901
 20
83.7867502835
 10
120.9203827163
 20
83.785963058
 10
120.9245650576
 20
83.7851464105
 10
120.9259709342
 20
83.7843034796
  0
LWPOLYLINE
  5
36E
100
AcDbEntity
  8
RACCORDO
100
AcDbPolyline
 62
250
  6
CONTINUOUS
 90
11
 70
0
 10
99.542704202
 20
83.5967369162
 10
99.5341198689
 20
83.5970391175
 10
99.5262839402
 20
83.5972629634
 10
99.5192846808
 20
83.5974134268
 10
99.5131929423
 20
83.5974932616
 10
99.5080106725
 20
83.5975046082
 10
99.5037155702
 20
83.5974501987
 10
99.5002825587
 20
83.5973357675
 10
99.4976736002
 20
83.5971680189
 10
99.4958522165
 20
83.5969535054
 10
99.4948383199
 20
83.596719028
  0
LWPOLYLINE
  5
36F
100
AcDbEntity
  8
RACCORDO
100
AcDbPolyline
 62
250
  6
CONTINUOUS
 90
6
 70
0
 10
101.9780643432
 20
83.7889240423
 10
101.9617101943
 20
83.7895550029
 10
101.943385587
 20
83.7901350777
 10
101.9232209205
 20
83.7906477839
 10
101.9014071906
 20
83.7910921162
 10
101.8537718702
 20
83.7917652089
  0
LINE
  5
370
100
AcDbEntity
  8
RACCORDO
100
AcDbLine
 62
250
  6
CONTINUOUS
 10
99.5519856658
 20
83.5963543923
 11
99.542704202
 21
83.5967369162
  0
LINE
  5
371
100
AcDbEntity
  8
RACCORDO
100
AcDbLine
 62
250
  6
CONTINUOUS
 10
99.5723316932
 20
83.595379077
 11
99.5519856658
 21
83.5963543923
  0
LINE
  5
372
100
AcDbEntity
  8
RACCORDO
100
AcDbLine
 62
250
  6
CONTINUOUS
 10
99.6138196554
 20
83.5931190341
 11
99.5723316932
 21
83.595379077
  0
LWPOLYLINE
  5
373
100
AcDbEntity
  8
RACCORDO
100
AcDbPolyline
 62
250
  6
CONTINUOUS
 90
10
 70
0
 10
121.3793253603
 20
83.0914175982
 10
121.3797377494
 20
83.0913768508
 10
121.3801495455
 20
83.0918573653
 10
121.3805607486
 20
83.0928591418
 10
121.3809747268
 20
83.0944641645
 10
121.3813881119
 20
83.0965904491
 10
121.3817907999
 20
83.098992043
 10
121.3821831799
 20
83.1017043858
 10
121.3825648628
 20
83.1046920379
 10
121.383257727
 20
83.1103715673
  0
LWPOLYLINE
  5
374
100
AcDbEntity
  8
RACCORDO
100
AcDbPolyline
 62
250
  6
CONTINUOUS
 90
9
 70
0
 10
121.4074002794
 20
39.2474906305
 10
121.4077257509
 20
39.2503721475
 10
121.4080677046
 20
39.2531398426
 10
121.4084257509
 20
39.2558192807
 10
121.4088002796
 20
39.2583848968
 10
121.4091936819
 20
39.2605770635
 10
121.409606755
 20
39.2623092383
 10
121.4100387019
 20
39.2636679636
 10
121.4104895224
 20
39.2646532394
  0
LINE
  5
375
100
AcDbEntity
  8
DRAFT
100
AcDbLine
 62
7
  6
CONTINUOUS
 10
121.3849515504
 20
39.3374510444
 11
121.3736057582
 21
39.2576410798
  0
LWPOLYLINE
  5
376
100
AcDbEntity
  8
0
100
AcDbPolyline
 62
7
  6
CONTINUOUS
 90
27
 70
0
 10
121.1053916226
 20
82.523587063
 10
121.0965757885
 20
82.5582416769
 10
121.0864033056
 20
82.5920651987
 10
121.0743415883
 20
82.6265834494
 10
121.0602572994
 20
82.661642671
 10
121.0439745269
 20
82.6971860122
 10
121.02581331
 20
82.7322133229
 10
121.0059593461
 20
82.7663027335
 10
120.9842437769
 20
82.7996854432
 10
120.9605842169
 20
82.8323629134
 10
120.9349609483
 20
82.8642237295
 10
120.9073887606
 20
82.8951180512
 10
120.8778265826
 20
82.9249604347
 10
120.8462757101
 20
82.9536134686
 10
120.8127717699
 20
82.9809135647
 10
120.7773312732
 20
83.0067194103
 10
120.7400006354
 20
83.030870572
 10
120.7008377414
 20
83.0532059601
 10
120.6598912502
 20
83.0735740735
 10
120.6172473005
 20
83.0918080905
 10
120.5730026536
 20
83.1077442277
 10
120.5272400295
 20
83.1212281498
 10
120.480087067
 20
83.1320953225
 10
120.4316888902
 20
83.1401855973
 10
120.382176232
 20
83.145347375
 10
120.3317166906
 20
83.1474288733
 10
120.3239701375
 20
83.1474663567
  0
LINE
  5
377
100
AcDbEntity
  8
0
100
AcDbLine
 62
250
  6
CONTINUOUS
 10
121.275970953
 20
81.6961841297
 11
121.1257691913
 21
82.3455395305
  0
LINE
  5
378
100
AcDbEntity
  8
0
100
AcDbLine
 62
7
  6
CONTINUOUS
 10
121.2556927353
 20
81.8738024354
 11
121.1054640046
 21
82.5232744289
  0
LWPOLYLINE
  5
379
100
AcDbEntity
  8
RACCORDO
100
AcDbPolyline
 62
250
  6
CONTINUOUS
 90
3
 70
0
 10
121.4036277995
 20
83.1386864433
 10
121.4077657626
 20
83.11251513
 10
121.4104895224
 20
83.0602488492
  0
LWPOLYLINE
  5
37A
100
AcDbEntity
  8
RACCORDO
100
AcDbPolyline
 62
7
  6
CONTINUOUS
 90
5
 70
0
 10
121.4030770303
 20
83.1424782296
 10
121.4035432054
 20
83.1393114933
 10
121.4041586213
 20
83.1347642965
 10
121.4044020121
 20
83.1327728052
 10
121.4043579719
 20
83.1331607505
  0
LINE
  5
37B
100
AcDbEntity
  8
DRAFT
100
AcDbLine
 62
7
  6
CONTINUOUS
 10
121.3736057582
 20
83.067261009
 11
121.3849515504
 21
82.9874510444
  0
LWPOLYLINE
  5
37C
100
AcDbEntity
  8
RACCORDO
100
AcDbPolyline
 62
250
  6
CONTINUOUS
 90
8
 70
0
 10
121.4079539457
 20
83.0726443447
 10
121.4082735829
 20
83.0701803158
 10
121.4086065288
 20
83.0678315967
 10
121.4089531441
 20
83.0656127554
 10
121.409314631
 20
83.0637249448
 10
121.4096913899
 20
83.0622352156
 10
121.4100830204
 20
83.0610765171
 10
121.4104895224
 20
83.0602488492
  0
LINE
  5
37D
100
AcDbEntity
  8
RACCORDO
100
AcDbLine
 62
250
  6
CONTINUOUS
 10
121.4073555605
 20
83.0778045874
 11
121.4079539457
 21
83.0726443447
  0
LWPOLYLINE
  5
37E
100
AcDbEntity
  8
RACCORDO
100
AcDbPolyline
 62
7
  6
CONTINUOUS
 90
19
 70
0
 10
121.4033253668
 20
83.142761587
 10
121.402679316
 20
83.148542055
 10
121.4018549131
 20
83.1554683728
 10
121.4007978765
 20
83.1636286042
 10
121.3994017589
 20
83.173335497
 10
121.3975282967
 20
83.1848600492
 10
121.3950829915
 20
83.1980121948
 10
121.3920032365
 20
83.2124438701
 10
121.3881406125
 20
83.2282269719
 10
121.3833608239
 20
83.2452933983
 10
121.3776930214
 20
83.2630617929
 10
121.3710572137
 20
83.2814412071
 10
121.3633381993
 20
83.3004275417
 10
121.3546209836
 20
83.3195667931
 10
121.3448992435
 20
83.3387206321
 10
121.3340902807
 20
83.3579088168
 10
121.3222373708
 20
83.3769283407
 10
121.3093499208
 20
83.3956713861
 10
121.3056770216
 20
83.4006956256
  0
LWPOLYLINE
  5
37F
100
AcDbEntity
  8
0
100
AcDbPolyline
 62
7
  6
CONTINUOUS
 90
3
 70
0
 43
0.3500000006
 10
128.0331125793
 20
60.3053067627
 10
128.0331125793
 20
58.8053063049
 10
125.6759741821
 20
59.4481688232
  0
LWPOLYLINE
  5
380
100
AcDbEntity
  8
RACCORDO
100
AcDbPolyline
 62
250
  6
CONTINUOUS
 90
6
 70
0
 10
121.3849063874
 20
39.0848845545
 10
121.3797121569
 20
39.0683111585
 10
121.3612220811
 20
39.0197434899
 10
121.3377874829
 20
38.973360157
 10
121.30966172
 20
38.9296626223
 10
121.3064717269
 20
38.9252815202
  0
LWPOLYLINE
  5
381
100
AcDbEntity
  8
RACCORDO
100
AcDbPolyline
 62
7
  6
CONTINUOUS
 90
6
 70
0
 10
121.0571032699
 20
38.7281845527
 10
121.0507616155
 20
38.7257537086
 10
121.0402502481
 20
38.7211565242
 10
121.029552418
 20
38.7157018294
 10
121.018721599
 20
38.7093065003
 10
121.0080671854
 20
38.7020589071
  0
LWPOLYLINE
  5
382
100
AcDbEntity
  8
RACCORDO
100
AcDbPolyline
 62
7
  6
CONTINUOUS
 90
3
 70
0
 10
121.0571228806
 20
38.728191703
 10
121.0680473444
 20
38.7323092748
 10
121.0894132162
 20
38.7412234732
  0
LWPOLYLINE
  5
383
100
AcDbEntity
  8
0
100
AcDbPolyline
 62
250
  6
CONTINUOUS
 90
16
 70
0
 10
121.1076414422
 20
81.7824004043
 10
121.1012570832
 20
81.7979353616
 10
121.0864671154
 20
81.8132786827
 10
121.0634282412
 20
81.8282678021
 10
121.0323845618
 20
81.8427439072
 10
120.9936649912
 20
81.8565536206
 10
120.9476797706
 20
81.8695506258
 10
120.8949161224
 20
81.881597217
 10
120.8359330879
 20
81.8925657581
 10
120.7713556038
 20
81.9023400353
 10
120.7018678812
 20
81.9108164882
 10
120.6282061563
 20
81.917905307
 10
120.5511508896
 20
81.9235313843
 10
120.4715184968
 20
81.9276351107
 10
120.3901526988
 20
81.9301730065
 10
120.3079155822
 20
81.9311181821
  0
LWPOLYLINE
  5
384
100
AcDbEntity
  8
0
100
AcDbPolyline
 62
250
  6
CONTINUOUS
 90
13
 70
0
 10
121.1257691913
 20
82.3455395305
 10
121.124379675
 20
82.3492874291
 10
121.1230269778
 20
82.3493764886
 10
121.1217110997
 20
82.3458067089
 10
121.1204316489
 20
82.3385265296
 10
121.1191890171
 20
82.3275875113
 10
121.1179843798
 20
82.313144335
 10
121.1168100118
 20
82.2950925407
 10
121.1156736382
 20
82.2735365885
 10
121.114599609
 20
82.2489445397
 10
121.1135876854
 20
82.2210058423
 10
121.1126381062
 20
82.1900310483
 10
121.1110140739
 20
82.1236205526
  0
LWPOLYLINE
  5
385
100
AcDbEntity
  8
RACCORDO
100
AcDbPolyline
 62
7
  6
CONTINUOUS
 90
9
 70
0
 10
120.935471253
 20
83.7234157587
 10
120.9412666378
 20
83.7076213187
 10
120.9482128629
 20
83.6926744342
 10
120.9561857582
 20
83.6786418895
 10
120.9650576429
 20
83.6655793942
 10
120.974708524
 20
83.6535181352
 10
120.9850140226
 20
83.6424854897
 10
120.9958382182
 20
83.6325072697
 10
121.0070879269
 20
83.6235612686
  0
LWPOLYLINE
  5
386
100
AcDbEntity
  8
RACCORDO
100
AcDbPolyline
 62
250
  6
CONTINUOUS
 90
5
 70
0
 10
121.3673144381
 20
39.0612791066
 10
121.343563455
 20
39.0146477232
 10
121.3150666356
 20
38.9707565035
 10
121.2821363169
 20
38.9300865138
 10
121.2790380293
 20
38.9268176279
  0
LWPOLYLINE
  5
387
100
AcDbEntity
  8
RACCORDO
100
AcDbPolyline
 62
7
  6
CONTINUOUS
 90
15
 70
0
 10
121.3286327277
 20
38.9579995045
 10
121.3415940705
 20
38.980101654
 10
121.3531052617
 20
39.0022116534
 10
121.3630811155
 20
39.0238789515
 10
121.3716424703
 20
39.0449972492
 10
121.3789109124
 20
39.0654756312
 10
121.3849063874
 20
39.0848845545
 10
121.3898301362
 20
39.1033171747
 10
121.3937926361
 20
39.1205994932
 10
121.3968022615
 20
39.1359435862
 10
121.399025022
 20
39.1491253821
 10
121.4006891942
 20
39.1604774359
 10
121.4019279139
 20
39.1700269945
 10
121.4028213019
 20
39.1776051858
 10
121.4042472794
 20
39.1907305388
  0
LWPOLYLINE
  5
388
100
AcDbEntity
  8
RACCORDO
100
AcDbPolyline
 62
250
  6
CONTINUOUS
 90
13
 70
0
 10
121.4037957098
 20
39.2217851272
 10
121.403962398
 20
39.2220571462
 10
121.4041348832
 20
39.2224973893
 10
121.4043131656
 20
39.2231058564
 10
121.4044966033
 20
39.2238746519
 10
121.4046858381
 20
39.2248116714
 10
121.4048827951
 20
39.2259406018
 10
121.4050874043
 20
39.227267601
 10
121.4052997357
 20
39.2287865111
 10
121.4055219246
 20
39.2305025452
 10
121.4057538041
 20
39.2324274615
 10
121.4059955411
 20
39.2345495019
 10
121.4062497723
 20
39.2368386045
  0
LWPOLYLINE
  5
389
100
AcDbEntity
  8
RACCORDO
100
AcDbPolyline
 62
7
  6
CONTINUOUS
 90
3
 70
0
 10
121.3064717269
 20
38.9252815202
 10
121.3142342748
 20
38.9361207757
 10
121.3286327277
 20
38.9579995045
  0
LINE
  5
38A
100
AcDbEntity
  8
RACCORDO
100
AcDbLine
 62
7
  6
CONTINUOUS
 10
121.2921026427
 20
38.9059316646
 11
121.2881220638
 21
38.9005190054
  0
LINE
  5
38B
100
AcDbEntity
  8
RACCORDO
100
AcDbLine
 62
250
  6
CONTINUOUS
 10
121.3863461051
 20
39.1982391256
 11
121.3941012717
 21
39.208767611
  0
LINE
  5
38C
100
AcDbEntity
  8
RACCORDO
100
AcDbLine
 62
7
  6
CONTINUOUS
 10
121.3064717269
 20
38.9252815202
 11
121.2921026427
 21
38.9059316646
  0
LINE
  5
38D
100
AcDbEntity
  8
RACCORDO
100
AcDbLine
 62
250
  6
CONTINUOUS
 10
121.3941012717
 20
39.208767611
 11
121.4018572867
 21
39.2191949527
  0
LINE
  5
38E
100
AcDbEntity
  8
RACCORDO
100
AcDbLine
 62
250
  6
CONTINUOUS
 10
121.4018572867
 20
39.2191949527
 11
121.4037957098
 21
39.2217851272
  0
LINE
  5
38F
100
AcDbEntity
  8
RACCORDO
100
AcDbLine
 62
7
  6
CONTINUOUS
 10
121.2770084659
 20
38.8860786835
 11
121.2881229162
 21
38.9005183694
  0
LINE
  5
390
100
AcDbEntity
  8
RACCORDO
100
AcDbLine
 62
7
  6
CONTINUOUS
 10
121.3040127145
 20
38.9219712505
 11
121.2888986839
 21
38.903280815
  0
LINE
  5
391
100
AcDbEntity
  8
RACCORDO
100
AcDbLine
 62
250
  6
CONTINUOUS
 10
121.4104895224
 20
39.2646532394
 11
121.425970953
 21
39.2801345898
  0
LWPOLYLINE
  5
392
100
AcDbEntity
  8
RACCORDO
100
AcDbPolyline
 62
7
  6
CONTINUOUS
 90
13
 70
0
 10
121.0080671854
 20
38.7020589071
 10
120.9977051152
 20
38.6939728159
 10
120.9876786942
 20
38.6850124882
 10
120.9781509774
 20
38.6752578512
 10
120.9692245734
 20
38.6647664424
 10
120.9609365478
 20
38.6535300475
 10
120.9533420631
 20
38.641551743
 10
120.9465192727
 20
38.6288676061
 10
120.9405452297
 20
38.6155208588
 10
120.935485154
 20
38.6015297761
 10
120.9314207087
 20
38.5869531154
 10
120.9284307792
 20
38.5718587013
 10
120.9265878921
 20
38.556288196
  0
LWPOLYLINE
  5
393
100
AcDbEntity
  8
RACCORDO
100
AcDbPolyline
 62
250
  6
CONTINUOUS
 90
7
 70
0
 10
120.9259709352
 20
38.54059869
 10
120.9245650576
 20
38.5397556777
 10
120.9203827163
 20
38.5389390299
 10
120.9134995902
 20
38.5381518043
 10
120.9040240127
 20
38.5373865907
 10
120.8920854527
 20
38.5366507993
 10
120.877823773
 20
38.5359666604
  0
LWPOLYLINE
  5
394
100
AcDbEntity
  8
RACCORDO
100
AcDbPolyline
 62
7
  6
CONTINUOUS
 90
12
 70
0
 10
121.0894132162
 20
38.7412234732
 10
121.110130291
 20
38.7510097445
 10
121.130168606
 20
38.7616175964
 10
121.1495076248
 20
38.7729998022
 10
121.168125251
 20
38.7851070339
 10
121.1860008373
 20
38.7978889091
 10
121.2031202779
 20
38.8112978236
 10
121.2194694548
 20
38.8252845866
 10
121.2350378602
 20
38.839801119
 10
121.2498206022
 20
38.8548031182
 10
121.2638118738
 20
38.8702441335
 10
121.2770084659
 20
38.8860786835
  0
LWPOLYLINE
  5
395
100
AcDbEntity
  8
0
100
AcDbPolyline
 62
7
  6
CONTINUOUS
 90
8
 70
0
 43
0.3500000006
 10
102.4224005127
 20
94.4124503174
 10
103.2795384521
 20
94.4124503174
 10
103.7081164856
 20
94.8410192871
 10
103.7081164856
 20
95.6981662903
 10
103.2795384521
 20
96.12673526
 10
102.4224005127
 20
96.12673526
 10
102.4224005127
 20
97.4124512329
 10
103.7081164856
 20
97.4124512329
  0
LWPOLYLINE
  5
396
100
AcDbEntity
  8
0
100
AcDbPolyline
 62
7
  6
CONTINUOUS
 90
3
 70
0
 43
0.3500000006
 10
97.4938301697
 20
95.055303772
 10
95.9938297119
 20
95.055303772
 10
96.6366831665
 20
97.4124512329
  0
LWPOLYLINE
  5
397
100
AcDbEntity
  8
0
100
AcDbPolyline
 62
7
  6
CONTINUOUS
 90
3
 70
0
 43
0.3500000006
 10
95.1366827087
 20
95.055303772
 10
93.636682251
 20
95.055303772
 10
94.2795447693
 20
97.4124512329
  0
LINE
  5
398
100
AcDbEntity
  8
RACCORDO
100
AcDbLine
 62
7
  6
CONTINUOUS
 10
121.1072353059
 20
83.5753295773
 11
121.062234096
 21
83.5948200654
  0
LWPOLYLINE
  5
399
100
AcDbEntity
  8
RACCORDO
100
AcDbPolyline
 62
7
  6
CONTINUOUS
 90
6
 70
0
 10
121.0070879269
 20
83.6235612686
 10
121.0186326645
 20
83.6156519888
 10
121.0302692533
 20
83.6088089229
 10
121.0420668481
 20
83.6028987355
 10
121.0537533243
 20
83.5979703453
 10
121.062234096
 20
83.5948200654
  0
LWPOLYLINE
  5
39A
100
AcDbEntity
  8
RACCORDO
100
AcDbPolyline
 62
7
  6
CONTINUOUS
 90
4
 70
0
 10
121.2275276413
 20
83.4922565959
 10
121.1902638999
 20
83.5237838895
 10
121.1500440511
 20
83.5515685756
 10
121.1072353059
 20
83.5753295773
  0
LINE
  5
39B
100
AcDbEntity
  8
RACCORDO
100
AcDbLine
 62
250
  6
CONTINUOUS
 10
121.4104895224
 20
83.0602488492
 11
121.425970953
 21
83.044767499
  0
LINE
  5
39C
100
AcDbEntity
  8
RACCORDO
100
AcDbLine
 62
7
  6
CONTINUOUS
 10
121.2614867239
 20
83.4573128798
 11
121.2275276413
 21
83.4922565959
  0
LINE
  5
39D
100
AcDbEntity
  8
RACCORDO
100
AcDbLine
 62
7
  6
CONTINUOUS
 10
121.2851985134
 20
83.4282875084
 11
121.2614867239
 21
83.4573128798
  0
LINE
  5
39E
100
AcDbEntity
  8
RACCORDO
100
AcDbLine
 62
7
  6
CONTINUOUS
 10
121.29791953
 20
83.410455185
 11
121.304012486
 21
83.4029301185
  0
LINE
  5
39F
100
AcDbEntity
  8
RACCORDO
100
AcDbLine
 62
7
  6
CONTINUOUS
 10
121.2851986117
 20
83.4282875792
 11
121.2896875265
 21
83.4222591705
  0
LINE
  5
3A0
100
AcDbEntity
  8
RACCORDO
100
AcDbLine
 62
7
  6
CONTINUOUS
 10
121.3056770216
 20
83.4006956256
 11
121.2977240658
 21
83.4113625728
  0
LINE
  5
3A1
100
AcDbEntity
  8
RACCORDO
100
AcDbLine
 62
250
  6
CONTINUOUS
 10
121.3960406521
 20
83.1135176115
 11
121.4037956862
 21
83.1031169932
  0
LWPOLYLINE
  5
3A2
100
AcDbEntity
  8
RACCORDO
100
AcDbPolyline
 62
7
  6
CONTINUOUS
 90
3
 70
0
 10
121.2977240658
 20
83.4113625728
 10
121.2902301815
 20
83.4215191561
 10
121.2896875265
 20
83.4222591705
  0
LWPOLYLINE
  5
3A3
100
AcDbEntity
  8
RACCORDO
100
AcDbPolyline
 62
250
  6
CONTINUOUS
 90
3
 70
0
 10
121.3863461072
 20
83.1266629604
 10
121.3882845723
 20
83.1240216538
 10
121.3960406521
 20
83.1135176115
  0
LINE
  5
3A4
100
AcDbEntity
  8
RACCORDO
100
AcDbLine
 62
7
  6
CONTINUOUS
 10
121.2896875265
 20
83.4222591705
 11
121.2960314122
 21
83.4134035572
  0
LINE
  5
3A5
100
AcDbEntity
  8
RACCORDO
100
AcDbLine
 62
250
  6
CONTINUOUS
 10
121.3096618527
 20
83.3952382971
 11
121.3377876471
 21
83.3515408959
  0
LINE
  5
3A6
100
AcDbEntity
  8
RACCORDO
100
AcDbLine
 62
7
  6
CONTINUOUS
 10
121.2960314122
 20
83.4134035572
 11
121.3181880553
 21
83.3788050651
  0
LWPOLYLINE
  5
3A7
100
AcDbEntity
  8
RACCORDO
100
AcDbPolyline
 62
250
  6
CONTINUOUS
 90
14
 70
0
 10
121.4037956862
 20
83.1031169932
 10
121.4039394871
 20
83.102887757
 10
121.4040876826
 20
83.102534666
 10
121.4042402727
 20
83.1020577203
 10
121.4043967022
 20
83.1014644377
 10
121.4045575264
 20
83.1007473003
 10
121.4047244104
 20
83.0998837549
 10
121.4048974294
 20
83.0988698819
 10
121.4050765082
 20
83.097709601
 10
121.4052630868
 20
83.0963921172
 10
121.4054570322
 20
83.0949132265
 10
121.4056584775
 20
83.093277133
 10
121.4058692621
 20
83.091485654
 10
121.4060891919
 20
83.0895272743
  0
LINE
  5
3A8
100
AcDbEntity
  8
RACCORDO
100
AcDbLine
 62
250
  6
CONTINUOUS
 10
121.3181880553
 20
83.3788050651
 11
121.3230426348
 21
83.3702999269
  0
LINE
  5
3A9
100
AcDbEntity
  8
RACCORDO
100
AcDbLine
 62
250
  6
CONTINUOUS
 10
121.3377876471
 20
83.3515408959
 11
121.3448992435
 21
83.3387206321
  0
LWPOLYLINE
  5
3AA
100
AcDbEntity
  8
RACCORDO
100
AcDbPolyline
 62
250
  6
CONTINUOUS
 90
6
 70
0
 10
121.3546209836
 20
83.3195667931
 10
121.3612222553
 20
83.3051577234
 10
121.3797123196
 20
83.2565902402
 10
121.3930579391
 20
83.2063635222
 10
121.401114831
 20
83.1550205837
 10
121.4037958905
 20
83.1031165065
  0
LWPOLYLINE
  5
3AB
100
AcDbEntity
  8
RACCORDO
100
AcDbPolyline
 62
250
  6
CONTINUOUS
 90
6
 70
0
 10
121.3230426348
 20
83.3702999269
 10
121.3455308491
 20
83.3246724635
 10
121.3632630975
 20
83.276993826
 10
121.3760556902
 20
83.2277579217
 10
121.3837761074
 20
83.1774747898
 10
121.3863443727
 20
83.126665318
  0
LINE
  5
3AC
100
AcDbEntity
  8
RACCORDO
100
AcDbLine
 62
7
  6
CONTINUOUS
 10
48.807004902
 20
36.6624510444
 11
51.807004902
 21
36.6624510444
  0
LINE
  5
3AD
100
AcDbEntity
  8
RACCORDO
100
AcDbLine
 62
250
  6
CONTINUOUS
 10
48.557004902
 20
36.9124510444
 11
52.057004902
 21
36.9124510444
  0
LINE
  5
3AE
100
AcDbEntity
  8
RACCORDO
100
AcDbLine
 62
250
  6
CONTINUOUS
 10
52.057004902
 20
37.3181134771
 11
51.807004902
 21
37.3181134771
  0
LINE
  5
3AF
100
AcDbEntity
  8
RACCORDO
100
AcDbLine
 62
250
  6
CONTINUOUS
 10
48.807004902
 20
37.3181134771
 11
48.557004902
 21
37.3181134771
  0
LINE
  5
3B0
100
AcDbEntity
  8
RACCORDO
100
AcDbLine
 62
7
  6
CONTINUOUS
 10
58.557004902
 20
37.3624510444
 11
52.057004902
 21
37.3624510444
  0
LINE
  5
3B1
100
AcDbEntity
  8
RACCORDO
100
AcDbLine
 62
250
  6
CONTINUOUS
 10
50.9271792176
 20
39.2368386045
 11
50.9753197277
 21
39.2446782244
  0
LWPOLYLINE
  5
3B2
100
AcDbEntity
  8
RACCORDO
100
AcDbPolyline
 62
250
  6
CONTINUOUS
 90
9
 70
0
 10
50.9753197277
 20
39.2446782244
 10
51.011737971
 20
39.2503721475
 10
51.0313284882
 20
39.2531398426
 10
51.0518409488
 20
39.2558192807
 10
51.07329768
 20
39.2583848968
 10
51.0958356841
 20
39.2605770635
 10
51.1195006285
 20
39.2623092383
 10
51.1442468458
 20
39.2636679636
 10
51.1700743361
 20
39.2646532394
  0
LWPOLYLINE
  5
3B3
100
AcDbEntity
  8
RACCORDO
100
AcDbPolyline
 62
250
  6
CONTINUOUS
 90
6
 70
0
 10
51.0449209765
 20
38.7567990523
 10
51.1352432235
 20
38.7624813659
 10
51.1488400485
 20
38.7632530527
 10
51.1620802766
 20
38.7639107916
 10
51.1749613846
 20
38.764412601
 10
51.1875258733
 20
38.7647297751
  0
LWPOLYLINE
  5
3B4
100
AcDbEntity
  8
RACCORDO
100
AcDbPolyline
 62
250
  6
CONTINUOUS
 90
3
 70
0
 10
50.9941200409
 20
38.7540069271
 10
51.0113816484
 20
38.7549032978
 10
51.0449209765
 20
38.7567990523
  0
LINE
  5
3B5
100
AcDbEntity
  8
RACCORDO
100
AcDbLine
 62
250
  6
CONTINUOUS
 10
50.958981263
 20
38.752399564
 11
50.9941200409
 21
38.7540069271
  0
LINE
  5
3B6
100
AcDbEntity
  8
RACCORDO
100
AcDbLine
 62
250
  6
CONTINUOUS
 10
50.9234736516
 20
38.750976683
 11
50.958981263
 21
38.752399564
  0
LINE
  5
3B7
100
AcDbEntity
  8
RACCORDO
100
AcDbLine
 62
250
  6
CONTINUOUS
 10
50.8881179683
 20
38.7497702039
 11
50.9234736516
 21
38.750976683
  0
LINE
  5
3B8
100
AcDbEntity
  8
RACCORDO
100
AcDbLine
 62
250
  6
CONTINUOUS
 10
51.057004902
 20
38.5659115918
 11
50.807004902
 21
38.5580568125
  0
LINE
  5
3B9
100
AcDbEntity
  8
RACCORDO
100
AcDbLine
 62
250
  6
CONTINUOUS
 10
49.807004902
 20
38.5406017476
 11
49.557004902
 21
38.5327469684
  0
LWPOLYLINE
  5
3BA
100
AcDbEntity
  8
RACCORDO
100
AcDbPolyline
 62
250
  6
CONTINUOUS
 90
12
 70
0
 10
50.7865860715
 20
39.2217851272
 10
50.7961356289
 20
39.2220571462
 10
50.8060173017
 20
39.2224973893
 10
50.8162310899
 20
39.2231058564
 10
50.8267402303
 20
39.2238746519
 10
50.8375814861
 20
39.2248116714
 10
50.8488651472
 20
39.2259406018
 10
50.8605871985
 20
39.227267601
 10
50.8727516552
 20
39.2287865111
 10
50.8854808519
 20
39.2305025452
 10
50.8987652158
 20
39.2324274615
 10
50.9271792176
 20
39.2368386045
  0
LINE
  5
3BB
100
AcDbEntity
  8
RACCORDO
100
AcDbLine
 62
250
  6
CONTINUOUS
 10
50.8533967155
 20
38.7487955335
 11
50.8881179683
 21
38.7497702039
  0
LINE
  5
3BC
100
AcDbEntity
  8
RACCORDO
100
AcDbLine
 62
250
  6
CONTINUOUS
 10
49.7868988869
 20
39.1982391256
 11
50.7865860715
 21
39.2217851272
  0
LINE
  5
3BD
100
AcDbEntity
  8
RACCORDO
100
AcDbLine
 62
250
  6
CONTINUOUS
 10
50.8036948136
 20
38.7476916827
 11
50.8533967155
 21
38.7487955335
  0
LINE
  5
3BE
100
AcDbEntity
  8
RACCORDO
100
AcDbLine
 62
250
  6
CONTINUOUS
 10
50.807004902
 20
38.5580568125
 11
49.807004902
 21
38.5406017476
  0
LINE
  5
3BF
100
AcDbEntity
  8
RACCORDO
100
AcDbLine
 62
7
  6
CONTINUOUS
 10
49.057004902
 20
38.7275409145
 11
49.4021660644
 21
38.733565725
  0
LINE
  5
3C0
100
AcDbEntity
  8
RACCORDO
100
AcDbLine
 62
7
  6
CONTINUOUS
 10
51.1875242071
 20
38.7647292673
 11
61.0744573084
 21
38.9373063266
  0
LINE
  5
3C1
100
AcDbEntity
  8
RACCORDO
100
AcDbLine
 62
250
  6
CONTINUOUS
 10
49.057004902
 20
39.227769395
 11
49.3846806883
 21
39.2334844886
  0
LINE
  5
3C2
100
AcDbEntity
  8
RACCORDO
100
AcDbLine
 62
250
  6
CONTINUOUS
 10
51.1700743361
 20
39.2646532394
 11
52.057004902
 21
39.2801345898
  0
LINE
  5
3C3
100
AcDbEntity
  8
RACCORDO
100
AcDbLine
 62
250
  6
CONTINUOUS
 10
49.7867477173
 20
38.7282341448
 11
50.8036947692
 21
38.7476941898
  0
LINE
  5
3C4
100
AcDbEntity
  8
RACCORDO
100
AcDbLine
 62
250
  6
CONTINUOUS
 10
49.7512676951
 20
38.7277413742
 11
49.7867477173
 21
38.7282341448
  0
LWPOLYLINE
  5
3C5
100
AcDbEntity
  8
RACCORDO
100
AcDbPolyline
 62
250
  6
CONTINUOUS
 90
5
 70
0
 10
49.402189634
 20
38.7335566843
 10
49.4148721328
 20
38.7336604175
 10
49.4278202985
 20
38.7335464598
 10
49.4411099899
 20
38.7332527746
 10
49.4547521458
 20
38.732828978
  0
LINE
  5
3C6
100
AcDbEntity
  8
RACCORDO
100
AcDbLine
 62
250
  6
CONTINUOUS
 10
49.7143407505
 20
38.7274508448
 11
49.7512676951
 21
38.7277413742
  0
LINE
  5
3C7
100
AcDbEntity
  8
RACCORDO
100
AcDbLine
 62
250
  6
CONTINUOUS
 10
49.807004902
 20
38.1841388809
 11
49.557004902
 21
38.1841388809
  0
LINE
  5
3C8
100
AcDbEntity
  8
RACCORDO
100
AcDbLine
 62
250
  6
CONTINUOUS
 10
50.807004902
 20
38.1841388809
 11
51.057004902
 21
38.1841388809
  0
LWPOLYLINE
  5
3C9
100
AcDbEntity
  8
RACCORDO
100
AcDbPolyline
 62
250
  6
CONTINUOUS
 90
3
 70
0
 10
49.6575361263
 20
38.7274683765
 10
49.6765620988
 20
38.7274009098
 10
49.7143407505
 20
38.7274508448
  0
LWPOLYLINE
  5
3CA
100
AcDbEntity
  8
RACCORDO
100
AcDbPolyline
 62
250
  6
CONTINUOUS
 90
8
 70
0
 10
49.3846806883
 20
39.2334844886
 10
49.4129773898
 20
39.2333005509
 10
49.4399939477
 20
39.2326116986
 10
49.4657303619
 20
39.2314179318
 10
49.4901280503
 20
39.2296056291
 10
49.513245595
 20
39.2272884119
 10
49.5352587425
 20
39.224807144
 10
49.5561931348
 20
39.222197783
  0
LWPOLYLINE
  5
3CB
100
AcDbEntity
  8
RACCORDO
100
AcDbPolyline
 62
250
  6
CONTINUOUS
 90
4
 70
0
 10
49.5827476108
 20
38.7284776428
 10
49.6010350362
 20
38.7281004753
 10
49.6196510973
 20
38.7278320945
 10
49.6575361263
 20
38.7274683765
  0
LINE
  5
3CC
100
AcDbEntity
  8
RACCORDO
100
AcDbLine
 62
250
  6
CONTINUOUS
 10
49.5474857655
 20
38.7294174475
 11
49.5827476108
 21
38.7284776428
  0
LWPOLYLINE
  5
3CD
100
AcDbEntity
  8
RACCORDO
100
AcDbPolyline
 62
250
  6
CONTINUOUS
 90
3
 70
0
 10
49.4547521458
 20
38.732828978
 10
49.4985913318
 20
38.7311438962
 10
49.5474857655
 20
38.7294174475
  0
LINE
  5
3CE
100
AcDbEntity
  8
0
100
AcDbLine
 62
7
  6
CONTINUOUS
 10
38.6488939619
 20
39.8627041458
 11
44.3221708959
 21
39.115803068
  0
LINE
  5
3CF
100
AcDbEntity
  8
0
100
AcDbLine
 62
250
  6
CONTINUOUS
 10
38.7325294522
 20
40.6584121689
 11
44.419647811
 21
39.9096888329
  0
LWPOLYLINE
  5
3D0
100
AcDbEntity
  8
RACCORDO
100
AcDbPolyline
 62
250
  6
CONTINUOUS
 90
13
 70
0
 10
49.6453861626
 20
39.209253126
 10
49.6604639736
 20
39.2071461467
 10
49.6746901381
 20
39.2052359073
 10
49.6882599581
 20
39.2035570104
 10
49.7011855667
 20
39.202126237
 10
49.7134548309
 20
39.2009268062
 10
49.7252266535
 20
39.1999429772
 10
49.7365106775
 20
39.1991805042
 10
49.7472972598
 20
39.1986336331
 10
49.7577163746
 20
39.19826936
 10
49.7678113463
 20
39.1980766838
 10
49.7775388504
 20
39.1980666057
 10
49.7868988869
 20
39.1982391256
  0
LWPOLYLINE
  5
3D1
100
AcDbEntity
  8
RACCORDO
100
AcDbPolyline
 62
250
  6
CONTINUOUS
 90
4
 70
0
 10
49.5561931348
 20
39.222197783
 10
49.5948475482
 20
39.2167199006
 10
49.6126480197
 20
39.2141194351
 10
49.6453861626
 20
39.209253126
  0
LWPOLYLINE
  5
3D2
100
AcDbEntity
  8
0
100
AcDbPolyline
 62
7
  6
CONTINUOUS
 90
3
 70
0
 43
0.3500000006
 10
55.0212893372
 20
96.5553042297
 10
55.8784318085
 20
97.4124512329
 10
55.8784318085
 20
94.4124503174
  0
LINE
  5
3D3
100
AcDbEntity
  8
DRAFT
100
AcDbLine
 62
7
  6
CONTINUOUS
 10
49.707004902
 20
39.3374510444
 11
49.057004902
 21
39.2576410798
  0
LINE
  5
3D4
100
AcDbEntity
  8
DRAFT
100
AcDbLine
 62
7
  6
CONTINUOUS
 10
52.057004902
 20
40.2624510444
 11
62.057004902
 21
40.2624510444
  0
LINE
  5
3D5
100
AcDbEntity
  8
RACCORDO
100
AcDbLine
 62
7
  6
CONTINUOUS
 10
52.057004902
 20
39.7624510444
 11
61.9944394545
 21
39.5889924791
  0
LWPOLYLINE
  5
3D6
100
AcDbEntity
  8
0
100
AcDbPolyline
 62
250
  6
CONTINUOUS
 90
3
 70
0
 10
37.3637777016
 20
41.4303783776
 10
37.3511188053
 20
41.430918954
 10
37.3468789106
 20
41.4310019512
  0
LINE
  5
3D7
100
AcDbEntity
  8
0
100
AcDbLine
 62
250
  6
CONTINUOUS
 10
37.4946184293
 20
41.4238259629
 11
37.3637777016
 21
41.4303783776
  0
LINE
  5
3D8
100
AcDbEntity
  8
0
100
AcDbLine
 62
250
  6
CONTINUOUS
 10
38.1249224278
 20
41.3902844699
 11
37.4946184293
 21
41.4238259629
  0
LINE
  5
3D9
100
AcDbEntity
  8
RACCORDO
100
AcDbLine
 62
250
  6
CONTINUOUS
 10
51.057004902
 20
84.5737759098
 11
51.807004902
 21
85.0067886117
  0
LINE
  5
3DA
100
AcDbEntity
  8
RACCORDO
100
AcDbLine
 62
7
  6
CONTINUOUS
 10
51.182004902
 20
84.3572695588
 11
51.932004902
 21
84.7902822607
  0
LINE
  5
3DB
100
AcDbEntity
  8
RACCORDO
100
AcDbLine
 62
7
  6
CONTINUOUS
 10
45.35176918
 20
42.8384719667
 11
49.5158310965
 21
42.7657879956
  0
LINE
  5
3DC
100
AcDbEntity
  8
RACCORDO
100
AcDbLine
 62
250
  6
CONTINUOUS
 10
51.807004902
 20
37.3181134771
 11
51.057004902
 21
37.751126179
  0
LINE
  5
3DD
100
AcDbEntity
  8
RACCORDO
100
AcDbLine
 62
7
  6
CONTINUOUS
 10
51.932004902
 20
37.534619828
 11
51.182004902
 21
37.9676325299
  0
LINE
  5
3DE
100
AcDbEntity
  8
RACCORDO
100
AcDbLine
 62
250
  6
CONTINUOUS
 10
45.057004902
 20
43.3383958143
 11
45.35176918
 21
43.3383958143
  0
LINE
  5
3DF
100
AcDbEntity
  8
RACCORDO
100
AcDbLine
 62
250
  6
CONTINUOUS
 10
45.35176918
 20
43.3383958143
 11
49.4543163272
 21
43.2667855874
  0
LWPOLYLINE
  5
3E0
100
AcDbEntity
  8
0
100
AcDbPolyline
 62
7
  6
CONTINUOUS
 90
3
 70
0
 43
0.3500000006
 10
50.7365603943
 20
104.6981690369
 10
50.6651292114
 20
104.4838754883
 10
50.5222713776
 20
104.1981688843
  0
LINE
  5
3E1
100
AcDbEntity
  8
RACCORDO
100
AcDbLine
 62
250
  6
CONTINUOUS
 10
48.807004902
 20
85.0067886117
 11
48.682004902
 21
84.7902822607
  0
LINE
  5
3E2
100
AcDbEntity
  8
RACCORDO
100
AcDbLine
 62
7
  6
CONTINUOUS
 10
52.057004902
 20
76.0227487017
 11
62.057004902
 21
79.6624510444
  0
LINE
  5
3E3
100
AcDbEntity
  8
RACCORDO
100
AcDbLine
 62
250
  6
CONTINUOUS
 10
62.057004902
 20
80.1666914247
 11
52.057004902
 21
76.6195848124
  0
LINE
  5
3E4
100
AcDbEntity
  8
RACCORDO
100
AcDbLine
 62
250
  6
CONTINUOUS
 10
52.057004902
 20
45.7053172764
 11
62.057004902
 21
42.158210664
  0
LINE
  5
3E5
100
AcDbEntity
  8
RACCORDO
100
AcDbLine
 62
7
  6
CONTINUOUS
 10
62.057004902
 20
42.6624510444
 11
52.057004902
 21
46.302153387
  0
LINE
  5
3E6
100
AcDbEntity
  8
RACCORDO
100
AcDbLine
 62
250
  6
CONTINUOUS
 10
48.807004902
 20
37.3181134771
 11
48.682004902
 21
37.534619828
  0
LWPOLYLINE
  5
3E7
100
AcDbEntity
  8
0
100
AcDbPolyline
 62
250
  6
CONTINUOUS
 90
22
 70
0
 10
38.124922428
 20
41.3902844735
 10
38.1243236664
 20
41.3371591845
 10
38.1273194988
 20
41.2852157908
 10
38.1339099253
 20
41.2344542922
 10
38.1441475198
 20
41.1848564269
 10
38.1579797084
 20
41.1364404567
 10
38.1752487686
 20
41.0892611674
 10
38.1960774095
 20
41.0430151036
 10
38.220342922
 20
40.9980057206
 10
38.2475194563
 20
40.9551981697
 10
38.277919811
 20
40.9145636478
 10
38.3112311874
 20
40.8761309581
 10
38.3459893393
 20
40.8409516608
 10
38.381714429
 20
40.8095491373
 10
38.4188862942
 20
40.7814000064
 10
38.4574802016
 20
40.7559856847
 10
38.4969815222
 20
40.7331881784
 10
38.5379048852
 20
40.7131254814
 10
38.5817694442
 20
40.6956329921
 10
38.6290815841
 20
40.6806558433
 10
38.6793349201
 20
40.6682489023
 10
38.7325294522
 20
40.6584121689
  0
LINE
  5
3E8
100
AcDbEntity
  8
RACCORDO
100
AcDbLine
 62
250
  6
CONTINUOUS
 10
49.557004902
 20
84.5737759098
 11
49.432004902
 21
84.3572695588
  0
LINE
  5
3E9
100
AcDbEntity
  8
RACCORDO
100
AcDbLine
 62
250
  6
CONTINUOUS
 10
49.557004902
 20
37.751126179
 11
49.432004902
 21
37.9676325299
  0
LWPOLYLINE
  5
3EA
100
AcDbEntity
  8
0
100
AcDbPolyline
 62
250
  6
CONTINUOUS
 90
13
 70
0
 10
43.0844506465
 20
81.7824004043
 10
42.4876716398
 20
78.589413343
 10
41.9258897993
 20
75.3926810605
 10
41.3991051252
 20
72.1922035568
 10
40.9089149586
 20
69.0048683444
 10
40.4537219584
 20
65.8137879109
 10
40.0287341008
 20
62.5682997184
 10
39.6315617662
 20
59.2685976648
 10
39.2645945743
 20
55.9144878522
 10
38.9302093609
 20
52.4547260499
 10
38.6291984048
 20
48.8722308475
 10
38.3607694271
 20
45.1840836554
 10
38.124922428
 20
41.3902844735
  0
LWPOLYLINE
  5
3EB
100
AcDbEntity
  8
0
100
AcDbPolyline
 62
250
  6
CONTINUOUS
 90
9
 70
0
 10
38.6680069957
 20
40.1270943776
 10
38.6618169683
 20
40.0682025002
 10
38.6566291204
 20
40.0157472509
 10
38.6525002734
 20
39.9703031735
 10
38.6494756519
 20
39.9323680181
 10
38.647588389
 20
39.9023572888
 10
38.6468591574
 20
39.8805996938
 10
38.647295943
 20
39.8673335446
 10
38.6488939619
 20
39.8627041458
  0
LINE
  5
3EC
100
AcDbEntity
  8
0
100
AcDbLine
 62
250
  6
CONTINUOUS
 10
38.6831121576
 20
40.2615444043
 11
38.6680069957
 21
40.1270943776
  0
LINE
  5
3ED
100
AcDbEntity
  8
0
100
AcDbLine
 62
250
  6
CONTINUOUS
 10
43.8510650806
 20
82.3455395305
 11
43.8703462093
 21
82.5107179779
  0
LINE
  5
3EE
100
AcDbEntity
  8
0
100
AcDbLine
 62
250
  6
CONTINUOUS
 10
38.7012846273
 20
40.4132229225
 11
38.6831121576
 21
40.2615444043
  0
LINE
  5
3EF
100
AcDbEntity
  8
0
100
AcDbLine
 62
250
  6
CONTINUOUS
 10
43.8703462093
 20
82.5107179779
 11
43.8896931519
 21
82.6685688019
  0
LWPOLYLINE
  5
3F0
100
AcDbEntity
  8
0
100
AcDbPolyline
 62
250
  6
CONTINUOUS
 90
3
 70
0
 10
38.7325294522
 20
40.6584121689
 10
38.7217304021
 20
40.5755027753
 10
38.7012846273
 20
40.4132229225
  0
LWPOLYLINE
  5
3F1
100
AcDbEntity
  8
0
100
AcDbPolyline
 62
250
  6
CONTINUOUS
 90
11
 70
0
 10
43.8896931519
 20
82.6685688019
 10
43.9082606076
 20
82.812195129
 10
43.9169961916
 20
82.8766809915
 10
43.9252373121
 20
82.9353214245
 10
43.9328936977
 20
82.9874740805
 10
43.9398814845
 20
83.0325676929
 10
43.94612413
 20
83.0701083031
 10
43.9515532507
 20
83.0996846677
 10
43.9561093765
 20
83.120972797
 10
43.9597426007
 20
83.133739491
 10
43.962413124
 20
83.13784488
  0
LWPOLYLINE
  5
3F2
100
AcDbEntity
  8
RACCORDO
100
AcDbPolyline
 62
250
  6
CONTINUOUS
 90
5
 70
0
 10
49.4021612268
 20
83.5913364451
 10
49.4012137437
 20
83.5886049653
 10
49.4001773574
 20
83.5804219325
 10
49.3990635569
 20
83.5668789533
 10
49.3978835683
 20
83.5481271826
  0
LINE
  5
3F3
100
AcDbEntity
  8
RACCORDO
100
AcDbLine
 62
250
  6
CONTINUOUS
 10
49.4012300174
 20
38.7362974073
 11
49.4021904313
 21
38.7335661534
  0
LWPOLYLINE
  5
3F4
100
AcDbEntity
  8
RACCORDO
100
AcDbPolyline
 62
250
  6
CONTINUOUS
 90
6
 70
0
 10
45.35176918
 20
42.8384719667
 10
45.3512554838
 20
42.8412208912
 10
45.3507990358
 20
42.8494176217
 10
45.3504081184
 20
42.8629706839
 10
45.3500914589
 20
42.8817295714
 10
45.3498530746
 20
42.9054875183
  0
LWPOLYLINE
  5
3F5
100
AcDbEntity
  8
RACCORDO
100
AcDbPolyline
 62
250
  6
CONTINUOUS
 90
8
 70
0
 10
51.1875258891
 20
83.5601727921
 10
51.1865660871
 20
83.557448873
 10
51.185521163
 20
83.5492754355
 10
51.1844025701
 20
83.5357420639
 10
51.1832225695
 20
83.5169970894
 10
51.1819940948
 20
83.4932459649
 10
51.1807306115
 20
83.4647490126
 10
51.1781542461
 20
83.394815571
  0
LINE
  5
3F6
100
AcDbEntity
  8
RACCORDO
100
AcDbLine
 62
250
  6
CONTINUOUS
 10
45.3498530746
 20
42.9054875183
 11
45.3496101552
 21
42.966907812
  0
LINE
  5
3F7
100
AcDbEntity
  8
RACCORDO
100
AcDbLine
 62
7
  6
CONTINUOUS
 10
45.057004902
 20
43.1384262752
 11
45.057004902
 21
45.1005457804
  0
LINE
  5
3F8
100
AcDbEntity
  8
RACCORDO
100
AcDbLine
 62
250
  6
CONTINUOUS
 10
45.35176918
 20
43.3383958143
 11
45.35176918
 21
47.5012081756
  0
LINE
  5
3F9
100
AcDbEntity
  8
RACCORDO
100
AcDbLine
 62
250
  6
CONTINUOUS
 10
45.3496101552
 20
42.966907812
 11
45.349852556
 21
43.0884262918
  0
LWPOLYLINE
  5
3FA
100
AcDbEntity
  8
RACCORDO
100
AcDbPolyline
 62
250
  6
CONTINUOUS
 90
3
 70
0
 10
45.349852556
 20
43.0884262918
 10
45.3512552875
 20
43.2861286102
 10
45.35176918
 20
43.3383958143
  0
LINE
  5
3FB
100
AcDbEntity
  8
0
100
AcDbLine
 62
7
  6
CONTINUOUS
 10
44.3221708959
 20
39.115803068
 11
49.6478612027
 21
82.4900698947
  0
LINE
  5
3FC
100
AcDbEntity
  8
DRAFT
100
AcDbLine
 62
7
  6
CONTINUOUS
 10
49.707004902
 20
81.1160997929
 11
47.257004902
 21
61.1624510444
  0
LINE
  5
3FD
100
AcDbEntity
  8
DRAFT
100
AcDbLine
 62
7
  6
CONTINUOUS
 10
47.257004902
 20
61.1624510444
 11
49.707004902
 21
41.2088022958
  0
LWPOLYLINE
  5
3FE
100
AcDbEntity
  8
RACCORDO
100
AcDbPolyline
 62
250
  6
CONTINUOUS
 90
4
 70
0
 10
50.7995997408
 20
38.8192336016
 10
50.8010309953
 20
38.7906387987
 10
50.8024009589
 20
38.7667052418
 10
50.8036948136
 20
38.7476916827
  0
LWPOLYLINE
  5
3FF
100
AcDbEntity
  8
RACCORDO
100
AcDbPolyline
 62
250
  6
CONTINUOUS
 90
4
 70
0
 10
49.799655897
 20
38.8016376272
 10
49.8010745004
 20
38.7727656028
 10
49.8024356248
 20
38.7483010732
 10
49.8037251701
 20
38.7284974685
  0
LWPOLYLINE
  5
400
100
AcDbEntity
  8
RACCORDO
100
AcDbPolyline
 62
250
  6
CONTINUOUS
 90
6
 70
0
 10
49.3953839048
 20
38.829025987
 10
49.3966504888
 20
38.8005285748
 10
49.3978815503
 20
38.7767748413
 10
49.3990636789
 20
38.7580231216
 10
49.4001839369
 20
38.7444802652
 10
49.4012300174
 20
38.7362974073
  0
LINE
  5
401
100
AcDbEntity
  8
RACCORDO
100
AcDbLine
 62
250
  6
CONTINUOUS
 10
50.7966157659
 20
38.8891233113
 11
50.7995997408
 21
38.8192336016
  0
LINE
  5
402
100
AcDbEntity
  8
RACCORDO
100
AcDbLine
 62
250
  6
CONTINUOUS
 10
49.796705478
 20
38.871365249
 11
49.799655897
 21
38.8016376272
  0
LINE
  5
403
100
AcDbEntity
  8
RACCORDO
100
AcDbLine
 62
250
  6
CONTINUOUS
 10
49.3927996299
 20
38.8989574831
 11
49.3953839048
 21
38.829025987
  0
LINE
  5
404
100
AcDbEntity
  8
RACCORDO
100
AcDbLine
 62
250
  6
CONTINUOUS
 10
49.7937063057
 20
38.9546021618
 11
49.796705478
 21
38.871365249
  0
LINE
  5
405
100
AcDbEntity
  8
RACCORDO
100
AcDbLine
 62
250
  6
CONTINUOUS
 10
49.3902418609
 20
38.9835112179
 11
49.3927996299
 21
38.8989574831
  0
LINE
  5
406
100
AcDbEntity
  8
RACCORDO
100
AcDbLine
 62
250
  6
CONTINUOUS
 10
49.7893865704
 20
39.0971441671
 11
49.7937063057
 21
38.9546021618
  0
LINE
  5
407
100
AcDbEntity
  8
RACCORDO
100
AcDbLine
 62
250
  6
CONTINUOUS
 10
49.7867996368
 20
39.1982367707
 11
49.7893865704
 21
39.0971441671
  0
LINE
  5
408
100
AcDbEntity
  8
RACCORDO
100
AcDbLine
 62
250
  6
CONTINUOUS
 10
49.3866978421
 20
39.1295388753
 11
49.3902418609
 21
38.9835112179
  0
LINE
  5
409
100
AcDbEntity
  8
RACCORDO
100
AcDbLine
 62
250
  6
CONTINUOUS
 10
49.3846806883
 20
39.2334844886
 11
49.3866978421
 21
39.1295388753
  0
LINE
  5
40A
100
AcDbEntity
  8
RACCORDO
100
AcDbLine
 62
250
  6
CONTINUOUS
 10
49.8037251701
 20
38.7284974685
 11
49.807004902
 21
38.5406017476
  0
LINE
  5
40B
100
AcDbEntity
  8
RACCORDO
100
AcDbLine
 62
7
  6
CONTINUOUS
 10
48.557004902
 20
85.4124510444
 11
48.557004902
 21
85.0067886117
  0
LINE
  5
40C
100
AcDbEntity
  8
RACCORDO
100
AcDbLine
 62
7
  6
CONTINUOUS
 10
48.557004902
 20
37.3181134771
 11
48.557004902
 21
36.9124510444
  0
LWPOLYLINE
  5
40D
100
AcDbEntity
  8
0
100
AcDbPolyline
 62
7
  6
CONTINUOUS
 90
2
 70
0
 43
0.3500000006
 10
48.6651286011
 20
104.4124533691
 10
48.6651286011
 20
105.9124538269
  0
LINE
  5
40E
100
AcDbEntity
  8
RACCORDO
100
AcDbLine
 62
250
  6
CONTINUOUS
 10
48.807004902
 20
85.6624510444
 11
48.807004902
 21
85.0067886117
  0
LINE
  5
40F
100
AcDbEntity
  8
RACCORDO
100
AcDbLine
 62
250
  6
CONTINUOUS
 10
48.807004902
 20
37.3181134771
 11
48.807004902
 21
36.6624510444
  0
LINE
  5
410
100
AcDbEntity
  8
RACCORDO
100
AcDbLine
 62
7
  6
CONTINUOUS
 10
49.057004902
 20
38.7275409145
 11
49.057004902
 21
39.2576410798
  0
LINE
  5
411
100
AcDbEntity
  8
RACCORDO
100
AcDbLine
 62
7
  6
CONTINUOUS
 10
49.057004902
 20
83.067261009
 11
49.057004902
 21
83.5973611742
  0
LINE
  5
412
100
AcDbEntity
  8
RACCORDO
100
AcDbLine
 62
7
  6
CONTINUOUS
 10
49.557004902
 20
84.1407632079
 11
49.557004902
 21
83.7921551204
  0
LINE
  5
413
100
AcDbEntity
  8
RACCORDO
100
AcDbLine
 62
7
  6
CONTINUOUS
 10
49.557004902
 20
38.5327469684
 11
49.557004902
 21
38.1841388809
  0
LINE
  5
414
100
AcDbEntity
  8
DRAFT
100
AcDbLine
 62
7
  6
CONTINUOUS
 10
49.707004902
 20
82.9874510444
 11
49.707004902
 21
81.1160997929
  0
LINE
  5
415
100
AcDbEntity
  8
DRAFT
100
AcDbLine
 62
7
  6
CONTINUOUS
 10
49.707004902
 20
41.2088022958
 11
49.707004902
 21
39.3374510444
  0
LINE
  5
416
100
AcDbEntity
  8
RACCORDO
100
AcDbLine
 62
250
  6
CONTINUOUS
 10
49.807004902
 20
84.1407632079
 11
49.807004902
 21
83.7843003412
  0
LINE
  5
417
100
AcDbEntity
  8
RACCORDO
100
AcDbLine
 62
250
  6
CONTINUOUS
 10
49.807004902
 20
38.5406017476
 11
49.807004902
 21
38.1841388809
  0
LINE
  5
418
100
AcDbEntity
  8
RACCORDO
100
AcDbLine
 62
250
  6
CONTINUOUS
 10
49.80372517
 20
83.5964046203
 11
49.807004902
 21
83.7843003412
  0
LINE
  5
419
100
AcDbEntity
  8
RACCORDO
100
AcDbLine
 62
250
  6
CONTINUOUS
 10
49.3878221744
 20
83.2459104471
 11
49.3846806837
 21
83.0914175982
  0
LINE
  5
41A
100
AcDbEntity
  8
RACCORDO
100
AcDbLine
 62
250
  6
CONTINUOUS
 10
49.3902417099
 20
83.3413907833
 11
49.3878221744
 21
83.2459104471
  0
LINE
  5
41B
100
AcDbEntity
  8
RACCORDO
100
AcDbLine
 62
250
  6
CONTINUOUS
 10
49.7907823329
 20
83.276993826
 11
49.7867996367
 21
83.126665318
  0
LINE
  5
41C
100
AcDbEntity
  8
RACCORDO
100
AcDbLine
 62
250
  6
CONTINUOUS
 10
49.392799458
 20
83.425944524
 11
49.3902417099
 21
83.3413907833
  0
LINE
  5
41D
100
AcDbEntity
  8
RACCORDO
100
AcDbLine
 62
250
  6
CONTINUOUS
 10
49.7937063057
 20
83.3702999269
 11
49.7907823329
 21
83.276993826
  0
LINE
  5
41E
100
AcDbEntity
  8
RACCORDO
100
AcDbLine
 62
250
  6
CONTINUOUS
 10
49.796705478
 20
83.4535368398
 11
49.7937063057
 21
83.3702999269
  0
LWPOLYLINE
  5
41F
100
AcDbEntity
  8
RACCORDO
100
AcDbPolyline
 62
250
  6
CONTINUOUS
 90
4
 70
0
 10
49.3978835683
 20
83.5481271826
 10
49.3966514102
 20
83.5243734523
 10
49.3953837353
 20
83.4958760433
 10
49.392799458
 20
83.425944524
  0
LWPOLYLINE
  5
420
100
AcDbEntity
  8
RACCORDO
100
AcDbPolyline
 62
250
  6
CONTINUOUS
 90
5
 70
0
 10
49.80372517
 20
83.5964046203
 10
49.8024356248
 20
83.5766010156
 10
49.8010745005
 20
83.552136486
 10
49.7996558971
 20
83.5232644616
 10
49.796705478
 20
83.4535368398
  0
LWPOLYLINE
  5
421
100
AcDbEntity
  8
RACCORDO
100
AcDbPolyline
 62
250
  6
CONTINUOUS
 90
5
 70
0
 10
50.8036947891
 20
83.577209038
 10
50.8024064235
 20
83.5581954401
 10
50.8010410482
 20
83.5342618726
 10
50.799613418
 20
83.5056670879
 10
50.7966336196
 20
83.4357775025
  0
LWPOLYLINE
  5
422
100
AcDbEntity
  8
RACCORDO
100
AcDbPolyline
 62
250
  6
CONTINUOUS
 90
7
 70
0
 10
51.1807306155
 20
38.8601530722
 10
51.1819940993
 20
38.8316561201
 10
51.1832225744
 20
38.807904996
 10
51.1844025755
 20
38.7891600221
 10
51.1855211688
 20
38.7756266513
 10
51.1865660933
 20
38.7674532147
 10
51.1875258958
 20
38.7647292968
  0
LINE
  5
423
100
AcDbEntity
  8
RACCORDO
100
AcDbLine
 62
250
  6
CONTINUOUS
 10
51.1781542491
 20
38.9300865138
 11
51.1807306155
 21
38.8601530722
  0
LINE
  5
424
100
AcDbEntity
  8
RACCORDO
100
AcDbLine
 62
250
  6
CONTINUOUS
 10
50.7935777383
 20
38.973360157
 11
50.7966157659
 21
38.8891233113
  0
LINE
  5
425
100
AcDbEntity
  8
RACCORDO
100
AcDbLine
 62
250
  6
CONTINUOUS
 10
51.1756061229
 20
39.0146477232
 11
51.1781542491
 21
38.9300865138
  0
LINE
  5
426
100
AcDbEntity
  8
RACCORDO
100
AcDbLine
 62
250
  6
CONTINUOUS
 10
50.7892051221
 20
39.118538085
 11
50.7935777383
 21
38.973360157
  0
LINE
  5
427
100
AcDbEntity
  8
RACCORDO
100
AcDbLine
 62
250
  6
CONTINUOUS
 10
50.7865961613
 20
39.2217855767
 11
50.7892051221
 21
39.118538085
  0
LINE
  5
428
100
AcDbEntity
  8
RACCORDO
100
AcDbLine
 62
250
  6
CONTINUOUS
 10
51.1720790582
 20
39.1606935358
 11
51.1756061229
 21
39.0146477232
  0
LINE
  5
429
100
AcDbEntity
  8
RACCORDO
100
AcDbLine
 62
250
  6
CONTINUOUS
 10
51.1700743361
 20
39.2646532394
 11
51.1720790582
 21
39.1606935358
  0
LINE
  5
42A
100
AcDbEntity
  8
RACCORDO
100
AcDbLine
 62
250
  6
CONTINUOUS
 10
50.8036947692
 20
38.7476941898
 11
50.807004902
 21
38.5580568125
  0
LINE
  5
42B
100
AcDbEntity
  8
RACCORDO
100
AcDbLine
 62
250
  6
CONTINUOUS
 10
50.807004902
 20
38.1841388809
 11
50.807004902
 21
38.5580568125
  0
LINE
  5
42C
100
AcDbEntity
  8
RACCORDO
100
AcDbLine
 62
250
  6
CONTINUOUS
 10
50.807004902
 20
83.7668452762
 11
50.807004902
 21
84.1407632079
  0
LINE
  5
42D
100
AcDbEntity
  8
RACCORDO
100
AcDbLine
 62
7
  6
CONTINUOUS
 10
51.057004902
 20
38.1841388809
 11
51.057004902
 21
38.5659115918
  0
LINE
  5
42E
100
AcDbEntity
  8
RACCORDO
100
AcDbLine
 62
7
  6
CONTINUOUS
 10
51.057004902
 20
83.758990497
 11
51.057004902
 21
84.1407632079
  0
LWPOLYLINE
  5
42F
100
AcDbEntity
  8
0
100
AcDbPolyline
 62
7
  6
CONTINUOUS
 90
4
 70
0
 43
0.3500000006
 10
51.7365561676
 20
106.7695917664
 10
51.7365561676
 20
107.4124542847
 10
53.2365566254
 20
107.4124542847
 10
52.3794141541
 20
104.4124533691
  0
LINE
  5
430
100
AcDbEntity
  8
RACCORDO
100
AcDbLine
 62
250
  6
CONTINUOUS
 10
50.8036947691
 20
83.577207899
 11
50.807004902
 21
83.7668452762
  0
LINE
  5
431
100
AcDbEntity
  8
RACCORDO
100
AcDbLine
 62
250
  6
CONTINUOUS
 10
51.1731976482
 20
83.2147625321
 11
51.1700743362
 21
83.0602488492
  0
LINE
  5
432
100
AcDbEntity
  8
RACCORDO
100
AcDbLine
 62
250
  6
CONTINUOUS
 10
51.1756061207
 20
83.3102543622
 11
51.1731976482
 21
83.2147625321
  0
LINE
  5
433
100
AcDbEntity
  8
RACCORDO
100
AcDbLine
 62
250
  6
CONTINUOUS
 10
50.7906302133
 20
83.2565902402
 11
50.7865964209
 21
83.1031165065
  0
LINE
  5
434
100
AcDbEntity
  8
RACCORDO
100
AcDbLine
 62
250
  6
CONTINUOUS
 10
51.1781542461
 20
83.394815571
 11
51.1756061207
 21
83.3102543622
  0
LINE
  5
435
100
AcDbEntity
  8
RACCORDO
100
AcDbLine
 62
250
  6
CONTINUOUS
 10
50.7935955308
 20
83.3515408959
 11
50.7906302133
 21
83.2565902402
  0
LINE
  5
436
100
AcDbEntity
  8
RACCORDO
100
AcDbLine
 62
250
  6
CONTINUOUS
 10
50.7966336196
 20
83.4357775025
 11
50.7935955308
 21
83.3515408959
  0
LINE
  5
437
100
AcDbEntity
  8
RACCORDO
100
AcDbLine
 62
250
  6
CONTINUOUS
 10
51.807004902
 20
85.6624510444
 11
51.807004902
 21
85.0067886117
  0
LINE
  5
438
100
AcDbEntity
  8
RACCORDO
100
AcDbLine
 62
250
  6
CONTINUOUS
 10
51.807004902
 20
37.3181134771
 11
51.807004902
 21
36.6624510444
  0
LINE
  5
439
100
AcDbEntity
  8
RACCORDO
100
AcDbLine
 62
7
  6
CONTINUOUS
 10
52.057004902
 20
85.4124510444
 11
52.057004902
 21
85.0067886117
  0
LINE
  5
43A
100
AcDbEntity
  8
RACCORDO
100
AcDbLine
 62
7
  6
CONTINUOUS
 10
52.057004902
 20
37.3181134771
 11
52.057004902
 21
36.9124510444
  0
LINE
  5
43B
100
AcDbEntity
  8
RACCORDO
100
AcDbLine
 62
7
  6
CONTINUOUS
 10
52.057004902
 20
38.7799061093
 11
52.057004902
 21
83.5449959795
  0
LINE
  5
43C
100
AcDbEntity
  8
ASSI
100
AcDbLine
 62
7
  6
CONTINUOUS
 10
52.257004902
 20
75.9910640444
 11
52.257004902
 21
73.8856200444
  0
LINE
  5
43D
100
AcDbEntity
  8
ASSI
100
AcDbLine
 62
7
  6
CONTINUOUS
 10
52.257004902
 20
73.5522820444
 11
52.257004902
 21
73.0522640444
  0
LINE
  5
43E
100
AcDbEntity
  8
ASSI
100
AcDbLine
 62
7
  6
CONTINUOUS
 10
52.257004902
 20
72.5522570444
 11
52.257004902
 21
70.1067320444
  0
LINE
  5
43F
100
AcDbEntity
  8
ASSI
100
AcDbLine
 62
7
  6
CONTINUOUS
 10
52.257004902
 20
69.7733880444
 11
52.257004902
 21
67.6679450444
  0
LINE
  5
440
100
AcDbEntity
  8
ASSI
100
AcDbLine
 62
7
  6
CONTINUOUS
 10
52.257004902
 20
67.3346010444
 11
52.257004902
 21
65.3338380444
  0
LINE
  5
441
100
AcDbEntity
  8
ASSI
100
AcDbLine
 62
7
  6
CONTINUOUS
 10
52.057004902
 20
65.3338380444
 11
52.257004902
 21
65.3338380444
  0
LINE
  5
442
100
AcDbEntity
  8
ASSI
100
AcDbLine
 62
7
  6
CONTINUOUS
 10
52.057004902
 20
65.8970320444
 11
52.257004902
 21
65.8970320444
  0
LINE
  5
443
100
AcDbEntity
  8
ASSI
100
AcDbLine
 62
7
  6
CONTINUOUS
 10
52.057004902
 20
66.3981130444
 11
52.257004902
 21
66.3981130444
  0
LINE
  5
444
100
AcDbEntity
  8
ASSI
100
AcDbLine
 62
7
  6
CONTINUOUS
 10
52.057004902
 20
66.8345760444
 11
52.257004902
 21
66.8345760444
  0
LWPOLYLINE
  5
445
100
AcDbEntity
  8
0
100
AcDbPolyline
 62
7
  6
CONTINUOUS
 90
13
 70
0
 43
0.3500000006
 10
56.7355742798
 20
95.2695973206
 10
56.7355742798
 20
96.5553042297
 10
56.9498632965
 20
96.9838822632
 10
57.3784322662
 20
97.4124512329
 10
57.592721283
 20
97.4124512329
 10
58.0212902527
 20
96.9838822632
 10
58.2355747375
 20
96.5553042297
 10
58.2355747375
 20
95.2695973206
 10
58.0212902527
 20
94.8410192871
 10
57.592721283
 20
94.4124503174
 10
57.3784322662
 20
94.4124503174
 10
56.9498632965
 20
94.8410192871
 10
56.7355742798
 20
95.2695973206
  0
LINE
  5
446
100
AcDbEntity
  8
ASSI
100
AcDbLine
 62
7
  6
CONTINUOUS
 10
52.057004902
 20
67.3346010444
 11
52.257004902
 21
67.3346010444
  0
LINE
  5
447
100
AcDbEntity
  8
ASSI
100
AcDbLine
 62
7
  6
CONTINUOUS
 10
52.057004902
 20
67.6679450444
 11
52.257004902
 21
67.6679450444
  0
LINE
  5
448
100
AcDbEntity
  8
ASSI
100
AcDbLine
 62
7
  6
CONTINUOUS
 10
52.057004902
 20
68.1679700444
 11
52.257004902
 21
68.1679700444
  0
LINE
  5
449
100
AcDbEntity
  8
ASSI
100
AcDbLine
 62
7
  6
CONTINUOUS
 10
52.057004902
 20
68.3258200444
 11
52.257004902
 21
68.3258200444
  0
LINE
  5
44A
100
AcDbEntity
  8
RACCORDO
100
AcDbLine
 62
7
  6
CONTINUOUS
 10
59.057004902
 20
84.4624510444
 11
59.057004902
 21
83.422810525
  0
LINE
  5
44B
100
AcDbEntity
  8
RACCORDO
100
AcDbLine
 62
7
  6
CONTINUOUS
 10
59.057004902
 20
38.9020915638
 11
59.057004902
 21
37.8624510444
  0
LINE
  5
44C
100
AcDbEntity
  8
ASSI
100
AcDbLine
 62
7
  6
CONTINUOUS
 10
52.057004902
 20
69.1155130444
 11
52.257004902
 21
69.1155130444
  0
LINE
  5
44D
100
AcDbEntity
  8
ASSI
100
AcDbLine
 62
7
  6
CONTINUOUS
 10
52.057004902
 20
69.2733700444
 11
52.257004902
 21
69.2733700444
  0
LINE
  5
44E
100
AcDbEntity
  8
ASSI
100
AcDbLine
 62
7
  6
CONTINUOUS
 10
52.057004902
 20
69.7733880444
 11
52.257004902
 21
69.7733880444
  0
LINE
  5
44F
100
AcDbEntity
  8
ASSI
100
AcDbLine
 62
7
  6
CONTINUOUS
 10
52.057004902
 20
70.1067320444
 11
52.257004902
 21
70.1067320444
  0
LINE
  5
450
100
AcDbEntity
  8
ASSI
100
AcDbLine
 62
7
  6
CONTINUOUS
 10
52.057004902
 20
70.6067510444
 11
52.257004902
 21
70.6067510444
  0
LINE
  5
451
100
AcDbEntity
  8
ASSI
100
AcDbLine
 62
7
  6
CONTINUOUS
 10
52.057004902
 20
71.0794950444
 11
52.257004902
 21
71.0794950444
  0
LINE
  5
452
100
AcDbEntity
  8
ASSI
100
AcDbLine
 62
7
  6
CONTINUOUS
 10
52.057004902
 20
71.5795010444
 11
52.257004902
 21
71.5795010444
  0
LINE
  5
453
100
AcDbEntity
  8
ASSI
100
AcDbLine
 62
7
  6
CONTINUOUS
 10
52.057004902
 20
72.0522390444
 11
52.257004902
 21
72.0522390444
  0
LINE
  5
454
100
AcDbEntity
  8
RACCORDO
100
AcDbLine
 62
7
  6
CONTINUOUS
 10
62.057004902
 20
82.3877480671
 11
62.057004902
 21
79.6627448911
  0
LINE
  5
455
100
AcDbEntity
  8
RACCORDO
100
AcDbLine
 62
7
  6
CONTINUOUS
 10
62.057004902
 20
42.6621571977
 11
62.057004902
 21
39.9371540217
  0
LINE
  5
456
100
AcDbEntity
  8
RACCORDO
100
AcDbLine
 62
250
  6
CONTINUOUS
 10
51.057004902
 20
37.751126179
 11
51.182004902
 21
37.9676325299
  0
LINE
  5
457
100
AcDbEntity
  8
ASSI
100
AcDbLine
 62
7
  6
CONTINUOUS
 10
52.057004902
 20
72.5522570444
 11
52.257004902
 21
72.5522570444
  0
LINE
  5
458
100
AcDbEntity
  8
ASSI
100
AcDbLine
 62
7
  6
CONTINUOUS
 10
52.057004902
 20
73.0522640444
 11
52.257004902
 21
73.0522640444
  0
LINE
  5
459
100
AcDbEntity
  8
ASSI
100
AcDbLine
 62
7
  6
CONTINUOUS
 10
52.057004902
 20
73.5522820444
 11
52.257004902
 21
73.5522820444
  0
LINE
  5
45A
100
AcDbEntity
  8
ASSI
100
AcDbLine
 62
7
  6
CONTINUOUS
 10
52.057004902
 20
73.8856200444
 11
52.257004902
 21
73.8856200444
  0
LINE
  5
45B
100
AcDbEntity
  8
RACCORDO
100
AcDbLine
 62
250
  6
CONTINUOUS
 10
51.057004902
 20
84.5737759098
 11
51.182004902
 21
84.3572695588
  0
LINE
  5
45C
100
AcDbEntity
  8
RACCORDO
100
AcDbLine
 62
250
  6
CONTINUOUS
 10
51.807004902
 20
37.3181134771
 11
51.932004902
 21
37.534619828
  0
LINE
  5
45D
100
AcDbEntity
  8
ASSI
100
AcDbLine
 62
7
  6
CONTINUOUS
 10
52.057004902
 20
74.6883260444
 11
52.257004902
 21
74.6883260444
  0
LINE
  5
45E
100
AcDbEntity
  8
ASSI
100
AcDbLine
 62
7
  6
CONTINUOUS
 10
52.057004902
 20
75.1883640444
 11
52.257004902
 21
75.1883640444
  0
LINE
  5
45F
100
AcDbEntity
  8
ASSI
100
AcDbLine
 62
7
  6
CONTINUOUS
 10
52.057004902
 20
75.9910640444
 11
52.257004902
 21
75.9910640444
  0
LINE
  5
460
100
AcDbEntity
  8
RACCORDO
100
AcDbLine
 62
250
  6
CONTINUOUS
 10
51.807004902
 20
85.0067886117
 11
51.932004902
 21
84.7902822607
  0
LINE
  5
461
100
AcDbEntity
  8
RACCORDO
100
AcDbLine
 62
250
  6
CONTINUOUS
 10
49.225980941
 20
79.0541308923
 11
49.4543163272
 21
79.0581165013
  0
LINE
  5
462
100
AcDbEntity
  8
RACCORDO
100
AcDbLine
 62
7
  6
CONTINUOUS
 10
49.2874957103
 20
79.5551284842
 11
49.5158310965
 21
79.5591140932
  0
LINE
  5
463
100
AcDbEntity
  8
RACCORDO
100
AcDbLine
 62
7
  6
CONTINUOUS
 10
49.432004902
 20
37.9676325299
 11
48.682004902
 21
37.534619828
  0
LINE
  5
464
100
AcDbEntity
  8
RACCORDO
100
AcDbLine
 62
250
  6
CONTINUOUS
 10
49.557004902
 20
37.751126179
 11
48.807004902
 21
37.3181134771
  0
LINE
  5
465
100
AcDbEntity
  8
0
100
AcDbLine
 62
250
  6
CONTINUOUS
 10
43.0844506465
 20
81.7824004043
 11
42.3852679143
 21
81.917905307
  0
LWPOLYLINE
  5
466
100
AcDbEntity
  8
0
100
AcDbPolyline
 62
250
  6
CONTINUOUS
 90
4
 70
0
 10
42.3852679143
 20
81.917905307
 10
42.3362152155
 20
81.9276351107
 10
42.3238018323
 20
81.9301730065
 10
42.3196678992
 20
81.9311181821
  0
LINE
  5
467
100
AcDbEntity
  8
RACCORDO
100
AcDbLine
 62
7
  6
CONTINUOUS
 10
48.682004902
 20
84.7902822607
 11
49.432004902
 21
84.3572695588
  0
LINE
  5
468
100
AcDbEntity
  8
RACCORDO
100
AcDbLine
 62
250
  6
CONTINUOUS
 10
48.807004902
 20
85.0067886117
 11
49.557004902
 21
84.5737759098
  0
LWPOLYLINE
  5
469
100
AcDbEntity
  8
RACCORDO
100
AcDbPolyline
 62
250
  6
CONTINUOUS
 90
14
 70
0
 10
49.6099658211
 20
83.1103715673
 10
49.6445061626
 20
83.1155207455
 10
49.660030723
 20
83.1176940513
 10
49.6744405039
 20
83.1196327806
 10
49.6880996612
 20
83.1213275759
 10
49.7010494312
 20
83.1227655756
 10
49.7132485778
 20
83.1239596413
 10
49.7249375486
 20
83.1249390003
 10
49.7361201809
 20
83.1257023512
 10
49.7467926375
 20
83.1262509954
 10
49.7571838548
 20
83.1266180652
 10
49.7673701448
 20
83.1268146047
 10
49.7772751954
 20
83.1268295697
 10
49.7868990068
 20
83.1266629604
  0
LINE
  5
46A
100
AcDbEntity
  8
RACCORDO
100
AcDbLine
 62
7
  6
CONTINUOUS
 10
52.057004902
 20
82.5624510444
 11
61.9944394545
 21
82.7359096097
  0
LINE
  5
46B
100
AcDbEntity
  8
DRAFT
100
AcDbLine
 62
7
  6
CONTINUOUS
 10
52.057004902
 20
82.0624510444
 11
62.057004902
 21
82.0624510444
  0
LWPOLYLINE
  5
46C
100
AcDbEntity
  8
RACCORDO
100
AcDbPolyline
 62
250
  6
CONTINUOUS
 90
10
 70
0
 10
49.3846806837
 20
83.0914175982
 10
49.4083064413
 20
83.0913768508
 10
49.4318982253
 20
83.0918573653
 10
49.4554560356
 20
83.0928591418
 10
49.4791728278
 20
83.0944641645
 10
49.5028556464
 20
83.0965904491
 10
49.5259256244
 20
83.098992043
 10
49.5484050635
 20
83.1017043858
 10
49.570271662
 20
83.1046920379
 10
49.6099658211
 20
83.1103715673
  0
LINE
  5
46D
100
AcDbEntity
  8
RACCORDO
100
AcDbLine
 62
250
  6
CONTINUOUS
 10
51.1700743362
 20
83.0602488492
 11
52.057004902
 21
83.044767499
  0
LINE
  5
46E
100
AcDbEntity
  8
RACCORDO
100
AcDbLine
 62
250
  6
CONTINUOUS
 10
49.057004902
 20
83.0971326938
 11
49.3846806837
 21
83.0914175982
  0
LWPOLYLINE
  5
46F
100
AcDbEntity
  8
RACCORDO
100
AcDbPolyline
 62
250
  6
CONTINUOUS
 90
14
 70
0
 10
49.7868990068
 20
83.1266629604
 10
50.7948230663
 20
83.102887757
 10
50.8033131803
 20
83.102534666
 10
50.8120550598
 20
83.1020577203
 10
50.8210169039
 20
83.1014644377
 10
50.8302305136
 20
83.1007473003
 10
50.8397912921
 20
83.0998837549
 10
50.8497035409
 20
83.0988698819
 10
50.8599629586
 20
83.097709601
 10
50.8706520433
 20
83.0963921172
 10
50.8817631691
 20
83.0949132265
 10
50.893303962
 20
83.093277133
 10
50.9053797987
 20
83.091485654
 10
50.9179795718
 20
83.0895272743
  0
LWPOLYLINE
  5
470
100
AcDbEntity
  8
0
100
AcDbPolyline
 62
250
  6
CONTINUOUS
 90
22
 70
0
 10
43.8510650806
 20
82.3455395305
 10
43.7980632809
 20
82.3492874291
 10
43.7460288554
 20
82.3493764886
 10
43.694961804
 20
82.3458067089
 10
43.644840723
 20
82.3385265296
 10
43.5956870162
 20
82.3275875113
 10
43.5475648952
 20
82.313144335
 10
43.5001643148
 20
82.2950925407
 10
43.4537953202
 20
82.2735365885
 10
43.4094522584
 20
82.2489445397
 10
43.3670878055
 20
82.2210058423
 10
43.3267492854
 20
82.1900310483
 10
43.2895730174
 20
82.1574198749
 10
43.2561100535
 20
82.1236205526
 10
43.2258093417
 20
82.0881848508
 10
43.1981540457
 20
82.0511677955
 10
43.1730567638
 20
82.0130901986
 10
43.1506048976
 20
81.9734312483
 10
43.1305438159
 20
81.9306835346
 10
43.1127886416
 20
81.8843445878
 10
43.0974242518
 20
81.8349168777
 10
43.0844506465
 20
81.7824004043
  0
LINE
  5
471
100
AcDbEntity
  8
0
100
AcDbLine
 62
250
  6
CONTINUOUS
 10
49.5503842876
 20
81.6961841297
 11
43.8510650806
 21
82.3455395305
  0
LINE
  5
472
100
AcDbEntity
  8
0
100
AcDbLine
 62
7
  6
CONTINUOUS
 10
49.6478612027
 20
82.4900698947
 11
43.9624131151
 21
83.137844881
  0
LINE
  5
473
100
AcDbEntity
  8
DRAFT
100
AcDbLine
 62
7
  6
CONTINUOUS
 10
49.057004902
 20
83.067261009
 11
49.707004902
 21
82.9874510444
  0
LWPOLYLINE
  5
474
100
AcDbEntity
  8
RACCORDO
100
AcDbPolyline
 62
250
  6
CONTINUOUS
 90
12
 70
0
 10
50.9179795718
 20
83.0895272743
 10
50.9745853914
 20
83.0803213534
 10
50.9905297779
 20
83.0778045874
 10
51.0072823645
 20
83.0752382515
 10
51.0248112447
 20
83.0726443447
 10
51.0431232503
 20
83.0701803158
 10
51.0621977045
 20
83.0678315967
 10
51.082055284
 20
83.0656127554
 10
51.1027648507
 20
83.0637249448
 10
51.1243493586
 20
83.0622352156
 10
51.1467858538
 20
83.0610765171
 10
51.1700743362
 20
83.0602488492
  0
LWPOLYLINE
  5
475
100
AcDbEntity
  8
0
100
AcDbPolyline
 62
7
  6
CONTINUOUS
 90
10
 70
0
 43
0.3500000006
 10
50.6651292114
 20
104.9124535217
 10
50.7365603943
 20
104.769591156
 10
50.7365603943
 20
104.6981690369
 10
50.5937025604
 20
104.5553066711
 10
50.5222713776
 20
104.5553066711
 10
50.4508447266
 20
104.626737854
 10
50.4508447266
 20
104.6981690369
 10
50.5222713776
 20
104.8410223389
 10
50.5937025604
 20
104.9124535217
 10
50.6651292114
 20
104.9124535217
  0
LINE
  5
476
100
AcDbEntity
  8
RACCORDO
100
AcDbLine
 62
250
  6
CONTINUOUS
 10
49.4623536357
 20
83.5923445683
 11
49.5270773116
 21
83.5948172555
  0
LINE
  5
477
100
AcDbEntity
  8
RACCORDO
100
AcDbLine
 62
250
  6
CONTINUOUS
 10
49.5270773116
 20
83.5948172555
 11
49.5629882722
 21
83.5959292105
  0
LINE
  5
478
100
AcDbEntity
  8
RACCORDO
100
AcDbLine
 62
250
  6
CONTINUOUS
 10
49.5629882722
 20
83.5959292105
 11
49.6004365446
 21
83.5967642764
  0
LINE
  5
479
100
AcDbEntity
  8
RACCORDO
100
AcDbLine
 62
250
  6
CONTINUOUS
 10
49.6004365446
 20
83.5967642764
 11
49.6383390911
 21
83.5972847607
  0
LINE
  5
47A
100
AcDbEntity
  8
RACCORDO
100
AcDbLine
 62
250
  6
CONTINUOUS
 10
49.6383390911
 20
83.5972847607
 11
49.6761577865
 21
83.5974915864
  0
LINE
  5
47B
100
AcDbEntity
  8
RACCORDO
100
AcDbLine
 62
250
  6
CONTINUOUS
 10
49.807004902
 20
84.1407632079
 11
49.557004902
 21
84.1407632079
  0
LINE
  5
47C
100
AcDbEntity
  8
RACCORDO
100
AcDbLine
 62
250
  6
CONTINUOUS
 10
50.807004902
 20
84.1407632079
 11
51.057004902
 21
84.1407632079
  0
LINE
  5
47D
100
AcDbEntity
  8
RACCORDO
100
AcDbLine
 62
7
  6
CONTINUOUS
 10
52.057004902
 20
84.9624510444
 11
58.557004902
 21
84.9624510444
  0
LINE
  5
47E
100
AcDbEntity
  8
RACCORDO
100
AcDbLine
 62
250
  6
CONTINUOUS
 10
52.057004902
 20
85.0067886117
 11
51.807004902
 21
85.0067886117
  0
LINE
  5
47F
100
AcDbEntity
  8
RACCORDO
100
AcDbLine
 62
250
  6
CONTINUOUS
 10
48.807004902
 20
85.0067886117
 11
48.557004902
 21
85.0067886117
  0
LINE
  5
480
100
AcDbEntity
  8
RACCORDO
100
AcDbLine
 62
250
  6
CONTINUOUS
 10
49.6761577865
 20
83.5974915864
 11
49.7136763512
 21
83.5974450827
  0
LINE
  5
481
100
AcDbEntity
  8
RACCORDO
100
AcDbLine
 62
250
  6
CONTINUOUS
 10
49.7136763512
 20
83.5974450827
 11
49.7504307049
 21
83.5971762615
  0
LWPOLYLINE
  5
482
100
AcDbEntity
  8
RACCORDO
100
AcDbPolyline
 62
250
  6
CONTINUOUS
 90
6
 70
0
 10
49.4021895874
 20
83.5913442885
 10
49.4127171413
 20
83.5912434284
 10
49.4238635552
 20
83.5913046599
 10
49.4357265435
 20
83.5915190422
 10
49.4485269926
 20
83.5918722807
 10
49.4623536357
 20
83.5923445683
  0
LINE
  5
483
100
AcDbEntity
  8
RACCORDO
100
AcDbLine
 62
250
  6
CONTINUOUS
 10
49.7504307049
 20
83.5971762615
 11
49.786308014
 21
83.596701612
  0
LINE
  5
484
100
AcDbEntity
  8
RACCORDO
100
AcDbLine
 62
7
  6
CONTINUOUS
 10
49.057004902
 20
83.5973611742
 11
49.4021658179
 21
83.591336368
  0
LINE
  5
485
100
AcDbEntity
  8
RACCORDO
100
AcDbLine
 62
7
  6
CONTINUOUS
 10
51.1875260303
 20
83.5601727896
 11
61.0744573084
 21
83.3875957622
  0
LINE
  5
486
100
AcDbEntity
  8
RACCORDO
100
AcDbLine
 62
250
  6
CONTINUOUS
 10
49.807004902
 20
83.7843003412
 11
50.807004902
 21
83.7668452762
  0
LINE
  5
487
100
AcDbEntity
  8
RACCORDO
100
AcDbLine
 62
250
  6
CONTINUOUS
 10
49.786308014
 20
83.596701612
 11
50.8175307904
 21
83.5769243249
  0
LINE
  5
488
100
AcDbEntity
  8
RACCORDO
100
AcDbLine
 62
250
  6
CONTINUOUS
 10
50.8175307904
 20
83.5769243249
 11
50.8611257978
 21
83.5759114961
  0
LINE
  5
489
100
AcDbEntity
  8
RACCORDO
100
AcDbLine
 62
250
  6
CONTINUOUS
 10
50.8611257978
 20
83.5759114961
 11
50.8915388683
 21
83.5750198395
  0
LINE
  5
48A
100
AcDbEntity
  8
RACCORDO
100
AcDbLine
 62
250
  6
CONTINUOUS
 10
49.557004902
 20
83.7921551204
 11
49.807004902
 21
83.7843003412
  0
LINE
  5
48B
100
AcDbEntity
  8
RACCORDO
100
AcDbLine
 62
250
  6
CONTINUOUS
 10
50.807004902
 20
83.7668452762
 11
51.057004902
 21
83.758990497
  0
LINE
  5
48C
100
AcDbEntity
  8
RACCORDO
100
AcDbLine
 62
250
  6
CONTINUOUS
 10
50.8915388683
 20
83.5750198395
 11
50.9224968387
 21
83.5739596146
  0
LINE
  5
48D
100
AcDbEntity
  8
RACCORDO
100
AcDbLine
 62
250
  6
CONTINUOUS
 10
50.9224968387
 20
83.5739596146
 11
50.9537822654
 21
83.5727265505
  0
LINE
  5
48E
100
AcDbEntity
  8
RACCORDO
100
AcDbLine
 62
250
  6
CONTINUOUS
 10
50.9537822654
 20
83.5727265505
 11
50.9850636223
 21
83.571323269
  0
LINE
  5
48F
100
AcDbEntity
  8
RACCORDO
100
AcDbLine
 62
250
  6
CONTINUOUS
 10
50.9850636223
 20
83.571323269
 11
51.0159393819
 21
83.5697633724
  0
LWPOLYLINE
  5
490
100
AcDbEntity
  8
RACCORDO
100
AcDbPolyline
 62
250
  6
CONTINUOUS
 90
5
 70
0
 10
51.1406254399
 20
83.5621023446
 10
51.1527840354
 20
83.5614420243
 10
51.1646449131
 20
83.5608816785
 10
51.1762162145
 20
83.5604507312
 10
51.1875258622
 20
83.5601720676
  0
LINE
  5
491
100
AcDbEntity
  8
RACCORDO
100
AcDbLine
 62
250
  6
CONTINUOUS
 10
51.0159393819
 20
83.5697633724
 11
51.0603642244
 21
83.5671640091
  0
LWPOLYLINE
  5
492
100
AcDbEntity
  8
RACCORDO
100
AcDbPolyline
 62
250
  6
CONTINUOUS
 90
3
 70
0
 10
51.0603642244
 20
83.5671640091
 10
51.1152819721
 20
83.563648262
 10
51.1406254399
 20
83.5621023446
  0
LINE
  5
493
100
AcDbEntity
  8
RACCORDO
100
AcDbLine
 62
250
  6
CONTINUOUS
 10
48.557004902
 20
85.4124510444
 11
52.057004902
 21
85.4124510444
  0
LINE
  5
494
100
AcDbEntity
  8
RACCORDO
100
AcDbLine
 62
7
  6
CONTINUOUS
 10
48.807004902
 20
85.6624510444
 11
51.807004902
 21
85.6624510444
  0
LWPOLYLINE
  5
495
100
AcDbEntity
  8
0
100
AcDbPolyline
 62
7
  6
CONTINUOUS
 90
7
 70
0
 43
0.3500000006
 10
46.8079858246
 20
104.4124533691
 10
45.3079853668
 20
104.4124533691
 10
46.8079858246
 20
106.5553072815
 10
46.8079858246
 20
106.9838762512
 10
46.3794168549
 20
107.4124542847
 10
45.7365588684
 20
107.4124542847
 10
45.3079853668
 20
106.7695917664
  0
LWPOLYLINE
  5
496
100
AcDbEntity
  8
0
100
AcDbPolyline
 62
7
  6
CONTINUOUS
 90
3
 70
0
 43
0.3500000006
 10
49.1651287537
 20
105.0553068237
 10
47.6651282959
 20
105.0553068237
 10
48.3079862823
 20
107.4124542847
  0
ARC
  5
497
100
AcDbEntity
  8
RACCORDO
100
AcDbCircle
 62
7
  6
CONTINUOUS
 10
99.875970953
 20
85.4124510444
 40
0.25
100
AcDbArc
 50
90.0
 51
180.0
  0
ARC
  5
498
100
AcDbEntity
  8
RACCORDO
100
AcDbCircle
 62
7
  6
CONTINUOUS
 10
101.775970953
 20
85.4124510444
 40
0.25
100
AcDbArc
 50
0.0
 51
90.0
  0
ARC
  5
499
100
AcDbEntity
  8
RACCORDO
100
AcDbCircle
 62
7
  6
CONTINUOUS
 10
120.675970953
 20
85.4124510444
 40
0.25
100
AcDbArc
 50
0.0
 51
90.0
  0
ARC
  5
49A
100
AcDbEntity
  8
RACCORDO
100
AcDbCircle
 62
7
  6
CONTINUOUS
 10
118.775970953
 20
85.4124510444
 40
0.25
100
AcDbArc
 50
90.0
 51
180.0
  0
ARC
  5
49B
100
AcDbEntity
  8
RACCORDO
100
AcDbCircle
 62
7
  6
CONTINUOUS
 10
101.775970953
 20
36.9124510444
 40
0.25
100
AcDbArc
 50
270.0
 51
360.0
  0
ARC
  5
49C
100
AcDbEntity
  8
RACCORDO
100
AcDbCircle
 62
7
  6
CONTINUOUS
 10
120.675970953
 20
36.9124510444
 40
0.25
100
AcDbArc
 50
270.0
 51
360.0
  0
ARC
  5
49D
100
AcDbEntity
  8
RACCORDO
100
AcDbCircle
 62
7
  6
CONTINUOUS
 10
118.775970953
 20
36.9124510444
 40
0.25
100
AcDbArc
 50
180.0
 51
270.0
  0
ARC
  5
49E
100
AcDbEntity
  8
RACCORDO
100
AcDbCircle
 62
7
  6
CONTINUOUS
 10
99.875970953
 20
36.9124510444
 40
0.25
100
AcDbArc
 50
180.0
 51
270.0
  0
ARC
  5
49F
100
AcDbEntity
  8
0
100
AcDbCircle
 62
7
  6
CONTINUOUS
 10
38.8446832502
 20
41.3498714379
 40
1.5
100
AcDbArc
 50
176.8995301032
 51
262.5
  0
ARC
  5
4A0
100
AcDbEntity
  8
RACCORDO
100
AcDbCircle
 62
7
  6
CONTINUOUS
 10
61.057004902
 20
39.9371540217
 40
1.0
100
AcDbArc
 50
271.0
 51
360.0
  0
ARC
  5
4A1
100
AcDbEntity
  8
RACCORDO
100
AcDbCircle
 62
7
  6
CONTINUOUS
 10
58.557004902
 20
37.8624510444
 40
0.5
100
AcDbArc
 50
270.0
 51
360.0
  0
ARC
  5
4A2
100
AcDbEntity
  8
RACCORDO
100
AcDbCircle
 62
250
  6
CONTINUOUS
 10
51.307004902
 20
38.1841388809
 40
0.5
100
AcDbArc
 50
180.0
 51
240.0
  0
ARC
  5
4A3
100
AcDbEntity
  8
RACCORDO
100
AcDbCircle
 62
250
  6
CONTINUOUS
 10
49.307004902
 20
38.1841388809
 40
0.5
100
AcDbArc
 50
300.0
 51
360.0
  0
ARC
  5
4A4
100
AcDbEntity
  8
RACCORDO
100
AcDbCircle
 62
7
  6
CONTINUOUS
 10
45.357004902
 20
43.1384262752
 40
0.3
100
AcDbArc
 50
180.0
 51
269.0
  0
ARC
  5
4A5
100
AcDbEntity
  8
RACCORDO
100
AcDbCircle
 62
7
  6
CONTINUOUS
 10
51.307004902
 20
38.1841388809
 40
0.25
100
AcDbArc
 50
180.0
 51
240.0
  0
ARC
  5
4A6
100
AcDbEntity
  8
RACCORDO
100
AcDbCircle
 62
7
  6
CONTINUOUS
 10
51.807004902
 20
36.9124510444
 40
0.25
100
AcDbArc
 50
270.0
 51
360.0
  0
ARC
  5
4A7
100
AcDbEntity
  8
RACCORDO
100
AcDbCircle
 62
7
  6
CONTINUOUS
 10
48.807004902
 20
36.9124510444
 40
0.25
100
AcDbArc
 50
180.0
 51
270.0
  0
ARC
  5
4A8
100
AcDbEntity
  8
RACCORDO
100
AcDbCircle
 62
7
  6
CONTINUOUS
 10
48.807004902
 20
37.3181134771
 40
0.25
100
AcDbArc
 50
120.0
 51
180.0
  0
ARC
  5
4A9
100
AcDbEntity
  8
RACCORDO
100
AcDbCircle
 62
7
  6
CONTINUOUS
 10
49.307004902
 20
38.1841388809
 40
0.25
100
AcDbArc
 50
300.0
 51
360.0
  0
ARC
  5
4AA
100
AcDbEntity
  8
RACCORDO
100
AcDbCircle
 62
7
  6
CONTINUOUS
 10
51.807004902
 20
37.3181134771
 40
0.25
100
AcDbArc
 50
0.0
 51
60.0
  0
ARC
  5
4AB
100
AcDbEntity
  8
RACCORDO
100
AcDbCircle
 62
7
  6
CONTINUOUS
 10
51.2570021064
 20
38.565911543
 40
0.1999987575
100
AcDbArc
 50
90.9991990116
 51
179.9999860206
  0
ARC
  5
4AC
100
AcDbEntity
  8
RACCORDO
100
AcDbCircle
 62
7
  6
CONTINUOUS
 10
49.3570076975
 20
38.5327470172
 40
0.1999987575
100
AcDbArc
 50
359.9999860207
 51
91.0
  0
ARC
  5
4AD
100
AcDbEntity
  8
0
100
AcDbCircle
 62
7
  6
CONTINUOUS
 10
43.7926082944
 20
81.6474870975
 40
1.5
100
AcDbArc
 50
83.5
 51
169.1004698968
  0
ARC
  5
4AE
100
AcDbEntity
  8
RACCORDO
100
AcDbCircle
 62
7
  6
CONTINUOUS
 10
61.057004902
 20
82.3877480671
 40
1.0
100
AcDbArc
 50
0.0
 51
89.0
  0
ARC
  5
4AF
100
AcDbEntity
  8
RACCORDO
100
AcDbCircle
 62
7
  6
CONTINUOUS
 10
58.557004902
 20
84.4624510444
 40
0.5
100
AcDbArc
 50
0.0
 51
90.0
  0
ARC
  5
4B0
100
AcDbEntity
  8
RACCORDO
100
AcDbCircle
 62
250
  6
CONTINUOUS
 10
49.307004902
 20
84.1407632079
 40
0.5
100
AcDbArc
 50
0.0
 51
60.0
  0
ARC
  5
4B1
100
AcDbEntity
  8
RACCORDO
100
AcDbCircle
 62
250
  6
CONTINUOUS
 10
51.307004902
 20
84.1407632079
 40
0.5
100
AcDbArc
 50
120.0
 51
180.0
  0
ARC
  5
4B2
100
AcDbEntity
  8
RACCORDO
100
AcDbCircle
 62
7
  6
CONTINUOUS
 10
49.307004902
 20
84.1407632079
 40
0.25
100
AcDbArc
 50
0.0
 51
60.0
  0
ARC
  5
4B3
100
AcDbEntity
  8
RACCORDO
100
AcDbCircle
 62
7
  6
CONTINUOUS
 10
48.807004902
 20
85.0067886117
 40
0.25
100
AcDbArc
 50
180.0
 51
240.0
  0
ARC
  5
4B4
100
AcDbEntity
  8
RACCORDO
100
AcDbCircle
 62
7
  6
CONTINUOUS
 10
51.807004902
 20
85.0067886117
 40
0.25
100
AcDbArc
 50
300.0
 51
360.0
  0
ARC
  5
4B5
100
AcDbEntity
  8
RACCORDO
100
AcDbCircle
 62
7
  6
CONTINUOUS
 10
51.307004902
 20
84.1407632079
 40
0.25
100
AcDbArc
 50
120.0
 51
180.0
  0
ARC
  5
4B6
100
AcDbEntity
  8
RACCORDO
100
AcDbCircle
 62
7
  6
CONTINUOUS
 10
48.807004902
 20
85.4124510444
 40
0.25
100
AcDbArc
 50
90.0
 51
180.0
  0
ARC
  5
4B7
100
AcDbEntity
  8
RACCORDO
100
AcDbCircle
 62
7
  6
CONTINUOUS
 10
51.807004902
 20
85.4124510444
 40
0.25
100
AcDbArc
 50
0.0
 51
90.0
  0
ARC
  5
4B8
100
AcDbEntity
  8
RACCORDO
100
AcDbCircle
 62
7
  6
CONTINUOUS
 10
49.3570076975
 20
83.7921550716
 40
0.1999987575
100
AcDbArc
 50
268.9991990114
 51
0.0000139793
  0
ARC
  5
4B9
100
AcDbEntity
  8
RACCORDO
100
AcDbCircle
 62
7
  6
CONTINUOUS
 10
51.2570021064
 20
83.7589905458
 40
0.1999987575
100
AcDbArc
 50
180.0000139794
 51
269.0
  0
ARC
  5
4BA
100
AcDbEntity
  8
0
100
AcDbCircle
 62
7
  6
CONTINUOUS
 10
336.9077469437
 20
25.2049012727
 40
300.0
100
AcDbArc
 50
169.1004698968
 51
176.8995301032
  0
ELLIPSE
  5
4BB
100
AcDbEntity
  8
RACCORDO
100
AcDbEllipse
 62
7
  6
CONTINUOUS
 10
99.626047117
 20
39.2799822733
 30
0.0
 11
-0.3536610946
 21
0.3536610946
 31
0.0
 40
0.9996954599
 41
1.1201463888
 42
1.2045179422
  0
ELLIPSE
  5
4BC
100
AcDbEntity
  8
RACCORDO
100
AcDbEllipse
 62
7
  6
CONTINUOUS
 10
120.925894789
 20
83.0449198154
 30
0.0
 11
0.3536610946
 21
-0.3536610946
 31
0.0
 40
0.9996954599
 41
0.7852458701
 42
1.2045179422
  0
ELLIPSE
  5
4BD
100
AcDbEntity
  8
RACCORDO
100
AcDbEllipse
 62
7
  6
CONTINUOUS
 10
99.626047117
 20
83.0449198154
 30
0.0
 11
0.3536610946
 21
0.3536610946
 31
0.0
 40
0.9996954599
 41
1.9364067355
 42
2.1494113671
  0
ELLIPSE
  5
4BE
100
AcDbEntity
  8
RACCORDO
100
AcDbEllipse
 62
7
  6
CONTINUOUS
 10
120.925894789
 20
39.2799822733
 30
0.0
 11
0.3536610946
 21
0.3536610946
 31
0.0
 40
0.9996954599
 41
-1.2053429231
 42
-0.7852458701
  0
ELLIPSE
  5
4BF
100
AcDbEntity
  8
RACCORDO
100
AcDbEllipse
 62
7
  6
CONTINUOUS
 10
120.925894789
 20
39.2799822733
 30
0.0
 11
0.3536610946
 21
0.3536610946
 31
0.0
 40
0.9996954599
 41
-1.5355435416
 42
-1.2434048153
  0
ELLIPSE
  5
4C0
100
AcDbEntity
  8
RACCORDO
100
AcDbEllipse
 62
7
  6
CONTINUOUS
 10
120.8735295942
 20
39.2276170786
 30
0.0
 11
-0.3536610946
 21
-0.3536610946
 31
0.0
 40
0.9996954599
 41
7.0684311773
 42
8.6395320906
  0
ELLIPSE
  5
4C1
100
AcDbEntity
  8
RACCORDO
100
AcDbEllipse
 62
7
  6
CONTINUOUS
 10
99.6784123118
 20
39.2276170786
 30
0.0
 11
0.3536610946
 21
-0.3536610946
 31
0.0
 40
0.9996954599
 41
-2.1304175251
 42
-0.7852458701
  0
ELLIPSE
  5
4C2
100
AcDbEntity
  8
RACCORDO
100
AcDbEllipse
 62
7
  6
CONTINUOUS
 10
120.8735295942
 20
83.0972850102
 30
0.0
 11
-0.3536610946
 21
0.3536610946
 31
0.0
 40
0.9996954599
 41
-2.3563467834
 42
-0.7852458701
  0
ELLIPSE
  5
4C3
100
AcDbEntity
  8
RACCORDO
100
AcDbEllipse
 62
7
  6
CONTINUOUS
 10
99.6784123118
 20
83.0972850102
 30
0.0
 11
0.3536610946
 21
0.3536610946
 31
0.0
 40
0.9996954599
 41
7.0684311773
 42
8.5386122423
  0
ELLIPSE
  5
4C4
100
AcDbEntity
  8
0
100
AcDbEllipse
 62
7
  6
CONTINUOUS
 10
77.576245187
 20
81.6960027377
 30
0.0
 11
0.8001895183
 21
-0.0117351306
 31
0.0
 40
0.9922404883
 41
2.9305468855
 42
3.1561432691
  0
ELLIPSE
  5
4C5
100
AcDbEntity
  8
0
100
AcDbEllipse
 62
7
  6
CONTINUOUS
 10
77.576245187
 20
39.9098702249
 30
0.0
 11
0.8001895183
 21
0.0117351306
 31
0.0
 40
0.9922404883
 41
3.1270420381
 42
4.6976099308
  0
ELLIPSE
  5
4C6
100
AcDbEntity
  8
0
100
AcDbEllipse
 62
7
  6
CONTINUOUS
 10
120.475696719
 20
39.9098702249
 30
0.0
 11
0.8001895183
 21
-0.0117351306
 31
0.0
 40
0.9922404883
 41
-1.5560172772
 42
0.0145506155
  0
ELLIPSE
  5
4C7
100
AcDbEntity
  8
0
100
AcDbEllipse
 62
7
  6
CONTINUOUS
 10
120.475696719
 20
81.6960027377
 30
0.0
 11
0.8001895183
 21
0.0117351306
 31
0.0
 40
0.9922404883
 41
-0.0145506155
 42
0.2110457681
  0
ENDSEC
  0
SECTION
  2
OBJECTS
  0
DICTIONARY
  5
C
100
AcDbDictionary
280
0
281
1
  3
ACAD_GROUP
350
D
  3
ACAD_MLINESTYLE
350
17
  3
ACAD_LAYOUT
350
1A
  3
ACAD_PLOTSETTINGS
350
19
  3
ACAD_PLOTSTYLENAME
350
E
  0
DICTIONARY
  5
D
102
{ACAD_REACTORS
330
C
102
}
100
AcDbDictionary
280
0
281
1
  0
ACDBDICTIONARYWDFLT
  5
E
102
{ACAD_REACTORS
330
C
102
}
100
AcDbDictionary
281
1
  3
Normal
350
F
100
AcDbDictionaryWithDefault
340
F
  0
DICTIONARY
  5
17
102
{ACAD_REACTORS
330
C
102
}
100
AcDbDictionary
280
0
281
1
  3
Standard
350
18
  0
DICTIONARY
  5
19
102
{ACAD_REACTORS
330
C
102
}
100
AcDbDictionary
281
1
  0
DICTIONARY
  5
1A
102
{ACAD_REACTORS
330
C
102
}
100
AcDbDictionary
281
1
  3
Model
350
4C8
  3
Layout1
350
4C9
  0
ACDBPLACEHOLDER
  5
F
102
{ACAD_REACTORS
330
E
102
}
  0
MLINESTYLE
  5
18
102
{ACAD_REACTORS
330
17
102
}
100
AcDbMlineStyle
  2
STANDARD
 70
0
  3

 62
256
 51
90.0
 52
90.0
 71
2
 49
0.5
 62
256
  6
BYLAYER
 49
-0.5
 62
256
  6
BYLAYER
  0
LAYOUT
  5
4C8
102
{ACAD_REACTORS
330
1A
102
}
100
AcDbPlotSettings
  1

  2
none_device
  4
ISO_A4_(297.00_x_210.00_MM)
  6

 40
0.0
 41
0.0
 42
0.0
 43
0.0
 44
297.0
 45
210.0
 46
0.0
 47
0.0
 48
0.0
 49
0.0
140
0.0
141
0.0
142
1.0
143
1.0
 70
1024
 72
1
 73
0
 74
0
  7

 75
0
147
1.0
148
0.0
149
0.0
100
AcDbLayout
  1
Model
 70
0
 71
0
 10
0.0
 20
0.0
 11
297.0
 21
210.0
 12
0.0
 22
0.0
 32
0.0
 14
0.0
 24
0.0
 34
0.0
 15
0.0
 25
0.0
 35
0.0
146
0.0
 13
0.0
 23
0.0
 33
0.0
 16
1.0
 26
0.0
 36
0.0
 17
0.0
 27
1.0
 37
0.0
 76
0
330
216
345
0
346
0
  0
LAYOUT
  5
4C9
102
{ACAD_REACTORS
330
1A
102
}
100
AcDbPlotSettings
  1

  2
none_device
  4
ISO_A4_(297.00_x_210.00_MM)
  6

 40
0.0
 41
0.0
 42
0.0
 43
0.0
 44
297.0
 45
210.0
 46
0.0
 47
0.0
 48
0.0
 49
0.0
140
0.0
141
0.0
142
1.0
143
1.0
 70
0
 72
1
 73
0
 74
0
  7

 75
0
147
1.0
148
0.0
149
0.0
100
AcDbLayout
  1
Layout1
 70
0
 71
1
 10
0.0
 20
0.0
 11
297.0
 21
210.0
 12
0.0
 22
0.0
 32
0.0
 14
0.0
 24
0.0
 34
0.0
 15
0.0
 25
0.0
 35
0.0
146
0.0
 13
0.0
 23
0.0
 33
0.0
 16
1.0
 26
0.0
 36
0.0
 17
0.0
 27
1.0
 37
0.0
 76
0
330
217
345
0
346
0
  0
ENDSEC
  0
EOF
