0
SECTION
2
HEADER
9
$ACADVER
1
AC1014
9
$HANDSEED
5
       43B
9
$EXTMAX
10
297.0000000000
20
210.0000000000
9
$EXTMIN
10
0.0000000000
20
0.0000000000
9
$LIMMIN
10
0.0000000000
20
0.0000000000
9
$LIMMAX
10
297.0000000000
20
210.0000000000
9
$VIEWCTR
10
148.5000000000
20
105.0000000000
9
$VIEWSIZE
40
210.0000000000
9
$CLAYER
8
0
9
$LTSCALE
40
16.3350000000
9
$CELTYPE
6
BYLAYER
9
$DIMSCALE
40
1
9
$DIMASZ
40
3.0000000000
9
$DIMEXO
40
1.8562500000
9
$DIMDLI
40
11.2860000000
9
$DIMEXE
40
5.3460000000
9
$DIMCEN
40
2.6730000000
9
$DIMLFAC
40
1.0000000000
9
$DIMTXT
40
3.0000000000
9
$DIMTOL
70
1
9
$DIMLIM
70
0
9
$DIMTFAC
40
1.0000000000
9
$DIMTP
40
0.0100000000
9
$DIMTM
40
0.0100000000
9
$MEASUREMENT
70
1
0
ENDSEC
0
SECTION
2
CLASSES
0
ENDSEC
0
SECTION
2
TABLES
0
TABLE
2
VPORT
5
8
100
AcDbSymbolTable
70
2
0
VPORT
5
1F4
100
AcDbSymbolTableRecord
100
AcDbViewportTableRecord
2
*ACTIVE
70
0
10
0.0
20
0.0
11
1.0
21
1.0
12
148.5000000000
22
105.0000000000
13
0.0
23
0.0
14
1.0
24
1.0
15
0.0
25
0.0
16
0.0
26
0.0
36
1.0
17
0.0
27
0.0
37
0.0
40
210.0000000000
41
1.4142857143
42
50.0
43
0.0
44
0.0
50
0.0
51
0.0
71
0
72
100
73
1
74
1
75
0
76
0
77
0
78
0
0
ENDTAB
0
TABLE
2
LTYPE
5
5
100
AcDbSymbolTable
70
6
0
LTYPE
5
14
100
AcDbSymbolTableRecord
100
AcDbLinetypeTableRecord
2
BYBLOCK
70
0
3

72
65
73
0
40
0.0
0
LTYPE
5
15
100
AcDbSymbolTableRecord
100
AcDbLinetypeTableRecord
2
BYLAYER
70
0
3

72
65
73
0
40
0.0
0
LTYPE
5
16
100
AcDbSymbolTableRecord
100
AcDbLinetypeTableRecord
2
CONTINUOUS
70
64
3
Solid line
72
65
73
0
40
0
0
LTYPE
5
1F5
100
AcDbSymbolTableRecord
100
AcDbLinetypeTableRecord
2
CENTER
70
64
3
____ _ ____ _ ____ _ ____ _ ____ _ ____ _ ____
72
65
73
4
40
0.6
49
0.375
74
0
49
-0.075
74
0
49
0.075
74
0
49
-0.075
74
0
0
LTYPE
5
1F6
100
AcDbSymbolTableRecord
100
AcDbLinetypeTableRecord
2
HIDDEN
70
64
3
- - - - - - - - - - - - - - - - - - - -
72
65
73
2
40
0.2
49
0.1
74
0
49
-0.1
74
0
0
LTYPE
5
1F7
100
AcDbSymbolTableRecord
100
AcDbLinetypeTableRecord
2
PHANTOM
70
64
3
_____ _ _ _____ _ _ _____ _ _ _____
72
65
73
6
40
0.8
49
0.45
74
0
49
-0.05
74
0
49
0.1
74
0
49
-0.05
74
0
49
0.1
74
0
49
-0.05
74
0
0
LTYPE
5
1F8
100
AcDbSymbolTableRecord
100
AcDbLinetypeTableRecord
2
DOT
70
64
3
. . . . . . . . . . . . . . . . . . . .
72
65
73
2
40
0.2
49
0.1
74
0
49
-0.1
74
0
0
LTYPE
5
1F9
100
AcDbSymbolTableRecord
100
AcDbLinetypeTableRecord
2
DASHED
70
64
3
- - - - - - - - - - - - - - - - - - - -
72
65
73
2
40
0.2
49
0.1
74
0
49
-0.1
74
0
0
ENDTAB
0
TABLE
2
LAYER
5
2
100
AcDbSymbolTable
70
36
0
LAYER
5
10
100
AcDbSymbolTableRecord
100
AcDbLayerTableRecord
2
0
70
0
62
7
6
CONTINUOUS
0
LAYER
5
1FA
100
AcDbSymbolTableRecord
100
AcDbLayerTableRecord
2
DEFAULT_1
70
0
62
7
6
CENTER
0
LAYER
5
1FB
100
AcDbSymbolTableRecord
100
AcDbLayerTableRecord
2
DEFAULT_2
70
0
62
8
6
HIDDEN
0
LAYER
5
1FC
100
AcDbSymbolTableRecord
100
AcDbLayerTableRecord
2
DEFAULT_3
70
0
62
7
6
PHANTOM
0
LAYER
5
1FD
100
AcDbSymbolTableRecord
100
AcDbLayerTableRecord
2
ASSI
70
0
62
7
6
CONTINUOUS
0
LAYER
5
1FE
100
AcDbSymbolTableRecord
100
AcDbLayerTableRecord
2
COORDINATE
70
0
62
7
6
CONTINUOUS
0
LAYER
5
1FF
100
AcDbSymbolTableRecord
100
AcDbLayerTableRecord
2
COORD_ORIGINE
70
0
62
7
6
CONTINUOUS
0
LAYER
5
200
100
AcDbSymbolTableRecord
100
AcDbLayerTableRecord
2
COSMETICI
70
0
62
7
6
CONTINUOUS
0
LAYER
5
201
100
AcDbSymbolTableRecord
100
AcDbLayerTableRecord
2
CURVE
70
0
62
7
6
CONTINUOUS
0
LAYER
5
202
100
AcDbSymbolTableRecord
100
AcDbLayerTableRecord
2
DRAFT
70
0
62
7
6
CONTINUOUS
0
LAYER
5
203
100
AcDbSymbolTableRecord
100
AcDbLayerTableRecord
2
INCISO
70
0
62
7
6
CONTINUOUS
0
LAYER
5
204
100
AcDbSymbolTableRecord
100
AcDbLayerTableRecord
2
NOTE
70
0
62
7
6
CONTINUOUS
0
LAYER
5
205
100
AcDbSymbolTableRecord
100
AcDbLayerTableRecord
2
PIANI
70
0
62
7
6
CONTINUOUS
0
LAYER
5
206
100
AcDbSymbolTableRecord
100
AcDbLayerTableRecord
2
PIANI_ORIGINE
70
0
62
7
6
CONTINUOUS
0
LAYER
5
207
100
AcDbSymbolTableRecord
100
AcDbLayerTableRecord
2
PIANI_RIFERIMENTO
70
0
62
7
6
CONTINUOUS
0
LAYER
5
208
100
AcDbSymbolTableRecord
100
AcDbLayerTableRecord
2
PUNTI
70
0
62
7
6
CONTINUOUS
0
LAYER
5
209
100
AcDbSymbolTableRecord
100
AcDbLayerTableRecord
2
RACCORDO
70
0
62
7
6
CONTINUOUS
0
LAYER
5
20A
100
AcDbSymbolTableRecord
100
AcDbLayerTableRecord
2
SMUSSO
70
0
62
7
6
CONTINUOUS
0
LAYER
5
20B
100
AcDbSymbolTableRecord
100
AcDbLayerTableRecord
2
SNAPLINE
70
0
62
7
6
CONTINUOUS
0
LAYER
5
20C
100
AcDbSymbolTableRecord
100
AcDbLayerTableRecord
2
SUPERFICI
70
0
62
7
6
CONTINUOUS
0
LAYER
5
20D
100
AcDbSymbolTableRecord
100
AcDbLayerTableRecord
2
TRASH
70
0
62
7
6
CONTINUOUS
0
ENDTAB
0
TABLE
2
STYLE
5
3
100
AcDbSymbolTable
70
1
0
STYLE
5
11
100
AcDbSymbolTableRecord
100
AcDbTextStyleTableRecord
2
STANDARD
70
0
40
0.0
41
0.8000000000
50
0.0
71
0
42
0.2
3
txt
4

0
ENDTAB
0
TABLE
2
VIEW
5
6
100
AcDbSymbolTable
70
0
0
ENDTAB
0
TABLE
2
UCS
5
7
100
AcDbSymbolTable
70
0
0
ENDTAB
0
TABLE
2
APPID
5
9
100
AcDbSymbolTable
70
1
0
APPID
5
20E
100
AcDbSymbolTableRecord
100
AcDbRegAppTableRecord
2
ACAD
70
0
0
ENDTAB
0
TABLE
2
DIMSTYLE
5
A
100
AcDbSymbolTable
70
1
0
DIMSTYLE
105
20F
100
AcDbSymbolTableRecord
100
AcDbDimStyleTableRecord
2
STANDARD
70
0
3

4

5

6

7

40
1.0
41
3.0000000000
42
0.0625
43
0.38
44
0.18
45
0.0
46
0.0
47
0.0100000000
48
0.0100000000
140
3.0000000000
141
0.09
142
0.0
143
25.4
144
1.0000000000
145
0.0
146
1.0000000000
147
0.09
71
1
72
0
73
0
74
0
75
0
76
0
77
1
78
8
170
0
171
2
172
0
173
0
174
0
175
0
176
0
177
0
178
0
270
2
271
2
272
2
273
2
274
2
340
11
275
0
280
0
281
0
282
0
283
1
284
8
285
0
286
0
287
3
288
0
0
DIMSTYLE
105
210
100
AcDbSymbolTableRecord
100
AcDbDimStyleTableRecord
2
DIMSTYLE_1
70
0
3

4

5

6

7

40
1.0
41
3.0000000000
42
0.0625
43
0.38
44
0.18
45
0.0
46
0.0
47
0.0000000000
48
0.0000000000
140
3.0000000000
141
0.09
142
0.0
143
25.4
144
1.0000000000
145
0.0
146
1.0000000000
147
0.09
71
0
72
0
73
0
74
0
75
0
76
0
77
1
78
8
170
0
171
2
172
0
173
0
174
0
175
0
176
0
177
0
178
0
270
2
271
1
272
1
273
2
274
2
340
11
275
0
280
0
281
0
282
0
283
1
284
8
285
0
286
0
287
3
288
0
0
DIMSTYLE
105
211
100
AcDbSymbolTableRecord
100
AcDbDimStyleTableRecord
2
DIMSTYLE_2
70
0
3

4

5

6

7

40
1.0
41
3.0000000000
42
0.0625
43
0.38
44
0.18
45
0.0
46
0.0
47
0.0000000000
48
0.0000000000
140
3.0000000000
141
0.09
142
0.0
143
25.4
144
1.0000000000
145
0.0
146
1.0000000000
147
0.09
71
0
72
0
73
0
74
0
75
0
76
0
77
1
78
8
170
0
171
2
172
0
173
0
174
0
175
0
176
0
177
0
178
0
270
2
271
2
272
2
273
2
274
2
340
11
275
0
280
0
281
0
282
0
283
1
284
8
285
0
286
0
287
3
288
0
0
ENDTAB
0
TABLE
2
BLOCK_RECORD
5
1
100
AcDbSymbolTable
70
0
0
BLOCK_RECORD
5
1B
100
AcDbSymbolTableRecord
100
AcDbBlockTableRecord
2
*MODEL_SPACE
0
BLOCK_RECORD
5
1C
100
AcDbSymbolTableRecord
100
AcDbBlockTableRecord
2
*PAPER_SPACE
0
BLOCK_RECORD
5
212
100
AcDbSymbolTableRecord
100
AcDbBlockTableRecord
2
*D0
0
BLOCK_RECORD
5
213
100
AcDbSymbolTableRecord
100
AcDbBlockTableRecord
2
*D1
0
BLOCK_RECORD
5
214
100
AcDbSymbolTableRecord
100
AcDbBlockTableRecord
2
*D2
0
BLOCK_RECORD
5
215
100
AcDbSymbolTableRecord
100
AcDbBlockTableRecord
2
*D3
0
ENDTAB
0
ENDSEC
0
SECTION
2
BLOCKS
0
BLOCK
5
1E
100
AcDbEntity
8
0
100
AcDbBlockBegin
2
*MODEL_SPACE
70
0
10
0.0
20
0.0
30
0.0
3
*MODEL_SPACE
1

0
ENDBLK
5
1F
100
AcDbEntity
8
0
100
AcDbBlockEnd
0
BLOCK
5
20
100
AcDbEntity
8
0
100
AcDbBlockBegin
2
*PAPER_SPACE
70
0
10
0.0
20
0.0
30
0.0
3
*PAPER_SPACE
1

0
ENDBLK
5
21
100
AcDbEntity
8
0
100
AcDbBlockEnd
0
BLOCK
5
216
100
AcDbEntity
8
0
100
AcDbBlockBegin
62
7
6
CONTINUOUS
2
*D0
70
65
10
0.0000000000
20
0.0000000000
3
*D0
1

0
TEXT
5
217
100
AcDbEntity
8
0
100
AcDbText
62
7
6
CONTINUOUS
10
-2.3359928776
20
33.2591834528
7
STANDARD
40
3.0000000000
1
44,5
50
-0.1227968418
41
0.7142857143
72
0
100
AcDbText
0
LINE
5
218
100
AcDbEntity
8
0
100
AcDbLine
62
7
6
CONTINUOUS
10
22.2350522012
20
20.4536476002
11
22.2639916020
21
33.9564621815
0
LINE
5
219
100
AcDbEntity
8
0
100
AcDbLine
62
7
6
CONTINUOUS
10
-22.2739283962
20
21.0337017163
11
-22.2460277241
21
34.0518566105
0
LINE
5
21A
100
AcDbEntity
8
0
100
AcDbLine
62
7
6
CONTINUOUS
10
22.2607767906
20
32.4564656265
11
0.0057671276
21
32.5041628410
0
LINE
5
21B
100
AcDbEntity
8
0
100
AcDbLine
62
7
6
CONTINUOUS
10
-22.2492425355
20
32.5518600555
11
0.0057671276
21
32.5041628410
0
SOLID
5
21C
100
AcDbEntity
8
0
100
AcDbTrace
62
7
6
CONTINUOUS
10
19.2587476335
20
31.5128974310
11
22.2607767906
21
32.4564656265
12
19.2628197278
22
33.4128930673
13
19.2628197278
23
33.4128930673
0
SOLID
5
21D
100
AcDbEntity
8
0
100
AcDbTrace
62
7
6
CONTINUOUS
10
-19.2472133783
20
33.4954282510
11
-22.2492425355
21
32.5518600555
12
-19.2512854727
22
31.5954326146
13
-19.2512854727
23
31.5954326146
0
ENDBLK
5
21E
100
AcDbEntity
8
0
100
AcDbBlockEnd
0
BLOCK
5
21F
100
AcDbEntity
8
0
100
AcDbBlockBegin
62
7
6
CONTINUOUS
2
*D1
70
65
10
0.0000000000
20
0.0000000000
3
*D1
1

0
TEXT
5
220
100
AcDbEntity
8
0
100
AcDbText
62
7
6
CONTINUOUS
10
30.9949585519
20
0.1395060769
7
STANDARD
40
3.0000000000
1
49
50
90.0000000000
41
0.7857142857
72
0
100
AcDbText
0
LINE
5
221
100
AcDbEntity
8
0
100
AcDbLine
62
7
6
CONTINUOUS
10
22.0250000000
20
24.5000000000
11
33.2449585519
21
24.5000000000
0
LINE
5
222
100
AcDbEntity
8
0
100
AcDbLine
62
7
6
CONTINUOUS
10
22.0250000000
20
-24.5000000000
11
33.2449585519
21
-24.5000000000
0
LINE
5
223
100
AcDbEntity
8
0
100
AcDbLine
62
7
6
CONTINUOUS
10
31.7449585519
20
24.5000000000
11
31.7449585519
21
0.0000000000
0
LINE
5
224
100
AcDbEntity
8
0
100
AcDbLine
62
7
6
CONTINUOUS
10
31.7449585519
20
-24.5000000000
11
31.7449585519
21
0.0000000000
0
SOLID
5
225
100
AcDbEntity
8
0
100
AcDbTrace
62
7
6
CONTINUOUS
10
32.6949585519
20
21.5000000000
11
31.7449585519
21
24.5000000000
12
30.7949585519
22
21.5000000000
13
30.7949585519
23
21.5000000000
0
SOLID
5
226
100
AcDbEntity
8
0
100
AcDbTrace
62
7
6
CONTINUOUS
10
30.7949585519
20
-21.5000000000
11
31.7449585519
21
-24.5000000000
12
32.6949585519
22
-21.5000000000
13
32.6949585519
23
-21.5000000000
0
ENDBLK
5
227
100
AcDbEntity
8
0
100
AcDbBlockEnd
0
BLOCK
5
228
100
AcDbEntity
8
0
100
AcDbBlockBegin
62
7
6
CONTINUOUS
2
*D2
70
65
10
0.0000000000
20
0.0000000000
3
*D2
1

0
TEXT
5
229
100
AcDbEntity
8
0
100
AcDbText
62
7
6
CONTINUOUS
10
-39.0399099266
20
33.2500000000
7
STANDARD
40
3.0000000000
1
10
41
0.6785714286
72
0
100
AcDbText
0
LINE
5
22A
100
AcDbEntity
8
0
100
AcDbLine
62
7
6
CONTINUOUS
10
-33.1901358205
20
19.5042403804
11
-33.1901358205
21
34.0000000000
0
LINE
5
22B
100
AcDbEntity
8
0
100
AcDbLine
62
7
6
CONTINUOUS
10
-43.1901358205
20
22.3823164546
11
-43.1901358205
21
34.0000000000
0
LINE
5
22C
100
AcDbEntity
8
0
100
AcDbLine
62
7
6
CONTINUOUS
10
-33.1901358205
20
32.5000000000
11
-38.1901358205
21
32.5000000000
0
LINE
5
22D
100
AcDbEntity
8
0
100
AcDbLine
62
7
6
CONTINUOUS
10
-43.1901358205
20
32.5000000000
11
-38.1901358205
21
32.5000000000
0
SOLID
5
22E
100
AcDbEntity
8
0
100
AcDbTrace
62
7
6
CONTINUOUS
10
-36.1901358205
20
31.5500000000
11
-33.1901358205
21
32.5000000000
12
-36.1901358205
22
33.4500000000
13
-36.1901358205
23
33.4500000000
0
SOLID
5
22F
100
AcDbEntity
8
0
100
AcDbTrace
62
7
6
CONTINUOUS
10
-40.1901358205
20
33.4500000000
11
-43.1901358205
21
32.5000000000
12
-40.1901358205
22
31.5500000000
13
-40.1901358205
23
31.5500000000
0
ENDBLK
5
230
100
AcDbEntity
8
0
100
AcDbBlockEnd
0
BLOCK
5
231
100
AcDbEntity
8
0
100
AcDbBlockBegin
62
7
6
CONTINUOUS
2
*D3
70
65
10
0.0000000000
20
0.0000000000
3
*D3
1

0
TEXT
5
232
100
AcDbEntity
8
0
100
AcDbText
62
7
6
CONTINUOUS
10
-44.5814494364
20
43.2500000000
7
STANDARD
40
3.0000000000
1
24,7
41
0.7321428571
72
0
100
AcDbText
0
LINE
5
233
100
AcDbEntity
8
0
100
AcDbLine
62
7
6
CONTINUOUS
10
-57.8997394270
20
-19.2624779282
11
-57.8997394270
21
44.0000000000
0
LINE
5
234
100
AcDbEntity
8
0
100
AcDbLine
62
7
6
CONTINUOUS
10
-33.1901358205
20
-18.5042403804
11
-33.1901358205
21
44.0000000000
0
LINE
5
235
100
AcDbEntity
8
0
100
AcDbLine
62
7
6
CONTINUOUS
10
-57.8997394270
20
42.5000000000
11
-45.5449376238
21
42.5000000000
0
LINE
5
236
100
AcDbEntity
8
0
100
AcDbLine
62
7
6
CONTINUOUS
10
-33.1901358205
20
42.5000000000
11
-45.5449376238
21
42.5000000000
0
SOLID
5
237
100
AcDbEntity
8
0
100
AcDbTrace
62
7
6
CONTINUOUS
10
-54.8997394270
20
43.4500000000
11
-57.8997394270
21
42.5000000000
12
-54.8997394270
22
41.5500000000
13
-54.8997394270
23
41.5500000000
0
SOLID
5
238
100
AcDbEntity
8
0
100
AcDbTrace
62
7
6
CONTINUOUS
10
-36.1901358205
20
41.5500000000
11
-33.1901358205
21
42.5000000000
12
-36.1901358205
22
43.4500000000
13
-36.1901358205
23
43.4500000000
0
ENDBLK
5
239
100
AcDbEntity
8
0
100
AcDbBlockEnd
0
ENDSEC
0
SECTION
2
ENTITIES
0
DIMENSION
5
23A
100
AcDbEntity
8
0
100
AcDbDimension
62
7
6
CONTINUOUS
2
*D0
10
-22.2492425355
20
32.5518600555
11
1.9529263765
21
34.7499948325
70
160
3
DIMSTYLE_1
100
AcDbAlignedDimension
13
22.2350522012
23
20.4536476002
14
-22.2739283962
24
21.0337017163
50
179.877203
100
AcDbRotatedDimension
0
DIMENSION
5
23B
100
AcDbEntity
8
0
100
AcDbDimension
62
7
6
CONTINUOUS
2
*D1
10
31.7449585519
20
-24.5000000000
11
29.4949585519
21
2.4966489340
70
160
3
DIMSTYLE_2
100
AcDbAlignedDimension
13
22.0250000000
23
24.5000000000
14
22.0250000000
24
-24.5000000000
50
270.000000
100
AcDbRotatedDimension
0
DIMENSION
5
23C
100
AcDbEntity
8
0
100
AcDbDimension
62
7
6
CONTINUOUS
2
*D2
10
-43.1901358205
20
32.5000000000
11
-37.0041956409
21
34.7500000000
70
160
3
DIMSTYLE_2
100
AcDbAlignedDimension
13
-33.1901358205
23
19.5042403804
14
-43.1901358205
24
22.3823164546
50
180.000000
100
AcDbRotatedDimension
0
DIMENSION
5
23D
100
AcDbEntity
8
0
100
AcDbDimension
62
7
6
CONTINUOUS
2
*D3
10
-33.1901358205
20
42.5000000000
11
-40.1885922935
21
44.7500000000
70
160
3
DIMSTYLE_1
100
AcDbAlignedDimension
13
-57.8997394270
23
-19.2624779282
14
-33.1901358205
24
-18.5042403804
100
AcDbRotatedDimension
0
LINE
5
23E
100
AcDbEntity
8
0
100
AcDbLine
62
7
6
CONTINUOUS
10
-22.2642348434
20
20.6635335404
11
-22.1640329345
21
21.2636772279
0
LINE
5
23F
100
AcDbEntity
8
0
100
AcDbLine
62
9
6
CONTINUOUS
10
-22.2750000000
20
20.5337028647
11
-22.1748339282
21
21.1336319116
0
LINE
5
240
100
AcDbEntity
8
0
100
AcDbLine
62
7
6
CONTINUOUS
10
21.5250000000
20
-24.5000000000
11
19.6250000000
21
-24.5000000000
0
LINE
5
241
100
AcDbEntity
8
0
100
AcDbLine
62
7
6
CONTINUOUS
10
2.6250000000
20
-24.5000000000
11
0.7250000000
21
-24.5000000000
0
LINE
5
242
100
AcDbEntity
8
0
100
AcDbLine
62
9
6
CONTINUOUS
10
0.4750000000
20
-24.2500000000
11
2.8750000000
21
-24.2500000000
0
LINE
5
243
100
AcDbEntity
8
0
100
AcDbLine
62
9
6
CONTINUOUS
10
19.3750000000
20
-24.2500000000
11
21.7750000000
21
-24.2500000000
0
LINE
5
244
100
AcDbEntity
8
0
100
AcDbLine
62
7
6
CONTINUOUS
10
-22.2750000000
20
20.5337028647
11
-22.2750000000
21
-21.2527319908
0
LINE
5
245
100
AcDbEntity
8
0
100
AcDbLine
62
9
6
CONTINUOUS
10
0.4750000000
20
-23.8443375673
11
2.8750000000
21
-23.8443375673
0
LINE
5
246
100
AcDbEntity
8
0
100
AcDbLine
62
9
6
CONTINUOUS
10
19.3750000000
20
-23.8443375673
11
21.7750000000
21
-23.8443375673
0
LINE
5
247
100
AcDbEntity
8
0
100
AcDbLine
62
7
6
CONTINUOUS
10
15.5278664467
20
-23.8000000000
11
6.7221335533
21
-23.8000000000
0
LINE
5
248
100
AcDbEntity
8
0
100
AcDbLine
62
9
6
CONTINUOUS
10
21.5250000000
20
-23.6278312164
11
19.6250000000
21
-23.6278312164
0
LINE
5
249
100
AcDbEntity
8
0
100
AcDbLine
62
9
6
CONTINUOUS
10
2.6250000000
20
-23.6278312164
11
0.7250000000
21
-23.6278312164
0
LINE
5
24A
100
AcDbEntity
8
0
100
AcDbLine
62
9
6
CONTINUOUS
10
0.7250000000
20
-23.1948185145
11
2.6250000000
21
-23.1948185145
0
LINE
5
24B
100
AcDbEntity
8
0
100
AcDbLine
62
9
6
CONTINUOUS
10
19.6250000000
20
-23.1948185145
11
21.5250000000
21
-23.1948185145
0
LINE
5
24C
100
AcDbEntity
8
0
100
AcDbLine
62
9
6
CONTINUOUS
10
0.4750000000
20
-22.9783121635
11
2.8750000000
21
-22.9783121635
0
LINE
5
24D
100
AcDbEntity
8
0
100
AcDbLine
62
9
6
CONTINUOUS
10
19.3750000000
20
-22.9783121635
11
21.7750000000
21
-22.9783121635
0
LINE
5
24E
100
AcDbEntity
8
0
100
AcDbLine
62
9
6
CONTINUOUS
10
21.5250000000
20
-22.6297040760
11
19.6250000000
21
-22.6297040760
0
LINE
5
24F
100
AcDbEntity
8
0
100
AcDbLine
62
9
6
CONTINUOUS
10
2.6250000000
20
-22.6297040760
11
0.7250000000
21
-22.6297040760
0
LINE
5
250
100
AcDbEntity
8
0
100
AcDbLine
62
7
6
CONTINUOUS
10
0.5275936753
20
-22.4349101299
11
21.7224063247
21
-22.4349101299
0
LINE
5
251
100
AcDbEntity
8
0
100
AcDbLine
62
7
6
CONTINUOUS
10
-21.4751218439
20
-22.0466479764
11
21.2251218439
21
-22.0466479764
0
LINE
5
252
100
AcDbEntity
8
0
100
AcDbLine
62
7
6
CONTINUOUS
10
21.6808361325
20
-21.9048099646
11
22.2226348052
21
-21.9048099646
0
LINE
5
253
100
AcDbEntity
8
0
100
AcDbLine
62
7
6
CONTINUOUS
10
21.7790341116
20
-21.8250000000
11
22.2339805974
21
-21.8250000000
0
LINE
5
254
100
AcDbEntity
8
0
100
AcDbLine
62
9
6
CONTINUOUS
10
21.1249557720
20
-21.2478800313
11
-21.3749557720
21
-21.2478800313
0
LINE
5
255
100
AcDbEntity
8
0
100
AcDbLine
62
7
6
CONTINUOUS
10
22.0250000000
20
-19.9536487485
11
22.2339805974
21
-19.9536487485
0
LINE
5
256
100
AcDbEntity
8
0
100
AcDbLine
62
9
6
CONTINUOUS
10
21.1129786180
20
-19.6810956576
11
-21.3629786180
21
-19.6810956576
0
LINE
5
257
100
AcDbEntity
8
0
100
AcDbLine
62
9
6
CONTINUOUS
10
-22.1748339282
20
-20.4539640456
11
-22.2750000000
21
-21.2527319908
0
LINE
5
258
100
AcDbEntity
8
0
100
AcDbLine
62
9
6
CONTINUOUS
10
-21.3749557720
20
-21.2478800313
11
-21.4751218439
21
-22.0466479764
0
LINE
5
259
100
AcDbEntity
8
0
100
AcDbLine
62
7
6
CONTINUOUS
10
0.1112834262
20
22.2598081257
11
0.1151416033
21
22.2650008331
0
LINE
5
25A
100
AcDbEntity
8
0
100
AcDbLine
62
7
6
CONTINUOUS
10
0.0952685336
20
22.2382089476
11
0.0969586872
21
22.2404780204
0
LINE
5
25B
100
AcDbEntity
8
0
100
AcDbLine
62
7
6
CONTINUOUS
10
0.0969584670
20
-22.2404790742
11
0.0952939312
21
-22.2382445809
0
LINE
5
25C
100
AcDbEntity
8
0
100
AcDbLine
62
7
6
CONTINUOUS
10
0.1157723414
20
-22.2658365350
11
0.1112834265
21
-22.2598081261
0
LINE
5
25D
100
AcDbEntity
8
0
100
AcDbLine
62
9
6
CONTINUOUS
10
-12.7749996185
20
-10.0316005862
11
-12.7749996185
21
-8.1468857678
0
LINE
5
25E
100
AcDbEntity
8
0
100
AcDbLine
62
9
6
CONTINUOUS
10
-11.3750000000
20
-17.1284797590
11
-11.3750000000
21
-15.8290979819
0
LINE
5
25F
100
AcDbEntity
8
0
100
AcDbLine
62
9
6
CONTINUOUS
10
-16.1750000000
20
-12.3341893828
11
-14.8750000000
21
-12.3341893828
0
LINE
5
260
100
AcDbEntity
8
0
100
AcDbLine
62
9
6
CONTINUOUS
10
-6.5750000000
20
-12.3341893828
11
-7.8750000000
21
-12.3341893828
0
LINE
5
261
100
AcDbEntity
8
0
100
AcDbLine
62
9
6
CONTINUOUS
10
-9.9750003815
20
-8.1468862967
11
-9.9750003815
21
-10.0316011154
0
LINE
5
262
100
AcDbEntity
8
0
100
AcDbLine
62
9
6
CONTINUOUS
10
-12.7750000000
20
-8.1468855395
11
-9.9750000000
21
-8.1468855395
0
LINE
5
263
100
AcDbEntity
8
0
100
AcDbLine
62
7
6
CONTINUOUS
10
22.0250000000
20
0.0000000000
11
22.1912156883
21
0.0000000000
0
LINE
5
264
100
AcDbEntity
8
0
100
AcDbLine
62
7
6
CONTINUOUS
10
0.4750000000
20
-22.6218492968
11
0.4750000000
21
-24.2500000000
0
LINE
5
265
100
AcDbEntity
8
0
100
AcDbLine
62
7
6
CONTINUOUS
10
0.4750000000
20
22.6218492968
11
0.4750000000
21
24.2500000000
0
LINE
5
266
100
AcDbEntity
8
0
100
AcDbLine
62
9
6
CONTINUOUS
10
0.7250000003
20
22.4349101299
11
0.7250000000
21
24.5000000000
0
LINE
5
267
100
AcDbEntity
8
0
100
AcDbLine
62
9
6
CONTINUOUS
10
0.7250000016
20
-22.4349101299
11
0.7250000000
21
-24.5000000000
0
LINE
5
268
100
AcDbEntity
8
0
100
AcDbLine
62
9
6
CONTINUOUS
10
2.6249999999
20
-22.4349101299
11
2.6250000000
21
-24.5000000000
0
LINE
5
269
100
AcDbEntity
8
0
100
AcDbLine
62
9
6
CONTINUOUS
10
2.6250000000
20
22.4349101299
11
2.6250000000
21
24.5000000000
0
LINE
5
26A
100
AcDbEntity
8
0
100
AcDbLine
62
7
6
CONTINUOUS
10
2.8750000000
20
-22.6218492968
11
2.8750000000
21
-24.2500000000
0
LINE
5
26B
100
AcDbEntity
8
0
100
AcDbLine
62
7
6
CONTINUOUS
10
2.8750000000
20
22.6218492968
11
2.8750000000
21
24.2500000000
0
LINE
5
26C
100
AcDbEntity
8
0
100
AcDbLine
62
7
6
CONTINUOUS
10
6.7221284682
20
-23.8000000000
11
6.7221284682
21
-22.4349101299
0
LINE
5
26D
100
AcDbEntity
8
0
100
AcDbLine
62
7
6
CONTINUOUS
10
6.7221284682
20
22.4349101299
11
6.7221284682
21
23.8000000000
0
LINE
5
26E
100
AcDbEntity
8
0
100
AcDbLine
62
9
6
CONTINUOUS
10
7.2221284682
20
-23.8000000000
11
7.2221284682
21
-22.4349101299
0
LINE
5
26F
100
AcDbEntity
8
0
100
AcDbLine
62
9
6
CONTINUOUS
10
7.2221284682
20
22.4349101299
11
7.2221284682
21
23.8000000000
0
LINE
5
270
100
AcDbEntity
8
0
100
AcDbLine
62
9
6
CONTINUOUS
10
15.0278715318
20
23.8000000000
11
15.0278715318
21
22.4349101299
0
LINE
5
271
100
AcDbEntity
8
0
100
AcDbLine
62
9
6
CONTINUOUS
10
15.0278715318
20
-22.4349101299
11
15.0278715318
21
-23.8000000000
0
LINE
5
272
100
AcDbEntity
8
0
100
AcDbLine
62
7
6
CONTINUOUS
10
15.5278715318
20
23.8000000000
11
15.5278715318
21
22.4349101299
0
LINE
5
273
100
AcDbEntity
8
0
100
AcDbLine
62
7
6
CONTINUOUS
10
15.5278715318
20
-22.4349101299
11
15.5278715318
21
-23.8000000000
0
LINE
5
274
100
AcDbEntity
8
0
100
AcDbLine
62
7
6
CONTINUOUS
10
19.3750000000
20
-24.2500000000
11
19.3750000000
21
-22.6218492968
0
LINE
5
275
100
AcDbEntity
8
0
100
AcDbLine
62
7
6
CONTINUOUS
10
19.3750000000
20
22.6218492968
11
19.3750000000
21
24.2500000000
0
LINE
5
276
100
AcDbEntity
8
0
100
AcDbLine
62
9
6
CONTINUOUS
10
19.6250000016
20
-22.4349101299
11
19.6250000000
21
-24.5000000000
0
LINE
5
277
100
AcDbEntity
8
0
100
AcDbLine
62
9
6
CONTINUOUS
10
19.6250000001
20
22.4349101299
11
19.6250000000
21
24.5000000000
0
LINE
5
278
100
AcDbEntity
8
0
100
AcDbLine
62
7
6
CONTINUOUS
10
22.0250000000
20
19.9536487485
11
22.2339805974
21
19.9536487485
0
LINE
5
279
100
AcDbEntity
8
0
100
AcDbLine
62
9
6
CONTINUOUS
10
21.2251218439
20
-22.0466479764
11
21.1249557720
21
-21.2478800313
0
LINE
5
27A
100
AcDbEntity
8
0
100
AcDbLine
62
9
6
CONTINUOUS
10
22.0250000000
20
-21.2527319908
11
21.9248339282
21
-20.4539640456
0
LINE
5
27B
100
AcDbEntity
8
0
100
AcDbLine
62
7
6
CONTINUOUS
10
22.1912156883
20
0.0000000000
11
22.2339805974
21
-19.9536487485
0
LINE
5
27C
100
AcDbEntity
8
0
100
AcDbLine
62
9
6
CONTINUOUS
10
21.5249999999
20
-22.4349101299
11
21.5250000000
21
-24.5000000000
0
LINE
5
27D
100
AcDbEntity
8
0
100
AcDbLine
62
9
6
CONTINUOUS
10
21.5249999984
20
22.4349101299
11
21.5250000000
21
24.5000000000
0
LINE
5
27E
100
AcDbEntity
8
0
100
AcDbLine
62
7
6
CONTINUOUS
10
21.7750000000
20
-22.6218492968
11
21.7750000000
21
-24.2500000000
0
LINE
5
27F
100
AcDbEntity
8
0
100
AcDbLine
62
7
6
CONTINUOUS
10
21.7750000000
20
22.6218492968
11
21.7750000000
21
24.2500000000
0
LINE
5
280
100
AcDbEntity
8
0
100
AcDbLine
62
7
6
CONTINUOUS
10
22.0250000000
20
20.5337028647
11
22.0250000000
21
-21.2527319908
0
LINE
5
281
100
AcDbEntity
8
0
100
AcDbLine
62
7
6
CONTINUOUS
10
22.2226348052
20
21.9346816494
11
22.2226348052
21
21.9048099646
0
LINE
5
282
100
AcDbEntity
8
0
100
AcDbLine
62
7
6
CONTINUOUS
10
22.2226348052
20
-21.9346816494
11
22.2226348052
21
-21.9048099646
0
LINE
5
283
100
AcDbEntity
8
0
100
AcDbLine
62
7
6
CONTINUOUS
10
22.2339805974
20
21.8250000000
11
22.2339805974
21
19.9536487485
0
LINE
5
284
100
AcDbEntity
8
0
100
AcDbLine
62
7
6
CONTINUOUS
10
22.2339805974
20
-19.9536487485
11
22.2339805974
21
-21.8250000000
0
LINE
5
285
100
AcDbEntity
8
0
100
AcDbLine
62
7
6
CONTINUOUS
10
22.2750000000
20
-21.8823164546
11
22.2750000000
21
21.8823164546
0
LINE
5
286
100
AcDbEntity
8
0
100
AcDbLine
62
7
6
CONTINUOUS
10
22.2339805974
20
19.9536487485
11
22.1912156883
21
0.0000000000
0
LINE
5
287
100
AcDbEntity
8
0
100
AcDbLine
62
9
6
CONTINUOUS
10
-21.3629786180
20
20.7191485457
11
21.1129786180
21
20.7191485457
0
LINE
5
288
100
AcDbEntity
8
0
100
AcDbLine
62
7
6
CONTINUOUS
10
21.5295126712
20
21.8250000000
11
22.2339805974
21
21.8250000000
0
LINE
5
289
100
AcDbEntity
8
0
100
AcDbLine
62
7
6
CONTINUOUS
10
21.3434017248
20
21.9048099646
11
22.2226348052
21
21.9048099646
0
LINE
5
28A
100
AcDbEntity
8
0
100
AcDbLine
62
7
6
CONTINUOUS
10
-21.3736923662
20
21.9357650541
11
21.1236923662
21
21.9357650541
0
LINE
5
28B
100
AcDbEntity
8
0
100
AcDbLine
62
7
6
CONTINUOUS
10
21.7224063247
20
22.4349101299
11
0.5275936753
21
22.4349101299
0
LINE
5
28C
100
AcDbEntity
8
0
100
AcDbLine
62
9
6
CONTINUOUS
10
2.6250000000
20
22.6297040760
11
0.7250000000
21
22.6297040760
0
LINE
5
28D
100
AcDbEntity
8
0
100
AcDbLine
62
9
6
CONTINUOUS
10
19.6250000000
20
22.6297040760
11
21.5250000000
21
22.6297040760
0
LINE
5
28E
100
AcDbEntity
8
0
100
AcDbLine
62
9
6
CONTINUOUS
10
0.4750000000
20
22.9783121635
11
2.8750000000
21
22.9783121635
0
LINE
5
28F
100
AcDbEntity
8
0
100
AcDbLine
62
9
6
CONTINUOUS
10
19.3750000000
20
22.9783121635
11
21.7750000000
21
22.9783121635
0
LINE
5
290
100
AcDbEntity
8
0
100
AcDbLine
62
9
6
CONTINUOUS
10
0.7250000000
20
23.1948185145
11
2.6250000000
21
23.1948185145
0
LINE
5
291
100
AcDbEntity
8
0
100
AcDbLine
62
9
6
CONTINUOUS
10
19.6250000000
20
23.1948185145
11
21.5250000000
21
23.1948185145
0
LINE
5
292
100
AcDbEntity
8
0
100
AcDbLine
62
9
6
CONTINUOUS
10
21.5250000000
20
23.6278312164
11
19.6250000000
21
23.6278312164
0
LINE
5
293
100
AcDbEntity
8
0
100
AcDbLine
62
9
6
CONTINUOUS
10
2.6250000000
20
23.6278312164
11
0.7250000000
21
23.6278312164
0
LINE
5
294
100
AcDbEntity
8
0
100
AcDbLine
62
7
6
CONTINUOUS
10
6.7221335533
20
23.8000000000
11
15.5278664467
21
23.8000000000
0
LINE
5
295
100
AcDbEntity
8
0
100
AcDbLine
62
9
6
CONTINUOUS
10
0.4750000000
20
23.8443375673
11
2.8750000000
21
23.8443375673
0
LINE
5
296
100
AcDbEntity
8
0
100
AcDbLine
62
9
6
CONTINUOUS
10
19.3750000000
20
23.8443375673
11
21.7750000000
21
23.8443375673
0
LINE
5
297
100
AcDbEntity
8
0
100
AcDbLine
62
9
6
CONTINUOUS
10
0.4750000000
20
24.2500000000
11
2.8750000000
21
24.2500000000
0
LINE
5
298
100
AcDbEntity
8
0
100
AcDbLine
62
9
6
CONTINUOUS
10
19.3750000000
20
24.2500000000
11
21.7750000000
21
24.2500000000
0
LINE
5
299
100
AcDbEntity
8
0
100
AcDbLine
62
7
6
CONTINUOUS
10
0.7250000000
20
24.5000000000
11
2.6250000000
21
24.5000000000
0
LINE
5
29A
100
AcDbEntity
8
0
100
AcDbLine
62
7
6
CONTINUOUS
10
19.6250000000
20
24.5000000000
11
21.5250000000
21
24.5000000000
0
LINE
5
29B
100
AcDbEntity
8
0
100
AcDbLine
62
7
6
CONTINUOUS
10
22.2339805974
20
-21.8250000000
11
22.2226348052
21
-21.9048099646
0
LINE
5
29C
100
AcDbEntity
8
0
100
AcDbLine
62
9
6
CONTINUOUS
10
21.9248339282
20
21.1336319116
11
22.0250000000
21
20.5337028647
0
LINE
5
29D
100
AcDbEntity
8
0
100
AcDbLine
62
7
6
CONTINUOUS
10
21.9139942978
20
21.2639084252
11
22.0142348434
21
20.6635335404
0
LINE
5
29E
100
AcDbEntity
8
0
100
AcDbLine
62
7
6
CONTINUOUS
10
22.2226348052
20
21.9048099646
11
22.2339805974
21
21.8250000000
0
LINE
5
29F
100
AcDbEntity
8
0
100
AcDbLine
62
7
6
CONTINUOUS
10
22.1387165729
20
-22.2598081269
11
22.1371511112
21
-22.2619320384
0
LINE
5
2A0
100
AcDbEntity
8
0
100
AcDbLine
62
7
6
CONTINUOUS
10
22.1555007736
20
-22.2371695245
11
22.1530417615
21
-22.2404797938
0
LINE
5
2A1
100
AcDbEntity
8
0
100
AcDbLine
62
9
6
CONTINUOUS
10
22.2595185694
20
-21.8977978050
11
22.2750000000
21
-21.8823164546
0
LINE
5
2A2
100
AcDbEntity
8
0
100
AcDbLine
62
9
6
CONTINUOUS
10
22.2226348052
20
-21.9346816494
11
22.2283544073
21
-21.9289665558
0
LINE
5
2A3
100
AcDbEntity
8
0
100
AcDbLine
62
9
6
CONTINUOUS
10
22.2226348052
20
21.9346816494
11
22.2283544073
21
21.9289665538
0
LINE
5
2A4
100
AcDbEntity
8
0
100
AcDbLine
62
9
6
CONTINUOUS
10
22.2595185694
20
21.8977978048
11
22.2750000000
21
21.8823164546
0
LINE
5
2A5
100
AcDbEntity
8
0
100
AcDbLine
62
7
6
CONTINUOUS
10
22.1530415330
20
22.2404790742
11
22.1547060688
21
22.2382445809
0
LINE
5
2A6
100
AcDbEntity
8
0
100
AcDbLine
62
7
6
CONTINUOUS
10
22.1342276586
20
22.2658365350
11
22.1387165735
21
22.2598081261
0
LINE
5
2A7
100
AcDbEntity
8
0
100
AcDbLine
62
7
6
CONTINUOUS
10
-46.4401358205
20
-24.5000000000
11
-43.4401358205
21
-24.5000000000
0
LINE
5
2A8
100
AcDbEntity
8
0
100
AcDbLine
62
9
6
CONTINUOUS
10
-43.1901358205
20
-24.2500000000
11
-46.6901358205
21
-24.2500000000
0
LINE
5
2A9
100
AcDbEntity
8
0
100
AcDbLine
62
9
6
CONTINUOUS
10
-43.1901358205
20
-23.8443375673
11
-43.4401358205
21
-23.8443375673
0
LINE
5
2AA
100
AcDbEntity
8
0
100
AcDbLine
62
9
6
CONTINUOUS
10
-46.4401358205
20
-23.8443375673
11
-46.6901358205
21
-23.8443375673
0
LINE
5
2AB
100
AcDbEntity
8
0
100
AcDbLine
62
7
6
CONTINUOUS
10
-36.6901358205
20
-23.8000000000
11
-43.1901358205
21
-23.8000000000
0
LINE
5
2AC
100
AcDbEntity
8
0
100
AcDbLine
62
9
6
CONTINUOUS
10
-45.4434155524
20
-22.4339535759
11
-44.4434459533
21
-22.4147568546
0
LINE
5
2AD
100
AcDbEntity
8
0
100
AcDbLine
62
9
6
CONTINUOUS
10
-44.4401358205
20
-22.6043942318
11
-45.4401358205
21
-22.6218492968
0
LINE
5
2AE
100
AcDbEntity
8
0
100
AcDbLine
62
7
6
CONTINUOUS
10
-46.1901358205
20
-22.4349101299
11
-45.8449746581
21
-22.4288853194
0
LINE
5
2AF
100
AcDbEntity
8
0
100
AcDbLine
62
7
6
CONTINUOUS
10
-44.0596165154
20
-22.3977217771
11
-34.1726834141
21
-22.2251447178
0
LINE
5
2B0
100
AcDbEntity
8
0
100
AcDbLine
62
9
6
CONTINUOUS
10
-46.1901358205
20
-21.9346816494
11
-45.8624600342
21
-21.9289665558
0
LINE
5
2B1
100
AcDbEntity
8
0
100
AcDbLine
62
9
6
CONTINUOUS
10
-44.0770663864
20
-21.8977978050
11
-43.1901358205
21
-21.8823164546
0
LINE
5
2B2
100
AcDbEntity
8
0
100
AcDbLine
62
9
6
CONTINUOUS
10
-44.4401358205
20
-22.9783121635
11
-44.1901358205
21
-22.9783121635
0
LINE
5
2B3
100
AcDbEntity
8
0
100
AcDbLine
62
9
6
CONTINUOUS
10
-45.4401358205
20
-22.9783121635
11
-45.6901358205
21
-22.9783121635
0
LINE
5
2B4
100
AcDbEntity
8
0
100
AcDbLine
62
7
6
CONTINUOUS
10
-50.9249698266
20
-22.0466479764
11
-56.6084990785
21
-21.2478800313
0
LINE
5
2B5
100
AcDbEntity
8
0
100
AcDbLine
62
9
6
CONTINUOUS
10
-50.8274892009
20
-21.2527319908
11
-56.5110184528
21
-20.4539640456
0
LINE
5
2B6
100
AcDbEntity
8
0
100
AcDbLine
62
7
6
CONTINUOUS
10
-45.5401358205
20
-21.8250000000
11
-46.1901358205
21
-21.9048099646
0
LINE
5
2B7
100
AcDbEntity
8
0
100
AcDbLine
62
7
6
CONTINUOUS
10
-43.1901358205
20
-20.9000000000
11
-33.1901358205
21
-20.9000000000
0
LINE
5
2B8
100
AcDbEntity
8
0
100
AcDbLine
62
7
6
CONTINUOUS
10
-43.1901358205
20
-21.4000000000
11
-33.2527012680
21
-21.5734585653
0
LINE
5
2B9
100
AcDbEntity
8
0
100
AcDbLine
62
9
6
CONTINUOUS
10
-57.8975300752
20
-19.6810956594
11
-57.1125662669
21
-19.7227980046
0
LINE
5
2BA
100
AcDbEntity
8
0
100
AcDbLine
62
9
6
CONTINUOUS
10
-44.1901358205
20
23.4113248654
11
-43.4401358205
21
23.8443375673
0
LINE
5
2BB
100
AcDbEntity
8
0
100
AcDbLine
62
7
6
CONTINUOUS
10
-44.0651358205
20
23.1948185145
11
-43.3151358205
21
23.6278312164
0
LINE
5
2BC
100
AcDbEntity
8
0
100
AcDbLine
62
7
6
CONTINUOUS
10
-49.8953715424
20
-18.3239790777
11
-45.7313096260
21
-18.3966630488
0
LINE
5
2BD
100
AcDbEntity
8
0
100
AcDbLine
62
9
6
CONTINUOUS
10
-43.4401358205
20
-23.8443375673
11
-44.1901358205
21
-23.4113248654
0
LINE
5
2BE
100
AcDbEntity
8
0
100
AcDbLine
62
7
6
CONTINUOUS
10
-43.3151358205
20
-23.6278312164
11
-44.0651358205
21
-23.1948185145
0
LINE
5
2BF
100
AcDbEntity
8
0
100
AcDbLine
62
9
6
CONTINUOUS
10
-50.1901358205
20
-17.8240552301
11
-49.8953715424
21
-17.8240552301
0
LINE
5
2C0
100
AcDbEntity
8
0
100
AcDbLine
62
9
6
CONTINUOUS
10
-49.8953715424
20
-17.8240552301
11
-45.7928243953
21
-17.8956654569
0
LINE
5
2C1
100
AcDbEntity
8
0
100
AcDbLine
62
9
6
CONTINUOUS
10
-46.4401358205
20
23.8443375673
11
-46.5651358205
21
23.6278312164
0
LINE
5
2C2
100
AcDbEntity
8
0
100
AcDbLine
62
7
6
CONTINUOUS
10
-43.1901358205
20
14.8602976573
11
-33.1901358205
21
18.5000000000
0
LINE
5
2C3
100
AcDbEntity
8
0
100
AcDbLine
62
9
6
CONTINUOUS
10
-33.1901358205
20
19.0042403804
11
-43.1901358205
21
15.4571337680
0
LINE
5
2C4
100
AcDbEntity
8
0
100
AcDbLine
62
9
6
CONTINUOUS
10
-43.1901358205
20
-15.4571337680
11
-33.1901358205
21
-19.0042403804
0
LINE
5
2C5
100
AcDbEntity
8
0
100
AcDbLine
62
7
6
CONTINUOUS
10
-33.1901358205
20
-18.5000000000
11
-43.1901358205
21
-14.8602976573
0
LINE
5
2C6
100
AcDbEntity
8
0
100
AcDbLine
62
9
6
CONTINUOUS
10
-46.4401358205
20
-23.8443375673
11
-46.5651358205
21
-23.6278312164
0
LINE
5
2C7
100
AcDbEntity
8
0
100
AcDbLine
62
9
6
CONTINUOUS
10
-45.6901358205
20
23.4113248654
11
-45.8151358205
21
23.1948185145
0
LINE
5
2C8
100
AcDbEntity
8
0
100
AcDbLine
62
9
6
CONTINUOUS
10
-45.6901358205
20
-23.4113248654
11
-45.8151358205
21
-23.1948185145
0
LINE
5
2C9
100
AcDbEntity
8
0
100
AcDbLine
62
7
6
CONTINUOUS
10
-50.1901358205
20
-18.0240247691
11
-50.1901358205
21
-16.0619052640
0
LINE
5
2CA
100
AcDbEntity
8
0
100
AcDbLine
62
9
6
CONTINUOUS
10
-49.8953715424
20
-17.8240552301
11
-49.8953715424
21
-13.6612428688
0
LINE
5
2CB
100
AcDbEntity
8
0
100
AcDbLine
62
7
6
CONTINUOUS
10
-45.5992795198
20
21.3276188503
11
-50.9247538055
21
-22.0448886258
0
LINE
5
2CC
100
AcDbEntity
8
0
100
AcDbLine
62
7
6
CONTINUOUS
10
-45.5401358205
20
19.9536487485
11
-47.9901358205
21
0.0000000000
0
LINE
5
2CD
100
AcDbEntity
8
0
100
AcDbLine
62
7
6
CONTINUOUS
10
-47.9901358205
20
0.0000000000
11
-45.5401358205
21
-19.9536487485
0
LINE
5
2CE
100
AcDbEntity
8
0
100
AcDbLine
62
9
6
CONTINUOUS
10
-45.4434155524
20
-22.4339535759
11
-45.4401358205
21
-22.6218492968
0
LINE
5
2CF
100
AcDbEntity
8
0
100
AcDbLine
62
7
6
CONTINUOUS
10
-46.6901358205
20
24.2500000000
11
-46.6901358205
21
23.8443375673
0
LINE
5
2D0
100
AcDbEntity
8
0
100
AcDbLine
62
7
6
CONTINUOUS
10
-46.6901358205
20
-23.8443375673
11
-46.6901358205
21
-24.2500000000
0
LINE
5
2D1
100
AcDbEntity
8
0
100
AcDbLine
62
9
6
CONTINUOUS
10
-46.4401358205
20
24.5000000000
11
-46.4401358205
21
23.8443375673
0
LINE
5
2D2
100
AcDbEntity
8
0
100
AcDbLine
62
9
6
CONTINUOUS
10
-46.4401358205
20
-23.8443375673
11
-46.4401358205
21
-24.5000000000
0
LINE
5
2D3
100
AcDbEntity
8
0
100
AcDbLine
62
7
6
CONTINUOUS
10
-46.1901358205
20
-22.4349101299
11
-46.1901358205
21
-21.9048099646
0
LINE
5
2D4
100
AcDbEntity
8
0
100
AcDbLine
62
7
6
CONTINUOUS
10
-46.1901358205
20
21.9048099646
11
-46.1901358205
21
22.4349101299
0
LINE
5
2D5
100
AcDbEntity
8
0
100
AcDbLine
62
7
6
CONTINUOUS
10
-45.6901358205
20
22.9783121635
11
-45.6901358205
21
22.6297040760
0
LINE
5
2D6
100
AcDbEntity
8
0
100
AcDbLine
62
7
6
CONTINUOUS
10
-45.6901358205
20
-22.6297040760
11
-45.6901358205
21
-22.9783121635
0
LINE
5
2D7
100
AcDbEntity
8
0
100
AcDbLine
62
7
6
CONTINUOUS
10
-45.5401358205
20
21.8250000000
11
-45.5401358205
21
19.9536487485
0
LINE
5
2D8
100
AcDbEntity
8
0
100
AcDbLine
62
7
6
CONTINUOUS
10
-45.5401358205
20
-19.9536487485
11
-45.5401358205
21
-21.8250000000
0
LINE
5
2D9
100
AcDbEntity
8
0
100
AcDbLine
62
9
6
CONTINUOUS
10
-45.4401358205
20
22.9783121635
11
-45.4401358205
21
22.6218492968
0
LINE
5
2DA
100
AcDbEntity
8
0
100
AcDbLine
62
9
6
CONTINUOUS
10
-45.4401358205
20
-22.6218492968
11
-45.4401358205
21
-22.9783121635
0
LINE
5
2DB
100
AcDbEntity
8
0
100
AcDbLine
62
9
6
CONTINUOUS
10
-45.4434155525
20
22.4339535759
11
-45.4401358205
21
22.6218492968
0
LINE
5
2DC
100
AcDbEntity
8
0
100
AcDbLine
62
9
6
CONTINUOUS
10
-44.4434459533
20
-22.4147568546
11
-44.4401358205
21
-22.6043942318
0
LINE
5
2DD
100
AcDbEntity
8
0
100
AcDbLine
62
9
6
CONTINUOUS
10
-44.4401358205
20
-22.9783121635
11
-44.4401358205
21
-22.6043942318
0
LINE
5
2DE
100
AcDbEntity
8
0
100
AcDbLine
62
9
6
CONTINUOUS
10
-44.4401358205
20
22.6043942318
11
-44.4401358205
21
22.9783121635
0
LINE
5
2DF
100
AcDbEntity
8
0
100
AcDbLine
62
7
6
CONTINUOUS
10
-44.1901358205
20
-22.9783121635
11
-44.1901358205
21
-22.5965394526
0
LINE
5
2E0
100
AcDbEntity
8
0
100
AcDbLine
62
7
6
CONTINUOUS
10
-44.1901358205
20
22.5965394526
11
-44.1901358205
21
22.9783121635
0
LINE
5
2E1
100
AcDbEntity
8
0
100
AcDbLine
62
9
6
CONTINUOUS
10
-44.4434459534
20
22.4147568546
11
-44.4401358205
21
22.6043942318
0
LINE
5
2E2
100
AcDbEntity
8
0
100
AcDbLine
62
9
6
CONTINUOUS
10
-43.4401358205
20
24.5000000000
11
-43.4401358205
21
23.8443375673
0
LINE
5
2E3
100
AcDbEntity
8
0
100
AcDbLine
62
9
6
CONTINUOUS
10
-43.4401358205
20
-23.8443375673
11
-43.4401358205
21
-24.5000000000
0
LINE
5
2E4
100
AcDbEntity
8
0
100
AcDbLine
62
7
6
CONTINUOUS
10
-43.1901358205
20
24.2500000000
11
-43.1901358205
21
23.8443375673
0
LINE
5
2E5
100
AcDbEntity
8
0
100
AcDbLine
62
7
6
CONTINUOUS
10
-43.1901358205
20
-23.8443375673
11
-43.1901358205
21
-24.2500000000
0
LINE
5
2E6
100
AcDbEntity
8
0
100
AcDbLine
62
7
6
CONTINUOUS
10
-43.1901358205
20
-22.3825449351
11
-43.1901358205
21
22.3825449351
0
LINE
5
2E7
100
AcDbEntity
8
0
100
AcDbLine
62
7
6
CONTINUOUS
10
-42.9901358205
20
14.8286130000
11
-42.9901358205
21
12.7231690000
0
LINE
5
2E8
100
AcDbEntity
8
0
100
AcDbLine
62
7
6
CONTINUOUS
10
-42.9901358205
20
12.3898310000
11
-42.9901358205
21
11.8898130000
0
LINE
5
2E9
100
AcDbEntity
8
0
100
AcDbLine
62
7
6
CONTINUOUS
10
-42.9901358205
20
11.3898060000
11
-42.9901358205
21
8.9442810000
0
LINE
5
2EA
100
AcDbEntity
8
0
100
AcDbLine
62
7
6
CONTINUOUS
10
-42.9901358205
20
8.6109370000
11
-42.9901358205
21
6.5054940000
0
LINE
5
2EB
100
AcDbEntity
8
0
100
AcDbLine
62
7
6
CONTINUOUS
10
-42.9901358205
20
6.1721500000
11
-42.9901358205
21
4.1713870000
0
LINE
5
2EC
100
AcDbEntity
8
0
100
AcDbLine
62
7
6
CONTINUOUS
10
-43.1901358205
20
4.1713870000
11
-42.9901358205
21
4.1713870000
0
LINE
5
2ED
100
AcDbEntity
8
0
100
AcDbLine
62
7
6
CONTINUOUS
10
-43.1901358205
20
4.7345810000
11
-42.9901358205
21
4.7345810000
0
LINE
5
2EE
100
AcDbEntity
8
0
100
AcDbLine
62
7
6
CONTINUOUS
10
-43.1901358205
20
5.2356620000
11
-42.9901358205
21
5.2356620000
0
LINE
5
2EF
100
AcDbEntity
8
0
100
AcDbLine
62
7
6
CONTINUOUS
10
-43.1901358205
20
5.6721250000
11
-42.9901358205
21
5.6721250000
0
LINE
5
2F0
100
AcDbEntity
8
0
100
AcDbLine
62
7
6
CONTINUOUS
10
-43.1901358205
20
6.1721500000
11
-42.9901358205
21
6.1721500000
0
LINE
5
2F1
100
AcDbEntity
8
0
100
AcDbLine
62
7
6
CONTINUOUS
10
-43.1901358205
20
6.5054940000
11
-42.9901358205
21
6.5054940000
0
LINE
5
2F2
100
AcDbEntity
8
0
100
AcDbLine
62
7
6
CONTINUOUS
10
-43.1901358205
20
7.0055190000
11
-42.9901358205
21
7.0055190000
0
LINE
5
2F3
100
AcDbEntity
8
0
100
AcDbLine
62
7
6
CONTINUOUS
10
-43.1901358205
20
7.1633690000
11
-42.9901358205
21
7.1633690000
0
LINE
5
2F4
100
AcDbEntity
8
0
100
AcDbLine
62
7
6
CONTINUOUS
10
-36.1901358205
20
23.3000000000
11
-36.1901358205
21
22.2603594806
0
LINE
5
2F5
100
AcDbEntity
8
0
100
AcDbLine
62
7
6
CONTINUOUS
10
-36.1901358205
20
-22.2603594806
11
-36.1901358205
21
-23.3000000000
0
LINE
5
2F6
100
AcDbEntity
8
0
100
AcDbLine
62
7
6
CONTINUOUS
10
-43.1901358205
20
7.9530620000
11
-42.9901358205
21
7.9530620000
0
LINE
5
2F7
100
AcDbEntity
8
0
100
AcDbLine
62
7
6
CONTINUOUS
10
-43.1901358205
20
8.1109190000
11
-42.9901358205
21
8.1109190000
0
LINE
5
2F8
100
AcDbEntity
8
0
100
AcDbLine
62
7
6
CONTINUOUS
10
-43.1901358205
20
8.6109370000
11
-42.9901358205
21
8.6109370000
0
LINE
5
2F9
100
AcDbEntity
8
0
100
AcDbLine
62
7
6
CONTINUOUS
10
-43.1901358205
20
8.9442810000
11
-42.9901358205
21
8.9442810000
0
LINE
5
2FA
100
AcDbEntity
8
0
100
AcDbLine
62
7
6
CONTINUOUS
10
-43.1901358205
20
9.4443000000
11
-42.9901358205
21
9.4443000000
0
LINE
5
2FB
100
AcDbEntity
8
0
100
AcDbLine
62
7
6
CONTINUOUS
10
-43.1901358205
20
9.9170440000
11
-42.9901358205
21
9.9170440000
0
LINE
5
2FC
100
AcDbEntity
8
0
100
AcDbLine
62
7
6
CONTINUOUS
10
-43.1901358205
20
10.4170500000
11
-42.9901358205
21
10.4170500000
0
LINE
5
2FD
100
AcDbEntity
8
0
100
AcDbLine
62
7
6
CONTINUOUS
10
-43.1901358205
20
10.8897880000
11
-42.9901358205
21
10.8897880000
0
LINE
5
2FE
100
AcDbEntity
8
0
100
AcDbLine
62
7
6
CONTINUOUS
10
-33.1901358205
20
21.2252970227
11
-33.1901358205
21
18.5002938467
0
LINE
5
2FF
100
AcDbEntity
8
0
100
AcDbLine
62
7
6
CONTINUOUS
10
-33.1901358205
20
-18.5002938467
11
-33.1901358205
21
-21.2252970227
0
LINE
5
300
100
AcDbEntity
8
0
100
AcDbLine
62
9
6
CONTINUOUS
10
-44.1901358205
20
-23.4113248654
11
-44.0651358205
21
-23.1948185145
0
LINE
5
301
100
AcDbEntity
8
0
100
AcDbLine
62
7
6
CONTINUOUS
10
-43.1901358205
20
11.3898060000
11
-42.9901358205
21
11.3898060000
0
LINE
5
302
100
AcDbEntity
8
0
100
AcDbLine
62
7
6
CONTINUOUS
10
-43.1901358205
20
11.8898130000
11
-42.9901358205
21
11.8898130000
0
LINE
5
303
100
AcDbEntity
8
0
100
AcDbLine
62
7
6
CONTINUOUS
10
-43.1901358205
20
12.3898310000
11
-42.9901358205
21
12.3898310000
0
LINE
5
304
100
AcDbEntity
8
0
100
AcDbLine
62
7
6
CONTINUOUS
10
-43.1901358205
20
12.7231690000
11
-42.9901358205
21
12.7231690000
0
LINE
5
305
100
AcDbEntity
8
0
100
AcDbLine
62
9
6
CONTINUOUS
10
-44.1901358205
20
23.4113248654
11
-44.0651358205
21
23.1948185145
0
LINE
5
306
100
AcDbEntity
8
0
100
AcDbLine
62
9
6
CONTINUOUS
10
-43.4401358205
20
-23.8443375673
11
-43.3151358205
21
-23.6278312164
0
LINE
5
307
100
AcDbEntity
8
0
100
AcDbLine
62
7
6
CONTINUOUS
10
-43.1901358205
20
13.5258750000
11
-42.9901358205
21
13.5258750000
0
LINE
5
308
100
AcDbEntity
8
0
100
AcDbLine
62
7
6
CONTINUOUS
10
-43.1901358205
20
14.0259130000
11
-42.9901358205
21
14.0259130000
0
LINE
5
309
100
AcDbEntity
8
0
100
AcDbLine
62
7
6
CONTINUOUS
10
-43.1901358205
20
14.8286130000
11
-42.9901358205
21
14.8286130000
0
LINE
5
30A
100
AcDbEntity
8
0
100
AcDbLine
62
9
6
CONTINUOUS
10
-43.4401358205
20
23.8443375673
11
-43.3151358205
21
23.6278312164
0
LINE
5
30B
100
AcDbEntity
8
0
100
AcDbLine
62
9
6
CONTINUOUS
10
-46.0211597815
20
17.8916798480
11
-45.7928243953
21
17.8956654569
0
LINE
5
30C
100
AcDbEntity
8
0
100
AcDbLine
62
7
6
CONTINUOUS
10
-45.9596450121
20
18.3926774398
11
-45.7313096260
21
18.3966630488
0
LINE
5
30D
100
AcDbEntity
8
0
100
AcDbLine
62
7
6
CONTINUOUS
10
-45.8151358205
20
-23.1948185145
11
-46.5651358205
21
-23.6278312164
0
LINE
5
30E
100
AcDbEntity
8
0
100
AcDbLine
62
9
6
CONTINUOUS
10
-45.6901358205
20
-23.4113248654
11
-46.4401358205
21
-23.8443375673
0
LINE
5
30F
100
AcDbEntity
8
0
100
AcDbLine
62
9
6
CONTINUOUS
10
-52.9369834633
20
20.7191446146
11
-52.1652680920
21
20.5697122142
0
LINE
5
310
100
AcDbEntity
8
0
100
AcDbLine
62
7
6
CONTINUOUS
10
-46.5651358205
20
23.6278312164
11
-45.8151358205
21
23.1948185145
0
LINE
5
311
100
AcDbEntity
8
0
100
AcDbLine
62
9
6
CONTINUOUS
10
-46.4401358205
20
23.8443375673
11
-45.6901358205
21
23.4113248654
0
LINE
5
312
100
AcDbEntity
8
0
100
AcDbLine
62
7
6
CONTINUOUS
10
-43.1901358205
20
21.4000000000
11
-33.2527012680
21
21.5734585653
0
LINE
5
313
100
AcDbEntity
8
0
100
AcDbLine
62
7
6
CONTINUOUS
10
-43.1901358205
20
20.9000000000
11
-33.1901358205
21
20.9000000000
0
LINE
5
314
100
AcDbEntity
8
0
100
AcDbLine
62
9
6
CONTINUOUS
10
-44.0770663863
20
21.8977978048
11
-43.1901358205
21
21.8823164546
0
LINE
5
315
100
AcDbEntity
8
0
100
AcDbLine
62
9
6
CONTINUOUS
10
-46.1901358205
20
21.9346816494
11
-45.8624600388
21
21.9289665538
0
LINE
5
316
100
AcDbEntity
8
0
100
AcDbLine
62
9
6
CONTINUOUS
10
-51.4047037442
20
21.1336319116
11
-45.6967601455
21
20.5337028647
0
LINE
5
317
100
AcDbEntity
8
0
100
AcDbLine
62
7
6
CONTINUOUS
10
-51.3072231185
20
21.9275478972
11
-45.5992795198
21
21.3276188503
0
LINE
5
318
100
AcDbEntity
8
0
100
AcDbLine
62
7
6
CONTINUOUS
10
-46.1901358205
20
21.9048099646
11
-45.5401358205
21
21.8250000000
0
LINE
5
319
100
AcDbEntity
8
0
100
AcDbLine
62
9
6
CONTINUOUS
10
-44.4401358205
20
22.9783121635
11
-44.1901358205
21
22.9783121635
0
LINE
5
31A
100
AcDbEntity
8
0
100
AcDbLine
62
9
6
CONTINUOUS
10
-45.4401358205
20
22.9783121635
11
-45.6901358205
21
22.9783121635
0
LINE
5
31B
100
AcDbEntity
8
0
100
AcDbLine
62
7
6
CONTINUOUS
10
-43.1901358205
20
23.8000000000
11
-36.6901358205
21
23.8000000000
0
LINE
5
31C
100
AcDbEntity
8
0
100
AcDbLine
62
9
6
CONTINUOUS
10
-43.1901358205
20
23.8443375673
11
-43.4401358205
21
23.8443375673
0
LINE
5
31D
100
AcDbEntity
8
0
100
AcDbLine
62
9
6
CONTINUOUS
10
-46.4401358205
20
23.8443375673
11
-46.6901358205
21
23.8443375673
0
LINE
5
31E
100
AcDbEntity
8
0
100
AcDbLine
62
7
6
CONTINUOUS
10
-46.1901358205
20
22.4349101299
11
-45.8449749045
21
22.4288853237
0
LINE
5
31F
100
AcDbEntity
8
0
100
AcDbLine
62
7
6
CONTINUOUS
10
-44.0596146922
20
22.3977217452
11
-34.1726834141
21
22.2251447178
0
LINE
5
320
100
AcDbEntity
8
0
100
AcDbLine
62
9
6
CONTINUOUS
10
-45.4401358205
20
22.6218492968
11
-44.4401358205
21
22.6043942318
0
LINE
5
321
100
AcDbEntity
8
0
100
AcDbLine
62
9
6
CONTINUOUS
10
-45.4434155525
20
22.4339535759
11
-44.4434459534
21
22.4147568546
0
LINE
5
322
100
AcDbEntity
8
0
100
AcDbLine
62
9
6
CONTINUOUS
10
-43.1901358205
20
24.2500000000
11
-46.6901358205
21
24.2500000000
0
LINE
5
323
100
AcDbEntity
8
0
100
AcDbLine
62
7
6
CONTINUOUS
10
-46.4401358205
20
24.5000000000
11
-43.4401358205
21
24.5000000000
0
ARC
5
324
100
AcDbEntity
8
0
100
AcDbCircle
62
7
6
CONTINUOUS
10
0.7250000000
20
24.2500000000
40
0.2500000000
100
AcDbArc
50
90.0000000000
51
180.0000000000
0
ARC
5
325
100
AcDbEntity
8
0
100
AcDbCircle
62
7
6
CONTINUOUS
10
2.6250000000
20
24.2500000000
40
0.2500000000
100
AcDbArc
50
0.0000000000
51
90.0000000000
0
ARC
5
326
100
AcDbEntity
8
0
100
AcDbCircle
62
7
6
CONTINUOUS
10
21.5250000000
20
24.2500000000
40
0.2500000000
100
AcDbArc
50
0.0000000000
51
90.0000000000
0
ARC
5
327
100
AcDbEntity
8
0
100
AcDbCircle
62
7
6
CONTINUOUS
10
19.6250000000
20
24.2500000000
40
0.2500000000
100
AcDbArc
50
90.0000000000
51
180.0000000000
0
ARC
5
328
100
AcDbEntity
8
0
100
AcDbCircle
62
7
6
CONTINUOUS
10
2.6250000000
20
-24.2500000000
40
0.2500000000
100
AcDbArc
50
270.0000000000
51
360.0000000000
0
ARC
5
329
100
AcDbEntity
8
0
100
AcDbCircle
62
7
6
CONTINUOUS
10
0.7250000000
20
-24.2500000000
40
0.2500000000
100
AcDbArc
50
180.0000000000
51
270.0000000000
0
ARC
5
32A
100
AcDbEntity
8
0
100
AcDbCircle
62
7
6
CONTINUOUS
10
19.6250000000
20
-24.2500000000
40
0.2500000000
100
AcDbArc
50
180.0000000000
51
270.0000000000
0
ARC
5
32B
100
AcDbEntity
8
0
100
AcDbCircle
62
7
6
CONTINUOUS
10
21.5250000000
20
-24.2500000000
40
0.2500000000
100
AcDbArc
50
270.0000000000
51
360.0000000000
0
ARC
5
32C
100
AcDbEntity
8
0
100
AcDbCircle
62
7
6
CONTINUOUS
10
-51.4640158134
20
20.4357650541
40
1.5000000000
100
AcDbArc
50
84.0000000000
51
169.1101008379
0
ARC
5
32D
100
AcDbEntity
8
0
100
AcDbCircle
62
7
6
CONTINUOUS
10
241.6606062213
20
-35.9575497717
40
300.0000000000
100
AcDbArc
50
169.1101008379
51
176.8898991621
0
ARC
5
32E
100
AcDbEntity
8
0
100
AcDbCircle
62
7
6
CONTINUOUS
10
-56.3997394270
20
-19.7624779282
40
1.5000000000
100
AcDbArc
50
176.8898991621
51
262.0000000000
0
ARC
5
32F
100
AcDbEntity
8
0
100
AcDbCircle
62
7
6
CONTINUOUS
10
-49.8901358205
20
-18.0240247691
40
0.3000000000
100
AcDbArc
50
180.0000000000
51
269.0000000000
0
ARC
5
330
100
AcDbEntity
8
0
100
AcDbCircle
62
7
6
CONTINUOUS
10
-45.9401358205
20
22.9783121635
40
0.2500000000
100
AcDbArc
50
0.0000000000
51
60.0000000000
0
ARC
5
331
100
AcDbEntity
8
0
100
AcDbCircle
62
7
6
CONTINUOUS
10
-46.4401358205
20
23.8443375673
40
0.2500000000
100
AcDbArc
50
180.0000000000
51
240.0000000000
0
ARC
5
332
100
AcDbEntity
8
0
100
AcDbCircle
62
7
6
CONTINUOUS
10
-43.4401358205
20
23.8443375673
40
0.2500000000
100
AcDbArc
50
300.0000000000
51
360.0000000000
0
ARC
5
333
100
AcDbEntity
8
0
100
AcDbCircle
62
7
6
CONTINUOUS
10
-43.9401358205
20
22.9783121635
40
0.2500000000
100
AcDbArc
50
120.0000000000
51
180.0000000000
0
ARC
5
334
100
AcDbEntity
8
0
100
AcDbCircle
62
7
6
CONTINUOUS
10
-36.6901358205
20
23.3000000000
40
0.5000000000
100
AcDbArc
50
0.0000000000
51
90.0000000000
0
ARC
5
335
100
AcDbEntity
8
0
100
AcDbCircle
62
7
6
CONTINUOUS
10
-36.6901358205
20
-23.3000000000
40
0.5000000000
100
AcDbArc
50
270.0000000000
51
360.0000000000
0
ARC
5
336
100
AcDbEntity
8
0
100
AcDbCircle
62
7
6
CONTINUOUS
10
-34.1901358205
20
-21.2252970227
40
1.0000000000
100
AcDbArc
50
271.0000000000
51
360.0000000000
0
ARC
5
337
100
AcDbEntity
8
0
100
AcDbCircle
62
7
6
CONTINUOUS
10
-34.1901358205
20
21.2252970227
40
1.0000000000
100
AcDbArc
50
0.0000000000
51
89.0000000000
0
ARC
5
338
100
AcDbEntity
8
0
100
AcDbCircle
62
7
6
CONTINUOUS
10
-46.4401358205
20
24.2500000000
40
0.2500000000
100
AcDbArc
50
90.0000000000
51
180.0000000000
0
ARC
5
339
100
AcDbEntity
8
0
100
AcDbCircle
62
7
6
CONTINUOUS
10
-43.4401358205
20
24.2500000000
40
0.2500000000
100
AcDbArc
50
0.0000000000
51
90.0000000000
0
ARC
5
33A
100
AcDbEntity
8
0
100
AcDbCircle
62
7
6
CONTINUOUS
10
-45.9401358205
20
-22.9783121635
40
0.2500000000
100
AcDbArc
50
300.0000000000
51
360.0000000000
0
ARC
5
33B
100
AcDbEntity
8
0
100
AcDbCircle
62
7
6
CONTINUOUS
10
-46.4401358205
20
-24.2500000000
40
0.2500000000
100
AcDbArc
50
180.0000000000
51
270.0000000000
0
ARC
5
33C
100
AcDbEntity
8
0
100
AcDbCircle
62
7
6
CONTINUOUS
10
-46.4401358205
20
-23.8443375673
40
0.2500000000
100
AcDbArc
50
120.0000000000
51
180.0000000000
0
ARC
5
33D
100
AcDbEntity
8
0
100
AcDbCircle
62
7
6
CONTINUOUS
10
-43.9901386161
20
22.5965395014
40
0.1999987575
100
AcDbArc
50
180.0000139794
51
269.0000000000
0
ARC
5
33E
100
AcDbEntity
8
0
100
AcDbCircle
62
7
6
CONTINUOUS
10
-43.4401358205
20
-24.2500000000
40
0.2500000000
100
AcDbArc
50
270.0000000000
51
360.0000000000
0
ARC
5
33F
100
AcDbEntity
8
0
100
AcDbCircle
62
7
6
CONTINUOUS
10
-43.9401358205
20
-22.9783121635
40
0.2500000000
100
AcDbArc
50
180.0000000000
51
240.0000000000
0
ARC
5
340
100
AcDbEntity
8
0
100
AcDbCircle
62
7
6
CONTINUOUS
10
-45.8901358205
20
22.6297040760
40
0.2000000000
100
AcDbArc
50
268.9991990114
51
360.0000000000
0
ARC
5
341
100
AcDbEntity
8
0
100
AcDbCircle
62
7
6
CONTINUOUS
10
-43.4401358205
20
-23.8443375673
40
0.2500000000
100
AcDbArc
50
0.0000000000
51
60.0000000000
0
ARC
5
342
100
AcDbEntity
8
0
100
AcDbCircle
62
7
6
CONTINUOUS
10
-43.9901358205
20
-22.5965394526
40
0.2000000000
100
AcDbArc
50
90.9991990117
51
180.0000000000
0
ARC
5
343
100
AcDbEntity
8
0
100
AcDbCircle
62
7
6
CONTINUOUS
10
-45.8901330250
20
-22.6297040272
40
0.1999987575
100
AcDbArc
50
359.9999860206
51
91.0000000000
0
ARC
5
344
100
AcDbEntity
8
0
100
AcDbCircle
62
9
6
CONTINUOUS
10
-43.9401358205
20
22.9783121635
40
0.5000000000
100
AcDbArc
50
120.0000000000
51
180.0000000000
0
ARC
5
345
100
AcDbEntity
8
0
100
AcDbCircle
62
9
6
CONTINUOUS
10
-45.9401358205
20
22.9783121635
40
0.5000000000
100
AcDbArc
50
0.0000000000
51
60.0000000000
0
ARC
5
346
100
AcDbEntity
8
0
100
AcDbCircle
62
9
6
CONTINUOUS
10
-45.9401358205
20
-22.9783121635
40
0.5000000000
100
AcDbArc
50
300.0000000000
51
360.0000000000
0
ARC
5
347
100
AcDbEntity
8
0
100
AcDbCircle
62
9
6
CONTINUOUS
10
-43.9401358205
20
-22.9783121635
40
0.5000000000
100
AcDbArc
50
180.0000000000
51
240.0000000000
0
SPLINE
5
348
100
AcDbEntity
8
0
100
AcDbSpline
62
7
6
CONTINUOUS
70
0
71
3
72
8
73
4
74
2
42
0.0000001000
43
0.0000001000
44
0.0000000001
12
-0.0075525187
22
-0.0102005123
32
0.0000000000
13
-0.0072930618
23
-0.0103878724
33
0.0000000000
40
0.0000000000
40
0.0000000000
40
0.0000000000
40
0.0000000000
40
1.0000000000
40
1.0000000000
40
1.0000000000
40
1.0000000000
10
0.0952721884
20
22.2382062416
30
0.0000000000
10
0.0927546821
20
22.2348060708
30
0.0000000000
10
0.0902799211
20
22.2313739464
30
0.0000000000
10
0.0878489005
20
22.2279113223
30
0.0000000000
11
0.0952721884
21
22.2382062416
31
0.0000000000
11
0.0878489005
21
22.2279113223
31
0.0000000000
0
SPLINE
5
349
100
AcDbEntity
8
0
100
AcDbSpline
62
7
6
CONTINUOUS
70
0
71
3
72
8
73
4
74
2
42
0.0000001000
43
0.0000001000
44
0.0000000001
12
-0.0149909238
22
-0.0213523220
32
0.0000000000
13
-0.0138561463
23
-0.0220876286
33
0.0000000000
40
0.0000000000
40
0.0000000000
40
0.0000000000
40
0.0000000000
40
1.0000000000
40
1.0000000000
40
1.0000000000
40
1.0000000000
10
0.0878489005
20
22.2279113223
30
0.0000000000
10
0.0828519259
20
22.2207938816
30
0.0000000000
10
0.0780397591
20
22.2135475765
30
0.0000000000
10
0.0734210436
20
22.2061850336
30
0.0000000000
11
0.0878489005
21
22.2279113223
31
0.0000000000
11
0.0734210436
21
22.2061850336
31
0.0000000000
0
SPLINE
5
34A
100
AcDbEntity
8
0
100
AcDbSpline
62
7
6
CONTINUOUS
70
0
71
3
72
8
73
4
74
2
42
0.0000001000
43
0.0000001000
44
0.0000000001
12
-0.0135898004
22
-0.0216630554
32
0.0000000000
13
-0.0124614911
23
-0.0223180622
33
0.0000000000
40
0.0000000000
40
0.0000000000
40
0.0000000000
40
0.0000000000
40
1.0000000000
40
1.0000000000
40
1.0000000000
40
1.0000000000
10
0.0734210436
20
22.2061850336
30
0.0000000000
10
0.0688911102
20
22.1989640151
30
0.0000000000
10
0.0645472624
20
22.1916311847
30
0.0000000000
10
0.0603934321
20
22.1841918306
30
0.0000000000
11
0.0734210436
21
22.2061850336
31
0.0000000000
11
0.0603934321
21
22.1841918306
31
0.0000000000
0
SPLINE
5
34B
100
AcDbEntity
8
0
100
AcDbSpline
62
7
6
CONTINUOUS
70
0
71
3
72
8
73
4
74
2
42
0.0000001000
43
0.0000001000
44
0.0000000001
12
-0.0237533673
22
-0.0425413882
32
0.0000000000
13
-0.0195292505
23
-0.0447537508
33
0.0000000000
40
0.0000000000
40
0.0000000000
40
0.0000000000
40
0.0000000000
40
1.0000000000
40
1.0000000000
40
1.0000000000
40
1.0000000000
10
0.0603934321
20
22.1841918306
30
0.0000000000
10
0.0524756430
20
22.1700113678
30
0.0000000000
10
0.0452482585
20
22.1554438649
30
0.0000000000
10
0.0387385084
20
22.1405259479
30
0.0000000000
11
0.0603934321
21
22.1841918306
31
0.0000000000
11
0.0387385084
21
22.1405259479
31
0.0000000000
0
SPLINE
5
34C
100
AcDbEntity
8
0
100
AcDbSpline
62
7
6
CONTINUOUS
70
0
71
3
72
8
73
4
74
2
42
0.0000001000
43
0.0000001000
44
0.0000000001
12
-0.0178097960
22
-0.0408134029
32
0.0000000000
13
-0.0141442214
23
-0.0420948729
33
0.0000000000
40
0.0000000000
40
0.0000000000
40
0.0000000000
40
0.0000000000
40
1.0000000000
40
1.0000000000
40
1.0000000000
40
1.0000000000
10
0.0387385084
20
22.1405259479
30
0.0000000000
10
0.0328019097
20
22.1269214803
30
0.0000000000
10
0.0274621400
20
22.1130255867
30
0.0000000000
10
0.0227473996
20
22.0989939624
30
0.0000000000
11
0.0387385084
21
22.1405259479
31
0.0000000000
11
0.0227473996
21
22.0989939624
31
0.0000000000
0
SPLINE
5
34D
100
AcDbEntity
8
0
100
AcDbSpline
62
7
6
CONTINUOUS
70
0
71
3
72
13
73
9
74
7
42
0.0000001000
43
0.0000001000
44
0.0000000001
12
-0.0424090834
22
-0.1262144390
32
0.0000000000
13
0.0045030030
23
0.0205588229
33
0.0000000000
40
0.0000000000
40
0.0000000000
40
0.0000000000
40
0.0000000000
40
0.1531555803
40
0.5480987348
40
0.8174512661
40
0.9543910381
40
0.9852169775
40
1.0000000000
40
1.0000000000
40
1.0000000000
40
1.0000000000
10
0.0227473996
20
22.0989939624
30
0.0000000000
10
0.0205823370
20
22.0925504806
30
0.0000000000
10
0.0133058998
20
22.0693887252
30
0.0000000000
10
0.0050233239
20
22.0345858447
30
0.0000000000
10
-0.0004771783
20
21.9976598313
30
0.0000000000
10
-0.0022690770
20
21.9809321232
30
0.0000000000
10
-0.0034076089
20
21.9706159737
30
0.0000000000
10
-0.0034144914
20
21.9703171879
30
0.0000000000
10
-0.0033923020
20
21.9704184951
30
0.0000000000
11
0.0227473996
21
22.0989939624
31
0.0000000000
11
0.0166503519
21
22.0795927270
31
0.0000000000
11
0.0045179636
21
22.0284143276
31
0.0000000000
11
-0.0008923334
21
21.9929534896
31
0.0000000000
11
-0.0029430018
21
21.9748321109
31
0.0000000000
11
-0.0033808686
21
21.9707502655
31
0.0000000000
11
-0.0033923020
21
21.9704184951
31
0.0000000000
0
SPLINE
5
34E
100
AcDbEntity
8
0
100
AcDbSpline
62
7
6
CONTINUOUS
70
0
71
3
72
10
73
6
74
4
42
0.0000001000
43
0.0000001000
44
0.0000000001
12
-0.0130356303
22
-0.0177691805
32
0.0000000000
13
-0.0132060348
23
-0.0176429051
33
0.0000000000
40
0.0000000000
40
0.0000000000
40
0.0000000000
40
0.0000000000
40
0.2868072671
40
0.7153802109
40
1.0000000000
40
1.0000000000
40
1.0000000000
40
1.0000000000
10
0.1107407731
20
22.2590681149
30
0.0000000000
10
0.1094945352
20
22.2573693382
30
0.0000000000
10
0.1063802583
20
22.2531363525
30
0.0000000000
10
0.1020066646
20
22.2472342002
30
0.0000000000
10
0.0988729742
20
22.2430356011
30
0.0000000000
10
0.0976200745
20
22.2413617611
30
0.0000000000
11
0.1107407731
21
22.2590681149
31
0.0000000000
11
0.1069950777
21
22.2539769164
31
0.0000000000
11
0.1013718449
21
22.2463884570
31
0.0000000000
11
0.0976200745
21
22.2413617611
31
0.0000000000
0
SPLINE
5
34F
100
AcDbEntity
8
0
100
AcDbSpline
62
7
6
CONTINUOUS
70
0
71
3
72
8
73
4
74
2
42
0.0000001000
43
0.0000001000
44
0.0000000001
12
0.0201707119
22
0.0267771963
32
0.0000000000
13
0.0219234263
23
0.0253693425
33
0.0000000000
40
0.0000000000
40
0.0000000000
40
0.0000000000
40
0.0000000000
40
1.0000000000
40
1.0000000000
40
1.0000000000
40
1.0000000000
10
0.1151425547
20
22.2650001165
30
0.0000000000
10
0.1218661254
20
22.2739258486
30
0.0000000000
10
0.1288899909
20
22.2826260299
30
0.0000000000
10
0.1361977997
20
22.2910824774
30
0.0000000000
11
0.1151425547
21
22.2650001165
31
0.0000000000
11
0.1361977997
21
22.2910824774
31
0.0000000000
0
SPLINE
5
350
100
AcDbEntity
8
0
100
AcDbSpline
62
7
6
CONTINUOUS
70
0
71
3
72
8
73
4
74
2
42
0.0000001000
43
0.0000001000
44
0.0000000001
12
0.0332672053
22
0.0384961325
32
0.0000000000
13
0.0370186268
23
0.0349382303
33
0.0000000000
40
0.0000000000
40
0.0000000000
40
0.0000000000
40
0.0000000000
40
1.0000000000
40
1.0000000000
40
1.0000000000
40
1.0000000000
10
0.1361977997
20
22.2910824774
30
0.0000000000
10
0.1472868682
20
22.3039145215
30
0.0000000000
10
0.1590297401
20
22.3161853478
30
0.0000000000
10
0.1713692824
20
22.3278314246
30
0.0000000000
11
0.1361977997
21
22.2910824774
31
0.0000000000
11
0.1713692824
21
22.3278314246
31
0.0000000000
0
SPLINE
5
351
100
AcDbEntity
8
0
100
AcDbSpline
62
7
6
CONTINUOUS
70
0
71
3
72
9
73
5
74
3
42
0.0000001000
43
0.0000001000
44
0.0000000001
12
0.1045703474
22
0.0986936360
32
0.0000000000
13
0.1282771693
23
0.0649404797
33
0.0000000000
40
0.0000000000
40
0.0000000000
40
0.0000000000
40
0.0000000000
40
0.3537961455
40
1.0000000000
40
1.0000000000
40
1.0000000000
40
1.0000000000
10
0.1713692824
20
22.3278314246
30
0.0000000000
10
0.1837014776
20
22.3394705672
30
0.0000000000
10
0.2202427331
20
22.3706047022
30
0.0000000000
10
0.2610895053
20
22.3962469902
30
0.0000000000
10
0.2887205724
20
22.4102352530
30
0.0000000000
11
0.1713692824
21
22.3278314246
31
0.0000000000
11
0.2100967172
21
22.3608134172
31
0.0000000000
11
0.2887205724
21
22.4102352530
31
0.0000000000
0
SPLINE
5
352
100
AcDbEntity
8
0
100
AcDbSpline
62
7
6
CONTINUOUS
70
0
71
3
72
8
73
4
74
2
42
0.0000001000
43
0.0000001000
44
0.0000000001
12
0.0458767166
22
0.0222263650
32
0.0000000000
13
0.0477356119
23
0.0173664327
33
0.0000000000
40
0.0000000000
40
0.0000000000
40
0.0000000000
40
0.0000000000
40
1.0000000000
40
1.0000000000
40
1.0000000000
40
1.0000000000
10
0.2965903292
20
22.4141333126
30
0.0000000000
10
0.3118825681
20
22.4215421009
30
0.0000000000
10
0.3275311088
20
22.4281647650
30
0.0000000000
10
0.3434429794
20
22.4339535759
30
0.0000000000
11
0.2965903292
21
22.4141333126
31
0.0000000000
11
0.3434429794
21
22.4339535759
31
0.0000000000
0
SPLINE
5
353
100
AcDbEntity
8
0
100
AcDbSpline
62
7
6
CONTINUOUS
70
0
71
3
72
8
73
4
74
2
42
0.0000001000
43
0.0000001000
44
0.0000000001
12
-0.0565625410
22
-0.0205610885
32
0.0000000000
13
-0.0536753211
23
-0.0271768514
33
0.0000000000
40
0.0000000000
40
0.0000000000
40
0.0000000000
40
0.0000000000
40
1.0000000000
40
1.0000000000
40
1.0000000000
40
1.0000000000
10
0.3438655582
20
22.4342420243
30
0.0000000000
10
0.3250113779
20
22.4273883281
30
0.0000000000
10
0.3065560117
20
22.4194054809
30
0.0000000000
10
0.2886642380
20
22.4103465305
30
0.0000000000
11
0.3438655582
21
22.4342420243
31
0.0000000000
11
0.2886642380
21
22.4103465305
31
0.0000000000
0
SPLINE
5
354
100
AcDbEntity
8
0
100
AcDbSpline
62
7
6
CONTINUOUS
70
0
71
3
72
9
73
5
74
3
42
0.0000001000
43
0.0000001000
44
0.0000000001
12
-0.1720897309
22
-0.0871323533
32
0.0000000000
13
-0.1266777260
23
-0.1455645510
33
0.0000000000
40
0.0000000000
40
0.0000000000
40
0.0000000000
40
0.0000000000
40
0.7507530377
40
1.0000000000
40
1.0000000000
40
1.0000000000
40
1.0000000000
10
0.2886642380
20
22.4103465305
30
0.0000000000
10
0.2455986086
20
22.3885415709
30
0.0000000000
10
0.1925847003
20
22.3511929877
30
0.0000000000
10
0.1480350034
20
22.3046758932
30
0.0000000000
10
0.1375103239
20
22.2925820525
30
0.0000000000
11
0.2886642380
21
22.4103465305
31
0.0000000000
11
0.1707685877
21
22.3272947972
31
0.0000000000
11
0.1375103239
21
22.2925820525
31
0.0000000000
0
SPLINE
5
355
100
AcDbEntity
8
0
100
AcDbSpline
62
7
6
CONTINUOUS
70
0
71
3
72
8
73
4
74
2
42
0.0000001000
43
0.0000001000
44
0.0000000001
12
-0.0233244981
22
-0.0268020291
32
0.0000000000
13
-0.0213635048
23
-0.0283532021
33
0.0000000000
40
0.0000000000
40
0.0000000000
40
0.0000000000
40
0.0000000000
40
1.0000000000
40
1.0000000000
40
1.0000000000
40
1.0000000000
10
0.1375103239
20
22.2925820525
30
0.0000000000
10
0.1297354912
20
22.2836480428
30
0.0000000000
10
0.1222767340
20
22.2744413969
30
0.0000000000
10
0.1151555657
20
22.2649903295
30
0.0000000000
11
0.1375103239
21
22.2925820525
31
0.0000000000
11
0.1151555657
21
22.2649903295
31
0.0000000000
0
SPLINE
5
356
100
AcDbEntity
8
0
100
AcDbSpline
62
7
6
CONTINUOUS
70
0
71
3
72
8
73
4
74
2
42
0.0000001000
43
0.0000001000
44
0.0000000001
12
-0.0066406165
22
0.0146717855
32
0.0000000000
13
-0.0061639775
23
0.0148773127
33
0.0000000000
40
0.0000000000
40
0.0000000000
40
0.0000000000
40
0.0000000000
40
1.0000000000
40
1.0000000000
40
1.0000000000
40
1.0000000000
10
0.0194867197
20
-22.0885175126
30
0.0000000000
10
0.0172731809
20
-22.0836269174
30
0.0000000000
10
0.0151384248
20
-22.0787008212
30
0.0000000000
10
0.0130837656
20
-22.0737417169
30
0.0000000000
11
0.0194867197
21
-22.0885175126
31
0.0000000000
11
0.0130837656
21
-22.0737417169
31
0.0000000000
0
SPLINE
5
357
100
AcDbEntity
8
0
100
AcDbSpline
62
7
6
CONTINUOUS
70
0
71
3
72
8
73
4
74
2
42
0.0000001000
43
0.0000001000
44
0.0000000001
12
-0.0110825618
22
0.0267487573
32
0.0000000000
13
-0.0095148613
23
0.0273448477
33
0.0000000000
40
0.0000000000
40
0.0000000000
40
0.0000000000
40
0.0000000000
40
1.0000000000
40
1.0000000000
40
1.0000000000
40
1.0000000000
10
0.0130837656
20
-22.0737417169
30
0.0000000000
10
0.0093895783
20
-22.0648254645
30
0.0000000000
10
0.0059543162
20
-22.0558025090
30
0.0000000000
10
0.0027826957
20
-22.0466875597
30
0.0000000000
11
0.0130837656
21
-22.0737417169
31
0.0000000000
11
0.0027826957
21
-22.0466875597
31
0.0000000000
0
SPLINE
5
358
100
AcDbEntity
8
0
100
AcDbSpline
62
7
6
CONTINUOUS
70
0
71
3
72
9
73
5
74
3
42
0.0000001000
43
0.0000001000
44
0.0000000001
12
-0.0349646136
22
0.0472049272
32
0.0000000000
13
-0.0291833820
23
0.0509949247
33
0.0000000000
40
0.0000000000
40
0.0000000000
40
0.0000000000
40
0.0000000000
40
0.1150315201
40
1.0000000000
40
1.0000000000
40
1.0000000000
40
1.0000000000
10
0.0952941125
20
-22.2382444466
30
0.0000000000
10
0.0939534350
20
-22.2364344285
30
0.0000000000
10
0.0824054450
20
-22.2206203839
30
0.0000000000
10
0.0717969041
20
-22.2041300675
30
0.0000000000
10
0.0631881130
20
-22.1890871005
30
0.0000000000
11
0.0952941125
21
-22.2382444466
31
0.0000000000
11
0.0913091003
21
-22.2327872527
31
0.0000000000
11
0.0631881130
21
-22.1890871005
31
0.0000000000
0
SPLINE
5
359
100
AcDbEntity
8
0
100
AcDbSpline
62
7
6
CONTINUOUS
70
0
71
3
72
8
73
4
74
2
42
0.0000001000
43
0.0000001000
44
0.0000000001
12
-0.0258176232
22
0.0451136113
32
0.0000000000
13
-0.0210132687
23
0.0475691331
33
0.0000000000
40
0.0000000000
40
0.0000000000
40
0.0000000000
40
0.0000000000
40
1.0000000000
40
1.0000000000
40
1.0000000000
40
1.0000000000
10
0.0631881130
20
-22.1890871005
30
0.0000000000
10
0.0545822387
20
-22.1740492301
30
0.0000000000
10
0.0467552694
20
-22.1585621074
30
0.0000000000
10
0.0397508465
20
-22.1427057298
30
0.0000000000
11
0.0631881130
21
-22.1890871005
31
0.0000000000
11
0.0397508465
21
-22.1427057298
31
0.0000000000
0
SPLINE
5
35A
100
AcDbEntity
8
0
100
AcDbSpline
62
7
6
CONTINUOUS
70
0
71
3
72
8
73
4
74
2
42
0.0000001000
43
0.0000001000
44
0.0000000001
12
-0.0210003890
22
0.0475399765
32
0.0000000000
13
-0.0159404762
23
0.0495132413
33
0.0000000000
40
0.0000000000
40
0.0000000000
40
0.0000000000
40
0.0000000000
40
1.0000000000
40
1.0000000000
40
1.0000000000
40
1.0000000000
10
0.0397508465
20
-22.1427057298
30
0.0000000000
10
0.0327507168
20
-22.1268590709
30
0.0000000000
10
0.0265721255
20
-22.1106436095
30
0.0000000000
10
0.0212586334
20
-22.0941391958
30
0.0000000000
11
0.0397508465
21
-22.1427057298
31
0.0000000000
11
0.0212586334
21
-22.0941391958
31
0.0000000000
0
SPLINE
5
35B
100
AcDbEntity
8
0
100
AcDbSpline
62
7
6
CONTINUOUS
70
0
71
3
72
8
73
4
74
2
42
0.0000001000
43
0.0000001000
44
0.0000000001
12
-0.0150621550
22
0.0467850586
32
0.0000000000
13
-0.0103921706
23
0.0480554101
33
0.0000000000
40
0.0000000000
40
0.0000000000
40
0.0000000000
40
0.0000000000
40
1.0000000000
40
1.0000000000
40
1.0000000000
40
1.0000000000
10
0.0212586334
20
-22.0941391958
30
0.0000000000
10
0.0162379151
20
-22.0785441763
30
0.0000000000
10
0.0119895884
20
-22.0626911697
30
0.0000000000
10
0.0085255315
20
-22.0466726996
30
0.0000000000
11
0.0212586334
21
-22.0941391958
31
0.0000000000
11
0.0085255315
21
-22.0466726996
31
0.0000000000
0
SPLINE
5
35C
100
AcDbEntity
8
0
100
AcDbSpline
62
7
6
CONTINUOUS
70
0
71
3
72
9
73
5
74
3
42
0.0000001000
43
0.0000001000
44
0.0000000001
12
0.0122987807
22
-0.0563317639
32
0.0000000000
13
0.0179309811
23
-0.0525674209
33
0.0000000000
40
0.0000000000
40
0.0000000000
40
0.0000000000
40
0.0000000000
40
0.0594323106
40
1.0000000000
40
1.0000000000
40
1.0000000000
40
1.0000000000
10
0.0082271851
20
-22.0466538128
30
0.0000000000
10
0.0084708334
20
-22.0477697884
30
0.0000000000
10
0.0126249918
20
-22.0665049388
30
0.0000000000
10
0.0176560725
20
-22.0841294052
30
0.0000000000
10
0.0232778397
20
-22.1006104777
30
0.0000000000
11
0.0082271851
21
-22.0466538128
31
0.0000000000
11
0.0089677133
21
-22.0499928118
31
0.0000000000
11
0.0232778397
21
-22.1006104777
31
0.0000000000
0
SPLINE
5
35D
100
AcDbEntity
8
0
100
AcDbSpline
62
7
6
CONTINUOUS
70
0
71
3
72
8
73
4
74
2
42
0.0000001000
43
0.0000001000
44
0.0000000001
12
0.0062859970
22
-0.0184283642
32
0.0000000000
13
0.0070185897
23
-0.0183010009
33
0.0000000000
40
0.0000000000
40
0.0000000000
40
0.0000000000
40
0.0000000000
40
1.0000000000
40
1.0000000000
40
1.0000000000
40
1.0000000000
10
0.0232778397
20
-22.1006104777
30
0.0000000000
10
0.0253731721
20
-22.1067532658
30
0.0000000000
10
0.0275920995
20
-22.1128827273
30
0.0000000000
10
0.0299316294
20
-22.1189830609
30
0.0000000000
11
0.0232778397
21
-22.1006104777
31
0.0000000000
11
0.0299316294
21
-22.1189830609
31
0.0000000000
0
SPLINE
5
35E
100
AcDbEntity
8
0
100
AcDbSpline
62
7
6
CONTINUOUS
70
0
71
3
72
8
73
4
74
2
42
0.0000001000
43
0.0000001000
44
0.0000000001
12
0.0073250793
22
-0.0191001738
32
0.0000000000
13
0.0081030653
23
-0.0188559209
33
0.0000000000
40
0.0000000000
40
0.0000000000
40
0.0000000000
40
0.0000000000
40
1.0000000000
40
1.0000000000
40
1.0000000000
40
1.0000000000
10
0.0299316294
20
-22.1189830609
30
0.0000000000
10
0.0323733225
20
-22.1253497855
30
0.0000000000
10
0.0349463810
20
-22.1316847828
30
0.0000000000
10
0.0376474028
20
-22.1379700897
30
0.0000000000
11
0.0299316294
21
-22.1189830609
31
0.0000000000
11
0.0376474028
21
-22.1379700897
31
0.0000000000
0
SPLINE
5
35F
100
AcDbEntity
8
0
100
AcDbSpline
62
7
6
CONTINUOUS
70
0
71
3
72
10
73
6
74
4
42
0.0000001000
43
0.0000001000
44
0.0000000001
12
0.0458518763
22
-0.1066978141
32
0.0000000000
13
0.0689836060
23
-0.0931479225
33
0.0000000000
40
0.0000000000
40
0.0000000000
40
0.0000000000
40
0.0000000000
40
0.1810861704
40
0.7500018568
40
1.0000000000
40
1.0000000000
40
1.0000000000
40
1.0000000000
10
0.0376474028
20
-22.1379700897
30
0.0000000000
10
0.0404151164
20
-22.1444105892
30
0.0000000000
10
0.0524345924
20
-22.1708690187
30
0.0000000000
10
0.0714498063
20
-22.2045115094
30
0.0000000000
10
0.0895483519
20
-22.2304800812
30
0.0000000000
10
0.0952969431
20
-22.2382423504
30
0.0000000000
11
0.0376474028
21
-22.1379700897
31
0.0000000000
11
0.0463499644
21
-22.1571157382
31
0.0000000000
11
0.0787335787
21
-22.2144772910
31
0.0000000000
11
0.0952969431
21
-22.2382423504
31
0.0000000000
0
SPLINE
5
360
100
AcDbEntity
8
0
100
AcDbSpline
62
7
6
CONTINUOUS
70
0
71
3
72
8
73
4
74
2
42
0.0000001000
43
0.0000001000
44
0.0000000001
12
-0.0064409981
22
0.0087855876
32
0.0000000000
13
-0.0062470563
23
0.0089243961
33
0.0000000000
40
0.0000000000
40
0.0000000000
40
0.0000000000
40
0.0000000000
40
1.0000000000
40
1.0000000000
40
1.0000000000
40
1.0000000000
10
0.1112838486
20
-22.2598078166
30
0.0000000000
10
0.1091368492
20
-22.2568792874
30
0.0000000000
10
0.1070218929
20
-22.2539273115
30
0.0000000000
10
0.1049395409
20
-22.2509525128
30
0.0000000000
11
0.1112838486
21
-22.2598078166
31
0.0000000000
11
0.1049395409
21
-22.2509525128
31
0.0000000000
0
SPLINE
5
361
100
AcDbEntity
8
0
100
AcDbSpline
62
7
6
CONTINUOUS
70
0
71
3
72
9
73
5
74
3
42
0.0000001000
43
0.0000001000
44
0.0000000001
12
-0.1274500738
22
0.1820721447
32
0.0000000000
13
-0.0366545073
23
0.2195179961
33
0.0000000000
40
0.0000000000
40
0.0000000000
40
0.0000000000
40
0.0000000000
40
0.6866019779
40
1.0000000000
40
1.0000000000
40
1.0000000000
40
1.0000000000
10
0.1049395409
20
-22.2509525128
30
0.0000000000
10
0.0757703833
20
-22.2092821479
30
0.0000000000
10
0.0426047024
20
-22.1420691027
30
0.0000000000
10
0.0253074197
20
-22.0696756770
30
0.0000000000
10
0.0214782697
20
-22.0467435084
30
0.0000000000
11
0.1049395409
21
-22.2509525128
31
0.0000000000
11
0.0377078555
21
-22.1145427816
31
0.0000000000
11
0.0214782697
21
-22.0467435084
31
0.0000000000
0
SPLINE
5
362
100
AcDbEntity
8
0
100
AcDbSpline
62
7
6
CONTINUOUS
70
0
71
3
72
10
73
6
74
4
42
0.0000001000
43
0.0000001000
44
0.0000000001
12
0.0144263187
22
-0.0192536621
32
0.0000000000
13
0.0142232229
23
-0.0194041755
33
0.0000000000
40
0.0000000000
40
0.0000000000
40
0.0000000000
40
0.0000000000
40
0.3065675675
40
0.6991406423
40
1.0000000000
40
1.0000000000
40
1.0000000000
40
1.0000000000
10
0.0969588296
20
-22.2404788029
30
0.0000000000
10
0.0984330434
20
-22.2424463190
30
0.0000000000
10
0.1017877595
20
-22.2469387884
30
0.0000000000
10
0.1065623893
20
-22.2533821380
30
0.0000000000
10
0.1098570294
20
-22.2578621505
30
0.0000000000
10
0.1112834260
20
-22.2598081264
30
0.0000000000
11
0.0969588296
21
-22.2404788029
31
0.0000000000
11
0.1013718880
21
-22.2463885150
31
0.0000000000
11
0.1069950824
21
-22.2539769227
31
0.0000000000
11
0.1112834260
21
-22.2598081264
31
0.0000000000
0
SPLINE
5
363
100
AcDbEntity
8
0
100
AcDbSpline
62
7
6
CONTINUOUS
70
0
71
3
72
8
73
4
74
2
42
0.0000001000
43
0.0000001000
44
0.0000000001
12
0.0226094846
22
-0.0298750238
32
0.0000000000
13
0.0247871593
23
-0.0281396771
33
0.0000000000
40
0.0000000000
40
0.0000000000
40
0.0000000000
40
0.0000000000
40
1.0000000000
40
1.0000000000
40
1.0000000000
40
1.0000000000
10
0.1157898147
20
-22.2658233148
30
0.0000000000
10
0.1233263096
20
-22.2757816561
30
0.0000000000
10
0.1312384766
20
-22.2854672912
30
0.0000000000
10
0.1395008631
20
-22.2948471836
30
0.0000000000
11
0.1157898147
21
-22.2658233148
31
0.0000000000
11
0.1395008631
21
-22.2948471836
31
0.0000000000
0
SPLINE
5
364
100
AcDbEntity
8
0
100
AcDbSpline
62
7
6
CONTINUOUS
70
0
71
3
72
8
73
4
74
2
42
0.0000001000
43
0.0000001000
44
0.0000000001
12
0.0322228083
22
-0.0365810140
32
0.0000000000
13
0.0356061717
23
-0.0332631435
33
0.0000000000
40
0.0000000000
40
0.0000000000
40
0.0000000000
40
0.0000000000
40
1.0000000000
40
1.0000000000
40
1.0000000000
40
1.0000000000
10
0.1395008631
20
-22.2948471836
30
0.0000000000
10
0.1502417992
20
-22.3070408549
30
0.0000000000
10
0.1615745877
20
-22.3187178369
30
0.0000000000
10
0.1734433116
20
-22.3298055514
30
0.0000000000
11
0.1395008631
21
-22.2948471836
31
0.0000000000
11
0.1734433116
21
-22.3298055514
31
0.0000000000
0
SPLINE
5
365
100
AcDbEntity
8
0
100
AcDbSpline
62
7
6
CONTINUOUS
70
0
71
3
72
8
73
4
74
2
42
0.0000001000
43
0.0000001000
44
0.0000000001
12
0.1072772118
22
-0.1002179432
32
0.0000000000
13
0.1317277765
23
-0.0648302119
33
0.0000000000
40
0.0000000000
40
0.0000000000
40
0.0000000000
40
0.0000000000
40
1.0000000000
40
1.0000000000
40
1.0000000000
40
1.0000000000
10
0.1734433116
20
-22.3298055514
30
0.0000000000
10
0.2092023822
20
-22.3632115325
30
0.0000000000
10
0.2498263850
20
-22.3912684606
30
0.0000000000
10
0.2937356438
20
-22.4128785312
30
0.0000000000
11
0.1734433116
21
-22.3298055514
31
0.0000000000
11
0.2937356438
21
-22.4128785312
31
0.0000000000
0
SPLINE
5
366
100
AcDbEntity
8
0
100
AcDbSpline
62
7
6
CONTINUOUS
70
0
71
3
72
8
73
4
74
2
42
0.0000001000
43
0.0000001000
44
0.0000000001
12
0.0489042321
22
-0.0240683614
32
0.0000000000
13
0.0512519085
23
-0.0186237181
33
0.0000000000
40
0.0000000000
40
0.0000000000
40
0.0000000000
40
0.0000000000
40
1.0000000000
40
1.0000000000
40
1.0000000000
40
1.0000000000
10
0.2937356438
20
-22.4128785312
30
0.0000000000
10
0.3100370545
20
-22.4209013184
30
0.0000000000
10
0.3267912662
20
-22.4280355466
30
0.0000000000
10
0.3438752357
20
-22.4342434526
30
0.0000000000
11
0.2937356438
21
-22.4128785312
31
0.0000000000
11
0.3438752357
21
-22.4342434526
31
0.0000000000
0
SPLINE
5
367
100
AcDbEntity
8
0
100
AcDbSpline
62
7
6
CONTINUOUS
70
0
71
3
72
11
73
7
74
5
42
0.0000001000
43
0.0000001000
44
0.0000000001
12
0.2777975874
22
-0.2777975879
32
0.0000000000
13
0.3922423374
23
0.0000000000
33
0.0000000000
40
0.0000000000
40
0.0000000000
40
0.0000000000
40
0.0000000000
40
0.2499994775
40
0.4999992599
40
0.7499998477
40
1.0000000000
40
1.0000000000
40
1.0000000000
40
1.0000000000
10
0.1738879676
20
-22.2883873558
30
0.0000000000
10
0.1970377181
20
-22.3115371064
30
0.0000000000
10
0.2478956700
20
-22.3532782135
30
0.0000000000
10
0.3349409200
20
-22.3998052683
30
0.0000000000
10
0.4293517902
20
-22.4284591836
30
0.0000000000
10
0.4949067939
20
-22.4349101299
30
0.0000000000
10
0.5275936753
20
-22.4349101299
30
0.0000000000
11
0.1738879676
21
-22.2883873558
31
0.0000000000
11
0.2496886719
21
-22.3505974138
31
0.0000000000
11
0.3361684129
21
-22.3968263643
31
0.0000000000
11
0.4300054397
21
-22.4252962750
31
0.0000000000
11
0.5275936753
21
-22.4349101299
31
0.0000000000
0
SPLINE
5
368
100
AcDbEntity
8
0
100
AcDbSpline
62
7
6
CONTINUOUS
70
0
71
3
72
8
73
4
74
2
42
0.0000001000
43
0.0000001000
44
0.0000000001
12
0.0066406165
22
-0.0146717855
32
0.0000000000
13
0.0061639775
23
-0.0148773127
33
0.0000000000
40
0.0000000000
40
0.0000000000
40
0.0000000000
40
0.0000000000
40
1.0000000000
40
1.0000000000
40
1.0000000000
40
1.0000000000
10
22.2305132803
20
22.0885175126
30
0.0000000000
10
22.2327268191
20
22.0836269174
30
0.0000000000
10
22.2348615752
20
22.0787008212
30
0.0000000000
10
22.2369162344
20
22.0737417169
30
0.0000000000
11
22.2305132803
21
22.0885175126
31
0.0000000000
11
22.2369162344
21
22.0737417169
31
0.0000000000
0
SPLINE
5
369
100
AcDbEntity
8
0
100
AcDbSpline
62
7
6
CONTINUOUS
70
0
71
3
72
9
73
5
74
3
42
0.0000001000
43
0.0000001000
44
0.0000000001
12
0.0751810997
22
-0.1814563289
32
0.0000000000
13
0.0000000000
23
-0.1961214590
33
0.0000000000
40
0.0000000000
40
0.0000000000
40
0.0000000000
40
0.0000000000
40
0.5000004355
40
1.0000000000
40
1.0000000000
40
1.0000000000
40
1.0000000000
10
22.2369162344
20
22.0737417169
30
0.0000000000
10
22.2494464286
20
22.0434989691
30
0.0000000000
10
22.2685490538
20
21.9805583396
30
0.0000000000
10
22.2750000000
20
21.9150033360
30
0.0000000000
10
22.2750000000
20
21.8823164546
30
0.0000000000
11
22.2369162344
21
22.0737417169
31
0.0000000000
11
22.2653861452
21
21.9799046901
31
0.0000000000
11
22.2750000000
21
21.8823164546
31
0.0000000000
0
SPLINE
5
36A
100
AcDbEntity
8
0
100
AcDbSpline
62
7
6
CONTINUOUS
70
0
71
3
72
9
73
5
74
3
42
0.0000001000
43
0.0000001000
44
0.0000000001
12
0.0349646136
22
-0.0472049272
32
0.0000000000
13
0.0291833820
23
-0.0509949247
33
0.0000000000
40
0.0000000000
40
0.0000000000
40
0.0000000000
40
0.0000000000
40
0.1150315201
40
1.0000000000
40
1.0000000000
40
1.0000000000
40
1.0000000000
10
22.1547058875
20
22.2382444466
30
0.0000000000
10
22.1560465650
20
22.2364344285
30
0.0000000000
10
22.1675945550
20
22.2206203839
30
0.0000000000
10
22.1782030959
20
22.2041300675
30
0.0000000000
10
22.1868118870
20
22.1890871005
30
0.0000000000
11
22.1547058875
21
22.2382444466
31
0.0000000000
11
22.1586908997
21
22.2327872527
31
0.0000000000
11
22.1868118870
21
22.1890871005
31
0.0000000000
0
SPLINE
5
36B
100
AcDbEntity
8
0
100
AcDbSpline
62
7
6
CONTINUOUS
70
0
71
3
72
8
73
4
74
2
42
0.0000001000
43
0.0000001000
44
0.0000000001
12
0.0258176232
22
-0.0451136113
32
0.0000000000
13
0.0210132687
23
-0.0475691331
33
0.0000000000
40
0.0000000000
40
0.0000000000
40
0.0000000000
40
0.0000000000
40
1.0000000000
40
1.0000000000
40
1.0000000000
40
1.0000000000
10
22.1868118870
20
22.1890871005
30
0.0000000000
10
22.1954177613
20
22.1740492301
30
0.0000000000
10
22.2032447306
20
22.1585621074
30
0.0000000000
10
22.2102491535
20
22.1427057298
30
0.0000000000
11
22.1868118870
21
22.1890871005
31
0.0000000000
11
22.2102491535
21
22.1427057298
31
0.0000000000
0
SPLINE
5
36C
100
AcDbEntity
8
0
100
AcDbSpline
62
7
6
CONTINUOUS
70
0
71
3
72
8
73
4
74
2
42
0.0000001000
43
0.0000001000
44
0.0000000001
12
0.0210003890
22
-0.0475399765
32
0.0000000000
13
0.0159404762
23
-0.0495132413
33
0.0000000000
40
0.0000000000
40
0.0000000000
40
0.0000000000
40
0.0000000000
40
1.0000000000
40
1.0000000000
40
1.0000000000
40
1.0000000000
10
22.2102491535
20
22.1427057298
30
0.0000000000
10
22.2172492832
20
22.1268590709
30
0.0000000000
10
22.2234278745
20
22.1106436095
30
0.0000000000
10
22.2287413666
20
22.0941391958
30
0.0000000000
11
22.2102491535
21
22.1427057298
31
0.0000000000
11
22.2287413666
21
22.0941391958
31
0.0000000000
0
SPLINE
5
36D
100
AcDbEntity
8
0
100
AcDbSpline
62
7
6
CONTINUOUS
70
0
71
3
72
8
73
4
74
2
42
0.0000001000
43
0.0000001000
44
0.0000000001
12
0.0478502078
22
-0.1486291155
32
0.0000000000
13
-0.0000639003
23
-0.1553518627
33
0.0000000000
40
0.0000000000
40
0.0000000000
40
0.0000000000
40
0.0000000000
40
1.0000000000
40
1.0000000000
40
1.0000000000
40
1.0000000000
10
22.2287413666
20
22.0941391958
30
0.0000000000
10
22.2446914359
20
22.0445961573
30
0.0000000000
10
22.2528462376
20
21.9924494163
30
0.0000000000
10
22.2528249375
20
21.9406654621
30
0.0000000000
11
22.2287413666
21
22.0941391958
31
0.0000000000
11
22.2528249375
21
21.9406654621
31
0.0000000000
0
SPLINE
5
36E
100
AcDbEntity
8
0
100
AcDbSpline
62
7
6
CONTINUOUS
70
0
71
3
72
10
73
6
74
4
42
0.0000001000
43
0.0000001000
44
0.0000000001
12
0.0060662477
22
-0.0402306073
32
0.0000000000
13
-0.0041795086
23
0.0341725345
33
0.0000000000
40
0.0000000000
40
0.0000000000
40
0.0000000000
40
0.0000000000
40
0.3757031991
40
0.8122701336
40
1.0000000000
40
1.0000000000
40
1.0000000000
40
1.0000000000
10
22.2519192095
20
21.9799990163
30
0.0000000000
10
22.2526789124
20
21.9749607604
30
0.0000000000
10
22.2538289771
20
21.9673474106
30
0.0000000000
10
22.2520503038
20
21.9832677935
30
0.0000000000
10
22.2511457255
20
21.9908789506
30
0.0000000000
10
22.2508841860
20
21.9930173524
30
0.0000000000
11
22.2519192095
21
21.9799990163
31
0.0000000000
11
22.2531876689
21
21.9723132475
31
0.0000000000
11
22.2517083630
21
21.9860910104
31
0.0000000000
11
22.2508841860
21
21.9930173524
31
0.0000000000
0
SPLINE
5
36F
100
AcDbEntity
8
0
100
AcDbSpline
62
7
6
CONTINUOUS
70
0
71
3
72
8
73
4
74
2
42
0.0000001000
43
0.0000001000
44
0.0000000001
12
-0.0025084968
22
0.0205099933
32
0.0000000000
13
-0.0026642773
23
0.0171907070
33
0.0000000000
40
0.0000000000
40
0.0000000000
40
0.0000000000
40
0.0000000000
40
1.0000000000
40
1.0000000000
40
1.0000000000
40
1.0000000000
10
22.2508841860
20
21.9930173524
30
0.0000000000
10
22.2500480204
20
21.9998540168
30
0.0000000000
10
22.2493189001
20
22.0051542050
30
0.0000000000
10
22.2484308077
20
22.0108844406
30
0.0000000000
11
22.2508841860
21
21.9930173524
31
0.0000000000
11
22.2484308077
21
22.0108844406
31
0.0000000000
0
SPLINE
5
370
100
AcDbEntity
8
0
100
AcDbSpline
62
7
6
CONTINUOUS
70
0
71
3
72
9
73
5
74
3
42
0.0000001000
43
0.0000001000
44
0.0000000001
12
-0.0129229997
22
0.0833830246
32
0.0000000000
13
-0.0296267680
23
0.0868554135
33
0.0000000000
40
0.0000000000
40
0.0000000000
40
0.0000000000
40
0.0000000000
40
0.4307410949
40
1.0000000000
40
1.0000000000
40
1.0000000000
40
1.0000000000
10
22.2484308077
20
22.0108844406
30
0.0000000000
10
22.2465753187
20
22.0228566057
30
0.0000000000
10
22.2406566160
20
22.0550090814
30
0.0000000000
10
22.2323439274
20
22.0841294052
30
0.0000000000
10
22.2267221603
20
22.1006104777
30
0.0000000000
11
22.2484308077
21
22.0108844406
31
0.0000000000
11
22.2410322867
21
22.0499928118
31
0.0000000000
11
22.2267221603
21
22.1006104777
31
0.0000000000
0
SPLINE
5
371
100
AcDbEntity
8
0
100
AcDbSpline
62
7
6
CONTINUOUS
70
0
71
3
72
8
73
4
74
2
42
0.0000001000
43
0.0000001000
44
0.0000000001
12
-0.0062859970
22
0.0184283642
32
0.0000000000
13
-0.0070185897
23
0.0183010009
33
0.0000000000
40
0.0000000000
40
0.0000000000
40
0.0000000000
40
0.0000000000
40
1.0000000000
40
1.0000000000
40
1.0000000000
40
1.0000000000
10
22.2267221603
20
22.1006104777
30
0.0000000000
10
22.2246268279
20
22.1067532658
30
0.0000000000
10
22.2224079005
20
22.1128827273
30
0.0000000000
10
22.2200683706
20
22.1189830609
30
0.0000000000
11
22.2267221603
21
22.1006104777
31
0.0000000000
11
22.2200683706
21
22.1189830609
31
0.0000000000
0
SPLINE
5
372
100
AcDbEntity
8
0
100
AcDbSpline
62
7
6
CONTINUOUS
70
0
71
3
72
8
73
4
74
2
42
0.0000001000
43
0.0000001000
44
0.0000000001
12
-0.0073250793
22
0.0191001738
32
0.0000000000
13
-0.0081030653
23
0.0188559209
33
0.0000000000
40
0.0000000000
40
0.0000000000
40
0.0000000000
40
0.0000000000
40
1.0000000000
40
1.0000000000
40
1.0000000000
40
1.0000000000
10
22.2200683706
20
22.1189830609
30
0.0000000000
10
22.2176266775
20
22.1253497855
30
0.0000000000
10
22.2150536190
20
22.1316847828
30
0.0000000000
10
22.2123525972
20
22.1379700897
30
0.0000000000
11
22.2200683706
21
22.1189830609
31
0.0000000000
11
22.2123525972
21
22.1379700897
31
0.0000000000
0
SPLINE
5
373
100
AcDbEntity
8
0
100
AcDbSpline
62
7
6
CONTINUOUS
70
0
71
3
72
10
73
6
74
4
42
0.0000001000
43
0.0000001000
44
0.0000000001
12
-0.0458518763
22
0.1066978141
32
0.0000000000
13
-0.0689836060
23
0.0931479225
33
0.0000000000
40
0.0000000000
40
0.0000000000
40
0.0000000000
40
0.0000000000
40
0.1810861704
40
0.7500018568
40
1.0000000000
40
1.0000000000
40
1.0000000000
40
1.0000000000
10
22.2123525972
20
22.1379700897
30
0.0000000000
10
22.2095848836
20
22.1444105892
30
0.0000000000
10
22.1975654076
20
22.1708690187
30
0.0000000000
10
22.1785501937
20
22.2045115094
30
0.0000000000
10
22.1604516481
20
22.2304800812
30
0.0000000000
10
22.1547030569
20
22.2382423504
30
0.0000000000
11
22.2123525972
21
22.1379700897
31
0.0000000000
11
22.2036500356
21
22.1571157382
31
0.0000000000
11
22.1712664213
21
22.2144772910
31
0.0000000000
11
22.1547030569
21
22.2382423504
31
0.0000000000
0
SPLINE
5
374
100
AcDbEntity
8
0
100
AcDbSpline
62
7
6
CONTINUOUS
70
0
71
3
72
8
73
4
74
2
42
0.0000001000
43
0.0000001000
44
0.0000000001
12
0.0064409981
22
-0.0087855876
32
0.0000000000
13
0.0062470563
23
-0.0089243961
33
0.0000000000
40
0.0000000000
40
0.0000000000
40
0.0000000000
40
0.0000000000
40
1.0000000000
40
1.0000000000
40
1.0000000000
40
1.0000000000
10
22.1387161514
20
22.2598078166
30
0.0000000000
10
22.1408631508
20
22.2568792874
30
0.0000000000
10
22.1429781071
20
22.2539273115
30
0.0000000000
10
22.1450604591
20
22.2509525128
30
0.0000000000
11
22.1387161514
21
22.2598078166
31
0.0000000000
11
22.1450604591
21
22.2509525128
31
0.0000000000
0
SPLINE
5
375
100
AcDbEntity
8
0
100
AcDbSpline
62
7
6
CONTINUOUS
70
0
71
3
72
9
73
5
74
3
42
0.0000001000
43
0.0000001000
44
0.0000000001
12
0.1750219285
22
-0.2500321650
32
0.0000000000
13
-0.0001263925
23
-0.3041680844
33
0.0000000000
40
0.0000000000
40
0.0000000000
40
0.0000000000
40
0.0000000000
40
0.4999800511
40
1.0000000000
40
1.0000000000
40
1.0000000000
40
1.0000000000
10
22.1450604591
20
22.2509525128
30
0.0000000000
10
22.1742296167
20
22.2092821479
30
0.0000000000
10
22.2197746781
20
22.1169812457
30
0.0000000000
10
22.2353944860
20
22.0149109770
30
0.0000000000
10
22.2353734197
20
21.9642142736
30
0.0000000000
11
22.1450604591
21
22.2509525128
31
0.0000000000
11
22.2122921445
21
22.1145427816
31
0.0000000000
11
22.2353734197
21
21.9642142736
31
0.0000000000
0
SPLINE
5
376
100
AcDbEntity
8
0
100
AcDbSpline
62
7
6
CONTINUOUS
70
0
71
3
72
10
73
6
74
4
42
0.0000001000
43
0.0000001000
44
0.0000000001
12
-0.0144263187
22
0.0192536621
32
0.0000000000
13
-0.0142232229
23
0.0194041755
33
0.0000000000
40
0.0000000000
40
0.0000000000
40
0.0000000000
40
0.0000000000
40
0.3065675685
40
0.6991406434
40
1.0000000000
40
1.0000000000
40
1.0000000000
40
1.0000000000
10
22.1530411704
20
22.2404788029
30
0.0000000000
10
22.1515669566
20
22.2424463190
30
0.0000000000
10
22.1482122404
20
22.2469387884
30
0.0000000000
10
22.1434376107
20
22.2533821380
30
0.0000000000
10
22.1401429706
20
22.2578621505
30
0.0000000000
10
22.1387165740
20
22.2598081264
30
0.0000000000
11
22.1530411704
21
22.2404788029
31
0.0000000000
11
22.1486281119
21
22.2463885150
31
0.0000000000
11
22.1430049176
21
22.2539769228
31
0.0000000000
11
22.1387165740
21
22.2598081264
31
0.0000000000
0
SPLINE
5
377
100
AcDbEntity
8
0
100
AcDbSpline
62
7
6
CONTINUOUS
70
0
71
3
72
8
73
4
74
2
42
0.0000001000
43
0.0000001000
44
0.0000000001
12
-0.0226094846
22
0.0298750238
32
0.0000000000
13
-0.0247871593
23
0.0281396771
33
0.0000000000
40
0.0000000000
40
0.0000000000
40
0.0000000000
40
0.0000000000
40
1.0000000000
40
1.0000000000
40
1.0000000000
40
1.0000000000
10
22.1342101853
20
22.2658233148
30
0.0000000000
10
22.1266736904
20
22.2757816561
30
0.0000000000
10
22.1187615233
20
22.2854672912
30
0.0000000000
10
22.1104991369
20
22.2948471836
30
0.0000000000
11
22.1342101853
21
22.2658233148
31
0.0000000000
11
22.1104991369
21
22.2948471836
31
0.0000000000
0
SPLINE
5
378
100
AcDbEntity
8
0
100
AcDbSpline
62
7
6
CONTINUOUS
70
0
71
3
72
8
73
4
74
2
42
0.0000001000
43
0.0000001000
44
0.0000000001
12
-0.0322228083
22
0.0365810140
32
0.0000000000
13
-0.0356061717
23
0.0332631435
33
0.0000000000
40
0.0000000000
40
0.0000000000
40
0.0000000000
40
0.0000000000
40
1.0000000000
40
1.0000000000
40
1.0000000000
40
1.0000000000
10
22.1104991369
20
22.2948471836
30
0.0000000000
10
22.0997582008
20
22.3070408549
30
0.0000000000
10
22.0884254123
20
22.3187178369
30
0.0000000000
10
22.0765566884
20
22.3298055514
30
0.0000000000
11
22.1104991369
21
22.2948471836
31
0.0000000000
11
22.0765566884
21
22.3298055514
31
0.0000000000
0
SPLINE
5
379
100
AcDbEntity
8
0
100
AcDbSpline
62
7
6
CONTINUOUS
70
0
71
3
72
8
73
4
74
2
42
0.0000001000
43
0.0000001000
44
0.0000000001
12
-0.1072772118
22
0.1002179432
32
0.0000000000
13
-0.1317277765
23
0.0648302119
33
0.0000000000
40
0.0000000000
40
0.0000000000
40
0.0000000000
40
0.0000000000
40
1.0000000000
40
1.0000000000
40
1.0000000000
40
1.0000000000
10
22.0765566884
20
22.3298055514
30
0.0000000000
10
22.0407976178
20
22.3632115325
30
0.0000000000
10
22.0001736150
20
22.3912684606
30
0.0000000000
10
21.9562643562
20
22.4128785313
30
0.0000000000
11
22.0765566884
21
22.3298055514
31
0.0000000000
11
21.9562643562
21
22.4128785313
31
0.0000000000
0
SPLINE
5
37A
100
AcDbEntity
8
0
100
AcDbSpline
62
7
6
CONTINUOUS
70
0
71
3
72
8
73
4
74
2
42
0.0000001000
43
0.0000001000
44
0.0000000001
12
-0.0489042321
22
0.0240683614
32
0.0000000000
13
-0.0512519085
23
0.0186237181
33
0.0000000000
40
0.0000000000
40
0.0000000000
40
0.0000000000
40
0.0000000000
40
1.0000000000
40
1.0000000000
40
1.0000000000
40
1.0000000000
10
21.9562643562
20
22.4128785313
30
0.0000000000
10
21.9399629455
20
22.4209013184
30
0.0000000000
10
21.9232087338
20
22.4280355466
30
0.0000000000
10
21.9061247643
20
22.4342434526
30
0.0000000000
11
21.9562643562
21
22.4128785313
31
0.0000000000
11
21.9061247643
21
22.4342434526
31
0.0000000000
0
SPLINE
5
37B
100
AcDbEntity
8
0
100
AcDbSpline
62
7
6
CONTINUOUS
70
0
71
3
72
11
73
7
74
5
42
0.0000001000
43
0.0000001000
44
0.0000000001
12
-0.2777975874
22
0.2777975879
32
0.0000000000
13
-0.3922423374
23
0.0000000000
33
0.0000000000
40
0.0000000000
40
0.0000000000
40
0.0000000000
40
0.0000000000
40
0.2499994775
40
0.4999992599
40
0.7499998477
40
1.0000000000
40
1.0000000000
40
1.0000000000
40
1.0000000000
10
22.0761120324
20
22.2883873558
30
0.0000000000
10
22.0529622819
20
22.3115371064
30
0.0000000000
10
22.0021043300
20
22.3532782135
30
0.0000000000
10
21.9150590800
20
22.3998052683
30
0.0000000000
10
21.8206482098
20
22.4284591836
30
0.0000000000
10
21.7550932061
20
22.4349101299
30
0.0000000000
10
21.7224063247
20
22.4349101299
30
0.0000000000
11
22.0761120324
21
22.2883873558
31
0.0000000000
11
22.0003113281
21
22.3505974138
31
0.0000000000
11
21.9138315871
21
22.3968263643
31
0.0000000000
11
21.8199945603
21
22.4252962750
31
0.0000000000
11
21.7224063247
21
22.4349101299
31
0.0000000000
0
SPLINE
5
37C
100
AcDbEntity
8
0
100
AcDbSpline
62
7
6
CONTINUOUS
70
0
71
3
72
8
73
4
74
2
42
0.0000001000
43
0.0000001000
44
0.0000000001
12
0.0234407480
22
0.0318321681
32
0.0000000000
13
0.0208587250
23
0.0335543098
33
0.0000000000
40
0.0000000000
40
0.0000000000
40
0.0000000000
40
0.0000000000
40
1.0000000000
40
1.0000000000
40
1.0000000000
40
1.0000000000
10
22.1554970761
20
-22.2371668017
30
0.0000000000
10
22.1633106587
20
-22.2265560790
30
0.0000000000
10
22.1707088662
20
-22.2156363101
30
0.0000000000
10
22.1776617745
20
-22.2044515402
30
0.0000000000
11
22.1554970761
21
-22.2371668017
31
0.0000000000
11
22.1776617745
21
-22.2044515402
31
0.0000000000
0
SPLINE
5
37D
100
AcDbEntity
8
0
100
AcDbSpline
62
7
6
CONTINUOUS
70
0
71
3
72
14
73
10
74
8
42
0.0000001000
43
0.0000001000
44
0.0000000001
12
0.1319317604
22
0.2122315327
32
0.0000000000
13
-0.0078993623
23
-0.0342173337
33
0.0000000000
40
0.0000000000
40
0.0000000000
40
0.0000000000
40
0.0000000000
40
0.2977437971
40
0.5572386170
40
0.7672084466
40
0.9052484049
40
0.9765901732
40
0.9924527419
40
1.0000000000
40
1.0000000000
40
1.0000000000
40
1.0000000000
10
22.1776617745
20
-22.2044515402
30
0.0000000000
10
22.1907557290
20
-22.1833879994
30
0.0000000000
10
22.2123058622
20
-22.1422078420
30
0.0000000000
10
22.2338989959
20
-22.0816088204
30
0.0000000000
10
22.2452479139
20
-22.0330713980
30
0.0000000000
10
22.2505650089
20
-21.9968622870
30
0.0000000000
10
22.2522979222
20
-21.9806827503
30
0.0000000000
10
22.2534005644
20
-21.9706717368
30
0.0000000000
10
22.2534101872
20
-21.9703592427
30
0.0000000000
10
22.2533903144
20
-21.9704453250
30
0.0000000000
11
22.1776617745
21
-22.2044515402
31
0.0000000000
11
22.2121101613
21
-22.1385720956
31
0.0000000000
11
22.2339354330
21
-22.0775664947
31
0.0000000000
11
22.2458313075
21
-22.0265074633
31
0.0000000000
11
22.2509569546
21
-21.9924241015
31
0.0000000000
11
22.2529549234
21
-21.9747234785
31
0.0000000000
11
22.2533766669
21
-21.9707853385
31
0.0000000000
11
22.2533903144
21
-21.9704453250
31
0.0000000000
0
SPLINE
5
37E
100
AcDbEntity
8
0
100
AcDbSpline
62
7
6
CONTINUOUS
70
0
71
3
72
8
73
4
74
2
42
0.0000001000
43
0.0000001000
44
0.0000000001
12
-0.0384178308
22
-0.0350014015
32
0.0000000000
13
-0.0418948896
23
-0.0308292201
33
0.0000000000
40
0.0000000000
40
0.0000000000
40
0.0000000000
40
0.0000000000
40
1.0000000000
40
1.0000000000
40
1.0000000000
40
1.0000000000
10
22.0896278956
20
-22.3102688036
30
0.0000000000
10
22.0768219520
20
-22.3219359374
30
0.0000000000
10
22.0634055526
20
-22.3329410360
30
0.0000000000
10
22.0494405894
20
-22.3432174427
30
0.0000000000
11
22.0896278956
21
-22.3102688036
31
0.0000000000
11
22.0494405894
21
-22.3432174427
31
0.0000000000
0
SPLINE
5
37F
100
AcDbEntity
8
0
100
AcDbSpline
62
7
6
CONTINUOUS
70
0
71
3
72
8
73
4
74
2
42
0.0000001000
43
0.0000001000
44
0.0000000001
12
0.0018707499
22
0.0025500642
32
0.0000000000
13
0.0018742452
23
0.0025474964
33
0.0000000000
40
0.0000000000
40
0.0000000000
40
0.0000000000
40
0.0000000000
40
1.0000000000
40
1.0000000000
40
1.0000000000
40
1.0000000000
10
22.1392591930
20
-22.2590681612
30
0.0000000000
10
22.1398827763
20
-22.2582181399
30
0.0000000000
10
22.1405069417
20
-22.2573685455
30
0.0000000000
10
22.1411316901
20
-22.2565193800
30
0.0000000000
11
22.1392591930
21
-22.2590681612
31
0.0000000000
11
22.1411316901
21
-22.2565193800
31
0.0000000000
0
SPLINE
5
380
100
AcDbEntity
8
0
100
AcDbSpline
62
7
6
CONTINUOUS
70
0
71
3
72
10
73
6
74
4
42
0.0000001000
43
0.0000001000
44
0.0000000001
12
0.0118392348
22
0.0160920291
32
0.0000000000
13
0.0119793998
23
0.0159879601
33
0.0000000000
40
0.0000000000
40
0.0000000000
40
0.0000000000
40
0.0000000000
40
0.1580679003
40
0.6308281093
40
1.0000000000
40
1.0000000000
40
1.0000000000
40
1.0000000000
10
22.1411316901
20
-22.2565193800
30
0.0000000000
10
22.1417554911
20
-22.2556715023
30
0.0000000000
10
22.1442473179
20
-22.2522894406
30
0.0000000000
10
22.1482120999
20
-22.2469389776
30
0.0000000000
10
22.1515667550
20
-22.2424465889
30
0.0000000000
10
22.1530409076
20
-22.2404791537
30
0.0000000000
11
22.1411316901
21
-22.2565193800
31
0.0000000000
11
22.1430048374
21
-22.2539770314
31
0.0000000000
11
22.1486280321
21
-22.2463886223
31
0.0000000000
11
22.1530409076
21
-22.2404791537
31
0.0000000000
0
SPLINE
5
381
100
AcDbEntity
8
0
100
AcDbSpline
62
7
6
CONTINUOUS
70
0
71
3
72
8
73
4
74
2
42
0.0000001000
43
0.0000001000
44
0.0000000001
12
0.0327314541
22
0.0119026134
32
0.0000000000
13
0.0318231601
23
0.0141504745
33
0.0000000000
40
0.0000000000
40
0.0000000000
40
0.0000000000
40
0.0000000000
40
1.0000000000
40
1.0000000000
40
1.0000000000
40
1.0000000000
10
21.9061517890
20
-22.4342589603
30
0.0000000000
10
21.9170622737
20
-22.4302914225
30
0.0000000000
10
21.9278345432
20
-22.4259443960
30
0.0000000000
10
21.9384422632
20
-22.4212275712
30
0.0000000000
11
21.9061517890
21
-22.4342589603
31
0.0000000000
11
21.9384422632
21
-22.4212275712
31
0.0000000000
0
SPLINE
5
382
100
AcDbEntity
8
0
100
AcDbSpline
62
7
6
CONTINUOUS
70
0
71
3
72
11
73
7
74
5
42
0.0000001000
43
0.0000001000
44
0.0000000001
12
0.2186621071
22
0.0972302114
32
0.0000000000
13
0.1493688917
23
0.1869156653
33
0.0000000000
40
0.0000000000
40
0.0000000000
40
0.0000000000
40
0.0000000000
40
0.2842905621
40
0.5598332746
40
0.8267538353
40
1.0000000000
40
1.0000000000
40
1.0000000000
40
1.0000000000
10
21.9384422632
20
-22.4212275712
30
0.0000000000
10
21.9591634543
20
-22.4120136940
30
0.0000000000
10
21.9987317741
20
-22.3910907265
30
0.0000000000
10
22.0525076319
20
-22.3526753172
30
0.0000000000
10
22.0943607475
20
-22.3136847127
30
0.0000000000
10
22.1174114815
20
-22.2871663149
30
0.0000000000
10
22.1260373441
20
-22.2763721742
30
0.0000000000
11
21.9384422632
21
-22.4212275712
31
0.0000000000
11
21.9985366756
21
-22.3894512397
31
0.0000000000
11
22.0521493622
21
-22.3511531903
31
0.0000000000
11
22.0988497015
21
-22.3076478708
31
0.0000000000
11
22.1260373441
21
-22.2763721742
31
0.0000000000
0
SPLINE
5
383
100
AcDbEntity
8
0
100
AcDbSpline
62
7
6
CONTINUOUS
70
0
71
3
72
8
73
4
74
2
42
0.0000001000
43
0.0000001000
44
0.0000000001
12
0.0113761771
22
0.0142358003
32
0.0000000000
13
0.0108504914
23
0.0146400980
33
0.0000000000
40
0.0000000000
40
0.0000000000
40
0.0000000000
40
0.0000000000
40
1.0000000000
40
1.0000000000
40
1.0000000000
40
1.0000000000
10
22.1260373441
20
-22.2763721742
30
0.0000000000
10
22.1298294031
20
-22.2716269074
30
0.0000000000
10
22.1335351274
20
-22.2668127029
30
0.0000000000
10
22.1371519578
20
-22.2619326702
30
0.0000000000
11
22.1260373441
21
-22.2763721742
31
0.0000000000
11
22.1371519578
21
-22.2619326702
31
0.0000000000
0
SPLINE
5
384
100
AcDbEntity
8
0
100
AcDbSpline
62
7
6
CONTINUOUS
70
0
71
3
72
9
73
5
74
3
42
0.0000001000
43
0.0000001000
44
0.0000000001
12
-0.0000005827
22
0.0621791276
32
0.0000000000
13
0.0190122768
23
0.0591871160
33
0.0000000000
40
0.0000000000
40
0.0000000000
40
0.0000000000
40
0.0000000000
40
0.4411896172
40
1.0000000000
40
1.0000000000
40
1.0000000000
40
1.0000000000
10
2.8749980251
20
-22.6218539536
30
0.0000000000
10
2.8749979394
20
-22.6127096918
30
0.0000000000
10
2.8764200938
20
-22.5919905023
30
0.0000000000
10
2.8810583693
20
-22.5717088263
30
0.0000000000
10
2.8845997885
20
-22.5606840347
30
0.0000000000
11
2.8749980251
21
-22.6218539536
31
0.0000000000
11
2.8768788313
21
-22.5945126705
31
0.0000000000
11
2.8845997885
21
-22.5606840347
31
0.0000000000
0
SPLINE
5
385
100
AcDbEntity
8
0
100
AcDbSpline
62
7
6
CONTINUOUS
70
0
71
3
72
12
73
8
74
6
42
0.0000001000
43
0.0000001000
44
0.0000000001
12
0.0547940788
22
0.1705794385
32
0.0000000000
13
0.1631765675
23
0.0630036549
33
0.0000000000
40
0.0000000000
40
0.0000000000
40
0.0000000000
40
0.0000000000
40
0.0941099440
40
0.3649293483
40
0.6182308939
40
0.8524511237
40
1.0000000000
40
1.0000000000
40
1.0000000000
40
1.0000000000
10
2.8845997885
20
-22.5606840347
30
0.0000000000
10
2.8863186778
20
-22.5553329609
30
0.0000000000
10
2.8938513826
20
-22.5348652568
30
0.0000000000
10
2.9121510703
20
-22.5025455060
30
0.0000000000
10
2.9435929871
20
-22.4692453268
30
0.0000000000
10
2.9740401057
20
-22.4477907375
30
0.0000000000
10
2.9965267111
20
-22.4381870547
30
0.0000000000
10
3.0045522175
20
-22.4350883485
30
0.0000000000
11
2.8845997885
21
-22.5606840347
31
0.0000000000
11
2.8904212467
21
-22.5448687594
31
0.0000000000
11
2.9143294253
21
-22.5028004019
31
0.0000000000
11
2.9452371347
21
-22.4697404695
31
0.0000000000
11
2.9797700387
21
-22.4461024318
31
0.0000000000
11
3.0045522175
21
-22.4350883485
31
0.0000000000
0
SPLINE
5
386
100
AcDbEntity
8
0
100
AcDbSpline
62
7
6
CONTINUOUS
70
0
71
3
72
9
73
5
74
3
42
0.0000001000
43
0.0000001000
44
0.0000000001
12
0.0357506030
22
-0.0143223844
32
0.0000000000
13
0.0362771814
23
-0.0229313477
33
0.0000000000
40
0.0000000000
40
0.0000000000
40
0.0000000000
40
0.0000000000
40
0.7202091992
40
1.0000000000
40
1.0000000000
40
1.0000000000
40
1.0000000000
10
0.3438264594
20
-22.4343453240
30
0.0000000000
10
0.3524090971
20
-22.4377836950
30
0.0000000000
10
0.3667560319
20
-22.4438232369
30
0.0000000000
10
0.3792610510
20
-22.4511203691
30
0.0000000000
10
0.3826443916
20
-22.4532590292
30
0.0000000000
11
0.3438264594
21
-22.4343453240
31
0.0000000000
11
0.3721192819
21
-22.4471354760
31
0.0000000000
11
0.3826443916
21
-22.4532590292
31
0.0000000000
0
SPLINE
5
387
100
AcDbEntity
8
0
100
AcDbSpline
62
7
6
CONTINUOUS
70
0
71
3
72
8
73
4
74
2
42
0.0000001000
43
0.0000001000
44
0.0000000001
12
0.0107714118
22
-0.0068087701
32
0.0000000000
13
0.0100943598
23
-0.0074589134
33
0.0000000000
40
0.0000000000
40
0.0000000000
40
0.0000000000
40
0.0000000000
40
1.0000000000
40
1.0000000000
40
1.0000000000
40
1.0000000000
10
0.3826443916
20
-22.4532590292
30
0.0000000000
10
0.3862348622
20
-22.4555286192
30
0.0000000000
10
0.3896953157
20
-22.4579074379
30
0.0000000000
10
0.3930601023
20
-22.4603937423
30
0.0000000000
11
0.3826443916
21
-22.4532590292
31
0.0000000000
11
0.3930601023
21
-22.4603937423
31
0.0000000000
0
SPLINE
5
388
100
AcDbEntity
8
0
100
AcDbSpline
62
7
6
CONTINUOUS
70
0
71
3
72
12
73
8
74
6
42
0.0000001000
43
0.0000001000
44
0.0000000001
12
0.1411298273
22
-0.1042834984
32
0.0000000000
13
0.0093631742
23
-0.1772515316
33
0.0000000000
40
0.0000000000
40
0.0000000000
40
0.0000000000
40
0.0000000000
40
0.0727060840
40
0.2909824349
40
0.5168532805
40
0.7525750929
40
1.0000000000
40
1.0000000000
40
1.0000000000
40
1.0000000000
10
0.3930601023
20
-22.4603937423
30
0.0000000000
10
0.3964804346
20
-22.4629210906
30
0.0000000000
10
0.4097735807
20
-22.4734804762
30
0.0000000000
10
0.4315994353
20
-22.4953441910
30
0.0000000000
10
0.4537380466
20
-22.5290969472
30
0.0000000000
10
0.4692974543
20
-22.5683077602
30
0.0000000000
10
0.4739493843
20
-22.5966921735
30
0.0000000000
10
0.4747216118
20
-22.6113109880
30
0.0000000000
11
0.3930601023
21
-22.4603937423
31
0.0000000000
11
0.4030606245
21
-22.4683071481
31
0.0000000000
11
0.4302419180
21
-22.4958107784
31
0.0000000000
11
0.4522437088
21
-22.5292331333
31
0.0000000000
11
0.4676241439
21
-22.5680568584
31
0.0000000000
11
0.4747216118
21
-22.6113109880
31
0.0000000000
0
SPLINE
5
389
100
AcDbEntity
8
0
100
AcDbSpline
62
7
6
CONTINUOUS
70
0
71
3
72
8
73
4
74
2
42
0.0000001000
43
0.0000001000
44
0.0000000001
12
0.0005564086
22
-0.0105332088
32
0.0000000000
13
-0.0000004189
23
-0.0105479302
33
0.0000000000
40
0.0000000000
40
0.0000000000
40
0.0000000000
40
0.0000000000
40
1.0000000000
40
1.0000000000
40
1.0000000000
40
1.0000000000
10
0.4747216118
20
-22.6113109880
30
0.0000000000
10
0.4749070813
20
-22.6148220576
30
0.0000000000
10
0.4749996752
20
-22.6183379055
30
0.0000000000
10
0.4749995356
20
-22.6218538822
30
0.0000000000
11
0.4747216118
21
-22.6113109880
31
0.0000000000
11
0.4749995356
21
-22.6218538822
31
0.0000000000
0
SPLINE
5
38A
100
AcDbEntity
8
0
100
AcDbSpline
62
7
6
CONTINUOUS
70
0
71
3
72
9
73
5
74
3
42
0.0000001000
43
0.0000001000
44
0.0000000001
12
0.0000005827
22
-0.0621791276
32
0.0000000000
13
-0.0190122768
23
-0.0591871160
33
0.0000000000
40
0.0000000000
40
0.0000000000
40
0.0000000000
40
0.0000000000
40
0.4411896172
40
1.0000000000
40
1.0000000000
40
1.0000000000
40
1.0000000000
10
19.3750019749
20
22.6218539536
30
0.0000000000
10
19.3750020606
20
22.6127096918
30
0.0000000000
10
19.3735799062
20
22.5919905023
30
0.0000000000
10
19.3689416307
20
22.5717088263
30
0.0000000000
10
19.3654002115
20
22.5606840347
30
0.0000000000
11
19.3750019749
21
22.6218539536
31
0.0000000000
11
19.3731211687
21
22.5945126705
31
0.0000000000
11
19.3654002115
21
22.5606840347
31
0.0000000000
0
SPLINE
5
38B
100
AcDbEntity
8
0
100
AcDbSpline
62
7
6
CONTINUOUS
70
0
71
3
72
12
73
8
74
6
42
0.0000001000
43
0.0000001000
44
0.0000000001
12
-0.0547940788
22
-0.1705794385
32
0.0000000000
13
-0.1631765675
23
-0.0630036549
33
0.0000000000
40
0.0000000000
40
0.0000000000
40
0.0000000000
40
0.0000000000
40
0.0941099440
40
0.3649293483
40
0.6182308939
40
0.8524511237
40
1.0000000000
40
1.0000000000
40
1.0000000000
40
1.0000000000
10
19.3654002115
20
22.5606840347
30
0.0000000000
10
19.3636813222
20
22.5553329609
30
0.0000000000
10
19.3561486174
20
22.5348652568
30
0.0000000000
10
19.3378489297
20
22.5025455060
30
0.0000000000
10
19.3064070129
20
22.4692453268
30
0.0000000000
10
19.2759598943
20
22.4477907375
30
0.0000000000
10
19.2534732889
20
22.4381870547
30
0.0000000000
10
19.2454477825
20
22.4350883485
30
0.0000000000
11
19.3654002115
21
22.5606840347
31
0.0000000000
11
19.3595787533
21
22.5448687594
31
0.0000000000
11
19.3356705747
21
22.5028004019
31
0.0000000000
11
19.3047628653
21
22.4697404695
31
0.0000000000
11
19.2702299613
21
22.4461024318
31
0.0000000000
11
19.2454477825
21
22.4350883485
31
0.0000000000
0
SPLINE
5
38C
100
AcDbEntity
8
0
100
AcDbSpline
62
7
6
CONTINUOUS
70
0
71
3
72
9
73
5
74
3
42
0.0000001000
43
0.0000001000
44
0.0000000001
12
-0.0357506030
22
0.0143223844
32
0.0000000000
13
-0.0362771814
23
0.0229313477
33
0.0000000000
40
0.0000000000
40
0.0000000000
40
0.0000000000
40
0.0000000000
40
0.7202091992
40
1.0000000000
40
1.0000000000
40
1.0000000000
40
1.0000000000
10
21.9061735406
20
22.4343453240
30
0.0000000000
10
21.8975909029
20
22.4377836950
30
0.0000000000
10
21.8832439681
20
22.4438232369
30
0.0000000000
10
21.8707389490
20
22.4511203691
30
0.0000000000
10
21.8673556084
20
22.4532590292
30
0.0000000000
11
21.9061735406
21
22.4343453240
31
0.0000000000
11
21.8778807181
21
22.4471354760
31
0.0000000000
11
21.8673556084
21
22.4532590292
31
0.0000000000
0
SPLINE
5
38D
100
AcDbEntity
8
0
100
AcDbSpline
62
7
6
CONTINUOUS
70
0
71
3
72
8
73
4
74
2
42
0.0000001000
43
0.0000001000
44
0.0000000001
12
-0.0107714118
22
0.0068087701
32
0.0000000000
13
-0.0100943598
23
0.0074589134
33
0.0000000000
40
0.0000000000
40
0.0000000000
40
0.0000000000
40
0.0000000000
40
1.0000000000
40
1.0000000000
40
1.0000000000
40
1.0000000000
10
21.8673556084
20
22.4532590292
30
0.0000000000
10
21.8637651378
20
22.4555286192
30
0.0000000000
10
21.8603046843
20
22.4579074379
30
0.0000000000
10
21.8569398977
20
22.4603937423
30
0.0000000000
11
21.8673556084
21
22.4532590292
31
0.0000000000
11
21.8569398977
21
22.4603937423
31
0.0000000000
0
SPLINE
5
38E
100
AcDbEntity
8
0
100
AcDbSpline
62
7
6
CONTINUOUS
70
0
71
3
72
12
73
8
74
6
42
0.0000001000
43
0.0000001000
44
0.0000000001
12
-0.1411298273
22
0.1042834984
32
0.0000000000
13
-0.0093631742
23
0.1772515316
33
0.0000000000
40
0.0000000000
40
0.0000000000
40
0.0000000000
40
0.0000000000
40
0.0727060840
40
0.2909824349
40
0.5168532805
40
0.7525750929
40
1.0000000000
40
1.0000000000
40
1.0000000000
40
1.0000000000
10
21.8569398977
20
22.4603937423
30
0.0000000000
10
21.8535195654
20
22.4629210906
30
0.0000000000
10
21.8402264193
20
22.4734804762
30
0.0000000000
10
21.8184005647
20
22.4953441910
30
0.0000000000
10
21.7962619534
20
22.5290969472
30
0.0000000000
10
21.7807025457
20
22.5683077602
30
0.0000000000
10
21.7760506157
20
22.5966921735
30
0.0000000000
10
21.7752783882
20
22.6113109880
30
0.0000000000
11
21.8569398977
21
22.4603937423
31
0.0000000000
11
21.8469393755
21
22.4683071481
31
0.0000000000
11
21.8197580820
21
22.4958107784
31
0.0000000000
11
21.7977562912
21
22.5292331333
31
0.0000000000
11
21.7823758561
21
22.5680568584
31
0.0000000000
11
21.7752783882
21
22.6113109880
31
0.0000000000
0
SPLINE
5
38F
100
AcDbEntity
8
0
100
AcDbSpline
62
7
6
CONTINUOUS
70
0
71
3
72
8
73
4
74
2
42
0.0000001000
43
0.0000001000
44
0.0000000001
12
-0.0005564086
22
0.0105332088
32
0.0000000000
13
0.0000004189
23
0.0105479302
33
0.0000000000
40
0.0000000000
40
0.0000000000
40
0.0000000000
40
0.0000000000
40
1.0000000000
40
1.0000000000
40
1.0000000000
40
1.0000000000
10
21.7752783882
20
22.6113109880
30
0.0000000000
10
21.7750929187
20
22.6148220576
30
0.0000000000
10
21.7750003248
20
22.6183379055
30
0.0000000000
10
21.7750004644
20
22.6218538822
30
0.0000000000
11
21.7752783882
21
22.6113109880
31
0.0000000000
11
21.7750004644
21
22.6218538822
31
0.0000000000
0
SPLINE
5
390
100
AcDbEntity
8
0
100
AcDbSpline
62
7
6
CONTINUOUS
70
0
71
3
72
13
73
9
74
7
42
0.0000001000
43
0.0000001000
44
0.0000000001
12
-0.2206951037
22
0.0819995244
32
0.0000000000
13
-0.0116785717
23
0.2309533958
33
0.0000000000
40
0.0000000000
40
0.0000000000
40
0.0000000000
40
0.0000000000
40
0.0766804461
40
0.2415254630
40
0.4186397998
40
0.6032118824
40
0.7965026280
40
1.0000000000
40
1.0000000000
40
1.0000000000
40
1.0000000000
10
3.0046636272
20
22.4350638194
30
0.0000000000
10
2.9990226275
20
22.4371597395
30
0.0000000000
10
2.9804399071
20
22.4446275421
30
0.0000000000
10
2.9537969536
20
22.4613961609
30
0.0000000000
10
2.9234586766
20
22.4890724918
30
0.0000000000
10
2.8986978586
20
22.5241582978
30
0.0000000000
10
2.8811996667
20
22.5657248944
30
0.0000000000
10
2.8760486194
20
22.5960940731
30
0.0000000000
10
2.8752564332
20
22.6117602095
30
0.0000000000
11
3.0046636272
21
22.4350638194
31
0.0000000000
11
2.9875469176
21
22.4421239602
31
0.0000000000
11
2.9550563810
21
22.4618987032
31
0.0000000000
11
2.9250161678
21
22.4896047615
31
0.0000000000
11
2.9003956733
21
22.5243534724
31
0.0000000000
11
2.8831185846
21
22.5654695683
31
0.0000000000
11
2.8752564332
21
22.6117602095
31
0.0000000000
0
SPLINE
5
391
100
AcDbEntity
8
0
100
AcDbSpline
62
7
6
CONTINUOUS
70
0
71
3
72
8
73
4
74
2
42
0.0000001000
43
0.0000001000
44
0.0000000001
12
-0.0005097467
22
0.0100806617
32
0.0000000000
13
0.0000003243
23
0.0100935380
33
0.0000000000
40
0.0000000000
40
0.0000000000
40
0.0000000000
40
0.0000000000
40
1.0000000000
40
1.0000000000
40
1.0000000000
40
1.0000000000
10
2.8752564332
20
22.6117602095
30
0.0000000000
10
2.8750865176
20
22.6151204300
30
0.0000000000
10
2.8750016937
20
22.6184848349
30
0.0000000000
10
2.8750018018
20
22.6218493476
30
0.0000000000
11
2.8752564332
21
22.6117602095
31
0.0000000000
11
2.8750018018
21
22.6218493476
31
0.0000000000
0
SPLINE
5
392
100
AcDbEntity
8
0
100
AcDbSpline
62
7
6
CONTINUOUS
70
0
71
3
72
9
73
5
74
3
42
0.0000001000
43
0.0000001000
44
0.0000000001
12
0.0000009034
22
-0.0676264951
32
0.0000000000
13
-0.0224545109
23
-0.0637862058
33
0.0000000000
40
0.0000000000
40
0.0000000000
40
0.0000000000
40
0.0000000000
40
0.2531000196
40
1.0000000000
40
1.0000000000
40
1.0000000000
40
1.0000000000
10
0.4749981720
20
22.6218493712
30
0.0000000000
10
0.4749982482
20
22.6161439488
30
0.0000000000
10
0.4740343681
20
22.5936044861
30
0.0000000000
10
0.4692564942
20
22.5713871460
30
0.0000000000
10
0.4636660696
20
22.5555065074
30
0.0000000000
11
0.4749981720
21
22.6218493712
31
0.0000000000
11
0.4742660091
21
22.6047551069
31
0.0000000000
11
0.4636660696
21
22.5555065074
31
0.0000000000
0
SPLINE
5
393
100
AcDbEntity
8
0
100
AcDbSpline
62
7
6
CONTINUOUS
70
0
71
3
72
10
73
6
74
4
42
0.0000001000
43
0.0000001000
44
0.0000000001
12
-0.0399003290
22
-0.1133442899
32
0.0000000000
13
-0.0968280277
23
-0.0708230472
33
0.0000000000
40
0.0000000000
40
0.0000000000
40
0.0000000000
40
0.0000000000
40
0.3959757559
40
0.7671367563
40
1.0000000000
40
1.0000000000
40
1.0000000000
40
1.0000000000
10
0.4636660696
20
22.5555065074
30
0.0000000000
10
0.4583995486
20
22.5405459771
30
0.0000000000
10
0.4447203275
20
22.5127891906
30
0.0000000000
10
0.4192077355
20
22.4816756673
30
0.0000000000
10
0.4005671972
20
22.4660376860
30
0.0000000000
10
0.3930513010
20
22.4605403245
30
0.0000000000
11
0.4636660696
21
22.5555065074
31
0.0000000000
11
0.4427078928
21
22.5129273576
31
0.0000000000
11
0.4144596797
21
22.4785641496
31
0.0000000000
11
0.3930513010
21
22.4605403245
31
0.0000000000
0
SPLINE
5
394
100
AcDbEntity
8
0
100
AcDbSpline
62
7
6
CONTINUOUS
70
0
71
3
72
10
73
6
74
4
42
0.0000001000
43
0.0000001000
44
0.0000000001
12
-0.0450318546
22
-0.0329377065
32
0.0000000000
13
-0.0545623742
23
-0.0192662127
33
0.0000000000
40
0.0000000000
40
0.0000000000
40
0.0000000000
40
0.0000000000
40
0.2411131885
40
0.9149263822
40
1.0000000000
40
1.0000000000
40
1.0000000000
40
1.0000000000
10
0.3930513010
20
22.4605403245
30
0.0000000000
10
0.3894320430
20
22.4578930860
30
0.0000000000
10
0.3754084097
20
22.4483154725
30
0.0000000000
10
0.3591424449
20
22.4398962451
30
0.0000000000
10
0.3454137493
20
22.4348631104
30
0.0000000000
10
0.3438664764
20
22.4343167616
30
0.0000000000
11
0.3930513010
21
22.4605403245
31
0.0000000000
11
0.3819810416
21
22.4529752467
31
0.0000000000
11
0.3484744086
21
22.4360086135
31
0.0000000000
11
0.3438664764
21
22.4343167616
31
0.0000000000
0
SPLINE
5
395
100
AcDbEntity
8
0
100
AcDbSpline
62
7
6
CONTINUOUS
70
0
71
3
72
9
73
5
74
3
42
0.0000001000
43
0.0000001000
44
0.0000000001
12
-0.0000005827
22
0.0621791276
32
0.0000000000
13
0.0190122768
23
0.0591871160
33
0.0000000000
40
0.0000000000
40
0.0000000000
40
0.0000000000
40
0.0000000000
40
0.4411896172
40
1.0000000000
40
1.0000000000
40
1.0000000000
40
1.0000000000
10
21.7749980251
20
-22.6218539536
30
0.0000000000
10
21.7749979394
20
-22.6127096918
30
0.0000000000
10
21.7764200938
20
-22.5919905023
30
0.0000000000
10
21.7810583693
20
-22.5717088263
30
0.0000000000
10
21.7845997885
20
-22.5606840347
30
0.0000000000
11
21.7749980251
21
-22.6218539536
31
0.0000000000
11
21.7768788313
21
-22.5945126705
31
0.0000000000
11
21.7845997885
21
-22.5606840347
31
0.0000000000
0
SPLINE
5
396
100
AcDbEntity
8
0
100
AcDbSpline
62
7
6
CONTINUOUS
70
0
71
3
72
11
73
7
74
5
42
0.0000001000
43
0.0000001000
44
0.0000000001
12
0.0383298063
22
0.1193245143
32
0.0000000000
13
0.0995255416
23
0.0739114597
33
0.0000000000
40
0.0000000000
40
0.0000000000
40
0.0000000000
40
0.0000000000
40
0.1345341441
40
0.5216819335
40
0.8837872034
40
1.0000000000
40
1.0000000000
40
1.0000000000
40
1.0000000000
10
21.7845997885
20
-22.5606840347
30
0.0000000000
10
21.7863186778
20
-22.5553329609
30
0.0000000000
10
21.7938513826
20
-22.5348652568
30
0.0000000000
10
21.8121510703
20
-22.5025455060
30
0.0000000000
10
21.8372524335
20
-22.4759606162
30
0.0000000000
10
21.8526136266
20
-22.4635938967
30
0.0000000000
10
21.8564690071
20
-22.4607307443
30
0.0000000000
11
21.7845997885
21
-22.5606840347
31
0.0000000000
11
21.7904212467
21
-22.5448687594
31
0.0000000000
11
21.8143294253
21
-22.5028004019
31
0.0000000000
11
21.8452371347
21
-22.4697404695
31
0.0000000000
11
21.8564690071
21
-22.4607307443
31
0.0000000000
0
SPLINE
5
397
100
AcDbEntity
8
0
100
AcDbSpline
62
7
6
CONTINUOUS
70
0
71
3
72
9
73
5
74
3
42
0.0000001000
43
0.0000001000
44
0.0000000001
12
0.0441992055
22
0.0328240143
32
0.0000000000
13
0.0500733241
23
0.0190345376
33
0.0000000000
40
0.0000000000
40
0.0000000000
40
0.0000000000
40
0.0000000000
40
0.4922660618
40
1.0000000000
40
1.0000000000
40
1.0000000000
40
1.0000000000
10
21.8564690071
20
-22.4607307443
30
0.0000000000
10
21.8637215967
20
-22.4553446949
30
0.0000000000
10
21.8793403485
20
-22.4454204334
30
0.0000000000
10
21.8977292507
20
-22.4376770829
30
0.0000000000
10
21.9062038927
20
-22.4344555893
30
0.0000000000
11
21.8564690071
21
-22.4607307443
31
0.0000000000
11
21.8797700387
21
-22.4461024318
31
0.0000000000
11
21.9062038927
21
-22.4344555893
31
0.0000000000
0
SPLINE
5
398
100
AcDbEntity
8
0
100
AcDbSpline
62
7
6
CONTINUOUS
70
0
71
3
72
13
73
9
74
7
42
0.0000001000
43
0.0000001000
44
0.0000000001
12
0.1977489480
22
-0.0798592444
32
0.0000000000
13
0.0121905840
23
-0.2307764057
33
0.0000000000
40
0.0000000000
40
0.0000000000
40
0.0000000000
40
0.0000000000
40
0.1252307285
40
0.2877769875
40
0.4554276510
40
0.6289113882
40
0.8099613190
40
1.0000000000
40
1.0000000000
40
1.0000000000
40
1.0000000000
10
19.2453950734
20
-22.4349762071
30
0.0000000000
10
19.2536498217
20
-22.4383098176
30
0.0000000000
10
19.2758405382
20
-22.4477884170
30
0.0000000000
10
19.3039070309
20
-22.4676037501
30
0.0000000000
10
19.3315994353
20
-22.4953441910
30
0.0000000000
10
19.3537380466
20
-22.5290969472
30
0.0000000000
10
19.3692974543
20
-22.5683077602
30
0.0000000000
10
19.3739493843
20
-22.5966921735
30
0.0000000000
10
19.3747216118
20
-22.6113109880
30
0.0000000000
11
19.2453950734
21
-22.4349762071
31
0.0000000000
11
19.2721192819
21
-22.4471354760
31
0.0000000000
11
19.3030606245
21
-22.4683071481
31
0.0000000000
11
19.3302419180
21
-22.4958107784
31
0.0000000000
11
19.3522437088
21
-22.5292331333
31
0.0000000000
11
19.3676241439
21
-22.5680568584
31
0.0000000000
11
19.3747216118
21
-22.6113109880
31
0.0000000000
0
SPLINE
5
399
100
AcDbEntity
8
0
100
AcDbSpline
62
7
6
CONTINUOUS
70
0
71
3
72
8
73
4
74
2
42
0.0000001000
43
0.0000001000
44
0.0000000001
12
0.0005564086
22
-0.0105332088
32
0.0000000000
13
-0.0000004189
23
-0.0105479302
33
0.0000000000
40
0.0000000000
40
0.0000000000
40
0.0000000000
40
0.0000000000
40
1.0000000000
40
1.0000000000
40
1.0000000000
40
1.0000000000
10
19.3747216118
20
-22.6113109880
30
0.0000000000
10
19.3749070813
20
-22.6148220576
30
0.0000000000
10
19.3749996752
20
-22.6183379055
30
0.0000000000
10
19.3749995356
20
-22.6218538822
30
0.0000000000
11
19.3747216118
21
-22.6113109880
31
0.0000000000
11
19.3749995356
21
-22.6218538822
31
0.0000000000
0
SPLINE
5
39A
100
AcDbEntity
8
0
100
AcDbSpline
62
7
6
CONTINUOUS
70
0
71
3
72
9
73
5
74
3
42
0.0000001000
43
0.0000001000
44
0.0000000001
12
0.0152781656
22
0.1420694081
32
0.0000000000
13
0.0546660936
23
0.1319416300
33
0.0000000000
40
0.0000000000
40
0.0000000000
40
0.0000000000
40
0.0000000000
40
0.3123613668
40
1.0000000000
40
1.0000000000
40
1.0000000000
40
1.0000000000
10
-0.0221281481
20
21.9357927385
30
0.0000000000
10
-0.0205373785
20
21.9505850700
30
0.0000000000
10
-0.0133364694
20
21.9977330912
30
0.0000000000
10
0.0005535371
20
22.0434988614
30
0.0000000000
10
0.0130837097
20
22.0737415821
30
0.0000000000
11
-0.0221281481
21
21.9357927385
31
0.0000000000
11
-0.0153861542
21
21.9799046450
31
0.0000000000
11
0.0130837097
21
22.0737415821
31
0.0000000000
0
SPLINE
5
39B
100
AcDbEntity
8
0
100
AcDbSpline
62
7
6
CONTINUOUS
70
0
71
3
72
8
73
4
74
2
42
0.0000001000
43
0.0000001000
44
0.0000000001
12
0.0051970411
22
0.0125435353
32
0.0000000000
13
0.0055363097
23
0.0123982661
33
0.0000000000
40
0.0000000000
40
0.0000000000
40
0.0000000000
40
0.0000000000
40
1.0000000000
40
1.0000000000
40
1.0000000000
40
1.0000000000
10
0.0130837097
20
22.0737415821
30
0.0000000000
10
0.0148160568
20
22.0779227606
30
0.0000000000
10
0.0166053424
20
22.0820804746
30
0.0000000000
10
0.0184507790
20
22.0862132300
30
0.0000000000
11
0.0130837097
21
22.0737415821
31
0.0000000000
11
0.0184507790
21
22.0862132300
31
0.0000000000
0
SPLINE
5
39C
100
AcDbEntity
8
0
100
AcDbSpline
62
7
6
CONTINUOUS
70
0
71
3
72
8
73
4
74
2
42
0.0000001000
43
0.0000001000
44
0.0000000001
12
-0.0000631258
22
0.1553522067
32
0.0000000000
13
0.0478505589
23
0.1486293504
33
0.0000000000
40
0.0000000000
40
0.0000000000
40
0.0000000000
40
0.0000000000
40
1.0000000000
40
1.0000000000
40
1.0000000000
40
1.0000000000
10
-0.0028267672
20
21.9406620770
30
0.0000000000
10
-0.0028478091
20
21.9924461459
30
0.0000000000
10
0.0053071859
20
22.0445929527
30
0.0000000000
10
0.0212573722
20
22.0941360695
30
0.0000000000
11
-0.0028267672
21
21.9406620770
31
0.0000000000
11
0.0212573722
21
22.0941360695
31
0.0000000000
0
SPLINE
5
39D
100
AcDbEntity
8
0
100
AcDbSpline
62
7
6
CONTINUOUS
70
0
71
3
72
8
73
4
74
2
42
0.0000001000
43
0.0000001000
44
0.0000000001
12
0.0159405922
22
0.0495133165
32
0.0000000000
13
0.0210004588
23
0.0475400632
33
0.0000000000
40
0.0000000000
40
0.0000000000
40
0.0000000000
40
0.0000000000
40
1.0000000000
40
1.0000000000
40
1.0000000000
40
1.0000000000
10
0.0212573722
20
22.0941360695
30
0.0000000000
10
0.0265709029
20
22.1106405083
30
0.0000000000
10
0.0327495244
20
22.1268559961
30
0.0000000000
10
0.0397496773
20
22.1427026839
30
0.0000000000
11
0.0212573722
21
22.0941360695
31
0.0000000000
11
0.0397496773
21
22.1427026839
31
0.0000000000
0
SPLINE
5
39E
100
AcDbEntity
8
0
100
AcDbSpline
62
7
6
CONTINUOUS
70
0
71
3
72
9
73
5
74
3
42
0.0000001000
43
0.0000001000
44
0.0000000001
12
0.0447496063
22
0.1013025065
32
0.0000000000
13
0.0658651189
23
0.0889385142
33
0.0000000000
40
0.0000000000
40
0.0000000000
40
0.0000000000
40
0.0000000000
40
0.9393105386
40
1.0000000000
40
1.0000000000
40
1.0000000000
40
1.0000000000
10
0.0397496773
20
22.1427026839
30
0.0000000000
10
0.0537609363
20
22.1744208545
30
0.0000000000
10
0.0721813925
20
22.2066153843
30
0.0000000000
10
0.0939362734
20
22.2364096047
30
0.0000000000
10
0.0952687129
20
22.2382088148
30
0.0000000000
11
0.0397496773
21
22.1427026839
31
0.0000000000
11
0.0913079707
21
22.2327843734
31
0.0000000000
11
0.0952687129
21
22.2382088148
31
0.0000000000
0
SPLINE
5
39F
100
AcDbEntity
8
0
100
AcDbSpline
62
7
6
CONTINUOUS
70
0
71
3
72
10
73
6
74
4
42
0.0000001000
43
0.0000001000
44
0.0000000001
12
-0.0001309039
22
0.3150247530
32
0.0000000000
13
0.1868965360
23
0.2549287980
33
0.0000000000
40
0.0000000000
40
0.0000000000
40
0.0000000000
40
0.0000000000
40
0.4827878083
40
0.9655370938
40
1.0000000000
40
1.0000000000
40
1.0000000000
40
1.0000000000
10
0.0146265803
20
21.9642142737
30
0.0000000000
10
0.0146055140
20
22.0149109770
30
0.0000000000
10
0.0302253220
20
22.1169812458
30
0.0000000000
10
0.0773960227
20
22.2125766432
30
0.0000000000
10
0.1091368491
20
22.2568792872
30
0.0000000000
10
0.1112838483
20
22.2598078163
30
0.0000000000
11
0.0146265803
21
21.9642142737
31
0.0000000000
11
0.0377078555
21
22.1145427816
31
0.0000000000
11
0.1049395409
21
22.2509525128
31
0.0000000000
11
0.1112838483
21
22.2598078163
31
0.0000000000
0
SPLINE
5
3A0
100
AcDbEntity
8
0
100
AcDbSpline
62
7
6
CONTINUOUS
70
0
71
3
72
11
73
7
74
5
42
0.0000001000
43
0.0000001000
44
0.0000000001
12
-0.3922423365
22
0.0000000000
32
0.0000000000
13
-0.2777975873
23
-0.2777975867
33
0.0000000000
40
0.0000000000
40
0.0000000000
40
0.0000000000
40
0.0000000000
40
0.2500000360
40
0.5000003710
40
0.7499998934
40
1.0000000000
40
1.0000000000
40
1.0000000000
40
1.0000000000
10
0.5275936753
20
22.4349101299
30
0.0000000000
10
0.4949068092
20
22.4349101299
30
0.0000000000
10
0.4293518542
20
22.4284591915
30
0.0000000000
10
0.3349410591
20
22.3998053188
30
0.0000000000
10
0.2478957786
20
22.3532782918
30
0.0000000000
10
0.1970377777
20
22.3115371659
30
0.0000000000
10
0.1738879689
20
22.2883873571
30
0.0000000000
11
0.5275936753
21
22.4349101299
31
0.0000000000
11
0.4300054849
21
22.4252962840
31
0.0000000000
11
0.3361685477
21
22.3968264201
31
0.0000000000
11
0.2496888787
21
22.3505975519
31
0.0000000000
11
0.1738879689
21
22.2883873571
31
0.0000000000
0
SPLINE
5
3A1
100
AcDbEntity
8
0
100
AcDbSpline
62
7
6
CONTINUOUS
70
0
71
3
72
8
73
4
74
2
42
0.0000001000
43
0.0000001000
44
0.0000000001
12
-0.0058907169
22
0.0075535693
32
0.0000000000
13
-0.0057443322
23
0.0076652095
33
0.0000000000
40
0.0000000000
40
0.0000000000
40
0.0000000000
40
0.0000000000
40
1.0000000000
40
1.0000000000
40
1.0000000000
40
1.0000000000
10
0.1027765304
20
-22.2480884143
30
0.0000000000
10
0.1008129581
20
-22.2455705579
30
0.0000000000
10
0.0988735891
20
-22.2430338857
30
0.0000000000
10
0.0969588117
20
-22.2404788158
30
0.0000000000
11
0.1027765304
21
-22.2480884143
31
0.0000000000
11
0.0969588117
21
-22.2404788158
31
0.0000000000
0
SPLINE
5
3A2
100
AcDbEntity
8
0
100
AcDbSpline
62
7
6
CONTINUOUS
70
0
71
3
72
8
73
4
74
2
42
0.0000001000
43
0.0000001000
44
0.0000000001
12
-0.0477356119
22
0.0173664327
32
0.0000000000
13
-0.0458767166
23
0.0222263650
33
0.0000000000
40
0.0000000000
40
0.0000000000
40
0.0000000000
40
0.0000000000
40
1.0000000000
40
1.0000000000
40
1.0000000000
40
1.0000000000
10
0.3434429794
20
-22.4339535759
30
0.0000000000
10
0.3275311088
20
-22.4281647649
30
0.0000000000
10
0.3118825681
20
-22.4215421009
30
0.0000000000
10
0.2965903292
20
-22.4141333126
30
0.0000000000
11
0.3434429794
21
-22.4339535759
31
0.0000000000
11
0.2965903292
21
-22.4141333126
31
0.0000000000
0
SPLINE
5
3A3
100
AcDbEntity
8
0
100
AcDbSpline
62
7
6
CONTINUOUS
70
0
71
3
72
9
73
5
74
3
42
0.0000001000
43
0.0000001000
44
0.0000000001
12
-0.1830273253
22
0.0886731319
32
0.0000000000
13
-0.1329818246
23
0.1538838594
33
0.0000000000
40
0.0000000000
40
0.0000000000
40
0.0000000000
40
0.0000000000
40
0.4998218486
40
1.0000000000
40
1.0000000000
40
1.0000000000
40
1.0000000000
10
0.2965903292
20
-22.4141333126
30
0.0000000000
10
0.2660966439
20
-22.3993597230
30
0.0000000000
10
0.2079220613
20
-22.3635480729
30
0.0000000000
10
0.1583693341
20
-22.3167389255
30
0.0000000000
10
0.1361977997
20
-22.2910824773
30
0.0000000000
11
0.2965903292
21
-22.4141333126
31
0.0000000000
11
0.2100967172
21
-22.3608134172
31
0.0000000000
11
0.1361977997
21
-22.2910824773
31
0.0000000000
0
SPLINE
5
3A4
100
AcDbEntity
8
0
100
AcDbSpline
62
7
6
CONTINUOUS
70
0
71
3
72
8
73
4
74
2
42
0.0000001000
43
0.0000001000
44
0.0000000001
12
-0.0212387299
22
0.0245770257
32
0.0000000000
13
-0.0195952227
23
0.0258999135
33
0.0000000000
40
0.0000000000
40
0.0000000000
40
0.0000000000
40
0.0000000000
40
1.0000000000
40
1.0000000000
40
1.0000000000
40
1.0000000000
10
0.1361977997
20
-22.2910824773
30
0.0000000000
10
0.1291182231
20
-22.2828901354
30
0.0000000000
10
0.1223051308
20
-22.2744690462
30
0.0000000000
10
0.1157733899
20
-22.2658357417
30
0.0000000000
11
0.1361977997
21
-22.2910824773
31
0.0000000000
11
0.1157733899
21
-22.2658357417
31
0.0000000000
0
SPLINE
5
3A5
100
AcDbEntity
8
0
100
AcDbSpline
62
7
6
CONTINUOUS
70
0
71
3
72
8
73
4
74
2
42
0.0000001000
43
0.0000001000
44
0.0000000001
12
0.0058907169
22
-0.0075535693
32
0.0000000000
13
0.0057443322
23
-0.0076652095
33
0.0000000000
40
0.0000000000
40
0.0000000000
40
0.0000000000
40
0.0000000000
40
1.0000000000
40
1.0000000000
40
1.0000000000
40
1.0000000000
10
22.1472234696
20
22.2480884143
30
0.0000000000
10
22.1491870419
20
22.2455705579
30
0.0000000000
10
22.1511264109
20
22.2430338857
30
0.0000000000
10
22.1530411883
20
22.2404788158
30
0.0000000000
11
22.1472234696
21
22.2480884143
31
0.0000000000
11
22.1530411883
21
22.2404788158
31
0.0000000000
0
SPLINE
5
3A6
100
AcDbEntity
8
0
100
AcDbSpline
62
7
6
CONTINUOUS
70
0
71
3
72
8
73
4
74
2
42
0.0000001000
43
0.0000001000
44
0.0000000001
12
0.0477356119
22
-0.0173664327
32
0.0000000000
13
0.0458767166
23
-0.0222263650
33
0.0000000000
40
0.0000000000
40
0.0000000000
40
0.0000000000
40
0.0000000000
40
1.0000000000
40
1.0000000000
40
1.0000000000
40
1.0000000000
10
21.9065570206
20
22.4339535759
30
0.0000000000
10
21.9224688912
20
22.4281647649
30
0.0000000000
10
21.9381174319
20
22.4215421009
30
0.0000000000
10
21.9534096708
20
22.4141333126
30
0.0000000000
11
21.9065570206
21
22.4339535759
31
0.0000000000
11
21.9534096708
21
22.4141333126
31
0.0000000000
0
SPLINE
5
3A7
100
AcDbEntity
8
0
100
AcDbSpline
62
7
6
CONTINUOUS
70
0
71
3
72
9
73
5
74
3
42
0.0000001000
43
0.0000001000
44
0.0000000001
12
0.1830273253
22
-0.0886731319
32
0.0000000000
13
0.1329818246
23
-0.1538838594
33
0.0000000000
40
0.0000000000
40
0.0000000000
40
0.0000000000
40
0.0000000000
40
0.4998218486
40
1.0000000000
40
1.0000000000
40
1.0000000000
40
1.0000000000
10
21.9534096708
20
22.4141333126
30
0.0000000000
10
21.9839033561
20
22.3993597230
30
0.0000000000
10
22.0420779387
20
22.3635480729
30
0.0000000000
10
22.0916306659
20
22.3167389255
30
0.0000000000
10
22.1138022003
20
22.2910824773
30
0.0000000000
11
21.9534096708
21
22.4141333126
31
0.0000000000
11
22.0399032828
21
22.3608134172
31
0.0000000000
11
22.1138022003
21
22.2910824773
31
0.0000000000
0
SPLINE
5
3A8
100
AcDbEntity
8
0
100
AcDbSpline
62
7
6
CONTINUOUS
70
0
71
3
72
8
73
4
74
2
42
0.0000001000
43
0.0000001000
44
0.0000000001
12
0.0212387299
22
-0.0245770257
32
0.0000000000
13
0.0195952227
23
-0.0258999134
33
0.0000000000
40
0.0000000000
40
0.0000000000
40
0.0000000000
40
0.0000000000
40
1.0000000000
40
1.0000000000
40
1.0000000000
40
1.0000000000
10
22.1138022003
20
22.2910824773
30
0.0000000000
10
22.1208817769
20
22.2828901354
30
0.0000000000
10
22.1276948692
20
22.2744690462
30
0.0000000000
10
22.1342266101
20
22.2658357417
30
0.0000000000
11
22.1138022003
21
22.2910824773
31
0.0000000000
11
22.1342266101
21
22.2658357417
31
0.0000000000
0
SPLINE
5
3A9
100
AcDbEntity
8
0
100
AcDbSpline
62
7
6
CONTINUOUS
70
0
71
3
72
9
73
5
74
3
42
0.0000001000
43
0.0000001000
44
0.0000000001
12
0.0000000000
22
-0.1961213137
32
0.0000000000
13
-0.0751809908
23
-0.1814562158
33
0.0000000000
40
0.0000000000
40
0.0000000000
40
0.0000000000
40
0.0000000000
40
0.4999997011
40
1.0000000000
40
1.0000000000
40
1.0000000000
40
1.0000000000
10
22.2750000000
20
-21.8823164546
30
0.0000000000
10
22.2750000000
20
-21.9150033207
30
0.0000000000
10
22.2685490616
20
-21.9805582757
30
0.0000000000
10
22.2494464629
20
-22.0434988614
30
0.0000000000
10
22.2369162903
20
-22.0737415821
30
0.0000000000
11
22.2750000000
21
-21.8823164546
31
0.0000000000
11
22.2653861542
21
-21.9799046450
31
0.0000000000
11
22.2369162903
21
-22.0737415821
31
0.0000000000
0
SPLINE
5
3AA
100
AcDbEntity
8
0
100
AcDbSpline
62
7
6
CONTINUOUS
70
0
71
3
72
8
73
4
74
2
42
0.0000001000
43
0.0000001000
44
0.0000000001
12
-0.0052270958
22
-0.0126160750
32
0.0000000000
13
-0.0055702859
23
-0.0124690945
33
0.0000000000
40
0.0000000000
40
0.0000000000
40
0.0000000000
40
0.0000000000
40
1.0000000000
40
1.0000000000
40
1.0000000000
40
1.0000000000
10
22.2369162903
20
-22.0737415821
30
0.0000000000
10
22.2351739250
20
-22.0779469405
30
0.0000000000
10
22.2333739607
20
-22.0821285622
30
0.0000000000
10
22.2315171987
20
-22.0862849271
30
0.0000000000
11
22.2369162903
21
-22.0737415821
31
0.0000000000
11
22.2315171987
21
-22.0862849271
31
0.0000000000
0
SPLINE
5
3AB
100
AcDbEntity
8
0
100
AcDbSpline
62
7
6
CONTINUOUS
70
0
71
3
72
9
73
5
74
3
42
0.0000001000
43
0.0000001000
44
0.0000000001
12
-0.0646228967
22
-0.1310406053
32
0.0000000000
13
-0.0996034893
23
-0.1068954192
33
0.0000000000
40
0.0000000000
40
0.0000000000
40
0.0000000000
40
0.0000000000
40
0.4484552207
40
1.0000000000
40
1.0000000000
40
1.0000000000
40
1.0000000000
10
22.2234241895
20
-22.1035136367
30
0.0000000000
10
22.2137640310
20
-22.1231022512
30
0.0000000000
10
22.1893652608
20
-22.1653773760
30
0.0000000000
10
22.1590339917
20
-22.2036845597
30
0.0000000000
10
22.1407220635
20
-22.2233370965
30
0.0000000000
11
22.2234241895
21
-22.1035136367
31
0.0000000000
11
22.1906874221
21
-22.1602212512
31
0.0000000000
11
22.1407220635
21
-22.2233370965
31
0.0000000000
0
SPLINE
5
3AC
100
AcDbEntity
8
0
100
AcDbSpline
62
7
6
CONTINUOUS
70
0
71
3
72
10
73
6
74
4
42
0.0000001000
43
0.0000001000
44
0.0000000001
12
0.0001295210
22
-0.3160926902
32
0.0000000000
13
-0.1881224883
23
-0.2554140664
33
0.0000000000
40
0.0000000000
40
0.0000000000
40
0.0000000000
40
0.0000000000
40
0.4914778745
40
0.9829156018
40
1.0000000000
40
1.0000000000
40
1.0000000000
40
1.0000000000
10
22.2528249329
20
-21.9406654676
30
0.0000000000
10
22.2528461518
20
-21.9924496555
30
0.0000000000
10
22.2365371296
20
-22.0967393141
30
0.0000000000
10
22.1882242191
20
-22.1922467587
30
0.0000000000
10
22.1565719741
20
-22.2357149047
30
0.0000000000
10
22.1555006543
20
-22.2371694366
30
0.0000000000
11
22.2528249329
21
-21.9406654676
31
0.0000000000
11
22.2287412039
21
-22.0941398858
31
0.0000000000
11
22.1586907670
21
-22.2327884221
31
0.0000000000
11
22.1555006543
21
-22.2371694366
31
0.0000000000
0
SPLINE
5
3AD
100
AcDbEntity
8
0
100
AcDbSpline
62
7
6
CONTINUOUS
70
0
71
3
72
11
73
7
74
5
42
0.0000001000
43
0.0000001000
44
0.0000000001
12
0.3922423365
22
0.0000000000
32
0.0000000000
13
0.2777975873
23
0.2777975867
33
0.0000000000
40
0.0000000000
40
0.0000000000
40
0.0000000000
40
0.0000000000
40
0.2500000360
40
0.5000003710
40
0.7499998934
40
1.0000000000
40
1.0000000000
40
1.0000000000
40
1.0000000000
10
21.7224063247
20
-22.4349101299
30
0.0000000000
10
21.7550931908
20
-22.4349101299
30
0.0000000000
10
21.8206481458
20
-22.4284591915
30
0.0000000000
10
21.9150589409
20
-22.3998053188
30
0.0000000000
10
22.0021042214
20
-22.3532782918
30
0.0000000000
10
22.0529622223
20
-22.3115371659
30
0.0000000000
10
22.0761120311
20
-22.2883873571
30
0.0000000000
11
21.7224063247
21
-22.4349101299
31
0.0000000000
11
21.8199945151
21
-22.4252962840
31
0.0000000000
11
21.9138314523
21
-22.3968264201
31
0.0000000000
11
22.0003111213
21
-22.3505975519
31
0.0000000000
11
22.0761120311
21
-22.2883873571
31
0.0000000000
0
SPLINE
5
3AE
100
AcDbEntity
8
0
100
AcDbSpline
62
7
6
CONTINUOUS
70
0
71
3
72
11
73
7
74
5
42
0.0000001000
43
0.0000001000
44
0.0000000001
12
0.2777975879
22
0.2777975874
32
0.0000000000
13
0.0000000000
23
0.3922423374
33
0.0000000000
40
0.0000000000
40
0.0000000000
40
0.0000000000
40
0.0000000000
40
0.2499994775
40
0.4999992599
40
0.7499998477
40
1.0000000000
40
1.0000000000
40
1.0000000000
40
1.0000000000
10
22.0761120311
20
-22.2883873571
30
0.0000000000
10
22.0992617817
20
-22.2652376065
30
0.0000000000
10
22.1410028888
20
-22.2143796547
30
0.0000000000
10
22.1875299437
20
-22.1273344047
30
0.0000000000
10
22.2161838590
20
-22.0329235344
30
0.0000000000
10
22.2226348052
20
-21.9673685308
30
0.0000000000
10
22.2226348052
20
-21.9346816494
30
0.0000000000
11
22.0761120311
21
-22.2883873571
31
0.0000000000
11
22.1383220891
21
-22.2125866527
31
0.0000000000
11
22.1845510396
21
-22.1261069117
31
0.0000000000
11
22.2130209504
21
-22.0322698849
31
0.0000000000
11
22.2226348052
21
-21.9346816494
31
0.0000000000
0
SPLINE
5
3AF
100
AcDbEntity
8
0
100
AcDbSpline
62
9
6
CONTINUOUS
70
0
71
3
72
11
73
7
74
5
42
0.0000001000
43
0.0000001000
44
0.0000000001
12
0.0000000000
22
-0.3645143837
32
0.0000000000
13
0.3645143837
23
0.0000000000
33
0.0000000000
40
0.0000000000
40
0.0000000000
40
0.0000000000
40
0.0000000000
40
0.2320556365
40
0.4757923621
40
0.7332637475
40
1.0000000000
40
1.0000000000
40
1.0000000000
40
1.0000000000
10
0.4750000000
20
23.8443375673
30
0.0000000000
10
0.4750000000
20
23.8161416949
30
0.0000000000
10
0.4886662590
20
23.7576044349
30
0.0000000000
10
0.5454435929
20
23.6857507220
30
0.0000000000
10
0.6283360856
20
23.6386472606
30
0.0000000000
10
0.6925902664
20
23.6278312164
30
0.0000000000
10
0.7250000000
20
23.6278312164
30
0.0000000000
11
0.4750000000
21
23.8443375673
31
0.0000000000
11
0.4938434561
21
23.7618755205
31
0.0000000000
11
0.5479963906
21
23.6914412243
31
0.0000000000
11
0.6291865442
21
23.6443629782
31
0.0000000000
11
0.7250000000
21
23.6278312164
31
0.0000000000
0
SPLINE
5
3B0
100
AcDbEntity
8
0
100
AcDbSpline
62
9
6
CONTINUOUS
70
0
71
3
72
9
73
5
74
3
42
0.0000001000
43
0.0000001000
44
0.0000000001
12
0.0002601681
22
-0.0484178554
32
0.0000000000
13
-0.0426578516
23
-0.0057450990
33
0.0000000000
40
0.0000000000
40
0.0000000000
40
0.0000000000
40
0.0000000000
40
0.2622658604
40
1.0000000000
40
1.0000000000
40
1.0000000000
40
1.0000000000
10
2.8750000181
20
-22.6218524335
30
0.0000000000
10
2.8750227625
20
-22.6260852170
30
0.0000000000
10
2.8494329131
20
-22.6216500432
30
0.0000000000
10
2.8373428712
20
-22.6250715988
30
0.0000000000
10
2.8268528200
20
-22.6264843840
30
0.0000000000
11
2.8750000181
21
-22.6218524335
31
0.0000000000
11
2.8625286372
21
-22.6242992401
31
0.0000000000
11
2.8268528200
21
-22.6264843840
31
0.0000000000
0
SPLINE
5
3B1
100
AcDbEntity
8
0
100
AcDbSpline
62
9
6
CONTINUOUS
70
0
71
3
72
10
73
6
74
4
42
0.0000001000
43
0.0000001000
44
0.0000000001
12
-0.1777566390
22
-0.0239400121
32
0.0000000000
13
-0.2018896317
23
-0.0000009296
33
0.0000000000
40
0.0000000000
40
0.0000000000
40
0.0000000000
40
0.0000000000
40
0.2721745567
40
0.6156081544
40
1.0000000000
40
1.0000000000
40
1.0000000000
40
1.0000000000
10
2.8268528200
20
-22.6264843840
30
0.0000000000
10
2.8107258752
20
-22.6286563380
30
0.0000000000
10
2.7658526026
20
-22.6276275955
30
0.0000000000
10
2.7003034909
20
-22.6297623657
30
0.0000000000
10
2.6508682427
20
-22.6297039569
30
0.0000000000
10
2.6250000000
20
-22.6297040760
30
0.0000000000
11
2.8268528200
21
-22.6264843840
31
0.0000000000
11
2.7719305335
21
-22.6282046544
31
0.0000000000
11
2.7026037577
21
-22.6293159774
31
0.0000000000
11
2.6250000000
21
-22.6297040760
31
0.0000000000
0
SPLINE
5
3B2
100
AcDbEntity
8
0
100
AcDbSpline
62
9
6
CONTINUOUS
70
0
71
3
72
10
73
6
74
4
42
0.0000001000
43
0.0000001000
44
0.0000000001
12
-0.0719830237
22
-0.0039034648
32
0.0000000000
13
-0.0713783714
23
-0.0023117232
33
0.0000000000
40
0.0000000000
40
0.0000000000
40
0.0000000000
40
0.0000000000
40
0.4262895297
40
0.8686292396
40
1.0000000000
40
1.0000000000
40
1.0000000000
40
1.0000000000
10
0.4628554967
20
-22.4306657375
30
0.0000000000
10
0.4526269603
20
-22.4312204063
30
0.0000000000
10
0.4317993820
20
-22.4323975304
30
0.0000000000
10
0.4076096126
20
-22.4337069428
30
0.0000000000
10
0.3940234458
20
-22.4341541863
30
0.0000000000
10
0.3908977688
20
-22.4342554173
30
0.0000000000
11
0.4628554967
21
-22.4306657375
31
0.0000000000
11
0.4321398224
21
-22.4323662111
31
0.0000000000
11
0.4002607848
21
-22.4339334239
31
0.0000000000
11
0.3908977688
21
-22.4342554173
31
0.0000000000
0
SPLINE
5
3B3
100
AcDbEntity
8
0
100
AcDbSpline
62
9
6
CONTINUOUS
70
0
71
3
72
11
73
7
74
5
42
0.0000001000
43
0.0000001000
44
0.0000000001
12
-0.0463032329
22
-0.0014996176
32
0.0000000000
13
-0.0277297771
23
0.0274165715
33
0.0000000000
40
0.0000000000
40
0.0000000000
40
0.0000000000
40
0.0000000000
40
0.3441538037
40
0.7238529039
40
0.9414902551
40
1.0000000000
40
1.0000000000
40
1.0000000000
40
1.0000000000
10
0.3908977688
20
-22.4342554173
30
0.0000000000
10
0.3855859576
20
-22.4344274503
30
0.0000000000
10
0.3743246871
20
-22.4347821117
30
0.0000000000
10
0.3585880994
20
-22.4356405433
30
0.0000000000
10
0.3504449291
20
-22.4342208034
30
0.0000000000
10
0.3442237296
20
-22.4349896821
30
0.0000000000
10
0.3436829088
20
-22.4344549699
30
0.0000000000
11
0.3908977688
21
-22.4342554173
31
0.0000000000
11
0.3746883386
21
-22.4348337163
31
0.0000000000
11
0.3569167283
21
-22.4350457667
31
0.0000000000
11
0.3467346496
21
-22.4347252171
31
0.0000000000
11
0.3436829088
21
-22.4344549699
31
0.0000000000
0
SPLINE
5
3B4
100
AcDbEntity
8
0
100
AcDbSpline
62
9
6
CONTINUOUS
70
0
71
3
72
10
73
6
74
4
42
0.0000001000
43
0.0000001000
44
0.0000000001
12
-0.0711468823
22
0.0038665503
32
0.0000000000
13
-0.0705447714
23
0.0022652218
33
0.0000000000
40
0.0000000000
40
0.0000000000
40
0.0000000000
40
0.0000000000
40
0.4300164758
40
0.8682270936
40
1.0000000000
40
1.0000000000
40
1.0000000000
40
1.0000000000
10
0.4628485049
20
22.4306643558
30
0.0000000000
10
0.4526503944
20
22.4312185826
30
0.0000000000
10
0.4320769141
20
22.4323711275
30
0.0000000000
10
0.4081738229
20
22.4336862760
30
0.0000000000
10
0.3948297897
20
22.4341213099
30
0.0000000000
10
0.3917311598
20
22.4342208082
30
0.0000000000
11
0.4628485049
21
22.4306643558
31
0.0000000000
11
0.4322269691
21
22.4323576259
31
0.0000000000
11
0.4010147128
21
22.4339033479
31
0.0000000000
11
0.3917311598
21
22.4342208082
31
0.0000000000
0
SPLINE
5
3B5
100
AcDbEntity
8
0
100
AcDbSpline
62
9
6
CONTINUOUS
70
0
71
3
72
11
73
7
74
5
42
0.0000001000
43
0.0000001000
44
0.0000000001
12
-0.0471335636
22
0.0015134782
32
0.0000000000
13
-0.0285523330
23
-0.0277523212
33
0.0000000000
40
0.0000000000
40
0.0000000000
40
0.0000000000
40
0.0000000000
40
0.3425270792
40
0.7260705254
40
0.9431346451
40
1.0000000000
40
1.0000000000
40
1.0000000000
40
1.0000000000
10
0.3917311598
20
22.4342208082
30
0.0000000000
10
0.3863496525
20
22.4343936106
30
0.0000000000
10
0.3748548848
20
22.4347530284
30
0.0000000000
10
0.3588074313
20
22.4356821262
30
0.0000000000
10
0.3504791838
20
22.4342022927
30
0.0000000000
10
0.3442266037
20
22.4349796501
30
0.0000000000
10
0.3436853909
20
22.4344536015
30
0.0000000000
11
0.3917311598
21
22.4342208082
31
0.0000000000
11
0.3753129872
21
22.4348119190
31
0.0000000000
11
0.3570397195
21
22.4350535638
31
0.0000000000
11
0.3467026472
21
22.4347169745
31
0.0000000000
11
0.3436853909
21
22.4344536015
31
0.0000000000
0
SPLINE
5
3B6
100
AcDbEntity
8
0
100
AcDbSpline
62
9
6
CONTINUOUS
70
0
71
3
72
9
73
5
74
3
42
0.0000001000
43
0.0000001000
44
0.0000000001
12
-0.0002601681
22
0.0484178554
32
0.0000000000
13
0.0426578516
23
0.0057450990
33
0.0000000000
40
0.0000000000
40
0.0000000000
40
0.0000000000
40
0.0000000000
40
0.2622658604
40
1.0000000000
40
1.0000000000
40
1.0000000000
40
1.0000000000
10
19.3749999819
20
22.6218524335
30
0.0000000000
10
19.3749772375
20
22.6260852170
30
0.0000000000
10
19.4005670869
20
22.6216500432
30
0.0000000000
10
19.4126571288
20
22.6250715988
30
0.0000000000
10
19.4231471800
20
22.6264843840
30
0.0000000000
11
19.3749999819
21
22.6218524335
31
0.0000000000
11
19.3874713628
21
22.6242992401
31
0.0000000000
11
19.4231471800
21
22.6264843840
31
0.0000000000
0
SPLINE
5
3B7
100
AcDbEntity
8
0
100
AcDbSpline
62
9
6
CONTINUOUS
70
0
71
3
72
10
73
6
74
4
42
0.0000001000
43
0.0000001000
44
0.0000000001
12
0.1777566390
22
0.0239400121
32
0.0000000000
13
0.2018896317
23
0.0000009296
33
0.0000000000
40
0.0000000000
40
0.0000000000
40
0.0000000000
40
0.0000000000
40
0.2721745567
40
0.6156081544
40
1.0000000000
40
1.0000000000
40
1.0000000000
40
1.0000000000
10
19.4231471800
20
22.6264843840
30
0.0000000000
10
19.4392741248
20
22.6286563380
30
0.0000000000
10
19.4841473974
20
22.6276275955
30
0.0000000000
10
19.5496965091
20
22.6297623657
30
0.0000000000
10
19.5991317573
20
22.6297039569
30
0.0000000000
10
19.6250000000
20
22.6297040760
30
0.0000000000
11
19.4231471800
21
22.6264843840
31
0.0000000000
11
19.4780694665
21
22.6282046544
31
0.0000000000
11
19.5473962423
21
22.6293159774
31
0.0000000000
11
19.6250000000
21
22.6297040760
31
0.0000000000
0
SPLINE
5
3B8
100
AcDbEntity
8
0
100
AcDbSpline
62
9
6
CONTINUOUS
70
0
71
3
72
11
73
7
74
5
42
0.0000001000
43
0.0000001000
44
0.0000000001
12
0.0000000000
22
0.3645127889
32
0.0000000000
13
-0.3645127889
23
0.0000000000
33
0.0000000000
40
0.0000000000
40
0.0000000000
40
0.0000000000
40
0.0000000000
40
0.2332175100
40
0.4765997713
40
0.7336719567
40
1.0000000000
40
1.0000000000
40
1.0000000000
40
1.0000000000
10
2.8750000000
20
-23.4113248654
30
0.0000000000
10
2.8750000000
20
-23.3829879437
30
0.0000000000
10
2.8612341244
20
-23.3243445575
30
0.0000000000
10
2.8043126013
20
-23.2525602279
30
0.0000000000
10
2.7215132079
20
-23.2056005996
30
0.0000000000
10
2.6573599926
20
-23.1948185145
30
0.0000000000
10
2.6250000000
20
-23.1948185145
30
0.0000000000
11
2.8750000000
21
-23.4113248654
31
0.0000000000
11
2.8559698831
21
-23.3284714719
31
0.0000000000
11
2.8017766953
21
-23.2582317565
31
0.0000000000
11
2.7206708581
21
-23.2112990791
31
0.0000000000
11
2.6250000000
21
-23.1948185145
31
0.0000000000
0
SPLINE
5
3B9
100
AcDbEntity
8
0
100
AcDbSpline
62
9
6
CONTINUOUS
70
0
71
3
72
11
73
7
74
5
42
0.0000001000
43
0.0000001000
44
0.0000000001
12
0.0000000000
22
-0.3645127889
32
0.0000000000
13
0.3645127889
23
0.0000000000
33
0.0000000000
40
0.0000000000
40
0.0000000000
40
0.0000000000
40
0.0000000000
40
0.2332175100
40
0.4765997713
40
0.7336719567
40
1.0000000000
40
1.0000000000
40
1.0000000000
40
1.0000000000
10
0.4750000000
20
23.4113248654
30
0.0000000000
10
0.4750000000
20
23.3829879437
30
0.0000000000
10
0.4887658756
20
23.3243445575
30
0.0000000000
10
0.5456873987
20
23.2525602279
30
0.0000000000
10
0.6284867921
20
23.2056005996
30
0.0000000000
10
0.6926400074
20
23.1948185145
30
0.0000000000
10
0.7250000000
20
23.1948185145
30
0.0000000000
11
0.4750000000
21
23.4113248654
31
0.0000000000
11
0.4940301169
21
23.3284714719
31
0.0000000000
11
0.5482233047
21
23.2582317565
31
0.0000000000
11
0.6293291419
21
23.2112990791
31
0.0000000000
11
0.7250000000
21
23.1948185145
31
0.0000000000
0
SPLINE
5
3BA
100
AcDbEntity
8
0
100
AcDbSpline
62
9
6
CONTINUOUS
70
0
71
3
72
9
73
5
74
3
42
0.0000001000
43
0.0000001000
44
0.0000000001
12
0.0000059907
22
0.0482116067
32
0.0000000000
13
-0.0424770716
23
0.0057242708
33
0.0000000000
40
0.0000000000
40
0.0000000000
40
0.0000000000
40
0.0000000000
40
0.2620884843
40
1.0000000000
40
1.0000000000
40
1.0000000000
40
1.0000000000
10
2.8750000000
20
22.6218493133
30
0.0000000000
10
2.8750005234
20
22.6260612156
30
0.0000000000
10
2.8495995511
20
22.6216622553
30
0.0000000000
10
2.8375414969
20
22.6250649961
30
0.0000000000
10
2.8270933902
20
22.6264729979
30
0.0000000000
11
2.8750000000
21
22.6218493133
31
0.0000000000
11
2.8626024488
21
22.6242912837
31
0.0000000000
11
2.8270933902
21
22.6264729979
31
0.0000000000
0
SPLINE
5
3BB
100
AcDbEntity
8
0
100
AcDbSpline
62
9
6
CONTINUOUS
70
0
71
3
72
10
73
6
74
4
42
0.0000001000
43
0.0000001000
44
0.0000000001
12
-0.1780874139
22
0.0239993142
32
0.0000000000
13
-0.2021304383
23
-0.0000018301
33
0.0000000000
40
0.0000000000
40
0.0000000000
40
0.0000000000
40
0.0000000000
40
0.2714608706
40
0.6150906569
40
1.0000000000
40
1.0000000000
40
1.0000000000
40
1.0000000000
10
2.8270933902
20
22.6264729979
30
0.0000000000
10
2.8109788020
20
22.6286446228
30
0.0000000000
10
2.7661091013
20
22.6276203826
30
0.0000000000
10
2.7004752057
20
22.6297628996
30
0.0000000000
10
2.6509339647
20
22.6297043108
30
0.0000000000
10
2.6250000000
20
22.6297040760
30
0.0000000000
11
2.8270933902
21
22.6264729979
31
0.0000000000
11
2.7722499675
21
22.6281967395
31
0.0000000000
11
2.7028009172
21
22.6293141645
31
0.0000000000
11
2.6250000000
21
22.6297040760
31
0.0000000000
0
SPLINE
5
3BC
100
AcDbEntity
8
0
100
AcDbSpline
62
9
6
CONTINUOUS
70
0
71
3
72
8
73
4
74
2
42
0.0000001000
43
0.0000001000
44
0.0000000001
12
0.0029870908
22
-0.0156095890
32
0.0000000000
13
0.0024925820
23
-0.0156896389
33
0.0000000000
40
0.0000000000
40
0.0000000000
40
0.0000000000
40
0.0000000000
40
1.0000000000
40
1.0000000000
40
1.0000000000
40
1.0000000000
10
22.2505647877
20
21.9919895221
30
0.0000000000
10
22.2515604846
20
21.9867863258
30
0.0000000000
10
22.2524739730
20
21.9815682238
30
0.0000000000
10
22.2533048336
20
21.9763383442
30
0.0000000000
11
22.2505647877
21
21.9919895221
31
0.0000000000
11
22.2533048336
21
21.9763383442
31
0.0000000000
0
SPLINE
5
3BD
100
AcDbEntity
8
0
100
AcDbSpline
62
9
6
CONTINUOUS
70
0
71
3
72
8
73
4
74
2
42
0.0000001000
43
0.0000001000
44
0.0000000001
12
0.0123998442
22
-0.0780512241
32
0.0000000000
13
-0.0000239653
23
-0.0786447625
33
0.0000000000
40
0.0000000000
40
0.0000000000
40
0.0000000000
40
0.0000000000
40
1.0000000000
40
1.0000000000
40
1.0000000000
40
1.0000000000
10
22.2533048336
20
21.9763383442
30
0.0000000000
10
22.2574381150
20
21.9503212695
30
0.0000000000
10
22.2595265578
20
21.9240127256
30
0.0000000000
10
22.2595185694
20
21.8977978048
30
0.0000000000
11
22.2533048336
21
21.9763383442
31
0.0000000000
11
22.2595185694
21
21.8977978048
31
0.0000000000
0
SPLINE
5
3BE
100
AcDbEntity
8
0
100
AcDbSpline
62
9
6
CONTINUOUS
70
0
71
3
72
11
73
7
74
5
42
0.0000001000
43
0.0000001000
44
0.0000000001
12
0.0000000000
22
-0.3645143837
32
0.0000000000
13
0.3645143837
23
-0.0000000000
33
0.0000000000
40
0.0000000000
40
0.0000000000
40
0.0000000000
40
0.0000000000
40
0.2320556365
40
0.4757923621
40
0.7332637475
40
1.0000000000
40
1.0000000000
40
1.0000000000
40
1.0000000000
10
19.3750000000
20
23.8443375673
30
0.0000000000
10
19.3750000000
20
23.8161416949
30
0.0000000000
10
19.3886662590
20
23.7576044349
30
0.0000000000
10
19.4454435929
20
23.6857507220
30
0.0000000000
10
19.5283360856
20
23.6386472606
30
0.0000000000
10
19.5925902664
20
23.6278312164
30
0.0000000000
10
19.6250000000
20
23.6278312164
30
0.0000000000
11
19.3750000000
21
23.8443375673
31
0.0000000000
11
19.3938434561
21
23.7618755205
31
0.0000000000
11
19.4479963906
21
23.6914412243
31
0.0000000000
11
19.5291865442
21
23.6443629782
31
0.0000000000
11
19.6250000000
21
23.6278312164
31
0.0000000000
0
SPLINE
5
3BF
100
AcDbEntity
8
0
100
AcDbSpline
62
9
6
CONTINUOUS
70
0
71
3
72
11
73
7
74
5
42
0.0000001000
43
0.0000001000
44
0.0000000001
12
0.0000000000
22
-0.3645127889
32
0.0000000000
13
-0.3645127889
23
0.0000000000
33
0.0000000000
40
0.0000000000
40
0.0000000000
40
0.0000000000
40
0.0000000000
40
0.2332175100
40
0.4765997713
40
0.7336719567
40
1.0000000000
40
1.0000000000
40
1.0000000000
40
1.0000000000
10
2.8750000000
20
23.4113248654
30
0.0000000000
10
2.8750000000
20
23.3829879437
30
0.0000000000
10
2.8612341244
20
23.3243445575
30
0.0000000000
10
2.8043126013
20
23.2525602279
30
0.0000000000
10
2.7215132079
20
23.2056005996
30
0.0000000000
10
2.6573599926
20
23.1948185145
30
0.0000000000
10
2.6250000000
20
23.1948185145
30
0.0000000000
11
2.8750000000
21
23.4113248654
31
0.0000000000
11
2.8559698831
21
23.3284714719
31
0.0000000000
11
2.8017766953
21
23.2582317565
31
0.0000000000
11
2.7206708581
21
23.2112990791
31
0.0000000000
11
2.6250000000
21
23.1948185145
31
0.0000000000
0
SPLINE
5
3C0
100
AcDbEntity
8
0
100
AcDbSpline
62
7
6
CONTINUOUS
70
0
71
3
72
11
73
7
74
5
42
0.0000001000
43
0.0000001000
44
0.0000000001
12
-0.2777975879
22
-0.2777975874
32
0.0000000000
13
0.0000000000
23
-0.3922423374
33
0.0000000000
40
0.0000000000
40
0.0000000000
40
0.0000000000
40
0.0000000000
40
0.2499994775
40
0.4999992599
40
0.7499998477
40
1.0000000000
40
1.0000000000
40
1.0000000000
40
1.0000000000
10
0.1738879689
20
22.2883873571
30
0.0000000000
10
0.1507382183
20
22.2652376065
30
0.0000000000
10
0.1089971112
20
22.2143796547
30
0.0000000000
10
0.0624700563
20
22.1273344047
30
0.0000000000
10
0.0338161410
20
22.0329235344
30
0.0000000000
10
0.0273651948
20
21.9673685308
30
0.0000000000
10
0.0273651948
20
21.9346816494
30
0.0000000000
11
0.1738879689
21
22.2883873571
31
0.0000000000
11
0.1116779109
21
22.2125866527
31
0.0000000000
11
0.0654489604
21
22.1261069117
31
0.0000000000
11
0.0369790496
21
22.0322698849
31
0.0000000000
11
0.0273651948
21
21.9346816494
31
0.0000000000
0
SPLINE
5
3C1
100
AcDbEntity
8
0
100
AcDbSpline
62
9
6
CONTINUOUS
70
0
71
3
72
11
73
7
74
5
42
0.0000001000
43
0.0000001000
44
0.0000000001
12
0.0000000000
22
-0.3645143837
32
0.0000000000
13
-0.3645143837
23
0.0000000000
33
0.0000000000
40
0.0000000000
40
0.0000000000
40
0.0000000000
40
0.0000000000
40
0.2320556365
40
0.4757923621
40
0.7332637475
40
1.0000000000
40
1.0000000000
40
1.0000000000
40
1.0000000000
10
2.8750000000
20
23.8443375673
30
0.0000000000
10
2.8750000000
20
23.8161416949
30
0.0000000000
10
2.8613337410
20
23.7576044349
30
0.0000000000
10
2.8045564071
20
23.6857507220
30
0.0000000000
10
2.7216639144
20
23.6386472606
30
0.0000000000
10
2.6574097336
20
23.6278312164
30
0.0000000000
10
2.6250000000
20
23.6278312164
30
0.0000000000
11
2.8750000000
21
23.8443375673
31
0.0000000000
11
2.8561565439
21
23.7618755205
31
0.0000000000
11
2.8020036094
21
23.6914412243
31
0.0000000000
11
2.7208134558
21
23.6443629782
31
0.0000000000
11
2.6250000000
21
23.6278312164
31
0.0000000000
0
SPLINE
5
3C2
100
AcDbEntity
8
0
100
AcDbSpline
62
9
6
CONTINUOUS
70
0
71
3
72
11
73
7
74
5
42
0.0000001000
43
0.0000001000
44
0.0000000001
12
0.0000000000
22
-0.3645143837
32
0.0000000000
13
-0.3645143837
23
-0.0000000000
33
0.0000000000
40
0.0000000000
40
0.0000000000
40
0.0000000000
40
0.0000000000
40
0.2320556365
40
0.4757923621
40
0.7332637475
40
1.0000000000
40
1.0000000000
40
1.0000000000
40
1.0000000000
10
21.7750000000
20
23.8443375673
30
0.0000000000
10
21.7750000000
20
23.8161416949
30
0.0000000000
10
21.7613337410
20
23.7576044349
30
0.0000000000
10
21.7045564071
20
23.6857507220
30
0.0000000000
10
21.6216639144
20
23.6386472606
30
0.0000000000
10
21.5574097336
20
23.6278312164
30
0.0000000000
10
21.5250000000
20
23.6278312164
30
0.0000000000
11
21.7750000000
21
23.8443375673
31
0.0000000000
11
21.7561565439
21
23.7618755205
31
0.0000000000
11
21.7020036094
21
23.6914412243
31
0.0000000000
11
21.6208134558
21
23.6443629782
31
0.0000000000
11
21.5250000000
21
23.6278312164
31
0.0000000000
0
SPLINE
5
3C3
100
AcDbEntity
8
0
100
AcDbSpline
62
9
6
CONTINUOUS
70
0
71
3
72
11
73
7
74
5
42
0.0000001000
43
0.0000001000
44
0.0000000001
12
0.0000000000
22
0.3645127889
32
0.0000000000
13
0.3645127889
23
0.0000000000
33
0.0000000000
40
0.0000000000
40
0.0000000000
40
0.0000000000
40
0.0000000000
40
0.2332175100
40
0.4765997713
40
0.7336719567
40
1.0000000000
40
1.0000000000
40
1.0000000000
40
1.0000000000
10
0.4750000000
20
-23.8443375673
30
0.0000000000
10
0.4750000000
20
-23.8160006456
30
0.0000000000
10
0.4887658756
20
-23.7573572594
30
0.0000000000
10
0.5456873987
20
-23.6855729298
30
0.0000000000
10
0.6284867921
20
-23.6386133014
30
0.0000000000
10
0.6926400074
20
-23.6278312164
30
0.0000000000
10
0.7250000000
20
-23.6278312164
30
0.0000000000
11
0.4750000000
21
-23.8443375673
31
0.0000000000
11
0.4940301169
21
-23.7614841738
31
0.0000000000
11
0.5482233047
21
-23.6912444584
31
0.0000000000
11
0.6293291419
21
-23.6443117810
31
0.0000000000
11
0.7250000000
21
-23.6278312164
31
0.0000000000
0
SPLINE
5
3C4
100
AcDbEntity
8
0
100
AcDbSpline
62
9
6
CONTINUOUS
70
0
71
3
72
9
73
5
74
3
42
0.0000001000
43
0.0000001000
44
0.0000000001
12
0.0002601681
22
-0.0484178554
32
0.0000000000
13
-0.0426578516
23
-0.0057450990
33
0.0000000000
40
0.0000000000
40
0.0000000000
40
0.0000000000
40
0.0000000000
40
0.2622658604
40
1.0000000000
40
1.0000000000
40
1.0000000000
40
1.0000000000
10
21.7750000181
20
-22.6218524335
30
0.0000000000
10
21.7750227625
20
-22.6260852170
30
0.0000000000
10
21.7494329131
20
-22.6216500432
30
0.0000000000
10
21.7373428712
20
-22.6250715988
30
0.0000000000
10
21.7268528200
20
-22.6264843840
30
0.0000000000
11
21.7750000181
21
-22.6218524335
31
0.0000000000
11
21.7625286372
21
-22.6242992401
31
0.0000000000
11
21.7268528200
21
-22.6264843840
31
0.0000000000
0
SPLINE
5
3C5
100
AcDbEntity
8
0
100
AcDbSpline
62
9
6
CONTINUOUS
70
0
71
3
72
10
73
6
74
4
42
0.0000001000
43
0.0000001000
44
0.0000000001
12
-0.1777566390
22
-0.0239400121
32
0.0000000000
13
-0.2018896317
23
-0.0000009296
33
0.0000000000
40
0.0000000000
40
0.0000000000
40
0.0000000000
40
0.0000000000
40
0.2721745567
40
0.6156081544
40
1.0000000000
40
1.0000000000
40
1.0000000000
40
1.0000000000
10
21.7268528200
20
-22.6264843840
30
0.0000000000
10
21.7107258752
20
-22.6286563380
30
0.0000000000
10
21.6658526026
20
-22.6276275955
30
0.0000000000
10
21.6003034909
20
-22.6297623657
30
0.0000000000
10
21.5508682427
20
-22.6297039569
30
0.0000000000
10
21.5250000000
20
-22.6297040760
30
0.0000000000
11
21.7268528200
21
-22.6264843840
31
0.0000000000
11
21.6719305335
21
-22.6282046544
31
0.0000000000
11
21.6026037577
21
-22.6293159774
31
0.0000000000
11
21.5250000000
21
-22.6297040760
31
0.0000000000
0
SPLINE
5
3C6
100
AcDbEntity
8
0
100
AcDbSpline
62
9
6
CONTINUOUS
70
0
71
3
72
11
73
7
74
5
42
0.0000001000
43
0.0000001000
44
0.0000000001
12
0.0000000000
22
0.3645143837
32
0.0000000000
13
0.3645143837
23
0.0000000000
33
0.0000000000
40
0.0000000000
40
0.0000000000
40
0.0000000000
40
0.0000000000
40
0.2320556365
40
0.4757923621
40
0.7332637475
40
1.0000000000
40
1.0000000000
40
1.0000000000
40
1.0000000000
10
19.3750000000
20
-23.8443375673
30
0.0000000000
10
19.3750000000
20
-23.8161416949
30
0.0000000000
10
19.3886662590
20
-23.7576044349
30
0.0000000000
10
19.4454435929
20
-23.6857507220
30
0.0000000000
10
19.5283360856
20
-23.6386472606
30
0.0000000000
10
19.5925902664
20
-23.6278312164
30
0.0000000000
10
19.6250000000
20
-23.6278312164
30
0.0000000000
11
19.3750000000
21
-23.8443375673
31
0.0000000000
11
19.3938434561
21
-23.7618755205
31
0.0000000000
11
19.4479963906
21
-23.6914412243
31
0.0000000000
11
19.5291865442
21
-23.6443629782
31
0.0000000000
11
19.6250000000
21
-23.6278312164
31
0.0000000000
0
SPLINE
5
3C7
100
AcDbEntity
8
0
100
AcDbSpline
62
9
6
CONTINUOUS
70
0
71
3
72
11
73
7
74
5
42
0.0000001000
43
0.0000001000
44
0.0000000001
12
0.0000000000
22
0.3645143837
32
0.0000000000
13
-0.3645143837
23
-0.0000000000
33
0.0000000000
40
0.0000000000
40
0.0000000000
40
0.0000000000
40
0.0000000000
40
0.2320556365
40
0.4757923621
40
0.7332637475
40
1.0000000000
40
1.0000000000
40
1.0000000000
40
1.0000000000
10
2.8750000000
20
-23.8443375673
30
0.0000000000
10
2.8750000000
20
-23.8161416949
30
0.0000000000
10
2.8613337410
20
-23.7576044349
30
0.0000000000
10
2.8045564071
20
-23.6857507220
30
0.0000000000
10
2.7216639144
20
-23.6386472606
30
0.0000000000
10
2.6574097336
20
-23.6278312164
30
0.0000000000
10
2.6250000000
20
-23.6278312164
30
0.0000000000
11
2.8750000000
21
-23.8443375673
31
0.0000000000
11
2.8561565439
21
-23.7618755205
31
0.0000000000
11
2.8020036094
21
-23.6914412243
31
0.0000000000
11
2.7208134558
21
-23.6443629782
31
0.0000000000
11
2.6250000000
21
-23.6278312164
31
0.0000000000
0
SPLINE
5
3C8
100
AcDbEntity
8
0
100
AcDbSpline
62
9
6
CONTINUOUS
70
0
71
3
72
10
73
6
74
4
42
0.0000001000
43
0.0000001000
44
0.0000000001
12
0.0719830237
22
0.0039034648
32
0.0000000000
13
0.0713783714
23
0.0023117232
33
0.0000000000
40
0.0000000000
40
0.0000000000
40
0.0000000000
40
0.0000000000
40
0.4262895297
40
0.8686292396
40
1.0000000000
40
1.0000000000
40
1.0000000000
40
1.0000000000
10
21.7871445033
20
22.4306657375
30
0.0000000000
10
21.7973730397
20
22.4312204063
30
0.0000000000
10
21.8182006180
20
22.4323975304
30
0.0000000000
10
21.8423903874
20
22.4337069428
30
0.0000000000
10
21.8559765542
20
22.4341541863
30
0.0000000000
10
21.8591022312
20
22.4342554173
30
0.0000000000
11
21.7871445033
21
22.4306657375
31
0.0000000000
11
21.8178601776
21
22.4323662111
31
0.0000000000
11
21.8497392152
21
22.4339334239
31
0.0000000000
11
21.8591022312
21
22.4342554173
31
0.0000000000
0
SPLINE
5
3C9
100
AcDbEntity
8
0
100
AcDbSpline
62
9
6
CONTINUOUS
70
0
71
3
72
11
73
7
74
5
42
0.0000001000
43
0.0000001000
44
0.0000000001
12
0.0463032329
22
0.0014996176
32
0.0000000000
13
0.0277297771
23
-0.0274165715
33
0.0000000000
40
0.0000000000
40
0.0000000000
40
0.0000000000
40
0.0000000000
40
0.3441538037
40
0.7238529039
40
0.9414902551
40
1.0000000000
40
1.0000000000
40
1.0000000000
40
1.0000000000
10
21.8591022312
20
22.4342554173
30
0.0000000000
10
21.8644140424
20
22.4344274503
30
0.0000000000
10
21.8756753129
20
22.4347821117
30
0.0000000000
10
21.8914119006
20
22.4356405433
30
0.0000000000
10
21.8995550709
20
22.4342208034
30
0.0000000000
10
21.9057762704
20
22.4349896821
30
0.0000000000
10
21.9063170912
20
22.4344549699
30
0.0000000000
11
21.8591022312
21
22.4342554173
31
0.0000000000
11
21.8753116614
21
22.4348337163
31
0.0000000000
11
21.8930832717
21
22.4350457667
31
0.0000000000
11
21.9032653504
21
22.4347252171
31
0.0000000000
11
21.9063170912
21
22.4344549699
31
0.0000000000
0
SPLINE
5
3CA
100
AcDbEntity
8
0
100
AcDbSpline
62
9
6
CONTINUOUS
70
0
71
3
72
11
73
7
74
5
42
0.0000001000
43
0.0000001000
44
0.0000000001
12
0.0000000000
22
0.3645127889
32
0.0000000000
13
-0.3645127889
23
0.0000000000
33
0.0000000000
40
0.0000000000
40
0.0000000000
40
0.0000000000
40
0.0000000000
40
0.2332175100
40
0.4765997713
40
0.7336719567
40
1.0000000000
40
1.0000000000
40
1.0000000000
40
1.0000000000
10
21.7750000000
20
-23.8443375673
30
0.0000000000
10
21.7750000000
20
-23.8160006456
30
0.0000000000
10
21.7612341244
20
-23.7573572594
30
0.0000000000
10
21.7043126013
20
-23.6855729298
30
0.0000000000
10
21.6215132079
20
-23.6386133014
30
0.0000000000
10
21.5573599926
20
-23.6278312164
30
0.0000000000
10
21.5250000000
20
-23.6278312164
30
0.0000000000
11
21.7750000000
21
-23.8443375673
31
0.0000000000
11
21.7559698831
21
-23.7614841738
31
0.0000000000
11
21.7017766953
21
-23.6912444584
31
0.0000000000
11
21.6206708581
21
-23.6443117810
31
0.0000000000
11
21.5250000000
21
-23.6278312164
31
0.0000000000
0
SPLINE
5
3CB
100
AcDbEntity
8
0
100
AcDbSpline
62
9
6
CONTINUOUS
70
0
71
3
72
11
73
7
74
5
42
0.0000001000
43
0.0000001000
44
0.0000000001
12
0.0000000000
22
-0.3645127889
32
0.0000000000
13
0.3645127889
23
-0.0000000000
33
0.0000000000
40
0.0000000000
40
0.0000000000
40
0.0000000000
40
0.0000000000
40
0.2332175100
40
0.4765997713
40
0.7336719567
40
1.0000000000
40
1.0000000000
40
1.0000000000
40
1.0000000000
10
19.3750000000
20
23.4113248654
30
0.0000000000
10
19.3750000000
20
23.3829879437
30
0.0000000000
10
19.3887658756
20
23.3243445575
30
0.0000000000
10
19.4456873987
20
23.2525602279
30
0.0000000000
10
19.5284867921
20
23.2056005996
30
0.0000000000
10
19.5926400074
20
23.1948185145
30
0.0000000000
10
19.6250000000
20
23.1948185145
30
0.0000000000
11
19.3750000000
21
23.4113248654
31
0.0000000000
11
19.3940301169
21
23.3284714719
31
0.0000000000
11
19.4482233047
21
23.2582317565
31
0.0000000000
11
19.5293291419
21
23.2112990791
31
0.0000000000
11
19.6250000000
21
23.1948185145
31
0.0000000000
0
SPLINE
5
3CC
100
AcDbEntity
8
0
100
AcDbSpline
62
9
6
CONTINUOUS
70
0
71
3
72
8
73
4
74
2
42
0.0000001000
43
0.0000001000
44
0.0000000001
12
0.0029040084
22
0.0379676305
32
0.0000000000
13
0.0057833109
23
0.0377084698
33
0.0000000000
40
0.0000000000
40
0.0000000000
40
0.0000000000
40
0.0000000000
40
1.0000000000
40
1.0000000000
40
1.0000000000
40
1.0000000000
10
-0.0080684840
20
21.9358054979
30
0.0000000000
10
-0.0071004812
20
21.9484613748
30
0.0000000000
10
-0.0056496921
20
21.9610957220
30
0.0000000000
10
-0.0037219218
20
21.9736652119
30
0.0000000000
11
-0.0080684840
21
21.9358054979
31
0.0000000000
11
-0.0037219218
21
21.9736652119
31
0.0000000000
0
SPLINE
5
3CD
100
AcDbEntity
8
0
100
AcDbSpline
62
9
6
CONTINUOUS
70
0
71
3
72
8
73
4
74
2
42
0.0000001000
43
0.0000001000
44
0.0000000001
12
0.0028158974
22
0.0183602752
32
0.0000000000
13
0.0034923610
23
0.0182530161
33
0.0000000000
40
0.0000000000
40
0.0000000000
40
0.0000000000
40
0.0000000000
40
1.0000000000
40
1.0000000000
40
1.0000000000
40
1.0000000000
10
-0.0037219218
20
21.9736652119
30
0.0000000000
10
-0.0027832893
20
21.9797853037
30
0.0000000000
10
-0.0017315779
20
21.9858900195
30
0.0000000000
10
-0.0005674576
20
21.9919743583
30
0.0000000000
11
-0.0037219218
21
21.9736652119
31
0.0000000000
11
-0.0005674576
21
21.9919743583
31
0.0000000000
0
SPLINE
5
3CE
100
AcDbEntity
8
0
100
AcDbSpline
62
9
6
CONTINUOUS
70
0
71
3
72
11
73
7
74
5
42
0.0000001000
43
0.0000001000
44
0.0000000001
12
0.0000000000
22
-0.3645127889
32
0.0000000000
13
-0.3645127889
23
0.0000000000
33
0.0000000000
40
0.0000000000
40
0.0000000000
40
0.0000000000
40
0.0000000000
40
0.2332175100
40
0.4765997713
40
0.7336719567
40
1.0000000000
40
1.0000000000
40
1.0000000000
40
1.0000000000
10
21.7750000000
20
23.4113248654
30
0.0000000000
10
21.7750000000
20
23.3829879437
30
0.0000000000
10
21.7612341244
20
23.3243445575
30
0.0000000000
10
21.7043126013
20
23.2525602279
30
0.0000000000
10
21.6215132079
20
23.2056005996
30
0.0000000000
10
21.5573599926
20
23.1948185145
30
0.0000000000
10
21.5250000000
20
23.1948185145
30
0.0000000000
11
21.7750000000
21
23.4113248654
31
0.0000000000
11
21.7559698831
21
23.3284714719
31
0.0000000000
11
21.7017766953
21
23.2582317565
31
0.0000000000
11
21.6206708581
21
23.2112990791
31
0.0000000000
11
21.5250000000
21
23.1948185145
31
0.0000000000
0
SPLINE
5
3CF
100
AcDbEntity
8
0
100
AcDbSpline
62
9
6
CONTINUOUS
70
0
71
3
72
11
73
7
74
5
42
0.0000001000
43
0.0000001000
44
0.0000000001
12
0.0000000000
22
0.3645127889
32
0.0000000000
13
-0.3645127889
23
0.0000000000
33
0.0000000000
40
0.0000000000
40
0.0000000000
40
0.0000000000
40
0.0000000000
40
0.2332175100
40
0.4765997713
40
0.7336719567
40
1.0000000000
40
1.0000000000
40
1.0000000000
40
1.0000000000
10
21.7750000000
20
-23.4113248654
30
0.0000000000
10
21.7750000000
20
-23.3829879437
30
0.0000000000
10
21.7612341244
20
-23.3243445575
30
0.0000000000
10
21.7043126013
20
-23.2525602279
30
0.0000000000
10
21.6215132079
20
-23.2056005996
30
0.0000000000
10
21.5573599926
20
-23.1948185145
30
0.0000000000
10
21.5250000000
20
-23.1948185145
30
0.0000000000
11
21.7750000000
21
-23.4113248654
31
0.0000000000
11
21.7559698831
21
-23.3284714719
31
0.0000000000
11
21.7017766953
21
-23.2582317565
31
0.0000000000
11
21.6206708581
21
-23.2112990791
31
0.0000000000
11
21.5250000000
21
-23.1948185145
31
0.0000000000
0
SPLINE
5
3D0
100
AcDbEntity
8
0
100
AcDbSpline
62
9
6
CONTINUOUS
70
0
71
3
72
9
73
5
74
3
42
0.0000001000
43
0.0000001000
44
0.0000000001
12
-0.0030163630
22
-0.0040258137
32
0.0000000000
13
-0.0006654828
23
-0.0050435673
33
0.0000000000
40
0.0000000000
40
0.0000000000
40
0.0000000000
40
0.0000000000
40
0.8182434343
40
1.0000000000
40
1.0000000000
40
1.0000000000
40
1.0000000000
10
-0.0028257946
20
21.9406645270
30
0.0000000000
10
-0.0036485011
20
21.9395664951
30
0.0000000000
10
-0.0037466357
20
21.9377621352
30
0.0000000000
10
-0.0039546819
20
21.9360663532
30
0.0000000000
10
-0.0039950005
20
21.9357607860
30
0.0000000000
11
-0.0028257946
21
21.9406645270
31
0.0000000000
11
-0.0038826854
21
21.9366863791
31
0.0000000000
11
-0.0039950005
21
21.9357607860
31
0.0000000000
0
SPLINE
5
3D1
100
AcDbEntity
8
0
100
AcDbSpline
62
9
6
CONTINUOUS
70
0
71
3
72
10
73
6
74
4
42
0.0000001000
43
0.0000001000
44
0.0000000001
12
-0.0154151182
22
-0.0210302357
32
0.0000000000
13
-0.0156108681
23
-0.0208853567
33
0.0000000000
40
0.0000000000
40
0.0000000000
40
0.0000000000
40
0.0000000000
40
0.3764656534
40
0.7511906533
40
1.0000000000
40
1.0000000000
40
1.0000000000
40
1.0000000000
10
0.0146259704
20
21.9642134447
30
0.0000000000
10
0.0126915496
20
21.9615743909
30
0.0000000000
10
0.0088224498
20
21.9563152231
30
0.0000000000
10
0.0036473445
20
21.9493321980
30
0.0000000000
10
0.0004077840
20
21.9449874884
30
0.0000000000
10
-0.0008869259
20
21.9432553311
30
0.0000000000
11
0.0146259704
21
21.9642134447
31
0.0000000000
11
0.0088088653
21
21.9563064485
31
0.0000000000
11
0.0029911293
21
21.9484563375
31
0.0000000000
11
-0.0008869259
21
21.9432553311
31
0.0000000000
0
SPLINE
5
3D2
100
AcDbEntity
8
0
100
AcDbSpline
62
9
6
CONTINUOUS
70
0
71
3
72
8
73
4
74
2
42
0.0000001000
43
0.0000001000
44
0.0000000001
12
-0.0019373563
22
-0.0025919364
32
0.0000000000
13
-0.0019403815
23
-0.0025896704
33
0.0000000000
40
0.0000000000
40
0.0000000000
40
0.0000000000
40
0.0000000000
40
1.0000000000
40
1.0000000000
40
1.0000000000
40
1.0000000000
10
-0.0008869259
20
21.9432553311
30
0.0000000000
10
-0.0015327113
20
21.9423913523
30
0.0000000000
10
-0.0021790008
20
21.9415277505
30
0.0000000000
10
-0.0028257946
20
21.9406645270
30
0.0000000000
11
-0.0008869259
21
21.9432553311
31
0.0000000000
11
-0.0028257946
21
21.9406645270
31
0.0000000000
0
SPLINE
5
3D3
100
AcDbEntity
8
0
100
AcDbSpline
62
9
6
CONTINUOUS
70
0
71
3
72
12
73
8
74
6
42
0.0000001000
43
0.0000001000
44
0.0000000001
12
-0.2503389869
22
0.0000011533
32
0.0000000000
13
0.0013519705
23
0.2501813853
33
0.0000000000
40
0.0000000000
40
0.0000000000
40
0.0000000000
40
0.0000000000
40
0.3099985709
40
0.5869657482
40
0.8064650028
40
0.9492421028
40
1.0000000000
40
1.0000000000
40
1.0000000000
40
1.0000000000
10
19.6250000000
20
-22.6297040760
30
0.0000000000
10
19.5991317573
20
-22.6297039568
30
0.0000000000
10
19.5496965057
20
-22.6297623662
30
0.0000000000
10
19.4841474072
20
-22.6276275946
30
0.0000000000
10
19.4263691479
20
-22.6289521924
30
0.0000000000
10
19.4005671055
20
-22.6216500346
30
0.0000000000
10
19.3749771080
20
-22.6260852339
30
0.0000000000
10
19.3749999824
20
-22.6218523402
30
0.0000000000
11
19.6250000000
21
-22.6297040760
31
0.0000000000
11
19.5473962423
21
-22.6293159775
31
0.0000000000
11
19.4780694665
21
-22.6282046544
31
0.0000000000
11
19.4231471800
21
-22.6264843843
31
0.0000000000
11
19.3874713629
21
-22.6242992392
31
0.0000000000
11
19.3749999824
21
-22.6218523402
31
0.0000000000
0
SPLINE
5
3D4
100
AcDbEntity
8
0
100
AcDbSpline
62
9
6
CONTINUOUS
70
0
71
3
72
13
73
9
74
7
42
0.0000001000
43
0.0000001000
44
0.0000000001
12
-0.0019471222
22
0.0240772436
32
0.0000000000
13
-0.0172665346
23
-0.0235516947
33
0.0000000000
40
0.0000000000
40
0.0000000000
40
0.0000000000
40
0.0000000000
40
0.0433496751
40
0.3298244256
40
0.5967112251
40
0.8001390290
40
0.9290891267
40
1.0000000000
40
1.0000000000
40
1.0000000000
40
1.0000000000
10
0.0192236015
20
21.9357579180
30
0.0000000000
10
0.0191954658
20
21.9361058315
30
0.0000000000
10
0.0190047429
20
21.9387544483
30
0.0000000000
10
0.0179494005
20
21.9451432358
30
0.0000000000
10
0.0173065481
20
21.9520176463
30
0.0000000000
10
0.0163352064
20
21.9584825669
30
0.0000000000
10
0.0161827564
20
21.9610751443
30
0.0000000000
10
0.0150340988
20
21.9647701351
30
0.0000000000
10
0.0146259704
20
21.9642134447
30
0.0000000000
11
0.0192236015
21
21.9357579180
31
0.0000000000
11
0.0191385493
21
21.9368173089
31
0.0000000000
11
0.0180510745
21
21.9451122519
31
0.0000000000
11
0.0171358091
21
21.9528522206
31
0.0000000000
11
0.0163692307
21
21.9587432573
31
0.0000000000
11
0.0157141018
21
21.9624515631
31
0.0000000000
11
0.0146259704
21
21.9642134447
31
0.0000000000
0
SPLINE
5
3D5
100
AcDbEntity
8
0
100
AcDbSpline
62
9
6
CONTINUOUS
70
0
71
3
72
11
73
7
74
5
42
0.0000001000
43
0.0000001000
44
0.0000000001
12
0.0000000000
22
0.3645127889
32
0.0000000000
13
0.3645127889
23
0.0000000000
33
0.0000000000
40
0.0000000000
40
0.0000000000
40
0.0000000000
40
0.0000000000
40
0.2332175100
40
0.4765997713
40
0.7336719567
40
1.0000000000
40
1.0000000000
40
1.0000000000
40
1.0000000000
10
19.3750000000
20
-23.4113248654
30
0.0000000000
10
19.3750000000
20
-23.3829879437
30
0.0000000000
10
19.3887658756
20
-23.3243445575
30
0.0000000000
10
19.4456873987
20
-23.2525602279
30
0.0000000000
10
19.5284867921
20
-23.2056005996
30
0.0000000000
10
19.5926400074
20
-23.1948185145
30
0.0000000000
10
19.6250000000
20
-23.1948185145
30
0.0000000000
11
19.3750000000
21
-23.4113248654
31
0.0000000000
11
19.3940301169
21
-23.3284714719
31
0.0000000000
11
19.4482233047
21
-23.2582317565
31
0.0000000000
11
19.5293291419
21
-23.2112990791
31
0.0000000000
11
19.6250000000
21
-23.1948185145
31
0.0000000000
0
SPLINE
5
3D6
100
AcDbEntity
8
0
100
AcDbSpline
62
7
6
CONTINUOUS
70
0
71
3
72
10
73
6
74
4
42
0.0000001000
43
0.0000001000
44
0.0000000001
12
0.0627077336
22
-0.2728390289
32
0.0000000000
13
0.1979095687
23
-0.1979095690
33
0.0000000000
40
0.0000000000
40
0.0000000000
40
0.0000000000
40
0.0000000000
40
0.2981709210
40
0.6490850504
40
1.0000000000
40
1.0000000000
40
1.0000000000
40
1.0000000000
10
0.0400734028
20
-22.0467087521
30
0.0000000000
10
0.0463059437
20
-22.0738263069
30
0.0000000000
10
0.0648010920
20
-22.1316953877
30
0.0000000000
10
0.1089970329
20
-22.2143795460
30
0.0000000000
10
0.1507381588
20
-22.2652375470
30
0.0000000000
10
0.1738879676
20
-22.2883873558
30
0.0000000000
11
0.0400734028
21
-22.0467087521
31
0.0000000000
11
0.0654489045
21
-22.1261067769
31
0.0000000000
11
0.1116777727
21
-22.2125864459
31
0.0000000000
11
0.1738879676
21
-22.2883873558
31
0.0000000000
0
SPLINE
5
3D7
100
AcDbEntity
8
0
100
AcDbSpline
62
9
6
CONTINUOUS
70
0
71
3
72
12
73
8
74
6
42
0.0000001000
43
0.0000001000
44
0.0000000001
12
-0.2503421830
22
0.0000022634
32
0.0000000000
13
0.0000308835
23
-0.2503401672
33
0.0000000000
40
0.0000000000
40
0.0000000000
40
0.0000000000
40
0.0000000000
40
0.3107821994
40
0.5882345987
40
0.8074166162
40
0.9495261819
40
1.0000000000
40
1.0000000000
40
1.0000000000
40
1.0000000000
10
0.7250000000
20
22.6297040760
30
0.0000000000
10
0.6990660353
20
22.6297043105
30
0.0000000000
10
0.6495247919
20
22.6297628994
30
0.0000000000
10
0.5838909054
20
22.6276203825
30
0.0000000000
10
0.5261819310
20
22.6289377051
30
0.0000000000
10
0.5004004829
20
22.6216622558
30
0.0000000000
10
0.4749994804
20
22.6260612114
30
0.0000000000
10
0.4750000000
20
22.6218493367
30
0.0000000000
11
0.7250000000
21
22.6297040760
31
0.0000000000
11
0.6471990828
21
22.6293141643
31
0.0000000000
11
0.5777500325
21
22.6281967396
31
0.0000000000
11
0.5229066098
21
22.6264729980
31
0.0000000000
11
0.4873975512
21
22.6242912832
31
0.0000000000
11
0.4750000000
21
22.6218493367
31
0.0000000000
0
SPLINE
5
3D8
100
AcDbEntity
8
0
100
AcDbSpline
62
9
6
CONTINUOUS
70
0
71
3
72
12
73
8
74
6
42
0.0000001000
43
0.0000001000
44
0.0000000001
12
0.0152558997
22
-0.0205604789
32
0.0000000000
13
0.0027071851
23
-0.0255683559
33
0.0000000000
40
0.0000000000
40
0.0000000000
40
0.0000000000
40
0.0000000000
40
0.1313938485
40
0.2693873560
40
0.4624861878
40
0.7102221709
40
1.0000000000
40
1.0000000000
40
1.0000000000
40
1.0000000000
10
22.2528247332
20
21.9406659488
30
0.0000000000
10
22.2534929103
20
21.9397654420
30
0.0000000000
10
22.2537166999
20
21.9373201534
30
0.0000000000
10
22.2544057287
20
21.9335020160
30
0.0000000000
10
22.2549510951
20
21.9285636250
30
0.0000000000
10
22.2556281777
20
21.9223720344
30
0.0000000000
10
22.2561231134
20
21.9178232572
30
0.0000000000
10
22.2563846075
20
21.9153535430
30
0.0000000000
11
22.2528247332
21
21.9406659488
31
0.0000000000
11
22.2537534574
21
21.9374327105
31
0.0000000000
11
22.2542921338
21
21.9339410728
31
0.0000000000
11
22.2548983090
21
21.9290346096
31
0.0000000000
11
22.2555885373
21
21.9227296770
31
0.0000000000
11
22.2563846075
21
21.9153535430
31
0.0000000000
0
SPLINE
5
3D9
100
AcDbEntity
8
0
100
AcDbSpline
62
9
6
CONTINUOUS
70
0
71
3
72
8
73
4
74
2
42
0.0000001000
43
0.0000001000
44
0.0000000001
12
0.0008120141
22
-0.0076691715
32
0.0000000000
13
0.0011471697
23
-0.0074784358
33
0.0000000000
40
0.0000000000
40
0.0000000000
40
0.0000000000
40
0.0000000000
40
1.0000000000
40
1.0000000000
40
1.0000000000
40
1.0000000000
10
22.2563846075
20
21.9153535430
30
0.0000000000
10
22.2566552788
20
21.9127971525
30
0.0000000000
10
22.2569202400
20
21.9102220834
30
0.0000000000
10
22.2573026299
20
21.9077292714
30
0.0000000000
11
22.2563846075
21
21.9153535430
31
0.0000000000
11
22.2573026299
21
21.9077292714
31
0.0000000000
0
SPLINE
5
3DA
100
AcDbEntity
8
0
100
AcDbSpline
62
9
6
CONTINUOUS
70
0
71
3
72
9
73
5
74
3
42
0.0000001000
43
0.0000001000
44
0.0000000001
12
0.0015249189
22
-0.0099409945
32
0.0000000000
13
0.0072300975
23
-0.0072062536
33
0.0000000000
40
0.0000000000
40
0.0000000000
40
0.0000000000
40
0.0000000000
40
0.6405506199
40
1.0000000000
40
1.0000000000
40
1.0000000000
40
1.0000000000
10
22.2573026299
20
21.9077292714
30
0.0000000000
10
22.2576282259
20
21.9056067014
30
0.0000000000
10
22.2582694447
20
21.9023861398
30
0.0000000000
10
22.2586522847
20
21.8986612326
30
0.0000000000
10
22.2595185694
20
21.8977978048
30
0.0000000000
11
22.2573026299
21
21.9077292714
31
0.0000000000
11
22.2583436779
21
21.9012739004
31
0.0000000000
11
22.2595185694
21
21.8977978048
31
0.0000000000
0
SPLINE
5
3DB
100
AcDbEntity
8
0
100
AcDbSpline
62
9
6
CONTINUOUS
70
0
71
3
72
10
73
6
74
4
42
0.0000001000
43
0.0000001000
44
0.0000000001
12
0.0154134135
22
-0.0210279100
32
0.0000000000
13
0.0156091404
23
-0.0208830481
33
0.0000000000
40
0.0000000000
40
0.0000000000
40
0.0000000000
40
0.0000000000
40
0.3764344993
40
0.7512009426
40
1.0000000000
40
1.0000000000
40
1.0000000000
40
1.0000000000
10
22.2353751542
20
21.9642119160
30
0.0000000000
10
22.2373092011
20
21.9615733724
30
0.0000000000
10
22.2411779270
20
21.9563147149
30
0.0000000000
10
22.2463524585
20
21.9493324610
30
0.0000000000
10
22.2495918252
20
21.9449880168
30
0.0000000000
10
22.2508863384
20
21.9432561226
30
0.0000000000
11
22.2353751542
21
21.9642119160
31
0.0000000000
11
22.2411911347
21
21.9563064485
31
0.0000000000
11
22.2470088707
21
21.9484563376
31
0.0000000000
11
22.2508863384
21
21.9432561226
31
0.0000000000
0
SPLINE
5
3DC
100
AcDbEntity
8
0
100
AcDbSpline
62
9
6
CONTINUOUS
70
0
71
3
72
8
73
4
74
2
42
0.0000001000
43
0.0000001000
44
0.0000000001
12
0.0019368840
22
-0.0025913049
32
0.0000000000
13
0.0019399058
23
-0.0025890415
33
0.0000000000
40
0.0000000000
40
0.0000000000
40
0.0000000000
40
0.0000000000
40
1.0000000000
40
1.0000000000
40
1.0000000000
40
1.0000000000
10
22.2508863384
20
21.9432561226
30
0.0000000000
10
22.2515319664
20
21.9423923543
30
0.0000000000
10
22.2521780979
20
21.9415289626
30
0.0000000000
10
22.2528247332
20
21.9406659488
30
0.0000000000
11
22.2508863384
21
21.9432561226
31
0.0000000000
11
22.2528247332
21
21.9406659488
31
0.0000000000
0
SPLINE
5
3DD
100
AcDbEntity
8
0
100
AcDbSpline
62
9
6
CONTINUOUS
70
0
71
3
72
14
73
10
74
8
42
0.0000001000
43
0.0000001000
44
0.0000000001
12
0.0255918899
22
-0.0258445731
32
0.0000000000
13
0.0216762968
23
-0.0292065908
33
0.0000000000
40
0.0000000000
40
0.0000000000
40
0.0000000000
40
0.0000000000
40
0.0521969405
40
0.2241732509
40
0.4629592101
40
0.6821735262
40
0.8431916983
40
0.9440459353
40
1.0000000000
40
1.0000000000
40
1.0000000000
40
1.0000000000
10
22.2283544073
20
21.9289665538
30
0.0000000000
10
22.2287996800
20
21.9285168846
30
0.0000000000
10
22.2307264078
20
21.9328656890
30
0.0000000000
10
22.2306246139
20
21.9367441087
30
0.0000000000
10
22.2320657383
20
21.9451416065
30
0.0000000000
10
22.2327017182
20
21.9521459421
30
0.0000000000
10
22.2336838720
20
21.9585992676
30
0.0000000000
10
22.2338316363
20
21.9611619233
30
0.0000000000
10
22.2349708619
20
21.9647566585
30
0.0000000000
10
22.2353751542
20
21.9642119160
30
0.0000000000
11
22.2283544073
21
21.9289665538
31
0.0000000000
11
22.2295897956
21
21.9304080974
31
0.0000000000
11
22.2308198469
21
21.9365409986
31
0.0000000000
11
22.2319536236
21
21.9451516827
31
0.0000000000
11
22.2328896779
21
21.9530697012
31
0.0000000000
11
22.2336506052
21
21.9588765315
31
0.0000000000
11
22.2342936129
21
21.9624879559
31
0.0000000000
11
22.2353751542
21
21.9642119160
31
0.0000000000
0
SPLINE
5
3DE
100
AcDbEntity
8
0
100
AcDbSpline
62
7
6
CONTINUOUS
70
0
71
3
72
11
73
7
74
5
42
0.0000001000
43
0.0000001000
44
0.0000000001
12
0.0000000000
22
0.3922423365
32
0.0000000000
13
-0.2777975867
23
0.2777975873
33
0.0000000000
40
0.0000000000
40
0.0000000000
40
0.0000000000
40
0.0000000000
40
0.2500000360
40
0.5000003710
40
0.7499998934
40
1.0000000000
40
1.0000000000
40
1.0000000000
40
1.0000000000
10
22.2226348052
20
21.9346816494
30
0.0000000000
10
22.2226348052
20
21.9673685155
30
0.0000000000
10
22.2161838668
20
22.0329234705
30
0.0000000000
10
22.1875299941
20
22.1273342656
30
0.0000000000
10
22.1410029671
20
22.2143795460
30
0.0000000000
10
22.0992618412
20
22.2652375470
30
0.0000000000
10
22.0761120324
20
22.2883873558
30
0.0000000000
11
22.2226348052
21
21.9346816494
31
0.0000000000
11
22.2130209594
21
22.0322698398
31
0.0000000000
11
22.1845510955
21
22.1261067769
31
0.0000000000
11
22.1383222273
21
22.2125864459
31
0.0000000000
11
22.0761120324
21
22.2883873558
31
0.0000000000
0
SPLINE
5
3DF
100
AcDbEntity
8
0
100
AcDbSpline
62
9
6
CONTINUOUS
70
0
71
3
72
8
73
4
74
2
42
0.0000001000
43
0.0000001000
44
0.0000000001
12
0.0000231453
22
-0.0759537557
32
0.0000000000
13
-0.0115699331
23
-0.0754370123
33
0.0000000000
40
0.0000000000
40
0.0000000000
40
0.0000000000
40
0.0000000000
40
1.0000000000
40
1.0000000000
40
1.0000000000
40
1.0000000000
10
22.2595185694
20
-21.8977978050
30
0.0000000000
10
22.2595262845
20
-21.9231157235
30
0.0000000000
10
22.2575785820
20
-21.9485209677
30
0.0000000000
10
22.2537219376
20
-21.9736666385
30
0.0000000000
11
22.2595185694
21
-21.8977978050
31
0.0000000000
11
22.2537219376
21
-21.9736666385
31
0.0000000000
0
SPLINE
5
3E0
100
AcDbEntity
8
0
100
AcDbSpline
62
9
6
CONTINUOUS
70
0
71
3
72
8
73
4
74
2
42
0.0000001000
43
0.0000001000
44
0.0000000001
12
-0.0028181644
22
-0.0183746872
32
0.0000000000
13
-0.0034956893
23
-0.0182672456
33
0.0000000000
40
0.0000000000
40
0.0000000000
40
0.0000000000
40
0.0000000000
40
1.0000000000
40
1.0000000000
40
1.0000000000
40
1.0000000000
10
22.2537219376
20
-21.9736666385
30
0.0000000000
10
22.2527825495
20
-21.9797915342
30
0.0000000000
10
22.2517299047
20
-21.9859010296
30
0.0000000000
10
22.2505646749
20
-21.9919901114
30
0.0000000000
11
22.2537219376
21
-21.9736666385
31
0.0000000000
11
22.2505646749
21
-21.9919901114
31
0.0000000000
0
SPLINE
5
3E1
100
AcDbEntity
8
0
100
AcDbSpline
62
9
6
CONTINUOUS
70
0
71
3
72
9
73
5
74
3
42
0.0000001000
43
0.0000001000
44
0.0000000001
12
-0.0657187819
22
-0.1476429739
32
0.0000000000
13
-0.1092396430
23
-0.1190930732
33
0.0000000000
40
0.0000000000
40
0.0000000000
40
0.0000000000
40
0.0000000000
40
0.6481307893
40
1.0000000000
40
1.0000000000
40
1.0000000000
40
1.0000000000
10
22.2163458585
20
-22.1011729942
30
0.0000000000
10
22.2021477365
20
-22.1330703133
30
0.0000000000
10
22.1750973802
20
-22.1799593806
30
0.0000000000
10
22.1409346587
20
-22.2217153730
30
0.0000000000
10
22.1281219697
20
-22.2356837682
30
0.0000000000
11
22.2163458585
21
-22.1011729942
31
0.0000000000
11
22.1640956826
21
-22.1916945408
31
0.0000000000
11
22.1281219697
21
-22.2356837682
31
0.0000000000
0
SPLINE
5
3E2
100
AcDbEntity
8
0
100
AcDbSpline
62
9
6
CONTINUOUS
70
0
71
3
72
12
73
8
74
6
42
0.0000001000
43
0.0000001000
44
0.0000000001
12
0.0154922485
22
0.0208551760
32
0.0000000000
13
0.0027315042
23
0.0259705875
33
0.0000000000
40
0.0000000000
40
0.0000000000
40
0.0000000000
40
0.0000000000
40
0.1653330706
40
0.3426440317
40
0.5881323187
40
0.8916194925
40
1.0000000000
40
1.0000000000
40
1.0000000000
40
1.0000000000
10
22.2528247568
20
-21.9406659172
30
0.0000000000
10
22.2536785505
20
-21.9395165671
30
0.0000000000
10
22.2538385346
20
-21.9363227432
30
0.0000000000
10
22.2546948097
20
-21.9314013685
30
0.0000000000
10
22.2553168316
20
-21.9250957502
30
0.0000000000
10
22.2559496426
20
-21.9194672902
30
0.0000000000
10
22.2563123368
20
-21.9158967234
30
0.0000000000
10
22.2564110174
20
-21.9149584882
30
0.0000000000
11
22.2528247568
21
-21.9406659172
31
0.0000000000
11
22.2539118421
21
-21.9365104426
31
0.0000000000
11
22.2545509716
21
-21.9319484992
31
0.0000000000
11
22.2552788193
21
-21.9256124398
31
0.0000000000
11
22.2561191151
21
-21.9177728200
31
0.0000000000
11
22.2564110174
21
-21.9149584882
31
0.0000000000
0
SPLINE
5
3E3
100
AcDbEntity
8
0
100
AcDbSpline
62
9
6
CONTINUOUS
70
0
71
3
72
10
73
6
74
4
42
0.0000001000
43
0.0000001000
44
0.0000000001
12
0.0018400893
22
0.0174951963
32
0.0000000000
13
0.0123215807
23
0.0124288727
33
0.0000000000
40
0.0000000000
40
0.0000000000
40
0.0000000000
40
0.0000000000
40
0.3258148042
40
0.7556079970
40
1.0000000000
40
1.0000000000
40
1.0000000000
40
1.0000000000
10
22.2564110174
20
-21.9149584882
30
0.0000000000
10
22.2566108601
20
-21.9130584236
30
0.0000000000
10
22.2571051369
20
-21.9086646471
30
0.0000000000
10
22.2581837359
20
-21.9031482275
30
0.0000000000
10
22.2585148041
20
-21.8988103107
30
0.0000000000
10
22.2595185694
20
-21.8977978050
30
0.0000000000
11
22.2564110174
21
-21.9149584882
31
0.0000000000
11
22.2570967516
21
-21.9093112017
31
0.0000000000
11
22.2582227289
21
-21.9018739809
31
0.0000000000
11
22.2595185694
21
-21.8977978050
31
0.0000000000
0
SPLINE
5
3E4
100
AcDbEntity
8
0
100
AcDbSpline
62
9
6
CONTINUOUS
70
0
71
3
72
10
73
6
74
4
42
0.0000001000
43
0.0000001000
44
0.0000000001
12
0.0001309038
22
-0.3150247545
32
0.0000000000
13
-0.1868965376
23
-0.2549287986
33
0.0000000000
40
0.0000000000
40
0.0000000000
40
0.0000000000
40
0.0000000000
40
0.4827878059
40
0.9655370891
40
1.0000000000
40
1.0000000000
40
1.0000000000
40
1.0000000000
10
22.2353734198
20
-21.9642142736
30
0.0000000000
10
22.2353944860
20
-22.0149109770
30
0.0000000000
10
22.2197746781
20
-22.1169812457
30
0.0000000000
10
22.1726039771
20
-22.2125766436
30
0.0000000000
10
22.1408631504
20
-22.2568792880
30
0.0000000000
10
22.1387161508
20
-22.2598078175
30
0.0000000000
11
22.2353734198
21
-21.9642142736
31
0.0000000000
11
22.2122921445
21
-22.1145427816
31
0.0000000000
11
22.1450604592
21
-22.2509525128
31
0.0000000000
11
22.1387161508
21
-22.2598078175
31
0.0000000000
0
SPLINE
5
3E5
100
AcDbEntity
8
0
100
AcDbSpline
62
9
6
CONTINUOUS
70
0
71
3
72
10
73
6
74
4
42
0.0000001000
43
0.0000001000
44
0.0000000001
12
0.0154134285
22
0.0210279306
32
0.0000000000
13
0.0156091556
23
0.0208830685
33
0.0000000000
40
0.0000000000
40
0.0000000000
40
0.0000000000
40
0.0000000000
40
0.3764342676
40
0.7512003438
40
1.0000000000
40
1.0000000000
40
1.0000000000
40
1.0000000000
10
22.2353751521
20
-21.9642119188
30
0.0000000000
10
22.2373091997
20
-21.9615733743
30
0.0000000000
10
22.2411779262
20
-21.9563147158
30
0.0000000000
10
22.2463524628
20
-21.9493324551
30
0.0000000000
10
22.2495918340
20
-21.9449880051
30
0.0000000000
10
22.2508863515
20
-21.9432561050
30
0.0000000000
11
22.2353751521
21
-21.9642119188
31
0.0000000000
11
22.2411911347
21
-21.9563064485
31
0.0000000000
11
22.2470088707
21
-21.9484563376
31
0.0000000000
11
22.2508863515
21
-21.9432561050
31
0.0000000000
0
SPLINE
5
3E6
100
AcDbEntity
8
0
100
AcDbSpline
62
9
6
CONTINUOUS
70
0
71
3
72
8
73
4
74
2
42
0.0000001000
43
0.0000001000
44
0.0000000001
12
0.0019368945
22
0.0025913189
32
0.0000000000
13
0.0019399163
23
0.0025890556
33
0.0000000000
40
0.0000000000
40
0.0000000000
40
0.0000000000
40
0.0000000000
40
1.0000000000
40
1.0000000000
40
1.0000000000
40
1.0000000000
10
22.2508863515
20
-21.9432561050
30
0.0000000000
10
22.2515319830
20
-21.9423923320
30
0.0000000000
10
22.2521781180
20
-21.9415289357
30
0.0000000000
10
22.2528247568
20
-21.9406659172
30
0.0000000000
11
22.2508863515
21
-21.9432561050
31
0.0000000000
11
22.2528247568
21
-21.9406659172
31
0.0000000000
0
SPLINE
5
3E7
100
AcDbEntity
8
0
100
AcDbSpline
62
9
6
CONTINUOUS
70
0
71
3
72
14
73
10
74
8
42
0.0000001000
43
0.0000001000
44
0.0000000001
12
0.0255218452
22
0.0258553387
32
0.0000000000
13
0.0216743917
23
0.0291561978
33
0.0000000000
40
0.0000000000
40
0.0000000000
40
0.0000000000
40
0.0000000000
40
0.0689354161
40
0.2539417207
40
0.4783808590
40
0.6853371255
40
0.8434730625
40
0.9445243136
40
1.0000000000
40
1.0000000000
40
1.0000000000
40
1.0000000000
10
22.2283544073
20
-21.9289665558
30
0.0000000000
10
22.2289408603
20
-21.9283724396
30
0.0000000000
10
22.2306922389
20
-21.9337288525
30
0.0000000000
10
22.2308576846
20
-21.9374937155
30
0.0000000000
10
22.2320936742
20
-21.9457405641
30
0.0000000000
10
22.2327413885
20
-21.9523994280
30
0.0000000000
10
22.2336906586
20
-21.9586462611
30
0.0000000000
10
22.2338308160
20
-21.9611762367
30
0.0000000000
10
22.2349743515
20
-21.9647510722
30
0.0000000000
10
22.2353751521
20
-21.9642119188
30
0.0000000000
11
22.2283544073
21
-21.9289665558
31
0.0000000000
11
22.2297691347
21
-21.9310331126
31
0.0000000000
11
22.2309827571
21
-21.9376439004
31
0.0000000000
11
22.2320228835
21
-21.9457311438
31
0.0000000000
11
22.2329050383
21
-21.9531979184
31
0.0000000000
11
22.2336534032
21
-21.9588940340
31
0.0000000000
11
22.2342986593
21
-21.9625080672
31
0.0000000000
11
22.2353751521
21
-21.9642119188
31
0.0000000000
0
SPLINE
5
3E8
100
AcDbEntity
8
0
100
AcDbSpline
62
9
6
CONTINUOUS
70
0
71
3
72
12
73
8
74
6
42
0.0000001000
43
0.0000001000
44
0.0000000001
12
0.2503389869
22
-0.0000011533
32
0.0000000000
13
-0.0013519705
23
-0.2501813853
33
0.0000000000
40
0.0000000000
40
0.0000000000
40
0.0000000000
40
0.0000000000
40
0.3099985709
40
0.5869657482
40
0.8064650028
40
0.9492421028
40
1.0000000000
40
1.0000000000
40
1.0000000000
40
1.0000000000
10
21.5250000000
20
22.6297040760
30
0.0000000000
10
21.5508682427
20
22.6297039568
30
0.0000000000
10
21.6003034943
20
22.6297623662
30
0.0000000000
10
21.6658525928
20
22.6276275946
30
0.0000000000
10
21.7236308521
20
22.6289521924
30
0.0000000000
10
21.7494328945
20
22.6216500346
30
0.0000000000
10
21.7750228920
20
22.6260852339
30
0.0000000000
10
21.7750000176
20
22.6218523402
30
0.0000000000
11
21.5250000000
21
22.6297040760
31
0.0000000000
11
21.6026037577
21
22.6293159775
31
0.0000000000
11
21.6719305335
21
22.6282046544
31
0.0000000000
11
21.7268528200
21
22.6264843843
31
0.0000000000
11
21.7625286371
21
22.6242992392
31
0.0000000000
11
21.7750000176
21
22.6218523402
31
0.0000000000
0
SPLINE
5
3E9
100
AcDbEntity
8
0
100
AcDbSpline
62
9
6
CONTINUOUS
70
0
71
3
72
11
73
7
74
5
42
0.0000001000
43
0.0000001000
44
0.0000000001
12
0.0722189712
22
-0.0039165990
32
0.0000000000
13
0.0715878973
23
-0.0022085220
33
0.0000000000
40
0.0000000000
40
0.0000000000
40
0.0000000000
40
0.0000000000
40
0.0093984205
40
0.4570405663
40
0.8740492185
40
1.0000000000
40
1.0000000000
40
1.0000000000
40
1.0000000000
10
21.7871422089
20
-22.4306688359
30
0.0000000000
10
21.7873684570
20
-22.4306811058
30
0.0000000000
10
21.7983705034
20
-22.4312779725
30
0.0000000000
10
21.8193840419
20
-22.4324285955
30
0.0000000000
10
21.8434145358
20
-22.4337726004
30
0.0000000000
10
21.8563143721
20
-22.4341802189
30
0.0000000000
10
21.8593198893
20
-22.4342729406
30
0.0000000000
11
21.7871422089
21
-22.4306688359
31
0.0000000000
11
21.7878209355
21
-22.4307056554
31
0.0000000000
11
21.8201707842
21
-22.4324782684
31
0.0000000000
11
21.8503149876
21
-22.4339734016
31
0.0000000000
11
21.8593198893
21
-22.4342729406
31
0.0000000000
0
SPLINE
5
3EA
100
AcDbEntity
8
0
100
AcDbSpline
62
9
6
CONTINUOUS
70
0
71
3
72
11
73
7
74
5
42
0.0000001000
43
0.0000001000
44
0.0000000001
12
0.0462199857
22
-0.0014259094
32
0.0000000000
13
0.0241361965
23
0.0305636907
33
0.0000000000
40
0.0000000000
40
0.0000000000
40
0.0000000000
40
0.0000000000
40
0.3417753172
40
0.7232707126
40
0.9407246923
40
1.0000000000
40
1.0000000000
40
1.0000000000
40
1.0000000000
10
21.8593198893
20
-22.4342729406
30
0.0000000000
10
21.8645855061
20
-22.4344353875
30
0.0000000000
10
21.8758139855
20
-22.4347672478
30
0.0000000000
10
21.8915221009
20
-22.4356632680
30
0.0000000000
10
21.8996713369
20
-22.4342068566
30
0.0000000000
10
21.9059122462
20
-22.4349756565
30
0.0000000000
10
21.9063891397
20
-22.4343717658
30
0.0000000000
11
21.8593198893
21
-22.4342729406
31
0.0000000000
11
21.8753868392
21
-22.4348287482
31
0.0000000000
11
21.8932121953
21
-22.4350504227
31
0.0000000000
11
21.9033677938
21
-22.4347096702
31
0.0000000000
11
21.9063891397
21
-22.4343717658
31
0.0000000000
0
SPLINE
5
3EB
100
AcDbEntity
8
0
100
AcDbSpline
62
9
6
CONTINUOUS
70
0
71
3
72
12
73
8
74
6
42
0.0000001000
43
0.0000001000
44
0.0000000001
12
-0.2503389869
22
0.0000011533
32
0.0000000000
13
0.0013519705
23
0.2501813853
33
0.0000000000
40
0.0000000000
40
0.0000000000
40
0.0000000000
40
0.0000000000
40
0.3099985709
40
0.5869657482
40
0.8064650028
40
0.9492421028
40
1.0000000000
40
1.0000000000
40
1.0000000000
40
1.0000000000
10
0.7250000000
20
-22.6297040760
30
0.0000000000
10
0.6991317573
20
-22.6297039568
30
0.0000000000
10
0.6496965057
20
-22.6297623662
30
0.0000000000
10
0.5841474072
20
-22.6276275946
30
0.0000000000
10
0.5263691479
20
-22.6289521924
30
0.0000000000
10
0.5005671055
20
-22.6216500346
30
0.0000000000
10
0.4749771080
20
-22.6260852339
30
0.0000000000
10
0.4749999824
20
-22.6218523402
30
0.0000000000
11
0.7250000000
21
-22.6297040760
31
0.0000000000
11
0.6473962423
21
-22.6293159775
31
0.0000000000
11
0.5780694665
21
-22.6282046544
31
0.0000000000
11
0.5231471800
21
-22.6264843843
31
0.0000000000
11
0.4874713629
21
-22.6242992392
31
0.0000000000
11
0.4749999824
21
-22.6218523402
31
0.0000000000
0
SPLINE
5
3EC
100
AcDbEntity
8
0
100
AcDbSpline
62
9
6
CONTINUOUS
70
0
71
3
72
11
73
7
74
5
42
0.0000001000
43
0.0000001000
44
0.0000000001
12
0.0000000000
22
0.3645127889
32
0.0000000000
13
0.3645127889
23
0.0000000000
33
0.0000000000
40
0.0000000000
40
0.0000000000
40
0.0000000000
40
0.0000000000
40
0.2332175100
40
0.4765997713
40
0.7336719567
40
1.0000000000
40
1.0000000000
40
1.0000000000
40
1.0000000000
10
0.4750000000
20
-23.4113248654
30
0.0000000000
10
0.4750000000
20
-23.3829879437
30
0.0000000000
10
0.4887658756
20
-23.3243445575
30
0.0000000000
10
0.5456873987
20
-23.2525602279
30
0.0000000000
10
0.6284867921
20
-23.2056005996
30
0.0000000000
10
0.6926400074
20
-23.1948185145
30
0.0000000000
10
0.7250000000
20
-23.1948185145
30
0.0000000000
11
0.4750000000
21
-23.4113248654
31
0.0000000000
11
0.4940301169
21
-23.3284714719
31
0.0000000000
11
0.5482233047
21
-23.2582317565
31
0.0000000000
11
0.6293291419
21
-23.2112990791
31
0.0000000000
11
0.7250000000
21
-23.1948185145
31
0.0000000000
0
SPLINE
5
3ED
100
AcDbEntity
8
0
100
AcDbSpline
62
9
6
CONTINUOUS
70
0
71
3
72
13
73
9
74
7
42
0.0000001000
43
0.0000001000
44
0.0000000001
12
0.0933594994
22
0.5574695609
32
0.0000000000
13
0.0006849263
23
-0.5652325524
33
0.0000000000
40
0.0000000000
40
0.0000000000
40
0.0000000000
40
0.0000000000
40
0.0077265734
40
0.0883836006
40
0.2390810585
40
0.4506817482
40
0.7101528228
40
1.0000000000
40
1.0000000000
40
1.0000000000
40
1.0000000000
10
-22.1748339282
20
21.1336319116
30
0.0000000000
10
-22.1745934785
20
21.1350676880
30
0.0000000000
10
-22.1578820320
20
21.1078467674
30
0.0000000000
10
-22.1787321810
20
21.0791309644
30
0.0000000000
10
-22.1612265625
20
20.9847774561
30
0.0000000000
10
-22.1663621201
20
20.8725338080
30
0.0000000000
10
-22.1625997375
20
20.7273479881
30
0.0000000000
10
-22.1629229488
20
20.6243225675
30
0.0000000000
10
-22.1628567742
20
20.5697122142
30
0.0000000000
11
-22.1748339282
21
21.1336319116
31
0.0000000000
11
-22.1718582420
21
21.1304352378
31
0.0000000000
11
-22.1690604231
21
21.0849311577
31
0.0000000000
11
-22.1666284067
21
20.9997867127
31
0.0000000000
11
-22.1647116941
21
20.8801983861
31
0.0000000000
11
-22.1634280545
21
20.7335423982
31
0.0000000000
11
-22.1628567742
21
20.5697122142
31
0.0000000000
0
SPLINE
5
3EE
100
AcDbEntity
8
0
100
AcDbSpline
62
9
6
CONTINUOUS
70
0
71
3
72
12
73
8
74
6
42
0.0000001000
43
0.0000001000
44
0.0000000001
12
-0.8315372060
22
-0.0009669406
32
0.0000000000
13
-0.0763195041
23
-0.8280280148
33
0.0000000000
40
0.0000000000
40
0.0000000000
40
0.0000000000
40
0.0000000000
40
0.2942473375
40
0.5614232974
40
0.7774222506
40
0.9245368396
40
1.0000000000
40
1.0000000000
40
1.0000000000
40
1.0000000000
10
-21.3629786180
20
20.7191485388
30
0.0000000000
10
-21.4445378210
20
20.7190536989
30
0.0000000000
10
-21.6004487773
20
20.7142542333
30
0.0000000000
10
-21.8141972415
20
20.6955395121
30
0.0000000000
10
-21.9892798817
20
20.6635169975
30
0.0000000000
10
-22.1002843687
20
20.6322090317
30
0.0000000000
10
-22.1609370038
20
20.5905407512
30
0.0000000000
10
-22.1628567742
20
20.5697122142
30
0.0000000000
11
-21.3629786180
21
20.7191485388
31
0.0000000000
11
-21.6075408097
21
20.7116287226
31
0.0000000000
11
-21.8286871190
21
20.6903580381
31
0.0000000000
11
-22.0052436433
21
20.6573730677
31
0.0000000000
11
-22.1203057797
21
20.6158319941
31
0.0000000000
11
-22.1628567742
21
20.5697122142
31
0.0000000000
0
SPLINE
5
3EF
100
AcDbEntity
8
0
100
AcDbSpline
62
9
6
CONTINUOUS
70
0
71
3
72
12
73
8
74
6
42
0.0000001000
43
0.0000001000
44
0.0000000001
12
-0.8027924598
22
0.0009491748
32
0.0000000000
13
-0.2456323398
23
-0.7642914288
33
0.0000000000
40
0.0000000000
40
0.0000000000
40
0.0000000000
40
0.0000000000
40
0.3046445219
40
0.5802075656
40
0.8004336505
40
0.9445084780
40
1.0000000000
40
1.0000000000
40
1.0000000000
40
1.0000000000
10
-21.3629786181
20
-19.6810967786
30
0.0000000000
10
-21.4445007264
20
-19.6810003916
30
0.0000000000
10
-21.6006168963
20
-19.6815144083
30
0.0000000000
10
-21.8114692191
20
-19.6889553155
30
0.0000000000
10
-21.9910409874
20
-19.6915143029
30
0.0000000000
10
-22.0862347870
20
-19.7122522611
30
0.0000000000
10
-22.1583132699
20
-19.7086607730
30
0.0000000000
10
-22.1628567741
20
-19.7227980046
30
0.0000000000
11
-21.3629786181
21
-19.6810967786
31
0.0000000000
11
-21.6075385732
21
-19.6828854390
31
0.0000000000
11
-21.8286833212
21
-19.6886584719
31
0.0000000000
11
-22.0052395078
21
-19.6978631373
31
0.0000000000
11
-22.1203028803
21
-19.7096181398
31
0.0000000000
11
-22.1628567741
21
-19.7227980046
31
0.0000000000
0
SPLINE
5
3F0
100
AcDbEntity
8
0
100
AcDbSpline
62
9
6
CONTINUOUS
70
0
71
3
72
13
73
9
74
7
42
0.0000001000
43
0.0000001000
44
0.0000000001
12
0.3038594160
22
-0.0418596694
32
0.0000000000
13
0.0006876331
23
-1.2075678115
33
0.0000000000
40
0.0000000000
40
0.0000000000
40
0.0000000000
40
0.0000000000
40
0.0051095246
40
0.0859809515
40
0.2368566508
40
0.4485569943
40
0.7082214209
40
1.0000000000
40
1.0000000000
40
1.0000000000
40
1.0000000000
10
-21.3747027739
20
21.9282418708
30
0.0000000000
10
-21.3741852482
20
21.9281705764
30
0.0000000000
10
-21.3546612783
20
21.8619679030
30
0.0000000000
10
-21.3818462676
20
21.8183697263
30
0.0000000000
10
-21.3599207340
20
21.6048610569
30
0.0000000000
10
-21.3670324197
20
21.3700784011
30
0.0000000000
10
-21.3625268689
20
21.0570421362
30
0.0000000000
10
-21.3630454969
20
20.8365960192
30
0.0000000000
10
-21.3629786180
20
20.7191485457
30
0.0000000000
11
-21.3747027739
21
21.9282418708
31
0.0000000000
11
-21.3719685744
21
21.9204801269
31
0.0000000000
11
-21.3691771805
21
21.8228622811
31
0.0000000000
11
-21.3667498457
21
21.6406857838
31
0.0000000000
11
-21.3648362117
21
21.3850503843
31
0.0000000000
11
-21.3635533458
21
21.0714905544
31
0.0000000000
11
-21.3629786180
21
20.7191485457
31
0.0000000000
0
SPLINE
5
3F1
100
AcDbEntity
8
0
100
AcDbSpline
62
9
6
CONTINUOUS
70
0
71
3
72
12
73
8
74
6
42
0.0000001000
43
0.0000001000
44
0.0000000001
12
0.8027927421
22
0.0009492345
32
0.0000000000
13
0.2454376877
23
-0.7643542564
33
0.0000000000
40
0.0000000000
40
0.0000000000
40
0.0000000000
40
0.0000000000
40
0.3046472017
40
0.5802120985
40
0.8004385434
40
0.9445118285
40
1.0000000000
40
1.0000000000
40
1.0000000000
40
1.0000000000
10
21.1129786180
20
-19.6810956594
30
0.0000000000
10
21.1945014722
20
-19.6809992655
30
0.0000000000
10
21.3506192565
20
-19.6815132655
30
0.0000000000
10
21.5614716288
20
-19.6889544625
30
0.0000000000
10
21.7410470135
20
-19.6915133159
30
0.0000000000
10
21.8362332540
20
-19.7122519417
30
0.0000000000
10
21.9083171447
20
-19.7086604646
30
0.0000000000
10
21.9128567742
20
-19.7227980046
30
0.0000000000
11
21.1129786180
21
-19.6810956594
31
0.0000000000
11
21.3575408103
21
-19.6828843636
31
0.0000000000
11
21.5786871200
21
-19.6886575629
31
0.0000000000
11
21.7552436444
21
-19.6978624922
31
0.0000000000
11
21.8703057804
21
-19.7096178150
31
0.0000000000
11
21.9128567742
21
-19.7227980046
31
0.0000000000
0
SPLINE
5
3F2
100
AcDbEntity
8
0
100
AcDbSpline
62
9
6
CONTINUOUS
70
0
71
3
72
13
73
9
74
7
42
0.0000001000
43
0.0000001000
44
0.0000000001
12
0.0006876331
22
1.2075678145
32
0.0000000000
13
0.3038590582
23
0.0418575008
33
0.0000000000
40
0.0000000000
40
0.0000000000
40
0.0000000000
40
0.0000000000
40
0.2917785784
40
0.5514430044
40
0.7631433473
40
0.9140190463
40
0.9948904730
40
1.0000000000
40
1.0000000000
40
1.0000000000
40
1.0000000000
10
21.1129786180
20
20.7191485457
30
0.0000000000
10
21.1130454969
20
20.8365960192
30
0.0000000000
10
21.1125268689
20
21.0570421362
30
0.0000000000
10
21.1170324197
20
21.3700784011
30
0.0000000000
10
21.1099207340
20
21.6048610569
30
0.0000000000
10
21.1318462676
20
21.8183697263
30
0.0000000000
10
21.1046612780
20
21.8619679035
30
0.0000000000
10
21.1241852493
20
21.9281705802
30
0.0000000000
10
21.1247027746
20
21.9282418709
30
0.0000000000
11
21.1129786180
21
20.7191485457
31
0.0000000000
11
21.1135533458
21
21.0714905544
31
0.0000000000
11
21.1148362117
21
21.3850503843
31
0.0000000000
11
21.1167498457
21
21.6406857838
31
0.0000000000
11
21.1191771805
21
21.8228622811
31
0.0000000000
11
21.1219685744
21
21.9204801269
31
0.0000000000
11
21.1247027746
21
21.9282418709
31
0.0000000000
0
SPLINE
5
3F3
100
AcDbEntity
8
0
100
AcDbSpline
62
9
6
CONTINUOUS
70
0
71
3
72
13
73
9
74
7
42
0.0000001000
43
0.0000001000
44
0.0000000001
12
0.0006849262
22
0.5652325525
32
0.0000000000
13
0.0933595018
23
-0.5574695605
33
0.0000000000
40
0.0000000000
40
0.0000000000
40
0.0000000000
40
0.0000000000
40
0.2898471771
40
0.5493182518
40
0.7609189415
40
0.9116163993
40
0.9922734267
40
1.0000000000
40
1.0000000000
40
1.0000000000
40
1.0000000000
10
21.9128567742
20
20.5697122142
30
0.0000000000
10
21.9129229488
20
20.6243225675
30
0.0000000000
10
21.9125997375
20
20.7273479881
30
0.0000000000
10
21.9163621202
20
20.8725338080
30
0.0000000000
10
21.9112265625
20
20.9847774561
30
0.0000000000
10
21.9287321811
20
21.0791309643
30
0.0000000000
10
21.9078820318
20
21.1078467676
30
0.0000000000
10
21.9245934785
20
21.1350676880
30
0.0000000000
10
21.9248339282
20
21.1336319116
30
0.0000000000
11
21.9128567742
21
20.5697122142
31
0.0000000000
11
21.9134280545
21
20.7335423982
31
0.0000000000
11
21.9147116941
21
20.8801983861
31
0.0000000000
11
21.9166284067
21
20.9997867127
31
0.0000000000
11
21.9190604231
21
21.0849311577
31
0.0000000000
11
21.9218582420
21
21.1304352379
31
0.0000000000
11
21.9248339282
21
21.1336319116
31
0.0000000000
0
SPLINE
5
3F4
100
AcDbEntity
8
0
100
AcDbSpline
62
9
6
CONTINUOUS
70
0
71
3
72
12
73
8
74
6
42
0.0000001000
43
0.0000001000
44
0.0000000001
12
0.8315348666
22
-0.0009667488
32
0.0000000000
13
0.0763852826
23
-0.8280195997
33
0.0000000000
40
0.0000000000
40
0.0000000000
40
0.0000000000
40
0.0000000000
40
0.2942454671
40
0.5614202350
40
0.7774191911
40
0.9245351593
40
1.0000000000
40
1.0000000000
40
1.0000000000
40
1.0000000000
10
21.1129786181
20
20.7191446146
30
0.0000000000
10
21.1945370731
20
20.7190497941
30
0.0000000000
10
21.3504467383
20
20.7142505496
30
0.0000000000
10
21.5641937965
20
20.6955361520
30
0.0000000000
10
21.7392760986
20
20.6635150449
30
0.0000000000
10
21.8502812955
20
20.6322066286
30
0.0000000000
10
21.9109353063
20
20.5905410033
30
0.0000000000
10
21.9128567741
20
20.5697122142
30
0.0000000000
11
21.1129786181
21
20.7191446146
31
0.0000000000
11
21.3575385732
21
20.7116250675
31
0.0000000000
11
21.5786833212
21
20.6903550335
31
0.0000000000
11
21.7552395078
21
20.6573709931
31
0.0000000000
11
21.8703028803
21
20.6158309799
31
0.0000000000
11
21.9128567741
21
20.5697122142
31
0.0000000000
0
SPLINE
5
3F5
100
AcDbEntity
8
0
100
AcDbSpline
62
7
6
CONTINUOUS
70
0
71
3
72
18
73
14
74
12
42
0.0000001000
43
0.0000001000
44
0.0000000001
12
-1.1289954714
22
0.0000927327
32
0.0000000000
13
-0.1860861075
23
-1.1120808586
33
0.0000000000
40
0.0000000000
40
0.0000000000
40
0.0000000000
40
0.0000000000
40
0.0292114328
40
0.1453485474
40
0.2574956648
40
0.3656669428
40
0.4698756061
40
0.5701131280
40
0.6663831906
40
0.7586866657
40
0.8465930724
40
0.9290877069
40
1.0000000000
40
1.0000000000
40
1.0000000000
40
1.0000000000
10
-21.3736735516
20
21.9357244057
30
0.0000000000
10
-21.3846667434
20
21.9357253087
30
0.0000000000
10
-21.4393664389
20
21.9346041115
30
0.0000000000
10
-21.5357886704
20
21.9226680845
30
0.0000000000
10
-21.6576519349
20
21.8870942043
30
0.0000000000
10
-21.7684301476
20
21.8350270069
30
0.0000000000
10
-21.8664443729
20
21.7695349798
30
0.0000000000
10
-21.9506817325
20
21.6936724992
30
0.0000000000
10
-22.0207375974
20
21.6103677770
30
0.0000000000
10
-22.0766401573
20
21.5224651108
30
0.0000000000
10
-22.1187610555
20
21.4329211153
30
0.0000000000
10
-22.1473585922
20
21.3466698426
30
0.0000000000
10
-22.1595852483
20
21.2902443865
30
0.0000000000
10
-22.1639838458
20
21.2639576519
30
0.0000000000
11
-21.3736735516
21
21.9357244057
31
0.0000000000
11
-21.4066422960
21
21.9350477943
31
0.0000000000
11
-21.5365581528
21
21.9189749293
31
0.0000000000
11
-21.6579020561
21
21.8835507494
31
0.0000000000
11
-21.7682497792
21
21.8316885419
31
0.0000000000
11
-21.8659150683
21
21.7664308879
31
0.0000000000
11
-21.9498728446
21
21.6908223463
31
0.0000000000
11
-22.0197155487
21
21.6077740546
31
0.0000000000
11
-22.0755502502
21
21.5199835508
31
0.0000000000
11
-22.1177319043
21
21.4303250551
31
0.0000000000
11
-22.1470096495
21
21.3420690630
31
0.0000000000
11
-22.1639838458
21
21.2639576519
31
0.0000000000
0
SPLINE
5
3F6
100
AcDbEntity
8
0
100
AcDbSpline
62
7
6
CONTINUOUS
70
0
71
3
72
8
73
4
74
2
42
0.0000001000
43
0.0000001000
44
0.0000000001
12
0.0215261534
22
-0.1288810815
32
0.0000000000
13
0.0000000000
23
-0.1303791654
33
0.0000000000
40
0.0000000000
40
0.0000000000
40
0.0000000000
40
0.0000000000
40
1.0000000000
40
1.0000000000
40
1.0000000000
40
1.0000000000
10
22.0142063267
20
20.6636849460
30
0.0000000000
10
22.0213817112
20
20.6207245855
30
0.0000000000
10
22.0250000000
20
20.5771625865
30
0.0000000000
10
22.0250000000
20
20.5337028647
30
0.0000000000
11
22.0142063267
21
20.6636849460
31
0.0000000000
11
22.0250000000
21
20.5337028647
31
0.0000000000
0
SPLINE
5
3F7
100
AcDbEntity
8
0
100
AcDbSpline
62
7
6
CONTINUOUS
70
0
71
3
72
20
73
16
74
14
42
0.0000001000
43
0.0000001000
44
0.0000000001
12
-0.1861015845
22
1.1123282045
32
0.0000000000
13
-1.1287885858
23
-0.0000649760
33
0.0000000000
40
0.0000000000
40
0.0000000000
40
0.0000000000
40
0.0000000000
40
0.0566663909
40
0.1259619419
40
0.2008933875
40
0.2792583168
40
0.3590765572
40
0.4410666648
40
0.5254079656
40
0.6122812949
40
0.7018594634
40
0.7943247258
40
0.8898666027
40
0.9886708292
40
1.0000000000
40
1.0000000000
40
1.0000000000
40
1.0000000000
10
21.9139920351
20
21.2639081022
30
0.0000000000
10
21.9104768001
20
21.2849186438
30
0.0000000000
10
21.9008910010
20
21.3313305231
30
0.0000000000
10
21.8791944530
20
21.4037712164
30
0.0000000000
10
21.8471745219
20
21.4812257975
30
0.0000000000
10
21.8051048862
20
21.5582795673
30
0.0000000000
10
21.7532059225
20
21.6323645504
30
0.0000000000
10
21.6917187989
20
21.7017604998
30
0.0000000000
10
21.6205473139
20
21.7652686523
30
0.0000000000
10
21.5398909682
20
21.8213891505
30
0.0000000000
10
21.4501713031
20
21.8685012853
30
0.0000000000
10
21.3520820212
20
21.9048870303
30
0.0000000000
10
21.2466267769
20
21.9287624204
30
0.0000000000
10
21.1693743856
20
21.9353979029
30
0.0000000000
10
21.1279363562
20
21.9357267724
30
0.0000000000
10
21.1236736100
20
21.9357265271
30
0.0000000000
11
21.9139920351
21
21.2639081022
31
0.0000000000
11
21.9010388915
21
21.3264766439
31
0.0000000000
11
21.8786095444
21
21.4013185853
31
0.0000000000
11
21.8463272660
21
21.4793927887
31
0.0000000000
11
21.8039842250
21
21.5569421617
31
0.0000000000
11
21.7523481181
21
21.6306496793
31
0.0000000000
11
21.6910416329
21
21.6998403718
31
0.0000000000
11
21.6200877754
21
21.7631534430
31
0.0000000000
11
21.5396856098
21
21.8190962735
31
0.0000000000
11
21.4502647432
21
21.8660510535
31
0.0000000000
11
21.3525181904
21
21.9023083889
31
0.0000000000
11
21.2474541869
21
21.9260962593
31
0.0000000000
11
21.1364608701
21
21.9356249941
31
0.0000000000
11
21.1236736100
21
21.9357265271
31
0.0000000000
0
SPLINE
5
3F8
100
AcDbEntity
8
0
100
AcDbSpline
62
7
6
CONTINUOUS
70
0
71
3
72
15
73
11
74
9
42
0.0000001000
43
0.0000001000
44
0.0000000001
12
0.0000000000
22
-1.2497746756
32
0.0000000000
13
-1.2497746756
23
0.0000000000
33
0.0000000000
40
0.0000000000
40
0.0000000000
40
0.0000000000
40
0.0000000000
40
0.1245409531
40
0.2491517967
40
0.3738923854
40
0.4988016821
40
0.6238934018
40
0.7491534954
40
0.8745418556
40
1.0000000000
40
1.0000000000
40
1.0000000000
40
1.0000000000
10
22.0250000000
20
-21.2527319908
30
0.0000000000
10
22.0250000000
20
-21.3046147005
30
0.0000000000
10
22.0146836401
20
-21.4087008457
30
0.0000000000
10
21.9688561861
20
-21.5585812601
30
0.0000000000
10
21.8944393060
20
-21.6967553449
30
0.0000000000
10
21.7942993391
20
-21.8178305734
30
0.0000000000
10
21.6722996549
20
-21.9171779891
30
0.0000000000
10
21.5331149643
20
-21.9909826366
30
0.0000000000
10
21.3821727077
20
-22.0364221703
30
0.0000000000
10
21.2773866478
20
-22.0466479764
30
0.0000000000
10
21.2251218439
20
-22.0466479764
30
0.0000000000
11
22.0250000000
21
-21.2527319908
31
0.0000000000
11
22.0096339151
21
-21.4076197682
31
0.0000000000
11
21.9641226245
21
-21.5565568727
31
0.0000000000
11
21.8902104137
21
-21.6938195980
31
0.0000000000
11
21.7907357199
21
-21.8141302022
31
0.0000000000
11
21.6695216033
21
-21.9128633159
31
0.0000000000
11
21.5312281768
21
-21.9862244625
31
0.0000000000
11
21.3811727275
21
-22.0313964426
31
0.0000000000
11
21.2251218439
21
-22.0466479764
31
0.0000000000
0
SPLINE
5
3F9
100
AcDbEntity
8
0
100
AcDbSpline
62
7
6
CONTINUOUS
70
0
71
3
72
8
73
4
74
2
42
0.0000001000
43
0.0000001000
44
0.0000000001
12
0.0000000000
22
0.1303791600
32
0.0000000000
13
0.0215261517
23
0.1288810767
33
0.0000000000
40
0.0000000000
40
0.0000000000
40
0.0000000000
40
0.0000000000
40
1.0000000000
40
1.0000000000
40
1.0000000000
40
1.0000000000
10
-22.2750000000
20
20.5337028647
30
0.0000000000
10
-22.2750000000
20
20.5771625847
30
0.0000000000
10
-22.2713817115
20
20.6207245819
30
0.0000000000
10
-22.2642063276
20
20.6636849408
30
0.0000000000
11
-22.2750000000
21
20.5337028647
31
0.0000000000
11
-22.2642063276
21
20.6636849408
31
0.0000000000
0
SPLINE
5
3FA
100
AcDbEntity
8
0
100
AcDbSpline
62
7
6
CONTINUOUS
70
0
71
3
72
15
73
11
74
9
42
0.0000001000
43
0.0000001000
44
0.0000000001
12
-1.2497746757
22
0.0000000000
32
0.0000000000
13
0.0000000000
23
1.2497746757
33
0.0000000000
40
0.0000000000
40
0.0000000000
40
0.0000000000
40
0.0000000000
40
0.1254582045
40
0.2508466948
40
0.3761069218
40
0.5011986972
40
0.6261079373
40
0.7508483924
40
0.8754591065
40
1.0000000000
40
1.0000000000
40
1.0000000000
40
1.0000000000
10
-21.4751218439
20
-22.0466479764
30
0.0000000000
10
-21.5273866728
20
-22.0466479764
30
0.0000000000
10
-21.6321728124
20
-22.0364221576
30
0.0000000000
10
-21.7831151920
20
-21.9909825548
30
0.0000000000
10
-21.9222999731
20
-21.9171777875
30
0.0000000000
10
-22.0442996462
20
-21.8178302687
30
0.0000000000
10
-22.1444395094
20
-21.6967550287
30
0.0000000000
10
-22.2188562687
20
-21.5585810337
30
0.0000000000
10
-22.2646836529
20
-21.4087007416
30
0.0000000000
10
-22.2750000000
20
-21.3046146757
30
0.0000000000
10
-22.2750000000
20
-21.2527319908
30
0.0000000000
11
-21.4751218439
21
-22.0466479764
31
0.0000000000
11
-21.6311728015
21
-22.0313964280
31
0.0000000000
11
-21.7812283976
21
-21.9862243717
31
0.0000000000
11
-21.9195219420
21
-21.9128630913
31
0.0000000000
11
-22.0407360579
21
-21.8141298667
31
0.0000000000
11
-22.1402106400
21
-21.6938192618
31
0.0000000000
11
-22.2141227160
21
-21.5565566535
31
0.0000000000
11
-22.2596339298
21
-21.4076196947
31
0.0000000000
11
-22.2750000000
21
-21.2527319908
31
0.0000000000
0
SPLINE
5
3FB
100
AcDbEntity
8
0
100
AcDbSpline
62
9
6
CONTINUOUS
70
0
71
3
72
13
73
9
74
7
42
0.0000001000
43
0.0000001000
44
0.0000000001
12
-0.0008714794
22
-0.7313539508
32
0.0000000000
13
-0.0907964309
23
-0.7256964717
33
0.0000000000
40
0.0000000000
40
0.0000000000
40
0.0000000000
40
0.0000000000
40
0.2349180506
40
0.4599600266
40
0.6600892885
40
0.8229780364
40
0.9386790780
40
1.0000000000
40
1.0000000000
40
1.0000000000
40
1.0000000000
10
-22.1628567742
20
-19.7227980046
30
0.0000000000
10
-22.1629250163
20
-19.7800674194
30
0.0000000000
10
-22.1632985289
20
-19.8921976688
30
0.0000000000
10
-22.1645030345
20
-20.0531167047
30
0.0000000000
10
-22.1663818127
20
-20.1964556853
30
0.0000000000
10
-22.1684649801
20
-20.3131677955
30
0.0000000000
10
-22.1713364007
20
-20.3959353080
30
0.0000000000
10
-22.1729780212
20
-20.4391305867
30
0.0000000000
10
-22.1748339282
20
-20.4539640456
30
0.0000000000
11
-22.1628567742
21
-19.7227980046
31
0.0000000000
11
-22.1634280545
21
-19.8946054212
31
0.0000000000
11
-22.1647116941
21
-20.0591858705
31
0.0000000000
11
-22.1666284067
21
-20.2055387502
31
0.0000000000
11
-22.1690604231
21
-20.3246433368
31
0.0000000000
11
-22.1718582420
21
-20.4092155447
31
0.0000000000
11
-22.1748339282
21
-20.4539640456
31
0.0000000000
0
SPLINE
5
3FC
100
AcDbEntity
8
0
100
AcDbSpline
62
9
6
CONTINUOUS
70
0
71
3
72
12
73
8
74
6
42
0.0000001000
43
0.0000001000
44
0.0000000001
12
-0.8027924598
22
0.0009491748
32
0.0000000000
13
-0.2456323398
23
-0.7642914288
33
0.0000000000
40
0.0000000000
40
0.0000000000
40
0.0000000000
40
0.0000000000
40
0.3046445219
40
0.5802075656
40
0.8004336505
40
0.9445084780
40
1.0000000000
40
1.0000000000
40
1.0000000000
40
1.0000000000
10
-21.3629786181
20
-19.6810967786
30
0.0000000000
10
-21.4445007264
20
-19.6810003916
30
0.0000000000
10
-21.6006168963
20
-19.6815144083
30
0.0000000000
10
-21.8114692191
20
-19.6889553155
30
0.0000000000
10
-21.9910409874
20
-19.6915143029
30
0.0000000000
10
-22.0862347870
20
-19.7122522611
30
0.0000000000
10
-22.1583132699
20
-19.7086607730
30
0.0000000000
10
-22.1628567741
20
-19.7227980046
30
0.0000000000
11
-21.3629786181
21
-19.6810967786
31
0.0000000000
11
-21.6075385732
21
-19.6828854390
31
0.0000000000
11
-21.8286833212
21
-19.6886584719
31
0.0000000000
11
-22.0052395078
21
-19.6978631373
31
0.0000000000
11
-22.1203028803
21
-19.7096181398
31
0.0000000000
11
-22.1628567741
21
-19.7227980046
31
0.0000000000
0
SPLINE
5
3FD
100
AcDbEntity
8
0
100
AcDbSpline
62
9
6
CONTINUOUS
70
0
71
3
72
12
73
8
74
6
42
0.0000001000
43
0.0000001000
44
0.0000000001
12
-1.2460362226
22
0.0030265008
32
0.0000000000
13
-0.0003831981
23
1.2460398392
33
0.0000000000
40
0.0000000000
40
0.0000000000
40
0.0000000000
40
0.0000000000
40
0.2008316480
40
0.4014361896
40
0.6015229632
40
0.8009976993
40
1.0000000000
40
1.0000000000
40
1.0000000000
40
1.0000000000
10
-21.3749557720
20
-21.2478800313
30
0.0000000000
10
-21.4583702747
20
-21.2476774256
30
0.0000000000
10
-21.6261918422
20
-21.2210289070
30
0.0000000000
10
-21.8525067694
20
-21.1063040125
30
0.0000000000
10
-22.0324881087
20
-20.9278378855
30
0.0000000000
10
-22.1481474186
20
-20.7032949106
30
0.0000000000
10
-22.1748085091
20
-20.5366189772
30
0.0000000000
10
-22.1748339282
20
-20.4539640456
30
0.0000000000
11
-21.3749557720
21
-21.2478800313
31
0.0000000000
11
-21.6220853853
21
-21.2085209535
31
0.0000000000
11
-21.8450335334
21
-21.0954954870
31
0.0000000000
11
-22.0219848911
21
-20.9198630977
31
0.0000000000
11
-22.1356248882
21
-20.6988092957
31
0.0000000000
11
-22.1748339282
21
-20.4539640456
31
0.0000000000
0
SPLINE
5
3FE
100
AcDbEntity
8
0
100
AcDbSpline
62
9
6
CONTINUOUS
70
0
71
3
72
13
73
9
74
7
42
0.0000001000
43
0.0000001000
44
0.0000000001
12
0.3038594160
22
-0.0418596694
32
0.0000000000
13
0.0006876331
23
-1.2075678115
33
0.0000000000
40
0.0000000000
40
0.0000000000
40
0.0000000000
40
0.0000000000
40
0.0051095246
40
0.0859809515
40
0.2368566508
40
0.4485569943
40
0.7082214209
40
1.0000000000
40
1.0000000000
40
1.0000000000
40
1.0000000000
10
-21.3747027739
20
21.9282418708
30
0.0000000000
10
-21.3741852482
20
21.9281705764
30
0.0000000000
10
-21.3546612783
20
21.8619679030
30
0.0000000000
10
-21.3818462676
20
21.8183697263
30
0.0000000000
10
-21.3599207340
20
21.6048610569
30
0.0000000000
10
-21.3670324197
20
21.3700784011
30
0.0000000000
10
-21.3625268689
20
21.0570421362
30
0.0000000000
10
-21.3630454969
20
20.8365960192
30
0.0000000000
10
-21.3629786180
20
20.7191485457
30
0.0000000000
11
-21.3747027739
21
21.9282418708
31
0.0000000000
11
-21.3719685744
21
21.9204801269
31
0.0000000000
11
-21.3691771805
21
21.8228622811
31
0.0000000000
11
-21.3667498457
21
21.6406857838
31
0.0000000000
11
-21.3648362117
21
21.3850503843
31
0.0000000000
11
-21.3635533458
21
21.0714905544
31
0.0000000000
11
-21.3629786180
21
20.7191485457
31
0.0000000000
0
SPLINE
5
3FF
100
AcDbEntity
8
0
100
AcDbSpline
62
9
6
CONTINUOUS
70
0
71
3
72
8
73
4
74
2
42
0.0000001000
43
0.0000001000
44
0.0000000001
12
-0.0215621297
22
-0.1291228635
32
0.0000000000
13
-0.0000398859
23
-0.1302527612
33
0.0000000000
40
0.0000000000
40
0.0000000000
40
0.0000000000
40
0.0000000000
40
1.0000000000
40
1.0000000000
40
1.0000000000
40
1.0000000000
10
-22.1639854078
20
21.2636690586
30
0.0000000000
10
-22.1711727844
20
21.2206281041
30
0.0000000000
10
-22.1748206329
20
21.1770494986
30
0.0000000000
10
-22.1748339282
20
21.1336319116
30
0.0000000000
11
-22.1639854078
21
21.2636690586
31
0.0000000000
11
-22.1748339282
21
21.1336319116
31
0.0000000000
0
SPLINE
5
400
100
AcDbEntity
8
0
100
AcDbSpline
62
9
6
CONTINUOUS
70
0
71
3
72
8
73
4
74
2
42
0.0000001000
43
0.0000001000
44
0.0000000001
12
0.0215622084
22
-0.1291230892
32
0.0000000000
13
0.0000398858
23
-0.1302529812
33
0.0000000000
40
0.0000000000
40
0.0000000000
40
0.0000000000
40
0.0000000000
40
1.0000000000
40
1.0000000000
40
1.0000000000
40
1.0000000000
10
21.9139853674
20
21.2636692837
30
0.0000000000
10
21.9211727702
20
21.2206282539
30
0.0000000000
10
21.9248206329
20
21.1770495720
30
0.0000000000
10
21.9248339282
20
21.1336319116
30
0.0000000000
11
21.9139853674
21
21.2636692837
31
0.0000000000
11
21.9248339282
21
21.1336319116
31
0.0000000000
0
SPLINE
5
401
100
AcDbEntity
8
0
100
AcDbSpline
62
9
6
CONTINUOUS
70
0
71
3
72
13
73
9
74
7
42
0.0000001000
43
0.0000001000
44
0.0000000001
12
-0.0915078065
22
1.5641979368
32
0.0000000000
13
-0.0008774266
23
1.5668720733
33
0.0000000000
40
0.0000000000
40
0.0000000000
40
0.0000000000
40
0.0000000000
40
0.0615927763
40
0.1772294068
40
0.3398396457
40
0.5395261726
40
0.7641517453
40
1.0000000000
40
1.0000000000
40
1.0000000000
40
1.0000000000
10
21.1249557720
20
-21.2478800313
30
0.0000000000
10
21.1230770321
20
-21.2157656001
30
0.0000000000
10
21.1214631974
20
-21.1231801401
30
0.0000000000
10
21.1185791472
20
-20.9457314114
30
0.0000000000
10
21.1165061234
20
-20.6961072490
30
0.0000000000
10
21.1146270612
20
-20.3895731149
30
0.0000000000
10
21.1134218854
20
-20.0447777460
30
0.0000000000
10
21.1130475979
20
-19.8042770055
30
0.0000000000
10
21.1129786180
20
-19.6810956576
30
0.0000000000
11
21.1249557720
21
-21.2478800313
31
0.0000000000
11
21.1219685744
21
-21.1514182572
31
0.0000000000
11
21.1191771805
21
-20.9702519253
31
0.0000000000
11
21.1167498457
21
-20.7154740060
31
0.0000000000
11
21.1148362117
21
-20.4025965665
31
0.0000000000
11
21.1135533458
21
-20.0506393124
31
0.0000000000
11
21.1129786180
21
-19.6810956576
31
0.0000000000
0
SPLINE
5
402
100
AcDbEntity
8
0
100
AcDbSpline
62
9
6
CONTINUOUS
70
0
71
3
72
13
73
9
74
7
42
0.0000001000
43
0.0000001000
44
0.0000000001
12
-0.0907964327
22
0.7256964714
32
0.0000000000
13
-0.0008714795
23
0.7313539508
33
0.0000000000
40
0.0000000000
40
0.0000000000
40
0.0000000000
40
0.0000000000
40
0.0613209221
40
0.1770219636
40
0.3399107115
40
0.5400399734
40
0.7650819494
40
1.0000000000
40
1.0000000000
40
1.0000000000
40
1.0000000000
10
21.9248339282
20
-20.4539640456
30
0.0000000000
10
21.9229780212
20
-20.4391305867
30
0.0000000000
10
21.9213364007
20
-20.3959353080
30
0.0000000000
10
21.9184649801
20
-20.3131677955
30
0.0000000000
10
21.9163818128
20
-20.1964556853
30
0.0000000000
10
21.9145030345
20
-20.0531167047
30
0.0000000000
10
21.9132985289
20
-19.8921976688
30
0.0000000000
10
21.9129250163
20
-19.7800674194
30
0.0000000000
10
21.9128567742
20
-19.7227980046
30
0.0000000000
11
21.9248339282
21
-20.4539640456
31
0.0000000000
11
21.9218582420
21
-20.4092155446
31
0.0000000000
11
21.9190604231
21
-20.3246433369
31
0.0000000000
11
21.9166284067
21
-20.2055387502
31
0.0000000000
11
21.9147116941
21
-20.0591858705
31
0.0000000000
11
21.9134280545
21
-19.8946054212
31
0.0000000000
11
21.9128567742
21
-19.7227980046
31
0.0000000000
0
SPLINE
5
403
100
AcDbEntity
8
0
100
AcDbSpline
62
9
6
CONTINUOUS
70
0
71
3
72
12
73
8
74
6
42
0.0000001000
43
0.0000001000
44
0.0000000001
12
1.2460362205
22
0.0030265120
32
0.0000000000
13
0.0003832002
23
1.2460398372
33
0.0000000000
40
0.0000000000
40
0.0000000000
40
0.0000000000
40
0.0000000000
40
0.2008338167
40
0.4014397203
40
0.6015267085
40
0.8010002955
40
1.0000000000
40
1.0000000000
40
1.0000000000
40
1.0000000000
10
21.1249557720
20
-21.2478800313
30
0.0000000000
10
21.2083711754
20
-21.2476774226
30
0.0000000000
10
21.3761942445
20
-21.2210283752
30
0.0000000000
10
21.6025101137
20
-21.1063017267
30
0.0000000000
10
21.7824905634
20
-20.9278344317
30
0.0000000000
10
21.8981480299
20
-20.7032922311
30
0.0000000000
10
21.9248085093
20
-20.5366178988
30
0.0000000000
10
21.9248339282
20
-20.4539640456
30
0.0000000000
11
21.1249557720
21
-21.2478800313
31
0.0000000000
11
21.3720879867
21
-21.2085201081
31
0.0000000000
11
21.5950371427
21
-21.0954928776
31
0.0000000000
11
21.7719876813
21
-20.9198592841
31
0.0000000000
11
21.8856259084
21
-20.6988061824
31
0.0000000000
11
21.9248339282
21
-20.4539640456
31
0.0000000000
0
SPLINE
5
404
100
AcDbEntity
8
0
100
AcDbSpline
62
9
6
CONTINUOUS
70
0
71
3
72
11
73
7
74
5
42
0.0000001000
43
0.0000001000
44
0.0000000001
12
-0.0477821099
22
40.4002249080
32
0.0000000000
13
0.0485866741
23
40.4002239484
33
0.0000000000
40
0.0000000000
40
0.0000000000
40
0.0000000000
40
0.0000000000
40
0.2514194057
40
0.5020848082
40
0.7517075061
40
1.0000000000
40
1.0000000000
40
1.0000000000
40
1.0000000000
10
21.1129786180
20
-19.6810956576
30
0.0000000000
10
21.1089741681
20
-16.2952954792
30
0.0000000000
10
21.1029631827
20
-9.5338465698
30
0.0000000000
10
21.0999448767
20
0.5892114036
30
0.0000000000
10
21.1029381133
20
10.6701600451
30
0.0000000000
10
21.1089573825
20
17.3754577598
30
0.0000000000
10
21.1129786180
20
20.7191485457
30
0.0000000000
11
21.1129786180
21
-19.6810956576
31
0.0000000000
11
21.1039559030
21
-9.5236920257
31
0.0000000000
11
21.1009471766
21
0.6032532491
31
0.0000000000
11
21.1039559030
21
10.6880729917
31
0.0000000000
11
21.1129786180
21
20.7191485457
31
0.0000000000
0
SPLINE
5
405
100
AcDbEntity
8
0
100
AcDbSpline
62
9
6
CONTINUOUS
70
0
71
3
72
11
73
7
74
5
42
0.0000001000
43
0.0000001000
44
0.0000000001
12
-0.0477821100
22
40.2924908718
32
0.0000000000
13
0.0485866719
23
40.2924899097
33
0.0000000000
40
0.0000000000
40
0.0000000000
40
0.0000000000
40
0.0000000000
40
0.2514187795
40
0.5020848667
40
0.7517082426
40
1.0000000000
40
1.0000000000
40
1.0000000000
40
1.0000000000
10
21.9128567742
20
-19.7227980046
30
0.0000000000
10
21.9088523342
20
-16.3460350450
30
0.0000000000
10
21.9028413432
20
-9.6026158834
30
0.0000000000
10
21.8998230274
20
0.4934571736
30
0.0000000000
10
21.9028162759
20
10.5475317077
30
0.0000000000
10
21.9088355508
20
17.2349478382
30
0.0000000000
10
21.9128567742
20
20.5697122142
30
0.0000000000
11
21.9128567742
21
-19.7227980046
31
0.0000000000
11
21.9038340742
21
-9.5925060208
31
0.0000000000
11
21.9008253327
21
0.5074616646
31
0.0000000000
11
21.9038340769
21
10.5654158813
31
0.0000000000
11
21.9128567742
21
20.5697122142
31
0.0000000000
0
SPLINE
5
406
100
AcDbEntity
8
0
100
AcDbSpline
62
9
6
CONTINUOUS
70
0
71
3
72
12
73
8
74
6
42
0.0000001000
43
0.0000001000
44
0.0000000001
12
0.8027927421
22
0.0009492345
32
0.0000000000
13
0.2454376877
23
-0.7643542564
33
0.0000000000
40
0.0000000000
40
0.0000000000
40
0.0000000000
40
0.0000000000
40
0.3046472017
40
0.5802120985
40
0.8004385434
40
0.9445118285
40
1.0000000000
40
1.0000000000
40
1.0000000000
40
1.0000000000
10
21.1129786180
20
-19.6810956594
30
0.0000000000
10
21.1945014722
20
-19.6809992655
30
0.0000000000
10
21.3506192565
20
-19.6815132655
30
0.0000000000
10
21.5614716288
20
-19.6889544625
30
0.0000000000
10
21.7410470135
20
-19.6915133159
30
0.0000000000
10
21.8362332540
20
-19.7122519417
30
0.0000000000
10
21.9083171447
20
-19.7086604646
30
0.0000000000
10
21.9128567742
20
-19.7227980046
30
0.0000000000
11
21.1129786180
21
-19.6810956594
31
0.0000000000
11
21.3575408103
21
-19.6828843636
31
0.0000000000
11
21.5786871200
21
-19.6886575629
31
0.0000000000
11
21.7552436444
21
-19.6978624922
31
0.0000000000
11
21.8703057804
21
-19.7096178150
31
0.0000000000
11
21.9128567742
21
-19.7227980046
31
0.0000000000
0
SPLINE
5
407
100
AcDbEntity
8
0
100
AcDbSpline
62
9
6
CONTINUOUS
70
0
71
3
72
13
73
9
74
7
42
0.0000001000
43
0.0000001000
44
0.0000000001
12
0.0006876331
22
1.2075678145
32
0.0000000000
13
0.3038590582
23
0.0418575008
33
0.0000000000
40
0.0000000000
40
0.0000000000
40
0.0000000000
40
0.0000000000
40
0.2917785784
40
0.5514430044
40
0.7631433473
40
0.9140190463
40
0.9948904730
40
1.0000000000
40
1.0000000000
40
1.0000000000
40
1.0000000000
10
21.1129786180
20
20.7191485457
30
0.0000000000
10
21.1130454969
20
20.8365960192
30
0.0000000000
10
21.1125268689
20
21.0570421362
30
0.0000000000
10
21.1170324197
20
21.3700784011
30
0.0000000000
10
21.1099207340
20
21.6048610569
30
0.0000000000
10
21.1318462676
20
21.8183697263
30
0.0000000000
10
21.1046612780
20
21.8619679035
30
0.0000000000
10
21.1241852493
20
21.9281705802
30
0.0000000000
10
21.1247027746
20
21.9282418709
30
0.0000000000
11
21.1129786180
21
20.7191485457
31
0.0000000000
11
21.1135533458
21
21.0714905544
31
0.0000000000
11
21.1148362117
21
21.3850503843
31
0.0000000000
11
21.1167498457
21
21.6406857838
31
0.0000000000
11
21.1191771805
21
21.8228622811
31
0.0000000000
11
21.1219685744
21
21.9204801269
31
0.0000000000
11
21.1247027746
21
21.9282418709
31
0.0000000000
0
SPLINE
5
408
100
AcDbEntity
8
0
100
AcDbSpline
62
9
6
CONTINUOUS
70
0
71
3
72
13
73
9
74
7
42
0.0000001000
43
0.0000001000
44
0.0000000001
12
0.0006849262
22
0.5652325525
32
0.0000000000
13
0.0933595018
23
-0.5574695605
33
0.0000000000
40
0.0000000000
40
0.0000000000
40
0.0000000000
40
0.0000000000
40
0.2898471771
40
0.5493182518
40
0.7609189415
40
0.9116163993
40
0.9922734267
40
1.0000000000
40
1.0000000000
40
1.0000000000
40
1.0000000000
10
21.9128567742
20
20.5697122142
30
0.0000000000
10
21.9129229488
20
20.6243225675
30
0.0000000000
10
21.9125997375
20
20.7273479881
30
0.0000000000
10
21.9163621202
20
20.8725338080
30
0.0000000000
10
21.9112265625
20
20.9847774561
30
0.0000000000
10
21.9287321811
20
21.0791309643
30
0.0000000000
10
21.9078820318
20
21.1078467676
30
0.0000000000
10
21.9245934785
20
21.1350676880
30
0.0000000000
10
21.9248339282
20
21.1336319116
30
0.0000000000
11
21.9128567742
21
20.5697122142
31
0.0000000000
11
21.9134280545
21
20.7335423982
31
0.0000000000
11
21.9147116941
21
20.8801983861
31
0.0000000000
11
21.9166284067
21
20.9997867127
31
0.0000000000
11
21.9190604231
21
21.0849311577
31
0.0000000000
11
21.9218582420
21
21.1304352379
31
0.0000000000
11
21.9248339282
21
21.1336319116
31
0.0000000000
0
SPLINE
5
409
100
AcDbEntity
8
0
100
AcDbSpline
62
9
6
CONTINUOUS
70
0
71
3
72
12
73
8
74
6
42
0.0000001000
43
0.0000001000
44
0.0000000001
12
0.8315348666
22
-0.0009667488
32
0.0000000000
13
0.0763852826
23
-0.8280195997
33
0.0000000000
40
0.0000000000
40
0.0000000000
40
0.0000000000
40
0.0000000000
40
0.2942454671
40
0.5614202350
40
0.7774191911
40
0.9245351593
40
1.0000000000
40
1.0000000000
40
1.0000000000
40
1.0000000000
10
21.1129786181
20
20.7191446146
30
0.0000000000
10
21.1945370731
20
20.7190497941
30
0.0000000000
10
21.3504467383
20
20.7142505496
30
0.0000000000
10
21.5641937965
20
20.6955361520
30
0.0000000000
10
21.7392760986
20
20.6635150449
30
0.0000000000
10
21.8502812955
20
20.6322066286
30
0.0000000000
10
21.9109353063
20
20.5905410033
30
0.0000000000
10
21.9128567741
20
20.5697122142
30
0.0000000000
11
21.1129786181
21
20.7191446146
31
0.0000000000
11
21.3575385732
21
20.7116250675
31
0.0000000000
11
21.5786833212
21
20.6903550335
31
0.0000000000
11
21.7552395078
21
20.6573709931
31
0.0000000000
11
21.8703028803
21
20.6158309799
31
0.0000000000
11
21.9128567741
21
20.5697122142
31
0.0000000000
0
SPLINE
5
40A
100
AcDbEntity
8
0
100
AcDbSpline
62
9
6
CONTINUOUS
70
0
71
3
72
13
73
9
74
7
42
0.0000001000
43
0.0000001000
44
0.0000000001
12
0.0933594994
22
0.5574695609
32
0.0000000000
13
0.0006849263
23
-0.5652325524
33
0.0000000000
40
0.0000000000
40
0.0000000000
40
0.0000000000
40
0.0000000000
40
0.0077265734
40
0.0883836006
40
0.2390810585
40
0.4506817482
40
0.7101528228
40
1.0000000000
40
1.0000000000
40
1.0000000000
40
1.0000000000
10
-22.1748339282
20
21.1336319116
30
0.0000000000
10
-22.1745934785
20
21.1350676880
30
0.0000000000
10
-22.1578820320
20
21.1078467674
30
0.0000000000
10
-22.1787321810
20
21.0791309644
30
0.0000000000
10
-22.1612265625
20
20.9847774561
30
0.0000000000
10
-22.1663621201
20
20.8725338080
30
0.0000000000
10
-22.1625997375
20
20.7273479881
30
0.0000000000
10
-22.1629229488
20
20.6243225675
30
0.0000000000
10
-22.1628567742
20
20.5697122142
30
0.0000000000
11
-22.1748339282
21
21.1336319116
31
0.0000000000
11
-22.1718582420
21
21.1304352378
31
0.0000000000
11
-22.1690604231
21
21.0849311577
31
0.0000000000
11
-22.1666284067
21
20.9997867127
31
0.0000000000
11
-22.1647116941
21
20.8801983861
31
0.0000000000
11
-22.1634280545
21
20.7335423982
31
0.0000000000
11
-22.1628567742
21
20.5697122142
31
0.0000000000
0
SPLINE
5
40B
100
AcDbEntity
8
0
100
AcDbSpline
62
9
6
CONTINUOUS
70
0
71
3
72
11
73
7
74
5
42
0.0000001000
43
0.0000001000
44
0.0000000001
12
0.0485866742
22
-40.4002239484
32
0.0000000000
13
-0.0477821099
23
-40.4002249080
33
0.0000000000
40
0.0000000000
40
0.0000000000
40
0.0000000000
40
0.0000000000
40
0.2482924939
40
0.4979151918
40
0.7485805943
40
1.0000000000
40
1.0000000000
40
1.0000000000
40
1.0000000000
10
-21.3629786180
20
20.7191485457
30
0.0000000000
10
-21.3589573825
20
17.3754577598
30
0.0000000000
10
-21.3529381133
20
10.6701600451
30
0.0000000000
10
-21.3499448767
20
0.5892114036
30
0.0000000000
10
-21.3529631827
20
-9.5338465698
30
0.0000000000
10
-21.3589741682
20
-16.2952954792
30
0.0000000000
10
-21.3629786180
20
-19.6810956576
30
0.0000000000
11
-21.3629786180
21
20.7191485457
31
0.0000000000
11
-21.3539559030
21
10.6880729917
31
0.0000000000
11
-21.3509471766
21
0.6032532491
31
0.0000000000
11
-21.3539559030
21
-9.5236920257
31
0.0000000000
11
-21.3629786180
21
-19.6810956576
31
0.0000000000
0
SPLINE
5
40C
100
AcDbEntity
8
0
100
AcDbSpline
62
9
6
CONTINUOUS
70
0
71
3
72
11
73
7
74
5
42
0.0000001000
43
0.0000001000
44
0.0000000001
12
0.0485866719
22
-40.2924899097
32
0.0000000000
13
-0.0477821100
23
-40.2924908718
33
0.0000000000
40
0.0000000000
40
0.0000000000
40
0.0000000000
40
0.0000000000
40
0.2482917574
40
0.4979151333
40
0.7485812205
40
1.0000000000
40
1.0000000000
40
1.0000000000
40
1.0000000000
10
-22.1628567742
20
20.5697122142
30
0.0000000000
10
-22.1588355508
20
17.2349478382
30
0.0000000000
10
-22.1528162759
20
10.5475317077
30
0.0000000000
10
-22.1498230274
20
0.4934571736
30
0.0000000000
10
-22.1528413432
20
-9.6026158834
30
0.0000000000
10
-22.1588523342
20
-16.3460350450
30
0.0000000000
10
-22.1628567742
20
-19.7227980046
30
0.0000000000
11
-22.1628567742
21
20.5697122142
31
0.0000000000
11
-22.1538340769
21
10.5654158813
31
0.0000000000
11
-22.1508253327
21
0.5074616646
31
0.0000000000
11
-22.1538340742
21
-9.5925060208
31
0.0000000000
11
-22.1628567742
21
-19.7227980046
31
0.0000000000
0
SPLINE
5
40D
100
AcDbEntity
8
0
100
AcDbSpline
62
9
6
CONTINUOUS
70
0
71
3
72
12
73
8
74
6
42
0.0000001000
43
0.0000001000
44
0.0000000001
12
-0.8315372060
22
-0.0009669406
32
0.0000000000
13
-0.0763195041
23
-0.8280280148
33
0.0000000000
40
0.0000000000
40
0.0000000000
40
0.0000000000
40
0.0000000000
40
0.2942473375
40
0.5614232974
40
0.7774222506
40
0.9245368396
40
1.0000000000
40
1.0000000000
40
1.0000000000
40
1.0000000000
10
-21.3629786180
20
20.7191485388
30
0.0000000000
10
-21.4445378210
20
20.7190536989
30
0.0000000000
10
-21.6004487773
20
20.7142542333
30
0.0000000000
10
-21.8141972415
20
20.6955395121
30
0.0000000000
10
-21.9892798817
20
20.6635169975
30
0.0000000000
10
-22.1002843687
20
20.6322090317
30
0.0000000000
10
-22.1609370038
20
20.5905407512
30
0.0000000000
10
-22.1628567742
20
20.5697122142
30
0.0000000000
11
-21.3629786180
21
20.7191485388
31
0.0000000000
11
-21.6075408097
21
20.7116287226
31
0.0000000000
11
-21.8286871190
21
20.6903580381
31
0.0000000000
11
-22.0052436433
21
20.6573730677
31
0.0000000000
11
-22.1203057797
21
20.6158319941
31
0.0000000000
11
-22.1628567742
21
20.5697122142
31
0.0000000000
0
SPLINE
5
40E
100
AcDbEntity
8
0
100
AcDbSpline
62
9
6
CONTINUOUS
70
0
71
3
72
13
73
9
74
7
42
0.0000001000
43
0.0000001000
44
0.0000000001
12
-0.0008774266
22
-1.5668720733
32
0.0000000000
13
-0.0915078080
23
-1.5641979367
33
0.0000000000
40
0.0000000000
40
0.0000000000
40
0.0000000000
40
0.0000000000
40
0.2358482547
40
0.4604738274
40
0.6601603543
40
0.8227705932
40
0.9384072237
40
1.0000000000
40
1.0000000000
40
1.0000000000
40
1.0000000000
10
-21.3629786180
20
-19.6810956576
30
0.0000000000
10
-21.3630475979
20
-19.8042770055
30
0.0000000000
10
-21.3634218854
20
-20.0447777460
30
0.0000000000
10
-21.3646270612
20
-20.3895731149
30
0.0000000000
10
-21.3665061234
20
-20.6961072490
30
0.0000000000
10
-21.3685791472
20
-20.9457314114
30
0.0000000000
10
-21.3714631974
20
-21.1231801401
30
0.0000000000
10
-21.3730770321
20
-21.2157656001
30
0.0000000000
10
-21.3749557720
20
-21.2478800313
30
0.0000000000
11
-21.3629786180
21
-19.6810956576
31
0.0000000000
11
-21.3635533458
21
-20.0506393124
31
0.0000000000
11
-21.3648362117
21
-20.4025965665
31
0.0000000000
11
-21.3667498457
21
-20.7154740060
31
0.0000000000
11
-21.3691771805
21
-20.9702519253
31
0.0000000000
11
-21.3719685744
21
-21.1514182572
31
0.0000000000
11
-21.3749557720
21
-21.2478800313
31
0.0000000000
0
SPLINE
5
40F
100
AcDbEntity
8
0
100
AcDbSpline
62
9
6
CONTINUOUS
70
0
71
3
72
8
73
4
74
2
42
0.0000001000
43
0.0000001000
44
0.0000000001
12
0.9191630789
22
0.9184423789
32
-0.0620880528
13
0.9193131096
23
0.9182475406
33
-0.0649059616
40
0.0000000000
40
0.0000000000
40
0.0000000000
40
0.0000000000
40
1.0000000000
40
1.0000000000
40
1.0000000000
40
1.0000000000
10
-14.7691125497
20
-15.7232916360
30
12.1124076466
10
-14.4627248567
20
-15.4171441764
30
12.0917116290
10
-14.1563114374
20
-15.1110284692
30
12.0705459101
10
-13.8498737342
20
-14.8049459557
30
12.0489105895
11
-14.7691125497
21
-15.7232916360
31
12.1124076466
11
-13.8498737342
21
-14.8049459557
31
12.0489105895
0
SPLINE
5
410
100
AcDbEntity
8
0
100
AcDbSpline
62
9
6
CONTINUOUS
70
0
71
3
72
8
73
4
74
2
42
0.0000001000
43
0.0000001000
44
0.0000000001
12
-0.9191630789
22
0.9184423789
32
-0.0620880528
13
-0.9193131096
23
0.9182475406
33
-0.0649059616
40
0.0000000000
40
0.0000000000
40
0.0000000000
40
0.0000000000
40
1.0000000000
40
1.0000000000
40
1.0000000000
40
1.0000000000
10
-7.9808874503
20
-15.7232916360
30
12.1124076466
10
-8.2872751433
20
-15.4171441764
30
12.0917116290
10
-8.5936885626
20
-15.1110284692
30
12.0705459101
10
-8.9001262658
20
-14.8049459557
30
12.0489105895
11
-7.9808874503
21
-15.7232916360
31
12.1124076466
11
-8.9001262658
21
-14.8049459557
31
12.0489105895
0
SPLINE
5
411
100
AcDbEntity
8
0
100
AcDbSpline
62
9
6
CONTINUOUS
70
0
71
3
72
28
73
24
74
22
42
0.0000001000
43
0.0000001000
44
0.0000000001
12
7.4118036042
22
-4.4806030585
32
0.3886670388
13
-7.2091186116
23
4.5580622927
33
-0.3251450434
40
0.0000000000
40
0.0000000000
40
0.0000000000
40
0.0000000000
40
0.0714285714
40
0.1428571429
40
0.2142857143
40
0.2857142857
40
0.3571428571
40
0.4285714286
40
0.5000000000
40
0.5357142857
40
0.5714285714
40
0.6071428571
40
0.6428571429
40
0.6785714286
40
0.7142857143
40
0.7500000000
40
0.7857142857
40
0.8214285714
40
0.8571428571
40
0.8928571429
40
0.9285714286
40
0.9642857143
40
1.0000000000
40
1.0000000000
40
1.0000000000
40
1.0000000000
10
-9.9750000000
20
-10.0316003582
30
11.6732032483
10
-9.7985284856
20
-10.1382813834
30
11.6824572254
10
-9.4793440574
20
-10.3846808486
30
11.7037221094
10
-9.0877025650
20
-10.8600863841
30
11.7440611290
10
-8.8159614211
20
-11.4055371959
30
11.7893910444
10
-8.6721482162
20
-12.0042340312
30
11.8379703514
10
-8.6662267164
20
-12.6125590774
30
11.8860765128
10
-8.7990822333
20
-13.2155049312
30
11.9325072814
10
-9.0163045104
20
-13.6728624316
30
11.9668230811
10
-9.2509445220
20
-14.0074165197
30
11.9915019027
10
-9.4544385773
20
-14.2366934399
30
12.0082277348
10
-9.6801547567
20
-14.4395606272
30
12.0228793327
10
-9.9270825956
20
-14.6160244765
30
12.0355116661
10
-10.1950917876
20
-14.7651365519
30
12.0461039821
10
-10.4783181681
20
-14.8828147031
30
12.0544101310
10
-10.7697754892
20
-14.9669674170
30
12.0603213903
10
-11.0687802253
20
-15.0181817548
30
12.0639072925
10
-11.3749998948
20
-15.0356415395
30
12.0651277427
10
-11.6812195656
20
-15.0181817785
30
12.0639072941
10
-11.9802242947
20
-14.9669674660
30
12.0603213937
10
-12.2716816118
20
-14.8828147804
30
12.0544101365
10
-12.5549080216
20
-14.7651366456
30
12.0461039888
10
-12.7335808354
20
-14.6657286010
30
12.0390424452
10
-12.8194036760
20
-14.6114659547
30
12.0351716709
11
-9.9750000000
21
-10.0316003582
31
11.6732032483
11
-9.4938665824
21
-10.4023152382
31
11.7051290583
11
-9.1076859564
21
-10.8717605968
31
11.7448929450
11
-8.8372827443
21
-11.4144115332
31
11.7899326097
11
-8.6951301671
21
-12.0058387330
31
11.8378914938
11
-8.6893562192
21
-12.6116625453
31
11.8857972807
11
-8.8203841026
21
-13.2064854557
31
11.9316319799
11
-9.0800363625
21
-13.7538899610
31
11.9727616350
11
-9.2555301964
21
-14.0038100787
31
11.9912046887
11
-9.4581422646
21
-14.2322918177
31
12.0078820291
11
-9.6836900333
21
-14.4351600708
31
12.0225427886
11
-9.9305961545
21
-14.6114658475
31
12.0351716632
11
-10.1976279857
21
-14.7598975646
31
12.0457229543
11
-10.4796899915
21
-14.8772271302
31
12.0540109828
11
-10.7710333917
21
-14.9614776877
31
12.0599338308
11
-11.0699827142
21
-15.0125559960
31
12.0635130505
11
-11.3749998950
21
-15.0298216152
31
12.0647209263
11
-11.6800170753
21
-15.0125560199
31
12.0635130522
11
-11.9789663927
21
-14.9614777371
31
12.0599338342
11
-12.2703097939
21
-14.8772272055
31
12.0540109881
11
-12.5523718235
21
-14.7598976569
31
12.0457229608
11
-12.8194036760
21
-14.6114659547
31
12.0351716709
0
SPLINE
5
412
100
AcDbEntity
8
0
100
AcDbSpline
62
9
6
CONTINUOUS
70
0
71
3
72
18
73
14
74
12
42
0.0000001000
43
0.0000001000
44
0.0000000001
12
-4.6344333932
22
2.9301829025
32
-0.2090218136
13
4.7647309711
23
2.8803877305
33
-0.2498573864
40
0.0000000000
40
0.0000000000
40
0.0000000000
40
0.0000000000
40
0.0555555556
40
0.1111111111
40
0.1666666667
40
0.2222222222
40
0.3333333333
40
0.4444444444
40
0.5555555556
40
0.6666666667
40
0.7777777778
40
0.8888888889
40
1.0000000000
40
1.0000000000
40
1.0000000000
40
1.0000000000
10
-12.8194036760
20
-14.6114659547
30
12.0351716709
10
-12.9052265167
20
-14.5572033084
30
12.0313008965
10
-13.0698450653
20
-14.4395607676
30
12.0228793428
10
-13.2955612384
20
-14.2366936253
30
12.0082277482
10
-13.4990553483
20
-14.0074166895
30
11.9915019152
10
-13.7336954128
20
-13.6728625602
30
11.9668230907
10
-13.9509176646
20
-13.2155052475
30
11.9325073055
10
-14.0837732699
20
-12.6125591615
30
11.8860765194
10
-14.0778518339
20
-12.0042344082
30
11.8379703816
10
-13.9340385940
20
-11.4055372459
30
11.7893910485
10
-13.6622976678
20
-10.8600867498
30
11.7440611597
10
-13.2706559661
20
-10.3846808318
30
11.7037221081
10
-12.9514715174
20
-10.1382813852
30
11.6824572256
10
-12.7750000000
20
-10.0316003582
30
11.6732032483
11
-12.8194036760
21
-14.6114659547
31
12.0351716709
11
-13.0663097903
21
-14.4351602124
31
12.0225427988
11
-13.2918575612
21
-14.2322919931
31
12.0078820418
11
-13.4944696714
21
-14.0038102460
31
11.9912047009
11
-13.6699635414
21
-13.7538901158
31
11.9727616465
11
-13.9296158151
21
-13.2064856957
31
11.9316319982
11
-14.0606437630
21
-12.6116627169
31
11.8857972941
11
-14.0548698666
21
-12.0058390067
31
11.8378915157
11
-13.9127173129
21
-11.4144116903
31
11.7899326226
11
-13.6423142052
21
-10.8717608462
31
11.7448929659
11
-13.2561334709
21
-10.4023152898
31
11.7051290628
11
-12.7750000000
21
-10.0316003582
31
11.6732032483
0
SPLINE
5
413
100
AcDbEntity
8
0
100
AcDbSpline
62
9
6
CONTINUOUS
70
0
71
3
72
13
73
9
74
7
42
0.0000001000
43
0.0000001000
44
0.0000000001
12
-0.1524799224
22
-1.7578079403
32
2.9077619815
13
-0.2527052601
23
-3.2793975482
33
-0.7166103748
40
0.0000000000
40
0.0000000000
40
0.0000000000
40
0.0000000000
40
0.1820694220
40
0.3641388439
40
0.5462082659
40
0.7282776878
40
0.9103471098
40
1.0000000000
40
1.0000000000
40
1.0000000000
40
1.0000000000
10
-57.2170362129
20
-10.0316003582
30
-9.9750000000
10
-57.2262901900
20
-10.1382813834
30
-9.7985284856
10
-57.2475550740
20
-10.3846808486
30
-9.4793440574
10
-57.2878940936
20
-10.8600863841
30
-9.0877025650
10
-57.3332240090
20
-11.4055371959
30
-8.8159614211
10
-57.3818033160
20
-12.0042340312
30
-8.6721482162
10
-57.4217700829
20
-12.5096326032
30
-8.6672286135
10
-57.4450795319
20
-12.8102593239
30
-8.7157989317
10
-57.4526314509
20
-12.9082618134
30
-8.7372143287
11
-57.2170362129
21
-10.0316003582
31
-9.9750000000
11
-57.2489620229
21
-10.4023152382
31
-9.4938665824
11
-57.2887259096
21
-10.8717605968
31
-9.1076859564
11
-57.3337655743
21
-11.4144115332
31
-8.8372827443
11
-57.3817244584
21
-12.0058387330
31
-8.6951301671
11
-57.4296302453
21
-12.6116625453
31
-8.6893562192
11
-57.4526314509
21
-12.9082618134
31
-8.7372143287
0
SPLINE
5
414
100
AcDbEntity
8
0
100
AcDbSpline
62
9
6
CONTINUOUS
70
0
71
3
72
29
73
25
74
23
42
0.0000001000
43
0.0000001000
44
0.0000000001
12
-0.5528172086
22
-7.1739994561
32
-1.5676545352
13
0.5528173177
23
7.1740008761
33
-1.5676548890
40
0.0000000000
40
0.0000000000
40
0.0000000000
40
0.0000000000
40
0.0422456887
40
0.1254737429
40
0.1670877701
40
0.2087017972
40
0.2503158243
40
0.2919298515
40
0.3335438786
40
0.3751579057
40
0.4167719328
40
0.4583859600
40
0.4999999871
40
0.5416140142
40
0.5832280414
40
0.6248420685
40
0.6664560956
40
0.7080701227
40
0.7496841499
40
0.7912981770
40
0.8329122041
40
0.8745262313
40
0.9577542855
40
1.0000000000
40
1.0000000000
40
1.0000000000
40
1.0000000000
10
-57.4526314509
20
-12.9082618134
30
-8.7372143287
10
-57.4604161654
20
-13.0092853292
30
-8.7592898772
10
-57.4830992297
20
-13.3055879805
30
-8.8418672430
10
-57.5106560458
20
-13.6728624316
30
-9.0163045104
10
-57.5353348673
20
-14.0074165197
30
-9.2509445220
10
-57.5520606994
20
-14.2366934399
30
-9.4544385773
10
-57.5667122973
20
-14.4395606272
30
-9.6801547567
10
-57.5793446307
20
-14.6160244765
30
-9.9270825956
10
-57.5899369467
20
-14.7651365519
30
-10.1950917876
10
-57.5982430956
20
-14.8828147031
30
-10.4783181681
10
-57.6041543549
20
-14.9669674170
30
-10.7697754892
10
-57.6077402571
20
-15.0181817548
30
-11.0687802253
10
-57.6089607073
20
-15.0356415395
30
-11.3749998948
10
-57.6077402587
20
-15.0181817785
30
-11.6812195656
10
-57.6041543583
20
-14.9669674660
30
-11.9802242947
10
-57.5982431011
20
-14.8828147804
30
-12.2716816118
10
-57.5899369534
20
-14.7651366456
30
-12.5549080216
10
-57.5793446380
20
-14.6160245787
30
-12.8229172423
10
-57.5667123074
20
-14.4395607676
30
-13.0698450653
10
-57.5520607128
20
-14.2366936253
30
-13.2955612384
10
-57.5353348798
20
-14.0074166895
30
-13.4990553483
10
-57.5106560553
20
-13.6728625602
30
-13.7336954128
10
-57.4830992466
20
-13.3055882031
30
-13.9081326868
10
-57.4604161728
20
-13.0092854266
30
-13.9907100894
10
-57.4526314520
20
-12.9082618291
30
-14.0127856563
11
-57.4526314509
21
-12.9082618134
31
-8.7372143287
11
-57.4754649445
21
-13.2064854557
31
-8.8203841026
11
-57.5165945996
21
-13.7538899610
31
-9.0800363625
11
-57.5350376533
21
-14.0038100787
31
-9.2555301964
11
-57.5517149937
21
-14.2322918177
31
-9.4581422646
11
-57.5663757532
21
-14.4351600708
31
-9.6836900333
11
-57.5790046278
21
-14.6114658475
31
-9.9305961545
11
-57.5895559189
21
-14.7598975646
31
-10.1976279857
11
-57.5978439474
21
-14.8772271302
31
-10.4796899915
11
-57.6037667954
21
-14.9614776877
31
-10.7710333917
11
-57.6073460151
21
-15.0125559960
31
-11.0699827142
11
-57.6085538909
21
-15.0298216152
31
-11.3749998950
11
-57.6073460168
21
-15.0125560199
31
-11.6800170753
11
-57.6037667989
21
-14.9614777371
31
-11.9789663927
11
-57.5978439527
21
-14.8772272055
31
-12.2703097939
11
-57.5895559254
21
-14.7598976569
31
-12.5523718235
11
-57.5790046355
21
-14.6114659547
31
-12.8194036760
11
-57.5663757634
21
-14.4351602124
31
-13.0663097903
11
-57.5517150064
21
-14.2322919931
31
-13.2918575612
11
-57.5350376655
21
-14.0038102460
31
-13.4944696714
11
-57.5165946111
21
-13.7538901158
31
-13.6699635414
11
-57.4754649628
21
-13.2064856957
31
-13.9296158151
11
-57.4526314520
21
-12.9082618291
31
-14.0127856563
0
SPLINE
5
415
100
AcDbEntity
8
0
100
AcDbSpline
62
9
6
CONTINUOUS
70
0
71
3
72
13
73
9
74
7
42
0.0000001000
43
0.0000001000
44
0.0000000001
12
0.2527052957
22
3.2793980123
32
-0.7166104961
13
0.1524799165
23
1.7578078717
33
2.9077618678
40
0.0000000000
40
0.0000000000
40
0.0000000000
40
0.0000000000
40
0.0896528388
40
0.2717222711
40
0.4537917033
40
0.6358611355
40
0.8179305678
40
1.0000000000
40
1.0000000000
40
1.0000000000
40
1.0000000000
10
-57.4526314520
20
-12.9082618291
30
-14.0127856563
10
-57.4450795363
20
-12.8102593819
30
-14.0342010447
10
-57.4217700884
20
-12.5096326741
30
-14.0827713830
10
-57.3818033462
20
-12.0042344082
30
-14.0778518339
10
-57.3332240131
20
-11.4055372459
30
-13.9340385940
10
-57.2878941243
20
-10.8600867498
30
-13.6622976678
10
-57.2475550727
20
-10.3846808318
30
-13.2706559661
10
-57.2262901902
20
-10.1382813852
30
-12.9514715174
10
-57.2170362129
20
-10.0316003582
30
-12.7750000000
11
-57.4526314520
21
-12.9082618291
31
-14.0127856563
11
-57.4296302587
21
-12.6116627169
31
-14.0606437630
11
-57.3817244803
21
-12.0058390067
31
-14.0548698666
11
-57.3337655872
21
-11.4144116903
31
-13.9127173129
11
-57.2887259305
21
-10.8717608462
31
-13.6423142052
11
-57.2489620274
21
-10.4023152898
31
-13.2561334709
11
-57.2170362129
21
-10.0316003582
31
-12.7750000000
0
SPLINE
5
416
100
AcDbEntity
8
0
100
AcDbSpline
62
9
6
CONTINUOUS
70
0
71
3
72
8
73
4
74
2
42
0.0000001000
43
0.0000001000
44
0.0000000001
12
0.0620880528
22
0.9184423789
32
0.9191630789
13
0.0649059616
23
0.9182475406
33
0.9193131096
40
0.0000000000
40
0.0000000000
40
0.0000000000
40
0.0000000000
40
1.0000000000
40
1.0000000000
40
1.0000000000
40
1.0000000000
10
-57.6562406112
20
-15.7232916360
30
-14.7691125497
10
-57.6355445936
20
-15.4171441764
30
-14.4627248567
10
-57.6143788747
20
-15.1110284692
30
-14.1563114374
10
-57.5927435542
20
-14.8049459557
30
-13.8498737342
11
-57.6562406112
21
-15.7232916360
31
-14.7691125497
11
-57.5927435542
21
-14.8049459557
31
-13.8498737342
0
SPLINE
5
417
100
AcDbEntity
8
0
100
AcDbSpline
62
9
6
CONTINUOUS
70
0
71
3
72
8
73
4
74
2
42
0.0000001000
43
0.0000001000
44
0.0000000001
12
0.0620880528
22
0.9184423789
32
-0.9191630789
13
0.0649059616
23
0.9182475406
33
-0.9193131096
40
0.0000000000
40
0.0000000000
40
0.0000000000
40
0.0000000000
40
1.0000000000
40
1.0000000000
40
1.0000000000
40
1.0000000000
10
-57.6562406112
20
-15.7232916360
30
-7.9808874503
10
-57.6355445936
20
-15.4171441764
30
-8.2872751433
10
-57.6143788747
20
-15.1110284692
30
-8.5936885626
10
-57.5927435542
20
-14.8049459557
30
-8.9001262658
11
-57.6562406112
21
-15.7232916360
31
-7.9808874503
11
-57.5927435542
21
-14.8049459557
31
-8.9001262658
0
SPLINE
5
418
100
AcDbEntity
8
0
100
AcDbSpline
62
9
6
CONTINUOUS
70
0
71
3
72
12
73
8
74
6
42
0.0000001000
43
0.0000001000
44
0.0000000001
12
-0.7923101072
22
0.1113519238
32
0.0000000000
13
0.1113477892
23
0.7923106883
33
0.0000000000
40
0.0000000000
40
0.0000000000
40
0.0000000000
40
0.0000000000
40
0.0492159256
40
0.1912710120
40
0.4124350276
40
0.6910958947
40
1.0000000000
40
1.0000000000
40
1.0000000000
40
1.0000000000
10
-56.6084990785
20
-21.2478800313
30
0.0000000000
10
-56.6214971702
20
-21.2460532686
30
0.0000000000
10
-56.5889257091
20
-21.1681254006
30
0.0000000000
10
-56.6029657697
20
-21.0837929025
30
0.0000000000
10
-56.5681404310
20
-20.9008342069
30
0.0000000000
10
-56.5452706632
20
-20.6921050676
30
0.0000000000
10
-56.5224837159
20
-20.5355467204
30
0.0000000000
10
-56.5110184528
20
-20.4539640456
30
0.0000000000
11
-56.6084990785
21
-21.2478800313
31
0.0000000000
11
-56.6073228527
21
-21.2085201081
31
0.0000000000
11
-56.5953671630
21
-21.0954928776
31
0.0000000000
11
-56.5738020362
21
-20.9198592841
31
0.0000000000
11
-56.5447377912
21
-20.6988061824
31
0.0000000000
11
-56.5110184528
21
-20.4539640456
31
0.0000000000
0
SPLINE
5
419
100
AcDbEntity
8
0
100
AcDbSpline
62
9
6
CONTINUOUS
70
0
71
3
72
13
73
9
74
7
42
0.0000001000
43
0.0000001000
44
0.0000000001
12
-1.0270228044
22
0.1446724693
32
0.0000000000
13
0.0559307878
23
1.0356532775
33
0.0000000000
40
0.0000000000
40
0.0000000000
40
0.0000000000
40
0.0000000000
40
0.1660100378
40
0.3329690347
40
0.4999667277
40
0.6669813750
40
0.8339531105
40
1.0000000000
40
1.0000000000
40
1.0000000000
40
1.0000000000
10
-56.5110184528
20
-20.4539640456
30
0.0000000000
10
-56.5678504843
20
-20.4459583516
30
0.0000000000
10
-56.6803551985
20
-20.4157373258
30
0.0000000000
10
-56.8326540220
20
-20.3304438152
30
0.0000000000
10
-56.9597240759
20
-20.2101258395
30
0.0000000000
10
-57.0533175836
20
-20.0622569338
30
0.0000000000
10
-57.1076827456
20
-19.8963576468
30
0.0000000000
10
-57.1156619780
20
-19.7801203397
30
0.0000000000
10
-57.1125662669
20
-19.7227980046
30
0.0000000000
11
-56.5110184528
21
-20.4539640456
31
0.0000000000
11
-56.6772812272
21
-20.4092155446
31
0.0000000000
11
-56.8283877304
21
-20.3246433369
31
0.0000000000
11
-56.9541399955
21
-20.2055387502
31
0.0000000000
11
-57.0468031547
21
-20.0591858705
31
0.0000000000
11
-57.1006871517
21
-19.8946054212
31
0.0000000000
11
-57.1125662669
21
-19.7227980046
31
0.0000000000
0
SPLINE
5
41A
100
AcDbEntity
8
0
100
AcDbSpline
62
9
6
CONTINUOUS
70
0
71
3
72
11
73
7
74
5
42
0.0000001000
43
0.0000001000
44
0.0000000001
12
2.2040834547
22
40.5645161348
32
0.0000000000
13
7.6748317493
23
39.8927927168
33
0.0000000000
40
0.0000000000
40
0.0000000000
40
0.0000000000
40
0.0000000000
40
0.2499993904
40
0.5000000585
40
0.7500007255
40
1.0000000000
40
1.0000000000
40
1.0000000000
40
1.0000000000
10
-57.1125662669
20
-19.7227980046
30
0.0000000000
10
-56.9288930936
20
-16.3424299032
30
0.0000000000
10
-56.4467551414
20
-9.5873554618
30
0.0000000000
10
-55.3800964486
20
0.5144648560
30
0.0000000000
10
-53.9712193671
20
10.5742644560
30
0.0000000000
10
-52.8048355483
20
17.2453224692
30
0.0000000000
10
-52.1652680920
20
20.5697122142
30
0.0000000000
11
-57.1125662669
21
-19.7227980046
31
0.0000000000
11
-56.3895148565
21
-9.5925060208
31
0.0000000000
11
-55.3230599153
21
0.5074616646
31
0.0000000000
11
-53.9144331087
21
10.5654158813
31
0.0000000000
11
-52.1652680920
21
20.5697122142
31
0.0000000000
0
SPLINE
5
41B
100
AcDbEntity
8
0
100
AcDbSpline
62
9
6
CONTINUOUS
70
0
71
3
72
13
73
9
74
7
42
0.0000001000
43
0.0000001000
44
0.0000000001
12
0.1962777970
22
1.0184208318
32
0.0000000000
13
1.0315152762
23
-0.1080842222
33
0.0000000000
40
0.0000000000
40
0.0000000000
40
0.0000000000
40
0.0000000000
40
0.1660468895
40
0.3330186249
40
0.5000332723
40
0.6670309652
40
0.8339899622
40
1.0000000000
40
1.0000000000
40
1.0000000000
40
1.0000000000
10
-52.1652680920
20
20.5697122142
30
0.0000000000
10
-52.1544043194
20
20.6260807513
30
0.0000000000
10
-52.1185417544
20
20.7369349625
30
0.0000000000
10
-52.0256568002
20
20.8847542087
30
0.0000000000
10
-51.8990706937
20
21.0055884572
30
0.0000000000
10
-51.7466676106
20
21.0915914464
30
0.0000000000
10
-51.5782583454
20
21.1375069554
30
0.0000000000
10
-51.4617843742
20
21.1396129335
30
0.0000000000
10
-51.4047037442
20
21.1336319116
30
0.0000000000
11
-52.1652680920
21
20.5697122142
31
0.0000000000
11
-52.1121778614
21
20.7335423982
31
0.0000000000
11
-52.0200788351
21
20.8801983861
31
0.0000000000
11
-51.8947622017
21
20.9997867127
31
0.0000000000
11
-51.7439313089
21
21.0849311577
31
0.0000000000
11
-51.5768534458
21
21.1304352379
31
0.0000000000
11
-51.4047037442
21
21.1336319116
31
0.0000000000
0
SPLINE
5
41C
100
AcDbEntity
8
0
100
AcDbSpline
62
9
6
CONTINUOUS
70
0
71
3
72
12
73
8
74
6
42
0.0000001000
43
0.0000001000
44
0.0000000001
12
-0.7957135787
22
0.0836328672
32
0.0000000000
13
-0.0836370963
23
-0.7957131342
33
0.0000000000
40
0.0000000000
40
0.0000000000
40
0.0000000000
40
0.0000000000
40
0.0492148673
40
0.1912677326
40
0.4124302269
40
0.6910919715
40
1.0000000000
40
1.0000000000
40
1.0000000000
40
1.0000000000
10
-51.3072231185
20
21.9275478972
30
0.0000000000
10
-51.3202767645
20
21.9289198907
30
0.0000000000
10
-51.3075255826
20
21.8454285420
30
0.0000000000
10
-51.3415500477
20
21.7669985775
30
0.0000000000
10
-51.3520208624
20
21.5810503171
30
0.0000000000
10
-51.3803267386
20
21.3729878326
30
0.0000000000
10
-51.3960916873
20
21.2155659701
30
0.0000000000
10
-51.4047037442
20
21.1336319116
30
0.0000000000
11
-51.3072231185
21
21.9275478972
31
0.0000000000
11
-51.3156037105
21
21.8890734115
31
0.0000000000
11
-51.3313467024
21
21.7765129940
31
0.0000000000
11
-51.3529116493
21
21.6008806049
31
0.0000000000
11
-51.3781884354
21
21.3793617543
31
0.0000000000
11
-51.4047037442
21
21.1336319116
31
0.0000000000
0
SPLINE
5
41D
100
AcDbEntity
8
0
100
AcDbSpline
62
7
6
CONTINUOUS
70
0
71
3
72
8
73
4
74
2
42
0.0000001000
43
0.0000001000
44
0.0000000001
12
0.1664211917
22
0.0605723601
32
0.0000000000
13
0.1664211917
23
0.0605723601
33
0.0000000000
40
0.0000000000
40
0.0000000000
40
0.0000000000
40
0.0000000000
40
1.0000000000
40
1.0000000000
40
1.0000000000
40
1.0000000000
10
-43.1901358205
20
14.8602976573
30
0.0000000000
10
-43.1346620899
20
14.8804884441
30
0.0000000000
10
-43.0791883594
20
14.9006792308
30
0.0000000000
10
-43.0237146288
20
14.9208700175
30
0.0000000000
11
-43.1901358205
21
14.8602976573
31
0.0000000000
11
-43.0237146288
21
14.9208700175
31
0.0000000000
0
SPLINE
5
41E
100
AcDbEntity
8
0
100
AcDbSpline
62
7
6
CONTINUOUS
70
0
71
3
72
9
73
5
74
3
42
0.0000001000
43
0.0000001000
44
0.0000000001
12
9.8335788083
22
3.5791299825
32
0.0000000000
13
9.8335788083
23
3.5791299825
33
0.0000000000
40
0.0000000000
40
0.0000000000
40
0.0000000000
40
0.0000000000
40
0.4992258587
40
1.0000000000
40
1.0000000000
40
1.0000000000
40
1.0000000000
10
-43.0237146288
20
14.9208700175
30
0.0000000000
10
-41.3873223537
20
15.5164680972
30
0.0000000000
10
-38.1094627510
20
16.7095114247
30
0.0000000000
10
-34.8316031482
20
17.9025547522
30
0.0000000000
10
-33.1901358205
20
18.5000000000
30
0.0000000000
11
-43.0237146288
21
14.9208700175
31
0.0000000000
11
-38.1145378036
21
16.7076642566
31
0.0000000000
11
-33.1901358205
21
18.5000000000
31
0.0000000000
0
SPLINE
5
41F
100
AcDbEntity
8
0
100
AcDbSpline
62
9
6
CONTINUOUS
70
0
71
3
72
12
73
8
74
6
42
0.0000001000
43
0.0000001000
44
0.0000000001
12
-0.4999579924
22
-0.0038831353
32
0.0000000000
13
0.0052081812
23
0.4999459449
33
0.0000000000
40
0.0000000000
40
0.0000000000
40
0.0000000000
40
0.0000000000
40
0.0490756349
40
0.1911185452
40
0.4122611497
40
0.6909655158
40
1.0000000000
40
1.0000000000
40
1.0000000000
40
1.0000000000
10
-49.8953715424
20
-18.3239790777
30
0.0000000000
10
-49.9035501277
20
-18.3240426001
30
0.0000000000
10
-49.8872077148
20
-18.2726266341
30
0.0000000000
10
-49.9034918148
20
-18.2220126322
30
0.0000000000
10
-49.8951194444
20
-18.1055680719
30
0.0000000000
10
-49.8976205942
20
-17.9744612254
30
0.0000000000
10
-49.8959080450
20
-17.8755554092
30
0.0000000000
10
-49.8953715424
20
-17.8240552301
30
0.0000000000
11
-49.8953715424
21
-18.3239790777
31
0.0000000000
11
-49.8967326041
21
-18.2994803605
31
0.0000000000
11
-49.8974484878
21
-18.2284663385
31
0.0000000000
11
-49.8974488986
21
-18.1179009912
31
0.0000000000
11
-49.8967330645
21
-17.9785581517
31
0.0000000000
11
-49.8953715424
21
-17.8240552301
31
0.0000000000
0
SPLINE
5
420
100
AcDbEntity
8
0
100
AcDbSpline
62
9
6
CONTINUOUS
70
0
71
3
72
12
73
8
74
6
42
0.0000001000
43
0.0000001000
44
0.0000000001
12
-0.5002902039
22
0.0086498317
32
0.0000000000
13
-0.0087293840
23
-0.5002888222
33
0.0000000000
40
0.0000000000
40
0.0000000000
40
0.0000000000
40
0.0000000000
40
0.0492232048
40
0.1912953991
40
0.4124755522
40
0.6911349624
40
1.0000000000
40
1.0000000000
40
1.0000000000
40
1.0000000000
10
-44.0596148334
20
22.3977217477
30
0.0000000000
10
-44.0678234624
20
22.3978636718
30
0.0000000000
10
-44.0553239330
20
22.3465388217
30
0.0000000000
10
-44.0722490487
20
22.2958140860
30
0.0000000000
10
-44.0686348676
20
22.1793926412
30
0.0000000000
10
-44.0749275592
20
22.0482304134
30
0.0000000000
10
-44.0761676525
20
21.9493050468
30
0.0000000000
10
-44.0770663863
20
21.8977978048
30
0.0000000000
11
-44.0596148334
21
22.3977217477
31
0.0000000000
11
-44.0627381523
21
22.3732910195
31
0.0000000000
11
-44.0664101110
21
22.3022979682
31
0.0000000000
11
-44.0702711192
21
22.1916945371
31
0.0000000000
11
-44.0739430742
21
22.0523114877
31
0.0000000000
11
-44.0770663863
21
21.8977978048
31
0.0000000000
0
SPLINE
5
421
100
AcDbEntity
8
0
100
AcDbSpline
62
9
6
CONTINUOUS
70
0
71
3
72
11
73
7
74
5
42
0.0000001000
43
0.0000001000
44
0.0000000001
12
-0.0357421336
22
-0.4730776884
32
0.0000000000
13
-0.0111686177
23
-0.4742944880
33
0.0000000000
40
0.0000000000
40
0.0000000000
40
0.0000000000
40
0.0000000000
40
0.1510420564
40
0.3839981722
40
0.6763947477
40
1.0000000000
40
1.0000000000
40
1.0000000000
40
1.0000000000
10
-44.4434459333
20
22.4147579936
30
0.0000000000
10
-44.4452454551
20
22.3909397846
30
0.0000000000
10
-44.4482615474
20
22.3302777337
30
0.0000000000
10
-44.4525398832
20
22.2234010304
30
0.0000000000
10
-44.4567850121
20
22.0892090166
30
0.0000000000
10
-44.4593395604
20
21.9918268579
30
0.0000000000
10
-44.4605443015
20
21.9406654621
30
0.0000000000
11
-44.4434459333
21
22.4147579936
31
0.0000000000
11
-44.4475273044
21
22.3432160435
31
0.0000000000
11
-44.4520270586
21
22.2327872527
31
0.0000000000
11
-44.4565105092
21
22.0941391958
31
0.0000000000
11
-44.4605443015
21
21.9406654621
31
0.0000000000
0
SPLINE
5
422
100
AcDbEntity
8
0
100
AcDbSpline
62
9
6
CONTINUOUS
70
0
71
3
72
16
73
12
74
10
42
0.0000001000
43
0.0000001000
44
0.0000000001
12
0.3861115790
22
-0.0090830079
32
0.0000000000
13
0.3861599643
23
-0.0067182182
33
0.0000000000
40
0.0000000000
40
0.0000000000
40
0.0000000000
40
0.0000000000
40
0.0660050357
40
0.1380401834
40
0.2184549126
40
0.3092653043
40
0.4129440458
40
0.5325640898
40
0.6701629968
40
0.8254894521
40
1.0000000000
40
1.0000000000
40
1.0000000000
40
1.0000000000
10
-44.4605560046
20
21.9406659488
30
0.0000000000
10
-44.4520609018
20
21.9404661074
30
0.0000000000
10
-44.4343004411
20
21.9397269114
30
0.0000000000
10
-44.4062586112
20
21.9375013575
30
0.0000000000
10
-44.3751411405
20
21.9339223800
30
0.0000000000
10
-44.3401050157
20
21.9289005987
30
0.0000000000
10
-44.3001896768
20
21.9224139751
30
0.0000000000
10
-44.2543464009
20
21.9148599206
30
0.0000000000
10
-44.2017999034
20
21.9070947153
30
0.0000000000
10
-44.1419696533
20
21.9004722155
30
0.0000000000
10
-44.0995293819
20
21.8981886048
30
0.0000000000
10
-44.0770663863
20
21.8977978048
30
0.0000000000
11
-44.4605560046
21
21.9406659488
31
0.0000000000
11
-44.4350856626
21
21.9396066759
31
0.0000000000
11
-44.4073494304
21
21.9374327105
31
0.0000000000
11
-44.3764886791
21
21.9339410728
31
0.0000000000
11
-44.3417609238
21
21.9290346096
31
0.0000000000
11
-44.3022177745
21
21.9227296770
31
0.0000000000
11
-44.2566109446
21
21.9153535430
31
0.0000000000
11
-44.2040174722
21
21.9077292714
31
0.0000000000
11
-44.1443758718
21
21.9012739004
31
0.0000000000
11
-44.0770663863
21
21.8977978048
31
0.0000000000
0
SPLINE
5
423
100
AcDbEntity
8
0
100
AcDbSpline
62
9
6
CONTINUOUS
70
0
71
3
72
16
73
12
74
10
42
0.0000001000
43
0.0000001000
44
0.0000000001
12
0.3841810359
22
-0.0071848790
32
0.0000000000
13
0.3841897246
23
-0.0067042052
33
0.0000000000
40
0.0000000000
40
0.0000000000
40
0.0000000000
40
0.0000000000
40
0.1108287632
40
0.2286850200
40
0.3499774821
40
0.4722736287
40
0.5921748705
40
0.7054982890
40
0.8117572687
40
0.9095245502
40
1.0000000000
40
1.0000000000
40
1.0000000000
40
1.0000000000
10
-44.4434459333
20
22.4147579936
30
0.0000000000
10
-44.4292531636
20
22.4144925632
30
0.0000000000
10
-44.3999691484
20
22.4138628565
30
0.0000000000
10
-44.3551600506
20
22.4126150092
30
0.0000000000
10
-44.3088942580
20
22.4109624372
30
0.0000000000
10
-44.2623801471
20
22.4089581714
30
0.0000000000
10
-44.2169054752
20
22.4065790622
30
0.0000000000
10
-44.1735055292
20
22.4039042905
30
0.0000000000
10
-44.1329456865
20
22.4012411856
30
0.0000000000
10
-44.0952973303
20
22.3989150505
30
0.0000000000
10
-44.0712014397
20
22.3979232119
30
0.0000000000
10
-44.0596148603
20
22.3977210232
30
0.0000000000
11
-44.4434459333
21
22.4147579936
31
0.0000000000
11
-44.4008701046
21
22.4138385985
31
0.0000000000
11
-44.3556018542
21
22.4125687951
31
0.0000000000
11
-44.3090249659
21
22.4109101434
31
0.0000000000
11
-44.2620771001
21
22.4088722246
31
0.0000000000
11
-44.2160683567
21
22.4064618730
31
0.0000000000
11
-44.1726043343
21
22.4038186414
31
0.0000000000
11
-44.1318587504
21
22.4011972176
31
0.0000000000
11
-44.0943566871
21
22.3989909799
31
0.0000000000
11
-44.0596148603
21
22.3977210232
31
0.0000000000
0
SPLINE
5
424
100
AcDbEntity
8
0
100
AcDbSpline
62
9
6
CONTINUOUS
70
0
71
3
72
11
73
7
74
5
42
0.0000001000
43
0.0000001000
44
0.0000000001
12
-0.0336606446
22
-0.4688602332
32
0.0000000000
13
-0.0111872454
23
-0.4699338281
33
0.0000000000
40
0.0000000000
40
0.0000000000
40
0.0000000000
40
0.0000000000
40
0.1558358192
40
0.3897409162
40
0.6800854659
40
1.0000000000
40
1.0000000000
40
1.0000000000
40
1.0000000000
10
-45.4434155525
20
22.4339535759
30
0.0000000000
10
-45.4451640639
20
22.4095985030
30
0.0000000000
10
-45.4481852805
20
22.3485967880
30
0.0000000000
10
-45.4524173463
20
22.2421216283
30
0.0000000000
10
-45.4566218451
20
22.1099147329
30
0.0000000000
10
-45.4591480983
20
22.0143271609
30
0.0000000000
10
-45.4603410857
20
21.9642142736
30
0.0000000000
11
-45.4434155525
21
22.4339535759
31
0.0000000000
11
-45.4474848254
21
22.3608134172
31
0.0000000000
11
-45.4519364964
21
22.2509525128
31
0.0000000000
11
-45.4563583895
21
22.1145427816
31
0.0000000000
11
-45.4603410857
21
21.9642142736
31
0.0000000000
0
SPLINE
5
425
100
AcDbEntity
8
0
100
AcDbSpline
62
9
6
CONTINUOUS
70
0
71
3
72
10
73
6
74
4
42
0.0000001000
43
0.0000001000
44
0.0000000001
12
0.9996795715
22
-0.0238056242
32
0.0000000000
13
0.9996917465
23
-0.0232887369
33
0.0000000000
40
0.0000000000
40
0.0000000000
40
0.0000000000
40
0.0000000000
40
0.3333034116
40
0.6667060588
40
1.0000000000
40
1.0000000000
40
1.0000000000
40
1.0000000000
10
-45.4602417157
20
21.9642119160
30
0.0000000000
10
-45.3491761785
20
21.9615670841
30
0.0000000000
10
-45.1270115732
20
21.9562960517
30
0.0000000000
10
-44.7937829919
20
21.9484476575
30
0.0000000000
10
-44.5716197387
20
21.9432532804
30
0.0000000000
10
-44.4605560046
20
21.9406659488
30
0.0000000000
11
-45.4602417157
21
21.9642119160
31
0.0000000000
11
-45.1270444141
21
21.9563064485
31
0.0000000000
11
-44.7937465441
21
21.9484563376
31
0.0000000000
11
-44.4605560046
21
21.9406659488
31
0.0000000000
0
SPLINE
5
426
100
AcDbEntity
8
0
100
AcDbSpline
62
9
6
CONTINUOUS
70
0
71
3
72
9
73
5
74
3
42
0.0000001000
43
0.0000001000
44
0.0000000001
12
-0.0394093674
22
0.0004349237
32
0.0000000000
13
0.0022296549
23
-0.0452700083
33
0.0000000000
40
0.0000000000
40
0.0000000000
40
0.0000000000
40
0.0000000000
40
0.6255207812
40
1.0000000000
40
1.0000000000
40
1.0000000000
40
1.0000000000
10
-45.8449794957
20
22.4288854008
30
0.0000000000
10
-45.8531966218
20
22.4289760854
30
0.0000000000
10
-45.8480202218
20
22.4078888384
30
0.0000000000
10
-45.8463105166
20
22.3914858674
30
0.0000000000
10
-45.8460321967
20
22.3858349750
30
0.0000000000
11
-45.8449794957
21
22.4288854008
31
0.0000000000
11
-45.8480771656
21
22.4044279089
31
0.0000000000
11
-45.8460321967
21
22.3858349750
31
0.0000000000
0
SPLINE
5
427
100
AcDbEntity
8
0
100
AcDbSpline
62
9
6
CONTINUOUS
70
0
71
3
72
11
73
7
74
5
42
0.0000001000
43
0.0000001000
44
0.0000000001
12
0.0260772673
22
-0.5294622420
32
0.0000000000
13
-0.0080993025
23
-0.4608751340
33
0.0000000000
40
0.0000000000
40
0.0000000000
40
0.0000000000
40
0.0000000000
40
0.1222253320
40
0.3623101142
40
0.6647661847
40
1.0000000000
40
1.0000000000
40
1.0000000000
40
1.0000000000
10
-45.8460321967
20
22.3858349750
30
0.0000000000
10
-45.8449697625
20
22.3642637422
30
0.0000000000
10
-45.8574540021
20
22.3215587334
30
0.0000000000
10
-45.8539857205
20
22.2105451736
30
0.0000000000
10
-45.8603068899
20
22.0793741233
30
0.0000000000
10
-45.8615549854
20
21.9804668637
30
0.0000000000
10
-45.8624600388
20
21.9289665538
30
0.0000000000
11
-45.8460321967
21
22.3858349750
31
0.0000000000
11
-45.8517569872
21
22.3334249990
31
0.0000000000
11
-45.8556305143
21
22.2228266190
31
0.0000000000
11
-45.8593185480
21
22.0834594027
31
0.0000000000
11
-45.8624600388
21
21.9289665538
31
0.0000000000
0
SPLINE
5
428
100
AcDbEntity
8
0
100
AcDbSpline
62
9
6
CONTINUOUS
70
0
71
3
72
15
73
11
74
9
42
0.0000001000
43
0.0000001000
44
0.0000000001
12
0.4041914785
22
-0.0071317142
32
0.0000000000
13
0.4041423076
23
-0.0095188132
33
0.0000000000
40
0.0000000000
40
0.0000000000
40
0.0000000000
40
0.0000000000
40
0.1751125839
40
0.3500914023
40
0.5121732028
40
0.6462667741
40
0.7550560556
40
0.8466184207
40
0.9264938451
40
1.0000000000
40
1.0000000000
40
1.0000000000
40
1.0000000000
10
-45.8624600388
20
21.9289665538
30
0.0000000000
10
-45.8388670341
20
21.9285502695
30
0.0000000000
10
-45.7916509267
20
21.9296114006
30
0.0000000000
10
-45.7228780813
20
21.9358200461
30
0.0000000000
10
-45.6599698948
20
21.9444599904
30
0.0000000000
10
-45.6060278052
20
21.9527008885
30
0.0000000000
10
-45.5613766562
20
21.9588466241
30
0.0000000000
10
-45.5237948948
20
21.9626362144
30
0.0000000000
10
-45.4908229812
20
21.9644144245
30
0.0000000000
10
-45.4701440314
20
21.9644451464
30
0.0000000000
10
-45.4602417157
20
21.9642119160
30
0.0000000000
11
-45.8624600388
21
21.9289665538
31
0.0000000000
11
-45.7916846869
21
21.9304080974
31
0.0000000000
11
-45.7212150981
21
21.9365409986
31
0.0000000000
11
-45.6562610741
21
21.9451516827
31
0.0000000000
11
-45.6026345598
21
21.9530697012
31
0.0000000000
11
-45.5590410612
21
21.9588765315
31
0.0000000000
11
-45.5222031739
21
21.9624879559
31
0.0000000000
11
-45.4899568677
21
21.9641670208
31
0.0000000000
11
-45.4602417157
21
21.9642119160
31
0.0000000000
0
SPLINE
5
429
100
AcDbEntity
8
0
100
AcDbSpline
62
9
6
CONTINUOUS
70
0
71
3
72
15
73
11
74
9
42
0.0000001000
43
0.0000001000
44
0.0000000001
12
0.4015682205
22
-0.0071779807
32
0.0000000000
13
0.4015659064
23
-0.0073062905
33
0.0000000000
40
0.0000000000
40
0.0000000000
40
0.0000000000
40
0.0000000000
40
0.0835027605
40
0.1865525363
40
0.3111003194
40
0.4469198220
40
0.5881981051
40
0.7292115716
40
0.8672914903
40
1.0000000000
40
1.0000000000
40
1.0000000000
40
1.0000000000
10
-45.8449511351
20
22.4288932441
30
0.0000000000
10
-45.8337737834
20
22.4286934504
30
0.0000000000
10
-45.8087913712
20
22.4289572166
30
0.0000000000
10
-45.7671728144
20
22.4305491924
30
0.0000000000
10
-45.7185590101
20
22.4325205160
30
0.0000000000
10
-45.6648084976
20
22.4340711506
30
0.0000000000
10
-45.6088381063
20
22.4349527109
30
0.0000000000
10
-45.5525590294
20
22.4351282477
30
0.0000000000
10
-45.4974282385
20
22.4348163980
30
0.0000000000
10
-45.4611793150
20
22.4342763052
30
0.0000000000
10
-45.4434155773
20
22.4339531029
30
0.0000000000
11
-45.8449511351
21
22.4288932441
31
0.0000000000
11
-45.8114141789
21
22.4290679978
31
0.0000000000
11
-45.7700492508
21
22.4304535138
31
0.0000000000
11
-45.7200634109
21
22.4323662111
31
0.0000000000
11
-45.6655364201
21
22.4339334239
31
0.0000000000
11
-45.6088016314
21
22.4348337163
31
0.0000000000
11
-45.5521664559
21
22.4350457667
31
0.0000000000
11
-45.4967100176
21
22.4347252171
31
0.0000000000
11
-45.4434155773
21
22.4339531029
31
0.0000000000
0
SPLINE
5
42A
100
AcDbEntity
8
0
100
AcDbSpline
62
9
6
CONTINUOUS
70
0
71
3
72
12
73
8
74
6
42
0.0000001000
43
0.0000001000
44
0.0000000001
12
0.0087293882
22
-0.5002888222
32
0.0000000000
13
0.5002901927
23
0.0086504874
33
0.0000000000
40
0.0000000000
40
0.0000000000
40
0.0000000000
40
0.0000000000
40
0.3088650419
40
0.5875244549
40
0.8087046087
40
0.9507768005
40
1.0000000000
40
1.0000000000
40
1.0000000000
40
1.0000000000
10
-44.0770663864
20
-21.8977978050
30
0.0000000000
10
-44.0761676521
20
-21.9493050476
30
0.0000000000
10
-44.0749275579
20
-22.0482304168
30
0.0000000000
10
-44.0686348655
20
-22.1793926409
30
0.0000000000
10
-44.0722490441
20
-22.2958140983
30
0.0000000000
10
-44.0553239302
20
-22.3465388095
30
0.0000000000
10
-44.0678234547
20
-22.3978636825
30
0.0000000000
10
-44.0596148267
20
-22.3977217476
30
0.0000000000
11
-44.0770663864
21
-21.8977978050
31
0.0000000000
11
-44.0739430730
21
-22.0523114900
31
0.0000000000
11
-44.0702711166
21
-22.1916945408
31
0.0000000000
11
-44.0664101070
21
-22.3022979722
31
0.0000000000
11
-44.0627381470
21
-22.3732910222
31
0.0000000000
11
-44.0596148267
21
-22.3977217476
31
0.0000000000
0
SPLINE
5
42B
100
AcDbEntity
8
0
100
AcDbSpline
62
9
6
CONTINUOUS
70
0
71
3
72
11
73
7
74
5
42
0.0000001000
43
0.0000001000
44
0.0000000001
12
0.0111172828
22
-0.4742975250
32
0.0000000000
13
0.0359112104
23
-0.4730667196
33
0.0000000000
40
0.0000000000
40
0.0000000000
40
0.0000000000
40
0.0000000000
40
0.3236047105
40
0.6160008415
40
0.8489569442
40
1.0000000000
40
1.0000000000
40
1.0000000000
40
1.0000000000
10
-44.4605445612
20
-21.9406654676
30
0.0000000000
10
-44.4593453595
20
-21.9918271054
30
0.0000000000
10
-44.4567993996
20
-22.0892097061
30
0.0000000000
10
-44.4525598203
20
-22.2234023142
30
0.0000000000
10
-44.4482776984
20
-22.3302792913
30
0.0000000000
10
-44.4452539552
20
-22.3909415474
30
0.0000000000
10
-44.4434459089
20
-22.4147593617
30
0.0000000000
11
-44.4605445612
21
-21.9406654676
31
0.0000000000
11
-44.4565240735
21
-22.0941398858
31
0.0000000000
11
-44.4520454135
21
-22.2327884221
31
0.0000000000
11
-44.4475409817
21
-22.3432174427
31
0.0000000000
11
-44.4434459089
21
-22.4147593617
31
0.0000000000
0
SPLINE
5
42C
100
AcDbEntity
8
0
100
AcDbSpline
62
9
6
CONTINUOUS
70
0
71
3
72
15
73
11
74
9
42
0.0000001000
43
0.0000001000
44
0.0000000001
12
0.3841800323
22
0.0072040722
32
0.0000000000
13
0.3841893910
23
0.0066863824
33
0.0000000000
40
0.0000000000
40
0.0000000000
40
0.0000000000
40
0.0000000000
40
0.1293805403
40
0.2656769864
40
0.4043258621
40
0.5408528579
40
0.6704365701
40
0.7898477081
40
0.8992472500
40
1.0000000000
40
1.0000000000
40
1.0000000000
40
1.0000000000
10
-44.4434459089
20
-22.4147593617
30
0.0000000000
10
-44.4268774355
20
-22.4144486727
30
0.0000000000
10
-44.3928569518
20
-22.4136936667
30
0.0000000000
10
-44.3410915590
20
-22.4121736683
30
0.0000000000
10
-44.2884278273
20
-22.4101382790
30
0.0000000000
10
-44.2366418381
20
-22.4076940015
30
0.0000000000
10
-44.1873478742
20
-22.4047916950
30
0.0000000000
10
-44.1415409016
20
-22.4018022418
30
0.0000000000
10
-44.0994157542
20
-22.3991252464
30
0.0000000000
10
-44.0725175617
20
-22.3979458264
30
0.0000000000
10
-44.0596148491
20
-22.3977212693
30
0.0000000000
11
-44.4434459089
21
-22.4147593617
31
0.0000000000
11
-44.3937440069
21
-22.4136555109
31
0.0000000000
11
-44.3413954660
21
-22.4121022945
31
0.0000000000
11
-44.2881594595
21
-22.4100514803
31
0.0000000000
11
-44.2357590741
21
-22.4075477466
31
0.0000000000
11
-44.1860506401
21
-22.4046602865
31
0.0000000000
11
-44.1402607156
21
-22.4017323421
31
0.0000000000
11
-44.0983006740
21
-22.3991979917
31
0.0000000000
11
-44.0596148491
21
-22.3977212693
31
0.0000000000
0
SPLINE
5
42D
100
AcDbEntity
8
0
100
AcDbSpline
62
9
6
CONTINUOUS
70
0
71
3
72
15
73
11
74
9
42
0.0000001000
43
0.0000001000
44
0.0000000001
12
0.3861045724
22
0.0090724758
32
0.0000000000
13
0.3861512973
23
0.0067989881
33
0.0000000000
40
0.0000000000
40
0.0000000000
40
0.0000000000
40
0.0000000000
40
0.0768347165
40
0.1616508737
40
0.2571913479
40
0.3663984499
40
0.4926886140
40
0.6393553566
40
0.8074875046
40
1.0000000000
40
1.0000000000
40
1.0000000000
40
1.0000000000
10
-44.4605546510
20
-21.9406659172
30
0.0000000000
10
-44.4506659058
20
-21.9404335568
30
0.0000000000
10
-44.4298687870
20
-21.9395040939
30
0.0000000000
10
-44.3968785241
20
-21.9365830275
30
0.0000000000
10
-44.3598913846
20
-21.9318830968
30
0.0000000000
10
-44.3177758485
20
-21.9253485010
30
0.0000000000
10
-44.2692487218
20
-21.9172517226
30
0.0000000000
10
-44.2131249980
20
-21.9085812800
30
0.0000000000
10
-44.1482485500
20
-21.9008955782
30
0.0000000000
10
-44.1018460364
20
-21.8982341017
30
0.0000000000
10
-44.0770663864
20
-21.8977978050
30
0.0000000000
11
-44.4605546510
21
-21.9406659172
31
0.0000000000
11
-44.4309096325
21
-21.9393451880
31
0.0000000000
11
-44.3982755753
21
-21.9365104426
31
0.0000000000
11
-44.3616598706
21
-21.9319484992
31
0.0000000000
11
-44.3199615049
21
-21.9256124398
31
0.0000000000
11
-44.2718209948
21
-21.9177728200
31
0.0000000000
11
-44.2158122343
21
-21.9093112017
31
0.0000000000
11
-44.1513050384
21
-21.9018739809
31
0.0000000000
11
-44.0770663864
21
-21.8977978050
31
0.0000000000
0
SPLINE
5
42E
100
AcDbEntity
8
0
100
AcDbSpline
62
9
6
CONTINUOUS
70
0
71
3
72
11
73
7
74
5
42
0.0000001000
43
0.0000001000
44
0.0000000001
12
0.0111872455
22
-0.4699338281
32
0.0000000000
13
0.0336606479
23
-0.4688602329
33
0.0000000000
40
0.0000000000
40
0.0000000000
40
0.0000000000
40
0.0000000000
40
0.3199145341
40
0.6102590838
40
0.8441641807
40
1.0000000000
40
1.0000000000
40
1.0000000000
40
1.0000000000
10
-45.4603410856
20
-21.9642142736
30
0.0000000000
10
-45.4591480982
20
-22.0143271609
30
0.0000000000
10
-45.4566218451
20
-22.1099147329
30
0.0000000000
10
-45.4524173462
20
-22.2421216283
30
0.0000000000
10
-45.4481852807
20
-22.3485967880
30
0.0000000000
10
-45.4451640640
20
-22.4095985030
30
0.0000000000
10
-45.4434155524
20
-22.4339535759
30
0.0000000000
11
-45.4603410856
21
-21.9642142736
31
0.0000000000
11
-45.4563583895
21
-22.1145427816
31
0.0000000000
11
-45.4519364964
21
-22.2509525128
31
0.0000000000
11
-45.4474848255
21
-22.3608134172
31
0.0000000000
11
-45.4434155524
21
-22.4339535759
31
0.0000000000
0
SPLINE
5
42F
100
AcDbEntity
8
0
100
AcDbSpline
62
9
6
CONTINUOUS
70
0
71
3
72
10
73
6
74
4
42
0.0000001000
43
0.0000001000
44
0.0000000001
12
0.9996810450
22
0.0238056593
32
0.0000000000
13
0.9996932201
23
0.0232887714
33
0.0000000000
40
0.0000000000
40
0.0000000000
40
0.0000000000
40
0.0000000000
40
0.3333030400
40
0.6667051958
40
1.0000000000
40
1.0000000000
40
1.0000000000
40
1.0000000000
10
-45.4602418356
20
-21.9642119188
30
0.0000000000
10
-45.3491762585
20
-21.9615670860
30
0.0000000000
10
-45.1270116133
20
-21.9562960526
30
0.0000000000
10
-44.7937825408
20
-21.9484476469
30
0.0000000000
10
-44.5716188363
20
-21.9432532593
30
0.0000000000
10
-44.4605546510
20
-21.9406659172
30
0.0000000000
11
-45.4602418356
21
-21.9642119188
31
0.0000000000
11
-45.1270444143
21
-21.9563064485
31
0.0000000000
11
-44.7937465444
21
-21.9484563376
31
0.0000000000
11
-44.4605546510
21
-21.9406659172
31
0.0000000000
0
SPLINE
5
430
100
AcDbEntity
8
0
100
AcDbSpline
62
9
6
CONTINUOUS
70
0
71
3
72
12
73
8
74
6
42
0.0000001000
43
0.0000001000
44
0.0000000001
12
0.0087598150
22
-0.4984379580
32
0.0000000000
13
0.3989198996
23
-0.1099650674
33
0.0000000000
40
0.0000000000
40
0.0000000000
40
0.0000000000
40
0.0000000000
40
0.3099703681
40
0.5896330562
40
0.8116247284
40
0.9542446404
40
1.0000000000
40
1.0000000000
40
1.0000000000
40
1.0000000000
10
-45.8624600342
20
-21.9289665558
30
0.0000000000
10
-45.8615549398
20
-21.9804668882
30
0.0000000000
10
-45.8603034269
20
-22.0793738202
30
0.0000000000
10
-45.8539951453
20
-22.2105462643
30
0.0000000000
10
-45.8575972972
20
-22.3269032795
30
0.0000000000
10
-45.8408114718
20
-22.3772947753
30
0.0000000000
10
-45.8526936612
20
-22.4270111993
30
0.0000000000
10
-45.8466094201
20
-22.4286883631
30
0.0000000000
11
-45.8624600342
21
-21.9289665558
31
0.0000000000
11
-45.8593184407
21
-22.0834594726
31
0.0000000000
11
-45.8556303499
21
-22.2228267064
31
0.0000000000
11
-45.8517568177
21
-22.3334250573
31
0.0000000000
11
-45.8480770436
21
-22.4044279228
31
0.0000000000
11
-45.8466094201
21
-22.4286883631
31
0.0000000000
0
SPLINE
5
431
100
AcDbEntity
8
0
100
AcDbSpline
62
9
6
CONTINUOUS
70
0
71
3
72
15
73
11
74
9
42
0.0000001000
43
0.0000001000
44
0.0000000001
12
0.4015675446
22
0.0071809745
32
0.0000000000
13
0.4015655573
23
0.0072912605
33
0.0000000000
40
0.0000000000
40
0.0000000000
40
0.0000000000
40
0.0000000000
40
0.0969085308
40
0.2022937058
40
0.3199218606
40
0.4497670301
40
0.5886592443
40
0.7305871334
40
0.8693755811
40
1.0000000000
40
1.0000000000
40
1.0000000000
40
1.0000000000
10
-45.8449510885
20
-22.4288943601
30
0.0000000000
10
-45.8319793149
20
-22.4286623942
30
0.0000000000
10
-45.8048882591
20
-22.4290533422
30
0.0000000000
10
-45.7620947205
20
-22.4307832493
30
0.0000000000
10
-45.7148896807
20
-22.4326105307
30
0.0000000000
10
-45.6631852194
20
-22.4341345349
30
0.0000000000
10
-45.6082105272
20
-22.4349332305
30
0.0000000000
10
-45.5520339922
20
-22.4351471793
30
0.0000000000
10
-45.4969651601
20
-22.4347930921
30
0.0000000000
10
-45.4609002859
20
-22.4342733121
30
0.0000000000
10
-45.4434155301
20
-22.4339558399
30
0.0000000000
11
-45.8449510885
21
-22.4288943601
31
0.0000000000
11
-45.8060307326
21
-22.4291982698
31
0.0000000000
11
-45.7637315511
21
-22.4307056554
31
0.0000000000
11
-45.7165216167
21
-22.4324782684
31
0.0000000000
11
-45.6643931117
21
-22.4339734016
31
0.0000000000
11
-45.6086161472
21
-22.4348287482
31
0.0000000000
11
-45.5516138324
21
-22.4350504227
31
0.0000000000
11
-45.4958730274
21
-22.4347096702
31
0.0000000000
11
-45.4434155301
21
-22.4339558399
31
0.0000000000
0
SPLINE
5
432
100
AcDbEntity
8
0
100
AcDbSpline
62
9
6
CONTINUOUS
70
0
71
3
72
15
73
11
74
9
42
0.0000001000
43
0.0000001000
44
0.0000000001
12
0.4041858834
22
0.0071472796
32
0.0000000000
13
0.4041376806
23
0.0094893133
33
0.0000000000
40
0.0000000000
40
0.0000000000
40
0.0000000000
40
0.0000000000
40
0.2005595584
40
0.3733291617
40
0.5220866878
40
0.6484622957
40
0.7554520944
40
0.8473334124
40
0.9278105257
40
1.0000000000
40
1.0000000000
40
1.0000000000
40
1.0000000000
10
-45.8624600342
20
-21.9289665558
30
0.0000000000
10
-45.8354389201
20
-21.9284887374
30
0.0000000000
10
-45.7850793764
20
-21.9299116494
30
0.0000000000
10
-45.7150394561
20
-21.9368224617
30
0.0000000000
10
-45.6552595807
20
-21.9451809733
30
0.0000000000
10
-45.6043580170
20
-21.9529414107
30
0.0000000000
10
-45.5609323784
20
-21.9588947490
30
0.0000000000
10
-45.5234680184
20
-21.9626623375
30
0.0000000000
10
-45.4905485678
20
-21.9644223998
30
0.0000000000
10
-45.4699666645
20
-21.9644402617
30
0.0000000000
10
-45.4602418356
20
-21.9642119188
30
0.0000000000
11
-45.8624600342
21
-21.9289665558
31
0.0000000000
11
-45.7814103605
21
-21.9310331126
31
0.0000000000
11
-45.7118819800
21
-21.9376439004
31
0.0000000000
11
-45.6522931743
21
-21.9457311438
31
0.0000000000
11
-45.6017545598
21
-21.9531979184
31
0.0000000000
11
-45.5588807644
21
-21.9588940340
31
0.0000000000
11
-45.5219140690
21
-21.9625080672
31
0.0000000000
11
-45.4894243479
21
-21.9641816843
31
0.0000000000
11
-45.4602418356
21
-21.9642119188
31
0.0000000000
0
SPLINE
5
433
100
AcDbEntity
8
0
100
AcDbSpline
62
9
6
CONTINUOUS
70
0
71
3
72
12
73
8
74
6
42
0.0000001000
43
0.0000001000
44
0.0000000001
12
0.2500010566
22
-0.0078210770
32
0.0000000000
13
0.2499998806
23
-0.0078585791
33
0.0000000000
40
0.0000000000
40
0.0000000000
40
0.0000000000
40
0.0000000000
40
0.3119011811
40
0.5899891110
40
0.8090628924
40
0.9506011199
40
1.0000000000
40
1.0000000000
40
1.0000000000
40
1.0000000000
10
-44.4401358205
20
22.6043942318
30
0.0000000000
10
-44.4141439456
20
22.6035810975
30
0.0000000000
10
-44.3649783298
20
22.6020317743
30
0.0000000000
10
-44.2975564178
20
22.5999135793
30
0.0000000000
10
-44.2443314104
20
22.5982416936
30
0.0000000000
10
-44.2101638147
20
22.5971688665
30
0.0000000000
10
-44.1942523919
20
22.5966688543
30
0.0000000000
10
-44.1901358205
20
22.5965394526
30
0.0000000000
11
-44.4401358205
21
22.6043942318
31
0.0000000000
11
-44.3621605261
21
22.6019442885
31
0.0000000000
11
-44.2926385696
21
22.5997591446
31
0.0000000000
11
-44.2378701083
21
22.5980388742
31
0.0000000000
11
-44.2024855380
21
22.5969275513
31
0.0000000000
11
-44.1901358205
21
22.5965394526
31
0.0000000000
0
SPLINE
5
434
100
AcDbEntity
8
0
100
AcDbSpline
62
9
6
CONTINUOUS
70
0
71
3
72
12
73
8
74
6
42
0.0000001000
43
0.0000001000
44
0.0000000001
12
-0.2499998808
22
-0.0078585743
32
0.0000000000
13
-0.2500010566
23
-0.0078210776
33
0.0000000000
40
0.0000000000
40
0.0000000000
40
0.0000000000
40
0.0000000000
40
0.0493988801
40
0.1909371076
40
0.4100108890
40
0.6880988189
40
1.0000000000
40
1.0000000000
40
1.0000000000
40
1.0000000000
10
-44.1901358205
20
-22.5965394526
30
0.0000000000
10
-44.1942523919
20
-22.5966688542
30
0.0000000000
10
-44.2101638147
20
-22.5971688663
30
0.0000000000
10
-44.2443314104
20
-22.5982416940
30
0.0000000000
10
-44.2975564178
20
-22.5999135784
30
0.0000000000
10
-44.3649783298
20
-22.6020317763
30
0.0000000000
10
-44.4141439456
20
-22.6035810974
30
0.0000000000
10
-44.4401358205
20
-22.6043942318
30
0.0000000000
11
-44.1901358205
21
-22.5965394526
31
0.0000000000
11
-44.2024855380
21
-22.5969275511
31
0.0000000000
11
-44.2378701083
21
-22.5980388742
31
0.0000000000
11
-44.2926385696
21
-22.5997591444
31
0.0000000000
11
-44.3621605261
21
-22.6019442895
31
0.0000000000
11
-44.4401358205
21
-22.6043942318
31
0.0000000000
0
SPLINE
5
435
100
AcDbEntity
8
0
100
AcDbSpline
62
9
6
CONTINUOUS
70
0
71
3
72
12
73
8
74
6
42
0.0000001000
43
0.0000001000
44
0.0000000001
12
-0.2500010566
22
-0.0078210770
32
0.0000000000
13
-0.2499998806
23
-0.0078585791
33
0.0000000000
40
0.0000000000
40
0.0000000000
40
0.0000000000
40
0.0000000000
40
0.3119011811
40
0.5899891110
40
0.8090628924
40
0.9506011199
40
1.0000000000
40
1.0000000000
40
1.0000000000
40
1.0000000000
10
-45.4401358205
20
-22.6218492968
30
0.0000000000
10
-45.4661276955
20
-22.6226624312
30
0.0000000000
10
-45.5152933112
20
-22.6242117543
30
0.0000000000
10
-45.5827152232
20
-22.6263299493
30
0.0000000000
10
-45.6359402306
20
-22.6280018350
30
0.0000000000
10
-45.6701078263
20
-22.6290746621
30
0.0000000000
10
-45.6860192491
20
-22.6295746743
30
0.0000000000
10
-45.6901358205
20
-22.6297040760
30
0.0000000000
11
-45.4401358205
21
-22.6218492968
31
0.0000000000
11
-45.5181111149
21
-22.6242992401
31
0.0000000000
11
-45.5876330715
21
-22.6264843840
31
0.0000000000
11
-45.6424015327
21
-22.6282046544
31
0.0000000000
11
-45.6777861030
21
-22.6293159774
31
0.0000000000
11
-45.6901358205
21
-22.6297040760
31
0.0000000000
0
SPLINE
5
436
100
AcDbEntity
8
0
100
AcDbSpline
62
9
6
CONTINUOUS
70
0
71
3
72
12
73
8
74
6
42
0.0000001000
43
0.0000001000
44
0.0000000001
12
0.2499998808
22
-0.0078585743
32
0.0000000000
13
0.2500010566
23
-0.0078210776
33
0.0000000000
40
0.0000000000
40
0.0000000000
40
0.0000000000
40
0.0000000000
40
0.0493988801
40
0.1909371076
40
0.4100108890
40
0.6880988189
40
1.0000000000
40
1.0000000000
40
1.0000000000
40
1.0000000000
10
-45.6901358205
20
22.6297040760
30
0.0000000000
10
-45.6860192491
20
22.6295746744
30
0.0000000000
10
-45.6701078263
20
22.6290746623
30
0.0000000000
10
-45.6359402306
20
22.6280018346
30
0.0000000000
10
-45.5827152232
20
22.6263299502
30
0.0000000000
10
-45.5152933113
20
22.6242117523
30
0.0000000000
10
-45.4661276955
20
22.6226624312
30
0.0000000000
10
-45.4401358205
20
22.6218492968
30
0.0000000000
11
-45.6901358205
21
22.6297040760
31
0.0000000000
11
-45.6777861030
21
22.6293159775
31
0.0000000000
11
-45.6424015327
21
22.6282046544
31
0.0000000000
11
-45.5876330715
21
22.6264843843
31
0.0000000000
11
-45.5181111149
21
22.6242992392
31
0.0000000000
11
-45.4401358205
21
22.6218492968
31
0.0000000000
0
ENDSEC
0
SECTION
2
OBJECTS
0
DICTIONARY
5
437
100
AcDbDictionary
3
ACAD_GROUP
350
438
3
ACAD_MLINESTYLE
350
439
0
DICTIONARY
5
438
102
{ACAD_REACTORS
330
437
102
}
100
AcDbDictionary
0
DICTIONARY
5
439
102
{ACAD_REACTORS
330
437
102
}
100
AcDbDictionary
3
STANDARD
350
43A
0
MLINESTYLE
5
43A
102
{ACAD_REACTORS
330
439
102
}
100
AcDbMlineStyle
2
STANDARD
70
0
3

62
256
51
90.0
52
90.0
71
2
49
0.5
62
256
6
BYLAYER
49
-0.5
62
256
6
BYLAYER
0
ENDSEC
0
EOF
