0
SECTION
2
HEADER
9
$ACADVER
1
AC1015
9
$DWGCODEPAGE
3
ANSI_1252
9
$EXTMAX
10
431.8000000000
20
558.8000000000
30
0.0000000000
9
$EXTMIN
10
0.0000000000
20
0.0000000000
30
0.0000000000
9
$LIMMIN
10
0.0000000000
20
0.0000000000
9
$LIMMAX
10
431.8000000000
20
558.8000000000
9
$VIEWCTR
10
215.9000000000
20
279.4000000000
9
$VIEWSIZE
40
558.8000000000
9
$CLAYER
8
0
9
$LTSCALE
40
36.4254814815
9
$CELTYPE
6
BYLAYER
9
$DIMSCALE
40
1
9
$DIMASZ
40
3.0000000000
9
$DIMEXO
40
4.1392592593
9
$DIMDLI
40
25.1666962963
9
$DIMEXE
40
11.9210666667
9
$DIMCEN
40
5.9605333333
9
$DIMLFAC
40
1.0000000000
9
$DIMBLK
1
_FILLED
9
$DIMTXT
40
3.0000000000
9
$DIMTOL
70
1
9
$DIMLIM
70
0
9
$DIMTFAC
40
1.0000000000
9
$DIMTP
40
0.0100000000
9
$DIMTM
40
0.0100000000
9
$PDMODE
70
3
9
$PDSIZE
40
3.0000000000
9
$HANDSEED
5
45D
9
$MEASUREMENT
70
1
9
$INSUNITS
70
4
0
ENDSEC
0
SECTION
2
CLASSES
0
CLASS
1
ACDBDICTIONARYWDFLT
2
AcDbDictionaryWithDefault
3
AutoCAD 2000
90
0
280
0
281
0
0
CLASS
1
ACDBPLACEHOLDER
2
AcDbPlaceHolder
3
AutoCAD 2000
90
0
280
0
281
0
0
CLASS
1
LAYOUT
2
AcDbLayout
3
AutoCAD 2000
90
0
280
0
281
0
0
ENDSEC
0
SECTION
2
TABLES
0
TABLE
2
VPORT
5
8
100
AcDbSymbolTable
70
2
0
VPORT
5
1F4
100
AcDbSymbolTableRecord
100
AcDbViewportTableRecord
2
*ACTIVE
70
0
10
0.0
20
0.0
11
1.0
21
1.0
12
215.9000000000
22
279.4000000000
13
0.0
23
0.0
14
1.0
24
1.0
15
0.0
25
0.0
16
0.0
26
0.0
36
1.0
17
0.0
27
0.0
37
0.0
40
558.8000000000
41
0.7727272727
42
50.0
43
0.0
44
0.0
50
0.0
51
0.0
71
0
72
100
73
1
74
1
75
0
76
0
77
0
78
0
0
ENDTAB
0
TABLE
2
LTYPE
5
5
100
AcDbSymbolTable
70
6
0
LTYPE
5
14
100
AcDbSymbolTableRecord
100
AcDbLinetypeTableRecord
2
BYBLOCK
70
0
3

72
65
73
0
40
0.0
0
LTYPE
5
15
100
AcDbSymbolTableRecord
100
AcDbLinetypeTableRecord
2
BYLAYER
70
0
3

72
65
73
0
40
0.0
0
LTYPE
5
16
100
AcDbSymbolTableRecord
100
AcDbLinetypeTableRecord
2
CONTINUOUS
70
64
3
Solid line
72
65
73
0
40
0
0
LTYPE
5
1F5
100
AcDbSymbolTableRecord
100
AcDbLinetypeTableRecord
2
CENTER
70
64
3
____ _ ____ _ ____ _ ____ _ ____ _ ____ _ ____
72
65
73
4
40
0.6
49
0.375
74
0
49
-0.075
74
0
49
0.075
74
0
49
-0.075
74
0
0
LTYPE
5
1F6
100
AcDbSymbolTableRecord
100
AcDbLinetypeTableRecord
2
HIDDEN
70
64
3
- - - - - - - - - - - - - - - - - - - -
72
65
73
2
40
0.2
49
0.1
74
0
49
-0.1
74
0
0
LTYPE
5
1F7
100
AcDbSymbolTableRecord
100
AcDbLinetypeTableRecord
2
PHANTOM
70
64
3
_____ _ _ _____ _ _ _____ _ _ _____
72
65
73
6
40
0.8
49
0.45
74
0
49
-0.05
74
0
49
0.1
74
0
49
-0.05
74
0
49
0.1
74
0
49
-0.05
74
0
0
LTYPE
5
1F8
100
AcDbSymbolTableRecord
100
AcDbLinetypeTableRecord
2
DOT
70
64
3
. . . . . . . . . . . . . . . . . . . .
72
65
73
2
40
0.2
49
0.1
74
0
49
-0.1
74
0
0
LTYPE
5
1F9
100
AcDbSymbolTableRecord
100
AcDbLinetypeTableRecord
2
DASHED
70
64
3
- - - - - - - - - - - - - - - - - - - -
72
65
73
2
40
0.2
49
0.1
74
0
49
-0.1
74
0
0
ENDTAB
0
TABLE
2
LAYER
5
2
100
AcDbSymbolTable
70
36
0
LAYER
5
10
100
AcDbSymbolTableRecord
100
AcDbLayerTableRecord
2
0
70
0
62
7
6
CONTINUOUS
370
-3
390
F
0
LAYER
5
1FA
100
AcDbSymbolTableRecord
100
AcDbLayerTableRecord
2
DEFAULT_1
70
0
62
7
6
CENTER
370
-3
390
F
0
LAYER
5
1FB
100
AcDbSymbolTableRecord
100
AcDbLayerTableRecord
2
DEFAULT_2
70
0
62
9
6
HIDDEN
370
-3
390
F
0
LAYER
5
1FC
100
AcDbSymbolTableRecord
100
AcDbLayerTableRecord
2
DEFAULT_3
70
0
62
7
6
PHANTOM
370
-3
390
F
0
LAYER
5
1FD
100
AcDbSymbolTableRecord
100
AcDbLayerTableRecord
2
_2D_DELETED_OBJS
70
0
62
7
6
CONTINUOUS
370
-3
390
F
0
LAYER
5
1FE
100
AcDbSymbolTableRecord
100
AcDbLayerTableRecord
2
_BLACK_HOLE
70
0
62
7
6
CONTINUOUS
370
-3
390
F
0
LAYER
5
1FF
100
AcDbSymbolTableRecord
100
AcDbLayerTableRecord
2
ASSI
70
0
62
7
6
CONTINUOUS
370
-3
390
F
0
LAYER
5
200
100
AcDbSymbolTableRecord
100
AcDbLayerTableRecord
2
COORDINATE
70
0
62
7
6
CONTINUOUS
370
-3
390
F
0
LAYER
5
201
100
AcDbSymbolTableRecord
100
AcDbLayerTableRecord
2
COORD_ORIGINE
70
0
62
7
6
CONTINUOUS
370
-3
390
F
0
LAYER
5
202
100
AcDbSymbolTableRecord
100
AcDbLayerTableRecord
2
COSMETICI
70
0
62
7
6
CONTINUOUS
370
-3
390
F
0
LAYER
5
203
100
AcDbSymbolTableRecord
100
AcDbLayerTableRecord
2
CURVE
70
0
62
7
6
CONTINUOUS
370
-3
390
F
0
LAYER
5
204
100
AcDbSymbolTableRecord
100
AcDbLayerTableRecord
2
DRAFT
70
0
62
7
6
CONTINUOUS
370
-3
390
F
0
LAYER
5
205
100
AcDbSymbolTableRecord
100
AcDbLayerTableRecord
2
NOTE
70
0
62
7
6
CONTINUOUS
370
-3
390
F
0
LAYER
5
206
100
AcDbSymbolTableRecord
100
AcDbLayerTableRecord
2
PIANI
70
0
62
7
6
CONTINUOUS
370
-3
390
F
0
LAYER
5
207
100
AcDbSymbolTableRecord
100
AcDbLayerTableRecord
2
PIANI_ORIGINE
70
0
62
7
6
CONTINUOUS
370
-3
390
F
0
LAYER
5
208
100
AcDbSymbolTableRecord
100
AcDbLayerTableRecord
2
PIANI_RIFERIMENTO
70
0
62
7
6
CONTINUOUS
370
-3
390
F
0
LAYER
5
209
100
AcDbSymbolTableRecord
100
AcDbLayerTableRecord
2
PUNTI
70
0
62
7
6
CONTINUOUS
370
-3
390
F
0
LAYER
5
20A
100
AcDbSymbolTableRecord
100
AcDbLayerTableRecord
2
RACCORDO
70
0
62
7
6
CONTINUOUS
370
-3
390
F
0
LAYER
5
20B
100
AcDbSymbolTableRecord
100
AcDbLayerTableRecord
2
SMUSSO
70
0
62
7
6
CONTINUOUS
370
-3
390
F
0
LAYER
5
20C
100
AcDbSymbolTableRecord
100
AcDbLayerTableRecord
2
SNAPLINE
70
0
62
7
6
CONTINUOUS
370
-3
390
F
0
LAYER
5
20D
100
AcDbSymbolTableRecord
100
AcDbLayerTableRecord
2
SUPERFICI
70
0
62
7
6
CONTINUOUS
370
-3
390
F
0
LAYER
5
20E
100
AcDbSymbolTableRecord
100
AcDbLayerTableRecord
2
TRASH
70
0
62
7
6
CONTINUOUS
370
-3
390
F
0
ENDTAB
0
TABLE
2
STYLE
5
3
100
AcDbSymbolTable
70
1
0
STYLE
5
11
100
AcDbSymbolTableRecord
100
AcDbTextStyleTableRecord
2
STANDARD
70
0
40
0.0
41
0.8000000000
50
0.0
71
0
42
0.2
3
txt
4

0
ENDTAB
0
TABLE
2
VIEW
5
6
100
AcDbSymbolTable
70
0
0
ENDTAB
0
TABLE
2
UCS
5
7
100
AcDbSymbolTable
70
0
0
ENDTAB
0
TABLE
2
APPID
5
9
100
AcDbSymbolTable
70
1
0
APPID
5
20F
100
AcDbSymbolTableRecord
100
AcDbRegAppTableRecord
2
ACAD
70
0
0
ENDTAB
0
TABLE
2
BLOCK_RECORD
5
1
100
AcDbSymbolTable
70
0
0
BLOCK_RECORD
5
1F
100
AcDbSymbolTableRecord
100
AcDbBlockTableRecord
2
*MODEL_SPACE
0
BLOCK_RECORD
5
1B
100
AcDbSymbolTableRecord
100
AcDbBlockTableRecord
2
*PAPER_SPACE
0
BLOCK_RECORD
5
210
100
AcDbSymbolTableRecord
100
AcDbBlockTableRecord
2
_FILLED
0
BLOCK_RECORD
5
211
100
AcDbSymbolTableRecord
100
AcDbBlockTableRecord
2
*D0
0
BLOCK_RECORD
5
212
100
AcDbSymbolTableRecord
100
AcDbBlockTableRecord
2
*D1
0
BLOCK_RECORD
5
213
100
AcDbSymbolTableRecord
100
AcDbBlockTableRecord
2
*D2
0
BLOCK_RECORD
5
214
100
AcDbSymbolTableRecord
100
AcDbBlockTableRecord
2
*D3
0
ENDTAB
0
TABLE
2
DIMSTYLE
5
A
100
AcDbSymbolTable
70
1
100
AcDbDimStyleTable
71
0
0
DIMSTYLE
105
215
100
AcDbSymbolTableRecord
100
AcDbDimStyleTableRecord
2
STANDARD
70
0
3

4

40
1.0
41
3.0000000000
42
0.0625
43
0.38
44
0.18
45
0.0
46
0.0
47
0.0100000000
48
0.0100000000
140
3.0000000000
141
0.09
142
0.0
143
25.4
144
1.0000000000
145
0.0
146
1.0000000000
147
0.09
71
1
72
0
73
0
74
0
75
0
76
0
77
1
78
8
170
0
171
2
172
0
173
0
174
0
175
0
176
0
177
0
178
0
270
2
271
2
272
2
273
2
274
2
275
0
280
0
281
0
282
0
283
1
284
8
285
0
286
0
287
3
288
0
340
11
341
210
342
210
343
210
344
210
0
DIMSTYLE
105
216
100
AcDbSymbolTableRecord
100
AcDbDimStyleTableRecord
2
DIMSTYLE_1
70
0
3

4

40
1.0
41
3.0000000000
42
0.0625
43
0.38
44
0.18
45
0.0
46
0.0
47
0.0000000000
48
0.0000000000
140
3.0000000000
141
0.09
142
0.0
143
25.4
144
1.0000000000
145
0.0
146
1.0000000000
147
0.09
71
0
72
0
73
0
74
0
75
0
76
0
77
1
78
8
170
0
171
2
172
0
173
0
174
0
175
0
176
0
177
0
178
0
270
2
271
2
272
2
273
2
274
2
275
0
280
0
281
0
282
0
283
1
284
8
285
0
286
0
287
3
288
0
340
11
341
210
342
210
343
210
344
210
0
DIMSTYLE
105
217
100
AcDbSymbolTableRecord
100
AcDbDimStyleTableRecord
2
DIMSTYLE_2
70
0
3

4

40
1.0
41
3.0000000000
42
0.0625
43
0.38
44
0.18
45
0.0
46
0.0
47
0.0000000000
48
0.0000000000
140
3.0000000000
141
0.09
142
0.0
143
25.4
144
1.0000000000
145
0.0
146
1.0000000000
147
0.09
71
0
72
0
73
0
74
0
75
0
76
0
77
1
78
8
170
0
171
2
172
0
173
0
174
0
175
0
176
0
177
0
178
0
270
2
271
1
272
1
273
2
274
2
275
0
280
0
281
0
282
0
283
1
284
8
285
0
286
0
287
3
288
0
340
11
341
210
342
210
343
210
344
210
0
ENDTAB
0
ENDSEC
0
SECTION
2
BLOCKS
0
BLOCK
5
20
100
AcDbEntity
8
0
100
AcDbBlockBegin
2
*MODEL_SPACE
70
0
10
0.0
20
0.0
30
0.0
3
*MODEL_SPACE
1

0
ENDBLK
5
21
100
AcDbEntity
8
0
100
AcDbBlockEnd
0
BLOCK
5
1C
100
AcDbEntity
8
0
100
AcDbBlockBegin
2
*PAPER_SPACE
70
0
10
0.0
20
0.0
30
0.0
3
*PAPER_SPACE
1

0
ENDBLK
5
1D
100
AcDbEntity
8
0
100
AcDbBlockEnd
0
BLOCK
5
218
100
AcDbEntity
8
0
100
AcDbBlockBegin
62
0
6
CONTINUOUS
2
*D0
70
65
10
0.0000000000
20
0.0000000000
3
*D0
1

0
TEXT
5
219
100
AcDbEntity
8
0
100
AcDbText
62
0
6
CONTINUOUS
10
-17.6077705463
20
33.5247890945
7
STANDARD
40
3.0000000000
1
10
41
0.6785714286
72
0
100
AcDbText
0
LINE
5
21A
100
AcDbEntity
8
0
100
AcDbLine
62
0
6
CONTINUOUS
10
-10.9395724503
20
22.0000861172
11
-10.9395724503
21
34.2747890945
0
LINE
5
21B
100
AcDbEntity
8
0
100
AcDbLine
62
0
6
CONTINUOUS
10
-20.9395724503
20
25.0247890945
11
-20.9395724503
21
34.2747890945
0
LINE
5
21C
100
AcDbEntity
8
0
100
AcDbLine
62
0
6
CONTINUOUS
10
-10.9395724503
20
32.7747890945
11
-15.9395724503
21
32.7747890945
0
LINE
5
21D
100
AcDbEntity
8
0
100
AcDbLine
62
0
6
CONTINUOUS
10
-20.9395724503
20
32.7747890945
11
-15.9395724503
21
32.7747890945
0
INSERT
5
21E
100
AcDbEntity
8
0
100
AcDbBlockReference
62
0
6
CONTINUOUS
2
_FILLED
10
-10.9395724503
20
32.7747890945
41
  3.000000
42
  3.000000
43
  3.000000
0
INSERT
5
21F
100
AcDbEntity
8
0
100
AcDbBlockReference
62
0
6
CONTINUOUS
2
_FILLED
10
-20.9395724503
20
32.7747890945
41
  3.000000
42
  3.000000
43
  3.000000
50
180.000000
0
ENDBLK
5
220
100
AcDbEntity
8
0
6
BYBLOCK
62
0
100
AcDbBlockEnd
0
BLOCK
5
221
100
AcDbEntity
8
0
100
AcDbBlockBegin
62
0
6
CONTINUOUS
2
*D1
70
65
10
0.0000000000
20
0.0000000000
3
*D1
1

0
TEXT
5
222
100
AcDbEntity
8
0
100
AcDbText
62
0
6
CONTINUOUS
10
30.7216742378
20
33.5247890945
7
STANDARD
40
3.0000000000
1
44,5
41
0.7142857143
72
0
100
AcDbText
0
LINE
5
223
100
AcDbEntity
8
0
100
AcDbLine
62
0
6
CONTINUOUS
10
12.7823885235
20
21.1099827289
11
12.7823885235
21
34.2747890945
0
LINE
5
224
100
AcDbEntity
8
0
100
AcDbLine
62
0
6
CONTINUOUS
10
57.2323885235
20
22.6571055491
11
57.2323885235
21
34.2747890945
0
LINE
5
225
100
AcDbEntity
8
0
100
AcDbLine
62
0
6
CONTINUOUS
10
12.7823885235
20
32.7747890945
11
35.0073885235
21
32.7747890945
0
LINE
5
226
100
AcDbEntity
8
0
100
AcDbLine
62
0
6
CONTINUOUS
10
57.2323885235
20
32.7747890945
11
35.0073885235
21
32.7747890945
0
INSERT
5
227
100
AcDbEntity
8
0
100
AcDbBlockReference
62
0
6
CONTINUOUS
2
_FILLED
10
12.7823885235
20
32.7747890945
41
  3.000000
42
  3.000000
43
  3.000000
50
180.000000
0
INSERT
5
228
100
AcDbEntity
8
0
100
AcDbBlockReference
62
0
6
CONTINUOUS
2
_FILLED
10
57.2323885235
20
32.7747890945
41
  3.000000
42
  3.000000
43
  3.000000
50
  0.000000
0
ENDBLK
5
229
100
AcDbEntity
8
0
6
BYBLOCK
62
0
100
AcDbBlockEnd
0
BLOCK
5
22A
100
AcDbEntity
8
0
100
AcDbBlockBegin
62
0
6
CONTINUOUS
2
*D2
70
65
10
0.0000000000
20
0.0000000000
3
*D2
1

0
TEXT
5
22B
100
AcDbEntity
8
0
100
AcDbText
62
0
6
CONTINUOUS
10
64.4823885235
20
-2.0823537626
7
STANDARD
40
3.0000000000
1
49
50
90.0000000000
41
0.7857142857
72
0
100
AcDbText
0
LINE
5
22C
100
AcDbEntity
8
0
100
AcDbLine
62
0
6
CONTINUOUS
10
56.9823885235
20
24.7747890945
11
66.7323885235
21
24.7747890945
0
LINE
5
22D
100
AcDbEntity
8
0
100
AcDbLine
62
0
6
CONTINUOUS
10
56.9823885235
20
-24.2252109055
11
66.7323885235
21
-24.2252109055
0
LINE
5
22E
100
AcDbEntity
8
0
100
AcDbLine
62
0
6
CONTINUOUS
10
65.2323885235
20
24.7747890945
11
65.2323885235
21
0.2747890945
0
LINE
5
22F
100
AcDbEntity
8
0
100
AcDbLine
62
0
6
CONTINUOUS
10
65.2323885235
20
-24.2252109055
11
65.2323885235
21
0.2747890945
0
INSERT
5
230
100
AcDbEntity
8
0
100
AcDbBlockReference
62
0
6
CONTINUOUS
2
_FILLED
10
65.2323885235
20
24.7747890945
41
  3.000000
42
  3.000000
43
  3.000000
50
 90.000000
0
INSERT
5
231
100
AcDbEntity
8
0
100
AcDbBlockReference
62
0
6
CONTINUOUS
2
_FILLED
10
65.2323885235
20
-24.2252109055
41
  3.000000
42
  3.000000
43
  3.000000
50
270.000000
0
ENDBLK
5
232
100
AcDbEntity
8
0
6
BYBLOCK
62
0
100
AcDbBlockEnd
0
BLOCK
5
233
100
AcDbEntity
8
0
100
AcDbBlockBegin
62
0
6
CONTINUOUS
2
*D3
70
65
10
0.0000000000
20
0.0000000000
3
*D3
1

0
TEXT
5
234
100
AcDbEntity
8
0
100
AcDbText
62
0
6
CONTINUOUS
10
-27.6843892768
20
43.5247890945
7
STANDARD
40
3.0000000000
1
24,7
41
0.7321428571
72
0
100
AcDbText
0
LINE
5
235
100
AcDbEntity
8
0
100
AcDbLine
62
0
6
CONTINUOUS
10
-10.9395724503
20
21.6747890945
11
-10.9395724503
21
44.2747890945
0
LINE
5
236
100
AcDbEntity
8
0
100
AcDbLine
62
0
6
CONTINUOUS
10
-35.6434918176
20
-18.6729982122
11
-35.6434918176
21
44.2747890945
0
LINE
5
237
100
AcDbEntity
8
0
100
AcDbLine
62
0
6
CONTINUOUS
10
-10.9395724503
20
42.7747890945
11
-23.2915321339
21
42.7747890945
0
LINE
5
238
100
AcDbEntity
8
0
100
AcDbLine
62
0
6
CONTINUOUS
10
-35.6434918176
20
42.7747890945
11
-23.2915321339
21
42.7747890945
0
INSERT
5
239
100
AcDbEntity
8
0
100
AcDbBlockReference
62
0
6
CONTINUOUS
2
_FILLED
10
-10.9395724503
20
42.7747890945
41
  3.000000
42
  3.000000
43
  3.000000
0
INSERT
5
23A
100
AcDbEntity
8
0
100
AcDbBlockReference
62
0
6
CONTINUOUS
2
_FILLED
10
-35.6434918176
20
42.7747890945
41
  3.000000
42
  3.000000
43
  3.000000
50
180.000000
0
ENDBLK
5
23B
100
AcDbEntity
8
0
6
BYBLOCK
62
0
100
AcDbBlockEnd
0
BLOCK
5
23C
100
AcDbEntity
8
0
100
AcDbBlockBegin
2
_FILLED
70
64
10
0.0000000000
20
0.0000000000
3
_FILLED
1

0
SOLID
5
23D
100
AcDbEntity
8
0
6
BYBLOCK
62
0
100
AcDbTrace
10
0.0000000000
20
0.0000000000
11
-1.0000000000
21
0.3166666667
12
-1.0000000000
22
-0.3166666667
13
-1.0000000000
23
-0.3166666667
0
ENDBLK
5
23E
100
AcDbEntity
8
0
6
BYBLOCK
62
0
100
AcDbBlockEnd
0
ENDSEC
0
SECTION
2
ENTITIES
0
DIMENSION
5
23F
100
AcDbEntity
8
0
100
AcDbDimension
62
0
6
CONTINUOUS
2
*D0
10
-20.9395724503
20
32.7747890945
11
-15.5720562606
21
35.0247890945
70
160
42
10.000000
3
DIMSTYLE_1
100
AcDbAlignedDimension
13
-10.9395724503
23
22.0000861172
14
-20.9395724503
24
25.0247890945
50
180.000000
100
AcDbRotatedDimension
0
DIMENSION
5
240
100
AcDbEntity
8
0
100
AcDbDimension
62
0
6
CONTINUOUS
2
*D1
10
57.2323885235
20
32.7747890945
11
35.0073885235
21
35.0247890945
70
160
42
44.450000
3
DIMSTYLE_2
100
AcDbAlignedDimension
13
12.7823885235
23
21.1099827289
14
57.2323885235
24
22.6571055491
100
AcDbRotatedDimension
0
DIMENSION
5
241
100
AcDbEntity
8
0
100
AcDbDimension
62
0
6
CONTINUOUS
2
*D2
10
65.2323885235
20
-24.2252109055
11
62.9823885235
21
0.2747890945
70
160
42
49.000000
3
DIMSTYLE_1
100
AcDbAlignedDimension
13
56.9823885235
23
24.7747890945
14
56.9823885235
24
-24.2252109055
50
270.000000
100
AcDbRotatedDimension
0
DIMENSION
5
242
100
AcDbEntity
8
0
100
AcDbDimension
62
0
6
CONTINUOUS
2
*D3
10
-35.6434918176
20
42.7747890945
11
-23.2915321339
21
45.0247890945
70
160
42
24.703919
3
DIMSTYLE_1
100
AcDbAlignedDimension
13
-10.9395724503
23
21.6747890945
14
-35.6434918176
24
-18.6729982122
50
180.000000
100
AcDbRotatedDimension
0
LINE
5
243
100
AcDbEntity
8
0
100
AcDbLine
62
9
6
CONTINUOUS
10
-35.6434918176
20
-19.1729982122
11
-35.6434918176
21
-19.4300533853
0
LINE
5
244
100
AcDbEntity
8
0
100
AcDbLine
62
9
6
CONTINUOUS
10
12.7823885235
20
20.6099827289
11
12.8810435106
21
21.2008613698
0
LINE
5
245
100
AcDbEntity
8
0
100
AcDbLine
62
0
6
CONTINUOUS
10
12.8918914773
20
21.3311877123
11
12.7931536801
21
20.7398134047
0
LINE
5
246
100
AcDbEntity
8
0
100
AcDbLine
62
0
6
CONTINUOUS
10
56.4823885235
20
-24.2252109055
11
54.5823885235
21
-24.2252109055
0
LINE
5
247
100
AcDbEntity
8
0
100
AcDbLine
62
0
6
CONTINUOUS
10
37.5823885235
20
-24.2252109055
11
35.6823885235
21
-24.2252109055
0
LINE
5
248
100
AcDbEntity
8
0
100
AcDbLine
62
9
6
CONTINUOUS
10
35.4323885235
20
-23.9752109055
11
37.8323885235
21
-23.9752109055
0
LINE
5
249
100
AcDbEntity
8
0
100
AcDbLine
62
9
6
CONTINUOUS
10
54.3323885235
20
-23.9752109055
11
56.7323885235
21
-23.9752109055
0
LINE
5
24A
100
AcDbEntity
8
0
100
AcDbLine
62
0
6
CONTINUOUS
10
12.7823885235
20
20.6099827289
11
12.7823885235
21
-20.7794336659
0
LINE
5
24B
100
AcDbEntity
8
0
100
AcDbLine
62
9
6
CONTINUOUS
10
35.4323885235
20
-23.5695484728
11
37.8323885235
21
-23.5695484728
0
LINE
5
24C
100
AcDbEntity
8
0
100
AcDbLine
62
9
6
CONTINUOUS
10
54.3323885235
20
-23.5695484728
11
56.7323885235
21
-23.5695484728
0
LINE
5
24D
100
AcDbEntity
8
0
100
AcDbLine
62
0
6
CONTINUOUS
10
41.6795220768
20
-23.5252109055
11
50.4852549702
21
-23.5252109055
0
LINE
5
24E
100
AcDbEntity
8
0
100
AcDbLine
62
9
6
CONTINUOUS
10
35.6823885235
20
-23.3530421218
11
37.5823885235
21
-23.3530421218
0
LINE
5
24F
100
AcDbEntity
8
0
100
AcDbLine
62
9
6
CONTINUOUS
10
54.5823885235
20
-23.3530421218
11
56.4823885235
21
-23.3530421218
0
LINE
5
250
100
AcDbEntity
8
0
100
AcDbLine
62
9
6
CONTINUOUS
10
56.4823885235
20
-22.9200294199
11
54.5823885235
21
-22.9200294199
0
LINE
5
251
100
AcDbEntity
8
0
100
AcDbLine
62
9
6
CONTINUOUS
10
37.5823885235
20
-22.9200294199
11
35.6823885235
21
-22.9200294199
0
LINE
5
252
100
AcDbEntity
8
0
100
AcDbLine
62
9
6
CONTINUOUS
10
35.4323885235
20
-22.7035230690
11
37.8323885235
21
-22.7035230690
0
LINE
5
253
100
AcDbEntity
8
0
100
AcDbLine
62
9
6
CONTINUOUS
10
54.3323885235
20
-22.7035230690
11
56.7323885235
21
-22.7035230690
0
LINE
5
254
100
AcDbEntity
8
0
100
AcDbLine
62
9
6
CONTINUOUS
10
37.5823885235
20
-22.3549149815
11
35.6823885235
21
-22.3549149815
0
LINE
5
255
100
AcDbEntity
8
0
100
AcDbLine
62
9
6
CONTINUOUS
10
54.5823885235
20
-22.3549149815
11
56.4823885235
21
-22.3549149815
0
LINE
5
256
100
AcDbEntity
8
0
100
AcDbLine
62
0
6
CONTINUOUS
10
35.4849821987
20
-22.1601210353
11
56.6797948482
21
-22.1601210353
0
LINE
5
257
100
AcDbEntity
8
0
100
AcDbLine
62
0
6
CONTINUOUS
10
57.1800233287
20
-21.6300208701
11
34.9847537183
21
-21.6300208701
0
LINE
5
258
100
AcDbEntity
8
0
100
AcDbLine
62
0
6
CONTINUOUS
10
13.5822666796
20
-21.5733496515
11
56.0825103674
21
-21.5733496515
0
LINE
5
259
100
AcDbEntity
8
0
100
AcDbLine
62
0
6
CONTINUOUS
10
57.1913691209
20
-21.5502109055
11
56.2725908028
21
-21.5502109055
0
LWPOLYLINE
5
25A
100
AcDbEntity
8
0
100
AcDbPolyline
62
0
6
CONTINUOUS
90
12
70
0
10
35.2689462603
20
22.6960166657
10
35.2482291857
20
22.6862303945
10
35.2281908705
20
22.6756225425
10
35.2088518478
20
22.6642403343
10
35.1902342116
20
22.6521330955
10
35.1723586125
20
22.6393512098
10
35.1552391613
20
22.6259422848
10
35.1388899757
20
22.6119555112
10
35.1233215635
20
22.5974389686
10
35.1085388220
20
22.5824369653
10
35.0945475614
20
22.5669959579
10
35.0813509853
20
22.5511614238
0
LWPOLYLINE
5
25B
100
AcDbEntity
8
0
100
AcDbPolyline
62
0
6
CONTINUOUS
90
3
70
0
10
35.3070105937
20
22.7112507259
10
35.2903121324
20
22.7049308643
10
35.2689462603
20
22.6960166657
0
LINE
5
25C
100
AcDbEntity
8
0
100
AcDbLine
62
9
6
CONTINUOUS
10
55.9838553803
20
-20.7866317551
11
13.6809216667
21
-20.7866317551
0
LINE
5
25D
100
AcDbEntity
8
0
100
AcDbLine
62
0
6
CONTINUOUS
10
57.1913691209
20
-19.6788596540
11
56.8823885235
21
-19.6788596540
0
LWPOLYLINE
5
25E
100
AcDbEntity
8
0
100
AcDbPolyline
62
0
6
CONTINUOUS
90
5
70
0
10
35.3022710751
20
-22.1598496077
10
35.3126430832
20
-22.1640241892
10
35.3232575502
20
-22.1690287616
10
35.3340262169
20
-22.1749266761
10
35.3448576445
20
-22.1817802516
0
LWPOLYLINE
5
25F
100
AcDbEntity
8
0
100
AcDbPolyline
62
0
6
CONTINUOUS
90
3
70
0
10
35.2511241673
20
-22.1380894367
10
35.2961253774
20
-22.1575799254
10
35.3022710751
20
-22.1598496077
0
LINE
5
260
100
AcDbEntity
8
0
100
AcDbLine
62
9
6
CONTINUOUS
10
12.8810435106
20
-19.9927157695
11
12.7823885235
21
-20.7794336659
0
LINE
5
261
100
AcDbEntity
8
0
100
AcDbLine
62
9
6
CONTINUOUS
10
13.6809216667
20
-20.7866317551
11
13.5822666796
21
-21.5733496515
0
LWPOLYLINE
5
262
100
AcDbEntity
8
0
100
AcDbPolyline
62
0
6
CONTINUOUS
90
5
70
0
10
35.3531963261
20
22.7373377929
10
35.3418162996
20
22.7293345352
10
35.3303119764
20
22.7223723936
10
35.3186255484
20
22.7163283975
10
35.3070105937
20
22.7112507259
0
LINE
5
263
100
AcDbEntity
8
0
100
AcDbLine
62
9
6
CONTINUOUS
10
55.9718776765
20
-19.2188491597
11
13.6928993704
21
-19.2188491597
0
LINE
5
264
100
AcDbEntity
8
0
100
AcDbLine
62
0
6
CONTINUOUS
10
35.3448576445
20
-22.1817802516
11
35.3553689534
21
-22.1894273917
0
LINE
5
265
100
AcDbEntity
8
0
100
AcDbLine
62
9
6
CONTINUOUS
10
34.9478699541
20
22.1725868995
11
34.9323885235
21
22.1571055491
0
LINE
5
266
100
AcDbEntity
8
0
100
AcDbLine
62
9
6
CONTINUOUS
10
34.9847537183
20
22.2094707439
11
34.9790341161
21
22.2037556503
0
LWPOLYLINE
5
267
100
AcDbEntity
8
0
100
AcDbPolyline
62
0
6
CONTINUOUS
90
13
70
0
10
35.3553689534
20
-22.1894273917
10
35.3654134389
20
-22.1977908866
10
35.3750131644
20
-22.2069202992
10
35.3840803961
20
-22.2167757339
10
35.3925349702
20
-22.2273079274
10
35.4003362940
20
-22.2385075993
10
35.4074519553
20
-22.2503896266
10
35.4138143633
20
-22.2629232072
10
35.4193512504
20
-22.2760604357
10
35.4240067739
20
-22.2897903099
10
35.4277066868
20
-22.3040568936
10
35.4303794200
20
-22.3187961836
10
35.4319594686
20
-22.3339771293
0
LWPOLYLINE
5
268
100
AcDbEntity
8
0
100
AcDbPolyline
62
0
6
CONTINUOUS
90
4
70
0
10
35.1308318351
20
-22.0550164569
10
35.1680955756
20
-22.0865437498
10
35.2083154229
20
-22.1143284352
10
35.2511241673
20
-22.1380894367
0
LINE
5
269
100
AcDbEntity
8
0
100
AcDbLine
62
9
6
CONTINUOUS
10
34.9847537183
20
-21.6598925549
11
34.9790341162
21
-21.6541774593
0
LINE
5
26A
100
AcDbEntity
8
0
100
AcDbLine
62
9
6
CONTINUOUS
10
34.9478699541
20
-21.6230087103
11
34.9323885235
21
-21.6075273601
0
LINE
5
26B
100
AcDbEntity
8
0
100
AcDbLine
62
0
6
CONTINUOUS
10
35.0968727528
20
-22.0200727411
11
35.1308318351
21
-22.0550164569
0
LINE
5
26C
100
AcDbEntity
8
0
100
AcDbLine
62
0
6
CONTINUOUS
10
35.0681293310
20
22.5338572554
11
35.0662568337
21
22.5313084743
0
LINE
5
26D
100
AcDbEntity
8
0
100
AcDbLine
62
0
6
CONTINUOUS
10
35.0686719506
20
22.5345972215
11
35.0702374123
21
22.5367211330
0
LINE
5
26E
100
AcDbEntity
8
0
100
AcDbLine
62
0
6
CONTINUOUS
10
35.0518877497
20
22.5119586189
11
35.0662568337
21
22.5313084743
0
LINE
5
26F
100
AcDbEntity
8
0
100
AcDbLine
62
0
6
CONTINUOUS
10
35.0813509853
20
22.5511614238
11
35.0702365599
21
22.5367217690
0
LWPOLYLINE
5
270
100
AcDbEntity
8
0
100
AcDbPolyline
62
0
6
CONTINUOUS
90
19
70
0
10
23.5823885297
20
-13.2812755907
10
23.4769039177
20
-13.2766488506
10
23.3760614382
20
-13.2634770704
10
23.2768006295
20
-13.2418207900
10
23.1797986798
20
-13.2118862241
10
23.0856937951
20
-13.1738886854
10
22.9951506984
20
-13.1280672773
10
22.9088043291
20
-13.0747802931
10
22.8272524922
20
-13.0144121681
10
22.7511043072
20
-12.9473558940
10
22.6809108503
20
-12.8740982859
10
22.6171566723
20
-12.7951918483
10
22.5603211691
20
-12.7111915611
10
22.5108218507
20
-12.6226822656
10
22.4689767831
20
-12.5303103932
10
22.4350982185
20
-12.4347353159
10
22.4094664581
20
-12.3366262988
10
22.3922320597
20
-12.2366844257
10
22.3897346135
20
-12.2159225177
0
LWPOLYLINE
5
271
100
AcDbEntity
8
0
100
AcDbPolyline
62
0
6
CONTINUOUS
90
17
70
0
10
54.2029677874
20
-22.1601210353
10
54.2134377271
20
-22.1643736253
10
54.2244754843
20
-22.1696537687
10
54.2357230448
20
-22.1759372670
10
54.2468533108
20
-22.1831530419
10
54.2577502902
20
-22.1913110876
10
54.2683409175
20
-22.2004481025
10
54.2784062531
20
-22.2104546379
10
54.2878232049
20
-22.2212594984
10
54.2965576003
20
-22.2328792972
10
54.3045419548
20
-22.2453029417
10
54.3116872292
20
-22.2584853375
10
54.3179103418
20
-22.2723808073
10
54.3231401736
20
-22.2869715555
10
54.3272851965
20
-22.3021907684
10
54.3302571842
20
-22.3179608032
10
54.3319750872
20
-22.3342366323
0
LINE
5
272
100
AcDbEntity
8
0
100
AcDbLine
62
0
6
CONTINUOUS
10
35.0731609632
20
-21.9910473697
11
35.0968727528
21
-22.0200727411
0
LINE
5
273
100
AcDbEntity
8
0
100
AcDbLine
62
0
6
CONTINUOUS
10
35.0526824549
20
-21.9634554866
11
35.0731608649
21
-21.9910474404
0
LINE
5
274
100
AcDbEntity
8
0
100
AcDbLine
62
0
6
CONTINUOUS
10
24.5754101449
20
-12.0244140701
11
24.5814788506
21
-12.1655354167
0
LINE
5
275
100
AcDbEntity
8
0
100
AcDbLine
62
9
6
CONTINUOUS
10
22.5893668367
20
-12.0244155902
11
22.5884627548
21
-12.0664831959
0
LINE
5
276
100
AcDbEntity
8
0
100
AcDbLine
62
0
6
CONTINUOUS
10
22.5833386558
20
-12.1652536359
11
22.5823885235
21
-12.2078616421
0
LINE
5
277
100
AcDbEntity
8
0
100
AcDbLine
62
0
6
CONTINUOUS
10
22.5893669021
20
-12.0244140700
11
22.5832981963
21
-12.1655354167
0
LWPOLYLINE
5
278
100
AcDbEntity
8
0
100
AcDbPolyline
62
0
6
CONTINUOUS
90
15
70
0
10
35.0297267474
20
22.4792406322
10
35.0167654047
20
22.4571384825
10
35.0052542137
20
22.4350284833
10
34.9952783601
20
22.4133611855
10
34.9867170055
20
22.3922428880
10
34.9794485635
20
22.3717645062
10
34.9734530887
20
22.3523555831
10
34.9685293396
20
22.3339229615
10
34.9645668395
20
22.3166406413
10
34.9615572148
20
22.3012965514
10
34.9593344567
20
22.2881147708
10
34.9576702872
20
22.2767627387
10
34.9564315685
20
22.2672131926
10
34.9555381789
20
22.2596349918
10
34.9539727513
20
22.2452402965
0
LWPOLYLINE
5
279
100
AcDbEntity
8
0
100
AcDbPolyline
62
0
6
CONTINUOUS
90
3
70
0
10
35.0518877497
20
22.5119586189
10
35.0441252005
20
22.5011193615
10
35.0297267474
20
22.4792406322
0
LINE
5
27A
100
AcDbEntity
8
0
100
AcDbLine
62
0
6
CONTINUOUS
10
24.5823885235
20
-12.2078616421
11
24.5814383911
21
-12.1652536359
0
LINE
5
27B
100
AcDbEntity
8
0
100
AcDbLine
62
9
6
CONTINUOUS
10
24.5763142922
20
-12.0664831959
11
24.5754103016
21
-12.0244177147
0
LINE
5
27C
100
AcDbEntity
8
0
100
AcDbLine
62
0
6
CONTINUOUS
10
24.7823885235
20
-12.0837854993
11
24.7779914041
21
-12.1862436857
0
LWPOLYLINE
5
27D
100
AcDbEntity
8
0
100
AcDbPolyline
62
0
6
CONTINUOUS
90
20
70
0
10
24.7779761679
20
-12.1861651376
10
24.7727780901
20
-12.2348543960
10
24.7557508145
20
-12.3346188920
10
24.7303394392
20
-12.4325645205
10
24.6967237456
20
-12.5279980946
10
24.6551853146
20
-12.6202528465
10
24.6060118627
20
-12.7086641779
10
24.5495308794
20
-12.7925929058
10
24.4861767162
20
-12.8714703518
10
24.4164087927
20
-12.9447308103
10
24.3407102334
20
-13.0118175096
10
24.2596593547
20
-13.0722736740
10
24.1738485598
20
-13.1257012559
10
24.0838562490
20
-13.1717089943
10
23.9903170964
20
-13.2099733662
10
23.8938845805
20
-13.2402553915
10
23.7951755495
20
-13.2623250243
10
23.6948798003
20
-13.2760000449
10
23.5938148884
20
-13.2812262993
10
23.5823885318
20
-13.2812840691
0
LWPOLYLINE
5
27E
100
AcDbEntity
8
0
100
AcDbPolyline
62
0
6
CONTINUOUS
90
7
70
0
10
34.9950212404
20
-21.8631873173
10
35.0037384917
20
-21.8823266517
10
35.0134602413
20
-21.9014805087
10
35.0242691998
20
-21.9206686847
10
35.0361221048
20
-21.9396882005
10
35.0490095550
20
-21.9584312463
10
35.0526824549
20
-21.9634554866
0
LWPOLYLINE
5
27F
100
AcDbEntity
8
0
100
AcDbPolyline
62
0
6
CONTINUOUS
90
9
70
0
10
35.4233210789
20
22.8371240733
10
35.4176949158
20
22.8214248456
10
35.4109305459
20
22.8065482478
10
35.4031481097
20
22.7925605370
10
35.3944712527
20
22.7795173142
10
35.3850169550
20
22.7674510322
10
35.3749056170
20
22.7563892719
10
35.3642674568
20
22.7463573348
10
35.3531963261
20
22.7373377929
0
LINE
5
280
100
AcDbEntity
8
0
100
AcDbLine
62
0
6
CONTINUOUS
10
34.9873021864
20
-21.8442008687
11
34.9950212404
21
-21.8631873173
0
LINE
5
281
100
AcDbEntity
8
0
100
AcDbLine
62
0
6
CONTINUOUS
10
34.9806663671
20
-21.8258213946
11
34.9873021864
21
-21.8442008687
0
LINE
5
282
100
AcDbEntity
8
0
100
AcDbLine
62
0
6
CONTINUOUS
10
34.9540015042
20
-21.6959206078
11
34.9550341104
21
-21.7055214546
0
LINE
5
283
100
AcDbEntity
8
0
100
AcDbLine
62
0
6
CONTINUOUS
10
34.9734079261
20
22.0997890945
11
34.9847537183
21
22.1795990591
0
LWPOLYLINE
5
284
100
AcDbEntity
8
0
100
AcDbPolyline
62
0
6
CONTINUOUS
90
7
70
0
10
34.9589577175
20
-21.7360953572
10
34.9608311813
20
-21.7476199188
10
34.9632764887
20
-21.7607720746
10
34.9663562398
20
-21.7752037302
10
34.9702188406
20
-21.7909867438
10
34.9749985915
20
-21.8080530549
10
34.9806663671
20
-21.8258213946
0
LWPOLYLINE
5
285
100
AcDbEntity
8
0
100
AcDbPolyline
62
0
6
CONTINUOUS
90
5
70
0
10
34.9552824453
20
-21.7052380852
10
34.9548162700
20
-21.7020713466
10
34.9542008540
20
-21.6975241479
10
34.9539574635
20
-21.6955326588
10
34.9540015042
20
-21.6959206078
0
LINE
5
286
100
AcDbEntity
8
0
100
AcDbLine
62
0
6
CONTINUOUS
10
34.9847537183
20
-21.6300208701
11
34.9766973324
21
-21.5733496515
0
LINE
5
287
100
AcDbEntity
8
0
100
AcDbLine
62
0
6
CONTINUOUS
10
34.9565045640
20
-21.7182282394
11
34.9589577175
21
-21.7360953572
0
LWPOLYLINE
5
288
100
AcDbEntity
8
0
100
AcDbPolyline
62
0
6
CONTINUOUS
90
3
70
0
10
34.9550341104
20
-21.7055214546
10
34.9556801614
20
-21.7113019238
10
34.9565045640
20
-21.7182282394
0
LINE
5
289
100
AcDbEntity
8
0
100
AcDbLine
62
0
6
CONTINUOUS
10
35.4319594686
20
-22.3339771293
11
35.4323882445
21
-22.3470647895
0
LINE
5
28A
100
AcDbEntity
8
0
100
AcDbLine
62
0
6
CONTINUOUS
10
34.9323885235
20
22.1571055491
11
34.9323885235
21
22.0029945123
0
LINE
5
28B
100
AcDbEntity
8
0
100
AcDbLine
62
0
6
CONTINUOUS
10
34.9323885235
20
-21.5733496515
11
34.9323885235
21
-21.6075273601
0
LINE
5
28C
100
AcDbEntity
8
0
100
AcDbLine
62
0
6
CONTINUOUS
10
34.9734079261
20
22.0029945123
11
34.9734079261
21
22.0997890945
0
LINE
5
28D
100
AcDbEntity
8
0
100
AcDbLine
62
0
6
CONTINUOUS
10
34.9847537183
20
22.2094707439
11
34.9847537183
21
22.1795990591
0
LINE
5
28E
100
AcDbEntity
8
0
100
AcDbLine
62
0
6
CONTINUOUS
10
34.9847537183
20
-21.6598925549
11
34.9847537183
21
-21.6300208701
0
LWPOLYLINE
5
28F
100
AcDbEntity
8
0
100
AcDbPolyline
62
0
6
CONTINUOUS
90
5
70
0
10
35.4323882449
20
22.8966430368
10
35.4322121871
20
22.8882528952
10
35.4306906555
20
22.8706459557
10
35.4276912255
20
22.8535649672
10
35.4233210789
20
22.8371240733
0
LINE
5
290
100
AcDbEntity
8
0
100
AcDbLine
62
0
6
CONTINUOUS
10
57.1486042118
20
0.2747890945
11
56.8823885235
21
0.2747890945
0
LINE
5
291
100
AcDbEntity
8
0
100
AcDbLine
62
0
6
CONTINUOUS
10
35.4323885235
20
-22.3470602022
11
35.4323885235
21
-23.9752109055
0
LINE
5
292
100
AcDbEntity
8
0
100
AcDbLine
62
0
6
CONTINUOUS
10
35.4323885235
20
22.8966383913
11
35.4323885235
21
24.5247890945
0
LINE
5
293
100
AcDbEntity
8
0
100
AcDbLine
62
9
6
CONTINUOUS
10
35.6823885235
20
22.7096992244
11
35.6823885235
21
24.7747890945
0
LINE
5
294
100
AcDbEntity
8
0
100
AcDbLine
62
9
6
CONTINUOUS
10
35.6823885251
20
-22.1601210353
11
35.6823885235
21
-24.2252109055
0
LINE
5
295
100
AcDbEntity
8
0
100
AcDbLine
62
0
6
CONTINUOUS
10
37.8328175783
20
22.8835553183
11
37.8323888024
21
22.8966429786
0
LINE
5
296
100
AcDbEntity
8
0
100
AcDbLine
62
9
6
CONTINUOUS
10
37.5823885235
20
24.7747890945
11
37.5823885219
21
22.7096992244
0
LINE
5
297
100
AcDbEntity
8
0
100
AcDbLine
62
9
6
CONTINUOUS
10
37.5823885234
20
-22.1601210353
11
37.5823885235
21
-24.2252109055
0
LINE
5
298
100
AcDbEntity
8
0
100
AcDbLine
62
0
6
CONTINUOUS
10
37.8323885235
20
24.5247890945
11
37.8323885235
21
22.8966383913
0
LINE
5
299
100
AcDbEntity
8
0
100
AcDbLine
62
0
6
CONTINUOUS
10
37.8323885235
20
-22.3470602022
11
37.8323885235
21
-23.9752109055
0
LWPOLYLINE
5
29A
100
AcDbEntity
8
0
100
AcDbPolyline
62
0
6
CONTINUOUS
90
5
70
0
10
37.8323888021
20
-22.3470648477
10
37.8325648598
20
-22.3386747062
10
37.8340863915
20
-22.3210677667
10
37.8370858215
20
-22.3039867781
10
37.8414559680
20
-22.2875458842
0
LINE
5
29B
100
AcDbEntity
8
0
100
AcDbLine
62
0
6
CONTINUOUS
10
41.6795169917
20
-23.5252109055
11
41.6795169917
21
-22.1601210353
0
LINE
5
29C
100
AcDbEntity
8
0
100
AcDbLine
62
0
6
CONTINUOUS
10
41.6795169917
20
22.7096992244
11
41.6795169917
21
24.0747890945
0
LINE
5
29D
100
AcDbEntity
8
0
100
AcDbLine
62
9
6
CONTINUOUS
10
42.1795169917
20
-23.5252109055
11
42.1795169917
21
-22.1601210353
0
LINE
5
29E
100
AcDbEntity
8
0
100
AcDbLine
62
9
6
CONTINUOUS
10
42.1795169917
20
22.7096992244
11
42.1795169917
21
24.0747890945
0
LWPOLYLINE
5
29F
100
AcDbEntity
8
0
100
AcDbPolyline
62
0
6
CONTINUOUS
90
14
70
0
10
37.8414559680
20
-22.2875458842
10
37.8470821311
20
-22.2718466566
10
37.8538465011
20
-22.2569700588
10
37.8616289373
20
-22.2429823479
10
37.8703057942
20
-22.2299391252
10
37.8797600919
20
-22.2178728431
10
37.8898714300
20
-22.2068110828
10
37.9005095902
20
-22.1967791457
10
37.9115807208
20
-22.1877596038
10
37.9229607474
20
-22.1797563461
10
37.9344650706
20
-22.1727942045
10
37.9461514986
20
-22.1667502084
10
37.9577664533
20
-22.1616725369
10
37.9620068112
20
-22.1601210353
0
LWPOLYLINE
5
2A0
100
AcDbEntity
8
0
100
AcDbPolyline
62
0
6
CONTINUOUS
90
14
70
0
10
54.3233210789
20
22.8371240733
10
54.3176949158
20
22.8214248456
10
54.3109305459
20
22.8065482478
10
54.3031481097
20
22.7925605370
10
54.2944712527
20
22.7795173142
10
54.2850169550
20
22.7674510322
10
54.2749056170
20
22.7563892719
10
54.2642674568
20
22.7463573348
10
54.2531963261
20
22.7373377929
10
54.2418162996
20
22.7293345352
10
54.2303119764
20
22.7223723936
10
54.2186255484
20
22.7163283975
10
54.2070105937
20
22.7112507259
10
54.2027702358
20
22.7096992244
0
LINE
5
2A1
100
AcDbEntity
8
0
100
AcDbLine
62
9
6
CONTINUOUS
10
49.9852600553
20
24.0747890945
11
49.9852600553
21
22.7096992244
0
LINE
5
2A2
100
AcDbEntity
8
0
100
AcDbLine
62
9
6
CONTINUOUS
10
49.9852600553
20
-22.1601210353
11
49.9852600553
21
-23.5252109055
0
LINE
5
2A3
100
AcDbEntity
8
0
100
AcDbLine
62
0
6
CONTINUOUS
10
50.4852600553
20
24.0747890945
11
50.4852600553
21
22.7096992244
0
LINE
5
2A4
100
AcDbEntity
8
0
100
AcDbLine
62
0
6
CONTINUOUS
10
50.4852600553
20
-22.1601210353
11
50.4852600553
21
-23.5252109055
0
LINE
5
2A5
100
AcDbEntity
8
0
100
AcDbLine
62
0
6
CONTINUOUS
10
54.3319750872
20
-22.3342366323
11
54.3323868991
21
-22.3470602592
0
LINE
5
2A6
100
AcDbEntity
8
0
100
AcDbLine
62
0
6
CONTINUOUS
10
54.3323885235
20
-22.3470602022
11
54.3323885235
21
-23.9752109055
0
LINE
5
2A7
100
AcDbEntity
8
0
100
AcDbLine
62
0
6
CONTINUOUS
10
54.3323885235
20
22.8966383913
11
54.3323885235
21
24.5247890945
0
LINE
5
2A8
100
AcDbEntity
8
0
100
AcDbLine
62
9
6
CONTINUOUS
10
54.5823885235
20
-22.1601210353
11
54.5823885235
21
-24.2252109055
0
LINE
5
2A9
100
AcDbEntity
8
0
100
AcDbLine
62
9
6
CONTINUOUS
10
54.5823885235
20
22.7096992244
11
54.5823885235
21
24.7747890945
0
LWPOLYLINE
5
2AA
100
AcDbEntity
8
0
100
AcDbPolyline
62
0
6
CONTINUOUS
90
5
70
0
10
54.3323882449
20
22.8966430368
10
54.3322121871
20
22.8882528952
10
54.3306906555
20
22.8706459557
10
54.3276912255
20
22.8535649672
10
54.3233210789
20
22.8371240733
0
LINE
5
2AB
100
AcDbEntity
8
0
100
AcDbLine
62
0
6
CONTINUOUS
10
57.1913691209
20
20.2284378431
11
56.8823885235
21
20.2284378431
0
LINE
5
2AC
100
AcDbEntity
8
0
100
AcDbLine
62
9
6
CONTINUOUS
10
56.0825103674
20
-21.5733496515
11
55.9838553803
21
-20.7866317551
0
LINE
5
2AD
100
AcDbEntity
8
0
100
AcDbLine
62
9
6
CONTINUOUS
10
56.8823885235
20
-20.7794336659
11
56.7837335364
21
-19.9927157695
0
LINE
5
2AE
100
AcDbEntity
8
0
100
AcDbLine
62
0
6
CONTINUOUS
10
57.1913691209
20
-19.6788596540
11
57.1486042118
21
0.2747890945
0
LINE
5
2AF
100
AcDbEntity
8
0
100
AcDbLine
62
9
6
CONTINUOUS
10
56.4823885219
20
22.7096992244
11
56.4823885235
21
24.7747890945
0
LINE
5
2B0
100
AcDbEntity
8
0
100
AcDbLine
62
9
6
CONTINUOUS
10
56.4823885232
20
-22.1601210353
11
56.4823885235
21
-24.2252109055
0
LINE
5
2B1
100
AcDbEntity
8
0
100
AcDbLine
62
0
6
CONTINUOUS
10
56.7323885235
20
-22.3470602022
11
56.7323885235
21
-23.9752109055
0
LINE
5
2B2
100
AcDbEntity
8
0
100
AcDbLine
62
0
6
CONTINUOUS
10
56.7323885235
20
22.8966383913
11
56.7323885235
21
24.5247890945
0
LINE
5
2B3
100
AcDbEntity
8
0
100
AcDbLine
62
0
6
CONTINUOUS
10
56.8823885235
20
20.6099827289
11
56.8823885235
21
-20.7794336659
0
LINE
5
2B4
100
AcDbEntity
8
0
100
AcDbLine
62
0
6
CONTINUOUS
10
57.1800233287
20
22.2094707439
11
57.1800233287
21
22.1795990591
0
LINE
5
2B5
100
AcDbEntity
8
0
100
AcDbLine
62
0
6
CONTINUOUS
10
57.1800233287
20
-21.6598925549
11
57.1800233287
21
-21.6300208701
0
LINE
5
2B6
100
AcDbEntity
8
0
100
AcDbLine
62
0
6
CONTINUOUS
10
57.1913691209
20
-21.5502109055
11
57.1913691209
21
-19.6788596540
0
LINE
5
2B7
100
AcDbEntity
8
0
100
AcDbLine
62
0
6
CONTINUOUS
10
57.1913691209
20
20.2284378431
11
57.1913691209
21
22.0997890945
0
LINE
5
2B8
100
AcDbEntity
8
0
100
AcDbLine
62
0
6
CONTINUOUS
10
57.2323885235
20
-21.6075273601
11
57.2323885235
21
22.1571055491
0
LINE
5
2B9
100
AcDbEntity
8
0
100
AcDbLine
62
0
6
CONTINUOUS
10
57.1486042118
20
0.2747890945
11
57.1913691209
21
20.2284378431
0
LWPOLYLINE
5
2BA
100
AcDbEntity
8
0
100
AcDbPolyline
62
0
6
CONTINUOUS
90
32
70
0
10
13.6822038064
20
22.0029565035
10
13.6486779645
20
22.0022539984
10
13.6046449944
20
21.9991893231
10
13.5613445648
20
21.9937774791
10
13.5188936676
20
21.9861157064
10
13.4774013953
20
21.9763059219
10
13.4369670691
20
21.9644538005
10
13.3976787793
20
21.9506673814
10
13.3596170658
20
21.9350573934
10
13.3228534032
20
21.9177362543
10
13.2874487062
20
21.8988164973
10
13.2534559711
20
21.8784111527
10
13.2209214520
20
21.8566340532
10
13.1898832820
20
21.8335986011
10
13.1603710444
20
21.8094166791
10
13.1324062620
20
21.7841980837
10
13.1060035667
20
21.7580507136
10
13.0811705319
20
21.7310796888
10
13.0579090518
20
21.7033881014
10
13.0362152921
20
21.6750765174
10
13.0160682901
20
21.6462252503
10
12.9974645458
20
21.6169420846
10
12.9804113778
20
21.5873665334
10
12.9648640695
20
21.5575599182
10
12.9508020269
20
21.5276302791
10
12.9382379119
20
21.4977870629
10
12.9270888383
20
21.4680406234
10
12.9173199009
20
21.4385216926
10
12.9089505360
20
21.4096059687
10
12.9017433857
20
21.3807695673
10
12.8957576400
20
21.3525732777
10
12.8918938979
20
21.3311873620
0
LINE
5
2BB
100
AcDbEntity
8
0
100
AcDbLine
62
9
6
CONTINUOUS
10
13.6928993704
20
20.7853962316
11
55.9718776765
21
20.7853962316
0
LINE
5
2BC
100
AcDbEntity
8
0
100
AcDbLine
62
0
6
CONTINUOUS
10
13.6821850621
20
22.0029945123
11
55.9825919849
21
22.0029945123
0
LINE
5
2BD
100
AcDbEntity
8
0
100
AcDbLine
62
0
6
CONTINUOUS
10
57.1913691209
20
22.0997890945
11
34.9734079261
21
22.0997890945
0
LINE
5
2BE
100
AcDbEntity
8
0
100
AcDbLine
62
0
6
CONTINUOUS
10
57.1800233287
20
22.1795990591
11
34.9847537183
21
22.1795990591
0
LWPOLYLINE
5
2BF
100
AcDbEntity
8
0
100
AcDbPolyline
62
0
6
CONTINUOUS
90
18
70
0
10
37.9618315931
20
22.7096992244
10
37.9521339637
20
22.7136023783
10
37.9415194967
20
22.7186069507
10
37.9307508300
20
22.7245048652
10
37.9199194025
20
22.7313584406
10
37.9094080935
20
22.7390055808
10
37.8993636080
20
22.7473690756
10
37.8897638826
20
22.7564984883
10
37.8806966508
20
22.7663539230
10
37.8722420767
20
22.7768861165
10
37.8644407529
20
22.7880857884
10
37.8573250917
20
22.7999678157
10
37.8509626836
20
22.8125013962
10
37.8454257965
20
22.8256386248
10
37.8407702731
20
22.8393684990
10
37.8370703601
20
22.8536350826
10
37.8343976269
20
22.8683743727
10
37.8328175783
20
22.8835553183
0
LINE
5
2C0
100
AcDbEntity
8
0
100
AcDbLine
62
0
6
CONTINUOUS
10
57.2107755428
20
22.2454987969
11
57.2097429366
21
22.2550996437
0
LINE
5
2C1
100
AcDbEntity
8
0
100
AcDbLine
62
0
6
CONTINUOUS
10
56.7328175783
20
22.8835553183
11
56.7323888024
21
22.8966429786
0
LWPOLYLINE
5
2C2
100
AcDbEntity
8
0
100
AcDbPolyline
62
0
6
CONTINUOUS
90
5
70
0
10
56.7323901512
20
-22.3470602682
10
56.7329949336
20
-22.3315236652
10
56.7350253315
20
-22.3147118580
10
56.7383954300
20
-22.2984349924
10
56.7430041385
20
-22.2827950604
0
LINE
5
2C3
100
AcDbEntity
8
0
100
AcDbLine
62
0
6
CONTINUOUS
10
56.6797948482
20
22.7096992244
11
35.4849821987
21
22.7096992244
0
LINE
5
2C4
100
AcDbEntity
8
0
100
AcDbLine
62
9
6
CONTINUOUS
10
35.6823885235
20
22.9044931705
11
37.5823885235
21
22.9044931705
0
LINE
5
2C5
100
AcDbEntity
8
0
100
AcDbLine
62
9
6
CONTINUOUS
10
54.5823885235
20
22.9044931705
11
56.4823885235
21
22.9044931705
0
LINE
5
2C6
100
AcDbEntity
8
0
100
AcDbLine
62
9
6
CONTINUOUS
10
35.4323885235
20
23.2531012580
11
37.8323885235
21
23.2531012580
0
LINE
5
2C7
100
AcDbEntity
8
0
100
AcDbLine
62
9
6
CONTINUOUS
10
54.3323885235
20
23.2531012580
11
56.7323885235
21
23.2531012580
0
LINE
5
2C8
100
AcDbEntity
8
0
100
AcDbLine
62
9
6
CONTINUOUS
10
56.4823885235
20
23.4696076090
11
54.5823885235
21
23.4696076090
0
LINE
5
2C9
100
AcDbEntity
8
0
100
AcDbLine
62
9
6
CONTINUOUS
10
37.5823885235
20
23.4696076090
11
35.6823885235
21
23.4696076090
0
LINE
5
2CA
100
AcDbEntity
8
0
100
AcDbLine
62
9
6
CONTINUOUS
10
35.6823885235
20
23.9026203109
11
37.5823885235
21
23.9026203109
0
LINE
5
2CB
100
AcDbEntity
8
0
100
AcDbLine
62
9
6
CONTINUOUS
10
54.5823885235
20
23.9026203109
11
56.4823885235
21
23.9026203109
0
LINE
5
2CC
100
AcDbEntity
8
0
100
AcDbLine
62
0
6
CONTINUOUS
10
41.6795220768
20
24.0747890945
11
50.4852549702
21
24.0747890945
0
LINE
5
2CD
100
AcDbEntity
8
0
100
AcDbLine
62
9
6
CONTINUOUS
10
35.4323885235
20
24.1191266618
11
37.8323885235
21
24.1191266618
0
LINE
5
2CE
100
AcDbEntity
8
0
100
AcDbLine
62
9
6
CONTINUOUS
10
54.3323885235
20
24.1191266618
11
56.7323885235
21
24.1191266618
0
LINE
5
2CF
100
AcDbEntity
8
0
100
AcDbLine
62
9
6
CONTINUOUS
10
35.4323885235
20
24.5247890945
11
37.8323885235
21
24.5247890945
0
LINE
5
2D0
100
AcDbEntity
8
0
100
AcDbLine
62
9
6
CONTINUOUS
10
54.3323885235
20
24.5247890945
11
56.7323885235
21
24.5247890945
0
LINE
5
2D1
100
AcDbEntity
8
0
100
AcDbLine
62
0
6
CONTINUOUS
10
35.6823885235
20
24.7747890945
11
37.5823885235
21
24.7747890945
0
LINE
5
2D2
100
AcDbEntity
8
0
100
AcDbLine
62
0
6
CONTINUOUS
10
54.5823885235
20
24.7747890945
11
56.4823885235
21
24.7747890945
0
LWPOLYLINE
5
2D3
100
AcDbEntity
8
0
100
AcDbPolyline
62
0
6
CONTINUOUS
90
3
70
0
10
57.2097429366
20
22.2550996437
10
57.2090968856
20
22.2608801129
10
57.2082724829
20
22.2678064284
0
LINE
5
2D4
100
AcDbEntity
8
0
100
AcDbLine
62
0
6
CONTINUOUS
10
57.1800233287
20
-21.6300208701
11
57.1913691209
21
-21.5502109055
0
LWPOLYLINE
5
2D5
100
AcDbEntity
8
0
100
AcDbPolyline
62
0
6
CONTINUOUS
90
38
70
0
10
56.7728914933
20
21.3311374924
10
56.7702203283
20
21.3462566226
10
56.7654788050
20
21.3698288165
10
56.7598661682
20
21.3939977533
10
56.7534036042
20
21.4184018063
10
56.7459307833
20
21.4433956869
10
56.7374226726
20
21.4687928045
10
56.7278034543
20
21.4945863455
10
56.7170240648
20
21.5206894703
10
56.7051500209
20
21.5467835104
10
56.6921593135
20
21.5728056372
10
56.6780198845
20
21.5987152973
10
56.6628395874
20
21.6242429937
10
56.6466836963
20
21.6492504126
10
56.6295008140
20
21.6737900841
10
56.6112438170
20
21.6978840866
10
56.5918998046
20
21.7214960001
10
56.5714851309
20
21.7445544566
10
56.5499908774
20
21.7670199055
10
56.5274246395
20
21.7888345758
10
56.5037966761
20
21.8099401830
10
56.4791030565
20
21.8302913681
10
56.4533587328
20
21.8498263678
10
56.4265825496
20
21.8684825158
10
56.3987784336
20
21.8862080670
10
56.3699713920
20
21.9029373691
10
56.3401896787
20
21.9186050466
10
56.3094452622
20
21.9331548101
10
56.2777742332
20
21.9465185396
10
56.2452166032
20
21.9586287486
10
56.2117945892
20
21.9694252300
10
56.1775568334
20
21.9788389076
10
56.1425572847
20
21.9868017096
10
56.1068318918
20
21.9932506379
10
56.0704443070
20
21.9981176748
10
56.0334636783
20
22.0013368188
10
55.9959414367
20
22.0028448704
10
55.9825732989
20
22.0029565032
0
LINE
5
2D6
100
AcDbEntity
8
0
100
AcDbLine
62
9
6
CONTINUOUS
10
56.7837335364
20
21.2008613698
11
56.8823885235
21
20.6099827289
0
LINE
5
2D7
100
AcDbEntity
8
0
100
AcDbLine
62
0
6
CONTINUOUS
10
56.7728939129
20
21.3311378423
11
56.8716233669
21
20.7398134046
0
LWPOLYLINE
5
2D8
100
AcDbEntity
8
0
100
AcDbPolyline
62
0
6
CONTINUOUS
90
7
70
0
10
57.2058193295
20
22.2856735462
10
57.2039458657
20
22.2971981079
10
57.2015005583
20
22.3103502636
10
57.1984208072
20
22.3247819193
10
57.1945582063
20
22.3405649328
10
57.1897784555
20
22.3576312439
10
57.1841106799
20
22.3753995837
0
LWPOLYLINE
5
2D9
100
AcDbEntity
8
0
100
AcDbPolyline
62
0
6
CONTINUOUS
90
5
70
0
10
57.2094946016
20
22.2548162742
10
57.2099607770
20
22.2516495357
10
57.2105761930
20
22.2471023370
10
57.2108195835
20
22.2451108479
10
57.2107755428
20
22.2454987969
0
LINE
5
2DA
100
AcDbEntity
8
0
100
AcDbLine
62
0
6
CONTINUOUS
10
57.1913691209
20
22.0997890945
11
57.1800233287
21
22.1795990591
0
LINE
5
2DB
100
AcDbEntity
8
0
100
AcDbLine
62
0
6
CONTINUOUS
10
57.2082724829
20
22.2678064284
11
57.2058193295
21
22.2856735462
0
LWPOLYLINE
5
2DC
100
AcDbEntity
8
0
100
AcDbPolyline
62
0
6
CONTINUOUS
90
10
70
0
10
57.1846549002
20
-21.8242094954
10
57.1907381720
20
-21.8048036311
10
57.1957381757
20
-21.7863881309
10
57.1997738418
20
-21.7691042649
10
57.2028705602
20
-21.7536252316
10
57.2052045665
20
-21.7400445937
10
57.2069743893
20
-21.7281487638
10
57.2082808570
20
-21.7181643942
10
57.2092030714
20
-21.7103676917
10
57.2108076005
20
-21.6956352650
0
LWPOLYLINE
5
2DD
100
AcDbEntity
8
0
100
AcDbPolyline
62
0
6
CONTINUOUS
90
9
70
0
10
56.7430041385
20
-22.2827950604
10
56.7487465249
20
-22.2678741628
10
56.7555147334
20
-22.2537410553
10
56.7631964268
20
-22.2404560806
10
56.7716824830
20
-22.2280595063
10
56.7808637813
20
-22.2165818826
10
56.7906267296
20
-22.2060489652
10
56.8008746248
20
-22.1964603612
10
56.8115012376
20
-22.1878200926
0
LWPOLYLINE
5
2DE
100
AcDbEntity
8
0
100
AcDbPolyline
62
0
6
CONTINUOUS
90
3
70
0
10
57.1686500156
20
-21.8657368524
10
57.1772983691
20
-21.8446613438
10
57.1846549002
20
-21.8242094954
0
LWPOLYLINE
5
2DF
100
AcDbEntity
8
0
100
AcDbPolyline
62
0
6
CONTINUOUS
90
3
70
0
10
56.8635311123
20
-22.1594753420
10
56.8745792214
20
-22.1553097151
10
56.9187242855
20
-22.1355574360
0
LINE
5
2E0
100
AcDbEntity
8
0
100
AcDbLine
62
0
6
CONTINUOUS
10
57.1774748605
20
22.3937790577
11
57.1697558066
21
22.4127655063
0
LINE
5
2E1
100
AcDbEntity
8
0
100
AcDbLine
62
0
6
CONTINUOUS
10
57.1841106799
20
22.3753995837
11
57.1774748605
21
22.3937790577
0
LWPOLYLINE
5
2E2
100
AcDbEntity
8
0
100
AcDbPolyline
62
0
6
CONTINUOUS
90
3
70
0
10
57.1469896641
20
-21.9093997047
10
57.1585851432
20
-21.8873556062
10
57.1686500156
20
-21.8657368524
0
LINE
5
2E3
100
AcDbEntity
8
0
100
AcDbLine
62
0
6
CONTINUOUS
10
57.1339674802
20
-21.9313959385
11
57.1469896641
21
-21.9093997047
0
LINE
5
2E4
100
AcDbEntity
8
0
100
AcDbLine
62
0
6
CONTINUOUS
10
57.1195433063
20
-21.9531248131
11
57.1339674802
21
-21.9313959385
0
LINE
5
2E5
100
AcDbEntity
8
0
100
AcDbLine
62
0
6
CONTINUOUS
10
57.1121199899
20
-21.9634198530
11
57.1195433063
21
-21.9531248131
0
LINE
5
2E6
100
AcDbEntity
8
0
100
AcDbLine
62
0
6
CONTINUOUS
10
57.0966477499
20
-21.9842790200
11
57.1097684484
21
-21.9665726662
0
LINE
5
2E7
100
AcDbEntity
8
0
100
AcDbLine
62
0
6
CONTINUOUS
10
57.0961050973
20
-21.9850190312
11
57.0922469202
21
-21.9902117386
0
LINE
5
2E8
100
AcDbEntity
8
0
100
AcDbLine
62
0
6
CONTINUOUS
10
57.1097684484
20
-21.9665726662
11
57.1121199899
21
-21.9634198530
0
LINE
5
2E9
100
AcDbEntity
8
0
100
AcDbLine
62
0
6
CONTINUOUS
10
57.0698940555
20
-22.0178067566
11
57.0922497750
21
-21.9902139064
0
LINE
5
2EA
100
AcDbEntity
8
0
100
AcDbLine
62
9
6
CONTINUOUS
10
57.2169068484
20
-21.6230142266
11
57.2323885235
21
-21.6075273601
0
LINE
5
2EB
100
AcDbEntity
8
0
100
AcDbLine
62
9
6
CONTINUOUS
10
57.1800233287
20
-21.6598925549
11
57.1857430807
21
-21.6541805948
0
LWPOLYLINE
5
2EC
100
AcDbEntity
8
0
100
AcDbPolyline
62
0
6
CONTINUOUS
90
6
70
0
10
56.8115012376
20
-22.1878200926
10
56.8223767938
20
-22.1801391772
10
56.8335044453
20
-22.1733362091
10
56.8447040930
20
-22.1674470561
10
56.8555352122
20
-22.1625808991
10
56.8635076433
20
-22.1594836267
0
LWPOLYLINE
5
2ED
100
AcDbEntity
8
0
100
AcDbPolyline
62
0
6
CONTINUOUS
90
5
70
0
10
56.9187242855
20
-22.1355574360
10
56.9606936644
20
-22.1116741085
10
57.0001089447
20
-22.0838996123
10
57.0366199357
20
-22.0525057026
10
57.0698940555
20
-22.0178067566
0
LWPOLYLINE
5
2EE
100
AcDbEntity
8
0
100
AcDbPolyline
62
0
6
CONTINUOUS
90
5
70
0
10
56.8625059719
20
22.7094277968
10
56.8521339637
20
22.7136023783
10
56.8415194967
20
22.7186069507
10
56.8307508300
20
22.7245048652
10
56.8199194025
20
22.7313584406
0
LWPOLYLINE
5
2EF
100
AcDbEntity
8
0
100
AcDbPolyline
62
0
6
CONTINUOUS
90
3
70
0
10
56.9136528797
20
22.6876676258
10
56.8686516696
20
22.7071581144
10
56.8625059719
20
22.7094277968
0
LINE
5
2F0
100
AcDbEntity
8
0
100
AcDbLine
62
0
6
CONTINUOUS
10
56.8199194025
20
22.7313584406
11
56.8094080935
21
22.7390055808
0
LWPOLYLINE
5
2F1
100
AcDbEntity
8
0
100
AcDbPolyline
62
0
6
CONTINUOUS
90
13
70
0
10
56.8094080935
20
22.7390055808
10
56.7993636080
20
22.7473690756
10
56.7897638826
20
22.7564984883
10
56.7806966508
20
22.7663539230
10
56.7722420767
20
22.7768861165
10
56.7644407529
20
22.7880857884
10
56.7573250917
20
22.7999678157
10
56.7509626836
20
22.8125013962
10
56.7454257965
20
22.8256386248
10
56.7407702731
20
22.8393684990
10
56.7370703601
20
22.8536350826
10
56.7343976269
20
22.8683743727
10
56.7328175783
20
22.8835553183
0
LWPOLYLINE
5
2F2
100
AcDbEntity
8
0
100
AcDbPolyline
62
0
6
CONTINUOUS
90
4
70
0
10
57.0339452119
20
22.6045946460
10
56.9966814714
20
22.6361219389
10
56.9564616241
20
22.6639066242
10
56.9136528797
20
22.6876676258
0
LINE
5
2F3
100
AcDbEntity
8
0
100
AcDbLine
62
9
6
CONTINUOUS
10
57.1800233287
20
22.2094707439
11
57.1857429307
21
22.2037556484
0
LINE
5
2F4
100
AcDbEntity
8
0
100
AcDbLine
62
9
6
CONTINUOUS
10
57.2169070929
20
22.1725868994
11
57.2323885235
21
22.1571055491
0
LINE
5
2F5
100
AcDbEntity
8
0
100
AcDbLine
62
0
6
CONTINUOUS
10
57.0679042942
20
22.5696509302
11
57.0339452119
21
22.6045946460
0
LINE
5
2F6
100
AcDbEntity
8
0
100
AcDbLine
62
0
6
CONTINUOUS
10
57.0916160837
20
22.5406255587
11
57.0679042942
21
22.5696509302
0
LINE
5
2F7
100
AcDbEntity
8
0
100
AcDbLine
62
0
6
CONTINUOUS
10
57.1120945921
20
22.5130336757
11
57.0916161821
21
22.5406256295
0
LWPOLYLINE
5
2F8
100
AcDbEntity
8
0
100
AcDbPolyline
62
0
6
CONTINUOUS
90
7
70
0
10
57.1697558066
20
22.4127655063
10
57.1610385552
20
22.4319048408
10
57.1513168057
20
22.4510586977
10
57.1405078471
20
22.4702468738
10
57.1286549422
20
22.4892663895
10
57.1157674920
20
22.5080094353
10
57.1120945921
20
22.5130336757
0
LINE
5
2F9
100
AcDbEntity
8
0
100
AcDbLine
62
0
6
CONTINUOUS
10
-24.1895724503
20
-24.2252109055
11
-21.1895724503
21
-24.2252109055
0
LINE
5
2FA
100
AcDbEntity
8
0
100
AcDbLine
62
9
6
CONTINUOUS
10
-24.4395724503
20
-23.9752109055
11
-20.9395724503
21
-23.9752109055
0
LINE
5
2FB
100
AcDbEntity
8
0
100
AcDbLine
62
9
6
CONTINUOUS
10
-20.9395724503
20
-23.5695484728
11
-21.1895724503
21
-23.5695484728
0
LINE
5
2FC
100
AcDbEntity
8
0
100
AcDbLine
62
9
6
CONTINUOUS
10
-24.1895724503
20
-23.5695484728
11
-24.4395724503
21
-23.5695484728
0
LINE
5
2FD
100
AcDbEntity
8
0
100
AcDbLine
62
0
6
CONTINUOUS
10
-20.9395724503
20
-23.5252109055
11
-14.4395724503
21
-23.5252109055
0
LINE
5
2FE
100
AcDbEntity
8
0
100
AcDbLine
62
9
6
CONTINUOUS
10
-23.1928521823
20
-22.1591644813
11
-22.1928825830
21
-22.1399677601
0
LINE
5
2FF
100
AcDbEntity
8
0
100
AcDbLine
62
9
6
CONTINUOUS
10
-23.1895724503
20
-22.3470602022
11
-22.1895724503
21
-22.3296051373
0
LINE
5
300
100
AcDbEntity
8
0
100
AcDbLine
62
0
6
CONTINUOUS
10
-23.9395724503
20
-22.1601210353
11
-23.5944378290
21
-22.1540966881
0
LINE
5
301
100
AcDbEntity
8
0
100
AcDbLine
62
0
6
CONTINUOUS
10
-21.8090930725
20
-22.1229333795
11
-11.9221200439
21
-21.9503556233
0
LINE
5
302
100
AcDbEntity
8
0
100
AcDbLine
62
9
6
CONTINUOUS
10
-23.9395724503
20
-21.6598925549
11
-23.6118880772
21
-21.6541805948
0
LINE
5
303
100
AcDbEntity
8
0
100
AcDbLine
62
9
6
CONTINUOUS
10
-21.8265170202
20
-21.6230142266
11
-20.9395724503
21
-21.6075273601
0
LINE
5
304
100
AcDbEntity
8
0
100
AcDbLine
62
9
6
CONTINUOUS
10
-23.1895724503
20
-22.7035230690
11
-23.4395724503
21
-22.7035230690
0
LINE
5
305
100
AcDbEntity
8
0
100
AcDbLine
62
9
6
CONTINUOUS
10
-22.1895724503
20
-22.7035230690
11
-21.9395724503
21
-22.7035230690
0
LINE
5
306
100
AcDbEntity
8
0
100
AcDbLine
62
0
6
CONTINUOUS
10
-28.6500325877
20
-21.5733496515
11
-34.2478212881
21
-20.7866317551
0
LINE
5
307
100
AcDbEntity
8
0
100
AcDbLine
62
0
6
CONTINUOUS
10
-23.9395724503
20
-21.6300208701
11
-23.2895724503
21
-21.5502109055
0
LINE
5
308
100
AcDbEntity
8
0
100
AcDbLine
62
0
6
CONTINUOUS
10
-20.9395724503
20
-20.6252109055
11
-10.9395724503
21
-20.6252109055
0
LINE
5
309
100
AcDbEntity
8
0
100
AcDbLine
62
0
6
CONTINUOUS
10
-20.9395724503
20
-21.1252109055
11
-11.0021378978
21
-21.2986694708
0
LINE
5
30A
100
AcDbEntity
8
0
100
AcDbLine
62
9
6
CONTINUOUS
10
-35.5367977142
20
-19.2188491615
11
-34.7518630096
21
-19.2610838916
0
LINE
5
30B
100
AcDbEntity
8
0
100
AcDbLine
62
9
6
CONTINUOUS
10
-28.5525519620
20
-20.7794336659
11
-34.1503406624
21
-19.9927157695
0
LINE
5
30C
100
AcDbEntity
8
0
100
AcDbLine
62
9
6
CONTINUOUS
10
-21.9395724503
20
23.6861139599
11
-21.1895724503
21
24.1191266618
0
LINE
5
30D
100
AcDbEntity
8
0
100
AcDbLine
62
0
6
CONTINUOUS
10
-21.8145724503
20
23.4696076090
11
-21.0645724503
21
23.9026203109
0
LINE
5
30E
100
AcDbEntity
8
0
100
AcDbLine
62
0
6
CONTINUOUS
10
-27.6448081722
20
-18.0491899832
11
-23.4807462558
21
-18.1218739543
0
LINE
5
30F
100
AcDbEntity
8
0
100
AcDbLine
62
9
6
CONTINUOUS
10
-21.1895724503
20
-23.5695484728
11
-21.9395724503
21
-23.1365357709
0
LINE
5
310
100
AcDbEntity
8
0
100
AcDbLine
62
0
6
CONTINUOUS
10
-21.0645724503
20
-23.3530421218
11
-21.8145724503
21
-22.9200294199
0
LINE
5
311
100
AcDbEntity
8
0
100
AcDbLine
62
9
6
CONTINUOUS
10
-27.9395724503
20
-17.5492661356
11
-27.6448081722
21
-17.5492661356
0
LINE
5
312
100
AcDbEntity
8
0
100
AcDbLine
62
9
6
CONTINUOUS
10
-27.6448081722
20
-17.5492661356
11
-23.5422610251
21
-17.6208763624
0
LINE
5
313
100
AcDbEntity
8
0
100
AcDbLine
62
0
6
CONTINUOUS
10
-20.9395724503
20
-14.5538239055
11
-20.7395724503
21
-14.5538239055
0
LINE
5
314
100
AcDbEntity
8
0
100
AcDbLine
62
0
6
CONTINUOUS
10
-35.2207222619
20
-13.0530003926
11
-35.1347585058
21
-13.0640126037
0
LINE
5
315
100
AcDbEntity
8
0
100
AcDbLine
62
9
6
CONTINUOUS
10
-24.1895724503
20
24.1191266618
11
-24.3145724503
21
23.9026203109
0
LINE
5
316
100
AcDbEntity
8
0
100
AcDbLine
62
0
6
CONTINUOUS
10
-20.9395724503
20
15.1350867519
11
-10.9395724503
21
18.7747890945
0
LINE
5
317
100
AcDbEntity
8
0
100
AcDbLine
62
9
6
CONTINUOUS
10
-20.9395724503
20
15.7319228625
11
-10.9395724503
21
19.2790294749
0
LINE
5
318
100
AcDbEntity
8
0
100
AcDbLine
62
0
6
CONTINUOUS
10
-20.9395724503
20
-14.0537989055
11
-20.7395724503
21
-14.0537989055
0
LINE
5
319
100
AcDbEntity
8
0
100
AcDbLine
62
0
6
CONTINUOUS
10
-20.9395724503
20
-13.5010989055
11
-20.7395724503
21
-13.5010989055
0
LINE
5
31A
100
AcDbEntity
8
0
100
AcDbLine
62
0
6
CONTINUOUS
10
-20.9395724503
20
-12.9484049055
11
-20.7395724503
21
-12.9484049055
0
LINE
5
31B
100
AcDbEntity
8
0
100
AcDbLine
62
0
6
CONTINUOUS
10
-20.9395724503
20
-12.4483799055
11
-20.7395724503
21
-12.4483799055
0
LINE
5
31C
100
AcDbEntity
8
0
100
AcDbLine
62
9
6
CONTINUOUS
10
-20.9395724503
20
-15.1823446735
11
-10.9395724503
21
-18.7294512858
0
LINE
5
31D
100
AcDbEntity
8
0
100
AcDbLine
62
0
6
CONTINUOUS
10
-10.9395724503
20
-18.2252109055
11
-20.9395724503
21
-14.5855085628
0
LINE
5
31E
100
AcDbEntity
8
0
100
AcDbLine
62
9
6
CONTINUOUS
10
-24.1895724503
20
-23.5695484728
11
-24.3145724503
21
-23.3530421218
0
LINE
5
31F
100
AcDbEntity
8
0
100
AcDbLine
62
9
6
CONTINUOUS
10
-23.4395724503
20
23.6861139599
11
-23.5645724503
21
23.4696076090
0
LINE
5
320
100
AcDbEntity
8
0
100
AcDbLine
62
0
6
CONTINUOUS
10
-20.9395724503
20
-12.1150359055
11
-20.7395724503
21
-12.1150359055
0
LINE
5
321
100
AcDbEntity
8
0
100
AcDbLine
62
0
6
CONTINUOUS
10
-20.9395724503
20
-11.6150169055
11
-20.7395724503
21
-11.6150169055
0
LINE
5
322
100
AcDbEntity
8
0
100
AcDbLine
62
0
6
CONTINUOUS
10
-20.9395724503
20
-11.1150169055
11
-20.7395724503
21
-11.1150169055
0
LINE
5
323
100
AcDbEntity
8
0
100
AcDbLine
62
9
6
CONTINUOUS
10
-23.4395724503
20
-23.1365357709
11
-23.5645724503
21
-22.9200294199
0
LINE
5
324
100
AcDbEntity
8
0
100
AcDbLine
62
9
6
CONTINUOUS
10
-35.3079653884
20
-12.9506360537
11
-35.0878799080
21
-11.1581836571
0
LINE
5
325
100
AcDbEntity
8
0
100
AcDbLine
62
9
6
CONTINUOUS
10
-35.2207222619
20
-13.0530003926
11
-34.9784641003
21
-11.0799659991
0
LINE
5
326
100
AcDbEntity
8
0
100
AcDbLine
62
0
6
CONTINUOUS
10
-20.9395724503
20
-10.3591239055
11
-20.7395724503
21
-10.3591239055
0
LINE
5
327
100
AcDbEntity
8
0
100
AcDbLine
62
0
6
CONTINUOUS
10
-20.9395724503
20
-9.8922549055
11
-20.7395724503
21
-9.8922549055
0
LINE
5
328
100
AcDbEntity
8
0
100
AcDbLine
62
0
6
CONTINUOUS
10
-20.9395724503
20
-9.4253859055
11
-20.7395724503
21
-9.4253859055
0
LINE
5
329
100
AcDbEntity
8
0
100
AcDbLine
62
0
6
CONTINUOUS
10
-20.9395724503
20
-8.6694919055
11
-20.7395724503
21
-8.6694919055
0
LINE
5
32A
100
AcDbEntity
8
0
100
AcDbLine
62
0
6
CONTINUOUS
10
-20.9395724503
20
-8.3361479055
11
-20.7395724503
21
-8.3361479055
0
LINE
5
32B
100
AcDbEntity
8
0
100
AcDbLine
62
0
6
CONTINUOUS
10
-20.9395724503
20
-7.5334549055
11
-20.7395724503
21
-7.5334549055
0
LINE
5
32C
100
AcDbEntity
8
0
100
AcDbLine
62
0
6
CONTINUOUS
10
-20.9395724503
20
-7.0334109055
11
-20.7395724503
21
-7.0334109055
0
LINE
5
32D
100
AcDbEntity
8
0
100
AcDbLine
62
0
6
CONTINUOUS
10
-20.9395724503
20
-6.2307049055
11
-20.7395724503
21
-6.2307049055
0
LINE
5
32E
100
AcDbEntity
8
0
100
AcDbLine
62
0
6
CONTINUOUS
10
-20.9395724503
20
-5.8973609055
11
-20.7395724503
21
-5.8973609055
0
LINE
5
32F
100
AcDbEntity
8
0
100
AcDbLine
62
0
6
CONTINUOUS
10
-27.9395724503
20
-17.7492356746
11
-27.9395724503
21
-15.7871161695
0
LINE
5
330
100
AcDbEntity
8
0
100
AcDbLine
62
9
6
CONTINUOUS
10
-27.6448081722
20
-17.5492661356
11
-27.6448081722
21
-13.3864537743
0
LINE
5
331
100
AcDbEntity
8
0
100
AcDbLine
62
0
6
CONTINUOUS
10
-20.9395724503
20
-4.7264859055
11
-20.7395724503
21
-4.7264859055
0
LINE
5
332
100
AcDbEntity
8
0
100
AcDbLine
62
0
6
CONTINUOUS
10
-20.9395724503
20
-3.9597701026
11
-20.7395724503
21
-3.9597701026
0
LINE
5
333
100
AcDbEntity
8
0
100
AcDbLine
62
0
6
CONTINUOUS
10
-20.9395724503
20
-3.8965979055
11
-20.7395724503
21
-3.8965979055
0
LINE
5
334
100
AcDbEntity
8
0
100
AcDbLine
62
0
6
CONTINUOUS
10
-23.3730900182
20
21.4038987145
11
-28.6500325877
21
-21.5733496515
0
LINE
5
335
100
AcDbEntity
8
0
100
AcDbLine
62
0
6
CONTINUOUS
10
-25.7395724503
20
0.2747890945
11
-23.2895724503
21
20.2284378431
0
LINE
5
336
100
AcDbEntity
8
0
100
AcDbLine
62
0
6
CONTINUOUS
10
-23.2895724503
20
-19.6788596540
11
-25.7395724503
21
0.2747890945
0
LINE
5
337
100
AcDbEntity
8
0
100
AcDbLine
62
9
6
CONTINUOUS
10
-23.1895724503
20
-22.3470602022
11
-23.1928521823
21
-22.1591644813
0
LINE
5
338
100
AcDbEntity
8
0
100
AcDbLine
62
0
6
CONTINUOUS
10
-24.4395724503
20
24.5247890945
11
-24.4395724503
21
24.1191266618
0
LINE
5
339
100
AcDbEntity
8
0
100
AcDbLine
62
0
6
CONTINUOUS
10
-24.4395724503
20
-23.5695484728
11
-24.4395724503
21
-23.9752109055
0
LINE
5
33A
100
AcDbEntity
8
0
100
AcDbLine
62
9
6
CONTINUOUS
10
-24.1895724503
20
24.7747890945
11
-24.1895724503
21
24.1191266618
0
LINE
5
33B
100
AcDbEntity
8
0
100
AcDbLine
62
9
6
CONTINUOUS
10
-24.1895724503
20
-23.5695484728
11
-24.1895724503
21
-24.2252109055
0
LINE
5
33C
100
AcDbEntity
8
0
100
AcDbLine
62
0
6
CONTINUOUS
10
-23.9395724503
20
-22.1601210353
11
-23.9395724503
21
-21.6300208701
0
LINE
5
33D
100
AcDbEntity
8
0
100
AcDbLine
62
0
6
CONTINUOUS
10
-23.9395724503
20
22.1795990591
11
-23.9395724503
21
22.7096992244
0
LINE
5
33E
100
AcDbEntity
8
0
100
AcDbLine
62
0
6
CONTINUOUS
10
-23.4395724503
20
23.2531012580
11
-23.4395724503
21
22.9044931705
0
LINE
5
33F
100
AcDbEntity
8
0
100
AcDbLine
62
0
6
CONTINUOUS
10
-23.4395724503
20
-22.3549149815
11
-23.4395724503
21
-22.7035230690
0
LINE
5
340
100
AcDbEntity
8
0
100
AcDbLine
62
0
6
CONTINUOUS
10
-23.2895724503
20
-21.5502109055
11
-23.2895724503
21
-19.6788596540
0
LINE
5
341
100
AcDbEntity
8
0
100
AcDbLine
62
0
6
CONTINUOUS
10
-23.2895724503
20
20.2284378431
11
-23.2895724503
21
22.0997890945
0
LINE
5
342
100
AcDbEntity
8
0
100
AcDbLine
62
9
6
CONTINUOUS
10
-23.1895724503
20
23.2531012580
11
-23.1895724503
21
22.8966383913
0
LINE
5
343
100
AcDbEntity
8
0
100
AcDbLine
62
9
6
CONTINUOUS
10
-23.1895724503
20
-22.3470602022
11
-23.1895724503
21
-22.7035230690
0
LINE
5
344
100
AcDbEntity
8
0
100
AcDbLine
62
9
6
CONTINUOUS
10
-23.1928521823
20
22.7087426704
11
-23.1895724503
21
22.8966383913
0
LINE
5
345
100
AcDbEntity
8
0
100
AcDbLine
62
9
6
CONTINUOUS
10
-22.1895724503
20
-22.3296051373
11
-22.1928825830
21
-22.1399677601
0
LINE
5
346
100
AcDbEntity
8
0
100
AcDbLine
62
9
6
CONTINUOUS
10
-22.1895724503
20
-22.7035230690
11
-22.1895724503
21
-22.3296051373
0
LINE
5
347
100
AcDbEntity
8
0
100
AcDbLine
62
9
6
CONTINUOUS
10
-22.1895724503
20
22.8791833264
11
-22.1895724503
21
23.2531012580
0
LINE
5
348
100
AcDbEntity
8
0
100
AcDbLine
62
0
6
CONTINUOUS
10
-21.9395724503
20
-22.7035230690
11
-21.9395724503
21
-22.3217503581
0
LINE
5
349
100
AcDbEntity
8
0
100
AcDbLine
62
0
6
CONTINUOUS
10
-21.9395724503
20
22.8713285472
11
-21.9395724503
21
23.2531012580
0
LINE
5
34A
100
AcDbEntity
8
0
100
AcDbLine
62
9
6
CONTINUOUS
10
-21.1895724503
20
24.7747890945
11
-21.1895724503
21
24.1191266618
0
LINE
5
34B
100
AcDbEntity
8
0
100
AcDbLine
62
9
6
CONTINUOUS
10
-21.1895724503
20
-23.5695484728
11
-21.1895724503
21
-24.2252109055
0
LINE
5
34C
100
AcDbEntity
8
0
100
AcDbLine
62
9
6
CONTINUOUS
10
-22.1928825831
20
22.6895459492
11
-22.1895724503
21
22.8791833264
0
LINE
5
34D
100
AcDbEntity
8
0
100
AcDbLine
62
0
6
CONTINUOUS
10
-20.9395724503
20
24.5247890945
11
-20.9395724503
21
24.1191266618
0
LINE
5
34E
100
AcDbEntity
8
0
100
AcDbLine
62
0
6
CONTINUOUS
10
-20.9395724503
20
-22.1077558405
11
-20.9395724503
21
22.6573340296
0
LINE
5
34F
100
AcDbEntity
8
0
100
AcDbLine
62
0
6
CONTINUOUS
10
-20.9395724503
20
-23.5695484728
11
-20.9395724503
21
-23.9752109055
0
LINE
5
350
100
AcDbEntity
8
0
100
AcDbLine
62
0
6
CONTINUOUS
10
-20.7395724503
20
-3.8965979055
11
-20.7395724503
21
-5.8973609055
0
LINE
5
351
100
AcDbEntity
8
0
100
AcDbLine
62
0
6
CONTINUOUS
10
-20.7395724503
20
-6.2307049055
11
-20.7395724503
21
-8.3361479055
0
LINE
5
352
100
AcDbEntity
8
0
100
AcDbLine
62
0
6
CONTINUOUS
10
-20.7395724503
20
-8.6694919055
11
-20.7395724503
21
-11.1150169055
0
LINE
5
353
100
AcDbEntity
8
0
100
AcDbLine
62
0
6
CONTINUOUS
10
-20.7395724503
20
-11.6150169055
11
-20.7395724503
21
-12.1150359055
0
LINE
5
354
100
AcDbEntity
8
0
100
AcDbLine
62
0
6
CONTINUOUS
10
-20.7395724503
20
-12.4483799055
11
-20.7395724503
21
-14.5538239055
0
LINE
5
355
100
AcDbEntity
8
0
100
AcDbLine
62
0
6
CONTINUOUS
10
-13.9395724503
20
-23.0252109055
11
-13.9395724503
21
-21.9855703860
0
LINE
5
356
100
AcDbEntity
8
0
100
AcDbLine
62
0
6
CONTINUOUS
10
-13.9395724503
20
22.5351485751
11
-13.9395724503
21
23.5747890945
0
LINE
5
357
100
AcDbEntity
8
0
100
AcDbLine
62
0
6
CONTINUOUS
10
-10.9395724503
20
21.5000861172
11
-10.9395724503
21
18.7750829413
0
LINE
5
358
100
AcDbEntity
8
0
100
AcDbLine
62
0
6
CONTINUOUS
10
-10.9395724503
20
-18.2255047522
11
-10.9395724503
21
-20.9505079281
0
LINE
5
359
100
AcDbEntity
8
0
100
AcDbLine
62
9
6
CONTINUOUS
10
-21.9395724503
20
-23.1365357709
11
-21.8145724503
21
-22.9200294199
0
LINE
5
35A
100
AcDbEntity
8
0
100
AcDbLine
62
9
6
CONTINUOUS
10
-21.9395724503
20
23.6861139599
11
-21.8145724503
21
23.4696076090
0
LINE
5
35B
100
AcDbEntity
8
0
100
AcDbLine
62
9
6
CONTINUOUS
10
-21.1895724503
20
-23.5695484728
11
-21.0645724503
21
-23.3530421218
0
LINE
5
35C
100
AcDbEntity
8
0
100
AcDbLine
62
9
6
CONTINUOUS
10
-21.1895724503
20
24.1191266618
11
-21.0645724503
21
23.9026203109
0
LINE
5
35D
100
AcDbEntity
8
0
100
AcDbLine
62
9
6
CONTINUOUS
10
-23.7705964112
20
18.1664689425
11
-23.5422610251
21
18.1704545515
0
LINE
5
35E
100
AcDbEntity
8
0
100
AcDbLine
62
0
6
CONTINUOUS
10
-23.7090816419
20
18.6674665344
11
-23.4807462558
21
18.6714521433
0
LINE
5
35F
100
AcDbEntity
8
0
100
AcDbLine
62
0
6
CONTINUOUS
10
-23.5645724503
20
-22.9200294199
11
-24.3145724503
21
-23.3530421218
0
LINE
5
360
100
AcDbEntity
8
0
100
AcDbLine
62
9
6
CONTINUOUS
10
-23.4395724503
20
-23.1365357709
11
-24.1895724503
21
-23.5695484728
0
LINE
5
361
100
AcDbEntity
8
0
100
AcDbLine
62
9
6
CONTINUOUS
10
-29.0924053814
20
21.2008613698
11
-23.4705706439
21
20.6099827289
0
LINE
5
362
100
AcDbEntity
8
0
100
AcDbLine
62
9
6
CONTINUOUS
10
-30.6248738306
20
20.7853923509
11
-29.8530577149
21
20.6364835120
0
LINE
5
363
100
AcDbEntity
8
0
100
AcDbLine
62
0
6
CONTINUOUS
10
-24.3145724503
20
23.9026203109
11
-23.5645724503
21
23.4696076090
0
LINE
5
364
100
AcDbEntity
8
0
100
AcDbLine
62
9
6
CONTINUOUS
10
-24.1895724503
20
24.1191266618
11
-23.4395724503
21
23.6861139599
0
LINE
5
365
100
AcDbEntity
8
0
100
AcDbLine
62
0
6
CONTINUOUS
10
-20.9395724503
20
21.6747890945
11
-11.0021378978
21
21.8482476599
0
LINE
5
366
100
AcDbEntity
8
0
100
AcDbLine
62
0
6
CONTINUOUS
10
-20.9395724503
20
21.1747890945
11
-10.9395724503
21
21.1747890945
0
LINE
5
367
100
AcDbEntity
8
0
100
AcDbLine
62
9
6
CONTINUOUS
10
-21.8265030161
20
22.1725868994
11
-20.9395724503
21
22.1571055491
0
LINE
5
368
100
AcDbEntity
8
0
100
AcDbLine
62
9
6
CONTINUOUS
10
-23.9395724503
20
22.2094707439
11
-23.6118966686
21
22.2037556484
0
LINE
5
369
100
AcDbEntity
8
0
100
AcDbLine
62
0
6
CONTINUOUS
10
-28.9949247557
20
21.9947773554
11
-23.3730900182
21
21.4038987145
0
LINE
5
36A
100
AcDbEntity
8
0
100
AcDbLine
62
0
6
CONTINUOUS
10
-23.2895724503
20
22.0997890945
11
-23.9395724503
21
22.1795990591
0
LINE
5
36B
100
AcDbEntity
8
0
100
AcDbLine
62
9
6
CONTINUOUS
10
-23.1895724503
20
23.2531012580
11
-23.4395724503
21
23.2531012580
0
LINE
5
36C
100
AcDbEntity
8
0
100
AcDbLine
62
9
6
CONTINUOUS
10
-22.1895724503
20
23.2531012580
11
-21.9395724503
21
23.2531012580
0
LINE
5
36D
100
AcDbEntity
8
0
100
AcDbLine
62
0
6
CONTINUOUS
10
-14.4395724503
20
24.0747890945
11
-20.9395724503
21
24.0747890945
0
LINE
5
36E
100
AcDbEntity
8
0
100
AcDbLine
62
9
6
CONTINUOUS
10
-20.9395724503
20
24.1191266618
11
-21.1895724503
21
24.1191266618
0
LINE
5
36F
100
AcDbEntity
8
0
100
AcDbLine
62
9
6
CONTINUOUS
10
-24.1895724503
20
24.1191266618
11
-24.4395724503
21
24.1191266618
0
LINE
5
370
100
AcDbEntity
8
0
100
AcDbLine
62
0
6
CONTINUOUS
10
-23.9395724503
20
22.7096992244
11
-23.5944115343
21
22.7036744182
0
LINE
5
371
100
AcDbEntity
8
0
100
AcDbLine
62
0
6
CONTINUOUS
10
-21.8090513219
20
22.6725108398
11
-11.9221200439
21
22.4999338124
0
LINE
5
372
100
AcDbEntity
8
0
100
AcDbLine
62
9
6
CONTINUOUS
10
-23.1895724503
20
22.8966383913
11
-22.1895724503
21
22.8791833264
0
LINE
5
373
100
AcDbEntity
8
0
100
AcDbLine
62
9
6
CONTINUOUS
10
-23.1928521823
20
22.7087426704
11
-22.1928825831
21
22.6895459492
0
LINE
5
374
100
AcDbEntity
8
0
100
AcDbLine
62
9
6
CONTINUOUS
10
-24.4395724503
20
24.5247890945
11
-20.9395724503
21
24.5247890945
0
LINE
5
375
100
AcDbEntity
8
0
100
AcDbLine
62
0
6
CONTINUOUS
10
-24.1895724503
20
24.7747890945
11
-21.1895724503
21
24.7747890945
0
ARC
5
376
100
AcDbEntity
8
0
100
AcDbCircle
62
0
6
CONTINUOUS
10
56.4823885235
20
-23.9752109055
40
0.2500000000
100
AcDbArc
50
270.0000000000
51
360.0000000000
0
ARC
5
377
100
AcDbEntity
8
0
100
AcDbCircle
62
0
6
CONTINUOUS
10
54.5823885235
20
-23.9752109055
40
0.2500000000
100
AcDbArc
50
180.0000000000
51
270.0000000000
0
ARC
5
378
100
AcDbEntity
8
0
100
AcDbCircle
62
0
6
CONTINUOUS
10
35.6823885235
20
-23.9752109055
40
0.2500000000
100
AcDbArc
50
180.0000000000
51
270.0000000000
0
ARC
5
379
100
AcDbEntity
8
0
100
AcDbCircle
62
0
6
CONTINUOUS
10
37.5823885235
20
-23.9752109055
40
0.2500000000
100
AcDbArc
50
270.0000000000
51
360.0000000000
0
ARC
5
37A
100
AcDbEntity
8
0
100
AcDbCircle
62
0
6
CONTINUOUS
10
54.5823885235
20
24.5247890945
40
0.2500000000
100
AcDbArc
50
90.0000000000
51
180.0000000000
0
ARC
5
37B
100
AcDbEntity
8
0
100
AcDbCircle
62
0
6
CONTINUOUS
10
56.4823885235
20
24.5247890945
40
0.2500000000
100
AcDbArc
50
0.0000000000
51
90.0000000000
0
ARC
5
37C
100
AcDbEntity
8
0
100
AcDbCircle
62
0
6
CONTINUOUS
10
37.5823885235
20
24.5247890945
40
0.2500000000
100
AcDbArc
50
0.0000000000
51
90.0000000000
0
ARC
5
37D
100
AcDbEntity
8
0
100
AcDbCircle
62
0
6
CONTINUOUS
10
35.6823885235
20
24.5247890945
40
0.2500000000
100
AcDbArc
50
90.0000000000
51
180.0000000000
0
ARC
5
37E
100
AcDbEntity
8
0
100
AcDbCircle
62
0
6
CONTINUOUS
10
-35.2080158009
20
-12.9538109484
40
0.1000000000
100
AcDbArc
50
178.1806135795
51
262.6999999091
0
ARC
5
37F
100
AcDbEntity
8
0
100
AcDbCircle
62
0
6
CONTINUOUS
10
-34.9901311738
20
-11.1792830641
40
0.1000000000
100
AcDbArc
50
83.3000000909
51
167.8193864205
0
ARC
5
380
100
AcDbEntity
8
0
100
AcDbCircle
62
0
6
CONTINUOUS
10
-25.3130066184
20
-13.2681249297
40
10.0000000000
100
AcDbArc
50
167.8193830051
51
178.1806169949
0
ARC
5
381
100
AcDbEntity
8
0
100
AcDbCircle
62
0
6
CONTINUOUS
10
-29.1517174506
20
20.5029945123
40
1.5000000000
100
AcDbArc
50
84.0000000000
51
169.1482870346
0
ARC
5
382
100
AcDbEntity
8
0
100
AcDbCircle
62
0
6
CONTINUOUS
10
264.0104242066
20
-35.6949476115
40
300.0000000000
100
AcDbArc
50
169.1482870346
51
176.8517129654
0
ARC
5
383
100
AcDbEntity
8
0
100
AcDbCircle
62
0
6
CONTINUOUS
10
-34.0390616367
20
-19.3012296520
40
1.5000000000
100
AcDbArc
50
176.8517129654
51
262.0000000000
0
ARC
5
384
100
AcDbEntity
8
0
100
AcDbCircle
62
0
6
CONTINUOUS
10
-21.1895724503
20
-23.9752109055
40
0.2500000000
100
AcDbArc
50
270.0000000000
51
360.0000000000
0
ARC
5
385
100
AcDbEntity
8
0
100
AcDbCircle
62
0
6
CONTINUOUS
10
-21.1895724503
20
-23.5695484728
40
0.2500000000
100
AcDbArc
50
0.0000000000
51
60.0000000000
0
ARC
5
386
100
AcDbEntity
8
0
100
AcDbCircle
62
0
6
CONTINUOUS
10
-21.6895724503
20
-22.7035230690
40
0.2500000000
100
AcDbArc
50
180.0000000000
51
240.0000000000
0
ARC
5
387
100
AcDbEntity
8
0
100
AcDbCircle
62
0
6
CONTINUOUS
10
-27.6395724503
20
-17.7492356746
40
0.3000000000
100
AcDbArc
50
180.0000000000
51
269.0000000000
0
ARC
5
388
100
AcDbEntity
8
0
100
AcDbCircle
62
0
6
CONTINUOUS
10
-23.6895724503
20
-22.7035230690
40
0.2500000000
100
AcDbArc
50
300.0000000000
51
360.0000000000
0
ARC
5
389
100
AcDbEntity
8
0
100
AcDbCircle
62
0
6
CONTINUOUS
10
-24.1895724503
20
-23.5695484728
40
0.2500000000
100
AcDbArc
50
120.0000000000
51
180.0000000000
0
ARC
5
38A
100
AcDbEntity
8
0
100
AcDbCircle
62
0
6
CONTINUOUS
10
-14.4395724503
20
-23.0252109055
40
0.5000000000
100
AcDbArc
50
270.0000000000
51
360.0000000000
0
ARC
5
38B
100
AcDbEntity
8
0
100
AcDbCircle
62
0
6
CONTINUOUS
10
-14.4395724503
20
23.5747890945
40
0.5000000000
100
AcDbArc
50
0.0000000000
51
90.0000000000
0
ARC
5
38C
100
AcDbEntity
8
0
100
AcDbCircle
62
0
6
CONTINUOUS
10
-11.9395724503
20
21.5000861172
40
1.0000000000
100
AcDbArc
50
0.0000000000
51
89.0000000000
0
ARC
5
38D
100
AcDbEntity
8
0
100
AcDbCircle
62
0
6
CONTINUOUS
10
-11.9395724503
20
-20.9505079281
40
1.0000000000
100
AcDbArc
50
271.0000000000
51
360.0000000000
0
ARC
5
38E
100
AcDbEntity
8
0
100
AcDbCircle
62
0
6
CONTINUOUS
10
-24.1895724503
20
-23.9752109055
40
0.2500000000
100
AcDbArc
50
180.0000000000
51
270.0000000000
0
ARC
5
38F
100
AcDbEntity
8
0
100
AcDbCircle
62
0
6
CONTINUOUS
10
-23.6895724503
20
23.2531012580
40
0.2500000000
100
AcDbArc
50
0.0000000000
51
60.0000000000
0
ARC
5
390
100
AcDbEntity
8
0
100
AcDbCircle
62
0
6
CONTINUOUS
10
-21.6895724503
20
23.2531012580
40
0.2500000000
100
AcDbArc
50
120.0000000000
51
180.0000000000
0
ARC
5
391
100
AcDbEntity
8
0
100
AcDbCircle
62
0
6
CONTINUOUS
10
-21.1895724503
20
24.1191266618
40
0.2500000000
100
AcDbArc
50
300.0000000000
51
360.0000000000
0
ARC
5
392
100
AcDbEntity
8
0
100
AcDbCircle
62
0
6
CONTINUOUS
10
-21.7395752458
20
22.8713285960
40
0.1999987575
100
AcDbArc
50
180.0000139794
51
269.0000000000
0
ARC
5
393
100
AcDbEntity
8
0
100
AcDbCircle
62
0
6
CONTINUOUS
10
-21.1895724503
20
24.5247890945
40
0.2500000000
100
AcDbArc
50
0.0000000000
51
90.0000000000
0
ARC
5
394
100
AcDbEntity
8
0
100
AcDbCircle
62
0
6
CONTINUOUS
10
-24.1895724503
20
24.5247890945
40
0.2500000000
100
AcDbArc
50
90.0000000000
51
180.0000000000
0
ARC
5
395
100
AcDbEntity
8
0
100
AcDbCircle
62
0
6
CONTINUOUS
10
-24.1895724503
20
24.1191266618
40
0.2500000000
100
AcDbArc
50
180.0000000000
51
240.0000000000
0
ARC
5
396
100
AcDbEntity
8
0
100
AcDbCircle
62
0
6
CONTINUOUS
10
-23.6395738222
20
-22.3549150054
40
0.2000006097
100
AcDbArc
50
0.0000068603
51
83.4163145263
0
ARC
5
397
100
AcDbEntity
8
0
100
AcDbCircle
62
0
6
CONTINUOUS
10
-21.7395724503
20
-22.3217503581
40
0.2000000000
100
AcDbArc
50
98.4166666670
51
180.0000000000
0
ARC
5
398
100
AcDbEntity
8
0
100
AcDbCircle
62
0
6
CONTINUOUS
10
-23.6395696547
20
22.9044931217
40
0.1999987575
100
AcDbArc
50
268.9991990114
51
0.0000139794
0
ARC
5
399
100
AcDbEntity
8
0
100
AcDbCircle
62
9
6
CONTINUOUS
10
-23.6895724503
20
-22.7035230690
40
0.5000000000
100
AcDbArc
50
300.0000000000
51
360.0000000000
0
ARC
5
39A
100
AcDbEntity
8
0
100
AcDbCircle
62
9
6
CONTINUOUS
10
-23.6895724503
20
23.2531012580
40
0.5000000000
100
AcDbArc
50
0.0000000000
51
60.0000000000
0
ARC
5
39B
100
AcDbEntity
8
0
100
AcDbCircle
62
9
6
CONTINUOUS
10
-21.6895724503
20
23.2531012580
40
0.5000000000
100
AcDbArc
50
120.0000000000
51
180.0000000000
0
ARC
5
39C
100
AcDbEntity
8
0
100
AcDbCircle
62
9
6
CONTINUOUS
10
-21.6895724503
20
-22.7035230690
40
0.5000000000
100
AcDbArc
50
180.0000000000
51
240.0000000000
0
SPLINE
5
39D
100
AcDbEntity
8
0
100
AcDbSpline
62
0
6
CONTINUOUS
70
0
71
3
72
25
73
21
74
19
42
0.0000001000
43
0.0000001000
44
0.0000000001
12
0.1299280140
22
3.0213391010
32
0.0000000000
13
0.1299280140
23
-3.0213391010
33
0.0000000000
40
0.0000000000
40
0.0000000000
40
0.0000000000
40
0.0000000000
40
0.0553481799
40
0.1107277732
40
0.1661624971
40
0.2216575243
40
0.2772237952
40
0.3328597979
40
0.3885509860
40
0.4442882208
40
0.5000439929
40
0.5557971646
40
0.6115270398
40
0.6672068339
40
0.7228287751
40
0.7783799271
40
0.8338604678
40
0.8892830022
40
0.9446543847
40
1.0000000000
40
1.0000000000
40
1.0000000000
40
1.0000000000
10
22.5893669018
20
-12.0244140771
30
0.0000000000
10
22.5917639948
20
-11.9686722037
30
0.0000000000
10
22.6061334756
20
-11.8573341681
30
0.0000000000
10
22.6557479403
20
-11.6965385509
30
0.0000000000
10
22.7320166361
20
-11.5463204152
30
0.0000000000
10
22.8327501136
20
-11.4110661329
30
0.0000000000
10
22.9550536383
20
-11.2946555558
30
0.0000000000
10
23.0954108692
20
-11.2004474262
30
0.0000000000
10
23.2497847316
20
-11.1311539686
30
0.0000000000
10
23.4137271997
20
-11.0887737620
30
0.0000000000
10
23.5825200548
20
-11.0745258981
30
0.0000000000
10
23.7513016558
20
-11.0888175108
30
0.0000000000
10
23.9152124613
20
-11.1312329257
30
0.0000000000
10
24.0695404474
20
-11.2005466158
30
0.0000000000
10
24.2098460785
20
-11.2947571469
30
0.0000000000
10
24.3321011984
20
-11.4111537853
30
0.0000000000
10
24.4327965783
20
-11.5463831259
30
0.0000000000
10
24.5090413009
20
-11.6965733942
30
0.0000000000
10
24.5586455250
20
-11.8573475763
30
0.0000000000
10
24.5730131632
20
-11.9686747866
30
0.0000000000
10
24.5754101452
20
-12.0244140771
30
0.0000000000
11
22.5893669018
21
-12.0244140771
31
0.0000000000
11
22.6107999299
21
-11.8584118251
31
0.0000000000
11
22.6601597901
21
-11.6983757783
31
0.0000000000
11
22.7360452884
21
-11.5488926866
31
0.0000000000
11
22.8362748803
21
-11.4142858149
31
0.0000000000
11
22.9579820902
21
-11.2984208165
31
0.0000000000
11
23.0976732904
21
-11.2046411395
31
0.0000000000
11
23.2513168109
21
-11.1356620593
31
0.0000000000
11
23.4145069921
21
-11.0934680568
31
0.0000000000
11
23.5825220414
21
-11.0792830730
31
0.0000000000
11
23.7505255187
21
-11.0935115758
31
0.0000000000
11
23.9136836781
21
-11.1357404946
31
0.0000000000
11
24.0672805796
21
-11.2047392750
31
0.0000000000
11
24.2069194163
21
-11.2985206535
31
0.0000000000
11
24.3285775444
21
-11.4143708963
31
0.0000000000
11
24.4287684815
21
-11.5489519295
31
0.0000000000
11
24.5046295235
21
-11.6984060959
31
0.0000000000
11
24.5539787687
21
-11.8584194319
31
0.0000000000
11
24.5754101452
21
-12.0244140771
31
0.0000000000
0
SPLINE
5
39E
100
AcDbEntity
8
0
100
AcDbSpline
62
9
6
CONTINUOUS
70
0
71
3
72
25
73
21
74
19
42
0.0000001000
43
0.0000001000
44
0.0000000001
12
0.0000000000
22
2.8225740224
32
0.0000000000
13
0.0000000000
23
-2.8225740224
33
0.0000000000
40
0.0000000000
40
0.0000000000
40
0.0000000000
40
0.0000000000
40
0.0551976363
40
0.1104324879
40
0.1659719085
40
0.2215543703
40
0.2769817265
40
0.3325345874
40
0.3881479405
40
0.4437619142
40
0.4996259637
40
0.5554981688
40
0.6113275748
40
0.6671240933
40
0.7228370003
40
0.7784940925
40
0.8340520023
40
0.8895737928
40
0.9448018185
40
1.0000000000
40
1.0000000000
40
1.0000000000
40
1.0000000000
10
24.4853452300
20
-12.0544098555
30
0.0000000000
10
24.4853452300
20
-12.0024767173
30
0.0000000000
10
24.4761994925
20
-11.8983455073
30
0.0000000000
10
24.4353887198
20
-11.7468263523
30
0.0000000000
10
24.3685851397
20
-11.6043766648
30
0.0000000000
10
24.2778279933
20
-11.4756521595
30
0.0000000000
10
24.1660764062
20
-11.3646585220
30
0.0000000000
10
24.0367759870
20
-11.2746702604
30
0.0000000000
10
23.8937166886
20
-11.2082999678
30
0.0000000000
10
23.7410801737
20
-11.1675023944
30
0.0000000000
10
23.5834457716
20
-11.1536061457
30
0.0000000000
10
23.4255770312
20
-11.1671543807
30
0.0000000000
10
23.2724820873
20
-11.2077510386
30
0.0000000000
10
23.1288489689
20
-11.2741515321
30
0.0000000000
10
22.9990262904
20
-11.3643451197
30
0.0000000000
10
22.8870010752
20
-11.4755639806
30
0.0000000000
10
22.7961576013
20
-11.6044428765
30
0.0000000000
10
22.7293802147
20
-11.7468532975
30
0.0000000000
10
22.6885773909
20
-11.8983509390
30
0.0000000000
10
22.6794318169
20
-12.0024762044
30
0.0000000000
10
22.6794318169
20
-12.0544098555
30
0.0000000000
11
24.4853452300
21
-12.0544098555
31
0.0000000000
11
24.4717034917
21
-11.8992088229
31
0.0000000000
11
24.4311759893
21
-11.7486640745
31
0.0000000000
11
24.3646229394
21
-11.6067285866
31
0.0000000000
11
24.2742368477
21
-11.4784965706
31
0.0000000000
11
24.1632480197
21
-11.3682359743
31
0.0000000000
11
24.0345568196
21
-11.2786510333
31
0.0000000000
11
23.8921678488
21
-11.2125765088
31
0.0000000000
11
23.7405192295
21
-11.1720338404
31
0.0000000000
11
23.5834482178
21
-11.1581842744
31
0.0000000000
11
23.4263225941
21
-11.1716717401
31
0.0000000000
11
23.2740065760
21
-11.2120711988
31
0.0000000000
11
23.1310590394
21
-11.2781699128
31
0.0000000000
11
23.0019234838
21
-11.3679071248
31
0.0000000000
11
22.8904514962
21
-11.4786014410
31
0.0000000000
11
22.8001200113
21
-11.6067871613
31
0.0000000000
11
22.7335947573
21
-11.7486807210
31
0.0000000000
11
22.6930739137
21
-11.8992073098
31
0.0000000000
11
22.6794318169
21
-12.0544098555
31
0.0000000000
0
SPLINE
5
39F
100
AcDbEntity
8
0
100
AcDbSpline
62
9
6
CONTINUOUS
70
0
71
3
72
25
73
21
74
19
42
0.0000001000
43
0.0000001000
44
0.0000000001
12
-0.0000000000
22
-2.8225740207
32
0.0000000000
13
-0.0000000000
23
2.8225740207
33
0.0000000000
40
0.0000000000
40
0.0000000000
40
0.0000000000
40
0.0000000000
40
0.0551976398
40
0.1104324844
40
0.1659719081
40
0.2215543694
40
0.2769817259
40
0.3325345870
40
0.3881479402
40
0.4437619140
40
0.4996259635
40
0.5554981687
40
0.6113275747
40
0.6671240932
40
0.7228370003
40
0.7784940927
40
0.8340520022
40
0.8895737947
40
0.9448018157
40
1.0000000000
40
1.0000000000
40
1.0000000000
40
1.0000000000
10
22.6794318169
20
-12.0544098555
30
0.0000000000
10
22.6794318169
20
-12.1063429969
30
0.0000000000
10
22.6885775499
20
-12.2104742046
30
0.0000000000
10
22.7293883339
20
-12.3619933557
30
0.0000000000
10
22.7961919034
20
-12.5044430431
30
0.0000000000
10
22.8869490550
20
-12.6331675485
30
0.0000000000
10
22.9987006403
20
-12.7441611874
30
0.0000000000
10
23.1280010601
20
-12.8341494491
30
0.0000000000
10
23.2710603582
20
-12.9005197426
30
0.0000000000
10
23.4236968733
20
-12.9413173159
30
0.0000000000
10
23.5813312754
20
-12.9552135652
30
0.0000000000
10
23.7392000157
20
-12.9416653302
30
0.0000000000
10
23.8922949597
20
-12.9010686724
30
0.0000000000
10
24.0359280780
20
-12.8346681786
30
0.0000000000
10
24.1657507570
20
-12.7444745911
30
0.0000000000
10
24.2777759708
20
-12.6332557292
30
0.0000000000
10
24.3686194483
20
-12.5043768334
30
0.0000000000
10
24.4353968277
20
-12.3619664126
30
0.0000000000
10
24.4761996593
20
-12.2104687733
30
0.0000000000
10
24.4853452300
20
-12.1063435091
30
0.0000000000
10
24.4853452300
20
-12.0544098555
30
0.0000000000
11
22.6794318169
21
-12.0544098555
31
0.0000000000
11
22.6930735553
21
-12.2096108979
31
0.0000000000
11
22.7336010577
21
-12.3601556259
31
0.0000000000
11
22.8001541076
21
-12.5020911232
31
0.0000000000
11
22.8905401992
21
-12.6303231375
31
0.0000000000
11
23.0015290272
21
-12.7405837349
31
0.0000000000
11
23.1302202274
21
-12.8301686764
31
0.0000000000
11
23.2726091981
21
-12.8962432015
31
0.0000000000
11
23.4242578175
21
-12.9367858701
31
0.0000000000
11
23.5813288292
21
-12.9506354364
31
0.0000000000
11
23.7384544529
21
-12.9371479708
31
0.0000000000
11
23.8907704709
21
-12.8967485121
31
0.0000000000
11
24.0337180076
21
-12.8306497980
31
0.0000000000
11
24.1628535631
21
-12.7409125859
31
0.0000000000
11
24.2743255508
21
-12.6302182689
31
0.0000000000
11
24.3646570356
21
-12.5020325498
31
0.0000000000
11
24.4311822896
21
-12.3601389839
31
0.0000000000
11
24.4717031333
21
-12.2096124090
31
0.0000000000
11
24.4853452300
21
-12.0544098555
31
0.0000000000
0
SPLINE
5
3A0
100
AcDbEntity
8
0
100
AcDbSpline
62
9
6
CONTINUOUS
70
0
71
3
72
8
73
4
74
2
42
0.0000001000
43
0.0000001000
44
0.0000000001
12
-0.0000000000
22
-0.0982390913
32
0.0000000000
13
0.0098626215
23
-0.0979026610
33
0.0000000000
40
0.0000000000
40
0.0000000000
40
0.0000000000
40
0.0000000000
40
1.0000000000
40
1.0000000000
40
1.0000000000
40
1.0000000000
10
22.5884627548
20
-12.0664831959
30
0.0000000000
10
22.5884627548
20
-12.0992295596
30
0.0000000000
10
22.5901141135
20
-12.1320174025
30
0.0000000000
10
22.5934016540
20
-12.1646516229
30
0.0000000000
11
22.5884627548
21
-12.0664831959
31
0.0000000000
11
22.5934016540
21
-12.1646516229
31
0.0000000000
0
SPLINE
5
3A1
100
AcDbEntity
8
0
100
AcDbSpline
62
9
6
CONTINUOUS
70
0
71
3
72
25
73
21
74
19
42
0.0000001000
43
0.0000001000
44
0.0000000001
12
0.2921927347
22
-2.9004911508
32
0.0000000000
13
0.2921926864
23
2.9004913267
33
0.0000000000
40
0.0000000000
40
0.0000000000
40
0.0000000000
40
0.0000000000
40
0.0251700628
40
0.0841336819
40
0.1434224560
40
0.2027571621
40
0.2619262934
40
0.3212293994
40
0.3805970798
40
0.4399654214
40
0.4996007199
40
0.5592447240
40
0.6188430395
40
0.6784062475
40
0.7378802001
40
0.7972945714
40
0.8566030636
40
0.9158730077
40
0.9748293384
40
1.0000000000
40
1.0000000000
40
1.0000000000
40
1.0000000000
10
22.5934016540
20
-12.1646516229
30
0.0000000000
10
22.5958531572
20
-12.1889868043
30
0.0000000000
10
22.6070887380
20
-12.2700442667
30
0.0000000000
10
22.6434511052
20
-12.4050548064
30
0.0000000000
10
22.7169861666
20
-12.5618552190
30
0.0000000000
10
22.8168862544
20
-12.7035484263
30
0.0000000000
10
22.9398965397
20
-12.8257240936
30
0.0000000000
10
23.0822234044
20
-12.9247783144
30
0.0000000000
10
23.2396953575
20
-12.9978350922
30
0.0000000000
10
23.4077093555
20
-13.0427428546
30
0.0000000000
10
23.5812247622
20
-13.0580390645
30
0.0000000000
10
23.7549981096
20
-13.0431259020
30
0.0000000000
10
23.9235167175
20
-12.9984392981
30
0.0000000000
10
24.0816202783
20
-12.9253492514
30
0.0000000000
10
24.2245220117
20
-12.8260690209
30
0.0000000000
10
24.3478334305
20
-12.7036454172
30
0.0000000000
10
24.4478286725
20
-12.5617823456
30
0.0000000000
10
24.5213344853
20
-12.4050250101
30
0.0000000000
10
24.5576890774
20
-12.2700383603
30
0.0000000000
10
24.5689238327
20
-12.1889873488
30
0.0000000000
10
24.5713753938
20
-12.1646515870
30
0.0000000000
11
22.5934016540
21
-12.1646516229
31
0.0000000000
11
22.6034793225
21
-12.2373199972
31
0.0000000000
11
22.6480888265
21
-12.4030317382
31
0.0000000000
11
22.7213472544
21
-12.5592664836
31
0.0000000000
11
22.8208393023
21
-12.7004173933
31
0.0000000000
11
22.9430098392
21
-12.8217862519
31
0.0000000000
11
23.0846661556
21
-12.9203964861
31
0.0000000000
11
23.2414002321
21
-12.9931277163
31
0.0000000000
11
23.4083268146
21
-13.0377548793
31
0.0000000000
11
23.5812220695
21
-13.0529997132
31
0.0000000000
11
23.7541774342
21
-13.0381534370
31
0.0000000000
11
23.9218386456
21
-12.9936839034
31
0.0000000000
11
24.0791875446
21
-12.9209260302
31
0.0000000000
11
24.2213329650
21
-12.8221481778
31
0.0000000000
11
24.3440353166
21
-12.7003019027
31
0.0000000000
11
24.4434672650
21
-12.5592019750
31
0.0000000000
11
24.5166949468
21
-12.4030133425
31
0.0000000000
11
24.5612974266
21
-12.2373216784
31
0.0000000000
11
24.5713753938
21
-12.1646515870
31
0.0000000000
0
SPLINE
5
3A2
100
AcDbEntity
8
0
100
AcDbSpline
62
9
6
CONTINUOUS
70
0
71
3
72
8
73
4
74
2
42
0.0000001000
43
0.0000001000
44
0.0000000001
12
0.0098626156
22
0.0979026251
32
0.0000000000
13
0.0000000000
23
0.0982390494
33
0.0000000000
40
0.0000000000
40
0.0000000000
40
0.0000000000
40
0.0000000000
40
1.0000000000
40
1.0000000000
40
1.0000000000
40
1.0000000000
10
24.5713753938
20
-12.1646515870
30
0.0000000000
10
24.5746629324
20
-12.1320173786
30
0.0000000000
10
24.5763142922
20
-12.0992295456
30
0.0000000000
10
24.5763142922
20
-12.0664831959
30
0.0000000000
11
24.5713753938
21
-12.1646515870
31
0.0000000000
11
24.5763142922
21
-12.0664831959
31
0.0000000000
0
SPLINE
5
3A3
100
AcDbEntity
8
0
100
AcDbSpline
62
0
6
CONTINUOUS
70
0
71
3
72
25
73
21
74
19
42
0.0000001000
43
0.0000001000
44
0.0000000001
12
0.0000000000
22
-3.1259240526
32
0.0000000000
13
0.0000000000
23
3.1259240526
33
0.0000000000
40
0.0000000000
40
0.0000000000
40
0.0000000000
40
0.0000000000
40
0.0553506764
40
0.1107260676
40
0.1661481522
40
0.2216327954
40
0.2771885879
40
0.3328154727
40
0.3885045821
40
0.4442400794
40
0.5000000000
40
0.5557599206
40
0.6114954179
40
0.6671845273
40
0.7228114121
40
0.7783672046
40
0.8338518478
40
0.8892739324
40
0.9446493236
40
1.0000000000
40
1.0000000000
40
1.0000000000
40
1.0000000000
10
24.5823885235
20
-12.2078616421
30
0.0000000000
10
24.5823885235
20
-12.2655356456
30
0.0000000000
10
24.5722034081
20
-12.3811658347
30
0.0000000000
10
24.5268398549
20
-12.5491204850
30
0.0000000000
10
24.4527727547
20
-12.7067491333
30
0.0000000000
10
24.3522595040
20
-12.8491908364
30
0.0000000000
10
24.2283610941
20
-12.9721381601
30
0.0000000000
10
24.0848471330
20
-13.0718554296
30
0.0000000000
10
23.9260798876
20
-13.1453210874
30
0.0000000000
10
23.7568817325
20
-13.1903092741
30
0.0000000000
10
23.5823885235
20
-13.2054581596
30
0.0000000000
10
23.4078953144
20
-13.1903092741
30
0.0000000000
10
23.2386971593
20
-13.1453210874
30
0.0000000000
10
23.0799299140
20
-13.0718554296
30
0.0000000000
10
22.9364159528
20
-12.9721381601
30
0.0000000000
10
22.8125175430
20
-12.8491908364
30
0.0000000000
10
22.7120042922
20
-12.7067491333
30
0.0000000000
10
22.6379371920
20
-12.5491204850
30
0.0000000000
10
22.5925736389
20
-12.3811658347
30
0.0000000000
10
22.5823885235
20
-12.2655356456
30
0.0000000000
10
22.5823885235
20
-12.2078616421
30
0.0000000000
11
24.5823885235
21
-12.2078616421
31
0.0000000000
11
24.5671962922
21
-12.3802153839
31
0.0000000000
11
24.5220812678
21
-12.5473320823
31
0.0000000000
11
24.4484139780
21
-12.7041346307
31
0.0000000000
11
24.3484329939
21
-12.8458579781
31
0.0000000000
11
24.2251760630
21
-12.9681961645
31
0.0000000000
11
24.0823881708
21
-13.0674320259
31
0.0000000000
11
23.9244084817
21
-13.1405500034
31
0.0000000000
11
23.7560363298
21
-13.1853288524
31
0.0000000000
11
23.5823885235
21
-13.2004077937
31
0.0000000000
11
23.4087407171
21
-13.1853288524
31
0.0000000000
11
23.2403685653
21
-13.1405500034
31
0.0000000000
11
23.0823888761
21
-13.0674320259
31
0.0000000000
11
22.9396009840
21
-12.9681961645
31
0.0000000000
11
22.8163440531
21
-12.8458579781
31
0.0000000000
11
22.7163630690
21
-12.7041346307
31
0.0000000000
11
22.6426957792
21
-12.5473320823
31
0.0000000000
11
22.5975807547
21
-12.3802153839
31
0.0000000000
11
22.5823885235
21
-12.2078616421
31
0.0000000000
0
SPLINE
5
3A4
100
AcDbEntity
8
0
100
AcDbSpline
62
0
6
CONTINUOUS
70
0
71
3
72
8
73
4
74
2
42
0.0000001000
43
0.0000001000
44
0.0000000001
12
-0.0201707119
22
-0.0267771963
32
0.0000000000
13
-0.0219234263
23
-0.0253693425
33
0.0000000000
40
0.0000000000
40
0.0000000000
40
0.0000000000
40
0.0000000000
40
1.0000000000
40
1.0000000000
40
1.0000000000
40
1.0000000000
10
57.0922459688
20
-21.9902110219
30
0.0000000000
10
57.0855223981
20
-21.9991367540
30
0.0000000000
10
57.0784985325
20
-22.0078369353
30
0.0000000000
10
57.0711907238
20
-22.0162933828
30
0.0000000000
11
57.0922459688
21
-21.9902110219
31
0.0000000000
11
57.0711907238
21
-22.0162933828
31
0.0000000000
0
SPLINE
5
3A5
100
AcDbEntity
8
0
100
AcDbSpline
62
0
6
CONTINUOUS
70
0
71
3
72
8
73
4
74
2
42
0.0000001000
43
0.0000001000
44
0.0000000001
12
-0.0332672053
22
-0.0384961325
32
0.0000000000
13
-0.0370186268
23
-0.0349382303
33
0.0000000000
40
0.0000000000
40
0.0000000000
40
0.0000000000
40
0.0000000000
40
1.0000000000
40
1.0000000000
40
1.0000000000
40
1.0000000000
10
57.0711907238
20
-22.0162933828
30
0.0000000000
10
57.0601016553
20
-22.0291254270
30
0.0000000000
10
57.0483587834
20
-22.0413962532
30
0.0000000000
10
57.0360192411
20
-22.0530423300
30
0.0000000000
11
57.0711907238
21
-22.0162933828
31
0.0000000000
11
57.0360192411
21
-22.0530423300
31
0.0000000000
0
SPLINE
5
3A6
100
AcDbEntity
8
0
100
AcDbSpline
62
0
6
CONTINUOUS
70
0
71
3
72
9
73
5
74
3
42
0.0000001000
43
0.0000001000
44
0.0000000001
12
-0.1109590737
22
-0.1047233246
32
0.0000000000
13
-0.1372405599
23
-0.0664903465
33
0.0000000000
40
0.0000000000
40
0.0000000000
40
0.0000000000
40
0.0000000000
40
0.3334255111
40
1.0000000000
40
1.0000000000
40
1.0000000000
40
1.0000000000
10
57.0360192411
20
-22.0530423300
30
0.0000000000
10
57.0236870458
20
-22.0646814727
30
0.0000000000
10
56.9849133021
20
-22.0977177479
30
0.0000000000
10
56.9412918796
20
-22.1245706285
30
0.0000000000
10
56.9107981943
20
-22.1393442180
30
0.0000000000
11
57.0360192411
21
-22.0530423300
31
0.0000000000
11
56.9972918063
21
-22.0860243227
31
0.0000000000
11
56.9107981943
21
-22.1393442180
31
0.0000000000
0
SPLINE
5
3A7
100
AcDbEntity
8
0
100
AcDbSpline
62
0
6
CONTINUOUS
70
0
71
3
72
8
73
4
74
2
42
0.0000001000
43
0.0000001000
44
0.0000000001
12
-0.0458767166
22
-0.0222263650
32
0.0000000000
13
-0.0477356119
23
-0.0173664327
33
0.0000000000
40
0.0000000000
40
0.0000000000
40
0.0000000000
40
0.0000000000
40
1.0000000000
40
1.0000000000
40
1.0000000000
40
1.0000000000
10
56.9107981943
20
-22.1393442180
30
0.0000000000
10
56.8955059554
20
-22.1467530064
30
0.0000000000
10
56.8798574147
20
-22.1533756704
30
0.0000000000
10
56.8639455441
20
-22.1591644813
30
0.0000000000
11
56.9107981943
21
-22.1393442180
31
0.0000000000
11
56.8639455441
21
-22.1591644813
31
0.0000000000
0
SPLINE
5
3A8
100
AcDbEntity
8
0
100
AcDbSpline
62
0
6
CONTINUOUS
70
0
71
3
72
8
73
4
74
2
42
0.0000001000
43
0.0000001000
44
0.0000000001
12
0.0066406165
22
-0.0146717855
32
0.0000000000
13
0.0061639775
23
-0.0148773127
33
0.0000000000
40
0.0000000000
40
0.0000000000
40
0.0000000000
40
0.0000000000
40
1.0000000000
40
1.0000000000
40
1.0000000000
40
1.0000000000
10
57.1879018038
20
22.3633066071
30
0.0000000000
10
57.1901153426
20
22.3584160120
30
0.0000000000
10
57.1922500987
20
22.3534899157
30
0.0000000000
10
57.1943047579
20
22.3485308115
30
0.0000000000
11
57.1879018038
21
22.3633066071
31
0.0000000000
11
57.1943047579
21
22.3485308115
31
0.0000000000
0
SPLINE
5
3A9
100
AcDbEntity
8
0
100
AcDbSpline
62
0
6
CONTINUOUS
70
0
71
3
72
9
73
5
74
3
42
0.0000001000
43
0.0000001000
44
0.0000000001
12
0.0751810997
22
-0.1814563289
32
0.0000000000
13
0.0000000000
23
-0.1961214590
33
0.0000000000
40
0.0000000000
40
0.0000000000
40
0.0000000000
40
0.0000000000
40
0.5000004355
40
1.0000000000
40
1.0000000000
40
1.0000000000
40
1.0000000000
10
57.1943047579
20
22.3485308115
30
0.0000000000
10
57.2068349521
20
22.3182880637
30
0.0000000000
10
57.2259375773
20
22.2553474342
30
0.0000000000
10
57.2323885235
20
22.1897924305
30
0.0000000000
10
57.2323885235
20
22.1571055491
30
0.0000000000
11
57.1943047579
21
22.3485308115
31
0.0000000000
11
57.2227746687
21
22.2546937847
31
0.0000000000
11
57.2323885235
21
22.1571055491
31
0.0000000000
0
SPLINE
5
3AA
100
AcDbEntity
8
0
100
AcDbSpline
62
0
6
CONTINUOUS
70
0
71
3
72
9
73
5
74
3
42
0.0000001000
43
0.0000001000
44
0.0000000001
12
0.0349646138
22
-0.0472049274
32
0.0000000000
13
0.0291833821
23
-0.0509949250
33
0.0000000000
40
0.0000000000
40
0.0000000000
40
0.0000000000
40
0.0000000000
40
0.1150315247
40
1.0000000000
40
1.0000000000
40
1.0000000000
40
1.0000000000
10
57.1120944108
20
22.5130335414
30
0.0000000000
10
57.1134350884
20
22.5112235232
30
0.0000000000
10
57.1249830785
20
22.4954094785
30
0.0000000000
10
57.1355916194
20
22.4789191621
30
0.0000000000
10
57.1442004104
20
22.4638761950
30
0.0000000000
11
57.1120944108
21
22.5130335414
31
0.0000000000
11
57.1160794232
21
22.5075763472
31
0.0000000000
11
57.1442004104
21
22.4638761950
31
0.0000000000
0
SPLINE
5
3AB
100
AcDbEntity
8
0
100
AcDbSpline
62
0
6
CONTINUOUS
70
0
71
3
72
8
73
4
74
2
42
0.0000001000
43
0.0000001000
44
0.0000000001
12
0.0258176232
22
-0.0451136113
32
0.0000000000
13
0.0210132687
23
-0.0475691331
33
0.0000000000
40
0.0000000000
40
0.0000000000
40
0.0000000000
40
0.0000000000
40
1.0000000000
40
1.0000000000
40
1.0000000000
40
1.0000000000
10
57.1442004104
20
22.4638761950
30
0.0000000000
10
57.1528062848
20
22.4488383246
30
0.0000000000
10
57.1606332541
20
22.4333512020
30
0.0000000000
10
57.1676376770
20
22.4174948243
30
0.0000000000
11
57.1442004104
21
22.4638761950
31
0.0000000000
11
57.1676376770
21
22.4174948243
31
0.0000000000
0
SPLINE
5
3AC
100
AcDbEntity
8
0
100
AcDbSpline
62
0
6
CONTINUOUS
70
0
71
3
72
8
73
4
74
2
42
0.0000001000
43
0.0000001000
44
0.0000000001
12
0.0210003890
22
-0.0475399765
32
0.0000000000
13
0.0159404762
23
-0.0495132413
33
0.0000000000
40
0.0000000000
40
0.0000000000
40
0.0000000000
40
0.0000000000
40
1.0000000000
40
1.0000000000
40
1.0000000000
40
1.0000000000
10
57.1676376770
20
22.4174948243
30
0.0000000000
10
57.1746378066
20
22.4016481655
30
0.0000000000
10
57.1808163980
20
22.3854327041
30
0.0000000000
10
57.1861298901
20
22.3689282903
30
0.0000000000
11
57.1676376770
21
22.4174948243
31
0.0000000000
11
57.1861298901
21
22.3689282903
31
0.0000000000
0
SPLINE
5
3AD
100
AcDbEntity
8
0
100
AcDbSpline
62
0
6
CONTINUOUS
70
0
71
3
72
8
73
4
74
2
42
0.0000001000
43
0.0000001000
44
0.0000000001
12
0.0478502078
22
-0.1486291155
32
0.0000000000
13
-0.0000639003
23
-0.1553518627
33
0.0000000000
40
0.0000000000
40
0.0000000000
40
0.0000000000
40
0.0000000000
40
1.0000000000
40
1.0000000000
40
1.0000000000
40
1.0000000000
10
57.1861298901
20
22.3689282903
30
0.0000000000
10
57.2020799593
20
22.3193852518
30
0.0000000000
10
57.2102347610
20
22.2672385109
30
0.0000000000
10
57.2102134610
20
22.2154545566
30
0.0000000000
11
57.1861298901
21
22.3689282903
31
0.0000000000
11
57.2102134610
21
22.2154545566
31
0.0000000000
0
SPLINE
5
3AE
100
AcDbEntity
8
0
100
AcDbSpline
62
0
6
CONTINUOUS
70
0
71
3
72
8
73
4
74
2
42
0.0000001000
43
0.0000001000
44
0.0000000001
12
0.0064409981
22
-0.0087855876
32
0.0000000000
13
0.0062470563
23
-0.0089243961
33
0.0000000000
40
0.0000000000
40
0.0000000000
40
0.0000000000
40
0.0000000000
40
1.0000000000
40
1.0000000000
40
1.0000000000
40
1.0000000000
10
57.0961046749
20
22.5345969111
30
0.0000000000
10
57.0982516743
20
22.5316683819
30
0.0000000000
10
57.1003666305
20
22.5287164060
30
0.0000000000
10
57.1024489826
20
22.5257416073
30
0.0000000000
11
57.0961046749
21
22.5345969111
31
0.0000000000
11
57.1024489826
21
22.5257416073
31
0.0000000000
0
SPLINE
5
3AF
100
AcDbEntity
8
0
100
AcDbSpline
62
0
6
CONTINUOUS
70
0
71
3
72
9
73
5
74
3
42
0.0000001000
43
0.0000001000
44
0.0000000001
12
0.1750219285
22
-0.2500321650
32
0.0000000000
13
-0.0001263925
23
-0.3041680844
33
0.0000000000
40
0.0000000000
40
0.0000000000
40
0.0000000000
40
0.0000000000
40
0.4999800511
40
1.0000000000
40
1.0000000000
40
1.0000000000
40
1.0000000000
10
57.1024489826
20
22.5257416073
30
0.0000000000
10
57.1316181402
20
22.4840712425
30
0.0000000000
10
57.1771632015
20
22.3917703403
30
0.0000000000
10
57.1927830095
20
22.2897000715
30
0.0000000000
10
57.1927619432
20
22.2390033682
30
0.0000000000
11
57.1024489826
21
22.5257416073
31
0.0000000000
11
57.1696806680
21
22.3893318761
31
0.0000000000
11
57.1927619432
21
22.2390033682
31
0.0000000000
0
SPLINE
5
3B0
100
AcDbEntity
8
0
100
AcDbSpline
62
0
6
CONTINUOUS
70
0
71
3
72
11
73
7
74
5
42
0.0000001000
43
0.0000001000
44
0.0000000001
12
-0.2777975874
22
0.2777975879
32
0.0000000000
13
-0.3922423374
23
0.0000000000
33
0.0000000000
40
0.0000000000
40
0.0000000000
40
0.0000000000
40
0.0000000000
40
0.2499994775
40
0.4999992599
40
0.7499998477
40
1.0000000000
40
1.0000000000
40
1.0000000000
40
1.0000000000
10
57.0335005559
20
22.5631764503
30
0.0000000000
10
57.0103508054
20
22.5863262009
30
0.0000000000
10
56.9594928535
20
22.6280673080
30
0.0000000000
10
56.8724476035
20
22.6745943629
30
0.0000000000
10
56.7780367333
20
22.7032482782
30
0.0000000000
10
56.7124817296
20
22.7096992244
30
0.0000000000
10
56.6797948482
20
22.7096992244
30
0.0000000000
11
57.0335005559
21
22.5631764503
31
0.0000000000
11
56.9576998515
21
22.6253865083
31
0.0000000000
11
56.8712201106
21
22.6716154588
31
0.0000000000
11
56.7773830838
21
22.7000853696
31
0.0000000000
11
56.6797948482
21
22.7096992244
31
0.0000000000
0
SPLINE
5
3B1
100
AcDbEntity
8
0
100
AcDbSpline
62
0
6
CONTINUOUS
70
0
71
3
72
8
73
4
74
2
42
0.0000001000
43
0.0000001000
44
0.0000000001
12
-0.0066406165
22
0.0146717855
32
0.0000000000
13
-0.0061639775
23
0.0148773127
33
0.0000000000
40
0.0000000000
40
0.0000000000
40
0.0000000000
40
0.0000000000
40
1.0000000000
40
1.0000000000
40
1.0000000000
40
1.0000000000
10
34.9768752432
20
-21.8137284181
30
0.0000000000
10
34.9746617044
20
-21.8088378229
30
0.0000000000
10
34.9725269482
20
-21.8039117266
30
0.0000000000
10
34.9704722891
20
-21.7989526224
30
0.0000000000
11
34.9768752432
21
-21.8137284181
31
0.0000000000
11
34.9704722891
21
-21.7989526224
31
0.0000000000
0
SPLINE
5
3B2
100
AcDbEntity
8
0
100
AcDbSpline
62
0
6
CONTINUOUS
70
0
71
3
72
9
73
5
74
3
42
0.0000001000
43
0.0000001000
44
0.0000000001
12
-0.0751810997
22
0.1814563289
32
0.0000000000
13
0.0000000000
23
0.1961214590
33
0.0000000000
40
0.0000000000
40
0.0000000000
40
0.0000000000
40
0.0000000000
40
0.5000004355
40
1.0000000000
40
1.0000000000
40
1.0000000000
40
1.0000000000
10
34.9704722891
20
-21.7989526224
30
0.0000000000
10
34.9579420949
20
-21.7687098746
30
0.0000000000
10
34.9388394697
20
-21.7057692451
30
0.0000000000
10
34.9323885235
20
-21.6402142414
30
0.0000000000
10
34.9323885235
20
-21.6075273601
30
0.0000000000
11
34.9704722891
21
-21.7989526224
31
0.0000000000
11
34.9420023783
21
-21.7051155956
31
0.0000000000
11
34.9323885235
21
-21.6075273601
31
0.0000000000
0
SPLINE
5
3B3
100
AcDbEntity
8
0
100
AcDbSpline
62
0
6
CONTINUOUS
70
0
71
3
72
9
73
5
74
3
42
0.0000001000
43
0.0000001000
44
0.0000000001
12
-0.0349646138
22
0.0472049274
32
0.0000000000
13
-0.0291833821
23
0.0509949250
33
0.0000000000
40
0.0000000000
40
0.0000000000
40
0.0000000000
40
0.0000000000
40
0.1150315246
40
1.0000000000
40
1.0000000000
40
1.0000000000
40
1.0000000000
10
35.0526826362
20
-21.9634553523
30
0.0000000000
10
35.0513419586
20
-21.9616453341
30
0.0000000000
10
35.0397939685
20
-21.9458312895
30
0.0000000000
10
35.0291854276
20
-21.9293409730
30
0.0000000000
10
35.0205766365
20
-21.9142980060
30
0.0000000000
11
35.0526826362
21
-21.9634553523
31
0.0000000000
11
35.0486976238
21
-21.9579981582
31
0.0000000000
11
35.0205766365
21
-21.9142980060
31
0.0000000000
0
SPLINE
5
3B4
100
AcDbEntity
8
0
100
AcDbSpline
62
0
6
CONTINUOUS
70
0
71
3
72
8
73
4
74
2
42
0.0000001000
43
0.0000001000
44
0.0000000001
12
-0.0258176232
22
0.0451136113
32
0.0000000000
13
-0.0210132687
23
0.0475691331
33
0.0000000000
40
0.0000000000
40
0.0000000000
40
0.0000000000
40
0.0000000000
40
1.0000000000
40
1.0000000000
40
1.0000000000
40
1.0000000000
10
35.0205766365
20
-21.9142980060
30
0.0000000000
10
35.0119707621
20
-21.8992601355
30
0.0000000000
10
35.0041437929
20
-21.8837730129
30
0.0000000000
10
34.9971393700
20
-21.8679166352
30
0.0000000000
11
35.0205766365
21
-21.9142980060
31
0.0000000000
11
34.9971393700
21
-21.8679166352
31
0.0000000000
0
SPLINE
5
3B5
100
AcDbEntity
8
0
100
AcDbSpline
62
0
6
CONTINUOUS
70
0
71
3
72
8
73
4
74
2
42
0.0000001000
43
0.0000001000
44
0.0000000001
12
-0.0210003890
22
0.0475399765
32
0.0000000000
13
-0.0159404762
23
0.0495132413
33
0.0000000000
40
0.0000000000
40
0.0000000000
40
0.0000000000
40
0.0000000000
40
1.0000000000
40
1.0000000000
40
1.0000000000
40
1.0000000000
10
34.9971393700
20
-21.8679166352
30
0.0000000000
10
34.9901392403
20
-21.8520699764
30
0.0000000000
10
34.9839606490
20
-21.8358545150
30
0.0000000000
10
34.9786471569
20
-21.8193501012
30
0.0000000000
11
34.9971393700
21
-21.8679166352
31
0.0000000000
11
34.9786471569
21
-21.8193501012
31
0.0000000000
0
SPLINE
5
3B6
100
AcDbEntity
8
0
100
AcDbSpline
62
0
6
CONTINUOUS
70
0
71
3
72
8
73
4
74
2
42
0.0000001000
43
0.0000001000
44
0.0000000001
12
-0.0478502078
22
0.1486291155
32
0.0000000000
13
0.0000639003
23
0.1553518627
33
0.0000000000
40
0.0000000000
40
0.0000000000
40
0.0000000000
40
0.0000000000
40
1.0000000000
40
1.0000000000
40
1.0000000000
40
1.0000000000
10
34.9786471569
20
-21.8193501012
30
0.0000000000
10
34.9626970876
20
-21.7698070628
30
0.0000000000
10
34.9545422859
20
-21.7176603218
30
0.0000000000
10
34.9545635860
20
-21.6658763676
30
0.0000000000
11
34.9786471569
21
-21.8193501012
31
0.0000000000
11
34.9545635860
21
-21.6658763676
31
0.0000000000
0
SPLINE
5
3B7
100
AcDbEntity
8
0
100
AcDbSpline
62
0
6
CONTINUOUS
70
0
71
3
72
8
73
4
74
2
42
0.0000001000
43
0.0000001000
44
0.0000000001
12
-0.0064409981
22
0.0087855876
32
0.0000000000
13
-0.0062470563
23
0.0089243961
33
0.0000000000
40
0.0000000000
40
0.0000000000
40
0.0000000000
40
0.0000000000
40
1.0000000000
40
1.0000000000
40
1.0000000000
40
1.0000000000
10
35.0686723721
20
-21.9850187221
30
0.0000000000
10
35.0665253727
20
-21.9820901929
30
0.0000000000
10
35.0644104164
20
-21.9791382170
30
0.0000000000
10
35.0623280643
20
-21.9761634183
30
0.0000000000
11
35.0686723721
21
-21.9850187221
31
0.0000000000
11
35.0623280643
21
-21.9761634183
31
0.0000000000
0
SPLINE
5
3B8
100
AcDbEntity
8
0
100
AcDbSpline
62
0
6
CONTINUOUS
70
0
71
3
72
9
73
5
74
3
42
0.0000001000
43
0.0000001000
44
0.0000000001
12
-0.1750219285
22
0.2500321650
32
0.0000000000
13
0.0001263925
23
0.3041680844
33
0.0000000000
40
0.0000000000
40
0.0000000000
40
0.0000000000
40
0.0000000000
40
0.4999800511
40
1.0000000000
40
1.0000000000
40
1.0000000000
40
1.0000000000
10
35.0623280643
20
-21.9761634183
30
0.0000000000
10
35.0331589067
20
-21.9344930534
30
0.0000000000
10
34.9876138454
20
-21.8421921512
30
0.0000000000
10
34.9719940375
20
-21.7401218825
30
0.0000000000
10
34.9720151037
20
-21.6894251791
30
0.0000000000
11
35.0623280643
21
-21.9761634183
31
0.0000000000
11
34.9950963790
21
-21.8397536870
31
0.0000000000
11
34.9720151037
21
-21.6894251791
31
0.0000000000
0
SPLINE
5
3B9
100
AcDbEntity
8
0
100
AcDbSpline
62
0
6
CONTINUOUS
70
0
71
3
72
11
73
7
74
5
42
0.0000001000
43
0.0000001000
44
0.0000000001
12
0.2777975874
22
-0.2777975879
32
0.0000000000
13
0.3922423374
23
0.0000000000
33
0.0000000000
40
0.0000000000
40
0.0000000000
40
0.0000000000
40
0.0000000000
40
0.2499994775
40
0.4999992599
40
0.7499998477
40
1.0000000000
40
1.0000000000
40
1.0000000000
40
1.0000000000
10
35.1312764910
20
-22.0135982612
30
0.0000000000
10
35.1544262416
20
-22.0367480118
30
0.0000000000
10
35.2052841935
20
-22.0784891189
30
0.0000000000
10
35.2923294434
20
-22.1250161738
30
0.0000000000
10
35.3867403137
20
-22.1536700891
30
0.0000000000
10
35.4522953174
20
-22.1601210353
30
0.0000000000
10
35.4849821987
20
-22.1601210353
30
0.0000000000
11
35.1312764910
21
-22.0135982612
31
0.0000000000
11
35.2070771954
21
-22.0758083192
31
0.0000000000
11
35.2935569364
21
-22.1220372697
31
0.0000000000
11
35.3873939632
21
-22.1505071805
31
0.0000000000
11
35.4849821987
21
-22.1601210353
31
0.0000000000
0
SPLINE
5
3BA
100
AcDbEntity
8
0
100
AcDbSpline
62
0
6
CONTINUOUS
70
0
71
3
72
8
73
4
74
2
42
0.0000001000
43
0.0000001000
44
0.0000000001
12
0.0384178308
22
0.0350014015
32
0.0000000000
13
0.0418948896
23
0.0308292201
33
0.0000000000
40
0.0000000000
40
0.0000000000
40
0.0000000000
40
0.0000000000
40
1.0000000000
40
1.0000000000
40
1.0000000000
40
1.0000000000
10
35.1177606279
20
22.5850578981
30
0.0000000000
10
35.1305665715
20
22.5967250319
30
0.0000000000
10
35.1439829708
20
22.6077301306
30
0.0000000000
10
35.1579479341
20
22.6180065373
30
0.0000000000
11
35.1177606279
21
22.5850578981
31
0.0000000000
11
35.1579479341
21
22.6180065373
31
0.0000000000
0
SPLINE
5
3BB
100
AcDbEntity
8
0
100
AcDbSpline
62
0
6
CONTINUOUS
70
0
71
3
72
9
73
5
74
3
42
0.0000001000
43
0.0000001000
44
0.0000000001
12
0.0000000000
22
-0.1961213137
32
0.0000000000
13
-0.0751809908
23
-0.1814562158
33
0.0000000000
40
0.0000000000
40
0.0000000000
40
0.0000000000
40
0.0000000000
40
0.4999997011
40
1.0000000000
40
1.0000000000
40
1.0000000000
40
1.0000000000
10
57.2323885235
20
-21.6075273601
30
0.0000000000
10
57.2323885235
20
-21.6402142262
30
0.0000000000
10
57.2259375851
20
-21.7057691812
30
0.0000000000
10
57.2068349864
20
-21.7687097669
30
0.0000000000
10
57.1943048138
20
-21.7989524876
30
0.0000000000
11
57.2323885235
21
-21.6075273601
31
0.0000000000
11
57.2227746776
21
-21.7051155504
31
0.0000000000
11
57.1943048138
21
-21.7989524876
31
0.0000000000
0
SPLINE
5
3BC
100
AcDbEntity
8
0
100
AcDbSpline
62
0
6
CONTINUOUS
70
0
71
3
72
8
73
4
74
2
42
0.0000001000
43
0.0000001000
44
0.0000000001
12
-0.0051970411
22
-0.0125435354
32
0.0000000000
13
-0.0055363097
23
-0.0123982662
33
0.0000000000
40
0.0000000000
40
0.0000000000
40
0.0000000000
40
0.0000000000
40
1.0000000000
40
1.0000000000
40
1.0000000000
40
1.0000000000
10
57.1943048138
20
-21.7989524876
30
0.0000000000
10
57.1925724667
20
-21.8031336660
30
0.0000000000
10
57.1907831810
20
-21.8072913801
30
0.0000000000
10
57.1889377445
20
-21.8114241355
30
0.0000000000
11
57.1943048138
21
-21.7989524876
31
0.0000000000
11
57.1889377445
21
-21.8114241355
31
0.0000000000
0
SPLINE
5
3BD
100
AcDbEntity
8
0
100
AcDbSpline
62
0
6
CONTINUOUS
70
0
71
3
72
8
73
4
74
2
42
0.0000001000
43
0.0000001000
44
0.0000000001
12
0.0000631258
22
-0.1553522067
32
0.0000000000
13
-0.0478505589
23
-0.1486293504
33
0.0000000000
40
0.0000000000
40
0.0000000000
40
0.0000000000
40
0.0000000000
40
1.0000000000
40
1.0000000000
40
1.0000000000
40
1.0000000000
10
57.2102152907
20
-21.6658729825
30
0.0000000000
10
57.2102363326
20
-21.7176570514
30
0.0000000000
10
57.2020813376
20
-21.7698038581
30
0.0000000000
10
57.1861311513
20
-21.8193469749
30
0.0000000000
11
57.2102152907
21
-21.6658729825
31
0.0000000000
11
57.1861311513
21
-21.8193469749
31
0.0000000000
0
SPLINE
5
3BE
100
AcDbEntity
8
0
100
AcDbSpline
62
0
6
CONTINUOUS
70
0
71
3
72
8
73
4
74
2
42
0.0000001000
43
0.0000001000
44
0.0000000001
12
-0.0159405922
22
-0.0495133165
32
0.0000000000
13
-0.0210004588
23
-0.0475400632
33
0.0000000000
40
0.0000000000
40
0.0000000000
40
0.0000000000
40
0.0000000000
40
1.0000000000
40
1.0000000000
40
1.0000000000
40
1.0000000000
10
57.1861311513
20
-21.8193469749
30
0.0000000000
10
57.1808176205
20
-21.8358514137
30
0.0000000000
10
57.1746389991
20
-21.8520669016
30
0.0000000000
10
57.1676388462
20
-21.8679135893
30
0.0000000000
11
57.1861311513
21
-21.8193469749
31
0.0000000000
11
57.1676388462
21
-21.8679135893
31
0.0000000000
0
SPLINE
5
3BF
100
AcDbEntity
8
0
100
AcDbSpline
62
0
6
CONTINUOUS
70
0
71
3
72
9
73
5
74
3
42
0.0000001000
43
0.0000001000
44
0.0000000001
12
-0.0447496063
22
-0.1013025065
32
0.0000000000
13
-0.0658651189
23
-0.0889385141
33
0.0000000000
40
0.0000000000
40
0.0000000000
40
0.0000000000
40
0.0000000000
40
0.9393105390
40
1.0000000000
40
1.0000000000
40
1.0000000000
40
1.0000000000
10
57.1676388462
20
-21.8679135893
30
0.0000000000
10
57.1536275872
20
-21.8996317600
30
0.0000000000
10
57.1352071310
20
-21.9318262897
30
0.0000000000
10
57.1134522501
20
-21.9616205101
30
0.0000000000
10
57.1121198106
20
-21.9634197203
30
0.0000000000
11
57.1676388462
21
-21.8679135893
31
0.0000000000
11
57.1160805527
21
-21.9579952789
31
0.0000000000
11
57.1121198106
21
-21.9634197203
31
0.0000000000
0
SPLINE
5
3C0
100
AcDbEntity
8
0
100
AcDbSpline
62
0
6
CONTINUOUS
70
0
71
3
72
10
73
6
74
4
42
0.0000001000
43
0.0000001000
44
0.0000000001
12
0.0001309039
22
-0.3150247530
32
0.0000000000
13
-0.1868965360
23
-0.2549287980
33
0.0000000000
40
0.0000000000
40
0.0000000000
40
0.0000000000
40
0.0000000000
40
0.4827878083
40
0.9655370938
40
1.0000000000
40
1.0000000000
40
1.0000000000
40
1.0000000000
10
57.1927619432
20
-21.6894251791
30
0.0000000000
10
57.1927830095
20
-21.7401218825
30
0.0000000000
10
57.1771632015
20
-21.8421921512
30
0.0000000000
10
57.1299925008
20
-21.9377875486
30
0.0000000000
10
57.0982516744
20
-21.9820901926
30
0.0000000000
10
57.0961046752
20
-21.9850187217
30
0.0000000000
11
57.1927619432
21
-21.6894251791
31
0.0000000000
11
57.1696806680
21
-21.8397536871
31
0.0000000000
11
57.1024489826
21
-21.9761634183
31
0.0000000000
11
57.0961046752
21
-21.9850187217
31
0.0000000000
0
SPLINE
5
3C1
100
AcDbEntity
8
0
100
AcDbSpline
62
0
6
CONTINUOUS
70
0
71
3
72
11
73
7
74
5
42
0.0000001000
43
0.0000001000
44
0.0000000001
12
0.3922423365
22
0.0000000000
32
0.0000000000
13
0.2777975873
23
0.2777975867
33
0.0000000000
40
0.0000000000
40
0.0000000000
40
0.0000000000
40
0.0000000000
40
0.2500000360
40
0.5000003710
40
0.7499998934
40
1.0000000000
40
1.0000000000
40
1.0000000000
40
1.0000000000
10
56.6797948482
20
-22.1601210353
30
0.0000000000
10
56.7124817143
20
-22.1601210353
30
0.0000000000
10
56.7780366693
20
-22.1536700969
30
0.0000000000
10
56.8724474644
20
-22.1250162242
30
0.0000000000
10
56.9594927448
20
-22.0784891972
30
0.0000000000
10
57.0103507458
20
-22.0367480713
30
0.0000000000
10
57.0335005546
20
-22.0135982626
30
0.0000000000
11
56.6797948482
21
-22.1601210353
31
0.0000000000
11
56.7773830386
21
-22.1505071895
31
0.0000000000
11
56.8712199757
21
-22.1220373256
31
0.0000000000
11
56.9576996448
21
-22.0758084574
31
0.0000000000
11
57.0335005546
21
-22.0135982626
31
0.0000000000
0
SPLINE
5
3C2
100
AcDbEntity
8
0
100
AcDbSpline
62
0
6
CONTINUOUS
70
0
71
3
72
8
73
4
74
2
42
0.0000001000
43
0.0000001000
44
0.0000000001
12
0.0058907169
22
-0.0075535693
32
0.0000000000
13
0.0057443322
23
-0.0076652095
33
0.0000000000
40
0.0000000000
40
0.0000000000
40
0.0000000000
40
0.0000000000
40
1.0000000000
40
1.0000000000
40
1.0000000000
40
1.0000000000
10
57.1046119931
20
22.5228775088
30
0.0000000000
10
57.1065755654
20
22.5203596524
30
0.0000000000
10
57.1085149344
20
22.5178229802
30
0.0000000000
10
57.1104297118
20
22.5152679104
30
0.0000000000
11
57.1046119931
21
22.5228775088
31
0.0000000000
11
57.1104297118
21
22.5152679104
31
0.0000000000
0
SPLINE
5
3C3
100
AcDbEntity
8
0
100
AcDbSpline
62
0
6
CONTINUOUS
70
0
71
3
72
8
73
4
74
2
42
0.0000001000
43
0.0000001000
44
0.0000000001
12
0.0477356119
22
-0.0173664327
32
0.0000000000
13
0.0458767166
23
-0.0222263650
33
0.0000000000
40
0.0000000000
40
0.0000000000
40
0.0000000000
40
0.0000000000
40
1.0000000000
40
1.0000000000
40
1.0000000000
40
1.0000000000
10
56.8639455441
20
22.7087426704
30
0.0000000000
10
56.8798574147
20
22.7029538595
30
0.0000000000
10
56.8955059554
20
22.6963311954
30
0.0000000000
10
56.9107981943
20
22.6889224071
30
0.0000000000
11
56.8639455441
21
22.7087426704
31
0.0000000000
11
56.9107981943
21
22.6889224071
31
0.0000000000
0
SPLINE
5
3C4
100
AcDbEntity
8
0
100
AcDbSpline
62
0
6
CONTINUOUS
70
0
71
3
72
9
73
5
74
3
42
0.0000001000
43
0.0000001000
44
0.0000000001
12
0.1830273253
22
-0.0886731319
32
0.0000000000
13
0.1329818246
23
-0.1538838594
33
0.0000000000
40
0.0000000000
40
0.0000000000
40
0.0000000000
40
0.0000000000
40
0.4998218486
40
1.0000000000
40
1.0000000000
40
1.0000000000
40
1.0000000000
10
56.9107981943
20
22.6889224071
30
0.0000000000
10
56.9412918796
20
22.6741488175
30
0.0000000000
10
56.9994664621
20
22.6383371674
30
0.0000000000
10
57.0490191894
20
22.5915280200
30
0.0000000000
10
57.0711907238
20
22.5658715719
30
0.0000000000
11
56.9107981943
21
22.6889224071
31
0.0000000000
11
56.9972918063
21
22.6356025117
31
0.0000000000
11
57.0711907238
21
22.5658715719
31
0.0000000000
0
SPLINE
5
3C5
100
AcDbEntity
8
0
100
AcDbSpline
62
0
6
CONTINUOUS
70
0
71
3
72
8
73
4
74
2
42
0.0000001000
43
0.0000001000
44
0.0000000001
12
0.0212387299
22
-0.0245770257
32
0.0000000000
13
0.0195952227
23
-0.0258999134
33
0.0000000000
40
0.0000000000
40
0.0000000000
40
0.0000000000
40
0.0000000000
40
1.0000000000
40
1.0000000000
40
1.0000000000
40
1.0000000000
10
57.0711907238
20
22.5658715719
30
0.0000000000
10
57.0782703004
20
22.5576792300
30
0.0000000000
10
57.0850833927
20
22.5492581408
30
0.0000000000
10
57.0916151336
20
22.5406248363
30
0.0000000000
11
57.0711907238
21
22.5658715719
31
0.0000000000
11
57.0916151336
21
22.5406248363
31
0.0000000000
0
SPLINE
5
3C6
100
AcDbEntity
8
0
100
AcDbSpline
62
0
6
CONTINUOUS
70
0
71
3
72
8
73
4
74
2
42
0.0000001000
43
0.0000001000
44
0.0000000001
12
-0.0058907169
22
0.0075535693
32
0.0000000000
13
-0.0057443322
23
0.0076652095
33
0.0000000000
40
0.0000000000
40
0.0000000000
40
0.0000000000
40
0.0000000000
40
1.0000000000
40
1.0000000000
40
1.0000000000
40
1.0000000000
10
35.0601650538
20
-21.9732993198
30
0.0000000000
10
35.0582014815
20
-21.9707814633
30
0.0000000000
10
35.0562621126
20
-21.9682447911
30
0.0000000000
10
35.0543473352
20
-21.9656897213
30
0.0000000000
11
35.0601650538
21
-21.9732993198
31
0.0000000000
11
35.0543473352
21
-21.9656897213
31
0.0000000000
0
SPLINE
5
3C7
100
AcDbEntity
8
0
100
AcDbSpline
62
0
6
CONTINUOUS
70
0
71
3
72
8
73
4
74
2
42
0.0000001000
43
0.0000001000
44
0.0000000001
12
-0.0477356119
22
0.0173664327
32
0.0000000000
13
-0.0458767166
23
0.0222263650
33
0.0000000000
40
0.0000000000
40
0.0000000000
40
0.0000000000
40
0.0000000000
40
1.0000000000
40
1.0000000000
40
1.0000000000
40
1.0000000000
10
35.3008315029
20
-22.1591644813
30
0.0000000000
10
35.2849196322
20
-22.1533756704
30
0.0000000000
10
35.2692710916
20
-22.1467530064
30
0.0000000000
10
35.2539788527
20
-22.1393442180
30
0.0000000000
11
35.3008315029
21
-22.1591644813
31
0.0000000000
11
35.2539788527
21
-22.1393442180
31
0.0000000000
0
SPLINE
5
3C8
100
AcDbEntity
8
0
100
AcDbSpline
62
0
6
CONTINUOUS
70
0
71
3
72
9
73
5
74
3
42
0.0000001000
43
0.0000001000
44
0.0000000001
12
-0.1830273253
22
0.0886731319
32
0.0000000000
13
-0.1329818246
23
0.1538838594
33
0.0000000000
40
0.0000000000
40
0.0000000000
40
0.0000000000
40
0.0000000000
40
0.4998218486
40
1.0000000000
40
1.0000000000
40
1.0000000000
40
1.0000000000
10
35.2539788527
20
-22.1393442180
30
0.0000000000
10
35.2234851673
20
-22.1245706284
30
0.0000000000
10
35.1653105848
20
-22.0887589783
30
0.0000000000
10
35.1157578576
20
-22.0419498309
30
0.0000000000
10
35.0935863232
20
-22.0162933828
30
0.0000000000
11
35.2539788527
21
-22.1393442180
31
0.0000000000
11
35.1674852407
21
-22.0860243227
31
0.0000000000
11
35.0935863232
21
-22.0162933828
31
0.0000000000
0
SPLINE
5
3C9
100
AcDbEntity
8
0
100
AcDbSpline
62
0
6
CONTINUOUS
70
0
71
3
72
8
73
4
74
2
42
0.0000001000
43
0.0000001000
44
0.0000000001
12
-0.0212387299
22
0.0245770257
32
0.0000000000
13
-0.0195952227
23
0.0258999134
33
0.0000000000
40
0.0000000000
40
0.0000000000
40
0.0000000000
40
0.0000000000
40
1.0000000000
40
1.0000000000
40
1.0000000000
40
1.0000000000
10
35.0935863232
20
-22.0162933828
30
0.0000000000
10
35.0865067466
20
-22.0081010409
30
0.0000000000
10
35.0796936543
20
-21.9996799517
30
0.0000000000
10
35.0731619133
20
-21.9910466472
30
0.0000000000
11
35.0935863232
21
-22.0162933828
31
0.0000000000
11
35.0731619133
21
-21.9910466472
31
0.0000000000
0
SPLINE
5
3CA
100
AcDbEntity
8
0
100
AcDbSpline
62
0
6
CONTINUOUS
70
0
71
3
72
9
73
5
74
3
42
0.0000001000
43
0.0000001000
44
0.0000000001
12
0.0000000000
22
0.1961213137
32
0.0000000000
13
0.0751809908
23
0.1814562158
33
0.0000000000
40
0.0000000000
40
0.0000000000
40
0.0000000000
40
0.0000000000
40
0.4999997011
40
1.0000000000
40
1.0000000000
40
1.0000000000
40
1.0000000000
10
34.9323885235
20
22.1571055491
30
0.0000000000
10
34.9323885235
20
22.1897924152
30
0.0000000000
10
34.9388394619
20
22.2553473702
30
0.0000000000
10
34.9579420606
20
22.3182879559
30
0.0000000000
10
34.9704722332
20
22.3485306767
30
0.0000000000
11
34.9323885235
21
22.1571055491
31
0.0000000000
11
34.9420023693
21
22.2546937395
31
0.0000000000
11
34.9704722332
21
22.3485306767
31
0.0000000000
0
SPLINE
5
3CB
100
AcDbEntity
8
0
100
AcDbSpline
62
0
6
CONTINUOUS
70
0
71
3
72
8
73
4
74
2
42
0.0000001000
43
0.0000001000
44
0.0000000001
12
0.0052270958
22
0.0126160751
32
0.0000000000
13
0.0055702859
23
0.0124690946
33
0.0000000000
40
0.0000000000
40
0.0000000000
40
0.0000000000
40
0.0000000000
40
1.0000000000
40
1.0000000000
40
1.0000000000
40
1.0000000000
10
34.9704722332
20
22.3485306767
30
0.0000000000
10
34.9722145985
20
22.3527360350
30
0.0000000000
10
34.9740145628
20
22.3569176568
30
0.0000000000
10
34.9758713248
20
22.3610740217
30
0.0000000000
11
34.9704722332
21
22.3485306767
31
0.0000000000
11
34.9758713248
21
22.3610740217
31
0.0000000000
0
SPLINE
5
3CC
100
AcDbEntity
8
0
100
AcDbSpline
62
0
6
CONTINUOUS
70
0
71
3
72
9
73
5
74
3
42
0.0000001000
43
0.0000001000
44
0.0000000001
12
0.0646228966
22
0.1310406051
32
0.0000000000
13
0.0996034891
23
0.1068954191
33
0.0000000000
40
0.0000000000
40
0.0000000000
40
0.0000000000
40
0.0000000000
40
0.4484552213
40
1.0000000000
40
1.0000000000
40
1.0000000000
40
1.0000000000
10
34.9839643340
20
22.3783027313
30
0.0000000000
10
34.9936244924
20
22.3978913458
30
0.0000000000
10
35.0180232626
20
22.4401664705
30
0.0000000000
10
35.0483545317
20
22.4784736541
30
0.0000000000
10
35.0666664598
20
22.4981261909
30
0.0000000000
11
34.9839643340
21
22.3783027313
31
0.0000000000
11
35.0167011014
21
22.4350103457
31
0.0000000000
11
35.0666664598
21
22.4981261909
31
0.0000000000
0
SPLINE
5
3CD
100
AcDbEntity
8
0
100
AcDbSpline
62
0
6
CONTINUOUS
70
0
71
3
72
10
73
6
74
4
42
0.0000001000
43
0.0000001000
44
0.0000000001
12
-0.0001295210
22
0.3160926900
32
0.0000000000
13
0.1881224880
23
0.2554140663
33
0.0000000000
40
0.0000000000
40
0.0000000000
40
0.0000000000
40
0.0000000000
40
0.4914778748
40
0.9829156025
40
1.0000000000
40
1.0000000000
40
1.0000000000
40
1.0000000000
10
34.9545635905
20
22.2154545622
30
0.0000000000
10
34.9545423716
20
22.2672387500
30
0.0000000000
10
34.9708513939
20
22.3715284087
30
0.0000000000
10
35.0191643044
20
22.4670358532
30
0.0000000000
10
35.0508165493
20
22.5105039992
30
0.0000000000
10
35.0518878691
20
22.5119585310
30
0.0000000000
11
34.9545635905
21
22.2154545622
31
0.0000000000
11
34.9786473196
21
22.3689289804
31
0.0000000000
11
35.0486977564
21
22.5075775166
31
0.0000000000
11
35.0518878691
21
22.5119585310
31
0.0000000000
0
SPLINE
5
3CE
100
AcDbEntity
8
0
100
AcDbSpline
62
0
6
CONTINUOUS
70
0
71
3
72
11
73
7
74
5
42
0.0000001000
43
0.0000001000
44
0.0000000001
12
-0.3922423365
22
0.0000000000
32
0.0000000000
13
-0.2777975873
23
-0.2777975867
33
0.0000000000
40
0.0000000000
40
0.0000000000
40
0.0000000000
40
0.0000000000
40
0.2500000360
40
0.5000003710
40
0.7499998934
40
1.0000000000
40
1.0000000000
40
1.0000000000
40
1.0000000000
10
35.4849821987
20
22.7096992244
30
0.0000000000
10
35.4522953326
20
22.7096992244
30
0.0000000000
10
35.3867403776
20
22.7032482860
30
0.0000000000
10
35.2923295825
20
22.6745944133
30
0.0000000000
10
35.2052843021
20
22.6280673863
30
0.0000000000
10
35.1544263012
20
22.5863262604
30
0.0000000000
10
35.1312764924
20
22.5631764516
30
0.0000000000
11
35.4849821987
21
22.7096992244
31
0.0000000000
11
35.3873940084
21
22.7000853786
31
0.0000000000
11
35.2935570712
21
22.6716155147
31
0.0000000000
11
35.2070774022
21
22.6253866464
31
0.0000000000
11
35.1312764924
21
22.5631764516
31
0.0000000000
0
SPLINE
5
3CF
100
AcDbEntity
8
0
100
AcDbSpline
62
0
6
CONTINUOUS
70
0
71
3
72
11
73
7
74
5
42
0.0000001000
43
0.0000001000
44
0.0000000001
12
-0.2777975879
22
-0.2777975874
32
0.0000000000
13
0.0000000000
23
-0.3922423374
33
0.0000000000
40
0.0000000000
40
0.0000000000
40
0.0000000000
40
0.0000000000
40
0.2499994775
40
0.4999992599
40
0.7499998477
40
1.0000000000
40
1.0000000000
40
1.0000000000
40
1.0000000000
10
35.1312764924
20
22.5631764516
30
0.0000000000
10
35.1081267417
20
22.5400267011
30
0.0000000000
10
35.0663856347
20
22.4891687492
30
0.0000000000
10
35.0198585798
20
22.4021234992
30
0.0000000000
10
34.9912046645
20
22.3077126290
30
0.0000000000
10
34.9847537183
20
22.2421576253
30
0.0000000000
10
34.9847537183
20
22.2094707439
30
0.0000000000
11
35.1312764924
21
22.5631764516
31
0.0000000000
11
35.0690664344
21
22.4873757472
31
0.0000000000
11
35.0228374838
21
22.4008960063
31
0.0000000000
11
34.9943675731
21
22.3070589794
31
0.0000000000
11
34.9847537183
21
22.2094707439
31
0.0000000000
0
SPLINE
5
3D0
100
AcDbEntity
8
0
100
AcDbSpline
62
9
6
CONTINUOUS
70
0
71
3
72
11
73
7
74
5
42
0.0000001000
43
0.0000001000
44
0.0000000001
12
0.0000000000
22
0.3645143837
32
0.0000000000
13
-0.3645143837
23
0.0000000000
33
0.0000000000
40
0.0000000000
40
0.0000000000
40
0.0000000000
40
0.0000000000
40
0.2320556365
40
0.4757923621
40
0.7332637475
40
1.0000000000
40
1.0000000000
40
1.0000000000
40
1.0000000000
10
56.7323885235
20
-23.5695484728
30
0.0000000000
10
56.7323885235
20
-23.5413526003
30
0.0000000000
10
56.7187222645
20
-23.4828153404
30
0.0000000000
10
56.6619449306
20
-23.4109616275
30
0.0000000000
10
56.5790524379
20
-23.3638581661
30
0.0000000000
10
56.5147982570
20
-23.3530421218
30
0.0000000000
10
56.4823885235
20
-23.3530421218
30
0.0000000000
11
56.7323885235
21
-23.5695484728
31
0.0000000000
11
56.7135450674
21
-23.4870864260
31
0.0000000000
11
56.6593921329
21
-23.4166521298
31
0.0000000000
11
56.5782019793
21
-23.3695738837
31
0.0000000000
11
56.4823885235
21
-23.3530421218
31
0.0000000000
0
SPLINE
5
3D1
100
AcDbEntity
8
0
100
AcDbSpline
62
9
6
CONTINUOUS
70
0
71
3
72
9
73
5
74
3
42
0.0000001000
43
0.0000001000
44
0.0000000001
12
-0.0002603127
22
0.0484179831
32
0.0000000000
13
0.0426578621
23
0.0057451004
33
0.0000000000
40
0.0000000000
40
0.0000000000
40
0.0000000000
40
0.0000000000
40
0.2622660419
40
1.0000000000
40
1.0000000000
40
1.0000000000
40
1.0000000000
10
54.3323885055
20
22.8966415162
30
0.0000000000
10
54.3323657484
20
22.9008743138
30
0.0000000000
10
54.3579556074
20
22.8964391369
30
0.0000000000
10
54.3700456523
20
22.8998606933
30
0.0000000000
10
54.3805357034
20
22.9012734785
30
0.0000000000
11
54.3323885055
21
22.8966415162
31
0.0000000000
11
54.3448598863
21
22.8990883346
31
0.0000000000
11
54.3805357034
21
22.9012734785
31
0.0000000000
0
SPLINE
5
3D2
100
AcDbEntity
8
0
100
AcDbSpline
62
9
6
CONTINUOUS
70
0
71
3
72
10
73
6
74
4
42
0.0000001000
43
0.0000001000
44
0.0000000001
12
0.1777566390
22
0.0239400121
32
0.0000000000
13
0.2018896317
23
0.0000009296
33
0.0000000000
40
0.0000000000
40
0.0000000000
40
0.0000000000
40
0.0000000000
40
0.2721745567
40
0.6156081544
40
1.0000000000
40
1.0000000000
40
1.0000000000
40
1.0000000000
10
54.3805357034
20
22.9012734785
30
0.0000000000
10
54.3966626482
20
22.9034454326
30
0.0000000000
10
54.4415359208
20
22.9024166900
30
0.0000000000
10
54.5070850326
20
22.9045514602
30
0.0000000000
10
54.5565202808
20
22.9044930514
30
0.0000000000
10
54.5823885235
20
22.9044931705
30
0.0000000000
11
54.3805357034
21
22.9012734785
31
0.0000000000
11
54.4354579900
21
22.9029937490
31
0.0000000000
11
54.5047847658
21
22.9041050719
31
0.0000000000
11
54.5823885235
21
22.9044931705
31
0.0000000000
0
SPLINE
5
3D3
100
AcDbEntity
8
0
100
AcDbSpline
62
9
6
CONTINUOUS
70
0
71
3
72
10
73
6
74
4
42
0.0000001000
43
0.0000001000
44
0.0000000001
12
0.0718340873
22
0.0040666455
32
0.0000000000
13
0.0735987958
23
0.0044452190
33
0.0000000000
40
0.0000000000
40
0.0000000000
40
0.0000000000
40
0.0000000000
40
0.4286690118
40
0.8733131752
40
1.0000000000
40
1.0000000000
40
1.0000000000
40
1.0000000000
10
56.7445325634
20
22.7054631408
30
0.0000000000
10
56.7547969125
20
22.7060442224
30
0.0000000000
10
56.7757362170
20
22.7073099991
30
0.0000000000
10
56.7992165184
20
22.7081342499
30
0.0000000000
10
56.8133670454
20
22.7091437169
30
0.0000000000
10
56.8164750446
20
22.7093314338
30
0.0000000000
11
56.7445325634
21
22.7054631408
31
0.0000000000
11
56.7752487011
21
22.7071553056
31
0.0000000000
11
56.8071277386
21
22.7087225184
31
0.0000000000
11
56.8164750446
21
22.7093314338
31
0.0000000000
0
SPLINE
5
3D4
100
AcDbEntity
8
0
100
AcDbSpline
62
9
6
CONTINUOUS
70
0
71
3
72
10
73
6
74
4
42
0.0000001000
43
0.0000001000
44
0.0000000001
12
0.0485581142
22
0.0029328123
32
0.0000000000
13
0.0107994918
23
-0.0424858704
33
0.0000000000
40
0.0000000000
40
0.0000000000
40
0.0000000000
40
0.0000000000
40
0.3482807083
40
0.7235558616
40
1.0000000000
40
1.0000000000
40
1.0000000000
40
1.0000000000
10
56.8164750446
20
22.7093314338
30
0.0000000000
10
56.8221123294
20
22.7096719145
30
0.0000000000
10
56.8336205954
20
22.7101323809
30
0.0000000000
10
56.8465965569
20
22.7078316437
30
0.0000000000
10
56.8628729822
20
22.7130595519
30
0.0000000000
10
56.8638681342
20
22.7091445619
30
0.0000000000
11
56.8164750446
21
22.7093314338
31
0.0000000000
11
56.8327001849
21
22.7096228108
31
0.0000000000
11
56.8504717952
21
22.7098348613
31
0.0000000000
11
56.8638681342
21
22.7091445619
31
0.0000000000
0
SPLINE
5
3D5
100
AcDbEntity
8
0
100
AcDbSpline
62
9
6
CONTINUOUS
70
0
71
3
72
10
73
6
74
4
42
0.0000001000
43
0.0000001000
44
0.0000000001
12
0.0709849530
22
-0.0040174429
32
0.0000000000
13
0.0727317038
23
-0.0043972092
33
0.0000000000
40
0.0000000000
40
0.0000000000
40
0.0000000000
40
0.0000000000
40
0.4323548096
40
0.8728407931
40
1.0000000000
40
1.0000000000
40
1.0000000000
40
1.0000000000
10
56.7445397126
20
-22.1558808110
30
0.0000000000
10
56.7547699412
20
-22.1564597979
30
0.0000000000
10
56.7754586370
20
-22.1577062356
30
0.0000000000
10
56.7986740989
20
-22.1585454914
30
0.0000000000
10
56.8125591785
20
-22.1595297324
30
0.0000000000
10
56.8156420138
20
-22.1597161143
30
0.0000000000
11
56.7445397126
21
-22.1558808110
31
0.0000000000
11
56.7751615544
21
-22.1575685314
31
0.0000000000
11
56.8063738107
21
-22.1591142534
31
0.0000000000
11
56.8156420138
21
-22.1597161143
31
0.0000000000
0
SPLINE
5
3D6
100
AcDbEntity
8
0
100
AcDbSpline
62
9
6
CONTINUOUS
70
0
71
3
72
10
73
6
74
4
42
0.0000001000
43
0.0000001000
44
0.0000000001
12
0.0494007728
22
-0.0029866691
32
0.0000000000
13
0.0114059868
23
0.0431948937
33
0.0000000000
40
0.0000000000
40
0.0000000000
40
0.0000000000
40
0.0000000000
40
0.3464878256
40
0.7257322696
40
1.0000000000
40
1.0000000000
40
1.0000000000
40
1.0000000000
10
56.8156420138
20
-22.1597161143
30
0.0000000000
10
56.8213476026
20
-22.1600610624
30
0.0000000000
10
56.8331002658
20
-22.1605389231
30
0.0000000000
10
56.8463066376
20
-22.1582079142
30
0.0000000000
10
56.8628233130
20
-22.1635179264
30
0.0000000000
10
56.8638660777
20
-22.1595689379
30
0.0000000000
11
56.8156420138
21
-22.1597161143
31
0.0000000000
11
56.8320755363
21
-22.1600228245
31
0.0000000000
11
56.8503488039
21
-22.1602644693
31
0.0000000000
11
56.8638660777
21
-22.1595689379
31
0.0000000000
0
SPLINE
5
3D7
100
AcDbEntity
8
0
100
AcDbSpline
62
9
6
CONTINUOUS
70
0
71
3
72
9
73
5
74
3
42
0.0000001000
43
0.0000001000
44
0.0000000001
12
0.0002603127
22
-0.0484179831
32
0.0000000000
13
-0.0426578621
23
-0.0057451004
33
0.0000000000
40
0.0000000000
40
0.0000000000
40
0.0000000000
40
0.0000000000
40
0.2622660419
40
1.0000000000
40
1.0000000000
40
1.0000000000
40
1.0000000000
10
37.8323885415
20
-22.3470633271
30
0.0000000000
10
37.8324112986
20
-22.3512961247
30
0.0000000000
10
37.8068214395
20
-22.3468609478
30
0.0000000000
10
37.7947313947
20
-22.3502825042
30
0.0000000000
10
37.7842413435
20
-22.3516952894
30
0.0000000000
11
37.8323885415
21
-22.3470633271
31
0.0000000000
11
37.8199171606
21
-22.3495101456
31
0.0000000000
11
37.7842413435
21
-22.3516952894
31
0.0000000000
0
SPLINE
5
3D8
100
AcDbEntity
8
0
100
AcDbSpline
62
9
6
CONTINUOUS
70
0
71
3
72
10
73
6
74
4
42
0.0000001000
43
0.0000001000
44
0.0000000001
12
-0.1777566390
22
-0.0239400121
32
0.0000000000
13
-0.2018896317
23
-0.0000009296
33
0.0000000000
40
0.0000000000
40
0.0000000000
40
0.0000000000
40
0.0000000000
40
0.2721745567
40
0.6156081544
40
1.0000000000
40
1.0000000000
40
1.0000000000
40
1.0000000000
10
37.7842413435
20
-22.3516952894
30
0.0000000000
10
37.7681143987
20
-22.3538672435
30
0.0000000000
10
37.7232411261
20
-22.3528385009
30
0.0000000000
10
37.6576920143
20
-22.3549732712
30
0.0000000000
10
37.6082567662
20
-22.3549148623
30
0.0000000000
10
37.5823885235
20
-22.3549149815
30
0.0000000000
11
37.7842413435
21
-22.3516952894
31
0.0000000000
11
37.7293190570
21
-22.3534155599
31
0.0000000000
11
37.6599922812
21
-22.3545268828
31
0.0000000000
11
37.5823885235
21
-22.3549149815
31
0.0000000000
0
SPLINE
5
3D9
100
AcDbEntity
8
0
100
AcDbSpline
62
9
6
CONTINUOUS
70
0
71
3
72
11
73
7
74
5
42
0.0000001000
43
0.0000001000
44
0.0000000001
12
0.0000000000
22
-0.3645127889
32
0.0000000000
13
0.3645127889
23
0.0000000000
33
0.0000000000
40
0.0000000000
40
0.0000000000
40
0.0000000000
40
0.0000000000
40
0.2332175100
40
0.4765997713
40
0.7336719567
40
1.0000000000
40
1.0000000000
40
1.0000000000
40
1.0000000000
10
54.3323885235
20
23.6861139599
30
0.0000000000
10
54.3323885235
20
23.6577770383
30
0.0000000000
10
54.3461543991
20
23.5991336520
30
0.0000000000
10
54.4030759222
20
23.5273493224
30
0.0000000000
10
54.4858753155
20
23.4803896941
30
0.0000000000
10
54.5500285309
20
23.4696076090
30
0.0000000000
10
54.5823885235
20
23.4696076090
30
0.0000000000
11
54.3323885235
21
23.6861139599
31
0.0000000000
11
54.3514186404
21
23.6032605664
31
0.0000000000
11
54.4056118282
21
23.5330208510
31
0.0000000000
11
54.4867176654
21
23.4860881736
31
0.0000000000
11
54.5823885235
21
23.4696076090
31
0.0000000000
0
SPLINE
5
3DA
100
AcDbEntity
8
0
100
AcDbSpline
62
9
6
CONTINUOUS
70
0
71
3
72
11
73
7
74
5
42
0.0000001000
43
0.0000001000
44
0.0000000001
12
0.0000000000
22
0.3645127889
32
0.0000000000
13
-0.3645127889
23
0.0000000000
33
0.0000000000
40
0.0000000000
40
0.0000000000
40
0.0000000000
40
0.0000000000
40
0.2332175100
40
0.4765997713
40
0.7336719567
40
1.0000000000
40
1.0000000000
40
1.0000000000
40
1.0000000000
10
56.7323885235
20
-23.1365357709
30
0.0000000000
10
56.7323885235
20
-23.1081988492
30
0.0000000000
10
56.7186226479
20
-23.0495554629
30
0.0000000000
10
56.6617011248
20
-22.9777711333
30
0.0000000000
10
56.5789017314
20
-22.9308115050
30
0.0000000000
10
56.5147485161
20
-22.9200294199
30
0.0000000000
10
56.4823885235
20
-22.9200294199
30
0.0000000000
11
56.7323885235
21
-23.1365357709
31
0.0000000000
11
56.7133584066
21
-23.0536823774
31
0.0000000000
11
56.6591652188
21
-22.9834426619
31
0.0000000000
11
56.5780593816
21
-22.9365099846
31
0.0000000000
11
56.4823885235
21
-22.9200294199
31
0.0000000000
0
SPLINE
5
3DB
100
AcDbEntity
8
0
100
AcDbSpline
62
9
6
CONTINUOUS
70
0
71
3
72
9
73
5
74
3
42
0.0000001000
43
0.0000001000
44
0.0000000001
12
-0.0000059122
22
-0.0482115370
32
0.0000000000
13
0.0424770659
23
-0.0057242701
33
0.0000000000
40
0.0000000000
40
0.0000000000
40
0.0000000000
40
0.0000000000
40
0.2620883848
40
1.0000000000
40
1.0000000000
40
1.0000000000
40
1.0000000000
10
54.3323885235
20
-22.3470602253
30
0.0000000000
10
54.3323880070
20
-22.3512721199
30
0.0000000000
10
54.3577889740
20
-22.3468731612
30
0.0000000000
10
54.3698470266
20
-22.3502759016
30
0.0000000000
10
54.3802951333
20
-22.3516839034
30
0.0000000000
11
54.3323885235
21
-22.3470602253
31
0.0000000000
11
54.3447860747
21
-22.3495021892
31
0.0000000000
11
54.3802951333
21
-22.3516839034
31
0.0000000000
0
SPLINE
5
3DC
100
AcDbEntity
8
0
100
AcDbSpline
62
9
6
CONTINUOUS
70
0
71
3
72
10
73
6
74
4
42
0.0000001000
43
0.0000001000
44
0.0000000001
12
0.1780874139
22
-0.0239993142
32
0.0000000000
13
0.2021304383
23
0.0000018301
33
0.0000000000
40
0.0000000000
40
0.0000000000
40
0.0000000000
40
0.0000000000
40
0.2714608706
40
0.6150906569
40
1.0000000000
40
1.0000000000
40
1.0000000000
40
1.0000000000
10
54.3802951333
20
-22.3516839034
30
0.0000000000
10
54.3964097215
20
-22.3538555283
30
0.0000000000
10
54.4412794222
20
-22.3528312881
30
0.0000000000
10
54.5069133177
20
-22.3549738051
30
0.0000000000
10
54.5564545587
20
-22.3549152163
30
0.0000000000
10
54.5823885235
20
-22.3549149815
30
0.0000000000
11
54.3802951333
21
-22.3516839034
31
0.0000000000
11
54.4351385560
21
-22.3534076450
31
0.0000000000
11
54.5045876063
21
-22.3545250700
31
0.0000000000
11
54.5823885235
21
-22.3549149815
31
0.0000000000
0
SPLINE
5
3DD
100
AcDbEntity
8
0
100
AcDbSpline
62
9
6
CONTINUOUS
70
0
71
3
72
8
73
4
74
2
42
0.0000001000
43
0.0000001000
44
0.0000000001
12
-0.0029870913
22
0.0156095916
32
0.0000000000
13
-0.0024925823
23
0.0156896416
33
0.0000000000
40
0.0000000000
40
0.0000000000
40
0.0000000000
40
0.0000000000
40
1.0000000000
40
1.0000000000
40
1.0000000000
40
1.0000000000
10
34.9568237358
20
-21.7172004276
30
0.0000000000
10
34.9558280387
20
-21.7119972304
30
0.0000000000
10
34.9549145502
20
-21.7067791275
30
0.0000000000
10
34.9540836894
20
-21.7015492470
30
0.0000000000
11
34.9568237358
21
-21.7172004276
31
0.0000000000
11
34.9540836894
21
-21.7015492470
31
0.0000000000
0
SPLINE
5
3DE
100
AcDbEntity
8
0
100
AcDbSpline
62
9
6
CONTINUOUS
70
0
71
3
72
8
73
4
74
2
42
0.0000001000
43
0.0000001000
44
0.0000000001
12
-0.0123998433
22
0.0780512215
32
0.0000000000
13
0.0000239653
23
0.0786447598
33
0.0000000000
40
0.0000000000
40
0.0000000000
40
0.0000000000
40
0.0000000000
40
1.0000000000
40
1.0000000000
40
1.0000000000
40
1.0000000000
10
34.9540836894
20
-21.7015492470
30
0.0000000000
10
34.9499504083
20
-21.6755321732
30
0.0000000000
10
34.9478619656
20
-21.6492236302
30
0.0000000000
10
34.9478699541
20
-21.6230087103
30
0.0000000000
11
34.9540836894
21
-21.7015492470
31
0.0000000000
11
34.9478699541
21
-21.6230087103
31
0.0000000000
0
SPLINE
5
3DF
100
AcDbEntity
8
0
100
AcDbSpline
62
9
6
CONTINUOUS
70
0
71
3
72
11
73
7
74
5
42
0.0000001000
43
0.0000001000
44
0.0000000001
12
0.0000000000
22
0.3645143837
32
0.0000000000
13
-0.3645143837
23
0.0000000000
33
0.0000000000
40
0.0000000000
40
0.0000000000
40
0.0000000000
40
0.0000000000
40
0.2320556365
40
0.4757923621
40
0.7332637475
40
1.0000000000
40
1.0000000000
40
1.0000000000
40
1.0000000000
10
37.8323885235
20
-23.5695484728
30
0.0000000000
10
37.8323885235
20
-23.5413526003
30
0.0000000000
10
37.8187222645
20
-23.4828153404
30
0.0000000000
10
37.7619449306
20
-23.4109616275
30
0.0000000000
10
37.6790524379
20
-23.3638581661
30
0.0000000000
10
37.6147982570
20
-23.3530421218
30
0.0000000000
10
37.5823885235
20
-23.3530421218
30
0.0000000000
11
37.8323885235
21
-23.5695484728
31
0.0000000000
11
37.8135450674
21
-23.4870864260
31
0.0000000000
11
37.7593921329
21
-23.4166521298
31
0.0000000000
11
37.6782019793
21
-23.3695738837
31
0.0000000000
11
37.5823885235
21
-23.3530421218
31
0.0000000000
0
SPLINE
5
3E0
100
AcDbEntity
8
0
100
AcDbSpline
62
9
6
CONTINUOUS
70
0
71
3
72
11
73
7
74
5
42
0.0000001000
43
0.0000001000
44
0.0000000001
12
0.0000000000
22
0.3645127889
32
0.0000000000
13
0.3645127889
23
0.0000000000
33
0.0000000000
40
0.0000000000
40
0.0000000000
40
0.0000000000
40
0.0000000000
40
0.2332175100
40
0.4765997713
40
0.7336719567
40
1.0000000000
40
1.0000000000
40
1.0000000000
40
1.0000000000
10
54.3323885235
20
-23.1365357709
30
0.0000000000
10
54.3323885235
20
-23.1081988492
30
0.0000000000
10
54.3461543991
20
-23.0495554629
30
0.0000000000
10
54.4030759222
20
-22.9777711333
30
0.0000000000
10
54.4858753155
20
-22.9308115050
30
0.0000000000
10
54.5500285309
20
-22.9200294199
30
0.0000000000
10
54.5823885235
20
-22.9200294199
30
0.0000000000
11
54.3323885235
21
-23.1365357709
31
0.0000000000
11
54.3514186404
21
-23.0536823774
31
0.0000000000
11
54.4056118282
21
-22.9834426619
31
0.0000000000
11
54.4867176654
21
-22.9365099846
31
0.0000000000
11
54.5823885235
21
-22.9200294199
31
0.0000000000
0
SPLINE
5
3E1
100
AcDbEntity
8
0
100
AcDbSpline
62
0
6
CONTINUOUS
70
0
71
3
72
11
73
7
74
5
42
0.0000001000
43
0.0000001000
44
0.0000000001
12
0.2777975879
22
0.2777975874
32
0.0000000000
13
0.0000000000
23
0.3922423374
33
0.0000000000
40
0.0000000000
40
0.0000000000
40
0.0000000000
40
0.0000000000
40
0.2499994775
40
0.4999992599
40
0.7499998477
40
1.0000000000
40
1.0000000000
40
1.0000000000
40
1.0000000000
10
57.0335005546
20
-22.0135982626
30
0.0000000000
10
57.0566503052
20
-21.9904485120
30
0.0000000000
10
57.0983914123
20
-21.9395905601
30
0.0000000000
10
57.1449184672
20
-21.8525453101
30
0.0000000000
10
57.1735723825
20
-21.7581344399
30
0.0000000000
10
57.1800233287
20
-21.6925794362
30
0.0000000000
10
57.1800233287
20
-21.6598925549
30
0.0000000000
11
57.0335005546
21
-22.0135982626
31
0.0000000000
11
57.0957106126
21
-21.9377975582
31
0.0000000000
11
57.1419395631
21
-21.8513178172
31
0.0000000000
11
57.1704094739
21
-21.7574807904
31
0.0000000000
11
57.1800233287
21
-21.6598925549
31
0.0000000000
0
SPLINE
5
3E2
100
AcDbEntity
8
0
100
AcDbSpline
62
9
6
CONTINUOUS
70
0
71
3
72
11
73
7
74
5
42
0.0000001000
43
0.0000001000
44
0.0000000001
12
0.0000000000
22
0.3645143837
32
0.0000000000
13
0.3645143837
23
0.0000000000
33
0.0000000000
40
0.0000000000
40
0.0000000000
40
0.0000000000
40
0.0000000000
40
0.2320556365
40
0.4757923621
40
0.7332637475
40
1.0000000000
40
1.0000000000
40
1.0000000000
40
1.0000000000
10
54.3323885235
20
-23.5695484728
30
0.0000000000
10
54.3323885235
20
-23.5413526003
30
0.0000000000
10
54.3460547825
20
-23.4828153404
30
0.0000000000
10
54.4028321164
20
-23.4109616275
30
0.0000000000
10
54.4857246090
20
-23.3638581661
30
0.0000000000
10
54.5499787899
20
-23.3530421218
30
0.0000000000
10
54.5823885235
20
-23.3530421218
30
0.0000000000
11
54.3323885235
21
-23.5695484728
31
0.0000000000
11
54.3512319796
21
-23.4870864260
31
0.0000000000
11
54.4053849141
21
-23.4166521298
31
0.0000000000
11
54.4865750677
21
-23.3695738837
31
0.0000000000
11
54.5823885235
21
-23.3530421218
31
0.0000000000
0
SPLINE
5
3E3
100
AcDbEntity
8
0
100
AcDbSpline
62
9
6
CONTINUOUS
70
0
71
3
72
11
73
7
74
5
42
0.0000001000
43
0.0000001000
44
0.0000000001
12
0.0000000000
22
0.3645143837
32
0.0000000000
13
0.3645143837
23
-0.0000000000
33
0.0000000000
40
0.0000000000
40
0.0000000000
40
0.0000000000
40
0.0000000000
40
0.2320556365
40
0.4757923621
40
0.7332637475
40
1.0000000000
40
1.0000000000
40
1.0000000000
40
1.0000000000
10
35.4323885235
20
-23.5695484728
30
0.0000000000
10
35.4323885235
20
-23.5413526003
30
0.0000000000
10
35.4460547825
20
-23.4828153404
30
0.0000000000
10
35.5028321164
20
-23.4109616275
30
0.0000000000
10
35.5857246090
20
-23.3638581661
30
0.0000000000
10
35.6499787899
20
-23.3530421218
30
0.0000000000
10
35.6823885235
20
-23.3530421218
30
0.0000000000
11
35.4323885235
21
-23.5695484728
31
0.0000000000
11
35.4512319796
21
-23.4870864260
31
0.0000000000
11
35.5053849141
21
-23.4166521298
31
0.0000000000
11
35.5865750677
21
-23.3695738837
31
0.0000000000
11
35.6823885235
21
-23.3530421218
31
0.0000000000
0
SPLINE
5
3E4
100
AcDbEntity
8
0
100
AcDbSpline
62
9
6
CONTINUOUS
70
0
71
3
72
11
73
7
74
5
42
0.0000001000
43
0.0000001000
44
0.0000000001
12
0.0000000000
22
-0.3645127889
32
0.0000000000
13
-0.3645127889
23
0.0000000000
33
0.0000000000
40
0.0000000000
40
0.0000000000
40
0.0000000000
40
0.0000000000
40
0.2332175100
40
0.4765997713
40
0.7336719567
40
1.0000000000
40
1.0000000000
40
1.0000000000
40
1.0000000000
10
56.7323885235
20
24.1191266618
30
0.0000000000
10
56.7323885235
20
24.0907897402
30
0.0000000000
10
56.7186226479
20
24.0321463539
30
0.0000000000
10
56.6617011248
20
23.9603620243
30
0.0000000000
10
56.5789017314
20
23.9134023960
30
0.0000000000
10
56.5147485161
20
23.9026203109
30
0.0000000000
10
56.4823885235
20
23.9026203109
30
0.0000000000
11
56.7323885235
21
24.1191266618
31
0.0000000000
11
56.7133584066
21
24.0362732683
31
0.0000000000
11
56.6591652188
21
23.9660335529
31
0.0000000000
11
56.5780593816
21
23.9191008755
31
0.0000000000
11
56.4823885235
21
23.9026203109
31
0.0000000000
0
SPLINE
5
3E5
100
AcDbEntity
8
0
100
AcDbSpline
62
9
6
CONTINUOUS
70
0
71
3
72
9
73
5
74
3
42
0.0000001000
43
0.0000001000
44
0.0000000001
12
-0.0002603127
22
0.0484179831
32
0.0000000000
13
0.0426578621
23
0.0057451004
33
0.0000000000
40
0.0000000000
40
0.0000000000
40
0.0000000000
40
0.0000000000
40
0.2622660419
40
1.0000000000
40
1.0000000000
40
1.0000000000
40
1.0000000000
10
35.4323885055
20
22.8966415162
30
0.0000000000
10
35.4323657484
20
22.9008743138
30
0.0000000000
10
35.4579556074
20
22.8964391369
30
0.0000000000
10
35.4700456523
20
22.8998606933
30
0.0000000000
10
35.4805357034
20
22.9012734785
30
0.0000000000
11
35.4323885055
21
22.8966415162
31
0.0000000000
11
35.4448598863
21
22.8990883346
31
0.0000000000
11
35.4805357034
21
22.9012734785
31
0.0000000000
0
SPLINE
5
3E6
100
AcDbEntity
8
0
100
AcDbSpline
62
9
6
CONTINUOUS
70
0
71
3
72
10
73
6
74
4
42
0.0000001000
43
0.0000001000
44
0.0000000001
12
0.1777566390
22
0.0239400121
32
0.0000000000
13
0.2018896317
23
0.0000009296
33
0.0000000000
40
0.0000000000
40
0.0000000000
40
0.0000000000
40
0.0000000000
40
0.2721745567
40
0.6156081544
40
1.0000000000
40
1.0000000000
40
1.0000000000
40
1.0000000000
10
35.4805357034
20
22.9012734785
30
0.0000000000
10
35.4966626482
20
22.9034454326
30
0.0000000000
10
35.5415359208
20
22.9024166900
30
0.0000000000
10
35.6070850326
20
22.9045514602
30
0.0000000000
10
35.6565202808
20
22.9044930514
30
0.0000000000
10
35.6823885235
20
22.9044931705
30
0.0000000000
11
35.4805357034
21
22.9012734785
31
0.0000000000
11
35.5354579900
21
22.9029937490
31
0.0000000000
11
35.6047847658
21
22.9041050719
31
0.0000000000
11
35.6823885235
21
22.9044931705
31
0.0000000000
0
SPLINE
5
3E7
100
AcDbEntity
8
0
100
AcDbSpline
62
9
6
CONTINUOUS
70
0
71
3
72
8
73
4
74
2
42
0.0000001000
43
0.0000001000
44
0.0000000001
12
0.0029870913
22
-0.0156095916
32
0.0000000000
13
0.0024925823
23
-0.0156896416
33
0.0000000000
40
0.0000000000
40
0.0000000000
40
0.0000000000
40
0.0000000000
40
1.0000000000
40
1.0000000000
40
1.0000000000
40
1.0000000000
10
57.2079533112
20
22.2667786167
30
0.0000000000
10
57.2089490083
20
22.2615754195
30
0.0000000000
10
57.2098624968
20
22.2563573166
30
0.0000000000
10
57.2106933575
20
22.2511274361
30
0.0000000000
11
57.2079533112
21
22.2667786167
31
0.0000000000
11
57.2106933575
21
22.2511274361
31
0.0000000000
0
SPLINE
5
3E8
100
AcDbEntity
8
0
100
AcDbSpline
62
9
6
CONTINUOUS
70
0
71
3
72
8
73
4
74
2
42
0.0000001000
43
0.0000001000
44
0.0000000001
12
0.0123998433
22
-0.0780512215
32
0.0000000000
13
-0.0000239653
23
-0.0786447598
33
0.0000000000
40
0.0000000000
40
0.0000000000
40
0.0000000000
40
0.0000000000
40
1.0000000000
40
1.0000000000
40
1.0000000000
40
1.0000000000
10
57.2106933575
20
22.2511274361
30
0.0000000000
10
57.2148266387
20
22.2251103623
30
0.0000000000
10
57.2169150813
20
22.1988018193
30
0.0000000000
10
57.2169070929
20
22.1725868994
30
0.0000000000
11
57.2106933575
21
22.2511274361
31
0.0000000000
11
57.2169070929
21
22.1725868994
31
0.0000000000
0
SPLINE
5
3E9
100
AcDbEntity
8
0
100
AcDbSpline
62
9
6
CONTINUOUS
70
0
71
3
72
11
73
7
74
5
42
0.0000001000
43
0.0000001000
44
0.0000000001
12
0.0000000000
22
-0.3645143837
32
0.0000000000
13
-0.3645143837
23
-0.0000000000
33
0.0000000000
40
0.0000000000
40
0.0000000000
40
0.0000000000
40
0.0000000000
40
0.2320556365
40
0.4757923621
40
0.7332637475
40
1.0000000000
40
1.0000000000
40
1.0000000000
40
1.0000000000
10
37.8323885235
20
24.1191266618
30
0.0000000000
10
37.8323885235
20
24.0909307894
30
0.0000000000
10
37.8187222645
20
24.0323935294
30
0.0000000000
10
37.7619449306
20
23.9605398166
30
0.0000000000
10
37.6790524379
20
23.9134363552
30
0.0000000000
10
37.6147982570
20
23.9026203109
30
0.0000000000
10
37.5823885235
20
23.9026203109
30
0.0000000000
11
37.8323885235
21
24.1191266618
31
0.0000000000
11
37.8135450674
21
24.0366646150
31
0.0000000000
11
37.7593921329
21
23.9662303188
31
0.0000000000
11
37.6782019793
21
23.9191520728
31
0.0000000000
11
37.5823885235
21
23.9026203109
31
0.0000000000
0
SPLINE
5
3EA
100
AcDbEntity
8
0
100
AcDbSpline
62
9
6
CONTINUOUS
70
0
71
3
72
11
73
7
74
5
42
0.0000001000
43
0.0000001000
44
0.0000000001
12
0.0000000000
22
-0.3645143837
32
0.0000000000
13
0.3645143837
23
-0.0000000000
33
0.0000000000
40
0.0000000000
40
0.0000000000
40
0.0000000000
40
0.0000000000
40
0.2320556365
40
0.4757923621
40
0.7332637475
40
1.0000000000
40
1.0000000000
40
1.0000000000
40
1.0000000000
10
54.3323885235
20
24.1191266618
30
0.0000000000
10
54.3323885235
20
24.0909307894
30
0.0000000000
10
54.3460547825
20
24.0323935294
30
0.0000000000
10
54.4028321164
20
23.9605398166
30
0.0000000000
10
54.4857246090
20
23.9134363552
30
0.0000000000
10
54.5499787899
20
23.9026203109
30
0.0000000000
10
54.5823885235
20
23.9026203109
30
0.0000000000
11
54.3323885235
21
24.1191266618
31
0.0000000000
11
54.3512319796
21
24.0366646150
31
0.0000000000
11
54.4053849141
21
23.9662303188
31
0.0000000000
11
54.4865750677
21
23.9191520728
31
0.0000000000
11
54.5823885235
21
23.9026203109
31
0.0000000000
0
SPLINE
5
3EB
100
AcDbEntity
8
0
100
AcDbSpline
62
9
6
CONTINUOUS
70
0
71
3
72
10
73
6
74
4
42
0.0000001000
43
0.0000001000
44
0.0000000001
12
-0.0718340873
22
-0.0040666455
32
0.0000000000
13
-0.0735987958
23
-0.0044452190
33
0.0000000000
40
0.0000000000
40
0.0000000000
40
0.0000000000
40
0.0000000000
40
0.4286690118
40
0.8733131752
40
1.0000000000
40
1.0000000000
40
1.0000000000
40
1.0000000000
10
35.4202444835
20
-22.1558849517
30
0.0000000000
10
35.4099801345
20
-22.1564660334
30
0.0000000000
10
35.3890408300
20
-22.1577318100
30
0.0000000000
10
35.3655605286
20
-22.1585560608
30
0.0000000000
10
35.3514100016
20
-22.1595655279
30
0.0000000000
10
35.3483020023
20
-22.1597532447
30
0.0000000000
11
35.4202444835
21
-22.1558849517
31
0.0000000000
11
35.3895283459
21
-22.1575771165
31
0.0000000000
11
35.3576493083
21
-22.1591443294
31
0.0000000000
11
35.3483020023
21
-22.1597532447
31
0.0000000000
0
SPLINE
5
3EC
100
AcDbEntity
8
0
100
AcDbSpline
62
9
6
CONTINUOUS
70
0
71
3
72
10
73
6
74
4
42
0.0000001000
43
0.0000001000
44
0.0000000001
12
-0.0485581142
22
-0.0029328123
32
0.0000000000
13
-0.0107994918
23
0.0424858704
33
0.0000000000
40
0.0000000000
40
0.0000000000
40
0.0000000000
40
0.0000000000
40
0.3482807083
40
0.7235558616
40
1.0000000000
40
1.0000000000
40
1.0000000000
40
1.0000000000
10
35.3483020023
20
-22.1597532447
30
0.0000000000
10
35.3426647175
20
-22.1600937254
30
0.0000000000
10
35.3311564515
20
-22.1605541918
30
0.0000000000
10
35.3181804901
20
-22.1582534546
30
0.0000000000
10
35.3019040648
20
-22.1634813628
30
0.0000000000
10
35.3009089127
20
-22.1595663729
30
0.0000000000
11
35.3483020023
21
-22.1597532447
31
0.0000000000
11
35.3320768621
21
-22.1600446218
31
0.0000000000
11
35.3143052518
21
-22.1602566722
31
0.0000000000
11
35.3009089127
21
-22.1595663729
31
0.0000000000
0
SPLINE
5
3ED
100
AcDbEntity
8
0
100
AcDbSpline
62
9
6
CONTINUOUS
70
0
71
3
72
11
73
7
74
5
42
0.0000001000
43
0.0000001000
44
0.0000000001
12
0.0000000000
22
-0.3645127889
32
0.0000000000
13
0.3645127889
23
0.0000000000
33
0.0000000000
40
0.0000000000
40
0.0000000000
40
0.0000000000
40
0.0000000000
40
0.2332175100
40
0.4765997713
40
0.7336719567
40
1.0000000000
40
1.0000000000
40
1.0000000000
40
1.0000000000
10
35.4323885235
20
24.1191266618
30
0.0000000000
10
35.4323885235
20
24.0907897402
30
0.0000000000
10
35.4461543991
20
24.0321463539
30
0.0000000000
10
35.5030759222
20
23.9603620243
30
0.0000000000
10
35.5858753155
20
23.9134023960
30
0.0000000000
10
35.6500285309
20
23.9026203109
30
0.0000000000
10
35.6823885235
20
23.9026203109
30
0.0000000000
11
35.4323885235
21
24.1191266618
31
0.0000000000
11
35.4514186404
21
24.0362732683
31
0.0000000000
11
35.5056118282
21
23.9660335529
31
0.0000000000
11
35.5867176654
21
23.9191008755
31
0.0000000000
11
35.6823885235
21
23.9026203109
31
0.0000000000
0
SPLINE
5
3EE
100
AcDbEntity
8
0
100
AcDbSpline
62
9
6
CONTINUOUS
70
0
71
3
72
11
73
7
74
5
42
0.0000001000
43
0.0000001000
44
0.0000000001
12
0.0000000000
22
0.3645127889
32
0.0000000000
13
-0.3645127889
23
0.0000000000
33
0.0000000000
40
0.0000000000
40
0.0000000000
40
0.0000000000
40
0.0000000000
40
0.2332175100
40
0.4765997713
40
0.7336719567
40
1.0000000000
40
1.0000000000
40
1.0000000000
40
1.0000000000
10
37.8323885235
20
-23.1365357709
30
0.0000000000
10
37.8323885235
20
-23.1081988492
30
0.0000000000
10
37.8186226479
20
-23.0495554629
30
0.0000000000
10
37.7617011248
20
-22.9777711333
30
0.0000000000
10
37.6789017314
20
-22.9308115050
30
0.0000000000
10
37.6147485161
20
-22.9200294199
30
0.0000000000
10
37.5823885235
20
-22.9200294199
30
0.0000000000
11
37.8323885235
21
-23.1365357709
31
0.0000000000
11
37.8133584066
21
-23.0536823774
31
0.0000000000
11
37.7591652188
21
-22.9834426619
31
0.0000000000
11
37.6780593816
21
-22.9365099846
31
0.0000000000
11
37.5823885235
21
-22.9200294199
31
0.0000000000
0
SPLINE
5
3EF
100
AcDbEntity
8
0
100
AcDbSpline
62
9
6
CONTINUOUS
70
0
71
3
72
8
73
4
74
2
42
0.0000001000
43
0.0000001000
44
0.0000000001
12
0.0000223036
22
-0.0759468444
32
0.0000000000
13
-0.0115686456
23
-0.0754301343
33
0.0000000000
40
0.0000000000
40
0.0000000000
40
0.0000000000
40
0.0000000000
40
1.0000000000
40
1.0000000000
40
1.0000000000
40
1.0000000000
10
57.2169068484
20
-21.6230142266
30
0.0000000000
10
57.2169142829
20
-21.6483298414
30
0.0000000000
10
57.2149666605
20
-21.6737327393
30
0.0000000000
10
57.2111104453
20
-21.6988761174
30
0.0000000000
11
57.2169068484
21
-21.6230142266
31
0.0000000000
11
57.2111104453
21
-21.6988761174
31
0.0000000000
0
SPLINE
5
3F0
100
AcDbEntity
8
0
100
AcDbSpline
62
9
6
CONTINUOUS
70
0
71
3
72
8
73
4
74
2
42
0.0000001000
43
0.0000001000
44
0.0000000001
12
-0.0028158974
22
-0.0183602752
32
0.0000000000
13
-0.0034923610
23
-0.0182530161
33
0.0000000000
40
0.0000000000
40
0.0000000000
40
0.0000000000
40
0.0000000000
40
1.0000000000
40
1.0000000000
40
1.0000000000
40
1.0000000000
10
57.2111104453
20
-21.6988761174
30
0.0000000000
10
57.2101718128
20
-21.7049962091
30
0.0000000000
10
57.2091201014
20
-21.7111009250
30
0.0000000000
10
57.2079559810
20
-21.7171852637
30
0.0000000000
11
57.2111104453
21
-21.6988761174
31
0.0000000000
11
57.2079559810
21
-21.7171852637
31
0.0000000000
0
SPLINE
5
3F1
100
AcDbEntity
8
0
100
AcDbSpline
62
9
6
CONTINUOUS
70
0
71
3
72
11
73
7
74
5
42
0.0000001000
43
0.0000001000
44
0.0000000001
12
0.0000000000
22
0.3645127889
32
0.0000000000
13
0.3645127889
23
0.0000000000
33
0.0000000000
40
0.0000000000
40
0.0000000000
40
0.0000000000
40
0.0000000000
40
0.2332175100
40
0.4765997713
40
0.7336719567
40
1.0000000000
40
1.0000000000
40
1.0000000000
40
1.0000000000
10
35.4323885235
20
-23.1365357709
30
0.0000000000
10
35.4323885235
20
-23.1081988492
30
0.0000000000
10
35.4461543991
20
-23.0495554629
30
0.0000000000
10
35.5030759222
20
-22.9777711333
30
0.0000000000
10
35.5858753155
20
-22.9308115050
30
0.0000000000
10
35.6500285309
20
-22.9200294199
30
0.0000000000
10
35.6823885235
20
-22.9200294199
30
0.0000000000
11
35.4323885235
21
-23.1365357709
31
0.0000000000
11
35.4514186404
21
-23.0536823774
31
0.0000000000
11
35.5056118282
21
-22.9834426619
31
0.0000000000
11
35.5867176654
21
-22.9365099846
31
0.0000000000
11
35.6823885235
21
-22.9200294199
31
0.0000000000
0
SPLINE
5
3F2
100
AcDbEntity
8
0
100
AcDbSpline
62
9
6
CONTINUOUS
70
0
71
3
72
11
73
7
74
5
42
0.0000001000
43
0.0000001000
44
0.0000000001
12
0.0000000000
22
-0.3645127889
32
0.0000000000
13
0.3645127889
23
0.0000000000
33
0.0000000000
40
0.0000000000
40
0.0000000000
40
0.0000000000
40
0.0000000000
40
0.2332175100
40
0.4765997713
40
0.7336719567
40
1.0000000000
40
1.0000000000
40
1.0000000000
40
1.0000000000
10
35.4323885235
20
23.6861139599
30
0.0000000000
10
35.4323885235
20
23.6577770383
30
0.0000000000
10
35.4461543991
20
23.5991336520
30
0.0000000000
10
35.5030759222
20
23.5273493224
30
0.0000000000
10
35.5858753155
20
23.4803896941
30
0.0000000000
10
35.6500285309
20
23.4696076090
30
0.0000000000
10
35.6823885235
20
23.4696076090
30
0.0000000000
11
35.4323885235
21
23.6861139599
31
0.0000000000
11
35.4514186404
21
23.6032605664
31
0.0000000000
11
35.5056118282
21
23.5330208510
31
0.0000000000
11
35.5867176654
21
23.4860881736
31
0.0000000000
11
35.6823885235
21
23.4696076090
31
0.0000000000
0
SPLINE
5
3F3
100
AcDbEntity
8
0
100
AcDbSpline
62
9
6
CONTINUOUS
70
0
71
3
72
12
73
8
74
6
42
0.0000001000
43
0.0000001000
44
0.0000000001
12
0.0152822048
22
0.0203965203
32
0.0000000000
13
0.0026542214
23
0.0254842054
33
0.0000000000
40
0.0000000000
40
0.0000000000
40
0.0000000000
40
0.0000000000
40
0.1615028238
40
0.3359649369
40
0.5813874142
40
0.8889125265
40
1.0000000000
40
1.0000000000
40
1.0000000000
40
1.0000000000
10
57.2102143181
20
-21.6658754325
30
0.0000000000
10
57.2110370245
20
-21.6647774006
30
0.0000000000
10
57.2112040638
20
-21.6617061197
30
0.0000000000
10
57.2120441969
20
-21.6569356519
30
0.0000000000
10
57.2126573705
20
-21.6507396915
30
0.0000000000
10
57.2132874444
20
-21.6451628938
30
0.0000000000
10
57.2136464173
20
-21.6416019841
30
0.0000000000
10
57.2137447008
20
-21.6406583254
30
0.0000000000
11
57.2102143181
21
-21.6658754325
31
0.0000000000
11
57.2112712088
21
-21.6618972846
31
0.0000000000
11
57.2118980105
21
-21.6574952495
31
0.0000000000
11
57.2126165566
21
-21.6512816882
31
0.0000000000
11
57.2134532033
21
-21.6434887186
31
0.0000000000
11
57.2137447008
21
-21.6406583254
31
0.0000000000
0
SPLINE
5
3F4
100
AcDbEntity
8
0
100
AcDbSpline
62
9
6
CONTINUOUS
70
0
71
3
72
9
73
5
74
3
42
0.0000001000
43
0.0000001000
44
0.0000000001
12
0.0008977691
22
0.0086198283
32
0.0000000000
13
0.0013680376
23
0.0083632586
33
0.0000000000
40
0.0000000000
40
0.0000000000
40
0.0000000000
40
0.0000000000
40
0.6710878468
40
1.0000000000
40
1.0000000000
40
1.0000000000
40
1.0000000000
10
57.2137447008
20
-21.6406583254
30
0.0000000000
10
57.2139455282
20
-21.6387301048
30
0.0000000000
10
57.2142635909
20
-21.6358649298
30
0.0000000000
10
57.2147179409
20
-21.6330968660
30
0.0000000000
10
57.2148679290
20
-21.6321799402
30
0.0000000000
11
57.2137447008
21
-21.6406583254
31
0.0000000000
11
57.2144338024
21
-21.6349282715
31
0.0000000000
11
57.2148679290
21
-21.6321799402
31
0.0000000000
0
SPLINE
5
3F5
100
AcDbEntity
8
0
100
AcDbSpline
62
9
6
CONTINUOUS
70
0
71
3
72
9
73
5
74
3
42
0.0000001000
43
0.0000001000
44
0.0000000001
12
0.0014864811
22
0.0090873420
32
0.0000000000
13
0.0066448728
23
0.0066019735
33
0.0000000000
40
0.0000000000
40
0.0000000000
40
0.0000000000
40
0.0000000000
40
0.5285227581
40
1.0000000000
40
1.0000000000
40
1.0000000000
40
1.0000000000
10
57.2148679290
20
-21.6321799402
30
0.0000000000
10
57.2151298087
20
-21.6305789846
30
0.0000000000
10
57.2156284565
20
-21.6275125170
30
0.0000000000
10
57.2158625463
20
-21.6240517866
30
0.0000000000
10
57.2169068484
20
-21.6230142266
30
0.0000000000
11
57.2148679290
21
-21.6321799402
31
0.0000000000
11
57.2155830015
21
-21.6272274568
31
0.0000000000
11
57.2169068484
21
-21.6230142266
31
0.0000000000
0
SPLINE
5
3F6
100
AcDbEntity
8
0
100
AcDbSpline
62
9
6
CONTINUOUS
70
0
71
3
72
10
73
6
74
4
42
0.0000001000
43
0.0000001000
44
0.0000000001
12
0.0154151182
22
0.0210302357
32
0.0000000000
13
0.0156108681
23
0.0208853567
33
0.0000000000
40
0.0000000000
40
0.0000000000
40
0.0000000000
40
0.0000000000
40
0.3764656534
40
0.7511906533
40
1.0000000000
40
1.0000000000
40
1.0000000000
40
1.0000000000
10
57.1927625531
20
-21.6894243501
30
0.0000000000
10
57.1946969739
20
-21.6867852963
30
0.0000000000
10
57.1985660737
20
-21.6815261285
30
0.0000000000
10
57.2037411790
20
-21.6745431035
30
0.0000000000
10
57.2069807394
20
-21.6701983939
30
0.0000000000
10
57.2082754494
20
-21.6684662366
30
0.0000000000
11
57.1927625531
21
-21.6894243501
31
0.0000000000
11
57.1985796582
21
-21.6815173540
31
0.0000000000
11
57.2043973942
21
-21.6736672430
31
0.0000000000
11
57.2082754494
21
-21.6684662366
31
0.0000000000
0
SPLINE
5
3F7
100
AcDbEntity
8
0
100
AcDbSpline
62
9
6
CONTINUOUS
70
0
71
3
72
8
73
4
74
2
42
0.0000001000
43
0.0000001000
44
0.0000000001
12
0.0019373563
22
0.0025919364
32
0.0000000000
13
0.0019403815
23
0.0025896704
33
0.0000000000
40
0.0000000000
40
0.0000000000
40
0.0000000000
40
0.0000000000
40
1.0000000000
40
1.0000000000
40
1.0000000000
40
1.0000000000
10
57.2082754494
20
-21.6684662366
30
0.0000000000
10
57.2089212348
20
-21.6676022578
30
0.0000000000
10
57.2095675243
20
-21.6667386559
30
0.0000000000
10
57.2102143181
20
-21.6658754325
30
0.0000000000
11
57.2082754494
21
-21.6684662366
31
0.0000000000
11
57.2102143181
21
-21.6658754325
31
0.0000000000
0
SPLINE
5
3F8
100
AcDbEntity
8
0
100
AcDbSpline
62
9
6
CONTINUOUS
70
0
71
3
72
12
73
8
74
6
42
0.0000001000
43
0.0000001000
44
0.0000000001
12
0.2503389797
22
-0.0000011533
32
0.0000000000
13
-0.0013515230
23
-0.2501810196
33
0.0000000000
40
0.0000000000
40
0.0000000000
40
0.0000000000
40
0.0000000000
40
0.3099985797
40
0.5869657650
40
0.8064650259
40
0.9492421299
40
1.0000000000
40
1.0000000000
40
1.0000000000
40
1.0000000000
10
37.5823885235
20
22.9044931705
30
0.0000000000
10
37.6082567662
20
22.9044930513
30
0.0000000000
10
37.6576920178
20
22.9045514608
30
0.0000000000
10
37.7232411162
20
22.9024166892
30
0.0000000000
10
37.7810193755
20
22.9037412869
30
0.0000000000
10
37.8068214162
20
22.8964391296
30
0.0000000000
10
37.8324114079
20
22.9008743271
30
0.0000000000
10
37.8323885411
20
22.8966414419
30
0.0000000000
11
37.5823885235
21
22.9044931705
31
0.0000000000
11
37.6599922812
21
22.9041050720
31
0.0000000000
11
37.7293190570
21
22.9029937489
31
0.0000000000
11
37.7842413435
21
22.9012734788
31
0.0000000000
11
37.8199171606
21
22.8990883337
31
0.0000000000
11
37.8323885411
21
22.8966414419
31
0.0000000000
0
SPLINE
5
3F9
100
AcDbEntity
8
0
100
AcDbSpline
62
9
6
CONTINUOUS
70
0
71
3
72
12
73
8
74
6
42
0.0000001000
43
0.0000001000
44
0.0000000001
12
0.0255492468
22
0.0254756294
32
0.0000000000
13
0.0213326617
23
0.0290979253
33
0.0000000000
40
0.0000000000
40
0.0000000000
40
0.0000000000
40
0.0000000000
40
0.2283338935
40
0.4602049221
40
0.6762215750
40
0.8408748789
40
1.0000000000
40
1.0000000000
40
1.0000000000
40
1.0000000000
10
57.1857430807
20
-21.6541805948
30
0.0000000000
10
57.1876876670
20
-21.6522416116
30
0.0000000000
10
57.1881742130
20
-21.6641787729
30
0.0000000000
10
57.1893636774
20
-21.6694301702
30
0.0000000000
10
57.1901649833
20
-21.6781155307
30
0.0000000000
10
57.1909615711
20
-21.6823315688
30
0.0000000000
10
57.1916310323
20
-21.6909677537
30
0.0000000000
10
57.1927625531
20
-21.6894243501
30
0.0000000000
11
57.1857430807
21
-21.6541805948
31
0.0000000000
11
57.1882499741
21
-21.6620282144
31
0.0000000000
11
57.1893374489
21
-21.6703231573
31
0.0000000000
11
57.1902527144
21
-21.6780631260
31
0.0000000000
11
57.1910192928
21
-21.6839541627
31
0.0000000000
11
57.1927625531
21
-21.6894243501
31
0.0000000000
0
SPLINE
5
3FA
100
AcDbEntity
8
0
100
AcDbSpline
62
9
6
CONTINUOUS
70
0
71
3
72
11
73
7
74
5
42
0.0000001000
43
0.0000001000
44
0.0000000001
12
0.0000000000
22
-0.3645127889
32
0.0000000000
13
-0.3645127889
23
0.0000000000
33
0.0000000000
40
0.0000000000
40
0.0000000000
40
0.0000000000
40
0.0000000000
40
0.2332175100
40
0.4765997713
40
0.7336719567
40
1.0000000000
40
1.0000000000
40
1.0000000000
40
1.0000000000
10
37.8323885235
20
23.6861139599
30
0.0000000000
10
37.8323885235
20
23.6577770383
30
0.0000000000
10
37.8186226479
20
23.5991336520
30
0.0000000000
10
37.7617011248
20
23.5273493224
30
0.0000000000
10
37.6789017314
20
23.4803896941
30
0.0000000000
10
37.6147485161
20
23.4696076090
30
0.0000000000
10
37.5823885235
20
23.4696076090
30
0.0000000000
11
37.8323885235
21
23.6861139599
31
0.0000000000
11
37.8133584066
21
23.6032605664
31
0.0000000000
11
37.7591652188
21
23.5330208510
31
0.0000000000
11
37.6780593816
21
23.4860881736
31
0.0000000000
11
37.5823885235
21
23.4696076090
31
0.0000000000
0
SPLINE
5
3FB
100
AcDbEntity
8
0
100
AcDbSpline
62
9
6
CONTINUOUS
70
0
71
3
72
11
73
7
74
5
42
0.0000001000
43
0.0000001000
44
0.0000000001
12
0.0152476682
22
-0.0205493852
32
0.0000000000
13
0.0033938783
23
-0.0250338902
33
0.0000000000
40
0.0000000000
40
0.0000000000
40
0.0000000000
40
0.0000000000
40
0.2689929315
40
0.4621960086
40
0.7100657331
40
1.0000000000
40
1.0000000000
40
1.0000000000
40
1.0000000000
10
57.2102132567
20
22.2154550433
30
0.0000000000
10
57.2115804283
20
22.2136124969
30
0.0000000000
10
57.2114460673
20
22.2092653664
30
0.0000000000
10
57.2124036081
20
22.2033926162
30
0.0000000000
10
57.2130174768
20
22.1971648906
30
0.0000000000
10
57.2134451304
20
22.1925620317
30
0.0000000000
10
57.2137731309
20
22.1901426375
30
0.0000000000
11
57.2102132567
21
22.2154550433
31
0.0000000000
11
57.2116806573
21
22.2087301673
31
0.0000000000
11
57.2122868325
21
22.2038237042
31
0.0000000000
11
57.2129770608
21
22.1975187715
31
0.0000000000
11
57.2137731309
21
22.1901426375
31
0.0000000000
0
SPLINE
5
3FC
100
AcDbEntity
8
0
100
AcDbSpline
62
9
6
CONTINUOUS
70
0
71
3
72
8
73
4
74
2
42
0.0000001000
43
0.0000001000
44
0.0000000001
12
0.0010185358
22
-0.0075129133
32
0.0000000000
13
0.0004037678
23
-0.0080464089
33
0.0000000000
40
0.0000000000
40
0.0000000000
40
0.0000000000
40
0.0000000000
40
1.0000000000
40
1.0000000000
40
1.0000000000
40
1.0000000000
10
57.2137731309
20
22.1901426375
30
0.0000000000
10
57.2141126429
20
22.1876383331
30
0.0000000000
10
57.2145565641
20
22.1852005023
30
0.0000000000
10
57.2146911534
20
22.1825183660
30
0.0000000000
11
57.2137731309
21
22.1901426375
31
0.0000000000
11
57.2146911534
21
22.1825183660
31
0.0000000000
0
SPLINE
5
3FD
100
AcDbEntity
8
0
100
AcDbSpline
62
9
6
CONTINUOUS
70
0
71
3
72
8
73
4
74
2
42
0.0000001000
43
0.0000001000
44
0.0000000001
12
0.0005350213
22
-0.0106620687
32
0.0000000000
13
0.0072071650
23
-0.0071833968
33
0.0000000000
40
0.0000000000
40
0.0000000000
40
0.0000000000
40
0.0000000000
40
1.0000000000
40
1.0000000000
40
1.0000000000
40
1.0000000000
10
57.2146911534
20
22.1825183660
30
0.0000000000
10
57.2148694939
20
22.1789643431
30
0.0000000000
10
57.2145047045
20
22.1749813649
30
0.0000000000
10
57.2169070929
20
22.1725868994
30
0.0000000000
11
57.2146911534
21
22.1825183660
31
0.0000000000
11
57.2169070929
21
22.1725868994
31
0.0000000000
0
SPLINE
5
3FE
100
AcDbEntity
8
0
100
AcDbSpline
62
9
6
CONTINUOUS
70
0
71
3
72
10
73
6
74
4
42
0.0000001000
43
0.0000001000
44
0.0000000001
12
0.0154134135
22
-0.0210279100
32
0.0000000000
13
0.0156091404
23
-0.0208830481
33
0.0000000000
40
0.0000000000
40
0.0000000000
40
0.0000000000
40
0.0000000000
40
0.3764344993
40
0.7512009426
40
1.0000000000
40
1.0000000000
40
1.0000000000
40
1.0000000000
10
57.1927636777
20
22.2390010105
30
0.0000000000
10
57.1946977245
20
22.2363624669
30
0.0000000000
10
57.1985664504
20
22.2311038094
30
0.0000000000
10
57.2037409819
20
22.2241215555
30
0.0000000000
10
57.2069803487
20
22.2197771114
30
0.0000000000
10
57.2082748619
20
22.2180452171
30
0.0000000000
11
57.1927636777
21
22.2390010105
31
0.0000000000
11
57.1985796582
21
22.2310955430
31
0.0000000000
11
57.2043973942
21
22.2232454321
31
0.0000000000
11
57.2082748619
21
22.2180452171
31
0.0000000000
0
SPLINE
5
3FF
100
AcDbEntity
8
0
100
AcDbSpline
62
9
6
CONTINUOUS
70
0
71
3
72
8
73
4
74
2
42
0.0000001000
43
0.0000001000
44
0.0000000001
12
0.0019368840
22
-0.0025913049
32
0.0000000000
13
0.0019399058
23
-0.0025890415
33
0.0000000000
40
0.0000000000
40
0.0000000000
40
0.0000000000
40
0.0000000000
40
1.0000000000
40
1.0000000000
40
1.0000000000
40
1.0000000000
10
57.2082748619
20
22.2180452171
30
0.0000000000
10
57.2089204899
20
22.2171814489
30
0.0000000000
10
57.2095666214
20
22.2163180572
30
0.0000000000
10
57.2102132567
20
22.2154550433
30
0.0000000000
11
57.2082748619
21
22.2180452171
31
0.0000000000
11
57.2102132567
21
22.2154550433
31
0.0000000000
0
SPLINE
5
400
100
AcDbEntity
8
0
100
AcDbSpline
62
9
6
CONTINUOUS
70
0
71
3
72
12
73
8
74
6
42
0.0000001000
43
0.0000001000
44
0.0000000001
12
0.0253919816
22
-0.0256426911
32
0.0000000000
13
0.0215069748
23
-0.0289784467
33
0.0000000000
40
0.0000000000
40
0.0000000000
40
0.0000000000
40
0.0000000000
40
0.2207304815
40
0.4613963760
40
0.6823365421
40
0.8446223924
40
1.0000000000
40
1.0000000000
40
1.0000000000
40
1.0000000000
10
57.1857429307
20
22.2037556484
30
0.0000000000
10
57.1876111922
20
22.2018689405
30
0.0000000000
10
57.1881809772
20
22.2137606433
30
0.0000000000
10
57.1893596893
20
22.2189612043
30
0.0000000000
10
57.1901807849
20
22.2278394427
30
0.0000000000
10
57.1909751416
20
22.2320564952
30
0.0000000000
10
57.1916497769
20
22.2405018778
30
0.0000000000
10
57.1927636777
20
22.2390010105
30
0.0000000000
11
57.1857429307
21
22.2037556484
31
0.0000000000
11
57.1882083704
21
22.2113300931
31
0.0000000000
11
57.1893421471
21
22.2199407772
31
0.0000000000
11
57.1902782013
21
22.2278587957
31
0.0000000000
11
57.1910391287
21
22.2336656261
31
0.0000000000
11
57.1927636777
21
22.2390010105
31
0.0000000000
0
SPLINE
5
401
100
AcDbEntity
8
0
100
AcDbSpline
62
0
6
CONTINUOUS
70
0
71
3
72
11
73
7
74
5
42
0.0000001000
43
0.0000001000
44
0.0000000001
12
0.0000000000
22
0.3922423365
32
0.0000000000
13
-0.2777975867
23
0.2777975873
33
0.0000000000
40
0.0000000000
40
0.0000000000
40
0.0000000000
40
0.0000000000
40
0.2500000360
40
0.5000003710
40
0.7499998934
40
1.0000000000
40
1.0000000000
40
1.0000000000
40
1.0000000000
10
57.1800233287
20
22.2094707439
30
0.0000000000
10
57.1800233287
20
22.2421576100
30
0.0000000000
10
57.1735723903
20
22.3077125650
30
0.0000000000
10
57.1449185176
20
22.4021233601
30
0.0000000000
10
57.0983914906
20
22.4891686405
30
0.0000000000
10
57.0566503647
20
22.5400266415
30
0.0000000000
10
57.0335005559
20
22.5631764503
30
0.0000000000
11
57.1800233287
21
22.2094707439
31
0.0000000000
11
57.1704094829
21
22.3070589343
31
0.0000000000
11
57.1419396190
21
22.4008958714
31
0.0000000000
11
57.0957107507
21
22.4873755405
31
0.0000000000
11
57.0335005559
21
22.5631764503
31
0.0000000000
0
SPLINE
5
402
100
AcDbEntity
8
0
100
AcDbSpline
62
9
6
CONTINUOUS
70
0
71
3
72
12
73
8
74
6
42
0.0000001000
43
0.0000001000
44
0.0000000001
12
0.2503421918
22
-0.0000022634
32
0.0000000000
13
-0.0000314345
23
0.2503406201
33
0.0000000000
40
0.0000000000
40
0.0000000000
40
0.0000000000
40
0.0000000000
40
0.3107821884
40
0.5882345780
40
0.8074165879
40
0.9495261486
40
1.0000000000
40
1.0000000000
40
1.0000000000
40
1.0000000000
10
56.4823885235
20
-22.3549149815
30
0.0000000000
10
56.5083224882
20
-22.3549152159
30
0.0000000000
10
56.5578637316
20
-22.3549738049
30
0.0000000000
10
56.6234976181
20
-22.3528312880
30
0.0000000000
10
56.6812065924
20
-22.3541486106
30
0.0000000000
10
56.7069880427
20
-22.3468731606
30
0.0000000000
10
56.7323890524
20
-22.3512721184
30
0.0000000000
10
56.7323885235
20
-22.3470602333
30
0.0000000000
11
56.4823885235
21
-22.3549149815
31
0.0000000000
11
56.5601894407
21
-22.3545250698
31
0.0000000000
11
56.6296384910
21
-22.3534076451
31
0.0000000000
11
56.6844819136
21
-22.3516839035
31
0.0000000000
11
56.7199909722
21
-22.3495021887
31
0.0000000000
11
56.7323885235
21
-22.3470602333
31
0.0000000000
0
SPLINE
5
403
100
AcDbEntity
8
0
100
AcDbSpline
62
9
6
CONTINUOUS
70
0
71
3
72
11
73
7
74
5
42
0.0000001000
43
0.0000001000
44
0.0000000001
12
-0.0152476682
22
0.0205493852
32
0.0000000000
13
-0.0033938783
23
0.0250338902
33
0.0000000000
40
0.0000000000
40
0.0000000000
40
0.0000000000
40
0.0000000000
40
0.2689929315
40
0.4621960086
40
0.7100657331
40
1.0000000000
40
1.0000000000
40
1.0000000000
40
1.0000000000
10
34.9545637903
20
-21.6658768543
30
0.0000000000
10
34.9531966186
20
-21.6640343078
30
0.0000000000
10
34.9533309797
20
-21.6596871774
30
0.0000000000
10
34.9523734389
20
-21.6538144271
30
0.0000000000
10
34.9517595701
20
-21.6475867015
30
0.0000000000
10
34.9513319166
20
-21.6429838426
30
0.0000000000
10
34.9510039160
20
-21.6405644484
30
0.0000000000
11
34.9545637903
21
-21.6658768543
31
0.0000000000
11
34.9530963897
21
-21.6591519783
31
0.0000000000
11
34.9524902144
21
-21.6542455151
31
0.0000000000
11
34.9517999862
21
-21.6479405824
31
0.0000000000
11
34.9510039160
21
-21.6405644484
31
0.0000000000
0
SPLINE
5
404
100
AcDbEntity
8
0
100
AcDbSpline
62
9
6
CONTINUOUS
70
0
71
3
72
8
73
4
74
2
42
0.0000001000
43
0.0000001000
44
0.0000000001
12
-0.0010185358
22
0.0075129133
32
0.0000000000
13
-0.0004037678
23
0.0080464089
33
0.0000000000
40
0.0000000000
40
0.0000000000
40
0.0000000000
40
0.0000000000
40
1.0000000000
40
1.0000000000
40
1.0000000000
40
1.0000000000
10
34.9510039160
20
-21.6405644484
30
0.0000000000
10
34.9506644041
20
-21.6380601440
30
0.0000000000
10
34.9502204828
20
-21.6356223132
30
0.0000000000
10
34.9500858935
20
-21.6329401769
30
0.0000000000
11
34.9510039160
21
-21.6405644484
31
0.0000000000
11
34.9500858935
21
-21.6329401769
31
0.0000000000
0
SPLINE
5
405
100
AcDbEntity
8
0
100
AcDbSpline
62
9
6
CONTINUOUS
70
0
71
3
72
8
73
4
74
2
42
0.0000001000
43
0.0000001000
44
0.0000000001
12
-0.0005350213
22
0.0106620687
32
0.0000000000
13
-0.0072071650
23
0.0071833968
33
0.0000000000
40
0.0000000000
40
0.0000000000
40
0.0000000000
40
0.0000000000
40
1.0000000000
40
1.0000000000
40
1.0000000000
40
1.0000000000
10
34.9500858935
20
-21.6329401769
30
0.0000000000
10
34.9499075531
20
-21.6293861540
30
0.0000000000
10
34.9502723424
20
-21.6254031759
30
0.0000000000
10
34.9478699541
20
-21.6230087103
30
0.0000000000
11
34.9500858935
21
-21.6329401769
31
0.0000000000
11
34.9478699541
21
-21.6230087103
31
0.0000000000
0
SPLINE
5
406
100
AcDbEntity
8
0
100
AcDbSpline
62
9
6
CONTINUOUS
70
0
71
3
72
10
73
6
74
4
42
0.0000001000
43
0.0000001000
44
0.0000000001
12
-0.0154134135
22
0.0210279100
32
0.0000000000
13
-0.0156091404
23
0.0208830481
33
0.0000000000
40
0.0000000000
40
0.0000000000
40
0.0000000000
40
0.0000000000
40
0.3764344993
40
0.7512009426
40
1.0000000000
40
1.0000000000
40
1.0000000000
40
1.0000000000
10
34.9720133693
20
-21.6894228215
30
0.0000000000
10
34.9700793224
20
-21.6867842779
30
0.0000000000
10
34.9662105965
20
-21.6815256204
30
0.0000000000
10
34.9610360650
20
-21.6745433664
30
0.0000000000
10
34.9577966982
20
-21.6701989223
30
0.0000000000
10
34.9565021851
20
-21.6684670281
30
0.0000000000
11
34.9720133693
21
-21.6894228215
31
0.0000000000
11
34.9661973887
21
-21.6815173540
31
0.0000000000
11
34.9603796528
21
-21.6736672430
31
0.0000000000
11
34.9565021851
21
-21.6684670281
31
0.0000000000
0
SPLINE
5
407
100
AcDbEntity
8
0
100
AcDbSpline
62
9
6
CONTINUOUS
70
0
71
3
72
8
73
4
74
2
42
0.0000001000
43
0.0000001000
44
0.0000000001
12
-0.0019368840
22
0.0025913049
32
0.0000000000
13
-0.0019399058
23
0.0025890415
33
0.0000000000
40
0.0000000000
40
0.0000000000
40
0.0000000000
40
0.0000000000
40
1.0000000000
40
1.0000000000
40
1.0000000000
40
1.0000000000
10
34.9565021851
20
-21.6684670281
30
0.0000000000
10
34.9558565571
20
-21.6676032598
30
0.0000000000
10
34.9552104256
20
-21.6667398681
30
0.0000000000
10
34.9545637903
20
-21.6658768543
30
0.0000000000
11
34.9565021851
21
-21.6684670281
31
0.0000000000
11
34.9545637903
21
-21.6658768543
31
0.0000000000
0
SPLINE
5
408
100
AcDbEntity
8
0
100
AcDbSpline
62
9
6
CONTINUOUS
70
0
71
3
72
12
73
8
74
6
42
0.0000001000
43
0.0000001000
44
0.0000000001
12
-0.0253919816
22
0.0256426911
32
0.0000000000
13
-0.0215069748
23
0.0289784467
33
0.0000000000
40
0.0000000000
40
0.0000000000
40
0.0000000000
40
0.0000000000
40
0.2207304815
40
0.4613963760
40
0.6823365421
40
0.8446223924
40
1.0000000000
40
1.0000000000
40
1.0000000000
40
1.0000000000
10
34.9790341162
20
-21.6541774593
30
0.0000000000
10
34.9771658548
20
-21.6522907515
30
0.0000000000
10
34.9765960697
20
-21.6641824542
30
0.0000000000
10
34.9754173577
20
-21.6693830153
30
0.0000000000
10
34.9745962621
20
-21.6782612536
30
0.0000000000
10
34.9738019053
20
-21.6824783061
30
0.0000000000
10
34.9731272700
20
-21.6909236887
30
0.0000000000
10
34.9720133693
20
-21.6894228215
30
0.0000000000
11
34.9790341162
21
-21.6541774593
31
0.0000000000
11
34.9765686766
21
-21.6617519041
31
0.0000000000
11
34.9754348999
21
-21.6703625882
31
0.0000000000
11
34.9744988456
21
-21.6782806066
31
0.0000000000
11
34.9737379183
21
-21.6840874370
31
0.0000000000
11
34.9720133693
21
-21.6894228215
31
0.0000000000
0
SPLINE
5
409
100
AcDbEntity
8
0
100
AcDbSpline
62
0
6
CONTINUOUS
70
0
71
3
72
11
73
7
74
5
42
0.0000001000
43
0.0000001000
44
0.0000000001
12
0.0000000000
22
-0.3922423365
32
0.0000000000
13
0.2777975867
23
-0.2777975873
33
0.0000000000
40
0.0000000000
40
0.0000000000
40
0.0000000000
40
0.0000000000
40
0.2500000360
40
0.5000003710
40
0.7499998934
40
1.0000000000
40
1.0000000000
40
1.0000000000
40
1.0000000000
10
34.9847537183
20
-21.6598925549
30
0.0000000000
10
34.9847537183
20
-21.6925794209
30
0.0000000000
10
34.9912046567
20
-21.7581343759
30
0.0000000000
10
35.0198585294
20
-21.8525451710
30
0.0000000000
10
35.0663855564
20
-21.9395904515
30
0.0000000000
10
35.1081266823
20
-21.9904484524
30
0.0000000000
10
35.1312764910
20
-22.0135982612
30
0.0000000000
11
34.9847537183
21
-21.6598925549
31
0.0000000000
11
34.9943675641
21
-21.7574807452
31
0.0000000000
11
35.0228374280
21
-21.8513176824
31
0.0000000000
11
35.0690662962
21
-21.9377973514
31
0.0000000000
11
35.1312764910
21
-22.0135982612
31
0.0000000000
0
SPLINE
5
40A
100
AcDbEntity
8
0
100
AcDbSpline
62
9
6
CONTINUOUS
70
0
71
3
72
8
73
4
74
2
42
0.0000001000
43
0.0000001000
44
0.0000000001
12
-0.0000231453
22
0.0759537557
32
0.0000000000
13
0.0115699331
23
0.0754370123
33
0.0000000000
40
0.0000000000
40
0.0000000000
40
0.0000000000
40
0.0000000000
40
1.0000000000
40
1.0000000000
40
1.0000000000
40
1.0000000000
10
34.9478699541
20
22.1725868995
30
0.0000000000
10
34.9478622390
20
22.1979048181
30
0.0000000000
10
34.9498099415
20
22.2233100623
30
0.0000000000
10
34.9536665859
20
22.2484557330
30
0.0000000000
11
34.9478699541
21
22.1725868995
31
0.0000000000
11
34.9536665859
21
22.2484557330
31
0.0000000000
0
SPLINE
5
40B
100
AcDbEntity
8
0
100
AcDbSpline
62
9
6
CONTINUOUS
70
0
71
3
72
8
73
4
74
2
42
0.0000001000
43
0.0000001000
44
0.0000000001
12
0.0028181644
22
0.0183746872
32
0.0000000000
13
0.0034956893
23
0.0182672455
33
0.0000000000
40
0.0000000000
40
0.0000000000
40
0.0000000000
40
0.0000000000
40
1.0000000000
40
1.0000000000
40
1.0000000000
40
1.0000000000
10
34.9536665859
20
22.2484557330
30
0.0000000000
10
34.9546059740
20
22.2545806288
30
0.0000000000
10
34.9556586188
20
22.2606901241
30
0.0000000000
10
34.9568238485
20
22.2667792060
30
0.0000000000
11
34.9536665859
21
22.2484557330
31
0.0000000000
11
34.9568238485
21
22.2667792060
31
0.0000000000
0
SPLINE
5
40C
100
AcDbEntity
8
0
100
AcDbSpline
62
9
6
CONTINUOUS
70
0
71
3
72
9
73
5
74
3
42
0.0000001000
43
0.0000001000
44
0.0000000001
12
0.0657187819
22
0.1476429739
32
0.0000000000
13
0.1092396430
23
0.1190930732
33
0.0000000000
40
0.0000000000
40
0.0000000000
40
0.0000000000
40
0.0000000000
40
0.6481307893
40
1.0000000000
40
1.0000000000
40
1.0000000000
40
1.0000000000
10
34.9910426650
20
22.3759620887
30
0.0000000000
10
35.0052407870
20
22.4078594078
30
0.0000000000
10
35.0322911433
20
22.4547484751
30
0.0000000000
10
35.0664538648
20
22.4965044675
30
0.0000000000
10
35.0792665538
20
22.5104728627
30
0.0000000000
11
34.9910426650
21
22.3759620887
31
0.0000000000
11
35.0432928408
21
22.4664836354
31
0.0000000000
11
35.0792665538
21
22.5104728627
31
0.0000000000
0
SPLINE
5
40D
100
AcDbEntity
8
0
100
AcDbSpline
62
9
6
CONTINUOUS
70
0
71
3
72
12
73
8
74
6
42
0.0000001000
43
0.0000001000
44
0.0000000001
12
-0.0154922485
22
-0.0208551760
32
0.0000000000
13
-0.0027315042
23
-0.0259705875
33
0.0000000000
40
0.0000000000
40
0.0000000000
40
0.0000000000
40
0.0000000000
40
0.1653330706
40
0.3426440317
40
0.5881323187
40
0.8916194925
40
1.0000000000
40
1.0000000000
40
1.0000000000
40
1.0000000000
10
34.9545637667
20
22.2154550117
30
0.0000000000
10
34.9537099730
20
22.2143056616
30
0.0000000000
10
34.9535499889
20
22.2111118378
30
0.0000000000
10
34.9526937138
20
22.2061904630
30
0.0000000000
10
34.9520716919
20
22.1998848448
30
0.0000000000
10
34.9514388809
20
22.1942563848
30
0.0000000000
10
34.9510761867
20
22.1906858179
30
0.0000000000
10
34.9509775061
20
22.1897475828
30
0.0000000000
11
34.9545637667
21
22.2154550117
31
0.0000000000
11
34.9534766813
21
22.2112995371
31
0.0000000000
11
34.9528375518
21
22.2067375938
31
0.0000000000
11
34.9521097042
21
22.2004015344
31
0.0000000000
11
34.9512694084
21
22.1925619145
31
0.0000000000
11
34.9509775061
21
22.1897475828
31
0.0000000000
0
SPLINE
5
40E
100
AcDbEntity
8
0
100
AcDbSpline
62
9
6
CONTINUOUS
70
0
71
3
72
10
73
6
74
4
42
0.0000001000
43
0.0000001000
44
0.0000000001
12
-0.0018400893
22
-0.0174951963
32
0.0000000000
13
-0.0123215807
23
-0.0124288727
33
0.0000000000
40
0.0000000000
40
0.0000000000
40
0.0000000000
40
0.0000000000
40
0.3258148042
40
0.7556079970
40
1.0000000000
40
1.0000000000
40
1.0000000000
40
1.0000000000
10
34.9509775061
20
22.1897475828
30
0.0000000000
10
34.9507776633
20
22.1878475181
30
0.0000000000
10
34.9502833866
20
22.1834537416
30
0.0000000000
10
34.9492047875
20
22.1779373221
30
0.0000000000
10
34.9488737194
20
22.1735994052
30
0.0000000000
10
34.9478699541
20
22.1725868995
30
0.0000000000
11
34.9509775061
21
22.1897475828
31
0.0000000000
11
34.9502917719
21
22.1841002963
31
0.0000000000
11
34.9491657946
21
22.1766630754
31
0.0000000000
11
34.9478699541
21
22.1725868995
31
0.0000000000
0
SPLINE
5
40F
100
AcDbEntity
8
0
100
AcDbSpline
62
9
6
CONTINUOUS
70
0
71
3
72
10
73
6
74
4
42
0.0000001000
43
0.0000001000
44
0.0000000001
12
-0.0001309038
22
0.3150247545
32
0.0000000000
13
0.1868965376
23
0.2549287986
33
0.0000000000
40
0.0000000000
40
0.0000000000
40
0.0000000000
40
0.0000000000
40
0.4827878059
40
0.9655370891
40
1.0000000000
40
1.0000000000
40
1.0000000000
40
1.0000000000
10
34.9720151037
20
22.2390033682
30
0.0000000000
10
34.9719940375
20
22.2897000715
30
0.0000000000
10
34.9876138454
20
22.3917703403
30
0.0000000000
10
35.0347845464
20
22.4873657381
30
0.0000000000
10
35.0665253731
20
22.5316683825
30
0.0000000000
10
35.0686723727
20
22.5345969120
30
0.0000000000
11
34.9720151037
21
22.2390033682
31
0.0000000000
11
34.9950963789
21
22.3893318761
31
0.0000000000
11
35.0623280643
21
22.5257416073
31
0.0000000000
11
35.0686723727
21
22.5345969120
31
0.0000000000
0
SPLINE
5
410
100
AcDbEntity
8
0
100
AcDbSpline
62
9
6
CONTINUOUS
70
0
71
3
72
10
73
6
74
4
42
0.0000001000
43
0.0000001000
44
0.0000000001
12
-0.0154134285
22
-0.0210279306
32
0.0000000000
13
-0.0156091556
23
-0.0208830685
33
0.0000000000
40
0.0000000000
40
0.0000000000
40
0.0000000000
40
0.0000000000
40
0.3764342676
40
0.7512003438
40
1.0000000000
40
1.0000000000
40
1.0000000000
40
1.0000000000
10
34.9720133714
20
22.2390010134
30
0.0000000000
10
34.9700793238
20
22.2363624688
30
0.0000000000
10
34.9662105972
20
22.2311038104
30
0.0000000000
10
34.9610360606
20
22.2241215496
30
0.0000000000
10
34.9577966895
20
22.2197770997
30
0.0000000000
10
34.9565021720
20
22.2180451996
30
0.0000000000
11
34.9720133714
21
22.2390010134
31
0.0000000000
11
34.9661973887
21
22.2310955430
31
0.0000000000
11
34.9603796528
21
22.2232454321
31
0.0000000000
11
34.9565021720
21
22.2180451996
31
0.0000000000
0
SPLINE
5
411
100
AcDbEntity
8
0
100
AcDbSpline
62
9
6
CONTINUOUS
70
0
71
3
72
8
73
4
74
2
42
0.0000001000
43
0.0000001000
44
0.0000000001
12
-0.0019368945
22
-0.0025913189
32
0.0000000000
13
-0.0019399163
23
-0.0025890556
33
0.0000000000
40
0.0000000000
40
0.0000000000
40
0.0000000000
40
0.0000000000
40
1.0000000000
40
1.0000000000
40
1.0000000000
40
1.0000000000
10
34.9565021720
20
22.2180451996
30
0.0000000000
10
34.9558565405
20
22.2171814266
30
0.0000000000
10
34.9552104054
20
22.2163180302
30
0.0000000000
10
34.9545637667
20
22.2154550117
30
0.0000000000
11
34.9565021720
21
22.2180451996
31
0.0000000000
11
34.9545637667
21
22.2154550117
31
0.0000000000
0
SPLINE
5
412
100
AcDbEntity
8
0
100
AcDbSpline
62
9
6
CONTINUOUS
70
0
71
3
72
12
73
8
74
6
42
0.0000001000
43
0.0000001000
44
0.0000000001
12
-0.0253420324
22
-0.0256731762
32
0.0000000000
13
-0.0215216859
23
-0.0289507793
33
0.0000000000
40
0.0000000000
40
0.0000000000
40
0.0000000000
40
0.0000000000
40
0.2513356302
40
0.4773672625
40
0.6857919744
40
0.8450499551
40
1.0000000000
40
1.0000000000
40
1.0000000000
40
1.0000000000
10
34.9790341161
20
22.2037556503
30
0.0000000000
10
34.9769109976
20
22.2016047890
30
0.0000000000
10
34.9765643870
20
22.2142072437
30
0.0000000000
10
34.9753396122
20
22.2196550873
30
0.0000000000
10
34.9745694462
20
22.2280332662
30
0.0000000000
10
34.9737933640
20
22.2321346491
30
0.0000000000
10
34.9731249668
20
22.2404963215
30
0.0000000000
10
34.9720133714
20
22.2390010134
30
0.0000000000
11
34.9790341161
21
22.2037556503
31
0.0000000000
11
34.9764057664
21
22.2124329949
31
0.0000000000
11
34.9753656400
21
22.2205202383
31
0.0000000000
11
34.9744834852
21
22.2279870129
31
0.0000000000
11
34.9737351203
21
22.2336831286
31
0.0000000000
11
34.9720133714
21
22.2390010134
31
0.0000000000
0
SPLINE
5
413
100
AcDbEntity
8
0
100
AcDbSpline
62
9
6
CONTINUOUS
70
0
71
3
72
12
73
8
74
6
42
0.0000001000
43
0.0000001000
44
0.0000000001
12
-0.2503389797
22
0.0000011533
32
0.0000000000
13
0.0013515230
23
0.2501810196
33
0.0000000000
40
0.0000000000
40
0.0000000000
40
0.0000000000
40
0.0000000000
40
0.3099985797
40
0.5869657650
40
0.8064650259
40
0.9492421299
40
1.0000000000
40
1.0000000000
40
1.0000000000
40
1.0000000000
10
35.6823885235
20
-22.3549149815
30
0.0000000000
10
35.6565202808
20
-22.3549148623
30
0.0000000000
10
35.6070850291
20
-22.3549732717
30
0.0000000000
10
35.5415359307
20
-22.3528385001
30
0.0000000000
10
35.4837576714
20
-22.3541630978
30
0.0000000000
10
35.4579556307
20
-22.3468609405
30
0.0000000000
10
35.4323656390
20
-22.3512961381
30
0.0000000000
10
35.4323885058
20
-22.3470632528
30
0.0000000000
11
35.6823885235
21
-22.3549149815
31
0.0000000000
11
35.6047847658
21
-22.3545268829
31
0.0000000000
11
35.5354579900
21
-22.3534155598
31
0.0000000000
11
35.4805357034
21
-22.3516952897
31
0.0000000000
11
35.4448598863
21
-22.3495101446
31
0.0000000000
11
35.4323885058
21
-22.3470632528
31
0.0000000000
0
SPLINE
5
414
100
AcDbEntity
8
0
100
AcDbSpline
62
9
6
CONTINUOUS
70
0
71
3
72
11
73
7
74
5
42
0.0000001000
43
0.0000001000
44
0.0000000001
12
-0.0720104988
22
0.0040271247
32
0.0000000000
13
-0.0738488020
23
0.0043742881
33
0.0000000000
40
0.0000000000
40
0.0000000000
40
0.0000000000
40
0.0000000000
40
0.0094238565
40
0.4593556093
40
0.8784971838
40
1.0000000000
40
1.0000000000
40
1.0000000000
40
1.0000000000
10
35.4202462478
20
22.7054567394
30
0.0000000000
10
35.4200200423
20
22.7054693897
30
0.0000000000
10
35.4089932066
20
22.7060870051
30
0.0000000000
10
35.3878377962
20
22.7073544086
30
0.0000000000
10
35.3644996865
20
22.7082244379
30
0.0000000000
10
35.3510736475
20
22.7091595641
30
0.0000000000
10
35.3480827017
20
22.7093367269
30
0.0000000000
11
35.4202462478
21
22.7054567394
31
0.0000000000
11
35.4195675880
21
22.7054947499
31
0.0000000000
11
35.3872177393
21
22.7072673629
31
0.0000000000
11
35.3570735359
21
22.7087624961
31
0.0000000000
11
35.3480827017
21
22.7093367269
31
0.0000000000
0
SPLINE
5
415
100
AcDbEntity
8
0
100
AcDbSpline
62
9
6
CONTINUOUS
70
0
71
3
72
10
73
6
74
4
42
0.0000001000
43
0.0000001000
44
0.0000000001
12
-0.0483982180
22
0.0028667730
32
0.0000000000
13
-0.0101824178
23
-0.0429410019
33
0.0000000000
40
0.0000000000
40
0.0000000000
40
0.0000000000
40
0.0000000000
40
0.3461935533
40
0.7239477160
40
1.0000000000
40
1.0000000000
40
1.0000000000
40
1.0000000000
10
35.3480827017
20
22.7093367269
30
0.0000000000
10
35.3424976514
20
22.7096675463
30
0.0000000000
10
35.3310107623
20
22.7101187585
30
0.0000000000
10
35.3181044698
20
22.7078350879
30
0.0000000000
10
35.3018311898
20
22.7130421557
30
0.0000000000
10
35.3008942299
20
22.7090908352
30
0.0000000000
11
35.3480827017
21
22.7093367269
31
0.0000000000
11
35.3320016843
21
22.7096178427
31
0.0000000000
11
35.3141763282
21
22.7098395172
31
0.0000000000
11
35.3008942299
21
22.7090908352
31
0.0000000000
0
SPLINE
5
416
100
AcDbEntity
8
0
100
AcDbSpline
62
9
6
CONTINUOUS
70
0
71
3
72
12
73
8
74
6
42
0.0000001000
43
0.0000001000
44
0.0000000001
12
0.2503389797
22
-0.0000011533
32
0.0000000000
13
-0.0013515230
23
-0.2501810196
33
0.0000000000
40
0.0000000000
40
0.0000000000
40
0.0000000000
40
0.0000000000
40
0.3099985797
40
0.5869657650
40
0.8064650259
40
0.9492421299
40
1.0000000000
40
1.0000000000
40
1.0000000000
40
1.0000000000
10
56.4823885235
20
22.9044931705
30
0.0000000000
10
56.5082567662
20
22.9044930513
30
0.0000000000
10
56.5576920178
20
22.9045514608
30
0.0000000000
10
56.6232411162
20
22.9024166892
30
0.0000000000
10
56.6810193755
20
22.9037412869
30
0.0000000000
10
56.7068214162
20
22.8964391296
30
0.0000000000
10
56.7324114079
20
22.9008743271
30
0.0000000000
10
56.7323885411
20
22.8966414419
30
0.0000000000
11
56.4823885235
21
22.9044931705
31
0.0000000000
11
56.5599922812
21
22.9041050720
31
0.0000000000
11
56.6293190570
21
22.9029937489
31
0.0000000000
11
56.6842413435
21
22.9012734788
31
0.0000000000
11
56.7199171606
21
22.8990883337
31
0.0000000000
11
56.7323885411
21
22.8966414419
31
0.0000000000
0
SPLINE
5
417
100
AcDbEntity
8
0
100
AcDbSpline
62
9
6
CONTINUOUS
70
0
71
3
72
11
73
7
74
5
42
0.0000001000
43
0.0000001000
44
0.0000000001
12
0.0000000000
22
-0.3645127889
32
0.0000000000
13
-0.3645127889
23
0.0000000000
33
0.0000000000
40
0.0000000000
40
0.0000000000
40
0.0000000000
40
0.0000000000
40
0.2332175100
40
0.4765997713
40
0.7336719567
40
1.0000000000
40
1.0000000000
40
1.0000000000
40
1.0000000000
10
56.7323885235
20
23.6861139599
30
0.0000000000
10
56.7323885235
20
23.6577770383
30
0.0000000000
10
56.7186226479
20
23.5991336520
30
0.0000000000
10
56.6617011248
20
23.5273493224
30
0.0000000000
10
56.5789017314
20
23.4803896941
30
0.0000000000
10
56.5147485161
20
23.4696076090
30
0.0000000000
10
56.4823885235
20
23.4696076090
30
0.0000000000
11
56.7323885235
21
23.6861139599
31
0.0000000000
11
56.7133584066
21
23.6032605664
31
0.0000000000
11
56.6591652188
21
23.5330208510
31
0.0000000000
11
56.5780593816
21
23.4860881736
31
0.0000000000
11
56.4823885235
21
23.4696076090
31
0.0000000000
0
SPLINE
5
418
100
AcDbEntity
8
0
100
AcDbSpline
62
0
6
CONTINUOUS
70
0
71
3
72
8
73
4
74
2
42
0.0000001000
43
0.0000001000
44
0.0000000001
12
-0.0146595337
22
0.1316977584
32
0.0000000000
13
0.0000010095
23
0.1325064740
33
0.0000000000
40
0.0000000000
40
0.0000000000
40
0.0000000000
40
0.0000000000
40
1.0000000000
40
1.0000000000
40
1.0000000000
40
1.0000000000
10
22.3897361097
20
-12.2160224382
30
0.0000000000
10
22.3848495984
20
-12.1721231854
30
0.0000000000
10
22.3823881930
20
-12.1279544881
30
0.0000000000
10
22.3823885295
20
-12.0837856634
30
0.0000000000
11
22.3897361097
21
-12.2160224382
31
0.0000000000
11
22.3823885295
21
-12.0837856634
31
0.0000000000
0
SPLINE
5
419
100
AcDbEntity
8
0
100
AcDbSpline
62
0
6
CONTINUOUS
70
0
71
3
72
13
73
9
74
7
42
0.0000001000
43
0.0000001000
44
0.0000000001
12
-0.1527833887
22
-1.7744411709
32
0.0000000000
13
-1.7758865684
23
-0.0002867629
33
0.0000000000
40
0.0000000000
40
0.0000000000
40
0.0000000000
40
0.0000000000
40
0.1180555260
40
0.2945165481
40
0.4709820758
40
0.6474506762
40
0.8239842688
40
1.0000000000
40
1.0000000000
40
1.0000000000
40
1.0000000000
10
24.7779797281
20
-12.1862426803
30
0.0000000000
10
24.7719674203
20
-12.2560702089
30
0.0000000000
10
24.7416860179
20
-12.4289606172
30
0.0000000000
10
24.6337246624
20
-12.6895023497
30
0.0000000000
10
24.4406032395
20
-12.9408662107
30
0.0000000000
10
24.1888767851
20
-13.1336420775
30
0.0000000000
10
23.8962956225
20
-13.2546093317
30
0.0000000000
10
23.6865831811
20
-13.2820426493
30
0.0000000000
10
23.5823885235
20
-13.2820594742
30
0.0000000000
11
24.7779797281
21
-12.1862426803
31
0.0000000000
11
24.7417092033
21
-12.3930732493
31
0.0000000000
11
24.6217644093
21
-12.6825848875
31
0.0000000000
11
24.4308426642
21
-12.9310957409
31
0.0000000000
11
24.1820591677
21
-13.1216710519
31
0.0000000000
11
23.8923159253
21
-13.2413931711
31
0.0000000000
11
23.5823885235
21
-13.2820594742
31
0.0000000000
0
SPLINE
5
41A
100
AcDbEntity
8
0
100
AcDbSpline
62
0
6
CONTINUOUS
70
0
71
3
72
8
73
4
74
2
42
0.0000001000
43
0.0000001000
44
0.0000000001
12
0.0215261534
22
-0.1288810815
32
0.0000000000
13
0.0000000000
23
-0.1303791654
33
0.0000000000
40
0.0000000000
40
0.0000000000
40
0.0000000000
40
0.0000000000
40
1.0000000000
40
1.0000000000
40
1.0000000000
40
1.0000000000
10
56.8715948502
20
20.7399648102
30
0.0000000000
10
56.8787702347
20
20.6970044497
30
0.0000000000
10
56.8823885235
20
20.6534424507
30
0.0000000000
10
56.8823885235
20
20.6099827289
30
0.0000000000
11
56.8715948502
21
20.7399648102
31
0.0000000000
11
56.8823885235
21
20.6099827289
31
0.0000000000
0
SPLINE
5
41B
100
AcDbEntity
8
0
100
AcDbSpline
62
0
6
CONTINUOUS
70
0
71
3
72
13
73
9
74
7
42
0.0000001000
43
0.0000001000
44
0.0000000001
12
0.0000143459
22
1.8830784409
32
0.0000000000
13
1.8777190696
23
0.0003011377
33
0.0000000000
40
0.0000000000
40
0.0000000000
40
0.0000000000
40
0.0000000000
40
0.1660750055
40
0.3328815974
40
0.4996854957
40
0.6665291489
40
0.8334894769
40
1.0000000000
40
1.0000000000
40
1.0000000000
40
1.0000000000
10
22.3823885295
20
-12.0837856634
30
0.0000000000
10
22.3823893237
20
-11.9795415760
30
0.0000000000
10
22.4098677346
20
-11.7705928225
30
0.0000000000
10
22.5309999299
20
-11.4783269855
30
0.0000000000
10
22.7240987136
20
-11.2271246727
30
0.0000000000
10
22.9758226865
20
-11.0344957691
30
0.0000000000
10
23.2684316059
20
-10.9136268893
30
0.0000000000
10
23.4781685287
20
-10.8862171811
30
0.0000000000
10
23.5823885235
20
-10.8862004669
30
0.0000000000
11
22.3823885295
21
-12.0837856634
31
0.0000000000
11
22.4230533555
21
-11.7745980110
31
0.0000000000
11
22.5429632338
21
-11.4852438417
31
0.0000000000
11
22.7338393648
21
-11.2369147287
31
0.0000000000
11
22.9826033298
21
-11.0464828444
31
0.0000000000
11
23.2723812265
21
-10.9268421229
31
0.0000000000
11
23.5823885235
21
-10.8862004669
31
0.0000000000
0
SPLINE
5
41C
100
AcDbEntity
8
0
100
AcDbSpline
62
0
6
CONTINUOUS
70
0
71
3
72
8
73
4
74
2
42
0.0000001000
43
0.0000001000
44
0.0000000001
12
-0.0022116782
22
0.0428799351
32
0.0000000000
13
-0.0037657329
23
0.0427722136
33
0.0000000000
40
0.0000000000
40
0.0000000000
40
0.0000000000
40
0.0000000000
40
1.0000000000
40
1.0000000000
40
1.0000000000
40
1.0000000000
10
24.7808223604
20
-12.1471503903
30
0.0000000000
10
24.7800851343
20
-12.1328570786
30
0.0000000000
10
24.7790882499
20
-12.1185770319
30
0.0000000000
10
24.7778330056
20
-12.1043196274
30
0.0000000000
11
24.7808223604
21
-12.1471503903
31
0.0000000000
11
24.7778330056
21
-12.1043196274
31
0.0000000000
0
SPLINE
5
41D
100
AcDbEntity
8
0
100
AcDbSpline
62
0
6
CONTINUOUS
70
0
71
3
72
8
73
4
74
2
42
0.0000001000
43
0.0000001000
44
0.0000000001
12
-0.0017319264
22
0.0196716885
32
0.0000000000
13
-0.0020594435
23
0.0196402155
33
0.0000000000
40
0.0000000000
40
0.0000000000
40
0.0000000000
40
0.0000000000
40
1.0000000000
40
1.0000000000
40
1.0000000000
40
1.0000000000
10
24.7778330056
20
-12.1043196274
30
0.0000000000
10
24.7772556968
20
-12.0977623979
30
0.0000000000
10
24.7766237387
20
-12.0912099578
30
0.0000000000
10
24.7759372576
20
-12.0846632193
30
0.0000000000
11
24.7778330056
21
-12.1043196274
31
0.0000000000
11
24.7759372576
21
-12.0846632193
31
0.0000000000
0
SPLINE
5
41E
100
AcDbEntity
8
0
100
AcDbSpline
62
0
6
CONTINUOUS
70
0
71
3
72
8
73
4
74
2
42
0.0000001000
43
0.0000001000
44
0.0000000001
12
-0.0088366931
22
0.0842725527
32
0.0000000000
13
-0.0148297312
23
0.0834265162
33
0.0000000000
40
0.0000000000
40
0.0000000000
40
0.0000000000
40
0.0000000000
40
1.0000000000
40
1.0000000000
40
1.0000000000
40
1.0000000000
10
24.7759372576
20
-12.0846632193
30
0.0000000000
10
24.7729916932
20
-12.0565723684
30
0.0000000000
10
24.7690422998
20
-12.0285864905
30
0.0000000000
10
24.7640990560
20
-12.0007776517
30
0.0000000000
11
24.7759372576
21
-12.0846632193
31
0.0000000000
11
24.7640990560
21
-12.0007776517
31
0.0000000000
0
SPLINE
5
41F
100
AcDbEntity
8
0
100
AcDbSpline
62
0
6
CONTINUOUS
70
0
71
3
72
13
73
9
74
7
42
0.0000001000
43
0.0000001000
44
0.0000000001
12
-0.2922505902
22
1.6440924112
32
0.0000000000
13
-1.6650224695
23
0.0000000000
33
0.0000000000
40
0.0000000000
40
0.0000000000
40
0.0000000000
40
0.0000000000
40
0.0621082117
40
0.2490551766
40
0.4363170463
40
0.6239418794
40
0.8118804815
40
1.0000000000
40
1.0000000000
40
1.0000000000
40
1.0000000000
10
24.7640990560
20
-12.0007776517
30
0.0000000000
10
24.7580486689
20
-11.9667404385
30
0.0000000000
10
24.7278160069
20
-11.8313140808
30
0.0000000000
10
24.6334238498
20
-11.6052562708
30
0.0000000000
10
24.4404536069
20
-11.3557633409
30
0.0000000000
10
24.1890095351
20
-11.1643975443
30
0.0000000000
10
23.8965229360
20
-11.0441412846
30
0.0000000000
10
23.6867962652
20
-11.0168062601
30
0.0000000000
10
23.5823885235
20
-11.0168062601
30
0.0000000000
11
24.7640990560
21
-12.0007776517
31
0.0000000000
11
24.7414995150
21
-11.8995938254
31
0.0000000000
11
24.6216190080
21
-11.6123339511
31
0.0000000000
11
24.4309166609
21
-11.3656583047
31
0.0000000000
11
24.1823885235
21
-11.1763774240
31
0.0000000000
11
23.8929713776
21
-11.0573904881
31
0.0000000000
11
23.5823885235
21
-11.0168062601
31
0.0000000000
0
SPLINE
5
420
100
AcDbEntity
8
0
100
AcDbSpline
62
0
6
CONTINUOUS
70
0
71
3
72
13
73
9
74
7
42
0.0000001000
43
0.0000001000
44
0.0000000001
12
1.8777346566
22
-0.0001450827
32
0.0000000000
13
-0.0000111270
23
-1.8830938827
33
0.0000000000
40
0.0000000000
40
0.0000000000
40
0.0000000000
40
0.0000000000
40
0.1653210333
40
0.3318945584
40
0.4988771742
40
0.6656392876
40
0.8324379622
40
1.0000000000
40
1.0000000000
40
1.0000000000
40
1.0000000000
10
23.5823885235
20
-10.8862004669
30
0.0000000000
10
23.6858648680
20
-10.8862084620
30
0.0000000000
10
23.8945954191
20
-10.9133012560
30
0.0000000000
10
24.1866160993
20
-11.0331751314
30
0.0000000000
10
24.4386586120
20
-11.2251027695
30
0.0000000000
10
24.6323684115
20
-11.4759049270
30
0.0000000000
10
24.7545353535
20
-11.7687289730
30
0.0000000000
10
24.7823891413
20
-11.9786071499
30
0.0000000000
10
24.7823885198
20
-12.0837854993
30
0.0000000000
11
23.5823885235
21
-10.8862004669
31
0.0000000000
11
23.8902214098
21
-10.9262641613
31
0.0000000000
11
24.1795894789
21
-11.0449991633
31
0.0000000000
11
24.4290143588
21
-11.2349997772
31
0.0000000000
11
24.6204143549
21
-11.4828294972
31
0.0000000000
11
24.7409957352
21
-11.7718911843
31
0.0000000000
11
24.7823885198
21
-12.0837854993
31
0.0000000000
0
SPLINE
5
421
100
AcDbEntity
8
0
100
AcDbSpline
62
0
6
CONTINUOUS
70
0
71
3
72
13
73
9
74
7
42
0.0000001000
43
0.0000001000
44
0.0000000001
12
-1.7460631511
22
0.0001357185
32
0.0000000000
13
-0.1937228264
23
1.7403597180
33
0.0000000000
40
0.0000000000
40
0.0000000000
40
0.0000000000
40
0.0000000000
40
0.1777442383
40
0.3568779847
40
0.5365113546
40
0.7159469937
40
0.8954154173
40
1.0000000000
40
1.0000000000
40
1.0000000000
40
1.0000000000
10
23.5823885235
20
-13.2820594742
30
0.0000000000
10
23.4789376352
20
-13.2820514332
30
0.0000000000
10
23.2702320740
20
-13.2549353742
30
0.0000000000
10
22.9782391910
20
-13.1349642336
30
0.0000000000
10
22.7261943907
20
-12.9428902637
30
0.0000000000
10
22.5324618853
20
-12.6919267088
30
0.0000000000
10
22.4274131703
20
-12.4400809992
30
0.0000000000
10
22.3964895833
20
-12.2766940365
30
0.0000000000
10
22.3897361097
20
-12.2160224382
30
0.0000000000
11
23.5823885235
21
-13.2820594742
31
0.0000000000
11
23.2746357914
21
-13.2419716569
31
0.0000000000
11
22.9853029286
21
-13.1231562798
31
0.0000000000
11
22.7358585620
21
-12.9330126793
31
0.0000000000
11
22.5444131656
21
-12.6850020270
31
0.0000000000
11
22.4237963045
21
-12.3957822674
31
0.0000000000
11
22.3897361097
21
-12.2160224382
31
0.0000000000
0
SPLINE
5
422
100
AcDbEntity
8
0
100
AcDbSpline
62
0
6
CONTINUOUS
70
0
71
3
72
13
73
9
74
7
42
0.0000001000
43
0.0000001000
44
0.0000000001
12
-1.6650224695
22
0.0000000000
32
0.0000000000
13
-0.2922505902
23
-1.6440924112
33
0.0000000000
40
0.0000000000
40
0.0000000000
40
0.0000000000
40
0.0000000000
40
0.1881195185
40
0.3760581206
40
0.5636829537
40
0.7509448234
40
0.9378917883
40
1.0000000000
40
1.0000000000
40
1.0000000000
40
1.0000000000
10
23.5823885235
20
-11.0168062601
30
0.0000000000
10
23.4779807817
20
-11.0168062601
30
0.0000000000
10
23.2682541109
20
-11.0441412846
30
0.0000000000
10
22.9757675118
20
-11.1643975443
30
0.0000000000
10
22.7243234400
20
-11.3557633409
30
0.0000000000
10
22.5313531971
20
-11.6052562708
30
0.0000000000
10
22.4369610401
20
-11.8313140808
30
0.0000000000
10
22.4067283781
20
-11.9667404385
30
0.0000000000
10
22.4006779909
20
-12.0007776517
30
0.0000000000
11
23.5823885235
21
-11.0168062601
31
0.0000000000
11
23.2718056694
21
-11.0573904881
31
0.0000000000
11
22.9823885235
21
-11.1763774240
31
0.0000000000
11
22.7338603861
21
-11.3656583047
31
0.0000000000
11
22.5431580389
21
-11.6123339511
31
0.0000000000
11
22.4232775319
21
-11.8995938254
31
0.0000000000
11
22.4006779909
21
-12.0007776517
31
0.0000000000
0
SPLINE
5
423
100
AcDbEntity
8
0
100
AcDbSpline
62
0
6
CONTINUOUS
70
0
71
3
72
8
73
4
74
2
42
0.0000001000
43
0.0000001000
44
0.0000000001
12
-0.0182858876
22
-0.1028695579
32
0.0000000000
13
-0.0091633038
23
-0.1040792858
33
0.0000000000
40
0.0000000000
40
0.0000000000
40
0.0000000000
40
0.0000000000
40
1.0000000000
40
1.0000000000
40
1.0000000000
40
1.0000000000
10
22.4006779909
20
-12.0007776517
30
0.0000000000
10
22.3945826951
20
-12.0350675044
30
0.0000000000
10
22.3899984759
20
-12.0696265321
30
0.0000000000
10
22.3869440413
20
-12.1043196274
30
0.0000000000
11
22.4006779909
21
-12.0007776517
31
0.0000000000
11
22.3869440413
21
-12.1043196274
31
0.0000000000
0
SPLINE
5
424
100
AcDbEntity
8
0
100
AcDbSpline
62
0
6
CONTINUOUS
70
0
71
3
72
8
73
4
74
2
42
0.0000001000
43
0.0000001000
44
0.0000000001
12
-0.0036724422
22
-0.0417125925
32
0.0000000000
13
-0.0021945245
23
-0.0418157057
33
0.0000000000
40
0.0000000000
40
0.0000000000
40
0.0000000000
40
0.0000000000
40
1.0000000000
40
1.0000000000
40
1.0000000000
40
1.0000000000
10
22.3869440413
20
-12.1043196274
30
0.0000000000
10
22.3857198939
20
-12.1182238249
30
0.0000000000
10
22.3847414640
20
-12.1321495567
30
0.0000000000
10
22.3840099558
20
-12.1460881252
30
0.0000000000
11
22.3869440413
21
-12.1043196274
31
0.0000000000
11
22.3840099558
21
-12.1460881252
31
0.0000000000
0
SPLINE
5
425
100
AcDbEntity
8
0
100
AcDbSpline
62
0
6
CONTINUOUS
70
0
71
3
72
15
73
11
74
9
42
0.0000001000
43
0.0000001000
44
0.0000000001
12
0.0000000000
22
-1.2497746756
32
0.0000000000
13
-1.2497746756
23
0.0000000000
33
0.0000000000
40
0.0000000000
40
0.0000000000
40
0.0000000000
40
0.0000000000
40
0.1245409531
40
0.2491517967
40
0.3738923855
40
0.4988016822
40
0.6238934019
40
0.7491534954
40
0.8745418556
40
1.0000000000
40
1.0000000000
40
1.0000000000
40
1.0000000000
10
56.8823885235
20
-20.7794336659
30
0.0000000000
10
56.8823885235
20
-20.8313163757
30
0.0000000000
10
56.8720721636
20
-20.9354025208
30
0.0000000000
10
56.8262447095
20
-21.0852829352
30
0.0000000000
10
56.7518278295
20
-21.2234570201
30
0.0000000000
10
56.6516878625
20
-21.3445322487
30
0.0000000000
10
56.5296881783
20
-21.4438796643
30
0.0000000000
10
56.3905034877
20
-21.5176843117
30
0.0000000000
10
56.2395612312
20
-21.5631238454
30
0.0000000000
10
56.1347751713
20
-21.5733496515
30
0.0000000000
10
56.0825103674
20
-21.5733496515
30
0.0000000000
11
56.8823885235
21
-20.7794336659
31
0.0000000000
11
56.8670224386
21
-20.9343214433
31
0.0000000000
11
56.8215111480
21
-21.0832585479
31
0.0000000000
11
56.7475989372
21
-21.2205212732
31
0.0000000000
11
56.6481242433
21
-21.3408318775
31
0.0000000000
11
56.5269101268
21
-21.4395649911
31
0.0000000000
11
56.3886167002
21
-21.5129261376
31
0.0000000000
11
56.2385612509
21
-21.5580981177
31
0.0000000000
11
56.0825103674
21
-21.5733496515
31
0.0000000000
0
SPLINE
5
426
100
AcDbEntity
8
0
100
AcDbSpline
62
0
6
CONTINUOUS
70
0
71
3
72
8
73
4
74
2
42
0.0000001000
43
0.0000001000
44
0.0000000001
12
0.0000000000
22
0.1303791600
32
0.0000000000
13
0.0215261517
23
0.1288810767
33
0.0000000000
40
0.0000000000
40
0.0000000000
40
0.0000000000
40
0.0000000000
40
1.0000000000
40
1.0000000000
40
1.0000000000
40
1.0000000000
10
12.7823885235
20
20.6099827289
30
0.0000000000
10
12.7823885235
20
20.6534424489
30
0.0000000000
10
12.7860068120
20
20.6970044461
30
0.0000000000
10
12.7931821959
20
20.7399648050
30
0.0000000000
11
12.7823885235
21
20.6099827289
31
0.0000000000
11
12.7931821959
21
20.7399648050
31
0.0000000000
0
SPLINE
5
427
100
AcDbEntity
8
0
100
AcDbSpline
62
0
6
CONTINUOUS
70
0
71
3
72
15
73
11
74
9
42
0.0000001000
43
0.0000001000
44
0.0000000001
12
-1.2497746757
22
0.0000000000
32
0.0000000000
13
-0.0000000000
23
1.2497746757
33
0.0000000000
40
0.0000000000
40
0.0000000000
40
0.0000000000
40
0.0000000000
40
0.1254582045
40
0.2508466948
40
0.3761069219
40
0.5011986972
40
0.6261079373
40
0.7508483925
40
0.8754591065
40
1.0000000000
40
1.0000000000
40
1.0000000000
40
1.0000000000
10
13.5822666796
20
-21.5733496515
30
0.0000000000
10
13.5300018507
20
-21.5733496515
30
0.0000000000
10
13.4252157111
20
-21.5631238328
30
0.0000000000
10
13.2742733314
20
-21.5176842299
30
0.0000000000
10
13.1350885503
20
-21.4438794626
30
0.0000000000
10
13.0130888772
20
-21.3445319438
30
0.0000000000
10
12.9129490140
20
-21.2234567038
30
0.0000000000
10
12.8385322547
20
-21.0852827088
30
0.0000000000
10
12.7927048706
20
-20.9354024168
30
0.0000000000
10
12.7823885235
20
-20.8313163508
30
0.0000000000
10
12.7823885235
20
-20.7794336659
30
0.0000000000
11
13.5822666796
21
-21.5733496515
31
0.0000000000
11
13.4262157220
21
-21.5580981031
31
0.0000000000
11
13.2761601258
21
-21.5129260468
31
0.0000000000
11
13.1378665814
21
-21.4395647664
31
0.0000000000
11
13.0166524655
21
-21.3408315418
31
0.0000000000
11
12.9171778834
21
-21.2205209369
31
0.0000000000
11
12.8432658074
21
-21.0832583286
31
0.0000000000
11
12.7977545937
21
-20.9343213699
31
0.0000000000
11
12.7823885235
21
-20.7794336659
31
0.0000000000
0
SPLINE
5
428
100
AcDbEntity
8
0
100
AcDbSpline
62
9
6
CONTINUOUS
70
0
71
3
72
19
73
15
74
13
42
0.0000001000
43
0.0000001000
44
0.0000000001
12
-4.0686700046
22
0.0006149564
32
0.0000000000
13
4.0686698411
23
0.0013070885
33
0.0000000000
40
0.0000000000
40
0.0000000000
40
0.0000000000
40
0.0000000000
40
0.0825664547
40
0.1658185412
40
0.2493133622
40
0.3327282333
40
0.4161713571
40
0.4996221900
40
0.5830757555
40
0.6665235734
40
0.7499517142
40
0.8333834725
40
0.9168584312
40
1.0000000000
40
1.0000000000
40
1.0000000000
40
1.0000000000
10
23.5823885235
20
-13.3738737314
30
0.0000000000
10
23.4704099709
20
-13.3738568065
30
0.0000000000
10
23.2444448596
20
-13.3445453386
30
0.0000000000
10
22.9282442328
20
-13.2146997626
30
0.0000000000
10
22.6551585941
20
-13.0067989920
30
0.0000000000
10
22.4451898534
20
-12.7350219496
30
0.0000000000
10
22.3128713353
20
-12.4181411435
30
0.0000000000
10
22.2673837561
20
-12.0777072784
30
0.0000000000
10
22.3119363994
20
-11.7371395759
30
0.0000000000
10
22.4434671499
20
-11.4198905328
30
0.0000000000
10
22.6528109608
20
-11.1476960391
30
0.0000000000
10
22.9256486904
20
-10.9390889660
30
0.0000000000
10
23.2425622259
20
-10.8082739891
30
0.0000000000
10
23.4696299923
20
-10.7786766405
30
0.0000000000
10
23.5823885235
20
-10.7786404160
30
0.0000000000
11
23.5823885235
21
-13.3738737314
31
0.0000000000
11
23.2492618265
21
-13.3305220013
31
0.0000000000
11
22.9358946166
21
-13.2019303958
31
0.0000000000
11
22.6656361662
21
-12.9961022902
31
0.0000000000
11
22.4581435955
21
-12.7275305718
31
0.0000000000
11
22.3273489247
21
-12.4142340222
31
0.0000000000
11
22.2823908697
21
-12.0776897524
31
0.0000000000
11
22.3264367511
21
-11.7410136723
31
0.0000000000
11
22.4564516234
21
-11.4273720375
31
0.0000000000
11
22.6633841113
21
-11.1583004294
31
0.0000000000
11
22.9330050206
21
-10.9520599326
31
0.0000000000
11
23.2469747924
21
-10.8225496187
31
0.0000000000
11
23.5823885235
21
-10.7786404160
31
0.0000000000
0
SPLINE
5
429
100
AcDbEntity
8
0
100
AcDbSpline
62
9
6
CONTINUOUS
70
0
71
3
72
14
73
10
74
8
42
0.0000001000
43
0.0000001000
44
0.0000000001
12
2.2590670010
22
-0.0003500165
32
0.0000000000
13
-0.3922925667
23
-2.2313710727
33
0.0000000000
40
0.0000000000
40
0.0000000000
40
0.0000000000
40
0.0000000000
40
0.1487419685
40
0.2986850838
40
0.4490176184
40
0.5991743397
40
0.7493865883
40
0.8996551496
40
1.0000000000
40
1.0000000000
40
1.0000000000
40
1.0000000000
10
23.5823885235
20
-10.7786404160
30
0.0000000000
10
23.6943945477
20
-10.7786577701
30
0.0000000000
10
23.9203881603
20
-10.8079462908
30
0.0000000000
10
24.2366190093
20
-10.9376987112
30
0.0000000000
10
24.5097014058
20
-11.1454554699
30
0.0000000000
10
24.7196443099
20
-11.4170711552
30
0.0000000000
10
24.8519323603
20
-11.7338220534
30
0.0000000000
10
24.8923525827
20
-12.0364627767
30
0.0000000000
10
24.8759010742
20
-12.2257416603
30
0.0000000000
10
24.8627795612
20
-12.3003771924
30
0.0000000000
11
23.5823885235
21
-10.7786404160
31
0.0000000000
11
23.9156012530
21
-10.8219696764
31
0.0000000000
11
24.2290066601
21
-10.9504847040
31
0.0000000000
11
24.4992444440
21
-11.1561722249
31
0.0000000000
11
24.7066881313
21
-11.4245624652
31
0.0000000000
11
24.8374444538
21
-11.7376983879
31
0.0000000000
11
24.8823862507
21
-12.0741770808
31
0.0000000000
11
24.8627795612
21
-12.3003771924
31
0.0000000000
0
SPLINE
5
42A
100
AcDbEntity
8
0
100
AcDbSpline
62
9
6
CONTINUOUS
70
0
71
3
72
13
73
9
74
7
42
0.0000001000
43
0.0000001000
44
0.0000000001
12
-0.3142420168
22
-1.7874173656
32
0.0000000000
13
-1.8096028426
23
-0.0005695080
33
0.0000000000
40
0.0000000000
40
0.0000000000
40
0.0000000000
40
0.0000000000
40
0.0624027579
40
0.2501146373
40
0.4377890836
40
0.6254316158
40
0.8131118594
40
1.0000000000
40
1.0000000000
40
1.0000000000
40
1.0000000000
10
24.8627795612
20
-12.3003771924
30
0.0000000000
10
24.8562430384
20
-12.3375571168
30
0.0000000000
10
24.8235449139
20
-12.4854318894
30
0.0000000000
10
24.7212534432
20
-12.7322003431
30
0.0000000000
10
24.5118837698
20
-13.0045563785
30
0.0000000000
10
24.2390425138
20
-13.2133080773
30
0.0000000000
10
23.9221592716
20
-13.3442170734
30
0.0000000000
10
23.6951196270
20
-13.3738382533
30
0.0000000000
10
23.5823885235
20
-13.3738737314
30
0.0000000000
11
24.8627795612
21
-12.3003771924
31
0.0000000000
11
24.8383244717
21
-12.4109165680
31
0.0000000000
11
24.7082717199
21
-12.7247182243
31
0.0000000000
11
24.5012899538
21
-12.9939722514
31
0.0000000000
11
24.2316482551
21
-13.2003537265
31
0.0000000000
11
23.9177162632
21
-13.3299415838
31
0.0000000000
11
23.5823885235
21
-13.3738737314
31
0.0000000000
0
SPLINE
5
42B
100
AcDbEntity
8
0
100
AcDbSpline
62
9
6
CONTINUOUS
70
0
71
3
72
13
73
9
74
7
42
0.0000001000
43
0.0000001000
44
0.0000000001
12
-0.0915631087
22
1.5651946264
32
0.0000000000
13
-0.0008694835
23
1.5678702961
33
0.0000000000
40
0.0000000000
40
0.0000000000
40
0.0000000000
40
0.0000000000
40
0.0615937033
40
0.1772426471
40
0.3398695268
40
0.5395671522
40
0.7641867269
40
1.0000000000
40
1.0000000000
40
1.0000000000
40
1.0000000000
10
55.9838553803
20
-20.7866317551
30
0.0000000000
10
55.9819754766
20
-20.7544963773
30
0.0000000000
10
55.9803614042
20
-20.6618449851
30
0.0000000000
10
55.9774760389
20
-20.4842675922
30
0.0000000000
10
55.9754027643
20
-20.2344634524
30
0.0000000000
10
55.9735237280
20
-19.9277226641
30
0.0000000000
10
55.9723193602
20
-19.5827232447
30
0.0000000000
10
55.9719460218
20
-19.3420907019
30
0.0000000000
10
55.9718776765
20
-19.2188491597
30
0.0000000000
11
55.9838553803
21
-20.7866317551
31
0.0000000000
11
55.9808668673
21
-20.6901070552
31
0.0000000000
11
55.9780744198
21
-20.5088059873
31
0.0000000000
11
55.9756465028
21
-20.2538396538
31
0.0000000000
11
55.9737329245
21
-19.9407454781
31
0.0000000000
11
55.9724508517
21
-19.5885733987
31
0.0000000000
11
55.9718776765
21
-19.2188491597
31
0.0000000000
0
SPLINE
5
42C
100
AcDbEntity
8
0
100
AcDbSpline
62
9
6
CONTINUOUS
70
0
71
3
72
13
73
9
74
7
42
0.0000001000
43
0.0000001000
44
0.0000000001
12
-0.0908537674
22
0.7261587587
32
0.0000000000
13
-0.0008635652
23
0.7318197894
33
0.0000000000
40
0.0000000000
40
0.0000000000
40
0.0000000000
40
0.0000000000
40
0.0613231989
40
0.1770366198
40
0.3399406719
40
0.5400785844
40
0.7651128699
40
1.0000000000
40
1.0000000000
40
1.0000000000
40
1.0000000000
10
56.7837335364
20
-19.9927157695
30
0.0000000000
10
56.7818763885
20
-19.9778723101
30
0.0000000000
10
56.7802346358
20
-19.9346458669
30
0.0000000000
10
56.7773618382
20
-19.8518183388
30
0.0000000000
10
56.7752784676
20
-19.7350229902
30
0.0000000000
10
56.7733997141
20
-19.5915887326
30
0.0000000000
10
56.7721960107
20
-19.4305744964
30
0.0000000000
10
56.7718234461
20
-19.3183822416
30
0.0000000000
10
56.7717558326
20
-19.2610838916
30
0.0000000000
11
56.7837335364
21
-19.9927157695
31
0.0000000000
11
56.7807564988
21
-19.9479370603
31
0.0000000000
11
56.7779576389
21
-19.8633018961
31
0.0000000000
11
56.7755250629
21
-19.7441102245
31
0.0000000000
11
56.7736084235
21
-19.5976577787
31
0.0000000000
11
56.7723255792
21
-19.4329781171
31
0.0000000000
11
56.7717558326
21
-19.2610838916
31
0.0000000000
0
SPLINE
5
42D
100
AcDbEntity
8
0
100
AcDbSpline
62
9
6
CONTINUOUS
70
0
71
3
72
12
73
8
74
6
42
0.0000001000
43
0.0000001000
44
0.0000000001
12
1.2460362205
22
0.0030265124
32
0.0000000000
13
0.0003832003
23
1.2460398371
33
0.0000000000
40
0.0000000000
40
0.0000000000
40
0.0000000000
40
0.0000000000
40
0.2008337969
40
0.4014396884
40
0.6015266748
40
0.8010002724
40
1.0000000000
40
1.0000000000
40
1.0000000000
40
1.0000000000
10
55.9838553803
20
-20.7866317551
30
0.0000000000
10
56.0672707753
20
-20.7864291464
30
0.0000000000
10
56.2350938308
20
-20.7597801037
30
0.0000000000
10
56.4614096917
20
-20.6450534711
30
0.0000000000
10
56.6413901495
20
-20.4665861865
30
0.0000000000
10
56.7570476326
20
-20.2420439789
30
0.0000000000
10
56.7837081175
20
-20.0753696322
30
0.0000000000
10
56.7837335364
20
-19.9927157695
30
0.0000000000
11
55.9838553803
21
-20.7866317551
31
0.0000000000
11
56.2309875711
21
-20.7472718396
31
0.0000000000
11
56.4539367182
21
-20.6342446249
31
0.0000000000
11
56.6308872644
21
-20.4586110420
31
0.0000000000
11
56.7445255075
21
-20.2375579339
31
0.0000000000
11
56.7837335364
21
-19.9927157695
31
0.0000000000
0
SPLINE
5
42E
100
AcDbEntity
8
0
100
AcDbSpline
62
9
6
CONTINUOUS
70
0
71
3
72
11
73
7
74
5
42
0.0000001000
43
0.0000001000
44
0.0000000001
12
-0.0468517031
22
40.0042266553
32
0.0000000000
13
0.0476327683
23
40.0042257329
33
0.0000000000
40
0.0000000000
40
0.0000000000
40
0.0000000000
40
0.0000000000
40
0.2514068643
40
0.5020643267
40
0.7516893340
40
1.0000000000
40
1.0000000000
40
1.0000000000
40
1.0000000000
10
55.9718776765
20
-19.2188491597
30
0.0000000000
10
55.9679513966
20
-15.8664034326
30
0.0000000000
10
55.9620577538
20
-9.1715026146
30
0.0000000000
10
55.9590984753
20
0.8520878756
30
0.0000000000
10
55.9620334151
20
10.8343913421
30
0.0000000000
10
55.9679351017
20
17.4742375861
30
0.0000000000
10
55.9718776765
20
20.7853962316
30
0.0000000000
11
55.9718776765
21
-19.2188491597
31
0.0000000000
11
55.9630311566
21
-9.1615089715
31
0.0000000000
11
55.9600812065
21
0.8658554093
31
0.0000000000
11
55.9630311566
21
10.8519171929
31
0.0000000000
11
55.9718776765
21
20.7853962316
31
0.0000000000
0
SPLINE
5
42F
100
AcDbEntity
8
0
100
AcDbSpline
62
9
6
CONTINUOUS
70
0
71
3
72
11
73
7
74
5
42
0.0000001000
43
0.0000001000
44
0.0000000001
12
-0.0468517031
22
39.8975486175
32
0.0000000000
13
0.0476327662
23
39.8975476926
33
0.0000000000
40
0.0000000000
40
0.0000000000
40
0.0000000000
40
0.0000000000
40
0.2514062485
40
0.5020643842
40
0.7516900583
40
1.0000000000
40
1.0000000000
40
1.0000000000
40
1.0000000000
10
56.7717558326
20
-19.2610838916
30
0.0000000000
10
56.7678295623
20
-15.9175862175
30
0.0000000000
10
56.7619359141
20
-9.2405377062
30
0.0000000000
10
56.7589766262
20
0.7563328553
30
0.0000000000
10
56.7619115775
20
10.7120250476
30
0.0000000000
10
56.7678132695
20
17.3341642653
30
0.0000000000
10
56.7717558326
20
20.6364835120
30
0.0000000000
11
56.7717558326
21
-19.2610838916
31
0.0000000000
11
56.7629093272
21
-9.2305878545
31
0.0000000000
11
56.7599593627
21
0.7700637630
31
0.0000000000
11
56.7629093299
21
10.7295226614
31
0.0000000000
11
56.7717558326
21
20.6364835120
31
0.0000000000
0
SPLINE
5
430
100
AcDbEntity
8
0
100
AcDbSpline
62
9
6
CONTINUOUS
70
0
71
3
72
12
73
8
74
6
42
0.0000001000
43
0.0000001000
44
0.0000000001
12
0.8028646075
22
0.0009399801
32
0.0000000000
13
0.2427669157
23
-0.7652820958
33
0.0000000000
40
0.0000000000
40
0.0000000000
40
0.0000000000
40
0.0000000000
40
0.3046200521
40
0.5801626910
40
0.8003770729
40
0.9444562913
40
1.0000000000
40
1.0000000000
40
1.0000000000
40
1.0000000000
10
55.9718776765
20
-19.2188491615
30
0.0000000000
10
56.0534005627
20
-19.2187537159
30
0.0000000000
10
56.2095200370
20
-19.2192923980
30
0.0000000000
10
56.4203700977
20
-19.2267750898
30
0.0000000000
10
56.5999584785
20
-19.2295132823
30
0.0000000000
10
56.6951358325
20
-19.2502309441
30
0.0000000000
10
56.7672611077
20
-19.2469150230
30
0.0000000000
10
56.7717558326
20
-19.2610838916
30
0.0000000000
11
55.9718776765
21
-19.2188491615
31
0.0000000000
11
56.2164397527
21
-19.2206661955
31
0.0000000000
11
56.4375859809
21
-19.2265159818
31
0.0000000000
11
56.6141424874
21
-19.2358384231
31
0.0000000000
11
56.7292046876
21
-19.2477409324
31
0.0000000000
11
56.7717558326
21
-19.2610838916
31
0.0000000000
0
SPLINE
5
431
100
AcDbEntity
8
0
100
AcDbSpline
62
9
6
CONTINUOUS
70
0
71
3
72
13
73
9
74
7
42
0.0000001000
43
0.0000001000
44
0.0000000001
12
0.0006814129
22
1.2085443581
32
0.0000000000
13
0.3034112386
23
0.0417979814
33
0.0000000000
40
0.0000000000
40
0.0000000000
40
0.0000000000
40
0.0000000000
40
0.2917307108
40
0.5513827061
40
0.7630926461
40
0.9139878474
40
0.9948792645
40
1.0000000000
40
1.0000000000
40
1.0000000000
40
1.0000000000
10
55.9718776765
20
20.7853962316
30
0.0000000000
10
55.9719439395
20
20.9029193998
30
0.0000000000
10
55.9714264522
20
21.1235190480
30
0.0000000000
10
55.9759236000
20
21.4367904633
30
0.0000000000
10
55.9688309977
20
21.6717611374
30
0.0000000000
10
55.9907164303
20
21.8854854938
30
0.0000000000
10
55.9635878782
20
21.9290974529
30
0.0000000000
10
55.9830842925
20
21.9954018273
30
0.0000000000
10
55.9836021888
20
21.9954731728
30
0.0000000000
11
55.9718776765
21
20.7853962316
31
0.0000000000
11
55.9724508517
21
21.1379653263
31
0.0000000000
11
55.9737329245
21
21.4517637111
31
0.0000000000
11
55.9756465028
21
21.7076174494
31
0.0000000000
11
55.9780744198
21
21.8899648597
31
0.0000000000
11
55.9808668673
21
21.9876858510
31
0.0000000000
11
55.9836021888
21
21.9954731728
31
0.0000000000
0
SPLINE
5
432
100
AcDbEntity
8
0
100
AcDbSpline
62
9
6
CONTINUOUS
70
0
71
3
72
13
73
9
74
7
42
0.0000001000
43
0.0000001000
44
0.0000000001
12
0.0006787097
22
0.5656885326
32
0.0000000000
13
0.0934354909
23
-0.5579191569
33
0.0000000000
40
0.0000000000
40
0.0000000000
40
0.0000000000
40
0.0000000000
40
0.2898048526
40
0.5492617765
40
0.7608696977
40
0.9115857879
40
0.9922633473
40
1.0000000000
40
1.0000000000
40
1.0000000000
40
1.0000000000
10
56.7717558326
20
20.6364835120
30
0.0000000000
10
56.7718213971
20
20.6911299392
30
0.0000000000
10
56.7714982255
20
20.7942267444
30
0.0000000000
10
56.7752562929
20
20.9395247682
30
0.0000000000
10
56.7701292342
20
21.0518489096
30
0.0000000000
10
56.7876179567
20
21.1463160743
30
0.0000000000
10
56.7667910301
20
21.1750190253
30
0.0000000000
10
56.7834925771
20
21.2023001787
30
0.0000000000
10
56.7837335364
20
21.2008613698
30
0.0000000000
11
56.7717558326
21
20.6364835120
31
0.0000000000
11
56.7723255792
21
20.8004219217
31
0.0000000000
11
56.7736084235
21
20.9471882275
31
0.0000000000
11
56.7755250629
21
21.0668771431
31
0.0000000000
11
56.7779576389
21
21.1521008584
31
0.0000000000
11
56.7807564988
21
21.1976533579
31
0.0000000000
11
56.7837335364
21
21.2008613698
31
0.0000000000
0
SPLINE
5
433
100
AcDbEntity
8
0
100
AcDbSpline
62
9
6
CONTINUOUS
70
0
71
3
72
12
73
8
74
6
42
0.0000001000
43
0.0000001000
44
0.0000000001
12
0.8313389426
22
-0.0009571682
32
0.0000000000
13
0.0766334497
23
-0.8277998961
33
0.0000000000
40
0.0000000000
40
0.0000000000
40
0.0000000000
40
0.0000000000
40
0.2943136723
40
0.5615426705
40
0.7775670309
40
0.9246586934
40
1.0000000000
40
1.0000000000
40
1.0000000000
40
1.0000000000
10
55.9718776765
20
20.7853923509
30
0.0000000000
10
56.0534358156
20
20.7852984483
30
0.0000000000
10
56.2093452059
20
20.7805168337
30
0.0000000000
10
56.4230772331
20
20.7618705162
30
0.0000000000
10
56.5981770965
20
20.7299619382
30
0.0000000000
10
56.7091001767
20
20.6987768161
30
0.0000000000
10
56.7698312778
20
20.6572726872
30
0.0000000000
10
56.7717558325
20
20.6364835120
30
0.0000000000
11
55.9718776765
21
20.7853923509
31
0.0000000000
11
56.2164375339
21
20.7779006266
31
0.0000000000
11
56.4375822131
21
20.7567058937
31
0.0000000000
11
56.6141383844
21
20.7238374212
31
0.0000000000
11
56.7292018111
21
20.6824421752
31
0.0000000000
11
56.7717558325
21
20.6364835120
31
0.0000000000
0
SPLINE
5
434
100
AcDbEntity
8
0
100
AcDbSpline
62
9
6
CONTINUOUS
70
0
71
3
72
13
73
9
74
7
42
0.0000001000
43
0.0000001000
44
0.0000000001
12
0.0934354885
22
0.5579191573
32
0.0000000000
13
0.0006787098
23
-0.5656885326
33
0.0000000000
40
0.0000000000
40
0.0000000000
40
0.0000000000
40
0.0000000000
40
0.0077366528
40
0.0884142120
40
0.2391303023
40
0.4507382235
40
0.7101951474
40
1.0000000000
40
1.0000000000
40
1.0000000000
40
1.0000000000
10
12.8810435106
20
21.2008613698
30
0.0000000000
10
12.8812844699
20
21.2023001787
30
0.0000000000
10
12.8979860167
20
21.1750190251
30
0.0000000000
10
12.8771590904
20
21.1463160744
30
0.0000000000
10
12.8946478127
20
21.0518489095
30
0.0000000000
10
12.8895207541
20
20.9395247682
30
0.0000000000
10
12.8932788214
20
20.7942267444
30
0.0000000000
10
12.8929556499
20
20.6911299392
30
0.0000000000
10
12.8930212143
20
20.6364835120
30
0.0000000000
11
12.8810435106
21
21.2008613698
31
0.0000000000
11
12.8840205481
21
21.1976533578
31
0.0000000000
11
12.8868194081
21
21.1521008584
31
0.0000000000
11
12.8892519841
21
21.0668771430
31
0.0000000000
11
12.8911686234
21
20.9471882275
31
0.0000000000
11
12.8924514677
21
20.8004219217
31
0.0000000000
11
12.8930212143
21
20.6364835120
31
0.0000000000
0
SPLINE
5
435
100
AcDbEntity
8
0
100
AcDbSpline
62
9
6
CONTINUOUS
70
0
71
3
72
11
73
7
74
5
42
0.0000001000
43
0.0000001000
44
0.0000000001
12
0.0476327683
22
-40.0042257329
32
0.0000000000
13
-0.0468517031
23
-40.0042266553
33
0.0000000000
40
0.0000000000
40
0.0000000000
40
0.0000000000
40
0.0000000000
40
0.2483106660
40
0.4979356733
40
0.7485931357
40
1.0000000000
40
1.0000000000
40
1.0000000000
40
1.0000000000
10
13.6928993704
20
20.7853962316
30
0.0000000000
10
13.6968419453
20
17.4742375861
30
0.0000000000
10
13.7027436318
20
10.8343913421
30
0.0000000000
10
13.7056785717
20
0.8520878756
30
0.0000000000
10
13.7027192932
20
-9.1715026146
30
0.0000000000
10
13.6968256504
20
-15.8664034326
30
0.0000000000
10
13.6928993704
20
-19.2188491597
30
0.0000000000
11
13.6928993704
21
20.7853962316
31
0.0000000000
11
13.7017458904
21
10.8519171929
31
0.0000000000
11
13.7046958404
21
0.8658554093
31
0.0000000000
11
13.7017458903
21
-9.1615089715
31
0.0000000000
11
13.6928993704
21
-19.2188491597
31
0.0000000000
0
SPLINE
5
436
100
AcDbEntity
8
0
100
AcDbSpline
62
9
6
CONTINUOUS
70
0
71
3
72
11
73
7
74
5
42
0.0000001000
43
0.0000001000
44
0.0000000001
12
0.0476327662
22
-39.8975476926
32
0.0000000000
13
-0.0468517031
23
-39.8975486175
33
0.0000000000
40
0.0000000000
40
0.0000000000
40
0.0000000000
40
0.0000000000
40
0.2483099417
40
0.4979356158
40
0.7485937515
40
1.0000000000
40
1.0000000000
40
1.0000000000
40
1.0000000000
10
12.8930212143
20
20.6364835120
30
0.0000000000
10
12.8969637774
20
17.3341642653
30
0.0000000000
10
12.9028654694
20
10.7120250476
30
0.0000000000
10
12.9058004208
20
0.7563328553
30
0.0000000000
10
12.9028411329
20
-9.2405377062
30
0.0000000000
10
12.8969474846
20
-15.9175862175
30
0.0000000000
10
12.8930212143
20
-19.2610838916
30
0.0000000000
11
12.8930212143
21
20.6364835120
31
0.0000000000
11
12.9018677171
21
10.7295226614
31
0.0000000000
11
12.9048176843
21
0.7700637630
31
0.0000000000
11
12.9018677197
21
-9.2305878545
31
0.0000000000
11
12.8930212143
21
-19.2610838916
31
0.0000000000
0
SPLINE
5
437
100
AcDbEntity
8
0
100
AcDbSpline
62
9
6
CONTINUOUS
70
0
71
3
72
12
73
8
74
6
42
0.0000001000
43
0.0000001000
44
0.0000000001
12
-0.8313412490
22
-0.0009573597
32
0.0000000000
13
-0.0765680036
23
-0.8278082687
33
0.0000000000
40
0.0000000000
40
0.0000000000
40
0.0000000000
40
0.0000000000
40
0.2943155326
40
0.5615457172
40
0.7775700767
40
0.9246603694
40
1.0000000000
40
1.0000000000
40
1.0000000000
40
1.0000000000
10
13.6928993704
20
20.7853962249
30
0.0000000000
10
13.6113404896
20
20.7853023030
30
0.0000000000
10
13.4554298184
20
20.7805204692
30
0.0000000000
10
13.2416963989
20
20.7618738341
30
0.0000000000
10
13.0665961961
20
20.7299638608
30
0.0000000000
10
12.9556738314
20
20.6987791971
30
0.0000000000
10
12.8949440827
20
20.6572724350
30
0.0000000000
10
12.8930212143
20
20.6364835120
30
0.0000000000
11
13.6928993704
21
20.7853962249
31
0.0000000000
11
13.4483372948
21
20.7779042344
31
0.0000000000
11
13.2271910671
21
20.7567088590
31
0.0000000000
11
13.0506345607
21
20.7238394683
31
0.0000000000
11
12.9355723601
21
20.6824431758
31
0.0000000000
11
12.8930212143
21
20.6364835120
31
0.0000000000
0
SPLINE
5
438
100
AcDbEntity
8
0
100
AcDbSpline
62
9
6
CONTINUOUS
70
0
71
3
72
13
73
9
74
7
42
0.0000001000
43
0.0000001000
44
0.0000000001
12
-0.0008694834
22
-1.5678702961
32
0.0000000000
13
-0.0915631102
23
-1.5651946263
33
0.0000000000
40
0.0000000000
40
0.0000000000
40
0.0000000000
40
0.0000000000
40
0.2358132731
40
0.4604328478
40
0.6601304732
40
0.8227573529
40
0.9384062967
40
1.0000000000
40
1.0000000000
40
1.0000000000
40
1.0000000000
10
13.6928993704
20
-19.2188491597
30
0.0000000000
10
13.6928310252
20
-19.3420907019
30
0.0000000000
10
13.6924576867
20
-19.5827232447
30
0.0000000000
10
13.6912533190
20
-19.9277226641
30
0.0000000000
10
13.6893742827
20
-20.2344634524
30
0.0000000000
10
13.6873010081
20
-20.4842675922
30
0.0000000000
10
13.6844156428
20
-20.6618449851
30
0.0000000000
10
13.6828015704
20
-20.7544963773
30
0.0000000000
10
13.6809216667
20
-20.7866317551
30
0.0000000000
11
13.6928993704
21
-19.2188491597
31
0.0000000000
11
13.6923261952
21
-19.5885733987
31
0.0000000000
11
13.6910441225
21
-19.9407454781
31
0.0000000000
11
13.6891305442
21
-20.2538396538
31
0.0000000000
11
13.6867026272
21
-20.5088059873
31
0.0000000000
11
13.6839101797
21
-20.6901070552
31
0.0000000000
11
13.6809216667
21
-20.7866317551
31
0.0000000000
0
SPLINE
5
439
100
AcDbEntity
8
0
100
AcDbSpline
62
9
6
CONTINUOUS
70
0
71
3
72
13
73
9
74
7
42
0.0000001000
43
0.0000001000
44
0.0000000001
12
-0.0008635651
22
-0.7318197894
32
0.0000000000
13
-0.0908537656
23
-0.7261587590
33
0.0000000000
40
0.0000000000
40
0.0000000000
40
0.0000000000
40
0.0000000000
40
0.2348871301
40
0.4599214156
40
0.6600593281
40
0.8229633802
40
0.9386768012
40
1.0000000000
40
1.0000000000
40
1.0000000000
40
1.0000000000
10
12.8930212143
20
-19.2610838916
30
0.0000000000
10
12.8929536009
20
-19.3183822416
30
0.0000000000
10
12.8925810363
20
-19.4305744964
30
0.0000000000
10
12.8913773329
20
-19.5915887326
30
0.0000000000
10
12.8894985793
20
-19.7350229902
30
0.0000000000
10
12.8874152087
20
-19.8518183388
30
0.0000000000
10
12.8845424111
20
-19.9346458669
30
0.0000000000
10
12.8829006584
20
-19.9778723101
30
0.0000000000
10
12.8810435106
20
-19.9927157695
30
0.0000000000
11
12.8930212143
21
-19.2610838916
31
0.0000000000
11
12.8924514677
21
-19.4329781171
31
0.0000000000
11
12.8911686234
21
-19.5976577787
31
0.0000000000
11
12.8892519841
21
-19.7441102245
31
0.0000000000
11
12.8868194081
21
-19.8633018961
31
0.0000000000
11
12.8840205481
21
-19.9479370603
31
0.0000000000
11
12.8810435106
21
-19.9927157695
31
0.0000000000
0
SPLINE
5
43A
100
AcDbEntity
8
0
100
AcDbSpline
62
9
6
CONTINUOUS
70
0
71
3
72
12
73
8
74
6
42
0.0000001000
43
0.0000001000
44
0.0000000001
12
-0.8028643210
22
0.0009399194
32
0.0000000000
13
-0.2429582958
23
-0.7652210582
33
0.0000000000
40
0.0000000000
40
0.0000000000
40
0.0000000000
40
0.0000000000
40
0.3046173968
40
0.5801582000
40
0.8003722262
40
0.9444529744
40
1.0000000000
40
1.0000000000
40
1.0000000000
40
1.0000000000
10
13.6928993704
20
-19.2188502838
30
0.0000000000
10
13.6113772240
20
-19.2187548452
30
0.0000000000
10
13.4552593471
20
-19.2192935405
30
0.0000000000
10
13.2444093504
20
-19.2267759561
30
0.0000000000
10
13.0648245184
20
-19.2295142470
30
0.0000000000
10
12.9696397429
20
-19.2502313049
30
0.0000000000
10
12.8975197513
20
-19.2469153070
30
0.0000000000
10
12.8930212144
20
-19.2610838916
30
0.0000000000
11
13.6928993704
21
-19.2188502838
31
0.0000000000
11
13.4483395131
21
-19.2206672741
31
0.0000000000
11
13.2271948339
21
-19.2265168936
31
0.0000000000
11
13.0506386625
21
-19.2358390702
31
0.0000000000
11
12.9355752359
21
-19.2477412583
31
0.0000000000
11
12.8930212144
21
-19.2610838916
31
0.0000000000
0
SPLINE
5
43B
100
AcDbEntity
8
0
100
AcDbSpline
62
9
6
CONTINUOUS
70
0
71
3
72
13
73
9
74
7
42
0.0000001000
43
0.0000001000
44
0.0000000001
12
0.3034115949
22
-0.0418001474
32
0.0000000000
13
0.0006814129
23
-1.2085443551
33
0.0000000000
40
0.0000000000
40
0.0000000000
40
0.0000000000
40
0.0000000000
40
0.0051207331
40
0.0860121504
40
0.2369073520
40
0.4486172925
40
0.7082692885
40
1.0000000000
40
1.0000000000
40
1.0000000000
40
1.0000000000
10
13.6811748589
20
21.9954731727
30
0.0000000000
10
13.6816927555
20
21.9954018236
30
0.0000000000
10
13.7011891685
20
21.9290974525
30
0.0000000000
10
13.6740606167
20
21.8854854938
30
0.0000000000
10
13.6959460492
20
21.6717611374
30
0.0000000000
10
13.6888534469
20
21.4367904633
30
0.0000000000
10
13.6933505947
20
21.1235190480
30
0.0000000000
10
13.6928331074
20
20.9029193998
30
0.0000000000
10
13.6928993704
20
20.7853962316
30
0.0000000000
11
13.6811748589
21
21.9954731727
31
0.0000000000
11
13.6839101797
21
21.9876858510
31
0.0000000000
11
13.6867026272
21
21.8899648597
31
0.0000000000
11
13.6891305442
21
21.7076174494
31
0.0000000000
11
13.6910441225
21
21.4517637111
31
0.0000000000
11
13.6923261952
21
21.1379653263
31
0.0000000000
11
13.6928993704
21
20.7853962316
31
0.0000000000
0
SPLINE
5
43C
100
AcDbEntity
8
0
100
AcDbSpline
62
9
6
CONTINUOUS
70
0
71
3
72
12
73
8
74
6
42
0.0000001000
43
0.0000001000
44
0.0000000001
12
-1.2460362226
22
0.0030265008
32
0.0000000000
13
-0.0003831981
23
1.2460398392
33
0.0000000000
40
0.0000000000
40
0.0000000000
40
0.0000000000
40
0.0000000000
40
0.2008316480
40
0.4014361896
40
0.6015229632
40
0.8009976993
40
1.0000000000
40
1.0000000000
40
1.0000000000
40
1.0000000000
10
13.6809216667
20
-20.7866317551
30
0.0000000000
10
13.5975071640
20
-20.7864291494
30
0.0000000000
10
13.4296855966
20
-20.7597806308
30
0.0000000000
10
13.2033706693
20
-20.6450557363
30
0.0000000000
10
13.0233893301
20
-20.4665896093
30
0.0000000000
10
12.9077300202
20
-20.2420466344
30
0.0000000000
10
12.8810689297
20
-20.0753707010
30
0.0000000000
10
12.8810435106
20
-19.9927157695
30
0.0000000000
11
13.6809216667
21
-20.7866317551
31
0.0000000000
11
13.4337920534
21
-20.7472726774
31
0.0000000000
11
13.2108439054
21
-20.6342472109
31
0.0000000000
11
13.0338925477
21
-20.4586148215
31
0.0000000000
11
12.9202525505
21
-20.2375610195
31
0.0000000000
11
12.8810435106
21
-19.9927157695
31
0.0000000000
0
SPLINE
5
43D
100
AcDbEntity
8
0
100
AcDbSpline
62
9
6
CONTINUOUS
70
0
71
3
72
8
73
4
74
2
42
0.0000001000
43
0.0000001000
44
0.0000000001
12
-0.0215621304
22
-0.1291228655
32
0.0000000000
13
-0.0000398859
23
-0.1302527632
33
0.0000000000
40
0.0000000000
40
0.0000000000
40
0.0000000000
40
0.0000000000
40
1.0000000000
40
1.0000000000
40
1.0000000000
40
1.0000000000
10
12.8918920313
20
21.3308985188
30
0.0000000000
10
12.8847046545
20
21.2878575636
30
0.0000000000
10
12.8810568059
20
21.2442789575
30
0.0000000000
10
12.8810435106
20
21.2008613698
30
0.0000000000
11
12.8918920313
21
21.3308985188
31
0.0000000000
11
12.8810435106
21
21.2008613698
31
0.0000000000
0
SPLINE
5
43E
100
AcDbEntity
8
0
100
AcDbSpline
62
9
6
CONTINUOUS
70
0
71
3
72
8
73
4
74
2
42
0.0000001000
43
0.0000001000
44
0.0000000001
12
0.0215622084
22
-0.1291230892
32
0.0000000000
13
0.0000398858
23
-0.1302529812
33
0.0000000000
40
0.0000000000
40
0.0000000000
40
0.0000000000
40
0.0000000000
40
1.0000000000
40
1.0000000000
40
1.0000000000
40
1.0000000000
10
56.7728849756
20
21.3308987419
30
0.0000000000
10
56.7800723784
20
21.2878577121
30
0.0000000000
10
56.7837202411
20
21.2442790302
30
0.0000000000
10
56.7837335364
20
21.2008613698
30
0.0000000000
11
56.7728849756
21
21.3308987419
31
0.0000000000
11
56.7837335364
21
21.2008613698
31
0.0000000000
0
SPLINE
5
43F
100
AcDbEntity
8
0
100
AcDbSpline
62
9
6
CONTINUOUS
70
0
71
3
72
12
73
8
74
6
42
0.0000001000
43
0.0000001000
44
0.0000000001
12
-0.7957135787
22
0.0836328672
32
0.0000000000
13
-0.0836370963
23
-0.7957131342
33
0.0000000000
40
0.0000000000
40
0.0000000000
40
0.0000000000
40
0.0000000000
40
0.0492148673
40
0.1912677326
40
0.4124302269
40
0.6910919715
40
1.0000000000
40
1.0000000000
40
1.0000000000
40
1.0000000000
10
-28.9949247557
20
21.9947773554
30
0.0000000000
10
-29.0079784017
20
21.9961493489
30
0.0000000000
10
-28.9952272198
20
21.9126580002
30
0.0000000000
10
-29.0292516848
20
21.8342280357
30
0.0000000000
10
-29.0397224996
20
21.6482797753
30
0.0000000000
10
-29.0680283758
20
21.4402172908
30
0.0000000000
10
-29.0837933245
20
21.2827954283
30
0.0000000000
10
-29.0924053814
20
21.2008613698
30
0.0000000000
11
-28.9949247557
21
21.9947773554
31
0.0000000000
11
-29.0033053477
21
21.9563028697
31
0.0000000000
11
-29.0190483396
21
21.8437424522
31
0.0000000000
11
-29.0406132865
21
21.6681100631
31
0.0000000000
11
-29.0658900725
21
21.4465912125
31
0.0000000000
11
-29.0924053814
21
21.2008613698
31
0.0000000000
0
SPLINE
5
440
100
AcDbEntity
8
0
100
AcDbSpline
62
9
6
CONTINUOUS
70
0
71
3
72
13
73
9
74
7
42
0.0000001000
43
0.0000001000
44
0.0000000001
12
0.1956867647
22
1.0190059973
32
0.0000000000
13
1.0319758117
23
-0.1081316632
33
0.0000000000
40
0.0000000000
40
0.0000000000
40
0.0000000000
40
0.0000000000
40
0.1660497012
40
0.3330204069
40
0.5000331374
40
0.6670291585
40
0.8339873296
40
1.0000000000
40
1.0000000000
40
1.0000000000
40
1.0000000000
10
-29.8530577149
20
20.6364835120
30
0.0000000000
10
-29.8422264720
20
20.6928853924
30
0.0000000000
10
-29.8064149265
20
20.8038127595
30
0.0000000000
10
-29.7135611725
20
20.9517453668
30
0.0000000000
10
-29.5869654473
20
21.0726826022
30
0.0000000000
10
-29.4345183219
20
21.1587665561
30
0.0000000000
10
-29.2660401590
20
21.2047315840
30
0.0000000000
10
-29.1495124014
20
21.2068451118
30
0.0000000000
10
-29.0924053814
20
21.2008613698
30
0.0000000000
11
-29.8530577149
21
20.6364835120
31
0.0000000000
11
-29.8000427237
21
20.8004219217
31
0.0000000000
11
-29.7079760581
21
20.9471882275
31
0.0000000000
11
-29.5826513017
21
21.0668771431
31
0.0000000000
11
-29.4317783736
21
21.1521008584
31
0.0000000000
11
-29.2646344755
21
21.1976533579
31
0.0000000000
11
-29.0924053814
21
21.2008613698
31
0.0000000000
0
SPLINE
5
441
100
AcDbEntity
8
0
100
AcDbSpline
62
9
6
CONTINUOUS
70
0
71
3
72
11
73
7
74
5
42
0.0000001000
43
0.0000001000
44
0.0000000001
12
2.2092174783
22
40.1648783524
32
0.0000000000
13
7.5731691030
23
39.5062679162
33
0.0000000000
40
0.0000000000
40
0.0000000000
40
0.0000000000
40
0.0000000000
40
0.2499994001
40
0.5000000575
40
0.7500007139
40
1.0000000000
40
1.0000000000
40
1.0000000000
40
1.0000000000
10
-34.7518630096
20
-19.2610838916
30
0.0000000000
10
-34.5677619949
20
-15.9140187269
30
0.0000000000
10
-34.0870151919
20
-9.2255200094
30
0.0000000000
10
-33.0291640886
20
0.7769301258
30
0.0000000000
10
-31.6357808630
20
10.7381805550
30
0.0000000000
10
-30.4841533381
20
17.3443039197
30
0.0000000000
10
-29.8530577149
20
20.6364835120
30
0.0000000000
11
-34.7518630096
21
-19.2610838916
31
0.0000000000
11
-34.0308950141
21
-9.2305878545
31
0.0000000000
11
-32.9732419375
21
0.7700637630
31
0.0000000000
11
-31.5801014561
21
10.7295226614
31
0.0000000000
11
-29.8530577149
21
20.6364835120
31
0.0000000000
0
SPLINE
5
442
100
AcDbEntity
8
0
100
AcDbSpline
62
9
6
CONTINUOUS
70
0
71
3
72
12
73
8
74
6
42
0.0000001000
43
0.0000001000
44
0.0000000001
12
-0.7923101073
22
0.1113519238
32
0.0000000000
13
0.1113477907
23
0.7923106881
33
0.0000000000
40
0.0000000000
40
0.0000000000
40
0.0000000000
40
0.0000000000
40
0.0492159160
40
0.1912709823
40
0.4124349845
40
0.6910958596
40
1.0000000000
40
1.0000000000
40
1.0000000000
40
1.0000000000
10
-34.2478212881
20
-20.7866317551
30
0.0000000000
10
-34.2608193773
20
-20.7848049928
30
0.0000000000
10
-34.2282479235
20
-20.7068771370
30
0.0000000000
10
-34.2422879816
20
-20.6225446477
30
0.0000000000
10
-34.2074626448
20
-20.4395859589
30
0.0000000000
10
-34.1845928762
20
-20.2308568122
30
0.0000000000
10
-34.1618059269
20
-20.0742984535
30
0.0000000000
10
-34.1503406624
20
-19.9927157695
30
0.0000000000
11
-34.2478212881
21
-20.7866317551
31
0.0000000000
11
-34.2466450634
21
-20.7472718396
31
0.0000000000
11
-34.2346893760
21
-20.6342446249
31
0.0000000000
11
-34.2131242508
21
-20.4586110420
31
0.0000000000
11
-34.1840600050
21
-20.2375579339
31
0.0000000000
11
-34.1503406624
21
-19.9927157695
31
0.0000000000
0
SPLINE
5
443
100
AcDbEntity
8
0
100
AcDbSpline
62
9
6
CONTINUOUS
70
0
71
3
72
13
73
9
74
7
42
0.0000001000
43
0.0000001000
44
0.0000000001
12
-1.0274811370
22
0.1447378511
32
0.0000000000
13
0.0566458283
23
1.0360780775
33
0.0000000000
40
0.0000000000
40
0.0000000000
40
0.0000000000
40
0.0000000000
40
0.1660126704
40
0.3329708415
40
0.4999668626
40
0.6669795931
40
0.8339502988
40
1.0000000000
40
1.0000000000
40
1.0000000000
40
1.0000000000
10
-34.1503406624
20
-19.9927157695
30
0.0000000000
10
-34.2071989582
20
-19.9847063304
30
0.0000000000
10
-34.3197540346
20
-19.9544649670
30
0.0000000000
10
-34.4721077294
20
-19.8691067407
30
0.0000000000
10
-34.5992009304
20
-19.7486995505
30
0.0000000000
10
-34.6927788563
20
-19.6007283900
30
0.0000000000
10
-34.7470863203
20
-19.4347266572
30
0.0000000000
10
-34.7549983506
20
-19.3184307100
30
0.0000000000
10
-34.7518630096
20
-19.2610838916
30
0.0000000000
11
-34.1503406624
21
-19.9927157695
31
0.0000000000
11
-34.3166777281
21
-19.9479370603
31
0.0000000000
11
-34.4678365910
21
-19.8633018961
31
0.0000000000
11
-34.5936104656
21
-19.7441102245
31
0.0000000000
11
-34.6862571719
21
-19.5976577787
31
0.0000000000
11
-34.7400830811
21
-19.4329781171
31
0.0000000000
11
-34.7518630096
21
-19.2610838916
31
0.0000000000
0
SPLINE
5
444
100
AcDbEntity
8
0
100
AcDbSpline
62
9
6
CONTINUOUS
70
0
71
3
72
12
73
8
74
6
42
0.0000001000
43
0.0000001000
44
0.0000000001
12
0.0087146714
22
-0.5002829206
32
0.0000000000
13
0.5003179179
23
0.0063974327
33
0.0000000000
40
0.0000000000
40
0.0000000000
40
0.0000000000
40
0.0000000000
40
0.3088513883
40
0.5875007876
40
0.8086785802
40
0.9507586274
40
1.0000000000
40
1.0000000000
40
1.0000000000
40
1.0000000000
10
-21.8265170202
20
-21.6230142266
30
0.0000000000
10
-21.8256198408
20
-21.6745185847
30
0.0000000000
10
-21.8243831396
20
-21.7734344797
30
0.0000000000
10
-21.8180933388
20
-21.9046076722
30
0.0000000000
10
-21.8217163927
20
-22.0209843876
30
0.0000000000
10
-21.8047852434
20
-22.0717925068
30
0.0000000000
10
-21.8173014300
20
-22.1230383184
30
0.0000000000
10
-21.8090893163
20
-22.1229333122
30
0.0000000000
11
-21.8265170202
21
-21.6230142266
31
0.0000000000
11
-21.8233984945
21
-21.7775192730
31
0.0000000000
11
-21.8197313798
21
-21.9168957228
31
0.0000000000
11
-21.8158752034
21
-22.0274967779
31
0.0000000000
11
-21.8122080043
21
-22.0984931338
31
0.0000000000
11
-21.8090893163
21
-22.1229333122
31
0.0000000000
0
SPLINE
5
445
100
AcDbEntity
8
0
100
AcDbSpline
62
9
6
CONTINUOUS
70
0
71
3
72
11
73
7
74
5
42
0.0000001000
43
0.0000001000
44
0.0000000001
12
0.0110394117
22
-0.4742951638
32
0.0000000000
13
0.0357169818
23
-0.4730772329
33
0.0000000000
40
0.0000000000
40
0.0000000000
40
0.0000000000
40
0.0000000000
40
0.3236051814
40
0.6160014875
40
0.8489574831
40
1.0000000000
40
1.0000000000
40
1.0000000000
40
1.0000000000
10
-22.2098761083
20
-21.6658729825
30
0.0000000000
10
-22.2086853046
20
-21.7170344400
30
0.0000000000
10
-22.2061563665
20
-21.8144167296
30
0.0000000000
10
-22.2019435700
20
-21.9486090522
30
0.0000000000
10
-22.1976871227
20
-22.0554860762
30
0.0000000000
10
-22.1946808620
20
-22.1161484599
30
0.0000000000
10
-22.1928826011
20
-22.1399667185
30
0.0000000000
11
-22.2098761083
21
-21.6658729825
31
0.0000000000
11
-22.2058825668
21
-21.8193469749
31
0.0000000000
11
-22.2014320790
21
-21.9579952789
31
0.0000000000
11
-22.1969545806
21
-22.0684243698
31
0.0000000000
11
-22.1928826011
21
-22.1399667185
31
0.0000000000
0
SPLINE
5
446
100
AcDbEntity
8
0
100
AcDbSpline
62
9
6
CONTINUOUS
70
0
71
3
72
15
73
11
74
9
42
0.0000001000
43
0.0000001000
44
0.0000000001
12
0.3841435118
22
0.0071043960
32
0.0000000000
13
0.3841528557
23
0.0065797858
33
0.0000000000
40
0.0000000000
40
0.0000000000
40
0.0000000000
40
0.0000000000
40
0.1257092844
40
0.2589084578
40
0.3960038257
40
0.5325532695
40
0.6626746907
40
0.7846284077
40
0.8966550305
40
1.0000000000
40
1.0000000000
40
1.0000000000
40
1.0000000000
10
-22.1928826011
20
-22.1399667185
30
0.0000000000
10
-22.1767857991
20
-22.1396690224
30
0.0000000000
10
-22.1436349826
20
-22.1389474195
30
0.0000000000
10
-22.0929405101
20
-22.1374490261
30
0.0000000000
10
-22.0408721177
20
-22.1354948994
30
0.0000000000
10
-21.9892185924
20
-22.1330520698
30
0.0000000000
10
-21.9395299407
20
-22.1301786577
30
0.0000000000
10
-21.8929965327
20
-22.1271663794
30
0.0000000000
10
-21.8498873973
20
-22.1243644465
30
0.0000000000
10
-21.8223229655
20
-22.1231702571
30
0.0000000000
10
-21.8090895438
20
-22.1229435945
30
0.0000000000
11
-22.1928826011
21
-22.1399667185
31
0.0000000000
11
-22.1445955543
21
-22.1389074603
31
0.0000000000
11
-22.0934415058
21
-22.1373968588
31
0.0000000000
11
-22.0408058173
21
-22.1354066296
31
0.0000000000
11
-21.9884012641
21
-22.1329192281
31
0.0000000000
11
-21.9384892915
21
-22.1300592006
31
0.0000000000
11
-21.8917282231
21
-22.1270821439
31
0.0000000000
11
-21.8487669224
21
-22.1244532520
31
0.0000000000
11
-21.8090895438
21
-22.1229435945
31
0.0000000000
0
SPLINE
5
447
100
AcDbEntity
8
0
100
AcDbSpline
62
9
6
CONTINUOUS
70
0
71
3
72
15
73
11
74
9
42
0.0000001000
43
0.0000001000
44
0.0000000001
12
0.3860321826
22
0.0089932165
32
0.0000000000
13
0.3860788700
23
0.0066955245
33
0.0000000000
40
0.0000000000
40
0.0000000000
40
0.0000000000
40
0.0000000000
40
0.0745069968
40
0.1571789734
40
0.2508717874
40
0.3586878819
40
0.4844485630
40
0.6316164612
40
0.8032820160
40
1.0000000000
40
1.0000000000
40
1.0000000000
40
1.0000000000
10
-22.2099318245
20
-21.6658754325
30
0.0000000000
10
-22.2003444583
20
-21.6656520800
30
0.0000000000
10
-22.1801263946
20
-21.6647584098
30
0.0000000000
10
-22.1479491225
20
-21.6619592603
30
0.0000000000
10
-22.1116456490
20
-21.6574322466
30
0.0000000000
10
-22.0700126193
20
-21.6510019337
30
0.0000000000
10
-22.0216707061
20
-21.6429637488
30
0.0000000000
10
-21.9651261579
20
-21.6341378650
30
0.0000000000
10
-21.8992224079
20
-21.6262112409
30
0.0000000000
10
-21.8518332392
20
-21.6234532699
30
0.0000000000
10
-21.8265170202
20
-21.6230142266
30
0.0000000000
11
-22.2099318245
21
-21.6658754325
31
0.0000000000
11
-22.1811896960
21
-21.6646115714
31
0.0000000000
11
-22.1493825963
21
-21.6618972846
31
0.0000000000
11
-22.1134731516
21
-21.6574952495
31
0.0000000000
11
-22.0723076763
21
-21.6512816882
31
0.0000000000
11
-22.0243762143
21
-21.6434887186
31
0.0000000000
11
-21.9681977302
21
-21.6349282715
31
0.0000000000
11
-21.9023601611
21
-21.6272274568
31
0.0000000000
11
-21.8265170202
21
-21.6230142266
31
0.0000000000
0
SPLINE
5
448
100
AcDbEntity
8
0
100
AcDbSpline
62
9
6
CONTINUOUS
70
0
71
3
72
11
73
7
74
5
42
0.0000001000
43
0.0000001000
44
0.0000000001
12
0.0111872439
22
-0.4699338281
32
0.0000000000
13
0.0336606458
23
-0.4688602331
33
0.0000000000
40
0.0000000000
40
0.0000000000
40
0.0000000000
40
0.0000000000
40
0.3199145341
40
0.6102590838
40
0.8441641808
40
1.0000000000
40
1.0000000000
40
1.0000000000
40
1.0000000000
10
-23.2097777155
20
-21.6894251791
30
0.0000000000
10
-23.2085847282
20
-21.7395380664
30
0.0000000000
10
-23.2060584753
20
-21.8351256384
30
0.0000000000
10
-23.2018539762
20
-21.9673325338
30
0.0000000000
10
-23.1976219105
20
-22.0738076935
30
0.0000000000
10
-23.1946006937
20
-22.1348094085
30
0.0000000000
10
-23.1928521823
20
-22.1591644813
30
0.0000000000
11
-23.2097777155
21
-21.6894251791
31
0.0000000000
11
-23.2057950196
21
-21.8397536871
31
0.0000000000
11
-23.2013731264
21
-21.9761634183
31
0.0000000000
11
-23.1969214553
21
-22.0860243227
31
0.0000000000
11
-23.1928521823
21
-22.1591644813
31
0.0000000000
0
SPLINE
5
449
100
AcDbEntity
8
0
100
AcDbSpline
62
9
6
CONTINUOUS
70
0
71
3
72
10
73
6
74
4
42
0.0000001000
43
0.0000001000
44
0.0000000001
12
0.9998048105
22
0.0238086066
32
0.0000000000
13
0.9998169883
23
0.0232916011
33
0.0000000000
40
0.0000000000
40
0.0000000000
40
0.0000000000
40
0.0000000000
40
0.3333261035
40
0.6666869876
40
1.0000000000
40
1.0000000000
40
1.0000000000
40
1.0000000000
10
-23.2097427754
20
-21.6894243501
30
0.0000000000
10
-23.0986557615
20
-21.6867790068
30
0.0000000000
10
-22.8764696794
20
-21.6815074628
30
0.0000000000
10
-22.5431993515
20
-21.6736580888
30
0.0000000000
10
-22.3210158286
20
-21.6684632304
30
0.0000000000
10
-22.2099318245
20
-21.6658754325
30
0.0000000000
11
-23.2097427754
21
-21.6894243501
31
0.0000000000
11
-22.8764810435
21
-21.6815173540
31
0.0000000000
11
-22.5431831735
21
-21.6736672430
31
0.0000000000
11
-22.2099318245
21
-21.6658754325
31
0.0000000000
0
SPLINE
5
44A
100
AcDbEntity
8
0
100
AcDbSpline
62
9
6
CONTINUOUS
70
0
71
3
72
12
73
8
74
6
42
0.0000001000
43
0.0000001000
44
0.0000000001
12
0.0086937772
22
-0.4984734628
32
0.0000000000
13
0.4007901615
23
-0.1051882955
33
0.0000000000
40
0.0000000000
40
0.0000000000
40
0.0000000000
40
0.0000000000
40
0.3099949996
40
0.5896683819
40
0.8116484681
40
0.9542304868
40
1.0000000000
40
1.0000000000
40
1.0000000000
40
1.0000000000
10
-23.6118880772
20
-21.6541805948
30
0.0000000000
10
-23.6109897347
20
-21.7056886884
30
0.0000000000
10
-23.6097503311
20
-21.8046153947
30
0.0000000000
10
-23.6034586884
20
-21.9357750592
30
0.0000000000
10
-23.6070731604
20
-22.0521999256
30
0.0000000000
10
-23.5902981330
20
-22.1024668496
30
0.0000000000
10
-23.6021824433
20
-22.1523143749
30
0.0000000000
10
-23.5960677864
20
-22.1539191806
30
0.0000000000
11
-23.6118880772
21
-21.6541805948
31
0.0000000000
11
-23.6087658612
21
-21.8086968345
31
0.0000000000
11
-23.6050948811
21
-21.9480794615
31
0.0000000000
11
-23.6012346269
21
-22.0586801254
31
0.0000000000
11
-23.5975631026
21
-22.1296694057
31
0.0000000000
11
-23.5960677864
21
-22.1539191806
31
0.0000000000
0
SPLINE
5
44B
100
AcDbEntity
8
0
100
AcDbSpline
62
9
6
CONTINUOUS
70
0
71
3
72
8
73
4
74
2
42
0.0000001000
43
0.0000001000
44
0.0000000001
12
0.0014533255
22
-0.0003814286
32
0.0000000000
13
0.0018075252
23
0.0000323535
33
0.0000000000
40
0.0000000000
40
0.0000000000
40
0.0000000000
40
0.0000000000
40
1.0000000000
40
1.0000000000
40
1.0000000000
40
1.0000000000
10
-23.5960677864
20
-22.1539191806
30
0.0000000000
10
-23.5955833446
20
-22.1540463234
30
0.0000000000
10
-23.5950423955
20
-22.1541075085
30
0.0000000000
10
-23.5944398871
20
-22.1540967240
30
0.0000000000
11
-23.5960677864
21
-22.1539191806
31
0.0000000000
11
-23.5944398871
21
-22.1540967240
31
0.0000000000
0
SPLINE
5
44C
100
AcDbEntity
8
0
100
AcDbSpline
62
9
6
CONTINUOUS
70
0
71
3
72
15
73
11
74
9
42
0.0000001000
43
0.0000001000
44
0.0000000001
12
0.4016226979
22
0.0070103905
32
0.0000000000
13
0.4016156196
23
0.0074048082
33
0.0000000000
40
0.0000000000
40
0.0000000000
40
0.0000000000
40
0.0000000000
40
0.0871410876
40
0.1907045425
40
0.3109141803
40
0.4433321457
40
0.5842863038
40
0.7279945386
40
0.8680062142
40
1.0000000000
40
1.0000000000
40
1.0000000000
40
1.0000000000
10
-23.5944395342
20
-22.1541130352
30
0.0000000000
10
-23.5827735880
20
-22.1539094042
30
0.0000000000
10
-23.5572317327
20
-22.1541834399
30
0.0000000000
10
-23.5156340001
20
-22.1558082838
30
0.0000000000
10
-23.4679797632
20
-22.1577142169
30
0.0000000000
10
-23.4153026249
20
-22.1592672818
30
0.0000000000
10
-23.3594629529
20
-22.1601370323
30
0.0000000000
10
-23.3026007036
20
-22.1603626573
30
0.0000000000
10
-23.2469392397
20
-22.1600115424
30
0.0000000000
10
-23.2105224592
20
-22.1594916034
30
0.0000000000
10
-23.1928522039
20
-22.1591658072
30
0.0000000000
11
-23.5944395342
21
-22.1541130352
31
0.0000000000
11
-23.5594369225
21
-22.1543107161
31
0.0000000000
11
-23.5178612778
21
-22.1557272746
31
0.0000000000
11
-23.4696101227
21
-22.1575685314
31
0.0000000000
11
-23.4164424253
21
-22.1591142534
31
0.0000000000
11
-23.3598307030
21
-22.1600228245
31
0.0000000000
11
-23.3021059279
21
-22.1602644693
31
0.0000000000
11
-23.2458665024
21
-22.1599278800
31
0.0000000000
11
-23.1928522039
21
-22.1591658072
31
0.0000000000
0
SPLINE
5
44D
100
AcDbEntity
8
0
100
AcDbSpline
62
9
6
CONTINUOUS
70
0
71
3
72
15
73
11
74
9
42
0.0000001000
43
0.0000001000
44
0.0000000001
12
0.4041183453
22
0.0070622712
32
0.0000000000
13
0.4040645073
23
0.0096636739
33
0.0000000000
40
0.0000000000
40
0.0000000000
40
0.0000000000
40
0.0000000000
40
0.1811766031
40
0.3560672046
40
0.5115700989
40
0.6427089051
40
0.7523397372
40
0.8456522573
40
0.9270184899
40
1.0000000000
40
1.0000000000
40
1.0000000000
40
1.0000000000
10
-23.6118880772
20
-21.6541805948
30
0.0000000000
10
-23.5874824808
20
-21.6537540887
30
0.0000000000
10
-23.5394671990
20
-21.6548930307
30
0.0000000000
10
-23.4708023038
20
-21.6612345089
30
0.0000000000
10
-23.4091938607
20
-21.6697145049
30
0.0000000000
10
-23.3564154834
20
-21.6777517121
30
0.0000000000
10
-23.3118285588
20
-21.6839437969
30
0.0000000000
10
-23.2737085716
20
-21.6878111519
30
0.0000000000
10
-23.2403780780
20
-21.6896338927
30
0.0000000000
10
-23.2195725214
20
-21.6896594400
30
0.0000000000
10
-23.2097427754
20
-21.6894243501
30
0.0000000000
11
-23.6118880772
21
-21.6541805948
31
0.0000000000
11
-23.5386771654
21
-21.6557610266
31
0.0000000000
11
-23.4682682483
21
-21.6620282144
31
0.0000000000
11
-23.4059668583
21
-21.6703231573
31
0.0000000000
11
-23.3535313365
21
-21.6780631260
31
0.0000000000
11
-23.3096140901
21
-21.6839541627
31
0.0000000000
11
-23.2720817820
21
-21.6876624685
31
0.0000000000
11
-23.2392404221
21
-21.6893870155
31
0.0000000000
11
-23.2097427754
21
-21.6894243501
31
0.0000000000
0
SPLINE
5
44E
100
AcDbEntity
8
0
100
AcDbSpline
62
9
6
CONTINUOUS
70
0
71
3
72
12
73
8
74
6
42
0.0000001000
43
0.0000001000
44
0.0000000001
12
-0.4999579924
22
-0.0038831353
32
0.0000000000
13
0.0052081812
23
0.4999459449
33
0.0000000000
40
0.0000000000
40
0.0000000000
40
0.0000000000
40
0.0000000000
40
0.0490756349
40
0.1911185452
40
0.4122611497
40
0.6909655158
40
1.0000000000
40
1.0000000000
40
1.0000000000
40
1.0000000000
10
-27.6448081722
20
-18.0491899832
30
0.0000000000
10
-27.6529867575
20
-18.0492535056
30
0.0000000000
10
-27.6366443446
20
-17.9978375396
30
0.0000000000
10
-27.6529284446
20
-17.9472235377
30
0.0000000000
10
-27.6445560742
20
-17.8307789773
30
0.0000000000
10
-27.6470572240
20
-17.6996721309
30
0.0000000000
10
-27.6453446748
20
-17.6007663146
30
0.0000000000
10
-27.6448081722
20
-17.5492661356
30
0.0000000000
11
-27.6448081722
21
-18.0491899832
31
0.0000000000
11
-27.6461692339
21
-18.0246912660
31
0.0000000000
11
-27.6468851176
21
-17.9536772440
31
0.0000000000
11
-27.6468855284
21
-17.8431118966
31
0.0000000000
11
-27.6461696942
21
-17.7037690571
31
0.0000000000
11
-27.6448081722
21
-17.5492661356
31
0.0000000000
0
SPLINE
5
44F
100
AcDbEntity
8
0
100
AcDbSpline
62
9
6
CONTINUOUS
70
0
71
3
72
12
73
8
74
6
42
0.0000001000
43
0.0000001000
44
0.0000000001
12
-0.5002902039
22
0.0086498317
32
0.0000000000
13
-0.0087293840
23
-0.5002888222
33
0.0000000000
40
0.0000000000
40
0.0000000000
40
0.0000000000
40
0.0000000000
40
0.0492232048
40
0.1912953991
40
0.4124755522
40
0.6911349624
40
1.0000000000
40
1.0000000000
40
1.0000000000
40
1.0000000000
10
-21.8090514631
20
22.6725108422
30
0.0000000000
10
-21.8172600922
20
22.6726527664
30
0.0000000000
10
-21.8047605628
20
22.6213279162
30
0.0000000000
10
-21.8216856785
20
22.5706031806
30
0.0000000000
10
-21.8180714974
20
22.4541817357
30
0.0000000000
10
-21.8243641890
20
22.3230195080
30
0.0000000000
10
-21.8256042822
20
22.2240941413
30
0.0000000000
10
-21.8265030161
20
22.1725868994
30
0.0000000000
11
-21.8090514631
21
22.6725108422
31
0.0000000000
11
-21.8121747821
21
22.6480801140
31
0.0000000000
11
-21.8158467408
21
22.5770870627
31
0.0000000000
11
-21.8197077490
21
22.4664836316
31
0.0000000000
11
-21.8233797040
21
22.3271005822
31
0.0000000000
11
-21.8265030161
21
22.1725868994
31
0.0000000000
0
SPLINE
5
450
100
AcDbEntity
8
0
100
AcDbSpline
62
9
6
CONTINUOUS
70
0
71
3
72
11
73
7
74
5
42
0.0000001000
43
0.0000001000
44
0.0000000001
12
-0.0357421336
22
-0.4730776884
32
0.0000000000
13
-0.0111686177
23
-0.4742944880
33
0.0000000000
40
0.0000000000
40
0.0000000000
40
0.0000000000
40
0.0000000000
40
0.1510420564
40
0.3839981722
40
0.6763947477
40
1.0000000000
40
1.0000000000
40
1.0000000000
40
1.0000000000
10
-22.1928825631
20
22.6895470881
30
0.0000000000
10
-22.1946820849
20
22.6657288792
30
0.0000000000
10
-22.1976981772
20
22.6050668283
30
0.0000000000
10
-22.2019765129
20
22.4981901249
30
0.0000000000
10
-22.2062216419
20
22.3639981112
30
0.0000000000
10
-22.2087761902
20
22.2666159525
30
0.0000000000
10
-22.2099809313
20
22.2154545566
30
0.0000000000
11
-22.1928825631
21
22.6895470881
31
0.0000000000
11
-22.1969639342
21
22.6180051380
31
0.0000000000
11
-22.2014636883
21
22.5075763472
31
0.0000000000
11
-22.2059471390
21
22.3689282903
31
0.0000000000
11
-22.2099809313
21
22.2154545566
31
0.0000000000
0
SPLINE
5
451
100
AcDbEntity
8
0
100
AcDbSpline
62
9
6
CONTINUOUS
70
0
71
3
72
16
73
12
74
10
42
0.0000001000
43
0.0000001000
44
0.0000000001
12
0.3861115790
22
-0.0090830079
32
0.0000000000
13
0.3861599643
23
-0.0067182182
33
0.0000000000
40
0.0000000000
40
0.0000000000
40
0.0000000000
40
0.0000000000
40
0.0660050357
40
0.1380401834
40
0.2184549126
40
0.3092653043
40
0.4129440458
40
0.5325640898
40
0.6701629968
40
0.8254894521
40
1.0000000000
40
1.0000000000
40
1.0000000000
40
1.0000000000
10
-22.2099926344
20
22.2154550433
30
0.0000000000
10
-22.2014975316
20
22.2152552019
30
0.0000000000
10
-22.1837370709
20
22.2145160059
30
0.0000000000
10
-22.1556952410
20
22.2122904521
30
0.0000000000
10
-22.1245777702
20
22.2087114745
30
0.0000000000
10
-22.0895416455
20
22.2036896933
30
0.0000000000
10
-22.0496263065
20
22.1972030696
30
0.0000000000
10
-22.0037830306
20
22.1896490151
30
0.0000000000
10
-21.9512365332
20
22.1818838098
30
0.0000000000
10
-21.8914062831
20
22.1752613100
30
0.0000000000
10
-21.8489660117
20
22.1729776993
30
0.0000000000
10
-21.8265030161
20
22.1725868994
30
0.0000000000
11
-22.2099926344
21
22.2154550433
31
0.0000000000
11
-22.1845222924
21
22.2143957705
31
0.0000000000
11
-22.1567860602
21
22.2122218050
31
0.0000000000
11
-22.1259253089
21
22.2087301673
31
0.0000000000
11
-22.0911975536
21
22.2038237042
31
0.0000000000
11
-22.0516544043
21
22.1975187715
31
0.0000000000
11
-22.0060475744
21
22.1901426375
31
0.0000000000
11
-21.9534541019
21
22.1825183660
31
0.0000000000
11
-21.8938125016
21
22.1760629949
31
0.0000000000
11
-21.8265030161
21
22.1725868994
31
0.0000000000
0
SPLINE
5
452
100
AcDbEntity
8
0
100
AcDbSpline
62
9
6
CONTINUOUS
70
0
71
3
72
16
73
12
74
10
42
0.0000001000
43
0.0000001000
44
0.0000000001
12
0.3841810359
22
-0.0071848790
32
0.0000000000
13
0.3841897246
23
-0.0067042052
33
0.0000000000
40
0.0000000000
40
0.0000000000
40
0.0000000000
40
0.0000000000
40
0.1108287632
40
0.2286850200
40
0.3499774821
40
0.4722736287
40
0.5921748705
40
0.7054982890
40
0.8117572687
40
0.9095245502
40
1.0000000000
40
1.0000000000
40
1.0000000000
40
1.0000000000
10
-22.1928825631
20
22.6895470881
30
0.0000000000
10
-22.1786897934
20
22.6892816577
30
0.0000000000
10
-22.1494057782
20
22.6886519511
30
0.0000000000
10
-22.1045966804
20
22.6874041037
30
0.0000000000
10
-22.0583308878
20
22.6857515318
30
0.0000000000
10
-22.0118167769
20
22.6837472659
30
0.0000000000
10
-21.9663421050
20
22.6813681568
30
0.0000000000
10
-21.9229421590
20
22.6786933850
30
0.0000000000
10
-21.8823823163
20
22.6760302802
30
0.0000000000
10
-21.8447339601
20
22.6737041450
30
0.0000000000
10
-21.8206380695
20
22.6727123064
30
0.0000000000
10
-21.8090514901
20
22.6725101178
30
0.0000000000
11
-22.1928825631
21
22.6895470881
31
0.0000000000
11
-22.1503067344
21
22.6886276931
31
0.0000000000
11
-22.1050384839
21
22.6873578896
31
0.0000000000
11
-22.0584615957
21
22.6856992379
31
0.0000000000
11
-22.0115137299
21
22.6836613192
31
0.0000000000
11
-21.9655049864
21
22.6812509676
31
0.0000000000
11
-21.9220409640
21
22.6786077359
31
0.0000000000
11
-21.8812953801
21
22.6759863122
31
0.0000000000
11
-21.8437933169
21
22.6737800745
31
0.0000000000
11
-21.8090514901
21
22.6725101178
31
0.0000000000
0
SPLINE
5
453
100
AcDbEntity
8
0
100
AcDbSpline
62
9
6
CONTINUOUS
70
0
71
3
72
11
73
7
74
5
42
0.0000001000
43
0.0000001000
44
0.0000000001
12
-0.0336606446
22
-0.4688602332
32
0.0000000000
13
-0.0111872454
23
-0.4699338281
33
0.0000000000
40
0.0000000000
40
0.0000000000
40
0.0000000000
40
0.0000000000
40
0.1558358192
40
0.3897409162
40
0.6800854659
40
1.0000000000
40
1.0000000000
40
1.0000000000
40
1.0000000000
10
-23.1928521823
20
22.7087426704
30
0.0000000000
10
-23.1946006937
20
22.6843875976
30
0.0000000000
10
-23.1976219103
20
22.6233858826
30
0.0000000000
10
-23.2018539761
20
22.5169107229
30
0.0000000000
10
-23.2060584749
20
22.3847038274
30
0.0000000000
10
-23.2085847281
20
22.2891162554
30
0.0000000000
10
-23.2097777155
20
22.2390033682
30
0.0000000000
11
-23.1928521823
21
22.7087426704
31
0.0000000000
11
-23.1969214552
21
22.6356025117
31
0.0000000000
11
-23.2013731262
21
22.5257416073
31
0.0000000000
11
-23.2057950193
21
22.3893318761
31
0.0000000000
11
-23.2097777155
21
22.2390033682
31
0.0000000000
0
SPLINE
5
454
100
AcDbEntity
8
0
100
AcDbSpline
62
9
6
CONTINUOUS
70
0
71
3
72
10
73
6
74
4
42
0.0000001000
43
0.0000001000
44
0.0000000001
12
0.9996795715
22
-0.0238056242
32
0.0000000000
13
0.9996917465
23
-0.0232887369
33
0.0000000000
40
0.0000000000
40
0.0000000000
40
0.0000000000
40
0.0000000000
40
0.3333034116
40
0.6667060588
40
1.0000000000
40
1.0000000000
40
1.0000000000
40
1.0000000000
10
-23.2096783455
20
22.2390010105
30
0.0000000000
10
-23.0986128083
20
22.2363561786
30
0.0000000000
10
-22.8764482030
20
22.2310851462
30
0.0000000000
10
-22.5432196217
20
22.2232367520
30
0.0000000000
10
-22.3210563685
20
22.2180423750
30
0.0000000000
10
-22.2099926344
20
22.2154550433
30
0.0000000000
11
-23.2096783455
21
22.2390010105
31
0.0000000000
11
-22.8764810439
21
22.2310955430
31
0.0000000000
11
-22.5431831739
21
22.2232454321
31
0.0000000000
11
-22.2099926344
21
22.2154550433
31
0.0000000000
0
SPLINE
5
455
100
AcDbEntity
8
0
100
AcDbSpline
62
9
6
CONTINUOUS
70
0
71
3
72
9
73
5
74
3
42
0.0000001000
43
0.0000001000
44
0.0000000001
12
-0.0394093674
22
0.0004349237
32
0.0000000000
13
0.0022296549
23
-0.0452700083
33
0.0000000000
40
0.0000000000
40
0.0000000000
40
0.0000000000
40
0.0000000000
40
0.6255207812
40
1.0000000000
40
1.0000000000
40
1.0000000000
40
1.0000000000
10
-23.5944161255
20
22.7036744953
30
0.0000000000
10
-23.6026332516
20
22.7037651799
30
0.0000000000
10
-23.5974568515
20
22.6826779330
30
0.0000000000
10
-23.5957471463
20
22.6662749620
30
0.0000000000
10
-23.5954688265
20
22.6606240695
30
0.0000000000
11
-23.5944161255
21
22.7036744953
31
0.0000000000
11
-23.5975137953
21
22.6792170035
31
0.0000000000
11
-23.5954688265
21
22.6606240695
31
0.0000000000
0
SPLINE
5
456
100
AcDbEntity
8
0
100
AcDbSpline
62
9
6
CONTINUOUS
70
0
71
3
72
11
73
7
74
5
42
0.0000001000
43
0.0000001000
44
0.0000000001
12
0.0260772673
22
-0.5294622420
32
0.0000000000
13
-0.0080993025
23
-0.4608751340
33
0.0000000000
40
0.0000000000
40
0.0000000000
40
0.0000000000
40
0.0000000000
40
0.1222253320
40
0.3623101142
40
0.6647661847
40
1.0000000000
40
1.0000000000
40
1.0000000000
40
1.0000000000
10
-23.5954688265
20
22.6606240695
30
0.0000000000
10
-23.5944063923
20
22.6390528367
30
0.0000000000
10
-23.6068906318
20
22.5963478279
30
0.0000000000
10
-23.6034223503
20
22.4853342681
30
0.0000000000
10
-23.6097435197
20
22.3541632178
30
0.0000000000
10
-23.6109916152
20
22.2552559582
30
0.0000000000
10
-23.6118966685
20
22.2037556484
30
0.0000000000
11
-23.5954688265
21
22.6606240695
31
0.0000000000
11
-23.6011936170
21
22.6082140935
31
0.0000000000
11
-23.6050671440
21
22.4976157136
31
0.0000000000
11
-23.6087551778
21
22.3582484973
31
0.0000000000
11
-23.6118966685
21
22.2037556484
31
0.0000000000
0
SPLINE
5
457
100
AcDbEntity
8
0
100
AcDbSpline
62
9
6
CONTINUOUS
70
0
71
3
72
15
73
11
74
9
42
0.0000001000
43
0.0000001000
44
0.0000000001
12
0.4041914785
22
-0.0071317142
32
0.0000000000
13
0.4041423076
23
-0.0095188132
33
0.0000000000
40
0.0000000000
40
0.0000000000
40
0.0000000000
40
0.0000000000
40
0.1751125839
40
0.3500914023
40
0.5121732028
40
0.6462667741
40
0.7550560556
40
0.8466184207
40
0.9264938451
40
1.0000000000
40
1.0000000000
40
1.0000000000
40
1.0000000000
10
-23.6118966686
20
22.2037556484
30
0.0000000000
10
-23.5883036638
20
22.2033393641
30
0.0000000000
10
-23.5410875565
20
22.2044004951
30
0.0000000000
10
-23.4723147111
20
22.2106091406
30
0.0000000000
10
-23.4094065246
20
22.2192490849
30
0.0000000000
10
-23.3554644350
20
22.2274899831
30
0.0000000000
10
-23.3108132860
20
22.2336357186
30
0.0000000000
10
-23.2732315246
20
22.2374253089
30
0.0000000000
10
-23.2402596110
20
22.2392035190
30
0.0000000000
10
-23.2195806612
20
22.2392342410
30
0.0000000000
10
-23.2096783455
20
22.2390010105
30
0.0000000000
11
-23.6118966686
21
22.2037556484
31
0.0000000000
11
-23.5411213167
21
22.2051971920
31
0.0000000000
11
-23.4706517279
21
22.2113300931
31
0.0000000000
11
-23.4056977039
21
22.2199407772
31
0.0000000000
11
-23.3520711896
21
22.2278587957
31
0.0000000000
11
-23.3084776910
21
22.2336656261
31
0.0000000000
11
-23.2716398036
21
22.2372770505
31
0.0000000000
11
-23.2393934975
21
22.2389561154
31
0.0000000000
11
-23.2096783455
21
22.2390010105
31
0.0000000000
0
SPLINE
5
458
100
AcDbEntity
8
0
100
AcDbSpline
62
9
6
CONTINUOUS
70
0
71
3
72
15
73
11
74
9
42
0.0000001000
43
0.0000001000
44
0.0000000001
12
0.4015682205
22
-0.0071779807
32
0.0000000000
13
0.4015659064
23
-0.0073062905
33
0.0000000000
40
0.0000000000
40
0.0000000000
40
0.0000000000
40
0.0000000000
40
0.0835027605
40
0.1865525363
40
0.3111003194
40
0.4469198220
40
0.5881981051
40
0.7292115716
40
0.8672914903
40
1.0000000000
40
1.0000000000
40
1.0000000000
40
1.0000000000
10
-23.5943877649
20
22.7036823387
30
0.0000000000
10
-23.5832104132
20
22.7034825449
30
0.0000000000
10
-23.5582280010
20
22.7037463112
30
0.0000000000
10
-23.5166094442
20
22.7053382870
30
0.0000000000
10
-23.4679956399
20
22.7073096105
30
0.0000000000
10
-23.4142451273
20
22.7088602451
30
0.0000000000
10
-23.3582747360
20
22.7097418054
30
0.0000000000
10
-23.3019956592
20
22.7099173422
30
0.0000000000
10
-23.2468648683
20
22.7096054926
30
0.0000000000
10
-23.2106159448
20
22.7090653997
30
0.0000000000
10
-23.1928522071
20
22.7087421974
30
0.0000000000
11
-23.5943877649
21
22.7036823387
31
0.0000000000
11
-23.5608508087
21
22.7038570923
31
0.0000000000
11
-23.5194858806
21
22.7052426083
31
0.0000000000
11
-23.4695000407
21
22.7071553056
31
0.0000000000
11
-23.4149730499
21
22.7087225184
31
0.0000000000
11
-23.3582382612
21
22.7096228108
31
0.0000000000
11
-23.3016030857
21
22.7098348613
31
0.0000000000
11
-23.2461466474
21
22.7095143116
31
0.0000000000
11
-23.1928522071
21
22.7087421974
31
0.0000000000
0
SPLINE
5
459
100
AcDbEntity
8
0
100
AcDbSpline
62
9
6
CONTINUOUS
70
0
71
3
72
12
73
8
74
6
42
0.0000001000
43
0.0000001000
44
0.0000000001
12
0.2500010566
22
-0.0078210770
32
0.0000000000
13
0.2499998806
23
-0.0078585791
33
0.0000000000
40
0.0000000000
40
0.0000000000
40
0.0000000000
40
0.0000000000
40
0.3119011811
40
0.5899891110
40
0.8090628924
40
0.9506011199
40
1.0000000000
40
1.0000000000
40
1.0000000000
40
1.0000000000
10
-22.1895724503
20
22.8791833264
30
0.0000000000
10
-22.1635805753
20
22.8783701920
30
0.0000000000
10
-22.1144149596
20
22.8768208689
30
0.0000000000
10
-22.0469930476
20
22.8747026739
30
0.0000000000
10
-21.9937680402
20
22.8730307882
30
0.0000000000
10
-21.9596004445
20
22.8719579610
30
0.0000000000
10
-21.9436890217
20
22.8714579488
30
0.0000000000
10
-21.9395724503
20
22.8713285472
30
0.0000000000
11
-22.1895724503
21
22.8791833264
31
0.0000000000
11
-22.1115971559
21
22.8767333830
31
0.0000000000
11
-22.0420751993
21
22.8745482392
31
0.0000000000
11
-21.9873067381
21
22.8728279687
31
0.0000000000
11
-21.9519221678
21
22.8717166458
31
0.0000000000
11
-21.9395724503
21
22.8713285472
31
0.0000000000
0
SPLINE
5
45A
100
AcDbEntity
8
0
100
AcDbSpline
62
9
6
CONTINUOUS
70
0
71
3
72
12
73
8
74
6
42
0.0000001000
43
0.0000001000
44
0.0000000001
12
0.2499998808
22
-0.0078585743
32
0.0000000000
13
0.2500010566
23
-0.0078210776
33
0.0000000000
40
0.0000000000
40
0.0000000000
40
0.0000000000
40
0.0000000000
40
0.0493988801
40
0.1909371076
40
0.4100108890
40
0.6880988189
40
1.0000000000
40
1.0000000000
40
1.0000000000
40
1.0000000000
10
-23.4395724503
20
22.9044931705
30
0.0000000000
10
-23.4354558789
20
22.9043637689
30
0.0000000000
10
-23.4195444561
20
22.9038637569
30
0.0000000000
10
-23.3853768604
20
22.9027909292
30
0.0000000000
10
-23.3321518530
20
22.9011190448
30
0.0000000000
10
-23.2647299410
20
22.8990008468
30
0.0000000000
10
-23.2155643252
20
22.8974515258
30
0.0000000000
10
-23.1895724503
20
22.8966383913
30
0.0000000000
11
-23.4395724503
21
22.9044931705
31
0.0000000000
11
-23.4272227328
21
22.9041050720
31
0.0000000000
11
-23.3918381625
21
22.9029937489
31
0.0000000000
11
-23.3370697012
21
22.9012734788
31
0.0000000000
11
-23.2675477447
21
22.8990883337
31
0.0000000000
11
-23.1895724503
21
22.8966383913
31
0.0000000000
0
SPLINE
5
45B
100
AcDbEntity
8
0
100
AcDbSpline
62
9
6
CONTINUOUS
70
0
71
3
72
12
73
8
74
6
42
0.0000001000
43
0.0000001000
44
0.0000000001
12
0.2500001758
22
0.0078491835
32
0.0000000000
13
0.2500004855
23
0.0078393121
33
0.0000000000
40
0.0000000000
40
0.0000000000
40
0.0000000000
40
0.0000000000
40
0.0496567421
40
0.1918669049
40
0.4113301764
40
0.6889997508
40
1.0000000000
40
1.0000000000
40
1.0000000000
40
1.0000000000
10
-23.4395724503
20
-22.3549149815
30
0.0000000000
10
-23.4354343855
20
-22.3547850598
30
0.0000000000
10
-23.4194454723
20
-22.3542828455
30
0.0000000000
10
-23.3851679838
20
-22.3532050428
30
0.0000000000
10
-23.3318893768
20
-22.3515318058
30
0.0000000000
10
-23.2645449849
20
-22.3494148634
30
0.0000000000
10
-23.2154891880
20
-22.3478728782
30
0.0000000000
10
-23.1895724503
20
-22.3470602022
30
0.0000000000
11
-23.4395724503
21
-22.3549149815
31
0.0000000000
11
-23.4271582606
21
-22.3545250698
31
0.0000000000
11
-23.3916057324
21
-22.3534076451
31
0.0000000000
11
-23.3367399115
21
-22.3516839035
31
0.0000000000
11
-23.2673225393
21
-22.3495021887
31
0.0000000000
11
-23.1895724503
21
-22.3470602022
31
0.0000000000
0
SPLINE
5
45C
100
AcDbEntity
8
0
100
AcDbSpline
62
9
6
CONTINUOUS
70
0
71
3
72
12
73
8
74
6
42
0.0000001000
43
0.0000001000
44
0.0000000001
12
0.2500004854
22
0.0078393162
32
0.0000000000
13
0.2500001760
23
0.0078491763
33
0.0000000000
40
0.0000000000
40
0.0000000000
40
0.0000000000
40
0.0000000000
40
0.3110002492
40
0.5886698236
40
0.8081330951
40
0.9503432579
40
1.0000000000
40
1.0000000000
40
1.0000000000
40
1.0000000000
10
-22.1895724503
20
-22.3296051373
30
0.0000000000
10
-22.1636557125
20
-22.3287924609
30
0.0000000000
10
-22.1145999157
20
-22.3272504754
30
0.0000000000
10
-22.0472555238
20
-22.3251335339
30
0.0000000000
10
-21.9939769168
20
-22.3234602971
30
0.0000000000
10
-21.9596994283
20
-22.3223824937
30
0.0000000000
10
-21.9437105150
20
-22.3218802796
30
0.0000000000
10
-21.9395724503
20
-22.3217503581
30
0.0000000000
11
-22.1895724503
21
-22.3296051373
31
0.0000000000
11
-22.1118223613
21
-22.3271631504
31
0.0000000000
11
-22.0424049890
21
-22.3249814361
31
0.0000000000
11
-21.9875391682
21
-22.3232576946
31
0.0000000000
11
-21.9519866399
21
-22.3221402696
31
0.0000000000
11
-21.9395724503
21
-22.3217503581
31
0.0000000000
0
ENDSEC
0
SECTION
2
OBJECTS
0
DICTIONARY
5
C
100
AcDbDictionary
280
0
281
1
3
ACAD_GROUP
350
D
3
ACAD_MLINESTYLE
350
17
3
ACAD_LAYOUT
350
1A
3
ACAD_PLOTSETTINGS
350
19
3
ACAD_PLOTSTYLENAME
350
E
0
DICTIONARY
5
D
102
{ACAD_REACTORS
330
C
102
}
100
AcDbDictionary
280
0
281
1
0
ACDBDICTIONARYWDFLT
5
E
102
{ACAD_REACTORS
330
C
102
}
100
AcDbDictionary
281
1
3
Normal
350
F
100
AcDbDictionaryWithDefault
340
F
0
DICTIONARY
5
17
102
{ACAD_REACTORS
330
C
102
}
100
AcDbDictionary
280
0
281
1
3
Standard
350
18
0
DICTIONARY
5
19
102
{ACAD_REACTORS
330
C
102
}
100
AcDbDictionary
281
1
0
DICTIONARY
5
1A
102
{ACAD_REACTORS
330
C
102
}
100
AcDbDictionary
281
1
3
Layout1
350
1E
3
Model
350
22
0
ACDBPLACEHOLDER
5
F
102
{ACAD_REACTORS
330
E
102
}
0
MLINESTYLE
5
18
102
{ACAD_REACTORS
330
17
102
}
100
AcDbMlineStyle
2
STANDARD
70
0
3

62
256
51
90.0
52
90.0
71
2
49
0.5
62
256
6
BYLAYER
49
-0.5
62
256
6
BYLAYER
0
LAYOUT
5
1E
102
{ACAD_REACTORS
330
1A
102
}
100
AcDbPlotSettings
1

2

4

6

40
0.0
41
0.0
42
0.0
43
0.0
44
0.0
45
0.0
46
0.0
47
0.0
48
0.0
49
0.0
140
0.0
141
0.0
142
1.0
143
1.0
70
0
72
0
73
0
74
0
7

75
0
147
1.0
148
0.0
149
0.0
100
AcDbLayout
1
Layout1
70
0
71
0
10
0.0
20
0.0
11
0.0
21
0.0
12
0.0
22
0.0
32
0.0
14
0.0
24
0.0
34
0.0
15
0.0
25
0.0
35
0.0
146
0.0
13
0.0
23
0.0
33
0.0
16
0.0
26
0.0
36
0.0
17
0.0
27
0.0
37
0.0
76
0
330
1B
331
0
345
0
346
0
0
LAYOUT
5
22
102
{ACAD_REACTORS
330
1A
102
}
100
AcDbPlotSettings
1

2

4

6

40
0.0
41
0.0
42
0.0
43
0.0
44
0.0
45
0.0
46
0.0
47
0.0
48
0.0
49
0.0
140
0.0
141
0.0
142
1.0
143
1.0
70
0
72
0
73
0
74
0
7

75
0
147
1.0
148
0.0
149
0.0
100
AcDbLayout
1
Model
70
0
71
0
10
0.0
20
0.0
11
0.0
21
0.0
12
0.0
22
0.0
32
0.0
14
0.0
24
0.0
34
0.0
15
0.0
25
0.0
35
0.0
146
0.0
13
0.0
23
0.0
33
0.0
16
0.0
26
0.0
36
0.0
17
0.0
27
0.0
37
0.0
76
0
330
1F
331
0
345
0
346
0
0
ENDSEC
0
EOF
