  0
SECTION
  2
HEADER
  9
$ACADVER
  1
AC1015
  9
$DWGCODEPAGE
  3
ANSI_1252
  9
$EXTMAX
 10
297.0
 20
210.0
 30
0.0
  9
$EXTMIN
 10
0.0
 20
0.0
 30
0.0
  9
$LIMMIN
 10
0.0
 20
0.0
  9
$LIMMAX
 10
297.0
 20
210.0
  9
$VIEWCTR
 10
148.5
 20
105.0
  9
$VIEWSIZE
 40
210.0
  9
$CLAYER
  8
0
  9
$LTSCALE
 40
16.335
  9
$CELTYPE
  6
BYLAYER
  9
$DIMSCALE
 40
1.0
  9
$DIMASZ
 40
3.0
  9
$DIMEXO
 40
1.85625
  9
$DIMDLI
 40
11.286
  9
$DIMEXE
 40
5.346
  9
$DIMCEN
 40
2.673
  9
$DIMLFAC
 40
1.0
  9
$DIMBLK
  1
_FILLED
  9
$DIMTXT
 40
3.0
  9
$DIMTOL
 70
1
  9
$DIMLIM
 70
0
  9
$DIMTFAC
 40
1.0
  9
$DIMTP
 40
0.01
  9
$DIMTM
 40
0.01
  9
$PDMODE
 70
3
  9
$PDSIZE
 40
3.0
  9
$HANDSEED
  5
49F
  9
$TILEMODE
 70
1
  9
$MEASUREMENT
 70
1
  9
$INSUNITS
 70
4
  0
ENDSEC
  0
SECTION
  2
CLASSES
  0
CLASS
  1
ACDBDICTIONARYWDFLT
  2
AcDbDictionaryWithDefault
  3
AutoCAD 2000
 90
0
280
0
281
0
  0
CLASS
  1
ACDBPLACEHOLDER
  2
AcDbPlaceHolder
  3
AutoCAD 2000
 90
0
280
0
281
0
  0
CLASS
  1
LAYOUT
  2
AcDbLayout
  3
AutoCAD 2000
 90
0
280
0
281
0
  0
ENDSEC
  0
SECTION
  2
TABLES
  0
TABLE
  2
VPORT
  5
8
100
AcDbSymbolTable
 70
2
  0
VPORT
  5
1F4
100
AcDbSymbolTableRecord
100
AcDbViewportTableRecord
  2
*ACTIVE
 70
0
 10
0.0
 20
0.0
 11
1.0
 21
1.0
 12
148.5
 22
105.0
 13
0.0
 23
0.0
 14
1.0
 24
1.0
 15
0.0
 25
0.0
 16
0.0
 26
0.0
 36
1.0
 17
0.0
 27
0.0
 37
0.0
 40
210.0
 41
1.4142857143
 42
50.0
 43
0.0
 44
0.0
 50
0.0
 51
0.0
 71
0
 72
100
 73
1
 74
1
 75
0
 76
0
 77
0
 78
0
  0
ENDTAB
  0
TABLE
  2
LTYPE
  5
5
100
AcDbSymbolTable
 70
6
  0
LTYPE
  5
14
100
AcDbSymbolTableRecord
100
AcDbLinetypeTableRecord
  2
BYBLOCK
 70
0
  3

 72
65
 73
0
 40
0.0
  0
LTYPE
  5
15
100
AcDbSymbolTableRecord
100
AcDbLinetypeTableRecord
  2
BYLAYER
 70
0
  3

 72
65
 73
0
 40
0.0
  0
LTYPE
  5
16
100
AcDbSymbolTableRecord
100
AcDbLinetypeTableRecord
  2
CONTINUOUS
 70
64
  3
Solid line
 72
65
 73
0
 40
0.0
  0
LTYPE
  5
1F5
100
AcDbSymbolTableRecord
100
AcDbLinetypeTableRecord
  2
CENTER
 70
64
  3
____ _ ____ _ ____ _ ____ _ ____ _ ____ _ ____
 72
65
 73
4
 40
0.6
 49
0.375
 74
0
 49
-0.075
 74
0
 49
0.075
 74
0
 49
-0.075
 74
0
  0
LTYPE
  5
1F6
100
AcDbSymbolTableRecord
100
AcDbLinetypeTableRecord
  2
HIDDEN
 70
64
  3
- - - - - - - - - - - - - - - - - - - -
 72
65
 73
2
 40
0.2
 49
0.1
 74
0
 49
-0.1
 74
0
  0
LTYPE
  5
1F7
100
AcDbSymbolTableRecord
100
AcDbLinetypeTableRecord
  2
PHANTOM
 70
64
  3
_____ _ _ _____ _ _ _____ _ _ _____
 72
65
 73
6
 40
0.8
 49
0.45
 74
0
 49
-0.05
 74
0
 49
0.1
 74
0
 49
-0.05
 74
0
 49
0.1
 74
0
 49
-0.05
 74
0
  0
LTYPE
  5
1F8
100
AcDbSymbolTableRecord
100
AcDbLinetypeTableRecord
  2
DOT
 70
64
  3
. . . . . . . . . . . . . . . . . . . .
 72
65
 73
2
 40
0.2
 49
0.1
 74
0
 49
-0.1
 74
0
  0
LTYPE
  5
1F9
100
AcDbSymbolTableRecord
100
AcDbLinetypeTableRecord
  2
DASHED
 70
64
  3
- - - - - - - - - - - - - - - - - - - -
 72
65
 73
2
 40
0.2
 49
0.1
 74
0
 49
-0.1
 74
0
  0
ENDTAB
  0
TABLE
  2
LAYER
  5
2
100
AcDbSymbolTable
 70
36
  0
LAYER
  5
10
100
AcDbSymbolTableRecord
100
AcDbLayerTableRecord
  2
0
 70
0
 62
7
  6
CONTINUOUS
370
-3
390
F
  0
LAYER
  5
1FA
100
AcDbSymbolTableRecord
100
AcDbLayerTableRecord
  2
DEFAULT_1
 70
0
 62
7
  6
CENTER
370
-3
390
F
  0
LAYER
  5
1FB
100
AcDbSymbolTableRecord
100
AcDbLayerTableRecord
  2
DEFAULT_2
 70
0
 62
7
  6
HIDDEN
370
-3
390
F
  0
LAYER
  5
1FC
100
AcDbSymbolTableRecord
100
AcDbLayerTableRecord
  2
DEFAULT_3
 70
0
 62
7
  6
PHANTOM
370
-3
390
F
  0
LAYER
  5
1FD
100
AcDbSymbolTableRecord
100
AcDbLayerTableRecord
  2
ASSI
 70
0
 62
7
  6
CONTINUOUS
370
-3
390
F
  0
LAYER
  5
1FE
100
AcDbSymbolTableRecord
100
AcDbLayerTableRecord
  2
COORDINATE
 70
0
 62
7
  6
CONTINUOUS
370
-3
390
F
  0
LAYER
  5
1FF
100
AcDbSymbolTableRecord
100
AcDbLayerTableRecord
  2
COORD_ORIGINE
 70
0
 62
7
  6
CONTINUOUS
370
-3
390
F
  0
LAYER
  5
200
100
AcDbSymbolTableRecord
100
AcDbLayerTableRecord
  2
COPY_PUBLISH
 70
0
 62
7
  6
CONTINUOUS
370
-3
390
F
  0
LAYER
  5
201
100
AcDbSymbolTableRecord
100
AcDbLayerTableRecord
  2
COSMETIC
 70
0
 62
7
  6
CONTINUOUS
370
-3
390
F
  0
LAYER
  5
202
100
AcDbSymbolTableRecord
100
AcDbLayerTableRecord
  2
COSMETICI
 70
0
 62
7
  6
CONTINUOUS
370
-3
390
F
  0
LAYER
  5
203
100
AcDbSymbolTableRecord
100
AcDbLayerTableRecord
  2
CURVE
 70
0
 62
7
  6
CONTINUOUS
370
-3
390
F
  0
LAYER
  5
204
100
AcDbSymbolTableRecord
100
AcDbLayerTableRecord
  2
DRAFT
 70
0
 62
7
  6
CONTINUOUS
370
-3
390
F
  0
LAYER
  5
205
100
AcDbSymbolTableRecord
100
AcDbLayerTableRecord
  2
IMPORT_IGES
 70
0
 62
7
  6
CONTINUOUS
370
-3
390
F
  0
LAYER
  5
206
100
AcDbSymbolTableRecord
100
AcDbLayerTableRecord
  2
NOTE
 70
0
 62
7
  6
CONTINUOUS
370
-3
390
F
  0
LAYER
  5
207
100
AcDbSymbolTableRecord
100
AcDbLayerTableRecord
  2
PIANI
 70
0
 62
7
  6
CONTINUOUS
370
-3
390
F
  0
LAYER
  5
208
100
AcDbSymbolTableRecord
100
AcDbLayerTableRecord
  2
PIANI_ORIGINE
 70
0
 62
7
  6
CONTINUOUS
370
-3
390
F
  0
LAYER
  5
209
100
AcDbSymbolTableRecord
100
AcDbLayerTableRecord
  2
PIANI_RIFERIMENTO
 70
0
 62
7
  6
CONTINUOUS
370
-3
390
F
  0
LAYER
  5
20A
100
AcDbSymbolTableRecord
100
AcDbLayerTableRecord
  2
PUNTI
 70
0
 62
7
  6
CONTINUOUS
370
-3
390
F
  0
LAYER
  5
20B
100
AcDbSymbolTableRecord
100
AcDbLayerTableRecord
  2
RACCORDO
 70
0
 62
7
  6
CONTINUOUS
370
-3
390
F
  0
LAYER
  5
20C
100
AcDbSymbolTableRecord
100
AcDbLayerTableRecord
  2
SMUSSO
 70
0
 62
7
  6
CONTINUOUS
370
-3
390
F
  0
LAYER
  5
20D
100
AcDbSymbolTableRecord
100
AcDbLayerTableRecord
  2
SNAPLINE
 70
0
 62
7
  6
CONTINUOUS
370
-3
390
F
  0
LAYER
  5
20E
100
AcDbSymbolTableRecord
100
AcDbLayerTableRecord
  2
SUPERFICI
 70
0
 62
7
  6
CONTINUOUS
370
-3
390
F
  0
LAYER
  5
20F
100
AcDbSymbolTableRecord
100
AcDbLayerTableRecord
  2
TRASH
 70
0
 62
7
  6
CONTINUOUS
370
-3
390
F
  0
ENDTAB
  0
TABLE
  2
STYLE
  5
3
100
AcDbSymbolTable
 70
1
  0
STYLE
  5
11
100
AcDbSymbolTableRecord
100
AcDbTextStyleTableRecord
  2
STANDARD
 70
0
 40
0.0
 41
0.8
 50
0.0
 71
0
 42
0.2
  3
txt
  4

  0
STYLE
  5
210
100
AcDbSymbolTableRecord
100
AcDbTextStyleTableRecord
  2
TEXTSTYLE_1
 70
0
 40
0.0
 41
0.8
 50
0.0
 71
0
 42
0.2
  3
gdt
  4

  0
ENDTAB
  0
TABLE
  2
VIEW
  5
6
100
AcDbSymbolTable
 70
0
  0
ENDTAB
  0
TABLE
  2
UCS
  5
7
100
AcDbSymbolTable
 70
0
  0
ENDTAB
  0
TABLE
  2
APPID
  5
9
100
AcDbSymbolTable
 70
1
  0
APPID
  5
211
100
AcDbSymbolTableRecord
100
AcDbRegAppTableRecord
  2
ACAD
 70
0
  0
ENDTAB
  0
TABLE
  2
BLOCK_RECORD
  5
1
100
AcDbSymbolTable
 70
0
  0
BLOCK_RECORD
  5
212
100
AcDbSymbolTableRecord
100
AcDbBlockTableRecord
  2
*Model_Space
  0
BLOCK_RECORD
  5
213
100
AcDbSymbolTableRecord
100
AcDbBlockTableRecord
  2
*Paper_Space
  0
BLOCK_RECORD
  5
214
100
AcDbSymbolTableRecord
100
AcDbBlockTableRecord
  2
_FILLED
  0
BLOCK_RECORD
  5
215
100
AcDbSymbolTableRecord
100
AcDbBlockTableRecord
  2
*D0
  0
BLOCK_RECORD
  5
216
100
AcDbSymbolTableRecord
100
AcDbBlockTableRecord
  2
*D1
  0
BLOCK_RECORD
  5
217
100
AcDbSymbolTableRecord
100
AcDbBlockTableRecord
  2
*D2
  0
BLOCK_RECORD
  5
218
100
AcDbSymbolTableRecord
100
AcDbBlockTableRecord
  2
*D3
  0
ENDTAB
  0
TABLE
  2
DIMSTYLE
  5
A
100
AcDbSymbolTable
 70
1
100
AcDbDimStyleTable
 71
0
  0
DIMSTYLE
105
219
100
AcDbSymbolTableRecord
100
AcDbDimStyleTableRecord
  2
STANDARD
 70
0
  3

  4

 40
1.0
 41
3.0
 42
0.0625
 43
0.38
 44
0.18
 45
0.0
 46
0.0
 47
0.01
 48
0.01
140
3.0
141
0.09
142
0.0
143
25.4
144
1.0
145
0.0
146
1.0
147
0.09
 71
1.0
 72
0.0
 73
0
 74
0
 75
0
 76
0
 77
1
 78
8
170
0
171
2
172
0
173
0
174
0
175
0
176
0
177
0
178
0
270
2
271
2
272
2
273
2
274
2
275
0
280
0
281
0
282
0
283
1
284
8
285
0
286
0
287
3
288
0
340
11
341
214
342
214
343
214
344
214
  0
DIMSTYLE
105
21A
100
AcDbSymbolTableRecord
100
AcDbDimStyleTableRecord
  2
DIMSTYLE_1
 70
0
  3

  4

 40
1.0
 41
3.0
 42
0.0625
 43
0.38
 44
0.18
 45
0.0
 46
0.0
 47
0.0
 48
0.0
140
3.0
141
0.09
142
0.0
143
25.4
144
1.0
145
0.0
146
1.0
147
0.09
 71
0.0
 72
0.0
 73
0
 74
0
 75
0
 76
0
 77
1
 78
8
170
0
171
2
172
0
173
0
174
0
175
0
176
0
177
0
178
0
270
2
271
2
272
2
273
2
274
2
275
0
280
0
281
0
282
0
283
1
284
8
285
0
286
0
287
3
288
0
340
11
341
214
342
214
343
214
344
214
  0
DIMSTYLE
105
21B
100
AcDbSymbolTableRecord
100
AcDbDimStyleTableRecord
  2
DIMSTYLE_2
 70
0
  3

  4

 40
1.0
 41
3.0
 42
0.0625
 43
0.38
 44
0.18
 45
0.0
 46
0.0
 47
0.0
 48
0.0
140
3.0
141
0.09
142
0.0
143
25.4
144
1.0
145
0.0
146
1.0
147
0.09
 71
0.0
 72
0.0
 73
0
 74
0
 75
0
 76
0
 77
1
 78
8
170
0
171
2
172
0
173
0
174
0
175
0
176
0
177
0
178
0
270
2
271
1
272
1
273
2
274
2
275
0
280
0
281
0
282
0
283
1
284
8
285
0
286
0
287
3
288
0
340
11
341
214
342
214
343
214
344
214
  0
ENDTAB
  0
ENDSEC
  0
SECTION
  2
BLOCKS
  0
BLOCK
  5
20
100
AcDbEntity
  8
0
100
AcDbBlockBegin
  2
*Model_Space
 70
0
 10
0.0
 20
0.0
 30
0.0
  3
*Model_Space
  1

  0
ENDBLK
  5
21
100
AcDbEntity
  8
0
100
AcDbBlockEnd
  0
BLOCK
  5
1C
100
AcDbEntity
  8
0
100
AcDbBlockBegin
  2
*Paper_Space
 70
0
 10
0.0
 20
0.0
 30
0.0
  3
*Paper_Space
  1

  0
ENDBLK
  5
1D
100
AcDbEntity
  8
0
100
AcDbBlockEnd
  0
BLOCK
  5
21C
100
AcDbEntity
  8
0
100
AcDbBlockBegin
  2
_FILLED
 70
64
 10
0.0
 20
0.0
  3
_FILLED
  1

  0
SOLID
  5
21D
100
AcDbEntity
  8
0
  6
BYBLOCK
 62
0
100
AcDbTrace
 10
0.0
 20
0.0
 11
-1.0
 21
0.3166666667
 12
-1.0
 22
-0.3166666667
 13
-1.0
 23
-0.3166666667
  0
ENDBLK
  5
21E
100
AcDbEntity
  8
0
  6
BYBLOCK
 62
0
100
AcDbBlockEnd
  0
BLOCK
  5
21F
100
AcDbEntity
  8
0
100
AcDbBlockBegin
 62
7
  6
CONTINUOUS
  2
*D0
 70
65
 10
0.0
 20
0.0
  3
*D0
  1

  0
MTEXT
  5
220
100
AcDbEntity
  8
0
100
AcDbMText
 62
7
  6
CONTINUOUS
  7
STANDARD
 71
2
 72
1
 10
0.0
 20
36.25
 30
0.0
 11
1.0
 21
0.0
 31
0.0
 44
0.9
  1
44,55
 40
3.0
 41
10.7142857143
  0
LINE
  5
221
100
AcDbEntity
  8
0
100
AcDbLine
 62
7
  6
CONTINUOUS
 10
-22.275
 20
21.7271292162
 11
-22.275
 21
34.0
  0
LINE
  5
222
100
AcDbEntity
  8
0
100
AcDbLine
 62
7
  6
CONTINUOUS
 10
22.275
 20
22.3823164546
 11
22.275
 21
34.0
  0
LINE
  5
223
100
AcDbEntity
  8
0
100
AcDbLine
 62
7
  6
CONTINUOUS
 10
-22.275
 20
32.5
 11
0.0
 21
32.5
  0
LINE
  5
224
100
AcDbEntity
  8
0
100
AcDbLine
 62
7
  6
CONTINUOUS
 10
22.275
 20
32.5
 11
0.0
 21
32.5
  0
INSERT
  5
225
100
AcDbEntity
  8
0
100
AcDbBlockReference
 62
7
  6
CONTINUOUS
  2
_FILLED
 10
-22.275
 20
32.5
 41
3.0
 42
3.0
 43
3.0
 50
180.0
  0
INSERT
  5
226
100
AcDbEntity
  8
0
100
AcDbBlockReference
 62
7
  6
CONTINUOUS
  2
_FILLED
 10
22.275
 20
32.5
 41
3.0
 42
3.0
 43
3.0
  0
ENDBLK
  5
227
100
AcDbEntity
  8
0
  6
BYBLOCK
 62
0
100
AcDbBlockEnd
  0
BLOCK
  5
228
100
AcDbEntity
  8
0
100
AcDbBlockBegin
 62
7
  6
CONTINUOUS
  2
*D1
 70
65
 10
0.0
 20
0.0
  3
*D1
  1

  0
MTEXT
  5
229
100
AcDbEntity
  8
0
100
AcDbMText
 62
7
  6
CONTINUOUS
  7
STANDARD
 71
2
 72
1
 10
26.525
 20
0.0
 30
0.0
 11
0.0
 21
1.0
 31
0.0
 44
0.9
  1
49
 40
3.0
 41
4.7142857143
  0
LINE
  5
22A
100
AcDbEntity
  8
0
100
AcDbLine
 62
7
  6
CONTINUOUS
 10
22.025
 20
24.5
 11
31.775
 21
24.5
  0
LINE
  5
22B
100
AcDbEntity
  8
0
100
AcDbLine
 62
7
  6
CONTINUOUS
 10
22.025
 20
-24.5
 11
31.775
 21
-24.5
  0
LINE
  5
22C
100
AcDbEntity
  8
0
100
AcDbLine
 62
7
  6
CONTINUOUS
 10
30.275
 20
24.5
 11
30.275
 21
0.0
  0
LINE
  5
22D
100
AcDbEntity
  8
0
100
AcDbLine
 62
7
  6
CONTINUOUS
 10
30.275
 20
-24.5
 11
30.275
 21
0.0
  0
INSERT
  5
22E
100
AcDbEntity
  8
0
100
AcDbBlockReference
 62
7
  6
CONTINUOUS
  2
_FILLED
 10
30.275
 20
24.5
 41
3.0
 42
3.0
 43
3.0
 50
90.0
  0
INSERT
  5
22F
100
AcDbEntity
  8
0
100
AcDbBlockReference
 62
7
  6
CONTINUOUS
  2
_FILLED
 10
30.275
 20
-24.5
 41
3.0
 42
3.0
 43
3.0
 50
270.0
  0
ENDBLK
  5
230
100
AcDbEntity
  8
0
  6
BYBLOCK
 62
0
100
AcDbBlockEnd
  0
BLOCK
  5
231
100
AcDbEntity
  8
0
100
AcDbBlockBegin
 62
7
  6
CONTINUOUS
  2
*D2
 70
65
 10
0.0
 20
0.0
  3
*D2
  1

  0
MTEXT
  5
232
100
AcDbEntity
  8
0
100
AcDbMText
 62
7
  6
CONTINUOUS
  7
STANDARD
 71
2
 72
1
 10
-34.3957876539
 20
36.25
 30
0.0
 11
1.0
 21
0.0
 31
0.0
 44
0.9
  1
10
 40
3.0
 41
4.0714285714
  0
LINE
  5
233
100
AcDbEntity
  8
0
100
AcDbLine
 62
7
  6
CONTINUOUS
 10
-29.3957876539
 20
21.4
 11
-29.3957876539
 21
34.0
  0
LINE
  5
234
100
AcDbEntity
  8
0
100
AcDbLine
 62
7
  6
CONTINUOUS
 10
-39.3957876539
 20
22.3823164546
 11
-39.3957876539
 21
34.0
  0
LINE
  5
235
100
AcDbEntity
  8
0
100
AcDbLine
 62
7
  6
CONTINUOUS
 10
-29.3957876539
 20
32.5
 11
-25.3957876539
 21
32.5
  0
LINE
  5
236
100
AcDbEntity
  8
0
100
AcDbLine
 62
7
  6
CONTINUOUS
 10
-25.3957876539
 20
32.5
 11
-34.3957876539
 21
32.5
  0
LINE
  5
237
100
AcDbEntity
  8
0
100
AcDbLine
 62
7
  6
CONTINUOUS
 10
-39.3957876539
 20
32.5
 11
-43.3957876539
 21
32.5
  0
LINE
  5
238
100
AcDbEntity
  8
0
100
AcDbLine
 62
7
  6
CONTINUOUS
 10
-43.3957876539
 20
32.5
 11
-34.3957876539
 21
32.5
  0
INSERT
  5
239
100
AcDbEntity
  8
0
100
AcDbBlockReference
 62
7
  6
CONTINUOUS
  2
_FILLED
 10
-29.3957876539
 20
32.5
 41
3.0
 42
3.0
 43
3.0
 50
180.0
  0
INSERT
  5
23A
100
AcDbEntity
  8
0
100
AcDbBlockReference
 62
7
  6
CONTINUOUS
  2
_FILLED
 10
-39.3957876539
 20
32.5
 41
3.0
 42
3.0
 43
3.0
  0
ENDBLK
  5
23B
100
AcDbEntity
  8
0
  6
BYBLOCK
 62
0
100
AcDbBlockEnd
  0
BLOCK
  5
23C
100
AcDbEntity
  8
0
100
AcDbBlockBegin
 62
7
  6
CONTINUOUS
  2
*D3
 70
65
 10
0.0
 20
0.0
  3
*D3
  1

  0
MTEXT
  5
23D
100
AcDbEntity
  8
0
100
AcDbMText
 62
7
  6
CONTINUOUS
  7
STANDARD
 71
2
 72
1
 10
-41.4041524156
 20
46.25
 30
0.0
 11
1.0
 21
0.0
 31
0.0
 44
0.9
  1
24
 40
3.0
 41
4.7142857143
  0
LINE
  5
23E
100
AcDbEntity
  8
0
100
AcDbLine
 62
7
  6
CONTINUOUS
 10
-29.3957876539
 20
21.4
 11
-29.3957876539
 21
44.0
  0
LINE
  5
23F
100
AcDbEntity
  8
0
100
AcDbLine
 62
7
  6
CONTINUOUS
 10
-53.4125171773
 20
20.4322517045
 11
-53.4125171773
 21
44.0
  0
LINE
  5
240
100
AcDbEntity
  8
0
100
AcDbLine
 62
7
  6
CONTINUOUS
 10
-29.3957876539
 20
42.5
 11
-41.4041524156
 21
42.5
  0
LINE
  5
241
100
AcDbEntity
  8
0
100
AcDbLine
 62
7
  6
CONTINUOUS
 10
-53.4125171773
 20
42.5
 11
-41.4041524156
 21
42.5
  0
INSERT
  5
242
100
AcDbEntity
  8
0
100
AcDbBlockReference
 62
7
  6
CONTINUOUS
  2
_FILLED
 10
-29.3957876539
 20
42.5
 41
3.0
 42
3.0
 43
3.0
  0
INSERT
  5
243
100
AcDbEntity
  8
0
100
AcDbBlockReference
 62
7
  6
CONTINUOUS
  2
_FILLED
 10
-53.4125171773
 20
42.5
 41
3.0
 42
3.0
 43
3.0
 50
180.0
  0
ENDBLK
  5
244
100
AcDbEntity
  8
0
  6
BYBLOCK
 62
0
100
AcDbBlockEnd
  0
ENDSEC
  0
SECTION
  2
ENTITIES
  0
DIMENSION
  5
245
100
AcDbEntity
  8
0
100
AcDbDimension
 62
7
  6
CONTINUOUS
  2
*D0
 10
22.275
 20
32.5
 11
-5.3571428571
 21
34.75
 70
160
 71
2
 42
44.55
  3
DIMSTYLE_1
100
AcDbAlignedDimension
 13
-22.275
 23
21.7271292162
 14
22.275
 24
22.3823164546
100
AcDbRotatedDimension
  0
DIMENSION
  5
246
100
AcDbEntity
  8
0
100
AcDbDimension
 62
7
  6
CONTINUOUS
  2
*D1
 10
30.275
 20
-24.5
 11
29.0811735237
 21
-2.1072778499
 70
160
 71
2
 42
49.0
  3
DIMSTYLE_1
100
AcDbAlignedDimension
 13
22.025
 23
24.5
 14
22.025
 24
-24.5
 50
270.0
100
AcDbRotatedDimension
  0
DIMENSION
  5
247
100
AcDbEntity
  8
0
100
AcDbDimension
 62
7
  6
CONTINUOUS
  2
*D2
 10
-39.3957876539
 20
32.5
 11
-36.4315019396
 21
34.75
 70
160
 71
2
 42
10.0
  3
DIMSTYLE_1
100
AcDbAlignedDimension
 13
-29.3957876539
 23
21.4
 14
-39.3957876539
 24
22.3823164546
 50
180.0
100
AcDbRotatedDimension
  0
DIMENSION
  5
248
100
AcDbEntity
  8
0
100
AcDbDimension
 62
7
  6
CONTINUOUS
  2
*D3
 10
-53.4125171773
 20
42.5
 11
-43.7612952727
 21
44.75
 70
160
 71
2
 42
24.0167295235
  3
DIMSTYLE_2
100
AcDbAlignedDimension
 13
-29.3957876539
 23
21.4
 14
-53.4125171773
 24
20.4322517045
 50
180.0
100
AcDbRotatedDimension
  0
LWPOLYLINE
  5
249
100
AcDbEntity
  8
RACCORDO
100
AcDbPolyline
 62
7
  6
CONTINUOUS
 90
30
 70
0
 10
-22.1473109491
 20
-21.3205324861
 10
-22.1393028666
 20
-21.3482577648
 10
-22.1301211691
 20
-21.3762228234
 10
-22.1196008483
 20
-21.4046623372
 10
-22.1077640559
 20
-21.4332631949
 10
-22.0945864713
 20
-21.4618989916
 10
-22.0799932968
 20
-21.4905592145
 10
-22.0639757993
 20
-21.5190994934
 10
-22.0465049417
 20
-21.5474298301
 10
-22.0275442794
 20
-21.5754748262
 10
-22.0070939453
 20
-21.6031097834
 10
-21.9851421782
 20
-21.6302371579
 10
-21.9616717387
 20
-21.6567693394
 10
-21.9366890607
 20
-21.6825951036
 10
-21.9101952945
 20
-21.7076145945
 10
-21.8821971785
 20
-21.7317257594
 10
-21.8527223579
 20
-21.754813286
 10
-21.8217924595
 20
-21.7767725193
 10
-21.7894366499
 20
-21.7974969584
 10
-21.7557075981
 20
-21.8168703458
 10
-21.7206514824
 20
-21.83478667
 10
-21.6843205082
 20
-21.8511409086
 10
-21.6467904428
 20
-21.8658227521
 10
-21.6081312286
 20
-21.8787306266
 10
-21.5684210799
 20
-21.8897647335
 10
-21.527762001
 20
-21.8988246679
 10
-21.4862491373
 20
-21.9058185938
 10
-21.4439858775
 20
-21.9106584425
 10
-21.4010997036
 20
-21.9132600618
 10
-21.3741044774
 20
-21.9137155238
  0
LWPOLYLINE
  5
24A
100
AcDbEntity
  8
ASSI
100
AcDbPolyline
 62
7
  6
CONTINUOUS
 90
28
 70
0
 10
-22.1510938976
 20
-21.3059684126
 10
-22.1454778766
 20
-21.327216598
 10
-22.1365562807
 20
-21.3569918267
 10
-22.1261696207
 20
-21.387295758
 10
-22.1141769327
 20
-21.4181561914
 10
-22.1005152363
 20
-21.4493800403
 10
-22.0853675816
 20
-21.4803314741
 10
-22.0688136467
 20
-21.5107629105
 10
-22.0507558641
 20
-21.540774929
 10
-22.0311921784
 20
-21.5702738373
 10
-22.0101403694
 20
-21.5991471992
 10
-21.9875824472
 20
-21.627338534
 10
-21.9634627664
 20
-21.6548263134
 10
-21.937766243
 20
-21.6815284336
 10
-21.9105167514
 20
-21.707324421
 10
-21.8817151936
 20
-21.7321215152
 10
-21.8513811796
 20
-21.7558119314
 10
-21.8195421419
 20
-21.778285733
 10
-21.7862185641
 20
-21.7994405459
 10
-21.7514526772
 20
-21.8191620421
 10
-21.7152934345
 20
-21.8373364361
 10
-21.6777812704
 20
-21.8538568861
 10
-21.6389826077
 20
-21.868606993
 10
-21.5989729795
 20
-21.8814716438
 10
-21.5578183373
 20
-21.8923420735
 10
-21.5156130828
 20
-21.901104397
 10
-21.4724621057
 20
-21.9076478981
 10
-21.4284610367
 20
-21.9118672793
  0
LINE
  5
24B
100
AcDbEntity
  8
RACCORDO
100
AcDbLine
 62
7
  6
CONTINUOUS
 10
-22.1508866713
 20
-21.3067958655
 11
-22.1473109491
 21
-21.3205324861
  0
LINE
  5
24C
100
AcDbEntity
  8
ASSI
100
AcDbLine
 62
7
  6
CONTINUOUS
 10
-22.1510349747
 20
-21.3062203365
 11
-22.2512521081
 21
-20.9056570183
  0
LINE
  5
24D
100
AcDbEntity
  8
RACCORDO
100
AcDbLine
 62
7
  6
CONTINUOUS
 10
-22.1508905204
 20
-21.3067967994
 11
-22.251251659
 21
-20.9056588132
  0
LINE
  5
24E
100
AcDbEntity
  8
ASSI
100
AcDbLine
 62
253
  6
CONTINUOUS
 10
-22.1748339282
 20
-21.1132695615
 11
-22.275
 21
-20.7129103339
  0
LINE
  5
24F
100
AcDbEntity
  8
RACCORDO
100
AcDbLine
 62
253
  6
CONTINUOUS
 10
-22.1748339282
 20
-21.1132695615
 11
-22.275
 21
-20.7129103339
  0
LINE
  5
250
100
AcDbEntity
  8
RACCORDO
100
AcDbLine
 62
7
  6
CONTINUOUS
 10
21.525
 20
-24.5
 11
19.625
 21
-24.5
  0
LINE
  5
251
100
AcDbEntity
  8
RACCORDO
100
AcDbLine
 62
7
  6
CONTINUOUS
 10
2.625
 20
-24.5
 11
0.725
 21
-24.5
  0
LINE
  5
252
100
AcDbEntity
  8
RACCORDO
100
AcDbLine
 62
253
  6
CONTINUOUS
 10
0.475
 20
-24.25
 11
2.875
 21
-24.25
  0
LINE
  5
253
100
AcDbEntity
  8
RACCORDO
100
AcDbLine
 62
253
  6
CONTINUOUS
 10
19.375
 20
-24.25
 11
21.775
 21
-24.25
  0
LINE
  5
254
100
AcDbEntity
  8
ASSI
100
AcDbLine
 62
7
  6
CONTINUOUS
 10
-22.275
 20
21.2271292162
 11
-22.275
 21
-20.7129103339
  0
LINE
  5
255
100
AcDbEntity
  8
RACCORDO
100
AcDbLine
 62
7
  6
CONTINUOUS
 10
-22.275
 20
21.2271292162
 11
-22.275
 21
-20.7129103339
  0
LWPOLYLINE
  5
256
100
AcDbEntity
  8
ASSI
100
AcDbPolyline
 62
7
  6
CONTINUOUS
 90
28
 70
0
 10
21.134259845
 20
-21.9136510826
 10
21.1792429341
 20
-21.911813661
 10
21.2234816421
 20
-21.9075209643
 10
21.2668555089
 20
-21.9008801652
 10
21.3092684367
 20
-21.8919986079
 10
21.3506141083
 20
-21.8809892192
 10
21.3907969585
 20
-21.8679681261
 10
21.4297512284
 20
-21.853045828
 10
21.4674006283
 20
-21.8363394844
 10
21.5036781196
 20
-21.8179675563
 10
21.538543814
 20
-21.798038263
 10
21.5719484328
 20
-21.7766672255
 10
21.6038496075
 20
-21.7539705572
 10
21.6342277178
 20
-21.7300515678
 10
21.6630553471
 20
-21.7050217421
 10
21.6903130225
 20
-21.6789903557
 10
21.7160008294
 20
-21.652050663
 10
21.7400910725
 20
-21.6243294438
 10
21.7626036509
 20
-21.5959053051
 10
21.7836059019
 20
-21.5667836002
 10
21.8031220543
 20
-21.537006945
 10
21.8211230989
 20
-21.5067001556
 10
21.8375973747
 20
-21.4759802503
 10
21.852646925
 20
-21.4447379154
 10
21.8661891904
 20
-21.4132318096
 10
21.8780271471
 20
-21.3821541563
 10
21.8882314061
 20
-21.3517062719
 10
21.8969530205
 20
-21.3218551821
  0
LWPOLYLINE
  5
257
100
AcDbEntity
  8
RACCORDO
100
AcDbPolyline
 62
7
  6
CONTINUOUS
 90
30
 70
0
 10
21.1241044764
 20
-21.9137155242
 10
21.1515775044
 20
-21.9132437919
 10
21.1944995197
 20
-21.9106132498
 10
21.2367399411
 20
-21.9057489726
 10
21.2781928423
 20
-21.8987402489
 10
21.3187562963
 20
-21.8896807473
 10
21.3583371527
 20
-21.8786676221
 10
21.3968553368
 20
-21.8657992289
 10
21.4342344193
 20
-21.8511771063
 10
21.4704063838
 20
-21.8349043721
 10
21.5053156876
 20
-21.8170828166
 10
21.5389107461
 20
-21.797815994
 10
21.5711458695
 20
-21.7772084498
 10
21.6019853358
 20
-21.7553626143
 10
21.6313984249
 20
-21.7323812711
 10
21.6593616468
 20
-21.7083656459
 10
21.6858599536
 20
-21.6834133747
 10
21.7108822038
 20
-21.6576218069
 10
21.7344227668
 20
-21.6310864069
 10
21.7564833039
 20
-21.6038979426
 10
21.7770766733
 20
-21.5761352164
 10
21.7962041125
 20
-21.5478953549
 10
21.813861346
 20
-21.5192939539
 10
21.83008933
 20
-21.4903795539
 10
21.8448942571
 20
-21.4612626064
 10
21.8582473576
 20
-21.4321539609
 10
21.8702123613
 20
-21.4030954935
 10
21.8808277083
 20
-21.3741876425
 10
21.8900788497
 20
-21.3457256833
 10
21.8977267722
 20
-21.3188826961
  0
LINE
  5
258
100
AcDbEntity
  8
ASSI
100
AcDbLine
 62
7
  6
CONTINUOUS
 10
21.1241044225
 20
-21.9137155242
 11
21.134259845
 21
-21.9136510826
  0
LINE
  5
259
100
AcDbEntity
  8
RACCORDO
100
AcDbLine
 62
253
  6
CONTINUOUS
 10
0.475
 20
-23.8443375673
 11
2.875
 21
-23.8443375673
  0
LINE
  5
25A
100
AcDbEntity
  8
RACCORDO
100
AcDbLine
 62
253
  6
CONTINUOUS
 10
19.375
 20
-23.8443375673
 11
21.775
 21
-23.8443375673
  0
LINE
  5
25B
100
AcDbEntity
  8
RACCORDO
100
AcDbLine
 62
7
  6
CONTINUOUS
 10
6.7221335533
 20
-23.8
 11
15.5278664467
 21
-23.8
  0
LINE
  5
25C
100
AcDbEntity
  8
RACCORDO
100
AcDbLine
 62
253
  6
CONTINUOUS
 10
0.725
 20
-23.6278312164
 11
2.625
 21
-23.6278312164
  0
LINE
  5
25D
100
AcDbEntity
  8
RACCORDO
100
AcDbLine
 62
253
  6
CONTINUOUS
 10
19.625
 20
-23.6278312164
 11
21.525
 21
-23.6278312164
  0
LINE
  5
25E
100
AcDbEntity
  8
RACCORDO
100
AcDbLine
 62
253
  6
CONTINUOUS
 10
21.525
 20
-23.1948185145
 11
19.625
 21
-23.1948185145
  0
LINE
  5
25F
100
AcDbEntity
  8
RACCORDO
100
AcDbLine
 62
253
  6
CONTINUOUS
 10
2.625
 20
-23.1948185145
 11
0.725
 21
-23.1948185145
  0
LINE
  5
260
100
AcDbEntity
  8
RACCORDO
100
AcDbLine
 62
253
  6
CONTINUOUS
 10
0.475
 20
-22.9783121635
 11
2.875
 21
-22.9783121635
  0
LINE
  5
261
100
AcDbEntity
  8
RACCORDO
100
AcDbLine
 62
253
  6
CONTINUOUS
 10
19.375
 20
-22.9783121635
 11
21.775
 21
-22.9783121635
  0
LINE
  5
262
100
AcDbEntity
  8
RACCORDO
100
AcDbLine
 62
253
  6
CONTINUOUS
 10
2.625
 20
-22.629704076
 11
0.725
 21
-22.629704076
  0
LINE
  5
263
100
AcDbEntity
  8
RACCORDO
100
AcDbLine
 62
253
  6
CONTINUOUS
 10
19.625
 20
-22.629704076
 11
21.525
 21
-22.629704076
  0
LINE
  5
264
100
AcDbEntity
  8
RACCORDO
100
AcDbLine
 62
7
  6
CONTINUOUS
 10
0.5275936753
 20
-22.4349101299
 11
21.7224063247
 21
-22.4349101299
  0
LINE
  5
265
100
AcDbEntity
  8
ASSI
100
AcDbLine
 62
7
  6
CONTINUOUS
 10
21.1241084965
 20
-21.9137578643
 11
-21.3741084965
 21
-21.9137578643
  0
LINE
  5
266
100
AcDbEntity
  8
RACCORDO
100
AcDbLine
 62
7
  6
CONTINUOUS
 10
21.1241135068
 20
-21.9137578643
 11
-21.3741135068
 21
-21.9137578643
  0
LINE
  5
267
100
AcDbEntity
  8
DRAFT
100
AcDbLine
 62
7
  6
CONTINUOUS
 10
22.2226348052
 20
-21.9048099646
 11
21.242293678
 21
-21.9048099646
  0
LINE
  5
268
100
AcDbEntity
  8
DRAFT
100
AcDbLine
 62
7
  6
CONTINUOUS
 10
22.2339805974
 20
-21.825
 11
21.4898073128
 21
-21.825
  0
LWPOLYLINE
  5
269
100
AcDbEntity
  8
ASSI
100
AcDbPolyline
 62
7
  6
CONTINUOUS
 90
3
 70
0
 10
-21.4284610367
 20
-21.9118672793
 10
-21.3837288137
 20
-21.9136576456
 10
-21.374104425
 20
-21.9137155238
  0
LWPOLYLINE
  5
26A
100
AcDbEntity
  8
RACCORDO
100
AcDbPolyline
 62
7
  6
CONTINUOUS
 90
12
 70
0
 10
0.3115577368
 20
22.4212275712
 10
0.2908406622
 20
22.4114413
 10
0.270802347
 20
22.400833448
 10
0.2514633244
 20
22.3894512397
 10
0.2328456881
 20
22.377344001
 10
0.214970089
 20
22.3645621153
 10
0.1978506378
 20
22.3511531903
 10
0.1815014522
 20
22.3371664166
 10
0.16593304
 20
22.322649874
 10
0.1511502985
 20
22.3076478708
 10
0.1371590379
 20
22.2922068634
 10
0.1239624619
 20
22.2763723293
  0
LWPOLYLINE
  5
26B
100
AcDbEntity
  8
RACCORDO
100
AcDbPolyline
 62
7
  6
CONTINUOUS
 90
3
 70
0
 10
0.3496220702
 20
22.4364616314
 10
0.3329236089
 20
22.4301417697
 10
0.3115577368
 20
22.4212275712
  0
LINE
  5
26C
100
AcDbEntity
  8
ASSI
100
AcDbLine
 62
253
  6
CONTINUOUS
 10
21.112978618
 20
-20.6455621847
 11
-21.362978618
 21
-20.6455621847
  0
LINE
  5
26D
100
AcDbEntity
  8
RACCORDO
100
AcDbLine
 62
253
  6
CONTINUOUS
 10
21.112978618
 20
-20.6455621847
 11
-21.362978618
 21
-20.6455621847
  0
LINE
  5
26E
100
AcDbEntity
  8
DRAFT
100
AcDbLine
 62
7
  6
CONTINUOUS
 10
22.2339805974
 20
-19.9536487485
 11
22.025
 21
-19.9536487485
  0
LWPOLYLINE
  5
26F
100
AcDbEntity
  8
RACCORDO
100
AcDbPolyline
 62
7
  6
CONTINUOUS
 90
5
 70
0
 10
0.3448825516
 20
-22.4346387023
 10
0.3552545597
 20
-22.4388132837
 10
0.3658690267
 20
-22.4438178561
 10
0.3766376935
 20
-22.4497157707
 10
0.387469121
 20
-22.4565693461
  0
LWPOLYLINE
  5
270
100
AcDbEntity
  8
RACCORDO
100
AcDbPolyline
 62
7
  6
CONTINUOUS
 90
3
 70
0
 10
0.2937356438
 20
-22.4128785313
 10
0.3387368539
 20
-22.4323690199
 10
0.3438669704
 20
-22.4342661985
  0
LWPOLYLINE
  5
271
100
AcDbEntity
  8
RACCORDO
100
AcDbPolyline
 62
7
  6
CONTINUOUS
 90
5
 70
0
 10
0.3958078026
 20
22.4625486983
 10
0.3844277761
 20
22.4545454407
 10
0.3729234529
 20
22.447583299
 10
0.3612370249
 20
22.4415393029
 10
0.3496220702
 20
22.4364616314
  0
LINE
  5
272
100
AcDbEntity
  8
RACCORDO
100
AcDbLine
 62
7
  6
CONTINUOUS
 10
0.387469121
 20
-22.4565693461
 11
0.39798043
 21
-22.4642164863
  0
LINE
  5
273
100
AcDbEntity
  8
ASSI
100
AcDbLine
 62
253
  6
CONTINUOUS
 10
-22.275
 20
21.2271292162
 11
-22.1748339282
 21
20.6272001693
  0
LINE
  5
274
100
AcDbEntity
  8
RACCORDO
100
AcDbLine
 62
253
  6
CONTINUOUS
 10
-22.275
 20
21.2271292162
 11
-22.1748339282
 21
20.6272001693
  0
LINE
  5
275
100
AcDbEntity
  8
ASSI
100
AcDbLine
 62
253
  6
CONTINUOUS
 10
-21.4751218439
 20
22.0239635944
 11
-21.374955772
 21
21.4240345475
  0
LINE
  5
276
100
AcDbEntity
  8
RACCORDO
100
AcDbLine
 62
253
  6
CONTINUOUS
 10
-21.4751218439
 20
22.0239635944
 11
-21.374955772
 21
21.4240345475
  0
LWPOLYLINE
  5
277
100
AcDbEntity
  8
RACCORDO
100
AcDbPolyline
 62
7
  6
CONTINUOUS
 90
13
 70
0
 10
0.39798043
 20
-22.4642164863
 10
0.4080249154
 20
-22.4725799811
 10
0.4176246409
 20
-22.4817093938
 10
0.4266918726
 20
-22.4915648285
 10
0.4351464468
 20
-22.5020970219
 10
0.4429477705
 20
-22.5132966939
 10
0.4500634318
 20
-22.5251787212
 10
0.4564258399
 20
-22.5377123017
 10
0.461962727
 20
-22.5508495303
 10
0.4666182504
 20
-22.5645794045
 10
0.4703181633
 20
-22.5788459881
 10
0.4729908966
 20
-22.5935852782
 10
0.4745709452
 20
-22.6087662238
  0
LWPOLYLINE
  5
278
100
AcDbEntity
  8
RACCORDO
100
AcDbPolyline
 62
7
  6
CONTINUOUS
 90
4
 70
0
 10
0.1734433116
 20
-22.3298055514
 10
0.2107070521
 20
-22.3613328444
 10
0.2509268994
 20
-22.3891175297
 10
0.2937356438
 20
-22.4128785313
  0
LINE
  5
279
100
AcDbEntity
  8
RACCORDO
100
AcDbLine
 62
7
  6
CONTINUOUS
 10
0.1394842293
 20
-22.2948618356
 11
0.1734433116
 21
-22.3298055514
  0
LINE
  5
27A
100
AcDbEntity
  8
CURVE
100
AcDbLine
 62
253
  6
CONTINUOUS
 10
-15.0714285374
 20
-12.3719222603
 11
-15.0714285374
 21
-14.5457170456
  0
LINE
  5
27B
100
AcDbEntity
  8
CURVE
100
AcDbLine
 62
253
  6
CONTINUOUS
 10
-14.0857142419
 20
-13.8393870738
 11
-14.0857142419
 21
-12.5350054734
  0
LINE
  5
27C
100
AcDbEntity
  8
CURVE
100
AcDbLine
 62
253
  6
CONTINUOUS
 10
-13.4285713553
 20
-12.3719222603
 11
-13.4285713553
 21
-14.0023993449
  0
LINE
  5
27D
100
AcDbEntity
  8
RACCORDO
100
AcDbLine
 62
7
  6
CONTINUOUS
 10
0.1088683103
 20
22.2565193798
 11
0.1128488888
 21
22.2619320384
  0
LINE
  5
27E
100
AcDbEntity
  8
RACCORDO
100
AcDbLine
 62
7
  6
CONTINUOUS
 10
0.0944992262
 20
22.2371695243
 11
0.1088683103
 21
22.2565193798
  0
LINE
  5
27F
100
AcDbEntity
  8
RACCORDO
100
AcDbLine
 62
7
  6
CONTINUOUS
 10
0.1239624619
 20
22.2763723293
 11
0.1128480364
 21
22.2619326745
  0
LINE
  5
280
100
AcDbEntity
  8
CURVE
100
AcDbLine
 62
253
  6
CONTINUOUS
 10
-15.0714285374
 20
-14.0023994067
 11
-14.2499999464
 21
-14.0023994067
  0
LINE
  5
281
100
AcDbEntity
  8
CURVE
100
AcDbLine
 62
253
  6
CONTINUOUS
 10
-11.6214285374
 20
-14.0023994067
 11
-10.9642857194
 21
-14.0023994067
  0
LINE
  5
282
100
AcDbEntity
  8
CURVE
100
AcDbLine
 62
253
  6
CONTINUOUS
 10
-7.8428572655
 20
-14.0023994067
 11
-8.4999998093
 21
-14.0023994067
  0
LINE
  5
283
100
AcDbEntity
  8
CURVE
100
AcDbLine
 62
253
  6
CONTINUOUS
 10
-9.4857141733
 20
-14.0023994067
 11
-10.1428572655
 21
-14.0023994067
  0
LINE
  5
284
100
AcDbEntity
  8
CURVE
100
AcDbLine
 62
253
  6
CONTINUOUS
 10
-11.9500000834
 20
-13.1872591163
 11
-10.9642857194
 21
-13.1872591163
  0
LWPOLYLINE
  5
285
100
AcDbEntity
  8
RACCORDO
100
AcDbPolyline
 62
7
  6
CONTINUOUS
 90
17
 70
0
 10
19.2455792639
 20
-22.4349101299
 10
19.2560492036
 20
-22.4391627198
 10
19.2670869608
 20
-22.4444428632
 10
19.2783345213
 20
-22.4507263616
 10
19.2894647874
 20
-22.4579421365
 10
19.3003617667
 20
-22.4661001821
 10
19.310952394
 20
-22.475237197
 10
19.3210177296
 20
-22.4852437325
 10
19.3304346814
 20
-22.496048593
 10
19.3391690768
 20
-22.5076683918
 10
19.3471534314
 20
-22.5200920362
 10
19.3542987058
 20
-22.533274432
 10
19.3605218183
 20
-22.5471699018
 10
19.3657516501
 20
-22.56176065
 10
19.369896673
 20
-22.5769798629
 10
19.3728686607
 20
-22.5927498978
 10
19.3745865638
 20
-22.6090257268
  0
LINE
  5
286
100
AcDbEntity
  8
RACCORDO
100
AcDbLine
 62
7
  6
CONTINUOUS
 10
0.1157724398
 20
-22.2658364642
 11
0.1394842293
 21
-22.2948618356
  0
LINE
  5
287
100
AcDbEntity
  8
RACCORDO
100
AcDbLine
 62
7
  6
CONTINUOUS
 10
0.1157723414
 20
-22.265836535
 11
0.1112834265
 21
-22.2598081261
  0
LINE
  5
288
100
AcDbEntity
  8
RACCORDO
100
AcDbLine
 62
7
  6
CONTINUOUS
 10
0.0952939314
 20
-22.2382445812
 11
0.1032468872
 21
-22.2489115284
  0
LWPOLYLINE
  5
289
100
AcDbEntity
  8
RACCORDO
100
AcDbPolyline
 62
7
  6
CONTINUOUS
 90
3
 70
0
 10
0.1032468872
 20
-22.2489115284
 10
0.1107407715
 20
-22.2590681118
 10
0.1112834265
 20
-22.2598081261
  0
LINE
  5
28A
100
AcDbEntity
  8
CURVE
100
AcDbLine
 62
253
  6
CONTINUOUS
 10
-12.6619045973
 20
-12.8611479851
 11
-12.6619045973
 21
-12.5350054094
  0
LINE
  5
28B
100
AcDbEntity
  8
CURVE
100
AcDbLine
 62
253
  6
CONTINUOUS
 10
-11.9500000834
 20
-12.698080559
 11
-11.9500000834
 21
-13.6763669002
  0
LINE
  5
28C
100
AcDbEntity
  8
CURVE
100
AcDbLine
 62
253
  6
CONTINUOUS
 10
-10.9642857194
 20
-13.1872591163
 11
-10.9642857194
 21
-12.6980805618
  0
LWPOLYLINE
  5
28D
100
AcDbEntity
  8
RACCORDO
100
AcDbPolyline
 62
7
  6
CONTINUOUS
 90
11
 70
0
 10
0.0723382239
 20
22.2044515377
 10
0.0593768812
 20
22.182349388
 10
0.0478656902
 20
22.1602393888
 10
0.0378898367
 20
22.1385720909
 10
0.029328482
 20
22.1174537935
 10
0.0220600401
 20
22.0969754117
 10
0.0160645653
 20
22.0775664885
 10
0.0111408162
 20
22.0591338669
 10
0.007178316
 20
22.0418515468
 10
0.0041686913
 20
22.0265074569
 10
0.0037397363
 20
22.0239635944
  0
LWPOLYLINE
  5
28E
100
AcDbEntity
  8
RACCORDO
100
AcDbPolyline
 62
7
  6
CONTINUOUS
 90
3
 70
0
 10
0.0944992262
 20
22.2371695243
 10
0.086736677
 20
22.2263302669
 10
0.0723382239
 20
22.2044515377
  0
LINE
  5
28F
100
AcDbEntity
  8
CURVE
100
AcDbLine
 62
253
  6
CONTINUOUS
 10
-7.8428572655
 20
-12.3719222603
 11
-8.4999998093
 21
-12.3719222603
  0
LINE
  5
290
100
AcDbEntity
  8
CURVE
100
AcDbLine
 62
253
  6
CONTINUOUS
 10
-9.4857141733
 20
-12.3719222603
 11
-10.1428572655
 21
-12.3719222603
  0
LINE
  5
291
100
AcDbEntity
  8
CURVE
100
AcDbLine
 62
253
  6
CONTINUOUS
 10
-11.2928569913
 20
-12.3719222603
 11
-11.6214285374
 21
-12.3719222603
  0
LINE
  5
292
100
AcDbEntity
  8
CURVE
100
AcDbLine
 62
253
  6
CONTINUOUS
 10
-12.7714285374
 20
-12.3719222603
 11
-13.4285713553
 21
-12.3719222603
  0
LINE
  5
293
100
AcDbEntity
  8
CURVE
100
AcDbLine
 62
253
  6
CONTINUOUS
 10
-14.2499999464
 20
-12.3719222603
 11
-15.0714285374
 21
-12.3719222603
  0
LINE
  5
294
100
AcDbEntity
  8
CURVE
100
AcDbLine
 62
253
  6
CONTINUOUS
 10
-10.3071429014
 20
-12.5350054079
 11
-10.3071429014
 21
-13.0242074722
  0
LINE
  5
295
100
AcDbEntity
  8
CURVE
100
AcDbLine
 62
253
  6
CONTINUOUS
 10
-9.3214285374
 20
-13.3503028882
 11
-9.3214285374
 21
-13.8393870869
  0
LINE
  5
296
100
AcDbEntity
  8
CURVE
100
AcDbLine
 62
253
  6
CONTINUOUS
 10
-8.6642854452
 20
-12.5350054079
 11
-8.6642854452
 21
-13.0242074722
  0
LWPOLYLINE
  5
297
100
AcDbEntity
  8
RACCORDO
100
AcDbPolyline
 62
7
  6
CONTINUOUS
 90
7
 70
0
 10
0.0376327169
 20
-22.1379764118
 10
0.0463499682
 20
-22.1571157463
 10
0.0560717178
 20
-22.1762696032
 10
0.0668806764
 20
-22.1954577793
 10
0.0787335813
 20
-22.214477295
 10
0.0916210315
 20
-22.2332203408
 10
0.0952939314
 20
-22.2382445812
  0
LINE
  5
298
100
AcDbEntity
  8
CURVE
100
AcDbLine
 62
253
  6
CONTINUOUS
 10
-7.6785716295
 20
-13.3503028882
 11
-7.6785716295
 21
-13.8393870869
  0
LWPOLYLINE
  5
299
100
AcDbEntity
  8
RACCORDO
100
AcDbPolyline
 62
7
  6
CONTINUOUS
 90
9
 70
0
 10
0.4659325555
 20
22.5623349788
 10
0.4603063924
 20
22.5466357511
 10
0.4535420224
 20
22.5317591533
 10
0.4457595862
 20
22.5177714424
 10
0.4370827293
 20
22.5047282197
 10
0.4276284315
 20
22.4926619377
 10
0.4175170935
 20
22.4816001773
 10
0.4068789333
 20
22.4715682402
 10
0.3958078026
 20
22.4625486983
  0
LINE
  5
29A
100
AcDbEntity
  8
RACCORDO
100
AcDbLine
 62
7
  6
CONTINUOUS
 10
0.0299136629
 20
-22.1189899632
 11
0.0376327169
 21
-22.1379764118
  0
LINE
  5
29B
100
AcDbEntity
  8
RACCORDO
100
AcDbLine
 62
7
  6
CONTINUOUS
 10
0.0232778436
 20
-22.1006104891
 11
0.0299136629
 21
-22.1189899632
  0
LINE
  5
29C
100
AcDbEntity
  8
RACCORDO
100
AcDbLine
 62
7
  6
CONTINUOUS
 10
-0.0033870193
 20
-21.9707097024
 11
-0.0023544131
 21
-21.9803105491
  0
LWPOLYLINE
  5
29D
100
AcDbEntity
  8
RACCORDO
100
AcDbPolyline
 62
7
  6
CONTINUOUS
 90
7
 70
0
 10
0.001569194
 20
-22.0108844517
 10
0.0034426578
 20
-22.0224090133
 10
0.0058879652
 20
-22.0355611691
 10
0.0089677163
 20
-22.0499928247
 10
0.0128303171
 20
-22.0657758383
 10
0.017610068
 20
-22.0828421494
 10
0.0232778436
 20
-22.1006104891
  0
LWPOLYLINE
  5
29E
100
AcDbEntity
  8
RACCORDO
100
AcDbPolyline
 62
7
  6
CONTINUOUS
 90
5
 70
0
 10
-0.0021060782
 20
-21.9800271797
 10
-0.0025722535
 20
-21.9768604412
 10
-0.0031876695
 20
-21.9723132424
 10
-0.00343106
 20
-21.9703217533
 10
-0.0033870193
 20
-21.9707097024
  0
LWPOLYLINE
  5
29F
100
AcDbEntity
  8
RACCORDO
100
AcDbPolyline
 62
7
  6
CONTINUOUS
 90
3
 70
0
 10
-0.0008839595
 20
-21.9930173339
 10
0.0001730768
 20
-22.0011775615
 10
0.001569194
 20
-22.0108844517
  0
LWPOLYLINE
  5
2A0
100
AcDbEntity
  8
RACCORDO
100
AcDbPolyline
 62
7
  6
CONTINUOUS
 90
3
 70
0
 10
-0.0023544131
 20
-21.9803105491
 10
-0.0017083621
 20
-21.9860910183
 10
-0.0008839595
 20
-21.9930173339
  0
LINE
  5
2A1
100
AcDbEntity
  8
RACCORDO
100
AcDbLine
 62
7
  6
CONTINUOUS
 10
0.4745709452
 20
-22.6087662238
 11
0.474999721
 21
-22.6218538841
  0
LINE
  5
2A2
100
AcDbEntity
  8
RACCORDO
100
AcDbLine
 62
7
  6
CONTINUOUS
 10
0.0273651948
 20
-21.9346816494
 11
0.0273651948
 21
-21.9137578643
  0
LWPOLYLINE
  5
2A3
100
AcDbEntity
  8
RACCORDO
100
AcDbPolyline
 62
7
  6
CONTINUOUS
 90
5
 70
0
 10
0.4749997214
 20
22.6218539423
 10
0.4748236636
 20
22.6134638007
 10
0.473302132
 20
22.5958568612
 10
0.470302702
 20
22.5787758727
 10
0.4659325555
 20
22.5623349788
  0
LINE
  5
2A4
100
AcDbEntity
  8
DRAFT
100
AcDbLine
 62
7
  6
CONTINUOUS
 10
22.1912156883
 20
0.0
 11
22.025
 21
0.0
  0
LINE
  5
2A5
100
AcDbEntity
  8
RACCORDO
100
AcDbLine
 62
7
  6
CONTINUOUS
 10
0.475
 20
-22.6218492968
 11
0.475
 21
-24.25
  0
LINE
  5
2A6
100
AcDbEntity
  8
RACCORDO
100
AcDbLine
 62
7
  6
CONTINUOUS
 10
0.475
 20
22.6218492968
 11
0.475
 21
24.25
  0
LINE
  5
2A7
100
AcDbEntity
  8
RACCORDO
100
AcDbLine
 62
253
  6
CONTINUOUS
 10
0.7250000001
 20
22.4349101299
 11
0.725
 21
24.5
  0
LINE
  5
2A8
100
AcDbEntity
  8
RACCORDO
100
AcDbLine
 62
253
  6
CONTINUOUS
 10
0.7250000016
 20
-22.4349101299
 11
0.725
 21
-24.5
  0
LINE
  5
2A9
100
AcDbEntity
  8
RACCORDO
100
AcDbLine
 62
7
  6
CONTINUOUS
 10
2.8754290548
 20
22.6087662238
 11
2.875000279
 21
22.6218538841
  0
LINE
  5
2AA
100
AcDbEntity
  8
RACCORDO
100
AcDbLine
 62
253
  6
CONTINUOUS
 10
2.6249999999
 20
-22.4349101299
 11
2.625
 21
-24.5
  0
LINE
  5
2AB
100
AcDbEntity
  8
RACCORDO
100
AcDbLine
 62
253
  6
CONTINUOUS
 10
2.6249999984
 20
22.4349101299
 11
2.625
 21
24.5
  0
LINE
  5
2AC
100
AcDbEntity
  8
RACCORDO
100
AcDbLine
 62
7
  6
CONTINUOUS
 10
2.875
 20
24.25
 11
2.875
 21
22.6218492968
  0
LINE
  5
2AD
100
AcDbEntity
  8
RACCORDO
100
AcDbLine
 62
7
  6
CONTINUOUS
 10
2.875
 20
-22.6218492968
 11
2.875
 21
-24.25
  0
LWPOLYLINE
  5
2AE
100
AcDbEntity
  8
RACCORDO
100
AcDbPolyline
 62
7
  6
CONTINUOUS
 90
5
 70
0
 10
2.8750002786
 20
-22.6218539423
 10
2.8751763364
 20
-22.6134638007
 10
2.876697868
 20
-22.5958568612
 10
2.879697298
 20
-22.5787758727
 10
2.8840674445
 20
-22.5623349788
  0
LINE
  5
2AF
100
AcDbEntity
  8
RACCORDO
100
AcDbLine
 62
7
  6
CONTINUOUS
 10
6.7221284682
 20
-23.8
 11
6.7221284682
 21
-22.4349101299
  0
LINE
  5
2B0
100
AcDbEntity
  8
RACCORDO
100
AcDbLine
 62
7
  6
CONTINUOUS
 10
6.7221284682
 20
22.4349101299
 11
6.7221284682
 21
23.8
  0
LINE
  5
2B1
100
AcDbEntity
  8
RACCORDO
100
AcDbLine
 62
253
  6
CONTINUOUS
 10
7.2221284682
 20
-23.8
 11
7.2221284682
 21
-22.4349101299
  0
LINE
  5
2B2
100
AcDbEntity
  8
RACCORDO
100
AcDbLine
 62
253
  6
CONTINUOUS
 10
7.2221284682
 20
22.4349101299
 11
7.2221284682
 21
23.8
  0
LWPOLYLINE
  5
2B3
100
AcDbEntity
  8
RACCORDO
100
AcDbPolyline
 62
7
  6
CONTINUOUS
 90
14
 70
0
 10
2.8840674445
 20
-22.5623349788
 10
2.8896936076
 20
-22.5466357511
 10
2.8964579776
 20
-22.5317591533
 10
2.9042404138
 20
-22.5177714424
 10
2.9129172707
 20
-22.5047282197
 10
2.9223715685
 20
-22.4926619377
 10
2.9324829065
 20
-22.4816001773
 10
2.9431210667
 20
-22.4715682402
 10
2.9541921974
 20
-22.4625486983
 10
2.9655722239
 20
-22.4545454407
 10
2.9770765471
 20
-22.447583299
 10
2.9887629751
 20
-22.4415393029
 10
3.0003779298
 20
-22.4364616314
 10
3.0046182877
 20
-22.4349101299
  0
LWPOLYLINE
  5
2B4
100
AcDbEntity
  8
RACCORDO
100
AcDbPolyline
 62
7
  6
CONTINUOUS
 90
14
 70
0
 10
19.3659325555
 20
22.5623349788
 10
19.3603063924
 20
22.5466357511
 10
19.3535420224
 20
22.5317591533
 10
19.3457595862
 20
22.5177714424
 10
19.3370827293
 20
22.5047282197
 10
19.3276284315
 20
22.4926619377
 10
19.3175170935
 20
22.4816001773
 10
19.3068789333
 20
22.4715682402
 10
19.2958078026
 20
22.4625486983
 10
19.2844277761
 20
22.4545454407
 10
19.2729234529
 20
22.447583299
 10
19.2612370249
 20
22.4415393029
 10
19.2496220702
 20
22.4364616314
 10
19.2453817123
 20
22.4349101299
  0
LINE
  5
2B5
100
AcDbEntity
  8
RACCORDO
100
AcDbLine
 62
253
  6
CONTINUOUS
 10
15.0278715318
 20
23.8
 11
15.0278715318
 21
22.4349101299
  0
LINE
  5
2B6
100
AcDbEntity
  8
RACCORDO
100
AcDbLine
 62
253
  6
CONTINUOUS
 10
15.0278715318
 20
-22.4349101299
 11
15.0278715318
 21
-23.8
  0
LINE
  5
2B7
100
AcDbEntity
  8
RACCORDO
100
AcDbLine
 62
7
  6
CONTINUOUS
 10
15.5278715318
 20
23.8
 11
15.5278715318
 21
22.4349101299
  0
LINE
  5
2B8
100
AcDbEntity
  8
RACCORDO
100
AcDbLine
 62
7
  6
CONTINUOUS
 10
15.5278715318
 20
-22.4349101299
 11
15.5278715318
 21
-23.8
  0
LINE
  5
2B9
100
AcDbEntity
  8
ASSI
100
AcDbLine
 62
253
  6
CONTINUOUS
 10
21.124955772
 20
21.4240345475
 11
21.2251218439
 21
22.0239635944
  0
LINE
  5
2BA
100
AcDbEntity
  8
RACCORDO
100
AcDbLine
 62
253
  6
CONTINUOUS
 10
21.124955772
 20
21.4240345475
 11
21.2251218439
 21
22.0239635944
  0
LINE
  5
2BB
100
AcDbEntity
  8
RACCORDO
100
AcDbLine
 62
7
  6
CONTINUOUS
 10
19.3745865638
 20
-22.6090257268
 11
19.3749983757
 21
-22.6218493537
  0
LINE
  5
2BC
100
AcDbEntity
  8
RACCORDO
100
AcDbLine
 62
7
  6
CONTINUOUS
 10
19.375
 20
-22.6218492968
 11
19.375
 21
-24.25
  0
LINE
  5
2BD
100
AcDbEntity
  8
RACCORDO
100
AcDbLine
 62
7
  6
CONTINUOUS
 10
19.375
 20
22.6218492968
 11
19.375
 21
24.25
  0
LINE
  5
2BE
100
AcDbEntity
  8
RACCORDO
100
AcDbLine
 62
253
  6
CONTINUOUS
 10
19.625
 20
-22.4349101299
 11
19.625
 21
-24.5
  0
LINE
  5
2BF
100
AcDbEntity
  8
RACCORDO
100
AcDbLine
 62
253
  6
CONTINUOUS
 10
19.6250000001
 20
22.4349101299
 11
19.625
 21
24.5
  0
LWPOLYLINE
  5
2C0
100
AcDbEntity
  8
RACCORDO
100
AcDbPolyline
 62
7
  6
CONTINUOUS
 90
5
 70
0
 10
19.3749997214
 20
22.6218539423
 10
19.3748236636
 20
22.6134638007
 10
19.373302132
 20
22.5958568612
 10
19.370302702
 20
22.5787758727
 10
19.3659325555
 20
22.5623349788
  0
LINE
  5
2C1
100
AcDbEntity
  8
ASSI
100
AcDbLine
 62
253
  6
CONTINUOUS
 10
21.9248339282
 20
20.6272001693
 11
22.025
 21
21.2271292162
  0
LINE
  5
2C2
100
AcDbEntity
  8
RACCORDO
100
AcDbLine
 62
253
  6
CONTINUOUS
 10
21.9248339282
 20
20.6272001693
 11
22.025
 21
21.2271292162
  0
LINE
  5
2C3
100
AcDbEntity
  8
ASSI
100
AcDbLine
 62
253
  6
CONTINUOUS
 10
-21.362978618
 20
19.9031911507
 11
21.112978618
 21
19.9031911507
  0
LINE
  5
2C4
100
AcDbEntity
  8
RACCORDO
100
AcDbLine
 62
253
  6
CONTINUOUS
 10
-21.362978618
 20
19.9031911507
 11
21.112978618
 21
19.9031911507
  0
LINE
  5
2C5
100
AcDbEntity
  8
DRAFT
100
AcDbLine
 62
7
  6
CONTINUOUS
 10
22.2339805974
 20
19.9536487485
 11
22.025
 21
19.9536487485
  0
LINE
  5
2C6
100
AcDbEntity
  8
DRAFT
100
AcDbLine
 62
7
  6
CONTINUOUS
 10
22.2339805974
 20
-19.9536487485
 11
22.1912156883
 21
0.0
  0
LINE
  5
2C7
100
AcDbEntity
  8
RACCORDO
100
AcDbLine
 62
253
  6
CONTINUOUS
 10
21.5249999997
 20
-22.4349101299
 11
21.525
 21
-24.5
  0
LINE
  5
2C8
100
AcDbEntity
  8
RACCORDO
100
AcDbLine
 62
253
  6
CONTINUOUS
 10
21.5249999984
 20
22.4349101299
 11
21.525
 21
24.5
  0
LINE
  5
2C9
100
AcDbEntity
  8
RACCORDO
100
AcDbLine
 62
7
  6
CONTINUOUS
 10
21.775
 20
-22.6218492968
 11
21.775
 21
-24.25
  0
LINE
  5
2CA
100
AcDbEntity
  8
RACCORDO
100
AcDbLine
 62
7
  6
CONTINUOUS
 10
21.775
 20
22.6218492968
 11
21.775
 21
24.25
  0
LINE
  5
2CB
100
AcDbEntity
  8
ASSI
100
AcDbLine
 62
7
  6
CONTINUOUS
 10
22.025
 20
21.2271292162
 11
22.025
 21
-20.7129103339
  0
LINE
  5
2CC
100
AcDbEntity
  8
RACCORDO
100
AcDbLine
 62
7
  6
CONTINUOUS
 10
22.025
 20
21.2271292162
 11
22.025
 21
-20.7129103339
  0
LINE
  5
2CD
100
AcDbEntity
  8
RACCORDO
100
AcDbLine
 62
7
  6
CONTINUOUS
 10
22.2226348052
 20
21.9346816494
 11
22.2226348052
 21
21.9048099646
  0
LINE
  5
2CE
100
AcDbEntity
  8
RACCORDO
100
AcDbLine
 62
7
  6
CONTINUOUS
 10
22.2226348052
 20
-21.9346816494
 11
22.2226348052
 21
-21.9048099646
  0
LINE
  5
2CF
100
AcDbEntity
  8
DRAFT
100
AcDbLine
 62
7
  6
CONTINUOUS
 10
22.2339805974
 20
-21.825
 11
22.2339805974
 21
-19.9536487485
  0
LINE
  5
2D0
100
AcDbEntity
  8
DRAFT
100
AcDbLine
 62
7
  6
CONTINUOUS
 10
22.2339805974
 20
19.9536487485
 11
22.2339805974
 21
21.825
  0
LINE
  5
2D1
100
AcDbEntity
  8
RACCORDO
100
AcDbLine
 62
7
  6
CONTINUOUS
 10
22.275
 20
-21.8823164546
 11
22.275
 21
21.8823164546
  0
LINE
  5
2D2
100
AcDbEntity
  8
DRAFT
100
AcDbLine
 62
7
  6
CONTINUOUS
 10
22.1912156883
 20
0.0
 11
22.2339805974
 21
19.9536487485
  0
LINE
  5
2D3
100
AcDbEntity
  8
ASSI
100
AcDbLine
 62
253
  6
CONTINUOUS
 10
-21.374955772
 20
21.4240345475
 11
21.124955772
 21
21.4240345475
  0
LINE
  5
2D4
100
AcDbEntity
  8
RACCORDO
100
AcDbLine
 62
253
  6
CONTINUOUS
 10
-21.374955772
 20
21.4240345475
 11
21.124955772
 21
21.4240345475
  0
LINE
  5
2D5
100
AcDbEntity
  8
DRAFT
100
AcDbLine
 62
7
  6
CONTINUOUS
 10
22.2339805974
 20
21.825
 11
21.7538293626
 21
21.825
  0
LINE
  5
2D6
100
AcDbEntity
  8
DRAFT
100
AcDbLine
 62
7
  6
CONTINUOUS
 10
22.2226348052
 20
21.9048099646
 11
21.6450870287
 21
21.9048099646
  0
LINE
  5
2D7
100
AcDbEntity
  8
ASSI
100
AcDbLine
 62
7
  6
CONTINUOUS
 10
-21.4751218439
 20
22.0239635944
 11
21.2251218439
 21
22.0239635944
  0
LINE
  5
2D8
100
AcDbEntity
  8
RACCORDO
100
AcDbLine
 62
7
  6
CONTINUOUS
 10
-21.4751218439
 20
22.0239635944
 11
21.2251218439
 21
22.0239635944
  0
LWPOLYLINE
  5
2D9
100
AcDbEntity
  8
RACCORDO
100
AcDbPolyline
 62
7
  6
CONTINUOUS
 90
18
 70
0
 10
3.0044430696
 20
22.4349101299
 10
2.9947454403
 20
22.4388132837
 10
2.9841309733
 20
22.4438178561
 10
2.9733623065
 20
22.4497157707
 10
2.962530879
 20
22.4565693461
 10
2.95201957
 20
22.4642164863
 10
2.9419750846
 20
22.4725799811
 10
2.9323753591
 20
22.4817093938
 10
2.9233081274
 20
22.4915648285
 10
2.9148535532
 20
22.5020970219
 10
2.9070522295
 20
22.5132966939
 10
2.8999365682
 20
22.5251787212
 10
2.8935741601
 20
22.5377123017
 10
2.888037273
 20
22.5508495303
 10
2.8833817496
 20
22.5645794045
 10
2.8796818367
 20
22.5788459881
 10
2.8770091034
 20
22.5935852782
 10
2.8754290548
 20
22.6087662238
  0
LINE
  5
2DA
100
AcDbEntity
  8
RACCORDO
100
AcDbLine
 62
7
  6
CONTINUOUS
 10
22.2533870193
 20
21.9707097024
 11
22.2523544131
 21
21.9803105491
  0
LINE
  5
2DB
100
AcDbEntity
  8
RACCORDO
100
AcDbLine
 62
7
  6
CONTINUOUS
 10
21.7754290548
 20
22.6087662238
 11
21.775000279
 21
22.6218538841
  0
LWPOLYLINE
  5
2DC
100
AcDbEntity
  8
RACCORDO
100
AcDbPolyline
 62
7
  6
CONTINUOUS
 90
5
 70
0
 10
21.7750016277
 20
-22.6218493627
 10
21.7756064102
 20
-22.6063127598
 10
21.777636808
 20
-22.5895009525
 10
21.7810069066
 20
-22.573224087
 10
21.785615615
 20
-22.5575841549
  0
LINE
  5
2DD
100
AcDbEntity
  8
RACCORDO
100
AcDbLine
 62
7
  6
CONTINUOUS
 10
21.7224063247
 20
22.4349101299
 11
0.5275936753
 21
22.4349101299
  0
LINE
  5
2DE
100
AcDbEntity
  8
RACCORDO
100
AcDbLine
 62
253
  6
CONTINUOUS
 10
0.725
 20
22.629704076
 11
2.625
 21
22.629704076
  0
LINE
  5
2DF
100
AcDbEntity
  8
RACCORDO
100
AcDbLine
 62
253
  6
CONTINUOUS
 10
19.625
 20
22.629704076
 11
21.525
 21
22.629704076
  0
LINE
  5
2E0
100
AcDbEntity
  8
RACCORDO
100
AcDbLine
 62
253
  6
CONTINUOUS
 10
0.475
 20
22.9783121635
 11
2.875
 21
22.9783121635
  0
LINE
  5
2E1
100
AcDbEntity
  8
RACCORDO
100
AcDbLine
 62
253
  6
CONTINUOUS
 10
19.375
 20
22.9783121635
 11
21.775
 21
22.9783121635
  0
LINE
  5
2E2
100
AcDbEntity
  8
RACCORDO
100
AcDbLine
 62
253
  6
CONTINUOUS
 10
21.525
 20
23.1948185145
 11
19.625
 21
23.1948185145
  0
LINE
  5
2E3
100
AcDbEntity
  8
RACCORDO
100
AcDbLine
 62
253
  6
CONTINUOUS
 10
2.625
 20
23.1948185145
 11
0.725
 21
23.1948185145
  0
LINE
  5
2E4
100
AcDbEntity
  8
RACCORDO
100
AcDbLine
 62
253
  6
CONTINUOUS
 10
0.725
 20
23.6278312164
 11
2.625
 21
23.6278312164
  0
LINE
  5
2E5
100
AcDbEntity
  8
RACCORDO
100
AcDbLine
 62
253
  6
CONTINUOUS
 10
19.625
 20
23.6278312164
 11
21.525
 21
23.6278312164
  0
LINE
  5
2E6
100
AcDbEntity
  8
RACCORDO
100
AcDbLine
 62
7
  6
CONTINUOUS
 10
6.7221335533
 20
23.8
 11
15.5278664467
 21
23.8
  0
LINE
  5
2E7
100
AcDbEntity
  8
RACCORDO
100
AcDbLine
 62
253
  6
CONTINUOUS
 10
0.475
 20
23.8443375673
 11
2.875
 21
23.8443375673
  0
LINE
  5
2E8
100
AcDbEntity
  8
RACCORDO
100
AcDbLine
 62
253
  6
CONTINUOUS
 10
19.375
 20
23.8443375673
 11
21.775
 21
23.8443375673
  0
LINE
  5
2E9
100
AcDbEntity
  8
RACCORDO
100
AcDbLine
 62
253
  6
CONTINUOUS
 10
0.475
 20
24.25
 11
2.875
 21
24.25
  0
LINE
  5
2EA
100
AcDbEntity
  8
RACCORDO
100
AcDbLine
 62
253
  6
CONTINUOUS
 10
19.375
 20
24.25
 11
21.775
 21
24.25
  0
LINE
  5
2EB
100
AcDbEntity
  8
RACCORDO
100
AcDbLine
 62
7
  6
CONTINUOUS
 10
0.725
 20
24.5
 11
2.625
 21
24.5
  0
LINE
  5
2EC
100
AcDbEntity
  8
RACCORDO
100
AcDbLine
 62
7
  6
CONTINUOUS
 10
19.625
 20
24.5
 11
21.525
 21
24.5
  0
LWPOLYLINE
  5
2ED
100
AcDbEntity
  8
RACCORDO
100
AcDbPolyline
 62
7
  6
CONTINUOUS
 90
3
 70
0
 10
22.2523544131
 20
21.9803105491
 10
22.2517083621
 20
21.9860910183
 10
22.2508839595
 20
21.9930173339
  0
LINE
  5
2EE
100
AcDbEntity
  8
DRAFT
100
AcDbLine
 62
7
  6
CONTINUOUS
 10
22.2226348052
 20
-21.9048099646
 11
22.2339805974
 21
-21.825
  0
LINE
  5
2EF
100
AcDbEntity
  8
ASSI
100
AcDbLine
 62
253
  6
CONTINUOUS
 10
22.025
 20
-20.7129103339
 11
21.9248339282
 21
-21.1132695615
  0
LINE
  5
2F0
100
AcDbEntity
  8
RACCORDO
100
AcDbLine
 62
253
  6
CONTINUOUS
 10
22.025
 20
-20.7129103339
 11
21.9248339282
 21
-21.1132695615
  0
LINE
  5
2F1
100
AcDbEntity
  8
ASSI
100
AcDbLine
 62
7
  6
CONTINUOUS
 10
22.0012521081
 20
-20.9056570183
 11
21.9010349744
 21
-21.3062203375
  0
LINE
  5
2F2
100
AcDbEntity
  8
RACCORDO
100
AcDbLine
 62
7
  6
CONTINUOUS
 10
22.001251659
 20
-20.9056588132
 11
21.9010349744
 21
-21.3062203375
  0
LINE
  5
2F3
100
AcDbEntity
  8
RACCORDO
100
AcDbLine
 62
7
  6
CONTINUOUS
 10
21.8981449076
 20
-21.3174151076
 11
21.9008421905
 21
-21.3069729881
  0
LINE
  5
2F4
100
AcDbEntity
  8
ASSI
100
AcDbLine
 62
7
  6
CONTINUOUS
 10
21.8969530205
 20
-21.3218551821
 11
21.9012206491
 21
-21.3054604314
  0
LWPOLYLINE
  5
2F5
100
AcDbEntity
  8
RACCORDO
100
AcDbPolyline
 62
7
  6
CONTINUOUS
 90
7
 70
0
 10
22.248430806
 20
22.0108844517
 10
22.2465573422
 20
22.0224090133
 10
22.2441120348
 20
22.0355611691
 10
22.2410322837
 20
22.0499928247
 10
22.2371696829
 20
22.0657758383
 10
22.232389932
 20
22.0828421494
 10
22.2267221564
 20
22.1006104891
  0
LWPOLYLINE
  5
2F6
100
AcDbEntity
  8
RACCORDO
100
AcDbPolyline
 62
7
  6
CONTINUOUS
 90
5
 70
0
 10
22.2521060782
 20
21.9800271797
 10
22.2525722535
 20
21.9768604412
 10
22.2531876695
 20
21.9723132424
 10
22.25343106
 20
21.9703217533
 10
22.2533870193
 20
21.9707097024
  0
LINE
  5
2F7
100
AcDbEntity
  8
DRAFT
100
AcDbLine
 62
7
  6
CONTINUOUS
 10
22.2339805974
 20
21.825
 11
22.2226348052
 21
21.9048099646
  0
LWPOLYLINE
  5
2F8
100
AcDbEntity
  8
RACCORDO
100
AcDbPolyline
 62
7
  6
CONTINUOUS
 90
3
 70
0
 10
22.2508839595
 20
21.9930173339
 10
22.2498269232
 20
22.0011775615
 10
22.248430806
 20
22.0108844517
  0
LWPOLYLINE
  5
2F9
100
AcDbEntity
  8
RACCORDO
100
AcDbPolyline
 62
7
  6
CONTINUOUS
 90
10
 70
0
 10
22.2272663767
 20
-22.09899859
 10
22.2333496485
 20
-22.0795927257
 10
22.2383496522
 20
-22.0611772254
 10
22.2423853183
 20
-22.0438933594
 10
22.2454820367
 20
-22.0284143261
 10
22.247816043
 20
-22.0148336882
 10
22.2495858658
 20
-22.0029378584
 10
22.2508923335
 20
-21.9929534887
 10
22.2518145479
 20
-21.9851567862
 10
22.2532744831
 20
-21.9717397554
  0
LWPOLYLINE
  5
2FA
100
AcDbEntity
  8
RACCORDO
100
AcDbPolyline
 62
7
  6
CONTINUOUS
 90
9
 70
0
 10
21.785615615
 20
-22.5575841549
 10
21.7913580014
 20
-22.5426632573
 10
21.7981262099
 20
-22.5285301498
 10
21.8058079033
 20
-22.5152451751
 10
21.8142939595
 20
-22.5028486008
 10
21.8234752579
 20
-22.4913709771
 10
21.8332382061
 20
-22.4808380598
 10
21.8434861013
 20
-22.4712494557
 10
21.8541127142
 20
-22.4626091871
  0
LWPOLYLINE
  5
2FB
100
AcDbEntity
  8
RACCORDO
100
AcDbPolyline
 62
7
  6
CONTINUOUS
 90
3
 70
0
 10
22.2112614921
 20
-22.1405259469
 10
22.2199098456
 20
-22.1194504383
 10
22.2272663767
 20
-22.09899859
  0
LWPOLYLINE
  5
2FC
100
AcDbEntity
  8
RACCORDO
100
AcDbPolyline
 62
7
  6
CONTINUOUS
 90
3
 70
0
 10
21.9061425888
 20
-22.4342644365
 10
21.917190698
 20
-22.4300988096
 10
21.961335762
 20
-22.4103465305
  0
LWPOLYLINE
  5
2FD
100
AcDbEntity
  8
RACCORDO
100
AcDbPolyline
 62
7
  6
CONTINUOUS
 90
5
 70
0
 10
21.9051174484
 20
22.4346387023
 10
21.8947454403
 20
22.4388132837
 10
21.8841309733
 20
22.4438178561
 10
21.8733623065
 20
22.4497157707
 10
21.862530879
 20
22.4565693461
  0
LINE
  5
2FE
100
AcDbEntity
  8
RACCORDO
100
AcDbLine
 62
7
  6
CONTINUOUS
 10
22.2200863371
 20
22.1189899632
 11
22.2123672831
 21
22.1379764118
  0
LINE
  5
2FF
100
AcDbEntity
  8
RACCORDO
100
AcDbLine
 62
7
  6
CONTINUOUS
 10
22.2267221564
 20
22.1006104891
 11
22.2200863371
 21
22.1189899632
  0
LWPOLYLINE
  5
300
100
AcDbEntity
  8
RACCORDO
100
AcDbPolyline
 62
7
  6
CONTINUOUS
 90
3
 70
0
 10
22.1896011406
 20
-22.1841887992
 10
22.2011966197
 20
-22.1621447007
 10
22.2112614921
 20
-22.1405259469
  0
LINE
  5
301
100
AcDbEntity
  8
RACCORDO
100
AcDbLine
 62
7
  6
CONTINUOUS
 10
22.1765789567
 20
-22.2061850331
 11
22.1896011406
 21
-22.1841887992
  0
LINE
  5
302
100
AcDbEntity
  8
RACCORDO
100
AcDbLine
 62
7
  6
CONTINUOUS
 10
22.1621547828
 20
-22.2279139076
 11
22.1765789567
 21
-22.2061850331
  0
LINE
  5
303
100
AcDbEntity
  8
RACCORDO
100
AcDbLine
 62
7
  6
CONTINUOUS
 10
22.1547314664
 20
-22.2382089476
 11
22.1621547828
 21
-22.2279139076
  0
LINE
  5
304
100
AcDbEntity
  8
RACCORDO
100
AcDbLine
 62
7
  6
CONTINUOUS
 10
22.1547314664
 20
-22.2382089476
 11
22.1348583967
 21
-22.2650008331
  0
LINE
  5
305
100
AcDbEntity
  8
RACCORDO
100
AcDbLine
 62
7
  6
CONTINUOUS
 10
22.1523799249
 20
-22.2413617607
 11
22.1530415996
 21
-22.2404782292
  0
LINE
  5
306
100
AcDbEntity
  8
RACCORDO
100
AcDbLine
 62
7
  6
CONTINUOUS
 10
22.112505532
 20
-22.2925958511
 11
22.1348612516
 21
-22.265003001
  0
LINE
  5
307
100
AcDbEntity
  8
RACCORDO
100
AcDbLine
 62
253
  6
CONTINUOUS
 10
22.2595183249
 20
-21.8978033211
 11
22.275
 21
-21.8823164546
  0
LINE
  5
308
100
AcDbEntity
  8
RACCORDO
100
AcDbLine
 62
253
  6
CONTINUOUS
 10
22.2226348052
 20
-21.9346816494
 11
22.2283545572
 21
-21.9289696893
  0
LWPOLYLINE
  5
309
100
AcDbEntity
  8
RACCORDO
100
AcDbPolyline
 62
7
  6
CONTINUOUS
 90
6
 70
0
 10
21.8541127142
 20
-22.4626091871
 10
21.8649882703
 20
-22.4549282717
 10
21.8761159218
 20
-22.4481253036
 10
21.8873155696
 20
-22.4422361506
 10
21.8981466888
 20
-22.4373699936
 10
21.9061191198
 20
-22.4342727212
  0
LWPOLYLINE
  5
30A
100
AcDbEntity
  8
RACCORDO
100
AcDbPolyline
 62
7
  6
CONTINUOUS
 90
5
 70
0
 10
21.961335762
 20
-22.4103465305
 10
22.0033051409
 20
-22.386463203
 10
22.0427204212
 20
-22.3586887068
 10
22.0792314123
 20
-22.3272947971
 10
22.112505532
 20
-22.2925958511
  0
LWPOLYLINE
  5
30B
100
AcDbEntity
  8
RACCORDO
100
AcDbPolyline
 62
7
  6
CONTINUOUS
 90
3
 70
0
 10
21.9562643562
 20
22.4128785312
 10
21.9112631461
 20
22.4323690199
 10
21.9061330296
 20
22.4342661985
  0
LINE
  5
30C
100
AcDbEntity
  8
RACCORDO
100
AcDbLine
 62
7
  6
CONTINUOUS
 10
21.862530879
 20
22.4565693461
 11
21.85201957
 21
22.4642164863
  0
LWPOLYLINE
  5
30D
100
AcDbEntity
  8
RACCORDO
100
AcDbPolyline
 62
7
  6
CONTINUOUS
 90
13
 70
0
 10
21.85201957
 20
22.4642164863
 10
21.8419750846
 20
22.4725799811
 10
21.8323753591
 20
22.4817093938
 10
21.8233081274
 20
22.4915648285
 10
21.8148535532
 20
22.5020970219
 10
21.8070522295
 20
22.5132966939
 10
21.7999365682
 20
22.5251787212
 10
21.7935741601
 20
22.5377123017
 10
21.788037273
 20
22.5508495303
 10
21.7833817496
 20
22.5645794045
 10
21.7796818367
 20
22.5788459881
 10
21.7770091034
 20
22.5935852782
 10
21.7754290548
 20
22.6087662238
  0
LWPOLYLINE
  5
30E
100
AcDbEntity
  8
RACCORDO
100
AcDbPolyline
 62
7
  6
CONTINUOUS
 90
4
 70
0
 10
22.0765566884
 20
22.3298055514
 10
22.0392929479
 20
22.3613328444
 10
21.9990731006
 20
22.3891175297
 10
21.9562643562
 20
22.4128785312
  0
LINE
  5
30F
100
AcDbEntity
  8
RACCORDO
100
AcDbLine
 62
253
  6
CONTINUOUS
 10
22.2226348052
 20
21.9346816494
 11
22.2283544073
 21
21.9289665538
  0
LINE
  5
310
100
AcDbEntity
  8
RACCORDO
100
AcDbLine
 62
253
  6
CONTINUOUS
 10
22.2595185694
 20
21.8977978048
 11
22.275
 21
21.8823164546
  0
LINE
  5
311
100
AcDbEntity
  8
RACCORDO
100
AcDbLine
 62
7
  6
CONTINUOUS
 10
22.1105157707
 20
22.2948618356
 11
22.0765566884
 21
22.3298055514
  0
LINE
  5
312
100
AcDbEntity
  8
RACCORDO
100
AcDbLine
 62
7
  6
CONTINUOUS
 10
22.1342275602
 20
22.2658364642
 11
22.1105157707
 21
22.2948618356
  0
LINE
  5
313
100
AcDbEntity
  8
RACCORDO
100
AcDbLine
 62
7
  6
CONTINUOUS
 10
22.1342276586
 20
22.265836535
 11
22.1387165735
 21
22.2598081261
  0
LINE
  5
314
100
AcDbEntity
  8
RACCORDO
100
AcDbLine
 62
7
  6
CONTINUOUS
 10
22.1547060686
 20
22.2382445812
 11
22.1467531128
 21
22.2489115284
  0
LWPOLYLINE
  5
315
100
AcDbEntity
  8
RACCORDO
100
AcDbPolyline
 62
7
  6
CONTINUOUS
 90
3
 70
0
 10
22.1467531128
 20
22.2489115284
 10
22.1392592285
 20
22.2590681118
 10
22.1387165735
 20
22.2598081261
  0
LWPOLYLINE
  5
316
100
AcDbEntity
  8
RACCORDO
100
AcDbPolyline
 62
7
  6
CONTINUOUS
 90
7
 70
0
 10
22.2123672831
 20
22.1379764118
 10
22.2036500318
 20
22.1571157463
 10
22.1939282822
 20
22.1762696032
 10
22.1831193236
 20
22.1954577793
 10
22.1712664187
 20
22.214477295
 10
22.1583789685
 20
22.2332203408
 10
22.1547060686
 20
22.2382445812
  0
LINE
  5
317
100
AcDbEntity
  8
RACCORDO
100
AcDbLine
 62
7
  6
CONTINUOUS
 10
-42.6457876539
 20
-24.5
 11
-39.6457876539
 21
-24.5
  0
LINE
  5
318
100
AcDbEntity
  8
RACCORDO
100
AcDbLine
 62
253
  6
CONTINUOUS
 10
-39.3957876539
 20
-24.25
 11
-42.8957876539
 21
-24.25
  0
LINE
  5
319
100
AcDbEntity
  8
RACCORDO
100
AcDbLine
 62
253
  6
CONTINUOUS
 10
-39.3957876539
 20
-23.8443375673
 11
-39.6457876539
 21
-23.8443375673
  0
LINE
  5
31A
100
AcDbEntity
  8
RACCORDO
100
AcDbLine
 62
253
  6
CONTINUOUS
 10
-42.6457876539
 20
-23.8443375673
 11
-42.8957876539
 21
-23.8443375673
  0
LINE
  5
31B
100
AcDbEntity
  8
RACCORDO
100
AcDbLine
 62
7
  6
CONTINUOUS
 10
-39.3957876539
 20
-23.8
 11
-32.8957876539
 21
-23.8
  0
LINE
  5
31C
100
AcDbEntity
  8
DRAFT
100
AcDbLine
 62
7
  6
CONTINUOUS
 10
-42.3957876539
 20
-21.9048099646
 11
-41.7457876539
 21
-21.825
  0
LINE
  5
31D
100
AcDbEntity
  8
RACCORDO
100
AcDbLine
 62
253
  6
CONTINUOUS
 10
-41.6490673859
 20
-22.4339535759
 11
-40.6490977866
 21
-22.4147568546
  0
LINE
  5
31E
100
AcDbEntity
  8
RACCORDO
100
AcDbLine
 62
253
  6
CONTINUOUS
 10
-41.6457876539
 20
-22.6218492968
 11
-40.6457876539
 21
-22.6043942318
  0
LINE
  5
31F
100
AcDbEntity
  8
RACCORDO
100
AcDbLine
 62
7
  6
CONTINUOUS
 10
-42.3957876539
 20
-22.4349101299
 11
-42.0506530326
 21
-22.4288857826
  0
LINE
  5
320
100
AcDbEntity
  8
RACCORDO
100
AcDbLine
 62
7
  6
CONTINUOUS
 10
-40.2653082761
 20
-22.397722474
 11
-30.3783352474
 21
-22.2251447178
  0
LINE
  5
321
100
AcDbEntity
  8
RACCORDO
100
AcDbLine
 62
253
  6
CONTINUOUS
 10
-42.3957876539
 20
-21.9346816494
 11
-42.0681032807
 21
-21.9289696893
  0
LINE
  5
322
100
AcDbEntity
  8
RACCORDO
100
AcDbLine
 62
253
  6
CONTINUOUS
 10
-40.2827322238
 20
-21.8978033211
 11
-39.3957876539
 21
-21.8823164546
  0
LINE
  5
323
100
AcDbEntity
  8
RACCORDO
100
AcDbLine
 62
253
  6
CONTINUOUS
 10
-40.6457876539
 20
-22.9783121635
 11
-40.3957876539
 21
-22.9783121635
  0
LINE
  5
324
100
AcDbEntity
  8
RACCORDO
100
AcDbLine
 62
253
  6
CONTINUOUS
 10
-41.6457876539
 20
-22.9783121635
 11
-41.8957876539
 21
-22.9783121635
  0
LINE
  5
325
100
AcDbEntity
  8
ASSI
100
AcDbLine
 62
7
  6
CONTINUOUS
 10
-42.5526603154
 20
-21.5097447122
 11
-48.2780640109
 21
-21.9101039397
  0
LINE
  5
326
100
AcDbEntity
  8
RACCORDO
100
AcDbLine
 62
7
  6
CONTINUOUS
 10
-42.5526603154
 20
-21.5097447122
 11
-48.2780640109
 21
-21.9101039397
  0
LINE
  5
327
100
AcDbEntity
  8
ASSI
100
AcDbLine
 62
253
  6
CONTINUOUS
 10
-42.6223742902
 20
-20.7129103339
 11
-48.3477779857
 21
-21.1132695615
  0
LINE
  5
328
100
AcDbEntity
  8
RACCORDO
100
AcDbLine
 62
253
  6
CONTINUOUS
 10
-42.6223742902
 20
-20.7129103339
 11
-48.3477779857
 21
-21.1132695615
  0
LINE
  5
329
100
AcDbEntity
  8
DRAFT
100
AcDbLine
 62
7
  6
CONTINUOUS
 10
-39.3957876539
 20
-20.9
 11
-29.3957876539
 21
-20.9
  0
LINE
  5
32A
100
AcDbEntity
  8
RACCORDO
100
AcDbLine
 62
7
  6
CONTINUOUS
 10
-39.3957876539
 20
-21.4
 11
-29.4583531014
 21
-21.5734585653
  0
LINE
  5
32B
100
AcDbEntity
  8
RACCORDO
100
AcDbLine
 62
253
  6
CONTINUOUS
 10
-40.3957876539
 20
23.4113248654
 11
-39.6457876539
 21
23.8443375673
  0
LINE
  5
32C
100
AcDbEntity
  8
RACCORDO
100
AcDbLine
 62
7
  6
CONTINUOUS
 10
-40.2707876539
 20
23.1948185145
 11
-39.5207876539
 21
23.6278312164
  0
LINE
  5
32D
100
AcDbEntity
  8
ASSI
100
AcDbLine
 62
253
  6
CONTINUOUS
 10
-49.8646793748
 20
-20.6455621794
 11
-49.0881985047
 21
-20.5231500758
  0
LINE
  5
32E
100
AcDbEntity
  8
RACCORDO
100
AcDbLine
 62
253
  6
CONTINUOUS
 10
-49.8646793748
 20
-20.6455621794
 11
-49.0881985047
 21
-20.5231500758
  0
LINE
  5
32F
100
AcDbEntity
  8
RACCORDO
100
AcDbLine
 62
7
  6
CONTINUOUS
 10
-42.8263779155
 20
-18.3811382268
 11
-41.9369614593
 21
-18.3966630488
  0
LINE
  5
330
100
AcDbEntity
  8
RACCORDO
100
AcDbLine
 62
253
  6
CONTINUOUS
 10
-39.6457876539
 20
-23.8443375673
 11
-40.3957876539
 21
-23.4113248654
  0
LINE
  5
331
100
AcDbEntity
  8
RACCORDO
100
AcDbLine
 62
7
  6
CONTINUOUS
 10
-39.5207876539
 20
-23.6278312164
 11
-40.2707876539
 21
-23.1948185145
  0
LINE
  5
332
100
AcDbEntity
  8
RACCORDO
100
AcDbLine
 62
253
  6
CONTINUOUS
 10
-42.8701824797
 20
-17.8804497677
 11
-41.9984762287
 21
-17.8956654569
  0
LINE
  5
333
100
AcDbEntity
  8
ASSI
100
AcDbLine
 62
7
  6
CONTINUOUS
 10
-39.3957876539
 20
-14.828613
 11
-39.1957876539
 21
-14.828613
  0
LINE
  5
334
100
AcDbEntity
  8
ASSI
100
AcDbLine
 62
7
  6
CONTINUOUS
 10
-39.3957876539
 20
-14.328588
 11
-39.1957876539
 21
-14.328588
  0
LINE
  5
335
100
AcDbEntity
  8
RACCORDO
100
AcDbLine
 62
253
  6
CONTINUOUS
 10
-42.6457876539
 20
23.8443375673
 11
-42.7707876539
 21
23.6278312164
  0
LINE
  5
336
100
AcDbEntity
  8
RACCORDO
100
AcDbLine
 62
7
  6
CONTINUOUS
 10
-39.3957876539
 20
14.8602976573
 11
-29.3957876539
 21
18.5
  0
LINE
  5
337
100
AcDbEntity
  8
RACCORDO
100
AcDbLine
 62
253
  6
CONTINUOUS
 10
-39.3957876539
 20
15.457133768
 11
-29.3957876539
 21
19.0042403804
  0
LINE
  5
338
100
AcDbEntity
  8
ASSI
100
AcDbLine
 62
7
  6
CONTINUOUS
 10
-39.3957876539
 20
-13.775888
 11
-39.1957876539
 21
-13.775888
  0
LINE
  5
339
100
AcDbEntity
  8
ASSI
100
AcDbLine
 62
7
  6
CONTINUOUS
 10
-39.3957876539
 20
-13.223194
 11
-39.1957876539
 21
-13.223194
  0
LINE
  5
33A
100
AcDbEntity
  8
ASSI
100
AcDbLine
 62
7
  6
CONTINUOUS
 10
-39.3957876539
 20
-12.723169
 11
-39.1957876539
 21
-12.723169
  0
LINE
  5
33B
100
AcDbEntity
  8
RACCORDO
100
AcDbLine
 62
253
  6
CONTINUOUS
 10
-39.3957876539
 20
-15.457133768
 11
-29.3957876539
 21
-19.0042403804
  0
LINE
  5
33C
100
AcDbEntity
  8
RACCORDO
100
AcDbLine
 62
7
  6
CONTINUOUS
 10
-29.3957876539
 20
-18.5
 11
-39.3957876539
 21
-14.8602976573
  0
LINE
  5
33D
100
AcDbEntity
  8
RACCORDO
100
AcDbLine
 62
253
  6
CONTINUOUS
 10
-42.6457876539
 20
-23.8443375673
 11
-42.7707876539
 21
-23.6278312164
  0
LINE
  5
33E
100
AcDbEntity
  8
RACCORDO
100
AcDbLine
 62
253
  6
CONTINUOUS
 10
-41.8957876539
 20
23.4113248654
 11
-42.0207876539
 21
23.1948185145
  0
LINE
  5
33F
100
AcDbEntity
  8
ASSI
100
AcDbLine
 62
7
  6
CONTINUOUS
 10
-39.3957876539
 20
-12.389825
 11
-39.1957876539
 21
-12.389825
  0
LINE
  5
340
100
AcDbEntity
  8
ASSI
100
AcDbLine
 62
7
  6
CONTINUOUS
 10
-39.3957876539
 20
-11.889806
 11
-39.1957876539
 21
-11.889806
  0
LINE
  5
341
100
AcDbEntity
  8
ASSI
100
AcDbLine
 62
7
  6
CONTINUOUS
 10
-39.3957876539
 20
-11.389806
 11
-39.1957876539
 21
-11.389806
  0
LINE
  5
342
100
AcDbEntity
  8
RACCORDO
100
AcDbLine
 62
253
  6
CONTINUOUS
 10
-41.8957876539
 20
-23.4113248654
 11
-42.0207876539
 21
-23.1948185145
  0
LINE
  5
343
100
AcDbEntity
  8
CURVE
100
AcDbLine
 62
253
  6
CONTINUOUS
 10
-50.8394528848
 20
-13.914754231
 11
-50.8366084687
 21
-13.9360919481
  0
LINE
  5
344
100
AcDbEntity
  8
CURVE
100
AcDbLine
 62
253
  6
CONTINUOUS
 10
-51.0132743227
 20
-12.5878605854
 11
-51.0149903078
 21
-12.5745281964
  0
LINE
  5
345
100
AcDbEntity
  8
ASSI
100
AcDbLine
 62
7
  6
CONTINUOUS
 10
-39.3957876539
 20
-10.633913
 11
-39.1957876539
 21
-10.633913
  0
LINE
  5
346
100
AcDbEntity
  8
ASSI
100
AcDbLine
 62
7
  6
CONTINUOUS
 10
-39.3957876539
 20
-10.167044
 11
-39.1957876539
 21
-10.167044
  0
LINE
  5
347
100
AcDbEntity
  8
ASSI
100
AcDbLine
 62
7
  6
CONTINUOUS
 10
-39.3957876539
 20
-9.700175
 11
-39.1957876539
 21
-9.700175
  0
LINE
  5
348
100
AcDbEntity
  8
ASSI
100
AcDbLine
 62
7
  6
CONTINUOUS
 10
-39.3957876539
 20
-8.944281
 11
-39.1957876539
 21
-8.944281
  0
LINE
  5
349
100
AcDbEntity
  8
ASSI
100
AcDbLine
 62
7
  6
CONTINUOUS
 10
-39.3957876539
 20
-8.610937
 11
-39.1957876539
 21
-8.610937
  0
LINE
  5
34A
100
AcDbEntity
  8
ASSI
100
AcDbLine
 62
7
  6
CONTINUOUS
 10
-39.3957876539
 20
-7.808244
 11
-39.1957876539
 21
-7.808244
  0
LINE
  5
34B
100
AcDbEntity
  8
ASSI
100
AcDbLine
 62
7
  6
CONTINUOUS
 10
-39.3957876539
 20
-7.3082
 11
-39.1957876539
 21
-7.3082
  0
LINE
  5
34C
100
AcDbEntity
  8
ASSI
100
AcDbLine
 62
7
  6
CONTINUOUS
 10
-39.3957876539
 20
-6.505494
 11
-39.1957876539
 21
-6.505494
  0
LINE
  5
34D
100
AcDbEntity
  8
ASSI
100
AcDbLine
 62
7
  6
CONTINUOUS
 10
-39.3957876539
 20
-6.17215
 11
-39.1957876539
 21
-6.17215
  0
LINE
  5
34E
100
AcDbEntity
  8
ASSI
100
AcDbLine
 62
7
  6
CONTINUOUS
 10
-39.3957876539
 20
-5.001275
 11
-39.1957876539
 21
-5.001275
  0
LINE
  5
34F
100
AcDbEntity
  8
ASSI
100
AcDbLine
 62
7
  6
CONTINUOUS
 10
-39.3957876539
 20
-4.2345591971
 11
-39.1957876539
 21
-4.2345591971
  0
LINE
  5
350
100
AcDbEntity
  8
ASSI
100
AcDbLine
 62
7
  6
CONTINUOUS
 10
-39.3957876539
 20
-4.171387
 11
-39.1957876539
 21
-4.171387
  0
LINE
  5
351
100
AcDbEntity
  8
RACCORDO
100
AcDbLine
 62
7
  6
CONTINUOUS
 10
-46.3613662735
 20
22.0239635944
 11
-42.5526603154
 21
-21.5097447122
  0
LINE
  5
352
100
AcDbEntity
  8
ASSI
100
AcDbLine
 62
7
  6
CONTINUOUS
 10
-46.3613662735
 20
22.0239635944
 11
-42.5526603154
 21
-21.5097447122
  0
LINE
  5
353
100
AcDbEntity
  8
DRAFT
100
AcDbLine
 62
7
  6
CONTINUOUS
 10
-44.1957876539
 20
0.0
 11
-41.7457876539
 21
19.9536487485
  0
LINE
  5
354
100
AcDbEntity
  8
DRAFT
100
AcDbLine
 62
7
  6
CONTINUOUS
 10
-41.7457876539
 20
-19.9536487485
 11
-44.1957876539
 21
0.0
  0
LINE
  5
355
100
AcDbEntity
  8
RACCORDO
100
AcDbLine
 62
253
  6
CONTINUOUS
 10
-41.6457876539
 20
-22.6218492968
 11
-41.6490673859
 21
-22.4339535759
  0
LINE
  5
356
100
AcDbEntity
  8
RACCORDO
100
AcDbLine
 62
7
  6
CONTINUOUS
 10
-42.8957876539
 20
24.25
 11
-42.8957876539
 21
23.8443375673
  0
LINE
  5
357
100
AcDbEntity
  8
RACCORDO
100
AcDbLine
 62
7
  6
CONTINUOUS
 10
-42.8957876539
 20
-23.8443375673
 11
-42.8957876539
 21
-24.25
  0
LINE
  5
358
100
AcDbEntity
  8
RACCORDO
100
AcDbLine
 62
253
  6
CONTINUOUS
 10
-42.6457876539
 20
24.5
 11
-42.6457876539
 21
23.8443375673
  0
LINE
  5
359
100
AcDbEntity
  8
RACCORDO
100
AcDbLine
 62
253
  6
CONTINUOUS
 10
-42.6457876539
 20
-23.8443375673
 11
-42.6457876539
 21
-24.5
  0
LINE
  5
35A
100
AcDbEntity
  8
RACCORDO
100
AcDbLine
 62
7
  6
CONTINUOUS
 10
-42.3957876539
 20
-22.4349101299
 11
-42.3957876539
 21
-21.9048099646
  0
LINE
  5
35B
100
AcDbEntity
  8
RACCORDO
100
AcDbLine
 62
7
  6
CONTINUOUS
 10
-42.3957876539
 20
21.9048099646
 11
-42.3957876539
 21
22.4349101299
  0
LINE
  5
35C
100
AcDbEntity
  8
RACCORDO
100
AcDbLine
 62
7
  6
CONTINUOUS
 10
-41.8957876539
 20
22.9783121635
 11
-41.8957876539
 21
22.629704076
  0
LINE
  5
35D
100
AcDbEntity
  8
RACCORDO
100
AcDbLine
 62
7
  6
CONTINUOUS
 10
-41.8957876539
 20
-22.629704076
 11
-41.8957876539
 21
-22.9783121635
  0
LINE
  5
35E
100
AcDbEntity
  8
DRAFT
100
AcDbLine
 62
7
  6
CONTINUOUS
 10
-41.7457876539
 20
-21.825
 11
-41.7457876539
 21
-19.9536487485
  0
LINE
  5
35F
100
AcDbEntity
  8
DRAFT
100
AcDbLine
 62
7
  6
CONTINUOUS
 10
-41.7457876539
 20
19.9536487485
 11
-41.7457876539
 21
21.825
  0
LINE
  5
360
100
AcDbEntity
  8
RACCORDO
100
AcDbLine
 62
253
  6
CONTINUOUS
 10
-41.6457876539
 20
22.9783121635
 11
-41.6457876539
 21
22.6218492968
  0
LINE
  5
361
100
AcDbEntity
  8
RACCORDO
100
AcDbLine
 62
253
  6
CONTINUOUS
 10
-41.6457876539
 20
-22.6218492968
 11
-41.6457876539
 21
-22.9783121635
  0
LINE
  5
362
100
AcDbEntity
  8
RACCORDO
100
AcDbLine
 62
253
  6
CONTINUOUS
 10
-41.6490673858
 20
22.4339535759
 11
-41.6457876539
 21
22.6218492968
  0
LINE
  5
363
100
AcDbEntity
  8
RACCORDO
100
AcDbLine
 62
253
  6
CONTINUOUS
 10
-40.6457876539
 20
-22.6043942318
 11
-40.6490977866
 21
-22.4147568546
  0
LINE
  5
364
100
AcDbEntity
  8
RACCORDO
100
AcDbLine
 62
253
  6
CONTINUOUS
 10
-40.6457876539
 20
-22.9783121635
 11
-40.6457876539
 21
-22.6043942318
  0
LINE
  5
365
100
AcDbEntity
  8
RACCORDO
100
AcDbLine
 62
253
  6
CONTINUOUS
 10
-40.6457876539
 20
22.6043942318
 11
-40.6457876539
 21
22.9783121635
  0
LINE
  5
366
100
AcDbEntity
  8
RACCORDO
100
AcDbLine
 62
7
  6
CONTINUOUS
 10
-40.3957876539
 20
-22.9783121635
 11
-40.3957876539
 21
-22.5965394526
  0
LINE
  5
367
100
AcDbEntity
  8
RACCORDO
100
AcDbLine
 62
7
  6
CONTINUOUS
 10
-40.3957876539
 20
22.5965394526
 11
-40.3957876539
 21
22.9783121635
  0
LINE
  5
368
100
AcDbEntity
  8
RACCORDO
100
AcDbLine
 62
253
  6
CONTINUOUS
 10
-39.6457876539
 20
24.5
 11
-39.6457876539
 21
23.8443375673
  0
LINE
  5
369
100
AcDbEntity
  8
RACCORDO
100
AcDbLine
 62
253
  6
CONTINUOUS
 10
-39.6457876539
 20
-23.8443375673
 11
-39.6457876539
 21
-24.5
  0
LINE
  5
36A
100
AcDbEntity
  8
RACCORDO
100
AcDbLine
 62
7
  6
CONTINUOUS
 10
-39.3957876539
 20
24.25
 11
-39.3957876539
 21
23.8443375673
  0
LINE
  5
36B
100
AcDbEntity
  8
RACCORDO
100
AcDbLine
 62
7
  6
CONTINUOUS
 10
-39.3957876539
 20
-23.8443375673
 11
-39.3957876539
 21
-24.25
  0
LINE
  5
36C
100
AcDbEntity
  8
RACCORDO
100
AcDbLine
 62
7
  6
CONTINUOUS
 10
-39.3957876539
 20
-22.3825449351
 11
-39.3957876539
 21
22.3825449351
  0
LINE
  5
36D
100
AcDbEntity
  8
RACCORDO
100
AcDbLine
 62
253
  6
CONTINUOUS
 10
-40.6490977867
 20
22.4147568546
 11
-40.6457876539
 21
22.6043942318
  0
LINE
  5
36E
100
AcDbEntity
  8
ASSI
100
AcDbLine
 62
7
  6
CONTINUOUS
 10
-39.1957876539
 20
-4.171387
 11
-39.1957876539
 21
-6.17215
  0
LINE
  5
36F
100
AcDbEntity
  8
ASSI
100
AcDbLine
 62
7
  6
CONTINUOUS
 10
-39.1957876539
 20
-6.505494
 11
-39.1957876539
 21
-8.610937
  0
LINE
  5
370
100
AcDbEntity
  8
ASSI
100
AcDbLine
 62
7
  6
CONTINUOUS
 10
-39.1957876539
 20
-8.944281
 11
-39.1957876539
 21
-11.389806
  0
LINE
  5
371
100
AcDbEntity
  8
ASSI
100
AcDbLine
 62
7
  6
CONTINUOUS
 10
-39.1957876539
 20
-11.889806
 11
-39.1957876539
 21
-12.389825
  0
LINE
  5
372
100
AcDbEntity
  8
ASSI
100
AcDbLine
 62
7
  6
CONTINUOUS
 10
-39.1957876539
 20
-12.723169
 11
-39.1957876539
 21
-14.828613
  0
LINE
  5
373
100
AcDbEntity
  8
RACCORDO
100
AcDbLine
 62
7
  6
CONTINUOUS
 10
-32.3957876539
 20
-23.3
 11
-32.3957876539
 21
-22.2603594806
  0
LINE
  5
374
100
AcDbEntity
  8
RACCORDO
100
AcDbLine
 62
7
  6
CONTINUOUS
 10
-32.3957876539
 20
22.2603594806
 11
-32.3957876539
 21
23.3
  0
LINE
  5
375
100
AcDbEntity
  8
RACCORDO
100
AcDbLine
 62
7
  6
CONTINUOUS
 10
-29.3957876539
 20
21.2252970227
 11
-29.3957876539
 21
18.5002938467
  0
LINE
  5
376
100
AcDbEntity
  8
RACCORDO
100
AcDbLine
 62
7
  6
CONTINUOUS
 10
-29.3957876539
 20
-18.5002938467
 11
-29.3957876539
 21
-21.2252970227
  0
LINE
  5
377
100
AcDbEntity
  8
RACCORDO
100
AcDbLine
 62
253
  6
CONTINUOUS
 10
-40.3957876539
 20
-23.4113248654
 11
-40.2707876539
 21
-23.1948185145
  0
LINE
  5
378
100
AcDbEntity
  8
RACCORDO
100
AcDbLine
 62
253
  6
CONTINUOUS
 10
-40.3957876539
 20
23.4113248654
 11
-40.2707876539
 21
23.1948185145
  0
LINE
  5
379
100
AcDbEntity
  8
RACCORDO
100
AcDbLine
 62
253
  6
CONTINUOUS
 10
-39.6457876539
 20
-23.8443375673
 11
-39.5207876539
 21
-23.6278312164
  0
LINE
  5
37A
100
AcDbEntity
  8
RACCORDO
100
AcDbLine
 62
253
  6
CONTINUOUS
 10
-39.6457876539
 20
23.8443375673
 11
-39.5207876539
 21
23.6278312164
  0
LINE
  5
37B
100
AcDbEntity
  8
RACCORDO
100
AcDbLine
 62
253
  6
CONTINUOUS
 10
-45.9940852112
 20
17.8259218427
 11
-41.9984762287
 21
17.8956654569
  0
LINE
  5
37C
100
AcDbEntity
  8
RACCORDO
100
AcDbLine
 62
7
  6
CONTINUOUS
 10
-46.0377561897
 20
18.3250834105
 11
-41.9369614593
 21
18.3966630488
  0
LINE
  5
37D
100
AcDbEntity
  8
RACCORDO
100
AcDbLine
 62
7
  6
CONTINUOUS
 10
-42.0207876539
 20
-23.1948185145
 11
-42.7707876539
 21
-23.6278312164
  0
LINE
  5
37E
100
AcDbEntity
  8
RACCORDO
100
AcDbLine
 62
253
  6
CONTINUOUS
 10
-41.8957876539
 20
-23.4113248654
 11
-42.6457876539
 21
-23.8443375673
  0
LINE
  5
37F
100
AcDbEntity
  8
ASSI
100
AcDbLine
 62
253
  6
CONTINUOUS
 10
-53.4122141273
 20
19.9031915612
 11
-52.6262945917
 21
19.9174732508
  0
LINE
  5
380
100
AcDbEntity
  8
RACCORDO
100
AcDbLine
 62
253
  6
CONTINUOUS
 10
-53.4122141273
 20
19.9031915612
 11
-52.6262945917
 21
19.9174732508
  0
LINE
  5
381
100
AcDbEntity
  8
RACCORDO
100
AcDbLine
 62
7
  6
CONTINUOUS
 10
-42.7707876539
 20
23.6278312164
 11
-42.0207876539
 21
23.1948185145
  0
LINE
  5
382
100
AcDbEntity
  8
RACCORDO
100
AcDbLine
 62
253
  6
CONTINUOUS
 10
-42.6457876539
 20
23.8443375673
 11
-41.8957876539
 21
23.4113248654
  0
LINE
  5
383
100
AcDbEntity
  8
ASSI
100
AcDbLine
 62
253
  6
CONTINUOUS
 10
-51.9995958974
 20
20.6272001693
 11
-46.2916522987
 21
21.2271292162
  0
LINE
  5
384
100
AcDbEntity
  8
RACCORDO
100
AcDbLine
 62
253
  6
CONTINUOUS
 10
-51.9995958974
 20
20.6272001693
 11
-46.2916522987
 21
21.2271292162
  0
LINE
  5
385
100
AcDbEntity
  8
RACCORDO
100
AcDbLine
 62
7
  6
CONTINUOUS
 10
-39.3957876539
 20
21.4
 11
-29.4583531014
 21
21.5734585653
  0
LINE
  5
386
100
AcDbEntity
  8
DRAFT
100
AcDbLine
 62
7
  6
CONTINUOUS
 10
-39.3957876539
 20
20.9
 11
-29.3957876539
 21
20.9
  0
LINE
  5
387
100
AcDbEntity
  8
RACCORDO
100
AcDbLine
 62
253
  6
CONTINUOUS
 10
-40.2827182196
 20
21.8977978048
 11
-39.3957876539
 21
21.8823164546
  0
LINE
  5
388
100
AcDbEntity
  8
RACCORDO
100
AcDbLine
 62
253
  6
CONTINUOUS
 10
-42.3957876539
 20
21.9346816494
 11
-42.0681118721
 21
21.9289665538
  0
LINE
  5
389
100
AcDbEntity
  8
DRAFT
100
AcDbLine
 62
7
  6
CONTINUOUS
 10
-41.7457876539
 20
21.825
 11
-42.3957876539
 21
21.9048099646
  0
LINE
  5
38A
100
AcDbEntity
  8
ASSI
100
AcDbLine
 62
7
  6
CONTINUOUS
 10
-52.0693098722
 20
21.4240345475
 11
-46.3613662735
 21
22.0239635944
  0
LINE
  5
38B
100
AcDbEntity
  8
RACCORDO
100
AcDbLine
 62
7
  6
CONTINUOUS
 10
-52.0693098722
 20
21.4240345475
 11
-46.3613662735
 21
22.0239635944
  0
LINE
  5
38C
100
AcDbEntity
  8
RACCORDO
100
AcDbLine
 62
253
  6
CONTINUOUS
 10
-40.6457876539
 20
22.9783121635
 11
-40.3957876539
 21
22.9783121635
  0
LINE
  5
38D
100
AcDbEntity
  8
RACCORDO
100
AcDbLine
 62
253
  6
CONTINUOUS
 10
-41.6457876539
 20
22.9783121635
 11
-41.8957876539
 21
22.9783121635
  0
LINE
  5
38E
100
AcDbEntity
  8
RACCORDO
100
AcDbLine
 62
7
  6
CONTINUOUS
 10
-32.8957876539
 20
23.8
 11
-39.3957876539
 21
23.8
  0
LINE
  5
38F
100
AcDbEntity
  8
RACCORDO
100
AcDbLine
 62
253
  6
CONTINUOUS
 10
-39.3957876539
 20
23.8443375673
 11
-39.6457876539
 21
23.8443375673
  0
LINE
  5
390
100
AcDbEntity
  8
RACCORDO
100
AcDbLine
 62
253
  6
CONTINUOUS
 10
-42.6457876539
 20
23.8443375673
 11
-42.8957876539
 21
23.8443375673
  0
LINE
  5
391
100
AcDbEntity
  8
RACCORDO
100
AcDbLine
 62
7
  6
CONTINUOUS
 10
-42.3957876539
 20
22.4349101299
 11
-42.0506267379
 21
22.4288853237
  0
LINE
  5
392
100
AcDbEntity
  8
RACCORDO
100
AcDbLine
 62
7
  6
CONTINUOUS
 10
-40.2652665255
 20
22.3977217452
 11
-30.3783352474
 21
22.2251447178
  0
LINE
  5
393
100
AcDbEntity
  8
RACCORDO
100
AcDbLine
 62
253
  6
CONTINUOUS
 10
-41.6457876539
 20
22.6218492968
 11
-40.6457876539
 21
22.6043942318
  0
LINE
  5
394
100
AcDbEntity
  8
RACCORDO
100
AcDbLine
 62
253
  6
CONTINUOUS
 10
-41.6490673858
 20
22.4339535759
 11
-40.6490977867
 21
22.4147568546
  0
LINE
  5
395
100
AcDbEntity
  8
RACCORDO
100
AcDbLine
 62
253
  6
CONTINUOUS
 10
-39.3957876539
 20
24.25
 11
-42.8957876539
 21
24.25
  0
LINE
  5
396
100
AcDbEntity
  8
RACCORDO
100
AcDbLine
 62
7
  6
CONTINUOUS
 10
-42.6457876539
 20
24.5
 11
-39.6457876539
 21
24.5
  0
ARC
  5
397
100
AcDbEntity
  8
ASSI
100
AcDbCircle
 62
253
  6
CONTINUOUS
 10
-17149.4706735123
 20
-0.371185517
 40
17128.1196941826
100
AcDbArc
 50
359.9321795674
 51
0.0678204326
  0
ARC
  5
398
100
AcDbEntity
  8
RACCORDO
100
AcDbCircle
 62
253
  6
CONTINUOUS
 10
-17149.4396936657
 20
-0.371185517
 40
17128.0887143576
100
AcDbArc
 50
359.9321794448
 51
0.0678205552
  0
ARC
  5
399
100
AcDbEntity
  8
ASSI
100
AcDbCircle
 62
253
  6
CONTINUOUS
 10
-17059.0422039307
 20
-0.3028384125
 40
17036.891346445
100
AcDbArc
 50
359.9319982286
 51
0.0680017714
  0
ARC
  5
39A
100
AcDbEntity
  8
RACCORDO
100
AcDbCircle
 62
253
  6
CONTINUOUS
 10
-17059.011608907
 20
-0.3028384125
 40
17036.8607514429
100
AcDbArc
 50
359.9319981065
 51
0.0680018935
  0
ARC
  5
39B
100
AcDbEntity
  8
ASSI
100
AcDbCircle
 62
253
  6
CONTINUOUS
 10
17047.6585712965
 20
-0.371185517
 40
17026.5576635416
100
AcDbArc
 50
179.9317750239
 51
180.0682249761
  0
ARC
  5
39C
100
AcDbEntity
  8
RACCORDO
100
AcDbCircle
 62
253
  6
CONTINUOUS
 10
17047.6275962668
 20
-0.371185517
 40
17026.5266885338
100
AcDbArc
 50
179.9317748998
 51
180.0682251002
  0
ARC
  5
39D
100
AcDbEntity
  8
ASSI
100
AcDbCircle
 62
253
  6
CONTINUOUS
 10
16957.7712651966
 20
-0.3028384125
 40
16935.8704792855
100
AcDbArc
 50
179.9315926043
 51
180.0684073957
  0
ARC
  5
39E
100
AcDbEntity
  8
RACCORDO
100
AcDbCircle
 62
253
  6
CONTINUOUS
 10
16957.7404502817
 20
-0.3028384125
 40
16935.8396643926
100
AcDbArc
 50
179.9315924798
 51
180.0684075202
  0
ARC
  5
39F
100
AcDbEntity
  8
RACCORDO
100
AcDbCircle
 62
253
  6
CONTINUOUS
 10
24.487088592
 20
-23.6146801358
 40
2.7918199744
100
AcDbArc
 50
143.2241207776
 51
143.7592473078
  0
ARC
  5
3A0
100
AcDbEntity
  8
RACCORDO
100
AcDbCircle
 62
253
  6
CONTINUOUS
 10
-2.2368556573
 20
-23.614507709
 40
2.7915301647
100
AcDbArc
 50
36.2407636687
 51
36.7758864968
  0
ARC
  5
3A1
100
AcDbEntity
  8
RACCORDO
100
AcDbCircle
 62
253
  6
CONTINUOUS
 10
-21.3741945688
 20
-21.1123403981
 40
0.8006398985
100
AcDbArc
 50
180.0664932516
 51
194.0133223399
  0
ARC
  5
3A2
100
AcDbEntity
  8
RACCORDO
100
AcDbCircle
 62
253
  6
CONTINUOUS
 10
21.1241946048
 20
-21.1123404158
 40
0.8006398625
100
AcDbArc
 50
345.9866900126
 51
359.9335080094
  0
ARC
  5
3A3
100
AcDbEntity
  8
ASSI
100
AcDbCircle
 62
253
  6
CONTINUOUS
 10
-21.3757453506
 20
-21.112657197
 40
0.7990888122
100
AcDbArc
 50
180.0439073915
 51
193.9996603475
  0
ARC
  5
3A4
100
AcDbEntity
  8
ASSI
100
AcDbCircle
 62
253
  6
CONTINUOUS
 10
21.1257533961
 20
-21.1126591572
 40
0.7990807652
100
AcDbArc
 50
346.0378767921
 51
359.9562327171
  0
ARC
  5
3A5
100
AcDbEntity
  8
RACCORDO
100
AcDbCircle
 62
253
  6
CONTINUOUS
 10
21.7554741814
 20
-21.8972488201
 40
0.5040736799
100
AcDbArc
 50
349.1685633917
 51
351.2804536891
  0
ARC
  5
3A6
100
AcDbEntity
  8
RACCORDO
100
AcDbCircle
 62
253
  6
CONTINUOUS
 10
0.4945181057
 20
-21.8972499953
 40
0.5040661112
100
AcDbArc
 50
189.0270712674
 51
190.8332201089
  0
ARC
  5
3A7
100
AcDbEntity
  8
RACCORDO
100
AcDbCircle
 62
7
  6
CONTINUOUS
 10
21.749659225
 20
-21.9403284625
 40
0.5031676528
100
AcDbArc
 50
342.2010024617
 51
359.9620112625
  0
ARC
  5
3A8
100
AcDbEntity
  8
RACCORDO
100
AcDbCircle
 62
7
  6
CONTINUOUS
 10
0.5003362537
 20
-21.9403343595
 40
0.5031613001
100
AcDbArc
 50
180.0377031808
 51
197.7988984183
  0
ARC
  5
3A9
100
AcDbEntity
  8
RACCORDO
100
AcDbCircle
 62
7
  6
CONTINUOUS
 10
21.7339171657
 20
-21.9616605137
 40
0.5029002018
100
AcDbArc
 50
295.8778126745
 51
313.2711072903
  0
ARC
  5
3AA
100
AcDbEntity
  8
RACCORDO
100
AcDbCircle
 62
253
  6
CONTINUOUS
 10
0.4920675914
 20
-21.8975840426
 40
0.5015935388
100
AcDbArc
 50
181.8499527573
 51
189.0333056334
  0
ARC
  5
3AB
100
AcDbEntity
  8
RACCORDO
100
AcDbCircle
 62
7
  6
CONTINUOUS
 10
21.751695296
 20
-21.9400281137
 40
0.5013479252
100
AcDbArc
 50
323.5046158079
 51
336.1552771134
  0
ARC
  5
3AC
100
AcDbEntity
  8
RACCORDO
100
AcDbCircle
 62
7
  6
CONTINUOUS
 10
0.4980990522
 20
-21.9402070922
 40
0.5010876415
100
AcDbArc
 50
203.8358834468
 51
209.7805686467
  0
ARC
  5
3AD
100
AcDbEntity
  8
RACCORDO
100
AcDbCircle
 62
253
  6
CONTINUOUS
 10
21.7593301713
 20
-21.8977376723
 40
0.5001881579
100
AcDbArc
 50
351.2688432549
 51
359.9924800347
  0
ARC
  5
3AE
100
AcDbEntity
  8
RACCORDO
100
AcDbCircle
 62
7
  6
CONTINUOUS
 10
0.5145576464
 20
-21.9641079747
 40
0.5000685324
100
AcDbArc
 50
217.1118435871
 51
220.8332227197
  0
ARC
  5
3AF
100
AcDbEntity
  8
RACCORDO
100
AcDbCircle
 62
7
  6
CONTINUOUS
 10
21.7354630088
 20
-21.964125282
 40
0.5000415878
100
AcDbArc
 50
313.3466053665
 51
323.0082779922
  0
ARC
  5
3B0
100
AcDbEntity
  8
RACCORDO
100
AcDbCircle
 62
7
  6
CONTINUOUS
 10
0.5142665355
 20
-21.9644362906
 40
0.4996400045
100
AcDbArc
 50
179.9745404035
 51
214.9908295425
  0
ARC
  5
3B1
100
AcDbEntity
  8
RACCORDO
100
AcDbCircle
 62
7
  6
CONTINUOUS
 10
21.7357633853
 20
-21.9644448118
 40
0.4996100876
100
AcDbArc
 50
323.7587108621
 51
0.0264383451
  0
ARC
  5
3B2
100
AcDbEntity
  8
RACCORDO
100
AcDbCircle
 62
7
  6
CONTINUOUS
 10
0.4966553137
 20
-21.9410408072
 40
0.4994204827
100
AcDbArc
 50
209.7798190304
 51
216.5195486777
  0
ARC
  5
3B3
100
AcDbEntity
  8
RACCORDO
100
AcDbCircle
 62
7
  6
CONTINUOUS
 10
0.4958041387
 20
-21.9415812206
 40
0.4984148572
100
AcDbArc
 50
216.8481571693
 51
217.9493044021
  0
ARC
  5
3B4
100
AcDbEntity
  8
RACCORDO
100
AcDbCircle
 62
7
  6
CONTINUOUS
 10
21.7361562218
 20
-21.9658596192
 40
0.4981449433
100
AcDbArc
 50
290.0030837568
 51
295.8568994644
  0
ARC
  5
3B5
100
AcDbEntity
  8
RACCORDO
100
AcDbCircle
 62
7
  6
CONTINUOUS
 10
0.5138437782
 20
-21.9658596191
 40
0.4981449433
100
AcDbArc
 50
244.1431005346
 51
249.9969162422
  0
ARC
  5
3B6
100
AcDbEntity
  8
RACCORDO
100
AcDbCircle
 62
7
  6
CONTINUOUS
 10
21.7548443252
 20
-21.9414981413
 40
0.497873416
100
AcDbArc
 50
336.1635086291
 51
342.1467667677
  0
ARC
  5
3B7
100
AcDbEntity
  8
RACCORDO
100
AcDbCircle
 62
7
  6
CONTINUOUS
 10
0.4951512047
 20
-21.9415039842
 40
0.4978671278
100
AcDbArc
 50
197.8531378647
 51
203.8364592115
  0
ARC
  5
3B8
100
AcDbEntity
  8
RACCORDO
100
AcDbCircle
 62
7
  6
CONTINUOUS
 10
0.5125857467
 20
-21.9655983276
 40
0.4975966641
100
AcDbArc
 50
214.9921938721
 51
216.2465422733
  0
ARC
  5
3B9
100
AcDbEntity
  8
RACCORDO
100
AcDbCircle
 62
7
  6
CONTINUOUS
 10
21.525
 20
-24.25
 40
0.25
100
AcDbArc
 50
270.0
 51
360.0
  0
ARC
  5
3BA
100
AcDbEntity
  8
RACCORDO
100
AcDbCircle
 62
7
  6
CONTINUOUS
 10
19.625
 20
-24.25
 40
0.25
100
AcDbArc
 50
180.0
 51
270.0
  0
ARC
  5
3BB
100
AcDbEntity
  8
RACCORDO
100
AcDbCircle
 62
7
  6
CONTINUOUS
 10
0.725
 20
-24.25
 40
0.25
100
AcDbArc
 50
180.0
 51
270.0
  0
ARC
  5
3BC
100
AcDbEntity
  8
RACCORDO
100
AcDbCircle
 62
7
  6
CONTINUOUS
 10
2.625
 20
-24.25
 40
0.25
100
AcDbArc
 50
270.0
 51
360.0
  0
ARC
  5
3BD
100
AcDbEntity
  8
RACCORDO
100
AcDbCircle
 62
253
  6
CONTINUOUS
 10
24.4868556576
 20
23.6145077091
 40
2.7915301649
100
AcDbArc
 50
216.2407636687
 51
216.7758864967
  0
ARC
  5
3BE
100
AcDbEntity
  8
RACCORDO
100
AcDbCircle
 62
253
  6
CONTINUOUS
 10
21.7554818943
 20
21.8972499953
 40
0.5040661112
100
AcDbArc
 50
9.0270712674
 51
10.8332201089
  0
ARC
  5
3BF
100
AcDbEntity
  8
RACCORDO
100
AcDbCircle
 62
7
  6
CONTINUOUS
 10
21.7496637463
 20
21.9403343595
 40
0.5031613001
100
AcDbArc
 50
0.0377031808
 51
17.7988984183
  0
ARC
  5
3C0
100
AcDbEntity
  8
RACCORDO
100
AcDbCircle
 62
253
  6
CONTINUOUS
 10
0.4926971459
 20
21.8962804148
 40
0.5026942258
100
AcDbArc
 50
137.532752644
 51
155.9465360308
  0
ARC
  5
3C1
100
AcDbEntity
  8
RACCORDO
100
AcDbCircle
 62
7
  6
CONTINUOUS
 10
21.7519009478
 20
21.9402070922
 40
0.5010876415
100
AcDbArc
 50
23.8358834468
 51
29.7805686467
  0
ARC
  5
3C2
100
AcDbEntity
  8
RACCORDO
100
AcDbCircle
 62
253
  6
CONTINUOUS
 10
21.7591241885
 20
21.8977251579
 40
0.5003943862
100
AcDbArc
 50
0.0083181598
 51
9.0387735942
  0
ARC
  5
3C3
100
AcDbEntity
  8
RACCORDO
100
AcDbCircle
 62
7
  6
CONTINUOUS
 10
21.7354423536
 20
21.9641079747
 40
0.5000685324
100
AcDbArc
 50
37.1118435872
 51
40.8332227197
  0
ARC
  5
3C4
100
AcDbEntity
  8
RACCORDO
100
AcDbCircle
 62
7
  6
CONTINUOUS
 10
21.7357334645
 20
21.9644362906
 40
0.4996400045
100
AcDbArc
 50
359.9745404035
 51
34.9908295425
  0
ARC
  5
3C5
100
AcDbEntity
  8
RACCORDO
100
AcDbCircle
 62
7
  6
CONTINUOUS
 10
21.7533446863
 20
21.9410408072
 40
0.4994204827
100
AcDbArc
 50
29.7798190304
 51
36.519548678
  0
ARC
  5
3C6
100
AcDbEntity
  8
RACCORDO
100
AcDbCircle
 62
253
  6
CONTINUOUS
 10
0.5139346425
 20
21.9646131704
 40
0.499267007
100
AcDbArc
 50
143.7538064278
 51
173.1678650604
  0
ARC
  5
3C7
100
AcDbEntity
  8
RACCORDO
100
AcDbCircle
 62
7
  6
CONTINUOUS
 10
0.4963973199
 20
21.9411317207
 40
0.4991596056
100
AcDbArc
 50
143.6246703156
 51
170.436048033
  0
ARC
  5
3C8
100
AcDbEntity
  8
RACCORDO
100
AcDbCircle
 62
7
  6
CONTINUOUS
 10
21.7541958615
 20
21.9415812207
 40
0.4984148571
100
AcDbArc
 50
36.8481571691
 51
37.9493044023
  0
ARC
  5
3C9
100
AcDbEntity
  8
RACCORDO
100
AcDbCircle
 62
7
  6
CONTINUOUS
 10
21.7361562218
 20
21.9658596191
 40
0.4981449433
100
AcDbArc
 50
64.1431005346
 51
69.9969162422
  0
ARC
  5
3CA
100
AcDbEntity
  8
RACCORDO
100
AcDbCircle
 62
7
  6
CONTINUOUS
 10
21.7548487953
 20
21.9415039842
 40
0.4978671278
100
AcDbArc
 50
17.8531378647
 51
23.8364592115
  0
ARC
  5
3CB
100
AcDbEntity
  8
RACCORDO
100
AcDbCircle
 62
7
  6
CONTINUOUS
 10
0.4956871259
 20
21.9422683231
 40
0.497855968
100
AcDbArc
 50
126.3557713521
 51
132.3391850639
  0
ARC
  5
3CC
100
AcDbEntity
  8
RACCORDO
100
AcDbCircle
 62
7
  6
CONTINUOUS
 10
21.7374142533
 20
21.9655983276
 40
0.4975966641
100
AcDbArc
 50
34.9921938722
 51
36.2465422733
  0
ARC
  5
3CD
100
AcDbEntity
  8
RACCORDO
100
AcDbCircle
 62
7
  6
CONTINUOUS
 10
19.625
 20
24.25
 40
0.25
100
AcDbArc
 50
90.0
 51
180.0
  0
ARC
  5
3CE
100
AcDbEntity
  8
RACCORDO
100
AcDbCircle
 62
7
  6
CONTINUOUS
 10
21.525
 20
24.25
 40
0.25
100
AcDbArc
 50
0.0
 51
90.0
  0
ARC
  5
3CF
100
AcDbEntity
  8
RACCORDO
100
AcDbCircle
 62
7
  6
CONTINUOUS
 10
2.625
 20
24.25
 40
0.25
100
AcDbArc
 50
0.0
 51
90.0
  0
ARC
  5
3D0
100
AcDbEntity
  8
RACCORDO
100
AcDbCircle
 62
7
  6
CONTINUOUS
 10
0.725
 20
24.25
 40
0.25
100
AcDbArc
 50
90.0
 51
180.0
  0
ARC
  5
3D1
100
AcDbEntity
  8
ASSI
100
AcDbCircle
 62
7
  6
CONTINUOUS
 10
-48.3826987216
 20
-20.4137578643
 40
1.5
100
AcDbArc
 50
188.8898991621
 51
274.0
  0
ARC
  5
3D2
100
AcDbEntity
  8
RACCORDO
100
AcDbCircle
 62
7
  6
CONTINUOUS
 10
-48.3826987216
 20
-20.4137578643
 40
1.5
100
AcDbArc
 50
188.8898991621
 51
274.0
  0
ARC
  5
3D3
100
AcDbEntity
  8
RACCORDO
100
AcDbCircle
 62
7
  6
CONTINUOUS
 10
-30.3957876539
 20
-21.2252970227
 40
1.0
100
AcDbArc
 50
271.0
 51
360.0
  0
ARC
  5
3D4
100
AcDbEntity
  8
ASSI
100
AcDbCircle
 62
253
  6
CONTINUOUS
 10
-48.3966074682
 20
-20.4149746646
 40
0.7000000581
100
AcDbArc
 50
188.8899035271
 51
273.999995635
  0
ARC
  5
3D5
100
AcDbEntity
  8
RACCORDO
100
AcDbCircle
 62
253
  6
CONTINUOUS
 10
-48.3966074737
 20
-20.4149746715
 40
0.7000000516
100
AcDbArc
 50
188.8899030367
 51
273.9999961254
  0
ARC
  5
3D6
100
AcDbEntity
  8
RACCORDO
100
AcDbCircle
 62
7
  6
CONTINUOUS
 10
-32.8957876539
 20
-23.3
 40
0.5
100
AcDbArc
 50
270.0
 51
360.0
  0
ARC
  5
3D7
100
AcDbEntity
  8
RACCORDO
100
AcDbCircle
 62
253
  6
CONTINUOUS
 10
-42.1457876539
 20
-22.9783121635
 40
0.5
100
AcDbArc
 50
300.0
 51
360.0
  0
ARC
  5
3D8
100
AcDbEntity
  8
RACCORDO
100
AcDbCircle
 62
253
  6
CONTINUOUS
 10
-40.1457876539
 20
-22.9783121635
 40
0.5
100
AcDbArc
 50
180.0
 51
240.0
  0
ARC
  5
3D9
100
AcDbEntity
  8
RACCORDO
100
AcDbCircle
 62
7
  6
CONTINUOUS
 10
-40.1457876539
 20
-22.9783121635
 40
0.25
100
AcDbArc
 50
180.0
 51
240.0
  0
ARC
  5
3DA
100
AcDbEntity
  8
RACCORDO
100
AcDbCircle
 62
7
  6
CONTINUOUS
 10
-42.6457876539
 20
-24.25
 40
0.25
100
AcDbArc
 50
180.0
 51
270.0
  0
ARC
  5
3DB
100
AcDbEntity
  8
RACCORDO
100
AcDbCircle
 62
7
  6
CONTINUOUS
 10
-42.1457876539
 20
-22.9783121635
 40
0.25
100
AcDbArc
 50
300.0
 51
360.0
  0
ARC
  5
3DC
100
AcDbEntity
  8
RACCORDO
100
AcDbCircle
 62
7
  6
CONTINUOUS
 10
-42.6457876539
 20
-23.8443375673
 40
0.25
100
AcDbArc
 50
120.0
 51
180.0
  0
ARC
  5
3DD
100
AcDbEntity
  8
RACCORDO
100
AcDbCircle
 62
7
  6
CONTINUOUS
 10
-39.6457876539
 20
-23.8443375673
 40
0.25
100
AcDbArc
 50
0.0
 51
60.0
  0
ARC
  5
3DE
100
AcDbEntity
  8
RACCORDO
100
AcDbCircle
 62
7
  6
CONTINUOUS
 10
-39.6457876539
 20
-24.25
 40
0.25
100
AcDbArc
 50
270.0
 51
360.0
  0
ARC
  5
3DF
100
AcDbEntity
  8
RACCORDO
100
AcDbCircle
 62
7
  6
CONTINUOUS
 10
-42.0957876539
 20
-22.629704076
 40
0.2
100
AcDbArc
 50
0.0000068603
 51
83.4166854745
  0
ARC
  5
3E0
100
AcDbEntity
  8
RACCORDO
100
AcDbCircle
 62
7
  6
CONTINUOUS
 10
-40.1957876539
 20
-22.5965394526
 40
0.2
100
AcDbArc
 50
98.416666667
 51
180.0
  0
ARC
  5
3E1
100
AcDbEntity
  8
ASSI
100
AcDbCircle
 62
7
  6
CONTINUOUS
 10
-51.9125171773
 20
19.9322517045
 40
1.5
100
AcDbArc
 50
96.0
 51
181.1101008379
  0
ARC
  5
3E2
100
AcDbEntity
  8
RACCORDO
100
AcDbCircle
 62
7
  6
CONTINUOUS
 10
-51.9125171773
 20
19.9322517045
 40
1.5
100
AcDbArc
 50
96.0
 51
181.1101008379
  0
ARC
  5
3E3
100
AcDbEntity
  8
ASSI
100
AcDbCircle
 62
253
  6
CONTINUOUS
 10
-51.926425914
 20
19.9310347903
 40
0.7000000581
100
AcDbArc
 50
96.0000043648
 51
181.1100964731
  0
ARC
  5
3E4
100
AcDbEntity
  8
RACCORDO
100
AcDbCircle
 62
253
  6
CONTINUOUS
 10
-51.9264259207
 20
19.9310347962
 40
0.7000000516
100
AcDbArc
 50
96.0000038744
 51
181.1100969635
  0
ARC
  5
3E5
100
AcDbEntity
  8
RACCORDO
100
AcDbCircle
 62
253
  6
CONTINUOUS
 10
-42.1457876539
 20
22.9783121635
 40
0.5
100
AcDbArc
 50
0.0
 51
60.0
  0
ARC
  5
3E6
100
AcDbEntity
  8
RACCORDO
100
AcDbCircle
 62
7
  6
CONTINUOUS
 10
-42.1457876539
 20
22.9783121635
 40
0.25
100
AcDbArc
 50
0.0
 51
60.0
  0
ARC
  5
3E7
100
AcDbEntity
  8
RACCORDO
100
AcDbCircle
 62
7
  6
CONTINUOUS
 10
-42.6457876539
 20
24.25
 40
0.25
100
AcDbArc
 50
90.0
 51
180.0
  0
ARC
  5
3E8
100
AcDbEntity
  8
RACCORDO
100
AcDbCircle
 62
7
  6
CONTINUOUS
 10
-42.6457876539
 20
23.8443375673
 40
0.25
100
AcDbArc
 50
180.0
 51
240.0
  0
ARC
  5
3E9
100
AcDbEntity
  8
RACCORDO
100
AcDbCircle
 62
7
  6
CONTINUOUS
 10
-42.0957848583
 20
22.6297040272
 40
0.1999987575
100
AcDbArc
 50
268.9991990114
 51
0.0000139794
  0
ARC
  5
3EA
100
AcDbEntity
  8
RACCORDO
100
AcDbCircle
 62
7
  6
CONTINUOUS
 10
-30.3957876539
 20
21.2252970227
 40
1.0
100
AcDbArc
 50
0.0
 51
89.0
  0
ARC
  5
3EB
100
AcDbEntity
  8
RACCORDO
100
AcDbCircle
 62
7
  6
CONTINUOUS
 10
-32.8957876539
 20
23.3
 40
0.5
100
AcDbArc
 50
0.0
 51
90.0
  0
ARC
  5
3EC
100
AcDbEntity
  8
RACCORDO
100
AcDbCircle
 62
253
  6
CONTINUOUS
 10
-40.1457876539
 20
22.9783121635
 40
0.5
100
AcDbArc
 50
120.0
 51
180.0
  0
ARC
  5
3ED
100
AcDbEntity
  8
RACCORDO
100
AcDbCircle
 62
7
  6
CONTINUOUS
 10
-40.1457876539
 20
22.9783121635
 40
0.25
100
AcDbArc
 50
120.0
 51
180.0
  0
ARC
  5
3EE
100
AcDbEntity
  8
RACCORDO
100
AcDbCircle
 62
7
  6
CONTINUOUS
 10
-39.6457876539
 20
24.25
 40
0.25
100
AcDbArc
 50
0.0
 51
90.0
  0
ARC
  5
3EF
100
AcDbEntity
  8
RACCORDO
100
AcDbCircle
 62
7
  6
CONTINUOUS
 10
-39.6457876539
 20
23.8443375673
 40
0.25
100
AcDbArc
 50
300.0
 51
360.0
  0
ARC
  5
3F0
100
AcDbEntity
  8
RACCORDO
100
AcDbCircle
 62
7
  6
CONTINUOUS
 10
-40.1957904494
 20
22.5965395014
 40
0.1999987575
100
AcDbArc
 50
180.0000139794
 51
269.0
  0
ARC
  5
3F1
100
AcDbEntity
  8
ASSI
100
AcDbCircle
 62
7
  6
CONTINUOUS
 10
246.5314580181
 20
25.7153018977
 40
300.0
100
AcDbArc
 50
181.1101008379
 51
188.8898991621
  0
ARC
  5
3F2
100
AcDbEntity
  8
CURVE
100
AcDbCircle
 62
253
  6
CONTINUOUS
 10
246.5314580181
 20
25.7153018977
 40
300.0
100
AcDbArc
 50
187.293808047
 51
187.5909692983
  0
ARC
  5
3F3
100
AcDbEntity
  8
CURVE
100
AcDbCircle
 62
253
  6
CONTINUOUS
 10
246.5314580181
 20
25.7153018977
 40
300.0
100
AcDbArc
 50
187.5950837149
 51
187.7125586953
  0
ARC
  5
3F4
100
AcDbEntity
  8
RACCORDO
100
AcDbCircle
 62
7
  6
CONTINUOUS
 10
246.5314580181
 20
25.7153018977
 40
300.0
100
AcDbArc
 50
181.1101008379
 51
188.8898991621
  0
ARC
  5
3F5
100
AcDbEntity
  8
ASSI
100
AcDbCircle
 62
253
  6
CONTINUOUS
 10
246.5180723744
 20
25.7141308056
 40
299.2005239406
100
AcDbArc
 50
181.1101076601
 51
188.8898923399
  0
ARC
  5
3F6
100
AcDbEntity
  8
RACCORDO
100
AcDbCircle
 62
253
  6
CONTINUOUS
 10
246.5175492232
 20
25.7140850358
 40
299.2000000009
100
AcDbArc
 50
181.1101008379
 51
188.8898991621
  0
SPLINE
  5
3F7
100
AcDbEntity
  8
RACCORDO
100
AcDbSpline
 62
7
  6
CONTINUOUS
 70
0
 71
3
 72
8
 73
4
 74
2
 42
0.0000001
 43
0.0000001
 44
0.0000000001
 12
0.1819296475
 22
-0.0881412623
 32
0.0
 13
0.1321801793
 23
-0.152956461
 33
0.0
 40
0.0
 40
0.0
 40
0.0
 40
0.0
 40
1.0
 40
1.0
 40
1.0
 40
1.0
 10
21.9534096732
 20
22.4141333329
 30
0.0
 10
22.0140528891
 20
22.3847529121
 30
0.0
 10
22.0697421691
 20
22.3420679895
 30
0.0
 10
22.1138022289
 20
22.2910825025
 30
0.0
 11
21.9534096732
 21
22.4141333329
 31
0.0
 11
22.1138022289
 21
22.2910825025
 31
0.0
  0
SPLINE
  5
3F8
100
AcDbEntity
  8
RACCORDO
100
AcDbSpline
 62
7
  6
CONTINUOUS
 70
0
 71
3
 72
8
 73
4
 74
2
 42
0.0000001
 43
0.0000001
 44
0.0000000001
 12
-0.1819296475
 22
0.0881412623
 32
0.0
 13
-0.1321801793
 23
0.152956461
 33
0.0
 40
0.0
 40
0.0
 40
0.0
 40
0.0
 40
1.0
 40
1.0
 40
1.0
 40
1.0
 10
0.2965903268
 20
-22.4141333329
 30
0.0
 10
0.2359471109
 20
-22.3847529121
 30
0.0
 10
0.1802578309
 20
-22.3420679895
 30
0.0
 10
0.1361977711
 20
-22.2910825025
 30
0.0
 11
0.2965903268
 21
-22.4141333329
 31
0.0
 11
0.1361977711
 21
-22.2910825025
 31
0.0
  0
SPLINE
  5
3F9
100
AcDbEntity
  8
RACCORDO
100
AcDbSpline
 62
253
  6
CONTINUOUS
 70
0
 71
3
 72
11
 73
7
 74
5
 42
0.0000001
 43
0.0000001
 44
0.0000000001
 12
0.0
 22
0.3645128845
 32
0.0
 13
-0.3645128845
 23
-0.0
 33
0.0
 40
0.0
 40
0.0
 40
0.0
 40
0.0
 40
0.2332042659
 40
0.4765890095
 40
0.7336674384
 40
1.0
 40
1.0
 40
1.0
 40
1.0
 10
21.775
 20
-23.8443375673
 30
0.0
 10
21.775
 20
-23.8160022474
 30
0.0
 10
21.7612357023
 20
-23.7573601298
 30
0.0
 10
21.7043155068
 20
-23.6855751513
 30
0.0
 10
21.621515115
 20
-23.6386138284
 30
0.0
 10
21.5573605501
 20
-23.6278312164
 30
0.0
 10
21.525
 20
-23.6278312164
 30
0.0
 11
21.775
 21
-23.8443375673
 31
0.0
 11
21.7559722425
 21
-23.7614885624
 31
0.0
 11
21.7017797727
 21
-23.6912471208
 31
0.0
 11
21.6206724436
 21
-23.6443124285
 31
0.0
 11
21.525
 21
-23.6278312164
 31
0.0
  0
SPLINE
  5
3FA
100
AcDbEntity
  8
RACCORDO
100
AcDbSpline
 62
253
  6
CONTINUOUS
 70
0
 71
3
 72
13
 73
9
 74
7
 42
0.0000001
 43
0.0000001
 44
0.0000000001
 12
0.0003117807
 22
0.0485886772
 32
0.0
 13
0.0485448867
 23
0.0020858413
 33
0.0
 40
0.0
 40
0.0
 40
0.0
 40
0.0
 40
0.0205365158
 40
0.0702291197
 40
0.1507292473
 40
0.2619690719
 40
0.5744601825
 40
1.0
 40
1.0
 40
1.0
 40
1.0
 10
19.3750000004
 20
22.621852315
 30
0.0
 10
19.3750021347
 20
22.6221849291
 30
0.0
 10
19.376404336
 20
22.6227127061
 30
0.0
 10
19.3784941718
 20
22.6231939105
 30
0.0
 10
19.3825234297
 20
22.6237943968
 30
0.0
 10
19.3905509342
 20
22.6246429208
 30
0.0
 10
19.4043469921
 20
22.6256047489
 30
0.0
 10
19.4162612525
 20
22.6261885145
 30
0.0
 10
19.42314718
 20
22.626484384
 30
0.0
 11
19.3750000004
 21
22.621852315
 31
0.0
 11
19.3757855627
 21
22.6224676376
 31
0.0
 11
19.3781205956
 21
22.6230821793
 31
0.0
 11
19.3819844373
 21
22.6236907561
 31
0.0
 11
19.3873564261
 21
22.6242881838
 31
0.0
 11
19.4024971605
 21
22.6254315252
 31
0.0
 11
19.42314718
 21
22.626484384
 31
0.0
  0
SPLINE
  5
3FB
100
AcDbEntity
  8
RACCORDO
100
AcDbSpline
 62
253
  6
CONTINUOUS
 70
0
 71
3
 72
9
 73
5
 74
3
 42
0.0000001
 43
0.0000001
 44
0.0000000001
 12
0.2017003146
 22
0.0086665119
 32
0.0
 13
0.201886417
 23
0.0000009296
 33
0.0
 40
0.0
 40
0.0
 40
0.0
 40
0.0
 40
0.1976371013
 40
1.0
 40
1.0
 40
1.0
 40
1.0
 10
19.42314718
 20
22.626484384
 30
0.0
 10
19.4364350018
 20
22.6270553254
 30
0.0
 10
19.5036999126
 20
22.6291801061
 30
0.0
 10
19.5710046098
 20
22.6297038274
 30
0.0
 10
19.625
 20
22.629704076
 30
0.0
 11
19.42314718
 21
22.626484384
 31
0.0
 11
19.4630246398
 21
22.6278326583
 31
0.0
 11
19.625
 21
22.629704076
 31
0.0
  0
SPLINE
  5
3FC
100
AcDbEntity
  8
RACCORDO
100
AcDbSpline
 62
253
  6
CONTINUOUS
 70
0
 71
3
 72
9
 73
5
 74
3
 42
0.0000001
 43
0.0000001
 44
0.0000000001
 12
0.0719204612
 22
0.0039280443
 32
0.0
 13
0.0719755571
 23
0.0027388782
 33
0.0
 40
0.0
 40
0.0
 40
0.0
 40
0.0
 40
0.2765884112
 40
1.0
 40
1.0
 40
1.0
 40
1.0
 10
21.7871636599
 20
22.4306681226
 30
0.0
 10
21.7937944486
 20
22.4310302731
 30
0.0
 10
21.8177652255
 20
22.4323836143
 30
0.0
 10
21.841742654
 20
22.4336539183
 30
0.0
 10
21.859098638
 20
22.4343143637
 30
0.0
 11
21.7871636599
 21
22.4306681226
 31
0.0
 11
21.8070550356
 21
22.4317725576
 31
0.0
 11
21.859098638
 21
22.4343143637
 31
0.0
  0
SPLINE
  5
3FD
100
AcDbEntity
  8
RACCORDO
100
AcDbSpline
 62
253
  6
CONTINUOUS
 70
0
 71
3
 72
11
 73
7
 74
5
 42
0.0000001
 43
0.0000001
 44
0.0000000001
 12
0.047047212
 22
0.0017902826
 32
0.0
 13
0.0442768811
 23
-0.0160063448
 33
0.0
 40
0.0
 40
0.0
 40
0.0
 40
0.0
 40
0.3948716346
 40
0.6980201167
 40
0.9011752
 40
1.0
 40
1.0
 40
1.0
 40
1.0
 10
21.859098638
 20
22.4343143637
 30
0.0
 10
21.8652911746
 20
22.4345500077
 30
0.0
 10
21.8762269869
 20
22.4348784888
 30
0.0
 10
21.8904134187
 20
22.4351705204
 30
0.0
 10
21.8998227113
 20
22.4348567627
 30
0.0
 10
21.9046732743
 20
22.4347939986
 30
0.0
 10
21.9061318256
 20
22.434266724
 30
0.0
 11
21.859098638
 21
22.4343143637
 31
0.0
 11
21.8776808126
 21
22.4348889202
 31
0.0
 11
21.891952517
 21
22.4350499922
 31
0.0
 11
21.9015151205
 21
22.4348451254
 31
0.0
 11
21.9061318256
 21
22.434266724
 31
0.0
  0
SPLINE
  5
3FE
100
AcDbEntity
  8
RACCORDO
100
AcDbSpline
 62
253
  6
CONTINUOUS
 70
0
 71
3
 72
9
 73
5
 74
3
 42
0.0000001
 43
0.0000001
 44
0.0000000001
 12
0.0710865041
 22
-0.0038958116
 32
0.0
 13
0.0711416284
 23
-0.002708713
 33
0.0
 40
0.0
 40
0.0
 40
0.0
 40
0.0
 40
0.2757024838
 40
1.0
 40
1.0
 40
1.0
 40
1.0
 10
21.7871719358
 20
-22.4306666244
 30
0.0
 10
21.7937048444
 20
-22.4310246528
 30
0.0
 10
21.8173983176
 20
-22.4323546559
 30
0.0
 10
21.8410970466
 20
-22.4336283882
 30
0.0
 10
21.8582729482
 20
-22.4342823595
 30
0.0
 11
21.7871719358
 21
-22.4306666244
 31
0.0
 11
21.8067699427
 21
-22.4317537458
 31
0.0
 11
21.8582729482
 21
-22.4342823595
 31
0.0
  0
SPLINE
  5
3FF
100
AcDbEntity
  8
RACCORDO
100
AcDbSpline
 62
253
  6
CONTINUOUS
 70
0
 71
3
 72
11
 73
7
 74
5
 42
0.0000001
 43
0.0000001
 44
0.0000000001
 12
0.0478695918
 22
-0.0018226317
 32
0.0
 13
0.0451368095
 23
0.0160464398
 33
0.0
 40
0.0
 40
0.0
 40
0.0
 40
0.0
 40
0.3945603338
 40
0.6981460587
 40
0.9013576151
 40
1.0
 40
1.0
 40
1.0
 40
1.0
 10
21.8582729482
 20
-22.4342823595
 30
0.0
 10
21.8645687623
 20
-22.4345220723
 30
0.0
 10
21.8756979687
 20
-22.4348505664
 30
0.0
 10
21.8901339704
 20
-22.4351887931
 30
0.0
 10
21.8997147365
 20
-22.4348533883
 30
0.0
 10
21.9046451044
 20
-22.4347966935
 30
0.0
 10
21.9061292385
 20
-22.4342690738
 30
0.0
 11
21.8582729482
 21
-22.4342823595
 31
0.0
 11
21.8771648726
 21
-22.4348721254
 31
0.0
 11
21.8917067462
 21
-22.4350574719
 31
0.0
 11
21.9014391421
 21
-22.4348455513
 31
0.0
 11
21.9061292385
 21
-22.4342690738
 31
0.0
  0
SPLINE
  5
400
100
AcDbEntity
  8
RACCORDO
100
AcDbSpline
 62
253
  6
CONTINUOUS
 70
0
 71
3
 72
13
 73
9
 74
7
 42
0.0000001
 43
0.0000001
 44
0.0000000001
 12
-0.0003117807
 22
-0.0485886772
 32
0.0
 13
-0.0485448867
 23
-0.0020858413
 33
0.0
 40
0.0
 40
0.0
 40
0.0
 40
0.0
 40
0.0205365158
 40
0.0702291197
 40
0.1507292473
 40
0.2619690719
 40
0.5744601825
 40
1.0
 40
1.0
 40
1.0
 40
1.0
 10
2.8749999996
 20
-22.621852315
 30
0.0
 10
2.8749978653
 20
-22.6221849291
 30
0.0
 10
2.873595664
 20
-22.6227127061
 30
0.0
 10
2.8715058282
 20
-22.6231939105
 30
0.0
 10
2.8674765703
 20
-22.6237943968
 30
0.0
 10
2.8594490658
 20
-22.6246429208
 30
0.0
 10
2.8456530079
 20
-22.6256047489
 30
0.0
 10
2.8337387475
 20
-22.6261885145
 30
0.0
 10
2.82685282
 20
-22.626484384
 30
0.0
 11
2.8749999996
 21
-22.621852315
 31
0.0
 11
2.8742144373
 21
-22.6224676376
 31
0.0
 11
2.8718794044
 21
-22.6230821793
 31
0.0
 11
2.8680155627
 21
-22.6236907561
 31
0.0
 11
2.8626435739
 21
-22.6242881838
 31
0.0
 11
2.8475028395
 21
-22.6254315252
 31
0.0
 11
2.82685282
 21
-22.626484384
 31
0.0
  0
SPLINE
  5
401
100
AcDbEntity
  8
RACCORDO
100
AcDbSpline
 62
253
  6
CONTINUOUS
 70
0
 71
3
 72
9
 73
5
 74
3
 42
0.0000001
 43
0.0000001
 44
0.0000000001
 12
-0.2017003146
 22
-0.0086665119
 32
0.0
 13
-0.201886417
 23
-0.0000009296
 33
0.0
 40
0.0
 40
0.0
 40
0.0
 40
0.0
 40
0.1976371013
 40
1.0
 40
1.0
 40
1.0
 40
1.0
 10
2.82685282
 20
-22.626484384
 30
0.0
 10
2.8135649982
 20
-22.6270553254
 30
0.0
 10
2.7463000874
 20
-22.6291801061
 30
0.0
 10
2.6789953902
 20
-22.6297038274
 30
0.0
 10
2.625
 20
-22.629704076
 30
0.0
 11
2.82685282
 21
-22.626484384
 31
0.0
 11
2.7869753602
 21
-22.6278326583
 31
0.0
 11
2.625
 21
-22.629704076
 31
0.0
  0
SPLINE
  5
402
100
AcDbEntity
  8
RACCORDO
100
AcDbSpline
 62
253
  6
CONTINUOUS
 70
0
 71
3
 72
11
 73
7
 74
5
 42
0.0000001
 43
0.0000001
 44
0.0000000001
 12
0.0
 22
-0.3645127889
 32
0.0
 13
-0.3645127889
 23
0.0
 33
0.0
 40
0.0
 40
0.0
 40
0.0
 40
0.0
 40
0.23321751
 40
0.4765997713
 40
0.7336719567
 40
1.0
 40
1.0
 40
1.0
 40
1.0
 10
21.775
 20
23.8443375673
 30
0.0
 10
21.775
 20
23.8160006456
 30
0.0
 10
21.7612341244
 20
23.7573572594
 30
0.0
 10
21.7043126013
 20
23.6855729298
 30
0.0
 10
21.6215132079
 20
23.6386133014
 30
0.0
 10
21.5573599926
 20
23.6278312164
 30
0.0
 10
21.525
 20
23.6278312164
 30
0.0
 11
21.775
 21
23.8443375673
 31
0.0
 11
21.7559698831
 21
23.7614841738
 31
0.0
 11
21.7017766953
 21
23.6912444584
 31
0.0
 11
21.6206708581
 21
23.644311781
 31
0.0
 11
21.525
 21
23.6278312164
 31
0.0
  0
SPLINE
  5
403
100
AcDbEntity
  8
RACCORDO
100
AcDbSpline
 62
253
  6
CONTINUOUS
 70
0
 71
3
 72
11
 73
7
 74
5
 42
0.0000001
 43
0.0000001
 44
0.0000000001
 12
0.0
 22
0.3645127889
 32
0.0
 13
-0.3645127889
 23
-0.0
 33
0.0
 40
0.0
 40
0.0
 40
0.0
 40
0.0
 40
0.23321751
 40
0.4765997713
 40
0.7336719567
 40
1.0
 40
1.0
 40
1.0
 40
1.0
 10
21.775
 20
-23.4113248654
 30
0.0
 10
21.775
 20
-23.3829879437
 30
0.0
 10
21.7612341244
 20
-23.3243445575
 30
0.0
 10
21.7043126013
 20
-23.2525602279
 30
0.0
 10
21.6215132079
 20
-23.2056005996
 30
0.0
 10
21.5573599926
 20
-23.1948185145
 30
0.0
 10
21.525
 20
-23.1948185145
 30
0.0
 11
21.775
 21
-23.4113248654
 31
0.0
 11
21.7559698831
 21
-23.3284714719
 31
0.0
 11
21.7017766953
 21
-23.2582317565
 31
0.0
 11
21.6206708581
 21
-23.2112990791
 31
0.0
 11
21.525
 21
-23.1948185145
 31
0.0
  0
SPLINE
  5
404
100
AcDbEntity
  8
RACCORDO
100
AcDbSpline
 62
253
  6
CONTINUOUS
 70
0
 71
3
 72
13
 73
9
 74
7
 42
0.0000001
 43
0.0000001
 44
0.0000000001
 12
-0.0000017389
 22
-0.0483509565
 32
0.0
 13
0.0483060532
 23
-0.0020833187
 33
0.0
 40
0.0
 40
0.0
 40
0.0
 40
0.0
 40
0.0204949746
 40
0.0700927421
 40
0.1505011318
 40
0.2616800542
 40
0.5742072347
 40
1.0
 40
1.0
 40
1.0
 40
1.0
 10
19.375
 20
-22.6218493191
 30
0.0
 10
19.3749999881
 20
-22.6221796363
 30
0.0
 10
19.3763907929
 20
-22.6227116266
 30
0.0
 10
19.3784675697
 20
-22.6231874689
 30
0.0
 10
19.3824723465
 20
-22.6237882805
 30
0.0
 10
19.3904585473
 20
-22.6246330595
 30
0.0
 10
19.4041901838
 20
-22.6255943931
 30
0.0
 10
19.4160504872
 20
-22.6261773106
 30
0.0
 10
19.4229066098
 20
-22.6264729979
 30
0.0
 11
19.375
 21
-22.6218493191
 31
0.0
 11
19.3757771096
 21
-22.6224642059
 31
0.0
 11
19.3780954964
 21
-22.6230773647
 31
0.0
 11
19.3819356812
 21
-22.6236841142
 31
0.0
 11
19.3872781848
 21
-22.6242797729
 31
0.0
 11
19.4023460202
 21
-22.6254209557
 31
0.0
 11
19.4229066098
 21
-22.6264729979
 31
0.0
  0
SPLINE
  5
405
100
AcDbEntity
  8
RACCORDO
100
AcDbSpline
 62
253
  6
CONTINUOUS
 70
0
 71
3
 72
9
 73
5
 74
3
 42
0.0000001
 43
0.0000001
 44
0.0000000001
 12
0.2019394827
 22
-0.0087091427
 32
0.0
 13
0.2021271972
 23
0.00000183
 33
0.0
 40
0.0
 40
0.0
 40
0.0
 40
0.0
 40
0.1974362133
 40
1.0
 40
1.0
 40
1.0
 40
1.0
 10
19.4229066098
 20
-22.6264729979
 30
0.0
 10
19.4361966654
 20
-22.6270461647
 30
0.0
 10
19.5035416601
 20
-22.6291788738
 30
0.0
 10
19.5709266771
 20
-22.6297045656
 30
0.0
 10
19.625
 20
-22.629704076
 30
0.0
 11
19.4229066098
 21
-22.6264729979
 31
0.0
 11
19.462790907
 21
-22.6278256695
 31
0.0
 11
19.625
 21
-22.629704076
 31
0.0
  0
SPLINE
  5
406
100
AcDbEntity
  8
RACCORDO
100
AcDbSpline
 62
253
  6
CONTINUOUS
 70
0
 71
3
 72
11
 73
7
 74
5
 42
0.0000001
 43
0.0000001
 44
0.0000000001
 12
0.0
 22
0.3645128845
 32
0.0
 13
-0.3645128845
 23
-0.0
 33
0.0
 40
0.0
 40
0.0
 40
0.0
 40
0.0
 40
0.2332042659
 40
0.4765890095
 40
0.7336674384
 40
1.0
 40
1.0
 40
1.0
 40
1.0
 10
2.875
 20
-23.8443375673
 30
0.0
 10
2.875
 20
-23.8160022474
 30
0.0
 10
2.8612357023
 20
-23.7573601298
 30
0.0
 10
2.8043155068
 20
-23.6855751513
 30
0.0
 10
2.721515115
 20
-23.6386138284
 30
0.0
 10
2.6573605501
 20
-23.6278312164
 30
0.0
 10
2.625
 20
-23.6278312164
 30
0.0
 11
2.875
 21
-23.8443375673
 31
0.0
 11
2.8559722425
 21
-23.7614885624
 31
0.0
 11
2.8017797727
 21
-23.6912471208
 31
0.0
 11
2.7206724436
 21
-23.6443124285
 31
0.0
 11
2.625
 21
-23.6278312164
 31
0.0
  0
SPLINE
  5
407
100
AcDbEntity
  8
RACCORDO
100
AcDbSpline
 62
253
  6
CONTINUOUS
 70
0
 71
3
 72
11
 73
7
 74
5
 42
0.0000001
 43
0.0000001
 44
0.0000000001
 12
0.0
 22
0.3645127889
 32
0.0
 13
0.3645127889
 23
0.0
 33
0.0
 40
0.0
 40
0.0
 40
0.0
 40
0.0
 40
0.23321751
 40
0.4765997713
 40
0.7336719567
 40
1.0
 40
1.0
 40
1.0
 40
1.0
 10
19.375
 20
-23.4113248654
 30
0.0
 10
19.375
 20
-23.3829879437
 30
0.0
 10
19.3887658756
 20
-23.3243445575
 30
0.0
 10
19.4456873987
 20
-23.2525602279
 30
0.0
 10
19.5284867921
 20
-23.2056005996
 30
0.0
 10
19.5926400074
 20
-23.1948185145
 30
0.0
 10
19.625
 20
-23.1948185145
 30
0.0
 11
19.375
 21
-23.4113248654
 31
0.0
 11
19.3940301169
 21
-23.3284714719
 31
0.0
 11
19.4482233047
 21
-23.2582317565
 31
0.0
 11
19.5293291419
 21
-23.2112990791
 31
0.0
 11
19.625
 21
-23.1948185145
 31
0.0
  0
SPLINE
  5
408
100
AcDbEntity
  8
RACCORDO
100
AcDbSpline
 62
253
  6
CONTINUOUS
 70
0
 71
3
 72
11
 73
7
 74
5
 42
0.0000001
 43
0.0000001
 44
0.0000000001
 12
0.0
 22
0.3645128845
 32
0.0
 13
0.3645128845
 23
0.0
 33
0.0
 40
0.0
 40
0.0
 40
0.0
 40
0.0
 40
0.2332042659
 40
0.4765890095
 40
0.7336674384
 40
1.0
 40
1.0
 40
1.0
 40
1.0
 10
19.375
 20
-23.8443375673
 30
0.0
 10
19.375
 20
-23.8160022474
 30
0.0
 10
19.3887642978
 20
-23.7573601298
 30
0.0
 10
19.4456844932
 20
-23.6855751513
 30
0.0
 10
19.528484885
 20
-23.6386138284
 30
0.0
 10
19.5926394499
 20
-23.6278312164
 30
0.0
 10
19.625
 20
-23.6278312164
 30
0.0
 11
19.375
 21
-23.8443375673
 31
0.0
 11
19.3940277575
 21
-23.7614885624
 31
0.0
 11
19.4482202273
 21
-23.6912471208
 31
0.0
 11
19.5293275564
 21
-23.6443124285
 31
0.0
 11
19.625
 21
-23.6278312164
 31
0.0
  0
SPLINE
  5
409
100
AcDbEntity
  8
RACCORDO
100
AcDbSpline
 62
253
  6
CONTINUOUS
 70
0
 71
3
 72
11
 73
7
 74
5
 42
0.0000001
 43
0.0000001
 44
0.0000000001
 12
0.0
 22
0.3645128845
 32
0.0
 13
0.3645128845
 23
-0.0
 33
0.0
 40
0.0
 40
0.0
 40
0.0
 40
0.0
 40
0.2332042659
 40
0.4765890095
 40
0.7336674384
 40
1.0
 40
1.0
 40
1.0
 40
1.0
 10
0.475
 20
-23.8443375673
 30
0.0
 10
0.475
 20
-23.8160022474
 30
0.0
 10
0.4887642977
 20
-23.7573601298
 30
0.0
 10
0.5456844932
 20
-23.6855751513
 30
0.0
 10
0.628484885
 20
-23.6386138284
 30
0.0
 10
0.6926394499
 20
-23.6278312164
 30
0.0
 10
0.725
 20
-23.6278312164
 30
0.0
 11
0.475
 21
-23.8443375673
 31
0.0
 11
0.4940277575
 21
-23.7614885624
 31
0.0
 11
0.5482202273
 21
-23.6912471208
 31
0.0
 11
0.6293275564
 21
-23.6443124285
 31
0.0
 11
0.725
 21
-23.6278312164
 31
0.0
  0
SPLINE
  5
40A
100
AcDbEntity
  8
RACCORDO
100
AcDbSpline
 62
253
  6
CONTINUOUS
 70
0
 71
3
 72
13
 73
9
 74
7
 42
0.0000001
 43
0.0000001
 44
0.0000000001
 12
0.0003117807
 22
0.0485886772
 32
0.0
 13
0.0485448867
 23
0.0020858413
 33
0.0
 40
0.0
 40
0.0
 40
0.0
 40
0.0
 40
0.0205365158
 40
0.0702291197
 40
0.1507292473
 40
0.2619690719
 40
0.5744601825
 40
1.0
 40
1.0
 40
1.0
 40
1.0
 10
0.4750000004
 20
22.621852315
 30
0.0
 10
0.4750021347
 20
22.6221849291
 30
0.0
 10
0.476404336
 20
22.6227127061
 30
0.0
 10
0.4784941718
 20
22.6231939105
 30
0.0
 10
0.4825234297
 20
22.6237943968
 30
0.0
 10
0.4905509342
 20
22.6246429208
 30
0.0
 10
0.5043469921
 20
22.6256047489
 30
0.0
 10
0.5162612525
 20
22.6261885145
 30
0.0
 10
0.52314718
 20
22.626484384
 30
0.0
 11
0.4750000004
 21
22.621852315
 31
0.0
 11
0.4757855627
 21
22.6224676376
 31
0.0
 11
0.4781205956
 21
22.6230821793
 31
0.0
 11
0.4819844373
 21
22.6236907561
 31
0.0
 11
0.4873564261
 21
22.6242881838
 31
0.0
 11
0.5024971605
 21
22.6254315252
 31
0.0
 11
0.52314718
 21
22.626484384
 31
0.0
  0
SPLINE
  5
40B
100
AcDbEntity
  8
RACCORDO
100
AcDbSpline
 62
253
  6
CONTINUOUS
 70
0
 71
3
 72
9
 73
5
 74
3
 42
0.0000001
 43
0.0000001
 44
0.0000000001
 12
0.2017003146
 22
0.0086665119
 32
0.0
 13
0.201886417
 23
0.0000009296
 33
0.0
 40
0.0
 40
0.0
 40
0.0
 40
0.0
 40
0.1976371013
 40
1.0
 40
1.0
 40
1.0
 40
1.0
 10
0.52314718
 20
22.626484384
 30
0.0
 10
0.5364350018
 20
22.6270553254
 30
0.0
 10
0.6036999126
 20
22.6291801061
 30
0.0
 10
0.6710046098
 20
22.6297038274
 30
0.0
 10
0.725
 20
22.629704076
 30
0.0
 11
0.52314718
 21
22.626484384
 31
0.0
 11
0.5630246398
 21
22.6278326583
 31
0.0
 11
0.725
 21
22.629704076
 31
0.0
  0
SPLINE
  5
40C
100
AcDbEntity
  8
RACCORDO
100
AcDbSpline
 62
253
  6
CONTINUOUS
 70
0
 71
3
 72
11
 73
7
 74
5
 42
0.0000001
 43
0.0000001
 44
0.0000000001
 12
-0.0
 22
-0.3645128845
 32
0.0
 13
-0.3645128845
 23
0.0
 33
0.0
 40
0.0
 40
0.0
 40
0.0
 40
0.0
 40
0.2332042659
 40
0.4765890095
 40
0.7336674384
 40
1.0
 40
1.0
 40
1.0
 40
1.0
 10
2.875
 20
23.8443375673
 30
0.0
 10
2.875
 20
23.8160022474
 30
0.0
 10
2.8612357023
 20
23.7573601298
 30
0.0
 10
2.8043155068
 20
23.6855751513
 30
0.0
 10
2.721515115
 20
23.6386138284
 30
0.0
 10
2.6573605501
 20
23.6278312164
 30
0.0
 10
2.625
 20
23.6278312164
 30
0.0
 11
2.875
 21
23.8443375673
 31
0.0
 11
2.8559722425
 21
23.7614885624
 31
0.0
 11
2.8017797727
 21
23.6912471208
 31
0.0
 11
2.7206724436
 21
23.6443124285
 31
0.0
 11
2.625
 21
23.6278312164
 31
0.0
  0
SPLINE
  5
40D
100
AcDbEntity
  8
RACCORDO
100
AcDbSpline
 62
253
  6
CONTINUOUS
 70
0
 71
3
 72
11
 73
7
 74
5
 42
0.0000001
 43
0.0000001
 44
0.0000000001
 12
0.0
 22
-0.3645128845
 32
0.0
 13
0.3645128845
 23
0.0
 33
0.0
 40
0.0
 40
0.0
 40
0.0
 40
0.0
 40
0.2332042659
 40
0.4765890095
 40
0.7336674384
 40
1.0
 40
1.0
 40
1.0
 40
1.0
 10
19.375
 20
23.8443375673
 30
0.0
 10
19.375
 20
23.8160022474
 30
0.0
 10
19.3887642977
 20
23.7573601298
 30
0.0
 10
19.4456844932
 20
23.6855751513
 30
0.0
 10
19.528484885
 20
23.6386138284
 30
0.0
 10
19.5926394499
 20
23.6278312164
 30
0.0
 10
19.625
 20
23.6278312164
 30
0.0
 11
19.375
 21
23.8443375673
 31
0.0
 11
19.3940277575
 21
23.7614885624
 31
0.0
 11
19.4482202273
 21
23.6912471208
 31
0.0
 11
19.5293275564
 21
23.6443124285
 31
0.0
 11
19.625
 21
23.6278312164
 31
0.0
  0
SPLINE
  5
40E
100
AcDbEntity
  8
RACCORDO
100
AcDbSpline
 62
253
  6
CONTINUOUS
 70
0
 71
3
 72
9
 73
5
 74
3
 42
0.0000001
 43
0.0000001
 44
0.0000000001
 12
-0.0719204612
 22
-0.0039280443
 32
0.0
 13
-0.0719755571
 23
-0.0027388782
 33
0.0
 40
0.0
 40
0.0
 40
0.0
 40
0.0
 40
0.2765884112
 40
1.0
 40
1.0
 40
1.0
 40
1.0
 10
0.4628363401
 20
-22.4306681226
 30
0.0
 10
0.4562055514
 20
-22.4310302731
 30
0.0
 10
0.4322347745
 20
-22.4323836143
 30
0.0
 10
0.408257346
 20
-22.4336539183
 30
0.0
 10
0.390901362
 20
-22.4343143637
 30
0.0
 11
0.4628363401
 21
-22.4306681226
 31
0.0
 11
0.4429449644
 21
-22.4317725576
 31
0.0
 11
0.390901362
 21
-22.4343143637
 31
0.0
  0
SPLINE
  5
40F
100
AcDbEntity
  8
RACCORDO
100
AcDbSpline
 62
253
  6
CONTINUOUS
 70
0
 71
3
 72
11
 73
7
 74
5
 42
0.0000001
 43
0.0000001
 44
0.0000000001
 12
-0.047047212
 22
-0.0017902826
 32
0.0
 13
-0.0442768811
 23
0.0160063448
 33
0.0
 40
0.0
 40
0.0
 40
0.0
 40
0.0
 40
0.3948716346
 40
0.6980201167
 40
0.9011752
 40
1.0
 40
1.0
 40
1.0
 40
1.0
 10
0.390901362
 20
-22.4343143637
 30
0.0
 10
0.3847088254
 20
-22.4345500077
 30
0.0
 10
0.3737730131
 20
-22.4348784888
 30
0.0
 10
0.3595865813
 20
-22.4351705204
 30
0.0
 10
0.3501772887
 20
-22.4348567627
 30
0.0
 10
0.3453267257
 20
-22.4347939986
 30
0.0
 10
0.3438681744
 20
-22.434266724
 30
0.0
 11
0.390901362
 21
-22.4343143637
 31
0.0
 11
0.3723191874
 21
-22.4348889202
 31
0.0
 11
0.358047483
 21
-22.4350499922
 31
0.0
 11
0.3484848795
 21
-22.4348451254
 31
0.0
 11
0.3438681744
 21
-22.434266724
 31
0.0
  0
SPLINE
  5
410
100
AcDbEntity
  8
RACCORDO
100
AcDbSpline
 62
253
  6
CONTINUOUS
 70
0
 71
3
 72
11
 73
7
 74
5
 42
0.0000001
 43
0.0000001
 44
0.0000000001
 12
0.0
 22
-0.3645127889
 32
0.0
 13
0.3645127889
 23
0.0
 33
0.0
 40
0.0
 40
0.0
 40
0.0
 40
0.0
 40
0.23321751
 40
0.4765997713
 40
0.7336719567
 40
1.0
 40
1.0
 40
1.0
 40
1.0
 10
19.375
 20
23.4113248654
 30
0.0
 10
19.375
 20
23.3829879437
 30
0.0
 10
19.3887658756
 20
23.3243445575
 30
0.0
 10
19.4456873987
 20
23.2525602279
 30
0.0
 10
19.5284867921
 20
23.2056005996
 30
0.0
 10
19.5926400074
 20
23.1948185145
 30
0.0
 10
19.625
 20
23.1948185145
 30
0.0
 11
19.375
 21
23.4113248654
 31
0.0
 11
19.3940301169
 21
23.3284714719
 31
0.0
 11
19.4482233047
 21
23.2582317565
 31
0.0
 11
19.5293291419
 21
23.2112990791
 31
0.0
 11
19.625
 21
23.1948185145
 31
0.0
  0
SPLINE
  5
411
100
AcDbEntity
  8
RACCORDO
100
AcDbSpline
 62
253
  6
CONTINUOUS
 70
0
 71
3
 72
11
 73
7
 74
5
 42
0.0000001
 43
0.0000001
 44
0.0000000001
 12
0.0
 22
-0.3645127889
 32
0.0
 13
0.3645127889
 23
0.0
 33
0.0
 40
0.0
 40
0.0
 40
0.0
 40
0.0
 40
0.23321751
 40
0.4765997713
 40
0.7336719567
 40
1.0
 40
1.0
 40
1.0
 40
1.0
 10
0.475
 20
23.8443375673
 30
0.0
 10
0.475
 20
23.8160006456
 30
0.0
 10
0.4887658756
 20
23.7573572594
 30
0.0
 10
0.5456873987
 20
23.6855729298
 30
0.0
 10
0.6284867921
 20
23.6386133014
 30
0.0
 10
0.6926400074
 20
23.6278312164
 30
0.0
 10
0.725
 20
23.6278312164
 30
0.0
 11
0.475
 21
23.8443375673
 31
0.0
 11
0.4940301169
 21
23.7614841738
 31
0.0
 11
0.5482233047
 21
23.6912444584
 31
0.0
 11
0.6293291419
 21
23.644311781
 31
0.0
 11
0.725
 21
23.6278312164
 31
0.0
  0
SPLINE
  5
412
100
AcDbEntity
  8
RACCORDO
100
AcDbSpline
 62
253
  6
CONTINUOUS
 70
0
 71
3
 72
11
 73
7
 74
5
 42
0.0000001
 43
0.0000001
 44
0.0000000001
 12
0.0
 22
0.3645127889
 32
0.0
 13
-0.3645127889
 23
0.0
 33
0.0
 40
0.0
 40
0.0
 40
0.0
 40
0.0
 40
0.23321751
 40
0.4765997713
 40
0.7336719567
 40
1.0
 40
1.0
 40
1.0
 40
1.0
 10
2.875
 20
-23.4113248654
 30
0.0
 10
2.875
 20
-23.3829879437
 30
0.0
 10
2.8612341244
 20
-23.3243445575
 30
0.0
 10
2.8043126013
 20
-23.2525602279
 30
0.0
 10
2.7215132079
 20
-23.2056005996
 30
0.0
 10
2.6573599926
 20
-23.1948185145
 30
0.0
 10
2.625
 20
-23.1948185145
 30
0.0
 11
2.875
 21
-23.4113248654
 31
0.0
 11
2.8559698831
 21
-23.3284714719
 31
0.0
 11
2.8017766953
 21
-23.2582317565
 31
0.0
 11
2.7206708581
 21
-23.2112990791
 31
0.0
 11
2.625
 21
-23.1948185145
 31
0.0
  0
SPLINE
  5
413
100
AcDbEntity
  8
RACCORDO
100
AcDbSpline
 62
253
  6
CONTINUOUS
 70
0
 71
3
 72
11
 73
7
 74
5
 42
0.0000001
 43
0.0000001
 44
0.0000000001
 12
0.0
 22
0.3645127889
 32
0.0
 13
0.3645127889
 23
0.0
 33
0.0
 40
0.0
 40
0.0
 40
0.0
 40
0.0
 40
0.23321751
 40
0.4765997713
 40
0.7336719567
 40
1.0
 40
1.0
 40
1.0
 40
1.0
 10
0.475
 20
-23.4113248654
 30
0.0
 10
0.475
 20
-23.3829879437
 30
0.0
 10
0.4887658756
 20
-23.3243445575
 30
0.0
 10
0.5456873987
 20
-23.2525602279
 30
0.0
 10
0.6284867921
 20
-23.2056005996
 30
0.0
 10
0.6926400074
 20
-23.1948185145
 30
0.0
 10
0.725
 20
-23.1948185145
 30
0.0
 11
0.475
 21
-23.4113248654
 31
0.0
 11
0.4940301169
 21
-23.3284714719
 31
0.0
 11
0.5482233047
 21
-23.2582317565
 31
0.0
 11
0.6293291419
 21
-23.2112990791
 31
0.0
 11
0.725
 21
-23.1948185145
 31
0.0
  0
SPLINE
  5
414
100
AcDbEntity
  8
RACCORDO
100
AcDbSpline
 62
253
  6
CONTINUOUS
 70
0
 71
3
 72
11
 73
7
 74
5
 42
0.0000001
 43
0.0000001
 44
0.0000000001
 12
0.0
 22
-0.3645127889
 32
0.0
 13
0.3645127889
 23
0.0
 33
0.0
 40
0.0
 40
0.0
 40
0.0
 40
0.0
 40
0.23321751
 40
0.4765997713
 40
0.7336719567
 40
1.0
 40
1.0
 40
1.0
 40
1.0
 10
0.475
 20
23.4113248654
 30
0.0
 10
0.475
 20
23.3829879437
 30
0.0
 10
0.4887658756
 20
23.3243445575
 30
0.0
 10
0.5456873987
 20
23.2525602279
 30
0.0
 10
0.6284867921
 20
23.2056005996
 30
0.0
 10
0.6926400074
 20
23.1948185145
 30
0.0
 10
0.725
 20
23.1948185145
 30
0.0
 11
0.475
 21
23.4113248654
 31
0.0
 11
0.4940301169
 21
23.3284714719
 31
0.0
 11
0.5482233047
 21
23.2582317565
 31
0.0
 11
0.6293291419
 21
23.2112990791
 31
0.0
 11
0.725
 21
23.1948185145
 31
0.0
  0
SPLINE
  5
415
100
AcDbEntity
  8
RACCORDO
100
AcDbSpline
 62
253
  6
CONTINUOUS
 70
0
 71
3
 72
11
 73
7
 74
5
 42
0.0000001
 43
0.0000001
 44
0.0000000001
 12
0.0152949348
 22
0.0204135104
 32
0.0
 13
0.0028187806
 23
0.0253515466
 33
0.0
 40
0.0
 40
0.0
 40
0.0
 40
0.0
 40
0.1244572567
 40
0.3669214735
 40
0.6771478301
 40
1.0
 40
1.0
 40
1.0
 40
1.0
 10
22.2528257946
 20
-21.940664527
 30
0.0
 10
22.2534603165
 20
-21.9398176572
 30
0.0
 10
22.2538142266
 20
-21.9365273308
 30
0.0
 10
22.2547632634
 20
-21.9309773104
 30
0.0
 10
22.2554872477
 20
-21.9235115276
 30
0.0
 10
22.2560712801
 20
-21.9181744093
 30
0.0
 10
22.2563746299
 20
-21.915446142
 30
0.0
 11
22.2528257946
 21
-21.940664527
 31
0.0
 11
22.2537188515
 21
-21.9376181015
 31
0.0
 11
22.2546071715
 21
-21.9314975073
 31
0.0
 11
22.255491345
 21
-21.9236338755
 31
0.0
 11
22.2563746299
 21
-21.915446142
 31
0.0
  0
LINE
  5
416
100
AcDbEntity
  8
RACCORDO
100
AcDbLine
 62
253
  6
CONTINUOUS
 10
22.2563746299
 20
-21.915446142
 11
22.2574093537
 21
-21.9069420138
  0
SPLINE
  5
417
100
AcDbEntity
  8
RACCORDO
100
AcDbSpline
 62
253
  6
CONTINUOUS
 70
0
 71
3
 72
9
 73
5
 74
3
 42
0.0000001
 43
0.0000001
 44
0.0000000001
 12
0.0012887082
 22
0.0093237359
 32
0.0
 13
0.0066770735
 23
0.0066339663
 33
0.0
 40
0.0
 40
0.0
 40
0.0
 40
0.0
 40
0.670015419
 40
1.0
 40
1.0
 40
1.0
 40
1.0
 10
22.2574093537
 20
-21.9069420138
 30
0.0
 10
22.2576971718
 20
-21.9048596649
 30
0.0
 10
22.2583227929
 20
-21.9019298966
 30
0.0
 10
22.2587838812
 20
-21.8985330233
 30
0.0
 10
22.2595183249
 20
-21.8978033211
 30
0.0
 11
22.2574093537
 21
-21.9069420138
 31
0.0
 11
22.2584616612
 21
-21.9007239919
 31
0.0
 11
22.2595183249
 21
-21.8978033211
 31
0.0
  0
SPLINE
  5
418
100
AcDbEntity
  8
RACCORDO
100
AcDbSpline
 62
253
  6
CONTINUOUS
 70
0
 71
3
 72
11
 73
7
 74
5
 42
0.0000001
 43
0.0000001
 44
0.0000000001
 12
0.0
 22
-0.3645127889
 32
0.0
 13
-0.3645127889
 23
0.0
 33
0.0
 40
0.0
 40
0.0
 40
0.0
 40
0.0
 40
0.23321751
 40
0.4765997713
 40
0.7336719567
 40
1.0
 40
1.0
 40
1.0
 40
1.0
 10
2.875
 20
23.4113248654
 30
0.0
 10
2.875
 20
23.3829879437
 30
0.0
 10
2.8612341244
 20
23.3243445575
 30
0.0
 10
2.8043126013
 20
23.2525602279
 30
0.0
 10
2.7215132079
 20
23.2056005996
 30
0.0
 10
2.6573599926
 20
23.1948185145
 30
0.0
 10
2.625
 20
23.1948185145
 30
0.0
 11
2.875
 21
23.4113248654
 31
0.0
 11
2.8559698831
 21
23.3284714719
 31
0.0
 11
2.8017766953
 21
23.2582317565
 31
0.0
 11
2.7206708581
 21
23.2112990791
 31
0.0
 11
2.625
 21
23.1948185145
 31
0.0
  0
LINE
  5
419
100
AcDbEntity
  8
RACCORDO
100
AcDbLine
 62
253
  6
CONTINUOUS
 10
22.2508869102
 20
-21.9432553521
 11
22.2528257946
 21
-21.940664527
  0
SPLINE
  5
41A
100
AcDbEntity
  8
RACCORDO
100
AcDbSpline
 62
253
  6
CONTINUOUS
 70
0
 71
3
 72
18
 73
14
 74
12
 42
0.0000001
 43
0.0000001
 44
0.0000000001
 12
0.2504641852
 22
-0.0000011539
 32
0.0
 13
0.0015304716
 23
-0.2504595091
 33
0.0
 40
0.0
 40
0.0
 40
0.0
 40
0.0
 40
0.1945712207
 40
0.3820327322
 40
0.5545663793
 40
0.705795295
 40
0.8300192165
 40
0.8804237847
 40
0.922406488
 40
0.9555528931
 40
0.9795424797
 40
0.9942664188
 40
1.0
 40
1.0
 40
1.0
 40
1.0
 10
2.625
 20
22.629704076
 30
0.0
 10
2.6412443741
 20
22.6297040012
 30
0.0
 10
2.6731397879
 20
22.6296063583
 30
0.0
 10
2.7194371203
 20
22.6291751633
 30
0.0
 10
2.7621150282
 20
22.6284765904
 30
0.0
 10
2.7994990419
 20
22.6275389283
 30
0.0
 10
2.8267025996
 20
22.6265501367
 30
0.0
 10
2.8447395223
 20
22.6256207688
 30
0.0
 10
2.8552508057
 20
22.6249447808
 30
0.0
 10
2.8633598454
 20
22.6242445564
 30
0.0
 10
2.8696377246
 20
22.6235540762
 30
0.0
 10
2.8727137738
 20
22.6228763702
 30
0.0
 10
2.874997075
 20
22.6223309199
 30
0.0
 10
2.8750000001
 20
22.6218522433
 30
0.0
 11
2.625
 21
22.629704076
 31
0.0
 11
2.6737328875
 21
22.6295528181
 31
0.0
 11
2.7206831568
 21
22.6291060659
 31
0.0
 11
2.7638905674
 21
22.6283806731
 31
0.0
 11
2.8017554069
 21
22.6274042454
 31
0.0
 11
2.8328463193
 21
22.6262151416
 31
0.0
 11
2.8454535629
 21
22.6255545386
 31
0.0
 11
2.8559456176
 21
22.6248577945
 31
0.0
 11
2.8642157255
 21
22.624130945
 31
0.0
 11
2.8701773003
 21
22.6233812216
 31
0.0
 11
2.8737853461
 21
22.6226183207
 31
0.0
 11
2.8750000001
 21
22.6218522433
 31
0.0
  0
SPLINE
  5
41B
100
AcDbEntity
  8
RACCORDO
100
AcDbSpline
 62
253
  6
CONTINUOUS
 70
0
 71
3
 72
14
 73
10
 74
8
 42
0.0000001
 43
0.0000001
 44
0.0000000001
 12
0.0257198389
 22
0.02564573
 32
0.0
 13
0.0214750996
 23
0.0292922118
 33
0.0
 40
0.0
 40
0.0
 40
0.0
 40
0.0
 40
0.1093577552
 40
0.4408464681
 40
0.6453864266
 40
0.8344852731
 40
0.9094028061
 40
0.964247274
 40
1.0
 40
1.0
 40
1.0
 40
1.0
 10
22.2283545572
 20
-21.9289696893
 30
0.0
 10
22.2292921118
 20
-21.9280348362
 30
0.0
 10
22.2311467341
 20
-21.9379607161
 30
0.0
 10
22.2315871334
 20
-21.9422643544
 30
0.0
 10
22.2327695354
 20
-21.9518058669
 30
0.0
 10
22.2332948077
 20
-21.9571336048
 30
0.0
 10
22.2341032719
 20
-21.961229052
 30
0.0
 10
22.2341350157
 20
-21.9627048928
 30
0.0
 10
22.2351180985
 20
-21.9645625368
 30
0.0
 10
22.2353740296
 20
-21.9642134447
 30
0.0
 11
22.2283545572
 21
-21.9289696893
 31
0.0
 11
22.2301166252
 21
-21.9325294292
 31
0.0
 11
22.2318681464
 21
-21.9444413413
 31
0.0
 11
22.2327405561
 21
-21.951819031
 31
0.0
 11
22.2336143807
 21
-21.9586314728
 31
0.0
 11
22.2340527944
 21
-21.9613170007
 31
0.0
 11
22.2344925781
 21
-21.9632598525
 31
0.0
 11
22.2353740296
 21
-21.9642134447
 31
0.0
  0
SPLINE
  5
41C
100
AcDbEntity
  8
RACCORDO
100
AcDbSpline
 62
253
  6
CONTINUOUS
 70
0
 71
3
 72
11
 73
7
 74
5
 42
0.0000001
 43
0.0000001
 44
0.0000000001
 12
0.0152561017
 22
-0.020560751
 32
0.0
 13
0.0028315002
 23
-0.0254455444
 33
0.0
 40
0.0
 40
0.0
 40
0.0
 40
0.0
 40
0.1243189192
 40
0.3671680055
 40
0.6771515313
 40
1.0
 40
1.0
 40
1.0
 40
1.0
 10
22.2528247332
 20
21.9406659488
 30
0.0
 10
22.2534569406
 20
21.9398139187
 30
0.0
 10
22.2538213554
 20
21.9365152331
 30
0.0
 10
22.2547646682
 20
21.9309400971
 30
0.0
 10
22.2554960592
 20
21.9234473619
 30
0.0
 10
22.2560798923
 20
21.9180918946
 30
0.0
 10
22.2563846075
 20
21.915353543
 30
0.0
 11
22.2528247332
 21
21.9406659488
 31
0.0
 11
22.2537205747
 21
21.9376117319
 31
0.0
 11
22.2546116366
 21
21.9314583458
 31
0.0
 11
22.2554985769
 21
21.9235716779
 31
0.0
 11
22.2563846075
 21
21.915353543
 31
0.0
  0
LINE
  5
41D
100
AcDbEntity
  8
RACCORDO
100
AcDbLine
 62
253
  6
CONTINUOUS
 10
22.2563846075
 20
21.915353543
 11
22.2573026299
 21
21.9077292714
  0
SPLINE
  5
41E
100
AcDbEntity
  8
RACCORDO
100
AcDbSpline
 62
253
  6
CONTINUOUS
 70
0
 71
3
 72
9
 73
5
 74
3
 42
0.0000001
 43
0.0000001
 44
0.0000000001
 12
0.0013555247
 22
-0.0101196117
 32
0.0
 13
0.0072314707
 23
-0.0072076223
 33
0.0
 40
0.0
 40
0.0
 40
0.0
 40
0.0
 40
0.6707766507
 40
1.0
 40
1.0
 40
1.0
 40
1.0
 10
22.2573026299
 20
21.9077292714
 30
0.0
 10
22.2576057147
 20
21.905466605
 30
0.0
 10
22.2582822841
 20
21.9022933679
 30
0.0
 10
22.2587249797
 20
21.8985887773
 30
0.0
 10
22.2595185694
 20
21.8977978048
 30
0.0
 11
22.2573026299
 21
21.9077292714
 31
0.0
 11
22.2584081391
 21
21.9009704604
 31
0.0
 11
22.2595185694
 21
21.8977978048
 31
0.0
  0
LINE
  5
41F
100
AcDbEntity
  8
RACCORDO
100
AcDbLine
 62
253
  6
CONTINUOUS
 10
22.2508863206
 20
21.9432561464
 11
22.2528247332
 21
21.9406659488
  0
SPLINE
  5
420
100
AcDbEntity
  8
RACCORDO
100
AcDbSpline
 62
253
  6
CONTINUOUS
 70
0
 71
3
 72
14
 73
10
 74
8
 42
0.0000001
 43
0.0000001
 44
0.0000000001
 12
0.0255585356
 22
-0.0258108895
 32
0.0
 13
0.0216480458
 23
-0.0291685254
 33
0.0
 40
0.0
 40
0.0
 40
0.0
 40
0.0
 40
0.1094326292
 40
0.4409896891
 40
0.6457405679
 40
0.8346201589
 40
0.9095990116
 40
0.9643516253
 40
1.0
 40
1.0
 40
1.0
 40
1.0
 10
22.2283544073
 20
21.9289665538
 30
0.0
 10
22.2292867198
 20
21.928025036
 30
0.0
 10
22.2311546942
 20
21.9379710731
 30
0.0
 10
22.2315867431
 20
21.942266728
 30
0.0
 10
22.2327690182
 20
21.951812755
 30
0.0
 10
22.2332966409
 20
21.9571421411
 30
0.0
 10
22.2341037922
 20
21.9612332334
 30
0.0
 10
22.2341360253
 20
21.9627118088
 30
0.0
 10
22.235117915
 20
21.9645585195
 30
0.0
 10
22.2353751542
 20
21.964211916
 30
0.0
 11
22.2283544073
 21
21.9289665538
 31
0.0
 11
22.2301169446
 21
21.9325294775
 31
0.0
 11
22.2318686142
 21
21.944444925
 31
0.0
 11
22.2327411762
 21
21.9518309556
 31
0.0
 11
22.2336151772
 21
21.9586359413
 31
0.0
 11
22.2340536974
 21
21.961323946
 31
0.0
 11
22.2344934708
 21
21.963263555
 31
0.0
 11
22.2353751542
 21
21.964211916
 31
0.0
  0
SPLINE
  5
421
100
AcDbEntity
  8
RACCORDO
100
AcDbSpline
 62
253
  6
CONTINUOUS
 70
0
 71
3
 72
18
 73
14
 74
12
 42
0.0000001
 43
0.0000001
 44
0.0000000001
 12
0.2504658626
 22
-0.0000022645
 32
0.0
 13
-0.0000021847
 23
0.2504658626
 33
0.0
 40
0.0
 40
0.0
 40
0.0
 40
0.0
 40
0.1946180063
 40
0.3821247378
 40
0.5546902987
 40
0.7059320112
 40
0.8301519148
 40
0.8805474407
 40
0.9225140311
 40
0.9556361217
 40
0.979593731
 40
0.9942855547
 40
1.0
 40
1.0
 40
1.0
 40
1.0
 10
21.525
 20
-22.629704076
 30
0.0
 10
21.5412483889
 20
-22.6297042229
 30
0.0
 10
21.5731517001
 20
-22.6296067275
 30
0.0
 10
21.6194596831
 20
-22.629175035
 30
0.0
 10
21.6621453786
 20
-22.6284754161
 30
0.0
 10
21.6995329974
 20
-22.6275371582
 30
0.0
 10
21.7267367602
 20
-22.6265476389
 30
0.0
 10
21.7447712342
 20
-22.6256177813
 30
0.0
 10
21.7552786227
 20
-22.6249410969
 30
0.0
 10
21.7633812477
 20
-22.6242424284
 30
0.0
 10
21.7696525715
 20
-22.6235499433
 30
0.0
 10
21.7727209549
 20
-22.6228781269
 30
0.0
 10
21.7750000042
 20
-22.622326418
 30
0.0
 10
21.775
 20
-22.6218493269
 30
0.0
 11
21.525
 21
-22.629704076
 31
0.0
 11
21.5737449329
 21
-22.6295530616
 31
0.0
 11
21.6207068383
 21
-22.6291057954
 31
0.0
 11
21.6639225173
 21
-22.6283794799
 31
0.0
 11
21.7017907976
 21
-22.6274023076
 31
0.0
 11
21.732880881
 21
-22.626212409
 31
0.0
 11
21.7454859184
 21
-22.6255513665
 31
0.0
 11
21.7559739866
 21
-22.6248544349
 31
0.0
 11
21.7642380659
 21
-22.6241279161
 31
0.0
 11
21.7701917031
 21
-22.6233789409
 31
0.0
 11
21.7737916242
 21
-22.6226163808
 31
0.0
 11
21.775
 21
-22.6218493269
 31
0.0
  0
SPLINE
  5
422
100
AcDbEntity
  8
RACCORDO
100
AcDbSpline
 62
253
  6
CONTINUOUS
 70
0
 71
3
 72
11
 73
7
 74
5
 42
0.0000001
 43
0.0000001
 44
0.0000000001
 12
-0.0152561017
 22
0.020560751
 32
0.0
 13
-0.0028315002
 23
0.0254455444
 33
0.0
 40
0.0
 40
0.0
 40
0.0
 40
0.0
 40
0.1243189192
 40
0.3671680055
 40
0.6771515313
 40
1.0
 40
1.0
 40
1.0
 40
1.0
 10
-0.0028247332
 20
-21.9406659488
 30
0.0
 10
-0.0034569406
 20
-21.9398139187
 30
0.0
 10
-0.0038213554
 20
-21.9365152331
 30
0.0
 10
-0.0047646682
 20
-21.9309400971
 30
0.0
 10
-0.0054960592
 20
-21.9234473619
 30
0.0
 10
-0.0060798923
 20
-21.9180918946
 30
0.0
 10
-0.0063846075
 20
-21.915353543
 30
0.0
 11
-0.0028247332
 21
-21.9406659488
 31
0.0
 11
-0.0037205747
 21
-21.9376117319
 31
0.0
 11
-0.0046116366
 21
-21.9314583458
 31
0.0
 11
-0.0054985769
 21
-21.9235716779
 31
0.0
 11
-0.0063846075
 21
-21.915353543
 31
0.0
  0
LINE
  5
423
100
AcDbEntity
  8
RACCORDO
100
AcDbLine
 62
253
  6
CONTINUOUS
 10
-0.0008863206
 20
-21.9432561464
 11
-0.0028247332
 21
-21.9406659488
  0
SPLINE
  5
424
100
AcDbEntity
  8
RACCORDO
100
AcDbSpline
 62
253
  6
CONTINUOUS
 70
0
 71
3
 72
14
 73
10
 74
8
 42
0.0000001
 43
0.0000001
 44
0.0000000001
 12
-0.0255585356
 22
0.0258108895
 32
0.0
 13
-0.0216480458
 23
0.0291685254
 33
0.0
 40
0.0
 40
0.0
 40
0.0
 40
0.0
 40
0.1094326292
 40
0.4409896891
 40
0.6457405679
 40
0.8346201589
 40
0.9095990116
 40
0.9643516253
 40
1.0
 40
1.0
 40
1.0
 40
1.0
 10
0.0216455927
 20
-21.9289665538
 30
0.0
 10
0.0207132802
 20
-21.928025036
 30
0.0
 10
0.0188453058
 20
-21.9379710731
 30
0.0
 10
0.0184132569
 20
-21.942266728
 30
0.0
 10
0.0172309818
 20
-21.951812755
 30
0.0
 10
0.0167033591
 20
-21.9571421411
 30
0.0
 10
0.0158962078
 20
-21.9612332334
 30
0.0
 10
0.0158639747
 20
-21.9627118088
 30
0.0
 10
0.014882085
 20
-21.9645585195
 30
0.0
 10
0.0146248458
 20
-21.964211916
 30
0.0
 11
0.0216455927
 21
-21.9289665538
 31
0.0
 11
0.0198830554
 21
-21.9325294775
 31
0.0
 11
0.0181313858
 21
-21.944444925
 31
0.0
 11
0.0172588238
 21
-21.9518309556
 31
0.0
 11
0.0163848228
 21
-21.9586359413
 31
0.0
 11
0.0159463026
 21
-21.961323946
 31
0.0
 11
0.0155065292
 21
-21.963263555
 31
0.0
 11
0.0146248458
 21
-21.964211916
 31
0.0
  0
SPLINE
  5
425
100
AcDbEntity
  8
RACCORDO
100
AcDbSpline
 62
253
  6
CONTINUOUS
 70
0
 71
3
 72
18
 73
14
 74
12
 42
0.0000001
 43
0.0000001
 44
0.0000000001
 12
-0.2504641852
 22
0.0000011539
 32
0.0
 13
-0.0015304716
 23
0.2504595091
 33
0.0
 40
0.0
 40
0.0
 40
0.0
 40
0.0
 40
0.1945712207
 40
0.3820327322
 40
0.5545663793
 40
0.705795295
 40
0.8300192165
 40
0.8804237847
 40
0.922406488
 40
0.9555528931
 40
0.9795424797
 40
0.9942664188
 40
1.0
 40
1.0
 40
1.0
 40
1.0
 10
0.725
 20
-22.629704076
 30
0.0
 10
0.7087556259
 20
-22.6297040012
 30
0.0
 10
0.6768602121
 20
-22.6296063583
 30
0.0
 10
0.6305628797
 20
-22.6291751633
 30
0.0
 10
0.5878849718
 20
-22.6284765904
 30
0.0
 10
0.5505009581
 20
-22.6275389283
 30
0.0
 10
0.5232974004
 20
-22.6265501367
 30
0.0
 10
0.5052604777
 20
-22.6256207688
 30
0.0
 10
0.4947491943
 20
-22.6249447808
 30
0.0
 10
0.4866401546
 20
-22.6242445564
 30
0.0
 10
0.4803622754
 20
-22.6235540762
 30
0.0
 10
0.4772862262
 20
-22.6228763702
 30
0.0
 10
0.475002925
 20
-22.6223309199
 30
0.0
 10
0.4749999999
 20
-22.6218522433
 30
0.0
 11
0.725
 21
-22.629704076
 31
0.0
 11
0.6762671125
 21
-22.6295528181
 31
0.0
 11
0.6293168432
 21
-22.6291060659
 31
0.0
 11
0.5861094326
 21
-22.6283806731
 31
0.0
 11
0.5482445931
 21
-22.6274042454
 31
0.0
 11
0.5171536807
 21
-22.6262151416
 31
0.0
 11
0.5045464371
 21
-22.6255545386
 31
0.0
 11
0.4940543824
 21
-22.6248577945
 31
0.0
 11
0.4857842745
 21
-22.624130945
 31
0.0
 11
0.4798226997
 21
-22.6233812216
 31
0.0
 11
0.4762146539
 21
-22.6226183207
 31
0.0
 11
0.4749999999
 21
-22.6218522433
 31
0.0
  0
SPLINE
  5
426
100
AcDbEntity
  8
RACCORDO
100
AcDbSpline
 62
253
  6
CONTINUOUS
 70
0
 71
3
 72
9
 73
5
 74
3
 42
0.0000001
 43
0.0000001
 44
0.0000000001
 12
-0.0722001586
 22
0.0039451579
 32
0.0
 13
-0.072258796
 23
0.0026633761
 33
0.0
 40
0.0
 40
0.0
 40
0.0
 40
0.0
 40
0.2770554735
 40
1.0
 40
1.0
 40
1.0
 40
1.0
 10
0.4628564709
 20
22.4306686213
 30
0.0
 10
0.4561886546
 20
22.4310329638
 30
0.0
 10
0.4321229847
 20
22.4323602974
 30
0.0
 10
0.4080548844
 20
22.4336928607
 30
0.0
 10
0.3906418507
 20
22.4343346851
 30
0.0
 11
0.4628564709
 21
22.4306686213
 31
0.0
 11
0.4428534169
 21
22.4317688553
 31
0.0
 11
0.3906418507
 21
22.4343346851
 31
0.0
  0
SPLINE
  5
427
100
AcDbEntity
  8
RACCORDO
100
AcDbSpline
 62
253
  6
CONTINUOUS
 70
0
 71
3
 72
11
 73
7
 74
5
 42
0.0000001
 43
0.0000001
 44
0.0000000001
 12
-0.0468015035
 22
0.0017250496
 32
0.0
 13
-0.0440461845
 23
-0.015915092
 33
0.0
 40
0.0
 40
0.0
 40
0.0
 40
0.0
 40
0.3954124654
 40
0.698338982
 40
0.9014500281
 40
1.0
 40
1.0
 40
1.0
 40
1.0
 10
0.3906418507
 20
22.4343346851
 30
0.0
 10
0.3844732181
 20
22.4345620538
 30
0.0
 10
0.373589544
 20
22.4348622842
 30
0.0
 10
0.3594737413
 20
22.4351852637
 30
0.0
 10
0.3501226125
 20
22.4348477584
 30
0.0
 10
0.3453031098
 20
22.4347855466
 30
0.0
 10
0.343856193
 20
22.4342627359
 30
0.0
 11
0.3906418507
 21
22.4343346851
 31
0.0
 11
0.3721315949
 21
22.4348860082
 31
0.0
 11
0.3579455557
 21
22.4350548237
 31
0.0
 11
0.3484356805
 21
22.4348375278
 31
0.0
 11
0.343856193
 21
22.4342627359
 31
0.0
  0
SPLINE
  5
428
100
AcDbEntity
  8
RACCORDO
100
AcDbSpline
 62
253
  6
CONTINUOUS
 70
0
 71
3
 72
18
 73
14
 74
12
 42
0.0000001
 43
0.0000001
 44
0.0000000001
 12
0.2504641852
 22
-0.0000011539
 32
0.0
 13
0.0015304716
 23
-0.2504595091
 33
0.0
 40
0.0
 40
0.0
 40
0.0
 40
0.0
 40
0.1945712207
 40
0.3820327322
 40
0.5545663793
 40
0.705795295
 40
0.8300192165
 40
0.8804237847
 40
0.922406488
 40
0.9555528931
 40
0.9795424797
 40
0.9942664188
 40
1.0
 40
1.0
 40
1.0
 40
1.0
 10
21.525
 20
22.629704076
 30
0.0
 10
21.5412443741
 20
22.6297040012
 30
0.0
 10
21.5731397879
 20
22.6296063583
 30
0.0
 10
21.6194371203
 20
22.6291751633
 30
0.0
 10
21.6621150282
 20
22.6284765904
 30
0.0
 10
21.6994990419
 20
22.6275389283
 30
0.0
 10
21.7267025996
 20
22.6265501367
 30
0.0
 10
21.7447395223
 20
22.6256207688
 30
0.0
 10
21.7552508057
 20
22.6249447808
 30
0.0
 10
21.7633598454
 20
22.6242445564
 30
0.0
 10
21.7696377246
 20
22.6235540762
 30
0.0
 10
21.7727137738
 20
22.6228763702
 30
0.0
 10
21.774997075
 20
22.6223309199
 30
0.0
 10
21.7750000001
 20
22.6218522433
 30
0.0
 11
21.525
 21
22.629704076
 31
0.0
 11
21.5737328875
 21
22.6295528181
 31
0.0
 11
21.6206831568
 21
22.6291060659
 31
0.0
 11
21.6638905674
 21
22.6283806731
 31
0.0
 11
21.7017554069
 21
22.6274042454
 31
0.0
 11
21.7328463193
 21
22.6262151416
 31
0.0
 11
21.7454535629
 21
22.6255545386
 31
0.0
 11
21.7559456176
 21
22.6248577945
 31
0.0
 11
21.7642157255
 21
22.624130945
 31
0.0
 11
21.7701773003
 21
22.6233812216
 31
0.0
 11
21.7737853461
 21
22.6226183207
 31
0.0
 11
21.7750000001
 21
22.6218522433
 31
0.0
  0
SPLINE
  5
429
100
AcDbEntity
  8
RACCORDO
100
AcDbSpline
 62
253
  6
CONTINUOUS
 70
0
 71
3
 72
11
 73
7
 74
5
 42
0.0000001
 43
0.0000001
 44
0.0000000001
 12
0.0
 22
-0.3645127889
 32
0.0
 13
-0.3645127889
 23
0.0
 33
0.0
 40
0.0
 40
0.0
 40
0.0
 40
0.0
 40
0.23321751
 40
0.4765997713
 40
0.7336719567
 40
1.0
 40
1.0
 40
1.0
 40
1.0
 10
21.775
 20
23.4113248654
 30
0.0
 10
21.775
 20
23.3829879437
 30
0.0
 10
21.7612341244
 20
23.3243445575
 30
0.0
 10
21.7043126013
 20
23.2525602279
 30
0.0
 10
21.6215132079
 20
23.2056005996
 30
0.0
 10
21.5573599926
 20
23.1948185145
 30
0.0
 10
21.525
 20
23.1948185145
 30
0.0
 11
21.775
 21
23.4113248654
 31
0.0
 11
21.7559698831
 21
23.3284714719
 31
0.0
 11
21.7017766953
 21
23.2582317565
 31
0.0
 11
21.6206708581
 21
23.2112990791
 31
0.0
 11
21.525
 21
23.1948185145
 31
0.0
  0
SPLINE
  5
42A
100
AcDbEntity
  8
ASSI
100
AcDbSpline
 62
253
  6
CONTINUOUS
 70
0
 71
3
 72
22
 73
18
 74
16
 42
0.0000001
 43
0.0000001
 44
0.0000000001
 12
-0.1448164588
 22
-0.5762001975
 32
0.0
 13
-0.0007155519
 23
0.5941194849
 33
0.0
 40
0.0
 40
0.0
 40
0.0
 40
0.0
 40
0.0026985633
 40
0.0036489295
 40
0.0063433237
 40
0.0114744895
 40
0.0190960037
 40
0.0292188053
 40
0.0568794026
 40
0.0941994596
 40
0.1408849419
 40
0.19652617
 40
0.2606411655
 40
0.3327121469
 40
0.4120846152
 40
0.5899453272
 40
1.0
 40
1.0
 40
1.0
 40
1.0
 10
21.9248339282
 20
-21.1132695615
 30
0.0
 10
21.9247036627
 20
-21.1137878657
 30
0.0
 10
21.9247510884
 20
-21.1148481991
 30
0.0
 10
21.9232268703
 20
-21.1148274732
 30
0.0
 10
21.9231635477
 20
-21.1125611176
 30
0.0
 10
21.9223916367
 20
-21.1099168147
 30
0.0
 10
21.9219907581
 20
-21.1052374478
 30
0.0
 10
21.9211306151
 20
-21.0963785414
 30
0.0
 10
21.9202796398
 20
-21.0814603106
 30
0.0
 10
21.9192630678
 20
-21.0594005737
 30
0.0
 10
21.9183197346
 20
-21.0317486745
 30
0.0
 10
21.9174120087
 20
-20.9988030936
 30
0.0
 10
21.9165690824
 20
-20.960821454
 30
0.0
 10
21.9157949171
 20
-20.9181396395
 30
0.0
 10
21.9148283159
 20
-20.8529311409
 30
0.0
 10
21.9134360761
 20
-20.7207884325
 30
0.0
 10
21.9129545793
 20
-20.6043572328
 30
0.0
 10
21.9128567742
 20
-20.5231500758
 30
0.0
 11
21.9248339282
 21
-21.1132695615
 31
0.0
 11
21.9242683256
 21
-21.1147697511
 31
0.0
 11
21.9237036942
 21
-21.1147699859
 31
0.0
 11
21.9231414657
 21
-21.1132711737
 31
0.0
 11
21.922583072
 21
-21.1102742222
 31
0.0
 11
21.9220299449
 21
-21.1057800393
 31
0.0
 11
21.9214834954
 21
-21.099790758
 31
0.0
 11
21.9204153103
 21
-21.0833917989
 31
0.0
 11
21.9193872656
 21
-21.0612430555
 31
0.0
 11
21.9184079519
 21
-21.0335235746
 31
0.0
 11
21.9174856131
 21
-21.0004788824
 31
0.0
 11
21.9166282735
 21
-20.962396536
 31
0.0
 11
21.9158436449
 21
-20.9195849202
 31
0.0
 11
21.9151381968
 21
-20.8724334329
 31
0.0
 11
21.9139887266
 21
-20.7667690937
 31
0.0
 11
21.9128567742
 21
-20.5231500758
 31
0.0
  0
SPLINE
  5
42B
100
AcDbEntity
  8
ASSI
100
AcDbSpline
 62
253
  6
CONTINUOUS
 70
0
 71
3
 72
15
 73
11
 74
9
 42
0.0000001
 43
0.0000001
 44
0.0000000001
 12
0.8234053671
 22
0.0009633331
 32
0.0
 13
0.092194965
 23
0.818228217
 33
0.0
 40
0.0
 40
0.0
 40
0.0
 40
0.0
 40
0.368086227
 40
0.6828347048
 40
0.805814109
 40
0.856762199
 40
0.9001743903
 40
0.9358720719
 40
0.9639353727
 40
1.0
 40
1.0
 40
1.0
 40
1.0
 10
21.112978618
 20
-20.6455621794
 30
0.0
 10
21.2140066763
 20
-20.6454439829
 30
0.0
 10
21.4014326733
 20
-20.6398382301
 30
0.0
 10
21.6219614247
 20
-20.6194196688
 30
0.0
 10
21.7541250373
 20
-20.5960100396
 30
0.0
 10
21.8120734268
 20
-20.5815985034
 30
0.0
 10
21.8461156498
 20
-20.5710500764
 30
0.0
 10
21.8736408113
 20
-20.5598761298
 30
0.0
 10
21.8970960942
 20
-20.5470775414
 30
0.0
 10
21.9117484485
 20
-20.532986441
 30
0.0
 10
21.9128567742
 20
-20.5231500758
 30
0.0
 11
21.112978618
 21
-20.6455621794
 31
0.0
 11
21.4159121697
 21
-20.6360015286
 31
0.0
 11
21.6737146015
 21
-20.6094534773
 31
0.0
 11
21.7732733437
 21
-20.5909590568
 31
0.0
 11
21.813948469
 21
-20.5806917702
 31
0.0
 11
21.8480177425
 21
-20.5698727677
 31
0.0
 11
21.8751645223
 21
-20.5586015244
 31
0.0
 11
21.8951365475
 21
-20.5469793807
 31
0.0
 11
21.9128567742
 21
-20.5231500758
 31
0.0
  0
SPLINE
  5
42C
100
AcDbEntity
  8
ASSI
100
AcDbSpline
 62
253
  6
CONTINUOUS
 70
0
 71
3
 72
14
 73
10
 74
8
 42
0.0000001
 43
0.0000001
 44
0.0000000001
 12
0.0008507365
 22
1.5209426939
 32
0.0
 13
0.1180806293
 23
1.5163523228
 33
0.0
 40
0.0
 40
0.0
 40
0.0
 40
0.0
 40
0.3591307858
 40
0.5241994572
 40
0.6719040362
 40
0.797168176
 40
0.8956875103
 40
0.9640783759
 40
1.0
 40
1.0
 40
1.0
 40
1.0
 10
21.112978618
 20
19.9031911507
 30
0.0
 10
21.1130804599
 20
20.085263599
 30
0.0
 10
21.1135990704
 20
20.3510231322
 30
0.0
 10
21.115136629
 20
20.6916616362
 30
0.0
 10
21.1165575429
 20
20.9137356742
 30
0.0
 10
21.1183187139
 20
21.1020600835
 30
0.0
 10
21.1200580067
 20
21.2501897597
 30
0.0
 10
21.122310158
 20
21.3529734738
 30
0.0
 10
21.1235418894
 20
21.4058779348
 30
0.0
 10
21.124955772
 20
21.4240345475
 30
0.0
 11
21.112978618
 21
19.9031911507
 31
0.0
 11
21.1141106771
 21
20.4494074078
 31
0.0
 11
21.1152596004
 21
20.7004648081
 31
0.0
 11
21.1167499842
 21
20.9251100996
 31
0.0
 11
21.1185304945
 21
21.1156213876
 31
0.0
 11
21.1205368745
 21
21.2654502394
 31
0.0
 11
21.1227022732
 21
21.3694463016
 31
0.0
 11
21.124955772
 21
21.4240345475
 31
0.0
  0
SPLINE
  5
42D
100
AcDbEntity
  8
ASSI
100
AcDbSpline
 62
253
  6
CONTINUOUS
 70
0
 71
3
 72
14
 73
10
 74
8
 42
0.0000001
 43
0.0000001
 44
0.0000000001
 12
0.0008448826
 22
0.7099394227
 32
0.0
 13
0.116572238
 23
0.7003039419
 33
0.0
 40
0.0
 40
0.0
 40
0.0
 40
0.0
 40
0.3590804465
 40
0.5240929029
 40
0.6717871488
 40
0.7970333092
 40
0.8955530764
 40
0.9639796102
 40
1.0
 40
1.0
 40
1.0
 40
1.0
 10
21.9128567742
 20
19.9174732508
 30
0.0
 10
21.9129579011
 20
20.0024483724
 30
0.0
 10
21.9134765961
 20
20.1264739947
 30
0.0
 10
21.9150154203
 20
20.2854415093
 30
0.0
 10
21.9164366047
 20
20.3890758995
 30
0.0
 10
21.9181942902
 20
20.4769533673
 30
0.0
 10
21.919940337
 20
20.5461047158
 30
0.0
 10
21.9221835662
 20
20.5940351088
 30
0.0
 10
21.923434269
 20
20.6187917623
 30
0.0
 10
21.9248339282
 20
20.6272001693
 30
0.0
 11
21.9128567742
 21
19.9174732508
 31
0.0
 11
21.9139887266
 21
20.1723962831
 31
0.0
 11
21.9151381968
 21
20.2895395746
 31
0.0
 11
21.9166282735
 21
20.3943830283
 31
0.0
 11
21.9184079519
 21
20.4832824662
 31
0.0
 11
21.9204153103
 21
20.553196771
 31
0.0
 11
21.922583072
 21
20.6017271084
 31
0.0
 11
21.9248339282
 21
20.6272001693
 31
0.0
  0
SPLINE
  5
42E
100
AcDbEntity
  8
ASSI
100
AcDbSpline
 62
253
  6
CONTINUOUS
 70
0
 71
3
 72
21
 73
17
 74
15
 42
0.0000001
 43
0.0000001
 44
0.0000000001
 12
0.8003821054
 22
-0.0009475566
 32
0.0
 13
0.5356467785
 23
0.594722575
 33
0.0
 40
0.0
 40
0.0
 40
0.0
 40
0.0
 40
0.1928421074
 40
0.378482582
 40
0.5498607858
 40
0.7006023261
 40
0.7664230829
 40
0.8250221985
 40
0.8758658301
 40
0.9184644616
 40
0.9524263916
 40
0.977444634
 40
0.986522599
 40
0.9932968975
 40
0.9977700058
 40
1.0
 40
1.0
 40
1.0
 40
1.0
 10
21.1129786181
 20
19.9031915612
 30
0.0
 10
21.164427742
 20
19.9031306516
 30
0.0
 10
21.265404958
 20
19.9031983243
 30
0.0
 10
21.4121035647
 20
19.903859016
 30
0.0
 10
21.5475661824
 20
19.9050524375
 30
0.0
 10
21.6510572353
 20
19.9064990085
 30
0.0
 10
21.7244546421
 20
19.9079354318
 30
0.0
 10
21.7712010952
 20
19.9090602014
 30
0.0
 10
21.8117456131
 20
19.9102696461
 30
0.0
 10
21.845717251
 20
19.9115409426
 30
0.0
 10
21.8727746699
 20
19.9128762671
 30
0.0
 10
21.8909181956
 20
19.9140675799
 30
0.0
 10
21.9017394636
 20
19.9151456523
 30
0.0
 10
21.9071752104
 20
19.9158154771
 30
0.0
 10
21.9105947928
 20
19.9165514339
 30
0.0
 10
21.912458611
 20
19.9170311748
 30
0.0
 10
21.9128567741
 20
19.9174732508
 30
0.0
 11
21.1129786181
 21
19.9031915612
 31
0.0
 11
21.26732606
 21
19.9033001041
 31
0.0
 11
21.41590789
 21
19.9039870449
 31
0.0
 11
21.5530704326
 21
19.9052266296
 31
0.0
 11
21.6737087211
 21
19.9069721566
 31
0.0
 11
21.7263801949
 21
19.9080148215
 31
0.0
 11
21.7732679724
 21
19.9091582012
 31
0.0
 11
21.8139436496
 21
19.9103912194
 31
0.0
 11
21.8480136428
 21
19.9117021938
 31
0.0
 11
21.8751612888
 21
19.9130790754
 31
0.0
 11
21.8951343002
 21
19.9145094955
 31
0.0
 11
21.9023632687
 21
19.9152406108
 31
0.0
 11
21.9077346964
 21
19.9159796549
 31
0.0
 11
21.9112365444
 21
19.9167245582
 31
0.0
 11
21.9128567741
 21
19.9174732508
 31
0.0
  0
SPLINE
  5
42F
100
AcDbEntity
  8
ASSI
100
AcDbSpline
 62
253
  6
CONTINUOUS
 70
0
 71
3
 72
11
 73
7
 74
5
 42
0.0000001
 43
0.0000001
 44
0.0000000001
 12
1.2455670512
 22
-0.0022722493
 32
0.0
 13
0.000381415
 23
-1.2455690654
 33
0.0
 40
0.0
 40
0.0
 40
0.0
 40
0.0
 40
0.2505610203
 40
0.5008713912
 40
0.750671576
 40
1.0
 40
1.0
 40
1.0
 40
1.0
 10
21.124955772
 20
21.4240345475
 30
0.0
 10
21.2289859558
 20
21.4238447685
 30
0.0
 10
21.4391160679
 20
21.3821160812
 30
0.0
 10
21.7048519985
 20
21.2048197664
 30
0.0
 10
21.8830162722
 20
20.9402127039
 30
0.0
 10
21.924802229
 20
20.7307187599
 30
0.0
 10
21.9248339282
 20
20.6272001693
 30
0.0
 11
21.124955772
 21
21.4240345475
 31
0.0
 11
21.4310072965
 21
21.3629338055
 31
0.0
 11
21.6904662907
 21
21.1900549644
 31
0.0
 11
21.8638740823
 21
20.9317141981
 31
0.0
 11
21.9248339282
 21
20.6272001693
 31
0.0
  0
SPLINE
  5
430
100
AcDbEntity
  8
ASSI
100
AcDbSpline
 62
253
  6
CONTINUOUS
 70
0
 71
3
 72
14
 73
10
 74
8
 42
0.0000001
 43
0.0000001
 44
0.0000000001
 12
0.1180806277
 22
-1.516352323
 32
0.0
 13
0.0008507366
 23
-1.5209426939
 33
0.0
 40
0.0
 40
0.0
 40
0.0
 40
0.0
 40
0.0359216241
 40
0.1043124897
 40
0.202831824
 40
0.3280959638
 40
0.4758005428
 40
0.6408692142
 40
1.0
 40
1.0
 40
1.0
 40
1.0
 10
-21.374955772
 20
21.4240345475
 30
0.0
 10
-21.3735418894
 20
21.4058779348
 30
0.0
 10
-21.372310158
 20
21.3529734738
 30
0.0
 10
-21.3700580067
 20
21.2501897597
 30
0.0
 10
-21.3683187139
 20
21.1020600835
 30
0.0
 10
-21.3665575429
 20
20.9137356742
 30
0.0
 10
-21.365136629
 20
20.6916616362
 30
0.0
 10
-21.3635990704
 20
20.3510231322
 30
0.0
 10
-21.3630804599
 20
20.085263599
 30
0.0
 10
-21.362978618
 20
19.9031911507
 30
0.0
 11
-21.374955772
 21
21.4240345475
 31
0.0
 11
-21.3727022732
 21
21.3694463016
 31
0.0
 11
-21.3705368745
 21
21.2654502394
 31
0.0
 11
-21.3685304945
 21
21.1156213875
 31
0.0
 11
-21.3667499842
 21
20.9251100995
 31
0.0
 11
-21.3652596004
 21
20.7004648081
 31
0.0
 11
-21.3641106771
 21
20.4494074078
 31
0.0
 11
-21.362978618
 21
19.9031911507
 31
0.0
  0
SPLINE
  5
431
100
AcDbEntity
  8
ASSI
100
AcDbSpline
 62
253
  6
CONTINUOUS
 70
0
 71
3
 72
14
 73
10
 74
8
 42
0.0000001
 43
0.0000001
 44
0.0000000001
 12
0.1165722408
 22
-0.7003039415
 32
0.0
 13
0.0008448826
 23
-0.7099394227
 33
0.0
 40
0.0
 40
0.0
 40
0.0
 40
0.0
 40
0.0360203899
 40
0.1044469237
 40
0.2029666908
 40
0.3282128512
 40
0.4759070972
 40
0.6409195535
 40
1.0
 40
1.0
 40
1.0
 40
1.0
 10
-22.1748339282
 20
20.6272001693
 30
0.0
 10
-22.173434269
 20
20.6187917623
 30
0.0
 10
-22.1721835663
 20
20.5940351088
 30
0.0
 10
-22.169940337
 20
20.5461047158
 30
0.0
 10
-22.1681942902
 20
20.4769533673
 30
0.0
 10
-22.1664366047
 20
20.3890758995
 30
0.0
 10
-22.1650154203
 20
20.2854415093
 30
0.0
 10
-22.1634765961
 20
20.1264739947
 30
0.0
 10
-22.1629579011
 20
20.0024483724
 30
0.0
 10
-22.1628567742
 20
19.9174732508
 30
0.0
 11
-22.1748339282
 21
20.6272001693
 31
0.0
 11
-22.172583072
 21
20.6017271083
 31
0.0
 11
-22.1704153103
 21
20.5531967709
 31
0.0
 11
-22.1684079519
 21
20.4832824662
 31
0.0
 11
-22.1666282735
 21
20.3943830283
 31
0.0
 11
-22.1651381968
 21
20.2895395746
 31
0.0
 11
-22.1639887266
 21
20.172396283
 31
0.0
 11
-22.1628567742
 21
19.9174732508
 31
0.0
  0
SPLINE
  5
432
100
AcDbEntity
  8
ASSI
100
AcDbSpline
 62
253
  6
CONTINUOUS
 70
0
 71
3
 72
11
 73
7
 74
5
 42
0.0000001
 43
0.0000001
 44
0.0000000001
 12
-1.2455670491
 22
-0.0022722559
 32
0.0
 13
-0.000381417
 23
-1.2455690633
 33
0.0
 40
0.0
 40
0.0
 40
0.0
 40
0.0
 40
0.2505610208
 40
0.5008713924
 40
0.7506715773
 40
1.0
 40
1.0
 40
1.0
 40
1.0
 10
-21.374955772
 20
21.4240345475
 30
0.0
 10
-21.4789859558
 20
21.4238447679
 30
0.0
 10
-21.6891160678
 20
21.3821160792
 30
0.0
 10
-21.9548519976
 20
21.2048197635
 30
0.0
 10
-22.1330162714
 20
20.9402127022
 30
0.0
 10
-22.1748022288
 20
20.7307187592
 30
0.0
 10
-22.1748339282
 20
20.6272001693
 30
0.0
 11
-21.374955772
 21
21.4240345475
 31
0.0
 11
-21.6810072962
 21
21.3629338037
 31
0.0
 11
-21.9404662902
 21
21.1900549616
 31
0.0
 11
-22.113874082
 21
20.9317141959
 31
0.0
 11
-22.1748339282
 21
20.6272001693
 31
0.0
  0
SPLINE
  5
433
100
AcDbEntity
  8
ASSI
100
AcDbSpline
 62
253
  6
CONTINUOUS
 70
0
 71
3
 72
21
 73
17
 74
15
 42
0.0000001
 43
0.0000001
 44
0.0000000001
 12
-0.8003822093
 22
-0.0009476053
 32
0.0
 13
-0.5353785795
 23
0.5949641632
 33
0.0
 40
0.0
 40
0.0
 40
0.0
 40
0.0
 40
0.1928450034
 40
0.378487879
 40
0.5498676
 40
0.7006095823
 40
0.7664301446
 40
0.8250288045
 40
0.8758717418
 40
0.9184694711
 40
0.9524303185
 40
0.977447332
 40
0.9865246379
 40
0.9932982538
 40
0.9977706661
 40
1.0
 40
1.0
 40
1.0
 40
1.0
 10
-21.362978618
 20
19.9031911515
 30
0.0
 10
-21.4144285213
 20
19.9031302378
 30
0.0
 10
-21.5154071636
 20
19.9031979102
 30
0.0
 10
-21.6621076073
 20
19.9038586206
 30
0.0
 10
-21.7975714056
 20
19.9050520827
 30
0.0
 10
-21.9010629423
 20
19.906498704
 30
0.0
 10
-21.9744603018
 20
19.9079351766
 30
0.0
 10
-22.0212064021
 20
19.9090599804
 30
0.0
 10
-22.0617503744
 20
19.9102694606
 30
0.0
 10
-22.0957213061
 20
19.9115407894
 30
0.0
 10
-22.1227778533
 20
19.9128761497
 30
0.0
 10
-22.1409206181
 20
19.9140674832
 30
0.0
 10
-22.1517411518
 20
19.9151455932
 30
0.0
 10
-22.1571764255
 20
19.9158154163
 30
0.0
 10
-22.1605953114
 20
19.916551391
 30
0.0
 10
-22.1624589283
 20
19.9170311262
 30
0.0
 10
-22.1628567742
 20
19.9174732508
 30
0.0
 11
-21.362978618
 21
19.9031911515
 31
0.0
 11
-21.5173283979
 21
19.9032996939
 31
0.0
 11
-21.665912169
 21
19.9039866564
 31
0.0
 11
-21.8030759433
 21
19.9052262849
 31
0.0
 11
-21.9237146004
 21
19.9069718721
 31
0.0
 11
-21.9763859246
 21
19.9080145711
 31
0.0
 11
-22.0232733425
 21
19.9091579865
 31
0.0
 11
-22.063948468
 21
19.9103910412
 31
0.0
 11
-22.0980177416
 21
19.9117020525
 31
0.0
 11
-22.1251645216
 21
19.9130789706
 31
0.0
 11
-22.145136547
 21
19.9145094266
 31
0.0
 11
-22.1523649844
 21
19.9152405595
 31
0.0
 11
-22.1577358589
 21
19.915979621
 31
0.0
 11
-22.1612371342
 21
19.9167245414
 31
0.0
 11
-22.1628567742
 21
19.9174732508
 31
0.0
  0
SPLINE
  5
434
100
AcDbEntity
  8
ASSI
100
AcDbSpline
 62
253
  6
CONTINUOUS
 70
0
 71
3
 72
24
 73
20
 74
18
 42
0.0000001
 43
0.0000001
 44
0.0000000001
 12
-0.0007179902
 22
-1.2684039599
 32
0.0
 13
-1.2683354065
 23
-0.0132067241
 33
0.0
 40
0.0
 40
0.0
 40
0.0
 40
0.0
 40
0.2028120218
 40
0.3935935698
 40
0.5663654053
 40
0.644291258
 40
0.7157482043
 40
0.780174869
 40
0.8370724824
 40
0.8859923687
 40
0.9265539835
 40
0.9436017848
 40
0.9584438361
 40
0.9710537233
 40
0.9814097784
 40
0.9894907675
 40
0.9952774738
 40
0.9987672621
 40
1.0
 40
1.0
 40
1.0
 40
1.0
 10
-21.362978618
 20
-20.6455621847
 30
0.0
 10
-21.3630271571
 20
-20.7313113753
 30
0.0
 10
-21.3632393757
 20
-20.8977232245
 30
0.0
 10
-21.3639225273
 20
-21.1371824238
 30
0.0
 10
-21.3647964384
 20
-21.3238385771
 30
0.0
 10
-21.3656819697
 20
-21.4600431442
 30
0.0
 10
-21.3663955856
 20
-21.550439341
 30
0.0
 10
-21.3671757481
 20
-21.6319436927
 30
0.0
 10
-21.3680143839
 20
-21.703918744
 30
0.0
 10
-21.3689043544
 20
-21.7658005437
 30
0.0
 10
-21.3697168247
 20
-21.8108370393
 30
0.0
 10
-21.3704103118
 20
-21.8414570612
 30
0.0
 10
-21.3709018436
 20
-21.8602764361
 30
0.0
 10
-21.3714168889
 20
-21.8762206562
 30
0.0
 10
-21.3718855366
 20
-21.8894302465
 30
0.0
 10
-21.3724841042
 20
-21.8994217803
 30
0.0
 10
-21.3727640392
 20
-21.9072852758
 30
0.0
 10
-21.3736017694
 20
-21.9107477337
 30
0.0
 10
-21.3735820379
 20
-21.9137366218
 30
0.0
 10
-21.3741032129
 20
-21.9137420486
 30
0.0
 11
-21.362978618
 21
-20.6455621847
 31
0.0
 11
-21.3633155697
 21
-20.9028095768
 31
0.0
 11
-21.3640216709
 21
-21.1447966564
 31
0.0
 11
-21.3650757823
 21
-21.3639386366
 31
0.0
 11
-21.3657236881
 21
-21.462777989
 31
0.0
 11
-21.3664457017
 21
-21.5534114013
 31
0.0
 11
-21.3672362967
 21
-21.6351266267
 31
0.0
 11
-21.3680889824
 21
-21.7072907589
 31
0.0
 11
-21.3689965413
 21
-21.7693343089
 31
0.0
 11
-21.3699517052
 21
-21.8207739626
 31
0.0
 11
-21.3704448578
 21
-21.8423918406
 31
0.0
 11
-21.3709471779
 21
-21.8612108574
 31
0.0
 11
-21.3714577849
 21
-21.8771971384
 31
0.0
 11
-21.3719758093
 21
-21.8903225834
 31
0.0
 11
-21.3725003821
 21
-21.9005591115
 31
0.0
 11
-21.373030614
 21
-21.9078798168
 31
0.0
 11
-21.3735653438
 21
-21.9122738616
 31
0.0
 11
-21.3741032129
 21
-21.9137420486
 31
0.0
  0
SPLINE
  5
435
100
AcDbEntity
  8
ASSI
100
AcDbSpline
 62
253
  6
CONTINUOUS
 70
0
 71
3
 72
22
 73
18
 74
16
 42
0.0000001
 43
0.0000001
 44
0.0000000001
 12
-0.0007155519
 22
-0.5941194848
 32
0.0
 13
-0.144816464
 23
0.5762001961
 33
0.0
 40
0.0
 40
0.0
 40
0.0
 40
0.0
 40
0.4100546729
 40
0.5879153849
 40
0.6672878533
 40
0.7393588346
 40
0.8034738301
 40
0.8591150582
 40
0.9058005405
 40
0.9431205977
 40
0.970781195
 40
0.9809039966
 40
0.9885255107
 40
0.9936566764
 40
0.9963510706
 40
0.9973014368
 40
1.0
 40
1.0
 40
1.0
 40
1.0
 10
-22.1628567742
 20
-20.5231500758
 30
0.0
 10
-22.1629545793
 20
-20.6043572328
 30
0.0
 10
-22.1634360761
 20
-20.7207884326
 30
0.0
 10
-22.1648283159
 20
-20.852931141
 30
0.0
 10
-22.1657949171
 20
-20.9181396396
 30
0.0
 10
-22.1665690824
 20
-20.960821454
 30
0.0
 10
-22.1674120087
 20
-20.9988030936
 30
0.0
 10
-22.1683197346
 20
-21.0317486745
 30
0.0
 10
-22.1692630678
 20
-21.0594005737
 30
0.0
 10
-22.1702796398
 20
-21.0814603106
 30
0.0
 10
-22.1711306151
 20
-21.0963785415
 30
0.0
 10
-22.1719907581
 20
-21.1052374478
 30
0.0
 10
-22.1723916367
 20
-21.1099168147
 30
0.0
 10
-22.1731635477
 20
-21.1125611176
 30
0.0
 10
-22.1732268703
 20
-21.1148274732
 30
0.0
 10
-22.1747510884
 20
-21.1148481991
 30
0.0
 10
-22.1747036627
 20
-21.1137878657
 30
0.0
 10
-22.1748339282
 20
-21.1132695615
 30
0.0
 11
-22.1628567742
 21
-20.5231500758
 31
0.0
 11
-22.1639887266
 21
-20.7667690937
 31
0.0
 11
-22.1651381968
 21
-20.8724334329
 31
0.0
 11
-22.1658436449
 21
-20.9195849202
 31
0.0
 11
-22.1666282735
 21
-20.9623965361
 31
0.0
 11
-22.1674856131
 21
-21.0004788824
 31
0.0
 11
-22.1684079519
 21
-21.0335235746
 31
0.0
 11
-22.1693872656
 21
-21.0612430555
 31
0.0
 11
-22.1704153103
 21
-21.083391799
 31
0.0
 11
-22.1714834954
 21
-21.0997907581
 31
0.0
 11
-22.1720299449
 21
-21.1057800394
 31
0.0
 11
-22.172583072
 21
-21.1102742222
 31
0.0
 11
-22.1731414657
 21
-21.1132711737
 31
0.0
 11
-22.1737036942
 21
-21.1147699859
 31
0.0
 11
-22.1742683256
 21
-21.1147697511
 31
0.0
 11
-22.1748339282
 21
-21.1132695615
 31
0.0
  0
SPLINE
  5
436
100
AcDbEntity
  8
ASSI
100
AcDbSpline
 62
253
  6
CONTINUOUS
 70
0
 71
3
 72
15
 73
11
 74
9
 42
0.0000001
 43
0.0000001
 44
0.0000000001
 12
-0.8234033368
 22
0.0009631867
 32
0.0
 13
-0.0922766962
 23
0.8182169603
 33
0.0
 40
0.0
 40
0.0
 40
0.0
 40
0.0
 40
0.3680819231
 40
0.6828291232
 40
0.8058093173
 40
0.8567581036
 40
0.900171141
 40
0.9358697699
 40
0.9639340383
 40
1.0
 40
1.0
 40
1.0
 40
1.0
 10
-21.3629786181
 20
-20.6455588524
 30
0.0
 10
-21.4640052459
 20
-20.6454406752
 30
0.0
 10
-21.6514292495
 20
-20.6398351532
 30
0.0
 10
-21.871956179
 20
-20.6194173114
 30
0.0
 10
-22.004119641
 20
-20.5960084664
 30
0.0
 10
-22.0620686393
 20
-20.5815973461
 30
0.0
 10
-22.0961115535
 20
-20.5710491445
 30
0.0
 10
-22.1236375587
 20
-20.5598754831
 30
0.0
 10
-22.147093854
 20
-20.547077
 30
0.0
 10
-22.1617474248
 20
-20.5329866696
 30
0.0
 10
-22.1628567741
 20
-20.5231500758
 30
0.0
 11
-21.3629786181
 21
-20.6455588524
 31
0.0
 11
-21.66590789
 21
-20.6359986362
 31
0.0
 11
-21.9237087211
 21
-20.6094515502
 31
0.0
 11
-22.0232679724
 21
-20.5909576763
 31
0.0
 11
-22.0639436496
 21
-20.5806906564
 31
0.0
 11
-22.0980136428
 21
-20.5698719095
 31
0.0
 11
-22.1251612888
 21
-20.5586009072
 31
0.0
 11
-22.1451343002
 21
-20.5469789874
 31
0.0
 11
-22.1628567741
 21
-20.5231500758
 31
0.0
  0
SPLINE
  5
437
100
AcDbEntity
  8
ASSI
100
AcDbSpline
 62
253
  6
CONTINUOUS
 70
0
 71
3
 72
24
 73
20
 74
18
 42
0.0000001
 43
0.0000001
 44
0.0000000001
 12
-1.2683354065
 22
0.013206729
 32
0.0
 13
-0.0007179902
 23
1.2684039599
 33
0.0
 40
0.0
 40
0.0
 40
0.0
 40
0.0
 40
0.0012327379
 40
0.0047225262
 40
0.0105092325
 40
0.0185902216
 40
0.0289462768
 40
0.041556164
 40
0.0563982153
 40
0.0734460166
 40
0.1140076313
 40
0.1629275176
 40
0.219825131
 40
0.2842517958
 40
0.355708742
 40
0.4336345947
 40
0.6064064302
 40
0.7971879782
 40
1.0
 40
1.0
 40
1.0
 40
1.0
 10
21.1241032129
 20
-21.9137420486
 30
0.0
 10
21.1235820379
 20
-21.9137366218
 30
0.0
 10
21.1236017694
 20
-21.9107477338
 30
0.0
 10
21.1227640392
 20
-21.9072852758
 30
0.0
 10
21.1224841043
 20
-21.8994217803
 30
0.0
 10
21.1218855366
 20
-21.8894302465
 30
0.0
 10
21.1214168889
 20
-21.8762206562
 30
0.0
 10
21.1209018436
 20
-21.8602764361
 30
0.0
 10
21.1204103118
 20
-21.8414570612
 30
0.0
 10
21.1197168247
 20
-21.8108370393
 30
0.0
 10
21.1189043543
 20
-21.7658005437
 30
0.0
 10
21.1180143839
 20
-21.703918744
 30
0.0
 10
21.1171757481
 20
-21.6319436926
 30
0.0
 10
21.1163955856
 20
-21.550439341
 30
0.0
 10
21.1156819697
 20
-21.4600431441
 30
0.0
 10
21.1147964384
 20
-21.3238385771
 30
0.0
 10
21.1139225273
 20
-21.1371824238
 30
0.0
 10
21.1132393757
 20
-20.8977232245
 30
0.0
 10
21.1130271571
 20
-20.7313113753
 30
0.0
 10
21.112978618
 20
-20.6455621847
 30
0.0
 11
21.1241032129
 21
-21.9137420486
 31
0.0
 11
21.1235653438
 21
-21.9122738617
 31
0.0
 11
21.123030614
 21
-21.9078798168
 31
0.0
 11
21.1225003821
 21
-21.9005591115
 31
0.0
 11
21.1219758093
 21
-21.8903225834
 31
0.0
 11
21.1214577849
 21
-21.8771971384
 31
0.0
 11
21.1209471779
 21
-21.8612108574
 31
0.0
 11
21.1204448577
 21
-21.8423918406
 31
0.0
 11
21.1199517052
 21
-21.8207739626
 31
0.0
 11
21.1189965413
 21
-21.7693343089
 31
0.0
 11
21.1180889824
 21
-21.7072907589
 31
0.0
 11
21.1172362967
 21
-21.6351266266
 31
0.0
 11
21.1164457017
 21
-21.5534114013
 31
0.0
 11
21.1157236881
 21
-21.462777989
 31
0.0
 11
21.1150757823
 21
-21.3639386366
 31
0.0
 11
21.1140216709
 21
-21.1447966564
 31
0.0
 11
21.1133155697
 21
-20.9028095768
 31
0.0
 11
21.112978618
 21
-20.6455621847
 31
0.0
  0
SPLINE
  5
438
100
AcDbEntity
  8
RACCORDO
100
AcDbSpline
 62
253
  6
CONTINUOUS
 70
0
 71
3
 72
23
 73
19
 74
17
 42
0.0000001
 43
0.0000001
 44
0.0000000001
 12
-1.2676494418
 22
0.0433362457
 32
0.0
 13
-0.0007179822
 23
1.2683897752
 33
0.0
 40
0.0
 40
0.0
 40
0.0
 40
0.0
 40
0.0012408494
 40
0.0047342729
 40
0.0105157981
 40
0.0185881319
 40
0.0289456631
 40
0.0415630155
 40
0.0734540601
 40
0.1140135545
 40
0.1629439729
 40
0.2198368708
 40
0.2842665313
 40
0.3557356666
 40
0.4336528472
 40
0.6063908679
 40
0.7972625591
 40
1.0
 40
1.0
 40
1.0
 40
1.0
 10
21.1241037206
 20
-21.913728875
 30
0.0
 10
21.1235793999
 20
-21.9137109505
 30
0.0
 10
21.1236086011
 20
-21.9107394292
 30
0.0
 10
21.1227638231
 20
-21.9072498486
 30
0.0
 10
21.1224870346
 20
-21.8994057064
 30
0.0
 10
21.1218863033
 20
-21.8894128257
 30
0.0
 10
21.1214178092
 20
-21.8762063684
 30
0.0
 10
21.1206728438
 20
-21.8530628561
 30
0.0
 10
21.1198368332
 20
-21.8170784936
 30
0.0
 10
21.1189013707
 20
-21.7657792253
 30
0.0
 10
21.1180150199
 20
-21.7038910983
 30
0.0
 10
21.1171750785
 20
-21.6319149616
 30
0.0
 10
21.1163954389
 20
-21.5504065009
 30
0.0
 10
21.1156818972
 20
-21.4600087445
 30
0.0
 10
21.1147958933
 20
-21.3238184435
 30
0.0
 10
21.1139213483
 20
-21.1371442699
 30
0.0
 10
21.1132391246
 20
-20.897695448
 30
0.0
 10
21.1130271387
 20
-20.7312788838
 30
0.0
 10
21.112978618
 20
-20.6455621847
 30
0.0
 11
21.1241037206
 21
-21.913728875
 31
0.0
 11
21.1235665744
 21
-21.9122494917
 31
0.0
 11
21.1230323453
 21
-21.9078507911
 31
0.0
 11
21.1225022182
 21
-21.9005367493
 31
0.0
 11
21.1219773783
 21
-21.8903113423
 31
0.0
 11
21.1214589685
 21
-21.8771841859
 31
0.0
 11
21.1209479548
 21
-21.8611886233
 31
0.0
 11
21.1199517933
 21
-21.8207506099
 31
0.0
 11
21.1189962488
 21
-21.7693142285
 31
0.0
 11
21.1180886067
 21
-21.7072580134
 31
0.0
 11
21.1172359934
 21
-21.635100669
 31
0.0
 11
21.1164454953
 21
-21.5533825567
 31
0.0
 11
21.1157234751
 21
-21.4627346971
 31
0.0
 11
21.1150753429
 21
-21.3639074514
 31
0.0
 11
21.1140209563
 21
-21.1448108141
 31
0.0
 11
21.1133150654
 21
-20.9027121029
 31
0.0
 11
21.112978618
 21
-20.6455621847
 31
0.0
  0
SPLINE
  5
439
100
AcDbEntity
  8
RACCORDO
100
AcDbSpline
 62
253
  6
CONTINUOUS
 70
0
 71
3
 72
22
 73
18
 74
16
 42
0.0000001
 43
0.0000001
 44
0.0000000001
 12
-0.1448163595
 22
-0.5761998021
 32
0.0
 13
-0.0007155514
 23
0.5941190772
 33
0.0
 40
0.0
 40
0.0
 40
0.0
 40
0.0
 40
0.0026984168
 40
0.0036487976
 40
0.0063435889
 40
0.0114750484
 40
0.0190965703
 40
0.0292190993
 40
0.0568794726
 40
0.0941994112
 40
0.1408845096
 40
0.1965253162
 40
0.260640091
 40
0.3327109872
 40
0.41208295
 40
0.5899401084
 40
1.0
 40
1.0
 40
1.0
 40
1.0
 10
21.9248339282
 20
-21.1132695615
 30
0.0
 10
21.9247036699
 20
-21.1137878372
 30
0.0
 10
21.9247510461
 20
-21.1148483362
 30
0.0
 10
21.9232267684
 20
-21.114826928
 30
0.0
 10
21.9231635976
 20
-21.1125606937
 30
0.0
 10
21.9223915909
 20
-21.1099160625
 30
0.0
 10
21.9219907239
 20
-21.1052368001
 30
0.0
 10
21.9211305384
 20
-21.0963779385
 30
0.0
 10
21.9202796067
 20
-21.0814598798
 30
0.0
 10
21.9192630558
 20
-21.0594002818
 30
0.0
 10
21.9183197373
 20
-21.0317485915
 30
0.0
 10
21.9174120124
 20
-20.998803234
 30
0.0
 10
21.9165690881
 20
-20.9608217653
 30
0.0
 10
21.915794928
 20
-20.9181401405
 30
0.0
 10
21.914828337
 20
-20.8529325074
 30
0.0
 10
21.9134360664
 20
-20.7207896603
 30
0.0
 10
21.9129545805
 20
-20.6043582106
 30
0.0
 10
21.9128567742
 20
-20.5231500758
 30
0.0
 11
21.9248339282
 21
-21.1132695615
 31
0.0
 11
21.9242683223
 21
-21.1147696557
 31
0.0
 11
21.9237036826
 21
-21.1147696698
 31
0.0
 11
21.9231414428
 21
-21.1132706109
 31
0.0
 11
21.922583037
 21
-21.1102734864
 31
0.0
 11
21.9220298989
 21
-21.1057793033
 31
0.0
 11
21.9214834432
 21
-21.0997901894
 31
0.0
 11
21.9204152692
 21
-21.0833913742
 31
0.0
 11
21.9193872487
 21
-21.0612427153
 31
0.0
 11
21.9184079516
 21
-21.0335234811
 31
0.0
 11
21.9174856183
 21
-21.000479062
 31
0.0
 11
21.9166282803
 21
-20.9623968729
 31
0.0
 11
21.9158436537
 21
-20.919585337
 31
0.0
 11
21.9151382087
 21
-20.8724341824
 31
0.0
 11
21.9139887456
 21
-20.7667720271
 31
0.0
 11
21.9128567742
 21
-20.5231500758
 31
0.0
  0
SPLINE
  5
43A
100
AcDbEntity
  8
RACCORDO
100
AcDbSpline
 62
253
  6
CONTINUOUS
 70
0
 71
3
 72
14
 73
10
 74
8
 42
0.0000001
 43
0.0000001
 44
0.0000000001
 12
0.8233606616
 22
0.0009632784
 32
0.0
 13
0.0921899595
 23
0.8181837925
 33
0.0
 40
0.0
 40
0.0
 40
0.0
 40
0.0
 40
0.3681390079
 40
0.6828451857
 40
0.8058589933
 40
0.9001723042
 40
0.9358855274
 40
0.9639395461
 40
1.0
 40
1.0
 40
1.0
 40
1.0
 10
21.112978618
 20
-20.6455621794
 30
0.0
 10
21.2140156771
 20
-20.6454439726
 30
0.0
 10
21.4014387571
 20
-20.6397938367
 30
0.0
 10
21.6219538868
 20
-20.6195196209
 30
0.0
 10
21.7658548663
 20
-20.5937968305
 30
0.0
 10
21.8330513264
 20
-20.5763012481
 30
0.0
 10
21.8736417635
 20
-20.559888651
 30
0.0
 10
21.8970715836
 20
-20.5470440322
 30
0.0
 10
21.9117486369
 20
-20.5329847688
 30
0.0
 10
21.9128567742
 20
-20.5231500758
 30
0.0
 11
21.112978618
 21
-20.6455621794
 31
0.0
 11
21.4159391584
 21
-20.6360006716
 31
0.0
 11
21.6736921601
 21
-20.6094499766
 31
0.0
 11
21.7732752029
 21
-20.5909613813
 31
0.0
 11
21.8480119262
 21
-20.5698769325
 31
0.0
 11
21.8751670312
 21
-20.5585965324
 31
0.0
 11
21.8951214628
 21
-20.546961861
 31
0.0
 11
21.9128567742
 21
-20.5231500758
 31
0.0
  0
SPLINE
  5
43B
100
AcDbEntity
  8
RACCORDO
100
AcDbSpline
 62
253
  6
CONTINUOUS
 70
0
 71
3
 72
14
 73
10
 74
8
 42
0.0000001
 43
0.0000001
 44
0.0000000001
 12
0.0008507365
 22
1.5209426353
 32
0.0
 13
0.1180806248
 23
1.5163522643
 33
0.0
 40
0.0
 40
0.0
 40
0.0
 40
0.0
 40
0.3591530508
 40
0.5241889366
 40
0.6719043098
 40
0.7971661713
 40
0.895677542
 40
0.9640756677
 40
1.0
 40
1.0
 40
1.0
 40
1.0
 10
21.112978618
 20
19.9031911507
 30
0.0
 10
21.1130804662
 20
20.0852748799
 30
0.0
 10
21.1135976555
 20
20.3510290747
 30
0.0
 10
21.1151367525
 20
20.6916676947
 30
0.0
 10
21.1165573936
 20
20.9137294283
 30
0.0
 10
21.1183188747
 20
21.1020540866
 30
0.0
 10
21.1200574361
 20
21.2501823063
 30
0.0
 10
21.1223150479
 20
21.3529668453
 30
0.0
 10
21.1235417828
 20
21.4058765667
 30
0.0
 10
21.124955772
 20
21.4240345475
 30
0.0
 11
21.112978618
 21
19.9031911507
 31
0.0
 11
21.1141100658
 21
20.449441252
 31
0.0
 11
21.1152593987
 21
20.7004487749
 31
0.0
 11
21.1167499826
 21
20.9251104743
 31
0.0
 11
21.1185304759
 21
21.1156182897
 31
0.0
 11
21.1205377935
 21
21.26543501
 31
0.0
 11
21.1227046872
 21
21.3694420817
 31
0.0
 11
21.124955772
 21
21.4240345475
 31
0.0
  0
SPLINE
  5
43C
100
AcDbEntity
  8
RACCORDO
100
AcDbSpline
 62
253
  6
CONTINUOUS
 70
0
 71
3
 72
14
 73
10
 74
8
 42
0.0000001
 43
0.0000001
 44
0.0000000001
 12
0.0008448826
 22
0.7099394213
 32
0.0
 13
0.1165722377
 23
0.7003039405
 33
0.0
 40
0.0
 40
0.0
 40
0.0
 40
0.0
 40
0.3590848461
 40
0.5240941274
 40
0.67178772
 40
0.7970331756
 40
0.8955518998
 40
0.9639780829
 40
1.0
 40
1.0
 40
1.0
 40
1.0
 10
21.9128567742
 20
19.9174732508
 30
0.0
 10
21.9129579023
 20
20.0024494134
 30
0.0
 10
21.9134765866
 20
20.1264753255
 30
0.0
 10
21.9150154467
 20
20.2854429744
 30
0.0
 10
21.9164366017
 20
20.3890762923
 30
0.0
 10
21.9181943139
 20
20.47695319
 30
0.0
 10
21.9199402614
 20
20.5461040463
 30
0.0
 10
21.9221836108
 20
20.5940344627
 30
0.0
 10
21.9234342097
 20
20.6187914058
 30
0.0
 10
21.9248339282
 20
20.6272001693
 30
0.0
 11
21.9128567742
 21
19.9174732508
 31
0.0
 11
21.9139887456
 21
20.1723994059
 31
0.0
 11
21.9151382087
 21
20.2895404431
 31
0.0
 11
21.9166282803
 21
20.3943834328
 31
0.0
 11
21.9184079516
 21
20.4832823701
 31
0.0
 11
21.9204152692
 21
20.5531959352
 31
0.0
 11
21.922583037
 21
20.601726023
 31
0.0
 11
21.9248339282
 21
20.6272001693
 31
0.0
  0
SPLINE
  5
43D
100
AcDbEntity
  8
RACCORDO
100
AcDbSpline
 62
253
  6
CONTINUOUS
 70
0
 71
3
 72
21
 73
17
 74
15
 42
0.0000001
 43
0.0000001
 44
0.0000000001
 12
0.8003811956
 22
-0.0009475277
 32
0.0
 13
0.5356461649
 23
0.5947219031
 33
0.0
 40
0.0
 40
0.0
 40
0.0
 40
0.0
 40
0.1927008907
 40
0.3785167369
 40
0.5498801651
 40
0.7005751068
 40
0.7664131196
 40
0.8250254467
 40
0.8758503024
 40
0.9184582186
 40
0.952430646
 40
0.9774271333
 40
0.9865068289
 40
0.993288182
 40
0.9977683672
 40
1.0
 40
1.0
 40
1.0
 40
1.0
 10
21.1129786181
 20
19.9031915612
 30
0.0
 10
21.1643900078
 20
19.9031306981
 30
0.0
 10
21.2653762192
 20
19.9031996432
 30
0.0
 10
21.4120798349
 20
19.9038584911
 30
0.0
 10
21.5475727205
 20
19.9050518224
 30
0.0
 10
21.6510518597
 20
19.9065000637
 30
0.0
 10
21.7244448851
 20
19.9079359397
 30
0.0
 10
21.7711944394
 20
19.9090593981
 30
0.0
 10
21.8117398889
 20
19.910269329
 30
0.0
 10
21.8457117649
 20
19.9115405844
 30
0.0
 10
21.8727686348
 20
19.9128751851
 30
0.0
 10
21.8909094459
 20
19.9140702914
 30
0.0
 10
21.9017270203
 20
19.9151485666
 30
0.0
 10
21.9071674865
 20
19.9158175403
 30
0.0
 10
21.910590545
 20
19.9165536858
 30
0.0
 10
21.9124583189
 20
19.9170308505
 30
0.0
 10
21.9128567741
 20
19.9174732508
 30
0.0
 11
21.1129786181
 21
19.9031915612
 31
0.0
 11
21.2672128569
 21
19.903300572
 31
0.0
 11
21.4159348856
 21
19.9039871191
 31
0.0
 11
21.5530854468
 21
19.9052265726
 31
0.0
 11
21.6736862899
 21
19.9069726269
 31
0.0
 11
21.726371521
 21
19.9080151331
 31
0.0
 11
21.7732698373
 21
19.9091579083
 31
0.0
 11
21.8139304441
 21
19.910390574
 31
0.0
 11
21.8480078303
 21
19.91170168
 31
0.0
 11
21.8751638004
 21
19.9130796982
 31
0.0
 11
21.8951192177
 21
19.914511712
 31
0.0
 11
21.9023495537
 21
19.915242989
 31
0.0
 11
21.9077267195
 21
19.9159817073
 31
0.0
 11
21.9112345234
 21
19.9167258126
 31
0.0
 11
21.9128567741
 21
19.9174732508
 31
0.0
  0
SPLINE
  5
43E
100
AcDbEntity
  8
RACCORDO
100
AcDbSpline
 62
253
  6
CONTINUOUS
 70
0
 71
3
 72
11
 73
7
 74
5
 42
0.0000001
 43
0.0000001
 44
0.0000000001
 12
1.2455583596
 22
-0.0022722361
 32
0.0
 13
0.0003814123
 23
-1.2455603738
 33
0.0
 40
0.0
 40
0.0
 40
0.0
 40
0.0
 40
0.2505855211
 40
0.5008712462
 40
0.7506471812
 40
1.0
 40
1.0
 40
1.0
 40
1.0
 10
21.124955772
 20
21.4240345475
 30
0.0
 10
21.2289954022
 20
21.423844751
 30
0.0
 10
21.4391380497
 20
21.3821350701
 30
0.0
 10
21.7048050913
 20
21.2047727461
 30
0.0
 10
21.8830351408
 20
20.9402347704
 30
0.0
 10
21.9248022261
 20
20.730728166
 30
0.0
 10
21.9248339282
 20
20.6272001693
 30
0.0
 11
21.124955772
 21
21.4240345475
 31
0.0
 11
21.4310350795
 21
21.3629282173
 31
0.0
 11
21.6904426705
 21
21.1900315206
 31
0.0
 11
21.8638684998
 21
20.9317418586
 31
0.0
 11
21.9248339282
 21
20.6272001693
 31
0.0
  0
SPLINE
  5
43F
100
AcDbEntity
  8
RACCORDO
100
AcDbSpline
 62
253
  6
CONTINUOUS
 70
0
 71
3
 72
14
 73
10
 74
8
 42
0.0000001
 43
0.0000001
 44
0.0000000001
 12
0.1180806232
 22
-1.5163522645
 32
0.0
 13
0.0008507365
 23
-1.5209426353
 33
0.0
 40
0.0
 40
0.0
 40
0.0
 40
0.0
 40
0.0359243322
 40
0.104322458
 40
0.2028338287
 40
0.3280956902
 40
0.4758110634
 40
0.6408469492
 40
1.0
 40
1.0
 40
1.0
 40
1.0
 10
-21.374955772
 20
21.4240345475
 30
0.0
 10
-21.3735417829
 20
21.4058765667
 30
0.0
 10
-21.3723150479
 20
21.3529668453
 30
0.0
 10
-21.3700574361
 20
21.2501823063
 30
0.0
 10
-21.3683188747
 20
21.1020540866
 30
0.0
 10
-21.3665573936
 20
20.9137294283
 30
0.0
 10
-21.3651367525
 20
20.6916676947
 30
0.0
 10
-21.3635976555
 20
20.3510290747
 30
0.0
 10
-21.3630804663
 20
20.0852748799
 30
0.0
 10
-21.362978618
 20
19.9031911507
 30
0.0
 11
-21.374955772
 21
21.4240345475
 31
0.0
 11
-21.3727046872
 21
21.3694420817
 31
0.0
 11
-21.3705377935
 21
21.26543501
 31
0.0
 11
-21.3685304759
 21
21.1156182897
 31
0.0
 11
-21.3667499826
 21
20.9251104743
 31
0.0
 11
-21.3652593987
 21
20.7004487749
 31
0.0
 11
-21.3641100658
 21
20.449441252
 31
0.0
 11
-21.362978618
 21
19.9031911507
 31
0.0
  0
SPLINE
  5
440
100
AcDbEntity
  8
RACCORDO
100
AcDbSpline
 62
253
  6
CONTINUOUS
 70
0
 71
3
 72
14
 73
10
 74
8
 42
0.0000001
 43
0.0000001
 44
0.0000000001
 12
0.1165722406
 22
-0.70030394
 32
0.0
 13
0.0008448826
 23
-0.7099394213
 33
0.0
 40
0.0
 40
0.0
 40
0.0
 40
0.0
 40
0.0360219171
 40
0.1044481003
 40
0.2029668244
 40
0.32821228
 40
0.4759058726
 40
0.6409151539
 40
1.0
 40
1.0
 40
1.0
 40
1.0
 10
-22.1748339282
 20
20.6272001693
 30
0.0
 10
-22.1734342096
 20
20.6187914058
 30
0.0
 10
-22.1721836108
 20
20.5940344626
 30
0.0
 10
-22.1699402614
 20
20.5461040462
 30
0.0
 10
-22.1681943139
 20
20.47695319
 30
0.0
 10
-22.1664366017
 20
20.3890762923
 30
0.0
 10
-22.1650154467
 20
20.2854429744
 30
0.0
 10
-22.1634765866
 20
20.1264753255
 30
0.0
 10
-22.1629579023
 20
20.0024494134
 30
0.0
 10
-22.1628567742
 20
19.9174732508
 30
0.0
 11
-22.1748339282
 21
20.6272001693
 31
0.0
 11
-22.172583037
 21
20.601726023
 31
0.0
 11
-22.1704152692
 21
20.5531959351
 31
0.0
 11
-22.1684079516
 21
20.4832823702
 31
0.0
 11
-22.1666282803
 21
20.3943834327
 31
0.0
 11
-22.1651382087
 21
20.2895404431
 31
0.0
 11
-22.1639887456
 21
20.1723994059
 31
0.0
 11
-22.1628567742
 21
19.9174732508
 31
0.0
  0
SPLINE
  5
441
100
AcDbEntity
  8
RACCORDO
100
AcDbSpline
 62
253
  6
CONTINUOUS
 70
0
 71
3
 72
11
 73
7
 74
5
 42
0.0000001
 43
0.0000001
 44
0.0000000001
 12
-1.2455583574
 22
-0.0022722436
 32
0.0
 13
-0.0003814143
 23
-1.2455603716
 33
0.0
 40
0.0
 40
0.0
 40
0.0
 40
0.0
 40
0.2505855438
 40
0.500871279
 40
0.7506472084
 40
1.0
 40
1.0
 40
1.0
 40
1.0
 10
-21.374955772
 20
21.4240345475
 30
0.0
 10
-21.4789954115
 20
21.4238447504
 30
0.0
 10
-21.6891380727
 20
21.3821350625
 30
0.0
 10
-21.9548051153
 20
21.2047727189
 30
0.0
 10
-22.133035146
 20
20.9402347439
 30
0.0
 10
-22.1748022259
 20
20.7307281545
 30
0.0
 10
-22.1748339282
 20
20.6272001693
 30
0.0
 11
-21.374955772
 21
21.4240345475
 31
0.0
 11
-21.6810351054
 21
21.3629282052
 31
0.0
 11
-21.9404426981
 21
21.1900314896
 31
0.0
 11
-22.1138685112
 21
20.9317418258
 31
0.0
 11
-22.1748339282
 21
20.6272001693
 31
0.0
  0
SPLINE
  5
442
100
AcDbEntity
  8
RACCORDO
100
AcDbSpline
 62
253
  6
CONTINUOUS
 70
0
 71
3
 72
21
 73
17
 74
15
 42
0.0000001
 43
0.0000001
 44
0.0000000001
 12
-0.800381299
 22
-0.0009476018
 32
0.0
 13
-0.5353779673
 23
0.5949634895
 33
0.0
 40
0.0
 40
0.0
 40
0.0
 40
0.0
 40
0.192703778
 40
0.3785220256
 40
0.5498869708
 40
0.7005823506
 40
0.7664201719
 40
0.825032046
 40
0.8758562094
 40
0.9184632239
 40
0.95243457
 40
0.9774298292
 40
0.9865088659
 40
0.9932895369
 40
0.9977690268
 40
1.0
 40
1.0
 40
1.0
 40
1.0
 10
-21.362978618
 20
19.9031911515
 30
0.0
 10
-21.4143907848
 20
19.9031302827
 30
0.0
 10
-21.5153784203
 20
19.9031992251
 30
0.0
 10
-21.6620838707
 20
19.903858093
 30
0.0
 10
-21.7975779357
 20
19.9050514656
 30
0.0
 10
-21.9010575584
 20
19.9064997575
 30
0.0
 10
-21.9744505369
 20
19.9079356832
 30
0.0
 10
-22.0211997404
 20
19.9090591761
 30
0.0
 10
-22.0617446457
 20
19.9102691427
 30
0.0
 10
-22.0957158165
 20
19.9115404306
 30
0.0
 10
-22.1227718153
 20
19.9128750673
 30
0.0
 10
-22.1409118662
 20
19.9140701944
 30
0.0
 10
-22.1517287064
 20
19.9151485076
 30
0.0
 10
-22.1571687003
 20
19.9158174794
 30
0.0
 10
-22.1605910619
 20
19.9165536435
 30
0.0
 10
-22.1624586362
 20
19.9170308016
 30
0.0
 10
-22.1628567742
 20
19.9174732508
 30
0.0
 11
-21.362978618
 21
19.9031911515
 31
0.0
 11
-21.5172151878
 21
19.9033001586
 31
0.0
 11
-21.6659391577
 21
19.9039867279
 31
0.0
 11
-21.8030909505
 21
19.9052262258
 31
0.0
 11
-21.9236921589
 21
19.9069723409
 31
0.0
 11
-21.9763772429
 21
19.9080148815
 31
0.0
 11
-22.0232752017
 21
19.9091576926
 31
0.0
 11
-22.0639352583
 21
19.910390395
 31
0.0
 11
-22.0980119253
 21
19.9117015381
 31
0.0
 11
-22.1251670305
 21
19.9130795931
 31
0.0
 11
-22.1451214623
 21
19.914511643
 31
0.0
 11
-22.1523512675
 21
19.9152429377
 31
0.0
 11
-22.1577278804
 21
19.9159816734
 31
0.0
 11
-22.1612351122
 21
19.9167257958
 31
0.0
 11
-22.1628567742
 21
19.9174732508
 31
0.0
  0
SPLINE
  5
443
100
AcDbEntity
  8
RACCORDO
100
AcDbSpline
 62
253
  6
CONTINUOUS
 70
0
 71
3
 72
23
 73
19
 74
17
 42
0.0000001
 43
0.0000001
 44
0.0000000001
 12
-0.0007179821
 22
-1.2683897752
 32
0.0
 13
-1.2676494406
 23
-0.0433362766
 33
0.0
 40
0.0
 40
0.0
 40
0.0
 40
0.0
 40
0.2027374409
 40
0.3936091321
 40
0.5663471528
 40
0.6442643334
 40
0.7157334688
 40
0.7801631292
 40
0.8370560271
 40
0.8859864455
 40
0.92654594
 40
0.9584369846
 40
0.9710543369
 40
0.9814118682
 40
0.989484202
 40
0.9952657271
 40
0.9987591506
 40
1.0
 40
1.0
 40
1.0
 40
1.0
 10
-21.362978618
 20
-20.6455621847
 30
0.0
 10
-21.3630271387
 20
-20.7312788838
 30
0.0
 10
-21.3632391246
 20
-20.897695448
 30
0.0
 10
-21.3639213483
 20
-21.1371442699
 30
0.0
 10
-21.3647958933
 20
-21.3238184435
 30
0.0
 10
-21.3656818972
 20
-21.4600087445
 30
0.0
 10
-21.3663954389
 20
-21.5504065009
 30
0.0
 10
-21.3671750785
 20
-21.6319149616
 30
0.0
 10
-21.3680150199
 20
-21.7038910983
 30
0.0
 10
-21.3689013707
 20
-21.7657792253
 30
0.0
 10
-21.3698368332
 20
-21.8170784936
 30
0.0
 10
-21.3706728437
 20
-21.8530628561
 30
0.0
 10
-21.3714178092
 20
-21.8762063684
 30
0.0
 10
-21.3718863033
 20
-21.8894128257
 30
0.0
 10
-21.3724870345
 20
-21.8994057064
 30
0.0
 10
-21.3727638231
 20
-21.9072498485
 30
0.0
 10
-21.3736086011
 20
-21.9107394292
 30
0.0
 10
-21.3735793999
 20
-21.9137109504
 30
0.0
 10
-21.3741037206
 20
-21.913728875
 30
0.0
 11
-21.362978618
 21
-20.6455621847
 31
0.0
 11
-21.3633150654
 21
-20.9027121029
 31
0.0
 11
-21.3640209563
 21
-21.1448108141
 31
0.0
 11
-21.3650753429
 21
-21.3639074514
 31
0.0
 11
-21.3657234751
 21
-21.4627346971
 31
0.0
 11
-21.3664454953
 21
-21.5533825567
 31
0.0
 11
-21.3672359934
 21
-21.635100669
 31
0.0
 11
-21.3680886067
 21
-21.7072580134
 31
0.0
 11
-21.3689962488
 21
-21.7693142285
 31
0.0
 11
-21.3699517933
 21
-21.8207506099
 31
0.0
 11
-21.3709479548
 21
-21.8611886233
 31
0.0
 11
-21.3714589685
 21
-21.8771841859
 31
0.0
 11
-21.3719773783
 21
-21.8903113423
 31
0.0
 11
-21.3725022182
 21
-21.9005367493
 31
0.0
 11
-21.3730323452
 21
-21.907850791
 31
0.0
 11
-21.3735665744
 21
-21.9122494916
 31
0.0
 11
-21.3741037206
 21
-21.913728875
 31
0.0
  0
SPLINE
  5
444
100
AcDbEntity
  8
RACCORDO
100
AcDbSpline
 62
253
  6
CONTINUOUS
 70
0
 71
3
 72
22
 73
18
 74
16
 42
0.0000001
 43
0.0000001
 44
0.0000000001
 12
-0.0007155514
 22
-0.5941190771
 32
0.0
 13
-0.1448163646
 23
0.5761998006
 33
0.0
 40
0.0
 40
0.0
 40
0.0
 40
0.0
 40
0.4100598916
 40
0.5879170501
 40
0.667289013
 40
0.7393599091
 40
0.803474684
 40
0.8591154906
 40
0.9058005889
 40
0.9431205277
 40
0.970780901
 40
0.98090343
 40
0.9885249518
 40
0.9936564112
 40
0.9963512025
 40
0.9973015833
 40
1.0
 40
1.0
 40
1.0
 40
1.0
 10
-22.1628567742
 20
-20.5231500758
 30
0.0
 10
-22.1629545805
 20
-20.6043582106
 30
0.0
 10
-22.1634360664
 20
-20.7207896603
 30
0.0
 10
-22.164828337
 20
-20.8529325075
 30
0.0
 10
-22.165794928
 20
-20.9181401405
 30
0.0
 10
-22.1665690881
 20
-20.9608217653
 30
0.0
 10
-22.1674120124
 20
-20.998803234
 30
0.0
 10
-22.1683197373
 20
-21.0317485915
 30
0.0
 10
-22.1692630558
 20
-21.0594002819
 30
0.0
 10
-22.1702796067
 20
-21.0814598798
 30
0.0
 10
-22.1711305384
 20
-21.0963779386
 30
0.0
 10
-22.1719907239
 20
-21.1052368002
 30
0.0
 10
-22.1723915909
 20
-21.1099160626
 30
0.0
 10
-22.1731635976
 20
-21.1125606937
 30
0.0
 10
-22.1732267684
 20
-21.114826928
 30
0.0
 10
-22.174751046
 20
-21.1148483362
 30
0.0
 10
-22.1747036699
 20
-21.1137878372
 30
0.0
 10
-22.1748339282
 20
-21.1132695615
 30
0.0
 11
-22.1628567742
 21
-20.5231500758
 31
0.0
 11
-22.1639887456
 21
-20.7667720271
 31
0.0
 11
-22.1651382087
 21
-20.8724341824
 31
0.0
 11
-22.1658436537
 21
-20.919585337
 31
0.0
 11
-22.1666282803
 21
-20.9623968729
 31
0.0
 11
-22.1674856183
 21
-21.000479062
 31
0.0
 11
-22.1684079516
 21
-21.0335234811
 31
0.0
 11
-22.1693872487
 21
-21.0612427153
 31
0.0
 11
-22.1704152692
 21
-21.0833913742
 31
0.0
 11
-22.1714834432
 21
-21.0997901895
 31
0.0
 11
-22.1720298989
 21
-21.1057793034
 31
0.0
 11
-22.172583037
 21
-21.1102734864
 31
0.0
 11
-22.1731414428
 21
-21.1132706109
 31
0.0
 11
-22.1737036826
 21
-21.1147696697
 31
0.0
 11
-22.1742683223
 21
-21.1147696557
 31
0.0
 11
-22.1748339282
 21
-21.1132695615
 31
0.0
  0
SPLINE
  5
445
100
AcDbEntity
  8
RACCORDO
100
AcDbSpline
 62
253
  6
CONTINUOUS
 70
0
 71
3
 72
14
 73
10
 74
8
 42
0.0000001
 43
0.0000001
 44
0.0000000001
 12
-0.8233586368
 22
0.0009631061
 32
0.0
 13
-0.0922716869
 23
0.8181725418
 33
0.0
 40
0.0
 40
0.0
 40
0.0
 40
0.0
 40
0.3681347097
 40
0.6828396118
 40
0.8058542035
 40
0.9001690584
 40
0.9358832271
 40
0.9639382117
 40
1.0
 40
1.0
 40
1.0
 40
1.0
 10
-21.3629786181
 20
-20.6455588524
 30
0.0
 10
-21.464014249
 20
-20.6454406681
 30
0.0
 10
-21.651435344
 20
-20.6397907744
 30
0.0
 10
-21.8719486381
 20
-20.6195172392
 30
0.0
 10
-22.0158497016
 20
-20.5937953157
 30
0.0
 10
-22.0830469946
 20
-20.5763001263
 30
0.0
 10
-22.1236385125
 20
-20.5598880022
 30
0.0
 10
-22.1470693473
 20
-20.5470434908
 30
0.0
 10
-22.1617476134
 20
-20.5329849975
 30
0.0
 10
-22.1628567741
 20
-20.5231500758
 30
0.0
 11
-21.3629786181
 21
-20.6455588524
 31
0.0
 11
-21.6659348856
 21
-20.6359977814
 31
0.0
 11
-21.9236862899
 21
-20.6094480497
 31
0.0
 11
-22.0232698373
 21
-20.5909600001
 31
0.0
 11
-22.0980078303
 21
-20.569876073
 31
0.0
 11
-22.1251638004
 21
-20.5585959146
 31
0.0
 11
-22.1451192177
 21
-20.5469614677
 31
0.0
 11
-22.1628567741
 21
-20.5231500758
 31
0.0
  0
SPLINE
  5
446
100
AcDbEntity
  8
ASSI
100
AcDbSpline
 62
253
  6
CONTINUOUS
 70
0
 71
3
 72
23
 73
19
 74
17
 42
0.0000001
 43
0.0000001
 44
0.0000000001
 12
-0.7983477156
 22
-0.0558259106
 32
0.0
 13
-0.0558300814
 23
0.7983474239
 33
0.0
 40
0.0
 40
0.0
 40
0.0
 40
0.0
 40
0.001478666
 40
0.0051894834
 40
0.0112520403
 40
0.0196751905
 40
0.0304528662
 40
0.0435637699
 40
0.0766380329
 40
0.1185921046
 40
0.1690311522
 40
0.2274582438
 40
0.293329817
 40
0.3659972431
 40
0.4447791708
 40
0.6175397156
 40
0.8050432964
 40
1.0
 40
1.0
 40
1.0
 40
1.0
 10
-48.2780640109
 20
-21.9101039397
 30
0.0
 10
-48.2784575075
 20
-21.9101314557
 30
0.0
 10
-48.2791299658
 20
-21.9083915865
 30
0.0
 10
-48.2798639626
 20
-21.9059091282
 30
0.0
 10
-48.2808706084
 20
-21.9009237134
 30
0.0
 10
-48.2819719737
 20
-21.89437623
 30
0.0
 10
-48.2832288224
 20
-21.885809161
 30
0.0
 10
-48.2852211952
 20
-21.8707627208
 30
0.0
 10
-48.287955969
 20
-21.847396792
 30
0.0
 10
-48.2914908723
 20
-21.8141184494
 30
0.0
 10
-48.2954435972
 20
-21.7740772954
 30
0.0
 10
-48.2997745558
 20
-21.7276653509
 30
0.0
 10
-48.304437474
 20
-21.6753285359
 30
0.0
 10
-48.3093883786
 20
-21.6175665174
 30
0.0
 10
-48.3165286924
 20
-21.5313735601
 30
0.0
 10
-48.3257619218
 20
-21.414615214
 30
0.0
 10
-48.3368606181
 20
-21.2669174445
 30
0.0
 10
-48.3441498362
 20
-21.1651506222
 30
0.0
 10
-48.3477779857
 20
-21.1132695615
 30
0.0
 11
-48.2780640109
 21
-21.9101039397
 31
0.0
 11
-48.2788136098
 21
-21.9091882589
 31
0.0
 11
-48.2796965883
 21
-21.906352804
 31
0.0
 11
-48.2807102676
 21
-21.9016080304
 31
0.0
 11
-48.2818519687
 21
-21.8949643931
 31
0.0
 11
-48.2831190001
 21
-21.886432618
 31
0.0
 11
-48.2845082455
 21
-21.8760323747
 31
0.0
 11
-48.2876388363
 21
-21.8497489185
 31
0.0
 11
-48.29121437
 21
-21.8163641175
 31
0.0
 11
-48.2952009977
 21
-21.7761952339
 31
0.0
 11
-48.2995595071
 21
-21.7296397723
 31
0.0
 11
-48.3042486479
 21
-21.6771318995
 31
0.0
 11
-48.3092226589
 21
-21.6191894645
 31
0.0
 11
-48.3144344175
 21
-21.5563562851
 31
0.0
 11
-48.3253656713
 21
-21.4185293121
 31
0.0
 11
-48.3366260561
 21
-21.2688938071
 31
0.0
 11
-48.3477779857
 21
-21.1132695615
 31
0.0
  0
SPLINE
  5
447
100
AcDbEntity
  8
ASSI
100
AcDbSpline
 62
253
  6
CONTINUOUS
 70
0
 71
3
 72
23
 73
19
 74
17
 42
0.0000001
 43
0.0000001
 44
0.0000000001
 12
-0.7959130848
 22
-0.0836538361
 32
0.0
 13
0.0836496068
 23
-0.7959135293
 33
0.0
 40
0.0
 40
0.0
 40
0.0
 40
0.0
 40
0.0014786646
 40
0.0051894814
 40
0.011252038
 40
0.0196751879
 40
0.0304528635
 40
0.043563767
 40
0.0766380299
 40
0.1185921015
 40
0.1690311492
 40
0.227458241
 40
0.2933298143
 40
0.3659972407
 40
0.4447791687
 40
0.6175397141
 40
0.8050432957
 40
1.0
 40
1.0
 40
1.0
 40
1.0
 10
-52.0693098722
 20
21.4240345475
 30
0.0
 10
-52.0697021684
 20
21.4239933155
 30
0.0
 10
-52.0700622824
 20
21.4221631068
 30
0.0
 10
-52.0703540533
 20
21.4195909071
 30
0.0
 10
-52.070479695
 20
21.4145064293
 30
0.0
 10
-52.0704273678
 20
21.4078671674
 30
0.0
 10
-52.070177464
 20
21.399212002
 30
0.0
 10
-52.0695267781
 20
21.3840481796
 30
0.0
 10
-52.0681625497
 20
21.3605623436
 30
0.0
 10
-52.0658650224
 20
21.3271757447
 30
0.0
 10
-52.0628046201
 20
21.2870565226
 30
0.0
 10
-52.0590104301
 20
21.240597617
 30
0.0
 10
-52.0545143146
 20
21.1882462087
 30
0.0
 10
-52.0493597348
 20
21.1305020095
 30
0.0
 10
-52.0414243226
 20
21.0443786142
 30
0.0
 10
-52.0302424089
 20
20.9277907559
 30
0.0
 10
-52.0155250515
 20
20.7804095781
 30
0.0
 10
-52.0050319146
 20
20.6789230621
 30
0.0
 10
-51.9995958974
 20
20.6272001693
 30
0.0
 11
-52.0693098722
 21
21.4240345475
 31
0.0
 11
-52.0698890747
 21
21.4230026117
 31
0.0
 11
-52.0702662652
 21
21.4200569063
 31
0.0
 11
-52.0704406211
 21
21.4152081931
 31
0.0
 11
-52.0704113196
 21
21.4084672335
 31
0.0
 11
-52.0701775726
 21
21.3998450579
 31
0.0
 11
-52.0697397267
 21
21.3893615779
 31
0.0
 11
-52.068258678
 21
21.3629338055
 31
0.0
 11
-52.0659826775
 21
21.3294353102
 31
0.0
 11
-52.0629334827
 21
21.2891844119
 31
0.0
 11
-52.0591415034
 21
21.2425793853
 31
0.0
 11
-52.0546415082
 21
21.1900549644
 31
0.0
 11
-52.0494783546
 21
21.1321290773
 31
0.0
 11
-52.0437000688
 21
21.0693454626
 31
0.0
 11
-52.0305318547
 21
20.9317141981
 31
0.0
 11
-52.015637245
 21
20.7823966465
 31
0.0
 11
-51.9995958974
 21
20.6272001693
 31
0.0
  0
SPLINE
  5
448
100
AcDbEntity
  8
RACCORDO
100
AcDbSpline
 62
253
  6
CONTINUOUS
 70
0
 71
3
 72
21
 73
17
 74
15
 42
0.0000001
 43
0.0000001
 44
0.0000000001
 12
-0.7983455406
 22
-0.0558257585
 32
0.0
 13
-0.055829929
 23
0.7983452489
 33
0.0
 40
0.0
 40
0.0
 40
0.0
 40
0.0
 40
0.0014811862
 40
0.0052002727
 40
0.0112705818
 40
0.0196953622
 40
0.0435587595
 40
0.0766426663
 40
0.1186063727
 40
0.1690263598
 40
0.2274678585
 40
0.2933575838
 40
0.4447582304
 40
0.6175039746
 40
0.8051889894
 40
1.0
 40
1.0
 40
1.0
 40
1.0
 10
-48.2780640109
 20
-21.9101039397
 30
0.0
 10
-48.2784581771
 20
-21.9101315025
 30
0.0
 10
-48.2791274612
 20
-21.9083842048
 30
0.0
 10
-48.2798630809
 20
-21.9058997977
 30
0.0
 10
-48.2808687406
 20
-21.9009097115
 30
0.0
 10
-48.2825413783
 20
-21.8909531951
 30
0.0
 10
-48.2848865984
 20
-21.8735671647
 30
0.0
 10
-48.2879574007
 20
-21.8474091555
 30
0.0
 10
-48.2914913119
 20
-21.8141065217
 30
0.0
 10
-48.2954448984
 20
-21.7740727823
 30
0.0
 10
-48.2997748895
 20
-21.7276544073
 30
0.0
 10
-48.3063012188
 20
-21.6543896429
 30
0.0
 10
-48.3149988556
 20
-21.5507046429
 30
0.0
 10
-48.325764698
 20
-21.4145908658
 30
0.0
 10
-48.3368613246
 20
-21.2668876418
 30
0.0
 10
-48.3441525574
 20
-21.1651117097
 30
0.0
 10
-48.3477779857
 20
-21.1132695615
 30
0.0
 11
-48.2780640109
 21
-21.9101039397
 31
0.0
 11
-48.2788126783
 21
-21.9091848983
 31
0.0
 11
-48.2796954107
 21
-21.9063424451
 31
0.0
 11
-48.2807092349
 21
-21.901591372
 31
0.0
 11
-48.2818511776
 21
-21.8949464711
 31
0.0
 11
-48.2845075257
 21
-21.876034354
 31
0.0
 11
-48.2876397109
 21
-21.8497433879
 31
0.0
 11
-48.2912159083
 21
-21.8163509952
 31
0.0
 11
-48.2952011194
 21
-21.7761974105
 31
0.0
 11
-48.2995598749
 21
-21.7296305195
 31
0.0
 11
-48.3042498874
 21
-21.6771082839
 31
0.0
 11
-48.3144333713
 21
-21.556371801
 31
0.0
 11
-48.3253636372
 21
-21.4185570095
 31
0.0
 11
-48.3366339097
 21
-21.2687770473
 31
0.0
 11
-48.3477779857
 21
-21.1132695615
 31
0.0
  0
SPLINE
  5
449
100
AcDbEntity
  8
RACCORDO
100
AcDbSpline
 62
253
  6
CONTINUOUS
 70
0
 71
3
 72
21
 73
17
 74
15
 42
0.0000001
 43
0.0000001
 44
0.0000000001
 12
-0.7959109163
 22
-0.0836536082
 32
0.0
 13
0.083649378
 23
-0.7959113609
 33
0.0
 40
0.0
 40
0.0
 40
0.0
 40
0.0
 40
0.0014811842
 40
0.0052002689
 40
0.0112705761
 40
0.0196953543
 40
0.0435587479
 40
0.0766426504
 40
0.1186063492
 40
0.1690263302
 40
0.2274678262
 40
0.2933575457
 40
0.4447581849
 40
0.6175039347
 40
0.8051889761
 40
1.0
 40
1.0
 40
1.0
 40
1.0
 10
-52.0693098722
 20
21.4240345475
 30
0.0
 10
-52.0697028358
 20
21.4239932454
 30
0.0
 10
-52.0700585338
 20
21.4221562728
 30
0.0
 10
-52.0703515645
 20
21.4195818729
 30
0.0
 10
-52.0704754239
 20
21.4144929672
 30
0.0
 10
-52.0703937171
 20
21.4043972648
 30
0.0
 10
-52.0696842519
 20
21.3868681266
 30
0.0
 10
-52.0681661074
 20
21.3605742819
 30
0.0
 10
-52.0658633855
 20
21.3271639378
 30
0.0
 10
-52.0628051195
 20
21.2870518725
 30
0.0
 10
-52.0590088602
 20
21.2405868061
 30
0.0
 10
-52.0527137465
 20
21.1673018174
 30
0.0
 10
-52.043274537
 20
21.063681699
 30
0.0
 10
-52.0302409175
 20
20.9277663205
 30
0.0
 10
-52.0155205731
 20
20.780380119
 30
0.0
 10
-52.0050278378
 20
20.6788842717
 30
0.0
 10
-51.9995958974
 20
20.6272001693
 30
0.0
 11
-52.0693098722
 21
21.4240345475
 31
0.0
 11
-52.0698875736
 21
21.4229994643
 31
0.0
 11
-52.0702633064
 21
21.4200469107
 31
0.0
 11
-52.0704367111
 21
21.4151919699
 31
0.0
 11
-52.0704074283
 21
21.4084497254
 31
0.0
 11
-52.0697393618
 21
21.389363659
 31
0.0
 11
-52.0682585797
 21
21.3629282173
 31
0.0
 11
-52.0659819151
 21
21.3294221364
 31
0.0
 11
-52.0629339823
 21
21.2891865555
 31
0.0
 11
-52.0591402607
 21
21.2425702328
 31
0.0
 11
-52.0546386305
 21
21.1900315206
 31
0.0
 11
-52.0437017361
 21
21.069360959
 31
0.0
 11
-52.0305346642
 21
20.9317418586
 31
0.0
 11
-52.0156247051
 21
20.7822803068
 31
0.0
 11
-51.9995958974
 21
20.6272001693
 31
0.0
  0
SPLINE
  5
44A
100
AcDbEntity
  8
RACCORDO
100
AcDbSpline
 62
253
  6
CONTINUOUS
 70
0
 71
3
 72
21
 73
17
 74
15
 42
0.0000001
 43
0.0000001
 44
0.0000000001
 12
0.0087168182
 22
-0.5004061628
 32
0.0
 13
0.5004411687
 23
0.0063990087
 33
0.0
 40
0.0
 40
0.0
 40
0.0
 40
0.0
 40
0.194769862
 40
0.382433489
 40
0.5551734573
 40
0.7065798769
 40
0.7724755613
 40
0.8309244032
 40
0.8813526632
 40
0.9233251952
 40
0.9564181029
 40
0.9802903185
 40
0.9887193393
 40
0.9947936979
 40
0.9985164845
 40
1.0
 40
1.0
 40
1.0
 40
1.0
 10
-40.2827322238
 20
-21.8978033211
 30
0.0
 10
-40.2821662993
 20
-21.9302913342
 30
0.0
 10
-40.2809466457
 20
-21.9940801791
 30
0.0
 10
-40.2788549307
 20
-22.0866749254
 30
0.0
 10
-40.2765902577
 20
-22.1720289027
 30
0.0
 10
-40.274555177
 20
-22.2370674932
 30
0.0
 10
-40.2728798184
 20
-22.2830393125
 30
0.0
 10
-40.2716966697
 20
-22.3121736685
 30
0.0
 10
-40.2705395511
 20
-22.337308903
 30
0.0
 10
-40.2694242841
 20
-22.3582269825
 30
0.0
 10
-40.2683640671
 20
-22.3746681688
 30
0.0
 10
-40.2674703277
 20
-22.385606454
 30
0.0
 10
-40.2667522343
 20
-22.3918823325
 30
0.0
 10
-40.2662892795
 20
-22.3950335825
 30
0.0
 10
-40.2659100159
 20
-22.3966112932
 30
0.0
 10
-40.2655519906
 20
-22.3977255711
 30
0.0
 10
-40.2653045199
 20
-22.3977224068
 30
0.0
 11
-40.2827322238
 21
-21.8978033211
 31
0.0
 11
-40.2808665999
 21
-21.9952642919
 31
0.0
 11
-40.278734488
 21
-22.0891623705
 31
0.0
 11
-40.2764228832
 21
-22.1755847192
 31
0.0
 11
-40.2740185005
 21
-22.2513227636
 31
0.0
 11
-40.2728103384
 21
-22.2842802355
 31
0.0
 11
-40.2716141012
 21
-22.3135083641
 31
0.0
 11
-40.2704412139
 21
-22.3387195364
 31
0.0
 11
-40.2693024468
 21
-22.3596951473
 31
0.0
 11
-40.2682085267
 21
-22.3762213892
 31
0.0
 11
-40.2671702535
 21
-22.3881238057
 31
0.0
 11
-40.2666754089
 21
-22.3923132561
 31
0.0
 11
-40.2661985897
 21
-22.395315738
 31
0.0
 11
-40.265741169
 21
-22.397121904
 31
0.0
 11
-40.2653045199
 21
-22.3977224068
 31
0.0
  0
SPLINE
  5
44B
100
AcDbEntity
  8
RACCORDO
100
AcDbSpline
 62
253
  6
CONTINUOUS
 70
0
 71
3
 72
10
 73
6
 74
4
 42
0.0000001
 43
0.0000001
 44
0.0000000001
 12
0.0110393804
 22
-0.4742938204
 32
0.0
 13
0.0357168806
 23
-0.4730758928
 33
0.0
 40
0.0
 40
0.0
 40
0.0
 40
0.0
 40
0.6160001543
 40
0.8489569155
 40
1.0
 40
1.0
 40
1.0
 40
1.0
 10
-40.6660913118
 20
-21.940662077
 30
0.0
 10
-40.6638245585
 20
-22.0380504325
 30
0.0
 10
-40.6601755343
 20
-22.1722645936
 30
0.0
 10
-40.6539043649
 20
-22.3302752285
 30
0.0
 10
-40.6508960672
 20
-22.3909375324
 30
0.0
 10
-40.6490978046
 20
-22.4147558131
 30
0.0
 11
-40.6660913118
 21
-21.940662077
 31
0.0
 11
-40.6576472867
 21
-22.2327842571
 31
0.0
 11
-40.6531697872
 21
-22.3432133981
 31
0.0
 11
-40.6490978046
 21
-22.4147558131
 31
0.0
  0
SPLINE
  5
44C
100
AcDbEntity
  8
RACCORDO
100
AcDbSpline
 62
253
  6
CONTINUOUS
 70
0
 71
3
 72
11
 73
7
 74
5
 42
0.0000001
 43
0.0000001
 44
0.0000000001
 12
0.3841351653
 22
0.0071042417
 32
0.0
 13
0.3841445089
 23
0.0065796428
 33
0.0
 40
0.0
 40
0.0
 40
0.0
 40
0.0
 40
0.2713885912
 40
0.5304508989
 40
0.7708820877
 40
1.0
 40
1.0
 40
1.0
 40
1.0
 10
-40.6490978046
 20
-22.4147558131
 30
0.0
 10
-40.6143478375
 20
-22.414113143
 30
0.0
 10
-40.5464355604
 20
-22.4123552551
 30
0.0
 10
-40.4477882314
 20
-22.4081867398
 30
0.0
 10
-40.3546673217
 20
-22.4024295791
 30
0.0
 10
-40.2946428767
 20
-22.3982351937
 30
0.0
 10
-40.2653047474
 20
-22.397732689
 30
0.0
 11
-40.6490978046
 21
-22.4147558131
 31
0.0
 11
-40.5448658764
 21
-22.4120237276
 31
0.0
 11
-40.4454256745
 21
-22.4077508801
 31
0.0
 11
-40.3532179423
 21
-22.4022132283
 31
0.0
 11
-40.2653047474
 21
-22.397732689
 31
0.0
  0
SPLINE
  5
44D
100
AcDbEntity
  8
RACCORDO
100
AcDbSpline
 62
253
  6
CONTINUOUS
 70
0
 71
3
 72
9
 73
5
 74
3
 42
0.0000001
 43
0.0000001
 44
0.0000000001
 12
0.3857175726
 22
0.0089858871
 32
0.0
 13
0.385764222
 23
0.0066900678
 33
0.0
 40
0.0
 40
0.0
 40
0.0
 40
0.0
 40
0.4999758428
 40
1.0
 40
1.0
 40
1.0
 40
1.0
 10
-40.6661470281
 20
-21.940664527
 30
0.0
 10
-40.6018638719
 20
-21.9391669515
 30
0.0
 10
-40.4748661965
 20
-21.9156024473
 30
0.0
 10
-40.3470293671
 20
-21.8989183863
 30
0.0
 10
-40.2827322238
 20
-21.8978033211
 30
0.0
 11
-40.6661470281
 21
-21.940664527
 31
0.0
 11
-40.4746625641
 21
-21.9173235304
 31
0.0
 11
-40.2827322238
 21
-21.8978033211
 31
0.0
  0
SPLINE
  5
44E
100
AcDbEntity
  8
RACCORDO
100
AcDbSpline
 62
253
  6
CONTINUOUS
 70
0
 71
3
 72
10
 73
6
 74
4
 42
0.0000001
 43
0.0000001
 44
0.0000000001
 12
0.0111872141
 22
-0.4699325757
 32
0.0
 13
0.033660556
 23
-0.4688589835
 33
0.0
 40
0.0
 40
0.0
 40
0.0
 40
0.0
 40
0.610258045
 40
0.8441637654
 40
1.0
 40
1.0
 40
1.0
 40
1.0
 10
-41.6659929191
 20
-21.9642142737
 30
0.0
 10
-41.6637172233
 20
-22.059807652
 30
0.0
 10
-41.6600435631
 20
-22.1920349157
 30
0.0
 10
-41.6538388812
 20
-22.3485968797
 30
0.0
 10
-41.6508158973
 20
-22.409598503
 30
0.0
 10
-41.6490673859
 20
-22.4339535759
 30
0.0
 11
-41.6659929191
 21
-21.9642142737
 31
0.0
 11
-41.65758833
 21
-22.2509525128
 31
0.0
 11
-41.6531366589
 21
-22.3608134172
 31
0.0
 11
-41.6490673859
 21
-22.4339535759
 31
0.0
  0
LINE
  5
44F
100
AcDbEntity
  8
RACCORDO
100
AcDbLine
 62
253
  6
CONTINUOUS
 10
-41.6659579789
 20
-21.9642134447
 11
-40.6661470281
 21
-21.940664527
  0
SPLINE
  5
450
100
AcDbEntity
  8
RACCORDO
100
AcDbSpline
 62
253
  6
CONTINUOUS
 70
0
 71
3
 72
13
 73
9
 74
7
 42
0.0000001
 43
0.0000001
 44
0.0000000001
 12
0.0086758981
 22
-0.4974483301
 32
0.0
 13
0.0896884568
 23
-0.4893731633
 33
0.0
 40
0.0
 40
0.0
 40
0.0
 40
0.0
 40
0.3602250373
 40
0.6725490055
 40
0.7974791428
 40
0.8956820024
 40
0.9639573914
 40
1.0
 40
1.0
 40
1.0
 40
1.0
 10
-42.0681032807
 20
-21.9289696893
 30
0.0
 10
-42.0670615222
 20
-21.9887008038
 30
0.0
 10
-42.0647641587
 20
-22.1002122261
 30
0.0
 10
-42.0612047178
 20
-22.2324275172
 30
0.0
 10
-42.0579960833
 20
-22.3211617325
 30
0.0
 10
-42.0559802392
 20
-22.3694656959
 30
0.0
 10
-42.0538676687
 20
-22.4029520974
 30
0.0
 10
-42.0526927726
 20
-22.4202616877
 30
0.0
 10
-42.0516152373
 20
-22.4261411161
 30
0.0
 11
-42.0681032807
 21
-21.9289696893
 31
0.0
 11
-42.0643984354
 21
-22.1081519868
 31
0.0
 11
-42.0600272167
 21
-22.2634791558
 31
0.0
 11
-42.0577712051
 21
-22.3255939394
 31
0.0
 11
-42.0555696658
 21
-22.3744025915
 31
0.0
 11
-42.0534942907
 21
-22.4083077763
 31
0.0
 11
-42.0516152373
 21
-22.4261411161
 31
0.0
  0
SPLINE
  5
451
100
AcDbEntity
  8
RACCORDO
100
AcDbSpline
 62
253
  6
CONTINUOUS
 70
0
 71
3
 72
9
 73
5
 74
3
 42
0.0000001
 43
0.0000001
 44
0.0000000001
 12
0.0005313496
 22
-0.0028992384
 32
0.0
 13
0.0029470549
 23
0.0000527503
 33
0.0
 40
0.0
 40
0.0
 40
0.0
 40
0.0
 40
0.7187711636
 40
1.0
 40
1.0
 40
1.0
 40
1.0
 10
-42.0516152373
 20
-22.4261411161
 30
0.0
 10
-42.051487931
 20
-22.4268357458
 30
0.0
 10
-42.0512973934
 20
-22.4275886633
 30
0.0
 10
-42.0509313562
 20
-22.4288907635
 30
0.0
 10
-42.0506550906
 20
-22.4288858185
 30
0.0
 11
-42.0516152373
 21
-22.4261411161
 31
0.0
 11
-42.0511233565
 21
-22.4282018219
 31
0.0
 11
-42.0506550906
 21
-22.4288858185
 31
0.0
  0
SPLINE
  5
452
100
AcDbEntity
  8
RACCORDO
100
AcDbSpline
 62
253
  6
CONTINUOUS
 70
0
 71
3
 72
11
 73
7
 74
5
 42
0.0000001
 43
0.0000001
 44
0.0000000001
 12
0.4016095027
 22
0.0070101602
 32
0.0
 13
0.4016024246
 23
0.0074045649
 33
0.0
 40
0.0
 40
0.0
 40
0.0
 40
0.0
 40
0.2254441508
 40
0.4630218638
 40
0.7237194765
 40
1.0
 40
1.0
 40
1.0
 40
1.0
 10
-42.0506547378
 20
-22.4289021298
 30
0.0
 10
-42.0204745667
 20
-22.4283753299
 30
0.0
 10
-41.958495184
 20
-22.431375665
 30
0.0
 10
-41.8616651375
 20
-22.434552256
 30
0.0
 10
-41.7579464047
 20
-22.4353843124
 30
0.0
 10
-41.6860523835
 20
-22.434636814
 30
0.0
 10
-41.6490674074
 20
-22.4339549017
 30
0.0
 11
-42.0506547378
 21
-22.4289021298
 31
0.0
 11
-41.9601263271
 21
-22.4310675548
 31
0.0
 11
-41.8647457359
 21
-22.434075261
 31
0.0
 11
-41.7600357361
 21
-22.4350554247
 31
0.0
 11
-41.6490674074
 21
-22.4339549017
 31
0.0
  0
SPLINE
  5
453
100
AcDbEntity
  8
RACCORDO
100
AcDbSpline
 62
253
  6
CONTINUOUS
 70
0
 71
3
 72
10
 73
6
 74
4
 42
0.0000001
 43
0.0000001
 44
0.0000000001
 12
0.403821875
 22
0.0070570901
 32
0.0
 13
0.4037680766
 23
0.0096565844
 33
0.0
 40
0.0
 40
0.0
 40
0.0
 40
0.0
 40
0.2501322629
 40
0.5002936944
 40
1.0
 40
1.0
 40
1.0
 40
1.0
 10
-42.0681032807
 20
-21.9289696893
 30
0.0
 10
-42.0344336543
 20
-21.9283812874
 30
0.0
 10
-41.9669510601
 20
-21.9310571489
 30
0.0
 10
-41.8335581563
 20
-21.9481796787
 30
0.0
 10
-41.7332131302
 20
-21.96582193
 30
0.0
 10
-41.6659579789
 20
-21.9642134447
 30
0.0
 11
-42.0681032807
 21
-21.9289696893
 31
0.0
 11
-41.9671417142
 21
-21.9325294292
 31
0.0
 11
-41.8668102812
 21
-21.9444413413
 31
0.0
 11
-41.6659579789
 21
-21.9642134447
 31
0.0
  0
SPLINE
  5
454
100
AcDbEntity
  8
RACCORDO
100
AcDbSpline
 62
253
  6
CONTINUOUS
 70
0
 71
3
 72
21
 73
17
 74
15
 42
0.0000001
 43
0.0000001
 44
0.0000000001
 12
-0.5004141838
 22
0.0086519752
 32
0.0
 13
-0.0087315472
 23
-0.5004128017
 33
0.0
 40
0.0
 40
0.0
 40
0.0
 40
0.0
 40
0.0014813257
 40
0.0052010739
 40
0.0112724515
 40
0.0196986722
 40
0.0435659758
 40
0.0766550016
 40
0.1186247098
 40
0.1690511913
 40
0.2274992783
 40
0.2933951763
 40
0.4448046062
 40
0.617550403
 40
0.8052217414
 40
1.0
 40
1.0
 40
1.0
 40
1.0
 10
-40.2652666667
 20
22.3977217477
 30
0.0
 10
-40.2655137588
 20
22.3977260198
 30
0.0
 10
-40.2658742771
 20
22.3966125554
 30
0.0
 10
-40.2662524219
 20
22.3950367134
 30
0.0
 10
-40.266716964
 20
22.3918867413
 30
0.0
 10
-40.2674355737
 20
22.3856128691
 30
0.0
 10
-40.2683309494
 20
22.3746763248
 30
0.0
 10
-40.2693923838
 20
22.358237015
 30
0.0
 10
-40.2705091626
 20
22.337320111
 30
0.0
 10
-40.271667721
 20
22.3121855015
 30
0.0
 10
-40.2728523576
 20
22.2830511872
 30
0.0
 10
-40.2745298083
 20
22.2370783992
 30
0.0
 10
-40.2765674421
 20
22.1720374789
 30
0.0
 10
-40.2788350642
 20
22.0866796412
 30
0.0
 10
-40.2809297243
 20
21.9940800243
 30
0.0
 10
-40.2821513144
 20
21.9302876495
 30
0.0
 10
-40.2827182196
 20
21.8977978048
 30
0.0
 11
-40.2652666667
 21
22.3977217477
 31
0.0
 11
-40.2657040269
 21
22.3971231067
 31
0.0
 11
-40.266162164
 21
22.3953186647
 31
0.0
 11
-40.2666397045
 21
22.3923177657
 31
0.0
 11
-40.2671352748
 21
22.3881297538
 31
0.0
 11
-40.2681750105
 21
22.3762297676
 31
0.0
 11
-40.2692704051
 21
22.3597053418
 31
0.0
 11
-40.2704106571
 21
22.3387309371
 31
0.0
 11
-40.2715850385
 21
22.3135203773
 31
0.0
 11
-40.272782778
 21
22.2842922851
 31
0.0
 11
-40.2739924487
 21
22.2513343069
 31
0.0
 11
-40.2763998581
 21
22.1755938069
 31
0.0
 11
-40.2787144893
 21
22.0891674296
 31
0.0
 11
-40.2808496162
 21
21.9952642648
 31
0.0
 11
-40.2827182196
 21
21.8977978048
 31
0.0
  0
SPLINE
  5
455
100
AcDbEntity
  8
RACCORDO
100
AcDbSpline
 62
253
  6
CONTINUOUS
 70
0
 71
3
 72
10
 73
6
 74
4
 42
0.0000001
 43
0.0000001
 44
0.0000000001
 12
-0.0357420332
 22
-0.4730763592
 32
0.0
 13
-0.0111685863
 23
-0.4742931554
 33
0.0
 40
0.0
 40
0.0
 40
0.0
 40
0.0
 40
0.1510427001
 40
0.3839996369
 40
1.0
 40
1.0
 40
1.0
 40
1.0
 10
-40.6490977667
 20
22.4147579936
 30
0.0
 10
-40.6508972911
 20
22.39093975
 30
0.0
 10
-40.6539154128
 20
22.3302777565
 30
0.0
 10
-40.6602190292
 20
22.1722675783
 30
0.0
 10
-40.6639028505
 20
22.0380537141
 30
0.0
 10
-40.6661961349
 20
21.9406654621
 30
0.0
 11
-40.6490977667
 21
22.4147579936
 31
0.0
 11
-40.6531791427
 21
22.3432159395
 31
0.0
 11
-40.6576788985
 21
22.2327870698
 31
0.0
 11
-40.6661961349
 21
21.9406654621
 31
0.0
  0
SPLINE
  5
456
100
AcDbEntity
  8
RACCORDO
100
AcDbSpline
 62
253
  6
CONTINUOUS
 70
0
 71
3
 72
9
 73
5
 74
3
 42
0.0000001
 43
0.0000001
 44
0.0000000001
 12
0.3857905225
 22
-0.0090754553
 32
0.0
 13
0.3858388675
 23
-0.0067126319
 33
0.0
 40
0.0
 40
0.0
 40
0.0
 40
0.0
 40
0.4999795627
 40
1.0
 40
1.0
 40
1.0
 40
1.0
 10
-40.666207838
 20
21.9406659488
 30
0.0
 10
-40.6019120457
 20
21.9391534347
 30
0.0
 10
-40.4748879406
 20
21.9156151448
 30
0.0
 10
-40.347027326
 20
21.8989166225
 30
0.0
 10
-40.2827182196
 20
21.8977978048
 30
0.0
 11
-40.666207838
 21
21.9406659488
 31
0.0
 11
-40.4746840224
 21
21.9173259091
 31
0.0
 11
-40.2827182196
 21
21.8977978048
 31
0.0
  0
SPLINE
  5
457
100
AcDbEntity
  8
RACCORDO
100
AcDbSpline
 62
253
  6
CONTINUOUS
 70
0
 71
3
 72
11
 73
7
 74
5
 42
0.0000001
 43
0.0000001
 44
0.0000000001
 12
0.3841725151
 22
-0.0071847196
 32
0.0
 13
0.3841812035
 23
-0.0067040565
 33
0.0
 40
0.0
 40
0.0
 40
0.0
 40
0.0
 40
0.2713923331
 40
0.5304559867
 40
0.7709561218
 40
1.0
 40
1.0
 40
1.0
 40
1.0
 10
-40.6490977667
 20
22.4147579936
 30
0.0
 10
-40.6143439416
 20
22.4141080343
 30
0.0
 10
-40.5464241301
 20
22.4123567627
 30
0.0
 10
-40.4477566687
 20
22.4081992215
 30
0.0
 10
-40.3546284386
 20
22.4024108358
 30
0.0
 10
-40.2945981446
 20
22.3982328643
 30
0.0
 10
-40.2652666937
 20
22.3977210232
 30
0.0
 11
-40.6490977667
 21
22.4147579936
 31
0.0
 11
-40.5448538616
 21
22.4120256885
 31
0.0
 11
-40.4454029223
 21
22.4077562999
 31
0.0
 11
-40.3531602742
 21
22.402202368
 31
0.0
 11
-40.2652666937
 21
22.3977210232
 31
0.0
  0
SPLINE
  5
458
100
AcDbEntity
  8
RACCORDO
100
AcDbSpline
 62
253
  6
CONTINUOUS
 70
0
 71
3
 72
10
 73
6
 74
4
 42
0.0000001
 43
0.0000001
 44
0.0000000001
 12
-0.0336605549
 22
-0.4688589836
 32
0.0
 13
-0.0111872156
 23
-0.4699325756
 33
0.0
 40
0.0
 40
0.0
 40
0.0
 40
0.0
 40
0.1558362346
 40
0.3897419549
 40
1.0
 40
1.0
 40
1.0
 40
1.0
 10
-41.6490673858
 20
22.4339535759
 30
0.0
 10
-41.6508158972
 20
22.409598503
 30
0.0
 10
-41.653838881
 20
22.3485968797
 30
0.0
 10
-41.6600435629
 20
22.1920349157
 30
0.0
 10
-41.663717223
 20
22.059807652
 30
0.0
 10
-41.6659929191
 20
21.9642142736
 30
0.0
 11
-41.6490673858
 21
22.4339535759
 31
0.0
 11
-41.6531366587
 21
22.3608134172
 31
0.0
 11
-41.6575883298
 21
22.2509525128
 31
0.0
 11
-41.6659929191
 21
21.9642142736
 31
0.0
  0
LINE
  5
459
100
AcDbEntity
  8
RACCORDO
100
AcDbLine
 62
253
  6
CONTINUOUS
 10
-41.6658935491
 20
21.964211916
 11
-40.666207838
 21
21.9406659488
  0
SPLINE
  5
45A
100
AcDbEntity
  8
RACCORDO
100
AcDbSpline
 62
253
  6
CONTINUOUS
 70
0
 71
3
 72
13
 73
9
 74
7
 42
0.0000001
 43
0.0000001
 44
0.0000000001
 12
-0.0435508354
 22
0.0004806292
 32
0.0
 13
-0.0024676119
 23
-0.0434835274
 33
0.0
 40
0.0
 40
0.0
 40
0.0
 40
0.0
 40
0.0189405237
 40
0.0674355857
 40
0.1467208038
 40
0.2567794297
 40
0.5684517854
 40
1.0
 40
1.0
 40
1.0
 40
1.0
 10
-42.050631329
 20
22.4288854008
 30
0.0
 10
-42.0509062876
 20
22.4288884352
 30
0.0
 10
-42.0512587126
 20
22.4275971617
 30
0.0
 10
-42.051680893
 20
22.4258315846
 30
0.0
 10
-42.0521624582
 20
22.4222342163
 30
0.0
 10
-42.0529371707
 20
22.4151074682
 30
0.0
 10
-42.0538925859
 20
22.4026747362
 30
0.0
 10
-42.0545541778
 20
22.3919336488
 30
0.0
 10
-42.0549091423
 20
22.3856785692
 30
0.0
 11
-42.050631329
 21
22.4288854008
 31
0.0
 11
-42.0510917633
 21
22.428200928
 31
0.0
 11
-42.0515766026
 21
22.4261451994
 31
0.0
 11
-42.0520842646
 21
22.4227295723
 31
0.0
 11
-42.0526131667
 21
22.4179654038
 31
0.0
 11
-42.0537283614
 21
22.4044368723
 31
0.0
 11
-42.0549091423
 21
22.3856785692
 31
0.0
  0
SPLINE
  5
45B
100
AcDbEntity
  8
RACCORDO
100
AcDbSpline
 62
253
  6
CONTINUOUS
 70
0
 71
3
 72
9
 73
5
 74
3
 42
0.0000001
 43
0.0000001
 44
0.0000000001
 12
-0.0258874889
 22
-0.4561816766
 32
0.0
 13
-0.0080284793
 23
-0.4568450806
 33
0.0
 40
0.0
 40
0.0
 40
0.0
 40
0.0
 40
0.4038815004
 40
1.0
 40
1.0
 40
1.0
 40
1.0
 10
-42.0549091423
 20
22.3856785692
 30
0.0
 10
-42.0583943016
 20
22.3242641226
 30
0.0
 10
-42.0629639115
 20
22.1719995995
 30
0.0
 10
-42.0665165638
 20
22.0197444885
 30
0.0
 10
-42.0681118721
 20
21.9289665538
 30
0.0
 11
-42.0549091423
 21
22.3856785692
 31
0.0
 11
-42.061919577
 21
22.2012720098
 31
0.0
 11
-42.0681118721
 21
21.9289665538
 31
0.0
  0
SPLINE
  5
45C
100
AcDbEntity
  8
RACCORDO
100
AcDbSpline
 62
253
  6
CONTINUOUS
 70
0
 71
3
 72
11
 73
7
 74
5
 42
0.0000001
 43
0.0000001
 44
0.0000000001
 12
0.4040785702
 22
-0.0071297221
 32
0.0
 13
0.404029413
 23
-0.0095161542
 33
0.0
 40
0.0
 40
0.0
 40
0.0
 40
0.0
 40
0.2500153758
 40
0.5000636443
 40
0.7501292253
 40
1.0
 40
1.0
 40
1.0
 40
1.0
 10
-42.0681118721
 20
21.9289665538
 30
0.0
 10
-42.0344365869
 20
21.9283723738
 30
0.0
 10
-41.9669806354
 20
21.9310720045
 30
0.0
 10
-41.8666806518
 20
21.9438690807
 30
0.0
 10
-41.7670012568
 20
21.9601199089
 30
0.0
 10
-41.6995452632
 20
21.9650045189
 30
0.0
 10
-41.6658935491
 20
21.964211916
 30
0.0
 11
-42.0681118721
 21
21.9289665538
 31
0.0
 11
-41.9671331292
 21
21.9325294775
 31
0.0
 11
-41.8667831936
 21
21.944444925
 31
0.0
 11
-41.7667226285
 21
21.9586359413
 31
0.0
 11
-41.6658935491
 21
21.964211916
 31
0.0
  0
SPLINE
  5
45D
100
AcDbEntity
  8
RACCORDO
100
AcDbSpline
 62
253
  6
CONTINUOUS
 70
0
 71
3
 72
11
 73
7
 74
5
 42
0.0000001
 43
0.0000001
 44
0.0000000001
 12
0.4015548046
 22
-0.0071777409
 32
0.0
 13
0.4015524907
 23
-0.0073060464
 33
0.0
 40
0.0
 40
0.0
 40
0.0
 40
0.0
 40
0.2255163055
 40
0.4630934554
 40
0.7237525219
 40
1.0
 40
1.0
 40
1.0
 40
1.0
 10
-42.0506029684
 20
22.4288932441
 30
0.0
 10
-42.0204172498
 20
22.4283536783
 30
0.0
 10
-41.9584364296
 20
22.4313930576
 30
0.0
 10
-41.8616141541
 20
22.4345469109
 30
0.0
 10
-41.7579183799
 20
22.4353780515
 30
0.0
 10
-41.686043365
 20
22.4346258618
 30
0.0
 10
-41.6490674107
 20
22.4339531029
 30
0.0
 11
-42.0506029684
 21
22.4288932441
 31
0.0
 11
-41.9600575484
 21
22.4310716809
 31
0.0
 11
-41.8646893173
 21
22.4340742438
 31
0.0
 11
-41.7600082278
 21
22.4350482333
 31
0.0
 11
-41.6490674107
 21
22.4339531029
 31
0.0
  0
LINE
  5
45E
100
AcDbEntity
  8
RACCORDO
100
AcDbLine
 62
253
  6
CONTINUOUS
 10
-40.6457876539
 20
22.6043942318
 11
-40.3957876534
 21
22.5965394526
  0
LINE
  5
45F
100
AcDbEntity
  8
RACCORDO
100
AcDbLine
 62
253
  6
CONTINUOUS
 10
-41.8957876539
 20
22.629704076
 11
-41.6457876539
 21
22.6218492968
  0
LINE
  5
460
100
AcDbEntity
  8
RACCORDO
100
AcDbLine
 62
253
  6
CONTINUOUS
 10
-41.8957876539
 20
-22.629704076
 11
-41.6457876539
 21
-22.6218492968
  0
LINE
  5
461
100
AcDbEntity
  8
RACCORDO
100
AcDbLine
 62
253
  6
CONTINUOUS
 10
-40.6457876539
 20
-22.6043942318
 11
-40.3957876521
 21
-22.5965394524
  0
ELLIPSE
  5
462
100
AcDbEntity
  8
RACCORDO
100
AcDbEllipse
 62
7
  6
CONTINUOUS
 10
21.774923836
 20
21.882468771
 30
0.0
 11
0.3536610946
 21
-0.3536610946
 31
0.0
 40
0.9996954599
 41
1.1780376107
 42
1.2102374641
  0
ELLIPSE
  5
463
100
AcDbEntity
  8
RACCORDO
100
AcDbEllipse
 62
7
  6
CONTINUOUS
 10
21.774923836
 20
21.882468771
 30
0.0
 11
-0.3536610946
 21
0.3536610946
 31
0.0
 40
0.9996954599
 41
-2.3563467834
 42
-1.9635550429
  0
ELLIPSE
  5
464
100
AcDbEntity
  8
RACCORDO
100
AcDbEllipse
 62
7
  6
CONTINUOUS
 10
0.475076164
 20
-21.882468771
 30
0.0
 11
0.3536610946
 21
-0.3536610946
 31
0.0
 40
0.9996954599
 41
-2.2934239119
 42
-1.9313551895
  0
ELLIPSE
  5
465
100
AcDbEntity
  8
RACCORDO
100
AcDbEllipse
 62
7
  6
CONTINUOUS
 10
21.774923836
 20
-21.882468771
 30
0.0
 11
0.3536610946
 21
0.3536610946
 31
0.0
 40
0.9996954599
 41
-1.2051859181
 42
-0.7852458701
  0
ELLIPSE
  5
466
100
AcDbEntity
  8
RACCORDO
100
AcDbEllipse
 62
7
  6
CONTINUOUS
 10
0.475076164
 20
21.882468771
 30
0.0
 11
0.3536610946
 21
0.3536610946
 31
0.0
 40
0.9996954599
 41
1.9362497304
 42
2.0690179487
  0
ELLIPSE
  5
467
100
AcDbEntity
  8
RACCORDO
100
AcDbEllipse
 62
7
  6
CONTINUOUS
 10
0.475076164
 20
21.882468771
 30
0.0
 11
0.3536610946
 21
0.3536610946
 31
0.0
 40
0.9996954599
 41
1.6060491116
 42
1.8981878383
  0
ELLIPSE
  5
468
100
AcDbEntity
  8
RACCORDO
100
AcDbEllipse
 62
7
  6
CONTINUOUS
 10
0.5274413588
 20
21.9348339658
 30
0.0
 11
0.3536610946
 21
0.3536610946
 31
0.0
 40
0.9996954599
 41
7.0684311773
 42
8.4599634168
  0
ELLIPSE
  5
469
100
AcDbEntity
  8
RACCORDO
100
AcDbEllipse
 62
7
  6
CONTINUOUS
 10
21.7225586412
 20
-21.9348339658
 30
0.0
 11
-0.3536610946
 21
-0.3536610946
 31
0.0
 40
0.9996954599
 41
7.0684311773
 42
8.6395320906
  0
ELLIPSE
  5
46A
100
AcDbEntity
  8
RACCORDO
100
AcDbEllipse
 62
7
  6
CONTINUOUS
 10
21.7225586412
 20
21.9348339658
 30
0.0
 11
-0.3536610946
 21
0.3536610946
 31
0.0
 40
0.9996954599
 41
-2.3563467834
 42
-0.7852458701
  0
ELLIPSE
  5
46B
100
AcDbEntity
  8
RACCORDO
100
AcDbEllipse
 62
7
  6
CONTINUOUS
 10
0.5274413588
 20
-21.9348339658
 30
0.0
 11
0.3536610946
 21
-0.3536610946
 31
0.0
 40
0.9996954599
 41
-2.3563467834
 42
-0.7852458701
  0
ELLIPSE
  5
46C
100
AcDbEntity
  8
ASSI
100
AcDbEllipse
 62
7
  6
CONTINUOUS
 10
-21.4748781376
 20
-20.712667555
 30
0.0
 11
0.7994911471
 21
0.03188491
 31
0.0
 40
0.9961825969
 41
3.1018842759
 42
3.3460026727
  0
ELLIPSE
  5
46D
100
AcDbEntity
  8
ASSI
100
AcDbEllipse
 62
7
  6
CONTINUOUS
 10
21.2248781376
 20
-20.712667555
 30
0.0
 11
0.7994911471
 21
-0.03188491
 31
0.0
 40
0.9961825969
 41
-0.2044100191
 42
0.0397083777
  0
ELLIPSE
  5
46E
100
AcDbEntity
  8
ASSI
100
AcDbEllipse
 62
7
  6
CONTINUOUS
 10
21.2248781376
 20
21.2268864372
 30
0.0
 11
0.7994911471
 21
0.03188491
 31
0.0
 40
0.9961825969
 41
-0.0397083777
 42
1.5307833626
  0
ELLIPSE
  5
46F
100
AcDbEntity
  8
ASSI
100
AcDbEllipse
 62
7
  6
CONTINUOUS
 10
-21.4748781376
 20
21.2268864372
 30
0.0
 11
0.7994911471
 21
-0.03188491
 31
0.0
 40
0.9961825969
 41
1.6108092909
 42
3.1813010312
  0
ELLIPSE
  5
470
100
AcDbEntity
  8
CURVE
100
AcDbEllipse
 62
253
  6
CONTINUOUS
 10
-85.1428248763
 20
25.7153018977
 30
0.0
 11
1799.9942891126
 21
-298.9189664948
 31
0.0
 40
0.0141361936
 41
-1.5258565396
 42
-1.525491126
  0
ELLIPSE
  5
471
100
AcDbEntity
  8
CURVE
100
AcDbEllipse
 62
253
  6
CONTINUOUS
 10
-27.660706076
 20
25.7153018977
 30
0.0
 11
449.8380388698
 21
-299.4520072869
 31
0.0
 40
0.040291035
 41
-1.5017546434
 42
-1.5013892355
  0
ELLIPSE
  5
472
100
AcDbEntity
  8
CURVE
100
AcDbEllipse
 62
253
  6
CONTINUOUS
 10
3.5071329892
 20
25.7153018977
 30
0.0
 11
299.7142158957
 21
299.7144669522
 31
0.0
 40
0.0436609429
 41
-1.6550121619
 42
-1.6544640974
  0
ELLIPSE
  5
473
100
AcDbEntity
  8
CURVE
100
AcDbEllipse
 62
253
  6
CONTINUOUS
 10
-19.8499900639
 20
25.7153018977
 30
0.0
 11
299.7142158957
 21
-299.7144669522
 31
0.0
 40
0.0436609429
 41
-1.4871285562
 42
-1.4865804917
  0
ELLIPSE
  5
474
100
AcDbEntity
  8
CURVE
100
AcDbEllipse
 62
253
  6
CONTINUOUS
 10
-23.7928501464
 20
25.7153018977
 30
0.0
 11
299.7143098627
 21
-299.7144667731
 31
0.0
 40
0.0436609429
 41
-1.4821955386
 42
-1.4816473586
  0
ELLIPSE
  5
475
100
AcDbEntity
  8
CURVE
100
AcDbEllipse
 62
253
  6
CONTINUOUS
 10
4.1642787077
 20
25.7153018977
 30
0.0
 11
299.7143098627
 21
299.7144667731
 31
0.0
 40
0.0436609429
 41
-1.6599452949
 42
-1.659397115
  0
ELLIPSE
  5
476
100
AcDbEntity
  8
CURVE
100
AcDbEllipse
 62
253
  6
CONTINUOUS
 10
5.8071356155
 20
25.7153018977
 30
0.0
 11
299.7143098627
 21
299.7144667731
 31
0.0
 40
0.0436609429
 41
-1.6599452949
 42
-1.659397115
  0
ELLIPSE
  5
477
100
AcDbEntity
  8
CURVE
100
AcDbEllipse
 62
253
  6
CONTINUOUS
 10
-28.810706076
 20
25.7153018977
 30
0.0
 11
449.8380388698
 21
-299.4520072869
 31
0.0
 40
0.040291035
 41
-1.5010238219
 42
-1.5006584026
  0
ELLIPSE
  5
478
100
AcDbEntity
  8
CURVE
100
AcDbEllipse
 62
253
  6
CONTINUOUS
 10
-86.7857462883
 20
25.7153018977
 30
0.0
 11
1799.9957911617
 21
-298.9189663978
 31
0.0
 40
0.0141361824
 41
-1.5258565434
 42
-1.5254911298
  0
ELLIPSE
  5
479
100
AcDbEntity
  8
CURVE
100
AcDbEllipse
 62
253
  6
CONTINUOUS
 10
-29.3035635322
 20
25.7153018977
 30
0.0
 11
449.8380388698
 21
-299.4520072869
 31
0.0
 40
0.040291035
 41
-1.5017546434
 42
-1.5013892355
  0
ELLIPSE
  5
47A
100
AcDbEntity
  8
CURVE
100
AcDbEllipse
 62
253
  6
CONTINUOUS
 10
1.864275533
 20
25.7153018977
 30
0.0
 11
299.7142158957
 21
299.7144669522
 31
0.0
 40
0.0436609429
 41
-1.6550121619
 42
-1.6544640974
  0
ELLIPSE
  5
47B
100
AcDbEntity
  8
CURVE
100
AcDbEllipse
 62
253
  6
CONTINUOUS
 10
-21.4928469718
 20
25.7153018977
 30
0.0
 11
299.7142158957
 21
-299.7144669522
 31
0.0
 40
0.0436609429
 41
-1.4871285562
 42
-1.4865804917
  0
ELLIPSE
  5
47C
100
AcDbEntity
  8
CURVE
100
AcDbEllipse
 62
253
  6
CONTINUOUS
 10
-25.2714328088
 20
25.7153018977
 30
0.0
 11
299.7145604416
 21
-299.7144662954
 31
0.0
 40
0.0436609429
 41
-1.4827437416
 42
-1.4816473951
  0
ELLIPSE
  5
47D
100
AcDbEntity
  8
CURVE
100
AcDbEllipse
 62
253
  6
CONTINUOUS
 10
0.3857192904
 20
25.7153018977
 30
0.0
 11
299.714591764
 21
299.7144662357
 31
0.0
 40
0.0436609429
 41
-1.6555601833
 42
-1.6544640427
  0
ELLIPSE
  5
47E
100
AcDbEntity
  8
CURVE
100
AcDbEllipse
 62
253
  6
CONTINUOUS
 10
-23.2999947995
 20
25.7153018977
 30
0.0
 11
299.7143411851
 21
-299.7144667134
 31
0.0
 40
0.0436609429
 41
-1.4871285744
 42
-1.4860324338
  0
ELLIPSE
  5
47F
100
AcDbEntity
  8
CURVE
100
AcDbEllipse
 62
253
  6
CONTINUOUS
 10
-20.7761970957
 20
25.7153018977
 30
0.0
 11
-199.6348383004
 21
299.892150913
 31
0.0
 40
0.0402910415
 41
-4.6119028802
 42
-4.6113548157
  0
ELLIPSE
  5
480
100
AcDbEntity
  8
CURVE
100
AcDbEllipse
 62
253
  6
CONTINUOUS
 10
-26.2571377546
 20
25.7153018977
 30
0.0
 11
299.7143411851
 21
-299.7144667134
 31
0.0
 40
0.0436609429
 41
-1.4871285744
 42
-1.48658051
  0
ELLIPSE
  5
481
100
AcDbEntity
  8
CURVE
100
AcDbEllipse
 62
253
  6
CONTINUOUS
 10
-0.6000013702
 20
25.7153018977
 30
0.0
 11
299.7144351522
 21
299.7144665343
 31
0.0
 40
0.0436609429
 41
-1.6599452767
 42
-1.6593970967
  0
ELLIPSE
  5
482
100
AcDbEntity
  8
CURVE
100
AcDbEllipse
 62
253
  6
CONTINUOUS
 10
-22.1499926902
 20
25.7153018977
 30
0.0
 11
299.7143098627
 21
-299.7144667731
 31
0.0
 40
0.0436609429
 41
-1.4821955386
 42
-1.4816473586
  0
ELLIPSE
  5
483
100
AcDbEntity
  8
CURVE
100
AcDbEllipse
 62
253
  6
CONTINUOUS
 10
-27.1678491682
 20
25.7153018977
 30
0.0
 11
449.8380388698
 21
-299.4520072869
 31
0.0
 40
0.040291035
 41
-1.5010238219
 42
-1.5006584026
  0
ELLIPSE
  5
484
100
AcDbEntity
  8
RACCORDO
100
AcDbEllipse
 62
7
  6
CONTINUOUS
 10
-21.4748781376
 20
-20.712667555
 30
0.0
 11
0.7994911471
 21
0.03188491
 31
0.0
 40
0.9961825969
 41
3.1018842759
 42
3.3460079936
  0
ELLIPSE
  5
485
100
AcDbEntity
  8
RACCORDO
100
AcDbEllipse
 62
7
  6
CONTINUOUS
 10
21.2248781376
 20
-20.712667555
 30
0.0
 11
0.7994911471
 21
-0.03188491
 31
0.0
 40
0.9961825969
 41
-0.204415332
 42
0.0397083777
  0
ELLIPSE
  5
486
100
AcDbEntity
  8
RACCORDO
100
AcDbEllipse
 62
7
  6
CONTINUOUS
 10
21.2248781376
 20
21.2268864372
 30
0.0
 11
0.7994911471
 21
0.03188491
 31
0.0
 40
0.9961825969
 41
-0.0397083777
 42
1.5307833626
  0
ELLIPSE
  5
487
100
AcDbEntity
  8
RACCORDO
100
AcDbEllipse
 62
7
  6
CONTINUOUS
 10
-21.4748781376
 20
21.2268864372
 30
0.0
 11
0.7994911471
 21
-0.03188491
 31
0.0
 40
0.9961825969
 41
1.6108092909
 42
3.1813010312
  0
ELLIPSE
  5
488
100
AcDbEntity
  8
CURVE
100
AcDbEllipse
 62
253
  6
CONTINUOUS
 10
246.5314580181
 20
25.7153018977
 30
0.0
 11
266.1032499535
 21
138.5245839705
 31
0.0
 40
1.0
 41
2.7938611059
 42
2.7941548337
  0
ELLIPSE
  5
489
100
AcDbEntity
  8
CURVE
100
AcDbEllipse
 62
253
  6
CONTINUOUS
 10
246.5314580181
 20
25.7153018977
 30
0.0
 11
298.8584094275
 21
26.1467228243
 31
0.0
 40
1.0
 41
-3.0966251195
 42
-3.0960769396
  0
ELLIPSE
  5
48A
100
AcDbEntity
  8
CURVE
100
AcDbEllipse
 62
253
  6
CONTINUOUS
 10
246.5314580181
 20
25.7153018977
 30
0.0
 11
-229.8133329357
 21
192.836282906
 31
0.0
 40
1.0
 41
0.8306594252
 42
0.8309138774
  0
ELLIPSE
  5
48B
100
AcDbEntity
  8
CURVE
100
AcDbEllipse
 62
253
  6
CONTINUOUS
 10
246.5314580181
 20
25.7153018977
 30
0.0
 11
299.8139216647
 21
-10.5646758612
 31
0.0
 40
1.0
 41
-2.9768764883
 42
-2.9765110804
  0
ELLIPSE
  5
48C
100
AcDbEntity
  8
CURVE
100
AcDbEllipse
 62
253
  6
CONTINUOUS
 10
246.5314580181
 20
25.7153018977
 30
0.0
 11
-138.5245839705
 21
266.1032499535
 31
0.0
 40
1.0
 41
7.5038747939
 42
7.5046056268
  0
ELLIPSE
  5
48D
100
AcDbEntity
  8
CURVE
100
AcDbEllipse
 62
253
  6
CONTINUOUS
 10
246.5314580181
 20
25.7153018977
 30
0.0
 11
266.1032499535
 21
138.5245839705
 31
0.0
 40
1.0
 41
2.7889280747
 42
2.7894761392
  0
ELLIPSE
  5
48E
100
AcDbEntity
  8
CURVE
100
AcDbEllipse
 62
253
  6
CONTINUOUS
 10
246.5314580181
 20
25.7153018977
 30
0.0
 11
267.970293231
 21
-134.8774330482
 31
0.0
 40
1.0
 41
-2.5427570329
 42
-2.5425025807
  0
ELLIPSE
  5
48F
100
AcDbEntity
  8
CURVE
100
AcDbEllipse
 62
253
  6
CONTINUOUS
 10
246.5314580181
 20
25.7153018977
 30
0.0
 11
286.1150852245
 21
-90.2117398513
 31
0.0
 40
1.0
 41
-2.7039260378
 42
-2.7033778579
  0
ELLIPSE
  5
490
100
AcDbEntity
  8
CURVE
100
AcDbEllipse
 62
253
  6
CONTINUOUS
 10
246.5314580181
 20
25.7153018977
 30
0.0
 11
227.1582913765
 21
195.9569102097
 31
0.0
 40
1.0
 41
2.5620373014
 42
2.5623310292
  0
ELLIPSE
  5
491
100
AcDbEntity
  8
CURVE
100
AcDbEllipse
 62
253
  6
CONTINUOUS
 10
246.5314580181
 20
25.7153018977
 30
0.0
 11
192.836282906
 21
229.8133329357
 31
0.0
 40
1.0
 41
-3.8817295552
 42
-3.8814751029
  0
ELLIPSE
  5
492
100
AcDbEntity
  8
CURVE
100
AcDbEllipse
 62
253
  6
CONTINUOUS
 10
246.5314580181
 20
25.7153018977
 30
0.0
 11
-26.1467228243
 21
298.8584094275
 31
0.0
 40
1.0
 41
-4.6694313252
 42
-4.6690659058
  0
ELLIPSE
  5
493
100
AcDbEntity
  8
CURVE
100
AcDbEllipse
 62
253
  6
CONTINUOUS
 10
246.5314580181
 20
25.7153018977
 30
0.0
 11
-191.7188685363
 21
230.7463443853
 31
0.0
 40
1.0
 41
1.0073757401
 42
1.0077411537
  0
ELLIPSE
  5
494
100
AcDbEntity
  8
CURVE
100
AcDbEllipse
 62
253
  6
CONTINUOUS
 10
246.5314580181
 20
25.7153018977
 30
0.0
 11
296.8709309009
 21
-43.2163208295
 31
0.0
 40
1.0
 41
-2.8675420154
 42
-2.8671766075
  0
ELLIPSE
  5
495
100
AcDbEntity
  8
CURVE
100
AcDbEllipse
 62
253
  6
CONTINUOUS
 10
246.5314580181
 20
25.7153018977
 30
0.0
 11
286.1150852245
 21
-90.2117398513
 31
0.0
 40
1.0
 41
-2.7088590691
 42
-2.7083110046
  0
ELLIPSE
  5
496
100
AcDbEntity
  8
CURVE
100
AcDbEllipse
 62
253
  6
CONTINUOUS
 10
246.5314580181
 20
25.7153018977
 30
0.0
 11
284.8563590376
 21
94.1108639628
 31
0.0
 40
1.0
 41
2.9541882167
 42
2.9550304473
  0
ELLIPSE
  5
497
100
AcDbEntity
  8
CURVE
100
AcDbEllipse
 62
253
  6
CONTINUOUS
 10
246.5314580181
 20
25.7153018977
 30
0.0
 11
290.8111468461
 21
73.6809125218
 31
0.0
 40
1.0
 41
3.0259789746
 42
3.0262330904
  0
ELLIPSE
  5
498
100
AcDbEntity
  8
CURVE
100
AcDbEllipse
 62
253
  6
CONTINUOUS
 10
246.5314580181
 20
25.7153018977
 30
0.0
 11
-123.5969961371
 21
273.3565118044
 31
0.0
 40
1.0
 41
1.2734603585
 42
1.2741616373
  0
ELLIPSE
  5
499
100
AcDbEntity
  8
CURVE
100
AcDbEllipse
 62
253
  6
CONTINUOUS
 10
246.5314580181
 20
25.7153018977
 30
0.0
 11
163.3121249279
 21
251.6528359696
 31
0.0
 40
1.0
 41
-4.008744367
 42
-4.0083495051
  0
ELLIPSE
  5
49A
100
AcDbEntity
  8
CURVE
100
AcDbEllipse
 62
253
  6
CONTINUOUS
 10
246.5314580181
 20
25.7153018977
 30
0.0
 11
298.8584094275
 21
26.1467228243
 31
0.0
 40
1.0
 41
-3.1015581508
 42
-3.1004620102
  0
ELLIPSE
  5
49B
100
AcDbEntity
  8
CURVE
100
AcDbEllipse
 62
253
  6
CONTINUOUS
 10
246.5314580181
 20
25.7153018977
 30
0.0
 11
293.6119065269
 21
-61.5796098204
 31
0.0
 40
1.0
 41
-2.807556849
 42
-2.8070087846
  0
ELLIPSE
  5
49C
100
AcDbEntity
  8
CURVE
100
AcDbEllipse
 62
253
  6
CONTINUOUS
 10
246.5314580181
 20
25.7153018977
 30
0.0
 11
257.7348068677
 21
-153.5342610914
 31
0.0
 40
1.0
 41
-2.4770352646
 42
-2.4764872001
  0
ENDSEC
  0
SECTION
  2
OBJECTS
  0
DICTIONARY
  5
C
100
AcDbDictionary
280
0
281
1
  3
ACAD_GROUP
350
D
  3
ACAD_MLINESTYLE
350
17
  3
ACAD_LAYOUT
350
1A
  3
ACAD_PLOTSETTINGS
350
19
  3
ACAD_PLOTSTYLENAME
350
E
  0
DICTIONARY
  5
D
102
{ACAD_REACTORS
330
C
102
}
100
AcDbDictionary
280
0
281
1
  0
ACDBDICTIONARYWDFLT
  5
E
102
{ACAD_REACTORS
330
C
102
}
100
AcDbDictionary
281
1
  3
Normal
350
F
100
AcDbDictionaryWithDefault
340
F
  0
DICTIONARY
  5
17
102
{ACAD_REACTORS
330
C
102
}
100
AcDbDictionary
280
0
281
1
  3
Standard
350
18
  0
DICTIONARY
  5
19
102
{ACAD_REACTORS
330
C
102
}
100
AcDbDictionary
281
1
  0
DICTIONARY
  5
1A
102
{ACAD_REACTORS
330
C
102
}
100
AcDbDictionary
281
1
  3
Model
350
49D
  3
Layout1
350
49E
  0
ACDBPLACEHOLDER
  5
F
102
{ACAD_REACTORS
330
E
102
}
  0
MLINESTYLE
  5
18
102
{ACAD_REACTORS
330
17
102
}
100
AcDbMlineStyle
  2
STANDARD
 70
0
  3

 62
256
 51
90.0
 52
90.0
 71
2
 49
0.5
 62
256
  6
BYLAYER
 49
-0.5
 62
256
  6
BYLAYER
  0
LAYOUT
  5
49D
102
{ACAD_REACTORS
330
1A
102
}
100
AcDbPlotSettings
  1

  2
none_device
  4
ISO_A4_(297.00_x_210.00_MM)
  6

 40
0.0
 41
0.0
 42
0.0
 43
0.0
 44
297.0
 45
210.0
 46
0.0
 47
0.0
 48
0.0
 49
0.0
140
0.0
141
0.0
142
1.0
143
1.0
 70
1024
 72
1
 73
0
 74
0
  7

 75
0
147
1.0
148
0.0
149
0.0
100
AcDbLayout
  1
Model
 70
0
 71
0
 10
0.0
 20
0.0
 11
297.0
 21
210.0
 12
0.0
 22
0.0
 32
0.0
 14
0.0
 24
0.0
 34
0.0
 15
0.0
 25
0.0
 35
0.0
146
0.0
 13
0.0
 23
0.0
 33
0.0
 16
1.0
 26
0.0
 36
0.0
 17
0.0
 27
1.0
 37
0.0
 76
0
330
212
345
0
346
0
  0
LAYOUT
  5
49E
102
{ACAD_REACTORS
330
1A
102
}
100
AcDbPlotSettings
  1

  2
none_device
  4
ISO_A4_(297.00_x_210.00_MM)
  6

 40
0.0
 41
0.0
 42
0.0
 43
0.0
 44
297.0
 45
210.0
 46
0.0
 47
0.0
 48
0.0
 49
0.0
140
0.0
141
0.0
142
1.0
143
1.0
 70
0
 72
1
 73
0
 74
0
  7

 75
0
147
1.0
148
0.0
149
0.0
100
AcDbLayout
  1
Layout1
 70
0
 71
1
 10
0.0
 20
0.0
 11
297.0
 21
210.0
 12
0.0
 22
0.0
 32
0.0
 14
0.0
 24
0.0
 34
0.0
 15
0.0
 25
0.0
 35
0.0
146
0.0
 13
0.0
 23
0.0
 33
0.0
 16
1.0
 26
0.0
 36
0.0
 17
0.0
 27
1.0
 37
0.0
 76
0
330
213
345
0
346
0
  0
ENDSEC
  0
EOF
