  0
SECTION
  2
HEADER
  9
$ACADVER
  1
AC1024
  9
$DWGCODEPAGE
  3
ANSI_1252
  9
$EXTMAX
 10
297.0
 20
210.0
 30
0.0
  9
$EXTMIN
 10
0.0
 20
0.0
 30
0.0
  9
$LIMMIN
 10
0.0
 20
0.0
  9
$LIMMAX
 10
297.0
 20
210.0
  9
$VIEWCTR
 10
148.5
 20
105.0
  9
$VIEWSIZE
 40
210.0
  9
$CLAYER
  8
0
  9
$LTSCALE
 40
16.335
  9
$CELTYPE
  6
BYLAYER
  9
$DIMSCALE
 40
1.0
  9
$DIMASZ
 40
3.0
  9
$DIMEXO
 40
0.5
  9
$DIMDLI
 40
11.286
  9
$DIMEXE
 40
1.5
  9
$DIMCEN
 40
2.673
  9
$DIMLFAC
 40
1.0
  9
$DIMBLK
  1
_FILLED
  9
$DIMALT
 70
0
  9
$DIMALTF
 40
0.0393700787
  9
$DIMTXT
 40
3.0
  9
$DIMTOL
 70
1
  9
$DIMLIM
 70
0
  9
$DIMTFAC
 40
1.0
  9
$DIMTP
 40
0.01
  9
$DIMTM
 40
0.01
  9
$DIMGAP
 40
0.625
  9
$DIMDSEP
 70
44
  9
$AUNITS
 70
0
  9
$PDMODE
 70
3
  9
$PDSIZE
 40
3.0
  9
$HANDSEED
  5
6A9
  9
$TILEMODE
 70
1
  9
$MEASUREMENT
 70
1
  9
$INSUNITS
 70
4
  0
ENDSEC
  0
SECTION
  2
CLASSES
  0
CLASS
  1
ACDBDICTIONARYWDFLT
  2
AcDbDictionaryWithDefault
  3
AutoCAD 2000
 90
0
 91
1
280
0
281
0
  0
CLASS
  1
ACDBPLACEHOLDER
  2
AcDbPlaceHolder
  3
AutoCAD 2000
 90
0
 91
1
280
0
281
0
  0
CLASS
  1
LAYOUT
  2
AcDbLayout
  3
AutoCAD 2000
 90
0
 91
0
280
0
281
0
  0
ENDSEC
  0
SECTION
  2
TABLES
  0
TABLE
  2
VPORT
  5
8
100
AcDbSymbolTable
 70
2
  0
VPORT
  5
1F4
100
AcDbSymbolTableRecord
100
AcDbViewportTableRecord
  2
*ACTIVE
 70
0
 10
0.0
 20
0.0
 11
1.0
 21
1.0
 12
148.5
 22
105.0
 13
0.0
 23
0.0
 14
1.0
 24
1.0
 15
0.0
 25
0.0
 16
0.0
 26
0.0
 36
1.0
 17
0.0
 27
0.0
 37
0.0
 40
210.0
 41
1.4142857143
 42
50.0
 43
0.0
 44
0.0
 50
0.0
 51
0.0
 71
0
 72
100
 73
1
 74
1
 75
0
 76
0
 77
0
 78
0
  0
ENDTAB
  0
TABLE
  2
LTYPE
  5
5
100
AcDbSymbolTable
 70
6
  0
LTYPE
  5
14
100
AcDbSymbolTableRecord
100
AcDbLinetypeTableRecord
  2
BYBLOCK
 70
0
  3

 72
65
 73
0
 40
0.0
  0
LTYPE
  5
15
100
AcDbSymbolTableRecord
100
AcDbLinetypeTableRecord
  2
BYLAYER
 70
0
  3

 72
65
 73
0
 40
0.0
  0
LTYPE
  5
16
100
AcDbSymbolTableRecord
100
AcDbLinetypeTableRecord
  2
CONTINUOUS
 70
64
  3
Solid line
 72
65
 73
0
 40
0.0
  0
LTYPE
  5
1F5
100
AcDbSymbolTableRecord
100
AcDbLinetypeTableRecord
  2
CENTER
 70
64
  3
____ _ ____ _ ____ _ ____ _ ____ _ ____ _ ____
 72
65
 73
4
 40
0.6
 49
0.375
 74
0
 49
-0.075
 74
0
 49
0.075
 74
0
 49
-0.075
 74
0
  0
LTYPE
  5
1F6
100
AcDbSymbolTableRecord
100
AcDbLinetypeTableRecord
  2
HIDDEN
 70
64
  3
- - - - - - - - - - - - - - - - - - - -
 72
65
 73
2
 40
0.2
 49
0.1
 74
0
 49
-0.1
 74
0
  0
LTYPE
  5
1F7
100
AcDbSymbolTableRecord
100
AcDbLinetypeTableRecord
  2
PHANTOM
 70
64
  3
_____ _ _ _____ _ _ _____ _ _ _____
 72
65
 73
6
 40
0.8
 49
0.45
 74
0
 49
-0.05
 74
0
 49
0.1
 74
0
 49
-0.05
 74
0
 49
0.1
 74
0
 49
-0.05
 74
0
  0
LTYPE
  5
1F8
100
AcDbSymbolTableRecord
100
AcDbLinetypeTableRecord
  2
DOT
 70
64
  3
. . . . . . . . . . . . . . . . . . . .
 72
65
 73
2
 40
0.2
 49
0.1
 74
0
 49
-0.1
 74
0
  0
LTYPE
  5
1F9
100
AcDbSymbolTableRecord
100
AcDbLinetypeTableRecord
  2
DASHED
 70
64
  3
- - - - - - - - - - - - - - - - - - - -
 72
65
 73
2
 40
0.2
 49
0.1
 74
0
 49
-0.1
 74
0
  0
ENDTAB
  0
TABLE
  2
LAYER
  5
2
100
AcDbSymbolTable
 70
36
  0
LAYER
  5
10
100
AcDbSymbolTableRecord
100
AcDbLayerTableRecord
  2
0
 70
0
 62
7
  6
CONTINUOUS
370
-3
390
F
  0
LAYER
  5
1FA
100
AcDbSymbolTableRecord
100
AcDbLayerTableRecord
  2
DEFAULT_1
 70
0
 62
7
  6
CENTER
370
-3
390
F
  0
LAYER
  5
1FB
100
AcDbSymbolTableRecord
100
AcDbLayerTableRecord
  2
DEFAULT_2
 70
0
 62
7
  6
HIDDEN
370
-3
390
F
  0
LAYER
  5
1FC
100
AcDbSymbolTableRecord
100
AcDbLayerTableRecord
  2
DEFAULT_3
 70
0
 62
7
  6
PHANTOM
370
-3
390
F
  0
LAYER
  5
1FD
100
AcDbSymbolTableRecord
100
AcDbLayerTableRecord
  2
ASSI
 70
0
 62
7
  6
CONTINUOUS
370
-3
390
F
  0
LAYER
  5
1FE
100
AcDbSymbolTableRecord
100
AcDbLayerTableRecord
  2
COORDINATE
 70
0
 62
7
  6
CONTINUOUS
370
-3
390
F
  0
LAYER
  5
1FF
100
AcDbSymbolTableRecord
100
AcDbLayerTableRecord
  2
COORD_ORIGINE
 70
0
 62
7
  6
CONTINUOUS
370
-3
390
F
  0
LAYER
  5
200
100
AcDbSymbolTableRecord
100
AcDbLayerTableRecord
  2
COPY_PUBLISH
 70
0
 62
7
  6
CONTINUOUS
370
-3
390
F
  0
LAYER
  5
201
100
AcDbSymbolTableRecord
100
AcDbLayerTableRecord
  2
COSMETIC
 70
0
 62
7
  6
CONTINUOUS
370
-3
390
F
  0
LAYER
  5
202
100
AcDbSymbolTableRecord
100
AcDbLayerTableRecord
  2
COSMETICI
 70
0
 62
7
  6
CONTINUOUS
370
-3
390
F
  0
LAYER
  5
203
100
AcDbSymbolTableRecord
100
AcDbLayerTableRecord
  2
CURVE
 70
0
 62
7
  6
CONTINUOUS
370
-3
390
F
  0
LAYER
  5
204
100
AcDbSymbolTableRecord
100
AcDbLayerTableRecord
  2
DRAFT
 70
0
 62
7
  6
CONTINUOUS
370
-3
390
F
  0
LAYER
  5
205
100
AcDbSymbolTableRecord
100
AcDbLayerTableRecord
  2
IMPORT_IGES
 70
0
 62
7
  6
CONTINUOUS
370
-3
390
F
  0
LAYER
  5
206
100
AcDbSymbolTableRecord
100
AcDbLayerTableRecord
  2
IMPORT_SCRITTE
 70
0
 62
7
  6
CONTINUOUS
370
-3
390
F
  0
LAYER
  5
207
100
AcDbSymbolTableRecord
100
AcDbLayerTableRecord
  2
NOTE
 70
0
 62
7
  6
CONTINUOUS
370
-3
390
F
  0
LAYER
  5
208
100
AcDbSymbolTableRecord
100
AcDbLayerTableRecord
  2
PIANI
 70
0
 62
7
  6
CONTINUOUS
370
-3
390
F
  0
LAYER
  5
209
100
AcDbSymbolTableRecord
100
AcDbLayerTableRecord
  2
PIANI_ORIGINE
 70
0
 62
7
  6
CONTINUOUS
370
-3
390
F
  0
LAYER
  5
20A
100
AcDbSymbolTableRecord
100
AcDbLayerTableRecord
  2
PIANI_RIFERIMENTO
 70
0
 62
7
  6
CONTINUOUS
370
-3
390
F
  0
LAYER
  5
20B
100
AcDbSymbolTableRecord
100
AcDbLayerTableRecord
  2
PUNTI
 70
0
 62
7
  6
CONTINUOUS
370
-3
390
F
  0
LAYER
  5
20C
100
AcDbSymbolTableRecord
100
AcDbLayerTableRecord
  2
RACCORDO
 70
0
 62
7
  6
CONTINUOUS
370
-3
390
F
  0
LAYER
  5
20D
100
AcDbSymbolTableRecord
100
AcDbLayerTableRecord
  2
SMUSSO
 70
0
 62
7
  6
CONTINUOUS
370
-3
390
F
  0
LAYER
  5
20E
100
AcDbSymbolTableRecord
100
AcDbLayerTableRecord
  2
SNAPLINE
 70
0
 62
7
  6
CONTINUOUS
370
-3
390
F
  0
LAYER
  5
20F
100
AcDbSymbolTableRecord
100
AcDbLayerTableRecord
  2
SUPERFICI
 70
0
 62
7
  6
CONTINUOUS
370
-3
390
F
  0
LAYER
  5
210
100
AcDbSymbolTableRecord
100
AcDbLayerTableRecord
  2
TRASH
 70
0
 62
7
  6
CONTINUOUS
370
-3
390
F
  0
LAYER
  5
211
100
AcDbSymbolTableRecord
100
AcDbLayerTableRecord
  2
XSEC_DATUMS
 70
0
 62
7
  6
CONTINUOUS
370
-3
390
F
  0
ENDTAB
  0
TABLE
  2
STYLE
  5
3
100
AcDbSymbolTable
 70
1
  0
STYLE
  5
11
100
AcDbSymbolTableRecord
100
AcDbTextStyleTableRecord
  2
STANDARD
 70
0
 40
0.0
 41
0.8
 50
0.0
 71
0
 42
0.2
  3
txt
  4

  0
STYLE
  5
212
100
AcDbSymbolTableRecord
100
AcDbTextStyleTableRecord
  2
TEXTSTYLE_1
 70
0
 40
0.0
 41
0.8
 50
0.0
 71
0
 42
0.2
  3
gdt
  4

  0
ENDTAB
  0
TABLE
  2
VIEW
  5
6
100
AcDbSymbolTable
 70
0
  0
ENDTAB
  0
TABLE
  2
UCS
  5
7
100
AcDbSymbolTable
 70
0
  0
ENDTAB
  0
TABLE
  2
APPID
  5
9
100
AcDbSymbolTable
 70
1
  0
APPID
  5
213
100
AcDbSymbolTableRecord
100
AcDbRegAppTableRecord
  2
ACAD
 70
0
  0
ENDTAB
  0
TABLE
  2
BLOCK_RECORD
  5
1
100
AcDbSymbolTable
 70
0
  0
BLOCK_RECORD
  5
214
100
AcDbSymbolTableRecord
100
AcDbBlockTableRecord
  2
*Model_Space
  0
BLOCK_RECORD
  5
215
100
AcDbSymbolTableRecord
100
AcDbBlockTableRecord
  2
*Paper_Space
  0
BLOCK_RECORD
  5
216
100
AcDbSymbolTableRecord
100
AcDbBlockTableRecord
  2
_FILLED
  0
BLOCK_RECORD
  5
217
100
AcDbSymbolTableRecord
100
AcDbBlockTableRecord
  2
*D0
  0
BLOCK_RECORD
  5
218
100
AcDbSymbolTableRecord
100
AcDbBlockTableRecord
  2
*D1
  0
BLOCK_RECORD
  5
219
100
AcDbSymbolTableRecord
100
AcDbBlockTableRecord
  2
*D2
  0
BLOCK_RECORD
  5
21A
100
AcDbSymbolTableRecord
100
AcDbBlockTableRecord
  2
*D3
  0
ENDTAB
  0
TABLE
  2
DIMSTYLE
  5
A
100
AcDbSymbolTable
 70
1
100
AcDbDimStyleTable
 71
0
  0
DIMSTYLE
105
21B
100
AcDbSymbolTableRecord
100
AcDbDimStyleTableRecord
  2
STANDARD
 70
0
  3

  4

 40
1.0
 41
3.0
 42
0.5
 43
0.38
 44
1.5
 45
0.0
 46
0.0
 47
0.01
 48
0.01
140
3.0
141
0.09
142
0.0
143
25.4
144
1.0
145
0.0
146
1.0
147
0.625
 71
1
 72
0
 73
0
 74
0
 75
0
 76
0
 77
1
 78
8
 79
2
170
0
171
1
172
0
173
0
174
0
175
0
176
0
177
0
178
0
270
2
179
2
271
2
272
2
273
2
274
2
275
0
280
0
281
0
282
0
283
1
284
8
285
0
286
0
287
3
288
0
340
11
278
44
341
216
342
216
343
216
344
216
  0
DIMSTYLE
105
21C
100
AcDbSymbolTableRecord
100
AcDbDimStyleTableRecord
  2
DIMSTYLE_1
 70
0
  3

  4

 40
1.0
 41
3.0
 42
0.5
 43
0.38
 44
1.5
 45
0.0
 46
0.0
 47
0.0
 48
0.0
140
3.0
141
0.09
142
0.0
143
25.4
144
1.0
145
0.0
146
1.0
147
0.75
 71
0
 72
0
 73
0
 74
0
 75
0
 76
0
 77
1
 78
8
 79
2
170
0
171
1
172
0
173
0
174
0
175
0
176
0
177
0
178
0
270
2
179
2
271
2
272
2
273
2
274
2
275
0
280
0
281
0
282
0
283
1
284
8
285
0
286
0
287
3
288
0
340
11
278
44
341
216
342
216
343
216
344
216
  0
DIMSTYLE
105
21D
100
AcDbSymbolTableRecord
100
AcDbDimStyleTableRecord
  2
DIMSTYLE_2
 70
0
  3

  4

 40
1.0
 41
3.0
 42
0.5
 43
0.38
 44
1.5
 45
0.0
 46
0.0
 47
0.0
 48
0.0
140
3.0
141
0.09
142
0.0
143
25.4
144
1.0
145
0.0
146
1.0
147
0.75
 71
0
 72
0
 73
0
 74
0
 75
0
 76
0
 77
1
 78
8
 79
2
170
0
171
1
172
0
173
0
174
0
175
0
176
0
177
0
178
0
270
2
179
2
271
1
272
1
273
2
274
2
275
0
280
0
281
0
282
0
283
1
284
8
285
0
286
0
287
3
288
0
340
11
278
44
341
216
342
216
343
216
344
216
  0
ENDTAB
  0
ENDSEC
  0
SECTION
  2
BLOCKS
  0
BLOCK
  5
20
100
AcDbEntity
  8
0
100
AcDbBlockBegin
  2
*Model_Space
 70
0
 10
0.0
 20
0.0
 30
0.0
  3
*Model_Space
  1

  0
ENDBLK
  5
21
100
AcDbEntity
  8
0
100
AcDbBlockEnd
  0
BLOCK
  5
1C
100
AcDbEntity
  8
0
100
AcDbBlockBegin
  2
*Paper_Space
 70
0
 10
0.0
 20
0.0
 30
0.0
  3
*Paper_Space
  1

  0
ENDBLK
  5
1D
100
AcDbEntity
  8
0
100
AcDbBlockEnd
  0
BLOCK
  5
21E
100
AcDbEntity
  8
0
100
AcDbBlockBegin
  2
_FILLED
 70
64
 10
0.0
 20
0.0
  3
_FILLED
  1

  0
SOLID
  5
21F
100
AcDbEntity
  8
0
  6
BYBLOCK
 62
0
100
AcDbTrace
 10
0.0
 20
0.0
 11
-1.0
 21
0.3166666667
 12
-1.0
 22
-0.3166666667
 13
-1.0
 23
-0.3166666667
  0
ENDBLK
  5
220
100
AcDbEntity
  8
0
  6
BYBLOCK
 62
0
100
AcDbBlockEnd
  0
BLOCK
  5
221
100
AcDbEntity
  8
0
100
AcDbBlockBegin
 62
7
  6
CONTINUOUS
  2
*D0
 70
65
 10
0.0
 20
0.0
  3
*D0
  1

  0
LINE
  5
222
100
AcDbEntity
  8
0
100
AcDbLine
 62
7
  6
CONTINUOUS
 10
-33.65
 20
22.3823164546
 11
-33.65
 21
34.0
  0
LINE
  5
223
100
AcDbEntity
  8
0
100
AcDbLine
 62
7
  6
CONTINUOUS
 10
33.65
 20
22.3823164546
 11
33.65
 21
34.0
  0
LINE
  5
224
100
AcDbEntity
  8
0
100
AcDbLine
 62
7
  6
CONTINUOUS
 10
-33.65
 20
32.5
 11
0.0
 21
32.5
  0
LINE
  5
225
100
AcDbEntity
  8
0
100
AcDbLine
 62
7
  6
CONTINUOUS
 10
33.65
 20
32.5
 11
0.0
 21
32.5
  0
INSERT
  5
226
100
AcDbEntity
  8
0
100
AcDbBlockReference
 62
7
  6
CONTINUOUS
  2
_FILLED
 10
-33.65
 20
32.5
 41
3.0
 42
3.0
 43
3.0
 50
180.0
  0
INSERT
  5
227
100
AcDbEntity
  8
0
100
AcDbBlockReference
 62
7
  6
CONTINUOUS
  2
_FILLED
 10
33.65
 20
32.5
 41
3.0
 42
3.0
 43
3.0
  0
ENDBLK
  5
228
100
AcDbEntity
  8
0
  6
BYBLOCK
 62
0
100
AcDbBlockEnd
  0
BLOCK
  5
229
100
AcDbEntity
  8
0
100
AcDbBlockBegin
 62
7
  6
CONTINUOUS
  2
*D1
 70
65
 10
0.0
 20
0.0
  3
*D1
  1

  0
LINE
  5
22A
100
AcDbEntity
  8
0
100
AcDbLine
 62
7
  6
CONTINUOUS
 10
-65.4975719087
 20
-19.1620355819
 11
-65.4975719087
 21
44.0
  0
LINE
  5
22B
100
AcDbEntity
  8
0
100
AcDbLine
 62
7
  6
CONTINUOUS
 10
-41.2405080348
 20
20.5872686779
 11
-41.2405080348
 21
44.0
  0
LINE
  5
22C
100
AcDbEntity
  8
0
100
AcDbLine
 62
7
  6
CONTINUOUS
 10
-65.4975719087
 20
42.5
 11
-53.3690399718
 21
42.5
  0
LINE
  5
22D
100
AcDbEntity
  8
0
100
AcDbLine
 62
7
  6
CONTINUOUS
 10
-41.2405080348
 20
42.5
 11
-53.3690399718
 21
42.5
  0
INSERT
  5
22E
100
AcDbEntity
  8
0
100
AcDbBlockReference
 62
7
  6
CONTINUOUS
  2
_FILLED
 10
-65.4975719087
 20
42.5
 41
3.0
 42
3.0
 43
3.0
 50
180.0
  0
INSERT
  5
22F
100
AcDbEntity
  8
0
100
AcDbBlockReference
 62
7
  6
CONTINUOUS
  2
_FILLED
 10
-41.2405080348
 20
42.5
 41
3.0
 42
3.0
 43
3.0
  0
ENDBLK
  5
230
100
AcDbEntity
  8
0
  6
BYBLOCK
 62
0
100
AcDbBlockEnd
  0
BLOCK
  5
231
100
AcDbEntity
  8
0
100
AcDbBlockBegin
 62
7
  6
CONTINUOUS
  2
*D2
 70
65
 10
0.0
 20
0.0
  3
*D2
  1

  0
LINE
  5
232
100
AcDbEntity
  8
0
100
AcDbLine
 62
7
  6
CONTINUOUS
 10
-41.2405080348
 20
21.4
 11
-41.2405080348
 21
34.0
  0
LINE
  5
233
100
AcDbEntity
  8
0
100
AcDbLine
 62
7
  6
CONTINUOUS
 10
-51.2405080348
 20
22.3823164546
 11
-51.2405080348
 21
34.0
  0
LINE
  5
234
100
AcDbEntity
  8
0
100
AcDbLine
 62
7
  6
CONTINUOUS
 10
-41.2405080348
 20
32.5
 11
-37.2405080348
 21
32.5
  0
LINE
  5
235
100
AcDbEntity
  8
0
100
AcDbLine
 62
7
  6
CONTINUOUS
 10
-37.2405080348
 20
32.5
 11
-46.2405080348
 21
32.5
  0
LINE
  5
236
100
AcDbEntity
  8
0
100
AcDbLine
 62
7
  6
CONTINUOUS
 10
-51.2405080348
 20
32.5
 11
-55.2405080348
 21
32.5
  0
LINE
  5
237
100
AcDbEntity
  8
0
100
AcDbLine
 62
7
  6
CONTINUOUS
 10
-55.2405080348
 20
32.5
 11
-46.2405080348
 21
32.5
  0
INSERT
  5
238
100
AcDbEntity
  8
0
100
AcDbBlockReference
 62
7
  6
CONTINUOUS
  2
_FILLED
 10
-41.2405080348
 20
32.5
 41
3.0
 42
3.0
 43
3.0
 50
180.0
  0
INSERT
  5
239
100
AcDbEntity
  8
0
100
AcDbBlockReference
 62
7
  6
CONTINUOUS
  2
_FILLED
 10
-51.2405080348
 20
32.5
 41
3.0
 42
3.0
 43
3.0
  0
ENDBLK
  5
23A
100
AcDbEntity
  8
0
  6
BYBLOCK
 62
0
100
AcDbBlockEnd
  0
BLOCK
  5
23B
100
AcDbEntity
  8
0
100
AcDbBlockBegin
 62
7
  6
CONTINUOUS
  2
*D3
 70
65
 10
0.0
 20
0.0
  3
*D3
  1

  0
LINE
  5
23C
100
AcDbEntity
  8
0
100
AcDbLine
 62
7
  6
CONTINUOUS
 10
-54.9905080348
 20
24.5
 11
-74.9965176314
 21
24.5
  0
LINE
  5
23D
100
AcDbEntity
  8
0
100
AcDbLine
 62
7
  6
CONTINUOUS
 10
-54.9905080348
 20
-24.5
 11
-74.9965176314
 21
-24.5
  0
LINE
  5
23E
100
AcDbEntity
  8
0
100
AcDbLine
 62
7
  6
CONTINUOUS
 10
-73.4965176314
 20
24.5
 11
-73.4965176314
 21
0.0
  0
LINE
  5
23F
100
AcDbEntity
  8
0
100
AcDbLine
 62
7
  6
CONTINUOUS
 10
-73.4965176314
 20
-24.5
 11
-73.4965176314
 21
0.0
  0
INSERT
  5
240
100
AcDbEntity
  8
0
100
AcDbBlockReference
 62
7
  6
CONTINUOUS
  2
_FILLED
 10
-73.4965176314
 20
24.5
 41
3.0
 42
3.0
 43
3.0
 50
90.0
  0
INSERT
  5
241
100
AcDbEntity
  8
0
100
AcDbBlockReference
 62
7
  6
CONTINUOUS
  2
_FILLED
 10
-73.4965176314
 20
-24.5
 41
3.0
 42
3.0
 43
3.0
 50
270.0
  0
ENDBLK
  5
242
100
AcDbEntity
  8
0
  6
BYBLOCK
 62
0
100
AcDbBlockEnd
  0
ENDSEC
  0
SECTION
  2
ENTITIES
  0
DIMENSION
  5
243
100
AcDbEntity
  8
0
100
AcDbDimension
 62
7
  6
CONTINUOUS
  2
*D0
 10
33.65
 20
32.5
 11
-4.2857142857
 21
32.5
 70
160
 71
2
 72
2
 41
0.9
 42
67.3
  3
DIMSTYLE_1
100
AcDbAlignedDimension
 13
-33.65
 23
21.8823164546
 14
33.65
 24
21.8823164546
100
AcDbRotatedDimension
  0
DIMENSION
  5
244
100
AcDbEntity
  8
0
100
AcDbDimension
 62
7
  6
CONTINUOUS
  2
*D1
 10
-41.2405080348
 20
42.5
 11
-57.6547542575
 21
42.5
 70
160
 71
2
 72
2
 41
0.9
 42
24.2570638739
  3
DIMSTYLE_2
100
AcDbAlignedDimension
 13
-65.4975719087
 23
-19.6620355819
 14
-41.2405080348
 24
20.0872686779
100
AcDbRotatedDimension
  0
DIMENSION
  5
245
100
AcDbEntity
  8
0
100
AcDbDimension
 62
7
  6
CONTINUOUS
  2
*D2
 10
-51.2405080348
 20
32.5
 11
-48.2762223205
 21
32.5
 70
160
 71
2
 72
2
 41
0.9
 42
10.0
  3
DIMSTYLE_1
100
AcDbAlignedDimension
 13
-41.2405080348
 23
20.9
 14
-51.2405080348
 24
21.8823164546
 50
180.0
100
AcDbRotatedDimension
  0
DIMENSION
  5
246
100
AcDbEntity
  8
0
100
AcDbDimension
 62
7
  6
CONTINUOUS
  2
*D3
 10
-73.4965176314
 20
-24.5
 11
-73.4965176314
 21
-2.3571428571
 70
160
 71
2
 72
2
 41
0.9
 42
49.0
  3
DIMSTYLE_1
100
AcDbAlignedDimension
 13
-54.4905080348
 23
24.5
 14
-54.4905080348
 24
-24.5
 50
270.0
100
AcDbRotatedDimension
  0
LWPOLYLINE
  5
247
100
AcDbEntity
  8
RACCORDO
100
AcDbPolyline
 62
7
  6
CONTINUOUS
 90
10
 70
0
 10
-33.6029399599
 20
22.0969754117
 10
-33.6089354347
 20
22.0775664885
 10
-33.6138591838
 20
22.0591338669
 10
-33.617821684
 20
22.0418515468
 10
-33.6208313087
 20
22.0265074569
 10
-33.6230540668
 20
22.0133256763
 10
-33.6247182363
 20
22.0019736442
 10
-33.625956955
 20
21.992424098
 10
-33.6268503446
 20
21.9848458973
 10
-33.6284157722
 20
21.9704512019
  0
LWPOLYLINE
  5
248
100
AcDbEntity
  8
RACCORDO
100
AcDbPolyline
 62
7
  6
CONTINUOUS
 90
9
 70
0
 10
-33.1590674445
 20
22.5623349788
 10
-33.1646936076
 20
22.5466357511
 10
-33.1714579776
 20
22.5317591533
 10
-33.1792404138
 20
22.5177714424
 10
-33.1879172707
 20
22.5047282197
 10
-33.1973715685
 20
22.4926619377
 10
-33.2074829065
 20
22.4816001773
 10
-33.2181210667
 20
22.4715682402
 10
-33.2291921974
 20
22.4625486983
  0
LWPOLYLINE
  5
249
100
AcDbEntity
  8
RACCORDO
100
AcDbPolyline
 62
250
  6
CONTINUOUS
 90
13
 70
0
 10
-33.2893673086
 20
20.3426507166
 10
-33.2808730777
 20
20.3603061651
 10
-33.2591368469
 20
20.377641683
 10
-33.2245223225
 20
20.3943671998
 10
-33.1776087
 20
20.4102028522
 10
-33.1191809719
 20
20.4248836665
 10
-33.0502167934
 20
20.4381639928
 10
-32.9718701229
 20
20.4498216148
 10
-32.8854519136
 20
20.4596614687
 10
-32.7924081777
 20
20.4675189077
 10
-32.6942957902
 20
20.4732624554
 10
-32.5927564387
 20
20.4767960064
 10
-32.4894891531
 20
20.4780604346
  0
LWPOLYLINE
  5
24A
100
AcDbEntity
  8
ASSI
100
AcDbPolyline
 62
250
  6
CONTINUOUS
 90
10
 70
0
 10
-33.2893673086
 20
20.3426507166
 10
-33.2808730777
 20
20.3603061651
 10
-33.2591368469
 20
20.377641683
 10
-33.2245223225
 20
20.3943671998
 10
-33.1776087
 20
20.4102028522
 10
-33.1191809719
 20
20.4248836665
 10
-33.0502167934
 20
20.4381639928
 10
-32.9718701229
 20
20.4498216148
 10
-32.8854519136
 20
20.4596614687
 10
-32.7924081777
 20
20.4675189077
  0
LINE
  5
24B
100
AcDbEntity
  8
ASSI
100
AcDbLine
 62
250
  6
CONTINUOUS
 10
-33.3001168477
 20
20.9226368978
 11
-33.3013450129
 21
20.9202178306
  0
LWPOLYLINE
  5
24C
100
AcDbEntity
  8
RACCORDO
100
AcDbPolyline
 62
250
  6
CONTINUOUS
 90
5
 70
0
 10
-33.5913434851
 20
22.1011719378
 10
-33.567592502
 20
22.1478033212
 10
-33.5390956826
 20
22.1916945408
 10
-33.5061653639
 20
22.2323645306
 10
-33.5030670764
 20
22.2356334166
  0
LWPOLYLINE
  5
24D
100
AcDbEntity
  8
RACCORDO
100
AcDbPolyline
 62
7
  6
CONTINUOUS
 90
6
 70
0
 10
-33.5526617761
 20
22.2044515377
 10
-33.5656231188
 20
22.182349388
 10
-33.5771343098
 20
22.1602393888
 10
-33.5871101633
 20
22.1385720909
 10
-33.595671518
 20
22.1174537935
 10
-33.6029399599
 20
22.0969754117
  0
LWPOLYLINE
  5
24E
100
AcDbEntity
  8
RACCORDO
100
AcDbPolyline
 62
250
  6
CONTINUOUS
 90
12
 70
0
 10
-33.6278247568
 20
21.9406659172
 10
-33.627991445
 20
21.9403938981
 10
-33.6281639302
 20
21.9399536551
 10
-33.6283422125
 20
21.939345188
 10
-33.6285256503
 20
21.9385763925
 10
-33.6287148851
 20
21.937639373
 10
-33.6289118421
 20
21.9365104426
 10
-33.6291164513
 20
21.9351834434
 10
-33.6293287827
 20
21.9336645333
 10
-33.6295509716
 20
21.9319484992
 10
-33.6297828511
 20
21.9300235829
 10
-33.6302788193
 20
21.9256124398
  0
LWPOLYLINE
  5
24F
100
AcDbEntity
  8
RACCORDO
100
AcDbPolyline
 62
7
  6
CONTINUOUS
 90
3
 70
0
 10
-33.5305007738
 20
22.2371695243
 10
-33.538263323
 20
22.2263302669
 10
-33.5526617761
 20
22.2044515377
  0
LINE
  5
250
100
AcDbEntity
  8
RACCORDO
100
AcDbLine
 62
7
  6
CONTINUOUS
 10
-33.5161316897
 20
22.2565193798
 11
-33.5121511112
 21
22.2619320384
  0
LINE
  5
251
100
AcDbEntity
  8
RACCORDO
100
AcDbLine
 62
250
  6
CONTINUOUS
 10
-33.6103751521
 20
21.9642119188
 11
-33.6181303187
 21
21.9536834334
  0
LINE
  5
252
100
AcDbEntity
  8
RACCORDO
100
AcDbLine
 62
7
  6
CONTINUOUS
 10
-33.5305007738
 20
22.2371695243
 11
-33.5161316897
 21
22.2565193798
  0
LINE
  5
253
100
AcDbEntity
  8
RACCORDO
100
AcDbLine
 62
250
  6
CONTINUOUS
 10
-33.6181303187
 20
21.9536834334
 11
-33.6258863337
 21
21.9432560917
  0
LINE
  5
254
100
AcDbEntity
  8
RACCORDO
100
AcDbLine
 62
250
  6
CONTINUOUS
 10
-33.6258863337
 20
21.9432560917
 11
-33.6278247568
 21
21.9406659172
  0
LINE
  5
255
100
AcDbEntity
  8
RACCORDO
100
AcDbLine
 62
7
  6
CONTINUOUS
 10
-33.5010375381
 20
22.2763723293
 11
-33.5121519636
 21
22.2619326745
  0
LINE
  5
256
100
AcDbEntity
  8
RACCORDO
100
AcDbLine
 62
7
  6
CONTINUOUS
 10
-33.5280417615
 20
22.2404797938
 11
-33.5129277309
 21
22.2591702294
  0
LINE
  5
257
100
AcDbEntity
  8
RACCORDO
100
AcDbLine
 62
250
  6
CONTINUOUS
 10
-33.6345185694
 20
21.897797805
 11
-33.65
 21
21.8823164546
  0
LINE
  5
258
100
AcDbEntity
  8
RACCORDO
100
AcDbLine
 62
250
  6
CONTINUOUS
 10
-33.5976348052
 20
21.9346816494
 11
-33.6033544073
 21
21.9289665558
  0
LWPOLYLINE
  5
259
100
AcDbEntity
  8
RACCORDO
100
AcDbPolyline
 62
7
  6
CONTINUOUS
 90
13
 70
0
 10
-33.22701957
 20
-22.4642164863
 10
-33.2169750846
 20
-22.4725799811
 10
-33.2073753591
 20
-22.4817093938
 10
-33.1983081274
 20
-22.4915648285
 10
-33.1898535532
 20
-22.5020970219
 10
-33.1820522295
 20
-22.5132966939
 10
-33.1749365682
 20
-22.5251787212
 10
-33.1685741601
 20
-22.5377123017
 10
-33.163037273
 20
-22.5508495303
 10
-33.1583817496
 20
-22.5645794045
 10
-33.1546818367
 20
-22.5788459881
 10
-33.1520091034
 20
-22.5935852782
 10
-33.1504290548
 20
-22.6087662238
  0
LWPOLYLINE
  5
25A
100
AcDbEntity
  8
RACCORDO
100
AcDbPolyline
 62
7
  6
CONTINUOUS
 90
4
 70
0
 10
-33.4515566884
 20
-22.3298055514
 10
-33.4142929479
 20
-22.3613328444
 10
-33.3740731006
 20
-22.3891175297
 10
-33.3312643562
 20
-22.4128785313
  0
LINE
  5
25B
100
AcDbEntity
  8
RACCORDO
100
AcDbLine
 62
250
  6
CONTINUOUS
 10
-33.6345185694
 20
-21.8977978048
 11
-33.65
 21
-21.8823164546
  0
LINE
  5
25C
100
AcDbEntity
  8
RACCORDO
100
AcDbLine
 62
7
  6
CONTINUOUS
 10
-33.4855157707
 20
-22.2948618356
 11
-33.4515566884
 21
-22.3298055514
  0
LINE
  5
25D
100
AcDbEntity
  8
RACCORDO
100
AcDbLine
 62
7
  6
CONTINUOUS
 10
-33.5092275602
 20
-22.2658364642
 11
-33.4855157707
 21
-22.2948618356
  0
LINE
  5
25E
100
AcDbEntity
  8
RACCORDO
100
AcDbLine
 62
7
  6
CONTINUOUS
 10
-33.521948577
 20
-22.2480041407
 11
-33.528041533
 21
-22.2404790742
  0
LINE
  5
25F
100
AcDbEntity
  8
RACCORDO
100
AcDbLine
 62
7
  6
CONTINUOUS
 10
-33.5092276586
 20
-22.265836535
 11
-33.5137165735
 21
-22.2598081261
  0
LINE
  5
260
100
AcDbEntity
  8
RACCORDO
100
AcDbLine
 62
7
  6
CONTINUOUS
 10
-33.5297060686
 20
-22.2382445812
 11
-33.5217531128
 21
-22.2489115284
  0
LINE
  5
261
100
AcDbEntity
  8
RACCORDO
100
AcDbLine
 62
250
  6
CONTINUOUS
 10
-33.6200696991
 20
-21.9510665671
 11
-33.6278247332
 21
-21.9406659488
  0
LWPOLYLINE
  5
262
100
AcDbEntity
  8
RACCORDO
100
AcDbPolyline
 62
7
  6
CONTINUOUS
 90
3
 70
0
 10
-33.5217531128
 20
-22.2489115284
 10
-33.5142592285
 20
-22.2590681118
 10
-33.5137165735
 20
-22.2598081261
  0
LWPOLYLINE
  5
263
100
AcDbEntity
  8
RACCORDO
100
AcDbPolyline
 62
250
  6
CONTINUOUS
 90
3
 70
0
 10
-33.6103751542
 20
-21.964211916
 10
-33.6123136193
 20
-21.9615706094
 10
-33.6200696991
 20
-21.9510665671
  0
LWPOLYLINE
  5
264
100
AcDbEntity
  8
RACCORDO
100
AcDbPolyline
 62
250
  6
CONTINUOUS
 90
3
 70
0
 10
-33.5333789685
 20
-22.2332203408
 10
-33.5336908997
 20
-22.2327872527
 10
-33.5618166941
 20
-22.1890898516
  0
LINE
  5
265
100
AcDbEntity
  8
RACCORDO
100
AcDbLine
 62
7
  6
CONTINUOUS
 10
-33.5137165735
 20
-22.2598081261
 11
-33.5200604591
 21
-22.2509525128
  0
LINE
  5
266
100
AcDbEntity
  8
RACCORDO
100
AcDbLine
 62
7
  6
CONTINUOUS
 10
-33.5200604591
 20
-22.2509525128
 11
-33.5422171023
 21
-22.2163540208
  0
LWPOLYLINE
  5
267
100
AcDbEntity
  8
RACCORDO
100
AcDbPolyline
 62
250
  6
CONTINUOUS
 90
14
 70
0
 10
-33.6278247332
 20
-21.9406659488
 10
-33.6279685341
 20
-21.9404367126
 10
-33.6281167296
 20
-21.9400836216
 10
-33.6282693197
 20
-21.9396066759
 10
-33.6284257492
 20
-21.9390133933
 10
-33.6285865734
 20
-21.9382962559
 10
-33.6287534574
 20
-21.9374327105
 10
-33.6289264764
 20
-21.9364188375
 10
-33.6291055552
 20
-21.9352585566
 10
-33.6292921338
 20
-21.9339410728
 10
-33.6294860792
 20
-21.9324621821
 10
-33.6296875245
 20
-21.9308260886
 10
-33.629898309
 20
-21.9290346096
 10
-33.6301182389
 20
-21.9270762299
  0
LINE
  5
268
100
AcDbEntity
  8
RACCORDO
100
AcDbLine
 62
250
  6
CONTINUOUS
 10
-33.5422171023
 20
-22.2163540208
 11
-33.5470716818
 21
-22.2078488826
  0
LWPOLYLINE
  5
269
100
AcDbEntity
  8
RACCORDO
100
AcDbPolyline
 62
250
  6
CONTINUOUS
 90
6
 70
0
 10
-33.5618166941
 20
-22.1890898516
 10
-33.5852513023
 20
-22.142706679
 10
-33.6037413666
 20
-22.0941391958
 10
-33.6170869861
 20
-22.0439124778
 10
-33.625143878
 20
-21.9925695393
 10
-33.6278249375
 20
-21.9406654621
  0
LWPOLYLINE
  5
26A
100
AcDbEntity
  8
RACCORDO
100
AcDbPolyline
 62
250
  6
CONTINUOUS
 90
6
 70
0
 10
-33.5470716818
 20
-22.2078488826
 10
-33.5695598961
 20
-22.1622214191
 10
-33.5872921445
 20
-22.1145427816
 10
-33.6000847372
 20
-22.0653068773
 10
-33.6078051544
 20
-22.0150237454
 10
-33.6103734197
 20
-21.9642142736
  0
LWPOLYLINE
  5
26B
100
AcDbEntity
  8
RACCORDO
100
AcDbPolyline
 62
7
  6
CONTINUOUS
 90
10
 70
0
 10
-33.607389932
 20
-22.0828421494
 10
-33.6017221564
 20
-22.1006104891
 10
-33.5950863371
 20
-22.1189899632
 10
-33.5873672831
 20
-22.1379764118
 10
-33.5786500318
 20
-22.1571157463
 10
-33.5689282822
 20
-22.1762696032
 10
-33.5581193236
 20
-22.1954577793
 10
-33.5462664187
 20
-22.214477295
 10
-33.5333789685
 20
-22.2332203408
 10
-33.5297060686
 20
-22.2382445812
  0
LINE
  5
26C
100
AcDbEntity
  8
RACCORDO
100
AcDbLine
 62
7
  6
CONTINUOUS
 10
-33.6283870193
 20
-21.9707097024
 11
-33.6273544131
 21
-21.9803105491
  0
LWPOLYLINE
  5
26D
100
AcDbEntity
  8
RACCORDO
100
AcDbPolyline
 62
250
  6
CONTINUOUS
 90
3
 70
0
 10
-33.6301182389
 20
-21.9270762299
 10
-33.6311062972
 20
-21.917870309
 10
-33.6313846075
 20
-21.915353543
  0
LINE
  5
26E
100
AcDbEntity
  8
RACCORDO
100
AcDbLine
 62
250
  6
CONTINUOUS
 10
-33.6302788193
 20
21.9256124398
 11
-33.6311191151
 21
21.91777282
  0
LWPOLYLINE
  5
26F
100
AcDbEntity
  8
RACCORDO
100
AcDbPolyline
 62
250
  6
CONTINUOUS
 90
9
 70
0
 10
-33.6311191151
 20
21.91777282
 10
-33.6317547979
 20
21.9120788969
 10
-33.6320967516
 20
21.9093112017
 10
-33.6324547979
 20
21.9066317637
 10
-33.6328293266
 20
21.9040661476
 10
-33.6332227289
 20
21.9018739809
 10
-33.633635802
 20
21.9001418061
 10
-33.6340677489
 20
21.8987830808
 10
-33.6345185694
 20
21.897797805
  0
LINE
  5
270
100
AcDbEntity
  8
DRAFT
100
AcDbLine
 62
7
  6
CONTINUOUS
 10
-33.6089805974
 20
21.825
 11
-33.5976348052
 21
21.9048099646
  0
LINE
  5
271
100
AcDbEntity
  8
ASSI
100
AcDbLine
 62
250
  6
CONTINUOUS
 10
-33.2944727999
 20
21.0242088416
 11
-33.285894582
 21
21.0758352844
  0
LINE
  5
272
100
AcDbEntity
  8
ASSI
100
AcDbLine
 62
7
  6
CONTINUOUS
 10
-33.285894582
 20
21.0758352844
 11
-33.3845924576
 21
20.5829470008
  0
LINE
  5
273
100
AcDbEntity
  8
RACCORDO
100
AcDbLine
 62
250
  6
CONTINUOUS
 10
-33.3013450129
 20
20.9202178306
 11
-33.4
 21
20.4275437282
  0
LINE
  5
274
100
AcDbEntity
  8
ASSI
100
AcDbLine
 62
250
  6
CONTINUOUS
 10
-33.3013450129
 20
20.9202178306
 11
-33.4
 21
20.4275437282
  0
LINE
  5
275
100
AcDbEntity
  8
RACCORDO
100
AcDbLine
 62
7
  6
CONTINUOUS
 10
-33.3845924576
 20
20.5829470008
 11
-33.2858409192
 21
21.0761030324
  0
LINE
  5
276
100
AcDbEntity
  8
ASSI
100
AcDbLine
 62
7
  6
CONTINUOUS
 10
-33.285894582
 20
21.0758352844
 11
-33.2832341195
 21
21.088577722
  0
LINE
  5
277
100
AcDbEntity
  8
RACCORDO
100
AcDbLine
 62
7
  6
CONTINUOUS
 10
-33.2799840425
 20
21.1029331575
 11
-33.2858336816
 21
21.0761018705
  0
LWPOLYLINE
  5
278
100
AcDbEntity
  8
RACCORDO
100
AcDbPolyline
 62
7
  6
CONTINUOUS
 90
5
 70
0
 10
-33.2291921974
 20
22.4625486983
 10
-33.2405722239
 20
22.4545454407
 10
-33.2520765471
 20
22.447583299
 10
-33.2637629751
 20
22.4415393029
 10
-33.2753779298
 20
22.4364616314
  0
LWPOLYLINE
  5
279
100
AcDbEntity
  8
RACCORDO
100
AcDbPolyline
 62
7
  6
CONTINUOUS
 90
15
 70
0
 10
-32.9165377536
 20
21.6046899595
 10
-32.9592585997
 20
21.5767766205
 10
-32.999492879
 20
21.5466935016
 10
-33.0371718669
 20
21.5146788198
 10
-33.0722648522
 20
21.4809489144
 10
-33.1047554534
 20
21.4457112984
 10
-33.1346114123
 20
21.4092017506
 10
-33.1618091382
 20
21.3716704525
 10
-33.1864387628
 20
21.3332159356
 10
-33.2084613744
 20
21.2941374239
 10
-33.2277528265
 20
21.2550056472
 10
-33.2444987377
 20
21.2158724268
 10
-33.2587632932
 20
21.1770556404
 10
-33.2704578556
 20
21.1395387402
 10
-33.2799840425
 20
21.1029331575
  0
LWPOLYLINE
  5
27A
100
AcDbEntity
  8
RACCORDO
100
AcDbPolyline
 62
250
  6
CONTINUOUS
 90
7
 70
0
 10
-33.1499999814
 20
22.6218524218
 10
-33.1485941046
 20
22.6226953667
 10
-33.1444117633
 20
22.6235120145
 10
-33.1375286372
 20
22.6242992401
 10
-33.1280530597
 20
22.6250644537
 10
-33.1161144997
 20
22.6258002451
 10
-33.10185282
 20
22.626484384
  0
LWPOLYLINE
  5
27B
100
AcDbEntity
  8
RACCORDO
100
AcDbPolyline
 62
250
  6
CONTINUOUS
 90
3
 70
0
 10
-33.6276568467
 20
-21.9762353971
 10
-33.6317948096
 20
-21.9500640856
 10
-33.6345185694
 20
-21.8977978048
  0
LWPOLYLINE
  5
27C
100
AcDbEntity
  8
RACCORDO
100
AcDbPolyline
 62
7
  6
CONTINUOUS
 90
5
 70
0
 10
-33.6271060782
 20
-21.9800271797
 10
-33.6275722535
 20
-21.9768604412
 10
-33.6281876695
 20
-21.9723132424
 10
-33.62843106
 20
-21.9703217533
 10
-33.6283870193
 20
-21.9707097024
  0
LINE
  5
27D
100
AcDbEntity
  8
DRAFT
100
AcDbLine
 62
7
  6
CONTINUOUS
 10
-33.5976348052
 20
-21.9048099646
 11
-33.6089805974
 21
-21.825
  0
LWPOLYLINE
  5
27E
100
AcDbEntity
  8
RACCORDO
100
AcDbPolyline
 62
250
  6
CONTINUOUS
 90
8
 70
0
 10
-33.6319829927
 20
-21.9101933003
 10
-33.6323026299
 20
-21.9077292714
 10
-33.6326355758
 20
-21.9053805523
 10
-33.6329821911
 20
-21.9031617111
 10
-33.6333436779
 20
-21.9012739004
 10
-33.6337204369
 20
-21.8997841713
 10
-33.6341120674
 20
-21.8986254727
 10
-33.6345185694
 20
-21.8977978048
  0
LINE
  5
27F
100
AcDbEntity
  8
RACCORDO
100
AcDbLine
 62
250
  6
CONTINUOUS
 10
-33.6313846075
 20
-21.915353543
 11
-33.6319829927
 21
-21.9101933003
  0
LWPOLYLINE
  5
280
100
AcDbEntity
  8
RACCORDO
100
AcDbPolyline
 62
7
  6
CONTINUOUS
 90
10
 70
0
 10
-33.6273544131
 20
-21.9803105491
 10
-33.6267083621
 20
-21.9860910183
 10
-33.6258839595
 20
-21.9930173339
 10
-33.6248269232
 20
-22.0011775615
 10
-33.623430806
 20
-22.0108844517
 10
-33.6215573422
 20
-22.0224090133
 10
-33.6191120348
 20
-22.0355611691
 10
-33.6160322837
 20
-22.0499928247
 10
-33.6121696829
 20
-22.0657758383
 10
-33.607389932
 20
-22.0828421494
  0
LWPOLYLINE
  5
281
100
AcDbEntity
  8
RACCORDO
100
AcDbPolyline
 62
250
  6
CONTINUOUS
 90
13
 70
0
 10
-33.3013450129
 20
-20.3553584695
 10
-33.2944733165
 20
-20.4589897646
 10
-33.2740391324
 20
-20.5608744278
 10
-33.2403916401
 20
-20.6592699063
 10
-33.1941060047
 20
-20.7524932838
 10
-33.1359735906
 20
-20.8389499859
 10
-33.0669884696
 20
-20.9171610788
 10
-32.9883303066
 20
-20.985788715
 10
-32.9013443029
 20
-21.0436588689
 10
-32.807518305
 20
-21.0897814278
 10
-32.7084571129
 20
-21.1233673114
 10
-32.6058549885
 20
-21.1438419047
 10
-32.501466857
 20
-21.1508548108
  0
LWPOLYLINE
  5
282
100
AcDbEntity
  8
ASSI
100
AcDbPolyline
 62
250
  6
CONTINUOUS
 90
13
 70
0
 10
-33.3013450129
 20
-20.3553584695
 10
-33.2944733165
 20
-20.4589897646
 10
-33.2740391324
 20
-20.5608744278
 10
-33.2403916401
 20
-20.6592699063
 10
-33.1941060047
 20
-20.7524932838
 10
-33.1359735906
 20
-20.8389499859
 10
-33.0669884696
 20
-20.9171610788
 10
-32.9883303066
 20
-20.985788715
 10
-32.9013443029
 20
-21.0436588689
 10
-32.807518305
 20
-21.0897814278
 10
-32.7084571129
 20
-21.1233673114
 10
-32.6058549885
 20
-21.1438419047
 10
-32.501466857
 20
-21.1508548108
  0
LINE
  5
283
100
AcDbEntity
  8
RACCORDO
100
AcDbLine
 62
7
  6
CONTINUOUS
 10
-33.1504290548
 20
-22.6087662238
 11
-33.150000279
 21
-22.6218538841
  0
LINE
  5
284
100
AcDbEntity
  8
RACCORDO
100
AcDbLine
 62
250
  6
CONTINUOUS
 10
-33.2912240114
 20
20.6559712173
 11
-33.2927037516
 21
20.7554501803
  0
LINE
  5
285
100
AcDbEntity
  8
ASSI
100
AcDbLine
 62
250
  6
CONTINUOUS
 10
-33.2912240114
 20
20.6559712173
 11
-33.2927037516
 21
20.7554501803
  0
LINE
  5
286
100
AcDbEntity
  8
RACCORDO
100
AcDbLine
 62
250
  6
CONTINUOUS
 10
-33.2901404381
 20
20.5391211433
 11
-33.2912240114
 21
20.6559712173
  0
LINE
  5
287
100
AcDbEntity
  8
ASSI
100
AcDbLine
 62
250
  6
CONTINUOUS
 10
-33.2901404381
 20
20.5391211433
 11
-33.2912240114
 21
20.6559712173
  0
LINE
  5
288
100
AcDbEntity
  8
RACCORDO
100
AcDbLine
 62
250
  6
CONTINUOUS
 10
-33.2895136957
 20
20.4111903511
 11
-33.2901404381
 21
20.5391211433
  0
LINE
  5
289
100
AcDbEntity
  8
ASSI
100
AcDbLine
 62
250
  6
CONTINUOUS
 10
-33.2895136957
 20
20.4111903511
 11
-33.2901404381
 21
20.5391211433
  0
LINE
  5
28A
100
AcDbEntity
  8
DRAFT
100
AcDbLine
 62
7
  6
CONTINUOUS
 10
-33.5662156883
 20
0.0
 11
-33.6089805974
 21
19.9536487485
  0
LINE
  5
28B
100
AcDbEntity
  8
RACCORDO
100
AcDbLine
 62
7
  6
CONTINUOUS
 10
-33.65
 20
21.8823164546
 11
-33.65
 21
-21.8823164546
  0
LINE
  5
28C
100
AcDbEntity
  8
DRAFT
100
AcDbLine
 62
7
  6
CONTINUOUS
 10
-33.6089805974
 20
-21.825
 11
-33.6089805974
 21
-19.9536487485
  0
LINE
  5
28D
100
AcDbEntity
  8
DRAFT
100
AcDbLine
 62
7
  6
CONTINUOUS
 10
-33.6089805974
 20
19.9536487485
 11
-33.6089805974
 21
21.825
  0
LINE
  5
28E
100
AcDbEntity
  8
RACCORDO
100
AcDbLine
 62
7
  6
CONTINUOUS
 10
-33.5976348052
 20
21.9346816494
 11
-33.5976348052
 21
21.9048099646
  0
LINE
  5
28F
100
AcDbEntity
  8
RACCORDO
100
AcDbLine
 62
7
  6
CONTINUOUS
 10
-33.5976348052
 20
-21.9346816494
 11
-33.5976348052
 21
-21.9048099646
  0
LINE
  5
290
100
AcDbEntity
  8
RACCORDO
100
AcDbLine
 62
7
  6
CONTINUOUS
 10
-33.4
 20
-21.0442616615
 11
-33.4
 21
20.4275437282
  0
LINE
  5
291
100
AcDbEntity
  8
ASSI
100
AcDbLine
 62
7
  6
CONTINUOUS
 10
-33.4
 20
-21.0442616615
 11
-33.4
 21
20.4275437282
  0
LINE
  5
292
100
AcDbEntity
  8
RACCORDO
100
AcDbLine
 62
7
  6
CONTINUOUS
 10
-33.15
 20
-22.6218492968
 11
-33.15
 21
-24.25
  0
LINE
  5
293
100
AcDbEntity
  8
RACCORDO
100
AcDbLine
 62
7
  6
CONTINUOUS
 10
-33.15
 20
22.6218492968
 11
-33.15
 21
24.25
  0
LWPOLYLINE
  5
294
100
AcDbEntity
  8
RACCORDO
100
AcDbPolyline
 62
250
  6
CONTINUOUS
 90
9
 70
0
 10
-33.2847071766
 20
-15.1675386759
 10
-33.2812120766
 20
-10.7062209708
 10
-33.2788820089
 20
-6.2503829198
 10
-33.2777169728
 20
-1.7990274144
 10
-33.2777169691
 20
2.6468484369
 10
-33.2788820006
 20
7.0842533082
 10
-33.2812120682
 20
11.5121900909
 10
-33.2847071711
 20
15.9316558937
 10
-33.2895136957
 20
20.4111903511
  0
LWPOLYLINE
  5
295
100
AcDbEntity
  8
ASSI
100
AcDbPolyline
 62
250
  6
CONTINUOUS
 90
9
 70
0
 10
-33.2847071766
 20
-15.1675386759
 10
-33.2812120766
 20
-10.7062209708
 10
-33.2788820089
 20
-6.2503829198
 10
-33.2777169728
 20
-1.7990274144
 10
-33.2777169691
 20
2.6468484369
 10
-33.2788820006
 20
7.0842533082
 10
-33.2812120682
 20
11.5121900909
 10
-33.2847071711
 20
15.9316558937
 10
-33.2895136957
 20
20.4111903511
  0
LINE
  5
296
100
AcDbEntity
  8
DRAFT
100
AcDbLine
 62
7
  6
CONTINUOUS
 10
-33.6089805974
 20
-19.9536487485
 11
-33.5662156883
 21
0.0
  0
LINE
  5
297
100
AcDbEntity
  8
RACCORDO
100
AcDbLine
 62
250
  6
CONTINUOUS
 10
-33.2897737267
 20
-19.7736068849
 11
-33.2847071766
 21
-15.1675386759
  0
LINE
  5
298
100
AcDbEntity
  8
ASSI
100
AcDbLine
 62
250
  6
CONTINUOUS
 10
-33.2897737267
 20
-19.7736068849
 11
-33.2847071766
 21
-15.1675386759
  0
LINE
  5
299
100
AcDbEntity
  8
RACCORDO
100
AcDbLine
 62
250
  6
CONTINUOUS
 10
-33.2912286564
 20
-19.970362008
 11
-33.2897737267
 21
-19.7736068849
  0
LINE
  5
29A
100
AcDbEntity
  8
ASSI
100
AcDbLine
 62
250
  6
CONTINUOUS
 10
-33.2912286564
 20
-19.970362008
 11
-33.2897737267
 21
-19.7736068849
  0
LWPOLYLINE
  5
29B
100
AcDbEntity
  8
RACCORDO
100
AcDbPolyline
 62
250
  6
CONTINUOUS
 90
3
 70
0
 10
-33.2935924633
 20
-20.1405944039
 10
-33.2927095927
 20
-20.0874808567
 10
-33.2912286564
 20
-19.970362008
  0
LWPOLYLINE
  5
29C
100
AcDbEntity
  8
ASSI
100
AcDbPolyline
 62
250
  6
CONTINUOUS
 90
3
 70
0
 10
-33.2935924633
 20
-20.1405944039
 10
-33.2927095927
 20
-20.0874808567
 10
-33.2912286564
 20
-19.970362008
  0
LWPOLYLINE
  5
29D
100
AcDbEntity
  8
RACCORDO
100
AcDbPolyline
 62
7
  6
CONTINUOUS
 90
5
 70
0
 10
-33.1500002786
 20
22.6218539423
 10
-33.1501763364
 20
22.6134638007
 10
-33.151697868
 20
22.5958568612
 10
-33.154697298
 20
22.5787758727
 10
-33.1590674445
 20
22.5623349788
  0
LWPOLYLINE
  5
29E
100
AcDbEntity
  8
RACCORDO
100
AcDbPolyline
 62
250
  6
CONTINUOUS
 90
8
 70
0
 10
-33.6103734198
 20
21.9642142736
 10
-33.6078051545
 20
22.0150237454
 10
-33.6000847372
 20
22.0653068773
 10
-33.5872921445
 20
22.1145427816
 10
-33.5695598961
 20
22.1622214191
 10
-33.5470716818
 20
22.2078488826
 10
-33.5200604592
 20
22.2509525128
 10
-33.5137165729
 20
22.2598081269
  0
LWPOLYLINE
  5
29F
100
AcDbEntity
  8
RACCORDO
100
AcDbPolyline
 62
250
  6
CONTINUOUS
 90
8
 70
0
 10
-33.6278249329
 20
21.9406654676
 10
-33.6251438011
 20
21.9925697917
 10
-33.6170868561
 20
22.0439129594
 10
-33.6037412039
 20
22.0941398858
 10
-33.5852511281
 20
22.1427075545
 10
-33.5618165299
 20
22.1890908874
 10
-33.533690767
 20
22.2327884221
 10
-33.5305007738
 20
22.2371695243
  0
LWPOLYLINE
  5
2A0
100
AcDbEntity
  8
RACCORDO
100
AcDbPolyline
 62
250
  6
CONTINUOUS
 90
3
 70
0
 10
-33.6345185694
 20
21.897797805
 10
-33.6317948095
 20
21.9500640865
 10
-33.6280785957
 20
21.9735679678
  0
LWPOLYLINE
  5
2A1
100
AcDbEntity
  8
RACCORDO
100
AcDbPolyline
 62
250
  6
CONTINUOUS
 90
3
 70
0
 10
-33.3013450129
 20
20.9202178306
 10
-33.2944727999
 20
21.0242088416
 10
-33.285894582
 20
21.0758352844
  0
LINE
  5
2A2
100
AcDbEntity
  8
ASSI
100
AcDbLine
 62
250
  6
CONTINUOUS
 10
-33.3013450129
 20
20.9202178306
 11
-33.2944727999
 21
21.0242088416
  0
LWPOLYLINE
  5
2A3
100
AcDbEntity
  8
RACCORDO
100
AcDbPolyline
 62
7
  6
CONTINUOUS
 90
12
 70
0
 10
-33.3134422632
 20
22.4212275712
 10
-33.3341593378
 20
22.4114413
 10
-33.354197653
 20
22.400833448
 10
-33.3735366756
 20
22.3894512397
 10
-33.3921543119
 20
22.377344001
 10
-33.410029911
 20
22.3645621153
 10
-33.4271493622
 20
22.3511531903
 10
-33.4434985478
 20
22.3371664166
 10
-33.45906696
 20
22.322649874
 10
-33.4738497015
 20
22.3076478708
 10
-33.4878409621
 20
22.2922068634
 10
-33.5010375381
 20
22.2763723293
  0
LWPOLYLINE
  5
2A4
100
AcDbEntity
  8
RACCORDO
100
AcDbPolyline
 62
7
  6
CONTINUOUS
 90
6
 70
0
 10
-33.2801174484
 20
-22.4346387023
 10
-33.2697454403
 20
-22.4388132837
 10
-33.2591309733
 20
-22.4438178561
 10
-33.2483623065
 20
-22.4497157707
 10
-33.237530879
 20
-22.4565693461
 10
-33.22701957
 20
-22.4642164863
  0
LWPOLYLINE
  5
2A5
100
AcDbEntity
  8
RACCORDO
100
AcDbPolyline
 62
7
  6
CONTINUOUS
 90
3
 70
0
 10
-33.3312643562
 20
-22.4128785313
 10
-33.2862631461
 20
-22.4323690199
 10
-33.2801174484
 20
-22.4346387023
  0
LWPOLYLINE
  5
2A6
100
AcDbEntity
  8
RACCORDO
100
AcDbPolyline
 62
250
  6
CONTINUOUS
 90
13
 70
0
 10
-30.75
 20
-23.4113248654
 10
-30.7521387847
 20
-23.3830651158
 10
-30.7585185434
 20
-23.3552888984
 10
-30.7690301169
 20
-23.3284714719
 10
-30.7834936491
 20
-23.3030716899
 10
-30.8016616649
 20
-23.2795241498
 10
-30.8232233047
 20
-23.2582317565
 10
-30.8478096427
 20
-23.2395588287
 10
-30.875
 20
-23.2238248654
 10
-30.9043291419
 20
-23.2112990791
 10
-30.9352952387
 20
-23.2021957895
 10
-30.9673684519
 20
-23.1966707563
 10
-31.0
 20
-23.1948185145
  0
LWPOLYLINE
  5
2A7
100
AcDbEntity
  8
RACCORDO
100
AcDbPolyline
 62
250
  6
CONTINUOUS
 90
13
 70
0
 10
-33.15
 20
23.4113248654
 10
-33.1478612153
 20
23.3830651158
 10
-33.1414814566
 20
23.3552888984
 10
-33.1309698831
 20
23.3284714719
 10
-33.1165063509
 20
23.3030716899
 10
-33.0983383351
 20
23.2795241498
 10
-33.0767766953
 20
23.2582317565
 10
-33.0521903573
 20
23.2395588287
 10
-33.025
 20
23.2238248654
 10
-32.9956708581
 20
23.2112990791
 10
-32.9647047613
 20
23.2021957895
 10
-32.9326315481
 20
23.1966707563
 10
-32.9
 20
23.1948185145
  0
LWPOLYLINE
  5
2A8
100
AcDbEntity
  8
RACCORDO
100
AcDbPolyline
 62
250
  6
CONTINUOUS
 90
13
 70
0
 10
-33.15
 20
23.8443375673
 10
-33.1478612153
 20
23.8160778177
 10
-33.1414814566
 20
23.7883016003
 10
-33.1309698831
 20
23.7614841738
 10
-33.1165063509
 20
23.7360843918
 10
-33.0983383351
 20
23.7125368517
 10
-33.0767766953
 20
23.6912444584
 10
-33.0521903573
 20
23.6725715306
 10
-33.025
 20
23.6568375673
 10
-32.9956708581
 20
23.644311781
 10
-32.9647047613
 20
23.6352084914
 10
-32.9326315481
 20
23.6296834582
 10
-32.9
 20
23.6278312164
  0
LWPOLYLINE
  5
2A9
100
AcDbEntity
  8
RACCORDO
100
AcDbPolyline
 62
250
  6
CONTINUOUS
 90
13
 70
0
 10
-30.75
 20
-23.8443375673
 10
-30.7521080981
 20
-23.8162804162
 10
-30.7584156031
 20
-23.7886353736
 10
-30.7688434561
 20
-23.7618755205
 10
-30.7832532544
 20
-23.7364457872
 10
-30.8014176289
 20
-23.7128127353
 10
-30.8229963906
 20
-23.6914412243
 10
-30.8475994958
 20
-23.6727113317
 10
-30.8748190517
 20
-23.6569281288
 10
-30.9041865442
 20
-23.6443629782
 10
-30.9351971683
 20
-23.6352312672
 10
-30.967318801
 20
-23.6296891235
 10
-31.0
 20
-23.6278312164
  0
LWPOLYLINE
  5
2AA
100
AcDbEntity
  8
RACCORDO
100
AcDbPolyline
 62
250
  6
CONTINUOUS
 90
8
 70
0
 10
-33.2935860437
 20
20.7980288525
 10
-33.2945366491
 20
20.8346428192
 10
-33.2955573131
 20
20.8651149421
 10
-33.2966462904
 20
20.8896223595
 10
-33.2977726428
 20
20.9074571492
 10
-33.2989260577
 20
20.9183833373
 10
-33.3001168477
 20
20.9226368978
 10
-33.3013450129
 20
20.9202178306
  0
LWPOLYLINE
  5
2AB
100
AcDbEntity
  8
RACCORDO
100
AcDbPolyline
 62
250
  6
CONTINUOUS
 90
6
 70
0
 10
-32.4956808647
 20
21.5981554765
 10
-32.4967701629
 20
21.6502975912
 10
-32.497896542
 20
21.6884362443
 10
-32.499049566
 20
21.712191122
 10
-32.5002396709
 20
21.7213163591
 10
-32.5003797874
 20
21.7214220015
  0
LWPOLYLINE
  5
2AC
100
AcDbEntity
  8
ASSI
100
AcDbPolyline
 62
250
  6
CONTINUOUS
 90
6
 70
0
 10
-32.4956808647
 20
21.5981554765
 10
-32.4967701629
 20
21.6502975912
 10
-32.497896542
 20
21.6884362443
 10
-32.499049566
 20
21.712191122
 10
-32.5002396709
 20
21.7213163591
 10
-32.5003802009
 20
21.721422021
  0
LINE
  5
2AD
100
AcDbEntity
  8
RACCORDO
100
AcDbLine
 62
250
  6
CONTINUOUS
 10
-33.2927037516
 20
20.7554501803
 11
-33.2935860437
 21
20.7980288525
  0
LWPOLYLINE
  5
2AE
100
AcDbEntity
  8
ASSI
100
AcDbPolyline
 62
250
  6
CONTINUOUS
 90
8
 70
0
 10
-33.2927037516
 20
20.7554501803
 10
-33.2935860437
 20
20.7980288525
 10
-33.2945366491
 20
20.8346428192
 10
-33.2955573131
 20
20.8651149421
 10
-33.2966462904
 20
20.8896223595
 10
-33.2977726428
 20
20.9074571492
 10
-33.2989260577
 20
20.9183833373
 10
-33.3001168477
 20
20.9226368978
  0
LINE
  5
2AF
100
AcDbEntity
  8
RACCORDO
100
AcDbLine
 62
250
  6
CONTINUOUS
 10
-32.4937093611
 20
21.4539757457
 11
-32.4956808647
 21
21.5981554765
  0
LINE
  5
2B0
100
AcDbEntity
  8
ASSI
100
AcDbLine
 62
250
  6
CONTINUOUS
 10
-32.4937093611
 20
21.4539757457
 11
-32.4956808647
 21
21.5981554765
  0
LINE
  5
2B1
100
AcDbEntity
  8
RACCORDO
100
AcDbLine
 62
250
  6
CONTINUOUS
 10
-32.4920388671
 20
21.2615026363
 11
-32.4937093611
 21
21.4539757457
  0
LINE
  5
2B2
100
AcDbEntity
  8
ASSI
100
AcDbLine
 62
250
  6
CONTINUOUS
 10
-32.4920388671
 20
21.2615026363
 11
-32.4937093611
 21
21.4539757457
  0
LINE
  5
2B3
100
AcDbEntity
  8
RACCORDO
100
AcDbLine
 62
250
  6
CONTINUOUS
 10
-32.4907494513
 20
21.0283385609
 11
-32.4920388671
 21
21.2615026363
  0
LINE
  5
2B4
100
AcDbEntity
  8
ASSI
100
AcDbLine
 62
250
  6
CONTINUOUS
 10
-32.4907494513
 20
21.0283385609
 11
-32.4920388671
 21
21.2615026363
  0
LINE
  5
2B5
100
AcDbEntity
  8
RACCORDO
100
AcDbLine
 62
250
  6
CONTINUOUS
 10
-32.4898937425
 20
20.7637219021
 11
-32.4907494513
 21
21.0283385609
  0
LINE
  5
2B6
100
AcDbEntity
  8
ASSI
100
AcDbLine
 62
250
  6
CONTINUOUS
 10
-32.4898937425
 20
20.7637219021
 11
-32.4907494513
 21
21.0283385609
  0
LINE
  5
2B7
100
AcDbEntity
  8
RACCORDO
100
AcDbLine
 62
250
  6
CONTINUOUS
 10
-32.4894891526
 20
20.4780700832
 11
-32.4898937425
 21
20.7637219021
  0
LINE
  5
2B8
100
AcDbEntity
  8
ASSI
100
AcDbLine
 62
250
  6
CONTINUOUS
 10
-32.4894891526
 20
20.4780700832
 11
-32.4898937425
 21
20.7637219021
  0
LINE
  5
2B9
100
AcDbEntity
  8
RACCORDO
100
AcDbLine
 62
250
  6
CONTINUOUS
 10
-32.8999999999
 20
22.4349101299
 11
-32.9
 21
24.5
  0
LINE
  5
2BA
100
AcDbEntity
  8
RACCORDO
100
AcDbLine
 62
250
  6
CONTINUOUS
 10
-32.8999999984
 20
-22.4349101299
 11
-32.9
 21
-24.5
  0
LINE
  5
2BB
100
AcDbEntity
  8
RACCORDO
100
AcDbLine
 62
250
  6
CONTINUOUS
 10
-31.0000000001
 20
-22.4349101299
 11
-31.0
 21
-24.5
  0
LINE
  5
2BC
100
AcDbEntity
  8
RACCORDO
100
AcDbLine
 62
250
  6
CONTINUOUS
 10
-31.0000000016
 20
22.4349101299
 11
-31.0
 21
24.5
  0
LINE
  5
2BD
100
AcDbEntity
  8
RACCORDO
100
AcDbLine
 62
7
  6
CONTINUOUS
 10
-30.75
 20
-22.6218492968
 11
-30.75
 21
-24.25
  0
LINE
  5
2BE
100
AcDbEntity
  8
RACCORDO
100
AcDbLine
 62
7
  6
CONTINUOUS
 10
-30.75
 20
22.6218492968
 11
-30.75
 21
24.25
  0
LWPOLYLINE
  5
2BF
100
AcDbEntity
  8
ASSI
100
AcDbPolyline
 62
250
  6
CONTINUOUS
 90
8
 70
0
 10
-32.4813339078
 20
-10.6551141508
 10
-32.479003838
 20
-6.1860300028
 10
-32.4778388036
 20
-1.7224508131
 10
-32.4778388044
 20
2.7346274679
 10
-32.4790038397
 20
7.1842106784
 10
-32.4813339095
 20
11.6253059877
 10
-32.4848290139
 20
16.0569221197
 10
-32.4894891528
 20
20.4780700832
  0
LWPOLYLINE
  5
2C0
100
AcDbEntity
  8
RACCORDO
100
AcDbPolyline
 62
250
  6
CONTINUOUS
 90
9
 70
0
 10
-32.4848290127
 20
-15.1287057367
 10
-32.4813339078
 20
-10.6551141508
 10
-32.479003838
 20
-6.1860300028
 10
-32.4778388036
 20
-1.7224508131
 10
-32.4778388044
 20
2.7346274679
 10
-32.4790038397
 20
7.1842106784
 10
-32.4813339095
 20
11.6253059877
 10
-32.4848290139
 20
16.0569221197
 10
-32.4894891528
 20
20.4780700832
  0
LINE
  5
2C1
100
AcDbEntity
  8
ASSI
100
AcDbLine
 62
250
  6
CONTINUOUS
 10
-32.4848290127
 20
-15.1287057367
 11
-32.4813339078
 21
-10.6551141508
  0
LINE
  5
2C2
100
AcDbEntity
  8
RACCORDO
100
AcDbLine
 62
250
  6
CONTINUOUS
 10
-32.4902649979
 20
-20.0474652504
 11
-32.4848290127
 21
-15.1287057367
  0
LINE
  5
2C3
100
AcDbEntity
  8
ASSI
100
AcDbLine
 62
250
  6
CONTINUOUS
 10
-32.4902649979
 20
-20.0474652504
 11
-32.4848290127
 21
-15.1287057367
  0
LINE
  5
2C4
100
AcDbEntity
  8
RACCORDO
100
AcDbLine
 62
250
  6
CONTINUOUS
 10
-32.492042228
 20
-20.4550796148
 11
-32.4902649979
 21
-20.0474652504
  0
LINE
  5
2C5
100
AcDbEntity
  8
ASSI
100
AcDbLine
 62
250
  6
CONTINUOUS
 10
-32.492042228
 20
-20.4550796148
 11
-32.4902649979
 21
-20.0474652504
  0
LINE
  5
2C6
100
AcDbEntity
  8
RACCORDO
100
AcDbLine
 62
250
  6
CONTINUOUS
 10
-32.4937135719
 20
-20.6902628432
 11
-32.492042228
 21
-20.4550796148
  0
LINE
  5
2C7
100
AcDbEntity
  8
ASSI
100
AcDbLine
 62
250
  6
CONTINUOUS
 10
-32.4937135719
 20
-20.6902628432
 11
-32.492042228
 21
-20.4550796148
  0
LINE
  5
2C8
100
AcDbEntity
  8
RACCORDO
100
AcDbLine
 62
250
  6
CONTINUOUS
 10
-32.4956858194
 20
-20.8851773818
 11
-32.4937135719
 21
-20.6902628432
  0
LINE
  5
2C9
100
AcDbEntity
  8
ASSI
100
AcDbLine
 62
250
  6
CONTINUOUS
 10
-32.4956858194
 20
-20.8851773818
 11
-32.4937135719
 21
-20.6902628432
  0
LWPOLYLINE
  5
2CA
100
AcDbEntity
  8
RACCORDO
100
AcDbPolyline
 62
7
  6
CONTINUOUS
 90
5
 70
0
 10
-30.7499997214
 20
-22.6218539423
 10
-30.7498236636
 20
-22.6134638007
 10
-30.748302132
 20
-22.5958568612
 10
-30.745302702
 20
-22.5787758727
 10
-30.7409325555
 20
-22.5623349788
  0
LWPOLYLINE
  5
2CB
100
AcDbEntity
  8
RACCORDO
100
AcDbPolyline
 62
250
  6
CONTINUOUS
 90
5
 70
0
 10
-32.5014668568
 20
-21.1508548094
 10
-32.5002419482
 20
-21.1255052826
 10
-32.4990535125
 20
-21.0858186902
 10
-32.4979015498
 20
-21.0321720912
 10
-32.4956858194
 20
-20.8851773818
  0
LWPOLYLINE
  5
2CC
100
AcDbEntity
  8
ASSI
100
AcDbPolyline
 62
250
  6
CONTINUOUS
 90
5
 70
0
 10
-32.5014668568
 20
-21.1508548094
 10
-32.5002419482
 20
-21.1255052826
 10
-32.4990535125
 20
-21.0858186902
 10
-32.4979015498
 20
-21.0321720912
 10
-32.4956858194
 20
-20.8851773818
  0
LWPOLYLINE
  5
2CD
100
AcDbEntity
  8
RACCORDO
100
AcDbPolyline
 62
250
  6
CONTINUOUS
 90
13
 70
0
 10
-30.75
 20
23.8443375673
 10
-30.7521080981
 20
23.8162804162
 10
-30.7584156031
 20
23.7886353736
 10
-30.7688434561
 20
23.7618755205
 10
-30.7832532544
 20
23.7364457872
 10
-30.8014176289
 20
23.7128127353
 10
-30.8229963906
 20
23.6914412243
 10
-30.8475994958
 20
23.6727113317
 10
-30.8748190517
 20
23.6569281288
 10
-30.9041865442
 20
23.6443629782
 10
-30.9351971683
 20
23.6352312672
 10
-30.967318801
 20
23.6296891235
 10
-31.0
 20
23.6278312164
  0
LWPOLYLINE
  5
2CE
100
AcDbEntity
  8
RACCORDO
100
AcDbPolyline
 62
250
  6
CONTINUOUS
 90
13
 70
0
 10
-33.15
 20
-23.8443375673
 10
-33.1478919019
 20
-23.8162804162
 10
-33.1415843969
 20
-23.7886353736
 10
-33.1311565439
 20
-23.7618755205
 10
-33.1167467456
 20
-23.7364457872
 10
-33.0985823711
 20
-23.7128127353
 10
-33.0770036094
 20
-23.6914412243
 10
-33.0524005042
 20
-23.6727113317
 10
-33.0251809483
 20
-23.6569281288
 10
-32.9958134558
 20
-23.6443629782
 10
-32.9648028317
 20
-23.6352312672
 10
-32.932681199
 20
-23.6296891235
 10
-32.9
 20
-23.6278312164
  0
LWPOLYLINE
  5
2CF
100
AcDbEntity
  8
RACCORDO
100
AcDbPolyline
 62
250
  6
CONTINUOUS
 90
13
 70
0
 10
-30.75
 20
23.4113248654
 10
-30.7521387847
 20
23.3830651158
 10
-30.7585185434
 20
23.3552888984
 10
-30.7690301169
 20
23.3284714719
 10
-30.7834936491
 20
23.3030716899
 10
-30.8016616649
 20
23.2795241498
 10
-30.8232233047
 20
23.2582317565
 10
-30.8478096427
 20
23.2395588287
 10
-30.875
 20
23.2238248654
 10
-30.9043291419
 20
23.2112990791
 10
-30.9352952387
 20
23.2021957895
 10
-30.9673684519
 20
23.1966707563
 10
-31.0
 20
23.1948185145
  0
LWPOLYLINE
  5
2D0
100
AcDbEntity
  8
RACCORDO
100
AcDbPolyline
 62
250
  6
CONTINUOUS
 90
13
 70
0
 10
-33.15
 20
-23.4113248654
 10
-33.1478612153
 20
-23.3830651158
 10
-33.1414814566
 20
-23.3552888984
 10
-33.1309698831
 20
-23.3284714719
 10
-33.1165063509
 20
-23.3030716899
 10
-33.0983383351
 20
-23.2795241498
 10
-33.0767766953
 20
-23.2582317565
 10
-33.0521903573
 20
-23.2395588287
 10
-33.025
 20
-23.2238248654
 10
-32.9956708581
 20
-23.2112990791
 10
-32.9647047613
 20
-23.2021957895
 10
-32.9326315481
 20
-23.1966707563
 10
-32.9
 20
-23.1948185145
  0
LWPOLYLINE
  5
2D1
100
AcDbEntity
  8
RACCORDO
100
AcDbPolyline
 62
250
  6
CONTINUOUS
 90
7
 70
0
 10
-33.3013450129
 20
-20.3553584695
 10
-33.3001208444
 20
-20.3431503532
 10
-33.2989329179
 20
-20.3247056016
 10
-33.2977812334
 20
-20.3000242145
 10
-33.2966551056
 20
-20.268743217
 10
-33.2955652197
 20
-20.2312255841
 10
-33.2935924633
 20
-20.1405944039
  0
LWPOLYLINE
  5
2D2
100
AcDbEntity
  8
ASSI
100
AcDbPolyline
 62
250
  6
CONTINUOUS
 90
7
 70
0
 10
-33.3013450129
 20
-20.3553584695
 10
-33.3001208444
 20
-20.3431503532
 10
-33.2989329179
 20
-20.3247056016
 10
-33.2977812334
 20
-20.3000242145
 10
-33.2966551056
 20
-20.268743217
 10
-33.2955652197
 20
-20.2312255841
 10
-33.2935924633
 20
-20.1405944039
  0
LWPOLYLINE
  5
2D3
100
AcDbEntity
  8
RACCORDO
100
AcDbPolyline
 62
250
  6
CONTINUOUS
 90
14
 70
0
 10
-33.607286774
 20
-21.9479205229
 10
-33.6078896779
 20
-21.9530697012
 10
-33.6081606601
 20
-21.9552430069
 10
-33.6084121837
 20
-21.9571817362
 10
-33.6086506052
 20
-21.9588765315
 10
-33.6088766443
 20
-21.9603145312
 10
-33.6090895812
 20
-21.9615085969
 10
-33.6092936129
 20
-21.9624879559
 10
-33.6094888065
 20
-21.9632513068
 10
-33.6096750949
 20
-21.963799951
 10
-33.6098564743
 20
-21.9641670208
 10
-33.6100342767
 20
-21.9643635603
 10
-33.61020717
 20
-21.9643785254
 10
-33.6103751542
 20
-21.964211916
  0
LWPOLYLINE
  5
2D4
100
AcDbEntity
  8
RACCORDO
100
AcDbPolyline
 62
7
  6
CONTINUOUS
 90
3
 70
0
 10
-33.2753779298
 20
22.4364616314
 10
-33.2920763911
 20
22.4301417697
 10
-33.3134422632
 20
22.4212275712
  0
LWPOLYLINE
  5
2D5
100
AcDbEntity
  8
RACCORDO
100
AcDbPolyline
 62
250
  6
CONTINUOUS
 90
13
 70
0
 10
-33.6079050383
 20
21.9531979184
 10
-33.6081682225
 20
21.9553048977
 10
-33.6084165411
 20
21.9572151371
 10
-33.6086534032
 20
21.958894034
 10
-33.6088790205
 20
21.9603248074
 10
-33.6090931813
 20
21.9615242382
 10
-33.6092986593
 20
21.9625080672
 10
-33.6094956226
 20
21.9632705401
 10
-33.6096839031
 20
21.9638174113
 10
-33.6098657695
 20
21.9641816843
 10
-33.6100419779
 20
21.9643743606
 10
-33.6102117721
 20
21.9643844387
 10
-33.6103751521
 20
21.9642119188
  0
LINE
  5
2D6
100
AcDbEntity
  8
RACCORDO
100
AcDbLine
 62
250
  6
CONTINUOUS
 10
-33.6063481682
 20
21.9402532614
 11
-33.6070228835
 21
21.9457311438
  0
LINE
  5
2D7
100
AcDbEntity
  8
RACCORDO
100
AcDbLine
 62
250
  6
CONTINUOUS
 10
-33.6070228835
 20
21.9457311438
 11
-33.6079050383
 21
21.9531979184
  0
LINE
  5
2D8
100
AcDbEntity
  8
RACCORDO
100
AcDbLine
 62
7
  6
CONTINUOUS
 10
-30.7495709452
 20
22.6087662238
 11
-30.749999721
 21
22.6218538841
  0
LINE
  5
2D9
100
AcDbEntity
  8
RACCORDO
100
AcDbLine
 62
250
  6
CONTINUOUS
 10
-33.4
 20
-21.0442616615
 11
-33.3013450129
 21
-20.3553584695
  0
LINE
  5
2DA
100
AcDbEntity
  8
ASSI
100
AcDbLine
 62
250
  6
CONTINUOUS
 10
-33.4
 20
-21.0442616615
 11
-33.3013450129
 21
-20.3553584695
  0
LINE
  5
2DB
100
AcDbEntity
  8
RACCORDO
100
AcDbLine
 62
250
  6
CONTINUOUS
 10
-32.6001218439
 20
-21.8397580014
 11
-32.5014668568
 21
-21.1508548094
  0
LINE
  5
2DC
100
AcDbEntity
  8
ASSI
100
AcDbLine
 62
250
  6
CONTINUOUS
 10
-32.6001218439
 20
-21.8397580014
 11
-32.5014668568
 21
-21.1508548094
  0
LWPOLYLINE
  5
2DD
100
AcDbEntity
  8
0
100
AcDbPolyline
 62
7
  6
CONTINUOUS
 90
10
 70
0
 43
0.3500000006
 10
-3.2142856836
 20
36.2500016785
 10
-3.8571428204
 20
35.607143692
 10
-4.2857143393
 20
34.7500012207
 10
-4.2857143393
 20
33.6785697327
 10
-3.8571428204
 20
33.2500007629
 10
-3.2142856836
 20
33.2500007629
 10
-2.7857141647
 20
33.6785697327
 10
-2.7857141647
 20
34.535712204
 10
-3.2142856836
 20
34.9642857056
 10
-4.1428570719
 20
34.9642857056
  0
LWPOLYLINE
  5
2DE
100
AcDbEntity
  8
0
100
AcDbPolyline
 62
7
  6
CONTINUOUS
 90
5
 70
0
 43
0.3500000006
 10
3.0000000658
 20
34.9642857056
 10
3.357142951
 20
35.1785701904
 10
3.357142951
 20
35.8214281769
 10
3.0000000658
 20
36.2500016785
 10
2.1428571696
 20
36.2500016785
  0
LINE
  5
2DF
100
AcDbEntity
  8
RACCORDO
100
AcDbLine
 62
7
  6
CONTINUOUS
 10
-26.9028632386
 20
-23.8
 11
-26.9028632386
 21
-22.4349101299
  0
LINE
  5
2E0
100
AcDbEntity
  8
RACCORDO
100
AcDbLine
 62
7
  6
CONTINUOUS
 10
-26.9028632386
 20
22.4349101299
 11
-26.9028632386
 21
23.8
  0
LINE
  5
2E1
100
AcDbEntity
  8
RACCORDO
100
AcDbLine
 62
250
  6
CONTINUOUS
 10
-26.4028715318
 20
-23.8
 11
-26.4028715318
 21
-22.4349101299
  0
LINE
  5
2E2
100
AcDbEntity
  8
RACCORDO
100
AcDbLine
 62
250
  6
CONTINUOUS
 10
-26.4028715318
 20
22.4349101299
 11
-26.4028715318
 21
23.8
  0
LWPOLYLINE
  5
2E3
100
AcDbEntity
  8
RACCORDO
100
AcDbPolyline
 62
250
  6
CONTINUOUS
 90
7
 70
0
 10
-14.2499999814
 20
22.6218524218
 10
-14.2485941046
 20
22.6226953667
 10
-14.2444117633
 20
22.6235120145
 10
-14.2375286372
 20
22.6242992401
 10
-14.2280530597
 20
22.6250644537
 10
-14.2161144997
 20
22.6258002451
 10
-14.20185282
 20
22.626484384
  0
LWPOLYLINE
  5
2E4
100
AcDbEntity
  8
RACCORDO
100
AcDbPolyline
 62
250
  6
CONTINUOUS
 90
10
 70
0
 10
-33.6033544073
 20
-21.9289665538
 10
-33.6037667964
 20
-21.9289258064
 10
-33.6041785925
 20
-21.9294063209
 10
-33.6045897956
 20
-21.9304080974
 10
-33.6050037738
 20
-21.9320131201
 10
-33.6054171589
 20
-21.9341394047
 10
-33.6058198469
 20
-21.9365409986
 10
-33.6062122269
 20
-21.9392533414
 10
-33.6065939098
 20
-21.9422409935
 10
-33.607286774
 20
-21.9479205229
  0
LWPOLYLINE
  5
2E5
100
AcDbEntity
  8
RACCORDO
100
AcDbPolyline
 62
7
  6
CONTINUOUS
 90
17
 70
0
 10
-14.3794207361
 20
-22.4349101299
 10
-14.3689507964
 20
-22.4391627198
 10
-14.3579130392
 20
-22.4444428632
 10
-14.3466654787
 20
-22.4507263616
 10
-14.3355352126
 20
-22.4579421365
 10
-14.3246382333
 20
-22.4661001821
 10
-14.314047606
 20
-22.475237197
 10
-14.3039822704
 20
-22.4852437325
 10
-14.2945653186
 20
-22.496048593
 10
-14.2858309232
 20
-22.5076683918
 10
-14.2778465686
 20
-22.5200920362
 10
-14.2707012942
 20
-22.533274432
 10
-14.2644781817
 20
-22.5471699018
 10
-14.2592483499
 20
-22.56176065
 10
-14.255103327
 20
-22.5769798629
 10
-14.2521313393
 20
-22.5927498978
 10
-14.2504134362
 20
-22.6090257268
  0
LWPOLYLINE
  5
2E6
100
AcDbEntity
  8
RACCORDO
100
AcDbPolyline
 62
250
  6
CONTINUOUS
 90
7
 70
0
 10
-14.25
 20
-22.6218493198
 10
-14.2486032299
 20
-22.6226922116
 10
-14.2444464654
 20
-22.6235062073
 10
-14.2376024488
 20
-22.6242912837
 10
-14.2281781671
 20
-22.6250547632
 10
-14.2162988756
 20
-22.6257893235
 10
-14.2020933902
 20
-22.6264729979
  0
LINE
  5
2E7
100
AcDbEntity
  8
RACCORDO
100
AcDbLine
 62
250
  6
CONTINUOUS
 10
11.837855656
 20
-22.4306686755
 11
11.7960243415
 21
-22.4329524976
  0
LWPOLYLINE
  5
2E8
100
AcDbEntity
  8
RACCORDO
100
AcDbPolyline
 62
250
  6
CONTINUOUS
 90
3
 70
0
 10
11.7960243415
 20
-22.4329524976
 10
11.7752607848
 20
-22.4339334239
 10
11.7658996412
 20
-22.434313232
  0
LWPOLYLINE
  5
2E9
100
AcDbEntity
  8
RACCORDO
100
AcDbPolyline
 62
250
  6
CONTINUOUS
 90
4
 70
0
 10
14.20185282
 20
-22.626484384
 10
14.1854552141
 20
-22.6271147961
 10
14.1671030826
 20
-22.6276935557
 10
14.1469305335
 20
-22.6282046544
  0
LWPOLYLINE
  5
2EA
100
AcDbEntity
  8
RACCORDO
100
AcDbPolyline
 62
250
  6
CONTINUOUS
 90
11
 70
0
 10
11.7658996412
 20
-22.434313232
 10
11.7573732578
 20
-22.434614128
 10
11.7496883386
 20
-22.4348337163
 10
11.7428846702
 20
-22.4349728998
 10
11.7369765099
 20
-22.435040542
 10
11.7319167283
 20
-22.4350457667
 10
11.7277054305
 20
-22.4349940383
 10
11.7243266182
 20
-22.4348871592
 10
11.7217346496
 20
-22.4347252171
 10
11.7199094356
 20
-22.4345103445
 10
11.7188688665
 20
-22.4342668879
  0
LWPOLYLINE
  5
2EB
100
AcDbEntity
  8
RACCORDO
100
AcDbPolyline
 62
250
  6
CONTINUOUS
 90
10
 70
0
 10
33.0472499675
 20
-22.6281967396
 10
33.067414634
 20
-22.6276840334
 10
33.0857392413
 20
-22.6271039587
 10
33.1020933902
 20
-22.626472998
 10
33.1162988756
 20
-22.6257893234
 10
33.1281781671
 20
-22.6250547628
 10
33.1376024488
 20
-22.6242912832
 10
33.1444464654
 20
-22.6235062068
 10
33.1486032299
 20
-22.6226922113
 10
33.15
 20
-22.6218493279
  0
LWPOLYLINE
  5
2EC
100
AcDbEntity
  8
RACCORDO
100
AcDbPolyline
 62
250
  6
CONTINUOUS
 90
10
 70
0
 10
-11.9527500325
 20
-22.6281967396
 10
-11.932585366
 20
-22.6276840334
 10
-11.9142607587
 20
-22.6271039587
 10
-11.8979066098
 20
-22.626472998
 10
-11.8837011244
 20
-22.6257893234
 10
-11.8718218329
 20
-22.6250547628
 10
-11.8623975512
 20
-22.6242912832
 10
-11.8555535346
 20
-22.6235062068
 10
-11.8513967701
 20
-22.6226922113
 10
-11.85
 20
-22.6218493279
  0
LINE
  5
2ED
100
AcDbEntity
  8
RACCORDO
100
AcDbLine
 62
250
  6
CONTINUOUS
 10
33.002216065
 20
-22.6290180354
 11
33.0472499675
 21
-22.6281967396
  0
LINE
  5
2EE
100
AcDbEntity
  8
RACCORDO
100
AcDbLine
 62
250
  6
CONTINUOUS
 10
-11.997783935
 20
-22.6290180354
 11
-11.9527500325
 21
-22.6281967396
  0
LINE
  5
2EF
100
AcDbEntity
  8
RACCORDO
100
AcDbLine
 62
250
  6
CONTINUOUS
 10
14.1469305335
 20
-22.6282046544
 11
14.1019623914
 21
-22.6290216622
  0
LINE
  5
2F0
100
AcDbEntity
  8
RACCORDO
100
AcDbLine
 62
250
  6
CONTINUOUS
 10
-30.8530694665
 20
-22.6282046544
 11
-30.8980376086
 21
-22.6290216622
  0
LINE
  5
2F1
100
AcDbEntity
  8
RACCORDO
100
AcDbLine
 62
250
  6
CONTINUOUS
 10
32.9524369724
 20
-22.6295249696
 11
33.002216065
 21
-22.6290180354
  0
LINE
  5
2F2
100
AcDbEntity
  8
RACCORDO
100
AcDbLine
 62
250
  6
CONTINUOUS
 10
14.1019623914
 20
-22.6290216622
 11
14.0522995983
 21
-22.6295257018
  0
LINE
  5
2F3
100
AcDbEntity
  8
RACCORDO
100
AcDbLine
 62
250
  6
CONTINUOUS
 10
-12.0475630276
 20
-22.6295249696
 11
-11.997783935
 21
-22.6290180354
  0
LINE
  5
2F4
100
AcDbEntity
  8
RACCORDO
100
AcDbLine
 62
250
  6
CONTINUOUS
 10
-30.8980376086
 20
-22.6290216622
 11
-30.9477004017
 21
-22.6295257018
  0
LINE
  5
2F5
100
AcDbEntity
  8
RACCORDO
100
AcDbLine
 62
250
  6
CONTINUOUS
 10
32.9
 20
-22.629704076
 11
32.9524369724
 21
-22.6295249696
  0
LINE
  5
2F6
100
AcDbEntity
  8
RACCORDO
100
AcDbLine
 62
250
  6
CONTINUOUS
 10
14.0522995983
 20
-22.6295257018
 11
14.0
 21
-22.629704076
  0
LINE
  5
2F7
100
AcDbEntity
  8
RACCORDO
100
AcDbLine
 62
250
  6
CONTINUOUS
 10
-12.1
 20
-22.629704076
 11
-12.0475630276
 21
-22.6295249696
  0
LINE
  5
2F8
100
AcDbEntity
  8
RACCORDO
100
AcDbLine
 62
250
  6
CONTINUOUS
 10
-30.9477004017
 20
-22.6295257018
 11
-31.0
 21
-22.629704076
  0
LINE
  5
2F9
100
AcDbEntity
  8
RACCORDO
100
AcDbLine
 62
7
  6
CONTINUOUS
 10
32.9
 20
-24.5
 11
31.0
 21
-24.5
  0
LINE
  5
2FA
100
AcDbEntity
  8
RACCORDO
100
AcDbLine
 62
7
  6
CONTINUOUS
 10
14.0
 20
-24.5
 11
12.1
 21
-24.5
  0
LINE
  5
2FB
100
AcDbEntity
  8
RACCORDO
100
AcDbLine
 62
7
  6
CONTINUOUS
 10
-12.1
 20
-24.5
 11
-14.0
 21
-24.5
  0
LINE
  5
2FC
100
AcDbEntity
  8
RACCORDO
100
AcDbLine
 62
7
  6
CONTINUOUS
 10
-31.0
 20
-24.5
 11
-32.9
 21
-24.5
  0
LINE
  5
2FD
100
AcDbEntity
  8
RACCORDO
100
AcDbLine
 62
250
  6
CONTINUOUS
 10
11.85
 20
-24.25
 11
14.25
 21
-24.25
  0
LINE
  5
2FE
100
AcDbEntity
  8
RACCORDO
100
AcDbLine
 62
250
  6
CONTINUOUS
 10
-11.85
 20
-24.25
 11
-14.25
 21
-24.25
  0
LINE
  5
2FF
100
AcDbEntity
  8
RACCORDO
100
AcDbLine
 62
250
  6
CONTINUOUS
 10
30.75
 20
-24.25
 11
33.15
 21
-24.25
  0
LINE
  5
300
100
AcDbEntity
  8
RACCORDO
100
AcDbLine
 62
250
  6
CONTINUOUS
 10
-30.75
 20
-24.25
 11
-33.15
 21
-24.25
  0
LINE
  5
301
100
AcDbEntity
  8
RACCORDO
100
AcDbLine
 62
250
  6
CONTINUOUS
 10
-11.85
 20
-23.8443375673
 11
-14.25
 21
-23.8443375673
  0
LINE
  5
302
100
AcDbEntity
  8
RACCORDO
100
AcDbLine
 62
250
  6
CONTINUOUS
 10
11.85
 20
-23.8443375673
 11
14.25
 21
-23.8443375673
  0
LINE
  5
303
100
AcDbEntity
  8
RACCORDO
100
AcDbLine
 62
250
  6
CONTINUOUS
 10
-30.75
 20
-23.8443375673
 11
-33.15
 21
-23.8443375673
  0
LINE
  5
304
100
AcDbEntity
  8
RACCORDO
100
AcDbLine
 62
250
  6
CONTINUOUS
 10
30.75
 20
-23.8443375673
 11
33.15
 21
-23.8443375673
  0
LINE
  5
305
100
AcDbEntity
  8
RACCORDO
100
AcDbLine
 62
7
  6
CONTINUOUS
 10
18.0971367614
 20
-23.8
 11
26.9028632386
 21
-23.8
  0
LINE
  5
306
100
AcDbEntity
  8
RACCORDO
100
AcDbLine
 62
7
  6
CONTINUOUS
 10
-18.0971367614
 20
-23.8
 11
-26.9028632386
 21
-23.8
  0
LINE
  5
307
100
AcDbEntity
  8
RACCORDO
100
AcDbLine
 62
250
  6
CONTINUOUS
 10
-32.9
 20
-23.6278312164
 11
-31.0
 21
-23.6278312164
  0
LINE
  5
308
100
AcDbEntity
  8
RACCORDO
100
AcDbLine
 62
250
  6
CONTINUOUS
 10
-14.0
 20
-23.6278312164
 11
-12.1
 21
-23.6278312164
  0
LINE
  5
309
100
AcDbEntity
  8
RACCORDO
100
AcDbLine
 62
250
  6
CONTINUOUS
 10
12.1
 20
-23.6278312164
 11
14.0
 21
-23.6278312164
  0
LINE
  5
30A
100
AcDbEntity
  8
RACCORDO
100
AcDbLine
 62
250
  6
CONTINUOUS
 10
31.0
 20
-23.6278312164
 11
32.9
 21
-23.6278312164
  0
LINE
  5
30B
100
AcDbEntity
  8
RACCORDO
100
AcDbLine
 62
250
  6
CONTINUOUS
 10
32.9
 20
-23.1948185145
 11
31.0
 21
-23.1948185145
  0
LINE
  5
30C
100
AcDbEntity
  8
RACCORDO
100
AcDbLine
 62
250
  6
CONTINUOUS
 10
14.0
 20
-23.1948185145
 11
12.1
 21
-23.1948185145
  0
LINE
  5
30D
100
AcDbEntity
  8
RACCORDO
100
AcDbLine
 62
250
  6
CONTINUOUS
 10
-12.1
 20
-23.1948185145
 11
-14.0
 21
-23.1948185145
  0
LINE
  5
30E
100
AcDbEntity
  8
RACCORDO
100
AcDbLine
 62
250
  6
CONTINUOUS
 10
-31.0
 20
-23.1948185145
 11
-32.9
 21
-23.1948185145
  0
LINE
  5
30F
100
AcDbEntity
  8
RACCORDO
100
AcDbLine
 62
250
  6
CONTINUOUS
 10
11.85
 20
-22.9783121635
 11
14.25
 21
-22.9783121635
  0
LINE
  5
310
100
AcDbEntity
  8
RACCORDO
100
AcDbLine
 62
250
  6
CONTINUOUS
 10
-11.85
 20
-22.9783121635
 11
-14.25
 21
-22.9783121635
  0
LINE
  5
311
100
AcDbEntity
  8
RACCORDO
100
AcDbLine
 62
250
  6
CONTINUOUS
 10
30.75
 20
-22.9783121635
 11
33.15
 21
-22.9783121635
  0
LINE
  5
312
100
AcDbEntity
  8
RACCORDO
100
AcDbLine
 62
250
  6
CONTINUOUS
 10
-30.75
 20
-22.9783121635
 11
-33.15
 21
-22.9783121635
  0
LINE
  5
313
100
AcDbEntity
  8
RACCORDO
100
AcDbLine
 62
7
  6
CONTINUOUS
 10
-33.0974063247
 20
-22.4349101299
 11
-11.9025936753
 21
-22.4349101299
  0
LINE
  5
314
100
AcDbEntity
  8
RACCORDO
100
AcDbLine
 62
7
  6
CONTINUOUS
 10
11.9025936753
 20
-22.4349101299
 11
33.0974063247
 21
-22.4349101299
  0
LINE
  5
315
100
AcDbEntity
  8
DRAFT
100
AcDbLine
 62
7
  6
CONTINUOUS
 10
33.5976348052
 20
-21.9048099646
 11
11.4023651948
 21
-21.9048099646
  0
LINE
  5
316
100
AcDbEntity
  8
DRAFT
100
AcDbLine
 62
7
  6
CONTINUOUS
 10
-11.4023651948
 20
-21.9048099646
 11
-33.5976348052
 21
-21.9048099646
  0
LINE
  5
317
100
AcDbEntity
  8
RACCORDO
100
AcDbLine
 62
7
  6
CONTINUOUS
 10
-32.6001218439
 20
-21.8397580014
 11
32.6001218439
 21
-21.8397580014
  0
LINE
  5
318
100
AcDbEntity
  8
ASSI
100
AcDbLine
 62
7
  6
CONTINUOUS
 10
-32.6001218439
 20
-21.8397580014
 11
32.6001218439
 21
-21.8397580014
  0
LINE
  5
319
100
AcDbEntity
  8
RACCORDO
100
AcDbLine
 62
250
  6
CONTINUOUS
 10
-31.0
 20
-22.629704076
 11
-32.9263373565
 21
-22.6296550681
  0
LINE
  5
31A
100
AcDbEntity
  8
RACCORDO
100
AcDbLine
 62
250
  6
CONTINUOUS
 10
-14.026408305
 20
-22.6296549403
 11
-12.1
 21
-22.629704076
  0
LINE
  5
31B
100
AcDbEntity
  8
RACCORDO
100
AcDbLine
 62
250
  6
CONTINUOUS
 10
14.0
 20
-22.629704076
 11
12.0736626435
 21
-22.6296550681
  0
LINE
  5
31C
100
AcDbEntity
  8
RACCORDO
100
AcDbLine
 62
250
  6
CONTINUOUS
 10
30.973591695
 20
-22.6296549403
 11
32.9
 21
-22.629704076
  0
LINE
  5
31D
100
AcDbEntity
  8
RACCORDO
100
AcDbLine
 62
250
  6
CONTINUOUS
 10
-32.9263373565
 20
-22.6296550681
 11
-32.9776037577
 21
-22.6293159775
  0
LINE
  5
31E
100
AcDbEntity
  8
RACCORDO
100
AcDbLine
 62
250
  6
CONTINUOUS
 10
-14.0778009172
 20
-22.6293141645
 11
-14.026408305
 21
-22.6296549403
  0
LINE
  5
31F
100
AcDbEntity
  8
RACCORDO
100
AcDbLine
 62
250
  6
CONTINUOUS
 10
12.0736626435
 20
-22.6296550681
 11
12.0223962423
 21
-22.6293159775
  0
LINE
  5
320
100
AcDbEntity
  8
RACCORDO
100
AcDbLine
 62
250
  6
CONTINUOUS
 10
30.9221990828
 20
-22.6293141645
 11
30.973591695
 21
-22.6296549403
  0
LWPOLYLINE
  5
321
100
AcDbEntity
  8
RACCORDO
100
AcDbPolyline
 62
250
  6
CONTINUOUS
 90
8
 70
0
 10
-11.3966454428
 20
-21.9289696893
 10
-11.3962140414
 20
-21.9289757493
 10
-11.3957880743
 20
-21.9295025599
 10
-11.3953675416
 20
-21.9305501212
 10
-11.3949490132
 20
-21.9322169146
 10
-11.3945359192
 20
-21.9344044587
 10
-11.3941385493
 20
-21.9368173089
 10
-11.3937591968
 20
-21.9394526404
  0
LWPOLYLINE
  5
322
100
AcDbEntity
  8
RACCORDO
100
AcDbPolyline
 62
250
  6
CONTINUOUS
 90
12
 70
0
 10
-32.9776037577
 20
-22.6293159775
 10
-33.0251366792
 20
-22.6286469887
 10
-33.0469305335
 20
-22.6282046544
 10
-33.0671030826
 20
-22.6276935558
 10
-33.0854552141
 20
-22.6271147964
 10
-33.10185282
 20
-22.6264843843
 10
-33.1161144997
 20
-22.625800245
 10
-33.1280530597
 20
-22.6250644531
 10
-33.1375286371
 20
-22.6242992392
 10
-33.1444117633
 20
-22.6235120136
 10
-33.1485941046
 20
-22.6226953662
 10
-33.1499999823
 20
-22.6218523475
  0
LWPOLYLINE
  5
323
100
AcDbEntity
  8
RACCORDO
100
AcDbPolyline
 62
250
  6
CONTINUOUS
 90
12
 70
0
 10
12.0223962423
 20
-22.6293159775
 10
11.9748633208
 20
-22.6286469887
 10
11.9530694665
 20
-22.6282046544
 10
11.9328969174
 20
-22.6276935558
 10
11.9145447859
 20
-22.6271147964
 10
11.89814718
 20
-22.6264843843
 10
11.8838855003
 20
-22.625800245
 10
11.8719469403
 20
-22.6250644531
 10
11.8624713629
 20
-22.6242992392
 10
11.8555882367
 20
-22.6235120136
 10
11.8514058954
 20
-22.6226953662
 10
11.8500000177
 20
-22.6218523475
  0
LWPOLYLINE
  5
324
100
AcDbEntity
  8
RACCORDO
100
AcDbPolyline
 62
250
  6
CONTINUOUS
 90
11
 70
0
 10
-11.766733249
 20
-22.4342858718
 10
-11.7581489159
 20
-22.4345880731
 10
-11.7503129872
 20
-22.434811919
 10
-11.7433137278
 20
-22.4349623824
 10
-11.7372219893
 20
-22.4350422172
 10
-11.7320397195
 20
-22.4350535638
 10
-11.7277446172
 20
-22.4349991543
 10
-11.7243116057
 20
-22.4348847231
 10
-11.7217026472
 20
-22.4347169745
 10
-11.7198812635
 20
-22.434502461
 10
-11.7188657026
 20
-22.4342673925
  0
LWPOLYLINE
  5
325
100
AcDbEntity
  8
RACCORDO
100
AcDbPolyline
 62
250
  6
CONTINUOUS
 90
6
 70
0
 10
-14.2020933902
 20
-22.6264729979
 10
-14.1857392413
 20
-22.6271039585
 10
-14.167414634
 20
-22.6276840333
 10
-14.1472499675
 20
-22.6281967395
 10
-14.1254362376
 20
-22.6286410718
 10
-14.0778009172
 20
-22.6293141645
  0
LINE
  5
326
100
AcDbEntity
  8
RACCORDO
100
AcDbLine
 62
250
  6
CONTINUOUS
 10
-11.7760147128
 20
-22.4339033479
 11
-11.766733249
 21
-22.4342858718
  0
LINE
  5
327
100
AcDbEntity
  8
RACCORDO
100
AcDbLine
 62
250
  6
CONTINUOUS
 10
-11.7963607402
 20
-22.4329280326
 11
-11.7760147128
 21
-22.4339033479
  0
LINE
  5
328
100
AcDbEntity
  8
RACCORDO
100
AcDbLine
 62
250
  6
CONTINUOUS
 10
-11.8378487024
 20
-22.4306679897
 11
-11.7963607402
 21
-22.4329280326
  0
LWPOLYLINE
  5
329
100
AcDbEntity
  8
RACCORDO
100
AcDbPolyline
 62
7
  6
CONTINUOUS
 90
14
 70
0
 10
-30.7409325555
 20
-22.5623349788
 10
-30.7353063924
 20
-22.5466357511
 10
-30.7285420224
 20
-22.5317591533
 10
-30.7207595862
 20
-22.5177714424
 10
-30.7120827293
 20
-22.5047282197
 10
-30.7026284315
 20
-22.4926619377
 10
-30.6925170935
 20
-22.4816001773
 10
-30.6818789333
 20
-22.4715682402
 10
-30.6708078026
 20
-22.4625486983
 10
-30.6594277761
 20
-22.4545454407
 10
-30.6479234529
 20
-22.447583299
 10
-30.6362370249
 20
-22.4415393029
 10
-30.6246220702
 20
-22.4364616314
 10
-30.6203817123
 20
-22.4349101299
  0
LWPOLYLINE
  5
32A
100
AcDbEntity
  8
RACCORDO
100
AcDbPolyline
 62
7
  6
CONTINUOUS
 90
14
 70
0
 10
-14.2590674445
 20
22.5623349788
 10
-14.2646936076
 20
22.5466357511
 10
-14.2714579776
 20
22.5317591533
 10
-14.2792404138
 20
22.5177714424
 10
-14.2879172707
 20
22.5047282197
 10
-14.2973715685
 20
22.4926619377
 10
-14.3074829065
 20
22.4816001773
 10
-14.3181210667
 20
22.4715682402
 10
-14.3291921974
 20
22.4625486983
 10
-14.3405722239
 20
22.4545454407
 10
-14.3520765471
 20
22.447583299
 10
-14.3637629751
 20
22.4415393029
 10
-14.3753779298
 20
22.4364616314
 10
-14.3796182877
 20
22.4349101299
  0
LINE
  5
32B
100
AcDbEntity
  8
RACCORDO
100
AcDbLine
 62
250
  6
CONTINUOUS
 10
-33.162144344
 20
-22.4306686755
 11
-33.2039756585
 21
-22.4329524976
  0
LWPOLYLINE
  5
32C
100
AcDbEntity
  8
RACCORDO
100
AcDbPolyline
 62
250
  6
CONTINUOUS
 90
3
 70
0
 10
-33.2039756585
 20
-22.4329524976
 10
-33.2247392152
 20
-22.4339334239
 10
-33.2341003588
 20
-22.434313232
  0
LWPOLYLINE
  5
32D
100
AcDbEntity
  8
RACCORDO
100
AcDbPolyline
 62
250
  6
CONTINUOUS
 90
4
 70
0
 10
-30.79814718
 20
-22.626484384
 10
-30.8145447859
 20
-22.6271147961
 10
-30.8328969174
 20
-22.6276935557
 10
-30.8530694665
 20
-22.6282046544
  0
LWPOLYLINE
  5
32E
100
AcDbEntity
  8
RACCORDO
100
AcDbPolyline
 62
250
  6
CONTINUOUS
 90
11
 70
0
 10
-33.2341003588
 20
-22.434313232
 10
-33.2426267422
 20
-22.434614128
 10
-33.2503116614
 20
-22.4348337163
 10
-33.2571153298
 20
-22.4349728998
 10
-33.2630234901
 20
-22.435040542
 10
-33.2680832717
 20
-22.4350457667
 10
-33.2722945695
 20
-22.4349940383
 10
-33.2756733818
 20
-22.4348871592
 10
-33.2782653504
 20
-22.4347252171
 10
-33.2800905644
 20
-22.4345103445
 10
-33.2811311335
 20
-22.4342668879
  0
LINE
  5
32F
100
AcDbEntity
  8
DRAFT
100
AcDbLine
 62
7
  6
CONTINUOUS
 10
33.6089805974
 20
-21.825
 11
32.742755333
 21
-21.825
  0
LINE
  5
330
100
AcDbEntity
  8
DRAFT
100
AcDbLine
 62
7
  6
CONTINUOUS
 10
-32.742755333
 20
-21.825
 11
-33.6089805974
 21
-21.825
  0
LINE
  5
331
100
AcDbEntity
  8
RACCORDO
100
AcDbLine
 62
250
  6
CONTINUOUS
 10
32.5014668568
 20
-21.1508548094
 11
-32.5014668568
 21
-21.1508548094
  0
LINE
  5
332
100
AcDbEntity
  8
ASSI
100
AcDbLine
 62
250
  6
CONTINUOUS
 10
32.5014668568
 20
-21.1508548094
 11
-32.5014668568
 21
-21.1508548094
  0
LINE
  5
333
100
AcDbEntity
  8
DRAFT
100
AcDbLine
 62
7
  6
CONTINUOUS
 10
33.6089805974
 20
-19.9536487485
 11
33.4
 21
-19.9536487485
  0
LINE
  5
334
100
AcDbEntity
  8
DRAFT
100
AcDbLine
 62
7
  6
CONTINUOUS
 10
-33.4
 20
-19.9536487485
 11
-33.6089805974
 21
-19.9536487485
  0
LINE
  5
335
100
AcDbEntity
  8
RACCORDO
100
AcDbLine
 62
250
  6
CONTINUOUS
 10
32.4894891528
 20
-19.6058064045
 11
-32.5927589276
 21
-19.605936647
  0
LINE
  5
336
100
AcDbEntity
  8
ASSI
100
AcDbLine
 62
250
  6
CONTINUOUS
 10
32.4894891528
 20
-19.6058064045
 11
-32.5927589276
 21
-19.605936647
  0
LWPOLYLINE
  5
337
100
AcDbEntity
  8
RACCORDO
100
AcDbPolyline
 62
250
  6
CONTINUOUS
 90
8
 70
0
 10
33.6033545572
 20
-21.9289696893
 10
33.6037859586
 20
-21.9289757493
 10
33.6042119257
 20
-21.9295025599
 10
33.6046324584
 20
-21.9305501212
 10
33.6050509868
 20
-21.9322169146
 10
33.6054640808
 20
-21.9344044587
 10
33.6058614507
 20
-21.9368173089
 10
33.6062408032
 20
-21.9394526404
  0
LWPOLYLINE
  5
338
100
AcDbEntity
  8
RACCORDO
100
AcDbPolyline
 62
250
  6
CONTINUOUS
 90
11
 70
0
 10
33.233266751
 20
-22.4342858718
 10
33.2418510841
 20
-22.4345880731
 10
33.2496870128
 20
-22.434811919
 10
33.2566862722
 20
-22.4349623824
 10
33.2627780107
 20
-22.4350422172
 10
33.2679602805
 20
-22.4350535638
 10
33.2722553828
 20
-22.4349991543
 10
33.2756883943
 20
-22.4348847231
 10
33.2782973528
 20
-22.4347169745
 10
33.2801187365
 20
-22.434502461
 10
33.2811342974
 20
-22.4342673925
  0
LWPOLYLINE
  5
339
100
AcDbEntity
  8
RACCORDO
100
AcDbPolyline
 62
250
  6
CONTINUOUS
 90
6
 70
0
 10
30.7979066098
 20
-22.6264729979
 10
30.8142607587
 20
-22.6271039585
 10
30.832585366
 20
-22.6276840333
 10
30.8527500325
 20
-22.6281967395
 10
30.8745637624
 20
-22.6286410718
 10
30.9221990828
 20
-22.6293141645
  0
LINE
  5
33A
100
AcDbEntity
  8
RACCORDO
100
AcDbLine
 62
250
  6
CONTINUOUS
 10
33.2239852872
 20
-22.4339033479
 11
33.233266751
 21
-22.4342858718
  0
LINE
  5
33B
100
AcDbEntity
  8
RACCORDO
100
AcDbLine
 62
250
  6
CONTINUOUS
 10
33.2036392598
 20
-22.4329280326
 11
33.2239852872
 21
-22.4339033479
  0
LINE
  5
33C
100
AcDbEntity
  8
RACCORDO
100
AcDbLine
 62
250
  6
CONTINUOUS
 10
33.1621512976
 20
-22.4306679897
 11
33.2036392598
 21
-22.4329280326
  0
LWPOLYLINE
  5
33D
100
AcDbEntity
  8
RACCORDO
100
AcDbPolyline
 62
250
  6
CONTINUOUS
 90
10
 70
0
 10
11.3966455927
 20
-21.9289665538
 10
11.3962332036
 20
-21.9289258064
 10
11.3958214075
 20
-21.9294063209
 10
11.3954102044
 20
-21.9304080974
 10
11.3949962262
 20
-21.9320131201
 10
11.3945828411
 20
-21.9341394047
 10
11.3941801531
 20
-21.9365409986
 10
11.3937877731
 20
-21.9392533414
 10
11.3934060902
 20
-21.9422409935
 10
11.392713226
 20
-21.9479205229
  0
LINE
  5
33E
100
AcDbEntity
  8
RACCORDO
100
AcDbLine
 62
250
  6
CONTINUOUS
 10
-18.5971284682
 20
23.8
 11
-18.5971284682
 21
22.4349101299
  0
LINE
  5
33F
100
AcDbEntity
  8
RACCORDO
100
AcDbLine
 62
250
  6
CONTINUOUS
 10
-18.5971284682
 20
-22.4349101299
 11
-18.5971284682
 21
-23.8
  0
LINE
  5
340
100
AcDbEntity
  8
RACCORDO
100
AcDbLine
 62
7
  6
CONTINUOUS
 10
-18.0971367614
 20
23.8
 11
-18.0971367614
 21
22.4349101299
  0
LINE
  5
341
100
AcDbEntity
  8
RACCORDO
100
AcDbLine
 62
7
  6
CONTINUOUS
 10
-18.0971367614
 20
-22.4349101299
 11
-18.0971367614
 21
-23.8
  0
LWPOLYLINE
  5
342
100
AcDbEntity
  8
RACCORDO
100
AcDbPolyline
 62
7
  6
CONTINUOUS
 90
3
 70
0
 10
11.7246220702
 20
22.4364616314
 10
11.7079236089
 20
22.4301417697
 10
11.6865577368
 20
22.4212275712
  0
LWPOLYLINE
  5
343
100
AcDbEntity
  8
RACCORDO
100
AcDbPolyline
 62
7
  6
CONTINUOUS
 90
6
 70
0
 10
11.7198825516
 20
-22.4346387023
 10
11.7302545597
 20
-22.4388132837
 10
11.7408690267
 20
-22.4438178561
 10
11.7516376935
 20
-22.4497157707
 10
11.762469121
 20
-22.4565693461
 10
11.77298043
 20
-22.4642164863
  0
LWPOLYLINE
  5
344
100
AcDbEntity
  8
RACCORDO
100
AcDbPolyline
 62
250
  6
CONTINUOUS
 90
13
 70
0
 10
-11.85
 20
-23.4113248654
 10
-11.8521387847
 20
-23.3830651158
 10
-11.8585185434
 20
-23.3552888984
 10
-11.8690301169
 20
-23.3284714719
 10
-11.8834936491
 20
-23.3030716899
 10
-11.9016616649
 20
-23.2795241498
 10
-11.9232233047
 20
-23.2582317565
 10
-11.9478096427
 20
-23.2395588287
 10
-11.975
 20
-23.2238248654
 10
-12.0043291419
 20
-23.2112990791
 10
-12.0352952387
 20
-23.2021957895
 10
-12.0673684519
 20
-23.1966707563
 10
-12.1
 20
-23.1948185145
  0
LWPOLYLINE
  5
345
100
AcDbEntity
  8
RACCORDO
100
AcDbPolyline
 62
250
  6
CONTINUOUS
 90
13
 70
0
 10
-11.85
 20
-23.8443375673
 10
-11.8521080981
 20
-23.8162804162
 10
-11.8584156031
 20
-23.7886353736
 10
-11.8688434561
 20
-23.7618755205
 10
-11.8832532544
 20
-23.7364457872
 10
-11.9014176289
 20
-23.7128127353
 10
-11.9229963906
 20
-23.6914412243
 10
-11.9475994958
 20
-23.6727113317
 10
-11.9748190517
 20
-23.6569281288
 10
-12.0041865442
 20
-23.6443629782
 10
-12.0351971683
 20
-23.6352312672
 10
-12.067318801
 20
-23.6296891235
 10
-12.1
 20
-23.6278312164
  0
LINE
  5
346
100
AcDbEntity
  8
RACCORDO
100
AcDbLine
 62
7
  6
CONTINUOUS
 10
-14.2504134362
 20
-22.6090257268
 11
-14.2500016243
 21
-22.6218493537
  0
LINE
  5
347
100
AcDbEntity
  8
RACCORDO
100
AcDbLine
 62
7
  6
CONTINUOUS
 10
-14.25
 20
-22.6218492968
 11
-14.25
 21
-24.25
  0
LINE
  5
348
100
AcDbEntity
  8
RACCORDO
100
AcDbLine
 62
7
  6
CONTINUOUS
 10
-14.25
 20
22.6218492968
 11
-14.25
 21
24.25
  0
LINE
  5
349
100
AcDbEntity
  8
RACCORDO
100
AcDbLine
 62
250
  6
CONTINUOUS
 10
-14.0
 20
-22.4349101299
 11
-14.0
 21
-24.5
  0
LINE
  5
34A
100
AcDbEntity
  8
RACCORDO
100
AcDbLine
 62
250
  6
CONTINUOUS
 10
-13.9999999999
 20
22.4349101299
 11
-14.0
 21
24.5
  0
LWPOLYLINE
  5
34B
100
AcDbEntity
  8
RACCORDO
100
AcDbPolyline
 62
7
  6
CONTINUOUS
 90
5
 70
0
 10
-14.2500002786
 20
22.6218539423
 10
-14.2501763364
 20
22.6134638007
 10
-14.251697868
 20
22.5958568612
 10
-14.254697298
 20
22.5787758727
 10
-14.2590674445
 20
22.5623349788
  0
LWPOLYLINE
  5
34C
100
AcDbEntity
  8
RACCORDO
100
AcDbPolyline
 62
250
  6
CONTINUOUS
 90
13
 70
0
 10
-11.85
 20
23.8443375673
 10
-11.8521387847
 20
23.8160778177
 10
-11.8585185434
 20
23.7883016003
 10
-11.8690301169
 20
23.7614841738
 10
-11.8834936491
 20
23.7360843918
 10
-11.9016616649
 20
23.7125368517
 10
-11.9232233047
 20
23.6912444584
 10
-11.9478096427
 20
23.6725715306
 10
-11.975
 20
23.6568375673
 10
-12.0043291419
 20
23.644311781
 10
-12.0352952387
 20
23.6352084914
 10
-12.0673684519
 20
23.6296834582
 10
-12.1
 20
23.6278312164
  0
LWPOLYLINE
  5
34D
100
AcDbEntity
  8
RACCORDO
100
AcDbPolyline
 62
250
  6
CONTINUOUS
 90
13
 70
0
 10
-11.85
 20
23.4113248654
 10
-11.8521387847
 20
23.3830651158
 10
-11.8585185434
 20
23.3552888984
 10
-11.8690301169
 20
23.3284714719
 10
-11.8834936491
 20
23.3030716899
 10
-11.9016616649
 20
23.2795241498
 10
-11.9232233047
 20
23.2582317565
 10
-11.9478096427
 20
23.2395588287
 10
-11.975
 20
23.2238248654
 10
-12.0043291419
 20
23.2112990791
 10
-12.0352952387
 20
23.2021957895
 10
-12.0673684519
 20
23.1966707563
 10
-12.1
 20
23.1948185145
  0
LWPOLYLINE
  5
34E
100
AcDbEntity
  8
RACCORDO
100
AcDbPolyline
 62
250
  6
CONTINUOUS
 90
14
 70
0
 10
-11.392713226
 20
21.9479205229
 10
-11.3921103221
 20
21.9530697012
 10
-11.3918393399
 20
21.9552430069
 10
-11.3915878163
 20
21.9571817362
 10
-11.3913493948
 20
21.9588765315
 10
-11.3911233557
 20
21.9603145312
 10
-11.3909104188
 20
21.9615085969
 10
-11.3907063871
 20
21.9624879559
 10
-11.3905111935
 20
21.9632513068
 10
-11.3903249051
 20
21.963799951
 10
-11.3901435257
 20
21.9641670208
 10
-11.3899657233
 20
21.9643635603
 10
-11.38979283
 20
21.9643785254
 10
-11.3896248458
 20
21.964211916
  0
LWPOLYLINE
  5
34F
100
AcDbEntity
  8
RACCORDO
100
AcDbPolyline
 62
7
  6
CONTINUOUS
 90
12
 70
0
 10
11.6865577368
 20
22.4212275712
 10
11.6658406622
 20
22.4114413
 10
11.645802347
 20
22.400833448
 10
11.6264633244
 20
22.3894512397
 10
11.6078456881
 20
22.377344001
 10
11.589970089
 20
22.3645621153
 10
11.5728506378
 20
22.3511531903
 10
11.5565014522
 20
22.3371664166
 10
11.54093304
 20
22.322649874
 10
11.5261502985
 20
22.3076478708
 10
11.5121590379
 20
22.2922068634
 10
11.4989624619
 20
22.2763723293
  0
LINE
  5
350
100
AcDbEntity
  8
RACCORDO
100
AcDbLine
 62
250
  6
CONTINUOUS
 10
0.1517262502
 20
-13.7460755784
 11
0.0
 21
-13.7551112824
  0
LWPOLYLINE
  5
351
100
AcDbEntity
  8
DRAFT
100
AcDbPolyline
 62
7
  6
CONTINUOUS
 90
29
 70
0
 10
0.0
 20
-13.5626833369
 10
0.0584689597
 20
-13.5609535428
 10
0.1163516558
 20
-13.5559172073
 10
0.1736480883
 20
-13.5475743303
 10
0.2305477103
 20
-13.5358744296
 10
0.2868610687
 20
-13.5208679875
 10
0.342019804
 20
-13.5027064506
 10
0.3960122718
 20
-13.4813578453
 10
0.4488501166
 20
-13.4568541452
 10
0.4999999122
 20
-13.4294427179
 10
0.5494445274
 20
-13.3990941264
 10
0.5972010934
 20
-13.3658378077
 10
0.6427875771
 20
-13.3300094402
 10
0.6861820076
 20
-13.2915829734
 10
0.7274063559
 20
-13.2505844579
 10
0.766044502
 20
-13.2074277236
 10
0.8020702654
 20
-13.1620908846
 10
0.8355098267
 20
-13.1145958268
 10
0.8660256074
 20
-13.0654220385
 10
0.8935879676
 20
-13.0145525697
 10
0.9182265474
 20
-12.9620043704
 10
0.9396926882
 20
-12.9083077786
 10
0.9579542816
 20
-12.8534511006
 10
0.9730434361
 20
-12.7974460301
 10
0.9848078185
 20
-12.740857987
 10
0.9932137405
 20
-12.6836811203
 10
0.9982948904
 20
-12.6259212809
 10
1.0
 20
-12.5681614415
 10
0.9987544656
 20
-12.5185397074
  0
LWPOLYLINE
  5
352
100
AcDbEntity
  8
DRAFT
100
AcDbPolyline
 62
7
  6
CONTINUOUS
 90
29
 70
0
 10
0.0
 20
-13.5626833369
 10
-0.0584689597
 20
-13.5609535428
 10
-0.1163516558
 20
-13.5559172073
 10
-0.1736480883
 20
-13.5475743303
 10
-0.2305477103
 20
-13.5358744296
 10
-0.2868610687
 20
-13.5208679875
 10
-0.342019804
 20
-13.5027064506
 10
-0.3960122718
 20
-13.4813578453
 10
-0.4488501166
 20
-13.4568541452
 10
-0.4999999122
 20
-13.4294427179
 10
-0.5494445274
 20
-13.3990941264
 10
-0.5972010934
 20
-13.3658378077
 10
-0.6427875771
 20
-13.3300094402
 10
-0.6861820076
 20
-13.2915829734
 10
-0.7274063559
 20
-13.2505844579
 10
-0.766044502
 20
-13.2074277236
 10
-0.8020702654
 20
-13.1620908846
 10
-0.8355098267
 20
-13.1145958268
 10
-0.8660256074
 20
-13.0654220385
 10
-0.8935879676
 20
-13.0145525697
 10
-0.9182265474
 20
-12.9620043704
 10
-0.9396926882
 20
-12.9083077786
 10
-0.9579542816
 20
-12.8534511006
 10
-0.9730434361
 20
-12.7974460301
 10
-0.9848078185
 20
-12.740857987
 10
-0.9932137405
 20
-12.6836811203
 10
-0.9982948904
 20
-12.6259212809
 10
-1.0
 20
-12.5681614415
 10
-0.9987544656
 20
-12.5185397074
  0
LWPOLYLINE
  5
353
100
AcDbEntity
  8
RACCORDO
100
AcDbPolyline
 62
7
  6
CONTINUOUS
 90
14
 70
0
 10
0.0
 20
-13.6613579144
 10
-0.1392980026
 20
-13.6532400837
 10
-0.2767362586
 20
-13.629009629
 10
-0.4104544001
 20
-13.5889842469
 10
-0.5386419192
 20
-13.5336879446
 10
-0.6595592208
 20
-13.4638638039
 10
-0.7715619907
 20
-13.3804655211
 10
-0.8731281215
 20
-13.2846093115
 10
-0.962877876
 20
-13.1775837097
 10
-1.0395896641
 20
-13.0608528252
 10
-1.1022195771
 20
-12.9359812821
 10
-1.1499088995
 20
-12.8046555638
 10
-1.1820014244
 20
-12.6686892527
 10
-1.1980598916
 20
-12.529915746
  0
LWPOLYLINE
  5
354
100
AcDbEntity
  8
ASSI
100
AcDbPolyline
 62
7
  6
CONTINUOUS
 90
14
 70
0
 10
0.0
 20
-13.6613579144
 10
-0.1392980026
 20
-13.6532400837
 10
-0.2767362586
 20
-13.629009629
 10
-0.4104544001
 20
-13.5889842469
 10
-0.5386419192
 20
-13.5336879446
 10
-0.6595592208
 20
-13.4638638039
 10
-0.7715619907
 20
-13.3804655211
 10
-0.8731281215
 20
-13.2846093115
 10
-0.962877876
 20
-13.1775837097
 10
-1.0395896641
 20
-13.0608528252
 10
-1.1022195771
 20
-12.9359812821
 10
-1.1499088995
 20
-12.8046555638
 10
-1.1820014244
 20
-12.6686892527
 10
-1.1980598916
 20
-12.529915746
  0
LINE
  5
355
100
AcDbEntity
  8
RACCORDO
100
AcDbLine
 62
250
  6
CONTINUOUS
 10
0.0
 20
-13.7551112824
 11
-0.1543911618
 21
-13.7453002077
  0
LWPOLYLINE
  5
356
100
AcDbEntity
  8
ASSI
100
AcDbPolyline
 62
250
  6
CONTINUOUS
 90
4
 70
0
 10
0.0
 20
-13.7551112824
 10
-0.1543911618
 20
-13.7453002077
 10
-0.3027718276
 20
-13.7191040855
 10
-0.4451419974
 20
-13.6765231618
  0
LWPOLYLINE
  5
357
100
AcDbEntity
  8
RACCORDO
100
AcDbPolyline
 62
250
  6
CONTINUOUS
 90
3
 70
0
 10
-0.1543911618
 20
-13.7453002077
 10
-0.3027718276
 20
-13.7191040855
 10
-0.4451419974
 20
-13.6765231618
  0
LWPOLYLINE
  5
358
100
AcDbEntity
  8
RACCORDO
100
AcDbPolyline
 62
7
  6
CONTINUOUS
 90
3
 70
0
 10
11.6687356438
 20
-22.4128785313
 10
11.7137368539
 20
-22.4323690199
 10
11.7198825516
 20
-22.4346387023
  0
LWPOLYLINE
  5
359
100
AcDbEntity
  8
RACCORDO
100
AcDbPolyline
 62
250
  6
CONTINUOUS
 90
13
 70
0
 10
-11.3921358091
 20
-21.9528522206
 10
-11.3918651413
 20
-21.9550336993
 10
-11.3916109944
 20
-21.9570097411
 10
-11.3913692307
 20
-21.9587432573
 10
-11.3911395663
 20
-21.9602145155
 10
-11.3909222851
 20
-21.9614432481
 10
-11.3907141018
 20
-21.9624515631
 10
-11.3905147922
 20
-21.9632358465
 10
-11.3903245805
 20
-21.9637997123
 10
-11.3901408538
 20
-21.9641761101
 10
-11.389962741
 20
-21.964376023
 10
-11.3897911132
 20
-21.9643884678
 10
-11.3896259704
 20
-21.9642134447
  0
LWPOLYLINE
  5
35A
100
AcDbEntity
  8
RACCORDO
100
AcDbPolyline
 62
250
  6
CONTINUOUS
 90
4
 70
0
 10
-11.3937591968
 20
-21.9394526404
 10
-11.3930510745
 20
-21.9451122519
 10
-11.3927277229
 20
-21.9478018296
 10
-11.3921358091
 20
-21.9528522206
  0
LWPOLYLINE
  5
35B
100
AcDbEntity
  8
RACCORDO
100
AcDbPolyline
 62
250
  6
CONTINUOUS
 90
13
 70
0
 10
-14.25
 20
23.4113248654
 10
-14.2478612153
 20
23.3830651158
 10
-14.2414814566
 20
23.3552888984
 10
-14.2309698831
 20
23.3284714719
 10
-14.2165063509
 20
23.3030716899
 10
-14.1983383351
 20
23.2795241498
 10
-14.1767766953
 20
23.2582317565
 10
-14.1521903573
 20
23.2395588287
 10
-14.125
 20
23.2238248654
 10
-14.0956708581
 20
23.2112990791
 10
-14.0647047613
 20
23.2021957895
 10
-14.0326315481
 20
23.1966707563
 10
-14.0
 20
23.1948185145
  0
LWPOLYLINE
  5
35C
100
AcDbEntity
  8
RACCORDO
100
AcDbPolyline
 62
250
  6
CONTINUOUS
 90
13
 70
0
 10
-14.25
 20
23.8443375673
 10
-14.2478919019
 20
23.8162804162
 10
-14.2415843969
 20
23.7886353736
 10
-14.2311565439
 20
23.7618755205
 10
-14.2167467456
 20
23.7364457872
 10
-14.1985823711
 20
23.7128127353
 10
-14.1770036094
 20
23.6914412243
 10
-14.1524005042
 20
23.6727113317
 10
-14.1251809483
 20
23.6569281288
 10
-14.0958134558
 20
23.6443629782
 10
-14.0648028317
 20
23.6352312672
 10
-14.032681199
 20
23.6296891235
 10
-14.0
 20
23.6278312164
  0
LINE
  5
35D
100
AcDbEntity
  8
RACCORDO
100
AcDbLine
 62
7
  6
CONTINUOUS
 10
-11.8495709452
 20
22.6087662238
 11
-11.849999721
 21
22.6218538841
  0
LINE
  5
35E
100
AcDbEntity
  8
RACCORDO
100
AcDbLine
 62
250
  6
CONTINUOUS
 10
-12.1000000003
 20
-22.4349101299
 11
-12.1
 21
-24.5
  0
LINE
  5
35F
100
AcDbEntity
  8
RACCORDO
100
AcDbLine
 62
250
  6
CONTINUOUS
 10
-12.1000000016
 20
22.4349101299
 11
-12.1
 21
24.5
  0
LINE
  5
360
100
AcDbEntity
  8
RACCORDO
100
AcDbLine
 62
7
  6
CONTINUOUS
 10
-11.85
 20
-22.6218492968
 11
-11.85
 21
-24.25
  0
LINE
  5
361
100
AcDbEntity
  8
RACCORDO
100
AcDbLine
 62
7
  6
CONTINUOUS
 10
-11.85
 20
22.6218492968
 11
-11.85
 21
24.25
  0
LINE
  5
362
100
AcDbEntity
  8
RACCORDO
100
AcDbLine
 62
7
  6
CONTINUOUS
 10
-11.4023651948
 20
21.9346816494
 11
-11.4023651948
 21
21.9048099646
  0
LINE
  5
363
100
AcDbEntity
  8
RACCORDO
100
AcDbLine
 62
7
  6
CONTINUOUS
 10
-11.4023651948
 20
-21.9346816494
 11
-11.4023651948
 21
-21.9048099646
  0
LINE
  5
364
100
AcDbEntity
  8
DRAFT
100
AcDbLine
 62
7
  6
CONTINUOUS
 10
-11.3910194026
 20
21.7214221234
 11
-11.3910194026
 21
21.825
  0
LINE
  5
365
100
AcDbEntity
  8
RACCORDO
100
AcDbLine
 62
7
  6
CONTINUOUS
 10
-11.35
 20
-21.8823164546
 11
-11.35
 21
-21.8397580014
  0
LINE
  5
366
100
AcDbEntity
  8
RACCORDO
100
AcDbLine
 62
7
  6
CONTINUOUS
 10
-11.35
 20
21.7214221234
 11
-11.35
 21
21.8823164546
  0
LWPOLYLINE
  5
367
100
AcDbEntity
  8
RACCORDO
100
AcDbPolyline
 62
7
  6
CONTINUOUS
 90
5
 70
0
 10
-11.8499983723
 20
-22.6218493627
 10
-11.8493935898
 20
-22.6063127598
 10
-11.847363192
 20
-22.5895009525
 10
-11.8439930934
 20
-22.573224087
 10
-11.839384385
 20
-22.5575841549
  0
LWPOLYLINE
  5
368
100
AcDbEntity
  8
RACCORDO
100
AcDbPolyline
 62
250
  6
CONTINUOUS
 90
13
 70
0
 10
-14.25
 20
-23.8443375673
 10
-14.2478919019
 20
-23.8162804162
 10
-14.2415843969
 20
-23.7886353736
 10
-14.2311565439
 20
-23.7618755205
 10
-14.2167467456
 20
-23.7364457872
 10
-14.1985823711
 20
-23.7128127353
 10
-14.1770036094
 20
-23.6914412243
 10
-14.1524005042
 20
-23.6727113317
 10
-14.1251809483
 20
-23.6569281288
 10
-14.0958134558
 20
-23.6443629782
 10
-14.0648028317
 20
-23.6352312672
 10
-14.032681199
 20
-23.6296891235
 10
-14.0
 20
-23.6278312164
  0
LWPOLYLINE
  5
369
100
AcDbEntity
  8
RACCORDO
100
AcDbPolyline
 62
250
  6
CONTINUOUS
 90
13
 70
0
 10
-14.25
 20
-23.4113248654
 10
-14.2478612153
 20
-23.3830651158
 10
-14.2414814566
 20
-23.3552888984
 10
-14.2309698831
 20
-23.3284714719
 10
-14.2165063509
 20
-23.3030716899
 10
-14.1983383351
 20
-23.2795241498
 10
-14.1767766953
 20
-23.2582317565
 10
-14.1521903573
 20
-23.2395588287
 10
-14.125
 20
-23.2238248654
 10
-14.0956708581
 20
-23.2112990791
 10
-14.0647047613
 20
-23.2021957895
 10
-14.0326315481
 20
-23.1966707563
 10
-14.0
 20
-23.1948185145
  0
LWPOLYLINE
  5
36A
100
AcDbEntity
  8
RACCORDO
100
AcDbPolyline
 62
7
  6
CONTINUOUS
 90
5
 70
0
 10
11.7708078026
 20
22.4625486983
 10
11.7594277761
 20
22.4545454407
 10
11.7479234529
 20
22.447583299
 10
11.7362370249
 20
22.4415393029
 10
11.7246220702
 20
22.4364616314
  0
LWPOLYLINE
  5
36B
100
AcDbEntity
  8
RACCORDO
100
AcDbPolyline
 62
250
  6
CONTINUOUS
 90
7
 70
0
 10
11.8500000186
 20
22.6218524218
 10
11.8514058954
 20
22.6226953667
 10
11.8555882367
 20
22.6235120145
 10
11.8624713628
 20
22.6242992401
 10
11.8719469403
 20
22.6250644537
 10
11.8838855003
 20
22.6258002451
 10
11.89814718
 20
22.626484384
  0
LWPOLYLINE
  5
36C
100
AcDbEntity
  8
0
100
AcDbPolyline
 62
7
  6
CONTINUOUS
 90
4
 70
0
 10
0.0
 20
-11.3747351671
 10
-0.1423084143
 20
-11.3836966499
 10
-0.2791164716
 20
-11.4076874536
 10
-0.410424172
 20
-11.446707578
  0
LWPOLYLINE
  5
36D
100
AcDbEntity
  8
ASSI
100
AcDbPolyline
 62
7
  6
CONTINUOUS
 90
8
 70
0
 10
0.0
 20
-11.3747351671
 10
-0.1423084143
 20
-11.3836966499
 10
-0.2791164716
 20
-11.4076874536
 10
-0.410424172
 20
-11.446707578
 10
-0.5378438264
 20
-11.5016827919
 10
-0.6597631238
 20
-11.5716873265
 10
-0.7713451316
 20
-11.6539438757
 10
-0.8721742399
 20
-11.7489450307
  0
LWPOLYLINE
  5
36E
100
AcDbEntity
  8
RACCORDO
100
AcDbPolyline
 62
250
  6
CONTINUOUS
 90
26
 70
0
 10
0.0
 20
-13.4353807797
 10
0.057627183
 20
-13.4337179397
 10
0.1150649134
 20
-13.4287344991
 10
0.1721198486
 20
-13.4204464588
 10
0.2285720999
 20
-13.4088874726
 10
0.2842600129
 20
-13.3940923705
 10
0.3390765377
 20
-13.3760811377
 10
0.3928877239
 20
-13.3548758192
 10
0.4454469757
 20
-13.3305511107
 10
0.4964848251
 20
-13.3032237644
 10
0.545821224
 20
-13.2729923902
 10
0.5932966337
 20
-13.2399570283
 10
0.6386954561
 20
-13.2042767784
 10
0.6818312386
 20
-13.1661218171
 10
0.7226128815
 20
-13.1255975031
 10
0.7609757201
 20
-13.0827753851
 10
0.7968115268
 20
-13.0377662349
 10
0.8299699524
 20
-12.9907481273
 10
0.860326509
 20
-12.9418948097
 10
0.8877781524
 20
-12.8913725665
 10
0.9122331471
 20
-12.83935073
 10
0.9336038449
 20
-12.7860191115
 10
0.9518102429
 20
-12.7315932545
 10
0.9668080826
 20
-12.6762240929
 10
0.9785659946
 20
-12.6200067337
 10
0.987037626
 20
-12.5630724224
  0
LWPOLYLINE
  5
36F
100
AcDbEntity
  8
RACCORDO
100
AcDbPolyline
 62
250
  6
CONTINUOUS
 90
36
 70
0
 10
-0.0
 20
-13.3345546398
 10
0.0523528721
 20
-13.3330442927
 10
0.1045336486
 20
-13.3285171081
 10
0.1563666557
 20
-13.3209876234
 10
0.2076520806
 20
-13.3104863178
 10
0.2582430506
 20
-13.2970449415
 10
0.308042392
 20
-13.2806819466
 10
0.356928507
 20
-13.2614175106
 10
0.404677345
 20
-13.2393193199
 10
0.4510440213
 20
-13.214493249
 10
0.4958649068
 20
-13.1870288086
 10
0.5389950976
 20
-13.1570169703
 10
0.5802387657
 20
-13.1246023322
 10
0.619426546
 20
-13.0899395157
 10
0.656475661
 20
-13.0531242111
 10
0.6913273521
 20
-13.0142214051
 10
0.7238832906
 20
-12.9733317265
 10
0.7540068933
 20
-12.9306169578
 10
0.7815850691
 20
-12.8862349466
 10
0.8065242073
 20
-12.8403367593
 10
0.8287409665
 20
-12.7930762284
 10
0.8481557178
 20
-12.7446257914
 10
0.8646957784
 20
-12.6951812642
 10
0.8783209421
 20
-12.6448797675
 10
0.8890027135
 20
-12.5938077044
 10
0.8966989839
 20
-12.5420843082
 10
0.9013595284
 20
-12.4899326951
 10
0.90295608
 20
-12.4375970934
 10
0.9014839148
 20
-12.3852753103
 10
0.8969487866
 20
-12.3331252187
 10
0.8893671001
 20
-12.2813321686
 10
0.8787670135
 20
-12.2300778714
 10
0.8651848015
 20
-12.1795301148
 10
0.8486641126
 20
-12.1298508395
 10
0.8292575583
 20
-12.0812025558
 10
0.8070323666
 20
-12.0337574524
  0
LWPOLYLINE
  5
370
100
AcDbEntity
  8
RACCORDO
100
AcDbPolyline
 62
250
  6
CONTINUOUS
 90
11
 70
0
 10
0.0
 20
-11.5385342093
 10
-0.0523528721
 20
-11.5400445622
 10
-0.1045336486
 20
-11.5445717495
 10
-0.1563666557
 20
-11.5521012342
 10
-0.2076520806
 20
-11.5626025349
 10
-0.2582430506
 20
-11.5760439035
 10
-0.308042392
 20
-11.5924068935
 10
-0.356928507
 20
-11.6116713305
 10
-0.404677345
 20
-11.6337695253
 10
-0.4510440213
 20
-11.658595599
 10
-0.4958649068
 20
-11.6860600396
  0
LWPOLYLINE
  5
371
100
AcDbEntity
  8
RACCORDO
100
AcDbPolyline
 62
7
  6
CONTINUOUS
 90
10
 70
0
 10
-0.0000000001
 20
-11.4579244579
 10
0.0559783432
 20
-11.4594942934
 10
0.1117772426
 20
-11.4641986203
 10
0.1672199712
 20
-11.4720222758
 10
0.2221314225
 20
-11.482940391
 10
0.2763372037
 20
-11.4969181944
 10
0.329664221
 20
-11.5139108443
 10
0.3819435162
 20
-11.5338642115
 10
0.4330096573
 20
-11.5567149179
 10
0.482699889
 20
-11.58238985
  0
LWPOLYLINE
  5
372
100
AcDbEntity
  8
RACCORDO
100
AcDbPolyline
 62
250
  6
CONTINUOUS
 90
8
 70
0
 10
0.0
 20
-11.26271337
 10
0.1393464773
 20
-11.2708255511
 10
0.2768239346
 20
-11.295048019
 10
0.4105708269
 20
-11.3350601301
 10
0.5387762639
 20
-11.3903318942
 10
0.6597006367
 20
-11.4601202118
 10
0.7717000482
 20
-11.5434773027
 10
0.8647237631
 20
-11.6303343052
  0
LWPOLYLINE
  5
373
100
AcDbEntity
  8
ASSI
100
AcDbPolyline
 62
250
  6
CONTINUOUS
 90
4
 70
0
 10
0.0
 20
-11.26271337
 10
0.1393464773
 20
-11.2708255511
 10
0.2768239346
 20
-11.295048019
 10
0.4105708269
 20
-11.3350601301
  0
LWPOLYLINE
  5
374
100
AcDbEntity
  8
RACCORDO
100
AcDbPolyline
 62
250
  6
CONTINUOUS
 90
4
 70
0
 10
0.0
 20
-11.1566962206
 10
0.154443918
 20
-11.1665087589
 10
0.3028660403
 20
-11.1926967212
 10
0.4452663667
 20
-11.2352603896
  0
LWPOLYLINE
  5
375
100
AcDbEntity
  8
ASSI
100
AcDbPolyline
 62
250
  6
CONTINUOUS
 90
9
 70
0
 10
0.0
 20
-11.1566962206
 10
0.154443918
 20
-11.1665087589
 10
0.3028660403
 20
-11.1926967212
 10
0.4452663667
 20
-11.2352603896
 10
0.5833750664
 20
-11.2952094084
 10
0.7154619704
 20
-11.3715352541
 10
0.8363365716
 20
-11.4612110655
 10
0.945572268
 20
-11.564769012
 10
1.0435956616
 20
-11.6816785991
  0
LWPOLYLINE
  5
376
100
AcDbEntity
  8
0
100
AcDbPolyline
 62
7
  6
CONTINUOUS
 90
4
 70
0
 10
0.410424172
 20
-11.446707578
 10
0.2791164716
 20
-11.4076874536
 10
0.1423084143
 20
-11.3836966499
 10
0.0
 20
-11.3747351671
  0
LWPOLYLINE
  5
377
100
AcDbEntity
  8
RACCORDO
100
AcDbPolyline
 62
250
  6
CONTINUOUS
 90
8
 70
0
 10
-0.4451419974
 20
-13.6765231618
 10
-0.5832325642
 20
-13.6165500324
 10
-0.715312635
 20
-13.5401930906
 10
-0.8361895308
 20
-13.4504763837
 10
-0.9454388638
 20
-13.3468651639
 10
-1.0434850219
 20
-13.2298957239
 10
-1.1264084893
 20
-13.1041983909
 10
-1.1935983809
 20
-12.9694102203
  0
LWPOLYLINE
  5
378
100
AcDbEntity
  8
ASSI
100
AcDbPolyline
 62
250
  6
CONTINUOUS
 90
3
 70
0
 10
-0.4451419974
 20
-13.6765231618
 10
-0.5832325642
 20
-13.6165500324
 10
-0.715312635
 20
-13.5401930906
  0
LWPOLYLINE
  5
379
100
AcDbEntity
  8
ASSI
100
AcDbPolyline
 62
250
  6
CONTINUOUS
 90
4
 70
0
 10
-0.715312635
 20
-13.5401930906
 10
-0.8361895308
 20
-13.4504763837
 10
-0.9454388638
 20
-13.3468651639
 10
-1.0434850219
 20
-13.2298957239
  0
LINE
  5
37A
100
AcDbEntity
  8
RACCORDO
100
AcDbLine
 62
7
  6
CONTINUOUS
 10
-11.3716129807
 20
21.9707097024
 11
-11.3726455869
 21
21.9803105491
  0
LWPOLYLINE
  5
37B
100
AcDbEntity
  8
RACCORDO
100
AcDbPolyline
 62
250
  6
CONTINUOUS
 90
3
 70
0
 10
-11.3698817611
 20
21.9270762299
 10
-11.3688937028
 20
21.917870309
 10
-11.3686153925
 20
21.915353543
  0
LWPOLYLINE
  5
37C
100
AcDbEntity
  8
RACCORDO
100
AcDbPolyline
 62
250
  6
CONTINUOUS
 90
7
 70
0
 10
-11.3896265803
 20
-21.9642142737
 10
-11.3921948456
 20
-22.0150237455
 10
-11.3999152628
 20
-22.0653068773
 10
-11.4127078555
 20
-22.1145427816
 10
-11.430440104
 20
-22.1622214192
 10
-11.4529283182
 20
-22.2078488826
 10
-11.4569086411
 20
-22.2148506185
  0
LWPOLYLINE
  5
37D
100
AcDbEntity
  8
RACCORDO
100
AcDbPolyline
 62
250
  6
CONTINUOUS
 90
8
 70
0
 10
-11.3721732328
 20
-21.940662077
 10
-11.374854529
 20
-21.992566246
 10
-11.382911611
 20
-22.04390927
 10
-11.3962573722
 20
-22.0941360695
 10
-11.414747529
 20
-22.1427036329
 10
-11.4381821806
 20
-22.189086887
 10
-11.4663079707
 20
-22.2327843734
 10
-11.4702685336
 20
-22.2382089476
  0
LWPOLYLINE
  5
37E
100
AcDbEntity
  8
RACCORDO
100
AcDbPolyline
 62
250
  6
CONTINUOUS
 90
3
 70
0
 10
-11.3654816751
 20
-21.8978033211
 10
-11.3682057037
 20
-21.9500666513
 10
-11.3719213385
 20
-21.9735665557
  0
LINE
  5
37F
100
AcDbEntity
  8
RACCORDO
100
AcDbLine
 62
250
  6
CONTINUOUS
 10
-11.3697719669
 20
-21.9260707827
 11
-11.3686253613
 21
-21.9154493427
  0
LWPOLYLINE
  5
380
100
AcDbEntity
  8
RACCORDO
100
AcDbPolyline
 62
250
  6
CONTINUOUS
 90
9
 70
0
 10
-11.3686253613
 20
-21.9154493427
 10
-11.3682994079
 20
-21.912535597
 10
-11.367954721
 20
-21.909717366
 10
-11.367590612
 20
-21.9069575815
 10
-11.3672077697
 20
-21.9042933118
 10
-11.366805522
 20
-21.9020165514
 10
-11.366383645
 20
-21.9002246319
 10
-11.3659423627
 20
-21.8988202218
 10
-11.3654816751
 20
-21.8978033211
  0
LINE
  5
381
100
AcDbEntity
  8
DRAFT
100
AcDbLine
 62
7
  6
CONTINUOUS
 10
-11.4023651948
 20
-21.9048099646
 11
-11.3931174015
 21
-21.8397580014
  0
LWPOLYLINE
  5
382
100
AcDbEntity
  8
0
100
AcDbPolyline
 62
7
  6
CONTINUOUS
 90
3
 70
0
 43
0.3500000006
 10
1.1428571477
 20
33.5357164307
 10
1.0714285848
 20
33.3214274139
 10
0.9285714591
 20
33.0357162781
  0
LWPOLYLINE
  5
383
100
AcDbEntity
  8
RACCORDO
100
AcDbPolyline
 62
7
  6
CONTINUOUS
 90
17
 70
0
 10
30.6205792639
 20
-22.4349101299
 10
30.6310492036
 20
-22.4391627198
 10
30.6420869608
 20
-22.4444428632
 10
30.6533345213
 20
-22.4507263616
 10
30.6644647874
 20
-22.4579421365
 10
30.6753617667
 20
-22.4661001821
 10
30.685952394
 20
-22.475237197
 10
30.6960177296
 20
-22.4852437325
 10
30.7054346814
 20
-22.496048593
 10
30.7141690768
 20
-22.5076683918
 10
30.7221534314
 20
-22.5200920362
 10
30.7292987058
 20
-22.533274432
 10
30.7355218183
 20
-22.5471699018
 10
30.7407516501
 20
-22.56176065
 10
30.744896673
 20
-22.5769798629
 10
30.7478686607
 20
-22.5927498978
 10
30.7495865638
 20
-22.6090257268
  0
LWPOLYLINE
  5
384
100
AcDbEntity
  8
ASSI
100
AcDbPolyline
 62
250
  6
CONTINUOUS
 90
4
 70
0
 10
0.4105708269
 20
-11.3350601301
 10
0.5387762639
 20
-11.3903318942
 10
0.6597006367
 20
-11.4601202118
 10
0.7717000482
 20
-11.5434773027
  0
LWPOLYLINE
  5
385
100
AcDbEntity
  8
RACCORDO
100
AcDbPolyline
 62
250
  6
CONTINUOUS
 90
6
 70
0
 10
0.4452663667
 20
-11.2352603896
 10
0.5833750664
 20
-11.2952094084
 10
0.7154619704
 20
-11.3715352541
 10
0.8363365716
 20
-11.4612110655
 10
0.945572268
 20
-11.564769012
 10
1.0435956616
 20
-11.6816785991
  0
LWPOLYLINE
  5
386
100
AcDbEntity
  8
RACCORDO
100
AcDbPolyline
 62
7
  6
CONTINUOUS
 90
12
 70
0
 10
0.482699889
 20
-11.58238985
 10
0.5308567752
 20
-11.6108072942
 10
0.577328
 20
-11.6418770406
 10
0.6219658312
 20
-11.6754999635
 10
0.6646288551
 20
-11.7115691185
 10
0.7051821783
 20
-11.7499700511
 10
0.7434972402
 20
-11.7905806111
 10
0.779452672
 20
-11.8332716877
 10
0.8129348187
 20
-11.8779078503
 10
0.8438378325
 20
-11.9243475317
 10
0.8720638328
 20
-11.9724431481
 10
0.8975236122
 20
-12.0220421448
  0
LWPOLYLINE
  5
387
100
AcDbEntity
  8
RACCORDO
100
AcDbPolyline
 62
250
  6
CONTINUOUS
 90
11
 70
0
 10
0.4957666976
 20
-11.6859957993
 10
0.4509844677
 20
-11.6585613793
 10
0.4046333352
 20
-11.6337474579
 10
0.3568992062
 20
-11.6116585943
 10
0.3080254387
 20
-11.5924005607
 10
0.2582349769
 20
-11.5760413791
 10
0.2076498822
 20
-11.5626020217
 10
0.1563681989
 20
-11.5521015929
 10
0.1045370327
 20
-11.5445722426
 10
0.0523557544
 20
-11.5400447997
 10
-0.0
 20
-11.5385342093
  0
LWPOLYLINE
  5
388
100
AcDbEntity
  8
RACCORDO
100
AcDbPolyline
 62
7
  6
CONTINUOUS
 90
13
 70
0
 10
11.77298043
 20
-22.4642164863
 10
11.7830249154
 20
-22.4725799811
 10
11.7926246409
 20
-22.4817093938
 10
11.8016918726
 20
-22.4915648285
 10
11.8101464468
 20
-22.5020970219
 10
11.8179477705
 20
-22.5132966939
 10
11.8250634318
 20
-22.5251787212
 10
11.8314258399
 20
-22.5377123017
 10
11.836962727
 20
-22.5508495303
 10
11.8416182504
 20
-22.5645794045
 10
11.8453181633
 20
-22.5788459881
 10
11.8479908966
 20
-22.5935852782
 10
11.8495709452
 20
-22.6087662238
  0
LWPOLYLINE
  5
389
100
AcDbEntity
  8
RACCORDO
100
AcDbPolyline
 62
7
  6
CONTINUOUS
 90
4
 70
0
 10
11.5484433116
 20
-22.3298055514
 10
11.5857070521
 20
-22.3613328444
 10
11.6259268994
 20
-22.3891175297
 10
11.6687356438
 20
-22.4128785313
  0
LWPOLYLINE
  5
38A
100
AcDbEntity
  8
ASSI
100
AcDbPolyline
 62
7
  6
CONTINUOUS
 90
8
 70
0
 10
0.8721742399
 20
-11.7489450307
 10
0.7713451316
 20
-11.6539438757
 10
0.6597631238
 20
-11.5716873265
 10
0.5378438264
 20
-11.5016827919
 10
0.410424172
 20
-11.446707578
 10
0.2791164716
 20
-11.4076874536
 10
0.1423084143
 20
-11.3836966499
 10
0.0
 20
-11.3747351671
  0
LWPOLYLINE
  5
38B
100
AcDbEntity
  8
ASSI
100
AcDbPolyline
 62
250
  6
CONTINUOUS
 90
3
 70
0
 10
-1.0434850219
 20
-13.2298957239
 10
-1.1264084893
 20
-13.1041983909
 10
-1.1935983809
 20
-12.9694102203
  0
LWPOLYLINE
  5
38C
100
AcDbEntity
  8
RACCORDO
100
AcDbPolyline
 62
7
  6
CONTINUOUS
 90
5
 70
0
 10
-11.3728939218
 20
21.9800271797
 10
-11.3724277465
 20
21.9768604412
 10
-11.3718123305
 20
21.9723132424
 10
-11.37156894
 20
21.9703217533
 10
-11.3716129807
 20
21.9707097024
  0
LINE
  5
38D
100
AcDbEntity
  8
DRAFT
100
AcDbLine
 62
7
  6
CONTINUOUS
 10
-11.3910194026
 20
21.825
 11
-11.4023651948
 21
21.9048099646
  0
LWPOLYLINE
  5
38E
100
AcDbEntity
  8
RACCORDO
100
AcDbPolyline
 62
250
  6
CONTINUOUS
 90
8
 70
0
 10
-11.3680170073
 20
21.9101933003
 10
-11.3676973701
 20
21.9077292714
 10
-11.3673644242
 20
21.9053805523
 10
-11.3670178089
 20
21.9031617111
 10
-11.3666563221
 20
21.9012739004
 10
-11.3662795631
 20
21.8997841713
 10
-11.3658879326
 20
21.8986254727
 10
-11.3654814306
 20
21.8977978048
  0
LINE
  5
38F
100
AcDbEntity
  8
RACCORDO
100
AcDbLine
 62
250
  6
CONTINUOUS
 10
-11.3686153925
 20
21.915353543
 11
-11.3680170073
 21
21.9101933003
  0
LWPOLYLINE
  5
390
100
AcDbEntity
  8
RACCORDO
100
AcDbPolyline
 62
7
  6
CONTINUOUS
 90
10
 70
0
 10
-11.3726455869
 20
21.9803105491
 10
-11.3732916379
 20
21.9860910183
 10
-11.3741160405
 20
21.9930173339
 10
-11.3751730768
 20
22.0011775615
 10
-11.376569194
 20
22.0108844517
 10
-11.3784426578
 20
22.0224090133
 10
-11.3808879652
 20
22.0355611691
 10
-11.3839677163
 20
22.0499928247
 10
-11.3878303171
 20
22.0657758383
 10
-11.392610068
 20
22.0828421494
  0
LINE
  5
391
100
AcDbEntity
  8
RACCORDO
100
AcDbLine
 62
250
  6
CONTINUOUS
 10
11.3654814306
 20
21.897797805
 11
11.35
 21
21.8823164546
  0
LINE
  5
392
100
AcDbEntity
  8
RACCORDO
100
AcDbLine
 62
250
  6
CONTINUOUS
 10
11.4023651948
 20
21.9346816494
 11
11.3966455927
 21
21.9289665558
  0
LINE
  5
393
100
AcDbEntity
  8
ASSI
100
AcDbLine
 62
250
  6
CONTINUOUS
 10
0.7717000482
 20
-11.5434773027
 11
0.8647237631
 21
-11.6303343052
  0
LINE
  5
394
100
AcDbEntity
  8
RACCORDO
100
AcDbLine
 62
250
  6
CONTINUOUS
 10
11.3654814306
 20
-21.8977978048
 11
11.35
 21
-21.8823164546
  0
LINE
  5
395
100
AcDbEntity
  8
RACCORDO
100
AcDbLine
 62
7
  6
CONTINUOUS
 10
11.5144842293
 20
-22.2948618356
 11
11.5484433116
 21
-22.3298055514
  0
LWPOLYLINE
  5
396
100
AcDbEntity
  8
RACCORDO
100
AcDbPolyline
 62
7
  6
CONTINUOUS
 90
8
 70
0
 10
0.8647237631
 20
-11.6303343052
 10
0.9629814383
 20
-11.7462455406
 10
1.0396720784
 20
-11.8629180536
 10
1.1022809554
 20
-11.9877360631
 10
1.1499501504
 20
-12.1190119815
 10
1.1820254082
 20
-12.2549459634
 10
1.1980679464
 20
-12.3937098754
 10
1.2
 20
-12.4617407843
  0
LWPOLYLINE
  5
397
100
AcDbEntity
  8
ASSI
100
AcDbPolyline
 62
7
  6
CONTINUOUS
 90
3
 70
0
 10
0.8647237631
 20
-11.6303343052
 10
0.9629814383
 20
-11.7462455406
 10
1.0396720784
 20
-11.8629180536
  0
LWPOLYLINE
  5
398
100
AcDbEntity
  8
0
100
AcDbPolyline
 62
7
  6
CONTINUOUS
 90
6
 70
0
 10
0.9626660585
 20
-11.8561982002
 10
0.8721742399
 20
-11.7489450307
 10
0.7713451316
 20
-11.6539438757
 10
0.6597631238
 20
-11.5716873265
 10
0.5378438264
 20
-11.5016827919
 10
0.410424172
 20
-11.446707578
  0
LINE
  5
399
100
AcDbEntity
  8
RACCORDO
100
AcDbLine
 62
7
  6
CONTINUOUS
 10
11.4907724398
 20
-22.2658364642
 11
11.5144842293
 21
-22.2948618356
  0
LINE
  5
39A
100
AcDbEntity
  8
0
100
AcDbLine
 62
7
  6
CONTINUOUS
 10
1.0392304845
 20
-11.9714483043
 11
0.9626660585
 21
-11.8561982002
  0
LWPOLYLINE
  5
39B
100
AcDbEntity
  8
ASSI
100
AcDbPolyline
 62
7
  6
CONTINUOUS
 90
3
 70
0
 10
1.0392304845
 20
-11.9714483043
 10
0.9626660585
 20
-11.8561982002
 10
0.8721742399
 20
-11.7489450307
  0
LWPOLYLINE
  5
39C
100
AcDbEntity
  8
RACCORDO
100
AcDbPolyline
 62
250
  6
CONTINUOUS
 90
3
 70
0
 10
1.0435956616
 20
-11.6816785991
 10
1.1264960522
 20
-11.8073186349
 10
1.1936651568
 20
-11.9420518768
  0
LWPOLYLINE
  5
39D
100
AcDbEntity
  8
ASSI
100
AcDbPolyline
 62
250
  6
CONTINUOUS
 90
3
 70
0
 10
1.0435956616
 20
-11.6816785991
 10
1.1264960522
 20
-11.8073186349
 10
1.1936651568
 20
-11.9420518768
  0
LWPOLYLINE
  5
39E
100
AcDbEntity
  8
RACCORDO
100
AcDbPolyline
 62
250
  6
CONTINUOUS
 90
3
 70
0
 10
-1.1935983809
 20
-12.9694102203
 10
-1.2456655819
 20
-12.8258955755
 10
-1.2805232319
 20
-12.679375023
  0
LWPOLYLINE
  5
39F
100
AcDbEntity
  8
ASSI
100
AcDbPolyline
 62
250
  6
CONTINUOUS
 90
5
 70
0
 10
-1.1935983809
 20
-12.9694102203
 10
-1.2456655819
 20
-12.8258955755
 10
-1.2805232319
 20
-12.679375023
 10
-1.2974706504
 20
-12.5297244939
 10
-1.2972085179
 20
-12.377068679
  0
LWPOLYLINE
  5
3A0
100
AcDbEntity
  8
RACCORDO
100
AcDbPolyline
 62
250
  6
CONTINUOUS
 90
3
 70
0
 10
-11.3723431533
 20
21.9762353971
 10
-11.3682051904
 20
21.9500640856
 10
-11.3654814306
 20
21.8977978048
  0
LWPOLYLINE
  5
3A1
100
AcDbEntity
  8
RACCORDO
100
AcDbPolyline
 62
7
  6
CONTINUOUS
 90
10
 70
0
 10
-11.3977336233
 20
-22.09899859
 10
-11.3916503515
 20
-22.0795927257
 10
-11.3866503478
 20
-22.0611772254
 10
-11.3826146817
 20
-22.0438933594
 10
-11.3795179633
 20
-22.0284143261
 10
-11.377183957
 20
-22.0148336882
 10
-11.3754141342
 20
-22.0029378584
 10
-11.3741076665
 20
-21.9929534887
 10
-11.3731854521
 20
-21.9851567862
 10
-11.3715809229
 20
-21.9704243595
  0
LWPOLYLINE
  5
3A2
100
AcDbEntity
  8
RACCORDO
100
AcDbPolyline
 62
7
  6
CONTINUOUS
 90
9
 70
0
 10
-11.839384385
 20
-22.5575841549
 10
-11.8336419986
 20
-22.5426632573
 10
-11.8268737901
 20
-22.5285301498
 10
-11.8191920967
 20
-22.5152451751
 10
-11.8107060405
 20
-22.5028486008
 10
-11.8015247421
 20
-22.4913709771
 10
-11.7917617939
 20
-22.4808380598
 10
-11.7815138987
 20
-22.4712494557
 10
-11.7708872858
 20
-22.4626091871
  0
LWPOLYLINE
  5
3A3
100
AcDbEntity
  8
RACCORDO
100
AcDbPolyline
 62
7
  6
CONTINUOUS
 90
3
 70
0
 10
11.4694992262
 20
22.2371695243
 10
11.461736677
 20
22.2263302669
 10
11.4473382239
 20
22.2044515377
  0
LINE
  5
3A4
100
AcDbEntity
  8
RACCORDO
100
AcDbLine
 62
7
  6
CONTINUOUS
 10
11.4838683103
 20
22.2565193798
 11
11.4878488888
 21
22.2619320384
  0
LINE
  5
3A5
100
AcDbEntity
  8
RACCORDO
100
AcDbLine
 62
250
  6
CONTINUOUS
 10
11.3896248479
 20
21.9642119188
 11
11.3818696813
 21
21.9536834334
  0
LINE
  5
3A6
100
AcDbEntity
  8
RACCORDO
100
AcDbLine
 62
7
  6
CONTINUOUS
 10
11.4694992262
 20
22.2371695243
 11
11.4838683103
 21
22.2565193798
  0
LINE
  5
3A7
100
AcDbEntity
  8
RACCORDO
100
AcDbLine
 62
250
  6
CONTINUOUS
 10
11.3818696813
 20
21.9536834334
 11
11.3741136663
 21
21.9432560917
  0
LINE
  5
3A8
100
AcDbEntity
  8
RACCORDO
100
AcDbLine
 62
250
  6
CONTINUOUS
 10
11.3741136663
 20
21.9432560917
 11
11.3721752432
 21
21.9406659172
  0
LINE
  5
3A9
100
AcDbEntity
  8
RACCORDO
100
AcDbLine
 62
7
  6
CONTINUOUS
 10
11.4989624619
 20
22.2763723293
 11
11.4878480364
 21
22.2619326745
  0
LINE
  5
3AA
100
AcDbEntity
  8
RACCORDO
100
AcDbLine
 62
7
  6
CONTINUOUS
 10
11.4719582385
 20
22.2404797938
 11
11.4870722691
 21
22.2591702294
  0
LWPOLYLINE
  5
3AB
100
AcDbEntity
  8
RACCORDO
100
AcDbPolyline
 62
250
  6
CONTINUOUS
 90
7
 70
0
 10
30.7500000186
 20
22.6218524218
 10
30.7514058954
 20
22.6226953667
 10
30.7555882367
 20
22.6235120145
 10
30.7624713628
 20
22.6242992401
 10
30.7719469403
 20
22.6250644537
 10
30.7838855003
 20
22.6258002451
 10
30.79814718
 20
22.626484384
  0
LWPOLYLINE
  5
3AC
100
AcDbEntity
  8
RACCORDO
100
AcDbPolyline
 62
250
  6
CONTINUOUS
 90
13
 70
0
 10
33.2893673085
 20
-19.6343360352
 10
33.2808730133
 20
-19.6304799813
 10
33.2591367309
 20
-19.6267128966
 10
33.2245221682
 20
-19.6230978149
 10
33.1776085208
 20
-19.6196952266
 10
33.1191807811
 20
-19.6165620662
 10
33.0502166033
 20
-19.6137507596
 10
32.9718699451
 20
-19.6113083478
 10
32.8854517583
 20
-19.6092756983
 10
32.7924080533
 20
-19.6076868222
 10
32.6942957034
 20
-19.606568305
 10
32.5927563941
 20
-19.6059388623
 10
32.4894891532
 20
-19.6058090259
  0
LWPOLYLINE
  5
3AD
100
AcDbEntity
  8
ASSI
100
AcDbPolyline
 62
250
  6
CONTINUOUS
 90
13
 70
0
 10
33.2893673085
 20
-19.6343360352
 10
33.2808730133
 20
-19.6304799813
 10
33.2591367309
 20
-19.6267128966
 10
33.2245221682
 20
-19.6230978149
 10
33.1776085208
 20
-19.6196952266
 10
33.1191807811
 20
-19.6165620662
 10
33.0502166033
 20
-19.6137507596
 10
32.9718699451
 20
-19.6113083478
 10
32.8854517583
 20
-19.6092756983
 10
32.7924080533
 20
-19.6076868222
 10
32.6942957034
 20
-19.606568305
 10
32.5927563941
 20
-19.6059388623
 10
32.4894891532
 20
-19.6058090259
  0
LWPOLYLINE
  5
3AE
100
AcDbEntity
  8
RACCORDO
100
AcDbPolyline
 62
250
  6
CONTINUOUS
 90
7
 70
0
 10
30.75
 20
-22.6218493198
 10
30.7513967701
 20
-22.6226922116
 10
30.7555535346
 20
-22.6235062073
 10
30.7623975512
 20
-22.6242912837
 10
30.7718218329
 20
-22.6250547632
 10
30.7837011244
 20
-22.6257893235
 10
30.7979066098
 20
-22.6264729979
  0
LINE
  5
3AF
100
AcDbEntity
  8
RACCORDO
100
AcDbLine
 62
7
  6
CONTINUOUS
 10
11.478051423
 20
-22.2480041407
 11
11.471958467
 21
-22.2404790742
  0
LINE
  5
3B0
100
AcDbEntity
  8
RACCORDO
100
AcDbLine
 62
7
  6
CONTINUOUS
 10
11.4907723414
 20
-22.265836535
 11
11.4862834265
 21
-22.2598081261
  0
LINE
  5
3B1
100
AcDbEntity
  8
RACCORDO
100
AcDbLine
 62
7
  6
CONTINUOUS
 10
11.4702939314
 20
-22.2382445812
 11
11.4782468872
 21
-22.2489115284
  0
LINE
  5
3B2
100
AcDbEntity
  8
RACCORDO
100
AcDbLine
 62
250
  6
CONTINUOUS
 10
11.3799303009
 20
-21.9510665671
 11
11.3721752668
 21
-21.9406659488
  0
LWPOLYLINE
  5
3B3
100
AcDbEntity
  8
RACCORDO
100
AcDbPolyline
 62
7
  6
CONTINUOUS
 90
3
 70
0
 10
11.4782468872
 20
-22.2489115284
 10
11.4857407715
 20
-22.2590681118
 10
11.4862834265
 20
-22.2598081261
  0
LWPOLYLINE
  5
3B4
100
AcDbEntity
  8
RACCORDO
100
AcDbPolyline
 62
250
  6
CONTINUOUS
 90
3
 70
0
 10
11.3896248458
 20
-21.964211916
 10
11.3876863807
 20
-21.9615706094
 10
11.3799303009
 20
-21.9510665671
  0
LWPOLYLINE
  5
3B5
100
AcDbEntity
  8
RACCORDO
100
AcDbPolyline
 62
250
  6
CONTINUOUS
 90
3
 70
0
 10
11.4666210315
 20
-22.2332203408
 10
11.4663091003
 20
-22.2327872527
 10
11.4381833059
 20
-22.1890898516
  0
LINE
  5
3B6
100
AcDbEntity
  8
RACCORDO
100
AcDbLine
 62
7
  6
CONTINUOUS
 10
11.4862834265
 20
-22.2598081261
 11
11.4799395409
 21
-22.2509525128
  0
LWPOLYLINE
  5
3B7
100
AcDbEntity
  8
RACCORDO
100
AcDbPolyline
 62
250
  6
CONTINUOUS
 90
10
 70
0
 10
0.8070323666
 20
-12.0337574524
 10
0.7820688418
 20
-11.987686462
 10
0.7544569289
 20
-11.9431517557
 10
0.7242879758
 20
-11.900297216
 10
0.6916578595
 20
-11.8592587751
 10
0.6566708463
 20
-11.8201701404
 10
0.6194501729
 20
-11.7831713787
 10
0.5801322431
 20
-11.7483975746
 10
0.538859945
 20
-11.7159718035
 10
0.4957666976
 20
-11.6859957993
  0
LINE
  5
3B8
100
AcDbEntity
  8
0
100
AcDbLine
 62
7
  6
CONTINUOUS
 10
1.1013075682
 20
-12.095016859
 11
1.0392304845
 21
-11.9714483043
  0
LINE
  5
3B9
100
AcDbEntity
  8
ASSI
100
AcDbLine
 62
7
  6
CONTINUOUS
 10
1.1013075682
 20
-12.095016859
 11
1.0392304845
 21
-11.9714483043
  0
LWPOLYLINE
  5
3BA
100
AcDbEntity
  8
ASSI
100
AcDbPolyline
 62
7
  6
CONTINUOUS
 90
6
 70
0
 10
1.0396720784
 20
-11.8629180536
 10
1.1022809554
 20
-11.9877360631
 10
1.1499501504
 20
-12.1190119815
 10
1.1820254082
 20
-12.2549459634
 10
1.1980679464
 20
-12.3937098754
 10
1.2
 20
-12.4617407843
  0
LWPOLYLINE
  5
3BB
100
AcDbEntity
  8
RACCORDO
100
AcDbPolyline
 62
7
  6
CONTINUOUS
 90
8
 70
0
 10
0.8975236122
 20
-12.0220421448
 10
0.9201368877
 20
-12.0729876382
 10
0.9398320376
 20
-12.1251177994
 10
0.9565468111
 20
-12.178267264
 10
0.97022859
 20
-12.2322682496
 10
0.9808340875
 20
-12.2869496694
 10
0.98832967
 20
-12.3421376549
 10
0.9926916462
 20
-12.3976561491
  0
LINE
  5
3BC
100
AcDbEntity
  8
0
100
AcDbLine
 62
7
  6
CONTINUOUS
 10
1.1494572592
 20
-12.2265823483
 11
1.1013075682
 21
-12.095016859
  0
LINE
  5
3BD
100
AcDbEntity
  8
RACCORDO
100
AcDbLine
 62
250
  6
CONTINUOUS
 10
1.1936651568
 20
-11.9420518768
 11
1.2457112584
 21
-12.0855169858
  0
LINE
  5
3BE
100
AcDbEntity
  8
ASSI
100
AcDbLine
 62
250
  6
CONTINUOUS
 10
1.1936651568
 20
-11.9420518768
 11
1.2457112584
 21
-12.0855169858
  0
LWPOLYLINE
  5
3BF
100
AcDbEntity
  8
RACCORDO
100
AcDbPolyline
 62
7
  6
CONTINUOUS
 90
10
 70
0
 10
-11.392610068
 20
22.0828421494
 10
-11.3982778436
 20
22.1006104891
 10
-11.4049136629
 20
22.1189899632
 10
-11.4126327169
 20
22.1379764118
 10
-11.4213499682
 20
22.1571157463
 10
-11.4310717178
 20
22.1762696032
 10
-11.4418806764
 20
22.1954577793
 10
-11.4537335813
 20
22.214477295
 10
-11.4666210315
 20
22.2332203408
 10
-11.4702939314
 20
22.2382445812
  0
LWPOLYLINE
  5
3C0
100
AcDbEntity
  8
RACCORDO
100
AcDbPolyline
 62
250
  6
CONTINUOUS
 90
4
 70
0
 10
-1.2805232319
 20
-12.679375023
 10
-1.2974706504
 20
-12.5297244939
 10
-1.2972085179
 20
-12.377068679
 10
-1.2797520151
 20
-12.2275002407
  0
LWPOLYLINE
  5
3C1
100
AcDbEntity
  8
RACCORDO
100
AcDbPolyline
 62
250
  6
CONTINUOUS
 90
27
 70
0
 10
-0.9923046032
 20
-12.5033341008
 10
-0.9873125784
 20
-12.5607380932
 10
-0.978967068
 20
-12.6177490735
 10
-0.9672990667
 20
-12.6741670239
 10
-0.9523485041
 20
-12.7298072527
 10
-0.9341634264
 20
-12.7844915047
 10
-0.9128017458
 20
-12.8380408976
 10
-0.8883374626
 20
-12.8902658954
 10
-0.8608589705
 20
-12.9409783445
 10
-0.8304652748
 20
-12.9899997345
 10
-0.7972569277
 20
-13.0371716882
 10
-0.7613394687
 20
-13.0823445814
 10
-0.7228276727
 20
-13.1253712413
 10
-0.6818571863
 20
-13.1660974865
 10
-0.6385781443
 20
-13.2043746114
 10
-0.5931478179
 20
-13.2400671218
 10
-0.5457130853
 20
-13.2730630497
 10
-0.4964192371
 20
-13.3032613728
 10
-0.4453984758
 20
-13.330575291
 10
-0.3928553915
 20
-13.3548896567
 10
-0.3390577998
 20
-13.3760879012
 10
-0.2842510867
 20
-13.3940950203
 10
-0.2285696809
 20
-13.4088880412
 10
-0.1721215642
 20
-13.4204461586
 10
-0.1150686514
 20
-13.4287340657
 10
-0.0576303602
 20
-13.433717756
 10
0.0
 20
-13.4353807797
  0
LINE
  5
3C2
100
AcDbEntity
  8
DRAFT
100
AcDbLine
 62
7
  6
CONTINUOUS
 10
0.9926916458
 20
-12.3976561406
 11
0.9987583349
 21
-12.5186167962
  0
LINE
  5
3C3
100
AcDbEntity
  8
RACCORDO
100
AcDbLine
 62
7
  6
CONTINUOUS
 10
-1.1980598916
 20
-12.529915746
 11
-1.2
 21
-12.4617407804
  0
LINE
  5
3C4
100
AcDbEntity
  8
ASSI
100
AcDbLine
 62
7
  6
CONTINUOUS
 10
-1.1980598916
 20
-12.529915746
 11
-1.2
 21
-12.4617407804
  0
LWPOLYLINE
  5
3C5
100
AcDbEntity
  8
0
100
AcDbPolyline
 62
7
  6
CONTINUOUS
 90
4
 70
0
 43
0.3500000006
 10
-1.9285714102
 20
35.607143692
 10
-1.9285714102
 20
36.2500016785
 10
-0.4285714127
 20
36.2500016785
 10
-1.2857142735
 20
33.2500007629
  0
LWPOLYLINE
  5
3C6
100
AcDbEntity
  8
RACCORDO
100
AcDbPolyline
 62
250
  6
CONTINUOUS
 90
3
 70
0
 10
-0.9926916462
 20
-12.3976561491
 10
-0.9939250858
 20
-12.4457411195
 10
-0.9923046032
 20
-12.5033341008
  0
LWPOLYLINE
  5
3C7
100
AcDbEntity
  8
RACCORDO
100
AcDbPolyline
 62
7
  6
CONTINUOUS
 90
8
 70
0
 10
-1.2
 20
-12.4617407804
 10
-1.1978638211
 20
-12.3902095297
 10
-1.1814174107
 20
-12.2515045798
 10
-1.1489502584
 20
-12.115679256
 10
-1.1009073242
 20
-11.9845589157
 10
-1.0379476159
 20
-11.8599384434
 10
-0.9609603888
 20
-11.7435375854
 10
-0.8647115605
 20
-11.6303215698
  0
LWPOLYLINE
  5
3C8
100
AcDbEntity
  8
ASSI
100
AcDbPolyline
 62
7
  6
CONTINUOUS
 90
6
 70
0
 10
-1.2
 20
-12.4617407804
 10
-1.1978638211
 20
-12.3902095297
 10
-1.1814174107
 20
-12.2515045798
 10
-1.1489502584
 20
-12.115679256
 10
-1.1009073242
 20
-11.9845589157
 10
-1.0379476159
 20
-11.8599384434
  0
LINE
  5
3C9
100
AcDbEntity
  8
0
100
AcDbLine
 62
7
  6
CONTINUOUS
 10
-1.1976069502
 20
-12.4981569069
 11
-1.1983473267
 21
-12.5198153425
  0
LINE
  5
3CA
100
AcDbEntity
  8
DRAFT
100
AcDbLine
 62
7
  6
CONTINUOUS
 10
-0.9926916458
 20
-12.3976561406
 11
-0.9987583349
 21
-12.5186167962
  0
LWPOLYLINE
  5
3CB
100
AcDbEntity
  8
RACCORDO
100
AcDbPolyline
 62
7
  6
CONTINUOUS
 90
8
 70
0
 10
-0.9926916462
 20
-12.3976561491
 10
-0.9883300389
 20
-12.3421410992
 10
-0.9808350935
 20
-12.286955776
 10
-0.9702303728
 20
-12.2322762278
 10
-0.956549361
 20
-12.1782762529
 10
-0.9398352318
 20
-12.1251270357
 10
-0.9201405704
 20
-12.0729966104
 10
-0.8975275506
 20
-12.0220503821
  0
LINE
  5
3CC
100
AcDbEntity
  8
ASSI
100
AcDbLine
 62
7
  6
CONTINUOUS
 10
-1.1817693036
 20
-12.3609251438
 11
-1.1976069502
 21
-12.4981569069
  0
LWPOLYLINE
  5
3CD
100
AcDbEntity
  8
ASSI
100
AcDbPolyline
 62
250
  6
CONTINUOUS
 90
3
 70
0
 10
-1.2972085179
 20
-12.377068679
 10
-1.2797520151
 20
-12.2275002407
 10
-1.2444042403
 20
-12.0811509459
  0
LWPOLYLINE
  5
3CE
100
AcDbEntity
  8
RACCORDO
100
AcDbPolyline
 62
7
  6
CONTINUOUS
 90
4
 70
0
 10
-11.4238033803
 20
-22.1621447007
 10
-11.4137385079
 20
-22.1405259469
 10
-11.4050901544
 20
-22.1194504383
 10
-11.3977336233
 20
-22.09899859
  0
LWPOLYLINE
  5
3CF
100
AcDbEntity
  8
RACCORDO
100
AcDbPolyline
 62
250
  6
CONTINUOUS
 90
5
 70
0
 10
11.4086565149
 20
22.1011719378
 10
11.432407498
 20
22.1478033212
 10
11.4609043174
 20
22.1916945408
 10
11.4938346361
 20
22.2323645306
 10
11.4969329236
 20
22.2356334166
  0
LINE
  5
3D0
100
AcDbEntity
  8
RACCORDO
100
AcDbLine
 62
7
  6
CONTINUOUS
 10
-11.4353988594
 20
-22.1841887992
 11
-11.4238033803
 21
-22.1621447007
  0
LWPOLYLINE
  5
3D1
100
AcDbEntity
  8
RACCORDO
100
AcDbPolyline
 62
7
  6
CONTINUOUS
 90
6
 70
0
 10
11.4473382239
 20
22.2044515377
 10
11.4343768812
 20
22.182349388
 10
11.4228656902
 20
22.1602393888
 10
11.4128898367
 20
22.1385720909
 10
11.404328482
 20
22.1174537935
 10
11.3970600401
 20
22.0969754117
  0
LWPOLYLINE
  5
3D2
100
AcDbEntity
  8
RACCORDO
100
AcDbPolyline
 62
250
  6
CONTINUOUS
 90
12
 70
0
 10
11.3721752432
 20
21.9406659172
 10
11.372008555
 20
21.9403938981
 10
11.3718360698
 20
21.9399536551
 10
11.3716577875
 20
21.939345188
 10
11.3714743497
 20
21.9385763925
 10
11.3712851149
 20
21.937639373
 10
11.3710881579
 20
21.9365104426
 10
11.3708835487
 20
21.9351834434
 10
11.3706712173
 20
21.9336645333
 10
11.3704490284
 20
21.9319484992
 10
11.3702171489
 20
21.9300235829
 10
11.3697211807
 20
21.9256124398
  0
LINE
  5
3D3
100
AcDbEntity
  8
DRAFT
100
AcDbLine
 62
7
  6
CONTINUOUS
 10
33.5662156883
 20
0.0
 11
33.4
 21
0.0
  0
LINE
  5
3D4
100
AcDbEntity
  8
DRAFT
100
AcDbLine
 62
7
  6
CONTINUOUS
 10
-33.4
 20
0.0
 11
-33.5662156883
 21
0.0
  0
LINE
  5
3D5
100
AcDbEntity
  8
RACCORDO
100
AcDbLine
 62
7
  6
CONTINUOUS
 10
11.4799395409
 20
-22.2509525128
 11
11.4577828977
 21
-22.2163540208
  0
LWPOLYLINE
  5
3D6
100
AcDbEntity
  8
RACCORDO
100
AcDbPolyline
 62
250
  6
CONTINUOUS
 90
14
 70
0
 10
11.3721752668
 20
-21.9406659488
 10
11.3720314659
 20
-21.9404367126
 10
11.3718832704
 20
-21.9400836216
 10
11.3717306803
 20
-21.9396066759
 10
11.3715742508
 20
-21.9390133933
 10
11.3714134266
 20
-21.9382962559
 10
11.3712465426
 20
-21.9374327105
 10
11.3710735236
 20
-21.9364188375
 10
11.3708944448
 20
-21.9352585566
 10
11.3707078662
 20
-21.9339410728
 10
11.3705139208
 20
-21.9324621821
 10
11.3703124755
 20
-21.9308260886
 10
11.370101691
 20
-21.9290346096
 10
11.3698817611
 20
-21.9270762299
  0
LINE
  5
3D7
100
AcDbEntity
  8
RACCORDO
100
AcDbLine
 62
250
  6
CONTINUOUS
 10
11.4577828977
 20
-22.2163540208
 11
11.4529283182
 21
-22.2078488826
  0
LWPOLYLINE
  5
3D8
100
AcDbEntity
  8
RACCORDO
100
AcDbPolyline
 62
250
  6
CONTINUOUS
 90
6
 70
0
 10
-11.4381833059
 20
22.1890898516
 10
-11.4147486977
 20
22.142706679
 10
-11.3962586334
 20
22.0941391958
 10
-11.3829130139
 20
22.0439124778
 10
-11.374856122
 20
21.9925695393
 10
-11.3721750625
 20
21.9406654621
  0
LWPOLYLINE
  5
3D9
100
AcDbEntity
  8
RACCORDO
100
AcDbPolyline
 62
250
  6
CONTINUOUS
 90
6
 70
0
 10
11.4381833059
 20
-22.1890898516
 10
11.4147486977
 20
-22.142706679
 10
11.3962586334
 20
-22.0941391958
 10
11.3829130139
 20
-22.0439124778
 10
11.374856122
 20
-21.9925695393
 10
11.3721750625
 20
-21.9406654621
  0
LWPOLYLINE
  5
3DA
100
AcDbEntity
  8
RACCORDO
100
AcDbPolyline
 62
250
  6
CONTINUOUS
 90
6
 70
0
 10
-11.4529283182
 20
22.2078488826
 10
-11.4304401039
 20
22.1622214191
 10
-11.4127078555
 20
22.1145427816
 10
-11.3999152628
 20
22.0653068773
 10
-11.3921948456
 20
22.0150237454
 10
-11.3896265803
 20
21.9642142736
  0
LINE
  5
3DB
100
AcDbEntity
  8
0
100
AcDbLine
 62
7
  6
CONTINUOUS
 10
1.1817693036
 20
-12.3609251438
 11
1.1494572592
 21
-12.2265823483
  0
LWPOLYLINE
  5
3DC
100
AcDbEntity
  8
ASSI
100
AcDbPolyline
 62
7
  6
CONTINUOUS
 90
3
 70
0
 10
1.1817693036
 20
-12.3609251438
 10
1.1494572592
 20
-12.2265823483
 10
1.1013075682
 20
-12.095016859
  0
LINE
  5
3DD
100
AcDbEntity
  8
RACCORDO
100
AcDbLine
 62
250
  6
CONTINUOUS
 10
1.2457112584
 20
-12.0855169858
 11
1.2805485055
 21
-12.2320058251
  0
LWPOLYLINE
  5
3DE
100
AcDbEntity
  8
ASSI
100
AcDbPolyline
 62
250
  6
CONTINUOUS
 90
3
 70
0
 10
1.2457112584
 20
-12.0855169858
 10
1.2805485055
 20
-12.2320058251
 10
1.297478289
 20
-12.3816469231
  0
LWPOLYLINE
  5
3DF
100
AcDbEntity
  8
RACCORDO
100
AcDbPolyline
 62
250
  6
CONTINUOUS
 90
4
 70
0
 10
1.2805485055
 20
-12.2320058251
 10
1.297478289
 20
-12.3816469231
 10
1.2971992181
 20
-12.5343122439
 10
1.2797212687
 20
-12.6839077256
  0
LWPOLYLINE
  5
3E0
100
AcDbEntity
  8
0
100
AcDbPolyline
 62
7
  6
CONTINUOUS
 90
3
 70
0
 10
1.198301887
 20
-12.5184860829
 10
1.1976069502
 20
-12.4981569069
 10
1.1817693036
 20
-12.3609251438
  0
LWPOLYLINE
  5
3E1
100
AcDbEntity
  8
ASSI
100
AcDbPolyline
 62
7
  6
CONTINUOUS
 90
3
 70
0
 10
1.198301887
 20
-12.5184860829
 10
1.1976069502
 20
-12.4981569069
 10
1.1817693036
 20
-12.3609251438
  0
LWPOLYLINE
  5
3E2
100
AcDbEntity
  8
ASSI
100
AcDbPolyline
 62
250
  6
CONTINUOUS
 90
5
 70
0
 10
1.297478289
 20
-12.3816469231
 10
1.2971992181
 20
-12.5343122439
 10
1.2797212687
 20
-12.6839077256
 10
1.244344982
 20
-12.8303046151
 10
1.1917698167
 20
-12.9736310322
  0
LWPOLYLINE
  5
3E3
100
AcDbEntity
  8
RACCORDO
100
AcDbPolyline
 62
7
  6
CONTINUOUS
 90
15
 70
0
 10
1.2
 20
-12.4617407843
 10
1.1978548446
 20
-12.5334247574
 10
1.1813886096
 20
-12.6721559553
 10
1.148896639
 20
-12.8080287948
 10
1.1008226782
 20
-12.9392121804
 10
1.0378282111
 20
-13.0638967091
 10
0.9608054688
 20
-13.1803611121
 10
0.8707833789
 20
-13.2870888504
 10
0.7688765249
 20
-13.3827129025
 10
0.6561705248
 20
-13.4660839456
 10
0.5343986529
 20
-13.5358074437
 10
0.4059728016
 20
-13.5906052945
 10
0.2729913622
 20
-13.6298924168
 10
0.1370544566
 20
-13.6535022334
 10
0.0
 20
-13.6613579144
  0
LWPOLYLINE
  5
3E4
100
AcDbEntity
  8
ASSI
100
AcDbPolyline
 62
7
  6
CONTINUOUS
 90
15
 70
0
 10
1.2
 20
-12.4617407843
 10
1.1978548446
 20
-12.5334247574
 10
1.1813886096
 20
-12.6721559553
 10
1.148896639
 20
-12.8080287948
 10
1.1008226782
 20
-12.9392121804
 10
1.0378282111
 20
-13.0638967091
 10
0.9608054688
 20
-13.1803611121
 10
0.8707833789
 20
-13.2870888504
 10
0.7688765249
 20
-13.3827129025
 10
0.6561705248
 20
-13.4660839456
 10
0.5343986529
 20
-13.5358074437
 10
0.4059728016
 20
-13.5906052945
 10
0.2729913622
 20
-13.6298924168
 10
0.1370544566
 20
-13.6535022334
 10
0.0
 20
-13.6613579144
  0
LWPOLYLINE
  5
3E5
100
AcDbEntity
  8
RACCORDO
100
AcDbPolyline
 62
250
  6
CONTINUOUS
 90
3
 70
0
 10
0.9921676938
 20
-12.5056667537
 10
0.9939250858
 20
-12.4480585611
 10
0.9926916462
 20
-12.3976561491
  0
LINE
  5
3E6
100
AcDbEntity
  8
RACCORDO
100
AcDbLine
 62
250
  6
CONTINUOUS
 10
0.987037626
 20
-12.5630724224
 11
0.9921676938
 21
-12.5056667537
  0
LWPOLYLINE
  5
3E7
100
AcDbEntity
  8
0
100
AcDbPolyline
 62
7
  6
CONTINUOUS
 90
3
 70
0
 10
-1.1494572592
 20
-12.2265823483
 10
-1.1817693036
 20
-12.3609251438
 10
-1.1976069502
 20
-12.4981569069
  0
LINE
  5
3E8
100
AcDbEntity
  8
RACCORDO
100
AcDbLine
 62
250
  6
CONTINUOUS
 10
-1.2797520151
 20
-12.2275002407
 11
-1.2444042403
 21
-12.0811509459
  0
LINE
  5
3E9
100
AcDbEntity
  8
0
100
AcDbLine
 62
7
  6
CONTINUOUS
 10
-1.1013075682
 20
-12.095016859
 11
-1.1494572592
 21
-12.2265823483
  0
LWPOLYLINE
  5
3EA
100
AcDbEntity
  8
ASSI
100
AcDbPolyline
 62
7
  6
CONTINUOUS
 90
3
 70
0
 10
-1.1013075682
 20
-12.095016859
 10
-1.1494572592
 20
-12.2265823483
 10
-1.1817693036
 20
-12.3609251438
  0
LWPOLYLINE
  5
3EB
100
AcDbEntity
  8
RACCORDO
100
AcDbPolyline
 62
250
  6
CONTINUOUS
 90
4
 70
0
 10
-1.2444042403
 20
-12.0811509459
 10
-1.1918620952
 20
-11.9378885235
 10
-1.1242314661
 20
-11.8034085018
 10
-1.0409481305
 20
-11.6780883309
  0
LWPOLYLINE
  5
3EC
100
AcDbEntity
  8
ASSI
100
AcDbPolyline
 62
250
  6
CONTINUOUS
 90
4
 70
0
 10
-1.2444042403
 20
-12.0811509459
 10
-1.1918620952
 20
-11.9378885235
 10
-1.1242314661
 20
-11.8034085018
 10
-1.0409481305
 20
-11.6780883309
  0
LINE
  5
3ED
100
AcDbEntity
  8
RACCORDO
100
AcDbLine
 62
7
  6
CONTINUOUS
 10
-11.4484210433
 20
-22.2061850331
 11
-11.4353988594
 21
-22.1841887992
  0
LWPOLYLINE
  5
3EE
100
AcDbEntity
  8
RACCORDO
100
AcDbPolyline
 62
250
  6
CONTINUOUS
 90
12
 70
0
 10
-11.3721742054
 20
-21.940664527
 10
-11.3720129178
 20
-21.9404043984
 10
-11.3718456859
 20
-21.9399831114
 10
-11.3716725096
 20
-21.939400666
 10
-11.3714940597
 20
-21.9386658518
 10
-11.3713096653
 20
-21.9377698793
 10
-11.3711173146
 20
-21.9366863791
 10
-11.3709170829
 20
-21.9354111461
 10
-11.3707088948
 20
-21.9339483854
 10
-11.370490513
 20
-21.9322843441
 10
-11.3702621676
 20
-21.9304058407
 10
-11.3697719669
 20
-21.9260707827
  0
LWPOLYLINE
  5
3EF
100
AcDbEntity
  8
RACCORDO
100
AcDbPolyline
 62
7
  6
CONTINUOUS
 90
3
 70
0
 10
-11.4569086411
 20
-22.2148506185
 10
-11.4799395409
 20
-22.2509525128
 10
-11.4862834262
 20
-22.2598081257
  0
LINE
  5
3F0
100
AcDbEntity
  8
RACCORDO
100
AcDbLine
 62
7
  6
CONTINUOUS
 10
-11.4628452172
 20
-22.2279139076
 11
-11.4484210433
 21
-22.2061850331
  0
LWPOLYLINE
  5
3F1
100
AcDbEntity
  8
RACCORDO
100
AcDbPolyline
 62
250
  6
CONTINUOUS
 90
8
 70
0
 10
32.5003797951
 20
21.7214220031
 10
32.5002400376
 20
21.7213169331
 10
32.4990501233
 20
21.7121992083
 10
32.4978971139
 20
21.688451643
 10
32.4967704614
 20
21.6503083557
 10
32.4956807138
 20
21.5981448079
 10
32.4946595147
 20
21.5324743447
 10
32.4928269657
 20
21.363319326
  0
LWPOLYLINE
  5
3F2
100
AcDbEntity
  8
ASSI
100
AcDbPolyline
 62
250
  6
CONTINUOUS
 90
8
 70
0
 10
32.5003801653
 20
21.7214220206
 10
32.5002400376
 20
21.7213169331
 10
32.4990501233
 20
21.7121992083
 10
32.4978971139
 20
21.688451643
 10
32.4967704614
 20
21.6503083557
 10
32.4956807138
 20
21.5981448079
 10
32.4946595147
 20
21.5324743447
 10
32.4928269657
 20
21.363319326
  0
LINE
  5
3F3
100
AcDbEntity
  8
RACCORDO
100
AcDbLine
 62
7
  6
CONTINUOUS
 10
-11.4799395409
 20
22.2509525128
 11
-11.4577828977
 21
22.2163540208
  0
LWPOLYLINE
  5
3F4
100
AcDbEntity
  8
RACCORDO
100
AcDbPolyline
 62
250
  6
CONTINUOUS
 90
14
 70
0
 10
-11.3721752668
 20
21.9406659488
 10
-11.3720314659
 20
21.9404367126
 10
-11.3718832704
 20
21.9400836216
 10
-11.3717306803
 20
21.9396066759
 10
-11.3715742508
 20
21.9390133933
 10
-11.3714134266
 20
21.9382962559
 10
-11.3712465426
 20
21.9374327105
 10
-11.3710735236
 20
21.9364188375
 10
-11.3708944448
 20
21.9352585566
 10
-11.3707078662
 20
21.9339410728
 10
-11.3705139208
 20
21.9324621821
 10
-11.3703124755
 20
21.9308260886
 10
-11.370101691
 20
21.9290346096
 10
-11.3698817611
 20
21.9270762299
  0
LINE
  5
3F5
100
AcDbEntity
  8
RACCORDO
100
AcDbLine
 62
250
  6
CONTINUOUS
 10
-11.4577828977
 20
22.2163540208
 11
-11.4529283182
 21
22.2078488826
  0
LWPOLYLINE
  5
3F6
100
AcDbEntity
  8
RACCORDO
100
AcDbPolyline
 62
250
  6
CONTINUOUS
 90
6
 70
0
 10
11.4529283182
 20
-22.2078488826
 10
11.4304401039
 20
-22.1622214191
 10
11.4127078555
 20
-22.1145427816
 10
11.3999152628
 20
-22.0653068773
 10
11.3921948456
 20
-22.0150237454
 10
11.3896265803
 20
-21.9642142736
  0
LWPOLYLINE
  5
3F7
100
AcDbEntity
  8
RACCORDO
100
AcDbPolyline
 62
250
  6
CONTINUOUS
 90
3
 70
0
 10
1.2797212687
 20
-12.6839077256
 10
1.244344982
 20
-12.8303046151
 10
1.1917698167
 20
-12.9736310322
  0
LWPOLYLINE
  5
3F8
100
AcDbEntity
  8
RACCORDO
100
AcDbPolyline
 62
7
  6
CONTINUOUS
 90
10
 70
0
 10
11.3970600401
 20
22.0969754117
 10
11.3910645653
 20
22.0775664885
 10
11.3861408162
 20
22.0591338669
 10
11.382178316
 20
22.0418515468
 10
11.3791686913
 20
22.0265074569
 10
11.3769459332
 20
22.0133256763
 10
11.3752817637
 20
22.0019736442
 10
11.374043045
 20
21.992424098
 10
11.3731496554
 20
21.9848458973
 10
11.3715842278
 20
21.9704512019
  0
LWPOLYLINE
  5
3F9
100
AcDbEntity
  8
RACCORDO
100
AcDbPolyline
 62
7
  6
CONTINUOUS
 90
9
 70
0
 10
11.8409325555
 20
22.5623349788
 10
11.8353063924
 20
22.5466357511
 10
11.8285420224
 20
22.5317591533
 10
11.8207595862
 20
22.5177714424
 10
11.8120827293
 20
22.5047282197
 10
11.8026284315
 20
22.4926619377
 10
11.7925170935
 20
22.4816001773
 10
11.7818789333
 20
22.4715682402
 10
11.7708078026
 20
22.4625486983
  0
LWPOLYLINE
  5
3FA
100
AcDbEntity
  8
RACCORDO
100
AcDbPolyline
 62
250
  6
CONTINUOUS
 90
36
 70
0
 10
-0.8065242073
 20
-12.0327520889
 10
-0.8287409665
 20
-12.08001262
 10
-0.8481557178
 20
-12.1284630571
 10
-0.8646957784
 20
-12.1779075844
 10
-0.8783209421
 20
-12.2282090812
 10
-0.8890027135
 20
-12.2792811443
 10
-0.8966989839
 20
-12.3310045406
 10
-0.9013595284
 20
-12.3831561538
 10
-0.90295608
 20
-12.4354917556
 10
-0.9014839148
 20
-12.4878135388
 10
-0.8969487866
 20
-12.5399636304
 10
-0.8893671001
 20
-12.5917566805
 10
-0.8787670135
 20
-12.6430109777
 10
-0.8651848015
 20
-12.6935587343
 10
-0.8486641126
 20
-12.7432380096
 10
-0.8292575583
 20
-12.7918862933
 10
-0.8070323666
 20
-12.8393313966
 10
-0.7820688418
 20
-12.885402387
 10
-0.7544569289
 20
-12.9299370933
 10
-0.7242879758
 20
-12.9727916329
 10
-0.6916578595
 20
-13.0138300737
 10
-0.6566708463
 20
-13.0529187082
 10
-0.6194501729
 20
-13.0899174696
 10
-0.5801322431
 20
-13.1246912735
 10
-0.538859945
 20
-13.1571170452
 10
-0.4957666976
 20
-13.18709305
 10
-0.4509844677
 20
-13.21452747
 10
-0.4046333352
 20
-13.2393413894
 10
-0.3568992062
 20
-13.2614302503
 10
-0.3080254387
 20
-13.2806882832
 10
-0.2582349769
 20
-13.2970474683
 10
-0.2076498822
 20
-13.3104868309
 10
-0.1563681989
 20
-13.320987263
 10
-0.1045370327
 20
-13.3285166131
 10
-0.0523557544
 20
-13.3330440537
 10
0.0
 20
-13.3345546398
  0
LINE
  5
3FB
100
AcDbEntity
  8
0
100
AcDbLine
 62
7
  6
CONTINUOUS
 10
-1.0392304845
 20
-11.9714483043
 11
-1.1013075682
 21
-12.095016859
  0
LINE
  5
3FC
100
AcDbEntity
  8
ASSI
100
AcDbLine
 62
7
  6
CONTINUOUS
 10
-1.0392304845
 20
-11.9714483043
 11
-1.1013075682
 21
-12.095016859
  0
LWPOLYLINE
  5
3FD
100
AcDbEntity
  8
RACCORDO
100
AcDbPolyline
 62
7
  6
CONTINUOUS
 90
12
 70
0
 10
-0.8975275506
 20
-12.0220503821
 10
-0.8720677134
 20
-11.9724502097
 10
-0.8438413776
 20
-11.9243531997
 10
-0.8129377099
 20
-11.8779119402
 10
-0.7794545589
 20
-11.8332740607
 10
-0.7434978888
 20
-11.7905813385
 10
-0.7051813532
 20
-11.7499692245
 10
-0.6646263282
 20
-11.7115668572
 10
-0.6219615644
 20
-11.6754965573
 10
-0.577321993
 20
-11.6418727753
 10
-0.530849054
 20
-11.6108024404
 10
-0.482690697
 20
-11.5823847684
  0
LWPOLYLINE
  5
3FE
100
AcDbEntity
  8
ASSI
100
AcDbPolyline
 62
7
  6
CONTINUOUS
 90
3
 70
0
 10
-1.0379476159
 20
-11.8599384434
 10
-0.9609603888
 20
-11.7435375854
 10
-0.8647115605
 20
-11.6303215698
  0
LINE
  5
3FF
100
AcDbEntity
  8
0
100
AcDbLine
 62
7
  6
CONTINUOUS
 10
-0.9626660585
 20
-11.8561982002
 11
-1.0392304845
 21
-11.9714483043
  0
LINE
  5
400
100
AcDbEntity
  8
RACCORDO
100
AcDbLine
 62
7
  6
CONTINUOUS
 10
-11.4702685336
 20
-22.2382089476
 11
-11.4628452172
 21
-22.2279139076
  0
LINE
  5
401
100
AcDbEntity
  8
RACCORDO
100
AcDbLine
 62
250
  6
CONTINUOUS
 10
-11.3896259704
 20
-21.9642134447
 11
-11.3818696366
 21
-21.9536833718
  0
LINE
  5
402
100
AcDbEntity
  8
RACCORDO
100
AcDbLine
 62
7
  6
CONTINUOUS
 10
-11.4857407736
 20
-22.2590681146
 11
-11.4726200751
 21
-22.2413617607
  0
LINE
  5
403
100
AcDbEntity
  8
RACCORDO
100
AcDbLine
 62
7
  6
CONTINUOUS
 10
-11.4862834262
 20
-22.2598081257
 11
-11.4901416033
 21
-22.2650008331
  0
LINE
  5
404
100
AcDbEntity
  8
RACCORDO
100
AcDbLine
 62
250
  6
CONTINUOUS
 10
-11.3818696366
 20
-21.9536833718
 11
-11.3741130898
 21
-21.9432553194
  0
LINE
  5
405
100
AcDbEntity
  8
RACCORDO
100
AcDbLine
 62
250
  6
CONTINUOUS
 10
-11.3741130898
 20
-21.9432553194
 11
-11.3721742054
 21
-21.940664527
  0
LINE
  5
406
100
AcDbEntity
  8
RACCORDO
100
AcDbLine
 62
7
  6
CONTINUOUS
 10
-11.4726200751
 20
-22.2413617607
 11
-11.4702685336
 21
-22.2382089476
  0
LINE
  5
407
100
AcDbEntity
  8
RACCORDO
100
AcDbLine
 62
7
  6
CONTINUOUS
 10
-11.512494468
 20
-22.2925958511
 11
-11.4901387484
 21
-22.265003001
  0
LWPOLYLINE
  5
408
100
AcDbEntity
  8
RACCORDO
100
AcDbPolyline
 62
250
  6
CONTINUOUS
 90
7
 70
0
 10
-30.7500000186
 20
-22.6218524218
 10
-30.7514058954
 20
-22.6226953667
 10
-30.7555882367
 20
-22.6235120145
 10
-30.7624713628
 20
-22.6242992401
 10
-30.7719469403
 20
-22.6250644537
 10
-30.7838855003
 20
-22.6258002451
 10
-30.79814718
 20
-22.626484384
  0
LWPOLYLINE
  5
409
100
AcDbEntity
  8
RACCORDO
100
AcDbPolyline
 62
250
  6
CONTINUOUS
 90
12
 70
0
 10
-33.2893673092
 20
-19.6343360352
 10
-33.2808766688
 20
-19.6304797771
 10
-33.2591433174
 20
-19.6267124692
 10
-33.2245309309
 20
-19.6230971518
 10
-33.1776186967
 20
-19.6196943222
 10
-33.1191916226
 20
-19.6165609215
 10
-33.0502273999
 20
-19.6137493827
 10
-32.9718800438
 20
-19.6113067528
 10
-32.8854605826
 20
-19.6092739056
 10
-32.7924151194
 20
-19.6076848573
 10
-32.6943006336
 20
-19.606566198
 10
-32.5927589276
 20
-19.605936647
  0
LWPOLYLINE
  5
40A
100
AcDbEntity
  8
ASSI
100
AcDbPolyline
 62
250
  6
CONTINUOUS
 90
12
 70
0
 10
-33.2893673092
 20
-19.6343360352
 10
-33.2808766688
 20
-19.6304797771
 10
-33.2591433174
 20
-19.6267124692
 10
-33.2245309309
 20
-19.6230971518
 10
-33.1776186967
 20
-19.6196943222
 10
-33.1191916226
 20
-19.6165609215
 10
-33.0502273999
 20
-19.6137493827
 10
-32.9718800438
 20
-19.6113067528
 10
-32.8854605826
 20
-19.6092739056
 10
-32.7924151194
 20
-19.6076848573
 10
-32.6943006336
 20
-19.606566198
 10
-32.5927589276
 20
-19.605936647
  0
LINE
  5
40B
100
AcDbEntity
  8
RACCORDO
100
AcDbLine
 62
7
  6
CONTINUOUS
 10
-11.4907724398
 20
22.2658364642
 11
-11.5144842293
 21
22.2948618356
  0
LINE
  5
40C
100
AcDbEntity
  8
RACCORDO
100
AcDbLine
 62
7
  6
CONTINUOUS
 10
-11.478051423
 20
22.2480041407
 11
-11.471958467
 21
22.2404790742
  0
LINE
  5
40D
100
AcDbEntity
  8
RACCORDO
100
AcDbLine
 62
7
  6
CONTINUOUS
 10
-11.4907723414
 20
22.265836535
 11
-11.4862834265
 21
22.2598081261
  0
LINE
  5
40E
100
AcDbEntity
  8
RACCORDO
100
AcDbLine
 62
7
  6
CONTINUOUS
 10
-11.4702939314
 20
22.2382445812
 11
-11.4782468872
 21
22.2489115284
  0
LINE
  5
40F
100
AcDbEntity
  8
RACCORDO
100
AcDbLine
 62
250
  6
CONTINUOUS
 10
-11.3799303009
 20
21.9510665671
 11
-11.3721752668
 21
21.9406659488
  0
LWPOLYLINE
  5
410
100
AcDbEntity
  8
RACCORDO
100
AcDbPolyline
 62
7
  6
CONTINUOUS
 90
3
 70
0
 10
-11.4782468872
 20
22.2489115284
 10
-11.4857407715
 20
22.2590681118
 10
-11.4862834265
 20
22.2598081261
  0
LWPOLYLINE
  5
411
100
AcDbEntity
  8
RACCORDO
100
AcDbPolyline
 62
250
  6
CONTINUOUS
 90
3
 70
0
 10
-11.3896248458
 20
21.964211916
 10
-11.3876863807
 20
21.9615706094
 10
-11.3799303009
 20
21.9510665671
  0
LWPOLYLINE
  5
412
100
AcDbEntity
  8
RACCORDO
100
AcDbPolyline
 62
250
  6
CONTINUOUS
 90
3
 70
0
 10
-11.4666210315
 20
22.2332203408
 10
-11.4663091003
 20
22.2327872527
 10
-11.4381833059
 20
22.1890898516
  0
LINE
  5
413
100
AcDbEntity
  8
RACCORDO
100
AcDbLine
 62
7
  6
CONTINUOUS
 10
-11.4862834265
 20
22.2598081261
 11
-11.4799395409
 21
22.2509525128
  0
LWPOLYLINE
  5
414
100
AcDbEntity
  8
RACCORDO
100
AcDbPolyline
 62
7
  6
CONTINUOUS
 90
10
 70
0
 10
11.392610068
 20
-22.0828421494
 10
11.3982778436
 20
-22.1006104891
 10
11.4049136629
 20
-22.1189899632
 10
11.4126327169
 20
-22.1379764118
 10
11.4213499682
 20
-22.1571157463
 10
11.4310717178
 20
-22.1762696032
 10
11.4418806764
 20
-22.1954577793
 10
11.4537335813
 20
-22.214477295
 10
11.4666210315
 20
-22.2332203408
 10
11.4702939314
 20
-22.2382445812
  0
LINE
  5
415
100
AcDbEntity
  8
DRAFT
100
AcDbLine
 62
7
  6
CONTINUOUS
 10
11.3910194026
 20
21.825
 11
11.4023651948
 21
21.9048099646
  0
LWPOLYLINE
  5
416
100
AcDbEntity
  8
RACCORDO
100
AcDbPolyline
 62
250
  6
CONTINUOUS
 90
8
 70
0
 10
1.1917698167
 20
-12.9736310322
 10
1.1241041248
 20
-13.1081771825
 10
1.0407834281
 20
-13.233561356
 10
0.9423722048
 20
-13.3501638381
 10
0.8326722415
 20
-13.4534171126
 10
0.7109142263
 20
-13.5428468697
 10
0.5778674711
 20
-13.6189258831
 10
0.4396416987
 20
-13.6785069822
  0
LWPOLYLINE
  5
417
100
AcDbEntity
  8
ASSI
100
AcDbPolyline
 62
250
  6
CONTINUOUS
 90
3
 70
0
 10
1.1917698167
 20
-12.9736310322
 10
1.1241041248
 20
-13.1081771825
 10
1.0407834281
 20
-13.233561356
  0
LWPOLYLINE
  5
418
100
AcDbEntity
  8
ASSI
100
AcDbPolyline
 62
7
  6
CONTINUOUS
 90
3
 70
0
 10
-0.8721742399
 20
-11.7489450307
 10
-0.9626660585
 20
-11.8561982002
 10
-1.0392304845
 20
-11.9714483043
  0
LWPOLYLINE
  5
419
100
AcDbEntity
  8
RACCORDO
100
AcDbPolyline
 62
250
  6
CONTINUOUS
 90
6
 70
0
 10
-1.0409481305
 20
-11.6780883309
 10
-0.9425763108
 20
-11.5615491358
 10
-0.8329145611
 20
-11.4583511652
 10
-0.7112087932
 20
-11.3689660672
 10
-0.5782130952
 20
-11.2929205279
 10
-0.4399882851
 20
-11.2333570192
  0
LWPOLYLINE
  5
41A
100
AcDbEntity
  8
ASSI
100
AcDbPolyline
 62
250
  6
CONTINUOUS
 90
9
 70
0
 10
-1.0409481305
 20
-11.6780883309
 10
-0.9425763108
 20
-11.5615491358
 10
-0.8329145611
 20
-11.4583511652
 10
-0.7112087932
 20
-11.3689660672
 10
-0.5782130952
 20
-11.2929205279
 10
-0.4399882851
 20
-11.2333570192
 10
-0.2985546355
 20
-11.1913226003
 10
-0.1518918738
 20
-11.1657690931
 10
0.0
 20
-11.1566962206
  0
LINE
  5
41B
100
AcDbEntity
  8
RACCORDO
100
AcDbLine
 62
250
  6
CONTINUOUS
 10
-11.3654816751
 20
-21.8978033211
 11
-11.35
 21
-21.8823164546
  0
LINE
  5
41C
100
AcDbEntity
  8
RACCORDO
100
AcDbLine
 62
250
  6
CONTINUOUS
 10
-11.4023651948
 20
-21.9346816494
 11
-11.3966454428
 21
-21.9289696893
  0
LWPOLYLINE
  5
41D
100
AcDbEntity
  8
RACCORDO
100
AcDbPolyline
 62
250
  6
CONTINUOUS
 90
8
 70
0
 10
-0.8647115605
 20
-11.6303215698
 10
-0.7691038855
 20
-11.5413054609
 10
-0.65644625
 20
-11.4579887579
 10
-0.5347227748
 20
-11.3883077154
 10
-0.4063020184
 20
-11.333516534
 10
-0.2732621466
 20
-11.2942089172
 10
-0.1372148607
 20
-11.2705769106
 10
0.0
 20
-11.26271337
  0
LINE
  5
41E
100
AcDbEntity
  8
ASSI
100
AcDbLine
 62
250
  6
CONTINUOUS
 10
-0.8647115605
 20
-11.6303215698
 11
-0.7691038855
 21
-11.5413054609
  0
LINE
  5
41F
100
AcDbEntity
  8
RACCORDO
100
AcDbLine
 62
250
  6
CONTINUOUS
 10
-11.3654814306
 20
21.8977978048
 11
-11.35
 21
21.8823164546
  0
LINE
  5
420
100
AcDbEntity
  8
RACCORDO
100
AcDbLine
 62
7
  6
CONTINUOUS
 10
-11.5144842293
 20
22.2948618356
 11
-11.5484433116
 21
22.3298055514
  0
LWPOLYLINE
  5
421
100
AcDbEntity
  8
RACCORDO
100
AcDbPolyline
 62
250
  6
CONTINUOUS
 90
3
 70
0
 10
11.3723431533
 20
-21.9762353971
 10
11.3682051904
 20
-21.9500640856
 10
11.3654814306
 20
-21.8977978048
  0
LWPOLYLINE
  5
422
100
AcDbEntity
  8
RACCORDO
100
AcDbPolyline
 62
7
  6
CONTINUOUS
 90
5
 70
0
 10
11.3728939218
 20
-21.9800271797
 10
11.3724277465
 20
-21.9768604412
 10
11.3718123305
 20
-21.9723132424
 10
11.37156894
 20
-21.9703217533
 10
11.3716129807
 20
-21.9707097024
  0
LINE
  5
423
100
AcDbEntity
  8
DRAFT
100
AcDbLine
 62
7
  6
CONTINUOUS
 10
11.4023651948
 20
-21.9048099646
 11
11.3931174015
 21
-21.8397580014
  0
LWPOLYLINE
  5
424
100
AcDbEntity
  8
RACCORDO
100
AcDbPolyline
 62
250
  6
CONTINUOUS
 90
8
 70
0
 10
11.3680170073
 20
-21.9101933003
 10
11.3676973701
 20
-21.9077292714
 10
11.3673644242
 20
-21.9053805523
 10
11.3670178089
 20
-21.9031617111
 10
11.3666563221
 20
-21.9012739004
 10
11.3662795631
 20
-21.8997841713
 10
11.3658879326
 20
-21.8986254727
 10
11.3654814306
 20
-21.8977978048
  0
LINE
  5
425
100
AcDbEntity
  8
RACCORDO
100
AcDbLine
 62
7
  6
CONTINUOUS
 10
11.3716129807
 20
-21.9707097024
 11
11.3726455869
 21
-21.9803105491
  0
LWPOLYLINE
  5
426
100
AcDbEntity
  8
RACCORDO
100
AcDbPolyline
 62
250
  6
CONTINUOUS
 90
3
 70
0
 10
11.3698817611
 20
-21.9270762299
 10
11.3688937028
 20
-21.917870309
 10
11.3686153925
 20
-21.915353543
  0
LINE
  5
427
100
AcDbEntity
  8
RACCORDO
100
AcDbLine
 62
7
  6
CONTINUOUS
 10
11.8495709452
 20
-22.6087662238
 11
11.849999721
 21
-22.6218538841
  0
LINE
  5
428
100
AcDbEntity
  8
RACCORDO
100
AcDbLine
 62
7
  6
CONTINUOUS
 10
11.35
 20
21.8823164546
 11
11.35
 21
21.7214221234
  0
LINE
  5
429
100
AcDbEntity
  8
RACCORDO
100
AcDbLine
 62
7
  6
CONTINUOUS
 10
11.35
 20
-21.8397580014
 11
11.35
 21
-21.8823164546
  0
LINE
  5
42A
100
AcDbEntity
  8
DRAFT
100
AcDbLine
 62
7
  6
CONTINUOUS
 10
11.3910194026
 20
21.7214221234
 11
11.3910194026
 21
21.825
  0
LINE
  5
42B
100
AcDbEntity
  8
RACCORDO
100
AcDbLine
 62
7
  6
CONTINUOUS
 10
11.4023651948
 20
21.9346816494
 11
11.4023651948
 21
21.9048099646
  0
LINE
  5
42C
100
AcDbEntity
  8
RACCORDO
100
AcDbLine
 62
7
  6
CONTINUOUS
 10
11.4023651948
 20
-21.9346816494
 11
11.4023651948
 21
-21.9048099646
  0
LWPOLYLINE
  5
42D
100
AcDbEntity
  8
RACCORDO
100
AcDbPolyline
 62
7
  6
CONTINUOUS
 90
5
 70
0
 10
11.8499997214
 20
22.6218539423
 10
11.8498236636
 20
22.6134638007
 10
11.848302132
 20
22.5958568612
 10
11.845302702
 20
22.5787758727
 10
11.8409325555
 20
22.5623349788
  0
LWPOLYLINE
  5
42E
100
AcDbEntity
  8
RACCORDO
100
AcDbPolyline
 62
250
  6
CONTINUOUS
 90
8
 70
0
 10
11.3896265802
 20
21.9642142736
 10
11.3921948455
 20
22.0150237454
 10
11.3999152628
 20
22.0653068773
 10
11.4127078555
 20
22.1145427816
 10
11.4304401039
 20
22.1622214191
 10
11.4529283182
 20
22.2078488826
 10
11.4799395408
 20
22.2509525128
 10
11.4862834271
 20
22.2598081269
  0
LWPOLYLINE
  5
42F
100
AcDbEntity
  8
RACCORDO
100
AcDbPolyline
 62
250
  6
CONTINUOUS
 90
8
 70
0
 10
11.3721750671
 20
21.9406654676
 10
11.3748561989
 20
21.9925697917
 10
11.3829131439
 20
22.0439129594
 10
11.3962587961
 20
22.0941398858
 10
11.4147488719
 20
22.1427075545
 10
11.4381834701
 20
22.1890908874
 10
11.466309233
 20
22.2327884221
 10
11.4694992262
 20
22.2371695243
  0
LWPOLYLINE
  5
430
100
AcDbEntity
  8
RACCORDO
100
AcDbPolyline
 62
250
  6
CONTINUOUS
 90
3
 70
0
 10
11.3654814306
 20
21.897797805
 10
11.3682051905
 20
21.9500640865
 10
11.3719214043
 20
21.9735679678
  0
LINE
  5
431
100
AcDbEntity
  8
RACCORDO
100
AcDbLine
 62
250
  6
CONTINUOUS
 10
11.3697211807
 20
21.9256124398
 11
11.3688808849
 21
21.91777282
  0
LWPOLYLINE
  5
432
100
AcDbEntity
  8
RACCORDO
100
AcDbPolyline
 62
250
  6
CONTINUOUS
 90
9
 70
0
 10
11.3688808849
 20
21.91777282
 10
11.3682452021
 20
21.9120788969
 10
11.3679032484
 20
21.9093112017
 10
11.3675452021
 20
21.9066317637
 10
11.3671706734
 20
21.9040661476
 10
11.3667772711
 20
21.9018739809
 10
11.366364198
 20
21.9001418061
 10
11.3659322511
 20
21.8987830808
 10
11.3654814306
 20
21.897797805
  0
LWPOLYLINE
  5
433
100
AcDbEntity
  8
ASSI
100
AcDbPolyline
 62
250
  6
CONTINUOUS
 90
4
 70
0
 10
1.0407834281
 20
-13.233561356
 10
0.9423722048
 20
-13.3501638381
 10
0.8326722415
 20
-13.4534171126
 10
0.7109142263
 20
-13.5428468697
  0
LWPOLYLINE
  5
434
100
AcDbEntity
  8
ASSI
100
AcDbPolyline
 62
250
  6
CONTINUOUS
 90
7
 70
0
 10
-0.7691038855
 20
-11.5413054609
 10
-0.65644625
 20
-11.4579887579
 10
-0.5347227748
 20
-11.3883077154
 10
-0.4063020184
 20
-11.333516534
 10
-0.2732621466
 20
-11.2942089172
 10
-0.1372148607
 20
-11.2705769106
 10
0.0
 20
-11.26271337
  0
LWPOLYLINE
  5
435
100
AcDbEntity
  8
RACCORDO
100
AcDbPolyline
 62
250
  6
CONTINUOUS
 90
10
 70
0
 10
-0.4958649068
 20
-11.6860600396
 10
-0.5389950976
 20
-11.716071877
 10
-0.5802387657
 20
-11.7484865144
 10
-0.619426546
 20
-11.7831493311
 10
-0.656475661
 20
-11.8199646361
 10
-0.6913273521
 20
-11.8588674425
 10
-0.7238832906
 20
-11.8997571213
 10
-0.7540068933
 20
-11.9424718901
 10
-0.7815850691
 20
-11.9868539014
 10
-0.8065242073
 20
-12.0327520889
  0
LWPOLYLINE
  5
436
100
AcDbEntity
  8
RACCORDO
100
AcDbPolyline
 62
7
  6
CONTINUOUS
 90
10
 70
0
 10
-0.482690697
 20
-11.5823847684
 10
-0.4329992955
 20
-11.5567099276
 10
-0.381932311
 20
-11.5338595706
 10
-0.3296526912
 20
-11.5139068108
 10
-0.27632592
 20
-11.4969149447
 10
-0.2221209626
 20
-11.4829380046
 10
-0.1672110401
 20
-11.4720207591
 10
-0.1117705896
 20
-11.464197871
 10
-0.0559746737
 20
-11.4594940874
 10
-0.0000000001
 20
-11.4579244579
  0
LWPOLYLINE
  5
437
100
AcDbEntity
  8
0
100
AcDbPolyline
 62
7
  6
CONTINUOUS
 90
6
 70
0
 10
-0.410424172
 20
-11.446707578
 10
-0.5378438264
 20
-11.5016827919
 10
-0.6597631238
 20
-11.5716873265
 10
-0.7713451316
 20
-11.6539438757
 10
-0.8721742399
 20
-11.7489450307
 10
-0.9626660585
 20
-11.8561982002
  0
LWPOLYLINE
  5
438
100
AcDbEntity
  8
RACCORDO
100
AcDbPolyline
 62
250
  6
CONTINUOUS
 90
4
 70
0
 10
-0.4399882851
 20
-11.2333570192
 10
-0.2985546355
 20
-11.1913226003
 10
-0.1518918738
 20
-11.1657690931
 10
0.0
 20
-11.1566962206
  0
LWPOLYLINE
  5
439
100
AcDbEntity
  8
RACCORDO
100
AcDbPolyline
 62
250
  6
CONTINUOUS
 90
8
 70
0
 10
-33.6033544073
 20
21.9289665558
 10
-33.6038483281
 20
21.9291504935
 10
-33.6043199039
 20
21.9298393458
 10
-33.6047691347
 20
21.9310331126
 10
-33.6051949979
 20
21.9328454153
 10
-33.6055985161
 20
21.9351626325
 10
-33.6059827571
 20
21.9376439004
 10
-33.6063481682
 20
21.9402532614
  0
LWPOLYLINE
  5
43A
100
AcDbEntity
  8
RACCORDO
100
AcDbPolyline
 62
7
  6
CONTINUOUS
 90
18
 70
0
 10
-30.6205569304
 20
22.4349101299
 10
-30.6302545597
 20
22.4388132837
 10
-30.6408690267
 20
22.4438178561
 10
-30.6516376935
 20
22.4497157707
 10
-30.662469121
 20
22.4565693461
 10
-30.67298043
 20
22.4642164863
 10
-30.6830249154
 20
22.4725799811
 10
-30.6926246409
 20
22.4817093938
 10
-30.7016918726
 20
22.4915648285
 10
-30.7101464468
 20
22.5020970219
 10
-30.7179477705
 20
22.5132966939
 10
-30.7250634318
 20
22.5251787212
 10
-30.7314258399
 20
22.5377123017
 10
-30.736962727
 20
22.5508495303
 10
-30.7416182504
 20
22.5645794045
 10
-30.7453181633
 20
22.5788459881
 10
-30.7479908966
 20
22.5935852782
 10
-30.7495709452
 20
22.6087662238
  0
LWPOLYLINE
  5
43B
100
AcDbEntity
  8
RACCORDO
100
AcDbPolyline
 62
7
  6
CONTINUOUS
 90
13
 70
0
 10
-11.77298043
 20
22.4642164863
 10
-11.7830249154
 20
22.4725799811
 10
-11.7926246409
 20
22.4817093938
 10
-11.8016918726
 20
22.4915648285
 10
-11.8101464468
 20
22.5020970219
 10
-11.8179477705
 20
22.5132966939
 10
-11.8250634318
 20
22.5251787212
 10
-11.8314258399
 20
22.5377123017
 10
-11.836962727
 20
22.5508495303
 10
-11.8416182504
 20
22.5645794045
 10
-11.8453181633
 20
22.5788459881
 10
-11.8479908966
 20
22.5935852782
 10
-11.8495709452
 20
22.6087662238
  0
LWPOLYLINE
  5
43C
100
AcDbEntity
  8
RACCORDO
100
AcDbPolyline
 62
7
  6
CONTINUOUS
 90
4
 70
0
 10
-11.5484433116
 20
22.3298055514
 10
-11.5857070521
 20
22.3613328444
 10
-11.6259268994
 20
22.3891175297
 10
-11.6687356438
 20
22.4128785312
  0
LINE
  5
43D
100
AcDbEntity
  8
RACCORDO
100
AcDbLine
 62
250
  6
CONTINUOUS
 10
11.3686153925
 20
-21.915353543
 11
11.3680170073
 21
-21.9101933003
  0
LWPOLYLINE
  5
43E
100
AcDbEntity
  8
RACCORDO
100
AcDbPolyline
 62
7
  6
CONTINUOUS
 90
10
 70
0
 10
11.3726455869
 20
-21.9803105491
 10
11.3732916379
 20
-21.9860910183
 10
11.3741160405
 20
-21.9930173339
 10
11.3751730768
 20
-22.0011775615
 10
11.376569194
 20
-22.0108844517
 10
11.3784426578
 20
-22.0224090133
 10
11.3808879652
 20
-22.0355611691
 10
11.3839677163
 20
-22.0499928247
 10
11.3878303171
 20
-22.0657758383
 10
11.392610068
 20
-22.0828421494
  0
LWPOLYLINE
  5
43F
100
AcDbEntity
  8
RACCORDO
100
AcDbPolyline
 62
250
  6
CONTINUOUS
 90
13
 70
0
 10
14.25
 20
-23.4113248654
 10
14.2478612153
 20
-23.3830651158
 10
14.2414814566
 20
-23.3552888984
 10
14.2309698831
 20
-23.3284714719
 10
14.2165063509
 20
-23.3030716899
 10
14.1983383351
 20
-23.2795241498
 10
14.1767766953
 20
-23.2582317565
 10
14.1521903573
 20
-23.2395588287
 10
14.125
 20
-23.2238248654
 10
14.0956708581
 20
-23.2112990791
 10
14.0647047613
 20
-23.2021957895
 10
14.0326315481
 20
-23.1966707563
 10
14.0
 20
-23.1948185145
  0
LWPOLYLINE
  5
440
100
AcDbEntity
  8
RACCORDO
100
AcDbPolyline
 62
250
  6
CONTINUOUS
 90
13
 70
0
 10
11.85
 20
23.4113248654
 10
11.8521387847
 20
23.3830651158
 10
11.8585185434
 20
23.3552888984
 10
11.8690301169
 20
23.3284714719
 10
11.8834936491
 20
23.3030716899
 10
11.9016616649
 20
23.2795241498
 10
11.9232233047
 20
23.2582317565
 10
11.9478096427
 20
23.2395588287
 10
11.975
 20
23.2238248654
 10
12.0043291419
 20
23.2112990791
 10
12.0352952387
 20
23.2021957895
 10
12.0673684519
 20
23.1966707563
 10
12.1
 20
23.1948185145
  0
LWPOLYLINE
  5
441
100
AcDbEntity
  8
RACCORDO
100
AcDbPolyline
 62
250
  6
CONTINUOUS
 90
13
 70
0
 10
11.85
 20
23.8443375673
 10
11.8521387847
 20
23.8160778177
 10
11.8585185434
 20
23.7883016003
 10
11.8690301169
 20
23.7614841738
 10
11.8834936491
 20
23.7360843918
 10
11.9016616649
 20
23.7125368517
 10
11.9232233047
 20
23.6912444584
 10
11.9478096427
 20
23.6725715306
 10
11.975
 20
23.6568375673
 10
12.0043291419
 20
23.644311781
 10
12.0352952387
 20
23.6352084914
 10
12.0673684519
 20
23.6296834582
 10
12.1
 20
23.6278312164
  0
LWPOLYLINE
  5
442
100
AcDbEntity
  8
RACCORDO
100
AcDbPolyline
 62
250
  6
CONTINUOUS
 90
13
 70
0
 10
14.25
 20
-23.8443375673
 10
14.2478919019
 20
-23.8162804162
 10
14.2415843969
 20
-23.7886353736
 10
14.2311565439
 20
-23.7618755205
 10
14.2167467456
 20
-23.7364457872
 10
14.1985823711
 20
-23.7128127353
 10
14.1770036094
 20
-23.6914412243
 10
14.1524005042
 20
-23.6727113317
 10
14.1251809483
 20
-23.6569281288
 10
14.0958134558
 20
-23.6443629782
 10
14.0648028317
 20
-23.6352312672
 10
14.032681199
 20
-23.6296891235
 10
14.0
 20
-23.6278312164
  0
LINE
  5
443
100
AcDbEntity
  8
RACCORDO
100
AcDbLine
 62
7
  6
CONTINUOUS
 10
11.85
 20
-22.6218492968
 11
11.85
 21
-24.25
  0
LINE
  5
444
100
AcDbEntity
  8
RACCORDO
100
AcDbLine
 62
7
  6
CONTINUOUS
 10
11.85
 20
22.6218492968
 11
11.85
 21
24.25
  0
LINE
  5
445
100
AcDbEntity
  8
RACCORDO
100
AcDbLine
 62
250
  6
CONTINUOUS
 10
12.1000000016
 20
-22.4349101299
 11
12.1
 21
-24.5
  0
LINE
  5
446
100
AcDbEntity
  8
RACCORDO
100
AcDbLine
 62
250
  6
CONTINUOUS
 10
12.1000000001
 20
22.4349101299
 11
12.1
 21
24.5
  0
LINE
  5
447
100
AcDbEntity
  8
RACCORDO
100
AcDbLine
 62
250
  6
CONTINUOUS
 10
13.9999999999
 20
-22.4349101299
 11
14.0
 21
-24.5
  0
LINE
  5
448
100
AcDbEntity
  8
RACCORDO
100
AcDbLine
 62
250
  6
CONTINUOUS
 10
13.9999999984
 20
22.4349101299
 11
14.0
 21
24.5
  0
LWPOLYLINE
  5
449
100
AcDbEntity
  8
RACCORDO
100
AcDbPolyline
 62
250
  6
CONTINUOUS
 90
13
 70
0
 10
14.25
 20
23.8443375673
 10
14.2478919019
 20
23.8162804162
 10
14.2415843969
 20
23.7886353736
 10
14.2311565439
 20
23.7618755205
 10
14.2167467456
 20
23.7364457872
 10
14.1985823711
 20
23.7128127353
 10
14.1770036094
 20
23.6914412243
 10
14.1524005042
 20
23.6727113317
 10
14.1251809483
 20
23.6569281288
 10
14.0958134558
 20
23.6443629782
 10
14.0648028317
 20
23.6352312672
 10
14.032681199
 20
23.6296891235
 10
14.0
 20
23.6278312164
  0
LWPOLYLINE
  5
44A
100
AcDbEntity
  8
RACCORDO
100
AcDbPolyline
 62
250
  6
CONTINUOUS
 90
13
 70
0
 10
11.85
 20
-23.8443375673
 10
11.8521080981
 20
-23.8162804162
 10
11.8584156031
 20
-23.7886353736
 10
11.8688434561
 20
-23.7618755205
 10
11.8832532544
 20
-23.7364457872
 10
11.9014176289
 20
-23.7128127353
 10
11.9229963906
 20
-23.6914412243
 10
11.9475994958
 20
-23.6727113317
 10
11.9748190517
 20
-23.6569281288
 10
12.0041865442
 20
-23.6443629782
 10
12.0351971683
 20
-23.6352312672
 10
12.067318801
 20
-23.6296891235
 10
12.1
 20
-23.6278312164
  0
LWPOLYLINE
  5
44B
100
AcDbEntity
  8
RACCORDO
100
AcDbPolyline
 62
250
  6
CONTINUOUS
 90
13
 70
0
 10
14.25
 20
23.4113248654
 10
14.2478612153
 20
23.3830651158
 10
14.2414814566
 20
23.3552888984
 10
14.2309698831
 20
23.3284714719
 10
14.2165063509
 20
23.3030716899
 10
14.1983383351
 20
23.2795241498
 10
14.1767766953
 20
23.2582317565
 10
14.1521903573
 20
23.2395588287
 10
14.125
 20
23.2238248654
 10
14.0956708581
 20
23.2112990791
 10
14.0647047613
 20
23.2021957895
 10
14.0326315481
 20
23.1966707563
 10
14.0
 20
23.1948185145
  0
LWPOLYLINE
  5
44C
100
AcDbEntity
  8
RACCORDO
100
AcDbPolyline
 62
250
  6
CONTINUOUS
 90
13
 70
0
 10
11.85
 20
-23.4113248654
 10
11.8521387847
 20
-23.3830651158
 10
11.8585185434
 20
-23.3552888984
 10
11.8690301169
 20
-23.3284714719
 10
11.8834936491
 20
-23.3030716899
 10
11.9016616649
 20
-23.2795241498
 10
11.9232233047
 20
-23.2582317565
 10
11.9478096427
 20
-23.2395588287
 10
11.975
 20
-23.2238248654
 10
12.0043291419
 20
-23.2112990791
 10
12.0352952387
 20
-23.2021957895
 10
12.0673684519
 20
-23.1966707563
 10
12.1
 20
-23.1948185145
  0
LWPOLYLINE
  5
44D
100
AcDbEntity
  8
RACCORDO
100
AcDbPolyline
 62
250
  6
CONTINUOUS
 90
14
 70
0
 10
11.392713226
 20
-21.9479205229
 10
11.3921103221
 20
-21.9530697012
 10
11.3918393399
 20
-21.9552430069
 10
11.3915878163
 20
-21.9571817362
 10
11.3913493948
 20
-21.9588765315
 10
11.3911233557
 20
-21.9603145312
 10
11.3909104188
 20
-21.9615085969
 10
11.3907063871
 20
-21.9624879559
 10
11.3905111935
 20
-21.9632513068
 10
11.3903249051
 20
-21.963799951
 10
11.3901435257
 20
-21.9641670208
 10
11.3899657233
 20
-21.9643635603
 10
11.38979283
 20
-21.9643785254
 10
11.3896248458
 20
-21.964211916
  0
LWPOLYLINE
  5
44E
100
AcDbEntity
  8
RACCORDO
100
AcDbPolyline
 62
7
  6
CONTINUOUS
 90
6
 70
0
 10
-11.7708872858
 20
-22.4626091871
 10
-11.7600117297
 20
-22.4549282717
 10
-11.7488840782
 20
-22.4481253036
 10
-11.7376844304
 20
-22.4422361506
 10
-11.7268533112
 20
-22.4373699936
 10
-11.7188808802
 20
-22.4342727212
  0
LWPOLYLINE
  5
44F
100
AcDbEntity
  8
ASSI
100
AcDbPolyline
 62
250
  6
CONTINUOUS
 90
3
 70
0
 10
0.7109142263
 20
-13.5428468697
 10
0.5778674711
 20
-13.6189258831
 10
0.4396416987
 20
-13.6785069822
  0
LWPOLYLINE
  5
450
100
AcDbEntity
  8
RACCORDO
100
AcDbPolyline
 62
7
  6
CONTINUOUS
 90
5
 70
0
 10
-11.663664238
 20
-22.4103465305
 10
-11.6216948591
 20
-22.386463203
 10
-11.5822795788
 20
-22.3586887068
 10
-11.5457685877
 20
-22.3272947971
 10
-11.512494468
 20
-22.2925958511
  0
LWPOLYLINE
  5
451
100
AcDbEntity
  8
RACCORDO
100
AcDbPolyline
 62
250
  6
CONTINUOUS
 90
3
 70
0
 10
0.4396416987
 20
-13.6785069822
 10
0.2982734831
 20
-13.7205407311
 10
0.1517262502
 20
-13.7460755784
  0
LWPOLYLINE
  5
452
100
AcDbEntity
  8
ASSI
100
AcDbPolyline
 62
250
  6
CONTINUOUS
 90
4
 70
0
 10
0.4396416987
 20
-13.6785069822
 10
0.2982734831
 20
-13.7205407311
 10
0.1517262502
 20
-13.7460755784
 10
0.0
 20
-13.7551112824
  0
LWPOLYLINE
  5
453
100
AcDbEntity
  8
RACCORDO
100
AcDbPolyline
 62
250
  6
CONTINUOUS
 90
13
 70
0
 10
11.3920949617
 20
21.9531979184
 10
11.3918317775
 20
21.9553048977
 10
11.3915834589
 20
21.9572151371
 10
11.3913465968
 20
21.958894034
 10
11.3911209795
 20
21.9603248074
 10
11.3909068187
 20
21.9615242382
 10
11.3907013407
 20
21.9625080672
 10
11.3905043774
 20
21.9632705401
 10
11.3903160969
 20
21.9638174113
 10
11.3901342305
 20
21.9641816843
 10
11.3899580221
 20
21.9643743606
 10
11.3897882279
 20
21.9643844387
 10
11.3896248479
 20
21.9642119188
  0
LINE
  5
454
100
AcDbEntity
  8
RACCORDO
100
AcDbLine
 62
250
  6
CONTINUOUS
 10
11.3936518318
 20
21.9402532614
 11
11.3929771165
 21
21.9457311438
  0
LINE
  5
455
100
AcDbEntity
  8
RACCORDO
100
AcDbLine
 62
250
  6
CONTINUOUS
 10
11.3929771165
 20
21.9457311438
 11
11.3920949617
 21
21.9531979184
  0
LINE
  5
456
100
AcDbEntity
  8
RACCORDO
100
AcDbLine
 62
7
  6
CONTINUOUS
 10
14.2504290548
 20
22.6087662238
 11
14.250000279
 21
22.6218538841
  0
LINE
  5
457
100
AcDbEntity
  8
RACCORDO
100
AcDbLine
 62
7
  6
CONTINUOUS
 10
14.25
 20
-22.6218492968
 11
14.25
 21
-24.25
  0
LINE
  5
458
100
AcDbEntity
  8
RACCORDO
100
AcDbLine
 62
7
  6
CONTINUOUS
 10
14.25
 20
22.6218492968
 11
14.25
 21
24.25
  0
LWPOLYLINE
  5
459
100
AcDbEntity
  8
RACCORDO
100
AcDbPolyline
 62
7
  6
CONTINUOUS
 90
5
 70
0
 10
14.2500002786
 20
-22.6218539423
 10
14.2501763364
 20
-22.6134638007
 10
14.251697868
 20
-22.5958568612
 10
14.254697298
 20
-22.5787758727
 10
14.2590674445
 20
-22.5623349788
  0
LWPOLYLINE
  5
45A
100
AcDbEntity
  8
RACCORDO
100
AcDbPolyline
 62
7
  6
CONTINUOUS
 90
3
 70
0
 10
-11.7188574112
 20
-22.4342644365
 10
-11.707809302
 20
-22.4300988096
 10
-11.663664238
 20
-22.4103465305
  0
LWPOLYLINE
  5
45B
100
AcDbEntity
  8
RACCORDO
100
AcDbPolyline
 62
7
  6
CONTINUOUS
 90
3
 70
0
 10
-11.6687356438
 20
22.4128785312
 10
-11.7137368539
 20
22.4323690199
 10
-11.7188669704
 20
22.4342661985
  0
LWPOLYLINE
  5
45C
100
AcDbEntity
  8
0
100
AcDbPolyline
 62
7
  6
CONTINUOUS
 90
10
 70
0
 43
0.3500000006
 10
1.0714285848
 20
33.7500009155
 10
1.1428571477
 20
33.6071430817
 10
1.1428571477
 20
33.5357164307
 10
1.0000000219
 20
33.3928585968
 10
0.9285714591
 20
33.3928585968
 10
0.8571428254
 20
33.4642852478
 10
0.8571428254
 20
33.5357164307
 10
0.9285714591
 20
33.6785697327
 10
1.0000000219
 20
33.7500009155
 10
1.0714285848
 20
33.7500009155
  0
LINE
  5
45D
100
AcDbEntity
  8
RACCORDO
100
AcDbLine
 62
7
  6
CONTINUOUS
 10
18.0971367614
 20
-23.8
 11
18.0971367614
 21
-22.4349101299
  0
LINE
  5
45E
100
AcDbEntity
  8
RACCORDO
100
AcDbLine
 62
7
  6
CONTINUOUS
 10
18.0971367614
 20
22.4349101299
 11
18.0971367614
 21
23.8
  0
LINE
  5
45F
100
AcDbEntity
  8
RACCORDO
100
AcDbLine
 62
250
  6
CONTINUOUS
 10
18.5971284682
 20
-23.8
 11
18.5971284682
 21
-22.4349101299
  0
LINE
  5
460
100
AcDbEntity
  8
RACCORDO
100
AcDbLine
 62
250
  6
CONTINUOUS
 10
18.5971284682
 20
22.4349101299
 11
18.5971284682
 21
23.8
  0
LWPOLYLINE
  5
461
100
AcDbEntity
  8
RACCORDO
100
AcDbPolyline
 62
7
  6
CONTINUOUS
 90
7
 70
0
 10
-11.7188557337
 20
22.4342621341
 10
-11.7198825516
 20
22.4346387023
 10
-11.7302545597
 20
22.4388132837
 10
-11.7408690267
 20
22.4438178561
 10
-11.7516376935
 20
22.4497157707
 10
-11.762469121
 20
22.4565693461
 10
-11.77298043
 20
22.4642164863
  0
LWPOLYLINE
  5
462
100
AcDbEntity
  8
RACCORDO
100
AcDbPolyline
 62
7
  6
CONTINUOUS
 90
14
 70
0
 10
14.2590674445
 20
-22.5623349788
 10
14.2646936076
 20
-22.5466357511
 10
14.2714579776
 20
-22.5317591533
 10
14.2792404138
 20
-22.5177714424
 10
14.2879172707
 20
-22.5047282197
 10
14.2973715685
 20
-22.4926619377
 10
14.3074829065
 20
-22.4816001773
 10
14.3181210667
 20
-22.4715682402
 10
14.3291921974
 20
-22.4625486983
 10
14.3405722239
 20
-22.4545454407
 10
14.3520765471
 20
-22.447583299
 10
14.3637629751
 20
-22.4415393029
 10
14.3753779298
 20
-22.4364616314
 10
14.3796182877
 20
-22.4349101299
  0
LWPOLYLINE
  5
463
100
AcDbEntity
  8
RACCORDO
100
AcDbPolyline
 62
7
  6
CONTINUOUS
 90
14
 70
0
 10
30.7409325555
 20
22.5623349788
 10
30.7353063924
 20
22.5466357511
 10
30.7285420224
 20
22.5317591533
 10
30.7207595862
 20
22.5177714424
 10
30.7120827293
 20
22.5047282197
 10
30.7026284315
 20
22.4926619377
 10
30.6925170935
 20
22.4816001773
 10
30.6818789333
 20
22.4715682402
 10
30.6708078026
 20
22.4625486983
 10
30.6594277761
 20
22.4545454407
 10
30.6479234529
 20
22.447583299
 10
30.6362370249
 20
22.4415393029
 10
30.6246220702
 20
22.4364616314
 10
30.6203817123
 20
22.4349101299
  0
LWPOLYLINE
  5
464
100
AcDbEntity
  8
ASSI
100
AcDbPolyline
 62
250
  6
CONTINUOUS
 90
4
 70
0
 10
-32.7924081777
 20
20.4675189077
 10
-32.6942957902
 20
20.4732624554
 10
-32.5927564387
 20
20.4767960064
 10
-32.4894891531
 20
20.4780604346
  0
LINE
  5
465
100
AcDbEntity
  8
RACCORDO
100
AcDbLine
 62
250
  6
CONTINUOUS
 10
33.162144344
 20
22.4306686755
 11
33.2039756585
 21
22.4329524976
  0
LWPOLYLINE
  5
466
100
AcDbEntity
  8
RACCORDO
100
AcDbPolyline
 62
250
  6
CONTINUOUS
 90
3
 70
0
 10
33.2039756585
 20
22.4329524976
 10
33.2247392152
 20
22.4339334239
 10
33.2341003588
 20
22.434313232
  0
LWPOLYLINE
  5
467
100
AcDbEntity
  8
RACCORDO
100
AcDbPolyline
 62
250
  6
CONTINUOUS
 90
4
 70
0
 10
30.79814718
 20
22.626484384
 10
30.8145447859
 20
22.6271147961
 10
30.8328969174
 20
22.6276935557
 10
30.8530694665
 20
22.6282046544
  0
LWPOLYLINE
  5
468
100
AcDbEntity
  8
RACCORDO
100
AcDbPolyline
 62
250
  6
CONTINUOUS
 90
4
 70
0
 10
11.89814718
 20
22.626484384
 10
11.9145447859
 20
22.6271147961
 10
11.9328969174
 20
22.6276935557
 10
11.9530694665
 20
22.6282046544
  0
LWPOLYLINE
  5
469
100
AcDbEntity
  8
RACCORDO
100
AcDbPolyline
 62
250
  6
CONTINUOUS
 90
11
 70
0
 10
33.2341003588
 20
22.434313232
 10
33.2426267422
 20
22.434614128
 10
33.2503116614
 20
22.4348337163
 10
33.2571153298
 20
22.4349728998
 10
33.2630234901
 20
22.435040542
 10
33.2680832717
 20
22.4350457667
 10
33.2722945695
 20
22.4349940383
 10
33.2756733818
 20
22.4348871592
 10
33.2782653504
 20
22.4347252171
 10
33.2800905644
 20
22.4345103445
 10
33.2811311335
 20
22.4342668879
  0
LINE
  5
46A
100
AcDbEntity
  8
RACCORDO
100
AcDbLine
 62
250
  6
CONTINUOUS
 10
30.8530694665
 20
22.6282046544
 11
30.8980376086
 21
22.6290216622
  0
LINE
  5
46B
100
AcDbEntity
  8
RACCORDO
100
AcDbLine
 62
250
  6
CONTINUOUS
 10
11.9530694665
 20
22.6282046544
 11
11.9980376086
 21
22.6290216622
  0
LWPOLYLINE
  5
46C
100
AcDbEntity
  8
RACCORDO
100
AcDbPolyline
 62
250
  6
CONTINUOUS
 90
3
 70
0
 10
30.8980376086
 20
22.6290216622
 10
30.9477004017
 20
22.6295257018
 10
30.9736626435
 20
22.629655068
  0
LWPOLYLINE
  5
46D
100
AcDbEntity
  8
RACCORDO
100
AcDbPolyline
 62
250
  6
CONTINUOUS
 90
3
 70
0
 10
11.9980376086
 20
22.6290216622
 10
12.0477004017
 20
22.6295257018
 10
12.0736626435
 20
22.629655068
  0
LINE
  5
46E
100
AcDbEntity
  8
DRAFT
100
AcDbLine
 62
7
  6
CONTINUOUS
 10
33.6089805974
 20
19.9536487485
 11
33.4
 21
19.9536487485
  0
LINE
  5
46F
100
AcDbEntity
  8
DRAFT
100
AcDbLine
 62
7
  6
CONTINUOUS
 10
-33.4
 20
19.9536487485
 11
-33.6089805974
 21
19.9536487485
  0
LINE
  5
470
100
AcDbEntity
  8
RACCORDO
100
AcDbLine
 62
250
  6
CONTINUOUS
 10
32.4894891528
 20
20.4780700832
 11
-32.4894891528
 21
20.4780700832
  0
LINE
  5
471
100
AcDbEntity
  8
ASSI
100
AcDbLine
 62
250
  6
CONTINUOUS
 10
32.4894891528
 20
20.4780700832
 11
-32.4894891528
 21
20.4780700832
  0
LINE
  5
472
100
AcDbEntity
  8
RACCORDO
100
AcDbLine
 62
7
  6
CONTINUOUS
 10
32.5003973396
 20
21.7214221234
 11
-32.5003973491
 21
21.7214221234
  0
LINE
  5
473
100
AcDbEntity
  8
ASSI
100
AcDbLine
 62
7
  6
CONTINUOUS
 10
32.5003973396
 20
21.7214221234
 11
-32.5003973491
 21
21.7214221234
  0
LINE
  5
474
100
AcDbEntity
  8
DRAFT
100
AcDbLine
 62
7
  6
CONTINUOUS
 10
33.6089805974
 20
21.825
 11
11.3910194026
 21
21.825
  0
LINE
  5
475
100
AcDbEntity
  8
DRAFT
100
AcDbLine
 62
7
  6
CONTINUOUS
 10
-11.3910194026
 20
21.825
 11
-33.6089805974
 21
21.825
  0
LINE
  5
476
100
AcDbEntity
  8
DRAFT
100
AcDbLine
 62
7
  6
CONTINUOUS
 10
33.5976348052
 20
21.9048099646
 11
11.4023651948
 21
21.9048099646
  0
LINE
  5
477
100
AcDbEntity
  8
DRAFT
100
AcDbLine
 62
7
  6
CONTINUOUS
 10
-11.4023651948
 20
21.9048099646
 11
-33.5976348052
 21
21.9048099646
  0
LINE
  5
478
100
AcDbEntity
  8
RACCORDO
100
AcDbLine
 62
7
  6
CONTINUOUS
 10
33.0974063247
 20
22.4349101299
 11
11.9025936753
 21
22.4349101299
  0
LINE
  5
479
100
AcDbEntity
  8
RACCORDO
100
AcDbLine
 62
7
  6
CONTINUOUS
 10
-11.9025936753
 20
22.4349101299
 11
-33.0974063247
 21
22.4349101299
  0
LINE
  5
47A
100
AcDbEntity
  8
RACCORDO
100
AcDbLine
 62
250
  6
CONTINUOUS
 10
-30.9736626435
 20
22.6296550681
 11
-30.9223962423
 21
22.6293159775
  0
LINE
  5
47B
100
AcDbEntity
  8
RACCORDO
100
AcDbLine
 62
250
  6
CONTINUOUS
 10
-12.0736626435
 20
22.6296550681
 11
-12.0223962423
 21
22.6293159775
  0
LWPOLYLINE
  5
47C
100
AcDbEntity
  8
RACCORDO
100
AcDbPolyline
 62
250
  6
CONTINUOUS
 90
12
 70
0
 10
-30.9223962423
 20
22.6293159775
 10
-30.8748633208
 20
22.6286469887
 10
-30.8530694665
 20
22.6282046544
 10
-30.8328969174
 20
22.6276935558
 10
-30.8145447859
 20
22.6271147964
 10
-30.79814718
 20
22.6264843843
 10
-30.7838855003
 20
22.625800245
 10
-30.7719469403
 20
22.6250644531
 10
-30.7624713629
 20
22.6242992392
 10
-30.7555882367
 20
22.6235120136
 10
-30.7514058954
 20
22.6226953662
 10
-30.7500000177
 20
22.6218523475
  0
LWPOLYLINE
  5
47D
100
AcDbEntity
  8
RACCORDO
100
AcDbPolyline
 62
250
  6
CONTINUOUS
 90
12
 70
0
 10
-12.0223962423
 20
22.6293159775
 10
-11.9748633208
 20
22.6286469887
 10
-11.9530694665
 20
22.6282046544
 10
-11.9328969174
 20
22.6276935558
 10
-11.9145447859
 20
22.6271147964
 10
-11.89814718
 20
22.6264843843
 10
-11.8838855003
 20
22.625800245
 10
-11.8719469403
 20
22.6250644531
 10
-11.8624713629
 20
22.6242992392
 10
-11.8555882367
 20
22.6235120136
 10
-11.8514058954
 20
22.6226953662
 10
-11.8500000177
 20
22.6218523475
  0
LWPOLYLINE
  5
47E
100
AcDbEntity
  8
RACCORDO
100
AcDbPolyline
 62
250
  6
CONTINUOUS
 90
9
 70
0
 10
-33.2503868392
 20
22.4348287482
 10
-33.257147321
 20
22.4349826679
 10
-33.2631088068
 20
22.4350501346
 10
-33.2682121953
 20
22.4350504227
 10
-33.2724197457
 20
22.4350001996
 10
-33.275781289
 20
22.4348897213
 10
-33.2783677938
 20
22.4347096702
 10
-33.2802035158
 20
22.4344755384
 10
-33.2812164527
 20
22.4342358574
  0
LINE
  5
47F
100
AcDbEntity
  8
RACCORDO
100
AcDbLine
 62
250
  6
CONTINUOUS
 10
-33.2343174944
 20
22.4343505691
 11
-33.2503868392
 21
22.4348287482
  0
LINE
  5
480
100
AcDbEntity
  8
RACCORDO
100
AcDbLine
 62
250
  6
CONTINUOUS
 10
-33.2253149876
 20
22.4339734016
 11
-33.2343174944
 21
22.4343505691
  0
LINE
  5
481
100
AcDbEntity
  8
RACCORDO
100
AcDbLine
 62
250
  6
CONTINUOUS
 10
-33.205573539
 20
22.4330335969
 11
-33.2253149876
 21
22.4339734016
  0
LINE
  5
482
100
AcDbEntity
  8
RACCORDO
100
AcDbLine
 62
250
  6
CONTINUOUS
 10
-33.1621422063
 20
22.4306688853
 11
-33.205573539
 21
22.4330335969
  0
LWPOLYLINE
  5
483
100
AcDbEntity
  8
ASSI
100
AcDbPolyline
 62
250
  6
CONTINUOUS
 90
4
 70
0
 10
32.7924151264
 20
20.4675279324
 10
32.6943006385
 20
20.4732719575
 10
32.5927589301
 20
20.4768058067
 10
32.489489153
 20
20.4780703462
  0
LWPOLYLINE
  5
484
100
AcDbEntity
  8
RACCORDO
100
AcDbPolyline
 62
250
  6
CONTINUOUS
 90
10
 70
0
 10
-11.3966455927
 20
21.9289665538
 10
-11.3962332036
 20
21.9289258064
 10
-11.3958214075
 20
21.9294063209
 10
-11.3954102044
 20
21.9304080974
 10
-11.3949962262
 20
21.9320131201
 10
-11.3945828411
 20
21.9341394047
 10
-11.3941801531
 20
21.9365409986
 10
-11.3937877731
 20
21.9392533414
 10
-11.3934060902
 20
21.9422409935
 10
-11.392713226
 20
21.9479205229
  0
LINE
  5
485
100
AcDbEntity
  8
RACCORDO
100
AcDbLine
 62
250
  6
CONTINUOUS
 10
-11.837855656
 20
22.4306686755
 11
-11.7960243415
 21
22.4329524976
  0
LWPOLYLINE
  5
486
100
AcDbEntity
  8
RACCORDO
100
AcDbPolyline
 62
250
  6
CONTINUOUS
 90
3
 70
0
 10
-11.7960243415
 20
22.4329524976
 10
-11.7752607848
 20
22.4339334239
 10
-11.7658996412
 20
22.434313232
  0
LWPOLYLINE
  5
487
100
AcDbEntity
  8
ASSI
100
AcDbPolyline
 62
7
  6
CONTINUOUS
 90
14
 70
0
 10
-32.5003877644
 20
21.7214047219
 10
-32.5666554782
 20
21.7186565124
 10
-32.6682865712
 20
21.703593618
 10
-32.7647291226
 20
21.6764851444
 10
-32.8547387229
 20
21.6386753554
 10
-32.9373270288
 20
21.5915917565
 10
-33.0118641377
 20
21.5366200163
 10
-33.078101406
 20
21.4749244151
 10
-33.1354613786
 20
21.4080951522
 10
-33.1833767473
 20
21.3382684238
 10
-33.2229351828
 20
21.2652932099
 10
-33.2536114954
 20
21.1917888106
 10
-33.2746002845
 20
21.1244678679
 10
-33.2832262376
 20
21.0885762884
  0
LWPOLYLINE
  5
488
100
AcDbEntity
  8
RACCORDO
100
AcDbPolyline
 62
250
  6
CONTINUOUS
 90
4
 70
0
 10
-14.20185282
 20
22.626484384
 10
-14.1854552141
 20
22.6271147961
 10
-14.1671030826
 20
22.6276935557
 10
-14.1469305335
 20
22.6282046544
  0
LWPOLYLINE
  5
489
100
AcDbEntity
  8
RACCORDO
100
AcDbPolyline
 62
250
  6
CONTINUOUS
 90
4
 70
0
 10
-33.10185282
 20
22.626484384
 10
-33.0854552141
 20
22.6271147961
 10
-33.0671030826
 20
22.6276935557
 10
-33.0469305335
 20
22.6282046544
  0
LWPOLYLINE
  5
48A
100
AcDbEntity
  8
RACCORDO
100
AcDbPolyline
 62
7
  6
CONTINUOUS
 90
9
 70
0
 10
-32.5003874156
 20
21.7214047228
 10
-32.5577644375
 20
21.7193454213
 10
-32.6142616259
 20
21.7132616538
 10
-32.6693557185
 20
21.7033634315
 10
-32.7228082818
 20
21.6898741937
 10
-32.7744085794
 20
21.6730276983
 10
-32.8239990439
 20
21.6530536868
 10
-32.8714209353
 20
21.6301927806
 10
-32.9165377536
 20
21.6046899595
  0
LWPOLYLINE
  5
48B
100
AcDbEntity
  8
RACCORDO
100
AcDbPolyline
 62
250
  6
CONTINUOUS
 90
11
 70
0
 10
-11.7658996412
 20
22.434313232
 10
-11.7573732578
 20
22.434614128
 10
-11.7496883386
 20
22.4348337163
 10
-11.7428846702
 20
22.4349728998
 10
-11.7369765099
 20
22.435040542
 10
-11.7319167283
 20
22.4350457667
 10
-11.7277054305
 20
22.4349940383
 10
-11.7243266182
 20
22.4348871592
 10
-11.7217346496
 20
22.4347252171
 10
-11.7199094356
 20
22.4345103445
 10
-11.7188688665
 20
22.4342668879
  0
LINE
  5
48C
100
AcDbEntity
  8
RACCORDO
100
AcDbLine
 62
250
  6
CONTINUOUS
 10
-14.1469305335
 20
22.6282046544
 11
-14.1019623914
 21
22.6290216622
  0
LINE
  5
48D
100
AcDbEntity
  8
RACCORDO
100
AcDbLine
 62
250
  6
CONTINUOUS
 10
-33.0469305335
 20
22.6282046544
 11
-33.0019623914
 21
22.6290216622
  0
LINE
  5
48E
100
AcDbEntity
  8
RACCORDO
100
AcDbLine
 62
250
  6
CONTINUOUS
 10
-14.1019623914
 20
22.6290216622
 11
-14.0522995983
 21
22.6295257018
  0
LINE
  5
48F
100
AcDbEntity
  8
RACCORDO
100
AcDbLine
 62
250
  6
CONTINUOUS
 10
-33.0019623914
 20
22.6290216622
 11
-32.9522995983
 21
22.6295257018
  0
LINE
  5
490
100
AcDbEntity
  8
RACCORDO
100
AcDbLine
 62
250
  6
CONTINUOUS
 10
-14.0522995983
 20
22.6295257018
 11
-14.0
 21
22.629704076
  0
LINE
  5
491
100
AcDbEntity
  8
RACCORDO
100
AcDbLine
 62
250
  6
CONTINUOUS
 10
-32.9522995983
 20
22.6295257018
 11
-32.9
 21
22.629704076
  0
LINE
  5
492
100
AcDbEntity
  8
RACCORDO
100
AcDbLine
 62
250
  6
CONTINUOUS
 10
12.0736626435
 20
22.629655068
 11
14.0
 21
22.629704076
  0
LINE
  5
493
100
AcDbEntity
  8
RACCORDO
100
AcDbLine
 62
250
  6
CONTINUOUS
 10
30.9736626435
 20
22.629655068
 11
32.9
 21
22.629704076
  0
LINE
  5
494
100
AcDbEntity
  8
RACCORDO
100
AcDbLine
 62
250
  6
CONTINUOUS
 10
11.85
 20
22.9783121635
 11
14.25
 21
22.9783121635
  0
LINE
  5
495
100
AcDbEntity
  8
RACCORDO
100
AcDbLine
 62
250
  6
CONTINUOUS
 10
-11.85
 20
22.9783121635
 11
-14.25
 21
22.9783121635
  0
LINE
  5
496
100
AcDbEntity
  8
RACCORDO
100
AcDbLine
 62
250
  6
CONTINUOUS
 10
30.75
 20
22.9783121635
 11
33.15
 21
22.9783121635
  0
LINE
  5
497
100
AcDbEntity
  8
RACCORDO
100
AcDbLine
 62
250
  6
CONTINUOUS
 10
-30.75
 20
22.9783121635
 11
-33.15
 21
22.9783121635
  0
LINE
  5
498
100
AcDbEntity
  8
RACCORDO
100
AcDbLine
 62
250
  6
CONTINUOUS
 10
32.9
 20
23.1948185145
 11
31.0
 21
23.1948185145
  0
LINE
  5
499
100
AcDbEntity
  8
RACCORDO
100
AcDbLine
 62
250
  6
CONTINUOUS
 10
14.0
 20
23.1948185145
 11
12.1
 21
23.1948185145
  0
LINE
  5
49A
100
AcDbEntity
  8
RACCORDO
100
AcDbLine
 62
250
  6
CONTINUOUS
 10
-12.1
 20
23.1948185145
 11
-14.0
 21
23.1948185145
  0
LINE
  5
49B
100
AcDbEntity
  8
RACCORDO
100
AcDbLine
 62
250
  6
CONTINUOUS
 10
-31.0
 20
23.1948185145
 11
-32.9
 21
23.1948185145
  0
LINE
  5
49C
100
AcDbEntity
  8
RACCORDO
100
AcDbLine
 62
250
  6
CONTINUOUS
 10
-32.9
 20
23.6278312164
 11
-31.0
 21
23.6278312164
  0
LINE
  5
49D
100
AcDbEntity
  8
RACCORDO
100
AcDbLine
 62
250
  6
CONTINUOUS
 10
-14.0
 20
23.6278312164
 11
-12.1
 21
23.6278312164
  0
LINE
  5
49E
100
AcDbEntity
  8
RACCORDO
100
AcDbLine
 62
250
  6
CONTINUOUS
 10
12.1
 20
23.6278312164
 11
14.0
 21
23.6278312164
  0
LINE
  5
49F
100
AcDbEntity
  8
RACCORDO
100
AcDbLine
 62
250
  6
CONTINUOUS
 10
31.0
 20
23.6278312164
 11
32.9
 21
23.6278312164
  0
LINE
  5
4A0
100
AcDbEntity
  8
RACCORDO
100
AcDbLine
 62
7
  6
CONTINUOUS
 10
-26.9028632386
 20
23.8
 11
-18.0971367614
 21
23.8
  0
LINE
  5
4A1
100
AcDbEntity
  8
RACCORDO
100
AcDbLine
 62
7
  6
CONTINUOUS
 10
18.0971367614
 20
23.8
 11
26.9028632386
 21
23.8
  0
LINE
  5
4A2
100
AcDbEntity
  8
RACCORDO
100
AcDbLine
 62
250
  6
CONTINUOUS
 10
-11.85
 20
23.8443375673
 11
-14.25
 21
23.8443375673
  0
LINE
  5
4A3
100
AcDbEntity
  8
RACCORDO
100
AcDbLine
 62
250
  6
CONTINUOUS
 10
11.85
 20
23.8443375673
 11
14.25
 21
23.8443375673
  0
LINE
  5
4A4
100
AcDbEntity
  8
RACCORDO
100
AcDbLine
 62
250
  6
CONTINUOUS
 10
-30.75
 20
23.8443375673
 11
-33.15
 21
23.8443375673
  0
LINE
  5
4A5
100
AcDbEntity
  8
RACCORDO
100
AcDbLine
 62
250
  6
CONTINUOUS
 10
30.75
 20
23.8443375673
 11
33.15
 21
23.8443375673
  0
LINE
  5
4A6
100
AcDbEntity
  8
RACCORDO
100
AcDbLine
 62
250
  6
CONTINUOUS
 10
-11.85
 20
24.25
 11
-14.25
 21
24.25
  0
LINE
  5
4A7
100
AcDbEntity
  8
RACCORDO
100
AcDbLine
 62
250
  6
CONTINUOUS
 10
11.85
 20
24.25
 11
14.25
 21
24.25
  0
LINE
  5
4A8
100
AcDbEntity
  8
RACCORDO
100
AcDbLine
 62
250
  6
CONTINUOUS
 10
-30.75
 20
24.25
 11
-33.15
 21
24.25
  0
LINE
  5
4A9
100
AcDbEntity
  8
RACCORDO
100
AcDbLine
 62
250
  6
CONTINUOUS
 10
30.75
 20
24.25
 11
33.15
 21
24.25
  0
LINE
  5
4AA
100
AcDbEntity
  8
RACCORDO
100
AcDbLine
 62
7
  6
CONTINUOUS
 10
-32.9
 20
24.5
 11
-31.0
 21
24.5
  0
LINE
  5
4AB
100
AcDbEntity
  8
RACCORDO
100
AcDbLine
 62
7
  6
CONTINUOUS
 10
-14.0
 20
24.5
 11
-12.1
 21
24.5
  0
LINE
  5
4AC
100
AcDbEntity
  8
RACCORDO
100
AcDbLine
 62
7
  6
CONTINUOUS
 10
12.1
 20
24.5
 11
14.0
 21
24.5
  0
LINE
  5
4AD
100
AcDbEntity
  8
RACCORDO
100
AcDbLine
 62
7
  6
CONTINUOUS
 10
31.0
 20
24.5
 11
32.9
 21
24.5
  0
LINE
  5
4AE
100
AcDbEntity
  8
RACCORDO
100
AcDbLine
 62
250
  6
CONTINUOUS
 10
-32.9
 20
22.629704076
 11
-30.9736626435
 21
22.6296550681
  0
LINE
  5
4AF
100
AcDbEntity
  8
RACCORDO
100
AcDbLine
 62
250
  6
CONTINUOUS
 10
-14.0
 20
22.629704076
 11
-12.0736626435
 21
22.6296550681
  0
LINE
  5
4B0
100
AcDbEntity
  8
RACCORDO
100
AcDbLine
 62
250
  6
CONTINUOUS
 10
14.0
 20
22.629704076
 11
14.0522995983
 21
22.6295257019
  0
LINE
  5
4B1
100
AcDbEntity
  8
RACCORDO
100
AcDbLine
 62
250
  6
CONTINUOUS
 10
32.9
 20
22.629704076
 11
32.9522995983
 21
22.6295257019
  0
LINE
  5
4B2
100
AcDbEntity
  8
RACCORDO
100
AcDbLine
 62
250
  6
CONTINUOUS
 10
14.0522995983
 20
22.6295257019
 11
14.1019623914
 21
22.6290216622
  0
LINE
  5
4B3
100
AcDbEntity
  8
RACCORDO
100
AcDbLine
 62
250
  6
CONTINUOUS
 10
32.9522995983
 20
22.6295257019
 11
33.0019623914
 21
22.6290216622
  0
LWPOLYLINE
  5
4B4
100
AcDbEntity
  8
RACCORDO
100
AcDbPolyline
 62
250
  6
CONTINUOUS
 90
11
 70
0
 10
14.1019623914
 20
22.6290216622
 10
14.1469305335
 20
22.6282046544
 10
14.1671030826
 20
22.6276935558
 10
14.1854552141
 20
22.6271147964
 10
14.20185282
 20
22.6264843843
 10
14.2161144997
 20
22.625800245
 10
14.2280530597
 20
22.6250644531
 10
14.2375286371
 20
22.6242992392
 10
14.2444117633
 20
22.6235120136
 10
14.2485941046
 20
22.6226953662
 10
14.2499999823
 20
22.6218523475
  0
LWPOLYLINE
  5
4B5
100
AcDbEntity
  8
RACCORDO
100
AcDbPolyline
 62
250
  6
CONTINUOUS
 90
11
 70
0
 10
33.0019623914
 20
22.6290216622
 10
33.0469305335
 20
22.6282046544
 10
33.0671030826
 20
22.6276935558
 10
33.0854552141
 20
22.6271147964
 10
33.10185282
 20
22.6264843843
 10
33.1161144997
 20
22.625800245
 10
33.1280530597
 20
22.6250644531
 10
33.1375286371
 20
22.6242992392
 10
33.1444117633
 20
22.6235120136
 10
33.1485941046
 20
22.6226953662
 10
33.1499999823
 20
22.6218523475
  0
LWPOLYLINE
  5
4B6
100
AcDbEntity
  8
RACCORDO
100
AcDbPolyline
 62
250
  6
CONTINUOUS
 90
9
 70
0
 10
11.7496131608
 20
22.4348287482
 10
11.742852679
 20
22.4349826679
 10
11.7368911932
 20
22.4350501346
 10
11.7317878047
 20
22.4350504227
 10
11.7275802543
 20
22.4350001996
 10
11.724218711
 20
22.4348897213
 10
11.7216322062
 20
22.4347096702
 10
11.7197964842
 20
22.4344755384
 10
11.7187835473
 20
22.4342358574
  0
LINE
  5
4B7
100
AcDbEntity
  8
RACCORDO
100
AcDbLine
 62
250
  6
CONTINUOUS
 10
11.7656825056
 20
22.4343505691
 11
11.7496131608
 21
22.4348287482
  0
LINE
  5
4B8
100
AcDbEntity
  8
RACCORDO
100
AcDbLine
 62
250
  6
CONTINUOUS
 10
11.7746850124
 20
22.4339734016
 11
11.7656825056
 21
22.4343505691
  0
LINE
  5
4B9
100
AcDbEntity
  8
RACCORDO
100
AcDbLine
 62
250
  6
CONTINUOUS
 10
11.794426461
 20
22.4330335969
 11
11.7746850124
 21
22.4339734016
  0
LINE
  5
4BA
100
AcDbEntity
  8
RACCORDO
100
AcDbLine
 62
250
  6
CONTINUOUS
 10
11.8378577937
 20
22.4306688853
 11
11.794426461
 21
22.4330335969
  0
LWPOLYLINE
  5
4BB
100
AcDbEntity
  8
RACCORDO
100
AcDbPolyline
 62
250
  6
CONTINUOUS
 90
10
 70
0
 10
33.6033544073
 20
21.9289665538
 10
33.6037667964
 20
21.9289258064
 10
33.6041785925
 20
21.9294063209
 10
33.6045897956
 20
21.9304080974
 10
33.6050037738
 20
21.9320131201
 10
33.6054171589
 20
21.9341394047
 10
33.6058198469
 20
21.9365409986
 10
33.6062122269
 20
21.9392533414
 10
33.6065939098
 20
21.9422409935
 10
33.607286774
 20
21.9479205229
  0
LWPOLYLINE
  5
4BC
100
AcDbEntity
  8
RACCORDO
100
AcDbPolyline
 62
250
  6
CONTINUOUS
 90
8
 70
0
 10
11.3966455927
 20
21.9289665558
 10
11.3961516719
 20
21.9291504935
 10
11.3956800961
 20
21.9298393458
 10
11.3952308653
 20
21.9310331126
 10
11.3948050021
 20
21.9328454153
 10
11.3944014839
 20
21.9351626325
 10
11.3940172429
 20
21.9376439004
 10
11.3936518318
 20
21.9402532614
  0
LINE
  5
4BD
100
AcDbEntity
  8
RACCORDO
100
AcDbLine
 62
250
  6
CONTINUOUS
 10
26.4028715318
 20
23.8
 11
26.4028715318
 21
22.4349101299
  0
LINE
  5
4BE
100
AcDbEntity
  8
RACCORDO
100
AcDbLine
 62
250
  6
CONTINUOUS
 10
26.4028715318
 20
-22.4349101299
 11
26.4028715318
 21
-23.8
  0
LINE
  5
4BF
100
AcDbEntity
  8
RACCORDO
100
AcDbLine
 62
7
  6
CONTINUOUS
 10
26.9028632386
 20
23.8
 11
26.9028632386
 21
22.4349101299
  0
LINE
  5
4C0
100
AcDbEntity
  8
RACCORDO
100
AcDbLine
 62
7
  6
CONTINUOUS
 10
26.9028632386
 20
-22.4349101299
 11
26.9028632386
 21
-23.8
  0
LWPOLYLINE
  5
4C1
100
AcDbEntity
  8
RACCORDO
100
AcDbPolyline
 62
250
  6
CONTINUOUS
 90
7
 70
0
 10
14.2499999814
 20
-22.6218524218
 10
14.2485941046
 20
-22.6226953667
 10
14.2444117633
 20
-22.6235120145
 10
14.2375286372
 20
-22.6242992401
 10
14.2280530597
 20
-22.6250644537
 10
14.2161144997
 20
-22.6258002451
 10
14.20185282
 20
-22.626484384
  0
LWPOLYLINE
  5
4C2
100
AcDbEntity
  8
RACCORDO
100
AcDbPolyline
 62
7
  6
CONTINUOUS
 90
18
 70
0
 10
14.3794430696
 20
22.4349101299
 10
14.3697454403
 20
22.4388132837
 10
14.3591309733
 20
22.4438178561
 10
14.3483623065
 20
22.4497157707
 10
14.337530879
 20
22.4565693461
 10
14.32701957
 20
22.4642164863
 10
14.3169750846
 20
22.4725799811
 10
14.3073753591
 20
22.4817093938
 10
14.2983081274
 20
22.4915648285
 10
14.2898535532
 20
22.5020970219
 10
14.2820522295
 20
22.5132966939
 10
14.2749365682
 20
22.5251787212
 10
14.2685741601
 20
22.5377123017
 10
14.263037273
 20
22.5508495303
 10
14.2583817496
 20
22.5645794045
 10
14.2546818367
 20
22.5788459881
 10
14.2520091034
 20
22.5935852782
 10
14.2504290548
 20
22.6087662238
  0
LINE
  5
4C3
100
AcDbEntity
  8
RACCORDO
100
AcDbLine
 62
7
  6
CONTINUOUS
 10
30.7495865638
 20
-22.6090257268
 11
30.7499983757
 21
-22.6218493537
  0
LINE
  5
4C4
100
AcDbEntity
  8
RACCORDO
100
AcDbLine
 62
7
  6
CONTINUOUS
 10
30.75
 20
-22.6218492968
 11
30.75
 21
-24.25
  0
LINE
  5
4C5
100
AcDbEntity
  8
RACCORDO
100
AcDbLine
 62
7
  6
CONTINUOUS
 10
30.75
 20
22.6218492968
 11
30.75
 21
24.25
  0
LWPOLYLINE
  5
4C6
100
AcDbEntity
  8
RACCORDO
100
AcDbPolyline
 62
7
  6
CONTINUOUS
 90
5
 70
0
 10
30.7499997214
 20
22.6218539423
 10
30.7498236636
 20
22.6134638007
 10
30.748302132
 20
22.5958568612
 10
30.745302702
 20
22.5787758727
 10
30.7409325555
 20
22.5623349788
  0
LWPOLYLINE
  5
4C7
100
AcDbEntity
  8
RACCORDO
100
AcDbPolyline
 62
250
  6
CONTINUOUS
 90
14
 70
0
 10
33.607286774
 20
21.9479205229
 10
33.6078896779
 20
21.9530697012
 10
33.6081606601
 20
21.9552430069
 10
33.6084121837
 20
21.9571817362
 10
33.6086506052
 20
21.9588765315
 10
33.6088766443
 20
21.9603145312
 10
33.6090895812
 20
21.9615085969
 10
33.6092936129
 20
21.9624879559
 10
33.6094888065
 20
21.9632513068
 10
33.6096750949
 20
21.963799951
 10
33.6098564743
 20
21.9641670208
 10
33.6100342767
 20
21.9643635603
 10
33.61020717
 20
21.9643785254
 10
33.6103751542
 20
21.964211916
  0
LINE
  5
4C8
100
AcDbEntity
  8
RACCORDO
100
AcDbLine
 62
250
  6
CONTINUOUS
 10
32.5014668568
 20
-21.1508548094
 11
32.6001218439
 21
-21.8397580014
  0
LINE
  5
4C9
100
AcDbEntity
  8
ASSI
100
AcDbLine
 62
250
  6
CONTINUOUS
 10
32.5014668568
 20
-21.1508548094
 11
32.6001218439
 21
-21.8397580014
  0
LINE
  5
4CA
100
AcDbEntity
  8
RACCORDO
100
AcDbLine
 62
250
  6
CONTINUOUS
 10
33.3013450129
 20
-20.3553584695
 11
33.4
 21
-21.0442616615
  0
LINE
  5
4CB
100
AcDbEntity
  8
ASSI
100
AcDbLine
 62
250
  6
CONTINUOUS
 10
33.3013450129
 20
-20.3553584695
 11
33.4
 21
-21.0442616615
  0
LWPOLYLINE
  5
4CC
100
AcDbEntity
  8
RACCORDO
100
AcDbPolyline
 62
250
  6
CONTINUOUS
 90
13
 70
0
 10
33.6078641909
 20
-21.9528522206
 10
33.6081348587
 20
-21.9550336993
 10
33.6083890056
 20
-21.9570097411
 10
33.6086307693
 20
-21.9587432573
 10
33.6088604337
 20
-21.9602145155
 10
33.6090777149
 20
-21.9614432481
 10
33.6092858982
 20
-21.9624515631
 10
33.6094852078
 20
-21.9632358465
 10
33.6096754195
 20
-21.9637997123
 10
33.6098591462
 20
-21.9641761101
 10
33.610037259
 20
-21.964376023
 10
33.6102088868
 20
-21.9643884678
 10
33.6103740296
 20
-21.9642134447
  0
LWPOLYLINE
  5
4CD
100
AcDbEntity
  8
RACCORDO
100
AcDbPolyline
 62
250
  6
CONTINUOUS
 90
4
 70
0
 10
33.6062408032
 20
-21.9394526404
 10
33.6069489255
 20
-21.9451122519
 10
33.6072722771
 20
-21.9478018296
 10
33.6078641909
 20
-21.9528522206
  0
LWPOLYLINE
  5
4CE
100
AcDbEntity
  8
RACCORDO
100
AcDbPolyline
 62
250
  6
CONTINUOUS
 90
13
 70
0
 10
33.15
 20
-23.4113248654
 10
33.1478612153
 20
-23.3830651158
 10
33.1414814566
 20
-23.3552888984
 10
33.1309698831
 20
-23.3284714719
 10
33.1165063509
 20
-23.3030716899
 10
33.0983383351
 20
-23.2795241498
 10
33.0767766953
 20
-23.2582317565
 10
33.0521903573
 20
-23.2395588287
 10
33.025
 20
-23.2238248654
 10
32.9956708581
 20
-23.2112990791
 10
32.9647047613
 20
-23.2021957895
 10
32.9326315481
 20
-23.1966707563
 10
32.9
 20
-23.1948185145
  0
LWPOLYLINE
  5
4CF
100
AcDbEntity
  8
RACCORDO
100
AcDbPolyline
 62
250
  6
CONTINUOUS
 90
13
 70
0
 10
30.75
 20
23.4113248654
 10
30.7521387847
 20
23.3830651158
 10
30.7585185434
 20
23.3552888984
 10
30.7690301169
 20
23.3284714719
 10
30.7834936491
 20
23.3030716899
 10
30.8016616649
 20
23.2795241498
 10
30.8232233047
 20
23.2582317565
 10
30.8478096427
 20
23.2395588287
 10
30.875
 20
23.2238248654
 10
30.9043291419
 20
23.2112990791
 10
30.9352952387
 20
23.2021957895
 10
30.9673684519
 20
23.1966707563
 10
31.0
 20
23.1948185145
  0
LWPOLYLINE
  5
4D0
100
AcDbEntity
  8
RACCORDO
100
AcDbPolyline
 62
250
  6
CONTINUOUS
 90
13
 70
0
 10
33.15
 20
-23.8443375673
 10
33.1478919019
 20
-23.8162804162
 10
33.1415843969
 20
-23.7886353736
 10
33.1311565439
 20
-23.7618755205
 10
33.1167467456
 20
-23.7364457872
 10
33.0985823711
 20
-23.7128127353
 10
33.0770036094
 20
-23.6914412243
 10
33.0524005042
 20
-23.6727113317
 10
33.0251809483
 20
-23.6569281288
 10
32.9958134558
 20
-23.6443629782
 10
32.9648028317
 20
-23.6352312672
 10
32.932681199
 20
-23.6296891235
 10
32.9
 20
-23.6278312164
  0
LWPOLYLINE
  5
4D1
100
AcDbEntity
  8
RACCORDO
100
AcDbPolyline
 62
250
  6
CONTINUOUS
 90
13
 70
0
 10
30.75
 20
23.8443375673
 10
30.7521080981
 20
23.8162804162
 10
30.7584156031
 20
23.7886353736
 10
30.7688434561
 20
23.7618755205
 10
30.7832532544
 20
23.7364457872
 10
30.8014176289
 20
23.7128127353
 10
30.8229963906
 20
23.6914412243
 10
30.8475994958
 20
23.6727113317
 10
30.8748190517
 20
23.6569281288
 10
30.9041865442
 20
23.6443629782
 10
30.9351971683
 20
23.6352312672
 10
30.967318801
 20
23.6296891235
 10
31.0
 20
23.6278312164
  0
LWPOLYLINE
  5
4D2
100
AcDbEntity
  8
RACCORDO
100
AcDbPolyline
 62
250
  6
CONTINUOUS
 90
6
 70
0
 10
33.2955650616
 20
-20.2312204468
 10
33.2966547944
 20
-20.2687349022
 10
33.2977808526
 20
-20.3000147813
 10
33.2989325808
 20
-20.3246972536
 10
33.3001206342
 20
-20.3431451496
 10
33.3013450129
 20
-20.3553584695
  0
LWPOLYLINE
  5
4D3
100
AcDbEntity
  8
ASSI
100
AcDbPolyline
 62
250
  6
CONTINUOUS
 90
6
 70
0
 10
33.2955650616
 20
-20.2312204468
 10
33.2966547944
 20
-20.2687349022
 10
33.2977808526
 20
-20.3000147813
 10
33.2989325808
 20
-20.3246972536
 10
33.3001206342
 20
-20.3431451496
 10
33.3013450129
 20
-20.3553584695
  0
LWPOLYLINE
  5
4D4
100
AcDbEntity
  8
RACCORDO
100
AcDbPolyline
 62
250
  6
CONTINUOUS
 90
4
 70
0
 10
32.4979011664
 20
-21.0321516186
 10
32.4990531731
 20
-21.0858046285
 10
32.5002417366
 20
-21.1254991595
 10
32.5014668568
 20
-21.1508548094
  0
LWPOLYLINE
  5
4D5
100
AcDbEntity
  8
ASSI
100
AcDbPolyline
 62
250
  6
CONTINUOUS
 90
4
 70
0
 10
32.4979011664
 20
-21.0321516186
 10
32.4990531731
 20
-21.0858046285
 10
32.5002417366
 20
-21.1254991595
 10
32.5014668568
 20
-21.1508548094
  0
LINE
  5
4D6
100
AcDbEntity
  8
RACCORDO
100
AcDbLine
 62
250
  6
CONTINUOUS
 10
33.293592591
 20
-20.1406039925
 11
33.2955650616
 21
-20.2312204468
  0
LINE
  5
4D7
100
AcDbEntity
  8
ASSI
100
AcDbLine
 62
250
  6
CONTINUOUS
 10
33.293592591
 20
-20.1406039925
 11
33.2955650616
 21
-20.2312204468
  0
LINE
  5
4D8
100
AcDbEntity
  8
RACCORDO
100
AcDbLine
 62
250
  6
CONTINUOUS
 10
33.2919210116
 20
-20.0307902792
 11
33.293592591
 21
-20.1406039925
  0
LINE
  5
4D9
100
AcDbEntity
  8
ASSI
100
AcDbLine
 62
250
  6
CONTINUOUS
 10
33.2919210116
 20
-20.0307902792
 11
33.293592591
 21
-20.1406039925
  0
LINE
  5
4DA
100
AcDbEntity
  8
RACCORDO
100
AcDbLine
 62
250
  6
CONTINUOUS
 10
32.4956856585
 20
-20.8851649734
 11
32.4979011664
 21
-21.0321516186
  0
LINE
  5
4DB
100
AcDbEntity
  8
ASSI
100
AcDbLine
 62
250
  6
CONTINUOUS
 10
32.4956856585
 20
-20.8851649734
 11
32.4979011664
 21
-21.0321516186
  0
LINE
  5
4DC
100
AcDbEntity
  8
RACCORDO
100
AcDbLine
 62
250
  6
CONTINUOUS
 10
32.4937137034
 20
-20.6902822287
 11
32.4956856585
 21
-20.8851649734
  0
LINE
  5
4DD
100
AcDbEntity
  8
ASSI
100
AcDbLine
 62
250
  6
CONTINUOUS
 10
32.4937137034
 20
-20.6902822287
 11
32.4956856585
 21
-20.8851649734
  0
LINE
  5
4DE
100
AcDbEntity
  8
RACCORDO
100
AcDbLine
 62
250
  6
CONTINUOUS
 10
33.2906305071
 20
-19.9063362213
 11
33.2919210116
 21
-20.0307902792
  0
LINE
  5
4DF
100
AcDbEntity
  8
ASSI
100
AcDbLine
 62
250
  6
CONTINUOUS
 10
33.2906305071
 20
-19.9063362213
 11
33.2919210116
 21
-20.0307902792
  0
LINE
  5
4E0
100
AcDbEntity
  8
RACCORDO
100
AcDbLine
 62
250
  6
CONTINUOUS
 10
32.49204254
 20
-20.4551307434
 11
32.4937137034
 21
-20.6902822287
  0
LINE
  5
4E1
100
AcDbEntity
  8
ASSI
100
AcDbLine
 62
250
  6
CONTINUOUS
 10
32.49204254
 20
-20.4551307434
 11
32.4937137034
 21
-20.6902822287
  0
LINE
  5
4E2
100
AcDbEntity
  8
RACCORDO
100
AcDbLine
 62
250
  6
CONTINUOUS
 10
32.4907518483
 20
-20.1889199524
 11
32.49204254
 21
-20.4551307434
  0
LINE
  5
4E3
100
AcDbEntity
  8
ASSI
100
AcDbLine
 62
250
  6
CONTINUOUS
 10
32.4907518483
 20
-20.1889199524
 11
32.49204254
 21
-20.4551307434
  0
LINE
  5
4E4
100
AcDbEntity
  8
RACCORDO
100
AcDbLine
 62
250
  6
CONTINUOUS
 10
33.2895147638
 20
-19.7048395505
 11
33.2906305071
 21
-19.9063362213
  0
LINE
  5
4E5
100
AcDbEntity
  8
ASSI
100
AcDbLine
 62
250
  6
CONTINUOUS
 10
33.2895147638
 20
-19.7048395505
 11
33.2906305071
 21
-19.9063362213
  0
LINE
  5
4E6
100
AcDbEntity
  8
DRAFT
100
AcDbLine
 62
7
  6
CONTINUOUS
 10
33.6089805974
 20
-19.9536487485
 11
33.5662156883
 21
0.0
  0
LWPOLYLINE
  5
4E7
100
AcDbEntity
  8
RACCORDO
100
AcDbPolyline
 62
250
  6
CONTINUOUS
 90
3
 70
0
 10
32.4848290127
 20
-15.1287057367
 10
32.4896363325
 20
-19.7543920979
 10
32.4907518483
 20
-20.1889199524
  0
LWPOLYLINE
  5
4E8
100
AcDbEntity
  8
ASSI
100
AcDbPolyline
 62
250
  6
CONTINUOUS
 90
3
 70
0
 10
32.4848290127
 20
-15.1287057367
 10
32.4896363325
 20
-19.7543920979
 10
32.4907518483
 20
-20.1889199524
  0
LWPOLYLINE
  5
4E9
100
AcDbEntity
  8
ASSI
100
AcDbPolyline
 62
250
  6
CONTINUOUS
 90
3
 70
0
 10
32.479003838
 20
-6.1860300028
 10
32.4813339078
 20
-10.6551141508
 10
32.4848290127
 20
-15.1287057367
  0
LINE
  5
4EA
100
AcDbEntity
  8
RACCORDO
100
AcDbLine
 62
250
  6
CONTINUOUS
 10
31.0
 20
-22.4349101299
 11
31.0
 21
-24.5
  0
LINE
  5
4EB
100
AcDbEntity
  8
RACCORDO
100
AcDbLine
 62
250
  6
CONTINUOUS
 10
31.0000000001
 20
22.4349101299
 11
31.0
 21
24.5
  0
LINE
  5
4EC
100
AcDbEntity
  8
RACCORDO
100
AcDbLine
 62
250
  6
CONTINUOUS
 10
32.9
 20
24.5
 11
32.8999999984
 21
22.4349101299
  0
LINE
  5
4ED
100
AcDbEntity
  8
RACCORDO
100
AcDbLine
 62
250
  6
CONTINUOUS
 10
32.8999999997
 20
-22.4349101299
 11
32.9
 21
-24.5
  0
LINE
  5
4EE
100
AcDbEntity
  8
RACCORDO
100
AcDbLine
 62
7
  6
CONTINUOUS
 10
33.15
 20
-22.6218492968
 11
33.15
 21
-24.25
  0
LINE
  5
4EF
100
AcDbEntity
  8
RACCORDO
100
AcDbLine
 62
7
  6
CONTINUOUS
 10
33.15
 20
22.6218492968
 11
33.15
 21
24.25
  0
LINE
  5
4F0
100
AcDbEntity
  8
RACCORDO
100
AcDbLine
 62
7
  6
CONTINUOUS
 10
33.4
 20
-21.0442616615
 11
33.4
 21
20.4275437282
  0
LINE
  5
4F1
100
AcDbEntity
  8
ASSI
100
AcDbLine
 62
7
  6
CONTINUOUS
 10
33.4
 20
-21.0442616615
 11
33.4
 21
20.4275437282
  0
LINE
  5
4F2
100
AcDbEntity
  8
RACCORDO
100
AcDbLine
 62
7
  6
CONTINUOUS
 10
33.5976348052
 20
21.9346816494
 11
33.5976348052
 21
21.9048099646
  0
LINE
  5
4F3
100
AcDbEntity
  8
RACCORDO
100
AcDbLine
 62
7
  6
CONTINUOUS
 10
33.5976348052
 20
-21.9346816494
 11
33.5976348052
 21
-21.9048099646
  0
LINE
  5
4F4
100
AcDbEntity
  8
DRAFT
100
AcDbLine
 62
7
  6
CONTINUOUS
 10
33.6089805974
 20
-21.825
 11
33.6089805974
 21
-19.9536487485
  0
LINE
  5
4F5
100
AcDbEntity
  8
DRAFT
100
AcDbLine
 62
7
  6
CONTINUOUS
 10
33.6089805974
 20
19.9536487485
 11
33.6089805974
 21
21.825
  0
LINE
  5
4F6
100
AcDbEntity
  8
RACCORDO
100
AcDbLine
 62
7
  6
CONTINUOUS
 10
33.65
 20
-21.8823164546
 11
33.65
 21
21.8823164546
  0
LWPOLYLINE
  5
4F7
100
AcDbEntity
  8
RACCORDO
100
AcDbPolyline
 62
250
  6
CONTINUOUS
 90
9
 70
0
 10
33.2847071711
 20
15.9316558937
 10
33.2812120682
 20
11.5121900909
 10
33.2788820006
 20
7.0842533082
 10
33.2777169691
 20
2.6468484369
 10
33.2777169728
 20
-1.7990274144
 10
33.2788820089
 20
-6.2503829198
 10
33.2812120766
 20
-10.7062209708
 10
33.2847071766
 20
-15.1675386759
 10
33.2895147638
 20
-19.7048395505
  0
LWPOLYLINE
  5
4F8
100
AcDbEntity
  8
ASSI
100
AcDbPolyline
 62
250
  6
CONTINUOUS
 90
9
 70
0
 10
33.2847071711
 20
15.9316558937
 10
33.2812120682
 20
11.5121900909
 10
33.2788820006
 20
7.0842533082
 10
33.2777169691
 20
2.6468484369
 10
33.2777169728
 20
-1.7990274144
 10
33.2788820089
 20
-6.2503829198
 10
33.2812120766
 20
-10.7062209708
 10
33.2847071766
 20
-15.1675386759
 10
33.2895147638
 20
-19.7048395505
  0
LWPOLYLINE
  5
4F9
100
AcDbEntity
  8
RACCORDO
100
AcDbPolyline
 62
250
  6
CONTINUOUS
 90
9
 70
0
 10
32.4894891528
 20
20.4780700832
 10
32.4848290139
 20
16.0569221196
 10
32.4813339095
 20
11.6253059877
 10
32.4790038397
 20
7.1842106784
 10
32.4778388044
 20
2.7346274679
 10
32.4778388036
 20
-1.7224508131
 10
32.479003838
 20
-6.1860300028
 10
32.4813339078
 20
-10.6551141508
 10
32.4848290127
 20
-15.1287057367
  0
LWPOLYLINE
  5
4FA
100
AcDbEntity
  8
ASSI
100
AcDbPolyline
 62
250
  6
CONTINUOUS
 90
7
 70
0
 10
32.4894891528
 20
20.4780700832
 10
32.4848290139
 20
16.0569221196
 10
32.4813339095
 20
11.6253059877
 10
32.4790038397
 20
7.1842106784
 10
32.4778388044
 20
2.7346274679
 10
32.4778388036
 20
-1.7224508131
 10
32.479003838
 20
-6.1860300028
  0
LINE
  5
4FB
100
AcDbEntity
  8
DRAFT
100
AcDbLine
 62
7
  6
CONTINUOUS
 10
33.5662156883
 20
0.0
 11
33.6089805974
 21
19.9536487485
  0
LINE
  5
4FC
100
AcDbEntity
  8
RACCORDO
100
AcDbLine
 62
250
  6
CONTINUOUS
 10
32.4902631729
 20
20.8993721756
 11
32.4894891526
 21
20.4780700832
  0
LINE
  5
4FD
100
AcDbEntity
  8
ASSI
100
AcDbLine
 62
250
  6
CONTINUOUS
 10
32.4902631729
 20
20.8993721756
 11
32.4894891526
 21
20.4780700832
  0
LINE
  5
4FE
100
AcDbEntity
  8
RACCORDO
100
AcDbLine
 62
250
  6
CONTINUOUS
 10
33.2897715282
 20
20.4766977918
 11
33.2847071711
 21
15.9316558937
  0
LINE
  5
4FF
100
AcDbEntity
  8
ASSI
100
AcDbLine
 62
250
  6
CONTINUOUS
 10
33.2897715282
 20
20.4766977918
 11
33.2847071711
 21
15.9316558937
  0
LINE
  5
500
100
AcDbEntity
  8
RACCORDO
100
AcDbLine
 62
250
  6
CONTINUOUS
 10
32.4913472695
 20
21.149483659
 11
32.4902631729
 21
20.8993721756
  0
LINE
  5
501
100
AcDbEntity
  8
ASSI
100
AcDbLine
 62
250
  6
CONTINUOUS
 10
32.4913472695
 20
21.149483659
 11
32.4902631729
 21
20.8993721756
  0
LINE
  5
502
100
AcDbEntity
  8
RACCORDO
100
AcDbLine
 62
250
  6
CONTINUOUS
 10
32.4928269657
 20
21.363319326
 11
32.4913472695
 21
21.149483659
  0
LINE
  5
503
100
AcDbEntity
  8
ASSI
100
AcDbLine
 62
250
  6
CONTINUOUS
 10
32.4928269657
 20
21.363319326
 11
32.4913472695
 21
21.149483659
  0
LINE
  5
504
100
AcDbEntity
  8
RACCORDO
100
AcDbLine
 62
250
  6
CONTINUOUS
 10
33.2906266836
 20
20.5990865173
 11
33.2897715282
 21
20.4766977918
  0
LINE
  5
505
100
AcDbEntity
  8
ASSI
100
AcDbLine
 62
250
  6
CONTINUOUS
 10
33.2906266836
 20
20.5990865173
 11
33.2897715282
 21
20.4766977918
  0
LINE
  5
506
100
AcDbEntity
  8
RACCORDO
100
AcDbLine
 62
250
  6
CONTINUOUS
 10
33.2919154674
 20
20.7081459066
 11
33.2906266836
 21
20.5990865173
  0
LINE
  5
507
100
AcDbEntity
  8
ASSI
100
AcDbLine
 62
250
  6
CONTINUOUS
 10
33.2919154674
 20
20.7081459066
 11
33.2906266836
 21
20.5990865173
  0
LINE
  5
508
100
AcDbEntity
  8
RACCORDO
100
AcDbLine
 62
250
  6
CONTINUOUS
 10
33.2935856565
 20
20.7980158659
 11
33.2919154674
 21
20.7081459066
  0
LWPOLYLINE
  5
509
100
AcDbEntity
  8
RACCORDO
100
AcDbPolyline
 62
250
  6
CONTINUOUS
 90
13
 70
0
 10
30.75
 20
-23.8443375673
 10
30.7521080981
 20
-23.8162804162
 10
30.7584156031
 20
-23.7886353736
 10
30.7688434561
 20
-23.7618755205
 10
30.7832532544
 20
-23.7364457872
 10
30.8014176289
 20
-23.7128127353
 10
30.8229963906
 20
-23.6914412243
 10
30.8475994958
 20
-23.6727113317
 10
30.8748190517
 20
-23.6569281288
 10
30.9041865442
 20
-23.6443629782
 10
30.9351971683
 20
-23.6352312672
 10
30.967318801
 20
-23.6296891235
 10
31.0
 20
-23.6278312164
  0
LWPOLYLINE
  5
50A
100
AcDbEntity
  8
RACCORDO
100
AcDbPolyline
 62
250
  6
CONTINUOUS
 90
13
 70
0
 10
33.15
 20
23.8443375673
 10
33.1478612153
 20
23.8160778177
 10
33.1414814566
 20
23.7883016003
 10
33.1309698831
 20
23.7614841738
 10
33.1165063509
 20
23.7360843918
 10
33.0983383351
 20
23.7125368517
 10
33.0767766953
 20
23.6912444584
 10
33.0521903573
 20
23.6725715306
 10
33.025
 20
23.6568375673
 10
32.9956708581
 20
23.644311781
 10
32.9647047613
 20
23.6352084914
 10
32.9326315481
 20
23.6296834582
 10
32.9
 20
23.6278312164
  0
LWPOLYLINE
  5
50B
100
AcDbEntity
  8
RACCORDO
100
AcDbPolyline
 62
250
  6
CONTINUOUS
 90
13
 70
0
 10
33.15
 20
23.4113248654
 10
33.1478612153
 20
23.3830651158
 10
33.1414814566
 20
23.3552888984
 10
33.1309698831
 20
23.3284714719
 10
33.1165063509
 20
23.3030716899
 10
33.0983383351
 20
23.2795241498
 10
33.0767766953
 20
23.2582317565
 10
33.0521903573
 20
23.2395588287
 10
33.025
 20
23.2238248654
 10
32.9956708581
 20
23.2112990791
 10
32.9647047613
 20
23.2021957895
 10
32.9326315481
 20
23.1966707563
 10
32.9
 20
23.1948185145
  0
LWPOLYLINE
  5
50C
100
AcDbEntity
  8
RACCORDO
100
AcDbPolyline
 62
250
  6
CONTINUOUS
 90
13
 70
0
 10
30.75
 20
-23.4113248654
 10
30.7521387847
 20
-23.3830651158
 10
30.7585185434
 20
-23.3552888984
 10
30.7690301169
 20
-23.3284714719
 10
30.7834936491
 20
-23.3030716899
 10
30.8016616649
 20
-23.2795241498
 10
30.8232233047
 20
-23.2582317565
 10
30.8478096427
 20
-23.2395588287
 10
30.875
 20
-23.2238248654
 10
30.9043291419
 20
-23.2112990791
 10
30.9352952387
 20
-23.2021957895
 10
30.9673684519
 20
-23.1966707563
 10
31.0
 20
-23.1948185145
  0
LWPOLYLINE
  5
50D
100
AcDbEntity
  8
RACCORDO
100
AcDbPolyline
 62
7
  6
CONTINUOUS
 90
3
 70
0
 10
33.2811425888
 20
-22.4342644365
 10
33.292190698
 20
-22.4300988096
 10
33.336335762
 20
-22.4103465305
  0
LWPOLYLINE
  5
50E
100
AcDbEntity
  8
0
100
AcDbPolyline
 62
7
  6
CONTINUOUS
 90
6
 70
0
 43
0.3500000006
 10
2.1428571696
 20
33.2500007629
 10
3.2142856836
 20
33.2500007629
 10
3.4285713015
 20
33.4642852478
 10
3.4285713015
 20
34.535712204
 10
3.0000000658
 20
34.9642857056
 10
2.5714285469
 20
34.9642857056
  0
LWPOLYLINE
  5
50F
100
AcDbEntity
  8
RACCORDO
100
AcDbPolyline
 62
7
  6
CONTINUOUS
 90
6
 70
0
 10
33.2801174484
 20
22.4346387023
 10
33.2697454403
 20
22.4388132837
 10
33.2591309733
 20
22.4438178561
 10
33.2483623065
 20
22.4497157707
 10
33.237530879
 20
22.4565693461
 10
33.22701957
 20
22.4642164863
  0
LINE
  5
510
100
AcDbEntity
  8
RACCORDO
100
AcDbLine
 62
7
  6
CONTINUOUS
 10
33.6283870193
 20
21.9707097024
 11
33.6273544131
 21
21.9803105491
  0
LWPOLYLINE
  5
511
100
AcDbEntity
  8
RACCORDO
100
AcDbPolyline
 62
250
  6
CONTINUOUS
 90
3
 70
0
 10
33.6301182389
 20
21.9270762299
 10
33.6311062972
 20
21.917870309
 10
33.6313846075
 20
21.915353543
  0
LWPOLYLINE
  5
512
100
AcDbEntity
  8
RACCORDO
100
AcDbPolyline
 62
250
  6
CONTINUOUS
 90
3
 70
0
 10
33.3013450129
 20
20.9202178306
 10
33.294473342
 20
21.0242047515
 10
33.2858945833
 20
21.0758352781
  0
LINE
  5
513
100
AcDbEntity
  8
ASSI
100
AcDbLine
 62
250
  6
CONTINUOUS
 10
33.3013450129
 20
20.9202178306
 11
33.294473342
 21
21.0242047515
  0
LINE
  5
514
100
AcDbEntity
  8
RACCORDO
100
AcDbLine
 62
7
  6
CONTINUOUS
 10
33.1504290548
 20
22.6087662238
 11
33.150000279
 21
22.6218538841
  0
LWPOLYLINE
  5
515
100
AcDbEntity
  8
RACCORDO
100
AcDbPolyline
 62
7
  6
CONTINUOUS
 90
5
 70
0
 10
33.1500016277
 20
-22.6218493627
 10
33.1506064102
 20
-22.6063127598
 10
33.152636808
 20
-22.5895009525
 10
33.1560069066
 20
-22.573224087
 10
33.160615615
 20
-22.5575841549
  0
LWPOLYLINE
  5
516
100
AcDbEntity
  8
RACCORDO
100
AcDbPolyline
 62
250
  6
CONTINUOUS
 90
7
 70
0
 10
33.6103734197
 20
-21.9642142737
 10
33.6078051544
 20
-22.0150237455
 10
33.6000847372
 20
-22.0653068773
 10
33.5872921445
 20
-22.1145427816
 10
33.569559896
 20
-22.1622214192
 10
33.5470716818
 20
-22.2078488826
 10
33.5430913589
 20
-22.2148506185
  0
LWPOLYLINE
  5
517
100
AcDbEntity
  8
RACCORDO
100
AcDbPolyline
 62
250
  6
CONTINUOUS
 90
8
 70
0
 10
33.6278267672
 20
-21.940662077
 10
33.625145471
 20
-21.992566246
 10
33.617088389
 20
-22.04390927
 10
33.6037426278
 20
-22.0941360695
 10
33.585252471
 20
-22.1427036329
 10
33.5618178194
 20
-22.189086887
 10
33.5336920293
 20
-22.2327843734
 10
33.5297314664
 20
-22.2382089476
  0
LWPOLYLINE
  5
518
100
AcDbEntity
  8
RACCORDO
100
AcDbPolyline
 62
250
  6
CONTINUOUS
 90
3
 70
0
 10
33.6345183249
 20
-21.8978033211
 10
33.6317942963
 20
-21.9500666513
 10
33.6280786615
 20
-21.9735665557
  0
LWPOLYLINE
  5
519
100
AcDbEntity
  8
RACCORDO
100
AcDbPolyline
 62
250
  6
CONTINUOUS
 90
13
 70
0
 10
33.3013450129
 20
-20.3553584695
 10
33.2944727999
 20
-20.4589936467
 10
33.2740372895
 20
-20.5608812453
 10
33.2403880034
 20
-20.6592786153
 10
33.1941004674
 20
-20.7525028023
 10
33.1359663674
 20
-20.8389593324
 10
33.0669800086
 20
-20.9171694832
 10
32.9883213098
 20
-20.9857955755
 10
32.9013356218
 20
-21.0436638526
 10
32.8075107177
 20
-21.0897845554
 10
32.7084513457
 20
-21.1233688514
 10
32.605851783
 20
-21.1438423264
 10
32.5014668568
 20
-21.1508548094
  0
LWPOLYLINE
  5
51A
100
AcDbEntity
  8
ASSI
100
AcDbPolyline
 62
250
  6
CONTINUOUS
 90
13
 70
0
 10
33.3013450129
 20
-20.3553584695
 10
33.2944727999
 20
-20.4589936467
 10
33.2740372895
 20
-20.5608812453
 10
33.2403880034
 20
-20.6592786153
 10
33.1941004674
 20
-20.7525028023
 10
33.1359663674
 20
-20.8389593324
 10
33.0669800086
 20
-20.9171694832
 10
32.9883213098
 20
-20.9857955755
 10
32.9013356218
 20
-21.0436638526
 10
32.8075107177
 20
-21.0897845554
 10
32.7084513457
 20
-21.1233688514
 10
32.605851783
 20
-21.1438423264
 10
32.5014668568
 20
-21.1508548094
  0
LINE
  5
51B
100
AcDbEntity
  8
RACCORDO
100
AcDbLine
 62
250
  6
CONTINUOUS
 10
33.6302280331
 20
-21.9260707827
 11
33.6313746387
 21
-21.9154493427
  0
LWPOLYLINE
  5
51C
100
AcDbEntity
  8
RACCORDO
100
AcDbPolyline
 62
250
  6
CONTINUOUS
 90
9
 70
0
 10
33.6313746387
 20
-21.9154493427
 10
33.6317005921
 20
-21.912535597
 10
33.632045279
 20
-21.909717366
 10
33.632409388
 20
-21.9069575815
 10
33.6327922303
 20
-21.9042933118
 10
33.633194478
 20
-21.9020165514
 10
33.633616355
 20
-21.9002246319
 10
33.6340576373
 20
-21.8988202218
 10
33.6345183249
 20
-21.8978033211
  0
LINE
  5
51D
100
AcDbEntity
  8
DRAFT
100
AcDbLine
 62
7
  6
CONTINUOUS
 10
33.5976348052
 20
-21.9048099646
 11
33.6089805974
 21
-21.825
  0
LWPOLYLINE
  5
51E
100
AcDbEntity
  8
RACCORDO
100
AcDbPolyline
 62
7
  6
CONTINUOUS
 90
5
 70
0
 10
33.336335762
 20
-22.4103465305
 10
33.3783051409
 20
-22.386463203
 10
33.4177204212
 20
-22.3586887068
 10
33.4542314123
 20
-22.3272947971
 10
33.487505532
 20
-22.2925958511
  0
LWPOLYLINE
  5
51F
100
AcDbEntity
  8
RACCORDO
100
AcDbPolyline
 62
7
  6
CONTINUOUS
 90
3
 70
0
 10
33.3312643562
 20
22.4128785312
 10
33.2862631461
 20
22.4323690199
 10
33.2801174484
 20
22.4346387023
  0
LWPOLYLINE
  5
520
100
AcDbEntity
  8
RACCORDO
100
AcDbPolyline
 62
7
  6
CONTINUOUS
 90
10
 70
0
 10
32.9096229242
 20
21.6088520344
 10
32.8686757087
 20
21.631622497
 10
32.8258768981
 20
21.6522204438
 10
32.7812945566
 20
21.670482185
 10
32.7350445191
 20
21.6862276535
 10
32.6872583393
 20
21.6992806076
 10
32.6380489394
 20
21.7094757006
 10
32.5875828218
 20
21.7166404344
 10
32.5360457707
 20
21.7206100118
 10
32.5003875328
 20
21.7214046641
  0
LINE
  5
521
100
AcDbEntity
  8
RACCORDO
100
AcDbLine
 62
7
  6
CONTINUOUS
 10
32.9486336075
 20
21.5840858641
 11
32.9096229242
 21
21.6088520344
  0
LINE
  5
522
100
AcDbEntity
  8
ASSI
100
AcDbLine
 62
250
  6
CONTINUOUS
 10
33.294473342
 20
21.0242047515
 11
33.2858945833
 21
21.0758352781
  0
LINE
  5
523
100
AcDbEntity
  8
DRAFT
100
AcDbLine
 62
7
  6
CONTINUOUS
 10
33.6089805974
 20
21.825
 11
33.5976348052
 21
21.9048099646
  0
LWPOLYLINE
  5
524
100
AcDbEntity
  8
RACCORDO
100
AcDbPolyline
 62
250
  6
CONTINUOUS
 90
8
 70
0
 10
33.6319829927
 20
21.9101933003
 10
33.6323026299
 20
21.9077292714
 10
33.6326355758
 20
21.9053805523
 10
33.6329821911
 20
21.9031617111
 10
33.6333436779
 20
21.9012739004
 10
33.6337204369
 20
21.8997841713
 10
33.6341120674
 20
21.8986254727
 10
33.6345185694
 20
21.8977978048
  0
LINE
  5
525
100
AcDbEntity
  8
RACCORDO
100
AcDbLine
 62
250
  6
CONTINUOUS
 10
33.6313846075
 20
21.915353543
 11
33.6319829927
 21
21.9101933003
  0
LWPOLYLINE
  5
526
100
AcDbEntity
  8
RACCORDO
100
AcDbPolyline
 62
7
  6
CONTINUOUS
 90
10
 70
0
 10
33.6273544131
 20
21.9803105491
 10
33.6267083621
 20
21.9860910183
 10
33.6258839595
 20
21.9930173339
 10
33.6248269232
 20
22.0011775615
 10
33.623430806
 20
22.0108844517
 10
33.6215573422
 20
22.0224090133
 10
33.6191120348
 20
22.0355611691
 10
33.6160322837
 20
22.0499928247
 10
33.6121696829
 20
22.0657758383
 10
33.607389932
 20
22.0828421494
  0
LWPOLYLINE
  5
527
100
AcDbEntity
  8
RACCORDO
100
AcDbPolyline
 62
7
  6
CONTINUOUS
 90
10
 70
0
 10
33.6022663767
 20
-22.09899859
 10
33.6083496485
 20
-22.0795927257
 10
33.6133496522
 20
-22.0611772254
 10
33.6173853183
 20
-22.0438933594
 10
33.6204820367
 20
-22.0284143261
 10
33.622816043
 20
-22.0148336882
 10
33.6245858658
 20
-22.0029378584
 10
33.6258923335
 20
-21.9929534887
 10
33.6268145479
 20
-21.9851567862
 10
33.6284190771
 20
-21.9704243595
  0
LWPOLYLINE
  5
528
100
AcDbEntity
  8
RACCORDO
100
AcDbPolyline
 62
7
  6
CONTINUOUS
 90
9
 70
0
 10
33.160615615
 20
-22.5575841549
 10
33.1663580014
 20
-22.5426632573
 10
33.1731262099
 20
-22.5285301498
 10
33.1808079033
 20
-22.5152451751
 10
33.1892939595
 20
-22.5028486008
 10
33.1984752579
 20
-22.4913709771
 10
33.2082382061
 20
-22.4808380598
 10
33.2184861013
 20
-22.4712494557
 10
33.2291127142
 20
-22.4626091871
  0
LWPOLYLINE
  5
529
100
AcDbEntity
  8
RACCORDO
100
AcDbPolyline
 62
7
  6
CONTINUOUS
 90
4
 70
0
 10
33.5761966197
 20
-22.1621447007
 10
33.5862614921
 20
-22.1405259469
 10
33.5949098456
 20
-22.1194504383
 10
33.6022663767
 20
-22.09899859
  0
LINE
  5
52A
100
AcDbEntity
  8
RACCORDO
100
AcDbLine
 62
7
  6
CONTINUOUS
 10
33.5646011406
 20
-22.1841887992
 11
33.5761966197
 21
-22.1621447007
  0
LINE
  5
52B
100
AcDbEntity
  8
RACCORDO
100
AcDbLine
 62
7
  6
CONTINUOUS
 10
33.5515789567
 20
-22.2061850331
 11
33.5646011406
 21
-22.1841887992
  0
LWPOLYLINE
  5
52C
100
AcDbEntity
  8
RACCORDO
100
AcDbPolyline
 62
250
  6
CONTINUOUS
 90
12
 70
0
 10
33.6278257946
 20
-21.940664527
 10
33.6279870822
 20
-21.9404043984
 10
33.6281543141
 20
-21.9399831114
 10
33.6283274904
 20
-21.939400666
 10
33.6285059403
 20
-21.9386658518
 10
33.6286903347
 20
-21.9377698793
 10
33.6288826854
 20
-21.9366863791
 10
33.6290829171
 20
-21.9354111461
 10
33.6292911052
 20
-21.9339483854
 10
33.629509487
 20
-21.9322843441
 10
33.6297378324
 20
-21.9304058407
 10
33.6302280331
 20
-21.9260707827
  0
LWPOLYLINE
  5
52D
100
AcDbEntity
  8
RACCORDO
100
AcDbPolyline
 62
7
  6
CONTINUOUS
 90
3
 70
0
 10
33.5430913589
 20
-22.2148506185
 10
33.5200604591
 20
-22.2509525128
 10
33.5137165738
 20
-22.2598081257
  0
LINE
  5
52E
100
AcDbEntity
  8
RACCORDO
100
AcDbLine
 62
7
  6
CONTINUOUS
 10
33.5371547828
 20
-22.2279139076
 11
33.5515789567
 21
-22.2061850331
  0
LINE
  5
52F
100
AcDbEntity
  8
RACCORDO
100
AcDbLine
 62
7
  6
CONTINUOUS
 10
33.5297314664
 20
-22.2382089476
 11
33.5371547828
 21
-22.2279139076
  0
LINE
  5
530
100
AcDbEntity
  8
RACCORDO
100
AcDbLine
 62
250
  6
CONTINUOUS
 10
33.6103740296
 20
-21.9642134447
 11
33.6181303634
 21
-21.9536833718
  0
LINE
  5
531
100
AcDbEntity
  8
RACCORDO
100
AcDbLine
 62
7
  6
CONTINUOUS
 10
33.5142592264
 20
-22.2590681146
 11
33.5273799249
 21
-22.2413617607
  0
LINE
  5
532
100
AcDbEntity
  8
RACCORDO
100
AcDbLine
 62
7
  6
CONTINUOUS
 10
33.5137165738
 20
-22.2598081257
 11
33.5098583967
 21
-22.2650008331
  0
LINE
  5
533
100
AcDbEntity
  8
RACCORDO
100
AcDbLine
 62
250
  6
CONTINUOUS
 10
33.6181303634
 20
-21.9536833718
 11
33.6258869102
 21
-21.9432553194
  0
LINE
  5
534
100
AcDbEntity
  8
RACCORDO
100
AcDbLine
 62
250
  6
CONTINUOUS
 10
33.6258869102
 20
-21.9432553194
 11
33.6278257946
 21
-21.940664527
  0
LINE
  5
535
100
AcDbEntity
  8
RACCORDO
100
AcDbLine
 62
7
  6
CONTINUOUS
 10
33.5273799249
 20
-22.2413617607
 11
33.5297314664
 21
-22.2382089476
  0
LINE
  5
536
100
AcDbEntity
  8
RACCORDO
100
AcDbLine
 62
7
  6
CONTINUOUS
 10
33.487505532
 20
-22.2925958511
 11
33.5098612516
 21
-22.265003001
  0
LINE
  5
537
100
AcDbEntity
  8
RACCORDO
100
AcDbLine
 62
250
  6
CONTINUOUS
 10
33.6345183249
 20
-21.8978033211
 11
33.65
 21
-21.8823164546
  0
LINE
  5
538
100
AcDbEntity
  8
RACCORDO
100
AcDbLine
 62
250
  6
CONTINUOUS
 10
33.5976348052
 20
-21.9346816494
 11
33.6033545572
 21
-21.9289696893
  0
LWPOLYLINE
  5
539
100
AcDbEntity
  8
RACCORDO
100
AcDbPolyline
 62
7
  6
CONTINUOUS
 90
6
 70
0
 10
33.2291127142
 20
-22.4626091871
 10
33.2399882703
 20
-22.4549282717
 10
33.2511159218
 20
-22.4481253036
 10
33.2623155696
 20
-22.4422361506
 10
33.2731466888
 20
-22.4373699936
 10
33.2811191198
 20
-22.4342727212
  0
LWPOLYLINE
  5
53A
100
AcDbEntity
  8
RACCORDO
100
AcDbPolyline
 62
7
  6
CONTINUOUS
 90
13
 70
0
 10
33.22701957
 20
22.4642164863
 10
33.2169750846
 20
22.4725799811
 10
33.2073753591
 20
22.4817093938
 10
33.1983081274
 20
22.4915648285
 10
33.1898535532
 20
22.5020970219
 10
33.1820522295
 20
22.5132966939
 10
33.1749365682
 20
22.5251787212
 10
33.1685741601
 20
22.5377123017
 10
33.163037273
 20
22.5508495303
 10
33.1583817496
 20
22.5645794045
 10
33.1546818367
 20
22.5788459881
 10
33.1520091034
 20
22.5935852782
 10
33.1504290548
 20
22.6087662238
  0
LWPOLYLINE
  5
53B
100
AcDbEntity
  8
RACCORDO
100
AcDbPolyline
 62
7
  6
CONTINUOUS
 90
4
 70
0
 10
33.4515566884
 20
22.3298055514
 10
33.4142929479
 20
22.3613328444
 10
33.3740731006
 20
22.3891175297
 10
33.3312643562
 20
22.4128785312
  0
LINE
  5
53C
100
AcDbEntity
  8
RACCORDO
100
AcDbLine
 62
250
  6
CONTINUOUS
 10
33.6345185694
 20
21.8977978048
 11
33.65
 21
21.8823164546
  0
LINE
  5
53D
100
AcDbEntity
  8
RACCORDO
100
AcDbLine
 62
7
  6
CONTINUOUS
 10
33.4855157707
 20
22.2948618356
 11
33.4515566884
 21
22.3298055514
  0
LINE
  5
53E
100
AcDbEntity
  8
RACCORDO
100
AcDbLine
 62
7
  6
CONTINUOUS
 10
33.5092275602
 20
22.2658364642
 11
33.4855157707
 21
22.2948618356
  0
LINE
  5
53F
100
AcDbEntity
  8
RACCORDO
100
AcDbLine
 62
7
  6
CONTINUOUS
 10
33.521948577
 20
22.2480041407
 11
33.528041533
 21
22.2404790742
  0
LINE
  5
540
100
AcDbEntity
  8
RACCORDO
100
AcDbLine
 62
7
  6
CONTINUOUS
 10
33.5092276586
 20
22.265836535
 11
33.5137165735
 21
22.2598081261
  0
LINE
  5
541
100
AcDbEntity
  8
RACCORDO
100
AcDbLine
 62
7
  6
CONTINUOUS
 10
33.5297060686
 20
22.2382445812
 11
33.5217531128
 21
22.2489115284
  0
LINE
  5
542
100
AcDbEntity
  8
RACCORDO
100
AcDbLine
 62
250
  6
CONTINUOUS
 10
33.6200696991
 20
21.9510665671
 11
33.6278247332
 21
21.9406659488
  0
LWPOLYLINE
  5
543
100
AcDbEntity
  8
RACCORDO
100
AcDbPolyline
 62
7
  6
CONTINUOUS
 90
3
 70
0
 10
33.5217531128
 20
22.2489115284
 10
33.5142592285
 20
22.2590681118
 10
33.5137165735
 20
22.2598081261
  0
LWPOLYLINE
  5
544
100
AcDbEntity
  8
RACCORDO
100
AcDbPolyline
 62
250
  6
CONTINUOUS
 90
3
 70
0
 10
33.6103751542
 20
21.964211916
 10
33.6123136193
 20
21.9615706094
 10
33.6200696991
 20
21.9510665671
  0
LWPOLYLINE
  5
545
100
AcDbEntity
  8
RACCORDO
100
AcDbPolyline
 62
250
  6
CONTINUOUS
 90
3
 70
0
 10
33.5333789685
 20
22.2332203408
 10
33.5336908997
 20
22.2327872527
 10
33.5618166941
 20
22.1890898516
  0
LINE
  5
546
100
AcDbEntity
  8
RACCORDO
100
AcDbLine
 62
7
  6
CONTINUOUS
 10
33.5137165735
 20
22.2598081261
 11
33.5200604591
 21
22.2509525128
  0
LINE
  5
547
100
AcDbEntity
  8
RACCORDO
100
AcDbLine
 62
7
  6
CONTINUOUS
 10
33.5200604591
 20
22.2509525128
 11
33.5422171023
 21
22.2163540208
  0
LWPOLYLINE
  5
548
100
AcDbEntity
  8
RACCORDO
100
AcDbPolyline
 62
250
  6
CONTINUOUS
 90
14
 70
0
 10
33.6278247332
 20
21.9406659488
 10
33.6279685341
 20
21.9404367126
 10
33.6281167296
 20
21.9400836216
 10
33.6282693197
 20
21.9396066759
 10
33.6284257492
 20
21.9390133933
 10
33.6285865734
 20
21.9382962559
 10
33.6287534574
 20
21.9374327105
 10
33.6289264764
 20
21.9364188375
 10
33.6291055552
 20
21.9352585566
 10
33.6292921338
 20
21.9339410728
 10
33.6294860792
 20
21.9324621821
 10
33.6296875245
 20
21.9308260886
 10
33.629898309
 20
21.9290346096
 10
33.6301182389
 20
21.9270762299
  0
LINE
  5
549
100
AcDbEntity
  8
RACCORDO
100
AcDbLine
 62
250
  6
CONTINUOUS
 10
33.5422171023
 20
22.2163540208
 11
33.5470716818
 21
22.2078488826
  0
LWPOLYLINE
  5
54A
100
AcDbEntity
  8
RACCORDO
100
AcDbPolyline
 62
250
  6
CONTINUOUS
 90
8
 70
0
 10
33.3013450129
 20
20.9202178306
 10
33.3001172094
 20
20.9226425648
 10
33.2989266074
 20
20.9183914055
 10
33.297773207
 20
20.9074643527
 10
33.2966465847
 20
20.8896229755
 10
33.2955571638
 20
20.8651057048
 10
33.2945362147
 20
20.8346278333
 10
33.2935856565
 20
20.7980158659
  0
LWPOLYLINE
  5
54B
100
AcDbEntity
  8
ASSI
100
AcDbPolyline
 62
250
  6
CONTINUOUS
 90
9
 70
0
 10
33.3013450129
 20
20.9202178306
 10
33.3001172094
 20
20.9226425648
 10
33.2989266074
 20
20.9183914055
 10
33.297773207
 20
20.9074643527
 10
33.2966465847
 20
20.8896229755
 10
33.2955571638
 20
20.8651057048
 10
33.2945362147
 20
20.8346278333
 10
33.2935856565
 20
20.7980158659
 10
33.2919154674
 20
20.7081459066
  0
LWPOLYLINE
  5
54C
100
AcDbEntity
  8
RACCORDO
100
AcDbPolyline
 62
250
  6
CONTINUOUS
 90
6
 70
0
 10
33.5618166941
 20
22.1890898516
 10
33.5852513023
 20
22.142706679
 10
33.6037413666
 20
22.0941391958
 10
33.6170869861
 20
22.0439124778
 10
33.625143878
 20
21.9925695393
 10
33.6278249375
 20
21.9406654621
  0
LWPOLYLINE
  5
54D
100
AcDbEntity
  8
RACCORDO
100
AcDbPolyline
 62
250
  6
CONTINUOUS
 90
6
 70
0
 10
33.5470716818
 20
22.2078488826
 10
33.5695598961
 20
22.1622214191
 10
33.5872921445
 20
22.1145427816
 10
33.6000847372
 20
22.0653068773
 10
33.6078051544
 20
22.0150237454
 10
33.6103734197
 20
21.9642142736
  0
LWPOLYLINE
  5
54E
100
AcDbEntity
  8
RACCORDO
100
AcDbPolyline
 62
250
  6
CONTINUOUS
 90
13
 70
0
 10
33.2893673092
 20
20.3426507166
 10
33.2808766724
 20
20.3603072534
 10
33.259143324
 20
20.3776439124
 10
33.2245309396
 20
20.39437059
 10
33.1776187069
 20
20.4102073896
 10
33.1191916334
 20
20.4248893056
 10
33.0502274106
 20
20.4381706578
 10
32.9718800538
 20
20.4498292019
 10
32.8854605913
 20
20.4596698494
 10
32.7924151264
 20
20.4675279324
 10
32.6943006385
 20
20.4732719575
 10
32.5927589301
 20
20.4768058067
 10
32.489489153
 20
20.4780703462
  0
LWPOLYLINE
  5
54F
100
AcDbEntity
  8
ASSI
100
AcDbPolyline
 62
250
  6
CONTINUOUS
 90
10
 70
0
 10
33.2893673092
 20
20.3426507166
 10
33.2808766724
 20
20.3603072534
 10
33.259143324
 20
20.3776439124
 10
33.2245309396
 20
20.39437059
 10
33.1776187069
 20
20.4102073896
 10
33.1191916334
 20
20.4248893056
 10
33.0502274106
 20
20.4381706578
 10
32.9718800538
 20
20.4498292019
 10
32.8854605913
 20
20.4596698494
 10
32.7924151264
 20
20.4675279324
  0
LWPOLYLINE
  5
550
100
AcDbEntity
  8
RACCORDO
100
AcDbPolyline
 62
7
  6
CONTINUOUS
 90
10
 70
0
 10
33.607389932
 20
22.0828421494
 10
33.6017221564
 20
22.1006104891
 10
33.5950863371
 20
22.1189899632
 10
33.5873672831
 20
22.1379764118
 10
33.5786500318
 20
22.1571157463
 10
33.5689282822
 20
22.1762696032
 10
33.5581193236
 20
22.1954577793
 10
33.5462664187
 20
22.214477295
 10
33.5333789685
 20
22.2332203408
 10
33.5297060686
 20
22.2382445812
  0
LWPOLYLINE
  5
551
100
AcDbEntity
  8
ASSI
100
AcDbPolyline
 62
7
  6
CONTINUOUS
 90
14
 70
0
 10
33.2830147885
 20
21.0895458721
 10
33.2736819456
 20
21.127908778
 10
33.2529588885
 20
21.1935908989
 10
33.2232992665
 20
21.2645281088
 10
33.1850079994
 20
21.3355871742
 10
33.1381496599
 20
21.4045700261
 10
33.0817291703
 20
21.4711153885
 10
33.0161570452
 20
21.5330272081
 10
32.9417694214
 20
21.5886755256
 10
32.8588042871
 20
21.6366531441
 10
32.7681744384
 20
21.6752704925
 10
32.6708800347
 20
21.7030325389
 10
32.5681895813
 20
21.7185274955
 10
32.5003877285
 20
21.7214046632
  0
LWPOLYLINE
  5
552
100
AcDbEntity
  8
RACCORDO
100
AcDbPolyline
 62
7
  6
CONTINUOUS
 90
16
 70
0
 10
33.2839842032
 20
21.0850620492
 10
33.2759545682
 20
21.1192792636
 10
33.2662226872
 20
21.1538818186
 10
33.2544083158
 20
21.1895770483
 10
33.2405669071
 20
21.2255926209
 10
33.2246308354
 20
21.2617161723
 10
33.2064647699
 20
21.2978999366
 10
33.1862024897
 20
21.3336087476
 10
33.1638995969
 20
21.3685872818
 10
33.139470765
 20
21.4028230511
 10
33.1129163732
 20
21.43616036
 10
33.0842540365
 20
21.4684346223
 10
33.0534863778
 20
21.4995074677
 10
33.0206042746
 20
21.5292509851
 10
32.9856372847
 20
21.5575010307
 10
32.9486336075
 20
21.5840858641
  0
LINE
  5
553
100
AcDbEntity
  8
ASSI
100
AcDbLine
 62
7
  6
CONTINUOUS
 10
33.2858945833
 20
21.0758352781
 11
33.2830227302
 21
21.0895473289
  0
LINE
  5
554
100
AcDbEntity
  8
RACCORDO
100
AcDbLine
 62
7
  6
CONTINUOUS
 10
33.2853695863
 20
21.0783971406
 11
33.2839842032
 21
21.0850620492
  0
LINE
  5
555
100
AcDbEntity
  8
RACCORDO
100
AcDbLine
 62
250
  6
CONTINUOUS
 10
33.4
 20
20.4275437282
 11
33.3013450129
 21
20.9202178306
  0
LINE
  5
556
100
AcDbEntity
  8
ASSI
100
AcDbLine
 62
250
  6
CONTINUOUS
 10
33.4
 20
20.4275437282
 11
33.3013450129
 21
20.9202178306
  0
LINE
  5
557
100
AcDbEntity
  8
RACCORDO
100
AcDbLine
 62
7
  6
CONTINUOUS
 10
33.3845924576
 20
20.5829470008
 11
33.2853769507
 21
21.078398351
  0
LINE
  5
558
100
AcDbEntity
  8
ASSI
100
AcDbLine
 62
7
  6
CONTINUOUS
 10
33.3845924576
 20
20.5829470008
 11
33.2858945833
 21
21.0758352781
  0
LWPOLYLINE
  5
559
100
AcDbEntity
  8
RACCORDO
100
AcDbPolyline
 62
250
  6
CONTINUOUS
 90
3
 70
0
 10
33.6276568467
 20
21.9762353971
 10
33.6317948096
 20
21.9500640856
 10
33.6345185694
 20
21.8977978048
  0
LWPOLYLINE
  5
55A
100
AcDbEntity
  8
RACCORDO
100
AcDbPolyline
 62
7
  6
CONTINUOUS
 90
5
 70
0
 10
33.6271060782
 20
21.9800271797
 10
33.6275722535
 20
21.9768604412
 10
33.6281876695
 20
21.9723132424
 10
33.62843106
 20
21.9703217533
 10
33.6283870193
 20
21.9707097024
  0
LWPOLYLINE
  5
55B
100
AcDbEntity
  8
0
100
AcDbPolyline
 62
7
  6
CONTINUOUS
 90
5
 70
0
 43
0.3500000006
 10
-50.3690401154
 20
44.9642842255
 10
-50.0118977966
 20
45.1785732422
 10
-50.0118977966
 20
45.8214266968
 10
-50.3690401154
 20
46.2500001984
 10
-51.2261825867
 20
46.2500001984
  0
LINE
  5
55C
100
AcDbEntity
  8
RACCORDO
100
AcDbLine
 62
7
  6
CONTINUOUS
 10
-54.4905080348
 20
-24.5
 11
-51.4905080348
 21
-24.5
  0
LINE
  5
55D
100
AcDbEntity
  8
RACCORDO
100
AcDbLine
 62
250
  6
CONTINUOUS
 10
-51.2405080348
 20
-24.25
 11
-54.7405080348
 21
-24.25
  0
LINE
  5
55E
100
AcDbEntity
  8
RACCORDO
100
AcDbLine
 62
250
  6
CONTINUOUS
 10
-51.2405080348
 20
-23.8443375673
 11
-51.4905080348
 21
-23.8443375673
  0
LINE
  5
55F
100
AcDbEntity
  8
RACCORDO
100
AcDbLine
 62
250
  6
CONTINUOUS
 10
-54.4905080348
 20
-23.8443375673
 11
-54.7405080348
 21
-23.8443375673
  0
LINE
  5
560
100
AcDbEntity
  8
RACCORDO
100
AcDbLine
 62
7
  6
CONTINUOUS
 10
-51.2405080348
 20
-23.8
 11
-44.7405080348
 21
-23.8
  0
LINE
  5
561
100
AcDbEntity
  8
RACCORDO
100
AcDbLine
 62
250
  6
CONTINUOUS
 10
-52.3732432608
 20
-21.9260707827
 11
-52.3253117988
 21
-21.9182778132
  0
LWPOLYLINE
  5
562
100
AcDbEntity
  8
RACCORDO
100
AcDbPolyline
 62
250
  6
CONTINUOUS
 90
9
 70
0
 10
-52.3253117988
 20
-21.9182778132
 10
-52.2888804091
 20
-21.912535597
 10
-52.2691333147
 20
-21.909717366
 10
-52.2482735229
 20
-21.9069575815
 10
-52.2263404994
 20
-21.9042933118
 10
-52.2032957456
 20
-21.9020165514
 10
-52.1791264289
 20
-21.9002246319
 10
-52.1538453819
 20
-21.8988202218
 10
-52.1274526048
 20
-21.8978033211
  0
LINE
  5
563
100
AcDbEntity
  8
DRAFT
100
AcDbLine
 62
7
  6
CONTINUOUS
 10
-54.2405080348
 20
-21.9048099646
 11
-53.5905080348
 21
-21.825
  0
LWPOLYLINE
  5
564
100
AcDbEntity
  8
RACCORDO
100
AcDbPolyline
 62
250
  6
CONTINUOUS
 90
6
 70
0
 10
-52.239424876
 20
-22.4048482952
 10
-52.1635932634
 20
-22.4000340311
 10
-52.1497025069
 20
-22.3992423465
 10
-52.1361662472
 20
-22.3985696359
 10
-52.12294793
 20
-22.3980561577
 10
-52.1100251284
 20
-22.397732689
  0
LINE
  5
565
100
AcDbEntity
  8
RACCORDO
100
AcDbLine
 62
250
  6
CONTINUOUS
 10
-52.2723443318
 20
-22.4067770612
 11
-52.239424876
 21
-22.4048482952
  0
LINE
  5
566
100
AcDbEntity
  8
RACCORDO
100
AcDbLine
 62
250
  6
CONTINUOUS
 10
-52.3066448078
 20
-22.408603668
 11
-52.2723443318
 21
-22.4067770612
  0
LINE
  5
567
100
AcDbEntity
  8
RACCORDO
100
AcDbLine
 62
250
  6
CONTINUOUS
 10
-52.3417414018
 20
-22.4101957241
 11
-52.3066448078
 21
-22.408603668
  0
LINE
  5
568
100
AcDbEntity
  8
RACCORDO
100
AcDbLine
 62
250
  6
CONTINUOUS
 10
-52.3769173159
 20
-22.4115810528
 11
-52.3417414018
 21
-22.4101957241
  0
LINE
  5
569
100
AcDbEntity
  8
RACCORDO
100
AcDbLine
 62
250
  6
CONTINUOUS
 10
-52.4116674891
 20
-22.4127449197
 11
-52.3769173159
 21
-22.4115810528
  0
LINE
  5
56A
100
AcDbEntity
  8
RACCORDO
100
AcDbLine
 62
250
  6
CONTINUOUS
 10
-52.4905080348
 20
-22.6043942318
 11
-52.2405080348
 21
-22.5965394526
  0
LINE
  5
56B
100
AcDbEntity
  8
RACCORDO
100
AcDbLine
 62
250
  6
CONTINUOUS
 10
-53.7405080348
 20
-22.629704076
 11
-53.4905080348
 21
-22.6218492968
  0
LWPOLYLINE
  5
56C
100
AcDbEntity
  8
RACCORDO
100
AcDbPolyline
 62
250
  6
CONTINUOUS
 90
12
 70
0
 10
-52.510867409
 20
-21.940664527
 10
-52.5016272519
 20
-21.9404043984
 10
-52.4920465424
 20
-21.9399831114
 10
-52.4821252806
 20
-21.939400666
 10
-52.4719018876
 20
-21.9386658518
 10
-52.4613379423
 20
-21.9377698793
 10
-52.4503181808
 20
-21.9366863791
 10
-52.4388469111
 20
-21.9354111461
 10
-52.4269198253
 20
-21.9339483854
 10
-52.4144087361
 20
-21.9322843441
 10
-52.4013268387
 20
-21.9304058407
 10
-52.3732432608
 20
-21.9260707827
  0
LINE
  5
56D
100
AcDbEntity
  8
RACCORDO
100
AcDbLine
 62
250
  6
CONTINUOUS
 10
-52.4455311388
 20
-22.4136965548
 11
-52.4116674891
 21
-22.4127449197
  0
LINE
  5
56E
100
AcDbEntity
  8
RACCORDO
100
AcDbLine
 62
250
  6
CONTINUOUS
 10
-53.5106783599
 20
-21.9642134447
 11
-52.510867409
 21
-21.940664527
  0
LINE
  5
56F
100
AcDbEntity
  8
RACCORDO
100
AcDbLine
 62
250
  6
CONTINUOUS
 10
-53.4937877668
 20
-22.4339535759
 11
-52.4455311388
 21
-22.4136965548
  0
LINE
  5
570
100
AcDbEntity
  8
RACCORDO
100
AcDbLine
 62
250
  6
CONTINUOUS
 10
-53.4905080348
 20
-22.6218492968
 11
-52.4905080348
 21
-22.6043942318
  0
LINE
  5
571
100
AcDbEntity
  8
RACCORDO
100
AcDbLine
 62
7
  6
CONTINUOUS
 10
-54.2405080348
 20
-22.4349101299
 11
-53.8953734135
 21
-22.4288857826
  0
LINE
  5
572
100
AcDbEntity
  8
RACCORDO
100
AcDbLine
 62
7
  6
CONTINUOUS
 10
-52.1100286571
 20
-22.397722474
 11
-42.2230556284
 21
-22.2251447178
  0
LINE
  5
573
100
AcDbEntity
  8
RACCORDO
100
AcDbLine
 62
250
  6
CONTINUOUS
 10
-54.2405080348
 20
-21.9346816494
 11
-53.9128236617
 21
-21.9289696893
  0
LINE
  5
574
100
AcDbEntity
  8
RACCORDO
100
AcDbLine
 62
250
  6
CONTINUOUS
 10
-52.1274526048
 20
-21.8978033211
 11
-51.2405080348
 21
-21.8823164546
  0
LINE
  5
575
100
AcDbEntity
  8
RACCORDO
100
AcDbLine
 62
250
  6
CONTINUOUS
 10
-53.5286384474
 20
-22.434502461
 11
-53.4937877884
 21
-22.4339549017
  0
LINE
  5
576
100
AcDbEntity
  8
RACCORDO
100
AcDbLine
 62
250
  6
CONTINUOUS
 10
-53.5653057155
 20
-22.4348847231
 11
-53.5286384474
 21
-22.434502461
  0
LWPOLYLINE
  5
577
100
AcDbEntity
  8
RACCORDO
100
AcDbPolyline
 62
250
  6
CONTINUOUS
 90
5
 70
0
 10
-53.8953751188
 20
-22.4289021298
 10
-53.8842926062
 20
-22.428802851
 10
-53.8726512575
 20
-22.4288741567
 10
-53.8603725071
 20
-22.4290998106
 10
-53.8472903293
 20
-22.4294657791
  0
LINE
  5
578
100
AcDbEntity
  8
RACCORDO
100
AcDbLine
 62
250
  6
CONTINUOUS
 10
-53.6030415124
 20
-22.4350535638
 11
-53.5653057155
 21
-22.4348847231
  0
LINE
  5
579
100
AcDbEntity
  8
RACCORDO
100
AcDbLine
 62
250
  6
CONTINUOUS
 10
-52.4905080348
 20
-22.9783121635
 11
-52.2405080348
 21
-22.9783121635
  0
LINE
  5
57A
100
AcDbEntity
  8
RACCORDO
100
AcDbLine
 62
250
  6
CONTINUOUS
 10
-53.4905080348
 20
-22.9783121635
 11
-53.7405080348
 21
-22.9783121635
  0
LWPOLYLINE
  5
57B
100
AcDbEntity
  8
RACCORDO
100
AcDbPolyline
 62
250
  6
CONTINUOUS
 90
9
 70
0
 10
-53.9128236617
 20
-21.9289696893
 10
-53.8881086917
 20
-21.9289757493
 10
-53.8637050544
 20
-21.9295025599
 10
-53.8396127499
 20
-21.9305501212
 10
-53.8156352769
 20
-21.9322169146
 10
-53.7919691367
 20
-21.9344044587
 10
-53.7692038328
 20
-21.9368173089
 10
-53.7474707427
 20
-21.9394526404
 10
-53.726638489
 20
-21.942313278
  0
LINE
  5
57C
100
AcDbEntity
  8
RACCORDO
100
AcDbLine
 62
250
  6
CONTINUOUS
 10
-53.6414671443
 20
-22.4349623824
 11
-53.6030415124
 21
-22.4350535638
  0
LWPOLYLINE
  5
57D
100
AcDbEntity
  8
RACCORDO
100
AcDbPolyline
 62
250
  6
CONTINUOUS
 90
4
 70
0
 10
-53.7173780098
 20
-22.4339033479
 10
-53.6988197294
 20
-22.4342858718
 10
-53.6799347001
 20
-22.4345880731
 10
-53.6414671443
 20
-22.4349623824
  0
LINE
  5
57E
100
AcDbEntity
  8
RACCORDO
100
AcDbLine
 62
250
  6
CONTINUOUS
 10
-53.7532852692
 20
-22.4329280326
 11
-53.7173780098
 21
-22.4339033479
  0
LINE
  5
57F
100
AcDbEntity
  8
RACCORDO
100
AcDbLine
 62
250
  6
CONTINUOUS
 10
-53.7873312447
 20
-22.4317491189
 11
-53.7532852692
 21
-22.4329280326
  0
LINE
  5
580
100
AcDbEntity
  8
RACCORDO
100
AcDbLine
 62
250
  6
CONTINUOUS
 10
-53.8472903293
 20
-22.4294657791
 11
-53.7873312447
 21
-22.4317491189
  0
LINE
  5
581
100
AcDbEntity
  8
RACCORDO
100
AcDbLine
 62
7
  6
CONTINUOUS
 10
-64.1803759238
 20
-21.1508548094
 11
-58.5697096732
 21
-21.8397580014
  0
LINE
  5
582
100
AcDbEntity
  8
ASSI
100
AcDbLine
 62
7
  6
CONTINUOUS
 10
-64.1803759238
 20
-21.1508548094
 11
-58.5697096732
 21
-21.8397580014
  0
LWPOLYLINE
  5
583
100
AcDbEntity
  8
RACCORDO
100
AcDbPolyline
 62
250
  6
CONTINUOUS
 90
13
 70
0
 10
-53.654466921
 20
-21.9528522206
 10
-53.6389603763
 20
-21.9550336993
 10
-53.6244003067
 20
-21.9570097411
 10
-53.6105496746
 20
-21.9587432573
 10
-53.597392208
 20
-21.9602145155
 10
-53.5849441791
 20
-21.9614432481
 10
-53.5730173666
 20
-21.9624515631
 10
-53.5615989277
 20
-21.9632358465
 10
-53.5507017054
 20
-21.9637997123
 10
-53.5401760067
 20
-21.9641761101
 10
-53.5299719341
 20
-21.964376023
 10
-53.5201393851
 20
-21.9643884678
 10
-53.5106783599
 20
-21.9642134447
  0
LWPOLYLINE
  5
584
100
AcDbEntity
  8
RACCORDO
100
AcDbPolyline
 62
250
  6
CONTINUOUS
 90
3
 70
0
 10
-53.726638489
 20
-21.942313278
 10
-53.6883776389
 20
-21.9478018296
 10
-53.654466921
 20
-21.9528522206
  0
LWPOLYLINE
  5
585
100
AcDbEntity
  8
0
100
AcDbPolyline
 62
7
  6
CONTINUOUS
 90
3
 70
0
 43
0.3500000006
 10
-74.8893729858
 20
-0.8571427917
 10
-74.8893729858
 20
-2.3571432495
 10
-77.2465204468
 20
-1.7142852631
  0
LWPOLYLINE
  5
586
100
AcDbEntity
  8
0
100
AcDbPolyline
 62
7
  6
CONTINUOUS
 90
3
 70
0
 43
0.3500000006
 10
-48.2762224731
 20
35.3928592072
 10
-47.4190800018
 20
36.2500016785
 10
-47.4190800018
 20
33.2500007629
  0
LINE
  5
587
100
AcDbEntity
  8
DRAFT
100
AcDbLine
 62
7
  6
CONTINUOUS
 10
-51.2405080348
 20
-20.9
 11
-41.2405080348
 21
-20.9
  0
LINE
  5
588
100
AcDbEntity
  8
RACCORDO
100
AcDbLine
 62
7
  6
CONTINUOUS
 10
-51.2405080348
 20
-21.4
 11
-41.3030734823
 21
-21.5734585653
  0
LINE
  5
589
100
AcDbEntity
  8
RACCORDO
100
AcDbLine
 62
250
  6
CONTINUOUS
 10
-65.4897643384
 20
-19.6059388623
 11
-65.4964568141
 21
-19.6058090259
  0
LINE
  5
58A
100
AcDbEntity
  8
ASSI
100
AcDbLine
 62
250
  6
CONTINUOUS
 10
-65.4897643384
 20
-19.6059388623
 11
-65.4964568141
 21
-19.6058090259
  0
LINE
  5
58B
100
AcDbEntity
  8
RACCORDO
100
AcDbLine
 62
250
  6
CONTINUOUS
 10
-65.3347634299
 20
-19.6113083478
 11
-65.4897643384
 21
-19.6059388623
  0
LINE
  5
58C
100
AcDbEntity
  8
ASSI
100
AcDbLine
 62
250
  6
CONTINUOUS
 10
-65.3347634299
 20
-19.6113083478
 11
-65.4897643384
 21
-19.6059388623
  0
LINE
  5
58D
100
AcDbEntity
  8
RACCORDO
100
AcDbLine
 62
250
  6
CONTINUOUS
 10
-64.7109653587
 20
-19.6343360352
 11
-65.3347634299
 21
-19.6113083478
  0
LINE
  5
58E
100
AcDbEntity
  8
ASSI
100
AcDbLine
 62
250
  6
CONTINUOUS
 10
-64.7109653587
 20
-19.6343360352
 11
-65.3347634299
 21
-19.6113083478
  0
LINE
  5
58F
100
AcDbEntity
  8
RACCORDO
100
AcDbLine
 62
250
  6
CONTINUOUS
 10
-64.0967658894
 20
-20.3553584695
 11
-58.4860996388
 21
-21.0442616615
  0
LINE
  5
590
100
AcDbEntity
  8
ASSI
100
AcDbLine
 62
250
  6
CONTINUOUS
 10
-64.0967658894
 20
-20.3553584695
 11
-58.4860996388
 21
-21.0442616615
  0
LINE
  5
591
100
AcDbEntity
  8
RACCORDO
100
AcDbLine
 62
250
  6
CONTINUOUS
 10
-52.2405080348
 20
23.4113248654
 11
-51.4905080348
 21
23.8443375673
  0
LINE
  5
592
100
AcDbEntity
  8
RACCORDO
100
AcDbLine
 62
7
  6
CONTINUOUS
 10
-52.1155080348
 20
23.1948185145
 11
-51.3655080348
 21
23.6278312164
  0
LINE
  5
593
100
AcDbEntity
  8
RACCORDO
100
AcDbLine
 62
7
  6
CONTINUOUS
 10
-57.9457437567
 20
-18.3239790777
 11
-53.7816818403
 21
-18.3966630488
  0
LINE
  5
594
100
AcDbEntity
  8
RACCORDO
100
AcDbLine
 62
250
  6
CONTINUOUS
 10
-51.4905080348
 20
-23.8443375673
 11
-52.2405080348
 21
-23.4113248654
  0
LINE
  5
595
100
AcDbEntity
  8
RACCORDO
100
AcDbLine
 62
7
  6
CONTINUOUS
 10
-51.3655080348
 20
-23.6278312164
 11
-52.1155080348
 21
-23.1948185145
  0
LINE
  5
596
100
AcDbEntity
  8
RACCORDO
100
AcDbLine
 62
250
  6
CONTINUOUS
 10
-58.1476423044
 20
-17.8240552303
 11
-57.9457437567
 21
-17.8240552301
  0
LINE
  5
597
100
AcDbEntity
  8
RACCORDO
100
AcDbLine
 62
250
  6
CONTINUOUS
 10
-57.9457437567
 20
-17.8240552301
 11
-53.8431966096
 21
-17.8956654569
  0
LINE
  5
598
100
AcDbEntity
  8
ASSI
100
AcDbLine
 62
7
  6
CONTINUOUS
 10
-51.2405080348
 20
-14.828613
 11
-51.0405080348
 21
-14.828613
  0
LINE
  5
599
100
AcDbEntity
  8
RACCORDO
100
AcDbLine
 62
7
  6
CONTINUOUS
 10
-65.2019557315
 20
-13.4448911069
 11
-65.2880991977
 21
-13.4353807797
  0
LWPOLYLINE
  5
59A
100
AcDbEntity
  8
0
100
AcDbPolyline
 62
7
  6
CONTINUOUS
 90
10
 70
0
 43
0.3500000006
 10
-74.2465195313
 20
0.4285709152
 10
-75.1036620026
 20
1.2857133865
 10
-75.9608044739
 20
1.5000001373
 10
-76.8179424133
 20
1.5000001373
 10
-77.2465204468
 20
1.0714289017
 10
-77.2465204468
 20
0.4285709152
 10
-76.8179424133
 20
-0.0000003204
 10
-75.9608044739
 20
-0.0000003204
 10
-75.5322309723
 20
0.4285709152
 10
-75.5322309723
 20
1.3571423035
  0
LWPOLYLINE
  5
59B
100
AcDbEntity
  8
0
100
AcDbPolyline
 62
7
  6
CONTINUOUS
 90
3
 70
0
 43
0.3500000006
 10
-52.2261828918
 20
43.5357149506
 10
-52.2976095428
 20
43.3214304657
 10
-52.4404673767
 20
43.035714798
  0
LINE
  5
59C
100
AcDbEntity
  8
RACCORDO
100
AcDbLine
 62
250
  6
CONTINUOUS
 10
-54.4905080348
 20
23.8443375673
 11
-54.6155080348
 21
23.6278312164
  0
LINE
  5
59D
100
AcDbEntity
  8
RACCORDO
100
AcDbLine
 62
7
  6
CONTINUOUS
 10
-51.2405080348
 20
14.8602976573
 11
-41.2405080348
 21
18.5
  0
LINE
  5
59E
100
AcDbEntity
  8
RACCORDO
100
AcDbLine
 62
250
  6
CONTINUOUS
 10
-51.2405080348
 20
15.457133768
 11
-41.2405080348
 21
19.0042403804
  0
LINE
  5
59F
100
AcDbEntity
  8
ASSI
100
AcDbLine
 62
7
  6
CONTINUOUS
 10
-51.2405080348
 20
-14.328588
 11
-51.0405080348
 21
-14.328588
  0
LINE
  5
5A0
100
AcDbEntity
  8
ASSI
100
AcDbLine
 62
7
  6
CONTINUOUS
 10
-51.2405080348
 20
-13.775888
 11
-51.0405080348
 21
-13.775888
  0
LINE
  5
5A1
100
AcDbEntity
  8
ASSI
100
AcDbLine
 62
7
  6
CONTINUOUS
 10
-51.2405080348
 20
-13.223194
 11
-51.0405080348
 21
-13.223194
  0
LINE
  5
5A2
100
AcDbEntity
  8
ASSI
100
AcDbLine
 62
7
  6
CONTINUOUS
 10
-51.2405080348
 20
-12.723169
 11
-51.0405080348
 21
-12.723169
  0
LINE
  5
5A3
100
AcDbEntity
  8
RACCORDO
100
AcDbLine
 62
250
  6
CONTINUOUS
 10
-51.2405080348
 20
-15.457133768
 11
-41.2405080348
 21
-19.0042403804
  0
LINE
  5
5A4
100
AcDbEntity
  8
RACCORDO
100
AcDbLine
 62
7
  6
CONTINUOUS
 10
-41.2405080348
 20
-18.5
 11
-51.2405080348
 21
-14.8602976573
  0
LINE
  5
5A5
100
AcDbEntity
  8
RACCORDO
100
AcDbLine
 62
250
  6
CONTINUOUS
 10
-54.4905080348
 20
-23.8443375673
 11
-54.6155080348
 21
-23.6278312164
  0
LWPOLYLINE
  5
5A6
100
AcDbEntity
  8
RACCORDO
100
AcDbPolyline
 62
250
  6
CONTINUOUS
 90
16
 70
0
 10
-64.7109653587
 20
-19.6343360352
 10
-64.7098813767
 20
-19.7048395505
 10
-64.7022017631
 20
-19.7735719426
 10
-64.6879265179
 20
-19.8405332115
 10
-64.6667865408
 20
-19.9063362213
 10
-64.639050932
 20
-19.970368108
 10
-64.6055269924
 20
-20.0307902792
 10
-64.5660459939
 20
-20.0875019936
 10
-64.5207766645
 20
-20.1406039925
 10
-64.4710324895
 20
-20.1885599076
 10
-64.4166756219
 20
-20.2312204468
 10
-64.3578439088
 20
-20.2687349022
 10
-64.2962643763
 20
-20.3000147813
 10
-64.2325126999
 20
-20.3246972536
 10
-64.1660132043
 20
-20.3431451496
 10
-64.0967658894
 20
-20.3553584695
  0
LWPOLYLINE
  5
5A7
100
AcDbEntity
  8
ASSI
100
AcDbPolyline
 62
250
  6
CONTINUOUS
 90
16
 70
0
 10
-64.7109653587
 20
-19.6343360352
 10
-64.7098813767
 20
-19.7048395505
 10
-64.7022017631
 20
-19.7735719426
 10
-64.6879265179
 20
-19.8405332115
 10
-64.6667865408
 20
-19.9063362213
 10
-64.639050932
 20
-19.970368108
 10
-64.6055269924
 20
-20.0307902792
 10
-64.5660459939
 20
-20.0875019936
 10
-64.5207766645
 20
-20.1406039925
 10
-64.4710324895
 20
-20.1885599076
 10
-64.4166756219
 20
-20.2312204468
 10
-64.3578439088
 20
-20.2687349022
 10
-64.2962643763
 20
-20.3000147813
 10
-64.2325126999
 20
-20.3246972536
 10
-64.1660132043
 20
-20.3431451496
 10
-64.0967658894
 20
-20.3553584695
  0
LINE
  5
5A8
100
AcDbEntity
  8
RACCORDO
100
AcDbLine
 62
7
  6
CONTINUOUS
 10
-65.0618184499
 20
-11.1814319943
 11
-65.0601916484
 21
-11.1566897837
  0
LINE
  5
5A9
100
AcDbEntity
  8
RACCORDO
100
AcDbLine
 62
250
  6
CONTINUOUS
 10
-53.7405080348
 20
23.4113248654
 11
-53.8655080348
 21
23.1948185145
  0
LINE
  5
5AA
100
AcDbEntity
  8
ASSI
100
AcDbLine
 62
7
  6
CONTINUOUS
 10
-51.2405080348
 20
-12.389825
 11
-51.0405080348
 21
-12.389825
  0
LINE
  5
5AB
100
AcDbEntity
  8
ASSI
100
AcDbLine
 62
7
  6
CONTINUOUS
 10
-51.2405080348
 20
-11.889806
 11
-51.0405080348
 21
-11.889806
  0
LINE
  5
5AC
100
AcDbEntity
  8
ASSI
100
AcDbLine
 62
7
  6
CONTINUOUS
 10
-51.2405080348
 20
-11.389806
 11
-51.0405080348
 21
-11.389806
  0
LINE
  5
5AD
100
AcDbEntity
  8
RACCORDO
100
AcDbLine
 62
250
  6
CONTINUOUS
 10
-53.7405080348
 20
-23.4113248654
 11
-53.8655080348
 21
-23.1948185145
  0
LINE
  5
5AE
100
AcDbEntity
  8
RACCORDO
100
AcDbLine
 62
250
  6
CONTINUOUS
 10
-65.377115541
 20
-13.3345546398
 11
-65.1883461871
 21
-11.5385342093
  0
LINE
  5
5AF
100
AcDbEntity
  8
RACCORDO
100
AcDbLine
 62
250
  6
CONTINUOUS
 10
-65.2880991977
 20
-13.4353807797
 11
-65.0803121313
 21
-11.4584189009
  0
LWPOLYLINE
  5
5B0
100
AcDbEntity
  8
RACCORDO
100
AcDbPolyline
 62
250
  6
CONTINUOUS
 90
10
 70
0
 10
-60.5092147379
 20
20.3426507166
 10
-61.2412787028
 20
15.9316558937
 10
-61.9071205317
 20
11.5121900909
 10
-62.5067402246
 20
7.0842533082
 10
-63.0402425285
 20
2.6468484369
 10
-63.5075226965
 20
-1.7990274144
 10
-63.9082664875
 20
-6.2503829198
 10
-64.2423691548
 20
-10.7062209708
 10
-64.5099354452
 20
-15.1675386759
 10
-64.7109653587
 20
-19.6343360352
  0
LWPOLYLINE
  5
5B1
100
AcDbEntity
  8
ASSI
100
AcDbPolyline
 62
250
  6
CONTINUOUS
 90
10
 70
0
 10
-60.5092147379
 20
20.3426507166
 10
-61.2412787028
 20
15.9316558937
 10
-61.9071205317
 20
11.5121900909
 10
-62.5067402246
 20
7.0842533082
 10
-63.0402425285
 20
2.6468484369
 10
-63.5075226965
 20
-1.7990274144
 10
-63.9082664875
 20
-6.2503829198
 10
-64.2423691548
 20
-10.7062209708
 10
-64.5099354452
 20
-15.1675386759
 10
-64.7109653587
 20
-19.6343360352
  0
LINE
  5
5B2
100
AcDbEntity
  8
ASSI
100
AcDbLine
 62
7
  6
CONTINUOUS
 10
-51.2405080348
 20
-10.633913
 11
-51.0405080348
 21
-10.633913
  0
LINE
  5
5B3
100
AcDbEntity
  8
ASSI
100
AcDbLine
 62
7
  6
CONTINUOUS
 10
-51.2405080348
 20
-10.167044
 11
-51.0405080348
 21
-10.167044
  0
LINE
  5
5B4
100
AcDbEntity
  8
ASSI
100
AcDbLine
 62
7
  6
CONTINUOUS
 10
-51.2405080348
 20
-9.700175
 11
-51.0405080348
 21
-9.700175
  0
LINE
  5
5B5
100
AcDbEntity
  8
ASSI
100
AcDbLine
 62
7
  6
CONTINUOUS
 10
-51.2405080348
 20
-8.944281
 11
-51.0405080348
 21
-8.944281
  0
LINE
  5
5B6
100
AcDbEntity
  8
RACCORDO
100
AcDbLine
 62
250
  6
CONTINUOUS
 10
-59.7585280072
 20
20.9202178306
 11
-59.7400118949
 21
21.1263890833
  0
LINE
  5
5B7
100
AcDbEntity
  8
ASSI
100
AcDbLine
 62
250
  6
CONTINUOUS
 10
-59.7585280072
 20
20.9202178306
 11
-59.7400118949
 21
21.1263890833
  0
LWPOLYLINE
  5
5B8
100
AcDbEntity
  8
RACCORDO
100
AcDbPolyline
 62
250
  6
CONTINUOUS
 90
10
 70
0
 10
-59.7400118949
 20
21.1263890833
 10
-59.7218109644
 20
21.3184199499
 10
-59.7132193332
 20
21.4049819402
 10
-59.7051650989
 20
21.4832283777
 10
-59.6977860287
 20
21.5518208012
 10
-59.6912083508
 20
21.6095857737
 10
-59.6855445974
 20
21.6555349659
 10
-59.6808916596
 20
21.6888822498
 10
-59.6773291364
 20
21.7090570792
 10
-59.6749179807
 20
21.7157141712
  0
LWPOLYLINE
  5
5B9
100
AcDbEntity
  8
ASSI
100
AcDbPolyline
 62
250
  6
CONTINUOUS
 90
10
 70
0
 10
-59.7400118949
 20
21.1263890833
 10
-59.7218109644
 20
21.3184199499
 10
-59.7132193332
 20
21.4049819402
 10
-59.7051650989
 20
21.4832283777
 10
-59.6977860287
 20
21.5518208012
 10
-59.6912083508
 20
21.6095857737
 10
-59.6855445974
 20
21.6555349659
 10
-59.6808916596
 20
21.6888822498
 10
-59.6773291364
 20
21.7090570792
 10
-59.6749179807
 20
21.7157141712
  0
LWPOLYLINE
  5
5BA
100
AcDbEntity
  8
RACCORDO
100
AcDbPolyline
 62
250
  6
CONTINUOUS
 90
9
 70
0
 10
-64.1436433494
 20
-20.7525028023
 10
-64.1532366765
 20
-20.8389593324
 10
-64.1616266552
 20
-20.9171694832
 10
-64.1686697859
 20
-20.9857955755
 10
-64.1742456055
 20
-21.0436638526
 10
-64.178258748
 20
-21.0897845554
 10
-64.1806405742
 20
-21.1233688514
 10
-64.1813503461
 20
-21.1438423264
 10
-64.1803759238
 20
-21.1508548094
  0
LWPOLYLINE
  5
5BB
100
AcDbEntity
  8
ASSI
100
AcDbPolyline
 62
250
  6
CONTINUOUS
 90
9
 70
0
 10
-64.1436433494
 20
-20.7525028023
 10
-64.1532366765
 20
-20.8389593324
 10
-64.1616266552
 20
-20.9171694832
 10
-64.1686697859
 20
-20.9857955755
 10
-64.1742456055
 20
-21.0436638526
 10
-64.178258748
 20
-21.0897845554
 10
-64.1806405742
 20
-21.1233688514
 10
-64.1813503461
 20
-21.1438423264
 10
-64.1803759238
 20
-21.1508548094
  0
LINE
  5
5BC
100
AcDbEntity
  8
RACCORDO
100
AcDbLine
 62
250
  6
CONTINUOUS
 10
-64.1215207483
 20
-20.5608812453
 11
-64.1436433494
 21
-20.7525028023
  0
LINE
  5
5BD
100
AcDbEntity
  8
ASSI
100
AcDbLine
 62
250
  6
CONTINUOUS
 10
-64.1215207483
 20
-20.5608812453
 11
-64.1436433494
 21
-20.7525028023
  0
LINE
  5
5BE
100
AcDbEntity
  8
RACCORDO
100
AcDbLine
 62
250
  6
CONTINUOUS
 10
-64.0967658894
 20
-20.3553584695
 11
-64.1215207483
 21
-20.5608812453
  0
LINE
  5
5BF
100
AcDbEntity
  8
ASSI
100
AcDbLine
 62
250
  6
CONTINUOUS
 10
-64.0967658894
 20
-20.3553584695
 11
-64.1215207483
 21
-20.5608812453
  0
LWPOLYLINE
  5
5C0
100
AcDbEntity
  8
RACCORDO
100
AcDbPolyline
 62
250
  6
CONTINUOUS
 90
5
 70
0
 10
-53.89535171
 20
22.4288854008
 10
-53.896299193
 20
22.4261539209
 10
-53.8973355794
 20
22.4179708881
 10
-53.8984493799
 20
22.4044279089
 10
-53.8996293685
 20
22.3856761382
  0
LINE
  5
5C1
100
AcDbEntity
  8
ASSI
100
AcDbLine
 62
7
  6
CONTINUOUS
 10
-51.2405080348
 20
-8.610937
 11
-51.0405080348
 21
-8.610937
  0
LINE
  5
5C2
100
AcDbEntity
  8
ASSI
100
AcDbLine
 62
7
  6
CONTINUOUS
 10
-51.2405080348
 20
-7.808244
 11
-51.0405080348
 21
-7.808244
  0
LINE
  5
5C3
100
AcDbEntity
  8
ASSI
100
AcDbLine
 62
7
  6
CONTINUOUS
 10
-51.2405080348
 20
-7.3082
 11
-51.0405080348
 21
-7.3082
  0
LINE
  5
5C4
100
AcDbEntity
  8
RACCORDO
100
AcDbLine
 62
250
  6
CONTINUOUS
 10
-53.896335281
 20
-22.4261627076
 11
-53.8953754716
 21
-22.4288858185
  0
LWPOLYLINE
  5
5C5
100
AcDbEntity
  8
RACCORDO
100
AcDbPolyline
 62
250
  6
CONTINUOUS
 90
6
 70
0
 10
-57.9457437567
 20
-18.3239790777
 10
-57.9462574529
 20
-18.3212301531
 10
-57.946713901
 20
-18.3130334227
 10
-57.9471048184
 20
-18.2994803605
 10
-57.9474214778
 20
-18.280721473
 10
-57.9476598621
 20
-18.2569635261
  0
LWPOLYLINE
  5
5C6
100
AcDbEntity
  8
RACCORDO
100
AcDbPolyline
 62
250
  6
CONTINUOUS
 90
8
 70
0
 10
-52.1099870477
 20
22.3977217477
 10
-52.1109468497
 20
22.3949978286
 10
-52.1119917738
 20
22.3868243912
 10
-52.1131103666
 20
22.3732910195
 10
-52.1142903673
 20
22.354546045
 10
-52.1155188419
 20
22.3307949205
 10
-52.1167823253
 20
22.3022979682
 10
-52.1193586907
 20
22.2323645266
  0
LINE
  5
5C7
100
AcDbEntity
  8
ASSI
100
AcDbLine
 62
7
  6
CONTINUOUS
 10
-51.2405080348
 20
-6.505494
 11
-51.0405080348
 21
-6.505494
  0
LINE
  5
5C8
100
AcDbEntity
  8
ASSI
100
AcDbLine
 62
7
  6
CONTINUOUS
 10
-51.2405080348
 20
-6.17215
 11
-51.0405080348
 21
-6.17215
  0
LINE
  5
5C9
100
AcDbEntity
  8
RACCORDO
100
AcDbLine
 62
250
  6
CONTINUOUS
 10
-57.9476598621
 20
-18.2569635261
 11
-57.9479027816
 21
-18.1955432324
  0
LINE
  5
5CA
100
AcDbEntity
  8
RACCORDO
100
AcDbLine
 62
250
  6
CONTINUOUS
 10
-57.9457437567
 20
-17.8240552301
 11
-57.9457437567
 21
-15.903118865
  0
LINE
  5
5CB
100
AcDbEntity
  8
RACCORDO
100
AcDbLine
 62
250
  6
CONTINUOUS
 10
-57.9479027816
 20
-18.1955432324
 11
-57.9476603808
 21
-18.0740247526
  0
LINE
  5
5CC
100
AcDbEntity
  8
RACCORDO
100
AcDbLine
 62
250
  6
CONTINUOUS
 10
-57.9476603808
 20
-18.0740247526
 11
-57.9467142533
 21
-17.9280121014
  0
LINE
  5
5CD
100
AcDbEntity
  8
RACCORDO
100
AcDbLine
 62
250
  6
CONTINUOUS
 10
-57.9467142533
 20
-17.9280121014
 11
-57.9457437567
 21
-17.8240552301
  0
LINE
  5
5CE
100
AcDbEntity
  8
ASSI
100
AcDbLine
 62
7
  6
CONTINUOUS
 10
-51.2405080348
 20
-5.001275
 11
-51.0405080348
 21
-5.001275
  0
LINE
  5
5CF
100
AcDbEntity
  8
ASSI
100
AcDbLine
 62
7
  6
CONTINUOUS
 10
-51.2405080348
 20
-4.2345591971
 11
-51.0405080348
 21
-4.2345591971
  0
LINE
  5
5D0
100
AcDbEntity
  8
ASSI
100
AcDbLine
 62
7
  6
CONTINUOUS
 10
-51.2405080348
 20
-4.171387
 11
-51.0405080348
 21
-4.171387
  0
LWPOLYLINE
  5
5D1
100
AcDbEntity
  8
RACCORDO
100
AcDbPolyline
 62
250
  6
CONTINUOUS
 90
4
 70
0
 10
-53.8996293685
 20
22.3856761382
 10
-53.9008615266
 20
22.3619224079
 10
-53.9021292015
 20
22.333424999
 10
-53.9047134788
 20
22.2634934796
  0
LWPOLYLINE
  5
5D2
100
AcDbEntity
  8
RACCORDO
100
AcDbPolyline
 62
250
  6
CONTINUOUS
 90
5
 70
0
 10
-53.4937877668
 20
22.4339535759
 10
-53.495077312
 20
22.4141499712
 10
-53.4964384363
 20
22.3896854416
 10
-53.4978570397
 20
22.3608134172
 10
-53.5008074587
 20
22.2910857954
  0
LINE
  5
5D3
100
AcDbEntity
  8
RACCORDO
100
AcDbLine
 62
7
  6
CONTINUOUS
 10
-58.5697096732
 20
-21.8397580014
 11
-54.0436272137
 21
21.2230400681
  0
LINE
  5
5D4
100
AcDbEntity
  8
ASSI
100
AcDbLine
 62
7
  6
CONTINUOUS
 10
-58.5697096732
 20
-21.8397580014
 11
-54.0436272137
 21
21.2230400681
  0
LINE
  5
5D5
100
AcDbEntity
  8
DRAFT
100
AcDbLine
 62
7
  6
CONTINUOUS
 10
-56.0405080348
 20
0.0
 11
-53.5905080348
 21
19.9536487485
  0
LINE
  5
5D6
100
AcDbEntity
  8
DRAFT
100
AcDbLine
 62
7
  6
CONTINUOUS
 10
-53.5905080348
 20
-19.9536487485
 11
-56.0405080348
 21
0.0
  0
LWPOLYLINE
  5
5D7
100
AcDbEntity
  8
RACCORDO
100
AcDbPolyline
 62
250
  6
CONTINUOUS
 90
4
 70
0
 10
-52.4978901651
 20
-22.3432134643
 10
-52.4964671613
 20
-22.3718083695
 10
-52.4951049258
 20
-22.3957420697
 10
-52.4938181856
 20
-22.4147558131
  0
LWPOLYLINE
  5
5D8
100
AcDbEntity
  8
RACCORDO
100
AcDbPolyline
 62
250
  6
CONTINUOUS
 90
4
 70
0
 10
-53.4978570398
 20
-22.3608134172
 10
-53.4964384364
 20
-22.3896854416
 10
-53.4950773121
 20
-22.4141499712
 10
-53.4937877668
 20
-22.4339535759
  0
LWPOLYLINE
  5
5D9
100
AcDbEntity
  8
RACCORDO
100
AcDbPolyline
 62
250
  6
CONTINUOUS
 90
6
 70
0
 10
-53.9021702114
 20
-22.33346922
 10
-53.9009069078
 20
-22.3619650275
 10
-53.8996785774
 20
-22.3857149174
 10
-53.8984986871
 20
-22.4044585002
 10
-53.8973801694
 20
-22.4179904651
 10
-53.896335281
 20
-22.4261627076
  0
LINE
  5
5DA
100
AcDbEntity
  8
RACCORDO
100
AcDbLine
 62
250
  6
CONTINUOUS
 10
-53.5008074589
 20
-22.2910857954
 11
-53.4978570398
 21
-22.3608134172
  0
LINE
  5
5DB
100
AcDbEntity
  8
RACCORDO
100
AcDbLine
 62
250
  6
CONTINUOUS
 10
-52.5008564506
 20
-22.2733236702
 11
-52.4978901651
 21
-22.3432134643
  0
LINE
  5
5DC
100
AcDbEntity
  8
RACCORDO
100
AcDbLine
 62
250
  6
CONTINUOUS
 10
-53.9047461019
 20
-22.2635378272
 11
-53.9021702114
 21
-22.33346922
  0
LINE
  5
5DD
100
AcDbEntity
  8
RACCORDO
100
AcDbLine
 62
250
  6
CONTINUOUS
 10
-53.5038066313
 20
-22.2078488826
 11
-53.5008074589
 21
-22.2910857954
  0
LINE
  5
5DE
100
AcDbEntity
  8
RACCORDO
100
AcDbLine
 62
250
  6
CONTINUOUS
 10
-52.5038758536
 20
-22.189086887
 11
-52.5008564506
 21
-22.2733236702
  0
LINE
  5
5DF
100
AcDbEntity
  8
RACCORDO
100
AcDbLine
 62
250
  6
CONTINUOUS
 10
-52.5068181513
 20
-22.0941360695
 11
-52.5038758536
 21
-22.189086887
  0
LINE
  5
5E0
100
AcDbEntity
  8
RACCORDO
100
AcDbLine
 62
250
  6
CONTINUOUS
 10
-53.9072936438
 20
-22.1789777848
 11
-53.9047461019
 21
-22.2635378272
  0
LINE
  5
5E1
100
AcDbEntity
  8
RACCORDO
100
AcDbLine
 62
250
  6
CONTINUOUS
 10
-53.5081263668
 20
-22.0653068773
 11
-53.5038066313
 21
-22.2078488826
  0
LINE
  5
5E2
100
AcDbEntity
  8
RACCORDO
100
AcDbLine
 62
250
  6
CONTINUOUS
 10
-53.5107133001
 20
-21.9642142737
 11
-53.5081263668
 21
-22.0653068773
  0
LINE
  5
5E3
100
AcDbEntity
  8
RACCORDO
100
AcDbLine
 62
250
  6
CONTINUOUS
 10
-53.9108196865
 20
-22.0329314209
 11
-53.9072936438
 21
-22.1789777848
  0
LINE
  5
5E4
100
AcDbEntity
  8
RACCORDO
100
AcDbLine
 62
250
  6
CONTINUOUS
 10
-53.9128236617
 20
-21.9289696893
 11
-53.9108196865
 21
-22.0329314209
  0
LINE
  5
5E5
100
AcDbEntity
  8
RACCORDO
100
AcDbLine
 62
250
  6
CONTINUOUS
 10
-53.4905080348
 20
-22.6218492968
 11
-53.4937877668
 21
-22.4339535759
  0
LINE
  5
5E6
100
AcDbEntity
  8
RACCORDO
100
AcDbLine
 62
7
  6
CONTINUOUS
 10
-54.7405080348
 20
24.25
 11
-54.7405080348
 21
23.8443375673
  0
LINE
  5
5E7
100
AcDbEntity
  8
RACCORDO
100
AcDbLine
 62
7
  6
CONTINUOUS
 10
-54.7405080348
 20
-23.8443375673
 11
-54.7405080348
 21
-24.25
  0
LINE
  5
5E8
100
AcDbEntity
  8
RACCORDO
100
AcDbLine
 62
250
  6
CONTINUOUS
 10
-54.4905080348
 20
24.5
 11
-54.4905080348
 21
23.8443375673
  0
LINE
  5
5E9
100
AcDbEntity
  8
RACCORDO
100
AcDbLine
 62
250
  6
CONTINUOUS
 10
-54.4905080348
 20
-23.8443375673
 11
-54.4905080348
 21
-24.5
  0
LWPOLYLINE
  5
5EA
100
AcDbEntity
  8
0
100
AcDbPolyline
 62
7
  6
CONTINUOUS
 90
2
 70
0
 43
0.3500000006
 10
-54.2976101532
 20
43.2499992828
 10
-54.2976101532
 20
44.7499997406
  0
LINE
  5
5EB
100
AcDbEntity
  8
RACCORDO
100
AcDbLine
 62
7
  6
CONTINUOUS
 10
-54.2405080348
 20
-22.4349101299
 11
-54.2405080348
 21
-21.9048099646
  0
LINE
  5
5EC
100
AcDbEntity
  8
RACCORDO
100
AcDbLine
 62
7
  6
CONTINUOUS
 10
-54.2405080348
 20
21.9048099646
 11
-54.2405080348
 21
22.4349101299
  0
LINE
  5
5ED
100
AcDbEntity
  8
RACCORDO
100
AcDbLine
 62
7
  6
CONTINUOUS
 10
-53.7405080348
 20
22.9783121635
 11
-53.7405080348
 21
22.629704076
  0
LINE
  5
5EE
100
AcDbEntity
  8
RACCORDO
100
AcDbLine
 62
7
  6
CONTINUOUS
 10
-53.7405080348
 20
-22.629704076
 11
-53.7405080348
 21
-22.9783121635
  0
LINE
  5
5EF
100
AcDbEntity
  8
DRAFT
100
AcDbLine
 62
7
  6
CONTINUOUS
 10
-53.5905080348
 20
-21.825
 11
-53.5905080348
 21
-19.9536487485
  0
LINE
  5
5F0
100
AcDbEntity
  8
DRAFT
100
AcDbLine
 62
7
  6
CONTINUOUS
 10
-53.5905080348
 20
19.9536487485
 11
-53.5905080348
 21
21.825
  0
LINE
  5
5F1
100
AcDbEntity
  8
RACCORDO
100
AcDbLine
 62
250
  6
CONTINUOUS
 10
-53.4905080348
 20
22.9783121635
 11
-53.4905080348
 21
22.6218492968
  0
LINE
  5
5F2
100
AcDbEntity
  8
RACCORDO
100
AcDbLine
 62
250
  6
CONTINUOUS
 10
-53.4905080348
 20
-22.6218492968
 11
-53.4905080348
 21
-22.9783121635
  0
LINE
  5
5F3
100
AcDbEntity
  8
RACCORDO
100
AcDbLine
 62
250
  6
CONTINUOUS
 10
-53.4937877668
 20
22.4339535759
 11
-53.4905080348
 21
22.6218492968
  0
LINE
  5
5F4
100
AcDbEntity
  8
RACCORDO
100
AcDbLine
 62
250
  6
CONTINUOUS
 10
-53.9096907624
 20
22.0834594027
 11
-53.9128322531
 21
21.9289665538
  0
LINE
  5
5F5
100
AcDbEntity
  8
RACCORDO
100
AcDbLine
 62
250
  6
CONTINUOUS
 10
-53.9072712269
 20
22.1789397389
 11
-53.9096907624
 21
22.0834594027
  0
LINE
  5
5F6
100
AcDbEntity
  8
RACCORDO
100
AcDbLine
 62
250
  6
CONTINUOUS
 10
-53.5067306038
 20
22.1145427816
 11
-53.5107133001
 21
21.9642142736
  0
LINE
  5
5F7
100
AcDbEntity
  8
RACCORDO
100
AcDbLine
 62
250
  6
CONTINUOUS
 10
-53.9047134788
 20
22.2634934796
 11
-53.9072712269
 21
22.1789397389
  0
LINE
  5
5F8
100
AcDbEntity
  8
RACCORDO
100
AcDbLine
 62
250
  6
CONTINUOUS
 10
-52.503917406
 20
22.1890898516
 11
-52.5082978275
 21
22.0439124778
  0
LINE
  5
5F9
100
AcDbEntity
  8
RACCORDO
100
AcDbLine
 62
250
  6
CONTINUOUS
 10
-53.5038066311
 20
22.2078488826
 11
-53.5067306038
 21
22.1145427816
  0
LINE
  5
5FA
100
AcDbEntity
  8
RACCORDO
100
AcDbLine
 62
250
  6
CONTINUOUS
 10
-53.5008074587
 20
22.2910857954
 11
-53.5038066311
 21
22.2078488826
  0
LINE
  5
5FB
100
AcDbEntity
  8
RACCORDO
100
AcDbLine
 62
250
  6
CONTINUOUS
 10
-52.5008793172
 20
22.2733264581
 11
-52.503917406
 21
22.1890898516
  0
LWPOLYLINE
  5
5FC
100
AcDbEntity
  8
RACCORDO
100
AcDbPolyline
 62
250
  6
CONTINUOUS
 90
5
 70
0
 10
-52.4938181476
 20
22.4147579936
 10
-52.4951065133
 20
22.3957443957
 10
-52.4964718885
 20
22.3718108282
 10
-52.4978995187
 20
22.3432160435
 10
-52.5008793172
 20
22.2733264581
  0
LWPOLYLINE
  5
5FD
100
AcDbEntity
  8
0
100
AcDbPolyline
 62
7
  6
CONTINUOUS
 90
2
 70
0
 43
0.3500000006
 10
-74.2465195313
 20
-1.3571429443
 10
-75.7465154572
 20
-1.3571429443
  0
LWPOLYLINE
  5
5FE
100
AcDbEntity
  8
RACCORDO
100
AcDbPolyline
 62
250
  6
CONTINUOUS
 90
7
 70
0
 10
-52.116810788
 20
-22.3022858724
 10
-52.1155489022
 20
-22.33078325
 10
-52.1143220148
 20
-22.3545354701
 10
-52.1131435888
 20
-22.3732822284
 10
-52.1120265562
 20
-22.386818076
 10
-52.1109831762
 20
-22.3949946716
 10
-52.1100249008
 20
-22.3977224068
  0
LINE
  5
5FF
100
AcDbEntity
  8
RACCORDO
100
AcDbLine
 62
250
  6
CONTINUOUS
 10
-52.1193839363
 20
-22.2323534556
 11
-52.116810788
 21
-22.3022858724
  0
LINE
  5
600
100
AcDbEntity
  8
RACCORDO
100
AcDbLine
 62
250
  6
CONTINUOUS
 10
-52.1219288312
 20
-22.1477954248
 11
-52.1193839363
 21
-22.2323534556
  0
LINE
  5
601
100
AcDbEntity
  8
RACCORDO
100
AcDbLine
 62
250
  6
CONTINUOUS
 10
-52.5108116928
 20
-21.940662077
 11
-52.5068181513
 21
-22.0941360695
  0
LINE
  5
602
100
AcDbEntity
  8
RACCORDO
100
AcDbLine
 62
250
  6
CONTINUOUS
 10
-52.1254510656
 20
-22.0017571618
 11
-52.1219288312
 21
-22.1477954248
  0
LINE
  5
603
100
AcDbEntity
  8
RACCORDO
100
AcDbLine
 62
250
  6
CONTINUOUS
 10
-52.1274526048
 20
-21.8978033211
 11
-52.1254510656
 21
-22.0017571618
  0
LINE
  5
604
100
AcDbEntity
  8
RACCORDO
100
AcDbLine
 62
250
  6
CONTINUOUS
 10
-52.4905080348
 20
-22.6043942318
 11
-52.4938181675
 21
-22.4147568546
  0
LINE
  5
605
100
AcDbEntity
  8
RACCORDO
100
AcDbLine
 62
250
  6
CONTINUOUS
 10
-52.4905080348
 20
-22.9783121635
 11
-52.4905080348
 21
-22.6043942318
  0
LINE
  5
606
100
AcDbEntity
  8
RACCORDO
100
AcDbLine
 62
250
  6
CONTINUOUS
 10
-52.4905080348
 20
22.6043942318
 11
-52.4905080348
 21
22.9783121635
  0
LINE
  5
607
100
AcDbEntity
  8
RACCORDO
100
AcDbLine
 62
7
  6
CONTINUOUS
 10
-52.2405080348
 20
-22.9783121635
 11
-52.2405080348
 21
-22.5965394526
  0
LINE
  5
608
100
AcDbEntity
  8
RACCORDO
100
AcDbLine
 62
7
  6
CONTINUOUS
 10
-52.2405080348
 20
22.5965394526
 11
-52.2405080348
 21
22.9783121635
  0
LINE
  5
609
100
AcDbEntity
  8
RACCORDO
100
AcDbLine
 62
250
  6
CONTINUOUS
 10
-51.4905080348
 20
24.5
 11
-51.4905080348
 21
23.8443375673
  0
LINE
  5
60A
100
AcDbEntity
  8
RACCORDO
100
AcDbLine
 62
250
  6
CONTINUOUS
 10
-51.4905080348
 20
-23.8443375673
 11
-51.4905080348
 21
-24.5
  0
LINE
  5
60B
100
AcDbEntity
  8
RACCORDO
100
AcDbLine
 62
250
  6
CONTINUOUS
 10
-52.4938181677
 20
22.4147568546
 11
-52.4905080348
 21
22.6043942318
  0
LINE
  5
60C
100
AcDbEntity
  8
RACCORDO
100
AcDbLine
 62
250
  6
CONTINUOUS
 10
-52.1243152886
 20
22.0523114877
 11
-52.1274386006
 21
21.8977978048
  0
LINE
  5
60D
100
AcDbEntity
  8
RACCORDO
100
AcDbLine
 62
250
  6
CONTINUOUS
 10
-52.5082978275
 20
22.0439124778
 11
-52.5109165158
 21
21.9406654621
  0
LINE
  5
60E
100
AcDbEntity
  8
RACCORDO
100
AcDbLine
 62
250
  6
CONTINUOUS
 10
-52.1219068161
 20
22.1478033179
 11
-52.1243152886
 21
22.0523114877
  0
LINE
  5
60F
100
AcDbEntity
  8
RACCORDO
100
AcDbLine
 62
250
  6
CONTINUOUS
 10
-52.1193586907
 20
22.2323645266
 11
-52.1219068161
 21
22.1478033179
  0
LINE
  5
610
100
AcDbEntity
  8
RACCORDO
100
AcDbLine
 62
7
  6
CONTINUOUS
 10
-51.2405080348
 20
24.25
 11
-51.2405080348
 21
23.8443375673
  0
LINE
  5
611
100
AcDbEntity
  8
RACCORDO
100
AcDbLine
 62
7
  6
CONTINUOUS
 10
-51.2405080348
 20
-23.8443375673
 11
-51.2405080348
 21
-24.25
  0
LINE
  5
612
100
AcDbEntity
  8
RACCORDO
100
AcDbLine
 62
7
  6
CONTINUOUS
 10
-51.2405080348
 20
-22.3825449351
 11
-51.2405080348
 21
22.3825449351
  0
LINE
  5
613
100
AcDbEntity
  8
ASSI
100
AcDbLine
 62
7
  6
CONTINUOUS
 10
-51.0405080348
 20
-4.171387
 11
-51.0405080348
 21
-6.17215
  0
LINE
  5
614
100
AcDbEntity
  8
ASSI
100
AcDbLine
 62
7
  6
CONTINUOUS
 10
-51.0405080348
 20
-6.505494
 11
-51.0405080348
 21
-8.610937
  0
LINE
  5
615
100
AcDbEntity
  8
ASSI
100
AcDbLine
 62
7
  6
CONTINUOUS
 10
-51.0405080348
 20
-8.944281
 11
-51.0405080348
 21
-11.389806
  0
LINE
  5
616
100
AcDbEntity
  8
ASSI
100
AcDbLine
 62
7
  6
CONTINUOUS
 10
-51.0405080348
 20
-11.889806
 11
-51.0405080348
 21
-12.389825
  0
LINE
  5
617
100
AcDbEntity
  8
ASSI
100
AcDbLine
 62
7
  6
CONTINUOUS
 10
-51.0405080348
 20
-12.723169
 11
-51.0405080348
 21
-14.828613
  0
LWPOLYLINE
  5
618
100
AcDbEntity
  8
0
100
AcDbPolyline
 62
7
  6
CONTINUOUS
 90
13
 70
0
 43
0.3500000006
 10
-46.5619375305
 20
34.1071432343
 10
-46.5619375305
 20
35.3928592072
 10
-46.3476530457
 20
35.8214281769
 10
-45.9190795441
 20
36.2500016785
 10
-45.7047950592
 20
36.2500016785
 10
-45.2762215576
 20
35.8214281769
 10
-45.0619370728
 20
35.3928592072
 10
-45.0619370728
 20
34.1071432343
 10
-45.2762215576
 20
33.6785697327
 10
-45.7047950592
 20
33.2500007629
 10
-45.9190795441
 20
33.2500007629
 10
-46.3476530457
 20
33.6785697327
 10
-46.5619375305
 20
34.1071432343
  0
LINE
  5
619
100
AcDbEntity
  8
RACCORDO
100
AcDbLine
 62
7
  6
CONTINUOUS
 10
-44.2405080348
 20
-23.3
 11
-44.2405080348
 21
-22.2603594806
  0
LINE
  5
61A
100
AcDbEntity
  8
RACCORDO
100
AcDbLine
 62
7
  6
CONTINUOUS
 10
-44.2405080348
 20
22.2603594806
 11
-44.2405080348
 21
23.3
  0
LINE
  5
61B
100
AcDbEntity
  8
RACCORDO
100
AcDbLine
 62
7
  6
CONTINUOUS
 10
-41.2405080348
 20
21.2252970227
 11
-41.2405080348
 21
18.5002938467
  0
LINE
  5
61C
100
AcDbEntity
  8
RACCORDO
100
AcDbLine
 62
7
  6
CONTINUOUS
 10
-41.2405080348
 20
-18.5002938467
 11
-41.2405080348
 21
-21.2252970227
  0
LINE
  5
61D
100
AcDbEntity
  8
RACCORDO
100
AcDbLine
 62
250
  6
CONTINUOUS
 10
-52.2405080348
 20
-23.4113248654
 11
-52.1155080348
 21
-23.1948185145
  0
LINE
  5
61E
100
AcDbEntity
  8
RACCORDO
100
AcDbLine
 62
250
  6
CONTINUOUS
 10
-52.2405080348
 20
23.4113248654
 11
-52.1155080348
 21
23.1948185145
  0
LINE
  5
61F
100
AcDbEntity
  8
RACCORDO
100
AcDbLine
 62
250
  6
CONTINUOUS
 10
-51.4905080348
 20
-23.8443375673
 11
-51.3655080348
 21
-23.6278312164
  0
LINE
  5
620
100
AcDbEntity
  8
RACCORDO
100
AcDbLine
 62
250
  6
CONTINUOUS
 10
-51.4905080348
 20
23.8443375673
 11
-51.3655080348
 21
23.6278312164
  0
LINE
  5
621
100
AcDbEntity
  8
RACCORDO
100
AcDbLine
 62
250
  6
CONTINUOUS
 10
-54.3943595419
 20
17.8860448722
 11
-53.8431966096
 21
17.8956654569
  0
LINE
  5
622
100
AcDbEntity
  8
RACCORDO
100
AcDbLine
 62
7
  6
CONTINUOUS
 10
-54.3417188535
 20
18.3868875664
 11
-53.7816818403
 21
18.3966630488
  0
LINE
  5
623
100
AcDbEntity
  8
RACCORDO
100
AcDbLine
 62
7
  6
CONTINUOUS
 10
-53.8655080348
 20
-23.1948185145
 11
-54.6155080348
 21
-23.6278312164
  0
LINE
  5
624
100
AcDbEntity
  8
RACCORDO
100
AcDbLine
 62
250
  6
CONTINUOUS
 10
-53.7405080348
 20
-23.4113248654
 11
-54.4905080348
 21
-23.8443375673
  0
LINE
  5
625
100
AcDbEntity
  8
RACCORDO
100
AcDbLine
 62
250
  6
CONTINUOUS
 10
-54.1272372482
 20
20.4275437282
 11
-59.7585280072
 21
20.9202178306
  0
LINE
  5
626
100
AcDbEntity
  8
ASSI
100
AcDbLine
 62
250
  6
CONTINUOUS
 10
-54.1272372482
 20
20.4275437282
 11
-59.7585280072
 21
20.9202178306
  0
LINE
  5
627
100
AcDbEntity
  8
RACCORDO
100
AcDbLine
 62
250
  6
CONTINUOUS
 10
-60.5092147379
 20
20.3426507166
 11
-61.057617083
 21
20.4381706578
  0
LINE
  5
628
100
AcDbEntity
  8
ASSI
100
AcDbLine
 62
250
  6
CONTINUOUS
 10
-60.5092147379
 20
20.3426507166
 11
-61.1242146299
 21
20.4498292019
  0
LWPOLYLINE
  5
629
100
AcDbEntity
  8
RACCORDO
100
AcDbPolyline
 62
250
  6
CONTINUOUS
 90
4
 70
0
 10
-61.057617083
 20
20.4381706578
 10
-61.2573049384
 20
20.4732719575
 10
-61.2769583518
 20
20.4768058067
 10
-61.283532346
 20
20.4780703462
  0
LWPOLYLINE
  5
62A
100
AcDbEntity
  8
ASSI
100
AcDbPolyline
 62
250
  6
CONTINUOUS
 90
3
 70
0
 10
-61.1242146299
 20
20.4498292019
 10
-61.2769583518
 20
20.4768058067
 10
-61.283532346
 20
20.4780703462
  0
LINE
  5
62B
100
AcDbEntity
  8
RACCORDO
100
AcDbLine
 62
7
  6
CONTINUOUS
 10
-54.6155080348
 20
23.6278312164
 11
-53.8655080348
 21
23.1948185145
  0
LINE
  5
62C
100
AcDbEntity
  8
RACCORDO
100
AcDbLine
 62
250
  6
CONTINUOUS
 10
-54.4905080348
 20
23.8443375673
 11
-53.7405080348
 21
23.4113248654
  0
LWPOLYLINE
  5
62D
100
AcDbEntity
  8
RACCORDO
100
AcDbPolyline
 62
250
  6
CONTINUOUS
 90
14
 70
0
 10
-53.6875471157
 20
21.9479205229
 10
-53.6530067741
 20
21.9530697012
 10
-53.6374822138
 20
21.9552430069
 10
-53.6230724329
 20
21.9571817362
 10
-53.6094132755
 20
21.9588765315
 10
-53.5964635055
 20
21.9603145312
 10
-53.584264359
 20
21.9615085969
 10
-53.5725753882
 20
21.9624879559
 10
-53.5613927559
 20
21.9632513068
 10
-53.5507202993
 20
21.963799951
 10
-53.540329082
 20
21.9641670208
 10
-53.530142792
 20
21.9643635603
 10
-53.5202377413
 20
21.9643785254
 10
-53.51061393
 20
21.964211916
  0
LINE
  5
62E
100
AcDbEntity
  8
RACCORDO
100
AcDbLine
 62
7
  6
CONTINUOUS
 10
-51.2405080348
 20
21.4
 11
-41.3030734823
 21
21.5734585653
  0
LINE
  5
62F
100
AcDbEntity
  8
DRAFT
100
AcDbLine
 62
7
  6
CONTINUOUS
 10
-51.2405080348
 20
20.9
 11
-41.2405080348
 21
20.9
  0
LWPOLYLINE
  5
630
100
AcDbEntity
  8
RACCORDO
100
AcDbPolyline
 62
250
  6
CONTINUOUS
 90
10
 70
0
 10
-53.9128322531
 20
21.9289665538
 10
-53.8892064955
 20
21.9289258064
 10
-53.8656147115
 20
21.9294063209
 10
-53.8420569012
 20
21.9304080974
 10
-53.818340109
 20
21.9320131201
 10
-53.7946572904
 20
21.9341394047
 10
-53.7715873124
 20
21.9365409986
 10
-53.7491078733
 20
21.9392533414
 10
-53.7272412747
 20
21.9422409935
 10
-53.6875471157
 20
21.9479205229
  0
LINE
  5
631
100
AcDbEntity
  8
RACCORDO
100
AcDbLine
 62
250
  6
CONTINUOUS
 10
-52.1274386006
 20
21.8977978048
 11
-51.2405080348
 21
21.8823164546
  0
LINE
  5
632
100
AcDbEntity
  8
RACCORDO
100
AcDbLine
 62
250
  6
CONTINUOUS
 10
-54.2405080348
 20
21.9346816494
 11
-53.9128322531
 21
21.9289665538
  0
LWPOLYLINE
  5
633
100
AcDbEntity
  8
RACCORDO
100
AcDbPolyline
 62
250
  6
CONTINUOUS
 90
14
 70
0
 10
-53.51061393
 20
21.964211916
 10
-52.5026898705
 20
21.9404367126
 10
-52.4941997565
 20
21.9400836216
 10
-52.4854578769
 20
21.9396066759
 10
-52.4764960328
 20
21.9390133933
 10
-52.4672824232
 20
21.9382962559
 10
-52.4577216447
 20
21.9374327105
 10
-52.4478093958
 20
21.9364188375
 10
-52.4375499782
 20
21.9352585566
 10
-52.4268608934
 20
21.9339410728
 10
-52.4157497677
 20
21.9324621821
 10
-52.4042089748
 20
21.9308260886
 10
-52.3921331381
 20
21.9290346096
 10
-52.379533365
 20
21.9270762299
  0
LWPOLYLINE
  5
634
100
AcDbEntity
  8
RACCORDO
100
AcDbPolyline
 62
250
  6
CONTINUOUS
 90
16
 70
0
 10
-59.7585280072
 20
20.9202178306
 10
-59.8290014288
 20
20.9226425648
 10
-59.8980335022
 20
20.9183914055
 10
-59.9656242274
 20
20.9074643527
 10
-60.0323991089
 20
20.8896229755
 10
-60.0977326422
 20
20.8651057048
 10
-60.1597483133
 20
20.8346278333
 10
-60.2183537955
 20
20.7980158659
 10
-60.2736414155
 20
20.7554432977
 10
-60.3240116404
 20
20.7081459066
 10
-60.3693221771
 20
20.6559786234
 10
-60.4097153186
 20
20.5990865173
 10
-60.4440184109
 20
20.5391405749
 10
-60.4718405692
 20
20.4766977918
 10
-60.4935726782
 20
20.4112011723
 10
-60.5092147379
 20
20.3426507166
  0
LWPOLYLINE
  5
635
100
AcDbEntity
  8
ASSI
100
AcDbPolyline
 62
250
  6
CONTINUOUS
 90
16
 70
0
 10
-59.7585280072
 20
20.9202178306
 10
-59.8290014288
 20
20.9226425648
 10
-59.8980335022
 20
20.9183914055
 10
-59.9656242274
 20
20.9074643527
 10
-60.0323991089
 20
20.8896229755
 10
-60.0977326422
 20
20.8651057048
 10
-60.1597483133
 20
20.8346278333
 10
-60.2183537955
 20
20.7980158659
 10
-60.2736414155
 20
20.7554432977
 10
-60.3240116404
 20
20.7081459066
 10
-60.3693221771
 20
20.6559786234
 10
-60.4097153186
 20
20.5990865173
 10
-60.4440184109
 20
20.5391405749
 10
-60.4718405692
 20
20.4766977918
 10
-60.4935726782
 20
20.4112011723
 10
-60.5092147379
 20
20.3426507166
  0
LINE
  5
636
100
AcDbEntity
  8
RACCORDO
100
AcDbLine
 62
7
  6
CONTINUOUS
 10
-54.0436272137
 20
21.2230400681
 11
-59.6749179727
 21
21.7157141705
  0
LINE
  5
637
100
AcDbEntity
  8
ASSI
100
AcDbLine
 62
7
  6
CONTINUOUS
 10
-54.0436272137
 20
21.2230400681
 11
-59.6749179727
 21
21.7157141705
  0
LINE
  5
638
100
AcDbEntity
  8
DRAFT
100
AcDbLine
 62
7
  6
CONTINUOUS
 10
-53.5905080348
 20
21.825
 11
-54.2405080348
 21
21.9048099646
  0
LWPOLYLINE
  5
639
100
AcDbEntity
  8
RACCORDO
100
AcDbPolyline
 62
250
  6
CONTINUOUS
 90
12
 70
0
 10
-52.379533365
 20
21.9270762299
 10
-52.3229275454
 20
21.917870309
 10
-52.3069831589
 20
21.915353543
 10
-52.2902305723
 20
21.9127872071
 10
-52.272701692
 20
21.9101933003
 10
-52.2543896865
 20
21.9077292714
 10
-52.2353152323
 20
21.9053805523
 10
-52.2154576528
 20
21.9031617111
 10
-52.1947480861
 20
21.9012739004
 10
-52.1731635782
 20
21.8997841713
 10
-52.150727083
 20
21.8986254727
 10
-52.1274386006
 20
21.8977978048
  0
LWPOLYLINE
  5
63A
100
AcDbEntity
  8
0
100
AcDbPolyline
 62
7
  6
CONTINUOUS
 90
10
 70
0
 43
0.3500000006
 10
-52.2976095428
 20
43.7499994354
 10
-52.2261828918
 20
43.6071416016
 10
-52.2261828918
 20
43.5357149506
 10
-52.3690407257
 20
43.3928571167
 10
-52.4404673767
 20
43.3928571167
 10
-52.5118985596
 20
43.4642837677
 10
-52.5118985596
 20
43.5357149506
 10
-52.4404673767
 20
43.6785727844
 10
-52.3690407257
 20
43.7499994354
 10
-52.2976095428
 20
43.7499994354
  0
LINE
  5
63B
100
AcDbEntity
  8
RACCORDO
100
AcDbLine
 62
250
  6
CONTINUOUS
 10
-53.835159301
 20
22.4298935239
 11
-53.7704356252
 21
22.4323662111
  0
LINE
  5
63C
100
AcDbEntity
  8
RACCORDO
100
AcDbLine
 62
250
  6
CONTINUOUS
 10
-53.7704356252
 20
22.4323662111
 11
-53.7345246646
 21
22.4334781661
  0
LINE
  5
63D
100
AcDbEntity
  8
RACCORDO
100
AcDbLine
 62
250
  6
CONTINUOUS
 10
-53.7345246646
 20
22.4334781661
 11
-53.6970763922
 21
22.434313232
  0
LINE
  5
63E
100
AcDbEntity
  8
RACCORDO
100
AcDbLine
 62
250
  6
CONTINUOUS
 10
-53.6970763922
 20
22.434313232
 11
-53.6591738457
 21
22.4348337163
  0
LINE
  5
63F
100
AcDbEntity
  8
RACCORDO
100
AcDbLine
 62
250
  6
CONTINUOUS
 10
-53.6591738457
 20
22.4348337163
 11
-53.6213551503
 21
22.435040542
  0
LINE
  5
640
100
AcDbEntity
  8
RACCORDO
100
AcDbLine
 62
250
  6
CONTINUOUS
 10
-52.4905080348
 20
22.9783121635
 11
-52.2405080348
 21
22.9783121635
  0
LINE
  5
641
100
AcDbEntity
  8
RACCORDO
100
AcDbLine
 62
250
  6
CONTINUOUS
 10
-53.4905080348
 20
22.9783121635
 11
-53.7405080348
 21
22.9783121635
  0
LINE
  5
642
100
AcDbEntity
  8
RACCORDO
100
AcDbLine
 62
7
  6
CONTINUOUS
 10
-44.7405080348
 20
23.8
 11
-51.2405080348
 21
23.8
  0
LINE
  5
643
100
AcDbEntity
  8
RACCORDO
100
AcDbLine
 62
250
  6
CONTINUOUS
 10
-51.2405080348
 20
23.8443375673
 11
-51.4905080348
 21
23.8443375673
  0
LINE
  5
644
100
AcDbEntity
  8
RACCORDO
100
AcDbLine
 62
250
  6
CONTINUOUS
 10
-54.4905080348
 20
23.8443375673
 11
-54.7405080348
 21
23.8443375673
  0
LINE
  5
645
100
AcDbEntity
  8
RACCORDO
100
AcDbLine
 62
250
  6
CONTINUOUS
 10
-53.6213551503
 20
22.435040542
 11
-53.5838365855
 21
22.4349940383
  0
LINE
  5
646
100
AcDbEntity
  8
RACCORDO
100
AcDbLine
 62
250
  6
CONTINUOUS
 10
-53.5838365855
 20
22.4349940383
 11
-53.5470822319
 21
22.4347252171
  0
LWPOLYLINE
  5
647
100
AcDbEntity
  8
RACCORDO
100
AcDbPolyline
 62
250
  6
CONTINUOUS
 90
6
 70
0
 10
-53.8953233494
 20
22.4288932441
 10
-53.8847957955
 20
22.428792384
 10
-53.8736493815
 20
22.4288536156
 10
-53.8617863932
 20
22.4290679978
 10
-53.8489859442
 20
22.4294212364
 10
-53.835159301
 20
22.4298935239
  0
LINE
  5
648
100
AcDbEntity
  8
RACCORDO
100
AcDbLine
 62
250
  6
CONTINUOUS
 10
-53.5470822319
 20
22.4347252171
 11
-53.5112049228
 21
22.4342505676
  0
LINE
  5
649
100
AcDbEntity
  8
RACCORDO
100
AcDbLine
 62
7
  6
CONTINUOUS
 10
-54.2405080348
 20
22.4349101299
 11
-53.8953471188
 21
22.4288853237
  0
LINE
  5
64A
100
AcDbEntity
  8
RACCORDO
100
AcDbLine
 62
7
  6
CONTINUOUS
 10
-52.1099869065
 20
22.3977217452
 11
-42.2230556284
 21
22.2251447178
  0
LINE
  5
64B
100
AcDbEntity
  8
RACCORDO
100
AcDbLine
 62
250
  6
CONTINUOUS
 10
-53.4905080348
 20
22.6218492968
 11
-52.4905080348
 21
22.6043942318
  0
LINE
  5
64C
100
AcDbEntity
  8
RACCORDO
100
AcDbLine
 62
250
  6
CONTINUOUS
 10
-53.5112049228
 20
22.4342505676
 11
-52.4938181677
 21
22.4147568546
  0
LINE
  5
64D
100
AcDbEntity
  8
RACCORDO
100
AcDbLine
 62
250
  6
CONTINUOUS
 10
-52.4938181476
 20
22.4147579936
 11
-52.4512423189
 21
22.4138385985
  0
LINE
  5
64E
100
AcDbEntity
  8
RACCORDO
100
AcDbLine
 62
250
  6
CONTINUOUS
 10
-52.4512423189
 20
22.4138385985
 11
-52.421279473
 21
22.4130354773
  0
LINE
  5
64F
100
AcDbEntity
  8
RACCORDO
100
AcDbLine
 62
250
  6
CONTINUOUS
 10
-53.7405080348
 20
22.629704076
 11
-53.4905080348
 21
22.6218492968
  0
LINE
  5
650
100
AcDbEntity
  8
RACCORDO
100
AcDbLine
 62
250
  6
CONTINUOUS
 10
-52.4905080348
 20
22.6043942318
 11
-52.2405080348
 21
22.5965394526
  0
LINE
  5
651
100
AcDbEntity
  8
RACCORDO
100
AcDbLine
 62
250
  6
CONTINUOUS
 10
-52.421279473
 20
22.4130354773
 11
-52.3905424503
 21
22.4120610497
  0
LINE
  5
652
100
AcDbEntity
  8
RACCORDO
100
AcDbLine
 62
250
  6
CONTINUOUS
 10
-52.3905424503
 20
22.4120610497
 11
-52.3593971802
 21
22.4109101434
  0
LINE
  5
653
100
AcDbEntity
  8
RACCORDO
100
AcDbLine
 62
250
  6
CONTINUOUS
 10
-52.3593971802
 20
22.4109101434
 11
-52.3280712829
 21
22.4096014908
  0
LWPOLYLINE
  5
654
100
AcDbEntity
  8
RACCORDO
100
AcDbPolyline
 62
250
  6
CONTINUOUS
 90
3
 70
0
 10
-52.3280712829
 20
22.4096014908
 10
-52.2969272815
 20
22.4081078021
 10
-52.2815735549
 20
22.407312328
  0
LWPOLYLINE
  5
655
100
AcDbEntity
  8
RACCORDO
100
AcDbPolyline
 62
250
  6
CONTINUOUS
 90
5
 70
0
 10
-52.1568874968
 20
22.3996513002
 10
-52.1447289014
 20
22.3989909799
 10
-52.1328680237
 20
22.3984306341
 10
-52.1212967223
 20
22.3979996869
 10
-52.1099870746
 20
22.3977210232
  0
LINE
  5
656
100
AcDbEntity
  8
RACCORDO
100
AcDbLine
 62
250
  6
CONTINUOUS
 10
-52.2815735549
 20
22.407312328
 11
-52.2371487124
 21
22.4047129647
  0
LWPOLYLINE
  5
657
100
AcDbEntity
  8
RACCORDO
100
AcDbPolyline
 62
250
  6
CONTINUOUS
 90
3
 70
0
 10
-52.2371487124
 20
22.4047129647
 10
-52.1822309647
 20
22.4011972176
 10
-52.1568874968
 20
22.3996513002
  0
LINE
  5
658
100
AcDbEntity
  8
RACCORDO
100
AcDbLine
 62
250
  6
CONTINUOUS
 10
-51.2405080348
 20
24.25
 11
-54.7405080348
 21
24.25
  0
LINE
  5
659
100
AcDbEntity
  8
RACCORDO
100
AcDbLine
 62
7
  6
CONTINUOUS
 10
-54.4905080348
 20
24.5
 11
-51.4905080348
 21
24.5
  0
LWPOLYLINE
  5
65A
100
AcDbEntity
  8
0
100
AcDbPolyline
 62
7
  6
CONTINUOUS
 90
6
 70
0
 43
0.3500000006
 10
-51.2261825867
 20
43.2499992828
 10
-50.1547556305
 20
43.2499992828
 10
-49.9404666138
 20
43.4642837677
 10
-49.9404666138
 20
44.5357152557
 10
-50.3690401154
 20
44.9642842255
 10
-50.7976136169
 20
44.9642842255
  0
LWPOLYLINE
  5
65B
100
AcDbEntity
  8
0
100
AcDbPolyline
 62
7
  6
CONTINUOUS
 90
7
 70
0
 43
0.3500000006
 10
-56.1547529297
 20
43.2499992828
 10
-57.6547533875
 20
43.2499992828
 10
-56.1547529297
 20
45.3928577271
 10
-56.1547529297
 20
45.8214266968
 10
-56.5833264313
 20
46.2500001984
 10
-57.2261844177
 20
46.2500001984
 10
-57.6547533875
 20
45.6071422119
  0
LWPOLYLINE
  5
65C
100
AcDbEntity
  8
0
100
AcDbPolyline
 62
7
  6
CONTINUOUS
 90
3
 70
0
 43
0.3500000006
 10
-53.7976100006
 20
43.8928572693
 10
-55.2976104584
 20
43.8928572693
 10
-54.6547524719
 20
46.2500001984
  0
ARC
  5
65D
100
AcDbEntity
  8
RACCORDO
100
AcDbCircle
 62
7
  6
CONTINUOUS
 10
-12.1
 20
-24.25
 40
0.25
100
AcDbArc
 50
270.0
 51
360.0
  0
ARC
  5
65E
100
AcDbEntity
  8
RACCORDO
100
AcDbCircle
 62
7
  6
CONTINUOUS
 10
-14.0
 20
-24.25
 40
0.25
100
AcDbArc
 50
180.0
 51
270.0
  0
ARC
  5
65F
100
AcDbEntity
  8
RACCORDO
100
AcDbCircle
 62
7
  6
CONTINUOUS
 10
-32.9
 20
-24.25
 40
0.25
100
AcDbArc
 50
180.0
 51
270.0
  0
ARC
  5
660
100
AcDbEntity
  8
RACCORDO
100
AcDbCircle
 62
7
  6
CONTINUOUS
 10
-31.0
 20
-24.25
 40
0.25
100
AcDbArc
 50
270.0
 51
360.0
  0
ARC
  5
661
100
AcDbEntity
  8
RACCORDO
100
AcDbCircle
 62
7
  6
CONTINUOUS
 10
-14.0
 20
24.25
 40
0.25
100
AcDbArc
 50
90.0
 51
180.0
  0
ARC
  5
662
100
AcDbEntity
  8
RACCORDO
100
AcDbCircle
 62
7
  6
CONTINUOUS
 10
-12.1
 20
24.25
 40
0.25
100
AcDbArc
 50
0.0
 51
90.0
  0
ARC
  5
663
100
AcDbEntity
  8
RACCORDO
100
AcDbCircle
 62
7
  6
CONTINUOUS
 10
-31.0
 20
24.25
 40
0.25
100
AcDbArc
 50
0.0
 51
90.0
  0
ARC
  5
664
100
AcDbEntity
  8
RACCORDO
100
AcDbCircle
 62
7
  6
CONTINUOUS
 10
-32.9
 20
24.25
 40
0.25
100
AcDbArc
 50
90.0
 51
180.0
  0
ARC
  5
665
100
AcDbEntity
  8
RACCORDO
100
AcDbCircle
 62
7
  6
CONTINUOUS
 10
32.9
 20
-24.25
 40
0.25
100
AcDbArc
 50
270.0
 51
360.0
  0
ARC
  5
666
100
AcDbEntity
  8
RACCORDO
100
AcDbCircle
 62
7
  6
CONTINUOUS
 10
31.0
 20
-24.25
 40
0.25
100
AcDbArc
 50
180.0
 51
270.0
  0
ARC
  5
667
100
AcDbEntity
  8
RACCORDO
100
AcDbCircle
 62
7
  6
CONTINUOUS
 10
12.1
 20
-24.25
 40
0.25
100
AcDbArc
 50
180.0
 51
270.0
  0
ARC
  5
668
100
AcDbEntity
  8
RACCORDO
100
AcDbCircle
 62
7
  6
CONTINUOUS
 10
14.0
 20
-24.25
 40
0.25
100
AcDbArc
 50
270.0
 51
360.0
  0
ARC
  5
669
100
AcDbEntity
  8
RACCORDO
100
AcDbCircle
 62
7
  6
CONTINUOUS
 10
31.0
 20
24.25
 40
0.25
100
AcDbArc
 50
90.0
 51
180.0
  0
ARC
  5
66A
100
AcDbEntity
  8
RACCORDO
100
AcDbCircle
 62
7
  6
CONTINUOUS
 10
32.9
 20
24.25
 40
0.25
100
AcDbArc
 50
0.0
 51
90.0
  0
ARC
  5
66B
100
AcDbEntity
  8
RACCORDO
100
AcDbCircle
 62
7
  6
CONTINUOUS
 10
14.0
 20
24.25
 40
0.25
100
AcDbArc
 50
0.0
 51
90.0
  0
ARC
  5
66C
100
AcDbEntity
  8
RACCORDO
100
AcDbCircle
 62
7
  6
CONTINUOUS
 10
12.1
 20
24.25
 40
0.25
100
AcDbArc
 50
90.0
 51
180.0
  0
ARC
  5
66D
100
AcDbEntity
  8
RACCORDO
100
AcDbCircle
 62
7
  6
CONTINUOUS
 10
-55.3781381066
 20
-13.4775590719
 40
10.0
100
AcDbArc
 50
168.8193829706
 51
179.1806170294
  0
ARC
  5
66E
100
AcDbEntity
  8
RACCORDO
100
AcDbCircle
 62
7
  6
CONTINUOUS
 10
-63.9975719087
 20
-19.6620355819
 40
1.5
100
AcDbArc
 50
177.8517002973
 51
263.0
  0
ARC
  5
66F
100
AcDbEntity
  8
ASSI
100
AcDbCircle
 62
7
  6
CONTINUOUS
 10
-63.9975719087
 20
-19.6620355819
 40
1.5
100
AcDbArc
 50
177.8517002973
 51
263.0
  0
ARC
  5
670
100
AcDbEntity
  8
RACCORDO
100
AcDbCircle
 62
7
  6
CONTINUOUS
 10
-42.2405080348
 20
-21.2252970227
 40
1.0
100
AcDbArc
 50
271.0
 51
360.0
  0
ARC
  5
671
100
AcDbEntity
  8
RACCORDO
100
AcDbCircle
 62
7
  6
CONTINUOUS
 10
-44.7405080348
 20
-23.3
 40
0.5
100
AcDbArc
 50
270.0
 51
360.0
  0
ARC
  5
672
100
AcDbEntity
  8
RACCORDO
100
AcDbCircle
 62
250
  6
CONTINUOUS
 10
-51.9905080348
 20
-22.9783121635
 40
0.5
100
AcDbArc
 50
180.0
 51
240.0
  0
ARC
  5
673
100
AcDbEntity
  8
RACCORDO
100
AcDbCircle
 62
250
  6
CONTINUOUS
 10
-53.9905080348
 20
-22.9783121635
 40
0.5
100
AcDbArc
 50
300.0
 51
360.0
  0
ARC
  5
674
100
AcDbEntity
  8
RACCORDO
100
AcDbCircle
 62
7
  6
CONTINUOUS
 10
-57.9405080348
 20
-18.0240247691
 40
0.3
100
AcDbArc
 50
214.735356088
 51
269.0
  0
ARC
  5
675
100
AcDbEntity
  8
RACCORDO
100
AcDbCircle
 62
7
  6
CONTINUOUS
 10
-51.9905080348
 20
-22.9783121635
 40
0.25
100
AcDbArc
 50
180.0
 51
240.0
  0
ARC
  5
676
100
AcDbEntity
  8
RACCORDO
100
AcDbCircle
 62
7
  6
CONTINUOUS
 10
-54.4905080348
 20
-24.25
 40
0.25
100
AcDbArc
 50
180.0
 51
270.0
  0
ARC
  5
677
100
AcDbEntity
  8
RACCORDO
100
AcDbCircle
 62
7
  6
CONTINUOUS
 10
-53.9905080348
 20
-22.9783121635
 40
0.25
100
AcDbArc
 50
300.0
 51
360.0
  0
ARC
  5
678
100
AcDbEntity
  8
RACCORDO
100
AcDbCircle
 62
7
  6
CONTINUOUS
 10
-54.4905080348
 20
-23.8443375673
 40
0.25
100
AcDbArc
 50
120.0
 51
180.0
  0
ARC
  5
679
100
AcDbEntity
  8
RACCORDO
100
AcDbCircle
 62
7
  6
CONTINUOUS
 10
-51.4905080348
 20
-23.8443375673
 40
0.25
100
AcDbArc
 50
0.0
 51
60.0
  0
ARC
  5
67A
100
AcDbEntity
  8
RACCORDO
100
AcDbCircle
 62
7
  6
CONTINUOUS
 10
-51.4905080348
 20
-24.25
 40
0.25
100
AcDbArc
 50
270.0
 51
360.0
  0
ARC
  5
67B
100
AcDbEntity
  8
RACCORDO
100
AcDbCircle
 62
7
  6
CONTINUOUS
 10
-53.9405080348
 20
-22.629704076
 40
0.2
100
AcDbArc
 50
0.0000068603
 51
83.4166666633
  0
ARC
  5
67C
100
AcDbEntity
  8
RACCORDO
100
AcDbCircle
 62
7
  6
CONTINUOUS
 10
-52.0405080348
 20
-22.5965394526
 40
0.2
100
AcDbArc
 50
98.416666667
 51
180.0
  0
ARC
  5
67D
100
AcDbEntity
  8
RACCORDO
100
AcDbCircle
 62
7
  6
CONTINUOUS
 10
-65.2771257666
 20
-13.3359846841
 40
0.1
100
AcDbArc
 50
179.1806170289
 51
263.6999999999
  0
ARC
  5
67E
100
AcDbEntity
  8
RACCORDO
100
AcDbCircle
 62
7
  6
CONTINUOUS
 10
-65.0902441063
 20
-11.5579244579
 40
0.1
100
AcDbArc
 50
84.3000000001
 51
168.8193829711
  0
ARC
  5
67F
100
AcDbEntity
  8
RACCORDO
100
AcDbCircle
 62
7
  6
CONTINUOUS
 10
-59.8056515868
 20
20.2214221234
 40
1.5
100
AcDbArc
 50
85.0
 51
170.1482975661
  0
ARC
  5
680
100
AcDbEntity
  8
ASSI
100
AcDbCircle
 62
7
  6
CONTINUOUS
 10
-59.8056515868
 20
20.2214221234
 40
1.5
100
AcDbArc
 50
85.0
 51
170.1482975661
  0
ARC
  5
681
100
AcDbEntity
  8
RACCORDO
100
AcDbCircle
 62
7
  6
CONTINUOUS
 10
-42.2405080348
 20
21.2252970227
 40
1.0
100
AcDbArc
 50
0.0
 51
89.0
  0
ARC
  5
682
100
AcDbEntity
  8
RACCORDO
100
AcDbCircle
 62
7
  6
CONTINUOUS
 10
-44.7405080348
 20
23.3
 40
0.5
100
AcDbArc
 50
0.0
 51
90.0
  0
ARC
  5
683
100
AcDbEntity
  8
RACCORDO
100
AcDbCircle
 62
250
  6
CONTINUOUS
 10
-53.9905080348
 20
22.9783121635
 40
0.5
100
AcDbArc
 50
0.0
 51
60.0
  0
ARC
  5
684
100
AcDbEntity
  8
RACCORDO
100
AcDbCircle
 62
250
  6
CONTINUOUS
 10
-51.9905080348
 20
22.9783121635
 40
0.5
100
AcDbArc
 50
120.0
 51
180.0
  0
ARC
  5
685
100
AcDbEntity
  8
RACCORDO
100
AcDbCircle
 62
7
  6
CONTINUOUS
 10
-53.9905080348
 20
22.9783121635
 40
0.25
100
AcDbArc
 50
0.0
 51
60.0
  0
ARC
  5
686
100
AcDbEntity
  8
RACCORDO
100
AcDbCircle
 62
7
  6
CONTINUOUS
 10
-51.9905080348
 20
22.9783121635
 40
0.25
100
AcDbArc
 50
120.0
 51
180.0
  0
ARC
  5
687
100
AcDbEntity
  8
RACCORDO
100
AcDbCircle
 62
7
  6
CONTINUOUS
 10
-54.4905080348
 20
24.25
 40
0.25
100
AcDbArc
 50
90.0
 51
180.0
  0
ARC
  5
688
100
AcDbEntity
  8
RACCORDO
100
AcDbCircle
 62
7
  6
CONTINUOUS
 10
-51.4905080348
 20
23.8443375673
 40
0.25
100
AcDbArc
 50
300.0
 51
360.0
  0
ARC
  5
689
100
AcDbEntity
  8
RACCORDO
100
AcDbCircle
 62
7
  6
CONTINUOUS
 10
-54.4905080348
 20
23.8443375673
 40
0.25
100
AcDbArc
 50
180.0
 51
240.0
  0
ARC
  5
68A
100
AcDbEntity
  8
RACCORDO
100
AcDbCircle
 62
7
  6
CONTINUOUS
 10
-51.4905080348
 20
24.25
 40
0.25
100
AcDbArc
 50
0.0
 51
90.0
  0
ARC
  5
68B
100
AcDbEntity
  8
RACCORDO
100
AcDbCircle
 62
7
  6
CONTINUOUS
 10
-52.0405108304
 20
22.5965395014
 40
0.1999987575
100
AcDbArc
 50
180.0000139794
 51
269.0
  0
ARC
  5
68C
100
AcDbEntity
  8
RACCORDO
100
AcDbCircle
 62
7
  6
CONTINUOUS
 10
-53.9405052393
 20
22.6297040272
 40
0.1999987575
100
AcDbArc
 50
268.9991990114
 51
0.0000139794
  0
ARC
  5
68D
100
AcDbEntity
  8
RACCORDO
100
AcDbCircle
 62
7
  6
CONTINUOUS
 10
234.2926293831
 20
-30.8515759334
 40
300.0
100
AcDbArc
 50
170.1482870872
 51
177.8517129021
  0
ARC
  5
68E
100
AcDbEntity
  8
ASSI
100
AcDbCircle
 62
7
  6
CONTINUOUS
 10
234.2926293831
 20
-30.8515759334
 40
300.0
100
AcDbArc
 50
170.1482870872
 51
177.8517129021
  0
ELLIPSE
  5
68F
100
AcDbEntity
  8
RACCORDO
100
AcDbEllipse
 62
7
  6
CONTINUOUS
 10
-11.850076164
 20
21.882468771
 30
0.0
 11
0.3536610946
 21
-0.3536610946
 31
0.0
 40
0.9996954599
 41
0.7852458701
 42
1.2045179838
  0
ELLIPSE
  5
690
100
AcDbEntity
  8
RACCORDO
100
AcDbEllipse
 62
7
  6
CONTINUOUS
 10
-33.149923836
 20
-21.882468771
 30
0.0
 11
0.3536610946
 21
-0.3536610946
 31
0.0
 40
0.9996954599
 41
-2.3563467834
 42
-1.9370746698
  0
ELLIPSE
  5
691
100
AcDbEntity
  8
RACCORDO
100
AcDbEllipse
 62
7
  6
CONTINUOUS
 10
-11.850076164
 20
-21.882468771
 30
0.0
 11
0.3536610946
 21
0.3536610946
 31
0.0
 40
0.9996954599
 41
-1.2051859181
 42
-0.7852458701
  0
ELLIPSE
  5
692
100
AcDbEntity
  8
RACCORDO
100
AcDbEllipse
 62
7
  6
CONTINUOUS
 10
-33.149923836
 20
21.882468771
 30
0.0
 11
0.3536610946
 21
0.3536610946
 31
0.0
 40
0.9996954599
 41
1.9362497304
 42
2.3563467834
  0
ELLIPSE
  5
693
100
AcDbEntity
  8
RACCORDO
100
AcDbEllipse
 62
7
  6
CONTINUOUS
 10
-33.149923836
 20
21.882468771
 30
0.0
 11
0.3536610946
 21
0.3536610946
 31
0.0
 40
0.9996954599
 41
1.6060491116
 42
1.8981878383
  0
ELLIPSE
  5
694
100
AcDbEntity
  8
RACCORDO
100
AcDbEllipse
 62
7
  6
CONTINUOUS
 10
-11.9024413588
 20
-21.9348339658
 30
0.0
 11
-0.3536610946
 21
-0.3536610946
 31
0.0
 40
0.9996954599
 41
7.0684311773
 42
8.6395320906
  0
ELLIPSE
  5
695
100
AcDbEntity
  8
RACCORDO
100
AcDbEllipse
 62
7
  6
CONTINUOUS
 10
-33.0975586412
 20
21.9348339658
 30
0.0
 11
0.3536610946
 21
0.3536610946
 31
0.0
 40
0.9996954599
 41
7.0684311773
 42
8.6395320906
  0
ELLIPSE
  5
696
100
AcDbEntity
  8
RACCORDO
100
AcDbEllipse
 62
7
  6
CONTINUOUS
 10
-11.9024413588
 20
21.9348339658
 30
0.0
 11
-0.3536610946
 21
0.3536610946
 31
0.0
 40
0.9996954599
 41
-2.3563467834
 42
-0.7852458701
  0
ELLIPSE
  5
697
100
AcDbEntity
  8
RACCORDO
100
AcDbEllipse
 62
7
  6
CONTINUOUS
 10
-33.0975586412
 20
-21.9348339658
 30
0.0
 11
0.3536610946
 21
-0.3536610946
 31
0.0
 40
0.9996954599
 41
-2.3563467834
 42
-0.7852458701
  0
ELLIPSE
  5
698
100
AcDbEntity
  8
RACCORDO
100
AcDbEllipse
 62
7
  6
CONTINUOUS
 10
33.149923836
 20
21.882468771
 30
0.0
 11
0.3536610946
 21
-0.3536610946
 31
0.0
 40
0.9996954599
 41
0.7852458701
 42
1.2045179838
  0
ELLIPSE
  5
699
100
AcDbEntity
  8
RACCORDO
100
AcDbEllipse
 62
7
  6
CONTINUOUS
 10
11.850076164
 20
-21.882468771
 30
0.0
 11
0.3536610946
 21
-0.3536610946
 31
0.0
 40
0.9996954599
 41
-2.3563467834
 42
-1.9370746698
  0
ELLIPSE
  5
69A
100
AcDbEntity
  8
RACCORDO
100
AcDbEllipse
 62
7
  6
CONTINUOUS
 10
33.149923836
 20
-21.882468771
 30
0.0
 11
0.3536610946
 21
0.3536610946
 31
0.0
 40
0.9996954599
 41
-1.2051859181
 42
-0.7852458701
  0
ELLIPSE
  5
69B
100
AcDbEntity
  8
RACCORDO
100
AcDbEllipse
 62
7
  6
CONTINUOUS
 10
11.850076164
 20
21.882468771
 30
0.0
 11
0.3536610946
 21
0.3536610946
 31
0.0
 40
0.9996954599
 41
1.9362497304
 42
2.3563467834
  0
ELLIPSE
  5
69C
100
AcDbEntity
  8
RACCORDO
100
AcDbEllipse
 62
7
  6
CONTINUOUS
 10
11.850076164
 20
21.882468771
 30
0.0
 11
0.3536610946
 21
0.3536610946
 31
0.0
 40
0.9996954599
 41
1.6060491116
 42
1.8981878383
  0
ELLIPSE
  5
69D
100
AcDbEntity
  8
RACCORDO
100
AcDbEllipse
 62
7
  6
CONTINUOUS
 10
33.0975586412
 20
-21.9348339658
 30
0.0
 11
-0.3536610946
 21
-0.3536610946
 31
0.0
 40
0.9996954599
 41
7.0684311773
 42
8.6395320906
  0
ELLIPSE
  5
69E
100
AcDbEntity
  8
RACCORDO
100
AcDbEllipse
 62
7
  6
CONTINUOUS
 10
11.9024413588
 20
21.9348339658
 30
0.0
 11
0.3536610946
 21
0.3536610946
 31
0.0
 40
0.9996954599
 41
7.0684311773
 42
8.6395320906
  0
ELLIPSE
  5
69F
100
AcDbEntity
  8
RACCORDO
100
AcDbEllipse
 62
7
  6
CONTINUOUS
 10
33.0975586412
 20
21.9348339658
 30
0.0
 11
-0.3536610946
 21
0.3536610946
 31
0.0
 40
0.9996954599
 41
-2.3563467834
 42
-0.7852458701
  0
ELLIPSE
  5
6A0
100
AcDbEntity
  8
RACCORDO
100
AcDbEllipse
 62
7
  6
CONTINUOUS
 10
11.9024413588
 20
-21.9348339658
 30
0.0
 11
0.3536610946
 21
-0.3536610946
 31
0.0
 40
0.9996954599
 41
-2.3563467834
 42
-0.7852458701
  0
ELLIPSE
  5
6A1
100
AcDbEntity
  8
RACCORDO
100
AcDbEllipse
 62
7
  6
CONTINUOUS
 10
32.5998781376
 20
-21.0440192902
 30
0.0
 11
0.7998183719
 21
-0.0221571454
 31
0.0
 40
0.9945135036
 41
-1.5429479775
 42
0.0275437628
  0
ELLIPSE
  5
6A2
100
AcDbEntity
  8
RACCORDO
100
AcDbEllipse
 62
7
  6
CONTINUOUS
 10
-32.5998781376
 20
-21.0440192902
 30
0.0
 11
0.7998183719
 21
0.0221571454
 31
0.0
 40
0.9945135036
 41
3.1140488908
 42
4.6845406311
  0
ELLIPSE
  5
6A3
100
AcDbEntity
  8
ASSI
100
AcDbEllipse
 62
7
  6
CONTINUOUS
 10
32.5998781376
 20
-21.0440192902
 30
0.0
 11
0.7998183719
 21
-0.0221571454
 31
0.0
 40
0.9945135036
 41
-1.5429479775
 42
0.0275437628
  0
ELLIPSE
  5
6A4
100
AcDbEntity
  8
ASSI
100
AcDbEllipse
 62
7
  6
CONTINUOUS
 10
-32.5998781376
 20
20.4273013569
 30
0.0
 11
0.7998183719
 21
-0.0221571454
 31
0.0
 40
0.9945135036
 41
2.9725708238
 42
3.1691364164
  0
ELLIPSE
  5
6A5
100
AcDbEntity
  8
ASSI
100
AcDbEllipse
 62
7
  6
CONTINUOUS
 10
-32.5998781376
 20
-21.0440192902
 30
0.0
 11
0.7998183719
 21
0.0221571454
 31
0.0
 40
0.9945135036
 41
3.1140488908
 42
4.6845406311
  0
ELLIPSE
  5
6A6
100
AcDbEntity
  8
ASSI
100
AcDbEllipse
 62
7
  6
CONTINUOUS
 10
32.5998781376
 20
20.4273013569
 30
0.0
 11
0.7998183719
 21
0.0221571454
 31
0.0
 40
0.9945135036
 41
-0.0275437628
 42
0.1690218298
  0
ENDSEC
  0
SECTION
  2
OBJECTS
  0
DICTIONARY
  5
C
100
AcDbDictionary
280
0
281
1
  3
ACAD_GROUP
350
D
  3
ACAD_MLINESTYLE
350
17
  3
ACAD_LAYOUT
350
1A
  3
ACAD_PLOTSETTINGS
350
19
  3
ACAD_PLOTSTYLENAME
350
E
  0
DICTIONARY
  5
D
102
{ACAD_REACTORS
330
C
102
}
100
AcDbDictionary
280
0
281
1
  0
ACDBDICTIONARYWDFLT
  5
E
102
{ACAD_REACTORS
330
C
102
}
100
AcDbDictionary
281
1
  3
Normal
350
F
100
AcDbDictionaryWithDefault
340
F
  0
DICTIONARY
  5
17
102
{ACAD_REACTORS
330
C
102
}
100
AcDbDictionary
280
0
281
1
  3
Standard
350
18
  0
DICTIONARY
  5
19
102
{ACAD_REACTORS
330
C
102
}
100
AcDbDictionary
281
1
  0
DICTIONARY
  5
1A
102
{ACAD_REACTORS
330
C
102
}
100
AcDbDictionary
281
1
  3
Model
350
6A7
  3
Layout1
350
6A8
  0
ACDBPLACEHOLDER
  5
F
102
{ACAD_REACTORS
330
E
102
}
  0
MLINESTYLE
  5
18
102
{ACAD_REACTORS
330
17
102
}
100
AcDbMlineStyle
  2
STANDARD
 70
0
  3

 62
256
 51
90.0
 52
90.0
 71
2
 49
0.5
 62
256
  6
BYLAYER
 49
-0.5
 62
256
  6
BYLAYER
  0
LAYOUT
  5
6A7
102
{ACAD_REACTORS
330
1A
102
}
100
AcDbPlotSettings
  1

  2
none_device
  4
ISO_A4_(297.00_x_210.00_MM)
  6

 40
0.0
 41
0.0
 42
0.0
 43
0.0
 44
297.0
 45
210.0
 46
0.0
 47
0.0
 48
0.0
 49
0.0
140
0.0
141
0.0
142
1.0
143
1.0
 70
1024
 72
1
 73
0
 74
0
  7

 75
0
147
1.0
148
0.0
149
0.0
100
AcDbLayout
  1
Model
 70
0
 71
0
 10
0.0
 20
0.0
 11
297.0
 21
210.0
 12
0.0
 22
0.0
 32
0.0
 14
0.0
 24
0.0
 34
0.0
 15
0.0
 25
0.0
 35
0.0
146
0.0
 13
0.0
 23
0.0
 33
0.0
 16
1.0
 26
0.0
 36
0.0
 17
0.0
 27
1.0
 37
0.0
 76
0
330
214
345
0
346
0
  0
LAYOUT
  5
6A8
102
{ACAD_REACTORS
330
1A
102
}
100
AcDbPlotSettings
  1

  2
none_device
  4
ISO_A4_(297.00_x_210.00_MM)
  6

 40
0.0
 41
0.0
 42
0.0
 43
0.0
 44
297.0
 45
210.0
 46
0.0
 47
0.0
 48
0.0
 49
0.0
140
0.0
141
0.0
142
1.0
143
1.0
 70
0
 72
1
 73
0
 74
0
  7

 75
0
147
1.0
148
0.0
149
0.0
100
AcDbLayout
  1
Layout1
 70
0
 71
1
 10
0.0
 20
0.0
 11
297.0
 21
210.0
 12
0.0
 22
0.0
 32
0.0
 14
0.0
 24
0.0
 34
0.0
 15
0.0
 25
0.0
 35
0.0
146
0.0
 13
0.0
 23
0.0
 33
0.0
 16
1.0
 26
0.0
 36
0.0
 17
0.0
 27
1.0
 37
0.0
 76
0
330
215
345
0
346
0
  0
ENDSEC
  0
EOF
