  0
SECTION
  2
HEADER
  9
$ACADVER
  1
AC1021
  9
$DWGCODEPAGE
  3
ANSI_1252
  9
$EXTMAX
 10
297.0
 20
210.0
 30
0.0
  9
$EXTMIN
 10
0.0
 20
0.0
 30
0.0
  9
$LIMMIN
 10
0.0
 20
0.0
  9
$LIMMAX
 10
297.0
 20
210.0
  9
$VIEWCTR
 10
148.5
 20
105.0
  9
$VIEWSIZE
 40
210.0
  9
$CLAYER
  8
0
  9
$LTSCALE
 40
16.335
  9
$CELTYPE
  6
BYLAYER
  9
$DIMSCALE
 40
1.0
  9
$DIMASZ
 40
3.0
  9
$DIMEXO
 40
0.5
  9
$DIMDLI
 40
11.286
  9
$DIMEXE
 40
1.5
  9
$DIMCEN
 40
2.673
  9
$DIMLFAC
 40
1.0
  9
$DIMBLK
  1
_FILLED
  9
$DIMALT
 70
0
  9
$DIMALTF
 40
0.0393700787
  9
$DIMTXT
 40
3.0
  9
$DIMTOL
 70
1
  9
$DIMLIM
 70
0
  9
$DIMTFAC
 40
1.0
  9
$DIMTP
 40
0.01
  9
$DIMTM
 40
0.01
  9
$DIMGAP
 40
0.625
  9
$DIMDSEP
 70
44
  9
$AUNITS
 70
0
  9
$PDMODE
 70
3
  9
$PDSIZE
 40
3.0
  9
$HANDSEED
  5
409
  9
$TILEMODE
 70
1
  9
$MEASUREMENT
 70
1
  9
$INSUNITS
 70
4
  0
ENDSEC
  0
SECTION
  2
CLASSES
  0
CLASS
  1
ACDBDICTIONARYWDFLT
  2
AcDbDictionaryWithDefault
  3
AutoCAD 2000
 90
0
 91
1
280
0
281
0
  0
CLASS
  1
ACDBPLACEHOLDER
  2
AcDbPlaceHolder
  3
AutoCAD 2000
 90
0
 91
1
280
0
281
0
  0
CLASS
  1
LAYOUT
  2
AcDbLayout
  3
AutoCAD 2000
 90
0
 91
0
280
0
281
0
  0
ENDSEC
  0
SECTION
  2
TABLES
  0
TABLE
  2
VPORT
  5
8
100
AcDbSymbolTable
 70
2
  0
VPORT
  5
1F4
100
AcDbSymbolTableRecord
100
AcDbViewportTableRecord
  2
*ACTIVE
 70
0
 10
0.0
 20
0.0
 11
1.0
 21
1.0
 12
148.5
 22
105.0
 13
0.0
 23
0.0
 14
1.0
 24
1.0
 15
0.0
 25
0.0
 16
0.0
 26
0.0
 36
1.0
 17
0.0
 27
0.0
 37
0.0
 40
210.0
 41
1.4142857143
 42
50.0
 43
0.0
 44
0.0
 50
0.0
 51
0.0
 71
0
 72
100
 73
1
 74
1
 75
0
 76
0
 77
0
 78
0
  0
ENDTAB
  0
TABLE
  2
LTYPE
  5
5
100
AcDbSymbolTable
 70
6
  0
LTYPE
  5
14
100
AcDbSymbolTableRecord
100
AcDbLinetypeTableRecord
  2
BYBLOCK
 70
0
  3

 72
65
 73
0
 40
0.0
  0
LTYPE
  5
15
100
AcDbSymbolTableRecord
100
AcDbLinetypeTableRecord
  2
BYLAYER
 70
0
  3

 72
65
 73
0
 40
0.0
  0
LTYPE
  5
16
100
AcDbSymbolTableRecord
100
AcDbLinetypeTableRecord
  2
CONTINUOUS
 70
64
  3
Solid line
 72
65
 73
0
 40
0.0
  0
LTYPE
  5
1F5
100
AcDbSymbolTableRecord
100
AcDbLinetypeTableRecord
  2
CENTER
 70
64
  3
____ _ ____ _ ____ _ ____ _ ____ _ ____ _ ____
 72
65
 73
4
 40
0.6
 49
0.375
 74
0
 49
-0.075
 74
0
 49
0.075
 74
0
 49
-0.075
 74
0
  0
LTYPE
  5
1F6
100
AcDbSymbolTableRecord
100
AcDbLinetypeTableRecord
  2
HIDDEN
 70
64
  3
- - - - - - - - - - - - - - - - - - - -
 72
65
 73
2
 40
0.2
 49
0.1
 74
0
 49
-0.1
 74
0
  0
LTYPE
  5
1F7
100
AcDbSymbolTableRecord
100
AcDbLinetypeTableRecord
  2
PHANTOM
 70
64
  3
_____ _ _ _____ _ _ _____ _ _ _____
 72
65
 73
6
 40
0.8
 49
0.45
 74
0
 49
-0.05
 74
0
 49
0.1
 74
0
 49
-0.05
 74
0
 49
0.1
 74
0
 49
-0.05
 74
0
  0
LTYPE
  5
1F8
100
AcDbSymbolTableRecord
100
AcDbLinetypeTableRecord
  2
DOT
 70
64
  3
. . . . . . . . . . . . . . . . . . . .
 72
65
 73
2
 40
0.2
 49
0.1
 74
0
 49
-0.1
 74
0
  0
LTYPE
  5
1F9
100
AcDbSymbolTableRecord
100
AcDbLinetypeTableRecord
  2
DASHED
 70
64
  3
- - - - - - - - - - - - - - - - - - - -
 72
65
 73
2
 40
0.2
 49
0.1
 74
0
 49
-0.1
 74
0
  0
ENDTAB
  0
TABLE
  2
LAYER
  5
2
100
AcDbSymbolTable
 70
36
  0
LAYER
  5
10
100
AcDbSymbolTableRecord
100
AcDbLayerTableRecord
  2
0
 70
0
 62
7
  6
CONTINUOUS
370
-3
390
F
  0
LAYER
  5
1FA
100
AcDbSymbolTableRecord
100
AcDbLayerTableRecord
  2
DEFAULT_1
 70
0
 62
7
  6
CENTER
370
-3
390
F
  0
LAYER
  5
1FB
100
AcDbSymbolTableRecord
100
AcDbLayerTableRecord
  2
DEFAULT_2
 70
0
 62
7
  6
HIDDEN
370
-3
390
F
  0
LAYER
  5
1FC
100
AcDbSymbolTableRecord
100
AcDbLayerTableRecord
  2
DEFAULT_3
 70
0
 62
7
  6
PHANTOM
370
-3
390
F
  0
LAYER
  5
1FD
100
AcDbSymbolTableRecord
100
AcDbLayerTableRecord
  2
ASSI
 70
0
 62
7
  6
CONTINUOUS
370
-3
390
F
  0
LAYER
  5
1FE
100
AcDbSymbolTableRecord
100
AcDbLayerTableRecord
  2
COORDINATE
 70
0
 62
7
  6
CONTINUOUS
370
-3
390
F
  0
LAYER
  5
1FF
100
AcDbSymbolTableRecord
100
AcDbLayerTableRecord
  2
COORD_ORIGINE
 70
0
 62
7
  6
CONTINUOUS
370
-3
390
F
  0
LAYER
  5
200
100
AcDbSymbolTableRecord
100
AcDbLayerTableRecord
  2
COPY_PUBLISH
 70
0
 62
7
  6
CONTINUOUS
370
-3
390
F
  0
LAYER
  5
201
100
AcDbSymbolTableRecord
100
AcDbLayerTableRecord
  2
COSMETICI
 70
0
 62
7
  6
CONTINUOUS
370
-3
390
F
  0
LAYER
  5
202
100
AcDbSymbolTableRecord
100
AcDbLayerTableRecord
  2
CURVE
 70
0
 62
7
  6
CONTINUOUS
370
-3
390
F
  0
LAYER
  5
203
100
AcDbSymbolTableRecord
100
AcDbLayerTableRecord
  2
DRAFT
 70
0
 62
7
  6
CONTINUOUS
370
-3
390
F
  0
LAYER
  5
204
100
AcDbSymbolTableRecord
100
AcDbLayerTableRecord
  2
IGES
 70
0
 62
7
  6
CONTINUOUS
370
-3
390
F
  0
LAYER
  5
205
100
AcDbSymbolTableRecord
100
AcDbLayerTableRecord
  2
IMPORT_IGES
 70
0
 62
7
  6
CONTINUOUS
370
-3
390
F
  0
LAYER
  5
206
100
AcDbSymbolTableRecord
100
AcDbLayerTableRecord
  2
IMPORT_SCRITTE
 70
0
 62
7
  6
CONTINUOUS
370
-3
390
F
  0
LAYER
  5
207
100
AcDbSymbolTableRecord
100
AcDbLayerTableRecord
  2
INTF_MAGENTA
 70
0
 62
7
  6
CONTINUOUS
370
-3
390
F
  0
LAYER
  5
208
100
AcDbSymbolTableRecord
100
AcDbLayerTableRecord
  2
NOTE
 70
0
 62
7
  6
CONTINUOUS
370
-3
390
F
  0
LAYER
  5
209
100
AcDbSymbolTableRecord
100
AcDbLayerTableRecord
  2
PIANI
 70
0
 62
7
  6
CONTINUOUS
370
-3
390
F
  0
LAYER
  5
20A
100
AcDbSymbolTableRecord
100
AcDbLayerTableRecord
  2
PIANI_ORIGINE
 70
0
 62
7
  6
CONTINUOUS
370
-3
390
F
  0
LAYER
  5
20B
100
AcDbSymbolTableRecord
100
AcDbLayerTableRecord
  2
PUNTI
 70
0
 62
7
  6
CONTINUOUS
370
-3
390
F
  0
LAYER
  5
20C
100
AcDbSymbolTableRecord
100
AcDbLayerTableRecord
  2
RACCORDO
 70
0
 62
7
  6
CONTINUOUS
370
-3
390
F
  0
LAYER
  5
20D
100
AcDbSymbolTableRecord
100
AcDbLayerTableRecord
  2
SIMBOLI
 70
0
 62
7
  6
CONTINUOUS
370
-3
390
F
  0
LAYER
  5
20E
100
AcDbSymbolTableRecord
100
AcDbLayerTableRecord
  2
SMUSSO
 70
0
 62
7
  6
CONTINUOUS
370
-3
390
F
  0
LAYER
  5
20F
100
AcDbSymbolTableRecord
100
AcDbLayerTableRecord
  2
SNAPLINE
 70
0
 62
7
  6
CONTINUOUS
370
-3
390
F
  0
LAYER
  5
210
100
AcDbSymbolTableRecord
100
AcDbLayerTableRecord
  2
STANDARD
 70
0
 62
7
  6
CONTINUOUS
370
-3
390
F
  0
LAYER
  5
211
100
AcDbSymbolTableRecord
100
AcDbLayerTableRecord
  2
SUPERFICI
 70
0
 62
7
  6
CONTINUOUS
370
-3
390
F
  0
LAYER
  5
212
100
AcDbSymbolTableRecord
100
AcDbLayerTableRecord
  2
TRASH
 70
0
 62
7
  6
CONTINUOUS
370
-3
390
F
  0
ENDTAB
  0
TABLE
  2
STYLE
  5
3
100
AcDbSymbolTable
 70
1
  0
STYLE
  5
11
100
AcDbSymbolTableRecord
100
AcDbTextStyleTableRecord
  2
STANDARD
 70
0
 40
0.0
 41
0.8
 50
0.0
 71
0
 42
0.2
  3
txt
  4

  0
STYLE
  5
213
100
AcDbSymbolTableRecord
100
AcDbTextStyleTableRecord
  2
TEXTSTYLE_1
 70
0
 40
0.0
 41
0.8
 50
0.0
 71
0
 42
0.2
  3
gdt
  4

  0
ENDTAB
  0
TABLE
  2
VIEW
  5
6
100
AcDbSymbolTable
 70
0
  0
ENDTAB
  0
TABLE
  2
UCS
  5
7
100
AcDbSymbolTable
 70
0
  0
ENDTAB
  0
TABLE
  2
APPID
  5
9
100
AcDbSymbolTable
 70
1
  0
APPID
  5
214
100
AcDbSymbolTableRecord
100
AcDbRegAppTableRecord
  2
ACAD
 70
0
  0
ENDTAB
  0
TABLE
  2
BLOCK_RECORD
  5
1
100
AcDbSymbolTable
 70
0
  0
BLOCK_RECORD
  5
215
100
AcDbSymbolTableRecord
100
AcDbBlockTableRecord
  2
*Model_Space
  0
BLOCK_RECORD
  5
216
100
AcDbSymbolTableRecord
100
AcDbBlockTableRecord
  2
*Paper_Space
  0
BLOCK_RECORD
  5
217
100
AcDbSymbolTableRecord
100
AcDbBlockTableRecord
  2
_FILLED
  0
BLOCK_RECORD
  5
218
100
AcDbSymbolTableRecord
100
AcDbBlockTableRecord
  2
*D0
  0
BLOCK_RECORD
  5
219
100
AcDbSymbolTableRecord
100
AcDbBlockTableRecord
  2
*D1
  0
BLOCK_RECORD
  5
21A
100
AcDbSymbolTableRecord
100
AcDbBlockTableRecord
  2
*D2
  0
ENDTAB
  0
TABLE
  2
DIMSTYLE
  5
A
100
AcDbSymbolTable
 70
1
100
AcDbDimStyleTable
 71
0
  0
DIMSTYLE
105
21B
100
AcDbSymbolTableRecord
100
AcDbDimStyleTableRecord
  2
STANDARD
 70
0
  3

  4

 40
1.0
 41
3.0
 42
0.5
 43
0.38
 44
1.5
 45
0.0
 46
0.0
 47
0.01
 48
0.01
140
3.0
141
0.09
142
0.0
143
25.4
144
1.0
145
0.0
146
1.0
147
0.625
 71
1.0
 72
0.0
 73
0
 74
0
 75
0
 76
0
 77
1
 78
8
170
0
171
2
172
0
173
0
174
0
175
0
176
0
177
0
178
0
270
2
271
2
272
2
273
2
274
2
275
0
280
0
281
0
282
0
283
1
284
8
285
0
286
0
287
3
288
0
340
11
278
44
341
217
342
217
343
217
344
217
  0
DIMSTYLE
105
21C
100
AcDbSymbolTableRecord
100
AcDbDimStyleTableRecord
  2
DIMSTYLE_1
 70
0
  3

  4

 40
1.0
 41
3.0
 42
0.5
 43
0.38
 44
1.5
 45
0.0
 46
0.0
 47
0.0
 48
0.0
140
3.0
141
0.09
142
0.0
143
25.4
144
1.0
145
0.0
146
1.0
147
0.75
 71
0.0
 72
0.0
 73
0
 74
0
 75
0
 76
0
 77
1
 78
8
170
0
171
2
172
0
173
0
174
0
175
0
176
0
177
0
178
0
270
2
271
2
272
2
273
2
274
2
275
0
280
0
281
0
282
0
283
1
284
8
285
0
286
0
287
3
288
0
340
11
278
44
341
217
342
217
343
217
344
217
  0
ENDTAB
  0
ENDSEC
  0
SECTION
  2
BLOCKS
  0
BLOCK
  5
20
100
AcDbEntity
  8
0
100
AcDbBlockBegin
  2
*Model_Space
 70
0
 10
0.0
 20
0.0
 30
0.0
  3
*Model_Space
  1

  0
ENDBLK
  5
21
100
AcDbEntity
  8
0
100
AcDbBlockEnd
  0
BLOCK
  5
1C
100
AcDbEntity
  8
0
100
AcDbBlockBegin
  2
*Paper_Space
 70
0
 10
0.0
 20
0.0
 30
0.0
  3
*Paper_Space
  1

  0
ENDBLK
  5
1D
100
AcDbEntity
  8
0
100
AcDbBlockEnd
  0
BLOCK
  5
21D
100
AcDbEntity
  8
0
100
AcDbBlockBegin
  2
_FILLED
 70
64
 10
0.0
 20
0.0
  3
_FILLED
  1

  0
SOLID
  5
21E
100
AcDbEntity
  8
0
  6
BYBLOCK
 62
0
100
AcDbTrace
 10
0.0
 20
0.0
 11
-1.0
 21
0.3166666667
 12
-1.0
 22
-0.3166666667
 13
-1.0
 23
-0.3166666667
  0
ENDBLK
  5
21F
100
AcDbEntity
  8
0
  6
BYBLOCK
 62
0
100
AcDbBlockEnd
  0
BLOCK
  5
220
100
AcDbEntity
  8
0
100
AcDbBlockBegin
 62
7
  6
CONTINUOUS
  2
*D0
 70
65
 10
0.0
 20
0.0
  3
*D0
  1

  0
MTEXT
  5
221
100
AcDbEntity
  8
0
100
AcDbMText
 62
7
  6
CONTINUOUS
  7
STANDARD
 71
2
 72
1
 10
186.2615171057
 20
101.7386879481
 30
0.0
 11
0.0
 21
1.0
 31
0.0
 44
0.9
  1
43,7
 40
3.0
 41
12.8571428571
  0
LINE
  5
222
100
AcDbEntity
  8
0
100
AcDbLine
 62
7
  6
CONTINUOUS
 10
179.7116389495
 20
79.8886879481
 11
191.5115171057
 21
79.8886879481
  0
LINE
  5
223
100
AcDbEntity
  8
0
100
AcDbLine
 62
7
  6
CONTINUOUS
 10
179.7116389495
 20
123.5886879481
 11
191.5115171057
 21
123.5886879481
  0
LINE
  5
224
100
AcDbEntity
  8
0
100
AcDbLine
 62
7
  6
CONTINUOUS
 10
190.0115171057
 20
79.8886879481
 11
190.0115171057
 21
101.7386879481
  0
LINE
  5
225
100
AcDbEntity
  8
0
100
AcDbLine
 62
7
  6
CONTINUOUS
 10
190.0115171057
 20
123.5886879481
 11
190.0115171057
 21
101.7386879481
  0
INSERT
  5
226
100
AcDbEntity
  8
0
100
AcDbBlockReference
 62
7
  6
CONTINUOUS
  2
_FILLED
 10
190.0115171057
 20
79.8886879481
 41
3.0
 42
3.0
 43
3.0
 50
270.0
  0
INSERT
  5
227
100
AcDbEntity
  8
0
100
AcDbBlockReference
 62
7
  6
CONTINUOUS
  2
_FILLED
 10
190.0115171057
 20
123.5886879481
 41
3.0
 42
3.0
 43
3.0
 50
90.0
  0
ENDBLK
  5
228
100
AcDbEntity
  8
0
  6
BYBLOCK
 62
0
100
AcDbBlockEnd
  0
BLOCK
  5
229
100
AcDbEntity
  8
0
100
AcDbBlockBegin
 62
7
  6
CONTINUOUS
  2
*D1
 70
65
 10
0.0
 20
0.0
  3
*D1
  1

  0
MTEXT
  5
22A
100
AcDbEntity
  8
0
100
AcDbMText
 62
7
  6
CONTINUOUS
  7
STANDARD
 71
3
 72
1
 10
127.9182407236
 20
137.3386879481
 30
0.0
 11
1.0
 21
0.0
 31
0.0
 44
0.9
  1
7,9
 40
3.0
 41
9.6428571429
  0
LINE
  5
22B
100
AcDbEntity
  8
0
100
AcDbLine
 62
7
  6
CONTINUOUS
 10
136.7449019249
 20
102.2386879481
 11
136.7449019249
 21
135.0886879481
  0
LINE
  5
22C
100
AcDbEntity
  8
0
100
AcDbLine
 62
7
  6
CONTINUOUS
 10
128.8449019249
 20
102.2386879481
 11
128.8449019249
 21
135.0886879481
  0
LINE
  5
22D
100
AcDbEntity
  8
0
100
AcDbLine
 62
7
  6
CONTINUOUS
 10
136.7449019249
 20
133.5886879481
 11
132.7949019249
 21
133.5886879481
  0
LINE
  5
22E
100
AcDbEntity
  8
0
100
AcDbLine
 62
7
  6
CONTINUOUS
 10
128.8449019249
 20
133.5886879481
 11
132.7949019249
 21
133.5886879481
  0
LINE
  5
22F
100
AcDbEntity
  8
0
100
AcDbLine
 62
7
  6
CONTINUOUS
 10
132.7949019249
 20
133.5886879481
 11
121.4896692951
 21
133.5886879481
  0
INSERT
  5
230
100
AcDbEntity
  8
0
100
AcDbBlockReference
 62
7
  6
CONTINUOUS
  2
_FILLED
 10
136.7449019249
 20
133.5886879481
 41
3.0
 42
3.0
 43
3.0
  0
INSERT
  5
231
100
AcDbEntity
  8
0
100
AcDbBlockReference
 62
7
  6
CONTINUOUS
  2
_FILLED
 10
128.8449019249
 20
133.5886879481
 41
3.0
 42
3.0
 43
3.0
 50
180.0
  0
ENDBLK
  5
232
100
AcDbEntity
  8
0
  6
BYBLOCK
 62
0
100
AcDbBlockEnd
  0
BLOCK
  5
233
100
AcDbEntity
  8
0
100
AcDbBlockBegin
 62
7
  6
CONTINUOUS
  2
*D2
 70
65
 10
0.0
 20
0.0
  3
*D2
  1

  0
MTEXT
  5
234
100
AcDbEntity
  8
0
100
AcDbMText
 62
7
  6
CONTINUOUS
  7
STANDARD
 71
2
 72
1
 10
168.9115171057
 20
137.3386879481
 30
0.0
 11
1.0
 21
0.0
 31
0.0
 44
0.9
  1
22,2
 40
3.0
 41
13.1785714286
  0
LINE
  5
235
100
AcDbEntity
  8
0
100
AcDbLine
 62
7
  6
CONTINUOUS
 10
157.8115171057
 20
123.288809792
 11
157.8115171057
 21
135.0886879481
  0
LINE
  5
236
100
AcDbEntity
  8
0
100
AcDbLine
 62
7
  6
CONTINUOUS
 10
180.0115171057
 20
123.288809792
 11
180.0115171057
 21
135.0886879481
  0
LINE
  5
237
100
AcDbEntity
  8
0
100
AcDbLine
 62
7
  6
CONTINUOUS
 10
157.8115171057
 20
133.5886879481
 11
168.9115171057
 21
133.5886879481
  0
LINE
  5
238
100
AcDbEntity
  8
0
100
AcDbLine
 62
7
  6
CONTINUOUS
 10
180.0115171057
 20
133.5886879481
 11
168.9115171057
 21
133.5886879481
  0
INSERT
  5
239
100
AcDbEntity
  8
0
100
AcDbBlockReference
 62
7
  6
CONTINUOUS
  2
_FILLED
 10
157.8115171057
 20
133.5886879481
 41
3.0
 42
3.0
 43
3.0
 50
180.0
  0
INSERT
  5
23A
100
AcDbEntity
  8
0
100
AcDbBlockReference
 62
7
  6
CONTINUOUS
  2
_FILLED
 10
180.0115171057
 20
133.5886879481
 41
3.0
 42
3.0
 43
3.0
  0
ENDBLK
  5
23B
100
AcDbEntity
  8
0
  6
BYBLOCK
 62
0
100
AcDbBlockEnd
  0
ENDSEC
  0
SECTION
  2
ENTITIES
  0
DIMENSION
  5
23C
100
AcDbEntity
  8
0
100
AcDbDimension
 62
7
  6
CONTINUOUS
  2
*D0
 10
190.0115171057
 20
123.5886879481
 11
190.0115171057
 21
101.310114241
 70
160
 71
2
 42
43.7
  3
DIMSTYLE_1
100
AcDbAlignedDimension
 13
179.2116389495
 23
79.8886879481
 14
179.2116389495
 24
123.5886879481
 50
90.0
100
AcDbRotatedDimension
  0
DIMENSION
  5
23D
100
AcDbEntity
  8
0
100
AcDbDimension
 62
7
  6
CONTINUOUS
  2
*D1
 10
128.8449019249
 20
133.5886879481
 11
124.275384613
 21
133.5886879481
 70
160
 71
3
 42
7.9
  3
DIMSTYLE_1
100
AcDbAlignedDimension
 13
136.7449019249
 23
101.7386879481
 14
128.8449019249
 24
101.7386879481
 50
180.0
100
AcDbRotatedDimension
  0
DIMENSION
  5
23E
100
AcDbEntity
  8
0
100
AcDbDimension
 62
7
  6
CONTINUOUS
  2
*D2
 10
180.0115171057
 20
133.5886879481
 11
168.4829481812
 21
133.5886879481
 70
160
 71
2
 42
22.2
  3
DIMSTYLE_1
100
AcDbAlignedDimension
 13
157.8115171057
 23
122.788809792
 14
180.0115171057
 24
122.788809792
100
AcDbRotatedDimension
  0
LWPOLYLINE
  5
23F
100
AcDbEntity
  8
RACCORDO
100
AcDbPolyline
 62
253
  6
CONTINUOUS
 90
16
 70
0
 10
157.9236603315
 20
122.036237917
 10
157.9293861787
 20
122.0418489727
 10
157.9436211743
 20
122.0473999019
 10
157.9662127939
 20
122.052831228
 10
157.9969189736
 20
122.0580847554
 10
158.0354107042
 20
122.063104194
 10
158.0812755561
 20
122.0678357617
 10
158.1340220986
 20
122.0722287608
 10
158.1930851652
 20
122.0762361215
 10
158.2578319095
 20
122.0798149058
 10
158.3275685858
 20
122.0829267681
 10
158.4015479825
 20
122.0855383654
 10
158.4789774283
 20
122.0876217153
 10
158.5590272854
 20
122.0891544954
 10
158.6408398391
 20
122.0901202821
 10
158.7235384876
 20
122.0905087275
  0
LWPOLYLINE
  5
240
100
AcDbEntity
  8
ASSI
100
AcDbPolyline
 62
253
  6
CONTINUOUS
 90
16
 70
0
 10
157.9236603315
 20
122.036237917
 10
157.9293861787
 20
122.0418489727
 10
157.9436211743
 20
122.0473999019
 10
157.9662127939
 20
122.052831228
 10
157.9969189736
 20
122.0580847554
 10
158.0354107042
 20
122.063104194
 10
158.0812755561
 20
122.0678357617
 10
158.1340220986
 20
122.0722287608
 10
158.1930851652
 20
122.0762361215
 10
158.2578319095
 20
122.0798149058
 10
158.3275685858
 20
122.0829267681
 10
158.4015479825
 20
122.0855383654
 10
158.4789774283
 20
122.0876217153
 10
158.5590272854
 20
122.0891544954
 10
158.6408398391
 20
122.0901202821
 10
158.7235384876
 20
122.0905087275
  0
LINE
  5
241
100
AcDbEntity
  8
RACCORDO
100
AcDbLine
 62
7
  6
CONTINUOUS
 10
158.6113952618
 20
79.8886879481
 11
179.2116389495
 21
79.8886879481
  0
LINE
  5
242
100
AcDbEntity
  8
ASSI
100
AcDbLine
 62
7
  6
CONTINUOUS
 10
158.6113952618
 20
79.8886879481
 11
179.2116389495
 21
79.8886879481
  0
LINE
  5
243
100
AcDbEntity
  8
RACCORDO
100
AcDbLine
 62
253
  6
CONTINUOUS
 10
179.1114728777
 20
79.9888540199
 11
158.7115613336
 21
79.9888540199
  0
LINE
  5
244
100
AcDbEntity
  8
ASSI
100
AcDbLine
 62
253
  6
CONTINUOUS
 10
179.1114728777
 20
79.9888540199
 11
158.7115613336
 21
79.9888540199
  0
LWPOLYLINE
  5
245
100
AcDbEntity
  8
RACCORDO
100
AcDbPolyline
 62
253
  6
CONTINUOUS
 90
16
 70
0
 10
157.9236603315
 20
81.4411379792
 10
157.9293855994
 20
81.4355268707
 10
157.9436201047
 20
81.4299758845
 10
157.9662113268
 20
81.4245444986
 10
157.9969172037
 20
81.4192909096
 10
158.0354087263
 20
81.414271409
 10
158.0812734634
 20
81.40953978
 10
158.1340199807
 20
81.4051467213
 10
158.1930831065
 20
81.401139304
 10
158.2578299877
 20
81.3975604669
 10
158.3275668706
 20
81.3944485569
 10
158.4015465341
 20
81.3918369176
 10
158.4789762965
 20
81.3897535321
 10
158.5590265087
 20
81.3882207237
 10
158.6408394438
 20
81.3872549161
 10
158.7235384876
 20
81.3868664579
  0
LWPOLYLINE
  5
246
100
AcDbEntity
  8
ASSI
100
AcDbPolyline
 62
253
  6
CONTINUOUS
 90
16
 70
0
 10
157.9236603315
 20
81.4411379792
 10
157.9293855994
 20
81.4355268707
 10
157.9436201047
 20
81.4299758845
 10
157.9662113268
 20
81.4245444986
 10
157.9969172037
 20
81.4192909096
 10
158.0354087263
 20
81.414271409
 10
158.0812734634
 20
81.40953978
 10
158.1340199807
 20
81.4051467213
 10
158.1930831065
 20
81.401139304
 10
158.2578299877
 20
81.3975604669
 10
158.3275668706
 20
81.3944485569
 10
158.4015465341
 20
81.3918369176
 10
158.4789762965
 20
81.3897535321
 10
158.5590265087
 20
81.3882207237
 10
158.6408394438
 20
81.3872549161
 10
158.7235384876
 20
81.3868664579
  0
LINE
  5
247
100
AcDbEntity
  8
RACCORDO
100
AcDbLine
 62
253
  6
CONTINUOUS
 10
179.0994957237
 20
81.3868664552
 11
158.7235384876
 21
81.3868664552
  0
LINE
  5
248
100
AcDbEntity
  8
ASSI
100
AcDbLine
 62
253
  6
CONTINUOUS
 10
179.0994957237
 20
81.3868664552
 11
158.7235384876
 21
81.3868664552
  0
LWPOLYLINE
  5
249
100
AcDbEntity
  8
RACCORDO
100
AcDbPolyline
 62
7
  6
CONTINUOUS
 90
15
 70
0
 10
174.4637985861
 20
87.2414266728
 10
174.5154883853
 20
87.2496130858
 10
174.5660393067
 20
87.2631575825
 10
174.6148976526
 20
87.2819118738
 10
174.6615280646
 20
87.305670588
 10
174.7054194229
 20
87.3341734491
 10
174.7460908661
 20
87.3671082546
 10
174.7830967992
 20
87.4041141877
 10
174.8160316047
 20
87.4447856308
 10
174.8445344658
 20
87.4886769891
 10
174.8682931799
 20
87.5353074011
 10
174.8870474713
 20
87.5841657471
 10
174.900591968
 20
87.6347166685
 10
174.908778381
 20
87.6864064676
 10
174.9115171057
 20
87.7386689096
  0
LWPOLYLINE
  5
24A
100
AcDbEntity
  8
ASSI
100
AcDbPolyline
 62
7
  6
CONTINUOUS
 90
15
 70
0
 10
174.4637985861
 20
87.2414266728
 10
174.5154883853
 20
87.2496130858
 10
174.5660393067
 20
87.2631575825
 10
174.6148976526
 20
87.2819118738
 10
174.6615280646
 20
87.305670588
 10
174.7054194229
 20
87.3341734491
 10
174.7460908661
 20
87.3671082546
 10
174.7830967992
 20
87.4041141877
 10
174.8160316047
 20
87.4447856308
 10
174.8445344658
 20
87.4886769891
 10
174.8682931799
 20
87.5353074011
 10
174.8870474713
 20
87.5841657471
 10
174.900591968
 20
87.6347166685
 10
174.908778381
 20
87.6864064676
 10
174.9115171057
 20
87.7386689096
  0
LINE
  5
24B
100
AcDbEntity
  8
RACCORDO
100
AcDbLine
 62
7
  6
CONTINUOUS
 10
174.4115361441
 20
87.2386879481
 11
174.4637985861
 21
87.2414266728
  0
LINE
  5
24C
100
AcDbEntity
  8
ASSI
100
AcDbLine
 62
7
  6
CONTINUOUS
 10
174.4115361441
 20
87.2386879481
 11
174.4637985861
 21
87.2414266728
  0
LINE
  5
24D
100
AcDbEntity
  8
RACCORDO
100
AcDbLine
 62
253
  6
CONTINUOUS
 10
174.4593533506
 20
87.2367356107
 11
174.4154203643
 21
87.2348037279
  0
LINE
  5
24E
100
AcDbEntity
  8
ASSI
100
AcDbLine
 62
253
  6
CONTINUOUS
 10
174.4593533506
 20
87.2367356107
 11
174.4154203643
 21
87.2348037279
  0
LINE
  5
24F
100
AcDbEntity
  8
RACCORDO
100
AcDbLine
 62
253
  6
CONTINUOUS
 10
174.4154203643
 20
87.1299379523
 11
163.407613847
 21
87.1299379523
  0
LINE
  5
250
100
AcDbEntity
  8
ASSI
100
AcDbLine
 62
253
  6
CONTINUOUS
 10
174.4154203643
 20
87.1299379523
 11
163.407613847
 21
87.1299379523
  0
LINE
  5
251
100
AcDbEntity
  8
RACCORDO
100
AcDbLine
 62
7
  6
CONTINUOUS
 10
174.4154203643
 20
87.2348037279
 11
163.407613847
 21
87.2348037279
  0
LINE
  5
252
100
AcDbEntity
  8
ASSI
100
AcDbLine
 62
7
  6
CONTINUOUS
 10
174.4154203643
 20
87.2348037279
 11
163.407613847
 21
87.2348037279
  0
LINE
  5
253
100
AcDbEntity
  8
RACCORDO
100
AcDbLine
 62
7
  6
CONTINUOUS
 10
163.4115171057
 20
87.2386879481
 11
174.4115171057
 21
87.2386879481
  0
LINE
  5
254
100
AcDbEntity
  8
RACCORDO
100
AcDbLine
 62
253
  6
CONTINUOUS
 10
163.407613847
 20
87.2348037279
 11
163.3637228899
 21
87.236731907
  0
LINE
  5
255
100
AcDbEntity
  8
ASSI
100
AcDbLine
 62
253
  6
CONTINUOUS
 10
163.407613847
 20
87.2348037279
 11
163.3637228899
 21
87.236731907
  0
LWPOLYLINE
  5
256
100
AcDbEntity
  8
RACCORDO
100
AcDbPolyline
 62
253
  6
CONTINUOUS
 90
19
 70
0
 10
163.407613847
 20
87.1299379523
 10
163.3543488927
 20
87.1324324618
 10
163.3023529626
 20
87.1393084227
 10
163.2516260568
 20
87.1505658498
 10
163.2018145366
 20
87.166376588
 10
163.1532720408
 20
87.1865688509
 10
163.107059485
 20
87.2106272146
 10
163.0632520743
 20
87.238602644
 10
163.0217746037
 20
87.2704442718
 10
162.9834623735
 20
87.3054839218
 10
162.9483598899
 20
87.3437773008
 10
162.9164226466
 20
87.3852688146
 10
162.8883524251
 20
87.4291233147
 10
162.8642037205
 20
87.4754454001
 10
162.8439220375
 20
87.5241305731
 10
162.8280456725
 20
87.5740300004
 10
162.8167540573
 20
87.6247607441
 10
162.8098677599
 20
87.6767057909
 10
162.8073867804
 20
87.7298651691
  0
LWPOLYLINE
  5
257
100
AcDbEntity
  8
ASSI
100
AcDbPolyline
 62
253
  6
CONTINUOUS
 90
19
 70
0
 10
163.407613847
 20
87.1299379523
 10
163.3543488927
 20
87.1324324618
 10
163.3023529626
 20
87.1393084227
 10
163.2516260568
 20
87.1505658498
 10
163.2018145366
 20
87.166376588
 10
163.1532720408
 20
87.1865688509
 10
163.107059485
 20
87.2106272146
 10
163.0632520743
 20
87.238602644
 10
163.0217746037
 20
87.2704442718
 10
162.9834623735
 20
87.3054839218
 10
162.9483598899
 20
87.3437773008
 10
162.9164226466
 20
87.3852688146
 10
162.8883524251
 20
87.4291233147
 10
162.8642037205
 20
87.4754454001
 10
162.8439220375
 20
87.5241305731
 10
162.8280456725
 20
87.5740300004
 10
162.8167540573
 20
87.6247607441
 10
162.8098677599
 20
87.6767057909
 10
162.8073867804
 20
87.7298651691
  0
LINE
  5
258
100
AcDbEntity
  8
ASSI
100
AcDbLine
 62
7
  6
CONTINUOUS
 10
163.3592356252
 20
87.2414266728
 11
163.4114980672
 21
87.2386879481
  0
LWPOLYLINE
  5
259
100
AcDbEntity
  8
RACCORDO
100
AcDbPolyline
 62
253
  6
CONTINUOUS
 90
17
 70
0
 10
163.3637228899
 20
87.236731907
 10
163.3202648183
 20
87.2424863395
 10
163.2775702345
 20
87.2519975202
 10
163.2359687529
 20
87.2651645862
 10
163.1957604852
 20
87.2818647518
 10
163.1572169102
 20
87.301962054
 10
163.1206372511
 20
87.3252769752
 10
163.0862688111
 20
87.3516272744
 10
163.054296542
 20
87.3808632025
 10
163.0249605244
 20
87.4127722153
 10
162.9984882035
 20
87.447114586
 10
162.9750456989
 20
87.4836988554
 10
162.9548197151
 20
87.5222834956
 10
162.9379990033
 20
87.5625665353
 10
162.9247341659
 20
87.6042507857
 10
162.9151498334
 20
87.6470245032
 10
162.9093431683
 20
87.690563569
  0
LWPOLYLINE
  5
25A
100
AcDbEntity
  8
ASSI
100
AcDbPolyline
 62
253
  6
CONTINUOUS
 90
17
 70
0
 10
163.3637228899
 20
87.236731907
 10
163.3202648183
 20
87.2424863395
 10
163.2775702345
 20
87.2519975202
 10
163.2359687529
 20
87.2651645862
 10
163.1957604852
 20
87.2818647518
 10
163.1572169102
 20
87.301962054
 10
163.1206372511
 20
87.3252769752
 10
163.0862688111
 20
87.3516272744
 10
163.054296542
 20
87.3808632025
 10
163.0249605244
 20
87.4127722153
 10
162.9984882035
 20
87.447114586
 10
162.9750456989
 20
87.4836988554
 10
162.9548197151
 20
87.5222834956
 10
162.9379990033
 20
87.5625665353
 10
162.9247341659
 20
87.6042507857
 10
162.9151498334
 20
87.6470245032
 10
162.9093431683
 20
87.690563569
  0
LWPOLYLINE
  5
25B
100
AcDbEntity
  8
RACCORDO
100
AcDbPolyline
 62
253
  6
CONTINUOUS
 90
10
 70
0
 10
162.8073867804
 20
87.7298651691
 10
162.8246562029
 20
87.7299423575
 10
162.8414066959
 20
87.7301575436
 10
162.8571349233
 20
87.7305042614
 10
162.8713682668
 20
87.7309720922
 10
162.8836790284
 20
87.7315469781
 10
162.8936972814
 20
87.7322116447
 10
162.9011219871
 20
87.7329461192
 10
162.9057300401
 20
87.7337283314
 10
162.9073829727
 20
87.7345347766
  0
LWPOLYLINE
  5
25C
100
AcDbEntity
  8
ASSI
100
AcDbPolyline
 62
253
  6
CONTINUOUS
 90
10
 70
0
 10
162.8073867804
 20
87.7298651691
 10
162.8246562029
 20
87.7299423575
 10
162.8414066959
 20
87.7301575436
 10
162.8571349233
 20
87.7305042614
 10
162.8713682668
 20
87.7309720922
 10
162.8836790284
 20
87.7315469781
 10
162.8936972814
 20
87.7322116447
 10
162.9011219871
 20
87.7329461192
 10
162.9057300401
 20
87.7337283314
 10
162.9073829727
 20
87.7345347766
  0
LINE
  5
25D
100
AcDbEntity
  8
RACCORDO
100
AcDbLine
 62
253
  6
CONTINUOUS
 10
163.4115171057
 20
87.4386879481
 11
174.4115171057
 21
87.4386879481
  0
LINE
  5
25E
100
AcDbEntity
  8
RACCORDO
100
AcDbLine
 62
253
  6
CONTINUOUS
 10
163.1115171057
 20
87.7386879481
 11
162.9115171057
 21
87.738687949
  0
LINE
  5
25F
100
AcDbEntity
  8
RACCORDO
100
AcDbLine
 62
253
  6
CONTINUOUS
 10
174.7115171057
 20
87.7386879481
 11
174.9115171057
 21
87.7386879481
  0
LWPOLYLINE
  5
260
100
AcDbEntity
  8
RACCORDO
100
AcDbPolyline
 62
253
  6
CONTINUOUS
 90
10
 70
0
 10
175.0156474305
 20
87.7298653496
 10
174.9983768161
 20
87.7299424438
 10
174.9816248702
 20
87.7301575555
 10
174.9658950531
 20
87.7305042197
 10
174.9516601059
 20
87.7309720177
 10
174.9393478431
 20
87.7315468904
 10
174.9293282953
 20
87.7322115611
 10
174.9219025884
 20
87.7329460538
 10
174.9172938933
 20
87.7337282942
 10
174.9156407188
 20
87.7345347728
  0
LWPOLYLINE
  5
261
100
AcDbEntity
  8
ASSI
100
AcDbPolyline
 62
253
  6
CONTINUOUS
 90
10
 70
0
 10
175.0156474305
 20
87.7298653496
 10
174.9983768161
 20
87.7299424438
 10
174.9816248702
 20
87.7301575555
 10
174.9658950531
 20
87.7305042197
 10
174.9516601059
 20
87.7309720177
 10
174.9393478431
 20
87.7315468904
 10
174.9293282953
 20
87.7322115611
 10
174.9219025884
 20
87.7329460538
 10
174.9172938933
 20
87.7337282942
 10
174.9156407188
 20
87.7345347728
  0
LWPOLYLINE
  5
262
100
AcDbEntity
  8
RACCORDO
100
AcDbPolyline
 62
253
  6
CONTINUOUS
 90
16
 70
0
 10
157.9116831775
 20
80.7887321761
 10
157.916088696
 20
80.7051388778
 10
157.9292060994
 20
80.6224609863
 10
157.9508917569
 20
80.5416039806
 10
157.9809081993
 20
80.463453401
 10
158.0189267168
 20
80.3888651561
 10
158.0645309562
 20
80.3186561479
 10
158.1172214879
 20
80.2535953132
 10
158.1764212672
 20
80.194395215
 10
158.2414819466
 20
80.1417042394
 10
158.311690998
 20
80.096099474
 10
158.3862795015
 20
80.0580804034
 10
158.4644305504
 20
80.0280634407
 10
158.5452882292
 20
80.0063773492
 10
158.6279669907
 20
79.9932596485
 10
158.7115613336
 20
79.9888540199
  0
LWPOLYLINE
  5
263
100
AcDbEntity
  8
ASSI
100
AcDbPolyline
 62
253
  6
CONTINUOUS
 90
16
 70
0
 10
157.9116831775
 20
80.7887321761
 10
157.916088696
 20
80.7051388778
 10
157.9292060994
 20
80.6224609863
 10
157.9508917569
 20
80.5416039806
 10
157.9809081993
 20
80.463453401
 10
158.0189267168
 20
80.3888651561
 10
158.0645309562
 20
80.3186561479
 10
158.1172214879
 20
80.2535953132
 10
158.1764212672
 20
80.194395215
 10
158.2414819466
 20
80.1417042394
 10
158.311690998
 20
80.096099474
 10
158.3862795015
 20
80.0580804034
 10
158.4644305504
 20
80.0280634407
 10
158.5452882292
 20
80.0063773492
 10
158.6279669907
 20
79.9932596485
 10
158.7115613336
 20
79.9888540199
  0
LWPOLYLINE
  5
264
100
AcDbEntity
  8
RACCORDO
100
AcDbPolyline
 62
253
  6
CONTINUOUS
 90
16
 70
0
 10
157.9116831775
 20
122.6886437201
 10
157.9160887577
 20
122.7722376053
 10
157.9292063254
 20
122.8549159732
 10
157.9508922175
 20
122.9357733332
 10
157.9809089308
 20
123.0139241385
 10
158.0189277233
 20
123.0885124841
 10
158.0645322146
 20
123.1587214812
 10
158.117222946
 20
123.2237822033
 10
158.1764228503
 20
123.2829821077
 10
158.2414835724
 20
123.335672839
 10
158.3116925695
 20
123.3812773304
 10
158.3862809152
 20
123.419296123
 10
158.4644317204
 20
123.4493128363
 10
158.5452890805
 20
123.4709987284
 10
158.6279674484
 20
123.4841162961
 10
158.7115613336
 20
123.4885218763
  0
LWPOLYLINE
  5
265
100
AcDbEntity
  8
ASSI
100
AcDbPolyline
 62
253
  6
CONTINUOUS
 90
16
 70
0
 10
157.9116831775
 20
122.6886437201
 10
157.9160887577
 20
122.7722376053
 10
157.9292063254
 20
122.8549159732
 10
157.9508922175
 20
122.9357733332
 10
157.9809089308
 20
123.0139241385
 10
158.0189277233
 20
123.0885124841
 10
158.0645322146
 20
123.1587214812
 10
158.117222946
 20
123.2237822033
 10
158.1764228503
 20
123.2829821077
 10
158.2414835724
 20
123.335672839
 10
158.3116925695
 20
123.3812773304
 10
158.3862809152
 20
123.419296123
 10
158.4644317204
 20
123.4493128363
 10
158.5452890805
 20
123.4709987284
 10
158.6279674484
 20
123.4841162961
 10
158.7115613336
 20
123.4885218763
  0
LINE
  5
266
100
AcDbEntity
  8
0
100
AcDbLine
 62
253
  6
CONTINUOUS
 10
167.1947241057
 20
116.7126755434
 11
167.9568421057
 21
117.3385335434
  0
LINE
  5
267
100
AcDbEntity
  8
RACCORDO
100
AcDbLine
 62
253
  6
CONTINUOUS
 10
162.9115171057
 20
91.2387069866
 11
162.9061309323
 21
91.2440931599
  0
LINE
  5
268
100
AcDbEntity
  8
ASSI
100
AcDbLine
 62
253
  6
CONTINUOUS
 10
162.9115171057
 20
91.2387069866
 11
162.9061309323
 21
91.2440931599
  0
LWPOLYLINE
  5
269
100
AcDbEntity
  8
RACCORDO
100
AcDbPolyline
 62
253
  6
CONTINUOUS
 90
8
 70
0
 10
157.9174563746
 20
122.5989420195
 10
157.91668917
 20
122.6216716173
 10
157.9158953195
 20
122.6411871897
 10
157.9150755143
 20
122.6575383944
 10
157.9142430663
 20
122.6704837935
 10
157.9134024128
 20
122.6799429079
 10
157.9125491165
 20
122.6859962168
 10
157.9116831775
 20
122.6886437201
  0
LWPOLYLINE
  5
26A
100
AcDbEntity
  8
ASSI
100
AcDbPolyline
 62
253
  6
CONTINUOUS
 90
8
 70
0
 10
157.9174563746
 20
122.5989420195
 10
157.91668917
 20
122.6216716173
 10
157.9158953195
 20
122.6411871897
 10
157.9150755143
 20
122.6575383944
 10
157.9142430663
 20
122.6704837935
 10
157.9134024128
 20
122.6799429079
 10
157.9125491165
 20
122.6859962168
 10
157.9116831775
 20
122.6886437201
  0
LINE
  5
26B
100
AcDbEntity
  8
RACCORDO
100
AcDbLine
 62
253
  6
CONTINUOUS
 10
157.9189016801
 20
122.5443801325
 11
157.9174563746
 21
122.5989420195
  0
LINE
  5
26C
100
AcDbEntity
  8
ASSI
100
AcDbLine
 62
253
  6
CONTINUOUS
 10
157.9189016801
 20
122.5443801325
 11
157.9174563746
 21
122.5989420195
  0
LWPOLYLINE
  5
26D
100
AcDbEntity
  8
RACCORDO
100
AcDbPolyline
 62
253
  6
CONTINUOUS
 90
6
 70
0
 10
158.7157799311
 20
123.3866192072
 10
158.7149617277
 20
123.4215699877
 10
158.714129576
 20
123.4493575844
 10
158.7132874435
 20
123.4698424822
 10
158.7124313627
 20
123.4829194976
 10
158.7115613336
 20
123.4885218763
  0
LWPOLYLINE
  5
26E
100
AcDbEntity
  8
ASSI
100
AcDbPolyline
 62
253
  6
CONTINUOUS
 90
6
 70
0
 10
158.7157799311
 20
123.3866192072
 10
158.7149617277
 20
123.4215699877
 10
158.714129576
 20
123.4493575844
 10
158.7132874435
 20
123.4698424822
 10
158.7124313627
 20
123.4829194976
 10
158.7115613336
 20
123.4885218763
  0
LINE
  5
26F
100
AcDbEntity
  8
RACCORDO
100
AcDbLine
 62
253
  6
CONTINUOUS
 10
157.9201968688
 20
122.4786492282
 11
157.9189016801
 21
122.5443801325
  0
LINE
  5
270
100
AcDbEntity
  8
ASSI
100
AcDbLine
 62
253
  6
CONTINUOUS
 10
157.9201968688
 20
122.4786492282
 11
157.9189016801
 21
122.5443801325
  0
LINE
  5
271
100
AcDbEntity
  8
RACCORDO
100
AcDbLine
 62
253
  6
CONTINUOUS
 10
158.7173386129
 20
123.2959395783
 11
158.7157799311
 21
123.3866192072
  0
LINE
  5
272
100
AcDbEntity
  8
ASSI
100
AcDbLine
 62
253
  6
CONTINUOUS
 10
158.7173386129
 20
123.2959395783
 11
158.7157799311
 21
123.3866192072
  0
LINE
  5
273
100
AcDbEntity
  8
RACCORDO
100
AcDbLine
 62
253
  6
CONTINUOUS
 10
157.9218041669
 20
122.362163409
 11
157.9201968688
 21
122.4786492282
  0
LINE
  5
274
100
AcDbEntity
  8
ASSI
100
AcDbLine
 62
253
  6
CONTINUOUS
 10
157.9218041669
 20
122.362163409
 11
157.9201968688
 21
122.4786492282
  0
LINE
  5
275
100
AcDbEntity
  8
RACCORDO
100
AcDbLine
 62
253
  6
CONTINUOUS
 10
158.7194475505
 20
123.1116663948
 11
158.7173386129
 21
123.2959395783
  0
LINE
  5
276
100
AcDbEntity
  8
ASSI
100
AcDbLine
 62
253
  6
CONTINUOUS
 10
158.7194475505
 20
123.1116663948
 11
158.7173386129
 21
123.2959395783
  0
LINE
  5
277
100
AcDbEntity
  8
RACCORDO
100
AcDbLine
 62
253
  6
CONTINUOUS
 10
157.9229464428
 20
122.2288705669
 11
157.9218041669
 21
122.362163409
  0
LINE
  5
278
100
AcDbEntity
  8
ASSI
100
AcDbLine
 62
253
  6
CONTINUOUS
 10
157.9229464428
 20
122.2288705669
 11
157.9218041669
 21
122.362163409
  0
LINE
  5
279
100
AcDbEntity
  8
RACCORDO
100
AcDbLine
 62
253
  6
CONTINUOUS
 10
158.7221159424
 20
122.6977391014
 11
158.7194475505
 21
123.1116663948
  0
LINE
  5
27A
100
AcDbEntity
  8
ASSI
100
AcDbLine
 62
253
  6
CONTINUOUS
 10
158.7221159424
 20
122.6977391014
 11
158.7194475505
 21
123.1116663948
  0
LINE
  5
27B
100
AcDbEntity
  8
RACCORDO
100
AcDbLine
 62
253
  6
CONTINUOUS
 10
157.9236603315
 20
122.036237917
 11
157.9229464428
 21
122.2288705669
  0
LINE
  5
27C
100
AcDbEntity
  8
ASSI
100
AcDbLine
 62
253
  6
CONTINUOUS
 10
157.9236603315
 20
122.036237917
 11
157.9229464428
 21
122.2288705669
  0
LINE
  5
27D
100
AcDbEntity
  8
RACCORDO
100
AcDbLine
 62
253
  6
CONTINUOUS
 10
158.7235384876
 20
122.090509441
 11
158.7221159424
 21
122.6977391014
  0
LINE
  5
27E
100
AcDbEntity
  8
ASSI
100
AcDbLine
 62
253
  6
CONTINUOUS
 10
158.7235384876
 20
122.090509441
 11
158.7221159424
 21
122.6977391014
  0
LINE
  5
27F
100
AcDbEntity
  8
RACCORDO
100
AcDbLine
 62
7
  6
CONTINUOUS
 10
157.8115171057
 20
80.6885661042
 11
157.8115171057
 21
122.788809792
  0
LINE
  5
280
100
AcDbEntity
  8
ASSI
100
AcDbLine
 62
7
  6
CONTINUOUS
 10
157.8115171057
 20
80.6885661042
 11
157.8115171057
 21
122.788809792
  0
LWPOLYLINE
  5
281
100
AcDbEntity
  8
RACCORDO
100
AcDbPolyline
 62
253
  6
CONTINUOUS
 90
12
 70
0
 10
157.9273361125
 20
84.8207944563
 10
157.9303436771
 20
88.2017577291
 10
157.9326830255
 20
91.5840277973
 10
157.9343542886
 20
94.9680402542
 10
157.9353573355
 20
98.3533595065
 10
157.935691773
 20
101.7386787754
 10
157.9353573398
 20
105.1239974035
 10
157.9343542973
 20
108.509316048
 10
157.9326830361
 20
111.8933299024
 10
157.9303436866
 20
115.2756040308
 10
157.9273361183
 20
118.6565733691
 10
157.9236603315
 20
122.036237917
  0
LWPOLYLINE
  5
282
100
AcDbEntity
  8
ASSI
100
AcDbPolyline
 62
253
  6
CONTINUOUS
 90
12
 70
0
 10
157.9273361125
 20
84.8207944563
 10
157.9303436771
 20
88.2017577291
 10
157.9326830255
 20
91.5840277973
 10
157.9343542886
 20
94.9680402542
 10
157.9353573355
 20
98.3533595065
 10
157.935691773
 20
101.7386787754
 10
157.9353573398
 20
105.1239974035
 10
157.9343542973
 20
108.509316048
 10
157.9326830361
 20
111.8933299024
 10
157.9303436866
 20
115.2756040308
 10
157.9273361183
 20
118.6565733691
 10
157.9236603315
 20
122.036237917
  0
LWPOLYLINE
  5
283
100
AcDbEntity
  8
RACCORDO
100
AcDbPolyline
 62
253
  6
CONTINUOUS
 90
12
 70
0
 10
158.7272142803
 20
84.7748545152
 10
158.730221852
 20
88.165014391
 10
158.7325612028
 20
91.5569120277
 10
158.7342324608
 20
94.9501131057
 10
158.7352354979
 20
98.3441832229
 10
158.7355699291
 20
101.738687951
 10
158.7352354978
 20
105.133192679
 10
158.7342324607
 20
108.527262796
 10
158.7325612026
 20
111.9204638733
 10
158.7302218519
 20
115.3123615088
 10
158.7272142802
 20
118.7025213831
 10
158.7235384876
 20
122.090509441
  0
LWPOLYLINE
  5
284
100
AcDbEntity
  8
ASSI
100
AcDbPolyline
 62
253
  6
CONTINUOUS
 90
12
 70
0
 10
158.7272142803
 20
84.7748545152
 10
158.730221852
 20
88.165014391
 10
158.7325612028
 20
91.5569120277
 10
158.7342324608
 20
94.9501131057
 10
158.7352354979
 20
98.3441832229
 10
158.7355699291
 20
101.738687951
 10
158.7352354978
 20
105.133192679
 10
158.7342324607
 20
108.527262796
 10
158.7325612026
 20
111.9204638733
 10
158.7302218519
 20
115.3123615088
 10
158.7272142802
 20
118.7025213831
 10
158.7235384876
 20
122.090509441
  0
LINE
  5
285
100
AcDbEntity
  8
RACCORDO
100
AcDbLine
 62
253
  6
CONTINUOUS
 10
157.9232147162
 20
81.2955892978
 11
157.9273361125
 21
84.8207944563
  0
LINE
  5
286
100
AcDbEntity
  8
ASSI
100
AcDbLine
 62
253
  6
CONTINUOUS
 10
157.9232147162
 20
81.2955892978
 11
157.9273361125
 21
84.8207944563
  0
LINE
  5
287
100
AcDbEntity
  8
RACCORDO
100
AcDbLine
 62
253
  6
CONTINUOUS
 10
158.721681131
 20
80.6879740757
 11
158.7272142803
 21
84.7748545152
  0
LINE
  5
288
100
AcDbEntity
  8
ASSI
100
AcDbLine
 62
253
  6
CONTINUOUS
 10
158.721681131
 20
80.6879740757
 11
158.7272142803
 21
84.7748545152
  0
LINE
  5
289
100
AcDbEntity
  8
RACCORDO
100
AcDbLine
 62
253
  6
CONTINUOUS
 10
157.9222405065
 20
81.1580943736
 11
157.9232147162
 21
81.2955892978
  0
LINE
  5
28A
100
AcDbEntity
  8
ASSI
100
AcDbLine
 62
253
  6
CONTINUOUS
 10
157.9222405065
 20
81.1580943736
 11
157.9232147162
 21
81.2955892978
  0
LINE
  5
28B
100
AcDbEntity
  8
RACCORDO
100
AcDbLine
 62
253
  6
CONTINUOUS
 10
158.7187828868
 20
80.2982573182
 11
158.721681131
 21
80.6879740757
  0
LINE
  5
28C
100
AcDbEntity
  8
ASSI
100
AcDbLine
 62
253
  6
CONTINUOUS
 10
158.7187828868
 20
80.2982573182
 11
158.721681131
 21
80.6879740757
  0
LINE
  5
28D
100
AcDbEntity
  8
RACCORDO
100
AcDbLine
 62
253
  6
CONTINUOUS
 10
157.9207815965
 20
81.0353980611
 11
157.9222405065
 21
81.1580943736
  0
LINE
  5
28E
100
AcDbEntity
  8
ASSI
100
AcDbLine
 62
253
  6
CONTINUOUS
 10
157.9207815965
 20
81.0353980611
 11
157.9222405065
 21
81.1580943736
  0
LINE
  5
28F
100
AcDbEntity
  8
RACCORDO
100
AcDbLine
 62
253
  6
CONTINUOUS
 10
157.9195704421
 20
80.9646040896
 11
157.9207815965
 21
81.0353980611
  0
LINE
  5
290
100
AcDbEntity
  8
ASSI
100
AcDbLine
 62
253
  6
CONTINUOUS
 10
157.9195704421
 20
80.9646040896
 11
157.9207815965
 21
81.0353980611
  0
LINE
  5
291
100
AcDbEntity
  8
RACCORDO
100
AcDbLine
 62
7
  6
CONTINUOUS
 10
163.4114980672
 20
91.7386879481
 11
163.3592356252
 21
91.7359492234
  0
LINE
  5
292
100
AcDbEntity
  8
ASSI
100
AcDbLine
 62
7
  6
CONTINUOUS
 10
163.4114980672
 20
91.7386879481
 11
163.3592356252
 21
91.7359492234
  0
LINE
  5
293
100
AcDbEntity
  8
RACCORDO
100
AcDbLine
 62
253
  6
CONTINUOUS
 10
163.3619933688
 20
91.7423177773
 11
163.405933753
 21
91.7442522623
  0
LINE
  5
294
100
AcDbEntity
  8
ASSI
100
AcDbLine
 62
253
  6
CONTINUOUS
 10
163.3619933688
 20
91.7423177773
 11
163.405933753
 21
91.7442522623
  0
LWPOLYLINE
  5
295
100
AcDbEntity
  8
RACCORDO
100
AcDbPolyline
 62
253
  6
CONTINUOUS
 90
10
 70
0
 10
162.8061347405
 20
91.2405939306
 10
162.8234053094
 20
91.2406517085
 10
162.8401572136
 20
91.2408129147
 10
162.8558869971
 20
91.2410727044
 10
162.8701219224
 20
91.2414232701
 10
162.8824341777
 20
91.241854076
 10
162.8924537346
 20
91.2423521746
 10
162.8998794689
 20
91.2429025959
 10
162.9044882098
 20
91.2434887982
 10
162.9061414479
 20
91.2440931638
  0
LWPOLYLINE
  5
296
100
AcDbEntity
  8
ASSI
100
AcDbPolyline
 62
253
  6
CONTINUOUS
 90
10
 70
0
 10
162.8061347405
 20
91.2405939306
 10
162.8234053094
 20
91.2406517085
 10
162.8401572136
 20
91.2408129147
 10
162.8558869971
 20
91.2410727044
 10
162.8701219224
 20
91.2414232701
 10
162.8824341777
 20
91.241854076
 10
162.8924537346
 20
91.2423521746
 10
162.8998794689
 20
91.2429025959
 10
162.9044882098
 20
91.2434887982
 10
162.9061414479
 20
91.2440931638
  0
LINE
  5
297
100
AcDbEntity
  8
RACCORDO
100
AcDbLine
 62
253
  6
CONTINUOUS
 10
163.1115171057
 20
91.2386879481
 11
162.9115171057
 21
91.2386879481
  0
LINE
  5
298
100
AcDbEntity
  8
RACCORDO
100
AcDbLine
 62
253
  6
CONTINUOUS
 10
174.7115171057
 20
91.2386879481
 11
174.9115171057
 21
91.2386879472
  0
LINE
  5
299
100
AcDbEntity
  8
RACCORDO
100
AcDbLine
 62
253
  6
CONTINUOUS
 10
174.4115171057
 20
91.5386879481
 11
163.4115171057
 21
91.5386879481
  0
LINE
  5
29A
100
AcDbEntity
  8
RACCORDO
100
AcDbLine
 62
7
  6
CONTINUOUS
 10
174.4115171057
 20
91.7386879481
 11
163.4115171057
 21
91.7386879481
  0
LINE
  5
29B
100
AcDbEntity
  8
RACCORDO
100
AcDbLine
 62
7
  6
CONTINUOUS
 10
163.405933753
 20
91.7442522623
 11
174.4171004583
 21
91.7442522623
  0
LINE
  5
29C
100
AcDbEntity
  8
ASSI
100
AcDbLine
 62
7
  6
CONTINUOUS
 10
163.405933753
 20
91.7442522623
 11
174.4171004583
 21
91.7442522623
  0
LINE
  5
29D
100
AcDbEntity
  8
RACCORDO
100
AcDbLine
 62
253
  6
CONTINUOUS
 10
163.405933753
 20
91.8409492083
 11
174.4171004583
 21
91.8409492083
  0
LINE
  5
29E
100
AcDbEntity
  8
ASSI
100
AcDbLine
 62
253
  6
CONTINUOUS
 10
163.405933753
 20
91.8409492083
 11
174.4171004583
 21
91.8409492083
  0
LWPOLYLINE
  5
29F
100
AcDbEntity
  8
RACCORDO
100
AcDbPolyline
 62
253
  6
CONTINUOUS
 90
10
 70
0
 10
175.0168994713
 20
91.2405937952
 10
174.9996300939
 20
91.2406516417
 10
174.9828796418
 20
91.2408129021
 10
174.9671514473
 20
91.2410727305
 10
174.9529181251
 20
91.2414233195
 10
174.9406073705
 20
91.2418541343
 10
174.9305891077
 20
91.2423522292
 10
174.9231643743
 20
91.242902637
 10
174.9185562753
 20
91.2434888186
 10
174.916903279
 20
91.2440931599
  0
LWPOLYLINE
  5
2A0
100
AcDbEntity
  8
ASSI
100
AcDbPolyline
 62
253
  6
CONTINUOUS
 90
10
 70
0
 10
175.0168994713
 20
91.2405937952
 10
174.9996300939
 20
91.2406516417
 10
174.9828796418
 20
91.2408129021
 10
174.9671514473
 20
91.2410727305
 10
174.9529181251
 20
91.2414233195
 10
174.9406073705
 20
91.2418541343
 10
174.9305891077
 20
91.2423522292
 10
174.9231643743
 20
91.242902637
 10
174.9185562753
 20
91.2434888186
 10
174.916903279
 20
91.2440931599
  0
LINE
  5
2A1
100
AcDbEntity
  8
RACCORDO
100
AcDbLine
 62
253
  6
CONTINUOUS
 10
174.4171004583
 20
91.7442522623
 11
174.4609981628
 21
91.7423215395
  0
LINE
  5
2A2
100
AcDbEntity
  8
ASSI
100
AcDbLine
 62
253
  6
CONTINUOUS
 10
174.4171004583
 20
91.7442522623
 11
174.4609981628
 21
91.7423215395
  0
LWPOLYLINE
  5
2A3
100
AcDbEntity
  8
RACCORDO
100
AcDbPolyline
 62
253
  6
CONTINUOUS
 90
19
 70
0
 10
174.4171004583
 20
91.8409492083
 10
174.4703733545
 20
91.8384505903
 10
174.5223706427
 20
91.8315680057
 10
174.5730923227
 20
91.8203014646
 10
174.6228910856
 20
91.8044786889
 10
174.6714142403
 20
91.7842719965
 10
174.7176037144
 20
91.7601982977
 10
174.7613842664
 20
91.7322075501
 10
174.8028311378
 20
91.7003498639
 10
174.8411119809
 20
91.6652923749
 10
174.8761828792
 20
91.6269799122
 10
174.9080877492
 20
91.5854677273
 10
174.9361259935
 20
91.5415885766
 10
174.9602439184
 20
91.495237874
 10
174.9804952174
 20
91.4465202816
 10
174.996340374
 20
91.3965824007
 10
175.007599549
 20
91.3458064385
 10
175.0144525814
 20
91.2938102288
 10
175.0168994713
 20
91.2405937952
  0
LWPOLYLINE
  5
2A4
100
AcDbEntity
  8
ASSI
100
AcDbPolyline
 62
253
  6
CONTINUOUS
 90
19
 70
0
 10
174.4171004583
 20
91.8409492083
 10
174.4703733545
 20
91.8384505903
 10
174.5223706427
 20
91.8315680057
 10
174.5730923227
 20
91.8203014646
 10
174.6228910856
 20
91.8044786889
 10
174.6714142403
 20
91.7842719965
 10
174.7176037144
 20
91.7601982977
 10
174.7613842664
 20
91.7322075501
 10
174.8028311378
 20
91.7003498639
 10
174.8411119809
 20
91.6652923749
 10
174.8761828792
 20
91.6269799122
 10
174.9080877492
 20
91.5854677273
 10
174.9361259935
 20
91.5415885766
 10
174.9602439184
 20
91.495237874
 10
174.9804952174
 20
91.4465202816
 10
174.996340374
 20
91.3965824007
 10
175.007599549
 20
91.3458064385
 10
175.0144525814
 20
91.2938102288
 10
175.0168994713
 20
91.2405937952
  0
LINE
  5
2A5
100
AcDbEntity
  8
ASSI
100
AcDbLine
 62
7
  6
CONTINUOUS
 10
174.4637985861
 20
91.7359492234
 11
174.4115361441
 21
91.7386879481
  0
LINE
  5
2A6
100
AcDbEntity
  8
RACCORDO
100
AcDbLine
 62
253
  6
CONTINUOUS
 10
179.2116389495
 20
123.5886879481
 11
179.1114728777
 21
123.4885218763
  0
LINE
  5
2A7
100
AcDbEntity
  8
ASSI
100
AcDbLine
 62
253
  6
CONTINUOUS
 10
179.2116389495
 20
123.5886879481
 11
179.1114728777
 21
123.4885218763
  0
LINE
  5
2A8
100
AcDbEntity
  8
0
100
AcDbLine
 62
253
  6
CONTINUOUS
 10
170.6429901057
 20
116.1251555434
 11
170.1535631057
 21
115.6384925434
  0
LINE
  5
2A9
100
AcDbEntity
  8
0
100
AcDbLine
 62
253
  6
CONTINUOUS
 10
171.9309731057
 20
115.3096745434
 11
171.7665641057
 21
115.1894765434
  0
LWPOLYLINE
  5
2AA
100
AcDbEntity
  8
RACCORDO
100
AcDbPolyline
 62
7
  6
CONTINUOUS
 90
15
 70
0
 10
163.3592356252
 20
91.7359492234
 10
163.307545826
 20
91.7277628104
 10
163.2569949047
 20
91.7142183137
 10
163.2081365587
 20
91.6954640224
 10
163.1615061467
 20
91.6717053082
 10
163.1176147884
 20
91.6432024471
 10
163.0769433453
 20
91.6102676416
 10
163.0399374122
 20
91.5732617085
 10
163.0070026067
 20
91.5325902654
 10
162.9784997456
 20
91.4886989071
 10
162.9547410314
 20
91.4420684951
 10
162.9359867401
 20
91.3932101491
 10
162.9224422433
 20
91.3426592277
 10
162.9142558303
 20
91.2909694285
 10
162.9115171057
 20
91.2387069866
  0
LWPOLYLINE
  5
2AB
100
AcDbEntity
  8
ASSI
100
AcDbPolyline
 62
7
  6
CONTINUOUS
 90
15
 70
0
 10
163.3592356252
 20
91.7359492234
 10
163.307545826
 20
91.7277628104
 10
163.2569949047
 20
91.7142183137
 10
163.2081365587
 20
91.6954640224
 10
163.1615061467
 20
91.6717053082
 10
163.1176147884
 20
91.6432024471
 10
163.0769433453
 20
91.6102676416
 10
163.0399374122
 20
91.5732617085
 10
163.0070026067
 20
91.5325902654
 10
162.9784997456
 20
91.4886989071
 10
162.9547410314
 20
91.4420684951
 10
162.9359867401
 20
91.3932101491
 10
162.9224422433
 20
91.3426592277
 10
162.9142558303
 20
91.2909694285
 10
162.9115171057
 20
91.2387069866
  0
LINE
  5
2AC
100
AcDbEntity
  8
0
100
AcDbLine
 62
253
  6
CONTINUOUS
 10
170.9543744188
 20
93.7386879481
 11
170.2115170103
 21
93.7386879481
  0
LINE
  5
2AD
100
AcDbEntity
  8
0
100
AcDbLine
 62
253
  6
CONTINUOUS
 10
165.1972313043
 20
93.7386879481
 11
165.940088461
 21
93.7386879481
  0
LINE
  5
2AE
100
AcDbEntity
  8
0
100
AcDbLine
 62
253
  6
CONTINUOUS
 10
166.8686599117
 20
93.7386879481
 11
167.240088461
 21
93.7386879481
  0
LINE
  5
2AF
100
AcDbEntity
  8
0
100
AcDbLine
 62
253
  6
CONTINUOUS
 10
168.3543741089
 20
93.7386879481
 11
169.0972312075
 21
93.7386879481
  0
LWPOLYLINE
  5
2B0
100
AcDbEntity
  8
RACCORDO
100
AcDbPolyline
 62
253
  6
CONTINUOUS
 90
17
 70
0
 10
174.4609981628
 20
91.7423215395
 10
174.5044567377
 20
91.7365604735
 10
174.5471455572
 20
91.7270393703
 10
174.5887345454
 20
91.7138599205
 10
174.628924444
 20
91.6971456916
 10
174.6674457745
 20
91.677032977
 10
174.7039994389
 20
91.6537016505
 10
174.7383386612
 20
91.6273341681
 10
174.7702807206
 20
91.598079584
 10
174.7995855751
 20
91.5661501755
 10
174.8260258278
 20
91.5317855191
 10
174.8494368859
 20
91.4951758685
 10
174.8696315489
 20
91.4565622638
 10
174.8864206035
 20
91.4162463988
 10
174.8996541164
 20
91.3745242203
 10
174.9092067516
 20
91.3317068749
 10
174.9149797792
 20
91.2881187404
  0
LWPOLYLINE
  5
2B1
100
AcDbEntity
  8
ASSI
100
AcDbPolyline
 62
253
  6
CONTINUOUS
 90
17
 70
0
 10
174.4609981628
 20
91.7423215395
 10
174.5044567377
 20
91.7365604735
 10
174.5471455572
 20
91.7270393703
 10
174.5887345454
 20
91.7138599205
 10
174.628924444
 20
91.6971456916
 10
174.6674457745
 20
91.677032977
 10
174.7039994389
 20
91.6537016505
 10
174.7383386612
 20
91.6273341681
 10
174.7702807206
 20
91.598079584
 10
174.7995855751
 20
91.5661501755
 10
174.8260258278
 20
91.5317855191
 10
174.8494368859
 20
91.4951758685
 10
174.8696315489
 20
91.4565622638
 10
174.8864206035
 20
91.4162463988
 10
174.8996541164
 20
91.3745242203
 10
174.9092067516
 20
91.3317068749
 10
174.9149797792
 20
91.2881187404
  0
LINE
  5
2B2
100
AcDbEntity
  8
0
100
AcDbLine
 62
253
  6
CONTINUOUS
 10
165.0115170103
 20
93.9244022421
 11
165.1972313043
 21
93.7386879481
  0
LINE
  5
2B3
100
AcDbEntity
  8
RACCORDO
100
AcDbLine
 62
253
  6
CONTINUOUS
 10
179.1114728777
 20
79.9888540199
 11
179.2116389495
 21
79.8886879481
  0
LINE
  5
2B4
100
AcDbEntity
  8
ASSI
100
AcDbLine
 62
253
  6
CONTINUOUS
 10
179.1114728777
 20
79.9888540199
 11
179.2116389495
 21
79.8886879481
  0
LWPOLYLINE
  5
2B5
100
AcDbEntity
  8
RACCORDO
100
AcDbPolyline
 62
7
  6
CONTINUOUS
 90
16
 70
0
 10
162.9115171057
 20
87.7386689096
 10
162.9142558303
 20
87.6864064676
 10
162.9224422433
 20
87.6347166685
 10
162.9359867401
 20
87.5841657471
 10
162.9547410314
 20
87.5353074011
 10
162.9784997456
 20
87.4886769891
 10
163.0070026067
 20
87.4447856308
 10
163.0399374122
 20
87.4041141877
 10
163.0769433453
 20
87.3671082546
 10
163.1176147884
 20
87.3341734491
 10
163.1615061467
 20
87.305670588
 10
163.2081365587
 20
87.2819118738
 10
163.2569949047
 20
87.2631575825
 10
163.307545826
 20
87.2496130858
 10
163.3592356252
 20
87.2414266728
 10
163.4114980672
 20
87.2386879481
  0
LWPOLYLINE
  5
2B6
100
AcDbEntity
  8
ASSI
100
AcDbPolyline
 62
7
  6
CONTINUOUS
 90
15
 70
0
 10
162.9115171057
 20
87.7386689096
 10
162.9142558303
 20
87.6864064676
 10
162.9224422433
 20
87.6347166685
 10
162.9359867401
 20
87.5841657471
 10
162.9547410314
 20
87.5353074011
 10
162.9784997456
 20
87.4886769891
 10
163.0070026067
 20
87.4447856308
 10
163.0399374122
 20
87.4041141877
 10
163.0769433453
 20
87.3671082546
 10
163.1176147884
 20
87.3341734491
 10
163.1615061467
 20
87.305670588
 10
163.2081365587
 20
87.2819118738
 10
163.2569949047
 20
87.2631575825
 10
163.307545826
 20
87.2496130858
 10
163.3592356252
 20
87.2414266728
  0
LINE
  5
2B7
100
AcDbEntity
  8
RACCORDO
100
AcDbLine
 62
253
  6
CONTINUOUS
 10
162.9093431683
 20
87.690563569
 11
162.9073829727
 21
87.7345347766
  0
LINE
  5
2B8
100
AcDbEntity
  8
ASSI
100
AcDbLine
 62
253
  6
CONTINUOUS
 10
162.9093431683
 20
87.690563569
 11
162.9073829727
 21
87.7345347766
  0
LWPOLYLINE
  5
2B9
100
AcDbEntity
  8
RACCORDO
100
AcDbPolyline
 62
253
  6
CONTINUOUS
 90
8
 70
0
 10
158.7115613336
 20
79.9888540199
 10
158.7124315078
 20
79.9944569091
 10
158.7132876918
 20
80.0075349223
 10
158.7141298857
 20
80.0280208622
 10
158.7149620289
 20
80.0558087202
 10
158.7157801819
 20
80.0907587706
 10
158.7165725261
 20
80.1327023253
 10
158.7187828868
 20
80.2982573182
  0
LWPOLYLINE
  5
2BA
100
AcDbEntity
  8
ASSI
100
AcDbPolyline
 62
253
  6
CONTINUOUS
 90
8
 70
0
 10
158.7115613336
 20
79.9888540199
 10
158.7124315078
 20
79.9944569091
 10
158.7132876918
 20
80.0075349223
 10
158.7141298857
 20
80.0280208622
 10
158.7149620289
 20
80.0558087202
 10
158.7157801819
 20
80.0907587706
 10
158.7165725261
 20
80.1327023253
 10
158.7187828868
 20
80.2982573182
  0
LINE
  5
2BB
100
AcDbEntity
  8
0
100
AcDbLine
 62
253
  6
CONTINUOUS
 10
169.8995241057
 20
116.7603395434
 11
170.0554701057
 21
116.9941735434
  0
LINE
  5
2BC
100
AcDbEntity
  8
0
100
AcDbLine
 62
253
  6
CONTINUOUS
 10
171.0944231057
 20
115.2150365434
 11
170.9315681057
 21
115.0140155434
  0
LINE
  5
2BD
100
AcDbEntity
  8
RACCORDO
100
AcDbLine
 62
253
  6
CONTINUOUS
 10
180.0115171057
 20
122.788809792
 11
179.9113510338
 21
122.6886437201
  0
LINE
  5
2BE
100
AcDbEntity
  8
ASSI
100
AcDbLine
 62
253
  6
CONTINUOUS
 10
180.0115171057
 20
122.788809792
 11
179.9113510338
 21
122.6886437201
  0
LINE
  5
2BF
100
AcDbEntity
  8
0
100
AcDbLine
 62
253
  6
CONTINUOUS
 10
172.4708281057
 20
113.9702275434
 11
172.6342001057
 21
114.1007875434
  0
LINE
  5
2C0
100
AcDbEntity
  8
0
100
AcDbLine
 62
253
  6
CONTINUOUS
 10
167.9829457146
 20
94.6672593988
 11
169.0972312075
 21
94.6672593988
  0
LINE
  5
2C1
100
AcDbEntity
  8
0
100
AcDbLine
 62
253
  6
CONTINUOUS
 10
170.2115170103
 20
94.6672593988
 11
170.9543744188
 21
94.6672593988
  0
LINE
  5
2C2
100
AcDbEntity
  8
0
100
AcDbLine
 62
253
  6
CONTINUOUS
 10
170.2115170103
 20
93.7386879481
 11
169.840088306
 21
93.9244022421
  0
LINE
  5
2C3
100
AcDbEntity
  8
0
100
AcDbLine
 62
253
  6
CONTINUOUS
 10
166.6829455596
 20
93.9244022421
 11
166.8686599117
 21
93.7386879481
  0
LINE
  5
2C4
100
AcDbEntity
  8
RACCORDO
100
AcDbLine
 62
253
  6
CONTINUOUS
 10
179.9113510338
 20
80.7887321761
 11
180.0115171057
 21
80.6885661042
  0
LINE
  5
2C5
100
AcDbEntity
  8
ASSI
100
AcDbLine
 62
253
  6
CONTINUOUS
 10
179.9113510338
 20
80.7887321761
 11
180.0115171057
 21
80.6885661042
  0
LINE
  5
2C6
100
AcDbEntity
  8
RACCORDO
100
AcDbLine
 62
253
  6
CONTINUOUS
 10
162.8073867804
 20
87.7298651691
 11
162.80613474
 21
91.2405937952
  0
LINE
  5
2C7
100
AcDbEntity
  8
ASSI
100
AcDbLine
 62
253
  6
CONTINUOUS
 10
162.8073867804
 20
87.7298651691
 11
162.80613474
 21
91.2405937952
  0
LINE
  5
2C8
100
AcDbEntity
  8
RACCORDO
100
AcDbLine
 62
253
  6
CONTINUOUS
 10
162.9073829727
 20
87.7345347766
 11
162.9061309323
 21
91.2440931599
  0
LINE
  5
2C9
100
AcDbEntity
  8
ASSI
100
AcDbLine
 62
253
  6
CONTINUOUS
 10
162.9073829727
 20
87.7345347766
 11
162.9061309323
 21
91.2440931599
  0
LINE
  5
2CA
100
AcDbEntity
  8
RACCORDO
100
AcDbLine
 62
7
  6
CONTINUOUS
 10
162.9115171057
 20
91.2386879481
 11
162.9115171057
 21
87.7386879481
  0
LINE
  5
2CB
100
AcDbEntity
  8
RACCORDO
100
AcDbLine
 62
253
  6
CONTINUOUS
 10
163.1115171057
 20
91.2386879481
 11
163.1115171057
 21
87.7386879481
  0
LINE
  5
2CC
100
AcDbEntity
  8
RACCORDO
100
AcDbLine
 62
253
  6
CONTINUOUS
 10
163.405933753
 20
91.8409492083
 11
163.405933753
 21
91.7442522623
  0
LINE
  5
2CD
100
AcDbEntity
  8
ASSI
100
AcDbLine
 62
253
  6
CONTINUOUS
 10
163.405933753
 20
91.8409492083
 11
163.405933753
 21
91.7442522623
  0
LINE
  5
2CE
100
AcDbEntity
  8
RACCORDO
100
AcDbLine
 62
253
  6
CONTINUOUS
 10
163.407613847
 20
87.1299379523
 11
163.4076138431
 21
87.2348037279
  0
LINE
  5
2CF
100
AcDbEntity
  8
ASSI
100
AcDbLine
 62
253
  6
CONTINUOUS
 10
163.407613847
 20
87.1299379523
 11
163.4076138431
 21
87.2348037279
  0
LINE
  5
2D0
100
AcDbEntity
  8
RACCORDO
100
AcDbLine
 62
253
  6
CONTINUOUS
 10
163.4115171057
 20
87.4386879481
 11
163.4115171057
 21
87.2386879481
  0
LINE
  5
2D1
100
AcDbEntity
  8
RACCORDO
100
AcDbLine
 62
253
  6
CONTINUOUS
 10
163.4115171057
 20
91.5386879481
 11
163.4115171066
 21
91.7386879481
  0
LINE
  5
2D2
100
AcDbEntity
  8
0
100
AcDbLine
 62
253
  6
CONTINUOUS
 10
163.9900884253
 20
99.1958308495
 11
163.9900884253
 21
96.7196403897
  0
LINE
  5
2D3
100
AcDbEntity
  8
RACCORDO
100
AcDbLine
 62
253
  6
CONTINUOUS
 10
162.9061309323
 20
91.2440931599
 11
162.9080506638
 21
91.2880758516
  0
LINE
  5
2D4
100
AcDbEntity
  8
ASSI
100
AcDbLine
 62
253
  6
CONTINUOUS
 10
162.9061309323
 20
91.2440931599
 11
162.9080506638
 21
91.2880758516
  0
LWPOLYLINE
  5
2D5
100
AcDbEntity
  8
RACCORDO
100
AcDbPolyline
 62
253
  6
CONTINUOUS
 90
19
 70
0
 10
162.80613474
 20
91.2405937952
 10
162.8086265224
 20
91.2939833701
 10
162.8155080285
 20
91.3460864714
 10
162.8267792583
 20
91.3969030742
 10
162.8426155458
 20
91.4467871443
 10
162.8628415569
 20
91.4953846723
 10
162.8869312899
 20
91.5416336552
 10
162.9149345763
 20
91.5854563602
 10
162.9468015845
 20
91.6269304452
 10
162.9818568182
 20
91.6652269661
 10
163.020153907
 20
91.70030033
 10
163.0616392213
 20
91.7321960499
 10
163.1054763758
 20
91.7602218276
 10
163.1517673688
 20
91.784323621
 10
163.2004102019
 20
91.8045554042
 10
163.2502624949
 20
91.8203868997
 10
163.3009434544
 20
91.8316413337
 10
163.3528338738
 20
91.8384954399
 10
163.405933753
 20
91.8409492083
  0
LWPOLYLINE
  5
2D6
100
AcDbEntity
  8
ASSI
100
AcDbPolyline
 62
253
  6
CONTINUOUS
 90
19
 70
0
 10
162.80613474
 20
91.2405937952
 10
162.8086265224
 20
91.2939833701
 10
162.8155080285
 20
91.3460864714
 10
162.8267792583
 20
91.3969030742
 10
162.8426155458
 20
91.4467871443
 10
162.8628415569
 20
91.4953846723
 10
162.8869312899
 20
91.5416336552
 10
162.9149345763
 20
91.5854563602
 10
162.9468015845
 20
91.6269304452
 10
162.9818568182
 20
91.6652269661
 10
163.020153907
 20
91.70030033
 10
163.0616392213
 20
91.7321960499
 10
163.1054763758
 20
91.7602218276
 10
163.1517673688
 20
91.784323621
 10
163.2004102019
 20
91.8045554042
 10
163.2502624949
 20
91.8203868997
 10
163.3009434544
 20
91.8316413337
 10
163.3528338738
 20
91.8384954399
 10
163.405933753
 20
91.8409492083
  0
LINE
  5
2D7
100
AcDbEntity
  8
0
100
AcDbLine
 62
253
  6
CONTINUOUS
 10
171.7948871057
 20
113.7239595434
 11
171.9974621057
 21
113.9343065434
  0
LINE
  5
2D8
100
AcDbEntity
  8
0
100
AcDbLine
 62
253
  6
CONTINUOUS
 10
172.6258028131
 20
95.5958308495
 11
171.6972312075
 21
95.5958308495
  0
LINE
  5
2D9
100
AcDbEntity
  8
0
100
AcDbLine
 62
253
  6
CONTINUOUS
 10
168.7258028131
 20
95.5958308495
 11
168.3543741089
 21
95.5958308495
  0
LINE
  5
2DA
100
AcDbEntity
  8
0
100
AcDbLine
 62
253
  6
CONTINUOUS
 10
165.940088461
 20
95.5958308495
 11
165.1972313043
 21
95.5958308495
  0
LINE
  5
2DB
100
AcDbEntity
  8
0
100
AcDbLine
 62
253
  6
CONTINUOUS
 10
169.840088306
 20
95.5958308495
 11
170.7686596018
 21
95.5958308495
  0
LINE
  5
2DC
100
AcDbEntity
  8
0
100
AcDbLine
 62
253
  6
CONTINUOUS
 10
167.9829457146
 20
94.1101165361
 11
168.3543741089
 21
93.7386879481
  0
LINE
  5
2DD
100
AcDbEntity
  8
RACCORDO
100
AcDbLine
 62
253
  6
CONTINUOUS
 10
174.9115171057
 20
87.7386689096
 11
174.9156512387
 21
87.7345347766
  0
LINE
  5
2DE
100
AcDbEntity
  8
ASSI
100
AcDbLine
 62
253
  6
CONTINUOUS
 10
174.9115171057
 20
87.7386689096
 11
174.9156512387
 21
87.7345347766
  0
LINE
  5
2DF
100
AcDbEntity
  8
0
100
AcDbLine
 62
253
  6
CONTINUOUS
 10
165.8472313267
 20
97.5244022421
 11
166.0329455238
 21
97.3386879481
  0
LINE
  5
2E0
100
AcDbEntity
  8
0
100
AcDbLine
 62
253
  6
CONTINUOUS
 10
165.0115170103
 20
95.4101164974
 11
165.0115170103
 21
93.9244021772
  0
LINE
  5
2E1
100
AcDbEntity
  8
0
100
AcDbLine
 62
253
  6
CONTINUOUS
 10
165.1043741506
 20
97.5244022421
 11
165.1043741506
 21
99.0101165176
  0
LINE
  5
2E2
100
AcDbEntity
  8
0
100
AcDbLine
 62
253
  6
CONTINUOUS
 10
165.8472313267
 20
99.9386879481
 11
165.8472313267
 21
97.5244021303
  0
LWPOLYLINE
  5
2E3
100
AcDbEntity
  8
RACCORDO
100
AcDbPolyline
 62
253
  6
CONTINUOUS
 90
17
 70
0
 10
162.9080506638
 20
91.2880758516
 10
162.9138106874
 20
91.3316123056
 10
162.9233387319
 20
91.3743707227
 10
162.9365312138
 20
91.4160211637
 10
162.953262445
 20
91.4562628424
 10
162.9733931231
 20
91.4948233735
 10
162.9967404071
 20
91.5314036995
 10
163.0231196112
 20
91.5657585025
 10
163.0523791792
 20
91.5977052788
 10
163.0843042215
 20
91.6270054408
 10
163.1186536932
 20
91.6534341929
 10
163.1552369548
 20
91.6768293485
 10
163.1938113642
 20
91.6970059268
 10
163.2340752575
 20
91.7137778003
 10
163.2757357577
 20
91.7269981429
 10
163.3184833163
 20
91.736543753
 10
163.3619933688
 20
91.7423177773
  0
LWPOLYLINE
  5
2E4
100
AcDbEntity
  8
ASSI
100
AcDbPolyline
 62
253
  6
CONTINUOUS
 90
17
 70
0
 10
162.9080506638
 20
91.2880758516
 10
162.9138106874
 20
91.3316123056
 10
162.9233387319
 20
91.3743707227
 10
162.9365312138
 20
91.4160211637
 10
162.953262445
 20
91.4562628424
 10
162.9733931231
 20
91.4948233735
 10
162.9967404071
 20
91.5314036995
 10
163.0231196112
 20
91.5657585025
 10
163.0523791792
 20
91.5977052788
 10
163.0843042215
 20
91.6270054408
 10
163.1186536932
 20
91.6534341929
 10
163.1552369548
 20
91.6768293485
 10
163.1938113642
 20
91.6970059268
 10
163.2340752575
 20
91.7137778003
 10
163.2757357577
 20
91.7269981429
 10
163.3184833163
 20
91.736543753
 10
163.3619933688
 20
91.7423177773
  0
LWPOLYLINE
  5
2E5
100
AcDbEntity
  8
RACCORDO
100
AcDbPolyline
 62
253
  6
CONTINUOUS
 90
10
 70
0
 10
157.9116831775
 20
80.7887321761
 10
157.912549797
 20
80.7913854783
 10
157.9134036455
 20
80.7974460315
 10
157.914244723
 20
80.8069138355
 10
157.9150774249
 20
80.8198689392
 10
157.9158973558
 20
80.8362312938
 10
157.9166913295
 20
80.8557607525
 10
157.917458732
 20
80.8785094272
 10
157.9182001772
 20
80.904425206
 10
157.9195704421
 20
80.9646040896
  0
LWPOLYLINE
  5
2E6
100
AcDbEntity
  8
ASSI
100
AcDbPolyline
 62
253
  6
CONTINUOUS
 90
10
 70
0
 10
157.9116831775
 20
80.7887321761
 10
157.912549797
 20
80.7913854783
 10
157.9134036455
 20
80.7974460315
 10
157.914244723
 20
80.8069138355
 10
157.9150774249
 20
80.8198689392
 10
157.9158973558
 20
80.8362312938
 10
157.9166913295
 20
80.8557607525
 10
157.917458732
 20
80.8785094272
 10
157.9182001772
 20
80.904425206
 10
157.9195704421
 20
80.9646040896
  0
LINE
  5
2E7
100
AcDbEntity
  8
0
100
AcDbLine
 62
253
  6
CONTINUOUS
 10
171.7900884253
 20
97.3386879481
 11
171.0472310167
 21
97.3386879481
  0
LINE
  5
2E8
100
AcDbEntity
  8
0
100
AcDbLine
 62
253
  6
CONTINUOUS
 10
170.1186600309
 20
97.3386879481
 11
169.3758026224
 21
97.3386879481
  0
LINE
  5
2E9
100
AcDbEntity
  8
0
100
AcDbLine
 62
253
  6
CONTINUOUS
 10
163.9900884253
 20
97.3386879481
 11
164.918659876
 21
97.3386879481
  0
LINE
  5
2EA
100
AcDbEntity
  8
0
100
AcDbLine
 62
253
  6
CONTINUOUS
 10
166.0329455238
 20
97.3386879481
 11
166.4043740731
 21
97.3386879481
  0
LINE
  5
2EB
100
AcDbEntity
  8
0
100
AcDbLine
 62
253
  6
CONTINUOUS
 10
167.518659721
 20
97.3386879481
 11
168.2615171295
 21
97.3386879481
  0
LINE
  5
2EC
100
AcDbEntity
  8
0
100
AcDbLine
 62
253
  6
CONTINUOUS
 10
173.0900884253
 20
97.3386879481
 11
173.8329458338
 21
97.3386879481
  0
LINE
  5
2ED
100
AcDbEntity
  8
0
100
AcDbLine
 62
253
  6
CONTINUOUS
 10
167.1472313267
 20
98.2672593988
 11
168.2615171295
 21
98.2672593988
  0
LINE
  5
2EE
100
AcDbEntity
  8
0
100
AcDbLine
 62
253
  6
CONTINUOUS
 10
169.3758026224
 20
98.2672593988
 11
170.1186600309
 21
98.2672593988
  0
LINE
  5
2EF
100
AcDbEntity
  8
0
100
AcDbLine
 62
253
  6
CONTINUOUS
 10
172.7186600309
 20
98.2672593988
 11
173.8329458338
 21
98.2672593988
  0
LINE
  5
2F0
100
AcDbEntity
  8
0
100
AcDbLine
 62
253
  6
CONTINUOUS
 10
169.3758026224
 20
97.3386879481
 11
169.0043742281
 21
97.5244022421
  0
LINE
  5
2F1
100
AcDbEntity
  8
0
100
AcDbLine
 62
253
  6
CONTINUOUS
 10
165.1043741506
 20
99.0101164974
 11
164.918659876
 21
99.1958308495
  0
LINE
  5
2F2
100
AcDbEntity
  8
0
100
AcDbLine
 62
253
  6
CONTINUOUS
 10
169.0972312075
 20
95.2244023002
 11
168.7258028131
 21
95.5958308495
  0
LINE
  5
2F3
100
AcDbEntity
  8
0
100
AcDbLine
 62
253
  6
CONTINUOUS
 10
167.1472313267
 20
97.7101165361
 11
167.518659721
 21
97.3386879481
  0
LINE
  5
2F4
100
AcDbEntity
  8
0
100
AcDbLine
 62
253
  6
CONTINUOUS
 10
166.6829455596
 20
96.3386879481
 11
166.6829455596
 21
93.9244022208
  0
LINE
  5
2F5
100
AcDbEntity
  8
0
100
AcDbLine
 62
253
  6
CONTINUOUS
 10
167.1472313267
 20
98.8244023002
 11
167.1472313267
 21
97.7101165142
  0
LINE
  5
2F6
100
AcDbEntity
  8
0
100
AcDbLine
 62
253
  6
CONTINUOUS
 10
167.1676111057
 20
111.5880275434
 11
167.1676111057
 21
113.4742375386
  0
LINE
  5
2F7
100
AcDbEntity
  8
0
100
AcDbLine
 62
253
  6
CONTINUOUS
 10
167.1947241057
 20
116.1251555434
 11
167.1947241057
 21
116.7126755427
  0
LWPOLYLINE
  5
2F8
100
AcDbEntity
  8
0
100
AcDbPolyline
 62
253
  6
CONTINUOUS
 90
77
 70
0
 10
167.6178351057
 20
115.1798055434
 10
167.6189708515
 20
115.2347238047
 10
167.6223747215
 20
115.2891770373
 10
167.628041665
 20
115.3432100725
 10
167.6359666308
 20
115.3968677417
 10
167.6461445682
 20
115.4501948761
 10
167.6585669888
 20
115.5032064307
 10
167.673211655
 20
115.555797855
 10
167.6900528919
 20
115.6078347219
 10
167.7090650243
 20
115.6591826045
 10
167.7302223773
 20
115.7097070759
 10
167.7534935299
 20
115.7592820706
 10
167.7788240762
 20
115.8078149693
 10
167.8061538644
 20
115.8552215142
 10
167.8354227426
 20
115.9014174475
 10
167.8665705591
 20
115.9463185115
 10
167.8995404894
 20
115.9898453479
 10
167.9342890195
 20
116.0319381979
 10
167.970775963
 20
116.0725422022
 10
168.0089611336
 20
116.1116025016
 10
168.0488043446
 20
116.1490642366
 10
168.0902531402
 20
116.1848686937
 10
168.1332059865
 20
116.2189417407
 10
168.1775490804
 20
116.251205391
 10
168.2231686185
 20
116.2815816582
 10
168.2699507976
 20
116.3099925557
 10
168.3177941309
 20
116.336369502
 10
168.3666463983
 20
116.3606815364
 10
168.4164676962
 20
116.382907103
 10
168.467218121
 20
116.4030246462
 10
168.5188577691
 20
116.4210126103
 10
168.5713281081
 20
116.4368479315
 10
168.62449609
 20
116.450501514
 10
168.6782100383
 20
116.4619427541
 10
168.7323182761
 20
116.471141048
 10
168.7866691267
 20
116.4780657919
 10
168.8411303915
 20
116.4826913451
 10
168.8956477839
 20
116.4850119199
 10
168.9501864954
 20
116.4850266915
 10
169.0047117176
 20
116.4827348354
 10
169.059188642
 20
116.478135527
 10
169.113562328
 20
116.4712334894
 10
169.1676973068
 20
116.4620556374
 10
169.2214379773
 20
116.4506344336
 10
169.2746287386
 20
116.4370023405
 10
169.3271139897
 20
116.4211918207
 10
169.3787583796
 20
116.4032329284
 10
169.4295075572
 20
116.3831460839
 10
169.4793274212
 20
116.3609492992
 10
169.5281838705
 20
116.3366605861
 10
169.5760428038
 20
116.3102979565
 10
169.622855712
 20
116.2818903207
 10
169.6685164547
 20
116.251510182
 10
169.7129044833
 20
116.2192409422
 10
169.7558992494
 20
116.1851660029
 10
169.7973802047
 20
116.1493687658
 10
169.8372412591
 20
116.1119265931
 10
169.8754341575
 20
116.0728926882
 10
169.9119251029
 20
116.0323142151
 10
169.9466802986
 20
115.9902383378
 10
169.9796659478
 20
115.9467122202
 10
170.0108429222
 20
115.9017906206
 10
170.0401507668
 20
115.8555586746
 10
170.0675236954
 20
115.8081091119
 10
170.0928959215
 20
115.7595346625
 10
170.1162016586
 20
115.7099280564
 10
170.1373823646
 20
115.6593878888
 10
170.1564084744
 20
115.6080362172
 10
170.173257667
 20
115.5560009648
 10
170.1879076217
 20
115.5034100546
 10
170.2003360176
 20
115.4503914094
 10
170.208981339
 20
115.4059583001
 10
170.2160642079
 20
115.3612922975
 10
170.2215804217
 20
115.3163687111
 10
170.2255257777
 20
115.2711628503
 10
170.2278960732
 20
115.2256500246
 10
170.2286871057
 20
115.1798055434
  0
LINE
  5
2F9
100
AcDbEntity
  8
0
100
AcDbLine
 62
253
  6
CONTINUOUS
 10
170.6215761057
 20
112.0052665434
 11
171.2824921057
 21
113.3405695434
  0
LINE
  5
2FA
100
AcDbEntity
  8
0
100
AcDbLine
 62
253
  6
CONTINUOUS
 10
169.9395891057
 20
110.6385335434
 11
170.1637521057
 21
111.0892755434
  0
LINE
  5
2FB
100
AcDbEntity
  8
0
100
AcDbLine
 62
253
  6
CONTINUOUS
 10
173.4615168196
 20
99.1958308495
 11
173.0900884253
 21
99.1958308495
  0
LINE
  5
2FC
100
AcDbEntity
  8
0
100
AcDbLine
 62
253
  6
CONTINUOUS
 10
171.7900884253
 20
99.1958308495
 11
171.0472310167
 21
99.1958308495
  0
LINE
  5
2FD
100
AcDbEntity
  8
0
100
AcDbLine
 62
253
  6
CONTINUOUS
 10
167.8900884253
 20
99.1958308495
 11
167.518659721
 21
99.1958308495
  0
LINE
  5
2FE
100
AcDbEntity
  8
0
100
AcDbLine
 62
253
  6
CONTINUOUS
 10
164.918659876
 20
99.1958308495
 11
163.9900884253
 21
99.1958308495
  0
LINE
  5
2FF
100
AcDbEntity
  8
0
100
AcDbLine
 62
253
  6
CONTINUOUS
 10
169.0043742281
 20
99.1958308495
 11
169.9329458338
 21
99.1958308495
  0
LINE
  5
300
100
AcDbEntity
  8
0
100
AcDbLine
 62
253
  6
CONTINUOUS
 10
171.0472310167
 20
98.329164157
 11
171.7900884253
 21
98.2053546406
  0
LINE
  5
301
100
AcDbEntity
  8
0
100
AcDbLine
 62
253
  6
CONTINUOUS
 10
170.8615168196
 20
98.4529736735
 11
171.0472310167
 21
98.329164157
  0
LINE
  5
302
100
AcDbEntity
  8
0
100
AcDbLine
 62
253
  6
CONTINUOUS
 10
168.2615171295
 20
98.8244023002
 11
167.8900884253
 21
99.1958308495
  0
LINE
  5
303
100
AcDbEntity
  8
0
100
AcDbLine
 62
253
  6
CONTINUOUS
 10
172.8115170103
 20
95.4101164974
 11
172.6258028131
 21
95.5958308495
  0
LINE
  5
304
100
AcDbEntity
  8
0
100
AcDbLine
 62
253
  6
CONTINUOUS
 10
171.0472310167
 20
97.3386879481
 11
170.8615168196
 21
97.5244022421
  0
LINE
  5
305
100
AcDbEntity
  8
0
100
AcDbLine
 62
253
  6
CONTINUOUS
 10
167.9829457146
 20
95.2244023002
 11
167.9829457146
 21
94.1101165496
  0
LINE
  5
306
100
AcDbEntity
  8
0
100
AcDbLine
 62
253
  6
CONTINUOUS
 10
168.2019001057
 20
113.6320845434
 11
168.2019001057
 21
112.5565195247
  0
LINE
  5
307
100
AcDbEntity
  8
0
100
AcDbLine
 62
253
  6
CONTINUOUS
 10
168.2615171295
 20
98.2672593988
 11
168.2615171295
 21
98.8244023074
  0
LINE
  5
308
100
AcDbEntity
  8
0
100
AcDbLine
 62
253
  6
CONTINUOUS
 10
168.9115181057
 20
117.0656695434
 11
168.9115181057
 21
117.3385335498
  0
LINE
  5
309
100
AcDbEntity
  8
0
100
AcDbLine
 62
253
  6
CONTINUOUS
 10
169.0043742281
 20
97.5244022421
 11
169.0043742281
 21
98.0815451359
  0
LINE
  5
30A
100
AcDbEntity
  8
0
100
AcDbLine
 62
253
  6
CONTINUOUS
 10
169.0972312075
 20
94.6672593988
 11
169.0972312075
 21
95.2244022903
  0
LINE
  5
30B
100
AcDbEntity
  8
0
100
AcDbLine
 62
253
  6
CONTINUOUS
 10
171.7900884253
 20
98.2053546406
 11
171.9758026224
 21
98.0815451242
  0
LINE
  5
30C
100
AcDbEntity
  8
0
100
AcDbLine
 62
253
  6
CONTINUOUS
 10
172.7186600309
 20
97.7101165361
 11
173.0900884253
 21
97.3386879481
  0
LINE
  5
30D
100
AcDbEntity
  8
0
100
AcDbLine
 62
253
  6
CONTINUOUS
 10
170.7686596018
 20
95.5958308495
 11
170.9543744188
 21
95.2244023002
  0
LINE
  5
30E
100
AcDbEntity
  8
0
100
AcDbLine
 62
253
  6
CONTINUOUS
 10
169.9329458338
 20
99.1958308495
 11
170.1186600309
 21
98.8244023002
  0
LINE
  5
30F
100
AcDbEntity
  8
0
100
AcDbLine
 62
253
  6
CONTINUOUS
 10
169.6247611057
 20
112.5565195434
 11
169.6247611057
 21
113.6320845621
  0
LINE
  5
310
100
AcDbEntity
  8
0
100
AcDbLine
 62
253
  6
CONTINUOUS
 10
169.840088306
 20
93.9244022421
 11
169.840088306
 21
94.4815451281
  0
LINE
  5
311
100
AcDbEntity
  8
0
100
AcDbLine
 62
253
  6
CONTINUOUS
 10
170.1186600309
 20
98.8244023002
 11
170.1186600309
 21
97.3386879182
  0
LINE
  5
312
100
AcDbEntity
  8
0
100
AcDbLine
 62
253
  6
CONTINUOUS
 10
170.6429901057
 20
116.7126755434
 11
170.6429901057
 21
116.1251555441
  0
LWPOLYLINE
  5
313
100
AcDbEntity
  8
0
100
AcDbPolyline
 62
253
  6
CONTINUOUS
 90
77
 70
0
 10
170.2286871057
 20
115.1798055434
 10
170.227551585
 20
115.1248925124
 10
170.2241482975
 20
115.0704434777
 10
170.2184821552
 20
115.0164135888
 10
170.2105580697
 20
114.9627579948
 10
170.2003809531
 20
114.909431845
 10
170.1879591658
 20
114.856420192
 10
170.1733148628
 20
114.8038277021
 10
170.1564736478
 20
114.7517889446
 10
170.1374611244
 20
114.7004384893
 10
170.1163028964
 20
114.6499109056
 10
170.093030335
 20
114.6003324035
 10
170.0676978827
 20
114.551795754
 10
170.0403657496
 20
114.5043853685
 10
170.0110941456
 20
114.4581856583
 10
169.9799432809
 20
114.413281035
 10
169.9469700456
 20
114.3697509918
 10
169.9122180496
 20
114.3276553504
 10
169.875727583
 20
114.2870490144
 10
169.8375389357
 20
114.2479868873
 10
169.7976923977
 20
114.2105238728
 10
169.7562405202
 20
114.1747187134
 10
169.713284899
 20
114.1406455077
 10
169.6689393908
 20
114.108382193
 10
169.6233178527
 20
114.0780067068
 10
169.5765341416
 20
114.0495969865
 10
169.5286897946
 20
114.0232215611
 10
169.4798370701
 20
113.9989113249
 10
169.4300159065
 20
113.9766877636
 10
169.3792662424
 20
113.9565723631
 10
169.3276280165
 20
113.9385866091
 10
169.2751597721
 20
113.9227534956
 10
169.2219944727
 20
113.9091020497
 10
169.1682836865
 20
113.8976628064
 10
169.1141789817
 20
113.8884663012
 10
169.0598319266
 20
113.881543069
 10
169.0053746228
 20
113.8769186924
 10
168.9508613054
 20
113.8745989418
 10
168.8963267426
 20
113.8745846351
 10
168.8418057028
 20
113.87687659
 10
168.7873329544
 20
113.8814756242
 10
168.7329633807
 20
113.8883770215
 10
168.6788323247
 20
113.8975539297
 10
168.6250952446
 20
113.9089739627
 10
168.5719075985
 20
113.9226047343
 10
168.5194248442
 20
113.9384138585
 10
168.4677822232
 20
113.9563713563
 10
168.417034109
 20
113.9764568789
 10
168.3672146584
 20
113.9986524844
 10
168.3183580282
 20
114.0229402313
 10
168.2704983753
 20
114.0493021779
 10
168.2236842662
 20
114.0777094772
 10
168.1780219064
 20
114.108089661
 10
168.1336319113
 20
114.1403593558
 10
168.090634896
 20
114.1744351879
 10
168.049151476
 20
114.2102337839
 10
168.0092878126
 20
114.2476777948
 10
167.9710922516
 20
114.2867139701
 10
167.9345986848
 20
114.3272950838
 10
167.899841004
 20
114.36937391
 10
167.8668531012
 20
114.4129032227
 10
167.8356741893
 20
114.4578281874
 10
167.8063647669
 20
114.5040635354
 10
167.7789906534
 20
114.5515163894
 10
167.7536176685
 20
114.600093872
 10
167.7303116318
 20
114.6497031059
 10
167.7091310991
 20
114.7002453542
 10
167.6901055712
 20
114.7515984412
 10
167.6732572847
 20
114.8036343316
 10
167.6586084765
 20
114.8562249902
 10
167.6461813834
 20
114.9092423817
 10
167.6375372012
 20
114.9536736116
 10
167.6304554423
 20
114.9983369661
 10
167.62494023
 20
115.0432571409
 10
167.6209956876
 20
115.0884588315
 10
167.6186259384
 20
115.1339667338
 10
167.6178351057
 20
115.1798055434
  0
LINE
  5
314
100
AcDbEntity
  8
0
100
AcDbLine
 62
253
  6
CONTINUOUS
 10
172.6342001057
 20
114.1007875434
 11
172.6953351057
 21
114.4852135434
  0
LINE
  5
315
100
AcDbEntity
  8
0
100
AcDbLine
 62
253
  6
CONTINUOUS
 10
171.7665641057
 20
115.1894765434
 11
171.7233901057
 21
114.9179955434
  0
LINE
  5
316
100
AcDbEntity
  8
0
100
AcDbLine
 62
253
  6
CONTINUOUS
 10
164.918659876
 20
97.3386879481
 11
165.1043741506
 21
97.5244022421
  0
LINE
  5
317
100
AcDbEntity
  8
0
100
AcDbLine
 62
253
  6
CONTINUOUS
 10
167.518659721
 20
99.1958308495
 11
167.1472313267
 21
98.8244023002
  0
LINE
  5
318
100
AcDbEntity
  8
0
100
AcDbLine
 62
253
  6
CONTINUOUS
 10
165.1972313043
 20
95.5958308495
 11
165.0115170103
 21
95.4101164974
  0
LINE
  5
319
100
AcDbEntity
  8
0
100
AcDbLine
 62
253
  6
CONTINUOUS
 10
171.9758026224
 20
99.0101164974
 11
171.7900884253
 21
99.1958308495
  0
LINE
  5
31A
100
AcDbEntity
  8
0
100
AcDbLine
 62
253
  6
CONTINUOUS
 10
173.8329458338
 20
98.8244023002
 11
173.4615168196
 21
99.1958308495
  0
LINE
  5
31B
100
AcDbEntity
  8
0
100
AcDbLine
 62
253
  6
CONTINUOUS
 10
170.9315681057
 20
115.0140155434
 11
170.9787151057
 21
114.5646545434
  0
LINE
  5
31C
100
AcDbEntity
  8
0
100
AcDbLine
 62
253
  6
CONTINUOUS
 10
171.9974621057
 20
113.9343065434
 11
171.9915901057
 21
114.2669225434
  0
LINE
  5
31D
100
AcDbEntity
  8
0
100
AcDbLine
 62
253
  6
CONTINUOUS
 10
170.8615168196
 20
99.0101164974
 11
170.8615168196
 21
98.4529736565
  0
LINE
  5
31E
100
AcDbEntity
  8
0
100
AcDbLine
 62
253
  6
CONTINUOUS
 10
170.9543744188
 20
95.2244023002
 11
170.9543744188
 21
93.7386878907
  0
LINE
  5
31F
100
AcDbEntity
  8
0
100
AcDbLine
 62
253
  6
CONTINUOUS
 10
171.6972312075
 20
95.5958308495
 11
171.6972312075
 21
93.7386879019
  0
LINE
  5
320
100
AcDbEntity
  8
0
100
AcDbLine
 62
253
  6
CONTINUOUS
 10
171.9758026224
 20
98.0815451242
 11
171.9758026224
 21
97.5244022304
  0
LINE
  5
321
100
AcDbEntity
  8
0
100
AcDbLine
 62
253
  6
CONTINUOUS
 10
171.0472310167
 20
99.1958308495
 11
170.8615168196
 21
99.0101164974
  0
LINE
  5
322
100
AcDbEntity
  8
0
100
AcDbLine
 62
253
  6
CONTINUOUS
 10
169.0043742281
 20
98.0815451242
 11
169.3758026224
 21
98.2672593988
  0
LINE
  5
323
100
AcDbEntity
  8
0
100
AcDbLine
 62
253
  6
CONTINUOUS
 10
172.7186600309
 20
98.8244023002
 11
172.7186600309
 21
97.7101165142
  0
LINE
  5
324
100
AcDbEntity
  8
0
100
AcDbLine
 62
253
  6
CONTINUOUS
 10
172.8115170103
 20
93.7386879481
 11
172.8115170103
 21
95.410116461
  0
LINE
  5
325
100
AcDbEntity
  8
0
100
AcDbLine
 62
253
  6
CONTINUOUS
 10
173.8329458338
 20
98.2672593988
 11
173.8329458338
 21
98.8244023074
  0
LWPOLYLINE
  5
326
100
AcDbEntity
  8
RACCORDO
100
AcDbPolyline
 62
253
  6
CONTINUOUS
 90
10
 70
0
 10
179.9113510338
 20
122.6886437201
 10
179.9104850948
 20
122.6859962168
 10
179.9096317986
 20
122.6799429079
 10
179.9087911451
 20
122.6704837935
 10
179.9079586971
 20
122.6575383944
 10
179.9071388918
 20
122.6411871897
 10
179.9063450414
 20
122.6216716174
 10
179.9055778368
 20
122.5989420196
 10
179.904836587
 20
122.573048054
 10
179.9034663399
 20
122.5129016584
  0
LWPOLYLINE
  5
327
100
AcDbEntity
  8
ASSI
100
AcDbPolyline
 62
253
  6
CONTINUOUS
 90
10
 70
0
 10
179.9113510338
 20
122.6886437201
 10
179.9104850948
 20
122.6859962168
 10
179.9096317986
 20
122.6799429079
 10
179.9087911451
 20
122.6704837935
 10
179.9079586971
 20
122.6575383944
 10
179.9071388918
 20
122.6411871897
 10
179.9063450414
 20
122.6216716174
 10
179.9055778368
 20
122.5989420196
 10
179.904836587
 20
122.573048054
 10
179.9034663399
 20
122.5129016584
  0
LINE
  5
328
100
AcDbEntity
  8
0
100
AcDbLine
 62
253
  6
CONTINUOUS
 10
168.3543741089
 20
95.5958308495
 11
167.9829457146
 21
95.2244023002
  0
LINE
  5
329
100
AcDbEntity
  8
0
100
AcDbLine
 62
253
  6
CONTINUOUS
 10
173.0900884253
 20
99.1958308495
 11
172.7186600309
 21
98.8244023002
  0
LINE
  5
32A
100
AcDbEntity
  8
0
100
AcDbLine
 62
253
  6
CONTINUOUS
 10
171.0778441057
 20
114.1004415434
 11
171.1168741057
 21
113.8807695434
  0
LINE
  5
32B
100
AcDbEntity
  8
0
100
AcDbLine
 62
253
  6
CONTINUOUS
 10
172.3713541057
 20
114.9995085434
 11
172.3521841057
 21
115.1494105434
  0
LWPOLYLINE
  5
32C
100
AcDbEntity
  8
RACCORDO
100
AcDbPolyline
 62
7
  6
CONTINUOUS
 90
16
 70
0
 10
174.9115171057
 20
91.2387069866
 10
174.908778381
 20
91.2909694285
 10
174.900591968
 20
91.3426592277
 10
174.8870474713
 20
91.3932101491
 10
174.8682931799
 20
91.4420684951
 10
174.8445344658
 20
91.4886989071
 10
174.8160316047
 20
91.5325902654
 10
174.7830967992
 20
91.5732617085
 10
174.7460908661
 20
91.6102676416
 10
174.7054194229
 20
91.6432024471
 10
174.6615280646
 20
91.6717053082
 10
174.6148976526
 20
91.6954640224
 10
174.5660393067
 20
91.7142183137
 10
174.5154883853
 20
91.7277628104
 10
174.4637985861
 20
91.7359492234
 10
174.4115361441
 20
91.7386879481
  0
LWPOLYLINE
  5
32D
100
AcDbEntity
  8
ASSI
100
AcDbPolyline
 62
7
  6
CONTINUOUS
 90
15
 70
0
 10
174.9115171057
 20
91.2387069866
 10
174.908778381
 20
91.2909694285
 10
174.900591968
 20
91.3426592277
 10
174.8870474713
 20
91.3932101491
 10
174.8682931799
 20
91.4420684951
 10
174.8445344658
 20
91.4886989071
 10
174.8160316047
 20
91.5325902654
 10
174.7830967992
 20
91.5732617085
 10
174.7460908661
 20
91.6102676416
 10
174.7054194229
 20
91.6432024471
 10
174.6615280646
 20
91.6717053082
 10
174.6148976526
 20
91.6954640224
 10
174.5660393067
 20
91.7142183137
 10
174.5154883853
 20
91.7277628104
 10
174.4637985861
 20
91.7359492234
  0
LINE
  5
32E
100
AcDbEntity
  8
RACCORDO
100
AcDbLine
 62
253
  6
CONTINUOUS
 10
174.9149797792
 20
91.2881187404
 11
174.916903279
 21
91.2440931599
  0
LINE
  5
32F
100
AcDbEntity
  8
ASSI
100
AcDbLine
 62
253
  6
CONTINUOUS
 10
174.9149797792
 20
91.2881187404
 11
174.916903279
 21
91.2440931599
  0
LINE
  5
330
100
AcDbEntity
  8
RACCORDO
100
AcDbLine
 62
253
  6
CONTINUOUS
 10
174.4115171057
 20
87.4386879481
 11
174.4115171047
 21
87.2386879481
  0
LINE
  5
331
100
AcDbEntity
  8
RACCORDO
100
AcDbLine
 62
253
  6
CONTINUOUS
 10
174.4115171057
 20
91.5386879481
 11
174.4115171057
 21
91.7386879481
  0
LINE
  5
332
100
AcDbEntity
  8
RACCORDO
100
AcDbLine
 62
253
  6
CONTINUOUS
 10
174.4154203643
 20
87.1299379523
 11
174.4154203643
 21
87.2348037279
  0
LINE
  5
333
100
AcDbEntity
  8
ASSI
100
AcDbLine
 62
253
  6
CONTINUOUS
 10
174.4154203643
 20
87.1299379523
 11
174.4154203643
 21
87.2348037279
  0
LINE
  5
334
100
AcDbEntity
  8
RACCORDO
100
AcDbLine
 62
253
  6
CONTINUOUS
 10
174.4171004583
 20
91.8409492083
 11
174.4171004622
 21
91.7442522623
  0
LINE
  5
335
100
AcDbEntity
  8
ASSI
100
AcDbLine
 62
253
  6
CONTINUOUS
 10
174.4171004583
 20
91.8409492083
 11
174.4171004622
 21
91.7442522623
  0
LINE
  5
336
100
AcDbEntity
  8
RACCORDO
100
AcDbLine
 62
253
  6
CONTINUOUS
 10
174.7115171057
 20
87.7386879481
 11
174.7115171057
 21
91.2386879481
  0
LINE
  5
337
100
AcDbEntity
  8
RACCORDO
100
AcDbLine
 62
7
  6
CONTINUOUS
 10
174.9115171057
 20
87.7386879481
 11
174.9115171057
 21
91.2386879481
  0
LINE
  5
338
100
AcDbEntity
  8
RACCORDO
100
AcDbLine
 62
253
  6
CONTINUOUS
 10
174.916903279
 20
91.2440931599
 11
174.9156512387
 21
87.7345347766
  0
LINE
  5
339
100
AcDbEntity
  8
ASSI
100
AcDbLine
 62
253
  6
CONTINUOUS
 10
174.916903279
 20
91.2440931599
 11
174.9156512387
 21
87.7345347766
  0
LINE
  5
33A
100
AcDbEntity
  8
RACCORDO
100
AcDbLine
 62
253
  6
CONTINUOUS
 10
175.0168994713
 20
91.2405937952
 11
175.015647431
 21
87.7298651691
  0
LINE
  5
33B
100
AcDbEntity
  8
ASSI
100
AcDbLine
 62
253
  6
CONTINUOUS
 10
175.0168994713
 20
91.2405937952
 11
175.015647431
 21
87.7298651691
  0
LINE
  5
33C
100
AcDbEntity
  8
RACCORDO
100
AcDbLine
 62
253
  6
CONTINUOUS
 10
174.9156512387
 20
87.7345347766
 11
174.9136947838
 21
87.6906056835
  0
LINE
  5
33D
100
AcDbEntity
  8
ASSI
100
AcDbLine
 62
253
  6
CONTINUOUS
 10
174.9156512387
 20
87.7345347766
 11
174.9136947838
 21
87.6906056835
  0
LWPOLYLINE
  5
33E
100
AcDbEntity
  8
RACCORDO
100
AcDbPolyline
 62
253
  6
CONTINUOUS
 90
8
 70
0
 10
179.1114728777
 20
123.4885218763
 10
179.1106028486
 20
123.4829194976
 10
179.1097467679
 20
123.4698424822
 10
179.1089046354
 20
123.4493575844
 10
179.1080724837
 20
123.4215699877
 10
179.1072542802
 20
123.3866192072
 10
179.1064619277
 20
123.344675218
 10
179.1049551201
 20
123.2406595906
  0
LWPOLYLINE
  5
33F
100
AcDbEntity
  8
ASSI
100
AcDbPolyline
 62
253
  6
CONTINUOUS
 90
8
 70
0
 10
179.1114728777
 20
123.4885218763
 10
179.1106028486
 20
123.4829194976
 10
179.1097467679
 20
123.4698424822
 10
179.1089046354
 20
123.4493575844
 10
179.1080724837
 20
123.4215699877
 10
179.1072542802
 20
123.3866192072
 10
179.1064619277
 20
123.344675218
 10
179.1049551201
 20
123.2406595906
  0
LINE
  5
340
100
AcDbEntity
  8
0
100
AcDbLine
 62
253
  6
CONTINUOUS
 10
171.9758026224
 20
97.5244022421
 11
171.7900884253
 21
97.3386879481
  0
LINE
  5
341
100
AcDbEntity
  8
RACCORDO
100
AcDbLine
 62
253
  6
CONTINUOUS
 10
162.9115171057
 20
87.7386689096
 11
162.9073829727
 21
87.7345347766
  0
LINE
  5
342
100
AcDbEntity
  8
ASSI
100
AcDbLine
 62
253
  6
CONTINUOUS
 10
162.9115171057
 20
87.7386689096
 11
162.9073829727
 21
87.7345347766
  0
LINE
  5
343
100
AcDbEntity
  8
0
100
AcDbLine
 62
253
  6
CONTINUOUS
 10
171.7233901057
 20
114.9179955434
 11
171.7522301057
 21
114.8250835434
  0
LINE
  5
344
100
AcDbEntity
  8
0
100
AcDbLine
 62
253
  6
CONTINUOUS
 10
171.9915901057
 20
114.2669225434
 11
171.9710391057
 21
114.3408375434
  0
LWPOLYLINE
  5
345
100
AcDbEntity
  8
RACCORDO
100
AcDbPolyline
 62
253
  6
CONTINUOUS
 90
19
 70
0
 10
175.015647431
 20
87.7298651691
 10
175.0131212032
 20
87.6765316866
 10
175.0062061412
 20
87.6244790532
 10
174.994902245
 20
87.573707239
 10
174.979034616
 20
87.5238615488
 10
174.9587781528
 20
87.4752966254
 10
174.9346575511
 20
87.4290764226
 10
174.9066221252
 20
87.3852783881
 10
174.8747225608
 20
87.3438249742
 10
174.8396356102
 20
87.3055476046
 10
174.8013071089
 20
87.2704922757
 10
174.7597912213
 20
87.2386128794
 10
174.7159271929
 20
87.2106026624
 10
174.6696129277
 20
87.1865163835
 10
174.6209505216
 20
87.166299186
 10
174.5710855089
 20
87.1504798879
 10
174.5203997341
 20
87.1392347403
 10
174.4685113526
 20
87.1323874333
 10
174.4154203643
 20
87.1299379523
  0
LWPOLYLINE
  5
346
100
AcDbEntity
  8
ASSI
100
AcDbPolyline
 62
253
  6
CONTINUOUS
 90
19
 70
0
 10
175.015647431
 20
87.7298651691
 10
175.0131212032
 20
87.6765316866
 10
175.0062061412
 20
87.6244790532
 10
174.994902245
 20
87.573707239
 10
174.979034616
 20
87.5238615488
 10
174.9587781528
 20
87.4752966254
 10
174.9346575511
 20
87.4290764226
 10
174.9066221252
 20
87.3852783881
 10
174.8747225608
 20
87.3438249742
 10
174.8396356102
 20
87.3055476046
 10
174.8013071089
 20
87.2704922757
 10
174.7597912213
 20
87.2386128794
 10
174.7159271929
 20
87.2106026624
 10
174.6696129277
 20
87.1865163835
 10
174.6209505216
 20
87.166299186
 10
174.5710855089
 20
87.1504798879
 10
174.5203997341
 20
87.1392347403
 10
174.4685113526
 20
87.1323874333
 10
174.4154203643
 20
87.1299379523
  0
LWPOLYLINE
  5
347
100
AcDbEntity
  8
RACCORDO
100
AcDbPolyline
 62
253
  6
CONTINUOUS
 90
17
 70
0
 10
174.9136947838
 20
87.6906056835
 10
174.9079010067
 20
87.6471177535
 10
174.898341121
 20
87.6044026539
 10
174.8851172413
 20
87.5627901393
 10
174.8683543847
 20
87.52258149
 10
174.8481924159
 20
87.4840500832
 10
174.8248136198
 20
87.4474951585
 10
174.7984022339
 20
87.4131626373
 10
174.7691113976
 20
87.3812363129
 10
174.7371561036
 20
87.3519549686
 10
174.702777402
 20
87.3255435977
 10
174.6661680899
 20
87.3021649995
 10
174.6275712165
 20
87.2820038987
 10
174.5872886662
 20
87.2652461581
 10
174.5456155801
 20
87.2520383486
 10
174.5028624675
 20
87.2425028507
 10
174.4593533506
 20
87.2367356107
  0
LWPOLYLINE
  5
348
100
AcDbEntity
  8
ASSI
100
AcDbPolyline
 62
253
  6
CONTINUOUS
 90
17
 70
0
 10
174.9136947838
 20
87.6906056835
 10
174.9079010067
 20
87.6471177535
 10
174.898341121
 20
87.6044026539
 10
174.8851172413
 20
87.5627901393
 10
174.8683543847
 20
87.52258149
 10
174.8481924159
 20
87.4840500832
 10
174.8248136198
 20
87.4474951585
 10
174.7984022339
 20
87.4131626373
 10
174.7691113976
 20
87.3812363129
 10
174.7371561036
 20
87.3519549686
 10
174.702777402
 20
87.3255435977
 10
174.6661680899
 20
87.3021649995
 10
174.6275712165
 20
87.2820038987
 10
174.5872886662
 20
87.2652461581
 10
174.5456155801
 20
87.2520383486
 10
174.5028624675
 20
87.2425028507
 10
174.4593533506
 20
87.2367356107
  0
LINE
  5
349
100
AcDbEntity
  8
RACCORDO
100
AcDbLine
 62
253
  6
CONTINUOUS
 10
157.8115171057
 20
80.6885661042
 11
157.9116831775
 21
80.7887321761
  0
LINE
  5
34A
100
AcDbEntity
  8
ASSI
100
AcDbLine
 62
253
  6
CONTINUOUS
 10
157.8115171057
 20
80.6885661042
 11
157.9116831775
 21
80.7887321761
  0
LINE
  5
34B
100
AcDbEntity
  8
RACCORDO
100
AcDbLine
 62
253
  6
CONTINUOUS
 10
158.6113952618
 20
79.8886879481
 11
158.7115613336
 21
79.9888540199
  0
LINE
  5
34C
100
AcDbEntity
  8
ASSI
100
AcDbLine
 62
253
  6
CONTINUOUS
 10
158.6113952618
 20
79.8886879481
 11
158.7115613336
 21
79.9888540199
  0
LINE
  5
34D
100
AcDbEntity
  8
0
100
AcDbLine
 62
253
  6
CONTINUOUS
 10
169.840088306
 20
94.4815451242
 11
170.2115170103
 21
94.6672593988
  0
LINE
  5
34E
100
AcDbEntity
  8
RACCORDO
100
AcDbLine
 62
253
  6
CONTINUOUS
 10
157.9116831775
 20
122.6886437201
 11
157.8115171057
 21
122.788809792
  0
LINE
  5
34F
100
AcDbEntity
  8
ASSI
100
AcDbLine
 62
253
  6
CONTINUOUS
 10
157.9116831775
 20
122.6886437201
 11
157.8115171057
 21
122.788809792
  0
LINE
  5
350
100
AcDbEntity
  8
RACCORDO
100
AcDbLine
 62
253
  6
CONTINUOUS
 10
158.7115613336
 20
123.4885218763
 11
158.6113952618
 21
123.5886879481
  0
LINE
  5
351
100
AcDbEntity
  8
ASSI
100
AcDbLine
 62
253
  6
CONTINUOUS
 10
158.7115613336
 20
123.4885218763
 11
158.6113952618
 21
123.5886879481
  0
LINE
  5
352
100
AcDbEntity
  8
0
100
AcDbLine
 62
253
  6
CONTINUOUS
 10
167.9920721057
 20
116.7997145434
 11
167.8362991057
 21
117.0335485434
  0
LWPOLYLINE
  5
353
100
AcDbEntity
  8
RACCORDO
100
AcDbPolyline
 62
253
  6
CONTINUOUS
 90
6
 70
0
 10
179.1072540294
 20
80.0907587706
 10
179.1080721824
 20
80.0558087202
 10
179.1089043256
 20
80.0280208622
 10
179.1097465195
 20
80.0075349223
 10
179.1106027035
 20
79.9944569091
 10
179.1114728777
 20
79.9888540199
  0
LWPOLYLINE
  5
354
100
AcDbEntity
  8
ASSI
100
AcDbPolyline
 62
253
  6
CONTINUOUS
 90
6
 70
0
 10
179.1072540294
 20
80.0907587706
 10
179.1080721824
 20
80.0558087202
 10
179.1089043256
 20
80.0280208622
 10
179.1097465195
 20
80.0075349223
 10
179.1106027035
 20
79.9944569091
 10
179.1114728777
 20
79.9888540199
  0
LINE
  5
355
100
AcDbEntity
  8
RACCORDO
100
AcDbLine
 62
253
  6
CONTINUOUS
 10
179.105695265
 20
80.1814393246
 11
179.1072540294
 21
80.0907587706
  0
LINE
  5
356
100
AcDbEntity
  8
ASSI
100
AcDbLine
 62
253
  6
CONTINUOUS
 10
179.105695265
 20
80.1814393246
 11
179.1072540294
 21
80.0907587706
  0
LWPOLYLINE
  5
357
100
AcDbEntity
  8
RACCORDO
100
AcDbPolyline
 62
253
  6
CONTINUOUS
 90
3
 70
0
 10
179.102958161
 20
80.4387792155
 10
179.1035861015
 20
80.3657190522
 10
179.105695265
 20
80.1814393246
  0
LWPOLYLINE
  5
358
100
AcDbEntity
  8
ASSI
100
AcDbPolyline
 62
253
  6
CONTINUOUS
 90
3
 70
0
 10
179.102958161
 20
80.4387792155
 10
179.1035861015
 20
80.3657190522
 10
179.105695265
 20
80.1814393246
  0
LINE
  5
359
100
AcDbEntity
  8
RACCORDO
100
AcDbLine
 62
253
  6
CONTINUOUS
 10
179.1049551201
 20
123.2406595906
 11
179.1029586799
 21
123.0386069472
  0
LINE
  5
35A
100
AcDbEntity
  8
ASSI
100
AcDbLine
 62
253
  6
CONTINUOUS
 10
179.1049551201
 20
123.2406595906
 11
179.1029586799
 21
123.0386069472
  0
LINE
  5
35B
100
AcDbEntity
  8
0
100
AcDbLine
 62
253
  6
CONTINUOUS
 10
170.8326121057
 20
111.5880275434
 11
167.1676111057
 21
111.5880275434
  0
LINE
  5
35C
100
AcDbEntity
  8
0
100
AcDbLine
 62
253
  6
CONTINUOUS
 10
167.6957221057
 20
115.6056795434
 11
167.1947241057
 21
116.1251555434
  0
LINE
  5
35D
100
AcDbEntity
  8
0
100
AcDbLine
 62
253
  6
CONTINUOUS
 10
171.9710391057
 20
114.3408375434
 11
171.9356361057
 21
114.4043905434
  0
LWPOLYLINE
  5
35E
100
AcDbEntity
  8
RACCORDO
100
AcDbPolyline
 62
253
  6
CONTINUOUS
 90
8
 70
0
 10
179.9055754794
 20
80.8785094272
 10
179.9063428818
 20
80.8557607525
 10
179.9071368555
 20
80.8362312938
 10
179.9079567865
 20
80.8198689392
 10
179.9087894884
 20
80.8069138355
 10
179.9096305659
 20
80.7974460315
 10
179.9104844144
 20
80.7913854784
 10
179.9113510338
 20
80.7887321761
  0
LWPOLYLINE
  5
35F
100
AcDbEntity
  8
ASSI
100
AcDbPolyline
 62
253
  6
CONTINUOUS
 90
8
 70
0
 10
179.9055754794
 20
80.8785094272
 10
179.9063428818
 20
80.8557607525
 10
179.9071368555
 20
80.8362312938
 10
179.9079567865
 20
80.8198689392
 10
179.9087894884
 20
80.8069138355
 10
179.9096305659
 20
80.7974460315
 10
179.9104844144
 20
80.7913854784
 10
179.9113510338
 20
80.7887321761
  0
LINE
  5
360
100
AcDbEntity
  8
RACCORDO
100
AcDbLine
 62
253
  6
CONTINUOUS
 10
179.9041298907
 20
80.9331116071
 11
179.9055754794
 21
80.8785094272
  0
LINE
  5
361
100
AcDbEntity
  8
ASSI
100
AcDbLine
 62
253
  6
CONTINUOUS
 10
179.9041298907
 20
80.9331116071
 11
179.9055754794
 21
80.8785094272
  0
LINE
  5
362
100
AcDbEntity
  8
RACCORDO
100
AcDbLine
 62
253
  6
CONTINUOUS
 10
179.9028349495
 20
80.9988671943
 11
179.9041298907
 21
80.9331116071
  0
LINE
  5
363
100
AcDbEntity
  8
ASSI
100
AcDbLine
 62
253
  6
CONTINUOUS
 10
179.9028349495
 20
80.9988671943
 11
179.9041298907
 21
80.9331116071
  0
LINE
  5
364
100
AcDbEntity
  8
RACCORDO
100
AcDbLine
 62
253
  6
CONTINUOUS
 10
179.9012286094
 20
81.1153434886
 11
179.9028349495
 21
80.9988671943
  0
LINE
  5
365
100
AcDbEntity
  8
ASSI
100
AcDbLine
 62
253
  6
CONTINUOUS
 10
179.9012286094
 20
81.1153434886
 11
179.9028349495
 21
80.9988671943
  0
LINE
  5
366
100
AcDbEntity
  8
RACCORDO
100
AcDbLine
 62
253
  6
CONTINUOUS
 10
179.9000871247
 20
81.2486129851
 11
179.9012286094
 21
81.1153434886
  0
LINE
  5
367
100
AcDbEntity
  8
ASSI
100
AcDbLine
 62
253
  6
CONTINUOUS
 10
179.9000871247
 20
81.2486129851
 11
179.9012286094
 21
81.1153434886
  0
LINE
  5
368
100
AcDbEntity
  8
RACCORDO
100
AcDbLine
 62
253
  6
CONTINUOUS
 10
179.1002116354
 20
80.9730874785
 11
179.102958161
 21
80.4387792155
  0
LINE
  5
369
100
AcDbEntity
  8
ASSI
100
AcDbLine
 62
253
  6
CONTINUOUS
 10
179.1002116354
 20
80.9730874785
 11
179.102958161
 21
80.4387792155
  0
LINE
  5
36A
100
AcDbEntity
  8
RACCORDO
100
AcDbLine
 62
253
  6
CONTINUOUS
 10
179.8993738798
 20
81.4411379792
 11
179.9000871247
 21
81.2486129851
  0
LINE
  5
36B
100
AcDbEntity
  8
ASSI
100
AcDbLine
 62
253
  6
CONTINUOUS
 10
179.8993738798
 20
81.4411379792
 11
179.9000871247
 21
81.2486129851
  0
LINE
  5
36C
100
AcDbEntity
  8
RACCORDO
100
AcDbLine
 62
253
  6
CONTINUOUS
 10
179.095819931
 20
84.7748545152
 11
179.1002116354
 21
80.9730874785
  0
LINE
  5
36D
100
AcDbEntity
  8
ASSI
100
AcDbLine
 62
253
  6
CONTINUOUS
 10
179.095819931
 20
84.7748545152
 11
179.1002116354
 21
80.9730874785
  0
LINE
  5
36E
100
AcDbEntity
  8
RACCORDO
100
AcDbLine
 62
7
  6
CONTINUOUS
 10
180.0115171057
 20
80.6885661042
 11
180.0115171057
 21
122.788809792
  0
LINE
  5
36F
100
AcDbEntity
  8
ASSI
100
AcDbLine
 62
7
  6
CONTINUOUS
 10
180.0115171057
 20
80.6885661042
 11
180.0115171057
 21
122.788809792
  0
LWPOLYLINE
  5
370
100
AcDbEntity
  8
RACCORDO
100
AcDbPolyline
 62
253
  6
CONTINUOUS
 90
11
 70
0
 10
179.0958199311
 20
118.7025213831
 10
179.0928123595
 20
115.3123615088
 10
179.0904730088
 20
111.9204638733
 10
179.0888017507
 20
108.527262796
 10
179.0877987135
 20
105.133192679
 10
179.0874642822
 20
101.738687951
 10
179.0877987135
 20
98.3441832229
 10
179.0888017505
 20
94.9501131057
 10
179.0904730086
 20
91.5569120277
 10
179.0928123593
 20
88.165014391
 10
179.095819931
 20
84.7748545152
  0
LWPOLYLINE
  5
371
100
AcDbEntity
  8
ASSI
100
AcDbPolyline
 62
253
  6
CONTINUOUS
 90
11
 70
0
 10
179.0958199311
 20
118.7025213831
 10
179.0928123595
 20
115.3123615088
 10
179.0904730088
 20
111.9204638733
 10
179.0888017507
 20
108.527262796
 10
179.0877987135
 20
105.133192679
 10
179.0874642822
 20
101.738687951
 10
179.0877987135
 20
98.3441832229
 10
179.0888017505
 20
94.9501131057
 10
179.0904730086
 20
91.5569120277
 10
179.0928123593
 20
88.165014391
 10
179.095819931
 20
84.7748545152
  0
LWPOLYLINE
  5
372
100
AcDbEntity
  8
RACCORDO
100
AcDbPolyline
 62
253
  6
CONTINUOUS
 90
12
 70
0
 10
179.895698093
 20
118.6565733691
 10
179.8926905248
 20
115.2756040308
 10
179.8903511752
 20
111.8933299024
 10
179.8886799141
 20
108.509316048
 10
179.8876768715
 20
105.1239974035
 10
179.8873424384
 20
101.7386787754
 10
179.8876768759
 20
98.3533595065
 10
179.8886799227
 20
94.9680402542
 10
179.8903511858
 20
91.5840277973
 10
179.8926905342
 20
88.2017577291
 10
179.8956980989
 20
84.8207944563
 10
179.8993738798
 20
81.4411379792
  0
LWPOLYLINE
  5
373
100
AcDbEntity
  8
ASSI
100
AcDbPolyline
 62
253
  6
CONTINUOUS
 90
12
 70
0
 10
179.895698093
 20
118.6565733691
 10
179.8926905248
 20
115.2756040308
 10
179.8903511752
 20
111.8933299024
 10
179.8886799141
 20
108.509316048
 10
179.8876768715
 20
105.1239974035
 10
179.8873424384
 20
101.7386787754
 10
179.8876768759
 20
98.3533595065
 10
179.8886799227
 20
94.9680402542
 10
179.8903511858
 20
91.5840277973
 10
179.8926905342
 20
88.2017577291
 10
179.8956980989
 20
84.8207944563
 10
179.8993738798
 20
81.4411379792
  0
LINE
  5
374
100
AcDbEntity
  8
RACCORDO
100
AcDbLine
 62
253
  6
CONTINUOUS
 10
179.8998199572
 20
122.1818802281
 11
179.895698093
 21
118.6565733691
  0
LINE
  5
375
100
AcDbEntity
  8
ASSI
100
AcDbLine
 62
253
  6
CONTINUOUS
 10
179.8998199572
 20
122.1818802281
 11
179.895698093
 21
118.6565733691
  0
LINE
  5
376
100
AcDbEntity
  8
RACCORDO
100
AcDbLine
 62
253
  6
CONTINUOUS
 10
179.1013532143
 20
122.78940687
 11
179.0958199311
 21
118.7025213831
  0
LINE
  5
377
100
AcDbEntity
  8
ASSI
100
AcDbLine
 62
253
  6
CONTINUOUS
 10
179.1013532143
 20
122.78940687
 11
179.0958199311
 21
118.7025213831
  0
LINE
  5
378
100
AcDbEntity
  8
RACCORDO
100
AcDbLine
 62
253
  6
CONTINUOUS
 10
179.1029586799
 20
123.0386069472
 11
179.1013532143
 21
122.78940687
  0
LINE
  5
379
100
AcDbEntity
  8
ASSI
100
AcDbLine
 62
253
  6
CONTINUOUS
 10
179.1029586799
 20
123.0386069472
 11
179.1013532143
 21
122.78940687
  0
LINE
  5
37A
100
AcDbEntity
  8
RACCORDO
100
AcDbLine
 62
253
  6
CONTINUOUS
 10
179.9007947974
 20
122.3194021547
 11
179.8998199572
 21
122.1818802281
  0
LINE
  5
37B
100
AcDbEntity
  8
ASSI
100
AcDbLine
 62
253
  6
CONTINUOUS
 10
179.9007947974
 20
122.3194021547
 11
179.8998199572
 21
122.1818802281
  0
LINE
  5
37C
100
AcDbEntity
  8
RACCORDO
100
AcDbLine
 62
253
  6
CONTINUOUS
 10
179.9022547669
 20
122.4421230427
 11
179.9007947974
 21
122.3194021547
  0
LINE
  5
37D
100
AcDbEntity
  8
ASSI
100
AcDbLine
 62
253
  6
CONTINUOUS
 10
179.9022547669
 20
122.4421230427
 11
179.9007947974
 21
122.3194021547
  0
LINE
  5
37E
100
AcDbEntity
  8
RACCORDO
100
AcDbLine
 62
253
  6
CONTINUOUS
 10
179.9034663399
 20
122.5129016584
 11
179.9022547669
 21
122.4421230427
  0
LINE
  5
37F
100
AcDbEntity
  8
ASSI
100
AcDbLine
 62
253
  6
CONTINUOUS
 10
179.9034663399
 20
122.5129016584
 11
179.9022547669
 21
122.4421230427
  0
LINE
  5
380
100
AcDbEntity
  8
0
100
AcDbLine
 62
253
  6
CONTINUOUS
 10
172.2532281057
 20
114.7090305434
 11
172.2038361057
 21
114.6952145434
  0
LINE
  5
381
100
AcDbEntity
  8
0
100
AcDbLine
 62
253
  6
CONTINUOUS
 10
168.2019001057
 20
112.5565195434
 11
169.6247611057
 21
112.5565195434
  0
LINE
  5
382
100
AcDbEntity
  8
0
100
AcDbLine
 62
253
  6
CONTINUOUS
 10
170.9787151057
 20
114.5646545434
 11
171.1799081057
 21
114.4012825434
  0
LINE
  5
383
100
AcDbEntity
  8
0
100
AcDbLine
 62
253
  6
CONTINUOUS
 10
171.1168741057
 20
113.8807695434
 11
171.3101231057
 21
113.7160155434
  0
LINE
  5
384
100
AcDbEntity
  8
0
100
AcDbLine
 62
253
  6
CONTINUOUS
 10
171.7522301057
 20
114.8250835434
 11
171.8100841057
 21
114.7560045434
  0
LINE
  5
385
100
AcDbEntity
  8
0
100
AcDbLine
 62
253
  6
CONTINUOUS
 10
172.6953351057
 20
114.4852135434
 11
172.5592491057
 21
114.6727635434
  0
LWPOLYLINE
  5
386
100
AcDbEntity
  8
RACCORDO
100
AcDbPolyline
 62
253
  6
CONTINUOUS
 90
16
 70
0
 10
179.9113510338
 20
122.6886437201
 10
179.9069455486
 20
122.7722367038
 10
179.8938282336
 20
122.854914339
 10
179.8721427027
 20
122.9357711529
 10
179.8421264072
 20
123.0139216087
 10
179.80410804
 20
123.0885097963
 10
179.7585039389
 20
123.1587188079
 10
179.7058135181
 20
123.2237797011
 10
179.6466138099
 20
123.2829799022
 10
179.5815531567
 20
123.3356710092
 10
179.5113440783
 20
123.3812759231
 10
179.4367554911
 20
123.4192951451
 10
179.35860431
 20
123.4493122447
 10
179.2777464556
 20
123.4709984464
 10
179.1950674758
 20
123.4841162209
 10
179.1114728778
 20
123.4885218763
  0
LWPOLYLINE
  5
387
100
AcDbEntity
  8
ASSI
100
AcDbPolyline
 62
253
  6
CONTINUOUS
 90
16
 70
0
 10
179.9113510338
 20
122.6886437201
 10
179.9069455486
 20
122.7722367038
 10
179.8938282336
 20
122.854914339
 10
179.8721427027
 20
122.9357711529
 10
179.8421264072
 20
123.0139216087
 10
179.80410804
 20
123.0885097963
 10
179.7585039389
 20
123.1587188079
 10
179.7058135181
 20
123.2237797011
 10
179.6466138099
 20
123.2829799022
 10
179.5815531567
 20
123.3356710092
 10
179.5113440783
 20
123.3812759231
 10
179.4367554911
 20
123.4192951451
 10
179.35860431
 20
123.4493122447
 10
179.2777464556
 20
123.4709984464
 10
179.1950674758
 20
123.4841162209
 10
179.1114728778
 20
123.4885218763
  0
LWPOLYLINE
  5
388
100
AcDbEntity
  8
RACCORDO
100
AcDbPolyline
 62
253
  6
CONTINUOUS
 90
16
 70
0
 10
179.9113510338
 20
80.7887321761
 10
179.9069454536
 20
80.7051382909
 10
179.8938278859
 20
80.622459923
 10
179.8721419939
 20
80.541602563
 10
179.8421252806
 20
80.4634517577
 10
179.804106488
 20
80.388863412
 10
179.7585019967
 20
80.318654415
 10
179.7058112653
 20
80.2535936929
 10
179.646611361
 20
80.1943937885
 10
179.5815506389
 20
80.1417030571
 10
179.5113416418
 20
80.0960985658
 10
179.4367532961
 20
80.0580797732
 10
179.3586024909
 20
80.0280630599
 10
179.2777451308
 20
80.0063771678
 10
179.1950667629
 20
79.9932596001
 10
179.1114728777
 20
79.9888540199
  0
LWPOLYLINE
  5
389
100
AcDbEntity
  8
ASSI
100
AcDbPolyline
 62
253
  6
CONTINUOUS
 90
16
 70
0
 10
179.9113510338
 20
80.7887321761
 10
179.9069454536
 20
80.7051382909
 10
179.8938278859
 20
80.622459923
 10
179.8721419939
 20
80.541602563
 10
179.8421252806
 20
80.4634517577
 10
179.804106488
 20
80.388863412
 10
179.7585019967
 20
80.318654415
 10
179.7058112653
 20
80.2535936929
 10
179.646611361
 20
80.1943937885
 10
179.5815506389
 20
80.1417030571
 10
179.5113416418
 20
80.0960985658
 10
179.4367532961
 20
80.0580797732
 10
179.3586024909
 20
80.0280630599
 10
179.2777451308
 20
80.0063771678
 10
179.1950667629
 20
79.9932596001
 10
179.1114728777
 20
79.9888540199
  0
LINE
  5
38A
100
AcDbEntity
  8
RACCORDO
100
AcDbLine
 62
253
  6
CONTINUOUS
 10
174.9115171057
 20
91.2387069866
 11
174.916903279
 21
91.2440931599
  0
LINE
  5
38B
100
AcDbEntity
  8
ASSI
100
AcDbLine
 62
253
  6
CONTINUOUS
 10
174.9115171057
 20
91.2387069866
 11
174.916903279
 21
91.2440931599
  0
LINE
  5
38C
100
AcDbEntity
  8
0
100
AcDbLine
 62
253
  6
CONTINUOUS
 10
167.1676111057
 20
113.4742375434
 11
168.2019001057
 21
113.6320845434
  0
LINE
  5
38D
100
AcDbEntity
  8
0
100
AcDbLine
 62
253
  6
CONTINUOUS
 10
171.4045891057
 20
114.4251145434
 11
171.4218591057
 21
114.4271865434
  0
LINE
  5
38E
100
AcDbEntity
  8
0
100
AcDbLine
 62
253
  6
CONTINUOUS
 10
171.1799081057
 20
114.4012825434
 11
171.4045891057
 21
114.4251145434
  0
LINE
  5
38F
100
AcDbEntity
  8
0
100
AcDbLine
 62
253
  6
CONTINUOUS
 10
171.3797201057
 20
115.2450855434
 11
171.0944231057
 21
115.2150365434
  0
LINE
  5
390
100
AcDbEntity
  8
0
100
AcDbLine
 62
253
  6
CONTINUOUS
 10
172.3060741057
 20
114.7128295434
 11
172.2532281057
 21
114.7090305434
  0
LINE
  5
391
100
AcDbEntity
  8
0
100
AcDbLine
 62
253
  6
CONTINUOUS
 10
172.2856951057
 20
113.9602105434
 11
172.4708281057
 21
113.9702275434
  0
LINE
  5
392
100
AcDbEntity
  8
0
100
AcDbLine
 62
253
  6
CONTINUOUS
 10
171.3101231057
 20
113.7160155434
 11
171.5401571057
 21
113.7201605434
  0
LINE
  5
393
100
AcDbEntity
  8
0
100
AcDbLine
 62
253
  6
CONTINUOUS
 10
171.5401571057
 20
113.7201605434
 11
171.7948871057
 21
113.7239595434
  0
LINE
  5
394
100
AcDbEntity
  8
0
100
AcDbLine
 62
253
  6
CONTINUOUS
 10
169.6247611057
 20
113.6320845434
 11
170.4623481057
 21
113.4742375434
  0
LINE
  5
395
100
AcDbEntity
  8
0
100
AcDbLine
 62
253
  6
CONTINUOUS
 10
171.4942191057
 20
115.2019115434
 11
171.4382651057
 21
115.2381775434
  0
LINE
  5
396
100
AcDbEntity
  8
0
100
AcDbLine
 62
253
  6
CONTINUOUS
 10
169.8658481057
 20
117.3385335434
 11
170.6429901057
 21
116.7126755434
  0
LINE
  5
397
100
AcDbEntity
  8
0
100
AcDbLine
 62
253
  6
CONTINUOUS
 10
172.3521841057
 20
115.1494105434
 11
172.2470111057
 21
115.2592465434
  0
LINE
  5
398
100
AcDbEntity
  8
0
100
AcDbLine
 62
253
  6
CONTINUOUS
 10
171.4382651057
 20
115.2381775434
 11
171.3797201057
 21
115.2450855434
  0
LINE
  5
399
100
AcDbEntity
  8
0
100
AcDbLine
 62
253
  6
CONTINUOUS
 10
172.2470111057
 20
115.2592465434
 11
171.9309731057
 21
115.3096745434
  0
LINE
  5
39A
100
AcDbEntity
  8
0
100
AcDbLine
 62
253
  6
CONTINUOUS
 10
172.5592491057
 20
114.6727635434
 11
172.3060741057
 21
114.7128295434
  0
LINE
  5
39B
100
AcDbEntity
  8
0
100
AcDbLine
 62
253
  6
CONTINUOUS
 10
167.9568421057
 20
117.3385335434
 11
169.8658481057
 21
117.3385335434
  0
LINE
  5
39C
100
AcDbEntity
  8
RACCORDO
100
AcDbLine
 62
253
  6
CONTINUOUS
 10
179.0994957237
 20
122.090509441
 11
158.7235384876
 21
122.090509441
  0
LINE
  5
39D
100
AcDbEntity
  8
ASSI
100
AcDbLine
 62
253
  6
CONTINUOUS
 10
179.0994957237
 20
122.090509441
 11
158.7235384876
 21
122.090509441
  0
LWPOLYLINE
  5
39E
100
AcDbEntity
  8
RACCORDO
100
AcDbPolyline
 62
253
  6
CONTINUOUS
 90
16
 70
0
 10
179.8993738798
 20
81.4411379792
 10
179.8936477646
 20
81.4355269608
 10
179.8794125422
 20
81.4299760698
 10
179.8568207388
 20
81.4245447824
 10
179.8261144191
 20
81.4192912932
 10
179.7876225923
 20
81.4142718919
 10
179.7417576872
 20
81.4095403598
 10
179.6890111331
 20
81.405147394
 10
179.6299480939
 20
81.4011400639
 10
179.565201413
 20
81.3975613067
 10
179.4954648322
 20
81.3944494678
 10
179.4214855589
 20
81.3918378897
 10
179.3440562596
 20
81.3897545546
 10
179.2640065666
 20
81.3882217845
 10
179.1821941894
 20
81.3872560028
 10
179.0994957237
 20
81.3868675575
  0
LWPOLYLINE
  5
39F
100
AcDbEntity
  8
ASSI
100
AcDbPolyline
 62
253
  6
CONTINUOUS
 90
16
 70
0
 10
179.8993738798
 20
81.4411379792
 10
179.8936477646
 20
81.4355269608
 10
179.8794125422
 20
81.4299760698
 10
179.8568207388
 20
81.4245447824
 10
179.8261144191
 20
81.4192912932
 10
179.7876225923
 20
81.4142718919
 10
179.7417576872
 20
81.4095403598
 10
179.6890111331
 20
81.405147394
 10
179.6299480939
 20
81.4011400639
 10
179.565201413
 20
81.3975613067
 10
179.4954648322
 20
81.3944494678
 10
179.4214855589
 20
81.3918378897
 10
179.3440562596
 20
81.3897545546
 10
179.2640065666
 20
81.3882217845
 10
179.1821941894
 20
81.3872560028
 10
179.0994957237
 20
81.3868675575
  0
LINE
  5
3A0
100
AcDbEntity
  8
RACCORDO
100
AcDbLine
 62
253
  6
CONTINUOUS
 10
179.1114728777
 20
123.4885218763
 11
158.7115613336
 21
123.4885218763
  0
LINE
  5
3A1
100
AcDbEntity
  8
ASSI
100
AcDbLine
 62
253
  6
CONTINUOUS
 10
179.1114728777
 20
123.4885218763
 11
158.7115613336
 21
123.4885218763
  0
LINE
  5
3A2
100
AcDbEntity
  8
RACCORDO
100
AcDbLine
 62
7
  6
CONTINUOUS
 10
158.6113952618
 20
123.5886879481
 11
179.2116389495
 21
123.5886879481
  0
LINE
  5
3A3
100
AcDbEntity
  8
ASSI
100
AcDbLine
 62
7
  6
CONTINUOUS
 10
158.6113952618
 20
123.5886879481
 11
179.2116389495
 21
123.5886879481
  0
LWPOLYLINE
  5
3A4
100
AcDbEntity
  8
RACCORDO
100
AcDbPolyline
 62
253
  6
CONTINUOUS
 90
16
 70
0
 10
179.8993738798
 20
122.036237917
 10
179.8936486131
 20
122.0418490256
 10
179.8794141088
 20
122.0474000119
 10
179.8568228876
 20
122.0528313978
 10
179.8261170112
 20
122.0580849869
 10
179.787625489
 20
122.0631044876
 10
179.7417607521
 20
122.0678361167
 10
179.6890142349
 20
122.0722291755
 10
179.629951109
 20
122.0762365929
 10
179.5652042275
 20
122.0798154301
 10
179.4954673442
 20
122.0829273402
 10
179.4214876801
 20
122.0855389796
 10
179.344057917
 20
122.0876223651
 10
179.2640077042
 20
122.0891551736
 10
179.1821947683
 20
122.0901209811
 10
179.0994957237
 20
122.0905094391
  0
LWPOLYLINE
  5
3A5
100
AcDbEntity
  8
ASSI
100
AcDbPolyline
 62
253
  6
CONTINUOUS
 90
16
 70
0
 10
179.8993738798
 20
122.036237917
 10
179.8936486131
 20
122.0418490256
 10
179.8794141088
 20
122.0474000119
 10
179.8568228876
 20
122.0528313978
 10
179.8261170112
 20
122.0580849869
 10
179.787625489
 20
122.0631044876
 10
179.7417607521
 20
122.0678361167
 10
179.6890142349
 20
122.0722291755
 10
179.629951109
 20
122.0762365929
 10
179.5652042275
 20
122.0798154301
 10
179.4954673442
 20
122.0829273402
 10
179.4214876801
 20
122.0855389796
 10
179.344057917
 20
122.0876223651
 10
179.2640077042
 20
122.0891551736
 10
179.1821947683
 20
122.0901209811
 10
179.0994957237
 20
122.0905094391
  0
LINE
  5
3A6
100
AcDbEntity
  8
RACCORDO
100
AcDbLine
 62
7
  6
CONTINUOUS
 10
131.0063915131
 20
79.9888540199
 11
136.7449019249
 21
79.8886879481
  0
LINE
  5
3A7
100
AcDbEntity
  8
ASSI
100
AcDbLine
 62
7
  6
CONTINUOUS
 10
131.0063915131
 20
79.9888540199
 11
136.7449019249
 21
79.8886879481
  0
LINE
  5
3A8
100
AcDbEntity
  8
RACCORDO
100
AcDbLine
 62
253
  6
CONTINUOUS
 10
131.0063915131
 20
80.7887321761
 11
136.7449019249
 21
80.6885661042
  0
LINE
  5
3A9
100
AcDbEntity
  8
ASSI
100
AcDbLine
 62
253
  6
CONTINUOUS
 10
131.0063915131
 20
80.7887321761
 11
136.7449019249
 21
80.6885661042
  0
LINE
  5
3AA
100
AcDbEntity
  8
RACCORDO
100
AcDbLine
 62
253
  6
CONTINUOUS
 10
129.5403112025
 20
81.3872560028
 11
129.5360419155
 21
81.3868675575
  0
LINE
  5
3AB
100
AcDbEntity
  8
ASSI
100
AcDbLine
 62
253
  6
CONTINUOUS
 10
129.5403112025
 20
81.3872560028
 11
129.5360419155
 21
81.3868675575
  0
LINE
  5
3AC
100
AcDbEntity
  8
RACCORDO
100
AcDbLine
 62
253
  6
CONTINUOUS
 10
129.5742314917
 20
81.3897545546
 11
129.5403112025
 21
81.3872560028
  0
LINE
  5
3AD
100
AcDbEntity
  8
ASSI
100
AcDbLine
 62
253
  6
CONTINUOUS
 10
129.5742314917
 20
81.3897545546
 11
129.5403112025
 21
81.3872560028
  0
LINE
  5
3AE
100
AcDbEntity
  8
RACCORDO
100
AcDbLine
 62
253
  6
CONTINUOUS
 10
130.3202208199
 20
81.4411379792
 11
129.5742314917
 21
81.3897545546
  0
LINE
  5
3AF
100
AcDbEntity
  8
ASSI
100
AcDbLine
 62
253
  6
CONTINUOUS
 10
130.3202208199
 20
81.4411379792
 11
129.5742314917
 21
81.3897545546
  0
LINE
  5
3B0
100
AcDbEntity
  8
RACCORDO
100
AcDbLine
 62
7
  6
CONTINUOUS
 10
129.195523488
 20
87.2386879481
 11
128.9949019249
 21
87.2386879481
  0
LINE
  5
3B1
100
AcDbEntity
  8
RACCORDO
100
AcDbLine
 62
253
  6
CONTINUOUS
 10
128.7949019249
 20
87.7386879481
 11
129.1721589462
 21
87.7386879481
  0
LINE
  5
3B2
100
AcDbEntity
  8
RACCORDO
100
AcDbLine
 62
253
  6
CONTINUOUS
 10
128.7949019249
 20
91.2386879481
 11
129.0286414933
 21
91.2386879481
  0
LINE
  5
3B3
100
AcDbEntity
  8
RACCORDO
100
AcDbLine
 62
7
  6
CONTINUOUS
 10
129.0116151463
 20
91.7386879481
 11
128.9949019249
 21
91.7386879481
  0
LWPOLYLINE
  5
3B4
100
AcDbEntity
  8
RACCORDO
100
AcDbPolyline
 62
253
  6
CONTINUOUS
 90
22
 70
0
 10
130.3202208199
 20
81.4411379792
 10
130.325365786
 20
81.3917268902
 10
130.333875547
 20
81.343210663
 10
130.3457501028
 20
81.2955892978
 10
130.3610825902
 20
81.2486129851
 10
130.3797798724
 20
81.2025315342
 10
130.4015625392
 20
81.1580943736
 10
130.426478206
 20
81.1153434886
 10
130.4544792575
 20
81.0742368938
 10
130.4851434379
 20
81.0353980611
 10
130.5185053675
 20
80.9988671943
 10
130.5545304261
 20
80.9646040896
 10
130.5926924979
 20
80.9331116071
 10
130.6330328515
 20
80.9044252061
 10
130.6755102184
 20
80.8785094272
 10
130.719474676
 20
80.8557607525
 10
130.7649613977
 20
80.8362312938
 10
130.8119352103
 20
80.8198689392
 10
130.8596406722
 20
80.8069138355
 10
130.9078259698
 20
80.7974460315
 10
130.9567429168
 20
80.7913854784
 10
131.0063915131
 20
80.7887321761
  0
LWPOLYLINE
  5
3B5
100
AcDbEntity
  8
ASSI
100
AcDbPolyline
 62
253
  6
CONTINUOUS
 90
22
 70
0
 10
130.3202208199
 20
81.4411379792
 10
130.325365786
 20
81.3917268902
 10
130.333875547
 20
81.343210663
 10
130.3457501028
 20
81.2955892978
 10
130.3610825902
 20
81.2486129851
 10
130.3797798724
 20
81.2025315342
 10
130.4015625392
 20
81.1580943736
 10
130.426478206
 20
81.1153434886
 10
130.4544792575
 20
81.0742368938
 10
130.4851434379
 20
81.0353980611
 10
130.5185053675
 20
80.9988671943
 10
130.5545304261
 20
80.9646040896
 10
130.5926924979
 20
80.9331116071
 10
130.6330328515
 20
80.9044252061
 10
130.6755102184
 20
80.8785094272
 10
130.719474676
 20
80.8557607525
 10
130.7649613977
 20
80.8362312938
 10
130.8119352103
 20
80.8198689392
 10
130.8596406722
 20
80.8069138355
 10
130.9078259698
 20
80.7974460315
 10
130.9567429168
 20
80.7913854784
 10
131.0063915131
 20
80.7887321761
  0
LINE
  5
3B6
100
AcDbEntity
  8
RACCORDO
100
AcDbLine
 62
7
  6
CONTINUOUS
 10
129.1519055076
 20
88.1700513746
 11
129.1523247108
 21
88.1607955212
  0
LINE
  5
3B7
100
AcDbEntity
  8
ASSI
100
AcDbLine
 62
7
  6
CONTINUOUS
 10
129.1519055076
 20
88.1700513746
 11
129.1523247108
 21
88.1607955212
  0
LINE
  5
3B8
100
AcDbEntity
  8
0
100
AcDbLine
 62
253
  6
CONTINUOUS
 10
128.9219892093
 20
94.9382153027
 11
128.9213862595
 21
94.9648595698
  0
LINE
  5
3B9
100
AcDbEntity
  8
0
100
AcDbLine
 62
253
  6
CONTINUOUS
 10
128.8640159666
 20
98.3522355759
 11
128.8642068774
 21
98.3353662087
  0
LINE
  5
3BA
100
AcDbEntity
  8
RACCORDO
100
AcDbLine
 62
7
  6
CONTINUOUS
 10
128.7949019249
 20
87.4386879481
 11
128.7949019249
 21
91.5386879481
  0
LINE
  5
3BB
100
AcDbEntity
  8
0
100
AcDbLine
 62
253
  6
CONTINUOUS
 10
129.084091238
 20
113.7160155434
 11
129.0844087561
 21
113.7239595434
  0
LINE
  5
3BC
100
AcDbEntity
  8
0
100
AcDbLine
 62
253
  6
CONTINUOUS
 10
129.0904689779
 20
113.8745846351
 11
129.1441069172
 21
115.1339667338
  0
LINE
  5
3BD
100
AcDbEntity
  8
0
100
AcDbLine
 62
253
  6
CONTINUOUS
 10
129.2075590024
 20
116.4853075826
 11
129.1437014617
 21
115.1248925124
  0
LINE
  5
3BE
100
AcDbEntity
  8
RACCORDO
100
AcDbLine
 62
253
  6
CONTINUOUS
 10
128.9949019249
 20
87.2386879481
 11
128.9949019249
 21
91.7386879481
  0
LWPOLYLINE
  5
3BF
100
AcDbEntity
  8
RACCORDO
100
AcDbPolyline
 62
253
  6
CONTINUOUS
 90
13
 70
0
 10
130.3202208199
 20
122.036237917
 10
130.1096351326
 20
118.6565733691
 10
129.9373316655
 20
115.2756040308
 10
129.8033104187
 20
111.8933299024
 10
129.7075639306
 20
108.509316048
 10
129.6500996626
 20
105.1239974035
 10
129.6309399998
 20
101.7386787754
 10
129.6500999102
 20
98.3533595065
 10
129.7075644256
 20
94.9680402542
 10
129.8033110263
 20
91.5840277973
 10
129.9373322056
 20
88.2017577291
 10
130.1096354701
 20
84.8207944563
 10
130.3202208199
 20
81.4411379792
  0
LWPOLYLINE
  5
3C0
100
AcDbEntity
  8
ASSI
100
AcDbPolyline
 62
253
  6
CONTINUOUS
 90
13
 70
0
 10
130.3202208199
 20
122.036237917
 10
130.1096351326
 20
118.6565733691
 10
129.9373316655
 20
115.2756040308
 10
129.8033104187
 20
111.8933299024
 10
129.7075639306
 20
108.509316048
 10
129.6500996626
 20
105.1239974035
 10
129.6309399998
 20
101.7386787754
 10
129.6500999102
 20
98.3533595065
 10
129.7075644256
 20
94.9680402542
 10
129.8033110263
 20
91.5840277973
 10
129.9373322056
 20
88.2017577291
 10
130.1096354701
 20
84.8207944563
 10
130.3202208199
 20
81.4411379792
  0
LINE
  5
3C1
100
AcDbEntity
  8
RACCORDO
100
AcDbLine
 62
253
  6
CONTINUOUS
 10
131.0063915132
 20
122.6886437201
 11
131.0027622644
 21
122.9357711529
  0
LINE
  5
3C2
100
AcDbEntity
  8
ASSI
100
AcDbLine
 62
253
  6
CONTINUOUS
 10
131.0063915132
 20
122.6886437201
 11
131.0027622644
 21
122.9357711529
  0
LWPOLYLINE
  5
3C3
100
AcDbEntity
  8
RACCORDO
100
AcDbPolyline
 62
253
  6
CONTINUOUS
 90
7
 70
0
 10
131.0008542658
 20
80.1417030571
 10
131.0012837392
 20
80.0960985658
 10
131.0019220632
 20
80.0580797732
 10
131.0027622469
 20
80.0280630599
 10
131.0037950886
 20
80.0063771678
 10
131.0050092766
 20
79.9932596001
 10
131.0063915131
 20
79.9888540199
  0
LWPOLYLINE
  5
3C4
100
AcDbEntity
  8
ASSI
100
AcDbPolyline
 62
253
  6
CONTINUOUS
 90
7
 70
0
 10
131.0008542658
 20
80.1417030571
 10
131.0012837392
 20
80.0960985658
 10
131.0019220632
 20
80.0580797732
 10
131.0027622469
 20
80.0280630599
 10
131.0037950886
 20
80.0063771678
 10
131.0050092766
 20
79.9932596001
 10
131.0063915131
 20
79.9888540199
  0
LINE
  5
3C5
100
AcDbEntity
  8
RACCORDO
100
AcDbLine
 62
253
  6
CONTINUOUS
 10
131.0027622644
 20
122.9357711529
 11
131.0012837483
 21
123.0885097963
  0
LINE
  5
3C6
100
AcDbEntity
  8
ASSI
100
AcDbLine
 62
253
  6
CONTINUOUS
 10
131.0027622644
 20
122.9357711529
 11
131.0012837483
 21
123.0885097963
  0
LINE
  5
3C7
100
AcDbEntity
  8
RACCORDO
100
AcDbLine
 62
253
  6
CONTINUOUS
 10
131.0012837483
 20
123.0885097963
 11
131.0006383398
 21
123.2237797011
  0
LINE
  5
3C8
100
AcDbEntity
  8
ASSI
100
AcDbLine
 62
253
  6
CONTINUOUS
 10
131.0012837483
 20
123.0885097963
 11
131.0006383398
 21
123.2237797011
  0
LINE
  5
3C9
100
AcDbEntity
  8
RACCORDO
100
AcDbLine
 62
253
  6
CONTINUOUS
 10
131.0006383466
 20
80.2535936929
 11
131.0008542658
 21
80.1417030571
  0
LINE
  5
3CA
100
AcDbEntity
  8
ASSI
100
AcDbLine
 62
253
  6
CONTINUOUS
 10
131.0006383466
 20
80.2535936929
 11
131.0008542658
 21
80.1417030571
  0
LWPOLYLINE
  5
3CB
100
AcDbEntity
  8
RACCORDO
100
AcDbPolyline
 62
253
  6
CONTINUOUS
 90
8
 70
0
 10
131.0006383398
 20
123.2237797011
 10
131.0008542435
 20
123.3356710092
 10
131.0012837121
 20
123.3812759231
 10
131.0019220345
 20
123.4192951451
 10
131.00276222
 20
123.4493122447
 10
131.0037950672
 20
123.4709984464
 10
131.005009265
 20
123.4841162209
 10
131.0063915157
 20
123.4885218763
  0
LWPOLYLINE
  5
3CC
100
AcDbEntity
  8
ASSI
100
AcDbPolyline
 62
253
  6
CONTINUOUS
 90
8
 70
0
 10
131.0006383398
 20
123.2237797011
 10
131.0008542435
 20
123.3356710092
 10
131.0012837121
 20
123.3812759231
 10
131.0019220345
 20
123.4192951451
 10
131.00276222
 20
123.4493122447
 10
131.0037950672
 20
123.4709984464
 10
131.005009265
 20
123.4841162209
 10
131.0063915157
 20
123.4885218763
  0
LINE
  5
3CD
100
AcDbEntity
  8
RACCORDO
100
AcDbLine
 62
253
  6
CONTINUOUS
 10
131.0012837386
 20
80.388863412
 11
131.0006383466
 21
80.2535936929
  0
LINE
  5
3CE
100
AcDbEntity
  8
ASSI
100
AcDbLine
 62
253
  6
CONTINUOUS
 10
131.0012837386
 20
80.388863412
 11
131.0006383466
 21
80.2535936929
  0
LINE
  5
3CF
100
AcDbEntity
  8
RACCORDO
100
AcDbLine
 62
253
  6
CONTINUOUS
 10
131.0037950879
 20
80.622459923
 11
131.0012837386
 21
80.388863412
  0
LINE
  5
3D0
100
AcDbEntity
  8
ASSI
100
AcDbLine
 62
253
  6
CONTINUOUS
 10
131.0037950879
 20
80.622459923
 11
131.0012837386
 21
80.388863412
  0
LINE
  5
3D1
100
AcDbEntity
  8
RACCORDO
100
AcDbLine
 62
253
  6
CONTINUOUS
 10
131.0063915131
 20
80.7887321761
 11
131.0037950879
 21
80.622459923
  0
LINE
  5
3D2
100
AcDbEntity
  8
ASSI
100
AcDbLine
 62
253
  6
CONTINUOUS
 10
131.0063915131
 20
80.7887321761
 11
131.0037950879
 21
80.622459923
  0
LINE
  5
3D3
100
AcDbEntity
  8
RACCORDO
100
AcDbLine
 62
7
  6
CONTINUOUS
 10
136.7449019249
 20
79.8886879481
 11
136.7449019249
 21
123.5886879481
  0
LINE
  5
3D4
100
AcDbEntity
  8
ASSI
100
AcDbLine
 62
7
  6
CONTINUOUS
 10
136.7449019249
 20
79.8886879481
 11
136.7449019249
 21
123.5886879481
  0
LWPOLYLINE
  5
3D5
100
AcDbEntity
  8
RACCORDO
100
AcDbPolyline
 62
253
  6
CONTINUOUS
 90
22
 70
0
 10
131.0063915132
 20
122.6886437201
 10
130.9567818992
 20
122.6859962168
 10
130.9078965898
 20
122.6799429079
 10
130.8597355849
 20
122.6704837935
 10
130.8120446689
 20
122.6575383944
 10
130.7650780574
 20
122.6411871897
 10
130.7195983975
 20
122.6216716174
 10
130.675645275
 20
122.5989420196
 10
130.6331791041
 20
122.573048054
 10
130.5928437748
 20
122.5443801325
 10
130.5546776994
 20
122.5129016584
 10
130.5186424657
 20
122.4786492282
 10
130.4852667266
 20
122.4421230427
 10
130.4545838265
 20
122.4032801036
 10
130.426560421
 20
122.362163409
 10
130.4016251308
 20
122.3194021547
 10
130.3798282452
 20
122.2749586407
 10
130.361119475
 20
122.2288705669
 10
130.3457765721
 20
122.1818802281
 10
130.3338921206
 20
122.134235056
 10
130.3253735366
 20
122.085687619
 10
130.3202208199
 20
122.036237917
  0
LWPOLYLINE
  5
3D6
100
AcDbEntity
  8
ASSI
100
AcDbPolyline
 62
253
  6
CONTINUOUS
 90
22
 70
0
 10
131.0063915132
 20
122.6886437201
 10
130.9567818992
 20
122.6859962168
 10
130.9078965898
 20
122.6799429079
 10
130.8597355849
 20
122.6704837935
 10
130.8120446689
 20
122.6575383944
 10
130.7650780574
 20
122.6411871897
 10
130.7195983975
 20
122.6216716174
 10
130.675645275
 20
122.5989420196
 10
130.6331791041
 20
122.573048054
 10
130.5928437748
 20
122.5443801325
 10
130.5546776994
 20
122.5129016584
 10
130.5186424657
 20
122.4786492282
 10
130.4852667266
 20
122.4421230427
 10
130.4545838265
 20
122.4032801036
 10
130.426560421
 20
122.362163409
 10
130.4016251308
 20
122.3194021547
 10
130.3798282452
 20
122.2749586407
 10
130.361119475
 20
122.2288705669
 10
130.3457765721
 20
122.1818802281
 10
130.3338921206
 20
122.134235056
 10
130.3253735366
 20
122.085687619
 10
130.3202208199
 20
122.036237917
  0
LINE
  5
3D7
100
AcDbEntity
  8
RACCORDO
100
AcDbLine
 62
253
  6
CONTINUOUS
 10
136.7449019249
 20
122.788809792
 11
131.0063915132
 21
122.6886437201
  0
LINE
  5
3D8
100
AcDbEntity
  8
ASSI
100
AcDbLine
 62
253
  6
CONTINUOUS
 10
136.7449019249
 20
122.788809792
 11
131.0063915132
 21
122.6886437201
  0
LINE
  5
3D9
100
AcDbEntity
  8
RACCORDO
100
AcDbLine
 62
7
  6
CONTINUOUS
 10
136.7449019249
 20
123.5886879481
 11
131.0063915132
 21
123.4885218763
  0
LINE
  5
3DA
100
AcDbEntity
  8
ASSI
100
AcDbLine
 62
7
  6
CONTINUOUS
 10
136.7449019249
 20
123.5886879481
 11
131.0063915132
 21
123.4885218763
  0
LINE
  5
3DB
100
AcDbEntity
  8
RACCORDO
100
AcDbLine
 62
253
  6
CONTINUOUS
 10
130.3202208199
 20
122.036237917
 11
129.5742163442
 21
122.0876223651
  0
LINE
  5
3DC
100
AcDbEntity
  8
ASSI
100
AcDbLine
 62
253
  6
CONTINUOUS
 10
130.3202208199
 20
122.036237917
 11
129.5742163442
 21
122.0876223651
  0
LWPOLYLINE
  5
3DD
100
AcDbEntity
  8
RACCORDO
100
AcDbPolyline
 62
253
  6
CONTINUOUS
 90
3
 70
0
 10
129.5742163442
 20
122.0876223651
 10
129.5402951965
 20
122.0901209811
 10
129.5360257693
 20
122.0905094391
  0
LWPOLYLINE
  5
3DE
100
AcDbEntity
  8
ASSI
100
AcDbPolyline
 62
253
  6
CONTINUOUS
 90
3
 70
0
 10
129.5742163442
 20
122.0876223651
 10
129.5402951965
 20
122.0901209811
 10
129.5360257693
 20
122.0905094391
  0
ARC
  5
3DF
100
AcDbEntity
  8
RACCORDO
100
AcDbCircle
 62
7
  6
CONTINUOUS
 10
163.4115171057
 20
91.2386879481
 40
0.5
100
AcDbArc
 50
90.0
 51
180.0
  0
ARC
  5
3E0
100
AcDbEntity
  8
RACCORDO
100
AcDbCircle
 62
7
  6
CONTINUOUS
 10
174.4115171057
 20
91.2386879481
 40
0.5
100
AcDbArc
 50
0.0
 51
90.0
  0
ARC
  5
3E1
100
AcDbEntity
  8
RACCORDO
100
AcDbCircle
 62
7
  6
CONTINUOUS
 10
174.4115171057
 20
87.7386879481
 40
0.5
100
AcDbArc
 50
270.0
 51
360.0
  0
ARC
  5
3E2
100
AcDbEntity
  8
RACCORDO
100
AcDbCircle
 62
7
  6
CONTINUOUS
 10
163.4115171057
 20
87.7386879481
 40
0.5
100
AcDbArc
 50
180.0
 51
270.0
  0
ARC
  5
3E3
100
AcDbEntity
  8
RACCORDO
100
AcDbCircle
 62
253
  6
CONTINUOUS
 10
163.4115171057
 20
91.2386879481
 40
0.2999998665
100
AcDbArc
 50
90.0
 51
180.0
  0
ARC
  5
3E4
100
AcDbEntity
  8
RACCORDO
100
AcDbCircle
 62
253
  6
CONTINUOUS
 10
174.4115171057
 20
87.7386879481
 40
0.2999998665
100
AcDbArc
 50
270.0
 51
360.0
  0
ARC
  5
3E5
100
AcDbEntity
  8
RACCORDO
100
AcDbCircle
 62
253
  6
CONTINUOUS
 10
163.4115171057
 20
87.7386879481
 40
0.2999998665
100
AcDbArc
 50
180.0
 51
270.0
  0
ARC
  5
3E6
100
AcDbEntity
  8
RACCORDO
100
AcDbCircle
 62
253
  6
CONTINUOUS
 10
174.4115171057
 20
91.2386879481
 40
0.2999998665
100
AcDbArc
 50
0.0
 51
90.0
  0
ARC
  5
3E7
100
AcDbEntity
  8
RACCORDO
100
AcDbCircle
 62
7
  6
CONTINUOUS
 10
131.0325701228
 20
81.4886255627
 40
1.5
100
AcDbArc
 50
183.8898991621
 51
269.0
  0
ARC
  5
3E8
100
AcDbEntity
  8
ASSI
100
AcDbCircle
 62
7
  6
CONTINUOUS
 10
131.0325701228
 20
81.4886255627
 40
1.5
100
AcDbArc
 50
183.8898991621
 51
269.0
  0
ARC
  5
3E9
100
AcDbEntity
  8
RACCORDO
100
AcDbCircle
 62
7
  6
CONTINUOUS
 10
128.9949019249
 20
91.5386879481
 40
0.2
100
AcDbArc
 50
90.0
 51
180.0
  0
ARC
  5
3EA
100
AcDbEntity
  8
RACCORDO
100
AcDbCircle
 62
7
  6
CONTINUOUS
 10
128.9949019249
 20
87.4386879481
 40
0.2
100
AcDbArc
 50
180.0
 51
270.0
  0
ARC
  5
3EB
100
AcDbEntity
  8
RACCORDO
100
AcDbCircle
 62
7
  6
CONTINUOUS
 10
131.0325701228
 20
121.9887503335
 40
1.5
100
AcDbArc
 50
91.0
 51
176.1101008379
  0
ARC
  5
3EC
100
AcDbEntity
  8
ASSI
100
AcDbCircle
 62
7
  6
CONTINUOUS
 10
131.0325701228
 20
121.9887503335
 40
1.5
100
AcDbArc
 50
91.0
 51
176.1101008379
  0
ARC
  5
3ED
100
AcDbEntity
  8
RACCORDO
100
AcDbCircle
 62
7
  6
CONTINUOUS
 10
428.8449019249
 20
101.7386879481
 40
300.0
100
AcDbArc
 50
176.1101008379
 51
183.8898991621
  0
ARC
  5
3EE
100
AcDbEntity
  8
ASSI
100
AcDbCircle
 62
7
  6
CONTINUOUS
 10
428.8449019249
 20
101.7386879481
 40
300.0
100
AcDbArc
 50
176.1101008379
 51
183.8898991621
  0
ARC
  5
3EF
100
AcDbEntity
  8
0
100
AcDbCircle
 62
253
  6
CONTINUOUS
 10
428.8449019249
 20
101.7386879481
 40
300.0
100
AcDbArc
 50
177.7279331374
 51
178.0495598446
  0
ARC
  5
3F0
100
AcDbEntity
  8
0
100
AcDbCircle
 62
253
  6
CONTINUOUS
 10
428.8449019249
 20
101.7386879481
 40
300.0
100
AcDbArc
 50
177.1389902316
 51
177.2513328897
  0
ARC
  5
3F1
100
AcDbEntity
  8
0
100
AcDbCircle
 62
253
  6
CONTINUOUS
 10
428.8449019249
 20
101.7386879481
 40
300.0
100
AcDbArc
 50
177.0193046505
 51
177.0714872045
  0
ARC
  5
3F2
100
AcDbEntity
  8
0
100
AcDbCircle
 62
253
  6
CONTINUOUS
 10
428.8449019249
 20
101.7386879481
 40
300.0
100
AcDbArc
 50
181.0313797309
 51
181.5280685946
  0
ARC
  5
3F3
100
AcDbEntity
  8
0
100
AcDbCircle
 62
253
  6
CONTINUOUS
 10
428.8449019249
 20
101.7386879481
 40
300.0
100
AcDbArc
 50
180.3437767398
 51
180.9586122087
  0
ELLIPSE
  5
3F4
100
AcDbEntity
  8
RACCORDO
100
AcDbEllipse
 62
7
  6
CONTINUOUS
 10
158.6116389681
 20
80.6888098105
 30
0.0
 11
0.5658577513
 21
0.5658577513
 31
0.0
 40
0.9996954599
 41
-3.9268385237
 42
-2.3563467834
  0
ELLIPSE
  5
3F5
100
AcDbEntity
  8
RACCORDO
100
AcDbEllipse
 62
7
  6
CONTINUOUS
 10
158.6116389681
 20
122.7885660857
 30
0.0
 11
0.5658577513
 21
-0.5658577513
 31
0.0
 40
0.9996954599
 41
2.3563467834
 42
3.9268385237
  0
ELLIPSE
  5
3F6
100
AcDbEntity
  8
RACCORDO
100
AcDbEllipse
 62
7
  6
CONTINUOUS
 10
179.2113952432
 20
80.6888098105
 30
0.0
 11
0.5658577513
 21
-0.5658577513
 31
0.0
 40
0.9996954599
 41
-0.7852458701
 42
0.7852458701
  0
ELLIPSE
  5
3F7
100
AcDbEntity
  8
RACCORDO
100
AcDbEllipse
 62
7
  6
CONTINUOUS
 10
179.2113952432
 20
122.7885660857
 30
0.0
 11
0.5658577513
 21
0.5658577513
 31
0.0
 40
0.9996954599
 41
-0.7852458701
 42
0.7852458701
  0
ELLIPSE
  5
3F8
100
AcDbEntity
  8
ASSI
100
AcDbEllipse
 62
7
  6
CONTINUOUS
 10
158.6116389681
 20
80.6888098105
 30
0.0
 11
0.5658577513
 21
0.5658577513
 31
0.0
 40
0.9996954599
 41
-3.9268385237
 42
-2.3563467834
  0
ELLIPSE
  5
3F9
100
AcDbEntity
  8
ASSI
100
AcDbEllipse
 62
7
  6
CONTINUOUS
 10
158.6116389681
 20
122.7885660857
 30
0.0
 11
0.5658577513
 21
-0.5658577513
 31
0.0
 40
0.9996954599
 41
2.3563467834
 42
3.9268385237
  0
ELLIPSE
  5
3FA
100
AcDbEntity
  8
ASSI
100
AcDbEllipse
 62
7
  6
CONTINUOUS
 10
179.2113952432
 20
80.6888098105
 30
0.0
 11
0.5658577513
 21
-0.5658577513
 31
0.0
 40
0.9996954599
 41
-0.7852458701
 42
0.7852458701
  0
ELLIPSE
  5
3FB
100
AcDbEntity
  8
ASSI
100
AcDbEllipse
 62
7
  6
CONTINUOUS
 10
179.2113952432
 20
122.7885660857
 30
0.0
 11
0.5658577513
 21
0.5658577513
 31
0.0
 40
0.9996954599
 41
-0.7852458701
 42
0.7852458701
  0
ELLIPSE
  5
3FC
100
AcDbEntity
  8
0
100
AcDbEllipse
 62
253
  6
CONTINUOUS
 10
428.8449019249
 20
101.7386879481
 30
0.0
 11
0.0
 21
300.0
 31
0.0
 40
1.0
 41
1.5817489267
 42
1.5829871048
  0
ELLIPSE
  5
3FD
100
AcDbEntity
  8
0
100
AcDbEllipse
 62
253
  6
CONTINUOUS
 10
428.8449019249
 20
101.7386879481
 30
0.0
 11
0.0
 21
300.0
 31
0.0
 40
1.0
 41
1.5321137418
 42
1.5365677148
  0
ELLIPSE
  5
3FE
100
AcDbEntity
  8
0
100
AcDbEllipse
 62
253
  6
CONTINUOUS
 10
428.8449019249
 20
101.7386879481
 30
0.0
 11
0.0
 21
300.0
 31
0.0
 40
1.0
 41
1.5311412792
 42
1.5316678444
  0
ELLIPSE
  5
3FF
100
AcDbEntity
  8
0
100
AcDbEllipse
 62
253
  6
CONTINUOUS
 10
428.8449019249
 20
101.7386879481
 30
0.0
 11
300.0
 21
-0.0
 31
0.0
 40
1.0
 41
-3.1180190418
 42
-3.1173998176
  0
ELLIPSE
  5
400
100
AcDbEntity
  8
0
100
AcDbEllipse
 62
253
  6
CONTINUOUS
 10
428.8449019249
 20
101.7386879481
 30
0.0
 11
300.0
 21
-0.0
 31
0.0
 40
1.0
 41
3.0895697057
 42
3.0916586132
  0
ELLIPSE
  5
401
100
AcDbEntity
  8
0
100
AcDbEllipse
 62
253
  6
CONTINUOUS
 10
428.8449019249
 20
101.7386879481
 30
0.0
 11
300.0
 21
0.0
 31
0.0
 40
1.0
 41
3.0936193625
 42
3.0953528724
  0
ELLIPSE
  5
402
100
AcDbEntity
  8
0
100
AcDbEllipse
 62
253
  6
CONTINUOUS
 10
428.8449019249
 20
101.7386879481
 30
0.0
 11
300.0
 21
0.0
 31
0.0
 40
1.0
 41
3.1670239662
 42
3.1682624818
  0
ELLIPSE
  5
403
100
AcDbEntity
  8
0
100
AcDbEllipse
 62
253
  6
CONTINUOUS
 10
428.8449019249
 20
101.7386879481
 30
0.0
 11
-0.0
 21
300.0
 31
0.0
 40
1.0
 41
7.8087295694
 42
7.8140465947
  0
ELLIPSE
  5
404
100
AcDbEntity
  8
0
100
AcDbEllipse
 62
253
  6
CONTINUOUS
 10
428.8449019249
 20
101.7386879481
 30
0.0
 11
0.0
 21
300.0
 31
0.0
 40
1.0
 41
-4.6919113589
 42
-4.6906729881
  0
ELLIPSE
  5
405
100
AcDbEntity
  8
0
100
AcDbEllipse
 62
253
  6
CONTINUOUS
 10
428.8449019249
 20
101.7386879481
 30
0.0
 11
-0.0
 21
300.0
 31
0.0
 40
1.0
 41
-4.6989600054
 42
-4.6977217878
  0
ELLIPSE
  5
406
100
AcDbEntity
  8
0
100
AcDbEllipse
 62
253
  6
CONTINUOUS
 10
428.8449019249
 20
101.7386879481
 30
0.0
 11
-0.0
 21
300.0
 31
0.0
 40
1.0
 41
-4.7039126886
 42
-4.7026745421
  0
ENDSEC
  0
SECTION
  2
OBJECTS
  0
DICTIONARY
  5
C
100
AcDbDictionary
280
0
281
1
  3
ACAD_GROUP
350
D
  3
ACAD_MLINESTYLE
350
17
  3
ACAD_LAYOUT
350
1A
  3
ACAD_PLOTSETTINGS
350
19
  3
ACAD_PLOTSTYLENAME
350
E
  0
DICTIONARY
  5
D
102
{ACAD_REACTORS
330
C
102
}
100
AcDbDictionary
280
0
281
1
  0
ACDBDICTIONARYWDFLT
  5
E
102
{ACAD_REACTORS
330
C
102
}
100
AcDbDictionary
281
1
  3
Normal
350
F
100
AcDbDictionaryWithDefault
340
F
  0
DICTIONARY
  5
17
102
{ACAD_REACTORS
330
C
102
}
100
AcDbDictionary
280
0
281
1
  3
Standard
350
18
  0
DICTIONARY
  5
19
102
{ACAD_REACTORS
330
C
102
}
100
AcDbDictionary
281
1
  0
DICTIONARY
  5
1A
102
{ACAD_REACTORS
330
C
102
}
100
AcDbDictionary
281
1
  3
Model
350
407
  3
Layout1
350
408
  0
ACDBPLACEHOLDER
  5
F
102
{ACAD_REACTORS
330
E
102
}
  0
MLINESTYLE
  5
18
102
{ACAD_REACTORS
330
17
102
}
100
AcDbMlineStyle
  2
STANDARD
 70
0
  3

 62
256
 51
90.0
 52
90.0
 71
2
 49
0.5
 62
256
  6
BYLAYER
 49
-0.5
 62
256
  6
BYLAYER
  0
LAYOUT
  5
407
102
{ACAD_REACTORS
330
1A
102
}
100
AcDbPlotSettings
  1

  2
none_device
  4
ISO_A4_(297.00_x_210.00_MM)
  6

 40
0.0
 41
0.0
 42
0.0
 43
0.0
 44
297.0
 45
210.0
 46
0.0
 47
0.0
 48
0.0
 49
0.0
140
0.0
141
0.0
142
1.0
143
1.0
 70
1024
 72
1
 73
0
 74
0
  7

 75
0
147
1.0
148
0.0
149
0.0
100
AcDbLayout
  1
Model
 70
0
 71
0
 10
0.0
 20
0.0
 11
297.0
 21
210.0
 12
0.0
 22
0.0
 32
0.0
 14
0.0
 24
0.0
 34
0.0
 15
0.0
 25
0.0
 35
0.0
146
0.0
 13
0.0
 23
0.0
 33
0.0
 16
1.0
 26
0.0
 36
0.0
 17
0.0
 27
1.0
 37
0.0
 76
0
330
215
345
0
346
0
  0
LAYOUT
  5
408
102
{ACAD_REACTORS
330
1A
102
}
100
AcDbPlotSettings
  1

  2
none_device
  4
ISO_A4_(297.00_x_210.00_MM)
  6

 40
0.0
 41
0.0
 42
0.0
 43
0.0
 44
297.0
 45
210.0
 46
0.0
 47
0.0
 48
0.0
 49
0.0
140
0.0
141
0.0
142
1.0
143
1.0
 70
0
 72
1
 73
0
 74
0
  7

 75
0
147
1.0
148
0.0
149
0.0
100
AcDbLayout
  1
Layout1
 70
0
 71
1
 10
0.0
 20
0.0
 11
297.0
 21
210.0
 12
0.0
 22
0.0
 32
0.0
 14
0.0
 24
0.0
 34
0.0
 15
0.0
 25
0.0
 35
0.0
146
0.0
 13
0.0
 23
0.0
 33
0.0
 16
1.0
 26
0.0
 36
0.0
 17
0.0
 27
1.0
 37
0.0
 76
0
330
216
345
0
346
0
  0
ENDSEC
  0
EOF
