0
SECTION
2
HEADER
9
$ACADVER
1
AC1014
9
$HANDSEED
5
       3AB
9
$EXTMAX
10
297.0000000000
20
210.0000000000
9
$EXTMIN
10
0.0000000000
20
0.0000000000
9
$LIMMIN
10
0.0000000000
20
0.0000000000
9
$LIMMAX
10
297.0000000000
20
210.0000000000
9
$VIEWCTR
10
148.5000000000
20
105.0000000000
9
$VIEWSIZE
40
210.0000000000
9
$CLAYER
8
0
9
$LTSCALE
40
16.3350000000
9
$CELTYPE
6
BYLAYER
9
$DIMSCALE
40
1
9
$DIMASZ
40
3.0000000000
9
$DIMEXO
40
1.8562500000
9
$DIMDLI
40
11.2860000000
9
$DIMEXE
40
5.3460000000
9
$DIMCEN
40
2.6730000000
9
$DIMLFAC
40
1.0000000000
9
$DIMTXT
40
3.0000000000
9
$DIMTOL
70
1
9
$DIMLIM
70
0
9
$DIMTFAC
40
1.0000000000
9
$DIMTP
40
0.0100000000
9
$DIMTM
40
0.0100000000
9
$MEASUREMENT
70
1
0
ENDSEC
0
SECTION
2
CLASSES
0
ENDSEC
0
SECTION
2
TABLES
0
TABLE
2
VPORT
5
8
100
AcDbSymbolTable
70
2
0
VPORT
5
1F4
100
AcDbSymbolTableRecord
100
AcDbViewportTableRecord
2
*ACTIVE
70
0
10
0.0
20
0.0
11
1.0
21
1.0
12
148.5000000000
22
105.0000000000
13
0.0
23
0.0
14
1.0
24
1.0
15
0.0
25
0.0
16
0.0
26
0.0
36
1.0
17
0.0
27
0.0
37
0.0
40
210.0000000000
41
1.4142857143
42
50.0
43
0.0
44
0.0
50
0.0
51
0.0
71
0
72
100
73
1
74
1
75
0
76
0
77
0
78
0
0
ENDTAB
0
TABLE
2
LTYPE
5
5
100
AcDbSymbolTable
70
6
0
LTYPE
5
14
100
AcDbSymbolTableRecord
100
AcDbLinetypeTableRecord
2
BYBLOCK
70
0
3

72
65
73
0
40
0.0
0
LTYPE
5
15
100
AcDbSymbolTableRecord
100
AcDbLinetypeTableRecord
2
BYLAYER
70
0
3

72
65
73
0
40
0.0
0
LTYPE
5
16
100
AcDbSymbolTableRecord
100
AcDbLinetypeTableRecord
2
CONTINUOUS
70
64
3
Solid line
72
65
73
0
40
0
0
LTYPE
5
1F5
100
AcDbSymbolTableRecord
100
AcDbLinetypeTableRecord
2
CENTER
70
64
3
____ _ ____ _ ____ _ ____ _ ____ _ ____ _ ____
72
65
73
4
40
0.6
49
0.375
74
0
49
-0.075
74
0
49
0.075
74
0
49
-0.075
74
0
0
LTYPE
5
1F6
100
AcDbSymbolTableRecord
100
AcDbLinetypeTableRecord
2
HIDDEN
70
64
3
- - - - - - - - - - - - - - - - - - - -
72
65
73
2
40
0.2
49
0.1
74
0
49
-0.1
74
0
0
LTYPE
5
1F7
100
AcDbSymbolTableRecord
100
AcDbLinetypeTableRecord
2
PHANTOM
70
64
3
_____ _ _ _____ _ _ _____ _ _ _____
72
65
73
6
40
0.8
49
0.45
74
0
49
-0.05
74
0
49
0.1
74
0
49
-0.05
74
0
49
0.1
74
0
49
-0.05
74
0
0
LTYPE
5
1F8
100
AcDbSymbolTableRecord
100
AcDbLinetypeTableRecord
2
DOT
70
64
3
. . . . . . . . . . . . . . . . . . . .
72
65
73
2
40
0.2
49
0.1
74
0
49
-0.1
74
0
0
LTYPE
5
1F9
100
AcDbSymbolTableRecord
100
AcDbLinetypeTableRecord
2
DASHED
70
64
3
- - - - - - - - - - - - - - - - - - - -
72
65
73
2
40
0.2
49
0.1
74
0
49
-0.1
74
0
0
ENDTAB
0
TABLE
2
LAYER
5
2
100
AcDbSymbolTable
70
36
0
LAYER
5
10
100
AcDbSymbolTableRecord
100
AcDbLayerTableRecord
2
0
70
0
62
7
6
CONTINUOUS
0
LAYER
5
1FA
100
AcDbSymbolTableRecord
100
AcDbLayerTableRecord
2
DEFAULT_1
70
0
62
7
6
CENTER
0
LAYER
5
1FB
100
AcDbSymbolTableRecord
100
AcDbLayerTableRecord
2
DEFAULT_2
70
0
62
8
6
HIDDEN
0
LAYER
5
1FC
100
AcDbSymbolTableRecord
100
AcDbLayerTableRecord
2
DEFAULT_3
70
0
62
7
6
PHANTOM
0
LAYER
5
1FD
100
AcDbSymbolTableRecord
100
AcDbLayerTableRecord
2
ASSI
70
0
62
7
6
CONTINUOUS
0
LAYER
5
1FE
100
AcDbSymbolTableRecord
100
AcDbLayerTableRecord
2
COORDINATE
70
0
62
7
6
CONTINUOUS
0
LAYER
5
1FF
100
AcDbSymbolTableRecord
100
AcDbLayerTableRecord
2
COORD_ORIGINE
70
0
62
7
6
CONTINUOUS
0
LAYER
5
200
100
AcDbSymbolTableRecord
100
AcDbLayerTableRecord
2
CURVE
70
0
62
7
6
CONTINUOUS
0
LAYER
5
201
100
AcDbSymbolTableRecord
100
AcDbLayerTableRecord
2
DRAFT
70
0
62
7
6
CONTINUOUS
0
LAYER
5
202
100
AcDbSymbolTableRecord
100
AcDbLayerTableRecord
2
IGES-IMPORTATI
70
0
62
7
6
CONTINUOUS
0
LAYER
5
203
100
AcDbSymbolTableRecord
100
AcDbLayerTableRecord
2
INTF_1
70
0
62
7
6
CONTINUOUS
0
LAYER
5
204
100
AcDbSymbolTableRecord
100
AcDbLayerTableRecord
2
NOTE
70
0
62
7
6
CONTINUOUS
0
LAYER
5
205
100
AcDbSymbolTableRecord
100
AcDbLayerTableRecord
2
PIANI
70
0
62
7
6
CONTINUOUS
0
LAYER
5
206
100
AcDbSymbolTableRecord
100
AcDbLayerTableRecord
2
PIANI_ORIGINE
70
0
62
7
6
CONTINUOUS
0
LAYER
5
207
100
AcDbSymbolTableRecord
100
AcDbLayerTableRecord
2
PIANI_RIFERIMENTO
70
0
62
7
6
CONTINUOUS
0
LAYER
5
208
100
AcDbSymbolTableRecord
100
AcDbLayerTableRecord
2
PUNTI
70
0
62
7
6
CONTINUOUS
0
LAYER
5
209
100
AcDbSymbolTableRecord
100
AcDbLayerTableRecord
2
RACCORDO
70
0
62
7
6
CONTINUOUS
0
LAYER
5
20A
100
AcDbSymbolTableRecord
100
AcDbLayerTableRecord
2
RGB____0____0____0__
70
0
62
7
6
CONTINUOUS
0
LAYER
5
20B
100
AcDbSymbolTableRecord
100
AcDbLayerTableRecord
2
SMUSSO
70
0
62
7
6
CONTINUOUS
0
LAYER
5
20C
100
AcDbSymbolTableRecord
100
AcDbLayerTableRecord
2
SNAPLINE
70
0
62
7
6
CONTINUOUS
0
LAYER
5
20D
100
AcDbSymbolTableRecord
100
AcDbLayerTableRecord
2
SUPERFICI
70
0
62
7
6
CONTINUOUS
0
LAYER
5
20E
100
AcDbSymbolTableRecord
100
AcDbLayerTableRecord
2
TRASH
70
0
62
7
6
CONTINUOUS
0
ENDTAB
0
TABLE
2
STYLE
5
3
100
AcDbSymbolTable
70
1
0
STYLE
5
11
100
AcDbSymbolTableRecord
100
AcDbTextStyleTableRecord
2
STANDARD
70
0
40
0.0
41
0.8000000000
50
0.0
71
0
42
0.2
3
txt
4

0
ENDTAB
0
TABLE
2
VIEW
5
6
100
AcDbSymbolTable
70
0
0
ENDTAB
0
TABLE
2
UCS
5
7
100
AcDbSymbolTable
70
0
0
ENDTAB
0
TABLE
2
APPID
5
9
100
AcDbSymbolTable
70
1
0
APPID
5
20F
100
AcDbSymbolTableRecord
100
AcDbRegAppTableRecord
2
ACAD
70
0
0
ENDTAB
0
TABLE
2
DIMSTYLE
5
A
100
AcDbSymbolTable
70
1
0
DIMSTYLE
105
210
100
AcDbSymbolTableRecord
100
AcDbDimStyleTableRecord
2
STANDARD
70
0
3

4

5

6

7

40
1.0
41
3.0000000000
42
0.0625
43
0.38
44
0.18
45
0.0
46
0.0
47
0.0100000000
48
0.0100000000
140
3.0000000000
141
0.09
142
0.0
143
25.4
144
1.0000000000
145
0.0
146
1.0000000000
147
0.09
71
1
72
0
73
0
74
0
75
0
76
0
77
1
78
8
170
0
171
2
172
0
173
0
174
0
175
0
176
0
177
0
178
0
270
2
271
2
272
2
273
2
274
2
340
11
275
0
280
0
281
0
282
0
283
1
284
8
285
0
286
0
287
3
288
0
0
DIMSTYLE
105
211
100
AcDbSymbolTableRecord
100
AcDbDimStyleTableRecord
2
DIMSTYLE_1
70
0
3

4

5

6

7

40
1.0
41
3.0000000000
42
0.0625
43
0.38
44
0.18
45
0.0
46
0.0
47
0.0000000000
48
0.0000000000
140
3.0000000000
141
0.09
142
0.0
143
25.4
144
1.0000000000
145
0.0
146
1.0000000000
147
0.09
71
0
72
0
73
0
74
0
75
0
76
0
77
1
78
8
170
0
171
2
172
0
173
0
174
0
175
0
176
0
177
0
178
0
270
2
271
2
272
2
273
2
274
2
340
11
275
0
280
0
281
0
282
0
283
1
284
8
285
0
286
0
287
3
288
0
0
DIMSTYLE
105
212
100
AcDbSymbolTableRecord
100
AcDbDimStyleTableRecord
2
DIMSTYLE_2
70
0
3

4

5

6

7

40
1.0
41
3.0000000000
42
0.0625
43
0.38
44
0.18
45
0.0
46
0.0
47
0.0000000000
48
0.0000000000
140
3.0000000000
141
0.09
142
0.0
143
25.4
144
1.0000000000
145
0.0
146
1.0000000000
147
0.09
71
0
72
0
73
0
74
0
75
0
76
0
77
1
78
8
170
0
171
2
172
0
173
0
174
0
175
0
176
0
177
0
178
0
270
2
271
1
272
1
273
2
274
2
340
11
275
0
280
0
281
0
282
0
283
1
284
8
285
0
286
0
287
3
288
0
0
ENDTAB
0
TABLE
2
BLOCK_RECORD
5
1
100
AcDbSymbolTable
70
0
0
BLOCK_RECORD
5
1B
100
AcDbSymbolTableRecord
100
AcDbBlockTableRecord
2
*MODEL_SPACE
0
BLOCK_RECORD
5
1C
100
AcDbSymbolTableRecord
100
AcDbBlockTableRecord
2
*PAPER_SPACE
0
BLOCK_RECORD
5
213
100
AcDbSymbolTableRecord
100
AcDbBlockTableRecord
2
*D0
0
BLOCK_RECORD
5
214
100
AcDbSymbolTableRecord
100
AcDbBlockTableRecord
2
*D1
0
BLOCK_RECORD
5
215
100
AcDbSymbolTableRecord
100
AcDbBlockTableRecord
2
*D2
0
BLOCK_RECORD
5
216
100
AcDbSymbolTableRecord
100
AcDbBlockTableRecord
2
*D3
0
ENDTAB
0
ENDSEC
0
SECTION
2
BLOCKS
0
BLOCK
5
1E
100
AcDbEntity
8
0
100
AcDbBlockBegin
2
*MODEL_SPACE
70
0
10
0.0
20
0.0
30
0.0
3
*MODEL_SPACE
1

0
ENDBLK
5
1F
100
AcDbEntity
8
0
100
AcDbBlockEnd
0
BLOCK
5
20
100
AcDbEntity
8
0
100
AcDbBlockBegin
2
*PAPER_SPACE
70
0
10
0.0
20
0.0
30
0.0
3
*PAPER_SPACE
1

0
ENDBLK
5
21
100
AcDbEntity
8
0
100
AcDbBlockEnd
0
BLOCK
5
217
100
AcDbEntity
8
0
100
AcDbBlockBegin
62
7
6
CONTINUOUS
2
*D0
70
65
10
0.0000000000
20
0.0000000000
3
*D0
1

0
TEXT
5
218
100
AcDbEntity
8
0
100
AcDbText
62
7
6
CONTINUOUS
10
-4.0748542545
20
33.7500000000
7
STANDARD
40
3.0000000000
1
22,3
41
0.7142857143
72
0
100
AcDbText
0
LINE
5
219
100
AcDbEntity
8
0
100
AcDbLine
62
7
6
CONTINUOUS
10
11.1500000000
20
22.3911779406
11
11.1500000000
21
34.5000000000
0
LINE
5
21A
100
AcDbEntity
8
0
100
AcDbLine
62
7
6
CONTINUOUS
10
-11.1500000000
20
22.3911779406
11
-11.1500000000
21
34.5000000000
0
LINE
5
21B
100
AcDbEntity
8
0
100
AcDbLine
62
7
6
CONTINUOUS
10
11.1500000000
20
33.0000000000
11
0.0000000000
21
33.0000000000
0
LINE
5
21C
100
AcDbEntity
8
0
100
AcDbLine
62
7
6
CONTINUOUS
10
-11.1500000000
20
33.0000000000
11
0.0000000000
21
33.0000000000
0
SOLID
5
21D
100
AcDbEntity
8
0
100
AcDbTrace
62
7
6
CONTINUOUS
10
8.1500000000
20
32.0500000000
11
11.1500000000
21
33.0000000000
12
8.1500000000
22
33.9500000000
13
8.1500000000
23
33.9500000000
0
SOLID
5
21E
100
AcDbEntity
8
0
100
AcDbTrace
62
7
6
CONTINUOUS
10
-8.1500000000
20
33.9500000000
11
-11.1500000000
21
33.0000000000
12
-8.1500000000
22
32.0500000000
13
-8.1500000000
23
32.0500000000
0
ENDBLK
5
21F
100
AcDbEntity
8
0
100
AcDbBlockEnd
0
BLOCK
5
220
100
AcDbEntity
8
0
100
AcDbBlockBegin
62
7
6
CONTINUOUS
2
*D1
70
65
10
0.0000000000
20
0.0000000000
3
*D1
1

0
TEXT
5
221
100
AcDbEntity
8
0
100
AcDbText
62
7
6
CONTINUOUS
10
20.4533273272
20
-3.6041473882
7
STANDARD
40
3.0000000000
1
49
50
90.0000000000
41
0.7857142857
72
0
100
AcDbText
0
LINE
5
222
100
AcDbEntity
8
0
100
AcDbLine
62
7
6
CONTINUOUS
10
10.8869056521
20
24.4869014213
11
22.7033273437
21
24.4869014213
0
LINE
5
223
100
AcDbEntity
8
0
100
AcDbLine
62
7
6
CONTINUOUS
10
10.8869056521
20
-24.4869014213
11
22.7033273437
21
-24.4869014213
0
LINE
5
224
100
AcDbEntity
8
0
100
AcDbLine
62
7
6
CONTINUOUS
10
21.2033273437
20
24.4869014213
11
21.2033273437
21
0.0000000000
0
LINE
5
225
100
AcDbEntity
8
0
100
AcDbLine
62
7
6
CONTINUOUS
10
21.2033273437
20
-24.4869014213
11
21.2033273437
21
0.0000000000
0
SOLID
5
226
100
AcDbEntity
8
0
100
AcDbTrace
62
7
6
CONTINUOUS
10
22.1533273437
20
21.4869014213
11
21.2033273437
21
24.4869014213
12
20.2533273437
22
21.4869014213
13
20.2533273437
23
21.4869014213
0
SOLID
5
227
100
AcDbEntity
8
0
100
AcDbTrace
62
7
6
CONTINUOUS
10
20.2533273437
20
-21.4869014213
11
21.2033273437
21
-24.4869014213
12
22.1533273437
22
-21.4869014213
13
22.1533273437
23
-21.4869014213
0
ENDBLK
5
228
100
AcDbEntity
8
0
100
AcDbBlockEnd
0
BLOCK
5
229
100
AcDbEntity
8
0
100
AcDbBlockBegin
62
7
6
CONTINUOUS
2
*D2
70
65
10
0.0000000000
20
0.0000000000
3
*D2
1

0
TEXT
5
22A
100
AcDbEntity
8
0
100
AcDbText
62
7
6
CONTINUOUS
10
-32.6303458190
20
33.7500000000
7
STANDARD
40
3.0000000000
1
10
41
0.6785714286
72
0
100
AcDbText
0
LINE
5
22B
100
AcDbEntity
8
0
100
AcDbLine
62
7
6
CONTINUOUS
10
-26.4275746049
20
21.4000000000
11
-26.4275746049
21
34.5000000000
0
LINE
5
22C
100
AcDbEntity
8
0
100
AcDbLine
62
7
6
CONTINUOUS
10
-36.4275746049
20
22.3911779406
11
-36.4275746049
21
34.5000000000
0
LINE
5
22D
100
AcDbEntity
8
0
100
AcDbLine
62
7
6
CONTINUOUS
10
-26.4275746049
20
33.0000000000
11
-31.4275746049
21
33.0000000000
0
LINE
5
22E
100
AcDbEntity
8
0
100
AcDbLine
62
7
6
CONTINUOUS
10
-36.4275746049
20
33.0000000000
11
-31.4275746049
21
33.0000000000
0
SOLID
5
22F
100
AcDbEntity
8
0
100
AcDbTrace
62
7
6
CONTINUOUS
10
-29.4275746049
20
32.0500000000
11
-26.4275746049
21
33.0000000000
12
-29.4275746049
22
33.9500000000
13
-29.4275746049
23
33.9500000000
0
SOLID
5
230
100
AcDbEntity
8
0
100
AcDbTrace
62
7
6
CONTINUOUS
10
-33.4275746049
20
33.9500000000
11
-36.4275746049
21
33.0000000000
12
-33.4275746049
22
32.0500000000
13
-33.4275746049
23
32.0500000000
0
ENDBLK
5
231
100
AcDbEntity
8
0
100
AcDbBlockEnd
0
BLOCK
5
232
100
AcDbEntity
8
0
100
AcDbBlockBegin
62
7
6
CONTINUOUS
2
*D3
70
65
10
0.0000000000
20
0.0000000000
3
*D3
1

0
TEXT
5
233
100
AcDbEntity
8
0
100
AcDbText
62
7
6
CONTINUOUS
10
-40.5881753187
20
43.7500000000
7
STANDARD
40
3.0000000000
1
20,5
41
0.7142857143
72
0
100
AcDbText
0
LINE
5
234
100
AcDbEntity
8
0
100
AcDbLine
62
7
6
CONTINUOUS
10
-26.4275746049
20
19.5274741148
11
-26.4275746049
21
44.5000000000
0
LINE
5
235
100
AcDbEntity
8
0
100
AcDbLine
62
7
6
CONTINUOUS
10
-46.9275746049
20
0.5000000000
11
-46.9275746049
21
44.5000000000
0
LINE
5
236
100
AcDbEntity
8
0
100
AcDbLine
62
7
6
CONTINUOUS
10
-26.4275746049
20
43.0000000000
11
-36.6775746049
21
43.0000000000
0
LINE
5
237
100
AcDbEntity
8
0
100
AcDbLine
62
7
6
CONTINUOUS
10
-46.9275746049
20
43.0000000000
11
-36.6775746049
21
43.0000000000
0
SOLID
5
238
100
AcDbEntity
8
0
100
AcDbTrace
62
7
6
CONTINUOUS
10
-29.4275746049
20
42.0500000000
11
-26.4275746049
21
43.0000000000
12
-29.4275746049
22
43.9500000000
13
-29.4275746049
23
43.9500000000
0
SOLID
5
239
100
AcDbEntity
8
0
100
AcDbTrace
62
7
6
CONTINUOUS
10
-43.9275746049
20
43.9500000000
11
-46.9275746049
21
43.0000000000
12
-43.9275746049
22
42.0500000000
13
-43.9275746049
23
42.0500000000
0
ENDBLK
5
23A
100
AcDbEntity
8
0
100
AcDbBlockEnd
0
ENDSEC
0
SECTION
2
ENTITIES
0
DIMENSION
5
23B
100
AcDbEntity
8
0
100
AcDbDimension
62
7
6
CONTINUOUS
2
*D0
10
-11.1500000000
20
33.0000000000
11
0.2108600312
21
35.2500000000
70
160
3
DIMSTYLE_1
100
AcDbAlignedDimension
13
11.1500000000
23
22.3911779406
14
-11.1500000000
24
22.3911779406
50
180.000000
100
AcDbRotatedDimension
0
DIMENSION
5
23C
100
AcDbEntity
8
0
100
AcDbDimension
62
7
6
CONTINUOUS
2
*D1
10
21.2033273437
20
-24.4869014213
11
18.9533273272
21
-1.2470045311
70
160
3
DIMSTYLE_2
100
AcDbAlignedDimension
13
10.8869056521
23
24.4869014213
14
10.8869056521
24
-24.4869014213
50
270.000000
100
AcDbRotatedDimension
0
DIMENSION
5
23D
100
AcDbEntity
8
0
100
AcDbDimension
62
7
6
CONTINUOUS
2
*D2
10
-36.4275746049
20
33.0000000000
11
-30.5946315333
21
35.2500000000
70
160
3
DIMSTYLE_1
100
AcDbAlignedDimension
13
-26.4275746049
23
21.4000000000
14
-36.4275746049
24
22.3911779406
50
180.000000
100
AcDbRotatedDimension
0
DIMENSION
5
23E
100
AcDbEntity
8
0
100
AcDbDimension
62
7
6
CONTINUOUS
2
*D3
10
-46.9275746049
20
43.0000000000
11
-36.3024610330
21
45.2500000000
70
160
3
DIMSTYLE_1
100
AcDbAlignedDimension
13
-26.4275746049
23
19.5274741148
14
-46.9275746049
24
0.5000000000
50
180.000000
100
AcDbRotatedDimension
0
LINE
5
23F
100
AcDbEntity
8
0
100
AcDbLine
62
7
6
CONTINUOUS
10
-10.8560144094
20
22.3472251339
11
-10.8735170020
21
22.3384745041
0
LINE
5
240
100
AcDbEntity
8
0
100
AcDbLine
62
9
6
CONTINUOUS
10
-11.1325830976
20
21.8998857286
11
-11.1500000000
21
21.8911779406
0
LINE
5
241
100
AcDbEntity
8
0
100
AcDbLine
62
7
6
CONTINUOUS
10
10.4000042308
20
-24.5000000000
11
8.4999957692
21
-24.5000000000
0
LINE
5
242
100
AcDbEntity
8
0
100
AcDbLine
62
7
6
CONTINUOUS
10
-8.4999957692
20
-24.5000000000
11
-10.4000042308
21
-24.5000000000
0
LINE
5
243
100
AcDbEntity
8
0
100
AcDbLine
62
9
6
CONTINUOUS
10
-10.3869056521
20
-24.4869014213
11
-8.5130943479
21
-24.4869014213
0
LINE
5
244
100
AcDbEntity
8
0
100
AcDbLine
62
9
6
CONTINUOUS
10
8.5130943479
20
-24.4869014213
11
10.3869056521
21
-24.4869014213
0
LINE
5
245
100
AcDbEntity
8
0
100
AcDbLine
62
9
6
CONTINUOUS
10
8.2630985787
20
-24.2369056521
11
10.6369014213
21
-24.2369056521
0
LINE
5
246
100
AcDbEntity
8
0
100
AcDbLine
62
9
6
CONTINUOUS
10
-8.2630985787
20
-24.2369056521
11
-10.6369014213
21
-24.2369056521
0
LINE
5
247
100
AcDbEntity
8
0
100
AcDbLine
62
9
6
CONTINUOUS
10
-8.2630985787
20
-23.8443375673
11
-10.6369014213
21
-23.8443375673
0
LINE
5
248
100
AcDbEntity
8
0
100
AcDbLine
62
7
6
CONTINUOUS
10
4.4000000000
20
-23.8000000000
11
-4.4000000000
21
-23.8000000000
0
LINE
5
249
100
AcDbEntity
8
0
100
AcDbLine
62
9
6
CONTINUOUS
10
-4.2962073137
20
-23.7953389668
11
4.2962073137
21
-23.7953389668
0
LINE
5
24A
100
AcDbEntity
8
0
100
AcDbLine
62
7
6
CONTINUOUS
10
10.3869056521
20
-23.7000000000
11
8.5130943479
21
-23.7000000000
0
LINE
5
24B
100
AcDbEntity
8
0
100
AcDbLine
62
9
6
CONTINUOUS
10
-8.5130943479
20
-23.6278312164
11
-10.3869056521
21
-23.6278312164
0
LINE
5
24C
100
AcDbEntity
8
0
100
AcDbLine
62
9
6
CONTINUOUS
10
-3.8970826234
20
-23.5953423515
11
3.8970826234
21
-23.5953423515
0
LINE
5
24D
100
AcDbEntity
8
0
100
AcDbLine
62
7
6
CONTINUOUS
10
-10.8735170020
20
-22.3384745041
11
-10.8560144094
21
-22.3472251339
0
LINE
5
24E
100
AcDbEntity
8
0
100
AcDbLine
62
9
6
CONTINUOUS
10
-11.1500000000
20
-21.8911779406
11
-11.1325830976
21
-21.8998857286
0
LINE
5
24F
100
AcDbEntity
8
0
100
AcDbLine
62
9
6
CONTINUOUS
10
-8.4999957692
20
24.5000000000
11
-8.5130943479
21
24.4869014213
0
LINE
5
250
100
AcDbEntity
8
0
100
AcDbLine
62
9
6
CONTINUOUS
10
-8.2500000000
20
24.2500042308
11
-8.2630985787
21
24.2369056521
0
LINE
5
251
100
AcDbEntity
8
0
100
AcDbLine
62
7
6
CONTINUOUS
10
10.3927234819
20
-23.1226497308
11
8.5072765181
21
-23.1226497308
0
LINE
5
252
100
AcDbEntity
8
0
100
AcDbLine
62
7
6
CONTINUOUS
10
-8.5072765181
20
-23.1226497308
11
-10.3927234819
21
-23.1226497308
0
LINE
5
253
100
AcDbEntity
8
0
100
AcDbLine
62
7
6
CONTINUOUS
10
-8.2500000000
20
-22.4000000000
11
-4.4000000000
21
-22.4000000000
0
LINE
5
254
100
AcDbEntity
8
0
100
AcDbLine
62
7
6
CONTINUOUS
10
4.4000000000
20
-22.4000000000
11
8.2500000000
21
-22.4000000000
0
LINE
5
255
100
AcDbEntity
8
0
100
AcDbLine
62
7
6
CONTINUOUS
10
-3.8970826234
20
-22.3475922207
11
3.8970826234
21
-22.3475922207
0
LINE
5
256
100
AcDbEntity
8
0
100
AcDbLine
62
7
6
CONTINUOUS
10
10.3927234819
20
-22.3213883311
11
8.5072765181
21
-22.3213883311
0
LINE
5
257
100
AcDbEntity
8
0
100
AcDbLine
62
7
6
CONTINUOUS
10
-8.5072765181
20
-22.3213883311
11
-10.3927234819
21
-22.3213883311
0
LINE
5
258
100
AcDbEntity
8
0
100
AcDbLine
62
9
6
CONTINUOUS
10
10.4992759622
20
-21.9987252220
11
-10.4992759622
21
-21.9987252220
0
LINE
5
259
100
AcDbEntity
8
0
100
AcDbLine
62
9
6
CONTINUOUS
10
-8.4999957692
20
-24.5000000000
11
-8.5130943479
21
-24.4869014213
0
LINE
5
25A
100
AcDbEntity
8
0
100
AcDbLine
62
9
6
CONTINUOUS
10
-8.2500000000
20
-24.2500042308
11
-8.2630985787
21
-24.2369056521
0
LINE
5
25B
100
AcDbEntity
8
0
100
AcDbLine
62
9
6
CONTINUOUS
10
10.4827491915
20
-20.5624683248
11
-10.4827491915
21
-20.5624683248
0
LINE
5
25C
100
AcDbEntity
8
0
100
AcDbLine
62
7
6
CONTINUOUS
10
4.3970741618
20
23.7970741618
11
4.4000000000
21
23.8000000000
0
LINE
5
25D
100
AcDbEntity
8
0
100
AcDbLine
62
7
6
CONTINUOUS
10
4.3970741618
20
-23.7970741618
11
4.4000000000
21
-23.8000000000
0
LINE
5
25E
100
AcDbEntity
8
0
100
AcDbLine
62
9
6
CONTINUOUS
10
-10.6369014213
20
-23.8443375673
11
-10.6427192511
21
-23.2669872981
0
LINE
5
25F
100
AcDbEntity
8
0
100
AcDbLine
62
7
6
CONTINUOUS
10
-11.1500000000
20
-21.8911779406
11
-11.1500000000
21
21.8911779406
0
LINE
5
260
100
AcDbEntity
8
0
100
AcDbLine
62
9
6
CONTINUOUS
10
-10.6427192511
20
23.2669872981
11
-10.6369014213
21
23.8443375673
0
LINE
5
261
100
AcDbEntity
8
0
100
AcDbLine
62
9
6
CONTINUOUS
10
-10.3869056521
20
-23.6278312164
11
-10.3919962532
21
-23.1226497308
0
LINE
5
262
100
AcDbEntity
8
0
100
AcDbLine
62
7
6
CONTINUOUS
10
-10.6500000000
20
-22.3996899680
11
-10.6500000000
21
-24.2500042308
0
LINE
5
263
100
AcDbEntity
8
0
100
AcDbLine
62
7
6
CONTINUOUS
10
-10.6500000000
20
22.3996899680
11
-10.6500000000
21
24.2500042308
0
LINE
5
264
100
AcDbEntity
8
0
100
AcDbLine
62
9
6
CONTINUOUS
10
-10.6427192511
20
23.2669872981
11
-10.6427192511
21
22.3334109614
0
LINE
5
265
100
AcDbEntity
8
0
100
AcDbLine
62
9
6
CONTINUOUS
10
-10.6427192511
20
-22.3334109614
11
-10.6427192511
21
-23.2669872981
0
LINE
5
266
100
AcDbEntity
8
0
100
AcDbLine
62
9
6
CONTINUOUS
10
-10.6369014213
20
24.2369056521
11
-10.6369014213
21
23.8443375673
0
LINE
5
267
100
AcDbEntity
8
0
100
AcDbLine
62
9
6
CONTINUOUS
10
-10.6369014213
20
-23.8443375673
11
-10.6369014213
21
-24.2369056521
0
LINE
5
268
100
AcDbEntity
8
0
100
AcDbLine
62
9
6
CONTINUOUS
10
-10.3927234819
20
23.1226497308
11
-10.3927234819
21
22.3213883311
0
LINE
5
269
100
AcDbEntity
8
0
100
AcDbLine
62
9
6
CONTINUOUS
10
-10.3927234819
20
-22.3213883311
11
-10.3927234819
21
-23.1226497308
0
LINE
5
26A
100
AcDbEntity
8
0
100
AcDbLine
62
9
6
CONTINUOUS
10
-10.3869056521
20
-23.6278312164
11
-10.3869056521
21
-24.4869014213
0
LINE
5
26B
100
AcDbEntity
8
0
100
AcDbLine
62
9
6
CONTINUOUS
10
-10.3869056521
20
23.6278312164
11
-10.3869056521
21
24.4869014213
0
LINE
5
26C
100
AcDbEntity
8
0
100
AcDbLine
62
9
6
CONTINUOUS
10
-10.3919962532
20
23.1226497308
11
-10.3869056521
21
23.6278312164
0
LINE
5
26D
100
AcDbEntity
8
0
100
AcDbLine
62
7
6
CONTINUOUS
10
-8.2500000000
20
22.4000000000
11
-8.2572807489
21
22.3344140523
0
LINE
5
26E
100
AcDbEntity
8
0
100
AcDbLine
62
9
6
CONTINUOUS
10
10.4000042308
20
24.5000000000
11
10.3869056521
21
24.4869014213
0
LINE
5
26F
100
AcDbEntity
8
0
100
AcDbLine
62
9
6
CONTINUOUS
10
10.6500000000
20
24.2500042308
11
10.6369014213
21
24.2369056521
0
LINE
5
270
100
AcDbEntity
8
0
100
AcDbLine
62
9
6
CONTINUOUS
10
10.4000042308
20
-24.5000000000
11
10.3869056521
21
-24.4869014213
0
LINE
5
271
100
AcDbEntity
8
0
100
AcDbLine
62
9
6
CONTINUOUS
10
10.6500000000
20
-24.2500042308
11
10.6369014213
21
-24.2369056521
0
LINE
5
272
100
AcDbEntity
8
0
100
AcDbLine
62
7
6
CONTINUOUS
10
-8.2500000000
20
-22.4000000000
11
-8.2572807489
21
-22.3344140523
0
LINE
5
273
100
AcDbEntity
8
0
100
AcDbLine
62
9
6
CONTINUOUS
10
-8.5130943479
20
23.6278312164
11
-8.5080037468
21
23.1226497308
0
LINE
5
274
100
AcDbEntity
8
0
100
AcDbLine
62
9
6
CONTINUOUS
10
-8.2630985787
20
23.8443375673
11
-8.2572807489
21
23.2669872981
0
LINE
5
275
100
AcDbEntity
8
0
100
AcDbLine
62
9
6
CONTINUOUS
10
-8.5130943479
20
-23.6278312164
11
-8.5130943479
21
-24.4869014213
0
LINE
5
276
100
AcDbEntity
8
0
100
AcDbLine
62
9
6
CONTINUOUS
10
-8.5130943479
20
23.6278312164
11
-8.5130943479
21
24.4869014213
0
LINE
5
277
100
AcDbEntity
8
0
100
AcDbLine
62
9
6
CONTINUOUS
10
-8.5072765181
20
23.1226497308
11
-8.5072765181
21
22.3213883311
0
LINE
5
278
100
AcDbEntity
8
0
100
AcDbLine
62
9
6
CONTINUOUS
10
-8.5072765181
20
-22.3213883311
11
-8.5072765181
21
-23.1226497308
0
LINE
5
279
100
AcDbEntity
8
0
100
AcDbLine
62
9
6
CONTINUOUS
10
-8.2630985787
20
-24.2369056521
11
-8.2630985787
21
-23.8443375673
0
LINE
5
27A
100
AcDbEntity
8
0
100
AcDbLine
62
9
6
CONTINUOUS
10
-8.2630985787
20
23.8443375673
11
-8.2630985787
21
24.2369056521
0
LINE
5
27B
100
AcDbEntity
8
0
100
AcDbLine
62
9
6
CONTINUOUS
10
-8.2572807489
20
23.2669872981
11
-8.2572807489
21
22.3344140523
0
LINE
5
27C
100
AcDbEntity
8
0
100
AcDbLine
62
9
6
CONTINUOUS
10
-8.2572807489
20
-22.3344140523
11
-8.2572807489
21
-23.2669872981
0
LINE
5
27D
100
AcDbEntity
8
0
100
AcDbLine
62
7
6
CONTINUOUS
10
-8.2500000000
20
-22.4000000000
11
-8.2500000000
21
-24.2500042308
0
LINE
5
27E
100
AcDbEntity
8
0
100
AcDbLine
62
7
6
CONTINUOUS
10
-8.2500000000
20
22.4000000000
11
-8.2500000000
21
24.2500042308
0
LINE
5
27F
100
AcDbEntity
8
0
100
AcDbLine
62
9
6
CONTINUOUS
10
-8.5080037468
20
-23.1226497308
11
-8.5130943479
21
-23.6278312164
0
LINE
5
280
100
AcDbEntity
8
0
100
AcDbLine
62
9
6
CONTINUOUS
10
-8.2572807489
20
-23.2669872981
11
-8.2630985787
21
-23.8443375673
0
LINE
5
281
100
AcDbEntity
8
0
100
AcDbLine
62
7
6
CONTINUOUS
10
-4.4000000000
20
-23.8000000000
11
-4.4000000000
21
-22.4000000000
0
LINE
5
282
100
AcDbEntity
8
0
100
AcDbLine
62
7
6
CONTINUOUS
10
-4.4000000000
20
22.4000000000
11
-4.4000000000
21
23.8000000000
0
LINE
5
283
100
AcDbEntity
8
0
100
AcDbLine
62
9
6
CONTINUOUS
10
-4.3970741618
20
23.7970741618
11
-4.3970741618
21
22.3736436632
0
LINE
5
284
100
AcDbEntity
8
0
100
AcDbLine
62
9
6
CONTINUOUS
10
-4.3970741618
20
-22.3736436632
11
-4.3970741618
21
-23.7970741618
0
LINE
5
285
100
AcDbEntity
8
0
100
AcDbLine
62
9
6
CONTINUOUS
10
-3.8970826234
20
23.5953423515
11
-3.8970826234
21
22.3475922207
0
LINE
5
286
100
AcDbEntity
8
0
100
AcDbLine
62
9
6
CONTINUOUS
10
-3.8970826234
20
-22.3475922207
11
-3.8970826234
21
-23.5953423515
0
LINE
5
287
100
AcDbEntity
8
0
100
AcDbLine
62
9
6
CONTINUOUS
10
-11.1325830976
20
-21.8998857286
11
-10.9991998097
21
-21.4994104546
0
LINE
5
288
100
AcDbEntity
8
0
100
AcDbLine
62
9
6
CONTINUOUS
10
-10.9991998097
20
21.4994104546
11
-11.1325830976
21
21.8998857286
0
LINE
5
289
100
AcDbEntity
8
0
100
AcDbLine
62
7
6
CONTINUOUS
10
-4.4000000000
20
-22.4000000000
11
-4.3970741618
21
-22.3736436632
0
LINE
5
28A
100
AcDbEntity
8
0
100
AcDbLine
62
9
6
CONTINUOUS
10
-10.4992759622
20
-21.9987252220
11
-10.6089153400
21
-22.3279108386
0
LINE
5
28B
100
AcDbEntity
8
0
100
AcDbLine
62
9
6
CONTINUOUS
10
-10.6089153400
20
22.3279108386
11
-10.4992759622
21
21.9987252220
0
LINE
5
28C
100
AcDbEntity
8
0
100
AcDbLine
62
7
6
CONTINUOUS
10
-4.4000000000
20
22.4000000000
11
-4.3970741618
21
22.3736436632
0
LINE
5
28D
100
AcDbEntity
8
0
100
AcDbLine
62
7
6
CONTINUOUS
10
4.4000000000
20
22.4000000000
11
4.3970741618
21
22.3736436632
0
LINE
5
28E
100
AcDbEntity
8
0
100
AcDbLine
62
7
6
CONTINUOUS
10
4.4000000000
20
-22.4000000000
11
4.3970741618
21
-22.3736436632
0
LINE
5
28F
100
AcDbEntity
8
0
100
AcDbLine
62
9
6
CONTINUOUS
10
10.4992759622
20
21.9987252220
11
10.6089153400
21
22.3279108386
0
LINE
5
290
100
AcDbEntity
8
0
100
AcDbLine
62
9
6
CONTINUOUS
10
11.1325830976
20
21.8998857286
11
10.9991998097
21
21.4994104546
0
LINE
5
291
100
AcDbEntity
8
0
100
AcDbLine
62
9
6
CONTINUOUS
10
10.6089153400
20
-22.3279108386
11
10.4992759622
21
-21.9987252220
0
LINE
5
292
100
AcDbEntity
8
0
100
AcDbLine
62
9
6
CONTINUOUS
10
10.9991998097
20
-21.4994104546
11
11.1325830976
21
-21.8998857286
0
LINE
5
293
100
AcDbEntity
8
0
100
AcDbLine
62
9
6
CONTINUOUS
10
3.8970826234
20
-23.5953423515
11
3.8970826234
21
-22.3475922207
0
LINE
5
294
100
AcDbEntity
8
0
100
AcDbLine
62
9
6
CONTINUOUS
10
3.8970826234
20
22.3475922207
11
3.8970826234
21
23.5953423515
0
LINE
5
295
100
AcDbEntity
8
0
100
AcDbLine
62
9
6
CONTINUOUS
10
4.3970741618
20
-23.7970741618
11
4.3970741618
21
-22.3736436632
0
LINE
5
296
100
AcDbEntity
8
0
100
AcDbLine
62
9
6
CONTINUOUS
10
4.3970741618
20
22.3736436632
11
4.3970741618
21
23.7970741618
0
LINE
5
297
100
AcDbEntity
8
0
100
AcDbLine
62
7
6
CONTINUOUS
10
4.4000000000
20
23.8000000000
11
4.4000000000
21
22.4000000000
0
LINE
5
298
100
AcDbEntity
8
0
100
AcDbLine
62
7
6
CONTINUOUS
10
4.4000000000
20
-22.4000000000
11
4.4000000000
21
-23.8000000000
0
LINE
5
299
100
AcDbEntity
8
0
100
AcDbLine
62
9
6
CONTINUOUS
10
8.2630985787
20
-23.8443375673
11
8.2572807489
21
-23.2669872981
0
LINE
5
29A
100
AcDbEntity
8
0
100
AcDbLine
62
9
6
CONTINUOUS
10
8.5138215767
20
-23.7000000000
11
8.5080037468
21
-23.1226497308
0
LINE
5
29B
100
AcDbEntity
8
0
100
AcDbLine
62
7
6
CONTINUOUS
10
8.2500000000
20
-22.4000000000
11
8.2500000000
21
-24.2500042308
0
LINE
5
29C
100
AcDbEntity
8
0
100
AcDbLine
62
7
6
CONTINUOUS
10
8.2500000000
20
22.4000000000
11
8.2500000000
21
24.2500042308
0
LINE
5
29D
100
AcDbEntity
8
0
100
AcDbLine
62
9
6
CONTINUOUS
10
8.2572807489
20
-23.2669872981
11
8.2572807489
21
-22.3344140523
0
LINE
5
29E
100
AcDbEntity
8
0
100
AcDbLine
62
9
6
CONTINUOUS
10
8.2572807489
20
22.3344140523
11
8.2572807489
21
23.2669872981
0
LINE
5
29F
100
AcDbEntity
8
0
100
AcDbLine
62
9
6
CONTINUOUS
10
8.2630985787
20
24.2369056521
11
8.2630985787
21
23.8443375673
0
LINE
5
2A0
100
AcDbEntity
8
0
100
AcDbLine
62
9
6
CONTINUOUS
10
8.2630985787
20
-23.8443375673
11
8.2630985787
21
-24.2369056521
0
LINE
5
2A1
100
AcDbEntity
8
0
100
AcDbLine
62
9
6
CONTINUOUS
10
8.5072765181
20
-23.1226497308
11
8.5072765181
21
-22.3213883311
0
LINE
5
2A2
100
AcDbEntity
8
0
100
AcDbLine
62
9
6
CONTINUOUS
10
8.5072765181
20
22.3213883311
11
8.5072765181
21
23.1226497308
0
LINE
5
2A3
100
AcDbEntity
8
0
100
AcDbLine
62
9
6
CONTINUOUS
10
8.5130943479
20
-23.7000000000
11
8.5130943479
21
-24.4869014213
0
LINE
5
2A4
100
AcDbEntity
8
0
100
AcDbLine
62
9
6
CONTINUOUS
10
8.5130943479
20
23.6278312164
11
8.5130943479
21
24.4869014213
0
LINE
5
2A5
100
AcDbEntity
8
0
100
AcDbLine
62
9
6
CONTINUOUS
10
8.2572807489
20
23.2669872981
11
8.2630985787
21
23.8443375673
0
LINE
5
2A6
100
AcDbEntity
8
0
100
AcDbLine
62
9
6
CONTINUOUS
10
8.5080037468
20
23.1226497308
11
8.5130943479
21
23.6278312164
0
LINE
5
2A7
100
AcDbEntity
8
0
100
AcDbLine
62
9
6
CONTINUOUS
10
10.3869056521
20
23.6278312164
11
10.3919962532
21
23.1226497308
0
LINE
5
2A8
100
AcDbEntity
8
0
100
AcDbLine
62
9
6
CONTINUOUS
10
10.6369014213
20
23.8443375673
11
10.6427192511
21
23.2669872981
0
LINE
5
2A9
100
AcDbEntity
8
0
100
AcDbLine
62
9
6
CONTINUOUS
10
10.3869056521
20
-23.7000000000
11
10.3869056521
21
-24.4869014213
0
LINE
5
2AA
100
AcDbEntity
8
0
100
AcDbLine
62
9
6
CONTINUOUS
10
10.3869056521
20
23.6278312164
11
10.3869056521
21
24.4869014213
0
LINE
5
2AB
100
AcDbEntity
8
0
100
AcDbLine
62
9
6
CONTINUOUS
10
10.3927234819
20
-23.1226497308
11
10.3927234819
21
-22.3213883311
0
LINE
5
2AC
100
AcDbEntity
8
0
100
AcDbLine
62
9
6
CONTINUOUS
10
10.3927234819
20
22.3213883311
11
10.3927234819
21
23.1226497308
0
LINE
5
2AD
100
AcDbEntity
8
0
100
AcDbLine
62
9
6
CONTINUOUS
10
10.6369014213
20
-24.2369056521
11
10.6369014213
21
-23.8443375673
0
LINE
5
2AE
100
AcDbEntity
8
0
100
AcDbLine
62
9
6
CONTINUOUS
10
10.6369014213
20
23.8443375673
11
10.6369014213
21
24.2369056521
0
LINE
5
2AF
100
AcDbEntity
8
0
100
AcDbLine
62
9
6
CONTINUOUS
10
10.6427192511
20
-23.2669872981
11
10.6427192511
21
-22.3334109614
0
LINE
5
2B0
100
AcDbEntity
8
0
100
AcDbLine
62
9
6
CONTINUOUS
10
10.6427192511
20
22.3334109614
11
10.6427192511
21
23.2669872981
0
LINE
5
2B1
100
AcDbEntity
8
0
100
AcDbLine
62
7
6
CONTINUOUS
10
10.6500000000
20
-22.3996899680
11
10.6500000000
21
-24.2500042308
0
LINE
5
2B2
100
AcDbEntity
8
0
100
AcDbLine
62
7
6
CONTINUOUS
10
10.6500000000
20
22.3996899680
11
10.6500000000
21
24.2500042308
0
LINE
5
2B3
100
AcDbEntity
8
0
100
AcDbLine
62
7
6
CONTINUOUS
10
11.1500000000
20
-21.8911779406
11
11.1500000000
21
21.8911779406
0
LINE
5
2B4
100
AcDbEntity
8
0
100
AcDbLine
62
9
6
CONTINUOUS
10
10.3919962532
20
-23.1226497308
11
10.3861784233
21
-23.7000000000
0
LINE
5
2B5
100
AcDbEntity
8
0
100
AcDbLine
62
9
6
CONTINUOUS
10
10.6427192511
20
-23.2669872981
11
10.6369014213
21
-23.8443375673
0
LINE
5
2B6
100
AcDbEntity
8
0
100
AcDbLine
62
7
6
CONTINUOUS
10
8.2500000000
20
-22.4000000000
11
8.2572807489
21
-22.3344140523
0
LINE
5
2B7
100
AcDbEntity
8
0
100
AcDbLine
62
9
6
CONTINUOUS
10
-10.6500000000
20
-24.2500042308
11
-10.6369014213
21
-24.2369056521
0
LINE
5
2B8
100
AcDbEntity
8
0
100
AcDbLine
62
9
6
CONTINUOUS
10
-10.4000042308
20
-24.5000000000
11
-10.3869056521
21
-24.4869014213
0
LINE
5
2B9
100
AcDbEntity
8
0
100
AcDbLine
62
9
6
CONTINUOUS
10
-10.6500000000
20
24.2500042308
11
-10.6369014213
21
24.2369056521
0
LINE
5
2BA
100
AcDbEntity
8
0
100
AcDbLine
62
9
6
CONTINUOUS
10
-10.4000042308
20
24.5000000000
11
-10.3869056521
21
24.4869014213
0
LINE
5
2BB
100
AcDbEntity
8
0
100
AcDbLine
62
7
6
CONTINUOUS
10
8.2500000000
20
22.4000000000
11
8.2572807489
21
22.3344140523
0
LINE
5
2BC
100
AcDbEntity
8
0
100
AcDbLine
62
7
6
CONTINUOUS
10
-4.3970741618
20
-23.7970741618
11
-4.4000000000
21
-23.8000000000
0
LINE
5
2BD
100
AcDbEntity
8
0
100
AcDbLine
62
7
6
CONTINUOUS
10
-4.3970741618
20
23.7970741618
11
-4.4000000000
21
23.8000000000
0
LINE
5
2BE
100
AcDbEntity
8
0
100
AcDbLine
62
9
6
CONTINUOUS
10
10.4827491915
20
20.5624683248
11
-10.4827491915
21
20.5624683248
0
LINE
5
2BF
100
AcDbEntity
8
0
100
AcDbLine
62
9
6
CONTINUOUS
10
10.4992759622
20
21.9987252220
11
-10.4992759622
21
21.9987252220
0
LINE
5
2C0
100
AcDbEntity
8
0
100
AcDbLine
62
9
6
CONTINUOUS
10
8.2500000000
20
-24.2500042308
11
8.2630985787
21
-24.2369056521
0
LINE
5
2C1
100
AcDbEntity
8
0
100
AcDbLine
62
9
6
CONTINUOUS
10
8.4999957692
20
-24.5000000000
11
8.5130943479
21
-24.4869014213
0
LINE
5
2C2
100
AcDbEntity
8
0
100
AcDbLine
62
7
6
CONTINUOUS
10
10.3927234819
20
22.3213883311
11
8.5072765181
21
22.3213883311
0
LINE
5
2C3
100
AcDbEntity
8
0
100
AcDbLine
62
7
6
CONTINUOUS
10
-8.5072765181
20
22.3213883311
11
-10.3927234819
21
22.3213883311
0
LINE
5
2C4
100
AcDbEntity
8
0
100
AcDbLine
62
7
6
CONTINUOUS
10
-3.8970826234
20
22.3475922207
11
3.8970826234
21
22.3475922207
0
LINE
5
2C5
100
AcDbEntity
8
0
100
AcDbLine
62
7
6
CONTINUOUS
10
-8.2500000000
20
22.4000000000
11
-4.4000000000
21
22.4000000000
0
LINE
5
2C6
100
AcDbEntity
8
0
100
AcDbLine
62
7
6
CONTINUOUS
10
4.4000000000
20
22.4000000000
11
8.2500000000
21
22.4000000000
0
LINE
5
2C7
100
AcDbEntity
8
0
100
AcDbLine
62
7
6
CONTINUOUS
10
10.3919962532
20
23.1226497308
11
8.5080037468
21
23.1226497308
0
LINE
5
2C8
100
AcDbEntity
8
0
100
AcDbLine
62
7
6
CONTINUOUS
10
-8.5080037468
20
23.1226497308
11
-10.3919962532
21
23.1226497308
0
LINE
5
2C9
100
AcDbEntity
8
0
100
AcDbLine
62
9
6
CONTINUOUS
10
3.8970826234
20
23.5953423515
11
-3.8970826234
21
23.5953423515
0
LINE
5
2CA
100
AcDbEntity
8
0
100
AcDbLine
62
9
6
CONTINUOUS
10
-10.3869056521
20
23.6278312164
11
-8.5130943479
21
23.6278312164
0
LINE
5
2CB
100
AcDbEntity
8
0
100
AcDbLine
62
9
6
CONTINUOUS
10
8.5130943479
20
23.6278312164
11
10.3869056521
21
23.6278312164
0
LINE
5
2CC
100
AcDbEntity
8
0
100
AcDbLine
62
9
6
CONTINUOUS
10
4.2962073137
20
23.7953389668
11
-4.2962073137
21
23.7953389668
0
LINE
5
2CD
100
AcDbEntity
8
0
100
AcDbLine
62
7
6
CONTINUOUS
10
-4.4000000000
20
23.8000000000
11
4.4000000000
21
23.8000000000
0
LINE
5
2CE
100
AcDbEntity
8
0
100
AcDbLine
62
9
6
CONTINUOUS
10
8.2630985787
20
23.8443375673
11
10.6369014213
21
23.8443375673
0
LINE
5
2CF
100
AcDbEntity
8
0
100
AcDbLine
62
9
6
CONTINUOUS
10
-8.2630985787
20
23.8443375673
11
-10.6369014213
21
23.8443375673
0
LINE
5
2D0
100
AcDbEntity
8
0
100
AcDbLine
62
9
6
CONTINUOUS
10
8.2500000000
20
24.2500042308
11
8.2630985787
21
24.2369056521
0
LINE
5
2D1
100
AcDbEntity
8
0
100
AcDbLine
62
9
6
CONTINUOUS
10
8.4999957692
20
24.5000000000
11
8.5130943479
21
24.4869014213
0
LINE
5
2D2
100
AcDbEntity
8
0
100
AcDbLine
62
9
6
CONTINUOUS
10
11.1325830976
20
-21.8998857286
11
11.1500000000
21
-21.8911779406
0
LINE
5
2D3
100
AcDbEntity
8
0
100
AcDbLine
62
7
6
CONTINUOUS
10
10.8560144094
20
-22.3472251339
11
10.8735170020
21
-22.3384745041
0
LINE
5
2D4
100
AcDbEntity
8
0
100
AcDbLine
62
9
6
CONTINUOUS
10
8.2630985787
20
24.2369056521
11
10.6369014213
21
24.2369056521
0
LINE
5
2D5
100
AcDbEntity
8
0
100
AcDbLine
62
9
6
CONTINUOUS
10
-8.2630985787
20
24.2369056521
11
-10.6369014213
21
24.2369056521
0
LINE
5
2D6
100
AcDbEntity
8
0
100
AcDbLine
62
9
6
CONTINUOUS
10
10.3869056521
20
24.4869014213
11
8.5130943479
21
24.4869014213
0
LINE
5
2D7
100
AcDbEntity
8
0
100
AcDbLine
62
9
6
CONTINUOUS
10
-8.5130943479
20
24.4869014213
11
-10.3869056521
21
24.4869014213
0
LINE
5
2D8
100
AcDbEntity
8
0
100
AcDbLine
62
7
6
CONTINUOUS
10
-10.4000042308
20
24.5000000000
11
-8.4999957692
21
24.5000000000
0
LINE
5
2D9
100
AcDbEntity
8
0
100
AcDbLine
62
7
6
CONTINUOUS
10
8.4999957692
20
24.5000000000
11
10.4000042308
21
24.5000000000
0
LINE
5
2DA
100
AcDbEntity
8
0
100
AcDbLine
62
9
6
CONTINUOUS
10
11.1500000000
20
21.8911779406
11
11.1325830976
21
21.8998857286
0
LINE
5
2DB
100
AcDbEntity
8
0
100
AcDbLine
62
7
6
CONTINUOUS
10
10.8735170020
20
22.3384745041
11
10.8560144094
21
22.3472251339
0
LINE
5
2DC
100
AcDbEntity
8
0
100
AcDbLine
62
7
6
CONTINUOUS
10
-36.6761201721
20
-24.4956281660
11
-37.4275746049
21
-24.5000000000
0
LINE
5
2DD
100
AcDbEntity
8
0
100
AcDbLine
62
9
6
CONTINUOUS
10
-36.6761201721
20
-24.2456323968
11
-37.4275746049
21
-24.2500042308
0
LINE
5
2DE
100
AcDbEntity
8
0
100
AcDbLine
62
7
6
CONTINUOUS
10
-36.4326659733
20
-23.7942117909
11
-29.9246657393
21
-23.7563493531
0
LINE
5
2DF
100
AcDbEntity
8
0
100
AcDbLine
62
9
6
CONTINUOUS
10
-36.4275746049
20
-24.2456323968
11
-36.6761201721
21
-24.2456323968
0
LINE
5
2E0
100
AcDbEntity
8
0
100
AcDbLine
62
9
6
CONTINUOUS
10
-39.9275746049
20
-24.2369056521
11
-39.6790290378
21
-24.2369056521
0
LINE
5
2E1
100
AcDbEntity
8
0
100
AcDbLine
62
9
6
CONTINUOUS
10
-36.4275746049
20
-23.8443375673
11
-36.6761201721
21
-23.8443375673
0
LINE
5
2E2
100
AcDbEntity
8
0
100
AcDbLine
62
7
6
CONTINUOUS
10
-37.4275746049
20
-24.5000000000
11
-39.6790290378
21
-24.4869014213
0
LINE
5
2E3
100
AcDbEntity
8
0
100
AcDbLine
62
9
6
CONTINUOUS
10
-37.4275746049
20
-24.2500042308
11
-39.6790290378
21
-24.2369056521
0
LINE
5
2E4
100
AcDbEntity
8
0
100
AcDbLine
62
7
6
CONTINUOUS
10
-27.4188480694
20
-22.3126551668
11
-37.4275746049
21
-22.4000000000
0
LINE
5
2E5
100
AcDbEntity
8
0
100
AcDbLine
62
9
6
CONTINUOUS
10
-37.4253882759
20
-21.8998857286
11
-36.4275746049
21
-21.8911779406
0
LINE
5
2E6
100
AcDbEntity
8
0
100
AcDbLine
62
7
6
CONTINUOUS
10
-26.9188484017
20
-21.5659754333
11
-36.4275746049
21
-21.4000000000
0
LINE
5
2E7
100
AcDbEntity
8
0
100
AcDbLine
62
7
6
CONTINUOUS
10
-38.8031177469
20
-22.3279108386
11
-45.0843534938
21
-21.9987252220
0
LINE
5
2E8
100
AcDbEntity
8
0
100
AcDbLine
62
9
6
CONTINUOUS
10
-45.0669117189
20
-21.4994104546
11
-37.4253882759
21
-21.8998857286
0
LINE
5
2E9
100
AcDbEntity
8
0
100
AcDbLine
62
9
6
CONTINUOUS
10
-37.4275746049
20
23.4104851482
11
-36.6761201721
21
23.8443375673
0
LINE
5
2EA
100
AcDbEntity
8
0
100
AcDbLine
62
7
6
CONTINUOUS
10
-37.4275746049
20
23.1226497308
11
-36.4275746049
21
23.7000000000
0
LINE
5
2EB
100
AcDbEntity
8
0
100
AcDbLine
62
9
6
CONTINUOUS
10
-46.0137297746
20
-20.5419058565
11
-46.5045803024
21
-20.5624683135
0
LINE
5
2EC
100
AcDbEntity
8
0
100
AcDbLine
62
7
6
CONTINUOUS
10
-26.4275746049
20
-20.9000000000
11
-36.4275746049
21
-20.9000000000
0
LINE
5
2ED
100
AcDbEntity
8
0
100
AcDbLine
62
9
6
CONTINUOUS
10
-36.6761201721
20
-23.8443375673
11
-37.4275746049
21
-23.4104851482
0
LINE
5
2EE
100
AcDbEntity
8
0
100
AcDbLine
62
7
6
CONTINUOUS
10
-36.5525746049
20
-23.6278312164
11
-37.4275746049
21
-23.1226497308
0
LINE
5
2EF
100
AcDbEntity
8
0
100
AcDbLine
62
9
6
CONTINUOUS
10
-26.7258292855
20
-19.0274741148
11
-26.4275746049
21
-19.0274741148
0
LINE
5
2F0
100
AcDbEntity
8
0
100
AcDbLine
62
7
6
CONTINUOUS
10
-39.9275746049
20
-24.2369056521
11
-39.9275746049
21
-23.7000000000
0
LINE
5
2F1
100
AcDbEntity
8
0
100
AcDbLine
62
7
6
CONTINUOUS
10
-39.9275746049
20
23.8443375673
11
-39.9275746049
21
24.2369056521
0
LINE
5
2F2
100
AcDbEntity
8
0
100
AcDbLine
62
9
6
CONTINUOUS
10
-39.6790290378
20
-24.2369056521
11
-39.6790290378
21
-23.8443375673
0
LINE
5
2F3
100
AcDbEntity
8
0
100
AcDbLine
62
9
6
CONTINUOUS
10
-39.6790290378
20
23.8443375673
11
-39.6790290378
21
24.2369056521
0
LINE
5
2F4
100
AcDbEntity
8
0
100
AcDbLine
62
7
6
CONTINUOUS
10
-38.9275746049
20
-23.1226497308
11
-38.9275746049
21
-22.3213883311
0
LINE
5
2F5
100
AcDbEntity
8
0
100
AcDbLine
62
7
6
CONTINUOUS
10
-38.9275746049
20
22.3213883311
11
-38.9275746049
21
23.1226497308
0
LINE
5
2F6
100
AcDbEntity
8
0
100
AcDbLine
62
9
6
CONTINUOUS
10
-38.6790290378
20
-23.2669872981
11
-38.6790290378
21
-22.3334109614
0
LINE
5
2F7
100
AcDbEntity
8
0
100
AcDbLine
62
9
6
CONTINUOUS
10
-38.6790290378
20
22.3334109614
11
-38.6790290378
21
23.2669872981
0
LINE
5
2F8
100
AcDbEntity
8
0
100
AcDbLine
62
7
6
CONTINUOUS
10
-37.4275746049
20
-22.3996899680
11
-37.4275746049
21
-24.2500042308
0
LINE
5
2F9
100
AcDbEntity
8
0
100
AcDbLine
62
7
6
CONTINUOUS
10
-37.4275746049
20
22.3996899680
11
-37.4275746049
21
24.2500042308
0
LINE
5
2FA
100
AcDbEntity
8
0
100
AcDbLine
62
9
6
CONTINUOUS
10
-36.6761201721
20
24.2456323968
11
-36.6761201721
21
23.8443375673
0
LINE
5
2FB
100
AcDbEntity
8
0
100
AcDbLine
62
9
6
CONTINUOUS
10
-36.6761201721
20
-23.8443375673
11
-36.6761201721
21
-24.2456323968
0
LINE
5
2FC
100
AcDbEntity
8
0
100
AcDbLine
62
7
6
CONTINUOUS
10
-36.4275746049
20
24.2456323968
11
-36.4275746049
21
23.7000000000
0
LINE
5
2FD
100
AcDbEntity
8
0
100
AcDbLine
62
7
6
CONTINUOUS
10
-36.4275746049
20
-23.8443375673
11
-36.4275746049
21
-24.2456323968
0
LINE
5
2FE
100
AcDbEntity
8
0
100
AcDbLine
62
7
6
CONTINUOUS
10
-36.4275746049
20
-22.3912731322
11
-36.4275746049
21
22.3912731322
0
LINE
5
2FF
100
AcDbEntity
8
0
100
AcDbLine
62
9
6
CONTINUOUS
10
-29.8530547782
20
-22.3338981669
11
-29.8530547782
21
-23.7507734247
0
LINE
5
300
100
AcDbEntity
8
0
100
AcDbLine
62
9
6
CONTINUOUS
10
-29.8530547782
20
22.3338981669
11
-29.8530547782
21
23.7507734247
0
LINE
5
301
100
AcDbEntity
8
0
100
AcDbLine
62
7
6
CONTINUOUS
10
-29.4275746049
20
-22.3301954120
11
-29.4275746049
21
-23.2563578147
0
LINE
5
302
100
AcDbEntity
8
0
100
AcDbLine
62
7
6
CONTINUOUS
10
-29.4275746049
20
22.3301954120
11
-29.4275746049
21
23.2563578147
0
LINE
5
303
100
AcDbEntity
8
0
100
AcDbLine
62
9
6
CONTINUOUS
10
-26.9188484017
20
21.5659754333
11
-26.9188484017
21
20.9000000000
0
LINE
5
304
100
AcDbEntity
8
0
100
AcDbLine
62
9
6
CONTINUOUS
10
-26.9188484017
20
-20.9000000000
11
-26.9188484017
21
-21.5659754333
0
LINE
5
305
100
AcDbEntity
8
0
100
AcDbLine
62
9
6
CONTINUOUS
10
-26.7258292855
20
-20.9000000000
11
-26.7258292855
21
-19.0274741148
0
LINE
5
306
100
AcDbEntity
8
0
100
AcDbLine
62
9
6
CONTINUOUS
10
-26.7258292855
20
19.0274741148
11
-26.7258292855
21
20.9000000000
0
LINE
5
307
100
AcDbEntity
8
0
100
AcDbLine
62
7
6
CONTINUOUS
10
-26.4275746049
20
-21.3126932437
11
-26.4275746049
21
-18.8750000630
0
LINE
5
308
100
AcDbEntity
8
0
100
AcDbLine
62
7
6
CONTINUOUS
10
-26.4275746049
20
18.8750000630
11
-26.4275746049
21
21.3126932437
0
LINE
5
309
100
AcDbEntity
8
0
100
AcDbLine
62
7
6
CONTINUOUS
10
-38.9275746049
20
-23.1226497308
11
-39.9275746049
21
-23.7000000000
0
LINE
5
30A
100
AcDbEntity
8
0
100
AcDbLine
62
9
6
CONTINUOUS
10
-38.6790290378
20
-23.2669872981
11
-39.6790290378
21
-23.8443375673
0
LINE
5
30B
100
AcDbEntity
8
0
100
AcDbLine
62
9
6
CONTINUOUS
10
-26.7258292855
20
19.0274741148
11
-26.4275746049
21
19.0274741148
0
LINE
5
30C
100
AcDbEntity
8
0
100
AcDbLine
62
7
6
CONTINUOUS
10
-39.8025746049
20
23.6278312164
11
-38.9275746049
21
23.1226497308
0
LINE
5
30D
100
AcDbEntity
8
0
100
AcDbLine
62
9
6
CONTINUOUS
10
-39.6790290378
20
23.8443375673
11
-38.6790290378
21
23.2669872981
0
LINE
5
30E
100
AcDbEntity
8
0
100
AcDbLine
62
7
6
CONTINUOUS
10
-26.9188484017
20
21.5659754333
11
-36.4275746049
21
21.4000000000
0
LINE
5
30F
100
AcDbEntity
8
0
100
AcDbLine
62
7
6
CONTINUOUS
10
-26.4275746049
20
20.9000000000
11
-36.4275746049
21
20.9000000000
0
LINE
5
310
100
AcDbEntity
8
0
100
AcDbLine
62
9
6
CONTINUOUS
10
-46.0137297746
20
20.5419058565
11
-46.5045805772
21
20.5624683248
0
LINE
5
311
100
AcDbEntity
8
0
100
AcDbLine
62
9
6
CONTINUOUS
10
-37.4253882759
20
21.8998857286
11
-45.0669117189
21
21.4994104546
0
LINE
5
312
100
AcDbEntity
8
0
100
AcDbLine
62
7
6
CONTINUOUS
10
-45.0843534938
20
21.9987252220
11
-38.8031177469
21
22.3279108386
0
LINE
5
313
100
AcDbEntity
8
0
100
AcDbLine
62
9
6
CONTINUOUS
10
-36.4275746049
20
21.8911779406
11
-37.4253882759
21
21.8998857286
0
LINE
5
314
100
AcDbEntity
8
0
100
AcDbLine
62
7
6
CONTINUOUS
10
-27.4188480694
20
22.3126551668
11
-37.4275746049
21
22.4000000000
0
LINE
5
315
100
AcDbEntity
8
0
100
AcDbLine
62
9
6
CONTINUOUS
10
-37.4275746049
20
24.2500042308
11
-39.6790290378
21
24.2369056521
0
LINE
5
316
100
AcDbEntity
8
0
100
AcDbLine
62
7
6
CONTINUOUS
10
-37.4275746049
20
24.5000000000
11
-39.6790290378
21
24.4869014213
0
LINE
5
317
100
AcDbEntity
8
0
100
AcDbLine
62
9
6
CONTINUOUS
10
-39.9275746049
20
23.8443375673
11
-39.6790290378
21
23.8443375673
0
LINE
5
318
100
AcDbEntity
8
0
100
AcDbLine
62
9
6
CONTINUOUS
10
-39.9275746049
20
24.2369056521
11
-39.6790290378
21
24.2369056521
0
LINE
5
319
100
AcDbEntity
8
0
100
AcDbLine
62
9
6
CONTINUOUS
10
-36.4275746049
20
24.2456323968
11
-36.6761201721
21
24.2456323968
0
LINE
5
31A
100
AcDbEntity
8
0
100
AcDbLine
62
7
6
CONTINUOUS
10
-36.4275746049
20
23.7941821702
11
-29.9246657393
21
23.7563493531
0
LINE
5
31B
100
AcDbEntity
8
0
100
AcDbLine
62
9
6
CONTINUOUS
10
-36.6761201721
20
24.2456323968
11
-37.4275746049
21
24.2500042308
0
LINE
5
31C
100
AcDbEntity
8
0
100
AcDbLine
62
7
6
CONTINUOUS
10
-36.6761201721
20
24.4956281660
11
-37.4275746049
21
24.5000000000
0
ARC
5
31D
100
AcDbEntity
8
0
100
AcDbCircle
62
7
6
CONTINUOUS
10
-26.7275746049
20
18.8750000630
40
0.3000000000
100
AcDbArc
50
290.0000001488
51
360.0000000000
0
ARC
5
31E
100
AcDbEntity
8
0
100
AcDbCircle
62
7
6
CONTINUOUS
10
-26.7275746049
20
-18.8750000630
40
0.3000000000
100
AcDbArc
50
0.0000000000
51
69.9999998512
0
ARC
5
31F
100
AcDbEntity
8
0
100
AcDbCircle
62
7
6
CONTINUOUS
10
-39.6775746049
20
24.2369056521
40
0.2500000000
100
AcDbArc
50
90.3333333333
51
180.0000000000
0
ARC
5
320
100
AcDbEntity
8
0
100
AcDbCircle
62
7
6
CONTINUOUS
10
-36.6775746049
20
24.2456323968
40
0.2500000000
100
AcDbArc
50
0.0000000000
51
89.6666666667
0
ARC
5
321
100
AcDbEntity
8
0
100
AcDbCircle
62
7
6
CONTINUOUS
10
-39.6775746049
20
23.8443375673
40
0.2500000000
100
AcDbArc
50
180.0000000000
51
240.0000000000
0
ARC
5
322
100
AcDbEntity
8
0
100
AcDbCircle
62
7
6
CONTINUOUS
10
-36.6775746049
20
-24.2456323968
40
0.2500000000
100
AcDbArc
50
270.3333333333
51
360.0000000000
0
ARC
5
323
100
AcDbEntity
8
0
100
AcDbCircle
62
7
6
CONTINUOUS
10
-36.6775746049
20
-23.8443375673
40
0.2500000000
100
AcDbArc
50
0.0000000000
51
60.0000000000
0
ARC
5
324
100
AcDbEntity
8
0
100
AcDbCircle
62
7
6
CONTINUOUS
10
-39.6775746049
20
-24.2369056521
40
0.2500000000
100
AcDbArc
50
180.0000000000
51
269.6666666667
0
ARC
5
325
100
AcDbEntity
8
0
100
AcDbCircle
62
7
6
CONTINUOUS
10
-27.4275746049
20
21.3126932437
40
1.0000000000
100
AcDbArc
50
0.0000000000
51
89.5000000000
0
ARC
5
326
100
AcDbEntity
8
0
100
AcDbCircle
62
7
6
CONTINUOUS
10
-27.4275746049
20
-21.3126932437
40
1.0000000000
100
AcDbArc
50
270.5000000000
51
360.0000000000
0
ARC
5
327
100
AcDbEntity
8
0
100
AcDbCircle
62
7
6
CONTINUOUS
10
-45.0058495595
20
-20.5007809198
40
1.5000000000
100
AcDbArc
50
182.3569499908
51
267.0000000000
0
ARC
5
328
100
AcDbEntity
8
0
100
AcDbCircle
62
7
6
CONTINUOUS
10
453.0724253951
20
-0.0000000000
40
500.0000000000
100
AcDbArc
50
177.6430500092
51
182.3569499908
0
ARC
5
329
100
AcDbEntity
8
0
100
AcDbCircle
62
7
6
CONTINUOUS
10
-45.0058495595
20
20.5007809198
40
1.5000000000
100
AcDbArc
50
93.0000000000
51
177.6430500092
0
ARC
5
32A
100
AcDbEntity
8
0
100
AcDbCircle
62
7
6
CONTINUOUS
10
-29.9275746049
20
23.2563578147
40
0.5000000000
100
AcDbArc
50
0.0000000000
51
89.6666666667
0
ARC
5
32B
100
AcDbEntity
8
0
100
AcDbCircle
62
7
6
CONTINUOUS
10
-29.9275746049
20
-23.2563578147
40
0.5000000000
100
AcDbArc
50
270.3333333333
51
360.0000000000
0
SPLINE
5
32C
100
AcDbEntity
8
0
100
AcDbSpline
62
7
6
CONTINUOUS
70
0
71
3
72
15
73
11
74
9
42
0.0000001000
43
0.0000001000
44
0.0000000001
12
0.4952922600
22
-0.2476022018
32
0.0000000000
13
0.0000000000
23
-0.5532600274
33
0.0000000000
40
0.0000000000
40
0.0000000000
40
0.0000000000
40
0.0000000000
40
0.0973271354
40
0.2260972216
40
0.3552949958
40
0.4840559134
40
0.6132095317
40
0.7420195137
40
0.8710792965
40
1.0000000000
40
1.0000000000
40
1.0000000000
40
1.0000000000
10
10.8734892683
20
22.3384881053
30
0.0000000000
10
10.8895577272
20
22.3304553010
30
0.0000000000
10
10.9258803132
20
22.3097839333
30
0.0000000000
10
10.9785133221
20
22.2703852361
30
0.0000000000
10
11.0291183119
20
22.2197828463
30
0.0000000000
10
11.0720480762
20
22.1624385675
30
0.0000000000
10
11.1063477548
20
22.0996311764
30
0.0000000000
10
11.1313770521
20
22.0325270865
30
0.0000000000
10
11.1465947218
20
21.9626000337
30
0.0000000000
10
11.1500000000
20
21.9149534979
30
0.0000000000
10
11.1500000000
20
21.8911779406
30
0.0000000000
11
10.8734892683
21
22.3384881053
31
0.0000000000
11
10.9203048160
21
22.3118432343
31
0.0000000000
11
10.9773389181
21
22.2691498520
31
0.0000000000
11
11.0278841245
21
22.2186071238
31
0.0000000000
11
11.0705771581
21
22.1615790971
31
0.0000000000
11
11.1048249336
21
22.0988655956
31
0.0000000000
11
11.1297312385
21
22.0320940804
31
0.0000000000
11
11.1449122344
21
21.9623229248
31
0.0000000000
11
11.1500000000
21
21.8911779406
31
0.0000000000
0
SPLINE
5
32D
100
AcDbEntity
8
0
100
AcDbSpline
62
7
6
CONTINUOUS
70
0
71
3
72
11
73
7
74
5
42
0.0000001000
43
0.0000001000
44
0.0000000001
12
-0.1916277652
22
-0.0958221412
32
0.0000000000
13
-0.2139705222
23
-0.0075033280
33
0.0000000000
40
0.0000000000
40
0.0000000000
40
0.0000000000
40
0.0000000000
40
0.0922585923
40
0.3945010835
40
0.6980582833
40
1.0000000000
40
1.0000000000
40
1.0000000000
40
1.0000000000
10
10.8560369892
20
-22.3472136320
30
0.0000000000
10
10.8501438865
20
-22.3501604372
30
0.0000000000
10
10.8246956982
20
-22.3622632552
30
0.0000000000
10
10.7779275640
20
-22.3798337624
30
0.0000000000
10
10.7146746924
20
-22.3946180558
30
0.0000000000
10
10.6715346814
20
-22.3989360094
30
0.0000000000
10
10.6499991391
20
-22.3996911987
30
0.0000000000
11
10.8560369892
21
-22.3472136320
31
0.0000000000
11
10.8381874588
21
-22.3557023577
31
0.0000000000
11
10.7776108967
21
-22.3784610765
31
0.0000000000
11
10.7143238870
21
-22.3932510251
31
0.0000000000
11
10.6499991391
21
-22.3996911987
31
0.0000000000
0
SPLINE
5
32E
100
AcDbEntity
8
0
100
AcDbSpline
62
7
6
CONTINUOUS
70
0
71
3
72
11
73
7
74
5
42
0.0000001000
43
0.0000001000
44
0.0000000001
12
0.1916277652
22
0.0958221412
32
0.0000000000
13
0.2139705222
23
0.0075033280
33
0.0000000000
40
0.0000000000
40
0.0000000000
40
0.0000000000
40
0.0000000000
40
0.0922585923
40
0.3945010835
40
0.6980582833
40
1.0000000000
40
1.0000000000
40
1.0000000000
40
1.0000000000
10
-10.8560369892
20
22.3472136320
30
0.0000000000
10
-10.8501438865
20
22.3501604372
30
0.0000000000
10
-10.8246956982
20
22.3622632552
30
0.0000000000
10
-10.7779275640
20
22.3798337624
30
0.0000000000
10
-10.7146746924
20
22.3946180558
30
0.0000000000
10
-10.6715346814
20
22.3989360094
30
0.0000000000
10
-10.6499991391
20
22.3996911987
30
0.0000000000
11
-10.8560369892
21
22.3472136320
31
0.0000000000
11
-10.8381874588
21
22.3557023577
31
0.0000000000
11
-10.7776108967
21
22.3784610765
31
0.0000000000
11
-10.7143238870
21
22.3932510251
31
0.0000000000
11
-10.6499991391
21
22.3996911987
31
0.0000000000
0
SPLINE
5
32F
100
AcDbEntity
8
0
100
AcDbSpline
62
7
6
CONTINUOUS
70
0
71
3
72
15
73
11
74
9
42
0.0000001000
43
0.0000001000
44
0.0000000001
12
-0.4952922600
22
0.2476022018
32
0.0000000000
13
-0.0000000000
23
0.5532600274
33
0.0000000000
40
0.0000000000
40
0.0000000000
40
0.0000000000
40
0.0000000000
40
0.0973271354
40
0.2260972216
40
0.3552949958
40
0.4840559134
40
0.6132095317
40
0.7420195137
40
0.8710792965
40
1.0000000000
40
1.0000000000
40
1.0000000000
40
1.0000000000
10
-10.8734892683
20
-22.3384881053
30
0.0000000000
10
-10.8895577272
20
-22.3304553010
30
0.0000000000
10
-10.9258803132
20
-22.3097839333
30
0.0000000000
10
-10.9785133221
20
-22.2703852361
30
0.0000000000
10
-11.0291183119
20
-22.2197828463
30
0.0000000000
10
-11.0720480762
20
-22.1624385675
30
0.0000000000
10
-11.1063477548
20
-22.0996311764
30
0.0000000000
10
-11.1313770521
20
-22.0325270865
30
0.0000000000
10
-11.1465947218
20
-21.9626000337
30
0.0000000000
10
-11.1500000000
20
-21.9149534979
30
0.0000000000
10
-11.1500000000
20
-21.8911779406
30
0.0000000000
11
-10.8734892683
21
-22.3384881053
31
0.0000000000
11
-10.9203048160
21
-22.3118432343
31
0.0000000000
11
-10.9773389181
21
-22.2691498520
31
0.0000000000
11
-11.0278841245
21
-22.2186071238
31
0.0000000000
11
-11.0705771581
21
-22.1615790971
31
0.0000000000
11
-11.1048249336
21
-22.0988655956
31
0.0000000000
11
-11.1297312385
21
-22.0320940804
31
0.0000000000
11
-11.1449122344
21
-21.9623229248
31
0.0000000000
11
-11.1500000000
21
-21.8911779406
31
0.0000000000
0
SPLINE
5
330
100
AcDbEntity
8
0
100
AcDbSpline
62
7
6
CONTINUOUS
70
0
71
3
72
18
73
14
74
12
42
0.0000001000
43
0.0000001000
44
0.0000000001
12
0.0000000000
22
0.3923594660
32
0.0000000000
13
-0.3923594660
23
-0.0000000000
33
0.0000000000
40
0.0000000000
40
0.0000000000
40
0.0000000000
40
0.0000000000
40
0.0909090103
40
0.1818180598
40
0.2727271497
40
0.3636362742
40
0.4545454220
40
0.5454545780
40
0.6363637258
40
0.7272728503
40
0.8181819402
40
0.9090909897
40
1.0000000000
40
1.0000000000
40
1.0000000000
40
1.0000000000
10
-8.2500000000
20
24.2500042308
30
0.0000000000
10
-8.2500000000
20
24.2618939010
30
0.0000000000
10
-8.2517021175
20
24.2857081657
30
0.0000000000
10
-8.2593097498
20
24.3206748036
30
0.0000000000
10
-8.2718170463
20
24.3542103388
30
0.0000000000
10
-8.2889694484
20
24.3856225554
30
0.0000000000
10
-8.3104178256
20
24.4142744980
30
0.0000000000
10
-8.3357255020
20
24.4395821744
30
0.0000000000
10
-8.3643774446
20
24.4610305516
30
0.0000000000
10
-8.3957896612
20
24.4781829537
30
0.0000000000
10
-8.4293251964
20
24.4906902502
30
0.0000000000
10
-8.4642918343
20
24.4982978825
30
0.0000000000
10
-8.4881060990
20
24.5000000000
30
0.0000000000
10
-8.4999957692
20
24.5000000000
30
0.0000000000
11
-8.2500000000
21
24.2500042308
31
0.0000000000
11
-8.2525445259
21
24.2855823661
31
0.0000000000
11
-8.2601263583
21
24.3204362790
31
0.0000000000
11
-8.2725912278
21
24.3538564463
31
0.0000000000
11
-8.2896854419
21
24.3851625059
31
0.0000000000
11
-8.3110610411
21
24.4137171191
31
0.0000000000
11
-8.3362828809
21
24.4389389589
31
0.0000000000
11
-8.3648374941
21
24.4603145581
31
0.0000000000
11
-8.3961435537
21
24.4774087722
31
0.0000000000
11
-8.4295637210
21
24.4898736417
31
0.0000000000
11
-8.4644176339
21
24.4974554741
31
0.0000000000
11
-8.4999957692
21
24.5000000000
31
0.0000000000
0
SPLINE
5
331
100
AcDbEntity
8
0
100
AcDbSpline
62
7
6
CONTINUOUS
70
0
71
3
72
18
73
14
74
12
42
0.0000001000
43
0.0000001000
44
0.0000000001
12
-0.3923594660
22
0.0000000000
32
0.0000000000
13
0.0000000000
23
-0.3923594660
33
0.0000000000
40
0.0000000000
40
0.0000000000
40
0.0000000000
40
0.0000000000
40
0.0909090103
40
0.1818180598
40
0.2727271497
40
0.3636362742
40
0.4545454220
40
0.5454545780
40
0.6363637258
40
0.7272728503
40
0.8181819402
40
0.9090909897
40
1.0000000000
40
1.0000000000
40
1.0000000000
40
1.0000000000
10
-10.4000042308
20
24.5000000000
30
0.0000000000
10
-10.4118939010
20
24.5000000000
30
0.0000000000
10
-10.4357081657
20
24.4982978825
30
0.0000000000
10
-10.4706748036
20
24.4906902502
30
0.0000000000
10
-10.5042103388
20
24.4781829537
30
0.0000000000
10
-10.5356225554
20
24.4610305516
30
0.0000000000
10
-10.5642744980
20
24.4395821744
30
0.0000000000
10
-10.5895821744
20
24.4142744980
30
0.0000000000
10
-10.6110305516
20
24.3856225554
30
0.0000000000
10
-10.6281829537
20
24.3542103388
30
0.0000000000
10
-10.6406902502
20
24.3206748036
30
0.0000000000
10
-10.6482978825
20
24.2857081657
30
0.0000000000
10
-10.6500000000
20
24.2618939010
30
0.0000000000
10
-10.6500000000
20
24.2500042308
30
0.0000000000
11
-10.4000042308
21
24.5000000000
31
0.0000000000
11
-10.4355823661
21
24.4974554741
31
0.0000000000
11
-10.4704362790
21
24.4898736417
31
0.0000000000
11
-10.5038564463
21
24.4774087722
31
0.0000000000
11
-10.5351625059
21
24.4603145581
31
0.0000000000
11
-10.5637171191
21
24.4389389589
31
0.0000000000
11
-10.5889389589
21
24.4137171191
31
0.0000000000
11
-10.6103145581
21
24.3851625059
31
0.0000000000
11
-10.6274087722
21
24.3538564463
31
0.0000000000
11
-10.6398736417
21
24.3204362790
31
0.0000000000
11
-10.6474554741
21
24.2855823661
31
0.0000000000
11
-10.6500000000
21
24.2500042308
31
0.0000000000
0
SPLINE
5
332
100
AcDbEntity
8
0
100
AcDbSpline
62
7
6
CONTINUOUS
70
0
71
3
72
18
73
14
74
12
42
0.0000001000
43
0.0000001000
44
0.0000000001
12
0.0000000000
22
0.3923594660
32
0.0000000000
13
-0.3923594660
23
0.0000000000
33
0.0000000000
40
0.0000000000
40
0.0000000000
40
0.0000000000
40
0.0000000000
40
0.0909090103
40
0.1818180598
40
0.2727271497
40
0.3636362742
40
0.4545454220
40
0.5454545780
40
0.6363637258
40
0.7272728503
40
0.8181819402
40
0.9090909897
40
1.0000000000
40
1.0000000000
40
1.0000000000
40
1.0000000000
10
10.6500000000
20
24.2500042308
30
0.0000000000
10
10.6500000000
20
24.2618939010
30
0.0000000000
10
10.6482978825
20
24.2857081657
30
0.0000000000
10
10.6406902502
20
24.3206748036
30
0.0000000000
10
10.6281829537
20
24.3542103388
30
0.0000000000
10
10.6110305516
20
24.3856225554
30
0.0000000000
10
10.5895821744
20
24.4142744980
30
0.0000000000
10
10.5642744980
20
24.4395821744
30
0.0000000000
10
10.5356225554
20
24.4610305516
30
0.0000000000
10
10.5042103388
20
24.4781829537
30
0.0000000000
10
10.4706748036
20
24.4906902502
30
0.0000000000
10
10.4357081657
20
24.4982978825
30
0.0000000000
10
10.4118939010
20
24.5000000000
30
0.0000000000
10
10.4000042308
20
24.5000000000
30
0.0000000000
11
10.6500000000
21
24.2500042308
31
0.0000000000
11
10.6474554741
21
24.2855823661
31
0.0000000000
11
10.6398736417
21
24.3204362790
31
0.0000000000
11
10.6274087722
21
24.3538564463
31
0.0000000000
11
10.6103145581
21
24.3851625059
31
0.0000000000
11
10.5889389589
21
24.4137171191
31
0.0000000000
11
10.5637171191
21
24.4389389589
31
0.0000000000
11
10.5351625059
21
24.4603145581
31
0.0000000000
11
10.5038564463
21
24.4774087722
31
0.0000000000
11
10.4704362790
21
24.4898736417
31
0.0000000000
11
10.4355823661
21
24.4974554741
31
0.0000000000
11
10.4000042308
21
24.5000000000
31
0.0000000000
0
SPLINE
5
333
100
AcDbEntity
8
0
100
AcDbSpline
62
7
6
CONTINUOUS
70
0
71
3
72
18
73
14
74
12
42
0.0000001000
43
0.0000001000
44
0.0000000001
12
-0.3923594660
22
0.0000000000
32
0.0000000000
13
-0.0000000000
23
-0.3923594660
33
0.0000000000
40
0.0000000000
40
0.0000000000
40
0.0000000000
40
0.0000000000
40
0.0909090103
40
0.1818180598
40
0.2727271497
40
0.3636362742
40
0.4545454220
40
0.5454545780
40
0.6363637258
40
0.7272728503
40
0.8181819402
40
0.9090909897
40
1.0000000000
40
1.0000000000
40
1.0000000000
40
1.0000000000
10
8.4999957692
20
24.5000000000
30
0.0000000000
10
8.4881060990
20
24.5000000000
30
0.0000000000
10
8.4642918343
20
24.4982978825
30
0.0000000000
10
8.4293251964
20
24.4906902502
30
0.0000000000
10
8.3957896612
20
24.4781829537
30
0.0000000000
10
8.3643774446
20
24.4610305516
30
0.0000000000
10
8.3357255020
20
24.4395821744
30
0.0000000000
10
8.3104178256
20
24.4142744980
30
0.0000000000
10
8.2889694484
20
24.3856225554
30
0.0000000000
10
8.2718170463
20
24.3542103388
30
0.0000000000
10
8.2593097498
20
24.3206748036
30
0.0000000000
10
8.2517021175
20
24.2857081657
30
0.0000000000
10
8.2500000000
20
24.2618939010
30
0.0000000000
10
8.2500000000
20
24.2500042308
30
0.0000000000
11
8.4999957692
21
24.5000000000
31
0.0000000000
11
8.4644176339
21
24.4974554741
31
0.0000000000
11
8.4295637210
21
24.4898736417
31
0.0000000000
11
8.3961435537
21
24.4774087722
31
0.0000000000
11
8.3648374941
21
24.4603145581
31
0.0000000000
11
8.3362828809
21
24.4389389589
31
0.0000000000
11
8.3110610411
21
24.4137171191
31
0.0000000000
11
8.2896854419
21
24.3851625059
31
0.0000000000
11
8.2725912278
21
24.3538564463
31
0.0000000000
11
8.2601263583
21
24.3204362790
31
0.0000000000
11
8.2525445259
21
24.2855823661
31
0.0000000000
11
8.2500000000
21
24.2500042308
31
0.0000000000
0
SPLINE
5
334
100
AcDbEntity
8
0
100
AcDbSpline
62
7
6
CONTINUOUS
70
0
71
3
72
18
73
14
74
12
42
0.0000001000
43
0.0000001000
44
0.0000000001
12
0.0000000000
22
-0.3923594660
32
0.0000000000
13
0.3923594660
23
0.0000000000
33
0.0000000000
40
0.0000000000
40
0.0000000000
40
0.0000000000
40
0.0000000000
40
0.0909090103
40
0.1818180598
40
0.2727271497
40
0.3636362742
40
0.4545454220
40
0.5454545780
40
0.6363637258
40
0.7272728503
40
0.8181819402
40
0.9090909897
40
1.0000000000
40
1.0000000000
40
1.0000000000
40
1.0000000000
10
-10.6500000000
20
-24.2500042308
30
0.0000000000
10
-10.6500000000
20
-24.2618939010
30
0.0000000000
10
-10.6482978825
20
-24.2857081657
30
0.0000000000
10
-10.6406902502
20
-24.3206748036
30
0.0000000000
10
-10.6281829537
20
-24.3542103388
30
0.0000000000
10
-10.6110305516
20
-24.3856225554
30
0.0000000000
10
-10.5895821744
20
-24.4142744980
30
0.0000000000
10
-10.5642744980
20
-24.4395821744
30
0.0000000000
10
-10.5356225554
20
-24.4610305516
30
0.0000000000
10
-10.5042103388
20
-24.4781829537
30
0.0000000000
10
-10.4706748036
20
-24.4906902502
30
0.0000000000
10
-10.4357081657
20
-24.4982978825
30
0.0000000000
10
-10.4118939010
20
-24.5000000000
30
0.0000000000
10
-10.4000042308
20
-24.5000000000
30
0.0000000000
11
-10.6500000000
21
-24.2500042308
31
0.0000000000
11
-10.6474554741
21
-24.2855823661
31
0.0000000000
11
-10.6398736417
21
-24.3204362790
31
0.0000000000
11
-10.6274087722
21
-24.3538564463
31
0.0000000000
11
-10.6103145581
21
-24.3851625059
31
0.0000000000
11
-10.5889389589
21
-24.4137171191
31
0.0000000000
11
-10.5637171191
21
-24.4389389589
31
0.0000000000
11
-10.5351625059
21
-24.4603145581
31
0.0000000000
11
-10.5038564463
21
-24.4774087722
31
0.0000000000
11
-10.4704362790
21
-24.4898736417
31
0.0000000000
11
-10.4355823661
21
-24.4974554741
31
0.0000000000
11
-10.4000042308
21
-24.5000000000
31
0.0000000000
0
SPLINE
5
335
100
AcDbEntity
8
0
100
AcDbSpline
62
7
6
CONTINUOUS
70
0
71
3
72
18
73
14
74
12
42
0.0000001000
43
0.0000001000
44
0.0000000001
12
0.3923594660
22
0.0000000000
32
0.0000000000
13
0.0000000000
23
0.3923594660
33
0.0000000000
40
0.0000000000
40
0.0000000000
40
0.0000000000
40
0.0000000000
40
0.0909090103
40
0.1818180598
40
0.2727271497
40
0.3636362742
40
0.4545454220
40
0.5454545780
40
0.6363637258
40
0.7272728503
40
0.8181819402
40
0.9090909897
40
1.0000000000
40
1.0000000000
40
1.0000000000
40
1.0000000000
10
-8.4999957692
20
-24.5000000000
30
0.0000000000
10
-8.4881060990
20
-24.5000000000
30
0.0000000000
10
-8.4642918343
20
-24.4982978825
30
0.0000000000
10
-8.4293251964
20
-24.4906902502
30
0.0000000000
10
-8.3957896612
20
-24.4781829537
30
0.0000000000
10
-8.3643774446
20
-24.4610305516
30
0.0000000000
10
-8.3357255020
20
-24.4395821744
30
0.0000000000
10
-8.3104178256
20
-24.4142744980
30
0.0000000000
10
-8.2889694484
20
-24.3856225554
30
0.0000000000
10
-8.2718170463
20
-24.3542103388
30
0.0000000000
10
-8.2593097498
20
-24.3206748036
30
0.0000000000
10
-8.2517021175
20
-24.2857081657
30
0.0000000000
10
-8.2500000000
20
-24.2618939010
30
0.0000000000
10
-8.2500000000
20
-24.2500042308
30
0.0000000000
11
-8.4999957692
21
-24.5000000000
31
0.0000000000
11
-8.4644176339
21
-24.4974554741
31
0.0000000000
11
-8.4295637210
21
-24.4898736417
31
0.0000000000
11
-8.3961435537
21
-24.4774087722
31
0.0000000000
11
-8.3648374941
21
-24.4603145581
31
0.0000000000
11
-8.3362828809
21
-24.4389389589
31
0.0000000000
11
-8.3110610411
21
-24.4137171191
31
0.0000000000
11
-8.2896854419
21
-24.3851625059
31
0.0000000000
11
-8.2725912278
21
-24.3538564463
31
0.0000000000
11
-8.2601263583
21
-24.3204362790
31
0.0000000000
11
-8.2525445259
21
-24.2855823661
31
0.0000000000
11
-8.2500000000
21
-24.2500042308
31
0.0000000000
0
SPLINE
5
336
100
AcDbEntity
8
0
100
AcDbSpline
62
7
6
CONTINUOUS
70
0
71
3
72
18
73
14
74
12
42
0.0000001000
43
0.0000001000
44
0.0000000001
12
0.3923594660
22
0.0000000000
32
0.0000000000
13
-0.0000000000
23
0.3923594660
33
0.0000000000
40
0.0000000000
40
0.0000000000
40
0.0000000000
40
0.0000000000
40
0.0909090103
40
0.1818180598
40
0.2727271497
40
0.3636362742
40
0.4545454220
40
0.5454545780
40
0.6363637258
40
0.7272728503
40
0.8181819402
40
0.9090909897
40
1.0000000000
40
1.0000000000
40
1.0000000000
40
1.0000000000
10
10.4000042308
20
-24.5000000000
30
0.0000000000
10
10.4118939010
20
-24.5000000000
30
0.0000000000
10
10.4357081657
20
-24.4982978825
30
0.0000000000
10
10.4706748036
20
-24.4906902502
30
0.0000000000
10
10.5042103388
20
-24.4781829537
30
0.0000000000
10
10.5356225554
20
-24.4610305516
30
0.0000000000
10
10.5642744980
20
-24.4395821744
30
0.0000000000
10
10.5895821744
20
-24.4142744980
30
0.0000000000
10
10.6110305516
20
-24.3856225554
30
0.0000000000
10
10.6281829537
20
-24.3542103388
30
0.0000000000
10
10.6406902502
20
-24.3206748036
30
0.0000000000
10
10.6482978825
20
-24.2857081657
30
0.0000000000
10
10.6500000000
20
-24.2618939010
30
0.0000000000
10
10.6500000000
20
-24.2500042308
30
0.0000000000
11
10.4000042308
21
-24.5000000000
31
0.0000000000
11
10.4355823661
21
-24.4974554741
31
0.0000000000
11
10.4704362790
21
-24.4898736417
31
0.0000000000
11
10.5038564463
21
-24.4774087722
31
0.0000000000
11
10.5351625059
21
-24.4603145581
31
0.0000000000
11
10.5637171191
21
-24.4389389589
31
0.0000000000
11
10.5889389589
21
-24.4137171191
31
0.0000000000
11
10.6103145581
21
-24.3851625059
31
0.0000000000
11
10.6274087722
21
-24.3538564463
31
0.0000000000
11
10.6398736417
21
-24.3204362790
31
0.0000000000
11
10.6474554741
21
-24.2855823661
31
0.0000000000
11
10.6500000000
21
-24.2500042308
31
0.0000000000
0
SPLINE
5
337
100
AcDbEntity
8
0
100
AcDbSpline
62
7
6
CONTINUOUS
70
0
71
3
72
18
73
14
74
12
42
0.0000001000
43
0.0000001000
44
0.0000000001
12
0.0000000000
22
-0.3923594660
32
0.0000000000
13
0.3923594660
23
0.0000000000
33
0.0000000000
40
0.0000000000
40
0.0000000000
40
0.0000000000
40
0.0000000000
40
0.0909090103
40
0.1818180598
40
0.2727271497
40
0.3636362742
40
0.4545454220
40
0.5454545780
40
0.6363637258
40
0.7272728503
40
0.8181819402
40
0.9090909897
40
1.0000000000
40
1.0000000000
40
1.0000000000
40
1.0000000000
10
8.2500000000
20
-24.2500042308
30
0.0000000000
10
8.2500000000
20
-24.2618939010
30
0.0000000000
10
8.2517021175
20
-24.2857081657
30
0.0000000000
10
8.2593097498
20
-24.3206748036
30
0.0000000000
10
8.2718170463
20
-24.3542103388
30
0.0000000000
10
8.2889694484
20
-24.3856225554
30
0.0000000000
10
8.3104178256
20
-24.4142744980
30
0.0000000000
10
8.3357255020
20
-24.4395821744
30
0.0000000000
10
8.3643774446
20
-24.4610305516
30
0.0000000000
10
8.3957896612
20
-24.4781829537
30
0.0000000000
10
8.4293251964
20
-24.4906902502
30
0.0000000000
10
8.4642918343
20
-24.4982978825
30
0.0000000000
10
8.4881060990
20
-24.5000000000
30
0.0000000000
10
8.4999957692
20
-24.5000000000
30
0.0000000000
11
8.2500000000
21
-24.2500042308
31
0.0000000000
11
8.2525445259
21
-24.2855823661
31
0.0000000000
11
8.2601263583
21
-24.3204362790
31
0.0000000000
11
8.2725912278
21
-24.3538564463
31
0.0000000000
11
8.2896854419
21
-24.3851625059
31
0.0000000000
11
8.3110610411
21
-24.4137171191
31
0.0000000000
11
8.3362828809
21
-24.4389389589
31
0.0000000000
11
8.3648374941
21
-24.4603145581
31
0.0000000000
11
8.3961435537
21
-24.4774087722
31
0.0000000000
11
8.4295637210
21
-24.4898736417
31
0.0000000000
11
8.4644176339
21
-24.4974554741
31
0.0000000000
11
8.4999957692
21
-24.5000000000
31
0.0000000000
0
SPLINE
5
338
100
AcDbEntity
8
0
100
AcDbSpline
62
7
6
CONTINUOUS
70
0
71
3
72
11
73
7
74
5
42
0.0000001000
43
0.0000001000
44
0.0000000001
12
0.2139705222
22
-0.0075033280
32
0.0000000000
13
0.1916277652
23
-0.0958221412
33
0.0000000000
40
0.0000000000
40
0.0000000000
40
0.0000000000
40
0.0000000000
40
0.3019417167
40
0.6054989165
40
0.9077414077
40
1.0000000000
40
1.0000000000
40
1.0000000000
40
1.0000000000
10
10.6499991391
20
22.3996911987
30
0.0000000000
10
10.6715346814
20
22.3989360094
30
0.0000000000
10
10.7146746924
20
22.3946180558
30
0.0000000000
10
10.7779275640
20
22.3798337624
30
0.0000000000
10
10.8246956982
20
22.3622632552
30
0.0000000000
10
10.8501438865
20
22.3501604372
30
0.0000000000
10
10.8560369892
20
22.3472136320
30
0.0000000000
11
10.6499991391
21
22.3996911987
31
0.0000000000
11
10.7143238870
21
22.3932510251
31
0.0000000000
11
10.7776108967
21
22.3784610765
31
0.0000000000
11
10.8381874588
21
22.3557023577
31
0.0000000000
11
10.8560369892
21
22.3472136320
31
0.0000000000
0
SPLINE
5
339
100
AcDbEntity
8
0
100
AcDbSpline
62
7
6
CONTINUOUS
70
0
71
3
72
15
73
11
74
9
42
0.0000001000
43
0.0000001000
44
0.0000000001
12
0.0000000000
22
-0.5532600274
32
0.0000000000
13
-0.4952922600
23
-0.2476022018
33
0.0000000000
40
0.0000000000
40
0.0000000000
40
0.0000000000
40
0.0000000000
40
0.1289207035
40
0.2579804863
40
0.3867904683
40
0.5159440866
40
0.6447050042
40
0.7739027784
40
0.9026728646
40
1.0000000000
40
1.0000000000
40
1.0000000000
40
1.0000000000
10
11.1500000000
20
-21.8911779406
30
0.0000000000
10
11.1500000000
20
-21.9149534979
30
0.0000000000
10
11.1465947218
20
-21.9626000337
30
0.0000000000
10
11.1313770521
20
-22.0325270865
30
0.0000000000
10
11.1063477548
20
-22.0996311764
30
0.0000000000
10
11.0720480762
20
-22.1624385675
30
0.0000000000
10
11.0291183119
20
-22.2197828463
30
0.0000000000
10
10.9785133221
20
-22.2703852361
30
0.0000000000
10
10.9258803132
20
-22.3097839333
30
0.0000000000
10
10.8895577272
20
-22.3304553010
30
0.0000000000
10
10.8734892683
20
-22.3384881053
30
0.0000000000
11
11.1500000000
21
-21.8911779406
31
0.0000000000
11
11.1449122344
21
-21.9623229248
31
0.0000000000
11
11.1297312385
21
-22.0320940804
31
0.0000000000
11
11.1048249336
21
-22.0988655956
31
0.0000000000
11
11.0705771581
21
-22.1615790971
31
0.0000000000
11
11.0278841245
21
-22.2186071238
31
0.0000000000
11
10.9773389181
21
-22.2691498520
31
0.0000000000
11
10.9203048160
21
-22.3118432343
31
0.0000000000
11
10.8734892683
21
-22.3384881053
31
0.0000000000
0
SPLINE
5
33A
100
AcDbEntity
8
0
100
AcDbSpline
62
7
6
CONTINUOUS
70
0
71
3
72
15
73
11
74
9
42
0.0000001000
43
0.0000001000
44
0.0000000001
12
0.0000000000
22
0.5532600274
32
0.0000000000
13
0.4952922600
23
0.2476022018
33
0.0000000000
40
0.0000000000
40
0.0000000000
40
0.0000000000
40
0.0000000000
40
0.1289207035
40
0.2579804863
40
0.3867904683
40
0.5159440866
40
0.6447050042
40
0.7739027784
40
0.9026728646
40
1.0000000000
40
1.0000000000
40
1.0000000000
40
1.0000000000
10
-11.1500000000
20
21.8911779406
30
0.0000000000
10
-11.1500000000
20
21.9149534979
30
0.0000000000
10
-11.1465947218
20
21.9626000337
30
0.0000000000
10
-11.1313770521
20
22.0325270865
30
0.0000000000
10
-11.1063477548
20
22.0996311764
30
0.0000000000
10
-11.0720480762
20
22.1624385675
30
0.0000000000
10
-11.0291183119
20
22.2197828463
30
0.0000000000
10
-10.9785133221
20
22.2703852361
30
0.0000000000
10
-10.9258803132
20
22.3097839333
30
0.0000000000
10
-10.8895577272
20
22.3304553010
30
0.0000000000
10
-10.8734892683
20
22.3384881053
30
0.0000000000
11
-11.1500000000
21
21.8911779406
31
0.0000000000
11
-11.1449122344
21
21.9623229248
31
0.0000000000
11
-11.1297312385
21
22.0320940804
31
0.0000000000
11
-11.1048249336
21
22.0988655956
31
0.0000000000
11
-11.0705771581
21
22.1615790971
31
0.0000000000
11
-11.0278841245
21
22.2186071238
31
0.0000000000
11
-10.9773389181
21
22.2691498520
31
0.0000000000
11
-10.9203048160
21
22.3118432343
31
0.0000000000
11
-10.8734892683
21
22.3384881053
31
0.0000000000
0
SPLINE
5
33B
100
AcDbEntity
8
0
100
AcDbSpline
62
7
6
CONTINUOUS
70
0
71
3
72
11
73
7
74
5
42
0.0000001000
43
0.0000001000
44
0.0000000001
12
-0.2139705222
22
0.0075033280
32
0.0000000000
13
-0.1916277652
23
0.0958221412
33
0.0000000000
40
0.0000000000
40
0.0000000000
40
0.0000000000
40
0.0000000000
40
0.3019417167
40
0.6054989165
40
0.9077414077
40
1.0000000000
40
1.0000000000
40
1.0000000000
40
1.0000000000
10
-10.6499991391
20
-22.3996911987
30
0.0000000000
10
-10.6715346814
20
-22.3989360094
30
0.0000000000
10
-10.7146746924
20
-22.3946180558
30
0.0000000000
10
-10.7779275640
20
-22.3798337624
30
0.0000000000
10
-10.8246956982
20
-22.3622632552
30
0.0000000000
10
-10.8501438865
20
-22.3501604372
30
0.0000000000
10
-10.8560369892
20
-22.3472136320
30
0.0000000000
11
-10.6499991391
21
-22.3996911987
31
0.0000000000
11
-10.7143238870
21
-22.3932510251
31
0.0000000000
11
-10.7776108967
21
-22.3784610765
31
0.0000000000
11
-10.8381874588
21
-22.3557023577
31
0.0000000000
11
-10.8560369892
21
-22.3472136320
31
0.0000000000
0
SPLINE
5
33C
100
AcDbEntity
8
0
100
AcDbSpline
62
7
6
CONTINUOUS
70
0
71
3
72
11
73
7
74
5
42
0.0000001000
43
0.0000001000
44
0.0000000001
12
-0.0344320461
22
0.0031074556
32
0.0000000000
13
-0.0037620475
23
0.0343666856
33
0.0000000000
40
0.0000000000
40
0.0000000000
40
0.0000000000
40
0.0000000000
40
0.4197527525
40
0.7274035190
40
0.9190903351
40
1.0000000000
40
1.0000000000
40
1.0000000000
40
1.0000000000
10
-10.6089153400
20
22.3279108386
30
0.0000000000
10
-10.6137329887
20
22.3283456263
30
0.0000000000
10
-10.6219524148
20
22.3290599083
30
0.0000000000
10
-10.6328950502
20
22.3302299695
30
0.0000000000
10
-10.6387473598
20
22.3312529596
30
0.0000000000
10
-10.6426177891
20
22.3324840957
30
0.0000000000
10
-10.6427192511
20
22.3334109614
30
0.0000000000
11
-10.6089153400
21
22.3279108386
31
0.0000000000
11
-10.6233659807
21
22.3292404994
31
0.0000000000
11
-10.6339307210
21
22.3304704706
31
0.0000000000
11
-10.6404189773
21
22.3318193863
31
0.0000000000
11
-10.6427192511
21
22.3334109614
31
0.0000000000
0
SPLINE
5
33D
100
AcDbEntity
8
0
100
AcDbSpline
62
7
6
CONTINUOUS
70
0
71
3
72
14
73
10
74
8
42
0.0000001000
43
0.0000001000
44
0.0000000001
12
-0.2163437535
22
0.0000000000
32
0.0000000000
13
-0.2154680533
23
0.0194457629
33
0.0000000000
40
0.0000000000
40
0.0000000000
40
0.0000000000
40
0.0000000000
40
0.1716664943
40
0.3398657499
40
0.4999835900
40
0.6496901083
40
0.7844419906
40
0.9022997459
40
1.0000000000
40
1.0000000000
40
1.0000000000
40
1.0000000000
10
-10.3927234819
20
22.3213883311
30
0.0000000000
10
-10.4051031398
20
22.3213883311
30
0.0000000000
10
-10.4296125291
20
22.3214832174
30
0.0000000000
10
-10.4656665098
20
22.3219083645
30
0.0000000000
10
-10.5001323845
20
22.3226062589
30
0.0000000000
10
-10.5321791849
20
22.3235588341
30
0.0000000000
10
-10.5611686387
20
22.3247446775
30
0.0000000000
10
-10.5863937519
20
22.3261317939
30
0.0000000000
10
-10.6018982454
20
22.3272775533
30
0.0000000000
10
-10.6089153400
20
22.3279108386
30
0.0000000000
11
-10.3927234819
21
22.3213883311
31
0.0000000000
11
-10.4298621711
21
22.3215337079
31
0.0000000000
11
-10.4662484404
21
22.3219677684
31
0.0000000000
11
-10.5008816543
21
22.3226779519
31
0.0000000000
11
-10.5332550051
21
22.3236542922
31
0.0000000000
11
-10.5623824893
21
22.3248672284
31
0.0000000000
11
-10.5878400496
21
22.3262989677
31
0.0000000000
11
-10.6089153400
21
22.3279108386
31
0.0000000000
0
SPLINE
5
33E
100
AcDbEntity
8
0
100
AcDbSpline
62
9
6
CONTINUOUS
70
0
71
3
72
17
73
13
74
11
42
0.0000001000
43
0.0000001000
44
0.0000000001
12
0.0012298291
22
-0.3661500354
32
0.0000000000
13
0.3661509389
23
-0.0009224053
33
0.0000000000
40
0.0000000000
40
0.0000000000
40
0.0000000000
40
0.0000000000
40
0.0926637669
40
0.1861959939
40
0.2811621264
40
0.3780472439
40
0.4771141944
40
0.5784104998
40
0.6817687109
40
0.7868361684
40
0.8931123906
40
1.0000000000
40
1.0000000000
40
1.0000000000
40
1.0000000000
10
-10.6369014213
20
23.8443375673
30
0.0000000000
10
-10.6368634344
20
23.8330279534
30
0.0000000000
10
-10.6347153665
20
23.8102571900
30
0.0000000000
10
-10.6253807886
20
23.7770555170
30
0.0000000000
10
-10.6101710406
20
23.7455258597
30
0.0000000000
10
-10.5894851546
20
23.7164681187
30
0.0000000000
10
-10.5638500503
20
23.6905825393
30
0.0000000000
10
-10.5339067862
20
23.6684905883
30
0.0000000000
10
-10.5003938871
20
23.6507169506
30
0.0000000000
10
-10.4641275854
20
23.6376826836
30
0.0000000000
10
-10.4259984022
20
23.6296960283
30
0.0000000000
10
-10.3999513183
20
23.6278640809
30
0.0000000000
10
-10.3869056521
20
23.6278312164
30
0.0000000000
11
-10.6369014213
21
23.8443375673
31
0.0000000000
11
-10.6337263616
21
23.8105574212
31
0.0000000000
11
-10.6244957389
21
23.7775778202
31
0.0000000000
11
-10.6094361149
21
23.7462361050
31
0.0000000000
11
-10.5889152395
21
23.7172991519
31
0.0000000000
11
-10.5634375501
21
23.6914794042
31
0.0000000000
11
-10.5336279765
21
23.6694102704
31
0.0000000000
11
-10.5002181490
21
23.6516334796
31
0.0000000000
11
-10.4640278763
21
23.6385852371
31
0.0000000000
11
-10.4259457173
21
23.6305857918
31
0.0000000000
11
-10.3869056521
21
23.6278312164
31
0.0000000000
0
SPLINE
5
33F
100
AcDbEntity
8
0
100
AcDbSpline
62
9
6
CONTINUOUS
70
0
71
3
72
17
73
13
74
11
42
0.0000001000
43
0.0000001000
44
0.0000000001
12
-0.0000132773
22
0.3922846478
32
0.0000000000
13
-0.3922846478
23
0.0000132773
33
0.0000000000
40
0.0000000000
40
0.0000000000
40
0.0000000000
40
0.0000000000
40
0.0998239394
40
0.1998359985
40
0.2998483200
40
0.3998691378
40
0.4998893118
40
0.5999112671
40
0.6999336806
40
0.7999562942
40
0.8999787118
40
1.0000000000
40
1.0000000000
40
1.0000000000
40
1.0000000000
10
-8.2630985787
20
24.2369056521
30
0.0000000000
10
-8.2630990205
20
24.2499587850
30
0.0000000000
10
-8.2651548664
20
24.2761357741
30
0.0000000000
10
-8.2743365233
20
24.3144125901
30
0.0000000000
10
-8.2894045179
20
24.3508153163
30
0.0000000000
10
-8.3099825007
20
24.3844106486
30
0.0000000000
10
-8.3355641420
20
24.4143743362
30
0.0000000000
10
-8.3655191168
20
24.4399665157
30
0.0000000000
10
-8.3991088864
20
24.4605570063
30
0.0000000000
10
-8.4355093167
20
24.4756383276
30
0.0000000000
10
-8.4738109783
20
24.4848388798
30
0.0000000000
10
-8.5000154093
20
24.4869009786
30
0.0000000000
10
-8.5130943479
20
24.4869014213
30
0.0000000000
11
-8.2630985787
21
24.2369056521
31
0.0000000000
11
-8.2661668528
21
24.2759446610
31
0.0000000000
11
-8.2753165360
21
24.3140960295
31
0.0000000000
11
-8.2903222656
21
24.3503462678
31
0.0000000000
11
-8.3108163791
21
24.3838052658
31
0.0000000000
11
-8.3362928401
21
24.4136455633
31
0.0000000000
11
-8.3661248260
21
24.4391328321
31
0.0000000000
11
-8.3995772981
21
24.4596387939
31
0.0000000000
11
-8.4358262370
21
24.4746582128
31
0.0000000000
11
-8.4739786381
21
24.4838210061
31
0.0000000000
11
-8.5130943479
21
24.4869014213
31
0.0000000000
0
SPLINE
5
340
100
AcDbEntity
8
0
100
AcDbSpline
62
7
6
CONTINUOUS
70
0
71
3
72
16
73
12
74
10
42
0.0000001000
43
0.0000001000
44
0.0000000001
12
0.4952765776
22
-0.2476596337
32
0.0000000000
13
0.0002122239
23
-0.5533630193
33
0.0000000000
40
0.0000000000
40
0.0000000000
40
0.0000000000
40
0.0000000000
40
0.0804413773
40
0.1969932421
40
0.3144879399
40
0.4317799303
40
0.5479335400
40
0.6624418273
40
0.7756755659
40
0.8881434792
40
1.0000000000
40
1.0000000000
40
1.0000000000
40
1.0000000000
10
10.8560369892
20
22.3472136320
30
0.0000000000
10
10.8693172325
20
22.3405729379
30
0.0000000000
10
10.9011148887
20
22.3228626285
30
0.0000000000
10
10.9485507101
20
22.2891939691
30
0.0000000000
10
10.9962440575
20
22.2450473616
30
0.0000000000
10
11.0377678769
20
22.1951506949
30
0.0000000000
10
11.0722207442
20
22.1407902779
30
0.0000000000
10
11.0991547423
20
22.0831723367
30
0.0000000000
10
11.1184245874
20
22.0232762506
30
0.0000000000
10
11.1299933824
20
21.9619403453
30
0.0000000000
10
11.1325751847
20
21.9205181493
30
0.0000000000
10
11.1325830976
20
21.8998857286
30
0.0000000000
11
10.8560369892
21
22.3472136320
31
0.0000000000
11
10.8949385898
21
22.3255455511
31
0.0000000000
11
10.9475327983
21
22.2882156930
31
0.0000000000
11
10.9952469627
21
22.2440501167
31
0.0000000000
11
11.0367648316
21
22.1941609125
31
0.0000000000
11
11.0711731639
21
22.1398713434
31
0.0000000000
11
11.0980063933
21
22.0824687523
31
0.0000000000
11
11.1171972025
21
22.0228205398
31
0.0000000000
11
11.1287308067
21
21.9616630017
31
0.0000000000
11
11.1325830976
21
21.8998857286
31
0.0000000000
0
SPLINE
5
341
100
AcDbEntity
8
0
100
AcDbSpline
62
9
6
CONTINUOUS
70
0
71
3
72
17
73
13
74
11
42
0.0000001000
43
0.0000001000
44
0.0000000001
12
-0.3922846478
22
-0.0000132773
32
0.0000000000
13
-0.0000132773
23
-0.3922846478
33
0.0000000000
40
0.0000000000
40
0.0000000000
40
0.0000000000
40
0.0000000000
40
0.1000212882
40
0.2000437058
40
0.3000663194
40
0.4000887329
40
0.5001106882
40
0.6001308622
40
0.7001516800
40
0.8001640015
40
0.9001760606
40
1.0000000000
40
1.0000000000
40
1.0000000000
40
1.0000000000
10
-10.3869056521
20
24.4869014213
30
0.0000000000
10
-10.3999845907
20
24.4869009786
30
0.0000000000
10
-10.4261890217
20
24.4848388798
30
0.0000000000
10
-10.4644906833
20
24.4756383276
30
0.0000000000
10
-10.5008911136
20
24.4605570063
30
0.0000000000
10
-10.5344808832
20
24.4399665157
30
0.0000000000
10
-10.5644358580
20
24.4143743362
30
0.0000000000
10
-10.5900174993
20
24.3844106486
30
0.0000000000
10
-10.6105954821
20
24.3508153163
30
0.0000000000
10
-10.6256634767
20
24.3144125901
30
0.0000000000
10
-10.6348451336
20
24.2761357741
30
0.0000000000
10
-10.6369009795
20
24.2499587850
30
0.0000000000
10
-10.6369014213
20
24.2369056521
30
0.0000000000
11
-10.3869056521
21
24.4869014213
31
0.0000000000
11
-10.4260213619
21
24.4838210061
31
0.0000000000
11
-10.4641737630
21
24.4746582128
31
0.0000000000
11
-10.5004227019
21
24.4596387939
31
0.0000000000
11
-10.5338751740
21
24.4391328321
31
0.0000000000
11
-10.5637071599
21
24.4136455633
31
0.0000000000
11
-10.5891836209
21
24.3838052658
31
0.0000000000
11
-10.6096777344
21
24.3503462678
31
0.0000000000
11
-10.6246834640
21
24.3140960295
31
0.0000000000
11
-10.6338331472
21
24.2759446610
31
0.0000000000
11
-10.6369014213
21
24.2369056521
31
0.0000000000
0
SPLINE
5
342
100
AcDbEntity
8
0
100
AcDbSpline
62
7
6
CONTINUOUS
70
0
71
3
72
17
73
13
74
11
42
0.0000001000
43
0.0000001000
44
0.0000000001
12
-0.0277030565
22
-0.2495527920
32
0.0000000000
13
-0.2510857530
23
0.0000000000
33
0.0000000000
40
0.0000000000
40
0.0000000000
40
0.0000000000
40
0.0000000000
40
0.0153922783
40
0.0534603011
40
0.1140054884
40
0.1963898067
40
0.2980302109
40
0.4167083914
40
0.5499614839
40
0.6933922816
40
0.8450534085
40
1.0000000000
40
1.0000000000
40
1.0000000000
40
1.0000000000
10
-8.2572807489
20
22.3344140523
30
0.0000000000
10
-8.2574228866
20
22.3331336570
30
0.0000000000
10
-8.2631506026
20
22.3317328049
30
0.0000000000
10
-8.2712865303
20
22.3299278075
30
0.0000000000
10
-8.2870106930
20
22.3282227506
30
0.0000000000
10
-8.3071308408
20
22.3265434396
30
0.0000000000
10
-8.3325274946
20
22.3250517240
30
0.0000000000
10
-8.3620570312
20
22.3237602668
30
0.0000000000
10
-8.3951426387
20
22.3227219025
30
0.0000000000
10
-8.4309820572
20
22.3219581134
30
0.0000000000
10
-8.4686467198
20
22.3214923661
30
0.0000000000
10
-8.4943082243
20
22.3213883311
30
0.0000000000
10
-8.5072765181
20
22.3213883311
30
0.0000000000
11
-8.2572807489
21
22.3344140523
31
0.0000000000
11
-8.2605625854
21
22.3323729527
31
0.0000000000
11
-8.2699103996
21
22.3303779093
31
0.0000000000
11
-8.2849952483
21
22.3284939838
31
0.0000000000
11
-8.3056068875
21
22.3267471511
31
0.0000000000
11
-8.3310801301
21
22.3251954888
31
0.0000000000
11
-8.3608490747
21
22.3238708763
31
0.0000000000
11
-8.3942899737
21
22.3228027488
31
0.0000000000
11
-8.4302950034
21
22.3220249508
31
0.0000000000
11
-8.4683719640
21
22.3215479485
31
0.0000000000
11
-8.5072765181
21
22.3213883311
31
0.0000000000
0
SPLINE
5
343
100
AcDbEntity
8
0
100
AcDbSpline
62
9
6
CONTINUOUS
70
0
71
3
72
17
73
13
74
11
42
0.0000001000
43
0.0000001000
44
0.0000000001
12
-0.0012298291
22
-0.3661500354
32
0.0000000000
13
-0.3661509389
23
-0.0009224053
33
0.0000000000
40
0.0000000000
40
0.0000000000
40
0.0000000000
40
0.0000000000
40
0.0926637669
40
0.1861959939
40
0.2811621264
40
0.3780472439
40
0.4771141944
40
0.5784104998
40
0.6817687109
40
0.7868361684
40
0.8931123906
40
1.0000000000
40
1.0000000000
40
1.0000000000
40
1.0000000000
10
-8.2630985787
20
23.8443375673
30
0.0000000000
10
-8.2631365656
20
23.8330279534
30
0.0000000000
10
-8.2652846335
20
23.8102571900
30
0.0000000000
10
-8.2746192114
20
23.7770555170
30
0.0000000000
10
-8.2898289594
20
23.7455258597
30
0.0000000000
10
-8.3105148454
20
23.7164681187
30
0.0000000000
10
-8.3361499497
20
23.6905825393
30
0.0000000000
10
-8.3660932138
20
23.6684905883
30
0.0000000000
10
-8.3996061129
20
23.6507169506
30
0.0000000000
10
-8.4358724146
20
23.6376826836
30
0.0000000000
10
-8.4740015978
20
23.6296960283
30
0.0000000000
10
-8.5000486817
20
23.6278640809
30
0.0000000000
10
-8.5130943479
20
23.6278312164
30
0.0000000000
11
-8.2630985787
21
23.8443375673
31
0.0000000000
11
-8.2662736384
21
23.8105574212
31
0.0000000000
11
-8.2755042611
21
23.7775778202
31
0.0000000000
11
-8.2905638851
21
23.7462361050
31
0.0000000000
11
-8.3110847605
21
23.7172991519
31
0.0000000000
11
-8.3365624499
21
23.6914794042
31
0.0000000000
11
-8.3663720235
21
23.6694102704
31
0.0000000000
11
-8.3997818510
21
23.6516334796
31
0.0000000000
11
-8.4359721237
21
23.6385852371
31
0.0000000000
11
-8.4740542827
21
23.6305857918
31
0.0000000000
11
-8.5130943479
21
23.6278312164
31
0.0000000000
0
SPLINE
5
344
100
AcDbEntity
8
0
100
AcDbSpline
62
7
6
CONTINUOUS
70
0
71
3
72
18
73
14
74
12
42
0.0000001000
43
0.0000001000
44
0.0000000001
12
-0.0031763781
22
-0.3152256661
32
0.0000000000
13
-0.3152416691
23
0.0000000000
33
0.0000000000
40
0.0000000000
40
0.0000000000
40
0.0000000000
40
0.0000000000
40
0.0600923894
40
0.1232193774
40
0.1912702092
40
0.2657636629
40
0.3477531865
40
0.4378167491
40
0.5360799495
40
0.6422378908
40
0.7555663097
40
0.8749375201
40
1.0000000000
40
1.0000000000
40
1.0000000000
40
1.0000000000
10
-8.2572807489
20
23.2669872981
30
0.0000000000
10
-8.2573443743
20
23.2606730769
30
0.0000000000
10
-8.2589720336
20
23.2476973339
30
0.0000000000
10
-8.2658593007
20
23.2286603597
30
0.0000000000
10
-8.2772297510
20
23.2101243934
30
0.0000000000
10
-8.2930205888
20
23.1924483169
30
0.0000000000
10
-8.3131220786
20
23.1759632854
30
0.0000000000
10
-8.3373641288
20
23.1610164785
30
0.0000000000
10
-8.3654942407
20
23.1479683497
30
0.0000000000
10
-8.3971564121
20
23.1371905205
30
0.0000000000
10
-8.4318761551
20
23.1290466719
30
0.0000000000
10
-8.4691627980
20
23.1238898929
30
0.0000000000
10
-8.4948621119
20
23.1226497308
30
0.0000000000
10
-8.5080037468
20
23.1226497308
30
0.0000000000
11
-8.2572807489
21
23.2669872981
31
0.0000000000
11
-8.2596000894
21
23.2481861919
31
0.0000000000
11
-8.2662675994
21
23.2294361375
31
0.0000000000
11
-8.2773622718
21
23.2110754134
31
0.0000000000
11
-8.2928907687
21
23.1934590071
31
0.0000000000
11
-8.3127821378
21
23.1769551973
31
0.0000000000
11
-8.3368804409
21
23.1619430222
31
0.0000000000
11
-8.3649348037
21
23.1488088720
31
0.0000000000
11
-8.3965865028
21
23.1379413340
31
0.0000000000
11
-8.4313541826
21
23.1297228132
31
0.0000000000
11
-8.4686230593
21
23.1245164325
31
0.0000000000
11
-8.5080037468
21
23.1226497308
31
0.0000000000
0
SPLINE
5
345
100
AcDbEntity
8
0
100
AcDbSpline
62
9
6
CONTINUOUS
70
0
71
3
72
17
73
13
74
11
42
0.0000001000
43
0.0000001000
44
0.0000000001
12
-0.0000132773
22
0.3922846482
32
0.0000000000
13
-0.3922846482
23
0.0000132773
33
0.0000000000
40
0.0000000000
40
0.0000000000
40
0.0000000000
40
0.0000000000
40
0.0999991830
40
0.1999988695
40
0.2999989843
40
0.3999994104
40
0.5000000000
40
0.6000005896
40
0.7000010157
40
0.8000011305
40
0.9000008170
40
1.0000000000
40
1.0000000000
40
1.0000000000
40
1.0000000000
10
10.6369014213
20
24.2369056521
30
0.0000000000
10
10.6369009787
20
24.2499817002
30
0.0000000000
10
10.6348398012
20
24.2761802376
30
0.0000000000
10
10.6256433486
20
24.3144737204
30
0.0000000000
10
10.6105686462
20
24.3508672592
30
0.0000000000
10
10.5899868518
20
24.3844521345
30
0.0000000000
10
10.5644048004
20
24.4144048004
30
0.0000000000
10
10.5344521345
20
24.4399868518
30
0.0000000000
10
10.5008672592
20
24.4605686462
30
0.0000000000
10
10.4644737204
20
24.4756433486
30
0.0000000000
10
10.4261802376
20
24.4848398012
30
0.0000000000
10
10.3999817002
20
24.4869009787
30
0.0000000000
10
10.3869056521
20
24.4869014213
30
0.0000000000
11
10.6369014213
21
24.2369056521
31
0.0000000000
11
10.6338223673
21
24.2760127708
31
0.0000000000
11
10.6246636657
21
24.3141569839
31
0.0000000000
11
10.6096508246
21
24.3503990946
31
0.0000000000
11
10.5891534939
21
24.3838467403
31
0.0000000000
11
10.5636763643
21
24.4136763643
31
0.0000000000
11
10.5338467403
21
24.4391534939
31
0.0000000000
11
10.5003990946
21
24.4596508246
31
0.0000000000
11
10.4641569839
21
24.4746636657
31
0.0000000000
11
10.4260127708
21
24.4838223673
31
0.0000000000
11
10.3869056521
21
24.4869014213
31
0.0000000000
0
SPLINE
5
346
100
AcDbEntity
8
0
100
AcDbSpline
62
9
6
CONTINUOUS
70
0
71
3
72
17
73
13
74
11
42
0.0000001000
43
0.0000001000
44
0.0000000001
12
-0.3922846478
22
-0.0000132773
32
0.0000000000
13
-0.0000132773
23
-0.3922846478
33
0.0000000000
40
0.0000000000
40
0.0000000000
40
0.0000000000
40
0.0000000000
40
0.0998239394
40
0.1998359985
40
0.2998483200
40
0.3998691378
40
0.4998893118
40
0.5999112671
40
0.6999336806
40
0.7999562942
40
0.8999787118
40
1.0000000000
40
1.0000000000
40
1.0000000000
40
1.0000000000
10
8.5130943479
20
24.4869014213
30
0.0000000000
10
8.5000412150
20
24.4869009795
30
0.0000000000
10
8.4738642259
20
24.4848451336
30
0.0000000000
10
8.4355874099
20
24.4756634767
30
0.0000000000
10
8.3991846837
20
24.4605954821
30
0.0000000000
10
8.3655893514
20
24.4400174993
30
0.0000000000
10
8.3356256638
20
24.4144358580
30
0.0000000000
10
8.3100334843
20
24.3844808832
30
0.0000000000
10
8.2894429937
20
24.3508911136
30
0.0000000000
10
8.2743616724
20
24.3144906833
30
0.0000000000
10
8.2651611202
20
24.2761890217
30
0.0000000000
10
8.2630990214
20
24.2499845907
30
0.0000000000
10
8.2630985787
20
24.2369056521
30
0.0000000000
11
8.5130943479
21
24.4869014213
31
0.0000000000
11
8.4740553390
21
24.4838331472
31
0.0000000000
11
8.4359039705
21
24.4746834640
31
0.0000000000
11
8.3996537322
21
24.4596777344
31
0.0000000000
11
8.3661947342
21
24.4391836209
31
0.0000000000
11
8.3363544367
21
24.4137071599
31
0.0000000000
11
8.3108671679
21
24.3838751740
31
0.0000000000
11
8.2903612061
21
24.3504227019
31
0.0000000000
11
8.2753417872
21
24.3141737630
31
0.0000000000
11
8.2661789939
21
24.2760213619
31
0.0000000000
11
8.2630985787
21
24.2369056521
31
0.0000000000
0
SPLINE
5
347
100
AcDbEntity
8
0
100
AcDbSpline
62
7
6
CONTINUOUS
70
0
71
3
72
17
73
13
74
11
42
0.0000001000
43
0.0000001000
44
0.0000000001
12
-0.2510857530
22
0.0000000000
32
0.0000000000
13
-0.0277030565
23
0.2495527920
33
0.0000000000
40
0.0000000000
40
0.0000000000
40
0.0000000000
40
0.0000000000
40
0.1549465915
40
0.3066077184
40
0.4500385161
40
0.5832916086
40
0.7019697891
40
0.8036101933
40
0.8859945116
40
0.9465396989
40
0.9846077217
40
1.0000000000
40
1.0000000000
40
1.0000000000
40
1.0000000000
10
8.5072765181
20
22.3213883311
30
0.0000000000
10
8.4943082243
20
22.3213883311
30
0.0000000000
10
8.4686467198
20
22.3214923661
30
0.0000000000
10
8.4309820572
20
22.3219581134
30
0.0000000000
10
8.3951426387
20
22.3227219025
30
0.0000000000
10
8.3620570312
20
22.3237602668
30
0.0000000000
10
8.3325274946
20
22.3250517240
30
0.0000000000
10
8.3071308408
20
22.3265434396
30
0.0000000000
10
8.2870106930
20
22.3282227506
30
0.0000000000
10
8.2712865303
20
22.3299278075
30
0.0000000000
10
8.2631506026
20
22.3317328049
30
0.0000000000
10
8.2574228866
20
22.3331336570
30
0.0000000000
10
8.2572807489
20
22.3344140523
30
0.0000000000
11
8.5072765181
21
22.3213883311
31
0.0000000000
11
8.4683719640
21
22.3215479485
31
0.0000000000
11
8.4302950034
21
22.3220249508
31
0.0000000000
11
8.3942899737
21
22.3228027488
31
0.0000000000
11
8.3608490747
21
22.3238708763
31
0.0000000000
11
8.3310801301
21
22.3251954888
31
0.0000000000
11
8.3056068875
21
22.3267471511
31
0.0000000000
11
8.2849952483
21
22.3284939838
31
0.0000000000
11
8.2699103996
21
22.3303779093
31
0.0000000000
11
8.2605625854
21
22.3323729527
31
0.0000000000
11
8.2572807489
21
22.3344140523
31
0.0000000000
0
SPLINE
5
348
100
AcDbEntity
8
0
100
AcDbSpline
62
7
6
CONTINUOUS
70
0
71
3
72
18
73
14
74
12
42
0.0000001000
43
0.0000001000
44
0.0000000001
12
0.0031763781
22
-0.3152256661
32
0.0000000000
13
0.3152416691
23
-0.0000000000
33
0.0000000000
40
0.0000000000
40
0.0000000000
40
0.0000000000
40
0.0000000000
40
0.0600923894
40
0.1232193774
40
0.1912702092
40
0.2657636629
40
0.3477531865
40
0.4378167491
40
0.5360799495
40
0.6422378908
40
0.7555663097
40
0.8749375201
40
1.0000000000
40
1.0000000000
40
1.0000000000
40
1.0000000000
10
8.2572807489
20
23.2669872981
30
0.0000000000
10
8.2573443743
20
23.2606730769
30
0.0000000000
10
8.2589720336
20
23.2476973339
30
0.0000000000
10
8.2658593007
20
23.2286603597
30
0.0000000000
10
8.2772297510
20
23.2101243934
30
0.0000000000
10
8.2930205888
20
23.1924483169
30
0.0000000000
10
8.3131220786
20
23.1759632854
30
0.0000000000
10
8.3373641288
20
23.1610164785
30
0.0000000000
10
8.3654942407
20
23.1479683497
30
0.0000000000
10
8.3971564121
20
23.1371905205
30
0.0000000000
10
8.4318761551
20
23.1290466719
30
0.0000000000
10
8.4691627980
20
23.1238898929
30
0.0000000000
10
8.4948621119
20
23.1226497308
30
0.0000000000
10
8.5080037468
20
23.1226497308
30
0.0000000000
11
8.2572807489
21
23.2669872981
31
0.0000000000
11
8.2596000894
21
23.2481861919
31
0.0000000000
11
8.2662675994
21
23.2294361375
31
0.0000000000
11
8.2773622718
21
23.2110754134
31
0.0000000000
11
8.2928907687
21
23.1934590071
31
0.0000000000
11
8.3127821378
21
23.1769551973
31
0.0000000000
11
8.3368804409
21
23.1619430222
31
0.0000000000
11
8.3649348037
21
23.1488088720
31
0.0000000000
11
8.3965865028
21
23.1379413340
31
0.0000000000
11
8.4313541826
21
23.1297228132
31
0.0000000000
11
8.4686230593
21
23.1245164325
31
0.0000000000
11
8.5080037468
21
23.1226497308
31
0.0000000000
0
SPLINE
5
349
100
AcDbEntity
8
0
100
AcDbSpline
62
9
6
CONTINUOUS
70
0
71
3
72
17
73
13
74
11
42
0.0000001000
43
0.0000001000
44
0.0000000001
12
0.0012298291
22
-0.3661500354
32
0.0000000000
13
0.3661509389
23
-0.0009224053
33
0.0000000000
40
0.0000000000
40
0.0000000000
40
0.0000000000
40
0.0000000000
40
0.0926637669
40
0.1861959939
40
0.2811621264
40
0.3780472439
40
0.4771141944
40
0.5784104998
40
0.6817687109
40
0.7868361684
40
0.8931123906
40
1.0000000000
40
1.0000000000
40
1.0000000000
40
1.0000000000
10
8.2630985787
20
23.8443375673
30
0.0000000000
10
8.2631365656
20
23.8330279534
30
0.0000000000
10
8.2652846335
20
23.8102571900
30
0.0000000000
10
8.2746192114
20
23.7770555170
30
0.0000000000
10
8.2898289594
20
23.7455258597
30
0.0000000000
10
8.3105148454
20
23.7164681187
30
0.0000000000
10
8.3361499497
20
23.6905825393
30
0.0000000000
10
8.3660932138
20
23.6684905883
30
0.0000000000
10
8.3996061129
20
23.6507169506
30
0.0000000000
10
8.4358724146
20
23.6376826836
30
0.0000000000
10
8.4740015978
20
23.6296960283
30
0.0000000000
10
8.5000486817
20
23.6278640809
30
0.0000000000
10
8.5130943479
20
23.6278312164
30
0.0000000000
11
8.2630985787
21
23.8443375673
31
0.0000000000
11
8.2662736384
21
23.8105574212
31
0.0000000000
11
8.2755042611
21
23.7775778202
31
0.0000000000
11
8.2905638851
21
23.7462361050
31
0.0000000000
11
8.3110847605
21
23.7172991519
31
0.0000000000
11
8.3365624499
21
23.6914794042
31
0.0000000000
11
8.3663720235
21
23.6694102704
31
0.0000000000
11
8.3997818510
21
23.6516334796
31
0.0000000000
11
8.4359721237
21
23.6385852371
31
0.0000000000
11
8.4740542827
21
23.6305857918
31
0.0000000000
11
8.5130943479
21
23.6278312164
31
0.0000000000
0
SPLINE
5
34A
100
AcDbEntity
8
0
100
AcDbSpline
62
7
6
CONTINUOUS
70
0
71
3
72
14
73
10
74
8
42
0.0000001000
43
0.0000001000
44
0.0000000001
12
-0.2154680533
22
-0.0194457629
32
0.0000000000
13
-0.2163437535
23
0.0000000000
33
0.0000000000
40
0.0000000000
40
0.0000000000
40
0.0000000000
40
0.0000000000
40
0.0977002541
40
0.2155580094
40
0.3503098917
40
0.5000164100
40
0.6601342501
40
0.8283335057
40
1.0000000000
40
1.0000000000
40
1.0000000000
40
1.0000000000
10
10.6089153400
20
22.3279108386
30
0.0000000000
10
10.6018982454
20
22.3272775533
30
0.0000000000
10
10.5863937519
20
22.3261317939
30
0.0000000000
10
10.5611686387
20
22.3247446775
30
0.0000000000
10
10.5321791849
20
22.3235588341
30
0.0000000000
10
10.5001323845
20
22.3226062589
30
0.0000000000
10
10.4656665098
20
22.3219083645
30
0.0000000000
10
10.4296125291
20
22.3214832174
30
0.0000000000
10
10.4051031398
20
22.3213883311
30
0.0000000000
10
10.3927234819
20
22.3213883311
30
0.0000000000
11
10.6089153400
21
22.3279108386
31
0.0000000000
11
10.5878400496
21
22.3262989677
31
0.0000000000
11
10.5623824893
21
22.3248672284
31
0.0000000000
11
10.5332550051
21
22.3236542922
31
0.0000000000
11
10.5008816543
21
22.3226779519
31
0.0000000000
11
10.4662484404
21
22.3219677684
31
0.0000000000
11
10.4298621711
21
22.3215337079
31
0.0000000000
11
10.3927234819
21
22.3213883311
31
0.0000000000
0
SPLINE
5
34B
100
AcDbEntity
8
0
100
AcDbSpline
62
7
6
CONTINUOUS
70
0
71
3
72
11
73
7
74
5
42
0.0000001000
43
0.0000001000
44
0.0000000001
12
-0.0037620475
22
-0.0343666856
32
0.0000000000
13
-0.0344320461
23
-0.0031074556
33
0.0000000000
40
0.0000000000
40
0.0000000000
40
0.0000000000
40
0.0000000000
40
0.0809096649
40
0.2725964810
40
0.5802472475
40
1.0000000000
40
1.0000000000
40
1.0000000000
40
1.0000000000
10
10.6427192511
20
22.3334109614
30
0.0000000000
10
10.6426177891
20
22.3324840957
30
0.0000000000
10
10.6387473598
20
22.3312529596
30
0.0000000000
10
10.6328950502
20
22.3302299695
30
0.0000000000
10
10.6219524148
20
22.3290599083
30
0.0000000000
10
10.6137329887
20
22.3283456263
30
0.0000000000
10
10.6089153400
20
22.3279108386
30
0.0000000000
11
10.6427192511
21
22.3334109614
31
0.0000000000
11
10.6404189773
21
22.3318193863
31
0.0000000000
11
10.6339307210
21
22.3304704706
31
0.0000000000
11
10.6233659807
21
22.3292404994
31
0.0000000000
11
10.6089153400
21
22.3279108386
31
0.0000000000
0
SPLINE
5
34C
100
AcDbEntity
8
0
100
AcDbSpline
62
7
6
CONTINUOUS
70
0
71
3
72
18
73
14
74
12
42
0.0000001000
43
0.0000001000
44
0.0000000001
12
0.3145151746
22
0.0000000000
32
0.0000000000
13
0.0031690579
23
0.3144992085
33
0.0000000000
40
0.0000000000
40
0.0000000000
40
0.0000000000
40
0.0000000000
40
0.1233645867
40
0.2431315365
40
0.3566833685
40
0.4629485722
40
0.5612613068
40
0.6513651559
40
0.7334201413
40
0.8080244445
40
0.8762413066
40
0.9395978155
40
1.0000000000
40
1.0000000000
40
1.0000000000
40
1.0000000000
10
10.3927234819
20
23.1226497308
30
0.0000000000
10
10.4056568267
20
23.1226497308
30
0.0000000000
10
10.4311574633
20
23.1239390815
30
0.0000000000
10
10.4682449588
20
23.1290658994
30
0.0000000000
10
10.5029559959
20
23.1372240001
30
0.0000000000
10
10.5345794395
20
23.1479992837
30
0.0000000000
10
10.5626605954
20
23.1610320757
30
0.0000000000
10
10.5868601424
20
23.1759532971
30
0.0000000000
10
10.6069364768
20
23.1924099204
30
0.0000000000
10
10.6227236915
20
23.2100638468
30
0.0000000000
10
10.6341092222
20
23.2285941995
30
0.0000000000
10
10.6410200052
20
23.2476524472
30
0.0000000000
10
10.6426554451
20
23.2606551517
30
0.0000000000
10
10.6427192511
20
23.2669872981
30
0.0000000000
11
10.3927234819
21
23.1226497308
31
0.0000000000
11
10.4314781276
21
23.1245259271
31
0.0000000000
11
10.4687828486
21
23.1297485157
31
0.0000000000
11
10.5035358548
21
23.1379766523
31
0.0000000000
11
10.5351430254
21
23.1488402671
31
0.0000000000
11
10.5631442164
21
23.1619563668
31
0.0000000000
11
10.5871976951
21
23.1769407141
31
0.0000000000
11
10.6070632404
21
23.1934146064
31
0.0000000000
11
10.6225882567
21
23.2110084085
31
0.0000000000
11
10.6336977090
21
23.2293634437
31
0.0000000000
11
10.6403873851
21
23.2481335519
31
0.0000000000
11
10.6427192511
21
23.2669872981
31
0.0000000000
0
SPLINE
5
34D
100
AcDbEntity
8
0
100
AcDbSpline
62
9
6
CONTINUOUS
70
0
71
3
72
17
73
13
74
11
42
0.0000001000
43
0.0000001000
44
0.0000000001
12
-0.0012298291
22
-0.3661500354
32
0.0000000000
13
-0.3661509389
23
-0.0009224053
33
0.0000000000
40
0.0000000000
40
0.0000000000
40
0.0000000000
40
0.0000000000
40
0.0926637669
40
0.1861959939
40
0.2811621264
40
0.3780472439
40
0.4771141944
40
0.5784104998
40
0.6817687109
40
0.7868361684
40
0.8931123906
40
1.0000000000
40
1.0000000000
40
1.0000000000
40
1.0000000000
10
10.6369014213
20
23.8443375673
30
0.0000000000
10
10.6368634344
20
23.8330279534
30
0.0000000000
10
10.6347153665
20
23.8102571900
30
0.0000000000
10
10.6253807886
20
23.7770555170
30
0.0000000000
10
10.6101710406
20
23.7455258597
30
0.0000000000
10
10.5894851546
20
23.7164681187
30
0.0000000000
10
10.5638500503
20
23.6905825393
30
0.0000000000
10
10.5339067862
20
23.6684905883
30
0.0000000000
10
10.5003938871
20
23.6507169506
30
0.0000000000
10
10.4641275854
20
23.6376826836
30
0.0000000000
10
10.4259984022
20
23.6296960283
30
0.0000000000
10
10.3999513183
20
23.6278640809
30
0.0000000000
10
10.3869056521
20
23.6278312164
30
0.0000000000
11
10.6369014213
21
23.8443375673
31
0.0000000000
11
10.6337263616
21
23.8105574212
31
0.0000000000
11
10.6244957389
21
23.7775778202
31
0.0000000000
11
10.6094361149
21
23.7462361050
31
0.0000000000
11
10.5889152395
21
23.7172991519
31
0.0000000000
11
10.5634375501
21
23.6914794042
31
0.0000000000
11
10.5336279765
21
23.6694102704
31
0.0000000000
11
10.5002181490
21
23.6516334796
31
0.0000000000
11
10.4640278763
21
23.6385852371
31
0.0000000000
11
10.4259457173
21
23.6305857918
31
0.0000000000
11
10.3869056521
21
23.6278312164
31
0.0000000000
0
SPLINE
5
34E
100
AcDbEntity
8
0
100
AcDbSpline
62
7
6
CONTINUOUS
70
0
71
3
72
14
73
10
74
8
42
0.0000001000
43
0.0000001000
44
0.0000000001
12
0.2154680533
22
0.0194457629
32
0.0000000000
13
0.2163437535
23
0.0000000000
33
0.0000000000
40
0.0000000000
40
0.0000000000
40
0.0000000000
40
0.0000000000
40
0.0977002541
40
0.2155580094
40
0.3503098917
40
0.5000164100
40
0.6601342501
40
0.8283335057
40
1.0000000000
40
1.0000000000
40
1.0000000000
40
1.0000000000
10
-10.6089153400
20
-22.3279108386
30
0.0000000000
10
-10.6018982454
20
-22.3272775533
30
0.0000000000
10
-10.5863937519
20
-22.3261317939
30
0.0000000000
10
-10.5611686387
20
-22.3247446775
30
0.0000000000
10
-10.5321791849
20
-22.3235588341
30
0.0000000000
10
-10.5001323845
20
-22.3226062589
30
0.0000000000
10
-10.4656665098
20
-22.3219083645
30
0.0000000000
10
-10.4296125291
20
-22.3214832174
30
0.0000000000
10
-10.4051031398
20
-22.3213883311
30
0.0000000000
10
-10.3927234819
20
-22.3213883311
30
0.0000000000
11
-10.6089153400
21
-22.3279108386
31
0.0000000000
11
-10.5878400496
21
-22.3262989677
31
0.0000000000
11
-10.5623824893
21
-22.3248672284
31
0.0000000000
11
-10.5332550051
21
-22.3236542922
31
0.0000000000
11
-10.5008816543
21
-22.3226779519
31
0.0000000000
11
-10.4662484404
21
-22.3219677684
31
0.0000000000
11
-10.4298621711
21
-22.3215337079
31
0.0000000000
11
-10.3927234819
21
-22.3213883311
31
0.0000000000
0
SPLINE
5
34F
100
AcDbEntity
8
0
100
AcDbSpline
62
7
6
CONTINUOUS
70
0
71
3
72
11
73
7
74
5
42
0.0000001000
43
0.0000001000
44
0.0000000001
12
0.0037620475
22
0.0343666856
32
0.0000000000
13
0.0344320461
23
0.0031074556
33
0.0000000000
40
0.0000000000
40
0.0000000000
40
0.0000000000
40
0.0000000000
40
0.0809096649
40
0.2725964810
40
0.5802472475
40
1.0000000000
40
1.0000000000
40
1.0000000000
40
1.0000000000
10
-10.6427192511
20
-22.3334109614
30
0.0000000000
10
-10.6426177891
20
-22.3324840957
30
0.0000000000
10
-10.6387473598
20
-22.3312529596
30
0.0000000000
10
-10.6328950502
20
-22.3302299695
30
0.0000000000
10
-10.6219524148
20
-22.3290599083
30
0.0000000000
10
-10.6137329887
20
-22.3283456263
30
0.0000000000
10
-10.6089153400
20
-22.3279108386
30
0.0000000000
11
-10.6427192511
21
-22.3334109614
31
0.0000000000
11
-10.6404189773
21
-22.3318193863
31
0.0000000000
11
-10.6339307210
21
-22.3304704706
31
0.0000000000
11
-10.6233659807
21
-22.3292404994
31
0.0000000000
11
-10.6089153400
21
-22.3279108386
31
0.0000000000
0
SPLINE
5
350
100
AcDbEntity
8
0
100
AcDbSpline
62
9
6
CONTINUOUS
70
0
71
3
72
17
73
13
74
11
42
0.0000001000
43
0.0000001000
44
0.0000000001
12
0.0012298290
22
0.3661500177
32
0.0000000000
13
0.3661509212
23
0.0009224053
33
0.0000000000
40
0.0000000000
40
0.0000000000
40
0.0000000000
40
0.0000000000
40
0.0927380474
40
0.1862683312
40
0.2812329042
40
0.3781093545
40
0.4771672798
40
0.5784533210
40
0.6818006960
40
0.7868568096
40
0.8931227640
40
1.0000000000
40
1.0000000000
40
1.0000000000
40
1.0000000000
10
-10.6369014213
20
-23.8443375673
30
0.0000000000
10
-10.6368634040
20
-23.8330188881
30
0.0000000000
10
-10.6347128050
20
-23.8102391794
30
0.0000000000
10
-10.6253712362
20
-23.7770305163
30
0.0000000000
10
-10.6101580403
20
-23.7455041908
30
0.0000000000
10
-10.5894702521
20
-23.7164507641
30
0.0000000000
10
-10.5638352095
20
-23.6905700026
30
0.0000000000
10
-10.5338933692
20
-23.6684824058
30
0.0000000000
10
-10.5003830803
20
-23.6507124021
30
0.0000000000
10
-10.4641200915
20
-23.6376807614
30
0.0000000000
10
-10.4259946055
20
-23.6296956756
30
0.0000000000
10
-10.3999500515
20
-23.6278640777
30
0.0000000000
10
-10.3869056521
20
-23.6278312164
30
0.0000000000
11
-10.6369014213
21
-23.8443375673
31
0.0000000000
11
-10.6337213727
21
-23.8105305740
31
0.0000000000
11
-10.6244863440
21
-23.7775529472
31
0.0000000000
11
-10.6094228923
21
-23.7462137069
31
0.0000000000
11
-10.5889005603
21
-23.7172816797
31
0.0000000000
11
-10.5634228098
21
-23.6914666374
31
0.0000000000
11
-10.5336146711
21
-23.6694018849
31
0.0000000000
11
-10.5002074091
21
-23.6516287232
31
0.0000000000
11
-10.4640205838
21
-23.6385831707
31
0.0000000000
11
-10.4259419448
21
-23.6305852658
31
0.0000000000
11
-10.3869056521
21
-23.6278312164
31
0.0000000000
0
SPLINE
5
351
100
AcDbEntity
8
0
100
AcDbSpline
62
7
6
CONTINUOUS
70
0
71
3
72
18
73
14
74
12
42
0.0000001000
43
0.0000001000
44
0.0000000001
12
0.0031763781
22
0.3152256661
32
0.0000000000
13
0.3152416691
23
0.0000000000
33
0.0000000000
40
0.0000000000
40
0.0000000000
40
0.0000000000
40
0.0000000000
40
0.0600923894
40
0.1232193774
40
0.1912702092
40
0.2657636629
40
0.3477531865
40
0.4378167491
40
0.5360799495
40
0.6422378908
40
0.7555663097
40
0.8749375201
40
1.0000000000
40
1.0000000000
40
1.0000000000
40
1.0000000000
10
-10.6427192511
20
-23.2669872981
30
0.0000000000
10
-10.6426556257
20
-23.2606730769
30
0.0000000000
10
-10.6410279664
20
-23.2476973339
30
0.0000000000
10
-10.6341406993
20
-23.2286603597
30
0.0000000000
10
-10.6227702490
20
-23.2101243934
30
0.0000000000
10
-10.6069794112
20
-23.1924483169
30
0.0000000000
10
-10.5868779214
20
-23.1759632854
30
0.0000000000
10
-10.5626358712
20
-23.1610164785
30
0.0000000000
10
-10.5345057593
20
-23.1479683497
30
0.0000000000
10
-10.5028435879
20
-23.1371905205
30
0.0000000000
10
-10.4681238449
20
-23.1290466719
30
0.0000000000
10
-10.4308372020
20
-23.1238898929
30
0.0000000000
10
-10.4051378881
20
-23.1226497308
30
0.0000000000
10
-10.3919962532
20
-23.1226497308
30
0.0000000000
11
-10.6427192511
21
-23.2669872981
31
0.0000000000
11
-10.6403999106
21
-23.2481861919
31
0.0000000000
11
-10.6337324006
21
-23.2294361375
31
0.0000000000
11
-10.6226377282
21
-23.2110754134
31
0.0000000000
11
-10.6071092313
21
-23.1934590071
31
0.0000000000
11
-10.5872178622
21
-23.1769551973
31
0.0000000000
11
-10.5631195591
21
-23.1619430222
31
0.0000000000
11
-10.5350651963
21
-23.1488088720
31
0.0000000000
11
-10.5034134972
21
-23.1379413340
31
0.0000000000
11
-10.4686458174
21
-23.1297228132
31
0.0000000000
11
-10.4313769407
21
-23.1245164325
31
0.0000000000
11
-10.3919962532
21
-23.1226497308
31
0.0000000000
0
SPLINE
5
352
100
AcDbEntity
8
0
100
AcDbSpline
62
7
6
CONTINUOUS
70
0
71
3
72
18
73
14
74
12
42
0.0000001000
43
0.0000001000
44
0.0000000001
12
0.0554102302
22
0.4991426714
32
0.0000000000
13
0.5022088211
23
0.0000000000
33
0.0000000000
40
0.0000000000
40
0.0000000000
40
0.0000000000
40
0.0000000000
40
0.0131680296
40
0.0448584541
40
0.0953952215
40
0.1641892112
40
0.2495168295
40
0.3502227931
40
0.4636240711
40
0.5881588180
40
0.7206279660
40
0.8589718320
40
1.0000000000
40
1.0000000000
40
1.0000000000
40
1.0000000000
10
-4.3970741618
20
-22.3736436632
30
0.0000000000
10
-4.3968309473
20
-22.3714527547
30
0.0000000000
10
-4.3875102411
20
-22.3686613249
30
0.0000000000
10
-4.3737365285
20
-22.3655305491
30
0.0000000000
10
-4.3476415101
20
-22.3622747204
30
0.0000000000
10
-4.3139473705
20
-22.3591672031
30
0.0000000000
10
-4.2712236117
20
-22.3562856057
30
0.0000000000
10
-4.2212155809
20
-22.3537304432
30
0.0000000000
10
-4.1645488800
20
-22.3515539735
30
0.0000000000
10
-4.1025709419
20
-22.3498120228
30
0.0000000000
10
-4.0363984177
20
-22.3485392392
30
0.0000000000
10
-3.9674591532
20
-22.3477649532
30
0.0000000000
10
-3.9206911534
20
-22.3475922207
30
0.0000000000
10
-3.8970826234
20
-22.3475922207
30
0.0000000000
11
-4.3970741618
21
-22.3736436632
31
0.0000000000
11
-4.3916038782
21
-22.3699276038
31
0.0000000000
11
-4.3761107513
21
-22.3662865944
31
0.0000000000
11
-4.3509707084
21
-22.3628047601
31
0.0000000000
11
-4.3165766199
21
-22.3595372656
31
0.0000000000
11
-4.2738273254
21
-22.3565680998
31
0.0000000000
11
-4.2233203075
21
-22.3539385425
31
0.0000000000
11
-4.1664124636
21
-22.3517187191
31
0.0000000000
11
-4.1038953464
21
-22.3499388540
31
0.0000000000
11
-4.0373807559
21
-22.3486449387
31
0.0000000000
11
-3.9679077206
21
-22.3478564404
31
0.0000000000
11
-3.8970826234
21
-22.3475922207
31
0.0000000000
0
SPLINE
5
353
100
AcDbEntity
8
0
100
AcDbSpline
62
9
6
CONTINUOUS
70
0
71
3
72
17
73
13
74
11
42
0.0000001000
43
0.0000001000
44
0.0000000001
12
0.0000132773
22
-0.3922846482
32
0.0000000000
13
0.3922846482
23
-0.0000132773
33
0.0000000000
40
0.0000000000
40
0.0000000000
40
0.0000000000
40
0.0000000000
40
0.0999991830
40
0.1999988695
40
0.2999989843
40
0.3999994104
40
0.5000000000
40
0.6000005896
40
0.7000010157
40
0.8000011305
40
0.9000008170
40
1.0000000000
40
1.0000000000
40
1.0000000000
40
1.0000000000
10
-10.6369014213
20
-24.2369056521
30
0.0000000000
10
-10.6369009787
20
-24.2499817002
30
0.0000000000
10
-10.6348398012
20
-24.2761802376
30
0.0000000000
10
-10.6256433486
20
-24.3144737204
30
0.0000000000
10
-10.6105686462
20
-24.3508672592
30
0.0000000000
10
-10.5899868518
20
-24.3844521345
30
0.0000000000
10
-10.5644048004
20
-24.4144048004
30
0.0000000000
10
-10.5344521345
20
-24.4399868518
30
0.0000000000
10
-10.5008672592
20
-24.4605686462
30
0.0000000000
10
-10.4644737204
20
-24.4756433486
30
0.0000000000
10
-10.4261802376
20
-24.4848398012
30
0.0000000000
10
-10.3999817002
20
-24.4869009787
30
0.0000000000
10
-10.3869056521
20
-24.4869014213
30
0.0000000000
11
-10.6369014213
21
-24.2369056521
31
0.0000000000
11
-10.6338223673
21
-24.2760127708
31
0.0000000000
11
-10.6246636657
21
-24.3141569839
31
0.0000000000
11
-10.6096508246
21
-24.3503990946
31
0.0000000000
11
-10.5891534939
21
-24.3838467403
31
0.0000000000
11
-10.5636763643
21
-24.4136763643
31
0.0000000000
11
-10.5338467403
21
-24.4391534939
31
0.0000000000
11
-10.5003990946
21
-24.4596508246
31
0.0000000000
11
-10.4641569839
21
-24.4746636657
31
0.0000000000
11
-10.4260127708
21
-24.4838223673
31
0.0000000000
11
-10.3869056521
21
-24.4869014213
31
0.0000000000
0
SPLINE
5
354
100
AcDbEntity
8
0
100
AcDbSpline
62
9
6
CONTINUOUS
70
0
71
3
72
17
73
13
74
11
42
0.0000001000
43
0.0000001000
44
0.0000000001
12
0.3922846478
22
0.0000132773
32
0.0000000000
13
0.0000132773
23
0.3922846478
33
0.0000000000
40
0.0000000000
40
0.0000000000
40
0.0000000000
40
0.0000000000
40
0.1000212882
40
0.2000437058
40
0.3000663194
40
0.4000887329
40
0.5001106882
40
0.6001308622
40
0.7001516800
40
0.8001640015
40
0.9001760606
40
1.0000000000
40
1.0000000000
40
1.0000000000
40
1.0000000000
10
-8.5130943479
20
-24.4869014213
30
0.0000000000
10
-8.5000154093
20
-24.4869009786
30
0.0000000000
10
-8.4738109783
20
-24.4848388798
30
0.0000000000
10
-8.4355093167
20
-24.4756383276
30
0.0000000000
10
-8.3991088864
20
-24.4605570063
30
0.0000000000
10
-8.3655191168
20
-24.4399665157
30
0.0000000000
10
-8.3355641420
20
-24.4143743362
30
0.0000000000
10
-8.3099825007
20
-24.3844106486
30
0.0000000000
10
-8.2894045179
20
-24.3508153163
30
0.0000000000
10
-8.2743365233
20
-24.3144125901
30
0.0000000000
10
-8.2651548664
20
-24.2761357741
30
0.0000000000
10
-8.2630990205
20
-24.2499587850
30
0.0000000000
10
-8.2630985787
20
-24.2369056521
30
0.0000000000
11
-8.5130943479
21
-24.4869014213
31
0.0000000000
11
-8.4739786381
21
-24.4838210061
31
0.0000000000
11
-8.4358262370
21
-24.4746582128
31
0.0000000000
11
-8.3995772981
21
-24.4596387939
31
0.0000000000
11
-8.3661248260
21
-24.4391328321
31
0.0000000000
11
-8.3362928401
21
-24.4136455633
31
0.0000000000
11
-8.3108163791
21
-24.3838052658
31
0.0000000000
11
-8.2903222656
21
-24.3503462678
31
0.0000000000
11
-8.2753165360
21
-24.3140960295
31
0.0000000000
11
-8.2661668528
21
-24.2759446610
31
0.0000000000
11
-8.2630985787
21
-24.2369056521
31
0.0000000000
0
SPLINE
5
355
100
AcDbEntity
8
0
100
AcDbSpline
62
7
6
CONTINUOUS
70
0
71
3
72
18
73
14
74
12
42
0.0000001000
43
0.0000001000
44
0.0000000001
12
-0.0031763781
22
0.3152256661
32
0.0000000000
13
-0.3152416691
23
0.0000000000
33
0.0000000000
40
0.0000000000
40
0.0000000000
40
0.0000000000
40
0.0000000000
40
0.0600923894
40
0.1232193774
40
0.1912702092
40
0.2657636629
40
0.3477531865
40
0.4378167491
40
0.5360799495
40
0.6422378908
40
0.7555663097
40
0.8749375201
40
1.0000000000
40
1.0000000000
40
1.0000000000
40
1.0000000000
10
-8.2572807489
20
-23.2669872981
30
0.0000000000
10
-8.2573443743
20
-23.2606730769
30
0.0000000000
10
-8.2589720336
20
-23.2476973339
30
0.0000000000
10
-8.2658593007
20
-23.2286603597
30
0.0000000000
10
-8.2772297510
20
-23.2101243934
30
0.0000000000
10
-8.2930205888
20
-23.1924483169
30
0.0000000000
10
-8.3131220786
20
-23.1759632854
30
0.0000000000
10
-8.3373641288
20
-23.1610164785
30
0.0000000000
10
-8.3654942407
20
-23.1479683497
30
0.0000000000
10
-8.3971564121
20
-23.1371905205
30
0.0000000000
10
-8.4318761551
20
-23.1290466719
30
0.0000000000
10
-8.4691627980
20
-23.1238898929
30
0.0000000000
10
-8.4948621119
20
-23.1226497308
30
0.0000000000
10
-8.5080037468
20
-23.1226497308
30
0.0000000000
11
-8.2572807489
21
-23.2669872981
31
0.0000000000
11
-8.2596000894
21
-23.2481861919
31
0.0000000000
11
-8.2662675994
21
-23.2294361375
31
0.0000000000
11
-8.2773622718
21
-23.2110754134
31
0.0000000000
11
-8.2928907687
21
-23.1934590071
31
0.0000000000
11
-8.3127821378
21
-23.1769551973
31
0.0000000000
11
-8.3368804409
21
-23.1619430222
31
0.0000000000
11
-8.3649348037
21
-23.1488088720
31
0.0000000000
11
-8.3965865028
21
-23.1379413340
31
0.0000000000
11
-8.4313541826
21
-23.1297228132
31
0.0000000000
11
-8.4686230593
21
-23.1245164325
31
0.0000000000
11
-8.5080037468
21
-23.1226497308
31
0.0000000000
0
SPLINE
5
356
100
AcDbEntity
8
0
100
AcDbSpline
62
9
6
CONTINUOUS
70
0
71
3
72
17
73
13
74
11
42
0.0000001000
43
0.0000001000
44
0.0000000001
12
-0.0012298290
22
0.3661500177
32
0.0000000000
13
-0.3661509212
23
0.0009224053
33
0.0000000000
40
0.0000000000
40
0.0000000000
40
0.0000000000
40
0.0000000000
40
0.0927380474
40
0.1862683312
40
0.2812329042
40
0.3781093545
40
0.4771672798
40
0.5784533210
40
0.6818006960
40
0.7868568096
40
0.8931227640
40
1.0000000000
40
1.0000000000
40
1.0000000000
40
1.0000000000
10
-8.2630985787
20
-23.8443375673
30
0.0000000000
10
-8.2631365960
20
-23.8330188881
30
0.0000000000
10
-8.2652871950
20
-23.8102391794
30
0.0000000000
10
-8.2746287638
20
-23.7770305163
30
0.0000000000
10
-8.2898419597
20
-23.7455041908
30
0.0000000000
10
-8.3105297479
20
-23.7164507641
30
0.0000000000
10
-8.3361647905
20
-23.6905700026
30
0.0000000000
10
-8.3661066308
20
-23.6684824058
30
0.0000000000
10
-8.3996169197
20
-23.6507124021
30
0.0000000000
10
-8.4358799085
20
-23.6376807614
30
0.0000000000
10
-8.4740053945
20
-23.6296956756
30
0.0000000000
10
-8.5000499485
20
-23.6278640777
30
0.0000000000
10
-8.5130943479
20
-23.6278312164
30
0.0000000000
11
-8.2630985787
21
-23.8443375673
31
0.0000000000
11
-8.2662786273
21
-23.8105305740
31
0.0000000000
11
-8.2755136560
21
-23.7775529472
31
0.0000000000
11
-8.2905771077
21
-23.7462137069
31
0.0000000000
11
-8.3110994397
21
-23.7172816797
31
0.0000000000
11
-8.3365771902
21
-23.6914666374
31
0.0000000000
11
-8.3663853289
21
-23.6694018849
31
0.0000000000
11
-8.3997925909
21
-23.6516287232
31
0.0000000000
11
-8.4359794162
21
-23.6385831707
31
0.0000000000
11
-8.4740580552
21
-23.6305852658
31
0.0000000000
11
-8.5130943479
21
-23.6278312164
31
0.0000000000
0
SPLINE
5
357
100
AcDbEntity
8
0
100
AcDbSpline
62
7
6
CONTINUOUS
70
0
71
3
72
17
73
13
74
11
42
0.0000001000
43
0.0000001000
44
0.0000000001
12
0.2510857530
22
0.0000000000
32
0.0000000000
13
0.0277030565
23
-0.2495527920
33
0.0000000000
40
0.0000000000
40
0.0000000000
40
0.0000000000
40
0.0000000000
40
0.1549465915
40
0.3066077184
40
0.4500385161
40
0.5832916086
40
0.7019697891
40
0.8036101933
40
0.8859945116
40
0.9465396989
40
0.9846077217
40
1.0000000000
40
1.0000000000
40
1.0000000000
40
1.0000000000
10
-8.5072765181
20
-22.3213883311
30
0.0000000000
10
-8.4943082243
20
-22.3213883311
30
0.0000000000
10
-8.4686467198
20
-22.3214923661
30
0.0000000000
10
-8.4309820572
20
-22.3219581134
30
0.0000000000
10
-8.3951426387
20
-22.3227219025
30
0.0000000000
10
-8.3620570312
20
-22.3237602668
30
0.0000000000
10
-8.3325274946
20
-22.3250517240
30
0.0000000000
10
-8.3071308408
20
-22.3265434396
30
0.0000000000
10
-8.2870106930
20
-22.3282227506
30
0.0000000000
10
-8.2712865303
20
-22.3299278075
30
0.0000000000
10
-8.2631506026
20
-22.3317328049
30
0.0000000000
10
-8.2574228866
20
-22.3331336570
30
0.0000000000
10
-8.2572807489
20
-22.3344140523
30
0.0000000000
11
-8.5072765181
21
-22.3213883311
31
0.0000000000
11
-8.4683719640
21
-22.3215479485
31
0.0000000000
11
-8.4302950034
21
-22.3220249508
31
0.0000000000
11
-8.3942899737
21
-22.3228027488
31
0.0000000000
11
-8.3608490747
21
-22.3238708763
31
0.0000000000
11
-8.3310801301
21
-22.3251954888
31
0.0000000000
11
-8.3056068875
21
-22.3267471511
31
0.0000000000
11
-8.2849952483
21
-22.3284939838
31
0.0000000000
11
-8.2699103996
21
-22.3303779093
31
0.0000000000
11
-8.2605625854
21
-22.3323729527
31
0.0000000000
11
-8.2572807489
21
-22.3344140523
31
0.0000000000
0
SPLINE
5
358
100
AcDbEntity
8
0
100
AcDbSpline
62
7
6
CONTINUOUS
70
0
71
3
72
15
73
11
74
9
42
0.0000001000
43
0.0000001000
44
0.0000000001
12
-0.1008939615
22
-0.0007779154
32
0.0000000000
13
-0.0713449249
23
-0.0713449249
33
0.0000000000
40
0.0000000000
40
0.0000000000
40
0.0000000000
40
0.0000000000
40
0.2260892411
40
0.4253808137
40
0.5965983414
40
0.7386457856
40
0.8506149034
40
0.9317923900
40
0.9816698927
40
1.0000000000
40
1.0000000000
40
1.0000000000
40
1.0000000000
10
-4.2962073137
20
-23.7953389668
30
0.0000000000
10
-4.3038109934
20
-23.7953975929
30
0.0000000000
10
-4.3181160368
20
-23.7955181613
30
0.0000000000
10
-4.3381839744
20
-23.7957099099
30
0.0000000000
10
-4.3554097967
20
-23.7959355647
30
0.0000000000
10
-4.3697420406
20
-23.7960924762
30
0.0000000000
10
-4.3809293187
20
-23.7964507627
30
0.0000000000
10
-4.3892942959
20
-23.7963319984
30
0.0000000000
10
-4.3939625085
20
-23.7971318911
30
0.0000000000
10
-4.3966382418
20
-23.7966382418
30
0.0000000000
10
-4.3970741618
20
-23.7970741618
30
0.0000000000
11
-4.2962073137
21
-23.7953389668
31
0.0000000000
11
-4.3190182283
21
-23.7955303191
31
0.0000000000
11
-4.3391251340
21
-23.7957316733
31
0.0000000000
11
-4.3563991849
21
-23.7959417390
31
0.0000000000
11
-4.3707296908
21
-23.7961591702
31
0.0000000000
11
-4.3820248254
21
-23.7963825732
31
0.0000000000
11
-4.3902122146
21
-23.7966105166
31
0.0000000000
11
-4.3952393975
21
-23.7968415396
31
0.0000000000
11
-4.3970741618
21
-23.7970741618
31
0.0000000000
0
SPLINE
5
359
100
AcDbEntity
8
0
100
AcDbSpline
62
9
6
CONTINUOUS
70
0
71
3
72
17
73
13
74
11
42
0.0000001000
43
0.0000001000
44
0.0000000001
12
0.3922846482
22
0.0000132773
32
0.0000000000
13
0.0000132773
23
0.3922846482
33
0.0000000000
40
0.0000000000
40
0.0000000000
40
0.0000000000
40
0.0000000000
40
0.0999991830
40
0.1999988695
40
0.2999989843
40
0.3999994104
40
0.5000000000
40
0.6000005896
40
0.7000010157
40
0.8000011305
40
0.9000008170
40
1.0000000000
40
1.0000000000
40
1.0000000000
40
1.0000000000
10
10.3869056521
20
-24.4869014213
30
0.0000000000
10
10.3999817002
20
-24.4869009787
30
0.0000000000
10
10.4261802376
20
-24.4848398012
30
0.0000000000
10
10.4644737204
20
-24.4756433486
30
0.0000000000
10
10.5008672592
20
-24.4605686462
30
0.0000000000
10
10.5344521345
20
-24.4399868518
30
0.0000000000
10
10.5644048004
20
-24.4144048004
30
0.0000000000
10
10.5899868518
20
-24.3844521345
30
0.0000000000
10
10.6105686462
20
-24.3508672592
30
0.0000000000
10
10.6256433486
20
-24.3144737204
30
0.0000000000
10
10.6348398012
20
-24.2761802376
30
0.0000000000
10
10.6369009787
20
-24.2499817002
30
0.0000000000
10
10.6369014213
20
-24.2369056521
30
0.0000000000
11
10.3869056521
21
-24.4869014213
31
0.0000000000
11
10.4260127708
21
-24.4838223673
31
0.0000000000
11
10.4641569839
21
-24.4746636657
31
0.0000000000
11
10.5003990946
21
-24.4596508246
31
0.0000000000
11
10.5338467403
21
-24.4391534939
31
0.0000000000
11
10.5636763643
21
-24.4136763643
31
0.0000000000
11
10.5891534939
21
-24.3838467403
31
0.0000000000
11
10.6096508246
21
-24.3503990946
31
0.0000000000
11
10.6246636657
21
-24.3141569839
31
0.0000000000
11
10.6338223673
21
-24.2760127708
31
0.0000000000
11
10.6369014213
21
-24.2369056521
31
0.0000000000
0
SPLINE
5
35A
100
AcDbEntity
8
0
100
AcDbSpline
62
7
6
CONTINUOUS
70
0
71
3
72
11
73
7
74
5
42
0.0000001000
43
0.0000001000
44
0.0000000001
12
0.0344320461
22
-0.0031074556
32
0.0000000000
13
0.0037620475
23
-0.0343666856
33
0.0000000000
40
0.0000000000
40
0.0000000000
40
0.0000000000
40
0.0000000000
40
0.4197527525
40
0.7274035190
40
0.9190903351
40
1.0000000000
40
1.0000000000
40
1.0000000000
40
1.0000000000
10
10.6089153400
20
-22.3279108386
30
0.0000000000
10
10.6137329887
20
-22.3283456263
30
0.0000000000
10
10.6219524148
20
-22.3290599083
30
0.0000000000
10
10.6328950502
20
-22.3302299695
30
0.0000000000
10
10.6387473598
20
-22.3312529596
30
0.0000000000
10
10.6426177891
20
-22.3324840957
30
0.0000000000
10
10.6427192511
20
-22.3334109614
30
0.0000000000
11
10.6089153400
21
-22.3279108386
31
0.0000000000
11
10.6233659807
21
-22.3292404994
31
0.0000000000
11
10.6339307210
21
-22.3304704706
31
0.0000000000
11
10.6404189773
21
-22.3318193863
31
0.0000000000
11
10.6427192511
21
-22.3334109614
31
0.0000000000
0
SPLINE
5
35B
100
AcDbEntity
8
0
100
AcDbSpline
62
7
6
CONTINUOUS
70
0
71
3
72
14
73
10
74
8
42
0.0000001000
43
0.0000001000
44
0.0000000001
12
0.2163437535
22
0.0000000000
32
0.0000000000
13
0.2154680533
23
-0.0194457629
33
0.0000000000
40
0.0000000000
40
0.0000000000
40
0.0000000000
40
0.0000000000
40
0.1716664943
40
0.3398657499
40
0.4999835900
40
0.6496901083
40
0.7844419906
40
0.9022997459
40
1.0000000000
40
1.0000000000
40
1.0000000000
40
1.0000000000
10
10.3927234819
20
-22.3213883311
30
0.0000000000
10
10.4051031398
20
-22.3213883311
30
0.0000000000
10
10.4296125291
20
-22.3214832174
30
0.0000000000
10
10.4656665098
20
-22.3219083645
30
0.0000000000
10
10.5001323845
20
-22.3226062589
30
0.0000000000
10
10.5321791849
20
-22.3235588341
30
0.0000000000
10
10.5611686387
20
-22.3247446775
30
0.0000000000
10
10.5863937519
20
-22.3261317939
30
0.0000000000
10
10.6018982454
20
-22.3272775533
30
0.0000000000
10
10.6089153400
20
-22.3279108386
30
0.0000000000
11
10.3927234819
21
-22.3213883311
31
0.0000000000
11
10.4298621711
21
-22.3215337079
31
0.0000000000
11
10.4662484404
21
-22.3219677684
31
0.0000000000
11
10.5008816543
21
-22.3226779519
31
0.0000000000
11
10.5332550051
21
-22.3236542922
31
0.0000000000
11
10.5623824893
21
-22.3248672284
31
0.0000000000
11
10.5878400496
21
-22.3262989677
31
0.0000000000
11
10.6089153400
21
-22.3279108386
31
0.0000000000
0
SPLINE
5
35C
100
AcDbEntity
8
0
100
AcDbSpline
62
7
6
CONTINUOUS
70
0
71
3
72
18
73
14
74
12
42
0.0000001000
43
0.0000001000
44
0.0000000001
12
-0.0031763781
22
0.3152256661
32
0.0000000000
13
-0.3152416691
23
-0.0000000000
33
0.0000000000
40
0.0000000000
40
0.0000000000
40
0.0000000000
40
0.0000000000
40
0.0600923894
40
0.1232193774
40
0.1912702092
40
0.2657636629
40
0.3477531865
40
0.4378167491
40
0.5360799495
40
0.6422378908
40
0.7555663097
40
0.8749375201
40
1.0000000000
40
1.0000000000
40
1.0000000000
40
1.0000000000
10
10.6427192511
20
-23.2669872981
30
0.0000000000
10
10.6426556257
20
-23.2606730769
30
0.0000000000
10
10.6410279664
20
-23.2476973339
30
0.0000000000
10
10.6341406993
20
-23.2286603597
30
0.0000000000
10
10.6227702490
20
-23.2101243934
30
0.0000000000
10
10.6069794112
20
-23.1924483169
30
0.0000000000
10
10.5868779214
20
-23.1759632854
30
0.0000000000
10
10.5626358712
20
-23.1610164785
30
0.0000000000
10
10.5345057593
20
-23.1479683497
30
0.0000000000
10
10.5028435879
20
-23.1371905205
30
0.0000000000
10
10.4681238449
20
-23.1290466719
30
0.0000000000
10
10.4308372020
20
-23.1238898929
30
0.0000000000
10
10.4051378881
20
-23.1226497308
30
0.0000000000
10
10.3919962532
20
-23.1226497308
30
0.0000000000
11
10.6427192511
21
-23.2669872981
31
0.0000000000
11
10.6403999106
21
-23.2481861919
31
0.0000000000
11
10.6337324006
21
-23.2294361375
31
0.0000000000
11
10.6226377282
21
-23.2110754134
31
0.0000000000
11
10.6071092313
21
-23.1934590071
31
0.0000000000
11
10.5872178622
21
-23.1769551973
31
0.0000000000
11
10.5631195591
21
-23.1619430222
31
0.0000000000
11
10.5350651963
21
-23.1488088720
31
0.0000000000
11
10.5034134972
21
-23.1379413340
31
0.0000000000
11
10.4686458174
21
-23.1297228132
31
0.0000000000
11
10.4313769407
21
-23.1245164325
31
0.0000000000
11
10.3919962532
21
-23.1226497308
31
0.0000000000
0
SPLINE
5
35D
100
AcDbEntity
8
0
100
AcDbSpline
62
7
6
CONTINUOUS
70
0
71
3
72
18
73
14
74
12
42
0.0000001000
43
0.0000001000
44
0.0000000001
12
0.3145151746
22
0.0000000000
32
0.0000000000
13
0.0031690579
23
-0.3144992085
33
0.0000000000
40
0.0000000000
40
0.0000000000
40
0.0000000000
40
0.0000000000
40
0.1233645867
40
0.2431315365
40
0.3566833685
40
0.4629485722
40
0.5612613068
40
0.6513651559
40
0.7334201413
40
0.8080244445
40
0.8762413066
40
0.9395978155
40
1.0000000000
40
1.0000000000
40
1.0000000000
40
1.0000000000
10
10.3869056521
20
-23.7000000000
30
0.0000000000
10
10.3998389969
20
-23.7000000000
30
0.0000000000
10
10.4253396335
20
-23.7012893507
30
0.0000000000
10
10.4624271289
20
-23.7064161686
30
0.0000000000
10
10.4971381661
20
-23.7145742693
30
0.0000000000
10
10.5287616097
20
-23.7253495529
30
0.0000000000
10
10.5568427656
20
-23.7383823449
30
0.0000000000
10
10.5810423125
20
-23.7533035663
30
0.0000000000
10
10.6011186470
20
-23.7697601896
30
0.0000000000
10
10.6169058617
20
-23.7874141159
30
0.0000000000
10
10.6282913924
20
-23.8059444687
30
0.0000000000
10
10.6352021754
20
-23.8250027164
30
0.0000000000
10
10.6368376153
20
-23.8380054209
30
0.0000000000
10
10.6369014213
20
-23.8443375673
30
0.0000000000
11
10.3869056521
21
-23.7000000000
31
0.0000000000
11
10.4256602978
21
-23.7018761963
31
0.0000000000
11
10.4629650187
21
-23.7070987849
31
0.0000000000
11
10.4977180250
21
-23.7153269215
31
0.0000000000
11
10.5293251956
21
-23.7261905362
31
0.0000000000
11
10.5573263866
21
-23.7393066360
31
0.0000000000
11
10.5813798653
21
-23.7542909833
31
0.0000000000
11
10.6012454106
21
-23.7707648756
31
0.0000000000
11
10.6167704268
21
-23.7883586777
31
0.0000000000
11
10.6278798791
21
-23.8067137129
31
0.0000000000
11
10.6345695553
21
-23.8254838211
31
0.0000000000
11
10.6369014213
21
-23.8443375673
31
0.0000000000
0
SPLINE
5
35E
100
AcDbEntity
8
0
100
AcDbSpline
62
7
6
CONTINUOUS
70
0
71
3
72
17
73
13
74
11
42
0.0000001000
43
0.0000001000
44
0.0000000001
12
0.0277030565
22
0.2495527920
32
0.0000000000
13
0.2510857530
23
0.0000000000
33
0.0000000000
40
0.0000000000
40
0.0000000000
40
0.0000000000
40
0.0000000000
40
0.0153922783
40
0.0534603011
40
0.1140054884
40
0.1963898067
40
0.2980302109
40
0.4167083914
40
0.5499614839
40
0.6933922816
40
0.8450534085
40
1.0000000000
40
1.0000000000
40
1.0000000000
40
1.0000000000
10
8.2572807489
20
-22.3344140523
30
0.0000000000
10
8.2574228866
20
-22.3331336570
30
0.0000000000
10
8.2631506026
20
-22.3317328049
30
0.0000000000
10
8.2712865303
20
-22.3299278075
30
0.0000000000
10
8.2870106930
20
-22.3282227506
30
0.0000000000
10
8.3071308408
20
-22.3265434396
30
0.0000000000
10
8.3325274946
20
-22.3250517240
30
0.0000000000
10
8.3620570312
20
-22.3237602668
30
0.0000000000
10
8.3951426387
20
-22.3227219025
30
0.0000000000
10
8.4309820572
20
-22.3219581134
30
0.0000000000
10
8.4686467198
20
-22.3214923661
30
0.0000000000
10
8.4943082243
20
-22.3213883311
30
0.0000000000
10
8.5072765181
20
-22.3213883311
30
0.0000000000
11
8.2572807489
21
-22.3344140523
31
0.0000000000
11
8.2605625854
21
-22.3323729527
31
0.0000000000
11
8.2699103996
21
-22.3303779093
31
0.0000000000
11
8.2849952483
21
-22.3284939838
31
0.0000000000
11
8.3056068875
21
-22.3267471511
31
0.0000000000
11
8.3310801301
21
-22.3251954888
31
0.0000000000
11
8.3608490747
21
-22.3238708763
31
0.0000000000
11
8.3942899737
21
-22.3228027488
31
0.0000000000
11
8.4302950034
21
-22.3220249508
31
0.0000000000
11
8.4683719640
21
-22.3215479485
31
0.0000000000
11
8.5072765181
21
-22.3213883311
31
0.0000000000
0
SPLINE
5
35F
100
AcDbEntity
8
0
100
AcDbSpline
62
7
6
CONTINUOUS
70
0
71
3
72
18
73
14
74
12
42
0.0000001000
43
0.0000001000
44
0.0000000001
12
0.0031763781
22
0.3152256661
32
0.0000000000
13
0.3152416691
23
0.0000000000
33
0.0000000000
40
0.0000000000
40
0.0000000000
40
0.0000000000
40
0.0000000000
40
0.0600923894
40
0.1232193774
40
0.1912702092
40
0.2657636629
40
0.3477531865
40
0.4378167491
40
0.5360799495
40
0.6422378908
40
0.7555663097
40
0.8749375201
40
1.0000000000
40
1.0000000000
40
1.0000000000
40
1.0000000000
10
8.2572807489
20
-23.2669872981
30
0.0000000000
10
8.2573443743
20
-23.2606730769
30
0.0000000000
10
8.2589720336
20
-23.2476973339
30
0.0000000000
10
8.2658593007
20
-23.2286603597
30
0.0000000000
10
8.2772297510
20
-23.2101243934
30
0.0000000000
10
8.2930205888
20
-23.1924483169
30
0.0000000000
10
8.3131220786
20
-23.1759632854
30
0.0000000000
10
8.3373641288
20
-23.1610164785
30
0.0000000000
10
8.3654942407
20
-23.1479683497
30
0.0000000000
10
8.3971564121
20
-23.1371905205
30
0.0000000000
10
8.4318761551
20
-23.1290466719
30
0.0000000000
10
8.4691627980
20
-23.1238898929
30
0.0000000000
10
8.4948621119
20
-23.1226497308
30
0.0000000000
10
8.5080037468
20
-23.1226497308
30
0.0000000000
11
8.2572807489
21
-23.2669872981
31
0.0000000000
11
8.2596000894
21
-23.2481861919
31
0.0000000000
11
8.2662675994
21
-23.2294361375
31
0.0000000000
11
8.2773622718
21
-23.2110754134
31
0.0000000000
11
8.2928907687
21
-23.1934590071
31
0.0000000000
11
8.3127821378
21
-23.1769551973
31
0.0000000000
11
8.3368804409
21
-23.1619430222
31
0.0000000000
11
8.3649348037
21
-23.1488088720
31
0.0000000000
11
8.3965865028
21
-23.1379413340
31
0.0000000000
11
8.4313541826
21
-23.1297228132
31
0.0000000000
11
8.4686230593
21
-23.1245164325
31
0.0000000000
11
8.5080037468
21
-23.1226497308
31
0.0000000000
0
SPLINE
5
360
100
AcDbEntity
8
0
100
AcDbSpline
62
7
6
CONTINUOUS
70
0
71
3
72
18
73
14
74
12
42
0.0000001000
43
0.0000001000
44
0.0000000001
12
-0.3145151746
22
0.0000000000
32
0.0000000000
13
-0.0031690579
23
-0.3144992085
33
0.0000000000
40
0.0000000000
40
0.0000000000
40
0.0000000000
40
0.0000000000
40
0.1233645867
40
0.2431315365
40
0.3566833685
40
0.4629485722
40
0.5612613068
40
0.6513651559
40
0.7334201413
40
0.8080244445
40
0.8762413066
40
0.9395978155
40
1.0000000000
40
1.0000000000
40
1.0000000000
40
1.0000000000
10
8.5130943479
20
-23.7000000000
30
0.0000000000
10
8.5001610031
20
-23.7000000000
30
0.0000000000
10
8.4746603665
20
-23.7012893507
30
0.0000000000
10
8.4375728711
20
-23.7064161686
30
0.0000000000
10
8.4028618339
20
-23.7145742693
30
0.0000000000
10
8.3712383903
20
-23.7253495529
30
0.0000000000
10
8.3431572344
20
-23.7383823449
30
0.0000000000
10
8.3189576875
20
-23.7533035663
30
0.0000000000
10
8.2988813530
20
-23.7697601896
30
0.0000000000
10
8.2830941383
20
-23.7874141159
30
0.0000000000
10
8.2717086076
20
-23.8059444687
30
0.0000000000
10
8.2647978246
20
-23.8250027164
30
0.0000000000
10
8.2631623847
20
-23.8380054209
30
0.0000000000
10
8.2630985787
20
-23.8443375673
30
0.0000000000
11
8.5130943479
21
-23.7000000000
31
0.0000000000
11
8.4743397022
21
-23.7018761963
31
0.0000000000
11
8.4370349813
21
-23.7070987849
31
0.0000000000
11
8.4022819750
21
-23.7153269215
31
0.0000000000
11
8.3706748044
21
-23.7261905362
31
0.0000000000
11
8.3426736134
21
-23.7393066360
31
0.0000000000
11
8.3186201347
21
-23.7542909833
31
0.0000000000
11
8.2987545894
21
-23.7707648756
31
0.0000000000
11
8.2832295732
21
-23.7883586777
31
0.0000000000
11
8.2721201209
21
-23.8067137129
31
0.0000000000
11
8.2654304447
21
-23.8254838211
31
0.0000000000
11
8.2630985787
21
-23.8443375673
31
0.0000000000
0
SPLINE
5
361
100
AcDbEntity
8
0
100
AcDbSpline
62
9
6
CONTINUOUS
70
0
71
3
72
17
73
13
74
11
42
0.0000001000
43
0.0000001000
44
0.0000000001
12
0.0000132773
22
-0.3922846478
32
0.0000000000
13
0.3922846478
23
-0.0000132773
33
0.0000000000
40
0.0000000000
40
0.0000000000
40
0.0000000000
40
0.0000000000
40
0.1000212882
40
0.2000437058
40
0.3000663194
40
0.4000887329
40
0.5001106882
40
0.6001308622
40
0.7001516800
40
0.8001640015
40
0.9001760606
40
1.0000000000
40
1.0000000000
40
1.0000000000
40
1.0000000000
10
8.2630985787
20
-24.2369056521
30
0.0000000000
10
8.2630990214
20
-24.2499845907
30
0.0000000000
10
8.2651611202
20
-24.2761890217
30
0.0000000000
10
8.2743616724
20
-24.3144906833
30
0.0000000000
10
8.2894429937
20
-24.3508911136
30
0.0000000000
10
8.3100334843
20
-24.3844808832
30
0.0000000000
10
8.3356256638
20
-24.4144358580
30
0.0000000000
10
8.3655893514
20
-24.4400174993
30
0.0000000000
10
8.3991846837
20
-24.4605954821
30
0.0000000000
10
8.4355874099
20
-24.4756634767
30
0.0000000000
10
8.4738642259
20
-24.4848451336
30
0.0000000000
10
8.5000412150
20
-24.4869009795
30
0.0000000000
10
8.5130943479
20
-24.4869014213
30
0.0000000000
11
8.2630985787
21
-24.2369056521
31
0.0000000000
11
8.2661789939
21
-24.2760213619
31
0.0000000000
11
8.2753417872
21
-24.3141737630
31
0.0000000000
11
8.2903612061
21
-24.3504227019
31
0.0000000000
11
8.3108671679
21
-24.3838751740
31
0.0000000000
11
8.3363544367
21
-24.4137071599
31
0.0000000000
11
8.3661947342
21
-24.4391836209
31
0.0000000000
11
8.3996537322
21
-24.4596777344
31
0.0000000000
11
8.4359039705
21
-24.4746834640
31
0.0000000000
11
8.4740553390
21
-24.4838331472
31
0.0000000000
11
8.5130943479
21
-24.4869014213
31
0.0000000000
0
SPLINE
5
362
100
AcDbEntity
8
0
100
AcDbSpline
62
9
6
CONTINUOUS
70
0
71
3
72
18
73
14
74
12
42
0.0000001000
43
0.0000001000
44
0.0000000001
12
-0.0007168851
22
-0.7839071348
32
0.0000000000
13
-0.7839071364
23
-0.0007151393
33
0.0000000000
40
0.0000000000
40
0.0000000000
40
0.0000000000
40
0.0000000000
40
0.0908336768
40
0.1816831379
40
0.2725510601
40
0.3634386252
40
0.4543454254
40
0.5452694970
40
0.6362074801
40
0.7271548910
40
0.8181064844
40
0.9090566773
40
1.0000000000
40
1.0000000000
40
1.0000000000
40
1.0000000000
10
10.9991998097
20
-21.4994104546
30
0.0000000000
10
10.9991781040
20
-21.5231455104
30
0.0000000000
10
10.9957338607
20
-21.5706863763
30
0.0000000000
10
10.9804728960
20
-21.6404867576
30
0.0000000000
10
10.9554274619
20
-21.7074329235
30
0.0000000000
10
10.9211071073
20
-21.7701446610
30
0.0000000000
10
10.8782098785
20
-21.8273520608
30
0.0000000000
10
10.8276082678
20
-21.8778907569
30
0.0000000000
10
10.7703308553
20
-21.9207337515
30
0.0000000000
10
10.7075435741
20
-21.9550100537
30
0.0000000000
10
10.6405178610
20
-21.9800229382
30
0.0000000000
10
10.5706352721
20
-21.9952638936
30
0.0000000000
10
10.5230396687
20
-21.9987035429
30
0.0000000000
10
10.4992759622
20
-21.9987252220
30
0.0000000000
11
10.9991998097
21
-21.4994104546
31
0.0000000000
11
10.9940522648
21
-21.5704293456
31
0.0000000000
11
10.9788441915
21
-21.6400041748
31
0.0000000000
11
10.9538848230
21
-21.7067202431
31
0.0000000000
11
10.9196816704
21
-21.7692209802
31
0.0000000000
11
10.8769302030
21
-21.8262355280
31
0.0000000000
11
10.8264997073
21
-21.8766045819
31
0.0000000000
11
10.7694156113
21
-21.9193039632
31
0.0000000000
11
10.7068386338
21
-21.9534654446
31
0.0000000000
11
10.6400411831
21
-21.9783944039
31
0.0000000000
11
10.5703814843
21
-21.9935839485
31
0.0000000000
11
10.4992759622
21
-21.9987252220
31
0.0000000000
0
SPLINE
5
363
100
AcDbEntity
8
0
100
AcDbSpline
62
7
6
CONTINUOUS
70
0
71
3
72
10
73
6
74
4
42
0.0000001000
43
0.0000001000
44
0.0000000001
12
-0.0073039237
22
0.0662945678
32
0.0000000000
13
-0.0072576803
23
0.0662996463
33
0.0000000000
40
0.0000000000
40
0.0000000000
40
0.0000000000
40
0.0000000000
40
0.3329986586
40
0.6663012573
40
1.0000000000
40
1.0000000000
40
1.0000000000
40
1.0000000000
10
10.6500000000
20
-22.3997080771
30
0.0000000000
10
10.6491892677
20
-22.3923494098
30
0.0000000000
10
10.6475687856
20
-22.3776251687
30
0.0000000000
10
10.6451418751
20
-22.3555261289
30
0.0000000000
10
10.6435265440
20
-22.3407856643
30
0.0000000000
10
10.6427192511
20
-22.3334109614
30
0.0000000000
11
10.6500000000
21
-22.3997080771
31
0.0000000000
11
10.6475703811
21
-22.3776317911
31
0.0000000000
11
10.6451436908
21
-22.3555347895
31
0.0000000000
11
10.6427192511
21
-22.3334109614
31
0.0000000000
0
SPLINE
5
364
100
AcDbEntity
8
0
100
AcDbSpline
62
9
6
CONTINUOUS
70
0
71
3
72
18
73
14
74
12
42
0.0000001000
43
0.0000001000
44
0.0000000001
12
-0.1956402557
22
-0.4614564316
32
0.0000000000
13
-0.5012155412
23
-0.0003594863
33
0.0000000000
40
0.0000000000
40
0.0000000000
40
0.0000000000
40
0.0000000000
40
0.0136578993
40
0.0461423457
40
0.0973924467
40
0.1665012817
40
0.2521359536
40
0.3526135152
40
0.4659469750
40
0.5898892742
40
0.7219799416
40
0.8595950469
40
1.0000000000
40
1.0000000000
40
1.0000000000
40
1.0000000000
10
10.9826730391
20
-20.5419058565
30
0.0000000000
10
10.9817823608
20
-20.5440066983
30
0.0000000000
10
10.9724438611
20
-20.5453208619
30
0.0000000000
10
10.9579242094
20
-20.5484728944
30
0.0000000000
10
10.9316812772
20
-20.5506506583
30
0.0000000000
10
10.8976967978
20
-20.5532444177
30
0.0000000000
10
10.8549865703
20
-20.5554507203
30
0.0000000000
10
10.8050411678
20
-20.5574877633
30
0.0000000000
10
10.7486236506
20
-20.5592072673
30
0.0000000000
10
10.6869324342
20
-20.5606034045
30
0.0000000000
10
10.6211712602
20
-20.5616354237
30
0.0000000000
10
10.5526563370
20
-20.5622844440
30
0.0000000000
10
10.5062069064
20
-20.5624514889
30
0.0000000000
10
10.4827491915
20
-20.5624683135
30
0.0000000000
11
10.9826730391
21
-20.5419058565
31
0.0000000000
11
10.9764695409
21
-20.5448003699
31
0.0000000000
11
10.9604368785
21
-20.5476372581
31
0.0000000000
11
10.9348942361
21
-20.5503600432
31
0.0000000000
11
10.9003501258
21
-20.5529145192
31
0.0000000000
11
10.8574922644
21
-20.5552498304
31
0.0000000000
11
10.8071738816
21
-20.5573194848
31
0.0000000000
11
10.7503967343
21
-20.5590822789
31
0.0000000000
11
10.6882911625
21
-20.5605031183
31
0.0000000000
11
10.6220935864
21
-20.5615537164
31
0.0000000000
11
10.5531218916
21
-20.5622131576
31
0.0000000000
11
10.4827491915
21
-20.5624683135
31
0.0000000000
0
SPLINE
5
365
100
AcDbEntity
8
0
100
AcDbSpline
62
9
6
CONTINUOUS
70
0
71
3
72
21
73
17
74
15
42
0.0000001000
43
0.0000001000
44
0.0000000001
12
0.0006884870
22
-1.4365128185
32
0.0000000000
13
0.3113016259
23
-1.4023768571
33
0.0000000000
40
0.0000000000
40
0.0000000000
40
0.0000000000
40
0.0000000000
40
0.1096476185
40
0.2175908930
40
0.3226426311
40
0.4236265897
40
0.5194224247
40
0.6089655264
40
0.6912580414
40
0.7653854385
40
0.8305238218
40
0.8859478036
40
0.9310427372
40
0.9653101011
40
0.9883726012
40
1.0000000000
40
1.0000000000
40
1.0000000000
40
1.0000000000
10
10.4827491915
20
-20.5624683248
30
0.0000000000
10
10.4827743552
20
-20.6149717280
30
0.0000000000
10
10.4828878724
20
-20.7191624116
30
0.0000000000
10
10.4832491199
20
-20.8736554723
30
0.0000000000
10
10.4837964389
20
-21.0239994763
30
0.0000000000
10
10.4845234806
20
-21.1685260084
30
0.0000000000
10
10.4854219087
20
-21.3056252898
30
0.0000000000
10
10.4864807399
20
-21.4337730703
30
0.0000000000
10
10.4876887010
20
-21.5515431105
30
0.0000000000
10
10.4890264965
20
-21.6576259191
30
0.0000000000
10
10.4904908166
20
-21.7508373684
30
0.0000000000
10
10.4920195086
20
-21.8301516808
30
0.0000000000
10
10.4937051973
20
-21.8946553634
30
0.0000000000
10
10.4952027028
20
-21.9437156627
30
0.0000000000
10
10.4971472825
20
-21.9766096624
30
0.0000000000
10
10.4980694194
20
-21.9932898903
30
0.0000000000
10
10.4992759622
20
-21.9987252220
30
0.0000000000
11
10.4827491915
21
-20.5624683248
31
0.0000000000
11
10.4829218004
21
-20.7199784578
31
0.0000000000
11
10.4832864666
21
-20.8750399444
31
0.0000000000
11
10.4838391810
21
-21.0259471178
31
0.0000000000
11
10.4845737592
21
-21.1710100256
31
0.0000000000
11
10.4854820551
21
-21.3086189887
31
0.0000000000
11
10.4865539792
21
-21.4372443505
31
0.0000000000
11
10.4877775922
21
-21.5554522839
31
0.0000000000
11
10.4891392936
21
-21.6619285454
31
0.0000000000
11
10.4906239476
21
-21.7554888998
31
0.0000000000
11
10.4922150103
21
-21.8350902699
31
0.0000000000
11
10.4938947835
21
-21.8998479451
31
0.0000000000
11
10.4956446592
21
-21.9490423459
31
0.0000000000
11
10.4974449498
21
-21.9821229758
31
0.0000000000
11
10.4992759622
21
-21.9987252220
31
0.0000000000
0
SPLINE
5
366
100
AcDbEntity
8
0
100
AcDbSpline
62
9
6
CONTINUOUS
70
0
71
3
72
21
73
17
74
15
42
0.0000001000
43
0.0000001000
44
0.0000000001
12
0.0006885301
22
-0.9578878257
32
0.0000000000
13
0.3025944479
23
-0.9088378078
33
0.0000000000
40
0.0000000000
40
0.0000000000
40
0.0000000000
40
0.0000000000
40
0.1095659492
40
0.2174938642
40
0.3225318738
40
0.4235038677
40
0.5192897568
40
0.6088251479
40
0.6911124643
40
0.7652375262
40
0.8303768291
40
0.8858056334
40
0.9309109284
40
0.9651972227
40
0.9882949678
40
1.0000000000
40
1.0000000000
40
1.0000000000
40
1.0000000000
10
10.9826730391
20
-20.5419058565
30
0.0000000000
10
10.9826981856
20
-20.5768898195
30
0.0000000000
10
10.9828116483
20
-20.6463346997
30
0.0000000000
10
10.9831727644
20
-20.7493172718
30
0.0000000000
10
10.9837200352
20
-20.8495549733
30
0.0000000000
10
10.9844470765
20
-20.9459145427
30
0.0000000000
10
10.9853455148
20
-21.0373224934
30
0.0000000000
10
10.9864044238
20
-21.1227624898
30
0.0000000000
10
10.9876123850
20
-21.2012831887
30
0.0000000000
10
10.9889505520
20
-21.2720122088
30
0.0000000000
10
10.9904142212
20
-21.3341571955
30
0.0000000000
10
10.9919454259
20
-21.3870423785
30
0.0000000000
10
10.9936250088
20
-21.4300363436
30
0.0000000000
10
10.9951387458
20
-21.4627791615
30
0.0000000000
10
10.9970530228
20
-21.4846606776
30
0.0000000000
10
10.9980191838
20
-21.4958644627
30
0.0000000000
10
10.9991998097
20
-21.4994104546
30
0.0000000000
11
10.9826730391
21
-20.5419058565
31
0.0000000000
11
10.9828455068
21
-20.6468576308
31
0.0000000000
11
10.9832101094
21
-20.7502398504
31
0.0000000000
11
10.9837627808
21
-20.8508529891
31
0.0000000000
11
10.9844973509
21
-20.9475700682
31
0.0000000000
11
10.9854056652
21
-21.0393177329
31
0.0000000000
11
10.9864776382
21
-21.1250759166
31
0.0000000000
11
10.9877013281
21
-21.2038884562
31
0.0000000000
11
10.9890631327
21
-21.2748789085
31
0.0000000000
11
10.9905479124
21
-21.3372574014
31
0.0000000000
11
10.9921391093
21
-21.3903281432
31
0.0000000000
11
10.9938190326
21
-21.4335012957
31
0.0000000000
11
10.9955690341
21
-21.4662970707
31
0.0000000000
11
10.9973695075
21
-21.4883487449
31
0.0000000000
11
10.9991998097
21
-21.4994104546
31
0.0000000000
0
SPLINE
5
367
100
AcDbEntity
8
0
100
AcDbSpline
62
9
6
CONTINUOUS
70
0
71
3
72
18
73
14
74
12
42
0.0000001000
43
0.0000001000
44
0.0000000001
12
-0.1956360008
22
0.4614582401
32
0.0000000000
13
-0.5012155454
23
0.0003594874
33
0.0000000000
40
0.0000000000
40
0.0000000000
40
0.0000000000
40
0.0000000000
40
0.0136578491
40
0.0461422523
40
0.0973923222
40
0.1665011386
40
0.2521358042
40
0.3526133710
40
0.4659468462
40
0.5898891695
40
0.7219798678
40
0.8595950088
40
1.0000000000
40
1.0000000000
40
1.0000000000
40
1.0000000000
10
10.9826730391
20
20.5419058565
30
0.0000000000
10
10.9817823834
20
20.5440066988
30
0.0000000000
10
10.9724438735
20
20.5453208666
30
0.0000000000
10
10.9579242672
20
20.5484728971
30
0.0000000000
10
10.9316813367
20
20.5506506627
30
0.0000000000
10
10.8976968724
20
20.5532444230
30
0.0000000000
10
10.8549866457
20
20.5554507268
30
0.0000000000
10
10.8050412413
20
20.5574877710
30
0.0000000000
10
10.7486237159
20
20.5592072761
30
0.0000000000
10
10.6869324873
20
20.5606034143
30
0.0000000000
10
10.6211712975
20
20.5616354342
30
0.0000000000
10
10.5526563563
20
20.5622844551
30
0.0000000000
10
10.5062069129
20
20.5624515002
30
0.0000000000
10
10.4827491915
20
20.5624683248
30
0.0000000000
11
10.9826730391
21
20.5419058565
31
0.0000000000
11
10.9764695691
21
20.5448003710
31
0.0000000000
11
10.9604369288
21
20.5476372604
31
0.0000000000
11
10.9348943020
21
20.5503600469
31
0.0000000000
11
10.9003502008
21
20.5529145242
31
0.0000000000
11
10.8574923423
21
20.5552498368
31
0.0000000000
11
10.8071739566
21
20.5573194924
31
0.0000000000
11
10.7503968011
21
20.5590822876
31
0.0000000000
11
10.6882912167
21
20.5605031280
31
0.0000000000
11
10.6220936246
21
20.5615537269
31
0.0000000000
11
10.5531219113
21
20.5622131686
31
0.0000000000
11
10.4827491915
21
20.5624683248
31
0.0000000000
0
SPLINE
5
368
100
AcDbEntity
8
0
100
AcDbSpline
62
9
6
CONTINUOUS
70
0
71
3
72
14
73
10
74
8
42
0.0000001000
43
0.0000001000
44
0.0000000001
12
-0.0295164970
22
-41.1249295136
32
0.0000000000
13
0.0295164969
23
-41.1249295136
33
0.0000000000
40
0.0000000000
40
0.0000000000
40
0.0000000000
40
0.0000000000
40
0.1428078204
40
0.2856649617
40
0.4285516989
40
0.5714483011
40
0.7143350383
40
0.8571921796
40
1.0000000000
40
1.0000000000
40
1.0000000000
40
1.0000000000
10
10.4827491915
20
20.5624683248
30
0.0000000000
10
10.4813441293
20
18.6048144761
30
0.0000000000
10
10.4789355612
20
14.6888303704
30
0.0000000000
10
10.4765272434
20
8.8141098413
30
0.0000000000
10
10.4753230011
20
2.9381718910
30
0.0000000000
10
10.4753230011
20
-2.9381718907
30
0.0000000000
10
10.4765272434
20
-8.8141098412
30
0.0000000000
10
10.4789355612
20
-14.6888303703
30
0.0000000000
10
10.4813441293
20
-18.6048144760
30
0.0000000000
10
10.4827491915
20
-20.5624683248
30
0.0000000000
11
10.4827491915
21
20.5624683248
31
0.0000000000
11
10.4791367143
21
14.6895063770
31
0.0000000000
11
10.4767281190
21
8.8145154880
31
0.0000000000
11
10.4755237382
21
2.9383071023
31
0.0000000000
11
10.4755237382
21
-2.9383071020
31
0.0000000000
11
10.4767281190
21
-8.8145154878
31
0.0000000000
11
10.4791367143
21
-14.6895063768
31
0.0000000000
11
10.4827491915
21
-20.5624683248
31
0.0000000000
0
SPLINE
5
369
100
AcDbEntity
8
0
100
AcDbSpline
62
9
6
CONTINUOUS
70
0
71
3
72
14
73
10
74
8
42
0.0000001000
43
0.0000001000
44
0.0000000001
12
-0.0295164970
22
-41.0838045698
32
0.0000000000
13
0.0295164969
23
-41.0838045698
33
0.0000000000
40
0.0000000000
40
0.0000000000
40
0.0000000000
40
0.0000000000
40
0.1428078035
40
0.2856649538
40
0.4285516999
40
0.5714483109
40
0.7143350570
40
0.8571922072
40
1.0000000000
40
1.0000000000
40
1.0000000000
40
1.0000000000
10
10.9826730391
20
20.5419058565
30
0.0000000000
10
10.9812679771
20
18.5862098926
30
0.0000000000
10
10.9788594090
20
14.6741418804
30
0.0000000000
10
10.9764510910
20
8.8052960587
30
0.0000000000
10
10.9752468487
20
2.9352336803
30
0.0000000000
10
10.9752468487
20
-2.9352341236
30
0.0000000000
10
10.9764510912
20
-8.8052965014
30
0.0000000000
10
10.9788594092
20
-14.6741421753
30
0.0000000000
10
10.9812679772
20
-18.5862100399
30
0.0000000000
10
10.9826730391
20
-20.5419058565
30
0.0000000000
11
10.9826730391
21
20.5419058565
31
0.0000000000
11
10.9790605622
21
14.6748175628
31
0.0000000000
11
10.9766519667
21
8.8057012996
31
0.0000000000
11
10.9754475858
21
2.9353687563
31
0.0000000000
11
10.9754475858
21
-2.9353691998
31
0.0000000000
11
10.9766519668
21
-8.8057017423
31
0.0000000000
11
10.9790605624
21
-14.6748180047
31
0.0000000000
11
10.9826730391
21
-20.5419058565
31
0.0000000000
0
SPLINE
5
36A
100
AcDbEntity
8
0
100
AcDbSpline
62
9
6
CONTINUOUS
70
0
71
3
72
18
73
14
74
12
42
0.0000001000
43
0.0000001000
44
0.0000000001
12
-0.0007168851
22
0.7839071348
32
0.0000000000
13
-0.7839071364
23
0.0007151394
33
0.0000000000
40
0.0000000000
40
0.0000000000
40
0.0000000000
40
0.0000000000
40
0.0908336448
40
0.1816830803
40
0.2725509838
40
0.3634385376
40
0.4543453337
40
0.5452694081
40
0.6362074004
40
0.7271548260
40
0.8181064385
40
0.9090566536
40
1.0000000000
40
1.0000000000
40
1.0000000000
40
1.0000000000
10
10.9991998097
20
21.4994104546
30
0.0000000000
10
10.9991781040
20
21.5231455020
30
0.0000000000
10
10.9957338630
20
21.5706863528
30
0.0000000000
10
10.9804729075
20
21.6404867156
30
0.0000000000
10
10.9554274856
20
21.7074328703
30
0.0000000000
10
10.9211071434
20
21.7701446043
30
0.0000000000
10
10.8782099247
20
21.8273520075
30
0.0000000000
10
10.8276083197
20
21.8778907122
30
0.0000000000
10
10.7703309073
20
21.9207337187
30
0.0000000000
10
10.7075436199
20
21.9550100334
30
0.0000000000
10
10.6405178952
20
21.9800229290
30
0.0000000000
10
10.5706352903
20
21.9952638918
30
0.0000000000
10
10.5230396749
20
21.9987035429
30
0.0000000000
10
10.4992759622
20
21.9987252220
30
0.0000000000
11
10.9991998097
21
21.4994104546
31
0.0000000000
11
10.9940522684
21
21.5704293207
31
0.0000000000
11
10.9788442043
21
21.6400041313
31
0.0000000000
11
10.9538848479
21
21.7067201886
31
0.0000000000
11
10.9196817076
21
21.7692209223
31
0.0000000000
11
10.8769302502
21
21.8262354735
31
0.0000000000
11
10.8264997602
21
21.8766045361
31
0.0000000000
11
10.7694156640
21
21.9193039293
31
0.0000000000
11
10.7068386803
21
21.9534654233
31
0.0000000000
11
10.6400412177
21
21.9783943937
31
0.0000000000
11
10.5703815027
21
21.9935839459
31
0.0000000000
11
10.4992759622
21
21.9987252220
31
0.0000000000
0
SPLINE
5
36B
100
AcDbEntity
8
0
100
AcDbSpline
62
9
6
CONTINUOUS
70
0
71
3
72
21
73
17
74
15
42
0.0000001000
43
0.0000001000
44
0.0000000001
12
-0.3113088231
22
-1.4023752587
32
0.0000000000
13
-0.0006883741
23
-1.4365128178
33
0.0000000000
40
0.0000000000
40
0.0000000000
40
0.0000000000
40
0.0000000000
40
0.0116273329
40
0.0346898061
40
0.0689571398
40
0.1140520285
40
0.1694760030
40
0.2346143665
40
0.3087417298
40
0.3910342353
40
0.4805773113
40
0.5763730913
40
0.6773570638
40
0.7824087775
40
0.8903519822
40
1.0000000000
40
1.0000000000
40
1.0000000000
40
1.0000000000
10
10.4992759622
20
21.9987252220
30
0.0000000000
10
10.4980693984
20
21.9932899273
30
0.0000000000
10
10.4971473281
20
21.9766097311
30
0.0000000000
10
10.4952026941
20
21.9437158003
30
0.0000000000
10
10.4937052199
20
21.8946555448
30
0.0000000000
10
10.4920195176
20
21.8301519038
30
0.0000000000
10
10.4904908310
20
21.7508376252
30
0.0000000000
10
10.4890265087
20
21.6576262054
30
0.0000000000
10
10.4876887128
20
21.5515434269
30
0.0000000000
10
10.4864807495
20
21.4337734198
30
0.0000000000
10
10.4854219167
20
21.3056256827
30
0.0000000000
10
10.4845234854
20
21.1685264333
30
0.0000000000
10
10.4837964445
20
21.0239999327
30
0.0000000000
10
10.4832491187
20
20.8736559672
30
0.0000000000
10
10.4828878779
20
20.7191627605
30
0.0000000000
10
10.4827743511
20
20.6149719191
30
0.0000000000
10
10.4827491915
20
20.5624683248
30
0.0000000000
11
10.4992759622
21
21.9987252220
31
0.0000000000
11
10.4974449649
21
21.9821230696
31
0.0000000000
11
10.4956446701
21
21.9490424785
31
0.0000000000
11
10.4938947967
21
21.8998481209
31
0.0000000000
11
10.4922150236
21
21.8350905104
31
0.0000000000
11
10.4906239605
21
21.7554891508
31
0.0000000000
11
10.4891393061
21
21.6619288248
31
0.0000000000
11
10.4877776040
21
21.5554526120
31
0.0000000000
11
10.4865539889
21
21.4372446922
31
0.0000000000
11
10.4854820629
21
21.3086193676
31
0.0000000000
11
10.4845737649
21
21.1710104836
31
0.0000000000
11
10.4838391853
21
21.0259475558
31
0.0000000000
11
10.4832864677
21
20.8750404175
31
0.0000000000
11
10.4829218028
21
20.7199790313
31
0.0000000000
11
10.4827491915
21
20.5624683248
31
0.0000000000
0
SPLINE
5
36C
100
AcDbEntity
8
0
100
AcDbSpline
62
9
6
CONTINUOUS
70
0
71
3
72
21
73
17
74
15
42
0.0000001000
43
0.0000001000
44
0.0000000001
12
-0.3025837785
22
-0.9088413634
32
0.0000000000
13
-0.0006884958
23
-0.9578878289
33
0.0000000000
40
0.0000000000
40
0.0000000000
40
0.0000000000
40
0.0000000000
40
0.0117024917
40
0.0347984831
40
0.0690828211
40
0.1141860954
40
0.1696128360
40
0.2347500359
40
0.3088733116
40
0.3911594960
40
0.4806943373
40
0.5764799000
40
0.6774518675
40
0.7824900079
40
0.8904182149
40
1.0000000000
40
1.0000000000
40
1.0000000000
40
1.0000000000
10
10.9991998097
20
21.4994104546
30
0.0000000000
10
10.9980194817
20
21.4958652184
30
0.0000000000
10
10.9970531248
20
21.4846628862
30
0.0000000000
10
10.9951390550
20
21.4627833207
30
0.0000000000
10
10.9936252492
20
21.4300423546
30
0.0000000000
10
10.9919456988
20
21.3870503115
30
0.0000000000
10
10.9904144788
20
21.3341671077
30
0.0000000000
10
10.9889508023
20
21.2720240214
30
0.0000000000
10
10.9876126137
20
21.2012966052
30
0.0000000000
10
10.9864046240
20
21.1227770139
30
0.0000000000
10
10.9853456820
20
21.0373376588
30
0.0000000000
10
10.9844472092
20
20.9459299964
30
0.0000000000
10
10.9837201355
20
20.8495704978
30
0.0000000000
10
10.9831728311
20
20.7493326696
30
0.0000000000
10
10.9828116708
20
20.6463449059
30
0.0000000000
10
10.9826981880
20
20.5768948759
30
0.0000000000
10
10.9826730391
20
20.5419058565
30
0.0000000000
11
10.9991998097
21
21.4994104546
31
0.0000000000
11
10.9973697720
21
21.4883511677
31
0.0000000000
11
10.9955693033
21
21.4663011785
31
0.0000000000
11
10.9938193035
21
21.4335072799
31
0.0000000000
11
10.9921393793
21
21.3903360643
31
0.0000000000
11
10.9905481765
21
21.3372673002
31
0.0000000000
11
10.9890633871
21
21.2748908223
31
0.0000000000
11
10.9877015632
21
21.2039020815
31
0.0000000000
11
10.9864778433
21
21.1250906265
31
0.0000000000
11
10.9854058349
21
21.0393329696
31
0.0000000000
11
10.9844974861
21
20.9475856177
31
0.0000000000
11
10.9837628821
21
20.8508685638
31
0.0000000000
11
10.9832101781
21
20.7502552997
31
0.0000000000
11
10.9828455461
21
20.6468728001
31
0.0000000000
11
10.9826730391
21
20.5419058565
31
0.0000000000
0
SPLINE
5
36D
100
AcDbEntity
8
0
100
AcDbSpline
62
7
6
CONTINUOUS
70
0
71
3
72
10
73
6
74
4
42
0.0000001000
43
0.0000001000
44
0.0000000001
12
0.0072576803
22
0.0662996463
32
0.0000000000
13
0.0073039237
23
0.0662945678
33
0.0000000000
40
0.0000000000
40
0.0000000000
40
0.0000000000
40
0.0000000000
40
0.3336987427
40
0.6670013414
40
1.0000000000
40
1.0000000000
40
1.0000000000
40
1.0000000000
10
10.6427192511
20
22.3334109614
30
0.0000000000
10
10.6435265440
20
22.3407856643
30
0.0000000000
10
10.6451418751
20
22.3555261289
30
0.0000000000
10
10.6475687856
20
22.3776251687
30
0.0000000000
10
10.6491892677
20
22.3923494098
30
0.0000000000
10
10.6500000000
20
22.3997080771
30
0.0000000000
11
10.6427192511
21
22.3334109614
31
0.0000000000
11
10.6451436908
21
22.3555347895
31
0.0000000000
11
10.6475703811
21
22.3776317911
31
0.0000000000
11
10.6500000000
21
22.3997080771
31
0.0000000000
0
SPLINE
5
36E
100
AcDbEntity
8
0
100
AcDbSpline
62
7
6
CONTINUOUS
70
0
71
3
72
17
73
13
74
11
42
0.0000001000
43
0.0000001000
44
0.0000000001
12
0.4499134171
22
0.0034689349
32
0.0000000000
13
0.3802575409
23
0.2404959853
33
0.0000000000
40
0.0000000000
40
0.0000000000
40
0.0000000000
40
0.0000000000
40
0.0745161516
40
0.1578620335
40
0.2489784530
40
0.3464791953
40
0.4490687639
40
0.5555830270
40
0.6649556765
40
0.7761688910
40
0.8882083217
40
1.0000000000
40
1.0000000000
40
1.0000000000
40
1.0000000000
10
-4.2962073137
20
-23.7953389668
30
0.0000000000
10
-4.2850320415
20
-23.7952528029
30
0.0000000000
10
-4.2614031097
20
-23.7917170258
30
0.0000000000
10
-4.2256942924
20
-23.7806312323
30
0.0000000000
10
-4.1879781481
20
-23.7649859519
30
0.0000000000
10
-4.1486966097
20
-23.7458657106
30
0.0000000000
10
-4.1081825603
20
-23.7240967369
30
0.0000000000
10
-4.0667444235
20
-23.7003350343
30
0.0000000000
10
-4.0246575110
20
-23.6751262956
30
0.0000000000
10
-3.9821908435
20
-23.6489491484
30
0.0000000000
10
-3.9396235963
20
-23.6222477720
30
0.0000000000
10
-3.9112524996
20
-23.6043041681
30
0.0000000000
10
-3.8970826234
20
-23.5953423515
30
0.0000000000
11
-4.2962073137
21
-23.7953389668
31
0.0000000000
11
-4.2629449272
21
-23.7911364879
31
0.0000000000
11
-4.2269974920
21
-23.7804595132
31
0.0000000000
11
-4.1890303044
21
-23.7649953104
31
0.0000000000
11
-4.1495139203
21
-23.7459460582
31
0.0000000000
11
-4.1088030396
21
-23.7241936730
31
0.0000000000
11
-4.0671923756
21
-23.7004191901
31
0.0000000000
11
-4.0249483201
21
-23.6751796798
31
0.0000000000
11
-3.9823307642
21
-23.6489589663
31
0.0000000000
11
-3.9396087954
21
-23.6222016262
31
0.0000000000
11
-3.8970826234
21
-23.5953423515
31
0.0000000000
0
SPLINE
5
36F
100
AcDbEntity
8
0
100
AcDbSpline
62
7
6
CONTINUOUS
70
0
71
3
72
16
73
12
74
10
42
0.0000001000
43
0.0000001000
44
0.0000000001
12
-0.0002122239
22
-0.5533630193
32
0.0000000000
13
-0.4952765776
23
-0.2476596337
33
0.0000000000
40
0.0000000000
40
0.0000000000
40
0.0000000000
40
0.0000000000
40
0.1118565208
40
0.2243244341
40
0.3375581727
40
0.4520664600
40
0.5682200697
40
0.6855120601
40
0.8030067579
40
0.9195586227
40
1.0000000000
40
1.0000000000
40
1.0000000000
40
1.0000000000
10
11.1325830976
20
-21.8998857286
30
0.0000000000
10
11.1325751847
20
-21.9205181493
30
0.0000000000
10
11.1299933824
20
-21.9619403453
30
0.0000000000
10
11.1184245874
20
-22.0232762506
30
0.0000000000
10
11.0991547423
20
-22.0831723367
30
0.0000000000
10
11.0722207442
20
-22.1407902779
30
0.0000000000
10
11.0377678769
20
-22.1951506949
30
0.0000000000
10
10.9962440575
20
-22.2450473616
30
0.0000000000
10
10.9485507101
20
-22.2891939691
30
0.0000000000
10
10.9011148887
20
-22.3228626285
30
0.0000000000
10
10.8693172325
20
-22.3405729379
30
0.0000000000
10
10.8560369892
20
-22.3472136320
30
0.0000000000
11
11.1325830976
21
-21.8998857286
31
0.0000000000
11
11.1287308067
21
-21.9616630017
31
0.0000000000
11
11.1171972025
21
-22.0228205398
31
0.0000000000
11
11.0980063933
21
-22.0824687523
31
0.0000000000
11
11.0711731639
21
-22.1398713434
31
0.0000000000
11
11.0367648316
21
-22.1941609125
31
0.0000000000
11
10.9952469627
21
-22.2440501167
31
0.0000000000
11
10.9475327983
21
-22.2882156930
31
0.0000000000
11
10.8949385898
21
-22.3255455511
31
0.0000000000
11
10.8560369892
21
-22.3472136320
31
0.0000000000
0
SPLINE
5
370
100
AcDbEntity
8
0
100
AcDbSpline
62
7
6
CONTINUOUS
70
0
71
3
72
10
73
6
74
4
42
0.0000001000
43
0.0000001000
44
0.0000000001
12
-0.0072576803
22
-0.0662996463
32
0.0000000000
13
-0.0073039237
23
-0.0662945678
33
0.0000000000
40
0.0000000000
40
0.0000000000
40
0.0000000000
40
0.0000000000
40
0.3336987427
40
0.6670013414
40
1.0000000000
40
1.0000000000
40
1.0000000000
40
1.0000000000
10
-10.6427192511
20
-22.3334109614
30
0.0000000000
10
-10.6435265440
20
-22.3407856643
30
0.0000000000
10
-10.6451418751
20
-22.3555261289
30
0.0000000000
10
-10.6475687856
20
-22.3776251687
30
0.0000000000
10
-10.6491892677
20
-22.3923494098
30
0.0000000000
10
-10.6500000000
20
-22.3997080771
30
0.0000000000
11
-10.6427192511
21
-22.3334109614
31
0.0000000000
11
-10.6451436908
21
-22.3555347895
31
0.0000000000
11
-10.6475703811
21
-22.3776317911
31
0.0000000000
11
-10.6500000000
21
-22.3997080771
31
0.0000000000
0
SPLINE
5
371
100
AcDbEntity
8
0
100
AcDbSpline
62
9
6
CONTINUOUS
70
0
71
3
72
18
73
14
74
12
42
0.0000001000
43
0.0000001000
44
0.0000000001
12
0.0007168851
22
-0.7839071348
32
0.0000000000
13
0.7839071364
23
-0.0007151394
33
0.0000000000
40
0.0000000000
40
0.0000000000
40
0.0000000000
40
0.0000000000
40
0.0908336581
40
0.1816831045
40
0.2725510161
40
0.3634385748
40
0.4543453729
40
0.5452694462
40
0.6362074347
40
0.7271548540
40
0.8181064583
40
0.9090566639
40
1.0000000000
40
1.0000000000
40
1.0000000000
40
1.0000000000
10
-10.9991998097
20
-21.4994104546
30
0.0000000000
10
-10.9991781040
20
-21.5231455055
30
0.0000000000
10
-10.9957338620
20
-21.5706863627
30
0.0000000000
10
-10.9804729026
20
-21.6404867332
30
0.0000000000
10
-10.9554274756
20
-21.7074328928
30
0.0000000000
10
-10.9211071281
20
-21.7701446284
30
0.0000000000
10
-10.8782099049
20
-21.8273520303
30
0.0000000000
10
-10.8276082975
20
-21.8778907313
30
0.0000000000
10
-10.7703308849
20
-21.9207337328
30
0.0000000000
10
-10.7075436001
20
-21.9550100422
30
0.0000000000
10
-10.6405178804
20
-21.9800229330
30
0.0000000000
10
-10.5706352825
20
-21.9952638926
30
0.0000000000
10
-10.5230396722
20
-21.9987035429
30
0.0000000000
10
-10.4992759622
20
-21.9987252220
30
0.0000000000
11
-10.9991998097
21
-21.4994104546
31
0.0000000000
11
-10.9940522669
21
-21.5704293311
31
0.0000000000
11
-10.9788441989
21
-21.6400041496
31
0.0000000000
11
-10.9538848374
21
-21.7067202116
31
0.0000000000
11
-10.9196816918
21
-21.7692209469
31
0.0000000000
11
-10.8769302300
21
-21.8262354968
31
0.0000000000
11
-10.8264997375
21
-21.8766045557
31
0.0000000000
11
-10.7694156414
21
-21.9193039439
31
0.0000000000
11
-10.7068386602
21
-21.9534654325
31
0.0000000000
11
-10.6400412027
21
-21.9783943981
31
0.0000000000
11
-10.5703814948
21
-21.9935839470
31
0.0000000000
11
-10.4992759622
21
-21.9987252220
31
0.0000000000
0
SPLINE
5
372
100
AcDbEntity
8
0
100
AcDbSpline
62
9
6
CONTINUOUS
70
0
71
3
72
21
73
17
74
15
42
0.0000001000
43
0.0000001000
44
0.0000000001
12
0.3113016268
22
1.4023768569
32
0.0000000000
13
0.0006884870
23
1.4365128185
33
0.0000000000
40
0.0000000000
40
0.0000000000
40
0.0000000000
40
0.0000000000
40
0.0116273988
40
0.0346898989
40
0.0689572628
40
0.1140521964
40
0.1694761782
40
0.2346145615
40
0.3087419586
40
0.3910344736
40
0.4805775753
40
0.5763734103
40
0.6773573689
40
0.7824091070
40
0.8903523815
40
1.0000000000
40
1.0000000000
40
1.0000000000
40
1.0000000000
10
-10.4992759622
20
-21.9987252220
30
0.0000000000
10
-10.4980694194
20
-21.9932898903
30
0.0000000000
10
-10.4971472825
20
-21.9766096624
30
0.0000000000
10
-10.4952027028
20
-21.9437156627
30
0.0000000000
10
-10.4937051973
20
-21.8946553634
30
0.0000000000
10
-10.4920195086
20
-21.8301516808
30
0.0000000000
10
-10.4904908166
20
-21.7508373684
30
0.0000000000
10
-10.4890264965
20
-21.6576259191
30
0.0000000000
10
-10.4876887010
20
-21.5515431105
30
0.0000000000
10
-10.4864807399
20
-21.4337730703
30
0.0000000000
10
-10.4854219087
20
-21.3056252898
30
0.0000000000
10
-10.4845234806
20
-21.1685260084
30
0.0000000000
10
-10.4837964389
20
-21.0239994763
30
0.0000000000
10
-10.4832491199
20
-20.8736554723
30
0.0000000000
10
-10.4828878724
20
-20.7191624116
30
0.0000000000
10
-10.4827743552
20
-20.6149717280
30
0.0000000000
10
-10.4827491915
20
-20.5624683248
30
0.0000000000
11
-10.4992759622
21
-21.9987252220
31
0.0000000000
11
-10.4974449498
21
-21.9821229758
31
0.0000000000
11
-10.4956446592
21
-21.9490423459
31
0.0000000000
11
-10.4938947835
21
-21.8998479451
31
0.0000000000
11
-10.4922150103
21
-21.8350902699
31
0.0000000000
11
-10.4906239476
21
-21.7554888998
31
0.0000000000
11
-10.4891392936
21
-21.6619285454
31
0.0000000000
11
-10.4877775922
21
-21.5554522839
31
0.0000000000
11
-10.4865539792
21
-21.4372443505
31
0.0000000000
11
-10.4854820551
21
-21.3086189887
31
0.0000000000
11
-10.4845737592
21
-21.1710100256
31
0.0000000000
11
-10.4838391810
21
-21.0259471178
31
0.0000000000
11
-10.4832864666
21
-20.8750399444
31
0.0000000000
11
-10.4829218004
21
-20.7199784578
31
0.0000000000
11
-10.4827491915
21
-20.5624683248
31
0.0000000000
0
SPLINE
5
373
100
AcDbEntity
8
0
100
AcDbSpline
62
9
6
CONTINUOUS
70
0
71
3
72
21
73
17
74
15
42
0.0000001000
43
0.0000001000
44
0.0000000001
12
0.3025944439
22
0.9088378091
32
0.0000000000
13
0.0006885301
23
0.9578878257
33
0.0000000000
40
0.0000000000
40
0.0000000000
40
0.0000000000
40
0.0000000000
40
0.0117050322
40
0.0348027773
40
0.0690890716
40
0.1141943666
40
0.1696231709
40
0.2347624738
40
0.3088875357
40
0.3911748521
40
0.4807102432
40
0.5764961323
40
0.6774681262
40
0.7825061358
40
0.8904340508
40
1.0000000000
40
1.0000000000
40
1.0000000000
40
1.0000000000
10
-10.9991998097
20
-21.4994104546
30
0.0000000000
10
-10.9980191838
20
-21.4958644627
30
0.0000000000
10
-10.9970530228
20
-21.4846606776
30
0.0000000000
10
-10.9951387458
20
-21.4627791615
30
0.0000000000
10
-10.9936250088
20
-21.4300363436
30
0.0000000000
10
-10.9919454259
20
-21.3870423785
30
0.0000000000
10
-10.9904142212
20
-21.3341571955
30
0.0000000000
10
-10.9889505520
20
-21.2720122088
30
0.0000000000
10
-10.9876123850
20
-21.2012831887
30
0.0000000000
10
-10.9864044238
20
-21.1227624898
30
0.0000000000
10
-10.9853455148
20
-21.0373224934
30
0.0000000000
10
-10.9844470765
20
-20.9459145427
30
0.0000000000
10
-10.9837200352
20
-20.8495549733
30
0.0000000000
10
-10.9831727644
20
-20.7493172718
30
0.0000000000
10
-10.9828116483
20
-20.6463346997
30
0.0000000000
10
-10.9826981856
20
-20.5768898195
30
0.0000000000
10
-10.9826730391
20
-20.5419058565
30
0.0000000000
11
-10.9991998097
21
-21.4994104546
31
0.0000000000
11
-10.9973695075
21
-21.4883487449
31
0.0000000000
11
-10.9955690341
21
-21.4662970707
31
0.0000000000
11
-10.9938190326
21
-21.4335012957
31
0.0000000000
11
-10.9921391093
21
-21.3903281432
31
0.0000000000
11
-10.9905479124
21
-21.3372574014
31
0.0000000000
11
-10.9890631327
21
-21.2748789085
31
0.0000000000
11
-10.9877013281
21
-21.2038884562
31
0.0000000000
11
-10.9864776382
21
-21.1250759166
31
0.0000000000
11
-10.9854056652
21
-21.0393177329
31
0.0000000000
11
-10.9844973509
21
-20.9475700682
31
0.0000000000
11
-10.9837627808
21
-20.8508529891
31
0.0000000000
11
-10.9832101094
21
-20.7502398504
31
0.0000000000
11
-10.9828455068
21
-20.6468576308
31
0.0000000000
11
-10.9826730391
21
-20.5419058565
31
0.0000000000
0
SPLINE
5
374
100
AcDbEntity
8
0
100
AcDbSpline
62
9
6
CONTINUOUS
70
0
71
3
72
18
73
14
74
12
42
0.0000001000
43
0.0000001000
44
0.0000000001
12
0.1956360021
22
-0.4614582396
32
0.0000000000
13
0.5012155454
23
-0.0003594874
33
0.0000000000
40
0.0000000000
40
0.0000000000
40
0.0000000000
40
0.0000000000
40
0.0136578491
40
0.0461422523
40
0.0973923222
40
0.1665011386
40
0.2521358042
40
0.3526133710
40
0.4659468462
40
0.5898891695
40
0.7219798678
40
0.8595950088
40
1.0000000000
40
1.0000000000
40
1.0000000000
40
1.0000000000
10
-10.9826730391
20
-20.5419058565
30
0.0000000000
10
-10.9817823834
20
-20.5440066988
30
0.0000000000
10
-10.9724438735
20
-20.5453208666
30
0.0000000000
10
-10.9579242672
20
-20.5484728971
30
0.0000000000
10
-10.9316813367
20
-20.5506506627
30
0.0000000000
10
-10.8976968724
20
-20.5532444230
30
0.0000000000
10
-10.8549866457
20
-20.5554507268
30
0.0000000000
10
-10.8050412412
20
-20.5574877710
30
0.0000000000
10
-10.7486237159
20
-20.5592072761
30
0.0000000000
10
-10.6869324873
20
-20.5606034143
30
0.0000000000
10
-10.6211712975
20
-20.5616354342
30
0.0000000000
10
-10.5526563563
20
-20.5622844551
30
0.0000000000
10
-10.5062069129
20
-20.5624515002
30
0.0000000000
10
-10.4827491915
20
-20.5624683248
30
0.0000000000
11
-10.9826730391
21
-20.5419058565
31
0.0000000000
11
-10.9764695691
21
-20.5448003710
31
0.0000000000
11
-10.9604369288
21
-20.5476372604
31
0.0000000000
11
-10.9348943020
21
-20.5503600469
31
0.0000000000
11
-10.9003502008
21
-20.5529145241
31
0.0000000000
11
-10.8574923423
21
-20.5552498367
31
0.0000000000
11
-10.8071739566
21
-20.5573194924
31
0.0000000000
11
-10.7503968011
21
-20.5590822876
31
0.0000000000
11
-10.6882912167
21
-20.5605031280
31
0.0000000000
11
-10.6220936246
21
-20.5615537269
31
0.0000000000
11
-10.5531219113
21
-20.5622131686
31
0.0000000000
11
-10.4827491915
21
-20.5624683248
31
0.0000000000
0
SPLINE
5
375
100
AcDbEntity
8
0
100
AcDbSpline
62
9
6
CONTINUOUS
70
0
71
3
72
14
73
10
74
8
42
0.0000001000
43
0.0000001000
44
0.0000000001
12
0.0295164969
22
41.1249295136
32
0.0000000000
13
-0.0295164970
23
41.1249295136
33
0.0000000000
40
0.0000000000
40
0.0000000000
40
0.0000000000
40
0.0000000000
40
0.1428078204
40
0.2856649617
40
0.4285516989
40
0.5714483011
40
0.7143350383
40
0.8571921796
40
1.0000000000
40
1.0000000000
40
1.0000000000
40
1.0000000000
10
-10.4827491915
20
-20.5624683248
30
0.0000000000
10
-10.4813441293
20
-18.6048144760
30
0.0000000000
10
-10.4789355612
20
-14.6888303703
30
0.0000000000
10
-10.4765272434
20
-8.8141098412
30
0.0000000000
10
-10.4753230011
20
-2.9381718907
30
0.0000000000
10
-10.4753230011
20
2.9381718910
30
0.0000000000
10
-10.4765272434
20
8.8141098413
30
0.0000000000
10
-10.4789355612
20
14.6888303704
30
0.0000000000
10
-10.4813441293
20
18.6048144761
30
0.0000000000
10
-10.4827491915
20
20.5624683248
30
0.0000000000
11
-10.4827491915
21
-20.5624683248
31
0.0000000000
11
-10.4791367143
21
-14.6895063768
31
0.0000000000
11
-10.4767281190
21
-8.8145154878
31
0.0000000000
11
-10.4755237382
21
-2.9383071020
31
0.0000000000
11
-10.4755237382
21
2.9383071023
31
0.0000000000
11
-10.4767281190
21
8.8145154880
31
0.0000000000
11
-10.4791367143
21
14.6895063770
31
0.0000000000
11
-10.4827491915
21
20.5624683248
31
0.0000000000
0
SPLINE
5
376
100
AcDbEntity
8
0
100
AcDbSpline
62
9
6
CONTINUOUS
70
0
71
3
72
14
73
10
74
8
42
0.0000001000
43
0.0000001000
44
0.0000000001
12
0.0295164969
22
41.0838045698
32
0.0000000000
13
-0.0295164970
23
41.0838045698
33
0.0000000000
40
0.0000000000
40
0.0000000000
40
0.0000000000
40
0.0000000000
40
0.1428077928
40
0.2856649430
40
0.4285516891
40
0.5714483001
40
0.7143350462
40
0.8571921965
40
1.0000000000
40
1.0000000000
40
1.0000000000
40
1.0000000000
10
-10.9826730391
20
-20.5419058565
30
0.0000000000
10
-10.9812679772
20
-18.5862100399
30
0.0000000000
10
-10.9788594092
20
-14.6741421753
30
0.0000000000
10
-10.9764510912
20
-8.8052965014
30
0.0000000000
10
-10.9752468487
20
-2.9352341236
30
0.0000000000
10
-10.9752468487
20
2.9352336803
30
0.0000000000
10
-10.9764510910
20
8.8052960587
30
0.0000000000
10
-10.9788594090
20
14.6741418804
30
0.0000000000
10
-10.9812679771
20
18.5862098926
30
0.0000000000
10
-10.9826730391
20
20.5419058565
30
0.0000000000
11
-10.9826730391
21
-20.5419058565
31
0.0000000000
11
-10.9790605624
21
-14.6748180047
31
0.0000000000
11
-10.9766519668
21
-8.8057017423
31
0.0000000000
11
-10.9754475858
21
-2.9353691998
31
0.0000000000
11
-10.9754475858
21
2.9353687563
31
0.0000000000
11
-10.9766519667
21
8.8057012996
31
0.0000000000
11
-10.9790605622
21
14.6748175628
31
0.0000000000
11
-10.9826730391
21
20.5419058565
31
0.0000000000
0
SPLINE
5
377
100
AcDbEntity
8
0
100
AcDbSpline
62
9
6
CONTINUOUS
70
0
71
3
72
18
73
14
74
12
42
0.0000001000
43
0.0000001000
44
0.0000000001
12
0.1956386718
22
0.4614571049
32
0.0000000000
13
0.5012155428
23
0.0003594864
33
0.0000000000
40
0.0000000000
40
0.0000000000
40
0.0000000000
40
0.0000000000
40
0.0136578807
40
0.0461423111
40
0.0973924006
40
0.1665012286
40
0.2521358982
40
0.3526134618
40
0.4659469272
40
0.5898892354
40
0.7219799142
40
0.8595950328
40
1.0000000000
40
1.0000000000
40
1.0000000000
40
1.0000000000
10
-10.9826730391
20
20.5419058565
30
0.0000000000
10
-10.9817823692
20
20.5440066985
30
0.0000000000
10
-10.9724438657
20
20.5453208638
30
0.0000000000
10
-10.9579242309
20
20.5484728955
30
0.0000000000
10
-10.9316812993
20
20.5506506602
30
0.0000000000
10
-10.8976968255
20
20.5532444200
30
0.0000000000
10
-10.8549865983
20
20.5554507230
30
0.0000000000
10
-10.8050411951
20
20.5574877665
30
0.0000000000
10
-10.7486236749
20
20.5592072709
30
0.0000000000
10
-10.6869324539
20
20.5606034085
30
0.0000000000
10
-10.6211712740
20
20.5616354280
30
0.0000000000
10
-10.5526563441
20
20.5622844485
30
0.0000000000
10
-10.5062069088
20
20.5624514935
30
0.0000000000
10
-10.4827491915
20
20.5624683180
30
0.0000000000
11
-10.9826730391
21
20.5419058565
31
0.0000000000
11
-10.9764695514
21
20.5448003704
31
0.0000000000
11
-10.9604368972
21
20.5476372591
31
0.0000000000
11
-10.9348942606
21
20.5503600448
31
0.0000000000
11
-10.9003501537
21
20.5529145213
31
0.0000000000
11
-10.8574922933
21
20.5552498331
31
0.0000000000
11
-10.8071739095
21
20.5573194880
31
0.0000000000
11
-10.7503967591
21
20.5590822825
31
0.0000000000
11
-10.6882911826
21
20.5605031223
31
0.0000000000
11
-10.6220936006
21
20.5615537207
31
0.0000000000
11
-10.5531218989
21
20.5622131621
31
0.0000000000
11
-10.4827491915
21
20.5624683180
31
0.0000000000
0
SPLINE
5
378
100
AcDbEntity
8
0
100
AcDbSpline
62
9
6
CONTINUOUS
70
0
71
3
72
21
73
17
74
15
42
0.0000001000
43
0.0000001000
44
0.0000000001
12
-0.0006883741
22
1.4365128178
32
0.0000000000
13
-0.3113088220
23
1.4023752590
33
0.0000000000
40
0.0000000000
40
0.0000000000
40
0.0000000000
40
0.0000000000
40
0.1096480178
40
0.2175912225
40
0.3226429362
40
0.4236269087
40
0.5194226887
40
0.6089657647
40
0.6912582702
40
0.7653856335
40
0.8305239970
40
0.8859479715
40
0.9310428602
40
0.9653101939
40
0.9883726671
40
1.0000000000
40
1.0000000000
40
1.0000000000
40
1.0000000000
10
-10.4827491915
20
20.5624683248
30
0.0000000000
10
-10.4827743511
20
20.6149719191
30
0.0000000000
10
-10.4828878779
20
20.7191627605
30
0.0000000000
10
-10.4832491187
20
20.8736559672
30
0.0000000000
10
-10.4837964445
20
21.0239999327
30
0.0000000000
10
-10.4845234854
20
21.1685264333
30
0.0000000000
10
-10.4854219167
20
21.3056256827
30
0.0000000000
10
-10.4864807495
20
21.4337734198
30
0.0000000000
10
-10.4876887128
20
21.5515434269
30
0.0000000000
10
-10.4890265087
20
21.6576262054
30
0.0000000000
10
-10.4904908310
20
21.7508376252
30
0.0000000000
10
-10.4920195176
20
21.8301519038
30
0.0000000000
10
-10.4937052199
20
21.8946555448
30
0.0000000000
10
-10.4952026941
20
21.9437158003
30
0.0000000000
10
-10.4971473281
20
21.9766097311
30
0.0000000000
10
-10.4980693984
20
21.9932899273
30
0.0000000000
10
-10.4992759622
20
21.9987252220
30
0.0000000000
11
-10.4827491915
21
20.5624683248
31
0.0000000000
11
-10.4829218028
21
20.7199790313
31
0.0000000000
11
-10.4832864677
21
20.8750404175
31
0.0000000000
11
-10.4838391853
21
21.0259475558
31
0.0000000000
11
-10.4845737649
21
21.1710104836
31
0.0000000000
11
-10.4854820629
21
21.3086193676
31
0.0000000000
11
-10.4865539889
21
21.4372446922
31
0.0000000000
11
-10.4877776040
21
21.5554526120
31
0.0000000000
11
-10.4891393061
21
21.6619288248
31
0.0000000000
11
-10.4906239605
21
21.7554891508
31
0.0000000000
11
-10.4922150236
21
21.8350905104
31
0.0000000000
11
-10.4938947967
21
21.8998481209
31
0.0000000000
11
-10.4956446701
21
21.9490424785
31
0.0000000000
11
-10.4974449649
21
21.9821230696
31
0.0000000000
11
-10.4992759622
21
21.9987252220
31
0.0000000000
0
SPLINE
5
379
100
AcDbEntity
8
0
100
AcDbSpline
62
9
6
CONTINUOUS
70
0
71
3
72
21
73
17
74
15
42
0.0000001000
43
0.0000001000
44
0.0000000001
12
-0.0006884958
22
0.9578878289
32
0.0000000000
13
-0.3025837813
23
0.9088413624
33
0.0000000000
40
0.0000000000
40
0.0000000000
40
0.0000000000
40
0.0000000000
40
0.1095817851
40
0.2175099921
40
0.3225481325
40
0.4235201000
40
0.5193056627
40
0.6088405040
40
0.6911266884
40
0.7652499641
40
0.8303871640
40
0.8858139046
40
0.9309171789
40
0.9652015169
40
0.9882975083
40
1.0000000000
40
1.0000000000
40
1.0000000000
40
1.0000000000
10
-10.9826730391
20
20.5419058565
30
0.0000000000
10
-10.9826981880
20
20.5768948759
30
0.0000000000
10
-10.9828116708
20
20.6463449059
30
0.0000000000
10
-10.9831728311
20
20.7493326696
30
0.0000000000
10
-10.9837201355
20
20.8495704978
30
0.0000000000
10
-10.9844472092
20
20.9459299964
30
0.0000000000
10
-10.9853456820
20
21.0373376588
30
0.0000000000
10
-10.9864046240
20
21.1227770139
30
0.0000000000
10
-10.9876126137
20
21.2012966052
30
0.0000000000
10
-10.9889508023
20
21.2720240214
30
0.0000000000
10
-10.9904144788
20
21.3341671077
30
0.0000000000
10
-10.9919456988
20
21.3870503115
30
0.0000000000
10
-10.9936252492
20
21.4300423546
30
0.0000000000
10
-10.9951390550
20
21.4627833207
30
0.0000000000
10
-10.9970531248
20
21.4846628862
30
0.0000000000
10
-10.9980194817
20
21.4958652184
30
0.0000000000
10
-10.9991998097
20
21.4994104546
30
0.0000000000
11
-10.9826730391
21
20.5419058565
31
0.0000000000
11
-10.9828455461
21
20.6468728001
31
0.0000000000
11
-10.9832101781
21
20.7502552997
31
0.0000000000
11
-10.9837628821
21
20.8508685638
31
0.0000000000
11
-10.9844974861
21
20.9475856177
31
0.0000000000
11
-10.9854058349
21
21.0393329696
31
0.0000000000
11
-10.9864778433
21
21.1250906265
31
0.0000000000
11
-10.9877015632
21
21.2039020815
31
0.0000000000
11
-10.9890633871
21
21.2748908223
31
0.0000000000
11
-10.9905481765
21
21.3372673002
31
0.0000000000
11
-10.9921393793
21
21.3903360643
31
0.0000000000
11
-10.9938193035
21
21.4335072799
31
0.0000000000
11
-10.9955693033
21
21.4663011785
31
0.0000000000
11
-10.9973697720
21
21.4883511677
31
0.0000000000
11
-10.9991998097
21
21.4994104546
31
0.0000000000
0
SPLINE
5
37A
100
AcDbEntity
8
0
100
AcDbSpline
62
9
6
CONTINUOUS
70
0
71
3
72
18
73
14
74
12
42
0.0000001000
43
0.0000001000
44
0.0000000001
12
0.0007168851
22
0.7839071348
32
0.0000000000
13
0.7839071364
23
0.0007151393
33
0.0000000000
40
0.0000000000
40
0.0000000000
40
0.0000000000
40
0.0000000000
40
0.0908336768
40
0.1816831379
40
0.2725510601
40
0.3634386252
40
0.4543454254
40
0.5452694970
40
0.6362074801
40
0.7271548910
40
0.8181064844
40
0.9090566773
40
1.0000000000
40
1.0000000000
40
1.0000000000
40
1.0000000000
10
-10.9991998097
20
21.4994104546
30
0.0000000000
10
-10.9991781040
20
21.5231455104
30
0.0000000000
10
-10.9957338607
20
21.5706863763
30
0.0000000000
10
-10.9804728960
20
21.6404867576
30
0.0000000000
10
-10.9554274619
20
21.7074329235
30
0.0000000000
10
-10.9211071073
20
21.7701446610
30
0.0000000000
10
-10.8782098785
20
21.8273520608
30
0.0000000000
10
-10.8276082678
20
21.8778907569
30
0.0000000000
10
-10.7703308553
20
21.9207337515
30
0.0000000000
10
-10.7075435741
20
21.9550100537
30
0.0000000000
10
-10.6405178610
20
21.9800229382
30
0.0000000000
10
-10.5706352721
20
21.9952638936
30
0.0000000000
10
-10.5230396687
20
21.9987035429
30
0.0000000000
10
-10.4992759622
20
21.9987252220
30
0.0000000000
11
-10.9991998097
21
21.4994104546
31
0.0000000000
11
-10.9940522648
21
21.5704293456
31
0.0000000000
11
-10.9788441915
21
21.6400041748
31
0.0000000000
11
-10.9538848230
21
21.7067202431
31
0.0000000000
11
-10.9196816704
21
21.7692209802
31
0.0000000000
11
-10.8769302030
21
21.8262355280
31
0.0000000000
11
-10.8264997073
21
21.8766045819
31
0.0000000000
11
-10.7694156113
21
21.9193039632
31
0.0000000000
11
-10.7068386338
21
21.9534654446
31
0.0000000000
11
-10.6400411831
21
21.9783944039
31
0.0000000000
11
-10.5703814843
21
21.9935839485
31
0.0000000000
11
-10.4992759622
21
21.9987252220
31
0.0000000000
0
SPLINE
5
37B
100
AcDbEntity
8
0
100
AcDbSpline
62
7
6
CONTINUOUS
70
0
71
3
72
10
73
6
74
4
42
0.0000001000
43
0.0000001000
44
0.0000000001
12
0.0073039237
22
-0.0662945678
32
0.0000000000
13
0.0072576803
23
-0.0662996463
33
0.0000000000
40
0.0000000000
40
0.0000000000
40
0.0000000000
40
0.0000000000
40
0.3329986586
40
0.6663012573
40
1.0000000000
40
1.0000000000
40
1.0000000000
40
1.0000000000
10
-10.6500000000
20
22.3997080771
30
0.0000000000
10
-10.6491892677
20
22.3923494098
30
0.0000000000
10
-10.6475687856
20
22.3776251687
30
0.0000000000
10
-10.6451418751
20
22.3555261289
30
0.0000000000
10
-10.6435265440
20
22.3407856643
30
0.0000000000
10
-10.6427192511
20
22.3334109614
30
0.0000000000
11
-10.6500000000
21
22.3997080771
31
0.0000000000
11
-10.6475703811
21
22.3776317911
31
0.0000000000
11
-10.6451436908
21
22.3555347895
31
0.0000000000
11
-10.6427192511
21
22.3334109614
31
0.0000000000
0
SPLINE
5
37C
100
AcDbEntity
8
0
100
AcDbSpline
62
7
6
CONTINUOUS
70
0
71
3
72
16
73
12
74
10
42
0.0000001000
43
0.0000001000
44
0.0000000001
12
0.0002122239
22
0.5533630193
32
0.0000000000
13
0.4952765776
23
0.2476596337
33
0.0000000000
40
0.0000000000
40
0.0000000000
40
0.0000000000
40
0.0000000000
40
0.1118565208
40
0.2243244341
40
0.3375581727
40
0.4520664600
40
0.5682200697
40
0.6855120601
40
0.8030067579
40
0.9195586227
40
1.0000000000
40
1.0000000000
40
1.0000000000
40
1.0000000000
10
-11.1325830976
20
21.8998857286
30
0.0000000000
10
-11.1325751847
20
21.9205181493
30
0.0000000000
10
-11.1299933824
20
21.9619403453
30
0.0000000000
10
-11.1184245874
20
22.0232762506
30
0.0000000000
10
-11.0991547423
20
22.0831723367
30
0.0000000000
10
-11.0722207442
20
22.1407902779
30
0.0000000000
10
-11.0377678769
20
22.1951506949
30
0.0000000000
10
-10.9962440575
20
22.2450473616
30
0.0000000000
10
-10.9485507101
20
22.2891939691
30
0.0000000000
10
-10.9011148887
20
22.3228626285
30
0.0000000000
10
-10.8693172325
20
22.3405729379
30
0.0000000000
10
-10.8560369892
20
22.3472136320
30
0.0000000000
11
-11.1325830976
21
21.8998857286
31
0.0000000000
11
-11.1287308067
21
21.9616630017
31
0.0000000000
11
-11.1171972025
21
22.0228205398
31
0.0000000000
11
-11.0980063933
21
22.0824687523
31
0.0000000000
11
-11.0711731639
21
22.1398713434
31
0.0000000000
11
-11.0367648316
21
22.1941609125
31
0.0000000000
11
-10.9952469627
21
22.2440501167
31
0.0000000000
11
-10.9475327983
21
22.2882156930
31
0.0000000000
11
-10.8949385898
21
22.3255455511
31
0.0000000000
11
-10.8560369892
21
22.3472136320
31
0.0000000000
0
SPLINE
5
37D
100
AcDbEntity
8
0
100
AcDbSpline
62
7
6
CONTINUOUS
70
0
71
3
72
17
73
13
74
11
42
0.0000001000
43
0.0000001000
44
0.0000000001
12
-0.4499134171
22
0.0034689349
32
0.0000000000
13
-0.3802575409
23
0.2404959853
33
0.0000000000
40
0.0000000000
40
0.0000000000
40
0.0000000000
40
0.0000000000
40
0.0745161516
40
0.1578620335
40
0.2489784530
40
0.3464791953
40
0.4490687639
40
0.5555830270
40
0.6649556765
40
0.7761688910
40
0.8882083217
40
1.0000000000
40
1.0000000000
40
1.0000000000
40
1.0000000000
10
4.2962073137
20
-23.7953389668
30
0.0000000000
10
4.2850320415
20
-23.7952528029
30
0.0000000000
10
4.2614031097
20
-23.7917170258
30
0.0000000000
10
4.2256942924
20
-23.7806312323
30
0.0000000000
10
4.1879781481
20
-23.7649859519
30
0.0000000000
10
4.1486966097
20
-23.7458657106
30
0.0000000000
10
4.1081825603
20
-23.7240967369
30
0.0000000000
10
4.0667444235
20
-23.7003350343
30
0.0000000000
10
4.0246575110
20
-23.6751262956
30
0.0000000000
10
3.9821908435
20
-23.6489491484
30
0.0000000000
10
3.9396235963
20
-23.6222477720
30
0.0000000000
10
3.9112524996
20
-23.6043041681
30
0.0000000000
10
3.8970826234
20
-23.5953423515
30
0.0000000000
11
4.2962073137
21
-23.7953389668
31
0.0000000000
11
4.2629449272
21
-23.7911364879
31
0.0000000000
11
4.2269974920
21
-23.7804595132
31
0.0000000000
11
4.1890303044
21
-23.7649953104
31
0.0000000000
11
4.1495139203
21
-23.7459460582
31
0.0000000000
11
4.1088030396
21
-23.7241936730
31
0.0000000000
11
4.0671923756
21
-23.7004191901
31
0.0000000000
11
4.0249483201
21
-23.6751796798
31
0.0000000000
11
3.9823307642
21
-23.6489589663
31
0.0000000000
11
3.9396087954
21
-23.6222016262
31
0.0000000000
11
3.8970826234
21
-23.5953423515
31
0.0000000000
0
SPLINE
5
37E
100
AcDbEntity
8
0
100
AcDbSpline
62
7
6
CONTINUOUS
70
0
71
3
72
15
73
11
74
9
42
0.0000001000
43
0.0000001000
44
0.0000000001
12
0.1008939615
22
-0.0007779154
32
0.0000000000
13
0.0713449249
23
-0.0713449249
33
0.0000000000
40
0.0000000000
40
0.0000000000
40
0.0000000000
40
0.0000000000
40
0.2260892411
40
0.4253808137
40
0.5965983414
40
0.7386457856
40
0.8506149034
40
0.9317923900
40
0.9816698927
40
1.0000000000
40
1.0000000000
40
1.0000000000
40
1.0000000000
10
4.2962073137
20
-23.7953389668
30
0.0000000000
10
4.3038109934
20
-23.7953975929
30
0.0000000000
10
4.3181160368
20
-23.7955181613
30
0.0000000000
10
4.3381839744
20
-23.7957099099
30
0.0000000000
10
4.3554097967
20
-23.7959355647
30
0.0000000000
10
4.3697420406
20
-23.7960924762
30
0.0000000000
10
4.3809293187
20
-23.7964507627
30
0.0000000000
10
4.3892942959
20
-23.7963319984
30
0.0000000000
10
4.3939625085
20
-23.7971318911
30
0.0000000000
10
4.3966382418
20
-23.7966382418
30
0.0000000000
10
4.3970741618
20
-23.7970741618
30
0.0000000000
11
4.2962073137
21
-23.7953389668
31
0.0000000000
11
4.3190182283
21
-23.7955303191
31
0.0000000000
11
4.3391251340
21
-23.7957316733
31
0.0000000000
11
4.3563991849
21
-23.7959417390
31
0.0000000000
11
4.3707296908
21
-23.7961591702
31
0.0000000000
11
4.3820248254
21
-23.7963825732
31
0.0000000000
11
4.3902122146
21
-23.7966105166
31
0.0000000000
11
4.3952393975
21
-23.7968415396
31
0.0000000000
11
4.3970741618
21
-23.7970741618
31
0.0000000000
0
SPLINE
5
37F
100
AcDbEntity
8
0
100
AcDbSpline
62
7
6
CONTINUOUS
70
0
71
3
72
18
73
14
74
12
42
0.0000001000
43
0.0000001000
44
0.0000000001
12
0.5022088211
22
0.0000000000
32
0.0000000000
13
0.0554102302
23
-0.4991426714
33
0.0000000000
40
0.0000000000
40
0.0000000000
40
0.0000000000
40
0.0000000000
40
0.1410281680
40
0.2793720340
40
0.4118411820
40
0.5363759289
40
0.6497772069
40
0.7504831705
40
0.8358107888
40
0.9046047785
40
0.9551415459
40
0.9868319704
40
1.0000000000
40
1.0000000000
40
1.0000000000
40
1.0000000000
10
3.8970826234
20
-22.3475922207
30
0.0000000000
10
3.9206911534
20
-22.3475922207
30
0.0000000000
10
3.9674591532
20
-22.3477649532
30
0.0000000000
10
4.0363984177
20
-22.3485392392
30
0.0000000000
10
4.1025709419
20
-22.3498120228
30
0.0000000000
10
4.1645488800
20
-22.3515539735
30
0.0000000000
10
4.2212155809
20
-22.3537304432
30
0.0000000000
10
4.2712236117
20
-22.3562856057
30
0.0000000000
10
4.3139473705
20
-22.3591672031
30
0.0000000000
10
4.3476415101
20
-22.3622747204
30
0.0000000000
10
4.3737365285
20
-22.3655305491
30
0.0000000000
10
4.3875102411
20
-22.3686613249
30
0.0000000000
10
4.3968309473
20
-22.3714527547
30
0.0000000000
10
4.3970741618
20
-22.3736436632
30
0.0000000000
11
3.8970826234
21
-22.3475922207
31
0.0000000000
11
3.9679077206
21
-22.3478564404
31
0.0000000000
11
4.0373807559
21
-22.3486449387
31
0.0000000000
11
4.1038953464
21
-22.3499388540
31
0.0000000000
11
4.1664124636
21
-22.3517187191
31
0.0000000000
11
4.2233203075
21
-22.3539385425
31
0.0000000000
11
4.2738273254
21
-22.3565680998
31
0.0000000000
11
4.3165766199
21
-22.3595372656
31
0.0000000000
11
4.3509707084
21
-22.3628047601
31
0.0000000000
11
4.3761107513
21
-22.3662865944
31
0.0000000000
11
4.3916038782
21
-22.3699276038
31
0.0000000000
11
4.3970741618
21
-22.3736436632
31
0.0000000000
0
SPLINE
5
380
100
AcDbEntity
8
0
100
AcDbSpline
62
7
6
CONTINUOUS
70
0
71
3
72
15
73
11
74
9
42
0.0000001000
43
0.0000001000
44
0.0000000001
12
-0.1008939615
22
0.0007779154
32
0.0000000000
13
-0.0713449249
23
0.0713449249
33
0.0000000000
40
0.0000000000
40
0.0000000000
40
0.0000000000
40
0.0000000000
40
0.2260892411
40
0.4253808137
40
0.5965983414
40
0.7386457856
40
0.8506149034
40
0.9317923900
40
0.9816698927
40
1.0000000000
40
1.0000000000
40
1.0000000000
40
1.0000000000
10
-4.2962073137
20
23.7953389668
30
0.0000000000
10
-4.3038109934
20
23.7953975929
30
0.0000000000
10
-4.3181160368
20
23.7955181613
30
0.0000000000
10
-4.3381839744
20
23.7957099099
30
0.0000000000
10
-4.3554097967
20
23.7959355647
30
0.0000000000
10
-4.3697420406
20
23.7960924762
30
0.0000000000
10
-4.3809293187
20
23.7964507627
30
0.0000000000
10
-4.3892942959
20
23.7963319984
30
0.0000000000
10
-4.3939625085
20
23.7971318911
30
0.0000000000
10
-4.3966382418
20
23.7966382418
30
0.0000000000
10
-4.3970741618
20
23.7970741618
30
0.0000000000
11
-4.2962073137
21
23.7953389668
31
0.0000000000
11
-4.3190182283
21
23.7955303191
31
0.0000000000
11
-4.3391251340
21
23.7957316733
31
0.0000000000
11
-4.3563991849
21
23.7959417390
31
0.0000000000
11
-4.3707296908
21
23.7961591702
31
0.0000000000
11
-4.3820248254
21
23.7963825732
31
0.0000000000
11
-4.3902122146
21
23.7966105166
31
0.0000000000
11
-4.3952393975
21
23.7968415396
31
0.0000000000
11
-4.3970741618
21
23.7970741618
31
0.0000000000
0
SPLINE
5
381
100
AcDbEntity
8
0
100
AcDbSpline
62
7
6
CONTINUOUS
70
0
71
3
72
18
73
14
74
12
42
0.0000001000
43
0.0000001000
44
0.0000000001
12
-0.5022088211
22
0.0000000000
32
0.0000000000
13
-0.0554102302
23
0.4991426714
33
0.0000000000
40
0.0000000000
40
0.0000000000
40
0.0000000000
40
0.0000000000
40
0.1410281680
40
0.2793720340
40
0.4118411820
40
0.5363759289
40
0.6497772069
40
0.7504831705
40
0.8358107888
40
0.9046047785
40
0.9551415459
40
0.9868319704
40
1.0000000000
40
1.0000000000
40
1.0000000000
40
1.0000000000
10
-3.8970826234
20
22.3475922207
30
0.0000000000
10
-3.9206911534
20
22.3475922207
30
0.0000000000
10
-3.9674591532
20
22.3477649532
30
0.0000000000
10
-4.0363984177
20
22.3485392392
30
0.0000000000
10
-4.1025709419
20
22.3498120228
30
0.0000000000
10
-4.1645488800
20
22.3515539735
30
0.0000000000
10
-4.2212155809
20
22.3537304432
30
0.0000000000
10
-4.2712236117
20
22.3562856057
30
0.0000000000
10
-4.3139473705
20
22.3591672031
30
0.0000000000
10
-4.3476415101
20
22.3622747204
30
0.0000000000
10
-4.3737365285
20
22.3655305491
30
0.0000000000
10
-4.3875102411
20
22.3686613249
30
0.0000000000
10
-4.3968309473
20
22.3714527547
30
0.0000000000
10
-4.3970741618
20
22.3736436632
30
0.0000000000
11
-3.8970826234
21
22.3475922207
31
0.0000000000
11
-3.9679077206
21
22.3478564404
31
0.0000000000
11
-4.0373807559
21
22.3486449387
31
0.0000000000
11
-4.1038953464
21
22.3499388540
31
0.0000000000
11
-4.1664124636
21
22.3517187191
31
0.0000000000
11
-4.2233203075
21
22.3539385425
31
0.0000000000
11
-4.2738273254
21
22.3565680998
31
0.0000000000
11
-4.3165766199
21
22.3595372656
31
0.0000000000
11
-4.3509707084
21
22.3628047601
31
0.0000000000
11
-4.3761107513
21
22.3662865944
31
0.0000000000
11
-4.3916038782
21
22.3699276038
31
0.0000000000
11
-4.3970741618
21
22.3736436632
31
0.0000000000
0
SPLINE
5
382
100
AcDbEntity
8
0
100
AcDbSpline
62
7
6
CONTINUOUS
70
0
71
3
72
17
73
13
74
11
42
0.0000001000
43
0.0000001000
44
0.0000000001
12
-0.4499134171
22
-0.0034689349
32
0.0000000000
13
-0.3802575409
23
-0.2404959853
33
0.0000000000
40
0.0000000000
40
0.0000000000
40
0.0000000000
40
0.0000000000
40
0.0745161516
40
0.1578620335
40
0.2489784530
40
0.3464791953
40
0.4490687639
40
0.5555830270
40
0.6649556765
40
0.7761688910
40
0.8882083217
40
1.0000000000
40
1.0000000000
40
1.0000000000
40
1.0000000000
10
4.2962073137
20
23.7953389668
30
0.0000000000
10
4.2850320415
20
23.7952528029
30
0.0000000000
10
4.2614031097
20
23.7917170258
30
0.0000000000
10
4.2256942924
20
23.7806312323
30
0.0000000000
10
4.1879781481
20
23.7649859519
30
0.0000000000
10
4.1486966097
20
23.7458657106
30
0.0000000000
10
4.1081825603
20
23.7240967369
30
0.0000000000
10
4.0667444235
20
23.7003350343
30
0.0000000000
10
4.0246575110
20
23.6751262956
30
0.0000000000
10
3.9821908435
20
23.6489491484
30
0.0000000000
10
3.9396235963
20
23.6222477720
30
0.0000000000
10
3.9112524996
20
23.6043041681
30
0.0000000000
10
3.8970826234
20
23.5953423515
30
0.0000000000
11
4.2962073137
21
23.7953389668
31
0.0000000000
11
4.2629449272
21
23.7911364879
31
0.0000000000
11
4.2269974920
21
23.7804595132
31
0.0000000000
11
4.1890303044
21
23.7649953104
31
0.0000000000
11
4.1495139203
21
23.7459460582
31
0.0000000000
11
4.1088030396
21
23.7241936730
31
0.0000000000
11
4.0671923756
21
23.7004191901
31
0.0000000000
11
4.0249483201
21
23.6751796798
31
0.0000000000
11
3.9823307642
21
23.6489589663
31
0.0000000000
11
3.9396087954
21
23.6222016262
31
0.0000000000
11
3.8970826234
21
23.5953423515
31
0.0000000000
0
SPLINE
5
383
100
AcDbEntity
8
0
100
AcDbSpline
62
7
6
CONTINUOUS
70
0
71
3
72
17
73
13
74
11
42
0.0000001000
43
0.0000001000
44
0.0000000001
12
0.4499134171
22
-0.0034689349
32
0.0000000000
13
0.3802575409
23
-0.2404959853
33
0.0000000000
40
0.0000000000
40
0.0000000000
40
0.0000000000
40
0.0000000000
40
0.0745161516
40
0.1578620335
40
0.2489784530
40
0.3464791953
40
0.4490687639
40
0.5555830270
40
0.6649556765
40
0.7761688910
40
0.8882083217
40
1.0000000000
40
1.0000000000
40
1.0000000000
40
1.0000000000
10
-4.2962073137
20
23.7953389668
30
0.0000000000
10
-4.2850320415
20
23.7952528029
30
0.0000000000
10
-4.2614031097
20
23.7917170258
30
0.0000000000
10
-4.2256942924
20
23.7806312323
30
0.0000000000
10
-4.1879781481
20
23.7649859519
30
0.0000000000
10
-4.1486966097
20
23.7458657106
30
0.0000000000
10
-4.1081825603
20
23.7240967369
30
0.0000000000
10
-4.0667444235
20
23.7003350343
30
0.0000000000
10
-4.0246575110
20
23.6751262956
30
0.0000000000
10
-3.9821908435
20
23.6489491484
30
0.0000000000
10
-3.9396235963
20
23.6222477720
30
0.0000000000
10
-3.9112524996
20
23.6043041681
30
0.0000000000
10
-3.8970826234
20
23.5953423515
30
0.0000000000
11
-4.2962073137
21
23.7953389668
31
0.0000000000
11
-4.2629449272
21
23.7911364879
31
0.0000000000
11
-4.2269974920
21
23.7804595132
31
0.0000000000
11
-4.1890303044
21
23.7649953104
31
0.0000000000
11
-4.1495139203
21
23.7459460582
31
0.0000000000
11
-4.1088030396
21
23.7241936730
31
0.0000000000
11
-4.0671923756
21
23.7004191901
31
0.0000000000
11
-4.0249483201
21
23.6751796798
31
0.0000000000
11
-3.9823307642
21
23.6489589663
31
0.0000000000
11
-3.9396087954
21
23.6222016262
31
0.0000000000
11
-3.8970826234
21
23.5953423515
31
0.0000000000
0
SPLINE
5
384
100
AcDbEntity
8
0
100
AcDbSpline
62
7
6
CONTINUOUS
70
0
71
3
72
18
73
14
74
12
42
0.0000001000
43
0.0000001000
44
0.0000000001
12
-0.0554102302
22
-0.4991426714
32
0.0000000000
13
-0.5022088211
23
0.0000000000
33
0.0000000000
40
0.0000000000
40
0.0000000000
40
0.0000000000
40
0.0000000000
40
0.0131680296
40
0.0448584541
40
0.0953952215
40
0.1641892112
40
0.2495168295
40
0.3502227931
40
0.4636240711
40
0.5881588180
40
0.7206279660
40
0.8589718320
40
1.0000000000
40
1.0000000000
40
1.0000000000
40
1.0000000000
10
4.3970741618
20
22.3736436632
30
0.0000000000
10
4.3968309473
20
22.3714527547
30
0.0000000000
10
4.3875102411
20
22.3686613249
30
0.0000000000
10
4.3737365285
20
22.3655305491
30
0.0000000000
10
4.3476415101
20
22.3622747204
30
0.0000000000
10
4.3139473705
20
22.3591672031
30
0.0000000000
10
4.2712236117
20
22.3562856057
30
0.0000000000
10
4.2212155809
20
22.3537304432
30
0.0000000000
10
4.1645488800
20
22.3515539735
30
0.0000000000
10
4.1025709419
20
22.3498120228
30
0.0000000000
10
4.0363984177
20
22.3485392392
30
0.0000000000
10
3.9674591532
20
22.3477649532
30
0.0000000000
10
3.9206911534
20
22.3475922207
30
0.0000000000
10
3.8970826234
20
22.3475922207
30
0.0000000000
11
4.3970741618
21
22.3736436632
31
0.0000000000
11
4.3916038782
21
22.3699276038
31
0.0000000000
11
4.3761107513
21
22.3662865944
31
0.0000000000
11
4.3509707084
21
22.3628047601
31
0.0000000000
11
4.3165766199
21
22.3595372656
31
0.0000000000
11
4.2738273254
21
22.3565680998
31
0.0000000000
11
4.2233203075
21
22.3539385425
31
0.0000000000
11
4.1664124636
21
22.3517187191
31
0.0000000000
11
4.1038953464
21
22.3499388540
31
0.0000000000
11
4.0373807559
21
22.3486449387
31
0.0000000000
11
3.9679077206
21
22.3478564404
31
0.0000000000
11
3.8970826234
21
22.3475922207
31
0.0000000000
0
SPLINE
5
385
100
AcDbEntity
8
0
100
AcDbSpline
62
7
6
CONTINUOUS
70
0
71
3
72
16
73
12
74
10
42
0.0000001000
43
0.0000001000
44
0.0000000001
12
-0.4952765776
22
0.2476596337
32
0.0000000000
13
-0.0002122239
23
0.5533630193
33
0.0000000000
40
0.0000000000
40
0.0000000000
40
0.0000000000
40
0.0000000000
40
0.0804413773
40
0.1969932421
40
0.3144879399
40
0.4317799303
40
0.5479335400
40
0.6624418273
40
0.7756755659
40
0.8881434792
40
1.0000000000
40
1.0000000000
40
1.0000000000
40
1.0000000000
10
-10.8560369892
20
-22.3472136320
30
0.0000000000
10
-10.8693172325
20
-22.3405729379
30
0.0000000000
10
-10.9011148887
20
-22.3228626285
30
0.0000000000
10
-10.9485507101
20
-22.2891939691
30
0.0000000000
10
-10.9962440575
20
-22.2450473616
30
0.0000000000
10
-11.0377678769
20
-22.1951506949
30
0.0000000000
10
-11.0722207442
20
-22.1407902779
30
0.0000000000
10
-11.0991547423
20
-22.0831723367
30
0.0000000000
10
-11.1184245874
20
-22.0232762506
30
0.0000000000
10
-11.1299933824
20
-21.9619403453
30
0.0000000000
10
-11.1325751847
20
-21.9205181493
30
0.0000000000
10
-11.1325830976
20
-21.8998857286
30
0.0000000000
11
-10.8560369892
21
-22.3472136320
31
0.0000000000
11
-10.8949385898
21
-22.3255455511
31
0.0000000000
11
-10.9475327983
21
-22.2882156930
31
0.0000000000
11
-10.9952469627
21
-22.2440501167
31
0.0000000000
11
-11.0367648316
21
-22.1941609125
31
0.0000000000
11
-11.0711731639
21
-22.1398713434
31
0.0000000000
11
-11.0980063933
21
-22.0824687523
31
0.0000000000
11
-11.1171972025
21
-22.0228205398
31
0.0000000000
11
-11.1287308067
21
-21.9616630017
31
0.0000000000
11
-11.1325830976
21
-21.8998857286
31
0.0000000000
0
SPLINE
5
386
100
AcDbEntity
8
0
100
AcDbSpline
62
7
6
CONTINUOUS
70
0
71
3
72
15
73
11
74
9
42
0.0000001000
43
0.0000001000
44
0.0000000001
12
0.1008939615
22
0.0007779154
32
0.0000000000
13
0.0713449249
23
0.0713449249
33
0.0000000000
40
0.0000000000
40
0.0000000000
40
0.0000000000
40
0.0000000000
40
0.2260892411
40
0.4253808137
40
0.5965983414
40
0.7386457856
40
0.8506149034
40
0.9317923900
40
0.9816698927
40
1.0000000000
40
1.0000000000
40
1.0000000000
40
1.0000000000
10
4.2962073137
20
23.7953389668
30
0.0000000000
10
4.3038109934
20
23.7953975929
30
0.0000000000
10
4.3181160368
20
23.7955181613
30
0.0000000000
10
4.3381839744
20
23.7957099099
30
0.0000000000
10
4.3554097967
20
23.7959355647
30
0.0000000000
10
4.3697420406
20
23.7960924762
30
0.0000000000
10
4.3809293187
20
23.7964507627
30
0.0000000000
10
4.3892942959
20
23.7963319984
30
0.0000000000
10
4.3939625085
20
23.7971318911
30
0.0000000000
10
4.3966382418
20
23.7966382418
30
0.0000000000
10
4.3970741618
20
23.7970741618
30
0.0000000000
11
4.2962073137
21
23.7953389668
31
0.0000000000
11
4.3190182283
21
23.7955303191
31
0.0000000000
11
4.3391251340
21
23.7957316733
31
0.0000000000
11
4.3563991849
21
23.7959417390
31
0.0000000000
11
4.3707296908
21
23.7961591702
31
0.0000000000
11
4.3820248254
21
23.7963825732
31
0.0000000000
11
4.3902122146
21
23.7966105166
31
0.0000000000
11
4.3952393975
21
23.7968415396
31
0.0000000000
11
4.3970741618
21
23.7970741618
31
0.0000000000
0
SPLINE
5
387
100
AcDbEntity
8
0
100
AcDbSpline
62
7
6
CONTINUOUS
70
0
71
3
72
18
73
14
74
12
42
0.0000001000
43
0.0000001000
44
0.0000000001
12
-0.3145151746
22
0.0000000000
32
0.0000000000
13
-0.0031690579
23
0.3144992085
33
0.0000000000
40
0.0000000000
40
0.0000000000
40
0.0000000000
40
0.0000000000
40
0.1233645867
40
0.2431315365
40
0.3566833685
40
0.4629485722
40
0.5612613068
40
0.6513651559
40
0.7334201413
40
0.8080244445
40
0.8762413066
40
0.9395978155
40
1.0000000000
40
1.0000000000
40
1.0000000000
40
1.0000000000
10
-10.3927234819
20
23.1226497308
30
0.0000000000
10
-10.4056568267
20
23.1226497308
30
0.0000000000
10
-10.4311574633
20
23.1239390815
30
0.0000000000
10
-10.4682449588
20
23.1290658994
30
0.0000000000
10
-10.5029559959
20
23.1372240001
30
0.0000000000
10
-10.5345794395
20
23.1479992837
30
0.0000000000
10
-10.5626605954
20
23.1610320757
30
0.0000000000
10
-10.5868601424
20
23.1759532971
30
0.0000000000
10
-10.6069364768
20
23.1924099204
30
0.0000000000
10
-10.6227236915
20
23.2100638468
30
0.0000000000
10
-10.6341092222
20
23.2285941995
30
0.0000000000
10
-10.6410200052
20
23.2476524472
30
0.0000000000
10
-10.6426554451
20
23.2606551517
30
0.0000000000
10
-10.6427192511
20
23.2669872981
30
0.0000000000
11
-10.3927234819
21
23.1226497308
31
0.0000000000
11
-10.4314781276
21
23.1245259271
31
0.0000000000
11
-10.4687828486
21
23.1297485157
31
0.0000000000
11
-10.5035358548
21
23.1379766523
31
0.0000000000
11
-10.5351430254
21
23.1488402671
31
0.0000000000
11
-10.5631442164
21
23.1619563668
31
0.0000000000
11
-10.5871976951
21
23.1769407141
31
0.0000000000
11
-10.6070632404
21
23.1934146064
31
0.0000000000
11
-10.6225882567
21
23.2110084085
31
0.0000000000
11
-10.6336977090
21
23.2293634437
31
0.0000000000
11
-10.6403873851
21
23.2481335519
31
0.0000000000
11
-10.6427192511
21
23.2669872981
31
0.0000000000
0
SPLINE
5
388
100
AcDbEntity
8
0
100
AcDbSpline
62
7
6
CONTINUOUS
70
0
71
3
72
9
73
5
74
3
42
0.0000001000
43
0.0000001000
44
0.0000000001
12
-9.8026060438
22
3.5678568182
32
0.0000000000
13
-9.8026060438
23
3.5678568182
33
0.0000000000
40
0.0000000000
40
0.0000000000
40
0.0000000000
40
0.0000000000
40
0.9515691259
40
1.0000000000
40
1.0000000000
40
1.0000000000
40
1.0000000000
10
-26.6249685611
20
-18.5930922768
30
0.0000000000
10
-29.7342543161
20
-17.4614048121
30
0.0000000000
10
-33.0017896641
20
-16.2721192061
30
0.0000000000
10
-36.2693250120
20
-15.0828336000
30
0.0000000000
10
-36.4275746049
20
-15.0252354586
30
0.0000000000
11
-26.6249685611
21
-18.5930922768
31
0.0000000000
11
-35.9528258261
21
-15.1980298828
31
0.0000000000
11
-36.4275746049
21
-15.0252354586
31
0.0000000000
0
SPLINE
5
389
100
AcDbEntity
8
0
100
AcDbSpline
62
7
6
CONTINUOUS
70
0
71
3
72
9
73
5
74
3
42
0.0000001000
43
0.0000001000
44
0.0000000001
12
9.8026060438
22
3.5678568182
32
0.0000000000
13
9.8026060438
23
3.5678568182
33
0.0000000000
40
0.0000000000
40
0.0000000000
40
0.0000000000
40
0.0000000000
40
0.0485586766
40
1.0000000000
40
1.0000000000
40
1.0000000000
40
1.0000000000
10
-36.4275746049
20
15.0252354586
30
0.0000000000
10
-36.2689074126
20
15.0829855937
30
0.0000000000
10
-33.0013720647
20
16.2722711998
30
0.0000000000
10
-29.7338367167
20
17.4615568059
30
0.0000000000
10
-26.6249685611
20
18.5930922768
30
0.0000000000
11
-36.4275746049
21
15.0252354586
31
0.0000000000
11
-35.9515730279
21
15.1984858641
31
0.0000000000
11
-26.6249685611
21
18.5930922768
31
0.0000000000
0
SPLINE
5
38A
100
AcDbEntity
8
0
100
AcDbSpline
62
7
6
CONTINUOUS
70
0
71
3
72
15
73
11
74
9
42
0.0000001000
43
0.0000001000
44
0.0000000001
12
-0.2737425829
22
0.3523000174
32
0.0000000000
13
-0.4460825886
23
0.0077864005
33
0.0000000000
40
0.0000000000
40
0.0000000000
40
0.0000000000
40
0.0000000000
40
0.1446524093
40
0.2819845544
40
0.4126133098
40
0.5372626217
40
0.6571483970
40
0.7731185054
40
0.8873122351
40
1.0000000000
40
1.0000000000
40
1.0000000000
40
1.0000000000
10
-26.5327526938
20
-21.7591165263
30
0.0000000000
10
-26.5459518685
20
-21.7421295109
30
0.0000000000
10
-26.5738572381
20
-21.7106396540
30
0.0000000000
10
-26.6201105430
20
-21.6700950886
30
0.0000000000
10
-26.6684064237
20
-21.6370442064
30
0.0000000000
10
-26.7178362178
20
-21.6109215914
30
0.0000000000
10
-26.7677789016
20
-21.5911458853
30
0.0000000000
10
-26.8180173778
20
-21.5771477205
30
0.0000000000
10
-26.8683616376
20
-21.5685561308
30
0.0000000000
10
-26.9020923851
20
-21.5662679106
30
0.0000000000
10
-26.9188484017
20
-21.5659754333
30
0.0000000000
11
-26.5327526938
21
-21.7591165263
31
0.0000000000
11
-26.5755565305
21
-21.7108172125
31
0.0000000000
11
-26.6216301417
21
-21.6704274293
31
0.0000000000
11
-26.6697263833
21
-21.6375135964
31
0.0000000000
11
-26.7188946344
21
-21.6115286503
31
0.0000000000
11
-26.7686250073
21
-21.5918370218
31
0.0000000000
11
-26.8184664122
21
-21.5779490761
31
0.0000000000
11
-26.8686880355
21
-21.5693790175
31
0.0000000000
11
-26.9188484017
21
-21.5659754333
31
0.0000000000
0
SPLINE
5
38B
100
AcDbEntity
8
0
100
AcDbSpline
62
9
6
CONTINUOUS
70
0
71
3
72
18
73
14
74
12
42
0.0000001000
43
0.0000001000
44
0.0000000001
12
-0.0261503182
22
-0.4991298239
32
0.0000000000
13
0.4991294076
23
-0.0261582638
33
0.0000000000
40
0.0000000000
40
0.0000000000
40
0.0000000000
40
0.0000000000
40
0.1422762323
40
0.2816418115
40
0.4152638996
40
0.5404265741
40
0.6545861602
40
0.7554231432
40
0.8408897156
40
0.9092523185
40
0.9591295451
40
0.9895315239
40
1.0000000000
40
1.0000000000
40
1.0000000000
40
1.0000000000
10
-45.0669117189
20
-21.4994104546
30
0.0000000000
10
-45.0681519085
20
-21.5230818915
30
0.0000000000
10
-45.0705492741
20
-21.5699437660
30
0.0000000000
10
-45.0739093309
20
-21.6390461822
30
0.0000000000
10
-45.0769563828
20
-21.7053133401
30
0.0000000000
10
-45.0796173753
20
-21.7673795405
30
0.0000000000
10
-45.0818782144
20
-21.8240430048
30
0.0000000000
10
-45.0835724053
20
-21.8739613510
30
0.0000000000
10
-45.0850366473
20
-21.9166892597
30
0.0000000000
10
-45.0852277151
20
-21.9497731946
30
0.0000000000
10
-45.0867190868
20
-21.9765091292
30
0.0000000000
10
-45.0842050256
20
-21.9880944304
30
0.0000000000
10
-45.0860952019
20
-21.9986339429
30
0.0000000000
10
-45.0843534938
20
-21.9987252220
30
0.0000000000
11
-45.0669117189
21
-21.4994104546
31
0.0000000000
11
-45.0705438106
21
-21.5704293456
31
0.0000000000
11
-45.0739246149
21
-21.6400041748
31
0.0000000000
11
-45.0769853885
21
-21.7067202431
31
0.0000000000
11
-45.0796638951
21
-21.7692209802
31
0.0000000000
11
-45.0819056713
21
-21.8262355280
31
0.0000000000
11
-45.0836651340
21
-21.8766045819
31
0.0000000000
11
-45.0849065071
21
-21.9193039632
31
0.0000000000
11
-45.0856045493
21
-21.9534654446
31
0.0000000000
11
-45.0857450669
21
-21.9783944039
31
0.0000000000
11
-45.0853252026
21
-21.9935839485
31
0.0000000000
11
-45.0843534938
21
-21.9987252220
31
0.0000000000
0
SPLINE
5
38C
100
AcDbEntity
8
0
100
AcDbSpline
62
7
6
CONTINUOUS
70
0
71
3
72
10
73
6
74
4
42
0.0000001000
43
0.0000001000
44
0.0000000001
12
-1.2514656671
22
0.0660848135
32
0.0000000000
13
-1.2514431539
23
0.0665097809
33
0.0000000000
40
0.0000000000
40
0.0000000000
40
0.0000000000
40
0.0000000000
40
0.3337025272
40
0.6670048192
40
1.0000000000
40
1.0000000000
40
1.0000000000
40
1.0000000000
10
-37.4275746049
20
-22.3997080771
30
0.0000000000
10
-37.5667803569
20
-22.3923571874
30
0.0000000000
10
-37.8450240702
20
-22.3776484956
30
0.0000000000
10
-38.2621755502
20
-22.3555494526
30
0.0000000000
10
-38.5401208580
20
-22.3407934403
30
0.0000000000
10
-38.6790290378
20
-22.3334109614
30
0.0000000000
11
-37.4275746049
21
-22.3997080771
31
0.0000000000
11
-37.8451906130
21
-22.3776317911
31
0.0000000000
11
-38.2623032444
21
-22.3555347895
31
0.0000000000
11
-38.6790290378
21
-22.3334109614
31
0.0000000000
0
SPLINE
5
38D
100
AcDbEntity
8
0
100
AcDbSpline
62
9
6
CONTINUOUS
70
0
71
3
72
21
73
17
74
15
42
0.0000001000
43
0.0000001000
44
0.0000000001
12
0.0607555661
22
-1.4753641774
32
0.0000000000
13
1.4745895509
23
-0.0773068631
33
0.0000000000
40
0.0000000000
40
0.0000000000
40
0.0000000000
40
0.0000000000
40
0.0713902293
40
0.1428180061
40
0.2142500336
40
0.2856810824
40
0.3571130926
40
0.4285468535
40
0.4999808986
40
0.5714157902
40
0.6428518851
40
0.7142873120
40
0.7857227678
40
0.8571599783
40
0.9285935585
40
1.0000000000
40
1.0000000000
40
1.0000000000
40
1.0000000000
10
-46.0137297746
20
-20.5419058565
30
0.0000000000
10
-46.0122839900
20
-20.5770147188
30
0.0000000000
10
-46.0056831241
20
-20.6471546786
30
0.0000000000
10
-45.9847592609
20
-20.7507032207
30
0.0000000000
10
-45.9530388654
20
-20.8515034155
30
0.0000000000
10
-45.9108767316
20
-20.9484003258
30
0.0000000000
10
-45.8587426127
20
-21.0403189640
30
0.0000000000
10
-45.7972156341
20
-21.1262358269
30
0.0000000000
10
-45.7269800734
20
-21.2051950070
30
0.0000000000
10
-45.6488172503
20
-21.2763174617
30
0.0000000000
10
-45.5635970324
20
-21.3388113090
30
0.0000000000
10
-45.4722675734
20
-21.3919808067
30
0.0000000000
10
-45.3758459499
20
-21.4352345578
30
0.0000000000
10
-45.2754020814
20
-21.4680903666
30
0.0000000000
10
-45.1720823496
20
-21.4901806134
30
0.0000000000
10
-45.1020101164
20
-21.4975703853
30
0.0000000000
10
-45.0669117189
20
-21.4994104546
30
0.0000000000
11
-46.0137297746
21
-20.5419058565
31
0.0000000000
11
-46.0038491059
21
-20.6468576308
31
0.0000000000
11
-45.9829610351
21
-20.7502398504
31
0.0000000000
11
-45.9512985152
21
-20.8508529891
31
0.0000000000
11
-45.9092150197
21
-20.9475700682
31
0.0000000000
11
-45.8571777303
21
-21.0393177329
31
0.0000000000
11
-45.7957644357
21
-21.1250759166
31
0.0000000000
11
-45.7256592937
21
-21.2038884562
31
0.0000000000
11
-45.6476415601
21
-21.2748789085
31
0.0000000000
11
-45.5625785864
21
-21.3372574014
31
0.0000000000
11
-45.4714189783
21
-21.3903281432
31
0.0000000000
11
-45.3751762345
21
-21.4335012957
31
0.0000000000
11
-45.2749187134
21
-21.4662970707
31
0.0000000000
11
-45.1717696649
21
-21.4883487449
31
0.0000000000
11
-45.0669117189
21
-21.4994104546
31
0.0000000000
0
SPLINE
5
38E
100
AcDbEntity
8
0
100
AcDbSpline
62
9
6
CONTINUOUS
70
0
71
3
72
14
73
10
74
8
42
0.0000001000
43
0.0000001000
44
0.0000000001
12
-1.6900355961
22
-41.0603985683
32
0.0000000000
13
1.6900355873
23
-41.0603985686
33
0.0000000000
40
0.0000000000
40
0.0000000000
40
0.0000000000
40
0.0000000000
40
0.1428571318
40
0.2857142834
40
0.4285714320
40
0.5714285788
40
0.7142857273
40
0.8571428789
40
1.0000000000
40
1.0000000000
40
1.0000000000
40
1.0000000000
10
-46.0137297746
20
20.5419058565
30
0.0000000000
10
-46.0942076539
20
18.5866489330
30
0.0000000000
10
-46.2321839905
20
14.6751499282
30
0.0000000000
10
-46.3701752229
20
8.8059055068
30
0.0000000000
10
-46.4391758183
20
2.9354358883
30
0.0000000000
10
-46.4391758159
20
-2.9354363316
30
0.0000000000
10
-46.3701752148
20
-8.8059059495
30
0.0000000000
10
-46.2321839814
20
-14.6751502230
30
0.0000000000
10
-46.0942076475
20
-18.5866490802
30
0.0000000000
10
-46.0137297746
20
-20.5419058565
30
0.0000000000
11
-46.0137297746
21
20.5419058565
31
0.0000000000
11
-46.2206884367
21
14.6748175628
31
0.0000000000
11
-46.3586767832
21
8.8057012996
31
0.0000000000
11
-46.4276757189
21
2.9353687563
31
0.0000000000
11
-46.4276757164
21
-2.9353691998
31
0.0000000000
11
-46.3586767754
21
-8.8057017423
31
0.0000000000
11
-46.2206884239
21
-14.6748180047
31
0.0000000000
11
-46.0137297746
21
-20.5419058565
31
0.0000000000
0
SPLINE
5
38F
100
AcDbEntity
8
0
100
AcDbSpline
62
9
6
CONTINUOUS
70
0
71
3
72
18
73
14
74
12
42
0.0000001000
43
0.0000001000
44
0.0000000001
12
-0.0261503191
22
0.4991298239
32
0.0000000000
13
0.4991294076
23
0.0261582638
33
0.0000000000
40
0.0000000000
40
0.0000000000
40
0.0000000000
40
0.0000000000
40
0.1422761824
40
0.2816417245
40
0.4152637905
40
0.5404264582
40
0.6545860511
40
0.7554230516
40
0.8408896477
40
0.9092522760
40
0.9591295247
40
0.9895315185
40
1.0000000000
40
1.0000000000
40
1.0000000000
40
1.0000000000
10
-45.0669117189
20
21.4994104546
30
0.0000000000
10
-45.0681519081
20
21.5230818832
30
0.0000000000
10
-45.0705492731
20
21.5699437432
30
0.0000000000
10
-45.0739093292
20
21.6390461413
30
0.0000000000
10
-45.0769563807
20
21.7053132882
30
0.0000000000
10
-45.0796173733
20
21.7673794848
30
0.0000000000
10
-45.0818782128
20
21.8240429521
30
0.0000000000
10
-45.0835724042
20
21.8739613063
30
0.0000000000
10
-45.0850366468
20
21.9166892261
30
0.0000000000
10
-45.0852277149
20
21.9497731726
30
0.0000000000
10
-45.0867190876
20
21.9765091185
30
0.0000000000
10
-45.0842050251
20
21.9880944250
30
0.0000000000
10
-45.0860952028
20
21.9986339429
30
0.0000000000
10
-45.0843534938
20
21.9987252220
30
0.0000000000
11
-45.0669117189
21
21.4994104546
31
0.0000000000
11
-45.0705438094
21
21.5704293207
31
0.0000000000
11
-45.0739246131
21
21.6400041313
31
0.0000000000
11
-45.0769853864
21
21.7067201886
31
0.0000000000
11
-45.0796638931
21
21.7692209223
31
0.0000000000
11
-45.0819056697
21
21.8262354735
31
0.0000000000
11
-45.0836651329
21
21.8766045361
31
0.0000000000
11
-45.0849065066
21
21.9193039293
31
0.0000000000
11
-45.0856045493
21
21.9534654233
31
0.0000000000
11
-45.0857450672
21
21.9783943937
31
0.0000000000
11
-45.0853252029
21
21.9935839459
31
0.0000000000
11
-45.0843534938
21
21.9987252220
31
0.0000000000
0
SPLINE
5
390
100
AcDbEntity
8
0
100
AcDbSpline
62
7
6
CONTINUOUS
70
0
71
3
72
18
73
14
74
12
42
0.0000001000
43
0.0000001000
44
0.0000000001
12
0.2428384228
22
0.1538204419
32
0.0000000000
13
0.2489103762
23
0.1437121207
33
0.0000000000
40
0.0000000000
40
0.0000000000
40
0.0000000000
40
0.0000000000
40
0.0123761700
40
0.0480657717
40
0.1047134009
40
0.1797548254
40
0.2705332114
40
0.3743809030
40
0.4886669468
40
0.6108219308
40
0.7383513333
40
0.8688464797
40
1.0000000000
40
1.0000000000
40
1.0000000000
40
1.0000000000
10
-38.9275746049
20
23.1226497308
30
0.0000000000
10
-38.9265728017
20
23.1232843001
30
0.0000000000
10
-38.9226582627
20
23.1257096044
30
0.0000000000
10
-38.9139841896
20
23.1307524594
30
0.0000000000
10
-38.9001602312
20
23.1388783022
30
0.0000000000
10
-38.8817388256
20
23.1495993852
30
0.0000000000
10
-38.8594062084
20
23.1625893439
30
0.0000000000
10
-38.8338088285
20
23.1774447387
30
0.0000000000
10
-38.8056033655
20
23.1937949002
30
0.0000000000
10
-38.7754265546
20
23.2112683728
30
0.0000000000
10
-38.7438986737
20
23.2295076090
30
0.0000000000
10
-38.7116178303
20
23.2481669283
30
0.0000000000
10
-38.6899108618
20
23.2607045146
30
0.0000000000
10
-38.6790290378
20
23.2669872981
30
0.0000000000
11
-38.9275746049
21
23.1226497308
31
0.0000000000
11
-38.9245524935
21
23.1245259271
31
0.0000000000
11
-38.9157236607
21
23.1297485157
31
0.0000000000
11
-38.9016741766
21
23.1379766523
31
0.0000000000
11
-38.8830415697
21
23.1488402671
31
0.0000000000
11
-38.8604865325
21
23.1619563668
31
0.0000000000
11
-38.8346726011
21
23.1769407141
31
0.0000000000
11
-38.8062543155
21
23.1934146064
31
0.0000000000
11
-38.7758710205
21
23.2110084085
31
0.0000000000
11
-38.7441435307
21
23.2293634437
31
0.0000000000
11
-38.7116713940
21
23.2481335519
31
0.0000000000
11
-38.6790290378
21
23.2669872981
31
0.0000000000
0
SPLINE
5
391
100
AcDbEntity
8
0
100
AcDbSpline
62
9
6
CONTINUOUS
70
0
71
3
72
21
73
17
74
15
42
0.0000001000
43
0.0000001000
44
0.0000000001
12
-1.4745893926
22
-0.0773098831
32
0.0000000000
13
-0.0607525409
23
-1.4753643020
33
0.0000000000
40
0.0000000000
40
0.0000000000
40
0.0000000000
40
0.0000000000
40
0.0713960626
40
0.1428292298
40
0.2142659787
40
0.2857009292
40
0.3571358806
40
0.4285714702
40
0.5000061361
40
0.5714404093
40
0.6428746776
40
0.7143071660
40
0.7857387227
40
0.8571712120
40
0.9285994001
40
1.0000000000
40
1.0000000000
40
1.0000000000
40
1.0000000000
10
-45.0669117189
20
21.4994104546
30
0.0000000000
10
-45.1020050111
20
21.4975705808
30
0.0000000000
10
-45.1720719706
20
21.4901820567
30
0.0000000000
10
-45.2753865977
20
21.4680944228
30
0.0000000000
10
-45.3758303759
20
21.4352405599
30
0.0000000000
10
-45.4722520716
20
21.3919887031
30
0.0000000000
10
-45.5635818478
20
21.3388212168
30
0.0000000000
10
-45.6488027375
20
21.2763292945
30
0.0000000000
10
-45.7269667325
20
21.2052084991
30
0.0000000000
10
-45.7972039676
20
21.1262504695
30
0.0000000000
10
-45.8587328803
20
21.0403342534
30
0.0000000000
10
-45.9108690149
20
20.9484159061
30
0.0000000000
10
-45.9530330436
20
20.8515190435
30
0.0000000000
10
-45.9847553825
20
20.7507187356
30
0.0000000000
10
-46.0056817985
20
20.6471650642
30
0.0000000000
10
-46.0122838520
20
20.5770198219
30
0.0000000000
10
-46.0137297746
20
20.5419058565
30
0.0000000000
11
-45.0669117189
21
21.4994104546
31
0.0000000000
11
-45.1717545099
21
21.4883511677
31
0.0000000000
11
-45.2749032948
21
21.4663011785
31
0.0000000000
11
-45.3751607127
21
21.4335072799
31
0.0000000000
11
-45.4714035074
21
21.3903360643
31
0.0000000000
11
-45.5625634545
21
21.3372673002
31
0.0000000000
11
-45.6476269807
21
21.2748908223
31
0.0000000000
11
-45.7256458209
21
21.2039020815
31
0.0000000000
11
-45.7957526889
21
21.1250906265
31
0.0000000000
11
-45.8571680060
21
21.0393329696
31
0.0000000000
11
-45.9092072780
21
20.9475856177
31
0.0000000000
11
-45.9512927111
21
20.8508685638
31
0.0000000000
11
-45.9829571046
21
20.7502552997
31
0.0000000000
11
-46.0038468552
21
20.6468728001
31
0.0000000000
11
-46.0137297746
21
20.5419058565
31
0.0000000000
0
SPLINE
5
392
100
AcDbEntity
8
0
100
AcDbSpline
62
7
6
CONTINUOUS
70
0
71
3
72
10
73
6
74
4
42
0.0000001000
43
0.0000001000
44
0.0000000001
12
1.2514431539
22
0.0665097809
32
0.0000000000
13
1.2514656671
23
0.0660848135
33
0.0000000000
40
0.0000000000
40
0.0000000000
40
0.0000000000
40
0.0000000000
40
0.3329951808
40
0.6662974728
40
1.0000000000
40
1.0000000000
40
1.0000000000
40
1.0000000000
10
-38.6790290378
20
22.3334109614
30
0.0000000000
10
-38.5401208580
20
22.3407934403
30
0.0000000000
10
-38.2621755502
20
22.3555494526
30
0.0000000000
10
-37.8450240702
20
22.3776484956
30
0.0000000000
10
-37.5667803569
20
22.3923571874
30
0.0000000000
10
-37.4275746049
20
22.3997080771
30
0.0000000000
11
-38.6790290378
21
22.3334109614
31
0.0000000000
11
-38.2623032444
21
22.3555347895
31
0.0000000000
11
-37.8451906130
21
22.3776317911
31
0.0000000000
11
-37.4275746049
21
22.3997080771
31
0.0000000000
0
SPLINE
5
393
100
AcDbEntity
8
0
100
AcDbSpline
62
7
6
CONTINUOUS
70
0
71
3
72
19
73
15
74
13
42
0.0000001000
43
0.0000001000
44
0.0000000001
12
-0.2489108378
22
-0.4336109437
32
0.0000000000
13
0.0109826256
23
-0.4998544164
33
0.0000000000
40
0.0000000000
40
0.0000000000
40
0.0000000000
40
0.0000000000
40
0.0130778467
40
0.0427005360
40
0.0882340605
40
0.1485543506
40
0.2232180786
40
0.3115540260
40
0.4113400668
40
0.5199309047
40
0.6347525268
40
0.7540705658
40
0.8764127390
40
1.0000000000
40
1.0000000000
40
1.0000000000
40
1.0000000000
10
-37.4277225778
20
22.3996911987
30
0.0000000000
10
-37.4288076504
20
22.3978009662
30
0.0000000000
10
-37.4287893925
20
22.3902856274
30
0.0000000000
10
-37.4299927780
20
22.3759346384
30
0.0000000000
10
-37.4302043093
20
22.3531872768
30
0.0000000000
10
-37.4306181148
20
22.3231748335
30
0.0000000000
10
-37.4306567565
20
22.2859302473
30
0.0000000000
10
-37.4305271357
20
22.2421439286
30
0.0000000000
10
-37.4301517130
20
22.1926926158
30
0.0000000000
10
-37.4295670433
20
22.1388328804
30
0.0000000000
10
-37.4287818012
20
22.0817190453
30
0.0000000000
10
-37.4278169801
20
22.0223162216
30
0.0000000000
10
-37.4266858202
20
21.9614551270
30
0.0000000000
10
-37.4258407135
20
21.9204776080
30
0.0000000000
10
-37.4253882759
20
21.8998857286
30
0.0000000000
11
-37.4277225778
21
22.3996911987
31
0.0000000000
11
-37.4288528064
21
22.3932510251
31
0.0000000000
11
-37.4296347673
21
22.3784610765
31
0.0000000000
11
-37.4301955380
21
22.3557023577
31
0.0000000000
11
-37.4305281086
21
22.3255455511
31
0.0000000000
11
-37.4306316033
21
22.2882156930
31
0.0000000000
11
-37.4305007606
21
22.2440501167
31
0.0000000000
11
-37.4301368711
21
22.1941609125
31
0.0000000000
11
-37.4295528678
21
22.1398713434
31
0.0000000000
11
-37.4287687142
21
22.0824687523
31
0.0000000000
11
-37.4278021620
21
22.0228205398
31
0.0000000000
11
-37.4266690192
21
21.9616630017
31
0.0000000000
11
-37.4253882759
21
21.8998857286
31
0.0000000000
0
SPLINE
5
394
100
AcDbEntity
8
0
100
AcDbSpline
62
7
6
CONTINUOUS
70
0
71
3
72
19
73
15
74
13
42
0.0000001000
43
0.0000001000
44
0.0000000001
12
-0.0109826256
22
-0.4998544164
32
0.0000000000
13
0.2489108378
23
-0.4336109437
33
0.0000000000
40
0.0000000000
40
0.0000000000
40
0.0000000000
40
0.0000000000
40
0.1235872610
40
0.2459294342
40
0.3652474732
40
0.4800690953
40
0.5886599332
40
0.6884459740
40
0.7767819214
40
0.8514456494
40
0.9117659395
40
0.9572994640
40
0.9869221533
40
1.0000000000
40
1.0000000000
40
1.0000000000
40
1.0000000000
10
-37.4253882759
20
-21.8998857286
30
0.0000000000
10
-37.4258407135
20
-21.9204776080
30
0.0000000000
10
-37.4266858202
20
-21.9614551270
30
0.0000000000
10
-37.4278169801
20
-22.0223162216
30
0.0000000000
10
-37.4287818012
20
-22.0817190453
30
0.0000000000
10
-37.4295670433
20
-22.1388328804
30
0.0000000000
10
-37.4301517130
20
-22.1926926158
30
0.0000000000
10
-37.4305271357
20
-22.2421439286
30
0.0000000000
10
-37.4306567565
20
-22.2859302473
30
0.0000000000
10
-37.4306181148
20
-22.3231748335
30
0.0000000000
10
-37.4302043093
20
-22.3531872768
30
0.0000000000
10
-37.4299927780
20
-22.3759346384
30
0.0000000000
10
-37.4287893925
20
-22.3902856274
30
0.0000000000
10
-37.4288076504
20
-22.3978009662
30
0.0000000000
10
-37.4277225778
20
-22.3996911987
30
0.0000000000
11
-37.4253882759
21
-21.8998857286
31
0.0000000000
11
-37.4266690192
21
-21.9616630017
31
0.0000000000
11
-37.4278021620
21
-22.0228205398
31
0.0000000000
11
-37.4287687142
21
-22.0824687523
31
0.0000000000
11
-37.4295528678
21
-22.1398713434
31
0.0000000000
11
-37.4301368711
21
-22.1941609125
31
0.0000000000
11
-37.4305007606
21
-22.2440501167
31
0.0000000000
11
-37.4306316033
21
-22.2882156930
31
0.0000000000
11
-37.4305281086
21
-22.3255455511
31
0.0000000000
11
-37.4301955380
21
-22.3557023577
31
0.0000000000
11
-37.4296347673
21
-22.3784610765
31
0.0000000000
11
-37.4288528064
21
-22.3932510251
31
0.0000000000
11
-37.4277225778
21
-22.3996911987
31
0.0000000000
0
SPLINE
5
395
100
AcDbEntity
8
0
100
AcDbSpline
62
7
6
CONTINUOUS
70
0
71
3
72
18
73
14
74
12
42
0.0000001000
43
0.0000001000
44
0.0000000001
12
-0.2428384228
22
0.1538204419
32
0.0000000000
13
-0.2489103762
23
0.1437121207
33
0.0000000000
40
0.0000000000
40
0.0000000000
40
0.0000000000
40
0.0000000000
40
0.0123761700
40
0.0480657717
40
0.1047134009
40
0.1797548254
40
0.2705332114
40
0.3743809030
40
0.4886669468
40
0.6108219308
40
0.7383513333
40
0.8688464797
40
1.0000000000
40
1.0000000000
40
1.0000000000
40
1.0000000000
10
-36.4275746049
20
23.7000000000
30
0.0000000000
10
-36.4285764081
20
23.7006345693
30
0.0000000000
10
-36.4324909471
20
23.7030598736
30
0.0000000000
10
-36.4411650203
20
23.7081027286
30
0.0000000000
10
-36.4549889786
20
23.7162285714
30
0.0000000000
10
-36.4734103843
20
23.7269496544
30
0.0000000000
10
-36.4957430014
20
23.7399396131
30
0.0000000000
10
-36.5213403814
20
23.7547950079
30
0.0000000000
10
-36.5495458443
20
23.7711451694
30
0.0000000000
10
-36.5797226553
20
23.7886186420
30
0.0000000000
10
-36.6112505361
20
23.8068578782
30
0.0000000000
10
-36.6435313795
20
23.8255171975
30
0.0000000000
10
-36.6652383481
20
23.8380547838
30
0.0000000000
10
-36.6761201721
20
23.8443375673
30
0.0000000000
11
-36.4275746049
21
23.7000000000
31
0.0000000000
11
-36.4305967164
21
23.7018761963
31
0.0000000000
11
-36.4394255492
21
23.7070987849
31
0.0000000000
11
-36.4534750333
21
23.7153269215
31
0.0000000000
11
-36.4721076401
21
23.7261905362
31
0.0000000000
11
-36.4946626774
21
23.7393066360
31
0.0000000000
11
-36.5204766088
21
23.7542909833
31
0.0000000000
11
-36.5488948944
21
23.7707648756
31
0.0000000000
11
-36.5792781894
21
23.7883586777
31
0.0000000000
11
-36.6110056791
21
23.8067137129
31
0.0000000000
11
-36.6434778159
21
23.8254838211
31
0.0000000000
11
-36.6761201721
21
23.8443375673
31
0.0000000000
0
SPLINE
5
396
100
AcDbEntity
8
0
100
AcDbSpline
62
7
6
CONTINUOUS
70
0
71
3
72
18
73
14
74
12
42
0.0000001000
43
0.0000001000
44
0.0000000001
12
0.0000000000
22
0.2499957692
32
0.0000000000
13
-0.0000000000
23
0.2499957692
33
0.0000000000
40
0.0000000000
40
0.0000000000
40
0.0000000000
40
0.0000000000
40
0.1423149498
40
0.2817329607
40
0.4154158922
40
0.5406422499
40
0.6548626354
40
0.7557517020
40
0.8412555461
40
0.9096335594
40
0.9594938813
40
0.9898217243
40
1.0000000000
40
1.0000000000
40
1.0000000000
40
1.0000000000
10
-37.4275746049
20
24.2500042308
30
0.0000000000
10
-37.4275746049
20
24.2618636092
30
0.0000000000
10
-37.4275746049
20
24.2853409586
30
0.0000000000
10
-37.4275746049
20
24.3199583638
30
0.0000000000
10
-37.4275746049
20
24.3531517437
30
0.0000000000
10
-37.4275746049
20
24.3842453571
30
0.0000000000
10
-37.4275746049
20
24.4126061946
30
0.0000000000
10
-37.4275746049
20
24.4376568787
30
0.0000000000
10
-37.4275746049
20
24.4588874297
30
0.0000000000
10
-37.4275746049
20
24.4758656573
30
0.0000000000
10
-37.4275746049
20
24.4882459627
30
0.0000000000
10
-37.4275746049
20
24.4957763720
30
0.0000000000
10
-37.4275746049
20
24.4991518247
30
0.0000000000
10
-37.4275746049
20
24.5000000000
30
0.0000000000
11
-37.4275746049
21
24.2500042308
31
0.0000000000
11
-37.4275746049
21
24.2855823661
31
0.0000000000
11
-37.4275746049
21
24.3204362790
31
0.0000000000
11
-37.4275746049
21
24.3538564463
31
0.0000000000
11
-37.4275746049
21
24.3851625059
31
0.0000000000
11
-37.4275746049
21
24.4137171191
31
0.0000000000
11
-37.4275746049
21
24.4389389589
31
0.0000000000
11
-37.4275746049
21
24.4603145581
31
0.0000000000
11
-37.4275746049
21
24.4774087722
31
0.0000000000
11
-37.4275746049
21
24.4898736417
31
0.0000000000
11
-37.4275746049
21
24.4974554741
31
0.0000000000
11
-37.4275746049
21
24.5000000000
31
0.0000000000
0
SPLINE
5
397
100
AcDbEntity
8
0
100
AcDbSpline
62
9
6
CONTINUOUS
70
0
71
3
72
17
73
13
74
11
42
0.0000001000
43
0.0000001000
44
0.0000000001
12
-0.0014544205
22
0.2500021167
32
0.0000000000
13
0.2500021164
23
0.0014544698
33
0.0000000000
40
0.0000000000
40
0.0000000000
40
0.0000000000
40
0.0000000000
40
0.1564267502
40
0.3090012198
40
0.4539668239
40
0.5877543493
40
0.7070698590
40
0.8089758405
40
0.8909636355
40
0.9510155075
40
0.9876555928
40
1.0000000000
40
1.0000000000
40
1.0000000000
40
1.0000000000
10
-39.6790290378
20
24.2369056521
30
0.0000000000
10
-39.6791048745
20
24.2499413250
30
0.0000000000
10
-39.6792426276
20
24.2756912453
30
0.0000000000
10
-39.6794123183
20
24.3135244391
30
0.0000000000
10
-39.6795300669
20
24.3494622370
30
0.0000000000
10
-39.6796264099
20
24.3826580291
30
0.0000000000
10
-39.6795929261
20
24.4121719190
30
0.0000000000
10
-39.6797535714
20
24.4376484136
30
0.0000000000
10
-39.6792003041
20
24.4574175226
30
0.0000000000
10
-39.6802306594
20
24.4736178544
30
0.0000000000
10
-39.6780575351
20
24.4803555935
30
0.0000000000
10
-39.6800577471
20
24.4868954364
30
0.0000000000
10
-39.6790290378
20
24.4869014213
30
0.0000000000
11
-39.6790290378
21
24.2369056521
31
0.0000000000
11
-39.6792386429
21
24.2760127708
31
0.0000000000
11
-39.6794072757
21
24.3141569839
31
0.0000000000
11
-39.6795307840
21
24.3503990946
31
0.0000000000
11
-39.6796061267
21
24.3838467403
31
0.0000000000
11
-39.6796314488
21
24.4136763643
31
0.0000000000
11
-39.6796061267
21
24.4391534939
31
0.0000000000
11
-39.6795307840
21
24.4596508246
31
0.0000000000
11
-39.6794072757
21
24.4746636657
31
0.0000000000
11
-39.6792386429
21
24.4838223673
31
0.0000000000
11
-39.6790290378
21
24.4869014213
31
0.0000000000
0
SPLINE
5
398
100
AcDbEntity
8
0
100
AcDbSpline
62
9
6
CONTINUOUS
70
0
71
3
72
17
73
13
74
11
42
0.0000001000
43
0.0000001000
44
0.0000000001
12
0.0014544205
22
0.2500021157
32
0.0000000000
13
-0.2500021155
23
0.0014544698
33
0.0000000000
40
0.0000000000
40
0.0000000000
40
0.0000000000
40
0.0000000000
40
0.1561543153
40
0.3087574079
40
0.4537555231
40
0.5875884578
40
0.7069466610
40
0.8088931984
40
0.8909155168
40
0.9509936983
40
0.9876501495
40
1.0000000000
40
1.0000000000
40
1.0000000000
40
1.0000000000
10
-36.6761201721
20
24.2456323968
30
0.0000000000
10
-36.6760444674
20
24.2586453665
30
0.0000000000
10
-36.6759068027
20
24.2843749696
30
0.0000000000
10
-36.6757371296
20
24.3221905537
30
0.0000000000
10
-36.6756192919
20
24.3581372288
30
0.0000000000
10
-36.6755228615
20
24.3913430784
30
0.0000000000
10
-36.6755563023
20
24.4208676664
30
0.0000000000
10
-36.6753955365
20
24.4463540545
30
0.0000000000
10
-36.6759489980
20
24.4661313812
30
0.0000000000
10
-36.6749181047
20
24.4823387177
30
0.0000000000
10
-36.6770922267
20
24.4890794174
30
0.0000000000
10
-36.6750910092
20
24.4956221785
30
0.0000000000
10
-36.6761201721
20
24.4956281660
30
0.0000000000
11
-36.6761201721
21
24.2456323968
31
0.0000000000
11
-36.6759109005
21
24.2846714057
31
0.0000000000
11
-36.6757421736
21
24.3228227742
31
0.0000000000
11
-36.6756185767
21
24.3590730125
31
0.0000000000
11
-36.6755431492
21
24.3925320106
31
0.0000000000
11
-36.6755177611
21
24.4223723080
31
0.0000000000
11
-36.6755430380
21
24.4478595768
31
0.0000000000
11
-36.6756183585
21
24.4683655387
31
0.0000000000
11
-36.6757418683
21
24.4833849575
31
0.0000000000
11
-36.6759105249
21
24.4925477509
31
0.0000000000
11
-36.6761201721
21
24.4956281660
31
0.0000000000
0
SPLINE
5
399
100
AcDbEntity
8
0
100
AcDbSpline
62
9
6
CONTINUOUS
70
0
71
3
72
18
73
14
74
12
42
0.0000001000
43
0.0000001000
44
0.0000000001
12
0.1009339516
22
0.4343648411
32
0.0000000000
13
0.0000045014
23
-0.0000017065
33
0.0000000000
40
0.0000000000
40
0.0000000000
40
0.0000000000
40
0.0000000000
40
0.1429017404
40
0.2827848380
40
0.4167930309
40
0.5421530150
40
0.6563266373
40
0.7570134195
40
0.8422082264
40
0.9102380991
40
0.9597862569
40
0.9898984946
40
1.0000000000
40
1.0000000000
40
1.0000000000
40
1.0000000000
10
-26.7258292868
20
-19.0274741148
30
0.0000000000
10
-26.7210214077
20
-19.0067836175
30
0.0000000000
10
-26.7115109902
20
-18.9658385849
30
0.0000000000
10
-26.6974894616
20
-18.9054925069
30
0.0000000000
10
-26.6840651330
20
-18.8476803164
30
0.0000000000
10
-26.6715075457
20
-18.7936047546
30
0.0000000000
10
-26.6600629316
20
-18.7443079490
30
0.0000000000
10
-26.6500022556
20
-18.7009677366
30
0.0000000000
10
-26.6413974865
20
-18.6638931885
30
0.0000000000
10
-26.6347744155
20
-18.6353537019
30
0.0000000000
10
-26.6293696429
20
-18.6120609716
30
0.0000000000
10
-26.6271428564
20
-18.6024636623
30
0.0000000000
10
-26.6249685767
20
-18.5930922723
30
0.0000000000
10
-26.6249685616
20
-18.5930922780
30
0.0000000000
11
-26.7258292868
21
-19.0274741148
31
0.0000000000
11
-26.7114087342
21
-18.9654019063
31
0.0000000000
11
-26.6972930863
21
-18.9046408388
31
0.0000000000
11
-26.6837747726
21
-18.8464306113
31
0.0000000000
11
-26.6711300958
21
-18.7919766901
31
0.0000000000
11
-26.6596158880
21
-18.7423814095
31
0.0000000000
11
-26.6494632151
21
-18.6986442791
31
0.0000000000
11
-26.6408738775
21
-18.6616363952
31
0.0000000000
11
-26.6340159546
21
-18.6320846131
31
0.0000000000
11
-26.6290216568
21
-18.6105610579
31
0.0000000000
11
-26.6259866679
21
-18.5974803485
31
0.0000000000
11
-26.6249685616
21
-18.5930922780
31
0.0000000000
0
SPLINE
5
39A
100
AcDbEntity
8
0
100
AcDbSpline
62
7
6
CONTINUOUS
70
0
71
3
72
11
73
7
74
5
42
0.0000001000
43
0.0000001000
44
0.0000000001
12
-0.1240362377
22
-0.0065920877
32
0.0000000000
13
-0.1240410600
23
-0.0065007165
33
0.0000000000
40
0.0000000000
40
0.0000000000
40
0.0000000000
40
0.0000000000
40
0.2612576226
40
0.5179302605
40
0.7655923258
40
1.0000000000
40
1.0000000000
40
1.0000000000
40
1.0000000000
10
-38.6790290378
20
22.3334109614
30
0.0000000000
10
-38.6898308420
20
22.3328368837
30
0.0000000000
10
-38.7112497687
20
22.3317891021
30
0.0000000000
10
-38.7429208901
20
22.3304701142
30
0.0000000000
10
-38.7734845551
20
22.3292871906
30
0.0000000000
10
-38.7934256881
20
22.3284187779
30
0.0000000000
10
-38.8031177469
20
22.3279108386
30
0.0000000000
11
-38.6790290378
21
22.3334109614
31
0.0000000000
11
-38.7114411303
21
22.3318193863
31
0.0000000000
11
-38.7432942198
21
22.3304704706
31
0.0000000000
11
-38.7740320450
21
22.3292404994
31
0.0000000000
11
-38.8031177469
21
22.3279108386
31
0.0000000000
0
SPLINE
5
39B
100
AcDbEntity
8
0
100
AcDbSpline
62
9
6
CONTINUOUS
70
0
71
3
72
17
73
13
74
11
42
0.0000001000
43
0.0000001000
44
0.0000000001
12
-0.1246387852
22
-0.2158880155
32
0.0000000000
13
0.2158861888
23
-0.1246419492
33
0.0000000000
40
0.0000000000
40
0.0000000000
40
0.0000000000
40
0.0000000000
40
0.1564349741
40
0.3090912049
40
0.4540928199
40
0.5878920034
40
0.7071946998
40
0.8090744096
40
0.8910306741
40
0.9510531999
40
0.9876708992
40
1.0000000000
40
1.0000000000
40
1.0000000000
40
1.0000000000
10
-39.6790290378
20
23.8443375673
30
0.0000000000
10
-39.6855283262
20
23.8330800886
30
0.0000000000
10
-39.6983606304
20
23.8108322444
30
0.0000000000
10
-39.7171901020
20
23.7781311728
30
0.0000000000
10
-39.7350429971
20
23.7470485545
30
0.0000000000
10
-39.7515243466
20
23.7183401772
30
0.0000000000
10
-39.7660750682
20
23.6927633138
30
0.0000000000
10
-39.7788074220
20
23.6707872489
30
0.0000000000
10
-39.7880923218
20
23.6533996979
30
0.0000000000
10
-39.7970221028
20
23.6399017248
30
0.0000000000
10
-39.7984429359
20
23.6329884260
30
0.0000000000
10
-39.8034618325
20
23.6283434574
30
0.0000000000
10
-39.8025746049
20
23.6278312164
30
0.0000000000
11
-39.6790290378
21
23.8443375673
31
0.0000000000
11
-39.6985135423
21
23.8105574212
31
0.0000000000
11
-39.7175006216
21
23.7775778202
31
0.0000000000
11
-39.7355081549
21
23.7462361050
31
0.0000000000
11
-39.7520955256
21
23.7172991519
31
0.0000000000
11
-39.7668543391
21
23.6914794042
31
0.0000000000
11
-39.7794225324
21
23.6694102704
31
0.0000000000
11
-39.7894915947
21
23.6516334796
31
0.0000000000
11
-39.7968144521
21
23.6385852371
31
0.0000000000
11
-39.8012113785
21
23.6305857918
31
0.0000000000
11
-39.8025746049
21
23.6278312164
31
0.0000000000
0
SPLINE
5
39C
100
AcDbEntity
8
0
100
AcDbSpline
62
9
6
CONTINUOUS
70
0
71
3
72
9
73
5
74
3
42
0.0000001000
43
0.0000001000
44
0.0000000001
12
9.7017453194
22
-3.4711995236
32
0.0000000000
13
9.7017453194
23
-3.4711995236
33
0.0000000000
40
0.0000000000
40
0.0000000000
40
0.0000000000
40
0.0000000000
40
0.0413196437
40
1.0000000000
40
1.0000000000
40
1.0000000000
40
1.0000000000
10
-36.4275746049
20
-15.5562745911
30
0.0000000000
10
-36.2939503850
20
-15.6040841670
30
0.0000000000
10
-33.0600352786
20
-16.7611506749
30
0.0000000000
10
-29.8261201721
20
-17.9182171827
30
0.0000000000
10
-26.7258292855
20
-19.0274741148
30
0.0000000000
11
-36.4275746049
21
-15.5562745911
31
0.0000000000
11
-36.0267019452
21
-15.6997033186
31
0.0000000000
11
-26.7258292855
21
-19.0274741148
31
0.0000000000
0
SPLINE
5
39D
100
AcDbEntity
8
0
100
AcDbSpline
62
9
6
CONTINUOUS
70
0
71
3
72
9
73
5
74
3
42
0.0000001000
43
0.0000001000
44
0.0000000001
12
-9.7017453194
22
-3.4711995236
32
0.0000000000
13
-9.7017453194
23
-3.4711995236
33
0.0000000000
40
0.0000000000
40
0.0000000000
40
0.0000000000
40
0.0000000000
40
0.9586803563
40
1.0000000000
40
1.0000000000
40
1.0000000000
40
1.0000000000
10
-26.7258292855
20
19.0274741148
30
0.0000000000
10
-29.8261201721
20
17.9182171827
30
0.0000000000
10
-33.0600352786
20
16.7611506749
30
0.0000000000
10
-36.2939503850
20
15.6040841670
30
0.0000000000
10
-36.4275746049
20
15.5562745911
30
0.0000000000
11
-26.7258292855
21
19.0274741148
31
0.0000000000
11
-36.0267019452
21
15.6997033186
31
0.0000000000
11
-36.4275746049
21
15.5562745911
31
0.0000000000
0
SPLINE
5
39E
100
AcDbEntity
8
0
100
AcDbSpline
62
7
6
CONTINUOUS
70
0
71
3
72
18
73
14
74
12
42
0.0000001000
43
0.0000001000
44
0.0000000001
12
0.0000000000
22
0.2499957692
32
0.0000000000
13
-0.0000000000
23
0.2499957692
33
0.0000000000
40
0.0000000000
40
0.0000000000
40
0.0000000000
40
0.0000000000
40
0.0101782757
40
0.0405061187
40
0.0903664406
40
0.1587444539
40
0.2442482980
40
0.3451373646
40
0.4593577501
40
0.5845841078
40
0.7182670393
40
0.8576850502
40
1.0000000000
40
1.0000000000
40
1.0000000000
40
1.0000000000
10
-37.4275746049
20
-24.5000000000
30
0.0000000000
10
-37.4275746049
20
-24.4991518247
30
0.0000000000
10
-37.4275746049
20
-24.4957763720
30
0.0000000000
10
-37.4275746049
20
-24.4882459627
30
0.0000000000
10
-37.4275746049
20
-24.4758656573
30
0.0000000000
10
-37.4275746049
20
-24.4588874297
30
0.0000000000
10
-37.4275746049
20
-24.4376568787
30
0.0000000000
10
-37.4275746049
20
-24.4126061946
30
0.0000000000
10
-37.4275746049
20
-24.3842453571
30
0.0000000000
10
-37.4275746049
20
-24.3531517437
30
0.0000000000
10
-37.4275746049
20
-24.3199583638
30
0.0000000000
10
-37.4275746049
20
-24.2853409586
30
0.0000000000
10
-37.4275746049
20
-24.2618636092
30
0.0000000000
10
-37.4275746049
20
-24.2500042308
30
0.0000000000
11
-37.4275746049
21
-24.5000000000
31
0.0000000000
11
-37.4275746049
21
-24.4974554741
31
0.0000000000
11
-37.4275746049
21
-24.4898736417
31
0.0000000000
11
-37.4275746049
21
-24.4774087722
31
0.0000000000
11
-37.4275746049
21
-24.4603145581
31
0.0000000000
11
-37.4275746049
21
-24.4389389589
31
0.0000000000
11
-37.4275746049
21
-24.4137171191
31
0.0000000000
11
-37.4275746049
21
-24.3851625059
31
0.0000000000
11
-37.4275746049
21
-24.3538564463
31
0.0000000000
11
-37.4275746049
21
-24.3204362790
31
0.0000000000
11
-37.4275746049
21
-24.2855823661
31
0.0000000000
11
-37.4275746049
21
-24.2500042308
31
0.0000000000
0
SPLINE
5
39F
100
AcDbEntity
8
0
100
AcDbSpline
62
9
6
CONTINUOUS
70
0
71
3
72
17
73
13
74
11
42
0.0000001000
43
0.0000001000
44
0.0000000001
12
0.2500021233
22
0.0014544698
32
0.0000000000
13
-0.0014544206
23
0.2500021236
33
0.0000000000
40
0.0000000000
40
0.0000000000
40
0.0000000000
40
0.0000000000
40
0.0123012971
40
0.0489053223
40
0.1089287510
40
0.1909036767
40
0.2928069812
40
0.4121319346
40
0.5459387612
40
0.6909316736
40
0.8435388899
40
1.0000000000
40
1.0000000000
40
1.0000000000
40
1.0000000000
10
-36.6761201721
20
-24.4956281660
30
0.0000000000
10
-36.6750950553
20
-24.4956222020
30
0.0000000000
10
-36.6770903525
20
-24.4890938727
30
0.0000000000
10
-36.6749189278
20
-24.4823638307
30
0.0000000000
10
-36.6759491228
20
-24.4661696485
30
0.0000000000
10
-36.6753956226
20
-24.4464045626
30
0.0000000000
10
-36.6755563079
20
-24.4209283967
30
0.0000000000
10
-36.6755227391
20
-24.3914124050
30
0.0000000000
10
-36.6756190776
20
-24.3582119155
30
0.0000000000
10
-36.6757368231
20
-24.3222675116
30
0.0000000000
10
-36.6759065385
20
-24.2844264461
30
0.0000000000
10
-36.6760443187
20
-24.2586709334
30
0.0000000000
10
-36.6761201721
20
-24.2456323968
30
0.0000000000
11
-36.6761201721
21
-24.4956281660
31
0.0000000000
11
-36.6759109005
21
-24.4925598920
31
0.0000000000
11
-36.6757421736
21
-24.4834102087
31
0.0000000000
11
-36.6756185767
21
-24.4684044791
31
0.0000000000
11
-36.6755431492
21
-24.4479103656
31
0.0000000000
11
-36.6755177611
21
-24.4224339046
31
0.0000000000
11
-36.6755430380
21
-24.3926019187
31
0.0000000000
11
-36.6756183585
21
-24.3591494467
31
0.0000000000
11
-36.6757418683
21
-24.3229005077
31
0.0000000000
11
-36.6759105249
21
-24.2847481067
31
0.0000000000
11
-36.6761201721
21
-24.2456323968
31
0.0000000000
0
SPLINE
5
3A0
100
AcDbEntity
8
0
100
AcDbSpline
62
9
6
CONTINUOUS
70
0
71
3
72
17
73
13
74
11
42
0.0000001000
43
0.0000001000
44
0.0000000001
12
0.1246387852
22
0.2158880155
32
0.0000000000
13
-0.2158861888
23
0.1246419492
33
0.0000000000
40
0.0000000000
40
0.0000000000
40
0.0000000000
40
0.0000000000
40
0.1564349741
40
0.3090912049
40
0.4540928199
40
0.5878920034
40
0.7071946998
40
0.8090744096
40
0.8910306741
40
0.9510531999
40
0.9876708992
40
1.0000000000
40
1.0000000000
40
1.0000000000
40
1.0000000000
10
-36.6761201721
20
-23.8443375673
30
0.0000000000
10
-36.6696208837
20
-23.8330800886
30
0.0000000000
10
-36.6567885795
20
-23.8108322444
30
0.0000000000
10
-36.6379591078
20
-23.7781311728
30
0.0000000000
10
-36.6201062128
20
-23.7470485545
30
0.0000000000
10
-36.6036248633
20
-23.7183401772
30
0.0000000000
10
-36.5890741417
20
-23.6927633138
30
0.0000000000
10
-36.5763417879
20
-23.6707872489
30
0.0000000000
10
-36.5670568881
20
-23.6533996979
30
0.0000000000
10
-36.5581271071
20
-23.6399017248
30
0.0000000000
10
-36.5567062739
20
-23.6329884260
30
0.0000000000
10
-36.5516873774
20
-23.6283434574
30
0.0000000000
10
-36.5525746049
20
-23.6278312164
30
0.0000000000
11
-36.6761201721
21
-23.8443375673
31
0.0000000000
11
-36.6566356676
21
-23.8105574212
31
0.0000000000
11
-36.6376485883
21
-23.7775778202
31
0.0000000000
11
-36.6196410549
21
-23.7462361050
31
0.0000000000
11
-36.6030536842
21
-23.7172991519
31
0.0000000000
11
-36.5882948708
21
-23.6914794042
31
0.0000000000
11
-36.5757266775
21
-23.6694102704
31
0.0000000000
11
-36.5656576152
21
-23.6516334796
31
0.0000000000
11
-36.5583347577
21
-23.6385852371
31
0.0000000000
11
-36.5539378314
21
-23.6305857918
31
0.0000000000
11
-36.5525746049
21
-23.6278312164
31
0.0000000000
0
SPLINE
5
3A1
100
AcDbEntity
8
0
100
AcDbSpline
62
9
6
CONTINUOUS
70
0
71
3
72
17
73
13
74
11
42
0.0000001000
43
0.0000001000
44
0.0000000001
12
-0.2500021164
22
0.0014544698
32
0.0000000000
13
0.0014544205
23
0.2500021167
33
0.0000000000
40
0.0000000000
40
0.0000000000
40
0.0000000000
40
0.0000000000
40
0.0123444072
40
0.0489844925
40
0.1090363645
40
0.1910241595
40
0.2929301410
40
0.4122456507
40
0.5460331761
40
0.6909987802
40
0.8435732498
40
1.0000000000
40
1.0000000000
40
1.0000000000
40
1.0000000000
10
-39.6790290378
20
-24.4869014213
30
0.0000000000
10
-39.6800577471
20
-24.4868954364
30
0.0000000000
10
-39.6780575351
20
-24.4803555935
30
0.0000000000
10
-39.6802306594
20
-24.4736178544
30
0.0000000000
10
-39.6792003041
20
-24.4574175226
30
0.0000000000
10
-39.6797535714
20
-24.4376484136
30
0.0000000000
10
-39.6795929261
20
-24.4121719190
30
0.0000000000
10
-39.6796264099
20
-24.3826580291
30
0.0000000000
10
-39.6795300669
20
-24.3494622370
30
0.0000000000
10
-39.6794123183
20
-24.3135244391
30
0.0000000000
10
-39.6792426276
20
-24.2756912453
30
0.0000000000
10
-39.6791048745
20
-24.2499413250
30
0.0000000000
10
-39.6790290378
20
-24.2369056521
30
0.0000000000
11
-39.6790290378
21
-24.4869014213
31
0.0000000000
11
-39.6792386429
21
-24.4838223673
31
0.0000000000
11
-39.6794072757
21
-24.4746636657
31
0.0000000000
11
-39.6795307840
21
-24.4596508246
31
0.0000000000
11
-39.6796061267
21
-24.4391534939
31
0.0000000000
11
-39.6796314488
21
-24.4136763643
31
0.0000000000
11
-39.6796061267
21
-24.3838467403
31
0.0000000000
11
-39.6795307840
21
-24.3503990946
31
0.0000000000
11
-39.6794072757
21
-24.3141569839
31
0.0000000000
11
-39.6792386429
21
-24.2760127708
31
0.0000000000
11
-39.6790290378
21
-24.2369056521
31
0.0000000000
0
SPLINE
5
3A2
100
AcDbEntity
8
0
100
AcDbSpline
62
7
6
CONTINUOUS
70
0
71
3
72
11
73
7
74
5
42
0.0000001000
43
0.0000001000
44
0.0000000001
12
0.1240410600
22
-0.0065007165
32
0.0000000000
13
0.1240362377
23
-0.0065920877
33
0.0000000000
40
0.0000000000
40
0.0000000000
40
0.0000000000
40
0.0000000000
40
0.2344076742
40
0.4820697395
40
0.7387423774
40
1.0000000000
40
1.0000000000
40
1.0000000000
40
1.0000000000
10
-38.8031177469
20
-22.3279108386
30
0.0000000000
10
-38.7934256881
20
-22.3284187779
30
0.0000000000
10
-38.7734845551
20
-22.3292871906
30
0.0000000000
10
-38.7429208901
20
-22.3304701142
30
0.0000000000
10
-38.7112497687
20
-22.3317891021
30
0.0000000000
10
-38.6898308420
20
-22.3328368837
30
0.0000000000
10
-38.6790290378
20
-22.3334109614
30
0.0000000000
11
-38.8031177469
21
-22.3279108386
31
0.0000000000
11
-38.7740320450
21
-22.3292404994
31
0.0000000000
11
-38.7432942198
21
-22.3304704706
31
0.0000000000
11
-38.7114411303
21
-22.3318193863
31
0.0000000000
11
-38.6790290378
21
-22.3334109614
31
0.0000000000
0
SPLINE
5
3A3
100
AcDbEntity
8
0
100
AcDbSpline
62
7
6
CONTINUOUS
70
0
71
3
72
18
73
14
74
12
42
0.0000001000
43
0.0000001000
44
0.0000000001
12
-0.2489103781
22
0.1437121219
32
0.0000000000
13
-0.2428239465
23
0.1538435530
33
0.0000000000
40
0.0000000000
40
0.0000000000
40
0.0000000000
40
0.0000000000
40
0.1307874416
40
0.2611434307
40
0.3887126772
40
0.5110248916
40
0.6255186635
40
0.7295592100
40
0.8204622685
40
0.8955302131
40
0.9521106755
40
0.9876881245
40
1.0000000000
40
1.0000000000
40
1.0000000000
40
1.0000000000
10
-38.6790290378
20
-23.2669872981
30
0.0000000000
10
-38.6898804883
20
-23.2607220512
30
0.0000000000
10
-38.7115455471
20
-23.2482086843
30
0.0000000000
10
-38.7437878096
20
-23.2295717152
30
0.0000000000
10
-38.7753205197
20
-23.2113297453
30
0.0000000000
10
-38.8055309176
20
-23.1938368810
30
0.0000000000
10
-38.8337826304
20
-23.1774599424
30
0.0000000000
10
-38.8594235419
20
-23.1625792997
30
0.0000000000
10
-38.8817846204
20
-23.1495727161
30
0.0000000000
10
-38.9002129802
20
-23.1388475725
30
0.0000000000
10
-38.9140241774
20
-23.1307289159
30
0.0000000000
10
-38.9226781005
20
-23.1256978284
30
0.0000000000
10
-38.9265780655
20
-23.1232810984
30
0.0000000000
10
-38.9275746049
20
-23.1226497308
30
0.0000000000
11
-38.6790290378
21
-23.2669872981
31
0.0000000000
11
-38.7115802909
21
-23.2481861919
31
0.0000000000
11
-38.7440178222
21
-23.2294361375
31
0.0000000000
11
-38.7757552514
21
-23.2110754134
31
0.0000000000
11
-38.8061776782
21
-23.1934590071
31
0.0000000000
11
-38.8346476326
21
-23.1769551973
31
0.0000000000
11
-38.8605095028
21
-23.1619430222
31
0.0000000000
11
-38.8830954952
21
-23.1488088720
31
0.0000000000
11
-38.9017346382
21
-23.1379413340
31
0.0000000000
11
-38.9157673818
21
-23.1297228132
31
0.0000000000
11
-38.9245683500
21
-23.1245164325
31
0.0000000000
11
-38.9275746049
21
-23.1226497308
31
0.0000000000
0
SPLINE
5
3A4
100
AcDbEntity
8
0
100
AcDbSpline
62
9
6
CONTINUOUS
70
0
71
3
72
18
73
14
74
12
42
0.0000001000
43
0.0000001000
44
0.0000000001
12
0.1009276906
22
-0.4343662729
32
0.0000000000
13
-0.0000045187
23
-0.0000016317
33
0.0000000000
40
0.0000000000
40
0.0000000000
40
0.0000000000
40
0.0000000000
40
0.1429009131
40
0.2827837740
40
0.4167919553
40
0.5421520495
40
0.6563258503
40
0.7570127598
40
0.8422076722
40
0.9102377058
40
0.9597860228
40
0.9898984054
40
1.0000000000
40
1.0000000000
40
1.0000000000
40
1.0000000000
10
-26.7258292869
20
19.0274741148
30
0.0000000000
10
-26.7210217339
20
19.0067836691
30
0.0000000000
10
-26.7115107790
20
18.9658389259
30
0.0000000000
10
-26.6974897029
20
18.9054929101
30
0.0000000000
10
-26.6840651791
20
18.8476807891
30
0.0000000000
10
-26.6715076459
20
18.7936051754
30
0.0000000000
10
-26.6600629628
20
18.7443083245
30
0.0000000000
10
-26.6500022446
20
18.7009680626
30
0.0000000000
10
-26.6413974286
20
18.6638934636
30
0.0000000000
10
-26.6347743045
20
18.6353539368
30
0.0000000000
10
-26.6293695510
20
18.6120611042
30
0.0000000000
10
-26.6271427245
20
18.6024638018
30
0.0000000000
10
-26.6249685464
20
18.5930922835
30
0.0000000000
10
-26.6249685616
20
18.5930922780
30
0.0000000000
11
-26.7258292869
21
19.0274741148
31
0.0000000000
11
-26.7114087552
21
18.9654022834
31
0.0000000000
11
-26.6972932338
21
18.9046412981
31
0.0000000000
11
-26.6837748648
21
18.8464310918
31
0.0000000000
11
-26.6711301785
21
18.7919771253
31
0.0000000000
11
-26.6596159194
21
18.7423817776
31
0.0000000000
11
-26.6494631999
21
18.6986446020
31
0.0000000000
11
-26.6408738164
21
18.6616366824
31
0.0000000000
11
-26.6340158569
21
18.6320848367
31
0.0000000000
11
-26.6290215522
21
18.6105612113
31
0.0000000000
11
-26.6259865970
21
18.5974804286
31
0.0000000000
11
-26.6249685616
21
18.5930922780
31
0.0000000000
0
SPLINE
5
3A5
100
AcDbEntity
8
0
100
AcDbSpline
62
7
6
CONTINUOUS
70
0
71
3
72
18
73
14
74
12
42
0.0000001000
43
0.0000001000
44
0.0000000001
12
0.2428384228
22
-0.1538204419
32
0.0000000000
13
0.2489103762
23
-0.1437121207
33
0.0000000000
40
0.0000000000
40
0.0000000000
40
0.0000000000
40
0.0000000000
40
0.0123761700
40
0.0480657717
40
0.1047134009
40
0.1797548254
40
0.2705332114
40
0.3743809030
40
0.4886669468
40
0.6108219308
40
0.7383513333
40
0.8688464797
40
1.0000000000
40
1.0000000000
40
1.0000000000
40
1.0000000000
10
-39.9275746049
20
-23.7000000000
30
0.0000000000
10
-39.9265728017
20
-23.7006345693
30
0.0000000000
10
-39.9226582627
20
-23.7030598736
30
0.0000000000
10
-39.9139841896
20
-23.7081027286
30
0.0000000000
10
-39.9001602312
20
-23.7162285714
30
0.0000000000
10
-39.8817388256
20
-23.7269496544
30
0.0000000000
10
-39.8594062084
20
-23.7399396131
30
0.0000000000
10
-39.8338088285
20
-23.7547950079
30
0.0000000000
10
-39.8056033655
20
-23.7711451694
30
0.0000000000
10
-39.7754265546
20
-23.7886186420
30
0.0000000000
10
-39.7438986737
20
-23.8068578782
30
0.0000000000
10
-39.7116178303
20
-23.8255171975
30
0.0000000000
10
-39.6899108618
20
-23.8380547838
30
0.0000000000
10
-39.6790290378
20
-23.8443375673
30
0.0000000000
11
-39.9275746049
21
-23.7000000000
31
0.0000000000
11
-39.9245524935
21
-23.7018761963
31
0.0000000000
11
-39.9157236607
21
-23.7070987849
31
0.0000000000
11
-39.9016741766
21
-23.7153269215
31
0.0000000000
11
-39.8830415697
21
-23.7261905362
31
0.0000000000
11
-39.8604865325
21
-23.7393066360
31
0.0000000000
11
-39.8346726011
21
-23.7542909833
31
0.0000000000
11
-39.8062543155
21
-23.7707648756
31
0.0000000000
11
-39.7758710205
21
-23.7883586777
31
0.0000000000
11
-39.7441435307
21
-23.8067137129
31
0.0000000000
11
-39.7116713940
21
-23.8254838211
31
0.0000000000
11
-39.6790290378
21
-23.8443375673
31
0.0000000000
0
SPLINE
5
3A6
100
AcDbEntity
8
0
100
AcDbSpline
62
7
6
CONTINUOUS
70
0
71
3
72
15
73
11
74
9
42
0.0000001000
43
0.0000001000
44
0.0000000001
12
0.4460825886
22
0.0077864005
32
0.0000000000
13
0.2737425829
23
0.3523000174
33
0.0000000000
40
0.0000000000
40
0.0000000000
40
0.0000000000
40
0.0000000000
40
0.1126877649
40
0.2268814946
40
0.3428516030
40
0.4627373783
40
0.5873866902
40
0.7180154456
40
0.8553475907
40
1.0000000000
40
1.0000000000
40
1.0000000000
40
1.0000000000
10
-26.9188484017
20
21.5659754333
30
0.0000000000
10
-26.9020923851
20
21.5662679106
30
0.0000000000
10
-26.8683616376
20
21.5685561308
30
0.0000000000
10
-26.8180173778
20
21.5771477205
30
0.0000000000
10
-26.7677789016
20
21.5911458853
30
0.0000000000
10
-26.7178362178
20
21.6109215914
30
0.0000000000
10
-26.6684064237
20
21.6370442064
30
0.0000000000
10
-26.6201105430
20
21.6700950886
30
0.0000000000
10
-26.5738572381
20
21.7106396540
30
0.0000000000
10
-26.5459518685
20
21.7421295109
30
0.0000000000
10
-26.5327526938
20
21.7591165263
30
0.0000000000
11
-26.9188484017
21
21.5659754333
31
0.0000000000
11
-26.8686880355
21
21.5693790175
31
0.0000000000
11
-26.8184664122
21
21.5779490761
31
0.0000000000
11
-26.7686250073
21
21.5918370218
31
0.0000000000
11
-26.7188946344
21
21.6115286503
31
0.0000000000
11
-26.6697263833
21
21.6375135964
31
0.0000000000
11
-26.6216301417
21
21.6704274293
31
0.0000000000
11
-26.5755565305
21
21.7108172125
31
0.0000000000
11
-26.5327526938
21
21.7591165263
31
0.0000000000
0
ENDSEC
0
SECTION
2
OBJECTS
0
DICTIONARY
5
3A7
100
AcDbDictionary
3
ACAD_GROUP
350
3A8
3
ACAD_MLINESTYLE
350
3A9
0
DICTIONARY
5
3A8
102
{ACAD_REACTORS
330
3A7
102
}
100
AcDbDictionary
0
DICTIONARY
5
3A9
102
{ACAD_REACTORS
330
3A7
102
}
100
AcDbDictionary
3
STANDARD
350
3AA
0
MLINESTYLE
5
3AA
102
{ACAD_REACTORS
330
3A9
102
}
100
AcDbMlineStyle
2
STANDARD
70
0
3

62
256
51
90.0
52
90.0
71
2
49
0.5
62
256
6
BYLAYER
49
-0.5
62
256
6
BYLAYER
0
ENDSEC
0
EOF
