  0
SECTION
  2
HEADER
  9
$ACADVER
  1
AC1015
  9
$DWGCODEPAGE
  3
ANSI_1252
  9
$EXTMAX
 10
297.0
 20
210.0
 30
0.0
  9
$EXTMIN
 10
0.0
 20
0.0
 30
0.0
  9
$LIMMIN
 10
0.0
 20
0.0
  9
$LIMMAX
 10
297.0
 20
210.0
  9
$VIEWCTR
 10
148.5
 20
105.0
  9
$VIEWSIZE
 40
210.0
  9
$CLAYER
  8
0
  9
$LTSCALE
 40
16.335
  9
$CELTYPE
  6
BYLAYER
  9
$DIMSCALE
 40
1.0
  9
$DIMASZ
 40
3.0
  9
$DIMEXO
 40
1.85625
  9
$DIMDLI
 40
11.286
  9
$DIMEXE
 40
5.346
  9
$DIMCEN
 40
2.673
  9
$DIMLFAC
 40
1.0
  9
$DIMBLK
  1
_FILLED
  9
$DIMTXT
 40
3.0
  9
$DIMTOL
 70
1
  9
$DIMLIM
 70
0
  9
$DIMTFAC
 40
1.0
  9
$DIMTP
 40
0.01
  9
$DIMTM
 40
0.01
  9
$PDMODE
 70
3
  9
$PDSIZE
 40
3.0
  9
$HANDSEED
  5
5C3
  9
$TILEMODE
 70
1
  9
$MEASUREMENT
 70
1
  9
$INSUNITS
 70
4
  0
ENDSEC
  0
SECTION
  2
CLASSES
  0
CLASS
  1
ACDBDICTIONARYWDFLT
  2
AcDbDictionaryWithDefault
  3
AutoCAD 2000
 90
0
280
0
281
0
  0
CLASS
  1
ACDBPLACEHOLDER
  2
AcDbPlaceHolder
  3
AutoCAD 2000
 90
0
280
0
281
0
  0
CLASS
  1
LAYOUT
  2
AcDbLayout
  3
AutoCAD 2000
 90
0
280
0
281
0
  0
ENDSEC
  0
SECTION
  2
TABLES
  0
TABLE
  2
VPORT
  5
8
100
AcDbSymbolTable
 70
2
  0
VPORT
  5
1F4
100
AcDbSymbolTableRecord
100
AcDbViewportTableRecord
  2
*ACTIVE
 70
0
 10
0.0
 20
0.0
 11
1.0
 21
1.0
 12
148.5
 22
105.0
 13
0.0
 23
0.0
 14
1.0
 24
1.0
 15
0.0
 25
0.0
 16
0.0
 26
0.0
 36
1.0
 17
0.0
 27
0.0
 37
0.0
 40
210.0
 41
1.4142857143
 42
50.0
 43
0.0
 44
0.0
 50
0.0
 51
0.0
 71
0
 72
100
 73
1
 74
1
 75
0
 76
0
 77
0
 78
0
  0
ENDTAB
  0
TABLE
  2
LTYPE
  5
5
100
AcDbSymbolTable
 70
6
  0
LTYPE
  5
14
100
AcDbSymbolTableRecord
100
AcDbLinetypeTableRecord
  2
BYBLOCK
 70
0
  3

 72
65
 73
0
 40
0.0
  0
LTYPE
  5
15
100
AcDbSymbolTableRecord
100
AcDbLinetypeTableRecord
  2
BYLAYER
 70
0
  3

 72
65
 73
0
 40
0.0
  0
LTYPE
  5
16
100
AcDbSymbolTableRecord
100
AcDbLinetypeTableRecord
  2
CONTINUOUS
 70
64
  3
Solid line
 72
65
 73
0
 40
0.0
  0
LTYPE
  5
1F5
100
AcDbSymbolTableRecord
100
AcDbLinetypeTableRecord
  2
CENTER
 70
64
  3
____ _ ____ _ ____ _ ____ _ ____ _ ____ _ ____
 72
65
 73
4
 40
0.6
 49
0.375
 74
0
 49
-0.075
 74
0
 49
0.075
 74
0
 49
-0.075
 74
0
  0
LTYPE
  5
1F6
100
AcDbSymbolTableRecord
100
AcDbLinetypeTableRecord
  2
HIDDEN
 70
64
  3
- - - - - - - - - - - - - - - - - - - -
 72
65
 73
2
 40
0.2
 49
0.1
 74
0
 49
-0.1
 74
0
  0
LTYPE
  5
1F7
100
AcDbSymbolTableRecord
100
AcDbLinetypeTableRecord
  2
PHANTOM
 70
64
  3
_____ _ _ _____ _ _ _____ _ _ _____
 72
65
 73
6
 40
0.8
 49
0.45
 74
0
 49
-0.05
 74
0
 49
0.1
 74
0
 49
-0.05
 74
0
 49
0.1
 74
0
 49
-0.05
 74
0
  0
LTYPE
  5
1F8
100
AcDbSymbolTableRecord
100
AcDbLinetypeTableRecord
  2
DOT
 70
64
  3
. . . . . . . . . . . . . . . . . . . .
 72
65
 73
2
 40
0.2
 49
0.1
 74
0
 49
-0.1
 74
0
  0
LTYPE
  5
1F9
100
AcDbSymbolTableRecord
100
AcDbLinetypeTableRecord
  2
DASHED
 70
64
  3
- - - - - - - - - - - - - - - - - - - -
 72
65
 73
2
 40
0.2
 49
0.1
 74
0
 49
-0.1
 74
0
  0
ENDTAB
  0
TABLE
  2
LAYER
  5
2
100
AcDbSymbolTable
 70
36
  0
LAYER
  5
10
100
AcDbSymbolTableRecord
100
AcDbLayerTableRecord
  2
0
 70
0
 62
7
  6
CONTINUOUS
370
-3
390
F
  0
LAYER
  5
1FA
100
AcDbSymbolTableRecord
100
AcDbLayerTableRecord
  2
DEFAULT_1
 70
0
 62
7
  6
CENTER
370
-3
390
F
  0
LAYER
  5
1FB
100
AcDbSymbolTableRecord
100
AcDbLayerTableRecord
  2
DEFAULT_2
 70
0
 62
7
  6
HIDDEN
370
-3
390
F
  0
LAYER
  5
1FC
100
AcDbSymbolTableRecord
100
AcDbLayerTableRecord
  2
DEFAULT_3
 70
0
 62
7
  6
PHANTOM
370
-3
390
F
  0
LAYER
  5
1FD
100
AcDbSymbolTableRecord
100
AcDbLayerTableRecord
  2
ASSI
 70
0
 62
7
  6
CONTINUOUS
370
-3
390
F
  0
LAYER
  5
1FE
100
AcDbSymbolTableRecord
100
AcDbLayerTableRecord
  2
COLOR5
 70
0
 62
7
  6
CONTINUOUS
370
-3
390
F
  0
LAYER
  5
1FF
100
AcDbSymbolTableRecord
100
AcDbLayerTableRecord
  2
COORDINATE
 70
0
 62
7
  6
CONTINUOUS
370
-3
390
F
  0
LAYER
  5
200
100
AcDbSymbolTableRecord
100
AcDbLayerTableRecord
  2
COORD_ORIGINE
 70
0
 62
7
  6
CONTINUOUS
370
-3
390
F
  0
LAYER
  5
201
100
AcDbSymbolTableRecord
100
AcDbLayerTableRecord
  2
COPY_PUBLISH
 70
0
 62
7
  6
CONTINUOUS
370
-3
390
F
  0
LAYER
  5
202
100
AcDbSymbolTableRecord
100
AcDbLayerTableRecord
  2
COSMETIC
 70
0
 62
7
  6
CONTINUOUS
370
-3
390
F
  0
LAYER
  5
203
100
AcDbSymbolTableRecord
100
AcDbLayerTableRecord
  2
COSMETICHE
 70
0
 62
7
  6
CONTINUOUS
370
-3
390
F
  0
LAYER
  5
204
100
AcDbSymbolTableRecord
100
AcDbLayerTableRecord
  2
CURVE
 70
0
 62
7
  6
CONTINUOUS
370
-3
390
F
  0
LAYER
  5
205
100
AcDbSymbolTableRecord
100
AcDbLayerTableRecord
  2
DRAFT
 70
0
 62
7
  6
CONTINUOUS
370
-3
390
F
  0
LAYER
  5
206
100
AcDbSymbolTableRecord
100
AcDbLayerTableRecord
  2
IMPORT_IGES
 70
0
 62
7
  6
CONTINUOUS
370
-3
390
F
  0
LAYER
  5
207
100
AcDbSymbolTableRecord
100
AcDbLayerTableRecord
  2
INTFCLR_17
 70
0
 62
7
  6
CONTINUOUS
370
-3
390
F
  0
LAYER
  5
208
100
AcDbSymbolTableRecord
100
AcDbLayerTableRecord
  2
INTFCLR_3
 70
0
 62
7
  6
CONTINUOUS
370
-3
390
F
  0
LAYER
  5
209
100
AcDbSymbolTableRecord
100
AcDbLayerTableRecord
  2
INTF_1
 70
0
 62
7
  6
CONTINUOUS
370
-3
390
F
  0
LAYER
  5
20A
100
AcDbSymbolTableRecord
100
AcDbLayerTableRecord
  2
INTF_2
 70
0
 62
7
  6
CONTINUOUS
370
-3
390
F
  0
LAYER
  5
20B
100
AcDbSymbolTableRecord
100
AcDbLayerTableRecord
  2
INTF_8
 70
0
 62
7
  6
CONTINUOUS
370
-3
390
F
  0
LAYER
  5
20C
100
AcDbSymbolTableRecord
100
AcDbLayerTableRecord
  2
NOTE
 70
0
 62
7
  6
CONTINUOUS
370
-3
390
F
  0
LAYER
  5
20D
100
AcDbSymbolTableRecord
100
AcDbLayerTableRecord
  2
PIANI
 70
0
 62
7
  6
CONTINUOUS
370
-3
390
F
  0
LAYER
  5
20E
100
AcDbSymbolTableRecord
100
AcDbLayerTableRecord
  2
PIANI_ORIGINE
 70
0
 62
7
  6
CONTINUOUS
370
-3
390
F
  0
LAYER
  5
20F
100
AcDbSymbolTableRecord
100
AcDbLayerTableRecord
  2
PUNTI
 70
0
 62
7
  6
CONTINUOUS
370
-3
390
F
  0
LAYER
  5
210
100
AcDbSymbolTableRecord
100
AcDbLayerTableRecord
  2
RACCORDO
 70
0
 62
7
  6
CONTINUOUS
370
-3
390
F
  0
LAYER
  5
211
100
AcDbSymbolTableRecord
100
AcDbLayerTableRecord
  2
SMUSSO
 70
0
 62
7
  6
CONTINUOUS
370
-3
390
F
  0
LAYER
  5
212
100
AcDbSymbolTableRecord
100
AcDbLayerTableRecord
  2
SNAPLINE
 70
0
 62
7
  6
CONTINUOUS
370
-3
390
F
  0
LAYER
  5
213
100
AcDbSymbolTableRecord
100
AcDbLayerTableRecord
  2
SUPERFICI
 70
0
 62
7
  6
CONTINUOUS
370
-3
390
F
  0
LAYER
  5
214
100
AcDbSymbolTableRecord
100
AcDbLayerTableRecord
  2
TRASH
 70
0
 62
7
  6
CONTINUOUS
370
-3
390
F
  0
LAYER
  5
215
100
AcDbSymbolTableRecord
100
AcDbLayerTableRecord
  2
XSEC_DATUMS
 70
0
 62
7
  6
CONTINUOUS
370
-3
390
F
  0
ENDTAB
  0
TABLE
  2
STYLE
  5
3
100
AcDbSymbolTable
 70
1
  0
STYLE
  5
11
100
AcDbSymbolTableRecord
100
AcDbTextStyleTableRecord
  2
STANDARD
 70
0
 40
0.0
 41
0.8
 50
0.0
 71
0
 42
0.2
  3
txt
  4

  0
STYLE
  5
216
100
AcDbSymbolTableRecord
100
AcDbTextStyleTableRecord
  2
TEXTSTYLE_1
 70
0
 40
0.0
 41
0.8
 50
0.0
 71
0
 42
0.2
  3
gdt
  4

  0
ENDTAB
  0
TABLE
  2
VIEW
  5
6
100
AcDbSymbolTable
 70
0
  0
ENDTAB
  0
TABLE
  2
UCS
  5
7
100
AcDbSymbolTable
 70
0
  0
ENDTAB
  0
TABLE
  2
APPID
  5
9
100
AcDbSymbolTable
 70
1
  0
APPID
  5
217
100
AcDbSymbolTableRecord
100
AcDbRegAppTableRecord
  2
ACAD
 70
0
  0
ENDTAB
  0
TABLE
  2
BLOCK_RECORD
  5
1
100
AcDbSymbolTable
 70
0
  0
BLOCK_RECORD
  5
218
100
AcDbSymbolTableRecord
100
AcDbBlockTableRecord
  2
*Model_Space
  0
BLOCK_RECORD
  5
219
100
AcDbSymbolTableRecord
100
AcDbBlockTableRecord
  2
*Paper_Space
  0
BLOCK_RECORD
  5
21A
100
AcDbSymbolTableRecord
100
AcDbBlockTableRecord
  2
_FILLED
  0
BLOCK_RECORD
  5
21B
100
AcDbSymbolTableRecord
100
AcDbBlockTableRecord
  2
*D0
  0
BLOCK_RECORD
  5
21C
100
AcDbSymbolTableRecord
100
AcDbBlockTableRecord
  2
*D1
  0
BLOCK_RECORD
  5
21D
100
AcDbSymbolTableRecord
100
AcDbBlockTableRecord
  2
*D2
  0
BLOCK_RECORD
  5
21E
100
AcDbSymbolTableRecord
100
AcDbBlockTableRecord
  2
*D3
  0
ENDTAB
  0
TABLE
  2
DIMSTYLE
  5
A
100
AcDbSymbolTable
 70
1
100
AcDbDimStyleTable
 71
0
  0
DIMSTYLE
105
21F
100
AcDbSymbolTableRecord
100
AcDbDimStyleTableRecord
  2
STANDARD
 70
0
  3

  4

 40
1.0
 41
3.0
 42
0.0625
 43
0.38
 44
0.18
 45
0.0
 46
0.0
 47
0.01
 48
0.01
140
3.0
141
0.09
142
0.0
143
25.4
144
1.0
145
0.0
146
1.0
147
0.09
 71
1.0
 72
0.0
 73
0
 74
0
 75
0
 76
0
 77
1
 78
8
170
0
171
2
172
0
173
0
174
0
175
0
176
0
177
0
178
0
270
2
271
2
272
2
273
2
274
2
275
0
280
0
281
0
282
0
283
1
284
8
285
0
286
0
287
3
288
0
340
11
341
21A
342
21A
343
21A
344
21A
  0
DIMSTYLE
105
220
100
AcDbSymbolTableRecord
100
AcDbDimStyleTableRecord
  2
DIMSTYLE_1
 70
0
  3

  4

 40
1.0
 41
3.0
 42
0.0625
 43
0.38
 44
0.18
 45
0.0
 46
0.0
 47
0.0
 48
0.0
140
3.0
141
0.09
142
0.0
143
25.4
144
1.0
145
0.0
146
1.0
147
0.09
 71
0.0
 72
0.0
 73
0
 74
0
 75
0
 76
0
 77
1
 78
8
170
0
171
2
172
0
173
0
174
0
175
0
176
0
177
0
178
0
270
2
271
2
272
2
273
2
274
2
275
0
280
0
281
0
282
0
283
1
284
8
285
0
286
0
287
3
288
0
340
11
341
21A
342
21A
343
21A
344
21A
  0
DIMSTYLE
105
221
100
AcDbSymbolTableRecord
100
AcDbDimStyleTableRecord
  2
DIMSTYLE_2
 70
0
  3

  4

 40
1.0
 41
3.0
 42
0.0625
 43
0.38
 44
0.18
 45
0.0
 46
0.0
 47
0.0
 48
0.0
140
3.0
141
0.09
142
0.0
143
25.4
144
1.0
145
0.0
146
1.0
147
0.09
 71
0.0
 72
0.0
 73
0
 74
0
 75
0
 76
0
 77
1
 78
8
170
0
171
2
172
0
173
0
174
0
175
0
176
0
177
0
178
0
270
2
271
1
272
1
273
2
274
2
275
0
280
0
281
0
282
0
283
1
284
8
285
0
286
0
287
3
288
0
340
11
341
21A
342
21A
343
21A
344
21A
  0
ENDTAB
  0
ENDSEC
  0
SECTION
  2
BLOCKS
  0
BLOCK
  5
20
100
AcDbEntity
  8
0
100
AcDbBlockBegin
  2
*Model_Space
 70
0
 10
0.0
 20
0.0
 30
0.0
  3
*Model_Space
  1

  0
ENDBLK
  5
21
100
AcDbEntity
  8
0
100
AcDbBlockEnd
  0
BLOCK
  5
1C
100
AcDbEntity
  8
0
100
AcDbBlockBegin
  2
*Paper_Space
 70
0
 10
0.0
 20
0.0
 30
0.0
  3
*Paper_Space
  1

  0
ENDBLK
  5
1D
100
AcDbEntity
  8
0
100
AcDbBlockEnd
  0
BLOCK
  5
222
100
AcDbEntity
  8
0
100
AcDbBlockBegin
  2
_FILLED
 70
64
 10
0.0
 20
0.0
  3
_FILLED
  1

  0
SOLID
  5
223
100
AcDbEntity
  8
0
  6
BYBLOCK
 62
0
100
AcDbTrace
 10
0.0
 20
0.0
 11
-1.0
 21
0.3166666667
 12
-1.0
 22
-0.3166666667
 13
-1.0
 23
-0.3166666667
  0
ENDBLK
  5
224
100
AcDbEntity
  8
0
  6
BYBLOCK
 62
0
100
AcDbBlockEnd
  0
BLOCK
  5
225
100
AcDbEntity
  8
0
100
AcDbBlockBegin
 62
7
  6
CONTINUOUS
  2
*D0
 70
65
 10
0.0
 20
0.0
  3
*D0
  1

  0
MTEXT
  5
226
100
AcDbEntity
  8
0
100
AcDbMText
 62
7
  6
CONTINUOUS
  7
STANDARD
 71
2
 72
1
 10
-0.0
 20
59.251369526
 30
0.0
 11
1.0
 21
0.0
 31
0.0
 44
0.9
  1
95
 40
3.0
 41
4.5
  0
LINE
  5
227
100
AcDbEntity
  8
0
100
AcDbLine
 62
7
  6
CONTINUOUS
 10
-47.5
 20
46.0041104565
 11
-47.5
 21
57.001369526
  0
LINE
  5
228
100
AcDbEntity
  8
0
100
AcDbLine
 62
7
  6
CONTINUOUS
 10
47.5
 20
46.0041104565
 11
47.5
 21
57.001369526
  0
LINE
  5
229
100
AcDbEntity
  8
0
100
AcDbLine
 62
7
  6
CONTINUOUS
 10
-47.5
 20
55.501369526
 11
-0.0
 21
55.501369526
  0
LINE
  5
22A
100
AcDbEntity
  8
0
100
AcDbLine
 62
7
  6
CONTINUOUS
 10
47.5
 20
55.501369526
 11
-0.0
 21
55.501369526
  0
INSERT
  5
22B
100
AcDbEntity
  8
0
100
AcDbBlockReference
 62
7
  6
CONTINUOUS
  2
_FILLED
 10
-47.5
 20
55.501369526
 41
3.0
 42
3.0
 43
3.0
 50
180.0
  0
INSERT
  5
22C
100
AcDbEntity
  8
0
100
AcDbBlockReference
 62
7
  6
CONTINUOUS
  2
_FILLED
 10
47.5
 20
55.501369526
 41
3.0
 42
3.0
 43
3.0
 50
0.0
  0
ENDBLK
  5
22D
100
AcDbEntity
  8
0
  6
BYBLOCK
 62
0
100
AcDbBlockEnd
  0
BLOCK
  5
22E
100
AcDbEntity
  8
0
100
AcDbBlockBegin
 62
7
  6
CONTINUOUS
  2
*D1
 70
65
 10
0.0
 20
0.0
  3
*D1
  1

  0
MTEXT
  5
22F
100
AcDbEntity
  8
0
100
AcDbMText
 62
7
  6
CONTINUOUS
  7
STANDARD
 71
2
 72
1
 10
51.75
 20
0.001369526
 30
0.0
 11
0.0
 21
1.0
 31
0.0
 44
0.9
  1
95
 40
3.0
 41
4.5
  0
LINE
  5
230
100
AcDbEntity
  8
0
100
AcDbLine
 62
7
  6
CONTINUOUS
 10
46.0027409305
 20
47.501369526
 11
57.0
 21
47.501369526
  0
LINE
  5
231
100
AcDbEntity
  8
0
100
AcDbLine
 62
7
  6
CONTINUOUS
 10
46.0027409305
 20
-47.498630474
 11
57.0
 21
-47.498630474
  0
LINE
  5
232
100
AcDbEntity
  8
0
100
AcDbLine
 62
7
  6
CONTINUOUS
 10
55.5
 20
47.501369526
 11
55.5
 21
0.001369526
  0
LINE
  5
233
100
AcDbEntity
  8
0
100
AcDbLine
 62
7
  6
CONTINUOUS
 10
55.5
 20
-47.498630474
 11
55.5
 21
0.001369526
  0
INSERT
  5
234
100
AcDbEntity
  8
0
100
AcDbBlockReference
 62
7
  6
CONTINUOUS
  2
_FILLED
 10
55.5
 20
47.501369526
 41
3.0
 42
3.0
 43
3.0
 50
90.0
  0
INSERT
  5
235
100
AcDbEntity
  8
0
100
AcDbBlockReference
 62
7
  6
CONTINUOUS
  2
_FILLED
 10
55.5
 20
-47.498630474
 41
3.0
 42
3.0
 43
3.0
 50
270.0
  0
ENDBLK
  5
236
100
AcDbEntity
  8
0
  6
BYBLOCK
 62
0
100
AcDbBlockEnd
  0
BLOCK
  5
237
100
AcDbEntity
  8
0
100
AcDbBlockBegin
 62
7
  6
CONTINUOUS
  2
*D2
 70
65
 10
0.0
 20
0.0
  3
*D2
  1

  0
MTEXT
  5
238
100
AcDbEntity
  8
0
100
AcDbMText
 62
7
  6
CONTINUOUS
  7
STANDARD
 71
2
 72
1
 10
-75.307112358
 20
59.251369526
 30
0.0
 11
1.0
 21
0.0
 31
0.0
 44
0.9
  1
20
 40
3.0
 41
4.7142857143
  0
LINE
  5
239
100
AcDbEntity
  8
0
100
AcDbLine
 62
7
  6
CONTINUOUS
 10
-85.307112358
 20
46.0041104565
 11
-85.307112358
 21
57.001369526
  0
LINE
  5
23A
100
AcDbEntity
  8
0
100
AcDbLine
 62
7
  6
CONTINUOUS
 10
-65.307112358
 20
7.7339144495
 11
-65.307112358
 21
57.001369526
  0
LINE
  5
23B
100
AcDbEntity
  8
0
100
AcDbLine
 62
7
  6
CONTINUOUS
 10
-85.307112358
 20
55.501369526
 11
-75.307112358
 21
55.501369526
  0
LINE
  5
23C
100
AcDbEntity
  8
0
100
AcDbLine
 62
7
  6
CONTINUOUS
 10
-65.307112358
 20
55.501369526
 11
-75.307112358
 21
55.501369526
  0
INSERT
  5
23D
100
AcDbEntity
  8
0
100
AcDbBlockReference
 62
7
  6
CONTINUOUS
  2
_FILLED
 10
-85.307112358
 20
55.501369526
 41
3.0
 42
3.0
 43
3.0
 50
180.0
  0
INSERT
  5
23E
100
AcDbEntity
  8
0
100
AcDbBlockReference
 62
7
  6
CONTINUOUS
  2
_FILLED
 10
-65.307112358
 20
55.501369526
 41
3.0
 42
3.0
 43
3.0
  0
ENDBLK
  5
23F
100
AcDbEntity
  8
0
  6
BYBLOCK
 62
0
100
AcDbBlockEnd
  0
BLOCK
  5
240
100
AcDbEntity
  8
0
100
AcDbBlockBegin
 62
7
  6
CONTINUOUS
  2
*D3
 70
65
 10
0.0
 20
0.0
  3
*D3
  1

  0
MTEXT
  5
241
100
AcDbEntity
  8
0
100
AcDbMText
 62
7
  6
CONTINUOUS
  7
STANDARD
 71
2
 72
1
 10
-98.8033473793
 20
59.251369526
 30
0.0
 11
1.0
 21
0.0
 31
0.0
 44
0.9
  1
27
 40
3.0
 41
4.7142857143
  0
LINE
  5
242
100
AcDbEntity
  8
0
100
AcDbLine
 62
7
  6
CONTINUOUS
 10
-85.307112358
 20
-45.0013714045
 11
-85.307112358
 21
57.001369526
  0
LINE
  5
243
100
AcDbEntity
  8
0
100
AcDbLine
 62
7
  6
CONTINUOUS
 10
-112.2995824005
 20
-44.628541997
 11
-112.2995824005
 21
57.001369526
  0
LINE
  5
244
100
AcDbEntity
  8
0
100
AcDbLine
 62
7
  6
CONTINUOUS
 10
-85.307112358
 20
55.501369526
 11
-98.8033473793
 21
55.501369526
  0
LINE
  5
245
100
AcDbEntity
  8
0
100
AcDbLine
 62
7
  6
CONTINUOUS
 10
-112.2995824005
 20
55.501369526
 11
-98.8033473793
 21
55.501369526
  0
INSERT
  5
246
100
AcDbEntity
  8
0
100
AcDbBlockReference
 62
7
  6
CONTINUOUS
  2
_FILLED
 10
-85.307112358
 20
55.501369526
 41
3.0
 42
3.0
 43
3.0
  0
INSERT
  5
247
100
AcDbEntity
  8
0
100
AcDbBlockReference
 62
7
  6
CONTINUOUS
  2
_FILLED
 10
-112.2995824005
 20
55.501369526
 41
3.0
 42
3.0
 43
3.0
 50
180.0
  0
ENDBLK
  5
248
100
AcDbEntity
  8
0
  6
BYBLOCK
 62
0
100
AcDbBlockEnd
  0
ENDSEC
  0
SECTION
  2
ENTITIES
  0
DIMENSION
  5
249
100
AcDbEntity
  8
0
100
AcDbDimension
 62
7
  6
CONTINUOUS
  2
*D0
 10
47.5
 20
55.501369526
 11
-2.25
 21
57.751369526
 70
160
 71
2
 42
95.0
  3
DIMSTYLE_1
100
AcDbAlignedDimension
 13
-47.5
 23
46.0041104565
 14
47.5
 24
46.0041104565
100
AcDbRotatedDimension
  0
DIMENSION
  5
24A
100
AcDbEntity
  8
0
100
AcDbDimension
 62
7
  6
CONTINUOUS
  2
*D1
 10
55.5
 20
-47.498630474
 11
54.2581656363
 21
-2.0101229671
 70
160
 71
2
 42
95.0
  3
DIMSTYLE_1
100
AcDbAlignedDimension
 13
46.0027409305
 23
47.501369526
 14
46.0027409305
 24
-47.498630474
 50
270.0
100
AcDbRotatedDimension
  0
DIMENSION
  5
24B
100
AcDbEntity
  8
0
100
AcDbDimension
 62
7
  6
CONTINUOUS
  2
*D2
 10
-65.307112358
 20
55.501369526
 11
-77.6642552152
 21
57.751369526
 70
160
 71
2
 42
20.0
  3
DIMSTYLE_1
100
AcDbAlignedDimension
 13
-85.307112358
 23
46.0041104565
 14
-65.307112358
 24
7.7339144495
100
AcDbRotatedDimension
  0
DIMENSION
  5
24C
100
AcDbEntity
  8
0
100
AcDbDimension
 62
7
  6
CONTINUOUS
  2
*D3
 10
-112.2995824005
 20
55.501369526
 11
-101.1604902364
 21
57.751369526
 70
160
 71
2
 42
26.9924700425
  3
DIMSTYLE_2
100
AcDbAlignedDimension
 13
-85.307112358
 23
-45.0013714045
 14
-112.2995824005
 24
-44.628541997
 50
180.0
100
AcDbRotatedDimension
  0
LINE
  5
24D
100
AcDbEntity
  8
RACCORDO
100
AcDbLine
 62
7
  6
CONTINUOUS
 10
-47.5
 20
45.5041104565
 11
-47.5
 21
-45.5013714045
  0
LINE
  5
24E
100
AcDbEntity
  8
RACCORDO
100
AcDbLine
 62
7
  6
CONTINUOUS
 10
-44.2
 20
-5.9985923971
 11
-44.2
 21
-13.9986685509
  0
LINE
  5
24F
100
AcDbEntity
  8
RACCORDO
100
AcDbLine
 62
7
  6
CONTINUOUS
 10
-11.2833720857
 20
-47.501369526
 11
11.2833720857
 21
-47.501369526
  0
LINE
  5
250
100
AcDbEntity
  8
DRAFT
100
AcDbLine
 62
7
  6
CONTINUOUS
 10
-45.5027409305
 20
-47.498630474
 11
-12.0
 21
-47.498630474
  0
LINE
  5
251
100
AcDbEntity
  8
DRAFT
100
AcDbLine
 62
7
  6
CONTINUOUS
 10
12.0
 20
-47.498630474
 11
45.5027409305
 21
-47.498630474
  0
LINE
  5
252
100
AcDbEntity
  8
RACCORDO
100
AcDbLine
 62
253
  6
CONTINUOUS
 10
46.3000772236
 20
-45.1896946481
 11
47.1883265146
 21
-45.1896979191
  0
LINE
  5
253
100
AcDbEntity
  8
RACCORDO
100
AcDbLine
 62
253
  6
CONTINUOUS
 10
-46.3000772157
 20
-45.1896946431
 11
-47.1883237301
 21
-45.1896979198
  0
LINE
  5
254
100
AcDbEntity
  8
RACCORDO
100
AcDbLine
 62
253
  6
CONTINUOUS
 10
-43.6485211662
 20
-6.2434669413
 11
-43.6485211662
 21
-13.7537987242
  0
LINE
  5
255
100
AcDbEntity
  8
RACCORDO
100
AcDbLine
 62
253
  6
CONTINUOUS
 10
-43.5522066597
 20
-6.2434622238
 11
-43.5522066597
 21
-13.7537987242
  0
LINE
  5
256
100
AcDbEntity
  8
SMUSSO
100
AcDbLine
 62
7
  6
CONTINUOUS
 10
-41.0192005714
 20
-5.034410632
 11
-41.0192005714
 21
-5.4385517174
  0
LINE
  5
257
100
AcDbEntity
  8
SMUSSO
100
AcDbLine
 62
7
  6
CONTINUOUS
 10
-41.0192005714
 20
-14.5587092306
 11
-41.0192005714
 21
-14.9628503161
  0
LINE
  5
258
100
AcDbEntity
  8
DRAFT
100
AcDbLine
 62
7
  6
CONTINUOUS
 10
-39.9157088077
 20
-14.5825576286
 11
-39.9157068998
 21
-14.9628517885
  0
LINE
  5
259
100
AcDbEntity
  8
DRAFT
100
AcDbLine
 62
7
  6
CONTINUOUS
 10
-39.9157095584
 20
-5.4147045033
 11
-39.9157095584
 21
-5.034410632
  0
LINE
  5
25A
100
AcDbEntity
  8
ASSI
100
AcDbLine
 62
7
  6
CONTINUOUS
 10
-39.75
 20
-5.0025353958
 11
-39.75
 21
-5.4174706036
  0
LINE
  5
25B
100
AcDbEntity
  8
DRAFT
100
AcDbLine
 62
7
  6
CONTINUOUS
 10
-39.75
 20
-5.0025353958
 11
-39.75
 21
-5.4174706036
  0
LINE
  5
25C
100
AcDbEntity
  8
ASSI
100
AcDbLine
 62
7
  6
CONTINUOUS
 10
-39.75
 20
-14.5797903445
 11
-39.75
 21
-14.9950777072
  0
LINE
  5
25D
100
AcDbEntity
  8
DRAFT
100
AcDbLine
 62
7
  6
CONTINUOUS
 10
-39.75
 20
-14.5797903445
 11
-39.75
 21
-14.9950777072
  0
LINE
  5
25E
100
AcDbEntity
  8
DRAFT
100
AcDbLine
 62
7
  6
CONTINUOUS
 10
-38.25
 20
-4.9997731772
 11
-38.25
 21
-5.4174706036
  0
LINE
  5
25F
100
AcDbEntity
  8
ASSI
100
AcDbLine
 62
7
  6
CONTINUOUS
 10
-38.25
 20
-14.5797903445
 11
-38.25
 21
-14.9980078515
  0
LINE
  5
260
100
AcDbEntity
  8
DRAFT
100
AcDbLine
 62
7
  6
CONTINUOUS
 10
-38.25
 20
-14.5797903445
 11
-38.25
 21
-14.9980078515
  0
LINE
  5
261
100
AcDbEntity
  8
DRAFT
100
AcDbLine
 62
7
  6
CONTINUOUS
 10
-38.096642938
 20
-14.5820289179
 11
-38.096642938
 21
-14.9690260939
  0
LINE
  5
262
100
AcDbEntity
  8
DRAFT
100
AcDbLine
 62
7
  6
CONTINUOUS
 10
-38.096642938
 20
-5.4152320301
 11
-38.096642938
 21
-5.0282348541
  0
LINE
  5
263
100
AcDbEntity
  8
RACCORDO
100
AcDbLine
 62
253
  6
CONTINUOUS
 10
-36.8395081982
 20
-5.0047077932
 11
-36.8395081982
 21
-5.4585833707
  0
LINE
  5
264
100
AcDbEntity
  8
RACCORDO
100
AcDbLine
 62
253
  6
CONTINUOUS
 10
-36.8395081982
 20
-14.5386775773
 11
-36.8395081982
 21
-14.9925531548
  0
LINE
  5
265
100
AcDbEntity
  8
RACCORDO
100
AcDbLine
 62
253
  6
CONTINUOUS
 10
-36.3256661651
 20
-5.0009245007
 11
-36.3256661651
 21
-5.4585833707
  0
LINE
  5
266
100
AcDbEntity
  8
RACCORDO
100
AcDbLine
 62
253
  6
CONTINUOUS
 10
-36.3256661651
 20
-14.5386775773
 11
-36.3256661651
 21
-14.9963364474
  0
LINE
  5
267
100
AcDbEntity
  8
RACCORDO
100
AcDbLine
 62
253
  6
CONTINUOUS
 10
-44.2
 20
-5.9985923971
 11
-44.201870104
 21
-5.9967222931
  0
LINE
  5
268
100
AcDbEntity
  8
DRAFT
100
AcDbLine
 62
7
  6
CONTINUOUS
 10
-39.9166499619
 20
-14.9628503161
 11
-39.8516206186
 21
-14.9948923455
  0
LINE
  5
269
100
AcDbEntity
  8
RACCORDO
100
AcDbLine
 62
253
  6
CONTINUOUS
 10
-43.1981390797
 20
-5.0005294712
 11
-43.2033564394
 21
-4.9953121116
  0
LINE
  5
26A
100
AcDbEntity
  8
RACCORDO
100
AcDbLine
 62
253
  6
CONTINUOUS
 10
-26.3473527268
 20
-14.5012472935
 11
-26.3463002734
 21
-14.502299739
  0
LINE
  5
26B
100
AcDbEntity
  8
DRAFT
100
AcDbLine
 62
7
  6
CONTINUOUS
 10
-25.1623661626
 20
-12.4621914659
 11
-25.1441480461
 21
-12.498630474
  0
LINE
  5
26C
100
AcDbEntity
  8
RACCORDO
100
AcDbLine
 62
253
  6
CONTINUOUS
 10
-26.2
 20
-15.0553449892
 11
-26.2
 21
-15.0313307144
  0
LINE
  5
26D
100
AcDbEntity
  8
RACCORDO
100
AcDbLine
 62
253
  6
CONTINUOUS
 10
-25.7753544459
 20
-13.6980895205
 11
-25.7753544459
 21
-6.2991714276
  0
LINE
  5
26E
100
AcDbEntity
  8
RACCORDO
100
AcDbLine
 62
7
  6
CONTINUOUS
 10
-25.5505714151
 20
-13.6980895205
 11
-25.5505714151
 21
-6.2991714276
  0
LINE
  5
26F
100
AcDbEntity
  8
DRAFT
100
AcDbLine
 62
7
  6
CONTINUOUS
 10
-25.1623661626
 20
-7.5350694821
 11
-25.1623661626
 21
-8.998630474
  0
LINE
  5
270
100
AcDbEntity
  8
DRAFT
100
AcDbLine
 62
7
  6
CONTINUOUS
 10
-25.1623661626
 20
-10.998630474
 11
-25.1623661626
 21
-12.4621914659
  0
LINE
  5
271
100
AcDbEntity
  8
DRAFT
100
AcDbLine
 62
7
  6
CONTINUOUS
 10
-25.1583396938
 20
-8.998630474
 11
-25.1583396938
 21
-10.998630474
  0
LINE
  5
272
100
AcDbEntity
  8
DRAFT
100
AcDbLine
 62
7
  6
CONTINUOUS
 10
-25.1441480461
 20
-13.998630474
 11
-25.1441480461
 21
-12.498630474
  0
LINE
  5
273
100
AcDbEntity
  8
DRAFT
100
AcDbLine
 62
7
  6
CONTINUOUS
 10
-25.1441480461
 20
-7.498630474
 11
-25.1441480461
 21
-5.998630474
  0
LINE
  5
274
100
AcDbEntity
  8
RACCORDO
100
AcDbLine
 62
253
  6
CONTINUOUS
 10
-26.1999864723
 20
-4.946460079
 11
-26.2
 21
-4.9659302336
  0
LINE
  5
275
100
AcDbEntity
  8
RACCORDO
100
AcDbLine
 62
7
  6
CONTINUOUS
 10
12.0
 20
-47.498630474
 11
11.2039351439
 21
-46.7025656179
  0
LINE
  5
276
100
AcDbEntity
  8
RACCORDO
100
AcDbLine
 62
253
  6
CONTINUOUS
 10
10.4995523085
 20
-46.7036056181
 11
11.2833720857
 21
-47.501369526
  0
LINE
  5
277
100
AcDbEntity
  8
DRAFT
100
AcDbLine
 62
7
  6
CONTINUOUS
 10
-25.1623661626
 20
-7.5350694821
 11
-25.1441480461
 21
-7.498630474
  0
LINE
  5
278
100
AcDbEntity
  8
RACCORDO
100
AcDbLine
 62
253
  6
CONTINUOUS
 10
-44.2019141121
 20
-14.000582663
 11
-44.2
 21
-13.9986685509
  0
LINE
  5
279
100
AcDbEntity
  8
RACCORDO
100
AcDbLine
 62
253
  6
CONTINUOUS
 10
-43.2034698487
 20
-15.0020622458
 11
-43.1981390797
 21
-14.9967314768
  0
LINE
  5
27A
100
AcDbEntity
  8
DRAFT
100
AcDbLine
 62
7
  6
CONTINUOUS
 10
-38.096642938
 20
-5.0282348541
 11
-38.1539474212
 21
-4.9995847946
  0
LINE
  5
27B
100
AcDbEntity
  8
RACCORDO
100
AcDbLine
 62
253
  6
CONTINUOUS
 10
-26.3473527252
 20
-5.4960136545
 11
-26.3463002734
 21
-5.494961209
  0
LINE
  5
27C
100
AcDbEntity
  8
DRAFT
100
AcDbLine
 62
7
  6
CONTINUOUS
 10
-39.8523071312
 20
-5.0027118326
 11
-39.9157095584
 21
-5.034410632
  0
LINE
  5
27D
100
AcDbEntity
  8
DRAFT
100
AcDbLine
 62
7
  6
CONTINUOUS
 10
-38.2499723445
 20
-14.5809437681
 11
-36.4871823366
 21
-14.5386775773
  0
LINE
  5
27E
100
AcDbEntity
  8
RACCORDO
100
AcDbLine
 62
7
  6
CONTINUOUS
 10
36.8395081982
 20
-14.9925531548
 11
38.096642938
 21
-14.9690260939
  0
LINE
  5
27F
100
AcDbEntity
  8
DRAFT
100
AcDbLine
 62
7
  6
CONTINUOUS
 10
40.960226671
 20
-14.5587092306
 11
39.7500243282
 21
-14.5812328496
  0
LINE
  5
280
100
AcDbEntity
  8
RACCORDO
100
AcDbLine
 62
253
  6
CONTINUOUS
 10
-43.8651101909
 20
-14.5623945072
 11
-42.5820052906
 21
-14.5490490855
  0
LINE
  5
281
100
AcDbEntity
  8
RACCORDO
100
AcDbLine
 62
253
  6
CONTINUOUS
 10
-44.2
 20
-13.7595342563
 11
-43.6485211662
 21
-13.7537987242
  0
LINE
  5
282
100
AcDbEntity
  8
DRAFT
100
AcDbLine
 62
7
  6
CONTINUOUS
 10
-25.2371691907
 20
-14.0357996647
 11
-25.1630095511
 21
-14.0350757751
  0
LINE
  5
283
100
AcDbEntity
  8
RACCORDO
100
AcDbLine
 62
253
  6
CONTINUOUS
 10
44.4286907727
 20
-14.0004802453
 11
44.2019140893
 21
-14.0005826648
  0
LINE
  5
284
100
AcDbEntity
  8
DRAFT
100
AcDbLine
 62
7
  6
CONTINUOUS
 10
41.0192005714
 20
-14.9628503161
 11
39.9157095584
 21
-14.9628503161
  0
LINE
  5
285
100
AcDbEntity
  8
DRAFT
100
AcDbLine
 62
7
  6
CONTINUOUS
 10
-39.9166499619
 20
-14.9628503161
 11
-41.0192005714
 21
-14.9628503161
  0
LINE
  5
286
100
AcDbEntity
  8
RACCORDO
100
AcDbLine
 62
253
  6
CONTINUOUS
 10
25.1363257648
 20
-13.998630474
 11
25.1441480461
 21
-13.998630474
  0
LINE
  5
287
100
AcDbEntity
  8
RACCORDO
100
AcDbLine
 62
253
  6
CONTINUOUS
 10
-25.1363257905
 20
-13.998630474
 11
-25.1441480461
 21
-13.998630474
  0
LINE
  5
288
100
AcDbEntity
  8
RACCORDO
100
AcDbLine
 62
253
  6
CONTINUOUS
 10
-43.5522066597
 20
-13.7537987242
 11
-43.6485211121
 21
-13.7537986083
  0
LINE
  5
289
100
AcDbEntity
  8
RACCORDO
100
AcDbLine
 62
253
  6
CONTINUOUS
 10
43.5613700032
 20
-13.7537987242
 11
43.6575483143
 21
-13.7537987242
  0
LINE
  5
28A
100
AcDbEntity
  8
RACCORDO
100
AcDbLine
 62
7
  6
CONTINUOUS
 10
25.1441480461
 20
-13.748630474
 11
25.5757103164
 21
-13.748630474
  0
LINE
  5
28B
100
AcDbEntity
  8
RACCORDO
100
AcDbLine
 62
7
  6
CONTINUOUS
 10
-25.1441480461
 20
-13.748630474
 11
-25.5515620697
 21
-13.748630474
  0
LINE
  5
28C
100
AcDbEntity
  8
RACCORDO
100
AcDbLine
 62
253
  6
CONTINUOUS
 10
-25.7753544459
 20
-13.6980895205
 11
-25.5505714151
 21
-13.6980895205
  0
LINE
  5
28D
100
AcDbEntity
  8
RACCORDO
100
AcDbLine
 62
253
  6
CONTINUOUS
 10
25.8000052399
 20
-13.6980895205
 11
25.5748893654
 21
-13.6980895128
  0
LINE
  5
28E
100
AcDbEntity
  8
RACCORDO
100
AcDbLine
 62
253
  6
CONTINUOUS
 10
-44.4286907657
 20
-14.0004802427
 11
-44.2019141121
 21
-14.000582663
  0
LINE
  5
28F
100
AcDbEntity
  8
DRAFT
100
AcDbLine
 62
7
  6
CONTINUOUS
 10
25.1630095511
 20
-14.0350757751
 11
25.2371691907
 21
-14.0357996647
  0
LINE
  5
290
100
AcDbEntity
  8
RACCORDO
100
AcDbLine
 62
253
  6
CONTINUOUS
 10
42.5910347619
 20
-14.5490489455
 11
43.8702601144
 21
-14.5623945072
  0
LINE
  5
291
100
AcDbEntity
  8
RACCORDO
100
AcDbLine
 62
253
  6
CONTINUOUS
 10
43.6575483143
 20
-13.7537940067
 11
44.2
 21
-13.7594555971
  0
LINE
  5
292
100
AcDbEntity
  8
RACCORDO
100
AcDbLine
 62
7
  6
CONTINUOUS
 10
-38.096642938
 20
-14.9690260939
 11
-36.8395081982
 21
-14.9925531548
  0
LINE
  5
293
100
AcDbEntity
  8
DRAFT
100
AcDbLine
 62
7
  6
CONTINUOUS
 10
-40.9539725068
 20
-14.5587092306
 11
-39.7500271462
 21
-14.5812408614
  0
LINE
  5
294
100
AcDbEntity
  8
DRAFT
100
AcDbLine
 62
7
  6
CONTINUOUS
 10
36.4994005577
 20
-14.5386775773
 11
38.2499723565
 21
-14.5809519797
  0
LINE
  5
295
100
AcDbEntity
  8
RACCORDO
100
AcDbLine
 62
7
  6
CONTINUOUS
 10
-42.4673326551
 20
-14.9765450562
 11
-42.9001624846
 21
-14.998638768
  0
LINE
  5
296
100
AcDbEntity
  8
RACCORDO
100
AcDbLine
 62
7
  6
CONTINUOUS
 10
25.1441480461
 20
-12.748630474
 11
25.5741482519
 21
-12.748630474
  0
LINE
  5
297
100
AcDbEntity
  8
RACCORDO
100
AcDbLine
 62
7
  6
CONTINUOUS
 10
-25.1441480461
 20
-12.748630474
 11
-25.55
 21
-12.748630474
  0
LINE
  5
298
100
AcDbEntity
  8
RACCORDO
100
AcDbLine
 62
7
  6
CONTINUOUS
 10
-25.5961855393
 20
-10.998630474
 11
-25.1583396938
 21
-10.998630474
  0
LINE
  5
299
100
AcDbEntity
  8
RACCORDO
100
AcDbLine
 62
7
  6
CONTINUOUS
 10
25.5960682409
 20
-10.998630474
 11
25.1583396938
 21
-10.998630474
  0
LINE
  5
29A
100
AcDbEntity
  8
RACCORDO
100
AcDbLine
 62
7
  6
CONTINUOUS
 10
-25.5960682409
 20
-8.998630474
 11
-25.1583396938
 21
-8.998630474
  0
LINE
  5
29B
100
AcDbEntity
  8
RACCORDO
100
AcDbLine
 62
7
  6
CONTINUOUS
 10
25.5961855393
 20
-8.998630474
 11
25.1583396938
 21
-8.998630474
  0
LINE
  5
29C
100
AcDbEntity
  8
RACCORDO
100
AcDbLine
 62
7
  6
CONTINUOUS
 10
42.9001624846
 20
-14.998638768
 11
42.4673337066
 21
-14.9765451099
  0
LINE
  5
29D
100
AcDbEntity
  8
RACCORDO
100
AcDbLine
 62
7
  6
CONTINUOUS
 10
42.9001624846
 20
-4.99862218
 11
42.4649941751
 21
-5.020835259
  0
LINE
  5
29E
100
AcDbEntity
  8
DRAFT
100
AcDbLine
 62
7
  6
CONTINUOUS
 10
38.2499723565
 20
-5.4163089684
 11
36.4994005577
 21
-5.4585833707
  0
LINE
  5
29F
100
AcDbEntity
  8
DRAFT
100
AcDbLine
 62
7
  6
CONTINUOUS
 10
-40.9539725068
 20
-5.4385517174
 11
-39.7500271462
 21
-5.4160200866
  0
LINE
  5
2A0
100
AcDbEntity
  8
RACCORDO
100
AcDbLine
 62
7
  6
CONTINUOUS
 10
-38.096642938
 20
-5.0282348541
 11
-36.8395081982
 21
-5.0047077932
  0
LINE
  5
2A1
100
AcDbEntity
  8
RACCORDO
100
AcDbLine
 62
253
  6
CONTINUOUS
 10
44.2
 20
-6.2378030781
 11
43.6575483143
 21
-6.2434622238
  0
LINE
  5
2A2
100
AcDbEntity
  8
RACCORDO
100
AcDbLine
 62
253
  6
CONTINUOUS
 10
43.8702601144
 20
-5.4348664408
 11
42.5911228832
 21
-5.4482118625
  0
LINE
  5
2A3
100
AcDbEntity
  8
DRAFT
100
AcDbLine
 62
7
  6
CONTINUOUS
 10
25.2371691907
 20
-5.9614612833
 11
25.1630095511
 21
-5.9621851729
  0
LINE
  5
2A4
100
AcDbEntity
  8
RACCORDO
100
AcDbLine
 62
253
  6
CONTINUOUS
 10
44.4279893004
 20
-5.9965720606
 11
44.2018701059
 21
-5.9967222911
  0
LINE
  5
2A5
100
AcDbEntity
  8
RACCORDO
100
AcDbLine
 62
7
  6
CONTINUOUS
 10
25.1441480461
 20
-7.248630474
 11
25.5741482519
 21
-7.248630474
  0
LINE
  5
2A6
100
AcDbEntity
  8
RACCORDO
100
AcDbLine
 62
7
  6
CONTINUOUS
 10
-25.1441480461
 20
-7.248630474
 11
-25.55
 21
-7.248630474
  0
LINE
  5
2A7
100
AcDbEntity
  8
RACCORDO
100
AcDbLine
 62
253
  6
CONTINUOUS
 10
-25.7753544459
 20
-6.2991714276
 11
-25.550571415
 21
-6.2991714352
  0
LINE
  5
2A8
100
AcDbEntity
  8
RACCORDO
100
AcDbLine
 62
253
  6
CONTINUOUS
 10
25.8000052399
 20
-6.2991714276
 11
25.5748893656
 21
-6.2991714276
  0
LINE
  5
2A9
100
AcDbEntity
  8
RACCORDO
100
AcDbLine
 62
7
  6
CONTINUOUS
 10
25.1441480461
 20
-6.248630474
 11
25.5757103164
 21
-6.248630474
  0
LINE
  5
2AA
100
AcDbEntity
  8
RACCORDO
100
AcDbLine
 62
7
  6
CONTINUOUS
 10
-25.1441480461
 20
-6.248630474
 11
-25.5515620697
 21
-6.248630474
  0
LINE
  5
2AB
100
AcDbEntity
  8
RACCORDO
100
AcDbLine
 62
253
  6
CONTINUOUS
 10
-43.5522066597
 20
-6.2434622238
 11
-43.6485211662
 21
-6.2434622238
  0
LINE
  5
2AC
100
AcDbEntity
  8
RACCORDO
100
AcDbLine
 62
253
  6
CONTINUOUS
 10
43.5613700032
 20
-6.2434622238
 11
43.6575482605
 21
-6.2434623397
  0
LINE
  5
2AD
100
AcDbEntity
  8
RACCORDO
100
AcDbLine
 62
253
  6
CONTINUOUS
 10
25.1404152609
 20
-5.998630474
 11
25.1441480461
 21
-5.998630474
  0
LINE
  5
2AE
100
AcDbEntity
  8
RACCORDO
100
AcDbLine
 62
253
  6
CONTINUOUS
 10
-25.1404152957
 20
-5.998630474
 11
-25.1441480461
 21
-5.998630474
  0
LINE
  5
2AF
100
AcDbEntity
  8
DRAFT
100
AcDbLine
 62
7
  6
CONTINUOUS
 10
41.0192005714
 20
-5.034410632
 11
39.9166499623
 21
-5.034410632
  0
LINE
  5
2B0
100
AcDbEntity
  8
DRAFT
100
AcDbLine
 62
7
  6
CONTINUOUS
 10
-39.9157095584
 20
-5.034410632
 11
-41.0192005714
 21
-5.034410632
  0
LINE
  5
2B1
100
AcDbEntity
  8
RACCORDO
100
AcDbLine
 62
253
  6
CONTINUOUS
 10
-44.4279891409
 20
-5.996572063
 11
-44.2018677276
 21
-5.9967222932
  0
LINE
  5
2B2
100
AcDbEntity
  8
DRAFT
100
AcDbLine
 62
7
  6
CONTINUOUS
 10
-25.1630095511
 20
-5.9621851729
 11
-25.2371691907
 21
-5.9614612833
  0
LINE
  5
2B3
100
AcDbEntity
  8
RACCORDO
100
AcDbLine
 62
253
  6
CONTINUOUS
 10
-43.6485211662
 20
-6.2434669413
 11
-44.2
 21
-6.2377289315
  0
LINE
  5
2B4
100
AcDbEntity
  8
RACCORDO
100
AcDbLine
 62
253
  6
CONTINUOUS
 10
-42.5819171274
 20
-5.4482120026
 11
-43.8651101909
 21
-5.4348664408
  0
LINE
  5
2B5
100
AcDbEntity
  8
DRAFT
100
AcDbLine
 62
7
  6
CONTINUOUS
 10
40.960226671
 20
-5.4385517174
 11
39.7500243282
 21
-5.4160280984
  0
LINE
  5
2B6
100
AcDbEntity
  8
RACCORDO
100
AcDbLine
 62
7
  6
CONTINUOUS
 10
36.8395081982
 20
-5.0047077932
 11
38.096642938
 21
-5.0282348541
  0
LINE
  5
2B7
100
AcDbEntity
  8
DRAFT
100
AcDbLine
 62
7
  6
CONTINUOUS
 10
-36.4871823366
 20
-5.4585833707
 11
-38.2499723445
 21
-5.41631718
  0
LINE
  5
2B8
100
AcDbEntity
  8
RACCORDO
100
AcDbLine
 62
7
  6
CONTINUOUS
 10
-42.4649933253
 20
-5.0208353024
 11
-42.9001624846
 21
-4.99862218
  0
LINE
  5
2B9
100
AcDbEntity
  8
RACCORDO
100
AcDbLine
 62
253
  6
CONTINUOUS
 10
-47.1883265153
 20
-45.1896979198
 11
-47.5
 21
-45.5013714045
  0
LINE
  5
2BA
100
AcDbEntity
  8
RACCORDO
100
AcDbLine
 62
253
  6
CONTINUOUS
 10
45.1868976767
 20
47.1855262722
 11
45.5027409305
 21
47.501369526
  0
LINE
  5
2BB
100
AcDbEntity
  8
DRAFT
100
AcDbLine
 62
7
  6
CONTINUOUS
 10
-38.1550072198
 20
-14.9982060124
 11
-38.096642938
 21
-14.9690260939
  0
LINE
  5
2BC
100
AcDbEntity
  8
RACCORDO
100
AcDbLine
 62
253
  6
CONTINUOUS
 10
45.184830967
 20
-47.1807205106
 11
45.5027409305
 21
-47.498630474
  0
LINE
  5
2BD
100
AcDbEntity
  8
RACCORDO
100
AcDbLine
 62
253
  6
CONTINUOUS
 10
-47.1889337642
 20
45.1930442207
 11
-47.5
 21
45.5041104565
  0
LINE
  5
2BE
100
AcDbEntity
  8
RACCORDO
100
AcDbLine
 62
253
  6
CONTINUOUS
 10
-45.1848309675
 20
-47.180720511
 11
-45.5027409305
 21
-47.498630474
  0
LINE
  5
2BF
100
AcDbEntity
  8
RACCORDO
100
AcDbLine
 62
253
  6
CONTINUOUS
 10
47.1889337643
 20
45.1930442207
 11
47.5
 21
45.5041104565
  0
LINE
  5
2C0
100
AcDbEntity
  8
DRAFT
100
AcDbLine
 62
7
  6
CONTINUOUS
 10
38.096642938
 20
-14.9690260939
 11
38.1550072258
 21
-14.9982060153
  0
LINE
  5
2C1
100
AcDbEntity
  8
RACCORDO
100
AcDbLine
 62
253
  6
CONTINUOUS
 10
47.1883265146
 20
-45.1896979191
 11
47.5
 21
-45.5013714045
  0
LINE
  5
2C2
100
AcDbEntity
  8
RACCORDO
100
AcDbLine
 62
253
  6
CONTINUOUS
 10
-45.1868976766
 20
47.1855262721
 11
-45.5027409305
 21
47.501369526
  0
LINE
  5
2C3
100
AcDbEntity
  8
DRAFT
100
AcDbLine
 62
7
  6
CONTINUOUS
 10
39.9166499623
 20
-5.034410632
 11
39.8523071279
 21
-5.002711831
  0
LINE
  5
2C4
100
AcDbEntity
  8
RACCORDO
100
AcDbLine
 62
253
  6
CONTINUOUS
 10
26.3707211507
 20
-5.4960136545
 11
26.3693561426
 21
-5.494961209
  0
LINE
  5
2C5
100
AcDbEntity
  8
DRAFT
100
AcDbLine
 62
7
  6
CONTINUOUS
 10
38.1539474314
 20
-4.9995847895
 11
38.096642938
 21
-5.0282348541
  0
LINE
  5
2C6
100
AcDbEntity
  8
RACCORDO
100
AcDbLine
 62
253
  6
CONTINUOUS
 10
43.1981390797
 20
-14.9967314768
 11
43.2034698508
 21
-15.0020622479
  0
LINE
  5
2C7
100
AcDbEntity
  8
RACCORDO
100
AcDbLine
 62
253
  6
CONTINUOUS
 10
44.2019141138
 20
-14.0005826648
 11
44.2
 21
-13.9986685509
  0
LINE
  5
2C8
100
AcDbEntity
  8
DRAFT
100
AcDbLine
 62
7
  6
CONTINUOUS
 10
25.1623661626
 20
-7.5350694821
 11
25.1441480461
 21
-7.498630474
  0
LINE
  5
2C9
100
AcDbEntity
  8
RACCORDO
100
AcDbLine
 62
253
  6
CONTINUOUS
 10
26.1999688638
 20
-4.9464599728
 11
26.2
 21
-4.9659302336
  0
LINE
  5
2CA
100
AcDbEntity
  8
RACCORDO
100
AcDbLine
 62
253
  6
CONTINUOUS
 10
26.2000059273
 20
-15.0553449814
 11
26.2
 21
-15.0313307144
  0
LINE
  5
2CB
100
AcDbEntity
  8
DRAFT
100
AcDbLine
 62
7
  6
CONTINUOUS
 10
25.1441480461
 20
-13.998630474
 11
25.1441480461
 21
-12.498630474
  0
LINE
  5
2CC
100
AcDbEntity
  8
DRAFT
100
AcDbLine
 62
7
  6
CONTINUOUS
 10
25.1441480461
 20
-7.498630474
 11
25.1441480461
 21
-5.998630474
  0
LINE
  5
2CD
100
AcDbEntity
  8
DRAFT
100
AcDbLine
 62
7
  6
CONTINUOUS
 10
25.1583396938
 20
-10.998630474
 11
25.1583396938
 21
-8.998630474
  0
LINE
  5
2CE
100
AcDbEntity
  8
DRAFT
100
AcDbLine
 62
7
  6
CONTINUOUS
 10
25.1623661626
 20
-12.4621914659
 11
25.1623661626
 21
-10.998630474
  0
LINE
  5
2CF
100
AcDbEntity
  8
DRAFT
100
AcDbLine
 62
7
  6
CONTINUOUS
 10
25.1623661626
 20
-8.998630474
 11
25.1623661626
 21
-7.5350694821
  0
LINE
  5
2D0
100
AcDbEntity
  8
RACCORDO
100
AcDbLine
 62
253
  6
CONTINUOUS
 10
25.5748893656
 20
-6.2991714276
 11
25.5748893656
 21
-13.6980895205
  0
LINE
  5
2D1
100
AcDbEntity
  8
RACCORDO
100
AcDbLine
 62
253
  6
CONTINUOUS
 10
25.8000052399
 20
-6.2991714276
 11
25.8000052399
 21
-13.6980895205
  0
LINE
  5
2D2
100
AcDbEntity
  8
RACCORDO
100
AcDbLine
 62
253
  6
CONTINUOUS
 10
-11.2833720857
 20
-47.501369526
 11
-10.4995523085
 21
-46.7036056181
  0
LINE
  5
2D3
100
AcDbEntity
  8
RACCORDO
100
AcDbLine
 62
7
  6
CONTINUOUS
 10
-12.0
 20
-47.498630474
 11
-11.2039351439
 21
-46.7025656179
  0
LINE
  5
2D4
100
AcDbEntity
  8
DRAFT
100
AcDbLine
 62
7
  6
CONTINUOUS
 10
25.1623661626
 20
-12.4621914659
 11
25.1441480461
 21
-12.498630474
  0
LINE
  5
2D5
100
AcDbEntity
  8
RACCORDO
100
AcDbLine
 62
253
  6
CONTINUOUS
 10
26.370721149
 20
-14.5012472935
 11
26.3693561426
 21
-14.502299739
  0
LINE
  5
2D6
100
AcDbEntity
  8
DRAFT
100
AcDbLine
 62
7
  6
CONTINUOUS
 10
39.8516206185
 20
-14.9948923456
 11
39.9157095584
 21
-14.9628503161
  0
LINE
  5
2D7
100
AcDbEntity
  8
RACCORDO
100
AcDbLine
 62
253
  6
CONTINUOUS
 10
36.3256661651
 20
-14.9963364474
 11
36.3256661651
 21
-14.5386775773
  0
LINE
  5
2D8
100
AcDbEntity
  8
RACCORDO
100
AcDbLine
 62
253
  6
CONTINUOUS
 10
36.3256661651
 20
-5.4585833707
 11
36.3256661651
 21
-5.0009245007
  0
LINE
  5
2D9
100
AcDbEntity
  8
RACCORDO
100
AcDbLine
 62
253
  6
CONTINUOUS
 10
43.2033564419
 20
-4.995312109
 11
43.1981390797
 21
-5.0005294712
  0
LINE
  5
2DA
100
AcDbEntity
  8
RACCORDO
100
AcDbLine
 62
253
  6
CONTINUOUS
 10
44.2
 20
-5.9985923971
 11
44.2018701059
 21
-5.9967222911
  0
LINE
  5
2DB
100
AcDbEntity
  8
RACCORDO
100
AcDbLine
 62
253
  6
CONTINUOUS
 10
36.8395081982
 20
-14.9925531548
 11
36.8395081982
 21
-14.5386775773
  0
LINE
  5
2DC
100
AcDbEntity
  8
RACCORDO
100
AcDbLine
 62
253
  6
CONTINUOUS
 10
36.8395081982
 20
-5.4585833707
 11
36.8395081982
 21
-5.0047077932
  0
LINE
  5
2DD
100
AcDbEntity
  8
DRAFT
100
AcDbLine
 62
7
  6
CONTINUOUS
 10
38.096642938
 20
-14.5820289179
 11
38.096642938
 21
-14.9690260939
  0
LINE
  5
2DE
100
AcDbEntity
  8
DRAFT
100
AcDbLine
 62
7
  6
CONTINUOUS
 10
38.096642938
 20
-5.4152320301
 11
38.096642938
 21
-5.0282348541
  0
LINE
  5
2DF
100
AcDbEntity
  8
ASSI
100
AcDbLine
 62
7
  6
CONTINUOUS
 10
38.25
 20
-14.9980078542
 11
38.25
 21
-14.5798072695
  0
LINE
  5
2E0
100
AcDbEntity
  8
ASSI
100
AcDbLine
 62
7
  6
CONTINUOUS
 10
38.25
 20
-5.4174536785
 11
38.25
 21
-4.9997731724
  0
LINE
  5
2E1
100
AcDbEntity
  8
DRAFT
100
AcDbLine
 62
7
  6
CONTINUOUS
 10
38.2500025189
 20
-14.9980078489
 11
38.2500025189
 21
-14.5797903445
  0
LINE
  5
2E2
100
AcDbEntity
  8
DRAFT
100
AcDbLine
 62
7
  6
CONTINUOUS
 10
38.2500025189
 20
-5.4174706036
 11
38.2500025189
 21
-4.9997731774
  0
LINE
  5
2E3
100
AcDbEntity
  8
DRAFT
100
AcDbLine
 62
7
  6
CONTINUOUS
 10
39.7499974811
 20
-14.9950777118
 11
39.7499974811
 21
-14.5797903445
  0
LINE
  5
2E4
100
AcDbEntity
  8
ASSI
100
AcDbLine
 62
7
  6
CONTINUOUS
 10
39.75
 20
-14.9950777072
 11
39.75
 21
-14.5797734966
  0
LINE
  5
2E5
100
AcDbEntity
  8
DRAFT
100
AcDbLine
 62
7
  6
CONTINUOUS
 10
39.7499974811
 20
-5.4174706036
 11
39.7499974811
 21
-5.0025353898
  0
LINE
  5
2E6
100
AcDbEntity
  8
ASSI
100
AcDbLine
 62
7
  6
CONTINUOUS
 10
39.75
 20
-5.4174874514
 11
39.75
 21
-5.0025353941
  0
LINE
  5
2E7
100
AcDbEntity
  8
DRAFT
100
AcDbLine
 62
7
  6
CONTINUOUS
 10
39.9157088077
 20
-5.4147033152
 11
39.9157068998
 21
-5.0344091595
  0
LINE
  5
2E8
100
AcDbEntity
  8
DRAFT
100
AcDbLine
 62
7
  6
CONTINUOUS
 10
39.9157095584
 20
-14.5825564447
 11
39.9157095584
 21
-14.9628503161
  0
LINE
  5
2E9
100
AcDbEntity
  8
SMUSSO
100
AcDbLine
 62
7
  6
CONTINUOUS
 10
41.0192005714
 20
-5.034410632
 11
41.0192005714
 21
-5.4385517174
  0
LINE
  5
2EA
100
AcDbEntity
  8
SMUSSO
100
AcDbLine
 62
7
  6
CONTINUOUS
 10
41.0192005714
 20
-14.5587092306
 11
41.0192005714
 21
-14.9628503161
  0
LINE
  5
2EB
100
AcDbEntity
  8
RACCORDO
100
AcDbLine
 62
253
  6
CONTINUOUS
 10
43.5613700032
 20
-13.7537987242
 11
43.5613700032
 21
-6.2434622238
  0
LINE
  5
2EC
100
AcDbEntity
  8
RACCORDO
100
AcDbLine
 62
253
  6
CONTINUOUS
 10
43.6575483143
 20
-13.7537940067
 11
43.6575483143
 21
-6.2434622238
  0
LINE
  5
2ED
100
AcDbEntity
  8
RACCORDO
100
AcDbLine
 62
7
  6
CONTINUOUS
 10
44.2
 20
-13.9986685509
 11
44.2
 21
-5.9985923971
  0
LINE
  5
2EE
100
AcDbEntity
  8
RACCORDO
100
AcDbLine
 62
253
  6
CONTINUOUS
 10
46.2818011603
 20
45.1930636643
 11
47.1889309684
 21
45.1930442207
  0
LINE
  5
2EF
100
AcDbEntity
  8
RACCORDO
100
AcDbLine
 62
253
  6
CONTINUOUS
 10
-46.2818011612
 20
45.1930636647
 11
-47.1889337642
 21
45.1930442207
  0
LINE
  5
2F0
100
AcDbEntity
  8
RACCORDO
100
AcDbLine
 62
7
  6
CONTINUOUS
 10
47.5
 20
-45.5013714045
 11
47.5
 21
45.5041104565
  0
LINE
  5
2F1
100
AcDbEntity
  8
RACCORDO
100
AcDbLine
 62
7
  6
CONTINUOUS
 10
45.5027409305
 20
47.501369526
 11
-45.5027409305
 21
47.501369526
  0
LINE
  5
2F2
100
AcDbEntity
  8
RACCORDO
100
AcDbLine
 62
7
  6
CONTINUOUS
 10
-111.3521893165
 20
-46.1336658294
 11
-85.307112358
 21
-47.498630474
  0
LINE
  5
2F3
100
AcDbEntity
  8
RACCORDO
100
AcDbLine
 62
253
  6
CONTINUOUS
 10
-92.1957502176
 20
-45.1896946481
 11
-91.2541967346
 21
-45.1896979191
  0
LINE
  5
2F4
100
AcDbEntity
  8
RACCORDO
100
AcDbLine
 62
253
  6
CONTINUOUS
 10
-91.2541967346
 20
-45.1896979191
 11
-85.307112358
 21
-45.5013714045
  0
LINE
  5
2F5
100
AcDbEntity
  8
ASSI
100
AcDbLine
 62
7
  6
CONTINUOUS
 10
-85.307112358
 20
-26.648630474
 11
-81.507112358
 21
-26.5823012273
  0
LINE
  5
2F6
100
AcDbEntity
  8
DRAFT
100
AcDbLine
 62
7
  6
CONTINUOUS
 10
-85.307112358
 20
-26.648630474
 11
-81.507112358
 21
-26.5823012273
  0
LINE
  5
2F7
100
AcDbEntity
  8
ASSI
100
AcDbLine
 62
7
  6
CONTINUOUS
 10
-81.507112358
 20
-25.4323012273
 11
-85.307112358
 21
-25.498630474
  0
LINE
  5
2F8
100
AcDbEntity
  8
DRAFT
100
AcDbLine
 62
7
  6
CONTINUOUS
 10
-81.507112358
 20
-25.4323012273
 11
-85.307112358
 21
-25.498630474
  0
LINE
  5
2F9
100
AcDbEntity
  8
ASSI
100
AcDbLine
 62
7
  6
CONTINUOUS
 10
-85.307112358
 20
-18.5715491752
 11
-77.2983861548
 21
-18.4317563393
  0
LINE
  5
2FA
100
AcDbEntity
  8
RACCORDO
100
AcDbLine
 62
7
  6
CONTINUOUS
 10
-85.307112358
 20
-18.5715491752
 11
-77.2983861548
 21
-18.4317563393
  0
LINE
  5
2FB
100
AcDbEntity
  8
ASSI
100
AcDbLine
 62
253
  6
CONTINUOUS
 10
-85.307112358
 20
-17.57170148
 11
-77.2983861548
 21
-17.4319086442
  0
LINE
  5
2FC
100
AcDbEntity
  8
RACCORDO
100
AcDbLine
 62
253
  6
CONTINUOUS
 10
-85.307112358
 20
-17.57170148
 11
-77.2983861548
 21
-17.4319086442
  0
LINE
  5
2FD
100
AcDbEntity
  8
ASSI
100
AcDbLine
 62
253
  6
CONTINUOUS
 10
-76.807112358
 20
-17.4319086442
 11
-77.2983861548
 21
-17.4319086429
  0
LINE
  5
2FE
100
AcDbEntity
  8
RACCORDO
100
AcDbLine
 62
253
  6
CONTINUOUS
 10
-76.807112358
 20
-17.4319086442
 11
-77.2983861548
 21
-17.4319086429
  0
LINE
  5
2FF
100
AcDbEntity
  8
ASSI
100
AcDbLine
 62
7
  6
CONTINUOUS
 10
-81.507112358
 20
-20.5649597207
 11
-85.307112358
 21
-20.498630474
  0
LINE
  5
300
100
AcDbEntity
  8
DRAFT
100
AcDbLine
 62
7
  6
CONTINUOUS
 10
-81.507112358
 20
-20.5649597207
 11
-85.307112358
 21
-20.498630474
  0
LINE
  5
301
100
AcDbEntity
  8
ASSI
100
AcDbLine
 62
7
  6
CONTINUOUS
 10
-85.307112358
 20
-19.348630474
 11
-81.507112358
 21
-19.4149597207
  0
LINE
  5
302
100
AcDbEntity
  8
DRAFT
100
AcDbLine
 62
7
  6
CONTINUOUS
 10
-85.307112358
 20
-19.348630474
 11
-81.507112358
 21
-19.4149597207
  0
LINE
  5
303
100
AcDbEntity
  8
ASSI
100
AcDbLine
 62
7
  6
CONTINUOUS
 10
-85.307112358
 20
-14.748630474
 11
-81.507112358
 21
-14.6823012273
  0
LINE
  5
304
100
AcDbEntity
  8
DRAFT
100
AcDbLine
 62
7
  6
CONTINUOUS
 10
-85.307112358
 20
-14.748630474
 11
-81.507112358
 21
-14.6823012273
  0
LINE
  5
305
100
AcDbEntity
  8
ASSI
100
AcDbLine
 62
7
  6
CONTINUOUS
 10
-81.507112358
 20
-14.0003823891
 11
-85.307112358
 21
-14.0375040794
  0
LINE
  5
306
100
AcDbEntity
  8
DRAFT
100
AcDbLine
 62
7
  6
CONTINUOUS
 10
-81.507112358
 20
-14.0003823891
 11
-85.307112358
 21
-14.0375040794
  0
LINE
  5
307
100
AcDbEntity
  8
RACCORDO
100
AcDbLine
 62
7
  6
CONTINUOUS
 10
-92.5059486142
 20
-15.0029837521
 11
-98.5059512002
 21
-15.0553449814
  0
LINE
  5
308
100
AcDbEntity
  8
ASSI
100
AcDbLine
 62
7
  6
CONTINUOUS
 10
-76.807112358
 20
-15.748630474
 11
-76.507112358
 21
-15.748630474
  0
LINE
  5
309
100
AcDbEntity
  8
ASSI
100
AcDbLine
 62
7
  6
CONTINUOUS
 10
-76.807112358
 20
-15.240300474
 11
-76.507112358
 21
-15.240300474
  0
LINE
  5
30A
100
AcDbEntity
  8
RACCORDO
100
AcDbLine
 62
253
  6
CONTINUOUS
 10
-99.303457016
 20
-13.998630474
 11
-98.407112358
 21
-13.998630474
  0
LINE
  5
30B
100
AcDbEntity
  8
RACCORDO
100
AcDbLine
 62
253
  6
CONTINUOUS
 10
-98.3355494259
 20
-13.6980895205
 11
-98.3557171375
 21
-13.6980901437
  0
LINE
  5
30C
100
AcDbEntity
  8
RACCORDO
100
AcDbLine
 62
253
  6
CONTINUOUS
 10
-92.422901126
 20
-14.0004802453
 11
-92.4247027184
 21
-14.0004794356
  0
LINE
  5
30D
100
AcDbEntity
  8
RACCORDO
100
AcDbLine
 62
7
  6
CONTINUOUS
 10
-97.8400247026
 20
-14.5012472226
 11
-92.4437531429
 21
-14.5479902274
  0
LINE
  5
30E
100
AcDbEntity
  8
RACCORDO
100
AcDbLine
 62
253
  6
CONTINUOUS
 10
-97.8409483053
 20
-14.501235356
 11
-97.8400165543
 21
-14.5012472926
  0
LINE
  5
30F
100
AcDbEntity
  8
DRAFT
100
AcDbLine
 62
7
  6
CONTINUOUS
 10
-98.3182674855
 20
-14.000181267
 11
-98.407112358
 21
-13.998630474
  0
LINE
  5
310
100
AcDbEntity
  8
RACCORDO
100
AcDbLine
 62
253
  6
CONTINUOUS
 10
-99.465773092
 20
-13.9907351492
 11
-99.303457016
 21
-13.998630474
  0
LWPOLYLINE
  5
311
100
AcDbEntity
  8
RACCORDO
100
AcDbPolyline
 62
7
  6
CONTINUOUS
 90
5
 70
0
 10
-98.0470908283
 20
-14.4350505341
 10
-97.9962624903
 20
-14.4640487602
 10
-97.9439671512
 20
-14.4847184549
 10
-97.8913189529
 20
-14.4970127023
 10
-97.8409481095
 20
-14.5012225274
  0
LWPOLYLINE
  5
312
100
AcDbEntity
  8
RACCORDO
100
AcDbPolyline
 62
7
  6
CONTINUOUS
 90
4
 70
0
 10
-98.3540460301
 20
-13.7631706022
 10
-98.3481887379
 20
-13.8364771461
 10
-98.3377506318
 20
-13.9106510625
 10
-98.3225931752
 20
-13.9844923319
  0
LINE
  5
313
100
AcDbEntity
  8
ASSI
100
AcDbLine
 62
7
  6
CONTINUOUS
 10
-76.807112358
 20
-10.2224478766
 11
-65.7983861548
 21
-10.030289846
  0
LINE
  5
314
100
AcDbEntity
  8
RACCORDO
100
AcDbLine
 62
7
  6
CONTINUOUS
 10
-76.807112358
 20
-10.2224478766
 11
-65.7983861548
 21
-10.030289846
  0
LINE
  5
315
100
AcDbEntity
  8
ASSI
100
AcDbLine
 62
7
  6
CONTINUOUS
 10
-81.507112358
 20
-12.6292088767
 11
-85.307112358
 21
-12.6580477034
  0
LINE
  5
316
100
AcDbEntity
  8
DRAFT
100
AcDbLine
 62
7
  6
CONTINUOUS
 10
-81.507112358
 20
-12.6292088767
 11
-85.307112358
 21
-12.6580477034
  0
LINE
  5
317
100
AcDbEntity
  8
ASSI
100
AcDbLine
 62
7
  6
CONTINUOUS
 10
-76.807112358
 20
-11.756960474
 11
-76.507112358
 21
-11.756960474
  0
LINE
  5
318
100
AcDbEntity
  8
ASSI
100
AcDbLine
 62
7
  6
CONTINUOUS
 10
-76.807112358
 20
-11.248630474
 11
-76.507112358
 21
-11.248630474
  0
LINE
  5
319
100
AcDbEntity
  8
RACCORDO
100
AcDbLine
 62
7
  6
CONTINUOUS
 10
-92.6575000854
 20
-10.998630474
 11
-92.6264184426
 21
-10.998630474
  0
LINE
  5
31A
100
AcDbEntity
  8
RACCORDO
100
AcDbLine
 62
7
  6
CONTINUOUS
 10
-92.6756328351
 20
-12.9293867131
 11
-92.6754753399
 21
-12.9295852485
  0
LWPOLYLINE
  5
31B
100
AcDbEntity
  8
RACCORDO
100
AcDbPolyline
 62
7
  6
CONTINUOUS
 90
5
 70
0
 10
-92.6755002762
 20
-12.9295480711
 10
-92.6625935493
 20
-12.9469351998
 10
-92.6519712488
 20
-12.963258669
 10
-92.6447940391
 20
-12.9759007685
 10
-92.6426631344
 20
-12.9800674251
  0
LWPOLYLINE
  5
31C
100
AcDbEntity
  8
RACCORDO
100
AcDbPolyline
 62
7
  6
CONTINUOUS
 90
9
 70
0
 10
-98.3225931752
 20
-13.9844923319
 10
-98.3028246744
 20
-14.0561911239
 10
-98.2784759014
 20
-14.1250470478
 10
-98.2496311298
 20
-14.1903590146
 10
-98.2167124292
 20
-14.2508041572
 10
-98.1797836486
 20
-14.3060565077
 10
-98.1389507577
 20
-14.3556617399
 10
-98.094769345
 20
-14.398705913
 10
-98.0470908283
 20
-14.4350505341
  0
LINE
  5
31D
100
AcDbEntity
  8
RACCORDO
100
AcDbLine
 62
7
  6
CONTINUOUS
 10
-98.3556874713
 20
-13.6980901447
 11
-98.3540460301
 21
-13.7631706022
  0
LINE
  5
31E
100
AcDbEntity
  8
DRAFT
100
AcDbLine
 62
7
  6
CONTINUOUS
 10
-98.407112358
 20
-13.998630474
 11
-98.407112358
 21
-12.498630474
  0
LINE
  5
31F
100
AcDbEntity
  8
DRAFT
100
AcDbLine
 62
7
  6
CONTINUOUS
 10
-98.407112358
 20
-7.498630474
 11
-98.407112358
 21
-5.998630474
  0
LINE
  5
320
100
AcDbEntity
  8
RACCORDO
100
AcDbLine
 62
7
  6
CONTINUOUS
 10
-98.3557181434
 20
-6.2991714276
 11
-98.3557181434
 21
-13.6980901452
  0
LINE
  5
321
100
AcDbEntity
  8
RACCORDO
100
AcDbLine
 62
253
  6
CONTINUOUS
 10
-98.3355494259
 20
-6.2991714276
 11
-98.3355494259
 21
-13.6980895205
  0
LINE
  5
322
100
AcDbEntity
  8
RACCORDO
100
AcDbLine
 62
7
  6
CONTINUOUS
 10
-98.3537510807
 20
-6.2286846386
 11
-98.3556944388
 21
-6.2991714349
  0
LWPOLYLINE
  5
323
100
AcDbEntity
  8
IMPORT_IGES
100
AcDbPolyline
 62
7
  6
CONTINUOUS
 90
16
 70
0
 10
-94.3124477513
 20
46.0919193578
 10
-94.5318308597
 20
41.1932805476
 10
-95.2961811637
 20
35.3711743875
 10
-96.6050213127
 20
29.9464332743
 10
-98.511115489
 20
24.476882782
 10
-100.8769996421
 20
18.8087556186
 10
-103.2637121073
 20
13.1065099354
 10
-105.4114829703
 20
7.292098985
 10
-107.3079285588
 20
1.009491832
 10
-108.878352628
 20
-5.6867535112
 10
-110.0877897605
 20
-12.5520051521
 10
-110.9818404033
 20
-19.5144300641
 10
-111.6274727617
 20
-26.7641387356
 10
-112.0504661512
 20
-34.3337937642
 10
-112.264393482
 20
-41.9620296606
 10
-112.2994687192
 20
-45.1285427576
  0
LWPOLYLINE
  5
324
100
AcDbEntity
  8
RACCORDO
100
AcDbPolyline
 62
7
  6
CONTINUOUS
 90
5
 70
0
 10
-98.3014408989
 20
-5.9366776795
 10
-98.3214832361
 20
-6.0081986156
 10
-98.3369183154
 20
-6.0818133736
 10
-98.34762235
 20
-6.1557117117
 10
-98.3537510807
 20
-6.2286846386
  0
LINE
  5
325
100
AcDbEntity
  8
0
100
AcDbLine
 62
7
  6
CONTINUOUS
 10
-75.8268358422
 20
10.9859216638
 11
-76.3973072947
 21
10.8161981796
  0
LINE
  5
326
100
AcDbEntity
  8
ASSI
100
AcDbLine
 62
253
  6
CONTINUOUS
 10
-77.2983861548
 20
-9.2311753975
 11
-65.7983861548
 21
-9.0304421508
  0
LINE
  5
327
100
AcDbEntity
  8
RACCORDO
100
AcDbLine
 62
253
  6
CONTINUOUS
 10
-77.2983861548
 20
-9.2311753975
 11
-65.7983861548
 21
-9.0304421508
  0
LINE
  5
328
100
AcDbEntity
  8
ASSI
100
AcDbLine
 62
253
  6
CONTINUOUS
 10
-65.307112358
 20
-9.0304421508
 11
-65.7983861548
 21
-9.0304421496
  0
LINE
  5
329
100
AcDbEntity
  8
RACCORDO
100
AcDbLine
 62
253
  6
CONTINUOUS
 10
-65.307112358
 20
-9.0304421508
 11
-65.7983861548
 21
-9.0304421496
  0
LINE
  5
32A
100
AcDbEntity
  8
RACCORDO
100
AcDbLine
 62
7
  6
CONTINUOUS
 10
-92.6264184433
 20
-8.998630474
 11
-92.6575094562
 21
-8.998630474
  0
LINE
  5
32B
100
AcDbEntity
  8
ASSI
100
AcDbLine
 62
7
  6
CONTINUOUS
 10
-81.507112358
 20
-7.3680520714
 11
-85.307112358
 21
-7.3392132446
  0
LINE
  5
32C
100
AcDbEntity
  8
DRAFT
100
AcDbLine
 62
7
  6
CONTINUOUS
 10
-81.507112358
 20
-7.3680520714
 11
-85.307112358
 21
-7.3392132446
  0
LINE
  5
32D
100
AcDbEntity
  8
RACCORDO
100
AcDbLine
 62
253
  6
CONTINUOUS
 10
-99.0015867216
 20
-5.9869471929
 11
-98.8348471917
 21
-5.9986304742
  0
LINE
  5
32E
100
AcDbEntity
  8
RACCORDO
100
AcDbLine
 62
7
  6
CONTINUOUS
 10
-92.6756350574
 20
-8.9293839044
 11
-92.6754781549
 21
-8.9295816989
  0
LWPOLYLINE
  5
32F
100
AcDbEntity
  8
RACCORDO
100
AcDbPolyline
 62
7
  6
CONTINUOUS
 90
5
 70
0
 10
-92.6755018536
 20
-8.9295356223
 10
-92.6626723545
 20
-8.9468131853
 10
-92.6520381078
 20
-8.9631440626
 10
-92.6448331586
 20
-8.9758280487
 10
-92.6426900893
 20
-8.9800167111
  0
LINE
  5
330
100
AcDbEntity
  8
RACCORDO
100
AcDbLine
 62
7
  6
CONTINUOUS
 10
-92.433045674
 20
-5.5133099068
 11
-92.4264938705
 21
-5.6447989245
  0
LWPOLYLINE
  5
331
100
AcDbEntity
  8
RACCORDO
100
AcDbPolyline
 62
7
  6
CONTINUOUS
 90
4
 70
0
 10
-92.4264938705
 20
-5.6447989245
 10
-92.4220207431
 20
-5.7853568696
 10
-92.4198338303
 20
-5.9331047753
 10
-92.419655471
 20
-5.9965709387
  0
LWPOLYLINE
  5
332
100
AcDbEntity
  8
RACCORDO
100
AcDbPolyline
 62
7
  6
CONTINUOUS
 90
5
 70
0
 10
-92.4247027184
 20
-14.0004794356
 10
-92.4247699395
 20
-14.0305288982
 10
-92.4267056445
 20
-14.1820047336
 10
-92.4311236316
 20
-14.326348943
 10
-92.4377664939
 20
-14.4614475156
  0
LINE
  5
333
100
AcDbEntity
  8
0
100
AcDbLine
 62
7
  6
CONTINUOUS
 10
-74.7873888738
 20
9.9464746955
 11
-74.2169174213
 21
10.1161981796
  0
LWPOLYLINE
  5
334
100
AcDbEntity
  8
RACCORDO
100
AcDbPolyline
 62
7
  6
CONTINUOUS
 90
12
 70
0
 10
-97.8409762486
 20
-5.4960426903
 10
-97.8867060417
 20
-5.499558152
 10
-97.9395764945
 20
-5.5111929907
 10
-97.9921612156
 20
-5.5312624528
 10
-98.0433272863
 20
-5.5597357658
 10
-98.0913618293
 20
-5.5956375741
 10
-98.1359139516
 20
-5.6383179877
 10
-98.1771096097
 20
-5.6876163783
 10
-98.2143786256
 20
-5.7426124793
 10
-98.2476330296
 20
-5.8028688569
 10
-98.2768006934
 20
-5.868005198
 10
-98.3014408989
 20
-5.9366776795
  0
LINE
  5
335
100
AcDbEntity
  8
DRAFT
100
AcDbLine
 62
7
  6
CONTINUOUS
 10
-98.3183678641
 20
-5.9970814331
 11
-98.407112358
 21
-5.998630474
  0
LINE
  5
336
100
AcDbEntity
  8
RACCORDO
100
AcDbLine
 62
253
  6
CONTINUOUS
 10
-97.8409762486
 20
-5.4960426903
 11
-97.8400164088
 21
-5.4960302834
  0
LINE
  5
337
100
AcDbEntity
  8
RACCORDO
100
AcDbLine
 62
7
  6
CONTINUOUS
 10
-92.4374772126
 20
-5.4492168395
 11
-97.8400165503
 21
-5.4960136545
  0
LINE
  5
338
100
AcDbEntity
  8
RACCORDO
100
AcDbLine
 62
253
  6
CONTINUOUS
 10
-98.3355494259
 20
-6.2991714276
 11
-98.3557180258
 21
-6.2991714276
  0
LINE
  5
339
100
AcDbEntity
  8
RACCORDO
100
AcDbLine
 62
253
  6
CONTINUOUS
 10
-98.8348471769
 20
-5.998630474
 11
-98.407112358
 21
-5.998630474
  0
LINE
  5
33A
100
AcDbEntity
  8
ASSI
100
AcDbLine
 62
7
  6
CONTINUOUS
 10
-65.307112358
 20
-5.6441347506
 11
-65.107112358
 21
-5.6441347506
  0
LINE
  5
33B
100
AcDbEntity
  8
0
100
AcDbLine
 62
7
  6
CONTINUOUS
 10
-65.307112358
 20
-5.6441347506
 11
-65.107112358
 21
-5.6441347506
  0
LINE
  5
33C
100
AcDbEntity
  8
ASSI
100
AcDbLine
 62
7
  6
CONTINUOUS
 10
-65.307112358
 20
-5.2385485033
 11
-65.107112358
 21
-5.238548474
  0
LINE
  5
33D
100
AcDbEntity
  8
0
100
AcDbLine
 62
7
  6
CONTINUOUS
 10
-65.307112358
 20
-5.2385485033
 11
-65.107112358
 21
-5.238548474
  0
LINE
  5
33E
100
AcDbEntity
  8
ASSI
100
AcDbLine
 62
7
  6
CONTINUOUS
 10
-65.307112358
 20
-5.2251405015
 11
-65.107112358
 21
-5.225140474
  0
LINE
  5
33F
100
AcDbEntity
  8
0
100
AcDbLine
 62
7
  6
CONTINUOUS
 10
-65.307112358
 20
-5.2251405015
 11
-65.107112358
 21
-5.225140474
  0
LINE
  5
340
100
AcDbEntity
  8
ASSI
100
AcDbLine
 62
7
  6
CONTINUOUS
 10
-65.107112358
 20
-4.4039112891
 11
-65.307112358
 21
-4.4039112891
  0
LINE
  5
341
100
AcDbEntity
  8
0
100
AcDbLine
 62
7
  6
CONTINUOUS
 10
-65.107112358
 20
-4.4039112891
 11
-65.307112358
 21
-4.4039112891
  0
LINE
  5
342
100
AcDbEntity
  8
ASSI
100
AcDbLine
 62
7
  6
CONTINUOUS
 10
-65.307112358
 20
-3.948630474
 11
-65.107112358
 21
-3.948630474
  0
LINE
  5
343
100
AcDbEntity
  8
0
100
AcDbLine
 62
7
  6
CONTINUOUS
 10
-65.307112358
 20
-3.948630474
 11
-65.107112358
 21
-3.948630474
  0
LINE
  5
344
100
AcDbEntity
  8
ASSI
100
AcDbLine
 62
7
  6
CONTINUOUS
 10
-65.307112358
 20
-3.7581996638
 11
-65.107112358
 21
-3.7581996638
  0
LINE
  5
345
100
AcDbEntity
  8
0
100
AcDbLine
 62
7
  6
CONTINUOUS
 10
-65.307112358
 20
-3.7581996638
 11
-65.107112358
 21
-3.7581996638
  0
LINE
  5
346
100
AcDbEntity
  8
ASSI
100
AcDbLine
 62
7
  6
CONTINUOUS
 10
-65.307112358
 20
-3.198630474
 11
-65.107112358
 21
-3.198630474
  0
LINE
  5
347
100
AcDbEntity
  8
0
100
AcDbLine
 62
7
  6
CONTINUOUS
 10
-65.307112358
 20
-3.198630474
 11
-65.107112358
 21
-3.198630474
  0
LINE
  5
348
100
AcDbEntity
  8
RACCORDO
100
AcDbLine
 62
253
  6
CONTINUOUS
 10
-92.4179460447
 20
-5.9965720606
 11
-92.4196599029
 21
-5.9965709357
  0
LINE
  5
349
100
AcDbEntity
  8
RACCORDO
100
AcDbLine
 62
7
  6
CONTINUOUS
 10
-97.9852596648
 20
-4.9464599728
 11
-92.5151046869
 21
-4.9941972921
  0
LINE
  5
34A
100
AcDbEntity
  8
ASSI
100
AcDbLine
 62
7
  6
CONTINUOUS
 10
-81.507112358
 20
-5.9968785589
 11
-85.307112358
 21
-5.9597568687
  0
LINE
  5
34B
100
AcDbEntity
  8
DRAFT
100
AcDbLine
 62
7
  6
CONTINUOUS
 10
-81.507112358
 20
-5.9968785589
 11
-85.307112358
 21
-5.9597568687
  0
LINE
  5
34C
100
AcDbEntity
  8
ASSI
100
AcDbLine
 62
7
  6
CONTINUOUS
 10
-85.307112358
 20
-5.248630474
 11
-81.507112358
 21
-5.3149597207
  0
LINE
  5
34D
100
AcDbEntity
  8
DRAFT
100
AcDbLine
 62
7
  6
CONTINUOUS
 10
-85.307112358
 20
-5.248630474
 11
-81.507112358
 21
-5.3149597207
  0
LWPOLYLINE
  5
34E
100
AcDbEntity
  8
RACCORDO
100
AcDbPolyline
 62
7
  6
CONTINUOUS
 90
4
 70
0
 10
-92.5145862262
 20
-4.934787582
 10
-92.516074782
 20
-4.932795264
 10
-92.5096200173
 20
-4.9494030416
 10
-92.4983423151
 20
-4.9875733077
  0
LWPOLYLINE
  5
34F
100
AcDbEntity
  8
RACCORDO
100
AcDbPolyline
 62
7
  6
CONTINUOUS
 90
7
 70
0
 10
-92.4983423151
 20
-4.9875733077
 10
-92.4861565856
 20
-5.0408054259
 10
-92.4740850909
 20
-5.1072693151
 10
-92.4622238912
 20
-5.1889977249
 10
-92.4512035871
 20
-5.284377463
 10
-92.4413881253
 20
-5.3926535525
 10
-92.433045674
 20
-5.5133099068
  0
LWPOLYLINE
  5
350
100
AcDbEntity
  8
RACCORDO
100
AcDbPolyline
 62
7
  6
CONTINUOUS
 90
8
 70
0
 10
-92.4377664939
 20
-14.4614475156
 10
-92.4463489535
 20
-14.5855151416
 10
-92.4565277773
 20
-14.6968829919
 10
-92.4679905824
 20
-14.7948952182
 10
-92.4803621789
 20
-14.8788945963
 10
-92.4930132004
 20
-14.9474528637
 10
-92.5058288148
 20
-15.0025370348
 10
-92.5074251147
 20
-15.0084894428
  0
LWPOLYLINE
  5
351
100
AcDbEntity
  8
RACCORDO
100
AcDbPolyline
 62
7
  6
CONTINUOUS
 90
8
 70
0
 10
-92.6425581374
 20
-11.0182208335
 10
-92.6420576148
 20
-11.0168037862
 10
-92.6403430891
 20
-11.012232743
 10
-92.6410401406
 20
-11.0137935066
 10
-92.6448850898
 20
-11.0215310876
 10
-92.6521053426
 20
-11.0342276701
 10
-92.6627426854
 20
-11.0505488345
 10
-92.6755040326
 20
-11.0677281532
  0
LWPOLYLINE
  5
352
100
AcDbEntity
  8
RACCORDO
100
AcDbPolyline
 62
7
  6
CONTINUOUS
 90
8
 70
0
 10
-92.6425648854
 20
-7.0182394253
 10
-92.6420635645
 20
-7.0168209118
 10
-92.640341099
 20
-7.0122333396
 10
-92.641024986
 20
-7.0137662196
 10
-92.6448471991
 20
-7.0214609886
 10
-92.6520402093
 20
-7.034116309
 10
-92.6626657392
 20
-7.0504298713
 10
-92.6755012657
 20
-7.0677144162
  0
LINE
  5
353
100
AcDbEntity
  8
DRAFT
100
AcDbLine
 62
7
  6
CONTINUOUS
 10
-77.3451487803
 20
-1.9504202204
 11
-80.107112358
 21
-1.998630474
  0
LINE
  5
354
100
AcDbEntity
  8
ASSI
100
AcDbLine
 62
7
  6
CONTINUOUS
 10
-65.307112358
 20
-2.6390612842
 11
-65.107112358
 21
-2.6390612842
  0
LINE
  5
355
100
AcDbEntity
  8
0
100
AcDbLine
 62
7
  6
CONTINUOUS
 10
-65.307112358
 20
-2.6390612842
 11
-65.107112358
 21
-2.6390612842
  0
LINE
  5
356
100
AcDbEntity
  8
ASSI
100
AcDbLine
 62
7
  6
CONTINUOUS
 10
-65.307112358
 20
-2.448630474
 11
-65.107112358
 21
-2.448630474
  0
LINE
  5
357
100
AcDbEntity
  8
0
100
AcDbLine
 62
7
  6
CONTINUOUS
 10
-65.307112358
 20
-2.448630474
 11
-65.107112358
 21
-2.448630474
  0
LINE
  5
358
100
AcDbEntity
  8
ASSI
100
AcDbLine
 62
7
  6
CONTINUOUS
 10
-65.307112358
 20
-2.5248130714
 11
-80.307112358
 21
-2.2629870975
  0
LINE
  5
359
100
AcDbEntity
  8
RACCORDO
100
AcDbLine
 62
7
  6
CONTINUOUS
 10
-65.307112358
 20
-2.5248130714
 11
-80.307112358
 21
-2.2629870975
  0
LINE
  5
35A
100
AcDbEntity
  8
RACCORDO
100
AcDbLine
 62
7
  6
CONTINUOUS
 10
-85.307112358
 20
-47.498630474
 11
-85.307112358
 21
47.501369526
  0
LINE
  5
35B
100
AcDbEntity
  8
ASSI
100
AcDbLine
 62
253
  6
CONTINUOUS
 10
-78.0226145328
 20
13.833755075
 11
-76.330437736
 21
17.4626399265
  0
LINE
  5
35C
100
AcDbEntity
  8
RACCORDO
100
AcDbLine
 62
253
  6
CONTINUOUS
 10
-78.0226145328
 20
13.833755075
 11
-76.330437736
 21
17.4626399265
  0
LINE
  5
35D
100
AcDbEntity
  8
RACCORDO
100
AcDbLine
 62
7
  6
CONTINUOUS
 10
-92.6754802136
 20
-11.0676818385
 11
-92.6756352433
 21
-11.0678772785
  0
LINE
  5
35E
100
AcDbEntity
  8
RACCORDO
100
AcDbLine
 62
7
  6
CONTINUOUS
 10
-92.67547697
 20
-7.0676777509
 11
-92.6756331902
 21
-7.0678746837
  0
LINE
  5
35F
100
AcDbEntity
  8
ASSI
100
AcDbLine
 62
7
  6
CONTINUOUS
 10
-65.307112358
 20
2.5275521234
 11
-80.307112358
 21
2.2657261495
  0
LINE
  5
360
100
AcDbEntity
  8
RACCORDO
100
AcDbLine
 62
7
  6
CONTINUOUS
 10
-65.307112358
 20
2.5275521234
 11
-80.307112358
 21
2.2657261495
  0
LINE
  5
361
100
AcDbEntity
  8
DRAFT
100
AcDbLine
 62
7
  6
CONTINUOUS
 10
-77.3451487803
 20
1.9531592724
 11
-80.107112358
 21
2.001369526
  0
LINE
  5
362
100
AcDbEntity
  8
ASSI
100
AcDbLine
 62
7
  6
CONTINUOUS
 10
-81.507112358
 20
-5.3151219963
 11
-81.507112358
 21
-14.6821389517
  0
LINE
  5
363
100
AcDbEntity
  8
DRAFT
100
AcDbLine
 62
7
  6
CONTINUOUS
 10
-81.507112358
 20
-5.3151219963
 11
-81.507112358
 21
-14.6821389517
  0
LINE
  5
364
100
AcDbEntity
  8
ASSI
100
AcDbLine
 62
7
  6
CONTINUOUS
 10
-81.507112358
 20
-19.4149597207
 11
-81.507112358
 21
-26.5823012273
  0
LINE
  5
365
100
AcDbEntity
  8
DRAFT
100
AcDbLine
 62
7
  6
CONTINUOUS
 10
-81.507112358
 20
-19.4149597207
 11
-81.507112358
 21
-26.5823012273
  0
LINE
  5
366
100
AcDbEntity
  8
ASSI
100
AcDbLine
 62
7
  6
CONTINUOUS
 10
-76.7142202857
 20
14.3108408161
 11
-75.2612617267
 21
17.426720501
  0
LINE
  5
367
100
AcDbEntity
  8
DRAFT
100
AcDbLine
 62
7
  6
CONTINUOUS
 10
-76.7142202857
 20
14.3108408161
 11
-75.2612617267
 21
17.426720501
  0
LINE
  5
368
100
AcDbEntity
  8
ASSI
100
AcDbLine
 62
253
  6
CONTINUOUS
 10
-65.307112358
 20
7.2339144495
 11
-65.7983861548
 21
7.2339144495
  0
LINE
  5
369
100
AcDbEntity
  8
RACCORDO
100
AcDbLine
 62
253
  6
CONTINUOUS
 10
-65.307112358
 20
7.2339144495
 11
-65.7983861548
 21
7.2339144495
  0
LINE
  5
36A
100
AcDbEntity
  8
ASSI
100
AcDbLine
 62
7
  6
CONTINUOUS
 10
-80.307112358
 20
2.2657261495
 11
-80.307112358
 21
-2.2629870975
  0
LINE
  5
36B
100
AcDbEntity
  8
DRAFT
100
AcDbLine
 62
7
  6
CONTINUOUS
 10
-80.307112358
 20
2.2657261495
 11
-80.307112358
 21
-2.2629870975
  0
LINE
  5
36C
100
AcDbEntity
  8
DRAFT
100
AcDbLine
 62
7
  6
CONTINUOUS
 10
-80.107112358
 20
-2.2664781105
 11
-80.107112358
 21
2.2692171624
  0
LINE
  5
36D
100
AcDbEntity
  8
DRAFT
100
AcDbLine
 62
7
  6
CONTINUOUS
 10
-79.4884070023
 20
-1.9878309319
 11
-79.4884070023
 21
1.9905699838
  0
LINE
  5
36E
100
AcDbEntity
  8
0
100
AcDbLine
 62
7
  6
CONTINUOUS
 10
-75.8268358422
 20
10.9859216638
 11
-75.657112358
 21
11.5563931163
  0
LINE
  5
36F
100
AcDbEntity
  8
0
100
AcDbLine
 62
7
  6
CONTINUOUS
 10
-74.7873888738
 20
9.9464746955
 11
-74.957112358
 21
9.3760032429
  0
LINE
  5
370
100
AcDbEntity
  8
0
100
AcDbLine
 62
7
  6
CONTINUOUS
 10
-74.957112358
 20
9.3235032349
 11
-75.2344951193
 21
9.3235032349
  0
LINE
  5
371
100
AcDbEntity
  8
0
100
AcDbLine
 62
7
  6
CONTINUOUS
 10
-75.3797295967
 20
9.3235032349
 11
-75.657112358
 21
9.3235032349
  0
LINE
  5
372
100
AcDbEntity
  8
0
100
AcDbLine
 62
7
  6
CONTINUOUS
 10
-72.1842198398
 20
9.8661981796
 11
-74.811272295
 21
9.8661981796
  0
LINE
  5
373
100
AcDbEntity
  8
0
100
AcDbLine
 62
7
  6
CONTINUOUS
 10
-75.802952421
 20
9.8661981796
 11
-78.4300048762
 21
9.8661981796
  0
LINE
  5
374
100
AcDbEntity
  8
0
100
AcDbLine
 62
7
  6
CONTINUOUS
 10
-73.8154102877
 20
10.1161981796
 11
-74.2169174213
 21
10.1161981796
  0
LINE
  5
375
100
AcDbEntity
  8
0
100
AcDbLine
 62
7
  6
CONTINUOUS
 10
-76.3973072947
 20
10.1161981796
 11
-76.7988144284
 21
10.1161981796
  0
LINE
  5
376
100
AcDbEntity
  8
0
100
AcDbLine
 62
7
  6
CONTINUOUS
 10
-73.8154102877
 20
10.8161981796
 11
-74.2169174213
 21
10.8161981796
  0
LINE
  5
377
100
AcDbEntity
  8
0
100
AcDbLine
 62
7
  6
CONTINUOUS
 10
-76.3973072947
 20
10.8161981796
 11
-76.7988144284
 21
10.8161981796
  0
LINE
  5
378
100
AcDbEntity
  8
0
100
AcDbLine
 62
7
  6
CONTINUOUS
 10
-78.4300048762
 20
11.0661981796
 11
-75.802952421
 21
11.0661981796
  0
LINE
  5
379
100
AcDbEntity
  8
0
100
AcDbLine
 62
7
  6
CONTINUOUS
 10
-74.811272295
 20
11.0661981796
 11
-72.1842198398
 21
11.0661981796
  0
LINE
  5
37A
100
AcDbEntity
  8
ASSI
100
AcDbLine
 62
253
  6
CONTINUOUS
 10
-73.307112358
 20
7.3649797529
 11
-65.7983861548
 21
7.2339144495
  0
LINE
  5
37B
100
AcDbEntity
  8
RACCORDO
100
AcDbLine
 62
253
  6
CONTINUOUS
 10
-73.307112358
 20
7.3649797529
 11
-65.7983861548
 21
7.2339144495
  0
LINE
  5
37C
100
AcDbEntity
  8
ASSI
100
AcDbLine
 62
7
  6
CONTINUOUS
 10
-72.8354096989
 20
8.3565938475
 11
-65.7983861548
 21
8.2337621446
  0
LINE
  5
37D
100
AcDbEntity
  8
RACCORDO
100
AcDbLine
 62
7
  6
CONTINUOUS
 10
-72.8354096989
 20
8.3565938475
 11
-65.7983861548
 21
8.2337621446
  0
LINE
  5
37E
100
AcDbEntity
  8
DRAFT
100
AcDbLine
 62
7
  6
CONTINUOUS
 10
-77.3451487803
 20
1.9531592724
 11
-77.3451487803
 21
-1.9504202204
  0
LINE
  5
37F
100
AcDbEntity
  8
ASSI
100
AcDbLine
 62
253
  6
CONTINUOUS
 10
-77.2983861548
 20
-9.2311753975
 11
-77.2983861548
 21
-17.4319086442
  0
LINE
  5
380
100
AcDbEntity
  8
RACCORDO
100
AcDbLine
 62
253
  6
CONTINUOUS
 10
-77.2983861548
 20
-9.2311753975
 11
-77.2983861548
 21
-17.4319086442
  0
LINE
  5
381
100
AcDbEntity
  8
ASSI
100
AcDbLine
 62
7
  6
CONTINUOUS
 10
-76.807112358
 20
-10.0835099922
 11
-76.807112358
 21
-17.9318324917
  0
LINE
  5
382
100
AcDbEntity
  8
RACCORDO
100
AcDbLine
 62
7
  6
CONTINUOUS
 10
-76.807112358
 20
-10.0835099922
 11
-76.807112358
 21
-17.9318324917
  0
LINE
  5
383
100
AcDbEntity
  8
0
100
AcDbLine
 62
7
  6
CONTINUOUS
 10
-76.7988144284
 20
10.1161981796
 11
-76.7988144284
 21
10.8161981796
  0
LINE
  5
384
100
AcDbEntity
  8
ASSI
100
AcDbLine
 62
7
  6
CONTINUOUS
 10
-76.507112358
 20
-11.248630474
 11
-76.507112358
 21
-15.748630474
  0
LINE
  5
385
100
AcDbEntity
  8
0
100
AcDbLine
 62
7
  6
CONTINUOUS
 10
-76.4498073027
 20
10.8161981796
 11
-76.4498073027
 21
10.5388154184
  0
LINE
  5
386
100
AcDbEntity
  8
0
100
AcDbLine
 62
7
  6
CONTINUOUS
 10
-76.4498073027
 20
10.3935809409
 11
-76.4498073027
 21
10.1161981796
  0
LINE
  5
387
100
AcDbEntity
  8
0
100
AcDbLine
 62
7
  6
CONTINUOUS
 10
-75.657112358
 20
12.4039181613
 11
-75.657112358
 21
11.5563931163
  0
LINE
  5
388
100
AcDbEntity
  8
0
100
AcDbLine
 62
7
  6
CONTINUOUS
 10
-75.657112358
 20
9.3760032429
 11
-75.657112358
 21
8.528478198
  0
LINE
  5
389
100
AcDbEntity
  8
0
100
AcDbLine
 62
7
  6
CONTINUOUS
 10
-74.957112358
 20
12.4039181613
 11
-74.957112358
 21
11.5563931163
  0
LINE
  5
38A
100
AcDbEntity
  8
0
100
AcDbLine
 62
7
  6
CONTINUOUS
 10
-74.957112358
 20
9.3760032429
 11
-74.957112358
 21
8.528478198
  0
LINE
  5
38B
100
AcDbEntity
  8
ASSI
100
AcDbLine
 62
253
  6
CONTINUOUS
 10
-74.7983861548
 20
17.4348000246
 11
-74.7983861548
 21
25.5679390278
  0
LINE
  5
38C
100
AcDbEntity
  8
RACCORDO
100
AcDbLine
 62
253
  6
CONTINUOUS
 10
-74.7983861548
 20
17.4348000246
 11
-74.7983861548
 21
25.5679390278
  0
LINE
  5
38D
100
AcDbEntity
  8
ASSI
100
AcDbLine
 62
7
  6
CONTINUOUS
 10
-74.307112358
 20
17.9347238945
 11
-74.307112358
 21
25.0679722268
  0
LINE
  5
38E
100
AcDbEntity
  8
RACCORDO
100
AcDbLine
 62
7
  6
CONTINUOUS
 10
-74.307112358
 20
17.9347238945
 11
-74.307112358
 21
25.0679722268
  0
LINE
  5
38F
100
AcDbEntity
  8
0
100
AcDbLine
 62
7
  6
CONTINUOUS
 10
-74.1644174133
 20
10.8161981796
 11
-74.1644174133
 21
10.5388154184
  0
LINE
  5
390
100
AcDbEntity
  8
0
100
AcDbLine
 62
7
  6
CONTINUOUS
 10
-74.1644174133
 20
10.3935809409
 11
-74.1644174133
 21
10.1161981796
  0
LINE
  5
391
100
AcDbEntity
  8
0
100
AcDbLine
 62
7
  6
CONTINUOUS
 10
-74.957112358
 20
11.6088931243
 11
-75.2344951193
 21
11.6088931243
  0
LINE
  5
392
100
AcDbEntity
  8
0
100
AcDbLine
 62
7
  6
CONTINUOUS
 10
-75.3797295967
 20
11.6088931243
 11
-75.657112358
 21
11.6088931243
  0
LINE
  5
393
100
AcDbEntity
  8
ASSI
100
AcDbLine
 62
253
  6
CONTINUOUS
 10
-78.0226145328
 20
13.833755075
 11
-73.307112358
 21
13.7514456784
  0
LINE
  5
394
100
AcDbEntity
  8
RACCORDO
100
AcDbLine
 62
253
  6
CONTINUOUS
 10
-78.0226145328
 20
13.833755075
 11
-73.307112358
 21
13.7514456784
  0
LINE
  5
395
100
AcDbEntity
  8
ASSI
100
AcDbLine
 62
7
  6
CONTINUOUS
 10
-76.8524078318
 20
14.3132528887
 11
-73.307112358
 21
14.251369526
  0
LINE
  5
396
100
AcDbEntity
  8
RACCORDO
100
AcDbLine
 62
7
  6
CONTINUOUS
 10
-76.8524078318
 20
14.3132528887
 11
-73.307112358
 21
14.251369526
  0
LINE
  5
397
100
AcDbEntity
  8
0
100
AcDbLine
 62
7
  6
CONTINUOUS
 10
-76.3973072947
 20
10.1161981796
 11
-75.8268358422
 21
9.9464746955
  0
LINE
  5
398
100
AcDbEntity
  8
0
100
AcDbLine
 62
7
  6
CONTINUOUS
 10
-74.2169174213
 20
10.8161981796
 11
-74.7873888738
 21
10.9859216638
  0
LINE
  5
399
100
AcDbEntity
  8
0
100
AcDbLine
 62
7
  6
CONTINUOUS
 10
-73.8154102877
 20
10.1161981796
 11
-73.8154102877
 21
10.8161981796
  0
LINE
  5
39A
100
AcDbEntity
  8
ASSI
100
AcDbLine
 62
7
  6
CONTINUOUS
 10
-73.307112358
 20
14.251369526
 11
-73.307112358
 21
13.0275080972
  0
LINE
  5
39B
100
AcDbEntity
  8
RACCORDO
100
AcDbLine
 62
7
  6
CONTINUOUS
 10
-73.307112358
 20
14.251369526
 11
-73.307112358
 21
13.0275080972
  0
LINE
  5
39C
100
AcDbEntity
  8
ASSI
100
AcDbLine
 62
7
  6
CONTINUOUS
 10
-73.307112358
 20
7.3649797529
 11
-73.307112358
 21
7.904888262
  0
LINE
  5
39D
100
AcDbEntity
  8
RACCORDO
100
AcDbLine
 62
7
  6
CONTINUOUS
 10
-73.307112358
 20
7.3649797529
 11
-73.307112358
 21
7.904888262
  0
LINE
  5
39E
100
AcDbEntity
  8
ASSI
100
AcDbLine
 62
7
  6
CONTINUOUS
 10
-75.332535716
 20
17.4254764089
 11
-74.7983861548
 21
17.4348000242
  0
LINE
  5
39F
100
AcDbEntity
  8
DRAFT
100
AcDbLine
 62
7
  6
CONTINUOUS
 10
-75.332535716
 20
17.4254764089
 11
-74.7983861548
 21
17.4348000242
  0
LINE
  5
3A0
100
AcDbEntity
  8
0
100
AcDbLine
 62
7
  6
CONTINUOUS
 10
-75.657112358
 20
9.3760032429
 11
-75.8268358422
 21
9.9464746955
  0
LINE
  5
3A1
100
AcDbEntity
  8
0
100
AcDbLine
 62
7
  6
CONTINUOUS
 10
-74.7873888738
 20
10.9859216638
 11
-74.957112358
 21
11.5563931163
  0
LINE
  5
3A2
100
AcDbEntity
  8
RACCORDO
100
AcDbLine
 62
7
  6
CONTINUOUS
 10
-67.807112358
 20
0.7663064739
 11
-67.807112358
 21
-2.4811754091
  0
LINE
  5
3A3
100
AcDbEntity
  8
ASSI
100
AcDbLine
 62
7
  6
CONTINUOUS
 10
-66.807112358
 20
-2.498630474
 11
-66.807112358
 21
2.501369526
  0
LINE
  5
3A4
100
AcDbEntity
  8
DRAFT
100
AcDbLine
 62
7
  6
CONTINUOUS
 10
-66.807112358
 20
-2.498630474
 11
-66.807112358
 21
2.501369526
  0
LINE
  5
3A5
100
AcDbEntity
  8
ASSI
100
AcDbLine
 62
253
  6
CONTINUOUS
 10
-65.7983861548
 20
7.2339144495
 11
-65.7983861548
 21
2.5189769074
  0
LINE
  5
3A6
100
AcDbEntity
  8
RACCORDO
100
AcDbLine
 62
253
  6
CONTINUOUS
 10
-65.7983861548
 20
7.2339144495
 11
-65.7983861548
 21
2.5189769074
  0
LINE
  5
3A7
100
AcDbEntity
  8
ASSI
100
AcDbLine
 62
253
  6
CONTINUOUS
 10
-65.7983861548
 20
-2.5162378554
 11
-65.7983861548
 21
-9.0304421508
  0
LINE
  5
3A8
100
AcDbEntity
  8
RACCORDO
100
AcDbLine
 62
253
  6
CONTINUOUS
 10
-65.7983861548
 20
-2.5162378554
 11
-65.7983861548
 21
-9.0304421508
  0
LINE
  5
3A9
100
AcDbEntity
  8
RACCORDO
100
AcDbLine
 62
7
  6
CONTINUOUS
 10
-65.307112358
 20
7.733838297
 11
-65.307112358
 21
2.5275521234
  0
LINE
  5
3AA
100
AcDbEntity
  8
RACCORDO
100
AcDbLine
 62
7
  6
CONTINUOUS
 10
-65.307112358
 20
-2.5248130714
 11
-65.307112358
 21
-6.1862266335
  0
LINE
  5
3AB
100
AcDbEntity
  8
RACCORDO
100
AcDbLine
 62
7
  6
CONTINUOUS
 10
-65.307112358
 20
-7.8110343145
 11
-65.307112358
 21
-9.5303659984
  0
LINE
  5
3AC
100
AcDbEntity
  8
ASSI
100
AcDbLine
 62
7
  6
CONTINUOUS
 10
-65.307112358
 20
-9.5303659984
 11
-65.307112358
 21
7.733838297
  0
LINE
  5
3AD
100
AcDbEntity
  8
DRAFT
100
AcDbLine
 62
7
  6
CONTINUOUS
 10
-65.307112358
 20
-2.5248130714
 11
-65.307112358
 21
2.5275521234
  0
LINE
  5
3AE
100
AcDbEntity
  8
ASSI
100
AcDbLine
 62
7
  6
CONTINUOUS
 10
-65.107112358
 20
-2.448630474
 11
-65.107112358
 21
-3.948630474
  0
LINE
  5
3AF
100
AcDbEntity
  8
0
100
AcDbLine
 62
7
  6
CONTINUOUS
 10
-65.107112358
 20
-2.448630474
 11
-65.107112358
 21
-3.948630474
  0
LINE
  5
3B0
100
AcDbEntity
  8
ASSI
100
AcDbLine
 62
7
  6
CONTINUOUS
 10
-65.107112358
 20
-4.4039384718
 11
-65.107112358
 21
-5.6440978159
  0
LINE
  5
3B1
100
AcDbEntity
  8
0
100
AcDbLine
 62
7
  6
CONTINUOUS
 10
-65.107112358
 20
-4.4039589474
 11
-65.107112358
 21
-5.6442980576
  0
LINE
  5
3B2
100
AcDbEntity
  8
ASSI
100
AcDbLine
 62
7
  6
CONTINUOUS
 10
-83.1706857946
 20
25.7140780616
 11
-74.7983861548
 21
25.5679390278
  0
LINE
  5
3B3
100
AcDbEntity
  8
DRAFT
100
AcDbLine
 62
7
  6
CONTINUOUS
 10
-83.1706857946
 20
25.7140780616
 11
-74.7983861548
 21
25.5679390278
  0
LINE
  5
3B4
100
AcDbEntity
  8
ASSI
100
AcDbLine
 62
253
  6
CONTINUOUS
 10
-85.307112358
 20
25.800516516
 11
-84.1684043115
 21
25.7806402931
  0
LINE
  5
3B5
100
AcDbEntity
  8
RACCORDO
100
AcDbLine
 62
253
  6
CONTINUOUS
 10
-85.307112358
 20
25.800516516
 11
-84.1684043115
 21
25.7806402931
  0
LINE
  5
3B6
100
AcDbEntity
  8
ASSI
100
AcDbLine
 62
7
  6
CONTINUOUS
 10
-85.307112358
 20
26.1004708246
 11
-84.1684043115
 21
26.0805946017
  0
LINE
  5
3B7
100
AcDbEntity
  8
RACCORDO
100
AcDbLine
 62
7
  6
CONTINUOUS
 10
-85.307112358
 20
26.1004708246
 11
-84.1684043115
 21
26.0805946017
  0
LINE
  5
3B8
100
AcDbEntity
  8
ASSI
100
AcDbLine
 62
253
  6
CONTINUOUS
 10
-83.8847882128
 20
25.7151623574
 11
-83.7416551739
 21
25.6484183253
  0
LINE
  5
3B9
100
AcDbEntity
  8
RACCORDO
100
AcDbLine
 62
253
  6
CONTINUOUS
 10
-83.8847882128
 20
25.7151623574
 11
-83.7416551739
 21
25.6484183253
  0
LINE
  5
3BA
100
AcDbEntity
  8
ASSI
100
AcDbLine
 62
7
  6
CONTINUOUS
 10
-83.7632384562
 20
25.9870546935
 11
-83.1152220713
 21
25.6848796907
  0
LINE
  5
3BB
100
AcDbEntity
  8
RACCORDO
100
AcDbLine
 62
7
  6
CONTINUOUS
 10
-83.7632384562
 20
25.9870546935
 11
-83.1152220713
 21
25.6848796907
  0
LINE
  5
3BC
100
AcDbEntity
  8
RACCORDO
100
AcDbLine
 62
253
  6
CONTINUOUS
 10
-91.2426097209
 20
45.1930442207
 11
-85.307112358
 21
45.5041104565
  0
LINE
  5
3BD
100
AcDbEntity
  8
RACCORDO
100
AcDbLine
 62
253
  6
CONTINUOUS
 10
-92.1860791305
 20
45.1930636643
 11
-91.2426095744
 21
45.1930442207
  0
LINE
  5
3BE
100
AcDbEntity
  8
RACCORDO
100
AcDbLine
 62
7
  6
CONTINUOUS
 10
-93.3642508534
 20
47.0791127901
 11
-85.307112358
 21
47.501369526
  0
ARC
  5
3BF
100
AcDbEntity
  8
RACCORDO
100
AcDbCircle
 62
7
  6
CONTINUOUS
 10
-42.5464298243
 20
62.9911187154
 40
77.9905794495
100
AcDbArc
 50
269.5212161821
 51
269.7401293428
  0
ARC
  5
3C0
100
AcDbEntity
  8
RACCORDO
100
AcDbCircle
 62
7
  6
CONTINUOUS
 10
-42.6862754492
 20
-61.2506853519
 40
56.2524657723
100
AcDbArc
 50
90.2178545047
 51
90.5213641775
  0
ARC
  5
3C1
100
AcDbEntity
  8
RACCORDO
100
AcDbCircle
 62
7
  6
CONTINUOUS
 10
-45.1899211539
 20
45.1828472135
 40
2.0026440476
100
AcDbArc
 50
89.9134996924
 51
134.0058830026
  0
ARC
  5
3C2
100
AcDbEntity
  8
RACCORDO
100
AcDbCircle
 62
7
  6
CONTINUOUS
 10
-45.1901697743
 20
-45.1783213201
 40
2.0023790321
100
AcDbArc
 50
224.5277674632
 51
270.1527619356
  0
ARC
  5
3C3
100
AcDbEntity
  8
RACCORDO
100
AcDbCircle
 62
7
  6
CONTINUOUS
 10
-45.1937077176
 20
-45.1839678761
 40
1.9958507524
100
AcDbArc
 50
220.5023594808
 51
224.4834290871
  0
ARC
  5
3C4
100
AcDbEntity
  8
RACCORDO
100
AcDbCircle
 62
7
  6
CONTINUOUS
 10
-45.195555885
 20
45.1904091571
 40
1.9933796208
100
AcDbArc
 50
160.5890836246
 51
179.9242602552
  0
ARC
  5
3C5
100
AcDbEntity
  8
RACCORDO
100
AcDbCircle
 62
7
  6
CONTINUOUS
 10
-45.1961450654
 20
45.1904410579
 40
1.9928133348
100
AcDbArc
 50
138.1506437891
 51
160.5843189412
  0
ARC
  5
3C6
100
AcDbEntity
  8
RACCORDO
100
AcDbCircle
 62
7
  6
CONTINUOUS
 10
-45.1964873708
 20
45.1908948382
 40
1.9922556034
100
AcDbArc
 50
134.03084809
 51
138.1537970766
  0
ARC
  5
3C7
100
AcDbEntity
  8
RACCORDO
100
AcDbCircle
 62
7
  6
CONTINUOUS
 10
-45.1973527345
 20
-45.1872359037
 40
1.9909706075
100
AcDbArc
 50
180.0708512911
 51
199.6085461728
  0
ARC
  5
3C8
100
AcDbEntity
  8
RACCORDO
100
AcDbCircle
 62
7
  6
CONTINUOUS
 10
-45.1980064935
 20
-45.187564613
 40
1.990246047
100
AcDbArc
 50
199.6059480225
 51
220.5040027813
  0
ARC
  5
3C9
100
AcDbEntity
  8
RACCORDO
100
AcDbCircle
 62
253
  6
CONTINUOUS
 10
-43.2239062785
 20
-13.9999267427
 40
1.2047846143
100
AcDbArc
 50
180.0263227265
 51
185.9620749075
  0
ARC
  5
3CA
100
AcDbEntity
  8
RACCORDO
100
AcDbCircle
 62
253
  6
CONTINUOUS
 10
-43.2236082282
 20
-5.996609669
 40
1.2043763304
100
AcDbArc
 50
144.5861924095
 51
179.9982109375
  0
ARC
  5
3CB
100
AcDbEntity
  8
RACCORDO
100
AcDbCircle
 62
253
  6
CONTINUOUS
 10
-43.2264849461
 20
-14.0016752358
 40
1.2020255284
100
AcDbArc
 50
185.891949973
 51
235.4653047902
  0
ARC
  5
3CC
100
AcDbEntity
  8
RACCORDO
100
AcDbCircle
 62
253
  6
CONTINUOUS
 10
-43.2294731383
 20
-5.9915545791
 40
1.1966356199
100
AcDbArc
 50
95.7123573599
 51
144.6207258089
  0
ARC
  5
3CD
100
AcDbEntity
  8
RACCORDO
100
AcDbCircle
 62
253
  6
CONTINUOUS
 10
-43.2310800789
 20
-14.0073455261
 40
1.1947290681
100
AcDbArc
 50
235.4926823416
 51
250.665213414
  0
ARC
  5
3CE
100
AcDbEntity
  8
RACCORDO
100
AcDbCircle
 62
253
  6
CONTINUOUS
 10
-43.2323193119
 20
-14.0109152027
 40
1.1909504267
100
AcDbArc
 50
250.664610398
 51
269.9243634098
  0
ARC
  5
3CF
100
AcDbEntity
  8
RACCORDO
100
AcDbCircle
 62
253
  6
CONTINUOUS
 10
-43.2305409646
 20
-5.9813147457
 40
1.1863098036
100
AcDbArc
 50
90.097156261
 51
95.7102656772
  0
ARC
  5
3D0
100
AcDbEntity
  8
RACCORDO
100
AcDbCircle
 62
7
  6
CONTINUOUS
 10
-43.193769014
 20
-6.0220605389
 40
1.0215404151
100
AcDbArc
 50
90.2451073703
 51
93.2597786786
  0
ARC
  5
3D1
100
AcDbEntity
  8
RACCORDO
100
AcDbCircle
 62
253
  6
CONTINUOUS
 10
-43.2004704451
 20
-14.0009233816
 40
1.0013634678
100
AcDbArc
 50
185.8579521846
 51
222.5867893588
  0
ARC
  5
3D2
100
AcDbEntity
  8
RACCORDO
100
AcDbCircle
 62
253
  6
CONTINUOUS
 10
-43.2006479252
 20
-5.9963509535
 40
1.0011756406
100
AcDbArc
 50
95.6446425057
 51
180.0212502182
  0
ARC
  5
3D3
100
AcDbEntity
  8
RACCORDO
100
AcDbCircle
 62
253
  6
CONTINUOUS
 10
-43.2011685309
 20
-14.0021089585
 40
1.0000519406
100
AcDbArc
 50
222.5638444107
 51
243.4111891645
  0
ARC
  5
3D4
100
AcDbEntity
  8
RACCORDO
100
AcDbCircle
 62
253
  6
CONTINUOUS
 10
-43.2020693547
 20
-14.0002283965
 40
0.9998448201
100
AcDbArc
 50
180.0203011266
 51
185.9069215908
  0
ARC
  5
3D5
100
AcDbEntity
  8
RACCORDO
100
AcDbCircle
 62
253
  6
CONTINUOUS
 10
-43.2017380528
 20
-14.0036185202
 40
0.9984479285
100
AcDbArc
 50
243.4016422587
 51
269.9006208383
  0
ARC
  5
3D6
100
AcDbEntity
  8
RACCORDO
100
AcDbCircle
 62
7
  6
CONTINUOUS
 10
-43.2032618466
 20
-5.9987073366
 40
0.9967464183
100
AcDbArc
 50
139.5420952242
 51
179.9933928989
  0
ARC
  5
3D7
100
AcDbEntity
  8
RACCORDO
100
AcDbCircle
 62
253
  6
CONTINUOUS
 10
-43.201634829
 20
-5.9899171463
 40
0.9946065247
100
AcDbArc
 50
90.0991759592
 51
95.6245205615
  0
ARC
  5
3D8
100
AcDbEntity
  8
RACCORDO
100
AcDbCircle
 62
7
  6
CONTINUOUS
 10
-43.21100618
 20
-5.9911965756
 40
0.9859970195
100
AcDbArc
 50
134.8532161758
 51
139.5821672572
  0
ARC
  5
3D9
100
AcDbEntity
  8
RACCORDO
100
AcDbCircle
 62
7
  6
CONTINUOUS
 10
-43.2170011613
 20
-5.9855440502
 40
0.9777616713
100
AcDbArc
 50
130.9491614364
 51
134.8377899147
  0
ARC
  5
3DA
100
AcDbEntity
  8
RACCORDO
100
AcDbCircle
 62
7
  6
CONTINUOUS
 10
-43.2800581833
 20
-14.0035759473
 40
0.9199420296
100
AcDbArc
 50
180.0389866848
 51
185.7175823533
  0
ARC
  5
3DB
100
AcDbEntity
  8
RACCORDO
100
AcDbCircle
 62
7
  6
CONTINUOUS
 10
-43.8989061189
 20
-6.2253643663
 40
0.7908574738
100
AcDbArc
 50
95.9977176949
 51
99.7028494813
  0
ARC
  5
3DC
100
AcDbEntity
  8
RACCORDO
100
AcDbCircle
 62
7
  6
CONTINUOUS
 10
-43.8989299117
 20
-13.7720845656
 40
0.7906680328
100
AcDbArc
 50
260.4157917554
 51
264.0025736359
  0
ARC
  5
3DD
100
AcDbEntity
  8
RACCORDO
100
AcDbCircle
 62
253
  6
CONTINUOUS
 10
-44.5919541847
 20
2955.5795167909
 40
2960.3717492537
100
AcDbArc
 50
270.1257011966
 51
270.3540208292
  0
ARC
  5
3DE
100
AcDbEntity
  8
RACCORDO
100
AcDbCircle
 62
253
  6
CONTINUOUS
 10
-30.2748705004
 20
-9.8640297642
 40
4.4953870509
100
AcDbArc
 50
77.1269333871
 51
102.3924485378
  0
ARC
  5
3DF
100
AcDbEntity
  8
RACCORDO
100
AcDbCircle
 62
253
  6
CONTINUOUS
 10
-30.2749041385
 20
-10.1334702371
 40
4.4951476063
100
AcDbArc
 50
257.5869324674
 51
282.7947159942
  0
ARC
  5
3E0
100
AcDbEntity
  8
RACCORDO
100
AcDbCircle
 62
253
  6
CONTINUOUS
 10
-26.3126667822
 20
-13.9904697386
 40
1.2622168949
100
AcDbArc
 50
325.1514752555
 51
359.9879531357
  0
ARC
  5
3E1
100
AcDbEntity
  8
RACCORDO
100
AcDbCircle
 62
253
  6
CONTINUOUS
 10
-26.3096827439
 20
-13.992383681
 40
1.2586693562
100
AcDbArc
 50
321.4952773651
 51
325.145357282
  0
ARC
  5
3E2
100
AcDbEntity
  8
RACCORDO
100
AcDbCircle
 62
253
  6
CONTINUOUS
 10
-26.3043932795
 20
-13.9981669415
 40
1.2508881076
100
AcDbArc
 50
274.6347483991
 51
321.5517344997
  0
ARC
  5
3E3
100
AcDbEntity
  8
RACCORDO
100
AcDbCircle
 62
253
  6
CONTINUOUS
 10
-26.2927609989
 20
-5.9776562202
 40
1.2419792498
100
AcDbArc
 50
49.0508785712
 51
90.3542375758
  0
ARC
  5
3E4
100
AcDbEntity
  8
RACCORDO
100
AcDbCircle
 62
253
  6
CONTINUOUS
 10
-26.3029978315
 20
-14.0075155296
 40
1.2414177463
100
AcDbArc
 50
269.7198805553
 51
274.6054184455
  0
ARC
  5
3E5
100
AcDbEntity
  8
RACCORDO
100
AcDbCircle
 62
253
  6
CONTINUOUS
 10
-26.1926578499
 20
-13.9990018292
 40
1.0563498978
100
AcDbArc
 50
269.6017700911
 51
0.0201424201
  0
ARC
  5
3E6
100
AcDbEntity
  8
RACCORDO
100
AcDbCircle
 62
253
  6
CONTINUOUS
 10
-26.1935157535
 20
-5.99957025
 40
1.0531158219
100
AcDbArc
 50
0.0511301474
 51
90.3520431692
  0
ARC
  5
3E7
100
AcDbEntity
  8
DRAFT
100
AcDbCircle
 62
7
  6
CONTINUOUS
 10
-26.1973188729
 20
-5.9993165627
 40
1.03497561
100
AcDbArc
 50
2.0560180865
 51
39.7401724873
  0
ARC
  5
3E8
100
AcDbEntity
  8
DRAFT
100
AcDbCircle
 62
7
  6
CONTINUOUS
 10
-26.1954381596
 20
-5.9996883738
 40
1.0337682055
100
AcDbArc
 50
39.8226580355
 51
90.2528371907
  0
ARC
  5
3E9
100
AcDbEntity
  8
DRAFT
100
AcDbCircle
 62
7
  6
CONTINUOUS
 10
-26.1951526692
 20
-13.9985467151
 40
1.0327919864
100
AcDbArc
 50
269.7310865007
 51
357.9730642604
  0
ARC
  5
3EA
100
AcDbEntity
  8
RACCORDO
100
AcDbCircle
 62
7
  6
CONTINUOUS
 10
-26.3595529234
 20
-13.6974564126
 40
0.8089923532
100
AcDbArc
 50
350.6761950874
 51
356.3743123031
  0
ARC
  5
3EB
100
AcDbEntity
  8
RACCORDO
100
AcDbCircle
 62
7
  6
CONTINUOUS
 10
-26.3589204991
 20
-6.2997611272
 40
0.8083654601
100
AcDbArc
 50
4.70243188
 51
9.3869836885
  0
ARC
  5
3EC
100
AcDbEntity
  8
RACCORDO
100
AcDbCircle
 62
7
  6
CONTINUOUS
 10
-26.3555703959
 20
-6.2991581578
 40
0.8049618734
100
AcDbArc
 50
9.3835324535
 51
28.4472199158
  0
ARC
  5
3ED
100
AcDbEntity
  8
RACCORDO
100
AcDbCircle
 62
7
  6
CONTINUOUS
 10
-26.3553996976
 20
-13.698191565
 40
0.8047748947
100
AcDbArc
 50
331.5820899224
 51
350.6799370794
  0
ARC
  5
3EE
100
AcDbEntity
  8
RACCORDO
100
AcDbCircle
 62
7
  6
CONTINUOUS
 10
-26.3538109188
 20
-13.6978088705
 40
0.8032395527
100
AcDbArc
 50
356.3735019667
 51
359.979980992
  0
ARC
  5
3EF
100
AcDbEntity
  8
RACCORDO
100
AcDbCircle
 62
7
  6
CONTINUOUS
 10
-26.3529134347
 20
-6.2993148631
 40
0.8023420324
100
AcDbArc
 50
0.0102428268
 51
4.7058383171
  0
ARC
  5
3F0
100
AcDbEntity
  8
RACCORDO
100
AcDbCircle
 62
7
  6
CONTINUOUS
 10
-44.3453688034
 20
3628.7248736775
 40
3633.7166458381
100
AcDbArc
 50
270.1436805644
 51
270.2845463223
  0
ARC
  5
3F1
100
AcDbEntity
  8
RACCORDO
100
AcDbCircle
 62
253
  6
CONTINUOUS
 10
0.0
 20
-595.6568843
 40
549.1684914111
100
AcDbArc
 50
89.1486537492
 51
90.8513462508
  0
ARC
  5
3F2
100
AcDbEntity
  8
RACCORDO
100
AcDbCircle
 62
7
  6
CONTINUOUS
 10
43.5592617609
 20
-3138.4811729268
 40
3123.4741871166
100
AcDbArc
 50
90.1523461057
 51
90.2957996762
  0
ARC
  5
3F3
100
AcDbEntity
  8
RACCORDO
100
AcDbCircle
 62
253
  6
CONTINUOUS
 10
30.2748704728
 20
-10.1332303832
 40
4.4953878463
100
AcDbArc
 50
257.1227032081
 51
282.3959426358
  0
ARC
  5
3F4
100
AcDbEntity
  8
RACCORDO
100
AcDbCircle
 62
253
  6
CONTINUOUS
 10
30.2749038351
 20
-9.8637919744
 40
4.495148857
100
AcDbArc
 50
77.5835998396
 51
102.7997491174
  0
ARC
  5
3F5
100
AcDbEntity
  8
RACCORDO
100
AcDbCircle
 62
253
  6
CONTINUOUS
 10
26.3024371124
 20
-5.9858745406
 40
1.254875703
100
AcDbArc
 50
145.3806997471
 51
180.0489723073
  0
ARC
  5
3F6
100
AcDbEntity
  8
RACCORDO
100
AcDbCircle
 62
253
  6
CONTINUOUS
 10
26.3035962701
 20
-14.0001799344
 40
1.248774417
100
AcDbArc
 50
228.8620682505
 51
270.2510176121
  0
ARC
  5
3F7
100
AcDbEntity
  8
RACCORDO
100
AcDbCircle
 62
253
  6
CONTINUOUS
 10
26.2932276006
 20
-5.9789531411
 40
1.2433204979
100
AcDbArc
 50
94.6892232879
 51
145.4020731016
  0
ARC
  5
3F8
100
AcDbEntity
  8
RACCORDO
100
AcDbCircle
 62
253
  6
CONTINUOUS
 10
26.2927626522
 20
-5.9746725737
 40
1.2389831867
100
AcDbArc
 50
89.6449838252
 51
94.683976823
  0
ARC
  5
3F9
100
AcDbEntity
  8
RACCORDO
100
AcDbCircle
 62
253
  6
CONTINUOUS
 10
26.1926662452
 20
-13.9989958298
 40
1.0563562428
100
AcDbArc
 50
179.9801831486
 51
270.3980937959
  0
ARC
  5
3FA
100
AcDbEntity
  8
RACCORDO
100
AcDbCircle
 62
253
  6
CONTINUOUS
 10
26.1935088107
 20
-5.9995650466
 40
1.0531106473
100
AcDbArc
 50
89.6485353107
 51
179.9491526147
  0
ARC
  5
3FB
100
AcDbEntity
  8
DRAFT
100
AcDbCircle
 62
7
  6
CONTINUOUS
 10
26.1973188729
 20
-13.9979443854
 40
1.03497561
100
AcDbArc
 50
182.0560180865
 51
219.7401724873
  0
ARC
  5
3FC
100
AcDbEntity
  8
DRAFT
100
AcDbCircle
 62
7
  6
CONTINUOUS
 10
26.1954381596
 20
-13.9975725743
 40
1.0337682055
100
AcDbArc
 50
219.8226580355
 51
270.2528371907
  0
ARC
  5
3FD
100
AcDbEntity
  8
DRAFT
100
AcDbCircle
 62
7
  6
CONTINUOUS
 10
26.1951536562
 20
-5.9987154395
 40
1.0327936524
100
AcDbArc
 50
89.7311415714
 51
177.9729993023
  0
ARC
  5
3FE
100
AcDbEntity
  8
RACCORDO
100
AcDbCircle
 62
7
  6
CONTINUOUS
 10
26.3847926545
 20
-6.2998020302
 40
0.8099139518
100
AcDbArc
 50
170.687076935
 51
176.3791026193
  0
ARC
  5
3FF
100
AcDbEntity
  8
RACCORDO
100
AcDbCircle
 62
7
  6
CONTINUOUS
 10
26.3841539084
 20
-13.6975033057
 40
0.8092806522
100
AcDbArc
 50
184.6968548117
 51
189.3760230436
  0
ARC
  5
400
100
AcDbEntity
  8
RACCORDO
100
AcDbCircle
 62
7
  6
CONTINUOUS
 10
26.3806411004
 20
-13.6979358206
 40
0.8057605513
100
AcDbArc
 50
189.3725853051
 51
208.4175847049
  0
ARC
  5
401
100
AcDbEntity
  8
RACCORDO
100
AcDbCircle
 62
7
  6
CONTINUOUS
 10
26.3804947184
 20
-6.2992678373
 40
0.8056045323
100
AcDbArc
 50
151.61172276
 51
170.6907903782
  0
ARC
  5
402
100
AcDbEntity
  8
RACCORDO
100
AcDbCircle
 62
7
  6
CONTINUOUS
 10
26.3791170948
 20
-6.2994545835
 40
0.8042277791
100
AcDbArc
 50
176.3782702023
 51
179.9798270574
  0
ARC
  5
403
100
AcDbEntity
  8
RACCORDO
100
AcDbCircle
 62
7
  6
CONTINUOUS
 10
26.3782159106
 20
-13.6979434164
 40
0.8033265583
100
AcDbArc
 50
180.010420602
 51
184.7002493027
  0
ARC
  5
404
100
AcDbEntity
  8
RACCORDO
100
AcDbCircle
 62
7
  6
CONTINUOUS
 10
42.5464297157
 20
-82.9883796625
 40
77.9905794491
100
AcDbArc
 50
89.5212161024
 51
89.7401292631
  0
ARC
  5
405
100
AcDbEntity
  8
RACCORDO
100
AcDbCircle
 62
7
  6
CONTINUOUS
 10
42.6862753842
 20
41.2534244038
 40
56.2524657727
100
AcDbArc
 50
270.2178545709
 51
270.5213642437
  0
ARC
  5
406
100
AcDbEntity
  8
RACCORDO
100
AcDbCircle
 62
7
  6
CONTINUOUS
 10
45.18994064
 20
45.1830577829
 40
2.0024499935
100
AcDbArc
 50
44.4944247161
 51
90.0870669481
  0
ARC
  5
407
100
AcDbEntity
  8
RACCORDO
100
AcDbCircle
 62
7
  6
CONTINUOUS
 10
45.1904197022
 20
-45.1789471043
 40
2.0017128967
100
AcDbArc
 50
269.8400367862
 51
318.0900671874
  0
ARC
  5
408
100
AcDbEntity
  8
RACCORDO
100
AcDbCircle
 62
7
  6
CONTINUOUS
 10
45.192382303
 20
45.1871741143
 40
1.9977874259
100
AcDbArc
 50
40.4831778281
 51
44.4592910011
  0
ARC
  5
409
100
AcDbEntity
  8
RACCORDO
100
AcDbCircle
 62
7
  6
CONTINUOUS
 10
45.1966027216
 20
45.1907014812
 40
1.9922875899
100
AcDbArc
 50
0.0720122146
 51
40.484819868
  0
ARC
  5
40A
100
AcDbEntity
  8
RACCORDO
100
AcDbCircle
 62
7
  6
CONTINUOUS
 10
45.1964846384
 20
-45.1870999076
 40
1.9918435706
100
AcDbArc
 50
340.585130459
 51
359.9252676562
  0
ARC
  5
40B
100
AcDbEntity
  8
RACCORDO
100
AcDbCircle
 62
7
  6
CONTINUOUS
 10
45.1975309493
 20
-45.1872942575
 40
1.9907921603
100
AcDbArc
 50
318.1321405625
 51
340.5803960439
  0
ARC
  5
40C
100
AcDbEntity
  8
RACCORDO
100
AcDbCircle
 62
253
  6
CONTINUOUS
 10
43.2242930658
 20
-14.0006910363
 40
1.2043931587
100
AcDbArc
 50
325.5518948211
 51
0.0100277803
  0
ARC
  5
40D
100
AcDbEntity
  8
RACCORDO
100
AcDbCircle
 62
253
  6
CONTINUOUS
 10
43.2251740202
 20
-5.9959030926
 40
1.2026704862
100
AcDbArc
 50
5.570441659
 51
54.5027621007
  0
ARC
  5
40E
100
AcDbEntity
  8
RACCORDO
100
AcDbCircle
 62
253
  6
CONTINUOUS
 10
43.2277641478
 20
-5.9970077175
 40
1.2002252313
100
AcDbArc
 50
0.020797181
 51
5.6349269841
  0
ARC
  5
40F
100
AcDbEntity
  8
RACCORDO
100
AcDbCircle
 62
253
  6
CONTINUOUS
 10
43.2295341023
 20
-5.9906328919
 40
1.1958286899
100
AcDbArc
 50
54.5262164074
 51
70.1093022024
  0
ARC
  5
410
100
AcDbEntity
  8
RACCORDO
100
AcDbCircle
 62
253
  6
CONTINUOUS
 10
43.2311075266
 20
-14.0065064742
 40
1.1954384093
100
AcDbArc
 50
276.0471625635
 51
325.5969927481
  0
ARC
  5
411
100
AcDbEntity
  8
RACCORDO
100
AcDbCircle
 62
253
  6
CONTINUOUS
 10
43.2307149768
 20
-5.9872680156
 40
1.192262786
100
AcDbArc
 50
70.1076493577
 51
89.9116905741
  0
ARC
  5
412
100
AcDbEntity
  8
RACCORDO
100
AcDbCircle
 62
253
  6
CONTINUOUS
 10
43.2317882649
 20
-14.0126050917
 40
1.1892613629
100
AcDbArc
 50
270.1013291141
 51
276.0455014487
  0
ARC
  5
413
100
AcDbEntity
  8
RACCORDO
100
AcDbCircle
 62
7
  6
CONTINUOUS
 10
43.193769014
 20
-13.9752004092
 40
1.0215404151
100
AcDbArc
 50
270.2451073703
 51
273.2597786786
  0
ARC
  5
414
100
AcDbEntity
  8
RACCORDO
100
AcDbCircle
 62
253
  6
CONTINUOUS
 10
43.2002066153
 20
-5.9965288487
 40
1.0016108422
100
AcDbArc
 50
5.5243185052
 51
45.9015477734
  0
ARC
  5
415
100
AcDbEntity
  8
RACCORDO
100
AcDbCircle
 62
253
  6
CONTINUOUS
 10
43.2006526428
 20
-14.0009852916
 40
1.0012126947
100
AcDbArc
 50
275.9874513146
 51
0.0230397534
  0
ARC
  5
416
100
AcDbEntity
  8
RACCORDO
100
AcDbCircle
 62
253
  6
CONTINUOUS
 10
43.2010431269
 20
-5.995435627
 40
1.0002497599
100
AcDbArc
 50
45.892381072
 51
66.4710492381
  0
ARC
  5
417
100
AcDbEntity
  8
RACCORDO
100
AcDbCircle
 62
253
  6
CONTINUOUS
 10
43.2030266781
 20
-5.9969222305
 40
0.9988434478
100
AcDbArc
 50
0.0114689446
 51
5.5623517234
  0
ARC
  5
418
100
AcDbEntity
  8
RACCORDO
100
AcDbCircle
 62
253
  6
CONTINUOUS
 10
43.2017533007
 20
-5.9935286449
 40
0.9982183191
100
AcDbArc
 50
66.4647261527
 51
89.9079827457
  0
ARC
  5
419
100
AcDbEntity
  8
RACCORDO
100
AcDbCircle
 62
7
  6
CONTINUOUS
 10
43.2032617382
 20
-13.998553905
 40
0.9967463917
100
AcDbArc
 50
319.5421121079
 51
359.9934097771
  0
ARC
  5
41A
100
AcDbEntity
  8
RACCORDO
100
AcDbCircle
 62
253
  6
CONTINUOUS
 10
43.2015270954
 20
-14.0067671212
 40
0.9952970228
100
AcDbArc
 50
270.1118377261
 51
275.9721054691
  0
ARC
  5
41B
100
AcDbEntity
  8
RACCORDO
100
AcDbCircle
 62
7
  6
CONTINUOUS
 10
43.21100618
 20
-14.0060643724
 40
0.9859970195
100
AcDbArc
 50
314.8532161758
 51
319.5821672572
  0
ARC
  5
41C
100
AcDbEntity
  8
RACCORDO
100
AcDbCircle
 62
7
  6
CONTINUOUS
 10
43.2170011613
 20
-14.0117168978
 40
0.9777616713
100
AcDbArc
 50
310.9491614364
 51
314.8377899146
  0
ARC
  5
41D
100
AcDbEntity
  8
RACCORDO
100
AcDbCircle
 62
7
  6
CONTINUOUS
 10
43.2800581833
 20
-5.9936850007
 40
0.9199420296
100
AcDbArc
 50
0.0389866848
 51
5.7175823533
  0
ARC
  5
41E
100
AcDbEntity
  8
RACCORDO
100
AcDbCircle
 62
7
  6
CONTINUOUS
 10
43.9040258023
 20
-13.7710581986
 40
0.7916908199
100
AcDbArc
 50
275.9910657089
 51
279.2748097848
  0
ARC
  5
41F
100
AcDbEntity
  8
RACCORDO
100
AcDbCircle
 62
7
  6
CONTINUOUS
 10
43.9040501376
 20
-6.2260064557
 40
0.7914930582
100
AcDbArc
 50
80.8466812907
 51
84.0092031845
  0
ARC
  5
420
100
AcDbEntity
  8
RACCORDO
100
AcDbCircle
 62
253
  6
CONTINUOUS
 10
44.5293444796
 20
2945.102502443
 40
2949.8945390082
100
AcDbArc
 50
269.6459378636
 51
269.8607872616
  0
ARC
  5
421
100
AcDbEntity
  8
RACCORDO
100
AcDbCircle
 62
253
  6
CONTINUOUS
 10
-0.0000355986
 20
9638.2131770515
 40
9591.1340776861
100
AcDbArc
 50
269.7300604873
 51
270.269939938
  0
ARC
  5
422
100
AcDbEntity
  8
RACCORDO
100
AcDbCircle
 62
7
  6
CONTINUOUS
 10
44.455540987
 20
3655.2654153093
 40
3660.2574047529
100
AcDbArc
 50
269.7157927172
 51
269.8591357031
  0
ARC
  5
423
100
AcDbEntity
  8
0
100
AcDbCircle
 62
7
  6
CONTINUOUS
 10
-75.307112358
 20
-1.9658107608
 40
14.3739907227
100
AcDbArc
 50
88.6047364739
 51
91.3952635261
  0
ARC
  5
424
100
AcDbEntity
  8
RACCORDO
100
AcDbCircle
 62
253
  6
CONTINUOUS
 10
-101.502925407
 20
-5.9894668272
 40
9.0849821438
100
AcDbArc
 50
359.9551897934
 51
0.6949977445
  0
ARC
  5
425
100
AcDbEntity
  8
RACCORDO
100
AcDbCircle
 62
253
  6
CONTINUOUS
 10
-101.2140905683
 20
-5.9859869713
 40
8.7961263445
100
AcDbArc
 50
0.6951532958
 51
1.4276208917
  0
ARC
  5
426
100
AcDbEntity
  8
RACCORDO
100
AcDbCircle
 62
253
  6
CONTINUOUS
 10
-100.9523297654
 20
-5.9794859553
 40
8.5342848263
100
AcDbArc
 50
1.4277722066
 51
2.1504194611
  0
ARC
  5
427
100
AcDbEntity
  8
RACCORDO
100
AcDbCircle
 62
253
  6
CONTINUOUS
 10
-99.5397966807
 20
-5.9214797909
 40
7.1205716615
100
AcDbArc
 50
2.1104869462
 51
3.7400799869
  0
ARC
  5
428
100
AcDbEntity
  8
ASSI
100
AcDbCircle
 62
7
  6
CONTINUOUS
 10
-91.499327234
 20
-7.9986304158
 40
1.500000869
100
AcDbArc
 50
143.6904004716
 51
218.3487595287
  0
ARC
  5
429
100
AcDbEntity
  8
ASSI
100
AcDbCircle
 62
7
  6
CONTINUOUS
 10
-91.4993535826
 20
-11.9986027449
 40
1.4999629646
100
AcDbArc
 50
141.651445356
 51
218.3490865563
  0
ARC
  5
42A
100
AcDbEntity
  8
ASSI
100
AcDbCircle
 62
7
  6
CONTINUOUS
 10
-91.4996200124
 20
-7.9983977856
 40
1.4996273483
100
AcDbArc
 50
141.6509012495
 51
143.6909108929
  0
ARC
  5
42B
100
AcDbEntity
  8
RACCORDO
100
AcDbCircle
 62
253
  6
CONTINUOUS
 10
-91.3315900066
 20
-11.3437323903
 40
1.3726544811
100
AcDbArc
 50
167.251141024
 51
168.375937231
  0
ARC
  5
42C
100
AcDbEntity
  8
RACCORDO
100
AcDbCircle
 62
253
  6
CONTINUOUS
 10
-91.3331506438
 20
-8.6534206597
 40
1.3711348855
100
AcDbArc
 50
191.6411096516
 51
192.7336345907
  0
ARC
  5
42D
100
AcDbEntity
  8
RACCORDO
100
AcDbCircle
 62
253
  6
CONTINUOUS
 10
-91.3338134016
 20
-7.3435309055
 40
1.3704255219
100
AcDbArc
 50
167.2589238629
 51
168.3649598284
  0
ARC
  5
42E
100
AcDbEntity
  8
RACCORDO
100
AcDbCircle
 62
253
  6
CONTINUOUS
 10
-91.336165884
 20
-12.6538377008
 40
1.3680927802
100
AcDbArc
 50
191.6502592049
 51
192.7352218934
  0
ARC
  5
42F
100
AcDbEntity
  8
ASSI
100
AcDbCircle
 62
7
  6
CONTINUOUS
 10
-64.357112358
 20
-6.998630474
 40
1.25
100
AcDbArc
 50
139.4641978887
 51
220.5358021113
  0
ARC
  5
430
100
AcDbEntity
  8
RACCORDO
100
AcDbCircle
 62
253
  6
CONTINUOUS
 10
-97.1954471781
 20
-6.2994126269
 40
1.1401022733
100
AcDbArc
 50
177.3143759779
 51
179.9878785424
  0
ARC
  5
431
100
AcDbEntity
  8
RACCORDO
100
AcDbCircle
 62
253
  6
CONTINUOUS
 10
-97.6616065093
 20
-5.9735819496
 40
1.1384013212
100
AcDbArc
 50
139.9919406018
 51
143.2367480902
  0
ARC
  5
432
100
AcDbEntity
  8
RACCORDO
100
AcDbCircle
 62
253
  6
CONTINUOUS
 10
-97.2009432882
 20
-13.698087051
 40
1.1346061377
100
AcDbArc
 50
180.0001247016
 51
182.7088787766
  0
ARC
  5
433
100
AcDbEntity
  8
RACCORDO
100
AcDbCircle
 62
7
  6
CONTINUOUS
 10
-111.2996036002
 20
-45.135049384
 40
1.0
100
AcDbArc
 50
179.6271515957
 51
266.9999999765
  0
ARC
  5
434
100
AcDbEntity
  8
RACCORDO
100
AcDbCircle
 62
253
  6
CONTINUOUS
 10
-93.8599055978
 20
-6.233441747
 40
0.8701199398
100
AcDbArc
 50
61.9574933211
 51
68.4610571998
  0
ARC
  5
435
100
AcDbEntity
  8
ASSI
100
AcDbCircle
 62
7
  6
CONTINUOUS
 10
-77.307112358
 20
-17.9318254639
 40
0.5
100
AcDbArc
 50
270.9999859461
 51
359.9991946667
  0
ARC
  5
436
100
AcDbEntity
  8
ASSI
100
AcDbCircle
 62
7
  6
CONTINUOUS
 10
-65.807112358
 20
-9.5303659984
 40
0.5
100
AcDbArc
 50
271.0
 51
360.0
  0
ARC
  5
437
100
AcDbEntity
  8
RACCORDO
100
AcDbCircle
 62
7
  6
CONTINUOUS
 10
-77.307112358
 20
-17.9318254639
 40
0.5
100
AcDbArc
 50
270.9999859461
 51
359.9991946667
  0
ARC
  5
438
100
AcDbEntity
  8
RACCORDO
100
AcDbCircle
 62
7
  6
CONTINUOUS
 10
-65.807112358
 20
-9.5303659984
 40
0.5
100
AcDbArc
 50
271.0
 51
360.0
  0
ARC
  5
439
100
AcDbEntity
  8
RACCORDO
100
AcDbCircle
 62
253
  6
CONTINUOUS
 10
-92.3161245371
 20
-14.3990895268
 40
0.1513805802
100
AcDbArc
 50
179.9868022076
 51
215.1380801739
  0
ARC
  5
43A
100
AcDbEntity
  8
RACCORDO
100
AcDbCircle
 62
253
  6
CONTINUOUS
 10
-92.3164084751
 20
-5.5980986473
 40
0.1511033584
100
AcDbArc
 50
140.9973597672
 51
180.0408166325
  0
ARC
  5
43B
100
AcDbEntity
  8
ASSI
100
AcDbCircle
 62
7
  6
CONTINUOUS
 10
-84.1858567179
 20
25.0807469065
 40
1.0
100
AcDbArc
 50
65.0
 51
89.0
  0
ARC
  5
43C
100
AcDbEntity
  8
RACCORDO
100
AcDbCircle
 62
7
  6
CONTINUOUS
 10
-84.1858567179
 20
25.0807469065
 40
1.0
100
AcDbArc
 50
65.0
 51
89.0
  0
ARC
  5
43D
100
AcDbEntity
  8
RACCORDO
100
AcDbCircle
 62
7
  6
CONTINUOUS
 10
-93.3125241506
 20
46.0804513257
 40
1.0
100
AcDbArc
 50
93.0
 51
179.3429087652
  0
ARC
  5
43E
100
AcDbEntity
  8
ASSI
100
AcDbCircle
 62
253
  6
CONTINUOUS
 10
-84.1806078979
 20
25.0808036407
 40
0.699943046
100
AcDbArc
 50
64.9990090323
 51
89.0009909677
  0
ARC
  5
43F
100
AcDbEntity
  8
RACCORDO
100
AcDbCircle
 62
253
  6
CONTINUOUS
 10
-84.1806078979
 20
25.0808036407
 40
0.699943046
100
AcDbArc
 50
64.9990090323
 51
89.0009909677
  0
ARC
  5
440
100
AcDbEntity
  8
0
100
AcDbCircle
 62
7
  6
CONTINUOUS
 10
-75.307112358
 20
22.8982071201
 40
14.3739907227
100
AcDbArc
 50
268.6047364739
 51
271.3952635261
  0
CIRCLE
  5
441
100
AcDbEntity
  8
0
100
AcDbCircle
 62
7
  6
CONTINUOUS
 10
-75.307112358
 20
10.4661981796
 40
3.25
  0
ARC
  5
442
100
AcDbEntity
  8
0
100
AcDbCircle
 62
7
  6
CONTINUOUS
 10
-75.307112358
 20
10.4661981796
 40
3.1800090692
100
AcDbArc
 50
169.1243149002
 51
190.8756850998
  0
ARC
  5
443
100
AcDbEntity
  8
0
100
AcDbCircle
 62
7
  6
CONTINUOUS
 10
-75.307112358
 20
10.4661981796
 40
3.1800090692
100
AcDbArc
 50
349.1243149002
 51
10.8756850998
  0
ARC
  5
444
100
AcDbEntity
  8
0
100
AcDbCircle
 62
253
  6
CONTINUOUS
 10
-75.307112358
 20
10.4661981796
 40
3.1554439925
100
AcDbArc
 50
190.9613962005
 51
349.0386037995
  0
ARC
  5
445
100
AcDbEntity
  8
0
100
AcDbCircle
 62
253
  6
CONTINUOUS
 10
-75.307112358
 20
10.4661981796
 40
3.1554439925
100
AcDbArc
 50
10.9613962005
 51
169.0386037995
  0
ARC
  5
446
100
AcDbEntity
  8
0
100
AcDbCircle
 62
253
  6
CONTINUOUS
 10
-75.307112358
 20
10.4661981796
 40
3.0500528323
100
AcDbArc
 50
191.3450962605
 51
348.6549037395
  0
ARC
  5
447
100
AcDbEntity
  8
0
100
AcDbCircle
 62
253
  6
CONTINUOUS
 10
-75.307112358
 20
10.4661981796
 40
3.0500528323
100
AcDbArc
 50
11.3450962605
 51
168.6549037395
  0
ARC
  5
448
100
AcDbEntity
  8
RACCORDO
100
AcDbCircle
 62
7
  6
CONTINUOUS
 10
-69.807112358
 20
0.7663064739
 40
2.0
100
AcDbArc
 50
0.0
 51
58.2922840303
  0
ARC
  5
449
100
AcDbEntity
  8
0
100
AcDbCircle
 62
7
  6
CONTINUOUS
 10
-75.307112358
 20
10.4661981796
 40
1.145
100
AcDbArc
 50
266.3637942714
 51
273.6362057286
  0
ARC
  5
44A
100
AcDbEntity
  8
0
100
AcDbCircle
 62
7
  6
CONTINUOUS
 10
-75.307112358
 20
10.4661981796
 40
1.145
100
AcDbArc
 50
86.3637942714
 51
93.6362057286
  0
ARC
  5
44B
100
AcDbEntity
  8
0
100
AcDbCircle
 62
7
  6
CONTINUOUS
 10
-75.307112358
 20
10.4661981796
 40
1.145
100
AcDbArc
 50
356.3637942714
 51
3.6362057286
  0
ARC
  5
44C
100
AcDbEntity
  8
0
100
AcDbCircle
 62
7
  6
CONTINUOUS
 10
-75.307112358
 20
10.4661981796
 40
1.145
100
AcDbArc
 50
176.3637942714
 51
183.6362057286
  0
ARC
  5
44D
100
AcDbEntity
  8
ASSI
100
AcDbCircle
 62
7
  6
CONTINUOUS
 10
-75.348476993
 20
18.2271300098
 40
0.8014295819
100
AcDbArc
 50
271.1392449936
 51
271.5388863721
  0
ARC
  5
44E
100
AcDbEntity
  8
DRAFT
100
AcDbCircle
 62
7
  6
CONTINUOUS
 10
-75.348476993
 20
18.2271300098
 40
0.8014295819
100
AcDbArc
 50
271.1392449936
 51
271.5388863721
  0
ARC
  5
44F
100
AcDbEntity
  8
ASSI
100
AcDbCircle
 62
7
  6
CONTINUOUS
 10
-74.807112358
 20
17.9347238718
 40
0.5
100
AcDbArc
 50
271.0
 51
360.0
  0
ARC
  5
450
100
AcDbEntity
  8
ASSI
100
AcDbCircle
 62
7
  6
CONTINUOUS
 10
-65.807112358
 20
7.733838297
 40
0.5
100
AcDbArc
 50
0.0
 51
89.0
  0
ARC
  5
451
100
AcDbEntity
  8
RACCORDO
100
AcDbCircle
 62
7
  6
CONTINUOUS
 10
-74.807112358
 20
17.9347238718
 40
0.5
100
AcDbArc
 50
271.0
 51
360.0
  0
ARC
  5
452
100
AcDbEntity
  8
RACCORDO
100
AcDbCircle
 62
7
  6
CONTINUOUS
 10
-65.807112358
 20
7.733838297
 40
0.5
100
AcDbArc
 50
0.0
 51
89.0
  0
ARC
  5
453
100
AcDbEntity
  8
ASSI
100
AcDbCircle
 62
7
  6
CONTINUOUS
 10
-74.807112358
 20
25.0680151802
 40
0.5
100
AcDbArc
 50
0.0
 51
89.0
  0
ARC
  5
454
100
AcDbEntity
  8
RACCORDO
100
AcDbCircle
 62
7
  6
CONTINUOUS
 10
-74.807112358
 20
25.0680151802
 40
0.5
100
AcDbArc
 50
0.0
 51
89.0
  0
ARC
  5
455
100
AcDbEntity
  8
RACCORDO
100
AcDbCircle
 62
253
  6
CONTINUOUS
 10
245.3678163313
 20
-29.7461009163
 40
345.1880597798
100
AcDbArc
 50
176.1728998812
 51
176.2914487526
  0
ARC
  5
456
100
AcDbEntity
  8
RACCORDO
100
AcDbCircle
 62
253
  6
CONTINUOUS
 10
237.0451299896
 20
-29.1893272011
 40
336.8467706161
100
AcDbArc
 50
176.0502754802
 51
176.1729045468
  0
ARC
  5
457
100
AcDbEntity
  8
RACCORDO
100
AcDbCircle
 62
253
  6
CONTINUOUS
 10
234.1817881619
 20
-29.21839779
 40
333.8251593373
100
AcDbArc
 50
176.0114756359
 51
176.1353247856
  0
SPLINE
  5
458
100
AcDbEntity
  8
RACCORDO
100
AcDbSpline
 62
7
  6
CONTINUOUS
 70
0
 71
3
 72
9
 73
5
 74
3
 42
0.0000001
 43
0.0000001
 44
0.0000000001
 12
-0.1217435918
 22
-0.0084604726
 32
0.0
 13
-0.1220371536
 23
0.0001219799
 33
0.0
 40
0.0
 40
0.0
 40
0.0
 40
0.0
 40
0.5187317293
 40
1.0
 40
1.0
 40
1.0
 40
1.0
 10
43.9921503061
 20
-14.5572256233
 30
0.0
 10
43.9710995514
 20
-14.5586885285
 30
0.0
 10
43.9305450822
 20
-14.5621445828
 30
0.0
 10
43.8898376511
 20
-14.5624140756
 30
0.0
 10
43.8702601144
 20
-14.5623945072
 30
0.0
 11
43.9921503061
 21
-14.5572256233
 31
0.0
 11
43.9289846121
 21
-14.5614166102
 31
0.0
 11
43.8702601144
 21
-14.5623945072
 31
0.0
  0
SPLINE
  5
459
100
AcDbEntity
  8
RACCORDO
100
AcDbSpline
 62
7
  6
CONTINUOUS
 70
0
 71
3
 72
9
 73
5
 74
3
 42
0.0000001
 43
0.0000001
 44
0.0000000001
 12
0.1220211121
 22
0.0001219638
 32
0.0
 13
0.1217275891
 23
-0.0084593576
 33
0.0
 40
0.0
 40
0.0
 40
0.0
 40
0.0
 40
0.4813246642
 40
1.0
 40
1.0
 40
1.0
 40
1.0
 10
43.8702601144
 20
-5.4348664408
 30
0.0
 10
43.8898373714
 20
-5.4348468727
 30
0.0
 10
43.9305393649
 20
-5.4351175952
 30
0.0
 10
43.9710887958
 20
-5.4385687662
 30
0.0
 10
43.9921344952
 20
-5.4400313195
 30
0.0
 11
43.8702601144
 21
-5.4348664408
 31
0.0
 11
43.9289837734
 21
-5.435844309
 31
0.0
 11
43.9921344952
 21
-5.4400313195
 31
0.0
  0
SPLINE
  5
45A
100
AcDbEntity
  8
RACCORDO
100
AcDbSpline
 62
7
  6
CONTINUOUS
 70
0
 71
3
 72
11
 73
7
 74
5
 42
0.0000001
 43
0.0000001
 44
0.0000000001
 12
-0.8533348337
 22
-0.0034019403
 32
0.0
 13
-0.4067952017
 23
-0.7525694302
 33
0.0
 40
0.0
 40
0.0
 40
0.0
 40
0.0
 40
0.2558432239
 40
0.5099322776
 40
0.7585375355
 40
1.0
 40
1.0
 40
1.0
 40
1.0
 10
26.3707211507
 20
-5.4960136545
 30
0.0
 10
26.297947839
 20
-5.4963037756
 30
0.0
 10
26.1521909716
 20
-5.5171319502
 30
0.0
 10
25.9525694212
 20
-5.6055857
 30
0.0
 10
25.7868114301
 20
-5.7412528302
 30
0.0
 10
25.7045093843
 20
-5.8556753939
 30
0.0
 10
25.6717674603
 20
-5.916247817
 30
0.0
 11
26.3707211507
 21
-5.4960136545
 31
0.0
 11
26.1545994477
 21
-5.5269290394
 31
0.0
 11
25.9563174651
 21
-5.6146629175
 31
0.0
 11
25.7921322134
 21
-5.7490087184
 31
0.0
 11
25.6717674603
 21
-5.916247817
 31
0.0
  0
SPLINE
  5
45B
100
AcDbEntity
  8
RACCORDO
100
AcDbSpline
 62
7
  6
CONTINUOUS
 70
0
 71
3
 72
11
 73
7
 74
5
 42
0.0000001
 43
0.0000001
 44
0.0000000001
 12
0.4069789732
 22
-0.7519605591
 32
0.0
 13
0.8529071012
 23
-0.0034298262
 33
0.0
 40
0.0
 40
0.0
 40
0.0
 40
0.0
 40
0.2413981656
 40
0.4899147429
 40
0.7440910198
 40
1.0
 40
1.0
 40
1.0
 40
1.0
 10
25.6719726351
 20
-14.0813925617
 30
0.0
 10
25.7047206276
 20
-14.1418998616
 30
0.0
 10
25.7870061825
 20
-14.2561928166
 30
0.0
 10
25.9526924737
 20
-14.3917390201
 30
0.0
 10
26.1522385714
 20
-14.4801396204
 30
0.0
 10
26.2979656202
 20
-14.5009547191
 30
0.0
 10
26.370721149
 20
-14.5012472935
 30
0.0
 11
25.6719726351
 21
-14.0813925617
 31
0.0
 11
25.7923181357
 21
-14.2484507086
 31
0.0
 11
25.956392699
 21
-14.3826444655
 31
0.0
 11
26.1546511784
 21
-14.4703467923
 31
0.0
 11
26.370721149
 21
-14.5012472935
 31
0.0
  0
SPLINE
  5
45C
100
AcDbEntity
  8
RACCORDO
100
AcDbSpline
 62
7
  6
CONTINUOUS
 70
0
 71
3
 72
12
 73
8
 74
6
 42
0.0000001
 43
0.0000001
 44
0.0000000001
 12
-0.9624071489
 22
0.0046515515
 32
0.0
 13
-0.3383967961
 23
0.9009643531
 33
0.0
 40
0.0
 40
0.0
 40
0.0
 40
0.0
 40
0.2088103005
 40
0.4161746703
 40
0.6155192937
 40
0.8098443541
 40
1.0
 40
1.0
 40
1.0
 40
1.0
 10
26.3693561426
 20
-14.502299739
 30
0.0
 10
26.3023693006
 20
-14.5019759751
 30
0.0
 10
26.168325021
 20
-14.4841565201
 30
0.0
 10
25.9835149622
 20
-14.4091186832
 30
0.0
 10
25.8263338035
 20
-14.294196441
 30
0.0
 10
25.7041916074
 20
-14.1500721428
 30
0.0
 10
25.6474641022
 20
-14.0391367888
 30
0.0
 10
25.6260147484
 20
-13.9820289693
 30
0.0
 11
26.3693561426
 21
-14.502299739
 31
0.0
 11
26.1701470128
 21
-14.4758082494
 31
0.0
 11
25.9852021116
 21
-14.4008143798
 31
0.0
 11
25.830301207
 21
-14.2876187215
 31
0.0
 11
25.7093760203
 21
-14.1449501122
 31
0.0
 11
25.6260147484
 21
-13.9820289693
 31
0.0
  0
SPLINE
  5
45D
100
AcDbEntity
  8
RACCORDO
100
AcDbSpline
 62
7
  6
CONTINUOUS
 70
0
 71
3
 72
12
 73
8
 74
6
 42
0.0000001
 43
0.0000001
 44
0.0000000001
 12
0.3383968349
 22
0.9009644562
 32
0.0
 13
0.9624072591
 23
0.004651552
 33
0.0
 40
0.0
 40
0.0
 40
0.0
 40
0.0
 40
0.1899707066
 40
0.3843126375
 40
0.5841030748
 40
0.791626094
 40
1.0
 40
1.0
 40
1.0
 40
1.0
 10
25.6260147484
 20
-6.0152319787
 30
0.0
 10
25.6474432437
 20
-5.9581796939
 30
0.0
 10
25.7041325324
 20
-5.8472888876
 30
0.0
 10
25.8263018695
 20
-5.703069738
 30
0.0
 10
25.9836603922
 20
-5.588033385
 30
0.0
 10
26.1685576787
 20
-5.5130548081
 30
0.0
 10
26.3025092894
 20
-5.4952842963
 30
0.0
 10
26.3693561426
 20
-5.494961209
 30
0.0
 11
25.6260147484
 21
-6.0152319787
 31
0.0
 11
25.7092768787
 21
-5.8524600212
 31
0.0
 11
25.8301822518
 21
-5.7097533114
 31
0.0
 11
25.985437183
 21
-5.5963148747
 31
0.0
 11
26.1705562618
 21
-5.5213442141
 31
0.0
 11
26.3693561426
 21
-5.494961209
 31
0.0
  0
SPLINE
  5
45E
100
AcDbEntity
  8
RACCORDO
100
AcDbSpline
 62
253
  6
CONTINUOUS
 70
0
 71
3
 72
13
 73
9
 74
7
 42
0.0000001
 43
0.0000001
 44
0.0000000001
 12
0.0000973163
 22
-1.0148615699
 32
0.0
 13
1.0148484259
 23
-0.005166034
 33
0.0
 40
0.0
 40
0.0
 40
0.0
 40
0.0
 40
0.157568847
 40
0.3184177281
 40
0.4834327604
 40
0.653349877
 40
0.8268543819
 40
1.0
 40
1.0
 40
1.0
 40
1.0
 10
25.8000052399
 20
-13.6980895205
 30
0.0
 10
25.8000103512
 20
-13.7513930429
 30
0.0
 10
25.8132589742
 20
-13.8595623543
 30
0.0
 10
25.8727591505
 20
-14.0136349838
 30
0.0
 10
25.9713989918
 20
-14.151574964
 30
0.0
 10
26.1058253197
 20
-14.2621447586
 30
0.0
 10
26.2674145254
 20
-14.3340480469
 30
0.0
 10
26.3852358427
 20
-14.3509548463
 30
0.0
 10
26.4438080287
 20
-14.351253005
 30
0.0
 11
25.8000052399
 21
-13.6980895205
 31
0.0
 11
25.8194750122
 21
-13.8568104006
 31
0.0
 11
25.878270971
 21
-14.0090934272
 31
0.0
 11
25.9757433801
 21
-14.1452714897
 31
0.0
 11
26.1089477348
 21
-14.2547838855
 31
0.0
 11
26.2698777703
 21
-14.3262455251
 31
0.0
 11
26.4438080287
 21
-14.351253005
 31
0.0
  0
SPLINE
  5
45F
100
AcDbEntity
  8
RACCORDO
100
AcDbSpline
 62
253
  6
CONTINUOUS
 70
0
 71
3
 72
13
 73
9
 74
7
 42
0.0000001
 43
0.0000001
 44
0.0000000001
 12
-1.0148506437
 22
-0.0050389996
 32
0.0
 13
-0.0004745314
 23
-1.0148630427
 33
0.0
 40
0.0
 40
0.0
 40
0.0
 40
0.0
 40
0.1731175773
 40
0.3464783605
 40
0.5164695147
 40
0.6818367589
 40
0.8432746718
 40
1.0
 40
1.0
 40
1.0
 40
1.0
 10
26.4438080287
 20
-5.646007943
 30
0.0
 10
26.3852452005
 20
-5.6462987228
 30
0.0
 10
26.2674804377
 20
-5.6631991669
 30
0.0
 10
26.1059188782
 20
-5.7350694319
 30
0.0
 10
25.9713917138
 20
-5.8456719938
 30
0.0
 10
25.8725558017
 20
-5.9839051383
 30
0.0
 10
25.8131563052
 20
-6.1380764841
 30
0.0
 10
25.8000300303
 20
-6.2461531798
 30
0.0
 10
25.8000052399
 20
-6.2991714276
 30
0.0
 11
26.4438080287
 21
-5.646007943
 31
0.0
 11
26.2699047336
 21
-5.6710049147
 31
0.0
 11
26.1090992212
 21
-5.7423882526
 31
0.0
 11
25.9758126081
 21
-5.8519193254
 31
0.0
 11
25.8781420489
 21
-5.9883954544
 31
0.0
 11
25.8192607111
 21
-6.1412865209
 31
0.0
 11
25.8000052399
 21
-6.2991714276
 31
0.0
  0
SPLINE
  5
460
100
AcDbEntity
  8
RACCORDO
100
AcDbSpline
 62
253
  6
CONTINUOUS
 70
0
 71
3
 72
12
 73
8
 74
6
 42
0.0000001
 43
0.0000001
 44
0.0000000001
 12
-16.169264925
 22
-0.020598488
 32
0.0
 13
-16.1690869221
 23
-0.0786168972
 33
0.0
 40
0.0
 40
0.0
 40
0.0
 40
0.0
 40
0.2054879861
 40
0.4109990686
 40
0.613653966
 40
0.8108099899
 40
1.0
 40
1.0
 40
1.0
 40
1.0
 10
42.6130072482
 20
-5.598206291
 30
0.0
 10
41.5054773531
 20
-5.5996172049
 30
0.0
 10
39.2902939009
 20
-5.6031393802
 30
0.0
 10
35.9828548183
 20
-5.6105741181
 30
0.0
 10
32.7203286957
 20
-5.6201620937
 30
0.0
 10
29.5457764916
 20
-5.631805161
 30
0.0
 10
27.4634846013
 20
-5.6410500992
 30
0.0
 10
26.4438080287
 20
-5.646007943
 30
0.0
 11
42.6130072482
 21
-5.598206291
 31
0.0
 11
39.2904190893
 21
-5.6035034645
 31
0.0
 11
35.967461697
 21
-5.6109940555
 31
0.0
 11
32.6906925483
 21
-5.6206526836
 31
0.0
 11
29.5028435553
 21
-5.6323813381
 31
0.0
 11
26.4438080287
 21
-5.646007943
 31
0.0
  0
SPLINE
  5
461
100
AcDbEntity
  8
RACCORDO
100
AcDbSpline
 62
253
  6
CONTINUOUS
 70
0
 71
3
 72
13
 73
9
 74
7
 42
0.0000001
 43
0.0000001
 44
0.0000000001
 12
-0.0016389796
 22
1.2609866872
 32
0.0
 13
-1.2609866208
 23
-0.0016892429
 33
0.0
 40
0.0
 40
0.0
 40
0.0
 40
0.0
 40
0.1231193235
 40
0.2587717201
 40
0.4130299721
 40
0.5868670733
 40
0.7819227764
 40
1.0
 40
1.0
 40
1.0
 40
1.0
 10
43.5613700032
 20
-6.2434622238
 30
0.0
 10
43.5613027398
 20
-6.1917116145
 30
0.0
 10
43.5418359831
 20
-6.0821440996
 30
0.0
 10
43.4544591244
 20
-5.9287750765
 30
0.0
 10
43.3107723492
 20
-5.7934479255
 30
0.0
 10
43.1167313569
 20
-5.6859630285
 30
0.0
 10
42.8789026581
 20
-5.6144889028
 30
0.0
 10
42.704671402
 20
-5.5980834958
 30
0.0
 10
42.6130072482
 20
-5.598206291
 30
0.0
 11
43.5613700032
 21
-6.2434622238
 31
0.0
 11
43.5347932452
 21
-6.0905019456
 31
0.0
 11
43.4521565933
 21
-5.9407309786
 31
0.0
 11
43.3124094359
 21
-5.805424314
 31
0.0
 11
43.1217939676
 21
-5.697178236
 31
0.0
 11
42.8867062538
 21
-5.6248491846
 31
0.0
 11
42.6130072482
 21
-5.598206291
 31
0.0
  0
SPLINE
  5
462
100
AcDbEntity
  8
RACCORDO
100
AcDbSpline
 62
253
  6
CONTINUOUS
 70
0
 71
3
 72
18
 73
14
 74
12
 42
0.0000001
 43
0.0000001
 44
0.0000000001
 12
0.0020483708
 22
-3.9270414167
 32
0.0
 13
-0.0008802405
 23
3.9270418523
 33
0.0
 40
0.0
 40
0.0
 40
0.0
 40
0.0
 40
0.0912603481
 40
0.1830534287
 40
0.2741966504
 40
0.3646973218
 40
0.4546238841
 40
0.5443327665
 40
0.6343322459
 40
0.7250282604
 40
0.8164049551
 40
0.9083082932
 40
1.0
 40
1.0
 40
1.0
 40
1.0
 10
40.9300529192
 20
-7.998630474
 30
0.0
 10
40.9301152309
 20
-8.1180915296
 30
0.0
 10
40.9635735819
 20
-8.3590444273
 30
0.0
 10
41.1115590671
 20
-8.6911185611
 30
0.0
 10
41.346081172
 20
-8.9680252314
 30
0.0
 10
41.6475425518
 20
-9.1656591811
 30
0.0
 10
41.9911312742
 20
-9.2683645878
 30
0.0
 10
42.3490638257
 20
-9.2684066769
 30
0.0
 10
42.6930541548
 20
-9.1660214215
 30
0.0
 10
42.995666861
 20
-8.9690606887
 30
0.0
 10
43.231937571
 20
-8.6927163448
 30
0.0
 10
43.3818184786
 20
-8.3603577918
 30
0.0
 10
43.4159871869
 20
-8.1186561973
 30
0.0
 10
43.4159602833
 20
-7.998630474
 30
0.0
 11
40.9300529192
 21
-7.998630474
 31
0.0
 11
40.97971543
 21
-8.3535560495
 31
0.0
 11
41.1265556795
 21
-8.6827677859
 31
0.0
 11
41.358174527
 21
-8.9556446189
 31
0.0
 11
41.65552659
 21
-9.1503003744
 31
0.0
 11
41.9939093946
 21
-9.251338679
 31
0.0
 11
42.3461999236
 21
-9.251443528
 31
0.0
 11
42.6850011782
 21
-9.1508070619
 31
0.0
 11
42.9836208352
 21
-8.9566904197
 31
0.0
 11
43.2170281603
 21
-8.6841335494
 31
0.0
 11
43.3654196229
 21
-8.3551430495
 31
0.0
 11
43.4159602833
 21
-7.998630474
 31
0.0
  0
SPLINE
  5
463
100
AcDbEntity
  8
RACCORDO
100
AcDbSpline
 62
253
  6
CONTINUOUS
 70
0
 71
3
 72
18
 73
14
 74
12
 42
0.0000001
 43
0.0000001
 44
0.0000000001
 12
-0.0009309781
 22
3.9270542364
 32
0.0
 13
-0.0011260183
 23
-3.9270541854
 33
0.0
 40
0.0
 40
0.0
 40
0.0
 40
0.0
 40
0.0913585288
 40
0.1831690857
 40
0.2746010671
 40
0.3654069836
 40
0.4555171268
 40
0.5453088278
 40
0.6352472776
 40
0.7256782897
 40
0.816760345
 40
0.9085492495
 40
1.0
 40
1.0
 40
1.0
 40
1.0
 10
43.4159602833
 20
-7.998630474
 30
0.0
 10
43.4159319323
 20
-7.8790405082
 30
0.0
 10
43.3820554919
 20
-7.6379108374
 30
0.0
 10
43.2327506882
 20
-7.3058241289
 30
0.0
 10
42.9967705666
 20
-7.0291041333
 30
0.0
 10
42.694042242
 20
-6.8316224707
 30
0.0
 10
42.3497204473
 20
-6.7288919154
 30
0.0
 10
41.9915033629
 20
-6.7288134336
 30
0.0
 10
41.6478657888
 20
-6.8314773497
 30
0.0
 10
41.346482356
 20
-7.0289277942
 30
0.0
 10
41.1119496131
 20
-7.3055865511
 30
0.0
 10
40.9636950938
 20
-7.6377121396
 30
0.0
 10
40.9300872443
 20
-7.8789197899
 30
0.0
 10
40.9300529192
 20
-7.998630474
 30
0.0
 11
43.4159602833
 21
-7.998630474
 31
0.0
 11
43.3657912308
 21
-7.643385611
 31
0.0
 11
43.2179456216
 21
-7.3145476469
 31
0.0
 11
42.9847420861
 21
-7.0415293019
 31
0.0
 11
42.6859590216
 21
-6.8468704314
 31
0.0
 11
42.3468066623
 21
-6.7458861014
 31
0.0
 11
41.9941897731
 21
-6.7458734608
 31
0.0
 11
41.6557442659
 21
-6.8468688139
 31
0.0
 11
41.3585640809
 21
-7.0412896935
 31
0.0
 11
41.1269688673
 21
-7.3138729475
 31
0.0
 11
40.9799283263
 21
-7.642978558
 31
0.0
 11
40.9300529192
 21
-7.998630474
 31
0.0
  0
SPLINE
  5
464
100
AcDbEntity
  8
RACCORDO
100
AcDbSpline
 62
253
  6
CONTINUOUS
 70
0
 71
3
 72
18
 73
14
 74
12
 42
0.0000001
 43
0.0000001
 44
0.0000000001
 12
0.0011107608
 22
-3.9270539769
 32
0.0
 13
0.0009333539
 23
3.9270540231
 33
0.0
 40
0.0
 40
0.0
 40
0.0
 40
0.0
 40
0.091311711
 40
0.1830485692
 40
0.2741148439
 40
0.3644545159
 40
0.4543776359
 40
0.5442653922
 40
0.6344214691
 40
0.7252094582
 40
0.8166171067
 40
0.9085352317
 40
1.0
 40
1.0
 40
1.0
 40
1.0
 10
40.9300529192
 20
-11.998630474
 30
0.0
 10
40.9300867277
 20
-12.1181591466
 30
0.0
 10
40.9636077071
 20
-12.3591105228
 30
0.0
 10
41.111577775
 20
-12.6910569473
 30
0.0
 10
41.3457994761
 20
-12.9677008105
 30
0.0
 10
41.6468773816
 20
-13.1652993099
 30
0.0
 10
41.990396669
 20
-13.2683013216
 30
0.0
 10
42.3487939865
 20
-13.268532502
 30
0.0
 10
42.6933428658
 20
-13.1659690203
 30
0.0
 10
42.9961868372
 20
-12.9686594004
 30
0.0
 10
43.2323973486
 20
-12.6920264961
 30
0.0
 10
43.3819749665
 20
-12.3597734101
 30
0.0
 10
43.4159318269
 20
-12.1183595028
 30
0.0
 10
43.4159602833
 20
-11.998630474
 30
0.0
 11
40.9300529192
 21
-11.998630474
 31
0.0
 11
40.9797767574
 21
-12.3537522592
 31
0.0
 11
41.1265654308
 21
-12.682746467
 31
0.0
 11
41.3579490144
 21
-12.9554280916
 31
0.0
 11
41.6546714677
 21
-13.1498931902
 31
0.0
 11
41.9929588697
 21
-13.251207164
 31
0.0
 11
42.3459528339
 21
-13.2514990493
 31
0.0
 11
42.6853413945
 21
-13.1506762056
 31
0.0
 11
42.9841772802
 21
-12.9562275254
 31
0.0
 11
43.2174918608
 21
-12.6834298227
 31
0.0
 11
43.3656740936
 21
-12.3542801182
 31
0.0
 11
43.4159602833
 21
-11.998630474
 31
0.0
  0
SPLINE
  5
465
100
AcDbEntity
  8
RACCORDO
100
AcDbSpline
 62
253
  6
CONTINUOUS
 70
0
 71
3
 72
18
 73
14
 74
12
 42
0.0000001
 43
0.0000001
 44
0.0000000001
 12
0.0008815645
 22
3.9270421994
 32
0.0
 13
-0.0020770677
 23
-3.927041749
 33
0.0
 40
0.0
 40
0.0
 40
0.0
 40
0.0
 40
0.0915738146
 40
0.1834019537
 40
0.2747890496
 40
0.3655063031
 40
0.4555374681
 40
0.5452130419
 40
0.6350508777
 40
0.7254991256
 40
0.8166759344
 40
0.9085246845
 40
1.0
 40
1.0
 40
1.0
 40
1.0
 10
43.4159602833
 20
-11.998630474
 30
0.0
 10
43.4159871927
 20
-11.8787590626
 30
0.0
 10
43.3819002108
 20
-11.637315184
 30
0.0
 10
43.2322820014
 20
-11.3051128108
 30
0.0
 10
42.9962121705
 20
-11.0286710217
 30
0.0
 10
42.6936350161
 20
-10.8314981775
 30
0.0
 10
42.3496643186
 20
-10.7289422305
 30
0.0
 10
41.9918554844
 20
-10.7288147088
 30
0.0
 10
41.6484295623
 20
-10.8312193117
 30
0.0
 10
41.3469151807
 20
-11.028501492
 30
0.0
 10
41.1121074975
 20
-11.3052369374
 30
0.0
 10
40.9637038935
 20
-11.6375710719
 30
0.0
 10
40.9301162527
 20
-11.8788880131
 30
0.0
 10
40.9300529192
 20
-11.998630474
 30
0.0
 11
43.4159602833
 21
-11.998630474
 31
0.0
 11
43.3655499447
 21
-11.642566994
 31
0.0
 11
43.2174383863
 21
-11.3137742141
 31
0.0
 11
42.984165792
 21
-11.0410482294
 31
0.0
 11
42.6855824234
 21
-10.8467227684
 31
0.0
 11
42.3467092108
 21
-10.7458915852
 31
0.0
 11
41.9945494449
 21
-10.745828931
 31
0.0
 11
41.6564326379
 21
-10.8465400753
 31
0.0
 11
41.3590792476
 21
-11.0408177291
 31
0.0
 11
41.1271274385
 21
-11.3135847972
 31
0.0
 11
40.979949552
 21
-11.6428852355
 31
0.0
 11
40.9300529192
 21
-11.998630474
 31
0.0
  0
SPLINE
  5
466
100
AcDbEntity
  8
RACCORDO
100
AcDbSpline
 62
253
  6
CONTINUOUS
 70
0
 71
3
 72
12
 73
8
 74
6
 42
0.0000001
 43
0.0000001
 44
0.0000000001
 12
16.2202016699
 22
-0.0786167755
 32
0.0
 13
16.2203791109
 23
-0.0205987914
 33
0.0
 40
0.0
 40
0.0
 40
0.0
 40
0.0
 40
0.1891914725
 40
0.3863425372
 40
0.5889998942
 40
0.7945363503
 40
1.0
 40
1.0
 40
1.0
 40
1.0
 10
26.370721149
 20
-14.5012472935
 30
0.0
 10
27.3936290953
 20
-14.506205168
 30
0.0
 10
29.4824847255
 20
-14.5154500215
 30
0.0
 10
32.6670668142
 20
-14.5270930878
 30
0.0
 10
35.94003016
 20
-14.5366814393
 30
0.0
 10
39.2579436408
 20
-14.5441161086
 30
0.0
 10
41.4801353314
 20
-14.5476381778
 30
0.0
 10
42.5910347619
 20
-14.5490489455
 30
0.0
 11
26.370721149
 21
-14.5012472935
 31
0.0
 11
29.439450778
 21
-14.5148739919
 31
0.0
 11
32.6372968603
 21
-14.5266023669
 31
0.0
 11
35.9244644807
 21
-14.5362611348
 31
0.0
 11
39.2583379916
 21
-14.5437525273
 31
0.0
 11
42.5910347619
 21
-14.5490489455
 31
0.0
  0
SPLINE
  5
467
100
AcDbEntity
  8
RACCORDO
100
AcDbSpline
 62
253
  6
CONTINUOUS
 70
0
 71
3
 72
12
 73
8
 74
6
 42
0.0000001
 43
0.0000001
 44
0.0000000001
 12
-16.2204672306
 22
-0.0205989132
 32
0.0
 13
-16.2202897893
 23
-0.0786170703
 33
0.0
 40
0.0
 40
0.0
 40
0.0
 40
0.0
 40
0.2054114875
 40
0.4109398296
 40
0.6136173938
 40
0.8107998908
 40
1.0
 40
1.0
 40
1.0
 40
1.0
 10
42.5911228832
 20
-5.4482118625
 30
0.0
 10
41.4804994494
 20
-5.4496222803
 30
0.0
 10
39.258621589
 20
-5.4531436544
 30
0.0
 10
35.940906727
 20
-5.460577222
 30
0.0
 10
32.6676902646
 20
-5.4701657125
 30
0.0
 10
29.4827649727
 20
-5.4818097017
 30
0.0
 10
27.3936813506
 20
-5.4910555351
 30
0.0
 10
26.3707211507
 20
-5.4960136545
 30
0.0
 11
42.5911228832
 21
-5.4482118625
 31
0.0
 11
39.2592541022
 21
-5.4535066683
 31
0.0
 11
35.9254940911
 21
-5.4609971485
 31
0.0
 11
32.6379808404
 21
-5.4706563255
 31
0.0
 11
29.4396075411
 21
-5.4823863197
 31
0.0
 11
26.3707211507
 21
-5.4960136545
 31
0.0
  0
SPLINE
  5
468
100
AcDbEntity
  8
RACCORDO
100
AcDbSpline
 62
253
  6
CONTINUOUS
 70
0
 71
3
 72
10
 73
6
 74
4
 42
0.0000001
 43
0.0000001
 44
0.0000000001
 12
-0.0006582637
 22
-0.1780967246
 32
0.0
 13
-0.1780761153
 23
-0.0027881538
 33
0.0
 40
0.0
 40
0.0
 40
0.0
 40
0.0
 40
0.4229813984
 40
0.7655785524
 40
1.0
 40
1.0
 40
1.0
 40
1.0
 10
26.443808172
 20
-14.351253005
 30
0.0
 10
26.4437153609
 20
-14.3763635389
 30
0.0
 10
26.4376216376
 20
-14.4219602131
 30
0.0
 10
26.4161867524
 20
-14.4779839505
 30
0.0
 10
26.3846360964
 20
-14.501029425
 30
0.0
 10
26.3707211428
 20
-14.5012472926
 30
0.0
 11
26.443808172
 21
-14.351253005
 31
0.0
 11
26.4338326849
 21
-14.4259217226
 31
0.0
 11
26.4071058001
 21
-14.4807724957
 31
0.0
 11
26.3707211428
 21
-14.5012472926
 31
0.0
  0
SPLINE
  5
469
100
AcDbEntity
  8
RACCORDO
100
AcDbSpline
 62
253
  6
CONTINUOUS
 70
0
 71
3
 72
10
 73
6
 74
4
 42
0.0000001
 43
0.0000001
 44
0.0000000001
 12
-0.0006692709
 22
0.1780806996
 32
0.0
 13
-0.1780601736
 23
0.0027853262
 33
0.0
 40
0.0
 40
0.0
 40
0.0
 40
0.0
 40
0.4229859057
 40
0.7655781205
 40
1.0
 40
1.0
 40
1.0
 40
1.0
 10
26.4438086293
 20
-5.6460079428
 30
0.0
 10
26.4437142653
 20
-5.6208994008
 30
0.0
 10
26.4376189899
 20
-5.5753072616
 30
0.0
 10
26.416183383
 20
-5.5192892876
 30
0.0
 10
26.3846348771
 20
-5.4962479306
 30
0.0
 10
26.3707211435
 20
-5.4960302834
 30
0.0
 11
26.4438086293
 21
-5.6460079428
 31
0.0
 11
26.4338300359
 21
-5.5713456515
 31
0.0
 11
26.4071034278
 21
-5.5165018137
 31
0.0
 11
26.3707211435
 21
-5.4960302834
 31
0.0
  0
SPLINE
  5
46A
100
AcDbEntity
  8
RACCORDO
100
AcDbSpline
 62
253
  6
CONTINUOUS
 70
0
 71
3
 72
18
 73
14
 74
12
 42
0.0000001
 43
0.0000001
 44
0.0000000001
 12
0.0004881631
 22
-2.9300189653
 32
0.0
 13
0.0004127703
 23
2.9300189769
 33
0.0
 40
0.0
 40
0.0
 40
0.0
 40
0.0
 40
0.0920068286
 40
0.1840359808
 40
0.2751421625
 40
0.3651904669
 40
0.4545495921
 40
0.5437579636
 40
0.6333557768
 40
0.7238327193
 40
0.8152333417
 40
0.9074153612
 40
1.0
 40
1.0
 40
1.0
 40
1.0
 10
41.2675266812
 20
-11.998630474
 30
0.0
 10
41.2675416527
 20
-12.0884910582
 30
0.0
 10
41.2924874948
 20
-12.2692231352
 30
0.0
 10
41.4023649434
 20
-12.5181734714
 30
0.0
 10
41.5761102524
 20
-12.7254669764
 30
0.0
 10
41.7993725592
 20
-12.8735575304
 30
0.0
 10
42.0540338738
 20
-12.9507902233
 30
0.0
 10
42.3197198446
 20
-12.9511160401
 30
0.0
 10
42.5752255638
 20
-12.8745011156
 30
0.0
 10
42.7999202312
 20
-12.7269032777
 30
0.0
 10
42.9753324943
 20
-12.5198903513
 30
0.0
 10
43.0868547276
 20
-12.2705332112
 30
0.0
 10
43.1122982008
 20
-12.0890553902
 30
0.0
 10
43.1123109395
 20
-11.998630474
 30
0.0
 11
41.2675266812
 21
-11.998630474
 31
0.0
 11
41.3046186603
 21
-12.2656482796
 31
0.0
 11
41.4136779434
 21
-12.5122566056
 31
0.0
 11
41.5854577918
 21
-12.716585178
 31
0.0
 11
41.80548808
 21
-12.862187133
 31
0.0
 11
42.0560864049
 21
-12.9380307396
 31
0.0
 11
42.3174683702
 21
-12.938398599
 31
0.0
 11
42.568990211
 21
-12.863197241
 31
0.0
 11
42.7907108154
 21
-12.7178784917
 31
0.0
 11
42.9640825152
 21
-12.5137656012
 31
0.0
 11
43.0744533443
 21
-12.2672506393
 31
0.0
 11
43.1123109395
 21
-11.998630474
 31
0.0
  0
SPLINE
  5
46B
100
AcDbEntity
  8
RACCORDO
100
AcDbSpline
 62
253
  6
CONTINUOUS
 70
0
 71
3
 72
18
 73
14
 74
12
 42
0.0000001
 43
0.0000001
 44
0.0000000001
 12
0.0004451191
 22
2.9300160757
 32
0.0
 13
-0.0009558106
 23
-2.9300159536
 33
0.0
 40
0.0
 40
0.0
 40
0.0
 40
0.0
 40
0.0925037577
 40
0.1846356663
 40
0.2760750329
 40
0.366556077
 40
0.4561194207
 40
0.5452132701
 40
0.634491619
 40
0.7245509163
 40
0.8156860078
 40
0.9078025523
 40
1.0
 40
1.0
 40
1.0
 40
1.0
 10
43.1123109395
 20
-11.998630474
 30
0.0
 10
43.1123246646
 20
-11.9082846416
 30
0.0
 10
43.0868824164
 20
-11.7269373737
 30
0.0
 10
42.9754927767
 20
-11.4776330054
 30
0.0
 10
42.8001510995
 20
-11.2705617995
 30
0.0
 10
42.5754914697
 20
-11.1228977329
 30
0.0
 10
42.3201524113
 20
-11.0462368258
 30
0.0
 10
42.0547051471
 20
-11.0464035666
 30
0.0
 10
41.8001528409
 20
-11.1233422737
 30
0.0
 10
41.5767736402
 20
-11.2711870095
 30
0.0
 10
41.4027528141
 20
-11.4784159462
 30
0.0
 10
41.2925708557
 20
-11.7275747618
 30
0.0
 10
41.2675560556
 20
-11.9085838098
 30
0.0
 10
41.2675266812
 20
-11.998630474
 30
0.0
 11
43.1123109395
 21
-11.998630474
 31
0.0
 11
43.0745182794
 21
-11.7302407548
 31
0.0
 11
42.9642852832
 21
-11.4838252592
 31
0.0
 11
42.7909105121
 21
-11.2795664006
 31
0.0
 11
42.5692208069
 21
-11.1341790805
 31
0.0
 11
42.3178218956
 21
-11.0589200979
 31
0.0
 11
42.0567755665
 21
-11.0591307356
 31
0.0
 11
41.8063339361
 21
-11.1346737599
 31
0.0
 11
41.5861298328
 21
-11.2800706986
 31
0.0
 11
41.4141060305
 21
-11.4843043467
 31
0.0
 11
41.3047706172
 21
-11.7310701769
 31
0.0
 11
41.2675266812
 21
-11.998630474
 31
0.0
  0
SPLINE
  5
46C
100
AcDbEntity
  8
RACCORDO
100
AcDbSpline
 62
253
  6
CONTINUOUS
 70
0
 71
3
 72
18
 73
14
 74
12
 42
0.0000001
 43
0.0000001
 44
0.0000000001
 12
-0.0004115952
 22
2.9300191339
 32
0.0
 13
-0.0004951468
 23
-2.930019121
 33
0.0
 40
0.0
 40
0.0
 40
0.0
 40
0.0
 40
0.09247359
 40
0.1845495906
 40
0.2759767102
 40
0.3664720244
 40
0.4560247059
 40
0.5451382291
 40
0.6345113989
 40
0.7246505963
 40
0.8157708876
 40
0.9078516047
 40
1.0
 40
1.0
 40
1.0
 40
1.0
 10
43.1123109395
 20
-7.998630474
 30
0.0
 10
43.1122982523
 20
-7.9083140114
 30
0.0
 10
43.0869159081
 20
-7.7270516692
 30
0.0
 10
42.9756000286
 20
-7.477818711
 30
0.0
 10
42.8003580428
 20
-7.2707375942
 30
0.0
 10
42.5757482183
 20
-7.1230087036
 30
0.0
 10
42.3204103854
 20
-7.0462673161
 30
0.0
 10
42.0548581161
 20
-7.0463602815
 30
0.0
 10
41.8001077556
 20
-7.123339332
 30
0.0
 10
41.5766190248
 20
-7.2713179989
 30
0.0
 10
41.4026431284
 20
-7.4786216039
 30
0.0
 10
41.2925530824
 20
-7.7277063017
 30
0.0
 10
41.2675418902
 20
-7.9086316206
 30
0.0
 10
41.2675266812
 20
-7.998630474
 30
0.0
 11
43.1123109395
 21
-7.998630474
 31
0.0
 11
43.0745442794
 21
-7.7303260729
 31
0.0
 11
42.9644247258
 21
-7.4840389814
 31
0.0
 11
42.7911333335
 21
-7.2797560679
 31
0.0
 11
42.5694522361
 21
-7.1342788977
 31
0.0
 11
42.3181049864
 21
-7.0589553607
 31
0.0
 11
42.0570006931
 21
-7.0590946392
 31
0.0
 11
41.8062869745
 21
-7.134698621
 31
0.0
 11
41.5859155996
 21
-7.2802675909
 31
0.0
 11
41.4139802382
 21
-7.4845193827
 31
0.0
 11
41.304733005
 21
-7.7312097678
 31
0.0
 11
41.2675266812
 21
-7.998630474
 31
0.0
  0
SPLINE
  5
46D
100
AcDbEntity
  8
RACCORDO
100
AcDbSpline
 62
253
  6
CONTINUOUS
 70
0
 71
3
 72
18
 73
14
 74
12
 42
0.0000001
 43
0.0000001
 44
0.0000000001
 12
0.0009425271
 22
-2.9300156907
 32
0.0
 13
-0.0004446203
 23
2.9300158085
 33
0.0
 40
0.0
 40
0.0
 40
0.0
 40
0.0
 40
0.0919800856
 40
0.184042489
 40
0.2751456722
 40
0.3652579593
 40
0.454623727
 40
0.5437507799
 40
0.6332822208
 40
0.7237403051
 40
0.8151677446
 40
0.90737396
 40
1.0
 40
1.0
 40
1.0
 40
1.0
 10
41.2675266812
 20
-7.998630474
 30
0.0
 10
41.2675555791
 20
-8.0884648387
 30
0.0
 10
41.2924735094
 20
-8.2692014685
 30
0.0
 10
41.4023453573
 20
-8.5181657691
 30
0.0
 10
41.5761552943
 20
-8.7255237076
 30
0.0
 10
41.7994943748
 20
-8.8736309549
 30
0.0
 10
42.0541661367
 20
-8.9507952445
 30
0.0
 10
42.3197040917
 20
-8.9510900675
 30
0.0
 10
42.5750563625
 20
-8.8745581193
 30
0.0
 10
42.7997414249
 20
-8.7270558642
 30
0.0
 10
42.9752317641
 20
-8.5200607917
 30
0.0
 10
43.0868206026
 20
-8.2706389128
 30
0.0
 10
43.1123246673
 20
-8.0890957278
 30
0.0
 10
43.1123109395
 20
-7.998630474
 30
0.0
 11
41.2675266812
 21
-7.998630474
 31
0.0
 11
41.3045950961
 21
-8.265572149
 31
0.0
 11
41.4136808826
 21
-8.5122749638
 31
0.0
 11
41.5854595216
 21
-8.7165926987
 31
0.0
 11
41.8056629399
 21
-8.862272216
 31
0.0
 11
42.056298351
 21
-8.9380594695
 31
0.0
 11
42.3174418107
 21
-8.9383963285
 31
0.0
 11
42.5687869555
 21
-8.8632838718
 31
0.0
 11
42.7905009709
 21
-8.7180564092
 31
0.0
 11
42.9639752553
 21
-8.5139279507
 31
0.0
 11
43.0744181019
 21
-8.2673678809
 31
0.0
 11
43.1123109395
 21
-7.998630474
 31
0.0
  0
SPLINE
  5
46E
100
AcDbEntity
  8
RACCORDO
100
AcDbSpline
 62
253
  6
CONTINUOUS
 70
0
 71
3
 72
10
 73
6
 74
4
 42
0.0000001
 43
0.0000001
 44
0.0000000001
 12
-0.0001905879
 22
0.1533707838
 32
0.0
 13
-0.1531079573
 23
0.0089770287
 33
0.0
 40
0.0
 40
0.0
 40
0.0
 40
0.0
 40
0.4869770983
 40
0.8483868799
 40
1.0
 40
1.0
 40
1.0
 40
1.0
 10
42.6130082433
 20
-5.598206291
 30
0.0
 10
42.612977306
 20
-5.5733102712
 30
0.0
 10
42.6118773408
 20
-5.5269709465
 30
0.0
 10
42.6044567013
 20
-5.4847509621
 30
0.0
 10
42.5987725212
 20
-5.4486657173
 30
0.0
 10
42.5910347961
 20
-5.4482120389
 30
0.0
 11
42.6130082433
 21
-5.598206291
 31
0.0
 11
42.6100026887
 21
-5.5235786724
 31
0.0
 11
42.6019682492
 21
-5.4687343078
 31
0.0
 11
42.5910347961
 21
-5.4482120389
 31
0.0
  0
SPLINE
  5
46F
100
AcDbEntity
  8
RACCORDO
100
AcDbSpline
 62
253
  6
CONTINUOUS
 70
0
 71
3
 72
10
 73
6
 74
4
 42
0.0000001
 43
0.0000001
 44
0.0000000001
 12
-0.0001905495
 22
-0.153370585
 32
0.0
 13
-0.1531049921
 23
-0.0090240825
 33
0.0
 40
0.0
 40
0.0
 40
0.0
 40
0.0
 40
0.4869660845
 40
0.8483748013
 40
1.0
 40
1.0
 40
1.0
 40
1.0
 10
42.6130072536
 20
-14.3990546571
 30
0.0
 10
42.6129763233
 20
-14.4239500815
 30
0.0
 10
42.6118769474
 20
-14.470287563
 30
0.0
 10
42.6044549582
 20
-14.5125106942
 30
0.0
 10
42.5987729878
 20
-14.5485931373
 30
0.0
 10
42.5910347961
 20
-14.5490492301
 30
0.0
 11
42.6130072536
 21
-14.3990546571
 31
0.0
 11
42.6100018799
 21
-14.4736804954
 31
0.0
 11
42.6019678467
 21
-14.5285246819
 31
0.0
 11
42.5910347961
 21
-14.5490492301
 31
0.0
  0
SPLINE
  5
470
100
AcDbEntity
  8
RACCORDO
100
AcDbSpline
 62
253
  6
CONTINUOUS
 70
0
 71
3
 72
13
 73
9
 74
7
 42
0.0000001
 43
0.0000001
 44
0.0000000001
 12
-0.0034913294
 22
1.4670249047
 32
0.0
 13
-1.4670289518
 23
-0.0005614465
 33
0.0
 40
0.0
 40
0.0
 40
0.0
 40
0.0
 40
0.1306671219
 40
0.2713111733
 40
0.427171826
 40
0.5988989422
 40
0.7886109683
 40
1.0
 40
1.0
 40
1.0
 40
1.0
 10
43.6575483143
 20
-6.2434622238
 30
0.0
 10
43.657396247
 20
-6.1795649165
 30
0.0
 10
43.6357475072
 20
-6.0460372321
 30
0.0
 10
43.5381627313
 20
-5.8578059759
 30
0.0
 10
43.3772354005
 20
-5.6909102568
 30
0.0
 10
43.1592415368
 20
-5.5578355504
 30
0.0
 10
42.8913789283
 20
-5.4689015205
 30
0.0
 10
42.6944826719
 20
-5.4481724232
 30
0.0
 10
42.5911113953
 20
-5.4482119844
 30
0.0
 11
43.6575483143
 21
-6.2434622238
 31
0.0
 11
43.6271888445
 21
-6.0541891309
 31
0.0
 11
43.5339503369
 21
-5.8701288148
 31
0.0
 11
43.3769255026
 21
-5.7039211515
 31
0.0
 11
43.1630504274
 21
-5.5707839786
 31
0.0
 11
42.8994269328
 21
-5.4815606084
 31
0.0
 11
42.5911113953
 21
-5.4482119844
 31
0.0
  0
SPLINE
  5
471
100
AcDbEntity
  8
RACCORDO
100
AcDbSpline
 62
253
  6
CONTINUOUS
 70
0
 71
3
 72
23
 73
19
 74
17
 42
0.0000001
 43
0.0000001
 44
0.0000000001
 12
1.4705928048
 22
-0.0005084902
 32
0.0
 13
0.0012043741
 23
1.4705923996
 33
0.0
 40
0.0
 40
0.0
 40
0.0
 40
0.0
 40
0.1039749831
 40
0.1989720424
 40
0.2868282129
 40
0.3682045376
 40
0.4431373577
 40
0.5120148595
 40
0.5755113007
 40
0.6343879768
 40
0.689189076
 40
0.7398764354
 40
0.7866820303
 40
0.8308314475
 40
0.8733811889
 40
0.9151594186
 40
0.9570526879
 40
1.0
 40
1.0
 40
1.0
 40
1.0
 10
42.5910347662
 20
-14.5490489455
 30
0.0
 10
42.6420030535
 20
-14.5490665689
 30
0.0
 10
42.7396242704
 20
-14.5440001125
 30
0.0
 10
42.8787747493
 20
-14.5223691677
 30
0.0
 10
43.0043923775
 20
-14.4899561955
 30
0.0
 10
43.1170303488
 20
-14.4489386028
 30
0.0
 10
43.2168061845
 20
-14.4013232339
 30
0.0
 10
43.3040488827
 20
-14.348910273
 30
0.0
 10
43.3795399688
 20
-14.2930777282
 30
0.0
 10
43.4441739503
 20
-14.2348626398
 30
0.0
 10
43.4986099313
 20
-14.1752879091
 30
0.0
 10
43.5434309008
 20
-14.1154384183
 30
0.0
 10
43.5795430753
 20
-14.0560111185
 30
0.0
 10
43.608058141
 20
-13.996995322
 30
0.0
 10
43.629914563
 20
-13.9378261819
 30
0.0
 10
43.6456229987
 20
-13.8778755779
 30
0.0
 10
43.6553112722
 20
-13.8164668521
 30
0.0
 10
43.6575311809
 20
-13.7748466714
 30
0.0
 10
43.6575484225
 20
-13.7537940078
 30
0.0
 11
42.5910347662
 21
-14.5490489455
 31
0.0
 11
42.7437306614
 21
-14.5410574992
 31
0.0
 11
42.8817591188
 21
-14.5194984218
 31
0.0
 11
43.0068302077
 21
-14.4870942055
 31
0.0
 11
43.119230201
 21
-14.4460150601
 31
0.0
 11
43.2186207641
 21
-14.3984272228
 31
0.0
 11
43.3053775028
 21
-14.3461482854
 31
0.0
 11
43.3803777741
 21
-14.2905218443
 31
0.0
 11
43.4446356821
 21
-14.2324904324
 31
0.0
 11
43.4989223071
 21
-14.1729276279
 31
0.0
 11
43.5435362846
 21
-14.1132126821
 31
0.0
 11
43.5792239541
 21
-14.0543549633
 31
0.0
 11
43.6074225301
 21
-13.9958724675
 31
0.0
 11
43.6290653587
 21
-13.9371612101
 31
0.0
 11
43.6446087112
 21
-13.8777211027
 31
0.0
 11
43.6541890693
 21
-13.8168626151
 31
0.0
 11
43.6575484225
 21
-13.7537940078
 31
0.0
  0
SPLINE
  5
472
100
AcDbEntity
  8
RACCORDO
100
AcDbSpline
 62
253
  6
CONTINUOUS
 70
0
 71
3
 72
23
 73
19
 74
17
 42
0.0000001
 43
0.0000001
 44
0.0000000001
 12
1.2639631827
 22
-0.0015968949
 32
0.0
 13
0.0000080948
 23
1.2639641914
 33
0.0
 40
0.0
 40
0.0
 40
0.0
 40
0.0
 40
0.1076737707
 40
0.205854846
 40
0.2963203844
 40
0.3796956859
 40
0.4559998733
 40
0.5256403966
 40
0.5893350073
 40
0.6478955264
 40
0.7019256793
 40
0.7514661111
 40
0.7968344311
 40
0.8393085921
 40
0.8799795343
 40
0.9197052195
 40
0.9593935805
 40
1.0
 40
1.0
 40
1.0
 40
1.0
 10
42.6130072482
 20
-14.3990546571
 30
0.0
 10
42.6583724755
 20
-14.3991119716
 30
0.0
 10
42.7451711512
 20
-14.3950918171
 30
0.0
 10
42.8689601048
 20
-14.377664032
 30
0.0
 10
42.9806960357
 20
-14.3514710559
 30
0.0
 10
43.0808725909
 20
-14.3182770818
 30
0.0
 10
43.1696020769
 20
-14.2797088255
 30
0.0
 10
43.2471805905
 20
-14.2372259996
 30
0.0
 10
43.3143042841
 20
-14.1919482687
 30
0.0
 10
43.3717717221
 20
-14.1447171492
 30
0.0
 10
43.4201737229
 20
-14.0963595923
 30
0.0
 10
43.4600280912
 20
-14.0477550044
 30
0.0
 10
43.4921336257
 20
-13.9994772228
 30
0.0
 10
43.5174765876
 20
-13.9515243519
 30
0.0
 10
43.5368931954
 20
-13.9034363594
 30
0.0
 10
43.5508376024
 20
-13.8547008593
 30
0.0
 10
43.5594214373
 20
-13.8047692896
 30
0.0
 10
43.5613698936
 20
-13.7709070776
 30
0.0
 10
43.5613700032
 20
-13.7537987242
 30
0.0
 11
42.6130072482
 21
-14.3990546571
 31
0.0
 11
42.7489543163
 21
-14.3926939268
 31
0.0
 11
42.8718259694
 21
-14.3752952925
 31
0.0
 11
42.9831241456
 21
-14.3490742897
 31
0.0
 11
43.0831145232
 21
-14.3157938984
 31
0.0
 11
43.1715075079
 21
-14.277213269
 31
0.0
 11
43.24864384
 21
-14.2348097632
 31
0.0
 11
43.3153103038
 21
-14.1896758126
 31
0.0
 11
43.3724123469
 21
-14.142579315
 31
0.0
 11
43.4206417764
 21
-14.0942290948
 31
0.0
 11
43.4602680096
 21
-14.0457451606
 31
0.0
 11
43.4919548879
 21
-13.9979511413
 31
0.0
 11
43.5169821501
 21
-13.9504558441
 31
0.0
 11
43.536180424
 21
-13.9027686728
 31
0.0
 11
43.5499556098
 21
-13.8544833388
 31
0.0
 11
43.5584287929
 21
-13.8050394413
 31
0.0
 11
43.5613700032
 21
-13.7537987242
 31
0.0
  0
SPLINE
  5
473
100
AcDbEntity
  8
RACCORDO
100
AcDbSpline
 62
253
  6
CONTINUOUS
 70
0
 71
3
 72
12
 73
8
 74
6
 42
0.0000001
 43
0.0000001
 44
0.0000000001
 12
16.1690869217
 22
-0.0786169846
 32
0.0
 13
16.169264925
 23
-0.0205984808
 33
0.0
 40
0.0
 40
0.0
 40
0.0
 40
0.0
 40
0.189175621
 40
0.3863010913
 40
0.588936043
 40
0.7944551971
 40
1.0
 40
1.0
 40
1.0
 40
1.0
 10
26.4438080287
 20
-14.351253005
 30
0.0
 10
27.4634070484
 20
-14.3562104773
 30
0.0
 10
29.5454567106
 20
-14.3654543957
 30
0.0
 10
32.7196591827
 20
-14.377096554
 30
0.0
 10
35.9819566289
 20
-14.3866844859
 30
0.0
 10
39.2896379395
 20
-14.3941204285
 30
0.0
 10
41.505171124
 20
-14.3976433535
 30
0.0
 10
42.6130072482
 20
-14.3990546571
 30
0.0
 11
26.4438080287
 21
-14.351253005
 31
0.0
 11
29.5026108956
 21
-14.3648786635
 31
0.0
 11
32.689965862
 21
-14.3766058603
 31
0.0
 11
35.9664125016
 21
-14.3862641683
 31
0.0
 11
39.289500403
 21
-14.3937557204
 31
0.0
 11
42.6130072482
 21
-14.3990546571
 31
0.0
  0
SPLINE
  5
474
100
AcDbEntity
  8
RACCORDO
100
AcDbSpline
 62
7
  6
CONTINUOUS
 70
0
 71
3
 72
9
 73
5
 74
3
 42
0.0000001
 43
0.0000001
 44
0.0000000001
 12
0.1217798238
 22
0.0084605064
 32
0.0
 13
0.1220733008
 23
-0.0001219794
 33
0.0
 40
0.0
 40
0.0
 40
0.0
 40
0.0
 40
0.5187306054
 40
1.0
 40
1.0
 40
1.0
 40
1.0
 10
-43.987036573
 20
-5.4400353247
 30
0.0
 10
-43.9659795991
 20
-5.4385724169
 30
0.0
 10
-43.9254130441
 20
-5.4351163584
 30
0.0
 10
-43.8846935721
 20
-5.4348468725
 30
0.0
 10
-43.8651101909
 20
-5.4348664408
 30
0.0
 11
-43.987036573
 21
-5.4400353247
 31
0.0
 11
-43.9238522247
 21
-5.4358443378
 31
0.0
 11
-43.8651101909
 21
-5.4348664408
 31
0.0
  0
SPLINE
  5
475
100
AcDbEntity
  8
RACCORDO
100
AcDbSpline
 62
7
  6
CONTINUOUS
 70
0
 71
3
 72
9
 73
5
 74
3
 42
0.0000001
 43
0.0000001
 44
0.0000000001
 12
-0.1220572547
 22
-0.0001219634
 32
0.0
 13
-0.1217638164
 23
0.0084593913
 33
0.0
 40
0.0
 40
0.0
 40
0.0
 40
0.0
 40
0.4813257876
 40
1.0
 40
1.0
 40
1.0
 40
1.0
 10
-43.8651101909
 20
-14.5623945072
 30
0.0
 10
-43.8846932923
 20
-14.5624140753
 30
0.0
 10
-43.9254073252
 20
-14.5621433597
 30
0.0
 10
-43.9659688403
 20
-14.5586921845
 30
0.0
 10
-43.9870207575
 20
-14.5572296285
 30
0.0
 11
-43.8651101909
 21
-14.5623945072
 31
0.0
 11
-43.9238513857
 21
-14.5614166391
 31
0.0
 11
-43.9870207575
 21
-14.5572296285
 31
0.0
  0
SPLINE
  5
476
100
AcDbEntity
  8
RACCORDO
100
AcDbSpline
 62
7
  6
CONTINUOUS
 70
0
 71
3
 72
11
 73
7
 74
5
 42
0.0000001
 43
0.0000001
 44
0.0000000001
 12
0.8540406651
 22
0.0034007551
 32
0.0
 13
0.4075123767
 23
0.7529886846
 33
0.0
 40
0.0
 40
0.0
 40
0.0
 40
0.0
 40
0.2559276631
 40
0.5100595975
 40
0.7586378673
 40
1.0
 40
1.0
 40
1.0
 40
1.0
 10
-26.3473527268
 20
-14.5012472935
 30
0.0
 10
-26.274495183
 20
-14.5009571777
 30
0.0
 10
-26.1285827589
 20
-14.4801330157
 30
0.0
 10
-25.9287317439
 20
-14.3916909491
 30
0.0
 10
-25.7627710324
 20
-14.2560323571
 30
0.0
 10
-25.6803517472
 20
-14.141594116
 30
0.0
 10
-25.6475657284
 20
-14.0810131311
 30
0.0
 11
-26.3473527268
 21
-14.5012472935
 31
0.0
 11
-26.13097576
 21
-14.4703319086
 31
0.0
 11
-25.9324576404
 21
-14.3825980306
 31
0.0
 11
-25.7680754907
 21
-14.2482522296
 31
0.0
 11
-25.6475657284
 21
-14.0810131311
 31
0.0
  0
SPLINE
  5
477
100
AcDbEntity
  8
RACCORDO
100
AcDbSpline
 62
7
  6
CONTINUOUS
 70
0
 71
3
 72
11
 73
7
 74
5
 42
0.0000001
 43
0.0000001
 44
0.0000000001
 12
-0.4076962265
 22
0.7523792795
 32
0.0
 13
-0.8536128186
 23
0.0034286323
 33
0.0
 40
0.0
 40
0.0
 40
0.0
 40
0.0
 40
0.2412979041
 40
0.4897875107
 40
0.7440066303
 40
1.0
 40
1.0
 40
1.0
 40
1.0
 10
-25.647771152
 20
-5.9158683863
 30
0.0
 10
-25.6805632337
 20
-5.8553525385
 30
0.0
 10
-25.7629659824
 20
-5.7410439302
 30
0.0
 10
-25.928854914
 20
-5.605506253
 30
0.0
 10
-26.1286304051
 20
-5.5171173126
 30
0.0
 10
-26.2745129846
 20
-5.4963062236
 30
0.0
 10
-26.3473527252
 20
-5.4960136545
 30
0.0
 11
-25.647771152
 21
-5.9158683863
 31
0.0
 11
-25.768261625
 21
-5.7488102394
 31
0.0
 11
-25.9325329669
 21
-5.6146164825
 31
0.0
 11
-26.131027554
 21
-5.5269141557
 31
0.0
 11
-26.3473527252
 21
-5.4960136545
 31
0.0
  0
SPLINE
  5
478
100
AcDbEntity
  8
RACCORDO
100
AcDbSpline
 62
7
  6
CONTINUOUS
 70
0
 71
3
 72
12
 73
8
 74
6
 42
0.0000001
 43
0.0000001
 44
0.0000000001
 12
0.963301607
 22
-0.0046491856
 32
0.0
 13
0.3391564809
 23
-0.9016343396
 33
0.0
 40
0.0
 40
0.0
 40
0.0
 40
0.0
 40
0.2089130228
 40
0.4163451127
 40
0.6156964119
 40
0.8099618822
 40
1.0
 40
1.0
 40
1.0
 40
1.0
 10
-26.3463002734
 20
-5.494961209
 30
0.0
 10
-26.2792181899
 20
-5.4952849674
 30
0.0
 10
-26.1449957483
 20
-5.5131009743
 30
0.0
 10
-25.9599241983
 20
-5.588128266
 30
0.0
 10
-25.8025090446
 20
-5.7030420436
 30
0.0
 10
-25.6801768427
 20
-5.8471639196
 30
0.0
 10
-25.6233508904
 20
-5.9581170145
 30
0.0
 10
-25.6018666706
 20
-6.0152319787
 30
0.0
 11
-26.3463002734
 21
-5.494961209
 31
0.0
 11
-26.1468029107
 21
-5.5214526986
 31
0.0
 11
-25.9615875002
 21
-5.5964465683
 31
0.0
 11
-25.806457854
 21
-5.7096422266
 31
0.0
 11
-25.6853527102
 21
-5.8523108359
 31
0.0
 11
-25.6018666706
 21
-6.0152319787
 31
0.0
  0
SPLINE
  5
479
100
AcDbEntity
  8
RACCORDO
100
AcDbSpline
 62
7
  6
CONTINUOUS
 70
0
 71
3
 72
12
 73
8
 74
6
 42
0.0000001
 43
0.0000001
 44
0.0000000001
 12
-0.3391565194
 22
-0.9016344417
 32
0.0
 13
-0.9633017161
 23
-0.0046491861
 33
0.0
 40
0.0
 40
0.0
 40
0.0
 40
0.0
 40
0.1898532676
 40
0.3841355436
 40
0.5839326901
 40
0.7915235686
 40
1.0
 40
1.0
 40
1.0
 40
1.0
 10
-25.6018666706
 20
-13.9820289693
 30
0.0
 10
-25.6233299951
 20
-14.0390883843
 30
0.0
 10
-25.6801176558
 20
-14.1499969245
 30
0.0
 10
-25.8024771161
 20
-14.2942137351
 30
0.0
 10
-25.960069921
 20
-14.4092415872
 30
0.0
 10
-26.1452286989
 20
-14.4842095725
 30
0.0
 10
-26.279358372
 20
-14.5019766571
 30
0.0
 10
-26.3463002734
 20
-14.502299739
 30
0.0
 11
-25.6018666706
 21
-13.9820289693
 31
0.0
 11
-25.6852534205
 21
-14.1448009268
 31
0.0
 11
-25.8063387224
 21
-14.2875076367
 31
0.0
 11
-25.9618229171
 21
-14.4009460733
 31
0.0
 11
-26.1472127552
 21
-14.4759167339
 31
0.0
 11
-26.3463002734
 21
-14.502299739
 31
0.0
  0
SPLINE
  5
47A
100
AcDbEntity
  8
RACCORDO
100
AcDbSpline
 62
253
  6
CONTINUOUS
 70
0
 71
3
 72
10
 73
6
 74
4
 42
0.0000001
 43
0.0000001
 44
0.0000000001
 12
0.0001904839
 22
0.1532593811
 32
0.0
 13
0.1529844627
 23
0.0091775997
 33
0.0
 40
0.0
 40
0.0
 40
0.0
 40
0.0
 40
0.4873061606
 40
0.8488463997
 40
1.0
 40
1.0
 40
1.0
 40
1.0
 10
-42.6035083732
 20
-5.598206291
 30
0.0
 10
-42.6034774319
 20
-5.5733115441
 30
0.0
 10
-42.6024532865
 20
-5.5269461234
 30
0.0
 10
-42.5949998161
 20
-5.4848493309
 30
0.0
 10
-42.5896252124
 20
-5.448674127
 30
0.0
 10
-42.5819171616
 20
-5.448211718
 30
0.0
 11
-42.6035083732
 21
-5.598206291
 31
0.0
 11
-42.6005539436
 21
-5.5235804526
 31
0.0
 11
-42.5926593096
 21
-5.4687362661
 31
0.0
 11
-42.5819171616
 21
-5.448211718
 31
0.0
  0
SPLINE
  5
47B
100
AcDbEntity
  8
RACCORDO
100
AcDbSpline
 62
253
  6
CONTINUOUS
 70
0
 71
3
 72
13
 73
9
 74
7
 42
0.0000001
 43
0.0000001
 44
0.0000000001
 12
0.0034986821
 22
-1.4671028591
 32
0.0
 13
1.4671069235
 23
0.0005614151
 33
0.0
 40
0.0
 40
0.0
 40
0.0
 40
0.0
 40
0.1306604122
 40
0.2712988689
 40
0.4271563582
 40
0.5988839063
 40
0.7886008888
 40
1.0
 40
1.0
 40
1.0
 40
1.0
 10
-43.6485211662
 20
-13.7537987242
 30
0.0
 10
-43.6483687864
 20
-13.8176961456
 30
0.0
 10
-43.6267184643
 20
-13.9512248977
 30
0.0
 10
-43.5291263998
 20
-14.1394567738
 30
0.0
 10
-43.3681871173
 20
-14.3063524371
 30
0.0
 10
-43.1501759166
 20
-14.4394267271
 30
0.0
 10
-42.8822894819
 20
-14.5283600821
 30
0.0
 10
-42.685375467
 20
-14.5490885245
 30
0.0
 10
-42.5819937671
 20
-14.5490489636
 30
0.0
 11
-43.6485211662
 21
-13.7537987242
 31
0.0
 11
-43.6181595218
 21
-13.9430718171
 31
0.0
 11
-43.5249149105
 21
-14.1271321332
 31
0.0
 11
-43.3678791383
 21
-14.2933397965
 31
0.0
 11
-43.1539875447
 21
-14.4264769695
 31
0.0
 11
-42.890340757
 21
-14.5157003396
 31
0.0
 11
-42.5819937671
 21
-14.5490489636
 31
0.0
  0
SPLINE
  5
47C
100
AcDbEntity
  8
RACCORDO
100
AcDbSpline
 62
253
  6
CONTINUOUS
 70
0
 71
3
 72
23
 73
19
 74
17
 42
0.0000001
 43
0.0000001
 44
0.0000000001
 12
-1.2642518591
 22
0.0015966521
 32
0.0
 13
-0.0000080989
 23
-1.2642528673
 33
0.0
 40
0.0
 40
0.0
 40
0.0
 40
0.0
 40
0.1076896425
 40
0.2058838427
 40
0.2963598099
 40
0.3797428515
 40
0.4560521426
 40
0.5256953123
 40
0.5893903509
 40
0.6479493248
 40
0.7019762054
 40
0.7515119503
 40
0.7968745093
 40
0.8393420211
 40
0.8800055436
 40
0.9197231392
 40
0.9594028088
 40
1.0
 40
1.0
 40
1.0
 40
1.0
 10
-42.6035083679
 20
-5.598206291
 30
0.0
 10
-42.6488906448
 20
-5.5981489767
 30
0.0
 10
-42.7357213258
 20
-5.6021690538
 30
0.0
 10
-42.8595558152
 20
-5.6195967187
 30
0.0
 10
-42.9713321623
 20
-5.6457895609
 30
0.0
 10
-43.0715444181
 20
-5.6789834015
 30
0.0
 10
-43.1603051129
 20
-5.717551538
 30
0.0
 10
-43.2379105993
 20
-5.7600342632
 30
0.0
 10
-43.3050573982
 20
-5.8053119141
 30
0.0
 10
-43.3625444567
 20
-5.8525429797
 30
0.0
 10
-43.4109628884
 20
-5.9009005259
 30
0.0
 10
-43.4508307336
 20
-5.9495051576
 30
0.0
 10
-43.4829470809
 20
-5.9977830147
 30
0.0
 10
-43.5082985462
 20
-6.0457359741
 30
0.0
 10
-43.527721655
 20
-6.0938240742
 30
0.0
 10
-43.5416707278
 20
-6.1425597098
 30
0.0
 10
-43.5502574371
 20
-6.1924914446
 30
0.0
 10
-43.5522065501
 20
-6.226353852
 30
0.0
 10
-43.5522066597
 20
-6.2434622238
 30
0.0
 11
-42.6035083679
 21
-5.598206291
 31
0.0
 11
-42.7395066407
 21
-5.6045670212
 31
0.0
 11
-42.8624236776
 21
-5.6219656556
 31
0.0
 11
-42.9737622292
 21
-5.6481866584
 31
0.0
 11
-43.073788286
 21
-5.6814670496
 31
0.0
 11
-43.1622123439
 21
-5.7200476791
 31
0.0
 11
-43.2393754336
 21
-5.7624511848
 31
0.0
 11
-43.3060647542
 21
-5.8075851354
 31
0.0
 11
-43.3631861768
 21
-5.854681633
 31
0.0
 11
-43.4114318322
 21
-5.9030318532
 31
0.0
 11
-43.4510712994
 21
-5.9515157875
 31
0.0
 11
-43.4827686969
 21
-5.9993098067
 31
0.0
 11
-43.5078042277
 21
-6.0468051039
 31
0.0
 11
-43.5270088207
 21
-6.0944922752
 31
0.0
 11
-43.5407885278
 21
-6.1427776093
 31
0.0
 11
-43.5492644868
 21
-6.1922215067
 31
0.0
 11
-43.5522066597
 21
-6.2434622238
 31
0.0
  0
SPLINE
  5
47D
100
AcDbEntity
  8
RACCORDO
100
AcDbSpline
 62
253
  6
CONTINUOUS
 70
0
 71
3
 72
12
 73
8
 74
6
 42
0.0000001
 43
0.0000001
 44
0.0000000001
 12
-16.1832931022
 22
0.0785726928
 32
0.0
 13
-16.1834707211
 23
0.0206087365
 33
0.0
 40
0.0
 40
0.0
 40
0.0
 40
0.0
 40
0.1892594528
 40
0.3864270751
 40
0.5890615158
 40
0.7945379992
 40
1.0
 40
1.0
 40
1.0
 40
1.0
 10
-26.420103267
 20
-5.646007943
 30
0.0
 10
-27.4410503328
 20
-5.6410510681
 30
0.0
 10
-29.5256088795
 20
-5.6318079945
 30
0.0
 10
-32.7032770041
 20
-5.620165542
 30
0.0
 10
-35.9684350662
 20
-5.6105773342
 30
0.0
 10
-39.2783427901
 20
-5.6031411377
 30
0.0
 10
-41.4951456099
 20
-5.5996177284
 30
0.0
 10
-42.6035083679
 20
-5.598206291
 30
0.0
 11
-26.420103267
 21
-5.646007943
 31
0.0
 11
-29.4829502559
 21
-5.6323822845
 31
0.0
 11
-32.6737877353
 21
-5.6206550877
 31
0.0
 11
-35.9531047096
 21
-5.6109967797
 31
0.0
 11
-39.2784216201
 21
-5.6035052277
 31
0.0
 11
-42.6035083679
 21
-5.598206291
 31
0.0
  0
SPLINE
  5
47E
100
AcDbEntity
  8
RACCORDO
100
AcDbSpline
 62
253
  6
CONTINUOUS
 70
0
 71
3
 72
13
 73
9
 74
7
 42
0.0000001
 43
0.0000001
 44
0.0000000001
 12
-0.000097535
 22
1.0155979333
 32
0.0
 13
-1.0155848177
 23
0.0051623342
 33
0.0
 40
0.0
 40
0.0
 40
0.0
 40
0.0
 40
0.1574580943
 40
0.318221487
 40
0.4831999056
 40
0.6531434086
 40
0.8267341275
 40
1.0
 40
1.0
 40
1.0
 40
1.0
 10
-25.7753544459
 20
-6.2991714276
 30
0.0
 10
-25.7753595652
 20
-6.2458667225
 30
0.0
 10
-25.7886307596
 20
-6.1376844305
 30
0.0
 10
-25.8482290964
 20
-5.9836025755
 30
0.0
 10
-25.9470261027
 20
-5.84566171
 30
0.0
 10
-26.0816548855
 20
-5.735100419
 30
0.0
 10
-26.2434722074
 20
-5.6632089219
 30
0.0
 10
-26.3614478705
 20
-5.6463060951
 30
0.0
 10
-26.420103267
 20
-5.646007943
 30
0.0
 11
-25.7753544459
 21
-6.2991714276
 31
0.0
 11
-25.7948533352
 21
-6.1404505475
 31
0.0
 11
-25.8537370297
 21
-5.9881675208
 31
0.0
 11
-25.9513542487
 21
-5.8519894583
 31
0.0
 11
-26.0847552144
 21
-5.7424770625
 31
0.0
 11
-26.245920817
 21
-5.6710154229
 31
0.0
 11
-26.420103267
 21
-5.646007943
 31
0.0
  0
SPLINE
  5
47F
100
AcDbEntity
  8
RACCORDO
100
AcDbSpline
 62
253
  6
CONTINUOUS
 70
0
 71
3
 72
13
 73
9
 74
7
 42
0.0000001
 43
0.0000001
 44
0.0000000001
 12
1.0155870409
 22
0.0050353909
 32
0.0
 13
0.0004755981
 23
1.0155994124
 33
0.0
 40
0.0
 40
0.0
 40
0.0
 40
0.0
 40
0.1732378137
 40
0.3466847598
 40
0.5167023641
 40
0.6820328986
 40
0.8433848719
 40
1.0
 40
1.0
 40
1.0
 40
1.0
 10
-26.420103267
 20
-14.351253005
 30
0.0
 10
-26.3614572408
 20
-14.3509622316
 30
0.0
 10
-26.2435381972
 20
-14.3340657582
 30
0.0
 10
-26.0817485644
 20
-14.2622072665
 30
0.0
 10
-25.9470188757
 20
-14.1516132788
 30
0.0
 10
-25.8480255027
 20
-14.0133793365
 30
0.0
 10
-25.7885278965
 20
-13.8591985694
 30
0.0
 10
-25.7753792745
 20
-13.7511089311
 30
0.0
 10
-25.7753544459
 20
-13.6980895205
 30
0.0
 11
-26.420103267
 21
-14.351253005
 31
0.0
 11
-26.2459478196
 21
-14.3262560333
 31
0.0
 11
-26.0849069236
 21
-14.2548726954
 31
0.0
 11
-25.9514235793
 21
-14.1453416226
 31
0.0
 11
-25.8536079156
 21
-14.0088654937
 31
0.0
 11
-25.7946387139
 21
-13.8559744271
 31
0.0
 11
-25.7753544459
 21
-13.6980895205
 31
0.0
  0
SPLINE
  5
480
100
AcDbEntity
  8
RACCORDO
100
AcDbSpline
 62
253
  6
CONTINUOUS
 70
0
 71
3
 72
12
 73
8
 74
6
 42
0.0000001
 43
0.0000001
 44
0.0000000001
 12
16.1834707211
 22
0.0206087436
 32
0.0
 13
16.1832931026
 23
0.0785726056
 33
0.0
 40
0.0
 40
0.0
 40
0.0
 40
0.0
 40
0.2054052013
 40
0.4108736027
 40
0.6135279776
 40
0.8107261534
 40
1.0
 40
1.0
 40
1.0
 40
1.0
 10
-42.6035083679
 20
-14.3990546571
 30
0.0
 10
-41.495452014
 20
-14.3976436093
 30
0.0
 10
-39.2789991965
 20
-14.3941209499
 30
0.0
 10
-35.9693339386
 20
-14.3866859579
 30
0.0
 10
-32.7039471187
 20
-14.3770977062
 30
0.0
 10
-29.5259289921
 20
-14.3654543445
 30
0.0
 10
-27.4411279793
 20
-14.3562102514
 30
0.0
 10
-26.420103267
 20
-14.351253005
 30
0.0
 11
-42.6035083679
 21
-14.3990546571
 31
0.0
 11
-39.2793408315
 21
-14.3937574835
 31
0.0
 11
-35.9541547148
 21
-14.3862668925
 31
0.0
 11
-32.6745151358
 21
-14.3766082644
 31
0.0
 11
-29.4831831961
 21
-14.3648796099
 31
0.0
 11
-26.420103267
 21
-14.351253005
 31
0.0
  0
SPLINE
  5
481
100
AcDbEntity
  8
RACCORDO
100
AcDbSpline
 62
253
  6
CONTINUOUS
 70
0
 71
3
 72
13
 73
9
 74
7
 42
0.0000001
 43
0.0000001
 44
0.0000000001
 12
0.0016398708
 22
-1.2612747793
 32
0.0
 13
1.2612747145
 23
0.0016889862
 33
0.0
 40
0.0
 40
0.0
 40
0.0
 40
0.0
 40
0.1230923845
 40
0.2587242742
 40
0.4129741374
 40
0.5868170691
 40
0.7818920769
 40
1.0
 40
1.0
 40
1.0
 40
1.0
 10
-43.5522066597
 20
-13.7537987242
 30
0.0
 10
-43.5521393745
 20
-13.8055498309
 30
0.0
 10
-43.5326645398
 20
-13.9151226185
 30
0.0
 10
-43.4452548481
 20
-14.068493105
 30
0.0
 10
-43.3015179534
 20
-14.203818311
 30
0.0
 10
-43.1074103591
 20
-14.311300727
 30
0.0
 10
-42.8694981558
 20
-14.3827729533
 30
0.0
 10
-42.6952063707
 20
-14.3991774508
 30
0.0
 10
-42.6035083679
 20
-14.3990546571
 30
0.0
 11
-43.5522066597
 21
-13.7537987242
 31
0.0
 11
-43.525621186
 21
-13.9067590024
 31
0.0
 11
-43.4429571812
 21
-14.0565299694
 31
0.0
 11
-43.3031628969
 21
-14.191836634
 31
0.0
 11
-43.1124813816
 21
-14.300082712
 31
0.0
 11
-42.8773094004
 21
-14.3724117634
 31
0.0
 11
-42.6035083679
 21
-14.3990546571
 31
0.0
  0
SPLINE
  5
482
100
AcDbEntity
  8
RACCORDO
100
AcDbSpline
 62
253
  6
CONTINUOUS
 70
0
 71
3
 72
18
 73
14
 74
12
 42
0.0000001
 43
0.0000001
 44
0.0000000001
 12
-0.0020492296
 22
3.9278268576
 32
0.0
 13
0.0008809143
 23
-3.9278272934
 33
0.0
 40
0.0
 40
0.0
 40
0.0
 40
0.0
 40
0.0912429311
 40
0.1830248028
 40
0.2741672923
 40
0.3646779435
 40
0.454621619
 40
0.5443489355
 40
0.634362334
 40
0.7250636717
 40
0.8164357416
 40
0.9083260204
 40
1.0
 40
1.0
 40
1.0
 40
1.0
 10
-40.9198333345
 20
-11.998630474
 30
0.0
 10
-40.9198956605
 20
-11.8791683289
 30
0.0
 10
-40.9533728477
 20
-11.6382038446
 30
0.0
 10
-41.101436383
 20
-11.3061242416
 30
0.0
 10
-41.3360720434
 20
-11.0292213231
 30
0.0
 10
-41.6376645931
 20
-10.8315961603
 30
0.0
 10
-41.9813888668
 20
-10.7288967845
 30
0.0
 10
-42.3394543701
 20
-10.7288536
 30
0.0
 10
-42.6835703621
 20
-10.8312324267
 30
0.0
 10
-42.986294979
 20
-11.0281868836
 30
0.0
 10
-43.2226549621
 20
-11.3045301132
 30
0.0
 10
-43.372593455
 20
-11.6368937535
 30
0.0
 10
-43.4067756888
 20
-11.8786039543
 30
0.0
 10
-43.4067487698
 20
-11.998630474
 30
0.0
 11
-40.9198333345
 21
-11.998630474
 31
0.0
 11
-40.9695194276
 21
-11.6437048985
 31
0.0
 11
-41.116428576
 21
-11.3144931622
 31
0.0
 11
-41.3481535902
 21
-11.0416163292
 31
0.0
 11
-41.645637455
 21
-10.8469605736
 31
0.0
 11
-41.9841641208
 21
-10.7459222691
 31
0.0
 11
-42.3365975167
 21
-10.74581742
 31
0.0
 11
-42.6755295443
 21
-10.8464538862
 31
0.0
 11
-42.9742590974
 21
-11.0405705284
 31
0.0
 11
-43.2077488272
 21
-11.3131273986
 31
0.0
 11
-43.3561910894
 21
-11.6421178985
 31
0.0
 11
-43.4067487698
 21
-11.998630474
 31
0.0
  0
SPLINE
  5
483
100
AcDbEntity
  8
RACCORDO
100
AcDbSpline
 62
253
  6
CONTINUOUS
 70
0
 71
3
 72
18
 73
14
 74
12
 42
0.0000001
 43
0.0000001
 44
0.0000000001
 12
0.000931738
 22
-3.9278396772
 32
0.0
 13
0.0011264741
 23
3.9278396262
 33
0.0
 40
0.0
 40
0.0
 40
0.0
 40
0.0
 40
0.0913408616
 40
0.1831383435
 40
0.2745656547
 40
0.3653768658
 40
0.4555009293
 40
0.5453110791
 40
0.6352666468
 40
0.7257076406
 40
0.8167889831
 40
0.9085666992
 40
1.0
 40
1.0
 40
1.0
 40
1.0
 10
-43.4067487698
 20
-11.998630474
 30
0.0
 10
-43.4067204012
 20
-12.1182212274
 30
0.0
 10
-43.3728305817
 20
-12.3593594433
 30
0.0
 10
-43.2234683943
 20
-12.6914512958
 30
0.0
 10
-42.9873990735
 20
-12.9681702328
 30
0.0
 10
-42.6845587722
 20
-13.1656456164
 30
0.0
 10
-42.3401112148
 20
-13.2683697107
 30
0.0
 10
-41.9817611044
 20
-13.2684470872
 30
0.0
 10
-41.6379879524
 20
-13.1657891951
 30
0.0
 10
-41.3364733873
 20
-12.9683475176
 30
0.0
 10
-41.1018271186
 20
-12.6916925248
 30
0.0
 10
-40.9534944362
 20
-12.35956153
 30
0.0
 10
-40.919867667
 20
-12.1183422547
 30
0.0
 10
-40.9198333345
 20
-11.998630474
 30
0.0
 11
-43.4067487698
 21
-11.998630474
 31
0.0
 11
-43.356562823
 21
-12.353875337
 31
0.0
 11
-43.2086666064
 21
-12.6827133011
 31
0.0
 11
-42.9753807514
 21
-12.9557316461
 31
0.0
 11
-42.6764877483
 21
-13.1503905166
 31
0.0
 11
-42.3372044953
 21
-13.2513748466
 31
0.0
 11
-41.9844446157
 21
-13.2513874872
 31
0.0
 11
-41.6458552256
 21
-13.1503921342
 31
0.0
 11
-41.3485433201
 21
-12.9559712546
 31
0.0
 11
-41.1168419559
 21
-12.6833880006
 31
0.0
 11
-40.9697324246
 21
-12.35428239
 31
0.0
 11
-40.9198333345
 21
-11.998630474
 31
0.0
  0
SPLINE
  5
484
100
AcDbEntity
  8
RACCORDO
100
AcDbSpline
 62
253
  6
CONTINUOUS
 70
0
 71
3
 72
18
 73
14
 74
12
 42
0.0000001
 43
0.0000001
 44
0.0000000001
 12
-0.0011112103
 22
3.9278394199
 32
0.0
 13
-0.0009341156
 23
-3.927839466
 33
0.0
 40
0.0
 40
0.0
 40
0.0
 40
0.0
 40
0.0912942853
 40
0.1830199452
 40
0.2740854825
 40
0.3644350992
 40
0.4543753187
 40
0.5442815489
 40
0.6344515684
 40
0.7252448707
 40
0.8166478715
 40
0.9085529181
 40
1.0
 40
1.0
 40
1.0
 40
1.0
 10
-40.9198333345
 20
-7.998630474
 30
0.0
 10
-40.9198671503
 20
-7.8791007098
 30
0.0
 10
-40.9534069925
 20
-7.6381377442
 30
0.0
 10
-41.1014550808
 20
-7.3061858877
 30
0.0
 10
-41.3357901729
 20
-7.0295457742
 30
0.0
 10
-41.6369991181
 20
-6.8319560195
 30
0.0
 10
-41.9806539953
 20
-6.7289600457
 30
0.0
 10
-42.339184401
 20
-6.7287277792
 30
0.0
 10
-42.6838591348
 20
-6.8312848001
 30
0.0
 10
-42.9868151326
 20
-7.0285881448
 30
0.0
 10
-43.2231149084
 20
-7.3052199582
 30
0.0
 10
-43.3727500198
 20
-7.6374781731
 30
0.0
 10
-43.4067202957
 20
-7.8789006549
 30
0.0
 10
-43.4067487698
 20
-7.998630474
 30
0.0
 11
-40.9198333345
 21
-7.998630474
 31
0.0
 11
-40.969580784
 21
-7.6435086889
 31
0.0
 11
-41.1164383319
 21
-7.3145144811
 31
0.0
 11
-41.3479279757
 21
-7.0418328564
 31
0.0
 11
-41.644781961
 21
-6.8473677578
 31
0.0
 11
-41.9832132008
 21
-6.746053784
 31
0.0
 11
-42.3363503292
 21
-6.7457618987
 31
0.0
 11
-42.6758698887
 21
-6.8465847424
 31
0.0
 11
-42.9748157424
 21
-7.0410334226
 31
0.0
 11
-43.2082126883
 21
-7.3138311254
 31
0.0
 11
-43.3564456461
 21
-7.6429808298
 31
0.0
 11
-43.4067487698
 21
-7.998630474
 31
0.0
  0
SPLINE
  5
485
100
AcDbEntity
  8
RACCORDO
100
AcDbSpline
 62
253
  6
CONTINUOUS
 70
0
 71
3
 72
18
 73
14
 74
12
 42
0.0000001
 43
0.0000001
 44
0.0000000001
 12
-0.0008822394
 22
-3.9278276361
 32
0.0
 13
0.0020779383
 23
3.9278271855
 33
0.0
 40
0.0
 40
0.0
 40
0.0
 40
0.0
 40
0.0915561088
 40
0.1833711877
 40
0.2747536385
 40
0.3654761978
 40
0.4555212756
 40
0.5452152738
 40
0.6350702163
 40
0.7255284679
 40
0.8167045801
 40
0.9085421385
 40
1.0
 40
1.0
 40
1.0
 40
1.0
 10
-43.4067487698
 20
-7.998630474
 30
0.0
 10
-43.4067756946
 20
-8.1185026788
 30
0.0
 10
-43.3726752244
 20
-8.3599551368
 30
0.0
 10
-43.2229995326
 20
-8.6921626131
 30
0.0
 10
-42.9868404878
 20
-8.9686033155
 30
0.0
 10
-42.6841514274
 20
-9.1657698873
 30
0.0
 10
-42.3400550836
 20
-9.2683193951
 30
0.0
 10
-41.9821133471
 20
-9.2684458116
 30
0.0
 10
-41.6385519463
 20
-9.1660472109
 30
0.0
 10
-41.3369064352
 20
-8.9687738219
 30
0.0
 10
-41.101985106
 20
-8.6920421761
 30
0.0
 10
-40.9535032443
 20
-8.3597026109
 30
0.0
 10
-40.9198966825
 20
-8.1183740322
 30
0.0
 10
-40.9198333345
 20
-7.998630474
 30
0.0
 11
-43.4067487698
 21
-7.998630474
 31
0.0
 11
-43.3563214552
 21
-8.354693954
 31
0.0
 11
-43.2081591953
 21
-8.6834867339
 31
0.0
 11
-42.9748042501
 21
-8.9562127186
 31
0.0
 11
-42.6761110083
 21
-9.1505381796
 31
0.0
 11
-42.3371070053
 21
-9.2513693629
 31
0.0
 11
-41.984804437
 21
-9.2514320171
 31
0.0
 11
-41.6465438969
 21
-9.1507208727
 31
0.0
 11
-41.3490587195
 21
-8.956443219
 31
0.0
 11
-41.1170006009
 21
-8.6836761508
 31
0.0
 11
-40.9697536604
 21
-8.3543757126
 31
0.0
 11
-40.9198333345
 21
-7.998630474
 31
0.0
  0
SPLINE
  5
486
100
AcDbEntity
  8
RACCORDO
100
AcDbSpline
 62
253
  6
CONTINUOUS
 70
0
 71
3
 72
12
 73
8
 74
6
 42
0.0000001
 43
0.0000001
 44
0.0000000001
 12
-16.2344527574
 22
0.0785724843
 32
0.0
 13
-16.2346298152
 23
0.0206090471
 33
0.0
 40
0.0
 40
0.0
 40
0.0
 40
0.0
 40
0.1892753094
 40
0.3864685254
 40
0.5891253597
 40
0.7946191277
 40
1.0
 40
1.0
 40
1.0
 40
1.0
 10
-26.3473527252
 20
-5.4960136545
 30
0.0
 10
-27.3716130816
 20
-5.4910563774
 30
0.0
 10
-29.4629857482
 20
-5.4818123691
 30
0.0
 10
-32.6510447088
 20
-5.4701690083
 30
0.0
 10
-35.9268778622
 20
-5.4605803809
 30
0.0
 10
-39.2470245737
 20
-5.4531454574
 30
0.0
 10
-41.4704896496
 20
-5.4496229039
 30
0.0
 10
-42.5819171274
 20
-5.4482120026
 30
0.0
 11
-26.3473527252
 21
-5.4960136545
 31
0.0
 11
-29.4201395683
 21
-5.4823869561
 31
0.0
 11
-32.6214795272
 21
-5.4706585811
 31
0.0
 11
-35.9115266846
 21
-5.4609998132
 31
0.0
 11
-39.2476362141
 21
-5.4535084207
 31
0.0
 11
-42.5819171274
 21
-5.4482120026
 31
0.0
  0
SPLINE
  5
487
100
AcDbEntity
  8
RACCORDO
100
AcDbSpline
 62
253
  6
CONTINUOUS
 70
0
 71
3
 72
12
 73
8
 74
6
 42
0.0000001
 43
0.0000001
 44
0.0000000001
 12
16.2347179767
 22
0.0206091688
 32
0.0
 13
16.2345409187
 23
0.0785727789
 33
0.0
 40
0.0
 40
0.0
 40
0.0
 40
0.0
 40
0.2053287261
 40
0.4108143702
 40
0.6134914011
 40
0.8107160507
 40
1.0
 40
1.0
 40
1.0
 40
1.0
 10
-42.5820052906
 20
-14.5490490855
 30
0.0
 10
-41.4708539701
 20
-14.547638534
 30
0.0
 10
-39.2477029754
 20
-14.5441166759
 30
0.0
 10
-35.9277550928
 20
-14.5366828539
 30
0.0
 10
-32.6516687114
 20
-14.5270940872
 30
0.0
 10
-29.4632662827
 20
-14.5154498036
 30
0.0
 10
-27.3716654001
 20
-14.5062048155
 30
0.0
 10
-26.3473527268
 20
-14.5012472935
 30
0.0
 11
-42.5820052906
 21
-14.5490490855
 31
0.0
 11
-39.2485528482
 21
-14.5437542797
 31
0.0
 11
-35.9125570898
 21
-14.5362637995
 31
0.0
 11
-32.6221641794
 21
-14.5266046225
 31
0.0
 11
-29.420296521
 21
-14.5148746284
 31
0.0
 11
-26.3473527268
 21
-14.5012472935
 31
0.0
  0
SPLINE
  5
488
100
AcDbEntity
  8
RACCORDO
100
AcDbSpline
 62
253
  6
CONTINUOUS
 70
0
 71
3
 72
23
 73
19
 74
17
 42
0.0000001
 43
0.0000001
 44
0.0000000001
 12
-1.4706708966
 22
0.0005084617
 32
0.0
 13
-0.0012081562
 23
-1.4706704883
 33
0.0
 40
0.0
 40
0.0
 40
0.0
 40
0.0
 40
0.1039804085
 40
0.1989815736
 40
0.2868406904
 40
0.3682189311
 40
0.443152769
 40
0.5120305404
 40
0.5755266452
 40
0.6344025005
 40
0.6892023973
 40
0.7398882791
 40
0.7866922148
 40
0.8308398303
 40
0.8733876458
 40
0.9151638372
 40
0.9570549558
 40
1.0
 40
1.0
 40
1.0
 40
1.0
 10
-42.5819171317
 20
-5.4482120025
 30
0.0
 10
-42.6328907852
 20
-5.4481943792
 30
0.0
 10
-42.730521848
 20
-5.4532607687
 30
0.0
 10
-42.869686068
 20
-5.4748916486
 30
0.0
 10
-42.9953153436
 20
-5.5073045677
 30
0.0
 10
-43.1079631564
 20
-5.5483221227
 30
0.0
 10
-43.2077472372
 20
-5.5959374709
 30
0.0
 10
-43.2949967827
 20
-5.6483504247
 30
0.0
 10
-43.3704935242
 20
-5.7041829724
 30
0.0
 10
-43.4351321559
 20
-5.7623980714
 30
0.0
 10
-43.4895719261
 20
-5.8219728221
 30
0.0
 10
-43.5343959375
 20
-5.8818223414
 30
0.0
 10
-43.5705105188
 20
-5.941249671
 30
0.0
 10
-43.5990274684
 20
-6.0002654946
 30
0.0
 10
-43.6208853419
 20
-6.059434661
 30
0.0
 10
-43.6365948497
 20
-6.119385293
 30
0.0
 10
-43.6462838397
 20
-6.1807940495
 30
0.0
 10
-43.6485039799
 20
-6.2224142705
 30
0.0
 10
-43.6485212746
 20
-6.2434669402
 30
0.0
 11
-42.5819171317
 21
-5.4482120025
 31
0.0
 11
-42.7346291475
 21
-5.4562034488
 31
0.0
 11
-42.8726712248
 21
-5.4777625262
 31
0.0
 11
-42.9977538772
 21
-5.5101667425
 31
0.0
 11
-43.1101636364
 21
-5.5512458879
 31
0.0
 11
-43.2095623469
 21
-5.5988337252
 31
0.0
 11
-43.2963258282
 21
-5.6511126626
 31
0.0
 11
-43.3713316572
 21
-5.7067391037
 31
0.0
 11
-43.4355941336
 21
-5.7647705157
 31
0.0
 11
-43.4898844866
 21
-5.8243333202
 31
0.0
 11
-43.5345014467
 21
-5.8840482659
 31
0.0
 11
-43.5701914595
 21
-5.9429059847
 31
0.0
 11
-43.5983918727
 21
-6.0013884805
 31
0.0
 11
-43.6200361194
 21
-6.060099738
 31
0.0
 11
-43.6355805185
 21
-6.1195398453
 31
0.0
 11
-43.6451615753
 21
-6.1803983329
 31
0.0
 11
-43.6485212746
 21
-6.2434669402
 31
0.0
  0
SPLINE
  5
489
100
AcDbEntity
  8
RACCORDO
100
AcDbSpline
 62
253
  6
CONTINUOUS
 70
0
 71
3
 72
18
 73
14
 74
12
 42
0.0000001
 43
0.0000001
 44
0.0000000001
 12
-0.0004881813
 22
2.9306002592
 32
0.0
 13
-0.0004133173
 23
-2.9306002707
 33
0.0
 40
0.0
 40
0.0
 40
0.0
 40
0.0
 40
0.0919894059
 40
0.1840073635
 40
0.2751127684
 40
0.365170968
 40
0.4545471708
 40
0.5437740238
 40
0.6333858087
 40
0.7238680959
 40
0.8152641099
 40
0.9074331185
 40
1.0
 40
1.0
 40
1.0
 40
1.0
 10
-41.2571591943
 20
-7.998630474
 30
0.0
 10
-41.2571741635
 20
-7.9087690817
 30
0.0
 10
-41.282134021
 20
-7.7280284583
 30
0.0
 10
-41.3920693012
 20
-7.4790740053
 30
0.0
 10
-41.5658988504
 20
-7.2717831761
 30
0.0
 10
-41.7892584557
 20
-7.1236991285
 30
0.0
 10
-42.0440202449
 20
-7.0464710318
 30
0.0
 10
-42.309804727
 20
-7.0461444127
 30
0.0
 10
-42.5654037335
 20
-7.1227544548
 30
0.0
 10
-42.7901816254
 20
-7.2703476224
 30
0.0
 10
-42.96566021
 20
-7.4773598418
 30
0.0
 10
-43.0772252948
 20
-7.7267207629
 30
0.0
 10
-43.102678786
 20
-7.9082049647
 30
0.0
 10
-43.1026915392
 20
-7.998630474
 30
0.0
 11
-41.2571591943
 21
-7.998630474
 31
0.0
 11
-41.2942687879
 21
-7.7316126684
 31
0.0
 11
-41.4033792135
 21
-7.4850043424
 31
0.0
 11
-41.5752378124
 21
-7.28067577
 31
0.0
 11
-41.7953656349
 21
-7.135073815
 31
0.0
 11
-42.0460705179
 21
-7.0592302085
 31
0.0
 11
-42.3075585014
 21
-7.058862349
 31
0.0
 11
-42.559177438
 21
-7.134063707
 31
0.0
 11
-42.7809796485
 21
-7.2793824563
 31
0.0
 11
-42.9544125508
 21
-7.4834953468
 31
0.0
 11
-43.0648211958
 21
-7.7300103088
 31
0.0
 11
-43.1026915392
 21
-7.998630474
 31
0.0
  0
SPLINE
  5
48A
100
AcDbEntity
  8
RACCORDO
100
AcDbSpline
 62
253
  6
CONTINUOUS
 70
0
 71
3
 72
18
 73
14
 74
12
 42
0.0000001
 43
0.0000001
 44
0.0000000001
 12
-0.0004457061
 22
-2.9305973513
 32
0.0
 13
0.0009558461
 23
2.9305972293
 33
0.0
 40
0.0
 40
0.0
 40
0.0
 40
0.0
 40
0.0924860156
 40
0.1846049143
 40
0.2760396602
 40
0.3665260411
 40
0.4561033423
 40
0.545215644
 40
0.6345110665
 40
0.7245802932
 40
0.8157146438
 40
0.907820007
 40
1.0
 40
1.0
 40
1.0
 40
1.0
 10
-43.1026915392
 20
-7.998630474
 30
0.0
 10
-43.1027052797
 20
-8.0889768981
 30
0.0
 10
-43.0772529846
 20
-8.270330535
 30
0.0
 10
-42.9658205479
 20
-8.5196386937
 30
0.0
 10
-42.7904125606
 20
-8.726709205
 30
0.0
 10
-42.5656697264
 20
-8.8743685941
 30
0.0
 10
-42.3102374513
 20
-8.9510246221
 30
0.0
 10
-42.0446917597
 20
-8.9508570715
 30
0.0
 10
-41.7900390557
 20
-8.8739229359
 30
0.0
 10
-41.5665625589
 20
-8.7260847212
 30
0.0
 10
-41.3924573998
 20
-8.5188584899
 30
0.0
 10
-41.2822174426
 20
-8.2696955854
 30
0.0
 10
-41.2571885643
 20
-8.0886779514
 30
0.0
 10
-41.2571591943
 20
-7.998630474
 30
0.0
 11
-43.1026915392
 21
-7.998630474
 31
0.0
 11
-43.0648861497
 21
-8.2670201932
 31
0.0
 11
-42.9546153787
 21
-8.5134356888
 31
0.0
 11
-42.781179404
 21
-8.7176945475
 31
0.0
 11
-42.5594081042
 21
-8.8630818675
 31
0.0
 11
-42.3079121534
 21
-8.9383408501
 31
0.0
 11
-42.0467599601
 21
-8.9381302124
 31
0.0
 11
-41.796211864
 21
-8.8625871881
 31
0.0
 11
-41.5759101659
 21
-8.7171902494
 31
0.0
 11
-41.4038075139
 21
-8.5129566013
 31
0.0
 11
-41.2944208207
 21
-8.2661907711
 31
0.0
 11
-41.2571591943
 21
-7.998630474
 31
0.0
  0
SPLINE
  5
48B
100
AcDbEntity
  8
RACCORDO
100
AcDbSpline
 62
253
  6
CONTINUOUS
 70
0
 71
3
 72
18
 73
14
 74
12
 42
0.0000001
 43
0.0000001
 44
0.0000000001
 12
0.0004121407
 22
-2.930600426
 32
0.0
 13
0.0004951653
 23
2.9306004132
 33
0.0
 40
0.0
 40
0.0
 40
0.0
 40
0.0
 40
0.0924558525
 40
0.1845188453
 40
0.2759413337
 40
0.3664419738
 40
0.4560086045
 40
0.5451405843
 40
0.6345308501
 40
0.7246799798
 40
0.8157995192
 40
0.9078690515
 40
1.0
 40
1.0
 40
1.0
 40
1.0
 10
-43.1026915392
 20
-11.998630474
 30
0.0
 10
-43.1026788376
 20
-12.0889475276
 30
0.0
 10
-43.0772865035
 20
-12.2702162286
 30
0.0
 10
-42.9659278543
 20
-12.5194529794
 30
0.0
 10
-42.7906195958
 20
-12.7265334133
 30
0.0
 10
-42.5659265834
 20
-12.8742576307
 30
0.0
 10
-42.3104955306
 20
-12.9509941358
 30
0.0
 10
-42.0448447959
 20
-12.9509003533
 30
0.0
 10
-41.7899939702
 20
-12.8739258887
 30
0.0
 10
-41.5664078723
 20
-12.7259537454
 30
0.0
 10
-41.3923476356
 20
-12.5186528265
 30
0.0
 10
-41.2821996514
 20
-12.2695640312
 30
0.0
 10
-41.257174401
 20
-12.0886301392
 30
0.0
 10
-41.2571591943
 20
-11.998630474
 30
0.0
 11
-43.1026915392
 21
-11.998630474
 31
0.0
 11
-43.0649121619
 21
-12.2669348751
 31
0.0
 11
-42.9547548799
 21
-12.5132219667
 31
0.0
 11
-42.7814023185
 21
-12.7175048801
 31
0.0
 11
-42.5596396371
 21
-12.8629820504
 31
0.0
 11
-42.3081953695
 21
-12.9383055873
 31
0.0
 11
-42.046985186
 21
-12.9381663088
 31
0.0
 11
-41.7961648768
 21
-12.8625623271
 31
0.0
 11
-41.5756958269
 21
-12.7169933571
 31
0.0
 11
-41.4036816491
 21
-12.5127415653
 31
0.0
 11
-41.2943831868
 21
-12.2660511802
 31
0.0
 11
-41.2571591943
 21
-11.998630474
 31
0.0
  0
SPLINE
  5
48C
100
AcDbEntity
  8
RACCORDO
100
AcDbSpline
 62
253
  6
CONTINUOUS
 70
0
 71
3
 72
18
 73
14
 74
12
 42
0.0000001
 43
0.0000001
 44
0.0000000001
 12
-0.0009425622
 22
2.9305969697
 32
0.0
 13
0.0004452067
 23
-2.9305970874
 33
0.0
 40
0.0
 40
0.0
 40
0.0
 40
0.0
 40
0.0919626681
 40
0.184013873
 40
0.2751162797
 40
0.3652384723
 40
0.4546213197
 40
0.5437668345
 40
0.6333122394
 40
0.7237756779
 40
0.8151985173
 40
0.9073917241
 40
1.0
 40
1.0
 40
1.0
 40
1.0
 10
-41.2571591943
 20
-11.998630474
 30
0.0
 10
-41.2571880879
 20
-11.9087953019
 30
0.0
 10
-41.2821200326
 20
-11.7280501236
 30
0.0
 10
-41.3920497259
 20
-11.479081706
 30
0.0
 10
-41.5659439285
 20
-11.2717264374
 30
0.0
 10
-41.7893803349
 20
-11.1236257074
 30
0.0
 10
-42.0441525486
 20
-11.0464660108
 30
0.0
 10
-42.3097889672
 20
-11.0461703857
 30
0.0
 10
-42.5652344666
 20
-11.1226974626
 30
0.0
 10
-42.7900027361
 20
-11.2701950376
 30
0.0
 10
-42.9655594299
 20
-11.4771893945
 30
0.0
 10
-43.0771911422
 20
-11.7266150521
 30
0.0
 10
-43.1027052825
 20
-11.9081646261
 30
0.0
 10
-43.1026915392
 20
-11.998630474
 30
0.0
 11
-41.2571591943
 21
-11.998630474
 31
0.0
 11
-41.2942452162
 21
-11.7316887991
 31
0.0
 11
-41.4033821684
 21
-11.4849859842
 31
0.0
 11
-41.5752395519
 21
-11.2806682494
 31
0.0
 11
-41.7955405761
 21
-11.134988732
 31
0.0
 11
-42.0462825462
 21
-11.0592014785
 31
0.0
 11
-42.3075319181
 21
-11.0588646196
 31
0.0
 11
-42.5589740897
 21
-11.1339770762
 31
0.0
 11
-42.7807697154
 21
-11.2792045389
 31
0.0
 11
-42.9543052437
 21
-11.4833329973
 31
0.0
 11
-43.064785938
 21
-11.7298930671
 31
0.0
 11
-43.1026915392
 21
-11.998630474
 31
0.0
  0
SPLINE
  5
48D
100
AcDbEntity
  8
RACCORDO
100
AcDbSpline
 62
253
  6
CONTINUOUS
 70
0
 71
3
 72
10
 73
6
 74
4
 42
0.0000001
 43
0.0000001
 44
0.0000000001
 12
0.0006584487
 22
0.1778901414
 32
0.0
 13
0.1778693554
 23
0.0027979205
 33
0.0
 40
0.0
 40
0.0
 40
0.0
 40
0.0
 40
0.4234394065
 40
0.7661321187
 40
1.0
 40
1.0
 40
1.0
 40
1.0
 10
-26.4201034096
 20
-5.646007943
 30
0.0
 10
-26.4200104718
 20
-5.6208993777
 30
0.0
 10
-26.4139386216
 20
-5.5753204224
 30
0.0
 10
-26.3926559607
 20
-5.5193430434
 30
0.0
 10
-26.3612186954
 20
-5.49623177
 30
0.0
 10
-26.347352719
 20
-5.4960136554
 30
0.0
 11
-26.4201034096
 21
-5.646007943
 31
0.0
 11
-26.4101726085
 21
-5.5713392254
 31
0.0
 11
-26.3835687179
 21
-5.5164884524
 31
0.0
 11
-26.347352719
 21
-5.4960136554
 31
0.0
  0
SPLINE
  5
48E
100
AcDbEntity
  8
RACCORDO
100
AcDbSpline
 62
253
  6
CONTINUOUS
 70
0
 71
3
 72
10
 73
6
 74
4
 42
0.0000001
 43
0.0000001
 44
0.0000000001
 12
0.0006693874
 22
-0.1778741151
 32
0.0
 13
0.1778534127
 23
-0.0027950826
 33
0.0
 40
0.0
 40
0.0
 40
0.0
 40
0.0
 40
0.4234439386
 40
0.7661316913
 40
1.0
 40
1.0
 40
1.0
 40
1.0
 10
-26.4201038648
 20
-14.3512530052
 30
0.0
 10
-26.4200093821
 20
-14.3763595771
 30
0.0
 10
-26.41393599
 20
-14.4219339961
 30
0.0
 10
-26.3926526083
 20
-14.4779056252
 30
0.0
 10
-26.361217479
 20
-14.5010127708
 30
0.0
 10
-26.3473527201
 20
-14.5012306646
 30
0.0
 11
-26.4201038648
 21
-14.3512530052
 31
0.0
 11
-26.4101699735
 21
-14.4259152965
 31
0.0
 11
-26.3835663586
 21
-14.4807591343
 31
0.0
 11
-26.3473527201
 21
-14.5012306646
 31
0.0
  0
SPLINE
  5
48F
100
AcDbEntity
  8
RACCORDO
100
AcDbSpline
 62
253
  6
CONTINUOUS
 70
0
 71
3
 72
10
 73
6
 74
4
 42
0.0000001
 43
0.0000001
 44
0.0000000001
 12
0.000190522
 22
-0.153259564
 32
0.0
 13
0.152987509
 23
-0.0091297507
 33
0.0
 40
0.0
 40
0.0
 40
0.0
 40
0.0
 40
0.4873172312
 40
0.8488585601
 40
1.0
 40
1.0
 40
1.0
 40
1.0
 10
-42.6035093455
 20
-14.3990546571
 30
0.0
 10
-42.6034783973
 20
-14.4239499992
 30
0.0
 10
-42.6024536711
 20
-14.4703172988
 30
0.0
 10
-42.595001536
 20
-14.5124108393
 30
0.0
 10
-42.5896247458
 20
-14.5485889479
 30
0.0
 10
-42.5819171616
 20
-14.5490489092
 30
0.0
 11
-42.6035093455
 21
-14.3990546571
 31
0.0
 11
-42.6005547381
 21
-14.4736822756
 31
0.0
 11
-42.5926597049
 21
-14.5285266402
 31
0.0
 11
-42.5819171616
 21
-14.5490489092
 31
0.0
  0
SPLINE
  5
490
100
AcDbEntity
  8
RACCORDO
100
AcDbSpline
 62
253
  6
CONTINUOUS
 70
0
 71
3
 72
10
 73
6
 74
4
 42
0.0000001
 43
0.0000001
 44
0.0000000001
 12
1.0214415981
 22
1.0252517792
 32
0.0
 13
1.4566968396
 23
0.0382001028
 33
0.0
 40
0.0
 40
0.0
 40
0.0
 40
0.0
 40
0.1449153566
 40
0.4887746412
 40
1.0
 40
1.0
 40
1.0
 40
1.0
 10
-10.4995523085
 20
-46.7036056181
 30
0.0
 10
-10.4502114507
 20
-46.6540807091
 30
0.0
 10
-10.1838081204
 20
-46.6569115386
 30
0.0
 10
-9.7297384732
 20
-46.5866603953
 30
0.0
 10
-9.3098529867
 20
-46.5774851807
 30
0.0
 10
-9.0616195319
 20
-46.5709755603
 30
0.0
 11
-10.4995523085
 21
-46.7036056181
 31
0.0
 11
-10.2961499
 21
-46.6524920974
 31
0.0
 11
-9.8006213853
 21
-46.6066484797
 31
0.0
 11
-9.0616195319
 21
-46.5709755603
 31
0.0
  0
SPLINE
  5
491
100
AcDbEntity
  8
RACCORDO
100
AcDbSpline
 62
253
  6
CONTINUOUS
 70
0
 71
3
 72
8
 73
4
 74
2
 42
0.0000001
 43
0.0000001
 44
0.0000000001
 12
0.9081045592
 22
0.0238139375
 32
0.0
 13
0.9021011959
 23
0.0136838404
 33
0.0
 40
0.0
 40
0.0
 40
0.0
 40
0.0
 40
1.0
 40
1.0
 40
1.0
 40
1.0
 10
-9.0616195319
 20
-46.5709755603
 30
0.0
 10
-8.7589180121
 20
-46.5630375811
 30
0.0
 10
-8.4603822542
 20
-46.553576805
 30
0.0
 10
-8.1596818556
 20
-46.5490155249
 30
0.0
 11
-9.0616195319
 21
-46.5709755603
 31
0.0
 11
-8.1596818556
 21
-46.5490155249
 31
0.0
  0
SPLINE
  5
492
100
AcDbEntity
  8
RACCORDO
100
AcDbSpline
 62
253
  6
CONTINUOUS
 70
0
 71
3
 72
8
 73
4
 74
2
 42
0.0000001
 43
0.0000001
 44
0.0000000001
 12
0.9029393901
 22
-0.013697302
 32
0.0
 13
0.9089540008
 23
-0.0238543259
 33
0.0
 40
0.0
 40
0.0
 40
0.0
 40
0.0
 40
1.0
 40
1.0
 40
1.0
 40
1.0
 10
8.1596818556
 20
-46.5490155249
 30
0.0
 10
8.4606616523
 20
-46.5535812922
 30
0.0
 10
8.7594727017
 20
-46.5630534277
 30
0.0
 10
9.0624573686
 20
-46.5710048697
 30
0.0
 11
8.1596818556
 21
-46.5490155249
 31
0.0
 11
9.0624573686
 21
-46.5710048697
 31
0.0
  0
SPLINE
  5
493
100
AcDbEntity
  8
RACCORDO
100
AcDbSpline
 62
253
  6
CONTINUOUS
 70
0
 71
3
 72
10
 73
6
 74
4
 42
0.0000001
 43
0.0000001
 44
0.0000000001
 12
1.4558638957
 22
-0.0382072711
 32
0.0
 13
1.0207099279
 23
-1.0247998667
 33
0.0
 40
0.0
 40
0.0
 40
0.0
 40
0.0
 40
0.5114911735
 40
0.8552325225
 40
1.0
 40
1.0
 40
1.0
 40
1.0
 10
9.0624573686
 20
-46.5710048697
 30
0.0
 10
9.3106778795
 20
-46.577519097
 30
0.0
 10
9.7303956697
 20
-46.5867045697
 30
0.0
 10
10.184199973
 20
-46.65692218
 30
0.0
 10
10.450297108
 20
-46.6541530542
 30
0.0
 10
10.4995523085
 20
-46.7036056181
 30
0.0
 11
9.0624573686
 21
-46.5710048697
 31
0.0
 11
9.8014148714
 21
-46.6067008873
 31
0.0
 11
10.2964837343
 21
-46.6525386835
 31
0.0
 11
10.4995523085
 21
-46.7036056181
 31
0.0
  0
SPLINE
  5
494
100
AcDbEntity
  8
RACCORDO
100
AcDbSpline
 62
253
  6
CONTINUOUS
 70
0
 71
3
 72
9
 73
5
 74
3
 42
0.0000001
 43
0.0000001
 44
0.0000000001
 12
0.2434397321
 22
-0.1613111709
 32
0.0
 13
0.2886506968
 23
-0.000776809
 33
0.0
 40
0.0
 40
0.0
 40
0.0
 40
0.0
 40
0.1152965573
 40
1.0
 40
1.0
 40
1.0
 40
1.0
 10
-10.7749775225
 20
-46.6200955811
 30
0.0
 10
-10.7656216015
 20
-46.626295122
 30
0.0
 10
-10.6826078243
 20
-46.6773292096
 30
0.0
 10
-10.5846757303
 20
-46.7033765362
 30
0.0
 10
-10.4995523085
 20
-46.7036056181
 30
0.0
 11
-10.7749775225
 21
-46.6200955811
 31
0.0
 11
-10.7462808825
 21
-46.6377310748
 31
0.0
 11
-10.4995523085
 21
-46.7036056181
 31
0.0
  0
SPLINE
  5
495
100
AcDbEntity
  8
RACCORDO
100
AcDbSpline
 62
253
  6
CONTINUOUS
 70
0
 71
3
 72
8
 73
4
 74
2
 42
0.0000001
 43
0.0000001
 44
0.0000000001
 12
0.0209398473
 22
-0.0325237569
 32
0.0
 13
0.0281842608
 23
-0.020723651
 33
0.0
 40
0.0
 40
0.0
 40
0.0
 40
0.0
 40
1.0
 40
1.0
 40
1.0
 40
1.0
 10
-8.2076342966
 20
-46.5112681851
 30
0.0
 10
-8.2006543475
 20
-46.5221094374
 30
0.0
 10
-8.1926783004
 20
-46.5316897823
 30
0.0
 10
-8.1832835468
 20
-46.5385976659
 30
0.0
 11
-8.2076342966
 21
-46.5112681851
 31
0.0
 11
-8.1832835468
 21
-46.5385976659
 31
0.0
  0
SPLINE
  5
496
100
AcDbEntity
  8
RACCORDO
100
AcDbSpline
 62
253
  6
CONTINUOUS
 70
0
 71
3
 72
8
 73
4
 74
2
 42
0.0000001
 43
0.0000001
 44
0.0000000001
 12
0.0210511949
 22
-0.0154787674
 32
0.0
 13
0.026328283
 23
-0.0047687736
 33
0.0
 40
0.0
 40
0.0
 40
0.0
 40
0.0
 40
1.0
 40
1.0
 40
1.0
 40
1.0
 10
-8.1832835468
 20
-46.5385976659
 30
0.0
 10
-8.1762664818
 20
-46.5437572551
 30
0.0
 10
-8.1684579499
 20
-46.5474259336
 30
0.0
 10
-8.1596818556
 20
-46.5490155248
 30
0.0
 11
-8.1832835468
 21
-46.5385976659
 31
0.0
 11
-8.1596818556
 21
-46.5490155248
 31
0.0
  0
SPLINE
  5
497
100
AcDbEntity
  8
RACCORDO
100
AcDbSpline
 62
253
  6
CONTINUOUS
 70
0
 71
3
 72
8
 73
4
 74
2
 42
0.0000001
 43
0.0000001
 44
0.0000000001
 12
-0.0209180964
 22
-0.0324943073
 32
0.0
 13
-0.0281537154
 23
-0.0207230084
 33
0.0
 40
0.0
 40
0.0
 40
0.0
 40
0.0
 40
1.0
 40
1.0
 40
1.0
 40
1.0
 10
8.2076045417
 20
-46.5112676322
 30
0.0
 10
8.2006318429
 20
-46.522099068
 30
0.0
 10
8.1926642828
 20
-46.5316717356
 30
0.0
 10
8.183279711
 20
-46.5385794051
 30
0.0
 11
8.2076045417
 21
-46.5112676322
 31
0.0
 11
8.183279711
 21
-46.5385794051
 31
0.0
  0
SPLINE
  5
498
100
AcDbEntity
  8
RACCORDO
100
AcDbSpline
 62
253
  6
CONTINUOUS
 70
0
 71
3
 72
8
 73
4
 74
2
 42
0.0000001
 43
0.0000001
 44
0.0000000001
 12
-0.0210459744
 22
-0.0154912379
 32
0.0
 13
-0.0263260831
 23
-0.0047935304
 33
0.0
 40
0.0
 40
0.0
 40
0.0
 40
0.0
 40
1.0
 40
1.0
 40
1.0
 40
1.0
 10
8.183279711
 20
-46.5385794051
 30
0.0
 10
8.1762643862
 20
-46.5437431511
 30
0.0
 10
8.1684572166
 20
-46.5474176609
 30
0.0
 10
8.1596818556
 20
-46.5490155044
 30
0.0
 11
8.183279711
 21
-46.5385794051
 31
0.0
 11
8.1596818556
 21
-46.5490155044
 31
0.0
  0
SPLINE
  5
499
100
AcDbEntity
  8
RACCORDO
100
AcDbSpline
 62
253
  6
CONTINUOUS
 70
0
 71
3
 72
9
 73
5
 74
3
 42
0.0000001
 43
0.0000001
 44
0.0000000001
 12
-0.2434401069
 22
-0.1613114094
 32
0.0
 13
-0.2886505985
 23
-0.0007768086
 33
0.0
 40
0.0
 40
0.0
 40
0.0
 40
0.0
 40
0.1151856103
 40
1.0
 40
1.0
 40
1.0
 40
1.0
 10
10.7749780767
 20
-46.6200952115
 30
0.0
 10
10.7656311443
 20
-46.6262887959
 30
0.0
 10
10.6826189595
 20
-46.6773255772
 30
0.0
 10
10.5846863763
 20
-46.7033765077
 30
0.0
 10
10.4995523085
 20
-46.7036056181
 30
0.0
 11
10.7749780767
 21
-46.6200952115
 31
0.0
 11
10.7463095662
 21
-46.6377146961
 31
0.0
 11
10.4995523085
 21
-46.7036056181
 31
0.0
  0
LINE
  5
49A
100
AcDbEntity
  8
DRAFT
100
AcDbLine
 62
7
  6
CONTINUOUS
 10
39.8516206185
 20
-14.9948923456
 11
38.1550072258
 21
-14.9982060153
  0
LINE
  5
49B
100
AcDbEntity
  8
DRAFT
100
AcDbLine
 62
7
  6
CONTINUOUS
 10
41.050784578
 20
-14.9786411167
 11
41.845378606
 21
-14.9774311177
  0
LINE
  5
49C
100
AcDbEntity
  8
DRAFT
100
AcDbLine
 62
7
  6
CONTINUOUS
 10
41.845378606
 20
-14.9774311177
 11
42.4673337066
 21
-14.9765451099
  0
LINE
  5
49D
100
AcDbEntity
  8
RACCORDO
100
AcDbLine
 62
7
  6
CONTINUOUS
 10
43.2034698508
 20
-15.0020622479
 11
42.9001681211
 21
-15.0024752225
  0
LINE
  5
49E
100
AcDbEntity
  8
RACCORDO
100
AcDbLine
 62
7
  6
CONTINUOUS
 10
42.9001681211
 20
-15.0024752225
 11
42.4673726843
 21
-15.0030870371
  0
SPLINE
  5
49F
100
AcDbEntity
  8
RACCORDO
100
AcDbSpline
 62
7
  6
CONTINUOUS
 70
0
 71
3
 72
8
 73
4
 74
2
 42
0.0000001
 43
0.0000001
 44
0.0000000001
 12
-2.6157313069
 22
-0.0037791758
 32
0.0
 13
-2.6157295538
 23
-0.0048682694
 33
0.0
 40
0.0
 40
0.0
 40
0.0
 40
0.0
 40
1.0
 40
1.0
 40
1.0
 40
1.0
 10
42.4673726843
 20
-15.0030870371
 30
0.0
 10
41.5954622486
 20
-15.0043467624
 30
0.0
 10
40.7235520346
 20
-15.0057723757
 30
0.0
 10
39.8516421833
 20
-15.0073951322
 30
0.0
 11
42.4673726843
 21
-15.0030870371
 31
0.0
 11
39.8516421833
 21
-15.0073951322
 31
0.0
  0
LINE
  5
4A0
100
AcDbEntity
  8
RACCORDO
100
AcDbLine
 62
7
  6
CONTINUOUS
 10
39.8516421833
 20
-15.0073951322
 11
38.2464276928
 21
-15.0106126365
  0
LINE
  5
4A1
100
AcDbEntity
  8
RACCORDO
100
AcDbLine
 62
7
  6
CONTINUOUS
 10
38.2464276928
 20
-15.0106126365
 11
38.0967395339
 21
-15.0109369245
  0
LINE
  5
4A2
100
AcDbEntity
  8
RACCORDO
100
AcDbLine
 62
7
  6
CONTINUOUS
 10
38.0967395339
 20
-15.0109369245
 11
36.8395572469
 21
-15.0138359521
  0
LINE
  5
4A3
100
AcDbEntity
  8
RACCORDO
100
AcDbLine
 62
7
  6
CONTINUOUS
 10
36.8395572469
 20
-15.0138359521
 11
36.7194092814
 21
-15.0141301289
  0
LINE
  5
4A4
100
AcDbEntity
  8
RACCORDO
100
AcDbLine
 62
7
  6
CONTINUOUS
 10
36.7194092814
 20
-15.0141301289
 11
35.2541373764
 21
-15.0179765045
  0
LINE
  5
4A5
100
AcDbEntity
  8
RACCORDO
100
AcDbLine
 62
7
  6
CONTINUOUS
 10
27.4338410597
 20
-15.048610209
 11
26.3080100058
 21
-15.054731977
  0
LINE
  5
4A6
100
AcDbEntity
  8
RACCORDO
100
AcDbLine
 62
7
  6
CONTINUOUS
 10
26.3080100058
 20
-15.054731977
 11
26.2000059273
 21
-15.0553449814
  0
LINE
  5
4A7
100
AcDbEntity
  8
RACCORDO
100
AcDbLine
 62
7
  6
CONTINUOUS
 10
-26.2
 20
-15.0553449892
 11
-26.3080003571
 21
-15.0547326701
  0
LINE
  5
4A8
100
AcDbEntity
  8
RACCORDO
100
AcDbLine
 62
7
  6
CONTINUOUS
 10
-26.3080003571
 20
-15.0547326701
 11
-27.3661634379
 21
-15.0489682541
  0
SPLINE
  5
4A9
100
AcDbEntity
  8
RACCORDO
100
AcDbSpline
 62
7
  6
CONTINUOUS
 70
0
 71
3
 72
10
 73
6
 74
4
 42
0.0000001
 43
0.0000001
 44
0.0000000001
 12
-7.7753337699
 22
0.0408085423
 32
0.0
 13
-7.7754096896
 23
0.0219402
 33
0.0
 40
0.0
 40
0.0
 40
0.0
 40
0.0
 40
0.3133903737
 40
0.8170393305
 40
1.0
 40
1.0
 40
1.0
 40
1.0
 10
-27.3661634379
 20
-15.0489682541
 30
0.0
 10
-28.1784016897
 20
-15.0447052527
 30
0.0
 10
-30.2959913465
 20
-15.0345516101
 30
0.0
 10
-32.8877876406
 20
-15.0249582663
 30
0.0
 10
-34.6673438201
 20
-15.0196312154
 30
0.0
 10
-35.1415418744
 20
-15.0182931508
 30
0.0
 11
-27.3661634379
 21
-15.0489682541
 31
0.0
 11
-29.8028835995
 21
-15.0372566898
 31
0.0
 11
-33.7189484505
 21
-15.0225596666
 31
0.0
 11
-35.1415418744
 21
-15.0182931508
 31
0.0
  0
LINE
  5
4AA
100
AcDbEntity
  8
RACCORDO
100
AcDbLine
 62
7
  6
CONTINUOUS
 10
-35.1415418744
 20
-15.0182931508
 11
-36.6236147436
 21
-15.0143672088
  0
LINE
  5
4AB
100
AcDbEntity
  8
RACCORDO
100
AcDbLine
 62
7
  6
CONTINUOUS
 10
-36.6236147436
 20
-15.0143672088
 11
-38.1550364941
 21
-15.0108098247
  0
LINE
  5
4AC
100
AcDbEntity
  8
RACCORDO
100
AcDbLine
 62
7
  6
CONTINUOUS
 10
-38.1550364941
 20
-15.0108098247
 11
-39.7834015688
 21
-15.0075216987
  0
LINE
  5
4AD
100
AcDbEntity
  8
RACCORDO
100
AcDbLine
 62
7
  6
CONTINUOUS
 10
-39.7834015688
 20
-15.0075216987
 11
-39.9167268733
 21
-15.0072735084
  0
SPLINE
  5
4AE
100
AcDbEntity
  8
RACCORDO
100
AcDbSpline
 62
7
  6
CONTINUOUS
 70
0
 71
3
 72
8
 73
4
 74
2
 42
0.0000001
 43
0.0000001
 44
0.0000000001
 12
-2.5506439438
 22
0.004718724
 32
0.0
 13
-2.5506456018
 23
0.0036840153
 33
0.0
 40
0.0
 40
0.0
 40
0.0
 40
0.0
 40
1.0
 40
1.0
 40
1.0
 40
1.0
 10
-39.9167268733
 20
-15.0072735084
 30
0.0
 10
-40.7669415213
 20
-15.0057006004
 30
0.0
 10
-41.6171565118
 20
-15.0043146713
 30
0.0
 10
-42.4673717124
 20
-15.0030866662
 30
0.0
 11
-39.9167268733
 21
-15.0072735084
 31
0.0
 11
-42.4673717124
 21
-15.0030866662
 31
0.0
  0
LINE
  5
4AF
100
AcDbEntity
  8
RACCORDO
100
AcDbLine
 62
7
  6
CONTINUOUS
 10
-42.4673717124
 20
-15.0030866662
 11
-42.9001681326
 21
-15.0024750571
  0
LINE
  5
4B0
100
AcDbEntity
  8
RACCORDO
100
AcDbLine
 62
7
  6
CONTINUOUS
 10
-42.9001681326
 20
-15.0024750571
 11
-43.2034698487
 21
-15.0020622458
  0
LINE
  5
4B1
100
AcDbEntity
  8
DRAFT
100
AcDbLine
 62
7
  6
CONTINUOUS
 10
-42.4673326551
 20
-14.9765450562
 11
-41.845365589
 21
-14.9774311025
  0
LINE
  5
4B2
100
AcDbEntity
  8
DRAFT
100
AcDbLine
 62
7
  6
CONTINUOUS
 10
-41.845365589
 20
-14.9774311025
 11
-41.0507845503
 21
-14.9786411028
  0
LINE
  5
4B3
100
AcDbEntity
  8
DRAFT
100
AcDbLine
 62
7
  6
CONTINUOUS
 10
-38.1550072198
 20
-14.9982060124
 11
-39.8516206186
 21
-14.9948923455
  0
LINE
  5
4B4
100
AcDbEntity
  8
RACCORDO
100
AcDbLine
 62
7
  6
CONTINUOUS
 10
26.1999688638
 20
-4.9464599728
 11
26.2994472162
 21
-4.9469590357
  0
LINE
  5
4B5
100
AcDbEntity
  8
RACCORDO
100
AcDbLine
 62
7
  6
CONTINUOUS
 10
35.4566396593
 20
-4.9809273327
 11
36.3257079743
 21
-4.9830491692
  0
LINE
  5
4B6
100
AcDbEntity
  8
RACCORDO
100
AcDbLine
 62
7
  6
CONTINUOUS
 10
36.3257079743
 20
-4.9830491692
 11
36.8395560912
 21
-4.9842340051
  0
LINE
  5
4B7
100
AcDbEntity
  8
RACCORDO
100
AcDbLine
 62
7
  6
CONTINUOUS
 10
36.8395560912
 20
-4.9842340051
 11
37.3136739041
 21
-4.9852840268
  0
LINE
  5
4B8
100
AcDbEntity
  8
RACCORDO
100
AcDbLine
 62
7
  6
CONTINUOUS
 10
37.3136739041
 20
-4.9852840268
 11
38.1539729538
 21
-4.9870484634
  0
LINE
  5
4B9
100
AcDbEntity
  8
RACCORDO
100
AcDbLine
 62
7
  6
CONTINUOUS
 10
38.1539729538
 20
-4.9870484634
 11
39.2332857414
 21
-4.9891408898
  0
SPLINE
  5
4BA
100
AcDbEntity
  8
RACCORDO
100
AcDbSpline
 62
7
  6
CONTINUOUS
 70
0
 71
3
 72
8
 73
4
 74
2
 42
0.0000001
 43
0.0000001
 44
0.0000000001
 12
3.2317438134
 22
-0.0059814324
 32
0.0
 13
3.2317462041
 23
-0.0044463078
 33
0.0
 40
0.0
 40
0.0
 40
0.0
 40
0.0
 40
1.0
 40
1.0
 40
1.0
 40
1.0
 10
39.2332857414
 20
-4.9891408898
 30
0.0
 10
40.3105336792
 20
-4.9911347006
 30
0.0
 10
41.3877821192
 20
-4.9928502147
 30
0.0
 10
42.4650308539
 20
-4.9943323173
 30
0.0
 11
39.2332857414
 21
-4.9891408898
 31
0.0
 11
42.4650308539
 21
-4.9943323173
 31
0.0
  0
LINE
  5
4BB
100
AcDbEntity
  8
RACCORDO
100
AcDbLine
 62
7
  6
CONTINUOUS
 10
42.4650308539
 20
-4.9943323173
 11
42.9001676121
 21
-4.994918403
  0
LINE
  5
4BC
100
AcDbEntity
  8
RACCORDO
100
AcDbLine
 62
7
  6
CONTINUOUS
 10
42.9001676121
 20
-4.994918403
 11
43.2033564419
 21
-4.995312109
  0
LINE
  5
4BD
100
AcDbEntity
  8
DRAFT
100
AcDbLine
 62
7
  6
CONTINUOUS
 10
42.4649941751
 20
-5.020835259
 11
41.8439177434
 21
-5.0199868615
  0
LINE
  5
4BE
100
AcDbEntity
  8
DRAFT
100
AcDbLine
 62
7
  6
CONTINUOUS
 10
41.8439177434
 20
-5.0199868615
 11
41.0503593227
 21
-5.0188324428
  0
LINE
  5
4BF
100
AcDbEntity
  8
DRAFT
100
AcDbLine
 62
7
  6
CONTINUOUS
 10
38.1539474314
 20
-4.9995847895
 11
39.8523071279
 21
-5.002711831
  0
LINE
  5
4C0
100
AcDbEntity
  8
DRAFT
100
AcDbLine
 62
7
  6
CONTINUOUS
 10
-39.8523071312
 20
-5.0027118326
 11
-38.1539474212
 21
-4.9995847946
  0
LINE
  5
4C1
100
AcDbEntity
  8
DRAFT
100
AcDbLine
 62
7
  6
CONTINUOUS
 10
-41.0503593003
 20
-5.018832454
 11
-41.8439281208
 21
-5.0199869036
  0
LINE
  5
4C2
100
AcDbEntity
  8
DRAFT
100
AcDbLine
 62
7
  6
CONTINUOUS
 10
-41.8439281208
 20
-5.0199869036
 11
-42.4649933253
 21
-5.0208353024
  0
LINE
  5
4C3
100
AcDbEntity
  8
RACCORDO
100
AcDbLine
 62
7
  6
CONTINUOUS
 10
-43.2033564394
 20
-4.9953121116
 11
-42.9001675862
 21
-4.9949185241
  0
LINE
  5
4C4
100
AcDbEntity
  8
RACCORDO
100
AcDbLine
 62
7
  6
CONTINUOUS
 10
-42.9001675862
 20
-4.9949185241
 11
-42.4650298211
 21
-4.994332829
  0
SPLINE
  5
4C5
100
AcDbEntity
  8
RACCORDO
100
AcDbSpline
 62
7
  6
CONTINUOUS
 70
0
 71
3
 72
8
 73
4
 74
2
 42
0.0000001
 43
0.0000001
 44
0.0000000001
 12
3.3228068363
 22
0.0045677491
 32
0.0
 13
3.3228042854
 23
0.0061981956
 33
0.0
 40
0.0
 40
0.0
 40
0.0
 40
0.0
 40
1.0
 40
1.0
 40
1.0
 40
1.0
 10
-42.4650298211
 20
-4.994332829
 30
0.0
 10
-41.3574275424
 20
-4.9928102459
 30
0.0
 10
-40.2498255693
 20
-4.9910428538
 30
0.0
 10
-39.1422241408
 20
-4.9889767886
 30
0.0
 11
-42.4650298211
 21
-4.994332829
 31
0.0
 11
-39.1422241408
 21
-4.9889767886
 31
0.0
  0
LINE
  5
4C6
100
AcDbEntity
  8
RACCORDO
100
AcDbLine
 62
7
  6
CONTINUOUS
 10
-39.1422241408
 20
-4.9889767886
 11
-38.0967281868
 21
-4.9869361878
  0
LINE
  5
4C7
100
AcDbEntity
  8
RACCORDO
100
AcDbLine
 62
7
  6
CONTINUOUS
 10
-38.0967281868
 20
-4.9869361878
 11
-37.1694669891
 21
-4.9849697998
  0
LINE
  5
4C8
100
AcDbEntity
  8
RACCORDO
100
AcDbLine
 62
7
  6
CONTINUOUS
 10
-37.1694669891
 20
-4.9849697998
 11
-36.8395574936
 21
-4.9842332301
  0
LINE
  5
4C9
100
AcDbEntity
  8
RACCORDO
100
AcDbLine
 62
7
  6
CONTINUOUS
 10
-36.8395574936
 20
-4.9842332301
 11
-36.3257092089
 21
-4.9830455669
  0
LINE
  5
4CA
100
AcDbEntity
  8
RACCORDO
100
AcDbLine
 62
7
  6
CONTINUOUS
 10
-36.3257092089
 20
-4.9830455669
 11
-35.2331110487
 21
-4.9803467551
  0
LINE
  5
4CB
100
AcDbEntity
  8
RACCORDO
100
AcDbLine
 62
7
  6
CONTINUOUS
 10
-26.2994242946
 20
-4.9469615502
 11
-26.1999864723
 21
-4.946460079
  0
SPLINE
  5
4CC
100
AcDbEntity
  8
RACCORDO
100
AcDbSpline
 62
7
  6
CONTINUOUS
 70
0
 71
3
 72
8
 73
4
 74
2
 42
0.0000001
 43
0.0000001
 44
0.0000000001
 12
0.0574850431
 22
-0.0571748406
 32
0.0
 13
0.0551166615
 23
-0.0599085457
 33
0.0
 40
0.0
 40
0.0
 40
0.0
 40
0.0
 40
1.0
 40
1.0
 40
1.0
 40
1.0
 10
43.9
 20
-5.298630474
 30
0.0
 10
43.919161681
 20
-5.3176887542
 30
0.0
 10
43.9381077351
 20
-5.3371278156
 30
0.0
 10
43.9564799556
 20
-5.3570973308
 30
0.0
 11
43.9
 21
-5.298630474
 31
0.0
 11
43.9564799556
 21
-5.3570973308
 31
0.0
  0
SPLINE
  5
4CD
100
AcDbEntity
  8
RACCORDO
100
AcDbSpline
 62
7
  6
CONTINUOUS
 70
0
 71
3
 72
10
 73
6
 74
4
 42
0.0000001
 43
0.0000001
 44
0.0000000001
 12
0.4107362759
 22
-0.4464459982
 32
0.0
 13
0.0598729199
 23
-0.6021276619
 33
0.0
 40
0.0
 40
0.0
 40
0.0
 40
0.0
 40
0.2737910594
 40
0.7047561531
 40
1.0
 40
1.0
 40
1.0
 40
1.0
 10
43.9564799556
 20
-5.3570973308
 30
0.0
 10
43.9939652623
 20
-5.3978416385
 30
0.0
 10
44.0843059027
 20
-5.5084043162
 30
0.0
 10
44.161429907
 20
-5.6979980062
 30
0.0
 10
44.1895311722
 20
-5.8427775237
 30
0.0
 10
44.1954235426
 20
-5.9020356861
 30
0.0
 11
43.9564799556
 21
-5.3570973308
 31
0.0
 11
44.0587268842
 21
-5.4872262535
 31
0.0
 11
44.1620691126
 21
-5.7262285535
 31
0.0
 11
44.1954235426
 21
-5.9020356861
 31
0.0
  0
SPLINE
  5
4CE
100
AcDbEntity
  8
RACCORDO
100
AcDbSpline
 62
7
  6
CONTINUOUS
 70
0
 71
3
 72
10
 73
6
 74
4
 42
0.0000001
 43
0.0000001
 44
0.0000000001
 12
0.4311453298
 22
-0.015311719
 32
0.0
 13
0.3964041041
 23
-0.175852074
 33
0.0
 40
0.0
 40
0.0
 40
0.0
 40
0.0
 40
0.3937185451
 40
0.8358540982
 40
1.0
 40
1.0
 40
1.0
 40
1.0
 10
43.1981390797
 20
-5.0005294712
 30
0.0
 10
43.2547223837
 20
-5.0025389738
 30
0.0
 10
43.375304764
 20
-5.0102025677
 30
0.0
 10
43.514341555
 20
-5.0493558663
 30
0.0
 10
43.5958735168
 20
-5.0819719603
 30
0.0
 10
43.6175628865
 20
-5.0915937594
 30
0.0
 11
43.1981390797
 21
-5.0005294712
 31
0.0
 11
43.3673508714
 21
-5.0153195037
 31
0.0
 11
43.5515226855
 21
-5.0649616436
 31
0.0
 11
43.6175628865
 21
-5.0915937594
 31
0.0
  0
SPLINE
  5
4CF
100
AcDbEntity
  8
RACCORDO
100
AcDbSpline
 62
7
  6
CONTINUOUS
 70
0
 71
3
 72
9
 73
5
 74
3
 42
0.0000001
 43
0.0000001
 44
0.0000000001
 12
0.2617961813
 22
-0.1161375499
 32
0.0
 13
0.2072551964
 23
-0.1968833484
 33
0.0
 40
0.0
 40
0.0
 40
0.0
 40
0.0
 40
0.5161756778
 40
1.0
 40
1.0
 40
1.0
 40
1.0
 10
43.6175628865
 20
-5.0915937594
 30
0.0
 10
43.6626071603
 20
-5.1115762189
 30
0.0
 10
43.746657552
 20
-5.1569002583
 30
0.0
 10
43.8183541671
 20
-5.2197553537
 30
0.0
 10
43.851779202
 20
-5.2515076713
 30
0.0
 11
43.6175628865
 21
-5.0915937594
 31
0.0
 11
43.7460851888
 21
-5.1630374802
 31
0.0
 11
43.851779202
 21
-5.2515076713
 31
0.0
  0
SPLINE
  5
4D0
100
AcDbEntity
  8
RACCORDO
100
AcDbSpline
 62
7
  6
CONTINUOUS
 70
0
 71
3
 72
8
 73
4
 74
2
 42
0.0000001
 43
0.0000001
 44
0.0000000001
 12
0.0489342722
 22
-0.0464854128
 32
0.0
 13
0.0476965573
 23
-0.0474391758
 33
0.0
 40
0.0
 40
0.0
 40
0.0
 40
0.0
 40
1.0
 40
1.0
 40
1.0
 40
1.0
 10
43.851779202
 20
-5.2515076713
 30
0.0
 10
43.8680906261
 20
-5.2670028089
 30
0.0
 10
43.8841011476
 20
-5.2828174154
 30
0.0
 10
43.9
 20
-5.298630474
 30
0.0
 11
43.851779202
 21
-5.2515076713
 31
0.0
 11
43.9
 21
-5.298630474
 31
0.0
  0
SPLINE
  5
4D1
100
AcDbEntity
  8
RACCORDO
100
AcDbSpline
 62
7
  6
CONTINUOUS
 70
0
 71
3
 72
11
 73
7
 74
5
 42
0.0000001
 43
0.0000001
 44
0.0000000001
 12
-0.5024517101
 22
-0.4360951601
 32
0.0
 13
-0.6638793814
 23
-0.0377862615
 33
0.0
 40
0.0
 40
0.0
 40
0.0
 40
0.0
 40
0.2071117955
 40
0.5372810854
 40
0.8266191678
 40
1.0
 40
1.0
 40
1.0
 40
1.0
 10
43.8578155195
 20
-14.7502118838
 30
0.0
 10
43.8231276275
 20
-14.780318701
 30
0.0
 10
43.727580595
 20
-14.8522414129
 30
0.0
 10
43.5629691211
 20
-14.935590987
 30
0.0
 10
43.3923758277
 20
-14.9813170973
 30
0.0
 10
43.2902250395
 20
-14.9929041472
 30
0.0
 10
43.251857053
 20
-14.9950879517
 30
0.0
 11
43.8578155195
 21
-14.7502118838
 31
0.0
 11
43.7477635917
 21
-14.8331311922
 31
0.0
 11
43.5520197975
 21
-14.9321131375
 31
0.0
 11
43.3664125496
 21
-14.9821010341
 31
0.0
 11
43.251857053
 21
-14.9950879517
 31
0.0
  0
SPLINE
  5
4D2
100
AcDbEntity
  8
RACCORDO
100
AcDbSpline
 62
7
  6
CONTINUOUS
 70
0
 71
3
 72
8
 73
4
 74
2
 42
0.0000001
 43
0.0000001
 44
0.0000000001
 12
-0.0574850431
 22
0.0571748406
 32
0.0
 13
-0.0551166615
 23
0.0599085457
 33
0.0
 40
0.0
 40
0.0
 40
0.0
 40
0.0
 40
1.0
 40
1.0
 40
1.0
 40
1.0
 10
-43.9
 20
-14.698630474
 30
0.0
 10
-43.919161681
 20
-14.6795721938
 30
0.0
 10
-43.9381077351
 20
-14.6601331324
 30
0.0
 10
-43.9564799556
 20
-14.6401636172
 30
0.0
 11
-43.9
 21
-14.698630474
 31
0.0
 11
-43.9564799556
 21
-14.6401636172
 31
0.0
  0
SPLINE
  5
4D3
100
AcDbEntity
  8
RACCORDO
100
AcDbSpline
 62
7
  6
CONTINUOUS
 70
0
 71
3
 72
10
 73
6
 74
4
 42
0.0000001
 43
0.0000001
 44
0.0000000001
 12
-0.4107362759
 22
0.4464459982
 32
0.0
 13
-0.0598729199
 23
0.6021276619
 33
0.0
 40
0.0
 40
0.0
 40
0.0
 40
0.0
 40
0.2737910594
 40
0.7047561531
 40
1.0
 40
1.0
 40
1.0
 40
1.0
 10
-43.9564799556
 20
-14.6401636172
 30
0.0
 10
-43.9939652623
 20
-14.5994193096
 30
0.0
 10
-44.0843059027
 20
-14.4888566318
 30
0.0
 10
-44.161429907
 20
-14.2992629418
 30
0.0
 10
-44.1895311722
 20
-14.1544834243
 30
0.0
 10
-44.1954235426
 20
-14.0952252619
 30
0.0
 11
-43.9564799556
 21
-14.6401636172
 31
0.0
 11
-44.0587268842
 21
-14.5100346945
 31
0.0
 11
-44.1620691126
 21
-14.2710323945
 31
0.0
 11
-44.1954235426
 21
-14.0952252619
 31
0.0
  0
SPLINE
  5
4D4
100
AcDbEntity
  8
RACCORDO
100
AcDbSpline
 62
7
  6
CONTINUOUS
 70
0
 71
3
 72
10
 73
6
 74
4
 42
0.0000001
 43
0.0000001
 44
0.0000000001
 12
-0.4311453298
 22
0.015311719
 32
0.0
 13
-0.3964041041
 23
0.175852074
 33
0.0
 40
0.0
 40
0.0
 40
0.0
 40
0.0
 40
0.3937185451
 40
0.8358540982
 40
1.0
 40
1.0
 40
1.0
 40
1.0
 10
-43.1981390797
 20
-14.9967314768
 30
0.0
 10
-43.2547223837
 20
-14.9947219742
 30
0.0
 10
-43.375304764
 20
-14.9870583803
 30
0.0
 10
-43.514341555
 20
-14.9479050817
 30
0.0
 10
-43.5958735168
 20
-14.9152889877
 30
0.0
 10
-43.6175628865
 20
-14.9056671887
 30
0.0
 11
-43.1981390797
 21
-14.9967314768
 31
0.0
 11
-43.3673508714
 21
-14.9819414444
 31
0.0
 11
-43.5515226855
 21
-14.9322993044
 31
0.0
 11
-43.6175628865
 21
-14.9056671887
 31
0.0
  0
SPLINE
  5
4D5
100
AcDbEntity
  8
RACCORDO
100
AcDbSpline
 62
7
  6
CONTINUOUS
 70
0
 71
3
 72
9
 73
5
 74
3
 42
0.0000001
 43
0.0000001
 44
0.0000000001
 12
-0.2617961813
 22
0.1161375499
 32
0.0
 13
-0.2072551964
 23
0.1968833484
 33
0.0
 40
0.0
 40
0.0
 40
0.0
 40
0.0
 40
0.5161756778
 40
1.0
 40
1.0
 40
1.0
 40
1.0
 10
-43.6175628865
 20
-14.9056671887
 30
0.0
 10
-43.6626071603
 20
-14.8856847291
 30
0.0
 10
-43.746657552
 20
-14.8403606897
 30
0.0
 10
-43.8183541671
 20
-14.7775055943
 30
0.0
 10
-43.851779202
 20
-14.7457532767
 30
0.0
 11
-43.6175628865
 21
-14.9056671887
 31
0.0
 11
-43.7460851888
 21
-14.8342234678
 31
0.0
 11
-43.851779202
 21
-14.7457532767
 31
0.0
  0
SPLINE
  5
4D6
100
AcDbEntity
  8
RACCORDO
100
AcDbSpline
 62
7
  6
CONTINUOUS
 70
0
 71
3
 72
8
 73
4
 74
2
 42
0.0000001
 43
0.0000001
 44
0.0000000001
 12
-0.0489342722
 22
0.0464854128
 32
0.0
 13
-0.0476965573
 23
0.0474391758
 33
0.0
 40
0.0
 40
0.0
 40
0.0
 40
0.0
 40
1.0
 40
1.0
 40
1.0
 40
1.0
 10
-43.851779202
 20
-14.7457532767
 30
0.0
 10
-43.8680906261
 20
-14.7302581391
 30
0.0
 10
-43.8841011476
 20
-14.7144435326
 30
0.0
 10
-43.9
 20
-14.698630474
 30
0.0
 11
-43.851779202
 21
-14.7457532767
 31
0.0
 11
-43.9
 21
-14.698630474
 31
0.0
  0
SPLINE
  5
4D7
100
AcDbEntity
  8
RACCORDO
100
AcDbSpline
 62
7
  6
CONTINUOUS
 70
0
 71
3
 72
11
 73
7
 74
5
 42
0.0000001
 43
0.0000001
 44
0.0000000001
 12
0.5024517101
 22
0.4360951601
 32
0.0
 13
0.6638793814
 23
0.0377862615
 33
0.0
 40
0.0
 40
0.0
 40
0.0
 40
0.0
 40
0.2071117955
 40
0.5372810854
 40
0.8266191678
 40
1.0
 40
1.0
 40
1.0
 40
1.0
 10
-43.8578155195
 20
-5.2470490643
 30
0.0
 10
-43.8231276275
 20
-5.2169422471
 30
0.0
 10
-43.727580595
 20
-5.1450195352
 30
0.0
 10
-43.5629691211
 20
-5.061669961
 30
0.0
 10
-43.3923758277
 20
-5.0159438508
 30
0.0
 10
-43.2902250395
 20
-5.0043568008
 30
0.0
 10
-43.251857053
 20
-5.0021729964
 30
0.0
 11
-43.8578155195
 21
-5.2470490643
 31
0.0
 11
-43.7477635917
 21
-5.1641297558
 31
0.0
 11
-43.5520197975
 21
-5.0651478105
 31
0.0
 11
-43.3664125496
 21
-5.0151599139
 31
0.0
 11
-43.251857053
 21
-5.0021729964
 31
0.0
  0
LINE
  5
4D8
100
AcDbEntity
  8
DRAFT
100
AcDbLine
 62
7
  6
CONTINUOUS
 10
-25.2371691907
 20
-12.4614612833
 11
-25.2371691907
 21
-12.6334694014
  0
LINE
  5
4D9
100
AcDbEntity
  8
DRAFT
100
AcDbLine
 62
7
  6
CONTINUOUS
 10
-25.2371691907
 20
-12.6334694014
 11
-25.2371691907
 21
-12.748630474
  0
LINE
  5
4DA
100
AcDbEntity
  8
DRAFT
100
AcDbLine
 62
7
  6
CONTINUOUS
 10
-25.2371691907
 20
-13.748630474
 11
-25.2371691907
 21
-13.8579363703
  0
LINE
  5
4DB
100
AcDbEntity
  8
DRAFT
100
AcDbLine
 62
7
  6
CONTINUOUS
 10
-25.2371691907
 20
-13.8579363703
 11
-25.2371691907
 21
-14.0357996647
  0
LINE
  5
4DC
100
AcDbEntity
  8
DRAFT
100
AcDbLine
 62
7
  6
CONTINUOUS
 10
-25.2371691907
 20
-5.9614612833
 11
-25.2371691907
 21
-6.1393245778
  0
LINE
  5
4DD
100
AcDbEntity
  8
DRAFT
100
AcDbLine
 62
7
  6
CONTINUOUS
 10
-25.2371691907
 20
-6.1393245778
 11
-25.2371691907
 21
-6.248630474
  0
LINE
  5
4DE
100
AcDbEntity
  8
DRAFT
100
AcDbLine
 62
7
  6
CONTINUOUS
 10
-25.2371691907
 20
-7.248630474
 11
-25.2371691907
 21
-7.3637915466
  0
LINE
  5
4DF
100
AcDbEntity
  8
DRAFT
100
AcDbLine
 62
7
  6
CONTINUOUS
 10
-25.2371691907
 20
-7.3637915466
 11
-25.2371691907
 21
-7.5357996647
  0
LINE
  5
4E0
100
AcDbEntity
  8
DRAFT
100
AcDbLine
 62
7
  6
CONTINUOUS
 10
25.2371691907
 20
-14.0357996647
 11
25.2371691907
 21
-13.8579363703
  0
LINE
  5
4E1
100
AcDbEntity
  8
DRAFT
100
AcDbLine
 62
7
  6
CONTINUOUS
 10
25.2371691907
 20
-13.8579363703
 11
25.2371691907
 21
-13.748630474
  0
LINE
  5
4E2
100
AcDbEntity
  8
DRAFT
100
AcDbLine
 62
7
  6
CONTINUOUS
 10
25.2371691907
 20
-12.748630474
 11
25.2371691907
 21
-12.6334694014
  0
LINE
  5
4E3
100
AcDbEntity
  8
DRAFT
100
AcDbLine
 62
7
  6
CONTINUOUS
 10
25.2371691907
 20
-12.6334694014
 11
25.2371691907
 21
-12.4614612833
  0
LINE
  5
4E4
100
AcDbEntity
  8
DRAFT
100
AcDbLine
 62
7
  6
CONTINUOUS
 10
25.2371691907
 20
-7.5357996647
 11
25.2371691907
 21
-7.3637915466
  0
LINE
  5
4E5
100
AcDbEntity
  8
DRAFT
100
AcDbLine
 62
7
  6
CONTINUOUS
 10
25.2371691907
 20
-7.3637915466
 11
25.2371691907
 21
-7.248630474
  0
LINE
  5
4E6
100
AcDbEntity
  8
DRAFT
100
AcDbLine
 62
7
  6
CONTINUOUS
 10
25.2371691907
 20
-6.248630474
 11
25.2371691907
 21
-6.1393245778
  0
LINE
  5
4E7
100
AcDbEntity
  8
DRAFT
100
AcDbLine
 62
7
  6
CONTINUOUS
 10
25.2371691907
 20
-6.1393245778
 11
25.2371691907
 21
-5.9614612833
  0
SPLINE
  5
4E8
100
AcDbEntity
  8
RACCORDO
100
AcDbSpline
 62
253
  6
CONTINUOUS
 70
0
 71
3
 72
23
 73
19
 74
17
 42
0.0000001
 43
0.0000001
 44
0.0000000001
 12
-0.000469809
 22
90.3827611278
 32
0.0
 13
-0.0028611768
 23
90.3827610837
 33
0.0
 40
0.0
 40
0.0
 40
0.0
 40
0.0
 40
0.0939038168
 40
0.1807450456
 40
0.2599836538
 40
0.331790196
 40
0.3969842353
 40
0.4564119021
 40
0.5106854703
 40
0.5600764814
 40
0.6066456371
 40
0.655945199
 40
0.7109354678
 40
0.7706263879
 40
0.8335168734
 40
0.891797877
 40
0.9452222052
 40
1.0
 40
1.0
 40
1.0
 40
1.0
 10
46.3000772228
 20
-45.1896946481
 30
0.0
 10
46.3000625171
 20
-42.3605992349
 30
0.0
 10
46.2999812145
 20
-36.9151871405
 30
0.0
 10
46.2996835379
 20
-29.0825069872
 30
0.0
 10
46.2992208336
 20
-21.9155644047
 30
0.0
 10
46.2986010769
 20
-15.4007994249
 30
0.0
 10
46.2978297866
 20
-9.4828903251
 30
0.0
 10
46.2969090343
 20
-4.093207453
 30
0.0
 10
46.2958426729
 20
0.820368275
 30
0.0
 10
46.2946281711
 20
5.3465480443
 30
0.0
 10
46.2932124312
 20
9.7228729382
 30
0.0
 10
46.2914729638
 20
14.267889853
 30
0.0
 10
46.2892941799
 20
19.2082337152
 30
0.0
 10
46.2867930237
 20
24.5580392048
 30
0.0
 10
46.2845358266
 20
30.0069867187
 30
0.0
 10
46.2829807985
 20
35.2671371886
 30
0.0
 10
46.2820949119
 20
40.2828720086
 30
0.0
 10
46.2818534026
 20
43.5427408854
 30
0.0
 10
46.2818011596
 20
45.1930636643
 30
0.0
 11
46.3000772228
 21
-45.1896946481
 31
0.0
 11
46.299944123
 21
-36.7024084094
 31
0.0
 11
46.2996385026
 21
-28.8534583716
 31
0.0
 11
46.2991680927
 21
-21.6916541959
 31
0.0
 11
46.2985422116
 21
-15.2015806717
 31
0.0
 11
46.2977655257
 21
-9.3091634438
 31
0.0
 11
46.2968392853
 21
-3.9379269112
 31
0.0
 11
46.2957668283
 21
0.967467927
 31
0.0
 11
46.2945631034
 21
5.4315637222
 31
0.0
 11
46.2931986823
 21
9.6406123783
 31
0.0
 11
46.2914976474
 21
14.0964425807
 31
0.0
 11
46.2893355815
 21
19.0666144408
 31
0.0
 11
46.2868847465
 21
24.461644049
 31
0.0
 11
46.2845949516
 21
30.1458593177
 31
0.0
 11
46.2830465616
 21
35.4134571159
 31
0.0
 11
46.2821835999
 21
40.2420953398
 31
0.0
 11
46.2818011596
 21
45.1930636643
 31
0.0
  0
SPLINE
  5
4E9
100
AcDbEntity
  8
RACCORDO
100
AcDbSpline
 62
253
  6
CONTINUOUS
 70
0
 71
3
 72
15
 73
11
 74
9
 42
0.0000001
 43
0.0000001
 44
0.0000000001
 12
1.5563490655
 22
-0.0104408624
 32
0.0
 13
0.0000596989
 23
1.5563840855
 33
0.0
 40
0.0
 40
0.0
 40
0.0
 40
0.0
 40
0.0866213928
 40
0.1815748238
 40
0.2862726969
 40
0.4033576663
 40
0.5355923411
 40
0.681462604
 40
0.8374400238
 40
1.0
 40
1.0
 40
1.0
 40
1.0
 10
45.3097771952
 20
-46.1820847275
 30
0.0
 10
45.3547149031
 20
-46.1823861949
 30
0.0
 10
45.4490789512
 20
-46.1765431138
 30
0.0
 10
45.5949856498
 20
-46.1460409356
 30
0.0
 10
45.7492006794
 20
-46.0871157135
 30
0.0
 10
45.9074851865
 20
-45.9918808595
 30
0.0
 10
46.0600206058
 20
-45.8526397659
 30
0.0
 10
46.1903289259
 20
-45.666487735
 30
0.0
 10
46.2791196268
 20
-45.4400538979
 30
0.0
 10
46.3000739879
 20
-45.2740299014
 30
0.0
 10
46.3000772228
 20
-45.1896946481
 30
0.0
 11
45.3097771952
 21
-46.1820847275
 31
0.0
 11
45.4443347267
 21
-46.1737380537
 31
0.0
 11
45.588989966
 21
-46.143489499
 31
0.0
 11
45.7412034932
 21
-46.0853192454
 31
0.0
 11
45.8973504117
 21
-45.9913745008
 31
0.0
 11
46.0493636066
 21
-45.8526341021
 31
0.0
 11
46.1796110069
 21
-45.6666816717
 31
0.0
 11
46.2682827841
 21
-45.4406947045
 31
0.0
 11
46.3000772228
 21
-45.1896946481
 31
0.0
  0
SPLINE
  5
4EA
100
AcDbEntity
  8
RACCORDO
100
AcDbSpline
 62
253
  6
CONTINUOUS
 70
0
 71
3
 72
40
 73
36
 74
34
 42
0.0000001
 43
0.0000001
 44
0.0000000001
 12
90.6513009152
 22
0.6078685775
 32
0.0
 13
90.6513001701
 23
-0.6079796836
 33
0.0
 40
0.0
 40
0.0
 40
0.0
 40
0.0
 40
0.0652134044
 40
0.1221423791
 40
0.1707017657
 40
0.2111639296
 40
0.2449871083
 40
0.2745458634
 40
0.3018717933
 40
0.3281530855
 40
0.3536893039
 40
0.3782184129
 40
0.4013415356
 40
0.4226137323
 40
0.44214828
 40
0.4602507857
 40
0.4773049668
 40
0.4937396575
 40
0.5099990182
 40
0.526555993
 40
0.5438435836
 40
0.5622609862
 40
0.5821409962
 40
0.6037381436
 40
0.6270005148
 40
0.6514538704
 40
0.6767572105
 40
0.7027350654
 40
0.7298144771
 40
0.7591996759
 40
0.7928341128
 40
0.8328748135
 40
0.8806293795
 40
0.936358604
 40
1.0
 40
1.0
 40
1.0
 40
1.0
 10
-45.3097771947
 20
-46.1820847215
 30
0.0
 10
-43.339217214
 20
-46.168870995
 30
0.0
 10
-39.6484749842
 20
-46.1352094602
 30
0.0
 10
-34.4908427104
 20
-46.0536770569
 30
0.0
 10
-30.0817868372
 20
-45.9461201504
 30
0.0
 10
-26.3718232796
 20
-45.8184791712
 30
0.0
 10
-23.2368444396
 20
-45.6816053624
 30
0.0
 10
-20.4990608211
 20
-45.5491012312
 30
0.0
 10
-17.9886409182
 20
-45.4330509963
 30
0.0
 10
-15.5988868825
 20
-45.3399428332
 30
0.0
 10
-13.2929026494
 20
-45.2697715951
 30
0.0
 10
-11.0818709175
 20
-45.2192289606
 30
0.0
 10
-8.9994140083
 20
-45.1841187099
 30
0.0
 10
-7.0677331963
 20
-45.1606019594
 30
0.0
 10
-5.2876890419
 20
-45.1453267359
 30
0.0
 10
-3.6350666715
 20
-45.1358680319
 30
0.0
 10
-2.0760977896
 20
-45.1305290999
 30
0.0
 10
-0.5728174987
 20
-45.1283234379
 30
0.0
 10
0.9154397773
 20
-45.128588238
 30
0.0
 10
2.4294673151
 20
-45.1314562217
 30
0.0
 10
4.0086970843
 20
-45.1376421378
 30
0.0
 10
5.6883207771
 20
-45.1482780858
 30
0.0
 10
7.4981257883
 20
-45.1651835682
 30
0.0
 10
9.4542478228
 20
-45.1908798907
 30
0.0
 10
11.5483980838
 20
-45.2287120338
 30
0.0
 10
13.7542366506
 20
-45.282410517
 30
0.0
 10
16.041618272
 20
-45.3557312035
 30
0.0
 10
18.4075908449
 20
-45.4514629015
 30
0.0
 10
20.8960777058
 20
-45.5684206166
 30
0.0
 10
23.6155274542
 20
-45.6992079252
 30
0.0
 10
26.7269772871
 20
-45.8320554804
 30
0.0
 10
30.394319105
 20
-45.9548169904
 30
0.0
 10
34.7301429616
 20
-46.0580267811
 30
0.0
 10
39.7797294097
 20
-46.13649622
 30
0.0
 10
43.3867187636
 20
-46.1691871689
 30
0.0
 10
45.3097771952
 20
-46.1820847275
 30
0.0
 11
-45.3097771947
 21
-46.1820847215
 31
0.0
 11
-39.398231415
 21
-46.1258917125
 31
0.0
 11
-34.2381163484
 21
-46.0417127248
 31
0.0
 11
-29.8374094518
 21
-45.9321508517
 31
0.0
 11
-26.1715687326
 21
-45.8054314576
 31
0.0
 11
-23.1082282665
 21
-45.6734087431
 31
0.0
 11
-20.4316191023
 21
-45.5468436743
 31
0.0
 11
-17.956974599
 21
-45.434643201
 31
0.0
 11
-15.5762703398
 21
-45.3424964548
 31
0.0
 11
-13.2624059499
 21
-45.2718225621
 31
0.0
 11
-11.0393516142
 21
-45.2205456665
 31
0.0
 11
-8.9434667607
 21
-45.1848806113
 31
0.0
 11
-7.015216923
 21
-45.1611664886
 31
0.0
 11
-5.2444113532
 21
-45.145830937
 31
0.0
 11
-3.6033862477
 21
-45.1363341962
 31
0.0
 11
-2.0573770633
 21
-45.1309786863
 31
0.0
 11
-0.5675191727
 21
-45.1287263643
 31
0.0
 11
0.9064461356
 21
-45.129004453
 31
0.0
 11
2.4073883731
 21
-45.1319094828
 31
0.0
 11
3.9745538774
 21
-45.138119289
 31
0.0
 11
5.6441187301
 21
-45.1488033993
 31
0.0
 11
7.4462279454
 21
-45.1657914794
 31
0.0
 11
9.4039091493
 21
-45.1917671363
 31
0.0
 11
11.5123703051
 21
-45.2302120516
 31
0.0
 11
13.728481774
 21
-45.2845822652
 31
0.0
 11
16.0211309941
 21
-45.3582438763
 31
0.0
 11
18.3742183482
 21
-45.4526225534
 31
0.0
 11
20.8264573629
 21
-45.5655772272
 31
0.0
 11
23.4873783128
 21
-45.6908122623
 31
0.0
 11
26.5337342613
 21
-45.8195280574
 31
0.0
 11
30.1615012528
 21
-45.9416888003
 31
0.0
 11
34.4893360548
 21
-46.0467919766
 31
0.0
 11
39.5407285756
 21
-46.1276905356
 31
0.0
 11
45.3097771952
 21
-46.1820847275
 31
0.0
  0
SPLINE
  5
4EB
100
AcDbEntity
  8
RACCORDO
100
AcDbSpline
 62
253
  6
CONTINUOUS
 70
0
 71
3
 72
15
 73
11
 74
9
 42
0.0000001
 43
0.0000001
 44
0.0000000001
 12
-0.0000087472
 22
-1.5563734206
 32
0.0
 13
1.556338833
 23
0.0103759934
 33
0.0
 40
0.0
 40
0.0
 40
0.0
 40
0.0
 40
0.087752892
 40
0.1838459118
 40
0.289548698
 40
0.4073335109
 40
0.5396634946
 40
0.6847950044
 40
0.8393080667
 40
1.0
 40
1.0
 40
1.0
 40
1.0
 10
-46.3000772217
 20
-45.1896946431
 30
0.0
 10
-46.3000774776
 20
-45.235220066
 30
0.0
 10
-46.2936070912
 20
-45.3307188224
 30
0.0
 10
-46.2621770216
 20
-45.4781581239
 30
0.0
 10
-46.202404615
 20
-45.6336174087
 30
0.0
 10
-46.1066161413
 20
-45.7926460642
 30
0.0
 10
-45.9674320166
 20
-45.9452622395
 30
0.0
 10
-45.7822077017
 20
-46.0749970883
 30
0.0
 10
-45.557583865
 20
-46.1626885876
 30
0.0
 10
-45.3931408933
 20
-46.1826405009
 30
0.0
 10
-45.3097771947
 20
-46.1820847215
 30
0.0
 11
-46.3000772217
 21
-45.1896946431
 31
0.0
 11
-46.290828119
 21
-45.325957372
 31
0.0
 11
-46.2596287741
 21
-45.472223513
 31
0.0
 11
-46.2005562018
 21
-45.6257649103
 31
0.0
 11
-46.1059313954
 21
-45.7827723122
 31
0.0
 11
-45.9671030922
 21
-45.9349041974
 31
0.0
 11
-45.7820710545
 21
-46.0644587738
 31
0.0
 11
-45.5580428928
 21
-46.1518774466
 31
0.0
 11
-45.3097771947
 21
-46.1820847215
 31
0.0
  0
LINE
  5
4EC
100
AcDbEntity
  8
RACCORDO
100
AcDbLine
 62
253
  6
CONTINUOUS
 10
25.1363257648
 20
-13.998630474
 11
25.1364319375
 21
-13.7488489449
  0
LINE
  5
4ED
100
AcDbEntity
  8
RACCORDO
100
AcDbLine
 62
253
  6
CONTINUOUS
 10
25.1364319375
 20
-13.7488489449
 11
25.1368698038
 21
-12.748864112
  0
LINE
  5
4EE
100
AcDbEntity
  8
RACCORDO
100
AcDbLine
 62
253
  6
CONTINUOUS
 10
25.1368698038
 20
-12.748864112
 11
25.1396749617
 21
-7.2489298774
  0
LINE
  5
4EF
100
AcDbEntity
  8
RACCORDO
100
AcDbLine
 62
253
  6
CONTINUOUS
 10
25.1396749617
 20
-7.2489298774
 11
25.1402637749
 21
-6.2489387853
  0
LINE
  5
4F0
100
AcDbEntity
  8
RACCORDO
100
AcDbLine
 62
253
  6
CONTINUOUS
 10
25.1402637749
 20
-6.2489387853
 11
25.1404152609
 21
-5.998630474
  0
SPLINE
  5
4F1
100
AcDbEntity
  8
RACCORDO
100
AcDbSpline
 62
253
  6
CONTINUOUS
 70
0
 71
3
 72
22
 73
18
 74
16
 42
0.0000001
 43
0.0000001
 44
0.0000000001
 12
-0.0028613163
 22
-90.3827610706
 32
0.0
 13
-0.0004698475
 23
-90.3827611146
 33
0.0
 40
0.0
 40
0.0
 40
0.0
 40
0.0
 40
0.0848255464
 40
0.1630042245
 40
0.2330564178
 40
0.2951781553
 40
0.3504777906
 40
0.3995258591
 40
0.4464293169
 40
0.4967258247
 40
0.5508730391
 40
0.609041115
 40
0.6721537744
 40
0.7418980349
 40
0.8198368336
 40
0.9064329793
 40
1.0
 40
1.0
 40
1.0
 40
1.0
 10
-46.2818011593
 20
45.1930636647
 30
0.0
 10
-46.2818820635
 20
42.6374746349
 30
0.0
 10
-46.2823596659
 20
37.7265506744
 30
0.0
 10
-46.2842337789
 20
30.705123379
 30
0.0
 10
-46.2868745459
 20
24.3677073827
 30
0.0
 10
-46.2895225284
 20
18.7195818244
 30
0.0
 10
-46.2917048876
 20
13.7042597136
 30
0.0
 10
-46.2934134387
 20
9.1474274944
 30
0.0
 10
-46.2948051375
 20
4.7413273359
 30
0.0
 10
-46.2959947595
 20
0.1816021522
 30
0.0
 10
-46.2970261264
 20
-4.7174988405
 30
0.0
 10
-46.2979041213
 20
-10.0027195953
 30
0.0
 10
-46.298638237
 20
-15.7578417388
 30
0.0
 10
-46.2992343932
 20
-22.1086080703
 30
0.0
 10
-46.2996871688
 20
-29.1668751909
 30
0.0
 10
-46.2999817087
 20
-36.942864604
 30
0.0
 10
-46.3000625676
 20
-42.3707460818
 30
0.0
 10
-46.3000772217
 20
-45.1896946431
 30
0.0
 11
-46.2818011593
 21
45.1930636647
 31
0.0
 11
-46.2826047724
 21
37.5262966136
 31
0.0
 11
-46.2844851905
 21
30.4602920759
 31
0.0
 11
-46.2870324162
 21
24.1287819343
 31
0.0
 11
-46.2895855326
 21
18.5140483512
 31
0.0
 11
-46.291733695
 21
13.5159150894
 31
0.0
 11
-46.2933930335
 21
9.0828155374
 31
0.0
 11
-46.2947353733
 21
4.8435517258
 31
0.0
 11
-46.2959277315
 21
0.2976146408
 31
0.0
 11
-46.2969657059
 21
-4.5963599939
 31
0.0
 11
-46.2978469609
 21
-9.8537512319
 31
0.0
 11
-46.2985823233
 21
-15.5580476068
 31
0.0
 11
-46.2991817231
 21
-21.8617264112
 31
0.0
 11
-46.2996412176
 21
-28.9060502163
 31
0.0
 11
-46.2999449355
 21
-36.7328489601
 31
0.0
 11
-46.3000772217
 21
-45.1896946431
 31
0.0
  0
SPLINE
  5
4F2
100
AcDbEntity
  8
RACCORDO
100
AcDbSpline
 62
253
  6
CONTINUOUS
 70
0
 71
3
 72
15
 73
11
 74
9
 42
0.0000001
 43
0.0000001
 44
0.0000000001
 12
-1.5688633143
 22
0.0073301491
 32
0.0
 13
-0.0001206476
 23
-1.5688804338
 33
0.0
 40
0.0
 40
0.0
 40
0.0
 40
0.0
 40
0.0872424487
 40
0.1828180829
 40
0.2880631831
 40
0.4055340766
 40
0.5378806909
 40
0.6834317707
 40
0.8386010614
 40
1.0
 40
1.0
 40
1.0
 40
1.0
 10
-45.276390352
 20
46.1869283925
 30
0.0
 10
-45.3220141778
 20
46.1871415592
 30
0.0
 10
-45.4177703785
 20
46.1811221675
 30
0.0
 10
-45.565795027
 20
46.1503962873
 30
0.0
 10
-45.7222189873
 20
46.0913134593
 30
0.0
 10
-45.8828015188
 20
45.9960033972
 30
0.0
 10
-46.0376579982
 20
45.8567317912
 30
0.0
 10
-46.1700953527
 20
45.670484838
 30
0.0
 10
-46.2604408499
 20
45.4438104485
 30
0.0
 10
-46.2817946685
 20
45.277468877
 30
0.0
 10
-46.2818011593
 20
45.1930636647
 30
0.0
 11
-45.276390352
 21
46.1869283925
 31
0.0
 11
-45.4129927664
 21
46.1783266123
 31
0.0
 11
-45.5598067532
 21
46.1478359748
 31
0.0
 11
-45.7142619083
 21
46.0894645623
 31
0.0
 11
-45.8727269229
 21
45.9953661384
 31
0.0
 11
-46.0270742221
 21
45.8564790414
 31
0.0
 11
-46.1593828684
 21
45.6703630333
 31
0.0
 11
-46.2494838436
 21
45.4442085437
 31
0.0
 11
-46.2818011593
 21
45.1930636647
 31
0.0
  0
SPLINE
  5
4F3
100
AcDbEntity
  8
RACCORDO
100
AcDbSpline
 62
253
  6
CONTINUOUS
 70
0
 71
3
 72
37
 73
33
 74
31
 42
0.0000001
 43
0.0000001
 44
0.0000000001
 12
-90.5520873096
 22
-0.4221846129
 32
0.0
 13
-90.5520873096
 23
0.4221846093
 33
0.0
 40
0.0
 40
0.0
 40
0.0
 40
0.0
 40
0.0408616788
 40
0.0735941567
 40
0.1063406459
 40
0.1390999429
 40
0.1718708255
 40
0.2046521056
 40
0.2374427073
 40
0.2702417376
 40
0.303048475
 40
0.3358622529
 40
0.3686822514
 40
0.4015073494
 40
0.4343362161
 40
0.4671675163
 40
0.5
 40
0.5328324367
 40
0.565663699
 40
0.5984925363
 40
0.6313176128
 40
0.6641375971
 40
0.6969513674
 40
0.7297581034
 40
0.7625571376
 40
0.7953477482
 40
0.8281290414
 40
0.8608999407
 40
0.8936592574
 40
0.9264057687
 40
0.9591382706
 40
1.0
 40
1.0
 40
1.0
 40
1.0
 10
45.2763533334
 20
46.19486837
 30
0.0
 10
44.0429832317
 20
46.1891179793
 30
0.0
 10
41.8216130576
 20
46.1791860958
 30
0.0
 10
38.6118164178
 20
46.1659143663
 30
0.0
 10
35.6465794008
 20
46.1545240967
 30
0.0
 10
32.6801801014
 20
46.1439606375
 30
0.0
 10
29.7127280215
 20
46.1341663527
 30
0.0
 10
26.7443288243
 20
46.1250648966
 30
0.0
 10
23.775078184
 20
46.1165795832
 30
0.0
 10
20.8050575413
 20
46.1086687105
 30
0.0
 10
17.8343357736
 20
46.1013676381
 30
0.0
 10
14.8629793149
 20
46.0948213087
 30
0.0
 10
11.8910666025
 20
46.0892683638
 30
0.0
 10
8.9186963984
 20
46.0849301653
 30
0.0
 10
5.9459834457
 20
46.0818932218
 30
0.0
 10
2.9730465403
 20
46.080128194
 30
0.0
 10
0.0000014187
 20
46.079563541
 30
0.0
 10
-2.9730425592
 20
46.0801281936
 30
0.0
 10
-5.945976015
 20
46.0818932188
 30
0.0
 10
-8.9186862878
 20
46.0849301593
 30
0.0
 10
-11.8910545266
 20
46.0892683544
 30
0.0
 10
-14.8629659333
 20
46.0948212949
 30
0.0
 10
-17.8343216909
 20
46.1013676193
 30
0.0
 10
-20.8050433071
 20
46.1086686872
 30
0.0
 10
-23.7750642926
 20
46.1165795555
 30
0.0
 10
-26.7443157149
 20
46.1250648659
 30
0.0
 10
-29.7127160776
 20
46.1341663199
 30
0.0
 10
-32.6801696512
 20
46.1439606045
 30
0.0
 10
-35.6465707174
 20
46.1545240661
 30
0.0
 10
-38.611809719
 20
46.1659143399
 30
0.0
 10
-41.8216092774
 20
46.1791860791
 30
0.0
 10
-44.0429817024
 20
46.189117972
 30
0.0
 10
-45.2763533332
 20
46.1948683698
 30
0.0
 11
45.2763533334
 21
46.19486837
 31
0.0
 11
41.5762398213
 21
46.1783193203
 31
0.0
 11
38.6122387551
 21
46.1660610655
 31
0.0
 11
35.6469654837
 21
46.1546640461
 31
0.0
 11
32.6805293624
 21
46.1440906351
 31
0.0
 11
29.7130414915
 21
46.1342833258
 31
0.0
 11
26.7446098884
 21
46.1251688409
 31
0.0
 11
23.7753323272
 21
46.11667638
 31
0.0
 11
20.8052899136
 21
46.1087712388
 31
0.0
 11
17.8345479877
 21
46.1014941706
 31
0.0
 11
14.8631667395
 21
46.0949874447
 31
0.0
 11
11.8912201851
 21
46.0894712065
 31
0.0
 11
8.9188098854
 21
46.0851472557
 31
0.0
 11
5.9460567272
 21
46.0821052999
 31
0.0
 11
2.9730821894
 21
46.08032828
 31
0.0
 11
0.0
 21
46.0797517608
 31
0.0
 11
-2.9730779335
 21
46.0803282792
 31
0.0
 11
-5.9460490399
 21
46.0821052965
 31
0.0
 11
-8.9187995367
 21
46.0851472492
 31
0.0
 11
-11.8912078894
 21
46.0894711964
 31
0.0
 11
-14.8631531564
 21
46.0949874302
 31
0.0
 11
-17.8345337217
 21
46.1014941513
 31
0.0
 11
-20.8052755146
 21
46.108771215
 31
0.0
 11
-23.7753182894
 21
46.1166763519
 31
0.0
 11
-26.7445966511
 21
46.1251688098
 31
0.0
 11
-29.7130294383
 21
46.1342832928
 31
0.0
 11
-32.6805188211
 21
46.144090602
 31
0.0
 11
-35.6469567276
 21
46.1546640154
 31
0.0
 11
-38.6122320022
 21
46.1660610391
 31
0.0
 11
-41.5762352339
 21
46.1783193007
 31
0.0
 11
-45.2763533332
 21
46.1948683698
 31
0.0
  0
SPLINE
  5
4F4
100
AcDbEntity
  8
RACCORDO
100
AcDbSpline
 62
253
  6
CONTINUOUS
 70
0
 71
3
 72
15
 73
11
 74
9
 42
0.0000001
 43
0.0000001
 44
0.0000000001
 12
-0.0000493413
 22
1.5689074334
 32
0.0
 13
-1.5688906205
 23
-0.0072634643
 33
0.0
 40
0.0
 40
0.0
 40
0.0
 40
0.0
 40
0.0871243421
 40
0.1825865559
 40
0.2877236875
 40
0.4051121188
 40
0.5373435278
 40
0.6828104548
 40
0.8381391241
 40
1.0
 40
1.0
 40
1.0
 40
1.0
 10
46.2818011596
 20
45.1930636643
 30
0.0
 10
46.2817997267
 20
45.238627007
 30
0.0
 10
46.2752127091
 20
45.3342388589
 30
0.0
 10
46.2432370234
 20
45.4818388519
 30
0.0
 10
46.182445476
 20
45.6374626903
 30
0.0
 10
46.0850650331
 20
45.796637338
 30
0.0
 10
45.9436620625
 20
45.9493590593
 30
0.0
 10
45.7556496187
 20
46.07919179
 30
0.0
 10
45.5277814339
 20
46.1670977245
 30
0.0
 10
45.361037689
 20
46.187320282
 30
0.0
 10
45.2763903523
 20
46.1869283918
 30
0.0
 11
46.2818011596
 21
45.1930636643
 31
0.0
 11
46.2723931636
 21
45.3294295449
 31
0.0
 11
46.240675979
 21
45.4758040151
 31
0.0
 11
46.1806485956
 21
45.6294443638
 31
0.0
 11
46.0845351406
 21
45.7865474368
 31
0.0
 11
45.94359628
 21
45.9387821507
 31
0.0
 11
45.7558272876
 21
46.0685090372
 31
0.0
 11
45.5284756242
 21
46.1562536082
 31
0.0
 11
45.2763903523
 21
46.1869283918
 31
0.0
  0
LINE
  5
4F5
100
AcDbEntity
  8
RACCORDO
100
AcDbLine
 62
253
  6
CONTINUOUS
 10
-25.1404152957
 20
-5.998630474
 11
-25.1402638007
 21
-6.2489532172
  0
LINE
  5
4F6
100
AcDbEntity
  8
RACCORDO
100
AcDbLine
 62
253
  6
CONTINUOUS
 10
-25.1402638007
 20
-6.2489532172
 11
-25.139674987
 21
-7.2489439117
  0
LINE
  5
4F7
100
AcDbEntity
  8
RACCORDO
100
AcDbLine
 62
253
  6
CONTINUOUS
 10
-25.139674987
 20
-7.2489439117
 11
-25.1368514839
 21
-12.7898314396
  0
LINE
  5
4F8
100
AcDbEntity
  8
RACCORDO
100
AcDbLine
 62
253
  6
CONTINUOUS
 10
-25.1368514839
 20
-12.7898314396
 11
-25.136431959
 21
-13.7488592629
  0
LINE
  5
4F9
100
AcDbEntity
  8
RACCORDO
100
AcDbLine
 62
253
  6
CONTINUOUS
 10
-25.136431959
 20
-13.7488592629
 11
-25.1363257905
 21
-13.998630474
  0
SPLINE
  5
4FA
100
AcDbEntity
  8
RACCORDO
100
AcDbSpline
 62
253
  6
CONTINUOUS
 70
0
 71
3
 72
8
 73
4
 74
2
 42
0.0000001
 43
0.0000001
 44
0.0000000001
 12
1.9173586764
 22
-0.0050114028
 32
0.0
 13
1.9173606536
 23
-0.0041802302
 33
0.0
 40
0.0
 40
0.0
 40
0.0
 40
0.0
 40
1.0
 40
1.0
 40
1.0
 40
1.0
 10
37.3619318683
 20
-4.7833291557
 30
0.0
 10
38.0010514271
 20
-4.7849996233
 30
0.0
 10
38.6401713587
 20
-4.7865237255
 30
0.0
 10
39.2792915766
 20
-4.7879171355
 30
0.0
 11
37.3619318683
 21
-4.7833291557
 31
0.0
 11
39.2792915766
 21
-4.7879171355
 31
0.0
  0
LINE
  5
4FB
100
AcDbEntity
  8
RACCORDO
100
AcDbLine
 62
253
  6
CONTINUOUS
 10
39.2792915766
 20
-4.7879171355
 11
39.8527272397
 21
-4.7891326895
  0
SPLINE
  5
4FC
100
AcDbEntity
  8
RACCORDO
100
AcDbSpline
 62
253
  6
CONTINUOUS
 70
0
 71
3
 72
8
 73
4
 74
2
 42
0.0000001
 43
0.0000001
 44
0.0000000001
 12
2.612658641
 22
-0.0053822827
 32
0.0
 13
2.6126608851
 23
-0.0040974796
 33
0.0
 40
0.0
 40
0.0
 40
0.0
 40
0.0
 40
1.0
 40
1.0
 40
1.0
 40
1.0
 10
39.8527272397
 20
-4.7891326895
 30
0.0
 10
40.7236134533
 20
-4.7909267837
 30
0.0
 10
41.5945001505
 20
-4.7924869167
 30
0.0
 10
42.4653871122
 20
-4.7938527432
 30
0.0
 11
39.8527272397
 21
-4.7891326895
 31
0.0
 11
42.4653871122
 21
-4.7938527432
 31
0.0
  0
LINE
  5
4FD
100
AcDbEntity
  8
RACCORDO
100
AcDbLine
 62
253
  6
CONTINUOUS
 10
42.4653871122
 20
-4.7938527432
 11
42.9005158093
 21
-4.7945191772
  0
LINE
  5
4FE
100
AcDbEntity
  8
RACCORDO
100
AcDbLine
 62
253
  6
CONTINUOUS
 10
42.9005158093
 20
-4.7945191772
 11
43.2325525991
 21
-4.7950066457
  0
LINE
  5
4FF
100
AcDbEntity
  8
RACCORDO
100
AcDbLine
 62
253
  6
CONTINUOUS
 10
25.0504453658
 20
-13.9907351519
 11
25.0502770985
 21
-13.3953936353
  0
LINE
  5
500
100
AcDbEntity
  8
RACCORDO
100
AcDbLine
 62
253
  6
CONTINUOUS
 10
25.0502770985
 20
-13.3953936353
 11
25.0500974503
 21
-12.7839608606
  0
LINE
  5
501
100
AcDbEntity
  8
RACCORDO
100
AcDbLine
 62
253
  6
CONTINUOUS
 10
25.0500974503
 20
-12.7839608606
 11
25.049905841
 21
-12.1571307106
  0
LINE
  5
502
100
AcDbEntity
  8
RACCORDO
100
AcDbLine
 62
253
  6
CONTINUOUS
 10
25.049905841
 20
-12.1571307106
 11
25.0481812252
 21
-7.4189076403
  0
LINE
  5
503
100
AcDbEntity
  8
RACCORDO
100
AcDbLine
 62
253
  6
CONTINUOUS
 10
25.0481812252
 20
-7.4189076403
 11
25.047873871
 21
-6.7062338619
  0
LINE
  5
504
100
AcDbEntity
  8
RACCORDO
100
AcDbLine
 62
253
  6
CONTINUOUS
 10
25.047873871
 20
-6.7062338619
 11
25.0475491698
 21
-5.9869471287
  0
LINE
  5
505
100
AcDbEntity
  8
RACCORDO
100
AcDbLine
 62
253
  6
CONTINUOUS
 10
44.2018701059
 20
-5.9967222911
 11
44.2019113785
 21
-13.4022422811
  0
LINE
  5
506
100
AcDbEntity
  8
RACCORDO
100
AcDbLine
 62
253
  6
CONTINUOUS
 10
44.2019113785
 20
-13.4022422811
 11
44.2019141138
 21
-14.0005826648
  0
SPLINE
  5
507
100
AcDbEntity
  8
RACCORDO
100
AcDbSpline
 62
253
  6
CONTINUOUS
 70
0
 71
3
 72
10
 73
6
 74
4
 42
0.0000001
 43
0.0000001
 44
0.0000000001
 12
-0.8095180251
 22
0.7063934347
 32
0.0
 13
-0.0027563693
 23
1.0719926645
 33
0.0
 40
0.0
 40
0.0
 40
0.0
 40
0.0
 40
0.294927459
 40
0.6360054974
 40
1.0
 40
1.0
 40
1.0
 40
1.0
 10
25.4820480144
 20
-14.9406807388
 30
0.0
 10
25.402464983
 20
-14.8712357985
 30
0.0
 10
25.2498130041
 20
-14.6996082613
 30
0.0
 10
25.0899919816
 20
-14.3745158182
 30
0.0
 10
25.0507798002
 20
-14.1208016308
 30
0.0
 10
25.0504453658
 20
-13.9907351519
 30
0.0
 11
25.4820480144
 21
-14.9406807388
 31
0.0
 11
25.2718577498
 21
-14.7045072748
 31
0.0
 11
25.1108482031
 21
-14.3762323688
 31
0.0
 11
25.0504453658
 21
-13.9907351519
 31
0.0
  0
LINE
  5
508
100
AcDbEntity
  8
RACCORDO
100
AcDbLine
 62
253
  6
CONTINUOUS
 10
-44.2019141121
 20
-14.000582663
 11
-44.2019113374
 21
-13.393772946
  0
LINE
  5
509
100
AcDbEntity
  8
RACCORDO
100
AcDbLine
 62
253
  6
CONTINUOUS
 10
-44.2019113374
 20
-13.393772946
 11
-44.201870104
 21
-5.9967222931
  0
LINE
  5
50A
100
AcDbEntity
  8
RACCORDO
100
AcDbLine
 62
253
  6
CONTINUOUS
 10
43.2338915043
 20
-15.2018645949
 11
42.9004285635
 21
-15.202289121
  0
LINE
  5
50B
100
AcDbEntity
  8
RACCORDO
100
AcDbLine
 62
253
  6
CONTINUOUS
 10
42.9004285635
 20
-15.202289121
 11
42.4676293969
 21
-15.2028596353
  0
SPLINE
  5
50C
100
AcDbEntity
  8
RACCORDO
100
AcDbSpline
 62
253
  6
CONTINUOUS
 70
0
 71
3
 72
8
 73
4
 74
2
 42
0.0000001
 43
0.0000001
 44
0.0000000001
 12
-2.5879627473
 22
-0.0034787414
 32
0.0
 13
-2.5879614194
 23
-0.0043748769
 33
0.0
 40
0.0
 40
0.0
 40
0.0
 40
0.0
 40
1.0
 40
1.0
 40
1.0
 40
1.0
 10
42.4676293969
 20
-15.2028596353
 30
0.0
 10
41.6049751478
 20
-15.2040192157
 30
0.0
 10
40.7423210691
 20
-15.2053144616
 30
0.0
 10
39.8796672627
 20
-15.2067727539
 30
0.0
 11
42.4676293969
 21
-15.2028596353
 31
0.0
 11
39.8796672627
 21
-15.2067727539
 31
0.0
  0
LINE
  5
50D
100
AcDbEntity
  8
RACCORDO
100
AcDbLine
 62
253
  6
CONTINUOUS
 10
39.8796672627
 20
-15.2067727539
 11
38.2925552769
 21
-15.2096460024
  0
LINE
  5
50E
100
AcDbEntity
  8
RACCORDO
100
AcDbLine
 62
253
  6
CONTINUOUS
 10
38.2925552769
 20
-15.2096460024
 11
38.1554448146
 21
-15.209912727
  0
SPLINE
  5
50F
100
AcDbEntity
  8
RACCORDO
100
AcDbSpline
 62
253
  6
CONTINUOUS
 70
0
 71
3
 72
10
 73
6
 74
4
 42
0.0000001
 43
0.0000001
 44
0.0000000001
 12
-10.6230655005
 22
-0.0207837029
 32
0.0
 13
-10.622974531
 23
-0.0486657742
 33
0.0
 40
0.0
 40
0.0
 40
0.0
 40
0.0
 40
0.3994193856
 40
0.7640482612
 40
1.0
 40
1.0
 40
1.0
 40
1.0
 10
38.1554448146
 20
-15.209912727
 30
0.0
 10
36.7410920495
 20
-15.2126798649
 30
0.0
 10
34.0355822544
 20
-15.2189101663
 30
0.0
 10
30.4945717252
 20
-15.2303648047
 30
0.0
 10
28.3679167918
 20
-15.2392387525
 30
0.0
 10
27.5324136878
 20
-15.2430663438
 30
0.0
 11
38.1554448146
 21
-15.209912727
 31
0.0
 11
33.9123902539
 21
-15.2198829751
 31
0.0
 11
30.0389273369
 21
-15.2325739397
 31
0.0
 11
27.5324136878
 21
-15.2430663438
 31
0.0
  0
LINE
  5
510
100
AcDbEntity
  8
RACCORDO
100
AcDbLine
 62
253
  6
CONTINUOUS
 10
27.5324136878
 20
-15.2430663438
 11
26.3090671333
 21
-15.2489184809
  0
SPLINE
  5
511
100
AcDbEntity
  8
RACCORDO
100
AcDbSpline
 62
253
  6
CONTINUOUS
 70
0
 71
3
 72
10
 73
6
 74
4
 42
0.0000001
 43
0.0000001
 44
0.0000000001
 12
0.0002097049
 22
-0.2047678947
 32
0.0
 13
0.2043355196
 23
-0.0133015083
 33
0.0
 40
0.0
 40
0.0
 40
0.0
 40
0.0
 40
0.4867247229
 40
0.8482116815
 40
1.0
 40
1.0
 40
1.0
 40
1.0
 10
-43.2325276012
 20
-4.7950069172
 30
0.0
 10
-43.2324935784
 20
-4.8282287828
 30
0.0
 10
-43.2310737664
 20
-4.8900661584
 30
0.0
 10
-43.2211225145
 20
-4.9464880817
 30
0.0
 10
-43.2136950219
 20
-4.9946452686
 30
0.0
 10
-43.2033564402
 20
-4.9953182731
 30
0.0
 11
-43.2325276012
 21
-4.7950069172
 31
0.0
 11
-43.2285523093
 21
-4.8945932549
 31
0.0
 11
-43.2178851413
 21
-4.9678415613
 31
0.0
 11
-43.2033564402
 21
-4.9953182731
 31
0.0
  0
SPLINE
  5
512
100
AcDbEntity
  8
RACCORDO
100
AcDbSpline
 62
253
  6
CONTINUOUS
 70
0
 71
3
 72
10
 73
6
 74
4
 42
0.0000001
 43
0.0000001
 44
0.0000000001
 12
0.0002980449
 22
0.2046384124
 32
0.0
 13
0.2043104738
 23
0.0115844277
 33
0.0
 40
0.0
 40
0.0
 40
0.0
 40
0.0
 40
0.4862664976
 40
0.8473397518
 40
1.0
 40
1.0
 40
1.0
 40
1.0
 10
-43.2338914905
 20
-15.2018645916
 30
0.0
 10
-43.2338431808
 20
-15.1686949902
 30
0.0
 10
-43.2321513
 20
-15.1070506654
 30
0.0
 10
-43.2223354156
 20
-15.0504274103
 30
0.0
 10
-43.2138665446
 20
-15.002651656
 30
0.0
 10
-43.2034698487
 20
-15.0020621622
 30
0.0
 11
-43.2338914905
 21
-15.2018645916
 31
0.0
 11
-43.2297193371
 21
-15.1024431843
 31
0.0
 11
-43.2185972003
 21
-15.0293955178
 31
0.0
 11
-43.2034698487
 21
-15.0020621622
 31
0.0
  0
SPLINE
  5
513
100
AcDbEntity
  8
RACCORDO
100
AcDbSpline
 62
253
  6
CONTINUOUS
 70
0
 71
3
 72
10
 73
6
 74
4
 42
0.0000001
 43
0.0000001
 44
0.0000000001
 12
0.0051458583
 22
0.2385557394
 32
0.0
 13
0.2385950082
 23
0.0027825727
 33
0.0
 40
0.0
 40
0.0
 40
0.0
 40
0.0
 40
0.4116073302
 40
0.7509300542
 40
1.0
 40
1.0
 40
1.0
 40
1.0
 10
-26.3091708243
 20
-15.2489123319
 30
0.0
 10
-26.3084648
 20
-15.2161819016
 30
0.0
 10
-26.2989181476
 20
-15.1564357821
 30
0.0
 10
-26.2646855401
 20
-15.0827681612
 30
0.0
 10
-26.219808948
 20
-15.0555749511
 30
0.0
 10
-26.1999999995
 20
-15.0553439327
 30
0.0
 11
-26.3091708243
 21
-15.2489123319
 31
0.0
 11
-26.2931440773
 21
-15.1520146578
 31
0.0
 11
-26.2533698831
 21
-15.0814913197
 31
0.0
 11
-26.1999999995
 21
-15.0553439327
 31
0.0
  0
SPLINE
  5
514
100
AcDbEntity
  8
RACCORDO
100
AcDbSpline
 62
253
  6
CONTINUOUS
 70
0
 71
3
 72
9
 73
5
 74
3
 42
0.0000001
 43
0.0000001
 44
0.0000000001
 12
-0.0862944227
 22
-0.0029355608
 32
0.0
 13
-0.0153392308
 23
-0.0849708945
 33
0.0
 40
0.0
 40
0.0
 40
0.0
 40
0.0
 40
0.5295383715
 40
1.0
 40
1.0
 40
1.0
 40
1.0
 10
-25.0504440086
 20
-13.9907352239
 30
0.0
 10
-25.065676078
 20
-13.9912533879
 30
0.0
 10
-25.0883610588
 20
-13.9978664813
 30
0.0
 10
-25.133923473
 20
-13.9853052919
 30
0.0
 10
-25.1363289795
 20
-13.9986304737
 30
0.0
 11
-25.0504440086
 21
-13.9907352239
 31
0.0
 11
-25.0961162949
 21
-13.9928804836
 31
0.0
 11
-25.1363289795
 21
-13.9986304737
 31
0.0
  0
SPLINE
  5
515
100
AcDbEntity
  8
RACCORDO
100
AcDbSpline
 62
253
  6
CONTINUOUS
 70
0
 71
3
 72
10
 73
6
 74
4
 42
0.0000001
 43
0.0000001
 44
0.0000000001
 12
0.0047039303
 22
1.0063745166
 32
0.0
 13
0.8699277903
 23
0.5060014172
 33
0.0
 40
0.0
 40
0.0
 40
0.0
 40
0.0
 40
0.4819615307
 40
0.8443370967
 40
1.0
 40
1.0
 40
1.0
 40
1.0
 10
-45.2763903511
 20
46.1869283925
 30
0.0
 10
-45.2756346466
 20
46.3486063266
 30
0.0
 10
-45.2785022704
 20
46.6436670847
 30
0.0
 10
-45.2237129143
 20
46.9434092435
 30
0.0
 10
-45.2320361718
 20
47.1592689636
 30
0.0
 10
-45.1868976767
 20
47.1855241801
 30
0.0
 11
-45.2763903511
 21
46.1869283925
 31
0.0
 11
-45.2629008718
 21
46.6717798783
 31
0.0
 11
-45.2303483978
 21
47.0350136618
 31
0.0
 11
-45.1868976767
 21
47.1855241801
 31
0.0
  0
SPLINE
  5
516
100
AcDbEntity
  8
RACCORDO
100
AcDbSpline
 62
253
  6
CONTINUOUS
 70
0
 71
3
 72
10
 73
6
 74
4
 42
0.0000001
 43
0.0000001
 44
0.0000000001
 12
-0.0065842232
 22
-1.0135825493
 32
0.0
 13
-0.9361829307
 23
-0.3885285788
 33
0.0
 40
0.0
 40
0.0
 40
0.0
 40
0.0
 40
0.478772765
 40
0.839949369
 40
1.0
 40
1.0
 40
1.0
 40
1.0
 10
45.3097772046
 20
-46.1820847275
 30
0.0
 10
45.3087264223
 20
-46.3438433007
 30
0.0
 10
45.3054084893
 20
-46.6404970191
 30
0.0
 10
45.2501906621
 20
-46.9386237821
 30
0.0
 10
45.2347765233
 20
-47.1599904488
 30
0.0
 10
45.184830967
 20
-47.1807185302
 30
0.0
 11
45.3097772046
 21
-46.1820847275
 31
0.0
 11
45.2909529471
 21
-46.6670054517
 31
0.0
 11
45.2455031578
 21
-47.0302632451
 31
0.0
 11
45.184830967
 21
-47.1807185302
 31
0.0
  0
SPLINE
  5
517
100
AcDbEntity
  8
RACCORDO
100
AcDbSpline
 62
253
  6
CONTINUOUS
 70
0
 71
3
 72
9
 73
5
 74
3
 42
0.0000001
 43
0.0000001
 44
0.0000000001
 12
-0.0937056939
 22
-0.0041912684
 32
0.0
 13
-0.0116466899
 23
-0.0930735109
 33
0.0
 40
0.0
 40
0.0
 40
0.0
 40
0.0
 40
0.5259066231
 40
1.0
 40
1.0
 40
1.0
 40
1.0
 10
-25.0475492175
 20
-5.9869471001
 30
0.0
 10
-25.0639760325
 20
-5.9876818387
 30
0.0
 10
-25.0883872621
 20
-5.9945169123
 30
0.0
 10
-25.1385747562
 20
-5.9839219623
 30
0.0
 10
-25.1404152957
 20
-5.998630474
 30
0.0
 11
-25.0475492175
 21
-5.9869471001
 31
0.0
 11
-25.0967812291
 21
-5.9900503025
 31
0.0
 11
-25.1404152957
 21
-5.998630474
 31
0.0
  0
SPLINE
  5
518
100
AcDbEntity
  8
RACCORDO
100
AcDbSpline
 62
253
  6
CONTINUOUS
 70
0
 71
3
 72
10
 73
6
 74
4
 42
0.0000001
 43
0.0000001
 44
0.0000000001
 12
-0.0058138394
 22
-0.2498469065
 32
0.0
 13
0.2498864146
 23
-0.0037492954
 33
0.0
 40
0.0
 40
0.0
 40
0.0
 40
0.0
 40
0.4190861991
 40
0.7629428568
 40
1.0
 40
1.0
 40
1.0
 40
1.0
 10
-26.300439711
 20
-4.7357131648
 30
0.0
 10
-26.3012518777
 20
-4.7706156283
 30
0.0
 10
-26.2938611332
 20
-4.834590043
 30
0.0
 10
-26.2643859599
 20
-4.9135627853
 30
0.0
 10
-26.2197457865
 20
-4.9461638742
 30
0.0
 10
-26.2
 20
-4.94646014
 30
0.0
 11
-26.300439711
 21
-4.7357131648
 31
0.0
 11
-26.2885770724
 21
-4.8397749346
 31
0.0
 11
-26.2515965692
 21
-4.9173457316
 31
0.0
 11
-26.2
 21
-4.94646014
 31
0.0
  0
SPLINE
  5
519
100
AcDbEntity
  8
RACCORDO
100
AcDbSpline
 62
7
  6
CONTINUOUS
 70
0
 71
3
 72
10
 73
6
 74
4
 42
0.0000001
 43
0.0000001
 44
0.0000000001
 12
0.006169584
 22
-0.2535939673
 32
0.0
 13
-0.253157259
 23
0.0161048515
 33
0.0
 40
0.0
 40
0.0
 40
0.0
 40
0.0
 40
0.422521462
 40
0.7656193219
 40
1.0
 40
1.0
 40
1.0
 40
1.0
 10
26.3043514903
 20
-4.7352784733
 30
0.0
 10
26.3052204175
 20
-4.7709947712
 30
0.0
 10
26.2974298379
 20
-4.83604036
 30
0.0
 10
26.2671314375
 20
-4.9164901258
 30
0.0
 10
26.2197858061
 20
-4.9473434317
 30
0.0
 10
26.2000074161
 20
-4.9460852097
 30
0.0
 11
26.3043514903
 21
-4.7352784733
 31
0.0
 11
26.2919294808
 21
-4.8417367958
 31
0.0
 11
26.2533010514
 21
-4.9197280676
 31
0.0
 11
26.2000074161
 21
-4.9460852097
 31
0.0
  0
SPLINE
  5
51A
100
AcDbEntity
  8
RACCORDO
100
AcDbSpline
 62
253
  6
CONTINUOUS
 70
0
 71
3
 72
9
 73
5
 74
3
 42
0.0000001
 43
0.0000001
 44
0.0000000001
 12
0.0937079418
 22
-0.0041913215
 32
0.0
 13
0.0116569418
 23
-0.093074493
 33
0.0
 40
0.0
 40
0.0
 40
0.0
 40
0.0
 40
0.5259031511
 40
1.0
 40
1.0
 40
1.0
 40
1.0
 10
25.0475485822
 20
-5.9869471929
 30
0.0
 10
25.0639756828
 20
-5.9876819359
 30
0.0
 10
25.0883883832
 20
-5.9945171499
 30
0.0
 10
25.1385747807
 20
-5.9839216995
 30
0.0
 10
25.1404169538
 20
-5.9986304742
 30
0.0
 11
25.0475485822
 21
-5.9869471929
 31
0.0
 11
25.0967814526
 21
-5.9900503863
 31
0.0
 11
25.1404169538
 21
-5.9986304742
 31
0.0
  0
SPLINE
  5
51B
100
AcDbEntity
  8
RACCORDO
100
AcDbSpline
 62
253
  6
CONTINUOUS
 70
0
 71
3
 72
9
 73
5
 74
3
 42
0.0000001
 43
0.0000001
 44
0.0000000001
 12
0.0862898437
 22
-0.0029356016
 32
0.0
 13
0.0153132259
 23
-0.0849709362
 33
0.0
 40
0.0
 40
0.0
 40
0.0
 40
0.0
 40
0.5295458832
 40
1.0
 40
1.0
 40
1.0
 40
1.0
 10
25.0504454055
 20
-13.9907351492
 30
0.0
 10
25.0656768827
 20
-13.9912533277
 30
0.0
 10
25.0883583791
 20
-13.9978664443
 30
0.0
 10
25.1339243748
 20
-13.9853054984
 30
0.0
 10
25.1363257648
 20
-13.998630474
 30
0.0
 11
25.0504454055
 21
-13.9907351492
 31
0.0
 11
25.0961159136
 21
-13.9928804566
 31
0.0
 11
25.1363257648
 21
-13.998630474
 31
0.0
  0
SPLINE
  5
51C
100
AcDbEntity
  8
RACCORDO
100
AcDbSpline
 62
253
  6
CONTINUOUS
 70
0
 71
3
 72
10
 73
6
 74
4
 42
0.0000001
 43
0.0000001
 44
0.0000000001
 12
-0.0051304978
 22
0.238467318
 32
0.0
 13
-0.2385010999
 23
0.0031951648
 33
0.0
 40
0.0
 40
0.0
 40
0.0
 40
0.0
 40
0.4115344299
 40
0.7508757877
 40
1.0
 40
1.0
 40
1.0
 40
1.0
 10
26.3090674391
 20
-15.2489184629
 30
0.0
 10
26.3083636469
 20
-15.216205959
 30
0.0
 10
26.2988291833
 20
-15.1564838241
 30
0.0
 10
26.2646263844
 20
-15.0828441996
 30
0.0
 10
26.2198054662
 20
-15.0556106447
 30
0.0
 10
26.2
 20
-15.0553453137
 30
0.0
 11
26.3090674391
 21
-15.2489184629
 31
0.0
 11
26.2930620204
 21
-15.1520719054
 31
0.0
 11
26.2533292812
 21
-15.0815546593
 31
0.0
 11
26.2
 21
-15.0553453137
 31
0.0
  0
LINE
  5
51D
100
AcDbEntity
  8
RACCORDO
100
AcDbLine
 62
253
  6
CONTINUOUS
 10
44.4279893
 20
-5.9965720606
 11
44.4280635447
 21
-6.7132480912
  0
LINE
  5
51E
100
AcDbEntity
  8
RACCORDO
100
AcDbLine
 62
253
  6
CONTINUOUS
 10
44.4280635447
 20
-6.7132480912
 11
44.4286012936
 21
-12.7902725815
  0
LINE
  5
51F
100
AcDbEntity
  8
RACCORDO
100
AcDbLine
 62
253
  6
CONTINUOUS
 10
44.4286012936
 20
-12.7902725815
 11
44.428647287
 21
-13.4032943039
  0
LINE
  5
520
100
AcDbEntity
  8
RACCORDO
100
AcDbLine
 62
253
  6
CONTINUOUS
 10
44.428647287
 20
-13.4032943039
 11
44.4286907743
 21
-14.0004802453
  0
SPLINE
  5
521
100
AcDbEntity
  8
RACCORDO
100
AcDbSpline
 62
253
  6
CONTINUOUS
 70
0
 71
3
 72
40
 73
36
 74
34
 42
0.0000001
 43
0.0000001
 44
0.0000000001
 12
90.4010486233
 22
0.5965356985
 32
0.0
 13
90.4010476179
 23
-0.5966880429
 33
0.0
 40
0.0
 40
0.0
 40
0.0
 40
0.0
 40
0.0665082524
 40
0.1249657889
 40
0.1750829074
 40
0.2168538928
 40
0.2515003554
 40
0.2813128902
 40
0.3083442903
 40
0.3338834145
 40
0.358418289
 40
0.3818948717
 40
0.4040791085
 40
0.4245831695
 40
0.443501895
 40
0.4611106925
 40
0.4777618584
 40
0.4938570961
 40
0.5098093535
 40
0.5260134232
 40
0.542879583
 40
0.5607773961
 40
0.5800109971
 40
0.6008029637
 40
0.6231077149
 40
0.6465140163
 40
0.6708569649
 40
0.6961752755
 40
0.7230521691
 40
0.7527671009
 40
0.7872676335
 40
0.8286153393
 40
0.8778881368
 40
0.9350983464
 40
1.0
 40
1.0
 40
1.0
 40
1.0
 10
-45.1848309675
 20
-47.180720511
 30
0.0
 10
-43.1806923801
 20
-47.1674956621
 30
0.0
 10
-39.4150589487
 20
-47.133734849
 30
0.0
 10
-34.139632806
 20
-47.0523911126
 30
0.0
 10
-29.6102680747
 20
-46.9453688853
 30
0.0
 10
-25.7992750618
 20
-46.8187001898
 30
0.0
 10
-22.6009548105
 20
-46.6829216036
 30
0.0
 10
-19.8470978413
 20
-46.5512672464
 30
0.0
 10
-17.3672210241
 20
-46.4357677996
 30
0.0
 10
-15.0455267484
 20
-46.3430426216
 30
0.0
 10
-12.8301990622
 20
-46.2733327207
 30
0.0
 10
-10.7154738722
 20
-46.2232440219
 30
0.0
 10
-8.7219305935
 20
-46.188550585
 30
0.0
 10
-6.8655832666
 20
-46.1653376247
 30
0.0
 10
-5.1470373118
 20
-46.1502553951
 30
0.0
 10
-3.5445580944
 20
-46.1409141418
 30
0.0
 10
-2.0271454043
 20
-46.1356395483
 30
0.0
 10
-0.5596442809
 20
-46.1334619285
 30
0.0
 10
0.8943853425
 20
-46.1337228821
 30
0.0
 10
2.3716437248
 20
-46.1365558946
 30
0.0
 10
3.907521111
 20
-46.142666887
 30
0.0
 10
5.5346704378
 20
-46.1531710628
 30
0.0
 10
7.2800769025
 20
-46.1698610975
 30
0.0
 10
9.1581946895
 20
-46.195235687
 30
0.0
 10
11.1618817546
 20
-46.232625942
 30
0.0
 10
13.2722595845
 20
-46.2858791214
 30
0.0
 10
15.4729212253
 20
-46.3587657283
 30
0.0
 10
17.7773997611
 20
-46.4540634559
 30
0.0
 10
20.2429657342
 20
-46.5704306373
 30
0.0
 10
22.9848994267
 20
-46.7003489938
 30
0.0
 10
26.1632770473
 20
-46.8321503266
 30
0.0
 10
29.9318047
 20
-46.9540181911
 30
0.0
 10
34.3854577457
 20
-47.0567414129
 30
0.0
 10
39.5494693162
 20
-47.1350327742
 30
0.0
 10
43.2291051404
 20
-47.1678118303
 30
0.0
 10
45.184830967
 20
-47.1807205106
 30
0.0
 11
-45.1848309675
 21
-47.180720511
 31
0.0
 11
-39.1725455011
 21
-47.1246773463
 31
0.0
 11
-33.8884745692
 21
-47.0407345012
 31
0.0
 11
-29.3590523227
 21
-46.9315220808
 31
0.0
 11
-25.5849412947
 21
-46.8052412498
 31
0.0
 11
-22.4555579505
 21
-46.6737478769
 31
0.0
 11
-19.7633572719
 21
-46.5478439678
 31
0.0
 11
-17.3221774846
 21
-46.4364472397
 31
0.0
 11
-15.0151692437
 21
-46.3451538097
 31
0.0
 11
-12.7982438798
 21
-46.2752663518
 31
0.0
 11
-10.6764947028
 21
-46.224605719
 31
0.0
 11
-8.6712823175
 21
-46.1893707321
 31
0.0
 11
-6.8178014607
 21
-46.1659382788
 31
0.0
 11
-5.1075587864
 21
-46.1507790564
 31
0.0
 11
-3.5156980712
 21
-46.141387698
 31
0.0
 11
-2.0103917594
 21
-46.1360895985
 31
0.0
 11
-0.5553354262
 21
-46.1338607168
 31
0.0
 11
0.886796741
 21
-46.134136053
 31
0.0
 11
2.3516907076
 21
-46.1370107627
 31
0.0
 11
3.8764300606
 21
-46.1431538936
 31
0.0
 11
5.494411864
 21
-46.1537187766
 31
0.0
 11
7.2331063257
 21
-46.1705115324
 31
0.0
 11
9.1125876143
 21
-46.1961760062
 31
0.0
 11
11.1286466036
 21
-46.2341609104
 31
0.0
 11
13.2439646058
 21
-46.2878903643
 31
0.0
 11
15.4434342563
 21
-46.3607469812
 31
0.0
 11
17.7303740541
 21
-46.4542790376
 31
0.0
 11
20.1575348098
 21
-46.566469668
 31
0.0
 11
22.8409625554
 21
-46.6910806036
 31
0.0
 11
25.9572784363
 21
-46.8192926778
 31
0.0
 11
29.6932527879
 21
-46.9410331445
 31
0.0
 11
34.1464301464
 21
-47.0457983155
 31
0.0
 11
39.3177764966
 21
-47.1264699254
 31
0.0
 11
45.184830967
 21
-47.1807205106
 31
0.0
  0
SPLINE
  5
522
100
AcDbEntity
  8
RACCORDO
100
AcDbSpline
 62
253
  6
CONTINUOUS
 70
0
 71
3
 72
10
 73
6
 74
4
 42
0.0000001
 43
0.0000001
 44
0.0000000001
 12
0.0066016533
 22
-1.0135832727
 32
0.0
 13
0.9361755943
 23
-0.3885484387
 33
0.0
 40
0.0
 40
0.0
 40
0.0
 40
0.0
 40
0.4787735185
 40
0.8399505654
 40
1.0
 40
1.0
 40
1.0
 40
1.0
 10
-45.309778824
 20
-46.1820847214
 30
0.0
 10
-45.3087252585
 20
-46.3438436646
 30
0.0
 10
-45.3054050598
 20
-46.640497903
 30
0.0
 10
-45.2501845822
 20
-46.9386246682
 30
0.0
 10
-45.234775759
 20
-47.159991525
 30
0.0
 10
-45.1848309675
 20
-47.180720511
 30
0.0
 11
-45.309778824
 21
-46.1820847214
 31
0.0
 11
-45.2909491871
 21
-46.667006402
 31
0.0
 11
-45.2454996843
 21
-47.0302649882
 31
0.0
 11
-45.1848309675
 21
-47.180720511
 31
0.0
  0
SPLINE
  5
523
100
AcDbEntity
  8
RACCORDO
100
AcDbSpline
 62
253
  6
CONTINUOUS
 70
0
 71
3
 72
10
 73
6
 74
4
 42
0.0000001
 43
0.0000001
 44
0.0000000001
 12
-0.0047039499
 22
1.0063765888
 32
0.0
 13
-0.8699287806
 23
0.5060038363
 33
0.0
 40
0.0
 40
0.0
 40
0.0
 40
0.0
 40
0.4819614466
 40
0.8443370661
 40
1.0
 40
1.0
 40
1.0
 40
1.0
 10
45.2763903539
 20
46.1869283918
 30
0.0
 10
45.2756346464
 20
46.3486066306
 30
0.0
 10
45.2785022957
 20
46.643667958
 30
0.0
 10
45.2237128248
 20
46.9434108106
 30
0.0
 10
45.2320362321
 20
47.1592709249
 30
0.0
 10
45.1868976767
 20
47.1855262722
 30
0.0
 11
45.2763903539
 21
46.1869283918
 31
0.0
 11
45.2629008654
 21
46.6717807918
 31
0.0
 11
45.2303483874
 21
47.0350153831
 31
0.0
 11
45.1868976767
 21
47.1855262722
 31
0.0
  0
SPLINE
  5
524
100
AcDbEntity
  8
RACCORDO
100
AcDbSpline
 62
253
  6
CONTINUOUS
 70
0
 71
3
 72
10
 73
6
 74
4
 42
0.0000001
 43
0.0000001
 44
0.0000000001
 12
-0.0003081374
 22
0.2046349512
 32
0.0
 13
-0.2042763705
 23
0.0121129115
 33
0.0
 40
0.0
 40
0.0
 40
0.0
 40
0.0
 40
0.4861754867
 40
0.8472416256
 40
1.0
 40
1.0
 40
1.0
 40
1.0
 10
43.2338798741
 20
-15.2018646673
 30
0.0
 10
43.2338299378
 20
-15.1687018349
 30
0.0
 10
43.2321438766
 20
-15.1070774322
 30
0.0
 10
43.2223100708
 20
-15.0504221118
 30
0.0
 10
43.2138714932
 20
-15.0026748556
 30
0.0
 10
43.2034698511
 20
-15.0020580727
 30
0.0
 11
43.2338798741
 21
-15.2018646673
 31
0.0
 11
43.2297066242
 21
-15.1024636237
 31
0.0
 11
43.2185897684
 21
-15.0294178848
 31
0.0
 11
43.2034698511
 21
-15.0020580727
 31
0.0
  0
SPLINE
  5
525
100
AcDbEntity
  8
RACCORDO
100
AcDbSpline
 62
253
  6
CONTINUOUS
 70
0
 71
3
 72
10
 73
6
 74
4
 42
0.0000001
 43
0.0000001
 44
0.0000000001
 12
-0.0002107302
 22
-0.2047772031
 32
0.0
 13
-0.2044202477
 23
-0.0120875823
 33
0.0
 40
0.0
 40
0.0
 40
0.0
 40
0.0
 40
0.4869365514
 40
0.8484451444
 40
1.0
 40
1.0
 40
1.0
 40
1.0
 10
43.2325525124
 20
-4.7950066467
 30
0.0
 10
43.2325183083
 20
-4.8282444817
 30
0.0
 10
43.2310837311
 20
-4.8901308819
 30
0.0
 10
43.2211665144
 20
-4.9464721387
 30
0.0
 10
43.2136834022
 20
-4.9947036245
 30
0.0
 10
43.2033564418
 20
-4.9953142685
 30
0.0
 11
43.2325525124
 21
-4.7950066467
 31
0.0
 11
43.2285727008
 21
-4.8946407509
 31
0.0
 11
43.2178953308
 21
-4.9678954487
 31
0.0
 11
43.2033564418
 21
-4.9953142685
 31
0.0
  0
SPLINE
  5
526
100
AcDbEntity
  8
RACCORDO
100
AcDbSpline
 62
253
  6
CONTINUOUS
 70
0
 71
3
 72
11
 73
7
 74
5
 42
0.0000001
 43
0.0000001
 44
0.0000000001
 12
0.8099743923
 22
-0.702371839
 32
0.0
 13
0.0003485974
 23
-1.0703182882
 33
0.0
 40
0.0
 40
0.0
 40
0.0
 40
0.0
 40
0.0791409254
 40
0.3433659963
 40
0.6506891001
 40
1.0
 40
1.0
 40
1.0
 40
1.0
 10
-25.4787778412
 20
-5.0395946415
 30
0.0
 10
-25.4574104669
 20
-5.0581234273
 30
0.0
 10
-25.3674334045
 20
-5.1416768275
 30
0.0
 10
-25.2211735992
 20
-5.324557512
 30
0.0
 10
-25.0826603269
 20
-5.6264494395
 30
0.0
 10
-25.047589757
 20
-5.8623224908
 30
0.0
 10
-25.0475491674
 20
-5.9869471056
 30
0.0
 11
-25.4787778412
 21
-5.0395946415
 31
0.0
 11
-25.4166134172
 21
-5.0973271991
 31
0.0
 11
-25.239944066
 21
-5.3181587519
 31
0.0
 11
-25.1029292252
 21
-5.6171975747
 31
0.0
 11
-25.0475491674
 21
-5.9869471056
 31
0.0
  0
LINE
  5
527
100
AcDbEntity
  8
RACCORDO
100
AcDbLine
 62
253
  6
CONTINUOUS
 10
-43.2325525852
 20
-4.7950066476
 11
-42.9005192319
 21
-4.7945191016
  0
LINE
  5
528
100
AcDbEntity
  8
RACCORDO
100
AcDbLine
 62
253
  6
CONTINUOUS
 10
-42.9005192319
 20
-4.7945191016
 11
-42.4653900712
 21
-4.7938523933
  0
SPLINE
  5
529
100
AcDbEntity
  8
RACCORDO
100
AcDbSpline
 62
253
  6
CONTINUOUS
 70
0
 71
3
 72
8
 73
4
 74
2
 42
0.0000001
 43
0.0000001
 44
0.0000000001
 12
3.2730845273
 22
0.0051358838
 32
0.0
 13
3.2730807751
 23
0.0071964389
 33
0.0
 40
0.0
 40
0.0
 40
0.0
 40
0.0
 40
1.0
 40
1.0
 40
1.0
 40
1.0
 10
-42.4653900712
 20
-4.7938523933
 30
0.0
 10
-41.3743618954
 20
-4.7921404321
 30
0.0
 10
-40.2833341429
 20
-4.7901221934
 30
0.0
 10
-39.1923072178
 20
-4.7877233805
 30
0.0
 11
-42.4653900712
 21
-4.7938523933
 31
0.0
 11
-39.1923072178
 21
-4.7877233805
 31
0.0
  0
LINE
  5
52A
100
AcDbEntity
  8
RACCORDO
100
AcDbLine
 62
253
  6
CONTINUOUS
 10
-39.1923072178
 20
-4.7877233805
 11
-38.097200371
 21
-4.785185005
  0
LINE
  5
52B
100
AcDbEntity
  8
RACCORDO
100
AcDbLine
 62
253
  6
CONTINUOUS
 10
-44.4286907657
 20
-14.0004802427
 11
-44.4286466466
 21
-13.394747156
  0
LINE
  5
52C
100
AcDbEntity
  8
RACCORDO
100
AcDbLine
 62
253
  6
CONTINUOUS
 10
-44.4286466466
 20
-13.394747156
 11
-44.4286001073
 21
-12.7748189065
  0
LINE
  5
52D
100
AcDbEntity
  8
RACCORDO
100
AcDbLine
 62
253
  6
CONTINUOUS
 10
-44.4286001073
 20
-12.7748189065
 11
-44.4280626518
 21
-6.7045881142
  0
LINE
  5
52E
100
AcDbEntity
  8
RACCORDO
100
AcDbLine
 62
253
  6
CONTINUOUS
 10
-44.4280626518
 20
-6.7045881142
 11
-44.4279892894
 21
-5.9965720621
  0
LINE
  5
52F
100
AcDbEntity
  8
RACCORDO
100
AcDbLine
 62
253
  6
CONTINUOUS
 10
-26.3090671068
 20
-15.2489184395
 11
-27.4670822223
 21
-15.2433694063
  0
SPLINE
  5
530
100
AcDbEntity
  8
RACCORDO
100
AcDbSpline
 62
253
  6
CONTINUOUS
 70
0
 71
3
 72
10
 73
6
 74
4
 42
0.0000001
 43
0.0000001
 44
0.0000000001
 12
-10.6883084309
 22
0.049191393
 32
0.0
 13
-10.6884010298
 23
0.0209172724
 33
0.0
 40
0.0
 40
0.0
 40
0.0
 40
0.0
 40
0.2268549882
 40
0.5912169299
 40
1.0
 40
1.0
 40
1.0
 40
1.0
 10
-27.4670822223
 20
-15.2433694063
 30
0.0
 10
-28.2753142499
 20
-15.2396496353
 30
0.0
 10
-30.3816877682
 20
-15.2307808653
 30
0.0
 10
-33.944476388
 20
-15.2191355922
 30
0.0
 10
-36.6990358427
 20
-15.2127626328
 30
0.0
 10
-38.1554483052
 20
-15.2099124238
 30
0.0
 11
-27.4670822223
 21
-15.2433694063
 31
0.0
 11
-29.8917823816
 21
-15.2331356818
 31
0.0
 11
-33.7862148976
 21
-15.220237122
 31
0.0
 11
-38.1554483052
 21
-15.2099124238
 31
0.0
  0
LINE
  5
531
100
AcDbEntity
  8
RACCORDO
100
AcDbLine
 62
253
  6
CONTINUOUS
 10
-38.1554483052
 20
-15.2099124238
 11
-39.8261092633
 21
-15.2068627777
  0
LINE
  5
532
100
AcDbEntity
  8
RACCORDO
100
AcDbLine
 62
253
  6
CONTINUOUS
 10
-39.8261092633
 20
-15.2068627777
 11
-39.9170375764
 21
-15.2067089603
  0
SPLINE
  5
533
100
AcDbEntity
  8
RACCORDO
100
AcDbSpline
 62
253
  6
CONTINUOUS
 70
0
 71
3
 72
8
 73
4
 74
2
 42
0.0000001
 43
0.0000001
 44
0.0000000001
 12
-2.5505902621
 22
0.0042977058
 32
0.0
 13
-2.5505915481
 23
0.003427841
 33
0.0
 40
0.0
 40
0.0
 40
0.0
 40
0.0
 40
1.0
 40
1.0
 40
1.0
 40
1.0
 10
-39.9170375764
 20
-15.2067089603
 30
0.0
 10
-40.7672343304
 20
-15.2052763917
 30
0.0
 10
-41.6174313484
 20
-15.2040020756
 30
0.0
 10
-42.4676285311
 20
-15.202859462
 30
0.0
 11
-39.9170375764
 21
-15.2067089603
 31
0.0
 11
-42.4676285311
 21
-15.202859462
 31
0.0
  0
LINE
  5
534
100
AcDbEntity
  8
RACCORDO
100
AcDbLine
 62
253
  6
CONTINUOUS
 10
-42.4676285311
 20
-15.202859462
 11
-42.9004287306
 21
-15.2022890514
  0
LINE
  5
535
100
AcDbEntity
  8
RACCORDO
100
AcDbLine
 62
253
  6
CONTINUOUS
 10
-42.9004287306
 20
-15.2022890514
 11
-43.2338914941
 21
-15.2018645916
  0
LINE
  5
536
100
AcDbEntity
  8
RACCORDO
100
AcDbLine
 62
253
  6
CONTINUOUS
 10
-25.0475491674
 20
-5.9869471056
 11
-25.0478736889
 21
-6.7058256963
  0
LINE
  5
537
100
AcDbEntity
  8
RACCORDO
100
AcDbLine
 62
253
  6
CONTINUOUS
 10
-25.0478736889
 20
-6.7058256963
 11
-25.0484715749
 21
-8.1231989905
  0
LINE
  5
538
100
AcDbEntity
  8
RACCORDO
100
AcDbLine
 62
253
  6
CONTINUOUS
 10
-25.0484715749
 20
-8.1231989905
 11
-25.0500969747
 21
-12.7823744693
  0
LINE
  5
539
100
AcDbEntity
  8
RACCORDO
100
AcDbLine
 62
253
  6
CONTINUOUS
 10
-25.0500969747
 20
-12.7823744693
 11
-25.0502768368
 21
-13.3944855239
  0
LINE
  5
53A
100
AcDbEntity
  8
RACCORDO
100
AcDbLine
 62
253
  6
CONTINUOUS
 10
-25.0502768368
 20
-13.3944855239
 11
-25.0504453658
 21
-13.9907351301
  0
SPLINE
  5
53B
100
AcDbEntity
  8
RACCORDO
100
AcDbSpline
 62
253
  6
CONTINUOUS
 70
0
 71
3
 72
23
 73
19
 74
17
 42
0.0000001
 43
0.0000001
 44
0.0000000001
 12
0.0000156409
 22
90.382742143
 32
0.0
 13
0.0000928866
 23
90.3827421429
 33
0.0
 40
0.0
 40
0.0
 40
0.0
 40
0.0
 40
0.0939036851
 40
0.1807447582
 40
0.259983183
 40
0.3317895105
 40
0.3969832991
 40
0.4564106755
 40
0.5106839143
 40
0.5600745673
 40
0.6066433454
 40
0.6559425121
 40
0.7109324866
 40
0.7706235026
 40
0.8335146201
 40
0.8917964563
 40
0.945221541
 40
1.0
 40
1.0
 40
1.0
 40
1.0
 10
47.1883265146
 20
-45.1896979191
 30
0.0
 10
47.1883270042
 20
-42.3606070674
 30
0.0
 10
47.188329721
 20
-36.9152047749
 30
0.0
 10
47.1883396637
 20
-29.0825404444
 30
0.0
 10
47.188355116
 20
-21.915616038
 30
0.0
 10
47.1883758064
 20
-15.4008719449
 30
0.0
 10
47.1884015452
 20
-9.4829868101
 30
0.0
 10
47.1884322564
 20
-4.0933312218
 30
0.0
 10
47.1884678042
 20
0.8202141253
 30
0.0
 10
47.1885082639
 20
5.3463610118
 30
0.0
 10
47.1885553957
 20
9.7226511438
 30
0.0
 10
47.1886132495
 20
14.2676352829
 30
0.0
 10
47.1886856679
 20
19.2079607042
 30
0.0
 10
47.1887686781
 20
24.5577787185
 30
0.0
 10
47.188843375
 20
30.0067725637
 30
0.0
 10
47.1888948857
 20
35.2669890589
 30
0.0
 10
47.1889241281
 20
40.2827907795
 30
0.0
 10
47.1889320682
 20
43.5427017758
 30
0.0
 10
47.1889337643
 20
45.1930442207
 30
0.0
 11
47.1883265146
 21
-45.1896979191
 31
0.0
 11
47.1883309596
 21
-36.7024253641
 31
0.0
 11
47.1883411674
 21
-28.8534910417
 31
0.0
 11
47.188356876
 21
-21.6917049273
 31
0.0
 11
47.1883777696
 21
-15.201652145
 31
0.0
 11
47.1884036867
 21
-9.3092587624
 31
0.0
 11
47.1884345791
 21
-3.9380495231
 31
0.0
 11
47.1884703275
 21
0.9673146201
 31
0.0
 11
47.188510426
 21
5.4313772789
 31
0.0
 11
47.1885558451
 21
9.6403911363
 31
0.0
 11
47.1886124218
 21
14.0961850159
 31
0.0
 11
47.1886842733
 21
19.0663296963
 31
0.0
 11
47.1887655988
 21
24.4613674003
 31
0.0
 11
47.1888414277
 21
30.1456390592
 31
0.0
 11
47.1888926885
 21
35.4133112321
 31
0.0
 11
47.1889211928
 21
40.2420168858
 31
0.0
 11
47.1889337643
 21
45.1930442207
 31
0.0
  0
SPLINE
  5
53C
100
AcDbEntity
  8
RACCORDO
100
AcDbSpline
 62
253
  6
CONTINUOUS
 70
0
 71
3
 72
22
 73
18
 74
16
 42
0.0000001
 43
0.0000001
 44
0.0000000001
 12
0.0000928076
 22
-90.3827421435
 32
0.0
 13
0.0000156689
 23
-90.3827421436
 33
0.0
 40
0.0
 40
0.0
 40
0.0
 40
0.0
 40
0.0848266228
 40
0.1630064286
 40
0.2330593256
 40
0.2951811162
 40
0.3504804273
 40
0.3995280984
 40
0.4464311799
 40
0.496727331
 40
0.5508742256
 40
0.6090420247
 40
0.6721544461
 40
0.7418985003
 40
0.8198371195
 40
0.9064331103
 40
1.0
 40
1.0
 40
1.0
 40
1.0
 10
-47.1889337642
 20
45.1930442207
 30
0.0
 10
-47.18893114
 20
42.6374232969
 30
0.0
 10
-47.1889153788
 20
37.7264339613
 30
0.0
 10
-47.1888534172
 20
30.7049203185
 30
0.0
 10
-47.1887659844
 20
24.3674483406
 30
0.0
 10
-47.1886780684
 20
18.7193103139
 30
0.0
 10
-47.1886055485
 20
13.7040089245
 30
0.0
 10
-47.1885487124
 20
9.1472104198
 30
0.0
 10
-47.1885023784
 20
4.7411450265
 30
0.0
 10
-47.1884627438
 20
0.1814523631
 30
0.0
 10
-47.1884283598
 20
-4.7176189879
 30
0.0
 10
-47.1883990725
 20
-10.0028135597
 30
0.0
 10
-47.1883745729
 20
-15.7579128129
 30
0.0
 10
-47.1883546691
 20
-22.1086590436
 30
0.0
 10
-47.1883395469
 20
-29.1669084068
 30
0.0
 10
-47.188329707
 20
-36.9428821716
 30
0.0
 10
-47.188327004
 20
-42.3707538969
 30
0.0
 10
-47.1883265153
 20
-45.1896979198
 30
0.0
 11
-47.1889337642
 21
45.1930442207
 31
0.0
 11
-47.1889072684
 21
37.5261814493
 31
0.0
 11
-47.1888450805
 21
30.4600762143
 31
0.0
 11
-47.1887607087
 21
24.1285032925
 31
0.0
 11
-47.1886759638
 21
18.5137655153
 31
0.0
 11
-47.1886045793
 21
13.515662134
 31
0.0
 11
-47.1885493846
 21
9.0825991242
 31
0.0
 11
-47.1885046968
 21
4.8433700012
 31
0.0
 11
-47.1884649737
 21
0.2974659539
 31
0.0
 11
-47.1884303717
 21
-4.5964788659
 31
0.0
 11
-47.1884009775
 21
-9.8538440517
 31
0.0
 11
-47.1883764377
 21
-15.5581177616
 31
0.0
 11
-47.1883564268
 21
-21.8617766253
 31
0.0
 11
-47.1883410813
 21
-28.9060827439
 31
0.0
 11
-47.1883309351
 21
-36.7328658512
 31
0.0
 11
-47.1883265153
 21
-45.1896979198
 31
0.0
  0
SPLINE
  5
53D
100
AcDbEntity
  8
RACCORDO
100
AcDbSpline
 62
253
  6
CONTINUOUS
 70
0
 71
3
 72
14
 73
10
 74
8
 42
0.0000001
 43
0.0000001
 44
0.0000000001
 12
-0.0000616998
 22
1.0072982711
 32
0.0
 13
-0.7424941825
 23
-0.5959702316
 33
0.0
 40
0.0
 40
0.0
 40
0.0
 40
0.0
 40
0.2664058627
 40
0.5113436351
 40
0.715521173
 40
0.863347234
 40
0.9469947171
 40
0.9878917719
 40
1.0
 40
1.0
 40
1.0
 40
1.0
 10
-92.5133598081
 20
-7.998630474
 30
0.0
 10
-92.5133652871
 20
-7.909180419
 30
0.0
 10
-92.5161147548
 20
-7.7369407616
 30
0.0
 10
-92.5307127217
 20
-7.4991050165
 30
0.0
 10
-92.5494659229
 20
-7.2939032726
 30
0.0
 10
-92.5837718548
 20
-7.1633620441
 30
0.0
 10
-92.6045909267
 20
-7.0533224948
 30
0.0
 10
-92.6600561879
 20
-7.0538266455
 30
0.0
 10
-92.6745506481
 20
-7.0626928946
 30
0.0
 10
-92.677547411
 20
-7.0650982758
 30
0.0
 11
-92.5133598081
 21
-7.998630474
 31
0.0
 11
-92.5183155754
 21
-7.7303260729
 31
0.0
 11
-92.5330155469
 21
-7.4840389814
 31
0.0
 11
-92.5568417178
 21
-7.2797560679
 31
0.0
 11
-92.5886076251
 21
-7.1342788977
 31
0.0
 11
-92.6263669882
 21
-7.0589553607
 31
0.0
 11
-92.6675622854
 21
-7.0590946392
 31
0.0
 11
-92.677547411
 21
-7.0650982758
 31
0.0
  0
LINE
  5
53E
100
AcDbEntity
  8
RACCORDO
100
AcDbLine
 62
253
  6
CONTINUOUS
 10
-97.9696954069
 20
-14.351253005
 11
-92.4675050768
 21
-14.3990546571
  0
SPLINE
  5
53F
100
AcDbEntity
  8
RACCORDO
100
AcDbSpline
 62
253
  6
CONTINUOUS
 70
0
 71
3
 72
9
 73
5
 74
3
 42
0.0000001
 43
0.0000001
 44
0.0000000001
 12
0.0119687005
 22
-0.2526508122
 32
0.0
 13
0.0724734335
 23
-0.2424367522
 33
0.0
 40
0.0
 40
0.0
 40
0.0
 40
0.0
 40
0.4174329194
 40
1.0
 40
1.0
 40
1.0
 40
1.0
 10
-98.3342815752
 20
-13.7517099463
 30
0.0
 10
-98.3326161987
 20
-13.7868648683
 30
0.0
 10
-98.3246764108
 20
-13.8709393376
 30
0.0
 10
-98.306992407
 20
-13.9536056591
 30
0.0
 10
-98.2929188615
 20
-14.0006842161
 30
0.0
 11
-98.3342815752
 21
-13.7517099463
 31
0.0
 11
-98.324289609
 21
-13.8568104006
 31
0.0
 11
-98.2929188615
 21
-14.0006842161
 31
0.0
  0
SPLINE
  5
540
100
AcDbEntity
  8
RACCORDO
100
AcDbSpline
 62
253
  6
CONTINUOUS
 70
0
 71
3
 72
12
 73
8
 74
6
 42
0.0000001
 43
0.0000001
 44
0.0000000001
 12
0.1450420467
 22
-0.4851918974
 32
0.0
 13
0.5057912171
 23
-0.004614148
 33
0.0
 40
0.0
 40
0.0
 40
0.0
 40
0.0
 40
0.0173557265
 40
0.3084576751
 40
0.5720325838
 40
0.8009406631
 40
1.0
 40
1.0
 40
1.0
 40
1.0
 10
-98.2929188615
 20
-14.0006842161
 30
0.0
 10
-98.2920797581
 20
-14.0034911687
 30
0.0
 10
-98.2769283702
 20
-14.053309982
 30
0.0
 10
-98.2409191234
 20
-14.1433746577
 30
0.0
 10
-98.1668439506
 20
-14.254247017
 30
0.0
 10
-98.0757853812
 20
-14.3306812523
 30
0.0
 10
-98.0032562283
 20
-14.3509468419
 30
0.0
 10
-97.9696954069
 20
-14.351253005
 30
0.0
 11
-98.2929188615
 21
-14.0006842161
 31
0.0
 11
-98.2903612322
 21
-14.0090934272
 31
0.0
 11
-98.2343610773
 21
-14.1452714897
 31
0.0
 11
-98.158327511
 21
-14.2547838855
 31
0.0
 11
-98.0672270847
 21
-14.3262455251
 31
0.0
 11
-97.9696954069
 21
-14.351253005
 31
0.0
  0
SPLINE
  5
541
100
AcDbEntity
  8
RACCORDO
100
AcDbSpline
 62
253
  6
CONTINUOUS
 70
0
 71
3
 72
12
 73
8
 74
6
 42
0.0000001
 43
0.0000001
 44
0.0000000001
 12
-0.5057934125
 22
-0.0045007371
 32
0.0
 13
-0.145062786
 23
-0.4851968308
 33
0.0
 40
0.0
 40
0.0
 40
0.0
 40
0.0
 40
0.1990246177
 40
0.4277262593
 40
0.6913833003
 40
0.9831152422
 40
1.0
 40
1.0
 40
1.0
 40
1.0
 10
-97.9696954069
 20
-5.646007943
 30
0.0
 10
-98.0032505204
 20
-5.6463065288
 30
0.0
 10
-98.075741258
 20
-5.6665632502
 30
0.0
 10
-98.1667884494
 20
-5.7429595937
 30
0.0
 10
-98.2409348854
 20
-5.8538915723
 30
0.0
 10
-98.2769517247
 20
-5.9439992014
 30
0.0
 10
-98.2921065559
 20
-5.9938460542
 30
0.0
 10
-98.2929230059
 20
-5.9965768645
 30
0.0
 11
-97.9696954069
 21
-5.646007943
 31
0.0
 11
-98.0672118905
 21
-5.6710049147
 31
0.0
 11
-98.1582413667
 21
-5.7423882526
 31
0.0
 11
-98.2343214133
 21
-5.8519193254
 31
0.0
 11
-98.2904355044
 21
-5.9883954544
 31
0.0
 11
-98.2929230059
 21
-5.9965768645
 31
0.0
  0
SPLINE
  5
542
100
AcDbEntity
  8
RACCORDO
100
AcDbSpline
 62
253
  6
CONTINUOUS
 70
0
 71
3
 72
9
 73
5
 74
3
 42
0.0000001
 43
0.0000001
 44
0.0000000001
 12
-0.0726100929
 22
-0.2428616458
 32
0.0
 13
-0.0118890273
 23
-0.2530931239
 33
0.0
 40
0.0
 40
0.0
 40
0.0
 40
0.0
 40
0.5848800755
 40
1.0
 40
1.0
 40
1.0
 40
1.0
 10
-98.2929230059
 20
-5.9965768645
 30
0.0
 10
-98.3070790714
 20
-6.0439251771
 30
0.0
 10
-98.3247611634
 20
-6.1267471188
 30
0.0
 10
-98.3326521108
 20
-6.2109708676
 30
0.0
 10
-98.3342972348
 20
-6.2459922004
 30
0.0
 11
-98.2929230059
 21
-5.9965768645
 31
0.0
 11
-98.3244134772
 21
-6.1412865209
 31
0.0
 11
-98.3342972348
 21
-6.2459922004
 31
0.0
  0
LINE
  5
543
100
AcDbEntity
  8
RACCORDO
100
AcDbLine
 62
253
  6
CONTINUOUS
 10
-92.4675050768
 20
-5.598206291
 11
-97.9696954069
 21
-5.646007943
  0
SPLINE
  5
544
100
AcDbEntity
  8
RACCORDO
100
AcDbSpline
 62
253
  6
CONTINUOUS
 70
0
 71
3
 72
8
 73
4
 74
2
 42
0.0000001
 43
0.0000001
 44
0.0000000001
 12
-0.0214145064
 22
0.0287431417
 32
0.0
 13
-0.0300215182
 23
0.0144863834
 33
0.0
 40
0.0
 40
0.0
 40
0.0
 40
0.0
 40
1.0
 40
1.0
 40
1.0
 40
1.0
 10
-92.4274115913
 20
-5.6253469406
 30
0.0
 10
-92.4345497601
 20
-5.6157658933
 30
0.0
 10
-92.4432455254
 20
-5.6064144364
 30
0.0
 10
-92.4532526982
 20
-5.601585642
 30
0.0
 11
-92.4274115913
 21
-5.6253469406
 31
0.0
 11
-92.4532526982
 21
-5.601585642
 31
0.0
  0
SPLINE
  5
545
100
AcDbEntity
  8
RACCORDO
100
AcDbSpline
 62
253
  6
CONTINUOUS
 70
0
 71
3
 72
8
 73
4
 74
2
 42
0.0000001
 43
0.0000001
 44
0.0000000001
 12
-0.0134815259
 22
0.0065052857
 32
0.0
 13
-0.0150008703
 23
-0.000135689
 33
0.0
 40
0.0
 40
0.0
 40
0.0
 40
0.0
 40
1.0
 40
1.0
 40
1.0
 40
1.0
 10
-92.4532526982
 20
-5.601585642
 30
0.0
 10
-92.4577465401
 20
-5.5994172134
 30
0.0
 10
-92.4625047867
 20
-5.5981610613
 30
0.0
 10
-92.4675050768
 20
-5.598206291
 30
0.0
 11
-92.4532526982
 21
-5.601585642
 31
0.0
 11
-92.4675050768
 21
-5.598206291
 31
0.0
  0
SPLINE
  5
546
100
AcDbEntity
  8
RACCORDO
100
AcDbSpline
 62
253
  6
CONTINUOUS
 70
0
 71
3
 72
8
 73
4
 74
2
 42
0.0000001
 43
0.0000001
 44
0.0000000001
 12
0.0167967235
 22
-0.0742662639
 32
0.0
 13
0.0198671882
 23
-0.0737349575
 33
0.0
 40
0.0
 40
0.0
 40
0.0
 40
0.0
 40
1.0
 40
1.0
 40
1.0
 40
1.0
 10
-92.6705629036
 20
-8.9556446189
 30
0.0
 10
-92.6649639958
 20
-8.9804000402
 30
0.0
 10
-92.6587259872
 20
-9.0046008837
 30
0.0
 10
-92.6521035912
 20
-9.0291792029
 30
0.0
 11
-92.6705629036
 21
-8.9556446189
 31
0.0
 11
-92.6521035912
 21
-9.0291792029
 31
0.0
  0
SPLINE
  5
547
100
AcDbEntity
  8
RACCORDO
100
AcDbSpline
 62
253
  6
CONTINUOUS
 70
0
 71
3
 72
12
 73
8
 74
6
 42
0.0000001
 43
0.0000001
 44
0.0000000001
 12
0.1438911083
 22
-0.5340365554
 32
0.0
 13
0.1113688441
 23
0.5337711645
 33
0.0
 40
0.0
 40
0.0
 40
0.0
 40
0.0
 40
0.2150627371
 40
0.4176820312
 40
0.5151918814
 40
0.7130420369
 40
1.0
 40
1.0
 40
1.0
 40
1.0
 10
-92.6521035912
 20
-9.0291792029
 30
0.0
 10
-92.6417883859
 20
-9.0674629906
 30
0.0
 10
-92.6199435718
 20
-9.1435941502
 30
0.0
 10
-92.5931384989
 20
-9.258146893
 30
0.0
 10
-92.4787902067
 20
-9.2590056164
 30
0.0
 10
-92.4529768535
 20
-9.1263489636
 30
0.0
 10
-92.4313181
 20
-9.0408757713
 30
0.0
 10
-92.4206653745
 20
-8.9898191426
 30
0.0
 11
-92.6521035912
 21
-9.0291792029
 31
0.0
 11
-92.619322766
 21
-9.1503003744
 31
0.0
 11
-92.5633765202
 21
-9.251338679
 31
0.0
 11
-92.5077958192
 21
-9.251443528
 31
0.0
 11
-92.4568989206
 21
-9.1508070619
 31
0.0
 11
-92.4206653745
 21
-8.9898191426
 31
0.0
  0
SPLINE
  5
548
100
AcDbEntity
  8
RACCORDO
100
AcDbSpline
 62
253
  6
CONTINUOUS
 70
0
 71
3
 72
12
 73
8
 74
6
 42
0.0000001
 43
0.0000001
 44
0.0000000001
 12
-0.1107031857
 22
0.5416904525
 32
0.0
 13
-0.1458980917
 23
-0.5411727878
 33
0.0
 40
0.0
 40
0.0
 40
0.0
 40
0.0
 40
0.2961426185
 40
0.4919261894
 40
0.5882176163
 40
0.7880746591
 40
1.0
 40
1.0
 40
1.0
 40
1.0
 10
-92.4191476713
 20
-7.0149407837
 30
0.0
 10
-92.4300756484
 20
-6.9614682407
 30
0.0
 10
-92.4523292152
 20
-6.8742063473
 30
0.0
 10
-92.4785737044
 20
-6.7384088852
 30
0.0
 10
-92.5930692903
 20
-6.7389651076
 30
0.0
 10
-92.6199018223
 20
-6.8535476108
 30
0.0
 10
-92.6417402592
 20
-6.9296154691
 30
0.0
 10
-92.6520467601
 20
-6.9678448783
 30
0.0
 11
-92.4191476713
 21
-7.0149407837
 31
0.0
 11
-92.4567585713
 21
-6.8468704314
 31
0.0
 11
-92.507702434
 21
-6.7458861014
 31
0.0
 11
-92.5633312053
 21
-6.7458734608
 31
0.0
 11
-92.6192859686
 21
-6.8468688139
 31
0.0
 11
-92.6520467601
 21
-6.9678448783
 31
0.0
  0
SPLINE
  5
549
100
AcDbEntity
  8
RACCORDO
100
AcDbSpline
 62
253
  6
CONTINUOUS
 70
0
 71
3
 72
8
 73
4
 74
2
 42
0.0000001
 43
0.0000001
 44
0.0000000001
 12
-0.0198549834
 22
-0.0736471368
 32
0.0
 13
-0.0167871126
 23
-0.074177287
 33
0.0
 40
0.0
 40
0.0
 40
0.0
 40
0.0
 40
1.0
 40
1.0
 40
1.0
 40
1.0
 10
-92.6520467601
 20
-6.9678448783
 30
0.0
 10
-92.6586650879
 20
-6.9923939239
 30
0.0
 10
-92.6648987965
 20
-7.0165639311
 30
0.0
 10
-92.6704945007
 20
-7.0412896935
 30
0.0
 11
-92.6520467601
 21
-6.9678448783
 31
0.0
 11
-92.6704945007
 21
-7.0412896935
 31
0.0
  0
SPLINE
  5
54A
100
AcDbEntity
  8
RACCORDO
100
AcDbSpline
 62
253
  6
CONTINUOUS
 70
0
 71
3
 72
8
 73
4
 74
2
 42
0.0000001
 43
0.0000001
 44
0.0000000001
 12
0.0167786591
 22
-0.0741778879
 32
0.0
 13
0.0198357791
 23
-0.0736482519
 33
0.0
 40
0.0
 40
0.0
 40
0.0
 40
0.0
 40
1.0
 40
1.0
 40
1.0
 40
1.0
 10
-92.6706025035
 20
-12.9554280916
 30
0.0
 10
-92.6650096172
 20
-12.9801540543
 30
0.0
 10
-92.6587773437
 20
-13.0043290902
 30
0.0
 10
-92.6521654173
 20
-13.0288785075
 30
0.0
 11
-92.6706025035
 21
-12.9554280916
 31
0.0
 11
-92.6521654173
 21
-13.0288785075
 31
0.0
  0
SPLINE
  5
54B
100
AcDbEntity
  8
RACCORDO
100
AcDbSpline
 62
253
  6
CONTINUOUS
 70
0
 71
3
 72
12
 73
8
 74
6
 42
0.0000001
 43
0.0000001
 44
0.0000000001
 12
0.1403779597
 22
-0.5212092403
 32
0.0
 13
0.1122823401
 23
0.5205863745
 33
0.0
 40
0.0
 40
0.0
 40
0.0
 40
0.0
 40
0.2202254524
 40
0.4283048642
 40
0.5284464817
 40
0.7315827438
 40
1.0
 40
1.0
 40
1.0
 40
1.0
 10
-92.6521654173
 20
-13.0288785075
 30
0.0
 10
-92.6418604841
 20
-13.0671396877
 30
0.0
 10
-92.6200254419
 20
-13.1433204569
 30
0.0
 10
-92.5933702928
 20
-13.2579046231
 30
0.0
 10
-92.4787712762
 20
-13.2592057697
 30
0.0
 10
-92.4540518992
 20
-13.1319480515
 30
0.0
 10
-92.4335251098
 20
-13.0495969739
 30
0.0
 10
-92.4234789372
 20
-13.0030188518
 30
0.0
 11
-92.6521654173
 21
-13.0288785075
 31
0.0
 11
-92.6194673319
 21
-13.1498931902
 31
0.0
 11
-92.5635301572
 21
-13.251207164
 31
0.0
 11
-92.507833852
 21
-13.2514990493
 31
0.0
 11
-92.4568490677
 21
-13.1506762056
 31
0.0
 11
-92.4234789372
 21
-13.0030188518
 31
0.0
  0
SPLINE
  5
54C
100
AcDbEntity
  8
RACCORDO
100
AcDbSpline
 62
253
  6
CONTINUOUS
 70
0
 71
3
 72
12
 73
8
 74
6
 42
0.0000001
 43
0.0000001
 44
0.0000000001
 12
-0.1118329312
 22
0.5260569577
 32
0.0
 13
-0.142003162
 23
-0.526308665
 33
0.0
 40
0.0
 40
0.0
 40
0.0
 40
0.0
 40
0.2774204627
 40
0.4784453221
 40
0.5773199871
 40
0.7823160339
 40
1.0
 40
1.0
 40
1.0
 40
1.0
 10
-92.4221424488
 20
-11.0005217777
 30
0.0
 10
-92.4324840299
 20
-10.9518754562
 30
0.0
 10
-92.4535376675
 20
-10.8680165799
 30
0.0
 10
-92.4786348165
 20
-10.7384613965
 30
0.0
 10
-92.5929157222
 20
-10.7388918574
 30
0.0
 10
-92.6198185945
 20
-10.8532624493
 30
0.0
 10
-92.6416446168
 20
-10.9292002082
 30
0.0
 10
-92.651948554
 20
-10.9673898607
 30
0.0
 11
-92.4221424488
 21
-11.0005217777
 31
0.0
 11
-92.4568137505
 21
-10.8467227684
 31
0.0
 11
-92.5077174326
 21
-10.7458915852
 31
0.0
 11
-92.5632730775
 21
-10.745828931
 31
0.0
 11
-92.6191696083
 21
-10.8465400753
 31
0.0
 11
-92.651948554
 21
-10.9673898607
 31
0.0
  0
SPLINE
  5
54D
100
AcDbEntity
  8
RACCORDO
100
AcDbSpline
 62
253
  6
CONTINUOUS
 70
0
 71
3
 72
8
 73
4
 74
2
 42
0.0000001
 43
0.0000001
 44
0.0000000001
 12
-0.0198663945
 22
-0.0736311459
 32
0.0
 13
-0.0167943122
 23
-0.074160018
 33
0.0
 40
0.0
 40
0.0
 40
0.0
 40
0.0
 40
1.0
 40
1.0
 40
1.0
 40
1.0
 10
-92.651948554
 20
-10.9673898607
 30
0.0
 10
-92.6585706855
 20
-10.9919335761
 30
0.0
 10
-92.6648059422
 20
-11.0160977231
 30
0.0
 10
-92.6704040462
 20
-11.0408177291
 30
0.0
 11
-92.651948554
 21
-10.9673898607
 31
0.0
 11
-92.6704040462
 21
-11.0408177291
 31
0.0
  0
SPLINE
  5
54E
100
AcDbEntity
  8
RACCORDO
100
AcDbSpline
 62
253
  6
CONTINUOUS
 70
0
 71
3
 72
14
 73
10
 74
8
 42
0.0000001
 43
0.0000001
 44
0.0000000001
 12
0.7451611474
 22
-0.5946785445
 32
0.0
 13
0.0000618561
 23
1.0072309118
 33
0.0
 40
0.0
 40
0.0
 40
0.0
 40
0.0
 40
0.0118627476
 40
0.0528133709
 40
0.1363715309
 40
0.2840556261
 40
0.488080655
 40
0.733262656
 40
1.0
 40
1.0
 40
1.0
 40
1.0
 10
-92.6775070995
 20
-12.9321311421
 30
0.0
 10
-92.6745605466
 20
-12.9344826493
 30
0.0
 10
-92.6600942077
 20
-12.9433375266
 30
0.0
 10
-92.6047396026
 20
-12.9442045249
 30
0.0
 10
-92.5837929244
 20
-12.834074526
 30
0.0
 10
-92.5495409501
 20
-12.7037665054
 30
0.0
 10
-92.5307374894
 20
-12.4985542492
 30
0.0
 10
-92.5161232832
 20
-12.2606125752
 30
0.0
 10
-92.5133653079
 20
-12.0881858401
 30
0.0
 10
-92.5133598081
 20
-11.998630474
 30
0.0
 11
-92.6775070995
 21
-12.9321311421
 31
0.0
 11
-92.6677100815
 21
-12.9380307396
 31
0.0
 11
-92.6264649882
 21
-12.938398599
 31
0.0
 11
-92.5886753215
 21
-12.863197241
 31
0.0
 11
-92.5569008897
 21
-12.7178784917
 31
0.0
 11
-92.5330616809
 21
-12.5137656012
 31
0.0
 11
-92.5183276496
 21
-12.2672506393
 31
0.0
 11
-92.5133598081
 21
-11.998630474
 31
0.0
  0
SPLINE
  5
54F
100
AcDbEntity
  8
RACCORDO
100
AcDbSpline
 62
253
  6
CONTINUOUS
 70
0
 71
3
 72
14
 73
10
 74
8
 42
0.0000001
 43
0.0000001
 44
0.0000000001
 12
0.7445900932
 22
-0.5951398057
 32
0.0
 13
-0.0000662649
 23
1.0072451905
 33
0.0
 40
0.0
 40
0.0
 40
0.0
 40
0.0
 40
0.0119178626
 40
0.0528267056
 40
0.1362928382
 40
0.2838866452
 40
0.4879259862
 40
0.7331499486
 40
1.0
 40
1.0
 40
1.0
 40
1.0
 10
-92.6775179076
 20
-8.9321336701
 30
0.0
 10
-92.6745599334
 20
-8.9344979349
 30
0.0
 10
-92.6600946155
 20
-8.9433544158
 30
0.0
 10
-92.6047768211
 20
-8.9441757731
 30
0.0
 10
-92.5838204276
 20
-8.8341822093
 30
0.0
 10
-92.5495676158
 20
-8.7039043045
 30
0.0
 10
-92.5307526392
 20
-8.4987089373
 30
0.0
 10
-92.5161313317
 20
-8.2607057284
 30
0.0
 10
-92.5133539138
 20
-8.088224951
 30
0.0
 10
-92.5133598081
 20
-7.998630474
 30
0.0
 11
-92.6775179076
 21
-8.9321336701
 31
0.0
 11
-92.6676780555
 21
-8.9380594695
 31
0.0
 11
-92.6264741971
 21
-8.9383963285
 31
0.0
 11
-92.5887114045
 21
-8.8632838718
 31
0.0
 11
-92.5569353599
 21
-8.7180564092
 31
0.0
 11
-92.5330800675
 21
-8.5139279507
 31
0.0
 11
-92.5183336545
 21
-8.2673678809
 31
0.0
 11
-92.5133598081
 21
-7.998630474
 31
0.0
  0
SPLINE
  5
550
100
AcDbEntity
  8
RACCORDO
100
AcDbSpline
 62
253
  6
CONTINUOUS
 70
0
 71
3
 72
9
 73
5
 74
3
 42
0.0000001
 43
0.0000001
 44
0.0000000001
 12
0.0396844756
 22
-0.0003385274
 32
0.0
 13
0.0256133879
 23
0.0305805901
 33
0.0
 40
0.0
 40
0.0
 40
0.0
 40
0.0
 40
0.5272253834
 40
1.0
 40
1.0
 40
1.0
 40
1.0
 10
-92.4675050768
 20
-14.3990546571
 30
0.0
 10
-92.4605308559
 20
-14.3991141505
 30
0.0
 10
-92.4472706573
 20
-14.3941726655
 30
0.0
 10
-92.4376917985
 20
-14.384879323
 30
0.0
 10
-92.4336553453
 20
-14.3800600807
 30
0.0
 11
-92.4675050768
 21
-14.3990546571
 31
0.0
 11
-92.4475719189
 21
-14.3926939268
 31
0.0
 11
-92.4336553453
 21
-14.3800600807
 31
0.0
  0
SPLINE
  5
551
100
AcDbEntity
  8
RACCORDO
100
AcDbSpline
 62
253
  6
CONTINUOUS
 70
0
 71
3
 72
10
 73
6
 74
4
 42
0.0000001
 43
0.0000001
 44
0.0000000001
 12
-0.000446263
 22
-0.2163823684
 32
0.0
 13
0.2164604747
 23
-0.0037989029
 33
0.0
 40
0.0
 40
0.0
 40
0.0
 40
0.0
 40
0.3541436819
 40
0.6892357485
 40
1.0
 40
1.0
 40
1.0
 40
1.0
 10
-97.9696956636
 20
-14.351253005
 30
0.0
 10
-97.969748344
 20
-14.3767964879
 30
0.0
 10
-97.9585476134
 20
-14.4273321933
 30
0.0
 10
-97.9105809678
 20
-14.4852256482
 30
0.0
 10
-97.8633710256
 20
-14.5008415215
 30
0.0
 10
-97.8409482998
 20
-14.5012350426
 30
0.0
 11
-97.9696956636
 21
-14.351253005
 31
0.0
 11
-97.9524668144
 21
-14.4259217226
 31
0.0
 11
-97.9050450125
 21
-14.4807724957
 31
0.0
 11
-97.8409482998
 21
-14.5012350426
 31
0.0
  0
SPLINE
  5
552
100
AcDbEntity
  8
RACCORDO
100
AcDbSpline
 62
253
  6
CONTINUOUS
 70
0
 71
3
 72
14
 73
10
 74
8
 42
0.0000001
 43
0.0000001
 44
0.0000000001
 12
0.0000663368
 22
1.0072812533
 32
0.0
 13
-0.7429174065
 23
-0.5961249664
 33
0.0
 40
0.0
 40
0.0
 40
0.0
 40
0.0
 40
0.2664951379
 40
0.5115653603
 40
0.7157241832
 40
0.8634664468
 40
0.9470618151
 40
0.9879498705
 40
1.0
 40
1.0
 40
1.0
 40
1.0
 10
-92.5133598081
 20
-11.998630474
 30
0.0
 10
-92.5133539153
 20
-11.9091519552
 30
0.0
 10
-92.5161233994
 20
-11.7368390934
 30
0.0
 10
-92.5307264613
 20
-11.498946186
 30
0.0
 10
-92.5495020839
 20
-11.2937249946
 30
0.0
 10
-92.5837946279
 20
-11.1632649105
 30
0.0
 10
-92.6046597048
 20
-11.0532402041
 30
0.0
 10
-92.6600766346
 20
-11.0538527611
 30
0.0
 10
-92.6745556401
 20
-11.0627207245
 30
0.0
 10
-92.6775397237
 20
-11.0651151855
 30
0.0
 11
-92.5133598081
 21
-11.998630474
 31
0.0
 11
-92.5183203461
 21
-11.7302407548
 31
0.0
 11
-92.5330382764
 21
-11.4838252592
 31
0.0
 11
-92.5568779669
 21
-11.2795664006
 31
0.0
 11
-92.5886478913
 21
-11.1341790805
 31
0.0
 11
-92.6264156973
 21
-11.0589200979
 31
0.0
 11
-92.6676009304
 21
-11.0591307356
 31
0.0
 11
-92.6775397237
 21
-11.0651151855
 31
0.0
  0
SPLINE
  5
553
100
AcDbEntity
  8
RACCORDO
100
AcDbSpline
 62
253
  6
CONTINUOUS
 70
0
 71
3
 72
10
 73
6
 74
4
 42
0.0000001
 43
0.0000001
 44
0.0000000001
 12
-0.0004200871
 22
0.2163383684
 32
0.0
 13
0.2164187872
 23
0.0038538468
 33
0.0
 40
0.0
 40
0.0
 40
0.0
 40
0.0
 40
0.3541932924
 40
0.6893282203
 40
1.0
 40
1.0
 40
1.0
 40
1.0
 10
-97.9696964832
 20
-5.6460079428
 30
0.0
 10
-97.9697460806
 20
-5.6204660765
 30
0.0
 10
-97.9585413852
 20
-5.5699353315
 30
0.0
 10
-97.9105814509
 20
-5.5120567639
 30
0.0
 10
-97.8633879793
 20
-5.4964421165
 30
0.0
 10
-97.8409762427
 20
-5.4960430226
 30
0.0
 11
-97.9696964832
 21
-5.6460079428
 31
0.0
 11
-97.9524614373
 21
-5.5713456515
 31
0.0
 11
-97.9050400066
 21
-5.5165018137
 31
0.0
 11
-97.8409762427
 21
-5.4960430226
 31
0.0
  0
SPLINE
  5
554
100
AcDbEntity
  8
ASSI
100
AcDbSpline
 62
7
  6
CONTINUOUS
 70
0
 71
3
 72
15
 73
11
 74
9
 42
0.0000001
 43
0.0000001
 44
0.0000000001
 12
0.5772941331
 22
-0.8065891934
 32
0.0
 13
0.0
 23
-0.9918944717
 33
0.0
 40
0.0
 40
0.0
 40
0.0
 40
0.0
 40
0.1848776735
 40
0.3406926393
 40
0.4762743114
 40
0.6001682999
 40
0.7182182445
 40
0.8277779815
 40
0.9231552547
 40
1.0
 40
1.0
 40
1.0
 40
1.0
 10
-77.2983861548
 20
-9.2311753975
 30
0.0
 10
-77.2628098894
 20
-9.2808821753
 30
0.0
 10
-77.1973265306
 20
-9.3725372213
 30
0.0
 10
-77.1070037016
 20
-9.5015348898
 30
0.0
 10
-77.0300267197
 20
-9.6152444434
 30
0.0
 10
-76.9624662823
 20
-9.7202266335
 30
0.0
 10
-76.9030283291
 20
-9.820116552
 30
0.0
 10
-76.8536665597
 20
-9.9149816527
 30
0.0
 10
-76.8187907714
 20
-10.001432566
 30
0.0
 10
-76.807112358
 20
-10.0581026995
 30
0.0
 10
-76.807112358
 20
-10.0835099922
 30
0.0
 11
-77.2983861548
 21
-9.2311753975
 31
0.0
 11
-77.1919975188
 21
-9.3805386056
 31
0.0
 11
-77.1035238024
 21
-9.5072616233
 31
0.0
 11
-77.028313801
 21
-9.6187472961
 31
0.0
 11
-76.9620459851
 21
-9.722238698
 31
0.0
 11
-76.9025886577
 21
-9.823112963
 31
0.0
 11
-76.8532011485
 21
-9.9199138501
 31
0.0
 11
-76.8194527732
 21
-10.0082937117
 31
0.0
 11
-76.807112358
 21
-10.0835099922
 31
0.0
  0
SPLINE
  5
555
100
AcDbEntity
  8
ASSI
100
AcDbSpline
 62
253
  6
CONTINUOUS
 70
0
 71
3
 72
15
 73
11
 74
9
 42
0.0000001
 43
0.0000001
 44
0.0000000001
 12
0.9996347695
 22
-0.0244681355
 32
0.0
 13
-0.0087073534
 23
-0.9998962666
 33
0.0
 40
0.0
 40
0.0
 40
0.0
 40
0.0
 40
0.0193001219
 40
0.076228989
 40
0.1686397186
 40
0.2929883219
 40
0.4445008401
 40
0.6173609054
 40
0.8049283512
 40
1.0
 40
1.0
 40
1.0
 40
1.0
 10
-65.7983861548
 20
8.2337621446
 30
0.0
 10
-65.7919551305
 20
8.233604732
 30
0.0
 10
-65.8038860849
 20
8.1932134257
 30
0.0
 10
-65.7907796407
 20
8.1512290507
 30
0.0
 10
-65.7969364051
 20
8.0521695917
 30
0.0
 10
-65.7939340782
 20
7.9327051819
 30
0.0
 10
-65.7952230487
 20
7.7819525139
 30
0.0
 10
-65.795598628
 20
7.6117090204
 30
0.0
 10
-65.7968379244
 20
7.4264371255
 30
0.0
 10
-65.7978199689
 20
7.2989315872
 30
0.0
 10
-65.7983861548
 20
7.2339144495
 30
0.0
 11
-65.7983861548
 21
8.2337621446
 31
0.0
 11
-65.7968520483
 21
8.2145243644
 31
0.0
 11
-65.7957120408
 21
8.1576106607
 31
0.0
 11
-65.7950104947
 21
8.0652086768
 31
0.0
 11
-65.7947735059
 21
7.9408684842
 31
0.0
 11
-65.7950103555
 21
7.7893661239
 31
0.0
 11
-65.7957119708
 21
7.6165188603
 31
0.0
 11
-65.7968520342
 21
7.4289672254
 31
0.0
 11
-65.7983861548
 21
7.2339144495
 31
0.0
  0
SPLINE
  5
556
100
AcDbEntity
  8
ASSI
100
AcDbSpline
 62
253
  6
CONTINUOUS
 70
0
 71
3
 72
15
 73
11
 74
9
 42
0.0000001
 43
0.0000001
 44
0.0000000001
 12
0.0087133939
 22
-0.9998962168
 32
0.0
 13
-0.9997623996
 23
-0.0185340725
 33
0.0
 40
0.0
 40
0.0
 40
0.0
 40
0.0
 40
0.1950728679
 40
0.3826407254
 40
0.5555000025
 40
0.7070126007
 40
0.8313608387
 40
0.9237716824
 40
0.9807001185
 40
1.0
 40
1.0
 40
1.0
 40
1.0
 10
-65.7983861548
 20
-9.0304421508
 30
0.0
 10
-65.7978195726
 20
-9.0954596917
 30
0.0
 10
-65.7968381181
 20
-9.2229656035
 30
0.0
 10
-65.7955986246
 20
-9.4082385219
 30
0.0
 10
-65.7952232876
 20
-9.5784795211
 30
0.0
 10
-65.7939339879
 20
-9.7292391289
 30
0.0
 10
-65.7969365266
 20
-9.8486833196
 30
0.0
 10
-65.7907788401
 20
-9.9477906625
 30
0.0
 10
-65.8038871347
 20
-9.9896876431
 30
0.0
 10
-65.7919543895
 20
-10.0301706108
 30
0.0
 10
-65.7983861548
 20
-10.030289846
 30
0.0
 11
-65.7983861548
 21
-9.0304421508
 31
0.0
 11
-65.7968520483
 21
-9.2254961465
 31
0.0
 11
-65.7957120408
 21
-9.4130481939
 31
0.0
 11
-65.7950104947
 21
-9.58589467
 31
0.0
 11
-65.7947735059
 21
-9.7373971106
 31
0.0
 11
-65.7950103555
 21
-9.8617369385
 31
0.0
 11
-65.7957119708
 21
-9.9541390363
 31
0.0
 11
-65.7968520342
 21
-10.011052308
 31
0.0
 11
-65.7983861548
 21
-10.030289846
 31
0.0
  0
SPLINE
  5
557
100
AcDbEntity
  8
ASSI
100
AcDbSpline
 62
253
  6
CONTINUOUS
 70
0
 71
3
 72
15
 73
11
 74
9
 42
0.0000001
 43
0.0000001
 44
0.0000000001
 12
0.0087133939
 22
-0.9998962168
 32
0.0
 13
-0.9997623996
 23
-0.0185340725
 33
0.0
 40
0.0
 40
0.0
 40
0.0
 40
0.0
 40
0.1950728679
 40
0.3826407254
 40
0.5555000025
 40
0.7070126007
 40
0.8313608387
 40
0.9237716824
 40
0.9807001185
 40
1.0
 40
1.0
 40
1.0
 40
1.0
 10
-77.2983861548
 20
-17.4319086442
 30
0.0
 10
-77.2978195726
 20
-17.496926185
 30
0.0
 10
-77.2968381181
 20
-17.6244320969
 30
0.0
 10
-77.2955986246
 20
-17.8097050153
 30
0.0
 10
-77.2952232876
 20
-17.9799460145
 30
0.0
 10
-77.2939339879
 20
-18.1307056223
 30
0.0
 10
-77.2969365266
 20
-18.2501498129
 30
0.0
 10
-77.2907788401
 20
-18.3492571558
 30
0.0
 10
-77.3038871347
 20
-18.3911541365
 30
0.0
 10
-77.2919543895
 20
-18.4316371042
 30
0.0
 10
-77.2983861548
 20
-18.4317563393
 30
0.0
 11
-77.2983861548
 21
-17.4319086442
 31
0.0
 11
-77.2968520483
 21
-17.6269626398
 31
0.0
 11
-77.2957120408
 21
-17.8145146873
 31
0.0
 11
-77.2950104947
 21
-17.9873611634
 31
0.0
 11
-77.2947735059
 21
-18.138863604
 31
0.0
 11
-77.2950103555
 21
-18.2632034319
 31
0.0
 11
-77.2957119708
 21
-18.3556055297
 31
0.0
 11
-77.2968520342
 21
-18.4125188014
 31
0.0
 11
-77.2983861548
 21
-18.4317563393
 31
0.0
  0
SPLINE
  5
558
100
AcDbEntity
  8
ASSI
100
AcDbSpline
 62
7
  6
CONTINUOUS
 70
0
 71
3
 72
13
 73
9
 74
7
 42
0.0000001
 43
0.0000001
 44
0.0000000001
 12
1.0004433657
 22
0.014818137
 32
0.0
 13
0.9688963581
 23
0.0192709993
 33
0.0
 40
0.0
 40
0.0
 40
0.0
 40
0.0
 40
0.2484529907
 40
0.4773626549
 40
0.6763953328
 40
0.8415568771
 40
0.9644281885
 40
1.0
 40
1.0
 40
1.0
 40
1.0
 10
-76.330437736
 20
17.4626399265
 30
0.0
 10
-76.247583354
 20
17.46386713
 30
0.0
 10
-76.0882919708
 20
17.4635515586
 30
0.0
 10
-75.8629892347
 20
17.4559264415
 30
0.0
 10
-75.6649518541
 20
17.4441379166
 30
0.0
 10
-75.5044712378
 20
17.4329776989
 30
0.0
 10
-75.3934192345
 20
17.4257451488
 30
0.0
 10
-75.3440312231
 20
17.4256303465
 30
0.0
 10
-75.3325427569
 20
17.4258588479
 30
0.0
 11
-76.330437736
 21
17.4626399265
 31
0.0
 11
-76.0818477771
 21
17.4621663643
 31
0.0
 11
-75.8529386329
 21
17.4545362563
 31
0.0
 11
-75.6541225467
 21
17.4431343345
 31
0.0
 11
-75.4892410028
 21
17.4320620354
 31
0.0
 11
-75.3664585439
 21
17.4258545987
 31
0.0
 11
-75.3325427569
 21
17.4258588479
 31
0.0
  0
SPLINE
  5
559
100
AcDbEntity
  8
ASSI
100
AcDbSpline
 62
7
  6
CONTINUOUS
 70
0
 71
3
 72
10
 73
6
 74
4
 42
0.0000001
 43
0.0000001
 44
0.0000000001
 12
8.976704374
 22
0.1287868865
 32
0.0
 13
8.9766435599
 23
0.1329581854
 33
0.0
 40
0.0
 40
0.0
 40
0.0
 40
0.0
 40
0.3358446414
 40
0.6691766453
 40
1.0
 40
1.0
 40
1.0
 40
1.0
 10
-85.307112358
 20
17.3318006261
 30
0.0
 10
-84.3021863375
 20
17.346218088
 30
0.0
 10
-82.2998548311
 20
17.3750940937
 30
0.0
 10
-79.3076298657
 20
17.418703301
 30
0.0
 10
-77.3203321814
 20
17.4479780356
 30
0.0
 10
-76.330437736
 20
17.4626399265
 30
0.0
 11
-85.307112358
 21
17.3318006261
 31
0.0
 11
-82.2923375566
 21
17.3752796582
 31
0.0
 11
-79.3001245716
 21
17.4188911519
 31
0.0
 11
-76.330437736
 21
17.4626399265
 31
0.0
  0
LINE
  5
55A
100
AcDbEntity
  8
ASSI
100
AcDbLine
 62
7
  6
CONTINUOUS
 10
-83.7416551739
 20
25.6484183253
 11
-85.307112358
 21
25.6709384259
  0
SPLINE
  5
55B
100
AcDbEntity
  8
ASSI
100
AcDbSpline
 62
253
  6
CONTINUOUS
 70
0
 71
3
 72
12
 73
8
 74
6
 42
0.0000001
 43
0.0000001
 44
0.0000000001
 12
0.2999905251
 22
-0.0052363541
 32
0.0
 13
-0.0052347787
 23
-0.2999905526
 33
0.0
 40
0.0
 40
0.0
 40
0.0
 40
0.0
 40
0.0492159435
 40
0.191271151
 40
0.4124352143
 40
0.6910959386
 40
1.0
 40
1.0
 40
1.0
 40
1.0
 10
-84.1684043115
 20
26.0805946017
 30
0.0
 10
-84.1634828726
 20
26.0805086976
 30
0.0
 10
-84.1720447505
 20
26.0500150006
 30
0.0
 10
-84.162964891
 20
26.0192676726
 30
0.0
 10
-84.1675656536
 20
25.9495780111
 30
0.0
 10
-84.166538761
 20
25.8708428632
 30
0.0
 10
-84.1678652967
 20
25.8115297265
 30
0.0
 10
-84.1684043115
 20
25.7806402931
 30
0.0
 11
-84.1684043115
 21
26.0805946017
 31
0.0
 11
-84.1670433199
 21
26.065890889
 31
0.0
 11
-84.1663278291
 21
26.0232751871
 31
0.0
 11
-84.166327843
 21
25.9569179571
 31
0.0
 11
-84.1670433454
 21
25.8733127078
 31
0.0
 11
-84.1684043115
 21
25.7806402931
 31
0.0
  0
SPLINE
  5
55C
100
AcDbEntity
  8
ASSI
100
AcDbSpline
 62
7
  6
CONTINUOUS
 70
0
 71
3
 72
18
 73
14
 74
12
 42
0.0000001
 43
0.0000001
 44
0.0000000001
 12
0.5795573358
 22
-0.270252024
 32
0.0
 13
-0.6394042495
 23
0.0092232132
 33
0.0
 40
0.0
 40
0.0
 40
0.0
 40
0.0
 40
0.0106776686
 40
0.0325177762
 40
0.077443661
 40
0.1441980263
 40
0.2279065912
 40
0.3226448369
 40
0.4310385909
 40
0.5528293351
 40
0.6873485904
 40
0.8359912194
 40
1.0
 40
1.0
 40
1.0
 40
1.0
 10
-83.1152220713
 20
25.6848796907
 30
0.0
 10
-83.1131592976
 20
25.6839178035
 30
0.0
 10
-83.1081829853
 20
25.6754334013
 30
0.0
 10
-83.1325836216
 20
25.6726425562
 30
0.0
 10
-83.1551009806
 20
25.6662988082
 30
0.0
 10
-83.1991375701
 20
25.6621529225
 30
0.0
 10
-83.2502261615
 20
25.657600315
 30
0.0
 10
-83.3115971923
 20
25.6540310703
 30
0.0
 10
-83.3806883576
 20
25.6510598479
 30
0.0
 10
-83.4584341813
 20
25.648896328
 30
0.0
 10
-83.5447343645
 20
25.6476009473
 30
0.0
 10
-83.6400570332
 20
25.6473260703
 30
0.0
 10
-83.7066992035
 20
25.647914096
 30
0.0
 10
-83.7416551739
 20
25.6484183253
 30
0.0
 11
-83.1152220713
 21
25.6848796907
 31
0.0
 11
-83.1115324817
 21
25.6791343195
 31
0.0
 11
-83.1242637047
 21
25.6733925254
 31
0.0
 11
-83.1524450978
 21
25.6678110869
 31
0.0
 11
-83.1948122138
 21
25.6625912045
 31
0.0
 11
-83.2481480385
 21
25.6580455553
 31
0.0
 11
-83.3086173581
 21
25.6543467514
 31
0.0
 11
-83.3778670242
 21
25.6513463106
 31
0.0
 11
-83.4557171039
 21
25.6491300235
 31
0.0
 11
-83.541728126
 21
25.6478112652
 31
0.0
 11
-83.6367802704
 21
25.6475118675
 31
0.0
 11
-83.7416551739
 21
25.6484183253
 31
0.0
  0
SPLINE
  5
55D
100
AcDbEntity
  8
ASSI
100
AcDbSpline
 62
253
  6
CONTINUOUS
 70
0
 71
3
 72
12
 73
8
 74
6
 42
0.0000001
 43
0.0000001
 44
0.0000000001
 12
0.2699821552
 22
-0.1258947465
 32
0.0
 13
-0.1258632469
 23
-0.2699968414
 33
0.0
 40
0.0
 40
0.0
 40
0.0
 40
0.0
 40
0.0490769833
 40
0.1909056712
 40
0.4118737943
 40
0.6905774034
 40
1.0
 40
1.0
 40
1.0
 40
1.0
 10
-83.7632384562
 20
25.9870546935
 30
0.0
 10
-83.7588218196
 20
25.9849951821
 30
0.0
 10
-83.7791688566
 20
25.9609466942
 30
0.0
 10
-83.7832368742
 20
25.9294146305
 30
0.0
 10
-83.8157218042
 20
25.8681669711
 30
0.0
 10
-83.8466073115
 20
25.7963168998
 30
0.0
 10
-83.8718065685
 20
25.7430100654
 30
0.0
 10
-83.8847882128
 20
25.7151623574
 30
0.0
 11
-83.7632384562
 21
25.9870546935
 31
0.0
 11
-83.7680631589
 21
25.9732540907
 31
0.0
 11
-83.7847152939
 21
25.9344244379
 31
0.0
 11
-83.8115799809
 21
25.8743313314
 31
0.0
 11
-83.846051954
 21
25.7988024409
 31
0.0
 11
-83.8847882128
 21
25.7151623574
 31
0.0
  0
SPLINE
  5
55E
100
AcDbEntity
  8
ASSI
100
AcDbSpline
 62
7
  6
CONTINUOUS
 70
0
 71
3
 72
16
 73
12
 74
10
 42
0.0000001
 43
0.0000001
 44
0.0000000001
 12
1.1442789713
 22
0.5493401631
 32
0.0
 13
1.2691171123
 23
-0.0221525216
 33
0.0
 40
0.0
 40
0.0
 40
0.0
 40
0.0
 40
0.173715736
 40
0.3305632863
 40
0.4717690084
 40
0.597549877
 40
0.7084649049
 40
0.8044492392
 40
0.88502403
 40
0.9501864425
 40
1.0
 40
1.0
 40
1.0
 40
1.0
 10
-78.0226145328
 20
13.833755075
 30
0.0
 10
-77.9563547783
 20
13.865564752
 30
0.0
 10
-77.830290272
 20
13.9261392365
 30
0.0
 10
-77.6500462312
 20
14.0119031109
 30
0.0
 10
-77.4874961992
 20
14.0876426043
 30
0.0
 10
-77.3416930186
 20
14.1532807375
 30
0.0
 10
-77.2122196551
 20
14.2085470428
 30
0.0
 10
-77.0989932462
 20
14.253008896
 30
0.0
 10
-77.0021361289
 20
14.2861248406
 30
0.0
 10
-76.9221015999
 20
14.3071478474
 30
0.0
 10
-76.8734809112
 20
14.3136207206
 30
0.0
 10
-76.8524078318
 20
14.3132528887
 30
0.0
 11
-78.0226145328
 21
13.833755075
 31
0.0
 11
-77.8237937234
 21
13.9290975175
 31
0.0
 11
-77.6439493767
 21
14.0144915168
 31
0.0
 11
-77.4814086208
 21
14.0900249023
 31
0.0
 11
-77.3357328835
 21
14.1553570435
 31
0.0
 11
-77.2061303934
 21
14.2103459547
 31
0.0
 11
-77.0925675138
 21
14.254470503
 31
0.0
 11
-76.9955781934
 21
14.2869224561
 31
0.0
 11
-76.9153174219
 21
14.3069067674
 31
0.0
 11
-76.8524078318
 21
14.3132528887
 31
0.0
  0
SPLINE
  5
55F
100
AcDbEntity
  8
RACCORDO
100
AcDbSpline
 62
7
  6
CONTINUOUS
 70
0
 71
3
 72
15
 73
11
 74
9
 42
0.0000001
 43
0.0000001
 44
0.0000000001
 12
0.5772941331
 22
-0.8065891934
 32
0.0
 13
0.0
 23
-0.9918944717
 33
0.0
 40
0.0
 40
0.0
 40
0.0
 40
0.0
 40
0.1848776735
 40
0.3406926393
 40
0.4762743114
 40
0.6001682999
 40
0.7182182445
 40
0.8277779815
 40
0.9231552547
 40
1.0
 40
1.0
 40
1.0
 40
1.0
 10
-77.2983861548
 20
-9.2311753975
 30
0.0
 10
-77.2628098894
 20
-9.2808821753
 30
0.0
 10
-77.1973265306
 20
-9.3725372213
 30
0.0
 10
-77.1070037016
 20
-9.5015348898
 30
0.0
 10
-77.0300267197
 20
-9.6152444434
 30
0.0
 10
-76.9624662823
 20
-9.7202266335
 30
0.0
 10
-76.9030283291
 20
-9.820116552
 30
0.0
 10
-76.8536665597
 20
-9.9149816527
 30
0.0
 10
-76.8187907714
 20
-10.001432566
 30
0.0
 10
-76.807112358
 20
-10.0581026995
 30
0.0
 10
-76.807112358
 20
-10.0835099922
 30
0.0
 11
-77.2983861548
 21
-9.2311753975
 31
0.0
 11
-77.1919975188
 21
-9.3805386056
 31
0.0
 11
-77.1035238024
 21
-9.5072616233
 31
0.0
 11
-77.028313801
 21
-9.6187472961
 31
0.0
 11
-76.9620459851
 21
-9.722238698
 31
0.0
 11
-76.9025886577
 21
-9.823112963
 31
0.0
 11
-76.8532011485
 21
-9.9199138501
 31
0.0
 11
-76.8194527732
 21
-10.0082937117
 31
0.0
 11
-76.807112358
 21
-10.0835099922
 31
0.0
  0
SPLINE
  5
560
100
AcDbEntity
  8
RACCORDO
100
AcDbSpline
 62
253
  6
CONTINUOUS
 70
0
 71
3
 72
15
 73
11
 74
9
 42
0.0000001
 43
0.0000001
 44
0.0000000001
 12
0.9996347695
 22
-0.0244681355
 32
0.0
 13
-0.0087073534
 23
-0.9998962666
 33
0.0
 40
0.0
 40
0.0
 40
0.0
 40
0.0
 40
0.0193001219
 40
0.076228989
 40
0.1686397186
 40
0.2929883219
 40
0.4445008401
 40
0.6173609054
 40
0.8049283512
 40
1.0
 40
1.0
 40
1.0
 40
1.0
 10
-65.7983861548
 20
8.2337621446
 30
0.0
 10
-65.7919551305
 20
8.233604732
 30
0.0
 10
-65.8038860849
 20
8.1932134257
 30
0.0
 10
-65.7907796407
 20
8.1512290507
 30
0.0
 10
-65.7969364051
 20
8.0521695917
 30
0.0
 10
-65.7939340782
 20
7.9327051819
 30
0.0
 10
-65.7952230487
 20
7.7819525139
 30
0.0
 10
-65.795598628
 20
7.6117090204
 30
0.0
 10
-65.7968379244
 20
7.4264371255
 30
0.0
 10
-65.7978199689
 20
7.2989315872
 30
0.0
 10
-65.7983861548
 20
7.2339144495
 30
0.0
 11
-65.7983861548
 21
8.2337621446
 31
0.0
 11
-65.7968520483
 21
8.2145243644
 31
0.0
 11
-65.7957120408
 21
8.1576106607
 31
0.0
 11
-65.7950104947
 21
8.0652086768
 31
0.0
 11
-65.7947735059
 21
7.9408684842
 31
0.0
 11
-65.7950103555
 21
7.7893661239
 31
0.0
 11
-65.7957119708
 21
7.6165188603
 31
0.0
 11
-65.7968520342
 21
7.4289672254
 31
0.0
 11
-65.7983861548
 21
7.2339144495
 31
0.0
  0
SPLINE
  5
561
100
AcDbEntity
  8
RACCORDO
100
AcDbSpline
 62
253
  6
CONTINUOUS
 70
0
 71
3
 72
15
 73
11
 74
9
 42
0.0000001
 43
0.0000001
 44
0.0000000001
 12
0.0087133939
 22
-0.9998962168
 32
0.0
 13
-0.9997623996
 23
-0.0185340725
 33
0.0
 40
0.0
 40
0.0
 40
0.0
 40
0.0
 40
0.1950728679
 40
0.3826407254
 40
0.5555000025
 40
0.7070126007
 40
0.8313608387
 40
0.9237716824
 40
0.9807001185
 40
1.0
 40
1.0
 40
1.0
 40
1.0
 10
-65.7983861548
 20
-9.0304421508
 30
0.0
 10
-65.7978195726
 20
-9.0954596917
 30
0.0
 10
-65.7968381181
 20
-9.2229656035
 30
0.0
 10
-65.7955986246
 20
-9.4082385219
 30
0.0
 10
-65.7952232876
 20
-9.5784795211
 30
0.0
 10
-65.7939339879
 20
-9.7292391289
 30
0.0
 10
-65.7969365266
 20
-9.8486833196
 30
0.0
 10
-65.7907788401
 20
-9.9477906625
 30
0.0
 10
-65.8038871347
 20
-9.9896876431
 30
0.0
 10
-65.7919543895
 20
-10.0301706108
 30
0.0
 10
-65.7983861548
 20
-10.030289846
 30
0.0
 11
-65.7983861548
 21
-9.0304421508
 31
0.0
 11
-65.7968520483
 21
-9.2254961465
 31
0.0
 11
-65.7957120408
 21
-9.4130481939
 31
0.0
 11
-65.7950104947
 21
-9.58589467
 31
0.0
 11
-65.7947735059
 21
-9.7373971106
 31
0.0
 11
-65.7950103555
 21
-9.8617369385
 31
0.0
 11
-65.7957119708
 21
-9.9541390363
 31
0.0
 11
-65.7968520342
 21
-10.011052308
 31
0.0
 11
-65.7983861548
 21
-10.030289846
 31
0.0
  0
SPLINE
  5
562
100
AcDbEntity
  8
RACCORDO
100
AcDbSpline
 62
253
  6
CONTINUOUS
 70
0
 71
3
 72
15
 73
11
 74
9
 42
0.0000001
 43
0.0000001
 44
0.0000000001
 12
0.0087133939
 22
-0.9998962168
 32
0.0
 13
-0.9997623996
 23
-0.0185340725
 33
0.0
 40
0.0
 40
0.0
 40
0.0
 40
0.0
 40
0.1950728679
 40
0.3826407254
 40
0.5555000025
 40
0.7070126007
 40
0.8313608387
 40
0.9237716824
 40
0.9807001185
 40
1.0
 40
1.0
 40
1.0
 40
1.0
 10
-77.2983861548
 20
-17.4319086442
 30
0.0
 10
-77.2978195726
 20
-17.496926185
 30
0.0
 10
-77.2968381181
 20
-17.6244320969
 30
0.0
 10
-77.2955986246
 20
-17.8097050153
 30
0.0
 10
-77.2952232876
 20
-17.9799460145
 30
0.0
 10
-77.2939339879
 20
-18.1307056223
 30
0.0
 10
-77.2969365266
 20
-18.2501498129
 30
0.0
 10
-77.2907788401
 20
-18.3492571558
 30
0.0
 10
-77.3038871347
 20
-18.3911541365
 30
0.0
 10
-77.2919543895
 20
-18.4316371042
 30
0.0
 10
-77.2983861548
 20
-18.4317563393
 30
0.0
 11
-77.2983861548
 21
-17.4319086442
 31
0.0
 11
-77.2968520483
 21
-17.6269626398
 31
0.0
 11
-77.2957120408
 21
-17.8145146873
 31
0.0
 11
-77.2950104947
 21
-17.9873611634
 31
0.0
 11
-77.2947735059
 21
-18.138863604
 31
0.0
 11
-77.2950103555
 21
-18.2632034319
 31
0.0
 11
-77.2957119708
 21
-18.3556055297
 31
0.0
 11
-77.2968520342
 21
-18.4125188014
 31
0.0
 11
-77.2983861548
 21
-18.4317563393
 31
0.0
  0
SPLINE
  5
563
100
AcDbEntity
  8
DRAFT
100
AcDbSpline
 62
7
  6
CONTINUOUS
 70
0
 71
3
 72
13
 73
9
 74
7
 42
0.0000001
 43
0.0000001
 44
0.0000000001
 12
1.0004433657
 22
0.014818137
 32
0.0
 13
0.9688963581
 23
0.0192709993
 33
0.0
 40
0.0
 40
0.0
 40
0.0
 40
0.0
 40
0.2484529907
 40
0.4773626549
 40
0.6763953328
 40
0.8415568771
 40
0.9644281885
 40
1.0
 40
1.0
 40
1.0
 40
1.0
 10
-76.330437736
 20
17.4626399265
 30
0.0
 10
-76.247583354
 20
17.46386713
 30
0.0
 10
-76.0882919708
 20
17.4635515586
 30
0.0
 10
-75.8629892347
 20
17.4559264415
 30
0.0
 10
-75.6649518541
 20
17.4441379166
 30
0.0
 10
-75.5044712378
 20
17.4329776989
 30
0.0
 10
-75.3934192345
 20
17.4257451488
 30
0.0
 10
-75.3440312231
 20
17.4256303465
 30
0.0
 10
-75.3325427569
 20
17.4258588479
 30
0.0
 11
-76.330437736
 21
17.4626399265
 31
0.0
 11
-76.0818477771
 21
17.4621663643
 31
0.0
 11
-75.8529386329
 21
17.4545362563
 31
0.0
 11
-75.6541225467
 21
17.4431343345
 31
0.0
 11
-75.4892410028
 21
17.4320620354
 31
0.0
 11
-75.3664585439
 21
17.4258545987
 31
0.0
 11
-75.3325427569
 21
17.4258588479
 31
0.0
  0
SPLINE
  5
564
100
AcDbEntity
  8
RACCORDO
100
AcDbSpline
 62
7
  6
CONTINUOUS
 70
0
 71
3
 72
18
 73
14
 74
12
 42
0.0000001
 43
0.0000001
 44
0.0000000001
 12
0.5795573358
 22
-0.270252024
 32
0.0
 13
-0.6394042495
 23
0.0092232132
 33
0.0
 40
0.0
 40
0.0
 40
0.0
 40
0.0
 40
0.0106776686
 40
0.0325177762
 40
0.077443661
 40
0.1441980263
 40
0.2279065912
 40
0.3226448369
 40
0.4310385909
 40
0.5528293351
 40
0.6873485904
 40
0.8359912194
 40
1.0
 40
1.0
 40
1.0
 40
1.0
 10
-83.1152220713
 20
25.6848796907
 30
0.0
 10
-83.1131592976
 20
25.6839178035
 30
0.0
 10
-83.1081829853
 20
25.6754334013
 30
0.0
 10
-83.1325836216
 20
25.6726425562
 30
0.0
 10
-83.1551009806
 20
25.6662988082
 30
0.0
 10
-83.1991375701
 20
25.6621529225
 30
0.0
 10
-83.2502261615
 20
25.657600315
 30
0.0
 10
-83.3115971923
 20
25.6540310703
 30
0.0
 10
-83.3806883576
 20
25.6510598479
 30
0.0
 10
-83.4584341813
 20
25.648896328
 30
0.0
 10
-83.5447343645
 20
25.6476009473
 30
0.0
 10
-83.6400570332
 20
25.6473260703
 30
0.0
 10
-83.7066992035
 20
25.647914096
 30
0.0
 10
-83.7416551739
 20
25.6484183253
 30
0.0
 11
-83.1152220713
 21
25.6848796907
 31
0.0
 11
-83.1115324817
 21
25.6791343195
 31
0.0
 11
-83.1242637047
 21
25.6733925254
 31
0.0
 11
-83.1524450978
 21
25.6678110869
 31
0.0
 11
-83.1948122138
 21
25.6625912045
 31
0.0
 11
-83.2481480385
 21
25.6580455553
 31
0.0
 11
-83.3086173581
 21
25.6543467514
 31
0.0
 11
-83.3778670242
 21
25.6513463106
 31
0.0
 11
-83.4557171039
 21
25.6491300235
 31
0.0
 11
-83.541728126
 21
25.6478112652
 31
0.0
 11
-83.6367802704
 21
25.6475118675
 31
0.0
 11
-83.7416551739
 21
25.6484183253
 31
0.0
  0
SPLINE
  5
565
100
AcDbEntity
  8
RACCORDO
100
AcDbSpline
 62
253
  6
CONTINUOUS
 70
0
 71
3
 72
12
 73
8
 74
6
 42
0.0000001
 43
0.0000001
 44
0.0000000001
 12
0.2699821552
 22
-0.1258947465
 32
0.0
 13
-0.1258632469
 23
-0.2699968414
 33
0.0
 40
0.0
 40
0.0
 40
0.0
 40
0.0
 40
0.0490769833
 40
0.1909056712
 40
0.4118737943
 40
0.6905774034
 40
1.0
 40
1.0
 40
1.0
 40
1.0
 10
-83.7632384562
 20
25.9870546935
 30
0.0
 10
-83.7588218196
 20
25.9849951821
 30
0.0
 10
-83.7791688566
 20
25.9609466942
 30
0.0
 10
-83.7832368742
 20
25.9294146305
 30
0.0
 10
-83.8157218042
 20
25.8681669711
 30
0.0
 10
-83.8466073115
 20
25.7963168998
 30
0.0
 10
-83.8718065685
 20
25.7430100654
 30
0.0
 10
-83.8847882128
 20
25.7151623574
 30
0.0
 11
-83.7632384562
 21
25.9870546935
 31
0.0
 11
-83.7680631589
 21
25.9732540907
 31
0.0
 11
-83.7847152939
 21
25.9344244379
 31
0.0
 11
-83.8115799809
 21
25.8743313314
 31
0.0
 11
-83.846051954
 21
25.7988024409
 31
0.0
 11
-83.8847882128
 21
25.7151623574
 31
0.0
  0
SPLINE
  5
566
100
AcDbEntity
  8
DRAFT
100
AcDbSpline
 62
7
  6
CONTINUOUS
 70
0
 71
3
 72
10
 73
6
 74
4
 42
0.0000001
 43
0.0000001
 44
0.0000000001
 12
8.976704374
 22
0.1287868865
 32
0.0
 13
8.9766435599
 23
0.1329581854
 33
0.0
 40
0.0
 40
0.0
 40
0.0
 40
0.0
 40
0.3358446414
 40
0.6691766453
 40
1.0
 40
1.0
 40
1.0
 40
1.0
 10
-85.307112358
 20
17.3318006261
 30
0.0
 10
-84.3021863375
 20
17.346218088
 30
0.0
 10
-82.2998548311
 20
17.3750940937
 30
0.0
 10
-79.3076298657
 20
17.418703301
 30
0.0
 10
-77.3203321814
 20
17.4479780356
 30
0.0
 10
-76.330437736
 20
17.4626399265
 30
0.0
 11
-85.307112358
 21
17.3318006261
 31
0.0
 11
-82.2923375566
 21
17.3752796582
 31
0.0
 11
-79.3001245716
 21
17.4188911519
 31
0.0
 11
-76.330437736
 21
17.4626399265
 31
0.0
  0
LINE
  5
567
100
AcDbEntity
  8
RACCORDO
100
AcDbLine
 62
7
  6
CONTINUOUS
 10
-83.7416551739
 20
25.6484183253
 11
-85.307112358
 21
25.6709384259
  0
SPLINE
  5
568
100
AcDbEntity
  8
RACCORDO
100
AcDbSpline
 62
253
  6
CONTINUOUS
 70
0
 71
3
 72
12
 73
8
 74
6
 42
0.0000001
 43
0.0000001
 44
0.0000000001
 12
0.2999905251
 22
-0.0052363541
 32
0.0
 13
-0.0052347787
 23
-0.2999905526
 33
0.0
 40
0.0
 40
0.0
 40
0.0
 40
0.0
 40
0.0492159435
 40
0.191271151
 40
0.4124352143
 40
0.6910959386
 40
1.0
 40
1.0
 40
1.0
 40
1.0
 10
-84.1684043115
 20
26.0805946017
 30
0.0
 10
-84.1634828726
 20
26.0805086976
 30
0.0
 10
-84.1720447505
 20
26.0500150006
 30
0.0
 10
-84.162964891
 20
26.0192676726
 30
0.0
 10
-84.1675656536
 20
25.9495780111
 30
0.0
 10
-84.166538761
 20
25.8708428632
 30
0.0
 10
-84.1678652967
 20
25.8115297265
 30
0.0
 10
-84.1684043115
 20
25.7806402931
 30
0.0
 11
-84.1684043115
 21
26.0805946017
 31
0.0
 11
-84.1670433199
 21
26.065890889
 31
0.0
 11
-84.1663278291
 21
26.0232751871
 31
0.0
 11
-84.166327843
 21
25.9569179571
 31
0.0
 11
-84.1670433454
 21
25.8733127078
 31
0.0
 11
-84.1684043115
 21
25.7806402931
 31
0.0
  0
SPLINE
  5
569
100
AcDbEntity
  8
RACCORDO
100
AcDbSpline
 62
7
  6
CONTINUOUS
 70
0
 71
3
 72
16
 73
12
 74
10
 42
0.0000001
 43
0.0000001
 44
0.0000000001
 12
1.1442789713
 22
0.5493401631
 32
0.0
 13
1.2691171123
 23
-0.0221525216
 33
0.0
 40
0.0
 40
0.0
 40
0.0
 40
0.0
 40
0.173715736
 40
0.3305632863
 40
0.4717690084
 40
0.597549877
 40
0.7084649049
 40
0.8044492392
 40
0.88502403
 40
0.9501864425
 40
1.0
 40
1.0
 40
1.0
 40
1.0
 10
-78.0226145328
 20
13.833755075
 30
0.0
 10
-77.9563547783
 20
13.865564752
 30
0.0
 10
-77.830290272
 20
13.9261392365
 30
0.0
 10
-77.6500462312
 20
14.0119031109
 30
0.0
 10
-77.4874961992
 20
14.0876426043
 30
0.0
 10
-77.3416930186
 20
14.1532807375
 30
0.0
 10
-77.2122196551
 20
14.2085470428
 30
0.0
 10
-77.0989932462
 20
14.253008896
 30
0.0
 10
-77.0021361289
 20
14.2861248406
 30
0.0
 10
-76.9221015999
 20
14.3071478474
 30
0.0
 10
-76.8734809112
 20
14.3136207206
 30
0.0
 10
-76.8524078318
 20
14.3132528887
 30
0.0
 11
-78.0226145328
 21
13.833755075
 31
0.0
 11
-77.8237937234
 21
13.9290975175
 31
0.0
 11
-77.6439493767
 21
14.0144915168
 31
0.0
 11
-77.4814086208
 21
14.0900249023
 31
0.0
 11
-77.3357328835
 21
14.1553570435
 31
0.0
 11
-77.2061303934
 21
14.2103459547
 31
0.0
 11
-77.0925675138
 21
14.254470503
 31
0.0
 11
-76.9955781934
 21
14.2869224561
 31
0.0
 11
-76.9153174219
 21
14.3069067674
 31
0.0
 11
-76.8524078318
 21
14.3132528887
 31
0.0
  0
SPLINE
  5
56A
100
AcDbEntity
  8
RACCORDO
100
AcDbSpline
 62
7
  6
CONTINUOUS
 70
0
 71
3
 72
11
 73
7
 74
5
 42
0.0000001
 43
0.0000001
 44
0.0000000001
 12
-0.0059530096
 22
-8.0039075222
 32
0.0
 13
-0.0040584398
 23
-8.003908707
 33
0.0
 40
0.0
 40
0.0
 40
0.0
 40
0.0
 40
0.2662657284
 40
0.5243810724
 40
0.7703146847
 40
1.0
 40
1.0
 40
1.0
 40
1.0
 10
-92.4179460416
 20
-5.9965720606
 30
0.0
 10
-92.4184744024
 20
-6.706960816
 30
0.0
 10
-92.4194633803
 20
-8.1059933914
 30
0.0
 10
-92.4207793933
 20
-10.1611693729
 30
0.0
 10
-92.4219177055
 20
-12.118750003
 30
0.0
 10
-92.422590416
 20
-13.3876868137
 30
0.0
 10
-92.4229011374
 20
-14.0004802453
 30
0.0
 11
-92.4179460416
 21
-5.9965720606
 31
0.0
 11
-92.4194547425
 21
-8.1277383822
 31
0.0
 11
-92.4207794511
 21
-10.1936698726
 31
0.0
 11
-92.4219254903
 21
-12.162099973
 31
0.0
 11
-92.4229011374
 21
-14.0004802453
 31
0.0
  0
SPLINE
  5
56B
100
AcDbEntity
  8
DRAFT
100
AcDbSpline
 62
7
  6
CONTINUOUS
 70
0
 71
3
 72
9
 73
5
 74
3
 42
0.0000001
 43
0.0000001
 44
0.0000000001
 12
0.22055713
 22
-0.7143288504
 32
0.0
 13
0.7433991411
 23
0.006487546
 33
0.0
 40
0.0
 40
0.0
 40
0.0
 40
0.0
 40
0.5717496348
 40
1.0
 40
1.0
 40
1.0
 40
1.0
 10
-96.2421697874
 20
-14.5151621413
 30
0.0
 10
-96.2001353012
 20
-14.6513012277
 30
0.0
 10
-96.0971017232
 20
-14.8808252084
 30
0.0
 10
-95.8603090804
 20
-15.0322568124
 30
0.0
 10
-95.7541887625
 20
-15.0313307144
 30
0.0
 11
-96.2421697874
 21
-14.5151621413
 31
0.0
 11
-96.0385909568
 21
-14.8882335179
 31
0.0
 11
-95.7541887625
 21
-15.0313307144
 31
0.0
  0
LINE
  5
56C
100
AcDbEntity
  8
RACCORDO
100
AcDbLine
 62
253
  6
CONTINUOUS
 10
-98.156115137
 20
-4.735713171
 11
-97.1334570681
 21
-4.7468654034
  0
LINE
  5
56D
100
AcDbEntity
  8
RACCORDO
100
AcDbLine
 62
253
  6
CONTINUOUS
 10
-97.1334570681
 20
-4.7468654034
 11
-96.2320891318
 21
-4.7566008333
  0
LINE
  5
56E
100
AcDbEntity
  8
RACCORDO
100
AcDbLine
 62
253
  6
CONTINUOUS
 10
-96.2320891318
 20
-4.7566008333
 11
-93.7288008581
 21
-4.7833291557
  0
LINE
  5
56F
100
AcDbEntity
  8
RACCORDO
100
AcDbLine
 62
253
  6
CONTINUOUS
 10
-93.7288008581
 20
-4.7833291557
 11
-92.7889118238
 21
-4.7929786373
  0
LINE
  5
570
100
AcDbEntity
  8
RACCORDO
100
AcDbLine
 62
253
  6
CONTINUOUS
 10
-92.7889118238
 20
-4.7929786373
 11
-92.5834712508
 21
-4.7950066457
  0
SPLINE
  5
571
100
AcDbEntity
  8
RACCORDO
100
AcDbSpline
 62
253
  6
CONTINUOUS
 70
0
 71
3
 72
9
 73
5
 74
3
 42
0.0000001
 43
0.0000001
 44
0.0000000001
 12
0.472218393
 22
-0.2231340531
 32
0.0
 13
0.5167921724
 23
0.0753839158
 33
0.0
 40
0.0
 40
0.0
 40
0.0
 40
0.0
 40
0.4945277732
 40
1.0
 40
1.0
 40
1.0
 40
1.0
 10
-94.2237488387
 20
-14.5334830111
 30
0.0
 10
-94.1459071352
 20
-14.5702650066
 30
0.0
 10
-93.9801685742
 20
-14.6276703043
 30
0.0
 10
-93.8033883591
 20
-14.6332446811
 30
0.0
 10
-93.7163136624
 20
-14.6205431892
 30
0.0
 11
-94.2237488387
 21
-14.5334830111
 31
0.0
 11
-93.9792821705
 21
-14.6143663829
 31
0.0
 11
-93.7163136624
 21
-14.6205431892
 31
0.0
  0
SPLINE
  5
572
100
AcDbEntity
  8
RACCORDO
100
AcDbSpline
 62
253
  6
CONTINUOUS
 70
0
 71
3
 72
9
 73
5
 74
3
 42
0.0000001
 43
0.0000001
 44
0.0000000001
 12
0.2754441255
 22
0.0401787369
 32
0.0
 13
0.2458986823
 23
0.1301969022
 33
0.0
 40
0.0
 40
0.0
 40
0.0
 40
0.0
 40
0.9381748666
 40
1.0
 40
1.0
 40
1.0
 40
1.0
 10
-93.7163136624
 20
-14.6205431892
 30
0.0
 10
-93.6301754105
 20
-14.6079782955
 30
0.0
 10
-93.540741874
 20
-14.5783973803
 30
0.0
 10
-93.4583407755
 20
-14.535782508
 30
0.0
 10
-93.4532732026
 20
-14.5330993611
 30
0.0
 11
-93.7163136624
 21
-14.6205431892
 31
0.0
 11
-93.4685565738
 21
-14.5410020281
 31
0.0
 11
-93.4532732026
 21
-14.5330993611
 31
0.0
  0
SPLINE
  5
573
100
AcDbEntity
  8
RACCORDO
100
AcDbSpline
 62
253
  6
CONTINUOUS
 70
0
 71
3
 72
8
 73
4
 74
2
 42
0.0000001
 43
0.0000001
 44
0.0000000001
 12
-0.1840120272
 22
0.0725263573
 32
0.0
 13
-0.1957948093
 23
0.0245949603
 33
0.0
 40
0.0
 40
0.0
 40
0.0
 40
0.0
 40
1.0
 40
1.0
 40
1.0
 40
1.0
 10
-93.5404553943
 20
-5.4240838057
 30
0.0
 10
-93.6017927367
 20
-5.3999083533
 30
0.0
 10
-93.6659495405
 20
-5.3828903804
 30
0.0
 10
-93.7312144769
 20
-5.3746920603
 30
0.0
 11
-93.5404553943
 21
-5.4240838057
 31
0.0
 11
-93.7312144769
 21
-5.3746920603
 31
0.0
  0
SPLINE
  5
574
100
AcDbEntity
  8
RACCORDO
100
AcDbSpline
 62
253
  6
CONTINUOUS
 70
0
 71
3
 72
9
 73
5
 74
3
 42
0.0000001
 43
0.0000001
 44
0.0000000001
 12
-0.5001842746
 22
0.0628311467
 32
0.0
 13
-0.4562266975
 23
-0.2147352017
 33
0.0
 40
0.0
 40
0.0
 40
0.0
 40
0.0
 40
0.6408971596
 40
1.0
 40
1.0
 40
1.0
 40
1.0
 10
-93.7312144769
 20
-5.3746920603
 30
0.0
 10
-93.8380700372
 20
-5.3612692924
 30
0.0
 10
-94.0094330014
 20
-5.3772146341
 30
0.0
 10
-94.1668540431
 20
-5.4367952864
 30
0.0
 10
-94.2214648108
 20
-5.4624992933
 30
0.0
 11
-93.7312144769
 21
-5.3746920603
 31
0.0
 11
-94.0519954781
 21
-5.3996311084
 31
0.0
 11
-94.2214648108
 21
-5.4624992933
 31
0.0
  0
SPLINE
  5
575
100
AcDbEntity
  8
RACCORDO
100
AcDbSpline
 62
253
  6
CONTINUOUS
 70
0
 71
3
 72
11
 73
7
 74
5
 42
0.0000001
 43
0.0000001
 44
0.0000000001
 12
0.0512539681
 22
0.7412679102
 32
0.0
 13
0.3323103401
 23
0.6651638377
 33
0.0
 40
0.0
 40
0.0
 40
0.0
 40
0.0
 40
0.2504878144
 40
0.5217432125
 40
0.8064062038
 40
1.0
 40
1.0
 40
1.0
 40
1.0
 10
-99.0015876458
 20
-5.9869471287
 30
0.0
 10
-98.9973081476
 20
-5.9250542692
 30
0.0
 10
-98.982365209
 20
-5.7964781869
 30
0.0
 10
-98.9401787644
 20
-5.6009173017
 30
0.0
 10
-98.8818803831
 20
-5.4242539499
 30
0.0
 10
-98.833661213
 20
-5.3158448429
 30
0.0
 10
-98.8122168062
 20
-5.2729209787
 30
0.0
 11
-99.0015876458
 21
-5.9869471287
 31
0.0
 11
-98.98011303
 21
-5.802068243
 31
0.0
 11
-98.9375093613
 21
-5.6050694144
 31
0.0
 11
-98.8708929294
 21
-5.4043183432
 31
0.0
 11
-98.8122168062
 21
-5.2729209787
 31
0.0
  0
SPLINE
  5
576
100
AcDbEntity
  8
RACCORDO
100
AcDbSpline
 62
253
  6
CONTINUOUS
 70
0
 71
3
 72
12
 73
8
 74
6
 42
0.0000001
 43
0.0000001
 44
0.0000000001
 12
0.3972225408
 22
0.7950943374
 32
0.0
 13
0.8881274751
 23
-0.0096429749
 33
0.0
 40
0.0
 40
0.0
 40
0.0
 40
0.0
 40
0.0811145682
 40
0.3242608193
 40
0.561175063
 40
0.7860211474
 40
1.0
 40
1.0
 40
1.0
 40
1.0
 10
-98.8122168062
 20
-5.2729209787
 30
0.0
 10
-98.8014766279
 20
-5.2514230675
 30
0.0
 10
-98.7566110273
 20
-5.1664454972
 30
0.0
 10
-98.6651884518
 20
-5.0269085471
 30
0.0
 10
-98.5206053009
 20
-4.8743952463
 30
0.0
 10
-98.3504381744
 20
-4.7644834758
 30
0.0
 10
-98.2194619697
 20
-4.7350253735
 30
0.0
 10
-98.156115137
 20
-4.735713171
 30
0.0
 11
-98.8122168062
 21
-5.2729209787
 31
0.0
 11
-98.7785320225
 21
-5.2091805952
 31
0.0
 11
-98.658976572
 21
-5.0293357263
 31
0.0
 11
-98.5124517755
 21
-4.8783122448
 31
0.0
 11
-98.3423275264
 21
-4.7737209935
 31
0.0
 11
-98.156115137
 21
-4.735713171
 31
0.0
  0
SPLINE
  5
577
100
AcDbEntity
  8
DRAFT
100
AcDbSpline
 62
7
  6
CONTINUOUS
 70
0
 71
3
 72
9
 73
5
 74
3
 42
0.0000001
 43
0.0000001
 44
0.0000000001
 12
-0.7433991361
 22
0.006487546
 32
0.0
 13
-0.2205570531
 23
-0.7143288693
 33
0.0
 40
0.0
 40
0.0
 40
0.0
 40
0.0
 40
0.4282506557
 40
1.0
 40
1.0
 40
1.0
 40
1.0
 10
-95.7541887625
 20
-4.9659302336
 30
0.0
 10
-95.8603091516
 20
-4.965004135
 30
0.0
 10
-96.0971017613
 20
-5.1164358352
 30
0.0
 10
-96.2001353489
 20
-5.3459597946
 30
0.0
 10
-96.2421697991
 20
-5.4820988155
 30
0.0
 11
-95.7541887625
 21
-4.9659302336
 31
0.0
 11
-96.0385911117
 21
-5.1090275977
 31
0.0
 11
-96.2421697991
 21
-5.4820988155
 31
0.0
  0
SPLINE
  5
578
100
AcDbEntity
  8
RACCORDO
100
AcDbSpline
 62
253
  6
CONTINUOUS
 70
0
 71
3
 72
11
 73
7
 74
5
 42
0.0000001
 43
0.0000001
 44
0.0000000001
 12
0.3151330321
 22
6.5746648197
 32
0.0
 13
0.4257745594
 23
6.5684421792
 33
0.0
 40
0.0
 40
0.0
 40
0.0
 40
0.0
 40
0.2789186069
 40
0.5780161706
 40
0.8926057889
 40
1.0
 40
1.0
 40
1.0
 40
1.0
 10
-99.4657730348
 20
-13.9907351519
 30
0.0
 10
-99.4364742127
 20
-13.3794697012
 30
0.0
 10
-99.373108765
 20
-12.1128407053
 30
0.0
 10
-99.2662318191
 20
-10.1573108436
 30
0.0
 10
-99.1716088593
 20
-8.5780315576
 30
0.0
 10
-99.1126532321
 20
-7.6540453968
 30
0.0
 10
-99.0974113244
 20
-7.4189078414
 30
0.0
 11
-99.4657730348
 21
-13.9907351519
 31
0.0
 11
-99.3739601658
 21
-12.1571307106
 31
0.0
 11
-99.2664121566
 21
-10.1913466528
 31
0.0
 11
-99.142429496
 21
-8.1243658732
 31
0.0
 11
-99.0974113244
 21
-7.4189078414
 31
0.0
  0
SPLINE
  5
579
100
AcDbEntity
  8
RACCORDO
100
AcDbSpline
 62
253
  6
CONTINUOUS
 70
0
 71
3
 72
11
 73
7
 74
5
 42
0.0000001
 43
0.0000001
 44
0.0000000001
 12
-0.643792779
 22
-0.0049032463
 32
0.0
 13
-0.3841664021
 23
0.5184953533
 33
0.0
 40
0.0
 40
0.0
 40
0.0
 40
0.0
 40
0.1891043457
 40
0.4074824503
 40
0.6706310997
 40
1.0
 40
1.0
 40
1.0
 40
1.0
 10
-98.6717299046
 20
-15.2489184809
 30
0.0
 10
-98.712311242
 20
-15.249227556
 30
0.0
 10
-98.8001288905
 20
-15.2396509885
 30
0.0
 10
-98.9367341872
 20
-15.1902274675
 30
0.0
 10
-99.0826892262
 20
-15.0923573208
 30
0.0
 10
-99.1692478576
 20
-14.9976061535
 30
0.0
 10
-99.2114253461
 20
-14.9406807388
 30
0.0
 11
-98.6717299046
 21
-15.2489184809
 31
0.0
 11
-98.79278305
 21
-15.2359338654
 31
0.0
 11
-98.9252669784
 21
-15.1888724932
 31
0.0
 11
-99.0668074871
 21
-15.095766201
 31
0.0
 11
-99.2114253461
 21
-14.9406807388
 31
0.0
  0
SPLINE
  5
57A
100
AcDbEntity
  8
RACCORDO
100
AcDbSpline
 62
253
  6
CONTINUOUS
 70
0
 71
3
 72
10
 73
6
 74
4
 42
0.0000001
 43
0.0000001
 44
0.0000000001
 12
-0.5967008617
 22
0.8053453463
 32
0.0
 13
0.0455913979
 23
0.9989509089
 33
0.0
 40
0.0
 40
0.0
 40
0.0
 40
0.0
 40
0.2715904465
 40
0.6137710597
 40
1.0
 40
1.0
 40
1.0
 40
1.0
 10
-99.2114253461
 20
-14.9406807388
 30
0.0
 10
-99.2654447639
 20
-14.8677727047
 30
0.0
 10
-99.3655086329
 20
-14.6872328925
 30
0.0
 10
-99.4579980696
 20
-14.364047289
 30
0.0
 10
-99.4716426072
 20
-14.1193430689
 30
0.0
 10
-99.4657730348
 20
-13.9907351519
 30
0.0
 11
-99.2114253461
 21
-14.9406807388
 31
0.0
 11
-99.3455227007
 21
-14.7045072748
 31
0.0
 11
-99.4420679818
 21
-14.3762323688
 31
0.0
 11
-99.4657730348
 21
-13.9907351519
 31
0.0
  0
SPLINE
  5
57B
100
AcDbEntity
  8
RACCORDO
100
AcDbSpline
 62
253
  6
CONTINUOUS
 70
0
 71
3
 72
12
 73
8
 74
6
 42
0.0000001
 43
0.0000001
 44
0.0000000001
 12
0.0630231229
 22
0.7596417914
 32
0.0
 13
0.456906867
 23
0.6112449945
 33
0.0
 40
0.0
 40
0.0
 40
0.0
 40
0.0
 40
0.2058900517
 40
0.4303677234
 40
0.6686382576
 40
0.9159704081
 40
1.0
 40
1.0
 40
1.0
 40
1.0
 10
-98.8348471769
 20
-5.998630474
 30
0.0
 10
-98.8305218989
 20
-5.9464962448
 30
0.0
 10
-98.8153798368
 20
-5.8379385467
 30
0.0
 10
-98.7727547096
 20
-5.6730838164
 30
0.0
 10
-98.7062160747
 20
-5.504835936
 30
0.0
 10
-98.6350135644
 20
-5.378255698
 30
0.0
 10
-98.5863952441
 20
-5.3093583709
 30
0.0
 10
-98.5735973449
 20
-5.2922374817
 30
0.0
 11
-98.8348471769
 21
-5.998630474
 31
0.0
 11
-98.8132201902
 21
-5.8431877307
 31
0.0
 11
-98.7703719146
 21
-5.6775310524
 31
0.0
 11
-98.7034068394
 21
-5.508704905
 31
0.0
 11
-98.6105904099
 21
-5.3446060884
 31
0.0
 11
-98.5735973449
 21
-5.2922374817
 31
0.0
  0
SPLINE
  5
57C
100
AcDbEntity
  8
RACCORDO
100
AcDbSpline
 62
253
  6
CONTINUOUS
 70
0
 71
3
 72
11
 73
7
 74
5
 42
0.0000001
 43
0.0000001
 44
0.0000000001
 12
0.4127676624
 22
0.4915134273
 32
0.0
 13
0.641067605
 23
-0.0055698391
 33
0.0
 40
0.0
 40
0.0
 40
0.0
 40
0.0
 40
0.100888852
 40
0.4041334164
 40
0.7039675679
 40
1.0
 40
1.0
 40
1.0
 40
1.0
 10
-98.5335695766
 20
-5.2417090253
 30
0.0
 10
-98.5196883581
 20
-5.2251796168
 30
0.0
 10
-98.4621447204
 20
-5.1605892094
 30
0.0
 10
-98.3482073834
 20
-5.060723207
 30
0.0
 10
-98.1767550531
 20
-4.9695252021
 30
0.0
 10
-98.0485253908
 20
-4.9459102964
 30
0.0
 10
-97.9852664568
 20
-4.946459914
 30
0.0
 11
-98.5335695766
 21
-5.2417090253
 31
0.0
 11
-98.4904675037
 21
-5.193383017
 31
0.0
 11
-98.3432577927
 21
-5.0664042098
 31
0.0
 11
-98.1723325363
 21
-4.9784635897
 31
0.0
 11
-97.9852664568
 21
-4.946459914
 31
0.0
  0
LINE
  5
57D
100
AcDbEntity
  8
RACCORDO
100
AcDbLine
 62
253
  6
CONTINUOUS
 10
-92.5962820674
 20
-15.2018645949
 11
-92.8829314267
 21
-15.2041821431
  0
LINE
  5
57E
100
AcDbEntity
  8
RACCORDO
100
AcDbLine
 62
253
  6
CONTINUOUS
 10
-92.8829314267
 20
-15.2041821431
 11
-93.2085042889
 21
-15.2067763612
  0
LINE
  5
57F
100
AcDbEntity
  8
RACCORDO
100
AcDbLine
 62
253
  6
CONTINUOUS
 10
-93.2085042889
 20
-15.2067763612
 11
-93.5728617516
 21
-15.2096460024
  0
LINE
  5
580
100
AcDbEntity
  8
RACCORDO
100
AcDbLine
 62
253
  6
CONTINUOUS
 10
-93.5728617516
 20
-15.2096460024
 11
-97.1945786039
 21
-15.2376148069
  0
LINE
  5
581
100
AcDbEntity
  8
RACCORDO
100
AcDbLine
 62
253
  6
CONTINUOUS
 10
-97.1945786039
 20
-15.2376148069
 11
-98.5045771317
 21
-15.2476389739
  0
LINE
  5
582
100
AcDbEntity
  8
RACCORDO
100
AcDbLine
 62
253
  6
CONTINUOUS
 10
-98.5045771317
 20
-15.2476389739
 11
-98.6717299046
 21
-15.2489184809
  0
SPLINE
  5
583
100
AcDbEntity
  8
RACCORDO
100
AcDbSpline
 62
253
  6
CONTINUOUS
 70
0
 71
3
 72
10
 73
6
 74
4
 42
0.0000001
 43
0.0000001
 44
0.0000000001
 12
-0.0002733277
 22
-0.5399720595
 32
0.0
 13
-0.0372746769
 23
-0.5385892138
 33
0.0
 40
0.0
 40
0.0
 40
0.0
 40
0.0
 40
0.3553786114
 40
0.7371236756
 40
1.0
 40
1.0
 40
1.0
 40
1.0
 10
-92.4229011374
 20
-14.0004802453
 30
0.0
 10
-92.4229335156
 20
-14.0644450855
 30
0.0
 10
-92.4244316561
 20
-14.1971446689
 30
0.0
 10
-92.4305519374
 20
-14.3769600942
 30
0.0
 10
-92.437340667
 20
-14.4929695848
 30
0.0
 10
-92.4406068771
 20
-14.5401637024
 30
0.0
 11
-92.4229011374
 21
-14.0004802453
 31
0.0
 11
-92.425078457
 21
-14.1923624378
 31
0.0
 11
-92.4322766547
 21
-14.3983684124
 31
0.0
 11
-92.4406068771
 21
-14.5401637024
 31
0.0
  0
SPLINE
  5
584
100
AcDbEntity
  8
RACCORDO
100
AcDbSpline
 62
253
  6
CONTINUOUS
 70
0
 71
3
 72
10
 73
6
 74
4
 42
0.0000001
 43
0.0000001
 44
0.0000000001
 12
-0.0322032651
 22
-0.465311377
 32
0.0
 13
-0.0901603218
 23
-0.4430496157
 33
0.0
 40
0.0
 40
0.0
 40
0.0
 40
0.0
 40
0.1526325853
 40
0.6039966923
 40
1.0
 40
1.0
 40
1.0
 40
1.0
 10
-92.4406068771
 20
-14.5401637024
 30
0.0
 10
-92.4422452996
 20
-14.5638375952
 30
0.0
 10
-92.449224509
 20
-14.6574057566
 30
0.0
 10
-92.4641084066
 20
-14.8111464834
 30
0.0
 10
-92.4865319188
 20
-14.9444375251
 30
0.0
 10
-92.4984331807
 20
-15.0029205629
 30
0.0
 11
-92.4406068771
 21
-14.5401637024
 31
0.0
 11
-92.4459010495
 21
-14.6110824624
 31
0.0
 11
-92.4677162084
 21
-14.8205134782
 31
0.0
 11
-92.4984331807
 21
-15.0029205629
 31
0.0
  0
SPLINE
  5
585
100
AcDbEntity
  8
RACCORDO
100
AcDbSpline
 62
253
  6
CONTINUOUS
 70
0
 71
3
 72
10
 73
6
 74
4
 42
0.0000001
 43
0.0000001
 44
0.0000000001
 12
-0.0397353346
 22
-0.195260225
 32
0.0
 13
-0.1645918494
 23
-0.1129561398
 33
0.0
 40
0.0
 40
0.0
 40
0.0
 40
0.0
 40
0.0343862633
 40
0.7422015308
 40
1.0
 40
1.0
 40
1.0
 40
1.0
 10
-92.4984331807
 20
-15.0029205629
 30
0.0
 10
-92.4988886306
 20
-15.0051586527
 30
0.0
 10
-92.5087641229
 20
-15.0533457479
 30
0.0
 10
-92.5233516536
 20
-15.1146122041
 30
0.0
 10
-92.5621882445
 20
-15.1855616053
 30
0.0
 10
-92.5763320868
 20
-15.1952682453
 30
0.0
 11
-92.4984331807
 21
-15.0029205629
 31
0.0
 11
-92.4998057376
 21
-15.0096178498
 31
0.0
 11
-92.5432153172
 21
-15.1485179634
 31
0.0
 11
-92.5763320868
 21
-15.1952682453
 31
0.0
  0
SPLINE
  5
586
100
AcDbEntity
  8
RACCORDO
100
AcDbSpline
 62
253
  6
CONTINUOUS
 70
0
 71
3
 72
8
 73
4
 74
2
 42
0.0000001
 43
0.0000001
 44
0.0000000001
 12
-0.0178067153
 22
-0.0122203975
 32
0.0
 13
-0.0222418819
 23
-0.0002276377
 33
0.0
 40
0.0
 40
0.0
 40
0.0
 40
0.0
 40
1.0
 40
1.0
 40
1.0
 40
1.0
 10
-92.5763320868
 20
-15.1952682453
 30
0.0
 10
-92.5822676586
 20
-15.1993417111
 30
0.0
 10
-92.5888681068
 20
-15.2017887156
 30
0.0
 10
-92.5962820674
 20
-15.2018645949
 30
0.0
 11
-92.5763320868
 21
-15.1952682453
 31
0.0
 11
-92.5962820674
 21
-15.2018645949
 31
0.0
  0
SPLINE
  5
587
100
AcDbEntity
  8
RACCORDO
100
AcDbSpline
 62
253
  6
CONTINUOUS
 70
0
 71
3
 72
23
 73
19
 74
17
 42
0.0000001
 43
0.0000001
 44
0.0000000001
 12
0.0002449103
 22
90.3827591032
 32
0.0
 13
0.0015014136
 23
90.3827590911
 33
0.0
 40
0.0
 40
0.0
 40
0.0
 40
0.0
 40
0.0939038189
 40
0.1807450496
 40
0.2599836594
 40
0.331790203
 40
0.3969842433
 40
0.4564119108
 40
0.5106854794
 40
0.5600764903
 40
0.6066456452
 40
0.6559452057
 40
0.710935472
 40
0.7706263889
 40
0.8335168722
 40
0.8917978753
 40
0.9452222041
 40
1.0
 40
1.0
 40
1.0
 40
1.0
 10
-92.1957502098
 20
-45.1896946481
 30
0.0
 10
-92.1957425438
 20
-42.3605992351
 30
0.0
 10
-92.1957000424
 20
-36.9151871424
 30
0.0
 10
-92.1955444288
 20
-29.0825069909
 30
0.0
 10
-92.1953023994
 20
-21.9155644108
 30
0.0
 10
-92.1949779791
 20
-15.4007994338
 30
0.0
 10
-92.1945738503
 20
-9.4828903375
 30
0.0
 10
-92.1940908474
 20
-4.0932074697
 30
0.0
 10
-92.1935306925
 20
0.8203682541
 30
0.0
 10
-92.1928917114
 20
5.346548019
 30
0.0
 10
-92.1921455159
 20
9.7228729063
 30
0.0
 10
-92.1912267559
 20
14.2678898151
 30
0.0
 10
-92.1900727612
 20
19.2082336977
 30
0.0
 10
-92.1887434823
 20
24.5580392514
 30
0.0
 10
-92.1875397925
 20
30.0069867968
 30
0.0
 10
-92.1867085187
 20
35.267137238
 30
0.0
 10
-92.1862350277
 20
40.282872031
 30
0.0
 10
-92.1861065376
 20
43.5427408883
 30
0.0
 10
-92.1860791229
 20
45.1930636643
 30
0.0
 11
-92.1957502098
 21
-45.1896946481
 31
0.0
 11
-92.1956806524
 21
-36.7024084094
 31
0.0
 11
-92.1955208583
 21
-28.8534583716
 31
0.0
 11
-92.1952747657
 21
-21.6916541959
 31
0.0
 11
-92.1949470913
 21
-15.2015806717
 31
0.0
 11
-92.1945400728
 21
-9.3091634438
 31
0.0
 11
-92.1940541124
 21
-3.9379269112
 31
0.0
 11
-92.1934906608
 21
0.967467927
 31
0.0
 11
-92.1928572435
 21
5.4315637222
 31
0.0
 11
-92.1921379788
 21
9.6406123783
 31
0.0
 11
-92.1912393394
 21
14.0964425807
 31
0.0
 11
-92.1900940155
 21
19.0666144408
 31
0.0
 11
-92.1887915763
 21
24.461644049
 31
0.0
 11
-92.1875709429
 21
30.1458593177
 31
0.0
 11
-92.1867436882
 21
35.4134571159
 31
0.0
 11
-92.1862825743
 21
40.2420953398
 31
0.0
 11
-92.1860791229
 21
45.1930636643
 31
0.0
  0
SPLINE
  5
588
100
AcDbEntity
  8
RACCORDO
100
AcDbSpline
 62
253
  6
CONTINUOUS
 70
0
 71
3
 72
14
 73
10
 74
8
 42
0.0000001
 43
0.0000001
 44
0.0000000001
 12
1.0107347145
 22
-0.0538426613
 32
0.0
 13
0.0000073604
 23
1.0121678197
 33
0.0
 40
0.0
 40
0.0
 40
0.0
 40
0.0
 40
0.0511855996
 40
0.1114453844
 40
0.2060340479
 40
0.344206751
 40
0.5285062659
 40
0.7519927004
 40
1.0
 40
1.0
 40
1.0
 40
1.0
 10
-92.3130233837
 20
-46.1820847275
 30
0.0
 10
-92.2957783629
 20
-46.1830033838
 30
0.0
 10
-92.2741013385
 20
-46.136930105
 30
0.0
 10
-92.2567706327
 20
-46.0763617195
 30
0.0
 10
-92.2379075666
 20
-45.9760488595
 30
0.0
 10
-92.2214370733
 20
-45.837667396
 30
0.0
 10
-92.2072311634
 20
-45.6533982928
 30
0.0
 10
-92.1979279571
 20
-45.4325088586
 30
0.0
 10
-92.1957508183
 20
-45.2733696506
 30
0.0
 10
-92.1957502098
 20
-45.1896946481
 30
0.0
 11
-92.3130233837
 21
-46.1820847275
 31
0.0
 11
-92.2784615496
 21
-46.143489499
 31
0.0
 11
-92.2601211713
 21
-46.0853192454
 31
0.0
 11
-92.2416697154
 21
-45.9913745008
 31
0.0
 11
-92.2240562857
 21
-45.8526341021
 31
0.0
 11
-92.2092365128
 21
-45.6666816717
 31
0.0
 11
-92.1992894395
 21
-45.4406947045
 31
0.0
 11
-92.1957502098
 21
-45.1896946481
 31
0.0
  0
SPLINE
  5
589
100
AcDbEntity
  8
RACCORDO
100
AcDbSpline
 62
253
  6
CONTINUOUS
 70
0
 71
3
 72
10
 73
6
 74
4
 42
0.0000001
 43
0.0000001
 44
0.0000000001
 12
-0.0005820436
 22
1.4993236717
 32
0.0
 13
1.497269015
 23
0.0784685163
 33
0.0
 40
0.0
 40
0.0
 40
0.0
 40
0.0
 40
0.3339078349
 40
0.6672305051
 40
1.0
 40
1.0
 40
1.0
 40
1.0
 10
-92.2774121975
 20
46.1869283918
 30
0.0
 10
-92.2774769804
 20
46.3538070321
 30
0.0
 10
-92.190687417
 20
46.693306422
 30
0.0
 10
-91.8337024726
 20
47.0715247567
 30
0.0
 10
-91.4998424737
 20
47.176822296
 30
0.0
 10
-91.3337606557
 20
47.1855262722
 30
0.0
 11
-92.2774121975
 21
46.1869283918
 31
0.0
 11
-92.1526944626
 21
46.6717807918
 31
0.0
 11
-91.8094463055
 21
47.0350153831
 31
0.0
 11
-91.3337606557
 21
47.1855262722
 31
0.0
  0
SPLINE
  5
58A
100
AcDbEntity
  8
RACCORDO
100
AcDbSpline
 62
253
  6
CONTINUOUS
 70
0
 71
3
 72
23
 73
19
 74
17
 42
0.0000001
 43
0.0000001
 44
0.0000000001
 12
3.055440708
 22
0.1987620851
 32
0.0
 13
2.0338757625
 23
0.1055347505
 33
0.0
 40
0.0
 40
0.0
 40
0.0
 40
0.0
 40
0.0003695952
 40
0.0060345391
 40
0.0165608759
 40
0.0381680979
 40
0.0684374863
 40
0.1073643226
 40
0.1549247874
 40
0.2110864471
 40
0.2758202246
 40
0.3491039969
 40
0.4309219747
 40
0.521265343
 40
0.6201316065
 40
0.7275222512
 40
0.8434395001
 40
1.0
 40
1.0
 40
1.0
 40
1.0
 10
-94.3116547599
 20
46.0798125096
 30
0.0
 10
-94.3112783345
 20
46.0798369968
 30
0.0
 10
-94.303917569
 20
46.0803158679
 30
0.0
 10
-94.2979973282
 20
46.0807184936
 30
0.0
 10
-94.2682552163
 20
46.0827224585
 30
0.0
 10
-94.2285768448
 20
46.0854936431
 30
0.0
 10
-94.1658982804
 20
46.0899122143
 30
0.0
 10
-94.0872926377
 20
46.0954196358
 30
0.0
 10
-93.9905040825
 20
46.1019452038
 30
0.0
 10
-93.8764326112
 20
46.1092065137
 30
0.0
 10
-93.7448263693
 20
46.1170869221
 30
0.0
 10
-93.5958325472
 20
46.1255481616
 30
0.0
 10
-93.429452953
 20
46.1346344291
 30
0.0
 10
-93.2457212524
 20
46.1444200929
 30
0.0
 10
-93.044644902
 20
46.1549794257
 30
0.0
 10
-92.8262270889
 20
46.1663681023
 30
0.0
 10
-92.5686932487
 20
46.1797546618
 30
0.0
 10
-92.3839646102
 20
46.1893396842
 30
0.0
 10
-92.2778230748
 20
46.1948472086
 30
0.0
 11
-94.3116547599
 21
46.0798125096
 31
0.0
 11
-94.3103962094
 21
46.0798944093
 31
0.0
 11
-94.2988841605
 21
46.0806571986
 31
0.0
 11
-94.2774950614
 21
46.0821052965
 31
0.0
 11
-94.2335948008
 21
46.0851472492
 31
0.0
 11
-94.1720996318
 21
46.0894711964
 31
0.0
 11
-94.093012915
 21
46.0949874302
 31
0.0
 11
-93.996369496
 21
46.1014941513
 31
0.0
 11
-93.8822217151
 21
46.108771215
 31
0.0
 11
-93.7506213448
 21
46.1166763519
 31
0.0
 11
-93.6016125482
 21
46.1251688098
 31
0.0
 11
-93.4352305383
 21
46.1342832928
 31
0.0
 11
-93.2514977172
 21
46.144090602
 31
0.0
 11
-93.0504233116
 21
46.1546640154
 31
0.0
 11
-92.8320073905
 21
46.1660610391
 31
0.0
 11
-92.5962474041
 21
46.1783193007
 31
0.0
 11
-92.2778230748
 21
46.1948472086
 31
0.0
  0
SPLINE
  5
58B
100
AcDbEntity
  8
RACCORDO
100
AcDbSpline
 62
253
  6
CONTINUOUS
 70
0
 71
3
 72
23
 73
19
 74
17
 42
0.0000001
 43
0.0000001
 44
0.0000000001
 12
0.0002984464
 22
90.3827432705
 32
0.0
 13
0.0017723812
 23
90.3827432536
 33
0.0
 40
0.0
 40
0.0
 40
0.0
 40
0.0
 40
0.0939036839
 40
0.180744756
 40
0.2599831799
 40
0.3317895066
 40
0.3969832946
 40
0.4564106706
 40
0.5106839092
 40
0.5600745624
 40
0.6066433408
 40
0.6559425085
 40
0.7109324843
 40
0.770623502
 40
0.8335146208
 40
0.8917964573
 40
0.9452215416
 40
1.0
 40
1.0
 40
1.0
 40
1.0
 10
-91.2541967346
 20
-45.1896979191
 30
0.0
 10
-91.2541873929
 20
-42.3606070673
 30
0.0
 10
-91.2541355532
 20
-36.9152047739
 30
0.0
 10
-91.2539458354
 20
-29.0825404423
 30
0.0
 10
-91.2536509879
 20
-21.9156160346
 30
0.0
 10
-91.2532561914
 20
-15.4008719399
 30
0.0
 10
-91.2527650661
 20
-9.4829868032
 30
0.0
 10
-91.2521790604
 20
-4.0933312125
 30
0.0
 10
-91.2515007689
 20
0.820214137
 30
0.0
 10
-91.2507287519
 20
5.3463610259
 30
0.0
 10
-91.2498294234
 20
9.7226511615
 30
0.0
 10
-91.2487255077
 20
14.2676353041
 30
0.0
 10
-91.2473436812
 20
19.2079607139
 30
0.0
 10
-91.2457597518
 20
24.5577786924
 30
0.0
 10
-91.2443344515
 20
30.0067725204
 30
0.0
 10
-91.2433515686
 20
35.2669890313
 30
0.0
 10
-91.2427935902
 20
40.282790767
 30
0.0
 10
-91.2426420837
 20
43.5427017742
 30
0.0
 10
-91.2426097209
 20
45.1930442207
 30
0.0
 11
-91.2541967346
 21
-45.1896979191
 31
0.0
 11
-91.2541119191
 21
-36.7024253641
 31
0.0
 11
-91.2539171421
 21
-28.8534910417
 31
0.0
 11
-91.2536174047
 21
-21.6917049273
 31
0.0
 11
-91.2532187315
 21
-15.201652145
 31
0.0
 11
-91.2527242026
 21
-9.3092587624
 31
0.0
 11
-91.2521347423
 21
-3.9380495231
 31
0.0
 11
-91.2514526205
 21
0.9673146201
 31
0.0
 11
-91.2506874968
 21
5.4313772789
 31
0.0
 11
-91.2498208482
 21
9.6403911363
 31
0.0
 11
-91.2487413012
 21
14.0961850159
 31
0.0
 11
-91.2473702931
 21
19.0663296963
 31
0.0
 11
-91.2458185084
 21
24.4613674003
 31
0.0
 11
-91.244371608
 21
30.1456390592
 31
0.0
 11
-91.2433934938
 21
35.4133112321
 31
0.0
 11
-91.2428495987
 21
40.2420168858
 31
0.0
 11
-91.2426097209
 21
45.1930442207
 31
0.0
  0
SPLINE
  5
58C
100
AcDbEntity
  8
RACCORDO
100
AcDbSpline
 62
253
  6
CONTINUOUS
 70
0
 71
3
 72
14
 73
10
 74
8
 42
0.0000001
 43
0.0000001
 44
0.0000000001
 12
1.9943377569
 22
-0.104601417
 32
0.0
 13
0.0520454907
 23
1.9964007142
 33
0.0
 40
0.0
 40
0.0
 40
0.0
 40
0.0
 40
0.0414621035
 40
0.1007324235
 40
0.1957054531
 40
0.3353971924
 40
0.5221518486
 40
0.748692955
 40
1.0
 40
1.0
 40
1.0
 40
1.0
 10
-91.3731958252
 20
-47.1807205106
 30
0.0
 10
-91.345632679
 20
-47.1821661755
 30
0.0
 10
-91.357056455
 20
-47.0718068412
 30
0.0
 10
-91.3293733046
 20
-46.9688437179
 30
0.0
 10
-91.3209684648
 20
-46.7604509957
 30
0.0
 10
-91.3010449376
 20
-46.4865629885
 30
0.0
 10
-91.2850142787
 20
-46.1163303106
 30
0.0
 10
-91.2679315493
 20
-45.6751313137
 30
0.0
 10
-91.2585565341
 20
-45.3569344405
 30
0.0
 10
-91.2541967346
 20
-45.1896979191
 30
0.0
 11
-91.3731958252
 21
-47.1807205106
 31
0.0
 11
-91.3506874142
 21
-47.1010353539
 31
0.0
 11
-91.3369939846
 21
-46.9834625774
 31
0.0
 11
-91.3215290374
 21
-46.7944254655
 31
0.0
 11
-91.3043631307
 21
-46.5159786528
 31
0.0
 11
-91.286444915
 21
-46.1434455193
 31
0.0
 11
-91.2692215925
 21
-45.6913529908
 31
0.0
 11
-91.2541967346
 21
-45.1896979191
 31
0.0
  0
SPLINE
  5
58D
100
AcDbEntity
  8
RACCORDO
100
AcDbSpline
 62
253
  6
CONTINUOUS
 70
0
 71
3
 72
15
 73
11
 74
9
 42
0.0000001
 43
0.0000001
 44
0.0000000001
 12
-0.0520062585
 22
1.9946365557
 32
0.0
 13
-1.9926602963
 23
-0.1028814063
 33
0.0
 40
0.0
 40
0.0
 40
0.0
 40
0.0
 40
0.1365856443
 40
0.2832889253
 40
0.4373913015
 40
0.595121245
 40
0.7481828201
 40
0.8789324735
 40
0.967876327
 40
1.0
 40
1.0
 40
1.0
 40
1.0
 10
-91.2426097209
 20
45.1930442207
 30
0.0
 10
-91.2449774904
 20
45.2838571271
 30
0.0
 10
-91.2501720741
 20
45.4721732026
 30
0.0
 10
-91.2589040115
 20
45.7630963214
 30
0.0
 10
-91.2695725866
 20
46.0673248949
 30
0.0
 10
-91.2798464325
 20
46.3784890784
 30
0.0
 10
-91.2976931854
 20
46.6643190871
 30
0.0
 10
-91.2962480676
 20
46.9336101717
 30
0.0
 10
-91.3373248882
 20
47.0561552977
 30
0.0
 10
-91.3124234665
 20
47.1866279151
 30
0.0
 10
-91.3337606557
 20
47.1855262722
 30
0.0
 11
-91.2426097209
 21
45.1930442207
 31
0.0
 11
-91.2500936925
 21
45.4654727487
 31
0.0
 11
-91.2589926157
 21
45.758056622
 31
0.0
 11
-91.2693992907
 21
46.0653631596
 31
0.0
 11
-91.2814161003
 21
46.3798544913
 31
0.0
 11
-91.2949384947
 21
46.6849609484
 31
0.0
 11
-91.3090809936
 21
46.9454640075
 31
0.0
 11
-91.3224944622
 21
47.1224273321
 31
0.0
 11
-91.3337606557
 21
47.1855262722
 31
0.0
  0
SPLINE
  5
58E
100
AcDbEntity
  8
RACCORDO
100
AcDbSpline
 62
7
  6
CONTINUOUS
 70
0
 71
3
 72
10
 73
6
 74
4
 42
0.0000001
 43
0.0000001
 44
0.0000000001
 12
-0.0153687174
 22
-0.3051549596
 32
0.0
 13
0.3053329385
 23
0.0112935159
 33
0.0
 40
0.0
 40
0.0
 40
0.0
 40
0.0
 40
0.3547933587
 40
0.6886555028
 40
1.0
 40
1.0
 40
1.0
 40
1.0
 10
-98.1628566417
 20
-4.7352784733
 30
0.0
 10
-98.1646742146
 20
-4.7713674576
 30
0.0
 10
-98.1515052424
 20
-4.8434531561
 30
0.0
 10
-98.084810557
 20
-4.9267527752
 30
0.0
 10
-98.0169420693
 20
-4.9472572677
 30
0.0
 10
-97.9852541593
 20
-4.9460852097
 30
0.0
 11
-98.1628566417
 21
-4.7352784733
 31
0.0
 11
-98.1424093724
 21
-4.8417367958
 31
0.0
 11
-98.0766586304
 21
-4.9197280676
 31
0.0
 11
-97.9852541593
 21
-4.9460852097
 31
0.0
  0
SPLINE
  5
58F
100
AcDbEntity
  8
RACCORDO
100
AcDbSpline
 62
253
  6
CONTINUOUS
 70
0
 71
3
 72
10
 73
6
 74
4
 42
0.0000001
 43
0.0000001
 44
0.0000000001
 12
0.0067643604
 22
0.2782296253
 32
0.0
 13
0.2783012465
 23
0.0024284104
 33
0.0
 40
0.0
 40
0.0
 40
0.0
 40
0.0
 40
0.3582725232
 40
0.6918649313
 40
1.0
 40
1.0
 40
1.0
 40
1.0
 10
-98.6717303742
 20
-15.2489184629
 30
0.0
 10
-98.6709225461
 20
-15.2156911196
 30
0.0
 10
-98.655762383
 20
-15.1509172778
 30
0.0
 10
-98.5949261608
 20
-15.0759730234
 30
0.0
 10
-98.5345393808
 20
-15.0555947398
 30
0.0
 10
-98.5059545895
 20
-15.0553453137
 30
0.0
 11
-98.6717303742
 21
-15.2489184629
 31
0.0
 11
-98.6480001263
 21
-15.1520719054
 31
0.0
 11
-98.5876089999
 21
-15.0815546593
 31
0.0
 11
-98.5059545895
 21
-15.0553453137
 31
0.0
  0
SPLINE
  5
590
100
AcDbEntity
  8
RACCORDO
100
AcDbSpline
 62
253
  6
CONTINUOUS
 70
0
 71
3
 72
9
 73
5
 74
3
 42
0.0000001
 43
0.0000001
 44
0.0000000001
 12
-0.0003091196
 22
-0.1769113451
 32
0.0
 13
0.1389857309
 23
-0.1125976757
 33
0.0
 40
0.0
 40
0.0
 40
0.0
 40
0.0
 40
0.5821910837
 40
1.0
 40
1.0
 40
1.0
 40
1.0
 10
-92.5834706631
 20
-4.7950066467
 30
0.0
 10
-92.583530652
 20
-4.8293387159
 30
0.0
 10
-92.5679152486
 20
-4.8894517963
 30
0.0
 10
-92.5287582272
 20
-4.9357203189
 30
0.0
 10
-92.5094017347
 20
-4.9514017565
 30
0.0
 11
-92.5834706631
 21
-4.7950066467
 31
0.0
 11
-92.5573690067
 21
-4.8946407509
 31
0.0
 11
-92.5094017347
 21
-4.9514017565
 31
0.0
  0
SPLINE
  5
591
100
AcDbEntity
  8
RACCORDO
100
AcDbSpline
 62
253
  6
CONTINUOUS
 70
0
 71
3
 72
14
 73
10
 74
8
 42
0.0000001
 43
0.0000001
 44
0.0000000001
 12
0.0000000923
 22
0.0000016006
 32
0.0
 13
3.0626988618
 23
-0.1552406036
 33
0.0
 40
0.0
 40
0.0
 40
0.0
 40
0.0
 40
0.0192299783
 40
0.058594525
 40
0.1265500774
 40
0.235044471
 40
0.401671478
 40
0.6493105928
 40
1.0
 40
1.0
 40
1.0
 40
1.0
 10
-112.2962719932
 20
-45.1287148303
 30
0.0
 10
-112.2962719926
 20
-45.12871482
 30
0.0
 10
-112.1921706654
 20
-45.1340974298
 30
0.0
 10
-112.0980547542
 20
-45.1389380038
 30
0.0
 10
-111.8574467553
 20
-45.1513018501
 30
0.0
 10
-111.5180638495
 20
-45.1686491608
 30
0.0
 10
-110.9793209159
 20
-45.1960805873
 30
0.0
 10
-110.2012224926
 20
-45.2355086996
 30
0.0
 10
-109.5900426113
 20
-45.2664351868
 30
0.0
 10
-109.2320239286
 20
-45.2845822652
 30
0.0
 11
-112.2962719932
 21
-45.1287148303
 31
0.0
 11
-112.2344614117
 21
-45.1319094828
 31
0.0
 11
-112.1139586727
 21
-45.138119289
 31
0.0
 11
-111.9059313057
 21
-45.1488033993
 31
0.0
 11
-111.5738017769
 21
-45.1657914794
 31
0.0
 11
-111.0637073534
 21
-45.1917671363
 31
0.0
 11
-110.3056028483
 21
-45.2302120516
 31
0.0
 11
-109.2320239286
 21
-45.2845822652
 31
0.0
  0
SPLINE
  5
592
100
AcDbEntity
  8
RACCORDO
100
AcDbSpline
 62
253
  6
CONTINUOUS
 70
0
 71
3
 72
22
 73
18
 74
16
 42
0.0000001
 43
0.0000001
 44
0.0000000001
 12
-6.5673154191
 22
0.3334324976
 32
0.0
 13
6.5706713548
 23
-0.3330510224
 33
0.0
 40
0.0
 40
0.0
 40
0.0
 40
0.0
 40
0.1052756337
 40
0.259456297
 40
0.3664520344
 40
0.4372855308
 40
0.4828918341
 40
0.5110233992
 40
0.5268346549
 40
0.5334690706
 40
0.5428468315
 40
0.5611952994
 40
0.5928705091
 40
0.6434415448
 40
0.7211091555
 40
0.8365378528
 40
1.0
 40
1.0
 40
1.0
 40
1.0
 10
-108.7923126158
 20
-45.3068865715
 30
0.0
 10
-109.0227720466
 20
-45.295185799
 30
0.0
 10
-109.5908166432
 20
-45.266388252
 30
0.0
 10
-110.3937060264
 20
-45.2257686456
 30
0.0
 10
-111.1187554918
 20
-45.1889932958
 30
0.0
 10
-111.611646776
 20
-45.1638724047
 30
0.0
 10
-111.9207191351
 20
-45.1480556665
 30
0.0
 10
-112.1305975248
 20
-45.1372651854
 30
0.0
 10
-112.2187097353
 20
-45.1327254016
 30
0.0
 10
-112.324955202
 20
-45.127231694
 30
0.0
 10
-112.1928317736
 20
-45.1340634277
 30
0.0
 10
-112.0980547542
 20
-45.1389380038
 30
0.0
 10
-111.8574467553
 20
-45.1513018501
 30
0.0
 10
-111.5180638495
 20
-45.1686491608
 30
0.0
 10
-110.9793209159
 20
-45.1960805873
 30
0.0
 10
-110.2012224926
 20
-45.2355086996
 30
0.0
 10
-109.5900426113
 20
-45.2664351868
 30
0.0
 10
-109.2320239286
 20
-45.2845822652
 30
0.0
 11
-108.7923126158
 21
-45.3068865715
 31
0.0
 11
-109.4838146837
 21
-45.2718225621
 31
0.0
 11
-110.4964354257
 21
-45.2205456665
 31
0.0
 11
-111.1991530649
 21
-45.1848806113
 31
0.0
 11
-111.6643621239
 21
-45.1611664886
 31
0.0
 11
-111.9638845745
 21
-45.145830937
 31
0.0
 11
-112.1486386019
 21
-45.1363341962
 31
0.0
 11
-112.2524780872
 21
-45.1309786863
 31
0.0
 11
-112.2960489535
 21
-45.1287263643
 31
0.0
 11
-112.2344614117
 21
-45.1319094828
 31
0.0
 11
-112.1139586727
 21
-45.138119289
 31
0.0
 11
-111.9059313057
 21
-45.1488033993
 31
0.0
 11
-111.5738017769
 21
-45.1657914794
 31
0.0
 11
-111.0637073534
 21
-45.1917671363
 31
0.0
 11
-110.3056028483
 21
-45.2302120516
 31
0.0
 11
-109.2320239286
 21
-45.2845822652
 31
0.0
  0
SPLINE
  5
593
100
AcDbEntity
  8
RACCORDO
100
AcDbSpline
 62
253
  6
CONTINUOUS
 70
0
 71
3
 72
27
 73
23
 74
21
 42
0.0000001
 43
0.0000001
 44
0.0000000001
 12
-14.79845391
 22
0.7749724523
 32
0.0
 13
14.7989237911
 23
-0.7705461205
 33
0.0
 40
0.0
 40
0.0
 40
0.0
 40
0.0
 40
0.1189336361
 40
0.2403608778
 40
0.3343933704
 40
0.4028139796
 40
0.4502953782
 40
0.4817290928
 40
0.5019677595
 40
0.5144516779
 40
0.5214682241
 40
0.5244123726
 40
0.5285739328
 40
0.5367164153
 40
0.5507728935
 40
0.5732147549
 40
0.6076812381
 40
0.6589049234
 40
0.731444368
 40
0.8293254404
 40
0.9533884223
 40
1.0
 40
1.0
 40
1.0
 40
1.0
 10
-104.5350009373
 20
-45.5261688135
 30
0.0
 10
-105.1216789146
 20
-45.4954453829
 30
0.0
 10
-106.3073565806
 20
-45.4337840685
 30
0.0
 10
-107.9570969176
 20
-45.3492468403
 30
0.0
 10
-109.3572154276
 20
-45.2782065543
 30
0.0
 10
-110.3937060264
 20
-45.2257686456
 30
0.0
 10
-111.1187554918
 20
-45.1889932958
 30
0.0
 10
-111.611646776
 20
-45.1638724047
 30
0.0
 10
-111.9207191351
 20
-45.1480556665
 30
0.0
 10
-112.1305975248
 20
-45.1372651854
 30
0.0
 10
-112.2187097353
 20
-45.1327254016
 30
0.0
 10
-112.324955202
 20
-45.127231694
 30
0.0
 10
-112.1928317736
 20
-45.1340634277
 30
0.0
 10
-112.0980547542
 20
-45.1389380038
 30
0.0
 10
-111.8574467553
 20
-45.1513018501
 30
0.0
 10
-111.5180638495
 20
-45.1686491608
 30
0.0
 10
-110.9793209159
 20
-45.1960805873
 30
0.0
 10
-110.2012224926
 20
-45.2355086996
 30
0.0
 10
-109.1066761822
 20
-45.2908941491
 30
0.0
 10
-107.6543644016
 20
-45.3646774432
 30
0.0
 10
-106.3294197168
 20
-45.4327505352
 30
0.0
 10
-105.4874694345
 20
-45.4764666173
 30
0.0
 10
-105.2575357056
 20
-45.4884387408
 30
0.0
 11
-104.5350009373
 21
-45.5261688135
 31
0.0
 11
-106.2950926759
 21
-45.434643201
 31
0.0
 11
-108.0921499353
 21
-45.3424964548
 31
0.0
 11
-109.4838146837
 21
-45.2718225621
 31
0.0
 11
-110.4964354257
 21
-45.2205456665
 31
0.0
 11
-111.1991530649
 21
-45.1848806113
 31
0.0
 11
-111.6643621239
 21
-45.1611664886
 31
0.0
 11
-111.9638845745
 21
-45.145830937
 31
0.0
 11
-112.1486386019
 21
-45.1363341962
 31
0.0
 11
-112.2524780872
 21
-45.1309786863
 31
0.0
 11
-112.2960489535
 21
-45.1287263643
 31
0.0
 11
-112.2344614117
 21
-45.1319094828
 31
0.0
 11
-112.1139586727
 21
-45.138119289
 31
0.0
 11
-111.9059313057
 21
-45.1488033993
 31
0.0
 11
-111.5738017769
 21
-45.1657914794
 31
0.0
 11
-111.0637073534
 21
-45.1917671363
 31
0.0
 11
-110.3056028483
 21
-45.2302120516
 31
0.0
 11
-109.2320239286
 21
-45.2845822652
 31
0.0
 11
-107.7834056975
 21
-45.3582438763
 31
0.0
 11
-105.9473528127
 21
-45.4526225534
 31
0.0
 11
-105.2575357056
 21
-45.4884387408
 31
0.0
  0
SPLINE
  5
594
100
AcDbEntity
  8
RACCORDO
100
AcDbSpline
 62
253
  6
CONTINUOUS
 70
0
 71
3
 72
14
 73
10
 74
8
 42
0.0000001
 43
0.0000001
 44
0.0000000001
 12
-12.2222549811
 22
0.650827824
 32
0.0
 13
-12.2226832543
 23
0.6400832731
 33
0.0
 40
0.0
 40
0.0
 40
0.0
 40
0.0
 40
0.086018928
 40
0.214013414
 40
0.3797035925
 40
0.571272757
 40
0.772309825
 40
0.9677496003
 40
1.0
 40
1.0
 40
1.0
 40
1.0
 10
-92.3130233834
 20
-46.182084721
 30
0.0
 10
-92.663471807
 20
-46.1634235505
 30
0.0
 10
-93.5353701008
 20
-46.1167970059
 30
0.0
 10
-95.0822664479
 20
-46.0335184737
 30
0.0
 10
-97.0591352128
 20
-45.9264519609
 30
0.0
 10
-99.333568075
 20
-45.8031890026
 30
0.0
 10
-101.7292437678
 20
-45.6743146165
 30
0.0
 10
-103.4759475506
 20
-45.5817053158
 30
0.0
 10
-104.4036054638
 20
-45.533049794
 30
0.0
 10
-104.5350009373
 20
-45.5261688135
 30
0.0
 11
-92.3130233834
 21
-46.182084721
 31
0.0
 11
-93.3643574776
 21
-46.1258917125
 31
0.0
 11
-94.9286917969
 21
-46.0417127248
 31
0.0
 11
-96.9537067547
 21
-45.9321508517
 31
0.0
 11
-99.2950043632
 21
-45.8054314576
 31
0.0
 11
-101.7520674332
 21
-45.6734087431
 31
0.0
 11
-104.1408158002
 21
-45.5468436743
 31
0.0
 11
-104.5350009373
 21
-45.5261688135
 31
0.0
  0
SPLINE
  5
595
100
AcDbEntity
  8
RACCORDO
100
AcDbSpline
 62
253
  6
CONTINUOUS
 70
0
 71
3
 72
12
 73
8
 74
6
 42
0.0000001
 43
0.0000001
 44
0.0000000001
 12
-0.8575576012
 22
-0.0074746072
 32
0.0
 13
-0.3926728837
 23
0.7650419383
 33
0.0
 40
0.0
 40
0.0
 40
0.0
 40
0.0
 40
0.1423914936
 40
0.304231892
 40
0.4933275279
 40
0.7206759472
 40
1.0
 40
1.0
 40
1.0
 40
1.0
 10
-98.505954376
 20
-15.055345009
 30
0.0
 10
-98.5466573452
 20
-15.0556997825
 30
0.0
 10
-98.6339074323
 20
-15.0480103984
 30
0.0
 10
-98.7700187251
 20
-15.0075107246
 30
0.0
 10
-98.9158617932
 20
-14.9267999333
 30
0.0
 10
-99.0646935868
 20
-14.7920811568
 30
0.0
 10
-99.1461599552
 20
-14.6704651398
 30
0.0
 10
-99.182720949
 20
-14.5992336016
 30
0.0
 11
-98.505954376
 21
-15.055345009
 31
0.0
 11
-98.6276043882
 21
-15.0447152223
 31
0.0
 11
-98.7607296467
 21
-15.0054586008
 31
0.0
 11
-98.9029268076
 21
-14.9274973839
 31
0.0
 11
-99.0481562254
 21
-14.7974112799
 31
0.0
 11
-99.182720949
 21
-14.5992336016
 31
0.0
  0
SPLINE
  5
596
100
AcDbEntity
  8
RACCORDO
100
AcDbSpline
 62
253
  6
CONTINUOUS
 70
0
 71
3
 72
9
 73
5
 74
3
 42
0.0000001
 43
0.0000001
 44
0.0000000001
 12
-0.2829738042
 22
0.5513159594
 32
0.0
 13
0.0344460186
 23
0.61704864
 33
0.0
 40
0.0
 40
0.0
 40
0.0
 40
0.0
 40
0.4734564863
 40
1.0
 40
1.0
 40
1.0
 40
1.0
 10
-99.182720949
 20
-14.5992336016
 30
0.0
 10
-99.2273795434
 20
-14.5122255626
 30
0.0
 10
-99.2953883405
 20
-14.3152630377
 30
0.0
 10
-99.3095027919
 20
-14.1069314604
 30
0.0
 10
-99.303457016
 20
-13.998630474
 30
0.0
 11
-99.182720949
 21
-14.5992336016
 31
0.0
 11
-99.2796969428
 21
-14.323170694
 31
0.0
 11
-99.303457016
 21
-13.998630474
 31
0.0
  0
SPLINE
  5
597
100
AcDbEntity
  8
RACCORDO
100
AcDbSpline
 62
253
  6
CONTINUOUS
 70
0
 71
3
 72
11
 73
7
 74
5
 42
0.0000001
 43
0.0000001
 44
0.0000000001
 12
0.3526653201
 22
7.2837332139
 32
0.0
 13
0.4915323866
 23
7.2756921174
 33
0.0
 40
0.0
 40
0.0
 40
0.0
 40
0.0
 40
0.2516621269
 40
0.5215237221
 40
0.8053535267
 40
1.0
 40
1.0
 40
1.0
 40
1.0
 10
-99.303457016
 20
-13.998630474
 30
0.0
 10
-99.2738728478
 20
-13.3876172098
 30
0.0
 10
-99.2098929913
 20
-12.1215316056
 30
0.0
 10
-99.1019877161
 20
-10.1668824037
 30
0.0
 10
-98.9921105147
 20
-8.3511686983
 30
0.0
 10
-98.9161521039
 20
-7.1905873431
 30
0.0
 10
-98.884260422
 20
-6.7185247393
 30
0.0
 11
-99.303457016
 21
-13.998630474
 31
0.0
 11
-99.2107526454
 21
-12.1657862939
 31
0.0
 11
-99.1021700007
 21
-10.2008816854
 31
0.0
 11
-98.9770085596
 21
-8.1349070822
 31
0.0
 11
-98.884260422
 21
-6.7185247393
 31
0.0
  0
SPLINE
  5
598
100
AcDbEntity
  8
RACCORDO
100
AcDbSpline
 62
253
  6
CONTINUOUS
 70
0
 71
3
 72
10
 73
6
 74
4
 42
0.0000001
 43
0.0000001
 44
0.0000000001
 12
-0.0012319417
 22
-1.4965733458
 32
0.0
 13
1.4945228679
 23
-0.0783242897
 33
0.0
 40
0.0
 40
0.0
 40
0.0
 40
0.0
 40
0.3344572727
 40
0.6677704355
 40
1.0
 40
1.0
 40
1.0
 40
1.0
 10
-92.3130234582
 20
-46.1820847275
 30
0.0
 10
-92.3131608022
 20
-46.3489313407
 30
0.0
 10
-92.2270252746
 20
-46.6881115736
 30
0.0
 10
-91.8716708803
 20
-47.0665765672
 30
0.0
 10
-91.5387039486
 20
-47.1720446486
 30
0.0
 10
-91.3731957214
 20
-47.1807185302
 30
0.0
 11
-92.3130234582
 21
-46.1820847275
 31
0.0
 11
-92.1889581845
 21
-46.6670054517
 31
0.0
 11
-91.8470913772
 21
-47.0302632451
 31
0.0
 11
-91.3731957214
 21
-47.1807185302
 31
0.0
  0
SPLINE
  5
599
100
AcDbEntity
  8
RACCORDO
100
AcDbSpline
 62
253
  6
CONTINUOUS
 70
0
 71
3
 72
15
 73
11
 74
9
 42
0.0000001
 43
0.0000001
 44
0.0000000001
 12
0.000016732
 22
1.0057819242
 32
0.0
 13
-1.0044494981
 23
-0.0517540829
 33
0.0
 40
0.0
 40
0.0
 40
0.0
 40
0.0
 40
0.1355846631
 40
0.2811464259
 40
0.4340015208
 40
0.5904462241
 40
0.7423456584
 40
0.8724404828
 40
0.9620509248
 40
1.0
 40
1.0
 40
1.0
 40
1.0
 10
-92.1860791229
 20
45.1930636643
 30
0.0
 10
-92.1860783667
 20
45.2385198654
 30
0.0
 10
-92.186667057
 20
45.3327702004
 30
0.0
 10
-92.189531837
 20
45.478289745
 30
0.0
 10
-92.1948853261
 20
45.6305454612
 30
0.0
 10
-92.2034346732
 20
45.7855358733
 30
0.0
 10
-92.2150630724
 20
45.9300277508
 30
0.0
 10
-92.231189367
 20
46.0596171339
 30
0.0
 10
-92.2462513648
 20
46.1319886741
 30
0.0
 10
-92.2647062028
 20
46.187583065
 30
0.0
 10
-92.2774121793
 20
46.1869283918
 30
0.0
 11
-92.1860791229
 21
45.1930636643
 31
0.0
 11
-92.1869408607
 21
45.3294295449
 31
0.0
 11
-92.189850679
 21
45.4758040151
 31
0.0
 11
-92.1953543155
 21
45.6294443638
 31
0.0
 11
-92.2041527478
 21
45.7865474368
 31
0.0
 11
-92.2170220585
 21
45.9387821507
 31
0.0
 11
-92.2341065042
 21
46.0685090372
 31
0.0
 11
-92.2546989327
 21
46.1562536082
 31
0.0
 11
-92.2774121793
 21
46.1869283918
 31
0.0
  0
SPLINE
  5
59A
100
AcDbEntity
  8
RACCORDO
100
AcDbSpline
 62
253
  6
CONTINUOUS
 70
0
 71
3
 72
11
 73
7
 74
5
 42
0.0000001
 43
0.0000001
 44
0.0000000001
 12
0.2282988893
 22
-0.002278278
 32
0.0
 13
0.0473459468
 23
-0.2235574091
 33
0.0
 40
0.0
 40
0.0
 40
0.0
 40
0.0
 40
0.1443374566
 40
0.4171126305
 40
0.8880310525
 40
1.0
 40
1.0
 40
1.0
 40
1.0
 10
-92.5834712508
 20
-4.7950066457
 30
0.0
 10
-92.5724872238
 20
-4.7951162594
 30
0.0
 10
-92.5443182661
 20
-4.8175633376
 30
0.0
 10
-92.5185350474
 20
-4.8796072511
 30
0.0
 10
-92.5008484185
 20
-4.9426369584
 30
0.0
 10
-92.4912298562
 20
-4.9860005315
 30
0.0
 10
-92.4894627643
 20
-4.9943443607
 30
0.0
 11
-92.5834712508
 21
-4.7950066457
 31
0.0
 11
-92.5549149711
 21
-4.8114531246
 31
0.0
 11
-92.5251247861
 21
-4.8661433038
 31
0.0
 11
-92.4950148439
 21
-4.9693565558
 31
0.0
 11
-92.4894627643
 21
-4.9943443607
 31
0.0
  0
SPLINE
  5
59B
100
AcDbEntity
  8
RACCORDO
100
AcDbSpline
 62
253
  6
CONTINUOUS
 70
0
 71
3
 72
10
 73
6
 74
4
 42
0.0000001
 43
0.0000001
 44
0.0000000001
 12
0.096677182
 22
-0.4564889238
 32
0.0
 13
0.0307506883
 23
-0.4652081842
 33
0.0
 40
0.0
 40
0.0
 40
0.0
 40
0.0
 40
0.3021317108
 40
0.8025881612
 40
1.0
 40
1.0
 40
1.0
 40
1.0
 10
-92.4894627643
 20
-4.9943443607
 30
0.0
 10
-92.4797263501
 20
-5.0403176206
 30
0.0
 10
-92.4603601171
 20
-5.1635678931
 30
0.0
 10
-92.4443739058
 20
-5.31822434
 30
0.0
 10
-92.4364137017
 20
-5.426389789
 30
0.0
 10
-92.434390185
 20
-5.4570023233
 30
0.0
 11
-92.4894627643
 21
-4.9943443607
 31
0.0
 11
-92.4660718539
 21
-5.1332359724
 31
0.0
 11
-92.4411729904
 21
-5.3652133131
 31
0.0
 11
-92.434390185
 21
-5.4570023233
 31
0.0
  0
ELLIPSE
  5
59C
100
AcDbEntity
  8
RACCORDO
100
AcDbEllipse
 62
7
  6
CONTINUOUS
 10
49.5646994317
 20
-5.8592736119
 30
0.0
 11
48.95
 21
-0.0011072196
 31
0.0
 40
0.0087268385
 41
1.687392276
 42
1.7474954401
  0
ELLIPSE
  5
59D
100
AcDbEntity
  8
RACCORDO
100
AcDbEllipse
 62
7
  6
CONTINUOUS
 10
49.5646994317
 20
-14.1379873361
 30
0.0
 11
48.95
 21
0.0011072196
 31
0.0
 40
0.0087268385
 41
-1.7474954401
 42
-1.687392276
  0
ELLIPSE
  5
59E
100
AcDbEntity
  8
RACCORDO
100
AcDbEllipse
 62
7
  6
CONTINUOUS
 10
49.5646994317
 20
-14.1379873361
 30
0.0
 11
47.7048643884
 21
0.0010790554
 31
0.0
 40
0.0087268385
 41
-2.0785621086
 42
-1.8482191221
  0
ELLIPSE
  5
59F
100
AcDbEntity
  8
RACCORDO
100
AcDbEllipse
 62
7
  6
CONTINUOUS
 10
49.5646994317
 20
-5.8592736119
 30
0.0
 11
47.7048643884
 21
-0.0010790554
 31
0.0
 40
0.0087268385
 41
1.8482191221
 42
2.0785621086
  0
ELLIPSE
  5
5A0
100
AcDbEntity
  8
DRAFT
100
AcDbEllipse
 62
7
  6
CONTINUOUS
 10
39.0
 20
-5.4174706036
 30
0.0
 11
0.75
 21
-0.0000169645
 31
0.0
 40
0.0087268385
 41
-3.1390007243
 42
-0.000057513
  0
ELLIPSE
  5
5A1
100
AcDbEntity
  8
DRAFT
100
AcDbEllipse
 62
7
  6
CONTINUOUS
 10
39.0
 20
-14.5797903445
 30
0.0
 11
0.75
 21
0.0000169645
 31
0.0
 40
0.0087268385
 41
0.000057513
 42
3.1390007243
  0
ELLIPSE
  5
5A2
100
AcDbEntity
  8
DRAFT
100
AcDbEllipse
 62
7
  6
CONTINUOUS
 10
26.3741760277
 20
-13.6986000113
 30
0.0
 11
0.5531241936
 21
0.5780562313
 31
0.0
 40
0.9999237765
 41
-3.9489898986
 42
-3.5869298333
  0
ELLIPSE
  5
5A3
100
AcDbEntity
  8
DRAFT
100
AcDbEllipse
 62
7
  6
CONTINUOUS
 10
26.3741760277
 20
-6.2986609367
 30
0.0
 11
-0.5531241936
 21
0.5780562313
 31
0.0
 40
0.9999237765
 41
6.7285224869
 42
7.0905825521
  0
ELLIPSE
  5
5A4
100
AcDbEntity
  8
RACCORDO
100
AcDbEllipse
 62
7
  6
CONTINUOUS
 10
-49.4335266109
 20
-14.1379873361
 30
0.0
 11
48.95
 21
0.0
 31
0.0
 40
0.0087268678
 41
-1.4567923069
 42
-1.3966891428
  0
ELLIPSE
  5
5A5
100
AcDbEntity
  8
RACCORDO
100
AcDbEllipse
 62
7
  6
CONTINUOUS
 10
-49.4335266109
 20
-5.8592736119
 30
0.0
 11
48.95
 21
0.0
 31
0.0
 40
0.0087268678
 41
1.3966891428
 42
1.4567923069
  0
ELLIPSE
  5
5A6
100
AcDbEntity
  8
RACCORDO
100
AcDbEllipse
 62
7
  6
CONTINUOUS
 10
-49.4335266109
 20
-5.8592736119
 30
0.0
 11
47.7048643884
 21
0.0
 31
0.0
 40
0.0087268678
 41
1.0656224743
 42
1.2959654608
  0
ELLIPSE
  5
5A7
100
AcDbEntity
  8
RACCORDO
100
AcDbEllipse
 62
7
  6
CONTINUOUS
 10
-49.4335266109
 20
-14.1379873361
 30
0.0
 11
47.7048643884
 21
0.0
 31
0.0
 40
0.0087268678
 41
-1.2959654608
 42
-1.0656224743
  0
ELLIPSE
  5
5A8
100
AcDbEntity
  8
DRAFT
100
AcDbEllipse
 62
7
  6
CONTINUOUS
 10
-39.0
 20
-5.4174706036
 30
0.0
 11
0.75
 21
-0.0
 31
0.0
 40
0.0087268678
 41
3.1415926536
 42
6.2831853072
  0
ELLIPSE
  5
5A9
100
AcDbEntity
  8
DRAFT
100
AcDbEllipse
 62
7
  6
CONTINUOUS
 10
-39.0
 20
-14.5797903445
 30
0.0
 11
0.75
 21
0.0
 31
0.0
 40
0.0087268678
 41
0.0
 42
3.1415926536
  0
ELLIPSE
  5
5AA
100
AcDbEntity
  8
DRAFT
100
AcDbEllipse
 62
7
  6
CONTINUOUS
 10
-26.3500304627
 20
-6.2986609367
 30
0.0
 11
0.5657285049
 21
0.5657285049
 31
0.0
 40
0.9999238505
 41
-0.7853600872
 42
-0.4233000219
  0
ELLIPSE
  5
5AB
100
AcDbEntity
  8
DRAFT
100
AcDbEllipse
 62
7
  6
CONTINUOUS
 10
-26.3500304627
 20
-13.6986000113
 30
0.0
 11
0.5657285049
 21
-0.5657285049
 31
0.0
 40
0.9999238505
 41
6.706485329
 42
7.0685453944
  0
ELLIPSE
  5
5AC
100
AcDbEntity
  8
RACCORDO
100
AcDbEllipse
 62
7
  6
CONTINUOUS
 10
-11.2829233057
 20
-47.0015979949
 30
0.0
 11
0.4871252033
 21
0.1158603371
 31
0.0
 40
0.998011014
 41
-2.9055826569
 42
-1.8047513509
  0
ELLIPSE
  5
5AD
100
AcDbEntity
  8
RACCORDO
100
AcDbEllipse
 62
7
  6
CONTINUOUS
 10
11.2829233057
 20
-47.0015979949
 30
0.0
 11
0.4871252033
 21
-0.1158603371
 31
0.0
 40
0.998011014
 41
-1.3368413027
 42
-0.2360099967
  0
ELLIPSE
  5
5AE
100
AcDbEntity
  8
DRAFT
100
AcDbEllipse
 62
7
  6
CONTINUOUS
 10
26.2
 20
-13.294818512
 30
0.0
 11
0.0
 21
1.4077311343
 31
0.0
 40
0.8660473877
 41
-4.1888341742
 42
-4.1586733126
  0
ELLIPSE
  5
5AF
100
AcDbEntity
  8
DRAFT
100
AcDbEllipse
 62
7
  6
CONTINUOUS
 10
26.2
 20
-6.702442436
 30
0.0
 11
-0.0
 21
1.4077311343
 31
0.0
 40
0.8660473877
 41
7.3002659662
 42
7.3304268278
  0
ELLIPSE
  5
5B0
100
AcDbEntity
  8
DRAFT
100
AcDbEllipse
 62
7
  6
CONTINUOUS
 10
-26.2
 20
-13.294818512
 30
0.0
 11
0.0
 21
1.4077311343
 31
0.0
 40
0.8660473877
 41
4.1586733126
 42
4.1888341742
  0
ELLIPSE
  5
5B1
100
AcDbEntity
  8
DRAFT
100
AcDbEllipse
 62
7
  6
CONTINUOUS
 10
-26.2
 20
-6.702442436
 30
0.0
 11
0.0
 21
1.4077311343
 31
0.0
 40
0.8660473877
 41
-1.0472415206
 42
-1.017080659
  0
ELLIPSE
  5
5B2
100
AcDbEntity
  8
RACCORDO
100
AcDbEllipse
 62
7
  6
CONTINUOUS
 10
0.0
 20
-48.0227082668
 30
0.0
 11
30.0
 21
0.0
 31
0.0
 40
0.0524077793
 41
1.2898289005
 42
1.8517637531
  0
ELLIPSE
  5
5B3
100
AcDbEntity
  8
RACCORDO
100
AcDbEllipse
 62
7
  6
CONTINUOUS
 10
-7.2094170048
 20
-46.7135368629
 30
0.0
 11
4.0
 21
0.0
 31
0.0
 40
0.0524077793
 41
1.8517637531
 42
3.089232776
  0
ELLIPSE
  5
5B4
100
AcDbEntity
  8
RACCORDO
100
AcDbEllipse
 62
7
  6
CONTINUOUS
 10
7.2094170048
 20
-46.7135368629
 30
0.0
 11
4.0
 21
0.0
 31
0.0
 40
0.0524077793
 41
0.0523598776
 42
1.2898289005
  0
ELLIPSE
  5
5B5
100
AcDbEntity
  8
RACCORDO
100
AcDbEllipse
 62
7
  6
CONTINUOUS
 10
45.497255308
 20
-45.495885782
 30
0.0
 11
1.4180924869
 21
-1.4180924869
 31
0.0
 40
0.9972646886
 41
-0.7840286355
 42
0.7840286355
  0
ELLIPSE
  5
5B6
100
AcDbEntity
  8
RACCORDO
100
AcDbEllipse
 62
7
  6
CONTINUOUS
 10
45.497255308
 20
45.498624834
 30
0.0
 11
1.4180924869
 21
1.4180924869
 31
0.0
 40
0.9972646886
 41
-0.2612309992
 42
0.7840286355
  0
ELLIPSE
  5
5B7
100
AcDbEntity
  8
RACCORDO
100
AcDbEllipse
 62
7
  6
CONTINUOUS
 10
-45.497255308
 20
45.498624834
 30
0.0
 11
1.4180924869
 21
-1.4180924869
 31
0.0
 40
0.9972646886
 41
2.3575640181
 42
3.9256212891
  0
ELLIPSE
  5
5B8
100
AcDbEntity
  8
RACCORDO
100
AcDbEllipse
 62
7
  6
CONTINUOUS
 10
-45.497255308
 20
-45.495885782
 30
0.0
 11
1.4180924869
 21
1.4180924869
 31
0.0
 40
0.9972646886
 41
-3.9256212891
 42
-2.3575640181
  0
ELLIPSE
  5
5B9
100
AcDbEntity
  8
RACCORDO
100
AcDbEllipse
 62
7
  6
CONTINUOUS
 10
49.4335266109
 20
-4.583008069
 30
0.0
 11
49.65
 21
0.0
 31
0.0
 40
0.0087268678
 41
-2.0577616784
 42
-1.8379687581
  0
ELLIPSE
  5
5BA
100
AcDbEntity
  8
RACCORDO
100
AcDbEllipse
 62
7
  6
CONTINUOUS
 10
-49.4335266109
 20
-4.583008069
 30
0.0
 11
49.65
 21
0.0
 31
0.0
 40
0.0087268678
 41
-1.3036238955
 42
-1.0838309752
  0
ELLIPSE
  5
5BB
100
AcDbEntity
  8
RACCORDO
100
AcDbEllipse
 62
7
  6
CONTINUOUS
 10
-36.1144619686
 20
-14.9896026478
 30
0.0
 11
0.8
 21
0.0
 31
0.0
 40
0.0087268678
 41
-2.7052603406
 42
-1.8379687581
  0
ELLIPSE
  5
5BC
100
AcDbEntity
  8
RACCORDO
100
AcDbEllipse
 62
7
  6
CONTINUOUS
 10
-36.1144619686
 20
-5.0076583002
 30
0.0
 11
0.8
 21
0.0
 31
0.0
 40
0.0087268678
 41
1.8379687581
 42
2.7052603406
  0
ELLIPSE
  5
5BD
100
AcDbEntity
  8
RACCORDO
100
AcDbEllipse
 62
7
  6
CONTINUOUS
 10
36.1144619686
 20
-14.9896026478
 30
0.0
 11
0.8
 21
0.0
 31
0.0
 40
0.0087268678
 41
-1.3036238955
 42
-0.436332313
  0
ELLIPSE
  5
5BE
100
AcDbEntity
  8
RACCORDO
100
AcDbEllipse
 62
7
  6
CONTINUOUS
 10
36.1144619686
 20
-5.0076583002
 30
0.0
 11
0.8
 21
0.0
 31
0.0
 40
0.0087268678
 41
0.436332313
 42
1.3036238955
  0
ELLIPSE
  5
5BF
100
AcDbEntity
  8
RACCORDO
100
AcDbEllipse
 62
7
  6
CONTINUOUS
 10
49.4335266109
 20
-15.414252879
 30
0.0
 11
49.65
 21
0.0
 31
0.0
 40
0.0087268678
 41
1.8379687581
 42
2.0577616784
  0
ELLIPSE
  5
5C0
100
AcDbEntity
  8
RACCORDO
100
AcDbEllipse
 62
7
  6
CONTINUOUS
 10
-49.4335266109
 20
-15.414252879
 30
0.0
 11
49.65
 21
0.0
 31
0.0
 40
0.0087268678
 41
1.0838309752
 42
1.3036238955
  0
ENDSEC
  0
SECTION
  2
OBJECTS
  0
DICTIONARY
  5
C
100
AcDbDictionary
280
0
281
1
  3
ACAD_GROUP
350
D
  3
ACAD_MLINESTYLE
350
17
  3
ACAD_LAYOUT
350
1A
  3
ACAD_PLOTSETTINGS
350
19
  3
ACAD_PLOTSTYLENAME
350
E
  0
DICTIONARY
  5
D
102
{ACAD_REACTORS
330
C
102
}
100
AcDbDictionary
280
0
281
1
  0
ACDBDICTIONARYWDFLT
  5
E
102
{ACAD_REACTORS
330
C
102
}
100
AcDbDictionary
281
1
  3
Normal
350
F
100
AcDbDictionaryWithDefault
340
F
  0
DICTIONARY
  5
17
102
{ACAD_REACTORS
330
C
102
}
100
AcDbDictionary
280
0
281
1
  3
Standard
350
18
  0
DICTIONARY
  5
19
102
{ACAD_REACTORS
330
C
102
}
100
AcDbDictionary
281
1
  0
DICTIONARY
  5
1A
102
{ACAD_REACTORS
330
C
102
}
100
AcDbDictionary
281
1
  3
Model
350
5C1
  3
Layout1
350
5C2
  0
ACDBPLACEHOLDER
  5
F
102
{ACAD_REACTORS
330
E
102
}
  0
MLINESTYLE
  5
18
102
{ACAD_REACTORS
330
17
102
}
100
AcDbMlineStyle
  2
STANDARD
 70
0
  3

 62
256
 51
90.0
 52
90.0
 71
2
 49
0.5
 62
256
  6
BYLAYER
 49
-0.5
 62
256
  6
BYLAYER
  0
LAYOUT
  5
5C1
102
{ACAD_REACTORS
330
1A
102
}
100
AcDbPlotSettings
  1

  2
none_device
  4
ISO_A4_(297.00_x_210.00_MM)
  6

 40
0.0
 41
0.0
 42
0.0
 43
0.0
 44
297.0
 45
210.0
 46
0.0
 47
0.0
 48
0.0
 49
0.0
140
0.0
141
0.0
142
1.0
143
1.0
 70
1024
 72
1
 73
0
 74
0
  7

 75
0
147
1.0
148
0.0
149
0.0
100
AcDbLayout
  1
Model
 70
0
 71
0
 10
0.0
 20
0.0
 11
297.0
 21
210.0
 12
0.0
 22
0.0
 32
0.0
 14
0.0
 24
0.0
 34
0.0
 15
0.0
 25
0.0
 35
0.0
146
0.0
 13
0.0
 23
0.0
 33
0.0
 16
1.0
 26
0.0
 36
0.0
 17
0.0
 27
1.0
 37
0.0
 76
0
330
218
345
0
346
0
  0
LAYOUT
  5
5C2
102
{ACAD_REACTORS
330
1A
102
}
100
AcDbPlotSettings
  1

  2
none_device
  4
ISO_A4_(297.00_x_210.00_MM)
  6

 40
0.0
 41
0.0
 42
0.0
 43
0.0
 44
297.0
 45
210.0
 46
0.0
 47
0.0
 48
0.0
 49
0.0
140
0.0
141
0.0
142
1.0
143
1.0
 70
0
 72
1
 73
0
 74
0
  7

 75
0
147
1.0
148
0.0
149
0.0
100
AcDbLayout
  1
Layout1
 70
0
 71
1
 10
0.0
 20
0.0
 11
297.0
 21
210.0
 12
0.0
 22
0.0
 32
0.0
 14
0.0
 24
0.0
 34
0.0
 15
0.0
 25
0.0
 35
0.0
146
0.0
 13
0.0
 23
0.0
 33
0.0
 16
1.0
 26
0.0
 36
0.0
 17
0.0
 27
1.0
 37
0.0
 76
0
330
219
345
0
346
0
  0
ENDSEC
  0
EOF
