  0
SECTION
  2
HEADER
  9
$ACADVER
  1
AC1024
  9
$DWGCODEPAGE
  3
ANSI_1252
  9
$EXTMAX
 10
297.0
 20
210.0
 30
0.0
  9
$EXTMIN
 10
0.0
 20
0.0
 30
0.0
  9
$LIMMIN
 10
0.0
 20
0.0
  9
$LIMMAX
 10
297.0
 20
210.0
  9
$VIEWCTR
 10
148.5
 20
105.0
  9
$VIEWSIZE
 40
210.0
  9
$CLAYER
  8
0
  9
$LTSCALE
 40
16.335
  9
$CELTYPE
  6
BYLAYER
  9
$DIMSCALE
 40
1.0
  9
$DIMASZ
 40
3.0
  9
$DIMEXO
 40
0.5
  9
$DIMDLI
 40
11.286
  9
$DIMEXE
 40
1.5
  9
$DIMCEN
 40
2.673
  9
$DIMLFAC
 40
1.0
  9
$DIMBLK
  1
_FILLED
  9
$DIMALT
 70
0
  9
$DIMALTF
 40
0.0393700787
  9
$DIMTXT
 40
3.0
  9
$DIMTOL
 70
1
  9
$DIMLIM
 70
0
  9
$DIMTFAC
 40
1.0
  9
$DIMTP
 40
0.01
  9
$DIMTM
 40
0.01
  9
$DIMGAP
 40
0.625
  9
$DIMDSEP
 70
44
  9
$AUNITS
 70
0
  9
$PDMODE
 70
3
  9
$PDSIZE
 40
3.0
  9
$HANDSEED
  5
70F
  9
$TILEMODE
 70
1
  9
$MEASUREMENT
 70
1
  9
$INSUNITS
 70
4
  0
ENDSEC
  0
SECTION
  2
CLASSES
  0
CLASS
  1
ACDBDICTIONARYWDFLT
  2
AcDbDictionaryWithDefault
  3
AutoCAD 2000
 90
0
 91
1
280
0
281
0
  0
CLASS
  1
ACDBPLACEHOLDER
  2
AcDbPlaceHolder
  3
AutoCAD 2000
 90
0
 91
1
280
0
281
0
  0
CLASS
  1
LAYOUT
  2
AcDbLayout
  3
AutoCAD 2000
 90
0
 91
0
280
0
281
0
  0
ENDSEC
  0
SECTION
  2
TABLES
  0
TABLE
  2
VPORT
  5
8
100
AcDbSymbolTable
 70
2
  0
VPORT
  5
1F4
100
AcDbSymbolTableRecord
100
AcDbViewportTableRecord
  2
*ACTIVE
 70
0
 10
0.0
 20
0.0
 11
1.0
 21
1.0
 12
148.5
 22
105.0
 13
0.0
 23
0.0
 14
1.0
 24
1.0
 15
0.0
 25
0.0
 16
0.0
 26
0.0
 36
1.0
 17
0.0
 27
0.0
 37
0.0
 40
210.0
 41
1.4142857143
 42
50.0
 43
0.0
 44
0.0
 50
0.0
 51
0.0
 71
0
 72
100
 73
1
 74
1
 75
0
 76
0
 77
0
 78
0
  0
ENDTAB
  0
TABLE
  2
LTYPE
  5
5
100
AcDbSymbolTable
 70
6
  0
LTYPE
  5
14
100
AcDbSymbolTableRecord
100
AcDbLinetypeTableRecord
  2
BYBLOCK
 70
0
  3

 72
65
 73
0
 40
0.0
  0
LTYPE
  5
15
100
AcDbSymbolTableRecord
100
AcDbLinetypeTableRecord
  2
BYLAYER
 70
0
  3

 72
65
 73
0
 40
0.0
  0
LTYPE
  5
16
100
AcDbSymbolTableRecord
100
AcDbLinetypeTableRecord
  2
CONTINUOUS
 70
64
  3
Solid line
 72
65
 73
0
 40
0.0
  0
LTYPE
  5
1F5
100
AcDbSymbolTableRecord
100
AcDbLinetypeTableRecord
  2
CENTER
 70
64
  3
____ _ ____ _ ____ _ ____ _ ____ _ ____ _ ____
 72
65
 73
4
 40
0.6
 49
0.375
 74
0
 49
-0.075
 74
0
 49
0.075
 74
0
 49
-0.075
 74
0
  0
LTYPE
  5
1F6
100
AcDbSymbolTableRecord
100
AcDbLinetypeTableRecord
  2
HIDDEN
 70
64
  3
- - - - - - - - - - - - - - - - - - - -
 72
65
 73
2
 40
0.2
 49
0.1
 74
0
 49
-0.1
 74
0
  0
LTYPE
  5
1F7
100
AcDbSymbolTableRecord
100
AcDbLinetypeTableRecord
  2
PHANTOM
 70
64
  3
_____ _ _ _____ _ _ _____ _ _ _____
 72
65
 73
6
 40
0.8
 49
0.45
 74
0
 49
-0.05
 74
0
 49
0.1
 74
0
 49
-0.05
 74
0
 49
0.1
 74
0
 49
-0.05
 74
0
  0
LTYPE
  5
1F8
100
AcDbSymbolTableRecord
100
AcDbLinetypeTableRecord
  2
DOT
 70
64
  3
. . . . . . . . . . . . . . . . . . . .
 72
65
 73
2
 40
0.2
 49
0.1
 74
0
 49
-0.1
 74
0
  0
LTYPE
  5
1F9
100
AcDbSymbolTableRecord
100
AcDbLinetypeTableRecord
  2
DASHED
 70
64
  3
- - - - - - - - - - - - - - - - - - - -
 72
65
 73
2
 40
0.2
 49
0.1
 74
0
 49
-0.1
 74
0
  0
ENDTAB
  0
TABLE
  2
LAYER
  5
2
100
AcDbSymbolTable
 70
36
  0
LAYER
  5
10
100
AcDbSymbolTableRecord
100
AcDbLayerTableRecord
  2
0
 70
0
 62
7
  6
CONTINUOUS
370
-3
390
F
  0
LAYER
  5
1FA
100
AcDbSymbolTableRecord
100
AcDbLayerTableRecord
  2
DEFAULT_1
 70
0
 62
7
  6
CENTER
370
-3
390
F
  0
LAYER
  5
1FB
100
AcDbSymbolTableRecord
100
AcDbLayerTableRecord
  2
DEFAULT_2
 70
0
 62
7
  6
HIDDEN
370
-3
390
F
  0
LAYER
  5
1FC
100
AcDbSymbolTableRecord
100
AcDbLayerTableRecord
  2
DEFAULT_3
 70
0
 62
7
  6
PHANTOM
370
-3
390
F
  0
LAYER
  5
1FD
100
AcDbSymbolTableRecord
100
AcDbLayerTableRecord
  2
320
 70
0
 62
7
  6
CONTINUOUS
370
-3
390
F
  0
LAYER
  5
1FE
100
AcDbSymbolTableRecord
100
AcDbLayerTableRecord
  2
ASSI
 70
0
 62
7
  6
CONTINUOUS
370
-3
390
F
  0
LAYER
  5
1FF
100
AcDbSymbolTableRecord
100
AcDbLayerTableRecord
  2
COORDINATE
 70
0
 62
7
  6
CONTINUOUS
370
-3
390
F
  0
LAYER
  5
200
100
AcDbSymbolTableRecord
100
AcDbLayerTableRecord
  2
COORD_ORIGINE
 70
0
 62
7
  6
CONTINUOUS
370
-3
390
F
  0
LAYER
  5
201
100
AcDbSymbolTableRecord
100
AcDbLayerTableRecord
  2
COPY-PUBBLISH
 70
0
 62
7
  6
CONTINUOUS
370
-3
390
F
  0
LAYER
  5
202
100
AcDbSymbolTableRecord
100
AcDbLayerTableRecord
  2
COSMETICHE
 70
0
 62
7
  6
CONTINUOUS
370
-3
390
F
  0
LAYER
  5
203
100
AcDbSymbolTableRecord
100
AcDbLayerTableRecord
  2
CURVA_CENTRALE
 70
0
 62
7
  6
CONTINUOUS
370
-3
390
F
  0
LAYER
  5
204
100
AcDbSymbolTableRecord
100
AcDbLayerTableRecord
  2
CURVE
 70
0
 62
7
  6
CONTINUOUS
370
-3
390
F
  0
LAYER
  5
205
100
AcDbSymbolTableRecord
100
AcDbLayerTableRecord
  2
DRAFT
 70
0
 62
7
  6
CONTINUOUS
370
-3
390
F
  0
LAYER
  5
206
100
AcDbSymbolTableRecord
100
AcDbLayerTableRecord
  2
IMPORTED
 70
0
 62
7
  6
CONTINUOUS
370
-3
390
F
  0
LAYER
  5
207
100
AcDbSymbolTableRecord
100
AcDbLayerTableRecord
  2
INCISIONI
 70
0
 62
7
  6
CONTINUOUS
370
-3
390
F
  0
LAYER
  5
208
100
AcDbSymbolTableRecord
100
AcDbLayerTableRecord
  2
INTF_1
 70
0
 62
7
  6
CONTINUOUS
370
-3
390
F
  0
LAYER
  5
209
100
AcDbSymbolTableRecord
100
AcDbLayerTableRecord
  2
INTF_11
 70
0
 62
7
  6
CONTINUOUS
370
-3
390
F
  0
LAYER
  5
20A
100
AcDbSymbolTableRecord
100
AcDbLayerTableRecord
  2
INTF_2
 70
0
 62
7
  6
CONTINUOUS
370
-3
390
F
  0
LAYER
  5
20B
100
AcDbSymbolTableRecord
100
AcDbLayerTableRecord
  2
INTF_5
 70
0
 62
7
  6
CONTINUOUS
370
-3
390
F
  0
LAYER
  5
20C
100
AcDbSymbolTableRecord
100
AcDbLayerTableRecord
  2
INTF_CYAN
 70
0
 62
7
  6
CONTINUOUS
370
-3
390
F
  0
LAYER
  5
20D
100
AcDbSymbolTableRecord
100
AcDbLayerTableRecord
  2
NOTE
 70
0
 62
7
  6
CONTINUOUS
370
-3
390
F
  0
LAYER
  5
20E
100
AcDbSymbolTableRecord
100
AcDbLayerTableRecord
  2
ON_OFF_ANCORINA
 70
0
 62
7
  6
CONTINUOUS
370
-3
390
F
  0
LAYER
  5
20F
100
AcDbSymbolTableRecord
100
AcDbLayerTableRecord
  2
ON_OFF_CONTATTI
 70
0
 62
7
  6
CONTINUOUS
370
-3
390
F
  0
LAYER
  5
210
100
AcDbSymbolTableRecord
100
AcDbLayerTableRecord
  2
ON_OFF_CORPO
 70
0
 62
7
  6
CONTINUOUS
370
-3
390
F
  0
LAYER
  5
211
100
AcDbSymbolTableRecord
100
AcDbLayerTableRecord
  2
ON_OFF_PORTATASTO
 70
0
 62
7
  6
CONTINUOUS
370
-3
390
F
  0
LAYER
  5
212
100
AcDbSymbolTableRecord
100
AcDbLayerTableRecord
  2
ON_OFF_SUPPORTO_PERNO
 70
0
 62
7
  6
CONTINUOUS
370
-3
390
F
  0
LAYER
  5
213
100
AcDbSymbolTableRecord
100
AcDbLayerTableRecord
  2
ON_OFF_TASTOTARGHETTA
 70
0
 62
7
  6
CONTINUOUS
370
-3
390
F
  0
LAYER
  5
214
100
AcDbSymbolTableRecord
100
AcDbLayerTableRecord
  2
PIANI
 70
0
 62
7
  6
CONTINUOUS
370
-3
390
F
  0
LAYER
  5
215
100
AcDbSymbolTableRecord
100
AcDbLayerTableRecord
  2
PIANI_ORIGINE
 70
0
 62
7
  6
CONTINUOUS
370
-3
390
F
  0
LAYER
  5
216
100
AcDbSymbolTableRecord
100
AcDbLayerTableRecord
  2
PIANI_RIFERIMENTO
 70
0
 62
7
  6
CONTINUOUS
370
-3
390
F
  0
LAYER
  5
217
100
AcDbSymbolTableRecord
100
AcDbLayerTableRecord
  2
PUNTI
 70
0
 62
7
  6
CONTINUOUS
370
-3
390
F
  0
LAYER
  5
218
100
AcDbSymbolTableRecord
100
AcDbLayerTableRecord
  2
RACCORDO
 70
0
 62
7
  6
CONTINUOUS
370
-3
390
F
  0
LAYER
  5
219
100
AcDbSymbolTableRecord
100
AcDbLayerTableRecord
  2
RGB__255__255__255__
 70
0
 62
7
  6
CONTINUOUS
370
-3
390
F
  0
LAYER
  5
21A
100
AcDbSymbolTableRecord
100
AcDbLayerTableRecord
  2
RGB____0____0____0__
 70
0
 62
7
  6
CONTINUOUS
370
-3
390
F
  0
LAYER
  5
21B
100
AcDbSymbolTableRecord
100
AcDbLayerTableRecord
  2
SMUSSO
 70
0
 62
7
  6
CONTINUOUS
370
-3
390
F
  0
LAYER
  5
21C
100
AcDbSymbolTableRecord
100
AcDbLayerTableRecord
  2
SNAPLINE
 70
0
 62
7
  6
CONTINUOUS
370
-3
390
F
  0
LAYER
  5
21D
100
AcDbSymbolTableRecord
100
AcDbLayerTableRecord
  2
SUPERFICI
 70
0
 62
7
  6
CONTINUOUS
370
-3
390
F
  0
LAYER
  5
21E
100
AcDbSymbolTableRecord
100
AcDbLayerTableRecord
  2
TRACCIABILITA
 70
0
 62
7
  6
CONTINUOUS
370
-3
390
F
  0
LAYER
  5
21F
100
AcDbSymbolTableRecord
100
AcDbLayerTableRecord
  2
TRASH
 70
0
 62
7
  6
CONTINUOUS
370
-3
390
F
  0
LAYER
  5
220
100
AcDbSymbolTableRecord
100
AcDbLayerTableRecord
  2
XSEC_DATUMS
 70
0
 62
7
  6
CONTINUOUS
370
-3
390
F
  0
ENDTAB
  0
TABLE
  2
STYLE
  5
3
100
AcDbSymbolTable
 70
1
  0
STYLE
  5
11
100
AcDbSymbolTableRecord
100
AcDbTextStyleTableRecord
  2
STANDARD
 70
0
 40
0.0
 41
0.8
 50
0.0
 71
0
 42
0.2
  3
txt
  4

  0
STYLE
  5
221
100
AcDbSymbolTableRecord
100
AcDbTextStyleTableRecord
  2
TEXTSTYLE_1
 70
0
 40
0.0
 41
0.8
 50
0.0
 71
0
 42
0.2
  3
gdt
  4

  0
ENDTAB
  0
TABLE
  2
VIEW
  5
6
100
AcDbSymbolTable
 70
0
  0
ENDTAB
  0
TABLE
  2
UCS
  5
7
100
AcDbSymbolTable
 70
0
  0
ENDTAB
  0
TABLE
  2
APPID
  5
9
100
AcDbSymbolTable
 70
1
  0
APPID
  5
222
100
AcDbSymbolTableRecord
100
AcDbRegAppTableRecord
  2
ACAD
 70
0
  0
ENDTAB
  0
TABLE
  2
BLOCK_RECORD
  5
1
100
AcDbSymbolTable
 70
0
  0
BLOCK_RECORD
  5
223
100
AcDbSymbolTableRecord
100
AcDbBlockTableRecord
  2
*Model_Space
  0
BLOCK_RECORD
  5
224
100
AcDbSymbolTableRecord
100
AcDbBlockTableRecord
  2
*Paper_Space
  0
BLOCK_RECORD
  5
225
100
AcDbSymbolTableRecord
100
AcDbBlockTableRecord
  2
_FILLED
  0
BLOCK_RECORD
  5
226
100
AcDbSymbolTableRecord
100
AcDbBlockTableRecord
  2
*D0
  0
BLOCK_RECORD
  5
227
100
AcDbSymbolTableRecord
100
AcDbBlockTableRecord
  2
*D1
  0
BLOCK_RECORD
  5
228
100
AcDbSymbolTableRecord
100
AcDbBlockTableRecord
  2
*D2
  0
BLOCK_RECORD
  5
229
100
AcDbSymbolTableRecord
100
AcDbBlockTableRecord
  2
*D3
  0
ENDTAB
  0
TABLE
  2
DIMSTYLE
  5
A
100
AcDbSymbolTable
 70
1
100
AcDbDimStyleTable
 71
0
  0
DIMSTYLE
105
22A
100
AcDbSymbolTableRecord
100
AcDbDimStyleTableRecord
  2
STANDARD
 70
0
  3

  4

 40
1.0
 41
3.0
 42
0.5
 43
0.38
 44
1.5
 45
0.0
 46
0.0
 47
0.01
 48
0.01
140
3.0
141
0.09
142
0.0
143
25.4
144
1.0
145
0.0
146
1.0
147
0.625
 71
1.0
 72
0.0
 73
0
 74
0
 75
0
 76
0
 77
1
 78
8
 79
2
170
0
171
1
172
0
173
0
174
0
175
0
176
0
177
0
178
0
270
2
179
2
271
2
272
2
273
2
274
2
275
0
280
0
281
0
282
0
283
1
284
8
285
0
286
0
287
3
288
0
340
11
278
44
341
225
342
225
343
225
344
225
  0
DIMSTYLE
105
22B
100
AcDbSymbolTableRecord
100
AcDbDimStyleTableRecord
  2
DIMSTYLE_1
 70
0
  3

  4

 40
1.0
 41
3.0
 42
0.5
 43
0.38
 44
1.5
 45
0.0
 46
0.0
 47
0.0
 48
0.0
140
3.0
141
0.09
142
0.0
143
25.4
144
1.0
145
0.0
146
1.0
147
0.75
 71
0.0
 72
0.0
 73
0
 74
0
 75
0
 76
0
 77
1
 78
8
 79
2
170
0
171
1
172
0
173
0
174
0
175
0
176
0
177
0
178
0
270
2
179
2
271
1
272
1
273
2
274
2
275
0
280
0
281
0
282
0
283
1
284
8
285
0
286
0
287
3
288
0
340
11
278
44
341
225
342
225
343
225
344
225
  0
DIMSTYLE
105
22C
100
AcDbSymbolTableRecord
100
AcDbDimStyleTableRecord
  2
DIMSTYLE_2
 70
0
  3

  4

 40
1.0
 41
3.0
 42
0.5
 43
0.38
 44
1.5
 45
0.0
 46
0.0
 47
0.0
 48
0.0
140
3.0
141
0.09
142
0.0
143
25.4
144
1.0
145
0.0
146
1.0
147
0.75
 71
0.0
 72
0.0
 73
0
 74
0
 75
0
 76
0
 77
1
 78
8
 79
2
170
0
171
1
172
0
173
0
174
0
175
0
176
0
177
0
178
0
270
2
179
2
271
2
272
2
273
2
274
2
275
0
280
0
281
0
282
0
283
1
284
8
285
0
286
0
287
3
288
0
340
11
278
44
341
225
342
225
343
225
344
225
  0
ENDTAB
  0
ENDSEC
  0
SECTION
  2
BLOCKS
  0
BLOCK
  5
20
100
AcDbEntity
  8
0
100
AcDbBlockBegin
  2
*Model_Space
 70
0
 10
0.0
 20
0.0
 30
0.0
  3
*Model_Space
  1

  0
ENDBLK
  5
21
100
AcDbEntity
  8
0
100
AcDbBlockEnd
  0
BLOCK
  5
1C
100
AcDbEntity
  8
0
100
AcDbBlockBegin
  2
*Paper_Space
 70
0
 10
0.0
 20
0.0
 30
0.0
  3
*Paper_Space
  1

  0
ENDBLK
  5
1D
100
AcDbEntity
  8
0
100
AcDbBlockEnd
  0
BLOCK
  5
22D
100
AcDbEntity
  8
0
100
AcDbBlockBegin
  2
_FILLED
 70
64
 10
0.0
 20
0.0
  3
_FILLED
  1

  0
SOLID
  5
22E
100
AcDbEntity
  8
0
  6
BYBLOCK
 62
0
100
AcDbTrace
 10
0.0
 20
0.0
 11
-1.0
 21
0.3166666667
 12
-1.0
 22
-0.3166666667
 13
-1.0
 23
-0.3166666667
  0
ENDBLK
  5
22F
100
AcDbEntity
  8
0
  6
BYBLOCK
 62
0
100
AcDbBlockEnd
  0
BLOCK
  5
230
100
AcDbEntity
  8
0
100
AcDbBlockBegin
 62
7
  6
CONTINUOUS
  2
*D0
 70
65
 10
0.0
 20
0.0
  3
*D0
  1

  0
LINE
  5
231
100
AcDbEntity
  8
0
100
AcDbLine
 62
7
  6
CONTINUOUS
 10
106.3059722458
 20
107.0717926928
 11
106.3059722458
 21
137.8216694079
  0
LINE
  5
232
100
AcDbEntity
  8
0
100
AcDbLine
 62
7
  6
CONTINUOUS
 10
67.9420648842
 20
72.4712812813
 11
67.9420648842
 21
137.8216694079
  0
LINE
  5
233
100
AcDbEntity
  8
0
100
AcDbLine
 62
7
  6
CONTINUOUS
 10
106.3059722458
 20
136.3216694079
 11
87.124018565
 21
136.3216694079
  0
LINE
  5
234
100
AcDbEntity
  8
0
100
AcDbLine
 62
7
  6
CONTINUOUS
 10
67.9420648842
 20
136.3216694079
 11
87.124018565
 21
136.3216694079
  0
INSERT
  5
235
100
AcDbEntity
  8
0
100
AcDbBlockReference
 62
7
  6
CONTINUOUS
  2
_FILLED
 10
106.3059722458
 20
136.3216694079
 41
3.0
 42
3.0
 43
3.0
  0
INSERT
  5
236
100
AcDbEntity
  8
0
100
AcDbBlockReference
 62
7
  6
CONTINUOUS
  2
_FILLED
 10
67.9420648842
 20
136.3216694079
 41
3.0
 42
3.0
 43
3.0
 50
180.0
  0
ENDBLK
  5
237
100
AcDbEntity
  8
0
  6
BYBLOCK
 62
0
100
AcDbBlockEnd
  0
BLOCK
  5
238
100
AcDbEntity
  8
0
100
AcDbBlockBegin
 62
7
  6
CONTINUOUS
  2
*D1
 70
65
 10
0.0
 20
0.0
  3
*D1
  1

  0
LINE
  5
239
100
AcDbEntity
  8
0
100
AcDbLine
 62
7
  6
CONTINUOUS
 10
106.3059722458
 20
107.0717926928
 11
106.3059722458
 21
127.8216694079
  0
LINE
  5
23A
100
AcDbEntity
  8
0
100
AcDbLine
 62
7
  6
CONTINUOUS
 10
82.3059722458
 20
112.2630907641
 11
82.3059722458
 21
127.8216694079
  0
LINE
  5
23B
100
AcDbEntity
  8
0
100
AcDbLine
 62
7
  6
CONTINUOUS
 10
106.3059722458
 20
126.3216694079
 11
94.3059722458
 21
126.3216694079
  0
LINE
  5
23C
100
AcDbEntity
  8
0
100
AcDbLine
 62
7
  6
CONTINUOUS
 10
82.3059722458
 20
126.3216694079
 11
94.3059722458
 21
126.3216694079
  0
INSERT
  5
23D
100
AcDbEntity
  8
0
100
AcDbBlockReference
 62
7
  6
CONTINUOUS
  2
_FILLED
 10
106.3059722458
 20
126.3216694079
 41
3.0
 42
3.0
 43
3.0
  0
INSERT
  5
23E
100
AcDbEntity
  8
0
100
AcDbBlockReference
 62
7
  6
CONTINUOUS
  2
_FILLED
 10
82.3059722458
 20
126.3216694079
 41
3.0
 42
3.0
 43
3.0
 50
180.0
  0
ENDBLK
  5
23F
100
AcDbEntity
  8
0
  6
BYBLOCK
 62
0
100
AcDbBlockEnd
  0
BLOCK
  5
240
100
AcDbEntity
  8
0
100
AcDbBlockBegin
 62
7
  6
CONTINUOUS
  2
*D2
 70
65
 10
0.0
 20
0.0
  3
*D2
  1

  0
LINE
  5
241
100
AcDbEntity
  8
0
100
AcDbLine
 62
7
  6
CONTINUOUS
 10
179.9073077902
 20
116.3216694079
 11
193.2573035594
 21
116.3216694079
  0
LINE
  5
242
100
AcDbEntity
  8
0
100
AcDbLine
 62
7
  6
CONTINUOUS
 10
179.9073077902
 20
67.3216694079
 11
193.2573035594
 21
67.3216694079
  0
LINE
  5
243
100
AcDbEntity
  8
0
100
AcDbLine
 62
7
  6
CONTINUOUS
 10
191.7573035594
 20
116.3216694079
 11
191.7573035594
 21
91.8216694079
  0
LINE
  5
244
100
AcDbEntity
  8
0
100
AcDbLine
 62
7
  6
CONTINUOUS
 10
191.7573035594
 20
67.3216694079
 11
191.7573035594
 21
91.8216694079
  0
INSERT
  5
245
100
AcDbEntity
  8
0
100
AcDbBlockReference
 62
7
  6
CONTINUOUS
  2
_FILLED
 10
191.7573035594
 20
116.3216694079
 41
3.0
 42
3.0
 43
3.0
 50
90.0
  0
INSERT
  5
246
100
AcDbEntity
  8
0
100
AcDbBlockReference
 62
7
  6
CONTINUOUS
  2
_FILLED
 10
191.7573035594
 20
67.3216694079
 41
3.0
 42
3.0
 43
3.0
 50
270.0
  0
ENDBLK
  5
247
100
AcDbEntity
  8
0
  6
BYBLOCK
 62
0
100
AcDbBlockEnd
  0
BLOCK
  5
248
100
AcDbEntity
  8
0
100
AcDbBlockBegin
 62
7
  6
CONTINUOUS
  2
*D3
 70
65
 10
0.0
 20
0.0
  3
*D3
  1

  0
LINE
  5
249
100
AcDbEntity
  8
0
100
AcDbLine
 62
7
  6
CONTINUOUS
 10
135.3573035594
 20
114.2215742163
 11
135.3573035594
 21
127.8216694079
  0
LINE
  5
24A
100
AcDbEntity
  8
0
100
AcDbLine
 62
7
  6
CONTINUOUS
 10
180.1573035594
 20
114.2215742163
 11
180.1573035594
 21
127.8216694079
  0
LINE
  5
24B
100
AcDbEntity
  8
0
100
AcDbLine
 62
7
  6
CONTINUOUS
 10
135.3573035594
 20
126.3216694079
 11
157.7573035594
 21
126.3216694079
  0
LINE
  5
24C
100
AcDbEntity
  8
0
100
AcDbLine
 62
7
  6
CONTINUOUS
 10
180.1573035594
 20
126.3216694079
 11
157.7573035594
 21
126.3216694079
  0
INSERT
  5
24D
100
AcDbEntity
  8
0
100
AcDbBlockReference
 62
7
  6
CONTINUOUS
  2
_FILLED
 10
135.3573035594
 20
126.3216694079
 41
3.0
 42
3.0
 43
3.0
 50
180.0
  0
INSERT
  5
24E
100
AcDbEntity
  8
0
100
AcDbBlockReference
 62
7
  6
CONTINUOUS
  2
_FILLED
 10
180.1573035594
 20
126.3216694079
 41
3.0
 42
3.0
 43
3.0
  0
ENDBLK
  5
24F
100
AcDbEntity
  8
0
  6
BYBLOCK
 62
0
100
AcDbBlockEnd
  0
ENDSEC
  0
SECTION
  2
ENTITIES
  0
DIMENSION
  5
250
100
AcDbEntity
  8
0
100
AcDbDimension
 62
7
  6
CONTINUOUS
  2
*D0
 10
67.9420648842
 20
136.3216694079
 11
82.8383042793
 21
136.3216694079
 70
160
 71
2
 72
2
 41
0.9
 42
38.3639073617
  3
DIMSTYLE_1
100
AcDbAlignedDimension
 13
106.3059722458
 23
106.5717926928
 14
67.9420648842
 24
71.9712812813
 50
180.0
100
AcDbRotatedDimension
  0
DIMENSION
  5
251
100
AcDbEntity
  8
0
100
AcDbDimension
 62
7
  6
CONTINUOUS
  2
*D1
 10
82.3059722458
 20
126.3216694079
 11
91.9488293887
 21
126.3216694079
 70
160
 71
2
 72
2
 41
0.9
 42
24.0
  3
DIMSTYLE_2
100
AcDbAlignedDimension
 13
106.3059722458
 23
106.5717926928
 14
82.3059722458
 24
111.7630907641
 50
180.0
100
AcDbRotatedDimension
  0
DIMENSION
  5
252
100
AcDbEntity
  8
0
100
AcDbDimension
 62
7
  6
CONTINUOUS
  2
*D2
 10
191.7573035594
 20
67.3216694079
 11
191.7573035594
 21
89.4645265508
 70
160
 71
2
 72
2
 41
0.9
 42
49.0
  3
DIMSTYLE_2
100
AcDbAlignedDimension
 13
179.4073077902
 23
116.3216694079
 14
179.4073077902
 24
67.3216694079
 50
270.0
100
AcDbRotatedDimension
  0
DIMENSION
  5
253
100
AcDbEntity
  8
0
100
AcDbDimension
 62
7
  6
CONTINUOUS
  2
*D3
 10
180.1573035594
 20
126.3216694079
 11
153.3644464165
 21
126.3216694079
 70
160
 71
2
 72
2
 41
0.9
 42
44.8
  3
DIMSTYLE_2
100
AcDbAlignedDimension
 13
135.3573035594
 23
113.7215742163
 14
180.1573035594
 24
113.7215742163
100
AcDbRotatedDimension
  0
LWPOLYLINE
  5
254
100
AcDbEntity
  8
0
100
AcDbPolyline
 62
7
  6
CONTINUOUS
 90
5
 70
0
 43
0.3500000006
 10
83.6954483643
 20
138.7859615479
 10
84.0525861511
 20
139.0002460327
 10
84.0525861511
 20
139.6430994873
 10
83.6954483643
 20
140.071668457
 10
82.8383013611
 20
140.071668457
  0
LINE
  5
255
100
AcDbEntity
  8
ON_OFF_PORTATASTO
100
AcDbLine
 62
250
  6
CONTINUOUS
 10
81.3059722458
 20
115.2321545561
 11
82.0574266787
 21
115.6660069752
  0
LINE
  5
256
100
AcDbEntity
  8
ON_OFF_PORTATASTO
100
AcDbLine
 62
7
  6
CONTINUOUS
 10
81.3059722458
 20
114.9443191387
 11
82.1809722458
 21
115.4495006242
  0
LINE
  5
257
100
AcDbEntity
  8
ON_OFF_PORTATASTO
100
AcDbLine
 62
7
  6
CONTINUOUS
 10
82.0574266787
 20
67.3260412419
 11
81.3059722458
 21
67.3216694079
  0
LINE
  5
258
100
AcDbEntity
  8
ON_OFF_PORTATASTO
100
AcDbLine
 62
250
  6
CONTINUOUS
 10
82.0574266787
 20
67.5760370111
 11
81.3059722458
 21
67.5716651771
  0
LINE
  5
259
100
AcDbEntity
  8
ON_OFF_PORTATASTO
100
AcDbLine
 62
7
  6
CONTINUOUS
 10
82.3008795881
 20
68.0274576095
 11
88.8088811115
 21
68.0653200548
  0
LINE
  5
25A
100
AcDbEntity
  8
ON_OFF_PORTATASTO
100
AcDbLine
 62
250
  6
CONTINUOUS
 10
82.3059722458
 20
67.5760370111
 11
82.0574266787
 21
67.5760370111
  0
LINE
  5
25B
100
AcDbEntity
  8
ON_OFF_PORTATASTO
100
AcDbLine
 62
250
  6
CONTINUOUS
 10
78.8059722458
 20
67.5847637558
 11
79.054517813
 21
67.5847637558
  0
LINE
  5
25C
100
AcDbEntity
  8
ON_OFF_PORTATASTO
100
AcDbLine
 62
250
  6
CONTINUOUS
 10
82.3059722458
 20
67.9773318406
 11
82.0574266787
 21
67.9773318406
  0
LINE
  5
25D
100
AcDbEntity
  8
ON_OFF_PORTATASTO
100
AcDbLine
 62
250
  6
CONTINUOUS
 10
78.8059722458
 20
67.9773318406
 11
79.054517813
 21
67.9773318406
  0
LINE
  5
25E
100
AcDbEntity
  8
ON_OFF_PORTATASTO
100
AcDbLine
 62
7
  6
CONTINUOUS
 10
81.3059722458
 20
67.3216694079
 11
79.054517813
 21
67.3347679866
  0
LINE
  5
25F
100
AcDbEntity
  8
ON_OFF_PORTATASTO
100
AcDbLine
 62
250
  6
CONTINUOUS
 10
81.3059722458
 20
67.5716651771
 11
79.054517813
 21
67.5847637558
  0
LINE
  5
260
100
AcDbEntity
  8
ON_OFF_PORTATASTO
100
AcDbLine
 62
250
  6
CONTINUOUS
 10
82.0574266787
 20
67.9773318406
 11
81.3059722458
 21
68.4111842597
  0
LINE
  5
261
100
AcDbEntity
  8
ON_OFF_PORTATASTO
100
AcDbLine
 62
7
  6
CONTINUOUS
 10
82.1809722458
 20
68.1938381915
 11
81.3059722458
 21
68.6990196771
  0
LINE
  5
262
100
AcDbEntity
  8
ON_OFF_PORTATASTO
100
AcDbLine
 62
7
  6
CONTINUOUS
 10
81.4487329051
 20
69.4141883935
 11
91.3146987813
 21
69.5002873733
  0
LINE
  5
263
100
AcDbEntity
  8
ON_OFF_PORTATASTO
100
AcDbLine
 62
250
  6
CONTINUOUS
 10
81.4509068887
 20
69.9143025572
 11
82.3059722458
 21
69.9217645995
  0
LINE
  5
264
100
AcDbEntity
  8
ON_OFF_PORTATASTO
100
AcDbLine
 62
7
  6
CONTINUOUS
 10
81.4484523957
 20
69.4144403219
 11
81.3059722458
 21
69.4132525721
  0
LINE
  5
265
100
AcDbEntity
  8
ON_OFF_PORTATASTO
100
AcDbLine
 62
7
  6
CONTINUOUS
 10
92.0015476963
 20
70.4216694079
 11
82.3059722458
 21
70.4216694079
  0
LINE
  5
266
100
AcDbEntity
  8
ON_OFF_PORTATASTO
100
AcDbLine
 62
250
  6
CONTINUOUS
 10
92.3059722458
 20
70.5002492964
 11
92.0059722458
 21
70.5002492964
  0
LINE
  5
267
100
AcDbEntity
  8
ON_OFF_PORTATASTO
100
AcDbLine
 62
7
  6
CONTINUOUS
 10
79.9304291038
 20
69.4937585693
 11
78.8059722458
 21
69.5526888561
  0
LINE
  5
268
100
AcDbEntity
  8
ON_OFF_PORTATASTO
100
AcDbLine
 62
250
  6
CONTINUOUS
 10
79.3780797476
 20
70.0229348245
 11
81.4509068887
 21
69.9143025572
  0
LINE
  5
269
100
AcDbEntity
  8
ON_OFF_SUPPORTO_PERNO
100
AcDbLine
 62
7
  6
CONTINUOUS
 10
76.0026510418
 20
70.1757395119
 11
76.4999119895
 21
70.1234752802
  0
LINE
  5
26A
100
AcDbEntity
  8
ON_OFF_SUPPORTO_PERNO
100
AcDbLine
 62
7
  6
CONTINUOUS
 10
75.123110456
 20
71.37424206
 11
75.8245028788
 21
71.3005227458
  0
LINE
  5
26B
100
AcDbEntity
  8
ON_OFF_TASTOTARGHETTA
100
AcDbLine
 62
7
  6
CONTINUOUS
 10
69.2592608691
 20
70.4824620538
 11
74.9558649148
 21
69.7830070275
  0
LINE
  5
26C
100
AcDbEntity
  8
ON_OFF_TASTOTARGHETTA
100
AcDbLine
 62
250
  6
CONTINUOUS
 10
69.3428709035
 20
71.2779583937
 11
75.0394749492
 21
70.5785033674
  0
LINE
  5
26D
100
AcDbEntity
  8
ON_OFF_SUPPORTO_PERNO
100
AcDbLine
 62
7
  6
CONTINUOUS
 10
75.2485446119
 20
72.5676683345
 11
75.8271142822
 21
72.4552057831
  0
LINE
  5
26E
100
AcDbEntity
  8
ON_OFF_PORTATASTO
100
AcDbLine
 62
7
  6
CONTINUOUS
 10
79.9304291038
 20
70.0907547977
 11
78.8059722458
 21
69.9526888561
  0
LINE
  5
26F
100
AcDbEntity
  8
ON_OFF_CORPO
100
AcDbLine
 62
7
  6
CONTINUOUS
 10
103.8146984491
 20
72.4115758021
 11
92.3059722458
 21
72.210690239
  0
LINE
  5
270
100
AcDbEntity
  8
ASSI
100
AcDbLine
 62
7
  6
CONTINUOUS
 10
103.8146984491
 20
72.4115758021
 11
92.3059722458
 21
72.210690239
  0
LINE
  5
271
100
AcDbEntity
  8
ON_OFF_CORPO
100
AcDbLine
 62
250
  6
CONTINUOUS
 10
93.6234246523
 20
72.5265350661
 11
92.3059722458
 21
72.5035388488
  0
LINE
  5
272
100
AcDbEntity
  8
ASSI
100
AcDbLine
 62
250
  6
CONTINUOUS
 10
93.6234246523
 20
72.5265350661
 11
92.3059722458
 21
72.5035388488
  0
LINE
  5
273
100
AcDbEntity
  8
ON_OFF_CORPO
100
AcDbLine
 62
250
  6
CONTINUOUS
 10
82.3059722458
 20
72.7359721884
 11
93.6234246523
 21
72.8177987797
  0
LINE
  5
274
100
AcDbEntity
  8
ASSI
100
AcDbLine
 62
250
  6
CONTINUOUS
 10
82.3059722458
 20
72.7359721884
 11
93.6234246523
 21
72.8177987797
  0
LINE
  5
275
100
AcDbEntity
  8
ON_OFF_CORPO
100
AcDbLine
 62
7
  6
CONTINUOUS
 10
82.3059722458
 20
70.9716694079
 11
92.3059722458
 21
70.9716694079
  0
LINE
  5
276
100
AcDbEntity
  8
ASSI
100
AcDbLine
 62
7
  6
CONTINUOUS
 10
82.3059722458
 20
70.9716694079
 11
92.3059722458
 21
70.9716694079
  0
LINE
  5
277
100
AcDbEntity
  8
ON_OFF_PORTATASTO
100
AcDbLine
 62
7
  6
CONTINUOUS
 10
82.3059722458
 20
70.9216694079
 11
92.3059722458
 21
70.83440073
  0
LINE
  5
278
100
AcDbEntity
  8
ON_OFF_TASTOTARGHETTA
100
AcDbLine
 62
250
  6
CONTINUOUS
 10
68.7286541012
 20
71.9985146177
 11
67.9430968638
 21
72.0265105606
  0
LINE
  5
279
100
AcDbEntity
  8
INCISIONI
100
AcDbLine
 62
250
  6
CONTINUOUS
 10
87.7938271711
 20
107.8216694079
 11
84.8947094723
 21
106.8136044079
  0
LINE
  5
27A
100
AcDbEntity
  8
INCISIONI
100
AcDbLine
 62
250
  6
CONTINUOUS
 10
87.1793753819
 20
106.9862534079
 11
87.7938271711
 21
107.1952434079
  0
LINE
  5
27B
100
AcDbEntity
  8
INCISIONI
100
AcDbLine
 62
250
  6
CONTINUOUS
 10
85.4488646327
 20
106.4281184079
 11
86.6975891721
 21
106.8295384079
  0
LINE
  5
27C
100
AcDbEntity
  8
ON_OFF_CORPO
100
AcDbLine
 62
250
  6
CONTINUOUS
 10
95.0972460426
 20
73.2592597995
 11
94.6059722458
 21
73.2335341515
  0
LINE
  5
27D
100
AcDbEntity
  8
ASSI
100
AcDbLine
 62
250
  6
CONTINUOUS
 10
95.0972460426
 20
73.2592597995
 11
94.6059722458
 21
73.2335341515
  0
LINE
  5
27E
100
AcDbEntity
  8
ON_OFF_CORPO
100
AcDbLine
 62
250
  6
CONTINUOUS
 10
103.8146984491
 20
73.4114234973
 11
95.0972460426
 21
73.2592597995
  0
LINE
  5
27F
100
AcDbEntity
  8
ASSI
100
AcDbLine
 62
250
  6
CONTINUOUS
 10
103.8146984491
 20
73.4114234973
 11
95.0972460426
 21
73.2592597995
  0
LINE
  5
280
100
AcDbEntity
  8
ON_OFF_CORPO
100
AcDbLine
 62
250
  6
CONTINUOUS
 10
82.3059722458
 20
74.1499703592
 11
93.6234246523
 21
74.2317969505
  0
LINE
  5
281
100
AcDbEntity
  8
ASSI
100
AcDbLine
 62
250
  6
CONTINUOUS
 10
82.3059722458
 20
74.1499703592
 11
93.6234246523
 21
74.2317969505
  0
LINE
  5
282
100
AcDbEntity
  8
ON_OFF_CORPO
100
AcDbLine
 62
250
  6
CONTINUOUS
 10
104.3059722458
 20
73.4114234973
 11
103.8146984491
 21
73.4114234973
  0
LINE
  5
283
100
AcDbEntity
  8
ASSI
100
AcDbLine
 62
250
  6
CONTINUOUS
 10
104.3059722458
 20
73.4114234973
 11
103.8146984491
 21
73.4114234973
  0
LINE
  5
284
100
AcDbEntity
  8
ON_OFF_CORPO
100
AcDbLine
 62
250
  6
CONTINUOUS
 10
93.6234246523
 20
74.2317969505
 11
94.6059722458
 21
74.2317969505
  0
LINE
  5
285
100
AcDbEntity
  8
ASSI
100
AcDbLine
 62
250
  6
CONTINUOUS
 10
93.6234246523
 20
74.2317969505
 11
94.6059722458
 21
74.2317969505
  0
LINE
  5
286
100
AcDbEntity
  8
ON_OFF_PORTATASTO
100
AcDbLine
 62
7
  6
CONTINUOUS
 10
76.5623979828
 20
73.5079598176
 11
79.761469326
 21
73.4521198196
  0
LINE
  5
287
100
AcDbEntity
  8
ON_OFF_PORTATASTO
100
AcDbLine
 62
250
  6
CONTINUOUS
 10
76.4788819479
 20
74.5094176012
 11
79.6384210458
 21
74.4542676411
  0
LINE
  5
288
100
AcDbEntity
  8
ON_OFF_SUPPORTO_PERNO
100
AcDbLine
 62
7
  6
CONTINUOUS
 10
75.5354505623
 20
75.2973961101
 11
75.8366868
 21
75.2683903595
  0
LINE
  5
289
100
AcDbEntity
  8
ON_OFF_SUPPORTO_PERNO
100
AcDbLine
 62
250
  6
CONTINUOUS
 10
75.5668079072
 20
75.5957413182
 11
75.868044145
 21
75.5667355676
  0
LINE
  5
28A
100
AcDbEntity
  8
ON_OFF_SUPPORTO_PERNO
100
AcDbLine
 62
250
  6
CONTINUOUS
 10
76.0517959889
 20
75.5474224706
 11
75.868044145
 21
75.5667355676
  0
LWPOLYLINE
  5
28B
100
AcDbEntity
  8
0
100
AcDbPolyline
 62
7
  6
CONTINUOUS
 90
3
 70
0
 43
0.3500000006
 10
88.0525873718
 20
137.3573922729
 10
87.9811652527
 20
137.1430896606
 10
87.838302887
 20
136.8573830566
  0
LINE
  5
28C
100
AcDbEntity
  8
INCISIONI
100
AcDbLine
 62
250
  6
CONTINUOUS
 10
89.5774008011
 20
107.6636696253
 11
89.8488293563
 21
107.8156695529
  0
LINE
  5
28D
100
AcDbEntity
  8
ON_OFF_PORTATASTO
100
AcDbLine
 62
250
  6
CONTINUOUS
 10
76.4788819479
 20
74.5094176012
 11
76.1837360631
 21
74.4728567982
  0
LINE
  5
28E
100
AcDbEntity
  8
ON_OFF_SUPPORTO_PERNO
100
AcDbLine
 62
250
  6
CONTINUOUS
 10
75.7456033301
 20
77.2968661347
 11
75.8382879311
 21
77.2863060583
  0
LINE
  5
28F
100
AcDbEntity
  8
ON_OFF_SUPPORTO_PERNO
100
AcDbLine
 62
7
  6
CONTINUOUS
 10
75.7769606751
 20
77.5952113428
 11
75.8006911091
 21
77.5925076013
  0
LINE
  5
290
100
AcDbEntity
  8
INCISIONI
100
AcDbLine
 62
250
  6
CONTINUOUS
 10
84.894572514
 20
77.6839554079
 11
86.8908612861
 21
77.0428304079
  0
LINE
  5
291
100
AcDbEntity
  8
ON_OFF_SUPPORTO_PERNO
100
AcDbLine
 62
7
  6
CONTINUOUS
 10
75.8245028788
 20
71.3005227458
 11
76.0026510418
 21
70.1757395119
  0
LINE
  5
292
100
AcDbEntity
  8
ON_OFF_PORTATASTO
100
AcDbLine
 62
7
  6
CONTINUOUS
 10
75.7877522405
 20
77.6978862293
 11
76.2698698593
 21
73.7713533232
  0
LINE
  5
293
100
AcDbEntity
  8
ON_OFF_PORTATASTO
100
AcDbLine
 62
250
  6
CONTINUOUS
 10
75.9259464242
 20
79.0127160587
 11
76.4788819479
 21
74.5094176012
  0
LINE
  5
294
100
AcDbEntity
  8
INCISIONI
100
AcDbLine
 62
7
  6
CONTINUOUS
 10
85.2348149949
 20
104.1504234079
 11
85.8172589949
 21
104.7328674079
  0
LINE
  5
295
100
AcDbEntity
  8
INCISIONI
100
AcDbLine
 62
7
  6
CONTINUOUS
 10
86.5575803224
 20
105.4731887354
 11
87.1793753819
 21
106.0949837948
  0
LINE
  5
296
100
AcDbEntity
  8
INCISIONI
100
AcDbLine
 62
250
  6
CONTINUOUS
 10
90.9345436623
 20
106.9036694804
 11
90.6631150787
 21
106.7516695529
  0
LINE
  5
297
100
AcDbEntity
  8
INCISIONI
100
AcDbLine
 62
250
  6
CONTINUOUS
 10
89.5774008011
 20
104.4716693717
 11
89.8488293563
 21
104.6236692992
  0
LINE
  5
298
100
AcDbEntity
  8
INCISIONI
100
AcDbLine
 62
250
  6
CONTINUOUS
 10
84.8947094723
 20
103.0378084079
 11
87.1921234978
 21
104.1504234079
  0
LINE
  5
299
100
AcDbEntity
  8
INCISIONI
100
AcDbLine
 62
250
  6
CONTINUOUS
 10
87.7938271711
 20
103.8492154079
 11
85.3674624342
 21
102.6964394079
  0
LINE
  5
29A
100
AcDbEntity
  8
ON_OFF_CORPO
100
AcDbLine
 62
7
  6
CONTINUOUS
 10
106.0321189687
 20
80.5226876777
 11
104.579825523
 21
80.3956284651
  0
LINE
  5
29B
100
AcDbEntity
  8
ASSI
100
AcDbLine
 62
7
  6
CONTINUOUS
 10
106.0321189687
 20
80.5226876777
 11
104.579825523
 21
80.3956284651
  0
LINE
  5
29C
100
AcDbEntity
  8
INCISIONI
100
AcDbLine
 62
250
  6
CONTINUOUS
 10
84.894572514
 20
78.6506634079
 11
87.7938271711
 21
78.6506554079
  0
LINE
  5
29D
100
AcDbEntity
  8
INCISIONI
100
AcDbLine
 62
250
  6
CONTINUOUS
 10
87.7938201733
 20
79.2306774079
 11
84.894572514
 21
79.2306844079
  0
LINE
  5
29E
100
AcDbEntity
  8
INCISIONI
100
AcDbLine
 62
250
  6
CONTINUOUS
 10
87.7938201733
 20
77.3328454079
 11
84.894572514
 21
78.2639844079
  0
LINE
  5
29F
100
AcDbEntity
  8
ON_OFF_PORTATASTO
100
AcDbLine
 62
7
  6
CONTINUOUS
 10
78.8059722458
 20
69.9526888561
 11
78.8059722458
 21
69.5526888561
  0
LINE
  5
2A0
100
AcDbEntity
  8
ON_OFF_PORTATASTO
100
AcDbLine
 62
7
  6
CONTINUOUS
 10
78.8059722458
 20
67.5847637558
 11
78.8059722458
 21
67.9773318406
  0
LINE
  5
2A1
100
AcDbEntity
  8
ON_OFF_PORTATASTO
100
AcDbLine
 62
7
  6
CONTINUOUS
 10
78.8059722458
 20
113.6906499597
 11
78.8059722458
 21
114.0906499597
  0
LINE
  5
2A2
100
AcDbEntity
  8
ON_OFF_PORTATASTO
100
AcDbLine
 62
7
  6
CONTINUOUS
 10
78.8059722458
 20
115.6660069752
 11
78.8059722458
 21
116.05857506
  0
LINE
  5
2A3
100
AcDbEntity
  8
ON_OFF_PORTATASTO
100
AcDbLine
 62
250
  6
CONTINUOUS
 10
79.054517813
 20
67.5847637558
 11
79.054517813
 21
67.9773318406
  0
LINE
  5
2A4
100
AcDbEntity
  8
ON_OFF_PORTATASTO
100
AcDbLine
 62
250
  6
CONTINUOUS
 10
79.054517813
 20
115.6660069752
 11
79.054517813
 21
116.05857506
  0
LINE
  5
2A5
100
AcDbEntity
  8
ON_OFF_TASTOTARGHETTA
100
AcDbLine
 62
7
  6
CONTINUOUS
 10
79.5237587596
 20
113.2436138551
 11
74.9558649148
 21
69.7830070275
  0
LINE
  5
2A6
100
AcDbEntity
  8
ON_OFF_SUPPORTO_PERNO
100
AcDbLine
 62
250
  6
CONTINUOUS
 10
75.9516983588
 20
76.3626522463
 11
75.868044145
 21
75.5667355676
  0
LINE
  5
2A7
100
AcDbEntity
  8
ON_OFF_SUPPORTO_PERNO
100
AcDbLine
 62
7
  6
CONTINUOUS
 10
76.4999119895
 20
70.1234752802
 11
76.6308271822
 21
71.3690501364
  0
LINE
  5
2A8
100
AcDbEntity
  8
ON_OFF_PORTATASTO
100
AcDbLine
 62
7
  6
CONTINUOUS
 10
79.9304291038
 20
111.5672859591
 11
77.5059722458
 21
91.8216694079
  0
LINE
  5
2A9
100
AcDbEntity
  8
INCISIONI
100
AcDbLine
 62
250
  6
CONTINUOUS
 10
89.3059722458
 20
107.3596692629
 11
89.5774008011
 21
107.6636696253
  0
LINE
  5
2AA
100
AcDbEntity
  8
INCISIONI
100
AcDbLine
 62
250
  6
CONTINUOUS
 10
90.9345436623
 20
103.7116694804
 11
90.6631150787
 21
103.5596692992
  0
LINE
  5
2AB
100
AcDbEntity
  8
INCISIONI
100
AcDbLine
 62
250
  6
CONTINUOUS
 10
87.7938271711
 20
101.7967434079
 11
84.8947094723
 21
100.7885694079
  0
LINE
  5
2AC
100
AcDbEntity
  8
INCISIONI
100
AcDbLine
 62
250
  6
CONTINUOUS
 10
87.1793753819
 20
100.9612184079
 11
87.7938271711
 21
101.1701004079
  0
LINE
  5
2AD
100
AcDbEntity
  8
INCISIONI
100
AcDbLine
 62
250
  6
CONTINUOUS
 10
85.4487006826
 20
100.4031404079
 11
86.6975891721
 21
100.8046124079
  0
LINE
  5
2AE
100
AcDbEntity
  8
INCISIONI
100
AcDbLine
 62
250
  6
CONTINUOUS
 10
84.894572514
 20
79.8106844079
 11
87.7938201733
 21
79.8106844079
  0
LINE
  5
2AF
100
AcDbEntity
  8
INCISIONI
100
AcDbLine
 62
250
  6
CONTINUOUS
 10
87.7938201733
 20
80.3907064079
 11
85.8819606773
 21
80.3907064079
  0
LINE
  5
2B0
100
AcDbEntity
  8
INCISIONI
100
AcDbLine
 62
250
  6
CONTINUOUS
 10
84.894572514
 20
81.7706574079
 11
86.7826662509
 21
81.2290894079
  0
LINE
  5
2B1
100
AcDbEntity
  8
INCISIONI
100
AcDbLine
 62
250
  6
CONTINUOUS
 10
87.7938121757
 20
81.5190894079
 11
85.8819606773
 21
82.0674644079
  0
LINE
  5
2B2
100
AcDbEntity
  8
ON_OFF_PORTATASTO
100
AcDbLine
 62
7
  6
CONTINUOUS
 10
77.5059722458
 20
91.8216694079
 11
79.9304291038
 21
72.0760528567
  0
LINE
  5
2B3
100
AcDbEntity
  8
ON_OFF_PORTATASTO
100
AcDbLine
 62
7
  6
CONTINUOUS
 10
79.8059722458
 20
114.9443191387
 11
79.8059722458
 21
114.143057739
  0
LINE
  5
2B4
100
AcDbEntity
  8
ON_OFF_PORTATASTO
100
AcDbLine
 62
7
  6
CONTINUOUS
 10
79.8059722458
 20
69.5002810768
 11
79.8059722458
 21
68.6990196771
  0
LINE
  5
2B5
100
AcDbEntity
  8
ON_OFF_PORTATASTO
100
AcDbLine
 62
7
  6
CONTINUOUS
 10
79.9304291038
 20
113.5525840181
 11
79.9304291038
 21
111.5672859591
  0
LINE
  5
2B6
100
AcDbEntity
  8
ON_OFF_PORTATASTO
100
AcDbLine
 62
7
  6
CONTINUOUS
 10
79.9304291038
 20
70.0907547977
 11
79.9304291038
 21
72.0760528567
  0
LINE
  5
2B7
100
AcDbEntity
  8
ON_OFF_PORTATASTO
100
AcDbLine
 62
250
  6
CONTINUOUS
 10
80.054517813
 20
115.088656706
 11
80.054517813
 21
114.1550803693
  0
LINE
  5
2B8
100
AcDbEntity
  8
ON_OFF_PORTATASTO
100
AcDbLine
 62
250
  6
CONTINUOUS
 10
80.054517813
 20
69.4882584465
 11
80.054517813
 21
68.5546821098
  0
LINE
  5
2B9
100
AcDbEntity
  8
ON_OFF_PORTATASTO
100
AcDbLine
 62
7
  6
CONTINUOUS
 10
81.3059722458
 20
67.3216694079
 11
81.3059722458
 21
69.4132525721
  0
LINE
  5
2BA
100
AcDbEntity
  8
ON_OFF_PORTATASTO
100
AcDbLine
 62
7
  6
CONTINUOUS
 10
81.3059722458
 20
114.2300862437
 11
81.3059722458
 21
116.3216694079
  0
LINE
  5
2BB
100
AcDbEntity
  8
INCISIONI
100
AcDbLine
 62
250
  6
CONTINUOUS
 10
91.2059722458
 20
107.2076693354
 11
90.9345436623
 21
106.9036694804
  0
LINE
  5
2BC
100
AcDbEntity
  8
INCISIONI
100
AcDbLine
 62
250
  6
CONTINUOUS
 10
90.1202579116
 20
105.8396694804
 11
90.3916865235
 21
106.1436693354
  0
LINE
  5
2BD
100
AcDbEntity
  8
INCISIONI
100
AcDbLine
 62
250
  6
CONTINUOUS
 10
89.3059722458
 20
104.1676695166
 11
89.5774008011
 21
104.4716693717
  0
LINE
  5
2BE
100
AcDbEntity
  8
INCISIONI
100
AcDbLine
 62
250
  6
CONTINUOUS
 10
91.2059722458
 20
104.0156693354
 11
90.9345436623
 21
103.7116694804
  0
LINE
  5
2BF
100
AcDbEntity
  8
ON_OFF_CORPO
100
AcDbLine
 62
250
  6
CONTINUOUS
 10
95.0972460426
 20
82.2802903154
 11
103.8146984491
 21
82.4324540131
  0
LINE
  5
2C0
100
AcDbEntity
  8
ASSI
100
AcDbLine
 62
250
  6
CONTINUOUS
 10
95.0972460426
 20
82.2802903154
 11
103.8146984491
 21
82.4324540131
  0
LINE
  5
2C1
100
AcDbEntity
  8
ON_OFF_CORPO
100
AcDbLine
 62
7
  6
CONTINUOUS
 10
94.9007365239
 20
82.5768145375
 11
103.8146984491
 21
82.7324083217
  0
LINE
  5
2C2
100
AcDbEntity
  8
ASSI
100
AcDbLine
 62
7
  6
CONTINUOUS
 10
94.9007365239
 20
82.5768145375
 11
103.8146984491
 21
82.7324083217
  0
LINE
  5
2C3
100
AcDbEntity
  8
ON_OFF_CORPO
100
AcDbLine
 62
250
  6
CONTINUOUS
 10
94.9007365239
 20
83.5766622327
 11
103.8146984491
 21
83.7322560168
  0
LINE
  5
2C4
100
AcDbEntity
  8
ASSI
100
AcDbLine
 62
250
  6
CONTINUOUS
 10
94.9007365239
 20
83.5766622327
 11
103.8146984491
 21
83.7322560168
  0
LINE
  5
2C5
100
AcDbEntity
  8
ON_OFF_CORPO
100
AcDbLine
 62
250
  6
CONTINUOUS
 10
94.6059722458
 20
82.276860229
 11
95.0972460426
 21
82.2802903154
  0
LINE
  5
2C6
100
AcDbEntity
  8
ASSI
100
AcDbLine
 62
250
  6
CONTINUOUS
 10
94.6059722458
 20
82.276860229
 11
95.0972460426
 21
82.2802903154
  0
LINE
  5
2C7
100
AcDbEntity
  8
INCISIONI
100
AcDbLine
 62
250
  6
CONTINUOUS
 10
85.8819606773
 20
82.0674644079
 11
87.7938201733
 21
82.0674724079
  0
LINE
  5
2C8
100
AcDbEntity
  8
ON_OFF_CORPO
100
AcDbLine
 62
250
  6
CONTINUOUS
 10
93.6234246523
 20
82.276860229
 11
94.6059722458
 21
82.276860229
  0
LINE
  5
2C9
100
AcDbEntity
  8
ASSI
100
AcDbLine
 62
250
  6
CONTINUOUS
 10
93.6234246523
 20
82.276860229
 11
94.6059722458
 21
82.276860229
  0
LINE
  5
2CA
100
AcDbEntity
  8
ON_OFF_CORPO
100
AcDbLine
 62
250
  6
CONTINUOUS
 10
104.3059722458
 20
82.4324540131
 11
103.8146984491
 21
82.4324540131
  0
LINE
  5
2CB
100
AcDbEntity
  8
ASSI
100
AcDbLine
 62
250
  6
CONTINUOUS
 10
104.3059722458
 20
82.4324540131
 11
103.8146984491
 21
82.4324540131
  0
LINE
  5
2CC
100
AcDbEntity
  8
INCISIONI
100
AcDbLine
 62
250
  6
CONTINUOUS
 10
87.7938201733
 20
82.6474934079
 11
84.894572514
 21
82.6474934079
  0
LINE
  5
2CD
100
AcDbEntity
  8
ON_OFF_CORPO
100
AcDbLine
 62
250
  6
CONTINUOUS
 10
104.3059722458
 20
83.7322560168
 11
103.8146984491
 21
83.7322560168
  0
LINE
  5
2CE
100
AcDbEntity
  8
ASSI
100
AcDbLine
 62
250
  6
CONTINUOUS
 10
104.3059722458
 20
83.7322560168
 11
103.8146984491
 21
83.7322560168
  0
LINE
  5
2CF
100
AcDbEntity
  8
INCISIONI
100
AcDbLine
 62
250
  6
CONTINUOUS
 10
91.7655132458
 20
84.2362504079
 11
91.5307312458
 21
84.2362504079
  0
LINE
  5
2D0
100
AcDbEntity
  8
INCISIONI
100
AcDbLine
 62
250
  6
CONTINUOUS
 10
87.7938201733
 20
83.0341724079
 11
84.8945655161
 21
83.9652974079
  0
LINE
  5
2D1
100
AcDbEntity
  8
INCISIONI
100
AcDbLine
 62
250
  6
CONTINUOUS
 10
85.7975314011
 20
84.2553194079
 11
86.6728037238
 21
83.9742294079
  0
LINE
  5
2D2
100
AcDbEntity
  8
INCISIONI
100
AcDbLine
 62
250
  6
CONTINUOUS
 10
87.2236578899
 20
83.7973074079
 11
87.7938121757
 21
83.6141944079
  0
LINE
  5
2D3
100
AcDbEntity
  8
ON_OFF_PORTATASTO
100
AcDbLine
 62
250
  6
CONTINUOUS
 10
82.0574266787
 20
116.0673018047
 11
82.0574266787
 21
115.6660069752
  0
LINE
  5
2D4
100
AcDbEntity
  8
ON_OFF_PORTATASTO
100
AcDbLine
 62
250
  6
CONTINUOUS
 10
82.0574266787
 20
67.9773318406
 11
82.0574266787
 21
67.5760370111
  0
LINE
  5
2D5
100
AcDbEntity
  8
ON_OFF_PORTATASTO
100
AcDbLine
 62
7
  6
CONTINUOUS
 10
82.3059722458
 20
116.0673018047
 11
82.3059722458
 21
115.6660069752
  0
LINE
  5
2D6
100
AcDbEntity
  8
ON_OFF_CORPO
100
AcDbLine
 62
7
  6
CONTINUOUS
 10
82.3059722458
 20
109.4933684566
 11
82.3059722458
 21
74.1499703592
  0
LINE
  5
2D7
100
AcDbEntity
  8
ASSI
100
AcDbLine
 62
7
  6
CONTINUOUS
 10
82.3059722458
 20
109.4933684566
 11
82.3059722458
 21
74.1499703592
  0
LINE
  5
2D8
100
AcDbEntity
  8
ON_OFF_PORTATASTO
100
AcDbLine
 62
7
  6
CONTINUOUS
 10
82.3059722458
 20
114.2216694079
 11
82.3059722458
 21
69.4216694079
  0
LINE
  5
2D9
100
AcDbEntity
  8
ON_OFF_PORTATASTO
100
AcDbLine
 62
7
  6
CONTINUOUS
 10
82.3059722458
 20
68.0274872377
 11
82.3059722458
 21
67.5760370111
  0
LINE
  5
2DA
100
AcDbEntity
  8
INCISIONI
100
AcDbLine
 62
7
  6
CONTINUOUS
 10
84.8947094723
 20
95.4098893247
 11
86.058104814
 21
96.5732846665
  0
LINE
  5
2DB
100
AcDbEntity
  8
INCISIONI
100
AcDbLine
 62
7
  6
CONTINUOUS
 10
86.4776225554
 20
96.9928024079
 11
87.1002285554
 21
97.6154084079
  0
LINE
  5
2DC
100
AcDbEntity
  8
INCISIONI
100
AcDbLine
 62
7
  6
CONTINUOUS
 10
87.3120409614
 20
97.8272208139
 11
87.7938271711
 21
98.3090070236
  0
LINE
  5
2DD
100
AcDbEntity
  8
ON_OFF_CORPO
100
AcDbLine
 62
7
  6
CONTINUOUS
 10
106.0321189687
 20
87.1726876777
 11
104.579825523
 21
87.0456284651
  0
LINE
  5
2DE
100
AcDbEntity
  8
ASSI
100
AcDbLine
 62
7
  6
CONTINUOUS
 10
106.0321189687
 20
87.1726876777
 11
104.579825523
 21
87.0456284651
  0
LINE
  5
2DF
100
AcDbEntity
  8
ON_OFF_CORPO
100
AcDbLine
 62
7
  6
CONTINUOUS
 10
104.5059722458
 20
84.3216694079
 11
104.3059722458
 21
84.3216694079
  0
LINE
  5
2E0
100
AcDbEntity
  8
ASSI
100
AcDbLine
 62
7
  6
CONTINUOUS
 10
104.5059722458
 20
84.3216694079
 11
104.3059722458
 21
84.3216694079
  0
LINE
  5
2E1
100
AcDbEntity
  8
INCISIONI
100
AcDbLine
 62
250
  6
CONTINUOUS
 10
92.2229702458
 20
85.5206474079
 11
91.9588632458
 21
85.5206474079
  0
LINE
  5
2E2
100
AcDbEntity
  8
INCISIONI
100
AcDbLine
 62
250
  6
CONTINUOUS
 10
91.5307312458
 20
85.7278084079
 11
92.2229702458
 21
85.7278084079
  0
LINE
  5
2E3
100
AcDbEntity
  8
INCISIONI
100
AcDbLine
 62
250
  6
CONTINUOUS
 10
87.7938121757
 20
85.8631664079
 11
84.8945655161
 21
85.8631664079
  0
LINE
  5
2E4
100
AcDbEntity
  8
INCISIONI
100
AcDbLine
 62
250
  6
CONTINUOUS
 10
85.4309240988
 20
86.4351914079
 11
86.1364381432
 21
86.4351984079
  0
LINE
  5
2E5
100
AcDbEntity
  8
INCISIONI
100
AcDbLine
 62
250
  6
CONTINUOUS
 10
86.6727967259
 20
86.4432604079
 11
87.7938121757
 21
86.4431954079
  0
LINE
  5
2E6
100
AcDbEntity
  8
INCISIONI
100
AcDbLine
 62
250
  6
CONTINUOUS
 10
84.8945655161
 20
83.9652974079
 11
84.8945655161
 21
84.5453484079
  0
LINE
  5
2E7
100
AcDbEntity
  8
INCISIONI
100
AcDbLine
 62
250
  6
CONTINUOUS
 10
84.8945655161
 20
85.8631664079
 11
84.8945655161
 21
87.2213814079
  0
LINE
  5
2E8
100
AcDbEntity
  8
INCISIONI
100
AcDbLine
 62
250
  6
CONTINUOUS
 10
84.894572514
 20
82.6474934079
 11
84.894572514
 21
81.7706574079
  0
LINE
  5
2E9
100
AcDbEntity
  8
INCISIONI
100
AcDbLine
 62
250
  6
CONTINUOUS
 10
84.894572514
 20
80.6875214079
 11
84.894572514
 21
79.8106844079
  0
LINE
  5
2EA
100
AcDbEntity
  8
INCISIONI
100
AcDbLine
 62
250
  6
CONTINUOUS
 10
84.894572514
 20
79.2306844079
 11
84.894572514
 21
78.6506634079
  0
LINE
  5
2EB
100
AcDbEntity
  8
INCISIONI
100
AcDbLine
 62
250
  6
CONTINUOUS
 10
84.894572514
 20
78.2639844079
 11
84.894572514
 21
77.6839554079
  0
LINE
  5
2EC
100
AcDbEntity
  8
INCISIONI
100
AcDbLine
 62
250
  6
CONTINUOUS
 10
84.894572514
 20
76.4016984079
 11
84.894572514
 21
75.8216694079
  0
LINE
  5
2ED
100
AcDbEntity
  8
INCISIONI
100
AcDbLine
 62
250
  6
CONTINUOUS
 10
84.8947094723
 20
106.8136044079
 11
84.8947094723
 21
106.0745534079
  0
LINE
  5
2EE
100
AcDbEntity
  8
INCISIONI
100
AcDbLine
 62
250
  6
CONTINUOUS
 10
84.8947094723
 20
100.7885694079
 11
84.8947094723
 21
100.0495184079
  0
LINE
  5
2EF
100
AcDbEntity
  8
INCISIONI
100
AcDbLine
 62
250
  6
CONTINUOUS
 10
84.8947094723
 20
95.4098894079
 11
84.8947094723
 21
94.5224594079
  0
LINE
  5
2F0
100
AcDbEntity
  8
INCISIONI
100
AcDbLine
 62
250
  6
CONTINUOUS
 10
84.8947094723
 20
96.9928024079
 11
84.8947094723
 21
97.6154084079
  0
LINE
  5
2F1
100
AcDbEntity
  8
INCISIONI
100
AcDbLine
 62
250
  6
CONTINUOUS
 10
84.8947094723
 20
102.1139944079
 11
84.8947094723
 21
103.0378084079
  0
LINE
  5
2F2
100
AcDbEntity
  8
INCISIONI
100
AcDbLine
 62
250
  6
CONTINUOUS
 10
84.8947094723
 20
104.1504234079
 11
84.8947094723
 21
104.7328674079
  0
LWPOLYLINE
  5
2F3
100
AcDbEntity
  8
0
100
AcDbPolyline
 62
7
  6
CONTINUOUS
 90
4
 70
0
 43
0.3500000006
 10
84.9811643372
 20
137.5002365112
 10
84.9811643372
 20
138.3573925781
 10
85.4097333069
 20
138.7859615479
 10
86.0525867615
 20
138.7859615479
  0
LINE
  5
2F4
100
AcDbEntity
  8
INCISIONI
100
AcDbLine
 62
250
  6
CONTINUOUS
 10
85.376495682
 20
95.1450654079
 11
85.376495682
 21
95.5082814079
  0
LINE
  5
2F5
100
AcDbEntity
  8
INCISIONI
100
AcDbLine
 62
250
  6
CONTINUOUS
 10
85.4309240988
 20
87.1408774079
 11
85.4309240988
 21
86.4351914079
  0
LINE
  5
2F6
100
AcDbEntity
  8
INCISIONI
100
AcDbLine
 62
250
  6
CONTINUOUS
 10
86.1364381432
 20
86.4351984079
 11
86.1364381432
 21
87.1408774079
  0
LINE
  5
2F7
100
AcDbEntity
  8
INCISIONI
100
AcDbLine
 62
250
  6
CONTINUOUS
 10
86.195619112
 20
95.1450654079
 11
86.195619112
 21
95.5082814079
  0
LINE
  5
2F8
100
AcDbEntity
  8
0
100
AcDbLine
 62
250
  6
CONTINUOUS
 10
92.6916865205
 20
99.8645268164
 11
92.5059722458
 21
99.6788119994
  0
LINE
  5
2F9
100
AcDbEntity
  8
0
100
AcDbLine
 62
250
  6
CONTINUOUS
 10
93.2488293832
 20
98.8430978022
 11
93.0631150698
 21
98.6573836051
  0
LINE
  5
2FA
100
AcDbEntity
  8
ON_OFF_CORPO
100
AcDbLine
 62
250
  6
CONTINUOUS
 10
94.6059722458
 20
87.8130180395
 11
94.4094627271
 21
87.8130180395
  0
LINE
  5
2FB
100
AcDbEntity
  8
ASSI
100
AcDbLine
 62
250
  6
CONTINUOUS
 10
94.6059722458
 20
87.8130180395
 11
94.4094627271
 21
87.8130180395
  0
LINE
  5
2FC
100
AcDbEntity
  8
ON_OFF_CORPO
100
AcDbLine
 62
250
  6
CONTINUOUS
 10
103.8146984491
 20
86.9609609551
 11
104.3059722459
 21
86.9558158255
  0
LINE
  5
2FD
100
AcDbEntity
  8
ASSI
100
AcDbLine
 62
250
  6
CONTINUOUS
 10
103.8146984491
 20
86.9609609551
 11
104.3059722459
 21
86.9558158255
  0
LINE
  5
2FE
100
AcDbEntity
  8
ON_OFF_CORPO
100
AcDbLine
 62
250
  6
CONTINUOUS
 10
95.0972460426
 20
87.1131246528
 11
103.8146984491
 21
86.9609609551
  0
LINE
  5
2FF
100
AcDbEntity
  8
ASSI
100
AcDbLine
 62
250
  6
CONTINUOUS
 10
95.0972460426
 20
87.1131246528
 11
103.8146984491
 21
86.9609609551
  0
LINE
  5
300
100
AcDbEntity
  8
ON_OFF_CORPO
100
AcDbLine
 62
7
  6
CONTINUOUS
 10
95.0972460426
 20
87.3130941919
 11
104.1094627271
 21
87.1557853645
  0
LINE
  5
301
100
AcDbEntity
  8
ASSI
100
AcDbLine
 62
7
  6
CONTINUOUS
 10
95.0972460426
 20
87.3130941919
 11
104.1094627271
 21
87.1557853645
  0
LINE
  5
302
100
AcDbEntity
  8
ON_OFF_CORPO
100
AcDbLine
 62
7
  6
CONTINUOUS
 10
106.0321189687
 20
86.4206511381
 11
105.0059722458
 21
86.5104273434
  0
LINE
  5
303
100
AcDbEntity
  8
ASSI
100
AcDbLine
 62
7
  6
CONTINUOUS
 10
106.0321189687
 20
86.4206511381
 11
105.0059722458
 21
86.5104273434
  0
LINE
  5
304
100
AcDbEntity
  8
INCISIONI
100
AcDbLine
 62
250
  6
CONTINUOUS
 10
92.265121246
 20
82.6593244077
 11
89.3782734089
 21
86.0997352135
  0
LINE
  5
305
100
AcDbEntity
  8
INCISIONI
100
AcDbLine
 62
250
  6
CONTINUOUS
 10
86.6728037238
 20
83.9742294079
 11
86.6728037238
 21
84.5364234079
  0
LINE
  5
306
100
AcDbEntity
  8
INCISIONI
100
AcDbLine
 62
250
  6
CONTINUOUS
 10
86.6728037238
 20
86.9494914079
 11
86.6727967259
 21
86.4432604079
  0
LINE
  5
307
100
AcDbEntity
  8
INCISIONI
100
AcDbLine
 62
250
  6
CONTINUOUS
 10
86.6774053218
 20
95.4098894079
 11
86.6774053218
 21
95.1450654079
  0
LINE
  5
308
100
AcDbEntity
  8
INCISIONI
100
AcDbLine
 62
250
  6
CONTINUOUS
 10
86.6975891721
 20
106.8295384079
 11
86.6975891721
 21
105.9981604079
  0
LINE
  5
309
100
AcDbEntity
  8
INCISIONI
100
AcDbLine
 62
250
  6
CONTINUOUS
 10
86.6975891721
 20
100.8046124079
 11
86.6975891721
 21
99.9731254079
  0
LINE
  5
30A
100
AcDbEntity
  8
INCISIONI
100
AcDbLine
 62
250
  6
CONTINUOUS
 10
87.1793753819
 20
99.8124814079
 11
87.1793753819
 21
100.9612184079
  0
LINE
  5
30B
100
AcDbEntity
  8
INCISIONI
100
AcDbLine
 62
250
  6
CONTINUOUS
 10
87.1793753819
 20
105.8375154079
 11
87.1793753819
 21
106.9862534079
  0
LINE
  5
30C
100
AcDbEntity
  8
INCISIONI
100
AcDbLine
 62
250
  6
CONTINUOUS
 10
87.2236578899
 20
84.7133524079
 11
87.2236578899
 21
83.7973074079
  0
LINE
  5
30D
100
AcDbEntity
  8
INCISIONI
100
AcDbLine
 62
250
  6
CONTINUOUS
 10
87.3120409614
 20
97.6154084079
 11
87.3120409614
 21
98.6884074079
  0
LINE
  5
30E
100
AcDbEntity
  8
INCISIONI
100
AcDbLine
 62
250
  6
CONTINUOUS
 10
87.7938271711
 20
76.7528014079
 11
87.7938201733
 21
77.3328454079
  0
LINE
  5
30F
100
AcDbEntity
  8
INCISIONI
100
AcDbLine
 62
250
  6
CONTINUOUS
 10
87.7938271711
 20
78.6506554079
 11
87.7938201733
 21
79.2306774079
  0
LINE
  5
310
100
AcDbEntity
  8
INCISIONI
100
AcDbLine
 62
250
  6
CONTINUOUS
 10
87.7938201733
 20
80.9390824079
 11
87.7938121757
 21
81.5190894079
  0
LINE
  5
311
100
AcDbEntity
  8
INCISIONI
100
AcDbLine
 62
250
  6
CONTINUOUS
 10
87.7938121757
 20
83.6141944079
 11
87.7938201733
 21
83.0341724079
  0
LINE
  5
312
100
AcDbEntity
  8
INCISIONI
100
AcDbLine
 62
250
  6
CONTINUOUS
 10
87.7938051778
 20
88.1840504079
 11
87.7938121757
 21
87.5307454079
  0
LINE
  5
313
100
AcDbEntity
  8
INCISIONI
100
AcDbLine
 62
250
  6
CONTINUOUS
 10
87.7938121757
 20
86.4431954079
 11
87.7938121757
 21
85.8631664079
  0
LINE
  5
314
100
AcDbEntity
  8
INCISIONI
100
AcDbLine
 62
250
  6
CONTINUOUS
 10
87.7938201733
 20
79.8106844079
 11
87.7938201733
 21
80.3907064079
  0
LINE
  5
315
100
AcDbEntity
  8
INCISIONI
100
AcDbLine
 62
250
  6
CONTINUOUS
 10
87.7938201733
 20
82.0674724079
 11
87.7938201733
 21
82.6474934079
  0
LINE
  5
316
100
AcDbEntity
  8
INCISIONI
100
AcDbLine
 62
250
  6
CONTINUOUS
 10
87.7938271711
 20
104.7328674079
 11
87.7938271711
 21
103.8492154079
  0
LINE
  5
317
100
AcDbEntity
  8
INCISIONI
100
AcDbLine
 62
250
  6
CONTINUOUS
 10
87.7938271711
 20
102.6964394079
 11
87.7938271711
 21
102.1139944079
  0
LINE
  5
318
100
AcDbEntity
  8
INCISIONI
100
AcDbLine
 62
250
  6
CONTINUOUS
 10
87.7938271711
 20
98.6884074079
 11
87.7938271711
 21
96.9928024079
  0
LINE
  5
319
100
AcDbEntity
  8
INCISIONI
100
AcDbLine
 62
250
  6
CONTINUOUS
 10
87.7938271711
 20
94.5224594079
 11
87.7938271711
 21
95.1450654079
  0
LINE
  5
31A
100
AcDbEntity
  8
INCISIONI
100
AcDbLine
 62
250
  6
CONTINUOUS
 10
87.7938271711
 20
99.0011834079
 11
87.7938271711
 21
99.5956334079
  0
LINE
  5
31B
100
AcDbEntity
  8
INCISIONI
100
AcDbLine
 62
250
  6
CONTINUOUS
 10
87.7938271711
 20
101.1701004079
 11
87.7938271711
 21
101.7967434079
  0
LINE
  5
31C
100
AcDbEntity
  8
INCISIONI
100
AcDbLine
 62
250
  6
CONTINUOUS
 10
87.7938271711
 20
105.0261094079
 11
87.7938271711
 21
105.6205584079
  0
LINE
  5
31D
100
AcDbEntity
  8
INCISIONI
100
AcDbLine
 62
250
  6
CONTINUOUS
 10
87.7938271711
 20
107.1952434079
 11
87.7938271711
 21
107.8216694079
  0
LINE
  5
31E
100
AcDbEntity
  8
INCISIONI
100
AcDbLine
 62
250
  6
CONTINUOUS
 10
87.7938201733
 20
85.4764874079
 11
87.7938121757
 21
84.8964584079
  0
LINE
  5
31F
100
AcDbEntity
  8
0
100
AcDbLine
 62
250
  6
CONTINUOUS
 10
92.6916865205
 20
97.8216694079
 11
92.5059722458
 21
97.6359552107
  0
LINE
  5
320
100
AcDbEntity
  8
0
100
AcDbLine
 62
250
  6
CONTINUOUS
 10
93.6202579518
 20
98.1930978022
 11
93.8059722458
 21
98.3788119994
  0
LINE
  5
321
100
AcDbEntity
  8
0
100
AcDbLine
 62
250
  6
CONTINUOUS
 10
92.6916865205
 20
96.8002410136
 11
92.5059722458
 21
96.6145268164
  0
LINE
  5
322
100
AcDbEntity
  8
0
100
AcDbLine
 62
250
  6
CONTINUOUS
 10
92.6916865205
 20
95.7788123093
 11
92.5059722458
 21
95.5930981122
  0
LINE
  5
323
100
AcDbEntity
  8
INCISIONI
100
AcDbLine
 62
250
  6
CONTINUOUS
 10
96.6128692458
 20
95.2012104079
 11
97.4749382458
 21
95.6216694079
  0
LINE
  5
324
100
AcDbEntity
  8
0
100
AcDbLine
 62
250
  6
CONTINUOUS
 10
92.8774007951
 20
93.9216694079
 11
93.8059722458
 21
94.2002407036
  0
LINE
  5
325
100
AcDbEntity
  8
INCISIONI
100
AcDbLine
 62
250
  6
CONTINUOUS
 10
99.4413782458
 20
90.3716694079
 11
96.1705662458
 21
90.3716694079
  0
LINE
  5
326
100
AcDbEntity
  8
ON_OFF_PORTATASTO
100
AcDbLine
 62
7
  6
CONTINUOUS
 10
77.7246573275
 20
90.0406223443
 11
77.0861974003
 21
90.0517667038
  0
LINE
  5
327
100
AcDbEntity
  8
INCISIONI
100
AcDbLine
 62
250
  6
CONTINUOUS
 10
91.4340562458
 20
88.4435484079
 11
92.2851122299
 21
87.7294284212
  0
LINE
  5
328
100
AcDbEntity
  8
0
100
AcDbLine
 62
250
  6
CONTINUOUS
 10
90.2728394368
 20
93.4068648686
 11
90.2519126178
 21
93.8903170958
  0
LINE
  5
329
100
AcDbEntity
  8
0
100
AcDbLine
 62
250
  6
CONTINUOUS
 10
89.744544026
 20
93.4211007999
 11
89.7342941554
 21
94.1602303534
  0
LINE
  5
32A
100
AcDbEntity
  8
ON_OFF_PORTATASTO
100
AcDbLine
 62
250
  6
CONTINUOUS
 10
88.8804920726
 20
69.4790443732
 11
88.8804920726
 21
68.0708959832
  0
LINE
  5
32B
100
AcDbEntity
  8
ON_OFF_PORTATASTO
100
AcDbLine
 62
250
  6
CONTINUOUS
 10
88.8804920726
 20
114.1642944426
 11
88.8804920726
 21
115.5724428326
  0
LINE
  5
32C
100
AcDbEntity
  8
INCISIONI
100
AcDbLine
 62
250
  6
CONTINUOUS
 10
89.3059722458
 20
106.1436693354
 11
89.3059722458
 21
105.2316692629
  0
LINE
  5
32D
100
AcDbEntity
  8
ON_OFF_PORTATASTO
100
AcDbLine
 62
7
  6
CONTINUOUS
 10
89.3059722458
 20
69.4827574824
 11
89.3059722458
 21
68.5653115932
  0
LINE
  5
32E
100
AcDbEntity
  8
INCISIONI
100
AcDbLine
 62
250
  6
CONTINUOUS
 10
89.3059722458
 20
104.0156693354
 11
89.3059722458
 21
104.1676695166
  0
LINE
  5
32F
100
AcDbEntity
  8
INCISIONI
100
AcDbLine
 62
250
  6
CONTINUOUS
 10
89.3059722458
 20
107.2076693354
 11
89.3059722458
 21
107.3596692629
  0
LINE
  5
330
100
AcDbEntity
  8
ON_OFF_PORTATASTO
100
AcDbLine
 62
7
  6
CONTINUOUS
 10
89.3059722458
 20
114.1605813334
 11
89.3059722458
 21
115.0780272226
  0
LINE
  5
331
100
AcDbEntity
  8
0
100
AcDbLine
 62
250
  6
CONTINUOUS
 10
89.744544026
 20
93.2676374604
 11
89.744544026
 21
93.4211007999
  0
LWPOLYLINE
  5
332
100
AcDbEntity
  8
0
100
AcDbPolyline
 62
7
  6
CONTINUOUS
 90
2
 70
0
 43
0.3500000006
 10
90.0525879822
 20
137.0716675415
 10
90.0525879822
 20
138.571677063
  0
LINE
  5
333
100
AcDbEntity
  8
INCISIONI
100
AcDbLine
 62
250
  6
CONTINUOUS
 10
90.1202579116
 20
105.2316692629
 11
90.1202579116
 21
105.8396694804
  0
LINE
  5
334
100
AcDbEntity
  8
INCISIONI
100
AcDbLine
 62
250
  6
CONTINUOUS
 10
90.7988293847
 20
102.9516693354
 11
90.7988293847
 21
101.8876694623
  0
LINE
  5
335
100
AcDbEntity
  8
0
100
AcDbLine
 62
250
  6
CONTINUOUS
 10
90.3223804778
 20
91.5697179332
 11
90.327505413
 21
91.6354879359
  0
LINE
  5
336
100
AcDbEntity
  8
0
100
AcDbLine
 62
250
  6
CONTINUOUS
 10
93.4345436578
 20
92.9930979572
 11
92.8774007951
 21
92.3430979572
  0
LINE
  5
337
100
AcDbEntity
  8
0
100
AcDbLine
 62
250
  6
CONTINUOUS
 10
92.5059722458
 20
92.9002408586
 11
92.5988294219
 21
92.9930979572
  0
LINE
  5
338
100
AcDbEntity
  8
INCISIONI
100
AcDbLine
 62
250
  6
CONTINUOUS
 10
95.6999742403
 20
95.948369403
 11
98.0218133291
 21
98.0087144818
  0
LINE
  5
339
100
AcDbEntity
  8
0
100
AcDbLine
 62
250
  6
CONTINUOUS
 10
90.3999663034
 20
91.7750000627
 11
91.0929714395
 21
92.3256458857
  0
LINE
  5
33A
100
AcDbEntity
  8
INCISIONI
100
AcDbLine
 62
250
  6
CONTINUOUS
 10
86.6030729693
 20
87.5666474079
 11
87.7938051778
 21
88.1840504079
  0
LINE
  5
33B
100
AcDbEntity
  8
0
100
AcDbLine
 62
250
  6
CONTINUOUS
 10
92.5059722458
 20
91.3216694079
 11
93.8059722458
 21
91.9716694079
  0
LINE
  5
33C
100
AcDbEntity
  8
0
100
AcDbLine
 62
250
  6
CONTINUOUS
 10
92.5059722458
 20
93.3645265065
 11
93.8059722458
 21
93.6430979572
  0
LINE
  5
33D
100
AcDbEntity
  8
0
100
AcDbLine
 62
250
  6
CONTINUOUS
 10
93.8059722458
 20
91.3216694079
 11
92.5059722458
 21
91.3216694079
  0
LINE
  5
33E
100
AcDbEntity
  8
0
100
AcDbLine
 62
250
  6
CONTINUOUS
 10
93.8059722458
 20
91.9716694079
 11
92.5059722458
 21
91.9716694079
  0
LINE
  5
33F
100
AcDbEntity
  8
0
100
AcDbLine
 62
250
  6
CONTINUOUS
 10
92.8774007951
 20
92.3430979572
 11
92.6916865205
 21
92.3430979572
  0
LINE
  5
340
100
AcDbEntity
  8
0
100
AcDbLine
 62
250
  6
CONTINUOUS
 10
93.6202579518
 20
92.9930979572
 11
93.4345436578
 21
92.9930979572
  0
LINE
  5
341
100
AcDbEntity
  8
0
100
AcDbLine
 62
250
  6
CONTINUOUS
 10
89.8524523853
 20
93.1433577801
 11
89.7933732704
 21
93.1433577801
  0
LINE
  5
342
100
AcDbEntity
  8
0
100
AcDbLine
 62
250
  6
CONTINUOUS
 10
91.3395377698
 20
91.4959758091
 11
90.3223804778
 21
91.5697179332
  0
LINE
  5
343
100
AcDbEntity
  8
0
100
AcDbLine
 62
250
  6
CONTINUOUS
 10
91.1672830009
 20
92.5248065647
 11
89.9347360682
 21
92.6233192094
  0
LINE
  5
344
100
AcDbEntity
  8
0
100
AcDbLine
 62
250
  6
CONTINUOUS
 10
90.3218110405
 20
93.103781891
 11
89.8524523853
 21
93.1433577801
  0
LINE
  5
345
100
AcDbEntity
  8
0
100
AcDbLine
 62
250
  6
CONTINUOUS
 10
91.0932561581
 20
93.0381542477
 11
90.3218110405
 21
93.103781891
  0
LINE
  5
346
100
AcDbEntity
  8
0
100
AcDbLine
 62
250
  6
CONTINUOUS
 10
89.7933732704
 20
93.1433577801
 11
89.744544026
 21
93.2676374604
  0
LINE
  5
347
100
AcDbEntity
  8
INCISIONI
100
AcDbLine
 62
250
  6
CONTINUOUS
 10
91.2059722458
 20
107.3596692629
 11
91.2059722458
 21
107.2076693354
  0
LINE
  5
348
100
AcDbEntity
  8
INCISIONI
100
AcDbLine
 62
250
  6
CONTINUOUS
 10
91.2059722458
 20
105.8396694804
 11
91.2059722458
 21
105.2316692629
  0
LINE
  5
349
100
AcDbEntity
  8
INCISIONI
100
AcDbLine
 62
250
  6
CONTINUOUS
 10
91.2059722458
 20
104.1676695166
 11
91.2059722458
 21
104.0156693354
  0
LINE
  5
34A
100
AcDbEntity
  8
INCISIONI
100
AcDbLine
 62
250
  6
CONTINUOUS
 10
91.4340562458
 20
86.8671934079
 11
91.4340562458
 21
85.8244834079
  0
LINE
  5
34B
100
AcDbEntity
  8
INCISIONI
100
AcDbLine
 62
250
  6
CONTINUOUS
 10
91.4340562458
 20
84.3329254079
 11
91.4340562458
 21
85.5206474079
  0
LINE
  5
34C
100
AcDbEntity
  8
INCISIONI
100
AcDbLine
 62
250
  6
CONTINUOUS
 10
91.8621892458
 20
85.4239724079
 11
91.8621892458
 21
84.3329254079
  0
LINE
  5
34D
100
AcDbEntity
  8
INCISIONI
100
AcDbLine
 62
250
  6
CONTINUOUS
 10
91.8768512458
 20
86.8188554079
 11
91.8768512458
 21
85.7278084079
  0
LINE
  5
34E
100
AcDbEntity
  8
ON_OFF_PORTATASTO
100
AcDbLine
 62
250
  6
CONTINUOUS
 10
92.0059722458
 20
113.1430895194
 11
92.0059722458
 21
112.8063200255
  0
LINE
  5
34F
100
AcDbEntity
  8
ON_OFF_PORTATASTO
100
AcDbLine
 62
250
  6
CONTINUOUS
 10
92.0059722458
 20
70.8370187903
 11
92.0059722458
 21
70.5002492964
  0
LINE
  5
350
100
AcDbEntity
  8
ON_OFF_PORTATASTO
100
AcDbLine
 62
250
  6
CONTINUOUS
 10
92.0077175652
 20
112.8063352566
 11
92.0077175652
 21
112.6716694079
  0
LINE
  5
351
100
AcDbEntity
  8
ON_OFF_PORTATASTO
100
AcDbLine
 62
250
  6
CONTINUOUS
 10
92.0077175652
 20
70.9716694079
 11
92.0077175652
 21
70.8370035592
  0
LINE
  5
352
100
AcDbEntity
  8
ON_OFF_PORTATASTO
100
AcDbLine
 62
7
  6
CONTINUOUS
 10
92.3059722458
 20
113.1430895194
 11
92.3059722458
 21
112.6716694079
  0
LINE
  5
353
100
AcDbEntity
  8
ON_OFF_PORTATASTO
100
AcDbLine
 62
7
  6
CONTINUOUS
 10
92.3059722458
 20
70.9716694079
 11
92.3059722458
 21
70.5002492964
  0
LINE
  5
354
100
AcDbEntity
  8
ON_OFF_CORPO
100
AcDbLine
 62
7
  6
CONTINUOUS
 10
92.3059722458
 20
70.9716694079
 11
92.3059722458
 21
72.5035388488
  0
LINE
  5
355
100
AcDbEntity
  8
ASSI
100
AcDbLine
 62
7
  6
CONTINUOUS
 10
92.3059722458
 20
70.9716694079
 11
92.3059722458
 21
72.5035388488
  0
LINE
  5
356
100
AcDbEntity
  8
ON_OFF_CORPO
100
AcDbLine
 62
7
  6
CONTINUOUS
 10
92.3059722458
 20
111.139799967
 11
92.3059722458
 21
112.6716694079
  0
LINE
  5
357
100
AcDbEntity
  8
ASSI
100
AcDbLine
 62
7
  6
CONTINUOUS
 10
92.3059722458
 20
111.139799967
 11
92.3059722458
 21
112.6716694079
  0
LINE
  5
358
100
AcDbEntity
  8
INCISIONI
100
AcDbLine
 62
250
  6
CONTINUOUS
 10
92.3196462458
 20
84.2362504079
 11
92.3196462458
 21
85.4239724079
  0
LINE
  5
359
100
AcDbEntity
  8
INCISIONI
100
AcDbLine
 62
250
  6
CONTINUOUS
 10
92.3196462458
 20
85.8244834079
 11
92.3196462458
 21
87.0122054079
  0
LINE
  5
35A
100
AcDbEntity
  8
0
100
AcDbLine
 62
250
  6
CONTINUOUS
 10
92.5059722458
 20
99.6788119994
 11
92.5059722458
 21
99.4002410136
  0
LINE
  5
35B
100
AcDbEntity
  8
0
100
AcDbLine
 62
250
  6
CONTINUOUS
 10
92.5059722458
 20
97.6359552107
 11
92.5059722458
 21
97.3573836051
  0
LINE
  5
35C
100
AcDbEntity
  8
0
100
AcDbLine
 62
250
  6
CONTINUOUS
 10
92.5059722458
 20
96.6145268164
 11
92.5059722458
 21
96.3359552107
  0
LINE
  5
35D
100
AcDbEntity
  8
0
100
AcDbLine
 62
250
  6
CONTINUOUS
 10
92.5059722458
 20
95.5930981122
 11
92.5059722458
 21
95.3145265065
  0
LINE
  5
35E
100
AcDbEntity
  8
0
100
AcDbLine
 62
250
  6
CONTINUOUS
 10
92.5059722458
 20
92.5288122318
 11
92.5059722458
 21
92.9002408586
  0
LINE
  5
35F
100
AcDbEntity
  8
INCISIONI
100
AcDbLine
 62
250
  6
CONTINUOUS
 10
92.8017092458
 20
89.7887124079
 11
92.8017092458
 21
82.8546264079
  0
LINE
  5
360
100
AcDbEntity
  8
0
100
AcDbLine
 62
250
  6
CONTINUOUS
 10
93.0631150698
 20
98.6573836051
 11
93.0631150698
 21
98.2550029479
  0
LINE
  5
361
100
AcDbEntity
  8
0
100
AcDbLine
 62
250
  6
CONTINUOUS
 10
91.1638663774
 20
92.4607448738
 11
91.1672830009
 21
92.5248065647
  0
LINE
  5
362
100
AcDbEntity
  8
INCISIONI
100
AcDbLine
 62
250
  6
CONTINUOUS
 10
89.3782732457
 20
86.5436034078
 11
92.2651209036
 21
89.9840140001
  0
LINE
  5
363
100
AcDbEntity
  8
0
100
AcDbLine
 62
250
  6
CONTINUOUS
 10
93.7131150988
 20
92.3430979572
 11
93.8059722458
 21
92.4359551332
  0
LINE
  5
364
100
AcDbEntity
  8
INCISIONI
100
AcDbLine
 62
250
  6
CONTINUOUS
 10
87.7938121757
 20
87.5307454079
 11
86.6728037238
 21
86.9494914079
  0
LINE
  5
365
100
AcDbEntity
  8
ON_OFF_CORPO
100
AcDbLine
 62
7
  6
CONTINUOUS
 10
106.0321189687
 20
97.2226876777
 11
105.0059722458
 21
97.1329114724
  0
LINE
  5
366
100
AcDbEntity
  8
ASSI
100
AcDbLine
 62
7
  6
CONTINUOUS
 10
106.0321189687
 20
97.2226876777
 11
105.0059722458
 21
97.1329114724
  0
LINE
  5
367
100
AcDbEntity
  8
ON_OFF_PORTATASTO
100
AcDbLine
 62
7
  6
CONTINUOUS
 10
77.7246573275
 20
93.6027164715
 11
77.458929756
 21
93.5980781795
  0
LINE
  5
368
100
AcDbEntity
  8
INCISIONI
100
AcDbLine
 62
250
  6
CONTINUOUS
 10
99.5530982458
 20
93.6389104079
 11
98.7485012458
 21
93.6389104079
  0
LINE
  5
369
100
AcDbEntity
  8
INCISIONI
100
AcDbLine
 62
250
  6
CONTINUOUS
 10
84.8947094723
 20
94.5224594079
 11
87.7938271711
 21
94.5224594079
  0
LINE
  5
36A
100
AcDbEntity
  8
INCISIONI
100
AcDbLine
 62
250
  6
CONTINUOUS
 10
97.3749382458
 20
94.5699454079
 11
98.2370062458
 21
94.5699454079
  0
LINE
  5
36B
100
AcDbEntity
  8
INCISIONI
100
AcDbLine
 62
250
  6
CONTINUOUS
 10
98.0358572458
 20
95.1274164079
 11
97.5760872458
 21
95.1274164079
  0
LINE
  5
36C
100
AcDbEntity
  8
INCISIONI
100
AcDbLine
 62
250
  6
CONTINUOUS
 10
87.7938271711
 20
95.1450654079
 11
86.6774053218
 21
95.1450654079
  0
LINE
  5
36D
100
AcDbEntity
  8
INCISIONI
100
AcDbLine
 62
250
  6
CONTINUOUS
 10
86.195619112
 20
95.1450654079
 11
85.376495682
 21
95.1450654079
  0
LINE
  5
36E
100
AcDbEntity
  8
ON_OFF_CORPO
100
AcDbLine
 62
7
  6
CONTINUOUS
 10
106.0321189687
 20
93.0706511381
 11
104.579825523
 21
93.1977103507
  0
LINE
  5
36F
100
AcDbEntity
  8
ASSI
100
AcDbLine
 62
7
  6
CONTINUOUS
 10
106.0321189687
 20
93.0706511381
 11
104.579825523
 21
93.1977103507
  0
LINE
  5
370
100
AcDbEntity
  8
0
100
AcDbLine
 62
250
  6
CONTINUOUS
 10
93.8059722458
 20
94.2002407036
 11
92.5059722458
 21
94.4788123093
  0
LINE
  5
371
100
AcDbEntity
  8
0
100
AcDbLine
 62
250
  6
CONTINUOUS
 10
93.8059722458
 20
93.6430979572
 11
92.8774007951
 21
93.9216694079
  0
LINE
  5
372
100
AcDbEntity
  8
0
100
AcDbLine
 62
250
  6
CONTINUOUS
 10
92.6916865205
 20
92.3430979572
 11
92.5059722458
 21
92.5288122318
  0
LINE
  5
373
100
AcDbEntity
  8
0
100
AcDbLine
 62
250
  6
CONTINUOUS
 10
90.4137751568
 20
93.0959521288
 11
90.3601056957
 21
93.1605832569
  0
LINE
  5
374
100
AcDbEntity
  8
0
100
AcDbLine
 62
250
  6
CONTINUOUS
 10
90.3601056957
 20
93.1605832569
 11
90.3270783351
 21
93.2200894498
  0
LINE
  5
375
100
AcDbEntity
  8
ON_OFF_CORPO
100
AcDbLine
 62
250
  6
CONTINUOUS
 10
93.6234246523
 20
72.5265350661
 11
93.6234246523
 21
72.8177987797
  0
LINE
  5
376
100
AcDbEntity
  8
ASSI
100
AcDbLine
 62
250
  6
CONTINUOUS
 10
93.6234246523
 20
72.5265350661
 11
93.6234246523
 21
72.8177987797
  0
LINE
  5
377
100
AcDbEntity
  8
ON_OFF_CORPO
100
AcDbLine
 62
250
  6
CONTINUOUS
 10
93.6234246523
 20
74.2317969505
 11
93.6234246523
 21
82.276860229
  0
LINE
  5
378
100
AcDbEntity
  8
ASSI
100
AcDbLine
 62
250
  6
CONTINUOUS
 10
93.6234246523
 20
74.2317969505
 11
93.6234246523
 21
82.276860229
  0
LINE
  5
379
100
AcDbEntity
  8
0
100
AcDbLine
 62
250
  6
CONTINUOUS
 10
93.8059722458
 20
99.8645268164
 11
93.8059722458
 21
99.2145268164
  0
LINE
  5
37A
100
AcDbEntity
  8
0
100
AcDbLine
 62
250
  6
CONTINUOUS
 10
93.8059722458
 20
97.8216694079
 11
93.8059722458
 21
97.1716694079
  0
LINE
  5
37B
100
AcDbEntity
  8
0
100
AcDbLine
 62
250
  6
CONTINUOUS
 10
93.8059722458
 20
96.8002410136
 11
93.8059722458
 21
96.1502407036
  0
LINE
  5
37C
100
AcDbEntity
  8
0
100
AcDbLine
 62
250
  6
CONTINUOUS
 10
93.8059722458
 20
95.7788123093
 11
93.8059722458
 21
95.1288123093
  0
LINE
  5
37D
100
AcDbEntity
  8
0
100
AcDbLine
 62
250
  6
CONTINUOUS
 10
93.8059722458
 20
92.4359551332
 11
93.8059722458
 21
92.80738376
  0
LINE
  5
37E
100
AcDbEntity
  8
0
100
AcDbLine
 62
250
  6
CONTINUOUS
 10
93.8059722458
 20
98.3788119994
 11
93.8059722458
 21
98.6573836051
  0
LINE
  5
37F
100
AcDbEntity
  8
ON_OFF_CORPO
100
AcDbLine
 62
250
  6
CONTINUOUS
 10
94.4094627271
 20
105.9303207763
 11
94.4094627271
 21
87.8130180395
  0
LINE
  5
380
100
AcDbEntity
  8
ASSI
100
AcDbLine
 62
250
  6
CONTINUOUS
 10
94.4094627271
 20
105.9303207763
 11
94.4094627271
 21
87.8130180395
  0
LINE
  5
381
100
AcDbEntity
  8
ON_OFF_CORPO
100
AcDbLine
 62
7
  6
CONTINUOUS
 10
94.6059722458
 20
105.9303207763
 11
94.6059722458
 21
87.8130180395
  0
LINE
  5
382
100
AcDbEntity
  8
ASSI
100
AcDbLine
 62
7
  6
CONTINUOUS
 10
94.6059722458
 20
105.9303207763
 11
94.6059722458
 21
87.8130180395
  0
LINE
  5
383
100
AcDbEntity
  8
ON_OFF_CORPO
100
AcDbLine
 62
7
  6
CONTINUOUS
 10
94.6059722458
 20
73.2335341515
 11
94.6059722458
 21
82.276860229
  0
LINE
  5
384
100
AcDbEntity
  8
ASSI
100
AcDbLine
 62
7
  6
CONTINUOUS
 10
94.6059722458
 20
73.2335341515
 11
94.6059722458
 21
82.276860229
  0
LINE
  5
385
100
AcDbEntity
  8
ON_OFF_CORPO
100
AcDbLine
 62
250
  6
CONTINUOUS
 10
95.0972460426
 20
82.2802903154
 11
95.0972460426
 21
73.2592597995
  0
LINE
  5
386
100
AcDbEntity
  8
ASSI
100
AcDbLine
 62
250
  6
CONTINUOUS
 10
95.0972460426
 20
82.2802903154
 11
95.0972460426
 21
73.2592597995
  0
LWPOLYLINE
  5
387
100
AcDbEntity
  8
0
100
AcDbPolyline
 62
7
  6
CONTINUOUS
 90
2
 70
0
 43
0.3500000006
 10
95.305974884
 20
127.0716735535
 10
95.305974884
 20
128.5716649475
  0
LINE
  5
388
100
AcDbEntity
  8
INCISIONI
100
AcDbLine
 62
250
  6
CONTINUOUS
 10
92.2851122461
 20
87.5813134081
 11
91.4340562458
 21
86.8671934079
  0
LINE
  5
389
100
AcDbEntity
  8
INCISIONI
100
AcDbLine
 62
250
  6
CONTINUOUS
 10
84.8945655161
 20
84.5453484079
 11
87.7938201733
 21
85.4764874079
  0
LINE
  5
38A
100
AcDbEntity
  8
INCISIONI
100
AcDbLine
 62
250
  6
CONTINUOUS
 10
86.6728037238
 20
84.5364234079
 11
85.7975314011
 21
84.2553194079
  0
LINE
  5
38B
100
AcDbEntity
  8
INCISIONI
100
AcDbLine
 62
250
  6
CONTINUOUS
 10
87.7938121757
 20
84.8964584079
 11
87.2236578899
 21
84.7133524079
  0
LINE
  5
38C
100
AcDbEntity
  8
0
100
AcDbLine
 62
250
  6
CONTINUOUS
 10
92.8774007951
 20
95.7788123093
 11
92.6916865205
 21
95.7788123093
  0
LINE
  5
38D
100
AcDbEntity
  8
INCISIONI
100
AcDbLine
 62
250
  6
CONTINUOUS
 10
97.3749382458
 20
96.0756924079
 11
98.2370062458
 21
96.0756924079
  0
LINE
  5
38E
100
AcDbEntity
  8
0
100
AcDbLine
 62
250
  6
CONTINUOUS
 10
92.8774007951
 20
96.8002410136
 11
92.6916865205
 21
96.8002410136
  0
LINE
  5
38F
100
AcDbEntity
  8
INCISIONI
100
AcDbLine
 62
250
  6
CONTINUOUS
 10
87.7938271711
 20
96.9928024079
 11
84.8947094723
 21
96.9928024079
  0
LINE
  5
390
100
AcDbEntity
  8
INCISIONI
100
AcDbLine
 62
250
  6
CONTINUOUS
 10
98.7485012458
 20
97.6044284079
 11
99.5530982458
 21
97.6044284079
  0
LINE
  5
391
100
AcDbEntity
  8
INCISIONI
100
AcDbLine
 62
250
  6
CONTINUOUS
 10
84.8947094723
 20
97.6154084079
 11
87.3120409614
 21
97.6154084079
  0
LINE
  5
392
100
AcDbEntity
  8
0
100
AcDbLine
 62
250
  6
CONTINUOUS
 10
92.8774007951
 20
97.8216694079
 11
92.6916865205
 21
97.8216694079
  0
LINE
  5
393
100
AcDbEntity
  8
0
100
AcDbLine
 62
250
  6
CONTINUOUS
 10
92.5059722458
 20
95.3145265065
 11
92.7845436966
 21
95.1288123093
  0
LINE
  5
394
100
AcDbEntity
  8
0
100
AcDbLine
 62
250
  6
CONTINUOUS
 10
92.5059722458
 20
96.3359552107
 11
92.7845436966
 21
96.1502407036
  0
LINE
  5
395
100
AcDbEntity
  8
0
100
AcDbLine
 62
250
  6
CONTINUOUS
 10
93.8059722458
 20
95.1288123093
 11
92.8774007951
 21
95.7788123093
  0
LINE
  5
396
100
AcDbEntity
  8
0
100
AcDbLine
 62
250
  6
CONTINUOUS
 10
93.8059722458
 20
92.80738376
 11
93.6202579518
 21
92.9930979572
  0
LINE
  5
397
100
AcDbEntity
  8
INCISIONI
100
AcDbLine
 62
250
  6
CONTINUOUS
 10
96.1705662458
 20
90.6194584079
 11
96.1705662458
 21
90.1238804079
  0
LINE
  5
398
100
AcDbEntity
  8
INCISIONI
100
AcDbLine
 62
250
  6
CONTINUOUS
 10
97.3749382458
 20
96.6331634079
 11
97.3749382458
 21
96.0756924079
  0
LINE
  5
399
100
AcDbEntity
  8
INCISIONI
100
AcDbLine
 62
250
  6
CONTINUOUS
 10
97.3749382458
 20
94.9262674079
 11
97.3749382458
 21
94.5699454079
  0
LINE
  5
39A
100
AcDbEntity
  8
INCISIONI
100
AcDbLine
 62
250
  6
CONTINUOUS
 10
97.3829322458
 20
103.7611652959
 11
97.3829322458
 21
105.2216694079
  0
LINE
  5
39B
100
AcDbEntity
  8
INCISIONI
100
AcDbLine
 62
250
  6
CONTINUOUS
 10
97.8059722458
 20
90.3716694079
 11
96.7727812458
 21
89.0406474079
  0
LINE
  5
39C
100
AcDbEntity
  8
INCISIONI
100
AcDbLine
 62
250
  6
CONTINUOUS
 10
86.7826662509
 20
81.2290894079
 11
84.894572514
 21
80.6875214079
  0
LINE
  5
39D
100
AcDbEntity
  8
INCISIONI
100
AcDbLine
 62
250
  6
CONTINUOUS
 10
85.8819606773
 20
80.3907064079
 11
87.7938201733
 21
80.9390824079
  0
LINE
  5
39E
100
AcDbEntity
  8
ON_OFF_CORPO
100
AcDbLine
 62
7
  6
CONTINUOUS
 10
106.0321189687
 20
100.9726876777
 11
104.579825523
 21
100.8456284651
  0
LINE
  5
39F
100
AcDbEntity
  8
ASSI
100
AcDbLine
 62
7
  6
CONTINUOUS
 10
106.0321189687
 20
100.9726876777
 11
104.579825523
 21
100.8456284651
  0
LINE
  5
3A0
100
AcDbEntity
  8
0
100
AcDbLine
 62
250
  6
CONTINUOUS
 10
93.1559722458
 20
98.1930978022
 11
93.6202579518
 21
98.1930978022
  0
LINE
  5
3A1
100
AcDbEntity
  8
INCISIONI
100
AcDbLine
 62
250
  6
CONTINUOUS
 10
87.3120409614
 20
98.6884074079
 11
87.7938271711
 21
98.6884074079
  0
LINE
  5
3A2
100
AcDbEntity
  8
0
100
AcDbLine
 62
250
  6
CONTINUOUS
 10
93.6202579518
 20
98.8430978022
 11
93.2488293832
 21
98.8430978022
  0
LINE
  5
3A3
100
AcDbEntity
  8
ON_OFF_CORPO
100
AcDbLine
 62
7
  6
CONTINUOUS
 10
104.5059722458
 20
99.3216694079
 11
104.3059722458
 21
99.3216694079
  0
LINE
  5
3A4
100
AcDbEntity
  8
ASSI
100
AcDbLine
 62
7
  6
CONTINUOUS
 10
104.5059722458
 20
99.3216694079
 11
104.3059722458
 21
99.3216694079
  0
LINE
  5
3A5
100
AcDbEntity
  8
0
100
AcDbLine
 62
250
  6
CONTINUOUS
 10
92.8774007951
 20
99.8645268164
 11
92.6916865205
 21
99.8645268164
  0
LINE
  5
3A6
100
AcDbEntity
  8
INCISIONI
100
AcDbLine
 62
250
  6
CONTINUOUS
 10
86.6975891721
 20
99.9731254079
 11
85.4487006826
 21
100.4031404079
  0
LINE
  5
3A7
100
AcDbEntity
  8
INCISIONI
100
AcDbLine
 62
250
  6
CONTINUOUS
 10
87.7938271711
 20
99.5956334079
 11
87.1793753819
 21
99.8124814079
  0
LINE
  5
3A8
100
AcDbEntity
  8
INCISIONI
100
AcDbLine
 62
250
  6
CONTINUOUS
 10
84.8947094723
 20
100.0495184079
 11
87.7938271711
 21
99.0011834079
  0
LINE
  5
3A9
100
AcDbEntity
  8
INCISIONI
100
AcDbLine
 62
250
  6
CONTINUOUS
 10
97.4749382458
 20
95.6216694079
 11
96.6128692458
 21
96.0421284079
  0
LINE
  5
3AA
100
AcDbEntity
  8
0
100
AcDbLine
 62
250
  6
CONTINUOUS
 10
92.7845436966
 20
98.3788119994
 11
93.1559722458
 21
98.1930978022
  0
LINE
  5
3AB
100
AcDbEntity
  8
0
100
AcDbLine
 62
250
  6
CONTINUOUS
 10
92.5059722458
 20
97.3573836051
 11
92.7845436966
 21
97.1716694079
  0
LINE
  5
3AC
100
AcDbEntity
  8
0
100
AcDbLine
 62
250
  6
CONTINUOUS
 10
93.8059722458
 20
96.1502407036
 11
92.8774007951
 21
96.8002410136
  0
LINE
  5
3AD
100
AcDbEntity
  8
0
100
AcDbLine
 62
250
  6
CONTINUOUS
 10
93.8059722458
 20
97.1716694079
 11
92.8774007951
 21
97.8216694079
  0
LINE
  5
3AE
100
AcDbEntity
  8
INCISIONI
100
AcDbLine
 62
250
  6
CONTINUOUS
 10
98.0218133585
 20
93.2346243079
 11
95.6999743291
 21
95.294969334
  0
LINE
  5
3AF
100
AcDbEntity
  8
0
100
AcDbLine
 62
250
  6
CONTINUOUS
 10
92.5059722458
 20
98.6573836051
 11
92.7845436966
 21
98.3788119994
  0
LINE
  5
3B0
100
AcDbEntity
  8
0
100
AcDbLine
 62
250
  6
CONTINUOUS
 10
93.8059722458
 20
98.6573836051
 11
93.6202579518
 21
98.8430978022
  0
LINE
  5
3B1
100
AcDbEntity
  8
INCISIONI
100
AcDbLine
 62
250
  6
CONTINUOUS
 10
89.8488293563
 20
100.6716694079
 11
89.3059722458
 21
101.2796694351
  0
LINE
  5
3B2
100
AcDbEntity
  8
INCISIONI
100
AcDbLine
 62
250
  6
CONTINUOUS
 10
96.7727811319
 20
91.7026915547
 11
97.8059722458
 21
90.3716694079
  0
LINE
  5
3B3
100
AcDbEntity
  8
INCISIONI
100
AcDbLine
 62
250
  6
CONTINUOUS
 10
97.8059722458
 20
96.0756924079
 11
97.8059722458
 21
96.4664974079
  0
LINE
  5
3B4
100
AcDbEntity
  8
INCISIONI
100
AcDbLine
 62
250
  6
CONTINUOUS
 10
98.1329322458
 20
105.2216694079
 11
98.1329322458
 21
103.7611684079
  0
LINE
  5
3B5
100
AcDbEntity
  8
INCISIONI
100
AcDbLine
 62
250
  6
CONTINUOUS
 10
98.2370062458
 20
94.5699454079
 11
98.2370062458
 21
94.9262674079
  0
LINE
  5
3B6
100
AcDbEntity
  8
INCISIONI
100
AcDbLine
 62
250
  6
CONTINUOUS
 10
98.2370062458
 20
96.0756924079
 11
98.2370062458
 21
96.6331634079
  0
LINE
  5
3B7
100
AcDbEntity
  8
INCISIONI
100
AcDbLine
 62
250
  6
CONTINUOUS
 10
98.7485012458
 20
97.6820144079
 11
98.7485012458
 21
93.5613244079
  0
LINE
  5
3B8
100
AcDbEntity
  8
INCISIONI
100
AcDbLine
 62
250
  6
CONTINUOUS
 10
99.4413782458
 20
90.6194584079
 11
99.4413782458
 21
90.1238804079
  0
LINE
  5
3B9
100
AcDbEntity
  8
INCISIONI
100
AcDbLine
 62
250
  6
CONTINUOUS
 10
99.5530982458
 20
97.6044284079
 11
99.5530982458
 21
93.6389104079
  0
LINE
  5
3BA
100
AcDbEntity
  8
INCISIONI
100
AcDbLine
 62
250
  6
CONTINUOUS
 10
95.2098952458
 20
101.2365594079
 11
95.9607122458
 21
101.2365594079
  0
LINE
  5
3BB
100
AcDbEntity
  8
INCISIONI
100
AcDbLine
 62
250
  6
CONTINUOUS
 10
99.5551522458
 20
101.2365594079
 11
100.3059692458
 21
101.2365594079
  0
LINE
  5
3BC
100
AcDbEntity
  8
INCISIONI
100
AcDbLine
 62
250
  6
CONTINUOUS
 10
89.3059722458
 20
101.2796694351
 11
91.2059722458
 21
101.2796694351
  0
LINE
  5
3BD
100
AcDbEntity
  8
INCISIONI
100
AcDbLine
 62
250
  6
CONTINUOUS
 10
87.7938271711
 20
102.1139944079
 11
84.8947094723
 21
102.1139944079
  0
LINE
  5
3BE
100
AcDbEntity
  8
INCISIONI
100
AcDbLine
 62
250
  6
CONTINUOUS
 10
90.7988293847
 20
101.8876694623
 11
89.3059722458
 21
102.3436693717
  0
LINE
  5
3BF
100
AcDbEntity
  8
0
100
AcDbLine
 62
250
  6
CONTINUOUS
 10
92.5059722458
 20
99.4002410136
 11
92.7845436966
 21
99.2145268164
  0
LINE
  5
3C0
100
AcDbEntity
  8
0
100
AcDbLine
 62
250
  6
CONTINUOUS
 10
93.8059722458
 20
99.2145268164
 11
92.8774007951
 21
99.8645268164
  0
LINE
  5
3C1
100
AcDbEntity
  8
INCISIONI
100
AcDbLine
 62
250
  6
CONTINUOUS
 10
89.5774008011
 20
103.7116694804
 11
89.3059722458
 21
104.0156693354
  0
LINE
  5
3C2
100
AcDbEntity
  8
INCISIONI
100
AcDbLine
 62
250
  6
CONTINUOUS
 10
90.9345436623
 20
104.4716693717
 11
91.2059722458
 21
104.1676695166
  0
LINE
  5
3C3
100
AcDbEntity
  8
INCISIONI
100
AcDbLine
 62
250
  6
CONTINUOUS
 10
89.5774008011
 20
106.9036694804
 11
89.3059722458
 21
107.2076693354
  0
LINE
  5
3C4
100
AcDbEntity
  8
INCISIONI
100
AcDbLine
 62
250
  6
CONTINUOUS
 10
100.0558942458
 20
90.3716694079
 11
100.0558942458
 21
90.9068934079
  0
LINE
  5
3C5
100
AcDbEntity
  8
INCISIONI
100
AcDbLine
 62
250
  6
CONTINUOUS
 10
86.8908612861
 20
77.0428304079
 11
84.894572514
 21
76.4016984079
  0
LINE
  5
3C6
100
AcDbEntity
  8
INCISIONI
100
AcDbLine
 62
250
  6
CONTINUOUS
 10
84.894572514
 20
75.8216694079
 11
87.7938271711
 21
76.7528014079
  0
LINE
  5
3C7
100
AcDbEntity
  8
INCISIONI
100
AcDbLine
 62
250
  6
CONTINUOUS
 10
90.2559722458
 20
102.5970027533
 11
91.2059722458
 21
102.5970027533
  0
LINE
  5
3C8
100
AcDbEntity
  8
INCISIONI
100
AcDbLine
 62
250
  6
CONTINUOUS
 10
85.3674624342
 20
102.6964394079
 11
87.7938271711
 21
102.6964394079
  0
LINE
  5
3C9
100
AcDbEntity
  8
INCISIONI
100
AcDbLine
 62
250
  6
CONTINUOUS
 10
90.6631150787
 20
103.5596692992
 11
89.8488293563
 21
103.5596692992
  0
LINE
  5
3CA
100
AcDbEntity
  8
INCISIONI
100
AcDbLine
 62
250
  6
CONTINUOUS
 10
87.1921234978
 20
104.1504234079
 11
84.8947094723
 21
104.1504234079
  0
LINE
  5
3CB
100
AcDbEntity
  8
INCISIONI
100
AcDbLine
 62
250
  6
CONTINUOUS
 10
89.8488293563
 20
104.6236692992
 11
90.6631150787
 21
104.6236692992
  0
LINE
  5
3CC
100
AcDbEntity
  8
INCISIONI
100
AcDbLine
 62
250
  6
CONTINUOUS
 10
84.8947094723
 20
104.7328674079
 11
87.7938271711
 21
104.7328674079
  0
LINE
  5
3CD
100
AcDbEntity
  8
INCISIONI
100
AcDbLine
 62
250
  6
CONTINUOUS
 10
86.6975891721
 20
105.9981604079
 11
85.4488646327
 21
106.4281184079
  0
LINE
  5
3CE
100
AcDbEntity
  8
INCISIONI
100
AcDbLine
 62
250
  6
CONTINUOUS
 10
87.7938271711
 20
105.6205584079
 11
87.1793753819
 21
105.8375154079
  0
LINE
  5
3CF
100
AcDbEntity
  8
INCISIONI
100
AcDbLine
 62
250
  6
CONTINUOUS
 10
84.8947094723
 20
106.0745534079
 11
87.7938271711
 21
105.0261094079
  0
LINE
  5
3D0
100
AcDbEntity
  8
INCISIONI
100
AcDbLine
 62
250
  6
CONTINUOUS
 10
89.8488293563
 20
103.5596692992
 11
89.5774008011
 21
103.7116694804
  0
LINE
  5
3D1
100
AcDbEntity
  8
INCISIONI
100
AcDbLine
 62
250
  6
CONTINUOUS
 10
90.6631150787
 20
104.6236692992
 11
90.9345436623
 21
104.4716693717
  0
LINE
  5
3D2
100
AcDbEntity
  8
INCISIONI
100
AcDbLine
 62
250
  6
CONTINUOUS
 10
90.9345436623
 20
106.1436693354
 11
91.2059722458
 21
105.8396694804
  0
LINE
  5
3D3
100
AcDbEntity
  8
INCISIONI
100
AcDbLine
 62
250
  6
CONTINUOUS
 10
90.9345436623
 20
107.6636696253
 11
91.2059722458
 21
107.3596692629
  0
LINE
  5
3D4
100
AcDbEntity
  8
ON_OFF_CORPO
100
AcDbLine
 62
250
  6
CONTINUOUS
 10
103.8146984491
 20
86.9609609551
 11
103.8146984491
 21
83.7322560168
  0
LINE
  5
3D5
100
AcDbEntity
  8
ASSI
100
AcDbLine
 62
250
  6
CONTINUOUS
 10
103.8146984491
 20
86.9609609551
 11
103.8146984491
 21
83.7322560168
  0
LINE
  5
3D6
100
AcDbEntity
  8
ON_OFF_CORPO
100
AcDbLine
 62
250
  6
CONTINUOUS
 10
103.8146984491
 20
82.4324540131
 11
103.8146984491
 21
73.4114234973
  0
LINE
  5
3D7
100
AcDbEntity
  8
ASSI
100
AcDbLine
 62
250
  6
CONTINUOUS
 10
103.8146984491
 20
82.4324540131
 11
103.8146984491
 21
73.4114234973
  0
LINE
  5
3D8
100
AcDbEntity
  8
ON_OFF_CORPO
100
AcDbLine
 62
250
  6
CONTINUOUS
 10
103.8146984491
 20
106.7823778607
 11
103.8146984491
 21
109.3378576856
  0
LINE
  5
3D9
100
AcDbEntity
  8
ASSI
100
AcDbLine
 62
250
  6
CONTINUOUS
 10
103.8146984491
 20
106.7823778607
 11
103.8146984491
 21
109.3378576856
  0
LINE
  5
3DA
100
AcDbEntity
  8
ON_OFF_CORPO
100
AcDbLine
 62
250
  6
CONTINUOUS
 10
103.8146984491
 20
110.7518558564
 11
103.8146984491
 21
110.9389144039
  0
LINE
  5
3DB
100
AcDbEntity
  8
ASSI
100
AcDbLine
 62
250
  6
CONTINUOUS
 10
103.8146984491
 20
110.7518558564
 11
103.8146984491
 21
110.9389144039
  0
LINE
  5
3DC
100
AcDbEntity
  8
ON_OFF_CORPO
100
AcDbLine
 62
250
  6
CONTINUOUS
 10
104.0112079678
 20
87.1575004077
 11
104.0112079678
 21
106.5858384081
  0
LINE
  5
3DD
100
AcDbEntity
  8
ASSI
100
AcDbLine
 62
250
  6
CONTINUOUS
 10
104.0112079678
 20
87.1575004077
 11
104.0112079678
 21
106.5858384081
  0
LINE
  5
3DE
100
AcDbEntity
  8
ON_OFF_CORPO
100
AcDbLine
 62
7
  6
CONTINUOUS
 10
104.3059722458
 20
102.4474243967
 11
104.3059722458
 21
91.5959144191
  0
LINE
  5
3DF
100
AcDbEntity
  8
ASSI
100
AcDbLine
 62
7
  6
CONTINUOUS
 10
104.3059722458
 20
102.4474243967
 11
104.3059722458
 21
91.5959144191
  0
LINE
  5
3E0
100
AcDbEntity
  8
ON_OFF_CORPO
100
AcDbLine
 62
7
  6
CONTINUOUS
 10
104.3059722458
 20
88.6474243967
 11
104.3059722458
 21
72.9114996497
  0
LINE
  5
3E1
100
AcDbEntity
  8
ASSI
100
AcDbLine
 62
7
  6
CONTINUOUS
 10
104.3059722458
 20
88.6474243967
 11
104.3059722458
 21
72.9114996497
  0
LINE
  5
3E2
100
AcDbEntity
  8
INCISIONI
100
AcDbLine
 62
250
  6
CONTINUOUS
 10
104.3059722458
 20
109.3378576856
 11
104.3059722458
 21
109.3716694079
  0
LINE
  5
3E3
100
AcDbEntity
  8
ON_OFF_CORPO
100
AcDbLine
 62
7
  6
CONTINUOUS
 10
104.3059722458
 20
105.3959144191
 11
104.3059722458
 21
110.7318391661
  0
LINE
  5
3E4
100
AcDbEntity
  8
ASSI
100
AcDbLine
 62
7
  6
CONTINUOUS
 10
104.3059722458
 20
105.3959144191
 11
104.3059722458
 21
110.7318391661
  0
LINE
  5
3E5
100
AcDbEntity
  8
ON_OFF_CORPO
100
AcDbLine
 62
250
  6
CONTINUOUS
 10
104.5059722458
 20
99.3216694079
 11
104.5059722458
 21
93.2137636353
  0
LINE
  5
3E6
100
AcDbEntity
  8
ASSI
100
AcDbLine
 62
250
  6
CONTINUOUS
 10
104.5059722458
 20
99.3216694079
 11
104.5059722458
 21
93.2137636353
  0
LINE
  5
3E7
100
AcDbEntity
  8
ON_OFF_CORPO
100
AcDbLine
 62
250
  6
CONTINUOUS
 10
104.5059722458
 20
87.0295751805
 11
104.5059722458
 21
84.3216694079
  0
LINE
  5
3E8
100
AcDbEntity
  8
ASSI
100
AcDbLine
 62
250
  6
CONTINUOUS
 10
104.5059722458
 20
87.0295751805
 11
104.5059722458
 21
84.3216694079
  0
LINE
  5
3E9
100
AcDbEntity
  8
ON_OFF_CORPO
100
AcDbLine
 62
250
  6
CONTINUOUS
 10
104.5798255459
 20
106.9977103487
 11
104.579825523
 21
105.2653651869
  0
LINE
  5
3EA
100
AcDbEntity
  8
ASSI
100
AcDbLine
 62
250
  6
CONTINUOUS
 10
104.5798255459
 20
106.9977103487
 11
104.579825523
 21
105.2653651869
  0
LINE
  5
3EB
100
AcDbEntity
  8
ON_OFF_CORPO
100
AcDbLine
 62
250
  6
CONTINUOUS
 10
104.579825523
 20
102.5779736289
 11
104.579825564
 21
99.316069677
  0
LINE
  5
3EC
100
AcDbEntity
  8
ASSI
100
AcDbLine
 62
250
  6
CONTINUOUS
 10
104.579825523
 20
102.5779736289
 11
104.579825564
 21
99.316069677
  0
LINE
  5
3ED
100
AcDbEntity
  8
ON_OFF_CORPO
100
AcDbLine
 62
250
  6
CONTINUOUS
 10
104.5798255459
 20
93.1977103487
 11
104.579825523
 21
91.4653651869
  0
LINE
  5
3EE
100
AcDbEntity
  8
ASSI
100
AcDbLine
 62
250
  6
CONTINUOUS
 10
104.5798255459
 20
93.1977103487
 11
104.579825523
 21
91.4653651869
  0
LINE
  5
3EF
100
AcDbEntity
  8
ON_OFF_CORPO
100
AcDbLine
 62
250
  6
CONTINUOUS
 10
104.579825523
 20
88.7779736289
 11
104.5798255427
 21
87.0456284668
  0
LINE
  5
3F0
100
AcDbEntity
  8
ASSI
100
AcDbLine
 62
250
  6
CONTINUOUS
 10
104.579825523
 20
88.7779736289
 11
104.5798255427
 21
87.0456284668
  0
LINE
  5
3F1
100
AcDbEntity
  8
ON_OFF_CORPO
100
AcDbLine
 62
250
  6
CONTINUOUS
 10
104.5798255639
 20
84.3272691388
 11
104.5798255632
 21
80.3956284686
  0
LINE
  5
3F2
100
AcDbEntity
  8
ASSI
100
AcDbLine
 62
250
  6
CONTINUOUS
 10
104.5798255639
 20
84.3272691388
 11
104.5798255632
 21
80.3956284686
  0
LINE
  5
3F3
100
AcDbEntity
  8
ON_OFF_PORTATASTO
100
AcDbLine
 62
7
  6
CONTINUOUS
 10
79.8059722458
 20
68.6990196771
 11
78.9309722458
 21
68.1938381915
  0
LINE
  5
3F4
100
AcDbEntity
  8
ON_OFF_PORTATASTO
100
AcDbLine
 62
250
  6
CONTINUOUS
 10
80.054517813
 20
68.5546821098
 11
79.054517813
 21
67.9773318406
  0
LINE
  5
3F5
100
AcDbEntity
  8
ON_OFF_CORPO
100
AcDbLine
 62
7
  6
CONTINUOUS
 10
104.1094627271
 20
106.5875534513
 11
95.0972460426
 21
106.4302446239
  0
LINE
  5
3F6
100
AcDbEntity
  8
ASSI
100
AcDbLine
 62
7
  6
CONTINUOUS
 10
104.1094627271
 20
106.5875534513
 11
95.0972460426
 21
106.4302446239
  0
LINE
  5
3F7
100
AcDbEntity
  8
ON_OFF_CORPO
100
AcDbLine
 62
250
  6
CONTINUOUS
 10
103.8146984491
 20
106.7823778607
 11
95.0972460426
 21
106.6302141629
  0
LINE
  5
3F8
100
AcDbEntity
  8
ASSI
100
AcDbLine
 62
250
  6
CONTINUOUS
 10
103.8146984491
 20
106.7823778607
 11
95.0972460426
 21
106.6302141629
  0
LINE
  5
3F9
100
AcDbEntity
  8
ON_OFF_CORPO
100
AcDbLine
 62
250
  6
CONTINUOUS
 10
104.3059722458
 20
106.7875229903
 11
103.8146984491
 21
106.7823778607
  0
LINE
  5
3FA
100
AcDbEntity
  8
ASSI
100
AcDbLine
 62
250
  6
CONTINUOUS
 10
104.3059722458
 20
106.7875229903
 11
103.8146984491
 21
106.7823778607
  0
LINE
  5
3FB
100
AcDbEntity
  8
INCISIONI
100
AcDbLine
 62
250
  6
CONTINUOUS
 10
97.3829322458
 20
105.2216694079
 11
98.1329322458
 21
105.2216694079
  0
LINE
  5
3FC
100
AcDbEntity
  8
INCISIONI
100
AcDbLine
 62
250
  6
CONTINUOUS
 10
89.3059722458
 20
105.2316692629
 11
90.1202579116
 21
105.2316692629
  0
LINE
  5
3FD
100
AcDbEntity
  8
INCISIONI
100
AcDbLine
 62
250
  6
CONTINUOUS
 10
95.2098951281
 20
105.6216694079
 11
95.9607122458
 21
105.6216694079
  0
LINE
  5
3FE
100
AcDbEntity
  8
INCISIONI
100
AcDbLine
 62
250
  6
CONTINUOUS
 10
99.5551491974
 20
105.6216694079
 11
100.3059693636
 21
105.6216694079
  0
LINE
  5
3FF
100
AcDbEntity
  8
ON_OFF_CORPO
100
AcDbLine
 62
250
  6
CONTINUOUS
 10
94.6059722458
 20
105.9303207763
 11
94.4094627271
 21
105.9303207763
  0
LINE
  5
400
100
AcDbEntity
  8
ASSI
100
AcDbLine
 62
250
  6
CONTINUOUS
 10
94.6059722458
 20
105.9303207763
 11
94.4094627271
 21
105.9303207763
  0
LINE
  5
401
100
AcDbEntity
  8
INCISIONI
100
AcDbLine
 62
250
  6
CONTINUOUS
 10
90.3916865235
 20
106.1436693354
 11
90.9345436623
 21
106.1436693354
  0
LINE
  5
402
100
AcDbEntity
  8
INCISIONI
100
AcDbLine
 62
250
  6
CONTINUOUS
 10
90.6631150787
 20
106.7516695529
 11
89.8488293563
 21
106.7516695529
  0
LINE
  5
403
100
AcDbEntity
  8
INCISIONI
100
AcDbLine
 62
250
  6
CONTINUOUS
 10
89.8488293563
 20
106.7516695529
 11
89.5774008011
 21
106.9036694804
  0
LINE
  5
404
100
AcDbEntity
  8
INCISIONI
100
AcDbLine
 62
250
  6
CONTINUOUS
 10
90.6631150787
 20
107.8156695529
 11
90.9345436623
 21
107.6636696253
  0
LINE
  5
405
100
AcDbEntity
  8
ON_OFF_CORPO
100
AcDbLine
 62
7
  6
CONTINUOUS
 10
105.0059722458
 20
98.8216654955
 11
105.0059722458
 21
93.1604273434
  0
LINE
  5
406
100
AcDbEntity
  8
ASSI
100
AcDbLine
 62
7
  6
CONTINUOUS
 10
105.0059722458
 20
98.8216654955
 11
105.0059722458
 21
93.1604273434
  0
LINE
  5
407
100
AcDbEntity
  8
ON_OFF_CORPO
100
AcDbLine
 62
7
  6
CONTINUOUS
 10
105.0059722458
 20
87.0829114724
 11
105.0059722458
 21
84.8216733203
  0
LINE
  5
408
100
AcDbEntity
  8
ASSI
100
AcDbLine
 62
7
  6
CONTINUOUS
 10
105.0059722458
 20
87.0829114724
 11
105.0059722458
 21
84.8216733203
  0
LINE
  5
409
100
AcDbEntity
  8
ON_OFF_CORPO
100
AcDbLine
 62
250
  6
CONTINUOUS
 10
106.032118976
 20
106.8706511374
 11
106.0321189734
 21
97.2226876781
  0
LINE
  5
40A
100
AcDbEntity
  8
ASSI
100
AcDbLine
 62
250
  6
CONTINUOUS
 10
106.032118976
 20
106.8706511374
 11
106.0321189734
 21
97.2226876781
  0
LINE
  5
40B
100
AcDbEntity
  8
ON_OFF_CORPO
100
AcDbLine
 62
250
  6
CONTINUOUS
 10
106.032118976
 20
93.0706511374
 11
106.0321189734
 21
87.1726876781
  0
LINE
  5
40C
100
AcDbEntity
  8
ASSI
100
AcDbLine
 62
250
  6
CONTINUOUS
 10
106.032118976
 20
93.0706511374
 11
106.0321189734
 21
87.1726876781
  0
LINE
  5
40D
100
AcDbEntity
  8
ON_OFF_CORPO
100
AcDbLine
 62
250
  6
CONTINUOUS
 10
106.032118976
 20
86.4206511374
 11
106.0321189734
 21
80.5226876781
  0
LINE
  5
40E
100
AcDbEntity
  8
ASSI
100
AcDbLine
 62
250
  6
CONTINUOUS
 10
106.032118976
 20
86.4206511374
 11
106.0321189734
 21
80.5226876781
  0
LINE
  5
40F
100
AcDbEntity
  8
ON_OFF_CORPO
100
AcDbLine
 62
7
  6
CONTINUOUS
 10
106.3059722458
 20
106.5717911417
 11
106.3059722458
 21
97.5215476499
  0
LINE
  5
410
100
AcDbEntity
  8
ASSI
100
AcDbLine
 62
7
  6
CONTINUOUS
 10
106.3059722458
 20
106.5717911417
 11
106.3059722458
 21
97.5215476499
  0
LINE
  5
411
100
AcDbEntity
  8
ON_OFF_CORPO
100
AcDbLine
 62
7
  6
CONTINUOUS
 10
106.3059722458
 20
92.7717911417
 11
106.3059722458
 21
87.4715476499
  0
LINE
  5
412
100
AcDbEntity
  8
ASSI
100
AcDbLine
 62
7
  6
CONTINUOUS
 10
106.3059722458
 20
92.7717911417
 11
106.3059722458
 21
87.4715476499
  0
LINE
  5
413
100
AcDbEntity
  8
ON_OFF_CORPO
100
AcDbLine
 62
7
  6
CONTINUOUS
 10
106.3059722458
 20
86.1217911417
 11
106.3059722458
 21
80.8215476499
  0
LINE
  5
414
100
AcDbEntity
  8
ASSI
100
AcDbLine
 62
7
  6
CONTINUOUS
 10
106.3059722458
 20
86.1217911417
 11
106.3059722458
 21
80.8215476499
  0
LINE
  5
415
100
AcDbEntity
  8
ON_OFF_PORTATASTO
100
AcDbLine
 62
250
  6
CONTINUOUS
 10
79.6384210458
 20
109.1890711746
 11
79.096615154
 21
109.1796139176
  0
LINE
  5
416
100
AcDbEntity
  8
INCISIONI
100
AcDbLine
 62
250
  6
CONTINUOUS
 10
89.8488293563
 20
107.8156695529
 11
90.6631150787
 21
107.8156695529
  0
LINE
  5
417
100
AcDbEntity
  8
ON_OFF_CORPO
100
AcDbLine
 62
250
  6
CONTINUOUS
 10
103.8146984491
 20
109.3378576856
 11
104.3059722458
 21
109.3378576856
  0
LINE
  5
418
100
AcDbEntity
  8
ASSI
100
AcDbLine
 62
250
  6
CONTINUOUS
 10
103.8146984491
 20
109.3378576856
 11
104.3059722458
 21
109.3378576856
  0
LINE
  5
419
100
AcDbEntity
  8
ON_OFF_CORPO
100
AcDbLine
 62
7
  6
CONTINUOUS
 10
106.0321189687
 20
106.8706511381
 11
104.579825523
 21
106.9977103507
  0
LINE
  5
41A
100
AcDbEntity
  8
ASSI
100
AcDbLine
 62
7
  6
CONTINUOUS
 10
106.0321189687
 20
106.8706511381
 11
104.579825523
 21
106.9977103507
  0
LINE
  5
41B
100
AcDbEntity
  8
ON_OFF_PORTATASTO
100
AcDbLine
 62
7
  6
CONTINUOUS
 10
78.9309722458
 20
115.4495006242
 11
79.8059722458
 21
114.9443191387
  0
LINE
  5
41C
100
AcDbEntity
  8
ON_OFF_PORTATASTO
100
AcDbLine
 62
250
  6
CONTINUOUS
 10
79.054517813
 20
115.6660069752
 11
80.054517813
 21
115.088656706
  0
LINE
  5
41D
100
AcDbEntity
  8
ON_OFF_PORTATASTO
100
AcDbLine
 62
7
  6
CONTINUOUS
 10
79.761469326
 20
110.1912189962
 11
79.2019125687
 21
110.1814518966
  0
LINE
  5
41E
100
AcDbEntity
  8
ON_OFF_CORPO
100
AcDbLine
 62
250
  6
CONTINUOUS
 10
103.8146984491
 20
109.3378576856
 11
82.3059722458
 21
109.4933684566
  0
LINE
  5
41F
100
AcDbEntity
  8
ASSI
100
AcDbLine
 62
250
  6
CONTINUOUS
 10
103.8146984491
 20
109.3378576856
 11
82.3059722458
 21
109.4933684566
  0
LINE
  5
420
100
AcDbEntity
  8
ON_OFF_CORPO
100
AcDbLine
 62
250
  6
CONTINUOUS
 10
103.8146984491
 20
110.7518558564
 11
82.3059722458
 21
110.9073666274
  0
LINE
  5
421
100
AcDbEntity
  8
ASSI
100
AcDbLine
 62
250
  6
CONTINUOUS
 10
103.8146984491
 20
110.7518558564
 11
82.3059722458
 21
110.9073666274
  0
LINE
  5
422
100
AcDbEntity
  8
ON_OFF_SUPPORTO_PERNO
100
AcDbLine
 62
7
  6
CONTINUOUS
 10
79.7931382603
 20
110.4491417682
 11
79.2310790624
 21
110.458952548
  0
LINE
  5
423
100
AcDbEntity
  8
ON_OFF_CORPO
100
AcDbLine
 62
250
  6
CONTINUOUS
 10
92.3059722458
 20
111.139799967
 11
103.8146984491
 21
110.9389144039
  0
LINE
  5
424
100
AcDbEntity
  8
ASSI
100
AcDbLine
 62
250
  6
CONTINUOUS
 10
92.3059722458
 20
111.139799967
 11
103.8146984491
 21
110.9389144039
  0
LINE
  5
425
100
AcDbEntity
  8
ON_OFF_CORPO
100
AcDbLine
 62
7
  6
CONTINUOUS
 10
92.3059722458
 20
111.4326485768
 11
103.8146984491
 21
111.2317630136
  0
LINE
  5
426
100
AcDbEntity
  8
ASSI
100
AcDbLine
 62
7
  6
CONTINUOUS
 10
92.3059722458
 20
111.4326485768
 11
103.8146984491
 21
111.2317630136
  0
LINE
  5
427
100
AcDbEntity
  8
ON_OFF_TASTOTARGHETTA
100
AcDbLine
 62
250
  6
CONTINUOUS
 10
79.4401487251
 20
112.4481175152
 11
73.7226042683
 21
112.9483378383
  0
LINE
  5
428
100
AcDbEntity
  8
ON_OFF_SUPPORTO_PERNO
100
AcDbLine
 62
7
  6
CONTINUOUS
 10
79.9330042848
 20
111.5917871698
 11
79.3565132183
 21
111.6523788225
  0
LINE
  5
429
100
AcDbEntity
  8
ON_OFF_TASTOTARGHETTA
100
AcDbLine
 62
250
  6
CONTINUOUS
 10
72.9719975139
 20
112.3712303506
 11
72.1977713077
 21
112.5071752671
  0
LWPOLYLINE
  5
42A
100
AcDbEntity
  8
0
100
AcDbPolyline
 62
7
  6
CONTINUOUS
 90
10
 70
0
 43
0.3500000006
 10
87.9811652527
 20
137.5716767578
 10
88.0525873718
 20
137.4288143921
 10
88.0525873718
 20
137.3573922729
 10
87.9097340698
 20
137.2145299072
 10
87.838302887
 20
137.2145299072
 10
87.7668717041
 20
137.2859520264
 10
87.7668717041
 20
137.3573922729
 10
87.838302887
 20
137.5002365112
 10
87.9097340698
 20
137.5716767578
 10
87.9811652527
 20
137.5716767578
  0
LINE
  5
42B
100
AcDbEntity
  8
ON_OFF_PORTATASTO
100
AcDbLine
 62
7
  6
CONTINUOUS
 10
92.3059722458
 20
112.8089380858
 11
82.3059722458
 21
112.7216694079
  0
LINE
  5
42C
100
AcDbEntity
  8
ON_OFF_CORPO
100
AcDbLine
 62
7
  6
CONTINUOUS
 10
82.3059722458
 20
112.6716694079
 11
92.3059722458
 21
112.6716694079
  0
LINE
  5
42D
100
AcDbEntity
  8
ASSI
100
AcDbLine
 62
7
  6
CONTINUOUS
 10
82.3059722458
 20
112.6716694079
 11
92.3059722458
 21
112.6716694079
  0
LINE
  5
42E
100
AcDbEntity
  8
ON_OFF_PORTATASTO
100
AcDbLine
 62
250
  6
CONTINUOUS
 10
92.3059722458
 20
113.1430895194
 11
92.0059722458
 21
113.1430895194
  0
LINE
  5
42F
100
AcDbEntity
  8
ON_OFF_PORTATASTO
100
AcDbLine
 62
7
  6
CONTINUOUS
 10
92.0015476919
 20
113.2216694079
 11
82.3059722458
 21
113.2216694079
  0
LINE
  5
430
100
AcDbEntity
  8
ON_OFF_PORTATASTO
100
AcDbLine
 62
250
  6
CONTINUOUS
 10
82.3059722458
 20
113.7215742163
 11
81.4509068887
 21
113.7290362586
  0
LINE
  5
431
100
AcDbEntity
  8
ON_OFF_TASTOTARGHETTA
100
AcDbLine
 62
7
  6
CONTINUOUS
 10
79.5237587596
 20
113.2436138551
 11
73.8062143028
 21
113.7438341782
  0
LINE
  5
432
100
AcDbEntity
  8
ON_OFF_PORTATASTO
100
AcDbLine
 62
7
  6
CONTINUOUS
 10
78.8059722458
 20
113.6906499597
 11
79.9304291038
 21
113.5525840181
  0
LINE
  5
433
100
AcDbEntity
  8
ON_OFF_PORTATASTO
100
AcDbLine
 62
250
  6
CONTINUOUS
 10
81.4509068887
 20
113.7290362586
 11
79.3780797476
 21
113.6204039913
  0
LINE
  5
434
100
AcDbEntity
  8
ON_OFF_PORTATASTO
100
AcDbLine
 62
7
  6
CONTINUOUS
 10
78.8059722458
 20
114.0906499597
 11
79.9304291038
 21
114.1495802465
  0
LINE
  5
435
100
AcDbEntity
  8
ON_OFF_PORTATASTO
100
AcDbLine
 62
250
  6
CONTINUOUS
 10
81.3059722458
 20
116.0716736387
 11
79.054517813
 21
116.05857506
  0
LINE
  5
436
100
AcDbEntity
  8
ON_OFF_PORTATASTO
100
AcDbLine
 62
250
  6
CONTINUOUS
 10
82.3059722458
 20
115.6660069752
 11
82.0574266787
 21
115.6660069752
  0
LINE
  5
437
100
AcDbEntity
  8
ON_OFF_PORTATASTO
100
AcDbLine
 62
250
  6
CONTINUOUS
 10
78.8059722458
 20
115.6660069752
 11
79.054517813
 21
115.6660069752
  0
LINE
  5
438
100
AcDbEntity
  8
ON_OFF_PORTATASTO
100
AcDbLine
 62
250
  6
CONTINUOUS
 10
78.8059722458
 20
116.05857506
 11
79.054517813
 21
116.05857506
  0
LINE
  5
439
100
AcDbEntity
  8
ON_OFF_PORTATASTO
100
AcDbLine
 62
250
  6
CONTINUOUS
 10
82.3059722458
 20
116.0673018047
 11
82.0574266787
 21
116.0673018047
  0
LINE
  5
43A
100
AcDbEntity
  8
ON_OFF_PORTATASTO
100
AcDbLine
 62
7
  6
CONTINUOUS
 10
82.3008795881
 20
115.6158812063
 11
88.8088811115
 21
115.578018761
  0
LINE
  5
43B
100
AcDbEntity
  8
ON_OFF_PORTATASTO
100
AcDbLine
 62
250
  6
CONTINUOUS
 10
82.0574266787
 20
116.0673018047
 11
81.3059722458
 21
116.0716736387
  0
LINE
  5
43C
100
AcDbEntity
  8
ON_OFF_PORTATASTO
100
AcDbLine
 62
7
  6
CONTINUOUS
 10
81.3059722458
 20
114.2300862437
 11
81.4484523957
 21
114.2288984939
  0
LINE
  5
43D
100
AcDbEntity
  8
ON_OFF_PORTATASTO
100
AcDbLine
 62
7
  6
CONTINUOUS
 10
91.3146987813
 20
114.1430514425
 11
81.4487329051
 21
114.2291504223
  0
LINE
  5
43E
100
AcDbEntity
  8
ON_OFF_PORTATASTO
100
AcDbLine
 62
7
  6
CONTINUOUS
 10
81.3059722458
 20
116.3216694079
 11
79.054517813
 21
116.3085708292
  0
LINE
  5
43F
100
AcDbEntity
  8
ON_OFF_PORTATASTO
100
AcDbLine
 62
7
  6
CONTINUOUS
 10
82.0574266787
 20
116.3172975739
 11
81.3059722458
 21
116.3216694079
  0
LWPOLYLINE
  5
440
100
AcDbEntity
  8
0
100
AcDbPolyline
 62
7
  6
CONTINUOUS
 90
7
 70
0
 43
0.3500000006
 10
93.4488275757
 20
127.0716735535
 10
91.9488271179
 20
127.0716735535
 10
93.4488275757
 20
129.2145274658
 10
93.4488275757
 20
129.6430964355
 10
93.020258606
 20
130.0716654053
 10
92.3774051514
 20
130.0716654053
 10
91.9488271179
 20
129.4288119507
  0
LWPOLYLINE
  5
441
100
AcDbEntity
  8
0
100
AcDbPolyline
 62
7
  6
CONTINUOUS
 90
3
 70
0
 43
0.3500000006
 10
95.8059750366
 20
127.7145270081
 10
94.3059745789
 20
127.7145270081
 10
94.9488280334
 20
130.0716654053
  0
LWPOLYLINE
  5
442
100
AcDbEntity
  8
0
100
AcDbPolyline
 62
7
  6
CONTINUOUS
 90
6
 70
0
 43
0.3500000006
 10
82.8383013611
 20
137.0716675415
 10
83.9097328491
 20
137.0716675415
 10
84.124017334
 20
137.2859520264
 10
84.124017334
 20
138.3573925781
 10
83.6954483643
 20
138.7859615479
 10
83.2668793945
 20
138.7859615479
  0
LWPOLYLINE
  5
443
100
AcDbEntity
  8
0
100
AcDbPolyline
 62
7
  6
CONTINUOUS
 90
3
 70
0
 43
0.3500000006
 10
90.5525881348
 20
137.7145209961
 10
89.052587677
 20
137.7145209961
 10
89.6954501953
 20
140.071668457
  0
LWPOLYLINE
  5
444
100
AcDbEntity
  8
0
100
AcDbPolyline
 62
7
  6
CONTINUOUS
 90
13
 70
0
 43
0.3500000006
 10
85.4097333069
 20
138.7859615479
 10
85.1240176392
 20
139.0002460327
 10
85.1240176392
 20
139.6430994873
 10
85.4097333069
 20
140.071668457
 10
86.0525867615
 20
140.071668457
 10
86.3383024292
 20
139.6430994873
 10
86.3383024292
 20
139.0002460327
 10
86.0525867615
 20
138.7859615479
 10
86.4811647949
 20
138.3573925781
 10
86.4811647949
 20
137.5002365112
 10
86.0525867615
 20
137.0716675415
 10
85.4097333069
 20
137.0716675415
 10
84.9811643372
 20
137.5002365112
  0
LINE
  5
445
100
AcDbEntity
  8
ON_OFF_PORTATASTO
100
AcDbLine
 62
250
  6
CONTINUOUS
 10
138.0073077902
 20
116.3216694079
 11
137.9942092114
 21
116.3085708292
  0
LINE
  5
446
100
AcDbEntity
  8
ON_OFF_PORTATASTO
100
AcDbLine
 62
7
  6
CONTINUOUS
 10
135.8564746341
 20
114.2288984939
 11
135.8573035594
 21
114.2300862437
  0
LINE
  5
447
100
AcDbEntity
  8
ON_OFF_PORTATASTO
100
AcDbLine
 62
250
  6
CONTINUOUS
 10
138.2573035594
 20
116.0716736387
 11
138.2442049807
 21
116.05857506
  0
LINE
  5
448
100
AcDbEntity
  8
ON_OFF_PORTATASTO
100
AcDbLine
 62
7
  6
CONTINUOUS
 10
135.6487978904
 20
114.1763758747
 11
135.6337865496
 21
114.1688707759
  0
LINE
  5
449
100
AcDbEntity
  8
ON_OFF_PORTATASTO
100
AcDbLine
 62
250
  6
CONTINUOUS
 10
135.3722287807
 20
113.7290362586
 11
135.3573035594
 21
113.7215742163
  0
LINE
  5
44A
100
AcDbEntity
  8
ON_OFF_PORTATASTO
100
AcDbLine
 62
250
  6
CONTINUOUS
 10
138.0073077902
 20
67.3216694079
 11
137.9942092114
 21
67.3347679866
  0
LINE
  5
44B
100
AcDbEntity
  8
ON_OFF_PORTATASTO
100
AcDbLine
 62
250
  6
CONTINUOUS
 10
138.2573035594
 20
67.5716651771
 11
138.2442049807
 21
67.5847637558
  0
LINE
  5
44C
100
AcDbEntity
  8
ON_OFF_PORTATASTO
100
AcDbLine
 62
7
  6
CONTINUOUS
 10
135.8573035594
 20
69.4132525721
 11
135.8564746341
 21
69.4144403219
  0
LINE
  5
44D
100
AcDbEntity
  8
ON_OFF_PORTATASTO
100
AcDbLine
 62
7
  6
CONTINUOUS
 10
135.6337865496
 20
69.4744680399
 11
135.6487978904
 21
69.4669629411
  0
LINE
  5
44E
100
AcDbEntity
  8
ON_OFF_PORTATASTO
100
AcDbLine
 62
250
  6
CONTINUOUS
 10
135.3573035594
 20
69.9217645995
 11
135.3722287807
 21
69.9143025572
  0
LINE
  5
44F
100
AcDbEntity
  8
ON_OFF_PORTATASTO
100
AcDbLine
 62
7
  6
CONTINUOUS
 10
135.408410113
 20
113.6204039913
 11
135.3987688192
 21
113.5525840181
  0
LINE
  5
450
100
AcDbEntity
  8
ON_OFF_TASTOTARGHETTA
100
AcDbLine
 62
7
  6
CONTINUOUS
 10
135.7229200621
 20
113.1039552921
 11
135.6227111018
 21
112.6035207878
  0
LINE
  5
451
100
AcDbEntity
  8
ON_OFF_TASTOTARGHETTA
100
AcDbLine
 62
250
  6
CONTINUOUS
 10
135.7074696312
 20
112.9483378383
 11
135.6073035594
 21
112.4481175152
  0
LINE
  5
452
100
AcDbEntity
  8
ON_OFF_PORTATASTO
100
AcDbLine
 62
7
  6
CONTINUOUS
 10
135.3987688192
 20
70.0907547977
 11
135.408410113
 21
70.0229348245
  0
LINE
  5
453
100
AcDbEntity
  8
ON_OFF_PORTATASTO
100
AcDbLine
 62
250
  6
CONTINUOUS
 10
135.8704021381
 20
67.9773318406
 11
135.8645843083
 21
68.5546821098
  0
LINE
  5
454
100
AcDbEntity
  8
ON_OFF_PORTATASTO
100
AcDbLine
 62
250
  6
CONTINUOUS
 10
136.1203979073
 20
68.1938381915
 11
136.1153073062
 21
68.6990196771
  0
LINE
  5
455
100
AcDbEntity
  8
ON_OFF_PORTATASTO
100
AcDbLine
 62
7
  6
CONTINUOUS
 10
135.3987688192
 20
111.5672859591
 11
135.441087871
 21
91.8216694079
  0
LINE
  5
456
100
AcDbEntity
  8
ON_OFF_PORTATASTO
100
AcDbLine
 62
7
  6
CONTINUOUS
 10
135.3573035594
 20
113.7215742163
 11
135.3573035594
 21
69.9217645995
  0
LINE
  5
457
100
AcDbEntity
  8
ASSI
100
AcDbLine
 62
7
  6
CONTINUOUS
 10
135.3573035594
 20
74.1499703592
 11
135.3573035594
 21
109.4933684566
  0
LINE
  5
458
100
AcDbEntity
  8
ON_OFF_CORPO
100
AcDbLine
 62
7
  6
CONTINUOUS
 10
135.3573035594
 20
74.1499703592
 11
135.3573035594
 21
109.4933684566
  0
LINE
  5
459
100
AcDbEntity
  8
ON_OFF_PORTATASTO
100
AcDbLine
 62
7
  6
CONTINUOUS
 10
135.3987688192
 20
113.5525840181
 11
135.3987688192
 21
111.5672859591
  0
LINE
  5
45A
100
AcDbEntity
  8
ON_OFF_PORTATASTO
100
AcDbLine
 62
7
  6
CONTINUOUS
 10
135.3987688192
 20
70.0907547977
 11
135.3987688192
 21
72.0760528567
  0
LINE
  5
45B
100
AcDbEntity
  8
ON_OFF_TASTOTARGHETTA
100
AcDbLine
 62
7
  6
CONTINUOUS
 10
135.6073035594
 20
112.4481175152
 11
135.6073035594
 21
70.5785033674
  0
LINE
  5
45C
100
AcDbEntity
  8
ON_OFF_PORTATASTO
100
AcDbLine
 62
7
  6
CONTINUOUS
 10
135.8573035594
 20
67.5716651771
 11
135.8573035594
 21
69.4132525721
  0
LINE
  5
45D
100
AcDbEntity
  8
ON_OFF_PORTATASTO
100
AcDbLine
 62
7
  6
CONTINUOUS
 10
135.8573035594
 20
114.2300862437
 11
135.8573035594
 21
116.0716736387
  0
LINE
  5
45E
100
AcDbEntity
  8
ON_OFF_PORTATASTO
100
AcDbLine
 62
250
  6
CONTINUOUS
 10
135.8645843083
 20
115.088656706
 11
135.8645843083
 21
114.1550803693
  0
LINE
  5
45F
100
AcDbEntity
  8
ON_OFF_PORTATASTO
100
AcDbLine
 62
250
  6
CONTINUOUS
 10
135.8645843083
 20
69.4882584465
 11
135.8645843083
 21
68.5546821098
  0
LINE
  5
460
100
AcDbEntity
  8
ON_OFF_PORTATASTO
100
AcDbLine
 62
250
  6
CONTINUOUS
 10
135.8704021381
 20
116.05857506
 11
135.8704021381
 21
115.6660069752
  0
LINE
  5
461
100
AcDbEntity
  8
ON_OFF_PORTATASTO
100
AcDbLine
 62
250
  6
CONTINUOUS
 10
135.8704021381
 20
67.9773318406
 11
135.8704021381
 21
67.5847637558
  0
LINE
  5
462
100
AcDbEntity
  8
ON_OFF_PORTATASTO
100
AcDbLine
 62
7
  6
CONTINUOUS
 10
135.441087871
 20
91.8216694079
 11
135.3987688192
 21
72.0760528567
  0
LINE
  5
463
100
AcDbEntity
  8
ON_OFF_PORTATASTO
100
AcDbLine
 62
250
  6
CONTINUOUS
 10
135.8645843083
 20
115.088656706
 11
135.8704021381
 21
115.6660069752
  0
LINE
  5
464
100
AcDbEntity
  8
ON_OFF_PORTATASTO
100
AcDbLine
 62
250
  6
CONTINUOUS
 10
136.1153073062
 20
114.9443191387
 11
136.1203979073
 21
115.4495006242
  0
LINE
  5
465
100
AcDbEntity
  8
ON_OFF_PORTATASTO
100
AcDbLine
 62
7
  6
CONTINUOUS
 10
138.2581340448
 20
114.22915053
 11
138.2500228105
 21
114.1560834602
  0
LINE
  5
466
100
AcDbEntity
  8
ON_OFF_PORTATASTO
100
AcDbLine
 62
7
  6
CONTINUOUS
 10
150.9043777212
 20
115.6187435697
 11
150.9073035594
 21
115.6216694079
  0
LINE
  5
467
100
AcDbEntity
  8
ON_OFF_PORTATASTO
100
AcDbLine
 62
7
  6
CONTINUOUS
 10
179.4073077902
 20
67.3216694079
 11
177.5072993286
 21
67.3216694079
  0
LINE
  5
468
100
AcDbEntity
  8
ON_OFF_PORTATASTO
100
AcDbLine
 62
7
  6
CONTINUOUS
 10
160.5073077902
 20
67.3216694079
 11
158.6072993286
 21
67.3216694079
  0
LINE
  5
469
100
AcDbEntity
  8
ON_OFF_PORTATASTO
100
AcDbLine
 62
7
  6
CONTINUOUS
 10
156.9073077902
 20
67.3216694079
 11
155.0072993286
 21
67.3216694079
  0
LINE
  5
46A
100
AcDbEntity
  8
ON_OFF_PORTATASTO
100
AcDbLine
 62
7
  6
CONTINUOUS
 10
138.0073077902
 20
67.3216694079
 11
136.1072993286
 21
67.3216694079
  0
LINE
  5
46B
100
AcDbEntity
  8
ON_OFF_PORTATASTO
100
AcDbLine
 62
250
  6
CONTINUOUS
 10
136.1203979073
 20
67.3347679866
 11
137.9942092114
 21
67.3347679866
  0
LINE
  5
46C
100
AcDbEntity
  8
ON_OFF_PORTATASTO
100
AcDbLine
 62
250
  6
CONTINUOUS
 10
155.0203979073
 20
67.3347679866
 11
156.8942092114
 21
67.3347679866
  0
LINE
  5
46D
100
AcDbEntity
  8
ON_OFF_PORTATASTO
100
AcDbLine
 62
250
  6
CONTINUOUS
 10
158.6203979073
 20
67.3347679866
 11
160.4942092114
 21
67.3347679866
  0
LINE
  5
46E
100
AcDbEntity
  8
ON_OFF_PORTATASTO
100
AcDbLine
 62
250
  6
CONTINUOUS
 10
177.5203979073
 20
67.3347679866
 11
179.3942092114
 21
67.3347679866
  0
LINE
  5
46F
100
AcDbEntity
  8
ON_OFF_PORTATASTO
100
AcDbLine
 62
250
  6
CONTINUOUS
 10
135.8704021381
 20
67.5847637558
 11
138.2442049807
 21
67.5847637558
  0
LINE
  5
470
100
AcDbEntity
  8
ON_OFF_PORTATASTO
100
AcDbLine
 62
250
  6
CONTINUOUS
 10
154.7704021381
 20
67.5847637558
 11
157.1442049807
 21
67.5847637558
  0
LINE
  5
471
100
AcDbEntity
  8
ON_OFF_PORTATASTO
100
AcDbLine
 62
250
  6
CONTINUOUS
 10
158.3704021381
 20
67.5847637558
 11
160.7442049807
 21
67.5847637558
  0
LINE
  5
472
100
AcDbEntity
  8
ON_OFF_PORTATASTO
100
AcDbLine
 62
250
  6
CONTINUOUS
 10
177.2704021381
 20
67.5847637558
 11
179.6442049807
 21
67.5847637558
  0
LINE
  5
473
100
AcDbEntity
  8
ON_OFF_PORTATASTO
100
AcDbLine
 62
250
  6
CONTINUOUS
 10
135.8704021381
 20
67.9773318406
 11
138.2442049807
 21
67.9773318406
  0
LINE
  5
474
100
AcDbEntity
  8
ON_OFF_PORTATASTO
100
AcDbLine
 62
250
  6
CONTINUOUS
 10
154.7704021381
 20
67.9773318406
 11
157.1442049807
 21
67.9773318406
  0
LINE
  5
475
100
AcDbEntity
  8
ON_OFF_PORTATASTO
100
AcDbLine
 62
250
  6
CONTINUOUS
 10
158.3704021381
 20
67.9773318406
 11
160.7442049807
 21
67.9773318406
  0
LINE
  5
476
100
AcDbEntity
  8
ON_OFF_PORTATASTO
100
AcDbLine
 62
250
  6
CONTINUOUS
 10
177.2704021381
 20
67.9773318406
 11
179.6442049807
 21
67.9773318406
  0
LINE
  5
477
100
AcDbEntity
  8
ON_OFF_PORTATASTO
100
AcDbLine
 62
7
  6
CONTINUOUS
 10
173.4073035594
 20
68.0216694079
 11
164.6073035594
 21
68.0216694079
  0
LINE
  5
478
100
AcDbEntity
  8
ON_OFF_PORTATASTO
100
AcDbLine
 62
7
  6
CONTINUOUS
 10
150.9073035594
 20
68.0216694079
 11
142.1073035594
 21
68.0216694079
  0
LINE
  5
479
100
AcDbEntity
  8
ON_OFF_PORTATASTO
100
AcDbLine
 62
250
  6
CONTINUOUS
 10
142.2110962457
 20
68.0263304411
 11
150.803510873
 21
68.0263304411
  0
LINE
  5
47A
100
AcDbEntity
  8
ON_OFF_PORTATASTO
100
AcDbLine
 62
250
  6
CONTINUOUS
 10
164.7110962457
 20
68.0263304411
 11
173.303510873
 21
68.0263304411
  0
LINE
  5
47B
100
AcDbEntity
  8
ON_OFF_PORTATASTO
100
AcDbLine
 62
250
  6
CONTINUOUS
 10
179.3942092114
 20
68.1938381915
 11
177.5203979073
 21
68.1938381915
  0
LINE
  5
47C
100
AcDbEntity
  8
ON_OFF_PORTATASTO
100
AcDbLine
 62
250
  6
CONTINUOUS
 10
160.4942092114
 20
68.1938381915
 11
158.6203979073
 21
68.1938381915
  0
LINE
  5
47D
100
AcDbEntity
  8
ON_OFF_PORTATASTO
100
AcDbLine
 62
250
  6
CONTINUOUS
 10
156.8942092114
 20
68.1938381915
 11
155.0203979073
 21
68.1938381915
  0
LINE
  5
47E
100
AcDbEntity
  8
ON_OFF_PORTATASTO
100
AcDbLine
 62
250
  6
CONTINUOUS
 10
137.9942092114
 20
68.1938381915
 11
136.1203979073
 21
68.1938381915
  0
LINE
  5
47F
100
AcDbEntity
  8
ON_OFF_PORTATASTO
100
AcDbLine
 62
250
  6
CONTINUOUS
 10
142.610220936
 20
68.2263270564
 11
150.4043861828
 21
68.2263270564
  0
LINE
  5
480
100
AcDbEntity
  8
ON_OFF_PORTATASTO
100
AcDbLine
 62
250
  6
CONTINUOUS
 10
165.110220936
 20
68.2263270564
 11
172.9043861828
 21
68.2263270564
  0
LINE
  5
481
100
AcDbEntity
  8
ON_OFF_PORTATASTO
100
AcDbLine
 62
250
  6
CONTINUOUS
 10
137.9942092114
 20
115.4495006242
 11
137.9992998125
 21
114.9443191387
  0
LINE
  5
482
100
AcDbEntity
  8
ON_OFF_PORTATASTO
100
AcDbLine
 62
250
  6
CONTINUOUS
 10
136.1145800775
 20
114.9443191387
 11
136.1145800775
 21
114.143057739
  0
LINE
  5
483
100
AcDbEntity
  8
ON_OFF_PORTATASTO
100
AcDbLine
 62
250
  6
CONTINUOUS
 10
136.1145800775
 20
69.5002810768
 11
136.1145800775
 21
68.6990196771
  0
LINE
  5
484
100
AcDbEntity
  8
ON_OFF_PORTATASTO
100
AcDbLine
 62
250
  6
CONTINUOUS
 10
136.1203979073
 20
67.3347679866
 11
136.1203979073
 21
68.1938381915
  0
LINE
  5
485
100
AcDbEntity
  8
ON_OFF_PORTATASTO
100
AcDbLine
 62
250
  6
CONTINUOUS
 10
136.1203979073
 20
115.4495006242
 11
136.1203979073
 21
116.3085708292
  0
LINE
  5
486
100
AcDbEntity
  8
ON_OFF_PORTATASTO
100
AcDbLine
 62
250
  6
CONTINUOUS
 10
137.9942092114
 20
67.3347679866
 11
137.9942092114
 21
68.1938381915
  0
LINE
  5
487
100
AcDbEntity
  8
ON_OFF_PORTATASTO
100
AcDbLine
 62
250
  6
CONTINUOUS
 10
137.9942092114
 20
115.4495006242
 11
137.9942092114
 21
116.3085708292
  0
LINE
  5
488
100
AcDbEntity
  8
ON_OFF_PORTATASTO
100
AcDbLine
 62
250
  6
CONTINUOUS
 10
138.0000270413
 20
114.9443191387
 11
138.0000270413
 21
114.143057739
  0
LINE
  5
489
100
AcDbEntity
  8
ON_OFF_PORTATASTO
100
AcDbLine
 62
250
  6
CONTINUOUS
 10
138.0000270413
 20
69.5002810768
 11
138.0000270413
 21
68.6990196771
  0
LINE
  5
48A
100
AcDbEntity
  8
ON_OFF_PORTATASTO
100
AcDbLine
 62
250
  6
CONTINUOUS
 10
138.2442049807
 20
67.5847637558
 11
138.2442049807
 21
67.9773318406
  0
LINE
  5
48B
100
AcDbEntity
  8
ON_OFF_PORTATASTO
100
AcDbLine
 62
250
  6
CONTINUOUS
 10
138.2442049807
 20
115.6660069752
 11
138.2442049807
 21
116.05857506
  0
LINE
  5
48C
100
AcDbEntity
  8
ON_OFF_PORTATASTO
100
AcDbLine
 62
250
  6
CONTINUOUS
 10
138.2500228105
 20
115.088656706
 11
138.2500228105
 21
114.1560834602
  0
LINE
  5
48D
100
AcDbEntity
  8
ON_OFF_PORTATASTO
100
AcDbLine
 62
250
  6
CONTINUOUS
 10
138.2500228105
 20
69.4872553556
 11
138.2500228105
 21
68.5546821098
  0
LINE
  5
48E
100
AcDbEntity
  8
ON_OFF_PORTATASTO
100
AcDbLine
 62
7
  6
CONTINUOUS
 10
138.2573035594
 20
67.5716651771
 11
138.2573035594
 21
69.4129425401
  0
LINE
  5
48F
100
AcDbEntity
  8
ON_OFF_PORTATASTO
100
AcDbLine
 62
7
  6
CONTINUOUS
 10
138.2573035594
 20
114.2303962757
 11
138.2573035594
 21
116.0716736387
  0
LINE
  5
490
100
AcDbEntity
  8
ON_OFF_PORTATASTO
100
AcDbLine
 62
250
  6
CONTINUOUS
 10
137.9992998125
 20
68.6990196771
 11
137.9942092114
 21
68.1938381915
  0
LINE
  5
491
100
AcDbEntity
  8
ON_OFF_PORTATASTO
100
AcDbLine
 62
7
  6
CONTINUOUS
 10
136.1153073062
 20
68.6990196771
 11
137.9992998125
 21
68.6990196771
  0
LINE
  5
492
100
AcDbEntity
  8
ON_OFF_PORTATASTO
100
AcDbLine
 62
7
  6
CONTINUOUS
 10
155.0153073062
 20
68.6990196771
 11
156.8992998125
 21
68.6990196771
  0
LINE
  5
493
100
AcDbEntity
  8
ON_OFF_PORTATASTO
100
AcDbLine
 62
7
  6
CONTINUOUS
 10
158.6153073062
 20
68.6990196771
 11
160.4992998125
 21
68.6990196771
  0
LINE
  5
494
100
AcDbEntity
  8
ON_OFF_PORTATASTO
100
AcDbLine
 62
7
  6
CONTINUOUS
 10
177.5153073062
 20
68.6990196771
 11
179.3992998125
 21
68.6990196771
  0
LINE
  5
495
100
AcDbEntity
  8
ON_OFF_PORTATASTO
100
AcDbLine
 62
7
  6
CONTINUOUS
 10
177.256473074
 20
69.4141882858
 11
173.406473074
 21
69.4141882858
  0
LINE
  5
496
100
AcDbEntity
  8
ON_OFF_PORTATASTO
100
AcDbLine
 62
7
  6
CONTINUOUS
 10
164.6081340448
 20
69.4141882858
 11
160.7581340448
 21
69.4141882858
  0
LINE
  5
497
100
AcDbEntity
  8
ON_OFF_PORTATASTO
100
AcDbLine
 62
7
  6
CONTINUOUS
 10
158.356473074
 20
69.4141882858
 11
157.1581340448
 21
69.4141882858
  0
LINE
  5
498
100
AcDbEntity
  8
ON_OFF_PORTATASTO
100
AcDbLine
 62
7
  6
CONTINUOUS
 10
154.756473074
 20
69.4141882858
 11
150.906473074
 21
69.4141882858
  0
LINE
  5
499
100
AcDbEntity
  8
ON_OFF_PORTATASTO
100
AcDbLine
 62
7
  6
CONTINUOUS
 10
142.1081340448
 20
69.4141882858
 11
138.2581340448
 21
69.4141882858
  0
LINE
  5
49A
100
AcDbEntity
  8
ON_OFF_PORTATASTO
100
AcDbLine
 62
7
  6
CONTINUOUS
 10
172.9043861828
 20
69.4740771872
 11
165.110220936
 21
69.4740771872
  0
LINE
  5
49B
100
AcDbEntity
  8
ON_OFF_PORTATASTO
100
AcDbLine
 62
7
  6
CONTINUOUS
 10
150.4043861828
 20
69.4740771872
 11
142.610220936
 21
69.4740771872
  0
LINE
  5
49C
100
AcDbEntity
  8
ON_OFF_PORTATASTO
100
AcDbLine
 62
7
  6
CONTINUOUS
 10
136.1145800775
 20
69.5002810768
 11
138.0000270413
 21
69.5002810768
  0
LINE
  5
49D
100
AcDbEntity
  8
ON_OFF_PORTATASTO
100
AcDbLine
 62
7
  6
CONTINUOUS
 10
155.0145800775
 20
69.5002810768
 11
156.9000270413
 21
69.5002810768
  0
LINE
  5
49E
100
AcDbEntity
  8
ON_OFF_PORTATASTO
100
AcDbLine
 62
7
  6
CONTINUOUS
 10
158.6145800775
 20
69.5002810768
 11
160.5000270413
 21
69.5002810768
  0
LINE
  5
49F
100
AcDbEntity
  8
ON_OFF_PORTATASTO
100
AcDbLine
 62
7
  6
CONTINUOUS
 10
177.5145800775
 20
69.5002810768
 11
179.4000270413
 21
69.5002810768
  0
LINE
  5
4A0
100
AcDbEntity
  8
ON_OFF_PORTATASTO
100
AcDbLine
 62
7
  6
CONTINUOUS
 10
179.5965914319
 20
69.5526888561
 11
135.9180156869
 21
69.5526888561
  0
LINE
  5
4A1
100
AcDbEntity
  8
ON_OFF_TASTOTARGHETTA
100
AcDbLine
 62
7
  6
CONTINUOUS
 10
179.1074254033
 20
69.7830070275
 11
136.4071817155
 21
69.7830070275
  0
LINE
  5
4A2
100
AcDbEntity
  8
ON_OFF_PORTATASTO
100
AcDbLine
 62
7
  6
CONTINUOUS
 10
135.4285204624
 20
69.9526888561
 11
135.9145621919
 21
69.9526888561
  0
LINE
  5
4A3
100
AcDbEntity
  8
ON_OFF_PORTATASTO
100
AcDbLine
 62
7
  6
CONTINUOUS
 10
179.6000449269
 20
69.9526888561
 11
180.0860866564
 21
69.9526888561
  0
LINE
  5
4A4
100
AcDbEntity
  8
ON_OFF_PORTATASTO
100
AcDbLine
 62
7
  6
CONTINUOUS
 10
135.3987688192
 20
70.0907547977
 11
135.7762327139
 21
70.0907547977
  0
LINE
  5
4A5
100
AcDbEntity
  8
ON_OFF_PORTATASTO
100
AcDbLine
 62
7
  6
CONTINUOUS
 10
179.7383744049
 20
70.0907547977
 11
180.1158382996
 21
70.0907547977
  0
LINE
  5
4A6
100
AcDbEntity
  8
ON_OFF_TASTOTARGHETTA
100
AcDbLine
 62
250
  6
CONTINUOUS
 10
136.5073477873
 20
70.4824620538
 11
179.0072593314
 21
70.4824620538
  0
LINE
  5
4A7
100
AcDbEntity
  8
ON_OFF_PORTATASTO
100
AcDbLine
 62
7
  6
CONTINUOUS
 10
150.9043777212
 20
68.0245952461
 11
150.9073035594
 21
68.0216694079
  0
LINE
  5
4A8
100
AcDbEntity
  8
ON_OFF_PORTATASTO
100
AcDbLine
 62
7
  6
CONTINUOUS
 10
138.2581340448
 20
69.4141882858
 11
138.2500228105
 21
69.4872553556
  0
LINE
  5
4A9
100
AcDbEntity
  8
ON_OFF_PORTATASTO
100
AcDbLine
 62
250
  6
CONTINUOUS
 10
138.2442049807
 20
115.6660069752
 11
138.2500228105
 21
115.088656706
  0
LINE
  5
4AA
100
AcDbEntity
  8
ON_OFF_PORTATASTO
100
AcDbLine
 62
250
  6
CONTINUOUS
 10
138.2500228105
 20
68.5546821098
 11
138.2442049807
 21
67.9773318406
  0
LINE
  5
4AB
100
AcDbEntity
  8
ON_OFF_TASTOTARGHETTA
100
AcDbLine
 62
250
  6
CONTINUOUS
 10
135.6073035594
 20
70.5785033674
 11
135.7074696312
 21
71.2779583937
  0
LINE
  5
4AC
100
AcDbEntity
  8
ON_OFF_TASTOTARGHETTA
100
AcDbLine
 62
250
  6
CONTINUOUS
 10
136.4071817155
 20
69.7830070275
 11
136.5073477873
 21
70.4824620538
  0
LINE
  5
4AD
100
AcDbEntity
  8
ON_OFF_PORTATASTO
100
AcDbLine
 62
250
  6
CONTINUOUS
 10
156.9073077902
 20
116.3216694079
 11
156.8942092114
 21
116.3085708292
  0
LINE
  5
4AE
100
AcDbEntity
  8
ON_OFF_PORTATASTO
100
AcDbLine
 62
250
  6
CONTINUOUS
 10
157.1573035594
 20
116.0716736387
 11
157.1442049807
 21
116.05857506
  0
LINE
  5
4AF
100
AcDbEntity
  8
ON_OFF_TASTOTARGHETTA
100
AcDbLine
 62
250
  6
CONTINUOUS
 10
136.5193249413
 20
72.0265111052
 11
178.9952821774
 21
72.0265111052
  0
LINE
  5
4B0
100
AcDbEntity
  8
ON_OFF_PORTATASTO
100
AcDbLine
 62
7
  6
CONTINUOUS
 10
180.1158382996
 20
72.0760528567
 11
179.9073035594
 21
72.0760528567
  0
LINE
  5
4B1
100
AcDbEntity
  8
ON_OFF_PORTATASTO
100
AcDbLine
 62
7
  6
CONTINUOUS
 10
135.6073035594
 20
72.0760528567
 11
135.3987688192
 21
72.0760528567
  0
LINE
  5
4B2
100
AcDbEntity
  8
ON_OFF_PORTATASTO
100
AcDbLine
 62
250
  6
CONTINUOUS
 10
156.9073077902
 20
67.3216694079
 11
156.8942092114
 21
67.3347679866
  0
LINE
  5
4B3
100
AcDbEntity
  8
ON_OFF_PORTATASTO
100
AcDbLine
 62
7
  6
CONTINUOUS
 10
142.1073035594
 20
68.0216694079
 11
142.1073035594
 21
69.4216694079
  0
LINE
  5
4B4
100
AcDbEntity
  8
ON_OFF_PORTATASTO
100
AcDbLine
 62
7
  6
CONTINUOUS
 10
142.1073035594
 20
114.2216694079
 11
142.1073035594
 21
115.6216694079
  0
LINE
  5
4B5
100
AcDbEntity
  8
ON_OFF_PORTATASTO
100
AcDbLine
 62
250
  6
CONTINUOUS
 10
142.1102293976
 20
115.6187435697
 11
142.1102293976
 21
114.1953130711
  0
LINE
  5
4B6
100
AcDbEntity
  8
ON_OFF_PORTATASTO
100
AcDbLine
 62
250
  6
CONTINUOUS
 10
142.1102293976
 20
69.4480257447
 11
142.1102293976
 21
68.0245952461
  0
LINE
  5
4B7
100
AcDbEntity
  8
ON_OFF_PORTATASTO
100
AcDbLine
 62
250
  6
CONTINUOUS
 10
142.610220936
 20
115.4170117594
 11
142.610220936
 21
114.1692616286
  0
LINE
  5
4B8
100
AcDbEntity
  8
ON_OFF_PORTATASTO
100
AcDbLine
 62
250
  6
CONTINUOUS
 10
142.610220936
 20
69.4740771872
 11
142.610220936
 21
68.2263270564
  0
LINE
  5
4B9
100
AcDbEntity
  8
ON_OFF_PORTATASTO
100
AcDbLine
 62
250
  6
CONTINUOUS
 10
135.3722287807
 20
69.9143025572
 11
135.408410113
 21
70.0229348245
  0
LINE
  5
4BA
100
AcDbEntity
  8
ON_OFF_PORTATASTO
100
AcDbLine
 62
7
  6
CONTINUOUS
 10
154.756473074
 20
114.22915053
 11
154.7573035594
 21
114.2303962757
  0
LINE
  5
4BB
100
AcDbEntity
  8
ON_OFF_PORTATASTO
100
AcDbLine
 62
250
  6
CONTINUOUS
 10
160.5073077902
 20
116.3216694079
 11
160.4942092114
 21
116.3085708292
  0
LINE
  5
4BC
100
AcDbEntity
  8
ON_OFF_PORTATASTO
100
AcDbLine
 62
250
  6
CONTINUOUS
 10
160.7573035594
 20
116.0716736387
 11
160.7442049807
 21
116.05857506
  0
LINE
  5
4BD
100
AcDbEntity
  8
ON_OFF_PORTATASTO
100
AcDbLine
 62
250
  6
CONTINUOUS
 10
157.1573035594
 20
67.5716651771
 11
157.1442049807
 21
67.5847637558
  0
LINE
  5
4BE
100
AcDbEntity
  8
ON_OFF_PORTATASTO
100
AcDbLine
 62
250
  6
CONTINUOUS
 10
160.5073077902
 20
67.3216694079
 11
160.4942092114
 21
67.3347679866
  0
LINE
  5
4BF
100
AcDbEntity
  8
ON_OFF_PORTATASTO
100
AcDbLine
 62
7
  6
CONTINUOUS
 10
154.7573035594
 20
69.4129425401
 11
154.756473074
 21
69.4141882858
  0
LINE
  5
4C0
100
AcDbEntity
  8
ON_OFF_PORTATASTO
100
AcDbLine
 62
7
  6
CONTINUOUS
 10
142.1073035594
 20
69.4216694079
 11
142.1102293976
 21
69.4480257447
  0
LINE
  5
4C1
100
AcDbEntity
  8
ON_OFF_PORTATASTO
100
AcDbLine
 62
250
  6
CONTINUOUS
 10
135.9180156869
 20
69.5526888561
 11
135.8983882194
 21
69.4937585693
  0
LINE
  5
4C2
100
AcDbEntity
  8
ON_OFF_PORTATASTO
100
AcDbLine
 62
7
  6
CONTINUOUS
 10
158.356473074
 20
114.22915053
 11
158.3573035594
 21
114.2303962757
  0
LINE
  5
4C3
100
AcDbEntity
  8
ON_OFF_PORTATASTO
100
AcDbLine
 62
250
  6
CONTINUOUS
 10
160.7573035594
 20
67.5716651771
 11
160.7442049807
 21
67.5847637558
  0
LINE
  5
4C4
100
AcDbEntity
  8
ON_OFF_PORTATASTO
100
AcDbLine
 62
250
  6
CONTINUOUS
 10
135.408410113
 20
113.6204039913
 11
135.3722287807
 21
113.7290362586
  0
LINE
  5
4C5
100
AcDbEntity
  8
ON_OFF_PORTATASTO
100
AcDbLine
 62
250
  6
CONTINUOUS
 10
135.8983882194
 20
114.1495802465
 11
135.9180156869
 21
114.0906499597
  0
LINE
  5
4C6
100
AcDbEntity
  8
ON_OFF_PORTATASTO
100
AcDbLine
 62
7
  6
CONTINUOUS
 10
142.1073035594
 20
114.2216694079
 11
142.1102293976
 21
114.1953130711
  0
LINE
  5
4C7
100
AcDbEntity
  8
ON_OFF_PORTATASTO
100
AcDbLine
 62
7
  6
CONTINUOUS
 10
150.9073035594
 20
114.2216694079
 11
150.9043777212
 21
114.1953130711
  0
LWPOLYLINE
  5
4C8
100
AcDbEntity
  8
0
100
AcDbPolyline
 62
7
  6
CONTINUOUS
 90
3
 70
0
 43
0.3500000006
 10
158.7930150146
 20
127.3573801575
 10
158.7215928955
 20
127.1430956726
 10
158.5787305298
 20
126.8573800049
  0
LINE
  5
4C9
100
AcDbEntity
  8
ON_OFF_PORTATASTO
100
AcDbLine
 62
7
  6
CONTINUOUS
 10
158.3573035594
 20
69.4129425401
 11
158.356473074
 21
69.4141882858
  0
LINE
  5
4CA
100
AcDbEntity
  8
ON_OFF_PORTATASTO
100
AcDbLine
 62
250
  6
CONTINUOUS
 10
150.4043861828
 20
68.2263270564
 11
150.4043861828
 21
69.4740771872
  0
LINE
  5
4CB
100
AcDbEntity
  8
ON_OFF_PORTATASTO
100
AcDbLine
 62
250
  6
CONTINUOUS
 10
150.4043861828
 20
114.1692616286
 11
150.4043861828
 21
115.4170117594
  0
LINE
  5
4CC
100
AcDbEntity
  8
ON_OFF_PORTATASTO
100
AcDbLine
 62
250
  6
CONTINUOUS
 10
150.9043777212
 20
68.0245952461
 11
150.9043777212
 21
69.4480257447
  0
LINE
  5
4CD
100
AcDbEntity
  8
ON_OFF_PORTATASTO
100
AcDbLine
 62
250
  6
CONTINUOUS
 10
150.9043777212
 20
114.1953130711
 11
150.9043777212
 21
115.6187435697
  0
LINE
  5
4CE
100
AcDbEntity
  8
ON_OFF_PORTATASTO
100
AcDbLine
 62
7
  6
CONTINUOUS
 10
150.9073035594
 20
115.6216694079
 11
150.9073035594
 21
114.2216694079
  0
LINE
  5
4CF
100
AcDbEntity
  8
ON_OFF_PORTATASTO
100
AcDbLine
 62
7
  6
CONTINUOUS
 10
150.9073035594
 20
69.4216694079
 11
150.9073035594
 21
68.0216694079
  0
LINE
  5
4D0
100
AcDbEntity
  8
ON_OFF_PORTATASTO
100
AcDbLine
 62
7
  6
CONTINUOUS
 10
150.9073035594
 20
69.4216694079
 11
150.9043777212
 21
69.4480257447
  0
LINE
  5
4D1
100
AcDbEntity
  8
ON_OFF_PORTATASTO
100
AcDbLine
 62
7
  6
CONTINUOUS
 10
138.2581340448
 20
69.4141882858
 11
138.2573035594
 21
69.4129425401
  0
LINE
  5
4D2
100
AcDbEntity
  8
ON_OFF_PORTATASTO
100
AcDbLine
 62
7
  6
CONTINUOUS
 10
173.4043777212
 20
115.6187435697
 11
173.4073035594
 21
115.6216694079
  0
LINE
  5
4D3
100
AcDbEntity
  8
ON_OFF_PORTATASTO
100
AcDbLine
 62
7
  6
CONTINUOUS
 10
173.4043777212
 20
68.0245952461
 11
173.4073035594
 21
68.0216694079
  0
LINE
  5
4D4
100
AcDbEntity
  8
ON_OFF_PORTATASTO
100
AcDbLine
 62
250
  6
CONTINUOUS
 10
154.7704021381
 20
67.9773318406
 11
154.7645843083
 21
68.5546821098
  0
LINE
  5
4D5
100
AcDbEntity
  8
ON_OFF_PORTATASTO
100
AcDbLine
 62
250
  6
CONTINUOUS
 10
155.0203979073
 20
68.1938381915
 11
155.0153073062
 21
68.6990196771
  0
LWPOLYLINE
  5
4D6
100
AcDbEntity
  8
0
100
AcDbPolyline
 62
7
  6
CONTINUOUS
 90
2
 70
0
 43
0.3500000006
 10
154.3644448242
 20
127.0716735535
 10
154.3644448242
 20
128.5716649475
  0
LINE
  5
4D7
100
AcDbEntity
  8
ON_OFF_PORTATASTO
100
AcDbLine
 62
7
  6
CONTINUOUS
 10
154.7573035594
 20
67.5716651771
 11
154.7573035594
 21
69.4129425401
  0
LINE
  5
4D8
100
AcDbEntity
  8
ON_OFF_PORTATASTO
100
AcDbLine
 62
7
  6
CONTINUOUS
 10
154.7573035594
 20
114.2303962757
 11
154.7573035594
 21
116.0716736387
  0
LINE
  5
4D9
100
AcDbEntity
  8
ON_OFF_PORTATASTO
100
AcDbLine
 62
250
  6
CONTINUOUS
 10
154.7645843083
 20
68.5546821098
 11
154.7645843083
 21
69.4872553556
  0
LINE
  5
4DA
100
AcDbEntity
  8
ON_OFF_PORTATASTO
100
AcDbLine
 62
250
  6
CONTINUOUS
 10
154.7645843083
 20
114.1560834602
 11
154.7645843083
 21
115.088656706
  0
LINE
  5
4DB
100
AcDbEntity
  8
ON_OFF_PORTATASTO
100
AcDbLine
 62
250
  6
CONTINUOUS
 10
154.7704021381
 20
116.05857506
 11
154.7704021381
 21
115.6660069752
  0
LINE
  5
4DC
100
AcDbEntity
  8
ON_OFF_PORTATASTO
100
AcDbLine
 62
250
  6
CONTINUOUS
 10
154.7704021381
 20
67.9773318406
 11
154.7704021381
 21
67.5847637558
  0
LINE
  5
4DD
100
AcDbEntity
  8
ON_OFF_PORTATASTO
100
AcDbLine
 62
250
  6
CONTINUOUS
 10
155.0145800775
 20
68.6990196771
 11
155.0145800775
 21
69.5002810768
  0
LINE
  5
4DE
100
AcDbEntity
  8
ON_OFF_PORTATASTO
100
AcDbLine
 62
250
  6
CONTINUOUS
 10
155.0145800775
 20
114.143057739
 11
155.0145800775
 21
114.9443191387
  0
LINE
  5
4DF
100
AcDbEntity
  8
ON_OFF_PORTATASTO
100
AcDbLine
 62
250
  6
CONTINUOUS
 10
155.0203979073
 20
67.3347679866
 11
155.0203979073
 21
68.1938381915
  0
LINE
  5
4E0
100
AcDbEntity
  8
ON_OFF_PORTATASTO
100
AcDbLine
 62
250
  6
CONTINUOUS
 10
155.0203979073
 20
115.4495006242
 11
155.0203979073
 21
116.3085708292
  0
LINE
  5
4E1
100
AcDbEntity
  8
ON_OFF_PORTATASTO
100
AcDbLine
 62
250
  6
CONTINUOUS
 10
154.7645843083
 20
115.088656706
 11
154.7704021381
 21
115.6660069752
  0
LINE
  5
4E2
100
AcDbEntity
  8
ON_OFF_PORTATASTO
100
AcDbLine
 62
250
  6
CONTINUOUS
 10
155.0153073062
 20
114.9443191387
 11
155.0203979073
 21
115.4495006242
  0
LINE
  5
4E3
100
AcDbEntity
  8
ON_OFF_PORTATASTO
100
AcDbLine
 62
7
  6
CONTINUOUS
 10
157.1581340448
 20
114.22915053
 11
157.1500228105
 21
114.1560834602
  0
LINE
  5
4E4
100
AcDbEntity
  8
ON_OFF_PORTATASTO
100
AcDbLine
 62
250
  6
CONTINUOUS
 10
179.4073077902
 20
116.3216694079
 11
179.3942092114
 21
116.3085708292
  0
LINE
  5
4E5
100
AcDbEntity
  8
ON_OFF_PORTATASTO
100
AcDbLine
 62
250
  6
CONTINUOUS
 10
179.6573035594
 20
116.0716736387
 11
179.6442049807
 21
116.05857506
  0
LINE
  5
4E6
100
AcDbEntity
  8
ON_OFF_PORTATASTO
100
AcDbLine
 62
7
  6
CONTINUOUS
 10
138.2573035594
 20
114.2303962757
 11
138.2581340448
 21
114.22915053
  0
LINE
  5
4E7
100
AcDbEntity
  8
ON_OFF_PORTATASTO
100
AcDbLine
 62
7
  6
CONTINUOUS
 10
157.1581340448
 20
69.4141882858
 11
157.1500228105
 21
69.4872553556
  0
LINE
  5
4E8
100
AcDbEntity
  8
ON_OFF_PORTATASTO
100
AcDbLine
 62
250
  6
CONTINUOUS
 10
156.8942092114
 20
115.4495006242
 11
156.8992998125
 21
114.9443191387
  0
LINE
  5
4E9
100
AcDbEntity
  8
ON_OFF_PORTATASTO
100
AcDbLine
 62
250
  6
CONTINUOUS
 10
157.1442049807
 20
115.6660069752
 11
157.1500228105
 21
115.088656706
  0
LINE
  5
4EA
100
AcDbEntity
  8
ON_OFF_PORTATASTO
100
AcDbLine
 62
250
  6
CONTINUOUS
 10
158.3704021381
 20
67.9773318406
 11
158.3645843083
 21
68.5546821098
  0
LINE
  5
4EB
100
AcDbEntity
  8
ON_OFF_PORTATASTO
100
AcDbLine
 62
250
  6
CONTINUOUS
 10
158.6203979073
 20
68.1938381915
 11
158.6153073062
 21
68.6990196771
  0
LWPOLYLINE
  5
4EC
100
AcDbEntity
  8
0
100
AcDbPolyline
 62
7
  6
CONTINUOUS
 90
2
 70
0
 43
0.3500000006
 10
156.7215922852
 20
127.0716735535
 10
156.7215922852
 20
128.5716649475
  0
LINE
  5
4ED
100
AcDbEntity
  8
ON_OFF_PORTATASTO
100
AcDbLine
 62
250
  6
CONTINUOUS
 10
156.8942092114
 20
67.3347679866
 11
156.8942092114
 21
68.1938381915
  0
LINE
  5
4EE
100
AcDbEntity
  8
ON_OFF_PORTATASTO
100
AcDbLine
 62
250
  6
CONTINUOUS
 10
156.8942092114
 20
115.4495006242
 11
156.8942092114
 21
116.3085708292
  0
LINE
  5
4EF
100
AcDbEntity
  8
ON_OFF_PORTATASTO
100
AcDbLine
 62
250
  6
CONTINUOUS
 10
156.9000270413
 20
114.9443191387
 11
156.9000270413
 21
114.143057739
  0
LINE
  5
4F0
100
AcDbEntity
  8
ON_OFF_PORTATASTO
100
AcDbLine
 62
250
  6
CONTINUOUS
 10
156.9000270413
 20
69.5002810768
 11
156.9000270413
 21
68.6990196771
  0
LINE
  5
4F1
100
AcDbEntity
  8
ON_OFF_PORTATASTO
100
AcDbLine
 62
250
  6
CONTINUOUS
 10
157.1442049807
 20
67.5847637558
 11
157.1442049807
 21
67.9773318406
  0
LINE
  5
4F2
100
AcDbEntity
  8
ON_OFF_PORTATASTO
100
AcDbLine
 62
250
  6
CONTINUOUS
 10
157.1442049807
 20
115.6660069752
 11
157.1442049807
 21
116.05857506
  0
LINE
  5
4F3
100
AcDbEntity
  8
ON_OFF_PORTATASTO
100
AcDbLine
 62
250
  6
CONTINUOUS
 10
157.1500228105
 20
115.088656706
 11
157.1500228105
 21
114.1560834602
  0
LINE
  5
4F4
100
AcDbEntity
  8
ON_OFF_PORTATASTO
100
AcDbLine
 62
250
  6
CONTINUOUS
 10
157.1500228105
 20
69.4872553556
 11
157.1500228105
 21
68.5546821098
  0
LINE
  5
4F5
100
AcDbEntity
  8
ON_OFF_PORTATASTO
100
AcDbLine
 62
7
  6
CONTINUOUS
 10
157.1573035594
 20
67.5716651771
 11
157.1573035594
 21
69.4129425401
  0
LINE
  5
4F6
100
AcDbEntity
  8
ON_OFF_PORTATASTO
100
AcDbLine
 62
7
  6
CONTINUOUS
 10
157.1573035594
 20
114.2303962757
 11
157.1573035594
 21
116.0716736387
  0
LINE
  5
4F7
100
AcDbEntity
  8
ON_OFF_PORTATASTO
100
AcDbLine
 62
7
  6
CONTINUOUS
 10
158.3573035594
 20
67.5716651771
 11
158.3573035594
 21
69.4129425401
  0
LINE
  5
4F8
100
AcDbEntity
  8
ON_OFF_PORTATASTO
100
AcDbLine
 62
7
  6
CONTINUOUS
 10
158.3573035594
 20
114.2303962757
 11
158.3573035594
 21
116.0716736387
  0
LINE
  5
4F9
100
AcDbEntity
  8
ON_OFF_PORTATASTO
100
AcDbLine
 62
250
  6
CONTINUOUS
 10
158.3645843083
 20
68.5546821098
 11
158.3645843083
 21
69.4872553556
  0
LINE
  5
4FA
100
AcDbEntity
  8
ON_OFF_PORTATASTO
100
AcDbLine
 62
250
  6
CONTINUOUS
 10
158.3645843083
 20
114.1560834602
 11
158.3645843083
 21
115.088656706
  0
LINE
  5
4FB
100
AcDbEntity
  8
ON_OFF_PORTATASTO
100
AcDbLine
 62
250
  6
CONTINUOUS
 10
158.3704021381
 20
116.05857506
 11
158.3704021381
 21
115.6660069752
  0
LINE
  5
4FC
100
AcDbEntity
  8
ON_OFF_PORTATASTO
100
AcDbLine
 62
250
  6
CONTINUOUS
 10
158.3704021381
 20
67.9773318406
 11
158.3704021381
 21
67.5847637558
  0
LINE
  5
4FD
100
AcDbEntity
  8
ON_OFF_PORTATASTO
100
AcDbLine
 62
250
  6
CONTINUOUS
 10
156.8992998125
 20
68.6990196771
 11
156.8942092114
 21
68.1938381915
  0
LINE
  5
4FE
100
AcDbEntity
  8
ON_OFF_PORTATASTO
100
AcDbLine
 62
250
  6
CONTINUOUS
 10
157.1500228105
 20
68.5546821098
 11
157.1442049807
 21
67.9773318406
  0
LINE
  5
4FF
100
AcDbEntity
  8
ON_OFF_PORTATASTO
100
AcDbLine
 62
250
  6
CONTINUOUS
 10
158.3645843083
 20
115.088656706
 11
158.3704021381
 21
115.6660069752
  0
LINE
  5
500
100
AcDbEntity
  8
ON_OFF_PORTATASTO
100
AcDbLine
 62
250
  6
CONTINUOUS
 10
158.6153073062
 20
114.9443191387
 11
158.6203979073
 21
115.4495006242
  0
LINE
  5
501
100
AcDbEntity
  8
ON_OFF_PORTATASTO
100
AcDbLine
 62
7
  6
CONTINUOUS
 10
154.756473074
 20
69.4141882858
 11
154.7645843083
 21
69.4872553556
  0
LINE
  5
502
100
AcDbEntity
  8
ON_OFF_PORTATASTO
100
AcDbLine
 62
7
  6
CONTINUOUS
 10
160.7581340448
 20
114.22915053
 11
160.7500228105
 21
114.1560834602
  0
LWPOLYLINE
  5
503
100
AcDbEntity
  8
0
100
AcDbPolyline
 62
7
  6
CONTINUOUS
 90
2
 70
0
 43
0.3500000006
 10
191.0073092651
 20
90.4645292358
 10
189.5072997437
 20
90.4645292358
  0
LINE
  5
504
100
AcDbEntity
  8
ON_OFF_PORTATASTO
100
AcDbLine
 62
250
  6
CONTINUOUS
 10
179.4073077902
 20
67.3216694079
 11
179.3942092114
 21
67.3347679866
  0
LINE
  5
505
100
AcDbEntity
  8
ON_OFF_PORTATASTO
100
AcDbLine
 62
250
  6
CONTINUOUS
 10
179.6573035594
 20
67.5716651771
 11
179.6442049807
 21
67.5847637558
  0
LINE
  5
506
100
AcDbEntity
  8
ON_OFF_PORTATASTO
100
AcDbLine
 62
7
  6
CONTINUOUS
 10
154.756473074
 20
114.22915053
 11
154.7645843083
 21
114.1560834602
  0
LINE
  5
507
100
AcDbEntity
  8
ON_OFF_PORTATASTO
100
AcDbLine
 62
7
  6
CONTINUOUS
 10
160.7581340448
 20
69.4141882858
 11
160.7500228105
 21
69.4872553556
  0
LINE
  5
508
100
AcDbEntity
  8
ON_OFF_PORTATASTO
100
AcDbLine
 62
250
  6
CONTINUOUS
 10
160.4942092114
 20
115.4495006242
 11
160.4992998125
 21
114.9443191387
  0
LINE
  5
509
100
AcDbEntity
  8
ON_OFF_PORTATASTO
100
AcDbLine
 62
250
  6
CONTINUOUS
 10
160.7442049807
 20
115.6660069752
 11
160.7500228105
 21
115.088656706
  0
LINE
  5
50A
100
AcDbEntity
  8
ON_OFF_PORTATASTO
100
AcDbLine
 62
250
  6
CONTINUOUS
 10
158.6145800775
 20
68.6990196771
 11
158.6145800775
 21
69.5002810768
  0
LINE
  5
50B
100
AcDbEntity
  8
ON_OFF_PORTATASTO
100
AcDbLine
 62
250
  6
CONTINUOUS
 10
158.6145800775
 20
114.143057739
 11
158.6145800775
 21
114.9443191387
  0
LINE
  5
50C
100
AcDbEntity
  8
ON_OFF_PORTATASTO
100
AcDbLine
 62
250
  6
CONTINUOUS
 10
158.6203979073
 20
67.3347679866
 11
158.6203979073
 21
68.1938381915
  0
LINE
  5
50D
100
AcDbEntity
  8
ON_OFF_PORTATASTO
100
AcDbLine
 62
250
  6
CONTINUOUS
 10
158.6203979073
 20
115.4495006242
 11
158.6203979073
 21
116.3085708292
  0
LWPOLYLINE
  5
50E
100
AcDbEntity
  8
0
100
AcDbPolyline
 62
7
  6
CONTINUOUS
 90
4
 70
0
 43
0.3500000006
 10
159.7930153198
 20
127.5002425232
 10
159.7930153198
 20
128.3573804626
 10
160.2215842896
 20
128.7859584961
 10
160.8644377441
 20
128.7859584961
  0
LINE
  5
50F
100
AcDbEntity
  8
ON_OFF_PORTATASTO
100
AcDbLine
 62
250
  6
CONTINUOUS
 10
160.4942092114
 20
67.3347679866
 11
160.4942092114
 21
68.1938381915
  0
LINE
  5
510
100
AcDbEntity
  8
ON_OFF_PORTATASTO
100
AcDbLine
 62
250
  6
CONTINUOUS
 10
160.4942092114
 20
115.4495006242
 11
160.4942092114
 21
116.3085708292
  0
LINE
  5
511
100
AcDbEntity
  8
ON_OFF_PORTATASTO
100
AcDbLine
 62
250
  6
CONTINUOUS
 10
160.5000270413
 20
114.9443191387
 11
160.5000270413
 21
114.143057739
  0
LINE
  5
512
100
AcDbEntity
  8
ON_OFF_PORTATASTO
100
AcDbLine
 62
250
  6
CONTINUOUS
 10
160.5000270413
 20
69.5002810768
 11
160.5000270413
 21
68.6990196771
  0
LINE
  5
513
100
AcDbEntity
  8
ON_OFF_PORTATASTO
100
AcDbLine
 62
250
  6
CONTINUOUS
 10
160.7442049807
 20
67.5847637558
 11
160.7442049807
 21
67.9773318406
  0
LINE
  5
514
100
AcDbEntity
  8
ON_OFF_PORTATASTO
100
AcDbLine
 62
250
  6
CONTINUOUS
 10
160.7442049807
 20
115.6660069752
 11
160.7442049807
 21
116.05857506
  0
LINE
  5
515
100
AcDbEntity
  8
ON_OFF_PORTATASTO
100
AcDbLine
 62
250
  6
CONTINUOUS
 10
160.7500228105
 20
115.088656706
 11
160.7500228105
 21
114.1560834602
  0
LINE
  5
516
100
AcDbEntity
  8
ON_OFF_PORTATASTO
100
AcDbLine
 62
250
  6
CONTINUOUS
 10
160.7500228105
 20
69.4872553556
 11
160.7500228105
 21
68.5546821098
  0
LINE
  5
517
100
AcDbEntity
  8
ON_OFF_PORTATASTO
100
AcDbLine
 62
7
  6
CONTINUOUS
 10
160.7573035594
 20
67.5716651771
 11
160.7573035594
 21
69.4129425401
  0
LINE
  5
518
100
AcDbEntity
  8
ON_OFF_PORTATASTO
100
AcDbLine
 62
7
  6
CONTINUOUS
 10
160.7573035594
 20
114.2303962757
 11
160.7573035594
 21
116.0716736387
  0
LINE
  5
519
100
AcDbEntity
  8
ON_OFF_PORTATASTO
100
AcDbLine
 62
250
  6
CONTINUOUS
 10
160.4992998125
 20
68.6990196771
 11
160.4942092114
 21
68.1938381915
  0
LINE
  5
51A
100
AcDbEntity
  8
ON_OFF_PORTATASTO
100
AcDbLine
 62
250
  6
CONTINUOUS
 10
160.7500228105
 20
68.5546821098
 11
160.7442049807
 21
67.9773318406
  0
LINE
  5
51B
100
AcDbEntity
  8
ON_OFF_PORTATASTO
100
AcDbLine
 62
7
  6
CONTINUOUS
 10
158.356473074
 20
69.4141882858
 11
158.3645843083
 21
69.4872553556
  0
LINE
  5
51C
100
AcDbEntity
  8
ON_OFF_PORTATASTO
100
AcDbLine
 62
250
  6
CONTINUOUS
 10
135.8573035594
 20
67.5716651771
 11
135.8704021381
 21
67.5847637558
  0
LINE
  5
51D
100
AcDbEntity
  8
ON_OFF_PORTATASTO
100
AcDbLine
 62
250
  6
CONTINUOUS
 10
136.1072993286
 20
67.3216694079
 11
136.1203979073
 21
67.3347679866
  0
LINE
  5
51E
100
AcDbEntity
  8
ON_OFF_PORTATASTO
100
AcDbLine
 62
7
  6
CONTINUOUS
 10
180.0735192477
 20
91.8216694079
 11
179.9073035594
 21
91.8216694079
  0
LINE
  5
51F
100
AcDbEntity
  8
ON_OFF_PORTATASTO
100
AcDbLine
 62
7
  6
CONTINUOUS
 10
135.6073035594
 20
91.8216694079
 11
135.441087871
 21
91.8216694079
  0
LINE
  5
520
100
AcDbEntity
  8
ON_OFF_PORTATASTO
100
AcDbLine
 62
250
  6
CONTINUOUS
 10
135.8573035594
 20
116.0716736387
 11
135.8704021381
 21
116.05857506
  0
LINE
  5
521
100
AcDbEntity
  8
ON_OFF_PORTATASTO
100
AcDbLine
 62
250
  6
CONTINUOUS
 10
136.1072993286
 20
116.3216694079
 11
136.1203979073
 21
116.3085708292
  0
LINE
  5
522
100
AcDbEntity
  8
ON_OFF_PORTATASTO
100
AcDbLine
 62
7
  6
CONTINUOUS
 10
158.356473074
 20
114.22915053
 11
158.3645843083
 21
114.1560834602
  0
LINE
  5
523
100
AcDbEntity
  8
ON_OFF_PORTATASTO
100
AcDbLine
 62
7
  6
CONTINUOUS
 10
177.256473074
 20
114.22915053
 11
177.2573035594
 21
114.2303962757
  0
LINE
  5
524
100
AcDbEntity
  8
ON_OFF_PORTATASTO
100
AcDbLine
 62
7
  6
CONTINUOUS
 10
142.1102293976
 20
68.0245952461
 11
142.1073035594
 21
68.0216694079
  0
LINE
  5
525
100
AcDbEntity
  8
ON_OFF_PORTATASTO
100
AcDbLine
 62
7
  6
CONTINUOUS
 10
177.2573035594
 20
69.4129425401
 11
177.256473074
 21
69.4141882858
  0
LINE
  5
526
100
AcDbEntity
  8
ON_OFF_PORTATASTO
100
AcDbLine
 62
7
  6
CONTINUOUS
 10
164.6073035594
 20
68.0216694079
 11
164.6073035594
 21
69.4216694079
  0
LINE
  5
527
100
AcDbEntity
  8
ON_OFF_PORTATASTO
100
AcDbLine
 62
7
  6
CONTINUOUS
 10
164.6073035594
 20
114.2216694079
 11
164.6073035594
 21
115.6216694079
  0
LINE
  5
528
100
AcDbEntity
  8
ON_OFF_PORTATASTO
100
AcDbLine
 62
250
  6
CONTINUOUS
 10
164.6102293976
 20
115.6187435697
 11
164.6102293976
 21
114.1953130711
  0
LINE
  5
529
100
AcDbEntity
  8
ON_OFF_PORTATASTO
100
AcDbLine
 62
250
  6
CONTINUOUS
 10
164.6102293976
 20
69.4480257447
 11
164.6102293976
 21
68.0245952461
  0
LINE
  5
52A
100
AcDbEntity
  8
ON_OFF_PORTATASTO
100
AcDbLine
 62
250
  6
CONTINUOUS
 10
165.110220936
 20
115.4170117594
 11
165.110220936
 21
114.1692616286
  0
LINE
  5
52B
100
AcDbEntity
  8
ON_OFF_PORTATASTO
100
AcDbLine
 62
250
  6
CONTINUOUS
 10
165.110220936
 20
69.4740771872
 11
165.110220936
 21
68.2263270564
  0
LINE
  5
52C
100
AcDbEntity
  8
ON_OFF_PORTATASTO
100
AcDbLine
 62
7
  6
CONTINUOUS
 10
142.1102293976
 20
115.6187435697
 11
142.1073035594
 21
115.6216694079
  0
LINE
  5
52D
100
AcDbEntity
  8
ON_OFF_PORTATASTO
100
AcDbLine
 62
7
  6
CONTINUOUS
 10
164.6073035594
 20
69.4216694079
 11
164.6102293976
 21
69.4480257447
  0
LINE
  5
52E
100
AcDbEntity
  8
ON_OFF_PORTATASTO
100
AcDbLine
 62
7
  6
CONTINUOUS
 10
164.6073035594
 20
114.2216694079
 11
164.6102293976
 21
114.1953130711
  0
LINE
  5
52F
100
AcDbEntity
  8
ON_OFF_PORTATASTO
100
AcDbLine
 62
7
  6
CONTINUOUS
 10
173.4073035594
 20
114.2216694079
 11
173.4043777212
 21
114.1953130711
  0
LINE
  5
530
100
AcDbEntity
  8
ON_OFF_PORTATASTO
100
AcDbLine
 62
7
  6
CONTINUOUS
 10
157.1581340448
 20
69.4141882858
 11
157.1573035594
 21
69.4129425401
  0
LINE
  5
531
100
AcDbEntity
  8
ON_OFF_PORTATASTO
100
AcDbLine
 62
7
  6
CONTINUOUS
 10
157.1573035594
 20
114.2303962757
 11
157.1581340448
 21
114.22915053
  0
LINE
  5
532
100
AcDbEntity
  8
ON_OFF_PORTATASTO
100
AcDbLine
 62
7
  6
CONTINUOUS
 10
173.4073035594
 20
69.4216694079
 11
173.4043777212
 21
69.4480257447
  0
LINE
  5
533
100
AcDbEntity
  8
ON_OFF_PORTATASTO
100
AcDbLine
 62
250
  6
CONTINUOUS
 10
172.9043861828
 20
68.2263270564
 11
172.9043861828
 21
69.4740771872
  0
LINE
  5
534
100
AcDbEntity
  8
ON_OFF_PORTATASTO
100
AcDbLine
 62
250
  6
CONTINUOUS
 10
172.9043861828
 20
114.1692616286
 11
172.9043861828
 21
115.4170117594
  0
LINE
  5
535
100
AcDbEntity
  8
ON_OFF_PORTATASTO
100
AcDbLine
 62
250
  6
CONTINUOUS
 10
173.4043777212
 20
68.0245952461
 11
173.4043777212
 21
69.4480257447
  0
LINE
  5
536
100
AcDbEntity
  8
ON_OFF_PORTATASTO
100
AcDbLine
 62
250
  6
CONTINUOUS
 10
173.4043777212
 20
114.1953130711
 11
173.4043777212
 21
115.6187435697
  0
LINE
  5
537
100
AcDbEntity
  8
ON_OFF_PORTATASTO
100
AcDbLine
 62
7
  6
CONTINUOUS
 10
173.4073035594
 20
115.6216694079
 11
173.4073035594
 21
114.2216694079
  0
LINE
  5
538
100
AcDbEntity
  8
ON_OFF_PORTATASTO
100
AcDbLine
 62
7
  6
CONTINUOUS
 10
173.4073035594
 20
69.4216694079
 11
173.4073035594
 21
68.0216694079
  0
LINE
  5
539
100
AcDbEntity
  8
ON_OFF_PORTATASTO
100
AcDbLine
 62
250
  6
CONTINUOUS
 10
179.5965914319
 20
114.0906499597
 11
179.6162188993
 21
114.1495802465
  0
LINE
  5
53A
100
AcDbEntity
  8
ON_OFF_PORTATASTO
100
AcDbLine
 62
250
  6
CONTINUOUS
 10
180.142378338
 20
113.7290362586
 11
180.1061970057
 21
113.6204039913
  0
LINE
  5
53B
100
AcDbEntity
  8
ON_OFF_PORTATASTO
100
AcDbLine
 62
7
  6
CONTINUOUS
 10
160.7581340448
 20
69.4141882858
 11
160.7573035594
 21
69.4129425401
  0
LINE
  5
53C
100
AcDbEntity
  8
ON_OFF_PORTATASTO
100
AcDbLine
 62
250
  6
CONTINUOUS
 10
154.7573035594
 20
67.5716651771
 11
154.7704021381
 21
67.5847637558
  0
LINE
  5
53D
100
AcDbEntity
  8
ON_OFF_PORTATASTO
100
AcDbLine
 62
250
  6
CONTINUOUS
 10
155.0072993286
 20
67.3216694079
 11
155.0203979073
 21
67.3347679866
  0
LINE
  5
53E
100
AcDbEntity
  8
ON_OFF_PORTATASTO
100
AcDbLine
 62
7
  6
CONTINUOUS
 10
160.7573035594
 20
114.2303962757
 11
160.7581340448
 21
114.22915053
  0
LINE
  5
53F
100
AcDbEntity
  8
ON_OFF_PORTATASTO
100
AcDbLine
 62
250
  6
CONTINUOUS
 10
179.6162188993
 20
69.4937585693
 11
179.5965914319
 21
69.5526888561
  0
LINE
  5
540
100
AcDbEntity
  8
ON_OFF_PORTATASTO
100
AcDbLine
 62
250
  6
CONTINUOUS
 10
180.1061970057
 20
70.0229348245
 11
180.142378338
 21
69.9143025572
  0
LINE
  5
541
100
AcDbEntity
  8
ON_OFF_PORTATASTO
100
AcDbLine
 62
250
  6
CONTINUOUS
 10
158.3573035594
 20
67.5716651771
 11
158.3704021381
 21
67.5847637558
  0
LINE
  5
542
100
AcDbEntity
  8
ON_OFF_PORTATASTO
100
AcDbLine
 62
250
  6
CONTINUOUS
 10
158.6072993286
 20
67.3216694079
 11
158.6203979073
 21
67.3347679866
  0
LINE
  5
543
100
AcDbEntity
  8
ON_OFF_PORTATASTO
100
AcDbLine
 62
250
  6
CONTINUOUS
 10
154.7573035594
 20
116.0716736387
 11
154.7704021381
 21
116.05857506
  0
LINE
  5
544
100
AcDbEntity
  8
ON_OFF_PORTATASTO
100
AcDbLine
 62
250
  6
CONTINUOUS
 10
155.0072993286
 20
116.3216694079
 11
155.0203979073
 21
116.3085708292
  0
LWPOLYLINE
  5
545
100
AcDbEntity
  8
0
100
AcDbPolyline
 62
7
  6
CONTINUOUS
 90
10
 70
0
 43
0.3500000006
 10
158.7215928955
 20
127.5716737061
 10
158.7930150146
 20
127.4288113403
 10
158.7930150146
 20
127.3573801575
 10
158.6501526489
 20
127.2145268555
 10
158.5787305298
 20
127.2145268555
 10
158.5073084106
 20
127.2859580383
 10
158.5073084106
 20
127.3573801575
 10
158.5787305298
 20
127.5002425232
 10
158.6501526489
 20
127.5716737061
 10
158.7215928955
 20
127.5716737061
  0
LINE
  5
546
100
AcDbEntity
  8
ON_OFF_TASTOTARGHETTA
100
AcDbLine
 62
250
  6
CONTINUOUS
 10
179.0072593314
 20
70.4824620538
 11
179.1074254033
 21
69.7830070275
  0
LINE
  5
547
100
AcDbEntity
  8
ON_OFF_PORTATASTO
100
AcDbLine
 62
250
  6
CONTINUOUS
 10
177.2704021381
 20
67.9773318406
 11
177.2645843083
 21
68.5546821098
  0
LINE
  5
548
100
AcDbEntity
  8
ON_OFF_PORTATASTO
100
AcDbLine
 62
250
  6
CONTINUOUS
 10
177.5203979073
 20
68.1938381915
 11
177.5153073062
 21
68.6990196771
  0
LINE
  5
549
100
AcDbEntity
  8
ON_OFF_PORTATASTO
100
AcDbLine
 62
7
  6
CONTINUOUS
 10
177.2573035594
 20
67.5716651771
 11
177.2573035594
 21
69.4129425401
  0
LINE
  5
54A
100
AcDbEntity
  8
ON_OFF_PORTATASTO
100
AcDbLine
 62
7
  6
CONTINUOUS
 10
177.2573035594
 20
114.2303962757
 11
177.2573035594
 21
116.0716736387
  0
LINE
  5
54B
100
AcDbEntity
  8
ON_OFF_PORTATASTO
100
AcDbLine
 62
250
  6
CONTINUOUS
 10
177.2645843083
 20
68.5546821098
 11
177.2645843083
 21
69.4872553556
  0
LINE
  5
54C
100
AcDbEntity
  8
ON_OFF_PORTATASTO
100
AcDbLine
 62
250
  6
CONTINUOUS
 10
177.2645843083
 20
114.1560834602
 11
177.2645843083
 21
115.088656706
  0
LINE
  5
54D
100
AcDbEntity
  8
ON_OFF_PORTATASTO
100
AcDbLine
 62
250
  6
CONTINUOUS
 10
177.2704021381
 20
116.05857506
 11
177.2704021381
 21
115.6660069752
  0
LINE
  5
54E
100
AcDbEntity
  8
ON_OFF_PORTATASTO
100
AcDbLine
 62
250
  6
CONTINUOUS
 10
177.2704021381
 20
67.9773318406
 11
177.2704021381
 21
67.5847637558
  0
LINE
  5
54F
100
AcDbEntity
  8
ON_OFF_PORTATASTO
100
AcDbLine
 62
250
  6
CONTINUOUS
 10
177.5145800775
 20
68.6990196771
 11
177.5145800775
 21
69.5002810768
  0
LINE
  5
550
100
AcDbEntity
  8
ON_OFF_PORTATASTO
100
AcDbLine
 62
250
  6
CONTINUOUS
 10
177.5145800775
 20
114.143057739
 11
177.5145800775
 21
114.9443191387
  0
LINE
  5
551
100
AcDbEntity
  8
ON_OFF_PORTATASTO
100
AcDbLine
 62
250
  6
CONTINUOUS
 10
177.5203979073
 20
67.3347679866
 11
177.5203979073
 21
68.1938381915
  0
LINE
  5
552
100
AcDbEntity
  8
ON_OFF_PORTATASTO
100
AcDbLine
 62
250
  6
CONTINUOUS
 10
177.5203979073
 20
115.4495006242
 11
177.5203979073
 21
116.3085708292
  0
LINE
  5
553
100
AcDbEntity
  8
ON_OFF_PORTATASTO
100
AcDbLine
 62
250
  6
CONTINUOUS
 10
177.2645843083
 20
115.088656706
 11
177.2704021381
 21
115.6660069752
  0
LINE
  5
554
100
AcDbEntity
  8
ON_OFF_PORTATASTO
100
AcDbLine
 62
250
  6
CONTINUOUS
 10
177.5153073062
 20
114.9443191387
 11
177.5203979073
 21
115.4495006242
  0
LINE
  5
555
100
AcDbEntity
  8
ON_OFF_PORTATASTO
100
AcDbLine
 62
250
  6
CONTINUOUS
 10
158.3573035594
 20
116.0716736387
 11
158.3704021381
 21
116.05857506
  0
LINE
  5
556
100
AcDbEntity
  8
ON_OFF_PORTATASTO
100
AcDbLine
 62
250
  6
CONTINUOUS
 10
158.6072993286
 20
116.3216694079
 11
158.6203979073
 21
116.3085708292
  0
LINE
  5
557
100
AcDbEntity
  8
ON_OFF_TASTOTARGHETTA
100
AcDbLine
 62
250
  6
CONTINUOUS
 10
179.8071374875
 20
71.2779583937
 11
179.9073035594
 21
70.5785033674
  0
LINE
  5
558
100
AcDbEntity
  8
ON_OFF_PORTATASTO
100
AcDbLine
 62
250
  6
CONTINUOUS
 10
179.3942092114
 20
115.4495006242
 11
179.3992998125
 21
114.9443191387
  0
LINE
  5
559
100
AcDbEntity
  8
ON_OFF_PORTATASTO
100
AcDbLine
 62
250
  6
CONTINUOUS
 10
179.6442049807
 20
115.6660069752
 11
179.6500228105
 21
115.088656706
  0
LINE
  5
55A
100
AcDbEntity
  8
ON_OFF_PORTATASTO
100
AcDbLine
 62
7
  6
CONTINUOUS
 10
180.0735192477
 20
91.8216694079
 11
180.1158382996
 21
72.0760528567
  0
LINE
  5
55B
100
AcDbEntity
  8
ON_OFF_PORTATASTO
100
AcDbLine
 62
250
  6
CONTINUOUS
 10
179.3942092114
 20
67.3347679866
 11
179.3942092114
 21
68.1938381915
  0
LINE
  5
55C
100
AcDbEntity
  8
ON_OFF_PORTATASTO
100
AcDbLine
 62
250
  6
CONTINUOUS
 10
179.3942092114
 20
115.4495006242
 11
179.3942092114
 21
116.3085708292
  0
LINE
  5
55D
100
AcDbEntity
  8
ON_OFF_PORTATASTO
100
AcDbLine
 62
250
  6
CONTINUOUS
 10
179.4000270413
 20
114.9443191387
 11
179.4000270413
 21
114.143057739
  0
LINE
  5
55E
100
AcDbEntity
  8
ON_OFF_PORTATASTO
100
AcDbLine
 62
250
  6
CONTINUOUS
 10
179.4000270413
 20
69.5002810768
 11
179.4000270413
 21
68.6990196771
  0
LINE
  5
55F
100
AcDbEntity
  8
ON_OFF_PORTATASTO
100
AcDbLine
 62
250
  6
CONTINUOUS
 10
179.6442049807
 20
67.5847637558
 11
179.6442049807
 21
67.9773318406
  0
LINE
  5
560
100
AcDbEntity
  8
ON_OFF_PORTATASTO
100
AcDbLine
 62
250
  6
CONTINUOUS
 10
179.6442049807
 20
115.6660069752
 11
179.6442049807
 21
116.05857506
  0
LINE
  5
561
100
AcDbEntity
  8
ON_OFF_PORTATASTO
100
AcDbLine
 62
250
  6
CONTINUOUS
 10
179.6500228105
 20
115.088656706
 11
179.6500228105
 21
114.1550803693
  0
LINE
  5
562
100
AcDbEntity
  8
ON_OFF_PORTATASTO
100
AcDbLine
 62
250
  6
CONTINUOUS
 10
179.6500228105
 20
69.4882584465
 11
179.6500228105
 21
68.5546821098
  0
LINE
  5
563
100
AcDbEntity
  8
ON_OFF_PORTATASTO
100
AcDbLine
 62
7
  6
CONTINUOUS
 10
179.6573035594
 20
67.5716651771
 11
179.6573035594
 21
69.4132525721
  0
LINE
  5
564
100
AcDbEntity
  8
ON_OFF_PORTATASTO
100
AcDbLine
 62
7
  6
CONTINUOUS
 10
179.6573035594
 20
114.2300862437
 11
179.6573035594
 21
116.0716736387
  0
LINE
  5
565
100
AcDbEntity
  8
ON_OFF_TASTOTARGHETTA
100
AcDbLine
 62
7
  6
CONTINUOUS
 10
179.9073035594
 20
112.4481175152
 11
179.9073035594
 21
70.5785033674
  0
LINE
  5
566
100
AcDbEntity
  8
ON_OFF_PORTATASTO
100
AcDbLine
 62
7
  6
CONTINUOUS
 10
180.1158382996
 20
113.5525840181
 11
180.1158382996
 21
111.5672859591
  0
LINE
  5
567
100
AcDbEntity
  8
ON_OFF_PORTATASTO
100
AcDbLine
 62
7
  6
CONTINUOUS
 10
180.1158382996
 20
70.0907547977
 11
180.1158382996
 21
72.0760528567
  0
LINE
  5
568
100
AcDbEntity
  8
ASSI
100
AcDbLine
 62
7
  6
CONTINUOUS
 10
180.1573035594
 20
109.4933684566
 11
180.1573035594
 21
74.1499703592
  0
LINE
  5
569
100
AcDbEntity
  8
ON_OFF_CORPO
100
AcDbLine
 62
7
  6
CONTINUOUS
 10
180.1573035594
 20
109.4933684566
 11
180.1573035594
 21
74.1499703592
  0
LINE
  5
56A
100
AcDbEntity
  8
ON_OFF_PORTATASTO
100
AcDbLine
 62
7
  6
CONTINUOUS
 10
180.1573035594
 20
113.7215742163
 11
180.1573035594
 21
69.9217645995
  0
LINE
  5
56B
100
AcDbEntity
  8
ON_OFF_PORTATASTO
100
AcDbLine
 62
7
  6
CONTINUOUS
 10
180.1158382996
 20
111.5672859591
 11
180.0735192477
 21
91.8216694079
  0
LINE
  5
56C
100
AcDbEntity
  8
ON_OFF_PORTATASTO
100
AcDbLine
 62
250
  6
CONTINUOUS
 10
179.3992998125
 20
68.6990196771
 11
179.3942092114
 21
68.1938381915
  0
LINE
  5
56D
100
AcDbEntity
  8
ON_OFF_PORTATASTO
100
AcDbLine
 62
250
  6
CONTINUOUS
 10
179.6500228105
 20
68.5546821098
 11
179.6442049807
 21
67.9773318406
  0
LINE
  5
56E
100
AcDbEntity
  8
ON_OFF_PORTATASTO
100
AcDbLine
 62
7
  6
CONTINUOUS
 10
177.256473074
 20
69.4141882858
 11
177.2645843083
 21
69.4872553556
  0
LINE
  5
56F
100
AcDbEntity
  8
ON_OFF_PORTATASTO
100
AcDbLine
 62
7
  6
CONTINUOUS
 10
164.6102293976
 20
68.0245952461
 11
164.6073035594
 21
68.0216694079
  0
LINE
  5
570
100
AcDbEntity
  8
ON_OFF_PORTATASTO
100
AcDbLine
 62
7
  6
CONTINUOUS
 10
180.1158382996
 20
111.5672859591
 11
179.9073035594
 21
111.5672859591
  0
LINE
  5
571
100
AcDbEntity
  8
ON_OFF_PORTATASTO
100
AcDbLine
 62
7
  6
CONTINUOUS
 10
135.6073035594
 20
111.5672859591
 11
135.3987688192
 21
111.5672859591
  0
LINE
  5
572
100
AcDbEntity
  8
ON_OFF_TASTOTARGHETTA
100
AcDbLine
 62
250
  6
CONTINUOUS
 10
136.5193249413
 20
112.5071752759
 11
178.9952821774
 21
112.5071752759
  0
LINE
  5
573
100
AcDbEntity
  8
ON_OFF_PORTATASTO
100
AcDbLine
 62
7
  6
CONTINUOUS
 10
135.3987688192
 20
113.5525840181
 11
135.9829634382
 21
113.5525840181
  0
LINE
  5
574
100
AcDbEntity
  8
ON_OFF_PORTATASTO
100
AcDbLine
 62
7
  6
CONTINUOUS
 10
179.5317928507
 20
113.5525840181
 11
180.1158382996
 21
113.5525840181
  0
LINE
  5
575
100
AcDbEntity
  8
ON_OFF_PORTATASTO
100
AcDbLine
 62
7
  6
CONTINUOUS
 10
135.4285204624
 20
113.6906499597
 11
136.2078280791
 21
113.6906499597
  0
LINE
  5
576
100
AcDbEntity
  8
ON_OFF_PORTATASTO
100
AcDbLine
 62
7
  6
CONTINUOUS
 10
179.3072574723
 20
113.6906499597
 11
180.0860866564
 21
113.6906499597
  0
LINE
  5
577
100
AcDbEntity
  8
ON_OFF_PORTATASTO
100
AcDbLine
 62
7
  6
CONTINUOUS
 10
164.6102293976
 20
115.6187435697
 11
164.6073035594
 21
115.6216694079
  0
LINE
  5
578
100
AcDbEntity
  8
ON_OFF_PORTATASTO
100
AcDbLine
 62
7
  6
CONTINUOUS
 10
177.256473074
 20
114.22915053
 11
177.2645843083
 21
114.1560834602
  0
LINE
  5
579
100
AcDbEntity
  8
ON_OFF_PORTATASTO
100
AcDbLine
 62
7
  6
CONTINUOUS
 10
180.1158382996
 20
70.0907547977
 11
180.1061970057
 21
70.0229348245
  0
LWPOLYLINE
  5
57A
100
AcDbEntity
  8
ON_OFF_TASTOTARGHETTA
100
AcDbPolyline
 62
7
  6
CONTINUOUS
 90
32
 70
0
 10
136.5084161729
 20
113.7495205524
 10
136.4704850846
 20
113.7486211394
 10
136.427599664
 20
113.745429319
 10
136.3854265116
 20
113.7400129175
 10
136.3440711108
 20
113.7324630045
 10
136.3036340797
 20
113.7228749275
 10
136.2642071633
 20
113.7113473834
 10
136.2258697006
 20
113.6979803472
 10
136.1886965388
 20
113.6828767335
 10
136.1527541152
 20
113.6661409164
 10
136.1180970888
 20
113.6478761497
 10
136.0847752885
 20
113.6281870436
 10
136.0528326547
 20
113.607179106
 10
136.0223038713
 20
113.5849561034
 10
135.9932178077
 20
113.5616216066
 10
135.9655960406
 20
113.5372774319
 10
135.9394523289
 20
113.5120222317
 10
135.914795843
 20
113.4859537332
 10
135.8916303128
 20
113.4591676998
 10
135.8699527417
 20
113.4317557276
 10
135.8497474912
 20
113.4037952077
 10
135.8310123265
 20
113.3753845852
 10
135.8137521306
 20
113.3466445108
 10
135.7979246961
 20
113.3176248326
 10
135.7835199931
 20
113.288434361
 10
135.7705627327
 20
113.2592839699
 10
135.7589845477
 20
113.2302071666
 10
135.7487474578
 20
113.2013097457
 10
135.7398667496
 20
113.1729049368
 10
135.7321483369
 20
113.144637215
 10
135.7256293953
 20
113.1169320698
 10
135.7228936062
 20
113.1038134582
  0
LINE
  5
57B
100
AcDbEntity
  8
ON_OFF_TASTOTARGHETTA
100
AcDbLine
 62
7
  6
CONTINUOUS
 10
136.5084132626
 20
113.7495421311
 11
179.0061938561
 21
113.7495421311
  0
LINE
  5
57C
100
AcDbEntity
  8
ON_OFF_PORTATASTO
100
AcDbLine
 62
7
  6
CONTINUOUS
 10
179.5965914319
 20
114.0906499597
 11
135.9180156869
 21
114.0906499597
  0
LINE
  5
57D
100
AcDbEntity
  8
ON_OFF_PORTATASTO
100
AcDbLine
 62
7
  6
CONTINUOUS
 10
136.1145800775
 20
114.143057739
 11
138.0000270413
 21
114.143057739
  0
LINE
  5
57E
100
AcDbEntity
  8
ON_OFF_PORTATASTO
100
AcDbLine
 62
7
  6
CONTINUOUS
 10
155.0145800775
 20
114.143057739
 11
156.9000270413
 21
114.143057739
  0
LINE
  5
57F
100
AcDbEntity
  8
ON_OFF_PORTATASTO
100
AcDbLine
 62
7
  6
CONTINUOUS
 10
158.6145800775
 20
114.143057739
 11
160.5000270413
 21
114.143057739
  0
LINE
  5
580
100
AcDbEntity
  8
ON_OFF_PORTATASTO
100
AcDbLine
 62
7
  6
CONTINUOUS
 10
177.5145800775
 20
114.143057739
 11
179.4000270413
 21
114.143057739
  0
LINE
  5
581
100
AcDbEntity
  8
ON_OFF_PORTATASTO
100
AcDbLine
 62
7
  6
CONTINUOUS
 10
172.9043861828
 20
114.1692616286
 11
165.110220936
 21
114.1692616286
  0
LINE
  5
582
100
AcDbEntity
  8
ON_OFF_PORTATASTO
100
AcDbLine
 62
7
  6
CONTINUOUS
 10
150.4043861828
 20
114.1692616286
 11
142.610220936
 21
114.1692616286
  0
LINE
  5
583
100
AcDbEntity
  8
ON_OFF_PORTATASTO
100
AcDbLine
 62
7
  6
CONTINUOUS
 10
177.256473074
 20
114.22915053
 11
173.406473074
 21
114.22915053
  0
LINE
  5
584
100
AcDbEntity
  8
ON_OFF_PORTATASTO
100
AcDbLine
 62
7
  6
CONTINUOUS
 10
164.6081340448
 20
114.22915053
 11
160.7581340448
 21
114.22915053
  0
LINE
  5
585
100
AcDbEntity
  8
ON_OFF_PORTATASTO
100
AcDbLine
 62
7
  6
CONTINUOUS
 10
158.356473074
 20
114.22915053
 11
157.1581340448
 21
114.22915053
  0
LINE
  5
586
100
AcDbEntity
  8
ON_OFF_PORTATASTO
100
AcDbLine
 62
7
  6
CONTINUOUS
 10
154.756473074
 20
114.22915053
 11
150.906473074
 21
114.22915053
  0
LINE
  5
587
100
AcDbEntity
  8
ON_OFF_PORTATASTO
100
AcDbLine
 62
7
  6
CONTINUOUS
 10
142.1081340448
 20
114.22915053
 11
138.2581340448
 21
114.22915053
  0
LINE
  5
588
100
AcDbEntity
  8
ON_OFF_PORTATASTO
100
AcDbLine
 62
7
  6
CONTINUOUS
 10
136.1145800775
 20
114.9443191387
 11
138.0000270413
 21
114.9443191387
  0
LINE
  5
589
100
AcDbEntity
  8
ON_OFF_PORTATASTO
100
AcDbLine
 62
7
  6
CONTINUOUS
 10
155.0145800775
 20
114.9443191387
 11
156.9000270413
 21
114.9443191387
  0
LINE
  5
58A
100
AcDbEntity
  8
ON_OFF_PORTATASTO
100
AcDbLine
 62
7
  6
CONTINUOUS
 10
158.6145800775
 20
114.9443191387
 11
160.5000270413
 21
114.9443191387
  0
LINE
  5
58B
100
AcDbEntity
  8
ON_OFF_PORTATASTO
100
AcDbLine
 62
7
  6
CONTINUOUS
 10
177.5145800775
 20
114.9443191387
 11
179.4000270413
 21
114.9443191387
  0
LINE
  5
58C
100
AcDbEntity
  8
ON_OFF_PORTATASTO
100
AcDbLine
 62
250
  6
CONTINUOUS
 10
172.9043861828
 20
115.4170117594
 11
165.110220936
 21
115.4170117594
  0
LINE
  5
58D
100
AcDbEntity
  8
ON_OFF_PORTATASTO
100
AcDbLine
 62
250
  6
CONTINUOUS
 10
150.4043861828
 20
115.4170117594
 11
142.610220936
 21
115.4170117594
  0
LINE
  5
58E
100
AcDbEntity
  8
ON_OFF_PORTATASTO
100
AcDbLine
 62
250
  6
CONTINUOUS
 10
136.1203979073
 20
115.4495006242
 11
137.9942092114
 21
115.4495006242
  0
LINE
  5
58F
100
AcDbEntity
  8
ON_OFF_PORTATASTO
100
AcDbLine
 62
250
  6
CONTINUOUS
 10
155.0203979073
 20
115.4495006242
 11
156.8942092114
 21
115.4495006242
  0
LINE
  5
590
100
AcDbEntity
  8
ON_OFF_PORTATASTO
100
AcDbLine
 62
250
  6
CONTINUOUS
 10
158.6203979073
 20
115.4495006242
 11
160.4942092114
 21
115.4495006242
  0
LINE
  5
591
100
AcDbEntity
  8
ON_OFF_PORTATASTO
100
AcDbLine
 62
250
  6
CONTINUOUS
 10
177.5203979073
 20
115.4495006242
 11
179.3942092114
 21
115.4495006242
  0
LINE
  5
592
100
AcDbEntity
  8
ON_OFF_PORTATASTO
100
AcDbLine
 62
250
  6
CONTINUOUS
 10
173.303510873
 20
115.6170083747
 11
164.7110962457
 21
115.6170083747
  0
LINE
  5
593
100
AcDbEntity
  8
ON_OFF_PORTATASTO
100
AcDbLine
 62
250
  6
CONTINUOUS
 10
150.803510873
 20
115.6170083747
 11
142.2110962457
 21
115.6170083747
  0
LINE
  5
594
100
AcDbEntity
  8
ON_OFF_PORTATASTO
100
AcDbLine
 62
7
  6
CONTINUOUS
 10
142.1073035594
 20
115.6216694079
 11
150.9073035594
 21
115.6216694079
  0
LINE
  5
595
100
AcDbEntity
  8
ON_OFF_PORTATASTO
100
AcDbLine
 62
7
  6
CONTINUOUS
 10
164.6073035594
 20
115.6216694079
 11
173.4073035594
 21
115.6216694079
  0
LINE
  5
596
100
AcDbEntity
  8
ON_OFF_PORTATASTO
100
AcDbLine
 62
250
  6
CONTINUOUS
 10
135.8704021381
 20
115.6660069752
 11
138.2442049807
 21
115.6660069752
  0
LINE
  5
597
100
AcDbEntity
  8
ON_OFF_PORTATASTO
100
AcDbLine
 62
250
  6
CONTINUOUS
 10
154.7704021381
 20
115.6660069752
 11
157.1442049807
 21
115.6660069752
  0
LINE
  5
598
100
AcDbEntity
  8
ON_OFF_PORTATASTO
100
AcDbLine
 62
250
  6
CONTINUOUS
 10
158.3704021381
 20
115.6660069752
 11
160.7442049807
 21
115.6660069752
  0
LINE
  5
599
100
AcDbEntity
  8
ON_OFF_PORTATASTO
100
AcDbLine
 62
250
  6
CONTINUOUS
 10
177.2704021381
 20
115.6660069752
 11
179.6442049807
 21
115.6660069752
  0
LINE
  5
59A
100
AcDbEntity
  8
ON_OFF_PORTATASTO
100
AcDbLine
 62
250
  6
CONTINUOUS
 10
135.8704021381
 20
116.05857506
 11
138.2442049807
 21
116.05857506
  0
LINE
  5
59B
100
AcDbEntity
  8
ON_OFF_PORTATASTO
100
AcDbLine
 62
250
  6
CONTINUOUS
 10
154.7704021381
 20
116.05857506
 11
157.1442049807
 21
116.05857506
  0
LINE
  5
59C
100
AcDbEntity
  8
ON_OFF_PORTATASTO
100
AcDbLine
 62
250
  6
CONTINUOUS
 10
158.3704021381
 20
116.05857506
 11
160.7442049807
 21
116.05857506
  0
LINE
  5
59D
100
AcDbEntity
  8
ON_OFF_PORTATASTO
100
AcDbLine
 62
250
  6
CONTINUOUS
 10
177.2704021381
 20
116.05857506
 11
179.6442049807
 21
116.05857506
  0
LWPOLYLINE
  5
59E
100
AcDbEntity
  8
0
100
AcDbPolyline
 62
7
  6
CONTINUOUS
 90
10
 70
0
 43
0.3500000006
 10
191.0073092651
 20
92.2502453613
 10
190.1501531982
 20
93.1073833008
 10
189.2930152588
 20
93.3216677856
 10
188.4358773193
 20
93.3216677856
 10
188.0073083496
 20
92.8930988159
 10
188.0073083496
 20
92.2502453613
 10
188.4358773193
 20
91.8216673279
 10
189.2930152588
 20
91.8216673279
 10
189.7215842285
 20
92.2502453613
 10
189.7215842285
 20
93.1788144836
  0
LINE
  5
59F
100
AcDbEntity
  8
ON_OFF_PORTATASTO
100
AcDbLine
 62
7
  6
CONTINUOUS
 10
180.1061970057
 20
113.6204039913
 11
180.1158382996
 21
113.5525840181
  0
LINE
  5
5A0
100
AcDbEntity
  8
ON_OFF_PORTATASTO
100
AcDbLine
 62
250
  6
CONTINUOUS
 10
179.3942092114
 20
116.3085708292
 11
177.5203979073
 21
116.3085708292
  0
LINE
  5
5A1
100
AcDbEntity
  8
ON_OFF_PORTATASTO
100
AcDbLine
 62
250
  6
CONTINUOUS
 10
160.4942092114
 20
116.3085708292
 11
158.6203979073
 21
116.3085708292
  0
LINE
  5
5A2
100
AcDbEntity
  8
ON_OFF_PORTATASTO
100
AcDbLine
 62
250
  6
CONTINUOUS
 10
156.8942092114
 20
116.3085708292
 11
155.0203979073
 21
116.3085708292
  0
LINE
  5
5A3
100
AcDbEntity
  8
ON_OFF_PORTATASTO
100
AcDbLine
 62
250
  6
CONTINUOUS
 10
137.9942092114
 20
116.3085708292
 11
136.1203979073
 21
116.3085708292
  0
LINE
  5
5A4
100
AcDbEntity
  8
ON_OFF_PORTATASTO
100
AcDbLine
 62
7
  6
CONTINUOUS
 10
136.1072993286
 20
116.3216694079
 11
138.0073077902
 21
116.3216694079
  0
LINE
  5
5A5
100
AcDbEntity
  8
ON_OFF_PORTATASTO
100
AcDbLine
 62
7
  6
CONTINUOUS
 10
155.0072993286
 20
116.3216694079
 11
156.9073077902
 21
116.3216694079
  0
LINE
  5
5A6
100
AcDbEntity
  8
ON_OFF_PORTATASTO
100
AcDbLine
 62
7
  6
CONTINUOUS
 10
158.6072993286
 20
116.3216694079
 11
160.5073077902
 21
116.3216694079
  0
LINE
  5
5A7
100
AcDbEntity
  8
ON_OFF_PORTATASTO
100
AcDbLine
 62
7
  6
CONTINUOUS
 10
177.5072993286
 20
116.3216694079
 11
179.4073077902
 21
116.3216694079
  0
LWPOLYLINE
  5
5A8
100
AcDbEntity
  8
ON_OFF_TASTOTARGHETTA
100
AcDbPolyline
 62
7
  6
CONTINUOUS
 90
37
 70
0
 10
179.7916120122
 20
113.1043199275
 10
179.7875975291
 20
113.1231739939
 10
179.7818077073
 20
113.1471856268
 10
179.7751695629
 20
113.1714326842
 10
179.7675371588
 20
113.1962157621
 10
179.7589034842
 20
113.2213188016
 10
179.749211986
 20
113.2467108311
 10
179.7384144173
 20
113.2723352254
 10
179.7265629253
 20
113.2979287464
 10
179.7136409133
 20
113.3234275537
 10
179.6996176764
 20
113.3487981755
 10
179.6845683144
 20
113.3738338811
 10
179.6685349916
 20
113.3984248081
 10
179.651479054
 20
113.4225925127
 10
179.6333705159
 20
113.4463309512
 10
179.6142023487
 20
113.469596941
 10
179.5939838572
 20
113.4923287391
 10
179.5727072428
 20
113.514485742
 10
179.5503792106
 20
113.5360116153
 10
179.5270091046
 20
113.5568494132
 10
179.5025944829
 20
113.5769531137
 10
179.477149393
 20
113.5962626077
 10
179.4506916517
 20
113.6147168665
 10
179.4232268113
 20
113.632264091
 10
179.3947788387
 20
113.6488405659
 10
179.3653747103
 20
113.6643828835
 10
179.3350278519
 20
113.6788354456
 10
179.303772894
 20
113.6921324241
 10
179.2716482616
 20
113.7042085596
 10
179.2386774705
 20
113.7150049982
 10
179.2049072275
 20
113.7244552524
 10
179.1703892696
 20
113.7324937824
 10
179.135160279
 20
113.7390596557
 10
179.0992812162
 20
113.7440876758
 10
179.0628182201
 20
113.7475145489
 10
179.0258226187
 20
113.7492797438
 10
179.0061909956
 20
113.7495205525
  0
LINE
  5
5A9
100
AcDbEntity
  8
ON_OFF_TASTOTARGHETTA
100
AcDbLine
 62
250
  6
CONTINUOUS
 10
179.9073035594
 20
112.4481175152
 11
179.8071374875
 21
112.9483378383
  0
LINE
  5
5AA
100
AcDbEntity
  8
ON_OFF_TASTOTARGHETTA
100
AcDbLine
 62
7
  6
CONTINUOUS
 10
179.891896017
 20
112.6035207878
 11
179.7916138828
 21
113.1043202716
  0
LINE
  5
5AB
100
AcDbEntity
  8
ON_OFF_PORTATASTO
100
AcDbLine
 62
7
  6
CONTINUOUS
 10
179.6581324846
 20
69.4144403219
 11
179.6573035594
 21
69.4132525721
  0
LINE
  5
5AC
100
AcDbEntity
  8
ON_OFF_PORTATASTO
100
AcDbLine
 62
250
  6
CONTINUOUS
 10
177.2573035594
 20
67.5716651771
 11
177.2704021381
 21
67.5847637558
  0
LINE
  5
5AD
100
AcDbEntity
  8
ON_OFF_PORTATASTO
100
AcDbLine
 62
250
  6
CONTINUOUS
 10
177.5072993286
 20
67.3216694079
 11
177.5203979073
 21
67.3347679866
  0
LINE
  5
5AE
100
AcDbEntity
  8
ON_OFF_PORTATASTO
100
AcDbLine
 62
250
  6
CONTINUOUS
 10
180.142378338
 20
69.9143025572
 11
180.1573035594
 21
69.9217645995
  0
LINE
  5
5AF
100
AcDbEntity
  8
ON_OFF_PORTATASTO
100
AcDbLine
 62
7
  6
CONTINUOUS
 10
179.8658092283
 20
69.4669629411
 11
179.8808205692
 21
69.4744680399
  0
LINE
  5
5B0
100
AcDbEntity
  8
ON_OFF_PORTATASTO
100
AcDbLine
 62
250
  6
CONTINUOUS
 10
180.1573035594
 20
113.7215742163
 11
180.142378338
 21
113.7290362586
  0
LWPOLYLINE
  5
5B1
100
AcDbEntity
  8
0
100
AcDbPolyline
 62
7
  6
CONTINUOUS
 90
3
 70
0
 43
0.3500000006
 10
190.3644376831
 20
90.9645293884
 10
190.3644376831
 20
89.4645289307
 10
188.0073083496
 20
90.1073823853
  0
LINE
  5
5B2
100
AcDbEntity
  8
ON_OFF_PORTATASTO
100
AcDbLine
 62
7
  6
CONTINUOUS
 10
179.8808205692
 20
114.1688707759
 11
179.8658092283
 21
114.1763758747
  0
LWPOLYLINE
  5
5B3
100
AcDbEntity
  8
0
100
AcDbPolyline
 62
7
  6
CONTINUOUS
 90
13
 70
0
 43
0.3500000006
 10
160.2215842896
 20
128.7859584961
 10
159.9358776855
 20
129.000242981
 10
159.9358776855
 20
129.6430964355
 10
160.2215842896
 20
130.0716654053
 10
160.8644377441
 20
130.0716654053
 10
161.1501624756
 20
129.6430964355
 10
161.1501624756
 20
129.000242981
 10
160.8644377441
 20
128.7859584961
 10
161.2930248413
 20
128.3573804626
 10
161.2930248413
 20
127.5002425232
 10
160.8644377441
 20
127.0716735535
 10
160.2215842896
 20
127.0716735535
 10
159.7930153198
 20
127.5002425232
  0
LINE
  5
5B4
100
AcDbEntity
  8
ON_OFF_PORTATASTO
100
AcDbLine
 62
250
  6
CONTINUOUS
 10
177.2573035594
 20
116.0716736387
 11
177.2704021381
 21
116.05857506
  0
LINE
  5
5B5
100
AcDbEntity
  8
ON_OFF_PORTATASTO
100
AcDbLine
 62
250
  6
CONTINUOUS
 10
177.5072993286
 20
116.3216694079
 11
177.5203979073
 21
116.3085708292
  0
LINE
  5
5B6
100
AcDbEntity
  8
ON_OFF_PORTATASTO
100
AcDbLine
 62
7
  6
CONTINUOUS
 10
179.6573035594
 20
114.2300862437
 11
179.6581324846
 21
114.2288984939
  0
LWPOLYLINE
  5
5B7
100
AcDbEntity
  8
0
100
AcDbPolyline
 62
7
  6
CONTINUOUS
 90
3
 70
0
 43
0.3500000006
 10
157.221583374
 20
127.7145270081
 10
155.72159198
 20
127.7145270081
 10
156.3644454346
 20
130.0716654053
  0
LWPOLYLINE
  5
5B8
100
AcDbEntity
  8
0
100
AcDbPolyline
 62
7
  6
CONTINUOUS
 90
3
 70
0
 43
0.3500000006
 10
154.8644540405
 20
127.7145270081
 10
153.364444519
 20
127.7145270081
 10
154.0072979736
 20
130.0716654053
  0
ARC
  5
5B9
100
AcDbEntity
  8
ON_OFF_SUPPORTO_PERNO
100
AcDbCircle
 62
7
  6
CONTINUOUS
 10
75.6363052868
 20
71.4735785997
 40
1.0
100
AcDbArc
 50
354.0
 51
79.0
  0
ARC
  5
5BA
100
AcDbEntity
  8
ON_OFF_TASTOTARGHETTA
100
AcDbCircle
 62
7
  6
CONTINUOUS
 10
69.4420648842
 20
71.9712812813
 40
1.5
100
AcDbArc
 50
177.8898991621
 51
263.0
  0
ARC
  5
5BB
100
AcDbEntity
  8
ON_OFF_TASTOTARGHETTA
100
AcDbCircle
 62
250
  6
CONTINUOUS
 10
69.4281854515
 20
71.9727458209
 40
0.700005815
100
AcDbArc
 50
177.8903361373
 51
262.9995630248
  0
ARC
  5
5BC
100
AcDbEntity
  8
ON_OFF_PORTATASTO
100
AcDbCircle
 62
7
  6
CONTINUOUS
 10
79.0559722458
 20
67.9773318406
 40
0.25
100
AcDbArc
 50
120.0
 51
180.0
  0
ARC
  5
5BD
100
AcDbEntity
  8
ON_OFF_PORTATASTO
100
AcDbCircle
 62
7
  6
CONTINUOUS
 10
79.0559722458
 20
67.5847637558
 40
0.25
100
AcDbArc
 50
180.0
 51
269.6666666667
  0
ARC
  5
5BE
100
AcDbEntity
  8
ON_OFF_PORTATASTO
100
AcDbCircle
 62
7
  6
CONTINUOUS
 10
82.0559722458
 20
67.9773318406
 40
0.25
100
AcDbArc
 50
0.0
 51
60.0
  0
ARC
  5
5BF
100
AcDbEntity
  8
ON_OFF_PORTATASTO
100
AcDbCircle
 62
7
  6
CONTINUOUS
 10
82.0559722458
 20
67.5760370111
 40
0.25
100
AcDbArc
 50
270.3333333333
 51
360.0
  0
ARC
  5
5C0
100
AcDbEntity
  8
ON_OFF_SUPPORTO_PERNO
100
AcDbCircle
 62
7
  6
CONTINUOUS
 10
75.8654405258
 20
75.567009219
 40
0.3
100
AcDbArc
 50
264.5
 51
314.5666104094
  0
ARC
  5
5C1
100
AcDbEntity
  8
ON_OFF_PORTATASTO
100
AcDbCircle
 62
7
  6
CONTINUOUS
 10
76.5676337047
 20
73.8079141262
 40
0.3
100
AcDbArc
 50
187.0
 51
269.000005216
  0
ARC
  5
5C2
100
AcDbEntity
  8
ON_OFF_CORPO
100
AcDbCircle
 62
7
  6
CONTINUOUS
 10
93.6059722458
 20
73.2335341515
 40
1.0
100
AcDbArc
 50
271.0
 51
360.0
  0
ARC
  5
5C3
100
AcDbEntity
  8
ASSI
100
AcDbCircle
 62
7
  6
CONTINUOUS
 10
93.6059722458
 20
73.2335341515
 40
1.0
100
AcDbArc
 50
271.0
 51
360.0
  0
ARC
  5
5C4
100
AcDbEntity
  8
ON_OFF_PORTATASTO
100
AcDbCircle
 62
7
  6
CONTINUOUS
 10
91.3059722458
 20
70.5002492964
 40
1.0
100
AcDbArc
 50
270.5
 51
360.0
  0
ARC
  5
5C5
100
AcDbEntity
  8
ON_OFF_PORTATASTO
100
AcDbCircle
 62
250
  6
CONTINUOUS
 10
91.3059722458
 20
70.5002492964
 40
0.7
100
AcDbArc
 50
353.554562842
 51
360.0
  0
ARC
  5
5C6
100
AcDbEntity
  8
ON_OFF_CORPO
100
AcDbCircle
 62
7
  6
CONTINUOUS
 10
103.8059722458
 20
72.9114996497
 40
0.5
100
AcDbArc
 50
271.0
 51
360.0
  0
ARC
  5
5C7
100
AcDbEntity
  8
ASSI
100
AcDbCircle
 62
7
  6
CONTINUOUS
 10
103.8059722458
 20
72.9114996497
 40
0.5
100
AcDbArc
 50
271.0
 51
360.0
  0
ARC
  5
5C8
100
AcDbEntity
  8
ON_OFF_PORTATASTO
100
AcDbCircle
 62
7
  6
CONTINUOUS
 10
88.8059722458
 20
68.5653115932
 40
0.5
100
AcDbArc
 50
270.3333333333
 51
360.0
  0
ARC
  5
5C9
100
AcDbEntity
  8
ON_OFF_CORPO
100
AcDbCircle
 62
250
  6
CONTINUOUS
 10
94.9234265637
 20
82.2768583506
 40
1.3000019115
100
AcDbArc
 50
91.0000827875
 51
179.9999172125
  0
ARC
  5
5CA
100
AcDbEntity
  8
ASSI
100
AcDbCircle
 62
250
  6
CONTINUOUS
 10
94.9234265637
 20
82.2768583506
 40
1.3000019115
100
AcDbArc
 50
91.0000827875
 51
179.9999172125
  0
ARC
  5
5CB
100
AcDbEntity
  8
ON_OFF_CORPO
100
AcDbCircle
 62
250
  6
CONTINUOUS
 10
95.1094636728
 20
87.8130189688
 40
0.7000009457
100
AcDbArc
 50
180.0000760686
 51
268.9999239314
  0
ARC
  5
5CC
100
AcDbEntity
  8
ASSI
100
AcDbCircle
 62
250
  6
CONTINUOUS
 10
95.1094636728
 20
87.8130189688
 40
0.7000009457
100
AcDbArc
 50
180.0000760686
 51
268.9999239314
  0
ARC
  5
5CD
100
AcDbEntity
  8
ON_OFF_CORPO
100
AcDbCircle
 62
7
  6
CONTINUOUS
 10
104.5059722458
 20
84.8216694079
 40
0.5
100
AcDbArc
 50
270.0
 51
360.0
  0
ARC
  5
5CE
100
AcDbEntity
  8
ON_OFF_CORPO
100
AcDbCircle
 62
7
  6
CONTINUOUS
 10
95.1059722458
 20
87.8130180395
 40
0.5
100
AcDbArc
 50
180.0
 51
269.0
  0
ARC
  5
5CF
100
AcDbEntity
  8
ON_OFF_CORPO
100
AcDbCircle
 62
7
  6
CONTINUOUS
 10
103.8059722458
 20
83.2323321693
 40
0.5
100
AcDbArc
 50
271.0
 51
360.0
  0
ARC
  5
5D0
100
AcDbEntity
  8
ASSI
100
AcDbCircle
 62
7
  6
CONTINUOUS
 10
104.5059722458
 20
84.8216694079
 40
0.5
100
AcDbArc
 50
270.0
 51
360.0
  0
ARC
  5
5D1
100
AcDbEntity
  8
ASSI
100
AcDbCircle
 62
7
  6
CONTINUOUS
 10
103.8059722458
 20
83.2323321693
 40
0.5
100
AcDbArc
 50
271.0
 51
360.0
  0
ARC
  5
5D2
100
AcDbEntity
  8
ASSI
100
AcDbCircle
 62
7
  6
CONTINUOUS
 10
95.1059722458
 20
87.8130180395
 40
0.5
100
AcDbArc
 50
180.0
 51
269.0
  0
ARC
  5
5D3
100
AcDbEntity
  8
ON_OFF_CORPO
100
AcDbCircle
 62
7
  6
CONTINUOUS
 10
106.0059722458
 20
80.8215460872
 40
0.3
100
AcDbArc
 50
275.0
 51
360.0
  0
ARC
  5
5D4
100
AcDbEntity
  8
ON_OFF_CORPO
100
AcDbCircle
 62
7
  6
CONTINUOUS
 10
106.0059722458
 20
86.1217927286
 40
0.3
100
AcDbArc
 50
0.0
 51
85.0
  0
ARC
  5
5D5
100
AcDbEntity
  8
ON_OFF_CORPO
100
AcDbCircle
 62
7
  6
CONTINUOUS
 10
106.0059722458
 20
87.4715460872
 40
0.3
100
AcDbArc
 50
275.0
 51
360.0
  0
ARC
  5
5D6
100
AcDbEntity
  8
ON_OFF_CORPO
100
AcDbCircle
 62
7
  6
CONTINUOUS
 10
104.6059722458
 20
80.0967700557
 40
0.3
100
AcDbArc
 50
95.0
 51
180.0
  0
ARC
  5
5D7
100
AcDbEntity
  8
ON_OFF_CORPO
100
AcDbCircle
 62
7
  6
CONTINUOUS
 10
104.6059722458
 20
86.7467700557
 40
0.3
100
AcDbArc
 50
95.0
 51
180.0
  0
ARC
  5
5D8
100
AcDbEntity
  8
ON_OFF_CORPO
100
AcDbCircle
 62
7
  6
CONTINUOUS
 10
94.9059722458
 20
82.276860229
 40
0.3
100
AcDbArc
 50
91.0
 51
180.0
  0
ARC
  5
5D9
100
AcDbEntity
  8
ASSI
100
AcDbCircle
 62
7
  6
CONTINUOUS
 10
106.0059722458
 20
80.8215460872
 40
0.3
100
AcDbArc
 50
275.0
 51
360.0
  0
ARC
  5
5DA
100
AcDbEntity
  8
ASSI
100
AcDbCircle
 62
7
  6
CONTINUOUS
 10
106.0059722458
 20
86.1217927286
 40
0.3
100
AcDbArc
 50
0.0
 51
85.0
  0
ARC
  5
5DB
100
AcDbEntity
  8
ASSI
100
AcDbCircle
 62
7
  6
CONTINUOUS
 10
106.0059722458
 20
87.4715460872
 40
0.3
100
AcDbArc
 50
275.0
 51
360.0
  0
ARC
  5
5DC
100
AcDbEntity
  8
ASSI
100
AcDbCircle
 62
7
  6
CONTINUOUS
 10
104.6059722458
 20
80.0967700557
 40
0.3
100
AcDbArc
 50
95.0
 51
180.0
  0
ARC
  5
5DD
100
AcDbEntity
  8
ASSI
100
AcDbCircle
 62
7
  6
CONTINUOUS
 10
104.6059722458
 20
86.7467700557
 40
0.3
100
AcDbArc
 50
95.0
 51
180.0
  0
ARC
  5
5DE
100
AcDbEntity
  8
ASSI
100
AcDbCircle
 62
7
  6
CONTINUOUS
 10
94.9059722458
 20
82.276860229
 40
0.3
100
AcDbArc
 50
91.0
 51
180.0
  0
ARC
  5
5DF
100
AcDbEntity
  8
ON_OFF_CORPO
100
AcDbCircle
 62
7
  6
CONTINUOUS
 10
104.1059722458
 20
86.9558158255
 40
0.2
100
AcDbArc
 50
0.0
 51
89.0
  0
ARC
  5
5E0
100
AcDbEntity
  8
ASSI
100
AcDbCircle
 62
7
  6
CONTINUOUS
 10
104.1059722458
 20
86.9558158255
 40
0.2
100
AcDbArc
 50
0.0
 51
89.0
  0
ARC
  5
5E1
100
AcDbEntity
  8
ON_OFF_TASTOTARGHETTA
100
AcDbCircle
 62
7
  6
CONTINUOUS
 10
73.6754806886
 20
112.2495421311
 40
1.5
100
AcDbArc
 50
85.0
 51
170.1101008379
  0
ARC
  5
5E2
100
AcDbEntity
  8
ON_OFF_TASTOTARGHETTA
100
AcDbCircle
 62
250
  6
CONTINUOUS
 10
73.6616000587
 20
112.2509952931
 40
0.7000058135
100
AcDbArc
 50
85.0004368657
 51
170.1096639722
  0
ARC
  5
5E3
100
AcDbEntity
  8
ON_OFF_PORTATASTO
100
AcDbCircle
 62
7
  6
CONTINUOUS
 10
88.8059722458
 20
115.0780272226
 40
0.5
100
AcDbArc
 50
0.0
 51
89.6666666667
  0
ARC
  5
5E4
100
AcDbEntity
  8
ON_OFF_PORTATASTO
100
AcDbCircle
 62
7
  6
CONTINUOUS
 10
82.0559722458
 20
115.6660069752
 40
0.25
100
AcDbArc
 50
300.0
 51
360.0
  0
ARC
  5
5E5
100
AcDbEntity
  8
ON_OFF_PORTATASTO
100
AcDbCircle
 62
7
  6
CONTINUOUS
 10
82.0559722458
 20
116.0673018047
 40
0.25
100
AcDbArc
 50
0.0
 51
89.6666666667
  0
ARC
  5
5E6
100
AcDbEntity
  8
ON_OFF_PORTATASTO
100
AcDbCircle
 62
7
  6
CONTINUOUS
 10
79.0559722458
 20
116.05857506
 40
0.25
100
AcDbArc
 50
90.3333333333
 51
180.0
  0
ARC
  5
5E7
100
AcDbEntity
  8
ON_OFF_PORTATASTO
100
AcDbCircle
 62
7
  6
CONTINUOUS
 10
79.0559722458
 20
115.6660069752
 40
0.25
100
AcDbArc
 50
180.0
 51
240.0
  0
ARC
  5
5E8
100
AcDbEntity
  8
ON_OFF_CORPO
100
AcDbCircle
 62
7
  6
CONTINUOUS
 10
104.5059722458
 20
98.8216694079
 40
0.5
100
AcDbArc
 50
0.0
 51
90.0
  0
ARC
  5
5E9
100
AcDbEntity
  8
ASSI
100
AcDbCircle
 62
7
  6
CONTINUOUS
 10
104.5059722458
 20
98.8216694079
 40
0.5
100
AcDbArc
 50
0.0
 51
90.0
  0
ARC
  5
5EA
100
AcDbEntity
  8
ON_OFF_CORPO
100
AcDbCircle
 62
7
  6
CONTINUOUS
 10
106.0059722458
 20
97.5215460872
 40
0.3
100
AcDbArc
 50
275.0
 51
360.0
  0
ARC
  5
5EB
100
AcDbEntity
  8
ON_OFF_CORPO
100
AcDbCircle
 62
7
  6
CONTINUOUS
 10
106.0059722458
 20
92.7717927286
 40
0.3
100
AcDbArc
 50
0.0
 51
85.0
  0
ARC
  5
5EC
100
AcDbEntity
  8
ON_OFF_CORPO
100
AcDbCircle
 62
7
  6
CONTINUOUS
 10
106.0059722458
 20
101.2715460872
 40
0.3
100
AcDbArc
 50
275.0
 51
360.0
  0
ARC
  5
5ED
100
AcDbEntity
  8
ON_OFF_CORPO
100
AcDbCircle
 62
7
  6
CONTINUOUS
 10
104.6059722458
 20
100.5467700557
 40
0.3
100
AcDbArc
 50
95.0
 51
180.0
  0
ARC
  5
5EE
100
AcDbEntity
  8
ON_OFF_CORPO
100
AcDbCircle
 62
7
  6
CONTINUOUS
 10
104.6059722458
 20
93.4965687601
 40
0.3
100
AcDbArc
 50
180.0
 51
265.0
  0
ARC
  5
5EF
100
AcDbEntity
  8
ASSI
100
AcDbCircle
 62
7
  6
CONTINUOUS
 10
106.0059722458
 20
97.5215460872
 40
0.3
100
AcDbArc
 50
275.0
 51
360.0
  0
ARC
  5
5F0
100
AcDbEntity
  8
ASSI
100
AcDbCircle
 62
7
  6
CONTINUOUS
 10
106.0059722458
 20
92.7717927286
 40
0.3
100
AcDbArc
 50
0.0
 51
85.0
  0
ARC
  5
5F1
100
AcDbEntity
  8
ASSI
100
AcDbCircle
 62
7
  6
CONTINUOUS
 10
106.0059722458
 20
101.2715460872
 40
0.3
100
AcDbArc
 50
275.0
 51
360.0
  0
ARC
  5
5F2
100
AcDbEntity
  8
ASSI
100
AcDbCircle
 62
7
  6
CONTINUOUS
 10
104.6059722458
 20
100.5467700557
 40
0.3
100
AcDbArc
 50
95.0
 51
180.0
  0
ARC
  5
5F3
100
AcDbEntity
  8
ASSI
100
AcDbCircle
 62
7
  6
CONTINUOUS
 10
104.6059722458
 20
93.4965687601
 40
0.3
100
AcDbArc
 50
180.0
 51
265.0
  0
ARC
  5
5F4
100
AcDbEntity
  8
ON_OFF_PORTATASTO
100
AcDbCircle
 62
7
  6
CONTINUOUS
 10
91.3059722458
 20
113.1430895194
 40
1.0
100
AcDbArc
 50
0.0
 51
89.5
  0
ARC
  5
5F5
100
AcDbEntity
  8
ON_OFF_CORPO
100
AcDbCircle
 62
250
  6
CONTINUOUS
 10
95.1094636728
 20
105.930319847
 40
0.7000009457
100
AcDbArc
 50
91.0000760683
 51
179.9999239317
  0
ARC
  5
5F6
100
AcDbEntity
  8
ASSI
100
AcDbCircle
 62
250
  6
CONTINUOUS
 10
95.1094636728
 20
105.930319847
 40
0.7000009457
100
AcDbArc
 50
91.0000760683
 51
179.9999239317
  0
ARC
  5
5F7
100
AcDbEntity
  8
ON_OFF_PORTATASTO
100
AcDbCircle
 62
250
  6
CONTINUOUS
 10
91.3059722458
 20
113.1430895194
 40
0.7
100
AcDbArc
 50
0.0
 51
6.445437158
  0
ARC
  5
5F8
100
AcDbEntity
  8
ON_OFF_CORPO
100
AcDbCircle
 62
7
  6
CONTINUOUS
 10
95.1059722458
 20
105.9303207763
 40
0.5
100
AcDbArc
 50
91.0
 51
180.0
  0
ARC
  5
5F9
100
AcDbEntity
  8
ON_OFF_CORPO
100
AcDbCircle
 62
7
  6
CONTINUOUS
 10
103.8059722458
 20
110.7318391661
 40
0.5
100
AcDbArc
 50
0.0
 51
89.0
  0
ARC
  5
5FA
100
AcDbEntity
  8
ASSI
100
AcDbCircle
 62
7
  6
CONTINUOUS
 10
103.8059722458
 20
110.7318391661
 40
0.5
100
AcDbArc
 50
0.0
 51
89.0
  0
ARC
  5
5FB
100
AcDbEntity
  8
ASSI
100
AcDbCircle
 62
7
  6
CONTINUOUS
 10
95.1059722458
 20
105.9303207763
 40
0.5
100
AcDbArc
 50
91.0
 51
180.0
  0
ARC
  5
5FC
100
AcDbEntity
  8
ON_OFF_CORPO
100
AcDbCircle
 62
7
  6
CONTINUOUS
 10
106.0059722458
 20
106.5717927286
 40
0.3
100
AcDbArc
 50
0.0
 51
85.0
  0
ARC
  5
5FD
100
AcDbEntity
  8
ON_OFF_CORPO
100
AcDbCircle
 62
7
  6
CONTINUOUS
 10
104.6059722458
 20
107.2965687601
 40
0.3
100
AcDbArc
 50
180.0
 51
265.0
  0
ARC
  5
5FE
100
AcDbEntity
  8
ASSI
100
AcDbCircle
 62
7
  6
CONTINUOUS
 10
106.0059722458
 20
106.5717927286
 40
0.3
100
AcDbArc
 50
0.0
 51
85.0
  0
ARC
  5
5FF
100
AcDbEntity
  8
ASSI
100
AcDbCircle
 62
7
  6
CONTINUOUS
 10
104.6059722458
 20
107.2965687601
 40
0.3
100
AcDbArc
 50
180.0
 51
265.0
  0
ARC
  5
600
100
AcDbEntity
  8
ON_OFF_CORPO
100
AcDbCircle
 62
7
  6
CONTINUOUS
 10
104.1059717677
 20
106.787522982
 40
0.2
100
AcDbArc
 50
271.000137003
 51
0.000002391
  0
ARC
  5
601
100
AcDbEntity
  8
ASSI
100
AcDbCircle
 62
7
  6
CONTINUOUS
 10
104.1059717677
 20
106.787522982
 40
0.2
100
AcDbArc
 50
271.000137003
 51
0.000002391
  0
ARC
  5
602
100
AcDbEntity
  8
ON_OFF_TASTOTARGHETTA
100
AcDbCircle
 62
7
  6
CONTINUOUS
 10
367.7396574742
 20
60.9805463208
 40
300.0
100
AcDbArc
 50
170.1101008379
 51
177.8898991621
  0
ARC
  5
603
100
AcDbEntity
  8
ON_OFF_PORTATASTO
100
AcDbCircle
 62
7
  6
CONTINUOUS
 10
135.8725949054
 20
69.914488639
 40
0.5003655079
100
AcDbArc
 50
180.0213078006
 51
243.4314493375
  0
ARC
  5
604
100
AcDbEntity
  8
ON_OFF_PORTATASTO
100
AcDbCircle
 62
7
  6
CONTINUOUS
 10
135.872359126
 20
69.9140890743
 40
0.4999011831
100
AcDbArc
 50
243.4351363042
 51
268.1791049983
  0
ARC
  5
605
100
AcDbEntity
  8
ON_OFF_PORTATASTO
100
AcDbCircle
 62
250
  6
CONTINUOUS
 10
137.9941989974
 20
67.5847739699
 40
0.2500059834
100
AcDbArc
 50
270.0023408259
 51
359.9976591741
  0
ARC
  5
606
100
AcDbEntity
  8
ON_OFF_PORTATASTO
100
AcDbCircle
 62
250
  6
CONTINUOUS
 10
136.1204081213
 20
67.5847739698
 40
0.2500059834
100
AcDbArc
 50
180.0023408215
 51
269.9976591785
  0
ARC
  5
607
100
AcDbEntity
  8
ON_OFF_PORTATASTO
100
AcDbCircle
 62
250
  6
CONTINUOUS
 10
156.8941989974
 20
67.5847739699
 40
0.2500059834
100
AcDbArc
 50
270.0023408259
 51
359.9976591741
  0
ARC
  5
608
100
AcDbEntity
  8
ON_OFF_PORTATASTO
100
AcDbCircle
 62
250
  6
CONTINUOUS
 10
155.0204081213
 20
67.5847739699
 40
0.2500059834
100
AcDbArc
 50
180.0023408259
 51
269.9976591741
  0
ARC
  5
609
100
AcDbEntity
  8
ON_OFF_PORTATASTO
100
AcDbCircle
 62
7
  6
CONTINUOUS
 10
138.0073093411
 20
67.5716636262
 40
0.2499940169
100
AcDbArc
 50
269.9996445453
 51
0.0003554547
  0
ARC
  5
60A
100
AcDbEntity
  8
ON_OFF_PORTATASTO
100
AcDbCircle
 62
7
  6
CONTINUOUS
 10
136.1072977777
 20
67.5716636262
 40
0.2499940169
100
AcDbArc
 50
179.9996445453
 51
270.0003554547
  0
ARC
  5
60B
100
AcDbEntity
  8
ON_OFF_PORTATASTO
100
AcDbCircle
 62
7
  6
CONTINUOUS
 10
156.9073093411
 20
67.5716636262
 40
0.2499940169
100
AcDbArc
 50
269.9996445453
 51
0.0003554547
  0
ARC
  5
60C
100
AcDbEntity
  8
ON_OFF_PORTATASTO
100
AcDbCircle
 62
7
  6
CONTINUOUS
 10
155.0072977777
 20
67.5716636262
 40
0.2499940169
100
AcDbArc
 50
179.9996445453
 51
270.0003554547
  0
ARC
  5
60D
100
AcDbEntity
  8
ON_OFF_TASTOTARGHETTA
100
AcDbCircle
 62
250
  6
CONTINUOUS
 10
136.5041360941
 20
112.9475908326
 40
0.7966668131
100
AcDbArc
 50
168.6918937185
 51
179.9462758073
  0
ARC
  5
60E
100
AcDbEntity
  8
ON_OFF_PORTATASTO
100
AcDbCircle
 62
7
  6
CONTINUOUS
 10
135.8725949052
 20
113.7288501765
 40
0.5003655079
100
AcDbArc
 50
116.5685506301
 51
179.9786921658
  0
ARC
  5
60F
100
AcDbEntity
  8
ON_OFF_PORTATASTO
100
AcDbCircle
 62
7
  6
CONTINUOUS
 10
135.872359126
 20
113.7292497415
 40
0.4999011831
100
AcDbArc
 50
91.8208950017
 51
116.5648636958
  0
ARC
  5
610
100
AcDbEntity
  8
ON_OFF_PORTATASTO
100
AcDbCircle
 62
250
  6
CONTINUOUS
 10
137.9941989974
 20
116.0585648459
 40
0.2500059834
100
AcDbArc
 50
0.0023408259
 51
89.9976591741
  0
ARC
  5
611
100
AcDbEntity
  8
ON_OFF_PORTATASTO
100
AcDbCircle
 62
250
  6
CONTINUOUS
 10
136.1204081213
 20
116.058564846
 40
0.2500059834
100
AcDbArc
 50
90.0023408215
 51
179.9976591785
  0
ARC
  5
612
100
AcDbEntity
  8
ON_OFF_PORTATASTO
100
AcDbCircle
 62
250
  6
CONTINUOUS
 10
155.0204081213
 20
116.0585648459
 40
0.2500059834
100
AcDbArc
 50
90.0023408259
 51
179.9976591741
  0
ARC
  5
613
100
AcDbEntity
  8
ON_OFF_PORTATASTO
100
AcDbCircle
 62
250
  6
CONTINUOUS
 10
156.8941989974
 20
116.058564846
 40
0.2500059834
100
AcDbArc
 50
0.0023408215
 51
89.9976591785
  0
ARC
  5
614
100
AcDbEntity
  8
ON_OFF_PORTATASTO
100
AcDbCircle
 62
7
  6
CONTINUOUS
 10
138.0073093411
 20
116.0716751896
 40
0.2499940169
100
AcDbArc
 50
359.9996445439
 51
90.0003554561
  0
ARC
  5
615
100
AcDbEntity
  8
ON_OFF_PORTATASTO
100
AcDbCircle
 62
7
  6
CONTINUOUS
 10
136.1072977777
 20
116.0716751896
 40
0.2499940169
100
AcDbArc
 50
89.9996445442
 51
180.0003554558
  0
ARC
  5
616
100
AcDbEntity
  8
ON_OFF_PORTATASTO
100
AcDbCircle
 62
7
  6
CONTINUOUS
 10
155.0072977777
 20
116.0716751896
 40
0.2499940169
100
AcDbArc
 50
89.9996445442
 51
180.0003554558
  0
ARC
  5
617
100
AcDbEntity
  8
ON_OFF_PORTATASTO
100
AcDbCircle
 62
7
  6
CONTINUOUS
 10
156.9073093411
 20
116.0716751896
 40
0.2499940169
100
AcDbArc
 50
359.9996445442
 51
90.0003554558
  0
ARC
  5
618
100
AcDbEntity
  8
ON_OFF_PORTATASTO
100
AcDbCircle
 62
7
  6
CONTINUOUS
 10
179.6420122231
 20
69.9144886334
 40
0.5003655079
100
AcDbArc
 50
296.5685499525
 51
359.9786928434
  0
ARC
  5
619
100
AcDbEntity
  8
ON_OFF_PORTATASTO
100
AcDbCircle
 62
7
  6
CONTINUOUS
 10
179.6422479928
 20
69.9140890743
 40
0.4999011831
100
AcDbArc
 50
271.8208950017
 51
296.5648636958
  0
ARC
  5
61A
100
AcDbEntity
  8
ON_OFF_PORTATASTO
100
AcDbCircle
 62
250
  6
CONTINUOUS
 10
160.4941989974
 20
67.5847739699
 40
0.2500059834
100
AcDbArc
 50
270.0023408259
 51
359.9976591741
  0
ARC
  5
61B
100
AcDbEntity
  8
ON_OFF_PORTATASTO
100
AcDbCircle
 62
250
  6
CONTINUOUS
 10
158.6204081213
 20
67.5847739698
 40
0.2500059834
100
AcDbArc
 50
180.0023408215
 51
269.9976591785
  0
ARC
  5
61C
100
AcDbEntity
  8
ON_OFF_PORTATASTO
100
AcDbCircle
 62
250
  6
CONTINUOUS
 10
179.3941989974
 20
67.5847739699
 40
0.2500059834
100
AcDbArc
 50
270.0023408259
 51
359.9976591741
  0
ARC
  5
61D
100
AcDbEntity
  8
ON_OFF_PORTATASTO
100
AcDbCircle
 62
250
  6
CONTINUOUS
 10
177.5204081213
 20
67.5847739699
 40
0.2500059834
100
AcDbArc
 50
180.0023408259
 51
269.9976591741
  0
ARC
  5
61E
100
AcDbEntity
  8
ON_OFF_PORTATASTO
100
AcDbCircle
 62
7
  6
CONTINUOUS
 10
160.5073093411
 20
67.5716636262
 40
0.2499940169
100
AcDbArc
 50
269.9996445439
 51
0.0003554561
  0
ARC
  5
61F
100
AcDbEntity
  8
ON_OFF_PORTATASTO
100
AcDbCircle
 62
7
  6
CONTINUOUS
 10
158.6072977777
 20
67.5716636262
 40
0.2499940169
100
AcDbArc
 50
179.9996445453
 51
270.0003554547
  0
ARC
  5
620
100
AcDbEntity
  8
ON_OFF_PORTATASTO
100
AcDbCircle
 62
7
  6
CONTINUOUS
 10
179.4073093411
 20
67.5716636262
 40
0.2499940169
100
AcDbArc
 50
269.9996445453
 51
0.0003554547
  0
ARC
  5
621
100
AcDbEntity
  8
ON_OFF_PORTATASTO
100
AcDbCircle
 62
7
  6
CONTINUOUS
 10
177.5072977777
 20
67.5716636262
 40
0.2499940169
100
AcDbArc
 50
179.9996445453
 51
270.0003554547
  0
ARC
  5
622
100
AcDbEntity
  8
ON_OFF_TASTOTARGHETTA
100
AcDbCircle
 62
250
  6
CONTINUOUS
 10
179.0104627775
 20
112.9475901371
 40
0.7966750609
100
AcDbArc
 50
0.0537736603
 51
11.3184162974
  0
ARC
  5
623
100
AcDbEntity
  8
ON_OFF_PORTATASTO
100
AcDbCircle
 62
7
  6
CONTINUOUS
 10
179.6420122229
 20
113.7288501827
 40
0.5003655079
100
AcDbArc
 50
0.0213071237
 51
63.4314500144
  0
ARC
  5
624
100
AcDbEntity
  8
ON_OFF_PORTATASTO
100
AcDbCircle
 62
7
  6
CONTINUOUS
 10
179.6422479928
 20
113.7292497415
 40
0.4999011831
100
AcDbArc
 50
63.4351363042
 51
88.1791049983
  0
ARC
  5
625
100
AcDbEntity
  8
ON_OFF_PORTATASTO
100
AcDbCircle
 62
250
  6
CONTINUOUS
 10
160.4941989974
 20
116.0585648459
 40
0.2500059834
100
AcDbArc
 50
0.0023408259
 51
89.9976591741
  0
ARC
  5
626
100
AcDbEntity
  8
ON_OFF_PORTATASTO
100
AcDbCircle
 62
250
  6
CONTINUOUS
 10
158.6204081213
 20
116.058564846
 40
0.2500059834
100
AcDbArc
 50
90.0023408215
 51
179.9976591785
  0
ARC
  5
627
100
AcDbEntity
  8
ON_OFF_PORTATASTO
100
AcDbCircle
 62
250
  6
CONTINUOUS
 10
177.5204081213
 20
116.0585648459
 40
0.2500059834
100
AcDbArc
 50
90.0023408259
 51
179.9976591741
  0
ARC
  5
628
100
AcDbEntity
  8
ON_OFF_PORTATASTO
100
AcDbCircle
 62
250
  6
CONTINUOUS
 10
179.3941989974
 20
116.058564846
 40
0.2500059834
100
AcDbArc
 50
0.0023408215
 51
89.9976591785
  0
ARC
  5
629
100
AcDbEntity
  8
ON_OFF_PORTATASTO
100
AcDbCircle
 62
7
  6
CONTINUOUS
 10
160.5073093411
 20
116.0716751896
 40
0.2499940169
100
AcDbArc
 50
359.9996445442
 51
90.0003554558
  0
ARC
  5
62A
100
AcDbEntity
  8
ON_OFF_PORTATASTO
100
AcDbCircle
 62
7
  6
CONTINUOUS
 10
158.6072977777
 20
116.0716751896
 40
0.2499940169
100
AcDbArc
 50
89.9996445442
 51
180.0003554558
  0
ARC
  5
62B
100
AcDbEntity
  8
ON_OFF_PORTATASTO
100
AcDbCircle
 62
7
  6
CONTINUOUS
 10
177.5072977777
 20
116.0716751896
 40
0.2499940169
100
AcDbArc
 50
89.9996445442
 51
180.0003554558
  0
ARC
  5
62C
100
AcDbEntity
  8
ON_OFF_PORTATASTO
100
AcDbCircle
 62
7
  6
CONTINUOUS
 10
179.4073093411
 20
116.0716751896
 40
0.2499940169
100
AcDbArc
 50
359.9996445439
 51
90.0003554561
  0
SPLINE
  5
62D
100
AcDbEntity
  8
ON_OFF_TASTOTARGHETTA
100
AcDbSpline
 62
250
  6
CONTINUOUS
 70
0
 71
3
 72
21
 73
17
 74
0
 42
0.0000001
 43
0.0000001
 44
0.0000000001
 40
0.0
 40
0.0
 40
0.0
 40
0.0
 40
0.1948110152
 40
0.3824960398
 40
0.5552417857
 40
0.7066424291
 40
0.772532152
 40
0.8309736496
 40
0.8813936342
 40
0.9233573376
 40
0.9564412427
 40
0.9803046387
 40
0.9887294184
 40
0.994799727
 40
0.9985188133
 40
1.0
 40
1.0
 40
1.0
 40
1.0
 10
73.7226042683
 20
112.9483378383
 30
0.0
 10
73.727133916
 20
113.0001088195
 30
0.0
 10
73.7362002758
 20
113.1017420048
 30
0.0
 10
73.7498729913
 20
113.2492290742
 30
0.0
 10
73.763012708
 20
113.3851342329
 30
0.0
 10
73.7735185728
 20
113.4886516456
 30
0.0
 10
73.7813225537
 20
113.5617913497
 30
0.0
 10
73.7864619962
 20
113.6081270848
 30
0.0
 10
73.7911136639
 20
113.6480857257
 30
0.0
 10
73.7952282463
 20
113.6813216103
 30
0.0
 10
73.7987550999
 20
113.7074220413
 30
0.0
 10
73.8014033909
 20
113.7247644929
 30
0.0
 10
73.8032495393
 20
113.7346903008
 30
0.0
 10
73.8043421356
 20
113.7396620749
 30
0.0
 10
73.8051210023
 20
113.7421332658
 30
0.0
 10
73.8058206803
 20
113.7438686157
 30
0.0
 10
73.8062143055
 20
113.743834178
 30
0.0
  0
SPLINE
  5
62E
100
AcDbEntity
  8
ON_OFF_TASTOTARGHETTA
100
AcDbSpline
 62
250
  6
CONTINUOUS
 70
0
 71
3
 72
9
 73
5
 74
0
 42
0.0000001
 43
0.0000001
 44
0.0000000001
 40
0.0
 40
0.0
 40
0.0
 40
0.0
 40
0.5
 40
1.0
 40
1.0
 40
1.0
 40
1.0
 10
72.9719975139
 20
112.3712303506
 30
0.0
 10
71.8092588476
 20
105.7020808806
 30
0.0
 10
69.9360534059
 20
92.2809663899
 30
0.0
 10
68.9779181002
 20
78.7636741377
 30
0.0
 10
68.7286541012
 20
71.9985146177
 30
0.0
  0
SPLINE
  5
62F
100
AcDbEntity
  8
ON_OFF_TASTOTARGHETTA
100
AcDbSpline
 62
250
  6
CONTINUOUS
 70
0
 71
3
 72
21
 73
17
 74
0
 42
0.0000001
 43
0.0000001
 44
0.0000000001
 40
0.0
 40
0.0
 40
0.0
 40
0.0
 40
0.1948110238
 40
0.382496065
 40
0.5552418148
 40
0.7066424538
 40
0.7725321733
 40
0.8309736693
 40
0.8813936503
 40
0.9233573491
 40
0.9564412515
 40
0.9803046451
 40
0.9887294234
 40
0.9947997306
 40
0.9985188154
 40
1.0
 40
1.0
 40
1.0
 40
1.0
 10
69.3428709035
 20
71.2779583937
 30
0.0
 10
69.3365377786
 20
71.2263769635
 30
0.0
 10
69.3242752945
 20
71.125079698
 30
0.0
 10
69.306984948
 20
70.9779728496
 30
0.0
 10
69.2915812628
 20
70.8423056398
 30
0.0
 10
69.2803350702
 20
70.7388660401
 30
0.0
 10
69.2727619156
 20
70.665702078
 30
0.0
 10
69.268155307
 20
70.6193103423
 30
0.0
 10
69.2643974543
 20
70.5792577604
 30
0.0
 10
69.261511992
 20
70.545892693
 30
0.0
 10
69.2595351879
 20
70.5196293481
 30
0.0
 10
69.2585199054
 20
70.5021152617
 30
0.0
 10
69.258262017
 20
70.4920225227
 30
0.0
 10
69.2582970445
 20
70.4869322305
 30
0.0
 10
69.2585451011
 20
70.4843531082
 30
0.0
 10
69.2588686861
 20
70.4825102079
 30
0.0
 10
69.2592608691
 20
70.4824620538
 30
0.0
  0
SPLINE
  5
630
100
AcDbEntity
  8
ON_OFF_SUPPORTO_PERNO
100
AcDbSpline
 62
250
  6
CONTINUOUS
 70
0
 71
3
 72
18
 73
14
 74
0
 42
0.0000001
 43
0.0000001
 44
0.0000000001
 40
0.0
 40
0.0
 40
0.0
 40
0.0
 40
0.1946620535
 40
0.3826326864
 40
0.5555642902
 40
0.7070121477
 40
0.8312808183
 40
0.8817678589
 40
0.923768866
 40
0.9568034076
 40
0.9806318383
 40
0.9950781971
 40
1.0
 40
1.0
 40
1.0
 40
1.0
 10
75.868044145
 20
75.5667355676
 30
0.0
 10
75.866178242
 20
75.5473575597
 30
0.0
 10
75.8624780211
 20
75.5092704924
 30
0.0
 10
75.85700961
 20
75.4539809455
 30
0.0
 10
75.8518684284
 20
75.4029967634
 30
0.0
 10
75.8472507245
 20
75.358378849
 30
0.0
 10
75.843812223
 20
75.3259084299
 30
0.0
 10
75.8413995612
 20
75.3044122915
 30
0.0
 10
75.8400311748
 20
75.2918331059
 30
0.0
 10
75.8386971638
 20
75.2822982491
 30
0.0
 10
75.8381384214
 20
75.2745793839
 30
0.0
 10
75.8368777154
 20
75.2714533079
 30
0.0
 10
75.8371767504
 20
75.2683431826
 30
0.0
 10
75.8366868
 20
75.2683903595
 30
0.0
  0
SPLINE
  5
631
100
AcDbEntity
  8
ON_OFF_CORPO
100
AcDbSpline
 62
250
  6
CONTINUOUS
 70
0
 71
3
 72
15
 73
11
 74
0
 42
0.0000001
 43
0.0000001
 44
0.0000000001
 40
0.0
 40
0.0
 40
0.0
 40
0.0
 40
0.1234454116
 40
0.2482445542
 40
0.373909527
 40
0.4999999969
 40
0.6260904734
 40
0.7517554533
 40
0.8765545958
 40
1.0
 40
1.0
 40
1.0
 40
1.0
 10
104.3059722458
 20
105.3959144191
 30
0.0
 10
104.3059727258
 20
105.274488384
 30
0.0
 10
104.2975266324
 20
105.0303350512
 30
0.0
 10
104.2755118858
 20
104.6632278361
 30
0.0
 10
104.2555063171
 20
104.2933490393
 30
0.0
 10
104.2473522488
 20
103.9216694106
 30
0.0
 10
104.2555063323
 20
103.5499897757
 30
0.0
 10
104.2755118775
 20
103.1801109643
 30
0.0
 10
104.2975266346
 20
102.8130037501
 30
0.0
 10
104.3059727269
 20
102.5688504245
 30
0.0
 10
104.3059722458
 20
102.4474243967
 30
0.0
  0
SPLINE
  5
632
100
AcDbEntity
  8
ON_OFF_CORPO
100
AcDbSpline
 62
250
  6
CONTINUOUS
 70
0
 71
3
 72
15
 73
11
 74
0
 42
0.0000001
 43
0.0000001
 44
0.0000000001
 40
0.0
 40
0.0
 40
0.0
 40
0.0
 40
0.0760080316
 40
0.1617764474
 40
0.2632717222
 40
0.3824777635
 40
0.5186824087
 40
0.6694699545
 40
0.8313091095
 40
1.0
 40
1.0
 40
1.0
 40
1.0
 10
104.3059722458
 20
102.4474243967
 30
0.0
 10
104.3059722458
 20
102.4556592847
 30
0.0
 10
104.3100074847
 20
102.4733218843
 30
0.0
 10
104.3265403516
 20
102.4971366556
 30
0.0
 10
104.3521633335
 20
102.5186704188
 30
0.0
 10
104.3860513293
 20
102.5376349537
 30
0.0
 10
104.4271909665
 20
102.553576304
 30
0.0
 10
104.4742940489
 20
102.5659940562
 30
0.0
 10
104.5258136611
 20
102.5744748387
 30
0.0
 10
104.5615624895
 20
102.5772756641
 30
0.0
 10
104.579825523
 20
102.5779736289
 30
0.0
  0
SPLINE
  5
633
100
AcDbEntity
  8
ON_OFF_CORPO
100
AcDbSpline
 62
250
  6
CONTINUOUS
 70
0
 71
3
 72
23
 73
19
 74
0
 42
0.0000001
 43
0.0000001
 44
0.0000000001
 40
0.0
 40
0.0
 40
0.0
 40
0.0
 40
0.1949811686
 40
0.3824479836
 40
0.5552274855
 40
0.6340010701
 40
0.706672927
 40
0.7725401232
 40
0.8309728534
 40
0.8814090734
 40
0.9233633194
 40
0.956439698
 40
0.9695455224
 40
0.9803244605
 40
0.9887524256
 40
0.9948146428
 40
0.9985224936
 40
1.0
 40
1.0
 40
1.0
 40
1.0
 10
95.0972460426
 20
82.2802903154
 30
0.0
 10
95.0969057305
 20
82.2997927224
 30
0.0
 10
95.0963026537
 20
82.3380470966
 30
0.0
 10
95.0956217281
 20
82.3935864522
 30
0.0
 10
95.0952547538
 20
82.4375034102
 30
0.0
 10
95.0951052875
 20
82.4699376743
 30
0.0
 10
95.0950668129
 20
82.491677006
 30
0.0
 10
95.0950983611
 20
82.5113816124
 30
0.0
 10
95.0951992251
 20
82.5288612712
 30
0.0
 10
95.0953671953
 20
82.5439490639
 30
0.0
 10
95.0956002659
 20
82.5564964441
 30
0.0
 10
95.0958581142
 20
82.5653144266
 30
0.0
 10
95.0961107336
 20
82.5710003374
 30
0.0
 10
95.0963001686
 20
82.5742419129
 30
0.0
 10
95.0964971615
 20
82.576724556
 30
0.0
 10
95.0967104663
 20
82.5786198099
 30
0.0
 10
95.0969031866
 20
82.5795712526
 30
0.0
 10
95.0970982595
 20
82.5802420444
 30
0.0
 10
95.0972460426
 20
82.5802446239
 30
0.0
  0
SPLINE
  5
634
100
AcDbEntity
  8
ON_OFF_CORPO
100
AcDbSpline
 62
250
  6
CONTINUOUS
 70
0
 71
3
 72
19
 73
15
 74
0
 42
0.0000001
 43
0.0000001
 44
0.0000000001
 40
0.0
 40
0.0
 40
0.0
 40
0.0
 40
0.058969317
 40
0.1192900808
 40
0.2433475263
 40
0.3707714041
 40
0.4352689198
 40
0.4999999867
 40
0.5647310577
 40
0.6292285975
 40
0.7566525004
 40
0.8807099476
 40
0.9410307023
 40
1.0
 40
1.0
 40
1.0
 40
1.0
 10
104.579825523
 20
91.4653651869
 30
0.0
 10
104.5798275168
 20
91.4123238237
 30
0.0
 10
104.5758253871
 20
91.3050173779
 30
0.0
 10
104.5568644322
 20
91.0869057986
 30
0.0
 10
104.5204025109
 20
90.8088011054
 30
0.0
 10
104.4865210435
 20
90.5265311159
 30
0.0
 10
104.4708171972
 20
90.2961445391
 30
0.0
 10
104.4666316973
 20
90.1216694405
 30
0.0
 10
104.470817228
 20
89.9471943216
 30
0.0
 10
104.4865210607
 20
89.7168076963
 30
0.0
 10
104.5204024991
 20
89.4345376568
 30
0.0
 10
104.5568644528
 20
89.1564329519
 30
0.0
 10
104.5758253971
 20
88.938321395
 30
0.0
 10
104.579827508
 20
88.8310149748
 30
0.0
 10
104.579825523
 20
88.7779736289
 30
0.0
  0
SPLINE
  5
635
100
AcDbEntity
  8
ON_OFF_CORPO
100
AcDbSpline
 62
250
  6
CONTINUOUS
 70
0
 71
3
 72
15
 73
11
 74
0
 42
0.0000001
 43
0.0000001
 44
0.0000000001
 40
0.0
 40
0.0
 40
0.0
 40
0.0
 40
0.0760077154
 40
0.1617759532
 40
0.2632711778
 40
0.3824772614
 40
0.5186820079
 40
0.6694696862
 40
0.8313089814
 40
1.0
 40
1.0
 40
1.0
 40
1.0
 10
104.3059722458
 20
91.5959144191
 30
0.0
 10
104.3059722458
 20
91.5876795702
 30
0.0
 10
104.3100074968
 20
91.5700170366
 30
0.0
 10
104.326540369
 20
91.5462023641
 30
0.0
 10
104.3521633459
 20
91.5246686611
 30
0.0
 10
104.3860513367
 20
91.5057041467
 30
0.0
 10
104.4271909697
 20
91.4897627783
 30
0.0
 10
104.4742940488
 20
91.4773449717
 30
0.0
 10
104.5258136584
 20
91.4688641003
 30
0.0
 10
104.5615624881
 20
91.4660631965
 30
0.0
 10
104.579825523
 20
91.4653651869
 30
0.0
  0
SPLINE
  5
636
100
AcDbEntity
  8
ON_OFF_CORPO
100
AcDbSpline
 62
250
  6
CONTINUOUS
 70
0
 71
3
 72
15
 73
11
 74
0
 42
0.0000001
 43
0.0000001
 44
0.0000000001
 40
0.0
 40
0.0
 40
0.0
 40
0.0
 40
0.1234454116
 40
0.2482445542
 40
0.373909527
 40
0.4999999969
 40
0.6260904734
 40
0.7517554533
 40
0.8765545958
 40
1.0
 40
1.0
 40
1.0
 40
1.0
 10
104.3059722458
 20
91.5959144191
 30
0.0
 10
104.3059727258
 20
91.474488384
 30
0.0
 10
104.2975266324
 20
91.2303350512
 30
0.0
 10
104.2755118858
 20
90.8632278361
 30
0.0
 10
104.2555063171
 20
90.4933490393
 30
0.0
 10
104.2473522488
 20
90.1216694106
 30
0.0
 10
104.2555063323
 20
89.7499897757
 30
0.0
 10
104.2755118775
 20
89.3801109643
 30
0.0
 10
104.2975266346
 20
89.0130037501
 30
0.0
 10
104.3059727269
 20
88.7688504245
 30
0.0
 10
104.3059722458
 20
88.6474243967
 30
0.0
  0
SPLINE
  5
637
100
AcDbEntity
  8
ON_OFF_CORPO
100
AcDbSpline
 62
250
  6
CONTINUOUS
 70
0
 71
3
 72
15
 73
11
 74
0
 42
0.0000001
 43
0.0000001
 44
0.0000000001
 40
0.0
 40
0.0
 40
0.0
 40
0.0
 40
0.0760080316
 40
0.1617764474
 40
0.2632717222
 40
0.3824777635
 40
0.5186824087
 40
0.6694699545
 40
0.8313091095
 40
1.0
 40
1.0
 40
1.0
 40
1.0
 10
104.3059722458
 20
88.6474243967
 30
0.0
 10
104.3059722458
 20
88.6556592847
 30
0.0
 10
104.3100074847
 20
88.6733218843
 30
0.0
 10
104.3265403516
 20
88.6971366556
 30
0.0
 10
104.3521633335
 20
88.7186704188
 30
0.0
 10
104.3860513293
 20
88.7376349537
 30
0.0
 10
104.4271909665
 20
88.753576304
 30
0.0
 10
104.4742940489
 20
88.7659940562
 30
0.0
 10
104.5258136611
 20
88.7744748387
 30
0.0
 10
104.5615624895
 20
88.7772756641
 30
0.0
 10
104.579825523
 20
88.7779736289
 30
0.0
  0
SPLINE
  5
638
100
AcDbEntity
  8
ON_OFF_CORPO
100
AcDbSpline
 62
250
  6
CONTINUOUS
 70
0
 71
3
 72
23
 73
19
 74
0
 42
0.0000001
 43
0.0000001
 44
0.0000000001
 40
0.0
 40
0.0
 40
0.0
 40
0.0
 40
0.0014777521
 40
0.00518612
 40
0.0112479923
 40
0.0196749547
 40
0.0304549953
 40
0.0435615908
 40
0.0766362817
 40
0.1185914049
 40
0.1690279027
 40
0.227458852
 40
0.2933288572
 40
0.3659977211
 40
0.444772794
 40
0.617552583
 40
0.8050194673
 40
1.0
 40
1.0
 40
1.0
 40
1.0
 10
103.8146984491
 20
87.1609304941
 30
0.0
 10
103.8147969875
 20
87.1609287741
 30
0.0
 10
103.814926929
 20
87.1604814245
 30
0.0
 10
103.8150554652
 20
87.159847173
 30
0.0
 10
103.8151976589
 20
87.1585837005
 30
0.0
 10
103.8153290628
 20
87.1569286383
 30
0.0
 10
103.8154553237
 20
87.154767522
 30
0.0
 10
103.815623738
 20
87.1509769062
 30
0.0
 10
103.8157956387
 20
87.1450982529
 30
0.0
 10
103.8159510028
 20
87.1367333702
 30
0.0
 10
103.8160629849
 20
87.1266748849
 30
0.0
 10
103.8161302584
 20
87.115021694
 30
0.0
 10
103.8161512383
 20
87.1018854228
 30
0.0
 10
103.8161256392
 20
87.0873924503
 30
0.0
 10
103.8160259548
 20
87.0657696924
 30
0.0
 10
103.8157813317
 20
87.036491602
 30
0.0
 10
103.8153273733
 20
86.9994653895
 30
0.0
 10
103.814925323
 20
86.9739625153
 30
0.0
 10
103.814698449
 20
86.9609609551
 30
0.0
  0
SPLINE
  5
639
100
AcDbEntity
  8
ON_OFF_CORPO
100
AcDbSpline
 62
250
  6
CONTINUOUS
 70
0
 71
3
 72
23
 73
19
 74
0
 42
0.0000001
 43
0.0000001
 44
0.0000000001
 40
0.0
 40
0.0
 40
0.0
 40
0.0
 40
0.0014777521
 40
0.00518612
 40
0.0112479923
 40
0.0196749547
 40
0.0304549955
 40
0.0435615911
 40
0.0766362821
 40
0.1185914057
 40
0.1690279036
 40
0.2274588531
 40
0.2933288584
 40
0.3659977224
 40
0.4447727953
 40
0.6175525841
 40
0.8050194679
 40
1.0
 40
1.0
 40
1.0
 40
1.0
 10
95.0972460426
 20
87.3130941919
 30
0.0
 10
95.0973445811
 20
87.3130924719
 30
0.0
 10
95.0974745225
 20
87.3126451222
 30
0.0
 10
95.0976030587
 20
87.3120108708
 30
0.0
 10
95.0977452524
 20
87.3107473982
 30
0.0
 10
95.0978766563
 20
87.309092336
 30
0.0
 10
95.0980029171
 20
87.3069312197
 30
0.0
 10
95.0981713315
 20
87.3031406038
 30
0.0
 10
95.0983432321
 20
87.2972619506
 30
0.0
 10
95.0984985962
 20
87.2888970678
 30
0.0
 10
95.0986105784
 20
87.2788385825
 30
0.0
 10
95.0986778518
 20
87.2671853915
 30
0.0
 10
95.0986988318
 20
87.2540491203
 30
0.0
 10
95.0986732326
 20
87.2395561478
 30
0.0
 10
95.0985735483
 20
87.2179333899
 30
0.0
 10
95.0983289251
 20
87.1886552995
 30
0.0
 10
95.0978749668
 20
87.1516290872
 30
0.0
 10
95.0974729166
 20
87.126126213
 30
0.0
 10
95.0972460426
 20
87.1131246528
 30
0.0
  0
SPLINE
  5
63A
100
AcDbEntity
  8
ON_OFF_CORPO
100
AcDbSpline
 62
250
  6
CONTINUOUS
 70
0
 71
3
 72
23
 73
19
 74
0
 42
0.0000001
 43
0.0000001
 44
0.0000000001
 40
0.0
 40
0.0
 40
0.0
 40
0.0
 40
0.0014777521
 40
0.0051861199
 40
0.0112479923
 40
0.0196749547
 40
0.0304549953
 40
0.0435615908
 40
0.0766362817
 40
0.118591405
 40
0.1690279028
 40
0.2274588521
 40
0.2933288573
 40
0.3659977211
 40
0.444772794
 40
0.6175525829
 40
0.8050194671
 40
1.0
 40
1.0
 40
1.0
 40
1.0
 10
95.0972460426
 20
106.4302446239
 30
0.0
 10
95.0973445811
 20
106.4302463439
 30
0.0
 10
95.0974745225
 20
106.4306936936
 30
0.0
 10
95.0976030587
 20
106.431327945
 30
0.0
 10
95.0977452524
 20
106.4325914176
 30
0.0
 10
95.0978766563
 20
106.4342464798
 30
0.0
 10
95.0980029172
 20
106.436407596
 30
0.0
 10
95.0981713315
 20
106.4401982119
 30
0.0
 10
95.0983432321
 20
106.4460768651
 30
0.0
 10
95.0984985962
 20
106.4544417479
 30
0.0
 10
95.0986105784
 20
106.4645002332
 30
0.0
 10
95.0986778518
 20
106.4761534241
 30
0.0
 10
95.0986988318
 20
106.4892896953
 30
0.0
 10
95.0986732326
 20
106.5037826677
 30
0.0
 10
95.0985735483
 20
106.5254054256
 30
0.0
 10
95.0983289251
 20
106.554683516
 30
0.0
 10
95.0978749668
 20
106.5917097285
 30
0.0
 10
95.0974729166
 20
106.6172126027
 30
0.0
 10
95.0972460426
 20
106.6302141629
 30
0.0
  0
SPLINE
  5
63B
100
AcDbEntity
  8
ON_OFF_CORPO
100
AcDbSpline
 62
250
  6
CONTINUOUS
 70
0
 71
3
 72
23
 73
19
 74
0
 42
0.0000001
 43
0.0000001
 44
0.0000000001
 40
0.0
 40
0.0
 40
0.0
 40
0.0
 40
0.0014777521
 40
0.0051861199
 40
0.0112479923
 40
0.0196749547
 40
0.0304549954
 40
0.0435615911
 40
0.0766362821
 40
0.1185914056
 40
0.1690279036
 40
0.2274588531
 40
0.2933288584
 40
0.3659977224
 40
0.4447727953
 40
0.6175525841
 40
0.8050194679
 40
1.0
 40
1.0
 40
1.0
 40
1.0
 10
103.8146984491
 20
106.5824083217
 30
0.0
 10
103.8147969875
 20
106.5824100417
 30
0.0
 10
103.814926929
 20
106.5828573913
 30
0.0
 10
103.8150554651
 20
106.5834916428
 30
0.0
 10
103.8151976588
 20
106.5847551153
 30
0.0
 10
103.8153290627
 20
106.5864101776
 30
0.0
 10
103.8154553236
 20
106.5885712938
 30
0.0
 10
103.8156237379
 20
106.5923619097
 30
0.0
 10
103.8157956385
 20
106.598240563
 30
0.0
 10
103.8159510027
 20
106.6066054458
 30
0.0
 10
103.8160629848
 20
106.6166639311
 30
0.0
 10
103.8161302583
 20
106.628317122
 30
0.0
 10
103.8161512382
 20
106.6414533933
 30
0.0
 10
103.8161256391
 20
106.6559463657
 30
0.0
 10
103.8160259547
 20
106.6775691237
 30
0.0
 10
103.8157813316
 20
106.706847214
 30
0.0
 10
103.8153273732
 20
106.7438734264
 30
0.0
 10
103.814925323
 20
106.7693763006
 30
0.0
 10
103.8146984491
 20
106.7823778607
 30
0.0
  0
SPLINE
  5
63C
100
AcDbEntity
  8
ON_OFF_CORPO
100
AcDbSpline
 62
250
  6
CONTINUOUS
 70
0
 71
3
 72
9
 73
5
 74
0
 42
0.0000001
 43
0.0000001
 44
0.0000000001
 40
0.0
 40
0.0
 40
0.0
 40
0.0
 40
0.5411928502
 40
1.0
 40
1.0
 40
1.0
 40
1.0
 10
103.8146984491
 20
109.3378576856
 30
0.0
 10
103.8151594384
 20
109.5929393018
 30
0.0
 10
103.8156243534
 20
110.0642722015
 30
0.0
 10
103.8152511255
 20
110.5356056266
 30
0.0
 10
103.8146984491
 20
110.7518558564
 30
0.0
  0
SPLINE
  5
63D
100
AcDbEntity
  8
ON_OFF_CORPO
100
AcDbSpline
 62
250
  6
CONTINUOUS
 70
0
 71
3
 72
14
 73
10
 74
0
 42
0.0000001
 43
0.0000001
 44
0.0000000001
 40
0.0
 40
0.0
 40
0.0
 40
0.0
 40
0.2869019454
 40
0.4239245752
 40
0.5537900881
 40
0.6755115687
 40
0.789235819
 40
0.8964558531
 40
1.0
 40
1.0
 40
1.0
 40
1.0
 10
103.8146984491
 20
110.7518558564
 30
0.0
 10
103.8782968196
 20
110.7510708875
 30
0.0
 10
103.9729388927
 20
110.7372632888
 30
0.0
 10
104.0878575262
 20
110.6930328511
 30
0.0
 10
104.1626042785
 20
110.64931104
 30
0.0
 10
104.2242941331
 20
110.5960586911
 30
0.0
 10
104.2705696157
 20
110.5349926418
 30
0.0
 10
104.2993912179
 20
110.4682686293
 30
0.0
 10
104.3059722458
 20
110.4213109876
 30
0.0
 10
104.3059722458
 20
110.3983563137
 30
0.0
  0
SPLINE
  5
63E
100
AcDbEntity
  8
ON_OFF_CORPO
100
AcDbSpline
 62
250
  6
CONTINUOUS
 70
0
 71
3
 72
14
 73
10
 74
0
 42
0.0000001
 43
0.0000001
 44
0.0000000001
 40
0.0
 40
0.0
 40
0.0
 40
0.0
 40
0.2869019453
 40
0.423924575
 40
0.5537900878
 40
0.6755115683
 40
0.7892358187
 40
0.8964558529
 40
1.0
 40
1.0
 40
1.0
 40
1.0
 10
103.8146984491
 20
110.9389144039
 30
0.0
 10
103.8782968196
 20
110.9381294351
 30
0.0
 10
103.9729388928
 20
110.9243218366
 30
0.0
 10
104.0878575263
 20
110.880091399
 30
0.0
 10
104.1626042786
 20
110.8363695879
 30
0.0
 10
104.2242941331
 20
110.783117239
 30
0.0
 10
104.2705696157
 20
110.7220511896
 30
0.0
 10
104.2993912179
 20
110.6553271769
 30
0.0
 10
104.3059722458
 20
110.6083695351
 30
0.0
 10
104.3059722458
 20
110.5854148612
 30
0.0
  0
SPLINE
  5
63F
100
AcDbEntity
  8
ON_OFF_CORPO
100
AcDbSpline
 62
250
  6
CONTINUOUS
 70
0
 71
3
 72
26
 73
22
 74
0
 42
0.0000001
 43
0.0000001
 44
0.0000000001
 40
0.0
 40
0.0
 40
0.0
 40
0.0
 40
0.22496967
 40
0.4245416946
 40
0.5967667249
 40
0.6721053277
 40
0.7400068743
 40
0.8003130813
 40
0.8528748553
 40
0.8975701063
 40
0.9342884913
 40
0.9496279795
 40
0.9629429355
 40
0.9742250279
 40
0.983466219
 40
0.9906617693
 40
0.9958100922
 40
0.9976166669
 40
0.9989123323
 40
0.9997000483
 40
1.0
 40
1.0
 40
1.0
 40
1.0
 10
103.8146984491
 20
110.9389144039
 30
0.0
 10
103.814810746
 20
110.9608767574
 30
0.0
 10
103.8150087938
 20
111.0023221281
 30
0.0
 10
103.8152369063
 20
111.0605809783
 30
0.0
 10
103.8153593925
 20
111.1042323938
 30
0.0
 10
103.8154083593
 20
111.1350296135
 30
0.0
 10
103.8154208698
 20
111.1549008061
 30
0.0
 10
103.815411015
 20
111.1725484118
 30
0.0
 10
103.815378983
 20
111.1879304895
 30
0.0
 10
103.8153249868
 20
111.2010096988
 30
0.0
 10
103.8152592461
 20
111.2104550668
 30
0.0
 10
103.8151922071
 20
111.2168366423
 30
0.0
 10
103.8151397158
 20
111.2207353184
 30
0.0
 10
103.8150819412
 20
111.2240376301
 30
0.0
 10
103.8150198231
 20
111.2267447825
 30
0.0
 10
103.8149521725
 20
111.2288463683
 30
0.0
 10
103.8148904485
 20
111.230236044
 30
0.0
 10
103.8148313952
 20
111.2310266801
 30
0.0
 10
103.8147953355
 20
111.23142581
 30
0.0
 10
103.8147550701
 20
111.23161736
 30
0.0
 10
103.8147277256
 20
111.2317624129
 30
0.0
 10
103.8146984491
 20
111.2317630136
 30
0.0
  0
SPLINE
  5
640
100
AcDbEntity
  8
ON_OFF_CORPO
100
AcDbSpline
 62
250
  6
CONTINUOUS
 70
0
 71
3
 72
29
 73
25
 74
0
 42
0.0000001
 43
0.0000001
 44
0.0000000001
 40
0.0
 40
0.0
 40
0.0
 40
0.0
 40
0.1950532097
 40
0.382605544
 40
0.4712997385
 40
0.555455674
 40
0.634262748
 40
0.7069623005
 40
0.7728544015
 40
0.8313049019
 40
0.8817514856
 40
0.9038189357
 40
0.9237091696
 40
0.9413758023
 40
0.9567750799
 40
0.9698714856
 40
0.9806331903
 40
0.989035454
 40
0.9923460852
 40
0.9950603305
 40
0.99717752
 40
0.99869875
 40
0.9996287927
 40
1.0
 40
1.0
 40
1.0
 40
1.0
 10
103.8146984491
 20
73.4114234973
 30
0.0
 10
103.815265676
 20
73.3464079253
 30
0.0
 10
103.8162706041
 20
73.2188760258
 30
0.0
 10
103.8172341863
 20
73.0617782222
 30
0.0
 10
103.8177896031
 20
72.9416447592
 30
0.0
 10
103.8180855635
 20
72.8577591282
 30
0.0
 10
103.8182663634
 20
72.7792047521
 30
0.0
 10
103.8183304882
 20
72.706738165
 30
0.0
 10
103.8182779632
 20
72.6410571155
 30
0.0
 10
103.8181097682
 20
72.5827939719
 30
0.0
 10
103.817866911
 20
72.5391395121
 30
0.0
 10
103.8176052154
 20
72.5083390243
 30
0.0
 10
103.8173902572
 20
72.4884653198
 30
0.0
 10
103.8171488043
 20
72.4708147407
 30
0.0
 10
103.8168815794
 20
72.4554297113
 30
0.0
 10
103.8165903271
 20
72.4423464192
 30
0.0
 10
103.8162760311
 20
72.4315990615
 30
0.0
 10
103.8159803555
 20
72.4241092754
 30
0.0
 10
103.8157197699
 20
72.4193129006
 30
0.0
 10
103.8155345961
 20
72.4165930012
 30
0.0
 10
103.8153496574
 20
72.414514642
 30
0.0
 10
103.8151576157
 20
72.4129317044
 30
0.0
 10
103.8149883994
 20
72.4121361956
 30
0.0
 10
103.8148221639
 20
72.41157811
 30
0.0
 10
103.8146984491
 20
72.4115758021
 30
0.0
  0
SPLINE
  5
641
100
AcDbEntity
  8
ON_OFF_CORPO
100
AcDbSpline
 62
250
  6
CONTINUOUS
 70
0
 71
3
 72
22
 73
18
 74
0
 42
0.0000001
 43
0.0000001
 44
0.0000000001
 40
0.0
 40
0.0
 40
0.0
 40
0.0
 40
0.001821261
 40
0.0056335017
 40
0.0117327498
 40
0.0201649121
 40
0.0440149723
 40
0.0770320585
 40
0.1189246054
 40
0.1693023138
 40
0.2276863691
 40
0.2935170249
 40
0.3661604954
 40
0.4449158705
 40
0.6176655228
 40
0.8050988709
 40
1.0
 40
1.0
 40
1.0
 40
1.0
 10
103.8146984491
 20
82.7324083217
 30
0.0
 10
103.8148807704
 20
82.7324115459
 30
0.0
 10
103.8152882579
 20
82.7318519462
 30
0.0
 10
103.8155708038
 20
82.7307856197
 30
0.0
 10
103.8159529269
 20
82.7289492732
 30
0.0
 10
103.8164358266
 20
82.725156863
 30
0.0
 10
103.8169588185
 20
82.7186219354
 30
0.0
 10
103.8174409121
 20
82.7087524534
 30
0.0
 10
103.8178296496
 20
82.6962109969
 30
0.0
 10
103.8181097085
 20
82.6811304165
 30
0.0
 10
103.818277933
 20
82.6636500158
 30
0.0
 10
103.8183304782
 20
82.6439400667
 30
0.0
 10
103.8182663318
 20
82.6221903931
 30
0.0
 10
103.8180169679
 20
82.5897365951
 30
0.0
 10
103.8174051878
 20
82.5457926329
 30
0.0
 10
103.8162694122
 20
82.4902273386
 30
0.0
 10
103.8152662594
 20
82.4519598082
 30
0.0
 10
103.8146984491
 20
82.4324540131
 30
0.0
  0
SPLINE
  5
642
100
AcDbEntity
  8
ON_OFF_CORPO
100
AcDbSpline
 62
250
  6
CONTINUOUS
 70
0
 71
3
 72
29
 73
25
 74
0
 42
0.0000001
 43
0.0000001
 44
0.0000000001
 40
0.0
 40
0.0
 40
0.0
 40
0.0
 40
0.1950532132
 40
0.3826055502
 40
0.4712997459
 40
0.5554556825
 40
0.6342627575
 40
0.7069623111
 40
0.7728544129
 40
0.831304914
 40
0.8817514983
 40
0.9038189488
 40
0.9237091833
 40
0.941375816
 40
0.9567750926
 40
0.9698714986
 40
0.9806332071
 40
0.9890354731
 40
0.9923461017
 40
0.9950603406
 40
0.9971775223
 40
0.9986987481
 40
0.9996287935
 40
1.0
 40
1.0
 40
1.0
 40
1.0
 10
103.8146984491
 20
83.7322560168
 30
0.0
 10
103.8152657914
 20
83.6672404456
 30
0.0
 10
103.8162705288
 20
83.5397085442
 30
0.0
 10
103.8172341786
 20
83.3826107411
 30
0.0
 10
103.8177895932
 20
83.2624772782
 30
0.0
 10
103.8180855554
 20
83.1785916472
 30
0.0
 10
103.8182663588
 20
83.1000372712
 30
0.0
 10
103.818330488
 20
83.0275706842
 30
0.0
 10
103.8182779673
 20
82.9618896348
 30
0.0
 10
103.8181097764
 20
82.9036264914
 30
0.0
 10
103.8178669198
 20
82.8599720316
 30
0.0
 10
103.8176052258
 20
82.8291715437
 30
0.0
 10
103.8173902699
 20
82.8092978392
 30
0.0
 10
103.8171488177
 20
82.7916472604
 30
0.0
 10
103.8168815881
 20
82.7762622316
 30
0.0
 10
103.8165903313
 20
82.7631789387
 30
0.0
 10
103.8162760435
 20
82.7524315789
 30
0.0
 10
103.8159803818
 20
82.7449417911
 30
0.0
 10
103.8157197907
 20
82.7401454188
 30
0.0
 10
103.8155346074
 20
82.7374255258
 30
0.0
 10
103.8153496389
 20
82.7353471748
 30
0.0
 10
103.8151576021
 20
82.7337642415
 30
0.0
 10
103.8149883417
 20
82.7329687369
 30
0.0
 10
103.8148221633
 20
82.7324106456
 30
0.0
 10
103.8146984491
 20
82.7324083217
 30
0.0
  0
SPLINE
  5
643
100
AcDbEntity
  8
ON_OFF_CORPO
100
AcDbSpline
 62
250
  6
CONTINUOUS
 70
0
 71
3
 72
27
 73
23
 74
0
 42
0.0000001
 43
0.0000001
 44
0.0000000001
 40
0.0
 40
0.0
 40
0.0
 40
0.0
 40
0.1949682852
 40
0.3824329413
 40
0.4710856985
 40
0.5552022105
 40
0.6339729033
 40
0.7066401913
 40
0.7725054528
 40
0.8309355085
 40
0.8813689342
 40
0.9034323573
 40
0.9233223346
 40
0.9409909798
 40
0.956396043
 40
0.9695029694
 40
0.980280296
 40
0.9887073159
 40
0.9947705702
 40
0.9984777355
 40
0.9994768206
 40
1.0
 40
1.0
 40
1.0
 40
1.0
 10
94.9007365239
 20
83.5766622327
 30
0.0
 10
94.9018708747
 20
83.5116555202
 30
0.0
 10
94.9038807542
 20
83.3841401177
 30
0.0
 10
94.9058080143
 20
83.2270573102
 30
0.0
 10
94.9069188189
 20
83.1069341715
 30
0.0
 10
94.9075107583
 20
83.0230544636
 30
0.0
 10
94.9078723404
 20
82.9445042026
 30
0.0
 10
94.9080005854
 20
82.872039497
 30
0.0
 10
94.9078955434
 20
82.8063577619
 30
0.0
 10
94.9075591473
 20
82.7480912729
 30
0.0
 10
94.9070734721
 20
82.7044330862
 30
0.0
 10
94.9065499942
 20
82.6736289303
 30
0.0
 10
94.9061201906
 20
82.6537512361
 30
0.0
 10
94.9056370735
 20
82.6360955466
 30
0.0
 10
94.9051030003
 20
82.6207053549
 30
0.0
 10
94.904518996
 20
82.607614099
 30
0.0
 10
94.9038941525
 20
82.5968626533
 30
0.0
 10
94.9032206548
 20
82.5884474047
 30
0.0
 10
94.9025485514
 20
82.5824498036
 30
0.0
 10
94.9018665406
 20
82.5788545149
 30
0.0
 10
94.9013136039
 20
82.5772581368
 30
0.0
 10
94.9009109634
 20
82.5768175824
 30
0.0
 10
94.9007365239
 20
82.5768145375
 30
0.0
  0
SPLINE
  5
644
100
AcDbEntity
  8
ON_OFF_CORPO
100
AcDbSpline
 62
250
  6
CONTINUOUS
 70
0
 71
3
 72
15
 73
11
 74
0
 42
0.0000001
 43
0.0000001
 44
0.0000000001
 40
0.0
 40
0.0
 40
0.0
 40
0.0
 40
0.2868338788
 40
0.4238231262
 40
0.553657562
 40
0.6753497764
 40
0.7890465213
 40
0.896242732
 40
0.9483640566
 40
1.0
 40
1.0
 40
1.0
 40
1.0
 10
93.6234246523
 20
72.8177987797
 30
0.0
 10
93.7506217038
 20
72.8193687214
 30
0.0
 10
93.9399062082
 20
72.8469821151
 30
0.0
 10
94.1697430112
 20
72.9354466009
 30
0.0
 10
94.3192368729
 20
73.0228828124
 30
0.0
 10
94.4426154351
 20
73.1294104789
 30
0.0
 10
94.5351691579
 20
73.2514666397
 30
0.0
 10
94.5836752063
 20
73.3639920699
 30
0.0
 10
94.6027876653
 20
73.455817551
 30
0.0
 10
94.6059722458
 20
73.5018980597
 30
0.0
 10
94.6059722458
 20
73.5247978651
 30
0.0
  0
SPLINE
  5
645
100
AcDbEntity
  8
ON_OFF_CORPO
100
AcDbSpline
 62
250
  6
CONTINUOUS
 70
0
 71
3
 72
9
 73
5
 74
0
 42
0.0000001
 43
0.0000001
 44
0.0000000001
 40
0.0
 40
0.0
 40
0.0
 40
0.0
 40
0.4588109533
 40
1.0
 40
1.0
 40
1.0
 40
1.0
 10
93.6234246523
 20
72.8177987797
 30
0.0
 10
93.6245301408
 20
73.0340490203
 30
0.0
 10
93.6252763309
 20
73.5053845511
 30
0.0
 10
93.624346753
 20
73.976717979
 30
0.0
 10
93.6234246523
 20
74.2317969505
 30
0.0
  0
SPLINE
  5
646
100
AcDbEntity
  8
ON_OFF_CORPO
100
AcDbSpline
 62
250
  6
CONTINUOUS
 70
0
 71
3
 72
15
 73
11
 74
0
 42
0.0000001
 43
0.0000001
 44
0.0000000001
 40
0.0
 40
0.0
 40
0.0
 40
0.0
 40
0.2868338341
 40
0.4238230672
 40
0.5536576637
 40
0.6753497624
 40
0.7890464935
 40
0.8962433022
 40
0.9483629257
 40
1.0
 40
1.0
 40
1.0
 40
1.0
 10
93.6234246523
 20
72.5265350661
 30
0.0
 10
93.7506216889
 20
72.5281050076
 30
0.0
 10
93.9399062517
 20
72.5557183516
 30
0.0
 10
94.1697428751
 20
72.6441831895
 30
0.0
 10
94.3192373924
 20
72.7316184506
 30
0.0
 10
94.4426152192
 20
72.8381470173
 30
0.0
 10
94.5351693264
 20
72.9602031384
 30
0.0
 10
94.5836748198
 20
73.0727282091
 30
0.0
 10
94.6027881885
 20
73.1645535284
 30
0.0
 10
94.6059722458
 20
73.2106338436
 30
0.0
 10
94.6059722458
 20
73.2335341515
 30
0.0
  0
SPLINE
  5
647
100
AcDbEntity
  8
ON_OFF_CORPO
100
AcDbSpline
 62
250
  6
CONTINUOUS
 70
0
 71
3
 72
23
 73
19
 74
0
 42
0.0000001
 43
0.0000001
 44
0.0000000001
 40
0.0
 40
0.0
 40
0.0
 40
0.0
 40
0.0011933829
 40
0.0043357453
 40
0.0095069853
 40
0.0167174727
 40
0.0259687683
 40
0.0372575802
 40
0.065918357
 40
0.1026367276
 40
0.1473273347
 40
0.199880617
 40
0.260174951
 40
0.3280616266
 40
0.4033826653
 40
0.5755656317
 40
0.7750871995
 40
1.0
 40
1.0
 40
1.0
 40
1.0
 10
93.6234246523
 20
72.2336864563
 30
0.0
 10
93.6235411625
 20
72.23368849
 30
0.0
 10
93.6236469856
 20
72.234269691
 30
0.0
 10
93.6237998795
 20
72.2350332441
 30
0.0
 10
93.6239305933
 20
72.2366293583
 30
0.0
 10
93.6240678788
 20
72.2386997333
 30
0.0
 10
93.6241914764
 20
72.2414212796
 30
0.0
 10
93.6243593769
 20
72.2462157012
 30
0.0
 10
93.624527171
 20
72.2537048275
 30
0.0
 10
93.6246780356
 20
72.2644496117
 30
0.0
 10
93.624785585
 20
72.2775307026
 30
0.0
 10
93.6248498294
 20
72.2929131878
 30
0.0
 10
93.624869493
 20
72.3105610987
 30
0.0
 10
93.6248444828
 20
72.3304320511
 30
0.0
 10
93.6247465098
 20
72.3612282772
 30
0.0
 10
93.6245015586
 20
72.4048775043
 30
0.0
 10
93.6240453815
 20
72.463132514
 30
0.0
 10
93.6236491569
 20
72.5045745792
 30
0.0
 10
93.6234246523
 20
72.5265350661
 30
0.0
  0
SPLINE
  5
648
100
AcDbEntity
  8
ON_OFF_CORPO
100
AcDbSpline
 62
250
  6
CONTINUOUS
 70
0
 71
3
 72
27
 73
23
 74
0
 42
0.0000001
 43
0.0000001
 44
0.0000000001
 40
0.0
 40
0.0
 40
0.0
 40
0.0
 40
0.0005231794
 40
0.0015222645
 40
0.0052294298
 40
0.0112926842
 40
0.019719704
 40
0.0304970306
 40
0.0436039571
 40
0.0590090202
 40
0.0766776655
 40
0.0965676429
 40
0.1186310659
 40
0.1690644917
 40
0.2274945474
 40
0.2933598089
 40
0.366027097
 40
0.4447977897
 40
0.5289143018
 40
0.6175670589
 40
0.8050317149
 40
1.0
 40
1.0
 40
1.0
 40
1.0
 10
95.0972460426
 20
72.2594121044
 30
0.0
 10
95.0974204821
 20
72.2594151492
 30
0.0
 10
95.0978231226
 20
72.2598557036
 30
0.0
 10
95.0983760593
 20
72.2614520818
 30
0.0
 10
95.0990580701
 20
72.2650473705
 30
0.0
 10
95.0997301735
 20
72.2710449716
 30
0.0
 10
95.1004036713
 20
72.2794602202
 30
0.0
 10
95.1010285147
 20
72.2902116659
 30
0.0
 10
95.101612519
 20
72.3033029218
 30
0.0
 10
95.1021465922
 20
72.3186931136
 30
0.0
 10
95.1026297093
 20
72.3363488031
 30
0.0
 10
95.1030595129
 20
72.3562264973
 30
0.0
 10
95.1035829908
 20
72.3870306533
 30
0.0
 10
95.104068666
 20
72.43068884
 30
0.0
 10
95.1044050621
 20
72.488955329
 30
0.0
 10
95.1045101041
 20
72.5546370641
 30
0.0
 10
95.1043818591
 20
72.6271017697
 30
0.0
 10
95.104020277
 20
72.7056520307
 30
0.0
 10
95.1034283376
 20
72.7895317386
 30
0.0
 10
95.102317533
 20
72.9096548773
 30
0.0
 10
95.1003902729
 20
73.0667376847
 30
0.0
 10
95.0983803934
 20
73.1942530871
 30
0.0
 10
95.0972460426
 20
73.2592597995
 30
0.0
  0
SPLINE
  5
649
100
AcDbEntity
  8
ON_OFF_CORPO
100
AcDbSpline
 62
250
  6
CONTINUOUS
 70
0
 71
3
 72
19
 73
15
 74
0
 42
0.0000001
 43
0.0000001
 44
0.0000000001
 40
0.0
 40
0.0
 40
0.0
 40
0.0
 40
0.058969317
 40
0.1192900808
 40
0.2433475263
 40
0.3707714041
 40
0.4352689198
 40
0.4999999867
 40
0.5647310577
 40
0.6292285975
 40
0.7566525004
 40
0.8807099476
 40
0.9410307023
 40
1.0
 40
1.0
 40
1.0
 40
1.0
 10
104.579825523
 20
105.2653651869
 30
0.0
 10
104.5798275168
 20
105.2123238237
 30
0.0
 10
104.5758253871
 20
105.1050173779
 30
0.0
 10
104.5568644322
 20
104.8869057986
 30
0.0
 10
104.5204025109
 20
104.6088011054
 30
0.0
 10
104.4865210435
 20
104.3265311159
 30
0.0
 10
104.4708171972
 20
104.0961445391
 30
0.0
 10
104.4666316973
 20
103.9216694405
 30
0.0
 10
104.470817228
 20
103.7471943216
 30
0.0
 10
104.4865210607
 20
103.5168076963
 30
0.0
 10
104.5204024991
 20
103.2345376568
 30
0.0
 10
104.5568644528
 20
102.9564329519
 30
0.0
 10
104.5758253971
 20
102.738321395
 30
0.0
 10
104.579827508
 20
102.6310149748
 30
0.0
 10
104.579825523
 20
102.5779736289
 30
0.0
  0
SPLINE
  5
64A
100
AcDbEntity
  8
ON_OFF_CORPO
100
AcDbSpline
 62
250
  6
CONTINUOUS
 70
0
 71
3
 72
15
 73
11
 74
0
 42
0.0000001
 43
0.0000001
 44
0.0000000001
 40
0.0
 40
0.0
 40
0.0
 40
0.0
 40
0.0760077154
 40
0.1617759532
 40
0.2632711778
 40
0.3824772614
 40
0.5186820079
 40
0.6694696862
 40
0.8313089814
 40
1.0
 40
1.0
 40
1.0
 40
1.0
 10
104.3059722458
 20
105.3959144191
 30
0.0
 10
104.3059722458
 20
105.3876795702
 30
0.0
 10
104.3100074968
 20
105.3700170366
 30
0.0
 10
104.326540369
 20
105.3462023641
 30
0.0
 10
104.3521633459
 20
105.3246686611
 30
0.0
 10
104.3860513367
 20
105.3057041467
 30
0.0
 10
104.4271909697
 20
105.2897627783
 30
0.0
 10
104.4742940488
 20
105.2773449717
 30
0.0
 10
104.5258136584
 20
105.2688641003
 30
0.0
 10
104.5615624881
 20
105.2660631965
 30
0.0
 10
104.579825523
 20
105.2653651869
 30
0.0
  0
SPLINE
  5
64B
100
AcDbEntity
  8
ASSI
100
AcDbSpline
 62
250
  6
CONTINUOUS
 70
0
 71
3
 72
23
 73
19
 74
0
 42
0.0000001
 43
0.0000001
 44
0.0000000001
 40
0.0
 40
0.0
 40
0.0
 40
0.0
 40
0.1949811686
 40
0.3824479836
 40
0.5552274855
 40
0.6340010701
 40
0.706672927
 40
0.7725401232
 40
0.8309728534
 40
0.8814090734
 40
0.9233633194
 40
0.956439698
 40
0.9695455224
 40
0.9803244605
 40
0.9887524256
 40
0.9948146428
 40
0.9985224936
 40
1.0
 40
1.0
 40
1.0
 40
1.0
 10
95.0972460426
 20
82.2802903154
 30
0.0
 10
95.0969057305
 20
82.2997927224
 30
0.0
 10
95.0963026537
 20
82.3380470966
 30
0.0
 10
95.0956217281
 20
82.3935864522
 30
0.0
 10
95.0952547538
 20
82.4375034102
 30
0.0
 10
95.0951052875
 20
82.4699376743
 30
0.0
 10
95.0950668129
 20
82.491677006
 30
0.0
 10
95.0950983611
 20
82.5113816124
 30
0.0
 10
95.0951992251
 20
82.5288612712
 30
0.0
 10
95.0953671953
 20
82.5439490639
 30
0.0
 10
95.0956002659
 20
82.5564964441
 30
0.0
 10
95.0958581142
 20
82.5653144266
 30
0.0
 10
95.0961107336
 20
82.5710003374
 30
0.0
 10
95.0963001686
 20
82.5742419129
 30
0.0
 10
95.0964971615
 20
82.576724556
 30
0.0
 10
95.0967104663
 20
82.5786198099
 30
0.0
 10
95.0969031866
 20
82.5795712526
 30
0.0
 10
95.0970982595
 20
82.5802420444
 30
0.0
 10
95.0972460426
 20
82.5802446239
 30
0.0
  0
SPLINE
  5
64C
100
AcDbEntity
  8
ASSI
100
AcDbSpline
 62
250
  6
CONTINUOUS
 70
0
 71
3
 72
27
 73
23
 74
0
 42
0.0000001
 43
0.0000001
 44
0.0000000001
 40
0.0
 40
0.0
 40
0.0
 40
0.0
 40
0.0005231794
 40
0.0015222645
 40
0.0052294298
 40
0.0112926842
 40
0.019719704
 40
0.0304970306
 40
0.0436039571
 40
0.0590090202
 40
0.0766776655
 40
0.0965676429
 40
0.1186310659
 40
0.1690644917
 40
0.2274945474
 40
0.2933598089
 40
0.366027097
 40
0.4447977897
 40
0.5289143018
 40
0.6175670589
 40
0.8050317149
 40
1.0
 40
1.0
 40
1.0
 40
1.0
 10
95.0972460426
 20
72.2594121044
 30
0.0
 10
95.0974204821
 20
72.2594151492
 30
0.0
 10
95.0978231226
 20
72.2598557036
 30
0.0
 10
95.0983760593
 20
72.2614520818
 30
0.0
 10
95.0990580701
 20
72.2650473705
 30
0.0
 10
95.0997301735
 20
72.2710449716
 30
0.0
 10
95.1004036713
 20
72.2794602202
 30
0.0
 10
95.1010285147
 20
72.2902116659
 30
0.0
 10
95.101612519
 20
72.3033029218
 30
0.0
 10
95.1021465922
 20
72.3186931136
 30
0.0
 10
95.1026297093
 20
72.3363488031
 30
0.0
 10
95.1030595129
 20
72.3562264973
 30
0.0
 10
95.1035829908
 20
72.3870306533
 30
0.0
 10
95.104068666
 20
72.43068884
 30
0.0
 10
95.1044050621
 20
72.488955329
 30
0.0
 10
95.1045101041
 20
72.5546370641
 30
0.0
 10
95.1043818591
 20
72.6271017697
 30
0.0
 10
95.104020277
 20
72.7056520307
 30
0.0
 10
95.1034283376
 20
72.7895317386
 30
0.0
 10
95.102317533
 20
72.9096548773
 30
0.0
 10
95.1003902729
 20
73.0667376847
 30
0.0
 10
95.0983803934
 20
73.1942530871
 30
0.0
 10
95.0972460426
 20
73.2592597995
 30
0.0
  0
SPLINE
  5
64D
100
AcDbEntity
  8
ASSI
100
AcDbSpline
 62
250
  6
CONTINUOUS
 70
0
 71
3
 72
23
 73
19
 74
0
 42
0.0000001
 43
0.0000001
 44
0.0000000001
 40
0.0
 40
0.0
 40
0.0
 40
0.0
 40
0.0011933829
 40
0.0043357453
 40
0.0095069853
 40
0.0167174727
 40
0.0259687683
 40
0.0372575802
 40
0.065918357
 40
0.1026367276
 40
0.1473273347
 40
0.199880617
 40
0.260174951
 40
0.3280616266
 40
0.4033826653
 40
0.5755656317
 40
0.7750871995
 40
1.0
 40
1.0
 40
1.0
 40
1.0
 10
93.6234246523
 20
72.2336864563
 30
0.0
 10
93.6235411625
 20
72.23368849
 30
0.0
 10
93.6236469856
 20
72.234269691
 30
0.0
 10
93.6237998795
 20
72.2350332441
 30
0.0
 10
93.6239305933
 20
72.2366293583
 30
0.0
 10
93.6240678788
 20
72.2386997333
 30
0.0
 10
93.6241914764
 20
72.2414212796
 30
0.0
 10
93.6243593769
 20
72.2462157012
 30
0.0
 10
93.624527171
 20
72.2537048275
 30
0.0
 10
93.6246780356
 20
72.2644496117
 30
0.0
 10
93.624785585
 20
72.2775307026
 30
0.0
 10
93.6248498294
 20
72.2929131878
 30
0.0
 10
93.624869493
 20
72.3105610987
 30
0.0
 10
93.6248444828
 20
72.3304320511
 30
0.0
 10
93.6247465098
 20
72.3612282772
 30
0.0
 10
93.6245015586
 20
72.4048775043
 30
0.0
 10
93.6240453815
 20
72.463132514
 30
0.0
 10
93.6236491569
 20
72.5045745792
 30
0.0
 10
93.6234246523
 20
72.5265350661
 30
0.0
  0
SPLINE
  5
64E
100
AcDbEntity
  8
ASSI
100
AcDbSpline
 62
250
  6
CONTINUOUS
 70
0
 71
3
 72
15
 73
11
 74
0
 42
0.0000001
 43
0.0000001
 44
0.0000000001
 40
0.0
 40
0.0
 40
0.0
 40
0.0
 40
0.2868338341
 40
0.4238230672
 40
0.5536576637
 40
0.6753497624
 40
0.7890464935
 40
0.8962433022
 40
0.9483629257
 40
1.0
 40
1.0
 40
1.0
 40
1.0
 10
93.6234246523
 20
72.5265350661
 30
0.0
 10
93.7506216889
 20
72.5281050076
 30
0.0
 10
93.9399062517
 20
72.5557183516
 30
0.0
 10
94.1697428751
 20
72.6441831895
 30
0.0
 10
94.3192373924
 20
72.7316184506
 30
0.0
 10
94.4426152192
 20
72.8381470173
 30
0.0
 10
94.5351693264
 20
72.9602031384
 30
0.0
 10
94.5836748198
 20
73.0727282091
 30
0.0
 10
94.6027881885
 20
73.1645535284
 30
0.0
 10
94.6059722458
 20
73.2106338436
 30
0.0
 10
94.6059722458
 20
73.2335341515
 30
0.0
  0
SPLINE
  5
64F
100
AcDbEntity
  8
ASSI
100
AcDbSpline
 62
250
  6
CONTINUOUS
 70
0
 71
3
 72
9
 73
5
 74
0
 42
0.0000001
 43
0.0000001
 44
0.0000000001
 40
0.0
 40
0.0
 40
0.0
 40
0.0
 40
0.4588109533
 40
1.0
 40
1.0
 40
1.0
 40
1.0
 10
93.6234246523
 20
72.8177987797
 30
0.0
 10
93.6245301408
 20
73.0340490203
 30
0.0
 10
93.6252763309
 20
73.5053845511
 30
0.0
 10
93.624346753
 20
73.976717979
 30
0.0
 10
93.6234246523
 20
74.2317969505
 30
0.0
  0
SPLINE
  5
650
100
AcDbEntity
  8
ASSI
100
AcDbSpline
 62
250
  6
CONTINUOUS
 70
0
 71
3
 72
15
 73
11
 74
0
 42
0.0000001
 43
0.0000001
 44
0.0000000001
 40
0.0
 40
0.0
 40
0.0
 40
0.0
 40
0.2868338788
 40
0.4238231262
 40
0.553657562
 40
0.6753497764
 40
0.7890465213
 40
0.896242732
 40
0.9483640566
 40
1.0
 40
1.0
 40
1.0
 40
1.0
 10
93.6234246523
 20
72.8177987797
 30
0.0
 10
93.7506217038
 20
72.8193687214
 30
0.0
 10
93.9399062082
 20
72.8469821151
 30
0.0
 10
94.1697430112
 20
72.9354466009
 30
0.0
 10
94.3192368729
 20
73.0228828124
 30
0.0
 10
94.4426154351
 20
73.1294104789
 30
0.0
 10
94.5351691579
 20
73.2514666397
 30
0.0
 10
94.5836752063
 20
73.3639920699
 30
0.0
 10
94.6027876653
 20
73.455817551
 30
0.0
 10
94.6059722458
 20
73.5018980597
 30
0.0
 10
94.6059722458
 20
73.5247978651
 30
0.0
  0
SPLINE
  5
651
100
AcDbEntity
  8
ASSI
100
AcDbSpline
 62
250
  6
CONTINUOUS
 70
0
 71
3
 72
27
 73
23
 74
0
 42
0.0000001
 43
0.0000001
 44
0.0000000001
 40
0.0
 40
0.0
 40
0.0
 40
0.0
 40
0.1949682852
 40
0.3824329413
 40
0.4710856985
 40
0.5552022105
 40
0.6339729033
 40
0.7066401913
 40
0.7725054528
 40
0.8309355085
 40
0.8813689342
 40
0.9034323573
 40
0.9233223346
 40
0.9409909798
 40
0.956396043
 40
0.9695029694
 40
0.980280296
 40
0.9887073159
 40
0.9947705702
 40
0.9984777355
 40
0.9994768206
 40
1.0
 40
1.0
 40
1.0
 40
1.0
 10
94.9007365239
 20
83.5766622327
 30
0.0
 10
94.9018708747
 20
83.5116555202
 30
0.0
 10
94.9038807542
 20
83.3841401177
 30
0.0
 10
94.9058080143
 20
83.2270573102
 30
0.0
 10
94.9069188189
 20
83.1069341715
 30
0.0
 10
94.9075107583
 20
83.0230544636
 30
0.0
 10
94.9078723404
 20
82.9445042026
 30
0.0
 10
94.9080005854
 20
82.872039497
 30
0.0
 10
94.9078955434
 20
82.8063577619
 30
0.0
 10
94.9075591473
 20
82.7480912729
 30
0.0
 10
94.9070734721
 20
82.7044330862
 30
0.0
 10
94.9065499942
 20
82.6736289303
 30
0.0
 10
94.9061201906
 20
82.6537512361
 30
0.0
 10
94.9056370735
 20
82.6360955466
 30
0.0
 10
94.9051030003
 20
82.6207053549
 30
0.0
 10
94.904518996
 20
82.607614099
 30
0.0
 10
94.9038941525
 20
82.5968626533
 30
0.0
 10
94.9032206548
 20
82.5884474047
 30
0.0
 10
94.9025485514
 20
82.5824498036
 30
0.0
 10
94.9018665406
 20
82.5788545149
 30
0.0
 10
94.9013136039
 20
82.5772581368
 30
0.0
 10
94.9009109634
 20
82.5768175824
 30
0.0
 10
94.9007365239
 20
82.5768145375
 30
0.0
  0
SPLINE
  5
652
100
AcDbEntity
  8
ASSI
100
AcDbSpline
 62
250
  6
CONTINUOUS
 70
0
 71
3
 72
29
 73
25
 74
0
 42
0.0000001
 43
0.0000001
 44
0.0000000001
 40
0.0
 40
0.0
 40
0.0
 40
0.0
 40
0.1950532132
 40
0.3826055502
 40
0.4712997459
 40
0.5554556825
 40
0.6342627575
 40
0.7069623111
 40
0.7728544129
 40
0.831304914
 40
0.8817514983
 40
0.9038189488
 40
0.9237091833
 40
0.941375816
 40
0.9567750926
 40
0.9698714986
 40
0.9806332071
 40
0.9890354731
 40
0.9923461017
 40
0.9950603406
 40
0.9971775223
 40
0.9986987481
 40
0.9996287935
 40
1.0
 40
1.0
 40
1.0
 40
1.0
 10
103.8146984491
 20
83.7322560168
 30
0.0
 10
103.8152657914
 20
83.6672404456
 30
0.0
 10
103.8162705288
 20
83.5397085442
 30
0.0
 10
103.8172341786
 20
83.3826107411
 30
0.0
 10
103.8177895932
 20
83.2624772782
 30
0.0
 10
103.8180855554
 20
83.1785916472
 30
0.0
 10
103.8182663588
 20
83.1000372712
 30
0.0
 10
103.818330488
 20
83.0275706842
 30
0.0
 10
103.8182779673
 20
82.9618896348
 30
0.0
 10
103.8181097764
 20
82.9036264914
 30
0.0
 10
103.8178669198
 20
82.8599720316
 30
0.0
 10
103.8176052258
 20
82.8291715437
 30
0.0
 10
103.8173902699
 20
82.8092978392
 30
0.0
 10
103.8171488177
 20
82.7916472604
 30
0.0
 10
103.8168815881
 20
82.7762622316
 30
0.0
 10
103.8165903313
 20
82.7631789387
 30
0.0
 10
103.8162760435
 20
82.7524315789
 30
0.0
 10
103.8159803818
 20
82.7449417911
 30
0.0
 10
103.8157197907
 20
82.7401454188
 30
0.0
 10
103.8155346074
 20
82.7374255258
 30
0.0
 10
103.8153496389
 20
82.7353471748
 30
0.0
 10
103.8151576021
 20
82.7337642415
 30
0.0
 10
103.8149883417
 20
82.7329687369
 30
0.0
 10
103.8148221633
 20
82.7324106456
 30
0.0
 10
103.8146984491
 20
82.7324083217
 30
0.0
  0
SPLINE
  5
653
100
AcDbEntity
  8
ASSI
100
AcDbSpline
 62
250
  6
CONTINUOUS
 70
0
 71
3
 72
22
 73
18
 74
0
 42
0.0000001
 43
0.0000001
 44
0.0000000001
 40
0.0
 40
0.0
 40
0.0
 40
0.0
 40
0.001821261
 40
0.0056335017
 40
0.0117327498
 40
0.0201649121
 40
0.0440149723
 40
0.0770320585
 40
0.1189246054
 40
0.1693023138
 40
0.2276863691
 40
0.2935170249
 40
0.3661604954
 40
0.4449158705
 40
0.6176655228
 40
0.8050988709
 40
1.0
 40
1.0
 40
1.0
 40
1.0
 10
103.8146984491
 20
82.7324083217
 30
0.0
 10
103.8148807704
 20
82.7324115459
 30
0.0
 10
103.8152882579
 20
82.7318519462
 30
0.0
 10
103.8155708038
 20
82.7307856197
 30
0.0
 10
103.8159529269
 20
82.7289492732
 30
0.0
 10
103.8164358266
 20
82.725156863
 30
0.0
 10
103.8169588185
 20
82.7186219354
 30
0.0
 10
103.8174409121
 20
82.7087524534
 30
0.0
 10
103.8178296496
 20
82.6962109969
 30
0.0
 10
103.8181097085
 20
82.6811304165
 30
0.0
 10
103.818277933
 20
82.6636500158
 30
0.0
 10
103.8183304782
 20
82.6439400667
 30
0.0
 10
103.8182663318
 20
82.6221903931
 30
0.0
 10
103.8180169679
 20
82.5897365951
 30
0.0
 10
103.8174051878
 20
82.5457926329
 30
0.0
 10
103.8162694122
 20
82.4902273386
 30
0.0
 10
103.8152662594
 20
82.4519598082
 30
0.0
 10
103.8146984491
 20
82.4324540131
 30
0.0
  0
SPLINE
  5
654
100
AcDbEntity
  8
ASSI
100
AcDbSpline
 62
250
  6
CONTINUOUS
 70
0
 71
3
 72
29
 73
25
 74
0
 42
0.0000001
 43
0.0000001
 44
0.0000000001
 40
0.0
 40
0.0
 40
0.0
 40
0.0
 40
0.1950532097
 40
0.382605544
 40
0.4712997385
 40
0.555455674
 40
0.634262748
 40
0.7069623005
 40
0.7728544015
 40
0.8313049019
 40
0.8817514856
 40
0.9038189357
 40
0.9237091696
 40
0.9413758023
 40
0.9567750799
 40
0.9698714856
 40
0.9806331903
 40
0.989035454
 40
0.9923460852
 40
0.9950603305
 40
0.99717752
 40
0.99869875
 40
0.9996287927
 40
1.0
 40
1.0
 40
1.0
 40
1.0
 10
103.8146984491
 20
73.4114234973
 30
0.0
 10
103.815265676
 20
73.3464079253
 30
0.0
 10
103.8162706041
 20
73.2188760258
 30
0.0
 10
103.8172341863
 20
73.0617782222
 30
0.0
 10
103.8177896031
 20
72.9416447592
 30
0.0
 10
103.8180855635
 20
72.8577591282
 30
0.0
 10
103.8182663634
 20
72.7792047521
 30
0.0
 10
103.8183304882
 20
72.706738165
 30
0.0
 10
103.8182779632
 20
72.6410571155
 30
0.0
 10
103.8181097682
 20
72.5827939719
 30
0.0
 10
103.817866911
 20
72.5391395121
 30
0.0
 10
103.8176052154
 20
72.5083390243
 30
0.0
 10
103.8173902572
 20
72.4884653198
 30
0.0
 10
103.8171488043
 20
72.4708147407
 30
0.0
 10
103.8168815794
 20
72.4554297113
 30
0.0
 10
103.8165903271
 20
72.4423464192
 30
0.0
 10
103.8162760311
 20
72.4315990615
 30
0.0
 10
103.8159803555
 20
72.4241092754
 30
0.0
 10
103.8157197699
 20
72.4193129006
 30
0.0
 10
103.8155345961
 20
72.4165930012
 30
0.0
 10
103.8153496574
 20
72.414514642
 30
0.0
 10
103.8151576157
 20
72.4129317044
 30
0.0
 10
103.8149883994
 20
72.4121361956
 30
0.0
 10
103.8148221639
 20
72.41157811
 30
0.0
 10
103.8146984491
 20
72.4115758021
 30
0.0
  0
SPLINE
  5
655
100
AcDbEntity
  8
ASSI
100
AcDbSpline
 62
250
  6
CONTINUOUS
 70
0
 71
3
 72
26
 73
22
 74
0
 42
0.0000001
 43
0.0000001
 44
0.0000000001
 40
0.0
 40
0.0
 40
0.0
 40
0.0
 40
0.22496967
 40
0.4245416946
 40
0.5967667249
 40
0.6721053277
 40
0.7400068743
 40
0.8003130813
 40
0.8528748553
 40
0.8975701063
 40
0.9342884913
 40
0.9496279795
 40
0.9629429355
 40
0.9742250279
 40
0.983466219
 40
0.9906617693
 40
0.9958100922
 40
0.9976166669
 40
0.9989123323
 40
0.9997000483
 40
1.0
 40
1.0
 40
1.0
 40
1.0
 10
103.8146984491
 20
110.9389144039
 30
0.0
 10
103.814810746
 20
110.9608767574
 30
0.0
 10
103.8150087938
 20
111.0023221281
 30
0.0
 10
103.8152369063
 20
111.0605809783
 30
0.0
 10
103.8153593925
 20
111.1042323938
 30
0.0
 10
103.8154083593
 20
111.1350296135
 30
0.0
 10
103.8154208698
 20
111.1549008061
 30
0.0
 10
103.815411015
 20
111.1725484118
 30
0.0
 10
103.815378983
 20
111.1879304895
 30
0.0
 10
103.8153249868
 20
111.2010096988
 30
0.0
 10
103.8152592461
 20
111.2104550668
 30
0.0
 10
103.8151922071
 20
111.2168366423
 30
0.0
 10
103.8151397158
 20
111.2207353184
 30
0.0
 10
103.8150819412
 20
111.2240376301
 30
0.0
 10
103.8150198231
 20
111.2267447825
 30
0.0
 10
103.8149521725
 20
111.2288463683
 30
0.0
 10
103.8148904485
 20
111.230236044
 30
0.0
 10
103.8148313952
 20
111.2310266801
 30
0.0
 10
103.8147953355
 20
111.23142581
 30
0.0
 10
103.8147550701
 20
111.23161736
 30
0.0
 10
103.8147277256
 20
111.2317624129
 30
0.0
 10
103.8146984491
 20
111.2317630136
 30
0.0
  0
SPLINE
  5
656
100
AcDbEntity
  8
ASSI
100
AcDbSpline
 62
250
  6
CONTINUOUS
 70
0
 71
3
 72
14
 73
10
 74
0
 42
0.0000001
 43
0.0000001
 44
0.0000000001
 40
0.0
 40
0.0
 40
0.0
 40
0.0
 40
0.2869019453
 40
0.423924575
 40
0.5537900878
 40
0.6755115683
 40
0.7892358187
 40
0.8964558529
 40
1.0
 40
1.0
 40
1.0
 40
1.0
 10
103.8146984491
 20
110.9389144039
 30
0.0
 10
103.8782968196
 20
110.9381294351
 30
0.0
 10
103.9729388928
 20
110.9243218366
 30
0.0
 10
104.0878575263
 20
110.880091399
 30
0.0
 10
104.1626042786
 20
110.8363695879
 30
0.0
 10
104.2242941331
 20
110.783117239
 30
0.0
 10
104.2705696157
 20
110.7220511896
 30
0.0
 10
104.2993912179
 20
110.6553271769
 30
0.0
 10
104.3059722458
 20
110.6083695351
 30
0.0
 10
104.3059722458
 20
110.5854148612
 30
0.0
  0
SPLINE
  5
657
100
AcDbEntity
  8
ASSI
100
AcDbSpline
 62
250
  6
CONTINUOUS
 70
0
 71
3
 72
14
 73
10
 74
0
 42
0.0000001
 43
0.0000001
 44
0.0000000001
 40
0.0
 40
0.0
 40
0.0
 40
0.0
 40
0.2869019454
 40
0.4239245752
 40
0.5537900881
 40
0.6755115687
 40
0.789235819
 40
0.8964558531
 40
1.0
 40
1.0
 40
1.0
 40
1.0
 10
103.8146984491
 20
110.7518558564
 30
0.0
 10
103.8782968196
 20
110.7510708875
 30
0.0
 10
103.9729388927
 20
110.7372632888
 30
0.0
 10
104.0878575262
 20
110.6930328511
 30
0.0
 10
104.1626042785
 20
110.64931104
 30
0.0
 10
104.2242941331
 20
110.5960586911
 30
0.0
 10
104.2705696157
 20
110.5349926418
 30
0.0
 10
104.2993912179
 20
110.4682686293
 30
0.0
 10
104.3059722458
 20
110.4213109876
 30
0.0
 10
104.3059722458
 20
110.3983563137
 30
0.0
  0
SPLINE
  5
658
100
AcDbEntity
  8
ASSI
100
AcDbSpline
 62
250
  6
CONTINUOUS
 70
0
 71
3
 72
9
 73
5
 74
0
 42
0.0000001
 43
0.0000001
 44
0.0000000001
 40
0.0
 40
0.0
 40
0.0
 40
0.0
 40
0.5411928502
 40
1.0
 40
1.0
 40
1.0
 40
1.0
 10
103.8146984491
 20
109.3378576856
 30
0.0
 10
103.8151594384
 20
109.5929393018
 30
0.0
 10
103.8156243534
 20
110.0642722015
 30
0.0
 10
103.8152511255
 20
110.5356056266
 30
0.0
 10
103.8146984491
 20
110.7518558564
 30
0.0
  0
SPLINE
  5
659
100
AcDbEntity
  8
ASSI
100
AcDbSpline
 62
250
  6
CONTINUOUS
 70
0
 71
3
 72
19
 73
15
 74
0
 42
0.0000001
 43
0.0000001
 44
0.0000000001
 40
0.0
 40
0.0
 40
0.0
 40
0.0
 40
0.058969317
 40
0.1192900808
 40
0.2433475263
 40
0.3707714041
 40
0.4352689198
 40
0.4999999867
 40
0.5647310577
 40
0.6292285975
 40
0.7566525004
 40
0.8807099476
 40
0.9410307023
 40
1.0
 40
1.0
 40
1.0
 40
1.0
 10
104.579825523
 20
105.2653651869
 30
0.0
 10
104.5798275168
 20
105.2123238237
 30
0.0
 10
104.5758253871
 20
105.1050173779
 30
0.0
 10
104.5568644322
 20
104.8869057986
 30
0.0
 10
104.5204025109
 20
104.6088011054
 30
0.0
 10
104.4865210435
 20
104.3265311159
 30
0.0
 10
104.4708171972
 20
104.0961445391
 30
0.0
 10
104.4666316973
 20
103.9216694405
 30
0.0
 10
104.470817228
 20
103.7471943216
 30
0.0
 10
104.4865210607
 20
103.5168076963
 30
0.0
 10
104.5204024991
 20
103.2345376568
 30
0.0
 10
104.5568644528
 20
102.9564329519
 30
0.0
 10
104.5758253971
 20
102.738321395
 30
0.0
 10
104.579827508
 20
102.6310149748
 30
0.0
 10
104.579825523
 20
102.5779736289
 30
0.0
  0
SPLINE
  5
65A
100
AcDbEntity
  8
ASSI
100
AcDbSpline
 62
250
  6
CONTINUOUS
 70
0
 71
3
 72
15
 73
11
 74
0
 42
0.0000001
 43
0.0000001
 44
0.0000000001
 40
0.0
 40
0.0
 40
0.0
 40
0.0
 40
0.0760077154
 40
0.1617759532
 40
0.2632711778
 40
0.3824772614
 40
0.5186820079
 40
0.6694696862
 40
0.8313089814
 40
1.0
 40
1.0
 40
1.0
 40
1.0
 10
104.3059722458
 20
105.3959144191
 30
0.0
 10
104.3059722458
 20
105.3876795702
 30
0.0
 10
104.3100074968
 20
105.3700170366
 30
0.0
 10
104.326540369
 20
105.3462023641
 30
0.0
 10
104.3521633459
 20
105.3246686611
 30
0.0
 10
104.3860513367
 20
105.3057041467
 30
0.0
 10
104.4271909697
 20
105.2897627783
 30
0.0
 10
104.4742940488
 20
105.2773449717
 30
0.0
 10
104.5258136584
 20
105.2688641003
 30
0.0
 10
104.5615624881
 20
105.2660631965
 30
0.0
 10
104.579825523
 20
105.2653651869
 30
0.0
  0
SPLINE
  5
65B
100
AcDbEntity
  8
ASSI
100
AcDbSpline
 62
250
  6
CONTINUOUS
 70
0
 71
3
 72
15
 73
11
 74
0
 42
0.0000001
 43
0.0000001
 44
0.0000000001
 40
0.0
 40
0.0
 40
0.0
 40
0.0
 40
0.1234454116
 40
0.2482445542
 40
0.373909527
 40
0.4999999969
 40
0.6260904734
 40
0.7517554533
 40
0.8765545958
 40
1.0
 40
1.0
 40
1.0
 40
1.0
 10
104.3059722458
 20
105.3959144191
 30
0.0
 10
104.3059727258
 20
105.274488384
 30
0.0
 10
104.2975266324
 20
105.0303350512
 30
0.0
 10
104.2755118858
 20
104.6632278361
 30
0.0
 10
104.2555063171
 20
104.2933490393
 30
0.0
 10
104.2473522488
 20
103.9216694106
 30
0.0
 10
104.2555063323
 20
103.5499897757
 30
0.0
 10
104.2755118775
 20
103.1801109643
 30
0.0
 10
104.2975266346
 20
102.8130037501
 30
0.0
 10
104.3059727269
 20
102.5688504245
 30
0.0
 10
104.3059722458
 20
102.4474243967
 30
0.0
  0
SPLINE
  5
65C
100
AcDbEntity
  8
ASSI
100
AcDbSpline
 62
250
  6
CONTINUOUS
 70
0
 71
3
 72
15
 73
11
 74
0
 42
0.0000001
 43
0.0000001
 44
0.0000000001
 40
0.0
 40
0.0
 40
0.0
 40
0.0
 40
0.0760080316
 40
0.1617764474
 40
0.2632717222
 40
0.3824777635
 40
0.5186824087
 40
0.6694699545
 40
0.8313091095
 40
1.0
 40
1.0
 40
1.0
 40
1.0
 10
104.3059722458
 20
102.4474243967
 30
0.0
 10
104.3059722458
 20
102.4556592847
 30
0.0
 10
104.3100074847
 20
102.4733218843
 30
0.0
 10
104.3265403516
 20
102.4971366556
 30
0.0
 10
104.3521633335
 20
102.5186704188
 30
0.0
 10
104.3860513293
 20
102.5376349537
 30
0.0
 10
104.4271909665
 20
102.553576304
 30
0.0
 10
104.4742940489
 20
102.5659940562
 30
0.0
 10
104.5258136611
 20
102.5744748387
 30
0.0
 10
104.5615624895
 20
102.5772756641
 30
0.0
 10
104.579825523
 20
102.5779736289
 30
0.0
  0
SPLINE
  5
65D
100
AcDbEntity
  8
ASSI
100
AcDbSpline
 62
250
  6
CONTINUOUS
 70
0
 71
3
 72
19
 73
15
 74
0
 42
0.0000001
 43
0.0000001
 44
0.0000000001
 40
0.0
 40
0.0
 40
0.0
 40
0.0
 40
0.058969317
 40
0.1192900808
 40
0.2433475263
 40
0.3707714041
 40
0.4352689198
 40
0.4999999867
 40
0.5647310577
 40
0.6292285975
 40
0.7566525004
 40
0.8807099476
 40
0.9410307023
 40
1.0
 40
1.0
 40
1.0
 40
1.0
 10
104.579825523
 20
91.4653651869
 30
0.0
 10
104.5798275168
 20
91.4123238237
 30
0.0
 10
104.5758253871
 20
91.3050173779
 30
0.0
 10
104.5568644322
 20
91.0869057986
 30
0.0
 10
104.5204025109
 20
90.8088011054
 30
0.0
 10
104.4865210435
 20
90.5265311159
 30
0.0
 10
104.4708171972
 20
90.2961445391
 30
0.0
 10
104.4666316973
 20
90.1216694405
 30
0.0
 10
104.470817228
 20
89.9471943216
 30
0.0
 10
104.4865210607
 20
89.7168076963
 30
0.0
 10
104.5204024991
 20
89.4345376568
 30
0.0
 10
104.5568644528
 20
89.1564329519
 30
0.0
 10
104.5758253971
 20
88.938321395
 30
0.0
 10
104.579827508
 20
88.8310149748
 30
0.0
 10
104.579825523
 20
88.7779736289
 30
0.0
  0
SPLINE
  5
65E
100
AcDbEntity
  8
ASSI
100
AcDbSpline
 62
250
  6
CONTINUOUS
 70
0
 71
3
 72
15
 73
11
 74
0
 42
0.0000001
 43
0.0000001
 44
0.0000000001
 40
0.0
 40
0.0
 40
0.0
 40
0.0
 40
0.0760077154
 40
0.1617759532
 40
0.2632711778
 40
0.3824772614
 40
0.5186820079
 40
0.6694696862
 40
0.8313089814
 40
1.0
 40
1.0
 40
1.0
 40
1.0
 10
104.3059722458
 20
91.5959144191
 30
0.0
 10
104.3059722458
 20
91.5876795702
 30
0.0
 10
104.3100074968
 20
91.5700170366
 30
0.0
 10
104.326540369
 20
91.5462023641
 30
0.0
 10
104.3521633459
 20
91.5246686611
 30
0.0
 10
104.3860513367
 20
91.5057041467
 30
0.0
 10
104.4271909697
 20
91.4897627783
 30
0.0
 10
104.4742940488
 20
91.4773449717
 30
0.0
 10
104.5258136584
 20
91.4688641003
 30
0.0
 10
104.5615624881
 20
91.4660631965
 30
0.0
 10
104.579825523
 20
91.4653651869
 30
0.0
  0
SPLINE
  5
65F
100
AcDbEntity
  8
ASSI
100
AcDbSpline
 62
250
  6
CONTINUOUS
 70
0
 71
3
 72
15
 73
11
 74
0
 42
0.0000001
 43
0.0000001
 44
0.0000000001
 40
0.0
 40
0.0
 40
0.0
 40
0.0
 40
0.1234454116
 40
0.2482445542
 40
0.373909527
 40
0.4999999969
 40
0.6260904734
 40
0.7517554533
 40
0.8765545958
 40
1.0
 40
1.0
 40
1.0
 40
1.0
 10
104.3059722458
 20
91.5959144191
 30
0.0
 10
104.3059727258
 20
91.474488384
 30
0.0
 10
104.2975266324
 20
91.2303350512
 30
0.0
 10
104.2755118858
 20
90.8632278361
 30
0.0
 10
104.2555063171
 20
90.4933490393
 30
0.0
 10
104.2473522488
 20
90.1216694106
 30
0.0
 10
104.2555063323
 20
89.7499897757
 30
0.0
 10
104.2755118775
 20
89.3801109643
 30
0.0
 10
104.2975266346
 20
89.0130037501
 30
0.0
 10
104.3059727269
 20
88.7688504245
 30
0.0
 10
104.3059722458
 20
88.6474243967
 30
0.0
  0
SPLINE
  5
660
100
AcDbEntity
  8
ASSI
100
AcDbSpline
 62
250
  6
CONTINUOUS
 70
0
 71
3
 72
15
 73
11
 74
0
 42
0.0000001
 43
0.0000001
 44
0.0000000001
 40
0.0
 40
0.0
 40
0.0
 40
0.0
 40
0.0760080316
 40
0.1617764474
 40
0.2632717222
 40
0.3824777635
 40
0.5186824087
 40
0.6694699545
 40
0.8313091095
 40
1.0
 40
1.0
 40
1.0
 40
1.0
 10
104.3059722458
 20
88.6474243967
 30
0.0
 10
104.3059722458
 20
88.6556592847
 30
0.0
 10
104.3100074847
 20
88.6733218843
 30
0.0
 10
104.3265403516
 20
88.6971366556
 30
0.0
 10
104.3521633335
 20
88.7186704188
 30
0.0
 10
104.3860513293
 20
88.7376349537
 30
0.0
 10
104.4271909665
 20
88.753576304
 30
0.0
 10
104.4742940489
 20
88.7659940562
 30
0.0
 10
104.5258136611
 20
88.7744748387
 30
0.0
 10
104.5615624895
 20
88.7772756641
 30
0.0
 10
104.579825523
 20
88.7779736289
 30
0.0
  0
SPLINE
  5
661
100
AcDbEntity
  8
ASSI
100
AcDbSpline
 62
250
  6
CONTINUOUS
 70
0
 71
3
 72
23
 73
19
 74
0
 42
0.0000001
 43
0.0000001
 44
0.0000000001
 40
0.0
 40
0.0
 40
0.0
 40
0.0
 40
0.0014777521
 40
0.00518612
 40
0.0112479923
 40
0.0196749547
 40
0.0304549953
 40
0.0435615908
 40
0.0766362817
 40
0.1185914049
 40
0.1690279027
 40
0.227458852
 40
0.2933288572
 40
0.3659977211
 40
0.444772794
 40
0.617552583
 40
0.8050194673
 40
1.0
 40
1.0
 40
1.0
 40
1.0
 10
103.8146984491
 20
87.1609304941
 30
0.0
 10
103.8147969875
 20
87.1609287741
 30
0.0
 10
103.814926929
 20
87.1604814245
 30
0.0
 10
103.8150554652
 20
87.159847173
 30
0.0
 10
103.8151976589
 20
87.1585837005
 30
0.0
 10
103.8153290628
 20
87.1569286383
 30
0.0
 10
103.8154553237
 20
87.154767522
 30
0.0
 10
103.815623738
 20
87.1509769062
 30
0.0
 10
103.8157956387
 20
87.1450982529
 30
0.0
 10
103.8159510028
 20
87.1367333702
 30
0.0
 10
103.8160629849
 20
87.1266748849
 30
0.0
 10
103.8161302584
 20
87.115021694
 30
0.0
 10
103.8161512383
 20
87.1018854228
 30
0.0
 10
103.8161256392
 20
87.0873924503
 30
0.0
 10
103.8160259548
 20
87.0657696924
 30
0.0
 10
103.8157813317
 20
87.036491602
 30
0.0
 10
103.8153273733
 20
86.9994653895
 30
0.0
 10
103.814925323
 20
86.9739625153
 30
0.0
 10
103.814698449
 20
86.9609609551
 30
0.0
  0
SPLINE
  5
662
100
AcDbEntity
  8
ASSI
100
AcDbSpline
 62
250
  6
CONTINUOUS
 70
0
 71
3
 72
23
 73
19
 74
0
 42
0.0000001
 43
0.0000001
 44
0.0000000001
 40
0.0
 40
0.0
 40
0.0
 40
0.0
 40
0.0014777521
 40
0.00518612
 40
0.0112479923
 40
0.0196749547
 40
0.0304549955
 40
0.0435615911
 40
0.0766362821
 40
0.1185914057
 40
0.1690279036
 40
0.2274588531
 40
0.2933288584
 40
0.3659977224
 40
0.4447727953
 40
0.6175525841
 40
0.8050194679
 40
1.0
 40
1.0
 40
1.0
 40
1.0
 10
95.0972460426
 20
87.3130941919
 30
0.0
 10
95.0973445811
 20
87.3130924719
 30
0.0
 10
95.0974745225
 20
87.3126451222
 30
0.0
 10
95.0976030587
 20
87.3120108708
 30
0.0
 10
95.0977452524
 20
87.3107473982
 30
0.0
 10
95.0978766563
 20
87.309092336
 30
0.0
 10
95.0980029171
 20
87.3069312197
 30
0.0
 10
95.0981713315
 20
87.3031406038
 30
0.0
 10
95.0983432321
 20
87.2972619506
 30
0.0
 10
95.0984985962
 20
87.2888970678
 30
0.0
 10
95.0986105784
 20
87.2788385825
 30
0.0
 10
95.0986778518
 20
87.2671853915
 30
0.0
 10
95.0986988318
 20
87.2540491203
 30
0.0
 10
95.0986732326
 20
87.2395561478
 30
0.0
 10
95.0985735483
 20
87.2179333899
 30
0.0
 10
95.0983289251
 20
87.1886552995
 30
0.0
 10
95.0978749668
 20
87.1516290872
 30
0.0
 10
95.0974729166
 20
87.126126213
 30
0.0
 10
95.0972460426
 20
87.1131246528
 30
0.0
  0
SPLINE
  5
663
100
AcDbEntity
  8
ASSI
100
AcDbSpline
 62
250
  6
CONTINUOUS
 70
0
 71
3
 72
23
 73
19
 74
0
 42
0.0000001
 43
0.0000001
 44
0.0000000001
 40
0.0
 40
0.0
 40
0.0
 40
0.0
 40
0.0014777521
 40
0.0051861199
 40
0.0112479923
 40
0.0196749547
 40
0.0304549953
 40
0.0435615908
 40
0.0766362817
 40
0.118591405
 40
0.1690279028
 40
0.2274588521
 40
0.2933288573
 40
0.3659977211
 40
0.444772794
 40
0.6175525829
 40
0.8050194671
 40
1.0
 40
1.0
 40
1.0
 40
1.0
 10
95.0972460426
 20
106.4302446239
 30
0.0
 10
95.0973445811
 20
106.4302463439
 30
0.0
 10
95.0974745225
 20
106.4306936936
 30
0.0
 10
95.0976030587
 20
106.431327945
 30
0.0
 10
95.0977452524
 20
106.4325914176
 30
0.0
 10
95.0978766563
 20
106.4342464798
 30
0.0
 10
95.0980029172
 20
106.436407596
 30
0.0
 10
95.0981713315
 20
106.4401982119
 30
0.0
 10
95.0983432321
 20
106.4460768651
 30
0.0
 10
95.0984985962
 20
106.4544417479
 30
0.0
 10
95.0986105784
 20
106.4645002332
 30
0.0
 10
95.0986778518
 20
106.4761534241
 30
0.0
 10
95.0986988318
 20
106.4892896953
 30
0.0
 10
95.0986732326
 20
106.5037826677
 30
0.0
 10
95.0985735483
 20
106.5254054256
 30
0.0
 10
95.0983289251
 20
106.554683516
 30
0.0
 10
95.0978749668
 20
106.5917097285
 30
0.0
 10
95.0974729166
 20
106.6172126027
 30
0.0
 10
95.0972460426
 20
106.6302141629
 30
0.0
  0
SPLINE
  5
664
100
AcDbEntity
  8
ASSI
100
AcDbSpline
 62
250
  6
CONTINUOUS
 70
0
 71
3
 72
23
 73
19
 74
0
 42
0.0000001
 43
0.0000001
 44
0.0000000001
 40
0.0
 40
0.0
 40
0.0
 40
0.0
 40
0.0014777521
 40
0.0051861199
 40
0.0112479923
 40
0.0196749547
 40
0.0304549954
 40
0.0435615911
 40
0.0766362821
 40
0.1185914056
 40
0.1690279036
 40
0.2274588531
 40
0.2933288584
 40
0.3659977224
 40
0.4447727953
 40
0.6175525841
 40
0.8050194679
 40
1.0
 40
1.0
 40
1.0
 40
1.0
 10
103.8146984491
 20
106.5824083217
 30
0.0
 10
103.8147969875
 20
106.5824100417
 30
0.0
 10
103.814926929
 20
106.5828573913
 30
0.0
 10
103.8150554651
 20
106.5834916428
 30
0.0
 10
103.8151976588
 20
106.5847551153
 30
0.0
 10
103.8153290627
 20
106.5864101776
 30
0.0
 10
103.8154553236
 20
106.5885712938
 30
0.0
 10
103.8156237379
 20
106.5923619097
 30
0.0
 10
103.8157956385
 20
106.598240563
 30
0.0
 10
103.8159510027
 20
106.6066054458
 30
0.0
 10
103.8160629848
 20
106.6166639311
 30
0.0
 10
103.8161302583
 20
106.628317122
 30
0.0
 10
103.8161512382
 20
106.6414533933
 30
0.0
 10
103.8161256391
 20
106.6559463657
 30
0.0
 10
103.8160259547
 20
106.6775691237
 30
0.0
 10
103.8157813316
 20
106.706847214
 30
0.0
 10
103.8153273732
 20
106.7438734264
 30
0.0
 10
103.814925323
 20
106.7693763006
 30
0.0
 10
103.8146984491
 20
106.7823778607
 30
0.0
  0
SPLINE
  5
665
100
AcDbEntity
  8
0
100
AcDbSpline
 62
250
  6
CONTINUOUS
 70
0
 71
3
 72
10
 73
6
 74
0
 42
0.0000001
 43
0.0000001
 44
0.0000000001
 40
0.0
 40
0.0
 40
0.0
 40
0.0
 40
0.3333333333
 40
0.6666666667
 40
1.0
 40
1.0
 40
1.0
 40
1.0
 10
90.3270783351
 20
93.2200894498
 30
0.0
 10
90.3186233169
 20
93.242961989
 30
0.0
 10
90.3027645001
 20
93.2870886464
 30
0.0
 10
90.2840415241
 20
93.3496581101
 30
0.0
 10
90.2758623759
 20
93.3882674655
 30
0.0
 10
90.2728394368
 20
93.4068648686
 30
0.0
  0
SPLINE
  5
666
100
AcDbEntity
  8
0
100
AcDbSpline
 62
250
  6
CONTINUOUS
 70
0
 71
3
 72
17
 73
13
 74
0
 42
0.0000001
 43
0.0000001
 44
0.0000000001
 40
0.0
 40
0.0
 40
0.0
 40
0.0
 40
0.125
 40
0.25
 40
0.375
 40
0.4375
 40
0.5
 40
0.5625
 40
0.625
 40
0.75
 40
0.875
 40
1.0
 40
1.0
 40
1.0
 40
1.0
 10
91.0929714395
 20
92.3256458857
 30
0.0
 10
91.0982930922
 20
92.3303159079
 30
0.0
 10
91.1080702757
 20
92.3401354579
 30
0.0
 10
91.1205062666
 20
92.3559521615
 30
0.0
 10
91.1291182439
 20
92.369753255
 30
0.0
 10
91.1351193785
 20
92.3810865248
 30
0.0
 10
91.1393228473
 20
92.3896636355
 30
0.0
 10
91.1433551619
 20
92.3982478082
 30
0.0
 10
91.1485878567
 20
92.409694827
 30
0.0
 10
91.1546289028
 20
92.4241428211
 30
0.0
 10
91.1605017819
 20
92.4420909292
 30
0.0
 10
91.1630526968
 20
92.4544466359
 30
0.0
 10
91.1638663774
 20
92.4607448738
 30
0.0
  0
SPLINE
  5
667
100
AcDbEntity
  8
0
100
AcDbSpline
 62
250
  6
CONTINUOUS
 70
0
 71
3
 72
17
 73
13
 74
0
 42
0.0000001
 43
0.0000001
 44
0.0000000001
 40
0.0
 40
0.0
 40
0.0
 40
0.0
 40
0.1
 40
0.2
 40
0.3
 40
0.4
 40
0.5
 40
0.6
 40
0.7
 40
0.8
 40
0.9
 40
1.0
 40
1.0
 40
1.0
 40
1.0
 10
90.327505413
 20
91.6354879359
 30
0.0
 10
90.3283461014
 20
91.6402416239
 30
0.0
 10
90.3304072
 20
91.6497235594
 30
0.0
 10
90.3345633354
 20
91.6640121971
 30
0.0
 10
90.3396825408
 20
91.6783398397
 30
0.0
 10
90.3456375413
 20
91.6926682661
 30
0.0
 10
90.3522216966
 20
91.7069859884
 30
0.0
 10
90.3594097527
 20
91.7213268419
 30
0.0
 10
90.3677278547
 20
91.735533461
 30
0.0
 10
90.3772723215
 20
91.7493027942
 30
0.0
 10
90.3879407005
 20
91.7625078977
 30
0.0
 10
90.3958100952
 20
91.7708957514
 30
0.0
 10
90.3999663034
 20
91.7750000627
 30
0.0
  0
SPLINE
  5
668
100
AcDbEntity
  8
0
100
AcDbSpline
 62
250
  6
CONTINUOUS
 70
0
 71
3
 72
38
 73
34
 74
0
 42
0.0000001
 43
0.0000001
 44
0.0000000001
 40
0.0
 40
0.0
 40
0.0
 40
0.0
 40
0.0322580645
 40
0.064516129
 40
0.0967741935
 40
0.1290322581
 40
0.1612903226
 40
0.1935483871
 40
0.2258064516
 40
0.2580645161
 40
0.2903225806
 40
0.3225806452
 40
0.3548387097
 40
0.3870967742
 40
0.4193548387
 40
0.4516129032
 40
0.4838709677
 40
0.5161290323
 40
0.5483870968
 40
0.5806451613
 40
0.6129032258
 40
0.6451612903
 40
0.6774193548
 40
0.7096774194
 40
0.7419354839
 40
0.7741935484
 40
0.8064516129
 40
0.8387096774
 40
0.8709677419
 40
0.9032258065
 40
0.935483871
 40
0.9677419355
 40
1.0
 40
1.0
 40
1.0
 40
1.0
 10
89.8681511962
 20
94.7857571734
 30
0.0
 10
89.8317465355
 20
94.7749095257
 30
0.0
 10
89.7605054721
 20
94.7490539678
 30
0.0
 10
89.6582987844
 20
94.6981487026
 30
0.0
 10
89.560743547
 20
94.6345583815
 30
0.0
 10
89.4672349631
 20
94.5567693751
 30
0.0
 10
89.3786737255
 20
94.4645189082
 30
0.0
 10
89.2949162224
 20
94.3552230877
 30
0.0
 10
89.2177059239
 20
94.2278420638
 30
0.0
 10
89.1492844477
 20
94.0828440229
 30
0.0
 10
89.0907001575
 20
93.9177603494
 30
0.0
 10
89.0450894281
 20
93.7330774043
 30
0.0
 10
89.0153054236
 20
93.5302942961
 30
0.0
 10
89.0033495312
 20
93.3093097837
 30
0.0
 10
89.0120379757
 20
93.0744800486
 30
0.0
 10
89.043444362
 20
92.8281952482
 30
0.0
 10
89.0981238505
 20
92.5774242642
 30
0.0
 10
89.1759890255
 20
92.3270995203
 30
0.0
 10
89.2750465623
 20
92.0848454372
 30
0.0
 10
89.3932149031
 20
91.8558976962
 30
0.0
 10
89.5251701573
 20
91.6479416187
 30
0.0
 10
89.6666655667
 20
91.4633539389
 30
0.0
 10
89.8136376011
 20
91.3045235341
 30
0.0
 10
89.9631208895
 20
91.1707809949
 30
0.0
 10
90.1124297157
 20
91.0606454597
 30
0.0
 10
90.2582642878
 20
90.9734395183
 30
0.0
 10
90.4012915394
 20
90.9065340215
 30
0.0
 10
90.5394122249
 20
90.8590999719
 30
0.0
 10
90.6711671794
 20
90.8293668718
 30
0.0
 10
90.7975443709
 20
90.8151805381
 30
0.0
 10
90.9180920558
 20
90.815492085
 30
0.0
 10
91.0338384057
 20
90.8291050488
 30
0.0
 10
91.107937014
 20
90.846541784
 30
0.0
 10
91.1442207922
 20
90.8573519306
 30
0.0
  0
SPLINE
  5
669
100
AcDbEntity
  8
0
100
AcDbSpline
 62
250
  6
CONTINUOUS
 70
0
 71
3
 72
38
 73
34
 74
0
 42
0.0000001
 43
0.0000001
 44
0.0000000001
 40
0.0
 40
0.0
 40
0.0
 40
0.0
 40
0.0322580645
 40
0.064516129
 40
0.0967741935
 40
0.1290322581
 40
0.1612903226
 40
0.1935483871
 40
0.2258064516
 40
0.2580645161
 40
0.2903225806
 40
0.3225806452
 40
0.3548387097
 40
0.3870967742
 40
0.4193548387
 40
0.4516129032
 40
0.4838709677
 40
0.5161290323
 40
0.5483870968
 40
0.5806451613
 40
0.6129032258
 40
0.6451612903
 40
0.6774193548
 40
0.7096774194
 40
0.7419354839
 40
0.7741935484
 40
0.8064516129
 40
0.8387096774
 40
0.8709677419
 40
0.9032258065
 40
0.935483871
 40
0.9677419355
 40
1.0
 40
1.0
 40
1.0
 40
1.0
 10
91.1442207922
 20
90.8573519306
 30
0.0
 10
91.1804882128
 20
90.8681572037
 30
0.0
 10
91.2515118386
 20
90.8939526933
 30
0.0
 10
91.3535579149
 20
90.9448417334
 30
0.0
 10
91.4511369765
 20
91.0084829495
 30
0.0
 10
91.5448596111
 20
91.0864532361
 30
0.0
 10
91.6337958979
 20
91.1791262521
 30
0.0
 10
91.7178489382
 20
91.2889851415
 30
0.0
 10
91.7950680349
 20
91.4167932399
 30
0.0
 10
91.8631944506
 20
91.5617567064
 30
0.0
 10
91.9213508387
 20
91.7260115956
 30
0.0
 10
91.9669591338
 20
91.9094544364
 30
0.0
 10
91.9968841858
 20
92.1107628438
 30
0.0
 10
92.0086346006
 20
92.3306691822
 30
0.0
 10
92.0000858202
 20
92.5659612294
 30
0.0
 10
91.9687399296
 20
92.8146458245
 30
0.0
 10
91.9134697037
 20
93.0676399754
 30
0.0
 10
91.8352859853
 20
93.318688646
 30
0.0
 10
91.7366727508
 20
93.5602149134
 30
0.0
 10
91.6197110297
 20
93.7873248169
 30
0.0
 10
91.4888278527
 20
93.9939036448
 30
0.0
 10
91.347543835
 20
94.1779989735
 30
0.0
 10
91.2005689557
 20
94.3372997665
 30
0.0
 10
91.0508026098
 20
94.4719158866
 30
0.0
 10
90.900698629
 20
94.582720125
 30
0.0
 10
90.7543365257
 20
94.6701179456
 30
0.0
 10
90.6112489307
 20
94.7369383483
 30
0.0
 10
90.4733651656
 20
94.7842602258
 30
0.0
 10
90.3419110931
 20
94.8139595638
 30
0.0
 10
90.2156587686
 20
94.8281682821
 30
0.0
 10
90.0950349048
 20
94.8278422772
 30
0.0
 10
89.9790371468
 20
94.8141524311
 30
0.0
 10
89.9046249493
 20
94.7966254088
 30
0.0
 10
89.8681511962
 20
94.7857571734
 30
0.0
  0
SPLINE
  5
66A
100
AcDbEntity
  8
INCISIONI
100
AcDbSpline
 62
250
  6
CONTINUOUS
 70
0
 71
3
 72
19
 73
15
 74
0
 42
0.0000001
 43
0.0000001
 44
0.0000000001
 40
0.0
 40
0.0
 40
0.0
 40
0.0
 40
0.2493585076
 40
0.3119423138
 40
0.3745018826
 40
0.437045637
 40
0.4995807233
 40
0.5622139107
 40
0.6246162207
 40
0.6872334108
 40
0.7499873102
 40
0.8124941202
 40
0.874958724
 40
1.0
 40
1.0
 40
1.0
 40
1.0
 10
85.7860576147
 20
95.9404292938
 30
0.0
 10
85.8429320338
 20
95.9404292938
 30
0.0
 10
85.9155897935
 20
95.9342890801
 30
0.0
 10
85.9955722419
 20
95.9037294831
 30
0.0
 10
86.0334572021
 20
95.8835165091
 30
0.0
 10
86.0682590986
 20
95.8584335809
 30
0.0
 10
86.1003900263
 20
95.8300356272
 30
0.0
 10
86.1290583217
 20
95.7980905902
 30
0.0
 10
86.1513398191
 20
95.7610391035
 30
0.0
 10
86.1636859381
 20
95.7197678356
 30
0.0
 10
86.1726536977
 20
95.6778812056
 30
0.0
 10
86.1796868388
 20
95.6356170367
 30
0.0
 10
86.1872298637
 20
95.5790851209
 30
0.0
 10
86.1920581948
 20
95.5365824068
 30
0.0
 10
86.195619475
 20
95.5082815388
 30
0.0
  0
SPLINE
  5
66B
100
AcDbEntity
  8
INCISIONI
100
AcDbSpline
 62
250
  6
CONTINUOUS
 70
0
 71
3
 72
19
 73
15
 74
0
 42
0.0000001
 43
0.0000001
 44
0.0000000001
 40
0.0
 40
0.0
 40
0.0
 40
0.0
 40
0.125041276
 40
0.1875058798
 40
0.2500126898
 40
0.3127665892
 40
0.3753837793
 40
0.4377860893
 40
0.5004192767
 40
0.562954363
 40
0.6254981174
 40
0.6880576862
 40
0.7506414924
 40
1.0
 40
1.0
 40
1.0
 40
1.0
 10
85.3764957544
 20
95.5082815388
 30
0.0
 10
85.3800570345
 20
95.5365824068
 30
0.0
 10
85.3848853656
 20
95.5790851209
 30
0.0
 10
85.3924283905
 20
95.6356170367
 30
0.0
 10
85.3994615316
 20
95.6778812056
 30
0.0
 10
85.4084292913
 20
95.7197678356
 30
0.0
 10
85.4207754103
 20
95.7610391035
 30
0.0
 10
85.4430569076
 20
95.7980905902
 30
0.0
 10
85.471725203
 20
95.8300356272
 30
0.0
 10
85.5038561308
 20
95.8584335809
 30
0.0
 10
85.5386580272
 20
95.8835165091
 30
0.0
 10
85.5765429874
 20
95.9037294831
 30
0.0
 10
85.6565254359
 20
95.9342890801
 30
0.0
 10
85.7291831955
 20
95.9404292938
 30
0.0
 10
85.7860576147
 20
95.9404292938
 30
0.0
  0
SPLINE
  5
66C
100
AcDbEntity
  8
INCISIONI
100
AcDbSpline
 62
250
  6
CONTINUOUS
 70
0
 71
3
 72
24
 73
20
 74
0
 42
0.0000001
 43
0.0000001
 44
0.0000000001
 40
0.0
 40
0.0
 40
0.0
 40
0.0
 40
0.1248133361
 40
0.1872952105
 40
0.2500507548
 40
0.3128168875
 40
0.3753688241
 40
0.4378190927
 40
0.50029033
 40
0.5627596301
 40
0.6252074747
 40
0.6564565901
 40
0.6877092359
 40
0.7189159448
 40
0.7501189804
 40
0.8126484041
 40
0.8751199385
 40
0.9375473376
 40
1.0
 40
1.0
 40
1.0
 40
1.0
 10
85.7860576147
 20
96.6031962082
 30
0.0
 10
85.7149332598
 20
96.6031962082
 30
0.0
 10
85.6077509634
 20
96.5956668147
 30
0.0
 10
85.4685934614
 20
96.563632139
 30
0.0
 10
85.3680083292
 20
96.5257299887
 30
0.0
 10
85.2736789217
 20
96.4740455636
 30
0.0
 10
85.1885735586
 20
96.4083978395
 30
0.0
 10
85.1156719987
 20
96.3296104581
 30
0.0
 10
85.0566915454
 20
96.2400310307
 30
0.0
 10
85.0113242944
 20
96.1430997594
 30
0.0
 10
84.9801341559
 20
96.0596906546
 30
0.0
 10
84.9578574399
 20
95.9920467264
 30
0.0
 10
84.9426620045
 20
95.9408330007
 30
0.0
 10
84.930239743
 20
95.8888772633
 30
0.0
 10
84.9185995927
 20
95.8185771807
 30
0.0
 10
84.9106572748
 20
95.7298388824
 30
0.0
 10
84.9039370249
 20
95.6232386233
 30
0.0
 10
84.8988759054
 20
95.5165744709
 30
0.0
 10
84.8960275145
 20
95.4454588594
 30
0.0
 10
84.8947096129
 20
95.4098894654
 30
0.0
  0
SPLINE
  5
66D
100
AcDbEntity
  8
INCISIONI
100
AcDbSpline
 62
250
  6
CONTINUOUS
 70
0
 71
3
 72
24
 73
20
 74
0
 42
0.0000001
 43
0.0000001
 44
0.0000000001
 40
0.0
 40
0.0
 40
0.0
 40
0.0
 40
0.0624526624
 40
0.1248800615
 40
0.1873515959
 40
0.2498810196
 40
0.2810840552
 40
0.3122907641
 40
0.3435434099
 40
0.3747925253
 40
0.4372403699
 40
0.49970967
 40
0.5621809073
 40
0.6246311759
 40
0.6871831125
 40
0.7499492452
 40
0.8127047895
 40
0.8751866639
 40
1.0
 40
1.0
 40
1.0
 40
1.0
 10
86.6774056164
 20
95.4098894654
 30
0.0
 10
86.6760877148
 20
95.4454588594
 30
0.0
 10
86.6732393239
 20
95.5165744709
 30
0.0
 10
86.6681782044
 20
95.6232386233
 30
0.0
 10
86.6614579546
 20
95.7298388824
 30
0.0
 10
86.6535156366
 20
95.8185771807
 30
0.0
 10
86.6418754863
 20
95.8888772633
 30
0.0
 10
86.6294532249
 20
95.9408330007
 30
0.0
 10
86.6142577894
 20
95.9920467264
 30
0.0
 10
86.5919810734
 20
96.0596906546
 30
0.0
 10
86.5607909349
 20
96.1430997594
 30
0.0
 10
86.5154236839
 20
96.2400310307
 30
0.0
 10
86.4564432307
 20
96.3296104581
 30
0.0
 10
86.3835416707
 20
96.4083978395
 30
0.0
 10
86.2984363076
 20
96.4740455636
 30
0.0
 10
86.2041069002
 20
96.5257299887
 30
0.0
 10
86.1035217679
 20
96.563632139
 30
0.0
 10
85.964364266
 20
96.5956668147
 30
0.0
 10
85.8571819696
 20
96.6031962082
 30
0.0
 10
85.7860576147
 20
96.6031962082
 30
0.0
  0
SPLINE
  5
66E
100
AcDbEntity
  8
INCISIONI
100
AcDbSpline
 62
250
  6
CONTINUOUS
 70
0
 71
3
 72
29
 73
25
 74
0
 42
0.0000001
 43
0.0000001
 44
0.0000000001
 40
0.0
 40
0.0
 40
0.0
 40
0.0
 40
0.0454545455
 40
0.0909090909
 40
0.1363636364
 40
0.1818181818
 40
0.2272727273
 40
0.2727272727
 40
0.3181818182
 40
0.3636363636
 40
0.4090909091
 40
0.4545454545
 40
0.5
 40
0.5454545455
 40
0.5909090909
 40
0.6363636364
 40
0.6818181818
 40
0.7272727273
 40
0.7727272727
 40
0.8181818182
 40
0.8636363636
 40
0.9090909091
 40
0.9545454545
 40
1.0
 40
1.0
 40
1.0
 40
1.0
 10
86.6030709699
 20
87.5666454079
 30
0.0
 10
86.5887356757
 20
87.6006868883
 30
0.0
 10
86.555781802
 20
87.6670547888
 30
0.0
 10
86.4943903497
 20
87.7596266684
 30
0.0
 10
86.4219586779
 20
87.843858972
 30
0.0
 10
86.3396199928
 20
87.9184232711
 30
0.0
 10
86.2486502104
 20
87.9821675644
 30
0.0
 10
86.1504622113
 20
88.0341007677
 30
0.0
 10
86.0465801385
 20
88.0734170481
 30
0.0
 10
85.9386167452
 20
88.0995059363
 30
0.0
 10
85.828248088
 20
88.1119624462
 30
0.0
 10
85.7171875786
 20
88.1105931903
 30
0.0
 10
85.6071593656
 20
88.0954194274
 30
0.0
 10
85.4998715727
 20
88.0666767206
 30
0.0
 10
85.3969897801
 20
88.0248112844
 30
0.0
 10
85.3001111672
 20
87.9704730529
 30
0.0
 10
85.2107397178
 20
87.9045056035
 30
0.0
 10
85.1302628712
 20
87.8279330113
 30
0.0
 10
85.0599299834
 20
87.7419441369
 30
0.0
 10
85.0008329311
 20
87.6478734737
 30
0.0
 10
84.9538891616
 20
87.5471830318
 30
0.0
 10
84.9198274493
 20
87.441429932
 30
0.0
 10
84.8991765823
 20
87.3322784682
 30
0.0
 10
84.8945636296
 20
87.2583188471
 30
0.0
 10
84.8945636296
 20
87.2213804079
 30
0.0
  0
SPLINE
  5
66F
100
AcDbEntity
  8
ON_OFF_PORTATASTO
100
AcDbSpline
 62
7
  6
CONTINUOUS
 70
0
 71
3
 72
16
 73
12
 74
0
 42
0.0000001
 43
0.0000001
 44
0.0000000001
 40
0.0
 40
0.0
 40
0.0
 40
0.0
 40
0.1113320035
 40
0.2205139492
 40
0.3305250502
 40
0.4450381556
 40
0.5678128243
 40
0.7016760482
 40
0.7731557221
 40
0.8472266554
 40
1.0
 40
1.0
 40
1.0
 40
1.0
 10
92.2315408646
 20
70.1216694079
 30
0.0
 10
92.2378786434
 20
70.1371642858
 30
0.0
 10
92.2474894572
 20
70.1691998276
 30
0.0
 10
92.2507521723
 20
70.2192533661
 30
0.0
 10
92.2414023924
 20
70.2691279759
 30
0.0
 10
92.2184398043
 20
70.316717865
 30
0.0
 10
92.1814806898
 20
70.3593674964
 30
0.0
 10
92.140294553
 20
70.3875424203
 30
0.0
 10
92.1018166235
 20
70.4046352207
 30
0.0
 10
92.0588280149
 20
70.4177526411
 30
0.0
 10
92.0245201304
 20
70.4216694079
 30
0.0
 10
92.0015476919
 20
70.4216694079
 30
0.0
  0
SPLINE
  5
670
100
AcDbEntity
  8
ON_OFF_PORTATASTO
100
AcDbSpline
 62
250
  6
CONTINUOUS
 70
0
 71
3
 72
26
 73
22
 74
0
 42
0.0000001
 43
0.0000001
 44
0.0000000001
 40
0.0
 40
0.0
 40
0.0
 40
0.0
 40
0.1952381208
 40
0.3828749837
 40
0.5557520913
 40
0.6345520337
 40
0.7072376713
 40
0.7731076097
 40
0.8315332253
 40
0.8819531406
 40
0.9238816553
 40
0.9415349362
 40
0.9569209559
 40
0.9700021907
 40
0.9807506496
 40
0.9891391341
 40
0.9951459667
 40
0.9972533322
 40
0.9987625092
 40
0.9996742481
 40
1.0
 40
1.0
 40
1.0
 40
1.0
 10
82.0574266787
 20
115.6660069752
 30
0.0
 10
82.0655382748
 20
115.6519568031
 30
0.0
 10
82.0814322823
 20
115.6243957541
 30
0.0
 10
82.1044623519
 20
115.5843669375
 30
0.0
 10
82.1226316135
 20
115.5527042394
 30
0.0
 10
82.136021365
 20
115.52931192
 30
0.0
 10
82.1449809849
 20
115.5136293667
 30
0.0
 10
82.1530868839
 20
115.4994089428
 30
0.0
 10
82.1602613779
 20
115.4867872769
 30
0.0
 10
82.166435681
 20
115.475885529
 30
0.0
 10
82.1709236045
 20
115.4679222698
 30
0.0
 10
82.1739681209
 20
115.4624874767
 30
0.0
 10
82.1758342494
 20
115.4591397321
 30
0.0
 10
82.1774120257
 20
115.4562893842
 30
0.0
 10
82.1787013163
 20
115.4539405091
 30
0.0
 10
82.1796901317
 20
115.4521064259
 30
0.0
 10
82.1803400072
 20
115.4508853799
 30
0.0
 10
82.1806876395
 20
115.4501827671
 30
0.0
 10
82.1808712444
 20
115.4498247259
 30
0.0
 10
82.1809242725
 20
115.4496485531
 30
0.0
 10
82.1809956881
 20
115.4495141587
 30
0.0
 10
82.1809722458
 20
115.4495006242
 30
0.0
  0
SPLINE
  5
671
100
AcDbEntity
  8
ON_OFF_PORTATASTO
100
AcDbSpline
 62
7
  6
CONTINUOUS
 70
0
 71
3
 72
23
 73
19
 74
0
 42
0.0000001
 43
0.0000001
 44
0.0000000001
 40
0.0
 40
0.0
 40
0.0
 40
0.0
 40
0.0027942458
 40
0.0078369313
 40
0.0151532001
 40
0.0247374146
 40
0.0365698817
 40
0.0506274694
 40
0.0852846656
 40
0.1283942149
 40
0.1795587292
 40
0.2383060748
 40
0.3040940149
 40
0.3763139288
 40
0.4542967213
 40
0.624619181
 40
0.8087789455
 40
1.0
 40
1.0
 40
1.0
 40
1.0
 10
81.4484523957
 20
114.2288984939
 30
0.0
 10
81.4482350678
 20
114.2284865751
 30
0.0
 10
81.4479805523
 20
114.2271784989
 30
0.0
 10
81.4476272958
 20
114.2246940451
 30
0.0
 10
81.4473213397
 20
114.2210400266
 30
0.0
 10
81.4470211861
 20
114.2162636917
 30
0.0
 10
81.4467523512
 20
114.2103555622
 30
0.0
 10
81.4464034558
 20
114.2002702807
 30
0.0
 10
81.446070927
 20
114.1849680574
 30
0.0
 10
81.4458071336
 20
114.1634799222
 30
0.0
 10
81.4456666288
 20
114.1379750521
 30
0.0
 10
81.4456509742
 20
114.1086900098
 30
0.0
 10
81.4457621215
 20
114.0758957043
 30
0.0
 10
81.4459994347
 20
114.0398959274
 30
0.0
 10
81.4464971016
 20
113.9864742626
 30
0.0
 10
81.4474280607
 20
113.9143983764
 30
0.0
 10
81.4489535913
 20
113.8234552434
 30
0.0
 10
81.4502067553
 20
113.7609005747
 30
0.0
 10
81.4509068887
 20
113.7290362586
 30
0.0
  0
SPLINE
  5
672
100
AcDbEntity
  8
ON_OFF_PORTATASTO
100
AcDbSpline
 62
7
  6
CONTINUOUS
 70
0
 71
3
 72
23
 73
19
 74
0
 42
0.0000001
 43
0.0000001
 44
0.0000000001
 40
0.0
 40
0.0
 40
0.0
 40
0.0
 40
0.1912210545
 40
0.375380819
 40
0.5457032787
 40
0.6236860712
 40
0.6959059851
 40
0.7616939252
 40
0.8204412708
 40
0.8716057851
 40
0.9147153344
 40
0.9493725306
 40
0.9634301183
 40
0.9752625854
 40
0.9848467999
 40
0.9921630687
 40
0.9972057542
 40
1.0
 40
1.0
 40
1.0
 40
1.0
 10
81.4509068887
 20
69.9143025572
 30
0.0
 10
81.4502067553
 20
69.8824382411
 30
0.0
 10
81.4489535913
 20
69.8198835724
 30
0.0
 10
81.4474280607
 20
69.7289404394
 30
0.0
 10
81.4464971016
 20
69.6568645531
 30
0.0
 10
81.4459994347
 20
69.6034428884
 30
0.0
 10
81.4457621215
 20
69.5674431115
 30
0.0
 10
81.4456509742
 20
69.534648806
 30
0.0
 10
81.4456666288
 20
69.5053637637
 30
0.0
 10
81.4458071336
 20
69.4798588936
 30
0.0
 10
81.446070927
 20
69.4583707583
 30
0.0
 10
81.4464034558
 20
69.4430685351
 30
0.0
 10
81.4467523512
 20
69.4329832536
 30
0.0
 10
81.4470211861
 20
69.4270751241
 30
0.0
 10
81.4473213397
 20
69.4222987892
 30
0.0
 10
81.4476272958
 20
69.4186447707
 30
0.0
 10
81.4479805523
 20
69.4161603169
 30
0.0
 10
81.4482350678
 20
69.4148522407
 30
0.0
 10
81.4484523957
 20
69.4144403219
 30
0.0
  0
SPLINE
  5
673
100
AcDbEntity
  8
ON_OFF_PORTATASTO
100
AcDbSpline
 62
250
  6
CONTINUOUS
 70
0
 71
3
 72
32
 73
28
 74
0
 42
0.0000001
 43
0.0000001
 44
0.0000000001
 40
0.0
 40
0.0
 40
0.0
 40
0.0
 40
0.1945763261
 40
0.3817979651
 40
0.4704061198
 40
0.5545340423
 40
0.6333694021
 40
0.7061474481
 40
0.7721583508
 40
0.8307550631
 40
0.8813604472
 40
0.9035071637
 40
0.923473955
 40
0.941212608
 40
0.9566775845
 40
0.9698316019
 40
0.9806412069
 40
0.9851581644
 40
0.9890797432
 40
0.9924033931
 40
0.9951266301
 40
0.9972479186
 40
0.9987666195
 40
0.9992998973
 40
0.9996825174
 40
0.9999148728
 40
1.0
 40
1.0
 40
1.0
 40
1.0
 10
76.4788819479
 20
74.5094176012
 30
0.0
 10
76.4841300823
 20
74.4444493659
 30
0.0
 10
76.4944607979
 20
74.316971244
 30
0.0
 10
76.5072700591
 20
74.1599144213
 30
0.0
 10
76.5171255024
 20
74.0397379522
 30
0.0
 10
76.5240407558
 20
73.9557498716
 30
0.0
 10
76.5305494196
 20
73.8770490886
 30
0.0
 10
76.5365884173
 20
73.8043990914
 30
0.0
 10
76.5420986964
 20
73.7385081475
 30
0.0
 10
76.547026163
 20
73.6800218786
 30
0.0
 10
76.5507548306
 20
73.6361804568
 30
0.0
 10
76.5534137838
 20
73.6052351788
 30
0.0
 10
76.5551439154
 20
73.5852604769
 30
0.0
 10
76.5566959706
 20
73.5675170139
 30
0.0
 10
76.5580660106
 20
73.5520485061
 30
0.0
 10
76.55925052
 20
73.5388938185
 30
0.0
 10
76.5601253404
 20
73.5293934091
 30
0.0
 10
76.5607328622
 20
73.5229743857
 30
0.0
 10
76.5611123162
 20
73.5190523104
 30
0.0
 10
76.5614436766
 20
73.5157302374
 30
0.0
 10
76.5617251687
 20
73.5130065387
 30
0.0
 10
76.5619599226
 20
73.5108930409
 30
0.0
 10
76.5621228973
 20
73.5094939258
 30
0.0
 10
76.5622395475
 20
73.5087009095
 30
0.0
 10
76.5622929057
 20
73.5082965064
 30
0.0
 10
76.5623525042
 20
73.5081107539
 30
0.0
 10
76.5623694734
 20
73.5079604409
 30
0.0
 10
76.5623979828
 20
73.5079598176
 30
0.0
  0
SPLINE
  5
674
100
AcDbEntity
  8
ON_OFF_PORTATASTO
100
AcDbSpline
 62
7
  6
CONTINUOUS
 70
0
 71
3
 72
13
 73
9
 74
0
 42
0.0000001
 43
0.0000001
 44
0.0000000001
 40
0.0
 40
0.0
 40
0.0
 40
0.0
 40
0.3612019825
 40
0.6821457124
 40
0.8126469111
 40
0.9136930364
 40
0.9780311976
 40
1.0
 40
1.0
 40
1.0
 40
1.0
 10
80.054517813
 20
115.088656706
 30
0.0
 10
80.024548862
 20
115.0713536848
 30
0.0
 10
79.9679633802
 20
115.0386548764
 30
0.0
 10
79.900601271
 20
114.9996169805
 30
0.0
 10
79.8548209357
 20
114.9730461606
 30
0.0
 10
79.8303539922
 20
114.9587311062
 30
0.0
 10
79.8148215784
 20
114.9497321077
 30
0.0
 10
79.8077610177
 20
114.9454286323
 30
0.0
 10
79.8059722458
 20
114.9443191387
 30
0.0
  0
SPLINE
  5
675
100
AcDbEntity
  8
ON_OFF_PORTATASTO
100
AcDbSpline
 62
250
  6
CONTINUOUS
 70
0
 71
3
 72
26
 73
22
 74
0
 42
0.0000001
 43
0.0000001
 44
0.0000000001
 40
0.0
 40
0.0
 40
0.0
 40
0.0
 40
0.1952383918
 40
0.3828751996
 40
0.5557522696
 40
0.6345521823
 40
0.7072377922
 40
0.7731077036
 40
0.8315332971
 40
0.8819531884
 40
0.9238816869
 40
0.9415349589
 40
0.9569209738
 40
0.9700022033
 40
0.980750657
 40
0.9891391387
 40
0.9951459694
 40
0.9972533339
 40
0.99876251
 40
0.9996742483
 40
1.0
 40
1.0
 40
1.0
 40
1.0
 10
79.054517813
 20
115.6660069752
 30
0.0
 10
79.0464062057
 20
115.6519567836
 30
0.0
 10
79.0305121892
 20
115.624395719
 30
0.0
 10
79.0074821122
 20
115.5843668896
 30
0.0
 10
78.9893128557
 20
115.5527042002
 30
0.0
 10
78.9759231082
 20
115.5293118876
 30
0.0
 10
78.9669634918
 20
115.5136293405
 30
0.0
 10
78.958857596
 20
115.4994089221
 30
0.0
 10
78.951683105
 20
115.4867872615
 30
0.0
 10
78.9455088045
 20
115.475885518
 30
0.0
 10
78.941020883
 20
115.4679222624
 30
0.0
 10
78.9379763679
 20
115.4624874715
 30
0.0
 10
78.9361102402
 20
115.4591397282
 30
0.0
 10
78.9345324645
 20
115.4562893814
 30
0.0
 10
78.9332431744
 20
115.4539405073
 30
0.0
 10
78.9322543594
 20
115.4521064248
 30
0.0
 10
78.9316044841
 20
115.4508853793
 30
0.0
 10
78.9312568519
 20
115.4501827667
 30
0.0
 10
78.9310732472
 20
115.4498247257
 30
0.0
 10
78.9310202191
 20
115.449648553
 30
0.0
 10
78.9309488035
 20
115.4495141587
 30
0.0
 10
78.9309722458
 20
115.4495006242
 30
0.0
  0
SPLINE
  5
676
100
AcDbEntity
  8
ON_OFF_PORTATASTO
100
AcDbSpline
 62
7
  6
CONTINUOUS
 70
0
 71
3
 72
9
 73
5
 74
0
 42
0.0000001
 43
0.0000001
 44
0.0000000001
 40
0.0
 40
0.0
 40
0.0
 40
0.0
 40
0.517786632
 40
1.0
 40
1.0
 40
1.0
 40
1.0
 10
80.054517813
 20
114.1550803693
 30
0.0
 10
80.0331098158
 20
114.1539426099
 30
0.0
 10
79.9917457964
 20
114.1521151027
 30
0.0
 10
79.9503670921
 20
114.1506251522
 30
0.0
 10
79.9304291038
 20
114.1495802465
 30
0.0
  0
SPLINE
  5
677
100
AcDbEntity
  8
ON_OFF_PORTATASTO
100
AcDbSpline
 62
250
  6
CONTINUOUS
 70
0
 71
3
 72
26
 73
22
 74
0
 42
0.0000001
 43
0.0000001
 44
0.0000000001
 40
0.0
 40
0.0
 40
0.0
 40
0.0
 40
0.1950812131
 40
0.3826499456
 40
0.5555245119
 40
0.6343402047
 40
0.7070490478
 40
0.7729468713
 40
0.8314025054
 40
0.881852257
 40
0.9238084245
 40
0.9414741935
 40
0.956871577
 40
0.9699629139
 40
0.9807201421
 40
0.9891160416
 40
0.9951290477
 40
0.9972391968
 40
0.998751184
 40
0.9996663718
 40
1.0
 40
1.0
 40
1.0
 40
1.0
 10
79.054517813
 20
116.05857506
 30
0.0
 10
79.0544232335
 20
116.0748324438
 30
0.0
 10
79.0542556274
 20
116.1067212552
 30
0.0
 10
79.0540663877
 20
116.1530171254
 30
0.0
 10
79.0539643972
 20
116.189623921
 30
0.0
 10
79.0539228585
 20
116.2166586323
 30
0.0
 10
79.0539121606
 20
116.2347781565
 30
0.0
 10
79.0539209433
 20
116.2512009138
 30
0.0
 10
79.0539489266
 20
116.265768635
 30
0.0
 10
79.0539957483
 20
116.2783410135
 30
0.0
 10
79.0540522138
 20
116.2875140661
 30
0.0
 10
79.0541092324
 20
116.2937656551
 30
0.0
 10
79.0541536985
 20
116.2976120768
 30
0.0
 10
79.0542025399
 20
116.3008816432
 30
0.0
 10
79.0542541933
 20
116.3035704347
 30
0.0
 10
79.0543113535
 20
116.3056616058
 30
0.0
 10
79.0543603375
 20
116.3070485782
 30
0.0
 10
79.0544113913
 20
116.3078351246
 30
0.0
 10
79.0544363371
 20
116.3082369418
 30
0.0
 10
79.0544767988
 20
116.3084204943
 30
0.0
 10
79.0544900096
 20
116.3085706674
 30
0.0
 10
79.054517813
 20
116.3085708292
 30
0.0
  0
SPLINE
  5
678
100
AcDbEntity
  8
ON_OFF_PORTATASTO
100
AcDbSpline
 62
250
  6
CONTINUOUS
 70
0
 71
3
 72
26
 73
22
 74
0
 42
0.0000001
 43
0.0000001
 44
0.0000000001
 40
0.0
 40
0.0
 40
0.0
 40
0.0
 40
0.1950812131
 40
0.3826499456
 40
0.5555245119
 40
0.6343402047
 40
0.7070490478
 40
0.7729468713
 40
0.8314025054
 40
0.881852257
 40
0.9238084245
 40
0.9414741935
 40
0.956871577
 40
0.9699629139
 40
0.9807201421
 40
0.9891160416
 40
0.9951290477
 40
0.9972391968
 40
0.998751184
 40
0.9996663718
 40
1.0
 40
1.0
 40
1.0
 40
1.0
 10
82.0574266787
 20
116.0673018047
 30
0.0
 10
82.0575212582
 20
116.0835591885
 30
0.0
 10
82.0576888643
 20
116.1154479999
 30
0.0
 10
82.057878104
 20
116.1617438701
 30
0.0
 10
82.0579800945
 20
116.1983506657
 30
0.0
 10
82.0580216331
 20
116.225385377
 30
0.0
 10
82.0580323311
 20
116.2435049012
 30
0.0
 10
82.0580235484
 20
116.2599276585
 30
0.0
 10
82.0579955651
 20
116.2744953797
 30
0.0
 10
82.0579487434
 20
116.2870677582
 30
0.0
 10
82.0578922779
 20
116.2962408109
 30
0.0
 10
82.0578352593
 20
116.3024923998
 30
0.0
 10
82.0577907931
 20
116.3063388215
 30
0.0
 10
82.0577419517
 20
116.309608388
 30
0.0
 10
82.0576902984
 20
116.3122971795
 30
0.0
 10
82.0576331381
 20
116.3143883505
 30
0.0
 10
82.0575841542
 20
116.3157753229
 30
0.0
 10
82.0575331004
 20
116.3165618693
 30
0.0
 10
82.0575081546
 20
116.3169636865
 30
0.0
 10
82.0574676929
 20
116.317147239
 30
0.0
 10
82.0574544821
 20
116.3172974121
 30
0.0
 10
82.0574266787
 20
116.3172975739
 30
0.0
  0
SPLINE
  5
679
100
AcDbEntity
  8
ON_OFF_PORTATASTO
100
AcDbSpline
 62
250
  6
CONTINUOUS
 70
0
 71
3
 72
26
 73
22
 74
0
 42
0.0000001
 43
0.0000001
 44
0.0000000001
 40
0.0
 40
0.0
 40
0.0
 40
0.0
 40
0.0003336287
 40
0.0012488177
 40
0.0027608067
 40
0.0048709579
 40
0.0108839684
 40
0.0192798741
 40
0.030037114
 40
0.0431284625
 40
0.0585258558
 40
0.0761916429
 40
0.1181478427
 40
0.168597642
 40
0.2270533184
 40
0.2929511935
 40
0.3656600886
 40
0.4444758366
 40
0.617350481
 40
0.8049193496
 40
1.0
 40
1.0
 40
1.0
 40
1.0
 10
79.054517813
 20
67.3347679866
 30
0.0
 10
79.0544900096
 20
67.3347681484
 30
0.0
 10
79.0544767988
 20
67.3349183217
 30
0.0
 10
79.0544363371
 20
67.3351018744
 30
0.0
 10
79.0544113913
 20
67.3355036922
 30
0.0
 10
79.0543603375
 20
67.3362902392
 30
0.0
 10
79.0543113535
 20
67.3376772127
 30
0.0
 10
79.0542541931
 20
67.3397683856
 30
0.0
 10
79.0542025398
 20
67.3424571795
 30
0.0
 10
79.0541536984
 20
67.3457267487
 30
0.0
 10
79.0541092322
 20
67.3495731738
 30
0.0
 10
79.0540522137
 20
67.3558247677
 30
0.0
 10
79.0539957481
 20
67.3649978285
 30
0.0
 10
79.0539489265
 20
67.3775702172
 30
0.0
 10
79.0539209432
 20
67.3921379502
 30
0.0
 10
79.0539121606
 20
67.4085607197
 30
0.0
 10
79.0539228586
 20
67.4266802571
 30
0.0
 10
79.0539643974
 20
67.4537149838
 30
0.0
 10
79.0540663881
 20
67.4903218019
 30
0.0
 10
79.0542556279
 20
67.536617643
 30
0.0
 10
79.0544232338
 20
67.5685064189
 30
0.0
 10
79.054517813
 20
67.5847637558
 30
0.0
  0
SPLINE
  5
67A
100
AcDbEntity
  8
ON_OFF_PORTATASTO
100
AcDbSpline
 62
250
  6
CONTINUOUS
 70
0
 71
3
 72
26
 73
22
 74
0
 42
0.0000001
 43
0.0000001
 44
0.0000000001
 40
0.0
 40
0.0
 40
0.0
 40
0.0
 40
0.0003336231
 40
0.0012487968
 40
0.0027607651
 40
0.0048708946
 40
0.0108838757
 40
0.0192797639
 40
0.0300369601
 40
0.0431282711
 40
0.0585256474
 40
0.0761913909
 40
0.1181475331
 40
0.1685972589
 40
0.2270528927
 40
0.2929507114
 40
0.3656595626
 40
0.4444752748
 40
0.6173498976
 40
0.8049187019
 40
1.0
 40
1.0
 40
1.0
 40
1.0
 10
82.0574266787
 20
67.3260412419
 30
0.0
 10
82.0574544817
 20
67.3260414036
 30
0.0
 10
82.0574676934
 20
67.3261915739
 30
0.0
 10
82.0575081542
 20
67.3263751243
 30
0.0
 10
82.0575331004
 20
67.3267769366
 30
0.0
 10
82.0575841539
 20
67.3275634779
 30
0.0
 10
82.0576331377
 20
67.3289504456
 30
0.0
 10
82.0576902976
 20
67.331041611
 30
0.0
 10
82.0577419511
 20
67.3337303967
 30
0.0
 10
82.0577907927
 20
67.3369999577
 30
0.0
 10
82.0578352588
 20
67.3408463746
 30
0.0
 10
82.0578922777
 20
67.3470979587
 30
0.0
 10
82.057948743
 20
67.3562710049
 30
0.0
 10
82.057995565
 20
67.3688433791
 30
0.0
 10
82.0580235483
 20
67.3834110977
 30
0.0
 10
82.0580323311
 20
67.3998338553
 30
0.0
 10
82.0580216332
 20
67.4179533814
 30
0.0
 10
82.0579800946
 20
67.4449880997
 30
0.0
 10
82.0578781041
 20
67.4815949077
 30
0.0
 10
82.0576888644
 20
67.5278907957
 30
0.0
 10
82.0575212582
 20
67.5597796202
 30
0.0
 10
82.0574266787
 20
67.5760370111
 30
0.0
  0
SPLINE
  5
67B
100
AcDbEntity
  8
ON_OFF_PORTATASTO
100
AcDbSpline
 62
250
  6
CONTINUOUS
 70
0
 71
3
 72
26
 73
22
 74
0
 42
0.0000001
 43
0.0000001
 44
0.0000000001
 40
0.0
 40
0.0
 40
0.0
 40
0.0
 40
0.1952381208
 40
0.3828749837
 40
0.5557520913
 40
0.6345520337
 40
0.7072376713
 40
0.7731076097
 40
0.8315332253
 40
0.8819531406
 40
0.9238816553
 40
0.9415349362
 40
0.9569209559
 40
0.9700021907
 40
0.9807506496
 40
0.9891391341
 40
0.9951459667
 40
0.9972533322
 40
0.9987625092
 40
0.9996742481
 40
1.0
 40
1.0
 40
1.0
 40
1.0
 10
82.0574266787
 20
67.9773318406
 30
0.0
 10
82.0655382748
 20
67.9913820127
 30
0.0
 10
82.0814322823
 20
68.0189430617
 30
0.0
 10
82.1044623519
 20
68.0589718783
 30
0.0
 10
82.1226316135
 20
68.0906345764
 30
0.0
 10
82.136021365
 20
68.1140268958
 30
0.0
 10
82.1449809849
 20
68.1297094491
 30
0.0
 10
82.1530868839
 20
68.143929873
 30
0.0
 10
82.1602613779
 20
68.1565515389
 30
0.0
 10
82.166435681
 20
68.1674532868
 30
0.0
 10
82.1709236045
 20
68.175416546
 30
0.0
 10
82.1739681209
 20
68.180851339
 30
0.0
 10
82.1758342494
 20
68.1841990837
 30
0.0
 10
82.1774120257
 20
68.1870494316
 30
0.0
 10
82.1787013163
 20
68.1893983067
 30
0.0
 10
82.1796901317
 20
68.1912323899
 30
0.0
 10
82.1803400072
 20
68.1924534359
 30
0.0
 10
82.1806876395
 20
68.1931560487
 30
0.0
 10
82.1808712444
 20
68.1935140899
 30
0.0
 10
82.1809242725
 20
68.1936902627
 30
0.0
 10
82.1809956881
 20
68.1938246571
 30
0.0
 10
82.1809722458
 20
68.1938381915
 30
0.0
  0
SPLINE
  5
67C
100
AcDbEntity
  8
ON_OFF_PORTATASTO
100
AcDbSpline
 62
250
  6
CONTINUOUS
 70
0
 71
3
 72
26
 73
22
 74
0
 42
0.0000001
 43
0.0000001
 44
0.0000000001
 40
0.0
 40
0.0
 40
0.0
 40
0.0
 40
0.1952381208
 40
0.3828749837
 40
0.5557520913
 40
0.6345520337
 40
0.7072376713
 40
0.7731076097
 40
0.8315332253
 40
0.8819531406
 40
0.9238816553
 40
0.9415349362
 40
0.9569209559
 40
0.9700021907
 40
0.9807506496
 40
0.9891391341
 40
0.9951459667
 40
0.9972533322
 40
0.9987625092
 40
0.9996742481
 40
1.0
 40
1.0
 40
1.0
 40
1.0
 10
79.054517813
 20
67.9773318406
 30
0.0
 10
79.0464062169
 20
67.9913820127
 30
0.0
 10
79.0305122094
 20
68.0189430617
 30
0.0
 10
79.0074821397
 20
68.0589718783
 30
0.0
 10
78.9893128781
 20
68.0906345764
 30
0.0
 10
78.9759231267
 20
68.1140268958
 30
0.0
 10
78.9669635068
 20
68.1297094491
 30
0.0
 10
78.9588576078
 20
68.143929873
 30
0.0
 10
78.9516831138
 20
68.1565515389
 30
0.0
 10
78.9455088107
 20
68.1674532868
 30
0.0
 10
78.9410208872
 20
68.175416546
 30
0.0
 10
78.9379763708
 20
68.180851339
 30
0.0
 10
78.9361102423
 20
68.1841990837
 30
0.0
 10
78.934532466
 20
68.1870494316
 30
0.0
 10
78.9332431754
 20
68.1893983067
 30
0.0
 10
78.9322543599
 20
68.1912323899
 30
0.0
 10
78.9316044845
 20
68.1924534359
 30
0.0
 10
78.9312568521
 20
68.1931560487
 30
0.0
 10
78.9310732473
 20
68.1935140899
 30
0.0
 10
78.9310202192
 20
68.1936902627
 30
0.0
 10
78.9309488035
 20
68.1938246571
 30
0.0
 10
78.9309722458
 20
68.1938381915
 30
0.0
  0
SPLINE
  5
67D
100
AcDbEntity
  8
ON_OFF_PORTATASTO
100
AcDbSpline
 62
7
  6
CONTINUOUS
 70
0
 71
3
 72
13
 73
9
 74
0
 42
0.0000001
 43
0.0000001
 44
0.0000000001
 40
0.0
 40
0.0
 40
0.0
 40
0.0
 40
0.3606048224
 40
0.681165409
 40
0.8116416695
 40
0.912826711
 40
0.977487336
 40
1.0
 40
1.0
 40
1.0
 40
1.0
 10
80.054517813
 20
68.5546821098
 30
0.0
 10
80.0245984094
 20
68.571956524
 30
0.0
 10
79.968094284
 20
68.6046083965
 30
0.0
 10
79.9008152107
 20
68.6435975157
 30
0.0
 10
79.8550572927
 20
68.6701555526
 30
0.0
 10
79.8305534501
 20
68.6844903852
 30
0.0
 10
79.8149383694
 20
68.6935387236
 30
0.0
 10
79.8078056193
 20
68.6978832333
 30
0.0
 10
79.8059722458
 20
68.6990196771
 30
0.0
  0
SPLINE
  5
67E
100
AcDbEntity
  8
ON_OFF_PORTATASTO
100
AcDbSpline
 62
7
  6
CONTINUOUS
 70
0
 71
3
 72
9
 73
5
 74
0
 42
0.0000001
 43
0.0000001
 44
0.0000000001
 40
0.0
 40
0.0
 40
0.0
 40
0.0
 40
0.482213368
 40
1.0
 40
1.0
 40
1.0
 40
1.0
 10
79.9304291038
 20
69.4937585693
 30
0.0
 10
79.9503670921
 20
69.4927136636
 30
0.0
 10
79.9917457964
 20
69.4912237131
 30
0.0
 10
80.0331098158
 20
69.4893962059
 30
0.0
 10
80.054517813
 20
69.4882584465
 30
0.0
  0
SPLINE
  5
67F
100
AcDbEntity
  8
ON_OFF_PORTATASTO
100
AcDbSpline
 62
7
  6
CONTINUOUS
 70
0
 71
3
 72
16
 73
12
 74
0
 42
0.0000001
 43
0.0000001
 44
0.0000000001
 40
0.0
 40
0.0
 40
0.0
 40
0.0
 40
0.1527733391
 40
0.2268442202
 40
0.2983238139
 40
0.4321870445
 40
0.5549617528
 40
0.6694748859
 40
0.7794860043
 40
0.888667977
 40
1.0
 40
1.0
 40
1.0
 40
1.0
 10
92.0015476919
 20
113.2216694079
 30
0.0
 10
92.0245201296
 20
113.2216694079
 30
0.0
 10
92.0588280054
 20
113.2255861736
 30
0.0
 10
92.1018165946
 20
113.2387035855
 30
0.0
 10
92.1402945094
 20
113.2557963717
 30
0.0
 10
92.1814806495
 20
113.2839712816
 30
0.0
 10
92.2184397811
 20
113.3266209135
 30
0.0
 10
92.2414023839
 20
113.3742108101
 30
0.0
 10
92.2507521714
 20
113.4240854299
 30
0.0
 10
92.24748946
 20
113.4741389785
 30
0.0
 10
92.2378786445
 20
113.5061745273
 30
0.0
 10
92.2315408646
 20
113.5216694079
 30
0.0
  0
SPLINE
  5
680
100
AcDbEntity
  8
ON_OFF_TASTOTARGHETTA
100
AcDbSpline
 62
250
  6
CONTINUOUS
 70
0
 71
3
 72
23
 73
19
 74
0
 42
0.0000001
 43
0.0000001
 44
0.0000000001
 40
0.0
 40
0.0
 40
0.0
 40
0.0
 40
0.0012344906
 40
0.0047149487
 40
0.0104814506
 40
0.018534533
 40
0.0288550292
 40
0.0414201247
 40
0.0731908258
 40
0.1136204801
 40
0.1623810132
 40
0.219118894
 40
0.2833945238
 40
0.3547189263
 40
0.4325562267
 40
0.6052868641
 40
0.7964186638
 40
1.0
 40
1.0
 40
1.0
 40
1.0
 10
179.0061936148
 20
113.7495207827
 30
0.0
 10
179.0056824655
 20
113.749507866
 30
0.0
 10
179.0056976156
 20
113.746603346
 30
0.0
 10
179.0048777224
 20
113.7432022606
 30
0.0
 10
179.0045993897
 20
113.7355353135
 30
0.0
 10
179.004011929
 20
113.7257765034
 30
0.0
 10
179.0035501736
 20
113.7128836951
 30
0.0
 10
179.002818466
 20
113.6902984031
 30
0.0
 10
179.0019970387
 20
113.6551719068
 30
0.0
 10
179.0010794933
 20
113.6050911041
 30
0.0
 10
179.0002095752
 20
113.5446513171
 30
0.0
 10
178.9993877407
 20
113.4743388986
 30
0.0
 10
178.9986250152
 20
113.3946777955
 30
0.0
 10
178.9979267797
 20
113.306277253
 30
0.0
 10
178.9970605177
 20
113.1729556959
 30
0.0
 10
178.9962048005
 20
112.9900103784
 30
0.0
 10
178.9955369676
 20
112.7549822219
 30
0.0
 10
178.9953298002
 20
112.5914964228
 30
0.0
 10
178.9952821774
 20
112.5071752759
 30
0.0
  0
SPLINE
  5
681
100
AcDbEntity
  8
ON_OFF_TASTOTARGHETTA
100
AcDbSpline
 62
250
  6
CONTINUOUS
 70
0
 71
3
 72
11
 73
7
 74
0
 42
0.0000001
 43
0.0000001
 44
0.0000000001
 40
0.0
 40
0.0
 40
0.0
 40
0.0
 40
0.2491129259
 40
0.4988045374
 40
0.749195602
 40
1.0
 40
1.0
 40
1.0
 40
1.0
 10
135.7074696312
 20
71.2779583937
 30
0.0
 10
135.7075013376
 20
71.1746220433
 30
0.0
 10
135.7493038032
 20
70.96543388
 30
0.0
 10
135.9275887417
 20
70.7013782623
 30
0.0
 10
136.1932388379
 20
70.5243520111
 30
0.0
 10
136.4033100154
 20
70.4826833326
 30
0.0
 10
136.5073477873
 20
70.4824620535
 30
0.0
  0
SPLINE
  5
682
100
AcDbEntity
  8
ON_OFF_TASTOTARGHETTA
100
AcDbSpline
 62
250
  6
CONTINUOUS
 70
0
 71
3
 72
13
 73
9
 74
0
 42
0.0000001
 43
0.0000001
 44
0.0000000001
 40
0.0
 40
0.0
 40
0.0
 40
0.0
 40
0.0384558271
 40
0.1087270876
 40
0.2083997189
 40
0.3340519132
 40
0.6452752847
 40
1.0
 40
1.0
 40
1.0
 40
1.0
 10
136.5073477873
 20
70.4824620538
 30
0.0
 10
136.5086696439
 20
70.5022116329
 30
0.0
 10
136.5100218776
 20
70.558181733
 30
0.0
 10
136.512200364
 20
70.6654110567
 30
0.0
 10
136.5139929329
 20
70.8175563694
 30
0.0
 10
136.5164941517
 20
71.0937104003
 30
0.0
 10
136.5185263819
 20
71.5011573112
 30
0.0
 10
136.5192231525
 20
71.8439292314
 30
0.0
 10
136.5193249413
 20
72.0265111052
 30
0.0
  0
SPLINE
  5
683
100
AcDbEntity
  8
ON_OFF_TASTOTARGHETTA
100
AcDbSpline
 62
250
  6
CONTINUOUS
 70
0
 71
3
 72
13
 73
9
 74
0
 42
0.0000001
 43
0.0000001
 44
0.0000000001
 40
0.0
 40
0.0
 40
0.0
 40
0.0
 40
0.0385423125
 40
0.1088462492
 40
0.2085203971
 40
0.3341570948
 40
0.6453348124
 40
1.0
 40
1.0
 40
1.0
 40
1.0
 10
135.7074696312
 20
71.2779583937
 30
0.0
 10
135.708781057
 20
71.287124946
 30
0.0
 10
135.7101502089
 20
71.3132876186
 30
0.0
 10
135.7123194315
 20
71.3633074214
 30
0.0
 10
135.7141160646
 20
71.4343241318
 30
0.0
 10
135.7166150315
 20
71.5631850144
 30
0.0
 10
135.7186475371
 20
71.7533373741
 30
0.0
 10
135.7193455199
 20
71.9133054741
 30
0.0
 10
135.7194467852
 20
71.9985146177
 30
0.0
  0
SPLINE
  5
684
100
AcDbEntity
  8
ON_OFF_TASTOTARGHETTA
100
AcDbSpline
 62
250
  6
CONTINUOUS
 70
0
 71
3
 72
20
 73
16
 74
0
 42
0.0000001
 43
0.0000001
 44
0.0000000001
 40
0.0
 40
0.0
 40
0.0
 40
0.0
 40
0.0026907016
 40
0.0074097482
 40
0.0235205254
 40
0.0486462932
 40
0.0826809854
 40
0.1253059838
 40
0.1761137178
 40
0.2346811416
 40
0.3004510921
 40
0.4509537915
 40
0.6220691672
 40
0.807600511
 40
1.0
 40
1.0
 40
1.0
 40
1.0
 10
135.7194467852
 20
71.9985146177
 30
0.0
 10
135.7197543433
 20
71.9991645171
 30
0.0
 10
135.7215590637
 20
72.0003177584
 30
0.0
 10
135.7273697589
 20
72.002409462
 30
0.0
 10
135.7395922458
 20
72.0047107398
 30
0.0
 10
135.7594621858
 20
72.0073175672
 30
0.0
 10
135.7865802592
 20
72.0098504084
 30
0.0
 10
135.8205409295
 20
72.0123165013
 30
0.0
 10
135.8610961256
 20
72.0146551379
 30
0.0
 10
135.9078458943
 20
72.0168418997
 30
0.0
 10
135.9812353661
 20
72.0196484674
 30
0.0
 10
136.0847146557
 20
72.0225118504
 30
0.0
 10
136.2202136264
 20
72.0249244039
 30
0.0
 10
136.3669225221
 20
72.0263331906
 30
0.0
 10
136.467912638
 20
72.0265719425
 30
0.0
 10
136.5193249413
 20
72.0265111039
 30
0.0
  0
SPLINE
  5
685
100
AcDbEntity
  8
ON_OFF_TASTOTARGHETTA
100
AcDbSpline
 62
250
  6
CONTINUOUS
 70
0
 71
3
 72
9
 73
5
 74
0
 42
0.0000001
 43
0.0000001
 44
0.0000000001
 40
0.0
 40
0.0
 40
0.0
 40
0.0
 40
0.2511942406
 40
1.0
 40
1.0
 40
1.0
 40
1.0
 10
136.5193249413
 20
72.0265111052
 30
0.0
 10
136.5233305801
 20
75.4160124181
 30
0.0
 10
136.5353072894
 20
88.9095638564
 30
0.0
 10
136.5314375805
 20
102.4031297104
 30
0.0
 10
136.5193249413
 20
112.5071752759
 30
0.0
  0
SPLINE
  5
686
100
AcDbEntity
  8
ON_OFF_TASTOTARGHETTA
100
AcDbSpline
 62
250
  6
CONTINUOUS
 70
0
 71
3
 72
9
 73
5
 74
0
 42
0.0000001
 43
0.0000001
 44
0.0000000001
 40
0.0
 40
0.0
 40
0.0
 40
0.0
 40
0.2511942407
 40
1.0
 40
1.0
 40
1.0
 40
1.0
 10
135.7194467852
 20
71.9985146177
 30
0.0
 10
135.723452424
 20
75.3789772515
 30
0.0
 10
135.7354291334
 20
88.8365458684
 30
0.0
 10
135.7315594238
 20
102.2941289396
 30
0.0
 10
135.7194467852
 20
112.3712303506
 30
0.0
  0
SPLINE
  5
687
100
AcDbEntity
  8
ON_OFF_TASTOTARGHETTA
100
AcDbSpline
 62
250
  6
CONTINUOUS
 70
0
 71
3
 72
15
 73
11
 74
0
 42
0.0000001
 43
0.0000001
 44
0.0000000001
 40
0.0
 40
0.0
 40
0.0
 40
0.0
 40
0.0384657327
 40
0.067175544
 40
0.1032889189
 40
0.1978596384
 40
0.320631926
 40
0.4676722771
 40
0.6339712084
 40
1.0
 40
1.0
 40
1.0
 40
1.0
 10
135.7194467853
 20
112.3712303506
 30
0.0
 10
135.7205187406
 20
112.3817950806
 30
0.0
 10
135.7346751318
 20
112.3974470599
 30
0.0
 10
135.7585668155
 20
112.412005042
 30
0.0
 10
135.7990119105
 20
112.4301979219
 30
0.0
 10
135.8662894049
 20
112.4496890151
 30
0.0
 10
135.9650471595
 20
112.469360668
 30
0.0
 10
136.0843943263
 20
112.4855787804
 30
0.0
 10
136.2712367475
 20
112.5023307674
 30
0.0
 10
136.4182779235
 20
112.5070537487
 30
0.0
 10
136.5193249413
 20
112.5071716146
 30
0.0
  0
SPLINE
  5
688
100
AcDbEntity
  8
ON_OFF_TASTOTARGHETTA
100
AcDbSpline
 62
250
  6
CONTINUOUS
 70
0
 71
3
 72
23
 73
19
 74
0
 42
0.0000001
 43
0.0000001
 44
0.0000000001
 40
0.0
 40
0.0
 40
0.0
 40
0.0
 40
0.2035807846
 40
0.3947121203
 40
0.567442426
 40
0.6452796231
 40
0.7166039701
 40
0.7808795947
 40
0.8376175245
 40
0.8863781617
 40
0.9268079771
 40
0.9585788971
 40
0.9711441232
 40
0.9814647642
 40
0.9895180057
 40
0.9952846805
 40
0.9987653232
 40
1.0
 40
1.0
 40
1.0
 40
1.0
 10
136.5193249413
 20
112.5071752759
 30
0.0
 10
136.5192773187
 20
112.5914961929
 30
0.0
 10
136.5190701521
 20
112.7549815686
 30
0.0
 10
136.5184023224
 20
112.9900091632
 30
0.0
 10
136.5175466095
 20
113.1729541052
 30
0.0
 10
136.5166803518
 20
113.3062754568
 30
0.0
 10
136.5159821197
 20
113.3946759301
 30
0.0
 10
136.5152193977
 20
113.4743370267
 30
0.0
 10
136.5143975668
 20
113.5446495061
 30
0.0
 10
136.5135276529
 20
113.60508942
 30
0.0
 10
136.5126101094
 20
113.6551704289
 30
0.0
 10
136.511788689
 20
113.6902971214
 30
0.0
 10
136.5110569791
 20
113.7128826406
 30
0.0
 10
136.5105952374
 20
113.7257755814
 30
0.0
 10
136.5100077451
 20
113.7355347103
 30
0.0
 10
136.5097294892
 20
113.7432016039
 30
0.0
 10
136.5089094431
 20
113.7466033611
 30
0.0
 10
136.5089247716
 20
113.7495076172
 30
0.0
 10
136.5084135514
 20
113.7495207814
 30
0.0
  0
SPLINE
  5
689
100
AcDbEntity
  8
ON_OFF_TASTOTARGHETTA
100
AcDbSpline
 62
250
  6
CONTINUOUS
 70
0
 71
3
 72
20
 73
16
 74
0
 42
0.0000001
 43
0.0000001
 44
0.0000000001
 40
0.0
 40
0.0
 40
0.0
 40
0.0
 40
0.2148257676
 40
0.4152193081
 40
0.5942106146
 40
0.6737559614
 40
0.7457113052
 40
0.8094769241
 40
0.864488972
 40
0.910297394
 40
0.9465024161
 40
0.9728018477
 40
0.9889888831
 40
0.9950723096
 40
1.0
 40
1.0
 40
1.0
 40
1.0
 10
135.7194467852
 20
112.3712303506
 30
0.0
 10
135.7193965156
 20
112.4129776005
 30
0.0
 10
135.7191700362
 20
112.4936672344
 30
0.0
 10
135.7184289903
 20
112.6091392883
 30
0.0
 10
135.7174773403
 20
112.6983170365
 30
0.0
 10
135.7165098642
 20
112.7625380151
 30
0.0
 10
135.7157370892
 20
112.8043553348
 30
0.0
 10
135.7148902341
 20
112.8414378384
 30
0.0
 10
135.7139994474
 20
112.8733298208
 30
0.0
 10
135.7130115536
 20
112.9001671102
 30
0.0
 10
135.7121201231
 20
112.9206011765
 30
0.0
 10
135.7109079149
 20
112.9372333558
 30
0.0
 10
135.7103626134
 20
112.944129062
 30
0.0
 10
135.7088362443
 20
112.9527302944
 30
0.0
 10
135.7076580673
 20
112.9492767176
 30
0.0
 10
135.7074696312
 20
112.9483378383
 30
0.0
  0
SPLINE
  5
68A
100
AcDbEntity
  8
ON_OFF_TASTOTARGHETTA
100
AcDbSpline
 62
250
  6
CONTINUOUS
 70
0
 71
3
 72
20
 73
16
 74
0
 42
0.0000001
 43
0.0000001
 44
0.0000000001
 40
0.0
 40
0.0
 40
0.0
 40
0.0
 40
0.0049276903
 40
0.0110111168
 40
0.0271981522
 40
0.0534975838
 40
0.0897026058
 40
0.1355110279
 40
0.1905230758
 40
0.2542886947
 40
0.3262440385
 40
0.4057893853
 40
0.5847806919
 40
0.7851742324
 40
1.0
 40
1.0
 40
1.0
 40
1.0
 10
179.8071374875
 20
112.9483378383
 30
0.0
 10
179.8069490515
 20
112.9492767176
 30
0.0
 10
179.8057708745
 20
112.9527302943
 30
0.0
 10
179.8042445053
 20
112.944129062
 30
0.0
 10
179.8036992039
 20
112.9372333558
 30
0.0
 10
179.8024869956
 20
112.9206011765
 30
0.0
 10
179.8015955652
 20
112.9001671102
 30
0.0
 10
179.8006076714
 20
112.8733298208
 30
0.0
 10
179.7997168847
 20
112.8414378384
 30
0.0
 10
179.7988700296
 20
112.8043553348
 30
0.0
 10
179.7980972545
 20
112.7625380151
 30
0.0
 10
179.7971297784
 20
112.6983170365
 30
0.0
 10
179.7961781284
 20
112.6091392883
 30
0.0
 10
179.7954370826
 20
112.4936672344
 30
0.0
 10
179.7952106031
 20
112.4129776005
 30
0.0
 10
179.7951603335
 20
112.3712303506
 30
0.0
  0
SPLINE
  5
68B
100
AcDbEntity
  8
ON_OFF_TASTOTARGHETTA
100
AcDbSpline
 62
250
  6
CONTINUOUS
 70
0
 71
3
 72
15
 73
11
 74
0
 42
0.0000001
 43
0.0000001
 44
0.0000000001
 40
0.0
 40
0.0
 40
0.0
 40
0.0
 40
0.0384646692
 40
0.067173617
 40
0.1032861136
 40
0.1978553356
 40
0.320626801
 40
0.4676672192
 40
0.6339671597
 40
1.0
 40
1.0
 40
1.0
 40
1.0
 10
179.7951603335
 20
112.3712303506
 30
0.0
 10
179.7940892825
 20
112.3817949064
 30
0.0
 10
179.7799341088
 20
112.3974475736
 30
0.0
 10
179.7560433589
 20
112.4120057741
 30
0.0
 10
179.7155993265
 20
112.4301991435
 30
0.0
 10
179.6483226546
 20
112.449690702
 30
0.0
 10
179.5495653733
 20
112.4693629341
 30
0.0
 10
179.4302178682
 20
112.4855815802
 30
0.0
 10
179.2433735699
 20
112.5023342243
 30
0.0
 10
179.0963305889
 20
112.5070573889
 30
0.0
 10
178.9952821774
 20
112.5071752671
 30
0.0
  0
SPLINE
  5
68C
100
AcDbEntity
  8
ON_OFF_TASTOTARGHETTA
100
AcDbSpline
 62
250
  6
CONTINUOUS
 70
0
 71
3
 72
9
 73
5
 74
0
 42
0.0000001
 43
0.0000001
 44
0.0000000001
 40
0.0
 40
0.0
 40
0.0
 40
0.0
 40
0.2485175875
 40
1.0
 40
1.0
 40
1.0
 40
1.0
 10
178.9952821774
 20
112.5071752759
 30
0.0
 10
178.9912621711
 20
109.1537915731
 30
0.0
 10
178.9791852778
 20
95.6602401153
 30
0.0
 10
178.9832987534
 20
82.1666744303
 30
0.0
 10
178.9952821774
 20
72.0265111052
 30
0.0
  0
SPLINE
  5
68D
100
AcDbEntity
  8
ON_OFF_TASTOTARGHETTA
100
AcDbSpline
 62
250
  6
CONTINUOUS
 70
0
 71
3
 72
9
 73
5
 74
0
 42
0.0000001
 43
0.0000001
 44
0.0000000001
 40
0.0
 40
0.0
 40
0.0
 40
0.0
 40
0.2485175874
 40
1.0
 40
1.0
 40
1.0
 40
1.0
 10
179.7951603335
 20
112.3712303506
 30
0.0
 10
179.7911403274
 20
109.0267890156
 30
0.0
 10
179.7790634337
 20
95.5692203791
 30
0.0
 10
179.7831769096
 20
82.1116374774
 30
0.0
 10
179.7951603335
 20
71.9985146177
 30
0.0
  0
SPLINE
  5
68E
100
AcDbEntity
  8
ON_OFF_TASTOTARGHETTA
100
AcDbSpline
 62
250
  6
CONTINUOUS
 70
0
 71
3
 72
11
 73
7
 74
0
 42
0.0000001
 43
0.0000001
 44
0.0000000001
 40
0.0
 40
0.0
 40
0.0
 40
0.0
 40
0.2491129486
 40
0.4988045651
 40
0.7491956217
 40
1.0
 40
1.0
 40
1.0
 40
1.0
 10
179.8071374875
 20
71.2779583937
 30
0.0
 10
179.8071057812
 20
71.1746220339
 30
0.0
 10
179.7653033102
 20
70.9654338584
 30
0.0
 10
179.5870183549
 20
70.7013782414
 30
0.0
 10
179.3213682603
 20
70.5243520067
 30
0.0
 10
179.1112970951
 20
70.4826833331
 30
0.0
 10
179.0072593314
 20
70.4824620538
 30
0.0
  0
SPLINE
  5
68F
100
AcDbEntity
  8
ON_OFF_TASTOTARGHETTA
100
AcDbSpline
 62
250
  6
CONTINUOUS
 70
0
 71
3
 72
13
 73
9
 74
0
 42
0.0000001
 43
0.0000001
 44
0.0000000001
 40
0.0
 40
0.0
 40
0.0
 40
0.0
 40
0.3546651876
 40
0.6658429052
 40
0.7914796029
 40
0.8911537507
 40
0.9614576875
 40
1.0
 40
1.0
 40
1.0
 40
1.0
 10
179.7951603335
 20
71.9985146177
 30
0.0
 10
179.7952615989
 20
71.9133054741
 30
0.0
 10
179.7959595816
 20
71.7533373741
 30
0.0
 10
179.7979920872
 20
71.5631850144
 30
0.0
 10
179.8004910542
 20
71.4343241318
 30
0.0
 10
179.8022876872
 20
71.3633074215
 30
0.0
 10
179.8044569098
 20
71.3132876186
 30
0.0
 10
179.8058260618
 20
71.287124946
 30
0.0
 10
179.8071374875
 20
71.2779583937
 30
0.0
  0
SPLINE
  5
690
100
AcDbEntity
  8
ON_OFF_TASTOTARGHETTA
100
AcDbSpline
 62
250
  6
CONTINUOUS
 70
0
 71
3
 72
13
 73
9
 74
0
 42
0.0000001
 43
0.0000001
 44
0.0000000001
 40
0.0
 40
0.0
 40
0.0
 40
0.0
 40
0.3547247153
 40
0.6659480868
 40
0.7916002811
 40
0.8912729125
 40
0.9615441729
 40
1.0
 40
1.0
 40
1.0
 40
1.0
 10
178.9952821774
 20
72.0265111052
 30
0.0
 10
178.9953839663
 20
71.8439292314
 30
0.0
 10
178.9960807369
 20
71.5011573112
 30
0.0
 10
178.9981129671
 20
71.0937104003
 30
0.0
 10
179.0006141858
 20
70.8175563694
 30
0.0
 10
179.0024067548
 20
70.6654110567
 30
0.0
 10
179.0045852411
 20
70.558181733
 30
0.0
 10
179.0059374749
 20
70.5022116329
 30
0.0
 10
179.0072593314
 20
70.4824620538
 30
0.0
  0
SPLINE
  5
691
100
AcDbEntity
  8
ON_OFF_TASTOTARGHETTA
100
AcDbSpline
 62
250
  6
CONTINUOUS
 70
0
 71
3
 72
20
 73
16
 74
0
 42
0.0000001
 43
0.0000001
 44
0.0000000001
 40
0.0
 40
0.0
 40
0.0
 40
0.0
 40
0.0026910587
 40
0.007410544
 40
0.023522208
 40
0.0486488041
 40
0.0826842346
 40
0.1253098556
 40
0.1761180744
 40
0.2346858231
 40
0.3004559217
 40
0.4509583582
 40
0.6220727306
 40
0.8076024609
 40
1.0
 40
1.0
 40
1.0
 40
1.0
 10
179.7951603335
 20
71.9985146177
 30
0.0
 10
179.7948525819
 20
71.9991645309
 30
0.0
 10
179.7930476272
 20
72.000317681
 30
0.0
 10
179.7872364149
 20
72.0024094047
 30
0.0
 10
179.7750133843
 20
72.0047106153
 30
0.0
 10
179.7551427603
 20
72.0073174349
 30
0.0
 10
179.7280241141
 20
72.009850229
 30
0.0
 10
179.694062951
 20
72.0123162831
 30
0.0
 10
179.6535073811
 20
72.0146548746
 30
0.0
 10
179.6067573657
 20
72.0168415923
 30
0.0
 10
179.5333678545
 20
72.0196480943
 30
0.0
 10
179.4298888886
 20
72.0225114076
 30
0.0
 10
179.2943907216
 20
72.0249238995
 30
0.0
 10
179.147683084
 20
72.0263326494
 30
0.0
 10
179.0466939464
 20
72.0265713963
 30
0.0
 10
178.9952821774
 20
72.0265105606
 30
0.0
  0
SPLINE
  5
692
100
AcDbEntity
  8
ON_OFF_PORTATASTO
100
AcDbSpline
 62
250
  6
CONTINUOUS
 70
0
 71
3
 72
13
 73
9
 74
0
 42
0.0000001
 43
0.0000001
 44
0.0000000001
 40
0.0
 40
0.0
 40
0.0
 40
0.0
 40
0.1162401412
 40
0.2339779602
 40
0.3543714643
 40
0.4780981267
 40
0.7345386771
 40
1.0
 40
1.0
 40
1.0
 40
1.0
 10
135.8704021381
 20
115.6660069752
 30
0.0
 10
135.8704496646
 20
115.6518571849
 30
0.0
 10
135.8738079518
 20
115.6232841723
 30
0.0
 10
135.8883653026
 20
115.5823240957
 30
0.0
 10
135.9118357193
 20
115.5446522549
 30
0.0
 10
135.9541381108
 20
115.5002898742
 30
0.0
 10
136.0240650281
 20
115.4604568783
 30
0.0
 10
136.0880834996
 20
115.4495820305
 30
0.0
 10
136.1203979073
 20
115.4495006242
 30
0.0
  0
SPLINE
  5
693
100
AcDbEntity
  8
ON_OFF_PORTATASTO
100
AcDbSpline
 62
7
  6
CONTINUOUS
 70
0
 71
3
 72
15
 73
11
 74
0
 42
0.0000001
 43
0.0000001
 44
0.0000000001
 40
0.0
 40
0.0
 40
0.0
 40
0.0
 40
0.0847201314
 40
0.1757176455
 40
0.2778339039
 40
0.3942629121
 40
0.5264310687
 40
0.6737850267
 40
0.8334195325
 40
1.0
 40
1.0
 40
1.0
 40
1.0
 10
135.8645843083
 20
115.088656706
 30
0.0
 10
135.8646739451
 20
115.0797610966
 30
0.0
 10
135.8679162761
 20
115.0612317662
 30
0.0
 10
135.8814663353
 20
115.0349896724
 30
0.0
 10
135.9033357905
 20
115.0105573583
 30
0.0
 10
135.9331860474
 20
114.9886275862
 30
0.0
 10
135.9705476828
 20
114.9699996266
 30
0.0
 10
136.0145203007
 20
114.9556239283
 30
0.0
 10
136.0635266814
 20
114.9464872863
 30
0.0
 10
136.0978154777
 20
114.9443191387
 30
0.0
 10
136.1153073062
 20
114.9443191387
 30
0.0
  0
SPLINE
  5
694
100
AcDbEntity
  8
ON_OFF_PORTATASTO
100
AcDbSpline
 62
7
  6
CONTINUOUS
 70
0
 71
3
 72
12
 73
8
 74
0
 42
0.0000001
 43
0.0000001
 44
0.0000000001
 40
0.0
 40
0.0
 40
0.0
 40
0.0
 40
0.4189758554
 40
0.7258150368
 40
0.9169374284
 40
0.970078621
 40
1.0
 40
1.0
 40
1.0
 40
1.0
 10
135.8983882194
 20
114.1495802465
 30
0.0
 10
135.8935680255
 20
114.1500152639
 30
0.0
 10
135.8852014565
 20
114.1507512164
 30
0.0
 10
135.8747118171
 20
114.151854375
 30
0.0
 10
135.8683488736
 20
114.1529458736
 30
0.0
 10
135.8654173971
 20
114.1539839488
 30
0.0
 10
135.8646219196
 20
114.1547367861
 30
0.0
 10
135.8645843083
 20
114.1550803693
 30
0.0
  0
SPLINE
  5
695
100
AcDbEntity
  8
ON_OFF_PORTATASTO
100
AcDbSpline
 62
7
  6
CONTINUOUS
 70
0
 71
3
 72
15
 73
11
 74
0
 42
0.0000001
 43
0.0000001
 44
0.0000000001
 40
0.0
 40
0.0
 40
0.0
 40
0.0
 40
0.0847201314
 40
0.1757176455
 40
0.2778339039
 40
0.3942629121
 40
0.5264310687
 40
0.6737850267
 40
0.8334195325
 40
1.0
 40
1.0
 40
1.0
 40
1.0
 10
138.2500228105
 20
115.088656706
 30
0.0
 10
138.2499331737
 20
115.0797610966
 30
0.0
 10
138.2466908427
 20
115.0612317662
 30
0.0
 10
138.2331407835
 20
115.0349896724
 30
0.0
 10
138.2112713282
 20
115.0105573583
 30
0.0
 10
138.1814210713
 20
114.9886275862
 30
0.0
 10
138.144059436
 20
114.9699996266
 30
0.0
 10
138.1000868181
 20
114.9556239283
 30
0.0
 10
138.0510804373
 20
114.9464872863
 30
0.0
 10
138.016791641
 20
114.9443191387
 30
0.0
 10
137.9992998125
 20
114.9443191387
 30
0.0
  0
SPLINE
  5
696
100
AcDbEntity
  8
ON_OFF_PORTATASTO
100
AcDbSpline
 62
250
  6
CONTINUOUS
 70
0
 71
3
 72
13
 73
9
 74
0
 42
0.0000001
 43
0.0000001
 44
0.0000000001
 40
0.0
 40
0.0
 40
0.0
 40
0.0
 40
0.1162401412
 40
0.2339779602
 40
0.3543714643
 40
0.4780981267
 40
0.7345386771
 40
1.0
 40
1.0
 40
1.0
 40
1.0
 10
138.2442049807
 20
115.6660069752
 30
0.0
 10
138.2441574542
 20
115.6518571849
 30
0.0
 10
138.2407991669
 20
115.6232841723
 30
0.0
 10
138.2262418162
 20
115.5823240957
 30
0.0
 10
138.2027713995
 20
115.5446522549
 30
0.0
 10
138.160469008
 20
115.5002898742
 30
0.0
 10
138.0905420907
 20
115.4604568783
 30
0.0
 10
138.0265236192
 20
115.4495820305
 30
0.0
 10
137.9942092114
 20
115.4495006242
 30
0.0
  0
SPLINE
  5
697
100
AcDbEntity
  8
ON_OFF_PORTATASTO
100
AcDbSpline
 62
250
  6
CONTINUOUS
 70
0
 71
3
 72
13
 73
9
 74
0
 42
0.0000001
 43
0.0000001
 44
0.0000000001
 40
0.0
 40
0.0
 40
0.0
 40
0.0
 40
0.1162401412
 40
0.2339779602
 40
0.3543714643
 40
0.4780981267
 40
0.7345386771
 40
1.0
 40
1.0
 40
1.0
 40
1.0
 10
154.7704021381
 20
115.6660069752
 30
0.0
 10
154.7704496646
 20
115.6518571849
 30
0.0
 10
154.7738079518
 20
115.6232841723
 30
0.0
 10
154.7883653026
 20
115.5823240957
 30
0.0
 10
154.8118357193
 20
115.5446522549
 30
0.0
 10
154.8541381108
 20
115.5002898742
 30
0.0
 10
154.9240650281
 20
115.4604568783
 30
0.0
 10
154.9880834996
 20
115.4495820305
 30
0.0
 10
155.0203979073
 20
115.4495006242
 30
0.0
  0
SPLINE
  5
698
100
AcDbEntity
  8
ON_OFF_PORTATASTO
100
AcDbSpline
 62
7
  6
CONTINUOUS
 70
0
 71
3
 72
15
 73
11
 74
0
 42
0.0000001
 43
0.0000001
 44
0.0000000001
 40
0.0
 40
0.0
 40
0.0
 40
0.0
 40
0.0847201314
 40
0.1757176455
 40
0.2778339039
 40
0.3942629121
 40
0.5264310687
 40
0.6737850267
 40
0.8334195325
 40
1.0
 40
1.0
 40
1.0
 40
1.0
 10
154.7645843083
 20
115.088656706
 30
0.0
 10
154.7646739451
 20
115.0797610966
 30
0.0
 10
154.7679162761
 20
115.0612317662
 30
0.0
 10
154.7814663353
 20
115.0349896724
 30
0.0
 10
154.8033357905
 20
115.0105573583
 30
0.0
 10
154.8331860474
 20
114.9886275862
 30
0.0
 10
154.8705476828
 20
114.9699996266
 30
0.0
 10
154.9145203007
 20
114.9556239283
 30
0.0
 10
154.9635266814
 20
114.9464872863
 30
0.0
 10
154.9978154777
 20
114.9443191387
 30
0.0
 10
155.0153073062
 20
114.9443191387
 30
0.0
  0
SPLINE
  5
699
100
AcDbEntity
  8
ON_OFF_PORTATASTO
100
AcDbSpline
 62
7
  6
CONTINUOUS
 70
0
 71
3
 72
15
 73
11
 74
0
 42
0.0000001
 43
0.0000001
 44
0.0000000001
 40
0.0
 40
0.0
 40
0.0
 40
0.0
 40
0.0847201314
 40
0.1757176455
 40
0.2778339039
 40
0.3942629121
 40
0.5264310687
 40
0.6737850267
 40
0.8334195325
 40
1.0
 40
1.0
 40
1.0
 40
1.0
 10
157.1500228105
 20
115.088656706
 30
0.0
 10
157.1499331737
 20
115.0797610966
 30
0.0
 10
157.1466908427
 20
115.0612317662
 30
0.0
 10
157.1331407835
 20
115.0349896724
 30
0.0
 10
157.1112713282
 20
115.0105573583
 30
0.0
 10
157.0814210713
 20
114.9886275862
 30
0.0
 10
157.044059436
 20
114.9699996266
 30
0.0
 10
157.0000868181
 20
114.9556239283
 30
0.0
 10
156.9510804373
 20
114.9464872863
 30
0.0
 10
156.916791641
 20
114.9443191387
 30
0.0
 10
156.8992998125
 20
114.9443191387
 30
0.0
  0
SPLINE
  5
69A
100
AcDbEntity
  8
ON_OFF_PORTATASTO
100
AcDbSpline
 62
250
  6
CONTINUOUS
 70
0
 71
3
 72
13
 73
9
 74
0
 42
0.0000001
 43
0.0000001
 44
0.0000000001
 40
0.0
 40
0.0
 40
0.0
 40
0.0
 40
0.1162401412
 40
0.2339779602
 40
0.3543714643
 40
0.4780981267
 40
0.7345386771
 40
1.0
 40
1.0
 40
1.0
 40
1.0
 10
157.1442049807
 20
115.6660069752
 30
0.0
 10
157.1441574542
 20
115.6518571849
 30
0.0
 10
157.1407991669
 20
115.6232841723
 30
0.0
 10
157.1262418162
 20
115.5823240957
 30
0.0
 10
157.1027713995
 20
115.5446522549
 30
0.0
 10
157.060469008
 20
115.5002898742
 30
0.0
 10
156.9905420907
 20
115.4604568783
 30
0.0
 10
156.9265236192
 20
115.4495820305
 30
0.0
 10
156.8942092114
 20
115.4495006242
 30
0.0
  0
SPLINE
  5
69B
100
AcDbEntity
  8
ON_OFF_PORTATASTO
100
AcDbSpline
 62
250
  6
CONTINUOUS
 70
0
 71
3
 72
13
 73
9
 74
0
 42
0.0000001
 43
0.0000001
 44
0.0000000001
 40
0.0
 40
0.0
 40
0.0
 40
0.0
 40
0.1162399785
 40
0.2339778175
 40
0.354371331
 40
0.4780980182
 40
0.7345386242
 40
1.0
 40
1.0
 40
1.0
 40
1.0
 10
135.8704021381
 20
67.9773318406
 30
0.0
 10
135.8704496645
 20
67.991481611
 30
0.0
 10
135.873807949
 20
68.0200546051
 30
0.0
 10
135.8883652763
 20
68.0610146727
 30
0.0
 10
135.91183569
 20
68.0986865238
 30
0.0
 10
135.95413808
 20
68.1430489207
 30
0.0
 10
136.0240650085
 20
68.1828819326
 30
0.0
 10
136.0880834932
 20
68.1937567853
 30
0.0
 10
136.1203979073
 20
68.1938381915
 30
0.0
  0
SPLINE
  5
69C
100
AcDbEntity
  8
ON_OFF_PORTATASTO
100
AcDbSpline
 62
7
  6
CONTINUOUS
 70
0
 71
3
 72
15
 73
11
 74
0
 42
0.0000001
 43
0.0000001
 44
0.0000000001
 40
0.0
 40
0.0
 40
0.0
 40
0.0
 40
0.1666296342
 40
0.3262466932
 40
0.4735539877
 40
0.6056778357
 40
0.7220833958
 40
0.8242041767
 40
0.915232477
 40
1.0
 40
1.0
 40
1.0
 40
1.0
 10
136.1145800775
 20
68.6990196771
 30
0.0
 10
136.0971233727
 20
68.6990196771
 30
0.0
 10
136.062914464
 20
68.6967541691
 30
0.0
 10
136.0140348775
 20
68.6875913225
 30
0.0
 10
135.9701935375
 20
68.673189653
 30
0.0
 10
135.9329519259
 20
68.6545648875
 30
0.0
 10
135.9032013602
 20
68.6326548952
 30
0.0
 10
135.8814067822
 20
68.6082558847
 30
0.0
 10
135.8679044223
 20
68.5820568688
 30
0.0
 10
135.8646737887
 20
68.5635622019
 30
0.0
 10
135.8645843083
 20
68.5546821098
 30
0.0
  0
SPLINE
  5
69D
100
AcDbEntity
  8
ON_OFF_PORTATASTO
100
AcDbSpline
 62
7
  6
CONTINUOUS
 70
0
 71
3
 72
12
 73
8
 74
0
 42
0.0000001
 43
0.0000001
 44
0.0000000001
 40
0.0
 40
0.0
 40
0.0
 40
0.0
 40
0.029921379
 40
0.0830625716
 40
0.2741849632
 40
0.5810241446
 40
1.0
 40
1.0
 40
1.0
 40
1.0
 10
135.8645843083
 20
69.4882584465
 30
0.0
 10
135.8646219196
 20
69.4886020297
 30
0.0
 10
135.8654173971
 20
69.489354867
 30
0.0
 10
135.8683488736
 20
69.4903929422
 30
0.0
 10
135.8747118171
 20
69.4914844407
 30
0.0
 10
135.8852014565
 20
69.4925875994
 30
0.0
 10
135.8935680255
 20
69.4933235519
 30
0.0
 10
135.8983882194
 20
69.4937585693
 30
0.0
  0
SPLINE
  5
69E
100
AcDbEntity
  8
ON_OFF_PORTATASTO
100
AcDbSpline
 62
250
  6
CONTINUOUS
 70
0
 71
3
 72
13
 73
9
 74
0
 42
0.0000001
 43
0.0000001
 44
0.0000000001
 40
0.0
 40
0.0
 40
0.0
 40
0.0
 40
0.1162399785
 40
0.2339778175
 40
0.354371331
 40
0.4780980182
 40
0.7345386242
 40
1.0
 40
1.0
 40
1.0
 40
1.0
 10
138.2442049807
 20
67.9773318406
 30
0.0
 10
138.2441574542
 20
67.991481611
 30
0.0
 10
138.2407991697
 20
68.0200546051
 30
0.0
 10
138.2262418425
 20
68.0610146727
 30
0.0
 10
138.2027714288
 20
68.0986865238
 30
0.0
 10
138.1604690387
 20
68.1430489207
 30
0.0
 10
138.0905421103
 20
68.1828819326
 30
0.0
 10
138.0265236255
 20
68.1937567853
 30
0.0
 10
137.9942092114
 20
68.1938381915
 30
0.0
  0
SPLINE
  5
69F
100
AcDbEntity
  8
ON_OFF_PORTATASTO
100
AcDbSpline
 62
7
  6
CONTINUOUS
 70
0
 71
3
 72
15
 73
11
 74
0
 42
0.0000001
 43
0.0000001
 44
0.0000000001
 40
0.0
 40
0.0
 40
0.0
 40
0.0
 40
0.0847201314
 40
0.1757176455
 40
0.2778339039
 40
0.3942629121
 40
0.5264310687
 40
0.6737850267
 40
0.8334195325
 40
1.0
 40
1.0
 40
1.0
 40
1.0
 10
138.2500228105
 20
68.5546821098
 30
0.0
 10
138.2499331737
 20
68.5635777192
 30
0.0
 10
138.2466908427
 20
68.5821070496
 30
0.0
 10
138.2331407835
 20
68.6083491434
 30
0.0
 10
138.2112713282
 20
68.6327814575
 30
0.0
 10
138.1814210713
 20
68.6547112295
 30
0.0
 10
138.144059436
 20
68.6733391892
 30
0.0
 10
138.1000868181
 20
68.6877148875
 30
0.0
 10
138.0510804373
 20
68.6968515295
 30
0.0
 10
138.016791641
 20
68.6990196771
 30
0.0
 10
137.9992998125
 20
68.6990196771
 30
0.0
  0
SPLINE
  5
6A0
100
AcDbEntity
  8
ON_OFF_PORTATASTO
100
AcDbSpline
 62
7
  6
CONTINUOUS
 70
0
 71
3
 72
15
 73
11
 74
0
 42
0.0000001
 43
0.0000001
 44
0.0000000001
 40
0.0
 40
0.0
 40
0.0
 40
0.0
 40
0.0847201314
 40
0.1757176455
 40
0.2778339039
 40
0.3942629121
 40
0.5264310687
 40
0.6737850267
 40
0.8334195325
 40
1.0
 40
1.0
 40
1.0
 40
1.0
 10
154.7645843083
 20
68.5546821098
 30
0.0
 10
154.7646739451
 20
68.5635777192
 30
0.0
 10
154.7679162761
 20
68.5821070496
 30
0.0
 10
154.7814663353
 20
68.6083491434
 30
0.0
 10
154.8033357905
 20
68.6327814575
 30
0.0
 10
154.8331860474
 20
68.6547112295
 30
0.0
 10
154.8705476828
 20
68.6733391892
 30
0.0
 10
154.9145203007
 20
68.6877148875
 30
0.0
 10
154.9635266814
 20
68.6968515295
 30
0.0
 10
154.9978154777
 20
68.6990196771
 30
0.0
 10
155.0153073062
 20
68.6990196771
 30
0.0
  0
SPLINE
  5
6A1
100
AcDbEntity
  8
ON_OFF_PORTATASTO
100
AcDbSpline
 62
250
  6
CONTINUOUS
 70
0
 71
3
 72
13
 73
9
 74
0
 42
0.0000001
 43
0.0000001
 44
0.0000000001
 40
0.0
 40
0.0
 40
0.0
 40
0.0
 40
0.1162399785
 40
0.2339778175
 40
0.354371331
 40
0.4780980182
 40
0.7345386242
 40
1.0
 40
1.0
 40
1.0
 40
1.0
 10
154.7704021381
 20
67.9773318406
 30
0.0
 10
154.7704496645
 20
67.991481611
 30
0.0
 10
154.773807949
 20
68.0200546051
 30
0.0
 10
154.7883652763
 20
68.0610146727
 30
0.0
 10
154.81183569
 20
68.0986865238
 30
0.0
 10
154.85413808
 20
68.1430489207
 30
0.0
 10
154.9240650085
 20
68.1828819326
 30
0.0
 10
154.9880834932
 20
68.1937567853
 30
0.0
 10
155.0203979073
 20
68.1938381915
 30
0.0
  0
SPLINE
  5
6A2
100
AcDbEntity
  8
ON_OFF_PORTATASTO
100
AcDbSpline
 62
250
  6
CONTINUOUS
 70
0
 71
3
 72
13
 73
9
 74
0
 42
0.0000001
 43
0.0000001
 44
0.0000000001
 40
0.0
 40
0.0
 40
0.0
 40
0.0
 40
0.1162399785
 40
0.2339778175
 40
0.354371331
 40
0.4780980182
 40
0.7345386242
 40
1.0
 40
1.0
 40
1.0
 40
1.0
 10
157.1442049807
 20
67.9773318406
 30
0.0
 10
157.1441574542
 20
67.991481611
 30
0.0
 10
157.1407991697
 20
68.0200546051
 30
0.0
 10
157.1262418425
 20
68.0610146727
 30
0.0
 10
157.1027714288
 20
68.0986865238
 30
0.0
 10
157.0604690387
 20
68.1430489207
 30
0.0
 10
156.9905421103
 20
68.1828819326
 30
0.0
 10
156.9265236255
 20
68.1937567853
 30
0.0
 10
156.8942092114
 20
68.1938381915
 30
0.0
  0
SPLINE
  5
6A3
100
AcDbEntity
  8
ON_OFF_PORTATASTO
100
AcDbSpline
 62
7
  6
CONTINUOUS
 70
0
 71
3
 72
15
 73
11
 74
0
 42
0.0000001
 43
0.0000001
 44
0.0000000001
 40
0.0
 40
0.0
 40
0.0
 40
0.0
 40
0.084767523
 40
0.1757958233
 40
0.2779166042
 40
0.3943221643
 40
0.5264460123
 40
0.6737533068
 40
0.8333703658
 40
1.0
 40
1.0
 40
1.0
 40
1.0
 10
157.1500228105
 20
68.5546821098
 30
0.0
 10
157.14993333
 20
68.5635622019
 30
0.0
 10
157.1467026965
 20
68.5820568688
 30
0.0
 10
157.1332003365
 20
68.6082558847
 30
0.0
 10
157.1114057585
 20
68.6326548952
 30
0.0
 10
157.0816551929
 20
68.6545648875
 30
0.0
 10
157.0444135812
 20
68.673189653
 30
0.0
 10
157.0005722412
 20
68.6875913225
 30
0.0
 10
156.9516926547
 20
68.6967541691
 30
0.0
 10
156.917483746
 20
68.6990196771
 30
0.0
 10
156.9000270413
 20
68.6990196771
 30
0.0
  0
SPLINE
  5
6A4
100
AcDbEntity
  8
ON_OFF_PORTATASTO
100
AcDbSpline
 62
250
  6
CONTINUOUS
 70
0
 71
3
 72
13
 73
9
 74
0
 42
0.0000001
 43
0.0000001
 44
0.0000000001
 40
0.0
 40
0.0
 40
0.0
 40
0.0
 40
0.1162401412
 40
0.2339779602
 40
0.3543714643
 40
0.4780981267
 40
0.7345386771
 40
1.0
 40
1.0
 40
1.0
 40
1.0
 10
158.3704021381
 20
115.6660069752
 30
0.0
 10
158.3704496646
 20
115.6518571849
 30
0.0
 10
158.3738079518
 20
115.6232841723
 30
0.0
 10
158.3883653026
 20
115.5823240957
 30
0.0
 10
158.4118357193
 20
115.5446522549
 30
0.0
 10
158.4541381108
 20
115.5002898742
 30
0.0
 10
158.5240650281
 20
115.4604568783
 30
0.0
 10
158.5880834996
 20
115.4495820305
 30
0.0
 10
158.6203979073
 20
115.4495006242
 30
0.0
  0
SPLINE
  5
6A5
100
AcDbEntity
  8
ON_OFF_PORTATASTO
100
AcDbSpline
 62
7
  6
CONTINUOUS
 70
0
 71
3
 72
15
 73
11
 74
0
 42
0.0000001
 43
0.0000001
 44
0.0000000001
 40
0.0
 40
0.0
 40
0.0
 40
0.0
 40
0.0847201314
 40
0.1757176455
 40
0.2778339039
 40
0.3942629121
 40
0.5264310687
 40
0.6737850267
 40
0.8334195325
 40
1.0
 40
1.0
 40
1.0
 40
1.0
 10
158.3645843083
 20
115.088656706
 30
0.0
 10
158.3646739451
 20
115.0797610966
 30
0.0
 10
158.3679162761
 20
115.0612317662
 30
0.0
 10
158.3814663353
 20
115.0349896724
 30
0.0
 10
158.4033357905
 20
115.0105573583
 30
0.0
 10
158.4331860474
 20
114.9886275862
 30
0.0
 10
158.4705476828
 20
114.9699996266
 30
0.0
 10
158.5145203007
 20
114.9556239283
 30
0.0
 10
158.5635266814
 20
114.9464872863
 30
0.0
 10
158.5978154777
 20
114.9443191387
 30
0.0
 10
158.6153073062
 20
114.9443191387
 30
0.0
  0
SPLINE
  5
6A6
100
AcDbEntity
  8
ON_OFF_PORTATASTO
100
AcDbSpline
 62
7
  6
CONTINUOUS
 70
0
 71
3
 72
15
 73
11
 74
0
 42
0.0000001
 43
0.0000001
 44
0.0000000001
 40
0.0
 40
0.0
 40
0.0
 40
0.0
 40
0.0847201314
 40
0.1757176455
 40
0.2778339039
 40
0.3942629121
 40
0.5264310687
 40
0.6737850267
 40
0.8334195325
 40
1.0
 40
1.0
 40
1.0
 40
1.0
 10
160.7500228105
 20
115.088656706
 30
0.0
 10
160.7499331737
 20
115.0797610966
 30
0.0
 10
160.7466908427
 20
115.0612317662
 30
0.0
 10
160.7331407835
 20
115.0349896724
 30
0.0
 10
160.7112713282
 20
115.0105573583
 30
0.0
 10
160.6814210713
 20
114.9886275862
 30
0.0
 10
160.644059436
 20
114.9699996266
 30
0.0
 10
160.6000868181
 20
114.9556239283
 30
0.0
 10
160.5510804373
 20
114.9464872863
 30
0.0
 10
160.516791641
 20
114.9443191387
 30
0.0
 10
160.4992998125
 20
114.9443191387
 30
0.0
  0
SPLINE
  5
6A7
100
AcDbEntity
  8
ON_OFF_PORTATASTO
100
AcDbSpline
 62
250
  6
CONTINUOUS
 70
0
 71
3
 72
13
 73
9
 74
0
 42
0.0000001
 43
0.0000001
 44
0.0000000001
 40
0.0
 40
0.0
 40
0.0
 40
0.0
 40
0.1162401412
 40
0.2339779602
 40
0.3543714643
 40
0.4780981267
 40
0.7345386771
 40
1.0
 40
1.0
 40
1.0
 40
1.0
 10
160.7442049807
 20
115.6660069752
 30
0.0
 10
160.7441574542
 20
115.6518571849
 30
0.0
 10
160.7407991669
 20
115.6232841723
 30
0.0
 10
160.7262418162
 20
115.5823240957
 30
0.0
 10
160.7027713995
 20
115.5446522549
 30
0.0
 10
160.660469008
 20
115.5002898742
 30
0.0
 10
160.5905420907
 20
115.4604568783
 30
0.0
 10
160.5265236192
 20
115.4495820305
 30
0.0
 10
160.4942092114
 20
115.4495006242
 30
0.0
  0
SPLINE
  5
6A8
100
AcDbEntity
  8
ON_OFF_PORTATASTO
100
AcDbSpline
 62
250
  6
CONTINUOUS
 70
0
 71
3
 72
13
 73
9
 74
0
 42
0.0000001
 43
0.0000001
 44
0.0000000001
 40
0.0
 40
0.0
 40
0.0
 40
0.0
 40
0.1162401412
 40
0.2339779602
 40
0.3543714643
 40
0.4780981267
 40
0.7345386771
 40
1.0
 40
1.0
 40
1.0
 40
1.0
 10
177.2704021381
 20
115.6660069752
 30
0.0
 10
177.2704496646
 20
115.6518571849
 30
0.0
 10
177.2738079518
 20
115.6232841723
 30
0.0
 10
177.2883653026
 20
115.5823240957
 30
0.0
 10
177.3118357193
 20
115.5446522549
 30
0.0
 10
177.3541381108
 20
115.5002898742
 30
0.0
 10
177.4240650281
 20
115.4604568783
 30
0.0
 10
177.4880834996
 20
115.4495820305
 30
0.0
 10
177.5203979073
 20
115.4495006242
 30
0.0
  0
SPLINE
  5
6A9
100
AcDbEntity
  8
ON_OFF_PORTATASTO
100
AcDbSpline
 62
7
  6
CONTINUOUS
 70
0
 71
3
 72
15
 73
11
 74
0
 42
0.0000001
 43
0.0000001
 44
0.0000000001
 40
0.0
 40
0.0
 40
0.0
 40
0.0
 40
0.0847201314
 40
0.1757176455
 40
0.2778339039
 40
0.3942629121
 40
0.5264310687
 40
0.6737850267
 40
0.8334195325
 40
1.0
 40
1.0
 40
1.0
 40
1.0
 10
177.2645843083
 20
115.088656706
 30
0.0
 10
177.2646739451
 20
115.0797610966
 30
0.0
 10
177.2679162761
 20
115.0612317662
 30
0.0
 10
177.2814663353
 20
115.0349896724
 30
0.0
 10
177.3033357905
 20
115.0105573583
 30
0.0
 10
177.3331860474
 20
114.9886275862
 30
0.0
 10
177.3705476828
 20
114.9699996266
 30
0.0
 10
177.4145203007
 20
114.9556239283
 30
0.0
 10
177.4635266814
 20
114.9464872863
 30
0.0
 10
177.4978154777
 20
114.9443191387
 30
0.0
 10
177.5153073062
 20
114.9443191387
 30
0.0
  0
SPLINE
  5
6AA
100
AcDbEntity
  8
ON_OFF_PORTATASTO
100
AcDbSpline
 62
7
  6
CONTINUOUS
 70
0
 71
3
 72
15
 73
11
 74
0
 42
0.0000001
 43
0.0000001
 44
0.0000000001
 40
0.0
 40
0.0
 40
0.0
 40
0.0
 40
0.0847201314
 40
0.1757176455
 40
0.2778339039
 40
0.3942629121
 40
0.5264310687
 40
0.6737850267
 40
0.8334195325
 40
1.0
 40
1.0
 40
1.0
 40
1.0
 10
179.6500228105
 20
115.088656706
 30
0.0
 10
179.6499331737
 20
115.0797610966
 30
0.0
 10
179.6466908427
 20
115.0612317662
 30
0.0
 10
179.6331407835
 20
115.0349896724
 30
0.0
 10
179.6112713282
 20
115.0105573583
 30
0.0
 10
179.5814210713
 20
114.9886275862
 30
0.0
 10
179.544059436
 20
114.9699996266
 30
0.0
 10
179.5000868181
 20
114.9556239283
 30
0.0
 10
179.4510804373
 20
114.9464872863
 30
0.0
 10
179.416791641
 20
114.9443191387
 30
0.0
 10
179.3992998125
 20
114.9443191387
 30
0.0
  0
SPLINE
  5
6AB
100
AcDbEntity
  8
ON_OFF_PORTATASTO
100
AcDbSpline
 62
250
  6
CONTINUOUS
 70
0
 71
3
 72
13
 73
9
 74
0
 42
0.0000001
 43
0.0000001
 44
0.0000000001
 40
0.0
 40
0.0
 40
0.0
 40
0.0
 40
0.1162401412
 40
0.2339779602
 40
0.3543714643
 40
0.4780981267
 40
0.7345386771
 40
1.0
 40
1.0
 40
1.0
 40
1.0
 10
179.6442049807
 20
115.6660069752
 30
0.0
 10
179.6441574542
 20
115.6518571849
 30
0.0
 10
179.6407991669
 20
115.6232841723
 30
0.0
 10
179.6262418162
 20
115.5823240957
 30
0.0
 10
179.6027713995
 20
115.5446522549
 30
0.0
 10
179.560469008
 20
115.5002898742
 30
0.0
 10
179.4905420907
 20
115.4604568783
 30
0.0
 10
179.4265236192
 20
115.4495820305
 30
0.0
 10
179.3942092114
 20
115.4495006242
 30
0.0
  0
SPLINE
  5
6AC
100
AcDbEntity
  8
ON_OFF_PORTATASTO
100
AcDbSpline
 62
7
  6
CONTINUOUS
 70
0
 71
3
 72
12
 73
8
 74
0
 42
0.0000001
 43
0.0000001
 44
0.0000000001
 40
0.0
 40
0.0
 40
0.0
 40
0.0
 40
0.029921379
 40
0.0830625716
 40
0.2741849632
 40
0.5810241446
 40
1.0
 40
1.0
 40
1.0
 40
1.0
 10
179.6500228105
 20
114.1550803693
 30
0.0
 10
179.6499851992
 20
114.1547367861
 30
0.0
 10
179.6491897216
 20
114.1539839488
 30
0.0
 10
179.6462582452
 20
114.1529458736
 30
0.0
 10
179.6398953017
 20
114.151854375
 30
0.0
 10
179.6294056623
 20
114.1507512164
 30
0.0
 10
179.6210390932
 20
114.1500152639
 30
0.0
 10
179.6162188993
 20
114.1495802465
 30
0.0
  0
SPLINE
  5
6AD
100
AcDbEntity
  8
ON_OFF_PORTATASTO
100
AcDbSpline
 62
7
  6
CONTINUOUS
 70
0
 71
3
 72
15
 73
11
 74
0
 42
0.0000001
 43
0.0000001
 44
0.0000000001
 40
0.0
 40
0.0
 40
0.0
 40
0.0
 40
0.084767523
 40
0.1757958233
 40
0.2779166042
 40
0.3943221643
 40
0.5264460123
 40
0.6737533068
 40
0.8333703658
 40
1.0
 40
1.0
 40
1.0
 40
1.0
 10
158.3645843083
 20
68.5546821098
 30
0.0
 10
158.3646737887
 20
68.5635622019
 30
0.0
 10
158.3679044223
 20
68.5820568688
 30
0.0
 10
158.3814067822
 20
68.6082558847
 30
0.0
 10
158.4032013602
 20
68.6326548952
 30
0.0
 10
158.4329519259
 20
68.6545648875
 30
0.0
 10
158.4701935375
 20
68.673189653
 30
0.0
 10
158.5140348775
 20
68.6875913225
 30
0.0
 10
158.562914464
 20
68.6967541691
 30
0.0
 10
158.5971233727
 20
68.6990196771
 30
0.0
 10
158.6145800775
 20
68.6990196771
 30
0.0
  0
SPLINE
  5
6AE
100
AcDbEntity
  8
ON_OFF_PORTATASTO
100
AcDbSpline
 62
250
  6
CONTINUOUS
 70
0
 71
3
 72
13
 73
9
 74
0
 42
0.0000001
 43
0.0000001
 44
0.0000000001
 40
0.0
 40
0.0
 40
0.0
 40
0.0
 40
0.1162399785
 40
0.2339778175
 40
0.354371331
 40
0.4780980182
 40
0.7345386242
 40
1.0
 40
1.0
 40
1.0
 40
1.0
 10
158.3704021381
 20
67.9773318406
 30
0.0
 10
158.3704496645
 20
67.991481611
 30
0.0
 10
158.373807949
 20
68.0200546051
 30
0.0
 10
158.3883652763
 20
68.0610146727
 30
0.0
 10
158.41183569
 20
68.0986865238
 30
0.0
 10
158.45413808
 20
68.1430489207
 30
0.0
 10
158.5240650085
 20
68.1828819326
 30
0.0
 10
158.5880834932
 20
68.1937567853
 30
0.0
 10
158.6203979073
 20
68.1938381915
 30
0.0
  0
SPLINE
  5
6AF
100
AcDbEntity
  8
ON_OFF_PORTATASTO
100
AcDbSpline
 62
250
  6
CONTINUOUS
 70
0
 71
3
 72
13
 73
9
 74
0
 42
0.0000001
 43
0.0000001
 44
0.0000000001
 40
0.0
 40
0.0
 40
0.0
 40
0.0
 40
0.1162399785
 40
0.2339778175
 40
0.354371331
 40
0.4780980182
 40
0.7345386242
 40
1.0
 40
1.0
 40
1.0
 40
1.0
 10
160.7442049807
 20
67.9773318406
 30
0.0
 10
160.7441574542
 20
67.991481611
 30
0.0
 10
160.7407991697
 20
68.0200546051
 30
0.0
 10
160.7262418425
 20
68.0610146727
 30
0.0
 10
160.7027714288
 20
68.0986865238
 30
0.0
 10
160.6604690387
 20
68.1430489207
 30
0.0
 10
160.5905421103
 20
68.1828819326
 30
0.0
 10
160.5265236255
 20
68.1937567853
 30
0.0
 10
160.4942092114
 20
68.1938381915
 30
0.0
  0
SPLINE
  5
6B0
100
AcDbEntity
  8
ON_OFF_PORTATASTO
100
AcDbSpline
 62
7
  6
CONTINUOUS
 70
0
 71
3
 72
15
 73
11
 74
0
 42
0.0000001
 43
0.0000001
 44
0.0000000001
 40
0.0
 40
0.0
 40
0.0
 40
0.0
 40
0.0847201314
 40
0.1757176455
 40
0.2778339039
 40
0.3942629121
 40
0.5264310687
 40
0.6737850267
 40
0.8334195325
 40
1.0
 40
1.0
 40
1.0
 40
1.0
 10
160.7500228105
 20
68.5546821098
 30
0.0
 10
160.7499331737
 20
68.5635777192
 30
0.0
 10
160.7466908427
 20
68.5821070496
 30
0.0
 10
160.7331407835
 20
68.6083491434
 30
0.0
 10
160.7112713282
 20
68.6327814575
 30
0.0
 10
160.6814210713
 20
68.6547112295
 30
0.0
 10
160.644059436
 20
68.6733391892
 30
0.0
 10
160.6000868181
 20
68.6877148875
 30
0.0
 10
160.5510804373
 20
68.6968515295
 30
0.0
 10
160.516791641
 20
68.6990196771
 30
0.0
 10
160.4992998125
 20
68.6990196771
 30
0.0
  0
SPLINE
  5
6B1
100
AcDbEntity
  8
ON_OFF_PORTATASTO
100
AcDbSpline
 62
7
  6
CONTINUOUS
 70
0
 71
3
 72
15
 73
11
 74
0
 42
0.0000001
 43
0.0000001
 44
0.0000000001
 40
0.0
 40
0.0
 40
0.0
 40
0.0
 40
0.0847201314
 40
0.1757176455
 40
0.2778339039
 40
0.3942629121
 40
0.5264310687
 40
0.6737850267
 40
0.8334195325
 40
1.0
 40
1.0
 40
1.0
 40
1.0
 10
177.2645843083
 20
68.5546821098
 30
0.0
 10
177.2646739451
 20
68.5635777192
 30
0.0
 10
177.2679162761
 20
68.5821070496
 30
0.0
 10
177.2814663353
 20
68.6083491434
 30
0.0
 10
177.3033357905
 20
68.6327814575
 30
0.0
 10
177.3331860474
 20
68.6547112295
 30
0.0
 10
177.3705476828
 20
68.6733391892
 30
0.0
 10
177.4145203007
 20
68.6877148875
 30
0.0
 10
177.4635266814
 20
68.6968515295
 30
0.0
 10
177.4978154777
 20
68.6990196771
 30
0.0
 10
177.5153073062
 20
68.6990196771
 30
0.0
  0
SPLINE
  5
6B2
100
AcDbEntity
  8
ON_OFF_PORTATASTO
100
AcDbSpline
 62
250
  6
CONTINUOUS
 70
0
 71
3
 72
13
 73
9
 74
0
 42
0.0000001
 43
0.0000001
 44
0.0000000001
 40
0.0
 40
0.0
 40
0.0
 40
0.0
 40
0.1162399785
 40
0.2339778175
 40
0.354371331
 40
0.4780980182
 40
0.7345386242
 40
1.0
 40
1.0
 40
1.0
 40
1.0
 10
177.2704021381
 20
67.9773318406
 30
0.0
 10
177.2704496645
 20
67.991481611
 30
0.0
 10
177.273807949
 20
68.0200546051
 30
0.0
 10
177.2883652763
 20
68.0610146727
 30
0.0
 10
177.31183569
 20
68.0986865238
 30
0.0
 10
177.35413808
 20
68.1430489207
 30
0.0
 10
177.4240650085
 20
68.1828819326
 30
0.0
 10
177.4880834932
 20
68.1937567853
 30
0.0
 10
177.5203979073
 20
68.1938381915
 30
0.0
  0
SPLINE
  5
6B3
100
AcDbEntity
  8
ON_OFF_PORTATASTO
100
AcDbSpline
 62
250
  6
CONTINUOUS
 70
0
 71
3
 72
13
 73
9
 74
0
 42
0.0000001
 43
0.0000001
 44
0.0000000001
 40
0.0
 40
0.0
 40
0.0
 40
0.0
 40
0.1162399785
 40
0.2339778175
 40
0.354371331
 40
0.4780980182
 40
0.7345386242
 40
1.0
 40
1.0
 40
1.0
 40
1.0
 10
179.6442049807
 20
67.9773318406
 30
0.0
 10
179.6441574542
 20
67.991481611
 30
0.0
 10
179.6407991697
 20
68.0200546051
 30
0.0
 10
179.6262418425
 20
68.0610146727
 30
0.0
 10
179.6027714288
 20
68.0986865238
 30
0.0
 10
179.5604690387
 20
68.1430489207
 30
0.0
 10
179.4905421103
 20
68.1828819326
 30
0.0
 10
179.4265236255
 20
68.1937567853
 30
0.0
 10
179.3942092114
 20
68.1938381915
 30
0.0
  0
SPLINE
  5
6B4
100
AcDbEntity
  8
ON_OFF_PORTATASTO
100
AcDbSpline
 62
7
  6
CONTINUOUS
 70
0
 71
3
 72
15
 73
11
 74
0
 42
0.0000001
 43
0.0000001
 44
0.0000000001
 40
0.0
 40
0.0
 40
0.0
 40
0.0
 40
0.084767523
 40
0.1757958233
 40
0.2779166042
 40
0.3943221643
 40
0.5264460123
 40
0.6737533068
 40
0.8333703658
 40
1.0
 40
1.0
 40
1.0
 40
1.0
 10
179.6500228105
 20
68.5546821098
 30
0.0
 10
179.64993333
 20
68.5635622019
 30
0.0
 10
179.6467026965
 20
68.5820568688
 30
0.0
 10
179.6332003365
 20
68.6082558847
 30
0.0
 10
179.6114057585
 20
68.6326548952
 30
0.0
 10
179.5816551929
 20
68.6545648875
 30
0.0
 10
179.5444135812
 20
68.673189653
 30
0.0
 10
179.5005722412
 20
68.6875913225
 30
0.0
 10
179.4516926547
 20
68.6967541691
 30
0.0
 10
179.417483746
 20
68.6990196771
 30
0.0
 10
179.4000270413
 20
68.6990196771
 30
0.0
  0
SPLINE
  5
6B5
100
AcDbEntity
  8
ON_OFF_PORTATASTO
100
AcDbSpline
 62
7
  6
CONTINUOUS
 70
0
 71
3
 72
12
 73
8
 74
0
 42
0.0000001
 43
0.0000001
 44
0.0000000001
 40
0.0
 40
0.0
 40
0.0
 40
0.0
 40
0.4189758554
 40
0.7258150368
 40
0.9169374284
 40
0.970078621
 40
1.0
 40
1.0
 40
1.0
 40
1.0
 10
179.6162188993
 20
69.4937585693
 30
0.0
 10
179.6210390932
 20
69.4933235519
 30
0.0
 10
179.6294056623
 20
69.4925875994
 30
0.0
 10
179.6398953017
 20
69.4914844407
 30
0.0
 10
179.6462582452
 20
69.4903929422
 30
0.0
 10
179.6491897216
 20
69.489354867
 30
0.0
 10
179.6499851992
 20
69.4886020297
 30
0.0
 10
179.6500228105
 20
69.4882584465
 30
0.0
  0
SPLINE
  5
6B6
100
AcDbEntity
  8
ON_OFF_PORTATASTO
100
AcDbSpline
 62
7
  6
CONTINUOUS
 70
0
 71
3
 72
13
 73
9
 74
0
 42
0.0000001
 43
0.0000001
 44
0.0000000001
 40
0.0
 40
0.0
 40
0.0
 40
0.0
 40
0.0927966287
 40
0.2002447148
 40
0.3193571807
 40
0.4469985052
 40
0.7183509509
 40
1.0
 40
1.0
 40
1.0
 40
1.0
 10
150.803510873
 20
68.0263304411
 30
0.0
 10
150.78959596
 20
68.0264377282
 30
0.0
 10
150.7596858313
 20
68.0318696409
 30
0.0
 10
150.7145508063
 20
68.0479963346
 30
0.0
 10
150.666306185
 20
68.070359557
 30
0.0
 10
150.5977244873
 20
68.1068996098
 30
0.0
 10
150.510162712
 20
68.1594330291
 30
0.0
 10
150.4400810259
 20
68.2037516554
 30
0.0
 10
150.4043861828
 20
68.2263270564
 30
0.0
  0
SPLINE
  5
6B7
100
AcDbEntity
  8
ON_OFF_PORTATASTO
100
AcDbSpline
 62
7
  6
CONTINUOUS
 70
0
 71
3
 72
13
 73
9
 74
0
 42
0.0000001
 43
0.0000001
 44
0.0000000001
 40
0.0
 40
0.0
 40
0.0
 40
0.0
 40
0.0927966287
 40
0.2002447148
 40
0.3193571807
 40
0.4469985052
 40
0.7183509509
 40
1.0
 40
1.0
 40
1.0
 40
1.0
 10
142.2110962457
 20
68.0263304411
 30
0.0
 10
142.2250111587
 20
68.0264377282
 30
0.0
 10
142.2549212874
 20
68.0318696409
 30
0.0
 10
142.3000563125
 20
68.0479963346
 30
0.0
 10
142.3483009337
 20
68.070359557
 30
0.0
 10
142.4168826315
 20
68.1068996098
 30
0.0
 10
142.5044444068
 20
68.1594330291
 30
0.0
 10
142.5745260929
 20
68.2037516554
 30
0.0
 10
142.610220936
 20
68.2263270564
 30
0.0
  0
SPLINE
  5
6B8
100
AcDbEntity
  8
ON_OFF_PORTATASTO
100
AcDbSpline
 62
7
  6
CONTINUOUS
 70
0
 71
3
 72
13
 73
9
 74
0
 42
0.0000001
 43
0.0000001
 44
0.0000000001
 40
0.0
 40
0.0
 40
0.0
 40
0.0
 40
0.0927966287
 40
0.2002447148
 40
0.3193571807
 40
0.4469985052
 40
0.7183509509
 40
1.0
 40
1.0
 40
1.0
 40
1.0
 10
142.2110962457
 20
115.6170083747
 30
0.0
 10
142.2250111587
 20
115.6169010876
 30
0.0
 10
142.2549212874
 20
115.6114691749
 30
0.0
 10
142.3000563125
 20
115.5953424811
 30
0.0
 10
142.3483009337
 20
115.5729792588
 30
0.0
 10
142.4168826315
 20
115.5364392059
 30
0.0
 10
142.5044444068
 20
115.4839057867
 30
0.0
 10
142.5745260929
 20
115.4395871604
 30
0.0
 10
142.610220936
 20
115.4170117594
 30
0.0
  0
SPLINE
  5
6B9
100
AcDbEntity
  8
ON_OFF_PORTATASTO
100
AcDbSpline
 62
7
  6
CONTINUOUS
 70
0
 71
3
 72
13
 73
9
 74
0
 42
0.0000001
 43
0.0000001
 44
0.0000000001
 40
0.0
 40
0.0
 40
0.0
 40
0.0
 40
0.0927966287
 40
0.2002447148
 40
0.3193571807
 40
0.4469985052
 40
0.7183509509
 40
1.0
 40
1.0
 40
1.0
 40
1.0
 10
150.803510873
 20
115.6170083747
 30
0.0
 10
150.78959596
 20
115.6169010876
 30
0.0
 10
150.7596858313
 20
115.6114691749
 30
0.0
 10
150.7145508063
 20
115.5953424811
 30
0.0
 10
150.666306185
 20
115.5729792588
 30
0.0
 10
150.5977244873
 20
115.5364392059
 30
0.0
 10
150.510162712
 20
115.4839057867
 30
0.0
 10
150.4400810259
 20
115.4395871604
 30
0.0
 10
150.4043861828
 20
115.4170117594
 30
0.0
  0
SPLINE
  5
6BA
100
AcDbEntity
  8
ON_OFF_PORTATASTO
100
AcDbSpline
 62
7
  6
CONTINUOUS
 70
0
 71
3
 72
13
 73
9
 74
0
 42
0.0000001
 43
0.0000001
 44
0.0000000001
 40
0.0
 40
0.0
 40
0.0
 40
0.0
 40
0.0927966287
 40
0.2002447148
 40
0.3193571807
 40
0.4469985052
 40
0.7183509509
 40
1.0
 40
1.0
 40
1.0
 40
1.0
 10
173.303510873
 20
68.0263304411
 30
0.0
 10
173.28959596
 20
68.0264377282
 30
0.0
 10
173.2596858313
 20
68.0318696409
 30
0.0
 10
173.2145508063
 20
68.0479963346
 30
0.0
 10
173.166306185
 20
68.070359557
 30
0.0
 10
173.0977244873
 20
68.1068996098
 30
0.0
 10
173.010162712
 20
68.1594330291
 30
0.0
 10
172.9400810259
 20
68.2037516554
 30
0.0
 10
172.9043861828
 20
68.2263270564
 30
0.0
  0
SPLINE
  5
6BB
100
AcDbEntity
  8
ON_OFF_PORTATASTO
100
AcDbSpline
 62
7
  6
CONTINUOUS
 70
0
 71
3
 72
13
 73
9
 74
0
 42
0.0000001
 43
0.0000001
 44
0.0000000001
 40
0.0
 40
0.0
 40
0.0
 40
0.0
 40
0.0927966287
 40
0.2002447148
 40
0.3193571807
 40
0.4469985052
 40
0.7183509509
 40
1.0
 40
1.0
 40
1.0
 40
1.0
 10
164.7110962457
 20
68.0263304411
 30
0.0
 10
164.7250111587
 20
68.0264377282
 30
0.0
 10
164.7549212874
 20
68.0318696409
 30
0.0
 10
164.8000563125
 20
68.0479963346
 30
0.0
 10
164.8483009337
 20
68.070359557
 30
0.0
 10
164.9168826315
 20
68.1068996098
 30
0.0
 10
165.0044444068
 20
68.1594330291
 30
0.0
 10
165.0745260929
 20
68.2037516554
 30
0.0
 10
165.110220936
 20
68.2263270564
 30
0.0
  0
SPLINE
  5
6BC
100
AcDbEntity
  8
ON_OFF_PORTATASTO
100
AcDbSpline
 62
7
  6
CONTINUOUS
 70
0
 71
3
 72
13
 73
9
 74
0
 42
0.0000001
 43
0.0000001
 44
0.0000000001
 40
0.0
 40
0.0
 40
0.0
 40
0.0
 40
0.0927966287
 40
0.2002447148
 40
0.3193571807
 40
0.4469985052
 40
0.7183509509
 40
1.0
 40
1.0
 40
1.0
 40
1.0
 10
164.7110962457
 20
115.6170083747
 30
0.0
 10
164.7250111587
 20
115.6169010876
 30
0.0
 10
164.7549212874
 20
115.6114691749
 30
0.0
 10
164.8000563125
 20
115.5953424811
 30
0.0
 10
164.8483009337
 20
115.5729792588
 30
0.0
 10
164.9168826315
 20
115.5364392059
 30
0.0
 10
165.0044444068
 20
115.4839057867
 30
0.0
 10
165.0745260929
 20
115.4395871604
 30
0.0
 10
165.110220936
 20
115.4170117594
 30
0.0
  0
SPLINE
  5
6BD
100
AcDbEntity
  8
ON_OFF_PORTATASTO
100
AcDbSpline
 62
7
  6
CONTINUOUS
 70
0
 71
3
 72
13
 73
9
 74
0
 42
0.0000001
 43
0.0000001
 44
0.0000000001
 40
0.0
 40
0.0
 40
0.0
 40
0.0
 40
0.0927966287
 40
0.2002447148
 40
0.3193571807
 40
0.4469985052
 40
0.7183509509
 40
1.0
 40
1.0
 40
1.0
 40
1.0
 10
173.303510873
 20
115.6170083747
 30
0.0
 10
173.28959596
 20
115.6169010876
 30
0.0
 10
173.2596858313
 20
115.6114691749
 30
0.0
 10
173.2145508063
 20
115.5953424811
 30
0.0
 10
173.166306185
 20
115.5729792588
 30
0.0
 10
173.0977244873
 20
115.5364392059
 30
0.0
 10
173.010162712
 20
115.4839057867
 30
0.0
 10
172.9400810259
 20
115.4395871604
 30
0.0
 10
172.9043861828
 20
115.4170117594
 30
0.0
  0
ELLIPSE
  5
6BE
100
AcDbEntity
  8
INCISIONI
100
AcDbEllipse
 62
250
  6
CONTINUOUS
 10
98.3117192458
 20
97.6820144079
 30
0.0
 11
0.0
 21
0.436782
 31
0.0
 40
1.0
 41
-1.5707963268
 42
0.7257967661
  0
ELLIPSE
  5
6BF
100
AcDbEntity
  8
INCISIONI
100
AcDbEllipse
 62
250
  6
CONTINUOUS
 10
95.9898802458
 20
95.6216694079
 30
0.0
 11
0.4367818435
 21
0.0
 31
0.0
 40
1.0
 41
2.2965933656
 42
3.9865922142
  0
ELLIPSE
  5
6C0
100
AcDbEntity
  8
INCISIONI
100
AcDbEllipse
 62
250
  6
CONTINUOUS
 10
98.3117192458
 20
93.5613244079
 30
0.0
 11
0.0
 21
0.4367818435
 31
0.0
 40
1.0
 41
-3.8673892399
 42
-1.5707963268
  0
ELLIPSE
  5
6C1
100
AcDbEntity
  8
INCISIONI
100
AcDbEllipse
 62
250
  6
CONTINUOUS
 10
89.6427642458
 20
86.3216694079
 30
0.0
 11
0.0
 21
0.3452682862
 31
0.0
 40
1.0
 41
0.8726652937
 42
2.2689280956
  0
ELLIPSE
  5
6C2
100
AcDbEntity
  8
INCISIONI
100
AcDbEllipse
 62
250
  6
CONTINUOUS
 10
92.4978722458
 20
82.8546264079
 30
0.0
 11
0.3038353159
 21
-0.0
 31
0.0
 40
1.0
 41
-2.4434591315
 42
0.0
  0
ELLIPSE
  5
6C3
100
AcDbEntity
  8
INCISIONI
100
AcDbEllipse
 62
250
  6
CONTINUOUS
 10
92.4978722458
 20
89.7887124079
 30
0.0
 11
0.0
 21
0.303837
 31
0.0
 40
1.0
 41
-1.5707963268
 42
0.8726645574
  0
ELLIPSE
  5
6C4
100
AcDbEntity
  8
INCISIONI
100
AcDbEllipse
 62
250
  6
CONTINUOUS
 10
92.2229702458
 20
85.8244834079
 30
0.0
 11
0.0
 21
0.096675
 31
0.0
 40
1.0
 41
-3.1415926536
 42
-1.5707963268
  0
ELLIPSE
  5
6C5
100
AcDbEntity
  8
INCISIONI
100
AcDbEllipse
 62
250
  6
CONTINUOUS
 10
91.5307312458
 20
85.8244834079
 30
0.0
 11
0.0
 21
0.096675
 31
0.0
 40
1.0
 41
-4.7123889804
 42
-3.1415926536
  0
ELLIPSE
  5
6C6
100
AcDbEntity
  8
INCISIONI
100
AcDbEllipse
 62
250
  6
CONTINUOUS
 10
92.2229702458
 20
87.6553704079
 30
0.0
 11
0.096675061
 21
0.0
 31
0.0
 40
1.0
 41
-0.8726582945
 42
0.8726651601
  0
ELLIPSE
  5
6C7
100
AcDbEntity
  8
INCISIONI
100
AcDbEllipse
 62
250
  6
CONTINUOUS
 10
91.5307312458
 20
84.3329254079
 30
0.0
 11
0.0
 21
0.096675
 31
0.0
 40
1.0
 41
-4.7123889804
 42
-3.1415926536
  0
ELLIPSE
  5
6C8
100
AcDbEntity
  8
INCISIONI
100
AcDbEllipse
 62
250
  6
CONTINUOUS
 10
91.7655132458
 20
84.3329254079
 30
0.0
 11
0.0
 21
0.096675
 31
0.0
 40
1.0
 41
-3.1415926536
 42
-1.5707963268
  0
ELLIPSE
  5
6C9
100
AcDbEntity
  8
INCISIONI
100
AcDbEllipse
 62
250
  6
CONTINUOUS
 10
91.9588632458
 20
85.4239724079
 30
0.0
 11
-0.0
 21
0.096675
 31
0.0
 40
1.0
 41
-0.0
 42
1.5707963268
  0
ELLIPSE
  5
6CA
100
AcDbEntity
  8
INCISIONI
100
AcDbEllipse
 62
250
  6
CONTINUOUS
 10
92.2229702458
 20
85.4239724079
 30
0.0
 11
0.096676
 21
0.0
 31
0.0
 40
1.0
 41
0.0
 42
1.5707963268
  0
ELLIPSE
  5
6CB
100
AcDbEntity
  8
INCISIONI
100
AcDbEllipse
 62
250
  6
CONTINUOUS
 10
97.8059722458
 20
90.3716694079
 30
0.0
 11
1.6849638592
 21
-0.0
 31
0.0
 40
1.0
 41
-2.2308799162
 42
-0.7037206227
  0
ELLIPSE
  5
6CC
100
AcDbEntity
  8
INCISIONI
100
AcDbEllipse
 62
250
  6
CONTINUOUS
 10
97.8059722458
 20
90.3716694079
 30
0.0
 11
1.6849640451
 21
-0.0
 31
0.0
 40
1.0
 41
0.7037206227
 42
2.2308799162
  0
ELLIPSE
  5
6CD
100
AcDbEntity
  8
INCISIONI
100
AcDbEllipse
 62
250
  6
CONTINUOUS
 10
101.0470492458
 20
90.9068934079
 30
0.0
 11
0.9911548367
 21
0.0
 31
0.0
 40
1.0
 41
2.3322856063
 42
3.1415926536
  0
ELLIPSE
  5
6CE
100
AcDbEntity
  8
INCISIONI
100
AcDbEllipse
 62
250
  6
CONTINUOUS
 10
97.8059722458
 20
90.3716694079
 30
0.0
 11
0.0
 21
2.249922
 31
0.0
 40
1.0
 41
0.0
 42
6.2831853072
  0
ELLIPSE
  5
6CF
100
AcDbEntity
  8
INCISIONI
100
AcDbEllipse
 62
250
  6
CONTINUOUS
 10
97.7579322458
 20
105.5216694079
 30
0.0
 11
1.7999999246
 21
0.0
 31
0.0
 40
1.0
 41
3.086008478
 42
4.5025183792
  0
ELLIPSE
  5
6D0
100
AcDbEntity
  8
INCISIONI
100
AcDbEllipse
 62
250
  6
CONTINUOUS
 10
97.7579322458
 20
105.5216694079
 30
0.0
 11
-0.0
 21
1.7999968808
 31
0.0
 40
1.0
 41
-2.9317216922
 42
-1.5152120571
  0
ELLIPSE
  5
6D1
100
AcDbEntity
  8
INCISIONI
100
AcDbEllipse
 62
250
  6
CONTINUOUS
 10
85.7836826206
 20
87.1408744079
 30
0.0
 11
0.0
 21
0.352865
 31
0.0
 40
0.9996954135
 41
-1.5707963268
 42
1.5707963268
  0
ELLIPSE
  5
6D2
100
AcDbEntity
  8
INCISIONI
100
AcDbEllipse
 62
250
  6
CONTINUOUS
 10
97.5760872458
 20
94.9262674079
 30
0.0
 11
0.201149
 21
0.0
 31
0.0
 40
1.0
 41
1.5707963268
 42
3.1415926536
  0
ELLIPSE
  5
6D3
100
AcDbEntity
  8
INCISIONI
100
AcDbEllipse
 62
250
  6
CONTINUOUS
 10
98.0358572458
 20
94.9262674079
 30
0.0
 11
0.201149
 21
0.0
 31
0.0
 40
1.0
 41
0.0
 42
1.5707963268
  0
ELLIPSE
  5
6D4
100
AcDbEntity
  8
INCISIONI
100
AcDbEllipse
 62
250
  6
CONTINUOUS
 10
97.7579322458
 20
105.5216694079
 30
0.0
 11
2.5499986575
 21
-0.0
 31
0.0
 40
1.0
 41
3.1023668883
 42
6.3224110725
  0
ELLIPSE
  5
6D5
100
AcDbEntity
  8
INCISIONI
100
AcDbEllipse
 62
250
  6
CONTINUOUS
 10
97.7579322458
 20
101.1365594079
 30
0.0
 11
-0.0
 21
1.7999999246
 31
0.0
 40
1.0
 41
1.5152121512
 42
4.767973156
  0
ELLIPSE
  5
6D6
100
AcDbEntity
  8
INCISIONI
100
AcDbEllipse
 62
250
  6
CONTINUOUS
 10
97.7579322458
 20
101.1365594079
 30
0.0
 11
0.0
 21
2.5499985399
 31
0.0
 40
1.0
 41
1.5315705596
 42
4.7516147475
  0
ELLIPSE
  5
6D7
100
AcDbEntity
  8
ON_OFF_PORTATASTO
100
AcDbEllipse
 62
7
  6
CONTINUOUS
 10
82.8124494093
 20
69.8434044582
 30
0.0
 11
42.9720690761
 21
-2.2519182643
 31
0.0
 40
0.0116195205
 41
-1.6344111767
 42
-1.6019342201
  0
ELLIPSE
  5
6D8
100
AcDbEntity
  8
ON_OFF_PORTATASTO
100
AcDbEllipse
 62
7
  6
CONTINUOUS
 10
82.8124494093
 20
113.7999343576
 30
0.0
 11
42.9720690761
 21
2.2519182643
 31
0.0
 40
0.0116195205
 41
1.6019342201
 42
1.6344111767
  0
ELLIPSE
  5
6D9
100
AcDbEntity
  8
ON_OFF_TASTOTARGHETTA
100
AcDbEllipse
 62
7
  6
CONTINUOUS
 10
179.1071816969
 20
112.4478751439
 30
0.0
 11
0.7998183719
 21
0.0221571454
 31
0.0
 40
0.9945135036
 41
-0.0275437628
 42
0.1690200612
  0
ELLIPSE
  5
6DA
100
AcDbEntity
  8
ON_OFF_TASTOTARGHETTA
100
AcDbEllipse
 62
7
  6
CONTINUOUS
 10
136.4074254218
 20
70.5787457386
 30
0.0
 11
0.7998183719
 21
0.0221571454
 31
0.0
 40
0.9945135036
 41
3.1140488908
 42
4.6845406311
  0
ELLIPSE
  5
6DB
100
AcDbEntity
  8
ON_OFF_TASTOTARGHETTA
100
AcDbEllipse
 62
7
  6
CONTINUOUS
 10
136.4074254218
 20
112.4478751439
 30
0.0
 11
0.7998183719
 21
-0.0221571454
 31
0.0
 40
0.9945135036
 41
2.9725725924
 42
3.1691364164
  0
ELLIPSE
  5
6DC
100
AcDbEntity
  8
ON_OFF_TASTOTARGHETTA
100
AcDbEllipse
 62
7
  6
CONTINUOUS
 10
179.1071816969
 20
70.5787457386
 30
0.0
 11
0.7998183719
 21
-0.0221571454
 31
0.0
 40
0.9945135036
 41
-1.5429479775
 42
0.0275437628
  0
ELLIPSE
  5
6DD
100
AcDbEntity
  8
ON_OFF_PORTATASTO
100
AcDbEllipse
 62
7
  6
CONTINUOUS
 10
135.8573797234
 20
69.9216884471
 30
0.0
 11
0.4473055582
 21
-0.2236357461
 31
0.0
 40
0.9998096356
 41
-2.6780516535
 42
-1.570796327
  0
ELLIPSE
  5
6DE
100
AcDbEntity
  8
ON_OFF_PORTATASTO
100
AcDbEllipse
 62
7
  6
CONTINUOUS
 10
179.6572273954
 20
113.7216503687
 30
0.0
 11
0.4473055582
 21
-0.2236357461
 31
0.0
 40
0.9998096356
 41
0.4635410001
 42
1.5707963266
  0
ELLIPSE
  5
6DF
100
AcDbEntity
  8
ON_OFF_PORTATASTO
100
AcDbEllipse
 62
7
  6
CONTINUOUS
 10
179.6572273954
 20
69.9216884471
 30
0.0
 11
0.4473055582
 21
0.2236357461
 31
0.0
 40
0.9998096356
 41
-1.5707963266
 42
-0.4635410001
  0
ELLIPSE
  5
6E0
100
AcDbEntity
  8
ON_OFF_PORTATASTO
100
AcDbEllipse
 62
7
  6
CONTINUOUS
 10
135.8573797234
 20
113.7216503687
 30
0.0
 11
0.4473055582
 21
0.2236357461
 31
0.0
 40
0.9998096356
 41
1.570796327
 42
2.6780516535
  0
ELLIPSE
  5
6E1
100
AcDbEntity
  8
ON_OFF_PORTATASTO
100
AcDbEllipse
 62
7
  6
CONTINUOUS
 10
179.6660679871
 20
69.8434044582
 30
0.0
 11
-0.2441762974
 21
2.3066033254
 31
0.0
 40
0.023266293
 41
-4.5602682193
 42
-4.5277912626
  0
ELLIPSE
  5
6E2
100
AcDbEntity
  8
ON_OFF_PORTATASTO
100
AcDbEllipse
 62
7
  6
CONTINUOUS
 10
179.6660679871
 20
113.7999343576
 30
0.0
 11
0.2441762974
 21
2.3066033254
 31
0.0
 40
0.023266293
 41
1.386198609
 42
1.4186755657
  0
ELLIPSE
  5
6E3
100
AcDbEntity
  8
ON_OFF_PORTATASTO
100
AcDbEllipse
 62
7
  6
CONTINUOUS
 10
135.8485391316
 20
69.8434044582
 30
0.0
 11
0.2441762974
 21
2.3066033254
 31
0.0
 40
0.023266293
 41
-1.7553940446
 42
-1.7229170879
  0
ELLIPSE
  5
6E4
100
AcDbEntity
  8
ON_OFF_PORTATASTO
100
AcDbEllipse
 62
7
  6
CONTINUOUS
 10
135.8485391316
 20
113.7999343576
 30
0.0
 11
-0.2441762974
 21
2.3066033254
 31
0.0
 40
0.023266293
 41
-1.4186755657
 42
-1.386198609
  0
ELLIPSE
  5
6E5
100
AcDbEntity
  8
ON_OFF_PORTATASTO
100
AcDbEllipse
 62
7
  6
CONTINUOUS
 10
136.1145800775
 20
114.1561596838
 30
0.0
 11
0.25
 21
0.0
 31
0.0
 40
0.0524077793
 41
-2.6154833905
 42
-1.5707963268
  0
ELLIPSE
  5
6E6
100
AcDbEntity
  8
ON_OFF_PORTATASTO
100
AcDbEllipse
 62
7
  6
CONTINUOUS
 10
138.0000270413
 20
114.1561596838
 30
0.0
 11
0.25
 21
-0.0
 31
0.0
 40
0.0524077793
 41
-1.5707963268
 42
-0.0058177642
  0
ELLIPSE
  5
6E7
100
AcDbEntity
  8
ON_OFF_PORTATASTO
100
AcDbEllipse
 62
7
  6
CONTINUOUS
 10
155.0145800775
 20
114.1561596838
 30
0.0
 11
0.25
 21
-0.0
 31
0.0
 40
0.0524077793
 41
-3.1357748894
 42
-1.5707963268
  0
ELLIPSE
  5
6E8
100
AcDbEntity
  8
ON_OFF_PORTATASTO
100
AcDbEllipse
 62
7
  6
CONTINUOUS
 10
156.9000270413
 20
114.1561596838
 30
0.0
 11
0.25
 21
-0.0
 31
0.0
 40
0.0524077793
 41
-1.5707963268
 42
-0.0058177642
  0
ELLIPSE
  5
6E9
100
AcDbEntity
  8
ON_OFF_PORTATASTO
100
AcDbEllipse
 62
7
  6
CONTINUOUS
 10
136.1145800775
 20
69.487179132
 30
0.0
 11
0.25
 21
-0.0
 31
0.0
 40
0.0524077793
 41
1.5707963268
 42
2.6154833905
  0
ELLIPSE
  5
6EA
100
AcDbEntity
  8
ON_OFF_PORTATASTO
100
AcDbEllipse
 62
7
  6
CONTINUOUS
 10
138.0000270413
 20
69.487179132
 30
0.0
 11
0.25
 21
-0.0
 31
0.0
 40
0.0524077793
 41
0.0058177642
 42
1.5707963268
  0
ELLIPSE
  5
6EB
100
AcDbEntity
  8
ON_OFF_PORTATASTO
100
AcDbEllipse
 62
7
  6
CONTINUOUS
 10
155.0145800775
 20
69.487179132
 30
0.0
 11
0.25
 21
-0.0
 31
0.0
 40
0.0524077793
 41
1.5707963268
 42
3.1357748894
  0
ELLIPSE
  5
6EC
100
AcDbEntity
  8
ON_OFF_PORTATASTO
100
AcDbEllipse
 62
7
  6
CONTINUOUS
 10
156.9000270413
 20
69.487179132
 30
0.0
 11
0.25
 21
-0.0
 31
0.0
 40
0.0524077793
 41
0.0058177642
 42
1.5707963268
  0
ELLIPSE
  5
6ED
100
AcDbEntity
  8
ON_OFF_PORTATASTO
100
AcDbEllipse
 62
7
  6
CONTINUOUS
 10
158.6145800775
 20
114.1561596838
 30
0.0
 11
0.25
 21
-0.0
 31
0.0
 40
0.0524077793
 41
-3.1357748894
 42
-1.5707963268
  0
ELLIPSE
  5
6EE
100
AcDbEntity
  8
ON_OFF_PORTATASTO
100
AcDbEllipse
 62
7
  6
CONTINUOUS
 10
160.5000270413
 20
114.1561596838
 30
0.0
 11
0.25
 21
-0.0
 31
0.0
 40
0.0524077793
 41
-1.5707963268
 42
-0.0058177642
  0
ELLIPSE
  5
6EF
100
AcDbEntity
  8
ON_OFF_PORTATASTO
100
AcDbEllipse
 62
7
  6
CONTINUOUS
 10
177.5145800775
 20
114.1561596838
 30
0.0
 11
0.25
 21
0.0
 31
0.0
 40
0.0524077793
 41
-3.1357748894
 42
-1.5707963268
  0
ELLIPSE
  5
6F0
100
AcDbEntity
  8
ON_OFF_PORTATASTO
100
AcDbEllipse
 62
7
  6
CONTINUOUS
 10
179.4000270413
 20
114.1561596838
 30
0.0
 11
0.25
 21
-0.0
 31
0.0
 40
0.0524077793
 41
-1.5707963268
 42
-0.5261092631
  0
ELLIPSE
  5
6F1
100
AcDbEntity
  8
ON_OFF_PORTATASTO
100
AcDbEllipse
 62
7
  6
CONTINUOUS
 10
158.6145800775
 20
69.487179132
 30
0.0
 11
0.25
 21
-0.0
 31
0.0
 40
0.0524077793
 41
1.5707963268
 42
3.1357748894
  0
ELLIPSE
  5
6F2
100
AcDbEntity
  8
ON_OFF_PORTATASTO
100
AcDbEllipse
 62
7
  6
CONTINUOUS
 10
160.5000270413
 20
69.487179132
 30
0.0
 11
0.25
 21
-0.0
 31
0.0
 40
0.0524077793
 41
0.0058177642
 42
1.5707963268
  0
ELLIPSE
  5
6F3
100
AcDbEntity
  8
ON_OFF_PORTATASTO
100
AcDbEllipse
 62
7
  6
CONTINUOUS
 10
177.5145800775
 20
69.487179132
 30
0.0
 11
0.25
 21
0.0
 31
0.0
 40
0.0524077793
 41
1.5707963268
 42
3.1357748894
  0
ELLIPSE
  5
6F4
100
AcDbEntity
  8
ON_OFF_PORTATASTO
100
AcDbEllipse
 62
7
  6
CONTINUOUS
 10
179.4000270413
 20
69.487179132
 30
0.0
 11
0.25
 21
-0.0
 31
0.0
 40
0.0524077793
 41
0.5261092631
 42
1.5707963268
  0
ELLIPSE
  5
6F5
100
AcDbEntity
  8
ON_OFF_PORTATASTO
100
AcDbEllipse
 62
7
  6
CONTINUOUS
 10
142.610220936
 20
68.0245783228
 30
0.0
 11
0.5
 21
-0.0
 31
0.0
 40
0.0058178298
 41
2.495179495
 42
3.1357748894
  0
ELLIPSE
  5
6F6
100
AcDbEntity
  8
ON_OFF_PORTATASTO
100
AcDbEllipse
 62
7
  6
CONTINUOUS
 10
142.610220936
 20
69.4478732975
 30
0.0
 11
0.5
 21
0.0
 31
0.0
 40
0.0524077793
 41
1.5707963268
 42
3.1357748894
  0
ELLIPSE
  5
6F7
100
AcDbEntity
  8
ON_OFF_PORTATASTO
100
AcDbEllipse
 62
7
  6
CONTINUOUS
 10
150.4043861828
 20
69.4478732975
 30
0.0
 11
0.5
 21
0.0
 31
0.0
 40
0.0524077793
 41
0.0058177642
 42
1.5707963268
  0
ELLIPSE
  5
6F8
100
AcDbEntity
  8
ON_OFF_PORTATASTO
100
AcDbEllipse
 62
7
  6
CONTINUOUS
 10
150.4043861828
 20
68.0245783228
 30
0.0
 11
0.5
 21
0.0
 31
0.0
 40
0.0058178298
 41
0.0058177642
 42
0.6464131586
  0
ELLIPSE
  5
6F9
100
AcDbEntity
  8
ON_OFF_PORTATASTO
100
AcDbEllipse
 62
7
  6
CONTINUOUS
 10
142.610220936
 20
114.1954655183
 30
0.0
 11
0.5
 21
-0.0
 31
0.0
 40
0.0524077793
 41
-3.1357748894
 42
-1.5707963268
  0
ELLIPSE
  5
6FA
100
AcDbEntity
  8
ON_OFF_PORTATASTO
100
AcDbEllipse
 62
7
  6
CONTINUOUS
 10
142.610220936
 20
115.618760493
 30
0.0
 11
0.5
 21
0.0
 31
0.0
 40
0.0058178298
 41
-3.1357748894
 42
-2.495179495
  0
ELLIPSE
  5
6FB
100
AcDbEntity
  8
ON_OFF_PORTATASTO
100
AcDbEllipse
 62
7
  6
CONTINUOUS
 10
150.4043861828
 20
115.618760493
 30
0.0
 11
0.5
 21
-0.0
 31
0.0
 40
0.0058178298
 41
-0.6464131586
 42
-0.0058177642
  0
ELLIPSE
  5
6FC
100
AcDbEntity
  8
ON_OFF_PORTATASTO
100
AcDbEllipse
 62
7
  6
CONTINUOUS
 10
150.4043861828
 20
114.1954655183
 30
0.0
 11
0.5
 21
0.0
 31
0.0
 40
0.0524077793
 41
-1.5707963268
 42
-0.0058177642
  0
ELLIPSE
  5
6FD
100
AcDbEntity
  8
ON_OFF_PORTATASTO
100
AcDbEllipse
 62
7
  6
CONTINUOUS
 10
165.110220936
 20
68.0245783228
 30
0.0
 11
0.5
 21
-0.0
 31
0.0
 40
0.0058178298
 41
2.495179495
 42
3.1357748894
  0
ELLIPSE
  5
6FE
100
AcDbEntity
  8
ON_OFF_PORTATASTO
100
AcDbEllipse
 62
7
  6
CONTINUOUS
 10
165.110220936
 20
69.4478732975
 30
0.0
 11
0.5
 21
0.0
 31
0.0
 40
0.0524077793
 41
1.5707963268
 42
3.1357748894
  0
ELLIPSE
  5
6FF
100
AcDbEntity
  8
ON_OFF_PORTATASTO
100
AcDbEllipse
 62
7
  6
CONTINUOUS
 10
172.9043861828
 20
69.4478732975
 30
0.0
 11
0.5
 21
0.0
 31
0.0
 40
0.0524077793
 41
0.0058177642
 42
1.5707963268
  0
ELLIPSE
  5
700
100
AcDbEntity
  8
ON_OFF_PORTATASTO
100
AcDbEllipse
 62
7
  6
CONTINUOUS
 10
172.9043861828
 20
68.0245783228
 30
0.0
 11
0.5
 21
0.0
 31
0.0
 40
0.0058178298
 41
0.0058177642
 42
0.6464131586
  0
ELLIPSE
  5
701
100
AcDbEntity
  8
ON_OFF_PORTATASTO
100
AcDbEllipse
 62
7
  6
CONTINUOUS
 10
165.110220936
 20
114.1954655183
 30
0.0
 11
0.5
 21
0.0
 31
0.0
 40
0.0524077793
 41
-3.1357748894
 42
-1.5707963268
  0
ELLIPSE
  5
702
100
AcDbEntity
  8
ON_OFF_PORTATASTO
100
AcDbEllipse
 62
7
  6
CONTINUOUS
 10
165.110220936
 20
115.618760493
 30
0.0
 11
0.5
 21
-0.0
 31
0.0
 40
0.0058178298
 41
-3.1357748894
 42
-2.495179495
  0
ELLIPSE
  5
703
100
AcDbEntity
  8
ON_OFF_PORTATASTO
100
AcDbEllipse
 62
7
  6
CONTINUOUS
 10
172.9043861828
 20
115.618760493
 30
0.0
 11
0.5
 21
-0.0
 31
0.0
 40
0.0058178298
 41
-0.6464131586
 42
-0.0058177642
  0
ELLIPSE
  5
704
100
AcDbEntity
  8
ON_OFF_PORTATASTO
100
AcDbEllipse
 62
7
  6
CONTINUOUS
 10
172.9043861828
 20
114.1954655183
 30
0.0
 11
0.5
 21
0.0
 31
0.0
 40
0.0524077793
 41
-1.5707963268
 42
-0.0058177642
  0
ELLIPSE
  5
705
100
AcDbEntity
  8
ON_OFF_PORTATASTO
100
AcDbEllipse
 62
7
  6
CONTINUOUS
 10
179.5961346681
 20
113.5899637867
 30
0.0
 11
0.1582391023
 21
0.4751033573
 31
0.0
 40
0.9984778551
 41
-1.0472689472
 42
0.3210503505
  0
ELLIPSE
  5
706
100
AcDbEntity
  8
ON_OFF_PORTATASTO
100
AcDbEllipse
 62
7
  6
CONTINUOUS
 10
135.9184724506
 20
113.5899637867
 30
0.0
 11
-0.1582391023
 21
0.4751033573
 31
0.0
 40
0.9984778551
 41
-0.3210503505
 42
1.0472689472
  0
ELLIPSE
  5
707
100
AcDbEntity
  8
ON_OFF_PORTATASTO
100
AcDbEllipse
 62
7
  6
CONTINUOUS
 10
135.9084407125
 20
113.6200834753
 30
0.0
 11
0.5004574846
 21
0.0659267163
 31
0.0
 40
0.6886902484
 41
2.750118244
 42
2.9516818845
  0
ELLIPSE
  5
708
100
AcDbEntity
  8
ON_OFF_PORTATASTO
100
AcDbEllipse
 62
7
  6
CONTINUOUS
 10
179.6061664063
 20
113.6200834753
 30
0.0
 11
0.5004574846
 21
-0.0659267163
 31
0.0
 40
0.6886902484
 41
0.1899107691
 42
0.3914744096
  0
ELLIPSE
  5
709
100
AcDbEntity
  8
ON_OFF_PORTATASTO
100
AcDbEllipse
 62
7
  6
CONTINUOUS
 10
179.6061664063
 20
70.0232553405
 30
0.0
 11
0.5004574846
 21
0.0659267163
 31
0.0
 40
0.6886902484
 41
-0.3914744096
 42
-0.1899107691
  0
ELLIPSE
  5
70A
100
AcDbEntity
  8
ON_OFF_PORTATASTO
100
AcDbEllipse
 62
7
  6
CONTINUOUS
 10
135.9084407125
 20
70.0232553405
 30
0.0
 11
0.5004574846
 21
-0.0659267163
 31
0.0
 40
0.6886902484
 41
-2.9516818845
 42
-2.750118244
  0
ELLIPSE
  5
70B
100
AcDbEntity
  8
ON_OFF_PORTATASTO
100
AcDbEllipse
 62
7
  6
CONTINUOUS
 10
135.9184724506
 20
70.0533750291
 30
0.0
 11
-0.1582391023
 21
-0.4751033573
 31
0.0
 40
0.9984778551
 41
-1.0472689472
 42
0.3210503505
  0
ELLIPSE
  5
70C
100
AcDbEntity
  8
ON_OFF_PORTATASTO
100
AcDbEllipse
 62
7
  6
CONTINUOUS
 10
179.5961346681
 20
70.0533750291
 30
0.0
 11
-0.1582391023
 21
0.4751033573
 31
0.0
 40
0.9984778551
 41
-3.4626430041
 42
-2.0943237064
  0
ENDSEC
  0
SECTION
  2
OBJECTS
  0
DICTIONARY
  5
C
100
AcDbDictionary
280
0
281
1
  3
ACAD_GROUP
350
D
  3
ACAD_MLINESTYLE
350
17
  3
ACAD_LAYOUT
350
1A
  3
ACAD_PLOTSETTINGS
350
19
  3
ACAD_PLOTSTYLENAME
350
E
  0
DICTIONARY
  5
D
102
{ACAD_REACTORS
330
C
102
}
100
AcDbDictionary
280
0
281
1
  0
ACDBDICTIONARYWDFLT
  5
E
102
{ACAD_REACTORS
330
C
102
}
100
AcDbDictionary
281
1
  3
Normal
350
F
100
AcDbDictionaryWithDefault
340
F
  0
DICTIONARY
  5
17
102
{ACAD_REACTORS
330
C
102
}
100
AcDbDictionary
280
0
281
1
  3
Standard
350
18
  0
DICTIONARY
  5
19
102
{ACAD_REACTORS
330
C
102
}
100
AcDbDictionary
281
1
  0
DICTIONARY
  5
1A
102
{ACAD_REACTORS
330
C
102
}
100
AcDbDictionary
281
1
  3
Model
350
70D
  3
Layout1
350
70E
  0
ACDBPLACEHOLDER
  5
F
102
{ACAD_REACTORS
330
E
102
}
  0
MLINESTYLE
  5
18
102
{ACAD_REACTORS
330
17
102
}
100
AcDbMlineStyle
  2
STANDARD
 70
0
  3

 62
256
 51
90.0
 52
90.0
 71
2
 49
0.5
 62
256
  6
BYLAYER
 49
-0.5
 62
256
  6
BYLAYER
  0
LAYOUT
  5
70D
102
{ACAD_REACTORS
330
1A
102
}
100
AcDbPlotSettings
  1

  2
none_device
  4
ISO_A4_(297.00_x_210.00_MM)
  6

 40
0.0
 41
0.0
 42
0.0
 43
0.0
 44
297.0
 45
210.0
 46
0.0
 47
0.0
 48
0.0
 49
0.0
140
0.0
141
0.0
142
1.0
143
1.0
 70
1024
 72
1
 73
0
 74
0
  7

 75
0
147
1.0
148
0.0
149
0.0
100
AcDbLayout
  1
Model
 70
0
 71
0
 10
0.0
 20
0.0
 11
297.0
 21
210.0
 12
0.0
 22
0.0
 32
0.0
 14
0.0
 24
0.0
 34
0.0
 15
0.0
 25
0.0
 35
0.0
146
0.0
 13
0.0
 23
0.0
 33
0.0
 16
1.0
 26
0.0
 36
0.0
 17
0.0
 27
1.0
 37
0.0
 76
0
330
223
345
0
346
0
  0
LAYOUT
  5
70E
102
{ACAD_REACTORS
330
1A
102
}
100
AcDbPlotSettings
  1

  2
none_device
  4
ISO_A4_(297.00_x_210.00_MM)
  6

 40
0.0
 41
0.0
 42
0.0
 43
0.0
 44
297.0
 45
210.0
 46
0.0
 47
0.0
 48
0.0
 49
0.0
140
0.0
141
0.0
142
1.0
143
1.0
 70
0
 72
1
 73
0
 74
0
  7

 75
0
147
1.0
148
0.0
149
0.0
100
AcDbLayout
  1
Layout1
 70
0
 71
1
 10
0.0
 20
0.0
 11
297.0
 21
210.0
 12
0.0
 22
0.0
 32
0.0
 14
0.0
 24
0.0
 34
0.0
 15
0.0
 25
0.0
 35
0.0
146
0.0
 13
0.0
 23
0.0
 33
0.0
 16
1.0
 26
0.0
 36
0.0
 17
0.0
 27
1.0
 37
0.0
 76
0
330
224
345
0
346
0
  0
ENDSEC
  0
EOF
