  0
SECTION
  2
HEADER
  9
$ACADVER
  1
AC1024
  9
$DWGCODEPAGE
  3
ANSI_1252
  9
$EXTMAX
 10
297.0
 20
210.0
 30
0.0
  9
$EXTMIN
 10
0.0
 20
0.0
 30
0.0
  9
$LIMMIN
 10
0.0
 20
0.0
  9
$LIMMAX
 10
297.0
 20
210.0
  9
$VIEWCTR
 10
148.5
 20
105.0
  9
$VIEWSIZE
 40
210.0
  9
$CLAYER
  8
0
  9
$LTSCALE
 40
16.335
  9
$CELTYPE
  6
BYLAYER
  9
$DIMSCALE
 40
1.0
  9
$DIMASZ
 40
3.0
  9
$DIMEXO
 40
0.5
  9
$DIMDLI
 40
11.286
  9
$DIMEXE
 40
1.5
  9
$DIMCEN
 40
2.673
  9
$DIMLFAC
 40
1.0
  9
$DIMBLK
  1
_FILLED
  9
$DIMALT
 70
0
  9
$DIMALTF
 40
0.0393700787
  9
$DIMTXT
 40
3.0
  9
$DIMTOL
 70
1
  9
$DIMLIM
 70
0
  9
$DIMTFAC
 40
1.0
  9
$DIMTP
 40
0.01
  9
$DIMTM
 40
0.01
  9
$DIMGAP
 40
0.625
  9
$DIMDSEP
 70
44
  9
$AUNITS
 70
0
  9
$PDMODE
 70
3
  9
$PDSIZE
 40
3.0
  9
$HANDSEED
  5
638
  9
$TILEMODE
 70
1
  9
$MEASUREMENT
 70
1
  9
$INSUNITS
 70
4
  0
ENDSEC
  0
SECTION
  2
CLASSES
  0
CLASS
  1
ACDBDICTIONARYWDFLT
  2
AcDbDictionaryWithDefault
  3
AutoCAD 2000
 90
0
 91
1
280
0
281
0
  0
CLASS
  1
ACDBPLACEHOLDER
  2
AcDbPlaceHolder
  3
AutoCAD 2000
 90
0
 91
1
280
0
281
0
  0
CLASS
  1
LAYOUT
  2
AcDbLayout
  3
AutoCAD 2000
 90
0
 91
0
280
0
281
0
  0
ENDSEC
  0
SECTION
  2
TABLES
  0
TABLE
  2
VPORT
  5
8
100
AcDbSymbolTable
 70
2
  0
VPORT
  5
1F4
100
AcDbSymbolTableRecord
100
AcDbViewportTableRecord
  2
*ACTIVE
 70
0
 10
0.0
 20
0.0
 11
1.0
 21
1.0
 12
148.5
 22
105.0
 13
0.0
 23
0.0
 14
1.0
 24
1.0
 15
0.0
 25
0.0
 16
0.0
 26
0.0
 36
1.0
 17
0.0
 27
0.0
 37
0.0
 40
210.0
 41
1.4142857143
 42
50.0
 43
0.0
 44
0.0
 50
0.0
 51
0.0
 71
0
 72
100
 73
1
 74
1
 75
0
 76
0
 77
0
 78
0
  0
ENDTAB
  0
TABLE
  2
LTYPE
  5
5
100
AcDbSymbolTable
 70
6
  0
LTYPE
  5
14
100
AcDbSymbolTableRecord
100
AcDbLinetypeTableRecord
  2
BYBLOCK
 70
0
  3

 72
65
 73
0
 40
0.0
  0
LTYPE
  5
15
100
AcDbSymbolTableRecord
100
AcDbLinetypeTableRecord
  2
BYLAYER
 70
0
  3

 72
65
 73
0
 40
0.0
  0
LTYPE
  5
16
100
AcDbSymbolTableRecord
100
AcDbLinetypeTableRecord
  2
CONTINUOUS
 70
64
  3
Solid line
 72
65
 73
0
 40
0.0
  0
LTYPE
  5
1F5
100
AcDbSymbolTableRecord
100
AcDbLinetypeTableRecord
  2
CENTER
 70
64
  3
____ _ ____ _ ____ _ ____ _ ____ _ ____ _ ____
 72
65
 73
4
 40
0.6
 49
0.375
 74
0
 49
-0.075
 74
0
 49
0.075
 74
0
 49
-0.075
 74
0
  0
LTYPE
  5
1F6
100
AcDbSymbolTableRecord
100
AcDbLinetypeTableRecord
  2
HIDDEN
 70
64
  3
- - - - - - - - - - - - - - - - - - - -
 72
65
 73
2
 40
0.2
 49
0.1
 74
0
 49
-0.1
 74
0
  0
LTYPE
  5
1F7
100
AcDbSymbolTableRecord
100
AcDbLinetypeTableRecord
  2
PHANTOM
 70
64
  3
_____ _ _ _____ _ _ _____ _ _ _____
 72
65
 73
6
 40
0.8
 49
0.45
 74
0
 49
-0.05
 74
0
 49
0.1
 74
0
 49
-0.05
 74
0
 49
0.1
 74
0
 49
-0.05
 74
0
  0
LTYPE
  5
1F8
100
AcDbSymbolTableRecord
100
AcDbLinetypeTableRecord
  2
DOT
 70
64
  3
. . . . . . . . . . . . . . . . . . . .
 72
65
 73
2
 40
0.2
 49
0.1
 74
0
 49
-0.1
 74
0
  0
LTYPE
  5
1F9
100
AcDbSymbolTableRecord
100
AcDbLinetypeTableRecord
  2
DASHED
 70
64
  3
- - - - - - - - - - - - - - - - - - - -
 72
65
 73
2
 40
0.2
 49
0.1
 74
0
 49
-0.1
 74
0
  0
ENDTAB
  0
TABLE
  2
LAYER
  5
2
100
AcDbSymbolTable
 70
36
  0
LAYER
  5
10
100
AcDbSymbolTableRecord
100
AcDbLayerTableRecord
  2
0
 70
0
 62
7
  6
CONTINUOUS
370
-3
390
F
  0
LAYER
  5
1FA
100
AcDbSymbolTableRecord
100
AcDbLayerTableRecord
  2
DEFAULT_1
 70
0
 62
7
  6
CENTER
370
-3
390
F
  0
LAYER
  5
1FB
100
AcDbSymbolTableRecord
100
AcDbLayerTableRecord
  2
DEFAULT_2
 70
0
 62
7
  6
HIDDEN
370
-3
390
F
  0
LAYER
  5
1FC
100
AcDbSymbolTableRecord
100
AcDbLayerTableRecord
  2
DEFAULT_3
 70
0
 62
7
  6
PHANTOM
370
-3
390
F
  0
LAYER
  5
1FD
100
AcDbSymbolTableRecord
100
AcDbLayerTableRecord
  2
ASSI
 70
0
 62
7
  6
CONTINUOUS
370
-3
390
F
  0
LAYER
  5
1FE
100
AcDbSymbolTableRecord
100
AcDbLayerTableRecord
  2
CASTELLO
 70
0
 62
7
  6
CONTINUOUS
370
-3
390
F
  0
LAYER
  5
1FF
100
AcDbSymbolTableRecord
100
AcDbLayerTableRecord
  2
COLORE_TOP
 70
0
 62
7
  6
CONTINUOUS
370
-3
390
F
  0
LAYER
  5
200
100
AcDbSymbolTableRecord
100
AcDbLayerTableRecord
  2
CONTATTO
 70
0
 62
7
  6
CONTINUOUS
370
-3
390
F
  0
LAYER
  5
201
100
AcDbSymbolTableRecord
100
AcDbLayerTableRecord
  2
CONT_MOBILE
 70
0
 62
7
  6
CONTINUOUS
370
-3
390
F
  0
LAYER
  5
202
100
AcDbSymbolTableRecord
100
AcDbLayerTableRecord
  2
COORDINATE
 70
0
 62
7
  6
CONTINUOUS
370
-3
390
F
  0
LAYER
  5
203
100
AcDbSymbolTableRecord
100
AcDbLayerTableRecord
  2
COORD_ORIGINE
 70
0
 62
7
  6
CONTINUOUS
370
-3
390
F
  0
LAYER
  5
204
100
AcDbSymbolTableRecord
100
AcDbLayerTableRecord
  2
COPERCHIO
 70
0
 62
7
  6
CONTINUOUS
370
-3
390
F
  0
LAYER
  5
205
100
AcDbSymbolTableRecord
100
AcDbLayerTableRecord
  2
COPY_PUBLISH
 70
0
 62
7
  6
CONTINUOUS
370
-3
390
F
  0
LAYER
  5
206
100
AcDbSymbolTableRecord
100
AcDbLayerTableRecord
  2
CORPO
 70
0
 62
7
  6
CONTINUOUS
370
-3
390
F
  0
LAYER
  5
207
100
AcDbSymbolTableRecord
100
AcDbLayerTableRecord
  2
COSMETICHE
 70
0
 62
7
  6
CONTINUOUS
370
-3
390
F
  0
LAYER
  5
208
100
AcDbSymbolTableRecord
100
AcDbLayerTableRecord
  2
COSMETICI
 70
0
 62
7
  6
CONTINUOUS
370
-3
390
F
  0
LAYER
  5
209
100
AcDbSymbolTableRecord
100
AcDbLayerTableRecord
  2
CURVE
 70
0
 62
7
  6
CONTINUOUS
370
-3
390
F
  0
LAYER
  5
20A
100
AcDbSymbolTableRecord
100
AcDbLayerTableRecord
  2
DRAFT
 70
0
 62
7
  6
CONTINUOUS
370
-3
390
F
  0
LAYER
  5
20B
100
AcDbSymbolTableRecord
100
AcDbLayerTableRecord
  2
IMPORTED
 70
0
 62
7
  6
CONTINUOUS
370
-3
390
F
  0
LAYER
  5
20C
100
AcDbSymbolTableRecord
100
AcDbLayerTableRecord
  2
IMPORT_IGES
 70
0
 62
7
  6
CONTINUOUS
370
-3
390
F
  0
LAYER
  5
20D
100
AcDbSymbolTableRecord
100
AcDbLayerTableRecord
  2
INCISIONI_LASER
 70
0
 62
7
  6
CONTINUOUS
370
-3
390
F
  0
LAYER
  5
20E
100
AcDbSymbolTableRecord
100
AcDbLayerTableRecord
  2
INTF_1
 70
0
 62
7
  6
CONTINUOUS
370
-3
390
F
  0
LAYER
  5
20F
100
AcDbSymbolTableRecord
100
AcDbLayerTableRecord
  2
INTF_11
 70
0
 62
7
  6
CONTINUOUS
370
-3
390
F
  0
LAYER
  5
210
100
AcDbSymbolTableRecord
100
AcDbLayerTableRecord
  2
INTF_12
 70
0
 62
7
  6
CONTINUOUS
370
-3
390
F
  0
LAYER
  5
211
100
AcDbSymbolTableRecord
100
AcDbLayerTableRecord
  2
INTF_16
 70
0
 62
7
  6
CONTINUOUS
370
-3
390
F
  0
LAYER
  5
212
100
AcDbSymbolTableRecord
100
AcDbLayerTableRecord
  2
INTF_2
 70
0
 62
7
  6
CONTINUOUS
370
-3
390
F
  0
LAYER
  5
213
100
AcDbSymbolTableRecord
100
AcDbLayerTableRecord
  2
MOLLA
 70
0
 62
7
  6
CONTINUOUS
370
-3
390
F
  0
LAYER
  5
214
100
AcDbSymbolTableRecord
100
AcDbLayerTableRecord
  2
NOTE
 70
0
 62
7
  6
CONTINUOUS
370
-3
390
F
  0
LAYER
  5
215
100
AcDbSymbolTableRecord
100
AcDbLayerTableRecord
  2
PERNO
 70
0
 62
7
  6
CONTINUOUS
370
-3
390
F
  0
LAYER
  5
216
100
AcDbSymbolTableRecord
100
AcDbLayerTableRecord
  2
PIANI
 70
0
 62
7
  6
CONTINUOUS
370
-3
390
F
  0
LAYER
  5
217
100
AcDbSymbolTableRecord
100
AcDbLayerTableRecord
  2
PIANI_ORIGINE
 70
0
 62
7
  6
CONTINUOUS
370
-3
390
F
  0
LAYER
  5
218
100
AcDbSymbolTableRecord
100
AcDbLayerTableRecord
  2
PIANI_RIFERIMENTO
 70
0
 62
7
  6
CONTINUOUS
370
-3
390
F
  0
LAYER
  5
219
100
AcDbSymbolTableRecord
100
AcDbLayerTableRecord
  2
PIANI_SFORMO
 70
0
 62
7
  6
CONTINUOUS
370
-3
390
F
  0
LAYER
  5
21A
100
AcDbSymbolTableRecord
100
AcDbLayerTableRecord
  2
POMELLO
 70
0
 62
7
  6
CONTINUOUS
370
-3
390
F
  0
LAYER
  5
21B
100
AcDbSymbolTableRecord
100
AcDbLayerTableRecord
  2
PUNTI
 70
0
 62
7
  6
CONTINUOUS
370
-3
390
F
  0
LAYER
  5
21C
100
AcDbSymbolTableRecord
100
AcDbLayerTableRecord
  2
RACCORDO
 70
0
 62
7
  6
CONTINUOUS
370
-3
390
F
  0
LAYER
  5
21D
100
AcDbSymbolTableRecord
100
AcDbLayerTableRecord
  2
RGB__255__255__255__
 70
0
 62
7
  6
CONTINUOUS
370
-3
390
F
  0
LAYER
  5
21E
100
AcDbSymbolTableRecord
100
AcDbLayerTableRecord
  2
SIMBOLI
 70
0
 62
7
  6
CONTINUOUS
370
-3
390
F
  0
LAYER
  5
21F
100
AcDbSymbolTableRecord
100
AcDbLayerTableRecord
  2
SMUSSO
 70
0
 62
7
  6
CONTINUOUS
370
-3
390
F
  0
LAYER
  5
220
100
AcDbSymbolTableRecord
100
AcDbLayerTableRecord
  2
SNAPLINE
 70
0
 62
7
  6
CONTINUOUS
370
-3
390
F
  0
LAYER
  5
221
100
AcDbSymbolTableRecord
100
AcDbLayerTableRecord
  2
SUPERFICI
 70
0
 62
7
  6
CONTINUOUS
370
-3
390
F
  0
LAYER
  5
222
100
AcDbSymbolTableRecord
100
AcDbLayerTableRecord
  2
SUPPORTO
 70
0
 62
7
  6
CONTINUOUS
370
-3
390
F
  0
LAYER
  5
223
100
AcDbSymbolTableRecord
100
AcDbLayerTableRecord
  2
TASTO
 70
0
 62
7
  6
CONTINUOUS
370
-3
390
F
  0
LAYER
  5
224
100
AcDbSymbolTableRecord
100
AcDbLayerTableRecord
  2
TRACCIABILITA
 70
0
 62
7
  6
CONTINUOUS
370
-3
390
F
  0
LAYER
  5
225
100
AcDbSymbolTableRecord
100
AcDbLayerTableRecord
  2
TRASH
 70
0
 62
7
  6
CONTINUOUS
370
-3
390
F
  0
LAYER
  5
226
100
AcDbSymbolTableRecord
100
AcDbLayerTableRecord
  2
TRECCIA
 70
0
 62
7
  6
CONTINUOUS
370
-3
390
F
  0
LAYER
  5
227
100
AcDbSymbolTableRecord
100
AcDbLayerTableRecord
  2
XSEC_DATUMS
 70
0
 62
7
  6
CONTINUOUS
370
-3
390
F
  0
ENDTAB
  0
TABLE
  2
STYLE
  5
3
100
AcDbSymbolTable
 70
1
  0
STYLE
  5
11
100
AcDbSymbolTableRecord
100
AcDbTextStyleTableRecord
  2
STANDARD
 70
0
 40
0.0
 41
0.8
 50
0.0
 71
0
 42
0.2
  3
txt
  4

  0
STYLE
  5
228
100
AcDbSymbolTableRecord
100
AcDbTextStyleTableRecord
  2
TEXTSTYLE_1
 70
0
 40
0.0
 41
0.8
 50
0.0
 71
0
 42
0.2
  3
gdt
  4

  0
ENDTAB
  0
TABLE
  2
VIEW
  5
6
100
AcDbSymbolTable
 70
0
  0
ENDTAB
  0
TABLE
  2
UCS
  5
7
100
AcDbSymbolTable
 70
0
  0
ENDTAB
  0
TABLE
  2
APPID
  5
9
100
AcDbSymbolTable
 70
1
  0
APPID
  5
229
100
AcDbSymbolTableRecord
100
AcDbRegAppTableRecord
  2
ACAD
 70
0
  0
ENDTAB
  0
TABLE
  2
BLOCK_RECORD
  5
1
100
AcDbSymbolTable
 70
0
  0
BLOCK_RECORD
  5
22A
100
AcDbSymbolTableRecord
100
AcDbBlockTableRecord
  2
*Model_Space
  0
BLOCK_RECORD
  5
22B
100
AcDbSymbolTableRecord
100
AcDbBlockTableRecord
  2
*Paper_Space
  0
BLOCK_RECORD
  5
22C
100
AcDbSymbolTableRecord
100
AcDbBlockTableRecord
  2
_FILLED
  0
BLOCK_RECORD
  5
22D
100
AcDbSymbolTableRecord
100
AcDbBlockTableRecord
  2
*D0
  0
BLOCK_RECORD
  5
22E
100
AcDbSymbolTableRecord
100
AcDbBlockTableRecord
  2
*D1
  0
BLOCK_RECORD
  5
22F
100
AcDbSymbolTableRecord
100
AcDbBlockTableRecord
  2
*D2
  0
BLOCK_RECORD
  5
230
100
AcDbSymbolTableRecord
100
AcDbBlockTableRecord
  2
*D3
  0
ENDTAB
  0
TABLE
  2
DIMSTYLE
  5
A
100
AcDbSymbolTable
 70
1
100
AcDbDimStyleTable
 71
0
  0
DIMSTYLE
105
231
100
AcDbSymbolTableRecord
100
AcDbDimStyleTableRecord
  2
STANDARD
 70
0
  3

  4

 40
1.0
 41
3.0
 42
0.5
 43
0.38
 44
1.5
 45
0.0
 46
0.0
 47
0.01
 48
0.01
140
3.0
141
0.09
142
0.0
143
25.4
144
1.0
145
0.0
146
1.0
147
0.625
 71
1.0
 72
0.0
 73
0
 74
0
 75
0
 76
0
 77
1
 78
8
 79
2
170
0
171
1
172
0
173
0
174
0
175
0
176
0
177
0
178
0
270
2
179
2
271
2
272
2
273
2
274
2
275
0
280
0
281
0
282
0
283
1
284
8
285
0
286
0
287
3
288
0
340
11
278
44
341
22C
342
22C
343
22C
344
22C
  0
DIMSTYLE
105
232
100
AcDbSymbolTableRecord
100
AcDbDimStyleTableRecord
  2
DIMSTYLE_1
 70
0
  3

  4

 40
1.0
 41
3.0
 42
0.5
 43
0.38
 44
1.5
 45
0.0
 46
0.0
 47
0.0
 48
0.0
140
3.0
141
0.09
142
0.0
143
25.4
144
1.0
145
0.0
146
1.0
147
0.75
 71
0.0
 72
0.0
 73
0
 74
0
 75
0
 76
0
 77
1
 78
8
 79
2
170
0
171
1
172
0
173
0
174
0
175
0
176
0
177
0
178
0
270
2
179
2
271
2
272
2
273
2
274
2
275
0
280
0
281
0
282
0
283
1
284
8
285
0
286
0
287
3
288
0
340
11
278
44
341
22C
342
22C
343
22C
344
22C
  0
DIMSTYLE
105
233
100
AcDbSymbolTableRecord
100
AcDbDimStyleTableRecord
  2
DIMSTYLE_2
 70
0
  3

  4

 40
1.0
 41
3.0
 42
0.5
 43
0.38
 44
1.5
 45
0.0
 46
0.0
 47
0.0
 48
0.0
140
3.0
141
0.09
142
0.0
143
25.4
144
1.0
145
0.0
146
1.0
147
0.75
 71
0.0
 72
0.0
 73
0
 74
0
 75
0
 76
0
 77
1
 78
8
 79
2
170
0
171
1
172
0
173
0
174
0
175
0
176
0
177
0
178
0
270
2
179
2
271
1
272
1
273
2
274
2
275
0
280
0
281
0
282
0
283
1
284
8
285
0
286
0
287
3
288
0
340
11
278
44
341
22C
342
22C
343
22C
344
22C
  0
ENDTAB
  0
ENDSEC
  0
SECTION
  2
BLOCKS
  0
BLOCK
  5
20
100
AcDbEntity
  8
0
100
AcDbBlockBegin
  2
*Model_Space
 70
0
 10
0.0
 20
0.0
 30
0.0
  3
*Model_Space
  1

  0
ENDBLK
  5
21
100
AcDbEntity
  8
0
100
AcDbBlockEnd
  0
BLOCK
  5
1C
100
AcDbEntity
  8
0
100
AcDbBlockBegin
  2
*Paper_Space
 70
0
 10
0.0
 20
0.0
 30
0.0
  3
*Paper_Space
  1

  0
ENDBLK
  5
1D
100
AcDbEntity
  8
0
100
AcDbBlockEnd
  0
BLOCK
  5
234
100
AcDbEntity
  8
0
100
AcDbBlockBegin
  2
_FILLED
 70
64
 10
0.0
 20
0.0
  3
_FILLED
  1

  0
SOLID
  5
235
100
AcDbEntity
  8
0
  6
BYBLOCK
 62
0
100
AcDbTrace
 10
0.0
 20
0.0
 11
-1.0
 21
0.3166666667
 12
-1.0
 22
-0.3166666667
 13
-1.0
 23
-0.3166666667
  0
ENDBLK
  5
236
100
AcDbEntity
  8
0
  6
BYBLOCK
 62
0
100
AcDbBlockEnd
  0
BLOCK
  5
237
100
AcDbEntity
  8
0
100
AcDbBlockBegin
 62
7
  6
CONTINUOUS
  2
*D0
 70
65
 10
0.0
 20
0.0
  3
*D0
  1

  0
LINE
  5
238
100
AcDbEntity
  8
0
100
AcDbLine
 62
7
  6
CONTINUOUS
 10
135.9084627113
 20
132.3352927105
 11
135.9084627113
 21
151.1114159888
  0
LINE
  5
239
100
AcDbEntity
  8
0
100
AcDbLine
 62
7
  6
CONTINUOUS
 10
110.9084627113
 20
141.021901137
 11
110.9084627113
 21
151.1114159888
  0
LINE
  5
23A
100
AcDbEntity
  8
0
100
AcDbLine
 62
7
  6
CONTINUOUS
 10
135.9084627113
 20
149.6114159888
 11
123.4084627113
 21
149.6114159888
  0
LINE
  5
23B
100
AcDbEntity
  8
0
100
AcDbLine
 62
7
  6
CONTINUOUS
 10
110.9084627113
 20
149.6114159888
 11
123.4084627113
 21
149.6114159888
  0
INSERT
  5
23C
100
AcDbEntity
  8
0
100
AcDbBlockReference
 62
7
  6
CONTINUOUS
  2
_FILLED
 10
135.9084627113
 20
149.6114159888
 41
3.0
 42
3.0
 43
3.0
  0
INSERT
  5
23D
100
AcDbEntity
  8
0
100
AcDbBlockReference
 62
7
  6
CONTINUOUS
  2
_FILLED
 10
110.9084627113
 20
149.6114159888
 41
3.0
 42
3.0
 43
3.0
 50
180.0
  0
ENDBLK
  5
23E
100
AcDbEntity
  8
0
  6
BYBLOCK
 62
0
100
AcDbBlockEnd
  0
BLOCK
  5
23F
100
AcDbEntity
  8
0
100
AcDbBlockBegin
 62
7
  6
CONTINUOUS
  2
*D1
 70
65
 10
0.0
 20
0.0
  3
*D1
  1

  0
LINE
  5
240
100
AcDbEntity
  8
0
100
AcDbLine
 62
7
  6
CONTINUOUS
 10
135.9084627113
 20
132.3352927105
 11
135.9084627113
 21
161.1114159888
  0
LINE
  5
241
100
AcDbEntity
  8
0
100
AcDbLine
 62
7
  6
CONTINUOUS
 10
100.7233910269
 20
128.0479583818
 11
100.7233910269
 21
161.1114159888
  0
LINE
  5
242
100
AcDbEntity
  8
0
100
AcDbLine
 62
7
  6
CONTINUOUS
 10
135.9084627113
 20
159.6114159888
 11
118.3159268691
 21
159.6114159888
  0
LINE
  5
243
100
AcDbEntity
  8
0
100
AcDbLine
 62
7
  6
CONTINUOUS
 10
100.7233910269
 20
159.6114159888
 11
118.3159268691
 21
159.6114159888
  0
INSERT
  5
244
100
AcDbEntity
  8
0
100
AcDbBlockReference
 62
7
  6
CONTINUOUS
  2
_FILLED
 10
135.9084627113
 20
159.6114159888
 41
3.0
 42
3.0
 43
3.0
  0
INSERT
  5
245
100
AcDbEntity
  8
0
100
AcDbBlockReference
 62
7
  6
CONTINUOUS
  2
_FILLED
 10
100.7233910269
 20
159.6114159888
 41
3.0
 42
3.0
 43
3.0
 50
180.0
  0
ENDBLK
  5
246
100
AcDbEntity
  8
0
  6
BYBLOCK
 62
0
100
AcDbBlockEnd
  0
BLOCK
  5
247
100
AcDbEntity
  8
0
100
AcDbBlockBegin
 62
7
  6
CONTINUOUS
  2
*D2
 70
65
 10
0.0
 20
0.0
  3
*D2
  1

  0
LINE
  5
248
100
AcDbEntity
  8
0
100
AcDbLine
 62
7
  6
CONTINUOUS
 10
152.4367665816
 20
139.5025939294
 11
152.4367665816
 21
151.1114159888
  0
LINE
  5
249
100
AcDbEntity
  8
0
100
AcDbLine
 62
7
  6
CONTINUOUS
 10
174.7367665816
 20
139.5025939294
 11
174.7367665816
 21
151.1114159888
  0
LINE
  5
24A
100
AcDbEntity
  8
0
100
AcDbLine
 62
7
  6
CONTINUOUS
 10
152.4367665816
 20
149.6114159888
 11
163.5867665816
 21
149.6114159888
  0
LINE
  5
24B
100
AcDbEntity
  8
0
100
AcDbLine
 62
7
  6
CONTINUOUS
 10
174.7367665816
 20
149.6114159888
 11
163.5867665816
 21
149.6114159888
  0
INSERT
  5
24C
100
AcDbEntity
  8
0
100
AcDbBlockReference
 62
7
  6
CONTINUOUS
  2
_FILLED
 10
152.4367665816
 20
149.6114159888
 41
3.0
 42
3.0
 43
3.0
 50
180.0
  0
INSERT
  5
24D
100
AcDbEntity
  8
0
100
AcDbBlockReference
 62
7
  6
CONTINUOUS
  2
_FILLED
 10
174.7367665816
 20
149.6114159888
 41
3.0
 42
3.0
 43
3.0
  0
ENDBLK
  5
24E
100
AcDbEntity
  8
0
  6
BYBLOCK
 62
0
100
AcDbBlockEnd
  0
BLOCK
  5
24F
100
AcDbEntity
  8
0
100
AcDbBlockBegin
 62
7
  6
CONTINUOUS
  2
*D3
 70
65
 10
0.0
 20
0.0
  3
*D3
  1

  0
LINE
  5
250
100
AcDbEntity
  8
0
100
AcDbLine
 62
7
  6
CONTINUOUS
 10
174.4867708124
 20
92.6114159888
 11
184.2367665816
 21
92.6114159888
  0
LINE
  5
251
100
AcDbEntity
  8
0
100
AcDbLine
 62
7
  6
CONTINUOUS
 10
174.4867708124
 20
141.6114159888
 11
184.2367665816
 21
141.6114159888
  0
LINE
  5
252
100
AcDbEntity
  8
0
100
AcDbLine
 62
7
  6
CONTINUOUS
 10
182.7367665816
 20
92.6114159888
 11
182.7367665816
 21
117.1114159888
  0
LINE
  5
253
100
AcDbEntity
  8
0
100
AcDbLine
 62
7
  6
CONTINUOUS
 10
182.7367665816
 20
141.6114159888
 11
182.7367665816
 21
117.1114159888
  0
INSERT
  5
254
100
AcDbEntity
  8
0
100
AcDbBlockReference
 62
7
  6
CONTINUOUS
  2
_FILLED
 10
182.7367665816
 20
92.6114159888
 41
3.0
 42
3.0
 43
3.0
 50
270.0
  0
INSERT
  5
255
100
AcDbEntity
  8
0
100
AcDbBlockReference
 62
7
  6
CONTINUOUS
  2
_FILLED
 10
182.7367665816
 20
141.6114159888
 41
3.0
 42
3.0
 43
3.0
 50
90.0
  0
ENDBLK
  5
256
100
AcDbEntity
  8
0
  6
BYBLOCK
 62
0
100
AcDbBlockEnd
  0
ENDSEC
  0
SECTION
  2
ENTITIES
  0
DIMENSION
  5
257
100
AcDbEntity
  8
0
100
AcDbDimension
 62
7
  6
CONTINUOUS
  2
*D0
 10
110.9084627113
 20
149.6114159888
 11
121.1584627113
 21
149.6114159888
 70
160
 71
2
 72
2
 41
0.9
 42
25.0
  3
DIMSTYLE_1
100
AcDbAlignedDimension
 13
135.9084627113
 23
131.8352927105
 14
110.9084627113
 24
140.521901137
 50
180.0
100
AcDbRotatedDimension
  0
DIMENSION
  5
258
100
AcDbEntity
  8
0
100
AcDbDimension
 62
7
  6
CONTINUOUS
  2
*D1
 10
100.7233910269
 20
159.6114159888
 11
114.1373554405
 21
159.6114159888
 70
160
 71
2
 72
2
 41
0.9
 42
35.1850716843
  3
DIMSTYLE_2
100
AcDbAlignedDimension
 13
135.9084627113
 23
131.8352927105
 14
100.7233910269
 24
127.5479583818
 50
180.0
100
AcDbRotatedDimension
  0
DIMENSION
  5
259
100
AcDbEntity
  8
0
100
AcDbDimension
 62
7
  6
CONTINUOUS
  2
*D2
 10
174.7367665816
 20
149.6114159888
 11
159.3010522959
 21
149.6114159888
 70
160
 71
2
 72
2
 41
0.9
 42
22.3
  3
DIMSTYLE_1
100
AcDbAlignedDimension
 13
152.4367665816
 23
139.0025939294
 14
174.7367665816
 24
139.0025939294
100
AcDbRotatedDimension
  0
DIMENSION
  5
25A
100
AcDbEntity
  8
0
100
AcDbDimension
 62
7
  6
CONTINUOUS
  2
*D3
 10
182.7367665816
 20
141.6114159888
 11
182.7367665816
 21
114.7542731317
 70
160
 71
2
 72
2
 41
0.9
 42
49.0
  3
DIMSTYLE_1
100
AcDbAlignedDimension
 13
173.9867708124
 23
92.6114159888
 14
173.9867708124
 24
141.6114159888
 50
90.0
100
AcDbRotatedDimension
  0
LWPOLYLINE
  5
25B
100
AcDbEntity
  8
0
100
AcDbPolyline
 62
7
  6
CONTINUOUS
 90
5
 70
0
 43
0.3500000006
 10
166.5867634277
 20
152.0756964111
 10
166.9439102783
 20
152.289980896
 10
166.9439102783
 20
152.932852478
 10
166.5867634277
 20
153.3614214478
 10
165.7296254883
 20
153.3614214478
  0
LINE
  5
25C
100
AcDbEntity
  8
CASTELLO
100
AcDbLine
 62
7
  6
CONTINUOUS
 10
152.7307521722
 20
139.4586411227
 11
152.7132495796
 21
139.4498904929
  0
LINE
  5
25D
100
AcDbEntity
  8
CASTELLO
100
AcDbLine
 62
250
  6
CONTINUOUS
 10
152.454183484
 20
139.0113017174
 11
152.4367665816
 21
139.0025939294
  0
LINE
  5
25E
100
AcDbEntity
  8
POMELLO
100
AcDbLine
 62
7
  6
CONTINUOUS
 10
164.0867665816
 20
66.3114159888
 11
166.6875262447
 21
66.3341124745
  0
LINE
  5
25F
100
AcDbEntity
  8
POMELLO
100
AcDbLine
 62
7
  6
CONTINUOUS
 10
164.0867665816
 20
66.3114159888
 11
161.4860069185
 21
66.3341124745
  0
LINE
  5
260
100
AcDbEntity
  8
CASTELLO
100
AcDbLine
 62
250
  6
CONTINUOUS
 10
155.0867708124
 20
141.6114159888
 11
155.0736722337
 21
141.5983174101
  0
LINE
  5
261
100
AcDbEntity
  8
CASTELLO
100
AcDbLine
 62
250
  6
CONTINUOUS
 10
155.3367665816
 20
141.3614202196
 11
155.3236680029
 21
141.3483216409
  0
LINE
  5
262
100
AcDbEntity
  8
CASTELLO
100
AcDbLine
 62
7
  6
CONTINUOUS
 10
167.9838407434
 20
140.9084901506
 11
167.9867665816
 21
140.9114159888
  0
LINE
  5
263
100
AcDbEntity
  8
CASTELLO
100
AcDbLine
 62
250
  6
CONTINUOUS
 10
173.9867708124
 20
141.6114159888
 11
173.9736722337
 21
141.5983174101
  0
LINE
  5
264
100
AcDbEntity
  8
CASTELLO
100
AcDbLine
 62
250
  6
CONTINUOUS
 10
174.2367665816
 20
141.3614202196
 11
174.2236680029
 21
141.3483216409
  0
LWPOLYLINE
  5
265
100
AcDbEntity
  8
0
100
AcDbPolyline
 62
7
  6
CONTINUOUS
 90
3
 70
0
 43
0.3500000006
 10
164.7296251831
 20
150.6471271362
 10
164.658203064
 20
150.4328426514
 10
164.5153406982
 20
150.1471360474
  0
LINE
  5
266
100
AcDbEntity
  8
CASTELLO
100
AcDbLine
 62
7
  6
CONTINUOUS
 10
152.7132495796
 20
94.7729414847
 11
152.7307521722
 21
94.7641908549
  0
LINE
  5
267
100
AcDbEntity
  8
CASTELLO
100
AcDbLine
 62
250
  6
CONTINUOUS
 10
152.4367665816
 20
95.2202380482
 11
152.454183484
 21
95.2115302602
  0
LINE
  5
268
100
AcDbEntity
  8
CASTELLO
100
AcDbLine
 62
250
  6
CONTINUOUS
 10
155.0867708124
 20
92.6114159888
 11
155.0736722337
 21
92.6245145675
  0
LINE
  5
269
100
AcDbEntity
  8
CASTELLO
100
AcDbLine
 62
250
  6
CONTINUOUS
 10
155.3367665816
 20
92.861411758
 11
155.3236680029
 21
92.8745103367
  0
LINE
  5
26A
100
AcDbEntity
  8
CASTELLO
100
AcDbLine
 62
250
  6
CONTINUOUS
 10
152.9498651604
 20
93.2670784215
 11
152.9440473305
 21
93.8444286907
  0
LINE
  5
26B
100
AcDbEntity
  8
CASTELLO
100
AcDbLine
 62
250
  6
CONTINUOUS
 10
153.1998609296
 20
93.4835847725
 11
153.1947703285
 21
93.988766258
  0
LINE
  5
26C
100
AcDbEntity
  8
CORPO
100
AcDbLine
 62
7
  6
CONTINUOUS
 10
152.4367665816
 20
134.7829888641
 11
152.4367665816
 21
99.4398431135
  0
LINE
  5
26D
100
AcDbEntity
  8
IMPORTED
100
AcDbLine
 62
7
  6
CONTINUOUS
 10
152.4367665816
 20
134.7829888641
 11
152.4367665816
 21
99.4398431135
  0
LINE
  5
26E
100
AcDbEntity
  8
CASTELLO
100
AcDbLine
 62
7
  6
CONTINUOUS
 10
152.4367665816
 20
95.2202380482
 11
152.4367665816
 21
139.0025939294
  0
LINE
  5
26F
100
AcDbEntity
  8
CASTELLO
100
AcDbLine
 62
7
  6
CONTINUOUS
 10
152.9367665816
 20
92.861411758
 11
152.9367665816
 21
94.7117260208
  0
LINE
  5
270
100
AcDbEntity
  8
CASTELLO
100
AcDbLine
 62
7
  6
CONTINUOUS
 10
152.9367665816
 20
139.5111059568
 11
152.9367665816
 21
141.3614202196
  0
LINE
  5
271
100
AcDbEntity
  8
CASTELLO
100
AcDbLine
 62
250
  6
CONTINUOUS
 10
152.9440473305
 20
140.3784032869
 11
152.9440473305
 21
139.4448269502
  0
LINE
  5
272
100
AcDbEntity
  8
CASTELLO
100
AcDbLine
 62
250
  6
CONTINUOUS
 10
152.9440473305
 20
94.7780050274
 11
152.9440473305
 21
93.8444286907
  0
LINE
  5
273
100
AcDbEntity
  8
CASTELLO
100
AcDbLine
 62
250
  6
CONTINUOUS
 10
152.9498651604
 20
141.3483216409
 11
152.9498651604
 21
140.9557535561
  0
LINE
  5
274
100
AcDbEntity
  8
CASTELLO
100
AcDbLine
 62
250
  6
CONTINUOUS
 10
152.9498651604
 20
93.2670784215
 11
152.9498651604
 21
92.8745103367
  0
LINE
  5
275
100
AcDbEntity
  8
CASTELLO
100
AcDbLine
 62
250
  6
CONTINUOUS
 10
153.1940430998
 20
140.2340657196
 11
153.1940430998
 21
139.4328043199
  0
LINE
  5
276
100
AcDbEntity
  8
CASTELLO
100
AcDbLine
 62
250
  6
CONTINUOUS
 10
153.1940430998
 20
94.7900276577
 11
153.1940430998
 21
93.988766258
  0
LINE
  5
277
100
AcDbEntity
  8
CASTELLO
100
AcDbLine
 62
250
  6
CONTINUOUS
 10
153.1998609296
 20
92.6245145675
 11
153.1998609296
 21
93.4835847725
  0
LINE
  5
278
100
AcDbEntity
  8
CASTELLO
100
AcDbLine
 62
250
  6
CONTINUOUS
 10
153.1998609296
 20
140.7392472052
 11
153.1998609296
 21
141.5983174101
  0
LINE
  5
279
100
AcDbEntity
  8
CASTELLO
100
AcDbLine
 62
250
  6
CONTINUOUS
 10
152.9440473305
 20
140.3784032869
 11
152.9498651604
 21
140.9557535561
  0
LINE
  5
27A
100
AcDbEntity
  8
CASTELLO
100
AcDbLine
 62
250
  6
CONTINUOUS
 10
153.1947703285
 20
140.2340657196
 11
153.1998609296
 21
140.7392472052
  0
LINE
  5
27B
100
AcDbEntity
  8
CASTELLO
100
AcDbLine
 62
7
  6
CONTINUOUS
 10
155.3367665816
 20
139.5114159888
 11
155.3294858327
 21
139.4458300411
  0
LINE
  5
27C
100
AcDbEntity
  8
POMELLO
100
AcDbLine
 62
7
  6
CONTINUOUS
 10
162.7367665816
 20
93.2996347173
 11
161.4860069185
 21
93.2887195031
  0
LINE
  5
27D
100
AcDbEntity
  8
CASTELLO
100
AcDbLine
 62
7
  6
CONTINUOUS
 10
173.9867708124
 20
92.6114159888
 11
172.0867623508
 21
92.6114159888
  0
LINE
  5
27E
100
AcDbEntity
  8
CASTELLO
100
AcDbLine
 62
7
  6
CONTINUOUS
 10
155.0867708124
 20
92.6114159888
 11
153.1867623508
 21
92.6114159888
  0
LINE
  5
27F
100
AcDbEntity
  8
CASTELLO
100
AcDbLine
 62
250
  6
CONTINUOUS
 10
153.1998609296
 20
92.6245145675
 11
155.0736722337
 21
92.6245145675
  0
LINE
  5
280
100
AcDbEntity
  8
CASTELLO
100
AcDbLine
 62
250
  6
CONTINUOUS
 10
172.0998609296
 20
92.6245145675
 11
173.9736722337
 21
92.6245145675
  0
LINE
  5
281
100
AcDbEntity
  8
CASTELLO
100
AcDbLine
 62
250
  6
CONTINUOUS
 10
152.9498651604
 20
92.8745103367
 11
155.3236680029
 21
92.8745103367
  0
LINE
  5
282
100
AcDbEntity
  8
CASTELLO
100
AcDbLine
 62
250
  6
CONTINUOUS
 10
171.8498651604
 20
92.8745103367
 11
174.2236680029
 21
92.8745103367
  0
LINE
  5
283
100
AcDbEntity
  8
CASTELLO
100
AcDbLine
 62
250
  6
CONTINUOUS
 10
152.9498651604
 20
93.2670784215
 11
155.3236680029
 21
93.2670784215
  0
LINE
  5
284
100
AcDbEntity
  8
CASTELLO
100
AcDbLine
 62
250
  6
CONTINUOUS
 10
171.8498651604
 20
93.2670784215
 11
174.2236680029
 21
93.2670784215
  0
LINE
  5
285
100
AcDbEntity
  8
CASTELLO
100
AcDbLine
 62
7
  6
CONTINUOUS
 10
167.9867665816
 20
93.3114159888
 11
164.4367665816
 21
93.3114159888
  0
LINE
  5
286
100
AcDbEntity
  8
CASTELLO
100
AcDbLine
 62
7
  6
CONTINUOUS
 10
162.7367665816
 20
93.3114159888
 11
159.1867665816
 21
93.3114159888
  0
LINE
  5
287
100
AcDbEntity
  8
CASTELLO
100
AcDbLine
 62
250
  6
CONTINUOUS
 10
159.290559268
 20
93.316077022
 11
162.7367665816
 21
93.316077022
  0
LINE
  5
288
100
AcDbEntity
  8
CASTELLO
100
AcDbLine
 62
250
  6
CONTINUOUS
 10
164.4367665816
 20
93.316077022
 11
167.8829738953
 21
93.316077022
  0
LINE
  5
289
100
AcDbEntity
  8
CASTELLO
100
AcDbLine
 62
250
  6
CONTINUOUS
 10
173.9736722337
 20
93.4835847725
 11
172.0998609296
 21
93.4835847725
  0
LINE
  5
28A
100
AcDbEntity
  8
CASTELLO
100
AcDbLine
 62
250
  6
CONTINUOUS
 10
155.0736722337
 20
93.4835847725
 11
153.1998609296
 21
93.4835847725
  0
LINE
  5
28B
100
AcDbEntity
  8
CASTELLO
100
AcDbLine
 62
250
  6
CONTINUOUS
 10
159.6896839583
 20
93.5160736373
 11
162.7367665816
 21
93.5160736373
  0
LINE
  5
28C
100
AcDbEntity
  8
CASTELLO
100
AcDbLine
 62
250
  6
CONTINUOUS
 10
164.4367665816
 20
93.5160736373
 11
167.483849205
 21
93.5160736373
  0
LINE
  5
28D
100
AcDbEntity
  8
POMELLO
100
AcDbLine
 62
7
  6
CONTINUOUS
 10
164.436715148
 20
93.3083620339
 11
166.6875262447
 21
93.2887195031
  0
LINE
  5
28E
100
AcDbEntity
  8
CASTELLO
100
AcDbLine
 62
250
  6
CONTINUOUS
 10
155.0736722337
 20
140.7392472052
 11
155.0787628348
 21
140.2340657196
  0
LINE
  5
28F
100
AcDbEntity
  8
CASTELLO
100
AcDbLine
 62
250
  6
CONTINUOUS
 10
155.3236680029
 20
140.9557535561
 11
155.3294858327
 21
140.3784032869
  0
LINE
  5
290
100
AcDbEntity
  8
CASTELLO
100
AcDbLine
 62
250
  6
CONTINUOUS
 10
155.0736722337
 20
92.6245145675
 11
155.0736722337
 21
93.4835847725
  0
LINE
  5
291
100
AcDbEntity
  8
CASTELLO
100
AcDbLine
 62
250
  6
CONTINUOUS
 10
155.0736722337
 20
140.7392472052
 11
155.0736722337
 21
141.5983174101
  0
LINE
  5
292
100
AcDbEntity
  8
CASTELLO
100
AcDbLine
 62
250
  6
CONTINUOUS
 10
155.0794900635
 20
140.2340657196
 11
155.0794900635
 21
139.4328043199
  0
LINE
  5
293
100
AcDbEntity
  8
CASTELLO
100
AcDbLine
 62
250
  6
CONTINUOUS
 10
155.0794900635
 20
94.7900276577
 11
155.0794900635
 21
93.988766258
  0
LINE
  5
294
100
AcDbEntity
  8
CASTELLO
100
AcDbLine
 62
250
  6
CONTINUOUS
 10
155.3236680029
 20
92.8745103367
 11
155.3236680029
 21
93.2670784215
  0
LINE
  5
295
100
AcDbEntity
  8
CASTELLO
100
AcDbLine
 62
250
  6
CONTINUOUS
 10
155.3236680029
 20
140.9557535561
 11
155.3236680029
 21
141.3483216409
  0
LINE
  5
296
100
AcDbEntity
  8
CASTELLO
100
AcDbLine
 62
250
  6
CONTINUOUS
 10
155.3294858327
 20
140.3784032869
 11
155.3294858327
 21
139.4458300411
  0
LINE
  5
297
100
AcDbEntity
  8
CASTELLO
100
AcDbLine
 62
250
  6
CONTINUOUS
 10
155.3294858327
 20
94.7770019365
 11
155.3294858327
 21
93.8444286907
  0
LINE
  5
298
100
AcDbEntity
  8
CASTELLO
100
AcDbLine
 62
7
  6
CONTINUOUS
 10
155.3367665816
 20
92.861411758
 11
155.3367665816
 21
94.7114159888
  0
LINE
  5
299
100
AcDbEntity
  8
CASTELLO
100
AcDbLine
 62
7
  6
CONTINUOUS
 10
155.3367665816
 20
139.5114159888
 11
155.3367665816
 21
141.3614202196
  0
LINE
  5
29A
100
AcDbEntity
  8
CASTELLO
100
AcDbLine
 62
250
  6
CONTINUOUS
 10
155.0787628348
 20
93.988766258
 11
155.0736722337
 21
93.4835847725
  0
LINE
  5
29B
100
AcDbEntity
  8
CASTELLO
100
AcDbLine
 62
250
  6
CONTINUOUS
 10
155.3294858327
 20
93.8444286907
 11
155.3236680029
 21
93.2670784215
  0
LINE
  5
29C
100
AcDbEntity
  8
CASTELLO
100
AcDbLine
 62
250
  6
CONTINUOUS
 10
152.454183484
 20
95.2115302602
 11
152.5875667719
 21
95.6120055342
  0
LINE
  5
29D
100
AcDbEntity
  8
CASTELLO
100
AcDbLine
 62
7
  6
CONTINUOUS
 10
173.9794900635
 20
93.988766258
 11
172.0940430998
 21
93.988766258
  0
LINE
  5
29E
100
AcDbEntity
  8
CASTELLO
100
AcDbLine
 62
7
  6
CONTINUOUS
 10
155.0794900635
 20
93.988766258
 11
153.1940430998
 21
93.988766258
  0
LINE
  5
29F
100
AcDbEntity
  8
CASTELLO
100
AcDbLine
 62
7
  6
CONTINUOUS
 10
155.3367665816
 20
94.7114159888
 11
159.1867665816
 21
94.7114159888
  0
LINE
  5
2A0
100
AcDbEntity
  8
CASTELLO
100
AcDbLine
 62
7
  6
CONTINUOUS
 10
167.9867665816
 20
94.7114159888
 11
171.8367665816
 21
94.7114159888
  0
LINE
  5
2A1
100
AcDbEntity
  8
CASTELLO
100
AcDbLine
 62
7
  6
CONTINUOUS
 10
159.6896839583
 20
94.7638237681
 11
162.7367665816
 21
94.7638237681
  0
LINE
  5
2A2
100
AcDbEntity
  8
CASTELLO
100
AcDbLine
 62
7
  6
CONTINUOUS
 10
164.4367665816
 20
94.7638237681
 11
167.483849205
 21
94.7638237681
  0
LINE
  5
2A3
100
AcDbEntity
  8
CASTELLO
100
AcDbLine
 62
7
  6
CONTINUOUS
 10
173.9794900635
 20
94.7900276577
 11
172.0940430998
 21
94.7900276577
  0
LINE
  5
2A4
100
AcDbEntity
  8
CASTELLO
100
AcDbLine
 62
7
  6
CONTINUOUS
 10
155.0794900635
 20
94.7900276577
 11
153.1940430998
 21
94.7900276577
  0
LINE
  5
2A5
100
AcDbEntity
  8
CASTELLO
100
AcDbLine
 62
250
  6
CONTINUOUS
 10
174.0860425438
 20
95.1126907668
 11
164.4367665816
 21
95.1126907668
  0
LINE
  5
2A6
100
AcDbEntity
  8
CASTELLO
100
AcDbLine
 62
250
  6
CONTINUOUS
 10
162.7367665816
 20
95.1126907668
 11
153.0874906195
 21
95.1126907668
  0
LINE
  5
2A7
100
AcDbEntity
  8
CASTELLO
100
AcDbLine
 62
7
  6
CONTINUOUS
 10
155.3367665816
 20
94.7114159888
 11
155.3294858327
 21
94.7770019365
  0
LINE
  5
2A8
100
AcDbEntity
  8
POMELLO
100
AcDbLine
 62
7
  6
CONTINUOUS
 10
159.9911589061
 20
71.2859940219
 11
159.9882301497
 21
71.3200957075
  0
LINE
  5
2A9
100
AcDbEntity
  8
CASTELLO
100
AcDbLine
 62
250
  6
CONTINUOUS
 10
153.0874906195
 20
95.1126907668
 11
152.9778512417
 21
94.7835051502
  0
LINE
  5
2AA
100
AcDbEntity
  8
CASTELLO
100
AcDbLine
 62
250
  6
CONTINUOUS
 10
174.0695157732
 20
96.548947664
 11
164.4367665816
 21
96.548947664
  0
LINE
  5
2AB
100
AcDbEntity
  8
CASTELLO
100
AcDbLine
 62
250
  6
CONTINUOUS
 10
162.7367665816
 20
96.548947664
 11
153.1040173901
 21
96.548947664
  0
LINE
  5
2AC
100
AcDbEntity
  8
CASTELLO
100
AcDbLine
 62
7
  6
CONTINUOUS
 10
159.1867665816
 20
93.3114159888
 11
159.1867665816
 21
94.7114159888
  0
LINE
  5
2AD
100
AcDbEntity
  8
CASTELLO
100
AcDbLine
 62
7
  6
CONTINUOUS
 10
159.1867665816
 20
139.5114159888
 11
159.1867665816
 21
140.9114159888
  0
LINE
  5
2AE
100
AcDbEntity
  8
CASTELLO
100
AcDbLine
 62
250
  6
CONTINUOUS
 10
159.1896924198
 20
140.9084901506
 11
159.1896924198
 21
139.485059652
  0
LINE
  5
2AF
100
AcDbEntity
  8
CASTELLO
100
AcDbLine
 62
250
  6
CONTINUOUS
 10
159.1896924198
 20
94.7377723256
 11
159.1896924198
 21
93.314341827
  0
LINE
  5
2B0
100
AcDbEntity
  8
CASTELLO
100
AcDbLine
 62
250
  6
CONTINUOUS
 10
159.6896839583
 20
140.7067583403
 11
159.6896839583
 21
139.4590082095
  0
LINE
  5
2B1
100
AcDbEntity
  8
CASTELLO
100
AcDbLine
 62
250
  6
CONTINUOUS
 10
159.6896839583
 20
94.7638237681
 11
159.6896839583
 21
93.5160736373
  0
LINE
  5
2B2
100
AcDbEntity
  8
POMELLO
100
AcDbLine
 62
7
  6
CONTINUOUS
 10
159.9882301497
 20
71.3200957075
 11
159.9882301497
 21
88.3027362701
  0
LINE
  5
2B3
100
AcDbEntity
  8
POMELLO
100
AcDbLine
 62
250
  6
CONTINUOUS
 10
159.9911589061
 20
88.336837956
 11
159.9911589061
 21
71.2859940216
  0
LINE
  5
2B4
100
AcDbEntity
  8
POMELLO
100
AcDbLine
 62
250
  6
CONTINUOUS
 10
161.0078590793
 20
92.9198226044
 11
161.0078590793
 21
66.7030093732
  0
LINE
  5
2B5
100
AcDbEntity
  8
CASTELLO
100
AcDbLine
 62
7
  6
CONTINUOUS
 10
159.1867665816
 20
94.7114159888
 11
159.1896924198
 21
94.7377723256
  0
LINE
  5
2B6
100
AcDbEntity
  8
CASTELLO
100
AcDbLine
 62
7
  6
CONTINUOUS
 10
167.9838407434
 20
93.314341827
 11
167.9867665816
 21
93.3114159888
  0
LINE
  5
2B7
100
AcDbEntity
  8
POMELLO
100
AcDbLine
 62
250
  6
CONTINUOUS
 10
161.4860069185
 20
93.2887195031
 11
161.4860069185
 21
66.3341124745
  0
LINE
  5
2B8
100
AcDbEntity
  8
TRECCIA
100
AcDbLine
 62
7
  6
CONTINUOUS
 10
162.7367665816
 20
93.2996347173
 11
162.7367665816
 21
129.8114159888
  0
LINE
  5
2B9
100
AcDbEntity
  8
CASTELLO
100
AcDbLine
 62
250
  6
CONTINUOUS
 10
163.5867665816
 20
131.4835514104
 11
163.5867665816
 21
135.3614159888
  0
LINE
  5
2BA
100
AcDbEntity
  8
POMELLO
100
AcDbLine
 62
7
  6
CONTINUOUS
 10
159.9911589061
 20
88.3368379557
 11
159.9882301497
 21
88.3027362701
  0
LINE
  5
2BB
100
AcDbEntity
  8
CASTELLO
100
AcDbLine
 62
250
  6
CONTINUOUS
 10
174.0860425438
 20
139.1101412108
 11
174.1956819216
 21
139.4393268274
  0
LINE
  5
2BC
100
AcDbEntity
  8
CASTELLO
100
AcDbLine
 62
250
  6
CONTINUOUS
 10
174.7193496792
 20
139.0113017174
 11
174.5859663914
 21
138.6108264434
  0
LINE
  5
2BD
100
AcDbEntity
  8
CASTELLO
100
AcDbLine
 62
250
  6
CONTINUOUS
 10
152.9367665816
 20
92.861411758
 11
152.9498651604
 21
92.8745103367
  0
LINE
  5
2BE
100
AcDbEntity
  8
CASTELLO
100
AcDbLine
 62
250
  6
CONTINUOUS
 10
173.9867708124
 20
92.6114159888
 11
173.9736722337
 21
92.6245145675
  0
LINE
  5
2BF
100
AcDbEntity
  8
CASTELLO
100
AcDbLine
 62
250
  6
CONTINUOUS
 10
174.2367665816
 20
92.861411758
 11
174.2236680029
 21
92.8745103367
  0
LINE
  5
2C0
100
AcDbEntity
  8
CASTELLO
100
AcDbLine
 62
7
  6
CONTINUOUS
 10
159.1867665816
 20
139.5114159888
 11
159.1896924198
 21
139.485059652
  0
LINE
  5
2C1
100
AcDbEntity
  8
POMELLO
100
AcDbLine
 62
7
  6
CONTINUOUS
 10
164.0867665816
 20
93.2965003415
 11
164.0867665816
 21
66.3115646683
  0
LINE
  5
2C2
100
AcDbEntity
  8
TRECCIA
100
AcDbLine
 62
7
  6
CONTINUOUS
 10
164.4367665816
 20
93.3083615835
 11
164.4367665816
 21
129.8114159888
  0
LINE
  5
2C3
100
AcDbEntity
  8
CASTELLO
100
AcDbLine
 62
7
  6
CONTINUOUS
 10
167.9867665816
 20
139.5114159888
 11
167.9838407434
 21
139.485059652
  0
LINE
  5
2C4
100
AcDbEntity
  8
CASTELLO
100
AcDbLine
 62
250
  6
CONTINUOUS
 10
153.1867623508
 20
92.6114159888
 11
153.1998609296
 21
92.6245145675
  0
LINE
  5
2C5
100
AcDbEntity
  8
CASTELLO
100
AcDbLine
 62
250
  6
CONTINUOUS
 10
152.5875667719
 20
138.6108264434
 11
152.454183484
 21
139.0113017174
  0
LINE
  5
2C6
100
AcDbEntity
  8
CASTELLO
100
AcDbLine
 62
250
  6
CONTINUOUS
 10
152.9778512417
 20
139.4393268274
 11
153.0874906195
 21
139.1101412108
  0
LINE
  5
2C7
100
AcDbEntity
  8
POMELLO
100
AcDbLine
 62
7
  6
CONTINUOUS
 10
168.1823742572
 20
88.3368379557
 11
168.1853030136
 21
88.3027362701
  0
LINE
  5
2C8
100
AcDbEntity
  8
POMELLO
100
AcDbLine
 62
250
  6
CONTINUOUS
 10
166.6875262448
 20
66.3341124745
 11
166.6875262448
 21
93.2887195031
  0
LINE
  5
2C9
100
AcDbEntity
  8
POMELLO
100
AcDbLine
 62
250
  6
CONTINUOUS
 10
167.165674084
 20
66.7030093732
 11
167.165674084
 21
92.9198226044
  0
LINE
  5
2CA
100
AcDbEntity
  8
CASTELLO
100
AcDbLine
 62
250
  6
CONTINUOUS
 10
167.483849205
 20
93.5160736373
 11
167.483849205
 21
94.7638237681
  0
LINE
  5
2CB
100
AcDbEntity
  8
CASTELLO
100
AcDbLine
 62
250
  6
CONTINUOUS
 10
167.483849205
 20
139.4590082095
 11
167.483849205
 21
140.7067583403
  0
LINE
  5
2CC
100
AcDbEntity
  8
CASTELLO
100
AcDbLine
 62
250
  6
CONTINUOUS
 10
167.9838407434
 20
93.314341827
 11
167.9838407434
 21
94.7377723256
  0
LINE
  5
2CD
100
AcDbEntity
  8
CASTELLO
100
AcDbLine
 62
250
  6
CONTINUOUS
 10
167.9838407434
 20
139.485059652
 11
167.9838407434
 21
140.9084901506
  0
LINE
  5
2CE
100
AcDbEntity
  8
CASTELLO
100
AcDbLine
 62
7
  6
CONTINUOUS
 10
167.9867665816
 20
140.9114159888
 11
167.9867665816
 21
139.5114159888
  0
LINE
  5
2CF
100
AcDbEntity
  8
CASTELLO
100
AcDbLine
 62
7
  6
CONTINUOUS
 10
167.9867665816
 20
94.7114159888
 11
167.9867665816
 21
93.3114159888
  0
LINE
  5
2D0
100
AcDbEntity
  8
POMELLO
100
AcDbLine
 62
250
  6
CONTINUOUS
 10
168.1823742571
 20
71.2859940216
 11
168.1823742571
 21
88.336837956
  0
LINE
  5
2D1
100
AcDbEntity
  8
POMELLO
100
AcDbLine
 62
7
  6
CONTINUOUS
 10
168.1853030136
 20
88.3027362701
 11
168.1853030136
 21
71.3200957075
  0
LINE
  5
2D2
100
AcDbEntity
  8
CASTELLO
100
AcDbLine
 62
7
  6
CONTINUOUS
 10
159.1896924198
 20
93.314341827
 11
159.1867665816
 21
93.3114159888
  0
LINE
  5
2D3
100
AcDbEntity
  8
CASTELLO
100
AcDbLine
 62
7
  6
CONTINUOUS
 10
167.9867665816
 20
94.7114159888
 11
167.9838407434
 21
94.7377723256
  0
LINE
  5
2D4
100
AcDbEntity
  8
CASTELLO
100
AcDbLine
 62
250
  6
CONTINUOUS
 10
171.8498651604
 20
93.2670784215
 11
171.8440473305
 21
93.8444286907
  0
LINE
  5
2D5
100
AcDbEntity
  8
CASTELLO
100
AcDbLine
 62
250
  6
CONTINUOUS
 10
171.8440473305
 20
140.3784032869
 11
171.8498651604
 21
140.9557535561
  0
LINE
  5
2D6
100
AcDbEntity
  8
CASTELLO
100
AcDbLine
 62
250
  6
CONTINUOUS
 10
172.0947703285
 20
140.2340657196
 11
172.0998609296
 21
140.7392472052
  0
LINE
  5
2D7
100
AcDbEntity
  8
POMELLO
100
AcDbLine
 62
7
  6
CONTINUOUS
 10
168.1823742572
 20
71.2859940219
 11
168.1853030136
 21
71.3200957075
  0
LINE
  5
2D8
100
AcDbEntity
  8
CASTELLO
100
AcDbLine
 62
250
  6
CONTINUOUS
 10
174.1956819216
 20
94.7835051502
 11
174.0860425438
 21
95.1126907668
  0
LINE
  5
2D9
100
AcDbEntity
  8
CASTELLO
100
AcDbLine
 62
250
  6
CONTINUOUS
 10
174.5859663914
 20
95.6120055342
 11
174.7193496792
 21
95.2115302602
  0
LINE
  5
2DA
100
AcDbEntity
  8
CASTELLO
100
AcDbLine
 62
250
  6
CONTINUOUS
 10
172.0998609296
 20
93.4835847725
 11
172.0947703285
 21
93.988766258
  0
LINE
  5
2DB
100
AcDbEntity
  8
CASTELLO
100
AcDbLine
 62
250
  6
CONTINUOUS
 10
173.9736722337
 20
140.7392472052
 11
173.9787628348
 21
140.2340657196
  0
LINE
  5
2DC
100
AcDbEntity
  8
CASTELLO
100
AcDbLine
 62
7
  6
CONTINUOUS
 10
171.8367665816
 20
92.861411758
 11
171.8367665816
 21
94.7114159888
  0
LINE
  5
2DD
100
AcDbEntity
  8
CASTELLO
100
AcDbLine
 62
7
  6
CONTINUOUS
 10
171.8367665816
 20
139.5114159888
 11
171.8367665816
 21
141.3614202196
  0
LINE
  5
2DE
100
AcDbEntity
  8
CASTELLO
100
AcDbLine
 62
250
  6
CONTINUOUS
 10
171.8440473305
 20
93.8444286907
 11
171.8440473305
 21
94.7770019365
  0
LINE
  5
2DF
100
AcDbEntity
  8
CASTELLO
100
AcDbLine
 62
250
  6
CONTINUOUS
 10
171.8440473305
 20
139.4458300411
 11
171.8440473305
 21
140.3784032869
  0
LINE
  5
2E0
100
AcDbEntity
  8
CASTELLO
100
AcDbLine
 62
250
  6
CONTINUOUS
 10
171.8498651604
 20
141.3483216409
 11
171.8498651604
 21
140.9557535561
  0
LINE
  5
2E1
100
AcDbEntity
  8
CASTELLO
100
AcDbLine
 62
250
  6
CONTINUOUS
 10
171.8498651604
 20
93.2670784215
 11
171.8498651604
 21
92.8745103367
  0
LINE
  5
2E2
100
AcDbEntity
  8
CASTELLO
100
AcDbLine
 62
250
  6
CONTINUOUS
 10
172.0940430998
 20
93.988766258
 11
172.0940430998
 21
94.7900276577
  0
LINE
  5
2E3
100
AcDbEntity
  8
CASTELLO
100
AcDbLine
 62
250
  6
CONTINUOUS
 10
172.0940430998
 20
139.4328043199
 11
172.0940430998
 21
140.2340657196
  0
LINE
  5
2E4
100
AcDbEntity
  8
CASTELLO
100
AcDbLine
 62
250
  6
CONTINUOUS
 10
172.0998609296
 20
92.6245145675
 11
172.0998609296
 21
93.4835847725
  0
LINE
  5
2E5
100
AcDbEntity
  8
CASTELLO
100
AcDbLine
 62
250
  6
CONTINUOUS
 10
172.0998609296
 20
140.7392472052
 11
172.0998609296
 21
141.5983174101
  0
LINE
  5
2E6
100
AcDbEntity
  8
CASTELLO
100
AcDbLine
 62
250
  6
CONTINUOUS
 10
173.9736722337
 20
92.6245145675
 11
173.9736722337
 21
93.4835847725
  0
LINE
  5
2E7
100
AcDbEntity
  8
CASTELLO
100
AcDbLine
 62
250
  6
CONTINUOUS
 10
173.9736722337
 20
140.7392472052
 11
173.9736722337
 21
141.5983174101
  0
LINE
  5
2E8
100
AcDbEntity
  8
CASTELLO
100
AcDbLine
 62
250
  6
CONTINUOUS
 10
173.9794900635
 20
93.988766258
 11
173.9794900635
 21
94.7900276577
  0
LINE
  5
2E9
100
AcDbEntity
  8
CASTELLO
100
AcDbLine
 62
250
  6
CONTINUOUS
 10
173.9794900635
 20
139.4328043199
 11
173.9794900635
 21
140.2340657196
  0
LINE
  5
2EA
100
AcDbEntity
  8
CASTELLO
100
AcDbLine
 62
250
  6
CONTINUOUS
 10
174.2236680029
 20
92.8745103367
 11
174.2236680029
 21
93.2670784215
  0
LINE
  5
2EB
100
AcDbEntity
  8
CASTELLO
100
AcDbLine
 62
250
  6
CONTINUOUS
 10
174.2236680029
 20
140.9557535561
 11
174.2236680029
 21
141.3483216409
  0
LINE
  5
2EC
100
AcDbEntity
  8
CASTELLO
100
AcDbLine
 62
250
  6
CONTINUOUS
 10
174.2294858327
 20
93.8444286907
 11
174.2294858327
 21
94.7780050274
  0
LINE
  5
2ED
100
AcDbEntity
  8
CASTELLO
100
AcDbLine
 62
250
  6
CONTINUOUS
 10
174.2294858327
 20
139.4448269502
 11
174.2294858327
 21
140.3784032869
  0
LINE
  5
2EE
100
AcDbEntity
  8
CASTELLO
100
AcDbLine
 62
7
  6
CONTINUOUS
 10
174.2367665816
 20
92.861411758
 11
174.2367665816
 21
94.7117260208
  0
LINE
  5
2EF
100
AcDbEntity
  8
CASTELLO
100
AcDbLine
 62
7
  6
CONTINUOUS
 10
174.2367665816
 20
139.5111059568
 11
174.2367665816
 21
141.3614202196
  0
LINE
  5
2F0
100
AcDbEntity
  8
CASTELLO
100
AcDbLine
 62
250
  6
CONTINUOUS
 10
173.9787628348
 20
93.988766258
 11
173.9736722337
 21
93.4835847725
  0
LINE
  5
2F1
100
AcDbEntity
  8
CASTELLO
100
AcDbLine
 62
250
  6
CONTINUOUS
 10
174.2294858327
 20
93.8444286907
 11
174.2236680029
 21
93.2670784215
  0
LINE
  5
2F2
100
AcDbEntity
  8
CASTELLO
100
AcDbLine
 62
7
  6
CONTINUOUS
 10
171.8367665816
 20
94.7114159888
 11
171.8440473305
 21
94.7770019365
  0
LINE
  5
2F3
100
AcDbEntity
  8
CASTELLO
100
AcDbLine
 62
250
  6
CONTINUOUS
 10
174.2236680029
 20
140.9557535561
 11
174.2294858327
 21
140.3784032869
  0
LINE
  5
2F4
100
AcDbEntity
  8
CORPO
100
AcDbLine
 62
7
  6
CONTINUOUS
 10
174.7367665816
 20
99.4398431135
 11
174.7367665816
 21
134.7829888641
  0
LINE
  5
2F5
100
AcDbEntity
  8
IMPORTED
100
AcDbLine
 62
7
  6
CONTINUOUS
 10
174.7367665816
 20
99.4398431135
 11
174.7367665816
 21
134.7829888641
  0
LINE
  5
2F6
100
AcDbEntity
  8
CASTELLO
100
AcDbLine
 62
7
  6
CONTINUOUS
 10
174.7367665816
 20
95.2202380482
 11
174.7367665816
 21
139.0025939294
  0
LINE
  5
2F7
100
AcDbEntity
  8
CASTELLO
100
AcDbLine
 62
250
  6
CONTINUOUS
 10
174.7193496792
 20
95.2115302602
 11
174.7367665816
 21
95.2202380482
  0
LINE
  5
2F8
100
AcDbEntity
  8
CASTELLO
100
AcDbLine
 62
7
  6
CONTINUOUS
 10
174.4427809911
 20
94.7641908549
 11
174.4602835836
 21
94.7729414847
  0
LWPOLYLINE
  5
2F9
100
AcDbEntity
  8
0
100
AcDbPolyline
 62
7
  6
CONTINUOUS
 90
2
 70
0
 43
0.3500000006
 10
181.9867681274
 20
115.754276825
 10
180.486758606
 20
115.754276825
  0
LINE
  5
2FA
100
AcDbEntity
  8
CASTELLO
100
AcDbLine
 62
7
  6
CONTINUOUS
 10
171.8367665816
 20
139.5114159888
 11
171.8440473305
 21
139.4458300411
  0
LINE
  5
2FB
100
AcDbEntity
  8
CASTELLO
100
AcDbLine
 62
250
  6
CONTINUOUS
 10
171.8367665816
 20
92.861411758
 11
171.8498651604
 21
92.8745103367
  0
LINE
  5
2FC
100
AcDbEntity
  8
CASTELLO
100
AcDbLine
 62
250
  6
CONTINUOUS
 10
172.0867623508
 20
92.6114159888
 11
172.0998609296
 21
92.6245145675
  0
LWPOLYLINE
  5
2FD
100
AcDbEntity
  8
0
100
AcDbPolyline
 62
7
  6
CONTINUOUS
 90
3
 70
0
 43
0.3500000006
 10
181.3439146729
 20
116.2542769775
 10
181.3439146729
 20
114.7542765198
 10
178.9867672119
 20
115.3971299744
  0
LINE
  5
2FE
100
AcDbEntity
  8
CASTELLO
100
AcDbLine
 62
250
  6
CONTINUOUS
 10
152.9367665816
 20
141.3614202196
 11
152.9498651604
 21
141.3483216409
  0
LINE
  5
2FF
100
AcDbEntity
  8
CASTELLO
100
AcDbLine
 62
250
  6
CONTINUOUS
 10
153.1867623508
 20
141.6114159888
 11
153.1998609296
 21
141.5983174101
  0
LINE
  5
300
100
AcDbEntity
  8
TRECCIA
100
AcDbLine
 62
250
  6
CONTINUOUS
 10
162.7367665816
 20
127.8114159888
 11
164.4367665816
 21
127.8114159888
  0
LWPOLYLINE
  5
301
100
AcDbEntity
  8
0
100
AcDbPolyline
 62
7
  6
CONTINUOUS
 90
10
 70
0
 43
0.3500000006
 10
181.9867681274
 20
117.5399838867
 10
181.129630188
 20
118.3971308899
 10
180.2724741211
 20
118.6114153748
 10
179.4153361816
 20
118.6114153748
 10
178.9867672119
 20
118.182846405
 10
178.9867672119
 20
117.5399838867
 10
179.4153361816
 20
117.111414917
 10
180.2724741211
 20
117.111414917
 10
180.7010612183
 20
117.5399838867
 10
180.7010612183
 20
118.4685620728
  0
LINE
  5
302
100
AcDbEntity
  8
CASTELLO
100
AcDbLine
 62
7
  6
CONTINUOUS
 10
159.1896924198
 20
140.9084901506
 11
159.1867665816
 21
140.9114159888
  0
LWPOLYLINE
  5
303
100
AcDbEntity
  8
0
100
AcDbPolyline
 62
7
  6
CONTINUOUS
 90
10
 70
0
 43
0.3500000006
 10
164.658203064
 20
150.8614116211
 10
164.7296251831
 20
150.7185673828
 10
164.7296251831
 20
150.6471271362
 10
164.5867628174
 20
150.5042647705
 10
164.5153406982
 20
150.5042647705
 10
164.4439004517
 20
150.5757050171
 10
164.4439004517
 20
150.6471271362
 10
164.5153406982
 20
150.789989502
 10
164.5867628174
 20
150.8614116211
 10
164.658203064
 20
150.8614116211
  0
LINE
  5
304
100
AcDbEntity
  8
CASTELLO
100
AcDbLine
 62
250
  6
CONTINUOUS
 10
169.3367665816
 20
129.6114159888
 11
165.5493827489
 21
129.6114159888
  0
LINE
  5
305
100
AcDbEntity
  8
CASTELLO
100
AcDbLine
 62
250
  6
CONTINUOUS
 10
157.8367665816
 20
129.6114159888
 11
161.6241504144
 21
129.6114159888
  0
LINE
  5
306
100
AcDbEntity
  8
CASTELLO
100
AcDbLine
 62
250
  6
CONTINUOUS
 10
174.0695157732
 20
137.6738843136
 11
153.1040173901
 21
137.6738843136
  0
LINE
  5
307
100
AcDbEntity
  8
CASTELLO
100
AcDbLine
 62
250
  6
CONTINUOUS
 10
171.8367665816
 20
141.3614202196
 11
171.8498651604
 21
141.3483216409
  0
LINE
  5
308
100
AcDbEntity
  8
CASTELLO
100
AcDbLine
 62
250
  6
CONTINUOUS
 10
172.0867623508
 20
141.6114159888
 11
172.0998609296
 21
141.5983174101
  0
LINE
  5
309
100
AcDbEntity
  8
CASTELLO
100
AcDbLine
 62
250
  6
CONTINUOUS
 10
174.0860425438
 20
139.1101412108
 11
153.0874906195
 21
139.1101412108
  0
LINE
  5
30A
100
AcDbEntity
  8
CASTELLO
100
AcDbLine
 62
7
  6
CONTINUOUS
 10
173.9794900635
 20
139.4328043199
 11
172.0940430998
 21
139.4328043199
  0
LINE
  5
30B
100
AcDbEntity
  8
CASTELLO
100
AcDbLine
 62
7
  6
CONTINUOUS
 10
155.0794900635
 20
139.4328043199
 11
153.1940430998
 21
139.4328043199
  0
LINE
  5
30C
100
AcDbEntity
  8
CASTELLO
100
AcDbLine
 62
7
  6
CONTINUOUS
 10
159.6896839583
 20
139.4590082095
 11
167.483849205
 21
139.4590082095
  0
LINE
  5
30D
100
AcDbEntity
  8
CASTELLO
100
AcDbLine
 62
7
  6
CONTINUOUS
 10
155.3367665816
 20
139.5114159888
 11
159.1867665816
 21
139.5114159888
  0
LINE
  5
30E
100
AcDbEntity
  8
CASTELLO
100
AcDbLine
 62
7
  6
CONTINUOUS
 10
167.9867665816
 20
139.5114159888
 11
171.8367665816
 21
139.5114159888
  0
LINE
  5
30F
100
AcDbEntity
  8
CASTELLO
100
AcDbLine
 62
7
  6
CONTINUOUS
 10
173.9787628348
 20
140.2340657196
 11
172.0947703285
 21
140.2340657196
  0
LINE
  5
310
100
AcDbEntity
  8
CASTELLO
100
AcDbLine
 62
7
  6
CONTINUOUS
 10
155.0787628348
 20
140.2340657196
 11
153.1947703285
 21
140.2340657196
  0
LINE
  5
311
100
AcDbEntity
  8
CASTELLO
100
AcDbLine
 62
250
  6
CONTINUOUS
 10
167.483849205
 20
140.7067583403
 11
159.6896839583
 21
140.7067583403
  0
LINE
  5
312
100
AcDbEntity
  8
CASTELLO
100
AcDbLine
 62
250
  6
CONTINUOUS
 10
153.1998609296
 20
140.7392472052
 11
155.0736722337
 21
140.7392472052
  0
LINE
  5
313
100
AcDbEntity
  8
CASTELLO
100
AcDbLine
 62
250
  6
CONTINUOUS
 10
172.0998609296
 20
140.7392472052
 11
173.9736722337
 21
140.7392472052
  0
LINE
  5
314
100
AcDbEntity
  8
CASTELLO
100
AcDbLine
 62
250
  6
CONTINUOUS
 10
167.8829738953
 20
140.9067549556
 11
159.290559268
 21
140.9067549556
  0
LINE
  5
315
100
AcDbEntity
  8
CASTELLO
100
AcDbLine
 62
7
  6
CONTINUOUS
 10
159.1867665816
 20
140.9114159888
 11
167.9867665816
 21
140.9114159888
  0
LINE
  5
316
100
AcDbEntity
  8
CASTELLO
100
AcDbLine
 62
250
  6
CONTINUOUS
 10
152.9498651604
 20
140.9557535561
 11
155.3236680029
 21
140.9557535561
  0
LINE
  5
317
100
AcDbEntity
  8
CASTELLO
100
AcDbLine
 62
250
  6
CONTINUOUS
 10
171.8498651604
 20
140.9557535561
 11
174.2236680029
 21
140.9557535561
  0
LINE
  5
318
100
AcDbEntity
  8
CASTELLO
100
AcDbLine
 62
250
  6
CONTINUOUS
 10
152.9498651604
 20
141.3483216409
 11
155.3236680029
 21
141.3483216409
  0
LINE
  5
319
100
AcDbEntity
  8
CASTELLO
100
AcDbLine
 62
250
  6
CONTINUOUS
 10
171.8498651604
 20
141.3483216409
 11
174.2236680029
 21
141.3483216409
  0
LINE
  5
31A
100
AcDbEntity
  8
CASTELLO
100
AcDbLine
 62
250
  6
CONTINUOUS
 10
173.9736722337
 20
141.5983174101
 11
172.0998609296
 21
141.5983174101
  0
LINE
  5
31B
100
AcDbEntity
  8
CASTELLO
100
AcDbLine
 62
250
  6
CONTINUOUS
 10
155.0736722337
 20
141.5983174101
 11
153.1998609296
 21
141.5983174101
  0
LINE
  5
31C
100
AcDbEntity
  8
CASTELLO
100
AcDbLine
 62
7
  6
CONTINUOUS
 10
153.1867623508
 20
141.6114159888
 11
155.0867708124
 21
141.6114159888
  0
LINE
  5
31D
100
AcDbEntity
  8
CASTELLO
100
AcDbLine
 62
7
  6
CONTINUOUS
 10
172.0867623508
 20
141.6114159888
 11
173.9867708124
 21
141.6114159888
  0
LWPOLYLINE
  5
31E
100
AcDbEntity
  8
0
100
AcDbPolyline
 62
7
  6
CONTINUOUS
 90
7
 70
0
 43
0.3500000006
 10
163.1581935425
 20
150.3614205322
 10
161.6582021484
 20
150.3614205322
 10
163.1581935425
 20
152.5042653809
 10
163.1581935425
 20
152.932852478
 10
162.7296245728
 20
153.3614214478
 10
162.0867711182
 20
153.3614214478
 10
161.6582021484
 20
152.7185498657
  0
LWPOLYLINE
  5
31F
100
AcDbEntity
  8
0
100
AcDbPolyline
 62
7
  6
CONTINUOUS
 90
7
 70
0
 43
0.3500000006
 10
160.8010460815
 20
150.3614205322
 10
159.3010546875
 20
150.3614205322
 10
160.8010460815
 20
152.5042653809
 10
160.8010460815
 20
152.932852478
 10
160.3724771118
 20
153.3614214478
 10
159.7296236572
 20
153.3614214478
 10
159.3010546875
 20
152.7185498657
  0
LWPOLYLINE
  5
320
100
AcDbEntity
  8
0
100
AcDbPolyline
 62
7
  6
CONTINUOUS
 90
6
 70
0
 43
0.3500000006
 10
165.7296254883
 20
150.3614205322
 10
166.8010479126
 20
150.3614205322
 10
167.0153323975
 20
150.5757050171
 10
167.0153323975
 20
151.6471274414
 10
166.5867634277
 20
152.0756964111
 10
166.158194458
 20
152.0756964111
  0
LINE
  5
321
100
AcDbEntity
  8
CASTELLO
100
AcDbLine
 62
250
  6
CONTINUOUS
 10
174.7367665816
 20
139.0025939294
 11
174.7193496792
 21
139.0113017174
  0
LINE
  5
322
100
AcDbEntity
  8
CASTELLO
100
AcDbLine
 62
7
  6
CONTINUOUS
 10
174.4602835836
 20
139.4498904929
 11
174.4427809911
 21
139.4586411227
  0
LWPOLYLINE
  5
323
100
AcDbEntity
  8
0
100
AcDbPolyline
 62
7
  6
CONTINUOUS
 90
5
 70
0
 43
0.3500000006
 10
114.9944971619
 20
162.0756994629
 10
115.3516440125
 20
162.2899839478
 10
115.3516440125
 20
162.9328374023
 10
114.9944971619
 20
163.3614244995
 10
114.1373592224
 20
163.3614244995
  0
LINE
  5
324
100
AcDbEntity
  8
CASTELLO
100
AcDbLine
 62
250
  6
CONTINUOUS
 10
110.9084627113
 20
140.521901137
 11
111.6599171441
 21
140.9557535561
  0
LINE
  5
325
100
AcDbEntity
  8
CASTELLO
100
AcDbLine
 62
7
  6
CONTINUOUS
 10
110.9084627113
 20
140.2340657196
 11
111.9084627113
 21
140.8114159888
  0
LINE
  5
326
100
AcDbEntity
  8
INCISIONI_LASER
100
AcDbLine
 62
250
  6
CONTINUOUS
 10
117.4084627113
 20
133.1114159888
 11
114.5093450124
 21
132.1033509888
  0
LINE
  5
327
100
AcDbEntity
  8
INCISIONI_LASER
100
AcDbLine
 62
250
  6
CONTINUOUS
 10
116.794010922
 20
132.2759999888
 11
117.4084627113
 21
132.4849899888
  0
LINE
  5
328
100
AcDbEntity
  8
INCISIONI_LASER
100
AcDbLine
 62
250
  6
CONTINUOUS
 10
115.0635001728
 20
131.7178649888
 11
116.3122247123
 21
132.1192849888
  0
LINE
  5
329
100
AcDbEntity
  8
INCISIONI_LASER
100
AcDbLine
 62
250
  6
CONTINUOUS
 10
114.5093450124
 20
128.3275549888
 11
116.8067590379
 21
129.4401699888
  0
LINE
  5
32A
100
AcDbEntity
  8
INCISIONI_LASER
100
AcDbLine
 62
250
  6
CONTINUOUS
 10
117.4084627113
 20
129.1389619888
 11
114.9820979743
 21
127.9861859888
  0
LINE
  5
32B
100
AcDbEntity
  8
INCISIONI_LASER
100
AcDbLine
 62
250
  6
CONTINUOUS
 10
117.4084627113
 20
127.0864899888
 11
114.5093450124
 21
126.0783159888
  0
LINE
  5
32C
100
AcDbEntity
  8
INCISIONI_LASER
100
AcDbLine
 62
250
  6
CONTINUOUS
 10
116.794010922
 20
126.2509649888
 11
117.4084627113
 21
126.4598469888
  0
LINE
  5
32D
100
AcDbEntity
  8
INCISIONI_LASER
100
AcDbLine
 62
250
  6
CONTINUOUS
 10
115.0633362227
 20
125.6928869888
 11
116.3122247123
 21
126.0943589888
  0
LINE
  5
32E
100
AcDbEntity
  8
INCISIONI_LASER
100
AcDbLine
 62
7
  6
CONTINUOUS
 10
114.5093450124
 20
131.9376041705
 11
114.7634466219
 21
132.19170578
  0
LINE
  5
32F
100
AcDbEntity
  8
INCISIONI_LASER
100
AcDbLine
 62
7
  6
CONTINUOUS
 10
114.5093450124
 20
131.5175827424
 11
115.4073692142
 21
132.4156069442
  0
LINE
  5
330
100
AcDbEntity
  8
INCISIONI_LASER
100
AcDbLine
 62
250
  6
CONTINUOUS
 10
119.1787837927
 20
129.7114159526
 11
119.4501710081
 21
129.8634158801
  0
LINE
  5
331
100
AcDbEntity
  8
INCISIONI_LASER
100
AcDbLine
 62
250
  6
CONTINUOUS
 10
120.5357199545
 20
128.9514160613
 11
120.2643327108
 21
128.7994158801
  0
LINE
  5
332
100
AcDbEntity
  8
INCISIONI_LASER
100
AcDbLine
 62
250
  6
CONTINUOUS
 10
131.9084627113
 20
131.0013619888
 11
130.6088586737
 21
130.4310289888
  0
LINE
  5
333
100
AcDbEntity
  8
TRECCIA
100
AcDbLine
 62
7
  6
CONTINUOUS
 10
93.5584627113
 20
93.2812802135
 11
93.5584627113
 21
127.8114159888
  0
LINE
  5
334
100
AcDbEntity
  8
TRECCIA
100
AcDbLine
 62
7
  6
CONTINUOUS
 10
95.2584627113
 20
93.2812802135
 11
95.2584627113
 21
127.8114159888
  0
LINE
  5
335
100
AcDbEntity
  8
INCISIONI_LASER
100
AcDbLine
 62
7
  6
CONTINUOUS
 10
114.705239813
 20
131.293456115
 11
115.1127061845
 21
131.7009224865
  0
LINE
  5
336
100
AcDbEntity
  8
INCISIONI_LASER
100
AcDbLine
 62
7
  6
CONTINUOUS
 10
115.1609872849
 20
131.749203587
 11
116.0512918064
 21
132.6395081084
  0
LINE
  5
337
100
AcDbEntity
  8
INCISIONI_LASER
100
AcDbLine
 62
7
  6
CONTINUOUS
 10
115.0137065701
 20
131.1819014441
 11
115.4251482645
 21
131.5933431385
  0
LINE
  5
338
100
AcDbEntity
  8
INCISIONI_LASER
100
AcDbLine
 62
7
  6
CONTINUOUS
 10
115.7799985611
 20
131.9481934351
 11
116.6952143986
 21
132.8634092726
  0
LINE
  5
339
100
AcDbEntity
  8
INCISIONI_LASER
100
AcDbLine
 62
7
  6
CONTINUOUS
 10
115.3221733273
 20
131.0703467733
 11
115.7375903445
 21
131.4857637904
  0
LINE
  5
33A
100
AcDbEntity
  8
INCISIONI_LASER
100
AcDbLine
 62
7
  6
CONTINUOUS
 10
116.3122247123
 20
132.0603981583
 11
117.3391369908
 21
133.0873104368
  0
LINE
  5
33B
100
AcDbEntity
  8
INCISIONI_LASER
100
AcDbLine
 62
7
  6
CONTINUOUS
 10
114.5093450124
 20
129.8374970303
 11
114.6944619708
 21
130.0226139888
  0
LINE
  5
33C
100
AcDbEntity
  8
INCISIONI_LASER
100
AcDbLine
 62
7
  6
CONTINUOUS
 10
115.6306400844
 20
130.9587921024
 11
116.0500324244
 21
131.3781844424
  0
LINE
  5
33D
100
AcDbEntity
  8
INCISIONI_LASER
100
AcDbLine
 62
7
  6
CONTINUOUS
 10
116.3122247123
 20
131.6403767302
 11
116.794010922
 21
132.12216294
  0
LINE
  5
33E
100
AcDbEntity
  8
INCISIONI_LASER
100
AcDbLine
 62
7
  6
CONTINUOUS
 10
117.0271412746
 20
132.3552932926
 11
117.4084627113
 21
132.7366147292
  0
LINE
  5
33F
100
AcDbEntity
  8
INCISIONI_LASER
100
AcDbLine
 62
7
  6
CONTINUOUS
 10
114.5320393989
 20
129.4401699888
 11
115.1144833989
 21
130.0226139888
  0
LINE
  5
340
100
AcDbEntity
  8
INCISIONI_LASER
100
AcDbLine
 62
7
  6
CONTINUOUS
 10
115.9391068416
 20
130.8472374315
 11
116.794010922
 21
131.7021415119
  0
LINE
  5
341
100
AcDbEntity
  8
INCISIONI_LASER
100
AcDbLine
 62
7
  6
CONTINUOUS
 10
114.9520608269
 20
129.4401699888
 11
115.5345048269
 21
130.0226139888
  0
LINE
  5
342
100
AcDbEntity
  8
INCISIONI_LASER
100
AcDbLine
 62
7
  6
CONTINUOUS
 10
116.2475735987
 20
130.7356827606
 11
116.794010922
 21
131.2821200839
  0
LINE
  5
343
100
AcDbEntity
  8
INCISIONI_LASER
100
AcDbLine
 62
7
  6
CONTINUOUS
 10
115.3720822549
 20
129.4401699888
 11
115.9545262549
 21
130.0226139888
  0
LINE
  5
344
100
AcDbEntity
  8
INCISIONI_LASER
100
AcDbLine
 62
7
  6
CONTINUOUS
 10
116.5560403559
 20
130.6241280898
 11
116.9899796037
 21
131.0580673376
  0
LINE
  5
345
100
AcDbEntity
  8
INCISIONI_LASER
100
AcDbLine
 62
7
  6
CONTINUOUS
 10
114.5093450124
 20
128.1574113182
 11
114.8392663296
 21
128.4873326354
  0
LINE
  5
346
100
AcDbEntity
  8
INCISIONI_LASER
100
AcDbLine
 62
7
  6
CONTINUOUS
 10
115.7921036829
 20
129.4401699888
 11
116.3745476829
 21
130.0226139888
  0
LINE
  5
347
100
AcDbEntity
  8
INCISIONI_LASER
100
AcDbLine
 62
7
  6
CONTINUOUS
 10
116.864507113
 20
130.5125734189
 11
117.3003959973
 21
130.9484623031
  0
LINE
  5
348
100
AcDbEntity
  8
INCISIONI_LASER
100
AcDbLine
 62
7
  6
CONTINUOUS
 10
114.5093450124
 20
127.7373898902
 11
115.6537193287
 21
128.8817642066
  0
LINE
  5
349
100
AcDbEntity
  8
INCISIONI_LASER
100
AcDbLine
 62
7
  6
CONTINUOUS
 10
116.212125111
 20
129.4401699888
 11
116.794569111
 21
130.0226139888
  0
LINE
  5
34A
100
AcDbEntity
  8
INCISIONI_LASER
100
AcDbLine
 62
7
  6
CONTINUOUS
 10
117.1729738702
 20
130.401018748
 11
117.4084627113
 21
130.6365075891
  0
LINE
  5
34B
100
AcDbEntity
  8
INCISIONI_LASER
100
AcDbLine
 62
7
  6
CONTINUOUS
 10
114.595717539
 20
127.4037409888
 11
115.178162539
 21
127.9861859888
  0
LINE
  5
34C
100
AcDbEntity
  8
INCISIONI_LASER
100
AcDbLine
 62
7
  6
CONTINUOUS
 10
115.3556284022
 20
128.163651852
 11
116.4681723279
 21
129.2761957777
  0
LINE
  5
34D
100
AcDbEntity
  8
INCISIONI_LASER
100
AcDbLine
 62
7
  6
CONTINUOUS
 10
116.632146539
 20
129.4401699888
 11
117.214590539
 21
130.0226139888
  0
LINE
  5
34E
100
AcDbEntity
  8
INCISIONI_LASER
100
AcDbLine
 62
250
  6
CONTINUOUS
 10
130.6088586737
 20
132.1592819888
 11
131.4055809289
 21
132.6350199888
  0
LINE
  5
34F
100
AcDbEntity
  8
TRECCIA
100
AcDbLine
 62
250
  6
CONTINUOUS
 10
96.4084627113
 20
130.6614159888
 11
96.4084627113
 21
128.9614159888
  0
LINE
  5
350
100
AcDbEntity
  8
INCISIONI_LASER
100
AcDbLine
 62
250
  6
CONTINUOUS
 10
119.1787837927
 20
133.0554161338
 11
118.9073965774
 21
132.7514157714
  0
LINE
  5
351
100
AcDbEntity
  8
INCISIONI_LASER
100
AcDbLine
 62
250
  6
CONTINUOUS
 10
119.9929454954
 20
131.3834159163
 11
119.7215582235
 21
131.0794160613
  0
LINE
  5
352
100
AcDbEntity
  8
INCISIONI_LASER
100
AcDbLine
 62
250
  6
CONTINUOUS
 10
118.9073965774
 20
129.4074160975
 11
119.1787837927
 21
129.7114159526
  0
LINE
  5
353
100
AcDbEntity
  8
INCISIONI_LASER
100
AcDbLine
 62
7
  6
CONTINUOUS
 10
115.015738967
 20
127.4037409888
 11
115.598183967
 21
127.9861859888
  0
LINE
  5
354
100
AcDbEntity
  8
INCISIONI_LASER
100
AcDbLine
 62
7
  6
CONTINUOUS
 10
116.1558279895
 20
128.5438300113
 11
117.4084627113
 21
129.796464733
  0
LINE
  5
355
100
AcDbEntity
  8
INCISIONI_LASER
100
AcDbLine
 62
7
  6
CONTINUOUS
 10
115.435760395
 20
127.4037409888
 11
116.018205395
 21
127.9861859888
  0
LINE
  5
356
100
AcDbEntity
  8
INCISIONI_LASER
100
AcDbLine
 62
7
  6
CONTINUOUS
 10
116.9560275769
 20
128.9240081706
 11
117.4084627113
 21
129.376443305
  0
LINE
  5
357
100
AcDbEntity
  8
INCISIONI_LASER
100
AcDbLine
 62
7
  6
CONTINUOUS
 10
114.5093450124
 20
126.0573041781
 11
114.5415594629
 21
126.0895186286
  0
LINE
  5
358
100
AcDbEntity
  8
INCISIONI_LASER
100
AcDbLine
 62
7
  6
CONTINUOUS
 10
115.8557818231
 20
127.4037409888
 11
116.4382268231
 21
127.9861859888
  0
LINE
  5
359
100
AcDbEntity
  8
INCISIONI_LASER
100
AcDbLine
 62
7
  6
CONTINUOUS
 10
114.5093450124
 20
125.6372827501
 11
115.1855191729
 21
126.3134569106
  0
LINE
  5
35A
100
AcDbEntity
  8
INCISIONI_LASER
100
AcDbLine
 62
7
  6
CONTINUOUS
 10
116.2758032511
 20
127.4037409888
 11
116.8582482511
 21
127.9861859888
  0
LINE
  5
35B
100
AcDbEntity
  8
INCISIONI_LASER
100
AcDbLine
 62
7
  6
CONTINUOUS
 10
114.5989478567
 20
125.3068641664
 11
115.8294788828
 21
126.5373951925
  0
LINE
  5
35C
100
AcDbEntity
  8
INCISIONI_LASER
100
AcDbLine
 62
7
  6
CONTINUOUS
 10
116.6958246791
 20
127.4037409888
 11
117.2782696791
 21
127.9861859888
  0
LINE
  5
35D
100
AcDbEntity
  8
INCISIONI_LASER
100
AcDbLine
 62
7
  6
CONTINUOUS
 10
114.9074231314
 20
125.1953180131
 11
115.3174843045
 21
125.6053791862
  0
LINE
  5
35E
100
AcDbEntity
  8
INCISIONI_LASER
100
AcDbLine
 62
7
  6
CONTINUOUS
 10
115.5668549844
 20
125.854749866
 11
116.4734385928
 21
126.7613334745
  0
LINE
  5
35F
100
AcDbEntity
  8
INCISIONI_LASER
100
AcDbLine
 62
7
  6
CONTINUOUS
 10
117.1158461071
 20
127.4037409888
 11
117.4084627113
 21
127.6963575929
  0
LINE
  5
360
100
AcDbEntity
  8
INCISIONI_LASER
100
AcDbLine
 62
7
  6
CONTINUOUS
 10
115.2158984062
 20
125.0837718598
 11
115.6299262824
 21
125.497799736
  0
LINE
  5
361
100
AcDbEntity
  8
INCISIONI_LASER
100
AcDbLine
 62
7
  6
CONTINUOUS
 10
116.1858657463
 20
126.0537391999
 11
117.1173983028
 21
126.9852717564
  0
LINE
  5
362
100
AcDbEntity
  8
INCISIONI_LASER
100
AcDbLine
 62
7
  6
CONTINUOUS
 10
115.524373681
 20
124.9722257066
 11
115.9423682602
 21
125.3902202858
  0
LINE
  5
363
100
AcDbEntity
  8
INCISIONI_LASER
100
AcDbLine
 62
7
  6
CONTINUOUS
 10
116.3122247123
 20
125.7600767379
 11
116.794010922
 21
126.2418629476
  0
LINE
  5
364
100
AcDbEntity
  8
INCISIONI_LASER
100
AcDbLine
 62
7
  6
CONTINUOUS
 10
116.8078008187
 20
126.2556528443
 11
117.4084627113
 21
126.8563147369
  0
LINE
  5
365
100
AcDbEntity
  8
INCISIONI_LASER
100
AcDbLine
 62
7
  6
CONTINUOUS
 10
115.8328489557
 20
124.8606795533
 11
116.254810238
 21
125.2826408356
  0
LINE
  5
366
100
AcDbEntity
  8
INCISIONI_LASER
100
AcDbLine
 62
7
  6
CONTINUOUS
 10
116.3122247123
 20
125.3400553099
 11
116.794010922
 21
125.8218415196
  0
LINE
  5
367
100
AcDbEntity
  8
INCISIONI_LASER
100
AcDbLine
 62
7
  6
CONTINUOUS
 10
116.1413242305
 20
124.7491334001
 11
116.794010922
 21
125.4018200916
  0
LINE
  5
368
100
AcDbEntity
  8
INCISIONI_LASER
100
AcDbLine
 62
7
  6
CONTINUOUS
 10
114.5093450124
 20
122.6971327539
 11
114.7173672473
 21
122.9051549888
  0
LINE
  5
369
100
AcDbEntity
  8
INCISIONI_LASER
100
AcDbLine
 62
7
  6
CONTINUOUS
 10
116.4497995052
 20
124.6375872468
 11
116.883025758
 21
125.0708134995
  0
LINE
  5
36A
100
AcDbEntity
  8
CASTELLO
100
AcDbLine
 62
7
  6
CONTINUOUS
 10
110.9084627113
 20
94.7114159888
 11
120.9171892468
 21
94.798760822
  0
LINE
  5
36B
100
AcDbEntity
  8
CASTELLO
100
AcDbLine
 62
7
  6
CONTINUOUS
 10
111.6599171441
 20
92.6157878228
 11
110.9084627113
 21
92.6114159888
  0
LINE
  5
36C
100
AcDbEntity
  8
CASTELLO
100
AcDbLine
 62
250
  6
CONTINUOUS
 10
111.6599171441
 20
92.865783592
 11
110.9084627113
 21
92.861411758
  0
LINE
  5
36D
100
AcDbEntity
  8
CASTELLO
100
AcDbLine
 62
7
  6
CONTINUOUS
 10
111.9033713429
 20
93.3172041979
 11
118.4113715769
 21
93.3550666357
  0
LINE
  5
36E
100
AcDbEntity
  8
CASTELLO
100
AcDbLine
 62
250
  6
CONTINUOUS
 10
111.9084627113
 20
92.865783592
 11
111.6599171441
 21
92.865783592
  0
LINE
  5
36F
100
AcDbEntity
  8
CASTELLO
100
AcDbLine
 62
250
  6
CONTINUOUS
 10
108.4084627113
 20
92.8745103367
 11
108.6570082784
 21
92.8745103367
  0
LINE
  5
370
100
AcDbEntity
  8
CASTELLO
100
AcDbLine
 62
250
  6
CONTINUOUS
 10
111.9084627113
 20
93.2670784215
 11
111.6599171441
 21
93.2670784215
  0
LINE
  5
371
100
AcDbEntity
  8
CASTELLO
100
AcDbLine
 62
250
  6
CONTINUOUS
 10
108.4084627113
 20
93.2670784215
 11
108.6570082784
 21
93.2670784215
  0
LINE
  5
372
100
AcDbEntity
  8
CASTELLO
100
AcDbLine
 62
7
  6
CONTINUOUS
 10
110.9084627113
 20
92.6114159888
 11
108.6570082784
 21
92.6245145675
  0
LINE
  5
373
100
AcDbEntity
  8
CASTELLO
100
AcDbLine
 62
250
  6
CONTINUOUS
 10
110.9084627113
 20
92.861411758
 11
108.6570082784
 21
92.8745103367
  0
LINE
  5
374
100
AcDbEntity
  8
CASTELLO
100
AcDbLine
 62
7
  6
CONTINUOUS
 10
109.5329195693
 20
94.7835051502
 11
103.2516838224
 21
95.1126907668
  0
LWPOLYLINE
  5
375
100
AcDbEntity
  8
0
100
AcDbPolyline
 62
7
  6
CONTINUOUS
 90
3
 70
0
 43
0.3500000006
 10
119.1373516846
 20
160.647130188
 10
119.0659295654
 20
160.4328457031
 10
118.9230671997
 20
160.1471390991
  0
LINE
  5
376
100
AcDbEntity
  8
INCISIONI_LASER
100
AcDbLine
 62
250
  6
CONTINUOUS
 10
120.8071071981
 20
129.2554159163
 11
120.5357199545
 21
128.9514160613
  0
LINE
  5
377
100
AcDbEntity
  8
INCISIONI_LASER
100
AcDbLine
 62
7
  6
CONTINUOUS
 10
114.5147826753
 20
122.2825489888
 11
115.1373886753
 21
122.9051549888
  0
LINE
  5
378
100
AcDbEntity
  8
INCISIONI_LASER
100
AcDbLine
 62
7
  6
CONTINUOUS
 10
116.75827478
 20
124.5260410935
 11
117.1934828534
 21
124.9612491669
  0
LINE
  5
379
100
AcDbEntity
  8
INCISIONI_LASER
100
AcDbLine
 62
7
  6
CONTINUOUS
 10
114.9348041033
 20
122.2825489888
 11
115.5574101033
 21
122.9051549888
  0
LINE
  5
37A
100
AcDbEntity
  8
INCISIONI_LASER
100
AcDbLine
 62
7
  6
CONTINUOUS
 10
117.0667500548
 20
124.4144949403
 11
117.4084627113
 21
124.7562075968
  0
LINE
  5
37B
100
AcDbEntity
  8
INCISIONI_LASER
100
AcDbLine
 62
7
  6
CONTINUOUS
 10
115.3548255313
 20
122.2825489888
 11
115.9774315313
 21
122.9051549888
  0
LINE
  5
37C
100
AcDbEntity
  8
INCISIONI_LASER
100
AcDbLine
 62
7
  6
CONTINUOUS
 10
116.9266765015
 20
123.854399959
 11
117.0504305313
 21
123.9781539888
  0
LINE
  5
37D
100
AcDbEntity
  8
INCISIONI_LASER
100
AcDbLine
 62
7
  6
CONTINUOUS
 10
117.3752253295
 20
124.302948787
 11
117.4084627113
 21
124.3361861687
  0
LINE
  5
37E
100
AcDbEntity
  8
INCISIONI_LASER
100
AcDbLine
 62
7
  6
CONTINUOUS
 10
114.5273385519
 20
121.0350405813
 11
115.3846408993
 21
121.8923429287
  0
LINE
  5
37F
100
AcDbEntity
  8
INCISIONI_LASER
100
AcDbLine
 62
7
  6
CONTINUOUS
 10
115.7748469594
 20
122.2825489888
 11
116.3974529594
 21
122.9051549888
  0
LINE
  5
380
100
AcDbEntity
  8
INCISIONI_LASER
100
AcDbLine
 62
7
  6
CONTINUOUS
 10
116.9266765015
 20
123.434378531
 11
117.4084627113
 21
123.9161647407
  0
LINE
  5
381
100
AcDbEntity
  8
INCISIONI_LASER
100
AcDbLine
 62
7
  6
CONTINUOUS
 10
114.5093451368
 20
120.5970257382
 11
115.7519186245
 21
121.8395992259
  0
LINE
  5
382
100
AcDbEntity
  8
INCISIONI_LASER
100
AcDbLine
 62
7
  6
CONTINUOUS
 10
116.1948683874
 20
122.2825489888
 11
116.8174743874
 21
122.9051549888
  0
LINE
  5
383
100
AcDbEntity
  8
INCISIONI_LASER
100
AcDbLine
 62
7
  6
CONTINUOUS
 10
116.9266765015
 20
123.014357103
 11
117.4084627113
 21
123.4961433127
  0
LINE
  5
384
100
AcDbEntity
  8
INCISIONI_LASER
100
AcDbLine
 62
7
  6
CONTINUOUS
 10
114.5093450702
 20
120.1770042436
 11
114.9911312667
 21
120.6587904401
  0
LINE
  5
385
100
AcDbEntity
  8
INCISIONI_LASER
100
AcDbLine
 62
7
  6
CONTINUOUS
 10
115.5466852599
 20
121.2143444333
 11
116.0120128063
 21
121.6796719797
  0
LINE
  5
386
100
AcDbEntity
  8
INCISIONI_LASER
100
AcDbLine
 62
7
  6
CONTINUOUS
 10
116.6148898154
 20
122.2825489888
 11
117.4084627113
 21
123.0761218847
  0
LINE
  5
387
100
AcDbEntity
  8
INCISIONI_LASER
100
AcDbLine
 62
7
  6
CONTINUOUS
 10
114.5645682434
 20
119.8122059888
 11
115.1871742434
 21
120.4348119888
  0
LINE
  5
388
100
AcDbEntity
  8
INCISIONI_LASER
100
AcDbLine
 62
7
  6
CONTINUOUS
 10
115.7742150063
 20
121.0218527517
 11
116.1770116308
 21
121.4246493762
  0
LINE
  5
389
100
AcDbEntity
  8
INCISIONI_LASER
100
AcDbLine
 62
7
  6
CONTINUOUS
 10
117.0349112434
 20
122.2825489888
 11
117.4084627113
 21
122.6561004566
  0
LINE
  5
38A
100
AcDbEntity
  8
INCISIONI_LASER
100
AcDbLine
 62
7
  6
CONTINUOUS
 10
114.9845896715
 20
119.8122059888
 11
115.6071956715
 21
120.4348119888
  0
LINE
  5
38B
100
AcDbEntity
  8
INCISIONI_LASER
100
AcDbLine
 62
7
  6
CONTINUOUS
 10
115.8102546522
 20
120.6378709695
 11
116.267888584
 21
121.0955049014
  0
LINE
  5
38C
100
AcDbEntity
  8
INCISIONI_LASER
100
AcDbLine
 62
7
  6
CONTINUOUS
 10
115.4046110995
 20
119.8122059888
 11
116.2920408619
 21
120.6996357512
  0
LINE
  5
38D
100
AcDbEntity
  8
INCISIONI_LASER
100
AcDbLine
 62
7
  6
CONTINUOUS
 10
115.8246325275
 20
119.8122059888
 11
116.4472385275
 21
120.4348119888
  0
LINE
  5
38E
100
AcDbEntity
  8
INCISIONI_LASER
100
AcDbLine
 62
250
  6
CONTINUOUS
 10
131.9084627113
 20
122.8516399888
 11
130.6088586737
 21
122.2813059888
  0
LINE
  5
38F
100
AcDbEntity
  8
CASTELLO
100
AcDbLine
 62
250
  6
CONTINUOUS
 10
102.3223075416
 20
96.5695101323
 11
101.8314570138
 21
96.5489476753
  0
LINE
  5
390
100
AcDbEntity
  8
CORPO
100
AcDbLine
 62
7
  6
CONTINUOUS
 10
121.9084627113
 20
96.4359666381
 11
111.9084627113
 21
96.2614159888
  0
LINE
  5
391
100
AcDbEntity
  8
IMPORTED
100
AcDbLine
 62
7
  6
CONTINUOUS
 10
121.9084627113
 20
96.4359666381
 11
111.9084627113
 21
96.2614159888
  0
LINE
  5
392
100
AcDbEntity
  8
CORPO
100
AcDbLine
 62
7
  6
CONTINUOUS
 10
132.7241698771
 20
97.6892256908
 11
121.9084627113
 21
97.5004368199
  0
LINE
  5
393
100
AcDbEntity
  8
IMPORTED
100
AcDbLine
 62
7
  6
CONTINUOUS
 10
132.7241698771
 20
97.6892256908
 11
121.9084627113
 21
97.5004368199
  0
LINE
  5
394
100
AcDbEntity
  8
CORPO
100
AcDbLine
 62
250
  6
CONTINUOUS
 10
132.7241698771
 20
98.2825493897
 11
111.9084627113
 21
98.0256295512
  0
LINE
  5
395
100
AcDbEntity
  8
IMPORTED
100
AcDbLine
 62
250
  6
CONTINUOUS
 10
132.7241698771
 20
98.2825493897
 11
111.9084627113
 21
98.0256295512
  0
LINE
  5
396
100
AcDbEntity
  8
CASTELLO
100
AcDbLine
 62
250
  6
CONTINUOUS
 10
110.9106490403
 20
95.2115302602
 11
111.9084627113
 21
95.2202380482
  0
LINE
  5
397
100
AcDbEntity
  8
CASTELLO
100
AcDbLine
 62
7
  6
CONTINUOUS
 10
112.1082494715
 20
96.2009456084
 11
121.9084627113
 21
96.1154204431
  0
LINE
  5
398
100
AcDbEntity
  8
CASTELLO
100
AcDbLine
 62
7
  6
CONTINUOUS
 10
121.4171889145
 20
95.5454405555
 11
111.9084627113
 21
95.7114159888
  0
LINE
  5
399
100
AcDbEntity
  8
CASTELLO
100
AcDbLine
 62
250
  6
CONTINUOUS
 10
103.2691255973
 20
95.6120055342
 11
110.9106490403
 21
95.2115302602
  0
LINE
  5
39A
100
AcDbEntity
  8
CASTELLO
100
AcDbLine
 62
7
  6
CONTINUOUS
 10
112.1082494715
 20
96.2009456084
 11
111.9084627113
 21
96.2114159888
  0
LINE
  5
39B
100
AcDbEntity
  8
CASTELLO
100
AcDbLine
 62
250
  6
CONTINUOUS
 10
111.6599171441
 20
93.2670784215
 11
110.9084627113
 21
93.7009308406
  0
LINE
  5
39C
100
AcDbEntity
  8
CASTELLO
100
AcDbLine
 62
7
  6
CONTINUOUS
 10
111.7834627113
 20
93.4835847725
 11
110.9084627113
 21
93.988766258
  0
LINE
  5
39D
100
AcDbEntity
  8
INCISIONI_LASER
100
AcDbLine
 62
7
  6
CONTINUOUS
 10
116.2446539555
 20
119.8122059888
 11
116.8672599555
 21
120.4348119888
  0
LINE
  5
39E
100
AcDbEntity
  8
INCISIONI_LASER
100
AcDbLine
 62
7
  6
CONTINUOUS
 10
116.6646753836
 20
119.8122059888
 11
117.2872813836
 21
120.4348119888
  0
LINE
  5
39F
100
AcDbEntity
  8
INCISIONI_LASER
100
AcDbLine
 62
7
  6
CONTINUOUS
 10
117.0846968116
 20
119.8122059888
 11
117.4084627113
 21
120.1359718885
  0
LINE
  5
3A0
100
AcDbEntity
  8
INCISIONI_LASER
100
AcDbLine
 62
250
  6
CONTINUOUS
 10
131.9084627113
 20
127.5665969888
 11
130.6088586737
 21
126.5344719888
  0
LINE
  5
3A1
100
AcDbEntity
  8
INCISIONI_LASER
100
AcDbLine
 62
250
  6
CONTINUOUS
 10
116.2177085094
 20
112.8563939888
 11
117.408440718
 21
113.4737969888
  0
LINE
  5
3A2
100
AcDbEntity
  8
INCISIONI_LASER
100
AcDbLine
 62
250
  6
CONTINUOUS
 10
117.4084477158
 20
112.8204919888
 11
116.2874392639
 21
112.2392379888
  0
LINE
  5
3A3
100
AcDbEntity
  8
INCISIONI_LASER
100
AcDbLine
 62
250
  6
CONTINUOUS
 10
131.9084627113
 20
120.9142849888
 11
130.6088586737
 21
120.2914159888
  0
LINE
  5
3A4
100
AcDbEntity
  8
INCISIONI_LASER
100
AcDbLine
 62
250
  6
CONTINUOUS
 10
114.5092010562
 20
109.8350949888
 11
117.4084557134
 21
110.7662339888
  0
LINE
  5
3A5
100
AcDbEntity
  8
INCISIONI_LASER
100
AcDbLine
 62
250
  6
CONTINUOUS
 10
117.4084477158
 20
110.1862049888
 11
116.83829343
 21
110.0030989888
  0
LINE
  5
3A6
100
AcDbEntity
  8
INCISIONI_LASER
100
AcDbLine
 62
250
  6
CONTINUOUS
 10
116.2874392639
 20
109.8261699888
 11
115.4121669412
 21
109.5450659888
  0
LINE
  5
3A7
100
AcDbEntity
  8
INCISIONI_LASER
100
AcDbLine
 62
250
  6
CONTINUOUS
 10
130.6056146107
 20
103.1542730874
 11
131.9054166144
 21
103.4328445381
  0
LINE
  5
3A8
100
AcDbEntity
  8
CORPO
100
AcDbLine
 62
250
  6
CONTINUOUS
 10
133.6084627113
 20
99.3319212053
 11
133.6035633374
 21
99.331921205
  0
LINE
  5
3A9
100
AcDbEntity
  8
IMPORTED
100
AcDbLine
 62
250
  6
CONTINUOUS
 10
133.6084627113
 20
99.3319212053
 11
133.6035633374
 21
99.331921205
  0
LINE
  5
3AA
100
AcDbEntity
  8
CORPO
100
AcDbLine
 62
250
  6
CONTINUOUS
 10
111.9084627113
 20
99.4398431135
 11
133.6043107426
 21
99.4398431135
  0
LINE
  5
3AB
100
AcDbEntity
  8
IMPORTED
100
AcDbLine
 62
250
  6
CONTINUOUS
 10
111.9084627113
 20
99.4398431135
 11
133.6043107426
 21
99.4398431135
  0
LINE
  5
3AC
100
AcDbEntity
  8
INCISIONI_LASER
100
AcDbLine
 62
250
  6
CONTINUOUS
 10
131.9054166144
 20
101.1114159888
 11
130.6056146107
 21
101.1114159888
  0
LINE
  5
3AD
100
AcDbEntity
  8
CORPO
100
AcDbLine
 62
250
  6
CONTINUOUS
 10
133.6029420997
 20
99.3304626465
 11
133.6035449851
 21
99.3304566647
  0
LINE
  5
3AE
100
AcDbEntity
  8
IMPORTED
100
AcDbLine
 62
250
  6
CONTINUOUS
 10
133.6029420997
 20
99.3304626465
 11
133.6035449851
 21
99.3304566647
  0
LINE
  5
3AF
100
AcDbEntity
  8
CASTELLO
100
AcDbLine
 62
7
  6
CONTINUOUS
 10
108.4084627113
 20
92.8745103367
 11
108.4084627113
 21
93.2670784215
  0
LINE
  5
3B0
100
AcDbEntity
  8
CASTELLO
100
AcDbLine
 62
7
  6
CONTINUOUS
 10
108.4084627113
 20
140.9557535561
 11
108.4084627113
 21
141.3483216409
  0
LINE
  5
3B1
100
AcDbEntity
  8
CASTELLO
100
AcDbLine
 62
250
  6
CONTINUOUS
 10
108.6570082784
 20
92.8745103367
 11
108.6570082784
 21
93.2670784215
  0
LINE
  5
3B2
100
AcDbEntity
  8
CASTELLO
100
AcDbLine
 62
250
  6
CONTINUOUS
 10
108.6570082784
 20
140.9557535561
 11
108.6570082784
 21
141.3483216409
  0
LINE
  5
3B3
100
AcDbEntity
  8
INCISIONI_LASER
100
AcDbLine
 62
250
  6
CONTINUOUS
 10
116.397301791
 20
106.5188359888
 11
114.5092080541
 21
105.9772679888
  0
LINE
  5
3B4
100
AcDbEntity
  8
INCISIONI_LASER
100
AcDbLine
 62
250
  6
CONTINUOUS
 10
115.4965962174
 20
105.6804529888
 11
117.4084557134
 21
106.2288289888
  0
LINE
  5
3B5
100
AcDbEntity
  8
INCISIONI_LASER
100
AcDbLine
 62
250
  6
CONTINUOUS
 10
128.8507046297
 20
101.6286569888
 11
129.6550565603
 21
101.6286569888
  0
LINE
  5
3B6
100
AcDbEntity
  8
INCISIONI_LASER
100
AcDbLine
 62
250
  6
CONTINUOUS
 10
131.9054166144
 20
101.7614159888
 11
130.6056146107
 21
101.7614159888
  0
LINE
  5
3B7
100
AcDbEntity
  8
INCISIONI_LASER
100
AcDbLine
 62
250
  6
CONTINUOUS
 10
130.9769865896
 20
102.1328445381
 11
130.7913006001
 21
102.1328445381
  0
LINE
  5
3B8
100
AcDbEntity
  8
INCISIONI_LASER
100
AcDbLine
 62
250
  6
CONTINUOUS
 10
128.3393654241
 20
102.5596919888
 11
127.4775599984
 21
102.5596919888
  0
LINE
  5
3B9
100
AcDbEntity
  8
INCISIONI_LASER
100
AcDbLine
 62
250
  6
CONTINUOUS
 10
131.7197306056
 20
102.7828445381
 11
131.5340445967
 21
102.7828445381
  0
LINE
  5
3BA
100
AcDbEntity
  8
INCISIONI_LASER
100
AcDbLine
 62
250
  6
CONTINUOUS
 10
127.6786477311
 20
103.1171629888
 11
128.1382776914
 21
103.1171629888
  0
LINE
  5
3BB
100
AcDbEntity
  8
INCISIONI_LASER
100
AcDbLine
 62
250
  6
CONTINUOUS
 10
114.5092080541
 20
103.9404099888
 11
117.4084627113
 21
103.9404019888
  0
LINE
  5
3BC
100
AcDbEntity
  8
0
100
AcDbLine
 62
250
  6
CONTINUOUS
 10
122.1462551028
 20
103.9867190897
 11
122.0773504625
 21
103.9867190897
  0
LINE
  5
3BD
100
AcDbEntity
  8
INCISIONI_LASER
100
AcDbLine
 62
250
  6
CONTINUOUS
 10
128.3393654241
 20
104.0654389888
 11
127.4775599984
 21
104.0654389888
  0
LINE
  5
3BE
100
AcDbEntity
  8
0
100
AcDbLine
 62
250
  6
CONTINUOUS
 10
123.8806596142
 20
102.0647734568
 11
122.6943375547
 21
102.150805935
  0
LINE
  5
3BF
100
AcDbEntity
  8
CASTELLO
100
AcDbLine
 62
7
  6
CONTINUOUS
 10
109.4084627113
 20
93.988766258
 11
109.4084627113
 21
94.7900276577
  0
LINE
  5
3C0
100
AcDbEntity
  8
CASTELLO
100
AcDbLine
 62
7
  6
CONTINUOUS
 10
109.4084627113
 20
139.4328043199
 11
109.4084627113
 21
140.2340657196
  0
LINE
  5
3C1
100
AcDbEntity
  8
CASTELLO
100
AcDbLine
 62
250
  6
CONTINUOUS
 10
109.6570082784
 20
93.8444286907
 11
109.6570082784
 21
94.7780050274
  0
LINE
  5
3C2
100
AcDbEntity
  8
CASTELLO
100
AcDbLine
 62
250
  6
CONTINUOUS
 10
109.6570082784
 20
139.4448269502
 11
109.6570082784
 21
140.3784032869
  0
LINE
  5
3C3
100
AcDbEntity
  8
CASTELLO
100
AcDbLine
 62
7
  6
CONTINUOUS
 10
110.9084627113
 20
92.861411758
 11
110.9084627113
 21
94.7117260208
  0
LINE
  5
3C4
100
AcDbEntity
  8
CASTELLO
100
AcDbLine
 62
7
  6
CONTINUOUS
 10
110.9084627113
 20
139.5111059568
 11
110.9084627113
 21
141.3614202196
  0
LINE
  5
3C5
100
AcDbEntity
  8
CASTELLO
100
AcDbLine
 62
250
  6
CONTINUOUS
 10
111.6599171441
 20
141.3570483856
 11
111.6599171441
 21
140.9557535561
  0
LINE
  5
3C6
100
AcDbEntity
  8
CASTELLO
100
AcDbLine
 62
250
  6
CONTINUOUS
 10
111.6599171441
 20
93.2670784215
 11
111.6599171441
 21
92.865783592
  0
LINE
  5
3C7
100
AcDbEntity
  8
CASTELLO
100
AcDbLine
 62
7
  6
CONTINUOUS
 10
111.9084627113
 20
141.3570483856
 11
111.9084627113
 21
140.8114159888
  0
LINE
  5
3C8
100
AcDbEntity
  8
CASTELLO
100
AcDbLine
 62
7
  6
CONTINUOUS
 10
111.9084627113
 20
93.2670784215
 11
111.9084627113
 21
92.865783592
  0
LINE
  5
3C9
100
AcDbEntity
  8
CORPO
100
AcDbLine
 62
7
  6
CONTINUOUS
 10
111.9084627113
 20
99.4398431135
 11
111.9084627113
 21
134.7829888641
  0
LINE
  5
3CA
100
AcDbEntity
  8
IMPORTED
100
AcDbLine
 62
7
  6
CONTINUOUS
 10
111.9084627113
 20
99.4398431135
 11
111.9084627113
 21
134.7829888641
  0
LINE
  5
3CB
100
AcDbEntity
  8
CASTELLO
100
AcDbLine
 62
7
  6
CONTINUOUS
 10
111.9084627113
 20
94.7201428566
 11
111.9084627113
 21
139.502689121
  0
LINE
  5
3CC
100
AcDbEntity
  8
INCISIONI_LASER
100
AcDbLine
 62
250
  6
CONTINUOUS
 10
117.4084557134
 20
104.5204239888
 11
114.5092080541
 21
104.5204309888
  0
LINE
  5
3CD
100
AcDbEntity
  8
INCISIONI_LASER
100
AcDbLine
 62
250
  6
CONTINUOUS
 10
114.5092080541
 20
105.1004309888
 11
117.4084557134
 21
105.1004309888
  0
LINE
  5
3CE
100
AcDbEntity
  8
INCISIONI_LASER
100
AcDbLine
 62
250
  6
CONTINUOUS
 10
130.9769865896
 20
105.5685588902
 11
130.7913006001
 21
105.5685588902
  0
LINE
  5
3CF
100
AcDbEntity
  8
INCISIONI_LASER
100
AcDbLine
 62
250
  6
CONTINUOUS
 10
129.6550565603
 20
105.5941749888
 11
128.8507046297
 21
105.5941749888
  0
LINE
  5
3D0
100
AcDbEntity
  8
INCISIONI_LASER
100
AcDbLine
 62
250
  6
CONTINUOUS
 10
117.4084557134
 20
105.6804529888
 11
115.4965962174
 21
105.6804529888
  0
LINE
  5
3D1
100
AcDbEntity
  8
INCISIONI_LASER
100
AcDbLine
 62
250
  6
CONTINUOUS
 10
130.9769865896
 20
106.5899875945
 11
130.7913006001
 21
106.5899875945
  0
LINE
  5
3D2
100
AcDbEntity
  8
INCISIONI_LASER
100
AcDbLine
 62
250
  6
CONTINUOUS
 10
115.4965962174
 20
107.3572109888
 11
117.4084557134
 21
107.3572189888
  0
LINE
  5
3D3
100
AcDbEntity
  8
0
100
AcDbLine
 62
250
  6
CONTINUOUS
 10
123.6797569281
 20
103.2650760051
 11
122.2422234934
 21
103.3800074239
  0
LINE
  5
3D4
100
AcDbEntity
  8
0
100
AcDbLine
 62
250
  6
CONTINUOUS
 10
122.6936734136
 20
103.9405472191
 11
122.1462551028
 21
103.9867190897
  0
LINE
  5
3D5
100
AcDbEntity
  8
0
100
AcDbLine
 62
250
  6
CONTINUOUS
 10
123.5934185837
 20
103.8639816352
 11
122.6936734136
 21
103.9405472191
  0
LINE
  5
3D6
100
AcDbEntity
  8
INCISIONI_LASER
100
AcDbLine
 62
250
  6
CONTINUOUS
 10
114.5092080541
 20
102.9737019888
 11
116.5054968263
 21
102.3325769888
  0
LINE
  5
3D7
100
AcDbEntity
  8
INCISIONI_LASER
100
AcDbLine
 62
250
  6
CONTINUOUS
 10
117.4084557134
 20
102.6225919888
 11
114.5092080541
 21
103.5537309888
  0
LINE
  5
3D8
100
AcDbEntity
  8
INCISIONI_LASER
100
AcDbLine
 62
250
  6
CONTINUOUS
 10
114.5092010562
 20
109.2550439888
 11
114.5092010562
 21
109.8350949888
  0
LINE
  5
3D9
100
AcDbEntity
  8
INCISIONI_LASER
100
AcDbLine
 62
250
  6
CONTINUOUS
 10
114.5092010562
 20
111.1529129888
 11
114.5092010562
 21
112.5111279888
  0
LINE
  5
3DA
100
AcDbEntity
  8
INCISIONI_LASER
100
AcDbLine
 62
250
  6
CONTINUOUS
 10
114.5092080541
 20
107.9372399888
 11
114.5092080541
 21
107.0604039888
  0
LINE
  5
3DB
100
AcDbEntity
  8
INCISIONI_LASER
100
AcDbLine
 62
250
  6
CONTINUOUS
 10
114.5092080541
 20
105.9772679888
 11
114.5092080541
 21
105.1004309888
  0
LINE
  5
3DC
100
AcDbEntity
  8
INCISIONI_LASER
100
AcDbLine
 62
250
  6
CONTINUOUS
 10
114.5092080541
 20
104.5204309888
 11
114.5092080541
 21
103.9404099888
  0
LINE
  5
3DD
100
AcDbEntity
  8
INCISIONI_LASER
100
AcDbLine
 62
250
  6
CONTINUOUS
 10
114.5092080541
 20
103.5537309888
 11
114.5092080541
 21
102.9737019888
  0
LINE
  5
3DE
100
AcDbEntity
  8
INCISIONI_LASER
100
AcDbLine
 62
250
  6
CONTINUOUS
 10
114.5092080541
 20
101.6914449888
 11
114.5092080541
 21
101.1114159888
  0
LINE
  5
3DF
100
AcDbEntity
  8
INCISIONI_LASER
100
AcDbLine
 62
250
  6
CONTINUOUS
 10
114.5093450124
 20
132.1033509888
 11
114.5093450124
 21
131.3642999888
  0
LINE
  5
3E0
100
AcDbEntity
  8
INCISIONI_LASER
100
AcDbLine
 62
250
  6
CONTINUOUS
 10
114.5093450124
 20
126.0783159888
 11
114.5093450124
 21
125.3392649888
  0
LINE
  5
3E1
100
AcDbEntity
  8
INCISIONI_LASER
100
AcDbLine
 62
250
  6
CONTINUOUS
 10
114.5093450124
 20
120.6996359888
 11
114.5093450124
 21
119.8122059888
  0
LINE
  5
3E2
100
AcDbEntity
  8
INCISIONI_LASER
100
AcDbLine
 62
250
  6
CONTINUOUS
 10
114.5093450124
 20
122.2825489888
 11
114.5093450124
 21
122.9051549888
  0
LINE
  5
3E3
100
AcDbEntity
  8
INCISIONI_LASER
100
AcDbLine
 62
250
  6
CONTINUOUS
 10
114.5093450124
 20
127.4037409888
 11
114.5093450124
 21
128.3275549888
  0
LINE
  5
3E4
100
AcDbEntity
  8
INCISIONI_LASER
100
AcDbLine
 62
250
  6
CONTINUOUS
 10
114.5093450124
 20
129.4401699888
 11
114.5093450124
 21
130.0226139888
  0
LINE
  5
3E5
100
AcDbEntity
  8
INCISIONI_LASER
100
AcDbLine
 62
250
  6
CONTINUOUS
 10
114.9911312221
 20
120.4348119888
 11
114.9911312221
 21
120.7980279888
  0
LINE
  5
3E6
100
AcDbEntity
  8
INCISIONI_LASER
100
AcDbLine
 62
250
  6
CONTINUOUS
 10
116.5054968263
 20
102.3325769888
 11
114.5092080541
 21
101.6914449888
  0
LINE
  5
3E7
100
AcDbEntity
  8
INCISIONI_LASER
100
AcDbLine
 62
250
  6
CONTINUOUS
 10
114.5092080541
 20
101.1114159888
 11
117.4084627113
 21
102.0425479888
  0
LINE
  5
3E8
100
AcDbEntity
  8
INCISIONI_LASER
100
AcDbLine
 62
250
  6
CONTINUOUS
 10
130.9769865896
 20
107.6114159888
 11
130.7913006001
 21
107.6114159888
  0
LINE
  5
3E9
100
AcDbEntity
  8
INCISIONI_LASER
100
AcDbLine
 62
250
  6
CONTINUOUS
 10
117.4084557134
 20
107.9372399888
 11
114.5092080541
 21
107.9372399888
  0
LINE
  5
3EA
100
AcDbEntity
  8
INCISIONI_LASER
100
AcDbLine
 62
250
  6
CONTINUOUS
 10
131.2555156125
 20
107.9828443831
 11
131.7197306056
 21
107.9828443831
  0
LINE
  5
3EB
100
AcDbEntity
  8
INCISIONI_LASER
100
AcDbLine
 62
250
  6
CONTINUOUS
 10
131.7197306056
 20
108.6328443831
 11
131.3483586073
 21
108.6328443831
  0
LINE
  5
3EC
100
AcDbEntity
  8
INCISIONI_LASER
100
AcDbLine
 62
250
  6
CONTINUOUS
 10
130.9769865896
 20
109.6542733973
 11
130.7913006001
 21
109.6542733973
  0
LINE
  5
3ED
100
AcDbEntity
  8
INCISIONI_LASER
100
AcDbLine
 62
250
  6
CONTINUOUS
 10
131.9054166144
 20
103.9899872845
 11
130.6056146107
 21
104.2685588902
  0
LINE
  5
3EE
100
AcDbEntity
  8
INCISIONI_LASER
100
AcDbLine
 62
250
  6
CONTINUOUS
 10
114.5092080541
 20
107.0604039888
 11
116.397301791
 21
106.5188359888
  0
LINE
  5
3EF
100
AcDbEntity
  8
INCISIONI_LASER
100
AcDbLine
 62
250
  6
CONTINUOUS
 10
117.4084477158
 20
106.8088359888
 11
115.4965962174
 21
107.3572109888
  0
LINE
  5
3F0
100
AcDbEntity
  8
INCISIONI_LASER
100
AcDbLine
 62
250
  6
CONTINUOUS
 10
131.9054166144
 20
103.4328445381
 11
130.9769865896
 21
103.7114159888
  0
LINE
  5
3F1
100
AcDbEntity
  8
INCISIONI_LASER
100
AcDbLine
 62
250
  6
CONTINUOUS
 10
115.0455596389
 20
112.4306239888
 11
115.0455596389
 21
111.7249379888
  0
LINE
  5
3F2
100
AcDbEntity
  8
INCISIONI_LASER
100
AcDbLine
 62
250
  6
CONTINUOUS
 10
115.7510736834
 20
111.7249449888
 11
115.7510736834
 21
112.4306239888
  0
LINE
  5
3F3
100
AcDbEntity
  8
INCISIONI_LASER
100
AcDbLine
 62
250
  6
CONTINUOUS
 10
115.8102546522
 20
120.4348119888
 11
115.8102546522
 21
120.7980279888
  0
LINE
  5
3F4
100
AcDbEntity
  8
INCISIONI_LASER
100
AcDbLine
 62
250
  6
CONTINUOUS
 10
116.2874392639
 20
112.2392379888
 11
116.287432266
 21
111.7330069888
  0
LINE
  5
3F5
100
AcDbEntity
  8
INCISIONI_LASER
100
AcDbLine
 62
250
  6
CONTINUOUS
 10
116.2874392639
 20
109.2639759888
 11
116.2874392639
 21
109.8261699888
  0
LINE
  5
3F6
100
AcDbEntity
  8
INCISIONI_LASER
100
AcDbLine
 62
250
  6
CONTINUOUS
 10
116.2920408619
 20
120.6996359888
 11
116.2920408619
 21
120.4348119888
  0
LINE
  5
3F7
100
AcDbEntity
  8
INCISIONI_LASER
100
AcDbLine
 62
250
  6
CONTINUOUS
 10
116.3122247123
 20
132.1192849888
 11
116.3122247123
 21
131.2879069888
  0
LINE
  5
3F8
100
AcDbEntity
  8
INCISIONI_LASER
100
AcDbLine
 62
250
  6
CONTINUOUS
 10
116.3122247123
 20
126.0943589888
 11
116.3122247123
 21
125.2628719888
  0
LINE
  5
3F9
100
AcDbEntity
  8
INCISIONI_LASER
100
AcDbLine
 62
250
  6
CONTINUOUS
 10
116.794010922
 20
125.1022279888
 11
116.794010922
 21
126.2509649888
  0
LINE
  5
3FA
100
AcDbEntity
  8
INCISIONI_LASER
100
AcDbLine
 62
250
  6
CONTINUOUS
 10
116.794010922
 20
131.1272619888
 11
116.794010922
 21
132.2759999888
  0
LINE
  5
3FB
100
AcDbEntity
  8
INCISIONI_LASER
100
AcDbLine
 62
250
  6
CONTINUOUS
 10
116.83829343
 20
110.0030989888
 11
116.83829343
 21
109.0870539888
  0
LINE
  5
3FC
100
AcDbEntity
  8
INCISIONI_LASER
100
AcDbLine
 62
250
  6
CONTINUOUS
 10
116.9266765015
 20
122.9051549888
 11
116.9266765015
 21
123.9781539888
  0
LINE
  5
3FD
100
AcDbEntity
  8
INCISIONI_LASER
100
AcDbLine
 62
250
  6
CONTINUOUS
 10
117.4084557134
 20
110.7662339888
 11
117.4084477158
 21
110.1862049888
  0
LINE
  5
3FE
100
AcDbEntity
  8
INCISIONI_LASER
100
AcDbLine
 62
250
  6
CONTINUOUS
 10
117.4084627113
 20
102.0425479888
 11
117.4084557134
 21
102.6225919888
  0
LINE
  5
3FF
100
AcDbEntity
  8
INCISIONI_LASER
100
AcDbLine
 62
250
  6
CONTINUOUS
 10
117.4084477158
 20
111.7329419888
 11
117.4084477158
 21
111.1529129888
  0
LINE
  5
400
100
AcDbEntity
  8
INCISIONI_LASER
100
AcDbLine
 62
250
  6
CONTINUOUS
 10
117.4084557134
 20
105.1004309888
 11
117.4084557134
 21
105.6804529888
  0
LINE
  5
401
100
AcDbEntity
  8
INCISIONI_LASER
100
AcDbLine
 62
250
  6
CONTINUOUS
 10
117.4084557134
 20
107.3572189888
 11
117.4084557134
 21
107.9372399888
  0
LINE
  5
402
100
AcDbEntity
  8
INCISIONI_LASER
100
AcDbLine
 62
250
  6
CONTINUOUS
 10
117.4084627113
 20
103.9404019888
 11
117.4084557134
 21
104.5204239888
  0
LINE
  5
403
100
AcDbEntity
  8
INCISIONI_LASER
100
AcDbLine
 62
250
  6
CONTINUOUS
 10
117.4084627113
 20
130.0226139888
 11
117.4084627113
 21
129.1389619888
  0
LINE
  5
404
100
AcDbEntity
  8
INCISIONI_LASER
100
AcDbLine
 62
250
  6
CONTINUOUS
 10
117.4084627113
 20
127.9861859888
 11
117.4084627113
 21
127.4037409888
  0
LINE
  5
405
100
AcDbEntity
  8
INCISIONI_LASER
100
AcDbLine
 62
250
  6
CONTINUOUS
 10
117.4084627113
 20
123.9781539888
 11
117.4084627113
 21
122.2825489888
  0
LINE
  5
406
100
AcDbEntity
  8
INCISIONI_LASER
100
AcDbLine
 62
250
  6
CONTINUOUS
 10
117.4084627113
 20
119.8122059888
 11
117.4084627113
 21
120.4348119888
  0
LINE
  5
407
100
AcDbEntity
  8
INCISIONI_LASER
100
AcDbLine
 62
250
  6
CONTINUOUS
 10
117.4084627113
 20
124.2909299888
 11
117.4084627113
 21
124.8853799888
  0
LINE
  5
408
100
AcDbEntity
  8
INCISIONI_LASER
100
AcDbLine
 62
250
  6
CONTINUOUS
 10
117.4084627113
 20
126.4598469888
 11
117.4084627113
 21
127.0864899888
  0
LINE
  5
409
100
AcDbEntity
  8
INCISIONI_LASER
100
AcDbLine
 62
250
  6
CONTINUOUS
 10
117.4084627113
 20
130.3158559888
 11
117.4084627113
 21
130.9103049888
  0
LINE
  5
40A
100
AcDbEntity
  8
INCISIONI_LASER
100
AcDbLine
 62
250
  6
CONTINUOUS
 10
117.4084627113
 20
132.4849899888
 11
117.4084627113
 21
133.1114159888
  0
LINE
  5
40B
100
AcDbEntity
  8
INCISIONI_LASER
100
AcDbLine
 62
250
  6
CONTINUOUS
 10
117.4084557134
 20
106.2288289888
 11
117.4084477158
 21
106.8088359888
  0
LINE
  5
40C
100
AcDbEntity
  8
INCISIONI_LASER
100
AcDbLine
 62
250
  6
CONTINUOUS
 10
117.4084477158
 20
108.9039409888
 11
117.4084557134
 21
108.3239189888
  0
LINE
  5
40D
100
AcDbEntity
  8
INCISIONI_LASER
100
AcDbLine
 62
250
  6
CONTINUOUS
 10
117.408440718
 20
113.4737969888
 11
117.4084477158
 21
112.8204919888
  0
LINE
  5
40E
100
AcDbEntity
  8
CASTELLO
100
AcDbLine
 62
7
  6
CONTINUOUS
 10
109.4084627113
 20
93.988766258
 11
108.5334627113
 21
93.4835847725
  0
LINE
  5
40F
100
AcDbEntity
  8
CASTELLO
100
AcDbLine
 62
250
  6
CONTINUOUS
 10
109.6570082784
 20
93.8444286907
 11
108.6570082784
 21
93.2670784215
  0
LINE
  5
410
100
AcDbEntity
  8
INCISIONI_LASER
100
AcDbLine
 62
250
  6
CONTINUOUS
 10
127.5775295397
 20
103.6114159888
 11
126.7157231143
 21
103.1909569888
  0
LINE
  5
411
100
AcDbEntity
  8
INCISIONI_LASER
100
AcDbLine
 62
250
  6
CONTINUOUS
 10
130.9769865896
 20
103.7114159888
 11
131.9054166144
 21
103.9899872845
  0
LINE
  5
412
100
AcDbEntity
  8
CORPO
100
AcDbLine
 62
7
  6
CONTINUOUS
 10
133.8823159884
 20
115.735375046
 11
135.6346094341
 21
115.8886808577
  0
LINE
  5
413
100
AcDbEntity
  8
IMPORTED
100
AcDbLine
 62
7
  6
CONTINUOUS
 10
133.8823159884
 20
115.735375046
 11
135.6346094341
 21
115.8886808577
  0
LINE
  5
414
100
AcDbEntity
  8
INCISIONI_LASER
100
AcDbLine
 62
250
  6
CONTINUOUS
 10
117.4084477158
 20
111.1529129888
 11
114.5092010562
 21
111.1529129888
  0
LINE
  5
415
100
AcDbEntity
  8
INCISIONI_LASER
100
AcDbLine
 62
250
  6
CONTINUOUS
 10
115.0455596389
 20
111.7249379888
 11
115.7510736834
 21
111.7249449888
  0
LINE
  5
416
100
AcDbEntity
  8
INCISIONI_LASER
100
AcDbLine
 62
250
  6
CONTINUOUS
 10
116.287432266
 20
111.7330069888
 11
117.4084477158
 21
111.7329419888
  0
LINE
  5
417
100
AcDbEntity
  8
INCISIONI_LASER
100
AcDbLine
 62
250
  6
CONTINUOUS
 10
117.4084557134
 20
108.3239189888
 11
114.5092010562
 21
109.2550439888
  0
LINE
  5
418
100
AcDbEntity
  8
INCISIONI_LASER
100
AcDbLine
 62
250
  6
CONTINUOUS
 10
115.4121669412
 20
109.5450659888
 11
116.2874392639
 21
109.2639759888
  0
LINE
  5
419
100
AcDbEntity
  8
INCISIONI_LASER
100
AcDbLine
 62
250
  6
CONTINUOUS
 10
116.83829343
 20
109.0870539888
 11
117.4084477158
 21
108.9039409888
  0
LINE
  5
41A
100
AcDbEntity
  8
INCISIONI_LASER
100
AcDbLine
 62
250
  6
CONTINUOUS
 10
126.7157231143
 20
104.0318749888
 11
127.5775295397
 21
103.6114159888
  0
LINE
  5
41B
100
AcDbEntity
  8
CASTELLO
100
AcDbLine
 62
250
  6
CONTINUOUS
 10
118.482982538
 20
93.3606425641
 11
118.482982538
 21
94.7775178219
  0
LINE
  5
41C
100
AcDbEntity
  8
CASTELLO
100
AcDbLine
 62
250
  6
CONTINUOUS
 10
118.482982538
 20
139.4453141557
 11
118.482982538
 21
140.8621894135
  0
LINE
  5
41D
100
AcDbEntity
  8
INCISIONI_LASER
100
AcDbLine
 62
250
  6
CONTINUOUS
 10
118.9073965774
 20
132.7514157714
 11
118.9073965774
 21
132.2954159888
  0
LINE
  5
41E
100
AcDbEntity
  8
INCISIONI_LASER
100
AcDbLine
 62
250
  6
CONTINUOUS
 10
118.9073965774
 20
129.2554159163
 11
118.9073965774
 21
129.4074160975
  0
LINE
  5
41F
100
AcDbEntity
  8
INCISIONI_LASER
100
AcDbLine
 62
250
  6
CONTINUOUS
 10
118.9073965774
 20
130.4714158438
 11
118.9073965774
 21
131.3834159163
  0
LINE
  5
420
100
AcDbEntity
  8
CASTELLO
100
AcDbLine
 62
7
  6
CONTINUOUS
 10
118.9084627113
 20
93.8550581741
 11
118.9084627113
 21
94.7812205769
  0
LINE
  5
421
100
AcDbEntity
  8
CASTELLO
100
AcDbLine
 62
7
  6
CONTINUOUS
 10
118.9084627113
 20
139.4416114007
 11
118.9084627113
 21
140.3677738035
  0
LINE
  5
422
100
AcDbEntity
  8
INCISIONI_LASER
100
AcDbLine
 62
250
  6
CONTINUOUS
 10
119.7215582235
 20
131.0794160613
 11
119.7215582235
 21
130.4714158438
  0
LINE
  5
423
100
AcDbEntity
  8
INCISIONI_LASER
100
AcDbLine
 62
250
  6
CONTINUOUS
 10
120.4000263468
 20
128.1914159163
 11
120.4000263468
 21
127.1274160432
  0
LINE
  5
424
100
AcDbEntity
  8
INCISIONI_LASER
100
AcDbLine
 62
250
  6
CONTINUOUS
 10
120.8071071981
 20
133.0554161338
 11
120.8071071981
 21
131.9914161338
  0
LINE
  5
425
100
AcDbEntity
  8
INCISIONI_LASER
100
AcDbLine
 62
250
  6
CONTINUOUS
 10
120.8071071981
 20
129.4074160975
 11
120.8071071981
 21
129.2554159163
  0
LINE
  5
426
100
AcDbEntity
  8
INCISIONI_LASER
100
AcDbLine
 62
250
  6
CONTINUOUS
 10
120.8071071981
 20
130.4714158438
 11
120.8071071981
 21
131.0794160613
  0
LINE
  5
427
100
AcDbEntity
  8
INCISIONI_LASER
100
AcDbLine
 62
250
  6
CONTINUOUS
 10
130.7913006001
 20
109.6542733973
 11
130.6056146107
 21
109.4685585803
  0
LINE
  5
428
100
AcDbEntity
  8
INCISIONI_LASER
100
AcDbLine
 62
250
  6
CONTINUOUS
 10
128.124237969
 20
105.9984609888
 11
125.8031061698
 21
103.9381159888
  0
LINE
  5
429
100
AcDbEntity
  8
0
100
AcDbLine
 62
250
  6
CONTINUOUS
 10
122.7848267811
 20
102.3903017527
 11
123.5930865132
 21
103.0327218796
  0
LINE
  5
42A
100
AcDbEntity
  8
INCISIONI_LASER
100
AcDbLine
 62
250
  6
CONTINUOUS
 10
130.6056146107
 20
101.1114159888
 11
131.9054166144
 21
101.7614159888
  0
LINE
  5
42B
100
AcDbEntity
  8
CORPO
100
AcDbLine
 62
7
  6
CONTINUOUS
 10
133.6084627113
 20
113.8114159888
 11
133.8084627113
 21
113.8114159888
  0
LINE
  5
42C
100
AcDbEntity
  8
IMPORTED
100
AcDbLine
 62
7
  6
CONTINUOUS
 10
133.6084627113
 20
113.8114159888
 11
133.8084627113
 21
113.8114159888
  0
LINE
  5
42D
100
AcDbEntity
  8
CORPO
100
AcDbLine
 62
7
  6
CONTINUOUS
 10
133.6180577433
 20
115.5114159888
 11
133.8084627113
 21
115.5114159888
  0
LINE
  5
42E
100
AcDbEntity
  8
IMPORTED
100
AcDbLine
 62
7
  6
CONTINUOUS
 10
133.6180577433
 20
115.5114159888
 11
133.8084627113
 21
115.5114159888
  0
LINE
  5
42F
100
AcDbEntity
  8
INCISIONI_LASER
100
AcDbLine
 62
250
  6
CONTINUOUS
 10
125.8031061698
 20
103.2847159888
 11
128.124237969
 21
101.2243709888
  0
LINE
  5
430
100
AcDbEntity
  8
0
100
AcDbLine
 62
250
  6
CONTINUOUS
 10
122.0773504625
 20
103.9867190897
 11
122.0204003623
 21
104.13171205
  0
LINE
  5
431
100
AcDbEntity
  8
0
100
AcDbLine
 62
250
  6
CONTINUOUS
 10
122.636557278
 20
104.2941440263
 11
122.6121500922
 21
104.8581716247
  0
LINE
  5
432
100
AcDbEntity
  8
0
100
AcDbLine
 62
250
  6
CONTINUOUS
 10
122.0204003623
 20
104.3107526128
 11
122.0084458223
 21
105.1730704253
  0
LINE
  5
433
100
AcDbEntity
  8
CASTELLO
100
AcDbLine
 62
250
  6
CONTINUOUS
 10
121.4171889145
 20
138.6773914221
 11
121.4171889145
 21
138.103124253
  0
LINE
  5
434
100
AcDbEntity
  8
CASTELLO
100
AcDbLine
 62
250
  6
CONTINUOUS
 10
121.4171889145
 20
96.1197077246
 11
121.4171889145
 21
95.5454405555
  0
LINE
  5
435
100
AcDbEntity
  8
CORPO
100
AcDbLine
 62
7
  6
CONTINUOUS
 10
121.9084627113
 20
97.5004368199
 11
121.9084627113
 21
96.4359666381
  0
LINE
  5
436
100
AcDbEntity
  8
IMPORTED
100
AcDbLine
 62
7
  6
CONTINUOUS
 10
121.9084627113
 20
97.5004368199
 11
121.9084627113
 21
96.4359666381
  0
LINE
  5
437
100
AcDbEntity
  8
CASTELLO
100
AcDbLine
 62
7
  6
CONTINUOUS
 10
121.9084627113
 20
95.7987227451
 11
121.9084627113
 21
96.4359666381
  0
LINE
  5
438
100
AcDbEntity
  8
CORPO
100
AcDbLine
 62
7
  6
CONTINUOUS
 10
121.9084627113
 20
136.7223951577
 11
121.9084627113
 21
137.7868653395
  0
LINE
  5
439
100
AcDbEntity
  8
IMPORTED
100
AcDbLine
 62
7
  6
CONTINUOUS
 10
121.9084627113
 20
136.7223951577
 11
121.9084627113
 21
137.7868653395
  0
LINE
  5
43A
100
AcDbEntity
  8
CASTELLO
100
AcDbLine
 62
7
  6
CONTINUOUS
 10
121.9084627113
 20
137.7868653395
 11
121.9084627113
 21
138.4241092325
  0
LINE
  5
43B
100
AcDbEntity
  8
0
100
AcDbLine
 62
250
  6
CONTINUOUS
 10
122.0204003623
 20
104.13171205
 11
122.0204003623
 21
104.3107526128
  0
LINE
  5
43C
100
AcDbEntity
  8
INCISIONI_LASER
100
AcDbLine
 62
250
  6
CONTINUOUS
 10
131.3483586073
 20
108.6328443831
 11
131.1626725791
 21
108.447130186
  0
LINE
  5
43D
100
AcDbEntity
  8
INCISIONI_LASER
100
AcDbLine
 62
250
  6
CONTINUOUS
 10
130.7913006001
 20
107.6114159888
 11
130.6056146107
 21
107.4257017916
  0
LINE
  5
43E
100
AcDbEntity
  8
INCISIONI_LASER
100
AcDbLine
 62
250
  6
CONTINUOUS
 10
131.7197306056
 20
107.9828443831
 11
131.9054166144
 21
108.1685585803
  0
LINE
  5
43F
100
AcDbEntity
  8
INCISIONI_LASER
100
AcDbLine
 62
250
  6
CONTINUOUS
 10
130.7913006001
 20
106.5899875945
 11
130.6056146107
 21
106.4042733973
  0
LINE
  5
440
100
AcDbEntity
  8
INCISIONI_LASER
100
AcDbLine
 62
250
  6
CONTINUOUS
 10
130.7913006001
 20
105.5685588902
 11
130.6056146107
 21
105.3828446931
  0
LINE
  5
441
100
AcDbEntity
  8
0
100
AcDbLine
 62
250
  6
CONTINUOUS
 10
129.4579981815
 20
117.8738175628
 11
128.4414859935
 21
117.8738175628
  0
LINE
  5
442
100
AcDbEntity
  8
0
100
AcDbLine
 62
250
  6
CONTINUOUS
 10
124.3754383361
 20
117.8738175628
 11
123.3589272426
 21
117.8738175628
  0
LINE
  5
443
100
AcDbEntity
  8
INCISIONI_LASER
100
AcDbLine
 62
250
  6
CONTINUOUS
 10
114.5093450124
 20
119.8122059888
 11
117.4084627113
 21
119.8122059888
  0
LINE
  5
444
100
AcDbEntity
  8
INCISIONI_LASER
100
AcDbLine
 62
250
  6
CONTINUOUS
 10
130.8841436336
 20
108.1685585803
 11
131.2555156125
 21
107.9828443831
  0
LINE
  5
445
100
AcDbEntity
  8
INCISIONI_LASER
100
AcDbLine
 62
250
  6
CONTINUOUS
 10
130.6056146107
 20
105.1042730874
 11
130.8841436336
 21
104.9185588902
  0
LINE
  5
446
100
AcDbEntity
  8
INCISIONI_LASER
100
AcDbLine
 62
250
  6
CONTINUOUS
 10
130.6056146107
 20
106.1257017916
 11
130.8841436336
 21
105.9399872845
  0
LINE
  5
447
100
AcDbEntity
  8
INCISIONI_LASER
100
AcDbLine
 62
250
  6
CONTINUOUS
 10
130.6056146107
 20
107.147130186
 11
130.8841436336
 21
106.9614159888
  0
LINE
  5
448
100
AcDbEntity
  8
INCISIONI_LASER
100
AcDbLine
 62
250
  6
CONTINUOUS
 10
131.9054166144
 20
104.9185588902
 11
130.9769865896
 21
105.5685588902
  0
LINE
  5
449
100
AcDbEntity
  8
INCISIONI_LASER
100
AcDbLine
 62
250
  6
CONTINUOUS
 10
131.9054166144
 20
105.9399872845
 11
130.9769865896
 21
106.5899875945
  0
LINE
  5
44A
100
AcDbEntity
  8
INCISIONI_LASER
100
AcDbLine
 62
250
  6
CONTINUOUS
 10
131.9054166144
 20
106.9614159888
 11
130.9769865896
 21
107.6114159888
  0
LINE
  5
44B
100
AcDbEntity
  8
INCISIONI_LASER
100
AcDbLine
 62
250
  6
CONTINUOUS
 10
130.7913006001
 20
102.1328445381
 11
130.6056146107
 21
102.3185588127
  0
LINE
  5
44C
100
AcDbEntity
  8
INCISIONI_LASER
100
AcDbLine
 62
250
  6
CONTINUOUS
 10
131.9054166144
 20
102.5971303409
 11
131.7197306056
 21
102.7828445381
  0
LINE
  5
44D
100
AcDbEntity
  8
INCISIONI_LASER
100
AcDbLine
 62
250
  6
CONTINUOUS
 10
131.5340445967
 20
102.7828445381
 11
130.9769865896
 21
102.1328445381
  0
LINE
  5
44E
100
AcDbEntity
  8
INCISIONI_LASER
100
AcDbLine
 62
250
  6
CONTINUOUS
 10
130.6056146107
 20
102.6899874395
 11
130.6984576441
 21
102.7828445381
  0
LINE
  5
44F
100
AcDbEntity
  8
INCISIONI_LASER
100
AcDbLine
 62
250
  6
CONTINUOUS
 10
131.81257361
 20
102.1328445381
 11
131.9054166144
 21
102.2257017142
  0
LINE
  5
450
100
AcDbEntity
  8
INCISIONI_LASER
100
AcDbLine
 62
250
  6
CONTINUOUS
 10
130.6088586737
 20
120.2914159888
 11
131.9084627113
 21
120.2914159888
  0
LINE
  5
451
100
AcDbEntity
  8
INCISIONI_LASER
100
AcDbLine
 62
250
  6
CONTINUOUS
 10
117.4084627113
 20
120.4348119888
 11
116.2920408619
 21
120.4348119888
  0
LINE
  5
452
100
AcDbEntity
  8
INCISIONI_LASER
100
AcDbLine
 62
250
  6
CONTINUOUS
 10
115.8102546522
 20
120.4348119888
 11
114.9911312221
 21
120.4348119888
  0
LINE
  5
453
100
AcDbEntity
  8
INCISIONI_LASER
100
AcDbLine
 62
250
  6
CONTINUOUS
 10
131.9084627113
 20
121.5371519888
 11
130.6088586737
 21
121.5371519888
  0
LINE
  5
454
100
AcDbEntity
  8
INCISIONI_LASER
100
AcDbLine
 62
250
  6
CONTINUOUS
 10
117.4084627113
 20
122.2825489888
 11
114.5093450124
 21
122.2825489888
  0
LINE
  5
455
100
AcDbEntity
  8
CORPO
100
AcDbLine
 62
7
  6
CONTINUOUS
 10
133.6084627113
 20
122.6114159888
 11
133.8084627113
 21
122.6114159888
  0
LINE
  5
456
100
AcDbEntity
  8
IMPORTED
100
AcDbLine
 62
7
  6
CONTINUOUS
 10
133.6084627113
 20
122.6114159888
 11
133.8084627113
 21
122.6114159888
  0
LINE
  5
457
100
AcDbEntity
  8
INCISIONI_LASER
100
AcDbLine
 62
250
  6
CONTINUOUS
 10
114.5093450124
 20
122.9051549888
 11
116.9266765015
 21
122.9051549888
  0
LINE
  5
458
100
AcDbEntity
  8
INCISIONI_LASER
100
AcDbLine
 62
250
  6
CONTINUOUS
 10
130.6088586737
 20
123.0218229888
 11
131.9084627113
 21
123.0218229888
  0
LINE
  5
459
100
AcDbEntity
  8
CORPO
100
AcDbLine
 62
250
  6
CONTINUOUS
 10
133.6037917465
 20
122.7097046251
 11
133.6043107426
 21
122.7097045531
  0
LINE
  5
45A
100
AcDbEntity
  8
IMPORTED
100
AcDbLine
 62
250
  6
CONTINUOUS
 10
133.6037917465
 20
122.7097046251
 11
133.6043107426
 21
122.7097045531
  0
LINE
  5
45B
100
AcDbEntity
  8
0
100
AcDbLine
 62
250
  6
CONTINUOUS
 10
128.1883179816
 20
115.3969163911
 11
129.4579981815
 21
114.8238175636
  0
LINE
  5
45C
100
AcDbEntity
  8
0
100
AcDbLine
 62
250
  6
CONTINUOUS
 10
125.7812733449
 20
116.4833907123
 11
127.0069774259
 21
115.9301412875
  0
LINE
  5
45D
100
AcDbEntity
  8
INCISIONI_LASER
100
AcDbLine
 62
250
  6
CONTINUOUS
 10
130.6056146107
 20
109.1899875945
 11
130.8841436336
 21
109.0042733973
  0
LINE
  5
45E
100
AcDbEntity
  8
INCISIONI_LASER
100
AcDbLine
 62
250
  6
CONTINUOUS
 10
131.9054166144
 20
109.0042733973
 11
130.9769865896
 21
109.6542733973
  0
LINE
  5
45F
100
AcDbEntity
  8
INCISIONI_LASER
100
AcDbLine
 62
250
  6
CONTINUOUS
 10
130.6056146107
 20
108.447130186
 11
130.8841436336
 21
108.1685585803
  0
LINE
  5
460
100
AcDbEntity
  8
INCISIONI_LASER
100
AcDbLine
 62
250
  6
CONTINUOUS
 10
127.4775599984
 20
102.5596919888
 11
127.4775599984
 21
102.9160139888
  0
LINE
  5
461
100
AcDbEntity
  8
INCISIONI_LASER
100
AcDbLine
 62
250
  6
CONTINUOUS
 10
127.4775599984
 20
104.0654389888
 11
127.4775599984
 21
104.6229099888
  0
LINE
  5
462
100
AcDbEntity
  8
INCISIONI_LASER
100
AcDbLine
 62
250
  6
CONTINUOUS
 10
127.9084627113
 20
104.4562439888
 11
127.9084627113
 21
104.0654389888
  0
LINE
  5
463
100
AcDbEntity
  8
INCISIONI_LASER
100
AcDbLine
 62
250
  6
CONTINUOUS
 10
128.3393654241
 20
104.6229099888
 11
128.3393654241
 21
104.0654389888
  0
LINE
  5
464
100
AcDbEntity
  8
INCISIONI_LASER
100
AcDbLine
 62
250
  6
CONTINUOUS
 10
128.3393654241
 20
102.9160139888
 11
128.3393654241
 21
102.5596919888
  0
LINE
  5
465
100
AcDbEntity
  8
INCISIONI_LASER
100
AcDbLine
 62
250
  6
CONTINUOUS
 10
128.8507046297
 20
101.5510709888
 11
128.8507046297
 21
105.6717609888
  0
LINE
  5
466
100
AcDbEntity
  8
0
100
AcDbLine
 62
250
  6
CONTINUOUS
 10
129.4579981815
 20
114.8238175636
 11
129.4579981815
 21
115.8404835003
  0
LINE
  5
467
100
AcDbEntity
  8
INCISIONI_LASER
100
AcDbLine
 62
250
  6
CONTINUOUS
 10
129.6550565603
 20
101.6286569888
 11
129.6550565603
 21
105.5941749888
  0
LINE
  5
468
100
AcDbEntity
  8
CORPO
100
AcDbLine
 62
7
  6
CONTINUOUS
 10
133.8823159884
 20
126.135375046
 11
135.6346094341
 21
126.2886808577
  0
LINE
  5
469
100
AcDbEntity
  8
IMPORTED
100
AcDbLine
 62
7
  6
CONTINUOUS
 10
133.8823159884
 20
126.135375046
 11
135.6346094341
 21
126.2886808577
  0
LINE
  5
46A
100
AcDbEntity
  8
INCISIONI_LASER
100
AcDbLine
 62
250
  6
CONTINUOUS
 10
116.9266765015
 20
123.9781539888
 11
117.4084627113
 21
123.9781539888
  0
LINE
  5
46B
100
AcDbEntity
  8
CORPO
100
AcDbLine
 62
7
  6
CONTINUOUS
 10
133.6084627113
 20
124.2688627979
 11
133.8084627113
 21
124.2688627979
  0
LINE
  5
46C
100
AcDbEntity
  8
IMPORTED
100
AcDbLine
 62
7
  6
CONTINUOUS
 10
133.6084627113
 20
124.2688627979
 11
133.8084627113
 21
124.2688627979
  0
LINE
  5
46D
100
AcDbEntity
  8
INCISIONI_LASER
100
AcDbLine
 62
250
  6
CONTINUOUS
 10
130.6088586737
 20
124.3381709888
 11
131.9084627113
 21
124.3381709888
  0
LINE
  5
46E
100
AcDbEntity
  8
CORPO
100
AcDbLine
 62
7
  6
CONTINUOUS
 10
133.6084627113
 20
124.5114159888
 11
133.8084627113
 21
124.5114159888
  0
LINE
  5
46F
100
AcDbEntity
  8
IMPORTED
100
AcDbLine
 62
7
  6
CONTINUOUS
 10
133.6084627113
 20
124.5114159888
 11
133.8084627113
 21
124.5114159888
  0
LINE
  5
470
100
AcDbEntity
  8
CORPO
100
AcDbLine
 62
7
  6
CONTINUOUS
 10
133.8823159884
 20
121.8874569316
 11
135.6346094341
 21
121.7341511199
  0
LINE
  5
471
100
AcDbEntity
  8
IMPORTED
100
AcDbLine
 62
7
  6
CONTINUOUS
 10
133.8823159884
 20
121.8874569316
 11
135.6346094341
 21
121.7341511199
  0
LINE
  5
472
100
AcDbEntity
  8
INCISIONI_LASER
100
AcDbLine
 62
250
  6
CONTINUOUS
 10
114.5093450124
 20
125.3392649888
 11
117.4084627113
 21
124.2909299888
  0
LINE
  5
473
100
AcDbEntity
  8
0
100
AcDbLine
 62
250
  6
CONTINUOUS
 10
129.4579981815
 20
115.8404835003
 11
128.8972643641
 21
116.1108710017
  0
LINE
  5
474
100
AcDbEntity
  8
0
100
AcDbLine
 62
250
  6
CONTINUOUS
 10
127.9617453221
 20
116.5619805557
 11
127.4837720564
 21
116.79246129
  0
LINE
  5
475
100
AcDbEntity
  8
INCISIONI_LASER
100
AcDbLine
 62
250
  6
CONTINUOUS
 10
131.9054166144
 20
108.447130186
 11
131.7197306056
 21
108.6328443831
  0
LWPOLYLINE
  5
476
100
AcDbEntity
  8
CORPO
100
AcDbPolyline
 62
7
  6
CONTINUOUS
 90
4
 70
0
 10
133.6072856249
 20
98.7762908228
 10
133.6053763311
 20
98.8092019386
 10
133.6044290589
 20
98.8296372029
 10
133.6036384152
 20
98.8535163451
  0
LWPOLYLINE
  5
477
100
AcDbEntity
  8
IMPORTED
100
AcDbPolyline
 62
7
  6
CONTINUOUS
 90
4
 70
0
 10
133.6072856249
 20
98.7762908228
 10
133.6053763311
 20
98.8092019386
 10
133.6044290589
 20
98.8296372029
 10
133.6036384152
 20
98.8535163451
  0
LINE
  5
478
100
AcDbEntity
  8
CORPO
100
AcDbLine
 62
7
  6
CONTINUOUS
 10
133.6080431792
 20
98.7619773719
 11
133.6072856249
 21
98.7762908228
  0
LINE
  5
479
100
AcDbEntity
  8
IMPORTED
100
AcDbLine
 62
7
  6
CONTINUOUS
 10
133.6080431792
 20
98.7619773719
 11
133.6072856249
 21
98.7762908228
  0
LINE
  5
47A
100
AcDbEntity
  8
CORPO
100
AcDbLine
 62
7
  6
CONTINUOUS
 10
133.6084425539
 20
98.7478105783
 11
133.6080431792
 21
98.7619773719
  0
LINE
  5
47B
100
AcDbEntity
  8
IMPORTED
100
AcDbLine
 62
7
  6
CONTINUOUS
 10
133.6084425539
 20
98.7478105783
 11
133.6080431792
 21
98.7619773719
  0
LINE
  5
47C
100
AcDbEntity
  8
CORPO
100
AcDbLine
 62
7
  6
CONTINUOUS
 10
133.6036384152
 20
98.8535163451
 11
133.603103286
 21
98.8762381139
  0
LINE
  5
47D
100
AcDbEntity
  8
IMPORTED
100
AcDbLine
 62
7
  6
CONTINUOUS
 10
133.6036384152
 20
98.8535163451
 11
133.603103286
 21
98.8762381139
  0
LINE
  5
47E
100
AcDbEntity
  8
CORPO
100
AcDbLine
 62
7
  6
CONTINUOUS
 10
133.603103286
 20
98.8762381139
 11
133.6023776353
 21
98.9166743849
  0
LINE
  5
47F
100
AcDbEntity
  8
IMPORTED
100
AcDbLine
 62
7
  6
CONTINUOUS
 10
133.603103286
 20
98.8762381139
 11
133.6023776353
 21
98.9166743849
  0
LWPOLYLINE
  5
480
100
AcDbEntity
  8
CORPO
100
AcDbPolyline
 62
7
  6
CONTINUOUS
 90
9
 70
0
 10
133.6023776353
 20
98.9166743849
 10
133.6018239449
 20
98.9613620778
 10
133.6014674875
 20
99.0098640349
 10
133.6013331646
 20
99.0617230005
 10
133.6014300054
 20
99.1164726061
 10
133.6017551291
 20
99.1735678727
 10
133.602294329
 20
99.2324052018
 10
133.603013724
 20
99.2923985636
 10
133.6038877135
 20
99.3578084425
  0
LWPOLYLINE
  5
481
100
AcDbEntity
  8
IMPORTED
100
AcDbPolyline
 62
7
  6
CONTINUOUS
 90
9
 70
0
 10
133.6023776353
 20
98.9166743849
 10
133.6018239449
 20
98.9613620778
 10
133.6014674875
 20
99.0098640349
 10
133.6013331646
 20
99.0617230005
 10
133.6014300054
 20
99.1164726061
 10
133.6017551291
 20
99.1735678727
 10
133.602294329
 20
99.2324052018
 10
133.603013724
 20
99.2923985636
 10
133.6038877135
 20
99.3578084425
  0
LINE
  5
482
100
AcDbEntity
  8
CORPO
100
AcDbLine
 62
250
  6
CONTINUOUS
 10
133.6084627113
 20
98.746204829
 11
133.6084486893
 21
98.7477432632
  0
LINE
  5
483
100
AcDbEntity
  8
IMPORTED
100
AcDbLine
 62
250
  6
CONTINUOUS
 10
133.6084627113
 20
98.746204829
 11
133.6084486893
 21
98.7477432632
  0
LINE
  5
484
100
AcDbEntity
  8
INCISIONI_LASER
100
AcDbLine
 62
250
  6
CONTINUOUS
 10
130.6056146107
 20
109.4685585803
 11
130.6056146107
 21
109.1899875945
  0
LINE
  5
485
100
AcDbEntity
  8
INCISIONI_LASER
100
AcDbLine
 62
250
  6
CONTINUOUS
 10
130.6056146107
 20
107.4257017916
 11
130.6056146107
 21
107.147130186
  0
LINE
  5
486
100
AcDbEntity
  8
INCISIONI_LASER
100
AcDbLine
 62
250
  6
CONTINUOUS
 10
130.6056146107
 20
106.4042733973
 11
130.6056146107
 21
106.1257017916
  0
LINE
  5
487
100
AcDbEntity
  8
INCISIONI_LASER
100
AcDbLine
 62
250
  6
CONTINUOUS
 10
130.6056146107
 20
105.3828446931
 11
130.6056146107
 21
105.1042730874
  0
LINE
  5
488
100
AcDbEntity
  8
INCISIONI_LASER
100
AcDbLine
 62
250
  6
CONTINUOUS
 10
130.6056146107
 20
102.3185588127
 11
130.6056146107
 21
102.6899874395
  0
LINE
  5
489
100
AcDbEntity
  8
INCISIONI_LASER
100
AcDbLine
 62
250
  6
CONTINUOUS
 10
130.6088586737
 20
125.2851579888
 11
130.6088586737
 21
124.3381709888
  0
LINE
  5
48A
100
AcDbEntity
  8
INCISIONI_LASER
100
AcDbLine
 62
250
  6
CONTINUOUS
 10
130.6088586737
 20
123.4516589888
 11
130.6088586737
 21
123.0218229888
  0
LINE
  5
48B
100
AcDbEntity
  8
INCISIONI_LASER
100
AcDbLine
 62
250
  6
CONTINUOUS
 10
130.6088586737
 20
128.7362709888
 11
130.6088586737
 21
129.7918629888
  0
LINE
  5
48C
100
AcDbEntity
  8
INCISIONI_LASER
100
AcDbLine
 62
250
  6
CONTINUOUS
 10
131.1626725791
 20
108.447130186
 11
131.1626725791
 21
108.0447495288
  0
LINE
  5
48D
100
AcDbEntity
  8
INCISIONI_LASER
100
AcDbLine
 62
250
  6
CONTINUOUS
 10
131.2586606925
 20
124.3381709888
 11
131.2586606925
 21
125.2187619888
  0
LINE
  5
48E
100
AcDbEntity
  8
INCISIONI_LASER
100
AcDbLine
 62
250
  6
CONTINUOUS
 10
131.4367654277
 20
130.0676999888
 11
131.4367654277
 21
130.7943569888
  0
LINE
  5
48F
100
AcDbEntity
  8
INCISIONI_LASER
100
AcDbLine
 62
250
  6
CONTINUOUS
 10
131.4442041612
 20
121.9147139888
 11
131.4442041612
 21
122.6478989888
  0
LINE
  5
490
100
AcDbEntity
  8
INCISIONI_LASER
100
AcDbLine
 62
250
  6
CONTINUOUS
 10
131.9054166144
 20
109.6542733973
 11
131.9054166144
 21
109.0042733973
  0
LINE
  5
491
100
AcDbEntity
  8
INCISIONI_LASER
100
AcDbLine
 62
250
  6
CONTINUOUS
 10
131.9054166144
 20
107.6114159888
 11
131.9054166144
 21
106.9614159888
  0
LINE
  5
492
100
AcDbEntity
  8
INCISIONI_LASER
100
AcDbLine
 62
250
  6
CONTINUOUS
 10
131.9054166144
 20
106.5899875945
 11
131.9054166144
 21
105.9399872845
  0
LINE
  5
493
100
AcDbEntity
  8
INCISIONI_LASER
100
AcDbLine
 62
250
  6
CONTINUOUS
 10
131.9054166144
 20
105.5685588902
 11
131.9054166144
 21
104.9185588902
  0
LINE
  5
494
100
AcDbEntity
  8
INCISIONI_LASER
100
AcDbLine
 62
250
  6
CONTINUOUS
 10
131.9054166144
 20
102.2257017142
 11
131.9054166144
 21
102.5971303409
  0
LINE
  5
495
100
AcDbEntity
  8
INCISIONI_LASER
100
AcDbLine
 62
250
  6
CONTINUOUS
 10
131.9054166144
 20
108.1685585803
 11
131.9054166144
 21
108.447130186
  0
LINE
  5
496
100
AcDbEntity
  8
INCISIONI_LASER
100
AcDbLine
 62
250
  6
CONTINUOUS
 10
131.9084627113
 20
123.0218229888
 11
131.9084627113
 21
123.4516589888
  0
LINE
  5
497
100
AcDbEntity
  8
INCISIONI_LASER
100
AcDbLine
 62
250
  6
CONTINUOUS
 10
131.9084627113
 20
124.3381709888
 11
131.9084627113
 21
125.2978479888
  0
LINE
  5
498
100
AcDbEntity
  8
INCISIONI_LASER
100
AcDbLine
 62
250
  6
CONTINUOUS
 10
131.9084627113
 20
131.2503339888
 11
131.9084627113
 21
131.9972679888
  0
LINE
  5
499
100
AcDbEntity
  8
CORPO
100
AcDbLine
 62
250
  6
CONTINUOUS
 10
132.7241698771
 20
136.5336062868
 11
132.7241698771
 21
130.19317858
  0
LINE
  5
49A
100
AcDbEntity
  8
IMPORTED
100
AcDbLine
 62
250
  6
CONTINUOUS
 10
132.7241698771
 20
136.5336062868
 11
132.7241698771
 21
130.19317858
  0
LINE
  5
49B
100
AcDbEntity
  8
CORPO
100
AcDbLine
 62
250
  6
CONTINUOUS
 10
132.7241698771
 20
97.6892256908
 11
132.7241698771
 21
128.2296533976
  0
LINE
  5
49C
100
AcDbEntity
  8
IMPORTED
100
AcDbLine
 62
250
  6
CONTINUOUS
 10
132.7241698771
 20
97.6892256908
 11
132.7241698771
 21
128.2296533976
  0
LINE
  5
49D
100
AcDbEntity
  8
CORPO
100
AcDbLine
 62
250
  6
CONTINUOUS
 10
133.6037917465
 20
99.4398431135
 11
133.6037917465
 21
122.7097046251
  0
LINE
  5
49E
100
AcDbEntity
  8
IMPORTED
100
AcDbLine
 62
250
  6
CONTINUOUS
 10
133.6037917465
 20
99.4398431135
 11
133.6037917465
 21
122.7097046251
  0
LINE
  5
49F
100
AcDbEntity
  8
CORPO
100
AcDbLine
 62
7
  6
CONTINUOUS
 10
133.6084627113
 20
135.6337433612
 11
133.6084627113
 21
131.8237026977
  0
LINE
  5
4A0
100
AcDbEntity
  8
IMPORTED
100
AcDbLine
 62
7
  6
CONTINUOUS
 10
133.6084627113
 20
135.6337433612
 11
133.6084627113
 21
131.8237026977
  0
LINE
  5
4A1
100
AcDbEntity
  8
CORPO
100
AcDbLine
 62
7
  6
CONTINUOUS
 10
133.6084627113
 20
99.4398431136
 11
133.6084627113
 21
98.5890886164
  0
LINE
  5
4A2
100
AcDbEntity
  8
IMPORTED
100
AcDbLine
 62
7
  6
CONTINUOUS
 10
133.6084627113
 20
99.4398431136
 11
133.6084627113
 21
98.5890886164
  0
LINE
  5
4A3
100
AcDbEntity
  8
CORPO
100
AcDbLine
 62
7
  6
CONTINUOUS
 10
133.6084627113
 20
122.7097045531
 11
133.6084627113
 21
126.5991292799
  0
LINE
  5
4A4
100
AcDbEntity
  8
IMPORTED
100
AcDbLine
 62
7
  6
CONTINUOUS
 10
133.6084627113
 20
122.7097045531
 11
133.6084627113
 21
126.5991292799
  0
LWPOLYLINE
  5
4A5
100
AcDbEntity
  8
CORPO
100
AcDbPolyline
 62
7
  6
CONTINUOUS
 90
7
 70
0
 10
133.6043238832
 20
122.7210672953
 10
133.6046544699
 20
122.7730626506
 10
133.6054080172
 20
122.8258183713
 10
133.6064435724
 20
122.8788572419
 10
133.6075416877
 20
122.9315947124
 10
133.6083240803
 20
122.9836732057
 10
133.6084406484
 20
123.0013822179
  0
LWPOLYLINE
  5
4A6
100
AcDbEntity
  8
IMPORTED
100
AcDbPolyline
 62
7
  6
CONTINUOUS
 90
7
 70
0
 10
133.6043238832
 20
122.7210672953
 10
133.6046544699
 20
122.7730626506
 10
133.6054080172
 20
122.8258183713
 10
133.6064435724
 20
122.8788572419
 10
133.6075416877
 20
122.9315947124
 10
133.6083240803
 20
122.9836732057
 10
133.6084406484
 20
123.0013822179
  0
LWPOLYLINE
  5
4A7
100
AcDbEntity
  8
CORPO
100
AcDbPolyline
 62
7
  6
CONTINUOUS
 90
4
 70
0
 10
133.6038877135
 20
99.3578084425
 10
133.6041388307
 20
99.3872186068
 10
133.6042802034
 20
99.4175371924
 10
133.6043238832
 20
122.7210672953
  0
LWPOLYLINE
  5
4A8
100
AcDbEntity
  8
IMPORTED
100
AcDbPolyline
 62
7
  6
CONTINUOUS
 90
4
 70
0
 10
133.6038877135
 20
99.3578084425
 10
133.6041388307
 20
99.3872186068
 10
133.6042802034
 20
99.4175371924
 10
133.6043238832
 20
122.7210672953
  0
LINE
  5
4A9
100
AcDbEntity
  8
INCISIONI_LASER
100
AcDbLine
 62
250
  6
CONTINUOUS
 10
130.6088586737
 20
126.1461439888
 11
131.9084627113
 21
126.1461439888
  0
LINE
  5
4AA
100
AcDbEntity
  8
INCISIONI_LASER
100
AcDbLine
 62
250
  6
CONTINUOUS
 10
118.9073965774
 20
126.519416016
 11
120.8071071981
 21
126.519416016
  0
LINE
  5
4AB
100
AcDbEntity
  8
INCISIONI_LASER
100
AcDbLine
 62
250
  6
CONTINUOUS
 10
130.6088586737
 20
126.5344719888
 11
131.9084627113
 21
126.5344719888
  0
LINE
  5
4AC
100
AcDbEntity
  8
INCISIONI_LASER
100
AcDbLine
 62
250
  6
CONTINUOUS
 10
117.4084627113
 20
127.4037409888
 11
114.5093450124
 21
127.4037409888
  0
LINE
  5
4AD
100
AcDbEntity
  8
INCISIONI_LASER
100
AcDbLine
 62
250
  6
CONTINUOUS
 10
130.6088586737
 20
127.5665969888
 11
131.9084627113
 21
127.5665969888
  0
LINE
  5
4AE
100
AcDbEntity
  8
TRECCIA
100
AcDbLine
 62
250
  6
CONTINUOUS
 10
93.5584627113
 20
127.8114159888
 11
95.2584627113
 21
127.8114159888
  0
LINE
  5
4AF
100
AcDbEntity
  8
INCISIONI_LASER
100
AcDbLine
 62
250
  6
CONTINUOUS
 10
120.8071071981
 20
127.8367493342
 11
119.8572518877
 21
127.8367493342
  0
LINE
  5
4B0
100
AcDbEntity
  8
INCISIONI_LASER
100
AcDbLine
 62
250
  6
CONTINUOUS
 10
114.9820979743
 20
127.9861859888
 11
117.4084627113
 21
127.9861859888
  0
LINE
  5
4B1
100
AcDbEntity
  8
INCISIONI_LASER
100
AcDbLine
 62
250
  6
CONTINUOUS
 10
130.6088586737
 20
128.4601279888
 11
131.9084627113
 21
128.4601279888
  0
LINE
  5
4B2
100
AcDbEntity
  8
INCISIONI_LASER
100
AcDbLine
 62
250
  6
CONTINUOUS
 10
120.2643327108
 20
128.7994158801
 11
119.4501710081
 21
128.7994158801
  0
LINE
  5
4B3
100
AcDbEntity
  8
TRECCIA
100
AcDbLine
 62
7
  6
CONTINUOUS
 10
96.4084627113
 20
128.9614159888
 11
100.7462793335
 21
128.9614159888
  0
LINE
  5
4B4
100
AcDbEntity
  8
INCISIONI_LASER
100
AcDbLine
 62
250
  6
CONTINUOUS
 10
116.3122247123
 20
125.2628719888
 11
115.0633362227
 21
125.6928869888
  0
LINE
  5
4B5
100
AcDbEntity
  8
INCISIONI_LASER
100
AcDbLine
 62
250
  6
CONTINUOUS
 10
117.4084627113
 20
124.8853799888
 11
116.794010922
 21
125.1022279888
  0
LINE
  5
4B6
100
AcDbEntity
  8
INCISIONI_LASER
100
AcDbLine
 62
250
  6
CONTINUOUS
 10
119.4501710081
 20
125.9114159888
 11
118.9073965774
 21
126.519416016
  0
LINE
  5
4B7
100
AcDbEntity
  8
INCISIONI_LASER
100
AcDbLine
 62
250
  6
CONTINUOUS
 10
119.1787837927
 20
128.9514160613
 11
118.9073965774
 21
129.2554159163
  0
LINE
  5
4B8
100
AcDbEntity
  8
CORPO
100
AcDbLine
 62
7
  6
CONTINUOUS
 10
133.8084627113
 20
134.6114159888
 11
133.8084627113
 21
132.7114159888
  0
LINE
  5
4B9
100
AcDbEntity
  8
IMPORTED
100
AcDbLine
 62
7
  6
CONTINUOUS
 10
133.8084627113
 20
134.6114159888
 11
133.8084627113
 21
132.7114159888
  0
LINE
  5
4BA
100
AcDbEntity
  8
CORPO
100
AcDbLine
 62
7
  6
CONTINUOUS
 10
133.8084627113
 20
124.5114159888
 11
133.8084627113
 21
122.6114159888
  0
LINE
  5
4BB
100
AcDbEntity
  8
IMPORTED
100
AcDbLine
 62
7
  6
CONTINUOUS
 10
133.8084627113
 20
124.5114159888
 11
133.8084627113
 21
122.6114159888
  0
LINE
  5
4BC
100
AcDbEntity
  8
CORPO
100
AcDbLine
 62
7
  6
CONTINUOUS
 10
133.8084627113
 20
115.5114159888
 11
133.8084627113
 21
113.8114159888
  0
LINE
  5
4BD
100
AcDbEntity
  8
IMPORTED
100
AcDbLine
 62
7
  6
CONTINUOUS
 10
133.8084627113
 20
115.5114159888
 11
133.8084627113
 21
113.8114159888
  0
LINE
  5
4BE
100
AcDbEntity
  8
CORPO
100
AcDbLine
 62
250
  6
CONTINUOUS
 10
133.8823159884
 20
132.2874569316
 11
133.8823159884
 21
131.5923761397
  0
LINE
  5
4BF
100
AcDbEntity
  8
IMPORTED
100
AcDbLine
 62
250
  6
CONTINUOUS
 10
133.8823159884
 20
132.2874569316
 11
133.8823159884
 21
131.5923761397
  0
LINE
  5
4C0
100
AcDbEntity
  8
CORPO
100
AcDbLine
 62
250
  6
CONTINUOUS
 10
133.8823159884
 20
126.8304558379
 11
133.8823159884
 21
126.135375046
  0
LINE
  5
4C1
100
AcDbEntity
  8
IMPORTED
100
AcDbLine
 62
250
  6
CONTINUOUS
 10
133.8823159884
 20
126.8304558379
 11
133.8823159884
 21
126.135375046
  0
LINE
  5
4C2
100
AcDbEntity
  8
CORPO
100
AcDbLine
 62
250
  6
CONTINUOUS
 10
133.8823159884
 20
121.8874569316
 11
133.8823159884
 21
119.7372233174
  0
LINE
  5
4C3
100
AcDbEntity
  8
IMPORTED
100
AcDbLine
 62
250
  6
CONTINUOUS
 10
133.8823159884
 20
121.8874569316
 11
133.8823159884
 21
119.7372233174
  0
LINE
  5
4C4
100
AcDbEntity
  8
CORPO
100
AcDbLine
 62
250
  6
CONTINUOUS
 10
133.8823159884
 20
117.8856086602
 11
133.8823159884
 21
115.735375046
  0
LINE
  5
4C5
100
AcDbEntity
  8
IMPORTED
100
AcDbLine
 62
250
  6
CONTINUOUS
 10
133.8823159884
 20
117.8856086602
 11
133.8823159884
 21
115.735375046
  0
LINE
  5
4C6
100
AcDbEntity
  8
CORPO
100
AcDbLine
 62
250
  6
CONTINUOUS
 10
135.6346094341
 20
132.1341511199
 11
135.6346094341
 21
126.2886808577
  0
LINE
  5
4C7
100
AcDbEntity
  8
IMPORTED
100
AcDbLine
 62
250
  6
CONTINUOUS
 10
135.6346094341
 20
132.1341511199
 11
135.6346094341
 21
126.2886808577
  0
LINE
  5
4C8
100
AcDbEntity
  8
CORPO
100
AcDbLine
 62
250
  6
CONTINUOUS
 10
135.6346094341
 20
121.7341511199
 11
135.6346094341
 21
115.8886808577
  0
LINE
  5
4C9
100
AcDbEntity
  8
IMPORTED
100
AcDbLine
 62
250
  6
CONTINUOUS
 10
135.6346094341
 20
121.7341511199
 11
135.6346094341
 21
115.8886808577
  0
LINE
  5
4CA
100
AcDbEntity
  8
CORPO
100
AcDbLine
 62
7
  6
CONTINUOUS
 10
135.9084627113
 20
131.835257826
 11
135.9084627113
 21
126.5875742456
  0
LINE
  5
4CB
100
AcDbEntity
  8
IMPORTED
100
AcDbLine
 62
7
  6
CONTINUOUS
 10
135.9084627113
 20
131.835257826
 11
135.9084627113
 21
126.5875742456
  0
LINE
  5
4CC
100
AcDbEntity
  8
CORPO
100
AcDbLine
 62
7
  6
CONTINUOUS
 10
135.9084627113
 20
121.4352578233
 11
135.9084627113
 21
116.1875742489
  0
LINE
  5
4CD
100
AcDbEntity
  8
IMPORTED
100
AcDbLine
 62
7
  6
CONTINUOUS
 10
135.9084627113
 20
121.4352578233
 11
135.9084627113
 21
116.1875742489
  0
LINE
  5
4CE
100
AcDbEntity
  8
CORPO
100
AcDbLine
 62
250
  6
CONTINUOUS
 10
133.6029101173
 20
98.8483031049
 11
133.6035009078
 21
98.8585044433
  0
LINE
  5
4CF
100
AcDbEntity
  8
IMPORTED
100
AcDbLine
 62
250
  6
CONTINUOUS
 10
133.6029101173
 20
98.8483031049
 11
133.6035009078
 21
98.8585044433
  0
LINE
  5
4D0
100
AcDbEntity
  8
INCISIONI_LASER
100
AcDbLine
 62
250
  6
CONTINUOUS
 10
131.9084627113
 20
129.2640679888
 11
130.6088586737
 21
129.2640679888
  0
LINE
  5
4D1
100
AcDbEntity
  8
INCISIONI_LASER
100
AcDbLine
 62
250
  6
CONTINUOUS
 10
116.8067590379
 20
129.4401699888
 11
114.5093450124
 21
129.4401699888
  0
LINE
  5
4D2
100
AcDbEntity
  8
CASTELLO
100
AcDbLine
 62
250
  6
CONTINUOUS
 10
101.564737133
 20
129.6114159888
 11
100.7580275588
 21
129.6114159888
  0
LINE
  5
4D3
100
AcDbEntity
  8
INCISIONI_LASER
100
AcDbLine
 62
250
  6
CONTINUOUS
 10
119.4501710081
 20
129.8634158801
 11
120.2643327108
 21
129.8634158801
  0
LINE
  5
4D4
100
AcDbEntity
  8
INCISIONI_LASER
100
AcDbLine
 62
250
  6
CONTINUOUS
 10
114.5093450124
 20
130.0226139888
 11
117.4084627113
 21
130.0226139888
  0
LINE
  5
4D5
100
AcDbEntity
  8
INCISIONI_LASER
100
AcDbLine
 62
250
  6
CONTINUOUS
 10
119.7215582235
 20
130.4714158438
 11
118.9073965774
 21
130.4714158438
  0
LINE
  5
4D6
100
AcDbEntity
  8
TRECCIA
100
AcDbLine
 62
7
  6
CONTINUOUS
 10
96.4084627113
 20
130.6614159888
 11
100.778736973
 21
130.6614159888
  0
LINE
  5
4D7
100
AcDbEntity
  8
INCISIONI_LASER
100
AcDbLine
 62
250
  6
CONTINUOUS
 10
130.6088586737
 20
131.2503339888
 11
131.9084627113
 21
131.2503339888
  0
LINE
  5
4D8
100
AcDbEntity
  8
INCISIONI_LASER
100
AcDbLine
 62
250
  6
CONTINUOUS
 10
120.5357199545
 20
131.3834159163
 11
119.9929454954
 21
131.3834159163
  0
LINE
  5
4D9
100
AcDbEntity
  8
INCISIONI_LASER
100
AcDbLine
 62
250
  6
CONTINUOUS
 10
120.4000263468
 20
127.1274160432
 11
118.9073965774
 21
127.5834159526
  0
LINE
  5
4DA
100
AcDbEntity
  8
INCISIONI_LASER
100
AcDbLine
 62
250
  6
CONTINUOUS
 10
114.5093450124
 20
131.3642999888
 11
117.4084627113
 21
130.3158559888
  0
LINE
  5
4DB
100
AcDbEntity
  8
INCISIONI_LASER
100
AcDbLine
 62
250
  6
CONTINUOUS
 10
130.6088586737
 20
122.2813059888
 11
131.9084627113
 21
121.7109729888
  0
LINE
  5
4DC
100
AcDbEntity
  8
INCISIONI_LASER
100
AcDbLine
 62
250
  6
CONTINUOUS
 10
130.6088586737
 20
121.5371519888
 11
131.9084627113
 21
120.9142849888
  0
LINE
  5
4DD
100
AcDbEntity
  8
INCISIONI_LASER
100
AcDbLine
 62
250
  6
CONTINUOUS
 10
119.4501710081
 20
128.7994158801
 11
119.1787837927
 21
128.9514160613
  0
LINE
  5
4DE
100
AcDbEntity
  8
INCISIONI_LASER
100
AcDbLine
 62
250
  6
CONTINUOUS
 10
120.2643327108
 20
129.8634158801
 11
120.5357199545
 21
129.7114159526
  0
LINE
  5
4DF
100
AcDbEntity
  8
INCISIONI_LASER
100
AcDbLine
 62
250
  6
CONTINUOUS
 10
120.5357199545
 20
129.7114159526
 11
120.8071071981
 21
129.4074160975
  0
LINE
  5
4E0
100
AcDbEntity
  8
INCISIONI_LASER
100
AcDbLine
 62
250
  6
CONTINUOUS
 10
120.8071071981
 20
131.0794160613
 11
120.5357199545
 21
131.3834159163
  0
LINE
  5
4E1
100
AcDbEntity
  8
INCISIONI_LASER
100
AcDbLine
 62
250
  6
CONTINUOUS
 10
131.9084627113
 20
132.6350199888
 11
131.4055809289
 21
132.6350199888
  0
LINE
  5
4E2
100
AcDbEntity
  8
CORPO
100
AcDbLine
 62
7
  6
CONTINUOUS
 10
133.6084627113
 20
132.7114159888
 11
133.8084627113
 21
132.7114159888
  0
LINE
  5
4E3
100
AcDbEntity
  8
IMPORTED
100
AcDbLine
 62
7
  6
CONTINUOUS
 10
133.6084627113
 20
132.7114159888
 11
133.8084627113
 21
132.7114159888
  0
LINE
  5
4E4
100
AcDbEntity
  8
INCISIONI_LASER
100
AcDbLine
 62
250
  6
CONTINUOUS
 10
119.4501710081
 20
133.0554161338
 11
119.1787837927
 21
133.0554161338
  0
LINE
  5
4E5
100
AcDbEntity
  8
CORPO
100
AcDbLine
 62
7
  6
CONTINUOUS
 10
133.6084627113
 20
134.6114159888
 11
133.8084627113
 21
134.6114159888
  0
LINE
  5
4E6
100
AcDbEntity
  8
IMPORTED
100
AcDbLine
 62
7
  6
CONTINUOUS
 10
133.6084627113
 20
134.6114159888
 11
133.8084627113
 21
134.6114159888
  0
LINE
  5
4E7
100
AcDbEntity
  8
CORPO
100
AcDbLine
 62
250
  6
CONTINUOUS
 10
133.6084627113
 20
134.7829888641
 11
111.9084627113
 21
134.7829888641
  0
LINE
  5
4E8
100
AcDbEntity
  8
IMPORTED
100
AcDbLine
 62
250
  6
CONTINUOUS
 10
133.6084627113
 20
134.7829888641
 11
111.9084627113
 21
134.7829888641
  0
LINE
  5
4E9
100
AcDbEntity
  8
CORPO
100
AcDbLine
 62
7
  6
CONTINUOUS
 10
133.8823159884
 20
132.2874569316
 11
135.6346094341
 21
132.1341511199
  0
LINE
  5
4EA
100
AcDbEntity
  8
IMPORTED
100
AcDbLine
 62
7
  6
CONTINUOUS
 10
133.8823159884
 20
132.2874569316
 11
135.6346094341
 21
132.1341511199
  0
LINE
  5
4EB
100
AcDbEntity
  8
INCISIONI_LASER
100
AcDbLine
 62
250
  6
CONTINUOUS
 10
116.3122247123
 20
131.2879069888
 11
115.0635001728
 21
131.7178649888
  0
LINE
  5
4EC
100
AcDbEntity
  8
INCISIONI_LASER
100
AcDbLine
 62
250
  6
CONTINUOUS
 10
117.4084627113
 20
130.9103049888
 11
116.794010922
 21
131.1272619888
  0
LINE
  5
4ED
100
AcDbEntity
  8
INCISIONI_LASER
100
AcDbLine
 62
250
  6
CONTINUOUS
 10
118.9073965774
 20
132.2954159888
 11
119.314477457
 21
131.9914161338
  0
LINE
  5
4EE
100
AcDbEntity
  8
INCISIONI_LASER
100
AcDbLine
 62
250
  6
CONTINUOUS
 10
120.8071071981
 20
131.9914161338
 11
119.4501710081
 21
133.0554161338
  0
LINE
  5
4EF
100
AcDbEntity
  8
CASTELLO
100
AcDbLine
 62
7
  6
CONTINUOUS
 10
112.1082494715
 20
138.0218863692
 11
111.9084627113
 21
138.0114159888
  0
LINE
  5
4F0
100
AcDbEntity
  8
CASTELLO
100
AcDbLine
 62
7
  6
CONTINUOUS
 10
121.4171889145
 20
138.6773914221
 11
111.9084627113
 21
138.5114159888
  0
LINE
  5
4F1
100
AcDbEntity
  8
CASTELLO
100
AcDbLine
 62
7
  6
CONTINUOUS
 10
121.9084627113
 20
138.1074115345
 11
112.1082494715
 21
138.0218863692
  0
LINE
  5
4F2
100
AcDbEntity
  8
CORPO
100
AcDbLine
 62
250
  6
CONTINUOUS
 10
132.7241698771
 20
135.9402825879
 11
111.9084627113
 21
136.1972024264
  0
LINE
  5
4F3
100
AcDbEntity
  8
IMPORTED
100
AcDbLine
 62
250
  6
CONTINUOUS
 10
132.7241698771
 20
135.9402825879
 11
111.9084627113
 21
136.1972024264
  0
LINE
  5
4F4
100
AcDbEntity
  8
CORPO
100
AcDbLine
 62
7
  6
CONTINUOUS
 10
132.7241698771
 20
136.5336062868
 11
121.9084627113
 21
136.7223951577
  0
LINE
  5
4F5
100
AcDbEntity
  8
IMPORTED
100
AcDbLine
 62
7
  6
CONTINUOUS
 10
132.7241698771
 20
136.5336062868
 11
121.9084627113
 21
136.7223951577
  0
LINE
  5
4F6
100
AcDbEntity
  8
CORPO
100
AcDbLine
 62
7
  6
CONTINUOUS
 10
121.9084627113
 20
137.7868653395
 11
111.9084627113
 21
137.9614159888
  0
LINE
  5
4F7
100
AcDbEntity
  8
IMPORTED
100
AcDbLine
 62
7
  6
CONTINUOUS
 10
121.9084627113
 20
137.7868653395
 11
111.9084627113
 21
137.9614159888
  0
LINE
  5
4F8
100
AcDbEntity
  8
CASTELLO
100
AcDbLine
 62
250
  6
CONTINUOUS
 10
102.3223075416
 20
137.6533218453
 11
101.831456739
 21
137.6738843136
  0
LINE
  5
4F9
100
AcDbEntity
  8
INCISIONI_LASER
100
AcDbLine
 62
250
  6
CONTINUOUS
 10
130.6088586737
 20
130.4310289888
 11
131.9084627113
 21
129.8606949888
  0
LINE
  5
4FA
100
AcDbEntity
  8
CASTELLO
100
AcDbLine
 62
7
  6
CONTINUOUS
 10
108.5334627113
 20
140.7392472052
 11
109.4084627113
 21
140.2340657196
  0
LINE
  5
4FB
100
AcDbEntity
  8
CASTELLO
100
AcDbLine
 62
250
  6
CONTINUOUS
 10
108.6570082784
 20
140.9557535561
 11
109.6570082784
 21
140.3784032869
  0
LINE
  5
4FC
100
AcDbEntity
  8
CASTELLO
100
AcDbLine
 62
250
  6
CONTINUOUS
 10
110.9106490403
 20
139.0113017174
 11
103.2691255973
 21
138.6108264434
  0
LINE
  5
4FD
100
AcDbEntity
  8
CASTELLO
100
AcDbLine
 62
7
  6
CONTINUOUS
 10
103.2516838224
 20
139.1101412108
 11
109.5329195693
 21
139.4393268274
  0
LINE
  5
4FE
100
AcDbEntity
  8
CASTELLO
100
AcDbLine
 62
250
  6
CONTINUOUS
 10
110.9084627113
 20
141.3614202196
 11
108.6570082784
 21
141.3483216409
  0
LINE
  5
4FF
100
AcDbEntity
  8
CASTELLO
100
AcDbLine
 62
7
  6
CONTINUOUS
 10
110.9084627113
 20
141.6114159888
 11
108.6570082784
 21
141.5983174101
  0
LINE
  5
500
100
AcDbEntity
  8
CASTELLO
100
AcDbLine
 62
250
  6
CONTINUOUS
 10
108.4084627113
 20
140.9557535561
 11
108.6570082784
 21
140.9557535561
  0
LINE
  5
501
100
AcDbEntity
  8
CASTELLO
100
AcDbLine
 62
250
  6
CONTINUOUS
 10
108.4084627113
 20
141.3483216409
 11
108.6570082784
 21
141.3483216409
  0
LINE
  5
502
100
AcDbEntity
  8
CASTELLO
100
AcDbLine
 62
250
  6
CONTINUOUS
 10
111.9084627113
 20
141.3570483856
 11
111.6599171441
 21
141.3570483856
  0
LINE
  5
503
100
AcDbEntity
  8
CASTELLO
100
AcDbLine
 62
7
  6
CONTINUOUS
 10
111.9084627113
 20
140.905598159
 11
118.4113715769
 21
140.8677653419
  0
LINE
  5
504
100
AcDbEntity
  8
CASTELLO
100
AcDbLine
 62
250
  6
CONTINUOUS
 10
111.6599171441
 20
141.3570483856
 11
110.9084627113
 21
141.3614202196
  0
LINE
  5
505
100
AcDbEntity
  8
CASTELLO
100
AcDbLine
 62
7
  6
CONTINUOUS
 10
111.6599171441
 20
141.6070441548
 11
110.9084627113
 21
141.6114159888
  0
LINE
  5
506
100
AcDbEntity
  8
CASTELLO
100
AcDbLine
 62
250
  6
CONTINUOUS
 10
111.9084627113
 20
139.0025939294
 11
110.9106490403
 21
139.0113017174
  0
LINE
  5
507
100
AcDbEntity
  8
CASTELLO
100
AcDbLine
 62
7
  6
CONTINUOUS
 10
120.9171892468
 20
139.4240711556
 11
110.9084627113
 21
139.5114159888
  0
LINE
  5
508
100
AcDbEntity
  8
INCISIONI_LASER
100
AcDbLine
 62
250
  6
CONTINUOUS
 10
131.4055809289
 20
132.6350199888
 11
130.6088586737
 21
133.1107589888
  0
LWPOLYLINE
  5
509
100
AcDbEntity
  8
0
100
AcDbPolyline
 62
7
  6
CONTINUOUS
 90
10
 70
0
 43
0.3500000006
 10
119.0659295654
 20
160.8614146729
 10
119.1373516846
 20
160.7185523071
 10
119.1373516846
 20
160.647130188
 10
118.9944983826
 20
160.5042678223
 10
118.9230671997
 20
160.5042678223
 10
118.8516450806
 20
160.5757080688
 10
118.8516450806
 20
160.647130188
 10
118.9230671997
 20
160.7899925537
 10
118.9944983826
 20
160.8614146729
 10
119.0659295654
 20
160.8614146729
  0
LWPOLYLINE
  5
50A
100
AcDbEntity
  8
0
100
AcDbPolyline
 62
7
  6
CONTINUOUS
 90
7
 70
0
 43
0.3500000006
 10
122.6584621582
 20
150.3614205322
 10
121.1584617004
 20
150.3614205322
 10
122.6584621582
 20
152.5042653809
 10
122.6584621582
 20
152.932852478
 10
122.2298931885
 20
153.3614214478
 10
121.5870306702
 20
153.3614214478
 10
121.1584617004
 20
152.7185498657
  0
LWPOLYLINE
  5
50B
100
AcDbEntity
  8
0
100
AcDbPolyline
 62
7
  6
CONTINUOUS
 90
8
 70
0
 43
0.3500000006
 10
123.5156091614
 20
150.3614205322
 10
124.3727471008
 20
150.3614205322
 10
124.8013160706
 20
150.789989502
 10
124.8013160706
 20
151.6471274414
 10
124.3727471008
 20
152.0756964111
 10
123.5156091614
 20
152.0756964111
 10
123.5156091614
 20
153.3614214478
 10
124.8013160706
 20
153.3614214478
  0
LWPOLYLINE
  5
50C
100
AcDbEntity
  8
0
100
AcDbPolyline
 62
7
  6
CONTINUOUS
 90
7
 70
0
 43
0.3500000006
 10
121.6373524475
 20
160.361423584
 10
120.1373519897
 20
160.361423584
 10
121.6373524475
 20
162.5042684326
 10
121.6373524475
 20
162.9328374023
 10
121.2087834778
 20
163.3614244995
 10
120.5659300232
 20
163.3614244995
 10
120.1373519897
 20
162.7185529175
  0
LWPOLYLINE
  5
50D
100
AcDbEntity
  8
0
100
AcDbPolyline
 62
7
  6
CONTINUOUS
 90
6
 70
0
 43
0.3500000006
 10
114.1373592224
 20
160.361423584
 10
115.2087816467
 20
160.361423584
 10
115.4230661316
 20
160.5757080688
 10
115.4230661316
 20
161.6471304932
 10
114.9944971619
 20
162.0756994629
 10
114.5659281921
 20
162.0756994629
  0
LWPOLYLINE
  5
50E
100
AcDbEntity
  8
0
100
AcDbPolyline
 62
7
  6
CONTINUOUS
 90
8
 70
0
 43
0.3500000006
 10
116.2802131348
 20
160.361423584
 10
117.1373510742
 20
160.361423584
 10
117.5659291077
 20
160.7899925537
 10
117.5659291077
 20
161.6471304932
 10
117.1373510742
 20
162.0756994629
 10
116.2802131348
 20
162.0756994629
 10
116.2802131348
 20
163.3614244995
 10
117.5659291077
 20
163.3614244995
  0
ARC
  5
50F
100
AcDbEntity
  8
POMELLO
100
AcDbCircle
 62
7
  6
CONTINUOUS
 10
118.9145634647
 20
79.8114159888
 40
50.0
100
AcDbArc
 50
344.8012495761
 51
350.1826178994
  0
ARC
  5
510
100
AcDbEntity
  8
POMELLO
100
AcDbCircle
 62
7
  6
CONTINUOUS
 10
118.9145634647
 20
79.8114159888
 40
50.0
100
AcDbArc
 50
9.8173821006
 51
15.1987504239
  0
ARC
  5
511
100
AcDbEntity
  8
CASTELLO
100
AcDbCircle
 62
7
  6
CONTINUOUS
 10
152.9545496872
 20
95.2117163676
 40
0.5003655864
100
AcDbArc
 50
180.0213107224
 51
243.4284874969
  0
ARC
  5
512
100
AcDbEntity
  8
POMELLO
100
AcDbCircle
 62
7
  6
CONTINUOUS
 10
161.4903701863
 20
66.8340934361
 40
0.5
100
AcDbArc
 50
195.1987501095
 51
269.4999999906
  0
ARC
  5
513
100
AcDbEntity
  8
POMELLO
100
AcDbCircle
 62
7
  6
CONTINUOUS
 10
161.4903701863
 20
92.7887385415
 40
0.5
100
AcDbArc
 50
90.5000000094
 51
164.8012498905
  0
ARC
  5
514
100
AcDbEntity
  8
CASTELLO
100
AcDbCircle
 62
7
  6
CONTINUOUS
 10
152.9543046993
 20
95.2112921982
 40
0.499875135
100
AcDbArc
 50
243.4318543999
 51
267.9894638354
  0
ARC
  5
515
100
AcDbEntity
  8
CASTELLO
100
AcDbCircle
 62
250
  6
CONTINUOUS
 10
153.1998711436
 20
92.8745205507
 40
0.2500059834
100
AcDbArc
 50
180.0023408215
 51
269.9976591785
  0
ARC
  5
516
100
AcDbEntity
  8
CASTELLO
100
AcDbCircle
 62
250
  6
CONTINUOUS
 10
155.0736620197
 20
92.8745205508
 40
0.2500059834
100
AcDbArc
 50
270.0023408263
 51
359.9976591737
  0
ARC
  5
517
100
AcDbEntity
  8
CASTELLO
100
AcDbCircle
 62
7
  6
CONTINUOUS
 10
153.186761233
 20
92.8614106401
 40
0.2499946513
100
AcDbArc
 50
179.9997437926
 51
270.0002562074
  0
ARC
  5
518
100
AcDbEntity
  8
CASTELLO
100
AcDbCircle
 62
7
  6
CONTINUOUS
 10
155.0867719303
 20
92.8614106401
 40
0.2499946513
100
AcDbArc
 50
269.9997437926
 51
0.0002562074
  0
ARC
  5
519
100
AcDbEntity
  8
CASTELLO
100
AcDbCircle
 62
7
  6
CONTINUOUS
 10
163.5867871703
 20
129.6114036054
 40
5.7499788087
100
AcDbArc
 50
278.5010489126
 51
261.4989547225
  0
ARC
  5
51A
100
AcDbEntity
  8
CASTELLO
100
AcDbCircle
 62
7
  6
CONTINUOUS
 10
163.5884698744
 20
129.5137376246
 40
1.9660526697
100
AcDbArc
 50
242.9235839471
 51
244.3257771372
  0
ARC
  5
51B
100
AcDbEntity
  8
CASTELLO
100
AcDbCircle
 62
7
  6
CONTINUOUS
 10
163.5850638097
 20
129.513736634
 40
1.9660515515
100
AcDbArc
 50
295.6742273319
 51
297.0746457362
  0
ARC
  5
51C
100
AcDbEntity
  8
CASTELLO
100
AcDbCircle
 62
7
  6
CONTINUOUS
 10
163.5867665816
 20
129.6114159888
 40
1.0
100
AcDbArc
 50
127.1603210507
 51
211.7749525398
  0
ARC
  5
51D
100
AcDbEntity
  8
CASTELLO
100
AcDbCircle
 62
7
  6
CONTINUOUS
 10
163.5867665816
 20
129.6114159888
 40
1.0
100
AcDbArc
 50
328.2250474596
 51
52.8396789481
  0
ARC
  5
51E
100
AcDbEntity
  8
TASTO
100
AcDbCircle
 62
7
  6
CONTINUOUS
 10
163.5724451582
 20
129.8418174325
 40
0.9856641995
100
AcDbArc
 50
186.5064261881
 51
211.94474274
  0
ARC
  5
51F
100
AcDbEntity
  8
TASTO
100
AcDbCircle
 62
7
  6
CONTINUOUS
 10
163.6010883476
 20
129.8418172769
 40
0.9856638308
100
AcDbArc
 50
328.055218042
 51
353.4935533164
  0
ARC
  5
520
100
AcDbEntity
  8
TRECCIA
100
AcDbCircle
 62
7
  6
CONTINUOUS
 10
163.5867665816
 20
129.8114159888
 40
0.85
100
AcDbArc
 50
0.0
 51
180.0
  0
ARC
  5
521
100
AcDbEntity
  8
CASTELLO
100
AcDbCircle
 62
7
  6
CONTINUOUS
 10
152.954549687
 20
139.0111156097
 40
0.5003655864
100
AcDbArc
 50
116.5715124707
 51
179.978689244
  0
ARC
  5
522
100
AcDbEntity
  8
CASTELLO
100
AcDbCircle
 62
7
  6
CONTINUOUS
 10
152.9543046993
 20
139.0115397794
 40
0.499875135
100
AcDbArc
 50
92.0105361646
 51
116.5681456001
  0
ARC
  5
523
100
AcDbEntity
  8
CASTELLO
100
AcDbCircle
 62
250
  6
CONTINUOUS
 10
155.0736620197
 20
141.3483114268
 40
0.2500059834
100
AcDbArc
 50
0.0023408263
 51
89.9976591737
  0
ARC
  5
524
100
AcDbEntity
  8
CASTELLO
100
AcDbCircle
 62
250
  6
CONTINUOUS
 10
153.1998711436
 20
141.3483114268
 40
0.2500059834
100
AcDbArc
 50
90.0023408263
 51
179.9976591737
  0
ARC
  5
525
100
AcDbEntity
  8
CASTELLO
100
AcDbCircle
 62
7
  6
CONTINUOUS
 10
155.0867719303
 20
141.3614213375
 40
0.2499946513
100
AcDbArc
 50
359.9997437926
 51
90.0002562074
  0
ARC
  5
526
100
AcDbEntity
  8
CASTELLO
100
AcDbCircle
 62
7
  6
CONTINUOUS
 10
153.186761233
 20
141.3614213375
 40
0.2499946513
100
AcDbArc
 50
89.9997437926
 51
180.0002562074
  0
ARC
  5
527
100
AcDbEntity
  8
POMELLO
100
AcDbCircle
 62
7
  6
CONTINUOUS
 10
209.2589696986
 20
79.8114159888
 40
50.0
100
AcDbArc
 50
189.8173821006
 51
195.1987504239
  0
ARC
  5
528
100
AcDbEntity
  8
POMELLO
100
AcDbCircle
 62
7
  6
CONTINUOUS
 10
209.2589696986
 20
79.8114159888
 40
50.0
100
AcDbArc
 50
164.8012495761
 51
170.1826178994
  0
ARC
  5
529
100
AcDbEntity
  8
CASTELLO
100
AcDbCircle
 62
7
  6
CONTINUOUS
 10
174.2189834858
 20
95.2117163619
 40
0.5003655864
100
AcDbArc
 50
296.5715117915
 51
359.9786899232
  0
ARC
  5
52A
100
AcDbEntity
  8
POMELLO
100
AcDbCircle
 62
7
  6
CONTINUOUS
 10
166.6831629769
 20
66.8340934361
 40
0.5
100
AcDbArc
 50
270.5000000094
 51
344.8012498905
  0
ARC
  5
52B
100
AcDbEntity
  8
POMELLO
100
AcDbCircle
 62
7
  6
CONTINUOUS
 10
166.6831629769
 20
92.7887385415
 40
0.5
100
AcDbArc
 50
15.1987501095
 51
89.4999999906
  0
ARC
  5
52C
100
AcDbEntity
  8
CASTELLO
100
AcDbCircle
 62
7
  6
CONTINUOUS
 10
174.219228464
 20
95.2112921982
 40
0.499875135
100
AcDbArc
 50
272.0105361646
 51
296.5681456001
  0
ARC
  5
52D
100
AcDbEntity
  8
CASTELLO
100
AcDbCircle
 62
250
  6
CONTINUOUS
 10
173.9736620197
 20
92.8745205507
 40
0.2500059834
100
AcDbArc
 50
270.0023408215
 51
359.9976591785
  0
ARC
  5
52E
100
AcDbEntity
  8
CASTELLO
100
AcDbCircle
 62
250
  6
CONTINUOUS
 10
172.0998711436
 20
92.8745205508
 40
0.2500059834
100
AcDbArc
 50
180.0023408263
 51
269.9976591737
  0
ARC
  5
52F
100
AcDbEntity
  8
CASTELLO
100
AcDbCircle
 62
7
  6
CONTINUOUS
 10
173.9867719303
 20
92.8614106401
 40
0.2499946513
100
AcDbArc
 50
269.9997437926
 51
0.0002562074
  0
ARC
  5
530
100
AcDbEntity
  8
CASTELLO
100
AcDbCircle
 62
7
  6
CONTINUOUS
 10
172.086761233
 20
92.8614106401
 40
0.2499946513
100
AcDbArc
 50
179.9997437926
 51
270.0002562074
  0
ARC
  5
531
100
AcDbEntity
  8
CASTELLO
100
AcDbCircle
 62
7
  6
CONTINUOUS
 10
174.2189834857
 20
139.011115616
 40
0.5003655864
100
AcDbArc
 50
0.0213100439
 51
63.4284881754
  0
ARC
  5
532
100
AcDbEntity
  8
CASTELLO
100
AcDbCircle
 62
7
  6
CONTINUOUS
 10
174.219228464
 20
139.0115397794
 40
0.499875135
100
AcDbArc
 50
63.4318543999
 51
87.9894638355
  0
ARC
  5
533
100
AcDbEntity
  8
CASTELLO
100
AcDbCircle
 62
250
  6
CONTINUOUS
 10
173.9736620197
 20
141.3483114269
 40
0.2500059834
100
AcDbArc
 50
0.0023408215
 51
89.9976591785
  0
ARC
  5
534
100
AcDbEntity
  8
CASTELLO
100
AcDbCircle
 62
250
  6
CONTINUOUS
 10
172.0998711436
 20
141.3483114268
 40
0.2500059834
100
AcDbArc
 50
90.0023408263
 51
179.9976591737
  0
ARC
  5
535
100
AcDbEntity
  8
CASTELLO
100
AcDbCircle
 62
7
  6
CONTINUOUS
 10
173.9867719303
 20
141.3614213375
 40
0.2499946513
100
AcDbArc
 50
359.9997437926
 51
90.0002562074
  0
ARC
  5
536
100
AcDbEntity
  8
CASTELLO
100
AcDbCircle
 62
7
  6
CONTINUOUS
 10
172.086761233
 20
141.3614213375
 40
0.2499946513
100
AcDbArc
 50
89.9997437926
 51
180.0002562074
  0
ARC
  5
537
100
AcDbEntity
  8
POMELLO
100
AcDbCircle
 62
7
  6
CONTINUOUS
 10
94.4084627113
 20
79.8114159888
 40
13.5
100
AcDbArc
 50
92.6935918714
 51
87.3064081286
  0
CIRCLE
  5
538
100
AcDbEntity
  8
POMELLO
100
AcDbCircle
 62
250
  6
CONTINUOUS
 10
94.4084627113
 20
79.8114159888
 40
13.4773035143
  0
CIRCLE
  5
539
100
AcDbEntity
  8
POMELLO
100
AcDbCircle
 62
250
  6
CONTINUOUS
 10
94.4084627113
 20
79.8114159888
 40
13.1084066379
  0
CIRCLE
  5
53A
100
AcDbEntity
  8
POMELLO
100
AcDbCircle
 62
250
  6
CONTINUOUS
 10
94.4084627113
 20
79.8114159888
 40
8.5254218138
  0
CIRCLE
  5
53B
100
AcDbEntity
  8
POMELLO
100
AcDbCircle
 62
250
  6
CONTINUOUS
 10
94.4084627113
 20
79.8114159888
 40
8.4743713822
  0
ARC
  5
53C
100
AcDbEntity
  8
CASTELLO
100
AcDbCircle
 62
7
  6
CONTINUOUS
 10
103.3301877567
 20
96.610635069
 40
1.5
100
AcDbArc
 50
182.3569499908
 51
267.0
  0
ARC
  5
53D
100
AcDbEntity
  8
CASTELLO
100
AcDbCircle
 62
250
  6
CONTINUOUS
 10
103.3214615593
 20
96.6106350747
 40
1.000000006
100
AcDbArc
 50
182.3569503053
 51
266.9999996855
  0
ARC
  5
53E
100
AcDbEntity
  8
CASTELLO
100
AcDbCircle
 62
7
  6
CONTINUOUS
 10
111.6584627113
 20
92.865783592
 40
0.25
100
AcDbArc
 50
270.3333333333
 51
360.0
  0
ARC
  5
53F
100
AcDbEntity
  8
CASTELLO
100
AcDbCircle
 62
7
  6
CONTINUOUS
 10
111.6584627113
 20
93.2670784215
 40
0.25
100
AcDbArc
 50
0.0
 51
60.0
  0
ARC
  5
540
100
AcDbEntity
  8
CASTELLO
100
AcDbCircle
 62
7
  6
CONTINUOUS
 10
108.6584627113
 20
92.8745103367
 40
0.25
100
AcDbArc
 50
180.0
 51
269.6666666667
  0
ARC
  5
541
100
AcDbEntity
  8
CASTELLO
100
AcDbCircle
 62
7
  6
CONTINUOUS
 10
108.6584627113
 20
93.2670784215
 40
0.25
100
AcDbArc
 50
120.0
 51
180.0
  0
ARC
  5
542
100
AcDbEntity
  8
CORPO
100
AcDbCircle
 62
250
  6
CONTINUOUS
 10
126.811003139
 20
99.437931578
 40
6.7927888765
100
AcDbArc
 50
359.0934838402
 51
0.0161234098
  0
ARC
  5
543
100
AcDbEntity
  8
IMPORTED
100
AcDbCircle
 62
250
  6
CONTINUOUS
 10
126.811003139
 20
99.437931578
 40
6.7927888765
100
AcDbArc
 50
359.0934838402
 51
0.0161234098
  0
ARC
  5
544
100
AcDbEntity
  8
CASTELLO
100
AcDbCircle
 62
7
  6
CONTINUOUS
 10
120.9084627113
 20
95.7987227451
 40
1.0
100
AcDbArc
 50
270.5
 51
360.0
  0
ARC
  5
545
100
AcDbEntity
  8
CASTELLO
100
AcDbCircle
 62
7
  6
CONTINUOUS
 10
118.4084627113
 20
93.8550581741
 40
0.5
100
AcDbArc
 50
270.3333333333
 51
360.0
  0
ARC
  5
546
100
AcDbEntity
  8
CORPO
100
AcDbCircle
 62
250
  6
CONTINUOUS
 10
140.5280841761
 20
99.0262426354
 40
6.9274699782
100
AcDbArc
 50
180.6674997252
 51
181.2267304883
  0
ARC
  5
547
100
AcDbEntity
  8
IMPORTED
100
AcDbCircle
 62
250
  6
CONTINUOUS
 10
140.5280841761
 20
99.0262426354
 40
6.9274699782
100
AcDbArc
 50
180.6674997252
 51
181.2267304883
  0
ARC
  5
548
100
AcDbEntity
  8
CORPO
100
AcDbCircle
 62
250
  6
CONTINUOUS
 10
139.0985832642
 20
98.9955490652
 40
5.4976395883
100
AcDbArc
 50
181.2258700119
 51
181.5347690949
  0
ARC
  5
549
100
AcDbEntity
  8
IMPORTED
100
AcDbCircle
 62
250
  6
CONTINUOUS
 10
139.0985832642
 20
98.9955490652
 40
5.4976395883
100
AcDbArc
 50
181.2258700119
 51
181.5347690949
  0
ARC
  5
54A
100
AcDbEntity
  8
CORPO
100
AcDbCircle
 62
250
  6
CONTINUOUS
 10
137.8733429719
 20
99.088640929
 40
4.2781458541
100
AcDbArc
 50
184.0900692776
 51
184.2990807114
  0
ARC
  5
54B
100
AcDbEntity
  8
IMPORTED
100
AcDbCircle
 62
250
  6
CONTINUOUS
 10
137.8733429719
 20
99.088640929
 40
4.2781458541
100
AcDbArc
 50
184.0900692776
 51
184.2990807114
  0
ARC
  5
54C
100
AcDbEntity
  8
CORPO
100
AcDbCircle
 62
250
  6
CONTINUOUS
 10
135.1172257916
 20
98.8900691032
 40
1.5148857441
100
AcDbArc
 50
181.5798848015
 51
184.0338190383
  0
ARC
  5
54D
100
AcDbEntity
  8
IMPORTED
100
AcDbCircle
 62
250
  6
CONTINUOUS
 10
135.1172257916
 20
98.8900691032
 40
1.5148857441
100
AcDbArc
 50
181.5798848015
 51
184.0338190383
  0
ARC
  5
54E
100
AcDbEntity
  8
CORPO
100
AcDbCircle
 62
7
  6
CONTINUOUS
 10
132.7084627113
 20
98.5890886164
 40
0.9
100
AcDbArc
 50
271.0
 51
360.0
  0
ARC
  5
54F
100
AcDbEntity
  8
IMPORTED
100
AcDbCircle
 62
7
  6
CONTINUOUS
 10
132.7084627113
 20
98.5890886164
 40
0.9
100
AcDbArc
 50
271.0
 51
360.0
  0
ARC
  5
550
100
AcDbEntity
  8
CORPO
100
AcDbCircle
 62
250
  6
CONTINUOUS
 10
133.143688212
 20
98.9209683936
 40
0.4649412872
100
AcDbArc
 50
344.6527643414
 51
351.0083711827
  0
ARC
  5
551
100
AcDbEntity
  8
IMPORTED
100
AcDbCircle
 62
250
  6
CONTINUOUS
 10
133.143688212
 20
98.9209683936
 40
0.4649412872
100
AcDbArc
 50
344.6527643414
 51
351.0083711827
  0
ARC
  5
552
100
AcDbEntity
  8
CORPO
100
AcDbCircle
 62
7
  6
CONTINUOUS
 10
133.3997670591
 20
103.1114159888
 40
2.5086956522
100
AcDbArc
 50
276.7959242607
 51
83.2040757388
  0
ARC
  5
553
100
AcDbEntity
  8
IMPORTED
100
AcDbCircle
 62
7
  6
CONTINUOUS
 10
133.3997670591
 20
103.1114159888
 40
2.5086956522
100
AcDbArc
 50
276.7959242607
 51
83.2040757388
  0
ARC
  5
554
100
AcDbEntity
  8
CORPO
100
AcDbCircle
 62
250
  6
CONTINUOUS
 10
133.4014870984
 20
103.1114370555
 40
2.2087034717
100
AcDbArc
 50
277.9740040371
 51
82.0258775471
  0
ARC
  5
555
100
AcDbEntity
  8
IMPORTED
100
AcDbCircle
 62
250
  6
CONTINUOUS
 10
133.4014870984
 20
103.1114370555
 40
2.2087034717
100
AcDbArc
 50
277.9740040371
 51
82.0258775471
  0
ARC
  5
556
100
AcDbEntity
  8
CORPO
100
AcDbCircle
 62
7
  6
CONTINUOUS
 10
133.7084627113
 20
105.7017827582
 40
0.1
100
AcDbArc
 50
189.2473775885
 51
263.2031754299
  0
ARC
  5
557
100
AcDbEntity
  8
IMPORTED
100
AcDbCircle
 62
7
  6
CONTINUOUS
 10
133.7084627113
 20
105.7017827582
 40
0.1
100
AcDbArc
 50
189.2473775885
 51
263.2031754299
  0
ARC
  5
558
100
AcDbEntity
  8
CORPO
100
AcDbCircle
 62
7
  6
CONTINUOUS
 10
133.7084627113
 20
100.5210693943
 40
0.0999982373
100
AcDbArc
 50
96.7981887064
 51
179.0542651601
  0
ARC
  5
559
100
AcDbEntity
  8
IMPORTED
100
AcDbCircle
 62
7
  6
CONTINUOUS
 10
133.7084627113
 20
100.5210693943
 40
0.0999982373
100
AcDbArc
 50
96.7981887064
 51
179.0542651601
  0
ARC
  5
55A
100
AcDbEntity
  8
TRECCIA
100
AcDbCircle
 62
7
  6
CONTINUOUS
 10
96.4084627113
 20
127.8114159888
 40
2.85
100
AcDbArc
 50
90.0
 51
180.0
  0
ARC
  5
55B
100
AcDbEntity
  8
TRECCIA
100
AcDbCircle
 62
7
  6
CONTINUOUS
 10
96.4084627113
 20
127.8114159888
 40
1.15
100
AcDbArc
 50
90.0
 51
180.0
  0
ARC
  5
55C
100
AcDbEntity
  8
CASTELLO
100
AcDbCircle
 62
7
  6
CONTINUOUS
 10
103.3301877567
 20
137.6121969086
 40
1.5
100
AcDbArc
 50
93.0
 51
177.6430500092
  0
ARC
  5
55D
100
AcDbEntity
  8
CASTELLO
100
AcDbCircle
 62
250
  6
CONTINUOUS
 10
103.3214615593
 20
137.6121969029
 40
1.0000000061
100
AcDbArc
 50
93.000000316
 51
177.6430496932
  0
ARC
  5
55E
100
AcDbEntity
  8
CASTELLO
100
AcDbCircle
 62
7
  6
CONTINUOUS
 10
108.6584627113
 20
141.3483216409
 40
0.25
100
AcDbArc
 50
90.3333333333
 51
180.0
  0
ARC
  5
55F
100
AcDbEntity
  8
CASTELLO
100
AcDbCircle
 62
7
  6
CONTINUOUS
 10
111.6584627113
 20
141.3570483856
 40
0.25
100
AcDbArc
 50
0.0
 51
89.6666666667
  0
ARC
  5
560
100
AcDbEntity
  8
CASTELLO
100
AcDbCircle
 62
7
  6
CONTINUOUS
 10
108.6584627113
 20
140.9557535561
 40
0.25
100
AcDbArc
 50
180.0
 51
240.0
  0
ARC
  5
561
100
AcDbEntity
  8
0
100
AcDbCircle
 62
250
  6
CONTINUOUS
 10
126.4148155513
 20
117.8712261772
 40
2.026672099
100
AcDbArc
 50
319.7555319212
 51
0.0732607404
  0
ARC
  5
562
100
AcDbEntity
  8
0
100
AcDbCircle
 62
250
  6
CONTINUOUS
 10
126.408999652
 20
117.873540144
 40
1.5253046999
100
AcDbArc
 50
179.9895791768
 51
245.7457302989
  0
ARC
  5
563
100
AcDbEntity
  8
CORPO
100
AcDbCircle
 62
7
  6
CONTINUOUS
 10
135.6084627113
 20
121.4352927105
 40
0.3
100
AcDbArc
 50
0.0
 51
85.0
  0
ARC
  5
564
100
AcDbEntity
  8
CORPO
100
AcDbCircle
 62
7
  6
CONTINUOUS
 10
135.6084627113
 20
116.1875392671
 40
0.3
100
AcDbArc
 50
275.0
 51
360.0
  0
ARC
  5
565
100
AcDbEntity
  8
CORPO
100
AcDbCircle
 62
7
  6
CONTINUOUS
 10
135.6084627113
 20
126.5875392671
 40
0.3
100
AcDbArc
 50
275.0
 51
360.0
  0
ARC
  5
566
100
AcDbEntity
  8
CORPO
100
AcDbCircle
 62
7
  6
CONTINUOUS
 10
133.9084627113
 20
125.8365166366
 40
0.3
100
AcDbArc
 50
95.0
 51
180.0
  0
ARC
  5
567
100
AcDbEntity
  8
CORPO
100
AcDbCircle
 62
7
  6
CONTINUOUS
 10
133.9084627113
 20
122.186315341
 40
0.3
100
AcDbArc
 50
180.0
 51
265.0
  0
ARC
  5
568
100
AcDbEntity
  8
CORPO
100
AcDbCircle
 62
7
  6
CONTINUOUS
 10
133.9084627113
 20
115.4365166366
 40
0.3
100
AcDbArc
 50
95.0
 51
180.0
  0
ARC
  5
569
100
AcDbEntity
  8
IMPORTED
100
AcDbCircle
 62
7
  6
CONTINUOUS
 10
135.6084627113
 20
121.4352927105
 40
0.3
100
AcDbArc
 50
0.0
 51
85.0
  0
ARC
  5
56A
100
AcDbEntity
  8
IMPORTED
100
AcDbCircle
 62
7
  6
CONTINUOUS
 10
135.6084627113
 20
116.1875392671
 40
0.3
100
AcDbArc
 50
275.0
 51
360.0
  0
ARC
  5
56B
100
AcDbEntity
  8
IMPORTED
100
AcDbCircle
 62
7
  6
CONTINUOUS
 10
135.6084627113
 20
126.5875392671
 40
0.3
100
AcDbArc
 50
275.0
 51
360.0
  0
ARC
  5
56C
100
AcDbEntity
  8
IMPORTED
100
AcDbCircle
 62
7
  6
CONTINUOUS
 10
133.9084627113
 20
125.8365166366
 40
0.3
100
AcDbArc
 50
95.0
 51
180.0
  0
ARC
  5
56D
100
AcDbEntity
  8
IMPORTED
100
AcDbCircle
 62
7
  6
CONTINUOUS
 10
133.9084627113
 20
122.186315341
 40
0.3
100
AcDbArc
 50
180.0
 51
265.0
  0
ARC
  5
56E
100
AcDbEntity
  8
IMPORTED
100
AcDbCircle
 62
7
  6
CONTINUOUS
 10
133.9084627113
 20
115.4365166366
 40
0.3
100
AcDbArc
 50
95.0
 51
180.0
  0
ARC
  5
56F
100
AcDbEntity
  8
CASTELLO
100
AcDbCircle
 62
7
  6
CONTINUOUS
 10
118.6503233972
 20
129.1852255294
 40
18.0015429317
100
AcDbArc
 50
185.2183479515
 51
197.2020270388
  0
ARC
  5
570
100
AcDbEntity
  8
CASTELLO
100
AcDbCircle
 62
7
  6
CONTINUOUS
 10
120.9084627113
 20
138.4241092325
 40
1.0
100
AcDbArc
 50
0.0
 51
89.5
  0
ARC
  5
571
100
AcDbEntity
  8
CORPO
100
AcDbCircle
 62
7
  6
CONTINUOUS
 10
132.7084627113
 20
135.6337433612
 40
0.9
100
AcDbArc
 50
0.0
 51
89.0
  0
ARC
  5
572
100
AcDbEntity
  8
IMPORTED
100
AcDbCircle
 62
7
  6
CONTINUOUS
 10
132.7084627113
 20
135.6337433612
 40
0.9
100
AcDbArc
 50
0.0
 51
89.0
  0
ARC
  5
573
100
AcDbEntity
  8
CASTELLO
100
AcDbCircle
 62
7
  6
CONTINUOUS
 10
118.4084627113
 20
140.3677738035
 40
0.5
100
AcDbArc
 50
0.0
 51
89.6666666667
  0
ARC
  5
574
100
AcDbEntity
  8
CORPO
100
AcDbCircle
 62
7
  6
CONTINUOUS
 10
135.6084627113
 20
131.8352927105
 40
0.3
100
AcDbArc
 50
0.0
 51
85.0
  0
ARC
  5
575
100
AcDbEntity
  8
CORPO
100
AcDbCircle
 62
7
  6
CONTINUOUS
 10
133.9084627113
 20
132.586315341
 40
0.3
100
AcDbArc
 50
180.0
 51
265.0
  0
ARC
  5
576
100
AcDbEntity
  8
IMPORTED
100
AcDbCircle
 62
7
  6
CONTINUOUS
 10
135.6084627113
 20
131.8352927105
 40
0.3
100
AcDbArc
 50
0.0
 51
85.0
  0
ARC
  5
577
100
AcDbEntity
  8
IMPORTED
100
AcDbCircle
 62
7
  6
CONTINUOUS
 10
133.9084627113
 20
132.586315341
 40
0.3
100
AcDbArc
 50
180.0
 51
265.0
  0
ARC
  5
578
100
AcDbEntity
  8
CASTELLO
100
AcDbCircle
 62
7
  6
CONTINUOUS
 10
601.4084627113
 20
117.1114159888
 40
500.0
100
AcDbArc
 50
177.6430500092
 51
182.3569499908
  0
ARC
  5
579
100
AcDbEntity
  8
CASTELLO
100
AcDbCircle
 62
250
  6
CONTINUOUS
 10
601.3997553523
 20
117.1114159888
 40
499.5000188283
100
AcDbArc
 50
177.6430500981
 51
182.3569499019
  0
LINE
  5
57A
100
AcDbEntity
  8
POMELLO
100
AcDbLine
 62
7
  6
CONTINUOUS
 10
164.436766581
 20
93.3083615849
 11
164.4357192199
 21
93.3083124133
  0
SPLINE
  5
57B
100
AcDbEntity
  8
CASTELLO
100
AcDbSpline
 62
7
  6
CONTINUOUS
 70
0
 71
3
 72
15
 73
11
 74
0
 42
0.0000001
 43
0.0000001
 44
0.0000000001
 40
0.0
 40
0.0
 40
0.0
 40
0.0
 40
0.1250086372
 40
0.2500150686
 40
0.3750191361
 40
0.5000203601
 40
0.6250188386
 40
0.7500148165
 40
0.875006475
 40
1.0
 40
1.0
 40
1.0
 40
1.0
 10
162.6935650844
 20
127.7631638567
 30
0.0
 10
162.6098952916
 20
127.8059364111
 30
0.0
 10
162.4484655902
 20
127.903650415
 30
0.0
 10
162.2299568179
 20
128.0832139822
 30
0.0
 10
162.0393174859
 20
128.2922003999
 30
0.0
 10
161.8805227491
 20
128.5262751526
 30
0.0
 10
161.7567922585
 20
128.7806252757
 30
0.0
 10
161.6706718805
 20
129.050050039
 30
0.0
 10
161.623884297
 20
129.3289449001
 30
0.0
 10
161.6195751641
 20
129.5175700624
 30
0.0
 10
161.6241504144
 20
129.6114159888
 30
0.0
  0
SPLINE
  5
57C
100
AcDbEntity
  8
CASTELLO
100
AcDbSpline
 62
7
  6
CONTINUOUS
 70
0
 71
3
 72
15
 73
11
 74
0
 42
0.0000001
 43
0.0000001
 44
0.0000000001
 40
0.0
 40
0.0
 40
0.0
 40
0.0
 40
0.1249908647
 40
0.249981682
 40
0.3749748283
 40
0.4999717771
 40
0.6249734319
 40
0.7499790321
 40
0.8749886156
 40
1.0
 40
1.0
 40
1.0
 40
1.0
 10
161.6241504144
 20
129.6114159888
 30
0.0
 10
161.6302131308
 20
129.7357722963
 30
0.0
 10
161.6661014452
 20
129.983972913
 30
0.0
 10
161.7891509682
 20
130.3389091747
 30
0.0
 10
161.977016314
 20
130.664379979
 30
0.0
 10
162.2229717651
 20
130.9484888991
 30
0.0
 10
162.5181918795
 20
131.1810166938
 30
0.0
 10
162.8521193761
 20
131.3535064421
 30
0.0
 10
163.2125434443
 20
131.4596523907
 30
0.0
 10
163.4622421349
 20
131.4835514186
 30
0.0
 10
163.5867665816
 20
131.4835514104
 30
0.0
  0
SPLINE
  5
57D
100
AcDbEntity
  8
CASTELLO
100
AcDbSpline
 62
7
  6
CONTINUOUS
 70
0
 71
3
 72
15
 73
11
 74
0
 42
0.0000001
 43
0.0000001
 44
0.0000000001
 40
0.0
 40
0.0
 40
0.0
 40
0.0
 40
0.1249935367
 40
0.2499851991
 40
0.3749811795
 40
0.4999796531
 40
0.6249808813
 40
0.7499849214
 40
0.87499135
 40
1.0
 40
1.0
 40
1.0
 40
1.0
 10
165.5493827489
 20
129.6114159888
 30
0.0
 10
165.5539581225
 20
129.5175675326
 30
0.0
 10
165.5496485066
 20
129.3289372589
 30
0.0
 10
165.5028580399
 20
129.0500351146
 30
0.0
 10
165.4167327312
 20
128.7806038937
 30
0.0
 10
165.2929954542
 20
128.5262485634
 30
0.0
 10
165.1341923679
 20
128.2921702558
 30
0.0
 10
164.9435434532
 20
128.0831822496
 30
0.0
 10
164.7250242813
 20
127.9036193138
 30
0.0
 10
164.563587372
 20
127.8059073343
 30
0.0
 10
164.4799140014
 20
127.763136212
 30
0.0
  0
SPLINE
  5
57E
100
AcDbEntity
  8
CASTELLO
100
AcDbSpline
 62
7
  6
CONTINUOUS
 70
0
 71
3
 72
15
 73
11
 74
0
 42
0.0000001
 43
0.0000001
 44
0.0000000001
 40
0.0
 40
0.0
 40
0.0
 40
0.0
 40
0.1250110088
 40
0.2500199791
 40
0.3750257251
 40
0.5000275641
 40
0.6250246898
 40
0.7500180025
 40
0.8750089788
 40
1.0
 40
1.0
 40
1.0
 40
1.0
 10
163.5867665816
 20
131.4835514104
 30
0.0
 10
163.7112906545
 20
131.4835514186
 30
0.0
 10
163.960988352
 20
131.4596525466
 30
0.0
 10
164.3214117115
 20
131.3535072667
 30
0.0
 10
164.6553391975
 20
131.1810180907
 30
0.0
 10
164.9505599692
 20
130.9484903016
 30
0.0
 10
165.1965160154
 20
130.6643811889
 30
0.0
 10
165.3843818167
 20
130.3389100595
 30
0.0
 10
165.5074316377
 20
129.9839733834
 30
0.0
 10
165.5433200248
 20
129.7357724522
 30
0.0
 10
165.5493827489
 20
129.6114159888
 30
0.0
  0
SPLINE
  5
57F
100
AcDbEntity
  8
CASTELLO
100
AcDbSpline
 62
7
  6
CONTINUOUS
 70
0
 71
3
 72
15
 73
11
 74
0
 42
0.0000001
 43
0.0000001
 44
0.0000000001
 40
0.0
 40
0.0
 40
0.0
 40
0.0
 40
0.1666545511
 40
0.3262779792
 40
0.4735916211
 40
0.6057108254
 40
0.7221085607
 40
0.8242207343
 40
0.9152394685
 40
1.0
 40
1.0
 40
1.0
 40
1.0
 10
153.1940430998
 20
140.2340657196
 30
0.0
 10
153.1765837896
 20
140.2340657196
 30
0.0
 10
153.1423720233
 20
140.2363357847
 30
0.0
 10
153.0934876483
 20
140.2454941784
 30
0.0
 10
153.0496465835
 20
140.2599001735
 30
0.0
 10
153.0124062979
 20
140.2785258176
 30
0.0
 10
152.9826585218
 20
140.3004359465
 30
0.0
 10
152.9608670359
 20
140.324833968
 30
0.0
 10
152.9473667143
 20
140.3510309847
 30
0.0
 10
152.9441368036
 20
140.3695239298
 30
0.0
 10
152.9440473305
 20
140.3784032869
 30
0.0
  0
SPLINE
  5
580
100
AcDbEntity
  8
CASTELLO
100
AcDbSpline
 62
7
  6
CONTINUOUS
 70
0
 71
3
 72
12
 73
8
 74
0
 42
0.0000001
 43
0.0000001
 44
0.0000000001
 40
0.0
 40
0.0
 40
0.0
 40
0.0
 40
0.4189758554
 40
0.7258150368
 40
0.9169374284
 40
0.970078621
 40
1.0
 40
1.0
 40
1.0
 40
1.0
 10
152.9778512417
 20
139.4393268274
 30
0.0
 10
152.9730310478
 20
139.4397618448
 30
0.0
 10
152.9646644787
 20
139.4404977973
 30
0.0
 10
152.9541748393
 20
139.441600956
 30
0.0
 10
152.9478118958
 20
139.4426924545
 30
0.0
 10
152.9448804194
 20
139.4437305297
 30
0.0
 10
152.9440849419
 20
139.444483367
 30
0.0
 10
152.9440473305
 20
139.4448269502
 30
0.0
  0
SPLINE
  5
581
100
AcDbEntity
  8
CASTELLO
100
AcDbSpline
 62
250
  6
CONTINUOUS
 70
0
 71
3
 72
13
 73
9
 74
0
 42
0.0000001
 43
0.0000001
 44
0.0000000001
 40
0.0
 40
0.0
 40
0.0
 40
0.0
 40
0.1162399782
 40
0.2339778175
 40
0.3543713311
 40
0.4780980184
 40
0.7345386243
 40
1.0
 40
1.0
 40
1.0
 40
1.0
 10
152.9498651604
 20
140.9557535561
 30
0.0
 10
152.9499126868
 20
140.9416037857
 30
0.0
 10
152.9532709713
 20
140.9130307917
 30
0.0
 10
152.9678282985
 20
140.872070724
 30
0.0
 10
152.9912987122
 20
140.8343988729
 30
0.0
 10
153.0336011023
 20
140.790036476
 30
0.0
 10
153.1035280308
 20
140.7502034641
 30
0.0
 10
153.1675465155
 20
140.7393286114
 30
0.0
 10
153.1998609296
 20
140.7392472052
 30
0.0
  0
SPLINE
  5
582
100
AcDbEntity
  8
CASTELLO
100
AcDbSpline
 62
250
  6
CONTINUOUS
 70
0
 71
3
 72
13
 73
9
 74
0
 42
0.0000001
 43
0.0000001
 44
0.0000000001
 40
0.0
 40
0.0
 40
0.0
 40
0.0
 40
0.1162399782
 40
0.2339778175
 40
0.3543713311
 40
0.4780980184
 40
0.7345386243
 40
1.0
 40
1.0
 40
1.0
 40
1.0
 10
155.3236680029
 20
140.9557535561
 30
0.0
 10
155.3236204765
 20
140.9416037857
 30
0.0
 10
155.320262192
 20
140.9130307917
 30
0.0
 10
155.3057048647
 20
140.872070724
 30
0.0
 10
155.282234451
 20
140.8343988729
 30
0.0
 10
155.2399320609
 20
140.790036476
 30
0.0
 10
155.1700051325
 20
140.7502034641
 30
0.0
 10
155.1059866478
 20
140.7393286114
 30
0.0
 10
155.0736722337
 20
140.7392472052
 30
0.0
  0
SPLINE
  5
583
100
AcDbEntity
  8
CASTELLO
100
AcDbSpline
 62
7
  6
CONTINUOUS
 70
0
 71
3
 72
15
 73
11
 74
0
 42
0.0000001
 43
0.0000001
 44
0.0000000001
 40
0.0
 40
0.0
 40
0.0
 40
0.0
 40
0.0847129374
 40
0.1757006909
 40
0.2778081862
 40
0.3942292046
 40
0.5263924491
 40
0.6737522819
 40
0.8333934372
 40
1.0
 40
1.0
 40
1.0
 40
1.0
 10
155.3294858327
 20
140.3784032869
 30
0.0
 10
155.3293962036
 20
140.3695084338
 30
0.0
 10
155.3261546121
 20
140.3509808677
 30
0.0
 10
155.3126066502
 20
140.3247408124
 30
0.0
 10
155.2907403461
 20
140.3003094926
 30
0.0
 10
155.2608929541
 20
140.2783796409
 30
0.0
 10
155.223532825
 20
140.259750422
 30
0.0
 10
155.1795600538
 20
140.2453722325
 30
0.0
 10
155.1305494913
 20
140.2362360367
 30
0.0
 10
155.0962574016
 20
140.2340657196
 30
0.0
 10
155.0787628348
 20
140.2340657196
 30
0.0
  0
SPLINE
  5
584
100
AcDbEntity
  8
CASTELLO
100
AcDbSpline
 62
7
  6
CONTINUOUS
 70
0
 71
3
 72
15
 73
11
 74
0
 42
0.0000001
 43
0.0000001
 44
0.0000000001
 40
0.0
 40
0.0
 40
0.0
 40
0.0
 40
0.0847129374
 40
0.1757006909
 40
0.2778081862
 40
0.3942292046
 40
0.5263924491
 40
0.6737522819
 40
0.8333934372
 40
1.0
 40
1.0
 40
1.0
 40
1.0
 10
171.8440473305
 20
140.3784032869
 30
0.0
 10
171.8441369597
 20
140.3695084338
 30
0.0
 10
171.8473785512
 20
140.3509808677
 30
0.0
 10
171.860926513
 20
140.3247408124
 30
0.0
 10
171.8827928172
 20
140.3003094926
 30
0.0
 10
171.9126402092
 20
140.2783796409
 30
0.0
 10
171.9500003382
 20
140.259750422
 30
0.0
 10
171.9939731095
 20
140.2453722325
 30
0.0
 10
172.042983672
 20
140.2362360367
 30
0.0
 10
172.0772757617
 20
140.2340657196
 30
0.0
 10
172.0947703285
 20
140.2340657196
 30
0.0
  0
SPLINE
  5
585
100
AcDbEntity
  8
CASTELLO
100
AcDbSpline
 62
250
  6
CONTINUOUS
 70
0
 71
3
 72
13
 73
9
 74
0
 42
0.0000001
 43
0.0000001
 44
0.0000000001
 40
0.0
 40
0.0
 40
0.0
 40
0.0
 40
0.1162399782
 40
0.2339778175
 40
0.3543713311
 40
0.4780980184
 40
0.7345386243
 40
1.0
 40
1.0
 40
1.0
 40
1.0
 10
171.8498651604
 20
140.9557535561
 30
0.0
 10
171.8499126868
 20
140.9416037857
 30
0.0
 10
171.8532709713
 20
140.9130307917
 30
0.0
 10
171.8678282985
 20
140.872070724
 30
0.0
 10
171.8912987122
 20
140.8343988729
 30
0.0
 10
171.9336011023
 20
140.790036476
 30
0.0
 10
172.0035280308
 20
140.7502034641
 30
0.0
 10
172.0675465155
 20
140.7393286114
 30
0.0
 10
172.0998609296
 20
140.7392472052
 30
0.0
  0
SPLINE
  5
586
100
AcDbEntity
  8
CASTELLO
100
AcDbSpline
 62
7
  6
CONTINUOUS
 70
0
 71
3
 72
12
 73
8
 74
0
 42
0.0000001
 43
0.0000001
 44
0.0000000001
 40
0.0
 40
0.0
 40
0.0
 40
0.0
 40
0.029921379
 40
0.0830625716
 40
0.2741849632
 40
0.5810241446
 40
1.0
 40
1.0
 40
1.0
 40
1.0
 10
174.2294858327
 20
139.4448269502
 30
0.0
 10
174.2294482214
 20
139.444483367
 30
0.0
 10
174.2286527439
 20
139.4437305297
 30
0.0
 10
174.2257212674
 20
139.4426924545
 30
0.0
 10
174.2193583239
 20
139.441600956
 30
0.0
 10
174.2088686845
 20
139.4404977973
 30
0.0
 10
174.2005021155
 20
139.4397618448
 30
0.0
 10
174.1956819216
 20
139.4393268274
 30
0.0
  0
SPLINE
  5
587
100
AcDbEntity
  8
CASTELLO
100
AcDbSpline
 62
7
  6
CONTINUOUS
 70
0
 71
3
 72
15
 73
11
 74
0
 42
0.0000001
 43
0.0000001
 44
0.0000000001
 40
0.0
 40
0.0
 40
0.0
 40
0.0
 40
0.1666545511
 40
0.3262779792
 40
0.4735916211
 40
0.6057108254
 40
0.7221085607
 40
0.8242207343
 40
0.9152394685
 40
1.0
 40
1.0
 40
1.0
 40
1.0
 10
173.9794900635
 20
140.2340657196
 30
0.0
 10
173.9969493736
 20
140.2340657196
 30
0.0
 10
174.03116114
 20
140.2363357847
 30
0.0
 10
174.080045515
 20
140.2454941784
 30
0.0
 10
174.1238865798
 20
140.2599001735
 30
0.0
 10
174.1611268654
 20
140.2785258176
 30
0.0
 10
174.1908746415
 20
140.3004359465
 30
0.0
 10
174.2126661274
 20
140.324833968
 30
0.0
 10
174.226166449
 20
140.3510309847
 30
0.0
 10
174.2293963597
 20
140.3695239298
 30
0.0
 10
174.2294858327
 20
140.3784032869
 30
0.0
  0
SPLINE
  5
588
100
AcDbEntity
  8
CASTELLO
100
AcDbSpline
 62
250
  6
CONTINUOUS
 70
0
 71
3
 72
13
 73
9
 74
0
 42
0.0000001
 43
0.0000001
 44
0.0000000001
 40
0.0
 40
0.0
 40
0.0
 40
0.0
 40
0.1162399782
 40
0.2339778175
 40
0.3543713311
 40
0.4780980184
 40
0.7345386243
 40
1.0
 40
1.0
 40
1.0
 40
1.0
 10
174.2236680029
 20
140.9557535561
 30
0.0
 10
174.2236204765
 20
140.9416037857
 30
0.0
 10
174.220262192
 20
140.9130307917
 30
0.0
 10
174.2057048647
 20
140.872070724
 30
0.0
 10
174.182234451
 20
140.8343988729
 30
0.0
 10
174.1399320609
 20
140.790036476
 30
0.0
 10
174.0700051325
 20
140.7502034641
 30
0.0
 10
174.0059866478
 20
140.7393286114
 30
0.0
 10
173.9736722337
 20
140.7392472052
 30
0.0
  0
SPLINE
  5
589
100
AcDbEntity
  8
CASTELLO
100
AcDbSpline
 62
7
  6
CONTINUOUS
 70
0
 71
3
 72
12
 73
8
 74
0
 42
0.0000001
 43
0.0000001
 44
0.0000000001
 40
0.0
 40
0.0
 40
0.0
 40
0.0
 40
0.029921379
 40
0.0830625716
 40
0.2741849632
 40
0.5810241446
 40
1.0
 40
1.0
 40
1.0
 40
1.0
 10
152.9440473305
 20
94.7780050274
 30
0.0
 10
152.9440849419
 20
94.7783486106
 30
0.0
 10
152.9448804194
 20
94.7791014479
 30
0.0
 10
152.9478118958
 20
94.7801395231
 30
0.0
 10
152.9541748393
 20
94.7812310217
 30
0.0
 10
152.9646644787
 20
94.7823341803
 30
0.0
 10
152.9730310478
 20
94.7830701328
 30
0.0
 10
152.9778512417
 20
94.7835051502
 30
0.0
  0
SPLINE
  5
58A
100
AcDbEntity
  8
CASTELLO
100
AcDbSpline
 62
250
  6
CONTINUOUS
 70
0
 71
3
 72
13
 73
9
 74
0
 42
0.0000001
 43
0.0000001
 44
0.0000000001
 40
0.0
 40
0.0
 40
0.0
 40
0.0
 40
0.1162401412
 40
0.2339779602
 40
0.3543714643
 40
0.4780981267
 40
0.7345386771
 40
1.0
 40
1.0
 40
1.0
 40
1.0
 10
152.9498651604
 20
93.2670784215
 30
0.0
 10
152.9499126868
 20
93.2812282118
 30
0.0
 10
152.9532709741
 20
93.3098012244
 30
0.0
 10
152.9678283248
 20
93.350761301
 30
0.0
 10
152.9912987415
 20
93.3884331418
 30
0.0
 10
153.033601133
 20
93.4327955225
 30
0.0
 10
153.1035280503
 20
93.4726285184
 30
0.0
 10
153.1675465218
 20
93.4835033662
 30
0.0
 10
153.1998609296
 20
93.4835847725
 30
0.0
  0
SPLINE
  5
58B
100
AcDbEntity
  8
CASTELLO
100
AcDbSpline
 62
7
  6
CONTINUOUS
 70
0
 71
3
 72
15
 73
11
 74
0
 42
0.0000001
 43
0.0000001
 44
0.0000000001
 40
0.0
 40
0.0
 40
0.0
 40
0.0
 40
0.0847129374
 40
0.1757006909
 40
0.2778081862
 40
0.3942292046
 40
0.5263924491
 40
0.6737522819
 40
0.8333934372
 40
1.0
 40
1.0
 40
1.0
 40
1.0
 10
152.9440473305
 20
93.8444286907
 30
0.0
 10
152.9441369597
 20
93.8533235438
 30
0.0
 10
152.9473785512
 20
93.8718511099
 30
0.0
 10
152.960926513
 20
93.8980911652
 30
0.0
 10
152.9827928172
 20
93.922522485
 30
0.0
 10
153.0126402092
 20
93.9444523367
 30
0.0
 10
153.0500003382
 20
93.9630815556
 30
0.0
 10
153.0939731095
 20
93.9774597451
 30
0.0
 10
153.142983672
 20
93.9865959409
 30
0.0
 10
153.1772757617
 20
93.988766258
 30
0.0
 10
153.1947703285
 20
93.988766258
 30
0.0
  0
SPLINE
  5
58C
100
AcDbEntity
  8
CASTELLO
100
AcDbSpline
 62
7
  6
CONTINUOUS
 70
0
 71
3
 72
15
 73
11
 74
0
 42
0.0000001
 43
0.0000001
 44
0.0000000001
 40
0.0
 40
0.0
 40
0.0
 40
0.0
 40
0.0847129374
 40
0.1757006909
 40
0.2778081862
 40
0.3942292046
 40
0.5263924491
 40
0.6737522819
 40
0.8333934372
 40
1.0
 40
1.0
 40
1.0
 40
1.0
 10
155.3294858327
 20
93.8444286907
 30
0.0
 10
155.3293962036
 20
93.8533235438
 30
0.0
 10
155.3261546121
 20
93.8718511099
 30
0.0
 10
155.3126066502
 20
93.8980911652
 30
0.0
 10
155.2907403461
 20
93.922522485
 30
0.0
 10
155.2608929541
 20
93.9444523367
 30
0.0
 10
155.223532825
 20
93.9630815556
 30
0.0
 10
155.1795600538
 20
93.9774597451
 30
0.0
 10
155.1305494913
 20
93.9865959409
 30
0.0
 10
155.0962574016
 20
93.988766258
 30
0.0
 10
155.0787628348
 20
93.988766258
 30
0.0
  0
SPLINE
  5
58D
100
AcDbEntity
  8
CASTELLO
100
AcDbSpline
 62
250
  6
CONTINUOUS
 70
0
 71
3
 72
13
 73
9
 74
0
 42
0.0000001
 43
0.0000001
 44
0.0000000001
 40
0.0
 40
0.0
 40
0.0
 40
0.0
 40
0.1162401412
 40
0.2339779602
 40
0.3543714643
 40
0.4780981267
 40
0.7345386771
 40
1.0
 40
1.0
 40
1.0
 40
1.0
 10
155.3236680029
 20
93.2670784215
 30
0.0
 10
155.3236204764
 20
93.2812282118
 30
0.0
 10
155.3202621892
 20
93.3098012244
 30
0.0
 10
155.3057048384
 20
93.350761301
 30
0.0
 10
155.2822344217
 20
93.3884331418
 30
0.0
 10
155.2399320302
 20
93.4327955225
 30
0.0
 10
155.1700051129
 20
93.4726285184
 30
0.0
 10
155.1059866414
 20
93.4835033662
 30
0.0
 10
155.0736722337
 20
93.4835847725
 30
0.0
  0
SPLINE
  5
58E
100
AcDbEntity
  8
CASTELLO
100
AcDbSpline
 62
7
  6
CONTINUOUS
 70
0
 71
3
 72
13
 73
9
 74
0
 42
0.0000001
 43
0.0000001
 44
0.0000000001
 40
0.0
 40
0.0
 40
0.0
 40
0.0
 40
0.0927966287
 40
0.2002447148
 40
0.3193571807
 40
0.4469985052
 40
0.7183509509
 40
1.0
 40
1.0
 40
1.0
 40
1.0
 10
159.290559268
 20
93.316077022
 30
0.0
 10
159.304474181
 20
93.3161843091
 30
0.0
 10
159.3343843097
 20
93.3216162218
 30
0.0
 10
159.3795193347
 20
93.3377429156
 30
0.0
 10
159.427763956
 20
93.3601061379
 30
0.0
 10
159.4963456538
 20
93.3966461908
 30
0.0
 10
159.583907429
 20
93.44917961
 30
0.0
 10
159.6539891151
 20
93.4934982363
 30
0.0
 10
159.6896839583
 20
93.5160736373
 30
0.0
  0
SPLINE
  5
58F
100
AcDbEntity
  8
CASTELLO
100
AcDbSpline
 62
7
  6
CONTINUOUS
 70
0
 71
3
 72
13
 73
9
 74
0
 42
0.0000001
 43
0.0000001
 44
0.0000000001
 40
0.0
 40
0.0
 40
0.0
 40
0.0
 40
0.0927966287
 40
0.2002447148
 40
0.3193571807
 40
0.4469985052
 40
0.7183509509
 40
1.0
 40
1.0
 40
1.0
 40
1.0
 10
167.8829738953
 20
93.316077022
 30
0.0
 10
167.8690589823
 20
93.3161843091
 30
0.0
 10
167.8391488536
 20
93.3216162218
 30
0.0
 10
167.7940138286
 20
93.3377429156
 30
0.0
 10
167.7457692073
 20
93.3601061379
 30
0.0
 10
167.6771875095
 20
93.3966461908
 30
0.0
 10
167.5896257342
 20
93.44917961
 30
0.0
 10
167.5195440481
 20
93.4934982363
 30
0.0
 10
167.483849205
 20
93.5160736373
 30
0.0
  0
SPLINE
  5
590
100
AcDbEntity
  8
CASTELLO
100
AcDbSpline
 62
250
  6
CONTINUOUS
 70
0
 71
3
 72
13
 73
9
 74
0
 42
0.0000001
 43
0.0000001
 44
0.0000000001
 40
0.0
 40
0.0
 40
0.0
 40
0.0
 40
0.1162401412
 40
0.2339779602
 40
0.3543714643
 40
0.4780981267
 40
0.7345386771
 40
1.0
 40
1.0
 40
1.0
 40
1.0
 10
171.8498651604
 20
93.2670784215
 30
0.0
 10
171.8499126868
 20
93.2812282118
 30
0.0
 10
171.8532709741
 20
93.3098012244
 30
0.0
 10
171.8678283248
 20
93.350761301
 30
0.0
 10
171.8912987415
 20
93.3884331418
 30
0.0
 10
171.933601133
 20
93.4327955225
 30
0.0
 10
172.0035280503
 20
93.4726285184
 30
0.0
 10
172.0675465218
 20
93.4835033662
 30
0.0
 10
172.0998609296
 20
93.4835847725
 30
0.0
  0
SPLINE
  5
591
100
AcDbEntity
  8
CASTELLO
100
AcDbSpline
 62
7
  6
CONTINUOUS
 70
0
 71
3
 72
15
 73
11
 74
0
 42
0.0000001
 43
0.0000001
 44
0.0000000001
 40
0.0
 40
0.0
 40
0.0
 40
0.0
 40
0.0847129374
 40
0.1757006909
 40
0.2778081862
 40
0.3942292046
 40
0.5263924491
 40
0.6737522819
 40
0.8333934372
 40
1.0
 40
1.0
 40
1.0
 40
1.0
 10
171.8440473305
 20
93.8444286907
 30
0.0
 10
171.8441369597
 20
93.8533235438
 30
0.0
 10
171.8473785512
 20
93.8718511099
 30
0.0
 10
171.860926513
 20
93.8980911652
 30
0.0
 10
171.8827928172
 20
93.922522485
 30
0.0
 10
171.9126402092
 20
93.9444523367
 30
0.0
 10
171.9500003382
 20
93.9630815556
 30
0.0
 10
171.9939731095
 20
93.9774597451
 30
0.0
 10
172.042983672
 20
93.9865959409
 30
0.0
 10
172.0772757617
 20
93.988766258
 30
0.0
 10
172.0947703285
 20
93.988766258
 30
0.0
  0
SPLINE
  5
592
100
AcDbEntity
  8
CASTELLO
100
AcDbSpline
 62
7
  6
CONTINUOUS
 70
0
 71
3
 72
12
 73
8
 74
0
 42
0.0000001
 43
0.0000001
 44
0.0000000001
 40
0.0
 40
0.0
 40
0.0
 40
0.0
 40
0.4189758554
 40
0.7258150368
 40
0.9169374284
 40
0.970078621
 40
1.0
 40
1.0
 40
1.0
 40
1.0
 10
174.1956819216
 20
94.7835051502
 30
0.0
 10
174.2005021155
 20
94.7830701328
 30
0.0
 10
174.2088686845
 20
94.7823341803
 30
0.0
 10
174.2193583239
 20
94.7812310217
 30
0.0
 10
174.2257212674
 20
94.7801395231
 30
0.0
 10
174.2286527439
 20
94.7791014479
 30
0.0
 10
174.2294482214
 20
94.7783486106
 30
0.0
 10
174.2294858327
 20
94.7780050274
 30
0.0
  0
SPLINE
  5
593
100
AcDbEntity
  8
CASTELLO
100
AcDbSpline
 62
7
  6
CONTINUOUS
 70
0
 71
3
 72
15
 73
11
 74
0
 42
0.0000001
 43
0.0000001
 44
0.0000000001
 40
0.0
 40
0.0
 40
0.0
 40
0.0
 40
0.0847129374
 40
0.1757006909
 40
0.2778081862
 40
0.3942292046
 40
0.5263924491
 40
0.6737522819
 40
0.8333934372
 40
1.0
 40
1.0
 40
1.0
 40
1.0
 10
174.2294858327
 20
93.8444286907
 30
0.0
 10
174.2293962036
 20
93.8533235438
 30
0.0
 10
174.2261546121
 20
93.8718511099
 30
0.0
 10
174.2126066502
 20
93.8980911652
 30
0.0
 10
174.1907403461
 20
93.922522485
 30
0.0
 10
174.1608929541
 20
93.9444523367
 30
0.0
 10
174.123532825
 20
93.9630815556
 30
0.0
 10
174.0795600538
 20
93.9774597451
 30
0.0
 10
174.0305494913
 20
93.9865959409
 30
0.0
 10
173.9962574016
 20
93.988766258
 30
0.0
 10
173.9787628348
 20
93.988766258
 30
0.0
  0
SPLINE
  5
594
100
AcDbEntity
  8
CASTELLO
100
AcDbSpline
 62
250
  6
CONTINUOUS
 70
0
 71
3
 72
13
 73
9
 74
0
 42
0.0000001
 43
0.0000001
 44
0.0000000001
 40
0.0
 40
0.0
 40
0.0
 40
0.0
 40
0.1162401412
 40
0.2339779602
 40
0.3543714643
 40
0.4780981267
 40
0.7345386771
 40
1.0
 40
1.0
 40
1.0
 40
1.0
 10
174.2236680029
 20
93.2670784215
 30
0.0
 10
174.2236204764
 20
93.2812282118
 30
0.0
 10
174.2202621892
 20
93.3098012244
 30
0.0
 10
174.2057048384
 20
93.350761301
 30
0.0
 10
174.1822344217
 20
93.3884331418
 30
0.0
 10
174.1399320302
 20
93.4327955225
 30
0.0
 10
174.0700051129
 20
93.4726285184
 30
0.0
 10
174.0059866414
 20
93.4835033662
 30
0.0
 10
173.9736722337
 20
93.4835847725
 30
0.0
  0
SPLINE
  5
595
100
AcDbEntity
  8
CASTELLO
100
AcDbSpline
 62
7
  6
CONTINUOUS
 70
0
 71
3
 72
13
 73
9
 74
0
 42
0.0000001
 43
0.0000001
 44
0.0000000001
 40
0.0
 40
0.0
 40
0.0
 40
0.0
 40
0.0927966287
 40
0.2002447148
 40
0.3193571807
 40
0.4469985052
 40
0.7183509509
 40
1.0
 40
1.0
 40
1.0
 40
1.0
 10
167.8829738953
 20
140.9067549556
 30
0.0
 10
167.8690589823
 20
140.9066476685
 30
0.0
 10
167.8391488536
 20
140.9012157558
 30
0.0
 10
167.7940138286
 20
140.885089062
 30
0.0
 10
167.7457692073
 20
140.8627258397
 30
0.0
 10
167.6771875095
 20
140.8261857869
 30
0.0
 10
167.5896257342
 20
140.7736523676
 30
0.0
 10
167.5195440481
 20
140.7293337413
 30
0.0
 10
167.483849205
 20
140.7067583403
 30
0.0
  0
SPLINE
  5
596
100
AcDbEntity
  8
CASTELLO
100
AcDbSpline
 62
7
  6
CONTINUOUS
 70
0
 71
3
 72
13
 73
9
 74
0
 42
0.0000001
 43
0.0000001
 44
0.0000000001
 40
0.0
 40
0.0
 40
0.0
 40
0.0
 40
0.0927966287
 40
0.2002447148
 40
0.3193571807
 40
0.4469985052
 40
0.7183509509
 40
1.0
 40
1.0
 40
1.0
 40
1.0
 10
159.290559268
 20
140.9067549556
 30
0.0
 10
159.304474181
 20
140.9066476685
 30
0.0
 10
159.3343843097
 20
140.9012157558
 30
0.0
 10
159.3795193347
 20
140.885089062
 30
0.0
 10
159.427763956
 20
140.8627258397
 30
0.0
 10
159.4963456538
 20
140.8261857869
 30
0.0
 10
159.583907429
 20
140.7736523676
 30
0.0
 10
159.6539891151
 20
140.7293337413
 30
0.0
 10
159.6896839583
 20
140.7067583403
 30
0.0
  0
LINE
  5
597
100
AcDbEntity
  8
CASTELLO
100
AcDbLine
 62
7
  6
CONTINUOUS
 10
152.9440473305
 20
94.7780050274
 11
152.9367665816
 21
94.7117079117
  0
SPLINE
  5
598
100
AcDbEntity
  8
CASTELLO
100
AcDbSpline
 62
250
  6
CONTINUOUS
 70
0
 71
3
 72
15
 73
11
 74
0
 42
0.0000001
 43
0.0000001
 44
0.0000000001
 40
0.0
 40
0.0
 40
0.0
 40
0.0
 40
0.1249033563
 40
0.2498314055
 40
0.3748003233
 40
0.4998048932
 40
0.6248391519
 40
0.7498926317
 40
0.8749472626
 40
1.0
 40
1.0
 40
1.0
 40
1.0
 10
152.5875667719
 20
95.6120055342
 30
0.0
 10
152.5875965965
 20
95.5793926455
 30
0.0
 10
152.594096304
 20
95.513985451
 30
0.0
 10
152.6227859239
 20
95.419794312
 30
0.0
 10
152.6693098508
 20
95.332944366
 30
0.0
 10
152.7318869517
 20
95.2568184071
 30
0.0
 10
152.8081073192
 20
95.1943222417
 30
0.0
 10
152.8950604807
 20
95.1478608625
 30
0.0
 10
152.9893600731
 20
95.1192109315
 30
0.0
 10
153.0548387266
 20
95.1127205544
 30
0.0
 10
153.0874906195
 20
95.1126907668
 30
0.0
  0
SPLINE
  5
599
100
AcDbEntity
  8
CASTELLO
100
AcDbSpline
 62
250
  6
CONTINUOUS
 70
0
 71
3
 72
21
 73
17
 74
0
 42
0.0000001
 43
0.0000001
 44
0.0000000001
 40
0.0
 40
0.0
 40
0.0
 40
0.0
 40
0.0036756375
 40
0.0095490103
 40
0.0176169246
 40
0.0278646229
 40
0.0548142191
 40
0.0901747263
 40
0.133647327
 40
0.1848631636
 40
0.2433868893
 40
0.3087206631
 40
0.4575405544
 40
0.6262646603
 40
0.8091562989
 40
1.0
 40
1.0
 40
1.0
 40
1.0
 10
153.0874906195
 20
95.1126907668
 30
0.0
 10
153.0878720323
 20
95.1144089862
 30
0.0
 10
153.0884513168
 20
95.118954938
 30
0.0
 10
153.0892197765
 20
95.1273513082
 30
0.0
 10
153.0899791777
 20
95.1389121202
 30
0.0
 10
153.0911142272
 20
95.1605562941
 30
0.0
 10
153.0924244001
 20
95.195277451
 30
0.0
 10
153.0938799499
 20
95.2459093054
 30
0.0
 10
153.0952833149
 20
95.308166702
 30
0.0
 10
153.0966250088
 20
95.3815186713
 30
0.0
 10
153.0978870335
 20
95.4653414993
 30
0.0
 10
153.0995189365
 20
95.5959003436
 30
0.0
 10
153.1012201792
 20
95.7792302476
 30
0.0
 10
153.1027218817
 20
96.0188545883
 30
0.0
 10
153.1036987042
 20
96.2786044799
 30
0.0
 10
153.1039735921
 20
96.4575640037
 30
0.0
 10
153.1040173901
 20
96.548947664
 30
0.0
  0
SPLINE
  5
59A
100
AcDbEntity
  8
CASTELLO
100
AcDbSpline
 62
250
  6
CONTINUOUS
 70
0
 71
3
 72
21
 73
17
 74
0
 42
0.0000001
 43
0.0000001
 44
0.0000000001
 40
0.0
 40
0.0
 40
0.0
 40
0.0
 40
0.0037275284
 40
0.0096318815
 40
0.0177209833
 40
0.0279840195
 40
0.0549525362
 40
0.0903219253
 40
0.1337966086
 40
0.1850093847
 40
0.2435261253
 40
0.308849859
 40
0.4576431026
 40
0.6263352092
 40
0.8091921897
 40
1.0
 40
1.0
 40
1.0
 40
1.0
 10
152.5875667719
 20
95.6120055342
 30
0.0
 10
152.587942753
 20
95.6131347879
 30
0.0
 10
152.5885272412
 20
95.6161688005
 30
0.0
 10
152.5892940396
 20
95.6217692985
 30
0.0
 10
152.5900551964
 20
95.6294811146
 30
0.0
 10
152.5911894714
 20
95.6439063496
 30
0.0
 10
152.5925002822
 20
95.6670539723
 30
0.0
 10
152.5939556742
 20
95.7008082597
 30
0.0
 10
152.5953591878
 20
95.7423124468
 30
0.0
 10
152.5967008556
 20
95.7912122591
 30
0.0
 10
152.597962915
 20
95.847092727
 30
0.0
 10
152.5995948291
 20
95.9341295243
 30
0.0
 10
152.6012961481
 20
96.056349315
 30
0.0
 10
152.6027979404
 20
96.2161019493
 30
0.0
 10
152.6037748239
 20
96.3892741156
 30
0.0
 10
152.6040497497
 20
96.5085852127
 30
0.0
 10
152.6040935425
 20
96.5695101323
 30
0.0
  0
SPLINE
  5
59B
100
AcDbEntity
  8
CASTELLO
100
AcDbSpline
 62
250
  6
CONTINUOUS
 70
0
 71
3
 72
22
 73
18
 74
0
 42
0.0000001
 43
0.0000001
 44
0.0000000001
 40
0.0
 40
0.0
 40
0.0
 40
0.0
 40
0.0028346435
 40
0.0076284833
 40
0.014610921
 40
0.0238386666
 40
0.0490321423
 40
0.0830853821
 40
0.1257140422
 40
0.1765345581
 40
0.2350812189
 40
0.3008090044
 40
0.373102859
 40
0.4512868834
 40
0.6223417772
 40
0.80755591
 40
1.0
 40
1.0
 40
1.0
 40
1.0
 10
152.6040935425
 20
96.5695101323
 30
0.0
 10
152.6042784405
 20
96.5690740025
 30
0.0
 10
152.6053801841
 20
96.5682539266
 30
0.0
 10
152.6076085172
 20
96.5673502207
 30
0.0
 10
152.6110097202
 20
96.5663882863
 30
0.0
 10
152.6177733831
 20
96.5649692303
 30
0.0
 10
152.6291135627
 20
96.5633260069
 30
0.0
 10
152.6460379661
 20
96.561509111
 30
0.0
 10
152.667275778
 20
96.5597486093
 30
0.0
 10
152.6926203028
 20
96.5580629591
 30
0.0
 10
152.7218386542
 20
96.556476491
 30
0.0
 10
152.7546551028
 20
96.5550059806
 30
0.0
 10
152.7907613353
 20
96.5536670824
 30
0.0
 10
152.8444688089
 20
96.5520267878
 30
0.0
 10
152.917055502
 20
96.5504382726
 30
0.0
 10
153.0087459035
 20
96.5492639319
 30
0.0
 10
153.0718575394
 20
96.54897073
 30
0.0
 10
153.1040173901
 20
96.548947664
 30
0.0
  0
SPLINE
  5
59C
100
AcDbEntity
  8
CASTELLO
100
AcDbSpline
 62
250
  6
CONTINUOUS
 70
0
 71
3
 72
9
 73
5
 74
0
 42
0.0000001
 43
0.0000001
 44
0.0000000001
 40
0.0
 40
0.0
 40
0.0
 40
0.0
 40
0.2499471355
 40
1.0
 40
1.0
 40
1.0
 40
1.0
 10
153.1040173901
 20
96.548947664
 30
0.0
 10
153.106476578
 20
99.9753003177
 30
0.0
 10
153.113851544
 20
113.6836113219
 30
0.0
 10
153.1113970342
 20
127.3919276201
 30
0.0
 10
153.1040173901
 20
137.6738843136
 30
0.0
  0
SPLINE
  5
59D
100
AcDbEntity
  8
CASTELLO
100
AcDbSpline
 62
250
  6
CONTINUOUS
 70
0
 71
3
 72
9
 73
5
 74
0
 42
0.0000001
 43
0.0000001
 44
0.0000000001
 40
0.0
 40
0.0
 40
0.0
 40
0.0
 40
0.2499471355
 40
1.0
 40
1.0
 40
1.0
 40
1.0
 10
152.6040935425
 20
96.5695101323
 30
0.0
 10
152.6065527304
 20
99.9924364321
 30
0.0
 10
152.6139276964
 20
113.6870391229
 30
0.0
 10
152.6114731866
 20
127.3816471129
 30
0.0
 10
152.6040935425
 20
137.6533218453
 30
0.0
  0
SPLINE
  5
59E
100
AcDbEntity
  8
CASTELLO
100
AcDbSpline
 62
250
  6
CONTINUOUS
 70
0
 71
3
 72
22
 73
18
 74
0
 42
0.0000001
 43
0.0000001
 44
0.0000000001
 40
0.0
 40
0.0
 40
0.0
 40
0.0
 40
0.0028346526
 40
0.0076285035
 40
0.0146109522
 40
0.0238387082
 40
0.0490322025
 40
0.0830854577
 40
0.1257141296
 40
0.1765346534
 40
0.2350813185
 40
0.3008091045
 40
0.373102956
 40
0.4512869739
 40
0.6223418455
 40
0.8075559467
 40
1.0
 40
1.0
 40
1.0
 40
1.0
 10
152.6040935425
 20
137.6533218453
 30
0.0
 10
152.6042784436
 20
137.6537579754
 30
0.0
 10
152.6053801914
 20
137.6545780499
 30
0.0
 10
152.6076085302
 20
137.6554817564
 30
0.0
 10
152.6110097387
 20
137.6564436904
 30
0.0
 10
152.6177734084
 20
137.6578627462
 30
0.0
 10
152.6291135955
 20
137.6595059692
 30
0.0
 10
152.6460380065
 20
137.6613228647
 30
0.0
 10
152.6672758242
 20
137.6630833659
 30
0.0
 10
152.6926203528
 20
137.6647690156
 30
0.0
 10
152.7218387061
 20
137.6663554832
 30
0.0
 10
152.7546551549
 20
137.6678259931
 30
0.0
 10
152.7907613856
 20
137.6691648908
 30
0.0
 10
152.8444688535
 20
137.6708051847
 30
0.0
 10
152.9170555361
 20
137.6723936992
 30
0.0
 10
153.0087459218
 20
137.6735680392
 30
0.0
 10
153.0718575457
 20
137.6738612409
 30
0.0
 10
153.1040173901
 20
137.6738843068
 30
0.0
  0
SPLINE
  5
59F
100
AcDbEntity
  8
CASTELLO
100
AcDbSpline
 62
250
  6
CONTINUOUS
 70
0
 71
3
 72
21
 73
17
 74
0
 42
0.0000001
 43
0.0000001
 44
0.0000000001
 40
0.0
 40
0.0
 40
0.0
 40
0.0
 40
0.1908437014
 40
0.37373534
 40
0.542459446
 40
0.6912793372
 40
0.756613111
 40
0.8151368367
 40
0.8663526731
 40
0.9098252744
 40
0.9451857799
 40
0.9721353804
 40
0.9823830818
 40
0.9904509844
 40
0.9963243388
 40
1.0
 40
1.0
 40
1.0
 40
1.0
 10
153.1040173901
 20
137.6738843136
 30
0.0
 10
153.1039735992
 20
137.765267974
 30
0.0
 10
153.1036987018
 20
137.9442274979
 30
0.0
 10
153.1027218793
 20
138.2039773896
 30
0.0
 10
153.1012201741
 20
138.4436017303
 30
0.0
 10
153.0995189285
 20
138.6269316343
 30
0.0
 10
153.0978870251
 20
138.7574904786
 30
0.0
 10
153.0966249996
 20
138.8413133064
 30
0.0
 10
153.095283308
 20
138.914665276
 30
0.0
 10
153.0938799403
 20
138.9769226718
 30
0.0
 10
153.0924243939
 20
139.0275545278
 30
0.0
 10
153.0911142236
 20
139.0622756877
 30
0.0
 10
153.0899791641
 20
139.0839198589
 30
0.0
 10
153.0892197681
 20
139.0954806583
 30
0.0
 10
153.0884513276
 20
139.1038770266
 30
0.0
 10
153.0878720436
 20
139.1084229822
 30
0.0
 10
153.0874906195
 20
139.1101412108
 30
0.0
  0
SPLINE
  5
5A0
100
AcDbEntity
  8
CASTELLO
100
AcDbSpline
 62
250
  6
CONTINUOUS
 70
0
 71
3
 72
21
 73
17
 74
0
 42
0.0000001
 43
0.0000001
 44
0.0000000001
 40
0.0
 40
0.0
 40
0.0
 40
0.0
 40
0.1908078361
 40
0.3736648077
 40
0.5423569108
 40
0.6911501472
 40
0.7564738751
 40
0.8149906122
 40
0.8662033773
 40
0.9096780668
 40
0.9450474351
 40
0.9720159518
 40
0.9822790237
 40
0.9903681257
 40
0.9962724435
 40
1.0
 40
1.0
 40
1.0
 40
1.0
 10
152.6040935425
 20
137.6533218453
 30
0.0
 10
152.6040497519
 20
137.7142467731
 30
0.0
 10
152.6037748239
 20
137.8335578755
 30
0.0
 10
152.6027979406
 20
138.006730046
 30
0.0
 10
152.6012961482
 20
138.166482674
 30
0.0
 10
152.5995948291
 20
138.2887024594
 30
0.0
 10
152.5979629148
 20
138.3757392513
 30
0.0
 10
152.5967008556
 20
138.4316197127
 30
0.0
 10
152.5953591871
 20
138.4805195224
 30
0.0
 10
152.5939556742
 20
138.5220237013
 30
0.0
 10
152.5925002827
 20
138.5557779841
 30
0.0
 10
152.5911894674
 20
138.578925611
 30
0.0
 10
152.5900551976
 20
138.5933508583
 30
0.0
 10
152.589294041
 20
138.6010626737
 30
0.0
 10
152.588527242
 20
138.6066631715
 30
0.0
 10
152.5879427426
 20
138.6096971768
 30
0.0
 10
152.5875667719
 20
138.6108264434
 30
0.0
  0
SPLINE
  5
5A1
100
AcDbEntity
  8
CASTELLO
100
AcDbSpline
 62
250
  6
CONTINUOUS
 70
0
 71
3
 72
15
 73
11
 74
0
 42
0.0000001
 43
0.0000001
 44
0.0000000001
 40
0.0
 40
0.0
 40
0.0
 40
0.0
 40
0.1249033563
 40
0.2498314056
 40
0.3748003234
 40
0.4998048933
 40
0.624839152
 40
0.7498926317
 40
0.8749472626
 40
1.0
 40
1.0
 40
1.0
 40
1.0
 10
152.5875667719
 20
138.6108264434
 30
0.0
 10
152.5875965965
 20
138.6434393321
 30
0.0
 10
152.594096304
 20
138.7088465267
 30
0.0
 10
152.6227859239
 20
138.8030376657
 30
0.0
 10
152.6693098509
 20
138.8898876117
 30
0.0
 10
152.7318869517
 20
138.9660135706
 30
0.0
 10
152.8081073193
 20
139.028509736
 30
0.0
 10
152.8950604807
 20
139.0749711151
 30
0.0
 10
152.9893600731
 20
139.1036210461
 30
0.0
 10
153.0548387266
 20
139.1101114233
 30
0.0
 10
153.0874906195
 20
139.1101412108
 30
0.0
  0
LINE
  5
5A2
100
AcDbEntity
  8
CASTELLO
100
AcDbLine
 62
7
  6
CONTINUOUS
 10
152.9367665816
 20
139.5111240659
 11
152.9440473305
 21
139.4448269502
  0
SPLINE
  5
5A3
100
AcDbEntity
  8
CASTELLO
100
AcDbSpline
 62
250
  6
CONTINUOUS
 70
0
 71
3
 72
15
 73
11
 74
0
 42
0.0000001
 43
0.0000001
 44
0.0000000001
 40
0.0
 40
0.0
 40
0.0
 40
0.0
 40
0.1249033563
 40
0.2498314056
 40
0.3748003234
 40
0.4998048933
 40
0.624839152
 40
0.7498926317
 40
0.8749472626
 40
1.0
 40
1.0
 40
1.0
 40
1.0
 10
174.5859663914
 20
95.6120055342
 30
0.0
 10
174.5859365668
 20
95.5793926455
 30
0.0
 10
174.5794368593
 20
95.5139854509
 30
0.0
 10
174.5507472394
 20
95.4197943119
 30
0.0
 10
174.5042233124
 20
95.3329443659
 30
0.0
 10
174.4416462116
 20
95.256818407
 30
0.0
 10
174.365425844
 20
95.1943222416
 30
0.0
 10
174.2784726825
 20
95.1478608625
 30
0.0
 10
174.1841730901
 20
95.1192109315
 30
0.0
 10
174.1186944367
 20
95.1127205544
 30
0.0
 10
174.0860425438
 20
95.1126907668
 30
0.0
  0
LINE
  5
5A4
100
AcDbEntity
  8
CASTELLO
100
AcDbLine
 62
7
  6
CONTINUOUS
 10
174.2367665816
 20
94.7117079117
 11
174.2294858327
 21
94.7780050274
  0
SPLINE
  5
5A5
100
AcDbEntity
  8
CASTELLO
100
AcDbSpline
 62
250
  6
CONTINUOUS
 70
0
 71
3
 72
22
 73
18
 74
0
 42
0.0000001
 43
0.0000001
 44
0.0000000001
 40
0.0
 40
0.0
 40
0.0
 40
0.0
 40
0.0028346579
 40
0.0076285154
 40
0.0146109708
 40
0.0238387332
 40
0.0490322391
 40
0.083085504
 40
0.1257141835
 40
0.1765347129
 40
0.2350813812
 40
0.3008091681
 40
0.3731030181
 40
0.4512870321
 40
0.62234189
 40
0.8075559708
 40
1.0
 40
1.0
 40
1.0
 40
1.0
 10
174.5694396207
 20
96.5695101323
 30
0.0
 10
174.5692547178
 20
96.569074002
 30
0.0
 10
174.5681529676
 20
96.5682539284
 30
0.0
 10
174.5659246254
 20
96.5673502215
 30
0.0
 10
174.5625234135
 20
96.5663882878
 30
0.0
 10
174.5557597395
 20
96.5649692322
 30
0.0
 10
174.5444195478
 20
96.5633260095
 30
0.0
 10
174.527495132
 20
96.5615091142
 30
0.0
 10
174.5062573106
 20
96.5597486134
 30
0.0
 10
174.4809127792
 20
96.558062964
 30
0.0
 10
174.4516944244
 20
96.5564764969
 30
0.0
 10
174.4188779754
 20
96.5550059873
 30
0.0
 10
174.3827717455
 20
96.5536670899
 30
0.0
 10
174.3290642811
 20
96.5520267965
 30
0.0
 10
174.2564776052
 20
96.5504382825
 30
0.0
 10
174.1647872296
 20
96.5492639428
 30
0.0
 10
174.1016756134
 20
96.5489707413
 30
0.0
 10
174.0695157732
 20
96.5489476753
 30
0.0
  0
SPLINE
  5
5A6
100
AcDbEntity
  8
CASTELLO
100
AcDbSpline
 62
250
  6
CONTINUOUS
 70
0
 71
3
 72
21
 73
17
 74
0
 42
0.0000001
 43
0.0000001
 44
0.0000000001
 40
0.0
 40
0.0
 40
0.0
 40
0.0
 40
0.1908437011
 40
0.3737353397
 40
0.5424594456
 40
0.6912793369
 40
0.7566131107
 40
0.8151368364
 40
0.866352673
 40
0.9098252737
 40
0.9451857809
 40
0.9721353771
 40
0.9823830754
 40
0.9904509897
 40
0.9963243625
 40
1.0
 40
1.0
 40
1.0
 40
1.0
 10
174.0695157732
 20
96.548947664
 30
0.0
 10
174.0695595712
 20
96.4575640037
 30
0.0
 10
174.069834459
 20
96.2786044799
 30
0.0
 10
174.0708112816
 20
96.0188545883
 30
0.0
 10
174.072312984
 20
95.7792302476
 30
0.0
 10
174.0740142268
 20
95.5959003436
 30
0.0
 10
174.0756461298
 20
95.4653414993
 30
0.0
 10
174.0769081545
 20
95.3815186713
 30
0.0
 10
174.0782498483
 20
95.308166702
 30
0.0
 10
174.0796532134
 20
95.2459093054
 30
0.0
 10
174.0811087632
 20
95.195277451
 30
0.0
 10
174.0824189361
 20
95.1605562941
 30
0.0
 10
174.0835539856
 20
95.1389121202
 30
0.0
 10
174.0843133868
 20
95.1273513082
 30
0.0
 10
174.0850818465
 20
95.118954938
 30
0.0
 10
174.085661131
 20
95.1144089862
 30
0.0
 10
174.0860425438
 20
95.1126907668
 30
0.0
  0
SPLINE
  5
5A7
100
AcDbEntity
  8
CASTELLO
100
AcDbSpline
 62
250
  6
CONTINUOUS
 70
0
 71
3
 72
21
 73
17
 74
0
 42
0.0000001
 43
0.0000001
 44
0.0000000001
 40
0.0
 40
0.0
 40
0.0
 40
0.0
 40
0.1908078103
 40
0.3736647908
 40
0.5423568974
 40
0.691150141
 40
0.7564738747
 40
0.8149906153
 40
0.8662033914
 40
0.9096780747
 40
0.9450474638
 40
0.9720159805
 40
0.9822790167
 40
0.9903681185
 40
0.9962724717
 40
1.0
 40
1.0
 40
1.0
 40
1.0
 10
174.5694396207
 20
96.5695101323
 30
0.0
 10
174.5694834136
 20
96.5085852127
 30
0.0
 10
174.5697583394
 20
96.3892741156
 30
0.0
 10
174.5707352229
 20
96.2161019493
 30
0.0
 10
174.5722370151
 20
96.056349315
 30
0.0
 10
174.5739383342
 20
95.9341295243
 30
0.0
 10
174.5755702482
 20
95.847092727
 30
0.0
 10
174.5768323076
 20
95.7912122591
 30
0.0
 10
174.5781739755
 20
95.7423124468
 30
0.0
 10
174.5795774891
 20
95.7008082597
 30
0.0
 10
174.5810328811
 20
95.6670539723
 30
0.0
 10
174.5823436919
 20
95.6439063496
 30
0.0
 10
174.5834779668
 20
95.6294811146
 30
0.0
 10
174.5842391236
 20
95.6217692985
 30
0.0
 10
174.5850059221
 20
95.6161688005
 30
0.0
 10
174.5855904102
 20
95.6131347879
 30
0.0
 10
174.5859663914
 20
95.6120055342
 30
0.0
  0
SPLINE
  5
5A8
100
AcDbEntity
  8
CASTELLO
100
AcDbSpline
 62
250
  6
CONTINUOUS
 70
0
 71
3
 72
22
 73
18
 74
0
 42
0.0000001
 43
0.0000001
 44
0.0000000001
 40
0.0
 40
0.0
 40
0.0
 40
0.0
 40
0.0028346435
 40
0.0076284833
 40
0.014610921
 40
0.0238386666
 40
0.0490321422
 40
0.0830853821
 40
0.1257140422
 40
0.1765345581
 40
0.2350812188
 40
0.3008090043
 40
0.3731028589
 40
0.4512868833
 40
0.6223417772
 40
0.80755591
 40
1.0
 40
1.0
 40
1.0
 40
1.0
 10
174.5694396207
 20
137.6533218453
 30
0.0
 10
174.5692547228
 20
137.6537579751
 30
0.0
 10
174.5681529791
 20
137.654578051
 30
0.0
 10
174.565924646
 20
137.6554817569
 30
0.0
 10
174.5625234431
 20
137.6564436913
 30
0.0
 10
174.5557597802
 20
137.6578627473
 30
0.0
 10
174.5444196005
 20
137.6595059707
 30
0.0
 10
174.5274951972
 20
137.6613228666
 30
0.0
 10
174.5062573853
 20
137.6630833683
 30
0.0
 10
174.4809128605
 20
137.6647690185
 30
0.0
 10
174.4516945091
 20
137.6663554866
 30
0.0
 10
174.4188780604
 20
137.667825997
 30
0.0
 10
174.3827718279
 20
137.6691648952
 30
0.0
 10
174.3290643544
 20
137.6708051898
 30
0.0
 10
174.2564776612
 20
137.6723937051
 30
0.0
 10
174.1647872597
 20
137.6735680457
 30
0.0
 10
174.1016756239
 20
137.6738612476
 30
0.0
 10
174.0695157732
 20
137.6738843136
 30
0.0
  0
SPLINE
  5
5A9
100
AcDbEntity
  8
CASTELLO
100
AcDbSpline
 62
250
  6
CONTINUOUS
 70
0
 71
3
 72
9
 73
5
 74
0
 42
0.0000001
 43
0.0000001
 44
0.0000000001
 40
0.0
 40
0.0
 40
0.0
 40
0.0
 40
0.2499471355
 40
1.0
 40
1.0
 40
1.0
 40
1.0
 10
174.0695157732
 20
137.6738843136
 30
0.0
 10
174.0670565853
 20
134.2475316599
 30
0.0
 10
174.0596816193
 20
120.5392206557
 30
0.0
 10
174.0621361291
 20
106.8309043575
 30
0.0
 10
174.0695157732
 20
96.548947664
 30
0.0
  0
SPLINE
  5
5AA
100
AcDbEntity
  8
CASTELLO
100
AcDbSpline
 62
250
  6
CONTINUOUS
 70
0
 71
3
 72
9
 73
5
 74
0
 42
0.0000001
 43
0.0000001
 44
0.0000000001
 40
0.0
 40
0.0
 40
0.0
 40
0.0
 40
0.2499471355
 40
1.0
 40
1.0
 40
1.0
 40
1.0
 10
174.5694396207
 20
137.6533218453
 30
0.0
 10
174.5669804329
 20
134.2303955455
 30
0.0
 10
174.5596054669
 20
120.5357928547
 30
0.0
 10
174.5620599767
 20
106.8411848647
 30
0.0
 10
174.5694396207
 20
96.5695101323
 30
0.0
  0
SPLINE
  5
5AB
100
AcDbEntity
  8
CASTELLO
100
AcDbSpline
 62
250
  6
CONTINUOUS
 70
0
 71
3
 72
15
 73
11
 74
0
 42
0.0000001
 43
0.0000001
 44
0.0000000001
 40
0.0
 40
0.0
 40
0.0
 40
0.0
 40
0.1249033562
 40
0.2498314054
 40
0.3748003232
 40
0.4998048931
 40
0.6248391518
 40
0.7498926316
 40
0.8749472626
 40
1.0
 40
1.0
 40
1.0
 40
1.0
 10
174.5859663914
 20
138.6108264434
 30
0.0
 10
174.5859365668
 20
138.6434393321
 30
0.0
 10
174.5794368593
 20
138.7088465266
 30
0.0
 10
174.5507472394
 20
138.8030376656
 30
0.0
 10
174.5042233124
 20
138.8898876116
 30
0.0
 10
174.4416462116
 20
138.9660135705
 30
0.0
 10
174.3654258441
 20
139.0285097359
 30
0.0
 10
174.2784726826
 20
139.074971115
 30
0.0
 10
174.1841730902
 20
139.1036210461
 30
0.0
 10
174.1186944367
 20
139.1101114232
 30
0.0
 10
174.0860425438
 20
139.1101412108
 30
0.0
  0
SPLINE
  5
5AC
100
AcDbEntity
  8
CASTELLO
100
AcDbSpline
 62
250
  6
CONTINUOUS
 70
0
 71
3
 72
21
 73
17
 74
0
 42
0.0000001
 43
0.0000001
 44
0.0000000001
 40
0.0
 40
0.0
 40
0.0
 40
0.0
 40
0.0036756612
 40
0.0095490156
 40
0.0176169182
 40
0.0278646196
 40
0.0548142201
 40
0.0901747256
 40
0.1336473269
 40
0.1848631633
 40
0.243386889
 40
0.3087206628
 40
0.457540554
 40
0.62626466
 40
0.8091562986
 40
1.0
 40
1.0
 40
1.0
 40
1.0
 10
174.0860425438
 20
139.1101412108
 30
0.0
 10
174.0856611197
 20
139.1084229822
 30
0.0
 10
174.0850818357
 20
139.1038770266
 30
0.0
 10
174.0843133952
 20
139.0954806583
 30
0.0
 10
174.0835539992
 20
139.0839198589
 30
0.0
 10
174.0824189396
 20
139.0622756877
 30
0.0
 10
174.0811087694
 20
139.0275545278
 30
0.0
 10
174.079653223
 20
138.9769226718
 30
0.0
 10
174.0782498553
 20
138.914665276
 30
0.0
 10
174.0769081637
 20
138.8413133064
 30
0.0
 10
174.0756461382
 20
138.7574904786
 30
0.0
 10
174.0740142348
 20
138.6269316343
 30
0.0
 10
174.0723129892
 20
138.4436017303
 30
0.0
 10
174.070811284
 20
138.2039773896
 30
0.0
 10
174.0698344615
 20
137.9442274979
 30
0.0
 10
174.069559564
 20
137.765267974
 30
0.0
 10
174.0695157732
 20
137.6738843136
 30
0.0
  0
SPLINE
  5
5AD
100
AcDbEntity
  8
CASTELLO
100
AcDbSpline
 62
250
  6
CONTINUOUS
 70
0
 71
3
 72
21
 73
17
 74
0
 42
0.0000001
 43
0.0000001
 44
0.0000000001
 40
0.0
 40
0.0
 40
0.0
 40
0.0
 40
0.0037275565
 40
0.0096318743
 40
0.0177209763
 40
0.0279840482
 40
0.0549525649
 40
0.0903219332
 40
0.1337966227
 40
0.1850093878
 40
0.2435261249
 40
0.3088498528
 40
0.4576430892
 40
0.6263351923
 40
0.8091921639
 40
1.0
 40
1.0
 40
1.0
 40
1.0
 10
174.5859663914
 20
138.6108264434
 30
0.0
 10
174.5855904206
 20
138.6096971768
 30
0.0
 10
174.5850059213
 20
138.6066631715
 30
0.0
 10
174.5842391223
 20
138.6010626737
 30
0.0
 10
174.5834779657
 20
138.5933508583
 30
0.0
 10
174.5823436959
 20
138.578925611
 30
0.0
 10
174.5810328806
 20
138.5557779841
 30
0.0
 10
174.579577489
 20
138.5220237013
 30
0.0
 10
174.5781739762
 20
138.4805195224
 30
0.0
 10
174.5768323076
 20
138.4316197127
 30
0.0
 10
174.5755702485
 20
138.3757392513
 30
0.0
 10
174.5739383342
 20
138.2887024594
 30
0.0
 10
174.5722370151
 20
138.166482674
 30
0.0
 10
174.5707352227
 20
138.006730046
 30
0.0
 10
174.5697583394
 20
137.8335578755
 30
0.0
 10
174.5694834114
 20
137.7142467731
 30
0.0
 10
174.5694396207
 20
137.6533218453
 30
0.0
  0
LINE
  5
5AE
100
AcDbEntity
  8
CASTELLO
100
AcDbLine
 62
7
  6
CONTINUOUS
 10
174.2294858327
 20
139.4448269502
 11
174.2367665816
 21
139.5111240659
  0
SPLINE
  5
5AF
100
AcDbEntity
  8
POMELLO
100
AcDbSpline
 62
7
  6
CONTINUOUS
 70
0
 71
3
 72
11
 73
7
 74
0
 42
0.0000001
 43
0.0000001
 44
0.0000000001
 40
0.0
 40
0.0
 40
0.0
 40
0.0
 40
0.2145261676
 40
0.500001382
 40
0.7854753008
 40
1.0
 40
1.0
 40
1.0
 40
1.0
 10
95.0428915883
 20
93.2965003415
 30
0.0
 10
94.9521878656
 20
93.2995107944
 30
0.0
 10
94.7407598898
 20
93.3059872509
 30
0.0
 10
94.4084615052
 20
93.3097172215
 30
0.0
 10
94.0761637427
 20
93.3059872069
 30
0.0
 10
93.8647369361
 20
93.2995107738
 30
0.0
 10
93.7740338342
 20
93.2965003415
 30
0.0
  0
SPLINE
  5
5B0
100
AcDbEntity
  8
CORPO
100
AcDbSpline
 62
7
  6
CONTINUOUS
 70
0
 71
3
 72
9
 73
5
 74
0
 42
0.0000001
 43
0.0000001
 44
0.0000000001
 40
0.0
 40
0.0
 40
0.0
 40
0.0
 40
0.5204733188
 40
1.0
 40
1.0
 40
1.0
 40
1.0
 10
133.6037917465
 20
122.7097046251
 30
0.0
 10
133.6037881522
 20
122.760340702
 30
0.0
 10
133.605343542
 20
122.8576240191
 30
0.0
 10
133.6082327352
 20
122.9548798332
 30
0.0
 10
133.6084400937
 20
123.0015318117
 30
0.0
  0
SPLINE
  5
5B1
100
AcDbEntity
  8
CORPO
100
AcDbSpline
 62
250
  6
CONTINUOUS
 70
0
 71
3
 72
9
 73
5
 74
0
 42
0.0000001
 43
0.0000001
 44
0.0000000001
 40
0.0
 40
0.0
 40
0.0
 40
0.0
 40
0.2226974273
 40
1.0
 40
1.0
 40
1.0
 40
1.0
 10
133.6010843049
 20
98.9455389649
 30
0.0
 10
133.6007433717
 20
98.9741116805
 30
0.0
 10
133.5998940004
 20
99.1024229826
 30
0.0
 10
133.601336963
 20
99.2307383252
 30
0.0
 10
133.6029418276
 20
99.3304626504
 30
0.0
  0
SPLINE
  5
5B2
100
AcDbEntity
  8
CORPO
100
AcDbSpline
 62
250
  6
CONTINUOUS
 70
0
 71
3
 72
21
 73
17
 74
0
 42
0.0000001
 43
0.0000001
 44
0.0000000001
 40
0.0
 40
0.0
 40
0.0
 40
0.0
 40
0.1066326329
 40
0.2206724801
 40
0.3409493729
 40
0.4662063092
 40
0.5303653725
 40
0.5953824842
 40
0.6611562078
 40
0.7275983831
 40
0.7946376666
 40
0.8622223056
 40
0.8963115106
 40
0.9306015648
 40
0.9651765113
 40
1.0
 40
1.0
 40
1.0
 40
1.0
 10
133.6084627113
 20
131.8237026977
 30
0.0
 10
133.6084608601
 20
131.7532073695
 30
0.0
 10
133.5943363947
 20
131.6072871576
 30
0.0
 10
133.54521591
 20
131.3869950301
 30
0.0
 10
133.4735045479
 20
131.1601015044
 30
0.0
 10
133.3985686556
 20
130.9694093555
 30
0.0
 10
133.329684143
 20
130.8159279095
 30
0.0
 10
133.2729256913
 20
130.7001831036
 30
0.0
 10
133.2110025952
 20
130.5853952603
 30
0.0
 10
133.1428383356
 20
130.4725703442
 30
0.0
 10
133.0663516859
 20
130.3637585572
 30
0.0
 10
132.9920476776
 20
130.2797611529
 30
0.0
 10
132.9215708345
 20
130.223496859
 30
0.0
 10
132.8608389395
 20
130.1913795886
 30
0.0
 10
132.7922889342
 20
130.1779237557
 30
0.0
 10
132.7459988149
 20
130.1858636246
 30
0.0
 10
132.7241698771
 20
130.19317858
 30
0.0
  0
SPLINE
  5
5B3
100
AcDbEntity
  8
CORPO
100
AcDbSpline
 62
250
  6
CONTINUOUS
 70
0
 71
3
 72
9
 73
5
 74
0
 42
0.0000001
 43
0.0000001
 44
0.0000000001
 40
0.0
 40
0.0
 40
0.0
 40
0.0
 40
0.2445485159
 40
1.0
 40
1.0
 40
1.0
 40
1.0
 10
133.5920494832
 20
98.7979132393
 30
0.0
 10
133.5885339073
 20
98.7850840394
 30
0.0
 10
133.5719746318
 20
98.7332324237
 30
0.0
 10
133.5467922297
 20
98.6842481383
 30
0.0
 10
133.5241709908
 20
98.649942398
 30
0.0
  0
SPLINE
  5
5B4
100
AcDbEntity
  8
CORPO
100
AcDbSpline
 62
250
  6
CONTINUOUS
 70
0
 71
3
 72
11
 73
7
 74
0
 42
0.0000001
 43
0.0000001
 44
0.0000000001
 40
0.0
 40
0.0
 40
0.0
 40
0.0
 40
0.2212295649
 40
0.464668624
 40
0.7268765175
 40
1.0
 40
1.0
 40
1.0
 40
1.0
 10
133.5241709908
 20
98.649942398
 30
0.0
 10
133.4871594719
 20
98.5938133965
 30
0.0
 10
133.3883463933
 20
98.4892890685
 30
0.0
 10
133.1970244355
 20
98.3747514264
 30
0.0
 10
132.9701348594
 20
98.3014316805
 30
0.0
 10
132.807167807
 20
98.2835737995
 30
0.0
 10
132.7241698771
 20
98.2825493897
 30
0.0
  0
SPLINE
  5
5B5
100
AcDbEntity
  8
CORPO
100
AcDbSpline
 62
250
  6
CONTINUOUS
 70
0
 71
3
 72
21
 73
17
 74
0
 42
0.0000001
 43
0.0000001
 44
0.0000000001
 40
0.0
 40
0.0
 40
0.0
 40
0.0
 40
0.0348147951
 40
0.069397292
 40
0.1036941492
 40
0.1378016126
 40
0.2053839614
 40
0.2724218439
 40
0.3388604418
 40
0.4046303997
 40
0.4696436
 40
0.5337990493
 40
0.6590495242
 40
0.7793229396
 40
0.8933661088
 40
1.0
 40
1.0
 40
1.0
 40
1.0
 10
132.7241698771
 20
128.2296533976
 30
0.0
 10
132.7459930067
 20
128.2369675558
 30
0.0
 10
132.7922882967
 20
128.2449080784
 30
0.0
 10
132.8608230824
 20
128.2314002961
 30
0.0
 10
132.9216216708
 20
128.1993681821
 30
0.0
 10
132.9920766195
 20
128.1430392264
 30
0.0
 10
133.066387183
 20
128.0590464715
 30
0.0
 10
133.142864801
 20
127.9502303105
 30
0.0
 10
133.211020395
 20
127.8374081603
 30
0.0
 10
133.2729395764
 20
127.7226265274
 30
0.0
 10
133.3296938432
 20
127.6068881015
 30
0.0
 10
133.3985718399
 20
127.4534139735
 30
0.0
 10
133.4735051775
 20
127.2627306104
 30
0.0
 10
133.5452135449
 20
127.0358409011
 30
0.0
 10
133.5943359275
 20
126.8155485721
 30
0.0
 10
133.6084604143
 20
126.6696253999
 30
0.0
 10
133.6084627113
 20
126.5991292799
 30
0.0
  0
SPLINE
  5
5B6
100
AcDbEntity
  8
CORPO
100
AcDbSpline
 62
250
  6
CONTINUOUS
 70
0
 71
3
 72
12
 73
8
 74
0
 42
0.0000001
 43
0.0000001
 44
0.0000000001
 40
0.0
 40
0.0
 40
0.0
 40
0.0
 40
0.2507520581
 40
0.5014436635
 40
0.626827141
 40
0.7521833869
 40
1.0
 40
1.0
 40
1.0
 40
1.0
 10
133.6042822585
 20
120.0931746204
 30
0.0
 10
133.6176703708
 20
120.0550642153
 30
0.0
 10
133.6473211095
 20
119.9798105347
 30
0.0
 10
133.6927392931
 20
119.8894552782
 30
0.0
 10
133.7365267559
 20
119.821261325
 30
0.0
 10
133.7858901212
 20
119.7586273529
 30
0.0
 10
133.8356545528
 20
119.7177159687
 30
0.0
 10
133.8741763696
 20
119.7072404801
 30
0.0
  0
SPLINE
  5
5B7
100
AcDbEntity
  8
CORPO
100
AcDbSpline
 62
250
  6
CONTINUOUS
 70
0
 71
3
 72
32
 73
28
 74
0
 42
0.0000001
 43
0.0000001
 44
0.0000000001
 40
0.0
 40
0.0
 40
0.0
 40
0.0
 40
0.06249444
 40
0.1249887056
 40
0.1874825191
 40
0.2499751638
 40
0.31246379
 40
0.3437129541
 40
0.3749626302
 40
0.4062138785
 40
0.4374612652
 40
0.4531060073
 40
0.4687791737
 40
0.4844386603
 40
0.5001148393
 40
0.5312299429
 40
0.5468848112
 40
0.5625402929
 40
0.5937875577
 40
0.6250384918
 40
0.656288055
 40
0.6875368834
 40
0.7500256436
 40
0.8125179069
 40
0.8750115572
 40
0.937505663
 40
1.0
 40
1.0
 40
1.0
 40
1.0
 10
133.8741763696
 20
119.7072404801
 30
0.0
 10
133.9539971187
 20
119.6854953731
 30
0.0
 10
134.1132847674
 20
119.6406874348
 30
0.0
 10
134.3507922885
 20
119.5685944998
 30
0.0
 10
134.5863413031
 20
119.4902806091
 30
0.0
 10
134.8189822076
 20
119.4036886052
 30
0.0
 10
135.0090964333
 20
119.3218419667
 30
0.0
 10
135.1569003046
 20
119.2473611323
 30
0.0
 10
135.2646149018
 20
119.1855258237
 30
0.0
 10
135.3672867994
 20
119.1155948022
 30
0.0
 10
135.4459097078
 20
119.047611292
 30
0.0
 10
135.4998066217
 20
118.984500762
 30
0.0
 10
135.5336816709
 20
118.9320188154
 30
0.0
 10
135.5568909275
 20
118.8737614329
 30
0.0
 10
135.5687145755
 20
118.7909634197
 30
0.0
 10
135.5447719002
 20
118.7078135256
 30
0.0
 10
135.4998458396
 20
118.6383549078
 30
0.0
 10
135.4458807275
 20
118.57522766
 30
0.0
 10
135.3672910138
 20
118.5072394799
 30
0.0
 10
135.264604941
 20
118.4373086284
 30
0.0
 10
135.1568961595
 20
118.375472399
 30
0.0
 10
135.0090955899
 20
118.3009831336
 30
0.0
 10
134.8189781704
 20
118.2191467799
 30
0.0
 10
134.5863401347
 20
118.1325488015
 30
0.0
 10
134.3507911994
 20
118.054237365
 30
0.0
 10
134.113284281
 20
117.9821445137
 30
0.0
 10
133.9539969346
 20
117.9373367616
 30
0.0
 10
133.8741763696
 20
117.9155914976
 30
0.0
  0
SPLINE
  5
5B8
100
AcDbEntity
  8
CORPO
100
AcDbSpline
 62
250
  6
CONTINUOUS
 70
0
 71
3
 72
12
 73
8
 74
0
 42
0.0000001
 43
0.0000001
 44
0.0000000001
 40
0.0
 40
0.0
 40
0.0
 40
0.0
 40
0.2477656563
 40
0.3731275202
 40
0.4985191889
 40
0.7492303574
 40
1.0
 40
1.0
 40
1.0
 40
1.0
 10
133.8741763696
 20
117.9155914976
 30
0.0
 10
133.8356734397
 20
117.905096237
 30
0.0
 10
133.7859078224
 20
117.8642325908
 30
0.0
 10
133.7365537584
 20
117.8016055397
 30
0.0
 10
133.6927619499
 20
117.7334210877
 30
0.0
 10
133.647343757
 20
117.643070309
 30
0.0
 10
133.6176909572
 20
117.5678218074
 30
0.0
 10
133.6043020869
 20
117.5297138378
 30
0.0
  0
SPLINE
  5
5B9
100
AcDbEntity
  8
CORPO
100
AcDbSpline
 62
250
  6
CONTINUOUS
 70
0
 71
3
 72
8
 73
4
 74
0
 42
0.0000001
 43
0.0000001
 44
0.0000000001
 40
0.0
 40
0.0
 40
0.0
 40
0.0
 40
1.0
 40
1.0
 40
1.0
 40
1.0
 10
133.6042696348
 20
105.4121394706
 30
0.0
 10
133.6360059587
 20
105.3719593931
 30
0.0
 10
133.6720062813
 20
105.3352725574
 30
0.0
 10
133.7078867401
 20
105.2987455049
 30
0.0
  0
SPLINE
  5
5BA
100
AcDbEntity
  8
CORPO
100
AcDbSpline
 62
250
  6
CONTINUOUS
 70
0
 71
3
 72
8
 73
4
 74
0
 42
0.0000001
 43
0.0000001
 44
0.0000000001
 40
0.0
 40
0.0
 40
0.0
 40
0.0
 40
1.0
 40
1.0
 40
1.0
 40
1.0
 10
133.7078868084
 20
100.9240892908
 30
0.0
 10
133.6719562736
 20
100.8874877918
 30
0.0
 10
133.6359169433
 20
100.8507170706
 30
0.0
 10
133.6041297678
 20
100.8104647597
 30
0.0
  0
SPLINE
  5
5BB
100
AcDbEntity
  8
CORPO
100
AcDbSpline
 62
250
  6
CONTINUOUS
 70
0
 71
3
 72
11
 73
7
 74
0
 42
0.0000001
 43
0.0000001
 44
0.0000000001
 40
0.0
 40
0.0
 40
0.0
 40
0.0
 40
0.2431647158
 40
0.4875073299
 40
0.7401516447
 40
1.0
 40
1.0
 40
1.0
 40
1.0
 10
133.6084684373
 20
105.6472494487
 30
0.0
 10
133.6084748673
 20
105.6178015792
 30
0.0
 10
133.6204424326
 20
105.5591225051
 30
0.0
 10
133.6487515434
 20
105.4742791321
 30
0.0
 10
133.6785217295
 20
105.3875363153
 30
0.0
 10
133.6982433001
 20
105.3286988961
 30
0.0
 10
133.707887017
 20
105.2987447188
 30
0.0
  0
SPLINE
  5
5BC
100
AcDbEntity
  8
CORPO
100
AcDbSpline
 62
250
  6
CONTINUOUS
 70
0
 71
3
 72
11
 73
7
 74
0
 42
0.0000001
 43
0.0000001
 44
0.0000000001
 40
0.0
 40
0.0
 40
0.0
 40
0.0
 40
0.2598474287
 40
0.5124992162
 40
0.7568353283
 40
1.0
 40
1.0
 40
1.0
 40
1.0
 10
133.7078858581
 20
100.9240866653
 30
0.0
 10
133.6982561675
 20
100.8941284788
 30
0.0
 10
133.6785317136
 20
100.8352917545
 30
0.0
 10
133.6487433274
 20
100.7485560958
 30
0.0
 10
133.6204473886
 20
100.6637101227
 30
0.0
 10
133.6084709782
 20
100.605033707
 30
0.0
 10
133.6084672115
 20
100.5755861854
 30
0.0
  0
SPLINE
  5
5BD
100
AcDbEntity
  8
CORPO
100
AcDbSpline
 62
250
  6
CONTINUOUS
 70
0
 71
3
 72
21
 73
17
 74
0
 42
0.0000001
 43
0.0000001
 44
0.0000000001
 40
0.0
 40
0.0
 40
0.0
 40
0.0
 40
0.0012045134
 40
0.0048498131
 40
0.0109184968
 40
0.0193919308
 40
0.0434762137
 40
0.0768594713
 40
0.1191639622
 40
0.1699878262
 40
0.2287978548
 40
0.2949859125
 40
0.4468057771
 40
0.6193724709
 40
0.8062056552
 40
1.0
 40
1.0
 40
1.0
 40
1.0
 10
133.69662381
 20
100.6203590329
 30
0.0
 10
133.6965064504
 20
100.6203255792
 30
0.0
 10
133.6967628216
 20
100.6211970897
 30
0.0
 10
133.6965295607
 20
100.6219347127
 30
0.0
 10
133.6967094753
 20
100.6239854691
 30
0.0
 10
133.6967196289
 20
100.6277715039
 30
0.0
 10
133.6969668673
 20
100.6345430014
 30
0.0
 10
133.6972334363
 20
100.6446025702
 30
0.0
 10
133.6976387799
 20
100.6574309608
 30
0.0
 10
133.6981239891
 20
100.6728107415
 30
0.0
 10
133.6987097815
 20
100.690616442
 30
0.0
 10
133.699658768
 20
100.7186452063
 30
0.0
 10
133.7010652318
 20
100.7581915614
 30
0.0
 10
133.7030300314
 20
100.8099480885
 30
0.0
 10
133.7053065713
 20
100.8659485116
 30
0.0
 10
133.7069899522
 20
100.9044748837
 30
0.0
 10
133.7078828266
 20
100.9240887329
 30
0.0
  0
SPLINE
  5
5BE
100
AcDbEntity
  8
CORPO
100
AcDbSpline
 62
250
  6
CONTINUOUS
 70
0
 71
3
 72
30
 73
26
 74
0
 42
0.0000001
 43
0.0000001
 44
0.0000000001
 40
0.0
 40
0.0
 40
0.0
 40
0.0
 40
0.0625107316
 40
0.1250212637
 40
0.1875312985
 40
0.2500400222
 40
0.3125443752
 40
0.3438016771
 40
0.3750596028
 40
0.4063188327
 40
0.437574777
 40
0.4532252075
 40
0.4688996262
 40
0.5000407904
 40
0.5311838856
 40
0.5624269412
 40
0.5936827084
 40
0.6249415261
 40
0.6561992708
 40
0.6874563064
 40
0.7499608489
 40
0.8124691616
 40
0.8749790164
 40
0.9374893789
 40
1.0
 40
1.0
 40
1.0
 40
1.0
 10
133.8823159884
 20
119.7372233174
 30
0.0
 10
133.9626325883
 20
119.7146815592
 30
0.0
 10
134.1228836111
 20
119.6682163537
 30
0.0
 10
134.3617212478
 20
119.5934037409
 30
0.0
 10
134.5984412331
 20
119.5120769608
 30
0.0
 10
134.8320154888
 20
119.4220910282
 30
0.0
 10
135.0225999431
 20
119.3369861032
 30
0.0
 10
135.170434105
 20
119.25953332
 30
0.0
 10
135.2779223916
 20
119.1952539766
 30
0.0
 10
135.379999497
 20
119.1226205932
 30
0.0
 10
135.4576370174
 20
119.0522249068
 30
0.0
 10
135.5103554003
 20
118.987155181
 30
0.0
 10
135.553926974
 20
118.9159617646
 30
0.0
 10
135.5822642073
 20
118.8113412058
 30
0.0
 10
135.5481477667
 20
118.6861951464
 30
0.0
 10
135.4728855475
 20
118.5846968394
 30
0.0
 10
135.380052222
 20
118.5002022672
 30
0.0
 10
135.2778992941
 20
118.4275829642
 30
0.0
 10
135.1704338231
 20
118.3632985267
 30
0.0
 10
135.0225974293
 20
118.2858388754
 30
0.0
 10
134.8320117123
 20
118.2007446203
 30
0.0
 10
134.5984397795
 20
118.11075237
 30
0.0
 10
134.3617201326
 20
118.0294280385
 30
0.0
 10
134.1228830799
 20
117.9546155715
 30
0.0
 10
133.962632392
 20
117.9081505722
 30
0.0
 10
133.8823159884
 20
117.8856086602
 30
0.0
  0
SPLINE
  5
5BF
100
AcDbEntity
  8
CORPO
100
AcDbSpline
 62
250
  6
CONTINUOUS
 70
0
 71
3
 72
16
 73
12
 74
0
 42
0.0000001
 43
0.0000001
 44
0.0000000001
 40
0.0
 40
0.0
 40
0.0
 40
0.0
 40
0.0982059449
 40
0.2064003279
 40
0.3238163785
 40
0.4489546802
 40
0.5803109831
 40
0.7165973577
 40
0.7863025429
 40
0.8569255446
 40
1.0
 40
1.0
 40
1.0
 40
1.0
 10
133.8823159884
 20
131.5923761397
 30
0.0
 10
133.8823119667
 20
131.5313506408
 30
0.0
 10
133.864920187
 20
131.4030505591
 30
0.0
 10
133.8039552506
 20
131.2107511551
 30
0.0
 10
133.7141796778
 20
131.0117144995
 30
0.0
 10
133.6001973115
 20
130.8089716267
 30
0.0
 10
133.4645285569
 20
130.6057900072
 30
0.0
 10
133.3341829034
 20
130.4412545374
 30
0.0
 10
133.2156103298
 20
130.3163322287
 30
0.0
 10
133.084598477
 20
130.1995802348
 30
0.0
 10
132.9657842135
 20
130.1282900009
 30
0.0
 10
132.8791048747
 20
130.1085128375
 30
0.0
  0
SPLINE
  5
5C0
100
AcDbEntity
  8
CORPO
100
AcDbSpline
 62
7
  6
CONTINUOUS
 70
0
 71
3
 72
35
 73
31
 74
0
 42
0.0000001
 43
0.0000001
 44
0.0000000001
 40
0.0
 40
0.0
 40
0.0
 40
0.0
 40
0.0624823351
 40
0.1249645886
 40
0.1874465914
 40
0.249927697
 40
0.2811700024
 40
0.3124124114
 40
0.3436550953
 40
0.3748981218
 40
0.4061404874
 40
0.4373789333
 40
0.4530185215
 40
0.4686713502
 40
0.4843367295
 40
0.5000014409
 40
0.5156458949
 40
0.5313306851
 40
0.5469774088
 40
0.5626194695
 40
0.5938585314
 40
0.6251014409
 40
0.6563446479
 40
0.6875874555
 40
0.7188298937
 40
0.7500722097
 40
0.8125533716
 40
0.8750353914
 40
0.9375176573
 40
1.0
 40
1.0
 40
1.0
 40
1.0
 10
132.8791279078
 20
128.3143110092
 30
0.0
 10
132.9654135516
 20
128.3358404117
 30
0.0
 10
133.1376694336
 20
128.3801795247
 30
0.0
 10
133.3947896072
 20
128.4514384501
 30
0.0
 10
133.6501575188
 20
128.5287661478
 30
0.0
 10
133.8608556142
 20
128.5999232919
 30
0.0
 10
134.0273345686
 20
128.6625861629
 30
0.0
 10
134.1508062451
 20
128.7131547274
 30
0.0
 10
134.2723524422
 20
128.7682227549
 30
0.0
 10
134.3910888318
 20
128.829213587
 30
0.0
 10
134.5053221206
 20
128.8983259794
 30
0.0
 10
134.5940980778
 20
128.9660031658
 30
0.0
 10
134.6567620511
 20
129.0294787326
 30
0.0
 10
134.6967970059
 20
129.0833306559
 30
0.0
 10
134.7259959997
 20
129.144221895
 30
0.0
 10
134.7366795419
 20
129.2113361895
 30
0.0
 10
134.7260155827
 20
129.2784748791
 30
0.0
 10
134.6968769575
 20
129.3393857678
 30
0.0
 10
134.6568455213
 20
129.3932707502
 30
0.0
 10
134.5941893147
 20
129.4567478327
 30
0.0
 10
134.5054235761
 20
129.5244467736
 30
0.0
 10
134.3911893454
 20
129.5935625261
 30
0.0
 10
134.272455689
 20
129.6545608616
 30
0.0
 10
134.1509101426
 20
129.7096317323
 30
0.0
 10
134.0274399454
 20
129.7602044303
 30
0.0
 10
133.8609623502
 20
129.8228713599
 30
0.0
 10
133.6502652512
 20
129.8940320141
 30
0.0
 10
133.3948974918
 20
129.9713603236
 30
0.0
 10
133.1377799871
 20
130.0426296419
 30
0.0
 10
132.9655191996
 20
130.0869498842
 30
0.0
 10
132.8792335935
 20
130.1084794819
 30
0.0
  0
SPLINE
  5
5C1
100
AcDbEntity
  8
CORPO
100
AcDbSpline
 62
250
  6
CONTINUOUS
 70
0
 71
3
 72
16
 73
12
 74
0
 42
0.0000001
 43
0.0000001
 44
0.0000000001
 40
0.0
 40
0.0
 40
0.0
 40
0.0
 40
0.1430877924
 40
0.2137070037
 40
0.2834088617
 40
0.4196867715
 40
0.5510354003
 40
0.6761693362
 40
0.793585431
 40
0.9017902542
 40
1.0
 40
1.0
 40
1.0
 40
1.0
 10
132.8791279078
 20
128.3143110092
 30
0.0
 10
132.965782721
 20
128.2943955474
 30
0.0
 10
133.0846144892
 20
128.2232309418
 30
0.0
 10
133.215648144
 20
128.1064771728
 30
0.0
 10
133.3341932502
 20
127.9815504422
 30
0.0
 10
133.4645344713
 20
127.8170302525
 30
0.0
 10
133.6001978715
 20
127.6138646254
 30
0.0
 10
133.7141703024
 20
127.4111287821
 30
0.0
 10
133.8039533629
 20
127.2120952133
 30
0.0
 10
133.8649215324
 20
127.0197899183
 30
0.0
 10
133.8823109272
 20
126.8914827899
 30
0.0
 10
133.8823159884
 20
126.8304558379
 30
0.0
  0
LINE
  5
5C2
100
AcDbEntity
  8
CORPO
100
AcDbLine
 62
250
  6
CONTINUOUS
 10
133.8823160085
 20
119.7372233864
 11
133.8741763696
 21
119.7072404801
  0
LINE
  5
5C3
100
AcDbEntity
  8
CORPO
100
AcDbLine
 62
250
  6
CONTINUOUS
 10
133.8823160126
 20
117.8856085771
 11
133.8741763681
 21
117.9155914975
  0
SPLINE
  5
5C4
100
AcDbEntity
  8
CORPO
100
AcDbSpline
 62
250
  6
CONTINUOUS
 70
0
 71
3
 72
21
 73
17
 74
0
 42
0.0000001
 43
0.0000001
 44
0.0000000001
 40
0.0
 40
0.0
 40
0.0
 40
0.0
 40
0.1936631947
 40
0.38027166
 40
0.5528466504
 40
0.7047033655
 40
0.7709339873
 40
0.8297958708
 40
0.8806707055
 40
0.9230264411
 40
0.9564546735
 40
0.9805731894
 40
0.9890620711
 40
0.9951429636
 40
0.9987953565
 40
1.0
 40
1.0
 40
1.0
 40
1.0
 10
133.7078866388
 20
105.2987455191
 30
0.0
 10
133.7069944989
 20
105.3183461506
 30
0.0
 10
133.7053100478
 20
105.3568364811
 30
0.0
 10
133.7030322282
 20
105.4128017575
 30
0.0
 10
133.7010687114
 20
105.4645402542
 30
0.0
 10
133.699661639
 20
105.5040955946
 30
0.0
 10
133.6987123464
 20
105.532137702
 30
0.0
 10
133.6981262636
 20
105.5499582395
 30
0.0
 10
133.6976406536
 20
105.5653534726
 30
0.0
 10
133.6972352119
 20
105.57819736
 30
0.0
 10
133.69696793
 20
105.5882687145
 30
0.0
 10
133.696721104
 20
105.595052876
 30
0.0
 10
133.6967094128
 20
105.5988409938
 30
0.0
 10
133.6965312123
 20
105.6009022732
 30
0.0
 10
133.6967610323
 20
105.6016295695
 30
0.0
 10
133.6965084383
 20
105.6025141331
 30
0.0
 10
133.6966243216
 20
105.6024758344
 30
0.0
  0
SPLINE
  5
5C5
100
AcDbEntity
  8
CORPO
100
AcDbSpline
 62
250
  6
CONTINUOUS
 70
0
 71
3
 72
9
 73
5
 74
0
 42
0.0000001
 43
0.0000001
 44
0.0000000001
 40
0.0
 40
0.0
 40
0.0
 40
0.0
 40
0.1972389659
 40
1.0
 40
1.0
 40
1.0
 40
1.0
 10
133.6084489526
 20
98.7476993458
 30
0.0
 10
133.6084252616
 20
98.7490323523
 30
0.0
 10
133.6081685827
 20
98.7557879627
 30
0.0
 10
133.6076381396
 20
98.7625283077
 30
0.0
 10
133.6072343811
 20
98.7679394477
 30
0.0
  0
SPLINE
  5
5C6
100
AcDbEntity
  8
CORPO
100
AcDbSpline
 62
250
  6
CONTINUOUS
 70
0
 71
3
 72
9
 73
5
 74
0
 42
0.0000001
 43
0.0000001
 44
0.0000000001
 40
0.0
 40
0.0
 40
0.0
 40
0.0
 40
0.4891140701
 40
1.0
 40
1.0
 40
1.0
 40
1.0
 10
133.6084627113
 20
135.303983411
 30
0.0
 10
133.6084627113
 20
135.3503694311
 30
0.0
 10
133.5933924473
 20
135.4457276644
 30
0.0
 10
133.5510136534
 20
135.532115458
 30
0.0
 10
133.5243713021
 20
135.5725835262
 30
0.0
  0
SPLINE
  5
5C7
100
AcDbEntity
  8
CORPO
100
AcDbSpline
 62
250
  6
CONTINUOUS
 70
0
 71
3
 72
11
 73
7
 74
0
 42
0.0000001
 43
0.0000001
 44
0.0000000001
 40
0.0
 40
0.0
 40
0.0
 40
0.0
 40
0.2212135205
 40
0.4646419844
 40
0.7268637527
 40
1.0
 40
1.0
 40
1.0
 40
1.0
 10
133.5243713021
 20
135.5725835262
 30
0.0
 10
133.4873886932
 20
135.6287577999
 30
0.0
 10
133.3885861169
 20
135.7333675153
 30
0.0
 10
133.1972224502
 20
135.8480042573
 30
0.0
 10
132.970244812
 20
135.9213841675
 30
0.0
 10
132.807204742
 20
135.9392577237
 30
0.0
 10
132.7241698771
 20
135.9402825893
 30
0.0
  0
SPLINE
  5
5C8
100
AcDbEntity
  8
CORPO
100
AcDbSpline
 62
250
  6
CONTINUOUS
 70
0
 71
3
 72
11
 73
7
 74
0
 42
0.0000001
 43
0.0000001
 44
0.0000000001
 40
0.0
 40
0.0
 40
0.0
 40
0.0
 40
0.221357135
 40
0.4597855311
 40
0.7213616075
 40
1.0
 40
1.0
 40
1.0
 40
1.0
 10
133.6084627113
 20
126.5991292799
 30
0.0
 10
133.6084627113
 20
126.6279953981
 30
0.0
 10
133.6238154592
 20
126.6886852768
 30
0.0
 10
133.6859096676
 20
126.7626419612
 30
0.0
 10
133.7759619661
 20
126.8132928784
 30
0.0
 10
133.846063128
 20
126.8280008237
 30
0.0
 10
133.8823159884
 20
126.8304558384
 30
0.0
  0
SPLINE
  5
5C9
100
AcDbEntity
  8
CORPO
100
AcDbSpline
 62
7
  6
CONTINUOUS
 70
0
 71
3
 72
9
 73
5
 74
0
 42
0.0000001
 43
0.0000001
 44
0.0000000001
 40
0.0
 40
0.0
 40
0.0
 40
0.0
 40
0.4999412817
 40
1.0
 40
1.0
 40
1.0
 40
1.0
 10
132.7241698771
 20
128.2296533976
 30
0.0
 10
132.7458346294
 20
128.2499322558
 30
0.0
 10
132.794171685
 20
128.2856392273
 30
0.0
 10
132.8503317561
 20
128.3071145528
 30
0.0
 10
132.8791279078
 20
128.3143110092
 30
0.0
  0
SPLINE
  5
5CA
100
AcDbEntity
  8
CORPO
100
AcDbSpline
 62
7
  6
CONTINUOUS
 70
0
 71
3
 72
9
 73
5
 74
0
 42
0.0000001
 43
0.0000001
 44
0.0000000001
 40
0.0
 40
0.0
 40
0.0
 40
0.0
 40
0.5000673163
 40
1.0
 40
1.0
 40
1.0
 40
1.0
 10
132.8792335935
 20
130.1084794819
 30
0.0
 10
132.8504235092
 20
130.1157013051
 30
0.0
 10
132.7941893895
 20
130.137117509
 30
0.0
 10
132.7458959445
 20
130.1729380581
 30
0.0
 10
132.7241698771
 20
130.19317858
 30
0.0
  0
SPLINE
  5
5CB
100
AcDbEntity
  8
CORPO
100
AcDbSpline
 62
250
  6
CONTINUOUS
 70
0
 71
3
 72
11
 73
7
 74
0
 42
0.0000001
 43
0.0000001
 44
0.0000000001
 40
0.0
 40
0.0
 40
0.0
 40
0.0
 40
0.2213585126
 40
0.4597870275
 40
0.7213623965
 40
1.0
 40
1.0
 40
1.0
 40
1.0
 10
133.6084627113
 20
131.8237026977
 30
0.0
 10
133.6084627113
 20
131.7948363567
 30
0.0
 10
133.6238153293
 20
131.734146164
 30
0.0
 10
133.6859095389
 20
131.6601890977
 30
0.0
 10
133.7759619619
 20
131.6095383553
 30
0.0
 10
133.8460631565
 20
131.5948308563
 30
0.0
 10
133.8823159884
 20
131.5923761393
 30
0.0
  0
SPLINE
  5
5CC
100
AcDbEntity
  8
CORPO
100
AcDbSpline
 62
250
  6
CONTINUOUS
 70
0
 71
3
 72
15
 73
11
 74
0
 42
0.0000001
 43
0.0000001
 44
0.0000000001
 40
0.0
 40
0.0
 40
0.0
 40
0.0
 40
0.2495331262
 40
0.3744718692
 40
0.499493176
 40
0.6246016708
 40
0.7497932334
 40
0.8750108738
 40
0.9376722121
 40
1.0
 40
1.0
 40
1.0
 40
1.0
 10
133.6084627113
 20
120.633892111
 30
0.0
 10
133.6084623976
 20
120.5538108406
 30
0.0
 10
133.6174612847
 20
120.4335153307
 30
0.0
 10
133.6430924024
 20
120.2752418722
 30
0.0
 10
133.6688871668
 20
120.1576072978
 30
0.0
 10
133.7014171098
 20
120.0415171181
 30
0.0
 10
133.7418691918
 20
119.928021761
 30
0.0
 10
133.7851781325
 20
119.8365625982
 30
0.0
 10
133.8314056581
 20
119.7711136549
 30
0.0
 10
133.8635269056
 20
119.7440841269
 30
0.0
 10
133.8823159884
 20
119.7372233174
 30
0.0
  0
SPLINE
  5
5CD
100
AcDbEntity
  8
CORPO
100
AcDbSpline
 62
250
  6
CONTINUOUS
 70
0
 71
3
 72
15
 73
11
 74
0
 42
0.0000001
 43
0.0000001
 44
0.0000000001
 40
0.0
 40
0.0
 40
0.0
 40
0.0
 40
0.062293605
 40
0.1249560659
 40
0.2501777857
 40
0.3753749163
 40
0.5004884371
 40
0.625514661
 40
0.7504582745
 40
1.0
 40
1.0
 40
1.0
 40
1.0
 10
133.8823159884
 20
117.8856086602
 30
0.0
 10
133.8635402072
 20
117.878743378
 30
0.0
 10
133.8314183721
 20
117.8517405878
 30
0.0
 10
133.7851960423
 20
117.7862933023
 30
0.0
 10
133.7418786867
 20
117.6948374001
 30
0.0
 10
133.7014243062
 20
117.581336556
 30
0.0
 10
133.668891374
 20
117.4652423046
 30
0.0
 10
133.6430947987
 20
117.3476030817
 30
0.0
 10
133.6174618816
 20
117.1893238695
 30
0.0
 10
133.6084624894
 20
117.0690239431
 30
0.0
 10
133.6084627113
 20
116.9889398666
 30
0.0
  0
SPLINE
  5
5CE
100
AcDbEntity
  8
IMPORTED
100
AcDbSpline
 62
7
  6
CONTINUOUS
 70
0
 71
3
 72
9
 73
5
 74
0
 42
0.0000001
 43
0.0000001
 44
0.0000000001
 40
0.0
 40
0.0
 40
0.0
 40
0.0
 40
0.5204733188
 40
1.0
 40
1.0
 40
1.0
 40
1.0
 10
133.6037917465
 20
122.7097046251
 30
0.0
 10
133.6037881522
 20
122.760340702
 30
0.0
 10
133.605343542
 20
122.8576240191
 30
0.0
 10
133.6082327352
 20
122.9548798332
 30
0.0
 10
133.6084400937
 20
123.0015318117
 30
0.0
  0
SPLINE
  5
5CF
100
AcDbEntity
  8
IMPORTED
100
AcDbSpline
 62
250
  6
CONTINUOUS
 70
0
 71
3
 72
9
 73
5
 74
0
 42
0.0000001
 43
0.0000001
 44
0.0000000001
 40
0.0
 40
0.0
 40
0.0
 40
0.0
 40
0.4891140701
 40
1.0
 40
1.0
 40
1.0
 40
1.0
 10
133.6084627113
 20
135.303983411
 30
0.0
 10
133.6084627113
 20
135.3503694311
 30
0.0
 10
133.5933924473
 20
135.4457276644
 30
0.0
 10
133.5510136534
 20
135.532115458
 30
0.0
 10
133.5243713021
 20
135.5725835262
 30
0.0
  0
SPLINE
  5
5D0
100
AcDbEntity
  8
IMPORTED
100
AcDbSpline
 62
250
  6
CONTINUOUS
 70
0
 71
3
 72
11
 73
7
 74
0
 42
0.0000001
 43
0.0000001
 44
0.0000000001
 40
0.0
 40
0.0
 40
0.0
 40
0.0
 40
0.2212135205
 40
0.4646419844
 40
0.7268637527
 40
1.0
 40
1.0
 40
1.0
 40
1.0
 10
133.5243713021
 20
135.5725835262
 30
0.0
 10
133.4873886932
 20
135.6287577999
 30
0.0
 10
133.3885861169
 20
135.7333675153
 30
0.0
 10
133.1972224502
 20
135.8480042573
 30
0.0
 10
132.970244812
 20
135.9213841675
 30
0.0
 10
132.807204742
 20
135.9392577237
 30
0.0
 10
132.7241698771
 20
135.9402825893
 30
0.0
  0
SPLINE
  5
5D1
100
AcDbEntity
  8
IMPORTED
100
AcDbSpline
 62
250
  6
CONTINUOUS
 70
0
 71
3
 72
9
 73
5
 74
0
 42
0.0000001
 43
0.0000001
 44
0.0000000001
 40
0.0
 40
0.0
 40
0.0
 40
0.0
 40
0.1972389659
 40
1.0
 40
1.0
 40
1.0
 40
1.0
 10
133.6084489526
 20
98.7476993458
 30
0.0
 10
133.6084252616
 20
98.7490323523
 30
0.0
 10
133.6081685827
 20
98.7557879627
 30
0.0
 10
133.6076381396
 20
98.7625283077
 30
0.0
 10
133.6072343811
 20
98.7679394477
 30
0.0
  0
SPLINE
  5
5D2
100
AcDbEntity
  8
IMPORTED
100
AcDbSpline
 62
250
  6
CONTINUOUS
 70
0
 71
3
 72
11
 73
7
 74
0
 42
0.0000001
 43
0.0000001
 44
0.0000000001
 40
0.0
 40
0.0
 40
0.0
 40
0.0
 40
0.2431647158
 40
0.4875073299
 40
0.7401516447
 40
1.0
 40
1.0
 40
1.0
 40
1.0
 10
133.6084684373
 20
105.6472494487
 30
0.0
 10
133.6084748673
 20
105.6178015792
 30
0.0
 10
133.6204424326
 20
105.5591225051
 30
0.0
 10
133.6487515434
 20
105.4742791321
 30
0.0
 10
133.6785217295
 20
105.3875363153
 30
0.0
 10
133.6982433001
 20
105.3286988961
 30
0.0
 10
133.707887017
 20
105.2987447188
 30
0.0
  0
SPLINE
  5
5D3
100
AcDbEntity
  8
IMPORTED
100
AcDbSpline
 62
250
  6
CONTINUOUS
 70
0
 71
3
 72
11
 73
7
 74
0
 42
0.0000001
 43
0.0000001
 44
0.0000000001
 40
0.0
 40
0.0
 40
0.0
 40
0.0
 40
0.2598474287
 40
0.5124992162
 40
0.7568353283
 40
1.0
 40
1.0
 40
1.0
 40
1.0
 10
133.7078858581
 20
100.9240866653
 30
0.0
 10
133.6982561675
 20
100.8941284788
 30
0.0
 10
133.6785317136
 20
100.8352917545
 30
0.0
 10
133.6487433274
 20
100.7485560958
 30
0.0
 10
133.6204473886
 20
100.6637101227
 30
0.0
 10
133.6084709782
 20
100.605033707
 30
0.0
 10
133.6084672115
 20
100.5755861854
 30
0.0
  0
SPLINE
  5
5D4
100
AcDbEntity
  8
IMPORTED
100
AcDbSpline
 62
250
  6
CONTINUOUS
 70
0
 71
3
 72
21
 73
17
 74
0
 42
0.0000001
 43
0.0000001
 44
0.0000000001
 40
0.0
 40
0.0
 40
0.0
 40
0.0
 40
0.0012045134
 40
0.0048498131
 40
0.0109184968
 40
0.0193919308
 40
0.0434762137
 40
0.0768594713
 40
0.1191639622
 40
0.1699878262
 40
0.2287978548
 40
0.2949859125
 40
0.4468057771
 40
0.6193724709
 40
0.8062056552
 40
1.0
 40
1.0
 40
1.0
 40
1.0
 10
133.69662381
 20
100.6203590329
 30
0.0
 10
133.6965064504
 20
100.6203255792
 30
0.0
 10
133.6967628216
 20
100.6211970897
 30
0.0
 10
133.6965295607
 20
100.6219347127
 30
0.0
 10
133.6967094753
 20
100.6239854691
 30
0.0
 10
133.6967196289
 20
100.6277715039
 30
0.0
 10
133.6969668673
 20
100.6345430014
 30
0.0
 10
133.6972334363
 20
100.6446025702
 30
0.0
 10
133.6976387799
 20
100.6574309608
 30
0.0
 10
133.6981239891
 20
100.6728107415
 30
0.0
 10
133.6987097815
 20
100.690616442
 30
0.0
 10
133.699658768
 20
100.7186452063
 30
0.0
 10
133.7010652318
 20
100.7581915614
 30
0.0
 10
133.7030300314
 20
100.8099480885
 30
0.0
 10
133.7053065713
 20
100.8659485116
 30
0.0
 10
133.7069899522
 20
100.9044748837
 30
0.0
 10
133.7078828266
 20
100.9240887329
 30
0.0
  0
SPLINE
  5
5D5
100
AcDbEntity
  8
IMPORTED
100
AcDbSpline
 62
250
  6
CONTINUOUS
 70
0
 71
3
 72
21
 73
17
 74
0
 42
0.0000001
 43
0.0000001
 44
0.0000000001
 40
0.0
 40
0.0
 40
0.0
 40
0.0
 40
0.1936631947
 40
0.38027166
 40
0.5528466504
 40
0.7047033655
 40
0.7709339873
 40
0.8297958708
 40
0.8806707055
 40
0.9230264411
 40
0.9564546735
 40
0.9805731894
 40
0.9890620711
 40
0.9951429636
 40
0.9987953565
 40
1.0
 40
1.0
 40
1.0
 40
1.0
 10
133.7078866388
 20
105.2987455191
 30
0.0
 10
133.7069944989
 20
105.3183461506
 30
0.0
 10
133.7053100478
 20
105.3568364811
 30
0.0
 10
133.7030322282
 20
105.4128017575
 30
0.0
 10
133.7010687114
 20
105.4645402542
 30
0.0
 10
133.699661639
 20
105.5040955946
 30
0.0
 10
133.6987123464
 20
105.532137702
 30
0.0
 10
133.6981262636
 20
105.5499582395
 30
0.0
 10
133.6976406536
 20
105.5653534726
 30
0.0
 10
133.6972352119
 20
105.57819736
 30
0.0
 10
133.69696793
 20
105.5882687145
 30
0.0
 10
133.696721104
 20
105.595052876
 30
0.0
 10
133.6967094128
 20
105.5988409938
 30
0.0
 10
133.6965312123
 20
105.6009022732
 30
0.0
 10
133.6967610323
 20
105.6016295695
 30
0.0
 10
133.6965084383
 20
105.6025141331
 30
0.0
 10
133.6966243216
 20
105.6024758344
 30
0.0
  0
SPLINE
  5
5D6
100
AcDbEntity
  8
IMPORTED
100
AcDbSpline
 62
250
  6
CONTINUOUS
 70
0
 71
3
 72
11
 73
7
 74
0
 42
0.0000001
 43
0.0000001
 44
0.0000000001
 40
0.0
 40
0.0
 40
0.0
 40
0.0
 40
0.221357135
 40
0.4597855311
 40
0.7213616075
 40
1.0
 40
1.0
 40
1.0
 40
1.0
 10
133.6084627113
 20
126.5991292799
 30
0.0
 10
133.6084627113
 20
126.6279953981
 30
0.0
 10
133.6238154592
 20
126.6886852768
 30
0.0
 10
133.6859096676
 20
126.7626419612
 30
0.0
 10
133.7759619661
 20
126.8132928784
 30
0.0
 10
133.846063128
 20
126.8280008237
 30
0.0
 10
133.8823159884
 20
126.8304558384
 30
0.0
  0
SPLINE
  5
5D7
100
AcDbEntity
  8
IMPORTED
100
AcDbSpline
 62
7
  6
CONTINUOUS
 70
0
 71
3
 72
9
 73
5
 74
0
 42
0.0000001
 43
0.0000001
 44
0.0000000001
 40
0.0
 40
0.0
 40
0.0
 40
0.0
 40
0.4999412817
 40
1.0
 40
1.0
 40
1.0
 40
1.0
 10
132.7241698771
 20
128.2296533976
 30
0.0
 10
132.7458346294
 20
128.2499322558
 30
0.0
 10
132.794171685
 20
128.2856392273
 30
0.0
 10
132.8503317561
 20
128.3071145528
 30
0.0
 10
132.8791279078
 20
128.3143110092
 30
0.0
  0
SPLINE
  5
5D8
100
AcDbEntity
  8
IMPORTED
100
AcDbSpline
 62
7
  6
CONTINUOUS
 70
0
 71
3
 72
9
 73
5
 74
0
 42
0.0000001
 43
0.0000001
 44
0.0000000001
 40
0.0
 40
0.0
 40
0.0
 40
0.0
 40
0.5000673163
 40
1.0
 40
1.0
 40
1.0
 40
1.0
 10
132.8792335935
 20
130.1084794819
 30
0.0
 10
132.8504235092
 20
130.1157013051
 30
0.0
 10
132.7941893895
 20
130.137117509
 30
0.0
 10
132.7458959445
 20
130.1729380581
 30
0.0
 10
132.7241698771
 20
130.19317858
 30
0.0
  0
SPLINE
  5
5D9
100
AcDbEntity
  8
IMPORTED
100
AcDbSpline
 62
250
  6
CONTINUOUS
 70
0
 71
3
 72
11
 73
7
 74
0
 42
0.0000001
 43
0.0000001
 44
0.0000000001
 40
0.0
 40
0.0
 40
0.0
 40
0.0
 40
0.2213585126
 40
0.4597870275
 40
0.7213623965
 40
1.0
 40
1.0
 40
1.0
 40
1.0
 10
133.6084627113
 20
131.8237026977
 30
0.0
 10
133.6084627113
 20
131.7948363567
 30
0.0
 10
133.6238153293
 20
131.734146164
 30
0.0
 10
133.6859095389
 20
131.6601890977
 30
0.0
 10
133.7759619619
 20
131.6095383553
 30
0.0
 10
133.8460631565
 20
131.5948308563
 30
0.0
 10
133.8823159884
 20
131.5923761393
 30
0.0
  0
SPLINE
  5
5DA
100
AcDbEntity
  8
IMPORTED
100
AcDbSpline
 62
250
  6
CONTINUOUS
 70
0
 71
3
 72
15
 73
11
 74
0
 42
0.0000001
 43
0.0000001
 44
0.0000000001
 40
0.0
 40
0.0
 40
0.0
 40
0.0
 40
0.2495331262
 40
0.3744718692
 40
0.499493176
 40
0.6246016708
 40
0.7497932334
 40
0.8750108738
 40
0.9376722121
 40
1.0
 40
1.0
 40
1.0
 40
1.0
 10
133.6084627113
 20
120.633892111
 30
0.0
 10
133.6084623976
 20
120.5538108406
 30
0.0
 10
133.6174612847
 20
120.4335153307
 30
0.0
 10
133.6430924024
 20
120.2752418722
 30
0.0
 10
133.6688871668
 20
120.1576072978
 30
0.0
 10
133.7014171098
 20
120.0415171181
 30
0.0
 10
133.7418691918
 20
119.928021761
 30
0.0
 10
133.7851781325
 20
119.8365625982
 30
0.0
 10
133.8314056581
 20
119.7711136549
 30
0.0
 10
133.8635269056
 20
119.7440841269
 30
0.0
 10
133.8823159884
 20
119.7372233174
 30
0.0
  0
SPLINE
  5
5DB
100
AcDbEntity
  8
IMPORTED
100
AcDbSpline
 62
250
  6
CONTINUOUS
 70
0
 71
3
 72
15
 73
11
 74
0
 42
0.0000001
 43
0.0000001
 44
0.0000000001
 40
0.0
 40
0.0
 40
0.0
 40
0.0
 40
0.062293605
 40
0.1249560659
 40
0.2501777857
 40
0.3753749163
 40
0.5004884371
 40
0.625514661
 40
0.7504582745
 40
1.0
 40
1.0
 40
1.0
 40
1.0
 10
133.8823159884
 20
117.8856086602
 30
0.0
 10
133.8635402072
 20
117.878743378
 30
0.0
 10
133.8314183721
 20
117.8517405878
 30
0.0
 10
133.7851960423
 20
117.7862933023
 30
0.0
 10
133.7418786867
 20
117.6948374001
 30
0.0
 10
133.7014243062
 20
117.581336556
 30
0.0
 10
133.668891374
 20
117.4652423046
 30
0.0
 10
133.6430947987
 20
117.3476030817
 30
0.0
 10
133.6174618816
 20
117.1893238695
 30
0.0
 10
133.6084624894
 20
117.0690239431
 30
0.0
 10
133.6084627113
 20
116.9889398666
 30
0.0
  0
SPLINE
  5
5DC
100
AcDbEntity
  8
IMPORTED
100
AcDbSpline
 62
250
  6
CONTINUOUS
 70
0
 71
3
 72
12
 73
8
 74
0
 42
0.0000001
 43
0.0000001
 44
0.0000000001
 40
0.0
 40
0.0
 40
0.0
 40
0.0
 40
0.2507520581
 40
0.5014436635
 40
0.626827141
 40
0.7521833869
 40
1.0
 40
1.0
 40
1.0
 40
1.0
 10
133.6042822585
 20
120.0931746204
 30
0.0
 10
133.6176703708
 20
120.0550642153
 30
0.0
 10
133.6473211095
 20
119.9798105347
 30
0.0
 10
133.6927392931
 20
119.8894552782
 30
0.0
 10
133.7365267559
 20
119.821261325
 30
0.0
 10
133.7858901212
 20
119.7586273529
 30
0.0
 10
133.8356545528
 20
119.7177159687
 30
0.0
 10
133.8741763696
 20
119.7072404801
 30
0.0
  0
SPLINE
  5
5DD
100
AcDbEntity
  8
IMPORTED
100
AcDbSpline
 62
250
  6
CONTINUOUS
 70
0
 71
3
 72
32
 73
28
 74
0
 42
0.0000001
 43
0.0000001
 44
0.0000000001
 40
0.0
 40
0.0
 40
0.0
 40
0.0
 40
0.06249444
 40
0.1249887056
 40
0.1874825191
 40
0.2499751638
 40
0.31246379
 40
0.3437129541
 40
0.3749626302
 40
0.4062138785
 40
0.4374612652
 40
0.4531060073
 40
0.4687791737
 40
0.4844386603
 40
0.5001148393
 40
0.5312299429
 40
0.5468848112
 40
0.5625402929
 40
0.5937875577
 40
0.6250384918
 40
0.656288055
 40
0.6875368834
 40
0.7500256436
 40
0.8125179069
 40
0.8750115572
 40
0.937505663
 40
1.0
 40
1.0
 40
1.0
 40
1.0
 10
133.8741763696
 20
119.7072404801
 30
0.0
 10
133.9539971187
 20
119.6854953731
 30
0.0
 10
134.1132847674
 20
119.6406874348
 30
0.0
 10
134.3507922885
 20
119.5685944998
 30
0.0
 10
134.5863413031
 20
119.4902806091
 30
0.0
 10
134.8189822076
 20
119.4036886052
 30
0.0
 10
135.0090964333
 20
119.3218419667
 30
0.0
 10
135.1569003046
 20
119.2473611323
 30
0.0
 10
135.2646149018
 20
119.1855258237
 30
0.0
 10
135.3672867994
 20
119.1155948022
 30
0.0
 10
135.4459097078
 20
119.047611292
 30
0.0
 10
135.4998066217
 20
118.984500762
 30
0.0
 10
135.5336816709
 20
118.9320188154
 30
0.0
 10
135.5568909275
 20
118.8737614329
 30
0.0
 10
135.5687145755
 20
118.7909634197
 30
0.0
 10
135.5447719002
 20
118.7078135256
 30
0.0
 10
135.4998458396
 20
118.6383549078
 30
0.0
 10
135.4458807275
 20
118.57522766
 30
0.0
 10
135.3672910138
 20
118.5072394799
 30
0.0
 10
135.264604941
 20
118.4373086284
 30
0.0
 10
135.1568961595
 20
118.375472399
 30
0.0
 10
135.0090955899
 20
118.3009831336
 30
0.0
 10
134.8189781704
 20
118.2191467799
 30
0.0
 10
134.5863401347
 20
118.1325488015
 30
0.0
 10
134.3507911994
 20
118.054237365
 30
0.0
 10
134.113284281
 20
117.9821445137
 30
0.0
 10
133.9539969346
 20
117.9373367616
 30
0.0
 10
133.8741763696
 20
117.9155914976
 30
0.0
  0
SPLINE
  5
5DE
100
AcDbEntity
  8
IMPORTED
100
AcDbSpline
 62
250
  6
CONTINUOUS
 70
0
 71
3
 72
12
 73
8
 74
0
 42
0.0000001
 43
0.0000001
 44
0.0000000001
 40
0.0
 40
0.0
 40
0.0
 40
0.0
 40
0.2477656563
 40
0.3731275202
 40
0.4985191889
 40
0.7492303574
 40
1.0
 40
1.0
 40
1.0
 40
1.0
 10
133.8741763696
 20
117.9155914976
 30
0.0
 10
133.8356734397
 20
117.905096237
 30
0.0
 10
133.7859078224
 20
117.8642325908
 30
0.0
 10
133.7365537584
 20
117.8016055397
 30
0.0
 10
133.6927619499
 20
117.7334210877
 30
0.0
 10
133.647343757
 20
117.643070309
 30
0.0
 10
133.6176909572
 20
117.5678218074
 30
0.0
 10
133.6043020869
 20
117.5297138378
 30
0.0
  0
SPLINE
  5
5DF
100
AcDbEntity
  8
IMPORTED
100
AcDbSpline
 62
250
  6
CONTINUOUS
 70
0
 71
3
 72
8
 73
4
 74
0
 42
0.0000001
 43
0.0000001
 44
0.0000000001
 40
0.0
 40
0.0
 40
0.0
 40
0.0
 40
1.0
 40
1.0
 40
1.0
 40
1.0
 10
133.6042696348
 20
105.4121394706
 30
0.0
 10
133.6360059587
 20
105.3719593931
 30
0.0
 10
133.6720062813
 20
105.3352725574
 30
0.0
 10
133.7078867401
 20
105.2987455049
 30
0.0
  0
SPLINE
  5
5E0
100
AcDbEntity
  8
IMPORTED
100
AcDbSpline
 62
250
  6
CONTINUOUS
 70
0
 71
3
 72
9
 73
5
 74
0
 42
0.0000001
 43
0.0000001
 44
0.0000000001
 40
0.0
 40
0.0
 40
0.0
 40
0.0
 40
0.2226974273
 40
1.0
 40
1.0
 40
1.0
 40
1.0
 10
133.6010843049
 20
98.9455389649
 30
0.0
 10
133.6007433717
 20
98.9741116805
 30
0.0
 10
133.5998940004
 20
99.1024229826
 30
0.0
 10
133.601336963
 20
99.2307383252
 30
0.0
 10
133.6029418276
 20
99.3304626504
 30
0.0
  0
SPLINE
  5
5E1
100
AcDbEntity
  8
IMPORTED
100
AcDbSpline
 62
250
  6
CONTINUOUS
 70
0
 71
3
 72
8
 73
4
 74
0
 42
0.0000001
 43
0.0000001
 44
0.0000000001
 40
0.0
 40
0.0
 40
0.0
 40
0.0
 40
1.0
 40
1.0
 40
1.0
 40
1.0
 10
133.7078868084
 20
100.9240892908
 30
0.0
 10
133.6719562736
 20
100.8874877918
 30
0.0
 10
133.6359169433
 20
100.8507170706
 30
0.0
 10
133.6041297678
 20
100.8104647597
 30
0.0
  0
SPLINE
  5
5E2
100
AcDbEntity
  8
IMPORTED
100
AcDbSpline
 62
250
  6
CONTINUOUS
 70
0
 71
3
 72
21
 73
17
 74
0
 42
0.0000001
 43
0.0000001
 44
0.0000000001
 40
0.0
 40
0.0
 40
0.0
 40
0.0
 40
0.1066326329
 40
0.2206724801
 40
0.3409493729
 40
0.4662063092
 40
0.5303653725
 40
0.5953824842
 40
0.6611562078
 40
0.7275983831
 40
0.7946376666
 40
0.8622223056
 40
0.8963115106
 40
0.9306015648
 40
0.9651765113
 40
1.0
 40
1.0
 40
1.0
 40
1.0
 10
133.6084627113
 20
131.8237026977
 30
0.0
 10
133.6084608601
 20
131.7532073695
 30
0.0
 10
133.5943363947
 20
131.6072871576
 30
0.0
 10
133.54521591
 20
131.3869950301
 30
0.0
 10
133.4735045479
 20
131.1601015044
 30
0.0
 10
133.3985686556
 20
130.9694093555
 30
0.0
 10
133.329684143
 20
130.8159279095
 30
0.0
 10
133.2729256913
 20
130.7001831036
 30
0.0
 10
133.2110025952
 20
130.5853952603
 30
0.0
 10
133.1428383356
 20
130.4725703442
 30
0.0
 10
133.0663516859
 20
130.3637585572
 30
0.0
 10
132.9920476776
 20
130.2797611529
 30
0.0
 10
132.9215708345
 20
130.223496859
 30
0.0
 10
132.8608389395
 20
130.1913795886
 30
0.0
 10
132.7922889342
 20
130.1779237557
 30
0.0
 10
132.7459988149
 20
130.1858636246
 30
0.0
 10
132.7241698771
 20
130.19317858
 30
0.0
  0
SPLINE
  5
5E3
100
AcDbEntity
  8
IMPORTED
100
AcDbSpline
 62
250
  6
CONTINUOUS
 70
0
 71
3
 72
9
 73
5
 74
0
 42
0.0000001
 43
0.0000001
 44
0.0000000001
 40
0.0
 40
0.0
 40
0.0
 40
0.0
 40
0.2445485159
 40
1.0
 40
1.0
 40
1.0
 40
1.0
 10
133.5920494832
 20
98.7979132393
 30
0.0
 10
133.5885339073
 20
98.7850840394
 30
0.0
 10
133.5719746318
 20
98.7332324237
 30
0.0
 10
133.5467922297
 20
98.6842481383
 30
0.0
 10
133.5241709908
 20
98.649942398
 30
0.0
  0
SPLINE
  5
5E4
100
AcDbEntity
  8
IMPORTED
100
AcDbSpline
 62
250
  6
CONTINUOUS
 70
0
 71
3
 72
11
 73
7
 74
0
 42
0.0000001
 43
0.0000001
 44
0.0000000001
 40
0.0
 40
0.0
 40
0.0
 40
0.0
 40
0.2212295649
 40
0.464668624
 40
0.7268765175
 40
1.0
 40
1.0
 40
1.0
 40
1.0
 10
133.5241709908
 20
98.649942398
 30
0.0
 10
133.4871594719
 20
98.5938133965
 30
0.0
 10
133.3883463933
 20
98.4892890685
 30
0.0
 10
133.1970244355
 20
98.3747514264
 30
0.0
 10
132.9701348594
 20
98.3014316805
 30
0.0
 10
132.807167807
 20
98.2835737995
 30
0.0
 10
132.7241698771
 20
98.2825493897
 30
0.0
  0
SPLINE
  5
5E5
100
AcDbEntity
  8
IMPORTED
100
AcDbSpline
 62
250
  6
CONTINUOUS
 70
0
 71
3
 72
21
 73
17
 74
0
 42
0.0000001
 43
0.0000001
 44
0.0000000001
 40
0.0
 40
0.0
 40
0.0
 40
0.0
 40
0.0348147951
 40
0.069397292
 40
0.1036941492
 40
0.1378016126
 40
0.2053839614
 40
0.2724218439
 40
0.3388604418
 40
0.4046303997
 40
0.4696436
 40
0.5337990493
 40
0.6590495242
 40
0.7793229396
 40
0.8933661088
 40
1.0
 40
1.0
 40
1.0
 40
1.0
 10
132.7241698771
 20
128.2296533976
 30
0.0
 10
132.7459930067
 20
128.2369675558
 30
0.0
 10
132.7922882967
 20
128.2449080784
 30
0.0
 10
132.8608230824
 20
128.2314002961
 30
0.0
 10
132.9216216708
 20
128.1993681821
 30
0.0
 10
132.9920766195
 20
128.1430392264
 30
0.0
 10
133.066387183
 20
128.0590464715
 30
0.0
 10
133.142864801
 20
127.9502303105
 30
0.0
 10
133.211020395
 20
127.8374081603
 30
0.0
 10
133.2729395764
 20
127.7226265274
 30
0.0
 10
133.3296938432
 20
127.6068881015
 30
0.0
 10
133.3985718399
 20
127.4534139735
 30
0.0
 10
133.4735051775
 20
127.2627306104
 30
0.0
 10
133.5452135449
 20
127.0358409011
 30
0.0
 10
133.5943359275
 20
126.8155485721
 30
0.0
 10
133.6084604143
 20
126.6696253999
 30
0.0
 10
133.6084627113
 20
126.5991292799
 30
0.0
  0
SPLINE
  5
5E6
100
AcDbEntity
  8
IMPORTED
100
AcDbSpline
 62
250
  6
CONTINUOUS
 70
0
 71
3
 72
16
 73
12
 74
0
 42
0.0000001
 43
0.0000001
 44
0.0000000001
 40
0.0
 40
0.0
 40
0.0
 40
0.0
 40
0.1430877924
 40
0.2137070037
 40
0.2834088617
 40
0.4196867715
 40
0.5510354003
 40
0.6761693362
 40
0.793585431
 40
0.9017902542
 40
1.0
 40
1.0
 40
1.0
 40
1.0
 10
132.8791279078
 20
128.3143110092
 30
0.0
 10
132.965782721
 20
128.2943955474
 30
0.0
 10
133.0846144892
 20
128.2232309418
 30
0.0
 10
133.215648144
 20
128.1064771728
 30
0.0
 10
133.3341932502
 20
127.9815504422
 30
0.0
 10
133.4645344713
 20
127.8170302525
 30
0.0
 10
133.6001978715
 20
127.6138646254
 30
0.0
 10
133.7141703024
 20
127.4111287821
 30
0.0
 10
133.8039533629
 20
127.2120952133
 30
0.0
 10
133.8649215324
 20
127.0197899183
 30
0.0
 10
133.8823109272
 20
126.8914827899
 30
0.0
 10
133.8823159884
 20
126.8304558379
 30
0.0
  0
SPLINE
  5
5E7
100
AcDbEntity
  8
IMPORTED
100
AcDbSpline
 62
7
  6
CONTINUOUS
 70
0
 71
3
 72
35
 73
31
 74
0
 42
0.0000001
 43
0.0000001
 44
0.0000000001
 40
0.0
 40
0.0
 40
0.0
 40
0.0
 40
0.0624823351
 40
0.1249645886
 40
0.1874465914
 40
0.249927697
 40
0.2811700024
 40
0.3124124114
 40
0.3436550953
 40
0.3748981218
 40
0.4061404874
 40
0.4373789333
 40
0.4530185215
 40
0.4686713502
 40
0.4843367295
 40
0.5000014409
 40
0.5156458949
 40
0.5313306851
 40
0.5469774088
 40
0.5626194695
 40
0.5938585314
 40
0.6251014409
 40
0.6563446479
 40
0.6875874555
 40
0.7188298937
 40
0.7500722097
 40
0.8125533716
 40
0.8750353914
 40
0.9375176573
 40
1.0
 40
1.0
 40
1.0
 40
1.0
 10
132.8791279078
 20
128.3143110092
 30
0.0
 10
132.9654135516
 20
128.3358404117
 30
0.0
 10
133.1376694336
 20
128.3801795247
 30
0.0
 10
133.3947896072
 20
128.4514384501
 30
0.0
 10
133.6501575188
 20
128.5287661478
 30
0.0
 10
133.8608556142
 20
128.5999232919
 30
0.0
 10
134.0273345686
 20
128.6625861629
 30
0.0
 10
134.1508062451
 20
128.7131547274
 30
0.0
 10
134.2723524422
 20
128.7682227549
 30
0.0
 10
134.3910888318
 20
128.829213587
 30
0.0
 10
134.5053221206
 20
128.8983259794
 30
0.0
 10
134.5940980778
 20
128.9660031658
 30
0.0
 10
134.6567620511
 20
129.0294787326
 30
0.0
 10
134.6967970059
 20
129.0833306559
 30
0.0
 10
134.7259959997
 20
129.144221895
 30
0.0
 10
134.7366795419
 20
129.2113361895
 30
0.0
 10
134.7260155827
 20
129.2784748791
 30
0.0
 10
134.6968769575
 20
129.3393857678
 30
0.0
 10
134.6568455213
 20
129.3932707502
 30
0.0
 10
134.5941893147
 20
129.4567478327
 30
0.0
 10
134.5054235761
 20
129.5244467736
 30
0.0
 10
134.3911893454
 20
129.5935625261
 30
0.0
 10
134.272455689
 20
129.6545608616
 30
0.0
 10
134.1509101426
 20
129.7096317323
 30
0.0
 10
134.0274399454
 20
129.7602044303
 30
0.0
 10
133.8609623502
 20
129.8228713599
 30
0.0
 10
133.6502652512
 20
129.8940320141
 30
0.0
 10
133.3948974918
 20
129.9713603236
 30
0.0
 10
133.1377799871
 20
130.0426296419
 30
0.0
 10
132.9655191996
 20
130.0869498842
 30
0.0
 10
132.8792335935
 20
130.1084794819
 30
0.0
  0
SPLINE
  5
5E8
100
AcDbEntity
  8
IMPORTED
100
AcDbSpline
 62
250
  6
CONTINUOUS
 70
0
 71
3
 72
16
 73
12
 74
0
 42
0.0000001
 43
0.0000001
 44
0.0000000001
 40
0.0
 40
0.0
 40
0.0
 40
0.0
 40
0.0982059449
 40
0.2064003279
 40
0.3238163785
 40
0.4489546802
 40
0.5803109831
 40
0.7165973577
 40
0.7863025429
 40
0.8569255446
 40
1.0
 40
1.0
 40
1.0
 40
1.0
 10
133.8823159884
 20
131.5923761397
 30
0.0
 10
133.8823119667
 20
131.5313506408
 30
0.0
 10
133.864920187
 20
131.4030505591
 30
0.0
 10
133.8039552506
 20
131.2107511551
 30
0.0
 10
133.7141796778
 20
131.0117144995
 30
0.0
 10
133.6001973115
 20
130.8089716267
 30
0.0
 10
133.4645285569
 20
130.6057900072
 30
0.0
 10
133.3341829034
 20
130.4412545374
 30
0.0
 10
133.2156103298
 20
130.3163322287
 30
0.0
 10
133.084598477
 20
130.1995802348
 30
0.0
 10
132.9657842135
 20
130.1282900009
 30
0.0
 10
132.8791048747
 20
130.1085128375
 30
0.0
  0
SPLINE
  5
5E9
100
AcDbEntity
  8
IMPORTED
100
AcDbSpline
 62
250
  6
CONTINUOUS
 70
0
 71
3
 72
30
 73
26
 74
0
 42
0.0000001
 43
0.0000001
 44
0.0000000001
 40
0.0
 40
0.0
 40
0.0
 40
0.0
 40
0.0625107316
 40
0.1250212637
 40
0.1875312985
 40
0.2500400222
 40
0.3125443752
 40
0.3438016771
 40
0.3750596028
 40
0.4063188327
 40
0.437574777
 40
0.4532252075
 40
0.4688996262
 40
0.5000407904
 40
0.5311838856
 40
0.5624269412
 40
0.5936827084
 40
0.6249415261
 40
0.6561992708
 40
0.6874563064
 40
0.7499608489
 40
0.8124691616
 40
0.8749790164
 40
0.9374893789
 40
1.0
 40
1.0
 40
1.0
 40
1.0
 10
133.8823159884
 20
119.7372233174
 30
0.0
 10
133.9626325883
 20
119.7146815592
 30
0.0
 10
134.1228836111
 20
119.6682163537
 30
0.0
 10
134.3617212478
 20
119.5934037409
 30
0.0
 10
134.5984412331
 20
119.5120769608
 30
0.0
 10
134.8320154888
 20
119.4220910282
 30
0.0
 10
135.0225999431
 20
119.3369861032
 30
0.0
 10
135.170434105
 20
119.25953332
 30
0.0
 10
135.2779223916
 20
119.1952539766
 30
0.0
 10
135.379999497
 20
119.1226205932
 30
0.0
 10
135.4576370174
 20
119.0522249068
 30
0.0
 10
135.5103554003
 20
118.987155181
 30
0.0
 10
135.553926974
 20
118.9159617646
 30
0.0
 10
135.5822642073
 20
118.8113412058
 30
0.0
 10
135.5481477667
 20
118.6861951464
 30
0.0
 10
135.4728855475
 20
118.5846968394
 30
0.0
 10
135.380052222
 20
118.5002022672
 30
0.0
 10
135.2778992941
 20
118.4275829642
 30
0.0
 10
135.1704338231
 20
118.3632985267
 30
0.0
 10
135.0225974293
 20
118.2858388754
 30
0.0
 10
134.8320117123
 20
118.2007446203
 30
0.0
 10
134.5984397795
 20
118.11075237
 30
0.0
 10
134.3617201326
 20
118.0294280385
 30
0.0
 10
134.1228830799
 20
117.9546155715
 30
0.0
 10
133.962632392
 20
117.9081505722
 30
0.0
 10
133.8823159884
 20
117.8856086602
 30
0.0
  0
LINE
  5
5EA
100
AcDbEntity
  8
IMPORTED
100
AcDbLine
 62
250
  6
CONTINUOUS
 10
133.8823160085
 20
119.7372233864
 11
133.8741763696
 21
119.7072404801
  0
LINE
  5
5EB
100
AcDbEntity
  8
IMPORTED
100
AcDbLine
 62
250
  6
CONTINUOUS
 10
133.8823160126
 20
117.8856085771
 11
133.8741763681
 21
117.9155914975
  0
SPLINE
  5
5EC
100
AcDbEntity
  8
INCISIONI_LASER
100
AcDbSpline
 62
250
  6
CONTINUOUS
 70
0
 71
3
 72
13
 73
9
 74
0
 42
0.0000001
 43
0.0000001
 44
0.0000000001
 40
0.0
 40
0.0
 40
0.0
 40
0.0
 40
0.1666666667
 40
0.3333333333
 40
0.5
 40
0.6666666667
 40
0.8333333333
 40
1.0
 40
1.0
 40
1.0
 40
1.0
 10
128.8507044732
 20
101.5510709888
 30
0.0
 10
128.8507044732
 20
101.4956822148
 30
0.0
 10
128.8291191117
 20
101.3837512049
 30
0.0
 10
128.7366654362
 20
101.2409785031
 30
0.0
 10
128.5975337087
 20
101.1428313644
 30
0.0
 10
128.4317987372
 20
101.1038765858
 30
0.0
 10
128.2636770285
 20
101.1294656632
 30
0.0
 10
128.1656545276
 20
101.187607698
 30
0.0
 10
128.124237969
 20
101.2243709888
 30
0.0
  0
SPLINE
  5
5ED
100
AcDbEntity
  8
INCISIONI_LASER
100
AcDbSpline
 62
250
  6
CONTINUOUS
 70
0
 71
3
 72
11
 73
7
 74
0
 42
0.0000001
 43
0.0000001
 44
0.0000000001
 40
0.0
 40
0.0
 40
0.0
 40
0.0
 40
0.25
 40
0.5
 40
0.75
 40
1.0
 40
1.0
 40
1.0
 40
1.0
 10
125.8031061698
 20
103.2847159888
 30
0.0
 10
125.7574513173
 20
103.3252413891
 30
0.0
 10
125.6824787634
 20
103.4270358718
 30
0.0
 10
125.6431732123
 20
103.6114159888
 30
0.0
 10
125.6824787634
 20
103.7957961058
 30
0.0
 10
125.7574513173
 20
103.8975905885
 30
0.0
 10
125.8031061698
 20
103.9381159888
 30
0.0
  0
SPLINE
  5
5EE
100
AcDbEntity
  8
0
100
AcDbSpline
 62
250
  6
CONTINUOUS
 70
0
 71
3
 72
11
 73
7
 74
0
 42
0.0000001
 43
0.0000001
 44
0.0000000001
 40
0.0
 40
0.0
 40
0.0
 40
0.0
 40
0.250059421
 40
0.4376403759
 40
0.6252180371
 40
1.0
 40
1.0
 40
1.0
 40
1.0
 10
122.800932203
 20
103.9314124965
 30
0.0
 10
122.7774020188
 20
103.9555551941
 30
0.0
 10
122.7389669311
 20
104.0007934764
 30
0.0
 10
122.6975463133
 20
104.0749218423
 30
0.0
 10
122.6672229526
 20
104.1715366604
 30
0.0
 10
122.6440108172
 20
104.2441656925
 30
0.0
 10
122.636557278
 20
104.2941440263
 30
0.0
  0
SPLINE
  5
5EF
100
AcDbEntity
  8
0
100
AcDbSpline
 62
250
  6
CONTINUOUS
 70
0
 71
3
 72
11
 73
7
 74
0
 42
0.0000001
 43
0.0000001
 44
0.0000000001
 40
0.0
 40
0.0
 40
0.0
 40
0.0
 40
0.2496526083
 40
0.4374683964
 40
0.6250174835
 40
1.0
 40
1.0
 40
1.0
 40
1.0
 10
123.5930865132
 20
103.0327218796
 30
0.0
 10
123.6090416842
 20
103.0467436706
 30
0.0
 10
123.6328115052
 20
103.0763865665
 30
0.0
 10
123.6557019294
 20
103.1244127874
 30
0.0
 10
123.6790690383
 20
103.184170976
 30
0.0
 10
123.6809248145
 20
103.2331903726
 30
0.0
 10
123.6797569281
 20
103.2650760051
 30
0.0
  0
SPLINE
  5
5F0
100
AcDbEntity
  8
0
100
AcDbSpline
 62
250
  6
CONTINUOUS
 70
0
 71
3
 72
10
 73
6
 74
0
 42
0.0000001
 43
0.0000001
 44
0.0000000001
 40
0.0
 40
0.0
 40
0.0
 40
0.0
 40
0.2508677174
 40
0.6257677014
 40
1.0
 40
1.0
 40
1.0
 40
1.0
 10
122.6943375547
 20
102.150805935
 30
0.0
 10
122.6936859813
 20
102.1727107323
 30
0.0
 10
122.6965319757
 20
102.227755132
 30
0.0
 10
122.7248202096
 20
102.3115578007
 30
0.0
 10
122.7615774524
 20
102.3673234222
 30
0.0
 10
122.7848267811
 20
102.3903017527
 30
0.0
  0
SPLINE
  5
5F1
100
AcDbEntity
  8
0
100
AcDbSpline
 62
250
  6
CONTINUOUS
 70
0
 71
3
 72
19
 73
15
 74
0
 42
0.0000001
 43
0.0000001
 44
0.0000000001
 40
0.0
 40
0.0
 40
0.0
 40
0.0
 40
0.0626732018
 40
0.1254712929
 40
0.1880597336
 40
0.2507253507
 40
0.3753335858
 40
0.5000415628
 40
0.6247325483
 40
0.7493591758
 40
0.8119623267
 40
0.8745067734
 40
0.9373928493
 40
1.0
 40
1.0
 40
1.0
 40
1.0
 10
122.1646027223
 20
105.9028613413
 30
0.0
 10
122.0358345367
 20
105.8643315944
 30
0.0
 10
121.7927291981
 20
105.7377607037
 30
0.0
 10
121.5072062104
 20
105.4461555114
 30
0.0
 10
121.3161966131
 20
105.0875437286
 30
0.0
 10
121.1646883489
 20
104.5725262409
 30
0.0
 10
121.1374102327
 20
103.8956088418
 30
0.0
 10
121.305376196
 20
103.1069469513
 30
0.0
 10
121.6428931128
 20
102.3746543266
 30
0.0
 10
122.0664814413
 20
101.8471956816
 30
0.0
 10
122.4902680138
 20
101.5183156028
 30
0.0
 10
122.8528361831
 20
101.3363480774
 30
0.0
 10
123.251579626
 20
101.2540409675
 30
0.0
 10
123.5242391045
 20
101.2812249921
 30
0.0
 10
123.6528592132
 20
101.3197122652
 30
0.0
  0
SPLINE
  5
5F2
100
AcDbEntity
  8
0
100
AcDbSpline
 62
250
  6
CONTINUOUS
 70
0
 71
3
 72
19
 73
15
 74
0
 42
0.0000001
 43
0.0000001
 44
0.0000000001
 40
0.0
 40
0.0
 40
0.0
 40
0.0
 40
0.0626574334
 40
0.1254881367
 40
0.1880724179
 40
0.2507208389
 40
0.37533796
 40
0.5000435988
 40
0.6247374405
 40
0.7493518288
 40
0.8119742226
 40
0.8745184061
 40
0.9373738105
 40
1.0
 40
1.0
 40
1.0
 40
1.0
 10
123.6528592132
 20
101.3197122652
 30
0.0
 10
123.7815826226
 20
101.3582304493
 30
0.0
 10
124.0245278488
 20
101.4853734211
 30
0.0
 10
124.3095614619
 20
101.7773400382
 30
0.0
 10
124.5009110198
 20
102.1357627637
 30
0.0
 10
124.6525178906
 20
102.6507676352
 30
0.0
 10
124.6793600548
 20
103.3277003359
 30
0.0
 10
124.5114410475
 20
104.1162803927
 30
0.0
 10
124.1748854999
 20
104.8490410448
 30
0.0
 10
123.7508936032
 20
105.3762791201
 30
0.0
 10
123.3271539579
 20
105.7051731201
 30
0.0
 10
122.9647036574
 20
105.8873796128
 30
0.0
 10
122.5657666749
 20
105.9691016414
 30
0.0
 10
122.2932743166
 20
105.9413621863
 30
0.0
 10
122.1646027223
 20
105.9028613413
 30
0.0
  0
SPLINE
  5
5F3
100
AcDbEntity
  8
0
100
AcDbSpline
 62
250
  6
CONTINUOUS
 70
0
 71
3
 72
15
 73
11
 74
0
 42
0.0000001
 43
0.0000001
 44
0.0000000001
 40
0.0
 40
0.0
 40
0.0
 40
0.0
 40
0.1231317733
 40
0.2506006842
 40
0.3776993986
 40
0.5004004562
 40
0.6231015137
 40
0.7502002281
 40
0.8772989424
 40
1.0
 40
1.0
 40
1.0
 40
1.0
 10
127.4837720564
 20
116.79246129
 30
0.0
 10
127.6220315141
 20
116.9307418085
 30
0.0
 10
127.8517809761
 20
117.2698059998
 30
0.0
 10
127.97436859
 20
117.8730542262
 30
0.0
 10
127.8529473733
 20
118.4766316075
 30
0.0
 10
127.5134510966
 20
118.9789728466
 30
0.0
 10
127.0111438929
 20
119.3184869893
 30
0.0
 10
126.4084612201
 20
119.4399913529
 30
0.0
 10
125.8057873957
 20
119.317302227
 30
0.0
 10
125.4689220321
 20
119.0934680506
 30
0.0
 10
125.3302891307
 20
118.9521553802
 30
0.0
  0
SPLINE
  5
5F4
100
AcDbEntity
  8
0
100
AcDbSpline
 62
250
  6
CONTINUOUS
 70
0
 71
3
 72
9
 73
5
 74
0
 42
0.0000001
 43
0.0000001
 44
0.0000000001
 40
0.0
 40
0.0
 40
0.0
 40
0.0
 40
0.2458206488
 40
1.0
 40
1.0
 40
1.0
 40
1.0
 10
128.8972643641
 20
116.1108710017
 30
0.0
 10
128.9857535529
 20
116.2356053744
 30
0.0
 10
129.3082335264
 20
116.7688680461
 30
0.0
 10
129.4579981815
 20
117.4045892009
 30
0.0
 10
129.4579981815
 20
117.8738175628
 30
0.0
  0
SPLINE
  5
5F5
100
AcDbEntity
  8
INCISIONI_LASER
100
AcDbSpline
 62
250
  6
CONTINUOUS
 70
0
 71
3
 72
15
 73
11
 74
0
 42
0.0000001
 43
0.0000001
 44
0.0000000001
 40
0.0
 40
0.0
 40
0.0
 40
0.0
 40
0.2496054115
 40
0.3746289409
 40
0.4996496272
 40
0.6242598716
 40
0.6869390624
 40
0.749755098
 40
0.8748349136
 40
1.0
 40
1.0
 40
1.0
 40
1.0
 10
115.4006931548
 20
121.2301758747
 30
0.0
 10
115.4575675739
 20
121.2301758747
 30
0.0
 10
115.5446595951
 20
121.2230832406
 30
0.0
 10
115.6495495192
 20
121.1754457358
 30
0.0
 10
115.7164134452
 20
121.1217643202
 30
0.0
 10
115.7619223863
 20
121.0645316924
 30
0.0
 10
115.7783139791
 20
121.0094964257
 30
0.0
 10
115.7902857541
 20
120.9537120138
 30
0.0
 10
115.8002830726
 20
120.8829768587
 30
0.0
 10
115.806693735
 20
120.8263289877
 30
0.0
 10
115.8102550151
 20
120.7980281197
 30
0.0
  0
SPLINE
  5
5F6
100
AcDbEntity
  8
INCISIONI_LASER
100
AcDbSpline
 62
250
  6
CONTINUOUS
 70
0
 71
3
 72
15
 73
11
 74
0
 42
0.0000001
 43
0.0000001
 44
0.0000000001
 40
0.0
 40
0.0
 40
0.0
 40
0.0
 40
0.1251650864
 40
0.250244902
 40
0.3130609376
 40
0.3757401284
 40
0.5003503728
 40
0.6253710591
 40
0.7503945885
 40
1.0
 40
1.0
 40
1.0
 40
1.0
 10
114.9911312945
 20
120.7980281197
 30
0.0
 10
114.9946925746
 20
120.8263289877
 30
0.0
 10
115.001103237
 20
120.8829768587
 30
0.0
 10
115.0111005554
 20
120.9537120138
 30
0.0
 10
115.0230723305
 20
121.0094964257
 30
0.0
 10
115.0394639232
 20
121.0645316924
 30
0.0
 10
115.0849728644
 20
121.1217643202
 30
0.0
 10
115.1518367903
 20
121.1754457358
 30
0.0
 10
115.2567267145
 20
121.2230832406
 30
0.0
 10
115.3438187356
 20
121.2301758747
 30
0.0
 10
115.4006931548
 20
121.2301758747
 30
0.0
  0
SPLINE
  5
5F7
100
AcDbEntity
  8
INCISIONI_LASER
100
AcDbSpline
 62
250
  6
CONTINUOUS
 70
0
 71
3
 72
18
 73
14
 74
0
 42
0.0000001
 43
0.0000001
 44
0.0000000001
 40
0.0
 40
0.0
 40
0.0
 40
0.0
 40
0.1249497445
 40
0.2500581048
 40
0.3751354995
 40
0.4997862583
 40
0.562323831
 40
0.6248399249
 40
0.6874013793
 40
0.7498470175
 40
0.8124447796
 40
0.8749845892
 40
1.0
 40
1.0
 40
1.0
 40
1.0
 10
115.4006931548
 20
121.8929427891
 30
0.0
 10
115.3295687999
 20
121.8929427891
 30
0.0
 10
115.186745022
 20
121.8832380787
 30
0.0
 10
114.979635311
 20
121.8227225582
 30
0.0
 10
114.7971428174
 20
121.705122547
 30
0.0
 10
114.6862028753
 20
121.5618384381
 30
0.0
 10
114.6259471475
 20
121.4328614266
 30
0.0
 10
114.5886923572
 20
121.3327100969
 30
0.0
 10
114.5558336856
 20
121.2310304488
 30
0.0
 10
114.534575798
 20
121.1260633104
 30
0.0
 10
114.5253523865
 20
121.0195781236
 30
0.0
 10
114.5163216807
 20
120.8774679037
 30
0.0
 10
114.5119803992
 20
120.7707598018
 30
0.0
 10
114.509345153
 20
120.6996360463
 30
0.0
  0
SPLINE
  5
5F8
100
AcDbEntity
  8
0
100
AcDbSpline
 62
250
  6
CONTINUOUS
 70
0
 71
3
 72
13
 73
9
 74
0
 42
0.0000001
 43
0.0000001
 44
0.0000000001
 40
0.0
 40
0.0
 40
0.0
 40
0.0
 40
0.1820448067
 40
0.3577131209
 40
0.5334393081
 40
0.7154636694
 40
0.860240729
 40
1.0
 40
1.0
 40
1.0
 40
1.0
 10
123.3589272426
 20
117.8738175628
 30
0.0
 10
123.3589272426
 20
117.4700550852
 30
0.0
 10
123.5204817641
 20
116.66734102
 30
0.0
 10
124.1984346062
 20
115.663689948
 30
0.0
 10
125.2028650311
 20
114.9840845445
 30
0.0
 10
126.3263463788
 20
114.7594812384
 30
0.0
 10
127.3640981305
 20
114.9236295237
 30
0.0
 10
127.936795381
 20
115.2158022723
 30
0.0
 10
128.1883179816
 20
115.3969163911
 30
0.0
  0
SPLINE
  5
5F9
100
AcDbEntity
  8
INCISIONI_LASER
100
AcDbSpline
 62
250
  6
CONTINUOUS
 70
0
 71
3
 72
18
 73
14
 74
0
 42
0.0000001
 43
0.0000001
 44
0.0000000001
 40
0.0
 40
0.0
 40
0.0
 40
0.0
 40
0.1250154108
 40
0.1875552204
 40
0.2501529825
 40
0.3125986207
 40
0.3751600751
 40
0.437676169
 40
0.5002137417
 40
0.6248645005
 40
0.7499418952
 40
0.8750502555
 40
1.0
 40
1.0
 40
1.0
 40
1.0
 10
116.2920411565
 20
120.6996360463
 30
0.0
 10
116.2894059104
 20
120.7707598018
 30
0.0
 10
116.2850646288
 20
120.8774679037
 30
0.0
 10
116.2760339231
 20
121.0195781236
 30
0.0
 10
116.2668105116
 20
121.1260633104
 30
0.0
 10
116.2455526239
 20
121.2310304488
 30
0.0
 10
116.2126939523
 20
121.3327100969
 30
0.0
 10
116.1754391621
 20
121.4328614266
 30
0.0
 10
116.1151834343
 20
121.5618384381
 30
0.0
 10
116.0042434921
 20
121.705122547
 30
0.0
 10
115.8217509986
 20
121.8227225582
 30
0.0
 10
115.6146412876
 20
121.8832380787
 30
0.0
 10
115.4718175097
 20
121.8929427891
 30
0.0
 10
115.4006931548
 20
121.8929427891
 30
0.0
  0
SPLINE
  5
5FA
100
AcDbEntity
  8
0
100
AcDbSpline
 62
250
  6
CONTINUOUS
 70
0
 71
3
 72
12
 73
8
 74
0
 42
0.0000001
 43
0.0000001
 44
0.0000000001
 40
0.0
 40
0.0
 40
0.0
 40
0.0
 40
0.160170272
 40
0.373833895
 40
0.5801046928
 40
0.7863141084
 40
1.0
 40
1.0
 40
1.0
 40
1.0
 10
127.0069774259
 20
115.9301412875
 30
0.0
 10
126.8141641033
 20
115.8708184572
 30
0.0
 10
126.340972288
 20
115.7998438611
 30
0.0
 10
125.60482341
 20
115.947391602
 30
0.0
 10
124.9350966499
 20
116.4003962747
 30
0.0
 10
124.4830696444
 20
117.0694784397
 30
0.0
 10
124.3754383361
 20
117.6046447667
 30
0.0
 10
124.3754383361
 20
117.8738175628
 30
0.0
  0
SPLINE
  5
5FB
100
AcDbEntity
  8
0
100
AcDbSpline
 62
250
  6
CONTINUOUS
 70
0
 71
3
 72
313
 73
309
 74
0
 42
0.0000001
 43
0.0000001
 44
0.0000000001
 40
0.0
 40
0.0
 40
0.0
 40
0.0
 40
0.015625
 40
0.0234375
 40
0.03125
 40
0.0390625
 40
0.046875
 40
0.05078125
 40
0.0546875
 40
0.056640625
 40
0.05859375
 40
0.060546875
 40
0.0615234375
 40
0.0620117188
 40
0.0625
 40
0.0629882812
 40
0.0634765625
 40
0.064453125
 40
0.06640625
 40
0.068359375
 40
0.0703125
 40
0.07421875
 40
0.078125
 40
0.0859375
 40
0.09375
 40
0.1015625
 40
0.109375
 40
0.11328125
 40
0.1171875
 40
0.119140625
 40
0.12109375
 40
0.123046875
 40
0.1240234375
 40
0.1245117188
 40
0.125
 40
0.1254882812
 40
0.1259765625
 40
0.126953125
 40
0.12890625
 40
0.130859375
 40
0.1328125
 40
0.13671875
 40
0.140625
 40
0.1484375
 40
0.15625
 40
0.1640625
 40
0.171875
 40
0.17578125
 40
0.1796875
 40
0.181640625
 40
0.18359375
 40
0.185546875
 40
0.1865234375
 40
0.1870117188
 40
0.1875
 40
0.1879882812
 40
0.1884765625
 40
0.189453125
 40
0.19140625
 40
0.193359375
 40
0.1953125
 40
0.19921875
 40
0.203125
 40
0.2109375
 40
0.21875
 40
0.2265625
 40
0.234375
 40
0.23828125
 40
0.2421875
 40
0.244140625
 40
0.24609375
 40
0.248046875
 40
0.2490234375
 40
0.2495117188
 40
0.25
 40
0.2504882812
 40
0.2509765625
 40
0.251953125
 40
0.25390625
 40
0.255859375
 40
0.2578125
 40
0.26171875
 40
0.265625
 40
0.2734375
 40
0.28125
 40
0.2890625
 40
0.296875
 40
0.30078125
 40
0.3046875
 40
0.306640625
 40
0.30859375
 40
0.310546875
 40
0.3115234375
 40
0.3120117188
 40
0.3125
 40
0.3129882812
 40
0.3134765625
 40
0.314453125
 40
0.31640625
 40
0.318359375
 40
0.3203125
 40
0.32421875
 40
0.328125
 40
0.3359375
 40
0.34375
 40
0.3515625
 40
0.359375
 40
0.36328125
 40
0.3671875
 40
0.369140625
 40
0.37109375
 40
0.373046875
 40
0.3740234375
 40
0.3745117188
 40
0.375
 40
0.3754882812
 40
0.3759765625
 40
0.376953125
 40
0.37890625
 40
0.380859375
 40
0.3828125
 40
0.38671875
 40
0.390625
 40
0.3984375
 40
0.40625
 40
0.4140625
 40
0.421875
 40
0.42578125
 40
0.4296875
 40
0.431640625
 40
0.43359375
 40
0.435546875
 40
0.4365234375
 40
0.4370117188
 40
0.4375
 40
0.4379882812
 40
0.4384765625
 40
0.439453125
 40
0.44140625
 40
0.443359375
 40
0.4453125
 40
0.44921875
 40
0.453125
 40
0.4609375
 40
0.46875
 40
0.4765625
 40
0.484375
 40
0.48828125
 40
0.4921875
 40
0.494140625
 40
0.49609375
 40
0.498046875
 40
0.4990234375
 40
0.4995117188
 40
0.5
 40
0.5004882812
 40
0.5009765625
 40
0.501953125
 40
0.50390625
 40
0.505859375
 40
0.5078125
 40
0.51171875
 40
0.515625
 40
0.5234375
 40
0.53125
 40
0.5390625
 40
0.546875
 40
0.55078125
 40
0.5546875
 40
0.556640625
 40
0.55859375
 40
0.560546875
 40
0.5615234375
 40
0.5620117188
 40
0.5625
 40
0.5629882812
 40
0.5634765625
 40
0.564453125
 40
0.56640625
 40
0.568359375
 40
0.5703125
 40
0.57421875
 40
0.578125
 40
0.5859375
 40
0.59375
 40
0.6015625
 40
0.609375
 40
0.61328125
 40
0.6171875
 40
0.619140625
 40
0.62109375
 40
0.623046875
 40
0.6240234375
 40
0.6245117188
 40
0.625
 40
0.6254882812
 40
0.6259765625
 40
0.626953125
 40
0.62890625
 40
0.630859375
 40
0.6328125
 40
0.63671875
 40
0.640625
 40
0.6484375
 40
0.65625
 40
0.6640625
 40
0.671875
 40
0.67578125
 40
0.6796875
 40
0.681640625
 40
0.68359375
 40
0.685546875
 40
0.6865234375
 40
0.6870117188
 40
0.6875
 40
0.6879882812
 40
0.6884765625
 40
0.689453125
 40
0.69140625
 40
0.693359375
 40
0.6953125
 40
0.69921875
 40
0.703125
 40
0.7109375
 40
0.71875
 40
0.7265625
 40
0.734375
 40
0.73828125
 40
0.7421875
 40
0.744140625
 40
0.74609375
 40
0.748046875
 40
0.7490234375
 40
0.7495117188
 40
0.75
 40
0.7504882812
 40
0.7509765625
 40
0.751953125
 40
0.75390625
 40
0.755859375
 40
0.7578125
 40
0.76171875
 40
0.765625
 40
0.7734375
 40
0.78125
 40
0.7890625
 40
0.796875
 40
0.80078125
 40
0.8046875
 40
0.806640625
 40
0.80859375
 40
0.810546875
 40
0.8115234375
 40
0.8120117188
 40
0.8125
 40
0.8129882812
 40
0.8134765625
 40
0.814453125
 40
0.81640625
 40
0.818359375
 40
0.8203125
 40
0.82421875
 40
0.828125
 40
0.8359375
 40
0.84375
 40
0.8515625
 40
0.859375
 40
0.86328125
 40
0.8671875
 40
0.869140625
 40
0.87109375
 40
0.873046875
 40
0.8740234375
 40
0.8745117188
 40
0.875
 40
0.8754882812
 40
0.8759765625
 40
0.876953125
 40
0.87890625
 40
0.880859375
 40
0.8828125
 40
0.88671875
 40
0.890625
 40
0.8984375
 40
0.90625
 40
0.9140625
 40
0.921875
 40
0.92578125
 40
0.9296875
 40
0.931640625
 40
0.93359375
 40
0.935546875
 40
0.9365234375
 40
0.9370117188
 40
0.9375
 40
0.9379882812
 40
0.9384765625
 40
0.939453125
 40
0.94140625
 40
0.943359375
 40
0.9453125
 40
0.94921875
 40
0.953125
 40
0.9609375
 40
0.96875
 40
0.9765625
 40
0.984375
 40
1.0
 40
1.0
 40
1.0
 40
1.0
 10
126.4084617114
 20
118.3821499888
 30
0.0
 10
126.400234987
 20
118.3813432286
 30
0.0
 10
126.3878949003
 20
118.3801330888
 30
0.0
 10
126.3714414519
 20
118.3785195666
 30
0.0
 10
126.3591013643
 20
118.3773094314
 30
0.0
 10
126.3467612816
 20
118.3760992717
 30
0.0
 10
126.3364778642
 20
118.3750908815
 30
0.0
 10
126.3282511641
 20
118.3742839985
 30
0.0
 10
126.3231093996
 20
118.3737800857
 30
0.0
 10
126.3189961643
 20
118.3733760645
 30
0.0
 10
126.3159107549
 20
118.3730754881
 30
0.0
 10
126.3133411168
 20
118.372817247
 30
0.0
 10
126.3115393549
 20
118.3726517087
 30
0.0
 10
126.3105144847
 20
118.3725333343
 30
0.0
 10
126.3097325694
 20
118.3725115451
 30
0.0
 10
126.3090013508
 20
118.3722336801
 30
0.0
 10
126.308008709
 20
118.3719525155
 30
0.0
 10
126.3062798251
 20
118.3714188606
 30
0.0
 10
126.3038056833
 20
118.3706782543
 30
0.0
 10
126.300838557
 20
118.3697802137
 30
0.0
 10
126.2968817446
 20
118.3685860791
 30
0.0
 10
126.2919359495
 20
118.3670922971
 30
0.0
 10
126.2840225542
 20
118.3647028684
 30
0.0
 10
126.2741308528
 20
118.3617158677
 30
0.0
 10
126.2622607905
 20
118.3581315647
 30
0.0
 10
126.2503907425
 20
118.354547214
 30
0.0
 10
126.2404990051
 20
118.3515603326
 30
0.0
 10
126.2325856818
 20
118.3491706652
 30
0.0
 10
126.2276397036
 20
118.34767749
 30
0.0
 10
126.2236832672
 20
118.3464821099
 30
0.0
 10
126.2207149922
 20
118.3455878742
 30
0.0
 10
126.2182444442
 20
118.3448353633
 30
0.0
 10
126.2165091449
 20
118.3443229602
 30
0.0
 10
126.2155267821
 20
118.3440077449
 30
0.0
 10
126.2147639898
 20
118.3438344728
 30
0.0
 10
126.2141006598
 20
118.3434198502
 30
0.0
 10
126.2131815263
 20
118.3429512059
 30
0.0
 10
126.211589207
 20
118.3420918546
 30
0.0
 10
126.2093060141
 20
118.3408847165
 30
0.0
 10
126.2065698
 20
118.3394273733
 30
0.0
 10
126.2029202511
 20
118.3374873148
 30
0.0
 10
126.1983587476
 20
118.335061192
 30
0.0
 10
126.1910601
 20
118.3311799823
 30
0.0
 10
126.1819368743
 20
118.3263282676
 30
0.0
 10
126.1709889645
 20
118.3205063024
 30
0.0
 10
126.1600410765
 20
118.3146842915
 30
0.0
 10
126.1509177963
 20
118.3098326909
 30
0.0
 10
126.1436192577
 20
118.305951253
 30
0.0
 10
126.1390574773
 20
118.3035257104
 30
0.0
 10
126.1354084967
 20
118.301584461
 30
0.0
 10
126.1326705465
 20
118.3001307563
 30
0.0
 10
126.1303927854
 20
118.2989122342
 30
0.0
 10
126.1287907696
 20
118.2980732052
 30
0.0
 10
126.1278871722
 20
118.2975719995
 30
0.0
 10
126.1271761201
 20
118.297257395
 30
0.0
 10
126.1265925642
 20
118.2967084718
 30
0.0
 10
126.1257700176
 20
118.2960583072
 30
0.0
 10
126.1243512815
 20
118.2948824382
 30
0.0
 10
126.1223136826
 20
118.2932225345
 30
0.0
 10
126.1198732009
 20
118.2912221284
 30
0.0
 10
126.1166176057
 20
118.2885578967
 30
0.0
 10
126.1125486662
 20
118.2852265878
 30
0.0
 10
126.1060380529
 20
118.2798970634
 30
0.0
 10
126.0978998939
 20
118.2732349615
 30
0.0
 10
126.0881340521
 20
118.2652405275
 30
0.0
 10
126.0783682421
 20
118.2572460546
 30
0.0
 10
126.0702300034
 20
118.25058405
 30
0.0
 10
126.0637195495
 20
118.2452543309
 30
0.0
 10
126.0596502051
 20
118.2419235169
 30
0.0
 10
126.056395441
 20
118.2392582696
 30
0.0
 10
126.05395242
 20
118.2372609662
 30
0.0
 10
126.0519227658
 20
118.2355913547
 30
0.0
 10
126.0504898473
 20
118.2344328158
 30
0.0
 10
126.0496900243
 20
118.2337548841
 30
0.0
 10
126.0490366686
 20
118.2332912527
 30
0.0
 10
126.0485877732
 20
118.2326563065
 30
0.0
 10
126.0479179279
 20
118.2318694681
 30
0.0
 10
126.046778927
 20
118.2304646592
 30
0.0
 10
126.0451344106
 20
118.2284723453
 30
0.0
 10
126.0431684269
 20
118.2260753383
 30
0.0
 10
126.0405445181
 20
118.222881505
 30
0.0
 10
126.0372655214
 20
118.2188884683
 30
0.0
 10
126.0320186294
 20
118.2125000262
 30
0.0
 10
126.0254601862
 20
118.2045143297
 30
0.0
 10
126.0175899756
 20
118.1949315591
 30
0.0
 10
126.0097198054
 20
118.1853487581
 30
0.0
 10
126.0031612611
 20
118.1773631376
 30
0.0
 10
125.9979145714
 20
118.1709745436
 30
0.0
 10
125.9946350606
 20
118.166981893
 30
0.0
 10
125.9920122068
 20
118.1637872672
 30
0.0
 10
125.990043
 20
118.1613926814
 30
0.0
 10
125.9884085677
 20
118.1593927921
 30
0.0
 10
125.9872515652
 20
118.1580015067
 30
0.0
 10
125.9866105631
 20
118.1571930003
 30
0.0
 10
125.9860730704
 20
118.1566246112
 30
0.0
 10
125.9857524711
 20
118.1559110025
 30
0.0
 10
125.9852493505
 20
118.1550101785
 30
0.0
 10
125.9844041384
 20
118.1534101357
 30
0.0
 10
125.983178264
 20
118.1511366991
 30
0.0
 10
125.9817151027
 20
118.1484032938
 30
0.0
 10
125.9797614659
 20
118.144760598
 30
0.0
 10
125.9773203632
 20
118.1402065966
 30
0.0
 10
125.9734140715
 20
118.1329205475
 30
0.0
 10
125.9685313892
 20
118.1238128645
 30
0.0
 10
125.9626720866
 20
118.1128836994
 30
0.0
 10
125.9568128279
 20
118.1019545108
 30
0.0
 10
125.9519300357
 20
118.0928468866
 30
0.0
 10
125.9480239638
 20
118.0855607197
 30
0.0
 10
125.9455823026
 20
118.0810070179
 30
0.0
 10
125.9436298121
 20
118.0773637073
 30
0.0
 10
125.9421631486
 20
118.0746321802
 30
0.0
 10
125.9409482319
 20
118.0723528672
 30
0.0
 10
125.9400834585
 20
118.0707633147
 30
0.0
 10
125.93961168
 20
118.0698456826
 30
0.0
 10
125.9391948077
 20
118.0691837029
 30
0.0
 10
125.9390189003
 20
118.068421404
 30
0.0
 10
125.9387003059
 20
118.0674399978
 30
0.0
 10
125.9381819266
 20
118.0657062334
 30
0.0
 10
125.9374209111
 20
118.0632379508
 30
0.0
 10
125.9365164558
 20
118.0602723633
 30
0.0
 10
125.9353074546
 20
118.0563195209
 30
0.0
 10
125.9337972511
 20
118.0513780315
 30
0.0
 10
125.9313803396
 20
118.0434718926
 30
0.0
 10
125.9283594028
 20
118.0335891347
 30
0.0
 10
125.9247341856
 20
118.0217298631
 30
0.0
 10
125.9211090161
 20
118.0098705747
 30
0.0
 10
125.91808796
 20
117.9999878591
 30
0.0
 10
125.9156712869
 20
117.9920816357
 30
0.0
 10
125.9141604775
 20
117.9871403609
 30
0.0
 10
125.91295272
 20
117.9831870782
 30
0.0
 10
125.9120444648
 20
117.9802228357
 30
0.0
 10
125.9112953384
 20
117.9777503448
 30
0.0
 10
125.910755735
 20
117.9760240929
 30
0.0
 10
125.9104711471
 20
117.9750306498
 30
0.0
 10
125.9101907825
 20
117.9743053245
 30
0.0
 10
125.9101662343
 20
117.973504478
 30
0.0
 10
125.9100442718
 20
117.9724630253
 30
0.0
 10
125.9098724121
 20
117.9706282096
 30
0.0
 10
125.9096051626
 20
117.9680134611
 30
0.0
 10
125.9092937667
 20
117.9648730162
 30
0.0
 10
125.9088753227
 20
117.9606867158
 30
0.0
 10
125.9083533803
 20
117.9554535118
 30
0.0
 10
125.9075176503
 20
117.9470805689
 30
0.0
 10
125.9064732029
 20
117.9366143274
 30
0.0
 10
125.9052197674
 20
117.924054864
 30
0.0
 10
125.903966382
 20
117.9114953957
 30
0.0
 10
125.9029218094
 20
117.9010291667
 30
0.0
 10
125.9020863298
 20
117.8926561988
 30
0.0
 10
125.9015637512
 20
117.8874230583
 30
0.0
 10
125.9011466129
 20
117.8832366275
 30
0.0
 10
125.9008312279
 20
117.8800965809
 30
0.0
 10
125.9005764594
 20
117.8774805864
 30
0.0
 10
125.9003823189
 20
117.875647995
 30
0.0
 10
125.9002960558
 20
117.8746029785
 30
0.0
 10
125.9001618506
 20
117.8738130789
 30
0.0
 10
125.9002933399
 20
117.8730466388
 30
0.0
 10
125.9003759818
 20
117.8720165357
 30
0.0
 10
125.9005637851
 20
117.8702176679
 30
0.0
 10
125.9008095005
 20
117.8676458635
 30
0.0
 10
125.9011140219
 20
117.8645605513
 30
0.0
 10
125.9015166754
 20
117.8604465038
 30
0.0
 10
125.9020211478
 20
117.8553040465
 30
0.0
 10
125.9028276577
 20
117.8470760577
 30
0.0
 10
125.9038360181
 20
117.8367910915
 30
0.0
 10
125.9050459489
 20
117.8244491224
 30
0.0
 10
125.9062559297
 20
117.8121071604
 30
0.0
 10
125.907264165
 20
117.8018221764
 30
0.0
 10
125.9080709252
 20
117.7935942232
 30
0.0
 10
125.9085747613
 20
117.7884516754
 30
0.0
 10
125.908978721
 20
117.7843378136
 30
0.0
 10
125.9092792516
 20
117.7812519342
 30
0.0
 10
125.9095374533
 20
117.7786819047
 30
0.0
 10
125.9097029665
 20
117.7768798683
 30
0.0
 10
125.9098213228
 20
117.775854842
 30
0.0
 10
125.9098431087
 20
117.7750728076
 30
0.0
 10
125.9101209314
 20
117.7743414776
 30
0.0
 10
125.9104020532
 20
117.7733486846
 30
0.0
 10
125.9109356267
 20
117.7716195373
 30
0.0
 10
125.9116761203
 20
117.7691450187
 30
0.0
 10
125.9125740241
 20
117.7661774404
 30
0.0
 10
125.9137679768
 20
117.7622200252
 30
0.0
 10
125.9152615314
 20
117.7572734768
 30
0.0
 10
125.9176505961
 20
117.749358876
 30
0.0
 10
125.9206371419
 20
117.7394656679
 30
0.0
 10
125.924220899
 20
117.7275937974
 30
0.0
 10
125.9278047038
 20
117.7157219413
 30
0.0
 10
125.9307911303
 20
117.7058286971
 30
0.0
 10
125.9331804336
 20
117.6979141684
 30
0.0
 10
125.9346733815
 20
117.6929674368
 30
0.0
 10
125.9358685795
 20
117.6890103976
 30
0.0
 10
125.936762679
 20
117.6860416705
 30
0.0
 10
125.9375150753
 20
117.6835707461
 30
0.0
 10
125.9380274003
 20
117.6818351825
 30
0.0
 10
125.9383425676
 20
117.6808526701
 30
0.0
 10
125.9385158134
 20
117.6800897616
 30
0.0
 10
125.9389303728
 20
117.6794263306
 30
0.0
 10
125.9393989457
 20
117.678507057
 30
0.0
 10
125.9402581661
 20
117.6769144951
 30
0.0
 10
125.9414651204
 20
117.6746309545
 30
0.0
 10
125.9429222416
 20
117.6718943236
 30
0.0
 10
125.9448620046
 20
117.6682442188
 30
0.0
 10
125.9472877579
 20
117.6636820204
 30
0.0
 10
125.9511683765
 20
117.6563822611
 30
0.0
 10
125.9560193523
 20
117.6472576456
 30
0.0
 10
125.9618404308
 20
117.6363080682
 30
0.0
 10
125.9676615549
 20
117.6253585125
 30
0.0
 10
125.9725124166
 20
117.6162338426
 30
0.0
 10
125.9763932634
 20
117.6089341922
 30
0.0
 10
125.9788184365
 20
117.6043717169
 30
0.0
 10
125.9807593903
 20
117.6007221804
 30
0.0
 10
125.9822128736
 20
117.5979838132
 30
0.0
 10
125.9834312101
 20
117.5957057051
 30
0.0
 10
125.9842701113
 20
117.5941034452
 30
0.0
 10
125.9847712407
 20
117.5931997102
 30
0.0
 10
125.9850857973
 20
117.5924885498
 30
0.0
 10
125.9856346368
 20
117.591904905
 30
0.0
 10
125.9862847024
 20
117.5910822331
 30
0.0
 10
125.9874603923
 20
117.5896632809
 30
0.0
 10
125.9891200432
 20
117.5876253717
 30
0.0
 10
125.9911201446
 20
117.5851845182
 30
0.0
 10
125.9937839706
 20
117.581928427
 30
0.0
 10
125.9971147721
 20
117.5778588677
 30
0.0
 10
126.0024434847
 20
117.5713472627
 30
0.0
 10
126.009104572
 20
117.563207864
 30
0.0
 10
126.0170977884
 20
117.5534405346
 30
0.0
 10
126.0250910437
 20
117.543673237
 30
0.0
 10
126.0317520337
 20
117.5355337586
 30
0.0
 10
126.037080941
 20
117.529022313
 30
0.0
 10
126.0404112477
 20
117.5249523487
 30
0.0
 10
126.0430760891
 20
117.5216970888
 30
0.0
 10
126.0450730883
 20
117.5192536957
 30
0.0
 10
126.0467424455
 20
117.5172237323
 30
0.0
 10
126.0479008079
 20
117.5157905955
 30
0.0
 10
126.0485786364
 20
117.5149906507
 30
0.0
 10
126.0490421972
 20
117.5143371955
 30
0.0
 10
126.0496770467
 20
117.5138882317
 30
0.0
 10
126.0504637653
 20
117.5132182843
 30
0.0
 10
126.0518683602
 20
117.5120791099
 30
0.0
 10
126.0538603706
 20
117.5104343431
 30
0.0
 10
126.0562570126
 20
117.5084680599
 30
0.0
 10
126.0594503594
 20
117.5058437514
 30
0.0
 10
126.0634427879
 20
117.5025642552
 30
0.0
 10
126.0698302571
 20
117.4973165639
 30
0.0
 10
126.0778147373
 20
117.4907571217
 30
0.0
 10
126.0873960484
 20
117.4828857123
 30
0.0
 10
126.0969773899
 20
117.4750143432
 30
0.0
 10
126.1049617941
 20
117.4684547999
 30
0.0
 10
126.1113494152
 20
117.4632073109
 30
0.0
 10
126.1153414576
 20
117.4599273006
 30
0.0
 10
126.1185355969
 20
117.4573040472
 30
0.0
 10
126.120929818
 20
117.4553345405
 30
0.0
 10
126.1229294027
 20
117.4536998593
 30
0.0
 10
126.1243204762
 20
117.4525426804
 30
0.0
 10
126.1251288595
 20
117.4519015807
 30
0.0
 10
126.125697162
 20
117.4513640062
 30
0.0
 10
126.126410662
 20
117.451043358
 30
0.0
 10
126.1273113488
 20
117.4505401608
 30
0.0
 10
126.1289111479
 20
117.4496948199
 30
0.0
 10
126.1311842383
 20
117.4484687588
 30
0.0
 10
126.1339172273
 20
117.4470053746
 30
0.0
 10
126.1375593683
 20
117.4450514402
 30
0.0
 10
126.142112676
 20
117.4426099657
 30
0.0
 10
126.1493976154
 20
117.438703079
 30
0.0
 10
126.1585039113
 20
117.4338196529
 30
0.0
 10
126.1694314118
 20
117.4279594577
 30
0.0
 10
126.1803589359
 20
117.4220993065
 30
0.0
 10
126.1894651729
 20
117.4172157705
 30
0.0
 10
126.1967502301
 20
117.4133091036
 30
0.0
 10
126.2013032384
 20
117.4108670705
 30
0.0
 10
126.204945994
 20
117.4089142826
 30
0.0
 10
126.2076771052
 20
117.4074473957
 30
0.0
 10
126.209956071
 20
117.4062322939
 30
0.0
 10
126.2115453814
 20
117.4053673887
 30
0.0
 10
126.2124628737
 20
117.4048955384
 30
0.0
 10
126.2131247526
 20
117.4044786026
 30
0.0
 10
126.2138869355
 20
117.4043026684
 30
0.0
 10
126.2148681921
 20
117.4039840254
 30
0.0
 10
126.2166016925
 20
117.4034655672
 30
0.0
 10
126.2190695992
 20
117.4027044357
 30
0.0
 10
126.222034735
 20
117.4017998427
 30
0.0
 10
126.2259869754
 20
117.4005906573
 30
0.0
 10
126.2309277121
 20
117.3990802238
 30
0.0
 10
126.2388326469
 20
117.3966629442
 30
0.0
 10
126.2487138996
 20
117.3936415471
 30
0.0
 10
126.2605713649
 20
117.3900157777
 30
0.0
 10
126.2724288471
 20
117.386390056
 30
0.0
 10
126.2823100576
 20
117.3833685397
 30
0.0
 10
126.2902150768
 20
117.3809514985
 30
0.0
 10
126.2951555991
 20
117.3794404589
 30
0.0
 10
126.2991082796
 20
117.3782325175
 30
0.0
 10
126.3020720706
 20
117.3773241239
 30
0.0
 10
126.3045441849
 20
117.3765748835
 30
0.0
 10
126.3062701739
 20
117.3760351978
 30
0.0
 10
126.3072634657
 20
117.3757505666
 30
0.0
 10
126.3079886805
 20
117.3754701592
 30
0.0
 10
126.3087894055
 20
117.3754456074
 30
0.0
 10
126.3098307
 20
117.3753236263
 30
0.0
 10
126.311665237
 20
117.3751517404
 30
0.0
 10
126.3142795885
 20
117.3748844502
 30
0.0
 10
126.3174195564
 20
117.3745730068
 30
0.0
 10
126.3216052211
 20
117.374154499
 30
0.0
 10
126.3268376304
 20
117.3736324771
 30
0.0
 10
126.3352093018
 20
117.3727966201
 30
0.0
 10
126.3456739539
 20
117.3717520122
 30
0.0
 10
126.3582315095
 20
117.3704983912
 30
0.0
 10
126.3707890723
 20
117.3692447947
 30
0.0
 10
126.3875324868
 20
117.3675733242
 30
0.0
 10
126.4000900483
 20
117.3663197232
 30
0.0
 10
126.4084617558
 20
117.3654839888
 30
0.0
  0
SPLINE
  5
5FC
100
AcDbEntity
  8
INCISIONI_LASER
100
AcDbSpline
 62
250
  6
CONTINUOUS
 70
0
 71
3
 72
16
 73
12
 74
0
 42
0.0000001
 43
0.0000001
 44
0.0000000001
 40
0.0
 40
0.0
 40
0.0
 40
0.0
 40
0.1111111111
 40
0.2222222222
 40
0.3333333333
 40
0.4444444444
 40
0.5555555556
 40
0.6666666667
 40
0.7777777778
 40
0.8888888889
 40
1.0
 40
1.0
 40
1.0
 40
1.0
 10
116.21770651
 20
112.8563919888
 30
0.0
 10
116.1827775206
 20
112.9393365378
 30
0.0
 10
116.0868897139
 20
113.0955538675
 30
0.0
 10
115.879961625
 20
113.2751437907
 30
0.0
 10
115.6285437128
 20
113.3845499655
 30
0.0
 10
115.3559330198
 20
113.4133943641
 30
0.0
 10
115.0872217652
 20
113.3590916467
 30
0.0
 10
114.8471851307
 20
113.2266485246
 30
0.0
 10
114.6579441019
 20
113.0281914539
 30
0.0
 10
114.5369410436
 20
112.7823313164
 30
0.0
 10
114.5091991697
 20
112.601130189
 30
0.0
 10
114.5091991697
 20
112.5111269888
 30
0.0
  0
SPLINE
  5
5FD
100
AcDbEntity
  8
0
100
AcDbSpline
 62
250
  6
CONTINUOUS
 70
0
 71
3
 72
313
 73
309
 74
0
 42
0.0000001
 43
0.0000001
 44
0.0000000001
 40
0.0
 40
0.0
 40
0.0
 40
0.0
 40
0.015625
 40
0.0234375
 40
0.03125
 40
0.0390625
 40
0.046875
 40
0.05078125
 40
0.0546875
 40
0.056640625
 40
0.05859375
 40
0.060546875
 40
0.0615234375
 40
0.0620117188
 40
0.0625
 40
0.0629882812
 40
0.0634765625
 40
0.064453125
 40
0.06640625
 40
0.068359375
 40
0.0703125
 40
0.07421875
 40
0.078125
 40
0.0859375
 40
0.09375
 40
0.1015625
 40
0.109375
 40
0.11328125
 40
0.1171875
 40
0.119140625
 40
0.12109375
 40
0.123046875
 40
0.1240234375
 40
0.1245117188
 40
0.125
 40
0.1254882812
 40
0.1259765625
 40
0.126953125
 40
0.12890625
 40
0.130859375
 40
0.1328125
 40
0.13671875
 40
0.140625
 40
0.1484375
 40
0.15625
 40
0.1640625
 40
0.171875
 40
0.17578125
 40
0.1796875
 40
0.181640625
 40
0.18359375
 40
0.185546875
 40
0.1865234375
 40
0.1870117188
 40
0.1875
 40
0.1879882812
 40
0.1884765625
 40
0.189453125
 40
0.19140625
 40
0.193359375
 40
0.1953125
 40
0.19921875
 40
0.203125
 40
0.2109375
 40
0.21875
 40
0.2265625
 40
0.234375
 40
0.23828125
 40
0.2421875
 40
0.244140625
 40
0.24609375
 40
0.248046875
 40
0.2490234375
 40
0.2495117188
 40
0.25
 40
0.2504882812
 40
0.2509765625
 40
0.251953125
 40
0.25390625
 40
0.255859375
 40
0.2578125
 40
0.26171875
 40
0.265625
 40
0.2734375
 40
0.28125
 40
0.2890625
 40
0.296875
 40
0.30078125
 40
0.3046875
 40
0.306640625
 40
0.30859375
 40
0.310546875
 40
0.3115234375
 40
0.3120117188
 40
0.3125
 40
0.3129882812
 40
0.3134765625
 40
0.314453125
 40
0.31640625
 40
0.318359375
 40
0.3203125
 40
0.32421875
 40
0.328125
 40
0.3359375
 40
0.34375
 40
0.3515625
 40
0.359375
 40
0.36328125
 40
0.3671875
 40
0.369140625
 40
0.37109375
 40
0.373046875
 40
0.3740234375
 40
0.3745117188
 40
0.375
 40
0.3754882812
 40
0.3759765625
 40
0.376953125
 40
0.37890625
 40
0.380859375
 40
0.3828125
 40
0.38671875
 40
0.390625
 40
0.3984375
 40
0.40625
 40
0.4140625
 40
0.421875
 40
0.42578125
 40
0.4296875
 40
0.431640625
 40
0.43359375
 40
0.435546875
 40
0.4365234375
 40
0.4370117188
 40
0.4375
 40
0.4379882812
 40
0.4384765625
 40
0.439453125
 40
0.44140625
 40
0.443359375
 40
0.4453125
 40
0.44921875
 40
0.453125
 40
0.4609375
 40
0.46875
 40
0.4765625
 40
0.484375
 40
0.48828125
 40
0.4921875
 40
0.494140625
 40
0.49609375
 40
0.498046875
 40
0.4990234375
 40
0.4995117188
 40
0.5
 40
0.5004882812
 40
0.5009765625
 40
0.501953125
 40
0.50390625
 40
0.505859375
 40
0.5078125
 40
0.51171875
 40
0.515625
 40
0.5234375
 40
0.53125
 40
0.5390625
 40
0.546875
 40
0.55078125
 40
0.5546875
 40
0.556640625
 40
0.55859375
 40
0.560546875
 40
0.5615234375
 40
0.5620117188
 40
0.5625
 40
0.5629882812
 40
0.5634765625
 40
0.564453125
 40
0.56640625
 40
0.568359375
 40
0.5703125
 40
0.57421875
 40
0.578125
 40
0.5859375
 40
0.59375
 40
0.6015625
 40
0.609375
 40
0.61328125
 40
0.6171875
 40
0.619140625
 40
0.62109375
 40
0.623046875
 40
0.6240234375
 40
0.6245117188
 40
0.625
 40
0.6254882812
 40
0.6259765625
 40
0.626953125
 40
0.62890625
 40
0.630859375
 40
0.6328125
 40
0.63671875
 40
0.640625
 40
0.6484375
 40
0.65625
 40
0.6640625
 40
0.671875
 40
0.67578125
 40
0.6796875
 40
0.681640625
 40
0.68359375
 40
0.685546875
 40
0.6865234375
 40
0.6870117188
 40
0.6875
 40
0.6879882812
 40
0.6884765625
 40
0.689453125
 40
0.69140625
 40
0.693359375
 40
0.6953125
 40
0.69921875
 40
0.703125
 40
0.7109375
 40
0.71875
 40
0.7265625
 40
0.734375
 40
0.73828125
 40
0.7421875
 40
0.744140625
 40
0.74609375
 40
0.748046875
 40
0.7490234375
 40
0.7495117188
 40
0.75
 40
0.7504882812
 40
0.7509765625
 40
0.751953125
 40
0.75390625
 40
0.755859375
 40
0.7578125
 40
0.76171875
 40
0.765625
 40
0.7734375
 40
0.78125
 40
0.7890625
 40
0.796875
 40
0.80078125
 40
0.8046875
 40
0.806640625
 40
0.80859375
 40
0.810546875
 40
0.8115234375
 40
0.8120117188
 40
0.8125
 40
0.8129882812
 40
0.8134765625
 40
0.814453125
 40
0.81640625
 40
0.818359375
 40
0.8203125
 40
0.82421875
 40
0.828125
 40
0.8359375
 40
0.84375
 40
0.8515625
 40
0.859375
 40
0.86328125
 40
0.8671875
 40
0.869140625
 40
0.87109375
 40
0.873046875
 40
0.8740234375
 40
0.8745117188
 40
0.875
 40
0.8754882812
 40
0.8759765625
 40
0.876953125
 40
0.87890625
 40
0.880859375
 40
0.8828125
 40
0.88671875
 40
0.890625
 40
0.8984375
 40
0.90625
 40
0.9140625
 40
0.921875
 40
0.92578125
 40
0.9296875
 40
0.931640625
 40
0.93359375
 40
0.935546875
 40
0.9365234375
 40
0.9370117188
 40
0.9375
 40
0.9379882812
 40
0.9384765625
 40
0.939453125
 40
0.94140625
 40
0.943359375
 40
0.9453125
 40
0.94921875
 40
0.953125
 40
0.9609375
 40
0.96875
 40
0.9765625
 40
0.984375
 40
1.0
 40
1.0
 40
1.0
 40
1.0
 10
126.4084617114
 20
117.3654839888
 30
0.0
 10
126.4166884358
 20
117.3662907491
 30
0.0
 10
126.4290285225
 20
117.3675008888
 30
0.0
 10
126.4454819709
 20
117.369114411
 30
0.0
 10
126.4578220585
 20
117.3703245462
 30
0.0
 10
126.4701621412
 20
117.3715347059
 30
0.0
 10
126.4804455586
 20
117.3725430961
 30
0.0
 10
126.4886722587
 20
117.3733499791
 30
0.0
 10
126.4938140233
 20
117.3738538919
 30
0.0
 10
126.4979272585
 20
117.3742579131
 30
0.0
 10
126.5010126679
 20
117.3745584895
 30
0.0
 10
126.503582306
 20
117.3748167306
 30
0.0
 10
126.5053840679
 20
117.3749822689
 30
0.0
 10
126.5064089381
 20
117.3751006433
 30
0.0
 10
126.5071908534
 20
117.3751224325
 30
0.0
 10
126.507922072
 20
117.3754002975
 30
0.0
 10
126.5089147138
 20
117.3756814621
 30
0.0
 10
126.5106435977
 20
117.376215117
 30
0.0
 10
126.5131177395
 20
117.3769557233
 30
0.0
 10
126.5160848658
 20
117.3778537639
 30
0.0
 10
126.5200416782
 20
117.3790478985
 30
0.0
 10
126.5249874733
 20
117.3805416805
 30
0.0
 10
126.5329008686
 20
117.3829311092
 30
0.0
 10
126.54279257
 20
117.3859181099
 30
0.0
 10
126.5546626324
 20
117.3895024129
 30
0.0
 10
126.5665326803
 20
117.3930867636
 30
0.0
 10
126.5764244177
 20
117.396073645
 30
0.0
 10
126.584337741
 20
117.3984633124
 30
0.0
 10
126.5892837192
 20
117.3999564876
 30
0.0
 10
126.5932401557
 20
117.4011518677
 30
0.0
 10
126.5962084306
 20
117.4020461034
 30
0.0
 10
126.5986789786
 20
117.4027986143
 30
0.0
 10
126.6004142779
 20
117.4033110174
 30
0.0
 10
126.6013966407
 20
117.4036262327
 30
0.0
 10
126.602159433
 20
117.4037995048
 30
0.0
 10
126.602822763
 20
117.4042141274
 30
0.0
 10
126.6037418965
 20
117.4046827717
 30
0.0
 10
126.6053342159
 20
117.405542123
 30
0.0
 10
126.6076174087
 20
117.4067492611
 30
0.0
 10
126.6103536228
 20
117.4082066043
 30
0.0
 10
126.6140031717
 20
117.4101466628
 30
0.0
 10
126.6185646752
 20
117.4125727856
 30
0.0
 10
126.6258633228
 20
117.4164539953
 30
0.0
 10
126.6349865485
 20
117.42130571
 30
0.0
 10
126.6459344583
 20
117.4271276752
 30
0.0
 10
126.6568823463
 20
117.4329496861
 30
0.0
 10
126.6660056265
 20
117.4378012867
 30
0.0
 10
126.6733041651
 20
117.4416827246
 30
0.0
 10
126.6778659455
 20
117.4441082672
 30
0.0
 10
126.6815149262
 20
117.4460495166
 30
0.0
 10
126.6842528763
 20
117.4475032213
 30
0.0
 10
126.6865306375
 20
117.4487217434
 30
0.0
 10
126.6881326532
 20
117.4495607724
 30
0.0
 10
126.6890362506
 20
117.4500619781
 30
0.0
 10
126.6897473027
 20
117.4503765826
 30
0.0
 10
126.6903308586
 20
117.4509255058
 30
0.0
 10
126.6911534052
 20
117.4515756704
 30
0.0
 10
126.6925721414
 20
117.4527515394
 30
0.0
 10
126.6946097402
 20
117.4544114431
 30
0.0
 10
126.6970502219
 20
117.4564118492
 30
0.0
 10
126.7003058172
 20
117.4590760809
 30
0.0
 10
126.7043747566
 20
117.4624073898
 30
0.0
 10
126.7108853699
 20
117.4677369142
 30
0.0
 10
126.7190235289
 20
117.4743990161
 30
0.0
 10
126.7287893707
 20
117.4823934501
 30
0.0
 10
126.7385551807
 20
117.490387923
 30
0.0
 10
126.7466934194
 20
117.4970499276
 30
0.0
 10
126.7532038733
 20
117.5023796467
 30
0.0
 10
126.7572732177
 20
117.5057104607
 30
0.0
 10
126.7605279818
 20
117.508375708
 30
0.0
 10
126.7629710028
 20
117.5103730114
 30
0.0
 10
126.765000657
 20
117.5120426229
 30
0.0
 10
126.7664335756
 20
117.5132011618
 30
0.0
 10
126.7672333985
 20
117.5138790935
 30
0.0
 10
126.7678867542
 20
117.5143427249
 30
0.0
 10
126.7683356497
 20
117.5149776711
 30
0.0
 10
126.769005495
 20
117.5157645095
 30
0.0
 10
126.7701444959
 20
117.5171693184
 30
0.0
 10
126.7717890122
 20
117.5191616323
 30
0.0
 10
126.7737549959
 20
117.5215586393
 30
0.0
 10
126.7763789047
 20
117.5247524726
 30
0.0
 10
126.7796579015
 20
117.5287455093
 30
0.0
 10
126.7849047934
 20
117.5351339514
 30
0.0
 10
126.7914632366
 20
117.5431196479
 30
0.0
 10
126.7993334472
 20
117.5527024185
 30
0.0
 10
126.8072036174
 20
117.5622852195
 30
0.0
 10
126.8137621617
 20
117.57027084
 30
0.0
 10
126.8190088514
 20
117.576659434
 30
0.0
 10
126.8222883622
 20
117.5806520846
 30
0.0
 10
126.824911216
 20
117.5838467104
 30
0.0
 10
126.8268804228
 20
117.5862412962
 30
0.0
 10
126.8285148551
 20
117.5882411855
 30
0.0
 10
126.8296718577
 20
117.5896324709
 30
0.0
 10
126.8303128597
 20
117.5904409773
 30
0.0
 10
126.8308503524
 20
117.5910093664
 30
0.0
 10
126.8311709517
 20
117.5917229751
 30
0.0
 10
126.8316740723
 20
117.5926237991
 30
0.0
 10
126.8325192844
 20
117.5942238419
 30
0.0
 10
126.8337451588
 20
117.5964972785
 30
0.0
 10
126.8352083201
 20
117.5992306839
 30
0.0
 10
126.837161957
 20
117.6028733796
 30
0.0
 10
126.8396030596
 20
117.607427381
 30
0.0
 10
126.8435093513
 20
117.6147134301
 30
0.0
 10
126.8483920336
 20
117.6238211131
 30
0.0
 10
126.8542513362
 20
117.6347502782
 30
0.0
 10
126.8601105949
 20
117.6456794668
 30
0.0
 10
126.8649933871
 20
117.654787091
 30
0.0
 10
126.868899459
 20
117.6620732579
 30
0.0
 10
126.8713411202
 20
117.6666269597
 30
0.0
 10
126.8732936107
 20
117.6702702703
 30
0.0
 10
126.8747602742
 20
117.6730017974
 30
0.0
 10
126.8759751909
 20
117.6752811104
 30
0.0
 10
126.8768399643
 20
117.6768706629
 30
0.0
 10
126.8773117428
 20
117.677788295
 30
0.0
 10
126.8777286151
 20
117.6784502747
 30
0.0
 10
126.8779045225
 20
117.6792125737
 30
0.0
 10
126.878223117
 20
117.6801939798
 30
0.0
 10
126.8787414962
 20
117.6819277442
 30
0.0
 10
126.8795025118
 20
117.6843960268
 30
0.0
 10
126.880406967
 20
117.6873616144
 30
0.0
 10
126.8816159682
 20
117.6913144567
 30
0.0
 10
126.8831261717
 20
117.6962559461
 30
0.0
 10
126.8855430832
 20
117.7041620851
 30
0.0
 10
126.8885640201
 20
117.7140448429
 30
0.0
 10
126.8921892372
 20
117.7259041145
 30
0.0
 10
126.8958144067
 20
117.7377634029
 30
0.0
 10
126.8988354628
 20
117.7476461186
 30
0.0
 10
126.9012521359
 20
117.7555523419
 30
0.0
 10
126.9027629454
 20
117.7604936168
 30
0.0
 10
126.9039707028
 20
117.7644468994
 30
0.0
 10
126.904878958
 20
117.7674111419
 30
0.0
 10
126.9056280844
 20
117.7698836328
 30
0.0
 10
126.9061676878
 20
117.7716098847
 30
0.0
 10
126.9064522757
 20
117.7726033278
 30
0.0
 10
126.9067326404
 20
117.7733286531
 30
0.0
 10
126.9067571885
 20
117.7741294996
 30
0.0
 10
126.906879151
 20
117.7751709523
 30
0.0
 10
126.9070510107
 20
117.777005768
 30
0.0
 10
126.9073182602
 20
117.7796205165
 30
0.0
 10
126.9076296561
 20
117.7827609614
 30
0.0
 10
126.9080481002
 20
117.7869472618
 30
0.0
 10
126.9085700426
 20
117.7921804658
 30
0.0
 10
126.9094057725
 20
117.8005534087
 30
0.0
 10
126.9104502199
 20
117.8110196502
 30
0.0
 10
126.9117036554
 20
117.8235791136
 30
0.0
 10
126.9129570408
 20
117.8361385819
 30
0.0
 10
126.9140016134
 20
117.8466048109
 30
0.0
 10
126.914837093
 20
117.8549777788
 30
0.0
 10
126.9153596716
 20
117.8602109193
 30
0.0
 10
126.9157768099
 20
117.8643973501
 30
0.0
 10
126.916092195
 20
117.8675373967
 30
0.0
 10
126.9163469635
 20
117.8701533912
 30
0.0
 10
126.9165411039
 20
117.8719859827
 30
0.0
 10
126.916627367
 20
117.8730309992
 30
0.0
 10
126.9167615723
 20
117.8738208987
 30
0.0
 10
126.9166300829
 20
117.8745873388
 30
0.0
 10
126.916547441
 20
117.8756174419
 30
0.0
 10
126.9163596377
 20
117.8774163097
 30
0.0
 10
126.9161139223
 20
117.8799881142
 30
0.0
 10
126.9158094009
 20
117.8830734263
 30
0.0
 10
126.9154067474
 20
117.8871874738
 30
0.0
 10
126.914902275
 20
117.8923299311
 30
0.0
 10
126.9140957651
 20
117.9005579199
 30
0.0
 10
126.9130874047
 20
117.9108428861
 30
0.0
 10
126.9118774739
 20
117.9231848552
 30
0.0
 10
126.9106674931
 20
117.9355268172
 30
0.0
 10
126.9096592578
 20
117.9458118012
 30
0.0
 10
126.9088524976
 20
117.9540397544
 30
0.0
 10
126.9083486615
 20
117.9591823022
 30
0.0
 10
126.9079447018
 20
117.963296164
 30
0.0
 10
126.9076441713
 20
117.9663820434
 30
0.0
 10
126.9073859695
 20
117.9689520729
 30
0.0
 10
126.9072204563
 20
117.9707541093
 30
0.0
 10
126.9071021
 20
117.9717791356
 30
0.0
 10
126.9070803141
 20
117.97256117
 30
0.0
 10
126.9068024914
 20
117.9732925
 30
0.0
 10
126.9065213696
 20
117.974285293
 30
0.0
 10
126.9059877961
 20
117.9760144403
 30
0.0
 10
126.9052473026
 20
117.9784889589
 30
0.0
 10
126.9043493987
 20
117.9814565372
 30
0.0
 10
126.903155446
 20
117.9854139524
 30
0.0
 10
126.9016618914
 20
117.9903605008
 30
0.0
 10
126.8992728268
 20
117.9982751016
 30
0.0
 10
126.8962862809
 20
118.0081683097
 30
0.0
 10
126.8927025239
 20
118.0200401802
 30
0.0
 10
126.889118719
 20
118.0319120363
 30
0.0
 10
126.8861322926
 20
118.0418052805
 30
0.0
 10
126.8837429892
 20
118.0497198092
 30
0.0
 10
126.8822500413
 20
118.0546665408
 30
0.0
 10
126.8810548433
 20
118.05862358
 30
0.0
 10
126.8801607439
 20
118.0615923071
 30
0.0
 10
126.8794083475
 20
118.0640632315
 30
0.0
 10
126.8788960225
 20
118.0657987951
 30
0.0
 10
126.8785808552
 20
118.0667813075
 30
0.0
 10
126.8784076094
 20
118.067544216
 30
0.0
 10
126.87799305
 20
118.068207647
 30
0.0
 10
126.8775244771
 20
118.0691269206
 30
0.0
 10
126.8766652567
 20
118.0707194825
 30
0.0
 10
126.8754583024
 20
118.0730030231
 30
0.0
 10
126.8740011812
 20
118.075739654
 30
0.0
 10
126.8720614182
 20
118.0793897588
 30
0.0
 10
126.8696356649
 20
118.0839519572
 30
0.0
 10
126.8657550463
 20
118.0912517165
 30
0.0
 10
126.8609040705
 20
118.100376332
 30
0.0
 10
126.8550829921
 20
118.1113259094
 30
0.0
 10
126.8492618679
 20
118.1222754651
 30
0.0
 10
126.8444110062
 20
118.131400135
 30
0.0
 10
126.8405301594
 20
118.1386997854
 30
0.0
 10
126.8381049863
 20
118.1432622607
 30
0.0
 10
126.8361640325
 20
118.1469117972
 30
0.0
 10
126.8347105492
 20
118.1496501644
 30
0.0
 10
126.8334922128
 20
118.1519282725
 30
0.0
 10
126.8326533115
 20
118.1535305324
 30
0.0
 10
126.8321521822
 20
118.1544342674
 30
0.0
 10
126.8318376255
 20
118.1551454278
 30
0.0
 10
126.831288786
 20
118.1557290726
 30
0.0
 10
126.8306387204
 20
118.1565517445
 30
0.0
 10
126.8294630305
 20
118.1579706967
 30
0.0
 10
126.8278033797
 20
118.1600086059
 30
0.0
 10
126.8258032782
 20
118.1624494595
 30
0.0
 10
126.8231394522
 20
118.1657055506
 30
0.0
 10
126.8198086508
 20
118.1697751099
 30
0.0
 10
126.8144799381
 20
118.1762867149
 30
0.0
 10
126.8078188508
 20
118.1844261136
 30
0.0
 10
126.7998256344
 20
118.194193443
 30
0.0
 10
126.7918323791
 20
118.2039607406
 30
0.0
 10
126.7851713892
 20
118.212100219
 30
0.0
 10
126.7798424818
 20
118.2186116646
 30
0.0
 10
126.7765121751
 20
118.2226816289
 30
0.0
 10
126.7738473337
 20
118.2259368888
 30
0.0
 10
126.7718503345
 20
118.2283802819
 30
0.0
 10
126.7701809773
 20
118.2304102453
 30
0.0
 10
126.7690226149
 20
118.2318433821
 30
0.0
 10
126.7683447864
 20
118.2326433269
 30
0.0
 10
126.7678812256
 20
118.2332967821
 30
0.0
 10
126.7672463761
 20
118.2337457459
 30
0.0
 10
126.7664596576
 20
118.2344156933
 30
0.0
 10
126.7650550627
 20
118.2355548677
 30
0.0
 10
126.7630630522
 20
118.2371996345
 30
0.0
 10
126.7606664102
 20
118.2391659177
 30
0.0
 10
126.7574730634
 20
118.2417902262
 30
0.0
 10
126.7534806349
 20
118.2450697224
 30
0.0
 10
126.7470931657
 20
118.2503174137
 30
0.0
 10
126.7391086855
 20
118.2568768559
 30
0.0
 10
126.7295273744
 20
118.2647482654
 30
0.0
 10
126.7199460329
 20
118.2726196344
 30
0.0
 10
126.7119616287
 20
118.2791791777
 30
0.0
 10
126.7055740076
 20
118.2844266667
 30
0.0
 10
126.7015819652
 20
118.287706677
 30
0.0
 10
126.698387826
 20
118.2903299304
 30
0.0
 10
126.6959936048
 20
118.2922994371
 30
0.0
 10
126.6939940201
 20
118.2939341183
 30
0.0
 10
126.6926029466
 20
118.2950912972
 30
0.0
 10
126.6917945634
 20
118.2957323969
 30
0.0
 10
126.6912262608
 20
118.2962699714
 30
0.0
 10
126.6905127608
 20
118.2965906196
 30
0.0
 10
126.689612074
 20
118.2970938169
 30
0.0
 10
126.6880122749
 20
118.2979391577
 30
0.0
 10
126.6857391846
 20
118.2991652188
 30
0.0
 10
126.6830061955
 20
118.300628603
 30
0.0
 10
126.6793640546
 20
118.3025825374
 30
0.0
 10
126.6748107468
 20
118.3050240119
 30
0.0
 10
126.6675258074
 20
118.3089308986
 30
0.0
 10
126.6584195115
 20
118.3138143247
 30
0.0
 10
126.647492011
 20
118.3196745199
 30
0.0
 10
126.6365644869
 20
118.3255346711
 30
0.0
 10
126.6274582499
 20
118.3304182071
 30
0.0
 10
126.6201731927
 20
118.334324874
 30
0.0
 10
126.6156201845
 20
118.3367669071
 30
0.0
 10
126.6119774288
 20
118.338719695
 30
0.0
 10
126.6092463177
 20
118.340186582
 30
0.0
 10
126.6069673518
 20
118.3414016837
 30
0.0
 10
126.6053780414
 20
118.3422665889
 30
0.0
 10
126.6044605491
 20
118.3427384392
 30
0.0
 10
126.6037986702
 20
118.343155375
 30
0.0
 10
126.6030364874
 20
118.3433313092
 30
0.0
 10
126.6020552307
 20
118.3436499522
 30
0.0
 10
126.6003217303
 20
118.3441684104
 30
0.0
 10
126.5978538237
 20
118.3449295419
 30
0.0
 10
126.5948886878
 20
118.3458341349
 30
0.0
 10
126.5909364475
 20
118.3470433203
 30
0.0
 10
126.5859957107
 20
118.3485537538
 30
0.0
 10
126.5780907759
 20
118.3509710334
 30
0.0
 10
126.5682095232
 20
118.3539924305
 30
0.0
 10
126.5563520579
 20
118.3576181999
 30
0.0
 10
126.5444945757
 20
118.3612439216
 30
0.0
 10
126.5346133652
 20
118.3642654379
 30
0.0
 10
126.526708346
 20
118.3666824791
 30
0.0
 10
126.5217678238
 20
118.3681935187
 30
0.0
 10
126.5178151432
 20
118.3694014601
 30
0.0
 10
126.5148513522
 20
118.3703098537
 30
0.0
 10
126.5123792379
 20
118.3710590941
 30
0.0
 10
126.5106532489
 20
118.3715987798
 30
0.0
 10
126.5096599571
 20
118.371883411
 30
0.0
 10
126.5089347423
 20
118.3721638184
 30
0.0
 10
126.5081340173
 20
118.3721883703
 30
0.0
 10
126.5070927229
 20
118.3723103513
 30
0.0
 10
126.5052581858
 20
118.3724822372
 30
0.0
 10
126.5026438343
 20
118.3727495275
 30
0.0
 10
126.4995038664
 20
118.3730609708
 30
0.0
 10
126.4953182017
 20
118.3734794786
 30
0.0
 10
126.4900857924
 20
118.3740015005
 30
0.0
 10
126.4817141211
 20
118.3748373576
 30
0.0
 10
126.4712494689
 20
118.3758819654
 30
0.0
 10
126.4586919133
 20
118.3771355864
 30
0.0
 10
126.4461343505
 20
118.3783891829
 30
0.0
 10
126.429390936
 20
118.3800606534
 30
0.0
 10
126.4168333745
 20
118.3813142544
 30
0.0
 10
126.408461667
 20
118.3821499888
 30
0.0
  0
SPLINE
  5
5FE
100
AcDbEntity
  8
0
100
AcDbSpline
 62
250
  6
CONTINUOUS
 70
0
 71
3
 72
30
 73
26
 74
0
 42
0.0000001
 43
0.0000001
 44
0.0000000001
 40
0.0
 40
0.0
 40
0.0
 40
0.0
 40
0.0263157895
 40
0.0526315789
 40
0.0789473684
 40
0.1052631579
 40
0.1578947368
 40
0.2105263158
 40
0.2631578947
 40
0.3157894737
 40
0.3684210526
 40
0.4210526316
 40
0.4736842105
 40
0.5263157895
 40
0.5789473684
 40
0.6315789474
 40
0.6842105263
 40
0.7368421053
 40
0.7894736842
 40
0.8421052632
 40
0.8947368421
 40
0.9210526316
 40
0.9473684211
 40
0.9736842105
 40
1.0
 40
1.0
 40
1.0
 40
1.0
 10
127.4084627113
 20
107.5149023032
 30
0.0
 10
127.3452904023
 20
107.5149023032
 30
0.0
 10
127.2219110795
 20
107.5228935698
 30
0.0
 10
127.0396824141
 20
107.5564275891
 30
0.0
 10
126.8630654695
 20
107.610143103
 30
0.0
 10
126.6372412649
 20
107.7071798871
 30
0.0
 10
126.3760144597
 20
107.871571806
 30
0.0
 10
126.1000801497
 20
108.1305438469
 30
0.0
 10
125.8650518359
 20
108.4408049926
 30
0.0
 10
125.6781951859
 20
108.7857765158
 30
0.0
 10
125.5409750848
 20
109.1532346304
 30
0.0
 10
125.4514188656
 20
109.5324525331
 30
0.0
 10
125.4064931176
 20
109.9192991044
 30
0.0
 10
125.4066973958
 20
110.3075479349
 30
0.0
 10
125.4522475625
 20
110.6950833383
 30
0.0
 10
125.5420557024
 20
111.0728248801
 30
0.0
 10
125.6784268788
 20
111.437146633
 30
0.0
 10
125.8632174513
 20
111.7788150182
 30
0.0
 10
126.095678731
 20
112.0871455962
 30
0.0
 10
126.3700437003
 20
112.3466522624
 30
0.0
 10
126.6320636399
 20
112.5129718457
 30
0.0
 10
126.8592348395
 20
112.6113355263
 30
0.0
 10
127.0371634361
 20
112.6658432823
 30
0.0
 10
127.2206108438
 20
112.6998243626
 30
0.0
 10
127.344843966
 20
112.7079296744
 30
0.0
 10
127.4084627113
 20
112.7079296744
 30
0.0
  0
SPLINE
  5
5FF
100
AcDbEntity
  8
0
100
AcDbSpline
 62
250
  6
CONTINUOUS
 70
0
 71
3
 72
30
 73
26
 74
0
 42
0.0000001
 43
0.0000001
 44
0.0000000001
 40
0.0
 40
0.0
 40
0.0
 40
0.0
 40
0.0263157895
 40
0.0526315789
 40
0.0789473684
 40
0.1052631579
 40
0.1578947368
 40
0.2105263158
 40
0.2631578947
 40
0.3157894737
 40
0.3684210526
 40
0.4210526316
 40
0.4736842105
 40
0.5263157895
 40
0.5789473684
 40
0.6315789474
 40
0.6842105263
 40
0.7368421053
 40
0.7894736842
 40
0.8421052632
 40
0.8947368421
 40
0.9210526316
 40
0.9473684211
 40
0.9736842105
 40
1.0
 40
1.0
 40
1.0
 40
1.0
 10
127.4084627113
 20
112.7079296744
 30
0.0
 10
127.4716350202
 20
112.7079296744
 30
0.0
 10
127.595014343
 20
112.6999384078
 30
0.0
 10
127.7772430084
 20
112.6664043886
 30
0.0
 10
127.953859953
 20
112.6126888746
 30
0.0
 10
128.1796841576
 20
112.5156520905
 30
0.0
 10
128.4409109628
 20
112.3512601716
 30
0.0
 10
128.7168452728
 20
112.0922881307
 30
0.0
 10
128.9518735866
 20
111.782026985
 30
0.0
 10
129.1387302366
 20
111.4370554618
 30
0.0
 10
129.2759503377
 20
111.0695973472
 30
0.0
 10
129.3655065569
 20
110.6903794445
 30
0.0
 10
129.4104323049
 20
110.3035328732
 30
0.0
 10
129.4102280267
 20
109.9152840427
 30
0.0
 10
129.36467786
 20
109.5277486393
 30
0.0
 10
129.2748697201
 20
109.1500070975
 30
0.0
 10
129.1384985437
 20
108.7856853446
 30
0.0
 10
128.9537079712
 20
108.4440169595
 30
0.0
 10
128.7212466915
 20
108.1356863815
 30
0.0
 10
128.4468817222
 20
107.8761797152
 30
0.0
 10
128.1848617827
 20
107.7098601319
 30
0.0
 10
127.9576905831
 20
107.6114964513
 30
0.0
 10
127.7797619865
 20
107.5569886953
 30
0.0
 10
127.5963145787
 20
107.523007615
 30
0.0
 10
127.4720814565
 20
107.5149023032
 30
0.0
 10
127.4084627113
 20
107.5149023032
 30
0.0
  0
SPLINE
  5
600
100
AcDbEntity
  8
0
100
AcDbSpline
 62
250
  6
CONTINUOUS
 70
0
 71
3
 72
8
 73
4
 74
0
 42
0.0000001
 43
0.0000001
 44
0.0000000001
 40
0.0
 40
0.0
 40
0.0
 40
0.0
 40
1.0
 40
1.0
 40
1.0
 40
1.0
 10
125.3302891307
 20
118.9521553802
 30
0.0
 10
125.0535118847
 20
118.6700280399
 30
0.0
 10
124.8836949773
 20
118.262879048
 30
0.0
 10
124.8836949773
 20
117.8738175628
 30
0.0
  0
LINE
  5
601
100
AcDbEntity
  8
CASTELLO
100
AcDbLine
 62
7
  6
CONTINUOUS
 10
100.7961903188
 20
131.4835514104
 11
100.7580275588
 21
129.6114159888
  0
LINE
  5
602
100
AcDbEntity
  8
CASTELLO
100
AcDbLine
 62
7
  6
CONTINUOUS
 10
100.7580275588
 20
129.6114159888
 11
100.7233910269
 21
127.5479583817
  0
SPLINE
  5
603
100
AcDbEntity
  8
CASTELLO
100
AcDbSpline
 62
7
  6
CONTINUOUS
 70
0
 71
3
 72
10
 73
6
 74
0
 42
0.0000001
 43
0.0000001
 44
0.0000000001
 40
0.0
 40
0.0
 40
0.0
 40
0.0
 40
0.2499990627
 40
0.5000869452
 40
1.0
 40
1.0
 40
1.0
 40
1.0
 10
100.7961903188
 20
131.4835514104
 30
0.0
 10
100.8387280356
 20
131.8140230283
 30
0.0
 10
100.9421814947
 20
132.4729099596
 30
0.0
 10
101.2219680005
 20
133.7764419427
 30
0.0
 10
101.5130110914
 20
134.7355859471
 30
0.0
 10
101.7416362158
 20
135.3614159888
 30
0.0
  0
SPLINE
  5
604
100
AcDbEntity
  8
CASTELLO
100
AcDbSpline
 62
250
  6
CONTINUOUS
 70
0
 71
3
 72
26
 73
22
 74
0
 42
0.0000001
 43
0.0000001
 44
0.0000000001
 40
0.0
 40
0.0
 40
0.0
 40
0.0
 40
0.1952383918
 40
0.3828751996
 40
0.5557522696
 40
0.6345521823
 40
0.7072377922
 40
0.7731077036
 40
0.8315332971
 40
0.8819531884
 40
0.9238816869
 40
0.9415349589
 40
0.9569209738
 40
0.9700022033
 40
0.980750657
 40
0.9891391387
 40
0.9951459694
 40
0.9972533339
 40
0.99876251
 40
0.9996742483
 40
1.0
 40
1.0
 40
1.0
 40
1.0
 10
108.6570082784
 20
93.2670784215
 30
0.0
 10
108.6488966711
 20
93.2811286131
 30
0.0
 10
108.6330026546
 20
93.3086896777
 30
0.0
 10
108.6099725776
 20
93.3487185071
 30
0.0
 10
108.5918033211
 20
93.3803811965
 30
0.0
 10
108.5784135736
 20
93.4037735091
 30
0.0
 10
108.5694539573
 20
93.4194560562
 30
0.0
 10
108.5613480614
 20
93.4336764746
 30
0.0
 10
108.5541735704
 20
93.4462981352
 30
0.0
 10
108.5479992699
 20
93.4571998787
 30
0.0
 10
108.5435113484
 20
93.4651631343
 30
0.0
 10
108.5404668333
 20
93.4705979252
 30
0.0
 10
108.5386007056
 20
93.4739456685
 30
0.0
 10
108.5370229299
 20
93.4767960153
 30
0.0
 10
108.5357336398
 20
93.4791448894
 30
0.0
 10
108.5347448248
 20
93.4809789719
 30
0.0
 10
108.5340949496
 20
93.4822000174
 30
0.0
 10
108.5337473173
 20
93.48290263
 30
0.0
 10
108.5335637126
 20
93.483260671
 30
0.0
 10
108.5335106845
 20
93.4834368437
 30
0.0
 10
108.533439269
 20
93.483571238
 30
0.0
 10
108.5334627113
 20
93.4835847725
 30
0.0
  0
SPLINE
  5
605
100
AcDbEntity
  8
CASTELLO
100
AcDbSpline
 62
7
  6
CONTINUOUS
 70
0
 71
3
 72
13
 73
9
 74
0
 42
0.0000001
 43
0.0000001
 44
0.0000000001
 40
0.0
 40
0.0
 40
0.0
 40
0.0
 40
0.0225227418
 40
0.0871911485
 40
0.1883898844
 40
0.3188730435
 40
0.6394257438
 40
1.0
 40
1.0
 40
1.0
 40
1.0
 10
111.9084627113
 20
140.8114159888
 30
0.0
 10
111.9066290382
 20
140.8125538021
 30
0.0
 10
111.8994958305
 20
140.8169008441
 30
0.0
 10
111.8838747632
 20
140.8259450238
 30
0.0
 10
111.8593711312
 20
140.8402855647
 30
0.0
 10
111.8136108799
 20
140.8668420547
 30
0.0
 10
111.746335191
 20
140.9058309718
 30
0.0
 10
111.6898340143
 20
140.9384806046
 30
0.0
 10
111.6599171441
 20
140.9557535561
 30
0.0
  0
SPLINE
  5
606
100
AcDbEntity
  8
CASTELLO
100
AcDbSpline
 62
250
  6
CONTINUOUS
 70
0
 71
3
 72
26
 73
22
 74
0
 42
0.0000001
 43
0.0000001
 44
0.0000000001
 40
0.0
 40
0.0
 40
0.0
 40
0.0
 40
0.0003336228
 40
0.0012487957
 40
0.0027607629
 40
0.0048708913
 40
0.0108838711
 40
0.0192797588
 40
0.0300369534
 40
0.0431282632
 40
0.0585256394
 40
0.076191382
 40
0.1181475232
 40
0.1685972475
 40
0.2270528812
 40
0.2929506998
 40
0.3656595516
 40
0.4444752648
 40
0.6173498903
 40
0.804918698
 40
1.0
 40
1.0
 40
1.0
 40
1.0
 10
111.6599171441
 20
92.6157878228
 30
0.0
 10
111.659944947
 20
92.6157879846
 30
0.0
 10
111.6599581589
 20
92.6159381546
 30
0.0
 10
111.6599986196
 20
92.6161217049
 30
0.0
 10
111.6600235659
 20
92.6165235169
 30
0.0
 10
111.6600746193
 20
92.617310058
 30
0.0
 10
111.6601236031
 20
92.6186970254
 30
0.0
 10
111.660180763
 20
92.6207881905
 30
0.0
 10
111.6602324165
 20
92.6234769759
 30
0.0
 10
111.6602812581
 20
92.6267465367
 30
0.0
 10
111.6603257242
 20
92.6305929534
 30
0.0
 10
111.6603827431
 20
92.6368445373
 30
0.0
 10
111.6604392084
 20
92.6460175833
 30
0.0
 10
111.6604860304
 20
92.6585899573
 30
0.0
 10
111.6605140137
 20
92.6731576758
 30
0.0
 10
111.6605227965
 20
92.6895804334
 30
0.0
 10
111.6605120986
 20
92.7076999596
 30
0.0
 10
111.66047056
 20
92.7347346783
 30
0.0
 10
111.6603685695
 20
92.7713414868
 30
0.0
 10
111.6601793298
 20
92.8176373757
 30
0.0
 10
111.6600117236
 20
92.8495262008
 30
0.0
 10
111.6599171441
 20
92.865783592
 30
0.0
  0
LINE
  5
607
100
AcDbEntity
  8
CASTELLO
100
AcDbLine
 62
7
  6
CONTINUOUS
 10
110.9084627113
 20
141.3614202196
 11
110.9084627113
 21
141.6114159888
  0
SPLINE
  5
608
100
AcDbEntity
  8
CASTELLO
100
AcDbSpline
 62
250
  6
CONTINUOUS
 70
0
 71
3
 72
26
 73
22
 74
0
 42
0.0000001
 43
0.0000001
 44
0.0000000001
 40
0.0
 40
0.0
 40
0.0
 40
0.0
 40
0.1952381202
 40
0.3828749837
 40
0.5557520914
 40
0.6345520338
 40
0.7072376715
 40
0.7731076099
 40
0.8315332255
 40
0.8819531408
 40
0.9238816554
 40
0.9415349362
 40
0.956920956
 40
0.9700021908
 40
0.9807506497
 40
0.9891391341
 40
0.9951459668
 40
0.9972533322
 40
0.9987625092
 40
0.9996742481
 40
1.0
 40
1.0
 40
1.0
 40
1.0
 10
111.6599171441
 20
93.2670784215
 30
0.0
 10
111.6680287401
 20
93.2811285935
 30
0.0
 10
111.6839227477
 20
93.3086896426
 30
0.0
 10
111.7069528173
 20
93.3487184592
 30
0.0
 10
111.725122079
 20
93.3803811574
 30
0.0
 10
111.7385118305
 20
93.4037734768
 30
0.0
 10
111.7474714503
 20
93.41945603
 30
0.0
 10
111.7555773493
 20
93.433676454
 30
0.0
 10
111.7627518433
 20
93.4462981198
 30
0.0
 10
111.7689261464
 20
93.4571998678
 30
0.0
 10
111.7734140699
 20
93.465163127
 30
0.0
 10
111.7764585863
 20
93.47059792
 30
0.0
 10
111.7783247148
 20
93.4739456646
 30
0.0
 10
111.7799024911
 20
93.4767960125
 30
0.0
 10
111.7811917817
 20
93.4791448876
 30
0.0
 10
111.7821805972
 20
93.4809789708
 30
0.0
 10
111.7828304726
 20
93.4822000168
 30
0.0
 10
111.783178105
 20
93.4829026296
 30
0.0
 10
111.7833617098
 20
93.4832606708
 30
0.0
 10
111.7834147379
 20
93.4834368436
 30
0.0
 10
111.7834861536
 20
93.483571238
 30
0.0
 10
111.7834627113
 20
93.4835847725
 30
0.0
  0
SPLINE
  5
609
100
AcDbEntity
  8
CASTELLO
100
AcDbSpline
 62
250
  6
CONTINUOUS
 70
0
 71
3
 72
26
 73
22
 74
0
 42
0.0000001
 43
0.0000001
 44
0.0000000001
 40
0.0
 40
0.0
 40
0.0
 40
0.0
 40
0.1950812131
 40
0.3826499456
 40
0.5555245119
 40
0.6343402047
 40
0.7070490478
 40
0.7729468713
 40
0.8314025054
 40
0.881852257
 40
0.9238084245
 40
0.9414741935
 40
0.956871577
 40
0.9699629139
 40
0.9807201421
 40
0.9891160416
 40
0.9951290477
 40
0.9972391968
 40
0.998751184
 40
0.9996663718
 40
1.0
 40
1.0
 40
1.0
 40
1.0
 10
108.6570082784
 20
141.3483216409
 30
0.0
 10
108.6569136989
 20
141.3645790247
 30
0.0
 10
108.6567460928
 20
141.3964678361
 30
0.0
 10
108.6565568531
 20
141.4427637063
 30
0.0
 10
108.6564548626
 20
141.4793705019
 30
0.0
 10
108.656413324
 20
141.5064052132
 30
0.0
 10
108.656402626
 20
141.5245247374
 30
0.0
 10
108.6564114087
 20
141.5409474947
 30
0.0
 10
108.656439392
 20
141.5555152159
 30
0.0
 10
108.6564862137
 20
141.5680875944
 30
0.0
 10
108.6565426792
 20
141.5772606471
 30
0.0
 10
108.6565996978
 20
141.583512236
 30
0.0
 10
108.6566441639
 20
141.5873586577
 30
0.0
 10
108.6566930054
 20
141.5906282241
 30
0.0
 10
108.6567446587
 20
141.5933170156
 30
0.0
 10
108.656801819
 20
141.5954081867
 30
0.0
 10
108.6568508029
 20
141.5967951591
 30
0.0
 10
108.6569018567
 20
141.5975817055
 30
0.0
 10
108.6569268025
 20
141.5979835227
 30
0.0
 10
108.6569672642
 20
141.5981670752
 30
0.0
 10
108.656980475
 20
141.5983172483
 30
0.0
 10
108.6570082784
 20
141.5983174101
 30
0.0
  0
SPLINE
  5
60A
100
AcDbEntity
  8
CASTELLO
100
AcDbSpline
 62
250
  6
CONTINUOUS
 70
0
 71
3
 72
26
 73
22
 74
0
 42
0.0000001
 43
0.0000001
 44
0.0000000001
 40
0.0
 40
0.0
 40
0.0
 40
0.0
 40
0.1950806194
 40
0.3826494983
 40
0.5555241467
 40
0.6343398971
 40
0.7070487948
 40
0.7729466726
 40
0.831402351
 40
0.8818521527
 40
0.9238083539
 40
0.9414741419
 40
0.9568715356
 40
0.9699628847
 40
0.9807201252
 40
0.9891160312
 40
0.9951290418
 40
0.9972391931
 40
0.9987511822
 40
0.9996663713
 40
1.0
 40
1.0
 40
1.0
 40
1.0
 10
111.6599171441
 20
141.3570483856
 30
0.0
 10
111.6600117233
 20
141.3733057199
 30
0.0
 10
111.6601793292
 20
141.4051944941
 30
0.0
 10
111.660368569
 20
141.4514903338
 30
0.0
 10
111.6604705597
 20
141.4880971533
 30
0.0
 10
111.6605120985
 20
141.5151318808
 30
0.0
 10
111.6605227965
 20
141.5332514188
 30
0.0
 10
111.6605140139
 20
141.5496741889
 30
0.0
 10
111.6604860306
 20
141.5642419225
 30
0.0
 10
111.660439209
 20
141.5768143116
 30
0.0
 10
111.6603827435
 20
141.5859873729
 30
0.0
 10
111.6603257249
 20
141.592238967
 30
0.0
 10
111.6602812587
 20
141.5960853923
 30
0.0
 10
111.6602324173
 20
141.5993549616
 30
0.0
 10
111.660180764
 20
141.6020437556
 30
0.0
 10
111.6601236036
 20
141.6041349286
 30
0.0
 10
111.6600746196
 20
141.6055219022
 30
0.0
 10
111.6600235658
 20
141.6063084492
 30
0.0
 10
111.65999862
 20
141.606710267
 30
0.0
 10
111.6599581583
 20
141.6068938197
 30
0.0
 10
111.6599449475
 20
141.607043993
 30
0.0
 10
111.6599171441
 20
141.6070441548
 30
0.0
  0
SPLINE
  5
60B
100
AcDbEntity
  8
CASTELLO
100
AcDbSpline
 62
250
  6
CONTINUOUS
 70
0
 71
3
 72
26
 73
22
 74
0
 42
0.0000001
 43
0.0000001
 44
0.0000000001
 40
0.0
 40
0.0
 40
0.0
 40
0.0
 40
0.0003336282
 40
0.001248816
 40
0.0027608032
 40
0.0048709523
 40
0.0108839584
 40
0.0192798579
 40
0.0300370861
 40
0.043128423
 40
0.0585258065
 40
0.0761915755
 40
0.118147743
 40
0.1685974946
 40
0.2270531287
 40
0.2929509522
 40
0.3656597953
 40
0.4444754881
 40
0.6173500544
 40
0.8049187869
 40
1.0
 40
1.0
 40
1.0
 40
1.0
 10
108.6570082784
 20
92.6245145675
 30
0.0
 10
108.656980475
 20
92.6245147293
 30
0.0
 10
108.6569672642
 20
92.6246649024
 30
0.0
 10
108.6569268025
 20
92.6248484549
 30
0.0
 10
108.6569018567
 20
92.6252502721
 30
0.0
 10
108.6568508029
 20
92.6260368185
 30
0.0
 10
108.656801819
 20
92.6274237909
 30
0.0
 10
108.6567446587
 20
92.629514962
 30
0.0
 10
108.6566930054
 20
92.6322037535
 30
0.0
 10
108.6566441639
 20
92.6354733199
 30
0.0
 10
108.6565996978
 20
92.6393197416
 30
0.0
 10
108.6565426792
 20
92.6455713306
 30
0.0
 10
108.6564862137
 20
92.6547443832
 30
0.0
 10
108.656439392
 20
92.6673167617
 30
0.0
 10
108.6564114087
 20
92.6818844829
 30
0.0
 10
108.656402626
 20
92.6983072402
 30
0.0
 10
108.656413324
 20
92.7164267644
 30
0.0
 10
108.6564548626
 20
92.7434614757
 30
0.0
 10
108.6565568531
 20
92.7800682713
 30
0.0
 10
108.6567460928
 20
92.8263641415
 30
0.0
 10
108.6569136989
 20
92.8582529529
 30
0.0
 10
108.6570082784
 20
92.8745103367
 30
0.0
  0
SPLINE
  5
60C
100
AcDbEntity
  8
CASTELLO
100
AcDbSpline
 62
7
  6
CONTINUOUS
 70
0
 71
3
 72
9
 73
5
 74
0
 42
0.0000001
 43
0.0000001
 44
0.0000000001
 40
0.0
 40
0.0
 40
0.0
 40
0.0
 40
0.517786632
 40
1.0
 40
1.0
 40
1.0
 40
1.0
 10
109.6570082784
 20
139.4448269502
 30
0.0
 10
109.6356002812
 20
139.4436891908
 30
0.0
 10
109.5942362619
 20
139.4418616836
 30
0.0
 10
109.5528575575
 20
139.4403717331
 30
0.0
 10
109.5329195693
 20
139.4393268274
 30
0.0
  0
SPLINE
  5
60D
100
AcDbEntity
  8
CASTELLO
100
AcDbSpline
 62
250
  6
CONTINUOUS
 70
0
 71
3
 72
26
 73
22
 74
0
 42
0.0000001
 43
0.0000001
 44
0.0000000001
 40
0.0
 40
0.0
 40
0.0
 40
0.0
 40
0.1952381202
 40
0.3828749837
 40
0.5557520914
 40
0.6345520338
 40
0.7072376715
 40
0.7731076099
 40
0.8315332255
 40
0.8819531408
 40
0.9238816554
 40
0.9415349362
 40
0.956920956
 40
0.9700021908
 40
0.9807506497
 40
0.9891391341
 40
0.9951459668
 40
0.9972533322
 40
0.9987625092
 40
0.9996742481
 40
1.0
 40
1.0
 40
1.0
 40
1.0
 10
108.6570082784
 20
140.9557535561
 30
0.0
 10
108.6488966824
 20
140.9417033841
 30
0.0
 10
108.6330026748
 20
140.914142335
 30
0.0
 10
108.6099726052
 20
140.8741135184
 30
0.0
 10
108.5918033435
 20
140.8424508202
 30
0.0
 10
108.5784135921
 20
140.8190585008
 30
0.0
 10
108.5694539722
 20
140.8033759476
 30
0.0
 10
108.5613480732
 20
140.7891555236
 30
0.0
 10
108.5541735792
 20
140.7765338578
 30
0.0
 10
108.5479992761
 20
140.7656321098
 30
0.0
 10
108.5435113526
 20
140.7576688507
 30
0.0
 10
108.5404668362
 20
140.7522340576
 30
0.0
 10
108.5386007077
 20
140.748886313
 30
0.0
 10
108.5370229314
 20
140.7460359651
 30
0.0
 10
108.5357336408
 20
140.74368709
 30
0.0
 10
108.5347448253
 20
140.7418530068
 30
0.0
 10
108.5340949499
 20
140.7406319608
 30
0.0
 10
108.5337473175
 20
140.739929348
 30
0.0
 10
108.5335637127
 20
140.7395713068
 30
0.0
 10
108.5335106846
 20
140.739395134
 30
0.0
 10
108.5334392689
 20
140.7392607396
 30
0.0
 10
108.5334627113
 20
140.7392472052
 30
0.0
  0
SPLINE
  5
60E
100
AcDbEntity
  8
CASTELLO
100
AcDbSpline
 62
250
  6
CONTINUOUS
 70
0
 71
3
 72
25
 73
21
 74
0
 42
0.0000001
 43
0.0000001
 44
0.0000000001
 40
0.0
 40
0.0
 40
0.0
 40
0.0
 40
0.1950126392
 40
0.3824957337
 40
0.4711548316
 40
0.5552736864
 40
0.6340445003
 40
0.7067096429
 40
0.7725721393
 40
0.8309983179
 40
0.8814267906
 40
0.9233766885
 40
0.9410430151
 40
0.9564476561
 40
0.9695519408
 40
0.980328239
 40
0.9887549056
 40
0.9948165378
 40
0.998523322
 40
1.0
 40
1.0
 40
1.0
 40
1.0
 10
103.2691255973
 20
95.6120055342
 30
0.0
 10
103.2674254892
 20
95.5795556555
 30
0.0
 10
103.2641981324
 20
95.5159031395
 30
0.0
 10
103.2604961602
 20
95.437483128
 30
0.0
 10
103.2578464811
 20
95.3775123539
 30
0.0
 10
103.2560879544
 20
95.3356343874
 30
0.0
 10
103.2545373817
 20
95.2964151787
 30
0.0
 10
103.2532093618
 20
95.2602316691
 30
0.0
 10
103.2521161895
 20
95.2274320062
 30
0.0
 10
103.2512673271
 20
95.1983315581
 30
0.0
 10
103.2506703318
 20
95.1732107134
 30
0.0
 10
103.2503681875
 20
95.1548757093
 30
0.0
 10
103.2502729457
 20
95.1423767347
 30
0.0
 10
103.2502711803
 20
95.1346796403
 30
0.0
 10
103.2503333932
 20
95.1281425369
 30
0.0
 10
103.2504598837
 20
95.1227362063
 30
0.0
 10
103.2506431251
 20
95.1185928541
 30
0.0
 10
103.2508875048
 20
95.1154259378
 30
0.0
 10
103.2511527453
 20
95.1138313658
 30
0.0
 10
103.2514381051
 20
95.1127036443
 30
0.0
 10
103.2516838224
 20
95.1126907668
 30
0.0
  0
LINE
  5
60F
100
AcDbEntity
  8
CASTELLO
100
AcDbLine
 62
7
  6
CONTINUOUS
 10
110.9084627113
 20
94.7117079117
 11
109.6570082784
 21
94.7780050274
  0
SPLINE
  5
610
100
AcDbEntity
  8
CASTELLO
100
AcDbSpline
 62
7
  6
CONTINUOUS
 70
0
 71
3
 72
9
 73
5
 74
0
 42
0.0000001
 43
0.0000001
 44
0.0000000001
 40
0.0
 40
0.0
 40
0.0
 40
0.0
 40
0.482213368
 40
1.0
 40
1.0
 40
1.0
 40
1.0
 10
109.5329195693
 20
94.7835051502
 30
0.0
 10
109.5528575575
 20
94.7824602445
 30
0.0
 10
109.5942362619
 20
94.780970294
 30
0.0
 10
109.6356002812
 20
94.7791427868
 30
0.0
 10
109.6570082784
 20
94.7780050274
 30
0.0
  0
SPLINE
  5
611
100
AcDbEntity
  8
CASTELLO
100
AcDbSpline
 62
250
  6
CONTINUOUS
 70
0
 71
3
 72
25
 73
21
 74
0
 42
0.0000001
 43
0.0000001
 44
0.0000000001
 40
0.0
 40
0.0
 40
0.0
 40
0.0
 40
0.195012639
 40
0.3824957335
 40
0.4711548313
 40
0.5552736861
 40
0.6340445001
 40
0.7067096427
 40
0.772572139
 40
0.8309983177
 40
0.8814267904
 40
0.9233766883
 40
0.9410430149
 40
0.9564476559
 40
0.9695519406
 40
0.9803282389
 40
0.9887549055
 40
0.9948165377
 40
0.998523322
 40
1.0
 40
1.0
 40
1.0
 40
1.0
 10
103.2691255973
 20
138.6108264434
 30
0.0
 10
103.2674254891
 20
138.6432763221
 30
0.0
 10
103.2641981323
 20
138.706928838
 30
0.0
 10
103.2604961599
 20
138.7853488495
 30
0.0
 10
103.2578464807
 20
138.8453196236
 30
0.0
 10
103.256087954
 20
138.8871975901
 30
0.0
 10
103.2545373813
 20
138.9264167988
 30
0.0
 10
103.2532093614
 20
138.9626003084
 30
0.0
 10
103.2521161892
 20
138.9953999713
 30
0.0
 10
103.2512673267
 20
139.0245004195
 30
0.0
 10
103.2506703315
 20
139.0496212642
 30
0.0
 10
103.2503681872
 20
139.0679562683
 30
0.0
 10
103.2502729454
 20
139.0804552429
 30
0.0
 10
103.2502711801
 20
139.0881523373
 30
0.0
 10
103.250333393
 20
139.0946894407
 30
0.0
 10
103.2504598836
 20
139.1000957713
 30
0.0
 10
103.2506431249
 20
139.1042391235
 30
0.0
 10
103.2508875047
 20
139.1074060398
 30
0.0
 10
103.2511527452
 20
139.1090006119
 30
0.0
 10
103.2514381051
 20
139.1101283333
 30
0.0
 10
103.2516838224
 20
139.1101412108
 30
0.0
  0
LINE
  5
612
100
AcDbEntity
  8
CASTELLO
100
AcDbLine
 62
7
  6
CONTINUOUS
 10
109.6570082784
 20
139.4448269502
 11
110.9084627113
 21
139.5111240659
  0
SPLINE
  5
613
100
AcDbEntity
  8
CASTELLO
100
AcDbSpline
 62
7
  6
CONTINUOUS
 70
0
 71
3
 72
23
 73
19
 74
0
 42
0.0000001
 43
0.0000001
 44
0.0000000001
 40
0.0
 40
0.0
 40
0.0
 40
0.0
 40
0.1908255336
 40
0.3746346274
 40
0.5446932409
 40
0.6225884221
 40
0.6947556584
 40
0.7605292308
 40
0.8193032635
 40
0.8705375976
 40
0.9137614588
 40
0.9485781389
 40
0.9627320299
 40
0.9746716736
 40
0.9843749105
 40
0.9918248884
 40
0.9970209358
 40
1.0
 40
1.0
 40
1.0
 40
1.0
 10
110.9106490403
 20
95.2115302602
 30
0.0
 10
110.9099504206
 20
95.179733843
 30
0.0
 10
110.9086995748
 20
95.1173074374
 30
0.0
 10
110.9071759714
 20
95.0265383323
 30
0.0
 10
110.9062450326
 20
94.9545839928
 30
0.0
 10
110.9057461754
 20
94.9012330439
 30
0.0
 10
110.9055073962
 20
94.865261308
 30
0.0
 10
110.9053939841
 20
94.8324757927
 30
0.0
 10
110.9054075576
 20
94.8031788875
 30
0.0
 10
110.9055446354
 20
94.7776404853
 30
0.0
 10
110.9058029572
 20
94.7560963052
 30
0.0
 10
110.9061396723
 20
94.7407334972
 30
0.0
 10
110.9064780767
 20
94.730587989
 30
0.0
 10
110.9067359616
 20
94.7246259741
 30
0.0
 10
110.9070328203
 20
94.7197895243
 30
0.0
 10
110.9073620507
 20
94.7160694421
 30
0.0
 10
110.9077555035
 20
94.7135114228
 30
0.0
 10
110.9080675535
 20
94.7121553943
 30
0.0
 10
110.9083147384
 20
94.7117247901
 30
0.0
  0
SPLINE
  5
614
100
AcDbEntity
  8
CASTELLO
100
AcDbSpline
 62
7
  6
CONTINUOUS
 70
0
 71
3
 72
23
 73
19
 74
0
 42
0.0000001
 43
0.0000001
 44
0.0000000001
 40
0.0
 40
0.0
 40
0.0
 40
0.0
 40
0.0029790642
 40
0.0081751116
 40
0.0156250895
 40
0.0253283264
 40
0.0372679701
 40
0.0514218611
 40
0.0862385412
 40
0.1294624024
 40
0.1806967365
 40
0.2394707692
 40
0.3052443416
 40
0.3774115779
 40
0.4553067591
 40
0.6253653726
 40
0.8091744664
 40
1.0
 40
1.0
 40
1.0
 40
1.0
 10
110.9083147384
 20
139.5111071875
 30
0.0
 10
110.9080675535
 20
139.5106765833
 30
0.0
 10
110.9077555035
 20
139.5093205548
 30
0.0
 10
110.9073620507
 20
139.5067625355
 30
0.0
 10
110.9070328203
 20
139.5030424533
 30
0.0
 10
110.9067359616
 20
139.4982060035
 30
0.0
 10
110.9064780767
 20
139.4922439886
 30
0.0
 10
110.9061396723
 20
139.4820984805
 30
0.0
 10
110.9058029572
 20
139.4667356724
 30
0.0
 10
110.9055446354
 20
139.4451914923
 30
0.0
 10
110.9054075576
 20
139.4196530901
 30
0.0
 10
110.9053939841
 20
139.3903561849
 30
0.0
 10
110.9055073962
 20
139.3575706696
 30
0.0
 10
110.9057461754
 20
139.3215989337
 30
0.0
 10
110.9062450326
 20
139.2682479848
 30
0.0
 10
110.9071759714
 20
139.1962936453
 30
0.0
 10
110.9086995748
 20
139.1055245402
 30
0.0
 10
110.9099504206
 20
139.0430981346
 30
0.0
 10
110.9106490403
 20
139.0113017174
 30
0.0
  0
SPLINE
  5
615
100
AcDbEntity
  8
CASTELLO
100
AcDbSpline
 62
7
  6
CONTINUOUS
 70
0
 71
3
 72
13
 73
9
 74
0
 42
0.0000001
 43
0.0000001
 44
0.0000000001
 40
0.0
 40
0.0
 40
0.0
 40
0.0
 40
0.0225227418
 40
0.0871911485
 40
0.1883898844
 40
0.3188730435
 40
0.6394257438
 40
1.0
 40
1.0
 40
1.0
 40
1.0
 10
109.4084627113
 20
140.2340657196
 30
0.0
 10
109.4102963843
 20
140.2352035329
 30
0.0
 10
109.4174295921
 20
140.2395505749
 30
0.0
 10
109.4330506593
 20
140.2485947546
 30
0.0
 10
109.4575542913
 20
140.2629352955
 30
0.0
 10
109.5033145426
 20
140.2894917855
 30
0.0
 10
109.5705902315
 20
140.3284807026
 30
0.0
 10
109.6270914082
 20
140.3611303354
 30
0.0
 10
109.6570082784
 20
140.3784032869
 30
0.0
  0
LINE
  5
616
100
AcDbEntity
  8
CASTELLO
100
AcDbLine
 62
7
  6
CONTINUOUS
 10
110.9084627113
 20
92.6114159888
 11
110.9084627113
 21
92.861411758
  0
SPLINE
  5
617
100
AcDbEntity
  8
CASTELLO
100
AcDbSpline
 62
7
  6
CONTINUOUS
 70
0
 71
3
 72
13
 73
9
 74
0
 42
0.0000001
 43
0.0000001
 44
0.0000000001
 40
0.0
 40
0.0
 40
0.0
 40
0.0
 40
0.3611707034
 40
0.6821065924
 40
0.8126146064
 40
0.9136705937
 40
0.9780274868
 40
1.0
 40
1.0
 40
1.0
 40
1.0
 10
109.6570082784
 20
93.8444286907
 30
0.0
 10
109.6270419202
 20
93.8617302148
 30
0.0
 10
109.5704594538
 20
93.8944267695
 30
0.0
 10
109.5031007555
 20
93.9334643656
 30
0.0
 10
109.4573184681
 20
93.960033554
 30
0.0
 10
109.4328510134
 20
93.974354419
 30
0.0
 10
109.417312784
 20
93.9833496894
 30
0.0
 10
109.4102513181
 20
93.9876558059
 30
0.0
 10
109.4084627113
 20
93.988766258
 30
0.0
  0
ELLIPSE
  5
618
100
AcDbEntity
  8
CASTELLO
100
AcDbEllipse
 62
7
  6
CONTINUOUS
 10
152.9368427457
 20
95.2201618958
 30
0.0
 11
0.4473055582
 21
-0.2236357461
 31
0.0
 40
0.9998096356
 41
-2.6780516535
 42
-1.5707345439
  0
ELLIPSE
  5
619
100
AcDbEntity
  8
CASTELLO
100
AcDbEllipse
 62
7
  6
CONTINUOUS
 10
174.2366904176
 20
139.0026700818
 30
0.0
 11
0.4473055582
 21
-0.2236357461
 31
0.0
 40
0.9998096356
 41
0.4635410001
 42
1.5708581097
  0
ELLIPSE
  5
61A
100
AcDbEntity
  8
CASTELLO
100
AcDbEllipse
 62
7
  6
CONTINUOUS
 10
152.9368427457
 20
139.0026700818
 30
0.0
 11
0.4473055582
 21
0.2236357461
 31
0.0
 40
0.9998096356
 41
1.5707345439
 42
2.6780516535
  0
ELLIPSE
  5
61B
100
AcDbEntity
  8
CASTELLO
100
AcDbEllipse
 62
7
  6
CONTINUOUS
 10
174.2366904176
 20
95.2201618958
 30
0.0
 11
0.4473055582
 21
0.2236357461
 31
0.0
 40
0.9998096356
 41
-1.5708581097
 42
-0.4635410001
  0
ELLIPSE
  5
61C
100
AcDbEntity
  8
CASTELLO
100
AcDbEllipse
 62
7
  6
CONTINUOUS
 10
153.1940430998
 20
139.4459062647
 30
0.0
 11
0.25
 21
0.0
 31
0.0
 40
0.0524077793
 41
-2.6154833905
 42
-1.5707963268
  0
ELLIPSE
  5
61D
100
AcDbEntity
  8
CASTELLO
100
AcDbEllipse
 62
7
  6
CONTINUOUS
 10
155.0794900635
 20
139.4459062647
 30
0.0
 11
0.25
 21
-0.0
 31
0.0
 40
0.0524077793
 41
-1.5707963268
 42
-0.0058177642
  0
ELLIPSE
  5
61E
100
AcDbEntity
  8
CASTELLO
100
AcDbEllipse
 62
7
  6
CONTINUOUS
 10
172.0940430998
 20
139.4459062647
 30
0.0
 11
0.25
 21
-0.0
 31
0.0
 40
0.0524077793
 41
-3.1357748894
 42
-1.5707963268
  0
ELLIPSE
  5
61F
100
AcDbEntity
  8
CASTELLO
100
AcDbEllipse
 62
7
  6
CONTINUOUS
 10
173.9794900635
 20
139.4459062647
 30
0.0
 11
0.25
 21
0.0
 31
0.0
 40
0.0524077793
 41
-1.5707963268
 42
-0.5261092631
  0
ELLIPSE
  5
620
100
AcDbEntity
  8
CASTELLO
100
AcDbEllipse
 62
7
  6
CONTINUOUS
 10
159.6896839583
 20
94.7376198784
 30
0.0
 11
0.5
 21
0.0
 31
0.0
 40
0.0524077793
 41
1.5707963268
 42
3.1357748894
  0
ELLIPSE
  5
621
100
AcDbEntity
  8
CASTELLO
100
AcDbEllipse
 62
7
  6
CONTINUOUS
 10
153.1940430998
 20
94.7769257129
 30
0.0
 11
0.25
 21
0.0
 31
0.0
 40
0.0524077793
 41
1.5707963268
 42
2.6154833905
  0
ELLIPSE
  5
622
100
AcDbEntity
  8
CASTELLO
100
AcDbEllipse
 62
7
  6
CONTINUOUS
 10
159.6896839583
 20
93.3143249037
 30
0.0
 11
0.5
 21
-0.0
 31
0.0
 40
0.0058178298
 41
2.495179495
 42
3.1357748894
  0
ELLIPSE
  5
623
100
AcDbEntity
  8
CASTELLO
100
AcDbEllipse
 62
7
  6
CONTINUOUS
 10
155.0794900635
 20
94.7769257129
 30
0.0
 11
0.25
 21
0.0
 31
0.0
 40
0.0524077793
 41
0.0058177642
 42
1.5707963268
  0
ELLIPSE
  5
624
100
AcDbEntity
  8
CASTELLO
100
AcDbEllipse
 62
7
  6
CONTINUOUS
 10
172.0940430998
 20
94.7769257129
 30
0.0
 11
0.25
 21
-0.0
 31
0.0
 40
0.0524077793
 41
1.5707963268
 42
3.1357748894
  0
ELLIPSE
  5
625
100
AcDbEntity
  8
CASTELLO
100
AcDbEllipse
 62
7
  6
CONTINUOUS
 10
167.483849205
 20
93.3143249037
 30
0.0
 11
0.5
 21
0.0
 31
0.0
 40
0.0058178298
 41
0.0058177642
 42
0.6464131586
  0
ELLIPSE
  5
626
100
AcDbEntity
  8
CASTELLO
100
AcDbEllipse
 62
7
  6
CONTINUOUS
 10
167.483849205
 20
94.7376198784
 30
0.0
 11
0.5
 21
0.0
 31
0.0
 40
0.0524077793
 41
0.0058177642
 42
1.5707963268
  0
ELLIPSE
  5
627
100
AcDbEntity
  8
CASTELLO
100
AcDbEllipse
 62
7
  6
CONTINUOUS
 10
173.9794900635
 20
94.7769257129
 30
0.0
 11
0.25
 21
0.0
 31
0.0
 40
0.0524077793
 41
0.5261092631
 42
1.5707963268
  0
ELLIPSE
  5
628
100
AcDbEntity
  8
CASTELLO
100
AcDbEllipse
 62
7
  6
CONTINUOUS
 10
159.6896839583
 20
140.9085070739
 30
0.0
 11
0.5
 21
0.0
 31
0.0
 40
0.0058178298
 41
-3.1357748894
 42
-2.495179495
  0
ELLIPSE
  5
629
100
AcDbEntity
  8
CASTELLO
100
AcDbEllipse
 62
7
  6
CONTINUOUS
 10
159.6896839583
 20
139.4852120992
 30
0.0
 11
0.5
 21
0.0
 31
0.0
 40
0.0524077793
 41
-3.1357748894
 42
-1.5707963268
  0
ELLIPSE
  5
62A
100
AcDbEntity
  8
CASTELLO
100
AcDbEllipse
 62
7
  6
CONTINUOUS
 10
167.483849205
 20
139.4852120992
 30
0.0
 11
0.5
 21
0.0
 31
0.0
 40
0.0524077793
 41
-1.5707963268
 42
-0.0058177642
  0
ELLIPSE
  5
62B
100
AcDbEntity
  8
CASTELLO
100
AcDbEllipse
 62
7
  6
CONTINUOUS
 10
167.483849205
 20
140.9085070739
 30
0.0
 11
0.5
 21
-0.0
 31
0.0
 40
0.0058178298
 41
-0.6464131586
 42
-0.0058177642
  0
ELLIPSE
  5
62C
100
AcDbEntity
  8
INCISIONI_LASER
100
AcDbEllipse
 62
250
  6
CONTINUOUS
 10
128.1382776914
 20
102.9160139888
 30
0.0
 11
0.0
 21
0.201149
 31
0.0
 40
0.9996954135
 41
-1.5707963268
 42
0.0
  0
ELLIPSE
  5
62D
100
AcDbEntity
  8
INCISIONI_LASER
100
AcDbEllipse
 62
250
  6
CONTINUOUS
 10
127.6786477311
 20
102.9160139888
 30
0.0
 11
-0.0
 21
0.201149
 31
0.0
 40
0.9996954135
 41
0.0
 42
1.5707963268
  0
ELLIPSE
  5
62E
100
AcDbEntity
  8
INCISIONI_LASER
100
AcDbEllipse
 62
250
  6
CONTINUOUS
 10
128.4140556676
 20
105.6717609888
 30
0.0
 11
0.0
 21
0.436782
 31
0.0
 40
0.9996954135
 41
-1.5707963268
 42
0.7257970211
  0
ELLIPSE
  5
62F
100
AcDbEntity
  8
INCISIONI_LASER
100
AcDbEllipse
 62
250
  6
CONTINUOUS
 10
131.2586606925
 20
123.4516589888
 30
0.0
 11
0.0
 21
0.65
 31
0.0
 40
0.9996954135
 41
-1.5707963268
 42
1.5707963268
  0
ELLIPSE
  5
630
100
AcDbEntity
  8
INCISIONI_LASER
100
AcDbEllipse
 62
250
  6
CONTINUOUS
 10
115.3983181607
 20
112.4306209888
 30
0.0
 11
0.0
 21
0.352865
 31
0.0
 40
0.9996954135
 41
-1.5707963268
 42
1.5707963268
  0
ELLIPSE
  5
631
100
AcDbEntity
  8
0
100
AcDbEllipse
 62
250
  6
CONTINUOUS
 10
127.4084627113
 20
111.2653739888
 30
0.0
 11
0.983755
 21
-0.0
 31
0.0
 40
1.0
 41
-3.1415926536
 42
0.0
  0
ELLIPSE
  5
632
100
AcDbEntity
  8
0
100
AcDbEllipse
 62
250
  6
CONTINUOUS
 10
127.4084627113
 20
110.4243539888
 30
0.0
 11
0.983755
 21
-0.0
 31
0.0
 40
1.0
 41
-3.1415926536
 42
0.0
  0
ELLIPSE
  5
633
100
AcDbEntity
  8
0
100
AcDbEllipse
 62
250
  6
CONTINUOUS
 10
127.4084627113
 20
109.5833329888
 30
0.0
 11
0.983755
 21
-0.0
 31
0.0
 40
1.0
 41
-3.1415926536
 42
0.0
  0
ELLIPSE
  5
634
100
AcDbEntity
  8
CASTELLO
100
AcDbEllipse
 62
7
  6
CONTINUOUS
 10
121.4084627113
 20
139.1773152696
 30
0.0
 11
0.0
 21
0.5
 31
0.0
 40
1.0
 41
-3.1241393611
 42
-2.2313643779
  0
ELLIPSE
  5
635
100
AcDbEntity
  8
CASTELLO
100
AcDbEllipse
 62
7
  6
CONTINUOUS
 10
121.4084627113
 20
95.045516708
 30
0.0
 11
0.0
 21
0.5
 31
0.0
 40
1.0
 41
-0.9102282757
 42
-0.0174532925
  0
ENDSEC
  0
SECTION
  2
OBJECTS
  0
DICTIONARY
  5
C
100
AcDbDictionary
280
0
281
1
  3
ACAD_GROUP
350
D
  3
ACAD_MLINESTYLE
350
17
  3
ACAD_LAYOUT
350
1A
  3
ACAD_PLOTSETTINGS
350
19
  3
ACAD_PLOTSTYLENAME
350
E
  0
DICTIONARY
  5
D
102
{ACAD_REACTORS
330
C
102
}
100
AcDbDictionary
280
0
281
1
  0
ACDBDICTIONARYWDFLT
  5
E
102
{ACAD_REACTORS
330
C
102
}
100
AcDbDictionary
281
1
  3
Normal
350
F
100
AcDbDictionaryWithDefault
340
F
  0
DICTIONARY
  5
17
102
{ACAD_REACTORS
330
C
102
}
100
AcDbDictionary
280
0
281
1
  3
Standard
350
18
  0
DICTIONARY
  5
19
102
{ACAD_REACTORS
330
C
102
}
100
AcDbDictionary
281
1
  0
DICTIONARY
  5
1A
102
{ACAD_REACTORS
330
C
102
}
100
AcDbDictionary
281
1
  3
Model
350
636
  3
Layout1
350
637
  0
ACDBPLACEHOLDER
  5
F
102
{ACAD_REACTORS
330
E
102
}
  0
MLINESTYLE
  5
18
102
{ACAD_REACTORS
330
17
102
}
100
AcDbMlineStyle
  2
STANDARD
 70
0
  3

 62
256
 51
90.0
 52
90.0
 71
2
 49
0.5
 62
256
  6
BYLAYER
 49
-0.5
 62
256
  6
BYLAYER
  0
LAYOUT
  5
636
102
{ACAD_REACTORS
330
1A
102
}
100
AcDbPlotSettings
  1

  2
none_device
  4
ISO_A4_(297.00_x_210.00_MM)
  6

 40
0.0
 41
0.0
 42
0.0
 43
0.0
 44
297.0
 45
210.0
 46
0.0
 47
0.0
 48
0.0
 49
0.0
140
0.0
141
0.0
142
1.0
143
1.0
 70
1024
 72
1
 73
0
 74
0
  7

 75
0
147
1.0
148
0.0
149
0.0
100
AcDbLayout
  1
Model
 70
0
 71
0
 10
0.0
 20
0.0
 11
297.0
 21
210.0
 12
0.0
 22
0.0
 32
0.0
 14
0.0
 24
0.0
 34
0.0
 15
0.0
 25
0.0
 35
0.0
146
0.0
 13
0.0
 23
0.0
 33
0.0
 16
1.0
 26
0.0
 36
0.0
 17
0.0
 27
1.0
 37
0.0
 76
0
330
22A
345
0
346
0
  0
LAYOUT
  5
637
102
{ACAD_REACTORS
330
1A
102
}
100
AcDbPlotSettings
  1

  2
none_device
  4
ISO_A4_(297.00_x_210.00_MM)
  6

 40
0.0
 41
0.0
 42
0.0
 43
0.0
 44
297.0
 45
210.0
 46
0.0
 47
0.0
 48
0.0
 49
0.0
140
0.0
141
0.0
142
1.0
143
1.0
 70
0
 72
1
 73
0
 74
0
  7

 75
0
147
1.0
148
0.0
149
0.0
100
AcDbLayout
  1
Layout1
 70
0
 71
1
 10
0.0
 20
0.0
 11
297.0
 21
210.0
 12
0.0
 22
0.0
 32
0.0
 14
0.0
 24
0.0
 34
0.0
 15
0.0
 25
0.0
 35
0.0
146
0.0
 13
0.0
 23
0.0
 33
0.0
 16
1.0
 26
0.0
 36
0.0
 17
0.0
 27
1.0
 37
0.0
 76
0
330
22B
345
0
346
0
  0
ENDSEC
  0
EOF
