  0
SECTION
  2
HEADER
  9
$ACADVER
  1
AC1021
  9
$DWGCODEPAGE
  3
ANSI_1252
  9
$EXTMAX
 10
297.0
 20
210.0
 30
0.0
  9
$EXTMIN
 10
0.0
 20
0.0
 30
0.0
  9
$LIMMIN
 10
0.0
 20
0.0
  9
$LIMMAX
 10
297.0
 20
210.0
  9
$VIEWCTR
 10
148.5
 20
105.0
  9
$VIEWSIZE
 40
210.0
  9
$CLAYER
  8
0
  9
$LTSCALE
 40
16.335
  9
$CELTYPE
  6
BYLAYER
  9
$DIMSCALE
 40
1.0
  9
$DIMASZ
 40
3.0
  9
$DIMEXO
 40
0.5
  9
$DIMDLI
 40
11.286
  9
$DIMEXE
 40
1.5
  9
$DIMCEN
 40
2.673
  9
$DIMLFAC
 40
1.0
  9
$DIMBLK
  1
_FILLED
  9
$DIMALT
 70
0
  9
$DIMALTF
 40
0.0393700787
  9
$DIMTXT
 40
3.0
  9
$DIMTOL
 70
1
  9
$DIMLIM
 70
0
  9
$DIMTFAC
 40
1.0
  9
$DIMTP
 40
0.01
  9
$DIMTM
 40
0.01
  9
$DIMGAP
 40
0.625
  9
$DIMDSEP
 70
44
  9
$AUNITS
 70
0
  9
$PDMODE
 70
3
  9
$PDSIZE
 40
3.0
  9
$HANDSEED
  5
623
  9
$TILEMODE
 70
1
  9
$MEASUREMENT
 70
1
  9
$INSUNITS
 70
4
  0
ENDSEC
  0
SECTION
  2
CLASSES
  0
CLASS
  1
ACDBDICTIONARYWDFLT
  2
AcDbDictionaryWithDefault
  3
AutoCAD 2000
 90
0
 91
1
280
0
281
0
  0
CLASS
  1
ACDBPLACEHOLDER
  2
AcDbPlaceHolder
  3
AutoCAD 2000
 90
0
 91
1
280
0
281
0
  0
CLASS
  1
LAYOUT
  2
AcDbLayout
  3
AutoCAD 2000
 90
0
 91
0
280
0
281
0
  0
ENDSEC
  0
SECTION
  2
TABLES
  0
TABLE
  2
VPORT
  5
8
100
AcDbSymbolTable
 70
2
  0
VPORT
  5
1F4
100
AcDbSymbolTableRecord
100
AcDbViewportTableRecord
  2
*ACTIVE
 70
0
 10
0.0
 20
0.0
 11
1.0
 21
1.0
 12
148.5
 22
105.0
 13
0.0
 23
0.0
 14
1.0
 24
1.0
 15
0.0
 25
0.0
 16
0.0
 26
0.0
 36
1.0
 17
0.0
 27
0.0
 37
0.0
 40
210.0
 41
1.4142857143
 42
50.0
 43
0.0
 44
0.0
 50
0.0
 51
0.0
 71
0
 72
100
 73
1
 74
1
 75
0
 76
0
 77
0
 78
0
  0
ENDTAB
  0
TABLE
  2
LTYPE
  5
5
100
AcDbSymbolTable
 70
6
  0
LTYPE
  5
14
100
AcDbSymbolTableRecord
100
AcDbLinetypeTableRecord
  2
BYBLOCK
 70
0
  3

 72
65
 73
0
 40
0.0
  0
LTYPE
  5
15
100
AcDbSymbolTableRecord
100
AcDbLinetypeTableRecord
  2
BYLAYER
 70
0
  3

 72
65
 73
0
 40
0.0
  0
LTYPE
  5
16
100
AcDbSymbolTableRecord
100
AcDbLinetypeTableRecord
  2
CONTINUOUS
 70
64
  3
Solid line
 72
65
 73
0
 40
0.0
  0
LTYPE
  5
1F5
100
AcDbSymbolTableRecord
100
AcDbLinetypeTableRecord
  2
CENTER
 70
64
  3
____ _ ____ _ ____ _ ____ _ ____ _ ____ _ ____
 72
65
 73
4
 40
0.6
 49
0.375
 74
0
 49
-0.075
 74
0
 49
0.075
 74
0
 49
-0.075
 74
0
  0
LTYPE
  5
1F6
100
AcDbSymbolTableRecord
100
AcDbLinetypeTableRecord
  2
HIDDEN
 70
64
  3
- - - - - - - - - - - - - - - - - - - -
 72
65
 73
2
 40
0.2
 49
0.1
 74
0
 49
-0.1
 74
0
  0
LTYPE
  5
1F7
100
AcDbSymbolTableRecord
100
AcDbLinetypeTableRecord
  2
PHANTOM
 70
64
  3
_____ _ _ _____ _ _ _____ _ _ _____
 72
65
 73
6
 40
0.8
 49
0.45
 74
0
 49
-0.05
 74
0
 49
0.1
 74
0
 49
-0.05
 74
0
 49
0.1
 74
0
 49
-0.05
 74
0
  0
LTYPE
  5
1F8
100
AcDbSymbolTableRecord
100
AcDbLinetypeTableRecord
  2
DOT
 70
64
  3
. . . . . . . . . . . . . . . . . . . .
 72
65
 73
2
 40
0.2
 49
0.1
 74
0
 49
-0.1
 74
0
  0
LTYPE
  5
1F9
100
AcDbSymbolTableRecord
100
AcDbLinetypeTableRecord
  2
DASHED
 70
64
  3
- - - - - - - - - - - - - - - - - - - -
 72
65
 73
2
 40
0.2
 49
0.1
 74
0
 49
-0.1
 74
0
  0
ENDTAB
  0
TABLE
  2
LAYER
  5
2
100
AcDbSymbolTable
 70
36
  0
LAYER
  5
10
100
AcDbSymbolTableRecord
100
AcDbLayerTableRecord
  2
0
 70
0
 62
7
  6
CONTINUOUS
370
-3
390
F
  0
LAYER
  5
1FA
100
AcDbSymbolTableRecord
100
AcDbLayerTableRecord
  2
DEFAULT_1
 70
0
 62
7
  6
CENTER
370
-3
390
F
  0
LAYER
  5
1FB
100
AcDbSymbolTableRecord
100
AcDbLayerTableRecord
  2
DEFAULT_2
 70
0
 62
7
  6
HIDDEN
370
-3
390
F
  0
LAYER
  5
1FC
100
AcDbSymbolTableRecord
100
AcDbLayerTableRecord
  2
DEFAULT_3
 70
0
 62
7
  6
PHANTOM
370
-3
390
F
  0
LAYER
  5
1FD
100
AcDbSymbolTableRecord
100
AcDbLayerTableRecord
  2
217
 70
0
 62
7
  6
CONTINUOUS
370
-3
390
F
  0
LAYER
  5
1FE
100
AcDbSymbolTableRecord
100
AcDbLayerTableRecord
  2
218
 70
0
 62
7
  6
CONTINUOUS
370
-3
390
F
  0
LAYER
  5
1FF
100
AcDbSymbolTableRecord
100
AcDbLayerTableRecord
  2
284
 70
0
 62
7
  6
CONTINUOUS
370
-3
390
F
  0
LAYER
  5
200
100
AcDbSymbolTableRecord
100
AcDbLayerTableRecord
  2
290
 70
0
 62
7
  6
CONTINUOUS
370
-3
390
F
  0
LAYER
  5
201
100
AcDbSymbolTableRecord
100
AcDbLayerTableRecord
  2
ASSI
 70
0
 62
7
  6
CONTINUOUS
370
-3
390
F
  0
LAYER
  5
202
100
AcDbSymbolTableRecord
100
AcDbLayerTableRecord
  2
COLORE_TOP
 70
0
 62
7
  6
CONTINUOUS
370
-3
390
F
  0
LAYER
  5
203
100
AcDbSymbolTableRecord
100
AcDbLayerTableRecord
  2
COORDINATE
 70
0
 62
7
  6
CONTINUOUS
370
-3
390
F
  0
LAYER
  5
204
100
AcDbSymbolTableRecord
100
AcDbLayerTableRecord
  2
COORD_ORIGINE
 70
0
 62
7
  6
CONTINUOUS
370
-3
390
F
  0
LAYER
  5
205
100
AcDbSymbolTableRecord
100
AcDbLayerTableRecord
  2
COPY_PUBLISH
 70
0
 62
7
  6
CONTINUOUS
370
-3
390
F
  0
LAYER
  5
206
100
AcDbSymbolTableRecord
100
AcDbLayerTableRecord
  2
COSMETICHE
 70
0
 62
7
  6
CONTINUOUS
370
-3
390
F
  0
LAYER
  5
207
100
AcDbSymbolTableRecord
100
AcDbLayerTableRecord
  2
COSMETICI
 70
0
 62
7
  6
CONTINUOUS
370
-3
390
F
  0
LAYER
  5
208
100
AcDbSymbolTableRecord
100
AcDbLayerTableRecord
  2
CURVE
 70
0
 62
7
  6
CONTINUOUS
370
-3
390
F
  0
LAYER
  5
209
100
AcDbSymbolTableRecord
100
AcDbLayerTableRecord
  2
DRAFT
 70
0
 62
7
  6
CONTINUOUS
370
-3
390
F
  0
LAYER
  5
20A
100
AcDbSymbolTableRecord
100
AcDbLayerTableRecord
  2
IMPORTED
 70
0
 62
7
  6
CONTINUOUS
370
-3
390
F
  0
LAYER
  5
20B
100
AcDbSymbolTableRecord
100
AcDbLayerTableRecord
  2
IMPORT_IGES
 70
0
 62
7
  6
CONTINUOUS
370
-3
390
F
  0
LAYER
  5
20C
100
AcDbSymbolTableRecord
100
AcDbLayerTableRecord
  2
INCISIONI_LASER
 70
0
 62
7
  6
CONTINUOUS
370
-3
390
F
  0
LAYER
  5
20D
100
AcDbSymbolTableRecord
100
AcDbLayerTableRecord
  2
INTF_1
 70
0
 62
7
  6
CONTINUOUS
370
-3
390
F
  0
LAYER
  5
20E
100
AcDbSymbolTableRecord
100
AcDbLayerTableRecord
  2
INTF_11
 70
0
 62
7
  6
CONTINUOUS
370
-3
390
F
  0
LAYER
  5
20F
100
AcDbSymbolTableRecord
100
AcDbLayerTableRecord
  2
INTF_2
 70
0
 62
7
  6
CONTINUOUS
370
-3
390
F
  0
LAYER
  5
210
100
AcDbSymbolTableRecord
100
AcDbLayerTableRecord
  2
NOTE
 70
0
 62
7
  6
CONTINUOUS
370
-3
390
F
  0
LAYER
  5
211
100
AcDbSymbolTableRecord
100
AcDbLayerTableRecord
  2
PIANI
 70
0
 62
7
  6
CONTINUOUS
370
-3
390
F
  0
LAYER
  5
212
100
AcDbSymbolTableRecord
100
AcDbLayerTableRecord
  2
PIANI_ORIGINE
 70
0
 62
7
  6
CONTINUOUS
370
-3
390
F
  0
LAYER
  5
213
100
AcDbSymbolTableRecord
100
AcDbLayerTableRecord
  2
PIANI_RIFERIMENTO
 70
0
 62
7
  6
CONTINUOUS
370
-3
390
F
  0
LAYER
  5
214
100
AcDbSymbolTableRecord
100
AcDbLayerTableRecord
  2
PIANI_SFORMO
 70
0
 62
7
  6
CONTINUOUS
370
-3
390
F
  0
LAYER
  5
215
100
AcDbSymbolTableRecord
100
AcDbLayerTableRecord
  2
PUNTI
 70
0
 62
7
  6
CONTINUOUS
370
-3
390
F
  0
LAYER
  5
216
100
AcDbSymbolTableRecord
100
AcDbLayerTableRecord
  2
RACCORDO
 70
0
 62
7
  6
CONTINUOUS
370
-3
390
F
  0
LAYER
  5
217
100
AcDbSymbolTableRecord
100
AcDbLayerTableRecord
  2
RGB__255__255__255__
 70
0
 62
7
  6
CONTINUOUS
370
-3
390
F
  0
LAYER
  5
218
100
AcDbSymbolTableRecord
100
AcDbLayerTableRecord
  2
SIMBOLI
 70
0
 62
7
  6
CONTINUOUS
370
-3
390
F
  0
LAYER
  5
219
100
AcDbSymbolTableRecord
100
AcDbLayerTableRecord
  2
SMUSSO
 70
0
 62
7
  6
CONTINUOUS
370
-3
390
F
  0
LAYER
  5
21A
100
AcDbSymbolTableRecord
100
AcDbLayerTableRecord
  2
SNAPLINE
 70
0
 62
7
  6
CONTINUOUS
370
-3
390
F
  0
LAYER
  5
21B
100
AcDbSymbolTableRecord
100
AcDbLayerTableRecord
  2
SUPERFICI
 70
0
 62
7
  6
CONTINUOUS
370
-3
390
F
  0
LAYER
  5
21C
100
AcDbSymbolTableRecord
100
AcDbLayerTableRecord
  2
TRACCIABILITA
 70
0
 62
7
  6
CONTINUOUS
370
-3
390
F
  0
LAYER
  5
21D
100
AcDbSymbolTableRecord
100
AcDbLayerTableRecord
  2
TRASH
 70
0
 62
7
  6
CONTINUOUS
370
-3
390
F
  0
LAYER
  5
21E
100
AcDbSymbolTableRecord
100
AcDbLayerTableRecord
  2
XSEC_DATUMS
 70
0
 62
7
  6
CONTINUOUS
370
-3
390
F
  0
ENDTAB
  0
TABLE
  2
STYLE
  5
3
100
AcDbSymbolTable
 70
1
  0
STYLE
  5
11
100
AcDbSymbolTableRecord
100
AcDbTextStyleTableRecord
  2
STANDARD
 70
0
 40
0.0
 41
0.8
 50
0.0
 71
0
 42
0.2
  3
txt
  4

  0
STYLE
  5
21F
100
AcDbSymbolTableRecord
100
AcDbTextStyleTableRecord
  2
TEXTSTYLE_1
 70
0
 40
0.0
 41
0.8
 50
0.0
 71
0
 42
0.2
  3
gdt
  4

  0
ENDTAB
  0
TABLE
  2
VIEW
  5
6
100
AcDbSymbolTable
 70
0
  0
ENDTAB
  0
TABLE
  2
UCS
  5
7
100
AcDbSymbolTable
 70
0
  0
ENDTAB
  0
TABLE
  2
APPID
  5
9
100
AcDbSymbolTable
 70
1
  0
APPID
  5
220
100
AcDbSymbolTableRecord
100
AcDbRegAppTableRecord
  2
ACAD
 70
0
  0
ENDTAB
  0
TABLE
  2
BLOCK_RECORD
  5
1
100
AcDbSymbolTable
 70
0
  0
BLOCK_RECORD
  5
221
100
AcDbSymbolTableRecord
100
AcDbBlockTableRecord
  2
*Model_Space
  0
BLOCK_RECORD
  5
222
100
AcDbSymbolTableRecord
100
AcDbBlockTableRecord
  2
*Paper_Space
  0
BLOCK_RECORD
  5
223
100
AcDbSymbolTableRecord
100
AcDbBlockTableRecord
  2
_FILLED
  0
BLOCK_RECORD
  5
224
100
AcDbSymbolTableRecord
100
AcDbBlockTableRecord
  2
*D0
  0
BLOCK_RECORD
  5
225
100
AcDbSymbolTableRecord
100
AcDbBlockTableRecord
  2
*D1
  0
BLOCK_RECORD
  5
226
100
AcDbSymbolTableRecord
100
AcDbBlockTableRecord
  2
*D2
  0
BLOCK_RECORD
  5
227
100
AcDbSymbolTableRecord
100
AcDbBlockTableRecord
  2
*D3
  0
ENDTAB
  0
TABLE
  2
DIMSTYLE
  5
A
100
AcDbSymbolTable
 70
1
100
AcDbDimStyleTable
 71
0
  0
DIMSTYLE
105
228
100
AcDbSymbolTableRecord
100
AcDbDimStyleTableRecord
  2
STANDARD
 70
0
  3

  4

 40
1.0
 41
3.0
 42
0.5
 43
0.38
 44
1.5
 45
0.0
 46
0.0
 47
0.01
 48
0.01
140
3.0
141
0.09
142
0.0
143
25.4
144
1.0
145
0.0
146
1.0
147
0.625
 71
1.0
 72
0.0
 73
0
 74
0
 75
0
 76
0
 77
1
 78
8
 79
2
170
0
171
1
172
0
173
0
174
0
175
0
176
0
177
0
178
0
270
2
179
2
271
2
272
2
273
2
274
2
275
0
280
0
281
0
282
0
283
1
284
8
285
0
286
0
287
3
288
0
340
11
278
44
341
223
342
223
343
223
344
223
  0
DIMSTYLE
105
229
100
AcDbSymbolTableRecord
100
AcDbDimStyleTableRecord
  2
DIMSTYLE_1
 70
0
  3

  4

 40
1.0
 41
3.0
 42
0.5
 43
0.38
 44
1.5
 45
0.0
 46
0.0
 47
0.0
 48
0.0
140
3.0
141
0.09
142
0.0
143
25.4
144
1.0
145
0.0
146
1.0
147
0.75
 71
0.0
 72
0.0
 73
0
 74
0
 75
0
 76
0
 77
1
 78
8
 79
2
170
0
171
1
172
0
173
0
174
0
175
0
176
0
177
0
178
0
270
2
179
2
271
1
272
1
273
2
274
2
275
0
280
0
281
0
282
0
283
1
284
8
285
0
286
0
287
3
288
0
340
11
278
44
341
223
342
223
343
223
344
223
  0
DIMSTYLE
105
22A
100
AcDbSymbolTableRecord
100
AcDbDimStyleTableRecord
  2
DIMSTYLE_2
 70
0
  3

  4

 40
1.0
 41
3.0
 42
0.5
 43
0.38
 44
1.5
 45
0.0
 46
0.0
 47
0.0
 48
0.0
140
3.0
141
0.09
142
0.0
143
25.4
144
1.0
145
0.0
146
1.0
147
0.75
 71
0.0
 72
0.0
 73
0
 74
0
 75
0
 76
0
 77
1
 78
8
 79
2
170
0
171
1
172
0
173
0
174
0
175
0
176
0
177
0
178
0
270
2
179
2
271
2
272
2
273
2
274
2
275
0
280
0
281
0
282
0
283
1
284
8
285
0
286
0
287
3
288
0
340
11
278
44
341
223
342
223
343
223
344
223
  0
ENDTAB
  0
ENDSEC
  0
SECTION
  2
BLOCKS
  0
BLOCK
  5
20
100
AcDbEntity
  8
0
100
AcDbBlockBegin
  2
*Model_Space
 70
0
 10
0.0
 20
0.0
 30
0.0
  3
*Model_Space
  1

  0
ENDBLK
  5
21
100
AcDbEntity
  8
0
100
AcDbBlockEnd
  0
BLOCK
  5
1C
100
AcDbEntity
  8
0
100
AcDbBlockBegin
  2
*Paper_Space
 70
0
 10
0.0
 20
0.0
 30
0.0
  3
*Paper_Space
  1

  0
ENDBLK
  5
1D
100
AcDbEntity
  8
0
100
AcDbBlockEnd
  0
BLOCK
  5
22B
100
AcDbEntity
  8
0
100
AcDbBlockBegin
  2
_FILLED
 70
64
 10
0.0
 20
0.0
  3
_FILLED
  1

  0
SOLID
  5
22C
100
AcDbEntity
  8
0
  6
BYBLOCK
 62
0
100
AcDbTrace
 10
0.0
 20
0.0
 11
-1.0
 21
0.3166666667
 12
-1.0
 22
-0.3166666667
 13
-1.0
 23
-0.3166666667
  0
ENDBLK
  5
22D
100
AcDbEntity
  8
0
  6
BYBLOCK
 62
0
100
AcDbBlockEnd
  0
BLOCK
  5
22E
100
AcDbEntity
  8
0
100
AcDbBlockBegin
 62
7
  6
CONTINUOUS
  2
*D0
 70
65
 10
0.0
 20
0.0
  3
*D0
  1

  0
LINE
  5
22F
100
AcDbEntity
  8
0
100
AcDbLine
 62
7
  6
CONTINUOUS
 10
149.0334701849
 20
111.8868870982
 11
149.0334701849
 21
154.4630103766
  0
LINE
  5
230
100
AcDbEntity
  8
0
100
AcDbLine
 62
7
  6
CONTINUOUS
 10
113.8483985006
 20
121.3995527695
 11
113.8483985006
 21
154.4630103766
  0
LINE
  5
231
100
AcDbEntity
  8
0
100
AcDbLine
 62
7
  6
CONTINUOUS
 10
149.0334701849
 20
152.9630103766
 11
131.4409343428
 21
152.9630103766
  0
LINE
  5
232
100
AcDbEntity
  8
0
100
AcDbLine
 62
7
  6
CONTINUOUS
 10
113.8483985006
 20
152.9630103766
 11
131.4409343428
 21
152.9630103766
  0
INSERT
  5
233
100
AcDbEntity
  8
0
100
AcDbBlockReference
 62
7
  6
CONTINUOUS
  2
_FILLED
 10
149.0334701849
 20
152.9630103766
 41
3.0
 42
3.0
 43
3.0
  0
INSERT
  5
234
100
AcDbEntity
  8
0
100
AcDbBlockReference
 62
7
  6
CONTINUOUS
  2
_FILLED
 10
113.8483985006
 20
152.9630103766
 41
3.0
 42
3.0
 43
3.0
 50
180.0
  0
ENDBLK
  5
235
100
AcDbEntity
  8
0
  6
BYBLOCK
 62
0
100
AcDbBlockEnd
  0
BLOCK
  5
236
100
AcDbEntity
  8
0
100
AcDbBlockBegin
 62
7
  6
CONTINUOUS
  2
*D1
 70
65
 10
0.0
 20
0.0
  3
*D1
  1

  0
LINE
  5
237
100
AcDbEntity
  8
0
100
AcDbLine
 62
7
  6
CONTINUOUS
 10
149.0334701849
 20
111.8868870982
 11
149.0334701849
 21
144.4630103766
  0
LINE
  5
238
100
AcDbEntity
  8
0
100
AcDbLine
 62
7
  6
CONTINUOUS
 10
124.0334701849
 20
134.3734955248
 11
124.0334701849
 21
144.4630103766
  0
LINE
  5
239
100
AcDbEntity
  8
0
100
AcDbLine
 62
7
  6
CONTINUOUS
 10
149.0334701849
 20
142.9630103766
 11
136.5334701849
 21
142.9630103766
  0
LINE
  5
23A
100
AcDbEntity
  8
0
100
AcDbLine
 62
7
  6
CONTINUOUS
 10
124.0334701849
 20
142.9630103766
 11
136.5334701849
 21
142.9630103766
  0
INSERT
  5
23B
100
AcDbEntity
  8
0
100
AcDbBlockReference
 62
7
  6
CONTINUOUS
  2
_FILLED
 10
149.0334701849
 20
142.9630103766
 41
3.0
 42
3.0
 43
3.0
  0
INSERT
  5
23C
100
AcDbEntity
  8
0
100
AcDbBlockReference
 62
7
  6
CONTINUOUS
  2
_FILLED
 10
124.0334701849
 20
142.9630103766
 41
3.0
 42
3.0
 43
3.0
 50
180.0
  0
ENDBLK
  5
23D
100
AcDbEntity
  8
0
  6
BYBLOCK
 62
0
100
AcDbBlockEnd
  0
BLOCK
  5
23E
100
AcDbEntity
  8
0
100
AcDbBlockBegin
 62
7
  6
CONTINUOUS
  2
*D2
 70
65
 10
0.0
 20
0.0
  3
*D2
  1

  0
LINE
  5
23F
100
AcDbEntity
  8
0
100
AcDbLine
 62
7
  6
CONTINUOUS
 10
184.5389030612
 20
132.8541883172
 11
184.5389030612
 21
144.4630103766
  0
LINE
  5
240
100
AcDbEntity
  8
0
100
AcDbLine
 62
7
  6
CONTINUOUS
 10
162.2389030612
 20
128.6345832518
 11
162.2389030612
 21
144.4630103766
  0
LINE
  5
241
100
AcDbEntity
  8
0
100
AcDbLine
 62
7
  6
CONTINUOUS
 10
184.5389030612
 20
142.9630103766
 11
173.3889030612
 21
142.9630103766
  0
LINE
  5
242
100
AcDbEntity
  8
0
100
AcDbLine
 62
7
  6
CONTINUOUS
 10
162.2389030612
 20
142.9630103766
 11
173.3889030612
 21
142.9630103766
  0
INSERT
  5
243
100
AcDbEntity
  8
0
100
AcDbBlockReference
 62
7
  6
CONTINUOUS
  2
_FILLED
 10
184.5389030612
 20
142.9630103766
 41
3.0
 42
3.0
 43
3.0
  0
INSERT
  5
244
100
AcDbEntity
  8
0
100
AcDbBlockReference
 62
7
  6
CONTINUOUS
  2
_FILLED
 10
162.2389030612
 20
142.9630103766
 41
3.0
 42
3.0
 43
3.0
 50
180.0
  0
ENDBLK
  5
245
100
AcDbEntity
  8
0
  6
BYBLOCK
 62
0
100
AcDbBlockEnd
  0
BLOCK
  5
246
100
AcDbEntity
  8
0
100
AcDbBlockBegin
 62
7
  6
CONTINUOUS
  2
*D3
 70
65
 10
0.0
 20
0.0
  3
*D3
  1

  0
LINE
  5
247
100
AcDbEntity
  8
0
100
AcDbLine
 62
7
  6
CONTINUOUS
 10
184.288907292
 20
134.9630103766
 11
194.8889030612
 21
134.9630103766
  0
LINE
  5
248
100
AcDbEntity
  8
0
100
AcDbLine
 62
7
  6
CONTINUOUS
 10
184.288907292
 20
85.9630103766
 11
194.8889030612
 21
85.9630103766
  0
LINE
  5
249
100
AcDbEntity
  8
0
100
AcDbLine
 62
7
  6
CONTINUOUS
 10
193.3889030612
 20
134.9630103766
 11
193.3889030612
 21
110.4630103766
  0
LINE
  5
24A
100
AcDbEntity
  8
0
100
AcDbLine
 62
7
  6
CONTINUOUS
 10
193.3889030612
 20
85.9630103766
 11
193.3889030612
 21
110.4630103766
  0
INSERT
  5
24B
100
AcDbEntity
  8
0
100
AcDbBlockReference
 62
7
  6
CONTINUOUS
  2
_FILLED
 10
193.3889030612
 20
134.9630103766
 41
3.0
 42
3.0
 43
3.0
 50
90.0
  0
INSERT
  5
24C
100
AcDbEntity
  8
0
100
AcDbBlockReference
 62
7
  6
CONTINUOUS
  2
_FILLED
 10
193.3889030612
 20
85.9630103766
 41
3.0
 42
3.0
 43
3.0
 50
270.0
  0
ENDBLK
  5
24D
100
AcDbEntity
  8
0
  6
BYBLOCK
 62
0
100
AcDbBlockEnd
  0
ENDSEC
  0
SECTION
  2
ENTITIES
  0
DIMENSION
  5
24E
100
AcDbEntity
  8
0
100
AcDbDimension
 62
7
  6
CONTINUOUS
  2
*D0
 10
113.8483985006
 20
152.9630103766
 11
127.2623629142
 21
152.9630103766
 70
160
 71
2
 72
2
 41
0.9
 42
35.1850716843
  3
DIMSTYLE_1
100
AcDbAlignedDimension
 13
149.0334701849
 23
111.3868870982
 14
113.8483985006
 24
120.8995527695
 50
180.0
100
AcDbRotatedDimension
  0
DIMENSION
  5
24F
100
AcDbEntity
  8
0
100
AcDbDimension
 62
7
  6
CONTINUOUS
  2
*D1
 10
124.0334701849
 20
142.9630103766
 11
134.2834701849
 21
142.9630103766
 70
160
 71
2
 72
2
 41
0.9
 42
25.0
  3
DIMSTYLE_2
100
AcDbAlignedDimension
 13
149.0334701849
 23
111.3868870982
 14
124.0334701849
 24
133.8734955248
 50
180.0
100
AcDbRotatedDimension
  0
DIMENSION
  5
250
100
AcDbEntity
  8
0
100
AcDbDimension
 62
7
  6
CONTINUOUS
  2
*D2
 10
162.2389030612
 20
142.9630103766
 11
169.1031887755
 21
142.9630103766
 70
160
 71
2
 72
2
 41
0.9
 42
22.3
  3
DIMSTYLE_2
100
AcDbAlignedDimension
 13
184.5389030612
 23
132.3541883172
 14
162.2389030612
 24
128.1345832518
 50
180.0
100
AcDbRotatedDimension
  0
DIMENSION
  5
251
100
AcDbEntity
  8
0
100
AcDbDimension
 62
7
  6
CONTINUOUS
  2
*D3
 10
193.3889030612
 20
85.9630103766
 11
193.3889030612
 21
108.1058675194
 70
160
 71
2
 72
2
 41
0.9
 42
49.0
  3
DIMSTYLE_2
100
AcDbAlignedDimension
 13
183.788907292
 23
134.9630103766
 14
183.788907292
 24
85.9630103766
 50
270.0
100
AcDbRotatedDimension
  0
LWPOLYLINE
  5
252
100
AcDbEntity
  8
0
100
AcDbPolyline
 62
7
  6
CONTINUOUS
 90
5
 70
0
 43
0.3500000006
 10
176.3889054565
 20
145.4272941284
 10
176.7460523071
 20
145.6415786133
 10
176.7460523071
 20
146.2844320679
 10
176.3889054565
 20
146.713019165
 10
175.5317675171
 20
146.713019165
  0
LINE
  5
253
100
AcDbEntity
  8
217
100
AcDbLine
 62
7
  6
CONTINUOUS
 10
162.5328886518
 20
132.8102355105
 11
162.5153860592
 21
132.8014848807
  0
LWPOLYLINE
  5
254
100
AcDbEntity
  8
217
100
AcDbPolyline
 62
7
  6
CONTINUOUS
 90
11
 70
0
 10
162.5328659872
 20
132.8102241783
 10
162.5507156024
 20
132.8187127342
 10
162.5705335685
 20
132.8271524402
 10
162.5907433604
 20
132.8347471823
 10
162.6112921645
 20
132.8414714531
 10
162.6321595401
 20
132.8473130666
 10
162.6532911498
 20
132.8522513427
 10
162.6745791742
 20
132.8562614017
 10
162.6959596152
 20
132.8593376805
 10
162.717414664
 20
132.8614841163
 10
162.7389039221
 20
132.8627015752
  0
LINE
  5
255
100
AcDbEntity
  8
DRAFT
100
AcDbLine
 62
7
  6
CONTINUOUS
 10
173.8889030612
 20
59.6630103766
 11
176.4896627243
 21
59.6857068623
  0
LINE
  5
256
100
AcDbEntity
  8
0
100
AcDbLine
 62
7
  6
CONTINUOUS
 10
173.0889030612
 20
60.2633979793
 11
173.8889030612
 21
60.2633979793
  0
LINE
  5
257
100
AcDbEntity
  8
DRAFT
100
AcDbLine
 62
7
  6
CONTINUOUS
 10
173.0889030612
 20
59.6630103766
 11
170.4881433981
 21
59.6857068623
  0
LINE
  5
258
100
AcDbEntity
  8
217
100
AcDbLine
 62
250
  6
CONTINUOUS
 10
162.2563199636
 20
132.3628961051
 11
162.2389030612
 21
132.3541883172
  0
LWPOLYLINE
  5
259
100
AcDbEntity
  8
217
100
AcDbPolyline
 62
250
  6
CONTINUOUS
 90
16
 70
0
 10
162.4062300221
 20
131.004916233
 10
162.407194028
 20
131.0058839278
 10
162.4092633854
 20
131.0068494787
 10
162.4124335099
 20
131.0078107469
 10
162.4166973787
 20
131.0087656029
 10
162.422045546
 20
131.0097119312
 10
162.428466164
 20
131.0106476356
 10
162.4359450091
 20
131.0115706432
 10
162.4444655131
 20
131.0124789091
 10
162.4540088007
 20
131.0133704214
 10
162.4645537303
 20
131.0142432049
 10
162.4760769418
 20
131.0150953263
 10
162.4885529076
 20
131.0159248978
 10
162.5019539895
 20
131.0167300817
 10
162.5162505
 20
131.0175090943
 10
162.5314107679
 20
131.0182602097
  0
LINE
  5
25A
100
AcDbEntity
  8
217
100
AcDbLine
 62
250
  6
CONTINUOUS
 10
164.888907292
 20
134.9630103766
 11
164.8758087133
 21
134.9499117978
  0
LINE
  5
25B
100
AcDbEntity
  8
217
100
AcDbLine
 62
250
  6
CONTINUOUS
 10
165.1389030612
 20
134.7130146073
 11
165.1258044825
 21
134.6999160286
  0
LINE
  5
25C
100
AcDbEntity
  8
217
100
AcDbLine
 62
7
  6
CONTINUOUS
 10
177.3427418765
 20
134.0941642227
 11
177.2859856846
 21
134.058352728
  0
LINE
  5
25D
100
AcDbEntity
  8
217
100
AcDbLine
 62
7
  6
CONTINUOUS
 10
177.3712338254
 20
134.1119693428
 11
177.3427418765
 21
134.0941642227
  0
LINE
  5
25E
100
AcDbEntity
  8
217
100
AcDbLine
 62
7
  6
CONTINUOUS
 10
177.785977223
 20
134.2600845384
 11
177.7889030612
 21
134.2630103766
  0
LINE
  5
25F
100
AcDbEntity
  8
217
100
AcDbLine
 62
7
  6
CONTINUOUS
 10
174.2820504701
 20
121.1147306189
 11
174.2389030612
 21
121.0935828543
  0
LINE
  5
260
100
AcDbEntity
  8
217
100
AcDbLine
 62
250
  6
CONTINUOUS
 10
183.788907292
 20
134.9630103766
 11
183.7758087133
 21
134.9499117978
  0
LINE
  5
261
100
AcDbEntity
  8
217
100
AcDbLine
 62
250
  6
CONTINUOUS
 10
184.0389030612
 20
134.7130146073
 11
184.0258044825
 21
134.6999160286
  0
LWPOLYLINE
  5
262
100
AcDbEntity
  8
0
100
AcDbPolyline
 62
7
  6
CONTINUOUS
 90
3
 70
0
 43
0.3500000006
 10
174.5317672119
 20
143.9987248535
 10
174.4603269653
 20
143.7844403687
 10
174.3174827271
 20
143.4987156372
  0
LINE
  5
263
100
AcDbEntity
  8
217
100
AcDbLine
 62
7
  6
CONTINUOUS
 10
162.5153860592
 20
88.1245358724
 11
162.5328886518
 21
88.1157852426
  0
LINE
  5
264
100
AcDbEntity
  8
217
100
AcDbLine
 62
250
  6
CONTINUOUS
 10
162.2389030612
 20
88.571832436
 11
162.2563199636
 21
88.563124648
  0
LWPOLYLINE
  5
265
100
AcDbEntity
  8
217
100
AcDbPolyline
 62
7
  6
CONTINUOUS
 90
27
 70
0
 10
162.5328659872
 20
88.1157965748
 10
162.5124451605
 20
88.1266042529
 10
162.4939644714
 20
88.1374648255
 10
162.4759332463
 20
88.1491295827
 10
162.4583988449
 20
88.1615728146
 10
162.4413702629
 20
88.1747946835
 10
162.4248579813
 20
88.1887992996
 10
162.4089253733
 20
88.2035456413
 10
162.3936560985
 20
88.2189602599
 10
162.3790805257
 20
88.2350097176
 10
162.3652216938
 20
88.2516657424
 10
162.3521382296
 20
88.2688494641
 10
162.3398521392
 20
88.2865159901
 10
162.328373214
 20
88.304634337
 10
162.3177298973
 20
88.3231390332
 10
162.3079382807
 20
88.3419737394
 10
162.2989952139
 20
88.3611140121
 10
162.290896668
 20
88.3805416243
 10
162.2836487509
 20
88.4002156952
 10
162.2772537814
 20
88.42010084
 10
162.2717058587
 20
88.4401898368
 10
162.2670074378
 20
88.4604533741
 10
162.2631629972
 20
88.4808481126
 10
162.2601722545
 20
88.5013473749
 10
162.2580354785
 20
88.5219185147
 10
162.2567521994
 20
88.5425227337
 10
162.2563199636
 20
88.563124648
  0
LINE
  5
266
100
AcDbEntity
  8
217
100
AcDbLine
 62
250
  6
CONTINUOUS
 10
164.888907292
 20
85.9630103766
 11
164.8758087133
 21
85.9761089553
  0
LINE
  5
267
100
AcDbEntity
  8
217
100
AcDbLine
 62
250
  6
CONTINUOUS
 10
165.1389030612
 20
86.2130061458
 11
165.1258044825
 21
86.2261047245
  0
LWPOLYLINE
  5
268
100
AcDbEntity
  8
217
100
AcDbPolyline
 62
250
  6
CONTINUOUS
 90
18
 70
0
 10
162.4062300221
 20
89.9211045201
 10
162.4071940217
 20
89.9201368252
 10
162.4092633731
 20
89.919171274
 10
162.4124334921
 20
89.9182100056
 10
162.4166973559
 20
89.9172551494
 10
162.4220455186
 20
89.9163088208
 10
162.4284661324
 20
89.9153731162
 10
162.4359449737
 20
89.9144501084
 10
162.4444654745
 20
89.9135418422
 10
162.4540087593
 20
89.9126503297
 10
162.4645536865
 20
89.9117775459
 10
162.4760768961
 20
89.9109254242
 10
162.4885528604
 20
89.9100958524
 10
162.5019539413
 20
89.9092906683
 10
162.5162504513
 20
89.9085116555
 10
162.531410719
 20
89.9077605398
 10
162.5474011598
 20
89.9070389852
 10
162.5817291046
 20
89.9056908842
  0
LWPOLYLINE
  5
269
100
AcDbEntity
  8
217
100
AcDbPolyline
 62
250
  6
CONTINUOUS
 90
31
 70
0
 10
162.7520016399
 20
86.2261047245
 10
162.7523446785
 20
86.2130212385
 10
162.7533719684
 20
86.1999736119
 10
162.755080694
 20
86.1869976058
 10
162.7574661719
 20
86.1741287849
 10
162.7605218641
 20
86.1614024204
 10
162.7642393955
 20
86.1488533927
 10
162.768608577
 20
86.1365160964
 10
162.7736174335
 20
86.1244243458
 10
162.7792522367
 20
86.112611282
 10
162.7854975426
 20
86.1011092824
 10
162.792336234
 20
86.0899498719
 10
162.7997495673
 20
86.0791636363
 10
162.8077172241
 20
86.0687801386
 10
162.8162173664
 20
86.0588278382
 10
162.8252266969
 20
86.0493340123
 10
162.8347205228
 20
86.0403246817
 10
162.8446728233
 20
86.0318245394
 10
162.855056321
 20
86.0238568827
 10
162.8658425566
 20
86.0164435493
 10
162.8770019671
 20
86.0096048579
 10
162.8885039666
 20
86.003359552
 10
162.9003170304
 20
85.9977247488
 10
162.9124087811
 20
85.9927158923
 10
162.9247460774
 20
85.9883467108
 10
162.937295105
 20
85.9846291795
 10
162.9500214696
 20
85.9815734873
 10
162.9628902904
 20
85.9791880093
 10
162.9758662966
 20
85.9774792837
 10
162.9889139232
 20
85.9764519939
 10
163.0019974092
 20
85.9761089553
  0
LWPOLYLINE
  5
26A
100
AcDbEntity
  8
217
100
AcDbPolyline
 62
250
  6
CONTINUOUS
 90
34
 70
0
 10
162.3897032515
 20
88.963599922
 10
162.3902905516
 20
88.9398553687
 10
162.3920076944
 20
88.9161645415
 10
162.3948507943
 20
88.8925810455
 10
162.3988134185
 20
88.8691582427
 10
162.4038866008
 20
88.8459491315
 10
162.4100588623
 20
88.823006227
 10
162.417316237
 20
88.8003814418
 10
162.425642304
 20
88.7781259687
 10
162.4350182238
 20
88.7562901649
 10
162.4454227819
 20
88.7349234381
 10
162.4568324359
 20
88.7140741345
 10
162.4692213694
 20
88.6937894297
 10
162.4825615503
 20
88.6741152215
 10
162.4968227938
 20
88.6550960267
 10
162.5119728312
 20
88.6367748798
 10
162.5279773828
 20
88.6191932358
 10
162.5448002352
 20
88.6023908766
 10
162.5624033237
 20
88.5864058208
 10
162.580746818
 20
88.5712742376
 10
162.5997892123
 20
88.557030365
 10
162.6194874199
 20
88.5437064327
 10
162.6397968696
 20
88.5313325884
 10
162.6606716077
 20
88.5199368305
 10
162.682064401
 20
88.5095449441
 10
162.7039268443
 20
88.5001804427
 10
162.7262094697
 20
88.4918645153
 10
162.7488618585
 20
88.4846159784
 10
162.7718327554
 20
88.4784512332
 10
162.7950701845
 20
88.4733842285
 10
162.8185215665
 20
88.4694264295
 10
162.8421338382
 20
88.4665867915
 10
162.8658535726
 20
88.4648717396
 10
162.8896270991
 20
88.4642851546
  0
LWPOLYLINE
  5
26B
100
AcDbEntity
  8
217
100
AcDbPolyline
 62
7
  6
CONTINUOUS
 90
34
 70
0
 10
162.7389030612
 20
86.2130061458
 10
162.7391862115
 20
86.2011108605
 10
162.740035027
 20
86.189242521
 10
162.7414475871
 20
86.1774280104
 10
162.7434206935
 20
86.1656940891
 10
162.7459498795
 20
86.1540673378
 10
162.7490294195
 20
86.1425740976
 10
162.7526523399
 20
86.1312404028
 10
162.7568104354
 20
86.1200919273
 10
162.761494289
 20
86.1091539303
 10
162.7666932924
 20
86.098451189
 10
162.7723956696
 20
86.0880079483
 10
162.7785885031
 20
86.0778478707
 10
162.7852577657
 20
86.0679939714
 10
162.7923883505
 20
86.0584685727
 10
162.7999641024
 20
86.0492932575
 10
162.8079678607
 20
86.0404888105
 10
162.8163814951
 20
86.0320751761
 10
162.8251859422
 20
86.0240714177
 10
162.8343612574
 20
86.0164956658
 10
162.8438866561
 20
86.0093650811
 10
162.8537405553
 20
86.0026958184
 10
162.863900633
 20
85.9965029849
 10
162.8743438736
 20
85.9908006077
 10
162.8850466149
 20
85.9856016044
 10
162.8959846119
 20
85.9809177508
 10
162.9071330874
 20
85.9767596552
 10
162.9184667822
 20
85.9731367349
 10
162.9299600224
 20
85.9700571948
 10
162.9415867737
 20
85.9675280088
 10
162.9533206951
 20
85.9655549024
 10
162.9651352057
 20
85.9641423423
 10
162.9770035452
 20
85.9632935268
 10
162.9888988304
 20
85.9630103766
  0
LINE
  5
26C
100
AcDbEntity
  8
217
100
AcDbLine
 62
250
  6
CONTINUOUS
 10
162.4003078389
 20
131.7151659609
 11
162.3993577941
 21
131.7596760337
  0
LINE
  5
26D
100
AcDbEntity
  8
217
100
AcDbLine
 62
250
  6
CONTINUOUS
 10
162.4016252535
 20
131.6414787001
 11
162.4003078389
 21
131.7151659609
  0
LINE
  5
26E
100
AcDbEntity
  8
217
100
AcDbLine
 62
250
  6
CONTINUOUS
 10
162.4027998534
 20
131.5602514915
 11
162.4016252535
 21
131.6414787001
  0
LINE
  5
26F
100
AcDbEntity
  8
217
100
AcDbLine
 62
250
  6
CONTINUOUS
 10
162.4038185672
 20
131.4723886397
 11
162.4027998534
 21
131.5602514915
  0
LINE
  5
270
100
AcDbEntity
  8
217
100
AcDbLine
 62
250
  6
CONTINUOUS
 10
162.7520016399
 20
86.6186728093
 11
162.7461838101
 21
87.1960230785
  0
LINE
  5
271
100
AcDbEntity
  8
217
100
AcDbLine
 62
250
  6
CONTINUOUS
 10
163.0019974092
 20
86.8351791602
 11
162.9969068081
 21
87.3403606457
  0
LINE
  5
272
100
AcDbEntity
  8
217
100
AcDbLine
 62
250
  6
CONTINUOUS
 10
162.4046700502
 20
131.3788694064
 11
162.4038185672
 21
131.4723886397
  0
LINE
  5
273
100
AcDbEntity
  8
217
100
AcDbLine
 62
250
  6
CONTINUOUS
 10
162.9037423189
 20
131.7266846242
 11
162.9027236775
 21
131.8584689269
  0
LINE
  5
274
100
AcDbEntity
  8
217
100
AcDbLine
 62
250
  6
CONTINUOUS
 10
162.4053448535
 20
131.280732358
 11
162.4046700502
 21
131.3788694064
  0
LINE
  5
275
100
AcDbEntity
  8
217
100
AcDbLine
 62
250
  6
CONTINUOUS
 10
162.9045937599
 20
131.5864167574
 11
162.9037423189
 21
131.7266846242
  0
LINE
  5
276
100
AcDbEntity
  8
217
100
AcDbLine
 62
250
  6
CONTINUOUS
 10
162.4058354742
 20
131.1790686547
 11
162.4053448535
 21
131.280732358
  0
LINE
  5
277
100
AcDbEntity
  8
217
100
AcDbLine
 62
250
  6
CONTINUOUS
 10
162.9052685513
 20
131.4392227783
 11
162.9045937599
 21
131.5864167574
  0
LINE
  5
278
100
AcDbEntity
  8
217
100
AcDbLine
 62
250
  6
CONTINUOUS
 10
162.9057591915
 20
131.2867415443
 11
162.9052685513
 21
131.4392227783
  0
LINE
  5
279
100
AcDbEntity
  8
217
100
AcDbLine
 62
250
  6
CONTINUOUS
 10
162.406193867
 20
131.0400812636
 11
162.4058354742
 21
131.1790686547
  0
LWPOLYLINE
  5
27A
100
AcDbEntity
  8
217
100
AcDbPolyline
 62
250
  6
CONTINUOUS
 90
3
 70
0
 10
162.9074917934
 20
129.0681002428
 10
162.9061176719
 20
131.0781466377
 10
162.9057591915
 20
131.2867415443
  0
LINE
  5
27B
100
AcDbEntity
  8
218
100
AcDbLine
 62
7
  6
CONTINUOUS
 10
162.2389030612
 20
128.1345832518
 11
162.2389030612
 21
92.7914375013
  0
LINE
  5
27C
100
AcDbEntity
  8
217
100
AcDbLine
 62
7
  6
CONTINUOUS
 10
162.2389030612
 20
88.571832436
 11
162.2389030612
 21
132.3541883172
  0
LINE
  5
27D
100
AcDbEntity
  8
217
100
AcDbLine
 62
7
  6
CONTINUOUS
 10
162.7389030612
 20
86.2130061458
 11
162.7389030612
 21
88.0633204086
  0
LINE
  5
27E
100
AcDbEntity
  8
217
100
AcDbLine
 62
7
  6
CONTINUOUS
 10
162.7389030612
 20
132.8627003445
 11
162.7389030612
 21
134.7130146073
  0
LINE
  5
27F
100
AcDbEntity
  8
217
100
AcDbLine
 62
250
  6
CONTINUOUS
 10
162.7461838101
 20
133.7299976747
 11
162.7461838101
 21
132.796421338
  0
LINE
  5
280
100
AcDbEntity
  8
217
100
AcDbLine
 62
250
  6
CONTINUOUS
 10
162.7461838101
 20
88.1295994151
 11
162.7461838101
 21
87.1960230785
  0
LINE
  5
281
100
AcDbEntity
  8
217
100
AcDbLine
 62
250
  6
CONTINUOUS
 10
162.7520016399
 20
134.6999160286
 11
162.7520016399
 21
134.3073479439
  0
LINE
  5
282
100
AcDbEntity
  8
217
100
AcDbLine
 62
250
  6
CONTINUOUS
 10
162.7520016399
 20
86.6186728093
 11
162.7520016399
 21
86.2261047245
  0
LINE
  5
283
100
AcDbEntity
  8
217
100
AcDbLine
 62
250
  6
CONTINUOUS
 10
162.9961795793
 20
133.5856601074
 11
162.9961795793
 21
132.7843987076
  0
LINE
  5
284
100
AcDbEntity
  8
217
100
AcDbLine
 62
250
  6
CONTINUOUS
 10
162.9961795793
 20
88.1416220455
 11
162.9961795793
 21
87.3403606457
  0
LINE
  5
285
100
AcDbEntity
  8
217
100
AcDbLine
 62
250
  6
CONTINUOUS
 10
163.0019974092
 20
85.9761089553
 11
163.0019974092
 21
86.8351791602
  0
LINE
  5
286
100
AcDbEntity
  8
217
100
AcDbLine
 62
250
  6
CONTINUOUS
 10
163.0019974092
 20
134.0908415929
 11
163.0019974092
 21
134.9499117978
  0
LWPOLYLINE
  5
287
100
AcDbEntity
  8
217
100
AcDbPolyline
 62
250
  6
CONTINUOUS
 90
21
 70
0
 10
162.4075679456
 20
91.8765750917
 10
162.4087721045
 20
93.8322710423
 10
162.4098424988
 20
95.7881923719
 10
162.4107791409
 20
97.7443691593
 10
162.4115820185
 20
99.7007713257
 10
162.4122510944
 20
101.6573086343
 10
162.4127863625
 20
103.6139810383
 10
162.413187829
 20
105.5707885846
 10
162.4134554754
 20
107.5276411768
 10
162.4135892955
 20
109.4845388134
 10
162.4135892955
 20
111.4414814961
 10
162.4134554755
 20
113.3983791328
 10
162.4131878291
 20
115.3552317252
 10
162.4127863626
 20
117.3120392718
 10
162.4122510946
 20
119.2687116761
 10
162.4115820187
 20
121.2252489687
 10
162.4107791411
 20
123.181651119
 10
162.409842499
 20
125.1378279394
 10
162.4087721046
 20
127.0937493672
 10
162.4075679457
 20
129.0494454651
 10
162.406193867
 20
131.0400812636
  0
LWPOLYLINE
  5
288
100
AcDbEntity
  8
217
100
AcDbPolyline
 62
250
  6
CONTINUOUS
 90
20
 70
0
 10
162.9074917934
 20
91.8579205104
 10
162.9086959525
 20
93.815584509
 10
162.9097663469
 20
95.7735039997
 10
162.910702989
 20
97.7316489263
 10
162.9115058664
 20
99.6899892377
 10
162.9121749422
 20
101.6484948888
 10
162.9127102103
 20
103.6071358211
 10
162.9131116767
 20
105.5658819692
 10
162.913379323
 20
107.5247032745
 10
162.9135131431
 20
109.4835696676
 10
162.9135131431
 20
111.4424510857
 10
162.913379323
 20
113.4013174788
 10
162.9131116767
 20
115.3601387841
 10
162.9127102103
 20
117.3188849323
 10
162.9121749422
 20
119.2775258645
 10
162.9115058664
 20
121.2360315156
 10
162.910702989
 20
123.194371827
 10
162.9097663469
 20
125.1525167535
 10
162.9086959525
 20
127.1104362442
 10
162.9074917934
 20
129.0681002428
  0
LINE
  5
289
100
AcDbEntity
  8
217
100
AcDbLine
 62
250
  6
CONTINUOUS
 10
162.9058808967
 20
89.6909875032
 11
162.9074917934
 21
91.8579205104
  0
LINE
  5
28A
100
AcDbEntity
  8
217
100
AcDbLine
 62
250
  6
CONTINUOUS
 10
162.4060575544
 20
89.8161527458
 11
162.4075679456
 21
91.8765750917
  0
LINE
  5
28B
100
AcDbEntity
  8
217
100
AcDbLine
 62
250
  6
CONTINUOUS
 10
162.9052685545
 20
89.4867984179
 11
162.9058808967
 21
89.6909875032
  0
LINE
  5
28C
100
AcDbEntity
  8
217
100
AcDbLine
 62
250
  6
CONTINUOUS
 10
162.405529396
 20
89.6788833977
 11
162.4060575544
 21
89.8161527458
  0
LINE
  5
28D
100
AcDbEntity
  8
217
100
AcDbLine
 62
250
  6
CONTINUOUS
 10
162.9045937651
 20
89.339604453
 11
162.9052685545
 21
89.4867984179
  0
LINE
  5
28E
100
AcDbEntity
  8
217
100
AcDbLine
 62
250
  6
CONTINUOUS
 10
162.903742326
 20
89.1993365341
 11
162.9045937651
 21
89.339604453
  0
LINE
  5
28F
100
AcDbEntity
  8
217
100
AcDbLine
 62
250
  6
CONTINUOUS
 10
162.4049153327
 20
89.5794457117
 11
162.405529396
 21
89.6788833977
  0
LINE
  5
290
100
AcDbEntity
  8
217
100
AcDbLine
 62
250
  6
CONTINUOUS
 10
162.9027236866
 20
89.067552177
 11
162.903742326
 21
89.1993365341
  0
LINE
  5
291
100
AcDbEntity
  8
217
100
AcDbLine
 62
250
  6
CONTINUOUS
 10
162.4041218702
 20
89.484267816
 11
162.4049153327
 21
89.5794457117
  0
LINE
  5
292
100
AcDbEntity
  8
217
100
AcDbLine
 62
250
  6
CONTINUOUS
 10
162.7461838101
 20
133.7299976747
 11
162.7520016399
 21
134.3073479439
  0
LINE
  5
293
100
AcDbEntity
  8
217
100
AcDbLine
 62
250
  6
CONTINUOUS
 10
162.9969068081
 20
133.5856601074
 11
163.0019974092
 21
134.0908415929
  0
LINE
  5
294
100
AcDbEntity
  8
217
100
AcDbLine
 62
250
  6
CONTINUOUS
 10
162.9015491869
 20
88.9457195871
 11
162.9027236866
 21
89.067552177
  0
LINE
  5
295
100
AcDbEntity
  8
217
100
AcDbLine
 62
250
  6
CONTINUOUS
 10
162.4031578137
 20
89.3944056711
 11
162.4041218702
 21
89.484267816
  0
LINE
  5
296
100
AcDbEntity
  8
217
100
AcDbLine
 62
250
  6
CONTINUOUS
 10
162.9002318901
 20
88.8351944791
 11
162.9015491869
 21
88.9457195871
  0
LINE
  5
297
100
AcDbEntity
  8
217
100
AcDbLine
 62
250
  6
CONTINUOUS
 10
162.40203388
 20
89.3108594144
 11
162.4031578137
 21
89.3944056711
  0
LINE
  5
298
100
AcDbEntity
  8
217
100
AcDbLine
 62
250
  6
CONTINUOUS
 10
162.8992819317
 20
88.7684053629
 11
162.9002318901
 21
88.8351944791
  0
LINE
  5
299
100
AcDbEntity
  8
217
100
AcDbLine
 62
250
  6
CONTINUOUS
 10
162.8982791136
 20
88.7075214768
 11
162.8992819317
 21
88.7684053629
  0
LINE
  5
29A
100
AcDbEntity
  8
217
100
AcDbLine
 62
250
  6
CONTINUOUS
 10
162.4007625837
 20
89.2345600609
 11
162.40203388
 21
89.3108594144
  0
LINE
  5
29B
100
AcDbEntity
  8
217
100
AcDbLine
 62
250
  6
CONTINUOUS
 10
162.8972289174
 20
88.6528449966
 11
162.8982791136
 21
88.7075214768
  0
LWPOLYLINE
  5
29C
100
AcDbEntity
  8
217
100
AcDbPolyline
 62
7
  6
CONTINUOUS
 90
27
 70
0
 10
162.2563199636
 20
132.3628961051
 10
162.2567521994
 20
132.3834980194
 10
162.2580354785
 20
132.4041022384
 10
162.2601722545
 20
132.4246733783
 10
162.2631629972
 20
132.4451726405
 10
162.2670074378
 20
132.465567379
 10
162.2717058587
 20
132.4858309163
 10
162.2772537814
 20
132.5059199131
 10
162.2836487509
 20
132.5258050579
 10
162.290896668
 20
132.5454791288
 10
162.2989952139
 20
132.564906741
 10
162.3079382807
 20
132.5840470137
 10
162.3177298973
 20
132.6028817199
 10
162.328373214
 20
132.6213864161
 10
162.3398521392
 20
132.639504763
 10
162.3521382296
 20
132.6571712891
 10
162.3652216938
 20
132.6743550107
 10
162.3790805257
 20
132.6910110356
 10
162.3936560985
 20
132.7070604932
 10
162.4089253733
 20
132.7224751118
 10
162.4248579813
 20
132.7372214535
 10
162.4413702629
 20
132.7512260696
 10
162.4583988449
 20
132.7644479385
 10
162.4759332463
 20
132.7768911704
 10
162.4939644714
 20
132.7885559276
 10
162.5124451605
 20
132.7994165002
 10
162.5328659872
 20
132.8102241783
  0
LINE
  5
29D
100
AcDbEntity
  8
217
100
AcDbLine
 62
250
  6
CONTINUOUS
 10
162.3993580526
 20
89.1663559827
 11
162.4007625837
 21
89.2345600609
  0
LINE
  5
29E
100
AcDbEntity
  8
217
100
AcDbLine
 62
250
  6
CONTINUOUS
 10
162.8961372941
 20
88.6046459092
 11
162.8972289174
 21
88.6528449966
  0
LWPOLYLINE
  5
29F
100
AcDbEntity
  8
217
100
AcDbPolyline
 62
250
  6
CONTINUOUS
 90
34
 70
0
 10
162.3897032515
 20
131.9624208312
 10
162.3902905519
 20
131.9861653897
 10
162.3920076953
 20
132.0098562217
 10
162.3948507964
 20
132.0334397221
 10
162.3988134221
 20
132.056862529
 10
162.4038866062
 20
132.0800716437
 10
162.4100588697
 20
132.1030145513
 10
162.4173162467
 20
132.1256393391
 10
162.425642316
 20
132.1478948143
 10
162.4350182382
 20
132.1697306197
 10
162.4454227987
 20
132.1910973476
 10
162.4568324551
 20
132.2119466518
 10
162.4692213909
 20
132.2322313568
 10
162.4825615738
 20
132.2519055646
 10
162.4968228192
 20
132.2709247587
 10
162.5119728583
 20
132.2892459046
 10
162.5279774112
 20
132.3068275471
 10
162.5448002647
 20
132.3236299046
 10
162.5624033539
 20
132.3396149584
 10
162.5807468485
 20
132.3547465395
 10
162.5997892428
 20
132.3689904098
 10
162.6194874499
 20
132.3823143398
 10
162.6397968988
 20
132.3946881816
 10
162.6606716357
 20
132.406083937
 10
162.6820644274
 20
132.4164758211
 10
162.7039268688
 20
132.4258403203
 10
162.7262094919
 20
132.4341562455
 10
162.7488618782
 20
132.4414047805
 10
162.7718327722
 20
132.447569524
 10
162.7950701982
 20
132.4526365273
 10
162.8185215769
 20
132.4565943251
 10
162.8421338453
 20
132.4594339623
 10
162.8658535762
 20
132.4611490137
 10
162.8896270991
 20
132.4617355985
  0
LINE
  5
2A0
100
AcDbEntity
  8
217
100
AcDbLine
 62
250
  6
CONTINUOUS
 10
162.3983551488
 20
89.1257529752
 11
162.3993580526
 21
89.1663559827
  0
LINE
  5
2A1
100
AcDbEntity
  8
217
100
AcDbLine
 62
250
  6
CONTINUOUS
 10
162.3973048646
 20
89.0892945943
 11
162.3983551488
 21
89.1257529752
  0
LWPOLYLINE
  5
2A2
100
AcDbEntity
  8
217
100
AcDbPolyline
 62
250
  6
CONTINUOUS
 90
31
 70
0
 10
162.7520016399
 20
86.6186728093
 10
162.7523809717
 20
86.6299829598
 10
162.7534419536
 20
86.6412622246
 10
162.7551816885
 20
86.6524798025
 10
162.7575954254
 20
86.6636050606
 10
162.760676573
 20
86.6746076181
 10
162.7644167173
 20
86.6854574294
 10
162.7688056447
 20
86.6961248658
 10
162.7738313699
 20
86.7065807969
 10
162.7794801689
 20
86.7167966697
 10
162.7857366159
 20
86.7267445867
 10
162.7925836258
 20
86.7363973824
 10
162.8000025009
 20
86.7457286969
 10
162.8079729819
 20
86.7547130484
 10
162.8164733029
 20
86.7633259024
 10
162.8254802514
 20
86.7715437391
 10
162.8349692313
 20
86.7793441174
 10
162.8449143302
 20
86.7867057359
 10
162.8552883901
 20
86.7936084917
 10
162.8660630817
 20
86.8000335347
 10
162.8772089814
 20
86.8059633196
 10
162.8886956522
 20
86.8113816533
 10
162.9004917263
 20
86.8162737395
 10
162.9125649913
 20
86.820626219
 10
162.9248824774
 20
86.8244272059
 10
162.9374105483
 20
86.8276663207
 10
162.9501149923
 20
86.8303347179
 10
162.9629611164
 20
86.8324251108
 10
162.9759138405
 20
86.8339317909
 10
162.9889377933
 20
86.8348506437
 10
163.0019974092
 20
86.8351791602
  0
LINE
  5
2A3
100
AcDbEntity
  8
217
100
AcDbLine
 62
250
  6
CONTINUOUS
 10
162.3962131453
 20
89.0571736804
 11
162.3973048646
 21
89.0892945943
  0
LINE
  5
2A4
100
AcDbEntity
  8
217
100
AcDbLine
 62
7
  6
CONTINUOUS
 10
165.1389030612
 20
132.8630103766
 11
165.1316223123
 21
132.7974244289
  0
LWPOLYLINE
  5
2A5
100
AcDbEntity
  8
217
100
AcDbPolyline
 62
7
  6
CONTINUOUS
 90
24
 70
0
 10
169.0926957476
 20
86.6676714097
 10
169.103484871
 20
86.6682188117
 10
169.1145723331
 20
86.6696464816
 10
169.125958134
 20
86.6718738886
 10
169.1376669143
 20
86.67481248
 10
169.1496740333
 20
86.678386505
 10
169.1619055692
 20
86.6825508633
 10
169.1743543095
 20
86.6872460063
 10
169.1870274666
 20
86.6924085669
 10
169.1998727568
 20
86.6980150662
 10
169.2128858889
 20
86.7040201446
 10
169.226071154
 20
86.7103738118
 10
169.2393891409
 20
86.7170643183
 10
169.2528376279
 20
86.7240560934
 10
169.2664188368
 20
86.7313089844
 10
169.2801000216
 20
86.7388167036
 10
169.2938801334
 20
86.7465501887
 10
169.3077602211
 20
86.7544764256
 10
169.3217106856
 20
86.7625911865
 10
169.3357312862
 20
86.7708698475
 10
169.3498222636
 20
86.7792844173
 10
169.3639547411
 20
86.7878306968
 10
169.3781290593
 20
86.7964871159
 10
169.406572297
 20
86.8140514103
  0
LINE
  5
2A6
100
AcDbEntity
  8
DRAFT
100
AcDbLine
 62
7
  6
CONTINUOUS
 10
174.2389030612
 20
86.6599559713
 11
174.2378566098
 21
86.6599069087
  0
LWPOLYLINE
  5
2A7
100
AcDbEntity
  8
217
100
AcDbPolyline
 62
250
  6
CONTINUOUS
 90
31
 70
0
 10
183.7758087133
 20
85.9761089553
 10
183.7888921993
 20
85.9764519939
 10
183.8019398259
 20
85.9774792837
 10
183.814915832
 20
85.9791880093
 10
183.8277846529
 20
85.9815734873
 10
183.8405110174
 20
85.9846291795
 10
183.8530600451
 20
85.9883467108
 10
183.8653973414
 20
85.9927158923
 10
183.877489092
 20
85.9977247488
 10
183.8893021558
 20
86.003359552
 10
183.9008041554
 20
86.0096048579
 10
183.9119635659
 20
86.0164435493
 10
183.9227498015
 20
86.0238568827
 10
183.9331332991
 20
86.0318245394
 10
183.9430855996
 20
86.0403246817
 10
183.9525794255
 20
86.0493340123
 10
183.9615887561
 20
86.0588278382
 10
183.9700888983
 20
86.0687801386
 10
183.9780565551
 20
86.0791636363
 10
183.9854698885
 20
86.0899498719
 10
183.9923085799
 20
86.1011092824
 10
183.9985538858
 20
86.112611282
 10
184.004188689
 20
86.1244243458
 10
184.0091975454
 20
86.1365160964
 10
184.0135667269
 20
86.1488533927
 10
184.0172842583
 20
86.1614024204
 10
184.0203399505
 20
86.1741287849
 10
184.0227254285
 20
86.1869976058
 10
184.0244341541
 20
86.1999736119
 10
184.0254614439
 20
86.2130212385
 10
184.0258044825
 20
86.2261047245
  0
LWPOLYLINE
  5
2A8
100
AcDbEntity
  8
217
100
AcDbPolyline
 62
250
  6
CONTINUOUS
 90
31
 70
0
 10
164.8758087133
 20
85.9761089553
 10
164.8888950674
 20
85.9764521443
 10
164.9019455658
 20
85.9774798873
 10
164.9149244232
 20
85.9791893704
 10
164.9277960628
 20
85.9815759131
 10
164.9405251767
 20
85.9846329743
 10
164.9530768242
 20
85.9883521638
 10
164.9654165803
 20
85.9927232789
 10
164.9775106175
 20
85.9977343343
 10
164.9893257632
 20
86.0033715826
 10
165.000829619
 20
86.0096195618
 10
165.0119906449
 20
86.0164611376
 10
165.0227782353
 20
86.0238775444
 10
165.0331628245
 20
86.0318484526
 10
165.0431159279
 20
86.0403519941
 10
165.0526102211
 20
86.0493648132
 10
165.0616196429
 20
86.0588621477
 10
165.0701195399
 20
86.0688179848
 10
165.0780866821
 20
86.0792051107
 10
165.0854993121
 20
86.0899951899
 10
165.0923369939
 20
86.1011585083
 10
165.0985807956
 20
86.1126641087
 10
165.1042135442
 20
86.124480187
 10
165.1092199741
 20
86.1365745431
 10
165.1135865252
 20
86.148914347
 10
165.1173019649
 20
86.1614685316
 10
165.1203550783
 20
86.1741999968
 10
165.1227362085
 20
86.1870657156
 10
165.1244398127
 20
86.2000274901
 10
165.1254630753
 20
86.2130523845
 10
165.1258044825
 20
86.2261047245
  0
LWPOLYLINE
  5
2A9
100
AcDbEntity
  8
217
100
AcDbPolyline
 62
7
  6
CONTINUOUS
 90
34
 70
0
 10
183.788907292
 20
85.9630103766
 10
183.8008025772
 20
85.9632935268
 10
183.8126709168
 20
85.9641423423
 10
183.8244854274
 20
85.9655549024
 10
183.8362193487
 20
85.9675280088
 10
183.8478461
 20
85.9700571948
 10
183.8593393402
 20
85.9731367349
 10
183.870673035
 20
85.9767596552
 10
183.8818215105
 20
85.9809177508
 10
183.8927595075
 20
85.9856016044
 10
183.9034622488
 20
85.9908006077
 10
183.9139054895
 20
85.9965029849
 10
183.9240655671
 20
86.0026958184
 10
183.9339194663
 20
86.0093650811
 10
183.9434448651
 20
86.0164956658
 10
183.9526201803
 20
86.0240714177
 10
183.9614246273
 20
86.0320751761
 10
183.9698382617
 20
86.0404888105
 10
183.9778420201
 20
86.0492932575
 10
183.9854177719
 20
86.0584685727
 10
183.9925483567
 20
86.0679939714
 10
183.9992176194
 20
86.0778478707
 10
184.0054104529
 20
86.0880079483
 10
184.0111128301
 20
86.098451189
 10
184.0163118334
 20
86.1091539303
 10
184.020995687
 20
86.1200919273
 10
184.0251537826
 20
86.1312404028
 10
184.0287767029
 20
86.1425740976
 10
184.0318562429
 20
86.1540673378
 10
184.0343854289
 20
86.1656940891
 10
184.0363585354
 20
86.1774280104
 10
184.0377710955
 20
86.189242521
 10
184.038619911
 20
86.2011108605
 10
184.0389030612
 20
86.2130061458
  0
LWPOLYLINE
  5
2AA
100
AcDbEntity
  8
217
100
AcDbPolyline
 62
7
  6
CONTINUOUS
 90
34
 70
0
 10
164.888907292
 20
85.9630103766
 10
164.9008025772
 20
85.9632935268
 10
164.9126709168
 20
85.9641423423
 10
164.9244854274
 20
85.9655549024
 10
164.9362193487
 20
85.9675280088
 10
164.9478461
 20
85.9700571948
 10
164.9593393402
 20
85.9731367349
 10
164.970673035
 20
85.9767596552
 10
164.9818215105
 20
85.9809177508
 10
164.9927595075
 20
85.9856016044
 10
165.0034622488
 20
85.9908006077
 10
165.0139054895
 20
85.9965029849
 10
165.0240655671
 20
86.0026958184
 10
165.0339194663
 20
86.0093650811
 10
165.0434448651
 20
86.0164956658
 10
165.0526201803
 20
86.0240714177
 10
165.0614246273
 20
86.0320751761
 10
165.0698382617
 20
86.0404888105
 10
165.0778420201
 20
86.0492932575
 10
165.0854177719
 20
86.0584685727
 10
165.0925483567
 20
86.0679939714
 10
165.0992176194
 20
86.0778478707
 10
165.1054104529
 20
86.0880079483
 10
165.1111128301
 20
86.098451189
 10
165.1163118334
 20
86.1091539303
 10
165.120995687
 20
86.1200919273
 10
165.1251537826
 20
86.1312404028
 10
165.1287767029
 20
86.1425740976
 10
165.1318562429
 20
86.1540673378
 10
165.1343854289
 20
86.1656940891
 10
165.1363585354
 20
86.1774280104
 10
165.1377710955
 20
86.189242521
 10
165.138619911
 20
86.2011108605
 10
165.1389030612
 20
86.2130061458
  0
LINE
  5
2AB
100
AcDbEntity
  8
DRAFT
100
AcDbLine
 62
7
  6
CONTINUOUS
 10
172.5389030612
 20
86.6582105993
 11
170.4881433981
 21
86.6403138908
  0
LINE
  5
2AC
100
AcDbEntity
  8
217
100
AcDbLine
 62
7
  6
CONTINUOUS
 10
183.788907292
 20
85.9630103766
 11
181.8888988304
 21
85.9630103766
  0
LINE
  5
2AD
100
AcDbEntity
  8
217
100
AcDbLine
 62
7
  6
CONTINUOUS
 10
164.888907292
 20
85.9630103766
 11
162.9888988304
 21
85.9630103766
  0
LINE
  5
2AE
100
AcDbEntity
  8
217
100
AcDbLine
 62
250
  6
CONTINUOUS
 10
163.0019974092
 20
85.9761089553
 11
164.8758087133
 21
85.9761089553
  0
LINE
  5
2AF
100
AcDbEntity
  8
217
100
AcDbLine
 62
250
  6
CONTINUOUS
 10
181.9019974092
 20
85.9761089553
 11
183.7758087133
 21
85.9761089553
  0
LINE
  5
2B0
100
AcDbEntity
  8
217
100
AcDbLine
 62
250
  6
CONTINUOUS
 10
162.7520016399
 20
86.2261047245
 11
165.1258044825
 21
86.2261047245
  0
LINE
  5
2B1
100
AcDbEntity
  8
217
100
AcDbLine
 62
250
  6
CONTINUOUS
 10
181.6520016399
 20
86.2261047245
 11
184.0258044825
 21
86.2261047245
  0
LINE
  5
2B2
100
AcDbEntity
  8
217
100
AcDbLine
 62
250
  6
CONTINUOUS
 10
162.7520016399
 20
86.6186728093
 11
165.1258044825
 21
86.6186728093
  0
LINE
  5
2B3
100
AcDbEntity
  8
217
100
AcDbLine
 62
250
  6
CONTINUOUS
 10
181.6520016399
 20
86.6186728093
 11
184.0258044825
 21
86.6186728093
  0
LINE
  5
2B4
100
AcDbEntity
  8
217
100
AcDbLine
 62
7
  6
CONTINUOUS
 10
177.7889030612
 20
86.6630103766
 11
174.2389030612
 21
86.6630103766
  0
LINE
  5
2B5
100
AcDbEntity
  8
217
100
AcDbLine
 62
7
  6
CONTINUOUS
 10
172.5389030612
 20
86.6630103766
 11
168.9889030612
 21
86.6630103766
  0
LINE
  5
2B6
100
AcDbEntity
  8
217
100
AcDbLine
 62
250
  6
CONTINUOUS
 10
169.0926957476
 20
86.6676714097
 11
172.5389030612
 21
86.6676714097
  0
LINE
  5
2B7
100
AcDbEntity
  8
217
100
AcDbLine
 62
250
  6
CONTINUOUS
 10
174.2389030612
 20
86.6676714097
 11
177.6851103749
 21
86.6676714097
  0
LINE
  5
2B8
100
AcDbEntity
  8
217
100
AcDbLine
 62
250
  6
CONTINUOUS
 10
183.7758087133
 20
86.8351791602
 11
181.9019974092
 21
86.8351791602
  0
LINE
  5
2B9
100
AcDbEntity
  8
217
100
AcDbLine
 62
250
  6
CONTINUOUS
 10
164.8758087133
 20
86.8351791602
 11
163.0019974092
 21
86.8351791602
  0
LINE
  5
2BA
100
AcDbEntity
  8
217
100
AcDbLine
 62
250
  6
CONTINUOUS
 10
169.4918204378
 20
86.8676680251
 11
172.5389030612
 21
86.8676680251
  0
LINE
  5
2BB
100
AcDbEntity
  8
217
100
AcDbLine
 62
250
  6
CONTINUOUS
 10
174.2389030612
 20
86.8676680251
 11
177.2859856846
 21
86.8676680251
  0
LINE
  5
2BC
100
AcDbEntity
  8
DRAFT
100
AcDbLine
 62
7
  6
CONTINUOUS
 10
174.2388516276
 20
86.6599564217
 11
176.4896627243
 21
86.6403138908
  0
LWPOLYLINE
  5
2BD
100
AcDbEntity
  8
217
100
AcDbPolyline
 62
7
  6
CONTINUOUS
 90
22
 70
0
 10
177.6851103749
 20
86.6676714097
 10
177.6743212515
 20
86.6682188117
 10
177.6632337893
 20
86.6696464816
 10
177.6518479884
 20
86.6718738886
 10
177.6401392082
 20
86.67481248
 10
177.6281320892
 20
86.678386505
 10
177.6159005533
 20
86.6825508633
 10
177.603451813
 20
86.6872460063
 10
177.5907786558
 20
86.6924085669
 10
177.5779333657
 20
86.6980150662
 10
177.5649202335
 20
86.7040201446
 10
177.5517349684
 20
86.7103738118
 10
177.5384169815
 20
86.7170643183
 10
177.5249684945
 20
86.7240560934
 10
177.5113872857
 20
86.7313089844
 10
177.4977061009
 20
86.7388167036
 10
177.4839259891
 20
86.7465501887
 10
177.4700459014
 20
86.7544764256
 10
177.4560954368
 20
86.7625911865
 10
177.4420748362
 20
86.7708698475
 10
177.4279838588
 20
86.7792844173
 10
177.4138513813
 20
86.7878306968
  0
LWPOLYLINE
  5
2BE
100
AcDbEntity
  8
217
100
AcDbPolyline
 62
7
  6
CONTINUOUS
 90
34
 70
0
 10
165.1316223123
 20
87.1960230785
 10
165.131324586
 20
87.2022646575
 10
165.1305533346
 20
87.2085377686
 10
165.1293029718
 20
87.2148241846
 10
165.1275689245
 20
87.2210982167
 10
165.1253474818
 20
87.227347755
 10
165.1226354618
 20
87.233574239
 10
165.119430965
 20
87.2397571765
 10
165.1157330404
 20
87.2458768067
 10
165.1115407894
 20
87.2519349632
 10
165.1068553052
 20
87.2579101399
 10
165.1016786633
 20
87.2637815476
 10
165.0960122925
 20
87.2695513695
 10
165.0898605087
 20
87.2751973504
 10
165.0832287263
 20
87.2806978435
 10
165.0761209235
 20
87.2860551793
 10
165.0685449279
 20
87.2912466316
 10
165.0605098459
 20
87.2962499404
 10
165.0520226203
 20
87.3010673544
 10
165.0430949108
 20
87.3056760478
 10
165.0337399321
 20
87.3100534566
 10
165.0239682575
 20
87.3142015045
 10
165.0137957463
 20
87.3180977635
 10
165.0032401592
 20
87.3217198063
 10
164.9923165584
 20
87.3250690425
 10
164.9810455009
 20
87.3281240756
 10
164.9694495764
 20
87.3308632819
 10
164.9575488787
 20
87.3332875633
 10
164.9453820509
 20
87.335374364
 10
164.932963996
 20
87.337107823
 10
164.9202800019
 20
87.338493944
 10
164.9073452913
 20
87.339517026
 10
164.8942067898
 20
87.3401462158
 10
164.8808993144
 20
87.3403606457
  0
LWPOLYLINE
  5
2BF
100
AcDbEntity
  8
217
100
AcDbPolyline
 62
250
  6
CONTINUOUS
 90
10
 70
0
 10
162.3950837577
 20
131.8965176564
 10
162.3945074844
 20
131.9086155687
 10
162.393923425
 20
131.9195604458
 10
162.3933337579
 20
131.9293115551
 10
162.3927384353
 20
131.9378644597
 10
162.392137505
 20
131.9452235966
 10
162.3915332892
 20
131.9513615443
 10
162.3909265621
 20
131.9562691624
 10
162.3903165495
 20
131.9599555914
 10
162.3897032515
 20
131.9624208312
  0
LWPOLYLINE
  5
2C0
100
AcDbEntity
  8
217
100
AcDbPolyline
 62
250
  6
CONTINUOUS
 90
8
 70
0
 10
162.8938480135
 20
132.3974217496
 10
162.8932583911
 20
132.412052855
 10
162.8926631649
 20
132.4248917728
 10
162.8920623363
 20
132.435923045
 10
162.8914580963
 20
132.4451334461
 10
162.8908511753
 20
132.4525115353
 10
162.8902408429
 20
132.4580479143
 10
162.8896270991
 20
132.4617355985
  0
LINE
  5
2C1
100
AcDbEntity
  8
217
100
AcDbLine
 62
250
  6
CONTINUOUS
 10
162.3962128745
 20
131.8688543429
 11
162.3950837577
 21
131.8965176564
  0
LWPOLYLINE
  5
2C2
100
AcDbEntity
  8
217
100
AcDbPolyline
 62
250
  6
CONTINUOUS
 90
31
 70
0
 10
162.7520016399
 20
134.3073479439
 10
162.7523801956
 20
134.2960499716
 10
162.7534393231
 20
134.2847796676
 10
162.7551766997
 20
134.2735677977
 10
162.7575884011
 20
134.2624439886
 10
162.7606682713
 20
134.2514397366
 10
162.7644073223
 20
134.2405881968
 10
162.7687948667
 20
134.2299200738
 10
162.7738192657
 20
134.2194634004
 10
162.7794669463
 20
134.2092464816
 10
162.7857226389
 20
134.1992970765
 10
162.7925692135
 20
134.1896425519
 10
162.7999878218
 20
134.1803095285
 10
162.8079581258
 20
134.1713235783
 10
162.8164584206
 20
134.1627091591
 10
162.8254655111
 20
134.1544897807
 10
162.8349548147
 20
134.1466878841
 10
162.8449004019
 20
134.1393247959
 10
162.8552750847
 20
134.132420647
 10
162.8660505171
 20
134.1259943004
 10
162.8771972751
 20
134.1200633035
 10
162.8886849122
 20
134.1146438561
 10
162.9004820689
 20
134.1097507541
 10
162.9125565053
 20
134.105397371
 10
162.9248751849
 20
134.1015956137
 10
162.9374044203
 20
134.0983558672
 10
162.9501100232
 20
134.0956869608
 10
162.962957344
 20
134.0935961684
 10
162.9759113112
 20
134.0920891984
 10
162.988936525
 20
134.09117017
 10
163.0019974092
 20
134.0908415929
  0
LWPOLYLINE
  5
2C3
100
AcDbEntity
  8
217
100
AcDbPolyline
 62
250
  6
CONTINUOUS
 90
31
 70
0
 10
165.1258044825
 20
86.6186728093
 10
165.1254251508
 20
86.6299829598
 10
165.1243641688
 20
86.6412622246
 10
165.122624434
 20
86.6524798025
 10
165.120210697
 20
86.6636050606
 10
165.1171295494
 20
86.6746076181
 10
165.1133894052
 20
86.6854574294
 10
165.1090004778
 20
86.6961248658
 10
165.1039747525
 20
86.7065807969
 10
165.0983259535
 20
86.7167966697
 10
165.0920695066
 20
86.7267445867
 10
165.0852224966
 20
86.7363973824
 10
165.0778036215
 20
86.7457286969
 10
165.0698331406
 20
86.7547130484
 10
165.0613328196
 20
86.7633259024
 10
165.0523258711
 20
86.7715437391
 10
165.0428368911
 20
86.7793441174
 10
165.0328917922
 20
86.7867057359
 10
165.0225177323
 20
86.7936084917
 10
165.0117430408
 20
86.8000335347
 10
165.0005971411
 20
86.8059633196
 10
164.9891104703
 20
86.8113816533
 10
164.9773143961
 20
86.8162737395
 10
164.9652411312
 20
86.820626219
 10
164.9529236451
 20
86.8244272059
 10
164.9403955742
 20
86.8276663207
 10
164.9276911301
 20
86.8303347179
 10
164.914845006
 20
86.8324251108
 10
164.901892282
 20
86.8339317909
 10
164.8888683292
 20
86.8348506437
 10
164.8758087133
 20
86.8351791602
  0
LINE
  5
2C4
100
AcDbEntity
  8
217
100
AcDbLine
 62
250
  6
CONTINUOUS
 10
162.397304596
 20
131.8367347347
 11
162.3962128745
 21
131.8688543429
  0
LINE
  5
2C5
100
AcDbEntity
  8
217
100
AcDbLine
 62
250
  6
CONTINUOUS
 10
162.8950082645
 20
132.3628584974
 11
162.8938480135
 21
132.3974217496
  0
LINE
  5
2C6
100
AcDbEntity
  8
217
100
AcDbLine
 62
250
  6
CONTINUOUS
 10
162.3983548847
 20
131.8002776767
 11
162.397304596
 21
131.8367347347
  0
LINE
  5
2C7
100
AcDbEntity
  8
217
100
AcDbLine
 62
250
  6
CONTINUOUS
 10
162.8961372807
 20
132.3213750647
 11
162.8950082645
 21
132.3628584974
  0
LINE
  5
2C8
100
AcDbEntity
  8
217
100
AcDbLine
 62
250
  6
CONTINUOUS
 10
162.3993577941
 20
131.7596760337
 11
162.3983548847
 21
131.8002776767
  0
LINE
  5
2C9
100
AcDbEntity
  8
217
100
AcDbLine
 62
250
  6
CONTINUOUS
 10
162.8972289042
 20
132.2731760051
 11
162.8961372807
 21
132.3213750647
  0
LINE
  5
2CA
100
AcDbEntity
  8
217
100
AcDbLine
 62
250
  6
CONTINUOUS
 10
162.8982791007
 20
132.2184995274
 11
162.8972289042
 21
132.2731760051
  0
LINE
  5
2CB
100
AcDbEntity
  8
217
100
AcDbLine
 62
250
  6
CONTINUOUS
 10
162.899281919
 20
132.1576156581
 11
162.8982791007
 21
132.2184995274
  0
LINE
  5
2CC
100
AcDbEntity
  8
217
100
AcDbLine
 62
250
  6
CONTINUOUS
 10
162.9002318777
 20
132.090826569
 11
162.899281919
 21
132.1576156581
  0
LINE
  5
2CD
100
AcDbEntity
  8
217
100
AcDbLine
 62
250
  6
CONTINUOUS
 10
162.9015491757
 20
131.9803015008
 11
162.9002318777
 21
132.090826569
  0
LINE
  5
2CE
100
AcDbEntity
  8
217
100
AcDbLine
 62
250
  6
CONTINUOUS
 10
164.8758087133
 20
134.0908415929
 11
164.8808993144
 21
133.5856601074
  0
LINE
  5
2CF
100
AcDbEntity
  8
217
100
AcDbLine
 62
250
  6
CONTINUOUS
 10
165.1258044825
 20
134.3073479439
 11
165.1316223123
 21
133.7299976747
  0
LINE
  5
2D0
100
AcDbEntity
  8
217
100
AcDbLine
 62
250
  6
CONTINUOUS
 10
162.9027236775
 20
131.8584689269
 11
162.9015491757
 21
131.9803015008
  0
LINE
  5
2D1
100
AcDbEntity
  8
217
100
AcDbLine
 62
250
  6
CONTINUOUS
 10
164.8758087133
 20
85.9761089553
 11
164.8758087133
 21
86.8351791602
  0
LINE
  5
2D2
100
AcDbEntity
  8
217
100
AcDbLine
 62
250
  6
CONTINUOUS
 10
164.8758087133
 20
134.0908415929
 11
164.8758087133
 21
134.9499117978
  0
LINE
  5
2D3
100
AcDbEntity
  8
217
100
AcDbLine
 62
250
  6
CONTINUOUS
 10
164.8816265431
 20
133.5856601074
 11
164.8816265431
 21
132.7843987076
  0
LINE
  5
2D4
100
AcDbEntity
  8
217
100
AcDbLine
 62
250
  6
CONTINUOUS
 10
164.8816265431
 20
88.1416220455
 11
164.8816265431
 21
87.3403606457
  0
LINE
  5
2D5
100
AcDbEntity
  8
217
100
AcDbLine
 62
250
  6
CONTINUOUS
 10
165.1258044825
 20
86.2261047245
 11
165.1258044825
 21
86.6186728093
  0
LINE
  5
2D6
100
AcDbEntity
  8
217
100
AcDbLine
 62
250
  6
CONTINUOUS
 10
165.1258044825
 20
134.3073479439
 11
165.1258044825
 21
134.6999160286
  0
LINE
  5
2D7
100
AcDbEntity
  8
217
100
AcDbLine
 62
250
  6
CONTINUOUS
 10
165.1316223123
 20
133.7299976747
 11
165.1316223123
 21
132.7974244289
  0
LINE
  5
2D8
100
AcDbEntity
  8
217
100
AcDbLine
 62
250
  6
CONTINUOUS
 10
165.1316223123
 20
88.1285963243
 11
165.1316223123
 21
87.1960230785
  0
LINE
  5
2D9
100
AcDbEntity
  8
217
100
AcDbLine
 62
7
  6
CONTINUOUS
 10
165.1389030612
 20
86.2130061458
 11
165.1389030612
 21
88.0630103766
  0
LINE
  5
2DA
100
AcDbEntity
  8
217
100
AcDbLine
 62
7
  6
CONTINUOUS
 10
165.1389030612
 20
132.8630103766
 11
165.1389030612
 21
134.7130146073
  0
LINE
  5
2DB
100
AcDbEntity
  8
217
100
AcDbLine
 62
250
  6
CONTINUOUS
 10
164.8808993144
 20
87.3403606457
 11
164.8758087133
 21
86.8351791602
  0
LINE
  5
2DC
100
AcDbEntity
  8
217
100
AcDbLine
 62
250
  6
CONTINUOUS
 10
165.1316223123
 20
87.1960230785
 11
165.1258044825
 21
86.6186728093
  0
LWPOLYLINE
  5
2DD
100
AcDbEntity
  8
217
100
AcDbPolyline
 62
250
  6
CONTINUOUS
 90
31
 70
0
 10
165.1258044825
 20
134.3073479439
 10
165.1254259269
 20
134.2960499716
 10
165.1243667993
 20
134.2847796676
 10
165.1226294228
 20
134.2735677977
 10
165.1202177214
 20
134.2624439886
 10
165.1171378511
 20
134.2514397366
 10
165.1133988001
 20
134.2405881968
 10
165.1090112557
 20
134.2299200738
 10
165.1039868567
 20
134.2194634004
 10
165.0983391761
 20
134.2092464816
 10
165.0920834836
 20
134.1992970765
 10
165.085236909
 20
134.1896425519
 10
165.0778183007
 20
134.1803095285
 10
165.0698479966
 20
134.1713235783
 10
165.0613477018
 20
134.1627091591
 10
165.0523406114
 20
134.1544897807
 10
165.0428513077
 20
134.1466878841
 10
165.0329057206
 20
134.1393247959
 10
165.0225310377
 20
134.132420647
 10
165.0117556053
 20
134.1259943004
 10
165.0006088473
 20
134.1200633035
 10
164.9891212103
 20
134.1146438561
 10
164.9773240536
 20
134.1097507541
 10
164.9652496171
 20
134.105397371
 10
164.9529309375
 20
134.1015956137
 10
164.9404017021
 20
134.0983558672
 10
164.9276960993
 20
134.0956869608
 10
164.9148487785
 20
134.0935961684
 10
164.9018948112
 20
134.0920891984
 10
164.8888695975
 20
134.09117017
 10
164.8758087133
 20
134.0908415929
  0
LWPOLYLINE
  5
2DE
100
AcDbEntity
  8
217
100
AcDbPolyline
 62
7
  6
CONTINUOUS
 90
34
 70
0
 10
162.7461838101
 20
87.1960230785
 10
162.7464815365
 20
87.2022646575
 10
162.7472527879
 20
87.2085377686
 10
162.7485031507
 20
87.2148241846
 10
162.7502371979
 20
87.2210982167
 10
162.7524586407
 20
87.227347755
 10
162.7551706607
 20
87.233574239
 10
162.7583751575
 20
87.2397571765
 10
162.762073082
 20
87.2458768067
 10
162.766265333
 20
87.2519349632
 10
162.7709508172
 20
87.2579101399
 10
162.7761274592
 20
87.2637815476
 10
162.7817938299
 20
87.2695513695
 10
162.7879456138
 20
87.2751973504
 10
162.7945773962
 20
87.2806978435
 10
162.801685199
 20
87.2860551793
 10
162.8092611946
 20
87.2912466316
 10
162.8172962766
 20
87.2962499404
 10
162.8257835021
 20
87.3010673544
 10
162.8347112116
 20
87.3056760478
 10
162.8440661903
 20
87.3100534566
 10
162.8538378649
 20
87.3142015045
 10
162.8640103761
 20
87.3180977635
 10
162.8745659632
 20
87.3217198063
 10
162.885489564
 20
87.3250690425
 10
162.8967606216
 20
87.3281240756
 10
162.908356546
 20
87.3308632819
 10
162.9202572438
 20
87.3332875633
 10
162.9324240715
 20
87.335374364
 10
162.9448421264
 20
87.337107823
 10
162.9575261205
 20
87.338493944
 10
162.9704608311
 20
87.339517026
 10
162.9835993326
 20
87.3401462158
 10
162.9969068081
 20
87.3403606457
  0
LWPOLYLINE
  5
2DF
100
AcDbEntity
  8
217
100
AcDbPolyline
 62
7
  6
CONTINUOUS
 90
34
 70
0
 10
165.1316223123
 20
133.7299976747
 10
165.131324586
 20
133.7237560956
 10
165.1305533346
 20
133.7174829845
 10
165.1293029718
 20
133.7111965685
 10
165.1275689245
 20
133.7049225364
 10
165.1253474818
 20
133.6986729981
 10
165.1226354618
 20
133.6924465141
 10
165.119430965
 20
133.6862635767
 10
165.1157330404
 20
133.6801439465
 10
165.1115407894
 20
133.6740857899
 10
165.1068553052
 20
133.6681106132
 10
165.1016786633
 20
133.6622392055
 10
165.0960122925
 20
133.6564693837
 10
165.0898605087
 20
133.6508234027
 10
165.0832287263
 20
133.6453229096
 10
165.0761209235
 20
133.6399655739
 10
165.0685449279
 20
133.6347741215
 10
165.0605098459
 20
133.6297708128
 10
165.0520226203
 20
133.6249533987
 10
165.0430949108
 20
133.6203447053
 10
165.0337399321
 20
133.6159672965
 10
165.0239682575
 20
133.6118192486
 10
165.0137957463
 20
133.6079229896
 10
165.0032401592
 20
133.6043009468
 10
164.9923165584
 20
133.6009517106
 10
164.9810455009
 20
133.5978966775
 10
164.9694495764
 20
133.5951574712
 10
164.9575488787
 20
133.5927331898
 10
164.9453820509
 20
133.5906463891
 10
164.932963996
 20
133.5889129301
 10
164.9202800019
 20
133.5875268091
 10
164.9073452913
 20
133.5865037271
 10
164.8942067898
 20
133.5858745373
 10
164.8808993144
 20
133.5856601074
  0
LINE
  5
2E0
100
AcDbEntity
  8
217
100
AcDbLine
 62
7
  6
CONTINUOUS
 10
162.7461838101
 20
88.1295994151
 11
162.7389030612
 21
88.0633022994
  0
LWPOLYLINE
  5
2E1
100
AcDbEntity
  8
217
100
AcDbPolyline
 62
250
  6
CONTINUOUS
 90
11
 70
0
 10
162.8896270991
 20
88.4642851546
 10
162.89024085
 20
88.4679728628
 10
162.8908511875
 20
88.4735092757
 10
162.8914581114
 20
88.4808874007
 10
162.8920623512
 20
88.4900978262
 10
162.8926631774
 20
88.5011291067
 10
162.893258402
 20
88.5139680307
 10
162.8938480248
 20
88.528599149
 10
162.8944320459
 20
88.5450041797
 10
162.8950082778
 20
88.5631624315
 10
162.8961372941
 20
88.6046459092
  0
LWPOLYLINE
  5
2E2
100
AcDbEntity
  8
217
100
AcDbPolyline
 62
250
  6
CONTINUOUS
 90
11
 70
0
 10
162.3897032515
 20
88.963599922
 10
162.3903166666
 20
88.9660660513
 10
162.3909267673
 20
88.9697532879
 10
162.3915335537
 20
88.9746616316
 10
162.3921377904
 20
88.9808001886
 10
162.3927387127
 20
88.9881598527
 10
162.3933340271
 20
88.9967133058
 10
162.3939236951
 20
89.0064650242
 10
162.3945077551
 20
89.0174105316
 10
162.3950840286
 20
89.0295090808
 10
162.3962131453
 20
89.0571736804
  0
LINE
  5
2E3
100
AcDbEntity
  8
217
100
AcDbLine
 62
250
  6
CONTINUOUS
 10
162.2563199636
 20
88.563124648
 11
162.3897032515
 21
88.963599922
  0
LINE
  5
2E4
100
AcDbEntity
  8
217
100
AcDbLine
 62
250
  6
CONTINUOUS
 10
184.2463953256
 20
89.9077605461
 11
184.2136196961
 21
89.9063485974
  0
LINE
  5
2E5
100
AcDbEntity
  8
217
100
AcDbLine
 62
250
  6
CONTINUOUS
 10
184.2136196961
 20
89.9063485974
 11
184.1778154881
 21
89.9050673321
  0
LINE
  5
2E6
100
AcDbEntity
  8
217
100
AcDbLine
 62
250
  6
CONTINUOUS
 10
184.1778154881
 20
89.9050673321
 11
184.1392997956
 21
89.9039280977
  0
LINE
  5
2E7
100
AcDbEntity
  8
217
100
AcDbLine
 62
250
  6
CONTINUOUS
 10
184.1392997956
 20
89.9039280977
 11
184.0984137265
 21
89.9029409835
  0
LINE
  5
2E8
100
AcDbEntity
  8
217
100
AcDbLine
 62
250
  6
CONTINUOUS
 10
184.0984137265
 20
89.9029409835
 11
184.0555193816
 21
89.9021147318
  0
LWPOLYLINE
  5
2E9
100
AcDbEntity
  8
217
100
AcDbPolyline
 62
250
  6
CONTINUOUS
 90
3
 70
0
 10
184.0555193816
 20
89.9021147318
 10
184.0109966477
 20
89.9014566601
 10
183.9882473876
 20
89.9011925728
  0
LINE
  5
2EA
100
AcDbEntity
  8
217
100
AcDbLine
 62
7
  6
CONTINUOUS
 10
183.7816265431
 20
87.3403606457
 11
181.8961795793
 21
87.3403606457
  0
LINE
  5
2EB
100
AcDbEntity
  8
217
100
AcDbLine
 62
7
  6
CONTINUOUS
 10
164.8816265431
 20
87.3403606457
 11
162.9961795793
 21
87.3403606457
  0
LINE
  5
2EC
100
AcDbEntity
  8
217
100
AcDbLine
 62
7
  6
CONTINUOUS
 10
165.1389030612
 20
88.0630103766
 11
168.9889030612
 21
88.0630103766
  0
LINE
  5
2ED
100
AcDbEntity
  8
217
100
AcDbLine
 62
7
  6
CONTINUOUS
 10
177.7889030612
 20
88.0630103766
 11
181.6389030612
 21
88.0630103766
  0
LINE
  5
2EE
100
AcDbEntity
  8
217
100
AcDbLine
 62
7
  6
CONTINUOUS
 10
169.4918204378
 20
88.1154181558
 11
172.5389030612
 21
88.1154181558
  0
LINE
  5
2EF
100
AcDbEntity
  8
217
100
AcDbLine
 62
7
  6
CONTINUOUS
 10
174.2389030612
 20
88.1154181558
 11
177.2859856846
 21
88.1154181558
  0
LINE
  5
2F0
100
AcDbEntity
  8
217
100
AcDbLine
 62
7
  6
CONTINUOUS
 10
183.7816265431
 20
88.1416220455
 11
181.8961795793
 21
88.1416220455
  0
LINE
  5
2F1
100
AcDbEntity
  8
217
100
AcDbLine
 62
7
  6
CONTINUOUS
 10
164.8816265431
 20
88.1416220455
 11
162.9961795793
 21
88.1416220455
  0
LINE
  5
2F2
100
AcDbEntity
  8
217
100
AcDbLine
 62
250
  6
CONTINUOUS
 10
183.8881790234
 20
88.4642851546
 11
174.2389030612
 21
88.4642851546
  0
LINE
  5
2F3
100
AcDbEntity
  8
217
100
AcDbLine
 62
250
  6
CONTINUOUS
 10
172.5389030612
 20
88.4642851546
 11
162.8896270991
 21
88.4642851546
  0
LINE
  5
2F4
100
AcDbEntity
  8
217
100
AcDbLine
 62
250
  6
CONTINUOUS
 10
162.744368862
 20
89.9017642634
 11
162.7895587027
 21
89.9011925621
  0
LINE
  5
2F5
100
AcDbEntity
  8
217
100
AcDbLine
 62
250
  6
CONTINUOUS
 10
162.7006118445
 20
89.9025072486
 11
162.744368862
 21
89.9017642634
  0
LINE
  5
2F6
100
AcDbEntity
  8
217
100
AcDbLine
 62
250
  6
CONTINUOUS
 10
162.6586751774
 20
89.9034149376
 11
162.7006118445
 21
89.9025072486
  0
LINE
  5
2F7
100
AcDbEntity
  8
217
100
AcDbLine
 62
250
  6
CONTINUOUS
 10
162.6189302659
 20
89.9044792915
 11
162.6586751774
 21
89.9034149376
  0
LINE
  5
2F8
100
AcDbEntity
  8
217
100
AcDbLine
 62
250
  6
CONTINUOUS
 10
162.5817291046
 20
89.9056908842
 11
162.6189302659
 21
89.9044792915
  0
LWPOLYLINE
  5
2F9
100
AcDbEntity
  8
217
100
AcDbPolyline
 62
7
  6
CONTINUOUS
 90
11
 70
0
 10
162.7389039221
 20
88.0633191779
 10
162.717414664
 20
88.0645366368
 10
162.6959596152
 20
88.0666830726
 10
162.6745791742
 20
88.0697593515
 10
162.6532911498
 20
88.0737694104
 10
162.6321595401
 20
88.0787076865
 10
162.6112921645
 20
88.0845493001
 10
162.5907433604
 20
88.0912735708
 10
162.5705335685
 20
88.0988683129
 10
162.5507156024
 20
88.1073080189
 10
162.5328659872
 20
88.1157965748
  0
LWPOLYLINE
  5
2FA
100
AcDbEntity
  8
217
100
AcDbPolyline
 62
7
  6
CONTINUOUS
 90
13
 70
0
 10
183.9978184012
 20
88.1350995379
 10
184.0030527431
 20
88.1346452411
 10
184.0078727482
 20
88.1342020208
 10
184.0122690419
 20
88.1337698771
 10
184.0162332987
 20
88.1333569077
 10
184.0197574036
 20
88.1329550149
 10
184.0228337822
 20
88.132539906
 10
184.0254565653
 20
88.1321080655
 10
184.0276207861
 20
88.1316630089
 10
184.0293220385
 20
88.1311909902
 10
184.0305572553
 20
88.1306874273
 10
184.0313244286
 20
88.1301569023
 10
184.0316223123
 20
88.1295994151
  0
LINE
  5
2FB
100
AcDbEntity
  8
217
100
AcDbLine
 62
7
  6
CONTINUOUS
 10
165.1389030612
 20
88.0630103766
 11
165.1316223123
 21
88.1285963243
  0
LINE
  5
2FC
100
AcDbEntity
  8
217
100
AcDbLine
 62
7
  6
CONTINUOUS
 10
162.7389030612
 20
132.8627184537
 11
162.7461838101
 21
132.796421338
  0
LINE
  5
2FD
100
AcDbEntity
  8
RACCORDO
100
AcDbLine
 62
7
  6
CONTINUOUS
 10
168.9932953857
 20
64.6375884097
 11
168.9903666293
 21
64.6716900952
  0
LWPOLYLINE
  5
2FE
100
AcDbEntity
  8
217
100
AcDbPolyline
 62
250
  6
CONTINUOUS
 90
31
 70
0
 10
165.1258044825
 20
134.6999160286
 10
165.1254630753
 20
134.7129683686
 10
165.1244398127
 20
134.725993263
 10
165.1227362085
 20
134.7389550376
 10
165.1203550783
 20
134.7518207563
 10
165.1173019649
 20
134.7645522215
 10
165.1135865252
 20
134.7771064061
 10
165.1092199741
 20
134.78944621
 10
165.1042135442
 20
134.8015405661
 10
165.0985807956
 20
134.8133566444
 10
165.0923369939
 20
134.8248622448
 10
165.0854993121
 20
134.8360255632
 10
165.0780866821
 20
134.8468156424
 10
165.0701195399
 20
134.8572027683
 10
165.0616196429
 20
134.8671586054
 10
165.0526102211
 20
134.8766559399
 10
165.0431159279
 20
134.885668759
 10
165.0331628245
 20
134.8941723005
 10
165.0227782353
 20
134.9021432087
 10
165.0119906449
 20
134.9095596155
 10
165.000829619
 20
134.9164011913
 10
164.9893257632
 20
134.9226491705
 10
164.9775106175
 20
134.9282864188
 10
164.9654165803
 20
134.9332974743
 10
164.9530768242
 20
134.9376685893
 10
164.9405251767
 20
134.9413877788
 10
164.9277960628
 20
134.94444484
 10
164.9149244232
 20
134.9468313827
 10
164.9019455658
 20
134.9485408659
 10
164.8888950674
 20
134.9495686088
 10
164.8758087133
 20
134.9499117978
  0
LWPOLYLINE
  5
2FF
100
AcDbEntity
  8
217
100
AcDbPolyline
 62
7
  6
CONTINUOUS
 90
34
 70
0
 10
165.1389030612
 20
134.7130146073
 10
165.138619911
 20
134.7249098926
 10
165.1377710955
 20
134.7367782321
 10
165.1363585354
 20
134.7485927427
 10
165.1343854289
 20
134.760326664
 10
165.1318562429
 20
134.7719534154
 10
165.1287767029
 20
134.7834466556
 10
165.1251537826
 20
134.7947803503
 10
165.120995687
 20
134.8059288259
 10
165.1163118334
 20
134.8168668229
 10
165.1111128301
 20
134.8275695642
 10
165.1054104529
 20
134.8380128048
 10
165.0992176194
 20
134.8481728825
 10
165.0925483567
 20
134.8580267817
 10
165.0854177719
 20
134.8675521804
 10
165.0778420201
 20
134.8767274956
 10
165.0698382617
 20
134.8855319426
 10
165.0614246273
 20
134.893945577
 10
165.0526201803
 20
134.9019493354
 10
165.0434448651
 20
134.9095250873
 10
165.0339194663
 20
134.916655672
 10
165.0240655671
 20
134.9233249347
 10
165.0139054895
 20
134.9295177682
 10
165.0034622488
 20
134.9352201454
 10
164.9927595075
 20
134.9404191487
 10
164.9818215105
 20
134.9451030023
 10
164.970673035
 20
134.9492610979
 10
164.9593393402
 20
134.9528840183
 10
164.9478461
 20
134.9559635583
 10
164.9362193487
 20
134.9584927443
 10
164.9244854274
 20
134.9604658507
 10
164.9126709168
 20
134.9618784108
 10
164.9008025772
 20
134.9627272263
 10
164.888907292
 20
134.9630103766
  0
LWPOLYLINE
  5
300
100
AcDbEntity
  8
217
100
AcDbPolyline
 62
7
  6
CONTINUOUS
 90
77
 70
0
 10
167.6389030617
 20
122.9630103782
 10
167.63989971
 20
122.8588371273
 10
167.6426912051
 20
122.7553896563
 10
167.6472775471
 20
122.6526679806
 10
167.6536503744
 20
122.5509257584
 10
167.6618180485
 20
122.4499093643
 10
167.6718056545
 20
122.3488578773
 10
167.6835581193
 20
122.2477389753
 10
167.697130516
 20
122.1465849874
 10
167.7127131483
 20
122.0447319493
 10
167.7302896894
 20
121.9420221459
 10
167.7498764662
 20
121.8386132795
 10
167.7717127626
 20
121.7343145003
 10
167.795861176
 20
121.6288705155
 10
167.822259109
 20
121.5225365994
 10
167.8509580537
 20
121.4158877587
 10
167.8819927
 20
121.3089172495
 10
167.915328358
 20
121.2016318166
 10
167.9509124505
 20
121.0946267163
 10
167.9887695494
 20
120.9879427984
 10
168.0288750829
 20
120.8815392309
 10
168.0711027577
 20
120.7758887616
 10
168.1154988247
 20
120.6709708667
 10
168.1620170331
 20
120.5668060987
 10
168.210392337
 20
120.4639288328
 10
168.2606758076
 20
120.3623271546
 10
168.3128163738
 20
120.2620130185
 10
168.3663957761
 20
120.1635566153
 10
168.4214227742
 20
120.0670274548
 10
168.4778886085
 20
119.9723560773
 10
168.5353487412
 20
119.879904229
 10
168.5936295379
 20
119.7899360492
 10
168.652904633
 20
119.7021874523
 10
168.7132503915
 20
119.6162278448
 10
168.7745446021
 20
119.5321425729
 10
168.836909476
 20
119.4498463293
 10
168.900788012
 20
119.3686525292
 10
168.9663161226
 20
119.2883368929
 10
169.0333578953
 20
119.2091237219
 10
169.1019485906
 20
119.1309992968
 10
169.1721677507
 20
119.0538742037
 10
169.2439358334
 20
118.9778378773
 10
169.3170494739
 20
118.9031448721
 10
169.3915248995
 20
118.8298126249
 10
169.4673458827
 20
118.7578237225
 10
169.5442603759
 20
118.6873804468
 10
169.6221725042
 20
118.6185675383
 10
169.7011781424
 20
118.551300281
 10
169.7813128667
 20
118.4855267728
 10
169.8623354447
 20
118.4213917376
 10
169.9444871089
 20
118.358750473
 10
170.0285271327
 20
118.2971169338
 10
170.1145585258
 20
118.2363513696
 10
170.2024782785
 20
118.1765935437
 10
170.2927366351
 20
118.1177766783
 10
170.3856237277
 20
118.0597119502
 10
170.4808494242
 20
118.0025881936
 10
170.5779935728
 20
117.9469051195
 10
170.6771185693
 20
117.8926807821
 10
170.7781620179
 20
117.8398971427
 10
170.8805165783
 20
117.7889997773
 10
170.984170576
 20
117.7400438704
 10
171.0891356855
 20
117.6929742551
 10
171.1948395904
 20
117.6480709831
 10
171.3012618801
 20
117.6053835586
 10
171.4084229653
 20
117.5648624944
 10
171.5158117611
 20
117.5266393561
 10
171.6234711531
 20
117.4907413143
 10
171.7313582557
 20
117.4571412134
 10
171.8388333279
 20
117.4258891288
 10
171.9458761001
 20
117.3970250322
 10
172.0525068419
 20
117.3705089641
 10
172.1581466207
 20
117.3462711028
 10
172.2625113805
 20
117.324376678
 10
172.3658851772
 20
117.3047604689
 10
172.4685412473
 20
117.2871569768
 10
172.5389030612
 20
117.2763633781
  0
LINE
  5
301
100
AcDbEntity
  8
217
100
AcDbLine
 62
250
  6
CONTINUOUS
 10
162.8896270991
 20
88.4642851546
 11
162.7799877213
 21
88.1350995379
  0
LWPOLYLINE
  5
302
100
AcDbEntity
  8
217
100
AcDbPolyline
 62
7
  6
CONTINUOUS
 90
13
 70
0
 10
184.0316223123
 20
132.796421338
 10
184.0313244286
 20
132.7958638508
 10
184.0305572553
 20
132.7953333258
 10
184.0293220385
 20
132.7948297629
 10
184.0276207861
 20
132.7943577442
 10
184.0254565653
 20
132.7939126876
 10
184.0228337822
 20
132.7934808472
 10
184.0197574036
 20
132.7930657383
 10
184.0162332987
 20
132.7926638454
 10
184.0122690419
 20
132.792250876
 10
184.0078727482
 20
132.7918187323
 10
184.0030527431
 20
132.7913755121
 10
183.9978184012
 20
132.7909212152
  0
LWPOLYLINE
  5
303
100
AcDbEntity
  8
217
100
AcDbPolyline
 62
7
  6
CONTINUOUS
 90
13
 70
0
 10
162.7461838101
 20
88.1295994151
 10
162.7464816939
 20
88.1301569023
 10
162.7472488671
 20
88.1306874273
 10
162.7484840839
 20
88.1311909902
 10
162.7501853363
 20
88.1316630089
 10
162.7523495572
 20
88.1321080655
 10
162.7549723402
 20
88.132539906
 10
162.7580487189
 20
88.1329550149
 10
162.7615728238
 20
88.1333569077
 10
162.7655370806
 20
88.1337698771
 10
162.7699333743
 20
88.1342020208
 10
162.7747533793
 20
88.1346452411
 10
162.7799877213
 20
88.1350995379
  0
LINE
  5
304
100
AcDbEntity
  8
217
100
AcDbLine
 62
250
  6
CONTINUOUS
 10
183.9882473876
 20
89.9011925728
 11
183.9420249528
 21
89.9007972189
  0
LINE
  5
305
100
AcDbEntity
  8
217
100
AcDbLine
 62
250
  6
CONTINUOUS
 10
183.9420249528
 20
89.9007972189
 11
183.8951792738
 21
89.9005817135
  0
LINE
  5
306
100
AcDbEntity
  8
217
100
AcDbLine
 62
250
  6
CONTINUOUS
 10
183.8951792738
 20
89.9005817135
 11
174.2389030612
 21
89.9005420517
  0
LINE
  5
307
100
AcDbEntity
  8
217
100
AcDbLine
 62
250
  6
CONTINUOUS
 10
162.882626842
 20
89.9005817022
 11
172.5389030612
 21
89.9005420517
  0
LINE
  5
308
100
AcDbEntity
  8
217
100
AcDbLine
 62
250
  6
CONTINUOUS
 10
162.8357811499
 20
89.9007972079
 11
162.882626842
 21
89.9005817022
  0
LINE
  5
309
100
AcDbEntity
  8
217
100
AcDbLine
 62
250
  6
CONTINUOUS
 10
162.7895587027
 20
89.9011925621
 11
162.8357811499
 21
89.9007972079
  0
LINE
  5
30A
100
AcDbEntity
  8
217
100
AcDbLine
 62
7
  6
CONTINUOUS
 10
177.4138513813
 20
86.7878306968
 11
177.385461245
 21
86.8052291755
  0
LINE
  5
30B
100
AcDbEntity
  8
217
100
AcDbLine
 62
7
  6
CONTINUOUS
 10
177.385461245
 20
86.8052291755
 11
177.3569936517
 21
86.8229346349
  0
LINE
  5
30C
100
AcDbEntity
  8
217
100
AcDbLine
 62
7
  6
CONTINUOUS
 10
177.3569936517
 20
86.8229346349
 11
177.3285118566
 21
86.8408087503
  0
LINE
  5
30D
100
AcDbEntity
  8
217
100
AcDbLine
 62
7
  6
CONTINUOUS
 10
177.3285118566
 20
86.8408087503
 11
177.2859856846
 21
86.8676680251
  0
LINE
  5
30E
100
AcDbEntity
  8
217
100
AcDbLine
 62
7
  6
CONTINUOUS
 10
168.9889030612
 20
86.6630103766
 11
168.9889030612
 21
88.0630103766
  0
LINE
  5
30F
100
AcDbEntity
  8
217
100
AcDbLine
 62
7
  6
CONTINUOUS
 10
168.9889030612
 20
132.8630103766
 11
168.9889030612
 21
134.2630103766
  0
LINE
  5
310
100
AcDbEntity
  8
RACCORDO
100
AcDbLine
 62
7
  6
CONTINUOUS
 10
168.9903666293
 20
64.6716900952
 11
168.9903666293
 21
81.6543306579
  0
LINE
  5
311
100
AcDbEntity
  8
217
100
AcDbLine
 62
250
  6
CONTINUOUS
 10
168.9918288994
 20
134.2600845384
 11
168.9918288994
 21
132.8366540397
  0
LINE
  5
312
100
AcDbEntity
  8
217
100
AcDbLine
 62
250
  6
CONTINUOUS
 10
168.9918288994
 20
88.0893667134
 11
168.9918288994
 21
86.6659362147
  0
LINE
  5
313
100
AcDbEntity
  8
RACCORDO
100
AcDbLine
 62
250
  6
CONTINUOUS
 10
168.9932953857
 20
81.6884323437
 11
168.9932953857
 21
64.6375884094
  0
LINE
  5
314
100
AcDbEntity
  8
217
100
AcDbLine
 62
250
  6
CONTINUOUS
 10
169.4918204378
 20
134.058352728
 11
169.4918204378
 21
132.8106025973
  0
LINE
  5
315
100
AcDbEntity
  8
217
100
AcDbLine
 62
250
  6
CONTINUOUS
 10
169.4918204378
 20
88.1154181558
 11
169.4918204378
 21
86.8676680251
  0
LINE
  5
316
100
AcDbEntity
  8
RACCORDO
100
AcDbLine
 62
250
  6
CONTINUOUS
 10
170.0099955589
 20
86.2714169922
 11
170.0099955589
 21
60.0546037609
  0
LINE
  5
317
100
AcDbEntity
  8
RACCORDO
100
AcDbLine
 62
250
  6
CONTINUOUS
 10
170.4881433981
 20
86.6403138908
 11
170.4881433981
 21
59.6857068623
  0
LWPOLYLINE
  5
318
100
AcDbEntity
  8
217
100
AcDbPolyline
 62
7
  6
CONTINUOUS
 90
46
 70
0
 10
171.426286894
 20
122.9630103766
 10
171.4306499918
 20
123.0293381683
 10
171.437243389
 20
123.0954959257
 10
171.4460648105
 20
123.1614082104
 10
171.4571162641
 20
123.2270152714
 10
171.4703845178
 20
123.2922249928
 10
171.485835798
 20
123.3569156733
 10
171.5034423522
 20
123.420978237
 10
171.5231925235
 20
123.4843772397
 10
171.5450747093
 20
123.547103532
 10
171.5690870744
 20
123.609126017
 10
171.5951954373
 20
123.6703296105
 10
171.6233361354
 20
123.7305827485
 10
171.6534560653
 20
123.7897781947
 10
171.6855401103
 20
123.8478918031
 10
171.7195784157
 20
123.9049195965
 10
171.7555651874
 20
123.9608339604
 10
171.7934426472
 20
124.0155276346
 10
171.8331200901
 20
124.068881258
 10
171.8745155412
 20
124.1207913769
 10
171.9176174929
 20
124.1712486479
 10
171.9624407197
 20
124.2202760742
 10
172.0089850611
 20
124.2678539125
 10
172.0571676028
 20
124.3138777388
 10
172.1068792622
 20
124.3582451436
 10
172.1580746256
 20
124.4009119372
 10
172.210692151
 20
124.4418211049
 10
172.2645851944
 20
124.4808692683
 10
172.3196455213
 20
124.5179914056
 10
172.3758518924
 20
124.5531848046
 10
172.4331840161
 20
124.5864474355
 10
172.4915569621
 20
124.6177327204
 10
172.5509283774
 20
124.6470206493
 10
172.6113497823
 20
124.6743351918
 10
172.6728088899
 20
124.6996535062
 10
172.7351969035
 20
124.7229132301
 10
172.7984236788
 20
124.7440721834
 10
172.8624608299
 20
124.763107859
 10
172.9272042521
 20
124.7799742422
 10
172.9924440611
 20
124.7946144452
 10
173.0580978914
 20
124.8070151331
 10
173.1241024385
 20
124.8171667701
 10
173.1902706301
 20
124.8250485739
 10
173.2564900442
 20
124.8306637559
 10
173.3227250632
 20
124.8340260171
 10
173.3889030612
 20
124.8351457982
  0
LINE
  5
319
100
AcDbEntity
  8
RACCORDO
100
AcDbLine
 62
7
  6
CONTINUOUS
 10
168.9932953857
 20
81.6884323434
 11
168.9903666293
 21
81.6543306579
  0
LINE
  5
31A
100
AcDbEntity
  8
217
100
AcDbLine
 62
7
  6
CONTINUOUS
 10
168.9889030612
 20
88.0630103766
 11
168.9918288994
 21
88.0893667134
  0
LWPOLYLINE
  5
31B
100
AcDbEntity
  8
290
100
AcDbPolyline
 62
7
  6
CONTINUOUS
 90
7
 70
0
 10
174.3817879195
 20
123.0818052214
 10
174.3736318999
 20
123.0205282759
 10
174.3546622607
 20
122.9358854337
 10
174.3283159421
 20
122.8532233577
 10
174.2947993023
 20
122.77317513
 10
174.2543807131
 20
122.6963640104
 10
174.2389030612
 20
122.6723289285
  0
LINE
  5
31C
100
AcDbEntity
  8
217
100
AcDbLine
 62
7
  6
CONTINUOUS
 10
177.785977223
 20
86.6659362147
 11
177.7889030612
 21
86.6630103766
  0
LINE
  5
31D
100
AcDbEntity
  8
0
100
AcDbLine
 62
7
  6
CONTINUOUS
 10
172.5389030612
 20
86.6582105993
 11
172.5389030612
 21
123.1630103766
  0
LINE
  5
31E
100
AcDbEntity
  8
DRAFT
100
AcDbLine
 62
7
  6
CONTINUOUS
 10
173.0889030612
 20
59.663159056
 11
173.0889030612
 21
86.6480947293
  0
LINE
  5
31F
100
AcDbEntity
  8
217
100
AcDbLine
 62
250
  6
CONTINUOUS
 10
173.3889030612
 20
124.8351457982
 11
173.3889030612
 21
128.7130103766
  0
LINE
  5
320
100
AcDbEntity
  8
217
100
AcDbLine
 62
250
  6
CONTINUOUS
 10
183.8881790234
 20
132.4617355985
 11
183.9978184012
 21
132.7909212152
  0
LINE
  5
321
100
AcDbEntity
  8
217
100
AcDbLine
 62
250
  6
CONTINUOUS
 10
184.5214861588
 20
132.3628961051
 11
184.388102871
 21
131.9624208312
  0
LINE
  5
322
100
AcDbEntity
  8
217
100
AcDbLine
 62
250
  6
CONTINUOUS
 10
162.7389030612
 20
86.2130061458
 11
162.7520016399
 21
86.2261047245
  0
LINE
  5
323
100
AcDbEntity
  8
217
100
AcDbLine
 62
250
  6
CONTINUOUS
 10
183.788907292
 20
85.9630103766
 11
183.7758087133
 21
85.9761089553
  0
LINE
  5
324
100
AcDbEntity
  8
217
100
AcDbLine
 62
250
  6
CONTINUOUS
 10
184.0389030612
 20
86.2130061458
 11
184.0258044825
 21
86.2261047245
  0
LINE
  5
325
100
AcDbEntity
  8
217
100
AcDbLine
 62
7
  6
CONTINUOUS
 10
168.9889030612
 20
132.8630103766
 11
168.9918288994
 21
132.8366540397
  0
LWPOLYLINE
  5
326
100
AcDbEntity
  8
217
100
AcDbPolyline
 62
7
  6
CONTINUOUS
 90
35
 70
0
 10
175.3515192285
 20
122.9630103765
 10
175.3536412129
 20
122.8966195531
 10
175.3535154097
 20
122.8301823257
 10
175.351144374
 20
122.7637751757
 10
175.3465354999
 20
122.6974574992
 10
175.3396931854
 20
122.6313215806
 10
175.3306244496
 20
122.5654934275
 10
175.3193548196
 20
122.5000899192
 10
175.3059000272
 20
122.4351430256
 10
175.2902537559
 20
122.3706528735
 10
175.272419936
 20
122.3066451711
 10
175.2524299045
 20
122.2432430088
 10
175.2303222287
 20
122.180592772
 10
175.2061496412
 20
122.1188142628
 10
175.1799309371
 20
122.0579260993
 10
175.1516572267
 20
121.9979236441
 10
175.1213373919
 20
121.9388335224
 10
175.0890268821
 20
121.880769298
 10
175.0547887403
 20
121.8238567128
 10
175.0186915157
 20
121.7681939343
 10
174.9807617909
 20
121.7138067582
 10
174.9410041219
 20
121.6607114981
 10
174.8994483419
 20
121.6089498838
 10
174.8561592305
 20
121.5586033961
 10
174.8111941707
 20
121.50974881
 10
174.7646082974
 20
121.4624427619
 10
174.7164582292
 20
121.4167381361
 10
174.6668097718
 20
121.3727018325
 10
174.615744082
 20
121.3303982835
 10
174.5633060541
 20
121.2898565564
 10
174.5095077462
 20
121.2510911865
 10
174.4543786211
 20
121.2141268472
 10
174.3980155846
 20
121.1790312426
 10
174.3405347012
 20
121.1458802429
 10
174.2820504701
 20
121.1147306189
  0
LINE
  5
327
100
AcDbEntity
  8
DRAFT
100
AcDbLine
 62
7
  6
CONTINUOUS
 10
173.8889030612
 20
59.663159056
 11
173.8889030612
 21
86.6480947293
  0
LINE
  5
328
100
AcDbEntity
  8
0
100
AcDbLine
 62
7
  6
CONTINUOUS
 10
174.2389030612
 20
86.6599559713
 11
174.2389030612
 21
123.1630103766
  0
LINE
  5
329
100
AcDbEntity
  8
217
100
AcDbLine
 62
7
  6
CONTINUOUS
 10
177.7889030612
 20
132.8630103766
 11
177.785977223
 21
132.8366540397
  0
LWPOLYLINE
  5
32A
100
AcDbEntity
  8
217
100
AcDbPolyline
 62
250
  6
CONTINUOUS
 90
11
 70
0
 10
184.388102871
 20
131.9624208312
 10
184.3874895729
 20
131.9599555914
 10
184.3868795604
 20
131.9562691624
 10
184.3862728332
 20
131.9513615443
 10
184.3856686175
 20
131.9452235966
 10
184.3850676872
 20
131.9378644597
 10
184.3844723645
 20
131.9293115551
 10
184.3838826974
 20
131.9195604458
 10
184.383298638
 20
131.9086155687
 10
184.3827223648
 20
131.8965176564
 10
184.3815932479
 20
131.8688543429
  0
LINE
  5
32B
100
AcDbEntity
  8
217
100
AcDbLine
 62
250
  6
CONTINUOUS
 10
162.9888988304
 20
85.9630103766
 11
163.0019974092
 21
85.9761089553
  0
LINE
  5
32C
100
AcDbEntity
  8
217
100
AcDbLine
 62
250
  6
CONTINUOUS
 10
162.3897032515
 20
131.9624208312
 11
162.2563199636
 21
132.3628961051
  0
LINE
  5
32D
100
AcDbEntity
  8
217
100
AcDbLine
 62
250
  6
CONTINUOUS
 10
162.7799877213
 20
132.7909212152
 11
162.8896270991
 21
132.4617355985
  0
LINE
  5
32E
100
AcDbEntity
  8
RACCORDO
100
AcDbLine
 62
7
  6
CONTINUOUS
 10
177.9845107368
 20
81.6884323434
 11
177.9874394932
 21
81.6543306579
  0
LINE
  5
32F
100
AcDbEntity
  8
RACCORDO
100
AcDbLine
 62
250
  6
CONTINUOUS
 10
176.4896627244
 20
59.6857068623
 11
176.4896627244
 21
86.6403138908
  0
LINE
  5
330
100
AcDbEntity
  8
RACCORDO
100
AcDbLine
 62
250
  6
CONTINUOUS
 10
176.9678105636
 20
60.0546037609
 11
176.9678105636
 21
86.2714169922
  0
LINE
  5
331
100
AcDbEntity
  8
217
100
AcDbLine
 62
250
  6
CONTINUOUS
 10
177.2859856846
 20
86.8676680251
 11
177.2859856846
 21
88.1154181558
  0
LINE
  5
332
100
AcDbEntity
  8
217
100
AcDbLine
 62
250
  6
CONTINUOUS
 10
177.2859856846
 20
132.8106025973
 11
177.2859856846
 21
134.058352728
  0
LINE
  5
333
100
AcDbEntity
  8
217
100
AcDbLine
 62
250
  6
CONTINUOUS
 10
177.785977223
 20
86.6659362147
 11
177.785977223
 21
88.0893667134
  0
LINE
  5
334
100
AcDbEntity
  8
217
100
AcDbLine
 62
250
  6
CONTINUOUS
 10
177.785977223
 20
132.8366540397
 11
177.785977223
 21
134.2600845384
  0
LINE
  5
335
100
AcDbEntity
  8
217
100
AcDbLine
 62
7
  6
CONTINUOUS
 10
177.7889030612
 20
134.2630103766
 11
177.7889030612
 21
132.8630103766
  0
LINE
  5
336
100
AcDbEntity
  8
217
100
AcDbLine
 62
7
  6
CONTINUOUS
 10
177.7889030612
 20
88.0630103766
 11
177.7889030612
 21
86.6630103766
  0
LINE
  5
337
100
AcDbEntity
  8
RACCORDO
100
AcDbLine
 62
250
  6
CONTINUOUS
 10
177.9845107367
 20
64.6375884094
 11
177.9845107367
 21
81.6884323437
  0
LINE
  5
338
100
AcDbEntity
  8
RACCORDO
100
AcDbLine
 62
7
  6
CONTINUOUS
 10
177.9874394932
 20
81.6543306579
 11
177.9874394932
 21
64.6716900952
  0
LWPOLYLINE
  5
339
100
AcDbEntity
  8
217
100
AcDbPolyline
 62
250
  6
CONTINUOUS
 90
9
 70
0
 10
183.8881790234
 20
132.4617355985
 10
183.8875652796
 20
132.4580479143
 10
183.8869549472
 20
132.4525115353
 10
183.8863480261
 20
132.4451334461
 10
183.8857437861
 20
132.435923045
 10
183.8851429575
 20
132.4248917728
 10
183.8845477313
 20
132.412052855
 10
183.883958109
 20
132.3974217496
 10
183.8827978579
 20
132.3628584974
  0
LINE
  5
33A
100
AcDbEntity
  8
217
100
AcDbLine
 62
7
  6
CONTINUOUS
 10
168.9918288994
 20
86.6659362147
 11
168.9889030612
 21
86.6630103766
  0
LINE
  5
33B
100
AcDbEntity
  8
217
100
AcDbLine
 62
7
  6
CONTINUOUS
 10
177.7889030612
 20
88.0630103766
 11
177.785977223
 21
88.0893667134
  0
LWPOLYLINE
  5
33C
100
AcDbEntity
  8
217
100
AcDbPolyline
 62
250
  6
CONTINUOUS
 90
31
 70
0
 10
181.6520016399
 20
86.2261047245
 10
181.6523448289
 20
86.2130183704
 10
181.6533725719
 20
86.199967872
 10
181.6550820551
 20
86.1869890146
 10
181.6574685978
 20
86.174117375
 10
181.660525659
 20
86.161388261
 10
181.6642448485
 20
86.1488366136
 10
181.6686159635
 20
86.1364968575
 10
181.673627019
 20
86.1244028202
 10
181.6792642673
 20
86.1125876746
 10
181.6855122464
 20
86.1010838188
 10
181.6923538222
 20
86.0899227928
 10
181.6997702291
 20
86.0791352025
 10
181.7077411373
 20
86.0687506133
 10
181.7162446788
 20
86.0587975098
 10
181.7252574979
 20
86.0493032167
 10
181.7347548324
 20
86.0402937949
 10
181.7447106695
 20
86.0317938979
 10
181.7550977954
 20
86.0238267557
 10
181.7658878746
 20
86.0164141257
 10
181.777051193
 20
86.0095764438
 10
181.7885567934
 20
86.0033326422
 10
181.8003728717
 20
85.9976998936
 10
181.8124672278
 20
85.9926934637
 10
181.8248070317
 20
85.9883269126
 10
181.8373612163
 20
85.9846114729
 10
181.8500926815
 20
85.9815583595
 10
181.8629584002
 20
85.9791772293
 10
181.8759201748
 20
85.9774736251
 10
181.8889450692
 20
85.9764503625
 10
181.9019974092
 20
85.9761089553
  0
LWPOLYLINE
  5
33D
100
AcDbEntity
  8
217
100
AcDbPolyline
 62
7
  6
CONTINUOUS
 90
34
 70
0
 10
181.6389030612
 20
86.2130061458
 10
181.6391862115
 20
86.2011108605
 10
181.640035027
 20
86.189242521
 10
181.6414475871
 20
86.1774280104
 10
181.6434206935
 20
86.1656940891
 10
181.6459498795
 20
86.1540673378
 10
181.6490294195
 20
86.1425740976
 10
181.6526523399
 20
86.1312404028
 10
181.6568104354
 20
86.1200919273
 10
181.661494289
 20
86.1091539303
 10
181.6666932924
 20
86.098451189
 10
181.6723956696
 20
86.0880079483
 10
181.6785885031
 20
86.0778478707
 10
181.6852577657
 20
86.0679939714
 10
181.6923883505
 20
86.0584685727
 10
181.6999641024
 20
86.0492932575
 10
181.7079678607
 20
86.0404888105
 10
181.7163814951
 20
86.0320751761
 10
181.7251859422
 20
86.0240714177
 10
181.7343612574
 20
86.0164956658
 10
181.7438866561
 20
86.0093650811
 10
181.7537405553
 20
86.0026958184
 10
181.763900633
 20
85.9965029849
 10
181.7743438736
 20
85.9908006077
 10
181.7850466149
 20
85.9856016044
 10
181.7959846119
 20
85.9809177508
 10
181.8071330874
 20
85.9767596552
 10
181.8184667822
 20
85.9731367349
 10
181.8299600224
 20
85.9700571948
 10
181.8415867737
 20
85.9675280088
 10
181.8533206951
 20
85.9655549024
 10
181.8651352057
 20
85.9641423423
 10
181.8770035452
 20
85.9632935268
 10
181.8888988304
 20
85.9630103766
  0
LINE
  5
33E
100
AcDbEntity
  8
217
100
AcDbLine
 62
250
  6
CONTINUOUS
 10
181.6520016399
 20
86.6186728093
 11
181.6461838101
 21
87.1960230785
  0
LWPOLYLINE
  5
33F
100
AcDbEntity
  8
217
100
AcDbPolyline
 62
7
  6
CONTINUOUS
 90
85
 70
0
 10
179.1389030607
 20
122.9630103807
 10
179.1378972722
 20
123.0675423782
 10
179.1350879248
 20
123.1713200195
 10
179.1304750186
 20
123.2743433119
 10
179.1240652892
 20
123.3763596776
 10
179.1158520009
 20
123.4776217122
 10
179.1058149471
 20
123.5788871719
 10
179.09401044
 20
123.6801820461
 10
179.0803821674
 20
123.7814803367
 10
179.0647409855
 20
123.8834617943
 10
179.0471050971
 20
123.9862815229
 10
179.0274562996
 20
124.0897843858
 10
179.0055508414
 20
124.1941847585
 10
178.981325345
 20
124.2997454442
 10
178.954843188
 20
124.4062035964
 10
178.9260507509
 20
124.5129851222
 10
178.8949117013
 20
124.6201010319
 10
178.8614623717
 20
124.7275402937
 10
178.8257581408
 20
124.8346957728
 10
178.7877740518
 20
124.9415252733
 10
178.7475350616
 20
125.0480709922
 10
178.7051714189
 20
125.1538524047
 10
178.6606379347
 20
125.2588867388
 10
178.6139797981
 20
125.3631567852
 10
178.5654628256
 20
125.466130382
 10
178.5150358553
 20
125.5678198289
 10
178.4627500491
 20
125.6682128652
 10
178.4090247086
 20
125.7667405089
 10
178.3538482891
 20
125.8633373085
 10
178.2972323354
 20
125.9580687757
 10
178.2396307829
 20
126.05056239
 10
178.1812176225
 20
126.1405524828
 10
178.1218188633
 20
126.228304796
 10
178.0613664691
 20
126.3142439243
 10
177.9999874348
 20
126.3982784243
 10
177.9375547654
 20
126.480499794
 10
177.8736194396
 20
126.5616070217
 10
177.8080459827
 20
126.6418250523
 10
177.7409698695
 20
126.7209289692
 10
177.6723485029
 20
126.7989429566
 10
177.6021002796
 20
126.8759593588
 10
177.5303068031
 20
126.9518858601
 10
177.4571702863
 20
127.0264696588
 10
177.3826722592
 20
127.0996953902
 10
177.3068311917
 20
127.1715784553
 10
177.229904707
 20
127.2419122074
 10
177.1519872958
 20
127.3106123902
 10
177.0729844672
 20
127.3777633014
 10
176.9928703715
 20
127.4434111273
 10
176.9118899892
 20
127.507407975
 10
176.8297983397
 20
127.5699017762
 10
176.7458346323
 20
127.6313824465
 10
176.6598989477
 20
127.691988063
 10
176.5720912051
 20
127.7515805712
 10
176.4819503705
 20
127.8102356823
 10
176.3891852755
 20
127.8681436236
 10
176.2940870886
 20
127.9251141874
 10
176.197068281
 20
127.9806524373
 10
176.0980644452
 20
128.0347419751
 10
175.9971399888
 20
128.0873992309
 10
175.8949006067
 20
128.1381785208
 10
175.7913575153
 20
128.1870250429
 10
175.6864994982
 20
128.2339936382
 10
175.5808986001
 20
128.2788030943
 10
175.4745745967
 20
128.3214040972
 10
175.3675077123
 20
128.3618460009
 10
175.2602106643
 20
128.3999955979
 10
175.1526405673
 20
128.4358256086
 10
175.0448403067
 20
128.4693633488
 10
174.9374512561
 20
128.5005575041
 10
174.8304932054
 20
128.5293680464
 10
174.7239463647
 20
128.5558350342
 10
174.6183927376
 20
128.5800272809
 10
174.5141166937
 20
128.601879322
 10
174.4108338634
 20
128.6214566449
 10
174.3082731408
 20
128.6390244875
 10
174.2065947269
 20
128.654604958
 10
174.1056384207
 20
128.6681759627
 10
174.0046525136
 20
128.6799364333
 10
173.9036719486
 20
128.6899472079
 10
173.8026617827
 20
128.6981474569
 10
173.7007654782
 20
128.704553609
 10
173.5976975225
 20
128.709171142
 10
173.4937434283
 20
128.7119945824
 10
173.3889031954
 20
128.7130239314
  0
LINE
  5
340
100
AcDbEntity
  8
217
100
AcDbLine
 62
7
  6
CONTINUOUS
 10
181.6389030612
 20
86.2130061458
 11
181.6389030612
 21
88.0630103766
  0
LINE
  5
341
100
AcDbEntity
  8
217
100
AcDbLine
 62
7
  6
CONTINUOUS
 10
181.6389030612
 20
132.8630103766
 11
181.6389030612
 21
134.7130146073
  0
LINE
  5
342
100
AcDbEntity
  8
217
100
AcDbLine
 62
250
  6
CONTINUOUS
 10
181.6461838101
 20
133.7299976747
 11
181.6520016399
 21
134.3073479439
  0
LINE
  5
343
100
AcDbEntity
  8
217
100
AcDbLine
 62
250
  6
CONTINUOUS
 10
181.8969068081
 20
133.5856601074
 11
181.9019974092
 21
134.0908415929
  0
LINE
  5
344
100
AcDbEntity
  8
RACCORDO
100
AcDbLine
 62
7
  6
CONTINUOUS
 10
177.9845107368
 20
64.6375884097
 11
177.9874394932
 21
64.6716900952
  0
LINE
  5
345
100
AcDbEntity
  8
217
100
AcDbLine
 62
7
  6
CONTINUOUS
 10
184.0316223123
 20
132.796421338
 11
184.0389030612
 21
132.8627184537
  0
LINE
  5
346
100
AcDbEntity
  8
217
100
AcDbLine
 62
7
  6
CONTINUOUS
 10
169.4350642459
 20
86.8318565304
 11
169.4918204378
 21
86.8676680251
  0
LINE
  5
347
100
AcDbEntity
  8
217
100
AcDbLine
 62
7
  6
CONTINUOUS
 10
169.406572297
 20
86.8140514103
 11
169.4350642459
 21
86.8318565304
  0
LINE
  5
348
100
AcDbEntity
  8
217
100
AcDbLine
 62
250
  6
CONTINUOUS
 10
183.9978184012
 20
88.1350995379
 11
183.8881790234
 21
88.4642851546
  0
LINE
  5
349
100
AcDbEntity
  8
217
100
AcDbLine
 62
250
  6
CONTINUOUS
 10
184.388102871
 20
88.963599922
 11
184.5214861588
 21
88.563124648
  0
LINE
  5
34A
100
AcDbEntity
  8
217
100
AcDbLine
 62
7
  6
CONTINUOUS
 10
184.0389030612
 20
88.0633022994
 11
184.0316223123
 21
88.1295994151
  0
LWPOLYLINE
  5
34B
100
AcDbEntity
  8
217
100
AcDbPolyline
 62
7
  6
CONTINUOUS
 90
34
 70
0
 10
181.6461838101
 20
133.7299976747
 10
181.6464815365
 20
133.7237560956
 10
181.6472527879
 20
133.7174829845
 10
181.6485031507
 20
133.7111965685
 10
181.6502371979
 20
133.7049225364
 10
181.6524586407
 20
133.6986729981
 10
181.6551706607
 20
133.6924465141
 10
181.6583751575
 20
133.6862635767
 10
181.662073082
 20
133.6801439465
 10
181.666265333
 20
133.6740857899
 10
181.6709508172
 20
133.6681106132
 10
181.6761274592
 20
133.6622392055
 10
181.6817938299
 20
133.6564693837
 10
181.6879456138
 20
133.6508234027
 10
181.6945773962
 20
133.6453229096
 10
181.701685199
 20
133.6399655739
 10
181.7092611946
 20
133.6347741215
 10
181.7172962766
 20
133.6297708128
 10
181.7257835021
 20
133.6249533987
 10
181.7347112116
 20
133.6203447053
 10
181.7440661903
 20
133.6159672965
 10
181.7538378649
 20
133.6118192486
 10
181.7640103761
 20
133.6079229896
 10
181.7745659632
 20
133.6043009468
 10
181.785489564
 20
133.6009517106
 10
181.7967606216
 20
133.5978966775
 10
181.808356546
 20
133.5951574712
 10
181.8202572438
 20
133.5927331898
 10
181.8324240715
 20
133.5906463891
 10
181.8448421264
 20
133.5889129301
 10
181.8575261205
 20
133.5875268091
 10
181.8704608311
 20
133.5865037271
 10
181.8835993326
 20
133.5858745373
 10
181.8969068081
 20
133.5856601074
  0
LWPOLYLINE
  5
34C
100
AcDbEntity
  8
217
100
AcDbPolyline
 62
7
  6
CONTINUOUS
 90
34
 70
0
 10
184.0316223123
 20
87.1960230785
 10
184.031324586
 20
87.2022646575
 10
184.0305533346
 20
87.2085377686
 10
184.0293029718
 20
87.2148241846
 10
184.0275689245
 20
87.2210982167
 10
184.0253474818
 20
87.227347755
 10
184.0226354618
 20
87.233574239
 10
184.019430965
 20
87.2397571765
 10
184.0157330404
 20
87.2458768067
 10
184.0115407894
 20
87.2519349632
 10
184.0068553052
 20
87.2579101399
 10
184.0016786633
 20
87.2637815476
 10
183.9960122925
 20
87.2695513695
 10
183.9898605087
 20
87.2751973504
 10
183.9832287263
 20
87.2806978435
 10
183.9761209235
 20
87.2860551793
 10
183.9685449279
 20
87.2912466316
 10
183.9605098459
 20
87.2962499404
 10
183.9520226203
 20
87.3010673544
 10
183.9430949108
 20
87.3056760478
 10
183.9337399321
 20
87.3100534566
 10
183.9239682575
 20
87.3142015045
 10
183.9137957463
 20
87.3180977635
 10
183.9032401592
 20
87.3217198063
 10
183.8923165584
 20
87.3250690425
 10
183.8810455009
 20
87.3281240756
 10
183.8694495764
 20
87.3308632819
 10
183.8575488787
 20
87.3332875633
 10
183.8453820509
 20
87.335374364
 10
183.832963996
 20
87.337107823
 10
183.8202800019
 20
87.338493944
 10
183.8073452913
 20
87.339517026
 10
183.7942067898
 20
87.3401462158
 10
183.7808993144
 20
87.3403606457
  0
LWPOLYLINE
  5
34D
100
AcDbEntity
  8
217
100
AcDbPolyline
 62
250
  6
CONTINUOUS
 90
10
 70
0
 10
184.3827220938
 20
89.0295090808
 10
184.3832983674
 20
89.0174105316
 10
184.3838824274
 20
89.0064650242
 10
184.3844720954
 20
88.9967133058
 10
184.3850674097
 20
88.9881598527
 10
184.3856683321
 20
88.9808001886
 10
184.3862725687
 20
88.9746616316
 10
184.3868793551
 20
88.9697532879
 10
184.3874894559
 20
88.9660660513
 10
184.388102871
 20
88.963599922
  0
LWPOLYLINE
  5
34E
100
AcDbEntity
  8
217
100
AcDbPolyline
 62
250
  6
CONTINUOUS
 90
8
 70
0
 10
183.8839580977
 20
88.528599149
 10
183.8845477204
 20
88.5139680307
 10
183.885142945
 20
88.5011291067
 10
183.8857437713
 20
88.4900978262
 10
183.8863480111
 20
88.4808874007
 10
183.886954935
 20
88.4735092757
 10
183.8875652724
 20
88.4679728628
 10
183.8881790234
 20
88.4642851546
  0
LINE
  5
34F
100
AcDbEntity
  8
217
100
AcDbLine
 62
250
  6
CONTINUOUS
 10
184.3815929771
 20
89.0571736804
 11
184.3827220938
 21
89.0295090808
  0
LWPOLYLINE
  5
350
100
AcDbEntity
  8
217
100
AcDbPolyline
 62
250
  6
CONTINUOUS
 90
31
 70
0
 10
181.6520016399
 20
134.3073479439
 10
181.6523801956
 20
134.2960499716
 10
181.6534393231
 20
134.2847796676
 10
181.6551766997
 20
134.2735677977
 10
181.6575884011
 20
134.2624439886
 10
181.6606682713
 20
134.2514397366
 10
181.6644073223
 20
134.2405881968
 10
181.6687948667
 20
134.2299200738
 10
181.6738192657
 20
134.2194634004
 10
181.6794669463
 20
134.2092464816
 10
181.6857226389
 20
134.1992970765
 10
181.6925692135
 20
134.1896425519
 10
181.6999878218
 20
134.1803095285
 10
181.7079581258
 20
134.1713235783
 10
181.7164584206
 20
134.1627091591
 10
181.7254655111
 20
134.1544897807
 10
181.7349548147
 20
134.1466878841
 10
181.7449004019
 20
134.1393247959
 10
181.7552750847
 20
134.132420647
 10
181.7660505171
 20
134.1259943004
 10
181.7771972751
 20
134.1200633035
 10
181.7886849122
 20
134.1146438561
 10
181.8004820689
 20
134.1097507541
 10
181.8125565053
 20
134.105397371
 10
181.8248751849
 20
134.1015956137
 10
181.8374044203
 20
134.0983558672
 10
181.8501100232
 20
134.0956869608
 10
181.862957344
 20
134.0935961684
 10
181.8759113112
 20
134.0920891984
 10
181.888936525
 20
134.09117017
 10
181.9019974092
 20
134.0908415929
  0
LWPOLYLINE
  5
351
100
AcDbEntity
  8
217
100
AcDbPolyline
 62
250
  6
CONTINUOUS
 90
31
 70
0
 10
184.0258044825
 20
86.6186728093
 10
184.0254251508
 20
86.6299829598
 10
184.0243641688
 20
86.6412622246
 10
184.022624434
 20
86.6524798025
 10
184.020210697
 20
86.6636050606
 10
184.0171295494
 20
86.6746076181
 10
184.0133894052
 20
86.6854574294
 10
184.0090004778
 20
86.6961248658
 10
184.0039747525
 20
86.7065807969
 10
183.9983259535
 20
86.7167966697
 10
183.9920695066
 20
86.7267445867
 10
183.9852224966
 20
86.7363973824
 10
183.9778036215
 20
86.7457286969
 10
183.9698331406
 20
86.7547130484
 10
183.9613328196
 20
86.7633259024
 10
183.9523258711
 20
86.7715437391
 10
183.9428368911
 20
86.7793441174
 10
183.9328917922
 20
86.7867057359
 10
183.9225177323
 20
86.7936084917
 10
183.9117430408
 20
86.8000335347
 10
183.9005971411
 20
86.8059633196
 10
183.8891104703
 20
86.8113816533
 10
183.8773143961
 20
86.8162737395
 10
183.8652411312
 20
86.820626219
 10
183.8529236451
 20
86.8244272059
 10
183.8403955742
 20
86.8276663207
 10
183.8276911301
 20
86.8303347179
 10
183.814845006
 20
86.8324251108
 10
183.801892282
 20
86.8339317909
 10
183.7888683292
 20
86.8348506437
 10
183.7758087133
 20
86.8351791602
  0
LINE
  5
352
100
AcDbEntity
  8
217
100
AcDbLine
 62
250
  6
CONTINUOUS
 10
184.3805012578
 20
89.0892945943
 11
184.3815929771
 21
89.0571736804
  0
LINE
  5
353
100
AcDbEntity
  8
217
100
AcDbLine
 62
250
  6
CONTINUOUS
 10
183.8827978447
 20
88.5631624315
 11
183.8839580977
 21
88.528599149
  0
LINE
  5
354
100
AcDbEntity
  8
217
100
AcDbLine
 62
250
  6
CONTINUOUS
 10
184.3794509736
 20
89.1257529752
 11
184.3805012578
 21
89.0892945943
  0
LINE
  5
355
100
AcDbEntity
  8
217
100
AcDbLine
 62
250
  6
CONTINUOUS
 10
183.8816688284
 20
88.6046459092
 11
183.8827978447
 21
88.5631624315
  0
LINE
  5
356
100
AcDbEntity
  8
217
100
AcDbLine
 62
250
  6
CONTINUOUS
 10
184.3784480698
 20
89.1663559827
 11
184.3794509736
 21
89.1257529752
  0
LINE
  5
357
100
AcDbEntity
  8
217
100
AcDbLine
 62
250
  6
CONTINUOUS
 10
183.8805772051
 20
88.6528449966
 11
183.8816688284
 21
88.6046459092
  0
LINE
  5
358
100
AcDbEntity
  8
217
100
AcDbLine
 62
250
  6
CONTINUOUS
 10
184.3774980344
 20
89.2108673223
 11
184.3784480698
 21
89.1663559827
  0
LINE
  5
359
100
AcDbEntity
  8
217
100
AcDbLine
 62
250
  6
CONTINUOUS
 10
183.8795270088
 20
88.7075214768
 11
183.8805772051
 21
88.6528449966
  0
LINE
  5
35A
100
AcDbEntity
  8
217
100
AcDbLine
 62
250
  6
CONTINUOUS
 10
184.3761806428
 20
89.2845561069
 11
184.3774980344
 21
89.2108673223
  0
LINE
  5
35B
100
AcDbEntity
  8
217
100
AcDbLine
 62
250
  6
CONTINUOUS
 10
183.8785241908
 20
88.7684053629
 11
183.8795270088
 21
88.7075214768
  0
LINE
  5
35C
100
AcDbEntity
  8
217
100
AcDbLine
 62
250
  6
CONTINUOUS
 10
183.8775742324
 20
88.8351944791
 11
183.8785241908
 21
88.7684053629
  0
LWPOLYLINE
  5
35D
100
AcDbEntity
  8
217
100
AcDbPolyline
 62
250
  6
CONTINUOUS
 90
3
 70
0
 10
184.3746483088
 20
89.3944056711
 10
184.3750060754
 20
89.3657841964
 10
184.3761806428
 20
89.2845561069
  0
LINE
  5
35E
100
AcDbEntity
  8
217
100
AcDbLine
 62
250
  6
CONTINUOUS
 10
183.8762569356
 20
88.9457195871
 11
183.8775742324
 21
88.8351944791
  0
LINE
  5
35F
100
AcDbEntity
  8
217
100
AcDbLine
 62
250
  6
CONTINUOUS
 10
181.9019974092
 20
86.8351791602
 11
181.8969068081
 21
87.3403606457
  0
LINE
  5
360
100
AcDbEntity
  8
217
100
AcDbLine
 62
250
  6
CONTINUOUS
 10
183.7758087133
 20
134.0908415929
 11
183.7808993144
 21
133.5856601074
  0
LINE
  5
361
100
AcDbEntity
  8
217
100
AcDbLine
 62
250
  6
CONTINUOUS
 10
183.8750824358
 20
89.067552177
 11
183.8762569356
 21
88.9457195871
  0
LINE
  5
362
100
AcDbEntity
  8
217
100
AcDbLine
 62
250
  6
CONTINUOUS
 10
183.8740637964
 20
89.1993365341
 11
183.8750824358
 21
89.067552177
  0
LINE
  5
363
100
AcDbEntity
  8
217
100
AcDbLine
 62
250
  6
CONTINUOUS
 10
183.8732123573
 20
89.339604453
 11
183.8740637964
 21
89.1993365341
  0
LINE
  5
364
100
AcDbEntity
  8
217
100
AcDbLine
 62
250
  6
CONTINUOUS
 10
183.8725375679
 20
89.4867984179
 11
183.8732123573
 21
89.339604453
  0
LINE
  5
365
100
AcDbEntity
  8
217
100
AcDbLine
 62
250
  6
CONTINUOUS
 10
183.8720469297
 20
89.6392797348
 11
183.8725375679
 21
89.4867984179
  0
LINE
  5
366
100
AcDbEntity
  8
217
100
AcDbLine
 62
250
  6
CONTINUOUS
 10
183.8716884493
 20
89.8478743824
 11
183.8720469297
 21
89.6392797348
  0
LINE
  5
367
100
AcDbEntity
  8
217
100
AcDbLine
 62
250
  6
CONTINUOUS
 10
181.6461838101
 20
87.1960230785
 11
181.6461838101
 21
88.1285963243
  0
LINE
  5
368
100
AcDbEntity
  8
217
100
AcDbLine
 62
250
  6
CONTINUOUS
 10
181.6461838101
 20
132.7974244289
 11
181.6461838101
 21
133.7299976747
  0
LINE
  5
369
100
AcDbEntity
  8
217
100
AcDbLine
 62
250
  6
CONTINUOUS
 10
181.6520016399
 20
134.6999160286
 11
181.6520016399
 21
134.3073479439
  0
LINE
  5
36A
100
AcDbEntity
  8
217
100
AcDbLine
 62
250
  6
CONTINUOUS
 10
181.6520016399
 20
86.6186728093
 11
181.6520016399
 21
86.2261047245
  0
LINE
  5
36B
100
AcDbEntity
  8
217
100
AcDbLine
 62
250
  6
CONTINUOUS
 10
181.8961795793
 20
87.3403606457
 11
181.8961795793
 21
88.1416220455
  0
LINE
  5
36C
100
AcDbEntity
  8
217
100
AcDbLine
 62
250
  6
CONTINUOUS
 10
181.8961795793
 20
132.7843987076
 11
181.8961795793
 21
133.5856601074
  0
LINE
  5
36D
100
AcDbEntity
  8
217
100
AcDbLine
 62
250
  6
CONTINUOUS
 10
181.9019974092
 20
85.9761089553
 11
181.9019974092
 21
86.8351791602
  0
LINE
  5
36E
100
AcDbEntity
  8
217
100
AcDbLine
 62
250
  6
CONTINUOUS
 10
181.9019974092
 20
134.0908415929
 11
181.9019974092
 21
134.9499117978
  0
LINE
  5
36F
100
AcDbEntity
  8
217
100
AcDbLine
 62
250
  6
CONTINUOUS
 10
183.7758087133
 20
85.9761089553
 11
183.7758087133
 21
86.8351791602
  0
LINE
  5
370
100
AcDbEntity
  8
217
100
AcDbLine
 62
250
  6
CONTINUOUS
 10
183.7758087133
 20
134.0908415929
 11
183.7758087133
 21
134.9499117978
  0
LINE
  5
371
100
AcDbEntity
  8
217
100
AcDbLine
 62
250
  6
CONTINUOUS
 10
183.7816265431
 20
87.3403606457
 11
183.7816265431
 21
88.1416220455
  0
LINE
  5
372
100
AcDbEntity
  8
217
100
AcDbLine
 62
250
  6
CONTINUOUS
 10
183.7816265431
 20
132.7843987076
 11
183.7816265431
 21
133.5856601074
  0
LINE
  5
373
100
AcDbEntity
  8
217
100
AcDbLine
 62
250
  6
CONTINUOUS
 10
184.0258044825
 20
86.2261047245
 11
184.0258044825
 21
86.6186728093
  0
LINE
  5
374
100
AcDbEntity
  8
217
100
AcDbLine
 62
250
  6
CONTINUOUS
 10
184.0258044825
 20
134.3073479439
 11
184.0258044825
 21
134.6999160286
  0
LINE
  5
375
100
AcDbEntity
  8
217
100
AcDbLine
 62
250
  6
CONTINUOUS
 10
184.0316223123
 20
87.1960230785
 11
184.0316223123
 21
88.1295994151
  0
LINE
  5
376
100
AcDbEntity
  8
217
100
AcDbLine
 62
250
  6
CONTINUOUS
 10
184.0316223123
 20
132.796421338
 11
184.0316223123
 21
133.7299976747
  0
LINE
  5
377
100
AcDbEntity
  8
217
100
AcDbLine
 62
7
  6
CONTINUOUS
 10
184.0389030612
 20
86.2130061458
 11
184.0389030612
 21
88.0633204086
  0
LINE
  5
378
100
AcDbEntity
  8
217
100
AcDbLine
 62
7
  6
CONTINUOUS
 10
184.0389030612
 20
132.8627003445
 11
184.0389030612
 21
134.7130146073
  0
LWPOLYLINE
  5
379
100
AcDbEntity
  8
217
100
AcDbPolyline
 62
250
  6
CONTINUOUS
 90
21
 70
0
 10
183.870314329
 20
129.0681002428
 10
183.8691101699
 20
127.1104362442
 10
183.8680397755
 20
125.1525167535
 10
183.8671031334
 20
123.194371827
 10
183.866300256
 20
121.2360315156
 10
183.8656311802
 20
119.2775258645
 10
183.8650959122
 20
117.3188849323
 10
183.8646944458
 20
115.3601387841
 10
183.8644267994
 20
113.4013174788
 10
183.8642929793
 20
111.4424510857
 10
183.8642929793
 20
109.4835696676
 10
183.8644267994
 20
107.5247032745
 10
183.8646944458
 20
105.5658819692
 10
183.8650959122
 20
103.6071358211
 10
183.8656311802
 20
101.6484948888
 10
183.866300256
 20
99.6899892377
 10
183.8671031334
 20
97.7316489263
 10
183.8680397755
 20
95.7735039997
 10
183.8691101699
 20
93.815584509
 10
183.870314329
 20
91.8579205104
 10
183.8716884493
 20
89.8478743824
  0
LINE
  5
37A
100
AcDbEntity
  8
217
100
AcDbLine
 62
250
  6
CONTINUOUS
 10
183.8719252279
 20
131.2350338365
 11
183.870314329
 21
129.0681002428
  0
LINE
  5
37B
100
AcDbEntity
  8
217
100
AcDbLine
 62
250
  6
CONTINUOUS
 10
183.8725375711
 20
131.4392227783
 11
183.8719252279
 21
131.2350338365
  0
LINE
  5
37C
100
AcDbEntity
  8
217
100
AcDbLine
 62
250
  6
CONTINUOUS
 10
184.3722768057
 20
131.2471528635
 11
184.3717486073
 21
131.1098831766
  0
LINE
  5
37D
100
AcDbEntity
  8
217
100
AcDbLine
 62
250
  6
CONTINUOUS
 10
183.8732123626
 20
131.5864167574
 11
183.8725375711
 21
131.4392227783
  0
LINE
  5
37E
100
AcDbEntity
  8
217
100
AcDbLine
 62
250
  6
CONTINUOUS
 10
183.8740638035
 20
131.7266846242
 11
183.8732123626
 21
131.5864167574
  0
LINE
  5
37F
100
AcDbEntity
  8
217
100
AcDbLine
 62
250
  6
CONTINUOUS
 10
184.3728909022
 20
131.3465906295
 11
184.3722768057
 21
131.2471528635
  0
LINE
  5
380
100
AcDbEntity
  8
217
100
AcDbLine
 62
250
  6
CONTINUOUS
 10
183.8750824449
 20
131.8584689269
 11
183.8740638035
 21
131.7266846242
  0
LINE
  5
381
100
AcDbEntity
  8
217
100
AcDbLine
 62
250
  6
CONTINUOUS
 10
184.3736843988
 20
131.4417684116
 11
184.3728909022
 21
131.3465906295
  0
LINE
  5
382
100
AcDbEntity
  8
217
100
AcDbLine
 62
250
  6
CONTINUOUS
 10
183.7808993144
 20
87.3403606457
 11
183.7758087133
 21
86.8351791602
  0
LINE
  5
383
100
AcDbEntity
  8
217
100
AcDbLine
 62
250
  6
CONTINUOUS
 10
184.0316223123
 20
87.1960230785
 11
184.0258044825
 21
86.6186728093
  0
LINE
  5
384
100
AcDbEntity
  8
217
100
AcDbLine
 62
250
  6
CONTINUOUS
 10
183.8762569467
 20
131.9803015008
 11
183.8750824449
 21
131.8584689269
  0
LINE
  5
385
100
AcDbEntity
  8
217
100
AcDbLine
 62
250
  6
CONTINUOUS
 10
184.3746484904
 20
131.5316301797
 11
184.3736843988
 21
131.4417684116
  0
LINE
  5
386
100
AcDbEntity
  8
217
100
AcDbLine
 62
250
  6
CONTINUOUS
 10
183.8775742447
 20
132.090826569
 11
183.8762569467
 21
131.9803015008
  0
LINE
  5
387
100
AcDbEntity
  8
217
100
AcDbLine
 62
250
  6
CONTINUOUS
 10
184.3757724583
 20
131.6151757517
 11
184.3746484904
 21
131.5316301797
  0
LINE
  5
388
100
AcDbEntity
  8
217
100
AcDbLine
 62
250
  6
CONTINUOUS
 10
183.8785242035
 20
132.1576156581
 11
183.8775742447
 21
132.090826569
  0
LINE
  5
389
100
AcDbEntity
  8
217
100
AcDbLine
 62
250
  6
CONTINUOUS
 10
183.8795270217
 20
132.2184995274
 11
183.8785242035
 21
132.1576156581
  0
LINE
  5
38A
100
AcDbEntity
  8
217
100
AcDbLine
 62
250
  6
CONTINUOUS
 10
184.3770437815
 20
131.6914738047
 11
184.3757724583
 21
131.6151757517
  0
LINE
  5
38B
100
AcDbEntity
  8
217
100
AcDbLine
 62
250
  6
CONTINUOUS
 10
183.8805772183
 20
132.2731760051
 11
183.8795270217
 21
132.2184995274
  0
LINE
  5
38C
100
AcDbEntity
  8
217
100
AcDbLine
 62
250
  6
CONTINUOUS
 10
184.3784483284
 20
131.7596760337
 11
184.3770437815
 21
131.6914738047
  0
LINE
  5
38D
100
AcDbEntity
  8
217
100
AcDbLine
 62
250
  6
CONTINUOUS
 10
183.8816688417
 20
132.3213750647
 11
183.8805772183
 21
132.2731760051
  0
LINE
  5
38E
100
AcDbEntity
  8
217
100
AcDbLine
 62
250
  6
CONTINUOUS
 10
184.3794512377
 20
131.8002776767
 11
184.3784483284
 21
131.7596760337
  0
LINE
  5
38F
100
AcDbEntity
  8
217
100
AcDbLine
 62
250
  6
CONTINUOUS
 10
183.8827978579
 20
132.3628584974
 11
183.8816688417
 21
132.3213750647
  0
LINE
  5
390
100
AcDbEntity
  8
217
100
AcDbLine
 62
250
  6
CONTINUOUS
 10
184.3805015264
 20
131.8367347347
 11
184.3794512377
 21
131.8002776767
  0
LWPOLYLINE
  5
391
100
AcDbEntity
  8
217
100
AcDbPolyline
 62
250
  6
CONTINUOUS
 90
31
 70
0
 10
181.6520016399
 20
86.6186728093
 10
181.6523809717
 20
86.6299829598
 10
181.6534419536
 20
86.6412622246
 10
181.6551816885
 20
86.6524798025
 10
181.6575954254
 20
86.6636050606
 10
181.660676573
 20
86.6746076181
 10
181.6644167173
 20
86.6854574294
 10
181.6688056447
 20
86.6961248658
 10
181.6738313699
 20
86.7065807969
 10
181.6794801689
 20
86.7167966697
 10
181.6857366159
 20
86.7267445867
 10
181.6925836258
 20
86.7363973824
 10
181.7000025009
 20
86.7457286969
 10
181.7079729819
 20
86.7547130484
 10
181.7164733029
 20
86.7633259024
 10
181.7254802514
 20
86.7715437391
 10
181.7349692313
 20
86.7793441174
 10
181.7449143302
 20
86.7867057359
 10
181.7552883901
 20
86.7936084917
 10
181.7660630817
 20
86.8000335347
 10
181.7772089814
 20
86.8059633196
 10
181.7886956522
 20
86.8113816533
 10
181.8004917263
 20
86.8162737395
 10
181.8125649913
 20
86.820626219
 10
181.8248824774
 20
86.8244272059
 10
181.8374105483
 20
86.8276663207
 10
181.8501149923
 20
86.8303347179
 10
181.8629611164
 20
86.8324251108
 10
181.8759138405
 20
86.8339317909
 10
181.8889377933
 20
86.8348506437
 10
181.9019974092
 20
86.8351791602
  0
LWPOLYLINE
  5
392
100
AcDbEntity
  8
217
100
AcDbPolyline
 62
250
  6
CONTINUOUS
 90
31
 70
0
 10
184.0258044825
 20
134.3073479439
 10
184.0254259269
 20
134.2960499716
 10
184.0243667993
 20
134.2847796676
 10
184.0226294228
 20
134.2735677977
 10
184.0202177214
 20
134.2624439886
 10
184.0171378511
 20
134.2514397366
 10
184.0133988001
 20
134.2405881968
 10
184.0090112557
 20
134.2299200738
 10
184.0039868567
 20
134.2194634004
 10
183.9983391761
 20
134.2092464816
 10
183.9920834836
 20
134.1992970765
 10
183.985236909
 20
134.1896425519
 10
183.9778183007
 20
134.1803095285
 10
183.9698479966
 20
134.1713235783
 10
183.9613477018
 20
134.1627091591
 10
183.9523406114
 20
134.1544897807
 10
183.9428513077
 20
134.1466878841
 10
183.9329057206
 20
134.1393247959
 10
183.9225310377
 20
134.132420647
 10
183.9117556053
 20
134.1259943004
 10
183.9006088473
 20
134.1200633035
 10
183.8891212103
 20
134.1146438561
 10
183.8773240536
 20
134.1097507541
 10
183.8652496171
 20
134.105397371
 10
183.8529309375
 20
134.1015956137
 10
183.8404017021
 20
134.0983558672
 10
183.8276960993
 20
134.0956869608
 10
183.8148487785
 20
134.0935961684
 10
183.8018948112
 20
134.0920891984
 10
183.7888695975
 20
134.09117017
 10
183.7758087133
 20
134.0908415929
  0
LINE
  5
393
100
AcDbEntity
  8
217
100
AcDbLine
 62
250
  6
CONTINUOUS
 10
184.3815932479
 20
131.8688543429
 11
184.3805015264
 21
131.8367347347
  0
LWPOLYLINE
  5
394
100
AcDbEntity
  8
217
100
AcDbPolyline
 62
7
  6
CONTINUOUS
 90
34
 70
0
 10
181.6461838101
 20
87.1960230785
 10
181.6464815365
 20
87.2022646575
 10
181.6472527879
 20
87.2085377686
 10
181.6485031507
 20
87.2148241846
 10
181.6502371979
 20
87.2210982167
 10
181.6524586407
 20
87.227347755
 10
181.6551706607
 20
87.233574239
 10
181.6583751575
 20
87.2397571765
 10
181.662073082
 20
87.2458768067
 10
181.666265333
 20
87.2519349632
 10
181.6709508172
 20
87.2579101399
 10
181.6761274592
 20
87.2637815476
 10
181.6817938299
 20
87.2695513695
 10
181.6879456138
 20
87.2751973504
 10
181.6945773962
 20
87.2806978435
 10
181.701685199
 20
87.2860551793
 10
181.7092611946
 20
87.2912466316
 10
181.7172962766
 20
87.2962499404
 10
181.7257835021
 20
87.3010673544
 10
181.7347112116
 20
87.3056760478
 10
181.7440661903
 20
87.3100534566
 10
181.7538378649
 20
87.3142015045
 10
181.7640103761
 20
87.3180977635
 10
181.7745659632
 20
87.3217198063
 10
181.785489564
 20
87.3250690425
 10
181.7967606216
 20
87.3281240756
 10
181.808356546
 20
87.3308632819
 10
181.8202572438
 20
87.3332875633
 10
181.8324240715
 20
87.335374364
 10
181.8448421264
 20
87.337107823
 10
181.8575261205
 20
87.338493944
 10
181.8704608311
 20
87.339517026
 10
181.8835993326
 20
87.3401462158
 10
181.8969068081
 20
87.3403606457
  0
LINE
  5
395
100
AcDbEntity
  8
217
100
AcDbLine
 62
7
  6
CONTINUOUS
 10
181.6389030612
 20
88.0630103766
 11
181.6461838101
 21
88.1285963243
  0
LWPOLYLINE
  5
396
100
AcDbEntity
  8
217
100
AcDbPolyline
 62
250
  6
CONTINUOUS
 90
31
 70
0
 10
184.0258044825
 20
134.6999160286
 10
184.0254614439
 20
134.7129995146
 10
184.0244341541
 20
134.7260471412
 10
184.0227254285
 20
134.7390231474
 10
184.0203399505
 20
134.7518919682
 10
184.0172842583
 20
134.7646183328
 10
184.0135667269
 20
134.7771673604
 10
184.0091975454
 20
134.7895046567
 10
184.004188689
 20
134.8015964073
 10
183.9985538858
 20
134.8134094711
 10
183.9923085799
 20
134.8249114707
 10
183.9854698885
 20
134.8360708812
 10
183.9780565551
 20
134.8468571168
 10
183.9700888983
 20
134.8572406145
 10
183.9615887561
 20
134.8671929149
 10
183.9525794255
 20
134.8766867408
 10
183.9430855996
 20
134.8856960714
 10
183.9331332991
 20
134.8941962137
 10
183.9227498015
 20
134.9021638704
 10
183.9119635659
 20
134.9095772038
 10
183.9008041554
 20
134.9164158952
 10
183.8893021558
 20
134.9226612011
 10
183.877489092
 20
134.9282960043
 10
183.8653973414
 20
134.9333048608
 10
183.8530600451
 20
134.9376740423
 10
183.8405110174
 20
134.9413915736
 10
183.8277846529
 20
134.9444472659
 10
183.814915832
 20
134.9468327438
 10
183.8019398259
 20
134.9485414694
 10
183.7888921993
 20
134.9495687593
 10
183.7758087133
 20
134.9499117978
  0
LWPOLYLINE
  5
397
100
AcDbEntity
  8
217
100
AcDbPolyline
 62
250
  6
CONTINUOUS
 90
34
 70
0
 10
184.388102871
 20
131.9624208312
 10
184.387515571
 20
131.9861653807
 10
184.3857984288
 20
132.0098562044
 10
184.3829553296
 20
132.0334396972
 10
184.3789927065
 20
132.0568624971
 10
184.3739195255
 20
132.0800716057
 10
184.3677472655
 20
132.1030145079
 10
184.3604898924
 20
132.1256392912
 10
184.3521638272
 20
132.1478947627
 10
184.3427879092
 20
132.1697305652
 10
184.3323833529
 20
132.1910972911
 10
184.3209737007
 20
132.2119465942
 10
184.3085847688
 20
132.2322312989
 10
184.2952445896
 20
132.2519055072
 10
184.2809833476
 20
132.2709247024
 10
184.2658333114
 20
132.2892458501
 10
184.2498287609
 20
132.3068274951
 10
184.2330059093
 20
132.3236298554
 10
184.2154028214
 20
132.3396149127
 10
184.1970593274
 20
132.3547464975
 10
184.1780169331
 20
132.3689903717
 10
184.1583187253
 20
132.3823143059
 10
184.1380092749
 20
132.3946881519
 10
184.117134536
 20
132.4060839116
 10
184.0957417415
 20
132.4164757999
 10
184.0738792968
 20
132.425840303
 10
184.0515966696
 20
132.434156232
 10
184.0289442789
 20
132.4414047703
 10
184.0059733798
 20
132.4475695168
 10
183.9827359484
 20
132.4526365226
 10
183.959284564
 20
132.4565943224
 10
183.9356722896
 20
132.4594339611
 10
183.9119525526
 20
132.4611490133
 10
183.8881790234
 20
132.4617355985
  0
LWPOLYLINE
  5
398
100
AcDbEntity
  8
217
100
AcDbPolyline
 62
7
  6
CONTINUOUS
 90
34
 70
0
 10
184.0389030612
 20
134.7130146073
 10
184.038619911
 20
134.7249098926
 10
184.0377710955
 20
134.7367782321
 10
184.0363585354
 20
134.7485927427
 10
184.0343854289
 20
134.760326664
 10
184.0318562429
 20
134.7719534154
 10
184.0287767029
 20
134.7834466556
 10
184.0251537826
 20
134.7947803503
 10
184.020995687
 20
134.8059288259
 10
184.0163118334
 20
134.8168668229
 10
184.0111128301
 20
134.8275695642
 10
184.0054104529
 20
134.8380128048
 10
183.9992176194
 20
134.8481728825
 10
183.9925483567
 20
134.8580267817
 10
183.9854177719
 20
134.8675521804
 10
183.9778420201
 20
134.8767274956
 10
183.9698382617
 20
134.8855319426
 10
183.9614246273
 20
134.893945577
 10
183.9526201803
 20
134.9019493354
 10
183.9434448651
 20
134.9095250873
 10
183.9339194663
 20
134.916655672
 10
183.9240655671
 20
134.9233249347
 10
183.9139054895
 20
134.9295177682
 10
183.9034622488
 20
134.9352201454
 10
183.8927595075
 20
134.9404191487
 10
183.8818215105
 20
134.9451030023
 10
183.870673035
 20
134.9492610979
 10
183.8593393402
 20
134.9528840183
 10
183.8478461
 20
134.9559635583
 10
183.8362193487
 20
134.9584927443
 10
183.8244854274
 20
134.9604658507
 10
183.8126709168
 20
134.9618784108
 10
183.8008025772
 20
134.9627272263
 10
183.788907292
 20
134.9630103766
  0
LINE
  5
399
100
AcDbEntity
  8
217
100
AcDbLine
 62
250
  6
CONTINUOUS
 10
184.0258044825
 20
134.3073479439
 11
184.0316223123
 21
133.7299976747
  0
LINE
  5
39A
100
AcDbEntity
  8
217
100
AcDbLine
 62
250
  6
CONTINUOUS
 10
184.3736842522
 20
89.484267816
 11
184.3746483088
 21
89.3944056711
  0
LINE
  5
39B
100
AcDbEntity
  8
217
100
AcDbLine
 62
250
  6
CONTINUOUS
 10
184.3728907898
 20
89.5794457117
 11
184.3736842522
 21
89.484267816
  0
LINE
  5
39C
100
AcDbEntity
  8
217
100
AcDbLine
 62
250
  6
CONTINUOUS
 10
184.3722767264
 20
89.6788833977
 11
184.3728907898
 21
89.5794457117
  0
LINE
  5
39D
100
AcDbEntity
  8
217
100
AcDbLine
 62
250
  6
CONTINUOUS
 10
184.3718489045
 20
89.7814731841
 11
184.3722767264
 21
89.6788833977
  0
LINE
  5
39E
100
AcDbEntity
  8
217
100
AcDbLine
 62
250
  6
CONTINUOUS
 10
184.3715761003
 20
89.9211045201
 11
184.3718489045
 21
89.7814731841
  0
LINE
  5
39F
100
AcDbEntity
  8
218
100
AcDbLine
 62
7
  6
CONTINUOUS
 10
184.5389030612
 20
92.7914375013
 11
184.5389030612
 21
128.1345832518
  0
LINE
  5
3A0
100
AcDbEntity
  8
217
100
AcDbLine
 62
7
  6
CONTINUOUS
 10
184.5389030612
 20
88.571832436
 11
184.5389030612
 21
132.3541883172
  0
LWPOLYLINE
  5
3A1
100
AcDbEntity
  8
217
100
AcDbPolyline
 62
250
  6
CONTINUOUS
 90
21
 70
0
 10
184.3702381768
 20
129.0494454651
 10
184.3690340178
 20
127.0937493672
 10
184.3679636234
 20
125.1378279394
 10
184.3670269813
 20
123.181651119
 10
184.3662241038
 20
121.2252489687
 10
184.3655550279
 20
119.2687116761
 10
184.3650197598
 20
117.3120392718
 10
184.3646182933
 20
115.3552317252
 10
184.364350647
 20
113.3983791328
 10
184.3642168269
 20
111.4414814961
 10
184.3642168269
 20
109.4845388134
 10
184.364350647
 20
107.5276411768
 10
184.3646182934
 20
105.5707885846
 10
184.3650197599
 20
103.6139810383
 10
184.365555028
 20
101.6573086343
 10
184.366224104
 20
99.7007713257
 10
184.3670269815
 20
97.7443691593
 10
184.3679636237
 20
95.7881923719
 10
184.369034018
 20
93.8322710423
 10
184.3702381769
 20
91.8765750917
 10
184.3715761003
 20
89.9211045201
  0
LINE
  5
3A2
100
AcDbEntity
  8
217
100
AcDbLine
 62
250
  6
CONTINUOUS
 10
184.3717486073
 20
131.1098831766
 11
184.3702381768
 21
129.0494454651
  0
LWPOLYLINE
  5
3A3
100
AcDbEntity
  8
217
100
AcDbPolyline
 62
7
  6
CONTINUOUS
 90
27
 70
0
 10
184.5214861588
 20
88.563124648
 10
184.521053923
 20
88.5425227337
 10
184.519770644
 20
88.5219185147
 10
184.5176338679
 20
88.5013473749
 10
184.5146431253
 20
88.4808481126
 10
184.5107986846
 20
88.4604533741
 10
184.5061002637
 20
88.4401898368
 10
184.500552341
 20
88.42010084
 10
184.4941573716
 20
88.4002156952
 10
184.4869094545
 20
88.3805416243
 10
184.4788109086
 20
88.3611140121
 10
184.4698678417
 20
88.3419737394
 10
184.4600762251
 20
88.3231390332
 10
184.4494329084
 20
88.304634337
 10
184.4379539833
 20
88.2865159901
 10
184.4256678928
 20
88.2688494641
 10
184.4125844286
 20
88.2516657424
 10
184.3987255968
 20
88.2350097176
 10
184.384150024
 20
88.2189602599
 10
184.3688807492
 20
88.2035456413
 10
184.3529481412
 20
88.1887992996
 10
184.3364358596
 20
88.1747946835
 10
184.3194072775
 20
88.1615728146
 10
184.3018728762
 20
88.1491295827
 10
184.283841651
 20
88.1374648255
 10
184.265360962
 20
88.1266042529
 10
184.2449401353
 20
88.1157965748
  0
LWPOLYLINE
  5
3A4
100
AcDbEntity
  8
217
100
AcDbPolyline
 62
250
  6
CONTINUOUS
 90
34
 70
0
 10
184.388102871
 20
88.963599922
 10
184.3875155706
 20
88.9398553634
 10
184.3857984271
 20
88.9161645314
 10
184.382955326
 20
88.892581031
 10
184.3789927003
 20
88.8691582241
 10
184.3739195162
 20
88.8459491094
 10
184.3677472527
 20
88.8230062018
 10
184.3604898758
 20
88.800381414
 10
184.3521638065
 20
88.7781259388
 10
184.3427878842
 20
88.7562901334
 10
184.3323833238
 20
88.7349234055
 10
184.3209736674
 20
88.7140741014
 10
184.3085847316
 20
88.6937893963
 10
184.2952445486
 20
88.6741151885
 10
184.2809833033
 20
88.6550959944
 10
184.2658332642
 20
88.6367748485
 10
184.2498287112
 20
88.619193206
 10
184.2330058577
 20
88.6023908485
 10
184.2154027685
 20
88.5864057947
 10
184.197059274
 20
88.5712742136
 10
184.1780168796
 20
88.5570303433
 10
184.1583186726
 20
88.5437064134
 10
184.1380092236
 20
88.5313325716
 10
184.1171344868
 20
88.5199368161
 10
184.095741695
 20
88.509544932
 10
184.0738792537
 20
88.5001804328
 10
184.0515966306
 20
88.4918645076
 10
184.0289442443
 20
88.4846159726
 10
184.0059733502
 20
88.4784512291
 10
183.9827359243
 20
88.4733842259
 10
183.9592845455
 20
88.469426428
 10
183.9356722771
 20
88.4665867908
 10
183.9119525463
 20
88.4648717395
 10
183.8881790234
 20
88.4642851546
  0
LWPOLYLINE
  5
3A5
100
AcDbEntity
  8
217
100
AcDbPolyline
 62
250
  6
CONTINUOUS
 90
16
 70
0
 10
184.3715761003
 20
89.9211045201
 10
184.3706120907
 20
89.9201368255
 10
184.3685427298
 20
89.9191712747
 10
184.3653726021
 20
89.9182100067
 10
184.3611087303
 20
89.9172551509
 10
184.3557605602
 20
89.9163088227
 10
184.3493399398
 20
89.9153731185
 10
184.3418610925
 20
89.9144501111
 10
184.3333405865
 20
89.9135418454
 10
184.3237972973
 20
89.9126503333
 10
184.3132523663
 20
89.91177755
 10
184.3017291537
 20
89.9109254287
 10
184.289253187
 20
89.9100958574
 10
184.2758521045
 20
89.9092906737
 10
184.2615555936
 20
89.9085116613
 10
184.2463953256
 20
89.9077605461
  0
LINE
  5
3A6
100
AcDbEntity
  8
217
100
AcDbLine
 62
250
  6
CONTINUOUS
 10
184.5214861588
 20
88.563124648
 11
184.5389030612
 21
88.571832436
  0
LINE
  5
3A7
100
AcDbEntity
  8
217
100
AcDbLine
 62
7
  6
CONTINUOUS
 10
184.2449174706
 20
88.1157852426
 11
184.2624200632
 21
88.1245358724
  0
LWPOLYLINE
  5
3A8
100
AcDbEntity
  8
217
100
AcDbPolyline
 62
7
  6
CONTINUOUS
 90
11
 70
0
 10
184.2449401353
 20
88.1157965748
 10
184.22709052
 20
88.1073080189
 10
184.207272554
 20
88.0988683129
 10
184.1870627621
 20
88.0912735708
 10
184.1665139579
 20
88.0845493001
 10
184.1456465823
 20
88.0787076865
 10
184.1245149727
 20
88.0737694104
 10
184.1032269482
 20
88.0697593515
 10
184.0818465073
 20
88.0666830726
 10
184.0603914585
 20
88.0645366368
 10
184.0389022003
 20
88.0633191779
  0
LWPOLYLINE
  5
3A9
100
AcDbEntity
  8
0
100
AcDbPolyline
 62
7
  6
CONTINUOUS
 90
2
 70
0
 43
0.3500000006
 10
192.6389058838
 20
109.1058654785
 10
191.1388963623
 20
109.1058654785
  0
LWPOLYLINE
  5
3AA
100
AcDbEntity
  8
290
100
AcDbPolyline
 62
7
  6
CONTINUOUS
 90
7
 70
0
 10
172.5389030612
 20
122.6723296586
 10
172.5234148511
 20
122.6963821021
 10
172.4829963398
 20
122.7731973645
 10
172.4494810822
 20
122.8532480872
 10
172.42313735
 20
122.9359094754
 10
172.4041707463
 20
123.020547778
 10
172.396018251
 20
123.0818056975
  0
LINE
  5
3AB
100
AcDbEntity
  8
217
100
AcDbLine
 62
7
  6
CONTINUOUS
 10
181.6389030612
 20
132.8630103766
 11
181.6461838101
 21
132.7974244289
  0
LINE
  5
3AC
100
AcDbEntity
  8
217
100
AcDbLine
 62
250
  6
CONTINUOUS
 10
181.6389030612
 20
86.2130061458
 11
181.6520016399
 21
86.2261047245
  0
LINE
  5
3AD
100
AcDbEntity
  8
217
100
AcDbLine
 62
250
  6
CONTINUOUS
 10
181.8888988304
 20
85.9630103766
 11
181.9019974092
 21
85.9761089553
  0
LWPOLYLINE
  5
3AE
100
AcDbEntity
  8
0
100
AcDbPolyline
 62
7
  6
CONTINUOUS
 90
3
 70
0
 43
0.3500000006
 10
191.9960524292
 20
109.6058656311
 10
191.9960524292
 20
108.1058651733
 10
189.6389049683
 20
108.7487276917
  0
LWPOLYLINE
  5
3AF
100
AcDbEntity
  8
217
100
AcDbPolyline
 62
7
  6
CONTINUOUS
 90
77
 70
0
 10
174.2389030612
 20
117.2763650999
 10
174.3093828929
 20
117.2871761078
 10
174.4119430896
 20
117.3047640045
 10
174.5151486773
 20
117.3243503574
 10
174.6192520836
 20
117.3461818337
 10
174.7245188445
 20
117.3703196032
 10
174.830683424
 20
117.3967024873
 10
174.9372016424
 20
117.425393629
 10
175.044092549
 20
117.4564300301
 10
175.1513370945
 20
117.489774677
 10
175.2583339506
 20
117.525379689
 10
175.3650416434
 20
117.5632695853
 10
175.4715016469
 20
117.6034198321
 10
175.5772370544
 20
117.6457089695
 10
175.6822651284
 20
117.6901815323
 10
175.7865686064
 20
117.7367929688
 10
175.8896187949
 20
117.7852881897
 10
175.9914304303
 20
117.8357193809
 10
176.0919887761
 20
117.8880343389
 10
176.1907209297
 20
117.9418213931
 10
176.2875720243
 20
117.9970998329
 10
176.3825969267
 20
118.053850353
 10
176.4753873342
 20
118.1116033941
 10
176.5656808481
 20
118.1701913652
 10
176.6537398672
 20
118.2297818456
 10
176.7399432851
 20
118.2904080337
 10
176.8241832082
 20
118.3519336252
 10
176.9065675301
 20
118.4144949112
 10
176.987798826
 20
118.4785339799
 10
177.0680921342
 20
118.5441763285
 10
177.1472324163
 20
118.6112964387
 10
177.225277132
 20
118.6799598718
 10
177.3023255069
 20
118.7502516653
 10
177.3782783154
 20
118.8220867576
 10
177.4528953394
 20
118.895275562
 10
177.5261678975
 20
118.9698428893
 10
177.5981046713
 20
119.045763905
 10
177.6684914872
 20
119.1227745579
 10
177.7372507244
 20
119.2007905484
 10
177.8044600037
 20
119.2798961551
 10
177.8701380146
 20
119.360080196
 10
177.9341302977
 20
119.4410937413
 10
177.9965913122
 20
119.5231856994
 10
178.058003125
 20
119.6070916379
 10
178.1184890818
 20
119.6928893678
 10
178.1779258368
 20
119.780501039
 10
178.2364254193
 20
119.8704287152
 10
178.294181738
 20
119.9629621566
 10
178.3510008842
 20
120.0578115471
 10
178.406413161
 20
120.1546095837
 10
178.4604121744
 20
120.2534342028
 10
178.5130043185
 20
120.3542074155
 10
178.5637390789
 20
120.4563280407
 10
178.6125628926
 20
120.5597876227
 10
178.6595293226
 20
120.6645945753
 10
178.7043485439
 20
120.7701730346
 10
178.7469697632
 20
120.8765001588
 10
178.7874437738
 20
120.9835987601
 10
178.8256331306
 20
121.0909614699
 10
178.8615105578
 20
121.1986305558
 10
178.8951033312
 20
121.3065637327
 10
178.9263558333
 20
121.4141268179
 10
178.955230468
 20
121.52131264
 10
178.9817648313
 20
121.6281283711
 10
179.006016094
 20
121.733961362
 10
179.0279174316
 20
121.8385383202
 10
179.0475356685
 20
121.9421325593
 10
179.0651284487
 20
122.0449513452
 10
179.0807129955
 20
122.1468227509
 10
179.0942720855
 20
122.2479187183
 10
179.1060116923
 20
122.3489623038
 10
179.1159911805
 20
122.44991893
 10
179.1241511855
 20
122.5508231678
 10
179.1305195879
 20
122.6525017729
 10
179.1351056814
 20
122.7552303148
 10
179.1379001723
 20
122.8587331895
 10
179.1389030607
 20
122.9630103807
  0
LINE
  5
3B0
100
AcDbEntity
  8
217
100
AcDbLine
 62
7
  6
CONTINUOUS
 10
172.5389030612
 20
121.0935824253
 11
172.495701583
 21
121.1147582793
  0
LWPOLYLINE
  5
3B1
100
AcDbEntity
  8
217
100
AcDbPolyline
 62
7
  6
CONTINUOUS
 90
35
 70
0
 10
172.495701583
 20
121.1147582793
 10
172.4372183103
 20
121.1459096919
 10
172.3797469525
 20
121.1790573385
 10
172.3233977275
 20
121.214146062
 10
172.2682791899
 20
121.2511045264
 10
172.2144860509
 20
121.2898670275
 10
172.1620504046
 20
121.3304075929
 10
172.1109845347
 20
121.372711962
 10
172.0613335581
 20
121.4167512964
 10
172.0131788474
 20
121.4624613909
 10
171.966586453
 20
121.5097755937
 10
171.9216108046
 20
121.5586439929
 10
171.8783099499
 20
121.6090074901
 10
171.8367483391
 20
121.6607807038
 10
171.7969944588
 20
121.7138757181
 10
171.7590728117
 20
121.7682560322
 10
171.7229814723
 20
121.8239141901
 10
171.6887446162
 20
121.8808291375
 10
171.6564340263
 20
121.9388984587
 10
171.6261152107
 20
121.9979921186
 10
171.5978443207
 20
122.0579945677
 10
171.5716290803
 20
122.1188809608
 10
171.5474599552
 20
122.1806571365
 10
171.5253558035
 20
122.2433041296
 10
171.5053691735
 20
122.3067024736
 10
171.4875379746
 20
122.3707081227
 10
171.4718929841
 20
122.4352013653
 10
171.4584392962
 20
122.5001532418
 10
171.4471719855
 20
122.5655559386
 10
171.4381068712
 20
122.6313718554
 10
171.4312678417
 20
122.6974896261
 10
171.4266608511
 20
122.7637922592
 10
171.4242905618
 20
122.8301905228
 10
171.42416495
 20
122.8966220541
 10
171.426286894
 20
122.9630103766
  0
LINE
  5
3B2
100
AcDbEntity
  8
217
100
AcDbLine
 62
250
  6
CONTINUOUS
 10
162.7389030612
 20
134.7130146073
 11
162.7520016399
 21
134.6999160286
  0
LINE
  5
3B3
100
AcDbEntity
  8
217
100
AcDbLine
 62
250
  6
CONTINUOUS
 10
162.9888988304
 20
134.9630103766
 11
163.0019974092
 21
134.9499117978
  0
LINE
  5
3B4
100
AcDbEntity
  8
0
100
AcDbLine
 62
250
  6
CONTINUOUS
 10
172.5389030612
 20
121.1630103766
 11
174.2389030612
 21
121.1630103766
  0
LINE
  5
3B5
100
AcDbEntity
  8
217
100
AcDbLine
 62
7
  6
CONTINUOUS
 10
168.9918288994
 20
134.2600845384
 11
168.9889030612
 21
134.2630103766
  0
LWPOLYLINE
  5
3B6
100
AcDbEntity
  8
0
100
AcDbPolyline
 62
7
  6
CONTINUOUS
 90
10
 70
0
 43
0.3500000006
 10
192.6389058838
 20
110.891581604
 10
191.7817679443
 20
111.7487286072
 10
190.9246118774
 20
111.963013092
 10
190.067473938
 20
111.963013092
 10
189.6389049683
 20
111.5344350586
 10
189.6389049683
 20
110.891581604
 10
190.067473938
 20
110.4630126343
 10
190.9246118774
 20
110.4630126343
 10
191.3531808472
 20
110.891581604
 10
191.3531808472
 20
111.8201507263
  0
LWPOLYLINE
  5
3B7
100
AcDbEntity
  8
0
100
AcDbPolyline
 62
7
  6
CONTINUOUS
 90
10
 70
0
 43
0.3500000006
 10
174.4603269653
 20
144.2130093384
 10
174.5317672119
 20
144.0701469727
 10
174.5317672119
 20
143.9987248535
 10
174.3889048462
 20
143.8558624878
 10
174.3174827271
 20
143.8558624878
 10
174.2460424805
 20
143.9273027344
 10
174.2460424805
 20
143.9987248535
 10
174.3174827271
 20
144.1415872192
 10
174.3889048462
 20
144.2130093384
 10
174.4603269653
 20
144.2130093384
  0
LINE
  5
3B8
100
AcDbEntity
  8
217
100
AcDbLine
 62
250
  6
CONTINUOUS
 10
179.1389030612
 20
122.9630103766
 11
175.3515192285
 21
122.9630103766
  0
LINE
  5
3B9
100
AcDbEntity
  8
217
100
AcDbLine
 62
250
  6
CONTINUOUS
 10
167.6389030612
 20
122.9630103766
 11
171.426286894
 21
122.9630103766
  0
LWPOLYLINE
  5
3BA
100
AcDbEntity
  8
217
100
AcDbPolyline
 62
7
  6
CONTINUOUS
 90
46
 70
0
 10
173.3889030612
 20
124.8351457982
 10
173.4551267623
 20
124.8340253728
 10
173.5212934368
 20
124.830666013
 10
173.5873311828
 20
124.8250693861
 10
173.653180263
 20
124.8172377034
 10
173.7187565843
 20
124.8071777357
 10
173.7839523792
 20
124.7949051119
 10
173.8486788141
 20
124.7804388414
 10
173.9128841562
 20
124.7637916653
 10
173.9765169912
 20
124.7449748731
 10
174.0395363942
 20
124.7239973948
 10
174.1018437668
 20
124.7008874034
 10
174.1633036336
 20
124.6756935043
 10
174.2238153199
 20
124.648464914
 10
174.2833514489
 20
124.6192206375
 10
174.3418880553
 20
124.587969747
 10
174.3993579644
 20
124.5547474283
 10
174.4557013029
 20
124.5195870922
 10
174.5109006457
 20
124.4824887692
 10
174.5649348997
 20
124.4434545257
 10
174.6176945853
 20
124.4025495583
 10
174.6690335223
 20
124.359876057
 10
174.718892533
 20
124.3154880239
 10
174.7672222916
 20
124.2694320124
 10
174.8139054145
 20
124.2218181423
 10
174.8588555723
 20
124.1727554529
 10
174.902076525
 20
124.1222607289
 10
174.9435861959
 20
124.0703078133
 10
174.9833735577
 20
124.0169055025
 10
175.0213557545
 20
123.9621583603
 10
175.0574426984
 20
123.9061846466
 10
175.0915770298
 20
123.8490906149
 10
175.1237519306
 20
123.7909053345
 10
175.1539561105
 20
123.7316354464
 10
175.1821734847
 20
123.6713077121
 10
175.2083520842
 20
123.6100276206
 10
175.2324298016
 20
123.5479227949
 10
175.2543734752
 20
123.4851042821
 10
175.2741792341
 20
123.4216075532
 10
175.2918328823
 20
123.357450583
 10
175.3073219897
 20
123.2926752335
 10
175.3206210342
 20
123.2273852988
 10
175.3316981277
 20
123.161693788
 10
175.340540046
 20
123.0956899912
 10
175.3471479402
 20
123.0294369466
 10
175.3515192285
 20
122.9630103765
  0
LINE
  5
3BB
100
AcDbEntity
  8
217
100
AcDbLine
 62
7
  6
CONTINUOUS
 10
169.3639547411
 20
134.1381900563
 11
169.3923448774
 21
134.1207915777
  0
LINE
  5
3BC
100
AcDbEntity
  8
217
100
AcDbLine
 62
7
  6
CONTINUOUS
 10
169.3923448774
 20
134.1207915777
 11
169.4208124708
 21
134.1030861182
  0
LINE
  5
3BD
100
AcDbEntity
  8
217
100
AcDbLine
 62
7
  6
CONTINUOUS
 10
169.4208124708
 20
134.1030861182
 11
169.4492942659
 21
134.0852120028
  0
LINE
  5
3BE
100
AcDbEntity
  8
217
100
AcDbLine
 62
7
  6
CONTINUOUS
 10
169.4492942659
 20
134.0852120028
 11
169.4918204378
 21
134.058352728
  0
LWPOLYLINE
  5
3BF
100
AcDbEntity
  8
217
100
AcDbPolyline
 62
7
  6
CONTINUOUS
 90
85
 70
0
 10
173.3889031954
 20
128.7130239314
 10
173.2841714483
 20
128.7120013248
 10
173.1802729576
 20
128.7091809091
 10
173.0772077232
 20
128.7045626831
 10
172.9752397652
 20
128.6981514911
 10
172.8741050636
 20
128.6899424845
 10
172.7730115581
 20
128.6799211223
 10
172.6719250402
 20
128.6681437421
 10
172.5708797184
 20
128.6545539977
 10
172.4691861582
 20
128.6389683215
 10
172.3666976849
 20
128.6214075183
 10
172.2635609731
 20
128.6018507689
 10
172.1595266117
 20
128.5800520661
 10
172.0543293798
 20
128.5559500967
 10
171.9482344983
 20
128.5296061514
 10
171.8417882193
 20
128.5009581257
 10
171.7349720814
 20
128.469969035
 10
171.627804546
 20
128.4366758342
 10
171.5208872496
 20
128.4011273262
 10
171.4142615262
 20
128.3632988764
 10
171.3078860418
 20
128.3232150839
 10
171.2022384313
 20
128.2809986028
 10
171.0973012157
 20
128.2366046485
 10
170.993091874
 20
128.1900779664
 10
170.8901404781
 20
128.1416755071
 10
170.7884327202
 20
128.0913452027
 10
170.687982908
 20
128.0391390822
 10
170.5893640367
 20
127.9854702481
 10
170.4926331242
 20
127.9303209157
 10
170.3977331525
 20
127.8737088372
 10
170.3050660628
 20
127.8161004295
 10
170.2148963199
 20
127.7576653752
 10
170.126959459
 20
127.6982339705
 10
170.0408640269
 20
127.637763558
 10
169.9567150403
 20
127.576389123
 10
169.8744074825
 20
127.5139756569
 10
169.7932348508
 20
127.4500755056
 10
169.7129780092
 20
127.3845598572
 10
169.6338560938
 20
127.3175574853
 10
169.5558200103
 20
127.2490071064
 10
169.4787716803
 20
127.1788240149
 10
169.4028091822
 20
127.107092875
 10
169.3281776564
 20
127.0340064591
 10
169.2548873979
 20
126.959541343
 10
169.1829281117
 20
126.883720914
 10
169.1125140537
 20
126.8068081688
 10
169.0437250868
 20
126.7288903985
 10
168.9764813481
 20
126.6498802833
 10
168.9107575057
 20
126.5697789071
 10
168.8467070035
 20
126.4888347955
 10
168.7841763975
 20
126.4067993956
 10
168.7226800245
 20
126.3229281621
 10
168.6620897883
 20
126.2371365433
 10
168.602533785
 20
126.1495090355
 10
168.5439106392
 20
126.0595546442
 10
168.486027328
 20
125.9669834863
 10
168.4290768742
 20
125.8720853682
 10
168.3735369716
 20
125.7752388281
 10
168.3194171746
 20
125.6763707625
 10
168.2667079287
 20
125.5755542113
 10
168.2158582648
 20
125.4733869453
 10
168.1669216921
 20
125.3698780738
 10
168.1198447012
 20
125.2650184461
 10
168.0749157951
 20
125.1593784651
 10
168.0321844671
 20
125.0529778976
 10
167.9916012239
 20
124.9457969574
 10
167.9533060885
 20
124.8383467376
 10
167.9173263993
 20
124.7305837007
 10
167.883634818
 20
124.6225513837
 10
167.8522893522
 20
124.5148915132
 10
167.8233289417
 20
124.4076156284
 10
167.7967146469
 20
124.3007122136
 10
167.7723876567
 20
124.1947884355
 10
167.7504151034
 20
124.090123296
 10
167.7307298548
 20
123.9864378399
 10
167.7130717039
 20
123.8835023039
 10
167.6974215966
 20
123.7814844433
 10
167.683798587
 20
123.6802165382
 10
167.6719996301
 20
123.5789655968
 10
167.6619645199
 20
123.4777591308
 10
167.6537534624
 20
123.3765696378
 10
167.6473440305
 20
123.2745815798
 10
167.6427287486
 20
123.1715230997
 10
167.6399150924
 20
123.0676660352
 10
167.6389030617
 20
122.9630103782
  0
LWPOLYLINE
  5
3C0
100
AcDbEntity
  8
217
100
AcDbPolyline
 62
250
  6
CONTINUOUS
 90
18
 70
0
 10
184.3715761003
 20
131.004916233
 10
184.3706121007
 20
131.005883928
 10
184.3685427493
 20
131.0068494791
 10
184.3653726303
 20
131.0078107475
 10
184.3611087666
 20
131.0087656037
 10
184.3557606039
 20
131.0097119323
 10
184.34933999
 20
131.010647637
 10
184.3418611487
 20
131.0115706447
 10
184.3333406479
 20
131.0124789109
 10
184.3237973632
 20
131.0133704234
 10
184.3132524359
 20
131.0142432073
 10
184.3017292264
 20
131.0150953289
 10
184.2892532621
 20
131.0159249007
 10
184.2758521812
 20
131.0167300849
 10
184.2615556712
 20
131.0175090977
 10
184.2463954035
 20
131.0182602133
 10
184.2304049627
 20
131.0189817679
 10
184.1960770178
 20
131.020329869
  0
LINE
  5
3C1
100
AcDbEntity
  8
217
100
AcDbLine
 62
250
  6
CONTINUOUS
 10
162.5314107679
 20
131.0182602097
 11
162.5641863979
 21
131.0196721587
  0
LINE
  5
3C2
100
AcDbEntity
  8
217
100
AcDbLine
 62
250
  6
CONTINUOUS
 10
162.5641863979
 20
131.0196721587
 11
162.5999906074
 21
131.0209534243
  0
LINE
  5
3C3
100
AcDbEntity
  8
217
100
AcDbLine
 62
250
  6
CONTINUOUS
 10
162.5999906074
 20
131.0209534243
 11
162.6385063021
 21
131.022092659
  0
LINE
  5
3C4
100
AcDbEntity
  8
217
100
AcDbLine
 62
250
  6
CONTINUOUS
 10
162.6385063021
 20
131.022092659
 11
162.6793923741
 21
131.0230797735
  0
LINE
  5
3C5
100
AcDbEntity
  8
217
100
AcDbLine
 62
250
  6
CONTINUOUS
 10
162.6793923741
 20
131.0230797735
 11
162.7222867226
 21
131.0239060254
  0
LINE
  5
3C6
100
AcDbEntity
  8
217
100
AcDbLine
 62
250
  6
CONTINUOUS
 10
162.7222867226
 20
131.0239060254
 11
162.7668094606
 21
131.0245640972
  0
LINE
  5
3C7
100
AcDbEntity
  8
217
100
AcDbLine
 62
250
  6
CONTINUOUS
 10
162.7668094606
 20
131.0245640972
 11
162.8125662798
 21
131.0250481609
  0
LINE
  5
3C8
100
AcDbEntity
  8
217
100
AcDbLine
 62
250
  6
CONTINUOUS
 10
162.8125662798
 20
131.0250481609
 11
162.8591519423
 21
131.0253539294
  0
LINE
  5
3C9
100
AcDbEntity
  8
217
100
AcDbLine
 62
250
  6
CONTINUOUS
 10
162.8591519423
 20
131.0253539294
 11
162.9061538697
 21
131.0254786946
  0
LINE
  5
3CA
100
AcDbEntity
  8
217
100
AcDbLine
 62
250
  6
CONTINUOUS
 10
183.8951792805
 20
131.0254390509
 11
162.9061538697
 21
131.0254787014
  0
LINE
  5
3CB
100
AcDbEntity
  8
217
100
AcDbLine
 62
250
  6
CONTINUOUS
 10
183.9420249725
 20
131.0252235452
 11
183.8951792805
 21
131.0254390509
  0
LINE
  5
3CC
100
AcDbEntity
  8
217
100
AcDbLine
 62
250
  6
CONTINUOUS
 10
183.9882474198
 20
131.024828191
 11
183.9420249725
 21
131.0252235452
  0
LINE
  5
3CD
100
AcDbEntity
  8
217
100
AcDbLine
 62
250
  6
CONTINUOUS
 10
184.0334372605
 20
131.0242564897
 11
183.9882474198
 21
131.024828191
  0
LINE
  5
3CE
100
AcDbEntity
  8
217
100
AcDbLine
 62
250
  6
CONTINUOUS
 10
184.0771942779
 20
131.0235135045
 11
184.0334372605
 21
131.0242564897
  0
LINE
  5
3CF
100
AcDbEntity
  8
217
100
AcDbLine
 62
250
  6
CONTINUOUS
 10
184.1191309451
 20
131.0226058155
 11
184.0771942779
 21
131.0235135045
  0
LINE
  5
3D0
100
AcDbEntity
  8
217
100
AcDbLine
 62
250
  6
CONTINUOUS
 10
184.1588758566
 20
131.0215414616
 11
184.1191309451
 21
131.0226058155
  0
LINE
  5
3D1
100
AcDbEntity
  8
217
100
AcDbLine
 62
250
  6
CONTINUOUS
 10
184.1960770178
 20
131.020329869
 11
184.1588758566
 21
131.0215414616
  0
LWPOLYLINE
  5
3D2
100
AcDbEntity
  8
217
100
AcDbPolyline
 62
7
  6
CONTINUOUS
 90
13
 70
0
 10
162.7799877213
 20
132.7909212152
 10
162.7747533793
 20
132.7913755121
 10
162.7699333743
 20
132.7918187323
 10
162.7655370806
 20
132.792250876
 10
162.7615728238
 20
132.7926638454
 10
162.7580487189
 20
132.7930657383
 10
162.7549723402
 20
132.7934808472
 10
162.7523495572
 20
132.7939126876
 10
162.7501853363
 20
132.7943577442
 10
162.7484840839
 20
132.7948297629
 10
162.7472488671
 20
132.7953333258
 10
162.7464816939
 20
132.7958638508
 10
162.7461838101
 20
132.796421338
  0
LINE
  5
3D3
100
AcDbEntity
  8
217
100
AcDbLine
 62
250
  6
CONTINUOUS
 10
181.6389030612
 20
134.7130146073
 11
181.6520016399
 21
134.6999160286
  0
LINE
  5
3D4
100
AcDbEntity
  8
217
100
AcDbLine
 62
250
  6
CONTINUOUS
 10
181.8888988304
 20
134.9630103766
 11
181.9019974092
 21
134.9499117978
  0
LWPOLYLINE
  5
3D5
100
AcDbEntity
  8
217
100
AcDbPolyline
 62
7
  6
CONTINUOUS
 90
24
 70
0
 10
177.6851103749
 20
134.2583493434
 10
177.6743212515
 20
134.2578019414
 10
177.6632337893
 20
134.2563742715
 10
177.6518479884
 20
134.2541468645
 10
177.6401392082
 20
134.2512082731
 10
177.6281320892
 20
134.2476342481
 10
177.6159005533
 20
134.2434698898
 10
177.603451813
 20
134.2387747468
 10
177.5907786558
 20
134.2336121862
 10
177.5779333657
 20
134.2280056869
 10
177.5649202335
 20
134.2220006085
 10
177.5517349684
 20
134.2156469413
 10
177.5384169815
 20
134.2089564348
 10
177.5249684945
 20
134.2019646597
 10
177.5113872857
 20
134.1947117687
 10
177.4977061009
 20
134.1872040496
 10
177.4839259891
 20
134.1794705644
 10
177.4700459014
 20
134.1715443276
 10
177.4560954368
 20
134.1634295666
 10
177.4420748362
 20
134.1551509056
 10
177.4279838588
 20
134.1467363358
 10
177.4138513813
 20
134.1381900563
 10
177.3996770632
 20
134.1295336372
 10
177.3712338254
 20
134.1119693428
  0
LWPOLYLINE
  5
3D6
100
AcDbEntity
  8
217
100
AcDbPolyline
 62
250
  6
CONTINUOUS
 90
31
 70
0
 10
181.9019974092
 20
134.9499117978
 10
181.8889450692
 20
134.9495703906
 10
181.8759201748
 20
134.948547128
 10
181.8629584002
 20
134.9468435238
 10
181.8500926815
 20
134.9444623936
 10
181.8373612163
 20
134.9414092802
 10
181.8248070317
 20
134.9376938405
 10
181.8124672278
 20
134.9333272894
 10
181.8003728717
 20
134.9283208595
 10
181.7885567934
 20
134.9226881109
 10
181.777051193
 20
134.9164443093
 10
181.7658878746
 20
134.9096066275
 10
181.7550977954
 20
134.9021939974
 10
181.7447106695
 20
134.8942268552
 10
181.7347548324
 20
134.8857269583
 10
181.7252574979
 20
134.8767175364
 10
181.7162446788
 20
134.8672232433
 10
181.7077411373
 20
134.8572701399
 10
181.6997702291
 20
134.8468855506
 10
181.6923538222
 20
134.8360979603
 10
181.6855122464
 20
134.8249369343
 10
181.6792642673
 20
134.8134330785
 10
181.673627019
 20
134.8016179329
 10
181.6686159635
 20
134.7895238956
 10
181.6642448485
 20
134.7771841395
 10
181.660525659
 20
134.7646324921
 10
181.6574685978
 20
134.7519033782
 10
181.6550820551
 20
134.7390317385
 10
181.6533725719
 20
134.7260528811
 10
181.6523448289
 20
134.7130023827
 10
181.6520016399
 20
134.6999160286
  0
LWPOLYLINE
  5
3D7
100
AcDbEntity
  8
217
100
AcDbPolyline
 62
250
  6
CONTINUOUS
 90
31
 70
0
 10
163.0019974092
 20
134.9499117978
 10
162.988911055
 20
134.9495686088
 10
162.9758605567
 20
134.9485408659
 10
162.9628816993
 20
134.9468313827
 10
162.9500100596
 20
134.94444484
 10
162.9372809457
 20
134.9413877788
 10
162.9247292983
 20
134.9376685893
 10
162.9123895421
 20
134.9332974743
 10
162.9002955049
 20
134.9282864188
 10
162.8884803593
 20
134.9226491705
 10
162.8769765035
 20
134.9164011913
 10
162.8658154775
 20
134.9095596155
 10
162.8550278872
 20
134.9021432087
 10
162.8446432979
 20
134.8941723005
 10
162.8346901945
 20
134.885668759
 10
162.8251959013
 20
134.8766559399
 10
162.8161864795
 20
134.8671586054
 10
162.8076865826
 20
134.8572027683
 10
162.7997194404
 20
134.8468156424
 10
162.7923068103
 20
134.8360255632
 10
162.7854691285
 20
134.8248622448
 10
162.7792253269
 20
134.8133566444
 10
162.7735925783
 20
134.8015405661
 10
162.7685861484
 20
134.78944621
 10
162.7642195973
 20
134.7771064061
 10
162.7605041575
 20
134.7645522215
 10
162.7574510441
 20
134.7518207563
 10
162.755069914
 20
134.7389550376
 10
162.7533663098
 20
134.725993263
 10
162.7523430472
 20
134.7129683686
 10
162.7520016399
 20
134.6999160286
  0
LWPOLYLINE
  5
3D8
100
AcDbEntity
  8
217
100
AcDbPolyline
 62
7
  6
CONTINUOUS
 90
34
 70
0
 10
181.8888988304
 20
134.9630103766
 10
181.8770035452
 20
134.9627272263
 10
181.8651352057
 20
134.9618784108
 10
181.8533206951
 20
134.9604658507
 10
181.8415867737
 20
134.9584927443
 10
181.8299600224
 20
134.9559635583
 10
181.8184667822
 20
134.9528840183
 10
181.8071330874
 20
134.9492610979
 10
181.7959846119
 20
134.9451030023
 10
181.7850466149
 20
134.9404191487
 10
181.7743438736
 20
134.9352201454
 10
181.763900633
 20
134.9295177682
 10
181.7537405553
 20
134.9233249347
 10
181.7438866561
 20
134.916655672
 10
181.7343612574
 20
134.9095250873
 10
181.7251859422
 20
134.9019493354
 10
181.7163814951
 20
134.893945577
 10
181.7079678607
 20
134.8855319426
 10
181.6999641024
 20
134.8767274956
 10
181.6923883505
 20
134.8675521804
 10
181.6852577657
 20
134.8580267817
 10
181.6785885031
 20
134.8481728825
 10
181.6723956696
 20
134.8380128048
 10
181.6666932924
 20
134.8275695642
 10
181.661494289
 20
134.8168668229
 10
181.6568104354
 20
134.8059288259
 10
181.6526523399
 20
134.7947803503
 10
181.6490294195
 20
134.7834466556
 10
181.6459498795
 20
134.7719534154
 10
181.6434206935
 20
134.760326664
 10
181.6414475871
 20
134.7485927427
 10
181.640035027
 20
134.7367782321
 10
181.6391862115
 20
134.7249098926
 10
181.6389030612
 20
134.7130146073
  0
LWPOLYLINE
  5
3D9
100
AcDbEntity
  8
217
100
AcDbPolyline
 62
7
  6
CONTINUOUS
 90
34
 70
0
 10
162.9888988304
 20
134.9630103766
 10
162.9770035452
 20
134.9627272263
 10
162.9651352057
 20
134.9618784108
 10
162.9533206951
 20
134.9604658507
 10
162.9415867737
 20
134.9584927443
 10
162.9299600224
 20
134.9559635583
 10
162.9184667822
 20
134.9528840183
 10
162.9071330874
 20
134.9492610979
 10
162.8959846119
 20
134.9451030023
 10
162.8850466149
 20
134.9404191487
 10
162.8743438736
 20
134.9352201454
 10
162.863900633
 20
134.9295177682
 10
162.8537405553
 20
134.9233249347
 10
162.8438866561
 20
134.916655672
 10
162.8343612574
 20
134.9095250873
 10
162.8251859422
 20
134.9019493354
 10
162.8163814951
 20
134.893945577
 10
162.8079678607
 20
134.8855319426
 10
162.7999641024
 20
134.8767274956
 10
162.7923883505
 20
134.8675521804
 10
162.7852577657
 20
134.8580267817
 10
162.7785885031
 20
134.8481728825
 10
162.7723956696
 20
134.8380128048
 10
162.7666932924
 20
134.8275695642
 10
162.761494289
 20
134.8168668229
 10
162.7568104354
 20
134.8059288259
 10
162.7526523399
 20
134.7947803503
 10
162.7490294195
 20
134.7834466556
 10
162.7459498795
 20
134.7719534154
 10
162.7434206935
 20
134.760326664
 10
162.7414475871
 20
134.7485927427
 10
162.740035027
 20
134.7367782321
 10
162.7391862115
 20
134.7249098926
 10
162.7389030612
 20
134.7130146073
  0
LWPOLYLINE
  5
3DA
100
AcDbEntity
  8
217
100
AcDbPolyline
 62
7
  6
CONTINUOUS
 90
34
 70
0
 10
183.7816265431
 20
133.5856601074
 10
183.7946510183
 20
133.5859136848
 10
183.8075805904
 20
133.5865390835
 10
183.8203811889
 20
133.5875363037
 10
183.8330312459
 20
133.588917969
 10
183.8454873963
 20
133.5906714558
 10
183.8576859098
 20
133.5927588923
 10
183.869586532
 20
133.595181361
 10
183.881176931
 20
133.5979377794
 10
183.892438916
 20
133.6009870288
 10
183.9033500886
 20
133.6043295878
 10
183.9138901934
 20
133.6079649776
 10
183.9240460866
 20
133.6118506436
 10
183.9338002282
 20
133.6159866318
 10
183.9431369432
 20
133.620372896
 10
183.9520472776
 20
133.6249667434
 10
183.9605181206
 20
133.6297679688
 10
183.9685378528
 20
133.6347767772
 10
183.9761007563
 20
133.6399510906
 10
183.9831976486
 20
133.6452905733
 10
183.9898205577
 20
133.6507955609
 10
183.9959663016
 20
133.656424983
 10
184.0016291827
 20
133.6621784336
 10
184.0068045398
 20
133.6680563186
 10
184.0114913179
 20
133.674018785
 10
184.0156869428
 20
133.6800653694
 10
184.019389793
 20
133.6861965352
 10
184.0226007702
 20
133.6923738203
 10
184.0253201372
 20
133.6985966792
 10
184.0275490836
 20
133.7048656573
 10
184.0292904464
 20
133.7111439285
 10
184.0305471851
 20
133.7174192174
 10
184.0313228899
 20
133.7237037995
 10
184.0316223123
 20
133.7299976747
  0
LINE
  5
3DB
100
AcDbEntity
  8
217
100
AcDbLine
 62
250
  6
CONTINUOUS
 10
183.8881790234
 20
132.4617355985
 11
162.8896270991
 21
132.4617355985
  0
LINE
  5
3DC
100
AcDbEntity
  8
217
100
AcDbLine
 62
7
  6
CONTINUOUS
 10
183.7816265431
 20
132.7843987076
 11
181.8961795793
 21
132.7843987076
  0
LINE
  5
3DD
100
AcDbEntity
  8
217
100
AcDbLine
 62
7
  6
CONTINUOUS
 10
164.8816265431
 20
132.7843987076
 11
162.9961795793
 21
132.7843987076
  0
LINE
  5
3DE
100
AcDbEntity
  8
217
100
AcDbLine
 62
7
  6
CONTINUOUS
 10
169.4918204378
 20
132.8106025973
 11
177.2859856846
 21
132.8106025973
  0
LINE
  5
3DF
100
AcDbEntity
  8
217
100
AcDbLine
 62
7
  6
CONTINUOUS
 10
165.1389030612
 20
132.8630103766
 11
168.9889030612
 21
132.8630103766
  0
LINE
  5
3E0
100
AcDbEntity
  8
217
100
AcDbLine
 62
7
  6
CONTINUOUS
 10
177.7889030612
 20
132.8630103766
 11
181.6389030612
 21
132.8630103766
  0
LINE
  5
3E1
100
AcDbEntity
  8
217
100
AcDbLine
 62
7
  6
CONTINUOUS
 10
183.7808993144
 20
133.5856601074
 11
181.8969068081
 21
133.5856601074
  0
LINE
  5
3E2
100
AcDbEntity
  8
217
100
AcDbLine
 62
7
  6
CONTINUOUS
 10
164.8808993144
 20
133.5856601074
 11
162.9969068081
 21
133.5856601074
  0
LINE
  5
3E3
100
AcDbEntity
  8
217
100
AcDbLine
 62
250
  6
CONTINUOUS
 10
177.2859856846
 20
134.058352728
 11
169.4918204378
 21
134.058352728
  0
LINE
  5
3E4
100
AcDbEntity
  8
217
100
AcDbLine
 62
250
  6
CONTINUOUS
 10
163.0019974092
 20
134.0908415929
 11
164.8758087133
 21
134.0908415929
  0
LINE
  5
3E5
100
AcDbEntity
  8
217
100
AcDbLine
 62
250
  6
CONTINUOUS
 10
181.9019974092
 20
134.0908415929
 11
183.7758087133
 21
134.0908415929
  0
LINE
  5
3E6
100
AcDbEntity
  8
217
100
AcDbLine
 62
250
  6
CONTINUOUS
 10
177.6851103749
 20
134.2583493434
 11
169.0926957476
 21
134.2583493434
  0
LINE
  5
3E7
100
AcDbEntity
  8
217
100
AcDbLine
 62
7
  6
CONTINUOUS
 10
168.9889030612
 20
134.2630103766
 11
177.7889030612
 21
134.2630103766
  0
LINE
  5
3E8
100
AcDbEntity
  8
217
100
AcDbLine
 62
250
  6
CONTINUOUS
 10
162.7520016399
 20
134.3073479439
 11
165.1258044825
 21
134.3073479439
  0
LINE
  5
3E9
100
AcDbEntity
  8
217
100
AcDbLine
 62
250
  6
CONTINUOUS
 10
181.6520016399
 20
134.3073479439
 11
184.0258044825
 21
134.3073479439
  0
LINE
  5
3EA
100
AcDbEntity
  8
217
100
AcDbLine
 62
250
  6
CONTINUOUS
 10
162.7520016399
 20
134.6999160286
 11
165.1258044825
 21
134.6999160286
  0
LINE
  5
3EB
100
AcDbEntity
  8
217
100
AcDbLine
 62
250
  6
CONTINUOUS
 10
181.6520016399
 20
134.6999160286
 11
184.0258044825
 21
134.6999160286
  0
LINE
  5
3EC
100
AcDbEntity
  8
217
100
AcDbLine
 62
250
  6
CONTINUOUS
 10
183.7758087133
 20
134.9499117978
 11
181.9019974092
 21
134.9499117978
  0
LINE
  5
3ED
100
AcDbEntity
  8
217
100
AcDbLine
 62
250
  6
CONTINUOUS
 10
164.8758087133
 20
134.9499117978
 11
163.0019974092
 21
134.9499117978
  0
LINE
  5
3EE
100
AcDbEntity
  8
217
100
AcDbLine
 62
7
  6
CONTINUOUS
 10
162.9888988304
 20
134.9630103766
 11
164.888907292
 21
134.9630103766
  0
LINE
  5
3EF
100
AcDbEntity
  8
217
100
AcDbLine
 62
7
  6
CONTINUOUS
 10
181.8888988304
 20
134.9630103766
 11
183.788907292
 21
134.9630103766
  0
LWPOLYLINE
  5
3F0
100
AcDbEntity
  8
0
100
AcDbPolyline
 62
7
  6
CONTINUOUS
 90
7
 70
0
 43
0.3500000006
 10
172.9603355713
 20
143.7130182495
 10
171.4603260498
 20
143.7130182495
 10
172.9603355713
 20
145.8558630981
 10
172.9603355713
 20
146.2844320679
 10
172.5317666016
 20
146.713019165
 10
171.8888950195
 20
146.713019165
 10
171.4603260498
 20
146.070147583
  0
LWPOLYLINE
  5
3F1
100
AcDbEntity
  8
0
100
AcDbPolyline
 62
7
  6
CONTINUOUS
 90
7
 70
0
 43
0.3500000006
 10
170.6031881104
 20
143.7130182495
 10
169.1031967163
 20
143.7130182495
 10
170.6031881104
 20
145.8558630981
 10
170.6031881104
 20
146.2844320679
 10
170.1746191406
 20
146.713019165
 10
169.531765686
 20
146.713019165
 10
169.1031967163
 20
146.070147583
  0
LWPOLYLINE
  5
3F2
100
AcDbEntity
  8
0
100
AcDbPolyline
 62
7
  6
CONTINUOUS
 90
6
 70
0
 43
0.3500000006
 10
175.5317675171
 20
143.7130182495
 10
176.6031899414
 20
143.7130182495
 10
176.8174744263
 20
143.9273027344
 10
176.8174744263
 20
144.9987251587
 10
176.3889054565
 20
145.4272941284
 10
175.9603364868
 20
145.4272941284
  0
LWPOLYLINE
  5
3F3
100
AcDbEntity
  8
217
100
AcDbPolyline
 62
7
  6
CONTINUOUS
 90
34
 70
0
 10
162.9961795793
 20
133.5856601074
 10
162.9831551042
 20
133.5859136848
 10
162.970225532
 20
133.5865390835
 10
162.9574249336
 20
133.5875363037
 10
162.9447748765
 20
133.588917969
 10
162.9323187262
 20
133.5906714558
 10
162.9201202127
 20
133.5927588923
 10
162.9082195904
 20
133.595181361
 10
162.8966291914
 20
133.5979377794
 10
162.8853672064
 20
133.6009870288
 10
162.8744560338
 20
133.6043295878
 10
162.8639159291
 20
133.6079649776
 10
162.8537600358
 20
133.6118506436
 10
162.8440058943
 20
133.6159866318
 10
162.8346691792
 20
133.620372896
 10
162.8257588448
 20
133.6249667434
 10
162.8172880019
 20
133.6297679688
 10
162.8092682696
 20
133.6347767772
 10
162.8017053662
 20
133.6399510906
 10
162.7946084738
 20
133.6452905733
 10
162.7879855647
 20
133.6507955609
 10
162.7818398208
 20
133.656424983
 10
162.7761769398
 20
133.6621784336
 10
162.7710015826
 20
133.6680563186
 10
162.7663148046
 20
133.674018785
 10
162.7621191796
 20
133.6800653694
 10
162.7584163294
 20
133.6861965352
 10
162.7552053523
 20
133.6923738203
 10
162.7524859853
 20
133.6985966792
 10
162.7502570389
 20
133.7048656573
 10
162.7485156761
 20
133.7111439285
 10
162.7472589374
 20
133.7174192174
 10
162.7464832326
 20
133.7237037995
 10
162.7461838101
 20
133.7299976747
  0
LWPOLYLINE
  5
3F4
100
AcDbEntity
  8
217
100
AcDbPolyline
 62
7
  6
CONTINUOUS
 90
22
 70
0
 10
169.0926957476
 20
134.2583493434
 10
169.103484871
 20
134.2578019414
 10
169.1145723331
 20
134.2563742715
 10
169.125958134
 20
134.2541468645
 10
169.1376669143
 20
134.2512082731
 10
169.1496740333
 20
134.2476342481
 10
169.1619055692
 20
134.2434698898
 10
169.1743543095
 20
134.2387747468
 10
169.1870274666
 20
134.2336121862
 10
169.1998727568
 20
134.2280056869
 10
169.2128858889
 20
134.2220006085
 10
169.226071154
 20
134.2156469413
 10
169.2393891409
 20
134.2089564348
 10
169.2528376279
 20
134.2019646597
 10
169.2664188368
 20
134.1947117687
 10
169.2801000216
 20
134.1872040496
 10
169.2938801334
 20
134.1794705644
 10
169.3077602211
 20
134.1715443276
 10
169.3217106856
 20
134.1634295666
 10
169.3357312862
 20
134.1551509056
 10
169.3498222636
 20
134.1467363358
 10
169.3639547411
 20
134.1381900563
  0
LWPOLYLINE
  5
3F5
100
AcDbEntity
  8
217
100
AcDbPolyline
 62
7
  6
CONTINUOUS
 90
11
 70
0
 10
184.0389022003
 20
132.8627015752
 10
184.0603914585
 20
132.8614841163
 10
184.0818465073
 20
132.8593376805
 10
184.1032269482
 20
132.8562614017
 10
184.1245149727
 20
132.8522513427
 10
184.1456465823
 20
132.8473130666
 10
184.1665139579
 20
132.8414714531
 10
184.1870627621
 20
132.8347471823
 10
184.207272554
 20
132.8271524402
 10
184.22709052
 20
132.8187127342
 10
184.2449401353
 20
132.8102241783
  0
LINE
  5
3F6
100
AcDbEntity
  8
217
100
AcDbLine
 62
250
  6
CONTINUOUS
 10
184.5389030612
 20
132.3541883172
 11
184.5214861588
 21
132.3628961051
  0
LINE
  5
3F7
100
AcDbEntity
  8
217
100
AcDbLine
 62
7
  6
CONTINUOUS
 10
184.2624200632
 20
132.8014848807
 11
184.2449174706
 21
132.8102355105
  0
LWPOLYLINE
  5
3F8
100
AcDbEntity
  8
217
100
AcDbPolyline
 62
7
  6
CONTINUOUS
 90
27
 70
0
 10
184.2449401353
 20
132.8102241783
 10
184.265360962
 20
132.7994165002
 10
184.283841651
 20
132.7885559276
 10
184.3018728762
 20
132.7768911704
 10
184.3194072775
 20
132.7644479385
 10
184.3364358596
 20
132.7512260696
 10
184.3529481412
 20
132.7372214535
 10
184.3688807492
 20
132.7224751118
 10
184.384150024
 20
132.7070604932
 10
184.3987255968
 20
132.6910110356
 10
184.4125844286
 20
132.6743550107
 10
184.4256678928
 20
132.6571712891
 10
184.4379539833
 20
132.639504763
 10
184.4494329084
 20
132.6213864161
 10
184.4600762251
 20
132.6028817199
 10
184.4698678417
 20
132.5840470137
 10
184.4788109086
 20
132.564906741
 10
184.4869094545
 20
132.5454791288
 10
184.4941573716
 20
132.5258050579
 10
184.500552341
 20
132.5059199131
 10
184.5061002637
 20
132.4858309163
 10
184.5107986846
 20
132.465567379
 10
184.5146431253
 20
132.4451726405
 10
184.5176338679
 20
132.4246733783
 10
184.519770644
 20
132.4041022384
 10
184.521053923
 20
132.3834980194
 10
184.5214861588
 20
132.3628961051
  0
LWPOLYLINE
  5
3F9
100
AcDbEntity
  8
0
100
AcDbPolyline
 62
7
  6
CONTINUOUS
 90
5
 70
0
 43
0.3500000006
 10
128.1195079651
 20
155.4272971802
 10
128.476645752
 20
155.641581665
 10
128.476645752
 20
156.2844351196
 10
128.1195079651
 20
156.7130040894
 10
127.2623609619
 20
156.7130040894
  0
LINE
  5
3FA
100
AcDbEntity
  8
217
100
AcDbLine
 62
7
  6
CONTINUOUS
 10
122.5417641829
 20
133.5906714558
 11
122.5713232387
 21
133.6079649776
  0
LINE
  5
3FB
100
AcDbEntity
  8
217
100
AcDbLine
 62
7
  6
CONTINUOUS
 10
122.5713232387
 20
133.6079649776
 11
122.645067684
 21
133.6507955609
  0
LWPOLYLINE
  5
3FC
100
AcDbEntity
  8
217
100
AcDbPolyline
 62
7
  6
CONTINUOUS
 90
3
 70
0
 10
122.645067684
 20
133.6507955609
 10
122.7602642807
 20
133.7174192174
 10
122.7820157521
 20
133.7299976747
  0
LWPOLYLINE
  5
3FD
100
AcDbEntity
  8
217
100
AcDbPolyline
 62
7
  6
CONTINUOUS
 90
3
 70
0
 10
122.5334701849
 20
133.5856601074
 10
122.5338096894
 20
133.5859136848
 10
122.5348210598
 20
133.5865390835
  0
LWPOLYLINE
  5
3FE
100
AcDbEntity
  8
217
100
AcDbPolyline
 62
7
  6
CONTINUOUS
 90
3
 70
0
 10
122.5348210598
 20
133.5865390835
 10
122.538812145
 20
133.588917969
 10
122.5417641829
 20
133.5906714558
  0
LINE
  5
3FF
100
AcDbEntity
  8
217
100
AcDbLine
 62
250
  6
CONTINUOUS
 10
124.0334701849
 20
133.8734955248
 11
124.7849246178
 21
134.3073479439
  0
LINE
  5
400
100
AcDbEntity
  8
217
100
AcDbLine
 62
7
  6
CONTINUOUS
 10
124.0334701849
 20
133.5856601074
 11
125.0334701849
 21
134.1630103766
  0
LINE
  5
401
100
AcDbEntity
  8
217
100
AcDbLine
 62
250
  6
CONTINUOUS
 10
121.7820157521
 20
134.3073479439
 11
121.7497875546
 21
134.2514397366
  0
LWPOLYLINE
  5
402
100
AcDbEntity
  8
217
100
AcDbPolyline
 62
250
  6
CONTINUOUS
 90
5
 70
0
 10
121.6609657874
 20
134.0956869608
 10
121.6598334114
 20
134.0935961684
 10
121.6590387259
 20
134.0920891984
 10
121.658583903
 20
134.09117017
 10
121.6584701849
 20
134.0908415929
  0
LINE
  5
403
100
AcDbEntity
  8
217
100
AcDbLine
 62
250
  6
CONTINUOUS
 10
121.6642303378
 20
134.1015956137
 11
121.6609657874
 21
134.0956869608
  0
LINE
  5
404
100
AcDbEntity
  8
217
100
AcDbLine
 62
250
  6
CONTINUOUS
 10
121.6715531952
 20
134.1146438561
 11
121.6642303378
 21
134.1015956137
  0
LINE
  5
405
100
AcDbEntity
  8
217
100
AcDbLine
 62
250
  6
CONTINUOUS
 10
121.6941904508
 20
134.1544897807
 11
121.6715531952
 21
134.1146438561
  0
LINE
  5
406
100
AcDbEntity
  8
217
100
AcDbLine
 62
250
  6
CONTINUOUS
 10
121.7497875546
 20
134.2514397366
 11
121.6941904508
 21
134.1544897807
  0
LINE
  5
407
100
AcDbEntity
  8
0
100
AcDbLine
 62
7
  6
CONTINUOUS
 10
106.6834701849
 20
86.6328746012
 11
106.6834701849
 21
121.1630103766
  0
LINE
  5
408
100
AcDbEntity
  8
0
100
AcDbLine
 62
7
  6
CONTINUOUS
 10
108.3834701849
 20
86.6328746012
 11
108.3834701849
 21
121.1630103766
  0
LINE
  5
409
100
AcDbEntity
  8
0
100
AcDbLine
 62
250
  6
CONTINUOUS
 10
109.5334701849
 20
124.0130103766
 11
109.5334701849
 21
122.3130103766
  0
LWPOLYLINE
  5
40A
100
AcDbEntity
  8
217
100
AcDbPolyline
 62
7
  6
CONTINUOUS
 90
16
 70
0
 10
113.9211977925
 20
124.8351457982
 10
113.9571871619
 20
125.0992960798
 10
113.9970799335
 20
125.3628680933
 10
114.040869309
 20
125.6257973667
 10
114.088540113
 20
125.8879752779
 10
114.1400901919
 20
126.1493824123
 10
114.1955304109
 20
126.4100883771
 10
114.2548574354
 20
126.6700769221
 10
114.3180471235
 20
126.9292374247
 10
114.3850824913
 20
127.1874970812
 10
114.4559643915
 20
127.4448481216
 10
114.5306637314
 20
127.7011708237
 10
114.6091103443
 20
127.956226731
 10
114.6912622288
 20
128.2098966663
 10
114.777114224
 20
128.4621781598
 10
114.8666436895
 20
128.7130103766
  0
LWPOLYLINE
  5
40B
100
AcDbEntity
  8
217
100
AcDbPolyline
 62
7
  6
CONTINUOUS
 90
11
 70
0
 10
124.0333222121
 20
132.8627015752
 10
124.0329079665
 20
132.8614841163
 10
124.0325309911
 20
132.8593376805
 10
124.0321919835
 20
132.8562614017
 10
124.0318971313
 20
132.8522513427
 10
124.0316416891
 20
132.8473130666
 10
124.0314100226
 20
132.8414714531
 10
124.0311979953
 20
132.8347471823
 10
124.0310113359
 20
132.8271524402
 10
124.0308492519
 20
132.8187127342
 10
124.0306023748
 20
132.7994165002
  0
LINE
  5
40C
100
AcDbEntity
  8
DRAFT
100
AcDbLine
 62
7
  6
CONTINUOUS
 10
106.9480536228
 20
86.6497283687
 11
106.8990413079
 21
86.6480947293
  0
LINE
  5
40D
100
AcDbEntity
  8
DRAFT
100
AcDbLine
 62
7
  6
CONTINUOUS
 10
107.0383359425
 20
86.6525067696
 11
106.9480536228
 21
86.6497283687
  0
LINE
  5
40E
100
AcDbEntity
  8
217
100
AcDbLine
 62
7
  6
CONTINUOUS
 10
124.0334701849
 20
88.0630103766
 11
134.0421967204
 21
88.1503552098
  0
LINE
  5
40F
100
AcDbEntity
  8
217
100
AcDbLine
 62
7
  6
CONTINUOUS
 10
124.7849246178
 20
85.9673822106
 11
124.0334701849
 21
85.9630103766
  0
LINE
  5
410
100
AcDbEntity
  8
217
100
AcDbLine
 62
250
  6
CONTINUOUS
 10
124.7849246178
 20
86.2173779798
 11
124.0334701849
 21
86.2130061458
  0
LINE
  5
411
100
AcDbEntity
  8
217
100
AcDbLine
 62
7
  6
CONTINUOUS
 10
125.0283788166
 20
86.6687985857
 11
131.5363790506
 21
86.7066610234
  0
LINE
  5
412
100
AcDbEntity
  8
217
100
AcDbLine
 62
250
  6
CONTINUOUS
 10
125.0334701849
 20
86.2173779798
 11
124.7849246178
 21
86.2173779798
  0
LINE
  5
413
100
AcDbEntity
  8
217
100
AcDbLine
 62
250
  6
CONTINUOUS
 10
121.5334701849
 20
86.2261047245
 11
121.7820157521
 21
86.2261047245
  0
LINE
  5
414
100
AcDbEntity
  8
217
100
AcDbLine
 62
250
  6
CONTINUOUS
 10
125.0334701849
 20
86.6186728093
 11
124.7849246178
 21
86.6186728093
  0
LINE
  5
415
100
AcDbEntity
  8
217
100
AcDbLine
 62
250
  6
CONTINUOUS
 10
121.5334701849
 20
86.6186728093
 11
121.7820157521
 21
86.6186728093
  0
LINE
  5
416
100
AcDbEntity
  8
217
100
AcDbLine
 62
7
  6
CONTINUOUS
 10
124.0334701849
 20
85.9630103766
 11
121.7820157521
 21
85.9761089553
  0
LINE
  5
417
100
AcDbEntity
  8
217
100
AcDbLine
 62
250
  6
CONTINUOUS
 10
124.0334701849
 20
86.2130061458
 11
121.7820157521
 21
86.2261047245
  0
LWPOLYLINE
  5
418
100
AcDbEntity
  8
DRAFT
100
AcDbPolyline
 62
7
  6
CONTINUOUS
 90
23
 70
0
 10
107.921263896
 20
86.6553280456
 10
107.883246804
 20
86.6561785659
 10
107.8446839954
 20
86.6569515445
 10
107.8056355665
 20
86.6576561628
 10
107.7664284627
 20
86.6582691749
 10
107.7274136475
 20
86.6587836123
 10
107.6885591911
 20
86.6592064434
 10
107.6495967432
 20
86.6595353277
 10
107.6106177398
 20
86.6597696648
 10
107.5717625304
 20
86.6599100551
 10
107.5328097989
 20
86.6599559592
 10
107.4938648551
 20
86.6599069087
 10
107.4550326127
 20
86.659763372
 10
107.4160911045
 20
86.6595262153
 10
107.3771804064
 20
86.6591948665
 10
107.3383911975
 20
86.6587698978
 10
107.2994536503
 20
86.6582538914
 10
107.2603360344
 20
86.6576399545
 10
107.2213869628
 20
86.6569349801
 10
107.1829281069
 20
86.6561622295
 10
107.1450187979
 20
86.6553126285
 10
107.1079520826
 20
86.6543952513
 10
107.0383359425
 20
86.6525067696
  0
LINE
  5
419
100
AcDbEntity
  8
DRAFT
100
AcDbLine
 62
7
  6
CONTINUOUS
 10
107.9941507248
 20
86.6534727144
 11
107.921263896
 21
86.6553280456
  0
LINE
  5
41A
100
AcDbEntity
  8
DRAFT
100
AcDbLine
 62
7
  6
CONTINUOUS
 10
108.0606576777
 20
86.6515433247
 11
107.9941507248
 21
86.6534727144
  0
LWPOLYLINE
  5
41B
100
AcDbEntity
  8
DRAFT
100
AcDbPolyline
 62
7
  6
CONTINUOUS
 90
3
 70
0
 10
108.167899062
 20
86.6480947293
 10
108.1444606594
 20
86.6488938433
 10
108.0606576777
 20
86.6515433247
  0
LINE
  5
41C
100
AcDbEntity
  8
217
100
AcDbLine
 62
7
  6
CONTINUOUS
 10
122.6870127449
 20
88.1337698771
 11
122.7388962866
 21
88.1316630089
  0
LINE
  5
41D
100
AcDbEntity
  8
217
100
AcDbLine
 62
7
  6
CONTINUOUS
 10
122.7388962866
 20
88.1316630089
 11
122.7603725547
 21
88.1306874273
  0
LINE
  5
41E
100
AcDbEntity
  8
217
100
AcDbLine
 62
7
  6
CONTINUOUS
 10
122.6579270429
 20
88.1350995379
 11
122.6870127449
 21
88.1337698771
  0
LINE
  5
41F
100
AcDbEntity
  8
217
100
AcDbLine
 62
7
  6
CONTINUOUS
 10
122.6579270429
 20
88.1350995379
 11
116.3766912961
 21
88.4642851546
  0
LINE
  5
420
100
AcDbEntity
  8
217
100
AcDbLine
 62
7
  6
CONTINUOUS
 10
124.0334701849
 20
88.0633022994
 11
123.337731791
 21
88.1001071654
  0
LINE
  5
421
100
AcDbEntity
  8
217
100
AcDbLine
 62
7
  6
CONTINUOUS
 10
123.337731791
 20
88.1001071654
 11
122.7603725547
 21
88.1306874273
  0
LWPOLYLINE
  5
422
100
AcDbEntity
  8
217
100
AcDbPolyline
 62
250
  6
CONTINUOUS
 90
43
 70
0
 10
115.4473150153
 20
89.9211045201
 10
115.4493855268
 20
89.8859462003
 10
115.4526790831
 20
89.8509622756
 10
115.457195684
 20
89.8161527458
 10
115.4629439575
 20
89.7814731841
 10
115.4699152756
 20
89.7469680173
 10
115.4780837548
 20
89.7127705262
 10
115.4874538587
 20
89.6788833977
 10
115.4980211236
 20
89.6453039448
 10
115.5097462746
 20
89.6121573874
 10
115.5226335233
 20
89.5794457117
 10
115.5366786582
 20
89.5471669314
 10
115.5518297702
 20
89.5154403083
 10
115.5680909558
 20
89.484267816
 10
115.5854581185
 20
89.4536474809
 10
115.6038670596
 20
89.4236926436
 10
115.6233217186
 20
89.3944056711
 10
115.643818156
 20
89.3657841964
 10
115.6652803542
 20
89.33793446
 10
115.6877118353
 20
89.3108594144
 10
115.7111090774
 20
89.2845561069
 10
115.7353854962
 20
89.2591219203
 10
115.7605443547
 20
89.2345600609
 10
115.78658239
 20
89.2108673223
 10
115.8134032298
 20
89.188131468
 10
115.8410098835
 20
89.1663559827
 10
115.8693993416
 20
89.1455373817
 10
115.8984662035
 20
89.1257529752
 10
115.9282128727
 20
89.1070066875
 10
115.9586369457
 20
89.0892945943
 10
115.9896258116
 20
89.0726822333
 10
116.0211815022
 20
89.0571736804
 10
116.0533019856
 20
89.0427648597
 10
116.0858685554
 20
89.0295090808
 10
116.1188832446
 20
89.0174105316
 10
116.1523440201
 20
89.0064650242
 10
116.1861260765
 20
88.9967133058
 10
116.220231613
 20
88.9881598527
 10
116.2546584302
 20
88.9808001886
 10
116.289275125
 20
88.9746616316
 10
116.3240378962
 20
88.9697532879
 10
116.3589905448
 20
88.9660660513
 10
116.394133071
 20
88.963599922
  0
LWPOLYLINE
  5
423
100
AcDbEntity
  8
217
100
AcDbPolyline
 62
7
  6
CONTINUOUS
 90
5
 70
0
 10
113.8494878305
 20
120.9706591549
 10
113.8492342476
 20
120.9540829957
 10
113.8490140542
 20
120.9396720291
 10
113.8488270016
 20
120.9274378304
 10
113.8485531741
 20
120.9095962357
  0
LINE
  5
424
100
AcDbEntity
  8
217
100
AcDbLine
 62
7
  6
CONTINUOUS
 10
113.8485531741
 20
120.9095962357
 11
113.8483985006
 21
120.8995527695
  0
LINE
  5
425
100
AcDbEntity
  8
217
100
AcDbLine
 62
7
  6
CONTINUOUS
 10
113.8563972767
 20
121.4167381361
 11
113.8494878305
 21
120.9706591549
  0
LINE
  5
426
100
AcDbEntity
  8
217
100
AcDbLine
 62
7
  6
CONTINUOUS
 10
113.8629770668
 20
121.8238567128
 11
113.8563972767
 21
121.4167381361
  0
LINE
  5
427
100
AcDbEntity
  8
217
100
AcDbLine
 62
7
  6
CONTINUOUS
 10
113.8679330483
 20
122.1188142628
 11
113.8629770668
 21
121.8238567128
  0
LINE
  5
428
100
AcDbEntity
  8
217
100
AcDbLine
 62
7
  6
CONTINUOUS
 10
113.8757521147
 20
122.5654934275
 11
113.8679330483
 21
122.1188142628
  0
LINE
  5
429
100
AcDbEntity
  8
217
100
AcDbLine
 62
7
  6
CONTINUOUS
 10
113.8855366119
 20
123.0956899912
 11
113.8757521147
 21
122.5654934275
  0
LINE
  5
42A
100
AcDbEntity
  8
217
100
AcDbLine
 62
7
  6
CONTINUOUS
 10
113.8943162774
 20
123.5479227949
 11
113.8855366119
 21
123.0956899912
  0
LINE
  5
42B
100
AcDbEntity
  8
217
100
AcDbLine
 62
7
  6
CONTINUOUS
 10
113.9003772272
 20
123.8490906149
 11
113.8943162774
 21
123.5479227949
  0
LINE
  5
42C
100
AcDbEntity
  8
217
100
AcDbLine
 62
7
  6
CONTINUOUS
 10
113.9110135004
 20
124.359876057
 11
113.9003772272
 21
123.8490906149
  0
LWPOLYLINE
  5
42D
100
AcDbEntity
  8
217
100
AcDbPolyline
 62
7
  6
CONTINUOUS
 90
3
 70
0
 10
113.9211977925
 20
124.8351457982
 10
113.9188118465
 20
124.7239973948
 10
113.9171862222
 20
124.648464914
  0
LINE
  5
42E
100
AcDbEntity
  8
217
100
AcDbLine
 62
7
  6
CONTINUOUS
 10
113.9171862222
 20
124.648464914
 11
113.9110135004
 21
124.359876057
  0
LWPOLYLINE
  5
42F
100
AcDbEntity
  8
217
100
AcDbPolyline
 62
250
  6
CONTINUOUS
 90
22
 70
0
 10
115.4473150153
 20
131.004916233
 10
115.3706654261
 20
129.0494454651
 10
115.3016792054
 20
127.0937493672
 10
115.2403563531
 20
125.1378279394
 10
115.186696162
 20
123.181651119
 10
115.1406993393
 20
121.2252489687
 10
115.1023680067
 20
119.2687116761
 10
115.0717025185
 20
117.3120392718
 10
115.0487025204
 20
115.3552317252
 10
115.0333690709
 20
113.3983791328
 10
115.0257025231
 20
111.4414814961
 10
115.025702524
 20
109.4845388134
 10
115.0333690735
 20
107.5276411768
 10
115.0487025247
 20
105.5707885846
 10
115.0717025246
 20
103.6139810383
 10
115.1023680145
 20
101.6573086343
 10
115.1406993495
 20
99.7007713257
 10
115.1866961746
 20
97.7443691593
 10
115.240356366
 20
95.7881923719
 10
115.301679216
 20
93.8322710423
 10
115.3706654324
 20
91.8765750917
 10
115.4473150153
 20
89.9211045201
  0
LWPOLYLINE
  5
430
100
AcDbEntity
  8
0
100
AcDbPolyline
 62
7
  6
CONTINUOUS
 90
3
 70
0
 43
0.3500000006
 10
132.2623624878
 20
153.9987279053
 10
132.1909313049
 20
153.7844434204
 10
132.0480780029
 20
153.498718689
  0
LINE
  5
431
100
AcDbEntity
  8
218
100
AcDbLine
 62
250
  6
CONTINUOUS
 10
128.6329218875
 20
105.7110100866
 11
130.5326325083
 21
106.3190108114
  0
LINE
  5
432
100
AcDbEntity
  8
217
100
AcDbLine
 62
250
  6
CONTINUOUS
 10
114.9570171518
 20
89.9005817135
 11
114.9564644875
 21
89.9005420631
  0
LINE
  5
433
100
AcDbEntity
  8
218
100
AcDbLine
 62
250
  6
CONTINUOUS
 10
137.6247439817
 20
91.7971249857
 11
137.1334701849
 21
91.7731143808
  0
LINE
  5
434
100
AcDbEntity
  8
217
100
AcDbLine
 62
250
  6
CONTINUOUS
 10
114.961435289
 20
89.9007972189
 11
114.9570171518
 21
89.9005817135
  0
LWPOLYLINE
  5
435
100
AcDbEntity
  8
218
100
AcDbPolyline
 62
250
  6
CONTINUOUS
 90
19
 70
0
 10
136.2491773507
 20
91.5156548676
 10
136.3266778738
 20
91.5189799823
 10
136.4034846964
 20
91.5270160212
 10
136.4790261821
 20
91.5397031758
 10
136.5527401116
 20
91.5569470218
 10
136.6240778672
 20
91.5786192215
 10
136.692508516
 20
91.6045584788
 10
136.7575227614
 20
91.6345717404
 10
136.8186367333
 20
91.6684356318
 10
136.8753955895
 20
91.7058981203
 10
136.9273769009
 20
91.7466803903
 10
136.9741937955
 20
91.7904789189
 10
137.0154978374
 20
91.8369677346
 10
137.0509816202
 20
91.8858008431
 10
137.0803810552
 20
91.936614803
 10
137.1034773364
 20
91.9890314303
 10
137.1200985691
 20
92.0426606129
 10
137.1301210495
 20
92.0971032144
 10
137.1334701849
 20
92.1519540445
  0
LINE
  5
436
100
AcDbEntity
  8
217
100
AcDbLine
 62
250
  6
CONTINUOUS
 10
115.0610644141
 20
89.9050673321
 11
114.961435289
 21
89.9007972189
  0
LWPOLYLINE
  5
437
100
AcDbEntity
  8
217
100
AcDbPolyline
 62
250
  6
CONTINUOUS
 90
6
 70
0
 10
115.4473150153
 20
89.9211045201
 10
115.4238211465
 20
89.9201368255
 10
115.4003986556
 20
89.9191712747
 10
115.3770994309
 20
89.9182100067
 10
115.3539750872
 20
89.9172551509
 10
115.0610644141
 20
89.9050673321
  0
LINE
  5
438
100
AcDbEntity
  8
218
100
AcDbLine
 62
7
  6
CONTINUOUS
 10
135.0334701849
 20
89.7875610258
 11
125.0334701849
 21
89.6130103766
  0
LINE
  5
439
100
AcDbEntity
  8
218
100
AcDbLine
 62
7
  6
CONTINUOUS
 10
145.8491773507
 20
91.0408200785
 11
135.0334701849
 21
90.8520312077
  0
LINE
  5
43A
100
AcDbEntity
  8
218
100
AcDbLine
 62
250
  6
CONTINUOUS
 10
145.8491773507
 20
91.9406830042
 11
137.6247439817
 21
91.7971249857
  0
LINE
  5
43B
100
AcDbEntity
  8
218
100
AcDbLine
 62
250
  6
CONTINUOUS
 10
136.2491773507
 20
91.5156548676
 11
125.0334701849
 21
91.3772239389
  0
LINE
  5
43C
100
AcDbEntity
  8
217
100
AcDbLine
 62
250
  6
CONTINUOUS
 10
124.035656514
 20
88.563124648
 11
125.0334701849
 21
88.571832436
  0
LINE
  5
43D
100
AcDbEntity
  8
217
100
AcDbLine
 62
7
  6
CONTINUOUS
 10
125.2332569452
 20
89.5525399961
 11
135.0334701849
 21
89.4670148309
  0
LINE
  5
43E
100
AcDbEntity
  8
217
100
AcDbLine
 62
7
  6
CONTINUOUS
 10
134.5421963882
 20
88.8970349433
 11
125.0334701849
 21
89.0630103766
  0
LINE
  5
43F
100
AcDbEntity
  8
217
100
AcDbLine
 62
250
  6
CONTINUOUS
 10
116.394133071
 20
88.963599922
 11
124.035656514
 21
88.563124648
  0
LINE
  5
440
100
AcDbEntity
  8
217
100
AcDbLine
 62
7
  6
CONTINUOUS
 10
125.2332569452
 20
89.5525399961
 11
125.0334701849
 21
89.5630103766
  0
LINE
  5
441
100
AcDbEntity
  8
217
100
AcDbLine
 62
250
  6
CONTINUOUS
 10
124.7849246178
 20
86.6186728093
 11
124.0334701849
 21
87.0525252283
  0
LINE
  5
442
100
AcDbEntity
  8
217
100
AcDbLine
 62
7
  6
CONTINUOUS
 10
124.9084701849
 20
86.8351791602
 11
124.0334701849
 21
87.3403606457
  0
LINE
  5
443
100
AcDbEntity
  8
217
100
AcDbLine
 62
7
  6
CONTINUOUS
 10
122.7820157521
 20
87.1960230785
 11
122.6648190002
 21
87.2637815476
  0
LINE
  5
444
100
AcDbEntity
  8
217
100
AcDbLine
 62
7
  6
CONTINUOUS
 10
122.6648190002
 20
87.2637815476
 11
122.6548671117
 21
87.2695513695
  0
LINE
  5
445
100
AcDbEntity
  8
217
100
AcDbLine
 62
7
  6
CONTINUOUS
 10
122.6548671117
 20
87.2695513695
 11
122.5850685309
 21
87.3100534566
  0
LWPOLYLINE
  5
446
100
AcDbEntity
  8
217
100
AcDbPolyline
 62
7
  6
CONTINUOUS
 90
3
 70
0
 10
122.5850685309
 20
87.3100534566
 10
122.5452774081
 20
87.3332875633
 10
122.5387925644
 20
87.337107823
  0
LWPOLYLINE
  5
447
100
AcDbEntity
  8
217
100
AcDbPolyline
 62
7
  6
CONTINUOUS
 90
5
 70
0
 10
122.5387925644
 20
87.337107823
 10
122.5364764398
 20
87.338493944
 10
122.5348135556
 20
87.339517026
 10
122.5338075222
 20
87.3401462158
 10
122.5334701849
 20
87.3403606457
  0
LINE
  5
448
100
AcDbEntity
  8
217
100
AcDbLine
 62
250
  6
CONTINUOUS
 10
116.394133071
 20
131.9624208312
 11
116.3905009805
 21
132.0334396972
  0
LINE
  5
449
100
AcDbEntity
  8
217
100
AcDbLine
 62
250
  6
CONTINUOUS
 10
116.3905009805
 20
132.0334396972
 11
116.3871201768
 21
132.1030145079
  0
LINE
  5
44A
100
AcDbEntity
  8
217
100
AcDbLine
 62
250
  6
CONTINUOUS
 10
116.3871201768
 20
132.1030145079
 11
116.3840594035
 21
132.1697305652
  0
LINE
  5
44B
100
AcDbEntity
  8
217
100
AcDbLine
 62
250
  6
CONTINUOUS
 10
116.3840594035
 20
132.1697305652
 11
116.3813808968
 21
132.2322312989
  0
LINE
  5
44C
100
AcDbEntity
  8
217
100
AcDbLine
 62
250
  6
CONTINUOUS
 10
116.3813808968
 20
132.2322312989
 11
116.379834846
 21
132.2709247024
  0
LINE
  5
44D
100
AcDbEntity
  8
217
100
AcDbLine
 62
250
  6
CONTINUOUS
 10
116.379834846
 20
132.2709247024
 11
116.3784970657
 21
132.3068274951
  0
LINE
  5
44E
100
AcDbEntity
  8
217
100
AcDbLine
 62
250
  6
CONTINUOUS
 10
116.3784970657
 20
132.3068274951
 11
116.377379657
 21
132.3396149127
  0
LINE
  5
44F
100
AcDbEntity
  8
217
100
AcDbLine
 62
250
  6
CONTINUOUS
 10
116.377379657
 20
132.3396149127
 11
116.3764927275
 21
132.3689903717
  0
LINE
  5
450
100
AcDbEntity
  8
217
100
AcDbLine
 62
250
  6
CONTINUOUS
 10
116.3764927275
 20
132.3689903717
 11
116.3758443002
 21
132.3946881519
  0
LWPOLYLINE
  5
451
100
AcDbEntity
  8
217
100
AcDbPolyline
 62
250
  6
CONTINUOUS
 90
11
 70
0
 10
116.3758443002
 20
132.3946881519
 10
116.3754402406
 20
132.4164757999
 10
116.3753310782
 20
132.425840303
 10
116.3752842035
 20
132.434156232
 10
116.3752997227
 20
132.4414047703
 10
116.3753776006
 20
132.4475695168
 10
116.375517661
 20
132.4526365226
 10
116.375719587
 20
132.4565943224
 10
116.3759829216
 20
132.4594339611
 10
116.3763070691
 20
132.4611490133
 10
116.3766912961
 20
132.4617355985
  0
LWPOLYLINE
  5
452
100
AcDbEntity
  8
217
100
AcDbPolyline
 62
250
  6
CONTINUOUS
 90
10
 70
0
 10
116.3754402406
 20
88.509544932
 10
116.3753310783
 20
88.5001804328
 10
116.3752842038
 20
88.4918645076
 10
116.375299723
 20
88.4846159726
 10
116.3753776009
 20
88.4784512291
 10
116.3755176613
 20
88.4733842259
 10
116.3757195873
 20
88.469426428
 10
116.3759829219
 20
88.4665867908
 10
116.3763070693
 20
88.4648717395
 10
116.3766912961
 20
88.4642851546
  0
LINE
  5
453
100
AcDbEntity
  8
217
100
AcDbLine
 62
250
  6
CONTINUOUS
 10
116.3758442999
 20
88.5313325716
 11
116.3754402406
 21
88.509544932
  0
LINE
  5
454
100
AcDbEntity
  8
217
100
AcDbLine
 62
250
  6
CONTINUOUS
 10
116.3764927268
 20
88.5570303433
 11
116.3758442999
 21
88.5313325716
  0
LINE
  5
455
100
AcDbEntity
  8
217
100
AcDbLine
 62
250
  6
CONTINUOUS
 10
116.377910134
 20
88.6023908485
 11
116.3764927268
 21
88.5570303433
  0
LINE
  5
456
100
AcDbEntity
  8
217
100
AcDbLine
 62
250
  6
CONTINUOUS
 10
116.3798348442
 20
88.6550959944
 11
116.377910134
 21
88.6023908485
  0
LINE
  5
457
100
AcDbEntity
  8
217
100
AcDbLine
 62
250
  6
CONTINUOUS
 10
116.3822277214
 20
88.7140741014
 11
116.3798348442
 21
88.6550959944
  0
LINE
  5
458
100
AcDbEntity
  8
217
100
AcDbLine
 62
250
  6
CONTINUOUS
 10
116.3850401101
 20
88.7781259388
 11
116.3822277214
 21
88.7140741014
  0
LINE
  5
459
100
AcDbEntity
  8
217
100
AcDbLine
 62
250
  6
CONTINUOUS
 10
116.3893426099
 20
88.8691582241
 11
116.3850401101
 21
88.7781259388
  0
LINE
  5
45A
100
AcDbEntity
  8
217
100
AcDbLine
 62
250
  6
CONTINUOUS
 10
116.394133071
 20
88.963599922
 11
116.3893426099
 21
88.8691582241
  0
LINE
  5
45B
100
AcDbEntity
  8
218
100
AcDbLine
 62
250
  6
CONTINUOUS
 10
132.4163839588
 20
122.7539063766
 11
130.5169626732
 21
119.4630103766
  0
LINE
  5
45C
100
AcDbEntity
  8
218
100
AcDbLine
 62
250
  6
CONTINUOUS
 10
128.9043091029
 20
104.9510099417
 11
129.1756963182
 21
105.1030103766
  0
LINE
  5
45D
100
AcDbEntity
  8
218
100
AcDbLine
 62
7
  6
CONTINUOUS
 10
147.0073234621
 20
95.2869694338
 11
148.7596169078
 21
95.4402752454
  0
LINE
  5
45E
100
AcDbEntity
  8
218
100
AcDbLine
 62
250
  6
CONTINUOUS
 10
146.7334701849
 20
91.9406830042
 11
145.8491773507
 21
91.9406830042
  0
LINE
  5
45F
100
AcDbEntity
  8
218
100
AcDbLine
 62
250
  6
CONTINUOUS
 10
125.0334701849
 20
92.7914375013
 11
137.1334701849
 21
92.7914375013
  0
LINE
  5
460
100
AcDbEntity
  8
218
100
AcDbLine
 62
7
  6
CONTINUOUS
 10
146.7334701849
 20
92.9630103766
 11
146.9334701849
 21
92.9630103766
  0
LINE
  5
461
100
AcDbEntity
  8
218
100
AcDbLine
 62
7
  6
CONTINUOUS
 10
137.1334701849
 20
93.839267944
 11
137.1834701849
 21
93.839267944
  0
LINE
  5
462
100
AcDbEntity
  8
218
100
AcDbLine
 62
7
  6
CONTINUOUS
 10
146.7334701849
 20
94.2566273569
 11
146.9334701849
 21
94.2566273569
  0
LINE
  5
463
100
AcDbEntity
  8
218
100
AcDbLine
 62
7
  6
CONTINUOUS
 10
146.7334701849
 20
94.5800316869
 11
146.9334701849
 21
94.5800316869
  0
LINE
  5
464
100
AcDbEntity
  8
217
100
AcDbLine
 62
250
  6
CONTINUOUS
 10
121.7820157521
 20
86.6186728093
 11
121.7435298625
 21
86.6854574294
  0
LINE
  5
465
100
AcDbEntity
  8
217
100
AcDbLine
 62
250
  6
CONTINUOUS
 10
121.7435298625
 20
86.6854574294
 11
121.708939262
 21
86.7457286969
  0
LINE
  5
466
100
AcDbEntity
  8
217
100
AcDbLine
 62
250
  6
CONTINUOUS
 10
121.708939262
 20
86.7457286969
 11
121.6816174935
 21
86.7936084917
  0
LINE
  5
467
100
AcDbEntity
  8
217
100
AcDbLine
 62
250
  6
CONTINUOUS
 10
121.6816174935
 20
86.7936084917
 11
121.6687946919
 21
86.8162737395
  0
LINE
  5
468
100
AcDbEntity
  8
217
100
AcDbLine
 62
250
  6
CONTINUOUS
 10
121.6687946919
 20
86.8162737395
 11
121.6642291871
 21
86.8244272059
  0
LWPOLYLINE
  5
469
100
AcDbEntity
  8
217
100
AcDbPolyline
 62
250
  6
CONTINUOUS
 90
6
 70
0
 10
121.6642291871
 20
86.8244272059
 10
121.6609652819
 20
86.8303347179
 10
121.6598331296
 20
86.8324251108
 10
121.6590386042
 20
86.8339317909
 10
121.6585838754
 20
86.8348506437
 10
121.6584701849
 20
86.8351791602
  0
LINE
  5
46A
100
AcDbEntity
  8
217
100
AcDbLine
 62
250
  6
CONTINUOUS
 10
121.7816888943
 20
85.9846291795
 11
121.7815911571
 21
85.9927158923
  0
LINE
  5
46B
100
AcDbEntity
  8
217
100
AcDbLine
 62
250
  6
CONTINUOUS
 10
121.7815911571
 20
85.9927158923
 11
121.7814834234
 21
86.0096048579
  0
LINE
  5
46C
100
AcDbEntity
  8
217
100
AcDbLine
 62
250
  6
CONTINUOUS
 10
121.7817451567
 20
134.7518919682
 11
121.7814834234
 21
134.8249114707
  0
LINE
  5
46D
100
AcDbEntity
  8
217
100
AcDbLine
 62
250
  6
CONTINUOUS
 10
121.7814834234
 20
86.0096048579
 11
121.7814133411
 21
86.0493340123
  0
LINE
  5
46E
100
AcDbEntity
  8
217
100
AcDbLine
 62
250
  6
CONTINUOUS
 10
121.7814834234
 20
134.8249114707
 11
121.7814133411
 21
134.8766867408
  0
LINE
  5
46F
100
AcDbEntity
  8
217
100
AcDbLine
 62
7
  6
CONTINUOUS
 10
121.5334701849
 20
86.2261047245
 11
121.5334701849
 21
86.6186728093
  0
LINE
  5
470
100
AcDbEntity
  8
217
100
AcDbLine
 62
7
  6
CONTINUOUS
 10
121.5334701849
 20
134.3073479439
 11
121.5334701849
 21
134.6999160286
  0
LINE
  5
471
100
AcDbEntity
  8
217
100
AcDbLine
 62
250
  6
CONTINUOUS
 10
121.7820157521
 20
86.2261047245
 11
121.7820157521
 21
86.6186728093
  0
LINE
  5
472
100
AcDbEntity
  8
217
100
AcDbLine
 62
250
  6
CONTINUOUS
 10
121.7820157521
 20
134.3073479439
 11
121.7820157521
 21
134.6999160286
  0
LINE
  5
473
100
AcDbEntity
  8
217
100
AcDbLine
 62
250
  6
CONTINUOUS
 10
121.7814133411
 20
86.0493340123
 11
121.7814834234
 21
86.1011092824
  0
LINE
  5
474
100
AcDbEntity
  8
217
100
AcDbLine
 62
250
  6
CONTINUOUS
 10
121.7814133411
 20
134.8766867408
 11
121.7814834234
 21
134.9164158952
  0
LINE
  5
475
100
AcDbEntity
  8
217
100
AcDbLine
 62
250
  6
CONTINUOUS
 10
121.7814834234
 20
86.1011092824
 11
121.7817451567
 21
86.1741287849
  0
LINE
  5
476
100
AcDbEntity
  8
217
100
AcDbLine
 62
250
  6
CONTINUOUS
 10
121.7817451567
 20
86.1741287849
 11
121.7820157521
 21
86.2261047245
  0
LINE
  5
477
100
AcDbEntity
  8
217
100
AcDbLine
 62
250
  6
CONTINUOUS
 10
121.7814834234
 20
134.9164158952
 11
121.7815911571
 21
134.9333048608
  0
LWPOLYLINE
  5
478
100
AcDbEntity
  8
217
100
AcDbPolyline
 62
250
  6
CONTINUOUS
 90
7
 70
0
 10
121.7815911571
 20
134.9333048608
 10
121.7816888943
 20
134.9413915736
 10
121.7817451567
 20
134.9444472659
 10
121.781806147
 20
134.9468327438
 10
121.7818716981
 20
134.9485414694
 10
121.7819416304
 20
134.9495687593
 10
121.7820157521
 20
134.9499117978
  0
LINE
  5
479
100
AcDbEntity
  8
218
100
AcDbLine
 62
250
  6
CONTINUOUS
 10
130.2612452646
 20
104.1910108114
 11
129.989858021
 21
104.0390103766
  0
LINE
  5
47A
100
AcDbEntity
  8
218
100
AcDbLine
 62
7
  6
CONTINUOUS
 10
137.1334701849
 20
94.7366503766
 11
137.1834701849
 21
94.7366503766
  0
LINE
  5
47B
100
AcDbEntity
  8
218
100
AcDbLine
 62
7
  6
CONTINUOUS
 10
146.7334701849
 20
94.8630103766
 11
146.9334701849
 21
94.8630103766
  0
LINE
  5
47C
100
AcDbEntity
  8
218
100
AcDbLine
 62
7
  6
CONTINUOUS
 10
137.1334701849
 20
94.9540783766
 11
137.1834701849
 21
94.9540783766
  0
LINE
  5
47D
100
AcDbEntity
  8
218
100
AcDbLine
 62
250
  6
CONTINUOUS
 10
128.6329218875
 20
95.0710104037
 11
130.5326325083
 21
95.0710104037
  0
LINE
  5
47E
100
AcDbEntity
  8
218
100
AcDbLine
 62
250
  6
CONTINUOUS
 10
129.989858021
 20
95.6790104309
 11
129.1756963182
 21
95.6790104309
  0
LINE
  5
47F
100
AcDbEntity
  8
218
100
AcDbLine
 62
7
  6
CONTINUOUS
 10
137.1334701849
 20
96.3060404554
 11
137.1834701849
 21
96.3060404554
  0
LINE
  5
480
100
AcDbEntity
  8
218
100
AcDbLine
 62
250
  6
CONTINUOUS
 10
129.1756963182
 20
96.7430103041
 11
129.989858021
 21
96.7430103041
  0
LWPOLYLINE
  5
481
100
AcDbEntity
  8
217
100
AcDbPolyline
 62
7
  6
CONTINUOUS
 90
13
 70
0
 10
114.5790347611
 20
117.2130103766
 10
114.4888850321
 20
117.5134370647
 10
114.4039756024
 20
117.8154303991
 10
114.3243289551
 20
118.1189090813
 10
114.249955677
 20
118.4238424967
 10
114.1808920283
 20
118.7300985941
 10
114.1171910581
 20
119.0374419125
 10
114.0588779604
 20
119.3457300442
 10
114.0059546251
 20
119.6549381608
 10
113.958432303
 20
119.9650057404
 10
113.916325231
 20
120.275857284
 10
113.8796448422
 20
120.5874011615
 10
113.8483985006
 20
120.8995527695
  0
LWPOLYLINE
  5
482
100
AcDbEntity
  8
217
100
AcDbPolyline
 62
250
  6
CONTINUOUS
 90
6
 70
0
 10
121.7820157521
 20
85.9761089553
 10
121.7819416304
 20
85.9764519939
 10
121.7818716981
 20
85.9774792837
 10
121.781806147
 20
85.9791880093
 10
121.7817451567
 20
85.9815734873
 10
121.7816888943
 20
85.9846291795
  0
LWPOLYLINE
  5
483
100
AcDbEntity
  8
217
100
AcDbPolyline
 62
7
  6
CONTINUOUS
 90
10
 70
0
 10
124.0308492519
 20
88.1073080189
 10
124.0310113359
 20
88.0988683129
 10
124.0311979953
 20
88.0912735708
 10
124.0314100226
 20
88.0845493001
 10
124.0316416891
 20
88.0787076865
 10
124.0318971313
 20
88.0737694104
 10
124.0321919835
 20
88.0697593515
 10
124.0325309911
 20
88.0666830726
 10
124.0329079665
 20
88.0645366368
 10
124.0333222121
 20
88.0633191779
  0
LINE
  5
484
100
AcDbEntity
  8
217
100
AcDbLine
 62
7
  6
CONTINUOUS
 10
124.0336023885
 20
132.465567379
 11
124.035656514
 21
132.3628961051
  0
LINE
  5
485
100
AcDbEntity
  8
217
100
AcDbLine
 62
7
  6
CONTINUOUS
 10
124.0319938839
 20
132.564906741
 11
124.0336023885
 21
132.465567379
  0
LINE
  5
486
100
AcDbEntity
  8
217
100
AcDbLine
 62
7
  6
CONTINUOUS
 10
124.0306023748
 20
88.1266042529
 11
124.0308492519
 21
88.1073080189
  0
LINE
  5
487
100
AcDbEntity
  8
217
100
AcDbLine
 62
7
  6
CONTINUOUS
 10
124.0310786057
 20
132.639504763
 11
124.0319938839
 21
132.564906741
  0
LINE
  5
488
100
AcDbEntity
  8
217
100
AcDbLine
 62
7
  6
CONTINUOUS
 10
124.0305440293
 20
132.7070604932
 11
124.0310786057
 21
132.639504763
  0
LINE
  5
489
100
AcDbEntity
  8
217
100
AcDbLine
 62
7
  6
CONTINUOUS
 10
124.0304562883
 20
88.1491295827
 11
124.0306023748
 21
88.1266042529
  0
LINE
  5
48A
100
AcDbEntity
  8
217
100
AcDbLine
 62
250
  6
CONTINUOUS
 10
121.7820157521
 20
134.6999160286
 11
121.7817451567
 21
134.7518919682
  0
LINE
  5
48B
100
AcDbEntity
  8
217
100
AcDbLine
 62
250
  6
CONTINUOUS
 10
124.7855017519
 20
134.9108699534
 11
124.7853904894
 21
134.9370131635
  0
LINE
  5
48C
100
AcDbEntity
  8
217
100
AcDbLine
 62
250
  6
CONTINUOUS
 10
124.7855157943
 20
86.0600238685
 11
124.7849246178
 21
86.2173779798
  0
LINE
  5
48D
100
AcDbEntity
  8
217
100
AcDbLine
 62
7
  6
CONTINUOUS
 10
124.0304131866
 20
132.7512260696
 11
124.0305440293
 21
132.7070604932
  0
LINE
  5
48E
100
AcDbEntity
  8
217
100
AcDbLine
 62
7
  6
CONTINUOUS
 10
122.5334701849
 20
87.3403606457
 11
122.5334701849
 21
88.1416220455
  0
LINE
  5
48F
100
AcDbEntity
  8
217
100
AcDbLine
 62
7
  6
CONTINUOUS
 10
122.5334701849
 20
132.7843987076
 11
122.5334701849
 21
133.5856601074
  0
LINE
  5
490
100
AcDbEntity
  8
217
100
AcDbLine
 62
250
  6
CONTINUOUS
 10
122.7820157521
 20
87.1960230785
 11
122.7820157521
 21
88.1295994151
  0
LINE
  5
491
100
AcDbEntity
  8
217
100
AcDbLine
 62
250
  6
CONTINUOUS
 10
122.7820157521
 20
132.796421338
 11
122.7820157521
 21
133.7299976747
  0
LINE
  5
492
100
AcDbEntity
  8
217
100
AcDbLine
 62
7
  6
CONTINUOUS
 10
124.0334701849
 20
85.9630103766
 11
124.0334701849
 21
88.0633204086
  0
LINE
  5
493
100
AcDbEntity
  8
217
100
AcDbLine
 62
7
  6
CONTINUOUS
 10
124.0334701849
 20
132.8627003445
 11
124.0334701849
 21
134.9630103766
  0
LINE
  5
494
100
AcDbEntity
  8
217
100
AcDbLine
 62
250
  6
CONTINUOUS
 10
124.7849246178
 20
134.7086427733
 11
124.7849246178
 21
134.3073479439
  0
LINE
  5
495
100
AcDbEntity
  8
217
100
AcDbLine
 62
250
  6
CONTINUOUS
 10
124.7849246178
 20
86.6186728093
 11
124.7849246178
 21
86.2173779798
  0
LINE
  5
496
100
AcDbEntity
  8
217
100
AcDbLine
 62
7
  6
CONTINUOUS
 10
125.0334701849
 20
134.7086427733
 11
125.0334701849
 21
134.1630103766
  0
LINE
  5
497
100
AcDbEntity
  8
217
100
AcDbLine
 62
7
  6
CONTINUOUS
 10
125.0334701849
 20
86.6186728093
 11
125.0334701849
 21
86.2173779798
  0
LINE
  5
498
100
AcDbEntity
  8
218
100
AcDbLine
 62
7
  6
CONTINUOUS
 10
125.0334701849
 20
92.7914375013
 11
125.0334701849
 21
128.1345832518
  0
LINE
  5
499
100
AcDbEntity
  8
217
100
AcDbLine
 62
7
  6
CONTINUOUS
 10
125.0334701849
 20
88.0717372443
 11
125.0334701849
 21
132.8542835088
  0
LINE
  5
49A
100
AcDbEntity
  8
217
100
AcDbLine
 62
7
  6
CONTINUOUS
 10
124.0304305121
 20
88.1887992996
 11
124.0304562883
 21
88.1491295827
  0
LINE
  5
49B
100
AcDbEntity
  8
217
100
AcDbLine
 62
250
  6
CONTINUOUS
 10
124.7854568255
 20
134.8335889895
 11
124.7855017519
 21
134.9108699534
  0
LINE
  5
49C
100
AcDbEntity
  8
217
100
AcDbLine
 62
250
  6
CONTINUOUS
 10
124.7854819913
 20
86.007687381
 11
124.7855157943
 21
86.0600238685
  0
LINE
  5
49D
100
AcDbEntity
  8
217
100
AcDbLine
 62
7
  6
CONTINUOUS
 10
124.0304562883
 20
132.7768911704
 11
124.0304131866
 21
132.7512260696
  0
LINE
  5
49E
100
AcDbEntity
  8
217
100
AcDbLine
 62
250
  6
CONTINUOUS
 10
124.7849246178
 20
134.7086427733
 11
124.7854568255
 21
134.8335889895
  0
LINE
  5
49F
100
AcDbEntity
  8
217
100
AcDbLine
 62
7
  6
CONTINUOUS
 10
124.0306396084
 20
88.2350097176
 11
124.0304305121
 21
88.1887992996
  0
LINE
  5
4A0
100
AcDbEntity
  8
217
100
AcDbLine
 62
250
  6
CONTINUOUS
 10
124.7853902396
 20
85.9889731489
 11
124.7854819913
 21
86.007687381
  0
LINE
  5
4A1
100
AcDbEntity
  8
217
100
AcDbLine
 62
7
  6
CONTINUOUS
 10
124.0306023748
 20
132.7994165002
 11
124.0304562883
 21
132.7768911704
  0
LINE
  5
4A2
100
AcDbEntity
  8
217
100
AcDbLine
 62
7
  6
CONTINUOUS
 10
124.0312743739
 20
88.304634337
 11
124.0306396084
 21
88.2350097176
  0
LINE
  5
4A3
100
AcDbEntity
  8
217
100
AcDbLine
 62
7
  6
CONTINUOUS
 10
124.0322760757
 20
88.3805416243
 11
124.0312743739
 21
88.304634337
  0
LINE
  5
4A4
100
AcDbEntity
  8
217
100
AcDbLine
 62
7
  6
CONTINUOUS
 10
124.0339810333
 20
88.4808481126
 11
124.0322760757
 21
88.3805416243
  0
LINE
  5
4A5
100
AcDbEntity
  8
217
100
AcDbLine
 62
7
  6
CONTINUOUS
 10
124.035656514
 20
88.563124648
 11
124.0339810333
 21
88.4808481126
  0
LINE
  5
4A6
100
AcDbEntity
  8
218
100
AcDbLine
 62
250
  6
CONTINUOUS
 10
129.8089332107
 20
107.88967656
 11
130.0803204544
 21
108.2950103766
  0
LINE
  5
4A7
100
AcDbEntity
  8
218
100
AcDbLine
 62
250
  6
CONTINUOUS
 10
136.0626191849
 20
110.4253553766
 11
133.1757711849
 21
106.9849443766
  0
LINE
  5
4A8
100
AcDbEntity
  8
218
100
AcDbLine
 62
250
  6
CONTINUOUS
 10
128.6329218875
 20
104.6470100866
 11
128.9043091029
 21
104.9510099417
  0
LINE
  5
4A9
100
AcDbEntity
  8
218
100
AcDbLine
 62
250
  6
CONTINUOUS
 10
130.5326325083
 20
104.4950106665
 11
130.2612452646
 21
104.1910108114
  0
LINE
  5
4AA
100
AcDbEntity
  8
218
100
AcDbLine
 62
250
  6
CONTINUOUS
 10
129.7184708056
 20
103.4310106665
 11
129.4470835336
 21
103.1270108114
  0
LINE
  5
4AB
100
AcDbEntity
  8
218
100
AcDbLine
 62
250
  6
CONTINUOUS
 10
128.9043091029
 20
101.9110103766
 11
128.6329218875
 21
101.6070105215
  0
LINE
  5
4AC
100
AcDbEntity
  8
218
100
AcDbLine
 62
250
  6
CONTINUOUS
 10
135.2315541849
 20
107.3085343766
 11
136.0826101849
 21
108.0226543766
  0
LINE
  5
4AD
100
AcDbEntity
  8
218
100
AcDbLine
 62
250
  6
CONTINUOUS
 10
128.6329218875
 20
97.9590104853
 11
130.5326325083
 21
98.567010449
  0
LWPOLYLINE
  5
4AE
100
AcDbEntity
  8
218
100
AcDbPolyline
 62
250
  6
CONTINUOUS
 90
43
 70
0
 10
145.8491773507
 20
107.7812477854
 10
145.872926838
 20
107.7879585624
 10
145.8970090431
 20
107.7915981397
 10
145.9214049998
 20
107.7921665174
 10
145.9461439922
 20
107.789695415
 10
145.9711536552
 20
107.784153113
 10
145.9962618957
 20
107.7754444527
 10
146.0214894124
 20
107.7633504515
 10
146.0467678373
 20
107.7480900921
 10
146.0717973425
 20
107.7302251634
 10
146.0964634488
 20
107.7097324893
 10
146.1208447897
 20
107.6866352459
 10
146.1449370738
 20
107.661564751
 10
146.1686603133
 20
107.6346360193
 10
146.1920610036
 20
107.605734036
 10
146.2153178654
 20
107.5751450739
 10
146.2384024176
 20
107.5429351201
 10
146.2612945273
 20
107.5090381875
 10
146.2841685102
 20
107.4735425884
 10
146.307008614
 20
107.4364468097
 10
146.3297564803
 20
107.3977523645
 10
146.3525031313
 20
107.3575521042
 10
146.3751989064
 20
107.3158530107
 10
146.397791693
 20
107.272648102
 10
146.4203477439
 20
107.2280092833
 10
146.4427678894
 20
107.1819936391
 10
146.4650132268
 20
107.1345440848
 10
146.487204981
 20
107.0855612721
 10
146.5092064902
 20
107.0350931776
 10
146.5309461051
 20
106.9830918245
 10
146.5525746308
 20
106.9293139344
 10
146.5739129813
 20
106.8737231863
 10
146.5948006682
 20
106.8163559011
 10
146.6153060785
 20
106.7570777626
 10
146.6351491435
 20
106.695812652
 10
146.6540685992
 20
106.6326366881
 10
146.6719937526
 20
106.5676439104
 10
146.6885618971
 20
106.5004582052
 10
146.7032569852
 20
106.4314556863
 10
146.7156298057
 20
106.361858735
 10
146.7251627562
 20
106.2920748116
 10
146.7312977425
 20
106.2216964558
 10
146.7334701849
 20
106.1507236676
  0
LINE
  5
4AF
100
AcDbEntity
  8
218
100
AcDbLine
 62
250
  6
CONTINUOUS
 10
137.6247439817
 20
100.621661745
 11
145.8491773507
 21
100.7652197635
  0
LINE
  5
4B0
100
AcDbEntity
  8
218
100
AcDbLine
 62
7
  6
CONTINUOUS
 10
137.6247439817
 20
101.1215855926
 11
145.8491773507
 21
101.265143611
  0
LINE
  5
4B1
100
AcDbEntity
  8
218
100
AcDbLine
 62
7
  6
CONTINUOUS
 10
137.1334701849
 20
99.0867528091
 11
137.1834701849
 21
99.0867528091
  0
LINE
  5
4B2
100
AcDbEntity
  8
218
100
AcDbLine
 62
250
  6
CONTINUOUS
 10
136.2491773507
 20
100.621661745
 11
137.6247439817
 21
100.621661745
  0
LINE
  5
4B3
100
AcDbEntity
  8
218
100
AcDbLine
 62
250
  6
CONTINUOUS
 10
146.7239468029
 20
100.7652197675
 11
145.8491773507
 21
100.7652197635
  0
LINE
  5
4B4
100
AcDbEntity
  8
218
100
AcDbLine
 62
250
  6
CONTINUOUS
 10
130.5326325083
 20
97.3510102678
 11
128.6329218875
 21
97.9590104853
  0
LINE
  5
4B5
100
AcDbEntity
  8
218
100
AcDbLine
 62
250
  6
CONTINUOUS
 10
129.1756963182
 20
95.6790104309
 11
128.9043091029
 21
95.8310103584
  0
LWPOLYLINE
  5
4B6
100
AcDbEntity
  8
217
100
AcDbPolyline
 62
250
  6
CONTINUOUS
 90
6
 70
0
 10
124.7852515359
 20
134.9501145235
 10
124.7851952655
 20
134.9531715847
 10
124.785134265
 20
134.9555581274
 10
124.7850687017
 20
134.9572676106
 10
124.7849987554
 20
134.9582953536
 10
124.7849246178
 20
134.9586385426
  0
LWPOLYLINE
  5
4B7
100
AcDbEntity
  8
217
100
AcDbPolyline
 62
250
  6
CONTINUOUS
 90
3
 70
0
 10
124.7853904894
 20
134.9370131635
 10
124.7853492818
 20
134.942024219
 10
124.7852515359
 20
134.9501145235
  0
LINE
  5
4B8
100
AcDbEntity
  8
218
100
AcDbLine
 62
250
  6
CONTINUOUS
 10
127.5678612033
 20
120.1084583766
 11
127.5678612033
 21
122.1084583766
  0
LWPOLYLINE
  5
4B9
100
AcDbEntity
  8
217
100
AcDbPolyline
 62
250
  6
CONTINUOUS
 90
8
 70
0
 10
124.7849246178
 20
85.9673822106
 10
124.7849985678
 20
85.9677236178
 10
124.7850683913
 20
85.9687468804
 10
124.7851338894
 20
85.9704504846
 10
124.785194887
 20
85.9728316148
 10
124.785251194
 20
85.9758847282
 10
124.7853026163
 20
85.9796001679
 10
124.7853902396
 20
85.9889731489
  0
LINE
  5
4BA
100
AcDbEntity
  8
218
100
AcDbLine
 62
250
  6
CONTINUOUS
 10
128.6329218875
 20
96.2870103947
 11
128.9043091029
 21
96.5910103766
  0
LINE
  5
4BB
100
AcDbEntity
  8
218
100
AcDbLine
 62
250
  6
CONTINUOUS
 10
128.9043091029
 20
96.5910103766
 11
129.1756963182
 21
96.7430103041
  0
LINE
  5
4BC
100
AcDbEntity
  8
218
100
AcDbLine
 62
250
  6
CONTINUOUS
 10
130.2612452646
 20
95.8310103584
 11
129.989858021
 21
95.6790104309
  0
LWPOLYLINE
  5
4BD
100
AcDbEntity
  8
218
100
AcDbPolyline
 62
7
  6
CONTINUOUS
 90
76
 70
0
 10
146.0041353815
 20
107.865905397
 10
146.0939052417
 20
107.8885637222
 10
146.1812050822
 20
107.9111018691
 10
146.266034903
 20
107.9335198378
 10
146.3483346176
 20
107.9558040235
 10
146.4281643125
 20
107.9779680309
 10
146.5057042474
 20
108.0000526745
 10
146.5809649365
 20
108.0220569602
 10
146.6539358656
 20
108.043981882
 10
146.7247657521
 20
108.0658712365
 10
146.7934698601
 20
108.0877251131
 10
146.8600329257
 20
108.1095434225
 10
146.9245578741
 20
108.1313696926
 10
146.9870506671
 20
108.1531997963
 10
147.047505343
 20
108.1750378607
 10
147.1060069421
 20
108.1969397948
 10
147.1625634522
 20
108.2188990014
 10
147.2171668854
 20
108.2409220776
 10
147.2698783186
 20
108.2630847241
 10
147.3207153383
 20
108.2853790496
 10
147.369660358
 20
108.3078129454
 10
147.4167216956
 20
108.3304857866
 10
147.4619272415
 20
108.3533856271
 10
147.5052491053
 20
108.3765244131
 10
147.5466119337
 20
108.4000373574
 10
147.5860665592
 20
108.4239090721
 10
147.6235621492
 20
108.4481549452
 10
147.6588708535
 20
108.4729563542
 10
147.6920995925
 20
108.4983248763
 10
147.7231414456
 20
108.5242489343
 10
147.7514478012
 20
108.5508751736
 10
147.7771340647
 20
108.5783097647
 10
147.8000848306
 20
108.6064465371
 10
147.8194052709
 20
108.6351136247
 10
147.8349858018
 20
108.6644144701
 10
147.8469360071
 20
108.6942456307
 10
147.8546898101
 20
108.7241249127
 10
147.8580089995
 20
108.7539969974
 10
147.8571317866
 20
108.7839172035
 10
147.8522067289
 20
108.813569293
 10
147.8430765774
 20
108.8429344971
 10
147.8298985812
 20
108.8720315848
 10
147.813293045
 20
108.9006006246
 10
147.7931925909
 20
108.9285982694
 10
147.7696645969
 20
108.9560678663
 10
147.7435315017
 20
108.9828795266
 10
147.7149028775
 20
109.0089435668
 10
147.6836691522
 20
109.0343496703
 10
147.6503240484
 20
109.0592369987
 10
147.6149668759
 20
109.0835945708
 10
147.577498325
 20
109.1074333678
 10
147.5381141891
 20
109.1309254951
 10
147.4968587385
 20
109.1540863551
 10
147.453687703
 20
109.1769005454
 10
147.4086640658
 20
109.199493964
 10
147.3618139778
 20
109.2218772407
 10
147.3131112881
 20
109.2440397456
 10
147.2625405273
 20
109.2660754879
 10
147.2101171004
 20
109.287992117
 10
147.1558256025
 20
109.3097819833
 10
147.0996043487
 20
109.331516147
 10
147.0414641178
 20
109.3531996383
 10
146.981394131
 20
109.3748274268
 10
146.9193003677
 20
109.3964554813
 10
146.8551911083
 20
109.4180871884
 10
146.7890580724
 20
109.4397191614
 10
146.720782397
 20
109.4613972086
 10
146.650371083
 20
109.4831236249
 10
146.5778171296
 20
109.5048961154
 10
146.5029806717
 20
109.5267536039
 10
146.4258709779
 20
109.5486974849
 10
146.3464787796
 20
109.5707263641
 10
146.2646364062
 20
109.5928749812
 10
146.1802879674
 20
109.6151549164
 10
146.0934893535
 20
109.6375545897
 10
146.0042405644
 20
109.660074001
  0
LINE
  5
4BE
100
AcDbEntity
  8
218
100
AcDbLine
 62
7
  6
CONTINUOUS
 10
147.0073234621
 20
105.6869694338
 11
148.7596169078
 21
105.8402752454
  0
LWPOLYLINE
  5
4BF
100
AcDbEntity
  8
218
100
AcDbPolyline
 62
250
  6
CONTINUOUS
 90
87
 70
0
 10
141.0334701849
 20
104.066496691
 10
141.109429025
 20
104.0683959243
 10
141.1844112462
 20
104.0740155153
 10
141.2584604054
 20
104.0832383004
 10
141.3316200597
 20
104.0959471162
 10
141.4039337659
 20
104.1120247991
 10
141.4754164931
 20
104.1313580848
 10
141.5459688587
 20
104.1538493047
 10
141.6154628918
 20
104.1794046893
 10
141.6837706219
 20
104.2079304692
 10
141.7507640782
 20
104.2393328748
 10
141.8163336679
 20
104.2735219461
 10
141.8804433088
 20
104.3104229597
 10
141.9430752965
 20
104.3499650016
 10
142.0042119265
 20
104.392077158
 10
142.0638354944
 20
104.4366885148
 10
142.1219278384
 20
104.4837273137
 10
142.1784689672
 20
104.533118419
 10
142.233438432
 20
104.5847858505
 10
142.2868157842
 20
104.6386536282
 10
142.338580575
 20
104.6946457718
 10
142.4009753762
 20
104.7674891194
 10
142.4607044365
 20
104.8432738463
 10
142.5176535934
 20
104.9217407291
 10
142.5717086843
 20
105.0026305441
 10
142.6227709692
 20
105.0856964413
 10
142.6708033996
 20
105.1707410639
 10
142.7157843496
 20
105.2575794287
 10
142.7576921934
 20
105.3460265523
 10
142.7965135073
 20
105.4358991852
 10
142.8322676771
 20
105.5270210122
 10
142.864982291
 20
105.619217452
 10
142.894684937
 20
105.7123139232
 10
142.9214065205
 20
105.8061545322
 10
142.9451912166
 20
105.9006581354
 10
142.9660865174
 20
105.9957622771
 10
142.9841399153
 20
106.0914045017
 10
142.9993896151
 20
106.1875160299
 10
143.0118366717
 20
106.284002789
 10
143.0214728522
 20
106.380764383
 10
143.0282899242
 20
106.4777004156
 10
143.0322806516
 20
106.5747217671
 10
143.0334417848
 20
106.6717844221
 10
143.031771071
 20
106.7688556415
 10
143.0272662573
 20
106.8659026863
 10
143.0199281639
 20
106.9628751485
 10
143.0097699024
 20
107.0596519452
 10
142.9968076575
 20
107.1560943246
 10
142.981057614
 20
107.2520635349
 10
142.9625273351
 20
107.3474337609
 10
142.9411898983
 20
107.4421309348
 10
142.9170097593
 20
107.5360939251
 10
142.8899513742
 20
107.6292616005
 10
142.8599794056
 20
107.7215605356
 10
142.8270593425
 20
107.8128681282
 10
142.7911568807
 20
107.9030494818
 10
142.752237716
 20
107.9919697002
 10
142.7102761784
 20
108.0794862668
 10
142.6652811357
 20
108.1654261842
 10
142.6172700898
 20
108.2496088349
 10
142.5662605428
 20
108.3318536015
 10
142.5122829913
 20
108.4119687939
 10
142.4554199099
 20
108.4897184314
 10
142.3957667681
 20
108.564855461
 10
142.3334190352
 20
108.6371328293
 10
142.2816612734
 20
108.69273563
 10
142.2282672025
 20
108.7462589333
 10
142.1732639513
 20
108.7976115389
 10
142.1166786486
 20
108.8467022466
 10
142.0585384233
 20
108.8934398562
 10
141.9988718779
 20
108.9377377817
 10
141.9377135108
 20
108.9795278944
 10
141.875099294
 20
109.0187466799
 10
141.8110651996
 20
109.0553306238
 10
141.7456471997
 20
109.0892162118
 10
141.6901054127
 20
109.1153418374
 10
141.6336748437
 20
109.1394809549
 10
141.5764027757
 20
109.1615650217
 10
141.5183409434
 20
109.1815299906
 10
141.4595588894
 20
109.1993297958
 10
141.4001306081
 20
109.2149228668
 10
141.3401336476
 20
109.2282671693
 10
141.2796597709
 20
109.2393188125
 10
141.2188042943
 20
109.2480334415
 10
141.1576095254
 20
109.2543597522
 10
141.095905735
 20
109.2582186428
 10
141.0334701849
 20
109.2595240621
  0
LINE
  5
4C0
100
AcDbEntity
  8
218
100
AcDbLine
 62
250
  6
CONTINUOUS
 10
137.6247439817
 20
102.0214485182
 11
145.8491773507
 21
102.1650065367
  0
LINE
  5
4C1
100
AcDbEntity
  8
218
100
AcDbLine
 62
250
  6
CONTINUOUS
 10
129.1756963182
 20
101.9110103766
 11
128.9043091029
 21
101.9110103766
  0
LINE
  5
4C2
100
AcDbEntity
  8
218
100
AcDbLine
 62
250
  6
CONTINUOUS
 10
146.7334701849
 20
102.1650065367
 11
145.8491773507
 21
102.1650065367
  0
LINE
  5
4C3
100
AcDbEntity
  8
218
100
AcDbLine
 62
250
  6
CONTINUOUS
 10
129.4470835336
 20
102.519010594
 11
128.6329218875
 21
102.519010594
  0
LINE
  5
4C4
100
AcDbEntity
  8
218
100
AcDbLine
 62
7
  6
CONTINUOUS
 10
146.7334701849
 20
103.0630103766
 11
146.9334701849
 21
103.0630103766
  0
LINE
  5
4C5
100
AcDbEntity
  8
218
100
AcDbLine
 62
250
  6
CONTINUOUS
 10
130.2612452646
 20
103.4310106665
 11
129.7184708056
 21
103.4310106665
  0
LINE
  5
4C6
100
AcDbEntity
  8
218
100
AcDbLine
 62
7
  6
CONTINUOUS
 10
147.0073234621
 20
101.4390513193
 11
148.7596169078
 21
101.2857455077
  0
LWPOLYLINE
  5
4C7
100
AcDbEntity
  8
218
100
AcDbPolyline
 62
250
  6
CONTINUOUS
 90
49
 70
0
 10
145.961940274
 20
97.6933316415
 10
145.9883566922
 20
97.687511827
 10
146.0145931802
 20
97.6795268358
 10
146.040649738
 20
97.6693852703
 10
146.0665181857
 20
97.6569619503
 10
146.0922067032
 20
97.6424030209
 10
146.1177398304
 20
97.6261235964
 10
146.1431036937
 20
97.6081826929
 10
146.1683121667
 20
97.5885437188
 10
146.1934314096
 20
97.5674759953
 10
146.2184817508
 20
97.5449953552
 10
146.2434428619
 20
97.5211112432
 10
146.2683199179
 20
97.4960810932
 10
146.2931345265
 20
97.4699175861
 10
146.31786508
 20
97.4426349688
 10
146.3424519297
 20
97.4144896182
 10
146.3668945472
 20
97.3855089765
 10
146.3911934608
 20
97.3556922331
 10
146.415290608
 20
97.3252492974
 10
146.4391713795
 20
97.2942289052
 10
146.4628503844
 20
97.2626079282
 10
146.4863133881
 20
97.2304856172
 10
146.5095345457
 20
97.1979364933
 10
146.532539702
 20
97.1649126072
 10
146.5553921568
 20
97.1313310023
 10
146.5780770958
 20
97.097270363
 10
146.6006093332
 20
97.0626864586
 10
146.6230966113
 20
97.0273207338
 10
146.645559667
 20
96.9912204955
 10
146.6679777634
 20
96.9543915941
 10
146.6903964316
 20
96.9165289164
 10
146.7128589204
 20
96.8776666467
 10
146.7353219811
 20
96.8378515165
 10
146.7577013985
 20
96.7968168693
 10
146.7800452393
 20
96.7546248787
 10
146.8023054367
 20
96.7113295078
 10
146.824253576
 20
96.6666753531
 10
146.8459545962
 20
96.6207631089
 10
146.8673435582
 20
96.5736559737
 10
146.8879972293
 20
96.525073728
 10
146.9080257053
 20
96.4751456573
 10
146.9273188904
 20
96.4239758678
 10
146.9451232645
 20
96.3712888916
 10
146.9616266903
 20
96.3172547429
 10
146.9766413052
 20
96.2620336085
 10
146.9888500006
 20
96.2053886063
 10
146.9978137405
 20
96.1474009404
 10
147.003971561
 20
96.0884508425
 10
147.0073234621
 20
96.0287946596
  0
LINE
  5
4C8
100
AcDbEntity
  8
218
100
AcDbLine
 62
250
  6
CONTINUOUS
 10
129.989858021
 20
96.7430103041
 11
130.2612452646
 21
96.5910103766
  0
LINE
  5
4C9
100
AcDbEntity
  8
218
100
AcDbLine
 62
250
  6
CONTINUOUS
 10
129.1756963182
 20
94.4630103766
 11
128.6329218875
 21
95.0710104037
  0
LINE
  5
4CA
100
AcDbEntity
  8
218
100
AcDbLine
 62
250
  6
CONTINUOUS
 10
128.9043091029
 20
95.8310103584
 11
128.6329218875
 21
96.1350103403
  0
LINE
  5
4CB
100
AcDbEntity
  8
218
100
AcDbLine
 62
250
  6
CONTINUOUS
 10
130.2612452646
 20
96.5910103766
 11
130.5326325083
 21
96.2870103947
  0
LINE
  5
4CC
100
AcDbEntity
  8
218
100
AcDbLine
 62
250
  6
CONTINUOUS
 10
128.6329218875
 20
101.6070105215
 11
128.6329218875
 21
101.1510102316
  0
LINE
  5
4CD
100
AcDbEntity
  8
218
100
AcDbLine
 62
250
  6
CONTINUOUS
 10
128.6329218875
 20
96.1350103403
 11
128.6329218875
 21
96.2870103947
  0
LINE
  5
4CE
100
AcDbEntity
  8
218
100
AcDbLine
 62
250
  6
CONTINUOUS
 10
128.6329218875
 20
102.519010594
 11
128.6329218875
 21
103.4310106665
  0
LINE
  5
4CF
100
AcDbEntity
  8
218
100
AcDbLine
 62
250
  6
CONTINUOUS
 10
128.6329218875
 20
104.4950106665
 11
128.6329218875
 21
104.6470100866
  0
LINE
  5
4D0
100
AcDbEntity
  8
218
100
AcDbLine
 62
250
  6
CONTINUOUS
 10
129.4470835336
 20
103.1270108114
 11
129.4470835336
 21
102.519010594
  0
LINE
  5
4D1
100
AcDbEntity
  8
218
100
AcDbLine
 62
250
  6
CONTINUOUS
 10
129.989858021
 20
97.5536769224
 11
129.989858021
 21
98.3643437945
  0
LINE
  5
4D2
100
AcDbEntity
  8
218
100
AcDbLine
 62
250
  6
CONTINUOUS
 10
130.5169626732
 20
125.4630103766
 11
130.5169626732
 21
122.4630103766
  0
LINE
  5
4D3
100
AcDbEntity
  8
218
100
AcDbLine
 62
250
  6
CONTINUOUS
 10
130.5169626732
 20
119.4630103766
 11
130.5169626732
 21
116.4630103766
  0
LINE
  5
4D4
100
AcDbEntity
  8
218
100
AcDbLine
 62
250
  6
CONTINUOUS
 10
130.5169626732
 20
114.4630103766
 11
130.5169626732
 21
115.4630103766
  0
LINE
  5
4D5
100
AcDbEntity
  8
218
100
AcDbLine
 62
250
  6
CONTINUOUS
 10
130.5326325083
 20
104.6470100866
 11
130.5326325083
 21
104.4950106665
  0
LINE
  5
4D6
100
AcDbEntity
  8
218
100
AcDbLine
 62
250
  6
CONTINUOUS
 10
130.5326325083
 20
101.9110103766
 11
130.5326325083
 21
100.8470103766
  0
LINE
  5
4D7
100
AcDbEntity
  8
218
100
AcDbLine
 62
250
  6
CONTINUOUS
 10
130.5326325083
 20
96.2870103947
 11
130.5326325083
 21
96.1350103403
  0
LINE
  5
4D8
100
AcDbEntity
  8
218
100
AcDbLine
 62
250
  6
CONTINUOUS
 10
130.5326325083
 20
102.519010594
 11
130.5326325083
 21
103.1270108114
  0
LWPOLYLINE
  5
4D9
100
AcDbEntity
  8
217
100
AcDbPolyline
 62
250
  6
CONTINUOUS
 90
5
 70
0
 10
124.9059745825
 20
86.8303337923
 10
124.9071069585
 20
86.8324245848
 10
124.907901644
 20
86.8339315547
 10
124.9083564669
 20
86.8348505831
 10
124.9084701849
 20
86.8351791602
  0
LINE
  5
4DA
100
AcDbEntity
  8
217
100
AcDbLine
 62
250
  6
CONTINUOUS
 10
124.9027100321
 20
86.8244251394
 11
124.9059745825
 21
86.8303337923
  0
LINE
  5
4DB
100
AcDbEntity
  8
217
100
AcDbLine
 62
250
  6
CONTINUOUS
 10
124.8953871747
 20
86.811376897
 11
124.9027100321
 21
86.8244251394
  0
LINE
  5
4DC
100
AcDbEntity
  8
217
100
AcDbLine
 62
250
  6
CONTINUOUS
 10
124.8727499191
 20
86.7715309724
 11
124.8953871747
 21
86.811376897
  0
LINE
  5
4DD
100
AcDbEntity
  8
217
100
AcDbLine
 62
250
  6
CONTINUOUS
 10
124.797946054
 20
86.6412410856
 11
124.8727499191
 21
86.7715309724
  0
LINE
  5
4DE
100
AcDbEntity
  8
217
100
AcDbLine
 62
250
  6
CONTINUOUS
 10
124.7849246178
 20
86.6186728093
 11
124.797946054
 21
86.6412410856
  0
LINE
  5
4DF
100
AcDbEntity
  8
218
100
AcDbLine
 62
250
  6
CONTINUOUS
 10
130.5326325083
 20
96.1350103403
 11
130.2612452646
 21
95.8310103584
  0
LWPOLYLINE
  5
4E0
100
AcDbEntity
  8
218
100
AcDbPolyline
 62
7
  6
CONTINUOUS
 90
7
 70
0
 10
145.8491773507
 20
107.7812477854
 10
145.8707631018
 20
107.8003209589
 10
145.8940450879
 20
107.8174087038
 10
145.9190233089
 20
107.8325110201
 10
145.9456977648
 20
107.8456279077
 10
145.9740684557
 20
107.8567593666
 10
146.0041353815
 20
107.865905397
  0
LINE
  5
4E1
100
AcDbEntity
  8
217
100
AcDbLine
 62
7
  6
CONTINUOUS
 10
122.5334701849
 20
87.3403606457
 11
121.6584701849
 21
86.8351791602
  0
LINE
  5
4E2
100
AcDbEntity
  8
217
100
AcDbLine
 62
250
  6
CONTINUOUS
 10
122.7820157521
 20
87.1960230785
 11
121.7820157521
 21
86.6186728093
  0
LWPOLYLINE
  5
4E3
100
AcDbEntity
  8
218
100
AcDbPolyline
 62
250
  6
CONTINUOUS
 90
52
 70
0
 10
145.8491773507
 20
97.620266827
 10
145.8690914483
 20
97.6278735864
 10
145.8891730312
 20
97.6326305964
 10
145.9094114443
 20
97.6345378569
 10
145.9298464976
 20
97.6335747373
 10
145.95041513
 20
97.6297618683
 10
145.9709528014
 20
97.6231611413
 10
145.9914247692
 20
97.6136400296
 10
146.0118434833
 20
97.60133106
 10
146.0321174242
 20
97.5866937048
 10
146.0521839214
 20
97.5697281405
 10
146.0720864413
 20
97.5504341906
 10
146.0918926442
 20
97.5292707977
 10
146.111588118
 20
97.5062777312
 10
146.1311654153
 20
97.4814152217
 10
146.1506991922
 20
97.4550229034
 10
146.1702016557
 20
97.4270947269
 10
146.189633241
 20
97.3976367415
 10
146.208988248
 20
97.3670067299
 10
146.228258559
 20
97.3352143479
 10
146.2474229153
 20
97.3022499396
 10
146.266455598
 20
97.2684423203
 10
146.2853329128
 20
97.2338271445
 10
146.3040487165
 20
97.1983687576
 10
146.3226029727
 20
97.1622890109
 10
146.3409563979
 20
97.1256520759
 10
146.3591161281
 20
97.0883937811
 10
146.3771463567
 20
97.0505434632
 10
146.3949913007
 20
97.0121858457
 10
146.412664038
 20
96.9732362052
 10
146.4303155858
 20
96.9334697074
 10
146.4478969552
 20
96.892913708
 10
146.4653846894
 20
96.8515408514
 10
146.4829383129
 20
96.8090442368
 10
146.5005016983
 20
96.7653968119
 10
146.5180104457
 20
96.720625629
 10
146.5355720247
 20
96.6745049438
 10
146.5530917057
 20
96.6270096216
 10
146.5704796617
 20
96.5781647971
 10
146.5877993701
 20
96.5278201302
 10
146.6049000593
 20
96.475961338
 10
146.621656099
 20
96.4226027034
 10
146.6380922329
 20
96.3676367361
 10
146.6539843611
 20
96.3110272287
 10
146.6691344198
 20
96.2528103886
 10
146.6834831887
 20
96.192987348
 10
146.6966898504
 20
96.1314959478
 10
146.7084424418
 20
96.0683983471
 10
146.7185183425
 20
96.0038821553
 10
146.726442833
 20
95.9380099089
 10
146.731615964
 20
95.8707190715
 10
146.7334701849
 20
95.802009643
  0
LWPOLYLINE
  5
4E4
100
AcDbEntity
  8
218
100
AcDbPolyline
 62
7
  6
CONTINUOUS
 90
55
 70
0
 10
145.961940274
 20
97.6933316415
 10
146.0269850312
 20
97.7153228885
 10
146.0900703453
 20
97.7373599046
 10
146.1511962165
 20
97.7594426899
 10
146.2103382439
 20
97.7815481128
 10
146.2675208282
 20
97.8036993048
 10
146.3228171718
 20
97.825965661
 10
146.3762433598
 20
97.8483410007
 10
146.4277833071
 20
97.8708315045
 10
146.4774619601
 20
97.8935251093
 10
146.525300927
 20
97.9164112629
 10
146.5712785997
 20
97.9395005175
 10
146.6153550999
 20
97.9629124665
 10
146.6575712079
 20
97.9866341683
 10
146.6978861434
 20
98.0106785646
 10
146.7361376878
 20
98.0352040735
 10
146.7723973322
 20
98.0601968446
 10
146.8065935856
 20
98.0856707283
 10
146.8383497563
 20
98.1118256938
 10
146.8678149586
 20
98.1387463747
 10
146.8948400782
 20
98.1663481373
 10
146.9186010798
 20
98.1945770502
 10
146.9390766219
 20
98.2235918453
 10
146.9562880461
 20
98.2532337906
 10
146.9694753423
 20
98.2829727588
 10
146.9783908703
 20
98.3127120644
 10
146.9832822702
 20
98.3425483928
 10
146.9841324536
 20
98.3722416729
 10
146.9808394856
 20
98.4017531735
 10
146.973505301
 20
98.4311216257
 10
146.9624186148
 20
98.460223152
 10
146.9474218936
 20
98.4891323268
 10
146.9286726709
 20
98.5177745757
 10
146.906932262
 20
98.5458022982
 10
146.8822112241
 20
98.5731052627
 10
146.854499
 20
98.5997937007
 10
146.8245252338
 20
98.6258507054
 10
146.7924132458
 20
98.6512153551
 10
146.7580397155
 20
98.6759485716
 10
146.7217643258
 20
98.7002162127
 10
146.6836607749
 20
98.7240224881
 10
146.6436553644
 20
98.7473631881
 10
146.601886682
 20
98.7703915422
 10
146.5584005245
 20
98.7931165567
 10
146.5131510951
 20
98.8155292252
 10
146.4661395909
 20
98.8377557575
 10
146.4173818842
 20
98.8598090899
 10
146.3668621027
 20
98.8816762861
 10
146.3145338268
 20
98.903444747
 10
146.2604020448
 20
98.9251238975
 10
146.2044617683
 20
98.9467043127
 10
146.1466516126
 20
98.9682451188
 10
146.0869511161
 20
98.9897660246
 10
146.0253807403
 20
99.0112473213
 10
145.9619404852
 20
99.0326890089
  0
LWPOLYLINE
  5
4E5
100
AcDbEntity
  8
218
100
AcDbPolyline
 62
250
  6
CONTINUOUS
 90
24
 70
0
 10
141.2901821106
 20
108.7120020421
 10
141.278719838
 20
108.7100562936
 10
141.2675124121
 20
108.7074593204
 10
141.2566348638
 20
108.7042044278
 10
141.2461126323
 20
108.7003270484
 10
141.2359521358
 20
108.6958672765
 10
141.2261332975
 20
108.6908417265
 10
141.2166327464
 20
108.6852717072
 10
141.2074404279
 20
108.6792207842
 10
141.1985487843
 20
108.672763158
 10
141.1899469292
 20
108.665973311
 10
141.1816249877
 20
108.6589080057
 10
141.1735804591
 20
108.6515528433
 10
141.1658146928
 20
108.6438760584
 10
141.1583370651
 20
108.635847582
 10
141.1511695915
 20
108.6274472246
 10
141.14437682
 20
108.6186926197
 10
141.1380318709
 20
108.6096117763
 10
141.1321996209
 20
108.6002363824
 10
141.1269463059
 20
108.5906056343
 10
141.122316435
 20
108.580780893
 10
141.1182099089
 20
108.5708016642
 10
141.1144732506
 20
108.5606702164
 10
141.1109771959
 20
108.55042899
  0
LWPOLYLINE
  5
4E6
100
AcDbEntity
  8
218
100
AcDbPolyline
 62
250
  6
CONTINUOUS
 90
85
 70
0
 10
141.2807843297
 20
107.9429033935
 10
141.2953470599
 20
107.9451730965
 10
141.309746903
 20
107.947875436
 10
141.3240003729
 20
107.9510217743
 10
141.338123984
 20
107.9546234738
 10
141.3521342505
 20
107.9586918968
 10
141.3660476866
 20
107.9632384056
 10
141.379868183
 20
107.9682732334
 10
141.3935491362
 20
107.9738020969
 10
141.4070313192
 20
107.9798295836
 10
141.4202612988
 20
107.9863609438
 10
141.4332088172
 20
107.9934040778
 10
141.4458494106
 20
108.0009675485
 10
141.4551128988
 20
108.0069875135
 10
141.4641747351
 20
108.0133130359
 10
141.4730196741
 20
108.0199521672
 10
141.4816324701
 20
108.0269129587
 10
141.4899997127
 20
108.0342010764
 10
141.4981153309
 20
108.0418126452
 10
141.505975089
 20
108.0497414044
 10
141.5135747511
 20
108.0579810937
 10
141.5209104197
 20
108.0665245755
 10
141.5279795509
 20
108.0753612042
 10
141.5347799394
 20
108.0844794572
 10
141.5413093796
 20
108.093867812
 10
141.5495903479
 20
108.1067894532
 10
141.5573824915
 20
108.1201650303
 10
141.5646825924
 20
108.1339887831
 10
141.5714859438
 20
108.1482502807
 10
141.5777818851
 20
108.1629204107
 10
141.583558267
 20
108.1779653902
 10
141.5888046335
 20
108.1933493717
 10
141.5935173012
 20
108.2090282488
 10
141.59769428
 20
108.2249558507
 10
141.6013347524
 20
108.2410943793
 10
141.6044425915
 20
108.2574395282
 10
141.6070228429
 20
108.2739953637
 10
141.6090792251
 20
108.2907658462
 10
141.6106101479
 20
108.3077545123
 10
141.6116126934
 20
108.3249647928
 10
141.6120831121
 20
108.3423909682
 10
141.612014325
 20
108.3599907185
 10
141.6113984211
 20
108.3777125734
 10
141.6105691593
 20
108.3910606768
 10
141.6094031801
 20
108.4044720597
 10
141.607875969
 20
108.4179702697
 10
141.6059630117
 20
108.4315788544
 10
141.603642537
 20
108.4453065037
 10
141.6009037465
 20
108.4591024763
 10
141.597738585
 20
108.4729011734
 10
141.5941389971
 20
108.4866369959
 10
141.5900971657
 20
108.5002493392
 10
141.5856062263
 20
108.5136975757
 10
141.5806595524
 20
108.526946072
 10
141.5752505175
 20
108.5399591949
 10
141.5693733996
 20
108.5527024819
 10
141.5630260945
 20
108.5651461541
 10
141.5562074021
 20
108.5772616033
 10
141.5489161228
 20
108.5890202214
 10
141.5411550055
 20
108.600391507
 10
141.5329425947
 20
108.6113373858
 10
141.524301384
 20
108.6218178902
 10
141.5152538667
 20
108.6317930524
 10
141.5077377069
 20
108.6393844522
 10
141.4999830982
 20
108.646618238
 10
141.491997232
 20
108.6534857942
 10
141.4837872998
 20
108.659978505
 10
141.475360493
 20
108.6660877547
 10
141.4667279257
 20
108.6718071794
 10
141.4579164024
 20
108.6771394217
 10
141.4489566503
 20
108.6820893763
 10
141.4398793965
 20
108.6866619375
 10
141.4307153681
 20
108.6908619998
 10
141.4191768155
 20
108.6955968064
 10
141.4075608943
 20
108.6997733839
 10
141.3958778101
 20
108.703407885
 10
141.3841377686
 20
108.7065164625
 10
141.3723533876
 20
108.7091106085
 10
141.3605469344
 20
108.7111831721
 10
141.3487430886
 20
108.712722342
 10
141.3369665298
 20
108.7137163066
 10
141.3252324416
 20
108.7141536292
 10
141.3135180246
 20
108.7140243714
 10
141.3018113692
 20
108.7133157423
 10
141.2901821106
 20
108.7120020421
  0
LINE
  5
4E7
100
AcDbEntity
  8
218
100
AcDbLine
 62
250
  6
CONTINUOUS
 10
129.989858021
 20
104.0390103766
 11
129.1756963182
 21
104.0390103766
  0
LINE
  5
4E8
100
AcDbEntity
  8
218
100
AcDbLine
 62
250
  6
CONTINUOUS
 10
135.5630111849
 20
104.6775913766
 11
135.3282291849
 21
104.6775913766
  0
LINE
  5
4E9
100
AcDbEntity
  8
218
100
AcDbLine
 62
7
  6
CONTINUOUS
 10
146.7334701849
 20
104.9630103766
 11
146.9334701849
 21
104.9630103766
  0
LINE
  5
4EA
100
AcDbEntity
  8
218
100
AcDbLine
 62
250
  6
CONTINUOUS
 10
129.1756963182
 20
105.1030103766
 11
129.989858021
 21
105.1030103766
  0
LINE
  5
4EB
100
AcDbEntity
  8
218
100
AcDbLine
 62
250
  6
CONTINUOUS
 10
136.0204681849
 20
105.9619883766
 11
135.7563611849
 21
105.9619883766
  0
LINE
  5
4EC
100
AcDbEntity
  8
218
100
AcDbLine
 62
250
  6
CONTINUOUS
 10
136.0204681849
 20
106.1691493766
 11
135.3282291849
 21
106.1691493766
  0
LINE
  5
4ED
100
AcDbEntity
  8
218
100
AcDbLine
 62
250
  6
CONTINUOUS
 10
129.1756963182
 20
104.0390103766
 11
128.9043091029
 21
104.1910108114
  0
LINE
  5
4EE
100
AcDbEntity
  8
218
100
AcDbLine
 62
250
  6
CONTINUOUS
 10
128.6329218875
 20
101.1510102316
 11
129.0400027672
 21
100.8470103766
  0
LINE
  5
4EF
100
AcDbEntity
  8
218
100
AcDbLine
 62
250
  6
CONTINUOUS
 10
130.5326325083
 20
100.8470103766
 11
129.1756963182
 21
101.9110103766
  0
LINE
  5
4F0
100
AcDbEntity
  8
217
100
AcDbLine
 62
250
  6
CONTINUOUS
 10
131.6079900117
 20
86.7122369518
 11
131.6079900117
 21
88.1291122097
  0
LINE
  5
4F1
100
AcDbEntity
  8
217
100
AcDbLine
 62
250
  6
CONTINUOUS
 10
131.6079900117
 20
132.7969085435
 11
131.6079900117
 21
134.2137838013
  0
LINE
  5
4F2
100
AcDbEntity
  8
217
100
AcDbLine
 62
7
  6
CONTINUOUS
 10
132.0334701849
 20
87.2066525619
 11
132.0334701849
 21
88.1328149646
  0
LINE
  5
4F3
100
AcDbEntity
  8
217
100
AcDbLine
 62
7
  6
CONTINUOUS
 10
132.0334701849
 20
132.7932057885
 11
132.0334701849
 21
133.7193681913
  0
LINE
  5
4F4
100
AcDbEntity
  8
218
100
AcDbLine
 62
250
  6
CONTINUOUS
 10
132.5315311722
 20
117.9643193766
 11
132.5315311722
 21
116.8532753766
  0
LINE
  5
4F5
100
AcDbEntity
  8
218
100
AcDbLine
 62
250
  6
CONTINUOUS
 10
132.5315311722
 20
114.0754953766
 11
132.5315311722
 21
112.9644523766
  0
LINE
  5
4F6
100
AcDbEntity
  8
218
100
AcDbLine
 62
250
  6
CONTINUOUS
 10
132.5315311722
 20
114.6308443766
 11
132.5315311722
 21
116.2975813766
  0
LINE
  5
4F7
100
AcDbEntity
  8
218
100
AcDbLine
 62
250
  6
CONTINUOUS
 10
133.0868839677
 20
113.5198013766
 11
133.0868839677
 21
114.0754953766
  0
LINE
  5
4F8
100
AcDbEntity
  8
218
100
AcDbLine
 62
250
  6
CONTINUOUS
 10
133.0868839677
 20
115.1865383766
 11
133.0868839677
 21
115.7422323766
  0
LINE
  5
4F9
100
AcDbEntity
  8
218
100
AcDbLine
 62
250
  6
CONTINUOUS
 10
133.0868839677
 20
117.4086253766
 11
133.0868839677
 21
117.9643193766
  0
LWPOLYLINE
  5
4FA
100
AcDbEntity
  8
218
100
AcDbPolyline
 62
250
  6
CONTINUOUS
 90
87
 70
0
 10
141.0334701849
 20
109.2595240621
 10
140.9575113449
 20
109.2576248288
 10
140.8825291237
 20
109.2520052379
 10
140.8084799645
 20
109.2427824527
 10
140.7353203102
 20
109.230073637
 10
140.663006604
 20
109.213995954
 10
140.5915238768
 20
109.1946626683
 10
140.5209715112
 20
109.1721714485
 10
140.4514774781
 20
109.1466160638
 10
140.383169748
 20
109.1180902839
 10
140.3161762917
 20
109.0866878783
 10
140.250606702
 20
109.052498807
 10
140.1864970611
 20
109.0155977935
 10
140.1238650734
 20
108.9760557515
 10
140.0627284434
 20
108.9339435951
 10
140.0031048755
 20
108.8893322383
 10
139.9450125315
 20
108.8422934394
 10
139.8884714027
 20
108.7929023341
 10
139.8335019379
 20
108.7412349026
 10
139.7801245857
 20
108.6873671249
 10
139.7283597949
 20
108.6313749813
 10
139.6659649937
 20
108.5585316337
 10
139.6062359334
 20
108.4827469068
 10
139.5492867765
 20
108.404280024
 10
139.4952316856
 20
108.323390209
 10
139.4441694007
 20
108.2403243118
 10
139.3961369703
 20
108.1552796892
 10
139.3511560203
 20
108.0684413244
 10
139.3092481765
 20
107.9799942008
 10
139.2704268626
 20
107.890121568
 10
139.2346726928
 20
107.798999741
 10
139.2019580789
 20
107.7068033011
 10
139.1722554329
 20
107.6137068299
 10
139.1455338494
 20
107.519866221
 10
139.1217491533
 20
107.4253626177
 10
139.1008538525
 20
107.330258476
 10
139.0828004546
 20
107.2346162514
 10
139.0675507548
 20
107.1385047232
 10
139.0551036982
 20
107.0420179641
 10
139.0454675177
 20
106.9452563701
 10
139.0386504457
 20
106.8483203375
 10
139.0346597183
 20
106.751298986
 10
139.0334985851
 20
106.654236331
 10
139.0351692989
 20
106.5571651116
 10
139.0396741126
 20
106.4601180669
 10
139.047012206
 20
106.3631456046
 10
139.0571704675
 20
106.2663688079
 10
139.0701327124
 20
106.1699264285
 10
139.0858827559
 20
106.0739572183
 10
139.1044130348
 20
105.9785869922
 10
139.1257504716
 20
105.8838898183
 10
139.1499306106
 20
105.789926828
 10
139.1769889956
 20
105.6967591526
 10
139.2069609643
 20
105.6044602175
 10
139.2398810274
 20
105.5131526249
 10
139.2757834892
 20
105.4229712713
 10
139.3147026539
 20
105.3340510529
 10
139.3566641915
 20
105.2465344864
 10
139.4016592342
 20
105.160594569
 10
139.4496702801
 20
105.0764119182
 10
139.5006798271
 20
104.9941671516
 10
139.5546573786
 20
104.9140519592
 10
139.61152046
 20
104.8363023217
 10
139.6711736017
 20
104.7611652922
 10
139.7335213347
 20
104.6888879238
 10
139.7852790964
 20
104.6332851231
 10
139.8386731674
 20
104.5797618198
 10
139.8936764186
 20
104.5284092142
 10
139.9502617213
 20
104.4793185065
 10
140.0084019466
 20
104.4325808969
 10
140.068068492
 20
104.3882829715
 10
140.1292268591
 20
104.3464928588
 10
140.1918410759
 20
104.3072740732
 10
140.2558751703
 20
104.2706901293
 10
140.3212931702
 20
104.2368045413
 10
140.3768349572
 20
104.2106789157
 10
140.4332655262
 20
104.1865397982
 10
140.4905375942
 20
104.1644557314
 10
140.5485994265
 20
104.1444907625
 10
140.6073814805
 20
104.1266909573
 10
140.6668097618
 20
104.1110978863
 10
140.7268067223
 20
104.0977535838
 10
140.787280599
 20
104.0867019406
 10
140.8481360756
 20
104.0779873116
 10
140.9093308445
 20
104.0716610009
 10
140.9710346349
 20
104.0678021103
 10
141.0334701849
 20
104.066496691
  0
LINE
  5
4FB
100
AcDbEntity
  8
218
100
AcDbLine
 62
250
  6
CONTINUOUS
 10
130.5326325083
 20
106.3190108114
 11
128.6329218875
 21
106.9270105215
  0
LWPOLYLINE
  5
4FC
100
AcDbEntity
  8
218
100
AcDbPolyline
 62
7
  6
CONTINUOUS
 90
7
 70
0
 10
145.9619404852
 20
99.0326890089
 10
145.9397378438
 20
99.0414494022
 10
145.9188987166
 20
99.0515766327
 10
145.8994231037
 20
99.0630707003
 10
145.8813110051
 20
99.0759316051
 10
145.8645624208
 20
99.090159347
 10
145.8491773507
 20
99.1057539261
  0
LINE
  5
4FD
100
AcDbEntity
  8
218
100
AcDbLine
 62
250
  6
CONTINUOUS
 10
129.989858021
 20
105.1030103766
 11
130.2612452646
 21
104.9510099417
  0
LINE
  5
4FE
100
AcDbEntity
  8
218
100
AcDbLine
 62
250
  6
CONTINUOUS
 10
128.9043091029
 20
104.1910108114
 11
128.6329218875
 21
104.4950106665
  0
LINE
  5
4FF
100
AcDbEntity
  8
218
100
AcDbLine
 62
250
  6
CONTINUOUS
 10
130.5326325083
 20
103.1270108114
 11
130.2612452646
 21
103.4310106665
  0
LINE
  5
500
100
AcDbEntity
  8
218
100
AcDbLine
 62
250
  6
CONTINUOUS
 10
130.2612452646
 20
104.9510099417
 11
130.5326325083
 21
104.6470100866
  0
LINE
  5
501
100
AcDbEntity
  8
218
100
AcDbLine
 62
250
  6
CONTINUOUS
 10
129.9446268184
 20
107.5350102316
 11
129.8089332107
 21
107.88967656
  0
LINE
  5
502
100
AcDbEntity
  8
218
100
AcDbLine
 62
250
  6
CONTINUOUS
 10
130.0803204544
 20
108.2950103766
 11
129.9446268184
 21
108.7003441931
  0
LINE
  5
503
100
AcDbEntity
  8
217
100
AcDbLine
 62
250
  6
CONTINUOUS
 10
134.5421963882
 20
132.0289858098
 11
134.5421963882
 21
131.4547186408
  0
LINE
  5
504
100
AcDbEntity
  8
217
100
AcDbLine
 62
250
  6
CONTINUOUS
 10
134.5421963882
 20
89.4713021123
 11
134.5421963882
 21
88.8970349433
  0
LINE
  5
505
100
AcDbEntity
  8
218
100
AcDbLine
 62
250
  6
CONTINUOUS
 10
134.7529413545
 20
115.7422323766
 11
134.7529413545
 21
115.1865383766
  0
LINE
  5
506
100
AcDbEntity
  8
218
100
AcDbLine
 62
250
  6
CONTINUOUS
 10
134.7529413545
 20
114.0754953766
 11
134.7529413545
 21
113.5198013766
  0
LINE
  5
507
100
AcDbEntity
  8
218
100
AcDbLine
 62
7
  6
CONTINUOUS
 10
135.0334701849
 20
90.8520312077
 11
135.0334701849
 21
89.7875610258
  0
LINE
  5
508
100
AcDbEntity
  8
217
100
AcDbLine
 62
7
  6
CONTINUOUS
 10
135.0334701849
 20
89.1503171329
 11
135.0334701849
 21
89.7875610258
  0
LINE
  5
509
100
AcDbEntity
  8
218
100
AcDbLine
 62
7
  6
CONTINUOUS
 10
135.0334701849
 20
130.0739895454
 11
135.0334701849
 21
131.1384597273
  0
LINE
  5
50A
100
AcDbEntity
  8
217
100
AcDbLine
 62
7
  6
CONTINUOUS
 10
135.0334701849
 20
131.1384597273
 11
135.0334701849
 21
131.7757036203
  0
LINE
  5
50B
100
AcDbEntity
  8
218
100
AcDbLine
 62
250
  6
CONTINUOUS
 10
135.2315541849
 20
104.7742663766
 11
135.2315541849
 21
105.9619883766
  0
LINE
  5
50C
100
AcDbEntity
  8
218
100
AcDbLine
 62
250
  6
CONTINUOUS
 10
135.2315541849
 20
106.2658243766
 11
135.2315541849
 21
107.3085343766
  0
LINE
  5
50D
100
AcDbEntity
  8
218
100
AcDbLine
 62
250
  6
CONTINUOUS
 10
135.3084660976
 20
115.7422323766
 11
135.3084660976
 21
115.1865383766
  0
LINE
  5
50E
100
AcDbEntity
  8
218
100
AcDbLine
 62
250
  6
CONTINUOUS
 10
135.3084660976
 20
113.5198013766
 11
135.3084660976
 21
114.0754953766
  0
LINE
  5
50F
100
AcDbEntity
  8
218
100
AcDbLine
 62
250
  6
CONTINUOUS
 10
135.6596871849
 20
105.8653133766
 11
135.6596871849
 21
104.7742663766
  0
LINE
  5
510
100
AcDbEntity
  8
218
100
AcDbLine
 62
250
  6
CONTINUOUS
 10
135.6743491849
 20
106.1691493766
 11
135.6743491849
 21
107.2601963766
  0
LINE
  5
511
100
AcDbEntity
  8
218
100
AcDbLine
 62
250
  6
CONTINUOUS
 10
136.1171441849
 20
107.4535463766
 11
136.1171441849
 21
106.2658243766
  0
LINE
  5
512
100
AcDbEntity
  8
218
100
AcDbLine
 62
250
  6
CONTINUOUS
 10
136.1171441849
 20
104.6775913766
 11
136.1171441849
 21
105.8653133766
  0
LINE
  5
513
100
AcDbEntity
  8
218
100
AcDbLine
 62
250
  6
CONTINUOUS
 10
136.2491773507
 20
90.8732514552
 11
136.2491773507
 21
100.621661745
  0
LINE
  5
514
100
AcDbEntity
  8
218
100
AcDbLine
 62
250
  6
CONTINUOUS
 10
136.2491773507
 20
120.1543590081
 11
136.2491773507
 21
130.0527692979
  0
LINE
  5
515
100
AcDbEntity
  8
218
100
AcDbLine
 62
250
  6
CONTINUOUS
 10
136.5992071849
 20
103.2959673766
 11
136.5992071849
 21
110.2300533766
  0
LINE
  5
516
100
AcDbEntity
  8
218
100
AcDbLine
 62
7
  6
CONTINUOUS
 10
136.9743531849
 20
117.9643193766
 11
136.9743531849
 21
117.4086253766
  0
LINE
  5
517
100
AcDbEntity
  8
218
100
AcDbLine
 62
7
  6
CONTINUOUS
 10
136.9743531849
 20
114.0754953766
 11
136.9743531849
 21
113.5198013766
  0
LINE
  5
518
100
AcDbEntity
  8
218
100
AcDbLine
 62
250
  6
CONTINUOUS
 10
136.9745234844
 20
117.9643193766
 11
136.9745234844
 21
117.4086253766
  0
LINE
  5
519
100
AcDbEntity
  8
218
100
AcDbLine
 62
250
  6
CONTINUOUS
 10
136.9745234844
 20
114.0754953766
 11
136.9745234844
 21
113.5198013766
  0
LINE
  5
51A
100
AcDbEntity
  8
218
100
AcDbLine
 62
7
  6
CONTINUOUS
 10
137.1334701849
 20
91.7731143808
 11
137.1334701849
 21
100.621661745
  0
LINE
  5
51B
100
AcDbEntity
  8
218
100
AcDbLine
 62
7
  6
CONTINUOUS
 10
137.1334701849
 20
120.154359007
 11
137.1334701849
 21
122.2146788992
  0
LINE
  5
51C
100
AcDbEntity
  8
218
100
AcDbLine
 62
7
  6
CONTINUOUS
 10
137.1334701849
 20
123.7113418539
 11
137.1334701849
 21
129.1529063723
  0
LINE
  5
51D
100
AcDbEntity
  8
218
100
AcDbLine
 62
7
  6
CONTINUOUS
 10
137.1834701849
 20
99.0866212979
 11
137.1834701849
 21
93.8394799728
  0
LINE
  5
51E
100
AcDbEntity
  8
218
100
AcDbLine
 62
7
  6
CONTINUOUS
 10
137.3334701849
 20
126.9630103766
 11
137.3334701849
 21
125.4630103766
  0
LWPOLYLINE
  5
51F
100
AcDbEntity
  8
218
100
AcDbPolyline
 62
250
  6
CONTINUOUS
 90
19
 70
0
 10
137.6247439806
 20
129.1288957674
 10
137.6260524954
 20
129.2073072162
 10
137.6272315683
 20
129.2851223107
 10
137.628272229
 20
129.3617490776
 10
137.6291665595
 20
129.4366045422
 10
137.629907756
 20
129.5091192729
 10
137.6304901794
 20
129.5787417007
 10
137.6309093973
 20
129.6449421661
 10
137.6311622187
 20
129.7072169802
 10
137.6312467185
 20
129.7650923533
 10
137.631162252
 20
129.8181279765
 10
137.6309094596
 20
129.8659202689
 10
137.6304902639
 20
129.9081054995
 10
137.6299078531
 20
129.9443626988
 10
137.6291666574
 20
129.9744160031
 10
137.6282723171
 20
129.9980367066
 10
137.6272316369
 20
130.0150450987
 10
137.6260525336
 20
130.0253117967
 10
137.6247439777
 20
130.0287586931
  0
LWPOLYLINE
  5
520
100
AcDbEntity
  8
218
100
AcDbPolyline
 62
250
  6
CONTINUOUS
 90
22
 70
0
 10
136.2491773507
 20
100.621661745
 10
136.2530769501
 20
100.7255160615
 10
136.2644391554
 20
100.8278609194
 10
136.2832639667
 20
100.9286963186
 10
136.3097507848
 20
101.0286303896
 10
136.3437002089
 20
101.127055002
 10
136.3845140363
 20
101.222145764
 10
136.4322748659
 20
101.3137438151
 10
136.4869000988
 20
101.4020080157
 10
136.5475437348
 20
101.4855905553
 10
136.6143244873
 20
101.5644542567
 10
136.6871236429
 20
101.6386362971
 10
136.7647390615
 20
101.7069003968
 10
136.8472398634
 20
101.7691373933
 10
136.9345569283
 20
101.8254564493
 10
137.025280756
 20
101.8749487736
 10
137.119445319
 20
101.9175068157
 10
137.2170166447
 20
101.9532381261
 10
137.3164833156
 20
101.9815565655
 10
137.4173415258
 20
102.0022667541
 10
137.5200950812
 20
102.0155640717
 10
137.6247439817
 20
102.0214485182
  0
LWPOLYLINE
  5
521
100
AcDbEntity
  8
218
100
AcDbPolyline
 62
250
  6
CONTINUOUS
 90
50
 70
0
 10
140.5443928459
 20
108.467026823
 10
140.5464514792
 20
108.4750945328
 10
140.5486219477
 20
108.4829956705
 10
140.5509010679
 20
108.4907361755
 10
140.553285656
 20
108.4983219871
 10
140.5557725285
 20
108.5057590449
 10
140.5583585016
 20
108.5130532882
 10
140.5615886189
 20
108.5216271932
 10
140.5649550704
 20
108.5300200534
 10
140.5684560694
 20
108.5382479241
 10
140.5720898297
 20
108.5463268604
 10
140.5758545648
 20
108.5542729178
 10
140.579092569
 20
108.5608020446
 10
140.5824310357
 20
108.56724334
 10
140.5858807133
 20
108.5735901
 10
140.5894553445
 20
108.5798400871
 10
140.5931806491
 20
108.5860089282
 10
140.5970853408
 20
108.5921167165
 10
140.6001469103
 20
108.5966652307
 10
140.6033259778
 20
108.6011730907
 10
140.6066229844
 20
108.6056226824
 10
140.6100383712
 20
108.6099963912
 10
140.613572161
 20
108.614275639
 10
140.6172227029
 20
108.6184379912
 10
140.6209900511
 20
108.6224629503
 10
140.6248827529
 20
108.626341622
 10
140.6289119503
 20
108.6300674769
 10
140.6330906697
 20
108.633631841
 10
140.637426385
 20
108.6370277474
 10
140.6419024782
 20
108.6402572036
 10
140.6464963871
 20
108.6433249437
 10
140.6511858677
 20
108.6462376341
 10
140.6559502766
 20
108.6490042723
 10
140.6607750561
 20
108.6516412478
 10
140.6672836478
 20
108.6549830824
 10
140.6738705356
 20
108.658146313
 10
140.6805298658
 20
108.6611504245
 10
140.6872553552
 20
108.6640118722
 10
140.6940390022
 20
108.666734994
 10
140.7008723755
 20
108.6693210981
 10
140.7077489088
 20
108.6717727843
 10
140.7146694948
 20
108.6740978166
 10
140.7216368915
 20
108.6763052503
 10
140.7286532055
 20
108.6784027915
 10
140.7357179397
 20
108.680392749
 10
140.7428299458
 20
108.6822760823
 10
140.7535846757
 20
108.684903405
 10
140.7644428947
 20
108.6872970879
 10
140.7754043131
 20
108.6894612367
 10
140.7864686416
 20
108.6913999572
  0
LWPOLYLINE
  5
522
100
AcDbEntity
  8
218
100
AcDbPolyline
 62
250
  6
CONTINUOUS
 90
6
 70
0
 10
141.0941078825
 20
108.4989942199
 10
141.0876296778
 20
108.4784654202
 10
141.0815258069
 20
108.4578516317
 10
141.0757459
 20
108.4371404493
 10
141.070186195
 20
108.4163607811
 10
141.0485705046
 20
108.3329245897
  0
LINE
  5
523
100
AcDbEntity
  8
218
100
AcDbLine
 62
250
  6
CONTINUOUS
 10
141.1109771959
 20
108.55042899
 11
141.0941078825
 21
108.4989942199
  0
LINE
  5
524
100
AcDbEntity
  8
218
100
AcDbLine
 62
7
  6
CONTINUOUS
 10
146.7430652171
 20
112.0630103766
 11
146.9334701849
 21
112.0630103766
  0
LINE
  5
525
100
AcDbEntity
  8
218
100
AcDbLine
 62
250
  6
CONTINUOUS
 10
132.5315311722
 20
112.9644523766
 11
137.5300482275
 21
112.9644523766
  0
LINE
  5
526
100
AcDbEntity
  8
218
100
AcDbLine
 62
250
  6
CONTINUOUS
 10
133.1757711849
 20
106.5410763766
 11
136.0626191849
 21
103.1006653766
  0
LWPOLYLINE
  5
527
100
AcDbEntity
  8
218
100
AcDbPolyline
 62
250
  6
CONTINUOUS
 90
19
 70
0
 10
137.6247439817
 20
102.0214485182
 10
137.626052522
 20
101.943035462
 10
137.6272316128
 20
101.8652189452
 10
137.6282722841
 20
101.788590969
 10
137.6291666187
 20
101.7137344926
 10
137.629907813
 20
101.6412189982
 10
137.6304902279
 20
101.5715961587
 10
137.6309094325
 20
101.5053956404
 10
137.6311622379
 20
101.4431210742
 10
137.6312467206
 20
101.3852462233
 10
137.631162238
 20
101.3322113797
 10
137.6309094328
 20
101.284420014
 10
137.6304902283
 20
101.2422357066
 10
137.6299078135
 20
101.2059793811
 10
137.6291666194
 20
101.175926863
 10
137.6282722848
 20
101.1523067815
 10
137.6272316134
 20
101.13529883
 10
137.6260525224
 20
101.1250323993
 10
137.6247439817
 20
101.1215855926
  0
LWPOLYLINE
  5
528
100
AcDbEntity
  8
218
100
AcDbPolyline
 62
250
  6
CONTINUOUS
 90
16
 70
0
 10
137.6247439817
 20
100.621661745
 10
137.6238800836
 20
100.6739079232
 10
137.6231212159
 20
100.7255819032
 10
137.6224756898
 20
100.7761177532
 10
137.621950575
 20
100.8249620065
 10
137.6215516225
 20
100.8715797225
 10
137.6212832017
 20
100.9154603457
 10
137.6211482524
 20
100.956123297
 10
137.6211482524
 20
100.9931232372
 10
137.6212832017
 20
101.0260549443
 10
137.6215516225
 20
101.0545577514
 10
137.621950575
 20
101.0783194968
 10
137.6224756898
 20
101.0970799426
 10
137.6231212159
 20
101.1106336251
 10
137.6238800836
 20
101.118832105
 10
137.6247439817
 20
101.1215855926
  0
LINE
  5
529
100
AcDbEntity
  8
218
100
AcDbLine
 62
7
  6
CONTINUOUS
 10
137.5300471849
 20
116.2975813766
 11
137.5300471849
 21
115.7422323766
  0
LINE
  5
52A
100
AcDbEntity
  8
218
100
AcDbLine
 62
7
  6
CONTINUOUS
 10
137.5300471849
 20
115.1865383766
 11
137.5300471849
 21
114.6308443766
  0
LINE
  5
52B
100
AcDbEntity
  8
218
100
AcDbLine
 62
7
  6
CONTINUOUS
 10
137.5300471849
 20
112.9644523766
 11
137.5300471849
 21
114.0754953766
  0
LINE
  5
52C
100
AcDbEntity
  8
218
100
AcDbLine
 62
7
  6
CONTINUOUS
 10
137.5300471849
 20
116.8532753766
 11
137.5300471849
 21
117.9643193766
  0
LINE
  5
52D
100
AcDbEntity
  8
218
100
AcDbLine
 62
250
  6
CONTINUOUS
 10
137.6247439817
 20
100.621661745
 11
137.6247439817
 21
91.7971249857
  0
LINE
  5
52E
100
AcDbEntity
  8
218
100
AcDbLine
 62
250
  6
CONTINUOUS
 10
137.6247439817
 20
120.1543590081
 11
137.6247439817
 21
121.6996965089
  0
LINE
  5
52F
100
AcDbEntity
  8
218
100
AcDbLine
 62
250
  6
CONTINUOUS
 10
137.6247439817
 20
124.2263242442
 11
137.6247439817
 21
129.1288957674
  0
LWPOLYLINE
  5
530
100
AcDbEntity
  8
218
100
AcDbPolyline
 62
250
  6
CONTINUOUS
 90
90
 70
0
 10
141.0485705046
 20
108.3329245897
 10
141.0374784253
 20
108.2910768119
 10
141.0317218477
 20
108.2701369976
 10
141.0257735823
 20
108.2491435876
 10
141.0196049188
 20
108.2280642136
 10
141.0132204156
 20
108.206955235
 10
141.0066284439
 20
108.1858871667
 10
140.9998193573
 20
108.1648984186
 10
140.9927384063
 20
108.1440142825
 10
140.9851868667
 20
108.1232798694
 10
140.9811828822
 20
108.1130282876
 10
140.9770084724
 20
108.1028899433
 10
140.9726437014
 20
108.0928842732
 10
140.968034352
 20
108.0830060089
 10
140.9631163979
 20
108.0732531769
 10
140.9578208582
 20
108.0636616894
 10
140.9520884589
 20
108.0542830533
 10
140.9459037084
 20
108.0451932691
 10
140.9392716965
 20
108.0364679139
 10
140.9322360554
 20
108.0281563796
 10
140.9248395317
 20
108.0202927648
 10
140.9170827867
 20
108.0128761805
 10
140.9089551112
 20
108.0059016288
 10
140.9004424008
 20
107.9993826629
 10
140.8915399913
 20
107.993339988
 10
140.8822843756
 20
107.9878043672
 10
140.8727267306
 20
107.9828042444
 10
140.8629358106
 20
107.9783487298
 10
140.8529675917
 20
107.9744376413
 10
140.842809359
 20
107.9710529607
 10
140.8324425697
 20
107.9681772558
 10
140.8218940616
 20
107.965813272
 10
140.8112020178
 20
107.9639687995
 10
140.800404621
 20
107.9626516286
 10
140.7895393226
 20
107.9618670023
 10
140.7786406466
 20
107.9616099757
 10
140.7677423853
 20
107.9618730568
 10
140.7568783311
 20
107.9626487537
 10
140.7460700492
 20
107.963933106
 10
140.7352901967
 20
107.9657362797
 10
140.7245195325
 20
107.9680723843
 10
140.7138201299
 20
107.9709571782
 10
140.7032726166
 20
107.9744048818
 10
140.6929505217
 20
107.9784219165
 10
140.6829151692
 20
107.983012208
 10
140.6731861593
 20
107.9881774995
 10
140.6637453461
 20
107.9939202301
 10
140.6545032876
 20
108.0002318814
 10
140.645482526
 20
108.0070417358
 10
140.6366933185
 20
108.0142641669
 10
140.6281400359
 20
108.0218156656
 10
140.6198537532
 20
108.0296201788
 10
140.6118770371
 20
108.037623267
 10
140.6042717158
 20
108.045849491
 10
140.5970849031
 20
108.0543628698
 10
140.5903167552
 20
108.0632780788
 10
140.5840620412
 20
108.072614619
 10
140.5783806313
 20
108.0823390627
 10
140.573223897
 20
108.0923504054
 10
140.5685117573
 20
108.1025269047
 10
140.564164743
 20
108.1127642198
 10
140.5601132519
 20
108.1230322961
 10
140.5563019748
 20
108.1333284192
 10
140.552722906
 20
108.1436849489
 10
140.5493839968
 20
108.1541267055
 10
140.5463097215
 20
108.1646132775
 10
140.5426534876
 20
108.1785789321
 10
140.5394766074
 20
108.1924602523
 10
140.5367371202
 20
108.206194066
 10
140.5349411569
 20
108.2163702803
 10
140.5333310499
 20
108.22646528
 10
140.530551927
 20
108.2464581389
 10
140.5293616995
 20
108.256293388
 10
140.5283437353
 20
108.2659894124
 10
140.5275451128
 20
108.2755313431
 10
140.5269956208
 20
108.2849083926
 10
140.5267077246
 20
108.2941152809
 10
140.5266418833
 20
108.3031646769
 10
140.5267483914
 20
108.3120703456
 10
140.5269888912
 20
108.3208324854
 10
140.5277346041
 20
108.3379227354
 10
140.528668125
 20
108.3544408191
 10
140.529778239
 20
108.3703477016
 10
140.5310969062
 20
108.3856489951
 10
140.5326552949
 20
108.4004310592
 10
140.534471293
 20
108.4147063448
 10
140.5365559034
 20
108.4284713291
 10
140.5389070178
 20
108.4417565425
 10
140.5415199542
 20
108.4545989024
 10
140.5443928459
 20
108.467026823
  0
LWPOLYLINE
  5
531
100
AcDbEntity
  8
218
100
AcDbPolyline
 62
250
  6
CONTINUOUS
 90
19
 70
0
 10
137.6247439817
 20
90.8972620601
 10
137.6260525292
 20
90.9007089094
 10
137.6272316249
 20
90.9109754575
 10
137.628272299
 20
90.9279835849
 10
137.6291666345
 20
90.9516038854
 10
137.6299078279
 20
90.9816566481
 10
137.6304902404
 20
91.017913222
 10
137.6309094413
 20
91.0600977609
 10
137.6311622421
 20
91.1078893254
 10
137.6312467199
 20
91.1609243203
 10
137.6311622326
 20
91.2187992581
 10
137.6309094232
 20
91.2810738383
 10
137.6304902154
 20
91.3472742997
 10
137.6299077987
 20
91.4168970041
 10
137.6291666043
 20
91.4894122858
 10
137.6282722709
 20
91.5642684946
 10
137.6272316023
 20
91.6408961601
 10
137.6260525157
 20
91.7187123218
 10
137.6247439814
 20
91.7971249857
  0
LWPOLYLINE
  5
532
100
AcDbEntity
  8
218
100
AcDbPolyline
 62
7
  6
CONTINUOUS
 90
7
 70
0
 10
145.8491773507
 20
97.620266827
 10
145.8659747087
 20
97.6367843617
 10
145.8835706516
 20
97.6515658702
 10
145.9019651796
 20
97.6646113524
 10
145.9211582927
 20
97.6759208084
 10
145.9411499908
 20
97.6854942381
 10
145.961940274
 20
97.6933316415
  0
LINE
  5
533
100
AcDbEntity
  8
218
100
AcDbLine
 62
250
  6
CONTINUOUS
 10
136.9745234844
 20
113.5198013766
 11
135.3084660976
 21
113.5198013766
  0
LINE
  5
534
100
AcDbEntity
  8
218
100
AcDbLine
 62
250
  6
CONTINUOUS
 10
134.7529413545
 20
113.5198013766
 11
133.0868839677
 21
113.5198013766
  0
LINE
  5
535
100
AcDbEntity
  8
218
100
AcDbLine
 62
7
  6
CONTINUOUS
 10
146.7334701849
 20
113.7630103766
 11
146.9334701849
 21
113.7630103766
  0
LINE
  5
536
100
AcDbEntity
  8
218
100
AcDbLine
 62
7
  6
CONTINUOUS
 10
137.5300471849
 20
114.0754953766
 11
136.9743531849
 21
114.0754953766
  0
LINE
  5
537
100
AcDbEntity
  8
218
100
AcDbLine
 62
250
  6
CONTINUOUS
 10
135.3084660976
 20
114.0754953766
 11
134.7529413545
 21
114.0754953766
  0
LINE
  5
538
100
AcDbEntity
  8
218
100
AcDbLine
 62
250
  6
CONTINUOUS
 10
133.0868839677
 20
114.0754953766
 11
132.5315311722
 21
114.0754953766
  0
LINE
  5
539
100
AcDbEntity
  8
218
100
AcDbLine
 62
250
  6
CONTINUOUS
 10
128.6175413875
 20
114.4630103766
 11
130.5169626732
 21
114.4630103766
  0
LINE
  5
53A
100
AcDbEntity
  8
218
100
AcDbLine
 62
250
  6
CONTINUOUS
 10
137.5300482275
 20
114.6308443766
 11
132.5315311722
 21
114.6308443766
  0
LINE
  5
53B
100
AcDbEntity
  8
218
100
AcDbLine
 62
250
  6
CONTINUOUS
 10
134.7529413545
 20
115.1865383766
 11
133.0868839677
 21
115.1865383766
  0
LINE
  5
53C
100
AcDbEntity
  8
218
100
AcDbLine
 62
250
  6
CONTINUOUS
 10
135.3084660976
 20
115.1865383766
 11
137.5300482275
 21
115.1865383766
  0
LINE
  5
53D
100
AcDbEntity
  8
218
100
AcDbLine
 62
250
  6
CONTINUOUS
 10
137.5300482275
 20
115.7422323766
 11
135.3084660976
 21
115.7422323766
  0
LINE
  5
53E
100
AcDbEntity
  8
218
100
AcDbLine
 62
250
  6
CONTINUOUS
 10
133.0868839677
 20
115.7422323766
 11
134.7529413545
 21
115.7422323766
  0
LINE
  5
53F
100
AcDbEntity
  8
218
100
AcDbLine
 62
250
  6
CONTINUOUS
 10
132.5315311722
 20
116.2975813766
 11
137.5300482275
 21
116.2975813766
  0
LINE
  5
540
100
AcDbEntity
  8
218
100
AcDbLine
 62
7
  6
CONTINUOUS
 10
147.0073234621
 20
111.8390513193
 11
148.7596169078
 21
111.6857455077
  0
LWPOLYLINE
  5
541
100
AcDbEntity
  8
218
100
AcDbPolyline
 62
250
  6
CONTINUOUS
 90
37
 70
0
 10
146.0041353815
 20
107.865905397
 10
146.0385596553
 20
107.8562643408
 10
146.072710109
 20
107.8439817781
 10
146.1065867425
 20
107.8290756939
 10
146.1402458061
 20
107.811366103
 10
146.1736310494
 20
107.7910775316
 10
146.2065737224
 20
107.7688324834
 10
146.2389627103
 20
107.7447641422
 10
146.2709091277
 20
107.7187832258
 10
146.3025775683
 20
107.6911727108
 10
146.3339605425
 20
107.6620414122
 10
146.3650655397
 20
107.6313309779
 10
146.3960796221
 20
107.5990744759
 10
146.4270569957
 20
107.5653150004
 10
146.4579434543
 20
107.5300752262
 10
146.4887634413
 20
107.4933625387
 10
146.519551154
 20
107.4552274342
 10
146.550272395
 20
107.4157032452
 10
146.5808490157
 20
107.3747779419
 10
146.6112809924
 20
107.3325723472
 10
146.6415683487
 20
107.2890709855
 10
146.6716330064
 20
107.2440712856
 10
146.7015022841
 20
107.1977314729
 10
146.7311488632
 20
107.150039796
 10
146.7604127099
 20
107.1005715047
 10
146.7894099602
 20
107.0494554644
 10
146.818024478
 20
106.9967886399
 10
146.8457478216
 20
106.942151418
 10
146.872762906
 20
106.8857179304
 10
146.8988868162
 20
106.8276538168
 10
146.9230623651
 20
106.7675956038
 10
146.9455950177
 20
106.7054644008
 10
146.9661793091
 20
106.6418548531
 10
146.9828416574
 20
106.5774191931
 10
146.994924202
 20
106.5125230961
 10
147.0030848036
 20
106.4473046645
 10
147.0073234621
 20
106.3820502256
  0
LWPOLYLINE
  5
542
100
AcDbEntity
  8
218
100
AcDbPolyline
 62
7
  6
CONTINUOUS
 90
7
 70
0
 10
146.0042405644
 20
109.660074001
 10
145.9738723278
 20
109.6693771072
 10
145.9453138382
 20
109.6806055687
 10
145.9185650958
 20
109.6937593855
 10
145.8936261004
 20
109.7088385576
 10
145.870496852
 20
109.725843085
 10
145.8491773507
 20
109.7447729677
  0
LINE
  5
543
100
AcDbEntity
  8
218
100
AcDbLine
 62
250
  6
CONTINUOUS
 10
136.0826101849
 20
108.1707693766
 11
135.2315541849
 21
108.8848893766
  0
LINE
  5
544
100
AcDbEntity
  8
218
100
AcDbLine
 62
250
  6
CONTINUOUS
 10
146.8112144017
 20
126.8310810913
 11
146.8053404813
 21
126.7771992235
  0
LINE
  5
545
100
AcDbEntity
  8
218
100
AcDbLine
 62
250
  6
CONTINUOUS
 10
146.8053404813
 20
126.7771992235
 11
146.7986287239
 21
126.718039154
  0
LINE
  5
546
100
AcDbEntity
  8
218
100
AcDbLine
 62
250
  6
CONTINUOUS
 10
146.7986287239
 20
126.718039154
 11
146.7913715077
 21
126.6561784475
  0
LWPOLYLINE
  5
547
100
AcDbEntity
  8
218
100
AcDbPolyline
 62
250
  6
CONTINUOUS
 90
13
 70
0
 10
146.8216353997
 20
121.9719534038
 10
146.8219824253
 20
121.9736452838
 10
146.8219375221
 20
121.9785735123
 10
146.8215011863
 20
121.9866843169
 10
146.8206782012
 20
121.9978891692
 10
146.8194775511
 20
122.0120656961
 10
146.8179123293
 20
122.0290589692
 10
146.8159996441
 20
122.0486832925
 10
146.8137604072
 20
122.0707242822
 10
146.8112190745
 20
122.0949411271
 10
146.80840345
 20
122.1210689467
 10
146.8053442786
 20
122.1488225037
 10
146.7986308852
 20
122.2079826022
  0
LWPOLYLINE
  5
548
100
AcDbEntity
  8
218
100
AcDbPolyline
 62
250
  6
CONTINUOUS
 90
3
 70
0
 10
146.7581750497
 20
122.2661643898
 10
146.7691943658
 20
122.267357861
 10
146.7912778346
 20
122.2698242011
  0
LWPOLYLINE
  5
549
100
AcDbEntity
  8
218
100
AcDbPolyline
 62
250
  6
CONTINUOUS
 90
4
 70
0
 10
146.7030459615
 20
122.2603141082
 10
146.7252067748
 20
122.2627427718
 10
146.7362268561
 20
122.2638994891
 10
146.7581750497
 20
122.2661643898
  0
LINE
  5
54A
100
AcDbEntity
  8
218
100
AcDbLine
 62
250
  6
CONTINUOUS
 10
132.5315311722
 20
116.8532753766
 11
137.5300482275
 21
116.8532753766
  0
LINE
  5
54B
100
AcDbEntity
  8
218
100
AcDbLine
 62
250
  6
CONTINUOUS
 10
136.9745234844
 20
117.4086253766
 11
133.0868839677
 21
117.4086253766
  0
LINE
  5
54C
100
AcDbEntity
  8
218
100
AcDbLine
 62
7
  6
CONTINUOUS
 10
137.5300471849
 20
117.9643193766
 11
136.9743531849
 21
117.9643193766
  0
LINE
  5
54D
100
AcDbEntity
  8
218
100
AcDbLine
 62
250
  6
CONTINUOUS
 10
133.0868839677
 20
117.9643193766
 11
132.5315311722
 21
117.9643193766
  0
LINE
  5
54E
100
AcDbEntity
  8
218
100
AcDbLine
 62
250
  6
CONTINUOUS
 10
145.8491773507
 20
118.6110142164
 11
146.7334701849
 21
118.6110142164
  0
LINE
  5
54F
100
AcDbEntity
  8
218
100
AcDbLine
 62
250
  6
CONTINUOUS
 10
145.8491773507
 20
118.6110142164
 11
137.6247439817
 21
118.7545722349
  0
LWPOLYLINE
  5
550
100
AcDbEntity
  8
218
100
AcDbPolyline
 62
250
  6
CONTINUOUS
 90
22
 70
0
 10
145.8491773507
 20
101.265143611
 10
145.8503228186
 20
101.2637584798
 10
145.8513570118
 20
101.2595732901
 10
145.8522830394
 20
101.2526180056
 10
145.8531096158
 20
101.2429407695
 10
145.8538332226
 20
101.2306004887
 10
145.8544382482
 20
101.2156600052
 10
145.8549237688
 20
101.1981993482
 10
145.8552941165
 20
101.1783190296
 10
145.8555411863
 20
101.1561267846
 10
145.8556626408
 20
101.1317413547
 10
145.8556620391
 20
101.1053020194
 10
145.8555395005
 20
101.0769668775
 10
145.8552916949
 20
101.0469096783
 10
145.8549206306
 20
101.0152869144
 10
145.8544339865
 20
100.9822427481
 10
145.8538267667
 20
100.9479292802
 10
145.8531009554
 20
100.9125636343
 10
145.8522740583
 20
100.8763987276
 10
145.8513498536
 20
100.8396579058
 10
145.8503187295
 20
100.8025290249
 10
145.8491773507
 20
100.7652197635
  0
LWPOLYLINE
  5
551
100
AcDbEntity
  8
218
100
AcDbPolyline
 62
250
  6
CONTINUOUS
 90
16
 70
0
 10
137.6247439817
 20
119.6544351605
 10
137.6238800836
 20
119.6571886482
 10
137.6231212159
 20
119.665387128
 10
137.6224756898
 20
119.6789408105
 10
137.621950575
 20
119.6977012563
 10
137.6215516225
 20
119.7214630017
 10
137.6212832017
 20
119.7499658088
 10
137.6211482524
 20
119.7828975159
 10
137.6211482524
 20
119.8198974561
 10
137.6212832017
 20
119.8605604074
 10
137.6215516225
 20
119.9044410306
 10
137.621950575
 20
119.9510587466
 10
137.6224756898
 20
119.9999029999
 10
137.6231212159
 20
120.05043885
 10
137.6238800836
 20
120.1021128299
 10
137.6247439817
 20
120.1543590081
  0
LWPOLYLINE
  5
552
100
AcDbEntity
  8
218
100
AcDbPolyline
 62
250
  6
CONTINUOUS
 90
19
 70
0
 10
145.8491773507
 20
91.9406830042
 10
145.8504858915
 20
91.8622699479
 10
145.8516649826
 20
91.7844534312
 10
145.852705654
 20
91.707825455
 10
145.8535999886
 20
91.6329689786
 10
145.8543411826
 20
91.5604534842
 10
145.8549235973
 20
91.4908306446
 10
145.8553428018
 20
91.4246301264
 10
145.855595607
 20
91.3623555601
 10
145.8556800897
 20
91.3044807092
 10
145.855595607
 20
91.2514458656
 10
145.8553428018
 20
91.2036545
 10
145.8549235973
 20
91.1614701926
 10
145.8543411826
 20
91.125213867
 10
145.8535999886
 20
91.0951613489
 10
145.852705654
 20
91.0715412674
 10
145.8516649826
 20
91.054533316
 10
145.8504858915
 20
91.0442668852
 10
145.8491773507
 20
91.0408200785
  0
LWPOLYLINE
  5
553
100
AcDbEntity
  8
218
100
AcDbPolyline
 62
250
  6
CONTINUOUS
 90
19
 70
0
 10
145.8491773507
 20
102.1650065367
 10
145.8504878972
 20
102.0864675064
 10
145.851668576
 20
102.0085269043
 10
145.8527103705
 20
101.9317796356
 10
145.8536053277
 20
101.8568111841
 10
145.8543466053
 20
101.7841942188
 10
145.854928532
 20
101.7144840993
 10
145.8553466898
 20
101.6482084901
 10
145.8555978414
 20
101.5858782162
 10
145.8556800711
 20
101.5279813196
 10
145.855592888
 20
101.4749636985
 10
145.8553370932
 20
101.4272176806
 10
145.8549146428
 20
101.3850954296
 10
145.8543281417
 20
101.3488868156
 10
145.853582392
 20
101.3189100544
 10
145.8526856178
 20
101.2954461785
 10
145.8516467636
 20
101.2786341224
 10
145.8504740616
 20
101.2685255444
 10
145.8491773507
 20
101.265143611
  0
LWPOLYLINE
  5
554
100
AcDbEntity
  8
218
100
AcDbPolyline
 62
250
  6
CONTINUOUS
 90
70
 70
0
 10
146.1439416288
 20
120.0056558601
 10
146.1440113308
 20
119.9953911116
 10
146.1437681871
 20
119.9848992392
 10
146.1432125447
 20
119.9741853368
 10
146.1423503258
 20
119.9632664859
 10
146.1411763373
 20
119.9521377287
 10
146.13967432
 20
119.9407723479
 10
146.1378465433
 20
119.9291787209
 10
146.1356916659
 20
119.9173658052
 10
146.133188135
 20
119.9053097577
 10
146.1303306233
 20
119.8930006051
 10
146.1271256389
 20
119.8804730566
 10
146.1235694156
 20
119.8677719139
 10
146.1196457876
 20
119.8548802024
 10
146.1153721413
 20
119.8418460469
 10
146.1107947722
 20
119.8288096291
 10
146.1059025105
 20
119.8157811449
 10
146.1007072944
 20
119.8027796434
 10
146.0952895569
 20
119.7899510445
 10
146.0896477714
 20
119.7773175773
 10
146.0837836193
 20
119.7648771725
 10
146.0777818339
 20
119.7527298783
 10
146.0716467785
 20
119.7408945604
 10
146.0653737606
 20
119.7293615437
 10
146.0590335872
 20
119.7181803538
 10
146.0526369487
 20
119.7073688999
 10
146.046172544
 20
119.6969092456
 10
146.0396780857
 20
119.6867939436
 10
146.0331593077
 20
119.6770279072
 10
146.0266098888
 20
119.6676036887
 10
146.0200495287
 20
119.65849648
 10
146.013474702
 20
119.6496993212
 10
146.0068884694
 20
119.6412175323
 10
146.0003204733
 20
119.6330459589
 10
145.9937702867
 20
119.6251820224
 10
145.9872378659
 20
119.617624519
 10
145.9807534363
 20
119.6103700931
 10
145.9743174233
 20
119.6034164244
 10
145.9679289248
 20
119.5967600166
 10
145.9616161804
 20
119.5903954808
 10
145.9553780175
 20
119.5843183572
 10
145.9492151457
 20
119.5785260112
 10
145.9431586283
 20
119.5730153927
 10
145.9372081303
 20
119.5677819864
 10
145.9313635189
 20
119.5628213931
 10
145.9256561518
 20
119.5581300106
 10
145.9200864416
 20
119.5537030532
 10
145.914653507
 20
119.5495347389
 10
145.9093867608
 20
119.5456194277
 10
145.9042856201
 20
119.5419509024
 10
145.8993502165
 20
119.5385239304
 10
145.8946110306
 20
119.5353337872
 10
145.8900660239
 20
119.532371883
 10
145.885716796
 20
119.529634355
 10
145.8815992464
 20
119.5271215001
 10
145.8777209492
 20
119.5248282531
 10
145.8740738314
 20
119.5227429142
 10
145.8706703071
 20
119.5208548148
 10
145.8675137636
 20
119.5191581513
 10
145.8646003829
 20
119.5176434359
 10
145.8619318365
 20
119.5162972243
 10
145.859506485
 20
119.5151139522
 10
145.8573256598
 20
119.5140885426
 10
145.8553955719
 20
119.5132121314
 10
145.8537148956
 20
119.5124803286
 10
145.8522847387
 20
119.5118905924
 10
145.8511150054
 20
119.5114388296
 10
145.8502089317
 20
119.5111215228
 10
145.8495630798
 20
119.5109354344
 10
145.8491773507
 20
119.5108771421
  0
LINE
  5
555
100
AcDbEntity
  8
218
100
AcDbLine
 62
250
  6
CONTINUOUS
 10
145.8491773507
 20
118.6110142164
 11
145.8491773507
 21
109.7447729677
  0
LINE
  5
556
100
AcDbEntity
  8
218
100
AcDbLine
 62
250
  6
CONTINUOUS
 10
145.8491773507
 20
107.7812477854
 11
145.8491773507
 21
102.1650065367
  0
LINE
  5
557
100
AcDbEntity
  8
218
100
AcDbLine
 62
250
  6
CONTINUOUS
 10
145.8491773507
 20
100.7652197635
 11
145.8491773507
 21
99.1057539261
  0
LINE
  5
558
100
AcDbEntity
  8
218
100
AcDbLine
 62
250
  6
CONTINUOUS
 10
145.8491773507
 20
97.620266827
 11
145.8491773507
 21
91.9406830042
  0
LINE
  5
559
100
AcDbEntity
  8
218
100
AcDbLine
 62
250
  6
CONTINUOUS
 10
146.1439416288
 20
120.0056558601
 11
146.1439416288
 21
121.8726436072
  0
LINE
  5
55A
100
AcDbEntity
  8
218
100
AcDbLine
 62
250
  6
CONTINUOUS
 10
146.1439416288
 20
127.053377146
 11
146.1439416288
 21
128.9801926193
  0
LINE
  5
55B
100
AcDbEntity
  8
218
100
AcDbLine
 62
7
  6
CONTINUOUS
 10
146.7334706919
 20
118.7205418253
 11
146.7334715702
 21
118.7520951684
  0
LINE
  5
55C
100
AcDbEntity
  8
218
100
AcDbLine
 62
7
  6
CONTINUOUS
 10
146.7334701849
 20
128.985337749
 11
146.7334701849
 21
127.053377146
  0
LINE
  5
55D
100
AcDbEntity
  8
218
100
AcDbLine
 62
7
  6
CONTINUOUS
 10
146.7334701849
 20
118.6110142164
 11
146.7334701849
 21
111.3752970855
  0
LINE
  5
55E
100
AcDbEntity
  8
218
100
AcDbLine
 62
7
  6
CONTINUOUS
 10
146.7334701849
 20
106.1507236676
 11
146.7334701849
 21
102.1650065367
  0
LINE
  5
55F
100
AcDbEntity
  8
218
100
AcDbLine
 62
7
  6
CONTINUOUS
 10
146.7334701849
 20
102.1107716273
 11
146.7334701849
 21
100.9169177853
  0
LINE
  5
560
100
AcDbEntity
  8
218
100
AcDbLine
 62
7
  6
CONTINUOUS
 10
146.7334701849
 20
95.802009643
 11
146.7334701849
 21
91.9406830042
  0
LINE
  5
561
100
AcDbEntity
  8
218
100
AcDbLine
 62
7
  6
CONTINUOUS
 10
146.7334701849
 20
118.7086545523
 11
146.7334701849
 21
121.8726436072
  0
LINE
  5
562
100
AcDbEntity
  8
218
100
AcDbLine
 62
7
  6
CONTINUOUS
 10
146.7334715485
 20
118.6696325032
 11
146.7334706919
 21
118.7205418253
  0
LWPOLYLINE
  5
563
100
AcDbEntity
  8
218
100
AcDbPolyline
 62
250
  6
CONTINUOUS
 90
13
 70
0
 10
146.7334723984
 20
100.9169192904
 10
146.7334115813
 20
100.906214115
 10
146.7332269262
 20
100.8951472035
 10
146.7329146437
 20
100.8837316835
 10
146.7324704756
 20
100.8720035098
 10
146.7318909991
 20
100.8599538745
 10
146.7311747226
 20
100.8475300314
 10
146.7303190109
 20
100.8347500738
 10
146.7293214654
 20
100.8216269387
 10
146.7281833351
 20
100.8081022742
 10
146.7269048414
 20
100.7941686018
 10
146.7254837604
 20
100.7798684295
 10
146.7239189815
 20
100.7652197694
  0
LINE
  5
564
100
AcDbEntity
  8
218
100
AcDbLine
 62
250
  6
CONTINUOUS
 10
146.1441195974
 20
128.9956249017
 11
146.1439416288
 21
128.9801926193
  0
LWPOLYLINE
  5
565
100
AcDbEntity
  8
218
100
AcDbPolyline
 62
250
  6
CONTINUOUS
 90
53
 70
0
 10
146.1439416288
 20
121.8726436072
 10
146.1442510547
 20
121.8839723508
 10
146.1450621578
 20
121.8951936624
 10
146.146374938
 20
121.906307542
 10
146.1482093945
 20
121.9173443483
 10
146.1505455282
 20
121.9282737227
 10
146.1533233415
 20
121.9390045889
 10
146.1565275175
 20
121.9495016855
 10
146.1601733731
 20
121.959800274
 10
146.1642468609
 20
121.9699150622
 10
146.168742741
 20
121.979831531
 10
146.1736662533
 20
121.9895641995
 10
146.1790190712
 20
121.9991713322
 10
146.1847837854
 20
122.0086368159
 10
146.1909778052
 20
122.0179767638
 10
146.1976550312
 20
122.0272977798
 10
146.2047886664
 20
122.0366172762
 10
146.2124055079
 20
122.0459178408
 10
146.2206398475
 20
122.0552538407
 10
146.2295159544
 20
122.0646515406
 10
146.2390095593
 20
122.074084676
 10
146.2491821462
 20
122.0835288202
 10
146.2600137931
 20
122.0929671457
 10
146.2715244218
 20
122.1024164802
 10
146.2838352817
 20
122.1119028798
 10
146.2969622645
 20
122.1214664453
 10
146.3108894784
 20
122.131067076
 10
146.3256904968
 20
122.1406105259
 10
146.3415157503
 20
122.1501691046
 10
146.3582148084
 20
122.1596705024
 10
146.3754099526
 20
122.1688035452
 10
146.3931569515
 20
122.1775100757
 10
146.4114000366
 20
122.1858482512
 10
146.4295941837
 20
122.1936813685
 10
146.4477031778
 20
122.2009808858
 10
146.4657632339
 20
122.2077753448
 10
146.4833379733
 20
122.2140136678
 10
146.5002940266
 20
122.2196537455
 10
146.5167647632
 20
122.2247376871
 10
146.5327139123
 20
122.2293407429
 10
146.5480838462
 20
122.2334398439
 10
146.5629321926
 20
122.2370580591
 10
146.577395564
 20
122.240339845
 10
146.5915079988
 20
122.2432928455
 10
146.6052354585
 20
122.2459094168
 10
146.6186124407
 20
122.2483110838
 10
146.6316439969
 20
122.2505186325
 10
146.6443250755
 20
122.252511277
 10
146.6566750192
 20
122.2543481847
 10
146.6686503781
 20
122.2560296231
 10
146.6802946022
 20
122.2575553248
 10
146.6917573846
 20
122.2589836541
 10
146.7030459615
 20
122.2603141082
  0
LWPOLYLINE
  5
566
100
AcDbEntity
  8
218
100
AcDbPolyline
 62
250
  6
CONTINUOUS
 90
46
 70
0
 10
146.7334701849
 20
111.3752970855
 10
146.7314927807
 20
111.3076429497
 10
146.7259538128
 20
111.241165449
 10
146.7174286877
 20
111.1758645832
 10
146.7065259858
 20
111.1116369145
 10
146.6937342278
 20
111.0485858808
 10
146.6792973629
 20
110.9870217959
 10
146.6635464789
 20
110.9270132884
 10
146.646837972
 20
110.8684917297
 10
146.6292496879
 20
110.8115615475
 10
146.6110151348
 20
110.7563201775
 10
146.5923575531
 20
110.702670184
 10
146.573203803
 20
110.6504236874
 10
146.5536754038
 20
110.5995774806
 10
146.5339343137
 20
110.5501347707
 10
146.5138742839
 20
110.5019172983
 10
146.4935536496
 20
110.4548714955
 10
146.473095501
 20
110.4090509302
 10
146.4524381741
 20
110.3644380475
 10
146.4316291588
 20
110.3210040888
 10
146.410750329
 20
110.2787778128
 10
146.389764728
 20
110.2378279405
 10
146.36872524
 20
110.1981605225
 10
146.3476771798
 20
110.1597695083
 10
146.3265543476
 20
110.1227054669
 10
146.305403293
 20
110.0869718909
 10
146.2842499285
 20
110.0525652878
 10
146.262980816
 20
110.019525749
 10
146.2416172605
 20
109.9878176034
 10
146.2201883172
 20
109.957476522
 10
146.1985784876
 20
109.9286496101
 10
146.1767935939
 20
109.9012837317
 10
146.1548641432
 20
109.8754320228
 10
146.1327027155
 20
109.8514009963
 10
146.1103171851
 20
109.8291499742
 10
146.0877296166
 20
109.8087196344
 10
146.0648688267
 20
109.7905385244
 10
146.0417238664
 20
109.7745888829
 10
146.0183333998
 20
109.7608884712
 10
145.9946991205
 20
109.74991912
 10
145.9708119193
 20
109.7417542536
 10
145.9467115962
 20
109.7363204477
 10
145.9224744988
 20
109.7338792603
 10
145.8981379862
 20
109.7345178776
 10
145.8736996627
 20
109.7381491134
 10
145.8491773507
 20
109.7447729677
  0
LWPOLYLINE
  5
567
100
AcDbEntity
  8
218
100
AcDbPolyline
 62
250
  6
CONTINUOUS
 90
40
 70
0
 10
147.0073234621
 20
111.1439705275
 10
147.0033567409
 20
111.0819212563
 10
146.996044009
 20
111.0204247455
 10
146.9853852662
 20
110.9597808534
 10
146.9708598087
 20
110.9004016714
 10
146.9529883403
 20
110.8424129551
 10
146.9333329735
 20
110.7856376608
 10
146.9121157856
 20
110.7302786608
 10
146.8891146992
 20
110.6765267414
 10
146.8652255944
 20
110.6241306954
 10
146.8406131493
 20
110.5732703352
 10
146.8151126858
 20
110.5240474566
 10
146.7891260498
 20
110.4760391699
 10
146.7627292654
 20
110.429288652
 10
146.7358463084
 20
110.383936732
 10
146.7086509524
 20
110.3396624936
 10
146.6811563512
 20
110.2964524206
 10
146.6533493508
 20
110.2544451674
 10
146.6253642629
 20
110.2135242311
 10
146.5972110566
 20
110.1737011923
 10
146.5688797626
 20
110.1350601061
 10
146.5404747848
 20
110.0975830962
 10
146.5120259571
 20
110.0613090398
 10
146.4835034455
 20
110.0262761442
 10
146.4549221518
 20
109.9924595146
 10
146.4263149924
 20
109.9598835051
 10
146.3976490509
 20
109.9285844852
 10
146.3688404797
 20
109.8985504339
 10
146.339893174
 20
109.869759689
 10
146.3108032385
 20
109.8422811385
 10
146.2814751397
 20
109.8162362175
 10
146.2519006066
 20
109.7915938466
 10
146.2220879102
 20
109.7684249306
 10
146.191966329
 20
109.7470052531
 10
146.1615306776
 20
109.7273151634
 10
146.1307861414
 20
109.7094103498
 10
146.0996775558
 20
109.6936829574
 10
146.0681865328
 20
109.6802758582
 10
146.0363314605
 20
109.6690793519
 10
146.0041123389
 20
109.6601072219
  0
LWPOLYLINE
  5
568
100
AcDbEntity
  8
218
100
AcDbPolyline
 62
250
  6
CONTINUOUS
 90
13
 70
0
 10
146.7334701849
 20
106.1507236677
 10
146.7357599055
 20
106.1793586299
 10
146.742594084
 20
106.2075563905
 10
146.7538683533
 20
106.2348865258
 10
146.7694105683
 20
106.2609318581
 10
146.7889834447
 20
106.2852948395
 10
146.8122881902
 20
106.3076036157
 10
146.8389690398
 20
106.3275176746
 10
146.8686187084
 20
106.344733069
 10
146.9007846334
 20
106.3589870586
 10
146.9349758331
 20
106.3700620887
 10
146.9706703918
 20
106.3777891205
 10
147.0073234621
 20
106.3820502261
  0
LWPOLYLINE
  5
569
100
AcDbEntity
  8
218
100
AcDbPolyline
 62
250
  6
CONTINUOUS
 90
13
 70
0
 10
146.7334701849
 20
95.802009643
 10
146.7357598942
 20
95.830082358
 10
146.7425940444
 20
95.8577264726
 10
146.753868276
 20
95.8845200147
 10
146.7694104533
 20
95.9100539984
 10
146.788983299
 20
95.9339386775
 10
146.8122880234
 20
95.9558094918
 10
146.8389688655
 20
95.9753326113
 10
146.8686185435
 20
95.9922100531
 10
146.9007844916
 20
96.006184229
 10
146.9349757263
 20
96.0170418522
 10
146.9706703327
 20
96.0246172008
 10
147.0073234621
 20
96.0287946594
  0
LWPOLYLINE
  5
56A
100
AcDbEntity
  8
218
100
AcDbPolyline
 62
250
  6
CONTINUOUS
 90
94
 70
0
 10
146.7239468029
 20
100.7652197675
 10
146.7179713963
 20
100.7180345871
 10
146.7107664144
 20
100.6709938527
 10
146.7024475162
 20
100.6240975642
 10
146.6931441472
 20
100.5773235219
 10
146.6829540317
 20
100.5306939256
 10
146.6719239226
 20
100.4842753747
 10
146.6601000154
 20
100.437922934
 10
146.6476023497
 20
100.3917815388
 10
146.6345815138
 20
100.346352594
 10
146.6211514173
 20
100.3017083266
 10
146.6073818736
 20
100.2577765095
 10
146.5933664163
 20
100.2148418669
 10
146.5791974809
 20
100.1729517953
 10
146.564942304
 20
100.1320588981
 10
146.5506487923
 20
100.0923057098
 10
146.5363879455
 20
100.0537226931
 10
146.5222177303
 20
100.0162793852
 10
146.5081542532
 20
99.9800269321
 10
146.4942548286
 20
99.9449953416
 10
146.4805626714
 20
99.9111546058
 10
146.4670599977
 20
99.8784658471
 10
146.4537880691
 20
99.8469479575
 10
146.4407806634
 20
99.816582045
 10
146.4279968215
 20
99.7872725563
 10
146.4154626317
 20
99.7590240253
 10
146.4032064433
 20
99.731831918
 10
146.3911809325
 20
99.7055870793
 10
146.379403929
 20
99.6802900175
 10
146.3678970142
 20
99.6559402243
 10
146.356611168
 20
99.6324270186
 10
146.3455586442
 20
99.6097488328
 10
146.3347557285
 20
99.5879072345
 10
146.3241540073
 20
99.5667962463
 10
146.3137598667
 20
99.5464093522
 10
146.3035875867
 20
99.5267530683
 10
146.2935966921
 20
99.507740965
 10
146.2837909614
 20
99.4893663833
 10
146.2741818928
 20
99.4716359824
 10
146.2647379448
 20
99.4544833099
 10
146.255463837
 20
99.4379065595
 10
146.2463664581
 20
99.4219075375
 10
146.2374156366
 20
99.4064252114
 10
146.228616531
 20
99.3914602348
 10
146.2199728166
 20
99.377011954
 10
146.2114505594
 20
99.3630173758
 10
146.2030521212
 20
99.3494736426
 10
146.1947817053
 20
99.3363836119
 10
146.1866068608
 20
99.3236928633
 10
146.1785243952
 20
99.3113916776
 10
146.1705423427
 20
99.2994897738
 10
146.1626442491
 20
99.2879618884
 10
146.1548246457
 20
99.2767979389
 10
146.1470928732
 20
99.2660080077
 10
146.1394543947
 20
99.2555970783
 10
146.1319079442
 20
99.2455635198
 10
146.1244583205
 20
99.2359089631
 10
146.1171201262
 20
99.2266432842
 10
146.1098980589
 20
99.2177729143
 10
146.1027907689
 20
99.2092914221
 10
146.0958038203
 20
99.2011893902
 10
146.0889511076
 20
99.19348067
 10
146.0822217327
 20
99.1861514101
 10
146.0755837665
 20
99.1791506385
 10
146.0690559841
 20
99.172489938
 10
146.0626218008
 20
99.1661577259
 10
146.056195437
 20
99.1600682823
 10
146.0497829492
 20
99.1542138281
 10
146.0433792275
 20
99.1486021424
 10
146.03688066
 20
99.1431708431
 10
146.0302700838
 20
99.1378930222
 10
146.023564466
 20
99.1327955878
 10
146.0167106006
 20
99.1278968815
 10
146.0096859704
 20
99.1231761611
 10
146.0025125339
 20
99.1186541688
 10
145.9952036537
 20
99.1144114743
 10
145.9877475381
 20
99.1104460854
 10
145.980155835
 20
99.1067599942
 10
145.9724774064
 20
99.1034397464
 10
145.9647097878
 20
99.1004955061
 10
145.956855983
 20
99.0979171094
 10
145.9489735308
 20
99.0957606091
 10
145.941081915
 20
99.0940387066
 10
145.933162796
 20
99.0927387006
 10
145.9252172101
 20
99.0918785408
 10
145.9172757015
 20
99.0914531153
 10
145.9093089293
 20
99.0914675361
 10
145.9012279043
 20
99.0919550889
 10
145.893040604
 20
99.0928946033
 10
145.884739954
 20
99.0943072498
 10
145.876214059
 20
99.0962898256
 10
145.8674258695
 20
99.0988745965
 10
145.8584134041
 20
99.1020292967
 10
145.8491773507
 20
99.1057539261
  0
LWPOLYLINE
  5
56B
100
AcDbEntity
  8
218
100
AcDbPolyline
 62
250
  6
CONTINUOUS
 90
82
 70
0
 10
146.9946119141
 20
100.5525461796
 10
146.986407628
 20
100.5097144746
 10
146.976866288
 20
100.4669073847
 10
146.9659878942
 20
100.424181214
 10
146.9536632174
 20
100.3816189009
 10
146.9400014868
 20
100.3392438349
 10
146.9253303896
 20
100.297017581
 10
146.9096139753
 20
100.2548547068
 10
146.8928881945
 20
100.2129262773
 10
146.8755885866
 20
100.1715889506
 10
146.857743423
 20
100.1309692178
 10
146.8393244324
 20
100.0910485151
 10
146.8206823407
 20
100.0519823189
 10
146.8018489362
 20
100.0138606412
 10
146.7827924306
 20
99.9766936412
 10
146.7637681855
 20
99.9405189114
 10
146.7448032067
 20
99.9053997163
 10
146.7258704883
 20
99.8713573586
 10
146.7071443743
 20
99.838362534
 10
146.6886517869
 20
99.8064689831
 10
146.6703658039
 20
99.7756910169
 10
146.6523800022
 20
99.7459338971
 10
146.634714838
 20
99.7172335888
 10
146.6173498551
 20
99.689606121
 10
146.6003172613
 20
99.6629198687
 10
146.5836278017
 20
99.6371922023
 10
146.5672707312
 20
99.612444159
 10
146.5512460224
 20
99.5885434521
 10
146.535560213
 20
99.5655001088
 10
146.5202067653
 20
99.5433323165
 10
146.5051660382
 20
99.5219151973
 10
146.4904419555
 20
99.5012543013
 10
146.4760305934
 20
99.4813647709
 10
146.4619005402
 20
99.4621324279
 10
146.4480512553
 20
99.4435565184
 10
146.4344832792
 20
99.4256529694
 10
146.421166822
 20
99.4083299363
 10
146.4080999514
 20
99.3915853353
 10
146.3952845997
 20
99.3754325981
 10
146.3826967738
 20
99.3598013069
 10
146.3703372893
 20
99.344692924
 10
146.3582053308
 20
99.330114693
 10
146.346274458
 20
99.3160035442
 10
146.3345474624
 20
99.302362474
 10
146.3230215526
 20
99.2891951844
 10
146.3116619149
 20
99.2764385984
 10
146.3004688169
 20
99.2640919639
 10
146.2894419909
 20
99.2521611109
 10
146.2785458203
 20
99.2405919785
 10
146.2677738656
 20
99.2293772086
 10
146.2571325664
 20
99.2185280239
 10
146.2466056242
 20
99.2080176794
 10
146.2361836204
 20
99.1978382972
 10
146.2258759737
 20
99.188000907
 10
146.2156946429
 20
99.1785069031
 10
146.2056356
 20
99.1693559672
 10
146.195702873
 20
99.1605512279
 10
146.1859205044
 20
99.1520992032
 10
146.1762925096
 20
99.1440067891
 10
146.1668148733
 20
99.1362696256
 10
146.1574995923
 20
99.1288772701
 10
146.1483634054
 20
99.1218431267
 10
146.1393895739
 20
99.1151559553
 10
146.1305398774
 20
99.1087681026
 10
146.121838663
 20
99.1026906963
 10
146.1132615836
 20
99.0969142153
 10
146.1046973789
 20
99.0913596076
 10
146.0961548152
 20
99.086020238
 10
146.0876251262
 20
99.0809036992
 10
146.0789707522
 20
99.0759518482
 10
146.070170054
 20
99.0711404562
 10
146.0612446709
 20
99.0664942583
 10
146.0521219611
 20
99.0620283659
 10
146.0427723346
 20
99.0577240006
 10
146.0332253812
 20
99.0536004196
 10
146.0234972294
 20
99.0497299085
 10
146.0135715952
 20
99.0461109034
 10
146.0034647624
 20
99.0427456989
 10
145.9932417109
 20
99.0397126325
 10
145.9829241006
 20
99.0370381951
 10
145.9724902717
 20
99.0346968701
 10
145.961940224
 20
99.0326891003
  0
LINE
  5
56C
100
AcDbEntity
  8
218
100
AcDbLine
 62
250
  6
CONTINUOUS
 10
146.1439416288
 20
120.00565586
 11
146.7334701849
 21
120.00565586
  0
LINE
  5
56D
100
AcDbEntity
  8
218
100
AcDbLine
 62
250
  6
CONTINUOUS
 10
126.6181505605
 20
120.1084583766
 11
127.5678612033
 21
120.1084583766
  0
LINE
  5
56E
100
AcDbEntity
  8
218
100
AcDbLine
 62
250
  6
CONTINUOUS
 10
137.6247439817
 20
120.1543590081
 11
136.2491773507
 21
120.154359004
  0
LINE
  5
56F
100
AcDbEntity
  8
218
100
AcDbLine
 62
250
  6
CONTINUOUS
 10
131.466673316
 20
121.1084583766
 11
130.9668256092
 21
121.1084583766
  0
LINE
  5
570
100
AcDbEntity
  8
218
100
AcDbLine
 62
250
  6
CONTINUOUS
 10
130.1170845077
 20
121.1084583766
 11
128.6175413875
 21
121.1084583766
  0
LINE
  5
571
100
AcDbEntity
  8
218
100
AcDbLine
 62
250
  6
CONTINUOUS
 10
128.0677089101
 20
121.1084583766
 11
127.5678612033
 21
121.1084583766
  0
LINE
  5
572
100
AcDbEntity
  8
0
100
AcDbLine
 62
250
  6
CONTINUOUS
 10
106.6834701849
 20
121.1630103766
 11
108.3834701849
 21
121.1630103766
  0
LINE
  5
573
100
AcDbEntity
  8
218
100
AcDbLine
 62
250
  6
CONTINUOUS
 10
146.7334701849
 20
121.8726436072
 11
146.1439416288
 21
121.8726436249
  0
LINE
  5
574
100
AcDbEntity
  8
218
100
AcDbLine
 62
250
  6
CONTINUOUS
 10
127.5678612033
 20
122.1084583766
 11
126.6181505605
 21
122.1084583766
  0
LINE
  5
575
100
AcDbEntity
  8
0
100
AcDbLine
 62
7
  6
CONTINUOUS
 10
109.5334701849
 20
122.3130103766
 11
113.8712868072
 21
122.3130103766
  0
LINE
  5
576
100
AcDbEntity
  8
218
100
AcDbLine
 62
250
  6
CONTINUOUS
 10
130.5169626732
 20
122.4630103766
 11
132.5163535002
 21
122.4630103766
  0
LINE
  5
577
100
AcDbEntity
  8
218
100
AcDbLine
 62
7
  6
CONTINUOUS
 10
145.8491773507
 20
119.5108771421
 11
137.6247439817
 21
119.6544351605
  0
LINE
  5
578
100
AcDbEntity
  8
218
100
AcDbLine
 62
250
  6
CONTINUOUS
 10
137.6247439817
 20
120.1543590081
 11
146.1439416288
 21
120.0056558601
  0
LWPOLYLINE
  5
579
100
AcDbEntity
  8
218
100
AcDbPolyline
 62
250
  6
CONTINUOUS
 90
22
 70
0
 10
137.6247439817
 20
118.7545722349
 10
137.5208303304
 20
118.7603062209
 10
137.4185843667
 20
118.7734805912
 10
137.3180060905
 20
118.794095346
 10
137.2185020161
 20
118.8223577685
 10
137.1206656293
 20
118.8580605755
 10
137.0262773872
 20
118.9005819166
 10
136.935478976
 20
118.9500092749
 10
136.8481287096
 20
119.0062551673
 10
136.7655819867
 20
119.0684352942
 10
136.6878863702
 20
119.1366661365
 10
136.6149942972
 20
119.2108312132
 10
136.5481184779
 20
119.2896967812
 10
136.4873748552
 20
119.3733138572
 10
136.4326474862
 20
119.4616314245
 10
136.3848012529
 20
119.5532626905
 10
136.3439311202
 20
119.6483196639
 10
136.3099421231
 20
119.746690336
 10
136.2834142489
 20
119.8466518883
 10
136.2645408266
 20
119.947630048
 10
136.2531285273
 20
120.0501990879
 10
136.2491773507
 20
120.1543590081
  0
LINE
  5
57A
100
AcDbEntity
  8
218
100
AcDbLine
 62
250
  6
CONTINUOUS
 10
128.6175413875
 20
126.4630103766
 11
129.1573769108
 21
125.8582043766
  0
LWPOLYLINE
  5
57B
100
AcDbEntity
  8
218
100
AcDbPolyline
 62
250
  6
CONTINUOUS
 90
19
 70
0
 10
137.6247439808
 20
119.6544351606
 10
137.6260524921
 20
119.6509885147
 10
137.6272315625
 20
119.640722533
 10
137.6282722217
 20
119.6237152678
 10
137.6291665516
 20
119.6000960705
 10
137.6299077484
 20
119.5700445716
 10
137.6304901729
 20
119.5337892795
 10
137.6309093928
 20
119.4916059162
 10
137.6311622166
 20
119.4438153421
 10
137.6312467189
 20
119.3907810485
 10
137.6311622548
 20
119.3329063881
 10
137.6309094644
 20
119.2706316426
 10
137.6304902702
 20
119.2044306882
 10
137.6299078602
 20
119.1348071591
 10
137.6291666646
 20
119.0622907154
 10
137.6282723236
 20
118.987433183
 10
137.6272316421
 20
118.9108041183
 10
137.6260525369
 20
118.8329864598
 10
137.6247439784
 20
118.754572235
  0
LWPOLYLINE
  5
57C
100
AcDbEntity
  8
218
100
AcDbPolyline
 62
250
  6
CONTINUOUS
 90
13
 70
0
 10
146.7334701849
 20
100.9169168407
 10
146.735759662
 20
100.8889235743
 10
146.742593473
 20
100.8613565152
 10
146.7538673512
 20
100.8346373725
 10
146.7694092775
 20
100.8091739569
 10
146.7889820422
 20
100.7853550322
 10
146.812286811
 20
100.7635443537
 10
146.8389678012
 20
100.7440748897
 10
146.8686177615
 20
100.7272437771
 10
146.900784088
 20
100.7133079353
 10
146.93497577
 20
100.7024800804
 10
146.9706708866
 20
100.6949254803
 10
147.0073245686
 20
100.6907594404
  0
LWPOLYLINE
  5
57D
100
AcDbEntity
  8
218
100
AcDbPolyline
 62
250
  6
CONTINUOUS
 90
13
 70
0
 10
146.7334701849
 20
111.3752970855
 10
146.735759933
 20
111.3466616715
 10
146.7425941775
 20
111.3184635686
 10
146.7538685258
 20
111.2911332007
 10
146.7694108011
 20
111.2650877482
 10
146.7889837
 20
111.2407247415
 10
146.8122884404
 20
111.2184160047
 10
146.8389692534
 20
111.1985020454
 10
146.8686188509
 20
111.1812867997
 10
146.9007847081
 20
111.167032984
 10
146.9349758642
 20
111.1559581524
 10
146.9706703968
 20
111.1482313553
 10
147.0073234621
 20
111.143970527
  0
LINE
  5
57E
100
AcDbEntity
  8
218
100
AcDbLine
 62
7
  6
CONTINUOUS
 10
146.9334701849
 20
113.7630103766
 11
146.9334701849
 21
112.0630103766
  0
LINE
  5
57F
100
AcDbEntity
  8
218
100
AcDbLine
 62
7
  6
CONTINUOUS
 10
146.9334701849
 20
104.9630103766
 11
146.9334701849
 21
103.0630103766
  0
LINE
  5
580
100
AcDbEntity
  8
218
100
AcDbLine
 62
7
  6
CONTINUOUS
 10
146.9334701849
 20
94.8630103766
 11
146.9334701849
 21
92.9630103766
  0
LINE
  5
581
100
AcDbEntity
  8
218
100
AcDbLine
 62
250
  6
CONTINUOUS
 10
147.0073234621
 20
111.8390513193
 11
147.0073234621
 21
111.1439705275
  0
LINE
  5
582
100
AcDbEntity
  8
218
100
AcDbLine
 62
250
  6
CONTINUOUS
 10
147.0073234621
 20
106.3820502256
 11
147.0073234621
 21
105.6869694338
  0
LINE
  5
583
100
AcDbEntity
  8
218
100
AcDbLine
 62
250
  6
CONTINUOUS
 10
147.0073234621
 20
96.0287946596
 11
147.0073234621
 21
95.2869694338
  0
LINE
  5
584
100
AcDbEntity
  8
218
100
AcDbLine
 62
250
  6
CONTINUOUS
 10
147.0073234621
 20
101.4390513193
 11
147.0073245686
 21
100.6907594402
  0
LINE
  5
585
100
AcDbEntity
  8
218
100
AcDbLine
 62
250
  6
CONTINUOUS
 10
148.7596169078
 20
111.6857455077
 11
148.7596169078
 21
105.8402752454
  0
LINE
  5
586
100
AcDbEntity
  8
218
100
AcDbLine
 62
250
  6
CONTINUOUS
 10
148.7596169078
 20
101.2857455077
 11
148.7596169078
 21
95.4402752454
  0
LINE
  5
587
100
AcDbEntity
  8
218
100
AcDbLine
 62
7
  6
CONTINUOUS
 10
149.0334701849
 20
111.3868522142
 11
149.0334701849
 21
106.1391686329
  0
LINE
  5
588
100
AcDbEntity
  8
218
100
AcDbLine
 62
7
  6
CONTINUOUS
 10
149.0334701849
 20
100.9868522139
 11
149.0334701849
 21
95.7391686332
  0
LWPOLYLINE
  5
589
100
AcDbEntity
  8
218
100
AcDbPolyline
 62
250
  6
CONTINUOUS
 90
13
 70
0
 10
147.0073245686
 20
100.6907594402
 10
147.0072523304
 20
100.680635304
 10
147.0070050619
 20
100.6702658284
 10
147.0065827631
 20
100.6596476625
 10
147.0059888474
 20
100.6487752934
 10
147.0052199014
 20
100.6376473926
 10
147.0042656845
 20
100.6262669205
 10
147.003123424
 20
100.6146309812
 10
147.0017958927
 20
100.6027356288
 10
147.0002811682
 20
100.5905823823
 10
146.9985786099
 20
100.5781695078
 10
146.9966888586
 20
100.5654919239
 10
146.9946119141
 20
100.5525461796
  0
LWPOLYLINE
  5
58A
100
AcDbEntity
  8
218
100
AcDbPolyline
 62
250
  6
CONTINUOUS
 90
25
 70
0
 10
148.7387058992
 20
124.4630102778
 10
148.7345099823
 20
124.3284227373
 10
148.722382827
 20
124.1953497228
 10
148.7023244333
 20
124.0637912341
 10
148.6742024805
 20
123.9332954546
 10
148.6381492893
 20
123.804314201
 10
148.5945618216
 20
123.6782029237
 10
148.5433556866
 20
123.5549738675
 10
148.4846152752
 20
123.4346147875
 10
148.418990722
 20
123.3184443996
 10
148.3464109227
 20
123.2065147355
 10
148.2669469816
 20
123.0987737635
 10
148.1814623458
 20
122.9963841032
 10
148.0898883318
 20
122.8993998576
 10
147.9922936232
 20
122.8077669237
 10
147.8897477175
 20
122.7224856131
 10
147.7822198363
 20
122.6436339179
 10
147.6697407581
 20
122.5711338459
 10
147.5534723163
 20
122.5057517313
 10
147.4333325616
 20
122.4475446716
 10
147.3094034433
 20
122.3964555693
 10
147.1830926433
 20
122.3530794669
 10
147.0548693888
 20
122.3176147118
 10
146.9242644526
 20
122.2898629565
 10
146.7912778346
 20
122.2698242011
  0
LINE
  5
58B
100
AcDbEntity
  8
217
100
AcDbLine
 62
250
  6
CONTINUOUS
 10
114.6897446066
 20
122.9630103766
 11
113.8830350325
 21
122.9630103766
  0
LINE
  5
58C
100
AcDbEntity
  8
0
100
AcDbLine
 62
7
  6
CONTINUOUS
 10
109.5334701849
 20
124.0130103766
 11
113.9037444467
 21
124.0130103766
  0
LINE
  5
58D
100
AcDbEntity
  8
218
100
AcDbLine
 62
7
  6
CONTINUOUS
 10
137.1334701849
 20
125.4630103766
 11
137.3334701849
 21
125.4630103766
  0
LWPOLYLINE
  5
58E
100
AcDbEntity
  8
218
100
AcDbPolyline
 62
250
  6
CONTINUOUS
 90
13
 70
0
 10
146.7239454973
 20
100.765208721
 10
146.7293721635
 20
100.7403315581
 10
146.7386588037
 20
100.715783785
 10
146.7516824063
 20
100.6918905636
 10
146.7682704566
 20
100.6689683777
 10
146.788203227
 20
100.6473208625
 10
146.8112166889
 20
100.6272347833
 10
146.8370060018
 20
100.6089762005
 10
146.8652295513
 20
100.5927869684
 10
146.89551348
 20
100.5788815543
 10
146.9274566363
 20
100.5674441578
 10
146.9606358886
 20
100.5586262708
 10
146.9946117315
 20
100.5525446953
  0
LINE
  5
58F
100
AcDbEntity
  8
218
100
AcDbLine
 62
250
  6
CONTINUOUS
 10
146.7986308852
 20
122.2079826022
 11
146.7913712975
 21
122.2698441031
  0
LINE
  5
590
100
AcDbEntity
  8
218
100
AcDbLine
 62
250
  6
CONTINUOUS
 10
130.5169626732
 20
126.4630103766
 11
128.6175413875
 21
126.4630103766
  0
LINE
  5
591
100
AcDbEntity
  8
218
100
AcDbLine
 62
7
  6
CONTINUOUS
 10
137.1334701849
 20
126.48428694
 11
137.3334701849
 21
126.48428694
  0
LINE
  5
592
100
AcDbEntity
  8
218
100
AcDbLine
 62
7
  6
CONTINUOUS
 10
137.1334701849
 20
126.7396061479
 11
137.3334701849
 21
126.7396061479
  0
LINE
  5
593
100
AcDbEntity
  8
218
100
AcDbLine
 62
7
  6
CONTINUOUS
 10
137.1334701849
 20
126.9630103766
 11
137.3334701849
 21
126.9630103766
  0
LINE
  5
594
100
AcDbEntity
  8
218
100
AcDbLine
 62
250
  6
CONTINUOUS
 10
146.7334701849
 20
127.053377146
 11
146.1439416288
 21
127.0533771278
  0
LINE
  5
595
100
AcDbEntity
  8
218
100
AcDbLine
 62
250
  6
CONTINUOUS
 10
125.0334701849
 20
128.1345832518
 11
137.1334701849
 21
128.1345832518
  0
LWPOLYLINE
  5
596
100
AcDbEntity
  8
218
100
AcDbPolyline
 62
250
  6
CONTINUOUS
 90
19
 70
0
 10
145.8491773507
 20
119.5108771421
 10
145.8504858915
 20
119.5074303354
 10
145.8516649826
 20
119.4971639046
 10
145.852705654
 20
119.4801559532
 10
145.8535999886
 20
119.4565358717
 10
145.8543411826
 20
119.4264833536
 10
145.8549235973
 20
119.390227028
 10
145.8553428018
 20
119.3480427206
 10
145.855595607
 20
119.300251355
 10
145.8556800897
 20
119.2472165114
 10
145.855595607
 20
119.1893416605
 10
145.8553428018
 20
119.1270670942
 10
145.8549235973
 20
119.060866576
 10
145.8543411826
 20
118.9912437364
 10
145.8535999886
 20
118.918728242
 10
145.852705654
 20
118.8438717656
 10
145.8516649826
 20
118.7672437894
 10
145.8504858915
 20
118.6894272727
 10
145.8491773507
 20
118.6110142164
  0
LWPOLYLINE
  5
597
100
AcDbEntity
  8
218
100
AcDbPolyline
 62
250
  6
CONTINUOUS
 90
10
 70
0
 10
146.8216356388
 20
126.9540693906
 10
146.8219814524
 20
126.9523776262
 10
146.8219354928
 20
126.9474494436
 10
146.8214982607
 20
126.9393386285
 10
146.8206745357
 20
126.9281337272
 10
146.8194733115
 20
126.9139571239
 10
146.8179077026
 20
126.8969637412
 10
146.8159948182
 20
126.8773392745
 10
146.8137555633
 20
126.8552981189
 10
146.8112144017
 20
126.8310810913
  0
LINE
  5
598
100
AcDbEntity
  8
217
100
AcDbLine
 62
7
  6
CONTINUOUS
 10
125.2332569452
 20
131.373480757
 11
125.0334701849
 21
131.3630103766
  0
LINE
  5
599
100
AcDbEntity
  8
217
100
AcDbLine
 62
7
  6
CONTINUOUS
 10
134.5421963882
 20
132.0289858098
 11
125.0334701849
 21
131.8630103766
  0
LINE
  5
59A
100
AcDbEntity
  8
217
100
AcDbLine
 62
7
  6
CONTINUOUS
 10
135.0334701849
 20
131.4590059223
 11
125.2332569452
 21
131.373480757
  0
LINE
  5
59B
100
AcDbEntity
  8
218
100
AcDbLine
 62
250
  6
CONTINUOUS
 10
146.7334701849
 20
128.9801926193
 11
146.1439416288
 21
128.9801926193
  0
LINE
  5
59C
100
AcDbEntity
  8
218
100
AcDbLine
 62
250
  6
CONTINUOUS
 10
136.2491773507
 20
129.4103658855
 11
125.0334701849
 21
129.5487968142
  0
LINE
  5
59D
100
AcDbEntity
  8
218
100
AcDbLine
 62
250
  6
CONTINUOUS
 10
137.6247439817
 20
129.1288957674
 11
146.1439416288
 21
128.9801926193
  0
LINE
  5
59E
100
AcDbEntity
  8
218
100
AcDbLine
 62
7
  6
CONTINUOUS
 10
136.2491773507
 20
130.0527692979
 11
135.0334701849
 21
130.0739895454
  0
LINE
  5
59F
100
AcDbEntity
  8
218
100
AcDbLine
 62
7
  6
CONTINUOUS
 10
136.2530947785
 20
130.052700919
 11
145.8491773507
 21
129.8852006746
  0
LINE
  5
5A0
100
AcDbEntity
  8
218
100
AcDbLine
 62
7
  6
CONTINUOUS
 10
135.0334701849
 20
131.1384597273
 11
125.0334701849
 21
131.3130103766
  0
LINE
  5
5A1
100
AcDbEntity
  8
217
100
AcDbLine
 62
250
  6
CONTINUOUS
 10
115.4473150153
 20
131.004916233
 11
115.1619615512
 21
131.0167300849
  0
LWPOLYLINE
  5
5A2
100
AcDbEntity
  8
218
100
AcDbPolyline
 62
250
  6
CONTINUOUS
 90
19
 70
0
 10
136.2491773507
 20
129.4103658855
 10
136.3266778737
 20
129.4070407708
 10
136.4034846963
 20
129.3990047319
 10
136.4790261819
 20
129.3863175773
 10
136.5527401114
 20
129.3690737313
 10
136.6240778669
 20
129.3474015318
 10
136.6925085157
 20
129.3214622744
 10
136.7575227611
 20
129.2914490129
 10
136.818636733
 20
129.2575851215
 10
136.8753955892
 20
129.220122633
 10
136.9273769007
 20
129.179340363
 10
136.9741937953
 20
129.1355418344
 10
137.0154978372
 20
129.0890530188
 10
137.0509816201
 20
129.0402199102
 10
137.0803810552
 20
128.9894059502
 10
137.1034773364
 20
128.9369893229
 10
137.1200985691
 20
128.8833601403
 10
137.1301210495
 20
128.8289175388
 10
137.1334701849
 20
128.7740667086
  0
LINE
  5
5A3
100
AcDbEntity
  8
217
100
AcDbLine
 62
250
  6
CONTINUOUS
 10
115.1619615512
 20
131.0167300849
 11
114.9914637241
 21
131.0239060313
  0
LWPOLYLINE
  5
5A4
100
AcDbEntity
  8
218
100
AcDbPolyline
 62
250
  6
CONTINUOUS
 90
13
 70
0
 10
146.7047587055
 20
128.9884823977
 10
146.6827464482
 20
128.989478034
 10
146.6548513218
 20
128.9904293269
 10
146.6213720894
 20
128.9913260879
 10
146.5826673208
 20
128.9921587126
 10
146.5391515525
 20
128.9929182832
 10
146.4912908481
 20
128.9935966646
 10
146.439597806
 20
128.9941865912
 10
146.3846260701
 20
128.9946817448
 10
146.3269643997
 20
128.9950768222
 10
146.2672303639
 20
128.995367592
 10
146.2060637273
 20
128.9955509399
 10
146.144119598
 20
128.9956249024
  0
LWPOLYLINE
  5
5A5
100
AcDbEntity
  8
217
100
AcDbPolyline
 62
250
  6
CONTINUOUS
 90
4
 70
0
 10
114.9914637241
 20
131.0239060313
 10
114.9586750373
 20
131.025353936
 10
114.9570168776
 20
131.0254390509
 10
114.9564642127
 20
131.0254787014
  0
LINE
  5
5A6
100
AcDbEntity
  8
218
100
AcDbLine
 62
250
  6
CONTINUOUS
 10
137.1334701849
 20
129.1529063723
 11
137.6247439817
 21
129.1288957674
  0
LINE
  5
5A7
100
AcDbEntity
  8
218
100
AcDbLine
 62
250
  6
CONTINUOUS
 10
146.758184487
 20
126.6598568357
 11
146.7252215997
 21
126.6632780764
  0
LWPOLYLINE
  5
5A8
100
AcDbEntity
  8
218
100
AcDbPolyline
 62
250
  6
CONTINUOUS
 90
54
 70
0
 10
146.7252215997
 20
126.6632780764
 10
146.7030624457
 20
126.6657049733
 10
146.6917730203
 20
126.6670346099
 10
146.6803067995
 20
126.6684625168
 10
146.6686577131
 20
126.6699879845
 10
146.6566786512
 20
126.6716691899
 10
146.6443273048
 20
126.6735057889
 10
146.6316459828
 20
126.6754981257
 10
146.6186145022
 20
126.677705409
 10
146.605238046
 20
126.6801068225
 10
146.5915114311
 20
126.6827231827
 10
146.5773989255
 20
126.6856761479
 10
146.5629342173
 20
126.6889580357
 10
146.5480836183
 20
126.6925765285
 10
146.5327103316
 20
126.6966763334
 10
146.5167552589
 20
126.7012810684
 10
146.5002774986
 20
126.7063671153
 10
146.4833175486
 20
126.7120083265
 10
146.4657448173
 20
126.718245884
 10
146.4476898964
 20
126.7250386057
 10
146.4295850591
 20
126.7323367972
 10
146.4113921209
 20
126.7401697866
 10
146.3931492663
 20
126.7485082458
 10
146.375403323
 20
126.7572144958
 10
146.3582117427
 20
126.7663457013
 10
146.3415170736
 20
126.7758446978
 10
146.3256937882
 20
126.7854023126
 10
146.3108900728
 20
126.7949475982
 10
146.296957741
 20
126.8045515022
 10
146.2838267057
 20
126.8141176942
 10
146.2715141291
 20
126.8236053668
 10
146.2600028491
 20
126.8330553274
 10
146.2491712918
 20
126.8424936674
 10
146.2389999041
 20
126.8519367425
 10
146.2295082391
 20
126.861368197
 10
146.2206333832
 20
126.8707650551
 10
146.212398677
 20
126.8801020154
 10
146.2047807798
 20
126.8894043792
 10
146.1976467561
 20
126.8987250746
 10
146.1909704967
 20
126.9080458535
 10
146.1847781107
 20
126.9173849639
 10
146.1790149902
 20
126.9268500784
 10
146.1736634647
 20
126.936457978
 10
146.1687412046
 20
126.9461918816
 10
146.1642466128
 20
126.9561091189
 10
146.1601747048
 20
126.9662237734
 10
146.156530465
 20
126.9765217615
 10
146.1533272508
 20
126.9870181625
 10
146.1505493139
 20
126.997748234
 10
146.1482124026
 20
127.0086767183
 10
146.1463771182
 20
127.0197129211
 10
146.1450636614
 20
127.0308266109
 10
146.1442518316
 20
127.0420480192
 10
146.1439416288
 20
127.053377146
  0
LWPOLYLINE
  5
5A9
100
AcDbEntity
  8
218
100
AcDbPolyline
 62
250
  6
CONTINUOUS
 90
3
 70
0
 10
146.7912930326
 20
126.6561951218
 10
146.7802406665
 20
126.6574424123
 10
146.758184487
 20
126.6598568357
  0
LWPOLYLINE
  5
5AA
100
AcDbEntity
  8
218
100
AcDbPolyline
 62
250
  6
CONTINUOUS
 90
25
 70
0
 10
146.7912930326
 20
126.6561951218
 10
146.9242727394
 20
126.6361470678
 10
147.0548464353
 20
126.6084034673
 10
147.1830141203
 20
126.5729643202
 10
147.3092202024
 20
126.5296440489
 10
147.4330202735
 20
126.478628231
 10
147.5530811104
 20
126.4204735997
 10
147.6693652643
 20
126.3551023308
 10
147.7819101839
 20
126.2825922485
 10
147.8894949916
 20
126.2037335581
 10
147.9920652561
 20
126.1184594565
 10
148.0896754087
 20
126.0268367468
 10
148.1812678663
 20
125.9298560446
 10
148.266780145
 20
125.8274575042
 10
148.3462747287
 20
125.7197009714
 10
148.418881486
 20
125.6077565986
 10
148.4845263134
 20
125.4915761031
 10
148.5432833145
 20
125.3712077677
 10
148.5945046683
 20
125.247966593
 10
148.6381071256
 20
125.121839418
 10
148.6741739358
 20
124.9928394038
 10
148.7023070255
 20
124.8623210343
 10
148.7223737038
 20
124.7307358041
 10
148.7345066617
 20
124.5976322186
 10
148.7387058992
 20
124.4630102778
  0
LINE
  5
5AB
100
AcDbEntity
  8
217
100
AcDbLine
 62
7
  6
CONTINUOUS
 10
121.6584701849
 20
134.0908415929
 11
122.5334701849
 21
133.5856601074
  0
LINE
  5
5AC
100
AcDbEntity
  8
217
100
AcDbLine
 62
250
  6
CONTINUOUS
 10
121.7820157521
 20
134.3073479439
 11
122.7820157521
 21
133.7299976747
  0
LINE
  5
5AD
100
AcDbEntity
  8
217
100
AcDbLine
 62
7
  6
CONTINUOUS
 10
124.7957882369
 20
134.3010540687
 11
124.7849246178
 21
134.3073479439
  0
LINE
  5
5AE
100
AcDbEntity
  8
217
100
AcDbLine
 62
7
  6
CONTINUOUS
 10
124.9742957353
 20
134.1977231652
 11
124.7957882369
 21
134.3010540687
  0
LINE
  5
5AF
100
AcDbEntity
  8
217
100
AcDbLine
 62
7
  6
CONTINUOUS
 10
125.025176187
 20
134.168021725
 11
124.9742957353
 21
134.1977231652
  0
LWPOLYLINE
  5
5B0
100
AcDbEntity
  8
217
100
AcDbPolyline
 62
7
  6
CONTINUOUS
 90
4
 70
0
 10
125.0334701849
 20
134.1630103766
 10
125.0331306805
 20
134.163263954
 10
125.0321193101
 20
134.1638893527
 10
125.025176187
 20
134.168021725
  0
LWPOLYLINE
  5
5B1
100
AcDbEntity
  8
217
100
AcDbPolyline
 62
250
  6
CONTINUOUS
 90
43
 70
0
 10
116.394133071
 20
131.9624208312
 10
116.3589972511
 20
131.9599555914
 10
116.3240496541
 20
131.9562691624
 10
116.28929028
 20
131.9513615443
 10
116.2546747821
 20
131.9452235966
 10
116.2202475071
 20
131.9378644597
 10
116.1861414951
 20
131.9293115551
 10
116.1523594907
 20
131.9195604458
 10
116.1188987493
 20
131.9086155687
 10
116.0858840772
 20
131.8965176564
 10
116.0533175125
 20
131.8832625173
 10
116.0211970171
 20
131.8688543429
 10
115.9896412825
 20
131.8533464409
 10
115.9586523329
 20
131.8367347347
 10
115.9282281441
 20
131.8190233009
 10
115.8984813354
 20
131.8002776767
 10
115.8694143256
 20
131.7804939504
 10
115.8410246959
 20
131.7596760337
 10
115.8134178091
 20
131.7379011989
 10
115.7865966645
 20
131.7151659609
 10
115.7605582627
 20
131.6914738047
 10
115.735398969
 20
131.6669124581
 10
115.7111220317
 20
131.6414787001
 10
115.6877242024
 20
131.6151757517
 10
115.665292101
 20
131.5881010031
 10
115.6438292491
 20
131.5602514915
 10
115.6233321251
 20
131.5316301797
 10
115.6038767838
 20
131.5023433462
 10
115.5854671773
 20
131.4723886397
 10
115.5680993535
 20
131.4417684116
 10
115.5518375119
 20
131.4105959943
 10
115.5366857483
 20
131.3788694064
 10
115.5226399669
 20
131.3465906295
 10
115.5097520788
 20
131.3138789403
 10
115.4980262912
 20
131.280732358
 10
115.487458397
 20
131.2471528635
 10
115.4780876853
 20
131.2132656762
 10
115.469918653
 20
131.1790686547
 10
115.4629468032
 20
131.1445639403
 10
115.4571979347
 20
131.1098831766
 10
115.4526806469
 20
131.0750702448
 10
115.4493863405
 20
131.0400812636
 10
115.4473150153
 20
131.004916233
  0
LINE
  5
5B2
100
AcDbEntity
  8
217
100
AcDbLine
 62
250
  6
CONTINUOUS
 10
124.035656514
 20
132.3628961051
 11
116.394133071
 21
131.9624208312
  0
LINE
  5
5B3
100
AcDbEntity
  8
217
100
AcDbLine
 62
7
  6
CONTINUOUS
 10
116.3766912961
 20
132.4617355985
 11
122.6579270429
 21
132.7909212152
  0
LINE
  5
5B4
100
AcDbEntity
  8
217
100
AcDbLine
 62
7
  6
CONTINUOUS
 10
124.0334701849
 20
132.8627184537
 11
122.7603725547
 21
132.7953333258
  0
LINE
  5
5B5
100
AcDbEntity
  8
217
100
AcDbLine
 62
7
  6
CONTINUOUS
 10
122.7603725547
 20
132.7953333258
 11
122.7388962866
 21
132.7943577442
  0
LINE
  5
5B6
100
AcDbEntity
  8
217
100
AcDbLine
 62
7
  6
CONTINUOUS
 10
122.6870127449
 20
132.792250876
 11
122.6579270429
 21
132.7909212152
  0
LINE
  5
5B7
100
AcDbEntity
  8
217
100
AcDbLine
 62
7
  6
CONTINUOUS
 10
122.7388962866
 20
132.7943577442
 11
122.6870127449
 21
132.792250876
  0
LINE
  5
5B8
100
AcDbEntity
  8
217
100
AcDbLine
 62
250
  6
CONTINUOUS
 10
124.0334701849
 20
134.7130146073
 11
121.7820157521
 21
134.6999160286
  0
LINE
  5
5B9
100
AcDbEntity
  8
217
100
AcDbLine
 62
7
  6
CONTINUOUS
 10
124.0334701849
 20
134.9630103766
 11
121.7820157521
 21
134.9499117978
  0
LINE
  5
5BA
100
AcDbEntity
  8
217
100
AcDbLine
 62
250
  6
CONTINUOUS
 10
121.5334701849
 20
134.3073479439
 11
121.7820157521
 21
134.3073479439
  0
LINE
  5
5BB
100
AcDbEntity
  8
217
100
AcDbLine
 62
250
  6
CONTINUOUS
 10
121.5334701849
 20
134.6999160286
 11
121.7820157521
 21
134.6999160286
  0
LINE
  5
5BC
100
AcDbEntity
  8
217
100
AcDbLine
 62
250
  6
CONTINUOUS
 10
125.0334701849
 20
134.7086427733
 11
124.7849246178
 21
134.7086427733
  0
LINE
  5
5BD
100
AcDbEntity
  8
217
100
AcDbLine
 62
7
  6
CONTINUOUS
 10
125.0334701849
 20
134.2571925467
 11
131.5363790506
 21
134.2193597297
  0
LINE
  5
5BE
100
AcDbEntity
  8
217
100
AcDbLine
 62
250
  6
CONTINUOUS
 10
124.7849246178
 20
134.7086427733
 11
124.0334701849
 21
134.7130146073
  0
LINE
  5
5BF
100
AcDbEntity
  8
217
100
AcDbLine
 62
7
  6
CONTINUOUS
 10
124.7849246178
 20
134.9586385426
 11
124.0334701849
 21
134.9630103766
  0
LINE
  5
5C0
100
AcDbEntity
  8
217
100
AcDbLine
 62
250
  6
CONTINUOUS
 10
125.0334701849
 20
132.3541883172
 11
124.035656514
 21
132.3628961051
  0
LINE
  5
5C1
100
AcDbEntity
  8
217
100
AcDbLine
 62
7
  6
CONTINUOUS
 10
134.0421967204
 20
132.7756655433
 11
124.0334701849
 21
132.8630103766
  0
LWPOLYLINE
  5
5C2
100
AcDbEntity
  8
218
100
AcDbPolyline
 62
250
  6
CONTINUOUS
 90
19
 70
0
 10
145.8491773507
 20
129.8852006746
 10
145.8765973112
 20
129.8812692074
 10
145.9033613008
 20
129.8704385551
 10
145.9294592541
 20
129.8527418497
 10
145.9551272867
 20
129.8282035994
 10
145.9801114526
 20
129.7970006425
 10
146.0036712591
 20
129.7596005678
 10
146.0256884847
 20
129.7164433125
 10
146.0462783411
 20
129.6678747613
 10
146.0650564527
 20
129.6144305211
 10
146.0819764492
 20
129.5566564778
 10
146.0970910357
 20
129.49501125
 10
146.1101665491
 20
129.4299430055
 10
146.121186118
 20
129.3619993922
 10
146.1301783015
 20
129.2916888939
 10
146.1369775273
 20
129.219384236
 10
146.1415332509
 20
129.145557159
 10
146.1439109983
 20
129.0707932128
 10
146.1441195974
 20
128.9956249017
  0
LWPOLYLINE
  5
5C3
100
AcDbEntity
  8
0
100
AcDbPolyline
 62
7
  6
CONTINUOUS
 90
10
 70
0
 43
0.3500000006
 10
132.1909313049
 20
154.2130123901
 10
132.2623624878
 20
154.0701500244
 10
132.2623624878
 20
153.9987279053
 10
132.1195091858
 20
153.8558655396
 10
132.0480780029
 20
153.8558655396
 10
131.9766468201
 20
153.9272876587
 10
131.9766468201
 20
153.9987279053
 10
132.0480780029
 20
154.141590271
 10
132.1195091858
 20
154.2130123901
 10
132.1909313049
 20
154.2130123901
  0
LWPOLYLINE
  5
5C4
100
AcDbEntity
  8
218
100
AcDbPolyline
 62
250
  6
CONTINUOUS
 90
4
 70
0
 10
146.7334701849
 20
128.985337749
 10
146.7302571207
 20
128.9864011096
 10
146.7206523378
 20
128.9874530815
 10
146.7047587055
 20
128.9884823977
  0
LWPOLYLINE
  5
5C5
100
AcDbEntity
  8
0
100
AcDbPolyline
 62
7
  6
CONTINUOUS
 90
7
 70
0
 43
0.3500000006
 10
135.7834729614
 20
143.7130182495
 10
134.2834725037
 20
143.7130182495
 10
135.7834729614
 20
145.8558630981
 10
135.7834729614
 20
146.2844320679
 10
135.354894928
 20
146.713019165
 10
134.7120414734
 20
146.713019165
 10
134.2834725037
 20
146.070147583
  0
LWPOLYLINE
  5
5C6
100
AcDbEntity
  8
0
100
AcDbPolyline
 62
7
  6
CONTINUOUS
 90
8
 70
0
 43
0.3500000006
 10
136.6406109009
 20
143.7130182495
 10
137.4977579041
 20
143.7130182495
 10
137.9263268738
 20
144.1415872192
 10
137.9263268738
 20
144.9987251587
 10
137.4977579041
 20
145.4272941284
 10
136.6406109009
 20
145.4272941284
 10
136.6406109009
 20
146.713019165
 10
137.9263268738
 20
146.713019165
  0
LWPOLYLINE
  5
5C7
100
AcDbEntity
  8
0
100
AcDbPolyline
 62
7
  6
CONTINUOUS
 90
7
 70
0
 43
0.3500000006
 10
134.7623632507
 20
153.7130031738
 10
133.262362793
 20
153.7130031738
 10
134.7623632507
 20
155.8558661499
 10
134.7623632507
 20
156.2844351196
 10
134.333794281
 20
156.7130040894
 10
133.6909317627
 20
156.7130040894
 10
133.262362793
 20
156.0701506348
  0
LWPOLYLINE
  5
5C8
100
AcDbEntity
  8
0
100
AcDbPolyline
 62
7
  6
CONTINUOUS
 90
6
 70
0
 43
0.3500000006
 10
127.2623609619
 20
153.7130031738
 10
128.33379245
 20
153.7130031738
 10
128.5480769348
 20
153.9272876587
 10
128.5480769348
 20
154.9987282104
 10
128.1195079651
 20
155.4272971802
 10
127.6909299316
 20
155.4272971802
  0
LWPOLYLINE
  5
5C9
100
AcDbEntity
  8
0
100
AcDbPolyline
 62
7
  6
CONTINUOUS
 90
8
 70
0
 43
0.3500000006
 10
129.405223938
 20
153.7130031738
 10
130.2623618774
 20
153.7130031738
 10
130.6909308472
 20
154.141590271
 10
130.6909308472
 20
154.9987282104
 10
130.2623618774
 20
155.4272971802
 10
129.405223938
 20
155.4272971802
 10
129.405223938
 20
156.7130040894
 10
130.6909308472
 20
156.7130040894
  0
ARC
  5
5CA
100
AcDbEntity
  8
0
100
AcDbCircle
 62
7
  6
CONTINUOUS
 10
128.7166999443
 20
73.1630103766
 40
50.0
100
AcDbArc
 50
344.8012495761
 51
350.1826178994
  0
ARC
  5
5CB
100
AcDbEntity
  8
0
100
AcDbCircle
 62
7
  6
CONTINUOUS
 10
128.7166999443
 20
73.1630103766
 40
50.0
100
AcDbArc
 50
9.8173821006
 51
15.1987504239
  0
ARC
  5
5CC
100
AcDbEntity
  8
0
100
AcDbCircle
 62
7
  6
CONTINUOUS
 10
218.2611061782
 20
73.1630103766
 40
50.0
100
AcDbArc
 50
189.8173821006
 51
195.1987504239
  0
ARC
  5
5CD
100
AcDbEntity
  8
0
100
AcDbCircle
 62
7
  6
CONTINUOUS
 10
218.2611061782
 20
73.1630103766
 40
50.0
100
AcDbArc
 50
164.8012495761
 51
170.1826178994
  0
ARC
  5
5CE
100
AcDbEntity
  8
217
100
AcDbCircle
 62
7
  6
CONTINUOUS
 10
173.3889030612
 20
122.9630103766
 40
1.0
100
AcDbArc
 50
127.1603210507
 51
211.7749525398
  0
ARC
  5
5CF
100
AcDbEntity
  8
217
100
AcDbCircle
 62
7
  6
CONTINUOUS
 10
173.3889030612
 20
122.9630103766
 40
1.0
100
AcDbArc
 50
328.2250474596
 51
52.8396789481
  0
ARC
  5
5D0
100
AcDbEntity
  8
0
100
AcDbCircle
 62
7
  6
CONTINUOUS
 10
173.3889030612
 20
123.1630103766
 40
0.85
100
AcDbArc
 50
0.0
 51
180.0
  0
ARC
  5
5D1
100
AcDbEntity
  8
RACCORDO
100
AcDbCircle
 62
7
  6
CONTINUOUS
 10
176.4852994565
 20
60.1856878238
 40
0.5
100
AcDbArc
 50
270.5000000094
 51
344.8012498905
  0
ARC
  5
5D2
100
AcDbEntity
  8
RACCORDO
100
AcDbCircle
 62
7
  6
CONTINUOUS
 10
176.4852994565
 20
86.1403329293
 40
0.5
100
AcDbArc
 50
15.1987501095
 51
89.4999999906
  0
ARC
  5
5D3
100
AcDbEntity
  8
RACCORDO
100
AcDbCircle
 62
7
  6
CONTINUOUS
 10
170.4925066659
 20
60.1856878238
 40
0.5
100
AcDbArc
 50
195.1987501095
 51
269.4999999906
  0
ARC
  5
5D4
100
AcDbEntity
  8
RACCORDO
100
AcDbCircle
 62
7
  6
CONTINUOUS
 10
170.4925066659
 20
86.1403329293
 40
0.5
100
AcDbArc
 50
90.5000000094
 51
164.8012498905
  0
ARC
  5
5D5
100
AcDbEntity
  8
DRAFT
100
AcDbCircle
 62
7
  6
CONTINUOUS
 10
107.5334701849
 20
73.1630103766
 40
13.5
100
AcDbArc
 50
92.6935918714
 51
87.3064081286
  0
CIRCLE
  5
5D6
100
AcDbEntity
  8
RACCORDO
100
AcDbCircle
 62
250
  6
CONTINUOUS
 10
107.5334701849
 20
73.1630103766
 40
13.4773035143
  0
CIRCLE
  5
5D7
100
AcDbEntity
  8
RACCORDO
100
AcDbCircle
 62
250
  6
CONTINUOUS
 10
107.5334701849
 20
73.1630103766
 40
13.1084066379
  0
CIRCLE
  5
5D8
100
AcDbEntity
  8
RACCORDO
100
AcDbCircle
 62
250
  6
CONTINUOUS
 10
107.5334701849
 20
73.1630103766
 40
8.5254218138
  0
CIRCLE
  5
5D9
100
AcDbEntity
  8
RACCORDO
100
AcDbCircle
 62
250
  6
CONTINUOUS
 10
107.5334701849
 20
73.1630103766
 40
8.4743713822
  0
ARC
  5
5DA
100
AcDbEntity
  8
217
100
AcDbCircle
 62
7
  6
CONTINUOUS
 10
124.7834701849
 20
86.2173779798
 40
0.25
100
AcDbArc
 50
270.3333333333
 51
360.0
  0
ARC
  5
5DB
100
AcDbEntity
  8
217
100
AcDbCircle
 62
7
  6
CONTINUOUS
 10
124.7834701849
 20
86.6186728093
 40
0.25
100
AcDbArc
 50
0.0
 51
60.0
  0
ARC
  5
5DC
100
AcDbEntity
  8
217
100
AcDbCircle
 62
7
  6
CONTINUOUS
 10
121.7834701849
 20
86.2261047245
 40
0.25
100
AcDbArc
 50
180.0
 51
269.6666666667
  0
ARC
  5
5DD
100
AcDbEntity
  8
217
100
AcDbCircle
 62
7
  6
CONTINUOUS
 10
121.7834701849
 20
86.6186728093
 40
0.25
100
AcDbArc
 50
120.0
 51
180.0
  0
ARC
  5
5DE
100
AcDbEntity
  8
217
100
AcDbCircle
 62
7
  6
CONTINUOUS
 10
116.4551952304
 20
89.9622294567
 40
1.5
100
AcDbArc
 50
182.3569499908
 51
267.0
  0
ARC
  5
5DF
100
AcDbEntity
  8
217
100
AcDbCircle
 62
7
  6
CONTINUOUS
 10
131.5334701849
 20
87.2066525619
 40
0.5
100
AcDbArc
 50
270.3333333333
 51
360.0
  0
ARC
  5
5E0
100
AcDbEntity
  8
217
100
AcDbCircle
 62
7
  6
CONTINUOUS
 10
134.0334701849
 20
89.1503171329
 40
1.0
100
AcDbArc
 50
270.5
 51
360.0
  0
ARC
  5
5E1
100
AcDbEntity
  8
218
100
AcDbCircle
 62
7
  6
CONTINUOUS
 10
136.2334701849
 20
91.7731143808
 40
0.9
100
AcDbArc
 50
271.0
 51
360.0
  0
ARC
  5
5E2
100
AcDbEntity
  8
218
100
AcDbCircle
 62
7
  6
CONTINUOUS
 10
145.8334701849
 20
102.1650065367
 40
0.9
100
AcDbArc
 50
271.0
 51
360.0
  0
ARC
  5
5E3
100
AcDbEntity
  8
218
100
AcDbCircle
 62
7
  6
CONTINUOUS
 10
145.8334701849
 20
91.9406830042
 40
0.9
100
AcDbArc
 50
271.0
 51
360.0
  0
ARC
  5
5E4
100
AcDbEntity
  8
218
100
AcDbCircle
 62
7
  6
CONTINUOUS
 10
137.6334701849
 20
100.621661745
 40
0.5
100
AcDbArc
 50
91.0
 51
180.0
  0
ARC
  5
5E5
100
AcDbEntity
  8
218
100
AcDbCircle
 62
7
  6
CONTINUOUS
 10
148.7334701849
 20
100.9868870982
 40
0.3
100
AcDbArc
 50
0.0
 51
85.0
  0
ARC
  5
5E6
100
AcDbEntity
  8
218
100
AcDbCircle
 62
7
  6
CONTINUOUS
 10
148.7334701849
 20
95.7391336549
 40
0.3
100
AcDbArc
 50
275.0
 51
360.0
  0
ARC
  5
5E7
100
AcDbEntity
  8
218
100
AcDbCircle
 62
7
  6
CONTINUOUS
 10
147.0334701849
 20
101.7379097288
 40
0.3
100
AcDbArc
 50
180.0
 51
265.0
  0
ARC
  5
5E8
100
AcDbEntity
  8
218
100
AcDbCircle
 62
7
  6
CONTINUOUS
 10
147.0334701849
 20
94.9881110244
 40
0.3
100
AcDbArc
 50
95.0
 51
180.0
  0
ARC
  5
5E9
100
AcDbEntity
  8
0
100
AcDbCircle
 62
7
  6
CONTINUOUS
 10
109.5334701849
 20
121.1630103766
 40
2.85
100
AcDbArc
 50
90.0
 51
180.0
  0
ARC
  5
5EA
100
AcDbEntity
  8
217
100
AcDbCircle
 62
7
  6
CONTINUOUS
 10
116.4551952304
 20
130.9637912964
 40
1.5
100
AcDbArc
 50
93.0
 51
177.6430500092
  0
ARC
  5
5EB
100
AcDbEntity
  8
0
100
AcDbCircle
 62
7
  6
CONTINUOUS
 10
109.5334701849
 20
121.1630103766
 40
1.15
100
AcDbArc
 50
90.0
 51
180.0
  0
ARC
  5
5EC
100
AcDbEntity
  8
217
100
AcDbCircle
 62
7
  6
CONTINUOUS
 10
121.7834701849
 20
134.6999160286
 40
0.25
100
AcDbArc
 50
90.3333333333
 51
180.0
  0
ARC
  5
5ED
100
AcDbEntity
  8
217
100
AcDbCircle
 62
7
  6
CONTINUOUS
 10
124.7834701849
 20
134.7086427733
 40
0.25
100
AcDbArc
 50
0.0
 51
89.6666666667
  0
ARC
  5
5EE
100
AcDbEntity
  8
217
100
AcDbCircle
 62
7
  6
CONTINUOUS
 10
121.7834701849
 20
134.3073479439
 40
0.25
100
AcDbArc
 50
180.0
 51
240.0
  0
ARC
  5
5EF
100
AcDbEntity
  8
218
100
AcDbCircle
 62
7
  6
CONTINUOUS
 10
145.8334701849
 20
118.6110142164
 40
0.9
100
AcDbArc
 50
0.0
 51
89.0
  0
ARC
  5
5F0
100
AcDbEntity
  8
218
100
AcDbCircle
 62
7
  6
CONTINUOUS
 10
148.7334701849
 20
111.3868870982
 40
0.3
100
AcDbArc
 50
0.0
 51
85.0
  0
ARC
  5
5F1
100
AcDbEntity
  8
218
100
AcDbCircle
 62
7
  6
CONTINUOUS
 10
148.7334701849
 20
106.1391336549
 40
0.3
100
AcDbArc
 50
275.0
 51
360.0
  0
ARC
  5
5F2
100
AcDbEntity
  8
218
100
AcDbCircle
 62
7
  6
CONTINUOUS
 10
147.0334701849
 20
105.3881110244
 40
0.3
100
AcDbArc
 50
95.0
 51
180.0
  0
ARC
  5
5F3
100
AcDbEntity
  8
218
100
AcDbCircle
 62
7
  6
CONTINUOUS
 10
147.0334701849
 20
112.1379097288
 40
0.3
100
AcDbArc
 50
180.0
 51
265.0
  0
ARC
  5
5F4
100
AcDbEntity
  8
218
100
AcDbCircle
 62
7
  6
CONTINUOUS
 10
138.4334701849
 20
122.9630103766
 40
1.5
100
AcDbArc
 50
122.6258489625
 51
237.3741510375
  0
ARC
  5
5F5
100
AcDbEntity
  8
218
100
AcDbCircle
 62
7
  6
CONTINUOUS
 10
137.6334701849
 20
120.1543590081
 40
0.5
100
AcDbArc
 50
180.0
 51
269.0
  0
ARC
  5
5F6
100
AcDbEntity
  8
217
100
AcDbCircle
 62
7
  6
CONTINUOUS
 10
134.0334701849
 20
131.7757036203
 40
1.0
100
AcDbArc
 50
0.0
 51
89.5
  0
ARC
  5
5F7
100
AcDbEntity
  8
218
100
AcDbCircle
 62
7
  6
CONTINUOUS
 10
136.2334701849
 20
129.1529063723
 40
0.9
100
AcDbArc
 50
0.0
 51
89.0
  0
ARC
  5
5F8
100
AcDbEntity
  8
217
100
AcDbCircle
 62
7
  6
CONTINUOUS
 10
131.5334701849
 20
133.7193681913
 40
0.5
100
AcDbArc
 50
0.0
 51
89.6666666667
  0
ARC
  5
5F9
100
AcDbEntity
  8
218
100
AcDbCircle
 62
7
  6
CONTINUOUS
 10
146.5247745328
 20
124.4630103766
 40
2.5086956522
100
AcDbArc
 50
276.7959242612
 51
83.2040757393
  0
ARC
  5
5FA
100
AcDbEntity
  8
218
100
AcDbCircle
 62
7
  6
CONTINUOUS
 10
146.8334701849
 20
121.8726436072
 40
0.1
100
AcDbArc
 50
96.7968245701
 51
180.0
  0
ARC
  5
5FB
100
AcDbEntity
  8
218
100
AcDbCircle
 62
7
  6
CONTINUOUS
 10
145.8334701849
 20
128.985337749
 40
0.9
100
AcDbArc
 50
0.0
 51
89.0
  0
ARC
  5
5FC
100
AcDbEntity
  8
218
100
AcDbCircle
 62
7
  6
CONTINUOUS
 10
146.8334701849
 20
127.0533569711
 40
0.0999982373
100
AcDbArc
 50
180.0
 51
263.2018112936
  0
ARC
  5
5FD
100
AcDbEntity
  8
217
100
AcDbCircle
 62
7
  6
CONTINUOUS
 10
614.5334701849
 20
110.4630103766
 40
500.0
100
AcDbArc
 50
177.6430500092
 51
182.3569499908
  0
ELLIPSE
  5
5FE
100
AcDbEntity
  8
217
100
AcDbEllipse
 62
7
  6
CONTINUOUS
 10
162.7389792252
 20
88.5717562835
 30
0.0
 11
0.4473055582
 21
-0.2236357461
 31
0.0
 40
0.9998096356
 41
-2.6780516535
 42
-1.5707345439
  0
ELLIPSE
  5
5FF
100
AcDbEntity
  8
217
100
AcDbEllipse
 62
7
  6
CONTINUOUS
 10
184.0388268972
 20
132.3542644696
 30
0.0
 11
0.4473055582
 21
-0.2236357461
 31
0.0
 40
0.9998096356
 41
0.4635410001
 42
1.5708581097
  0
ELLIPSE
  5
600
100
AcDbEntity
  8
217
100
AcDbEllipse
 62
7
  6
CONTINUOUS
 10
162.7389792252
 20
132.3542644696
 30
0.0
 11
0.4473055582
 21
0.2236357461
 31
0.0
 40
0.9998096356
 41
1.5707345439
 42
2.6780516535
  0
ELLIPSE
  5
601
100
AcDbEntity
  8
217
100
AcDbEllipse
 62
7
  6
CONTINUOUS
 10
184.0388268972
 20
88.5717562835
 30
0.0
 11
0.4473055582
 21
0.2236357461
 31
0.0
 40
0.9998096356
 41
-1.5708581097
 42
-0.4635410001
  0
ELLIPSE
  5
602
100
AcDbEntity
  8
217
100
AcDbEllipse
 62
7
  6
CONTINUOUS
 10
162.9961795793
 20
132.7975006525
 30
0.0
 11
0.25
 21
0.0
 31
0.0
 40
0.0524077793
 41
-2.6154833905
 42
-1.5707963268
  0
ELLIPSE
  5
603
100
AcDbEntity
  8
217
100
AcDbEllipse
 62
7
  6
CONTINUOUS
 10
164.8816265431
 20
132.7975006525
 30
0.0
 11
0.25
 21
-0.0
 31
0.0
 40
0.0524077793
 41
-1.5707963268
 42
-0.0058177642
  0
ELLIPSE
  5
604
100
AcDbEntity
  8
217
100
AcDbEllipse
 62
7
  6
CONTINUOUS
 10
181.8961795793
 20
132.7975006525
 30
0.0
 11
0.25
 21
-0.0
 31
0.0
 40
0.0524077793
 41
-3.1357748894
 42
-1.5707963268
  0
ELLIPSE
  5
605
100
AcDbEntity
  8
217
100
AcDbEllipse
 62
7
  6
CONTINUOUS
 10
183.7816265431
 20
132.7975006525
 30
0.0
 11
0.25
 21
0.0
 31
0.0
 40
0.0524077793
 41
-1.5707963268
 42
-0.5261092631
  0
ELLIPSE
  5
606
100
AcDbEntity
  8
217
100
AcDbEllipse
 62
7
  6
CONTINUOUS
 10
169.4918204378
 20
88.0892142662
 30
0.0
 11
0.5
 21
0.0
 31
0.0
 40
0.0524077793
 41
1.5707963268
 42
3.1357748894
  0
ELLIPSE
  5
607
100
AcDbEntity
  8
217
100
AcDbEllipse
 62
7
  6
CONTINUOUS
 10
162.9961795793
 20
88.1285201007
 30
0.0
 11
0.25
 21
0.0
 31
0.0
 40
0.0524077793
 41
1.5707963268
 42
2.6154833905
  0
ELLIPSE
  5
608
100
AcDbEntity
  8
217
100
AcDbEllipse
 62
7
  6
CONTINUOUS
 10
169.4918204378
 20
86.6659192915
 30
0.0
 11
0.5
 21
-0.0
 31
0.0
 40
0.0058178298
 41
2.495179495
 42
3.1357748894
  0
ELLIPSE
  5
609
100
AcDbEntity
  8
217
100
AcDbEllipse
 62
7
  6
CONTINUOUS
 10
164.8816265431
 20
88.1285201007
 30
0.0
 11
0.25
 21
0.0
 31
0.0
 40
0.0524077793
 41
0.0058177642
 42
1.5707963268
  0
ELLIPSE
  5
60A
100
AcDbEntity
  8
217
100
AcDbEllipse
 62
7
  6
CONTINUOUS
 10
181.8961795793
 20
88.1285201007
 30
0.0
 11
0.25
 21
-0.0
 31
0.0
 40
0.0524077793
 41
1.5707963268
 42
3.1357748894
  0
ELLIPSE
  5
60B
100
AcDbEntity
  8
217
100
AcDbEllipse
 62
7
  6
CONTINUOUS
 10
177.2859856846
 20
86.6659192915
 30
0.0
 11
0.5
 21
-0.0
 31
0.0
 40
0.0058178298
 41
0.0058177642
 42
0.6464131586
  0
ELLIPSE
  5
60C
100
AcDbEntity
  8
217
100
AcDbEllipse
 62
7
  6
CONTINUOUS
 10
177.2859856846
 20
88.0892142662
 30
0.0
 11
0.5
 21
0.0
 31
0.0
 40
0.0524077793
 41
0.0058177642
 42
1.5707963268
  0
ELLIPSE
  5
60D
100
AcDbEntity
  8
217
100
AcDbEllipse
 62
7
  6
CONTINUOUS
 10
183.7816265431
 20
88.1285201007
 30
0.0
 11
0.25
 21
0.0
 31
0.0
 40
0.0524077793
 41
0.5261092631
 42
1.5707963268
  0
ELLIPSE
  5
60E
100
AcDbEntity
  8
217
100
AcDbEllipse
 62
7
  6
CONTINUOUS
 10
169.4918204378
 20
134.2601014617
 30
0.0
 11
0.5
 21
0.0
 31
0.0
 40
0.0058178298
 41
-3.1357748894
 42
-2.495179495
  0
ELLIPSE
  5
60F
100
AcDbEntity
  8
217
100
AcDbEllipse
 62
7
  6
CONTINUOUS
 10
169.4918204378
 20
132.8368064869
 30
0.0
 11
0.5
 21
0.0
 31
0.0
 40
0.0524077793
 41
-3.1357748894
 42
-1.5707963268
  0
ELLIPSE
  5
610
100
AcDbEntity
  8
217
100
AcDbEllipse
 62
7
  6
CONTINUOUS
 10
177.2859856846
 20
132.8368064869
 30
0.0
 11
0.5
 21
0.0
 31
0.0
 40
0.0524077793
 41
-1.5707963268
 42
-0.0058177642
  0
ELLIPSE
  5
611
100
AcDbEntity
  8
217
100
AcDbEllipse
 62
7
  6
CONTINUOUS
 10
177.2859856846
 20
134.2601014617
 30
0.0
 11
0.5
 21
-0.0
 31
0.0
 40
0.0058178298
 41
-0.6464131586
 42
-0.0058177642
  0
ELLIPSE
  5
612
100
AcDbEntity
  8
218
100
AcDbEllipse
 62
250
  6
CONTINUOUS
 10
136.0204681849
 20
108.0967113766
 30
0.0
 11
0.096675061
 21
-0.0
 31
0.0
 40
1.0
 41
-0.8726582979
 42
0.8726649468
  0
ELLIPSE
  5
613
100
AcDbEntity
  8
218
100
AcDbEllipse
 62
250
  6
CONTINUOUS
 10
135.3282291849
 20
106.2658243766
 30
0.0
 11
0.0
 21
0.096675
 31
0.0
 40
1.0
 41
-4.7123889804
 42
-3.1415926536
  0
ELLIPSE
  5
614
100
AcDbEntity
  8
218
100
AcDbEllipse
 62
250
  6
CONTINUOUS
 10
136.0204681849
 20
106.2658243766
 30
0.0
 11
0.0
 21
0.096675
 31
0.0
 40
1.0
 41
-3.1415926536
 42
-1.5707963268
  0
ELLIPSE
  5
615
100
AcDbEntity
  8
218
100
AcDbEllipse
 62
250
  6
CONTINUOUS
 10
136.0204681849
 20
105.8653133766
 30
0.0
 11
0.096676
 21
0.0
 31
0.0
 40
1.0
 41
0.0
 42
1.5707963268
  0
ELLIPSE
  5
616
100
AcDbEntity
  8
218
100
AcDbEllipse
 62
250
  6
CONTINUOUS
 10
135.7563611849
 20
105.8653133766
 30
0.0
 11
-0.0
 21
0.096675
 31
0.0
 40
1.0
 41
-0.0
 42
1.5707963268
  0
ELLIPSE
  5
617
100
AcDbEntity
  8
218
100
AcDbEllipse
 62
250
  6
CONTINUOUS
 10
135.5630111849
 20
104.7742663766
 30
0.0
 11
-0.0
 21
0.096675
 31
0.0
 40
1.0
 41
-3.1415926536
 42
-1.5707963268
  0
ELLIPSE
  5
618
100
AcDbEntity
  8
218
100
AcDbEllipse
 62
250
  6
CONTINUOUS
 10
135.3282291849
 20
104.7742663766
 30
0.0
 11
0.0
 21
0.096675
 31
0.0
 40
1.0
 41
-4.7123889804
 42
-3.1415926536
  0
ELLIPSE
  5
619
100
AcDbEntity
  8
218
100
AcDbEllipse
 62
250
  6
CONTINUOUS
 10
136.2953701849
 20
103.2959673766
 30
0.0
 11
0.0
 21
0.3038353159
 31
0.0
 40
1.0
 41
-4.0142554599
 42
-1.5707963268
  0
ELLIPSE
  5
61A
100
AcDbEntity
  8
218
100
AcDbEllipse
 62
250
  6
CONTINUOUS
 10
136.2953701849
 20
110.2300533766
 30
0.0
 11
0.303837
 21
-0.0
 31
0.0
 40
1.0
 41
0.0
 42
2.4434591331
  0
ELLIPSE
  5
61B
100
AcDbEntity
  8
218
100
AcDbEllipse
 62
250
  6
CONTINUOUS
 10
133.4402621849
 20
106.7630103766
 30
0.0
 11
-0.0
 21
0.3452682862
 31
0.0
 40
1.0
 41
0.8726652928
 42
2.2689273608
  0
ELLIPSE
  5
61C
100
AcDbEntity
  8
218
100
AcDbEllipse
 62
250
  6
CONTINUOUS
 10
141.0334701849
 20
107.8169683766
 30
0.0
 11
0.983755
 21
0.0
 31
0.0
 40
1.0
 41
-3.1415926536
 42
0.0
  0
ELLIPSE
  5
61D
100
AcDbEntity
  8
218
100
AcDbEllipse
 62
250
  6
CONTINUOUS
 10
141.0334701849
 20
106.9759483766
 30
0.0
 11
0.983755
 21
0.0
 31
0.0
 40
1.0
 41
-3.1415926536
 42
0.0
  0
ELLIPSE
  5
61E
100
AcDbEntity
  8
218
100
AcDbEllipse
 62
250
  6
CONTINUOUS
 10
141.0334701849
 20
106.1349273766
 30
0.0
 11
0.983755
 21
0.0
 31
0.0
 40
1.0
 41
3.1415926536
 42
6.2831853072
  0
ELLIPSE
  5
61F
100
AcDbEntity
  8
217
100
AcDbEllipse
 62
7
  6
CONTINUOUS
 10
134.5334701849
 20
132.5289096574
 30
0.0
 11
0.0
 21
0.5
 31
0.0
 40
1.0
 41
-3.1241393611
 42
-2.2313643779
  0
ELLIPSE
  5
620
100
AcDbEntity
  8
217
100
AcDbEllipse
 62
7
  6
CONTINUOUS
 10
134.5334701849
 20
88.3971110957
 30
0.0
 11
0.0
 21
0.5
 31
0.0
 40
1.0
 41
-0.9102282757
 42
-0.0174532925
  0
ENDSEC
  0
SECTION
  2
OBJECTS
  0
DICTIONARY
  5
C
100
AcDbDictionary
280
0
281
1
  3
ACAD_GROUP
350
D
  3
ACAD_MLINESTYLE
350
17
  3
ACAD_LAYOUT
350
1A
  3
ACAD_PLOTSETTINGS
350
19
  3
ACAD_PLOTSTYLENAME
350
E
  0
DICTIONARY
  5
D
102
{ACAD_REACTORS
330
C
102
}
100
AcDbDictionary
280
0
281
1
  0
ACDBDICTIONARYWDFLT
  5
E
102
{ACAD_REACTORS
330
C
102
}
100
AcDbDictionary
281
1
  3
Normal
350
F
100
AcDbDictionaryWithDefault
340
F
  0
DICTIONARY
  5
17
102
{ACAD_REACTORS
330
C
102
}
100
AcDbDictionary
280
0
281
1
  3
Standard
350
18
  0
DICTIONARY
  5
19
102
{ACAD_REACTORS
330
C
102
}
100
AcDbDictionary
281
1
  0
DICTIONARY
  5
1A
102
{ACAD_REACTORS
330
C
102
}
100
AcDbDictionary
281
1
  3
Model
350
621
  3
Layout1
350
622
  0
ACDBPLACEHOLDER
  5
F
102
{ACAD_REACTORS
330
E
102
}
  0
MLINESTYLE
  5
18
102
{ACAD_REACTORS
330
17
102
}
100
AcDbMlineStyle
  2
STANDARD
 70
0
  3

 62
256
 51
90.0
 52
90.0
 71
2
 49
0.5
 62
256
  6
BYLAYER
 49
-0.5
 62
256
  6
BYLAYER
  0
LAYOUT
  5
621
102
{ACAD_REACTORS
330
1A
102
}
100
AcDbPlotSettings
  1

  2
none_device
  4
ISO_A4_(297.00_x_210.00_MM)
  6

 40
0.0
 41
0.0
 42
0.0
 43
0.0
 44
297.0
 45
210.0
 46
0.0
 47
0.0
 48
0.0
 49
0.0
140
0.0
141
0.0
142
1.0
143
1.0
 70
1024
 72
1
 73
0
 74
0
  7

 75
0
147
1.0
148
0.0
149
0.0
100
AcDbLayout
  1
Model
 70
0
 71
0
 10
0.0
 20
0.0
 11
297.0
 21
210.0
 12
0.0
 22
0.0
 32
0.0
 14
0.0
 24
0.0
 34
0.0
 15
0.0
 25
0.0
 35
0.0
146
0.0
 13
0.0
 23
0.0
 33
0.0
 16
1.0
 26
0.0
 36
0.0
 17
0.0
 27
1.0
 37
0.0
 76
0
330
221
345
0
346
0
  0
LAYOUT
  5
622
102
{ACAD_REACTORS
330
1A
102
}
100
AcDbPlotSettings
  1

  2
none_device
  4
ISO_A4_(297.00_x_210.00_MM)
  6

 40
0.0
 41
0.0
 42
0.0
 43
0.0
 44
297.0
 45
210.0
 46
0.0
 47
0.0
 48
0.0
 49
0.0
140
0.0
141
0.0
142
1.0
143
1.0
 70
0
 72
1
 73
0
 74
0
  7

 75
0
147
1.0
148
0.0
149
0.0
100
AcDbLayout
  1
Layout1
 70
0
 71
1
 10
0.0
 20
0.0
 11
297.0
 21
210.0
 12
0.0
 22
0.0
 32
0.0
 14
0.0
 24
0.0
 34
0.0
 15
0.0
 25
0.0
 35
0.0
146
0.0
 13
0.0
 23
0.0
 33
0.0
 16
1.0
 26
0.0
 36
0.0
 17
0.0
 27
1.0
 37
0.0
 76
0
330
222
345
0
346
0
  0
ENDSEC
  0
EOF
