  0
SECTION
  2
HEADER
  9
$ACADVER
  1
AC1024
  9
$DWGCODEPAGE
  3
ANSI_1252
  9
$EXTMAX
 10
297.0
 20
210.0
 30
0.0
  9
$EXTMIN
 10
0.0
 20
0.0
 30
0.0
  9
$LIMMIN
 10
0.0
 20
0.0
  9
$LIMMAX
 10
297.0
 20
210.0
  9
$VIEWCTR
 10
148.5
 20
105.0
  9
$VIEWSIZE
 40
210.0
  9
$CLAYER
  8
0
  9
$LTSCALE
 40
16.335
  9
$CELTYPE
  6
BYLAYER
  9
$DIMSCALE
 40
1.0
  9
$DIMASZ
 40
3.0
  9
$DIMEXO
 40
0.5
  9
$DIMDLI
 40
11.286
  9
$DIMEXE
 40
1.5
  9
$DIMCEN
 40
2.673
  9
$DIMLFAC
 40
1.0
  9
$DIMBLK
  1
_FILLED
  9
$DIMALT
 70
0
  9
$DIMALTF
 40
0.0393700787
  9
$DIMTXT
 40
3.0
  9
$DIMTOL
 70
1
  9
$DIMLIM
 70
0
  9
$DIMTFAC
 40
1.0
  9
$DIMTP
 40
0.01
  9
$DIMTM
 40
0.01
  9
$DIMGAP
 40
0.625
  9
$DIMDSEP
 70
44
  9
$AUNITS
 70
0
  9
$PDMODE
 70
3
  9
$PDSIZE
 40
3.0
  9
$HANDSEED
  5
5AB
  9
$TILEMODE
 70
1
  9
$MEASUREMENT
 70
1
  9
$INSUNITS
 70
4
  0
ENDSEC
  0
SECTION
  2
CLASSES
  0
CLASS
  1
ACDBDICTIONARYWDFLT
  2
AcDbDictionaryWithDefault
  3
AutoCAD 2000
 90
0
 91
1
280
0
281
0
  0
CLASS
  1
ACDBPLACEHOLDER
  2
AcDbPlaceHolder
  3
AutoCAD 2000
 90
0
 91
1
280
0
281
0
  0
CLASS
  1
LAYOUT
  2
AcDbLayout
  3
AutoCAD 2000
 90
0
 91
0
280
0
281
0
  0
ENDSEC
  0
SECTION
  2
TABLES
  0
TABLE
  2
VPORT
  5
8
100
AcDbSymbolTable
 70
2
  0
VPORT
  5
1F4
100
AcDbSymbolTableRecord
100
AcDbViewportTableRecord
  2
*ACTIVE
 70
0
 10
0.0
 20
0.0
 11
1.0
 21
1.0
 12
148.5
 22
105.0
 13
0.0
 23
0.0
 14
1.0
 24
1.0
 15
0.0
 25
0.0
 16
0.0
 26
0.0
 36
1.0
 17
0.0
 27
0.0
 37
0.0
 40
210.0
 41
1.4142857143
 42
50.0
 43
0.0
 44
0.0
 50
0.0
 51
0.0
 71
0
 72
100
 73
1
 74
1
 75
0
 76
0
 77
0
 78
0
  0
ENDTAB
  0
TABLE
  2
LTYPE
  5
5
100
AcDbSymbolTable
 70
6
  0
LTYPE
  5
14
100
AcDbSymbolTableRecord
100
AcDbLinetypeTableRecord
  2
BYBLOCK
 70
0
  3

 72
65
 73
0
 40
0.0
  0
LTYPE
  5
15
100
AcDbSymbolTableRecord
100
AcDbLinetypeTableRecord
  2
BYLAYER
 70
0
  3

 72
65
 73
0
 40
0.0
  0
LTYPE
  5
16
100
AcDbSymbolTableRecord
100
AcDbLinetypeTableRecord
  2
CONTINUOUS
 70
64
  3
Solid line
 72
65
 73
0
 40
0.0
  0
LTYPE
  5
1F5
100
AcDbSymbolTableRecord
100
AcDbLinetypeTableRecord
  2
CENTER
 70
64
  3
____ _ ____ _ ____ _ ____ _ ____ _ ____ _ ____
 72
65
 73
4
 40
0.6
 49
0.375
 74
0
 49
-0.075
 74
0
 49
0.075
 74
0
 49
-0.075
 74
0
  0
LTYPE
  5
1F6
100
AcDbSymbolTableRecord
100
AcDbLinetypeTableRecord
  2
HIDDEN
 70
64
  3
- - - - - - - - - - - - - - - - - - - -
 72
65
 73
2
 40
0.2
 49
0.1
 74
0
 49
-0.1
 74
0
  0
LTYPE
  5
1F7
100
AcDbSymbolTableRecord
100
AcDbLinetypeTableRecord
  2
PHANTOM
 70
64
  3
_____ _ _ _____ _ _ _____ _ _ _____
 72
65
 73
6
 40
0.8
 49
0.45
 74
0
 49
-0.05
 74
0
 49
0.1
 74
0
 49
-0.05
 74
0
 49
0.1
 74
0
 49
-0.05
 74
0
  0
LTYPE
  5
1F8
100
AcDbSymbolTableRecord
100
AcDbLinetypeTableRecord
  2
DOT
 70
64
  3
. . . . . . . . . . . . . . . . . . . .
 72
65
 73
2
 40
0.2
 49
0.1
 74
0
 49
-0.1
 74
0
  0
LTYPE
  5
1F9
100
AcDbSymbolTableRecord
100
AcDbLinetypeTableRecord
  2
DASHED
 70
64
  3
- - - - - - - - - - - - - - - - - - - -
 72
65
 73
2
 40
0.2
 49
0.1
 74
0
 49
-0.1
 74
0
  0
ENDTAB
  0
TABLE
  2
LAYER
  5
2
100
AcDbSymbolTable
 70
36
  0
LAYER
  5
10
100
AcDbSymbolTableRecord
100
AcDbLayerTableRecord
  2
0
 70
0
 62
7
  6
CONTINUOUS
370
-3
390
F
  0
LAYER
  5
1FA
100
AcDbSymbolTableRecord
100
AcDbLayerTableRecord
  2
DEFAULT_1
 70
0
 62
7
  6
CENTER
370
-3
390
F
  0
LAYER
  5
1FB
100
AcDbSymbolTableRecord
100
AcDbLayerTableRecord
  2
DEFAULT_2
 70
0
 62
7
  6
HIDDEN
370
-3
390
F
  0
LAYER
  5
1FC
100
AcDbSymbolTableRecord
100
AcDbLayerTableRecord
  2
DEFAULT_3
 70
0
 62
7
  6
PHANTOM
370
-3
390
F
  0
LAYER
  5
1FD
100
AcDbSymbolTableRecord
100
AcDbLayerTableRecord
  2
218140580
 70
0
 62
7
  6
CONTINUOUS
370
-3
390
F
  0
LAYER
  5
1FE
100
AcDbSymbolTableRecord
100
AcDbLayerTableRecord
  2
268140580
 70
0
 62
7
  6
CONTINUOUS
370
-3
390
F
  0
LAYER
  5
1FF
100
AcDbSymbolTableRecord
100
AcDbLayerTableRecord
  2
ASSI
 70
0
 62
7
  6
CONTINUOUS
370
-3
390
F
  0
LAYER
  5
200
100
AcDbSymbolTableRecord
100
AcDbLayerTableRecord
  2
COLOR5
 70
0
 62
7
  6
CONTINUOUS
370
-3
390
F
  0
LAYER
  5
201
100
AcDbSymbolTableRecord
100
AcDbLayerTableRecord
  2
COORDINATE
 70
0
 62
7
  6
CONTINUOUS
370
-3
390
F
  0
LAYER
  5
202
100
AcDbSymbolTableRecord
100
AcDbLayerTableRecord
  2
COORD_ORIGINE
 70
0
 62
7
  6
CONTINUOUS
370
-3
390
F
  0
LAYER
  5
203
100
AcDbSymbolTableRecord
100
AcDbLayerTableRecord
  2
COPY-PUBBLISH
 70
0
 62
7
  6
CONTINUOUS
370
-3
390
F
  0
LAYER
  5
204
100
AcDbSymbolTableRecord
100
AcDbLayerTableRecord
  2
COSMETICHE
 70
0
 62
7
  6
CONTINUOUS
370
-3
390
F
  0
LAYER
  5
205
100
AcDbSymbolTableRecord
100
AcDbLayerTableRecord
  2
CURVA_CENTRALE
 70
0
 62
7
  6
CONTINUOUS
370
-3
390
F
  0
LAYER
  5
206
100
AcDbSymbolTableRecord
100
AcDbLayerTableRecord
  2
CURVE
 70
0
 62
7
  6
CONTINUOUS
370
-3
390
F
  0
LAYER
  5
207
100
AcDbSymbolTableRecord
100
AcDbLayerTableRecord
  2
DRAFT
 70
0
 62
7
  6
CONTINUOUS
370
-3
390
F
  0
LAYER
  5
208
100
AcDbSymbolTableRecord
100
AcDbLayerTableRecord
  2
IGES_INCISIONI
 70
0
 62
7
  6
CONTINUOUS
370
-3
390
F
  0
LAYER
  5
209
100
AcDbSymbolTableRecord
100
AcDbLayerTableRecord
  2
INCISIONI_LASER
 70
0
 62
7
  6
CONTINUOUS
370
-3
390
F
  0
LAYER
  5
20A
100
AcDbSymbolTableRecord
100
AcDbLayerTableRecord
  2
INTF_1
 70
0
 62
7
  6
CONTINUOUS
370
-3
390
F
  0
LAYER
  5
20B
100
AcDbSymbolTableRecord
100
AcDbLayerTableRecord
  2
INTF_11
 70
0
 62
7
  6
CONTINUOUS
370
-3
390
F
  0
LAYER
  5
20C
100
AcDbSymbolTableRecord
100
AcDbLayerTableRecord
  2
INTF_2
 70
0
 62
7
  6
CONTINUOUS
370
-3
390
F
  0
LAYER
  5
20D
100
AcDbSymbolTableRecord
100
AcDbLayerTableRecord
  2
INTF_RED
 70
0
 62
7
  6
CONTINUOUS
370
-3
390
F
  0
LAYER
  5
20E
100
AcDbSymbolTableRecord
100
AcDbLayerTableRecord
  2
INTF_YELLOW
 70
0
 62
7
  6
CONTINUOUS
370
-3
390
F
  0
LAYER
  5
20F
100
AcDbSymbolTableRecord
100
AcDbLayerTableRecord
  2
NOTE
 70
0
 62
7
  6
CONTINUOUS
370
-3
390
F
  0
LAYER
  5
210
100
AcDbSymbolTableRecord
100
AcDbLayerTableRecord
  2
PIANI
 70
0
 62
7
  6
CONTINUOUS
370
-3
390
F
  0
LAYER
  5
211
100
AcDbSymbolTableRecord
100
AcDbLayerTableRecord
  2
PIANI_CONTATTI
 70
0
 62
7
  6
CONTINUOUS
370
-3
390
F
  0
LAYER
  5
212
100
AcDbSymbolTableRecord
100
AcDbLayerTableRecord
  2
PIANI_ORIGINE
 70
0
 62
7
  6
CONTINUOUS
370
-3
390
F
  0
LAYER
  5
213
100
AcDbSymbolTableRecord
100
AcDbLayerTableRecord
  2
PIANI_RIFERIMENTO
 70
0
 62
7
  6
CONTINUOUS
370
-3
390
F
  0
LAYER
  5
214
100
AcDbSymbolTableRecord
100
AcDbLayerTableRecord
  2
PIANI_SFORMI
 70
0
 62
7
  6
CONTINUOUS
370
-3
390
F
  0
LAYER
  5
215
100
AcDbSymbolTableRecord
100
AcDbLayerTableRecord
  2
PUNTI
 70
0
 62
7
  6
CONTINUOUS
370
-3
390
F
  0
LAYER
  5
216
100
AcDbSymbolTableRecord
100
AcDbLayerTableRecord
  2
RACCORDO
 70
0
 62
7
  6
CONTINUOUS
370
-3
390
F
  0
LAYER
  5
217
100
AcDbSymbolTableRecord
100
AcDbLayerTableRecord
  2
RGB__255__255__255__
 70
0
 62
7
  6
CONTINUOUS
370
-3
390
F
  0
LAYER
  5
218
100
AcDbSymbolTableRecord
100
AcDbLayerTableRecord
  2
SMUSSO
 70
0
 62
7
  6
CONTINUOUS
370
-3
390
F
  0
LAYER
  5
219
100
AcDbSymbolTableRecord
100
AcDbLayerTableRecord
  2
SNAPLINE
 70
0
 62
7
  6
CONTINUOUS
370
-3
390
F
  0
LAYER
  5
21A
100
AcDbSymbolTableRecord
100
AcDbLayerTableRecord
  2
SUPERFICI
 70
0
 62
7
  6
CONTINUOUS
370
-3
390
F
  0
LAYER
  5
21B
100
AcDbSymbolTableRecord
100
AcDbLayerTableRecord
  2
TRACCIABILITA
 70
0
 62
7
  6
CONTINUOUS
370
-3
390
F
  0
LAYER
  5
21C
100
AcDbSymbolTableRecord
100
AcDbLayerTableRecord
  2
TRASH
 70
0
 62
7
  6
CONTINUOUS
370
-3
390
F
  0
LAYER
  5
21D
100
AcDbSymbolTableRecord
100
AcDbLayerTableRecord
  2
WHITE
 70
0
 62
7
  6
CONTINUOUS
370
-3
390
F
  0
LAYER
  5
21E
100
AcDbSymbolTableRecord
100
AcDbLayerTableRecord
  2
XSEC_DATUMS
 70
0
 62
7
  6
CONTINUOUS
370
-3
390
F
  0
ENDTAB
  0
TABLE
  2
STYLE
  5
3
100
AcDbSymbolTable
 70
1
  0
STYLE
  5
11
100
AcDbSymbolTableRecord
100
AcDbTextStyleTableRecord
  2
STANDARD
 70
0
 40
0.0
 41
0.8
 50
0.0
 71
0
 42
0.2
  3
txt
  4

  0
STYLE
  5
21F
100
AcDbSymbolTableRecord
100
AcDbTextStyleTableRecord
  2
TEXTSTYLE_1
 70
0
 40
0.0
 41
0.8
 50
0.0
 71
0
 42
0.2
  3
gdt
  4

  0
ENDTAB
  0
TABLE
  2
VIEW
  5
6
100
AcDbSymbolTable
 70
0
  0
ENDTAB
  0
TABLE
  2
UCS
  5
7
100
AcDbSymbolTable
 70
0
  0
ENDTAB
  0
TABLE
  2
APPID
  5
9
100
AcDbSymbolTable
 70
1
  0
APPID
  5
220
100
AcDbSymbolTableRecord
100
AcDbRegAppTableRecord
  2
ACAD
 70
0
  0
ENDTAB
  0
TABLE
  2
BLOCK_RECORD
  5
1
100
AcDbSymbolTable
 70
0
  0
BLOCK_RECORD
  5
221
100
AcDbSymbolTableRecord
100
AcDbBlockTableRecord
  2
*Model_Space
  0
BLOCK_RECORD
  5
222
100
AcDbSymbolTableRecord
100
AcDbBlockTableRecord
  2
*Paper_Space
  0
BLOCK_RECORD
  5
223
100
AcDbSymbolTableRecord
100
AcDbBlockTableRecord
  2
_FILLED
  0
BLOCK_RECORD
  5
224
100
AcDbSymbolTableRecord
100
AcDbBlockTableRecord
  2
*D0
  0
BLOCK_RECORD
  5
225
100
AcDbSymbolTableRecord
100
AcDbBlockTableRecord
  2
*D1
  0
BLOCK_RECORD
  5
226
100
AcDbSymbolTableRecord
100
AcDbBlockTableRecord
  2
*D2
  0
BLOCK_RECORD
  5
227
100
AcDbSymbolTableRecord
100
AcDbBlockTableRecord
  2
*D3
  0
ENDTAB
  0
TABLE
  2
DIMSTYLE
  5
A
100
AcDbSymbolTable
 70
1
100
AcDbDimStyleTable
 71
0
  0
DIMSTYLE
105
228
100
AcDbSymbolTableRecord
100
AcDbDimStyleTableRecord
  2
STANDARD
 70
0
  3

  4

 40
1.0
 41
3.0
 42
0.5
 43
0.38
 44
1.5
 45
0.0
 46
0.0
 47
0.01
 48
0.01
140
3.0
141
0.09
142
0.0
143
25.4
144
1.0
145
0.0
146
1.0
147
0.625
 71
1.0
 72
0.0
 73
0
 74
0
 75
0
 76
0
 77
1
 78
8
 79
2
170
0
171
1
172
0
173
0
174
0
175
0
176
0
177
0
178
0
270
2
179
2
271
2
272
2
273
2
274
2
275
0
280
0
281
0
282
0
283
1
284
8
285
0
286
0
287
3
288
0
340
11
278
44
341
223
342
223
343
223
344
223
  0
DIMSTYLE
105
229
100
AcDbSymbolTableRecord
100
AcDbDimStyleTableRecord
  2
DIMSTYLE_1
 70
0
  3

  4

 40
1.0
 41
3.0
 42
0.5
 43
0.38
 44
1.5
 45
0.0
 46
0.0
 47
0.0
 48
0.0
140
3.0
141
0.09
142
0.0
143
25.4
144
1.0
145
0.0
146
1.0
147
0.75
 71
0.0
 72
0.0
 73
0
 74
0
 75
0
 76
0
 77
1
 78
8
 79
2
170
0
171
1
172
0
173
0
174
0
175
0
176
0
177
0
178
0
270
2
179
2
271
2
272
2
273
2
274
2
275
0
280
0
281
0
282
0
283
1
284
8
285
0
286
0
287
3
288
0
340
11
278
44
341
223
342
223
343
223
344
223
  0
DIMSTYLE
105
22A
100
AcDbSymbolTableRecord
100
AcDbDimStyleTableRecord
  2
DIMSTYLE_2
 70
0
  3

  4

 40
1.0
 41
3.0
 42
0.5
 43
0.38
 44
1.5
 45
0.0
 46
0.0
 47
0.0
 48
0.0
140
3.0
141
0.09
142
0.0
143
25.4
144
1.0
145
0.0
146
1.0
147
0.75
 71
0.0
 72
0.0
 73
0
 74
0
 75
0
 76
0
 77
1
 78
8
 79
2
170
0
171
1
172
0
173
0
174
0
175
0
176
0
177
0
178
0
270
2
179
2
271
1
272
1
273
2
274
2
275
0
280
0
281
0
282
0
283
1
284
8
285
0
286
0
287
3
288
0
340
11
278
44
341
223
342
223
343
223
344
223
  0
ENDTAB
  0
ENDSEC
  0
SECTION
  2
BLOCKS
  0
BLOCK
  5
20
100
AcDbEntity
  8
0
100
AcDbBlockBegin
  2
*Model_Space
 70
0
 10
0.0
 20
0.0
 30
0.0
  3
*Model_Space
  1

  0
ENDBLK
  5
21
100
AcDbEntity
  8
0
100
AcDbBlockEnd
  0
BLOCK
  5
1C
100
AcDbEntity
  8
0
100
AcDbBlockBegin
  2
*Paper_Space
 70
0
 10
0.0
 20
0.0
 30
0.0
  3
*Paper_Space
  1

  0
ENDBLK
  5
1D
100
AcDbEntity
  8
0
100
AcDbBlockEnd
  0
BLOCK
  5
22B
100
AcDbEntity
  8
0
100
AcDbBlockBegin
  2
_FILLED
 70
64
 10
0.0
 20
0.0
  3
_FILLED
  1

  0
SOLID
  5
22C
100
AcDbEntity
  8
0
  6
BYBLOCK
 62
0
100
AcDbTrace
 10
0.0
 20
0.0
 11
-1.0
 21
0.3166666667
 12
-1.0
 22
-0.3166666667
 13
-1.0
 23
-0.3166666667
  0
ENDBLK
  5
22D
100
AcDbEntity
  8
0
  6
BYBLOCK
 62
0
100
AcDbBlockEnd
  0
BLOCK
  5
22E
100
AcDbEntity
  8
0
100
AcDbBlockBegin
 62
7
  6
CONTINUOUS
  2
*D0
 70
65
 10
0.0
 20
0.0
  3
*D0
  1

  0
LINE
  5
22F
100
AcDbEntity
  8
0
100
AcDbLine
 62
7
  6
CONTINUOUS
 10
145.1635896314
 20
104.3194565499
 11
145.1635896314
 21
136.1602002953
  0
LINE
  5
230
100
AcDbEntity
  8
0
100
AcDbLine
 62
7
  6
CONTINUOUS
 10
106.6635896314
 20
92.6405838816
 11
106.6635896314
 21
136.1602002953
  0
LINE
  5
231
100
AcDbEntity
  8
0
100
AcDbLine
 62
7
  6
CONTINUOUS
 10
145.1635896314
 20
134.6602002953
 11
125.9135896314
 21
134.6602002953
  0
LINE
  5
232
100
AcDbEntity
  8
0
100
AcDbLine
 62
7
  6
CONTINUOUS
 10
106.6635896314
 20
134.6602002953
 11
125.9135896314
 21
134.6602002953
  0
INSERT
  5
233
100
AcDbEntity
  8
0
100
AcDbBlockReference
 62
7
  6
CONTINUOUS
  2
_FILLED
 10
145.1635896314
 20
134.6602002953
 41
3.0
 42
3.0
 43
3.0
  0
INSERT
  5
234
100
AcDbEntity
  8
0
100
AcDbBlockReference
 62
7
  6
CONTINUOUS
  2
_FILLED
 10
106.6635896314
 20
134.6602002953
 41
3.0
 42
3.0
 43
3.0
 50
180.0
  0
ENDBLK
  5
235
100
AcDbEntity
  8
0
  6
BYBLOCK
 62
0
100
AcDbBlockEnd
  0
BLOCK
  5
236
100
AcDbEntity
  8
0
100
AcDbBlockBegin
 62
7
  6
CONTINUOUS
  2
*D1
 70
65
 10
0.0
 20
0.0
  3
*D1
  1

  0
LINE
  5
237
100
AcDbEntity
  8
0
100
AcDbLine
 62
7
  6
CONTINUOUS
 10
117.1635896314
 20
114.6405838816
 11
117.1635896314
 21
126.1602002953
  0
LINE
  5
238
100
AcDbEntity
  8
0
100
AcDbLine
 62
7
  6
CONTINUOUS
 10
145.1635896314
 20
107.3907072023
 11
145.1635896314
 21
126.1602002953
  0
LINE
  5
239
100
AcDbEntity
  8
0
100
AcDbLine
 62
7
  6
CONTINUOUS
 10
117.1635896314
 20
124.6602002953
 11
131.1635896314
 21
124.6602002953
  0
LINE
  5
23A
100
AcDbEntity
  8
0
100
AcDbLine
 62
7
  6
CONTINUOUS
 10
145.1635896314
 20
124.6602002953
 11
131.1635896314
 21
124.6602002953
  0
INSERT
  5
23B
100
AcDbEntity
  8
0
100
AcDbBlockReference
 62
7
  6
CONTINUOUS
  2
_FILLED
 10
117.1635896314
 20
124.6602002953
 41
3.0
 42
3.0
 43
3.0
 50
180.0
  0
INSERT
  5
23C
100
AcDbEntity
  8
0
100
AcDbBlockReference
 62
7
  6
CONTINUOUS
  2
_FILLED
 10
145.1635896314
 20
124.6602002953
 41
3.0
 42
3.0
 43
3.0
  0
ENDBLK
  5
23D
100
AcDbEntity
  8
0
  6
BYBLOCK
 62
0
100
AcDbBlockEnd
  0
BLOCK
  5
23E
100
AcDbEntity
  8
0
100
AcDbBlockBegin
 62
7
  6
CONTINUOUS
  2
*D2
 70
65
 10
0.0
 20
0.0
  3
*D2
  1

  0
LINE
  5
23F
100
AcDbEntity
  8
0
100
AcDbLine
 62
7
  6
CONTINUOUS
 10
184.8378612487
 20
116.6602002953
 11
195.4378612487
 21
116.6602002953
  0
LINE
  5
240
100
AcDbEntity
  8
0
100
AcDbLine
 62
7
  6
CONTINUOUS
 10
184.8378612487
 20
67.6209674679
 11
195.4378612487
 21
67.6209674679
  0
LINE
  5
241
100
AcDbEntity
  8
0
100
AcDbLine
 62
7
  6
CONTINUOUS
 10
193.9378612487
 20
116.6602002953
 11
193.9378612487
 21
92.1405838816
  0
LINE
  5
242
100
AcDbEntity
  8
0
100
AcDbLine
 62
7
  6
CONTINUOUS
 10
193.9378612487
 20
67.6209674679
 11
193.9378612487
 21
92.1405838816
  0
INSERT
  5
243
100
AcDbEntity
  8
0
100
AcDbBlockReference
 62
7
  6
CONTINUOUS
  2
_FILLED
 10
193.9378612487
 20
116.6602002953
 41
3.0
 42
3.0
 43
3.0
 50
90.0
  0
INSERT
  5
244
100
AcDbEntity
  8
0
100
AcDbBlockReference
 62
7
  6
CONTINUOUS
  2
_FILLED
 10
193.9378612487
 20
67.6209674679
 41
3.0
 42
3.0
 43
3.0
 50
270.0
  0
ENDBLK
  5
245
100
AcDbEntity
  8
0
  6
BYBLOCK
 62
0
100
AcDbBlockEnd
  0
BLOCK
  5
246
100
AcDbEntity
  8
0
100
AcDbBlockBegin
 62
7
  6
CONTINUOUS
  2
*D3
 70
65
 10
0.0
 20
0.0
  3
*D3
  1

  0
LINE
  5
247
100
AcDbEntity
  8
0
100
AcDbLine
 62
7
  6
CONTINUOUS
 10
162.7878612487
 20
114.6405838816
 11
162.7878612487
 21
126.1602002953
  0
LINE
  5
248
100
AcDbEntity
  8
0
100
AcDbLine
 62
7
  6
CONTINUOUS
 10
185.0878612487
 20
114.6405838816
 11
185.0878612487
 21
126.1602002953
  0
LINE
  5
249
100
AcDbEntity
  8
0
100
AcDbLine
 62
7
  6
CONTINUOUS
 10
162.7878612487
 20
124.6602002953
 11
173.9378612487
 21
124.6602002953
  0
LINE
  5
24A
100
AcDbEntity
  8
0
100
AcDbLine
 62
7
  6
CONTINUOUS
 10
185.0878612487
 20
124.6602002953
 11
173.9378612487
 21
124.6602002953
  0
INSERT
  5
24B
100
AcDbEntity
  8
0
100
AcDbBlockReference
 62
7
  6
CONTINUOUS
  2
_FILLED
 10
162.7878612487
 20
124.6602002953
 41
3.0
 42
3.0
 43
3.0
 50
180.0
  0
INSERT
  5
24C
100
AcDbEntity
  8
0
100
AcDbBlockReference
 62
7
  6
CONTINUOUS
  2
_FILLED
 10
185.0878612487
 20
124.6602002953
 41
3.0
 42
3.0
 43
3.0
  0
ENDBLK
  5
24D
100
AcDbEntity
  8
0
  6
BYBLOCK
 62
0
100
AcDbBlockEnd
  0
ENDSEC
  0
SECTION
  2
ENTITIES
  0
DIMENSION
  5
24E
100
AcDbEntity
  8
0
100
AcDbDimension
 62
7
  6
CONTINUOUS
  2
*D0
 10
106.6635896314
 20
134.6602002953
 11
121.7350182029
 21
134.6602002953
 70
160
 71
2
 72
2
 41
0.9
 42
38.5
  3
DIMSTYLE_1
100
AcDbAlignedDimension
 13
145.1635896314
 23
103.8194565499
 14
106.6635896314
 24
92.1405838816
 50
180.0
100
AcDbRotatedDimension
  0
DIMENSION
  5
24F
100
AcDbEntity
  8
0
100
AcDbDimension
 62
7
  6
CONTINUOUS
  2
*D1
 10
145.1635896314
 20
124.6602002953
 11
128.8064467743
 21
124.6602002953
 70
160
 71
2
 72
2
 41
0.9
 42
28.0
  3
DIMSTYLE_1
100
AcDbAlignedDimension
 13
117.1635896314
 23
114.1405838816
 14
145.1635896314
 24
106.8907072023
100
AcDbRotatedDimension
  0
DIMENSION
  5
250
100
AcDbEntity
  8
0
100
AcDbDimension
 62
7
  6
CONTINUOUS
  2
*D2
 10
193.9378612487
 20
67.6209674679
 11
193.9378612487
 21
89.7834410244
 70
160
 71
2
 72
2
 41
0.9
 42
49.0392328274
  3
DIMSTYLE_2
100
AcDbAlignedDimension
 13
184.3378612487
 23
116.6602002953
 14
184.3378612487
 24
67.6209674679
 50
270.0
100
AcDbRotatedDimension
  0
DIMENSION
  5
251
100
AcDbEntity
  8
0
100
AcDbDimension
 62
7
  6
CONTINUOUS
  2
*D3
 10
185.0878612487
 20
124.6602002953
 11
169.652146963
 21
124.6602002953
 70
160
 71
2
 72
2
 41
0.9
 42
22.3
  3
DIMSTYLE_1
100
AcDbAlignedDimension
 13
162.7878612487
 23
114.1405838816
 14
185.0878612487
 24
114.1405838816
100
AcDbRotatedDimension
  0
LWPOLYLINE
  5
252
100
AcDbEntity
  8
0
100
AcDbPolyline
 62
7
  6
CONTINUOUS
 90
5
 70
0
 43
0.3500000006
 10
122.5921610413
 20
137.1244909058
 10
122.9493078918
 20
137.3387753906
 10
122.9493078918
 20
137.9816288452
 10
122.5921610413
 20
138.4101978149
 10
121.7350140381
 20
138.4101978149
  0
LINE
  5
253
100
AcDbEntity
  8
268140580
100
AcDbLine
 62
250
  6
CONTINUOUS
 10
116.1635896314
 20
115.551908747
 11
116.9135896314
 21
115.9849214489
  0
LINE
  5
254
100
AcDbEntity
  8
268140580
100
AcDbLine
 62
7
  6
CONTINUOUS
 10
116.2885896314
 20
115.335402396
 11
117.0385896314
 21
115.7684150979
  0
LINE
  5
255
100
AcDbEntity
  8
268140580
100
AcDbLine
 62
250
  6
CONTINUOUS
 10
116.9135896314
 20
68.2962463143
 11
116.1635896314
 21
68.7292590162
  0
LINE
  5
256
100
AcDbEntity
  8
268140580
100
AcDbLine
 62
7
  6
CONTINUOUS
 10
117.0385896314
 20
68.5127526652
 11
116.2885896314
 21
68.9457653671
  0
LINE
  5
257
100
AcDbEntity
  8
268140580
100
AcDbLine
 62
7
  6
CONTINUOUS
 10
113.9157712653
 20
67.6209674679
 11
116.9157712653
 21
67.6471480713
  0
LINE
  5
258
100
AcDbEntity
  8
268140580
100
AcDbLine
 62
250
  6
CONTINUOUS
 10
113.9135896314
 20
67.8709579486
 11
116.9135896314
 21
67.897138552
  0
LINE
  5
259
100
AcDbEntity
  8
268140580
100
AcDbLine
 62
7
  6
CONTINUOUS
 10
117.1578089279
 20
68.3492603019
 11
123.6679528992
 21
68.4060734677
  0
LINE
  5
25A
100
AcDbEntity
  8
268140580
100
AcDbLine
 62
250
  6
CONTINUOUS
 10
113.9135896314
 20
67.8709579486
 11
113.6635896314
 21
67.8709579486
  0
LINE
  5
25B
100
AcDbEntity
  8
268140580
100
AcDbLine
 62
250
  6
CONTINUOUS
 10
116.9135896314
 20
67.897138552
 11
117.1635896314
 21
67.897138552
  0
LINE
  5
25C
100
AcDbEntity
  8
268140580
100
AcDbLine
 62
250
  6
CONTINUOUS
 10
113.9135896314
 20
68.2962463143
 11
113.6635896314
 21
68.2962463143
  0
LINE
  5
25D
100
AcDbEntity
  8
268140580
100
AcDbLine
 62
250
  6
CONTINUOUS
 10
116.9135896314
 20
68.2962463143
 11
117.1635896314
 21
68.2962463143
  0
LINE
  5
25E
100
AcDbEntity
  8
268140580
100
AcDbLine
 62
250
  6
CONTINUOUS
 10
114.9135896314
 20
69.1622717181
 11
114.6635896314
 21
69.1622717181
  0
LINE
  5
25F
100
AcDbEntity
  8
268140580
100
AcDbLine
 62
250
  6
CONTINUOUS
 10
115.9135896314
 20
69.1622717181
 11
116.1635896314
 21
69.1622717181
  0
LINE
  5
260
100
AcDbEntity
  8
268140580
100
AcDbLine
 62
250
  6
CONTINUOUS
 10
115.9135896314
 20
69.5405838816
 11
116.1635896314
 21
69.5405838816
  0
LINE
  5
261
100
AcDbEntity
  8
268140580
100
AcDbLine
 62
7
  6
CONTINUOUS
 10
114.6635896314
 20
69.8191955505
 11
116.1583596245
 21
69.7408579746
  0
LINE
  5
262
100
AcDbEntity
  8
ASSI
100
AcDbLine
 62
7
  6
CONTINUOUS
 10
108.5051472266
 20
70.1823147237
 11
111.5635896314
 21
70.0220285491
  0
LINE
  5
263
100
AcDbEntity
  8
268140580
100
AcDbLine
 62
250
  6
CONTINUOUS
 10
113.9135896314
 20
115.9849214489
 11
113.7885896314
 21
115.7684150979
  0
LINE
  5
264
100
AcDbEntity
  8
268140580
100
AcDbLine
 62
250
  6
CONTINUOUS
 10
114.6635896314
 20
115.551908747
 11
114.5385896314
 21
115.335402396
  0
LINE
  5
265
100
AcDbEntity
  8
268140580
100
AcDbLine
 62
7
  6
CONTINUOUS
 10
127.1635896314
 20
70.7767317515
 11
117.1635896314
 21
70.7405838816
  0
LINE
  5
266
100
AcDbEntity
  8
268140580
100
AcDbLine
 62
7
  6
CONTINUOUS
 10
115.960476744
 20
69.7405838816
 11
126.1635896314
 21
69.7405838816
  0
LINE
  5
267
100
AcDbEntity
  8
268140580
100
AcDbLine
 62
250
  6
CONTINUOUS
 10
116.1670830375
 20
70.1405838816
 11
117.1635896314
 21
70.1405838816
  0
LINE
  5
268
100
AcDbEntity
  8
ASSI
100
AcDbLine
 62
7
  6
CONTINUOUS
 10
117.1635896314
 20
71.2905838816
 11
127.1635896314
 21
71.2905838816
  0
LINE
  5
269
100
AcDbEntity
  8
268140580
100
AcDbLine
 62
7
  6
CONTINUOUS
 10
115.4583539095
 20
71.3405838816
 11
114.6635896314
 21
71.3405838816
  0
LINE
  5
26A
100
AcDbEntity
  8
268140580
100
AcDbLine
 62
7
  6
CONTINUOUS
 10
127.1635896314
 20
71.1533152037
 11
117.1635896314
 21
71.2405838816
  0
LINE
  5
26B
100
AcDbEntity
  8
ASSI
100
AcDbLine
 62
7
  6
CONTINUOUS
 10
111.5635896314
 20
71.6510569205
 11
112.1635896314
 21
71.6405838816
  0
LINE
  5
26C
100
AcDbEntity
  8
268140580
100
AcDbLine
 62
250
  6
CONTINUOUS
 10
114.6635896314
 20
70.2193786322
 11
116.1670830375
 21
70.1405838816
  0
LINE
  5
26D
100
AcDbEntity
  8
ASSI
100
AcDbLine
 62
250
  6
CONTINUOUS
 10
108.5225890015
 20
70.681629491
 11
111.5635896314
 21
70.5222574012
  0
LINE
  5
26E
100
AcDbEntity
  8
268140580
100
AcDbLine
 62
250
  6
CONTINUOUS
 10
113.9135896314
 20
68.2962463143
 11
113.7885896314
 21
68.5127526652
  0
LINE
  5
26F
100
AcDbEntity
  8
268140580
100
AcDbLine
 62
250
  6
CONTINUOUS
 10
114.6635896314
 20
68.7292590162
 11
114.5385896314
 21
68.9457653671
  0
LINE
  5
270
100
AcDbEntity
  8
ASSI
100
AcDbLine
 62
250
  6
CONTINUOUS
 10
133.6548634282
 20
73.6427580135
 11
133.1635896314
 21
73.6170323654
  0
LINE
  5
271
100
AcDbEntity
  8
ASSI
100
AcDbLine
 62
250
  6
CONTINUOUS
 10
107.5757676087
 20
71.6392152447
 11
107.0849264682
 21
71.6186938218
  0
LINE
  5
272
100
AcDbEntity
  8
ASSI
100
AcDbLine
 62
7
  6
CONTINUOUS
 10
142.1810420379
 20
72.7917353195
 11
127.1635896314
 21
72.5296047127
  0
LINE
  5
273
100
AcDbEntity
  8
ASSI
100
AcDbLine
 62
250
  6
CONTINUOUS
 10
132.1810420379
 20
72.91003328
 11
127.1635896314
 21
72.8224533225
  0
LINE
  5
274
100
AcDbEntity
  8
ASSI
100
AcDbLine
 62
250
  6
CONTINUOUS
 10
142.1810420379
 20
73.7915830147
 11
133.6548634282
 21
73.6427580135
  0
LINE
  5
275
100
AcDbEntity
  8
ASSI
100
AcDbLine
 62
250
  6
CONTINUOUS
 10
117.1635896314
 20
73.0548866621
 11
132.1810420379
 21
73.1634647145
  0
LINE
  5
276
100
AcDbEntity
  8
268140580
100
AcDbLine
 62
250
  6
CONTINUOUS
 10
112.7635896314
 20
72.7046616404
 11
113.0583539095
 21
72.7046616404
  0
LINE
  5
277
100
AcDbEntity
  8
268140580
100
AcDbLine
 62
250
  6
CONTINUOUS
 10
113.0583539095
 20
72.7046616404
 11
114.6635896314
 21
72.6952740547
  0
LINE
  5
278
100
AcDbEntity
  8
268140580
100
AcDbLine
 62
7
  6
CONTINUOUS
 10
113.0583538869
 20
72.1686033757
 11
114.6635896314
 21
72.1405838816
  0
LINE
  5
279
100
AcDbEntity
  8
ASSI
100
AcDbLine
 62
7
  6
CONTINUOUS
 10
144.8897363543
 20
77.0916021514
 11
143.1635896314
 21
76.9405838816
  0
LINE
  5
27A
100
AcDbEntity
  8
ASSI
100
AcDbLine
 62
250
  6
CONTINUOUS
 10
117.1635896314
 20
74.4688848329
 11
132.1810420379
 21
74.5774628853
  0
LINE
  5
27B
100
AcDbEntity
  8
ASSI
100
AcDbLine
 62
250
  6
CONTINUOUS
 10
143.1635896314
 20
73.7915830147
 11
142.1810420379
 21
73.7915830147
  0
LINE
  5
27C
100
AcDbEntity
  8
ASSI
100
AcDbLine
 62
250
  6
CONTINUOUS
 10
132.1810420379
 20
74.5774628853
 11
133.1635896314
 21
74.5774628853
  0
LINE
  5
27D
100
AcDbEntity
  8
268140580
100
AcDbLine
 62
7
  6
CONTINUOUS
 10
112.7635896314
 20
75.3405838816
 11
112.1635896314
 21
75.3405838816
  0
LINE
  5
27E
100
AcDbEntity
  8
268140580
100
AcDbLine
 62
250
  6
CONTINUOUS
 10
113.0583539095
 20
75.6405838816
 11
112.1635896314
 21
75.6405838816
  0
LINE
  5
27F
100
AcDbEntity
  8
ASSI
100
AcDbLine
 62
7
  6
CONTINUOUS
 10
111.5635896314
 20
70.0220285491
 11
111.5635896314
 21
71.6510569205
  0
LINE
  5
280
100
AcDbEntity
  8
ASSI
100
AcDbLine
 62
7
  6
CONTINUOUS
 10
111.5635896314
 20
112.6301108426
 11
111.5635896314
 21
114.259139214
  0
LINE
  5
281
100
AcDbEntity
  8
INCISIONI_LASER
100
AcDbLine
 62
250
  6
CONTINUOUS
 10
122.6470821196
 20
108.1405838816
 11
119.7479644208
 21
107.1325188816
  0
LINE
  5
282
100
AcDbEntity
  8
INCISIONI_LASER
100
AcDbLine
 62
250
  6
CONTINUOUS
 10
122.0326303304
 20
107.3051678816
 11
122.6470821196
 21
107.5141578816
  0
LINE
  5
283
100
AcDbEntity
  8
INCISIONI_LASER
100
AcDbLine
 62
250
  6
CONTINUOUS
 10
120.3021195812
 20
106.7470328816
 11
121.5508441207
 21
107.1484528816
  0
LINE
  5
284
100
AcDbEntity
  8
INCISIONI_LASER
100
AcDbLine
 62
250
  6
CONTINUOUS
 10
121.7603486314
 20
77.3617448816
 11
119.7634516314
 21
78.0028698816
  0
LINE
  5
285
100
AcDbEntity
  8
INCISIONI_LASER
100
AcDbLine
 62
250
  6
CONTINUOUS
 10
119.7634516314
 20
78.5828988816
 11
122.6635826314
 21
77.6517598816
  0
LINE
  5
286
100
AcDbEntity
  8
268140580
100
AcDbLine
 62
250
  6
CONTINUOUS
 10
113.9135896314
 20
67.8709579486
 11
113.9157712653
 21
67.6209674679
  0
LINE
  5
287
100
AcDbEntity
  8
ASSI
100
AcDbLine
 62
7
  6
CONTINUOUS
 10
112.1635896314
 20
112.6405838816
 11
112.1635896314
 21
71.6405838816
  0
LINE
  5
288
100
AcDbEntity
  8
DRAFT
100
AcDbLine
 62
7
  6
CONTINUOUS
 10
112.2988044174
 20
91.5405838816
 11
112.2988044174
 21
92.7405838816
  0
LINE
  5
289
100
AcDbEntity
  8
268140580
100
AcDbLine
 62
7
  6
CONTINUOUS
 10
112.7635896314
 20
95.540629573
 11
112.7635896314
 21
94.5121953462
  0
LINE
  5
28A
100
AcDbEntity
  8
268140580
100
AcDbLine
 62
7
  6
CONTINUOUS
 10
112.7635896314
 20
89.768972417
 11
112.7635896314
 21
88.7405381901
  0
LINE
  5
28B
100
AcDbEntity
  8
268140580
100
AcDbLine
 62
7
  6
CONTINUOUS
 10
112.7635896314
 20
72.4685596251
 11
112.7635896314
 21
75.340629573
  0
LINE
  5
28C
100
AcDbEntity
  8
268140580
100
AcDbLine
 62
7
  6
CONTINUOUS
 10
112.7635896314
 20
108.9405381901
 11
112.7635896314
 21
111.8126081381
  0
LINE
  5
28D
100
AcDbEntity
  8
268140580
100
AcDbLine
 62
250
  6
CONTINUOUS
 10
113.0583539095
 20
111.5765061227
 11
113.0583539095
 21
108.6405838816
  0
LINE
  5
28E
100
AcDbEntity
  8
268140580
100
AcDbLine
 62
250
  6
CONTINUOUS
 10
113.0583539095
 20
95.8405838816
 11
113.0583539095
 21
94.5121953462
  0
LINE
  5
28F
100
AcDbEntity
  8
268140580
100
AcDbLine
 62
250
  6
CONTINUOUS
 10
113.0583539095
 20
89.768972417
 11
113.0583539095
 21
88.4405838816
  0
LINE
  5
290
100
AcDbEntity
  8
268140580
100
AcDbLine
 62
250
  6
CONTINUOUS
 10
113.0583539095
 20
75.6405838816
 11
113.0583539095
 21
72.7046616404
  0
LINE
  5
291
100
AcDbEntity
  8
268140580
100
AcDbLine
 62
7
  6
CONTINUOUS
 10
113.6635896314
 20
116.4102098145
 11
113.6635896314
 21
115.9849214489
  0
LINE
  5
292
100
AcDbEntity
  8
268140580
100
AcDbLine
 62
7
  6
CONTINUOUS
 10
113.6635896314
 20
68.2962463143
 11
113.6635896314
 21
67.8709579486
  0
LINE
  5
293
100
AcDbEntity
  8
268140580
100
AcDbLine
 62
250
  6
CONTINUOUS
 10
113.9135896314
 20
116.4102098145
 11
113.9157712653
 21
116.6602002953
  0
LWPOLYLINE
  5
294
100
AcDbEntity
  8
0
100
AcDbPolyline
 62
7
  6
CONTINUOUS
 90
3
 70
0
 43
0.3500000006
 10
126.9493000488
 20
135.6959216309
 10
126.8778779297
 20
135.481637146
 10
126.735015564
 20
135.1959124146
  0
LINE
  5
295
100
AcDbEntity
  8
INCISIONI_LASER
100
AcDbLine
 62
7
  6
CONTINUOUS
 10
120.4714640114
 20
104.4693378816
 11
121.0539080114
 21
105.0517818816
  0
LINE
  5
296
100
AcDbEntity
  8
INCISIONI_LASER
100
AcDbLine
 62
7
  6
CONTINUOUS
 10
121.6924026315
 20
105.6902765016
 11
122.1256955722
 21
106.1235694424
  0
LINE
  5
297
100
AcDbEntity
  8
INCISIONI_LASER
100
AcDbLine
 62
250
  6
CONTINUOUS
 10
124.4350181867
 20
105.1334409921
 11
124.7064467419
 21
105.2691552131
  0
LINE
  5
298
100
AcDbEntity
  8
INCISIONI_LASER
100
AcDbLine
 62
250
  6
CONTINUOUS
 10
119.7479644208
 20
103.3567228816
 11
122.0453784463
 21
104.4693378816
  0
LINE
  5
299
100
AcDbEntity
  8
INCISIONI_LASER
100
AcDbLine
 62
250
  6
CONTINUOUS
 10
122.6470821196
 20
104.1681298816
 11
120.2207173827
 21
103.0153538816
  0
LINE
  5
29A
100
AcDbEntity
  8
268140580
100
AcDbLine
 62
250
  6
CONTINUOUS
 10
112.1635896314
 20
78.2533542484
 11
115.1635896314
 21
78.3057194432
  0
LINE
  5
29B
100
AcDbEntity
  8
268140580
100
AcDbLine
 62
7
  6
CONTINUOUS
 10
112.1635896314
 20
78.5533085569
 11
115.1635896314
 21
78.6056737517
  0
LINE
  5
29C
100
AcDbEntity
  8
INCISIONI_LASER
100
AcDbLine
 62
250
  6
CONTINUOUS
 10
122.6635896314
 20
78.9695698816
 11
119.7634516314
 21
78.9695778816
  0
LINE
  5
29D
100
AcDbEntity
  8
INCISIONI_LASER
100
AcDbLine
 62
250
  6
CONTINUOUS
 10
119.7634516314
 20
79.5495988816
 11
122.6635826314
 21
79.5495918816
  0
LINE
  5
29E
100
AcDbEntity
  8
RACCORDO
100
AcDbLine
 62
7
  6
CONTINUOUS
 10
115.1635896314
 20
79.5905838816
 11
112.1635896314
 21
79.5905838816
  0
LINE
  5
29F
100
AcDbEntity
  8
268140580
100
AcDbLine
 62
250
  6
CONTINUOUS
 10
113.9135896314
 20
116.4102098145
 11
113.9135896314
 21
115.9849214489
  0
LINE
  5
2A0
100
AcDbEntity
  8
268140580
100
AcDbLine
 62
250
  6
CONTINUOUS
 10
113.9135896314
 20
68.2962463143
 11
113.9135896314
 21
67.8709579486
  0
LINE
  5
2A1
100
AcDbEntity
  8
268140580
100
AcDbLine
 62
7
  6
CONTINUOUS
 10
114.1635896314
 20
94.4929033849
 11
114.1635896314
 21
89.7882643782
  0
LINE
  5
2A2
100
AcDbEntity
  8
268140580
100
AcDbLine
 62
7
  6
CONTINUOUS
 10
114.6635896314
 20
69.1622717181
 11
114.6635896314
 21
72.6952740547
  0
LINE
  5
2A3
100
AcDbEntity
  8
268140580
100
AcDbLine
 62
7
  6
CONTINUOUS
 10
114.6635896314
 20
111.5858937085
 11
114.6635896314
 21
115.1188960451
  0
LINE
  5
2A4
100
AcDbEntity
  8
268140580
100
AcDbLine
 62
250
  6
CONTINUOUS
 10
114.9135896314
 20
115.1188960451
 11
114.9135896314
 21
114.4750741575
  0
LINE
  5
2A5
100
AcDbEntity
  8
268140580
100
AcDbLine
 62
250
  6
CONTINUOUS
 10
114.9135896314
 20
69.8060936057
 11
114.9135896314
 21
69.1622717181
  0
LINE
  5
2A6
100
AcDbEntity
  8
268140580
100
AcDbLine
 62
7
  6
CONTINUOUS
 10
115.1635896314
 20
112.9405838816
 11
115.1635896314
 21
71.3405838816
  0
LINE
  5
2A7
100
AcDbEntity
  8
268140580
100
AcDbLine
 62
250
  6
CONTINUOUS
 10
115.4583539095
 20
112.9405838816
 11
115.4583539095
 21
71.3405838816
  0
LINE
  5
2A8
100
AcDbEntity
  8
INCISIONI_LASER
100
AcDbLine
 62
250
  6
CONTINUOUS
 10
124.9778752972
 20
107.8477265446
 11
125.2493039091
 21
108.1191554396
  0
LINE
  5
2A9
100
AcDbEntity
  8
INCISIONI_LASER
100
AcDbLine
 62
250
  6
CONTINUOUS
 10
126.0635896314
 20
107.4405838816
 11
125.7921610479
 21
107.1691554396
  0
LINE
  5
2AA
100
AcDbEntity
  8
INCISIONI_LASER
100
AcDbLine
 62
250
  6
CONTINUOUS
 10
124.9778752972
 20
106.3548696606
 11
125.2493039091
 21
106.6262981026
  0
LINE
  5
2AB
100
AcDbEntity
  8
INCISIONI_LASER
100
AcDbLine
 62
250
  6
CONTINUOUS
 10
124.1635896314
 20
104.8620125501
 11
124.4350181867
 21
105.1334409921
  0
LINE
  5
2AC
100
AcDbEntity
  8
INCISIONI_LASER
100
AcDbLine
 62
250
  6
CONTINUOUS
 10
125.7921610479
 20
104.4548696606
 11
125.5207324643
 21
104.3191552131
  0
LINE
  5
2AD
100
AcDbEntity
  8
INCISIONI_LASER
100
AcDbLine
 62
250
  6
CONTINUOUS
 10
122.6470821196
 20
102.1156578816
 11
119.7479644208
 21
101.1074838816
  0
LINE
  5
2AE
100
AcDbEntity
  8
INCISIONI_LASER
100
AcDbLine
 62
250
  6
CONTINUOUS
 10
135.8635896314
 20
105.795345196
 11
137.1635896314
 21
106.1667748301
  0
LINE
  5
2AF
100
AcDbEntity
  8
INCISIONI_LASER
100
AcDbLine
 62
250
  6
CONTINUOUS
 10
122.6635826314
 20
80.1295988816
 11
119.7634516314
 21
80.1295988816
  0
LINE
  5
2B0
100
AcDbEntity
  8
INCISIONI_LASER
100
AcDbLine
 62
250
  6
CONTINUOUS
 10
120.7511406314
 20
80.7096208816
 11
122.6635826314
 21
80.7096208816
  0
LINE
  5
2B1
100
AcDbEntity
  8
INCISIONI_LASER
100
AcDbLine
 62
250
  6
CONTINUOUS
 10
121.6521206314
 20
81.5480038816
 11
119.7634516314
 21
82.0895718816
  0
LINE
  5
2B2
100
AcDbEntity
  8
INCISIONI_LASER
100
AcDbLine
 62
250
  6
CONTINUOUS
 10
120.7511406314
 20
82.3863788816
 11
122.6635746314
 21
81.8380038816
  0
LINE
  5
2B3
100
AcDbEntity
  8
268140580
100
AcDbLine
 62
250
  6
CONTINUOUS
 10
116.9135896314
 20
67.897138552
 11
116.9157712653
 21
67.6471480713
  0
LINE
  5
2B4
100
AcDbEntity
  8
268140580
100
AcDbLine
 62
250
  6
CONTINUOUS
 10
115.9135896314
 20
69.1622717181
 11
115.9135896314
 21
69.5405838816
  0
LINE
  5
2B5
100
AcDbEntity
  8
268140580
100
AcDbLine
 62
250
  6
CONTINUOUS
 10
115.9135896314
 20
114.7405838816
 11
115.9135896314
 21
115.1188960451
  0
LINE
  5
2B6
100
AcDbEntity
  8
268140580
100
AcDbLine
 62
7
  6
CONTINUOUS
 10
116.1635896314
 20
69.1622717181
 11
116.1635896314
 21
69.5405838816
  0
LINE
  5
2B7
100
AcDbEntity
  8
268140580
100
AcDbLine
 62
7
  6
CONTINUOUS
 10
116.1635896314
 20
114.7405838816
 11
116.1635896314
 21
115.1188960451
  0
LINE
  5
2B8
100
AcDbEntity
  8
268140580
100
AcDbLine
 62
250
  6
CONTINUOUS
 10
116.9135896314
 20
67.897138552
 11
116.9135896314
 21
68.2962463143
  0
LINE
  5
2B9
100
AcDbEntity
  8
268140580
100
AcDbLine
 62
250
  6
CONTINUOUS
 10
116.9135896314
 20
115.9849214489
 11
116.9135896314
 21
116.3840292111
  0
LINE
  5
2BA
100
AcDbEntity
  8
ASSI
100
AcDbLine
 62
7
  6
CONTINUOUS
 10
117.1635896314
 20
109.8122829303
 11
117.1635896314
 21
74.4688848329
  0
LINE
  5
2BB
100
AcDbEntity
  8
268140580
100
AcDbLine
 62
7
  6
CONTINUOUS
 10
117.1635896314
 20
67.897138552
 11
117.1635896314
 21
68.2962463143
  0
LINE
  5
2BC
100
AcDbEntity
  8
268140580
100
AcDbLine
 62
7
  6
CONTINUOUS
 10
117.1635896314
 20
69.7405838816
 11
117.1635896314
 21
114.5405838816
  0
LINE
  5
2BD
100
AcDbEntity
  8
268140580
100
AcDbLine
 62
7
  6
CONTINUOUS
 10
117.1635896314
 20
115.9849214489
 11
117.1635896314
 21
116.3840292111
  0
LINE
  5
2BE
100
AcDbEntity
  8
268140580
100
AcDbLine
 62
250
  6
CONTINUOUS
 10
116.9157712653
 20
116.6340196919
 11
116.9135896314
 21
116.3840292111
  0
LINE
  5
2BF
100
AcDbEntity
  8
INCISIONI_LASER
100
AcDbLine
 62
250
  6
CONTINUOUS
 10
126.0635896314
 20
104.7262981026
 11
125.7921610479
 21
104.4548696606
  0
LINE
  5
2C0
100
AcDbEntity
  8
INCISIONI_LASER
100
AcDbLine
 62
250
  6
CONTINUOUS
 10
122.0326303304
 20
101.2801328816
 11
122.6470821196
 21
101.4890148816
  0
LINE
  5
2C1
100
AcDbEntity
  8
INCISIONI_LASER
100
AcDbLine
 62
250
  6
CONTINUOUS
 10
120.3019556311
 20
100.7220548816
 11
121.5508441207
 21
101.1235268816
  0
LINE
  5
2C2
100
AcDbEntity
  8
ASSI
100
AcDbLine
 62
250
  6
CONTINUOUS
 10
133.6548634282
 20
82.64923525
 11
142.1810420379
 21
82.7980602512
  0
LINE
  5
2C3
100
AcDbEntity
  8
ASSI
100
AcDbLine
 62
7
  6
CONTINUOUS
 10
133.6548634282
 20
83.1491590976
 11
142.1810420379
 21
83.2979840988
  0
LINE
  5
2C4
100
AcDbEntity
  8
ASSI
100
AcDbLine
 62
250
  6
CONTINUOUS
 10
133.6548634282
 20
84.1490067928
 11
142.1810420379
 21
84.297831794
  0
LINE
  5
2C5
100
AcDbEntity
  8
INCISIONI_LASER
100
AcDbLine
 62
250
  6
CONTINUOUS
 10
122.6635826314
 20
82.3863868816
 11
120.7511406314
 21
82.3863788816
  0
LINE
  5
2C6
100
AcDbEntity
  8
ASSI
100
AcDbLine
 62
250
  6
CONTINUOUS
 10
132.1810420379
 20
82.64923525
 11
133.6548634282
 21
82.64923525
  0
LINE
  5
2C7
100
AcDbEntity
  8
ASSI
100
AcDbLine
 62
250
  6
CONTINUOUS
 10
143.1635896314
 20
82.7980602512
 11
142.1810420379
 21
82.7980602512
  0
LINE
  5
2C8
100
AcDbEntity
  8
INCISIONI_LASER
100
AcDbLine
 62
250
  6
CONTINUOUS
 10
119.7634516314
 20
82.9664078816
 11
122.6635826314
 21
82.9664078816
  0
LINE
  5
2C9
100
AcDbEntity
  8
RACCORDO
100
AcDbLine
 62
7
  6
CONTINUOUS
 10
115.1635896314
 20
83.4905838816
 11
112.1635896314
 21
83.4905838816
  0
LINE
  5
2CA
100
AcDbEntity
  8
268140580
100
AcDbLine
 62
7
  6
CONTINUOUS
 10
115.1635896314
 20
83.6754940114
 11
112.1635896314
 21
83.7278592062
  0
LINE
  5
2CB
100
AcDbEntity
  8
268140580
100
AcDbLine
 62
250
  6
CONTINUOUS
 10
115.1635896314
 20
83.97544832
 11
112.1635896314
 21
84.0278135148
  0
LINE
  5
2CC
100
AcDbEntity
  8
INCISIONI_LASER
100
AcDbLine
 62
250
  6
CONTINUOUS
 10
122.6635826314
 20
83.3530868816
 11
119.7634446314
 21
84.2842118816
  0
LINE
  5
2CD
100
AcDbEntity
  8
INCISIONI_LASER
100
AcDbLine
 62
250
  6
CONTINUOUS
 10
122.0932466314
 20
84.1162218816
 11
122.6635746314
 21
83.9331088816
  0
LINE
  5
2CE
100
AcDbEntity
  8
INCISIONI_LASER
100
AcDbLine
 62
250
  6
CONTINUOUS
 10
120.6666856314
 20
84.5742338816
 11
121.5422246314
 21
84.2931438816
  0
LINE
  5
2CF
100
AcDbEntity
  8
INCISIONI_LASER
100
AcDbLine
 62
250
  6
CONTINUOUS
 10
119.7479644208
 20
107.1325188816
 11
119.7479644208
 21
106.3934678816
  0
LINE
  5
2D0
100
AcDbEntity
  8
INCISIONI_LASER
100
AcDbLine
 62
250
  6
CONTINUOUS
 10
119.7479644208
 20
101.1074838816
 11
119.7479644208
 21
100.3684328816
  0
LINE
  5
2D1
100
AcDbEntity
  8
INCISIONI_LASER
100
AcDbLine
 62
250
  6
CONTINUOUS
 10
119.7479644208
 20
95.7288038816
 11
119.7479644208
 21
94.8413738816
  0
LINE
  5
2D2
100
AcDbEntity
  8
INCISIONI_LASER
100
AcDbLine
 62
250
  6
CONTINUOUS
 10
119.7479644208
 20
97.3117168816
 11
119.7479644208
 21
97.9343228816
  0
LINE
  5
2D3
100
AcDbEntity
  8
INCISIONI_LASER
100
AcDbLine
 62
250
  6
CONTINUOUS
 10
119.7479644208
 20
102.4329088816
 11
119.7479644208
 21
103.3567228816
  0
LINE
  5
2D4
100
AcDbEntity
  8
INCISIONI_LASER
100
AcDbLine
 62
250
  6
CONTINUOUS
 10
119.7479644208
 20
104.4693378816
 11
119.7479644208
 21
105.0517818816
  0
LINE
  5
2D5
100
AcDbEntity
  8
INCISIONI_LASER
100
AcDbLine
 62
250
  6
CONTINUOUS
 10
119.7634446314
 20
84.2842118816
 11
119.7634446314
 21
84.8642628816
  0
LINE
  5
2D6
100
AcDbEntity
  8
INCISIONI_LASER
100
AcDbLine
 62
250
  6
CONTINUOUS
 10
119.7634446314
 20
86.1820808816
 11
119.7634446314
 21
87.5402948816
  0
LINE
  5
2D7
100
AcDbEntity
  8
INCISIONI_LASER
100
AcDbLine
 62
250
  6
CONTINUOUS
 10
119.7634516314
 20
76.1405838816
 11
119.7634516314
 21
76.7206128816
  0
LINE
  5
2D8
100
AcDbEntity
  8
INCISIONI_LASER
100
AcDbLine
 62
250
  6
CONTINUOUS
 10
119.7634516314
 20
78.0028698816
 11
119.7634516314
 21
78.5828988816
  0
LINE
  5
2D9
100
AcDbEntity
  8
INCISIONI_LASER
100
AcDbLine
 62
250
  6
CONTINUOUS
 10
119.7634516314
 20
78.9695778816
 11
119.7634516314
 21
79.5495988816
  0
LINE
  5
2DA
100
AcDbEntity
  8
INCISIONI_LASER
100
AcDbLine
 62
250
  6
CONTINUOUS
 10
119.7634516314
 20
80.1295988816
 11
119.7634516314
 21
81.0064358816
  0
LINE
  5
2DB
100
AcDbEntity
  8
INCISIONI_LASER
100
AcDbLine
 62
250
  6
CONTINUOUS
 10
119.7634516314
 20
82.0895718816
 11
119.7634516314
 21
82.9664078816
  0
LINE
  5
2DC
100
AcDbEntity
  8
INCISIONI_LASER
100
AcDbLine
 62
7
  6
CONTINUOUS
 10
119.7479644208
 20
95.3454097304
 11
120.2297507029
 21
95.8271960125
  0
LINE
  5
2DD
100
AcDbEntity
  8
INCISIONI_LASER
100
AcDbLine
 62
7
  6
CONTINUOUS
 10
120.6613398415
 20
96.2587851512
 11
121.1754606435
 21
96.7729059532
  0
LINE
  5
2DE
100
AcDbEntity
  8
INCISIONI_LASER
100
AcDbLine
 62
7
  6
CONTINUOUS
 10
121.7142715719
 20
97.3117168816
 11
122.6470821196
 21
98.2445274293
  0
LINE
  5
2DF
100
AcDbEntity
  8
INCISIONI_LASER
100
AcDbLine
 62
250
  6
CONTINUOUS
 10
135.8635896314
 20
107.3739168017
 11
136.4207324554
 21
107.745345196
  0
LINE
  5
2E0
100
AcDbEntity
  8
0
100
AcDbLine
 62
250
  6
CONTINUOUS
 10
135.6728276581
 20
86.0717078816
 11
139.0345365756
 21
86.3657578816
  0
LINE
  5
2E1
100
AcDbEntity
  8
ASSI
100
AcDbLine
 62
7
  6
CONTINUOUS
 10
144.8897363543
 20
87.4916021514
 11
143.1635896314
 21
87.3405838816
  0
LINE
  5
2E2
100
AcDbEntity
  8
ASSI
100
AcDbLine
 62
250
  6
CONTINUOUS
 10
142.1810420379
 20
84.297831794
 11
143.1635896314
 21
84.297831794
  0
LINE
  5
2E3
100
AcDbEntity
  8
0
100
AcDbLine
 62
250
  6
CONTINUOUS
 10
141.8635896314
 20
85.0482218816
 11
140.8447328319
 21
85.0482218816
  0
LINE
  5
2E4
100
AcDbEntity
  8
INCISIONI_LASER
100
AcDbLine
 62
250
  6
CONTINUOUS
 10
128.6635896314
 20
85.1405838816
 11
127.3635896314
 21
85.1405838816
  0
LINE
  5
2E5
100
AcDbEntity
  8
INCISIONI_LASER
100
AcDbLine
 62
250
  6
CONTINUOUS
 10
128.6635896314
 20
85.7905838816
 11
127.3635896314
 21
85.7905838816
  0
LINE
  5
2E6
100
AcDbEntity
  8
INCISIONI_LASER
100
AcDbLine
 62
250
  6
CONTINUOUS
 10
127.7350181807
 20
86.1620124309
 11
127.5493039061
 21
86.1620124309
  0
LINE
  5
2E7
100
AcDbEntity
  8
INCISIONI_LASER
100
AcDbLine
 62
250
  6
CONTINUOUS
 10
122.6635746314
 20
86.1820808816
 11
119.7634446314
 21
86.1820808816
  0
LINE
  5
2E8
100
AcDbEntity
  8
ASSI
100
AcDbLine
 62
7
  6
CONTINUOUS
 10
144.8897363543
 20
82.9895656117
 11
143.1635896314
 21
83.1405838816
  0
LINE
  5
2E9
100
AcDbEntity
  8
INCISIONI_LASER
100
AcDbLine
 62
250
  6
CONTINUOUS
 10
120.2297506305
 20
95.4639798816
 11
120.2297506305
 21
95.8271958816
  0
LINE
  5
2EA
100
AcDbEntity
  8
INCISIONI_LASER
100
AcDbLine
 62
250
  6
CONTINUOUS
 10
120.2999666314
 20
87.4597888816
 11
120.2999666314
 21
86.7541058816
  0
LINE
  5
2EB
100
AcDbEntity
  8
INCISIONI_LASER
100
AcDbLine
 62
250
  6
CONTINUOUS
 10
121.0056956314
 20
86.7541128816
 11
121.0056956314
 21
87.4597888816
  0
LINE
  5
2EC
100
AcDbEntity
  8
INCISIONI_LASER
100
AcDbLine
 62
250
  6
CONTINUOUS
 10
121.0488740605
 20
95.4639798816
 11
121.0488740605
 21
95.8271958816
  0
LINE
  5
2ED
100
AcDbEntity
  8
INCISIONI_LASER
100
AcDbLine
 62
250
  6
CONTINUOUS
 10
121.5306602703
 20
95.7288038816
 11
121.5306602703
 21
95.4639798816
  0
LINE
  5
2EE
100
AcDbEntity
  8
INCISIONI_LASER
100
AcDbLine
 62
250
  6
CONTINUOUS
 10
121.5422246314
 20
84.2931438816
 11
121.5422246314
 21
84.8553378816
  0
LINE
  5
2EF
100
AcDbEntity
  8
INCISIONI_LASER
100
AcDbLine
 62
250
  6
CONTINUOUS
 10
121.5422246314
 20
87.2684058816
 11
121.5422176314
 21
86.7621748816
  0
LINE
  5
2F0
100
AcDbEntity
  8
INCISIONI_LASER
100
AcDbLine
 62
250
  6
CONTINUOUS
 10
121.5508441207
 20
107.1484528816
 11
121.5508441207
 21
106.3170748816
  0
LINE
  5
2F1
100
AcDbEntity
  8
INCISIONI_LASER
100
AcDbLine
 62
250
  6
CONTINUOUS
 10
121.5508441207
 20
101.1235268816
 11
121.5508441207
 21
100.2920398816
  0
LINE
  5
2F2
100
AcDbEntity
  8
INCISIONI_LASER
100
AcDbLine
 62
250
  6
CONTINUOUS
 10
122.0326303304
 20
100.1313958816
 11
122.0326303304
 21
101.2801328816
  0
LINE
  5
2F3
100
AcDbEntity
  8
INCISIONI_LASER
100
AcDbLine
 62
250
  6
CONTINUOUS
 10
122.0326303304
 20
106.1564298816
 11
122.0326303304
 21
107.3051678816
  0
LINE
  5
2F4
100
AcDbEntity
  8
INCISIONI_LASER
100
AcDbLine
 62
250
  6
CONTINUOUS
 10
127.3635896314
 20
87.1834409802
 11
128.6635896314
 21
87.4620124309
  0
LINE
  5
2F5
100
AcDbEntity
  8
0
100
AcDbLine
 62
250
  6
CONTINUOUS
 10
135.6728276581
 20
86.3587998816
 11
135.2782697603
 21
86.3587998816
  0
LINE
  5
2F6
100
AcDbEntity
  8
0
100
AcDbLine
 62
250
  6
CONTINUOUS
 10
139.2309546556
 20
86.4224668816
 11
139.0345365756
 21
86.4224668816
  0
LINE
  5
2F7
100
AcDbEntity
  8
0
100
AcDbLine
 62
250
  6
CONTINUOUS
 10
135.2782697603
 20
86.4581738816
 11
135.6728276581
 21
86.4581738816
  0
LINE
  5
2F8
100
AcDbEntity
  8
0
100
AcDbLine
 62
250
  6
CONTINUOUS
 10
139.0345365756
 20
86.5400868816
 11
139.2309546556
 21
86.5400868816
  0
LINE
  5
2F9
100
AcDbEntity
  8
INCISIONI_LASER
100
AcDbLine
 62
250
  6
CONTINUOUS
 10
120.2999666314
 20
86.7541058816
 11
121.0056956314
 21
86.7541128816
  0
LINE
  5
2FA
100
AcDbEntity
  8
INCISIONI_LASER
100
AcDbLine
 62
250
  6
CONTINUOUS
 10
128.4778753374
 20
86.8120124309
 11
128.2921610434
 21
86.8120124309
  0
LINE
  5
2FB
100
AcDbEntity
  8
0
100
AcDbLine
 62
250
  6
CONTINUOUS
 10
136.7160947393
 20
86.9286538816
 11
136.5004915817
 21
86.9286538816
  0
LINE
  5
2FC
100
AcDbEntity
  8
0
100
AcDbLine
 62
250
  6
CONTINUOUS
 10
135.4027707953
 20
86.9836568816
 11
135.1853099207
 21
86.9836568816
  0
LINE
  5
2FD
100
AcDbEntity
  8
INCISIONI_LASER
100
AcDbLine
 62
250
  6
CONTINUOUS
 10
133.6389956314
 20
87.3905838816
 11
130.3681836314
 21
87.3905838816
  0
LINE
  5
2FE
100
AcDbEntity
  8
0
100
AcDbLine
 62
250
  6
CONTINUOUS
 10
135.1858678357
 20
87.5566598816
 11
135.4033287103
 21
87.5566598816
  0
LINE
  5
2FF
100
AcDbEntity
  8
0
100
AcDbLine
 62
250
  6
CONTINUOUS
 10
136.5004915817
 20
87.7519938816
 11
136.7160947393
 21
87.7519938816
  0
LINE
  5
300
100
AcDbEntity
  8
0
100
AcDbLine
 62
250
  6
CONTINUOUS
 10
136.4080896571
 20
88.2084708816
 11
136.0356823851
 21
88.2084708816
  0
LINE
  5
301
100
AcDbEntity
  8
INCISIONI_LASER
100
AcDbLine
 62
250
  6
CONTINUOUS
 10
121.5422176314
 20
86.7621748816
 11
122.6635746314
 21
86.7621098816
  0
LINE
  5
302
100
AcDbEntity
  8
INCISIONI_LASER
100
AcDbLine
 62
250
  6
CONTINUOUS
 10
122.0932466314
 20
85.0322668816
 11
122.0932466314
 21
84.1162218816
  0
LINE
  5
303
100
AcDbEntity
  8
INCISIONI_LASER
100
AcDbLine
 62
250
  6
CONTINUOUS
 10
122.1652959099
 20
97.9343228816
 11
122.1652959099
 21
99.0073218816
  0
LINE
  5
304
100
AcDbEntity
  8
INCISIONI_LASER
100
AcDbLine
 62
250
  6
CONTINUOUS
 10
122.6470821196
 20
105.0517818816
 11
122.6470821196
 21
104.1681298816
  0
LINE
  5
305
100
AcDbEntity
  8
INCISIONI_LASER
100
AcDbLine
 62
250
  6
CONTINUOUS
 10
122.6470821196
 20
103.0153538816
 11
122.6470821196
 21
102.4329088816
  0
LINE
  5
306
100
AcDbEntity
  8
INCISIONI_LASER
100
AcDbLine
 62
250
  6
CONTINUOUS
 10
122.6470821196
 20
99.0073218816
 11
122.6470821196
 21
97.3117168816
  0
LINE
  5
307
100
AcDbEntity
  8
INCISIONI_LASER
100
AcDbLine
 62
250
  6
CONTINUOUS
 10
122.6470821196
 20
94.8413738816
 11
122.6470821196
 21
95.4639798816
  0
LINE
  5
308
100
AcDbEntity
  8
INCISIONI_LASER
100
AcDbLine
 62
250
  6
CONTINUOUS
 10
122.6470821196
 20
99.3200978816
 11
122.6470821196
 21
99.9145478816
  0
LINE
  5
309
100
AcDbEntity
  8
INCISIONI_LASER
100
AcDbLine
 62
250
  6
CONTINUOUS
 10
122.6470821196
 20
101.4890148816
 11
122.6470821196
 21
102.1156578816
  0
LINE
  5
30A
100
AcDbEntity
  8
INCISIONI_LASER
100
AcDbLine
 62
250
  6
CONTINUOUS
 10
122.6470821196
 20
105.3450238816
 11
122.6470821196
 21
105.9394728816
  0
LINE
  5
30B
100
AcDbEntity
  8
INCISIONI_LASER
100
AcDbLine
 62
250
  6
CONTINUOUS
 10
122.6470821196
 20
107.5141578816
 11
122.6470821196
 21
108.1405838816
  0
LINE
  5
30C
100
AcDbEntity
  8
INCISIONI_LASER
100
AcDbLine
 62
250
  6
CONTINUOUS
 10
122.6635826314
 20
77.6517598816
 11
122.6635896314
 21
77.0717158816
  0
LINE
  5
30D
100
AcDbEntity
  8
INCISIONI_LASER
100
AcDbLine
 62
250
  6
CONTINUOUS
 10
122.6635826314
 20
79.5495918816
 11
122.6635896314
 21
78.9695698816
  0
LINE
  5
30E
100
AcDbEntity
  8
INCISIONI_LASER
100
AcDbLine
 62
250
  6
CONTINUOUS
 10
122.6635746314
 20
81.8380038816
 11
122.6635826314
 21
81.2579968816
  0
LINE
  5
30F
100
AcDbEntity
  8
INCISIONI_LASER
100
AcDbLine
 62
250
  6
CONTINUOUS
 10
122.6635746314
 20
83.9331088816
 11
122.6635826314
 21
83.3530868816
  0
LINE
  5
310
100
AcDbEntity
  8
INCISIONI_LASER
100
AcDbLine
 62
250
  6
CONTINUOUS
 10
122.6635676314
 20
88.5029648816
 11
122.6635746314
 21
87.8496598816
  0
LINE
  5
311
100
AcDbEntity
  8
INCISIONI_LASER
100
AcDbLine
 62
250
  6
CONTINUOUS
 10
122.6635746314
 20
86.7621098816
 11
122.6635746314
 21
86.1820808816
  0
LINE
  5
312
100
AcDbEntity
  8
INCISIONI_LASER
100
AcDbLine
 62
250
  6
CONTINUOUS
 10
122.6635826314
 20
82.9664078816
 11
122.6635826314
 21
82.3863868816
  0
LINE
  5
313
100
AcDbEntity
  8
INCISIONI_LASER
100
AcDbLine
 62
250
  6
CONTINUOUS
 10
122.6635826314
 20
80.7096208816
 11
122.6635826314
 21
80.1295988816
  0
LINE
  5
314
100
AcDbEntity
  8
INCISIONI_LASER
100
AcDbLine
 62
250
  6
CONTINUOUS
 10
122.6635826314
 20
85.7954018816
 11
122.6635746314
 21
85.2153728816
  0
LWPOLYLINE
  5
315
100
AcDbEntity
  8
0
100
AcDbPolyline
 62
7
  6
CONTINUOUS
 90
4
 70
0
 43
0.3500000006
 10
123.8778770142
 20
135.8387658691
 10
123.8778770142
 20
136.695921936
 10
124.3064459839
 20
137.1244909058
 10
124.9492994385
 20
137.1244909058
  0
LINE
  5
316
100
AcDbEntity
  8
INCISIONI_LASER
100
AcDbLine
 62
250
  6
CONTINUOUS
 10
135.8635896314
 20
101.431060013
 11
137.1635896314
 21
102.081060013
  0
LINE
  5
317
100
AcDbEntity
  8
268140580
100
AcDbLine
 62
250
  6
CONTINUOUS
 10
114.1635896314
 20
89.7882643782
 11
113.0583539095
 21
89.768972417
  0
LINE
  5
318
100
AcDbEntity
  8
268140580
100
AcDbLine
 62
7
  6
CONTINUOUS
 10
114.1635896314
 20
90.0882186868
 11
113.0583539095
 21
90.0689267255
  0
LINE
  5
319
100
AcDbEntity
  8
268140580
100
AcDbLine
 62
250
  6
CONTINUOUS
 10
112.1635896314
 20
88.4405838816
 11
113.0583539095
 21
88.4405838816
  0
LINE
  5
31A
100
AcDbEntity
  8
0
100
AcDbLine
 62
250
  6
CONTINUOUS
 10
136.0356823851
 20
88.5585308816
 11
136.4080896571
 21
88.5585308816
  0
LINE
  5
31B
100
AcDbEntity
  8
268140580
100
AcDbLine
 62
7
  6
CONTINUOUS
 10
112.1635896314
 20
88.7405838816
 11
112.7635896314
 21
88.7405838816
  0
LINE
  5
31C
100
AcDbEntity
  8
0
100
AcDbLine
 62
250
  6
CONTINUOUS
 10
140.8447328319
 20
89.2329458816
 11
141.8635896314
 21
89.2329458816
  0
LINE
  5
31D
100
AcDbEntity
  8
INCISIONI_LASER
100
AcDbLine
 62
250
  6
CONTINUOUS
 10
127.7350181807
 20
89.597726783
 11
127.5493039061
 21
89.597726783
  0
LINE
  5
31E
100
AcDbEntity
  8
268140580
100
AcDbLine
 62
250
  6
CONTINUOUS
 10
113.0583539095
 20
89.768972417
 11
112.7635896314
 21
89.768972417
  0
LINE
  5
31F
100
AcDbEntity
  8
0
100
AcDbLine
 62
250
  6
CONTINUOUS
 10
138.596459307
 20
88.0211768816
 11
135.7003754618
 21
88.2904228816
  0
LINE
  5
320
100
AcDbEntity
  8
INCISIONI_LASER
100
AcDbLine
 62
250
  6
CONTINUOUS
 10
128.6635896314
 20
88.0191551773
 11
127.3635896314
 21
88.297726783
  0
LINE
  5
321
100
AcDbEntity
  8
INCISIONI_LASER
100
AcDbLine
 62
250
  6
CONTINUOUS
 10
128.6635896314
 20
87.4620124309
 11
127.7350181807
 21
87.7405838816
  0
LINE
  5
322
100
AcDbEntity
  8
INCISIONI_LASER
100
AcDbLine
 62
250
  6
CONTINUOUS
 10
127.5493039061
 20
86.1620124309
 11
127.3635896314
 21
86.3477267055
  0
LINE
  5
323
100
AcDbEntity
  8
INCISIONI_LASER
100
AcDbLine
 62
250
  6
CONTINUOUS
 10
128.6635896314
 20
86.6262982337
 11
128.4778753374
 21
86.8120124309
  0
LINE
  5
324
100
AcDbEntity
  8
268140580
100
AcDbLine
 62
7
  6
CONTINUOUS
 10
124.1635896314
 20
115.375113334
 11
124.1635896314
 21
114.5405838816
  0
LINE
  5
325
100
AcDbEntity
  8
INCISIONI_LASER
100
AcDbLine
 62
250
  6
CONTINUOUS
 10
124.1635896314
 20
106.6262981026
 11
124.1635896314
 21
105.8120123236
  0
LINE
  5
326
100
AcDbEntity
  8
268140580
100
AcDbLine
 62
7
  6
CONTINUOUS
 10
124.1635896314
 20
69.7405838816
 11
124.1635896314
 21
68.9060544292
  0
LINE
  5
327
100
AcDbEntity
  8
INCISIONI_LASER
100
AcDbLine
 62
250
  6
CONTINUOUS
 10
124.1635896314
 20
104.7262981026
 11
124.1635896314
 21
104.8620125501
  0
LINE
  5
328
100
AcDbEntity
  8
INCISIONI_LASER
100
AcDbLine
 62
250
  6
CONTINUOUS
 10
124.9778752972
 20
105.8120123236
 11
124.9778752972
 21
106.3548696606
  0
LINE
  5
329
100
AcDbEntity
  8
INCISIONI_LASER
100
AcDbLine
 62
250
  6
CONTINUOUS
 10
124.9778752972
 20
107.2596312849
 11
124.9778752972
 21
107.8477265446
  0
LINE
  5
32A
100
AcDbEntity
  8
INCISIONI_LASER
100
AcDbLine
 62
250
  6
CONTINUOUS
 10
125.6564467702
 20
103.7762981026
 11
125.6564467702
 21
102.8262982158
  0
LINE
  5
32B
100
AcDbEntity
  8
INCISIONI_LASER
100
AcDbLine
 62
250
  6
CONTINUOUS
 10
126.0635896314
 20
107.8477265446
 11
126.0635896314
 21
107.4405838816
  0
LINE
  5
32C
100
AcDbEntity
  8
INCISIONI_LASER
100
AcDbLine
 62
250
  6
CONTINUOUS
 10
126.0635896314
 20
106.3548696606
 11
126.0635896314
 21
105.8120123236
  0
LINE
  5
32D
100
AcDbEntity
  8
INCISIONI_LASER
100
AcDbLine
 62
250
  6
CONTINUOUS
 10
126.0635896314
 20
104.8620125501
 11
126.0635896314
 21
104.7262981026
  0
LINE
  5
32E
100
AcDbEntity
  8
INCISIONI_LASER
100
AcDbLine
 62
250
  6
CONTINUOUS
 10
127.5493039061
 20
93.6834412901
 11
127.3635896314
 21
93.4977264731
  0
LINE
  5
32F
100
AcDbEntity
  8
INCISIONI_LASER
100
AcDbLine
 62
250
  6
CONTINUOUS
 10
135.8635896314
 20
96.7262982337
 11
137.1635896314
 21
97.097726783
  0
LINE
  5
330
100
AcDbEntity
  8
INCISIONI_LASER
100
AcDbLine
 62
250
  6
CONTINUOUS
 10
127.7350181807
 20
90.6191554873
 11
127.5493039061
 21
90.6191554873
  0
LINE
  5
331
100
AcDbEntity
  8
DRAFT
100
AcDbLine
 62
7
  6
CONTINUOUS
 10
112.1635896314
 20
91.5405838816
 11
112.2988044174
 21
91.5405838816
  0
LINE
  5
332
100
AcDbEntity
  8
INCISIONI_LASER
100
AcDbLine
 62
250
  6
CONTINUOUS
 10
127.7350181807
 20
91.6405838816
 11
127.5493039061
 21
91.6405838816
  0
LINE
  5
333
100
AcDbEntity
  8
INCISIONI_LASER
100
AcDbLine
 62
250
  6
CONTINUOUS
 10
128.0135896314
 20
92.0120122759
 11
128.4778753374
 21
92.0120122759
  0
LINE
  5
334
100
AcDbEntity
  8
INCISIONI_LASER
100
AcDbLine
 62
250
  6
CONTINUOUS
 10
127.3635896314
 20
89.1334409802
 11
127.6421610821
 21
88.947726783
  0
LINE
  5
335
100
AcDbEntity
  8
INCISIONI_LASER
100
AcDbLine
 62
250
  6
CONTINUOUS
 10
127.3635896314
 20
90.1548696844
 11
127.6421610821
 21
89.9691551773
  0
LINE
  5
336
100
AcDbEntity
  8
INCISIONI_LASER
100
AcDbLine
 62
250
  6
CONTINUOUS
 10
127.3635896314
 20
91.1762980787
 11
127.6421610821
 21
90.9905838816
  0
LINE
  5
337
100
AcDbEntity
  8
INCISIONI_LASER
100
AcDbLine
 62
250
  6
CONTINUOUS
 10
128.6635896314
 20
88.947726783
 11
127.7350181807
 21
89.597726783
  0
LINE
  5
338
100
AcDbEntity
  8
INCISIONI_LASER
100
AcDbLine
 62
250
  6
CONTINUOUS
 10
128.6635896314
 20
89.9691551773
 11
127.7350181807
 21
90.6191554873
  0
LINE
  5
339
100
AcDbEntity
  8
268140580
100
AcDbLine
 62
7
  6
CONTINUOUS
 10
127.1635896314
 20
70.7405838816
 11
127.1635896314
 21
71.2905838816
  0
LINE
  5
33A
100
AcDbEntity
  8
ASSI
100
AcDbLine
 62
7
  6
CONTINUOUS
 10
127.1635896314
 20
71.2905838816
 11
127.1635896314
 21
72.8224533225
  0
LINE
  5
33B
100
AcDbEntity
  8
ASSI
100
AcDbLine
 62
7
  6
CONTINUOUS
 10
127.1635896314
 20
111.4587144407
 11
127.1635896314
 21
112.9905838816
  0
LINE
  5
33C
100
AcDbEntity
  8
268140580
100
AcDbLine
 62
7
  6
CONTINUOUS
 10
127.1635896314
 20
112.9905838816
 11
127.1635896314
 21
113.5405838816
  0
LINE
  5
33D
100
AcDbEntity
  8
INCISIONI_LASER
100
AcDbLine
 62
250
  6
CONTINUOUS
 10
127.3635896314
 20
93.4977264731
 11
127.3635896314
 21
93.2191554873
  0
LINE
  5
33E
100
AcDbEntity
  8
INCISIONI_LASER
100
AcDbLine
 62
250
  6
CONTINUOUS
 10
127.3635896314
 20
91.4548696844
 11
127.3635896314
 21
91.1762980787
  0
LINE
  5
33F
100
AcDbEntity
  8
INCISIONI_LASER
100
AcDbLine
 62
250
  6
CONTINUOUS
 10
127.3635896314
 20
90.4334412901
 11
127.3635896314
 21
90.1548696844
  0
LINE
  5
340
100
AcDbEntity
  8
INCISIONI_LASER
100
AcDbLine
 62
250
  6
CONTINUOUS
 10
127.3635896314
 20
89.4120125858
 11
127.3635896314
 21
89.1334409802
  0
LINE
  5
341
100
AcDbEntity
  8
INCISIONI_LASER
100
AcDbLine
 62
250
  6
CONTINUOUS
 10
127.3635896314
 20
86.3477267055
 11
127.3635896314
 21
86.7191553323
  0
LINE
  5
342
100
AcDbEntity
  8
INCISIONI_LASER
100
AcDbLine
 62
250
  6
CONTINUOUS
 10
127.9207324554
 20
92.4762980787
 11
127.9207324554
 21
92.0739174215
  0
LINE
  5
343
100
AcDbEntity
  8
INCISIONI_LASER
100
AcDbLine
 62
250
  6
CONTINUOUS
 10
130.3058906323
 20
95.5625178826
 11
133.1927382892
 21
99.0029284737
  0
LINE
  5
344
100
AcDbEntity
  8
INCISIONI_LASER
100
AcDbLine
 62
250
  6
CONTINUOUS
 10
128.1064467688
 20
92.6620122759
 11
127.9207324554
 21
92.4762980787
  0
LINE
  5
345
100
AcDbEntity
  8
INCISIONI_LASER
100
AcDbLine
 62
250
  6
CONTINUOUS
 10
127.5493039061
 20
91.6405838816
 11
127.3635896314
 21
91.4548696844
  0
LINE
  5
346
100
AcDbEntity
  8
INCISIONI_LASER
100
AcDbLine
 62
250
  6
CONTINUOUS
 10
128.4778753374
 20
92.0120122759
 11
128.6635896314
 21
92.1977264731
  0
LINE
  5
347
100
AcDbEntity
  8
INCISIONI_LASER
100
AcDbLine
 62
250
  6
CONTINUOUS
 10
127.5493039061
 20
90.6191554873
 11
127.3635896314
 21
90.4334412901
  0
LINE
  5
348
100
AcDbEntity
  8
INCISIONI_LASER
100
AcDbLine
 62
250
  6
CONTINUOUS
 10
133.2127296314
 20
96.6002278815
 11
132.3616736314
 21
95.8861078816
  0
LINE
  5
349
100
AcDbEntity
  8
INCISIONI_LASER
100
AcDbLine
 62
250
  6
CONTINUOUS
 10
121.4724702984
 20
87.8855606722
 11
122.6635676314
 21
88.5029648816
  0
LINE
  5
34A
100
AcDbEntity
  8
INCISIONI_LASER
100
AcDbLine
 62
250
  6
CONTINUOUS
 10
122.6635746314
 20
87.8496598816
 11
121.5422246314
 21
87.2684058816
  0
LINE
  5
34B
100
AcDbEntity
  8
INCISIONI_LASER
100
AcDbLine
 62
250
  6
CONTINUOUS
 10
135.8635896314
 20
95.2405838816
 11
136.6064467688
 21
95.6120124696
  0
LINE
  5
34C
100
AcDbEntity
  8
INCISIONI_LASER
100
AcDbLine
 62
250
  6
CONTINUOUS
 10
128.4778753374
 20
92.6620122759
 11
128.1064467688
 21
92.6620122759
  0
LINE
  5
34D
100
AcDbEntity
  8
DRAFT
100
AcDbLine
 62
7
  6
CONTINUOUS
 10
112.1635896314
 20
92.7405838816
 11
112.2988044174
 21
92.7405838816
  0
LINE
  5
34E
100
AcDbEntity
  8
INCISIONI_LASER
100
AcDbLine
 62
250
  6
CONTINUOUS
 10
132.6931306314
 20
93.2551648816
 11
132.4583486314
 21
93.2551648816
  0
LINE
  5
34F
100
AcDbEntity
  8
INCISIONI_LASER
100
AcDbLine
 62
250
  6
CONTINUOUS
 10
127.7350181807
 20
93.6834412901
 11
127.5493039061
 21
93.6834412901
  0
LINE
  5
350
100
AcDbEntity
  8
268140580
100
AcDbLine
 62
7
  6
CONTINUOUS
 10
113.0583539095
 20
94.2122410377
 11
114.1635896314
 21
94.1929490764
  0
LINE
  5
351
100
AcDbEntity
  8
268140580
100
AcDbLine
 62
250
  6
CONTINUOUS
 10
113.0583539095
 20
94.5121953462
 11
114.1635896314
 21
94.4929033849
  0
LINE
  5
352
100
AcDbEntity
  8
INCISIONI_LASER
100
AcDbLine
 62
250
  6
CONTINUOUS
 10
127.6421610821
 20
92.1977264731
 11
128.0135896314
 21
92.0120122759
  0
LINE
  5
353
100
AcDbEntity
  8
INCISIONI_LASER
100
AcDbLine
 62
250
  6
CONTINUOUS
 10
127.3635896314
 20
93.2191554873
 11
127.6421610821
 21
93.0334412901
  0
LINE
  5
354
100
AcDbEntity
  8
INCISIONI_LASER
100
AcDbLine
 62
250
  6
CONTINUOUS
 10
128.6635896314
 20
90.9905838816
 11
127.7350181807
 21
91.6405838816
  0
LINE
  5
355
100
AcDbEntity
  8
INCISIONI_LASER
100
AcDbLine
 62
250
  6
CONTINUOUS
 10
128.6635896314
 20
93.0334412901
 11
127.7350181807
 21
93.6834412901
  0
LINE
  5
356
100
AcDbEntity
  8
INCISIONI_LASER
100
AcDbLine
 62
250
  6
CONTINUOUS
 10
127.3635896314
 20
92.4762980787
 11
127.6421610821
 21
92.1977264731
  0
LINE
  5
357
100
AcDbEntity
  8
INCISIONI_LASER
100
AcDbLine
 62
250
  6
CONTINUOUS
 10
128.6635896314
 20
92.4762980787
 11
128.4778753374
 21
92.6620122759
  0
LINE
  5
358
100
AcDbEntity
  8
INCISIONI_LASER
100
AcDbLine
 62
250
  6
CONTINUOUS
 10
130.9703985175
 20
88.7216060284
 11
132.0035896314
 21
87.3905838816
  0
LINE
  5
359
100
AcDbEntity
  8
INCISIONI_LASER
100
AcDbLine
 62
250
  6
CONTINUOUS
 10
128.6635896314
 20
93.6834412901
 11
128.6635896314
 21
93.0334412901
  0
LINE
  5
35A
100
AcDbEntity
  8
INCISIONI_LASER
100
AcDbLine
 62
250
  6
CONTINUOUS
 10
128.6635896314
 20
91.6405838816
 11
128.6635896314
 21
90.9905838816
  0
LINE
  5
35B
100
AcDbEntity
  8
INCISIONI_LASER
100
AcDbLine
 62
250
  6
CONTINUOUS
 10
128.6635896314
 20
90.6191554873
 11
128.6635896314
 21
89.9691551773
  0
LINE
  5
35C
100
AcDbEntity
  8
INCISIONI_LASER
100
AcDbLine
 62
250
  6
CONTINUOUS
 10
128.6635896314
 20
89.597726783
 11
128.6635896314
 21
88.947726783
  0
LINE
  5
35D
100
AcDbEntity
  8
INCISIONI_LASER
100
AcDbLine
 62
250
  6
CONTINUOUS
 10
128.6635896314
 20
86.2548696069
 11
128.6635896314
 21
86.6262982337
  0
LINE
  5
35E
100
AcDbEntity
  8
INCISIONI_LASER
100
AcDbLine
 62
250
  6
CONTINUOUS
 10
128.6635896314
 20
92.1977264731
 11
128.6635896314
 21
92.4762980787
  0
LINE
  5
35F
100
AcDbEntity
  8
268140580
100
AcDbLine
 62
250
  6
CONTINUOUS
 10
116.1635896314
 20
68.7292590162
 11
116.2885896314
 21
68.9457653671
  0
LINE
  5
360
100
AcDbEntity
  8
268140580
100
AcDbLine
 62
250
  6
CONTINUOUS
 10
116.9135896314
 20
68.2962463143
 11
117.0385896314
 21
68.5127526652
  0
LINE
  5
361
100
AcDbEntity
  8
INCISIONI_LASER
100
AcDbLine
 62
250
  6
CONTINUOUS
 10
135.8635896314
 20
97.9334409802
 11
136.0493039061
 21
98.1191551773
  0
LINE
  5
362
100
AcDbEntity
  8
INCISIONI_LASER
100
AcDbLine
 62
250
  6
CONTINUOUS
 10
127.5493039061
 20
89.597726783
 11
127.3635896314
 21
89.4120125858
  0
LINE
  5
363
100
AcDbEntity
  8
268140580
100
AcDbLine
 62
250
  6
CONTINUOUS
 10
112.7635896314
 20
94.5121953462
 11
113.0583539095
 21
94.5121953462
  0
LINE
  5
364
100
AcDbEntity
  8
INCISIONI_LASER
100
AcDbLine
 62
250
  6
CONTINUOUS
 10
133.1505876314
 20
94.5395618816
 11
132.8864806314
 21
94.5395618816
  0
LINE
  5
365
100
AcDbEntity
  8
INCISIONI_LASER
100
AcDbLine
 62
250
  6
CONTINUOUS
 10
132.4583486314
 20
94.7467228816
 11
133.1505876314
 21
94.7467228816
  0
LINE
  5
366
100
AcDbEntity
  8
INCISIONI_LASER
100
AcDbLine
 62
250
  6
CONTINUOUS
 10
119.7479644208
 20
94.8413738816
 11
122.6470821196
 21
94.8413738816
  0
LINE
  5
367
100
AcDbEntity
  8
INCISIONI_LASER
100
AcDbLine
 62
250
  6
CONTINUOUS
 10
137.1635896314
 20
95.2405838816
 11
135.8635896314
 21
95.2405838816
  0
LINE
  5
368
100
AcDbEntity
  8
INCISIONI_LASER
100
AcDbLine
 62
250
  6
CONTINUOUS
 10
122.6470821196
 20
95.4639798816
 11
121.5306602703
 21
95.4639798816
  0
LINE
  5
369
100
AcDbEntity
  8
INCISIONI_LASER
100
AcDbLine
 62
250
  6
CONTINUOUS
 10
121.0488740605
 20
95.4639798816
 11
120.2297506305
 21
95.4639798816
  0
LINE
  5
36A
100
AcDbEntity
  8
268140580
100
AcDbLine
 62
7
  6
CONTINUOUS
 10
112.7635896314
 20
95.5405838816
 11
112.1635896314
 21
95.5405838816
  0
LINE
  5
36B
100
AcDbEntity
  8
268140580
100
AcDbLine
 62
250
  6
CONTINUOUS
 10
113.0583539095
 20
95.8405838816
 11
112.1635896314
 21
95.8405838816
  0
LINE
  5
36C
100
AcDbEntity
  8
INCISIONI_LASER
100
AcDbLine
 62
250
  6
CONTINUOUS
 10
135.8635896314
 20
95.9834410576
 11
137.1635896314
 21
95.9834410576
  0
LINE
  5
36D
100
AcDbEntity
  8
ASSI
100
AcDbLine
 62
7
  6
CONTINUOUS
 10
144.8897363543
 20
93.3895656117
 11
143.1635896314
 21
93.5405838816
  0
LINE
  5
36E
100
AcDbEntity
  8
268140580
100
AcDbLine
 62
250
  6
CONTINUOUS
 10
116.1635896314
 20
115.551908747
 11
116.2885896314
 21
115.335402396
  0
LINE
  5
36F
100
AcDbEntity
  8
268140580
100
AcDbLine
 62
250
  6
CONTINUOUS
 10
116.9135896314
 20
115.9849214489
 11
117.0385896314
 21
115.7684150979
  0
LINE
  5
370
100
AcDbEntity
  8
INCISIONI_LASER
100
AcDbLine
 62
250
  6
CONTINUOUS
 10
130.3681836314
 20
87.6383728816
 11
130.3681836314
 21
87.1427948816
  0
LWPOLYLINE
  5
371
100
AcDbEntity
  8
0
100
AcDbPolyline
 62
7
  6
CONTINUOUS
 90
4
 70
0
 43
0.3500000006
 10
131.1635857544
 20
125.8387718811
 10
131.1635857544
 20
126.6959188843
 10
131.5921637878
 20
127.124487854
 10
132.2350172424
 20
127.124487854
  0
LINE
  5
372
100
AcDbEntity
  8
INCISIONI_LASER
100
AcDbLine
 62
250
  6
CONTINUOUS
 10
131.2405496314
 20
106.2800797696
 11
131.2405496314
 21
107.7405838816
  0
LINE
  5
373
100
AcDbEntity
  8
INCISIONI_LASER
100
AcDbLine
 62
250
  6
CONTINUOUS
 10
131.9905496314
 20
107.7405838816
 11
131.9905496314
 21
106.2800828816
  0
LINE
  5
374
100
AcDbEntity
  8
ASSI
100
AcDbLine
 62
250
  6
CONTINUOUS
 10
132.1810420379
 20
72.91003328
 11
132.1810420379
 21
73.1634647145
  0
LINE
  5
375
100
AcDbEntity
  8
ASSI
100
AcDbLine
 62
250
  6
CONTINUOUS
 10
132.1810420379
 20
74.5774628853
 11
132.1810420379
 21
82.64923525
  0
LINE
  5
376
100
AcDbEntity
  8
INCISIONI_LASER
100
AcDbLine
 62
250
  6
CONTINUOUS
 10
132.3616736314
 20
95.8861078816
 11
132.3616736314
 21
94.8433978816
  0
LINE
  5
377
100
AcDbEntity
  8
INCISIONI_LASER
100
AcDbLine
 62
250
  6
CONTINUOUS
 10
132.3616736314
 20
93.3518398816
 11
132.3616736314
 21
94.5395618816
  0
LINE
  5
378
100
AcDbEntity
  8
INCISIONI_LASER
100
AcDbLine
 62
250
  6
CONTINUOUS
 10
128.2921610434
 20
86.8120124309
 11
127.7350181807
 21
86.1620124309
  0
LINE
  5
379
100
AcDbEntity
  8
INCISIONI_LASER
100
AcDbLine
 62
250
  6
CONTINUOUS
 10
127.3635896314
 20
86.7191553323
 11
127.4564468075
 21
86.8120124309
  0
LINE
  5
37A
100
AcDbEntity
  8
INCISIONI_LASER
100
AcDbLine
 62
250
  6
CONTINUOUS
 10
128.5707324844
 20
86.1620124309
 11
128.6635896314
 21
86.2548696069
  0
LINE
  5
37B
100
AcDbEntity
  8
INCISIONI_LASER
100
AcDbLine
 62
250
  6
CONTINUOUS
 10
119.7634446314
 20
84.8642628816
 11
122.6635826314
 21
85.7954018816
  0
LINE
  5
37C
100
AcDbEntity
  8
INCISIONI_LASER
100
AcDbLine
 62
250
  6
CONTINUOUS
 10
121.5422246314
 20
84.8553378816
 11
120.6666856314
 21
84.5742338816
  0
LINE
  5
37D
100
AcDbEntity
  8
INCISIONI_LASER
100
AcDbLine
 62
250
  6
CONTINUOUS
 10
122.6635746314
 20
85.2153728816
 11
122.0932466314
 21
85.0322668816
  0
LINE
  5
37E
100
AcDbEntity
  8
INCISIONI_LASER
100
AcDbLine
 62
250
  6
CONTINUOUS
 10
127.7350181807
 20
87.7405838816
 11
128.6635896314
 21
88.0191551773
  0
LINE
  5
37F
100
AcDbEntity
  8
INCISIONI_LASER
100
AcDbLine
 62
250
  6
CONTINUOUS
 10
122.6470821196
 20
97.3117168816
 11
119.7479644208
 21
97.3117168816
  0
LINE
  5
380
100
AcDbEntity
  8
INCISIONI_LASER
100
AcDbLine
 62
250
  6
CONTINUOUS
 10
137.1635896314
 20
97.4691553323
 11
135.8635896314
 21
97.4691553323
  0
LINE
  5
381
100
AcDbEntity
  8
INCISIONI_LASER
100
AcDbLine
 62
250
  6
CONTINUOUS
 10
119.7479644208
 20
97.9343228816
 11
122.1652959099
 21
97.9343228816
  0
LINE
  5
382
100
AcDbEntity
  8
INCISIONI_LASER
100
AcDbLine
 62
250
  6
CONTINUOUS
 10
136.0493039061
 20
98.1191551773
 11
136.9778753374
 21
98.1191551773
  0
LINE
  5
383
100
AcDbEntity
  8
INCISIONI_LASER
100
AcDbLine
 62
250
  6
CONTINUOUS
 10
137.1635896314
 20
98.6453458159
 11
135.8635896314
 21
98.6453458159
  0
LINE
  5
384
100
AcDbEntity
  8
ASSI
100
AcDbLine
 62
7
  6
CONTINUOUS
 10
144.8897363543
 20
96.7895656117
 11
143.1635896314
 21
96.9405838816
  0
LINE
  5
385
100
AcDbEntity
  8
INCISIONI_LASER
100
AcDbLine
 62
250
  6
CONTINUOUS
 10
121.5508441207
 20
100.2920398816
 11
120.3019556311
 21
100.7220548816
  0
LINE
  5
386
100
AcDbEntity
  8
INCISIONI_LASER
100
AcDbLine
 62
250
  6
CONTINUOUS
 10
122.6470821196
 20
99.9145478816
 11
122.0326303304
 21
100.1313958816
  0
LINE
  5
387
100
AcDbEntity
  8
INCISIONI_LASER
100
AcDbLine
 62
250
  6
CONTINUOUS
 10
119.7479644208
 20
100.3684328816
 11
122.6470821196
 21
99.3200978816
  0
LINE
  5
388
100
AcDbEntity
  8
0
100
AcDbLine
 62
250
  6
CONTINUOUS
 10
139.7741859062
 20
84.7649618816
 11
134.7646709958
 21
89.7015938816
  0
LINE
  5
389
100
AcDbEntity
  8
INCISIONI_LASER
100
AcDbLine
 62
250
  6
CONTINUOUS
 10
124.7064467419
 20
101.7405838816
 11
124.1635896314
 21
102.2834410487
  0
LINE
  5
38A
100
AcDbEntity
  8
INCISIONI_LASER
100
AcDbLine
 62
250
  6
CONTINUOUS
 10
133.192738633
 20
91.6782388797
 11
130.3058908488
 21
95.1186496225
  0
LINE
  5
38B
100
AcDbEntity
  8
INCISIONI_LASER
100
AcDbLine
 62
250
  6
CONTINUOUS
 10
132.7898066314
 20
94.4428868816
 11
132.7898066314
 21
93.3518398816
  0
LINE
  5
38C
100
AcDbEntity
  8
INCISIONI_LASER
100
AcDbLine
 62
250
  6
CONTINUOUS
 10
132.8044686314
 20
95.8377698816
 11
132.8044686314
 21
94.7467228816
  0
LINE
  5
38D
100
AcDbEntity
  8
ASSI
100
AcDbLine
 62
7
  6
CONTINUOUS
 10
133.1635896314
 20
73.6170323654
 11
133.1635896314
 21
82.64923525
  0
LINE
  5
38E
100
AcDbEntity
  8
INCISIONI_LASER
100
AcDbLine
 62
250
  6
CONTINUOUS
 10
133.2472636314
 20
93.2551648816
 11
133.2472636314
 21
94.4428868816
  0
LINE
  5
38F
100
AcDbEntity
  8
INCISIONI_LASER
100
AcDbLine
 62
250
  6
CONTINUOUS
 10
133.2472636314
 20
94.8433978816
 11
133.2472636314
 21
96.0311198816
  0
LINE
  5
390
100
AcDbEntity
  8
INCISIONI_LASER
100
AcDbLine
 62
250
  6
CONTINUOUS
 10
133.6389956314
 20
87.6383728816
 11
133.6389956314
 21
87.1427948816
  0
LINE
  5
391
100
AcDbEntity
  8
ASSI
100
AcDbLine
 62
250
  6
CONTINUOUS
 10
133.6548634282
 20
82.64923525
 11
133.6548634282
 21
73.6427580135
  0
LINE
  5
392
100
AcDbEntity
  8
INCISIONI_LASER
100
AcDbLine
 62
250
  6
CONTINUOUS
 10
133.7293266314
 20
98.8076268816
 11
133.7293266314
 21
91.8735408816
  0
LINE
  5
393
100
AcDbEntity
  8
INCISIONI_LASER
100
AcDbLine
 62
250
  6
CONTINUOUS
 10
134.2535116314
 20
87.3905838816
 11
134.2535116314
 21
87.9258078816
  0
LINE
  5
394
100
AcDbEntity
  8
INCISIONI_LASER
100
AcDbLine
 62
250
  6
CONTINUOUS
 10
132.0035896314
 20
87.3905838816
 11
130.9703986314
 21
86.0595618816
  0
LINE
  5
395
100
AcDbEntity
  8
INCISIONI_LASER
100
AcDbLine
 62
250
  6
CONTINUOUS
 10
127.3635896314
 20
85.1405838816
 11
128.6635896314
 21
85.7905838816
  0
LINE
  5
396
100
AcDbEntity
  8
ASSI
100
AcDbLine
 62
7
  6
CONTINUOUS
 10
144.8897363543
 20
101.2916021514
 11
143.1635896314
 21
101.1405838816
  0
LINE
  5
397
100
AcDbEntity
  8
268140580
100
AcDbLine
 62
250
  6
CONTINUOUS
 10
112.1635896314
 20
100.2533542484
 11
115.1635896314
 21
100.3057194432
  0
LINE
  5
398
100
AcDbEntity
  8
INCISIONI_LASER
100
AcDbLine
 62
250
  6
CONTINUOUS
 10
122.1652959099
 20
99.0073218816
 11
122.6470821196
 21
99.0073218816
  0
LINE
  5
399
100
AcDbEntity
  8
INCISIONI_LASER
100
AcDbLine
 62
250
  6
CONTINUOUS
 10
137.1635896314
 20
96.3548696069
 11
135.8635896314
 21
96.7262982337
  0
LINE
  5
39A
100
AcDbEntity
  8
INCISIONI_LASER
100
AcDbLine
 62
250
  6
CONTINUOUS
 10
136.6064467688
 20
95.6120124696
 11
135.8635896314
 21
95.9834410576
  0
LINE
  5
39B
100
AcDbEntity
  8
INCISIONI_LASER
100
AcDbLine
 62
250
  6
CONTINUOUS
 10
132.3616736314
 20
97.4624628816
 11
133.2127296155
 21
96.7483428949
  0
LINE
  5
39C
100
AcDbEntity
  8
INCISIONI_LASER
100
AcDbLine
 62
250
  6
CONTINUOUS
 10
124.4350181867
 20
104.4548696606
 11
124.1635896314
 21
104.7262981026
  0
LINE
  5
39D
100
AcDbEntity
  8
0
100
AcDbLine
 62
250
  6
CONTINUOUS
 10
135.2782697603
 20
86.3587998816
 11
135.2782697603
 21
86.4581738816
  0
LINE
  5
39E
100
AcDbEntity
  8
0
100
AcDbLine
 62
250
  6
CONTINUOUS
 10
135.6728276581
 20
85.8306108816
 11
135.6728276581
 21
88.2685178816
  0
LINE
  5
39F
100
AcDbEntity
  8
INCISIONI_LASER
100
AcDbLine
 62
250
  6
CONTINUOUS
 10
135.8635896314
 20
105.0524884073
 11
135.8635896314
 21
104.3096316187
  0
LINE
  5
3A0
100
AcDbEntity
  8
INCISIONI_LASER
100
AcDbLine
 62
250
  6
CONTINUOUS
 10
135.8635896314
 20
97.4691553323
 11
135.8635896314
 21
97.9334409802
  0
LINE
  5
3A1
100
AcDbEntity
  8
INCISIONI_LASER
100
AcDbLine
 62
250
  6
CONTINUOUS
 10
135.8635896314
 20
98.6453458159
 11
135.8635896314
 21
99.2024887173
  0
LINE
  5
3A2
100
AcDbEntity
  8
0
100
AcDbLine
 62
250
  6
CONTINUOUS
 10
136.0356823851
 20
88.2084708816
 11
136.0356823851
 21
88.5585308816
  0
LINE
  5
3A3
100
AcDbEntity
  8
0
100
AcDbLine
 62
250
  6
CONTINUOUS
 10
136.4080896571
 20
88.5585308816
 11
136.4080896571
 21
88.2084708816
  0
LINE
  5
3A4
100
AcDbEntity
  8
INCISIONI_LASER
100
AcDbLine
 62
250
  6
CONTINUOUS
 10
136.4207324554
 20
98.6453458159
 11
136.4207324554
 21
99.0167742102
  0
LINE
  5
3A5
100
AcDbEntity
  8
0
100
AcDbLine
 62
250
  6
CONTINUOUS
 10
136.5004915817
 20
86.9286538816
 11
136.5004915817
 21
87.7519938816
  0
LINE
  5
3A6
100
AcDbEntity
  8
0
100
AcDbLine
 62
250
  6
CONTINUOUS
 10
135.1853099207
 20
86.9836568816
 11
135.1858678357
 21
87.5566598816
  0
LINE
  5
3A7
100
AcDbEntity
  8
0
100
AcDbLine
 62
250
  6
CONTINUOUS
 10
135.4033287103
 20
87.5566598816
 11
135.4027707953
 21
86.9836568816
  0
LINE
  5
3A8
100
AcDbEntity
  8
INCISIONI_LASER
100
AcDbLine
 62
250
  6
CONTINUOUS
 10
119.7634516314
 20
81.0064358816
 11
121.6521206314
 21
81.5480038816
  0
LINE
  5
3A9
100
AcDbEntity
  8
INCISIONI_LASER
100
AcDbLine
 62
250
  6
CONTINUOUS
 10
122.6635826314
 20
81.2579968816
 11
120.7511406314
 21
80.7096208816
  0
LINE
  5
3AA
100
AcDbEntity
  8
268140580
100
AcDbLine
 62
7
  6
CONTINUOUS
 10
112.1635896314
 20
100.5533085569
 11
115.1635896314
 21
100.6056737517
  0
LINE
  5
3AB
100
AcDbEntity
  8
RACCORDO
100
AcDbLine
 62
7
  6
CONTINUOUS
 10
115.1635896314
 20
100.7905838816
 11
112.1635896314
 21
100.7905838816
  0
LINE
  5
3AC
100
AcDbEntity
  8
INCISIONI_LASER
100
AcDbLine
 62
250
  6
CONTINUOUS
 10
135.8635896314
 20
100.8429645388
 11
137.1635896314
 21
100.8429645388
  0
LINE
  5
3AD
100
AcDbEntity
  8
INCISIONI_LASER
100
AcDbLine
 62
250
  6
CONTINUOUS
 10
137.1635896314
 20
101.431060013
 11
135.8635896314
 21
101.431060013
  0
LINE
  5
3AE
100
AcDbEntity
  8
INCISIONI_LASER
100
AcDbLine
 62
250
  6
CONTINUOUS
 10
137.1635896314
 20
102.081060013
 11
135.8635896314
 21
102.081060013
  0
LINE
  5
3AF
100
AcDbEntity
  8
INCISIONI_LASER
100
AcDbLine
 62
250
  6
CONTINUOUS
 10
124.1635896314
 20
102.2834410487
 11
126.0635896314
 21
102.2834410487
  0
LINE
  5
3B0
100
AcDbEntity
  8
INCISIONI_LASER
100
AcDbLine
 62
250
  6
CONTINUOUS
 10
122.6470821196
 20
102.4329088816
 11
119.7479644208
 21
102.4329088816
  0
LINE
  5
3B1
100
AcDbEntity
  8
INCISIONI_LASER
100
AcDbLine
 62
250
  6
CONTINUOUS
 10
125.6564467702
 20
102.8262982158
 11
124.1635896314
 21
103.2334409921
  0
LINE
  5
3B2
100
AcDbEntity
  8
INCISIONI_LASER
100
AcDbLine
 62
250
  6
CONTINUOUS
 10
124.7064467419
 20
104.3191552131
 11
124.4350181867
 21
104.4548696606
  0
LINE
  5
3B3
100
AcDbEntity
  8
INCISIONI_LASER
100
AcDbLine
 62
250
  6
CONTINUOUS
 10
125.7921610479
 20
105.1334409921
 11
126.0635896314
 21
104.8620125501
  0
LINE
  5
3B4
100
AcDbEntity
  8
INCISIONI_LASER
100
AcDbLine
 62
250
  6
CONTINUOUS
 10
124.5707325209
 20
107.4405838816
 11
124.1635896314
 21
107.8477265446
  0
LINE
  5
3B5
100
AcDbEntity
  8
INCISIONI_LASER
100
AcDbLine
 62
250
  6
CONTINUOUS
 10
125.7921610479
 20
106.6262981026
 11
126.0635896314
 21
106.3548696606
  0
LINE
  5
3B6
100
AcDbEntity
  8
0
100
AcDbLine
 62
250
  6
CONTINUOUS
 10
136.7160947393
 20
87.7519938816
 11
136.7160947393
 21
86.9286538816
  0
LINE
  5
3B7
100
AcDbEntity
  8
INCISIONI_LASER
100
AcDbLine
 62
250
  6
CONTINUOUS
 10
136.7921610434
 20
106.0429645388
 11
136.7921610434
 21
105.5477264731
  0
LINE
  5
3B8
100
AcDbEntity
  8
INCISIONI_LASER
100
AcDbLine
 62
250
  6
CONTINUOUS
 10
136.7921610434
 20
96.9739172666
 11
136.7921610434
 21
96.4786791234
  0
LINE
  5
3B9
100
AcDbEntity
  8
INCISIONI_LASER
100
AcDbLine
 62
250
  6
CONTINUOUS
 10
137.1635896314
 20
107.0024884073
 11
137.1635896314
 21
106.5382032244
  0
LINE
  5
3BA
100
AcDbEntity
  8
INCISIONI_LASER
100
AcDbLine
 62
250
  6
CONTINUOUS
 10
137.1635896314
 20
99.2024887173
 11
137.1635896314
 21
98.6453458159
  0
LINE
  5
3BB
100
AcDbEntity
  8
INCISIONI_LASER
100
AcDbLine
 62
250
  6
CONTINUOUS
 10
137.1635896314
 20
97.9334409802
 11
137.1635896314
 21
97.4691553323
  0
LINE
  5
3BC
100
AcDbEntity
  8
0
100
AcDbLine
 62
250
  6
CONTINUOUS
 10
134.78834239
 20
84.6404538816
 11
139.7648703252
 21
89.3721398816
  0
LINE
  5
3BD
100
AcDbEntity
  8
INCISIONI_LASER
100
AcDbLine
 62
250
  6
CONTINUOUS
 10
120.2207173827
 20
103.0153538816
 11
122.6470821196
 21
103.0153538816
  0
LINE
  5
3BE
100
AcDbEntity
  8
INCISIONI_LASER
100
AcDbLine
 62
250
  6
CONTINUOUS
 10
125.1135896314
 20
103.4596315114
 11
126.0635896314
 21
103.4596315114
  0
LINE
  5
3BF
100
AcDbEntity
  8
INCISIONI_LASER
100
AcDbLine
 62
250
  6
CONTINUOUS
 10
135.8635896314
 20
103.7215361445
 11
137.1635896314
 21
103.7215361445
  0
LINE
  5
3C0
100
AcDbEntity
  8
INCISIONI_LASER
100
AcDbLine
 62
250
  6
CONTINUOUS
 10
129.0675126314
 20
103.7554738816
 11
129.8183296314
 21
103.7554738816
  0
LINE
  5
3C1
100
AcDbEntity
  8
INCISIONI_LASER
100
AcDbLine
 62
250
  6
CONTINUOUS
 10
133.4127696314
 20
103.7554738816
 11
134.1635866314
 21
103.7554738816
  0
LINE
  5
3C2
100
AcDbEntity
  8
INCISIONI_LASER
100
AcDbLine
 62
250
  6
CONTINUOUS
 10
125.5207324643
 20
104.3191552131
 11
124.7064467419
 21
104.3191552131
  0
LINE
  5
3C3
100
AcDbEntity
  8
INCISIONI_LASER
100
AcDbLine
 62
250
  6
CONTINUOUS
 10
122.0453784463
 20
104.4693378816
 11
119.7479644208
 21
104.4693378816
  0
LINE
  5
3C4
100
AcDbEntity
  8
INCISIONI_LASER
100
AcDbLine
 62
250
  6
CONTINUOUS
 10
135.8635896314
 20
104.681060013
 11
137.1635896314
 21
104.681060013
  0
LINE
  5
3C5
100
AcDbEntity
  8
RACCORDO
100
AcDbLine
 62
7
  6
CONTINUOUS
 10
115.1635896314
 20
104.6905838816
 11
112.1635896314
 21
104.6905838816
  0
LINE
  5
3C6
100
AcDbEntity
  8
INCISIONI_LASER
100
AcDbLine
 62
250
  6
CONTINUOUS
 10
121.5508441207
 20
106.3170748816
 11
120.3021195812
 21
106.7470328816
  0
LINE
  5
3C7
100
AcDbEntity
  8
INCISIONI_LASER
100
AcDbLine
 62
250
  6
CONTINUOUS
 10
122.6470821196
 20
105.9394728816
 11
122.0326303304
 21
106.1564298816
  0
LINE
  5
3C8
100
AcDbEntity
  8
INCISIONI_LASER
100
AcDbLine
 62
250
  6
CONTINUOUS
 10
119.7479644208
 20
106.3934678816
 11
122.6470821196
 21
105.3450238816
  0
LINE
  5
3C9
100
AcDbEntity
  8
INCISIONI_LASER
100
AcDbLine
 62
250
  6
CONTINUOUS
 10
125.5207324643
 20
105.2691552131
 11
125.7921610479
 21
105.1334409921
  0
LINE
  5
3CA
100
AcDbEntity
  8
INCISIONI_LASER
100
AcDbLine
 62
250
  6
CONTINUOUS
 10
125.7921610479
 20
108.1191554396
 11
126.0635896314
 21
107.8477265446
  0
LINE
  5
3CB
100
AcDbEntity
  8
INCISIONI_LASER
100
AcDbLine
 62
250
  6
CONTINUOUS
 10
136.9778753374
 20
98.1191551773
 11
137.1635896314
 21
97.9334409802
  0
LINE
  5
3CC
100
AcDbEntity
  8
0
100
AcDbLine
 62
250
  6
CONTINUOUS
 10
139.0345365756
 20
86.3657578816
 11
139.0345365756
 21
87.7116248816
  0
LINE
  5
3CD
100
AcDbEntity
  8
0
100
AcDbLine
 62
250
  6
CONTINUOUS
 10
139.2309546556
 20
86.5400868816
 11
139.2309546556
 21
86.4224668816
  0
LINE
  5
3CE
100
AcDbEntity
  8
268140580
100
AcDbLine
 62
7
  6
CONTINUOUS
 10
114.5385896314
 20
68.9457653671
 11
113.7885896314
 21
68.5127526652
  0
LINE
  5
3CF
100
AcDbEntity
  8
268140580
100
AcDbLine
 62
250
  6
CONTINUOUS
 10
114.6635896314
 20
68.7292590162
 11
113.9135896314
 21
68.2962463143
  0
LINE
  5
3D0
100
AcDbEntity
  8
INCISIONI_LASER
100
AcDbLine
 62
250
  6
CONTINUOUS
 10
119.7634516314
 20
76.7206128816
 11
121.7603486314
 21
77.3617448816
  0
LINE
  5
3D1
100
AcDbEntity
  8
INCISIONI_LASER
100
AcDbLine
 62
250
  6
CONTINUOUS
 10
122.6635896314
 20
77.0717158816
 11
119.7634516314
 21
76.1405838816
  0
LINE
  5
3D2
100
AcDbEntity
  8
INCISIONI_LASER
100
AcDbLine
 62
250
  6
CONTINUOUS
 10
119.7479644208
 20
105.0517818816
 11
122.6470821196
 21
105.0517818816
  0
LINE
  5
3D3
100
AcDbEntity
  8
INCISIONI_LASER
100
AcDbLine
 62
250
  6
CONTINUOUS
 10
124.7064467419
 20
105.2691552131
 11
125.5207324643
 21
105.2691552131
  0
LINE
  5
3D4
100
AcDbEntity
  8
INCISIONI_LASER
100
AcDbLine
 62
250
  6
CONTINUOUS
 10
124.1635896314
 20
105.8120123236
 11
124.9778752972
 21
105.8120123236
  0
LINE
  5
3D5
100
AcDbEntity
  8
INCISIONI_LASER
100
AcDbLine
 62
250
  6
CONTINUOUS
 10
137.1635896314
 20
106.5382032244
 11
135.8635896314
 21
106.5382032244
  0
LINE
  5
3D6
100
AcDbEntity
  8
INCISIONI_LASER
100
AcDbLine
 62
250
  6
CONTINUOUS
 10
125.2493039091
 20
106.6262981026
 11
125.7921610479
 21
106.6262981026
  0
LINE
  5
3D7
100
AcDbEntity
  8
268140580
100
AcDbLine
 62
7
  6
CONTINUOUS
 10
115.1635896314
 20
105.6754940114
 11
112.1635896314
 21
105.7278592062
  0
LINE
  5
3D8
100
AcDbEntity
  8
268140580
100
AcDbLine
 62
250
  6
CONTINUOUS
 10
115.1635896314
 20
105.97544832
 11
112.1635896314
 21
106.0278135148
  0
LINE
  5
3D9
100
AcDbEntity
  8
INCISIONI_LASER
100
AcDbLine
 62
250
  6
CONTINUOUS
 10
125.1135896314
 20
107.1691554396
 11
124.5707325209
 21
107.4405838816
  0
LINE
  5
3DA
100
AcDbEntity
  8
268140580
100
AcDbLine
 62
7
  6
CONTINUOUS
 10
113.7885896314
 20
115.7684150979
 11
114.5385896314
 21
115.335402396
  0
LINE
  5
3DB
100
AcDbEntity
  8
268140580
100
AcDbLine
 62
250
  6
CONTINUOUS
 10
113.9135896314
 20
115.9849214489
 11
114.6635896314
 21
115.551908747
  0
LINE
  5
3DC
100
AcDbEntity
  8
0
100
AcDbLine
 62
250
  6
CONTINUOUS
 10
140.8447328319
 20
85.0482218816
 11
140.8447328319
 21
89.2329458816
  0
LINE
  5
3DD
100
AcDbEntity
  8
0
100
AcDbLine
 62
250
  6
CONTINUOUS
 10
141.8635896314
 20
89.2329458816
 11
141.8635896314
 21
85.0482218816
  0
LINE
  5
3DE
100
AcDbEntity
  8
ASSI
100
AcDbLine
 62
250
  6
CONTINUOUS
 10
142.1810420379
 20
82.7980602512
 11
142.1810420379
 21
80.8062071705
  0
LINE
  5
3DF
100
AcDbEntity
  8
ASSI
100
AcDbLine
 62
250
  6
CONTINUOUS
 10
142.1810420379
 20
79.2749605926
 11
142.1810420379
 21
73.7915830147
  0
LINE
  5
3E0
100
AcDbEntity
  8
ASSI
100
AcDbLine
 62
250
  6
CONTINUOUS
 10
142.1810420379
 20
84.297831794
 11
142.1810420379
 21
89.2705007824
  0
LINE
  5
3E1
100
AcDbEntity
  8
ASSI
100
AcDbLine
 62
250
  6
CONTINUOUS
 10
142.1810420379
 20
91.6106669807
 11
142.1810420379
 21
103.0705007824
  0
LINE
  5
3E2
100
AcDbEntity
  8
ASSI
100
AcDbLine
 62
250
  6
CONTINUOUS
 10
142.1810420379
 20
105.4106669807
 11
142.1810420379
 21
109.6314036316
  0
LINE
  5
3E3
100
AcDbEntity
  8
ASSI
100
AcDbLine
 62
250
  6
CONTINUOUS
 10
142.1810420379
 20
111.0454018024
 11
142.1810420379
 21
111.1965838339
  0
LINE
  5
3E4
100
AcDbEntity
  8
INCISIONI_LASER
100
AcDbLine
 62
250
  6
CONTINUOUS
 10
125.7921610479
 20
107.1691554396
 11
125.1135896314
 21
107.1691554396
  0
LINE
  5
3E5
100
AcDbEntity
  8
INCISIONI_LASER
100
AcDbLine
 62
250
  6
CONTINUOUS
 10
131.2405496314
 20
107.7405838816
 11
131.9905496314
 21
107.7405838816
  0
LINE
  5
3E6
100
AcDbEntity
  8
INCISIONI_LASER
100
AcDbLine
 62
250
  6
CONTINUOUS
 10
136.4207324554
 20
107.745345196
 11
137.1635896314
 21
107.745345196
  0
LINE
  5
3E7
100
AcDbEntity
  8
INCISIONI_LASER
100
AcDbLine
 62
250
  6
CONTINUOUS
 10
125.2493039091
 20
108.1191554396
 11
125.7921610479
 21
108.1191554396
  0
LINE
  5
3E8
100
AcDbEntity
  8
INCISIONI_LASER
100
AcDbLine
 62
250
  6
CONTINUOUS
 10
129.0675125137
 20
108.1405838816
 11
129.8183296314
 21
108.1405838816
  0
LINE
  5
3E9
100
AcDbEntity
  8
INCISIONI_LASER
100
AcDbLine
 62
250
  6
CONTINUOUS
 10
133.412766583
 20
108.1405838816
 11
134.1635867492
 21
108.1405838816
  0
LINE
  5
3EA
100
AcDbEntity
  8
268140580
100
AcDbLine
 62
250
  6
CONTINUOUS
 10
112.1635896314
 20
108.6405838816
 11
113.0583539095
 21
108.6405838816
  0
LINE
  5
3EB
100
AcDbEntity
  8
268140580
100
AcDbLine
 62
7
  6
CONTINUOUS
 10
112.1635896314
 20
108.9405838816
 11
112.7635896314
 21
108.9405838816
  0
LINE
  5
3EC
100
AcDbEntity
  8
ASSI
100
AcDbLine
 62
7
  6
CONTINUOUS
 10
144.8897363543
 20
107.1895656117
 11
143.1635896314
 21
107.3405838816
  0
LINE
  5
3ED
100
AcDbEntity
  8
INCISIONI_LASER
100
AcDbLine
 62
250
  6
CONTINUOUS
 10
137.1635896314
 20
105.4239174215
 11
135.8635896314
 21
105.795345196
  0
LINE
  5
3EE
100
AcDbEntity
  8
ASSI
100
AcDbLine
 62
7
  6
CONTINUOUS
 10
143.1635896314
 20
84.1811726717
 11
143.1635896314
 21
82.3275881885
  0
LINE
  5
3EF
100
AcDbEntity
  8
ASSI
100
AcDbLine
 62
7
  6
CONTINUOUS
 10
143.1635896314
 20
77.7535795747
 11
143.1635896314
 21
73.7915830147
  0
LINE
  5
3F0
100
AcDbEntity
  8
0
100
AcDbLine
 62
7
  6
CONTINUOUS
 10
143.1635896314
 20
83.6405838816
 11
143.1635896314
 21
84.1811726717
  0
LINE
  5
3F1
100
AcDbEntity
  8
ASSI
100
AcDbLine
 62
7
  6
CONTINUOUS
 10
143.1635896314
 20
84.297831794
 11
143.1635896314
 21
88.0416713278
  0
LINE
  5
3F2
100
AcDbEntity
  8
ASSI
100
AcDbLine
 62
7
  6
CONTINUOUS
 10
143.1635896314
 20
92.8394964354
 11
143.1635896314
 21
101.8416713278
  0
LINE
  5
3F3
100
AcDbEntity
  8
ASSI
100
AcDbLine
 62
7
  6
CONTINUOUS
 10
143.1635896314
 20
106.6394964354
 11
143.1635896314
 21
110.4895847485
  0
LINE
  5
3F4
100
AcDbEntity
  8
ASSI
100
AcDbLine
 62
250
  6
CONTINUOUS
 10
144.8688253534
 20
104.6898927905
 11
144.8688253534
 21
103.7912749727
  0
LINE
  5
3F5
100
AcDbEntity
  8
ASSI
100
AcDbLine
 62
250
  6
CONTINUOUS
 10
144.8688253534
 20
90.8898927905
 11
144.8688253534
 21
89.9912749727
  0
LINE
  5
3F6
100
AcDbEntity
  8
ASSI
100
AcDbLine
 62
250
  6
CONTINUOUS
 10
144.8897363543
 20
107.1895656117
 11
144.8897363543
 21
104.6849665269
  0
LINE
  5
3F7
100
AcDbEntity
  8
ASSI
100
AcDbLine
 62
250
  6
CONTINUOUS
 10
144.8897363543
 20
103.7962012362
 11
144.8897363543
 21
101.2916021514
  0
LINE
  5
3F8
100
AcDbEntity
  8
ASSI
100
AcDbLine
 62
250
  6
CONTINUOUS
 10
144.8897363561
 20
96.7895656116
 11
144.8897363543
 21
90.8849665269
  0
LINE
  5
3F9
100
AcDbEntity
  8
ASSI
100
AcDbLine
 62
250
  6
CONTINUOUS
 10
144.8897363543
 20
89.9962012362
 11
144.8897363543
 21
87.4916021514
  0
LINE
  5
3FA
100
AcDbEntity
  8
ASSI
100
AcDbLine
 62
250
  6
CONTINUOUS
 10
144.8897363562
 20
82.9895656116
 11
144.8897363558
 21
77.0916021515
  0
LINE
  5
3FB
100
AcDbEntity
  8
ASSI
100
AcDbLine
 62
250
  6
CONTINUOUS
 10
142.1810420379
 20
109.6314036316
 11
143.1635896314
 21
109.6314036316
  0
LINE
  5
3FC
100
AcDbEntity
  8
ASSI
100
AcDbLine
 62
250
  6
CONTINUOUS
 10
142.1810420379
 20
109.6314036316
 11
117.1635896314
 21
109.8122829303
  0
LINE
  5
3FD
100
AcDbEntity
  8
INCISIONI_LASER
100
AcDbLine
 62
250
  6
CONTINUOUS
 10
135.8635896314
 20
108.1167748301
 11
136.4207324554
 21
107.745345196
  0
LINE
  5
3FE
100
AcDbEntity
  8
ASSI
100
AcDbLine
 62
7
  6
CONTINUOUS
 10
145.1635896314
 20
106.8907067205
 11
145.1635896314
 21
101.5904610427
  0
LINE
  5
3FF
100
AcDbEntity
  8
ASSI
100
AcDbLine
 62
7
  6
CONTINUOUS
 10
145.1635896314
 20
96.4907066509
 11
145.1635896314
 21
87.7904610427
  0
LINE
  5
400
100
AcDbEntity
  8
ASSI
100
AcDbLine
 62
7
  6
CONTINUOUS
 10
145.1635896314
 20
82.6907066876
 11
145.1635896314
 21
77.3904610713
  0
LINE
  5
401
100
AcDbEntity
  8
268140580
100
AcDbLine
 62
7
  6
CONTINUOUS
 10
114.6635896314
 20
112.1405838816
 11
113.0583539038
 21
112.1125643877
  0
LINE
  5
402
100
AcDbEntity
  8
ASSI
100
AcDbLine
 62
7
  6
CONTINUOUS
 10
112.1635896314
 20
112.6405838816
 11
111.5635896314
 21
112.6301108426
  0
LINE
  5
403
100
AcDbEntity
  8
268140580
100
AcDbLine
 62
250
  6
CONTINUOUS
 10
114.6635896314
 20
111.5858937085
 11
113.0583539095
 21
111.5765061227
  0
LINE
  5
404
100
AcDbEntity
  8
268140580
100
AcDbLine
 62
250
  6
CONTINUOUS
 10
112.7635896314
 20
111.5765061227
 11
113.0583539095
 21
111.5765061227
  0
LINE
  5
405
100
AcDbEntity
  8
268140580
100
AcDbLine
 62
7
  6
CONTINUOUS
 10
114.6635896314
 20
112.9405838816
 11
115.4583539095
 21
112.9405838816
  0
LINE
  5
406
100
AcDbEntity
  8
ASSI
100
AcDbLine
 62
7
  6
CONTINUOUS
 10
117.1635896314
 20
112.9905838816
 11
127.1635896314
 21
112.9905838816
  0
LINE
  5
407
100
AcDbEntity
  8
268140580
100
AcDbLine
 62
7
  6
CONTINUOUS
 10
127.1635896314
 20
113.0405838816
 11
117.1635896314
 21
113.0405838816
  0
LINE
  5
408
100
AcDbEntity
  8
ASSI
100
AcDbLine
 62
250
  6
CONTINUOUS
 10
142.1810420379
 20
111.0454018024
 11
117.1635896314
 21
111.2262811011
  0
LINE
  5
409
100
AcDbEntity
  8
ASSI
100
AcDbLine
 62
250
  6
CONTINUOUS
 10
127.1635896314
 20
111.4587144407
 11
142.1810420379
 21
111.1965838339
  0
LINE
  5
40A
100
AcDbEntity
  8
ASSI
100
AcDbLine
 62
7
  6
CONTINUOUS
 10
127.1635896314
 20
111.7515630504
 11
142.1810420379
 21
111.4894324436
  0
LINE
  5
40B
100
AcDbEntity
  8
ASSI
100
AcDbLine
 62
250
  6
CONTINUOUS
 10
107.5757676087
 20
112.6419525184
 11
107.0849151431
 21
112.6624744087
  0
LWPOLYLINE
  5
40C
100
AcDbEntity
  8
0
100
AcDbPolyline
 62
7
  6
CONTINUOUS
 90
10
 70
0
 43
0.3500000006
 10
126.8778779297
 20
135.9102061157
 10
126.9493000488
 20
135.76734375
 10
126.9493000488
 20
135.6959216309
 10
126.8064467468
 20
135.5530592651
 10
126.735015564
 20
135.5530592651
 10
126.6635934448
 20
135.6244813843
 10
126.6635934448
 20
135.6959216309
 10
126.735015564
 20
135.8387658691
 10
126.8064467468
 20
135.9102061157
 10
126.8778779297
 20
135.9102061157
  0
LINE
  5
40D
100
AcDbEntity
  8
ASSI
100
AcDbLine
 62
250
  6
CONTINUOUS
 10
111.5635896314
 20
113.7589103619
 11
108.5225890015
 21
113.5995382721
  0
LINE
  5
40E
100
AcDbEntity
  8
268140580
100
AcDbLine
 62
250
  6
CONTINUOUS
 10
116.1670830375
 20
114.1405838816
 11
114.6635896314
 21
114.061789131
  0
LINE
  5
40F
100
AcDbEntity
  8
ASSI
100
AcDbLine
 62
7
  6
CONTINUOUS
 10
111.5635896314
 20
114.259139214
 11
108.5051472266
 21
114.0988530395
  0
LINE
  5
410
100
AcDbEntity
  8
268140580
100
AcDbLine
 62
7
  6
CONTINUOUS
 10
114.6635896314
 20
114.4619722127
 11
116.1583596245
 21
114.5403097885
  0
LINE
  5
411
100
AcDbEntity
  8
268140580
100
AcDbLine
 62
250
  6
CONTINUOUS
 10
116.1738004091
 20
114.5405743838
 11
116.1739775974
 21
114.5405813818
  0
LINE
  5
412
100
AcDbEntity
  8
268140580
100
AcDbLine
 62
250
  6
CONTINUOUS
 10
116.1738662912
 20
114.5405741946
 11
116.1740720526
 21
114.5405813032
  0
LINE
  5
413
100
AcDbEntity
  8
268140580
100
AcDbLine
 62
250
  6
CONTINUOUS
 10
117.1635896314
 20
114.1405838816
 11
116.1670830375
 21
114.1405838816
  0
LINE
  5
414
100
AcDbEntity
  8
268140580
100
AcDbLine
 62
7
  6
CONTINUOUS
 10
115.960476744
 20
114.5405838816
 11
126.1635896314
 21
114.5405838816
  0
LINE
  5
415
100
AcDbEntity
  8
268140580
100
AcDbLine
 62
250
  6
CONTINUOUS
 10
115.9135896314
 20
114.7405838816
 11
116.1635896314
 21
114.7405838816
  0
LINE
  5
416
100
AcDbEntity
  8
268140580
100
AcDbLine
 62
250
  6
CONTINUOUS
 10
114.9135896314
 20
115.1188960451
 11
114.6635896314
 21
115.1188960451
  0
LINE
  5
417
100
AcDbEntity
  8
268140580
100
AcDbLine
 62
250
  6
CONTINUOUS
 10
115.9135896314
 20
115.1188960451
 11
116.1635896314
 21
115.1188960451
  0
LINE
  5
418
100
AcDbEntity
  8
268140580
100
AcDbLine
 62
7
  6
CONTINUOUS
 10
127.1635896314
 20
113.5044360116
 11
117.1635896314
 21
113.5405838816
  0
LINE
  5
419
100
AcDbEntity
  8
268140580
100
AcDbLine
 62
250
  6
CONTINUOUS
 10
113.9135896314
 20
115.9849214489
 11
113.6635896314
 21
115.9849214489
  0
LINE
  5
41A
100
AcDbEntity
  8
268140580
100
AcDbLine
 62
250
  6
CONTINUOUS
 10
116.9135896314
 20
115.9849214489
 11
117.1635896314
 21
115.9849214489
  0
LINE
  5
41B
100
AcDbEntity
  8
268140580
100
AcDbLine
 62
250
  6
CONTINUOUS
 10
116.9135896314
 20
116.3840292111
 11
117.1635896314
 21
116.3840292111
  0
LINE
  5
41C
100
AcDbEntity
  8
268140580
100
AcDbLine
 62
250
  6
CONTINUOUS
 10
113.9135896314
 20
116.4102098145
 11
113.6635896314
 21
116.4102098145
  0
LINE
  5
41D
100
AcDbEntity
  8
268140580
100
AcDbLine
 62
7
  6
CONTINUOUS
 10
117.1578089279
 20
115.9319074612
 11
123.6679528992
 21
115.8750942955
  0
LINE
  5
41E
100
AcDbEntity
  8
268140580
100
AcDbLine
 62
250
  6
CONTINUOUS
 10
116.9135896314
 20
116.3840292111
 11
113.9135896314
 21
116.4102098145
  0
LINE
  5
41F
100
AcDbEntity
  8
268140580
100
AcDbLine
 62
7
  6
CONTINUOUS
 10
116.9157712653
 20
116.6340196919
 11
113.9157712653
 21
116.6602002953
  0
LWPOLYLINE
  5
420
100
AcDbEntity
  8
0
100
AcDbPolyline
 62
7
  6
CONTINUOUS
 90
7
 70
0
 43
0.3500000006
 10
130.3064478149
 20
125.4102029114
 10
128.8064473572
 20
125.4102029114
 10
130.3064478149
 20
127.5530568237
 10
130.3064478149
 20
127.9816257935
 10
129.8778788452
 20
128.4102038269
 10
129.2350163269
 20
128.4102038269
 10
128.8064473572
 20
127.7673413086
  0
LWPOLYLINE
  5
421
100
AcDbEntity
  8
0
100
AcDbPolyline
 62
7
  6
CONTINUOUS
 90
6
 70
0
 43
0.3500000006
 10
121.7350140381
 20
135.4101968994
 10
122.8064455261
 20
135.4101968994
 10
123.020730011
 20
135.6244813843
 10
123.020730011
 20
136.695921936
 10
122.5921610413
 20
137.1244909058
 10
122.1635920715
 20
137.1244909058
  0
LWPOLYLINE
  5
422
100
AcDbEntity
  8
0
100
AcDbPolyline
 62
7
  6
CONTINUOUS
 90
8
 70
0
 43
0.3500000006
 10
127.949300354
 20
135.4101968994
 10
128.8064473572
 20
135.4101968994
 10
129.2350163269
 20
135.8387658691
 10
129.2350163269
 20
136.695921936
 10
128.8064473572
 20
137.1244909058
 10
127.949300354
 20
137.1244909058
 10
127.949300354
 20
138.4101978149
 10
129.2350163269
 20
138.4101978149
  0
LWPOLYLINE
  5
423
100
AcDbEntity
  8
0
100
AcDbPolyline
 62
7
  6
CONTINUOUS
 90
13
 70
0
 43
0.3500000006
 10
131.5921637878
 20
127.124487854
 10
131.3064481201
 20
127.3387723389
 10
131.3064481201
 20
127.9816257935
 10
131.5921637878
 20
128.4102038269
 10
132.2350172424
 20
128.4102038269
 10
132.5207329102
 20
127.9816257935
 10
132.5207329102
 20
127.3387723389
 10
132.2350172424
 20
127.124487854
 10
132.6635862122
 20
126.6959188843
 10
132.6635862122
 20
125.8387718811
 10
132.2350172424
 20
125.4102029114
 10
131.5921637878
 20
125.4102029114
 10
131.1635857544
 20
125.8387718811
  0
LWPOLYLINE
  5
424
100
AcDbEntity
  8
0
100
AcDbPolyline
 62
7
  6
CONTINUOUS
 90
13
 70
0
 43
0.3500000006
 10
124.3064459839
 20
137.1244909058
 10
124.0207303162
 20
137.3387753906
 10
124.0207303162
 20
137.9816288452
 10
124.3064459839
 20
138.4101978149
 10
124.9492994385
 20
138.4101978149
 10
125.2350151062
 20
137.9816288452
 10
125.2350151062
 20
137.3387753906
 10
124.9492994385
 20
137.1244909058
 10
125.3778774719
 20
136.695921936
 10
125.3778774719
 20
135.8387658691
 10
124.9492994385
 20
135.4101968994
 10
124.3064459839
 20
135.4101968994
 10
123.8778770142
 20
135.8387658691
  0
LWPOLYLINE
  5
425
100
AcDbEntity
  8
0
100
AcDbPolyline
 62
7
  6
CONTINUOUS
 90
5
 70
0
 43
0.3500000006
 10
176.9378587646
 20
127.124487854
 10
177.2950056152
 20
127.3387723389
 10
177.2950056152
 20
127.9816257935
 10
176.9378587646
 20
128.4102038269
 10
176.0807208252
 20
128.4102038269
  0
LINE
  5
426
100
AcDbEntity
  8
268140580
100
AcDbLine
 62
7
  6
CONTINUOUS
 10
163.5378612487
 20
67.6209579486
 11
165.4378612487
 21
67.6209579486
  0
LINE
  5
427
100
AcDbEntity
  8
268140580
100
AcDbLine
 62
7
  6
CONTINUOUS
 10
182.4378612487
 20
67.6209579486
 11
184.3378612487
 21
67.6209579486
  0
LINE
  5
428
100
AcDbEntity
  8
268140580
100
AcDbLine
 62
250
  6
CONTINUOUS
 10
163.2878612487
 20
67.8709579486
 11
165.6878612487
 21
67.8709579486
  0
LINE
  5
429
100
AcDbEntity
  8
268140580
100
AcDbLine
 62
250
  6
CONTINUOUS
 10
182.1878612487
 20
67.8709579486
 11
184.5878612487
 21
67.8709579486
  0
LINE
  5
42A
100
AcDbEntity
  8
268140580
100
AcDbLine
 62
250
  6
CONTINUOUS
 10
184.5878612487
 20
68.2962463143
 11
182.1878612487
 21
68.2962463143
  0
LINE
  5
42B
100
AcDbEntity
  8
268140580
100
AcDbLine
 62
250
  6
CONTINUOUS
 10
165.6878612487
 20
68.2962463143
 11
163.2878612487
 21
68.2962463143
  0
LINE
  5
42C
100
AcDbEntity
  8
268140580
100
AcDbLine
 62
7
  6
CONTINUOUS
 10
178.0418880278
 20
68.3318570138
 11
169.8338344695
 21
68.3318570138
  0
LINE
  5
42D
100
AcDbEntity
  8
268140580
100
AcDbLine
 62
250
  6
CONTINUOUS
 10
184.3378612487
 20
68.5127526652
 11
182.4378612487
 21
68.5127526652
  0
LINE
  5
42E
100
AcDbEntity
  8
268140580
100
AcDbLine
 62
250
  6
CONTINUOUS
 10
165.4378612487
 20
68.5127526652
 11
163.5378612487
 21
68.5127526652
  0
LINE
  5
42F
100
AcDbEntity
  8
268140580
100
AcDbLine
 62
250
  6
CONTINUOUS
 10
184.3378612487
 20
68.9457653671
 11
182.4378612487
 21
68.9457653671
  0
LINE
  5
430
100
AcDbEntity
  8
268140580
100
AcDbLine
 62
250
  6
CONTINUOUS
 10
165.4378612487
 20
68.9457653671
 11
163.5378612487
 21
68.9457653671
  0
LINE
  5
431
100
AcDbEntity
  8
268140580
100
AcDbLine
 62
250
  6
CONTINUOUS
 10
184.5878612487
 20
69.1622717181
 11
182.1878612487
 21
69.1622717181
  0
LINE
  5
432
100
AcDbEntity
  8
268140580
100
AcDbLine
 62
250
  6
CONTINUOUS
 10
165.6878612487
 20
69.1622717181
 11
163.2878612487
 21
69.1622717181
  0
LINE
  5
433
100
AcDbEntity
  8
268140580
100
AcDbLine
 62
7
  6
CONTINUOUS
 10
182.1878612487
 20
69.7405838816
 11
178.3418880278
 21
69.7405838816
  0
LINE
  5
434
100
AcDbEntity
  8
268140580
100
AcDbLine
 62
7
  6
CONTINUOUS
 10
169.5338344695
 20
69.7405838816
 11
165.6878612487
 21
69.7405838816
  0
LINE
  5
435
100
AcDbEntity
  8
268140580
100
AcDbLine
 62
7
  6
CONTINUOUS
 10
163.1879221799
 20
69.7405838816
 11
163.2878612487
 21
69.7405838816
  0
LINE
  5
436
100
AcDbEntity
  8
268140580
100
AcDbLine
 62
7
  6
CONTINUOUS
 10
184.5878612487
 20
69.7405838816
 11
184.6878003175
 21
69.7405838816
  0
LINE
  5
437
100
AcDbEntity
  8
268140580
100
AcDbLine
 62
250
  6
CONTINUOUS
 10
184.6652900397
 20
69.7408579746
 11
184.5878612487
 21
69.7408579746
  0
LINE
  5
438
100
AcDbEntity
  8
268140580
100
AcDbLine
 62
250
  6
CONTINUOUS
 10
182.1878612487
 20
69.7408579746
 11
178.3418880278
 21
69.7408579746
  0
LINE
  5
439
100
AcDbEntity
  8
268140580
100
AcDbLine
 62
250
  6
CONTINUOUS
 10
169.5338344695
 20
69.7408579746
 11
165.6878612487
 21
69.7408579746
  0
LINE
  5
43A
100
AcDbEntity
  8
268140580
100
AcDbLine
 62
250
  6
CONTINUOUS
 10
163.2878612487
 20
69.7408579746
 11
163.2104324577
 21
69.7408579746
  0
LINE
  5
43B
100
AcDbEntity
  8
268140580
100
AcDbLine
 62
7
  6
CONTINUOUS
 10
169.8338344695
 20
69.7929916609
 11
178.0418880278
 21
69.7929916609
  0
LINE
  5
43C
100
AcDbEntity
  8
268140580
100
AcDbLine
 62
7
  6
CONTINUOUS
 10
163.2311944312
 20
69.8191955505
 11
163.5378612487
 21
69.8191955505
  0
LINE
  5
43D
100
AcDbEntity
  8
268140580
100
AcDbLine
 62
7
  6
CONTINUOUS
 10
165.4378612487
 20
69.8191955505
 11
182.4378612487
 21
69.8191955505
  0
LINE
  5
43E
100
AcDbEntity
  8
268140580
100
AcDbLine
 62
7
  6
CONTINUOUS
 10
184.3378612487
 20
69.8191955505
 11
184.6445280662
 21
69.8191955505
  0
LINE
  5
43F
100
AcDbEntity
  8
ASSI
100
AcDbLine
 62
7
  6
CONTINUOUS
 10
184.5277688095
 20
70.0220285491
 11
163.3479536879
 21
70.0220285491
  0
LINE
  5
440
100
AcDbEntity
  8
268140580
100
AcDbLine
 62
250
  6
CONTINUOUS
 10
162.7878612487
 20
70.1405838816
 11
162.805255336
 21
70.1405838816
  0
LINE
  5
441
100
AcDbEntity
  8
268140580
100
AcDbLine
 62
250
  6
CONTINUOUS
 10
185.0704671614
 20
70.1405838816
 11
185.0878612487
 21
70.1405838816
  0
LINE
  5
442
100
AcDbEntity
  8
ASSI
100
AcDbLine
 62
250
  6
CONTINUOUS
 10
163.4013389987
 20
70.1823147237
 11
184.4743834987
 21
70.1823147237
  0
LINE
  5
443
100
AcDbEntity
  8
268140580
100
AcDbLine
 62
7
  6
CONTINUOUS
 10
185.0580962484
 20
71.3405838816
 11
185.0273882097
 21
71.3405838816
  0
LINE
  5
444
100
AcDbEntity
  8
268140580
100
AcDbLine
 62
7
  6
CONTINUOUS
 10
162.8176262489
 20
71.3405838816
 11
162.8483342876
 21
71.3405838816
  0
LINE
  5
445
100
AcDbEntity
  8
ASSI
100
AcDbLine
 62
250
  6
CONTINUOUS
 10
163.4178658275
 20
71.6186933542
 11
184.4578566698
 21
71.6186933542
  0
LINE
  5
446
100
AcDbEntity
  8
ASSI
100
AcDbLine
 62
7
  6
CONTINUOUS
 10
185.0378612487
 20
71.6405838816
 11
185.0273882097
 21
71.6405838816
  0
LINE
  5
447
100
AcDbEntity
  8
ASSI
100
AcDbLine
 62
7
  6
CONTINUOUS
 10
162.8483342876
 20
71.6405838816
 11
162.8378612487
 21
71.6405838816
  0
LINE
  5
448
100
AcDbEntity
  8
ASSI
100
AcDbLine
 62
7
  6
CONTINUOUS
 10
162.7878612487
 20
74.4688848329
 11
162.7878612487
 21
109.8122829303
  0
LINE
  5
449
100
AcDbEntity
  8
268140580
100
AcDbLine
 62
7
  6
CONTINUOUS
 10
162.7878612487
 20
70.1405838816
 11
162.7878612487
 21
114.1405838816
  0
LINE
  5
44A
100
AcDbEntity
  8
268140580
100
AcDbLine
 62
250
  6
CONTINUOUS
 10
162.8176262489
 20
71.3405838816
 11
162.8176262489
 21
112.9405838816
  0
LINE
  5
44B
100
AcDbEntity
  8
268140580
100
AcDbLine
 62
7
  6
CONTINUOUS
 10
162.831498911
 20
70.2193786322
 11
162.831498911
 21
71.3405838816
  0
LINE
  5
44C
100
AcDbEntity
  8
268140580
100
AcDbLine
 62
7
  6
CONTINUOUS
 10
162.831498911
 20
112.9405838816
 11
162.831498911
 21
114.061789131
  0
LINE
  5
44D
100
AcDbEntity
  8
ASSI
100
AcDbLine
 62
7
  6
CONTINUOUS
 10
162.8378612487
 20
112.6405838816
 11
162.8378612487
 21
71.6405838816
  0
LINE
  5
44E
100
AcDbEntity
  8
ASSI
100
AcDbLine
 62
7
  6
CONTINUOUS
 10
162.8483342876
 20
70.5222574012
 11
162.8483342876
 21
71.6510569205
  0
LINE
  5
44F
100
AcDbEntity
  8
ASSI
100
AcDbLine
 62
7
  6
CONTINUOUS
 10
162.8483342876
 20
112.6301108426
 11
162.8483342876
 21
113.7589103619
  0
LINE
  5
450
100
AcDbEntity
  8
268140580
100
AcDbLine
 62
250
  6
CONTINUOUS
 10
163.2104324577
 20
114.5405838816
 11
163.2104324577
 21
114.5403097885
  0
LINE
  5
451
100
AcDbEntity
  8
268140580
100
AcDbLine
 62
250
  6
CONTINUOUS
 10
163.2104324577
 20
69.7408579746
 11
163.2104324577
 21
69.7405838816
  0
LINE
  5
452
100
AcDbEntity
  8
268140580
100
AcDbLine
 62
7
  6
CONTINUOUS
 10
163.2878612487
 20
69.8060936057
 11
163.2878612487
 21
67.8709579486
  0
LINE
  5
453
100
AcDbEntity
  8
268140580
100
AcDbLine
 62
7
  6
CONTINUOUS
 10
163.2878612487
 20
114.4750741575
 11
163.2878612487
 21
116.4102098145
  0
LINE
  5
454
100
AcDbEntity
  8
268140580
100
AcDbLine
 62
250
  6
CONTINUOUS
 10
163.5378612487
 20
69.8191955505
 11
163.5378612487
 21
67.6209579486
  0
LINE
  5
455
100
AcDbEntity
  8
268140580
100
AcDbLine
 62
250
  6
CONTINUOUS
 10
163.5378612487
 20
114.4619722127
 11
163.5378612487
 21
116.6602098145
  0
LWPOLYLINE
  5
456
100
AcDbEntity
  8
0
100
AcDbPolyline
 62
7
  6
CONTINUOUS
 90
3
 70
0
 43
0.3500000006
 10
175.08072052
 20
125.6959185791
 10
175.0092984009
 20
125.4816250305
 10
174.8664360352
 20
125.1959184265
  0
LINE
  5
457
100
AcDbEntity
  8
268140580
100
AcDbLine
 62
250
  6
CONTINUOUS
 10
165.4378612487
 20
67.6209579486
 11
165.4378612487
 21
69.8191955505
  0
LINE
  5
458
100
AcDbEntity
  8
268140580
100
AcDbLine
 62
250
  6
CONTINUOUS
 10
165.4378612487
 20
114.4619722127
 11
165.4378612487
 21
116.6602098145
  0
LINE
  5
459
100
AcDbEntity
  8
268140580
100
AcDbLine
 62
7
  6
CONTINUOUS
 10
165.6878612487
 20
116.4102098145
 11
165.6878612487
 21
114.4750741575
  0
LINE
  5
45A
100
AcDbEntity
  8
268140580
100
AcDbLine
 62
7
  6
CONTINUOUS
 10
165.6878612487
 20
69.8060936057
 11
165.6878612487
 21
67.8709579486
  0
LINE
  5
45B
100
AcDbEntity
  8
ASSI
100
AcDbLine
 62
7
  6
CONTINUOUS
 10
185.0378612487
 20
112.6405838816
 11
185.0273882097
 21
112.6301108426
  0
LINE
  5
45C
100
AcDbEntity
  8
ASSI
100
AcDbLine
 62
7
  6
CONTINUOUS
 10
185.0273882097
 20
71.6510569205
 11
185.0378612487
 21
71.6405838816
  0
LINE
  5
45D
100
AcDbEntity
  8
268140580
100
AcDbLine
 62
7
  6
CONTINUOUS
 10
169.5338344695
 20
115.946692689
 11
169.5338344695
 21
114.5038984361
  0
LINE
  5
45E
100
AcDbEntity
  8
268140580
100
AcDbLine
 62
7
  6
CONTINUOUS
 10
169.5338344695
 20
69.7772693271
 11
169.5338344695
 21
68.3344750741
  0
LINE
  5
45F
100
AcDbEntity
  8
268140580
100
AcDbLine
 62
250
  6
CONTINUOUS
 10
169.8338344695
 20
115.9493107494
 11
169.8338344695
 21
114.4881761023
  0
LINE
  5
460
100
AcDbEntity
  8
268140580
100
AcDbLine
 62
250
  6
CONTINUOUS
 10
169.8338344695
 20
69.7929916609
 11
169.8338344695
 21
68.3318570138
  0
LINE
  5
461
100
AcDbEntity
  8
ASSI
100
AcDbLine
 62
250
  6
CONTINUOUS
 10
162.8483342876
 20
70.5222574012
 11
162.9014151511
 21
70.681629491
  0
LINE
  5
462
100
AcDbEntity
  8
268140580
100
AcDbLine
 62
250
  6
CONTINUOUS
 10
162.805255336
 20
70.1405838816
 11
162.831498911
 21
70.2193786322
  0
LINE
  5
463
100
AcDbEntity
  8
ASSI
100
AcDbLine
 62
250
  6
CONTINUOUS
 10
162.9014151511
 20
113.5995382721
 11
162.8483342876
 21
113.7589103619
  0
LINE
  5
464
100
AcDbEntity
  8
268140580
100
AcDbLine
 62
250
  6
CONTINUOUS
 10
162.831498911
 20
114.061789131
 11
162.805255336
 21
114.1405838816
  0
LINE
  5
465
100
AcDbEntity
  8
0
100
AcDbLine
 62
250
  6
CONTINUOUS
 10
171.7378612487
 20
90.8905839039
 11
171.7378612487
 21
93.390583805
  0
LINE
  5
466
100
AcDbEntity
  8
268140580
100
AcDbLine
 62
250
  6
CONTINUOUS
 10
163.205194414
 20
69.7411320677
 11
163.2311944312
 21
69.8191955505
  0
LINE
  5
467
100
AcDbEntity
  8
ASSI
100
AcDbLine
 62
250
  6
CONTINUOUS
 10
163.3479536879
 20
70.0220285491
 11
163.4013389987
 21
70.1823147237
  0
LINE
  5
468
100
AcDbEntity
  8
0
100
AcDbLine
 62
250
  6
CONTINUOUS
 10
171.7378612487
 20
93.3905839114
 11
172.237861271
 21
93.8905838816
  0
LINE
  5
469
100
AcDbEntity
  8
0
100
AcDbLine
 62
250
  6
CONTINUOUS
 10
172.9878612785
 20
90.3905838816
 11
172.237861271
 21
90.3905838816
  0
LINE
  5
46A
100
AcDbEntity
  8
0
100
AcDbLine
 62
250
  6
CONTINUOUS
 10
172.237861271
 20
90.3905838816
 11
171.7378612487
 21
90.8905839039
  0
LINE
  5
46B
100
AcDbEntity
  8
268140580
100
AcDbLine
 62
250
  6
CONTINUOUS
 10
163.2311944312
 20
114.4619722127
 11
163.205194414
 21
114.5400356955
  0
LINE
  5
46C
100
AcDbEntity
  8
ASSI
100
AcDbLine
 62
250
  6
CONTINUOUS
 10
163.4013389987
 20
114.0988530395
 11
163.3479536879
 21
114.259139214
  0
LINE
  5
46D
100
AcDbEntity
  8
0
100
AcDbLine
 62
250
  6
CONTINUOUS
 10
173.4878612487
 20
93.3905839114
 11
173.4878612487
 21
90.8905840103
  0
LWPOLYLINE
  5
46E
100
AcDbEntity
  8
0
100
AcDbPolyline
 62
7
  6
CONTINUOUS
 90
2
 70
0
 43
0.3500000006
 10
193.1878591919
 20
90.7834453125
 10
191.6878677979
 20
90.7834453125
  0
LINE
  5
46F
100
AcDbEntity
  8
0
100
AcDbLine
 62
250
  6
CONTINUOUS
 10
174.4878611891
 20
90.3905838816
 11
174.4878611891
 21
93.8905838287
  0
LINE
  5
470
100
AcDbEntity
  8
0
100
AcDbLine
 62
250
  6
CONTINUOUS
 10
173.4878612487
 20
90.8905839039
 11
172.9878612785
 21
90.3905838816
  0
LINE
  5
471
100
AcDbEntity
  8
0
100
AcDbLine
 62
250
  6
CONTINUOUS
 10
172.237861271
 20
93.8905838816
 11
172.9878612785
 21
93.8905838816
  0
LINE
  5
472
100
AcDbEntity
  8
0
100
AcDbLine
 62
250
  6
CONTINUOUS
 10
172.9878612785
 20
93.8905838816
 11
173.4878612487
 21
93.3905839114
  0
LINE
  5
473
100
AcDbEntity
  8
0
100
AcDbLine
 62
250
  6
CONTINUOUS
 10
174.4878611891
 20
93.8905838816
 11
176.2378611891
 21
90.3905838816
  0
LINE
  5
474
100
AcDbEntity
  8
0
100
AcDbLine
 62
250
  6
CONTINUOUS
 10
176.2378611891
 20
90.3905838816
 11
176.2378611891
 21
93.8905838287
  0
LINE
  5
475
100
AcDbEntity
  8
ASSI
100
AcDbLine
 62
250
  6
CONTINUOUS
 10
184.5277688095
 20
114.259139214
 11
184.4743834987
 21
114.0988530395
  0
LINE
  5
476
100
AcDbEntity
  8
268140580
100
AcDbLine
 62
250
  6
CONTINUOUS
 10
184.6705280833
 20
114.5400356955
 11
184.6445280662
 21
114.4619722127
  0
LINE
  5
477
100
AcDbEntity
  8
268140580
100
AcDbLine
 62
250
  6
CONTINUOUS
 10
185.0704671614
 20
114.1405838816
 11
185.0442235864
 21
114.061789131
  0
LINE
  5
478
100
AcDbEntity
  8
ASSI
100
AcDbLine
 62
250
  6
CONTINUOUS
 10
185.0273882097
 20
113.7589103619
 11
184.9743073463
 21
113.5995382721
  0
LINE
  5
479
100
AcDbEntity
  8
ASSI
100
AcDbLine
 62
250
  6
CONTINUOUS
 10
184.4743834987
 20
70.1823147237
 11
184.5277688095
 21
70.0220285491
  0
LINE
  5
47A
100
AcDbEntity
  8
268140580
100
AcDbLine
 62
250
  6
CONTINUOUS
 10
184.6445280662
 20
69.8191955505
 11
184.6705280833
 21
69.7411320677
  0
LINE
  5
47B
100
AcDbEntity
  8
268140580
100
AcDbLine
 62
250
  6
CONTINUOUS
 10
185.0442235864
 20
70.2193786322
 11
185.0704671614
 21
70.1405838816
  0
LINE
  5
47C
100
AcDbEntity
  8
ASSI
100
AcDbLine
 62
250
  6
CONTINUOUS
 10
184.9743073463
 20
70.681629491
 11
185.0273882097
 21
70.5222574012
  0
LINE
  5
47D
100
AcDbEntity
  8
268140580
100
AcDbLine
 62
250
  6
CONTINUOUS
 10
178.0418880278
 20
68.3318570138
 11
178.0418880278
 21
69.7929916609
  0
LINE
  5
47E
100
AcDbEntity
  8
268140580
100
AcDbLine
 62
250
  6
CONTINUOUS
 10
178.0418880278
 20
114.4881761023
 11
178.0418880278
 21
115.9493107494
  0
LINE
  5
47F
100
AcDbEntity
  8
268140580
100
AcDbLine
 62
7
  6
CONTINUOUS
 10
178.3418880278
 20
68.3344750741
 11
178.3418880278
 21
69.7772693271
  0
LINE
  5
480
100
AcDbEntity
  8
268140580
100
AcDbLine
 62
7
  6
CONTINUOUS
 10
178.3418880278
 20
114.5038984361
 11
178.3418880278
 21
115.946692689
  0
LINE
  5
481
100
AcDbEntity
  8
ASSI
100
AcDbLine
 62
7
  6
CONTINUOUS
 10
162.8483342876
 20
71.6510569205
 11
162.8378612487
 21
71.6405838816
  0
LINE
  5
482
100
AcDbEntity
  8
ASSI
100
AcDbLine
 62
7
  6
CONTINUOUS
 10
162.8378612487
 20
112.6405838816
 11
162.8483342876
 21
112.6301108426
  0
LINE
  5
483
100
AcDbEntity
  8
268140580
100
AcDbLine
 62
7
  6
CONTINUOUS
 10
182.1878612487
 20
69.8060936057
 11
182.1878612487
 21
67.8709579486
  0
LINE
  5
484
100
AcDbEntity
  8
268140580
100
AcDbLine
 62
7
  6
CONTINUOUS
 10
182.1878612487
 20
114.4750741575
 11
182.1878612487
 21
116.4102098145
  0
LINE
  5
485
100
AcDbEntity
  8
268140580
100
AcDbLine
 62
250
  6
CONTINUOUS
 10
182.4378612487
 20
69.8191955505
 11
182.4378612487
 21
67.6209579486
  0
LINE
  5
486
100
AcDbEntity
  8
268140580
100
AcDbLine
 62
250
  6
CONTINUOUS
 10
182.4378612487
 20
114.4619722127
 11
182.4378612487
 21
116.6602098145
  0
LINE
  5
487
100
AcDbEntity
  8
268140580
100
AcDbLine
 62
250
  6
CONTINUOUS
 10
184.3378612487
 20
67.6209579486
 11
184.3378612487
 21
69.8191955505
  0
LINE
  5
488
100
AcDbEntity
  8
268140580
100
AcDbLine
 62
250
  6
CONTINUOUS
 10
184.3378612487
 20
114.4619722127
 11
184.3378612487
 21
116.6602098145
  0
LINE
  5
489
100
AcDbEntity
  8
268140580
100
AcDbLine
 62
7
  6
CONTINUOUS
 10
184.5878612487
 20
116.4102098145
 11
184.5878612487
 21
114.4750741575
  0
LINE
  5
48A
100
AcDbEntity
  8
268140580
100
AcDbLine
 62
7
  6
CONTINUOUS
 10
184.5878612487
 20
69.8060936057
 11
184.5878612487
 21
67.8709579486
  0
LINE
  5
48B
100
AcDbEntity
  8
268140580
100
AcDbLine
 62
250
  6
CONTINUOUS
 10
184.6652900397
 20
69.7405838816
 11
184.6652900397
 21
69.7408579746
  0
LINE
  5
48C
100
AcDbEntity
  8
268140580
100
AcDbLine
 62
250
  6
CONTINUOUS
 10
184.6652900397
 20
114.5403097885
 11
184.6652900397
 21
114.5405838816
  0
LINE
  5
48D
100
AcDbEntity
  8
ASSI
100
AcDbLine
 62
7
  6
CONTINUOUS
 10
185.0273882097
 20
70.5222574012
 11
185.0273882097
 21
71.6510569205
  0
LINE
  5
48E
100
AcDbEntity
  8
ASSI
100
AcDbLine
 62
7
  6
CONTINUOUS
 10
185.0273882097
 20
112.6301108426
 11
185.0273882097
 21
113.7589103619
  0
LINE
  5
48F
100
AcDbEntity
  8
ASSI
100
AcDbLine
 62
7
  6
CONTINUOUS
 10
185.0378612487
 20
112.6405838816
 11
185.0378612487
 21
71.6405838816
  0
LINE
  5
490
100
AcDbEntity
  8
268140580
100
AcDbLine
 62
7
  6
CONTINUOUS
 10
185.0442235864
 20
70.2193786322
 11
185.0442235864
 21
71.3405838816
  0
LINE
  5
491
100
AcDbEntity
  8
268140580
100
AcDbLine
 62
7
  6
CONTINUOUS
 10
185.0442235864
 20
112.9405838816
 11
185.0442235864
 21
114.061789131
  0
LINE
  5
492
100
AcDbEntity
  8
268140580
100
AcDbLine
 62
250
  6
CONTINUOUS
 10
185.0580962484
 20
112.9405838816
 11
185.0580962484
 21
71.3405838816
  0
LINE
  5
493
100
AcDbEntity
  8
ASSI
100
AcDbLine
 62
7
  6
CONTINUOUS
 10
185.0878612487
 20
109.8122829303
 11
185.0878612487
 21
74.4688848329
  0
LINE
  5
494
100
AcDbEntity
  8
268140580
100
AcDbLine
 62
7
  6
CONTINUOUS
 10
185.0878612487
 20
70.1405838816
 11
185.0878612487
 21
114.1405838816
  0
LWPOLYLINE
  5
495
100
AcDbEntity
  8
0
100
AcDbPolyline
 62
7
  6
CONTINUOUS
 90
10
 70
0
 43
0.3500000006
 10
193.1878591919
 20
92.5691523743
 10
192.3307212524
 20
93.4262993774
 10
191.473583313
 20
93.6405838623
 10
190.6164272461
 20
93.6405838623
 10
190.1878582764
 20
93.2120148926
 10
190.1878582764
 20
92.5691523743
 10
190.6164272461
 20
92.1405834045
 10
191.473583313
 20
92.1405834045
 10
191.9021522827
 20
92.5691523743
 10
191.9021522827
 20
93.4977305603
  0
LWPOLYLINE
  5
496
100
AcDbEntity
  8
0
100
AcDbPolyline
 62
7
  6
CONTINUOUS
 90
10
 70
0
 43
0.3500000006
 10
175.0092984009
 20
125.910203064
 10
175.08072052
 20
125.7673406982
 10
175.08072052
 20
125.6959185791
 10
174.9378581543
 20
125.5530562134
 10
174.8664360352
 20
125.5530562134
 10
174.7949957886
 20
125.6244873962
 10
174.7949957886
 20
125.6959185791
 10
174.8664360352
 20
125.8387718811
 10
174.9378581543
 20
125.910203064
 10
175.0092984009
 20
125.910203064
  0
LWPOLYLINE
  5
497
100
AcDbEntity
  8
0
100
AcDbPolyline
 62
7
  6
CONTINUOUS
 90
3
 70
0
 43
0.3500000006
 10
192.5450057373
 20
91.2834454651
 10
192.5450057373
 20
89.7834450073
 10
190.1878582764
 20
90.4262984619
  0
LINE
  5
498
100
AcDbEntity
  8
ASSI
100
AcDbLine
 62
7
  6
CONTINUOUS
 10
185.0378612487
 20
112.6405838816
 11
185.0273882097
 21
112.6405838816
  0
LINE
  5
499
100
AcDbEntity
  8
ASSI
100
AcDbLine
 62
7
  6
CONTINUOUS
 10
162.8483342876
 20
112.6405838816
 11
162.8378612487
 21
112.6405838816
  0
LINE
  5
49A
100
AcDbEntity
  8
ASSI
100
AcDbLine
 62
250
  6
CONTINUOUS
 10
163.4178658275
 20
112.662474409
 11
184.4578566698
 21
112.662474409
  0
LINE
  5
49B
100
AcDbEntity
  8
268140580
100
AcDbLine
 62
7
  6
CONTINUOUS
 10
162.8176262489
 20
112.9405838816
 11
162.8483342876
 21
112.9405838816
  0
LINE
  5
49C
100
AcDbEntity
  8
268140580
100
AcDbLine
 62
7
  6
CONTINUOUS
 10
185.0273882097
 20
112.9405838816
 11
185.0580962484
 21
112.9405838816
  0
LINE
  5
49D
100
AcDbEntity
  8
ASSI
100
AcDbLine
 62
250
  6
CONTINUOUS
 10
163.4013389987
 20
114.0988530395
 11
184.4743834987
 21
114.0988530395
  0
LINE
  5
49E
100
AcDbEntity
  8
268140580
100
AcDbLine
 62
250
  6
CONTINUOUS
 10
185.0878612487
 20
114.1405838816
 11
185.0704671614
 21
114.1405838816
  0
LINE
  5
49F
100
AcDbEntity
  8
268140580
100
AcDbLine
 62
250
  6
CONTINUOUS
 10
162.805255336
 20
114.1405838816
 11
162.7878612487
 21
114.1405838816
  0
LINE
  5
4A0
100
AcDbEntity
  8
ASSI
100
AcDbLine
 62
7
  6
CONTINUOUS
 10
184.5277688095
 20
114.259139214
 11
163.3479536879
 21
114.259139214
  0
LINE
  5
4A1
100
AcDbEntity
  8
268140580
100
AcDbLine
 62
7
  6
CONTINUOUS
 10
184.6445280662
 20
114.4619722127
 11
184.3378612487
 21
114.4619722127
  0
LINE
  5
4A2
100
AcDbEntity
  8
268140580
100
AcDbLine
 62
7
  6
CONTINUOUS
 10
182.4378612487
 20
114.4619722127
 11
165.4378612487
 21
114.4619722127
  0
LINE
  5
4A3
100
AcDbEntity
  8
268140580
100
AcDbLine
 62
7
  6
CONTINUOUS
 10
163.5378612487
 20
114.4619722127
 11
163.2311944312
 21
114.4619722127
  0
LINE
  5
4A4
100
AcDbEntity
  8
268140580
100
AcDbLine
 62
7
  6
CONTINUOUS
 10
169.8338344695
 20
114.4881761023
 11
178.0418880278
 21
114.4881761023
  0
LINE
  5
4A5
100
AcDbEntity
  8
268140580
100
AcDbLine
 62
250
  6
CONTINUOUS
 10
184.6652900397
 20
114.5403097885
 11
184.5878612487
 21
114.5403097885
  0
LINE
  5
4A6
100
AcDbEntity
  8
268140580
100
AcDbLine
 62
250
  6
CONTINUOUS
 10
182.1878612487
 20
114.5403097885
 11
178.3418880278
 21
114.5403097885
  0
LINE
  5
4A7
100
AcDbEntity
  8
268140580
100
AcDbLine
 62
250
  6
CONTINUOUS
 10
169.5338344695
 20
114.5403097885
 11
165.6878612487
 21
114.5403097885
  0
LINE
  5
4A8
100
AcDbEntity
  8
268140580
100
AcDbLine
 62
250
  6
CONTINUOUS
 10
163.2878612487
 20
114.5403097885
 11
163.2104324577
 21
114.5403097885
  0
LINE
  5
4A9
100
AcDbEntity
  8
268140580
100
AcDbLine
 62
7
  6
CONTINUOUS
 10
184.6878003175
 20
114.5405838816
 11
184.5878612487
 21
114.5405838816
  0
LINE
  5
4AA
100
AcDbEntity
  8
268140580
100
AcDbLine
 62
7
  6
CONTINUOUS
 10
182.1878612487
 20
114.5405838816
 11
178.3418880278
 21
114.5405838816
  0
LINE
  5
4AB
100
AcDbEntity
  8
268140580
100
AcDbLine
 62
7
  6
CONTINUOUS
 10
169.5338344695
 20
114.5405838816
 11
165.6878612487
 21
114.5405838816
  0
LINE
  5
4AC
100
AcDbEntity
  8
268140580
100
AcDbLine
 62
7
  6
CONTINUOUS
 10
163.1879221799
 20
114.5405838816
 11
163.2878612487
 21
114.5405838816
  0
LINE
  5
4AD
100
AcDbEntity
  8
268140580
100
AcDbLine
 62
250
  6
CONTINUOUS
 10
163.2878612487
 20
115.1188960451
 11
165.6878612487
 21
115.1188960451
  0
LINE
  5
4AE
100
AcDbEntity
  8
268140580
100
AcDbLine
 62
250
  6
CONTINUOUS
 10
182.1878612487
 20
115.1188960451
 11
184.5878612487
 21
115.1188960451
  0
LINE
  5
4AF
100
AcDbEntity
  8
268140580
100
AcDbLine
 62
250
  6
CONTINUOUS
 10
184.3378612487
 20
115.335402396
 11
182.4378612487
 21
115.335402396
  0
LINE
  5
4B0
100
AcDbEntity
  8
268140580
100
AcDbLine
 62
250
  6
CONTINUOUS
 10
165.4378612487
 20
115.335402396
 11
163.5378612487
 21
115.335402396
  0
LINE
  5
4B1
100
AcDbEntity
  8
268140580
100
AcDbLine
 62
250
  6
CONTINUOUS
 10
163.5378612487
 20
115.7684150979
 11
165.4378612487
 21
115.7684150979
  0
LINE
  5
4B2
100
AcDbEntity
  8
268140580
100
AcDbLine
 62
250
  6
CONTINUOUS
 10
182.4378612487
 20
115.7684150979
 11
184.3378612487
 21
115.7684150979
  0
LINE
  5
4B3
100
AcDbEntity
  8
268140580
100
AcDbLine
 62
7
  6
CONTINUOUS
 10
169.8338344695
 20
115.9493107494
 11
178.0418880278
 21
115.9493107494
  0
LINE
  5
4B4
100
AcDbEntity
  8
268140580
100
AcDbLine
 62
250
  6
CONTINUOUS
 10
163.2878612487
 20
115.9849214489
 11
165.6878612487
 21
115.9849214489
  0
LINE
  5
4B5
100
AcDbEntity
  8
268140580
100
AcDbLine
 62
250
  6
CONTINUOUS
 10
182.1878612487
 20
115.9849214489
 11
184.5878612487
 21
115.9849214489
  0
LINE
  5
4B6
100
AcDbEntity
  8
268140580
100
AcDbLine
 62
250
  6
CONTINUOUS
 10
163.2878612487
 20
116.4102098145
 11
165.6878612487
 21
116.4102098145
  0
LINE
  5
4B7
100
AcDbEntity
  8
268140580
100
AcDbLine
 62
250
  6
CONTINUOUS
 10
182.1878612487
 20
116.4102098145
 11
184.5878612487
 21
116.4102098145
  0
LINE
  5
4B8
100
AcDbEntity
  8
268140580
100
AcDbLine
 62
7
  6
CONTINUOUS
 10
184.3378612487
 20
116.6602098145
 11
182.4378612487
 21
116.6602098145
  0
LINE
  5
4B9
100
AcDbEntity
  8
268140580
100
AcDbLine
 62
7
  6
CONTINUOUS
 10
165.4378612487
 20
116.6602098145
 11
163.5378612487
 21
116.6602098145
  0
LWPOLYLINE
  5
4BA
100
AcDbEntity
  8
0
100
AcDbPolyline
 62
7
  6
CONTINUOUS
 90
7
 70
0
 43
0.3500000006
 10
173.5092888794
 20
125.4102029114
 10
172.0092974854
 20
125.4102029114
 10
173.5092888794
 20
127.5530568237
 10
173.5092888794
 20
127.9816257935
 10
173.0807199097
 20
128.4102038269
 10
172.4378664551
 20
128.4102038269
 10
172.0092974854
 20
127.7673413086
  0
LWPOLYLINE
  5
4BB
100
AcDbEntity
  8
0
100
AcDbPolyline
 62
7
  6
CONTINUOUS
 90
7
 70
0
 43
0.3500000006
 10
171.1521414185
 20
125.4102029114
 10
169.6521500244
 20
125.4102029114
 10
171.1521414185
 20
127.5530568237
 10
171.1521414185
 20
127.9816257935
 10
170.7235724487
 20
128.4102038269
 10
170.0807189941
 20
128.4102038269
 10
169.6521500244
 20
127.7673413086
  0
LWPOLYLINE
  5
4BC
100
AcDbEntity
  8
0
100
AcDbPolyline
 62
7
  6
CONTINUOUS
 90
6
 70
0
 43
0.3500000006
 10
176.0807208252
 20
125.4102029114
 10
177.1521432495
 20
125.4102029114
 10
177.3664277344
 20
125.6244873962
 10
177.3664277344
 20
126.6959188843
 10
176.9378587646
 20
127.124487854
 10
176.5092897949
 20
127.124487854
  0
ARC
  5
4BD
100
AcDbEntity
  8
ASSI
100
AcDbCircle
 62
7
  6
CONTINUOUS
 10
108.5836511609
 20
71.6802590258
 40
1.5
100
AcDbArc
 50
182.3522961884
 51
267.0
  0
ARC
  5
4BE
100
AcDbEntity
  8
ASSI
100
AcDbCircle
 62
250
  6
CONTINUOUS
 10
108.5749328997
 20
71.6802668785
 40
1.0000082576
100
AcDbArc
 50
182.352727057
 51
266.9995691314
  0
ARC
  5
4BF
100
AcDbEntity
  8
268140580
100
AcDbCircle
 62
7
  6
CONTINUOUS
 10
126.1635896314
 20
70.7405838816
 40
1.0
100
AcDbArc
 50
270.0
 51
360.0
  0
ARC
  5
4C0
100
AcDbEntity
  8
268140580
100
AcDbCircle
 62
7
  6
CONTINUOUS
 10
123.6635896314
 20
68.9060544292
 40
0.5
100
AcDbArc
 50
270.5
 51
360.0
  0
ARC
  5
4C1
100
AcDbEntity
  8
268140580
100
AcDbCircle
 62
250
  6
CONTINUOUS
 10
116.4135896314
 20
69.1622717181
 40
0.4999996783
100
AcDbArc
 50
180.0
 51
240.0
  0
ARC
  5
4C2
100
AcDbEntity
  8
268140580
100
AcDbCircle
 62
250
  6
CONTINUOUS
 10
114.4135896314
 20
69.1622717181
 40
0.4999996774
100
AcDbArc
 50
300.0
 51
360.0
  0
ARC
  5
4C3
100
AcDbEntity
  8
268140580
100
AcDbCircle
 62
250
  6
CONTINUOUS
 10
116.3635896314
 20
69.5405838816
 40
0.45
100
AcDbArc
 50
153.6118224715
 51
180.0
  0
ARC
  5
4C4
100
AcDbEntity
  8
268140580
100
AcDbCircle
 62
7
  6
CONTINUOUS
 10
113.0635896314
 20
72.4685579151
 40
0.3
100
AcDbArc
 50
180.0
 51
268.9999996391
  0
ARC
  5
4C5
100
AcDbEntity
  8
268140580
100
AcDbCircle
 62
7
  6
CONTINUOUS
 10
116.4135896314
 20
69.1622717181
 40
0.25
100
AcDbArc
 50
180.0
 51
240.0
  0
ARC
  5
4C6
100
AcDbEntity
  8
268140580
100
AcDbCircle
 62
7
  6
CONTINUOUS
 10
114.4135896314
 20
69.1622717181
 40
0.25
100
AcDbArc
 50
300.0
 51
360.0
  0
ARC
  5
4C7
100
AcDbEntity
  8
268140580
100
AcDbCircle
 62
7
  6
CONTINUOUS
 10
113.9135896314
 20
68.2962463143
 40
0.25
100
AcDbArc
 50
120.0
 51
180.0
  0
ARC
  5
4C8
100
AcDbEntity
  8
268140580
100
AcDbCircle
 62
7
  6
CONTINUOUS
 10
113.9135896314
 20
67.8709579486
 40
0.25
100
AcDbArc
 50
180.0
 51
270.5
  0
ARC
  5
4C9
100
AcDbEntity
  8
268140580
100
AcDbCircle
 62
7
  6
CONTINUOUS
 10
116.9135896314
 20
67.897138552
 40
0.25
100
AcDbArc
 50
270.5
 51
360.0
  0
ARC
  5
4CA
100
AcDbEntity
  8
268140580
100
AcDbCircle
 62
7
  6
CONTINUOUS
 10
116.9135896314
 20
68.2962463143
 40
0.25
100
AcDbArc
 50
0.0
 51
60.0
  0
ARC
  5
4CB
100
AcDbEntity
  8
268140580
100
AcDbCircle
 62
7
  6
CONTINUOUS
 10
116.1688268157
 20
69.9405838816
 40
0.2
100
AcDbArc
 50
267.0
 51
270.0
  0
ARC
  5
4CC
100
AcDbEntity
  8
268140580
100
AcDbCircle
 62
7
  6
CONTINUOUS
 10
116.3635896314
 20
69.5405838816
 40
0.2
100
AcDbArc
 50
90.0
 51
180.0
  0
ARC
  5
4CD
100
AcDbEntity
  8
268140580
100
AcDbCircle
 62
7
  6
CONTINUOUS
 10
113.0635896314
 20
89.768972417
 40
0.3
100
AcDbArc
 50
91.0
 51
180.0
  0
ARC
  5
4CE
100
AcDbEntity
  8
ASSI
100
AcDbCircle
 62
7
  6
CONTINUOUS
 10
132.1635896314
 20
73.6170323654
 40
1.0
100
AcDbArc
 50
271.0
 51
360.0
  0
ARC
  5
4CF
100
AcDbEntity
  8
ASSI
100
AcDbCircle
 62
7
  6
CONTINUOUS
 10
142.1635896314
 20
73.7915830147
 40
1.0
100
AcDbArc
 50
271.0
 51
360.0
  0
ARC
  5
4D0
100
AcDbEntity
  8
ASSI
100
AcDbCircle
 62
7
  6
CONTINUOUS
 10
144.8635896314
 20
77.3904605608
 40
0.3
100
AcDbArc
 50
275.0
 51
360.0
  0
ARC
  5
4D1
100
AcDbEntity
  8
ASSI
100
AcDbCircle
 62
250
  6
CONTINUOUS
 10
133.6810420447
 20
82.6492352433
 40
1.5000000068
100
AcDbArc
 50
91.000000255
 51
179.999999745
  0
ARC
  5
4D2
100
AcDbEntity
  8
ASSI
100
AcDbCircle
 62
7
  6
CONTINUOUS
 10
142.1635896314
 20
84.297831794
 40
1.0
100
AcDbArc
 50
271.0
 51
360.0
  0
ARC
  5
4D3
100
AcDbEntity
  8
ASSI
100
AcDbCircle
 62
7
  6
CONTINUOUS
 10
133.6635896314
 20
82.64923525
 40
0.5
100
AcDbArc
 50
91.0
 51
180.0
  0
ARC
  5
4D4
100
AcDbEntity
  8
ASSI
100
AcDbCircle
 62
7
  6
CONTINUOUS
 10
144.8635896314
 20
87.7904605608
 40
0.3
100
AcDbArc
 50
275.0
 51
360.0
  0
ARC
  5
4D5
100
AcDbEntity
  8
ASSI
100
AcDbCircle
 62
7
  6
CONTINUOUS
 10
144.8635896314
 20
82.6907072023
 40
0.3
100
AcDbArc
 50
0.0
 51
85.0
  0
ARC
  5
4D6
100
AcDbEntity
  8
268140580
100
AcDbCircle
 62
7
  6
CONTINUOUS
 10
113.0635896314
 20
94.5121953462
 40
0.3
100
AcDbArc
 50
180.0
 51
269.0
  0
ARC
  5
4D7
100
AcDbEntity
  8
ASSI
100
AcDbCircle
 62
7
  6
CONTINUOUS
 10
108.5836511609
 20
112.6009087374
 40
1.5
100
AcDbArc
 50
93.0
 51
177.6477038116
  0
ARC
  5
4D8
100
AcDbEntity
  8
ASSI
100
AcDbCircle
 62
250
  6
CONTINUOUS
 10
108.5749328978
 20
112.6009008866
 40
1.0000082556
100
AcDbArc
 50
93.0004307629
 51
177.6472730487
  0
ARC
  5
4D9
100
AcDbEntity
  8
268140580
100
AcDbCircle
 62
7
  6
CONTINUOUS
 10
126.1635896314
 20
113.5405838816
 40
1.0
100
AcDbArc
 50
0.0
 51
90.0
  0
ARC
  5
4DA
100
AcDbEntity
  8
268140580
100
AcDbCircle
 62
7
  6
CONTINUOUS
 10
123.6635896314
 20
115.375113334
 40
0.5
100
AcDbArc
 50
0.0
 51
89.5
  0
ARC
  5
4DB
100
AcDbEntity
  8
268140580
100
AcDbCircle
 62
250
  6
CONTINUOUS
 10
114.4135896314
 20
115.1188960451
 40
0.4999996783
100
AcDbArc
 50
0.0
 51
60.0
  0
ARC
  5
4DC
100
AcDbEntity
  8
268140580
100
AcDbCircle
 62
250
  6
CONTINUOUS
 10
116.4135896314
 20
115.1188960451
 40
0.4999996774
100
AcDbArc
 50
120.0
 51
180.0
  0
ARC
  5
4DD
100
AcDbEntity
  8
268140580
100
AcDbCircle
 62
250
  6
CONTINUOUS
 10
116.3635896314
 20
114.7405838816
 40
0.45
100
AcDbArc
 50
180.0
 51
206.3881753103
  0
ARC
  5
4DE
100
AcDbEntity
  8
268140580
100
AcDbCircle
 62
7
  6
CONTINUOUS
 10
113.0635896314
 20
111.8126098481
 40
0.3
100
AcDbArc
 50
91.0000003609
 51
180.0
  0
ARC
  5
4DF
100
AcDbEntity
  8
268140580
100
AcDbCircle
 62
7
  6
CONTINUOUS
 10
113.9135896314
 20
115.9849214489
 40
0.25
100
AcDbArc
 50
180.0
 51
240.0
  0
ARC
  5
4E0
100
AcDbEntity
  8
268140580
100
AcDbCircle
 62
7
  6
CONTINUOUS
 10
113.9135896314
 20
116.4102098145
 40
0.25
100
AcDbArc
 50
89.5
 51
180.0
  0
ARC
  5
4E1
100
AcDbEntity
  8
268140580
100
AcDbCircle
 62
7
  6
CONTINUOUS
 10
116.9135896314
 20
116.3840292111
 40
0.25
100
AcDbArc
 50
0.0
 51
89.5
  0
ARC
  5
4E2
100
AcDbEntity
  8
268140580
100
AcDbCircle
 62
7
  6
CONTINUOUS
 10
116.9135896314
 20
115.9849214489
 40
0.25
100
AcDbArc
 50
300.0
 51
360.0
  0
ARC
  5
4E3
100
AcDbEntity
  8
268140580
100
AcDbCircle
 62
7
  6
CONTINUOUS
 10
116.4135896314
 20
115.1188960451
 40
0.25
100
AcDbArc
 50
120.0
 51
180.0
  0
ARC
  5
4E4
100
AcDbEntity
  8
268140580
100
AcDbCircle
 62
7
  6
CONTINUOUS
 10
114.4135896314
 20
115.1188960451
 40
0.25
100
AcDbArc
 50
0.0
 51
60.0
  0
ARC
  5
4E5
100
AcDbEntity
  8
268140580
100
AcDbCircle
 62
7
  6
CONTINUOUS
 10
116.1688268157
 20
114.3405838816
 40
0.2
100
AcDbArc
 50
90.0
 51
93.0
  0
ARC
  5
4E6
100
AcDbEntity
  8
268140580
100
AcDbCircle
 62
7
  6
CONTINUOUS
 10
116.3635896314
 20
114.7405838816
 40
0.2
100
AcDbArc
 50
180.0
 51
270.0
  0
ARC
  5
4E7
100
AcDbEntity
  8
ASSI
100
AcDbCircle
 62
7
  6
CONTINUOUS
 10
144.8635896314
 20
101.5904605608
 40
0.3
100
AcDbArc
 50
275.0
 51
360.0
  0
ARC
  5
4E8
100
AcDbEntity
  8
ASSI
100
AcDbCircle
 62
7
  6
CONTINUOUS
 10
144.8635896314
 20
93.0907072023
 40
0.3
100
AcDbArc
 50
0.0
 51
85.0
  0
ARC
  5
4E9
100
AcDbEntity
  8
ASSI
100
AcDbCircle
 62
7
  6
CONTINUOUS
 10
144.8635896314
 20
96.4907072023
 40
0.3
100
AcDbArc
 50
0.0
 51
85.0
  0
ARC
  5
4EA
100
AcDbEntity
  8
ASSI
100
AcDbCircle
 62
7
  6
CONTINUOUS
 10
142.1635896314
 20
110.4895847485
 40
1.0
100
AcDbArc
 50
0.0
 51
89.0
  0
ARC
  5
4EB
100
AcDbEntity
  8
ASSI
100
AcDbCircle
 62
7
  6
CONTINUOUS
 10
144.8635896314
 20
106.8907072023
 40
0.3
100
AcDbArc
 50
0.0
 51
85.0
  0
ARC
  5
4EC
100
AcDbEntity
  8
ASSI
100
AcDbCircle
 62
7
  6
CONTINUOUS
 10
606.6635896314
 20
92.1405838816
 40
500.0
100
AcDbArc
 50
177.6477038116
 51
182.3522961884
  0
ARC
  5
4ED
100
AcDbEntity
  8
0
100
AcDbCircle
 62
250
  6
CONTINUOUS
 10
606.6635896314
 20
92.1405838816
 40
500.0
100
AcDbArc
 50
179.8567603986
 51
180.1432395954
  0
ARC
  5
4EE
100
AcDbEntity
  8
ASSI
100
AcDbCircle
 62
250
  6
CONTINUOUS
 10
606.6539030793
 20
92.1405838816
 40
499.4990404603
100
AcDbArc
 50
177.6476992903
 51
182.3523007097
  0
ARC
  5
4EF
100
AcDbEntity
  8
268140580
100
AcDbCircle
 62
250
  6
CONTINUOUS
 10
184.671438981
 20
70.2001663708
 40
0.4590352069
100
AcDbArc
 50
269.8863036501
 51
270.0696781814
  0
ARC
  5
4F0
100
AcDbEntity
  8
268140580
100
AcDbCircle
 62
250
  6
CONTINUOUS
 10
184.6705306204
 20
114.1340379189
 40
0.4065459627
100
AcDbArc
 50
89.7990730745
 51
90.0003575538
  0
ARC
  5
4F1
100
AcDbEntity
  8
268140580
100
AcDbCircle
 62
250
  6
CONTINUOUS
 10
163.2055733397
 20
70.1414420466
 40
0.4003102342
100
AcDbArc
 50
267.2226493906
 51
269.4724119825
  0
ARC
  5
4F2
100
AcDbEntity
  8
268140580
100
AcDbCircle
 62
250
  6
CONTINUOUS
 10
184.6701491576
 20
70.1414420465
 40
0.4003102342
100
AcDbArc
 50
270.5275880174
 51
272.7773506095
  0
ARC
  5
4F3
100
AcDbEntity
  8
268140580
100
AcDbCircle
 62
250
  6
CONTINUOUS
 10
163.2055679485
 20
114.1398791918
 40
0.400156678
100
AcDbArc
 50
90.0534839348
 51
92.7777453574
  0
ARC
  5
4F4
100
AcDbEntity
  8
268140580
100
AcDbCircle
 62
250
  6
CONTINUOUS
 10
184.6701545488
 20
114.1398791918
 40
0.400156678
100
AcDbArc
 50
87.2222546426
 51
89.9465160652
  0
ARC
  5
4F5
100
AcDbEntity
  8
268140580
100
AcDbCircle
 62
250
  6
CONTINUOUS
 10
163.2053395934
 20
70.1412801915
 40
0.4001136125
100
AcDbArc
 50
180.0997179406
 51
267.254957295
  0
ARC
  5
4F6
100
AcDbEntity
  8
268140580
100
AcDbCircle
 62
250
  6
CONTINUOUS
 10
184.6703828762
 20
70.1412802462
 40
0.4001136125
100
AcDbArc
 50
272.745046302
 51
359.9002742346
  0
ARC
  5
4F7
100
AcDbEntity
  8
268140580
100
AcDbCircle
 62
250
  6
CONTINUOUS
 10
163.2053395939
 20
114.1398875692
 40
0.4001136114
100
AcDbArc
 50
92.7451437407
 51
179.9002817005
  0
ARC
  5
4F8
100
AcDbEntity
  8
268140580
100
AcDbCircle
 62
250
  6
CONTINUOUS
 10
184.6703828757
 20
114.1398875146
 40
0.4001136114
100
AcDbArc
 50
0.0997261133
 51
87.2548526614
  0
ARC
  5
4F9
100
AcDbEntity
  8
268140580
100
AcDbCircle
 62
250
  6
CONTINUOUS
 10
163.2052312664
 20
70.1405520683
 40
0.3999726334
100
AcDbArc
 50
179.995442813
 51
267.2676520737
  0
ARC
  5
4FA
100
AcDbEntity
  8
268140580
100
AcDbCircle
 62
250
  6
CONTINUOUS
 10
184.670491266
 20
70.1405520349
 40
0.3999726334
100
AcDbArc
 50
272.732343143
 51
0.0045619702
  0
ARC
  5
4FB
100
AcDbEntity
  8
268140580
100
AcDbCircle
 62
250
  6
CONTINUOUS
 10
163.2052292982
 20
114.140616907
 40
0.3999705574
100
AcDbArc
 50
90.0049971971
 51
180.0047308564
  0
ARC
  5
4FC
100
AcDbEntity
  8
268140580
100
AcDbCircle
 62
250
  6
CONTINUOUS
 10
184.6704931992
 20
114.140616907
 40
0.3999705574
100
AcDbArc
 50
359.9952691437
 51
89.9950028029
  0
ARC
  5
4FD
100
AcDbEntity
  8
268140580
100
AcDbCircle
 62
250
  6
CONTINUOUS
 10
163.2052078619
 20
70.1403160462
 40
0.3997322396
100
AcDbArc
 50
267.2693902519
 51
269.5219358061
  0
ARC
  5
4FE
100
AcDbEntity
  8
268140580
100
AcDbCircle
 62
250
  6
CONTINUOUS
 10
184.6705146355
 20
70.1403160462
 40
0.3997322396
100
AcDbArc
 50
270.478064194
 51
272.7306097481
  0
ARC
  5
4FF
100
AcDbEntity
  8
268140580
100
AcDbCircle
 62
250
  6
CONTINUOUS
 10
184.6701635218
 20
70.1404206733
 40
0.399288772
100
AcDbArc
 50
270.0523126072
 51
270.5268764577
  0
ARC
  5
500
100
AcDbEntity
  8
268140580
100
AcDbCircle
 62
250
  6
CONTINUOUS
 10
163.2055589755
 20
70.1404206723
 40
0.3992887711
100
AcDbArc
 50
269.4731235414
 51
269.9476873931
  0
ARC
  5
501
100
AcDbEntity
  8
268140580
100
AcDbCircle
 62
250
  6
CONTINUOUS
 10
163.2052087319
 20
70.1331341596
 40
0.3925502783
100
AcDbArc
 50
269.7894251416
 51
269.9979102027
  0
ARC
  5
502
100
AcDbEntity
  8
268140580
100
AcDbCircle
 62
7
  6
CONTINUOUS
 10
163.5378612487
 20
116.4102098145
 40
0.25
100
AcDbArc
 50
90.0
 51
180.0
  0
ARC
  5
503
100
AcDbEntity
  8
268140580
100
AcDbCircle
 62
7
  6
CONTINUOUS
 10
165.4378612487
 20
116.4102098145
 40
0.25
100
AcDbArc
 50
0.0
 51
90.0
  0
ARC
  5
504
100
AcDbEntity
  8
268140580
100
AcDbCircle
 62
7
  6
CONTINUOUS
 10
182.4378612487
 20
116.4102098145
 40
0.25
100
AcDbArc
 50
90.0
 51
180.0
  0
ARC
  5
505
100
AcDbEntity
  8
268140580
100
AcDbCircle
 62
7
  6
CONTINUOUS
 10
184.3378612487
 20
116.4102098145
 40
0.25
100
AcDbArc
 50
0.0
 51
90.0
  0
ARC
  5
506
100
AcDbEntity
  8
268140580
100
AcDbCircle
 62
7
  6
CONTINUOUS
 10
182.4378612487
 20
67.8709579486
 40
0.25
100
AcDbArc
 50
180.0
 51
270.0
  0
ARC
  5
507
100
AcDbEntity
  8
268140580
100
AcDbCircle
 62
7
  6
CONTINUOUS
 10
184.3378612487
 20
67.8709579486
 40
0.25
100
AcDbArc
 50
270.0
 51
360.0
  0
ARC
  5
508
100
AcDbEntity
  8
268140580
100
AcDbCircle
 62
7
  6
CONTINUOUS
 10
163.5378612487
 20
67.8709579486
 40
0.25
100
AcDbArc
 50
180.0
 51
270.0
  0
ARC
  5
509
100
AcDbEntity
  8
268140580
100
AcDbCircle
 62
7
  6
CONTINUOUS
 10
165.4378612487
 20
67.8709579486
 40
0.25
100
AcDbArc
 50
270.0
 51
360.0
  0
SPLINE
  5
50A
100
AcDbEntity
  8
ASSI
100
AcDbSpline
 62
250
  6
CONTINUOUS
 70
0
 71
3
 72
21
 73
17
 74
0
 42
0.0000001
 43
0.0000001
 44
0.0000000001
 40
0.0
 40
0.0
 40
0.0
 40
0.0
 40
0.1948437103
 40
0.3825424104
 40
0.5552881473
 40
0.7066801083
 40
0.7725637323
 40
0.8309987331
 40
0.8814123241
 40
0.9233701318
 40
0.9564490238
 40
0.9803085955
 40
0.9887319493
 40
0.9948011644
 40
0.9985194687
 40
1.0
 40
1.0
 40
1.0
 40
1.0
 10
108.5225890015
 20
113.5995382721
 30
0.0
 10
108.5208903704
 20
113.6319599127
 30
0.0
 10
108.5176633951
 20
113.6956199776
 30
0.0
 10
108.5132993584
 20
113.7880429197
 30
0.0
 10
108.5096123509
 20
113.873248747
 30
0.0
 10
108.5071114977
 20
113.9381891957
 30
0.0
 10
108.5055800855
 20
113.9841038616
 30
0.0
 10
108.5047306845
 20
114.0132079609
 30
0.0
 10
108.5041338611
 20
114.0383252005
 30
0.0
 10
108.5037891538
 20
114.0592377198
 30
0.0
 10
108.50370116
 20
114.0756859866
 30
0.0
 10
108.5038310118
 20
114.086641544
 30
0.0
 10
108.5041095954
 20
114.0929404377
 30
0.0
 10
108.5043527278
 20
114.0961102404
 30
0.0
 10
108.5046195194
 20
114.0977059187
 30
0.0
 10
108.5049008712
 20
114.0988401286
 30
0.0
 10
108.5051472287
 20
114.0988530396
 30
0.0
  0
SPLINE
  5
50B
100
AcDbEntity
  8
ASSI
100
AcDbSpline
 62
250
  6
CONTINUOUS
 70
0
 71
3
 72
21
 73
17
 74
0
 42
0.0000001
 43
0.0000001
 44
0.0000000001
 40
0.0
 40
0.0
 40
0.0
 40
0.0
 40
0.1948437209
 40
0.3825424419
 40
0.555288183
 40
0.7066801383
 40
0.772563758
 40
0.8309987568
 40
0.8814123432
 40
0.9233701453
 40
0.956449034
 40
0.980308603
 40
0.9887319551
 40
0.9948011685
 40
0.9985194712
 40
1.0
 40
1.0
 40
1.0
 40
1.0
 10
108.5225890015
 20
70.681629491
 30
0.0
 10
108.5208903727
 20
70.6492078487
 30
0.0
 10
108.5176634014
 20
70.5855477787
 30
0.0
 10
108.5132993689
 20
70.4931248308
 30
0.0
 10
108.5096123643
 20
70.4079190006
 30
0.0
 10
108.5071115119
 20
70.342978553
 30
0.0
 10
108.5055800995
 20
70.2970638894
 30
0.0
 10
108.5047306976
 20
70.2679597921
 30
0.0
 10
108.504133873
 20
70.2428425546
 30
0.0
 10
108.5037891641
 20
70.2219300377
 30
0.0
 10
108.5037011682
 20
70.2054817731
 30
0.0
 10
108.5038310174
 20
70.1945262167
 30
0.0
 10
108.5041095991
 20
70.1882273243
 30
0.0
 10
108.5043527293
 20
70.1850575216
 30
0.0
 10
108.5046195205
 20
70.1834618453
 30
0.0
 10
108.5049008694
 20
70.1823276347
 30
0.0
 10
108.5051472266
 20
70.1823147237
 30
0.0
  0
SPLINE
  5
50C
100
AcDbEntity
  8
268140580
100
AcDbSpline
 62
7
  6
CONTINUOUS
 70
0
 71
3
 72
26
 73
22
 74
0
 42
0.0000001
 43
0.0000001
 44
0.0000000001
 40
0.0
 40
0.0
 40
0.0
 40
0.0
 40
0.000748808
 40
0.0023502882
 40
0.004812956
 40
0.0081313887
 40
0.0172858684
 40
0.0296616262
 40
0.0450807421
 40
0.0633314553
 40
0.084191737
 40
0.1074400938
 40
0.1602306038
 40
0.2201006193
 40
0.285682361
 40
0.3558417636
 40
0.4296679502
 40
0.5064167996
 40
0.666342575
 40
0.8318243455
 40
1.0
 40
1.0
 40
1.0
 40
1.0
 10
112.7635896314
 20
88.7405381901
 30
0.0
 10
112.7635896314
 20
88.7404332082
 30
0.0
 10
112.7638008599
 20
88.7401447797
 30
0.0
 10
112.7641713823
 20
88.7396065901
 30
0.0
 10
112.7648436257
 20
88.7388039204
 30
0.0
 10
112.7662000136
 20
88.7372174649
 30
0.0
 10
112.7685401317
 20
88.7346295336
 30
0.0
 10
112.7720544465
 20
88.7308268405
 30
0.0
 10
112.7764784911
 20
88.7261242789
 30
0.0
 10
112.7817455146
 20
88.7205834427
 30
0.0
 10
112.7877940638
 20
88.7142705966
 30
0.0
 10
112.7972212633
 20
88.7044888163
 30
0.0
 10
112.8104918163
 20
88.6908154831
 30
0.0
 10
112.8279487308
 20
88.6729346515
 30
0.0
 10
112.8471498807
 20
88.6533536125
 30
0.0
 10
112.8677566929
 20
88.6324106469
 30
0.0
 10
112.8894922685
 20
88.6103819545
 30
0.0
 10
112.9201036442
 20
88.5794309509
 30
0.0
 10
112.9598131531
 20
88.5394050865
 30
0.0
 10
113.0086321122
 20
88.4903610363
 30
0.0
 10
113.041683002
 20
88.4572573285
 30
0.0
 10
113.0583539095
 20
88.4405838816
 30
0.0
  0
SPLINE
  5
50D
100
AcDbEntity
  8
268140580
100
AcDbSpline
 62
250
  6
CONTINUOUS
 70
0
 71
3
 72
20
 73
16
 74
0
 42
0.0000001
 43
0.0000001
 44
0.0000000001
 40
0.0
 40
0.0
 40
0.0
 40
0.0
 40
0.1893920114
 40
0.3719296539
 40
0.5410374329
 40
0.6905969474
 40
0.7563267818
 40
0.8152099101
 40
0.8667160939
 40
0.9103808416
 40
0.9458091587
 40
0.9726879312
 40
0.9907869763
 40
0.9965015058
 40
1.0
 40
1.0
 40
1.0
 40
1.0
 10
116.1670830375
 20
70.1405838816
 30
0.0
 10
116.1670830375
 20
70.1153499812
 30
0.0
 10
116.1671641705
 20
70.0657953914
 30
0.0
 10
116.1675263935
 20
69.9937102989
 30
0.0
 10
116.1681142901
 20
69.9269340003
 30
0.0
 10
116.1687964466
 20
69.8757226097
 30
0.0
 10
116.169458173
 20
69.8391987638
 30
0.0
 10
116.1699730726
 20
69.8157389482
 30
0.0
 10
116.1705212488
 20
69.795220333
 30
0.0
 10
116.171099739
 20
69.7778298947
 30
0.0
 10
116.1716908441
 20
69.7637209094
 30
0.0
 10
116.1723074679
 20
69.7530293062
 30
0.0
 10
116.172832656
 20
69.7462868667
 30
0.0
 10
116.1733328506
 20
69.7426874293
 30
0.0
 10
116.1735716056
 20
69.7414753987
 30
0.0
 10
116.1737318331
 20
69.7410376761
 30
0.0
  0
LINE
  5
50E
100
AcDbEntity
  8
268140580
100
AcDbLine
 62
250
  6
CONTINUOUS
 10
116.1737318331
 20
69.7410376761
 11
116.1740640001
 21
69.7405838816
  0
LINE
  5
50F
100
AcDbEntity
  8
268140580
100
AcDbLine
 62
250
  6
CONTINUOUS
 10
116.1531296176
 20
114.5400356955
 11
116.1738004091
 21
114.5405743838
  0
LINE
  5
510
100
AcDbEntity
  8
268140580
100
AcDbLine
 62
250
  6
CONTINUOUS
 10
116.1740640001
 20
69.7405838816
 11
116.1533522967
 21
69.7411304857
  0
LINE
  5
511
100
AcDbEntity
  8
268140580
100
AcDbLine
 62
250
  6
CONTINUOUS
 10
116.1533522967
 20
69.7411304857
 11
116.1531955576
 21
69.7411315033
  0
SPLINE
  5
512
100
AcDbEntity
  8
268140580
100
AcDbSpline
 62
250
  6
CONTINUOUS
 70
0
 71
3
 72
23
 73
19
 74
0
 42
0.0000001
 43
0.0000001
 44
0.0000000001
 40
0.0
 40
0.0
 40
0.0
 40
0.0
 40
0.1949812521
 40
0.382448137
 40
0.5552276939
 40
0.6340012974
 40
0.7066731622
 40
0.7725403536
 40
0.8309730834
 40
0.8814092777
 40
0.9233634985
 40
0.9564398448
 40
0.9695456437
 40
0.9803245503
 40
0.9887525042
 40
0.9948146967
 40
0.9985225101
 40
1.0
 40
1.0
 40
1.0
 40
1.0
 10
113.0583539095
 20
89.768972417
 30
0.0
 10
113.0580135973
 20
89.7884748324
 30
0.0
 10
113.0574105202
 20
89.8267292221
 30
0.0
 10
113.0567295945
 20
89.8822685988
 30
0.0
 10
113.0563626203
 20
89.9261855713
 30
0.0
 10
113.0562131541
 20
89.9586198437
 30
0.0
 10
113.0561746798
 20
89.9803591776
 30
0.0
 10
113.0562062283
 20
90.0000637843
 30
0.0
 10
113.0563070924
 20
90.0175434401
 30
0.0
 10
113.0564750633
 20
90.0326312277
 30
0.0
 10
113.0567081338
 20
90.0451785997
 30
0.0
 10
113.0569659827
 20
90.0539965739
 30
0.0
 10
113.0572186025
 20
90.0596824758
 30
0.0
 10
113.0574080385
 20
90.0629240442
 30
0.0
 10
113.0576050296
 20
90.0654066812
 30
0.0
 10
113.0578183346
 20
90.0673019262
 30
0.0
 10
113.0580110517
 20
90.068253365
 30
0.0
 10
113.058206128
 20
90.068924146
 30
0.0
 10
113.0583539095
 20
90.0689267255
 30
0.0
  0
SPLINE
  5
513
100
AcDbEntity
  8
268140580
100
AcDbSpline
 62
250
  6
CONTINUOUS
 70
0
 71
3
 72
20
 73
16
 74
0
 42
0.0000001
 43
0.0000001
 44
0.0000000001
 40
0.0
 40
0.0
 40
0.0
 40
0.0
 40
0.1893922076
 40
0.3719300327
 40
0.541037948
 40
0.6905975341
 40
0.7563273749
 40
0.815210488
 40
0.8667166339
 40
0.9103813201
 40
0.945809552
 40
0.9726882155
 40
0.9907871284
 40
0.9965015839
 40
1.0
 40
1.0
 40
1.0
 40
1.0
 10
116.1670830375
 20
114.1405838816
 30
0.0
 10
116.1670830375
 20
114.1658178104
 30
0.0
 10
116.1671641707
 20
114.2153724551
 30
0.0
 10
116.1675263945
 20
114.2874576228
 30
0.0
 10
116.1681142924
 20
114.3542339795
 30
0.0
 10
116.1687964503
 20
114.4054454034
 30
0.0
 10
116.1694581782
 20
114.4419692609
 30
0.0
 10
116.1699730788
 20
114.4654290724
 30
0.0
 10
116.170521256
 20
114.4859476742
 30
0.0
 10
116.1710997473
 20
114.5033380893
 30
0.0
 10
116.171690853
 20
114.5174470419
 30
0.0
 10
116.1723074781
 20
114.528138602
 30
0.0
 10
116.1728326654
 20
114.534881001
 30
0.0
 10
116.1733328619
 20
114.5384803995
 30
0.0
 10
116.1735716163
 20
114.5396924104
 30
0.0
 10
116.1737318456
 20
114.5401301214
 30
0.0
  0
LINE
  5
514
100
AcDbEntity
  8
268140580
100
AcDbLine
 62
250
  6
CONTINUOUS
 10
116.1737318456
 20
114.5401301214
 11
116.1740640001
 21
114.5405838816
  0
SPLINE
  5
515
100
AcDbEntity
  8
268140580
100
AcDbSpline
 62
250
  6
CONTINUOUS
 70
0
 71
3
 72
23
 73
19
 74
0
 42
0.0000001
 43
0.0000001
 44
0.0000000001
 40
0.0
 40
0.0
 40
0.0
 40
0.0
 40
0.1949811686
 40
0.3824479836
 40
0.5552274855
 40
0.6340010701
 40
0.706672927
 40
0.7725401232
 40
0.8309728534
 40
0.8814090734
 40
0.9233633194
 40
0.956439698
 40
0.9695455224
 40
0.9803244605
 40
0.9887524256
 40
0.9948146428
 40
0.9985224936
 40
1.0
 40
1.0
 40
1.0
 40
1.0
 10
113.0583539095
 20
94.5121953462
 30
0.0
 10
113.0580135974
 20
94.4926929392
 30
0.0
 10
113.0574105206
 20
94.454438565
 30
0.0
 10
113.056729595
 20
94.3988992093
 30
0.0
 10
113.0563626207
 20
94.3549822513
 30
0.0
 10
113.0562131544
 20
94.3225479873
 30
0.0
 10
113.0561746798
 20
94.3008086556
 30
0.0
 10
113.056206228
 20
94.2811040492
 30
0.0
 10
113.056307092
 20
94.2636243904
 30
0.0
 10
113.0564750622
 20
94.2485365976
 30
0.0
 10
113.0567081328
 20
94.2359892175
 30
0.0
 10
113.0569659811
 20
94.2271712349
 30
0.0
 10
113.0572186005
 20
94.2214853242
 30
0.0
 10
113.0574080355
 20
94.2182437486
 30
0.0
 10
113.0576050283
 20
94.2157611056
 30
0.0
 10
113.0578183332
 20
94.2138658517
 30
0.0
 10
113.0580110534
 20
94.212914409
 30
0.0
 10
113.0582061264
 20
94.2122436172
 30
0.0
 10
113.0583539095
 20
94.2122410377
 30
0.0
  0
SPLINE
  5
516
100
AcDbEntity
  8
268140580
100
AcDbSpline
 62
7
  6
CONTINUOUS
 70
0
 71
3
 72
26
 73
22
 74
0
 42
0.0000001
 43
0.0000001
 44
0.0000000001
 40
0.0
 40
0.0
 40
0.0
 40
0.0
 40
0.1681756545
 40
0.333657425
 40
0.4935832004
 40
0.5703320498
 40
0.6441582364
 40
0.714317639
 40
0.7798993807
 40
0.8397693962
 40
0.8925599062
 40
0.915808263
 40
0.9366685447
 40
0.9549192579
 40
0.9703383738
 40
0.9827141316
 40
0.9918686113
 40
0.995187044
 40
0.9976497118
 40
0.999251192
 40
1.0
 40
1.0
 40
1.0
 40
1.0
 10
113.0583539095
 20
95.8405838816
 30
0.0
 10
113.041683002
 20
95.8239104346
 30
0.0
 10
113.0086321122
 20
95.7908067269
 30
0.0
 10
112.9598131531
 20
95.7417626767
 30
0.0
 10
112.9201036442
 20
95.7017368123
 30
0.0
 10
112.8894922685
 20
95.6707858087
 30
0.0
 10
112.8677566929
 20
95.6487571163
 30
0.0
 10
112.8471498807
 20
95.6278141506
 30
0.0
 10
112.8279487308
 20
95.6082331117
 30
0.0
 10
112.8104918163
 20
95.5903522801
 30
0.0
 10
112.7972212633
 20
95.5766789468
 30
0.0
 10
112.7877940638
 20
95.5668971666
 30
0.0
 10
112.7817455146
 20
95.5605843205
 30
0.0
 10
112.7764784911
 20
95.5550434843
 30
0.0
 10
112.7720544465
 20
95.5503409226
 30
0.0
 10
112.7685401317
 20
95.5465382296
 30
0.0
 10
112.7662000136
 20
95.5439502983
 30
0.0
 10
112.7648436257
 20
95.5423638427
 30
0.0
 10
112.7641713823
 20
95.5415611731
 30
0.0
 10
112.7638008599
 20
95.5410229835
 30
0.0
 10
112.7635896314
 20
95.540734555
 30
0.0
 10
112.7635896314
 20
95.540629573
 30
0.0
  0
SPLINE
  5
517
100
AcDbEntity
  8
268140580
100
AcDbSpline
 62
7
  6
CONTINUOUS
 70
0
 71
3
 72
26
 73
22
 74
0
 42
0.0000001
 43
0.0000001
 44
0.0000000001
 40
0.0
 40
0.0
 40
0.0
 40
0.0
 40
0.0007487995
 40
0.0023502619
 40
0.0048129167
 40
0.0081313549
 40
0.0172858445
 40
0.029661625
 40
0.0450808449
 40
0.0633317061
 40
0.0841921199
 40
0.1074405926
 40
0.1602311711
 40
0.2201010685
 40
0.2856825505
 40
0.3558416448
 40
0.4296673534
 40
0.5064158161
 40
0.6663408773
 40
0.8318230084
 40
1.0
 40
1.0
 40
1.0
 40
1.0
 10
112.7635896314
 20
108.9405381901
 30
0.0
 10
112.7635896314
 20
108.9404332094
 30
0.0
 10
112.7638008554
 20
108.9401447831
 30
0.0
 10
112.7641713751
 20
108.9396065978
 30
0.0
 10
112.7648436157
 20
108.9388039306
 30
0.0
 10
112.7662000049
 20
108.9372174756
 30
0.0
 10
112.7685401261
 20
108.9346295401
 30
0.0
 10
112.7720544536
 20
108.9308268326
 30
0.0
 10
112.7764785251
 20
108.9261242434
 30
0.0
 10
112.781745586
 20
108.9205833684
 30
0.0
 10
112.7877941734
 20
108.914270482
 30
0.0
 10
112.7972214047
 20
108.9044886707
 30
0.0
 10
112.8104919641
 20
108.8908153308
 30
0.0
 10
112.8279488492
 20
108.872934531
 30
0.0
 10
112.8471499317
 20
108.8533535606
 30
0.0
 10
112.8677566411
 20
108.8324106997
 30
0.0
 10
112.889492101
 20
108.8103821241
 30
0.0
 10
112.920103321
 20
108.7794312777
 30
0.0
 10
112.9598127559
 20
108.7394054861
 30
0.0
 10
113.0086318119
 20
108.6903613378
 30
0.0
 10
113.0416828694
 20
108.6572574611
 30
0.0
 10
113.0583539095
 20
108.6405838816
 30
0.0
  0
SPLINE
  5
518
100
AcDbEntity
  8
268140580
100
AcDbSpline
 62
250
  6
CONTINUOUS
 70
0
 71
3
 72
29
 73
25
 74
0
 42
0.0000001
 43
0.0000001
 44
0.0000000001
 40
0.0
 40
0.0
 40
0.0
 40
0.0
 40
0.1950863616
 40
0.3826653295
 40
0.4713744351
 40
0.5555434267
 40
0.634363406
 40
0.7070736739
 40
0.7729748417
 40
0.8314332367
 40
0.8818850048
 40
0.903952999
 40
0.9238437528
 40
0.9415100945
 40
0.9569071158
 40
0.9700000399
 40
0.9807570215
 40
0.9891504684
 40
0.9924553531
 40
0.9951630706
 40
0.9972717302
 40
0.9987797489
 40
0.9996873377
 40
1.0
 40
1.0
 40
1.0
 40
1.0
 10
113.0583539172
 20
111.5765061227
 30
0.0
 10
113.0582398496
 20
111.6113659269
 30
0.0
 10
113.0580378185
 20
111.6797441188
 30
0.0
 10
113.057844069
 20
111.7639738225
 30
0.0
 10
113.0577324153
 20
111.8283838165
 30
0.0
 10
113.0576729067
 20
111.8733597192
 30
0.0
 10
113.0576365594
 20
111.9154768129
 30
0.0
 10
113.0576236693
 20
111.9543296424
 30
0.0
 10
113.0576342321
 20
111.9895440603
 30
0.0
 10
113.0576680451
 20
112.0207810917
 30
0.0
 10
113.0577168705
 20
112.0441855359
 30
0.0
 10
113.0577694873
 20
112.0606983006
 30
0.0
 10
113.0578127128
 20
112.0713526054
 30
0.0
 10
113.0578612178
 20
112.080814917
 30
0.0
 10
113.0579150516
 20
112.0890622313
 30
0.0
 10
113.057973309
 20
112.0960755633
 30
0.0
 10
113.0580373276
 20
112.101835302
 30
0.0
 10
113.0580948216
 20
112.1058508427
 30
0.0
 10
113.0581501979
 20
112.1084193066
 30
0.0
 10
113.0581811461
 20
112.1098810164
 30
0.0
 10
113.0582344699
 20
112.110982111
 30
0.0
 10
113.0582362326
 20
112.1118541025
 30
0.0
 10
113.0583343718
 20
112.1122268194
 30
0.0
 10
113.0582980344
 20
112.1125628309
 30
0.0
 10
113.0583538941
 20
112.1125638851
 30
0.0
  0
SPLINE
  5
519
100
AcDbEntity
  8
268140580
100
AcDbSpline
 62
250
  6
CONTINUOUS
 70
0
 71
3
 72
24
 73
20
 74
0
 42
0.0000001
 43
0.0000001
 44
0.0000000001
 40
0.0
 40
0.0
 40
0.0
 40
0.0
 40
0.1950126526
 40
0.3824957699
 40
0.5552736379
 40
0.6340444611
 40
0.7067096121
 40
0.772572116
 40
0.8309983013
 40
0.8814267796
 40
0.923376682
 40
0.9410430104
 40
0.956447653
 40
0.969551939
 40
0.980328238
 40
0.9887549053
 40
0.9948165379
 40
0.9985233221
 40
1.0
 40
1.0
 40
1.0
 40
1.0
 10
116.1670830375
 20
70.1405838816
 30
0.0
 10
116.1657229511
 20
70.1146239795
 30
0.0
 10
116.1631409207
 20
70.0637019646
 30
0.0
 10
116.1596512058
 20
69.9897652441
 30
0.0
 10
116.1571200259
 20
69.9312961308
 30
0.0
 10
116.1554124301
 20
69.8881115993
 30
0.0
 10
116.1543500572
 20
69.8591647891
 30
0.0
 10
116.1534755095
 20
69.8329250591
 30
0.0
 10
116.1527964217
 20
69.8096447002
 30
0.0
 10
116.152318825
 20
69.7895480244
 30
0.0
 10
116.1520771097
 20
69.774880021
 30
0.0
 10
116.1520009162
 20
69.7648808413
 30
0.0
 10
116.1519995039
 20
69.7587231658
 30
0.0
 10
116.1520492742
 20
69.7534934832
 30
0.0
 10
116.1521504667
 20
69.7491684188
 30
0.0
 10
116.1522970597
 20
69.7458537371
 30
0.0
 10
116.1524925635
 20
69.7433202042
 30
0.0
 10
116.1527047559
 20
69.7420445466
 30
0.0
 10
116.1529330437
 20
69.7411423697
 30
0.0
 10
116.1531296176
 20
69.7411320677
 30
0.0
  0
SPLINE
  5
51A
100
AcDbEntity
  8
268140580
100
AcDbSpline
 62
7
  6
CONTINUOUS
 70
0
 71
3
 72
26
 73
22
 74
0
 42
0.0000001
 43
0.0000001
 44
0.0000000001
 40
0.0
 40
0.0
 40
0.0
 40
0.0
 40
0.1681769916
 40
0.3336591227
 40
0.4935841839
 40
0.5703326466
 40
0.6441583552
 40
0.7143174495
 40
0.7798989315
 40
0.8397688289
 40
0.8925594074
 40
0.9158078801
 40
0.9366682939
 40
0.9549191551
 40
0.970338375
 40
0.9827141555
 40
0.9918686451
 40
0.9951870833
 40
0.9976497381
 40
0.9992512005
 40
1.0
 40
1.0
 40
1.0
 40
1.0
 10
113.0583539095
 20
75.6405838816
 30
0.0
 10
113.0416828694
 20
75.6239103021
 30
0.0
 10
113.0086318119
 20
75.5908064254
 30
0.0
 10
112.9598127559
 20
75.5417622771
 30
0.0
 10
112.920103321
 20
75.5017364855
 30
0.0
 10
112.889492101
 20
75.4707856391
 30
0.0
 10
112.8677566411
 20
75.4487570635
 30
0.0
 10
112.8471499317
 20
75.4278142025
 30
0.0
 10
112.8279488492
 20
75.4082332322
 30
0.0
 10
112.8104919641
 20
75.3903524324
 30
0.0
 10
112.7972214047
 20
75.3766790924
 30
0.0
 10
112.7877941734
 20
75.3668972812
 30
0.0
 10
112.781745586
 20
75.3605843947
 30
0.0
 10
112.7764785251
 20
75.3550435198
 30
0.0
 10
112.7720544536
 20
75.3503409306
 30
0.0
 10
112.7685401261
 20
75.3465382231
 30
0.0
 10
112.7662000049
 20
75.3439502875
 30
0.0
 10
112.7648436157
 20
75.3423638325
 30
0.0
 10
112.7641713751
 20
75.3415611654
 30
0.0
 10
112.7638008554
 20
75.34102298
 30
0.0
 10
112.7635896314
 20
75.3407345538
 30
0.0
 10
112.7635896314
 20
75.340629573
 30
0.0
  0
SPLINE
  5
51B
100
AcDbEntity
  8
268140580
100
AcDbSpline
 62
250
  6
CONTINUOUS
 70
0
 71
3
 72
29
 73
25
 74
0
 42
0.0000001
 43
0.0000001
 44
0.0000000001
 40
0.0
 40
0.0
 40
0.0
 40
0.0
 40
0.0003126623
 40
0.0012202511
 40
0.0027282698
 40
0.0048369294
 40
0.0075446469
 40
0.0108495316
 40
0.0192429785
 40
0.0299999601
 40
0.0430928842
 40
0.0584899055
 40
0.0761562472
 40
0.096047001
 40
0.1181149952
 40
0.1685667633
 40
0.2270251583
 40
0.2929263261
 40
0.365636594
 40
0.4444565733
 40
0.5286255649
 40
0.6173346705
 40
0.8049136384
 40
1.0
 40
1.0
 40
1.0
 40
1.0
 10
113.0583538941
 20
72.1686038781
 30
0.0
 10
113.0582980344
 20
72.1686049323
 30
0.0
 10
113.0583343718
 20
72.1689409438
 30
0.0
 10
113.0582362326
 20
72.1693136607
 30
0.0
 10
113.0582344699
 20
72.1701856522
 30
0.0
 10
113.0581811461
 20
72.1712867468
 30
0.0
 10
113.0581501979
 20
72.1727484566
 30
0.0
 10
113.0580948216
 20
72.1753169204
 30
0.0
 10
113.0580373276
 20
72.1793324611
 30
0.0
 10
113.057973309
 20
72.1850921999
 30
0.0
 10
113.0579150516
 20
72.1921055319
 30
0.0
 10
113.0578612178
 20
72.2003528461
 30
0.0
 10
113.0578127128
 20
72.2098151578
 30
0.0
 10
113.0577694873
 20
72.2204694626
 30
0.0
 10
113.0577168705
 20
72.2369822273
 30
0.0
 10
113.0576680451
 20
72.2603866714
 30
0.0
 10
113.0576342321
 20
72.2916237029
 30
0.0
 10
113.0576236693
 20
72.3268381208
 30
0.0
 10
113.0576365594
 20
72.3656909503
 30
0.0
 10
113.0576729067
 20
72.4078080439
 30
0.0
 10
113.0577324153
 20
72.4527839467
 30
0.0
 10
113.057844069
 20
72.5171939407
 30
0.0
 10
113.0580378185
 20
72.6014236444
 30
0.0
 10
113.0582398496
 20
72.6698018363
 30
0.0
 10
113.0583539172
 20
72.7046616405
 30
0.0
  0
SPLINE
  5
51C
100
AcDbEntity
  8
268140580
100
AcDbSpline
 62
250
  6
CONTINUOUS
 70
0
 71
3
 72
24
 73
20
 74
0
 42
0.0000001
 43
0.0000001
 44
0.0000000001
 40
0.0
 40
0.0
 40
0.0
 40
0.0
 40
0.1950126596
 40
0.3824957738
 40
0.5552736398
 40
0.634044462
 40
0.7067096122
 40
0.7725721154
 40
0.8309983002
 40
0.8814267782
 40
0.9233766804
 40
0.9410430089
 40
0.9564476515
 40
0.9695519376
 40
0.980328237
 40
0.9887549044
 40
0.9948165372
 40
0.9985233219
 40
1.0
 40
1.0
 40
1.0
 40
1.0
 10
116.1670830375
 20
114.1405838816
 30
0.0
 10
116.165722951
 20
114.1665437846
 30
0.0
 10
116.1631409206
 20
114.2174658
 30
0.0
 10
116.1596512058
 20
114.2914025208
 30
0.0
 10
116.1571200259
 20
114.3498716332
 30
0.0
 10
116.1554124301
 20
114.3930561642
 30
0.0
 10
116.1543500572
 20
114.4220029741
 30
0.0
 10
116.1534755095
 20
114.4482427039
 30
0.0
 10
116.1527964218
 20
114.4715230625
 30
0.0
 10
116.152318825
 20
114.4916197382
 30
0.0
 10
116.1520771097
 20
114.5062877415
 30
0.0
 10
116.1520009162
 20
114.5162869212
 30
0.0
 10
116.1519995039
 20
114.5224445967
 30
0.0
 10
116.1520492742
 20
114.5276742794
 30
0.0
 10
116.1521504667
 20
114.5319993439
 30
0.0
 10
116.1522970597
 20
114.5353140256
 30
0.0
 10
116.1524925635
 20
114.5378475587
 30
0.0
 10
116.1527047559
 20
114.5391232163
 30
0.0
 10
116.1529330437
 20
114.5400253935
 30
0.0
 10
116.1531296176
 20
114.5400356955
 30
0.0
  0
SPLINE
  5
51D
100
AcDbEntity
  8
ASSI
100
AcDbSpline
 62
7
  6
CONTINUOUS
 70
0
 71
3
 72
12
 73
8
 74
0
 42
0.0000001
 43
0.0000001
 44
0.0000000001
 40
0.0
 40
0.0
 40
0.0
 40
0.0
 40
0.2500160731
 40
0.5000274027
 40
0.750019781
 40
0.8750210095
 40
1.0
 40
1.0
 40
1.0
 40
1.0
 10
142.1810420379
 20
91.6106669807
 30
0.0
 10
142.4091131722
 20
91.5664183552
 30
0.0
 10
142.8645416077
 20
91.4741076568
 30
0.0
 10
143.5440700996
 20
91.3190766724
 30
0.0
 10
144.1054273876
 20
91.1687259935
 30
0.0
 10
144.5469693519
 20
91.0239283192
 30
0.0
 10
144.7633691079
 20
90.9385374845
 30
0.0
 10
144.8688253534
 20
90.8898927905
 30
0.0
  0
SPLINE
  5
51E
100
AcDbEntity
  8
ASSI
100
AcDbSpline
 62
7
  6
CONTINUOUS
 70
0
 71
3
 72
29
 73
25
 74
0
 42
0.0000001
 43
0.0000001
 44
0.0000000001
 40
0.0
 40
0.0
 40
0.0
 40
0.0
 40
0.0625423396
 40
0.1250844392
 40
0.1876259166
 40
0.2501654763
 40
0.3126994638
 40
0.3439706797
 40
0.3752403498
 40
0.4065047081
 40
0.437752672
 40
0.4689430742
 40
0.4999998661
 40
0.531056657
 40
0.5622471287
 40
0.5934951736
 40
0.6247595831
 40
0.6560292731
 40
0.6873004977
 40
0.7498345041
 40
0.8123740709
 40
0.8749155547
 40
0.937457658
 40
1.0
 40
1.0
 40
1.0
 40
1.0
 10
142.1810420379
 20
79.2749605926
 30
0.0
 10
142.2450377677
 20
79.2937469814
 30
0.0
 10
142.3726940538
 20
79.3324784675
 30
0.0
 10
142.5628262628
 20
79.3948684159
 30
0.0
 10
142.7510962013
 20
79.4627214176
 30
0.0
 10
142.9365964783
 20
79.5378340087
 30
0.0
 10
143.0876054754
 20
79.6088814809
 30
0.0
 10
143.2043422553
 20
79.6735188742
 30
0.0
 10
143.2888958117
 20
79.7271194285
 30
0.0
 10
143.3687924102
 20
79.7875523498
 30
0.0
 10
143.4406437029
 20
79.8575115885
 30
0.0
 10
143.4975745719
 20
79.9407185931
 30
0.0
 10
143.5224122421
 20
80.0405834419
 30
0.0
 10
143.4975748891
 20
80.1404484408
 30
0.0
 10
143.4406442011
 20
80.2236557806
 30
0.0
 10
143.368792789
 20
80.2936152308
 30
0.0
 10
143.2888959745
 20
80.3540481328
 30
0.0
 10
143.2043423884
 20
80.4076487915
 30
0.0
 10
143.0876056002
 20
80.4722862804
 30
0.0
 10
142.9365965314
 20
80.5433336892
 30
0.0
 10
142.7510962486
 20
80.6184463535
 30
0.0
 10
142.5628262789
 20
80.6862993262
 30
0.0
 10
142.3726940633
 20
80.7486892951
 30
0.0
 10
142.2450377701
 20
80.7874207811
 30
0.0
 10
142.1810420379
 20
80.8062071705
 30
0.0
  0
SPLINE
  5
51F
100
AcDbEntity
  8
ASSI
100
AcDbSpline
 62
7
  6
CONTINUOUS
 70
0
 71
3
 72
12
 73
8
 74
0
 42
0.0000001
 43
0.0000001
 44
0.0000000001
 40
0.0
 40
0.0
 40
0.0
 40
0.0
 40
0.1249789905
 40
0.249980219
 40
0.4999725973
 40
0.7499839269
 40
1.0
 40
1.0
 40
1.0
 40
1.0
 10
144.8688253534
 20
89.9912749727
 30
0.0
 10
144.7633691079
 20
89.9426302787
 30
0.0
 10
144.5469693519
 20
89.857239444
 30
0.0
 10
144.1054273876
 20
89.7124417696
 30
0.0
 10
143.5440700996
 20
89.5620910908
 30
0.0
 10
142.8645416077
 20
89.4070601064
 30
0.0
 10
142.4091131722
 20
89.3147494079
 30
0.0
 10
142.1810420379
 20
89.2705007824
 30
0.0
  0
SPLINE
  5
520
100
AcDbEntity
  8
ASSI
100
AcDbSpline
 62
250
  6
CONTINUOUS
 70
0
 71
3
 72
23
 73
19
 74
0
 42
0.0000001
 43
0.0000001
 44
0.0000000001
 40
0.0
 40
0.0
 40
0.0
 40
0.0
 40
0.0014768812
 40
0.005184434
 40
0.0112479116
 40
0.0196751348
 40
0.0304533279
 40
0.0435604575
 40
0.0766356191
 40
0.1185910151
 40
0.1690266748
 40
0.22745921
 40
0.2933274203
 40
0.3659981535
 40
0.4447725632
 40
0.6175497523
 40
0.8050255604
 40
1.0
 40
1.0
 40
1.0
 40
1.0
 10
133.6548634282
 20
72.6429103183
 30
0.0
 10
133.6553558304
 20
72.6429189132
 30
0.0
 10
133.656007649
 20
72.6451532859
 30
0.0
 10
133.6566487087
 20
72.6483258388
 30
0.0
 10
133.6573596998
 20
72.6546430445
 30
0.0
 10
133.658016178
 20
72.6629186538
 30
0.0
 10
133.6586478009
 20
72.6737237632
 30
0.0
 10
133.6594897337
 20
72.692676627
 30
0.0
 10
133.660349552
 20
72.7220702924
 30
0.0
 10
133.6611261692
 20
72.7638947164
 30
0.0
 10
133.6616861953
 20
72.8141875027
 30
0.0
 10
133.6620224148
 20
72.8724531418
 30
0.0
 10
133.6621274962
 20
72.9381350853
 30
0.0
 10
133.6619993348
 20
73.0105997899
 30
0.0
 10
133.6615010484
 20
73.1187131724
 30
0.0
 10
133.6602778832
 20
73.2651055899
 30
0.0
 10
133.6580079966
 20
73.4502368263
 30
0.0
 10
133.6559977631
 20
73.5777522094
 30
0.0
 10
133.6548634282
 20
73.6427580135
 30
0.0
  0
SPLINE
  5
521
100
AcDbEntity
  8
ASSI
100
AcDbSpline
 62
7
  6
CONTINUOUS
 70
0
 71
3
 72
12
 73
8
 74
0
 42
0.0000001
 43
0.0000001
 44
0.0000000001
 40
0.0
 40
0.0
 40
0.0
 40
0.0
 40
0.2500160731
 40
0.5000274027
 40
0.750019781
 40
0.8750210095
 40
1.0
 40
1.0
 40
1.0
 40
1.0
 10
142.1810420379
 20
105.4106669807
 30
0.0
 10
142.4091131722
 20
105.3664183552
 30
0.0
 10
142.8645416077
 20
105.2741076568
 30
0.0
 10
143.5440700996
 20
105.1190766724
 30
0.0
 10
144.1054273876
 20
104.9687259935
 30
0.0
 10
144.5469693519
 20
104.8239283192
 30
0.0
 10
144.7633691079
 20
104.7385374845
 30
0.0
 10
144.8688253534
 20
104.6898927905
 30
0.0
  0
SPLINE
  5
522
100
AcDbEntity
  8
ASSI
100
AcDbSpline
 62
250
  6
CONTINUOUS
 70
0
 71
3
 72
18
 73
14
 74
0
 42
0.0000001
 43
0.0000001
 44
0.0000000001
 40
0.0
 40
0.0
 40
0.0
 40
0.0
 40
0.0042859035
 40
0.0166672717
 40
0.0372076212
 40
0.0658700248
 40
0.1025904114
 40
0.147282766
 40
0.2601366104
 40
0.4033497809
 40
0.5755473541
 40
0.7750681756
 40
1.0
 40
1.0
 40
1.0
 40
1.0
 10
132.1810420379
 20
72.6171846702
 30
0.0
 10
132.1814604501
 20
72.6171919737
 30
0.0
 10
132.1812265768
 20
72.6196919744
 30
0.0
 10
132.181899971
 20
72.6224802539
 30
0.0
 10
132.1818778339
 20
72.6289630379
 30
0.0
 10
132.1821757401
 20
72.6371422435
 30
0.0
 10
132.1822843519
 20
72.6479693362
 30
0.0
 10
132.1824597326
 20
72.6668989895
 30
0.0
 10
132.182502486
 20
72.6962899689
 30
0.0
 10
132.1824024574
 20
72.73809509
 30
0.0
 10
132.1821184792
 20
72.7883760771
 30
0.0
 10
132.1816629388
 20
72.8466300197
 30
0.0
 10
132.1812665499
 20
72.8880720656
 30
0.0
 10
132.1810420379
 20
72.91003328
 30
0.0
  0
SPLINE
  5
523
100
AcDbEntity
  8
ASSI
100
AcDbSpline
 62
250
  6
CONTINUOUS
 70
0
 71
3
 72
13
 73
9
 74
0
 42
0.0000001
 43
0.0000001
 44
0.0000000001
 40
0.0
 40
0.0
 40
0.0
 40
0.0
 40
0.2871585337
 40
0.553391996
 40
0.6752219498
 40
0.7890475457
 40
0.8963664073
 40
1.0
 40
1.0
 40
1.0
 40
1.0
 10
132.1810420379
 20
72.91003328
 30
0.0
 10
132.3082390472
 20
72.9116032211
 30
0.0
 10
132.5542065195
 20
72.9473371552
 30
0.0
 10
132.8308798312
 20
73.0754971761
 30
0.0
 10
133.0002328677
 20
73.2216172986
 30
0.0
 10
133.0927863754
 20
73.3437625389
 30
0.0
 10
133.1504271623
 20
73.4772085166
 30
0.0
 10
133.1635896314
 20
73.5711243197
 30
0.0
 10
133.1635896314
 20
73.6170323654
 30
0.0
  0
SPLINE
  5
524
100
AcDbEntity
  8
ASSI
100
AcDbSpline
 62
250
  6
CONTINUOUS
 70
0
 71
3
 72
9
 73
5
 74
0
 42
0.0000001
 43
0.0000001
 44
0.0000000001
 40
0.0
 40
0.0
 40
0.0
 40
0.0
 40
0.2143122828
 40
1.0
 40
1.0
 40
1.0
 40
1.0
 10
132.1810420379
 20
73.1634647145
 30
0.0
 10
132.1815583644
 20
73.2644759601
 30
0.0
 10
132.1831039779
 20
73.7358075736
 30
0.0
 10
132.182380605
 20
74.2071443378
 30
0.0
 10
132.1810420379
 20
74.5774628853
 30
0.0
  0
SPLINE
  5
525
100
AcDbEntity
  8
ASSI
100
AcDbSpline
 62
250
  6
CONTINUOUS
 70
0
 71
3
 72
13
 73
9
 74
0
 42
0.0000001
 43
0.0000001
 44
0.0000000001
 40
0.0
 40
0.0
 40
0.0
 40
0.0
 40
0.2871585337
 40
0.553391996
 40
0.6752219498
 40
0.7890475457
 40
0.8963664073
 40
1.0
 40
1.0
 40
1.0
 40
1.0
 10
132.1810420379
 20
73.1634647145
 30
0.0
 10
132.3082390472
 20
73.1650346557
 30
0.0
 10
132.5542065195
 20
73.2007685898
 30
0.0
 10
132.8308798312
 20
73.3289286107
 30
0.0
 10
133.0002328677
 20
73.4750487332
 30
0.0
 10
133.0927863754
 20
73.5971939734
 30
0.0
 10
133.1504271623
 20
73.7306399512
 30
0.0
 10
133.1635896314
 20
73.8245557542
 30
0.0
 10
133.1635896314
 20
73.8704637999
 30
0.0
  0
SPLINE
  5
526
100
AcDbEntity
  8
ASSI
100
AcDbSpline
 62
250
  6
CONTINUOUS
 70
0
 71
3
 72
23
 73
19
 74
0
 42
0.0000001
 43
0.0000001
 44
0.0000000001
 40
0.0
 40
0.0
 40
0.0
 40
0.0
 40
0.1949744397
 40
0.3824502477
 40
0.5552274368
 40
0.6340018465
 40
0.7066725797
 40
0.77254079
 40
0.8309733253
 40
0.8814089849
 40
0.9233643809
 40
0.9564395425
 40
0.9695466721
 40
0.9803248652
 40
0.9887520884
 40
0.994815566
 40
0.9985231188
 40
1.0
 40
1.0
 40
1.0
 40
1.0
 10
133.6548634282
 20
84.1490067928
 30
0.0
 10
133.6559977631
 20
84.0840009887
 30
0.0
 10
133.6580079966
 20
83.9564856055
 30
0.0
 10
133.6602778832
 20
83.7713543692
 30
0.0
 10
133.6615010484
 20
83.6249619517
 30
0.0
 10
133.6619993348
 20
83.5168485692
 30
0.0
 10
133.6621274962
 20
83.4443838646
 30
0.0
 10
133.6620224148
 20
83.3787019211
 30
0.0
 10
133.6616861953
 20
83.3204362819
 30
0.0
 10
133.6611261692
 20
83.2701434956
 30
0.0
 10
133.660349552
 20
83.2283190717
 30
0.0
 10
133.6594897337
 20
83.1989254063
 30
0.0
 10
133.6586478009
 20
83.1799725425
 30
0.0
 10
133.658016178
 20
83.1691674331
 30
0.0
 10
133.6573596998
 20
83.1608918238
 30
0.0
 10
133.6566487087
 20
83.1545746181
 30
0.0
 10
133.656007649
 20
83.1514020652
 30
0.0
 10
133.6553558304
 20
83.1491676925
 30
0.0
 10
133.6548634282
 20
83.1491590976
 30
0.0
  0
SPLINE
  5
527
100
AcDbEntity
  8
ASSI
100
AcDbSpline
 62
7
  6
CONTINUOUS
 70
0
 71
3
 72
14
 73
10
 74
0
 42
0.0000001
 43
0.0000001
 44
0.0000000001
 40
0.0
 40
0.0
 40
0.0
 40
0.0
 40
0.3856230656
 40
0.5569578531
 40
0.706027986
 40
0.8278640228
 40
0.9185522881
 40
0.9755952524
 40
1.0
 40
1.0
 40
1.0
 40
1.0
 10
144.8897363543
 20
104.6849665269
 30
0.0
 10
144.9253027439
 20
104.6847307326
 30
0.0
 10
144.9766978015
 20
104.6837212715
 30
0.0
 10
145.0416949033
 20
104.6807619158
 30
0.0
 10
145.0825288969
 20
104.6779661272
 30
0.0
 10
145.115360463
 20
104.6748480327
 30
0.0
 10
145.1408643072
 20
104.6709849475
 30
0.0
 10
145.1546762539
 20
104.6679112263
 30
0.0
 10
145.1635896314
 20
104.6639621362
 30
0.0
 10
145.1635896314
 20
104.6617112132
 30
0.0
  0
SPLINE
  5
528
100
AcDbEntity
  8
ASSI
100
AcDbSpline
 62
7
  6
CONTINUOUS
 70
0
 71
3
 72
14
 73
10
 74
0
 42
0.0000001
 43
0.0000001
 44
0.0000000001
 40
0.0
 40
0.0
 40
0.0
 40
0.0
 40
0.3856230656
 40
0.5569578531
 40
0.706027986
 40
0.8278640228
 40
0.9185522881
 40
0.9755952524
 40
1.0
 40
1.0
 40
1.0
 40
1.0
 10
144.8897363543
 20
103.7962012362
 30
0.0
 10
144.9253027439
 20
103.7964370305
 30
0.0
 10
144.9766978015
 20
103.7974464917
 30
0.0
 10
145.0416949033
 20
103.8004058473
 30
0.0
 10
145.0825288969
 20
103.803201636
 30
0.0
 10
145.115360463
 20
103.8063197305
 30
0.0
 10
145.1408643072
 20
103.8101828157
 30
0.0
 10
145.1546762539
 20
103.8132565369
 30
0.0
 10
145.1635896314
 20
103.8172056269
 30
0.0
 10
145.1635896314
 20
103.8194565499
 30
0.0
  0
SPLINE
  5
529
100
AcDbEntity
  8
ASSI
100
AcDbSpline
 62
7
  6
CONTINUOUS
 70
0
 71
3
 72
12
 73
8
 74
0
 42
0.0000001
 43
0.0000001
 44
0.0000000001
 40
0.0
 40
0.0
 40
0.0
 40
0.0
 40
0.1249789905
 40
0.249980219
 40
0.4999725973
 40
0.7499839269
 40
1.0
 40
1.0
 40
1.0
 40
1.0
 10
144.8688253534
 20
103.7912749727
 30
0.0
 10
144.7633691079
 20
103.7426302787
 30
0.0
 10
144.5469693519
 20
103.657239444
 30
0.0
 10
144.1054273876
 20
103.5124417696
 30
0.0
 10
143.5440700996
 20
103.3620910908
 30
0.0
 10
142.8645416077
 20
103.2070601064
 30
0.0
 10
142.4091131722
 20
103.1147494079
 30
0.0
 10
142.1810420379
 20
103.0705007824
 30
0.0
  0
SPLINE
  5
52A
100
AcDbEntity
  8
ASSI
100
AcDbSpline
 62
250
  6
CONTINUOUS
 70
0
 71
3
 72
18
 73
14
 74
0
 42
0.0000001
 43
0.0000001
 44
0.0000000001
 40
0.0
 40
0.0
 40
0.0
 40
0.0
 40
0.0057462454
 40
0.0203402259
 40
0.0442110228
 40
0.0772283326
 40
0.119111067
 40
0.1694741937
 40
0.293655449
 40
0.445023397
 40
0.6177414809
 40
0.8051412241
 40
1.0
 40
1.0
 40
1.0
 40
1.0
 10
142.1810420379
 20
83.2979840988
 30
0.0
 10
142.1820010959
 20
83.2980007598
 30
0.0
 10
142.183290119
 20
83.2935413415
 30
0.0
 10
142.1843809917
 20
83.2873287807
 30
0.0
 10
142.1855782123
 20
83.2748540858
 30
0.0
 10
142.1865200821
 20
83.2586502837
 30
0.0
 10
142.1873066912
 20
83.2376561098
 30
0.0
 10
142.188105098
 20
83.2015817081
 30
0.0
 10
142.1884118582
 20
83.1471475933
 30
0.0
 10
142.1878808855
 20
83.0723321794
 30
0.0
 10
142.1864552755
 20
82.9869583603
 30
0.0
 10
142.1841847157
 20
82.8943461195
 30
0.0
 10
142.1821755113
 20
82.8305676626
 30
0.0
 10
142.1810420379
 20
82.7980602512
 30
0.0
  0
SPLINE
  5
52B
100
AcDbEntity
  8
ASSI
100
AcDbSpline
 62
7
  6
CONTINUOUS
 70
0
 71
3
 72
21
 73
17
 74
0
 42
0.0000001
 43
0.0000001
 44
0.0000000001
 40
0.0
 40
0.0
 40
0.0
 40
0.0
 40
0.1012153139
 40
0.2113533555
 40
0.3296070813
 40
0.4546505465
 40
0.5193074135
 40
0.5851750358
 40
0.6521155588
 40
0.7200050719
 40
0.7887380784
 40
0.8582303241
 40
0.8933227925
 40
0.9286477816
 40
0.9642179347
 40
1.0
 40
1.0
 40
1.0
 40
1.0
 10
143.1635896314
 20
82.3275881885
 30
0.0
 10
143.1635896314
 20
82.2620575877
 30
0.0
 10
143.1477392605
 20
82.1251720884
 30
0.0
 10
143.0918699419
 20
81.9187783326
 30
0.0
 10
143.0093966986
 20
81.7049839899
 30
0.0
 10
142.9229898438
 20
81.5250920882
 30
0.0
 10
142.8435445333
 20
81.3799156315
 30
0.0
 10
142.7780051321
 20
81.2701055133
 30
0.0
 10
142.7067849318
 20
81.161376433
 30
0.0
 10
142.6288759294
 20
81.0549533705
 30
0.0
 10
142.5423007689
 20
80.9532746827
 30
0.0
 10
142.45948904
 20
80.8765708938
 30
0.0
 10
142.3829310761
 20
80.8275840984
 30
0.0
 10
142.318926259
 20
80.8013529908
 30
0.0
 10
142.2495501503
 20
80.7921006536
 30
0.0
 10
142.2032706984
 20
80.7996817936
 30
0.0
 10
142.1810420379
 20
80.8062071705
 30
0.0
  0
SPLINE
  5
52C
100
AcDbEntity
  8
ASSI
100
AcDbSpline
 62
250
  6
CONTINUOUS
 70
0
 71
3
 72
21
 73
17
 74
0
 42
0.0000001
 43
0.0000001
 44
0.0000000001
 40
0.0
 40
0.0
 40
0.0
 40
0.0
 40
0.1949749101
 40
0.3824505964
 40
0.5552279089
 40
0.7066730919
 40
0.772541338
 40
0.8309738719
 40
0.8814095615
 40
0.92336505
 40
0.9564402876
 40
0.9803249919
 40
0.9887519346
 40
0.9948156474
 40
0.9985230434
 40
1.0
 40
1.0
 40
1.0
 40
1.0
 10
133.6548634282
 20
82.64923525
 30
0.0
 10
133.6542962599
 20
82.6817382037
 30
0.0
 10
133.6532912623
 20
82.745495887
 30
0.0
 10
133.6521558058
 20
82.8380615665
 30
0.0
 10
133.6514446536
 20
82.9233734447
 30
0.0
 10
133.6512108822
 20
82.9884130572
 30
0.0
 10
133.6512839034
 20
83.0343872892
 30
0.0
 10
133.6514519001
 20
83.0635218564
 30
0.0
 10
133.6517325347
 20
83.0886629585
 30
0.0
 10
133.6521190283
 20
83.1095901636
 30
0.0
 10
133.6526062555
 20
83.1260450215
 30
0.0
 10
133.6531178628
 20
83.1369997507
 30
0.0
 10
133.6536152052
 20
83.1432936648
 30
0.0
 10
133.6539707391
 20
83.1464511968
 30
0.0
 10
133.6542914195
 20
83.1480375651
 30
0.0
 10
133.6546172148
 20
83.1491547999
 30
0.0
 10
133.6548634282
 20
83.1491590976
 30
0.0
  0
SPLINE
  5
52D
100
AcDbEntity
  8
ASSI
100
AcDbSpline
 62
7
  6
CONTINUOUS
 70
0
 71
3
 72
21
 73
17
 74
0
 42
0.0000001
 43
0.0000001
 44
0.0000000001
 40
0.0
 40
0.0
 40
0.0
 40
0.0
 40
0.0357822458
 40
0.0713525566
 40
0.1066776527
 40
0.1417701569
 40
0.2112623746
 40
0.2799953493
 40
0.3478848501
 40
0.4148253387
 40
0.4806929835
 40
0.5453496985
 40
0.670392687
 40
0.7886462562
 40
0.8987845635
 40
1.0
 40
1.0
 40
1.0
 40
1.0
 10
142.1810420379
 20
79.2749605926
 30
0.0
 10
142.2032708104
 20
79.2814860024
 30
0.0
 10
142.2495504979
 20
79.289067153
 30
0.0
 10
142.3189268714
 20
79.2798145702
 30
0.0
 10
142.3829318191
 20
79.2535832836
 30
0.0
 10
142.4594897663
 20
79.2045963181
 30
0.0
 10
142.5423013315
 20
79.1278923908
 30
0.0
 10
142.628876491
 20
79.0262137677
 30
0.0
 10
142.7067853569
 20
78.9197906686
 30
0.0
 10
142.7780056003
 20
78.8110616368
 30
0.0
 10
142.8435447926
 20
78.7012515178
 30
0.0
 10
142.9229899576
 20
78.5560754331
 30
0.0
 10
143.0093965606
 20
78.3761839754
 30
0.0
 10
143.0918697808
 20
78.1623898852
 30
0.0
 10
143.1477392099
 20
77.9559960033
 30
0.0
 10
143.1635896314
 20
77.8191102543
 30
0.0
 10
143.1635896314
 20
77.7535795747
 30
0.0
  0
SPLINE
  5
52E
100
AcDbEntity
  8
ASSI
100
AcDbSpline
 62
7
  6
CONTINUOUS
 70
0
 71
3
 72
14
 73
10
 74
0
 42
0.0000001
 43
0.0000001
 44
0.0000000001
 40
0.0
 40
0.0
 40
0.0
 40
0.0
 40
0.3856230656
 40
0.5569578531
 40
0.706027986
 40
0.8278640228
 40
0.9185522881
 40
0.9755952524
 40
1.0
 40
1.0
 40
1.0
 40
1.0
 10
144.8897363543
 20
90.8849665269
 30
0.0
 10
144.9253027439
 20
90.8847307326
 30
0.0
 10
144.9766978015
 20
90.8837212715
 30
0.0
 10
145.0416949033
 20
90.8807619158
 30
0.0
 10
145.0825288969
 20
90.8779661272
 30
0.0
 10
145.115360463
 20
90.8748480327
 30
0.0
 10
145.1408643072
 20
90.8709849475
 30
0.0
 10
145.1546762539
 20
90.8679112263
 30
0.0
 10
145.1635896314
 20
90.8639621362
 30
0.0
 10
145.1635896314
 20
90.8617112132
 30
0.0
  0
SPLINE
  5
52F
100
AcDbEntity
  8
ASSI
100
AcDbSpline
 62
7
  6
CONTINUOUS
 70
0
 71
3
 72
14
 73
10
 74
0
 42
0.0000001
 43
0.0000001
 44
0.0000000001
 40
0.0
 40
0.0
 40
0.0
 40
0.0
 40
0.3856230656
 40
0.5569578531
 40
0.706027986
 40
0.8278640228
 40
0.9185522881
 40
0.9755952524
 40
1.0
 40
1.0
 40
1.0
 40
1.0
 10
144.8897363543
 20
89.9962012362
 30
0.0
 10
144.9253027439
 20
89.9964370305
 30
0.0
 10
144.9766978015
 20
89.9974464917
 30
0.0
 10
145.0416949033
 20
90.0004058473
 30
0.0
 10
145.0825288969
 20
90.003201636
 30
0.0
 10
145.115360463
 20
90.0063197305
 30
0.0
 10
145.1408643072
 20
90.0101828157
 30
0.0
 10
145.1546762539
 20
90.0132565369
 30
0.0
 10
145.1635896314
 20
90.0172056269
 30
0.0
 10
145.1635896314
 20
90.0194565499
 30
0.0
  0
SPLINE
  5
530
100
AcDbEntity
  8
ASSI
100
AcDbSpline
 62
250
  6
CONTINUOUS
 70
0
 71
3
 72
23
 73
19
 74
0
 42
0.0000001
 43
0.0000001
 44
0.0000000001
 40
0.0
 40
0.0
 40
0.0
 40
0.0
 40
0.0014768812
 40
0.005184434
 40
0.0112479116
 40
0.0196751348
 40
0.0304533279
 40
0.0435604575
 40
0.0766356191
 40
0.1185910151
 40
0.1690266747
 40
0.22745921
 40
0.2933274203
 40
0.3659981535
 40
0.4447725632
 40
0.6175497523
 40
0.8050255603
 40
1.0
 40
1.0
 40
1.0
 40
1.0
 10
142.1810420379
 20
72.7917353195
 30
0.0
 10
142.1815344401
 20
72.7917439144
 30
0.0
 10
142.1821862587
 20
72.7939782871
 30
0.0
 10
142.1828273184
 20
72.79715084
 30
0.0
 10
142.1835383095
 20
72.8034680457
 30
0.0
 10
142.1841947877
 20
72.8117436551
 30
0.0
 10
142.1848264105
 20
72.8225487645
 30
0.0
 10
142.1856683434
 20
72.8415016282
 30
0.0
 10
142.1865281617
 20
72.8708952936
 30
0.0
 10
142.1873047788
 20
72.9127197176
 30
0.0
 10
142.1878648049
 20
72.9630125039
 30
0.0
 10
142.1882010244
 20
73.021278143
 30
0.0
 10
142.1883061059
 20
73.0869600865
 30
0.0
 10
142.1881779445
 20
73.1594247911
 30
0.0
 10
142.187679658
 20
73.2675381736
 30
0.0
 10
142.1864564929
 20
73.4139305911
 30
0.0
 10
142.1841866062
 20
73.5990618275
 30
0.0
 10
142.1821763728
 20
73.7265772107
 30
0.0
 10
142.1810420379
 20
73.7915830147
 30
0.0
  0
SPLINE
  5
531
100
AcDbEntity
  8
ASSI
100
AcDbSpline
 62
250
  6
CONTINUOUS
 70
0
 71
3
 72
18
 73
14
 74
0
 42
0.0000001
 43
0.0000001
 44
0.0000000001
 40
0.0
 40
0.0
 40
0.0
 40
0.0
 40
0.2249318244
 40
0.4244526459
 40
0.5966502191
 40
0.7398633896
 40
0.852717234
 40
0.8974095886
 40
0.9341299752
 40
0.9627923788
 40
0.9833327283
 40
0.9957140965
 40
1.0
 40
1.0
 40
1.0
 40
1.0
 10
142.1810420379
 20
111.1965838339
 30
0.0
 10
142.1812665499
 20
111.2185450483
 30
0.0
 10
142.1816629388
 20
111.2599870941
 30
0.0
 10
142.1821184792
 20
111.3182410368
 30
0.0
 10
142.1824024574
 20
111.3685220238
 30
0.0
 10
142.182502486
 20
111.4103271449
 30
0.0
 10
142.1824597326
 20
111.4397181243
 30
0.0
 10
142.1822843519
 20
111.4586477777
 30
0.0
 10
142.1821757401
 20
111.4694748703
 30
0.0
 10
142.1818778339
 20
111.477654076
 30
0.0
 10
142.181899971
 20
111.48413686
 30
0.0
 10
142.1812265768
 20
111.4869251395
 30
0.0
 10
142.1814604501
 20
111.4894251402
 30
0.0
 10
142.1810420379
 20
111.4894324436
 30
0.0
  0
SPLINE
  5
532
100
AcDbEntity
  8
ASSI
100
AcDbSpline
 62
250
  6
CONTINUOUS
 70
0
 71
3
 72
13
 73
9
 74
0
 42
0.0000001
 43
0.0000001
 44
0.0000000001
 40
0.0
 40
0.0
 40
0.0
 40
0.0
 40
0.2871586347
 40
0.5533921779
 40
0.675222162
 40
0.7890477852
 40
0.8963666637
 40
1.0
 40
1.0
 40
1.0
 40
1.0
 10
142.1810420379
 20
111.1965838339
 30
0.0
 10
142.3082390918
 20
111.1950138922
 30
0.0
 10
142.5542066441
 20
111.1592799327
 30
0.0
 10
142.8308800311
 20
111.0311198297
 30
0.0
 10
143.0002330633
 20
110.8849996067
 30
0.0
 10
143.0927865466
 20
110.7628543045
 30
0.0
 10
143.1504272119
 20
110.6294083739
 30
0.0
 10
143.1635896314
 20
110.5354926805
 30
0.0
 10
143.1635896314
 20
110.4895847485
 30
0.0
  0
SPLINE
  5
533
100
AcDbEntity
  8
ASSI
100
AcDbSpline
 62
250
  6
CONTINUOUS
 70
0
 71
3
 72
13
 73
9
 74
0
 42
0.0000001
 43
0.0000001
 44
0.0000000001
 40
0.0
 40
0.0
 40
0.0
 40
0.0
 40
0.2871585337
 40
0.553391996
 40
0.6752219498
 40
0.7890475457
 40
0.8963664073
 40
1.0
 40
1.0
 40
1.0
 40
1.0
 10
142.1810420379
 20
111.0454018024
 30
0.0
 10
142.3082390472
 20
111.0438318612
 30
0.0
 10
142.5542065195
 20
111.0080979272
 30
0.0
 10
142.8308798312
 20
110.8799379062
 30
0.0
 10
143.0002328677
 20
110.7338177838
 30
0.0
 10
143.0927863754
 20
110.6116725435
 30
0.0
 10
143.1504271623
 20
110.4782265657
 30
0.0
 10
143.1635896314
 20
110.3843107627
 30
0.0
 10
143.1635896314
 20
110.338402717
 30
0.0
  0
SPLINE
  5
534
100
AcDbEntity
  8
ASSI
100
AcDbSpline
 62
250
  6
CONTINUOUS
 70
0
 71
3
 72
9
 73
5
 74
0
 42
0.0000001
 43
0.0000001
 44
0.0000000001
 40
0.0
 40
0.0
 40
0.0
 40
0.0
 40
0.2758961316
 40
1.0
 40
1.0
 40
1.0
 40
1.0
 10
142.1810420379
 20
109.6314036316
 30
0.0
 10
142.1815120788
 20
109.7614418452
 30
0.0
 10
142.1827823608
 20
110.2327730502
 30
0.0
 10
142.1827865666
 20
110.7041119192
 30
0.0
 10
142.1810420379
 20
111.0454018024
 30
0.0
  0
SPLINE
  5
535
100
AcDbEntity
  8
ASSI
100
AcDbSpline
 62
7
  6
CONTINUOUS
 70
0
 71
3
 72
8
 73
4
 74
0
 42
0.0000001
 43
0.0000001
 44
0.0000000001
 40
0.0
 40
0.0
 40
0.0
 40
0.0
 40
1.0
 40
1.0
 40
1.0
 40
1.0
 10
144.8897363543
 20
103.7962012362
 30
0.0
 10
144.8825753662
 20
103.7961537611
 30
0.0
 10
144.8753280257
 20
103.7942745153
 30
0.0
 10
144.8688253534
 20
103.7912749727
 30
0.0
  0
SPLINE
  5
536
100
AcDbEntity
  8
ASSI
100
AcDbSpline
 62
7
  6
CONTINUOUS
 70
0
 71
3
 72
8
 73
4
 74
0
 42
0.0000001
 43
0.0000001
 44
0.0000000001
 40
0.0
 40
0.0
 40
0.0
 40
0.0
 40
1.0
 40
1.0
 40
1.0
 40
1.0
 10
144.8897363543
 20
104.6849665269
 30
0.0
 10
144.8825753662
 20
104.6850140021
 30
0.0
 10
144.8753280257
 20
104.6868932478
 30
0.0
 10
144.8688253534
 20
104.6898927905
 30
0.0
  0
SPLINE
  5
537
100
AcDbEntity
  8
ASSI
100
AcDbSpline
 62
7
  6
CONTINUOUS
 70
0
 71
3
 72
8
 73
4
 74
0
 42
0.0000001
 43
0.0000001
 44
0.0000000001
 40
0.0
 40
0.0
 40
0.0
 40
0.0
 40
1.0
 40
1.0
 40
1.0
 40
1.0
 10
144.8897363543
 20
89.9962012362
 30
0.0
 10
144.8825753662
 20
89.9961537611
 30
0.0
 10
144.8753280257
 20
89.9942745153
 30
0.0
 10
144.8688253534
 20
89.9912749727
 30
0.0
  0
SPLINE
  5
538
100
AcDbEntity
  8
ASSI
100
AcDbSpline
 62
7
  6
CONTINUOUS
 70
0
 71
3
 72
8
 73
4
 74
0
 42
0.0000001
 43
0.0000001
 44
0.0000000001
 40
0.0
 40
0.0
 40
0.0
 40
0.0
 40
1.0
 40
1.0
 40
1.0
 40
1.0
 10
144.8897363543
 20
90.8849665269
 30
0.0
 10
144.8825753662
 20
90.8850140021
 30
0.0
 10
144.8753280257
 20
90.8868932478
 30
0.0
 10
144.8688253534
 20
90.8898927905
 30
0.0
  0
SPLINE
  5
539
100
AcDbEntity
  8
ASSI
100
AcDbSpline
 62
7
  6
CONTINUOUS
 70
0
 71
3
 72
17
 73
13
 74
0
 42
0.0000001
 43
0.0000001
 44
0.0000000001
 40
0.0
 40
0.0
 40
0.0
 40
0.0
 40
0.0737223245
 40
0.1463403108
 40
0.2175906789
 40
0.2875193114
 40
0.4234190219
 40
0.5538651361
 40
0.6778600879
 40
0.7941920653
 40
0.9017217147
 40
1.0
 40
1.0
 40
1.0
 40
1.0
 10
142.1810420379
 20
89.2705007824
 30
0.0
 10
142.2222961093
 20
89.2785045834
 30
0.0
 10
142.307446681
 20
89.2815954345
 30
0.0
 10
142.427918459
 20
89.2457034185
 30
0.0
 10
142.5338626609
 20
89.1839946079
 30
0.0
 10
142.6566192953
 20
89.0839919855
 30
0.0
 10
142.7853543139
 20
88.9406900105
 30
0.0
 10
142.9131076774
 20
88.7581327452
 30
0.0
 10
143.0168342596
 20
88.5735971156
 30
0.0
 10
143.0963378443
 20
88.3915065772
 30
0.0
 10
143.1490049638
 20
88.2150786597
 30
0.0
 10
143.1635896314
 20
88.0976920738
 30
0.0
 10
143.1635896314
 20
88.0416713278
 30
0.0
  0
SPLINE
  5
53A
100
AcDbEntity
  8
ASSI
100
AcDbSpline
 62
7
  6
CONTINUOUS
 70
0
 71
3
 72
17
 73
13
 74
0
 42
0.0000001
 43
0.0000001
 44
0.0000000001
 40
0.0
 40
0.0
 40
0.0
 40
0.0
 40
0.0982783041
 40
0.205807973
 40
0.3221399725
 40
0.4461349382
 40
0.5765810454
 40
0.7124807375
 40
0.7824093584
 40
0.8536596835
 40
0.9262776433
 40
1.0
 40
1.0
 40
1.0
 40
1.0
 10
143.1635896314
 20
92.8394964354
 30
0.0
 10
143.1635896314
 20
92.7834756786
 30
0.0
 10
143.1490049586
 20
92.6660890706
 30
0.0
 10
143.0963378188
 20
92.4896611231
 30
0.0
 10
143.0168342216
 20
92.3075705557
 30
0.0
 10
142.9131076242
 20
92.1230349153
 30
0.0
 10
142.7853542479
 20
91.9404776651
 30
0.0
 10
142.6566192224
 20
91.7971757278
 30
0.0
 10
142.5338626256
 20
91.6971731238
 30
0.0
 10
142.4279184553
 20
91.6354643525
 30
0.0
 10
142.3074467048
 20
91.5995723268
 30
0.0
 10
142.2222961273
 20
91.6026631763
 30
0.0
 10
142.1810420379
 20
91.6106669807
 30
0.0
  0
SPLINE
  5
53B
100
AcDbEntity
  8
ASSI
100
AcDbSpline
 62
7
  6
CONTINUOUS
 70
0
 71
3
 72
17
 73
13
 74
0
 42
0.0000001
 43
0.0000001
 44
0.0000000001
 40
0.0
 40
0.0
 40
0.0
 40
0.0
 40
0.0737223245
 40
0.1463403108
 40
0.2175906789
 40
0.2875193114
 40
0.4234190219
 40
0.5538651361
 40
0.6778600879
 40
0.7941920653
 40
0.9017217147
 40
1.0
 40
1.0
 40
1.0
 40
1.0
 10
142.1810420379
 20
103.0705007824
 30
0.0
 10
142.2222961093
 20
103.0785045834
 30
0.0
 10
142.307446681
 20
103.0815954345
 30
0.0
 10
142.427918459
 20
103.0457034185
 30
0.0
 10
142.5338626609
 20
102.9839946079
 30
0.0
 10
142.6566192953
 20
102.8839919855
 30
0.0
 10
142.7853543139
 20
102.7406900105
 30
0.0
 10
142.9131076774
 20
102.5581327452
 30
0.0
 10
143.0168342596
 20
102.3735971156
 30
0.0
 10
143.0963378443
 20
102.1915065772
 30
0.0
 10
143.1490049638
 20
102.0150786597
 30
0.0
 10
143.1635896314
 20
101.8976920738
 30
0.0
 10
143.1635896314
 20
101.8416713278
 30
0.0
  0
SPLINE
  5
53C
100
AcDbEntity
  8
ASSI
100
AcDbSpline
 62
7
  6
CONTINUOUS
 70
0
 71
3
 72
17
 73
13
 74
0
 42
0.0000001
 43
0.0000001
 44
0.0000000001
 40
0.0
 40
0.0
 40
0.0
 40
0.0
 40
0.0982783041
 40
0.205807973
 40
0.3221399725
 40
0.4461349382
 40
0.5765810454
 40
0.7124807375
 40
0.7824093584
 40
0.8536596835
 40
0.9262776433
 40
1.0
 40
1.0
 40
1.0
 40
1.0
 10
143.1635896314
 20
106.6394964354
 30
0.0
 10
143.1635896314
 20
106.5834756786
 30
0.0
 10
143.1490049586
 20
106.4660890706
 30
0.0
 10
143.0963378188
 20
106.2896611231
 30
0.0
 10
143.0168342216
 20
106.1075705557
 30
0.0
 10
142.9131076242
 20
105.9230349153
 30
0.0
 10
142.7853542479
 20
105.7404776651
 30
0.0
 10
142.6566192224
 20
105.5971757278
 30
0.0
 10
142.5338626256
 20
105.4971731238
 30
0.0
 10
142.4279184553
 20
105.4354643525
 30
0.0
 10
142.3074467048
 20
105.3995723268
 30
0.0
 10
142.2222961273
 20
105.4026631763
 30
0.0
 10
142.1810420379
 20
105.4106669807
 30
0.0
  0
SPLINE
  5
53D
100
AcDbEntity
  8
ASSI
100
AcDbSpline
 62
250
  6
CONTINUOUS
 70
0
 71
3
 72
23
 73
19
 74
0
 42
0.0000001
 43
0.0000001
 44
0.0000000001
 40
0.0
 40
0.0
 40
0.0
 40
0.0
 40
0.0014768812
 40
0.005184434
 40
0.0112479116
 40
0.0196751348
 40
0.0304533279
 40
0.0435604575
 40
0.0766356191
 40
0.1185910151
 40
0.1690266747
 40
0.22745921
 40
0.2933274203
 40
0.3659981535
 40
0.4447725632
 40
0.6175497523
 40
0.8050255603
 40
1.0
 40
1.0
 40
1.0
 40
1.0
 10
142.1810420379
 20
83.2979840988
 30
0.0
 10
142.1815344401
 20
83.2979926937
 30
0.0
 10
142.1821862587
 20
83.3002270664
 30
0.0
 10
142.1828273184
 20
83.3033996193
 30
0.0
 10
142.1835383095
 20
83.309716825
 30
0.0
 10
142.1841947877
 20
83.3179924344
 30
0.0
 10
142.1848264105
 20
83.3287975437
 30
0.0
 10
142.1856683434
 20
83.3477504075
 30
0.0
 10
142.1865281617
 20
83.3771440729
 30
0.0
 10
142.1873047788
 20
83.4189684969
 30
0.0
 10
142.1878648049
 20
83.4692612832
 30
0.0
 10
142.1882010244
 20
83.5275269223
 30
0.0
 10
142.1883061059
 20
83.5932088658
 30
0.0
 10
142.1881779445
 20
83.6656735704
 30
0.0
 10
142.187679658
 20
83.7737869529
 30
0.0
 10
142.1864564929
 20
83.9201793704
 30
0.0
 10
142.1841866062
 20
84.1053106068
 30
0.0
 10
142.1821763728
 20
84.23282599
 30
0.0
 10
142.1810420379
 20
84.297831794
 30
0.0
  0
SPLINE
  5
53E
100
AcDbEntity
  8
INCISIONI_LASER
100
AcDbSpline
 62
250
  6
CONTINUOUS
 70
0
 71
3
 72
15
 73
11
 74
0
 42
0.0000001
 43
0.0000001
 44
0.0000000001
 40
0.0
 40
0.0
 40
0.0
 40
0.0
 40
0.1248401019
 40
0.2498663855
 40
0.374885782
 40
0.5000299202
 40
0.6250550432
 40
0.7501198193
 40
0.875035251
 40
1.0
 40
1.0
 40
1.0
 40
1.0
 10
120.6393125632
 20
96.9221106819
 30
0.0
 10
120.568282179
 20
96.9221106819
 30
0.0
 10
120.4256833634
 20
96.912263205
 30
0.0
 10
120.2185656119
 20
96.8525547263
 30
0.0
 10
120.0362699267
 20
96.7340908971
 30
0.0
 10
119.9035740298
 20
96.5623286065
 30
0.0
 10
119.821438221
 20
96.3635736216
 30
0.0
 10
119.7735801419
 20
96.1548737992
 30
0.0
 10
119.7536558831
 20
95.9420321866
 30
0.0
 10
119.7505975698
 20
95.7998672979
 30
0.0
 10
119.7479645614
 20
95.7288039391
 30
0.0
  0
SPLINE
  5
53F
100
AcDbEntity
  8
INCISIONI_LASER
100
AcDbSpline
 62
250
  6
CONTINUOUS
 70
0
 71
3
 72
15
 73
11
 74
0
 42
0.0000001
 43
0.0000001
 44
0.0000000001
 40
0.0
 40
0.0
 40
0.0
 40
0.0
 40
0.124964749
 40
0.2498801807
 40
0.3749449568
 40
0.4999700798
 40
0.625114218
 40
0.7501336145
 40
0.8751598981
 40
1.0
 40
1.0
 40
1.0
 40
1.0
 10
121.5306605649
 20
95.7288039391
 30
0.0
 10
121.5280275566
 20
95.7998672979
 30
0.0
 10
121.5249692432
 20
95.9420321866
 30
0.0
 10
121.5050449844
 20
96.1548737992
 30
0.0
 10
121.4571869053
 20
96.3635736216
 30
0.0
 10
121.3750510965
 20
96.5623286065
 30
0.0
 10
121.2423551996
 20
96.7340908971
 30
0.0
 10
121.0600595145
 20
96.8525547263
 30
0.0
 10
120.8529417629
 20
96.912263205
 30
0.0
 10
120.7103429473
 20
96.9221106819
 30
0.0
 10
120.6393125632
 20
96.9221106819
 30
0.0
  0
SPLINE
  5
540
100
AcDbEntity
  8
INCISIONI_LASER
100
AcDbSpline
 62
250
  6
CONTINUOUS
 70
0
 71
3
 72
13
 73
9
 74
0
 42
0.0000001
 43
0.0000001
 44
0.0000000001
 40
0.0
 40
0.0
 40
0.0
 40
0.0
 40
0.2490801906
 40
0.3745290044
 40
0.5000465587
 40
0.6245839973
 40
0.7501008193
 40
1.0
 40
1.0
 40
1.0
 40
1.0
 10
120.6393125632
 20
96.2593437674
 30
0.0
 10
120.6960236464
 20
96.2593437674
 30
0.0
 10
120.7830949192
 20
96.2515331806
 30
0.0
 10
120.8876112775
 20
96.2044880938
 30
0.0
 10
120.9574055352
 20
96.1529126073
 30
0.0
 10
121.0046692711
 20
96.0795184938
 30
0.0
 10
121.0370536539
 20
95.9694489013
 30
0.0
 10
121.0417695959
 20
95.8836568298
 30
0.0
 10
121.0488744235
 20
95.8271960125
 30
0.0
  0
SPLINE
  5
541
100
AcDbEntity
  8
INCISIONI_LASER
100
AcDbSpline
 62
250
  6
CONTINUOUS
 70
0
 71
3
 72
13
 73
9
 74
0
 42
0.0000001
 43
0.0000001
 44
0.0000000001
 40
0.0
 40
0.0
 40
0.0
 40
0.0
 40
0.2498991807
 40
0.3754160027
 40
0.4999534413
 40
0.6254709956
 40
0.7509198094
 40
1.0
 40
1.0
 40
1.0
 40
1.0
 10
120.2297507029
 20
95.8271960125
 30
0.0
 10
120.2368555304
 20
95.8836568298
 30
0.0
 10
120.2415714724
 20
95.9694489013
 30
0.0
 10
120.2739558553
 20
96.0795184938
 30
0.0
 10
120.3212195911
 20
96.1529126073
 30
0.0
 10
120.3910138488
 20
96.2044880938
 30
0.0
 10
120.4955302071
 20
96.2515331806
 30
0.0
 10
120.5826014799
 20
96.2593437674
 30
0.0
 10
120.6393125632
 20
96.2593437674
 30
0.0
  0
SPLINE
  5
542
100
AcDbEntity
  8
0
100
AcDbSpline
 62
250
  6
CONTINUOUS
 70
0
 71
3
 72
9
 73
5
 74
0
 42
0.0000001
 43
0.0000001
 44
0.0000000001
 40
0.0
 40
0.0
 40
0.0
 40
0.0
 40
0.6320274273
 40
1.0
 40
1.0
 40
1.0
 40
1.0
 10
135.2374826413
 20
86.983656552
 30
0.0
 10
135.2456472462
 20
86.7559171881
 30
0.0
 10
135.2793676906
 20
86.4169299962
 30
0.0
 10
135.5401707218
 20
86.0463720385
 30
0.0
 10
135.6728278146
 20
86.0463720385
 30
0.0
  0
SPLINE
  5
543
100
AcDbEntity
  8
0
100
AcDbSpline
 62
250
  6
CONTINUOUS
 70
0
 71
3
 72
9
 73
5
 74
0
 42
0.0000001
 43
0.0000001
 44
0.0000000001
 40
0.0
 40
0.0
 40
0.0
 40
0.0
 40
0.7057072392
 40
1.0
 40
1.0
 40
1.0
 40
1.0
 10
135.5196683985
 20
88.2441267725
 30
0.0
 10
135.3951201032
 20
88.1205332856
 30
0.0
 10
135.2940176783
 20
87.8731064537
 30
0.0
 10
135.257883067
 20
87.6291116397
 30
0.0
 10
135.2476023556
 20
87.5566603197
 30
0.0
  0
SPLINE
  5
544
100
AcDbEntity
  8
0
100
AcDbSpline
 62
250
  6
CONTINUOUS
 70
0
 71
3
 72
163
 73
159
 74
0
 42
0.0000001
 43
0.0000001
 44
0.0000000001
 40
0.0
 40
0.0
 40
0.0
 40
0.0
 40
0.015625
 40
0.03125
 40
0.0390625
 40
0.046875
 40
0.0546875
 40
0.05859375
 40
0.060546875
 40
0.0625
 40
0.064453125
 40
0.06640625
 40
0.0703125
 40
0.078125
 40
0.09375
 40
0.109375
 40
0.1171875
 40
0.12109375
 40
0.123046875
 40
0.125
 40
0.126953125
 40
0.12890625
 40
0.1328125
 40
0.140625
 40
0.15625
 40
0.171875
 40
0.1796875
 40
0.18359375
 40
0.185546875
 40
0.1875
 40
0.189453125
 40
0.19140625
 40
0.1953125
 40
0.203125
 40
0.21875
 40
0.234375
 40
0.2421875
 40
0.24609375
 40
0.248046875
 40
0.25
 40
0.251953125
 40
0.25390625
 40
0.2578125
 40
0.265625
 40
0.28125
 40
0.296875
 40
0.3046875
 40
0.30859375
 40
0.310546875
 40
0.3125
 40
0.314453125
 40
0.31640625
 40
0.3203125
 40
0.328125
 40
0.34375
 40
0.359375
 40
0.3671875
 40
0.37109375
 40
0.373046875
 40
0.375
 40
0.376953125
 40
0.37890625
 40
0.3828125
 40
0.390625
 40
0.40625
 40
0.421875
 40
0.4296875
 40
0.43359375
 40
0.435546875
 40
0.4375
 40
0.439453125
 40
0.44140625
 40
0.4453125
 40
0.453125
 40
0.46875
 40
0.484375
 40
0.4921875
 40
0.49609375
 40
0.498046875
 40
0.5
 40
0.501953125
 40
0.50390625
 40
0.5078125
 40
0.515625
 40
0.53125
 40
0.546875
 40
0.5546875
 40
0.55859375
 40
0.560546875
 40
0.5625
 40
0.564453125
 40
0.56640625
 40
0.5703125
 40
0.578125
 40
0.59375
 40
0.609375
 40
0.6171875
 40
0.62109375
 40
0.623046875
 40
0.625
 40
0.626953125
 40
0.62890625
 40
0.6328125
 40
0.640625
 40
0.65625
 40
0.671875
 40
0.6796875
 40
0.68359375
 40
0.685546875
 40
0.6875
 40
0.689453125
 40
0.69140625
 40
0.6953125
 40
0.703125
 40
0.71875
 40
0.734375
 40
0.7421875
 40
0.74609375
 40
0.748046875
 40
0.75
 40
0.751953125
 40
0.75390625
 40
0.7578125
 40
0.765625
 40
0.78125
 40
0.796875
 40
0.8046875
 40
0.80859375
 40
0.810546875
 40
0.8125
 40
0.814453125
 40
0.81640625
 40
0.8203125
 40
0.828125
 40
0.84375
 40
0.859375
 40
0.8671875
 40
0.87109375
 40
0.873046875
 40
0.875
 40
0.876953125
 40
0.87890625
 40
0.8828125
 40
0.890625
 40
0.90625
 40
0.921875
 40
0.9296875
 40
0.93359375
 40
0.935546875
 40
0.9375
 40
0.939453125
 40
0.94140625
 40
0.9453125
 40
0.953125
 40
0.9609375
 40
0.96875
 40
0.984375
 40
1.0
 40
1.0
 40
1.0
 40
1.0
 10
135.5683665704
 20
88.2379148816
 30
0.0
 10
135.5714832657
 20
88.2382205228
 30
0.0
 10
135.5777166304
 20
88.2388319349
 30
0.0
 10
135.5855084648
 20
88.2395955512
 30
0.0
 10
135.5917416626
 20
88.2402078069
 30
0.0
 10
135.5964172932
 20
88.2406633001
 30
0.0
 10
135.6003113236
 20
88.2410546388
 30
0.0
 10
135.6030417141
 20
88.2413054957
 30
0.0
 10
135.6045948027
 20
88.2414848802
 30
0.0
 10
135.6057797174
 20
88.2415179
 30
0.0
 10
135.6068878066
 20
88.241938975
 30
0.0
 10
135.608392055
 20
88.2423650604
 30
0.0
 10
135.6110120199
 20
88.2431736709
 30
0.0
 10
135.6162609071
 20
88.244745935
 30
0.0
 10
135.6237537962
 20
88.2470175946
 30
0.0
 10
135.6312517084
 20
88.2492726142
 30
0.0
 10
135.6364935631
 20
88.2508681743
 30
0.0
 10
135.6391231976
 20
88.2516447528
 30
0.0
 10
135.6406118742
 20
88.2521224222
 30
0.0
 10
135.641767809
 20
88.2523850009
 30
0.0
 10
135.6427730203
 20
88.2530133181
 30
0.0
 10
135.6441658725
 20
88.2537235099
 30
0.0
 10
135.646578906
 20
88.2550256866
 30
0.0
 10
135.6514224719
 20
88.2575876609
 30
0.0
 10
135.6583316208
 20
88.2612717827
 30
0.0
 10
135.6652483621
 20
88.2649399924
 30
0.0
 10
135.6700812988
 20
88.2675242437
 30
0.0
 10
135.6725089474
 20
88.2687957895
 30
0.0
 10
135.6738782636
 20
88.269555309
 30
0.0
 10
135.6749557911
 20
88.2700320628
 30
0.0
 10
135.6758401128
 20
88.2708638991
 30
0.0
 10
135.6770865966
 20
88.271849167
 30
0.0
 10
135.6792365879
 20
88.2736309926
 30
0.0
 10
135.6835590465
 20
88.277153561
 30
0.0
 10
135.6897205083
 20
88.2822087572
 30
0.0
 10
135.6958930748
 20
88.287250384
 30
0.0
 10
135.7001999869
 20
88.2907919495
 30
0.0
 10
135.7023713546
 20
88.2925476541
 30
0.0
 10
135.7035834139
 20
88.2935749869
 30
0.0
 10
135.7045735076
 20
88.2942775755
 30
0.0
 10
135.7052537656
 20
88.2952397717
 30
0.0
 10
135.7062688427
 20
88.2964321528
 30
0.0
 10
135.7079949552
 20
88.2985609389
 30
0.0
 10
135.7114831018
 20
88.3027884528
 30
0.0
 10
135.716445539
 20
88.3088447192
 30
0.0
 10
135.7214220714
 20
88.3148903967
 30
0.0
 10
135.7248904848
 20
88.3191327349
 30
0.0
 10
135.7266437304
 20
88.3212411377
 30
0.0
 10
135.7276151124
 20
88.3224663439
 30
0.0
 10
135.7284296272
 20
88.3233276821
 30
0.0
 10
135.7289154653
 20
88.3244090837
 30
0.0
 10
135.7296778875
 20
88.3257741979
 30
0.0
 10
135.7309587956
 20
88.328198849
 30
0.0
 10
135.73355873
 20
88.3330226967
 30
0.0
 10
135.7372509414
 20
88.3399280823
 30
0.0
 10
135.7409584692
 20
88.3468252542
 30
0.0
 10
135.7435369607
 20
88.3516606012
 30
0.0
 10
135.7448473528
 20
88.3540694407
 30
0.0
 10
135.7455622943
 20
88.3554600177
 30
0.0
 10
135.7461940207
 20
88.3564631827
 30
0.0
 10
135.7464605928
 20
88.35761837
 30
0.0
 10
135.746943383
 20
88.3591055967
 30
0.0
 10
135.7477290177
 20
88.361732907
 30
0.0
 10
135.7493426225
 20
88.3669699363
 30
0.0
 10
135.7516234578
 20
88.3744612542
 30
0.0
 10
135.7539209115
 20
88.3819466897
 30
0.0
 10
135.7555112505
 20
88.3871919542
 30
0.0
 10
135.7563288756
 20
88.3898079412
 30
0.0
 10
135.7567601488
 20
88.3913134028
 30
0.0
 10
135.7571850113
 20
88.3924125618
 30
0.0
 10
135.7572222137
 20
88.393626164
 30
0.0
 10
135.7574070273
 20
88.395204385
 30
0.0
 10
135.7576675517
 20
88.3979848309
 30
0.0
 10
135.7582335388
 20
88.4035325684
 30
0.0
 10
135.7590163312
 20
88.4114646069
 30
0.0
 10
135.7598165692
 20
88.4193949039
 30
0.0
 10
135.7603581324
 20
88.4249450796
 30
0.0
 10
135.7606522397
 20
88.427722173
 30
0.0
 10
135.7607829717
 20
88.4293057928
 30
0.0
 10
135.7609863442
 20
88.4305028066
 30
0.0
 10
135.7607870874
 20
88.4316642704
 30
0.0
 10
135.760661843
 20
88.4332252884
 30
0.0
 10
135.7603773389
 20
88.4359512992
 30
0.0
 10
135.7598549826
 20
88.4414074708
 30
0.0
 10
135.7590821808
 20
88.4491994053
 30
0.0
 10
135.7583268321
 20
88.4569938207
 30
0.0
 10
135.7577800415
 20
88.4624465191
 30
0.0
 10
135.7575291346
 20
88.4651773057
 30
0.0
 10
135.7573497857
 20
88.4667306328
 30
0.0
 10
135.7573167693
 20
88.4679157275
 30
0.0
 10
135.7568957588
 20
88.4690239856
 30
0.0
 10
135.7564697382
 20
88.4705284631
 30
0.0
 10
135.7556612509
 20
88.4731488272
 30
0.0
 10
135.7540892263
 20
88.4783985139
 30
0.0
 10
135.7518179127
 20
88.4858925443
 30
0.0
 10
135.7495632365
 20
88.4933915987
 30
0.0
 10
135.7479679194
 20
88.4986342519
 30
0.0
 10
135.7471914592
 20
88.501264287
 30
0.0
 10
135.7467138625
 20
88.5027531903
 30
0.0
 10
135.7464513238
 20
88.5039093012
 30
0.0
 10
135.7458231024
 20
88.5049146656
 30
0.0
 10
135.7451130187
 20
88.50630773
 30
0.0
 10
135.7438110403
 20
88.5087211311
 30
0.0
 10
135.7412494562
 20
88.5135654347
 30
0.0
 10
135.7375658955
 20
88.5204756362
 30
0.0
 10
135.7338982445
 20
88.527393431
 30
0.0
 10
135.7313143869
 20
88.5322271039
 30
0.0
 10
135.7300430347
 20
88.5346551223
 30
0.0
 10
135.7292836308
 20
88.5360246471
 30
0.0
 10
135.7288069497
 20
88.5371023388
 30
0.0
 10
135.72797524
 20
88.5379867952
 30
0.0
 10
135.7269901222
 20
88.5392334688
 30
0.0
 10
135.725208568
 20
88.5413837876
 30
0.0
 10
135.7216865361
 20
88.5457069047
 30
0.0
 10
135.7166321098
 20
88.551869305
 30
0.0
 10
135.7115912509
 20
88.5580428118
 30
0.0
 10
135.7080502247
 20
88.5623503799
 30
0.0
 10
135.7062947875
 20
88.5645220784
 30
0.0
 10
135.7052676112
 20
88.5657343224
 30
0.0
 10
135.7045651297
 20
88.5667245669
 30
0.0
 10
135.70360308
 20
88.5674049285
 30
0.0
 10
135.7024108805
 20
88.5684201603
 30
0.0
 10
135.7002824187
 20
88.5701465356
 30
0.0
 10
135.6960555486
 20
88.5736352136
 30
0.0
 10
135.6900002047
 20
88.5785984067
 30
0.0
 10
135.6839554479
 20
88.5835756972
 30
0.0
 10
135.6797137558
 20
88.5870446389
 30
0.0
 10
135.6776056742
 20
88.5887981516
 30
0.0
 10
135.6763806546
 20
88.5897696816
 30
0.0
 10
135.6755194475
 20
88.5905843204
 30
0.0
 10
135.6744382107
 20
88.5910702326
 30
0.0
 10
135.6730733044
 20
88.5918327708
 30
0.0
 10
135.6706490225
 20
88.5931138741
 30
0.0
 10
135.6658259096
 20
88.5957142045
 30
0.0
 10
135.6589215756
 20
88.5994069784
 30
0.0
 10
135.6520254543
 20
88.6031150709
 30
0.0
 10
135.6471908437
 20
88.6056939552
 30
0.0
 10
135.644782371
 20
88.6070045469
 30
0.0
 10
135.6433920059
 20
88.6077195973
 30
0.0
 10
135.6423889936
 20
88.6083514199
 30
0.0
 10
135.6412339823
 20
88.6086180326
 30
0.0
 10
135.6397469821
 20
88.6091008964
 30
0.0
 10
135.637120072
 20
88.6098866507
 30
0.0
 10
135.6318838402
 20
88.6115005013
 30
0.0
 10
135.6243936634
 20
88.6137816841
 30
0.0
 10
135.6169093679
 20
88.6160794878
 30
0.0
 10
135.6116649022
 20
88.617670069
 30
0.0
 10
135.6090493138
 20
88.6184878187
 30
0.0
 10
135.6075440813
 20
88.6189191574
 30
0.0
 10
135.6064450901
 20
88.6193440852
 30
0.0
 10
135.6052316714
 20
88.6193812915
 30
0.0
 10
135.6036536933
 20
88.6195661415
 30
0.0
 10
135.6008736352
 20
88.6198266175
 30
0.0
 10
135.5969118462
 20
88.6202316693
 30
0.0
 10
135.5921535376
 20
88.6207036303
 30
0.0
 10
135.5858105804
 20
88.6213378389
 30
0.0
 10
135.5778813817
 20
88.6221288978
 30
0.0
 10
135.5715381757
 20
88.6227622635
 30
0.0
 10
135.5683665536
 20
88.6230788816
 30
0.0
  0
SPLINE
  5
545
100
AcDbEntity
  8
0
100
AcDbSpline
 62
250
  6
CONTINUOUS
 70
0
 71
3
 72
163
 73
159
 74
0
 42
0.0000001
 43
0.0000001
 44
0.0000000001
 40
0.0
 40
0.0
 40
0.0
 40
0.0
 40
0.015625
 40
0.03125
 40
0.0390625
 40
0.046875
 40
0.0546875
 40
0.05859375
 40
0.060546875
 40
0.0625
 40
0.064453125
 40
0.06640625
 40
0.0703125
 40
0.078125
 40
0.09375
 40
0.109375
 40
0.1171875
 40
0.12109375
 40
0.123046875
 40
0.125
 40
0.126953125
 40
0.12890625
 40
0.1328125
 40
0.140625
 40
0.15625
 40
0.171875
 40
0.1796875
 40
0.18359375
 40
0.185546875
 40
0.1875
 40
0.189453125
 40
0.19140625
 40
0.1953125
 40
0.203125
 40
0.21875
 40
0.234375
 40
0.2421875
 40
0.24609375
 40
0.248046875
 40
0.25
 40
0.251953125
 40
0.25390625
 40
0.2578125
 40
0.265625
 40
0.28125
 40
0.296875
 40
0.3046875
 40
0.30859375
 40
0.310546875
 40
0.3125
 40
0.314453125
 40
0.31640625
 40
0.3203125
 40
0.328125
 40
0.34375
 40
0.359375
 40
0.3671875
 40
0.37109375
 40
0.373046875
 40
0.375
 40
0.376953125
 40
0.37890625
 40
0.3828125
 40
0.390625
 40
0.40625
 40
0.421875
 40
0.4296875
 40
0.43359375
 40
0.435546875
 40
0.4375
 40
0.439453125
 40
0.44140625
 40
0.4453125
 40
0.453125
 40
0.46875
 40
0.484375
 40
0.4921875
 40
0.49609375
 40
0.498046875
 40
0.5
 40
0.501953125
 40
0.50390625
 40
0.5078125
 40
0.515625
 40
0.53125
 40
0.546875
 40
0.5546875
 40
0.55859375
 40
0.560546875
 40
0.5625
 40
0.564453125
 40
0.56640625
 40
0.5703125
 40
0.578125
 40
0.59375
 40
0.609375
 40
0.6171875
 40
0.62109375
 40
0.623046875
 40
0.625
 40
0.626953125
 40
0.62890625
 40
0.6328125
 40
0.640625
 40
0.65625
 40
0.671875
 40
0.6796875
 40
0.68359375
 40
0.685546875
 40
0.6875
 40
0.689453125
 40
0.69140625
 40
0.6953125
 40
0.703125
 40
0.71875
 40
0.734375
 40
0.7421875
 40
0.74609375
 40
0.748046875
 40
0.75
 40
0.751953125
 40
0.75390625
 40
0.7578125
 40
0.765625
 40
0.78125
 40
0.796875
 40
0.8046875
 40
0.80859375
 40
0.810546875
 40
0.8125
 40
0.814453125
 40
0.81640625
 40
0.8203125
 40
0.828125
 40
0.84375
 40
0.859375
 40
0.8671875
 40
0.87109375
 40
0.873046875
 40
0.875
 40
0.876953125
 40
0.87890625
 40
0.8828125
 40
0.890625
 40
0.90625
 40
0.921875
 40
0.9296875
 40
0.93359375
 40
0.935546875
 40
0.9375
 40
0.939453125
 40
0.94140625
 40
0.9453125
 40
0.953125
 40
0.9609375
 40
0.96875
 40
0.984375
 40
1.0
 40
1.0
 40
1.0
 40
1.0
 10
135.5683665704
 20
88.6230788816
 30
0.0
 10
135.5652498752
 20
88.6227732404
 30
0.0
 10
135.5590165105
 20
88.6221618282
 30
0.0
 10
135.5512246761
 20
88.6213982119
 30
0.0
 10
135.5449914783
 20
88.6207859562
 30
0.0
 10
135.5403158477
 20
88.6203304631
 30
0.0
 10
135.5364218173
 20
88.6199391244
 30
0.0
 10
135.5336914268
 20
88.6196882674
 30
0.0
 10
135.5321383381
 20
88.619508883
 30
0.0
 10
135.5309534235
 20
88.6194758632
 30
0.0
 10
135.5298453343
 20
88.6190547881
 30
0.0
 10
135.5283410859
 20
88.6186287028
 30
0.0
 10
135.525721121
 20
88.6178200922
 30
0.0
 10
135.5204722338
 20
88.6162478282
 30
0.0
 10
135.5129793447
 20
88.6139761686
 30
0.0
 10
135.5054814325
 20
88.611721149
 30
0.0
 10
135.5002395778
 20
88.6101255889
 30
0.0
 10
135.4976099433
 20
88.6093490104
 30
0.0
 10
135.4961212667
 20
88.6088713409
 30
0.0
 10
135.4949653319
 20
88.6086087622
 30
0.0
 10
135.4939601206
 20
88.6079804451
 30
0.0
 10
135.4925672684
 20
88.6072702533
 30
0.0
 10
135.4901542349
 20
88.6059680765
 30
0.0
 10
135.485310669
 20
88.6034061023
 30
0.0
 10
135.4784015201
 20
88.5997219805
 30
0.0
 10
135.4714847788
 20
88.5960537708
 30
0.0
 10
135.4666518421
 20
88.5934695195
 30
0.0
 10
135.4642241935
 20
88.5921979737
 30
0.0
 10
135.4628548773
 20
88.5914384542
 30
0.0
 10
135.4617773498
 20
88.5909617004
 30
0.0
 10
135.4608930281
 20
88.590129864
 30
0.0
 10
135.4596465443
 20
88.5891445961
 30
0.0
 10
135.457496553
 20
88.5873627706
 30
0.0
 10
135.4531740944
 20
88.5838402021
 30
0.0
 10
135.4470126326
 20
88.578785006
 30
0.0
 10
135.4408400661
 20
88.5737433791
 30
0.0
 10
135.436533154
 20
88.5702018136
 30
0.0
 10
135.4343617863
 20
88.568446109
 30
0.0
 10
135.433149727
 20
88.5674187762
 30
0.0
 10
135.4321596333
 20
88.5667161877
 30
0.0
 10
135.4314793753
 20
88.5657539914
 30
0.0
 10
135.4304642982
 20
88.5645616104
 30
0.0
 10
135.4287381857
 20
88.5624328243
 30
0.0
 10
135.4252500391
 20
88.5582053103
 30
0.0
 10
135.4202876019
 20
88.552149044
 30
0.0
 10
135.4153110695
 20
88.5461033665
 30
0.0
 10
135.4118426561
 20
88.5418610282
 30
0.0
 10
135.4100894105
 20
88.5397526255
 30
0.0
 10
135.4091180284
 20
88.5385274193
 30
0.0
 10
135.4083035137
 20
88.537666081
 30
0.0
 10
135.4078176756
 20
88.5365846795
 30
0.0
 10
135.4070552534
 20
88.5352195653
 30
0.0
 10
135.4057743453
 20
88.5327949142
 30
0.0
 10
135.4031744109
 20
88.5279710665
 30
0.0
 10
135.3994821995
 20
88.5210656808
 30
0.0
 10
135.3957746717
 20
88.514168509
 30
0.0
 10
135.3931961802
 20
88.509333162
 30
0.0
 10
135.3918857881
 20
88.5069243224
 30
0.0
 10
135.3911708466
 20
88.5055337455
 30
0.0
 10
135.3905391202
 20
88.5045305805
 30
0.0
 10
135.3902725481
 20
88.5033753932
 30
0.0
 10
135.3897897579
 20
88.5018881664
 30
0.0
 10
135.3890041232
 20
88.4992608562
 30
0.0
 10
135.3873905184
 20
88.4940238268
 30
0.0
 10
135.3851096831
 20
88.486532509
 30
0.0
 10
135.3828122294
 20
88.4790470734
 30
0.0
 10
135.3812218904
 20
88.4738018089
 30
0.0
 10
135.3804042653
 20
88.471185822
 30
0.0
 10
135.3799729921
 20
88.4696803603
 30
0.0
 10
135.3795481296
 20
88.4685812014
 30
0.0
 10
135.3795109272
 20
88.4673675992
 30
0.0
 10
135.3793261136
 20
88.4657893782
 30
0.0
 10
135.3790655892
 20
88.4630089323
 30
0.0
 10
135.3784996021
 20
88.4574611948
 30
0.0
 10
135.3777168097
 20
88.4495291562
 30
0.0
 10
135.3769165717
 20
88.4415988592
 30
0.0
 10
135.3763750085
 20
88.4360486836
 30
0.0
 10
135.3760809012
 20
88.4332715902
 30
0.0
 10
135.3759501692
 20
88.4316879703
 30
0.0
 10
135.3757467967
 20
88.4304909566
 30
0.0
 10
135.3759460535
 20
88.4293294928
 30
0.0
 10
135.3760712979
 20
88.4277684748
 30
0.0
 10
135.376355802
 20
88.425042464
 30
0.0
 10
135.3768781583
 20
88.4195862923
 30
0.0
 10
135.3776509601
 20
88.4117943579
 30
0.0
 10
135.3784063088
 20
88.4039999424
 30
0.0
 10
135.3789530994
 20
88.3985472441
 30
0.0
 10
135.3792040063
 20
88.3958164575
 30
0.0
 10
135.3793833552
 20
88.3942631304
 30
0.0
 10
135.3794163716
 20
88.3930780356
 30
0.0
 10
135.3798373821
 20
88.3919697775
 30
0.0
 10
135.3802634027
 20
88.3904653
 30
0.0
 10
135.38107189
 20
88.387844936
 30
0.0
 10
135.3826439146
 20
88.3825952493
 30
0.0
 10
135.3849152282
 20
88.3751012188
 30
0.0
 10
135.3871699044
 20
88.3676021645
 30
0.0
 10
135.3887652215
 20
88.3623595113
 30
0.0
 10
135.3895416817
 20
88.3597294762
 30
0.0
 10
135.3900192784
 20
88.3582405728
 30
0.0
 10
135.3902818171
 20
88.357084462
 30
0.0
 10
135.3909100385
 20
88.3560790975
 30
0.0
 10
135.3916201222
 20
88.3546860332
 30
0.0
 10
135.3929221006
 20
88.3522726321
 30
0.0
 10
135.3954836847
 20
88.3474283284
 30
0.0
 10
135.3991672454
 20
88.340518127
 30
0.0
 10
135.4028348963
 20
88.3336003321
 30
0.0
 10
135.405418754
 20
88.3287666593
 30
0.0
 10
135.4066901062
 20
88.3263386408
 30
0.0
 10
135.40744951
 20
88.3249691161
 30
0.0
 10
135.4079261912
 20
88.3238914244
 30
0.0
 10
135.4087579009
 20
88.323006968
 30
0.0
 10
135.4097430187
 20
88.3217602943
 30
0.0
 10
135.4115245729
 20
88.3196099756
 30
0.0
 10
135.4150466048
 20
88.3152868585
 30
0.0
 10
135.4201010311
 20
88.3091244581
 30
0.0
 10
135.42514189
 20
88.3029509514
 30
0.0
 10
135.4286829162
 20
88.2986433832
 30
0.0
 10
135.4304383533
 20
88.2964716847
 30
0.0
 10
135.4314655297
 20
88.2952594408
 30
0.0
 10
135.4321680112
 20
88.2942691963
 30
0.0
 10
135.4331300609
 20
88.2935888346
 30
0.0
 10
135.4343222603
 20
88.2925736029
 30
0.0
 10
135.4364507222
 20
88.2908472275
 30
0.0
 10
135.4406775923
 20
88.2873585496
 30
0.0
 10
135.4467329362
 20
88.2823953564
 30
0.0
 10
135.452777693
 20
88.277418066
 30
0.0
 10
135.4570193851
 20
88.2739491243
 30
0.0
 10
135.4591274667
 20
88.2721956115
 30
0.0
 10
135.4603524863
 20
88.2712240816
 30
0.0
 10
135.4612136934
 20
88.2704094427
 30
0.0
 10
135.4622949302
 20
88.2699235306
 30
0.0
 10
135.4636598365
 20
88.2691609923
 30
0.0
 10
135.4660841184
 20
88.2678798891
 30
0.0
 10
135.4709072313
 20
88.2652795586
 30
0.0
 10
135.4778115653
 20
88.2615867848
 30
0.0
 10
135.4847076866
 20
88.2578786922
 30
0.0
 10
135.4895422972
 20
88.2552998079
 30
0.0
 10
135.4919507698
 20
88.2539892162
 30
0.0
 10
135.493341135
 20
88.2532741659
 30
0.0
 10
135.4943441473
 20
88.2526423432
 30
0.0
 10
135.4954991586
 20
88.2523757305
 30
0.0
 10
135.4969861588
 20
88.2518928667
 30
0.0
 10
135.4996130689
 20
88.2511071124
 30
0.0
 10
135.5048493007
 20
88.2494932618
 30
0.0
 10
135.5123394775
 20
88.2472120791
 30
0.0
 10
135.519823773
 20
88.2449142753
 30
0.0
 10
135.5250682387
 20
88.2433236941
 30
0.0
 10
135.5276838271
 20
88.2425059444
 30
0.0
 10
135.5291890596
 20
88.2420746057
 30
0.0
 10
135.5302880508
 20
88.241649678
 30
0.0
 10
135.5315014695
 20
88.2416124717
 30
0.0
 10
135.5330794476
 20
88.2414276216
 30
0.0
 10
135.5358595057
 20
88.2411671457
 30
0.0
 10
135.5398212947
 20
88.2407620939
 30
0.0
 10
135.5445796033
 20
88.2402901329
 30
0.0
 10
135.5509225605
 20
88.2396559243
 30
0.0
 10
135.5588517592
 20
88.2388648654
 30
0.0
 10
135.5651949652
 20
88.2382314996
 30
0.0
 10
135.5683665873
 20
88.2379148816
 30
0.0
  0
SPLINE
  5
546
100
AcDbEntity
  8
0
100
AcDbSpline
 62
250
  6
CONTINUOUS
 70
0
 71
3
 72
131
 73
127
 74
0
 42
0.0000001
 43
0.0000001
 44
0.0000000001
 40
0.0
 40
0.0
 40
0.0
 40
0.0
 40
0.015625
 40
0.03125
 40
0.046875
 40
0.0546875
 40
0.05859375
 40
0.0625
 40
0.06640625
 40
0.0703125
 40
0.078125
 40
0.09375
 40
0.109375
 40
0.1171875
 40
0.12109375
 40
0.125
 40
0.12890625
 40
0.1328125
 40
0.140625
 40
0.15625
 40
0.171875
 40
0.1796875
 40
0.18359375
 40
0.1875
 40
0.19140625
 40
0.1953125
 40
0.203125
 40
0.21875
 40
0.234375
 40
0.2421875
 40
0.24609375
 40
0.25
 40
0.25390625
 40
0.2578125
 40
0.265625
 40
0.28125
 40
0.296875
 40
0.3046875
 40
0.30859375
 40
0.3125
 40
0.31640625
 40
0.3203125
 40
0.328125
 40
0.34375
 40
0.359375
 40
0.3671875
 40
0.37109375
 40
0.375
 40
0.37890625
 40
0.3828125
 40
0.390625
 40
0.40625
 40
0.421875
 40
0.4296875
 40
0.43359375
 40
0.4375
 40
0.44140625
 40
0.4453125
 40
0.453125
 40
0.46875
 40
0.484375
 40
0.4921875
 40
0.49609375
 40
0.5
 40
0.50390625
 40
0.5078125
 40
0.515625
 40
0.53125
 40
0.546875
 40
0.5546875
 40
0.55859375
 40
0.5625
 40
0.56640625
 40
0.5703125
 40
0.578125
 40
0.59375
 40
0.609375
 40
0.6171875
 40
0.62109375
 40
0.625
 40
0.62890625
 40
0.6328125
 40
0.640625
 40
0.65625
 40
0.671875
 40
0.6796875
 40
0.68359375
 40
0.6875
 40
0.69140625
 40
0.6953125
 40
0.703125
 40
0.71875
 40
0.734375
 40
0.7421875
 40
0.74609375
 40
0.75
 40
0.75390625
 40
0.7578125
 40
0.765625
 40
0.78125
 40
0.796875
 40
0.8046875
 40
0.80859375
 40
0.8125
 40
0.81640625
 40
0.8203125
 40
0.828125
 40
0.84375
 40
0.859375
 40
0.8671875
 40
0.87109375
 40
0.875
 40
0.87890625
 40
0.8828125
 40
0.890625
 40
0.90625
 40
0.921875
 40
0.9296875
 40
0.93359375
 40
0.9375
 40
0.94140625
 40
0.9453125
 40
0.953125
 40
0.96875
 40
0.984375
 40
1.0
 40
1.0
 40
1.0
 40
1.0
 10
138.9134110264
 20
88.1457938816
 30
0.0
 10
138.9111370504
 20
88.1455708823
 30
0.0
 10
138.9065892939
 20
88.1451238962
 30
0.0
 10
138.899766486
 20
88.1444593427
 30
0.0
 10
138.8940842345
 20
88.1438882648
 30
0.0
 10
138.8900999861
 20
88.1435222127
 30
0.0
 10
138.8878336845
 20
88.1432604495
 30
0.0
 10
138.8861046293
 20
88.1432122694
 30
0.0
 10
138.8844876845
 20
88.1425978157
 30
0.0
 10
138.8822926313
 20
88.1419761193
 30
0.0
 10
138.8784697327
 20
88.1407955686
 30
0.0
 10
138.8729970797
 20
88.1391617212
 30
0.0
 10
138.8675347713
 20
88.137493606
 30
0.0
 10
138.8636973902
 20
88.1363610301
 30
0.0
 10
138.8615250951
 20
88.1356639446
 30
0.0
 10
138.8598383245
 20
88.1352807985
 30
0.0
 10
138.8583715039
 20
88.1343639298
 30
0.0
 10
138.8563389945
 20
88.1333276578
 30
0.0
 10
138.8528181385
 20
88.1314269062
 30
0.0
 10
138.8477672756
 20
88.1287612988
 30
0.0
 10
138.8427320482
 20
88.1260629222
 30
0.0
 10
138.8391893026
 20
88.1242080475
 30
0.0
 10
138.8371911911
 20
88.1230996831
 30
0.0
 10
138.8356188313
 20
88.1224040067
 30
0.0
 10
138.834328419
 20
88.1211901606
 30
0.0
 10
138.8325094788
 20
88.1197524802
 30
0.0
 10
138.8293726176
 20
88.1171519323
 30
0.0
 10
138.82486363
 20
88.1134841391
 30
0.0
 10
138.8203775111
 20
88.1097884015
 30
0.0
 10
138.8172086336
 20
88.1072269759
 30
0.0
 10
138.8154400047
 20
88.1057278177
 30
0.0
 10
138.8139952281
 20
88.1047025966
 30
0.0
 10
138.8130025921
 20
88.1032985284
 30
0.0
 10
138.8115213185
 20
88.1015586153
 30
0.0
 10
138.8090030655
 20
88.0984518645
 30
0.0
 10
138.8053630779
 20
88.0940485782
 30
0.0
 10
138.8017521177
 20
88.0896234856
 30
0.0
 10
138.7991932265
 20
88.0865472637
 30
0.0
 10
138.7977758131
 20
88.0847593766
 30
0.0
 10
138.7965872422
 20
88.0835025015
 30
0.0
 10
138.7958783098
 20
88.0819244886
 30
0.0
 10
138.7947657109
 20
88.07993251
 30
0.0
 10
138.792897162
 20
88.0763941249
 30
0.0
 10
138.7901825404
 20
88.071368481
 30
0.0
 10
138.7874994611
 20
88.0663259217
 30
0.0
 10
138.785586753
 20
88.0628112182
 30
0.0
 10
138.7845435472
 20
88.0607820257
 30
0.0
 10
138.7836217042
 20
88.0593181919
 30
0.0
 10
138.7832327307
 20
88.057632511
 30
0.0
 10
138.7825281729
 20
88.0554623359
 30
0.0
 10
138.7813823814
 20
88.0516283012
 30
0.0
 10
138.779695464
 20
88.0461713887
 30
0.0
 10
138.7780427704
 20
88.0407023624
 30
0.0
 10
138.7768490656
 20
88.036885287
 30
0.0
 10
138.7762198001
 20
88.0346884616
 30
0.0
 10
138.7755998163
 20
88.0330845485
 30
0.0
 10
138.7755455452
 20
88.0313136314
 30
0.0
 10
138.7752757989
 20
88.0290106569
 30
0.0
 10
138.7748962881
 20
88.0249533581
 30
0.0
 10
138.7743010788
 20
88.0191710153
 30
0.0
 10
138.7737417969
 20
88.013385086
 30
0.0
 10
138.7733119877
 20
88.0093328084
 30
0.0
 10
138.7731212817
 20
88.0070219435
 30
0.0
 10
138.7728245007
 20
88.0052752358
 30
0.0
 10
138.7731152759
 20
88.003580403
 30
0.0
 10
138.7732979743
 20
88.0013025205
 30
0.0
 10
138.7737137706
 20
87.997324771
 30
0.0
 10
138.77425303
 20
87.9916369254
 30
0.0
 10
138.774828232
 20
87.985954189
 30
0.0
 10
138.7751937087
 20
87.9819692867
 30
0.0
 10
138.7754554806
 20
87.9797026443
 30
0.0
 10
138.7755036437
 20
87.9779733248
 30
0.0
 10
138.7761180064
 20
87.9763561339
 30
0.0
 10
138.7767396072
 20
87.9741607463
 30
0.0
 10
138.7779199787
 20
87.9703372654
 30
0.0
 10
138.7795535769
 20
87.9648637787
 30
0.0
 10
138.7812214382
 20
87.9594006382
 30
0.0
 10
138.7823538415
 20
87.9555626726
 30
0.0
 10
138.7830508209
 20
87.9533900466
 30
0.0
 10
138.7834339086
 20
87.9517030191
 30
0.0
 10
138.7843506376
 20
87.950235975
 30
0.0
 10
138.7853867519
 20
87.948203156
 30
0.0
 10
138.787287214
 20
87.9446817637
 30
0.0
 10
138.7899524154
 20
87.9396301314
 30
0.0
 10
138.792650381
 20
87.934594137
 30
0.0
 10
138.7945049732
 20
87.9310508517
 30
0.0
 10
138.7956131688
 20
87.9290524359
 30
0.0
 10
138.7963087392
 20
87.9274798366
 30
0.0
 10
138.7975224004
 20
87.9261892277
 30
0.0
 10
138.7989598619
 20
87.9243700104
 30
0.0
 10
138.8015600137
 20
87.9212326714
 30
0.0
 10
138.8052272482
 20
87.9167229969
 30
0.0
 10
138.808922423
 20
87.9122361947
 30
0.0
 10
138.8114834585
 20
87.9090668345
 30
0.0
 10
138.8129823884
 20
87.9072979362
 30
0.0
 10
138.8140074533
 20
87.9058529395
 30
0.0
 10
138.8154113077
 20
87.9048601522
 30
0.0
 10
138.8171509558
 20
87.903378653
 30
0.0
 10
138.8202572334
 20
87.9008600165
 30
0.0
 10
138.824659849
 20
87.8972194744
 30
0.0
 10
138.8290842677
 20
87.8936079641
 30
0.0
 10
138.832160021
 20
87.8910486831
 30
0.0
 10
138.8339476358
 20
87.8896310538
 30
0.0
 10
138.8352043196
 20
87.8884423019
 30
0.0
 10
138.8367820921
 20
87.8877332614
 30
0.0
 10
138.8387737673
 20
87.8866204931
 30
0.0
 10
138.8423116135
 20
87.8847516596
 30
0.0
 10
138.8473364919
 20
87.8820366245
 30
0.0
 10
138.8523782832
 20
87.8793531364
 30
0.0
 10
138.8558924515
 20
87.877440137
 30
0.0
 10
138.8579213349
 20
87.8763967723
 30
0.0
 10
138.8593849458
 20
87.8754747889
 30
0.0
 10
138.8610703699
 20
87.8750857561
 30
0.0
 10
138.8632402145
 20
87.874381091
 30
0.0
 10
138.8670736653
 20
87.873235125
 30
0.0
 10
138.8725297466
 20
87.8715479507
 30
0.0
 10
138.87799794
 20
87.869895005
 30
0.0
 10
138.881814434
 20
87.8687011189
 30
0.0
 10
138.8840109249
 20
87.8680717567
 30
0.0
 10
138.8856145933
 20
87.8674516811
 30
0.0
 10
138.8873852425
 20
87.8673973919
 30
0.0
 10
138.8896878632
 20
87.8671276533
 30
0.0
 10
138.8937445879
 20
87.8667475648
 30
0.0
 10
138.8995257117
 20
87.8661564765
 30
0.0
 10
138.9064691761
 20
87.8654678927
 30
0.0
 10
138.9110969874
 20
87.8650048897
 30
0.0
 10
138.9134110387
 20
87.8647738816
 30
0.0
  0
SPLINE
  5
547
100
AcDbEntity
  8
0
100
AcDbSpline
 62
250
  6
CONTINUOUS
 70
0
 71
3
 72
131
 73
127
 74
0
 42
0.0000001
 43
0.0000001
 44
0.0000000001
 40
0.0
 40
0.0
 40
0.0
 40
0.0
 40
0.015625
 40
0.03125
 40
0.046875
 40
0.0546875
 40
0.05859375
 40
0.0625
 40
0.06640625
 40
0.0703125
 40
0.078125
 40
0.09375
 40
0.109375
 40
0.1171875
 40
0.12109375
 40
0.125
 40
0.12890625
 40
0.1328125
 40
0.140625
 40
0.15625
 40
0.171875
 40
0.1796875
 40
0.18359375
 40
0.1875
 40
0.19140625
 40
0.1953125
 40
0.203125
 40
0.21875
 40
0.234375
 40
0.2421875
 40
0.24609375
 40
0.25
 40
0.25390625
 40
0.2578125
 40
0.265625
 40
0.28125
 40
0.296875
 40
0.3046875
 40
0.30859375
 40
0.3125
 40
0.31640625
 40
0.3203125
 40
0.328125
 40
0.34375
 40
0.359375
 40
0.3671875
 40
0.37109375
 40
0.375
 40
0.37890625
 40
0.3828125
 40
0.390625
 40
0.40625
 40
0.421875
 40
0.4296875
 40
0.43359375
 40
0.4375
 40
0.44140625
 40
0.4453125
 40
0.453125
 40
0.46875
 40
0.484375
 40
0.4921875
 40
0.49609375
 40
0.5
 40
0.50390625
 40
0.5078125
 40
0.515625
 40
0.53125
 40
0.546875
 40
0.5546875
 40
0.55859375
 40
0.5625
 40
0.56640625
 40
0.5703125
 40
0.578125
 40
0.59375
 40
0.609375
 40
0.6171875
 40
0.62109375
 40
0.625
 40
0.62890625
 40
0.6328125
 40
0.640625
 40
0.65625
 40
0.671875
 40
0.6796875
 40
0.68359375
 40
0.6875
 40
0.69140625
 40
0.6953125
 40
0.703125
 40
0.71875
 40
0.734375
 40
0.7421875
 40
0.74609375
 40
0.75
 40
0.75390625
 40
0.7578125
 40
0.765625
 40
0.78125
 40
0.796875
 40
0.8046875
 40
0.80859375
 40
0.8125
 40
0.81640625
 40
0.8203125
 40
0.828125
 40
0.84375
 40
0.859375
 40
0.8671875
 40
0.87109375
 40
0.875
 40
0.87890625
 40
0.8828125
 40
0.890625
 40
0.90625
 40
0.921875
 40
0.9296875
 40
0.93359375
 40
0.9375
 40
0.94140625
 40
0.9453125
 40
0.953125
 40
0.96875
 40
0.984375
 40
1.0
 40
1.0
 40
1.0
 40
1.0
 10
138.9134110264
 20
87.8647738816
 30
0.0
 10
138.9156850024
 20
87.8649968808
 30
0.0
 10
138.9202327588
 20
87.865443867
 30
0.0
 10
138.9270555667
 20
87.8661084205
 30
0.0
 10
138.9327378182
 20
87.8666794983
 30
0.0
 10
138.9367220666
 20
87.8670455505
 30
0.0
 10
138.9389883682
 20
87.8673073136
 30
0.0
 10
138.9407174235
 20
87.8673554938
 30
0.0
 10
138.9423343683
 20
87.8679699475
 30
0.0
 10
138.9445294214
 20
87.8685916438
 30
0.0
 10
138.9483523201
 20
87.8697721946
 30
0.0
 10
138.9538249731
 20
87.871406042
 30
0.0
 10
138.9592872815
 20
87.8730741572
 30
0.0
 10
138.9631246625
 20
87.874206733
 30
0.0
 10
138.9652969576
 20
87.8749038186
 30
0.0
 10
138.9669837282
 20
87.8752869646
 30
0.0
 10
138.9684505488
 20
87.8762038333
 30
0.0
 10
138.9704830583
 20
87.8772401054
 30
0.0
 10
138.9740039143
 20
87.879140857
 30
0.0
 10
138.9790547771
 20
87.8818064644
 30
0.0
 10
138.9840900046
 20
87.884504841
 30
0.0
 10
138.9876327502
 20
87.8863597157
 30
0.0
 10
138.9896308616
 20
87.8874680801
 30
0.0
 10
138.9912032214
 20
87.8881637564
 30
0.0
 10
138.9924936337
 20
87.8893776025
 30
0.0
 10
138.994312574
 20
87.890815283
 30
0.0
 10
138.9974494352
 20
87.8934158308
 30
0.0
 10
139.0019584228
 20
87.897083624
 30
0.0
 10
139.0064445416
 20
87.9007793616
 30
0.0
 10
139.0096134191
 20
87.9033407873
 30
0.0
 10
139.011382048
 20
87.9048399455
 30
0.0
 10
139.0128268246
 20
87.9058651666
 30
0.0
 10
139.0138194607
 20
87.9072692348
 30
0.0
 10
139.0153007343
 20
87.9090091479
 30
0.0
 10
139.0178189872
 20
87.9121158987
 30
0.0
 10
139.0214589748
 20
87.9165191849
 30
0.0
 10
139.025069935
 20
87.9209442776
 30
0.0
 10
139.0276288263
 20
87.9240204994
 30
0.0
 10
139.0290462396
 20
87.9258083865
 30
0.0
 10
139.0302348105
 20
87.9270652617
 30
0.0
 10
139.030943743
 20
87.9286432745
 30
0.0
 10
139.0320563418
 20
87.9306352531
 30
0.0
 10
139.0339248907
 20
87.9341736382
 30
0.0
 10
139.0366395123
 20
87.9391992821
 30
0.0
 10
139.0393225917
 20
87.9442418414
 30
0.0
 10
139.0412352998
 20
87.947756545
 30
0.0
 10
139.0422785055
 20
87.9497857375
 30
0.0
 10
139.0432003485
 20
87.9512495713
 30
0.0
 10
139.043589322
 20
87.9529352521
 30
0.0
 10
139.0442938798
 20
87.9551054273
 30
0.0
 10
139.0454396713
 20
87.958939462
 30
0.0
 10
139.0471265887
 20
87.9643963745
 30
0.0
 10
139.0487792824
 20
87.9698654007
 30
0.0
 10
139.0499729871
 20
87.9736824762
 30
0.0
 10
139.0506022527
 20
87.9758793016
 30
0.0
 10
139.0512222364
 20
87.9774832147
 30
0.0
 10
139.0512765076
 20
87.9792541318
 30
0.0
 10
139.0515462538
 20
87.9815571062
 30
0.0
 10
139.0519257647
 20
87.985614405
 30
0.0
 10
139.052520974
 20
87.9913967478
 30
0.0
 10
139.0530802559
 20
87.9971826772
 30
0.0
 10
139.0535100651
 20
88.0012349548
 30
0.0
 10
139.0537007711
 20
88.0035458197
 30
0.0
 10
139.0539975521
 20
88.0052925274
 30
0.0
 10
139.0537067768
 20
88.0069873602
 30
0.0
 10
139.0535240784
 20
88.0092652427
 30
0.0
 10
139.0531082822
 20
88.0132429922
 30
0.0
 10
139.0525690227
 20
88.0189308378
 30
0.0
 10
139.0519938208
 20
88.0246135742
 30
0.0
 10
139.0516283441
 20
88.0285984765
 30
0.0
 10
139.0513665721
 20
88.0308651189
 30
0.0
 10
139.0513184091
 20
88.0325944384
 30
0.0
 10
139.0507040464
 20
88.0342116292
 30
0.0
 10
139.0500824455
 20
88.0364070169
 30
0.0
 10
139.0489020741
 20
88.0402304978
 30
0.0
 10
139.0472684758
 20
88.0457039844
 30
0.0
 10
139.0456006146
 20
88.0511671249
 30
0.0
 10
139.0444682112
 20
88.0550050905
 30
0.0
 10
139.0437712319
 20
88.0571777165
 30
0.0
 10
139.0433881442
 20
88.0588647441
 30
0.0
 10
139.0424714151
 20
88.0603317881
 30
0.0
 10
139.0414353009
 20
88.0623646072
 30
0.0
 10
139.0395348388
 20
88.0658859995
 30
0.0
 10
139.0368696374
 20
88.0709376317
 30
0.0
 10
139.0341716717
 20
88.0759736262
 30
0.0
 10
139.0323170796
 20
88.0795169114
 30
0.0
 10
139.031208884
 20
88.0815153273
 30
0.0
 10
139.0305133136
 20
88.0830879266
 30
0.0
 10
139.0292996523
 20
88.0843785354
 30
0.0
 10
139.0278621909
 20
88.0861977527
 30
0.0
 10
139.0252620391
 20
88.0893350918
 30
0.0
 10
139.0215948045
 20
88.0938447662
 30
0.0
 10
139.0178996298
 20
88.0983315684
 30
0.0
 10
139.0153385942
 20
88.1015009286
 30
0.0
 10
139.0138396644
 20
88.103269827
 30
0.0
 10
139.0128145994
 20
88.1047148236
 30
0.0
 10
139.011410745
 20
88.1057076109
 30
0.0
 10
139.009671097
 20
88.1071891102
 30
0.0
 10
139.0065648193
 20
88.1097077467
 30
0.0
 10
139.0021622037
 20
88.1133482887
 30
0.0
 10
138.9977377851
 20
88.116959799
 30
0.0
 10
138.9946620317
 20
88.11951908
 30
0.0
 10
138.9928744169
 20
88.1209367093
 30
0.0
 10
138.9916177332
 20
88.1221254613
 30
0.0
 10
138.9900399607
 20
88.1228345017
 30
0.0
 10
138.9880482855
 20
88.12394727
 30
0.0
 10
138.9845104393
 20
88.1258161035
 30
0.0
 10
138.9794855608
 20
88.1285311387
 30
0.0
 10
138.9744437695
 20
88.1312146267
 30
0.0
 10
138.9709296013
 20
88.1331276262
 30
0.0
 10
138.9689007178
 20
88.1341709909
 30
0.0
 10
138.967437107
 20
88.1350929743
 30
0.0
 10
138.9657516829
 20
88.135482007
 30
0.0
 10
138.9635818382
 20
88.1361866721
 30
0.0
 10
138.9597483875
 20
88.1373326382
 30
0.0
 10
138.9542923061
 20
88.1390198125
 30
0.0
 10
138.9488241128
 20
88.1406727582
 30
0.0
 10
138.9450076188
 20
88.1418666442
 30
0.0
 10
138.9428111278
 20
88.1424960065
 30
0.0
 10
138.9412074595
 20
88.143116082
 30
0.0
 10
138.9394368103
 20
88.1431703713
 30
0.0
 10
138.9371341896
 20
88.1434401099
 30
0.0
 10
138.9330774648
 20
88.1438201984
 30
0.0
 10
138.927296341
 20
88.1444112866
 30
0.0
 10
138.9203528767
 20
88.1450998705
 30
0.0
 10
138.9157250654
 20
88.1455628735
 30
0.0
 10
138.9134110141
 20
88.1457938816
 30
0.0
  0
SPLINE
  5
548
100
AcDbEntity
  8
0
100
AcDbSpline
 62
250
  6
CONTINUOUS
 70
0
 71
3
 72
191
 73
187
 74
0
 42
0.0000001
 43
0.0000001
 44
0.0000000001
 40
0.0
 40
0.0
 40
0.0
 40
0.0
 40
0.015625
 40
0.03125
 40
0.0390625
 40
0.046875
 40
0.0546875
 40
0.05859375
 40
0.060546875
 40
0.0625
 40
0.064453125
 40
0.06640625
 40
0.0703125
 40
0.078125
 40
0.0859375
 40
0.09375
 40
0.1015625
 40
0.109375
 40
0.1171875
 40
0.12109375
 40
0.123046875
 40
0.125
 40
0.126953125
 40
0.12890625
 40
0.1328125
 40
0.140625
 40
0.1484375
 40
0.15625
 40
0.1640625
 40
0.171875
 40
0.1796875
 40
0.18359375
 40
0.185546875
 40
0.1875
 40
0.189453125
 40
0.19140625
 40
0.1953125
 40
0.203125
 40
0.2109375
 40
0.21875
 40
0.2265625
 40
0.234375
 40
0.2421875
 40
0.24609375
 40
0.248046875
 40
0.25
 40
0.251953125
 40
0.25390625
 40
0.2578125
 40
0.265625
 40
0.2734375
 40
0.28125
 40
0.2890625
 40
0.296875
 40
0.3046875
 40
0.30859375
 40
0.310546875
 40
0.3125
 40
0.314453125
 40
0.31640625
 40
0.3203125
 40
0.328125
 40
0.3359375
 40
0.34375
 40
0.3515625
 40
0.359375
 40
0.3671875
 40
0.37109375
 40
0.373046875
 40
0.375
 40
0.376953125
 40
0.37890625
 40
0.3828125
 40
0.390625
 40
0.3984375
 40
0.40625
 40
0.4140625
 40
0.421875
 40
0.4296875
 40
0.43359375
 40
0.435546875
 40
0.4375
 40
0.439453125
 40
0.44140625
 40
0.4453125
 40
0.453125
 40
0.4609375
 40
0.46875
 40
0.4765625
 40
0.484375
 40
0.4921875
 40
0.49609375
 40
0.498046875
 40
0.5
 40
0.501953125
 40
0.50390625
 40
0.5078125
 40
0.515625
 40
0.5234375
 40
0.53125
 40
0.5390625
 40
0.546875
 40
0.5546875
 40
0.55859375
 40
0.560546875
 40
0.5625
 40
0.564453125
 40
0.56640625
 40
0.5703125
 40
0.578125
 40
0.5859375
 40
0.59375
 40
0.6015625
 40
0.609375
 40
0.6171875
 40
0.62109375
 40
0.623046875
 40
0.625
 40
0.626953125
 40
0.62890625
 40
0.6328125
 40
0.640625
 40
0.6484375
 40
0.65625
 40
0.6640625
 40
0.671875
 40
0.6796875
 40
0.68359375
 40
0.685546875
 40
0.6875
 40
0.689453125
 40
0.69140625
 40
0.6953125
 40
0.703125
 40
0.7109375
 40
0.71875
 40
0.7265625
 40
0.734375
 40
0.7421875
 40
0.74609375
 40
0.748046875
 40
0.75
 40
0.751953125
 40
0.75390625
 40
0.7578125
 40
0.765625
 40
0.7734375
 40
0.78125
 40
0.7890625
 40
0.796875
 40
0.8046875
 40
0.80859375
 40
0.810546875
 40
0.8125
 40
0.814453125
 40
0.81640625
 40
0.8203125
 40
0.828125
 40
0.8359375
 40
0.84375
 40
0.8515625
 40
0.859375
 40
0.8671875
 40
0.87109375
 40
0.873046875
 40
0.875
 40
0.876953125
 40
0.87890625
 40
0.8828125
 40
0.890625
 40
0.8984375
 40
0.90625
 40
0.9140625
 40
0.921875
 40
0.9296875
 40
0.93359375
 40
0.935546875
 40
0.9375
 40
0.939453125
 40
0.94140625
 40
0.9453125
 40
0.953125
 40
0.9609375
 40
0.96875
 40
0.984375
 40
1.0
 40
1.0
 40
1.0
 40
1.0
 10
138.9134110264
 20
87.6876918816
 30
0.0
 10
138.9185508498
 20
87.6881959224
 30
0.0
 10
138.9288304542
 20
87.6892042182
 30
0.0
 10
138.9416801716
 20
87.6904635177
 30
0.0
 10
138.9519595006
 20
87.6914732046
 30
0.0
 10
138.9596702049
 20
87.6922243702
 30
0.0
 10
138.966091952
 20
87.6928697371
 30
0.0
 10
138.9705947104
 20
87.6932834317
 30
0.0
 10
138.9731559493
 20
87.6935792595
 30
0.0
 10
138.9751100231
 20
87.6936337126
 30
0.0
 10
138.9769374015
 20
87.6943281213
 30
0.0
 10
138.9794180989
 20
87.6950307755
 30
0.0
 10
138.9837387278
 20
87.6963644286
 30
0.0
 10
138.9899218318
 20
87.6982152381
 30
0.0
 10
138.997336893
 20
87.7004596409
 30
0.0
 10
139.0047533655
 20
87.7026973728
 30
0.0
 10
139.0121688564
 20
87.7049383567
 30
0.0
 10
139.0195868627
 20
87.7071730033
 30
0.0
 10
139.0257609677
 20
87.7090536235
 30
0.0
 10
139.0300976312
 20
87.7103341592
 30
0.0
 10
139.0325526404
 20
87.7111219097
 30
0.0
 10
139.0344589241
 20
87.7115549318
 30
0.0
 10
139.0361166429
 20
87.7125911093
 30
0.0
 10
139.0384136371
 20
87.7137622916
 30
0.0
 10
139.0423929786
 20
87.7159098881
 30
0.0
 10
139.0480988889
 20
87.7189266018
 30
0.0
 10
139.0549368639
 20
87.7225687455
 30
0.0
 10
139.0617774893
 20
87.72620459
 30
0.0
 10
139.0686166308
 20
87.7298435443
 30
0.0
 10
139.0754590573
 20
87.7334763585
 30
0.0
 10
139.0811513659
 20
87.7365215791
 30
0.0
 10
139.0851549431
 20
87.7386183815
 30
0.0
 10
139.0874131107
 20
87.739870938
 30
0.0
 10
139.0891900913
 20
87.7406571618
 30
0.0
 10
139.0906484477
 20
87.7420289682
 30
0.0
 10
139.0927040628
 20
87.7436537854
 30
0.0
 10
139.0962496041
 20
87.7465923861
 30
0.0
 10
139.1013417616
 20
87.7507406059
 30
0.0
 10
139.1074406438
 20
87.7557398864
 30
0.0
 10
139.1135429953
 20
87.7607331498
 30
0.0
 10
139.1196431765
 20
87.7657290652
 30
0.0
 10
139.1257485696
 20
87.7707203898
 30
0.0
 10
139.1308208329
 20
87.7748929193
 30
0.0
 10
139.134401822
 20
87.7777882046
 30
0.0
 10
139.1364006482
 20
87.7794824148
 30
0.0
 10
139.1380334406
 20
87.7806410697
 30
0.0
 10
139.1391552689
 20
87.782227855
 30
0.0
 10
139.1408292704
 20
87.7841942318
 30
0.0
 10
139.1436757287
 20
87.7877049725
 30
0.0
 10
139.1477855426
 20
87.7926839184
 30
0.0
 10
139.1526985991
 20
87.7986743212
 30
0.0
 10
139.1576170243
 20
87.8046602897
 30
0.0
 10
139.1625326949
 20
87.8106483276
 30
0.0
 10
139.1674540156
 20
87.8166325221
 30
0.0
 10
139.1715385777
 20
87.8216304379
 30
0.0
 10
139.17443003
 20
87.8251073777
 30
0.0
 10
139.1760319492
 20
87.827127905
 30
0.0
 10
139.1773751898
 20
87.8285483584
 30
0.0
 10
139.1781763951
 20
87.830331728
 30
0.0
 10
139.1794337372
 20
87.8325829648
 30
0.0
 10
139.1815459916
 20
87.8365816113
 30
0.0
 10
139.1846095858
 20
87.842263112
 30
0.0
 10
139.1882660352
 20
87.8490941832
 30
0.0
 10
139.1919281988
 20
87.8559215354
 30
0.0
 10
139.195587369
 20
87.862750493
 30
0.0
 10
139.1992527985
 20
87.8695767482
 30
0.0
 10
139.2022889533
 20
87.8752729641
 30
0.0
 10
139.2044500999
 20
87.8792453909
 30
0.0
 10
139.2056291147
 20
87.8815386327
 30
0.0
 10
139.2066709146
 20
87.883192977
 30
0.0
 10
139.2071105222
 20
87.885098028
 30
0.0
 10
139.2079067176
 20
87.8875506464
 30
0.0
 10
139.2092021882
 20
87.8918834745
 30
0.0
 10
139.2111040622
 20
87.8980519156
 30
0.0
 10
139.2133642484
 20
87.9054632152
 30
0.0
 10
139.2156307623
 20
87.9128719349
 30
0.0
 10
139.2178940283
 20
87.9202818042
 30
0.0
 10
139.2201639582
 20
87.927689655
 30
0.0
 10
139.22203606
 20
87.9338686342
 30
0.0
 10
139.2233845792
 20
87.9381826852
 30
0.0
 10
139.2240957885
 20
87.9406653853
 30
0.0
 10
139.2247964441
 20
87.9424780359
 30
0.0
 10
139.2248577918
 20
87.9444794203
 30
0.0
 10
139.225162587
 20
87.9470821003
 30
0.0
 10
139.2255920752
 20
87.951667463
 30
0.0
 10
139.2262599867
 20
87.9582019449
 30
0.0
 10
139.2270380609
 20
87.966050188
 30
0.0
 10
139.2278228424
 20
87.9738966298
 30
0.0
 10
139.2286042144
 20
87.981743412
 30
0.0
 10
139.2293925172
 20
87.989590634
 30
0.0
 10
139.2300291745
 20
87.996128236
 30
0.0
 10
139.2305143521
 20
88.0007080393
 30
0.0
 10
139.2307299306
 20
88.0033196257
 30
0.0
 10
139.2310653212
 20
88.0052936528
 30
0.0
 10
139.2307367179
 20
88.0072090527
 30
0.0
 10
139.2305301891
 20
88.0097833692
 30
0.0
 10
139.2300608486
 20
88.0142788943
 30
0.0
 10
139.2294468157
 20
88.0207060607
 30
0.0
 10
139.2286856619
 20
88.0284164999
 30
0.0
 10
139.2279314395
 20
88.0361276004
 30
0.0
 10
139.2271738061
 20
88.0438382161
 30
0.0
 10
139.2264228854
 20
88.0515501099
 30
0.0
 10
139.225777585
 20
88.0579728316
 30
0.0
 10
139.2253639574
 20
88.0624762763
 30
0.0
 10
139.2250681742
 20
88.0650379053
 30
0.0
 10
139.2250137295
 20
88.0669922768
 30
0.0
 10
139.2243194266
 20
88.0688199335
 30
0.0
 10
139.2236168794
 20
88.0713010089
 30
0.0
 10
139.2222834294
 20
88.0756222958
 30
0.0
 10
139.2204329018
 20
88.0818063418
 30
0.0
 10
139.2181888409
 20
88.0892225325
 30
0.0
 10
139.2159514498
 20
88.0966401347
 30
0.0
 10
139.2137108071
 20
88.1040567551
 30
0.0
 10
139.211476501
 20
88.1114758914
 30
0.0
 10
139.2095961671
 20
88.117650937
 30
0.0
 10
139.2083158265
 20
88.121988261
 30
0.0
 10
139.2075281959
 20
88.1244436443
 30
0.0
 10
139.2070952399
 20
88.1263502183
 30
0.0
 10
139.2060592201
 20
88.1280081897
 30
0.0
 10
139.2048882162
 20
88.1303055337
 30
0.0
 10
139.2027409468
 20
88.1342854814
 30
0.0
 10
139.1997246926
 20
88.1399922608
 30
0.0
 10
139.1960831035
 20
88.1468312775
 30
0.0
 10
139.1924478128
 20
88.1536729449
 30
0.0
 10
139.1888094128
 20
88.1605131282
 30
0.0
 10
139.1851771518
 20
88.167356597
 30
0.0
 10
139.182132395
 20
88.1730497727
 30
0.0
 10
139.1800359121
 20
88.1770539597
 30
0.0
 10
139.1787835463
 20
88.1793124713
 30
0.0
 10
139.1779974422
 20
88.1810897226
 30
0.0
 10
139.1766258447
 20
88.1825483011
 30
0.0
 10
139.1750012751
 20
88.1846042294
 30
0.0
 10
139.1720631219
 20
88.1881503107
 30
0.0
 10
139.1679155339
 20
88.1932432439
 30
0.0
 10
139.1629170147
 20
88.1993430552
 30
0.0
 10
139.1579245119
 20
88.2054463362
 30
0.0
 10
139.1529293574
 20
88.2115474467
 30
0.0
 10
139.147938793
 20
88.2176537698
 30
0.0
 10
139.143766899
 20
88.2227268057
 30
0.0
 10
139.1408720546
 20
88.2263083403
 30
0.0
 10
139.1391781025
 20
88.228307471
 30
0.0
 10
139.1380196241
 20
88.2299405121
 30
0.0
 10
139.1364330805
 20
88.2310625113
 30
0.0
 10
139.1344670032
 20
88.2327367678
 30
0.0
 10
139.1309567971
 20
88.2355836597
 30
0.0
 10
139.1259786096
 20
88.2396940996
 30
0.0
 10
139.1199891191
 20
88.2446079045
 30
0.0
 10
139.1140040623
 20
88.249527079
 30
0.0
 10
139.1080169364
 20
88.2544434983
 30
0.0
 10
139.1020336533
 20
88.2593655687
 30
0.0
 10
139.0970364987
 20
88.263450753
 30
0.0
 10
139.0935600885
 20
88.2663426458
 30
0.0
 10
139.0915398689
 20
88.2679448089
 30
0.0
 10
139.0901196319
 20
88.2692882541
 30
0.0
 10
139.0883365338
 20
88.2700895815
 30
0.0
 10
139.08608564
 20
88.2713471151
 30
0.0
 10
139.0820876025
 20
88.2734596913
 30
0.0
 10
139.0764069671
 20
88.2765237522
 30
0.0
 10
139.0695769363
 20
88.2801807585
 30
0.0
 10
139.0627506239
 20
88.28384348
 30
0.0
 10
139.0559227065
 20
88.2875032076
 30
0.0
 10
139.0490974908
 20
88.2911691955
 30
0.0
 10
139.0434021425
 20
88.2942058127
 30
0.0
 10
139.0394303208
 20
88.2963672885
 30
0.0
 10
139.0371374282
 20
88.2975464829
 30
0.0
 10
139.0354833359
 20
88.2985884415
 30
0.0
 10
139.0335785751
 20
88.2990281161
 30
0.0
 10
139.0311263302
 20
88.2998244327
 30
0.0
 10
139.0267941621
 20
88.3011201007
 30
0.0
 10
139.0206266604
 20
88.3030222644
 30
0.0
 10
139.0132164895
 20
88.3052827949
 30
0.0
 10
139.0058088983
 20
88.3075496541
 30
0.0
 10
138.9984001575
 20
88.3098132648
 30
0.0
 10
138.990993435
 20
88.3120835404
 30
0.0
 10
138.9848153968
 20
88.3139559275
 30
0.0
 10
138.9805020029
 20
88.3153046521
 30
0.0
 10
138.9780196809
 20
88.3160159697
 30
0.0
 10
138.9762073067
 20
88.316716732
 30
0.0
 10
138.9742062259
 20
88.3167780892
 30
0.0
 10
138.9716039412
 20
88.3170829304
 30
0.0
 10
138.9670192749
 20
88.317512488
 30
0.0
 10
138.9604857852
 20
88.3181804695
 30
0.0
 10
138.9526387344
 20
88.3189587927
 30
0.0
 10
138.9421783983
 20
88.3200046826
 30
0.0
 10
138.9291021497
 20
88.3213092385
 30
0.0
 10
138.9186414034
 20
88.3223537385
 30
0.0
 10
138.9134109986
 20
88.3228758816
 30
0.0
  0
SPLINE
  5
549
100
AcDbEntity
  8
0
100
AcDbSpline
 62
250
  6
CONTINUOUS
 70
0
 71
3
 72
191
 73
187
 74
0
 42
0.0000001
 43
0.0000001
 44
0.0000000001
 40
0.0
 40
0.0
 40
0.0
 40
0.0
 40
0.015625
 40
0.03125
 40
0.0390625
 40
0.046875
 40
0.0546875
 40
0.05859375
 40
0.060546875
 40
0.0625
 40
0.064453125
 40
0.06640625
 40
0.0703125
 40
0.078125
 40
0.0859375
 40
0.09375
 40
0.1015625
 40
0.109375
 40
0.1171875
 40
0.12109375
 40
0.123046875
 40
0.125
 40
0.126953125
 40
0.12890625
 40
0.1328125
 40
0.140625
 40
0.1484375
 40
0.15625
 40
0.1640625
 40
0.171875
 40
0.1796875
 40
0.18359375
 40
0.185546875
 40
0.1875
 40
0.189453125
 40
0.19140625
 40
0.1953125
 40
0.203125
 40
0.2109375
 40
0.21875
 40
0.2265625
 40
0.234375
 40
0.2421875
 40
0.24609375
 40
0.248046875
 40
0.25
 40
0.251953125
 40
0.25390625
 40
0.2578125
 40
0.265625
 40
0.2734375
 40
0.28125
 40
0.2890625
 40
0.296875
 40
0.3046875
 40
0.30859375
 40
0.310546875
 40
0.3125
 40
0.314453125
 40
0.31640625
 40
0.3203125
 40
0.328125
 40
0.3359375
 40
0.34375
 40
0.3515625
 40
0.359375
 40
0.3671875
 40
0.37109375
 40
0.373046875
 40
0.375
 40
0.376953125
 40
0.37890625
 40
0.3828125
 40
0.390625
 40
0.3984375
 40
0.40625
 40
0.4140625
 40
0.421875
 40
0.4296875
 40
0.43359375
 40
0.435546875
 40
0.4375
 40
0.439453125
 40
0.44140625
 40
0.4453125
 40
0.453125
 40
0.4609375
 40
0.46875
 40
0.4765625
 40
0.484375
 40
0.4921875
 40
0.49609375
 40
0.498046875
 40
0.5
 40
0.501953125
 40
0.50390625
 40
0.5078125
 40
0.515625
 40
0.5234375
 40
0.53125
 40
0.5390625
 40
0.546875
 40
0.5546875
 40
0.55859375
 40
0.560546875
 40
0.5625
 40
0.564453125
 40
0.56640625
 40
0.5703125
 40
0.578125
 40
0.5859375
 40
0.59375
 40
0.6015625
 40
0.609375
 40
0.6171875
 40
0.62109375
 40
0.623046875
 40
0.625
 40
0.626953125
 40
0.62890625
 40
0.6328125
 40
0.640625
 40
0.6484375
 40
0.65625
 40
0.6640625
 40
0.671875
 40
0.6796875
 40
0.68359375
 40
0.685546875
 40
0.6875
 40
0.689453125
 40
0.69140625
 40
0.6953125
 40
0.703125
 40
0.7109375
 40
0.71875
 40
0.7265625
 40
0.734375
 40
0.7421875
 40
0.74609375
 40
0.748046875
 40
0.75
 40
0.751953125
 40
0.75390625
 40
0.7578125
 40
0.765625
 40
0.7734375
 40
0.78125
 40
0.7890625
 40
0.796875
 40
0.8046875
 40
0.80859375
 40
0.810546875
 40
0.8125
 40
0.814453125
 40
0.81640625
 40
0.8203125
 40
0.828125
 40
0.8359375
 40
0.84375
 40
0.8515625
 40
0.859375
 40
0.8671875
 40
0.87109375
 40
0.873046875
 40
0.875
 40
0.876953125
 40
0.87890625
 40
0.8828125
 40
0.890625
 40
0.8984375
 40
0.90625
 40
0.9140625
 40
0.921875
 40
0.9296875
 40
0.93359375
 40
0.935546875
 40
0.9375
 40
0.939453125
 40
0.94140625
 40
0.9453125
 40
0.953125
 40
0.9609375
 40
0.96875
 40
0.984375
 40
1.0
 40
1.0
 40
1.0
 40
1.0
 10
138.9134110264
 20
88.3228758816
 30
0.0
 10
138.908271203
 20
88.3223718407
 30
0.0
 10
138.8979915985
 20
88.321363545
 30
0.0
 10
138.8851418811
 20
88.3201042454
 30
0.0
 10
138.8748625521
 20
88.3190945585
 30
0.0
 10
138.8671518478
 20
88.318343393
 30
0.0
 10
138.8607301007
 20
88.317698026
 30
0.0
 10
138.8562273424
 20
88.3172843314
 30
0.0
 10
138.8536661034
 20
88.3169885036
 30
0.0
 10
138.8517120297
 20
88.3169340505
 30
0.0
 10
138.8498846513
 20
88.3162396418
 30
0.0
 10
138.8474039538
 20
88.3155369876
 30
0.0
 10
138.843083325
 20
88.3142033345
 30
0.0
 10
138.8369002209
 20
88.3123525251
 30
0.0
 10
138.8294851597
 20
88.3101081223
 30
0.0
 10
138.8220686872
 20
88.3078703904
 30
0.0
 10
138.8146531964
 20
88.3056294064
 30
0.0
 10
138.8072351901
 20
88.3033947599
 30
0.0
 10
138.801061085
 20
88.3015141396
 30
0.0
 10
138.7967244216
 20
88.300233604
 30
0.0
 10
138.7942694123
 20
88.2994458534
 30
0.0
 10
138.7923631286
 20
88.2990128314
 30
0.0
 10
138.7907054098
 20
88.2979766538
 30
0.0
 10
138.7884084157
 20
88.2968054716
 30
0.0
 10
138.7844290742
 20
88.2946578751
 30
0.0
 10
138.7787231639
 20
88.2916411614
 30
0.0
 10
138.7718851888
 20
88.2879990176
 30
0.0
 10
138.7650445635
 20
88.2843631732
 30
0.0
 10
138.7582054219
 20
88.2807242189
 30
0.0
 10
138.7513629954
 20
88.2770914046
 30
0.0
 10
138.7456706868
 20
88.2740461841
 30
0.0
 10
138.7416671096
 20
88.2719493817
 30
0.0
 10
138.739408942
 20
88.2706968251
 30
0.0
 10
138.7376319614
 20
88.2699106014
 30
0.0
 10
138.7361736051
 20
88.2685387949
 30
0.0
 10
138.7341179899
 20
88.2669139778
 30
0.0
 10
138.7305724487
 20
88.2639753771
 30
0.0
 10
138.7254802912
 20
88.2598271573
 30
0.0
 10
138.7193814089
 20
88.2548278767
 30
0.0
 10
138.7132790574
 20
88.2498346133
 30
0.0
 10
138.7071788762
 20
88.244838698
 30
0.0
 10
138.7010734831
 20
88.2398473733
 30
0.0
 10
138.6960012199
 20
88.2356748439
 30
0.0
 10
138.6924202308
 20
88.2327795585
 30
0.0
 10
138.6904214045
 20
88.2310853484
 30
0.0
 10
138.6887886122
 20
88.2299266935
 30
0.0
 10
138.6876667838
 20
88.2283399082
 30
0.0
 10
138.6859927823
 20
88.2263735314
 30
0.0
 10
138.683146324
 20
88.2228627906
 30
0.0
 10
138.6790365101
 20
88.2178838448
 30
0.0
 10
138.6741234536
 20
88.211893442
 30
0.0
 10
138.6692050284
 20
88.2059074735
 30
0.0
 10
138.6642893579
 20
88.1999194355
 30
0.0
 10
138.6593680372
 20
88.193935241
 30
0.0
 10
138.655283475
 20
88.1889373253
 30
0.0
 10
138.6523920227
 20
88.1854603855
 30
0.0
 10
138.6507901036
 20
88.1834398581
 30
0.0
 10
138.649446863
 20
88.1820194047
 30
0.0
 10
138.6486456576
 20
88.1802360351
 30
0.0
 10
138.6473883155
 20
88.1779847984
 30
0.0
 10
138.6452760611
 20
88.1739861519
 30
0.0
 10
138.6422124669
 20
88.1683046512
 30
0.0
 10
138.6385560176
 20
88.16147358
 30
0.0
 10
138.634893854
 20
88.1546462277
 30
0.0
 10
138.6312346837
 20
88.1478172702
 30
0.0
 10
138.6275692542
 20
88.1409910149
 30
0.0
 10
138.6245330995
 20
88.135294799
 30
0.0
 10
138.6223719529
 20
88.1313223723
 30
0.0
 10
138.6211929381
 20
88.1290291304
 30
0.0
 10
138.6201511381
 20
88.1273747861
 30
0.0
 10
138.6197115305
 20
88.1254697352
 30
0.0
 10
138.6189153352
 20
88.1230171167
 30
0.0
 10
138.6176198646
 20
88.1186842887
 30
0.0
 10
138.6157179905
 20
88.1125158476
 30
0.0
 10
138.6134578043
 20
88.1051045479
 30
0.0
 10
138.6111912904
 20
88.0976958283
 30
0.0
 10
138.6089280245
 20
88.090285959
 30
0.0
 10
138.6066580946
 20
88.0828781082
 30
0.0
 10
138.6047859927
 20
88.0766991289
 30
0.0
 10
138.6034374735
 20
88.072385078
 30
0.0
 10
138.6027262642
 20
88.0699023779
 30
0.0
 10
138.6020256087
 20
88.0680897273
 30
0.0
 10
138.6019642609
 20
88.0660883429
 30
0.0
 10
138.6016594657
 20
88.0634856628
 30
0.0
 10
138.6012299775
 20
88.0589003002
 30
0.0
 10
138.600562066
 20
88.0523658182
 30
0.0
 10
138.5997839918
 20
88.0445175751
 30
0.0
 10
138.5989992103
 20
88.0366711333
 30
0.0
 10
138.5982178384
 20
88.0288243511
 30
0.0
 10
138.5974295355
 20
88.0209771292
 30
0.0
 10
138.5967928783
 20
88.0144395272
 30
0.0
 10
138.5963077007
 20
88.0098597239
 30
0.0
 10
138.5960921221
 20
88.0072481375
 30
0.0
 10
138.5957567315
 20
88.0052741104
 30
0.0
 10
138.5960853348
 20
88.0033587104
 30
0.0
 10
138.5962918636
 20
88.000784394
 30
0.0
 10
138.5967612042
 20
87.9962888688
 30
0.0
 10
138.5973752371
 20
87.9898617025
 30
0.0
 10
138.5981363908
 20
87.9821512633
 30
0.0
 10
138.5988906132
 20
87.9744401627
 30
0.0
 10
138.5996482466
 20
87.9667295471
 30
0.0
 10
138.6003991674
 20
87.9590176532
 30
0.0
 10
138.6010444677
 20
87.9525949315
 30
0.0
 10
138.6014580954
 20
87.9480914869
 30
0.0
 10
138.6017538785
 20
87.9455298578
 30
0.0
 10
138.6018083232
 20
87.9435754864
 30
0.0
 10
138.6025026262
 20
87.9417478296
 30
0.0
 10
138.6032051734
 20
87.9392667543
 30
0.0
 10
138.6045386234
 20
87.9349454673
 30
0.0
 10
138.6063891509
 20
87.9287614214
 30
0.0
 10
138.6086332119
 20
87.9213452307
 30
0.0
 10
138.6108706029
 20
87.9139276284
 30
0.0
 10
138.6131112456
 20
87.906511008
 30
0.0
 10
138.6153455518
 20
87.8990918717
 30
0.0
 10
138.6172258856
 20
87.8929168262
 30
0.0
 10
138.6185062263
 20
87.8885795021
 30
0.0
 10
138.6192938568
 20
87.8861241189
 30
0.0
 10
138.6197268129
 20
87.8842175448
 30
0.0
 10
138.6207628326
 20
87.8825595735
 30
0.0
 10
138.6219338365
 20
87.8802622295
 30
0.0
 10
138.6240811059
 20
87.8762822818
 30
0.0
 10
138.6270973601
 20
87.8705755024
 30
0.0
 10
138.6307389492
 20
87.8637364857
 30
0.0
 10
138.6343742399
 20
87.8568948183
 30
0.0
 10
138.63801264
 20
87.850054635
 30
0.0
 10
138.6416449009
 20
87.8432111662
 30
0.0
 10
138.6446896577
 20
87.8375179905
 30
0.0
 10
138.6467861407
 20
87.8335138034
 30
0.0
 10
138.6480385065
 20
87.8312552918
 30
0.0
 10
138.6488246105
 20
87.8294780405
 30
0.0
 10
138.650196208
 20
87.828019462
 30
0.0
 10
138.6518207777
 20
87.8259635338
 30
0.0
 10
138.6547589308
 20
87.8224174524
 30
0.0
 10
138.6589065189
 20
87.8173245193
 30
0.0
 10
138.663905038
 20
87.811224708
 30
0.0
 10
138.6688975409
 20
87.8051214269
 30
0.0
 10
138.6738926953
 20
87.7990203165
 30
0.0
 10
138.6788832598
 20
87.7929139934
 30
0.0
 10
138.6830551537
 20
87.7878409575
 30
0.0
 10
138.6859499981
 20
87.7842594229
 30
0.0
 10
138.6876439503
 20
87.7822602921
 30
0.0
 10
138.6888024286
 20
87.7806272511
 30
0.0
 10
138.6903889723
 20
87.7795052518
 30
0.0
 10
138.6923550496
 20
87.7778309953
 30
0.0
 10
138.6958652556
 20
87.7749841035
 30
0.0
 10
138.7008434432
 20
87.7708736635
 30
0.0
 10
138.7068329336
 20
87.7659598586
 30
0.0
 10
138.7128179904
 20
87.7610406842
 30
0.0
 10
138.7188051164
 20
87.7561242649
 30
0.0
 10
138.7247883994
 20
87.7512021945
 30
0.0
 10
138.729785554
 20
87.7471170102
 30
0.0
 10
138.7332619642
 20
87.7442251174
 30
0.0
 10
138.7352821838
 20
87.7426229542
 30
0.0
 10
138.7367024209
 20
87.741279509
 30
0.0
 10
138.7384855189
 20
87.7404781817
 30
0.0
 10
138.7407364128
 20
87.739220648
 30
0.0
 10
138.7447344502
 20
87.7371080719
 30
0.0
 10
138.7504150856
 20
87.734044011
 30
0.0
 10
138.7572451164
 20
87.7303870046
 30
0.0
 10
138.7640714288
 20
87.7267242832
 30
0.0
 10
138.7708993463
 20
87.7230645556
 30
0.0
 10
138.7777245619
 20
87.7193985677
 30
0.0
 10
138.7834199102
 20
87.7163619505
 30
0.0
 10
138.7873917319
 20
87.7142004747
 30
0.0
 10
138.7896846245
 20
87.7130212803
 30
0.0
 10
138.7913387168
 20
87.7119793216
 30
0.0
 10
138.7932434776
 20
87.711539647
 30
0.0
 10
138.7956957226
 20
87.7107433304
 30
0.0
 10
138.8000278907
 20
87.7094476625
 30
0.0
 10
138.8061953923
 20
87.7075454987
 30
0.0
 10
138.8136055632
 20
87.7052849682
 30
0.0
 10
138.8210131545
 20
87.7030181091
 30
0.0
 10
138.8284218952
 20
87.7007544984
 30
0.0
 10
138.8358286177
 20
87.6984842227
 30
0.0
 10
138.8420066559
 20
87.6966118357
 30
0.0
 10
138.8463200498
 20
87.6952631111
 30
0.0
 10
138.8488023719
 20
87.6945517934
 30
0.0
 10
138.8506147461
 20
87.6938510312
 30
0.0
 10
138.8526158268
 20
87.693789674
 30
0.0
 10
138.8552181115
 20
87.6934848327
 30
0.0
 10
138.8598027779
 20
87.6930552752
 30
0.0
 10
138.8663362676
 20
87.6923872936
 30
0.0
 10
138.8741833183
 20
87.6916089705
 30
0.0
 10
138.8846436545
 20
87.6905630805
 30
0.0
 10
138.897719903
 20
87.6892585247
 30
0.0
 10
138.9081806494
 20
87.6882140247
 30
0.0
 10
138.9134110541
 20
87.6876918816
 30
0.0
  0
SPLINE
  5
54A
100
AcDbEntity
  8
ASSI
100
AcDbSpline
 62
250
  6
CONTINUOUS
 70
0
 71
3
 72
18
 73
14
 74
0
 42
0.0000001
 43
0.0000001
 44
0.0000000001
 40
0.0
 40
0.0
 40
0.0
 40
0.0
 40
0.1907876196
 40
0.3736693251
 40
0.5423501261
 40
0.6911510989
 40
0.8149903718
 40
0.8662057647
 40
0.909681748
 40
0.9450538606
 40
0.9720256935
 40
0.9903699157
 40
1.0
 40
1.0
 40
1.0
 40
1.0
 10
184.9577805174
 20
71.6392152447
 30
0.0
 10
184.9578244166
 20
71.5782922096
 30
0.0
 10
184.9580988872
 20
71.4589707039
 30
0.0
 10
184.9590761623
 20
71.2857878326
 30
0.0
 10
184.9605758586
 20
71.1260161398
 30
0.0
 10
184.9625444696
 20
70.985105679
 30
0.0
 10
184.964600668
 20
70.8817085391
 30
0.0
 10
184.9665173445
 20
70.8119548676
 30
0.0
 10
184.9679096149
 20
70.7704401019
 30
0.0
 10
184.9693963022
 20
70.7366956793
 30
0.0
 10
184.9707747093
 20
70.7109309324
 30
0.0
 10
184.9723996828
 20
70.6935244695
 30
0.0
 10
184.9733383501
 20
70.6845479472
 30
0.0
 10
184.9743073463
 20
70.681629491
 30
0.0
  0
SPLINE
  5
54B
100
AcDbEntity
  8
ASSI
100
AcDbSpline
 62
250
  6
CONTINUOUS
 70
0
 71
3
 72
18
 73
14
 74
0
 42
0.0000001
 43
0.0000001
 44
0.0000000001
 40
0.0
 40
0.0
 40
0.0
 40
0.0
 40
0.0075239002
 40
0.0237286559
 40
0.0489082163
 40
0.0829743438
 40
0.125615485
 40
0.1764276147
 40
0.3007446929
 40
0.4511997875
 40
0.6222461803
 40
0.8076933733
 40
1.0
 40
1.0
 40
1.0
 40
1.0
 10
184.9577805174
 20
112.6419525184
 30
0.0
 10
184.9572889926
 20
112.6431096147
 30
0.0
 10
184.9528815872
 20
112.6444929337
 30
0.0
 10
184.9454339089
 20
112.6463381056
 30
0.0
 10
184.9326750291
 20
112.6481154223
 30
0.0
 10
184.9158619735
 20
112.6499424933
 30
0.0
 10
184.8945824654
 20
112.6516941143
 30
0.0
 10
184.8582936319
 20
112.6541038693
 30
0.0
 10
184.8039366095
 20
112.6566798517
 30
0.0
 10
184.7294890819
 20
112.6591378992
 30
0.0
 10
184.6448001024
 20
112.660987778
 30
0.0
 10
184.5531081702
 20
112.6621568635
 30
0.0
 10
184.4899891334
 20
112.6624514073
 30
0.0
 10
184.4578566698
 20
112.6624744087
 30
0.0
  0
SPLINE
  5
54C
100
AcDbEntity
  8
ASSI
100
AcDbSpline
 62
250
  6
CONTINUOUS
 70
0
 71
3
 72
9
 73
5
 74
0
 42
0.0000001
 43
0.0000001
 44
0.0000000001
 40
0.0
 40
0.0
 40
0.0
 40
0.0
 40
0.249946546
 40
1.0
 40
1.0
 40
1.0
 40
1.0
 10
184.4578566698
 20
112.662474409
 30
0.0
 10
184.4554071954
 20
109.2428913517
 30
0.0
 10
184.4480613675
 20
95.5616322053
 30
0.0
 10
184.45050615
 20
81.8803677962
 30
0.0
 10
184.4578566698
 20
71.6186933542
 30
0.0
  0
SPLINE
  5
54D
100
AcDbEntity
  8
ASSI
100
AcDbSpline
 62
250
  6
CONTINUOUS
 70
0
 71
3
 72
9
 73
5
 74
0
 42
0.0000001
 43
0.0000001
 44
0.0000000001
 40
0.0
 40
0.0
 40
0.0
 40
0.0
 40
0.2499465461
 40
1.0
 40
1.0
 40
1.0
 40
1.0
 10
184.9577805174
 20
112.6419525184
 30
0.0
 10
184.955331043
 20
109.2257890453
 30
0.0
 10
184.9479852151
 20
95.5582111604
 30
0.0
 10
184.9504299976
 20
81.8906280076
 30
0.0
 10
184.9577805174
 20
71.6392152447
 30
0.0
  0
SPLINE
  5
54E
100
AcDbEntity
  8
ASSI
100
AcDbSpline
 62
250
  6
CONTINUOUS
 70
0
 71
3
 72
11
 73
7
 74
0
 42
0.0000001
 43
0.0000001
 44
0.0000000001
 40
0.0
 40
0.0
 40
0.0
 40
0.0
 40
0.2498595446
 40
0.4998010773
 40
0.749859007
 40
1.0
 40
1.0
 40
1.0
 40
1.0
 10
162.9014151511
 20
70.681629491
 30
0.0
 10
162.9014745258
 20
70.6167038198
 30
0.0
 10
162.9275894121
 20
70.4854265562
 30
0.0
 10
163.0389329295
 20
70.3195966162
 30
0.0
 10
163.2049629539
 20
70.2084349455
 30
0.0
 10
163.3363401933
 20
70.1823740204
 30
0.0
 10
163.4013389986
 20
70.1823147235
 30
0.0
  0
SPLINE
  5
54F
100
AcDbEntity
  8
ASSI
100
AcDbSpline
 62
250
  6
CONTINUOUS
 70
0
 71
3
 72
18
 73
14
 74
0
 42
0.0000001
 43
0.0000001
 44
0.0000000001
 40
0.0
 40
0.0
 40
0.0
 40
0.0
 40
0.0095497449
 40
0.0278612538
 40
0.0548141564
 40
0.0901744229
 40
0.1336467244
 40
0.1848664261
 40
0.3087241061
 40
0.4575492032
 40
0.6262598913
 40
0.8091761864
 40
1.0
 40
1.0
 40
1.0
 40
1.0
 10
163.4013389987
 20
70.1823147237
 30
0.0
 10
163.4023292085
 20
70.1867794043
 30
0.0
 10
163.4032337578
 20
70.2001575495
 30
0.0
 10
163.4048804686
 20
70.226309038
 30
0.0
 10
163.4062467837
 20
70.2649203812
 30
0.0
 10
163.407738047
 20
70.3155468467
 30
0.0
 10
163.4091286253
 20
70.3778147456
 30
0.0
 10
163.411046222
 20
70.4824544648
 30
0.0
 10
163.4131019115
 20
70.6375527959
 30
0.0
 10
163.4150706853
 20
70.8489174669
 30
0.0
 10
163.4165704498
 20
71.0885691587
 30
0.0
 10
163.417547453
 20
71.3483356898
 30
0.0
 10
163.4178217988
 20
71.5273118815
 30
0.0
 10
163.4178658275
 20
71.6186933542
 30
0.0
  0
SPLINE
  5
550
100
AcDbEntity
  8
ASSI
100
AcDbSpline
 62
250
  6
CONTINUOUS
 70
0
 71
3
 72
18
 73
14
 74
0
 42
0.0000001
 43
0.0000001
 44
0.0000000001
 40
0.0
 40
0.0
 40
0.0
 40
0.0
 40
0.0096300842
 40
0.0279743065
 40
0.0549461394
 40
0.0903182519
 40
0.1337942352
 40
0.1850096282
 40
0.3088489011
 40
0.4576498739
 40
0.6263306749
 40
0.8092123804
 40
1.0
 40
1.0
 40
1.0
 40
1.0
 10
162.9014151511
 20
70.681629491
 30
0.0
 10
162.9023841473
 20
70.6845479472
 30
0.0
 10
162.9033228146
 20
70.6935244695
 30
0.0
 10
162.9049477881
 20
70.7109309324
 30
0.0
 10
162.9063261952
 20
70.7366956793
 30
0.0
 10
162.9078128824
 20
70.7704401018
 30
0.0
 10
162.9092051529
 20
70.8119548676
 30
0.0
 10
162.9111218294
 20
70.8817085391
 30
0.0
 10
162.9131780278
 20
70.985105679
 30
0.0
 10
162.9151466388
 20
71.1260161398
 30
0.0
 10
162.916646335
 20
71.2857878326
 30
0.0
 10
162.9176236102
 20
71.4589707039
 30
0.0
 10
162.9178980808
 20
71.5782922096
 30
0.0
 10
162.91794198
 20
71.6392152447
 30
0.0
  0
SPLINE
  5
551
100
AcDbEntity
  8
ASSI
100
AcDbSpline
 62
250
  6
CONTINUOUS
 70
0
 71
3
 72
11
 73
7
 74
0
 42
0.0000001
 43
0.0000001
 44
0.0000000001
 40
0.0
 40
0.0
 40
0.0
 40
0.0
 40
0.2498595749
 40
0.4998011133
 40
0.7498590316
 40
1.0
 40
1.0
 40
1.0
 40
1.0
 10
162.9014151511
 20
113.5995382721
 30
0.0
 10
162.9014745258
 20
113.6644639512
 30
0.0
 10
162.9275894161
 20
113.7957412251
 30
0.0
 10
163.0389329471
 20
113.9615711646
 30
0.0
 10
163.2049629701
 20
114.0727328218
 30
0.0
 10
163.3363401997
 20
114.0987937427
 30
0.0
 10
163.4013389987
 20
114.0988530395
 30
0.0
  0
SPLINE
  5
552
100
AcDbEntity
  8
ASSI
100
AcDbSpline
 62
250
  6
CONTINUOUS
 70
0
 71
3
 72
18
 73
14
 74
0
 42
0.0000001
 43
0.0000001
 44
0.0000000001
 40
0.0
 40
0.0
 40
0.0
 40
0.0
 40
0.1908237969
 40
0.3737400938
 40
0.5424507797
 40
0.6912758758
 40
0.8151335301
 40
0.8663532409
 40
0.9098256564
 40
0.9451859958
 40
0.9721386093
 40
0.9904496892
 40
1.0
 40
1.0
 40
1.0
 40
1.0
 10
163.4178658275
 20
112.662474409
 30
0.0
 10
163.4178218362
 20
112.7538558731
 30
0.0
 10
163.4175474857
 20
112.9328320568
 30
0.0
 10
163.416570345
 20
113.1925985776
 30
0.0
 10
163.4150707306
 20
113.4322502676
 30
0.0
 10
163.413102141
 20
113.6436149263
 30
0.0
 10
163.4110463845
 20
113.7987132452
 30
0.0
 10
163.4091287187
 20
113.9033530128
 30
0.0
 10
163.4077381429
 20
113.9656209969
 30
0.0
 10
163.4062470213
 20
114.0162474394
 30
0.0
 10
163.404880467
 20
114.0548584113
 30
0.0
 10
163.4032338117
 20
114.0810099387
 30
0.0
 10
163.4023286832
 20
114.0943879648
 30
0.0
 10
163.4013389987
 20
114.0988530395
 30
0.0
  0
SPLINE
  5
553
100
AcDbEntity
  8
ASSI
100
AcDbSpline
 62
250
  6
CONTINUOUS
 70
0
 71
3
 72
18
 73
14
 74
0
 42
0.0000001
 43
0.0000001
 44
0.0000000001
 40
0.0
 40
0.0
 40
0.0
 40
0.0
 40
0.1907872675
 40
0.3736678453
 40
0.5423494054
 40
0.6911507522
 40
0.8149910977
 40
0.8662076776
 40
0.9096840064
 40
0.9450553931
 40
0.9720256055
 40
0.990368482
 40
1.0
 40
1.0
 40
1.0
 40
1.0
 10
162.91794198
 20
112.6419525184
 30
0.0
 10
162.9178981223
 20
112.7028754404
 30
0.0
 10
162.9176236165
 20
112.822196472
 30
0.0
 10
162.9166462713
 20
112.9953791105
 30
0.0
 10
162.9151466302
 20
113.1551508027
 30
0.0
 10
162.9131780392
 20
113.2960619683
 30
0.0
 10
162.9111218046
 20
113.3994599428
 30
0.0
 10
162.9092051961
 20
113.469214454
 30
0.0
 10
162.9078129037
 20
113.5107294617
 30
0.0
 10
162.9063263129
 20
113.5444732884
 30
0.0
 10
162.9049476448
 20
113.5702367425
 30
0.0
 10
162.9033230716
 20
113.5876429388
 30
0.0
 10
162.9023836449
 20
113.5966191669
 30
0.0
 10
162.9014151511
 20
113.5995382721
 30
0.0
  0
SPLINE
  5
554
100
AcDbEntity
  8
ASSI
100
AcDbSpline
 62
250
  6
CONTINUOUS
 70
0
 71
3
 72
18
 73
14
 74
0
 42
0.0000001
 43
0.0000001
 44
0.0000000001
 40
0.0
 40
0.0
 40
0.0
 40
0.0
 40
0.007525821
 40
0.023732568
 40
0.0489139041
 40
0.0829815299
 40
0.1256238589
 40
0.1764368431
 40
0.3007545571
 40
0.4512088467
 40
0.6222531014
 40
0.8076971114
 40
1.0
 40
1.0
 40
1.0
 40
1.0
 10
162.9179419801
 20
112.6419525184
 30
0.0
 10
162.9184342362
 20
112.6431096518
 30
0.0
 10
162.9228418273
 20
112.6444926643
 30
0.0
 10
162.9302909256
 20
112.6463380429
 30
0.0
 10
162.9430504384
 20
112.6481152237
 30
0.0
 10
162.9598643486
 20
112.6499422943
 30
0.0
 10
162.9811443997
 20
112.6516938486
 30
0.0
 10
163.0174336859
 20
112.6541035228
 30
0.0
 10
163.0717907831
 20
112.6566794052
 30
0.0
 10
163.1462378902
 20
112.6591373547
 30
0.0
 10
163.2309257968
 20
112.66098715
 30
0.0
 10
163.3226161634
 20
112.6621561783
 30
0.0
 10
163.3857340072
 20
112.6624507053
 30
0.0
 10
163.4178658275
 20
112.6624737042
 30
0.0
  0
SPLINE
  5
555
100
AcDbEntity
  8
ASSI
100
AcDbSpline
 62
250
  6
CONTINUOUS
 70
0
 71
3
 72
18
 73
14
 74
0
 42
0.0000001
 43
0.0000001
 44
0.0000000001
 40
0.0
 40
0.0
 40
0.0
 40
0.0
 40
0.0096315184
 40
0.0279743946
 40
0.0549446067
 40
0.0903159935
 40
0.1337923224
 40
0.1850089023
 40
0.3088492478
 40
0.4576505946
 40
0.6263321548
 40
0.8092127325
 40
1.0
 40
1.0
 40
1.0
 40
1.0
 10
184.9743073463
 20
113.5995382721
 30
0.0
 10
184.9733388526
 20
113.5966191667
 30
0.0
 10
184.9723994257
 20
113.5876429387
 30
0.0
 10
184.9707748526
 20
113.5702367423
 30
0.0
 10
184.9693961844
 20
113.5444732885
 30
0.0
 10
184.9679095937
 20
113.5107294618
 30
0.0
 10
184.9665173012
 20
113.469214454
 30
0.0
 10
184.9646006928
 20
113.3994599429
 30
0.0
 10
184.9625444581
 20
113.2960619683
 30
0.0
 10
184.9605758672
 20
113.1551508027
 30
0.0
 10
184.9590762261
 20
112.9953791105
 30
0.0
 10
184.9580988808
 20
112.822196472
 30
0.0
 10
184.9578243751
 20
112.7028754404
 30
0.0
 10
184.9577805174
 20
112.6419525184
 30
0.0
  0
SPLINE
  5
556
100
AcDbEntity
  8
ASSI
100
AcDbSpline
 62
250
  6
CONTINUOUS
 70
0
 71
3
 72
18
 73
14
 74
0
 42
0.0000001
 43
0.0000001
 44
0.0000000001
 40
0.0
 40
0.0
 40
0.0
 40
0.0
 40
0.0075238999
 40
0.0237286553
 40
0.0489082155
 40
0.0829743428
 40
0.1256154838
 40
0.1764276135
 40
0.3007446916
 40
0.4511997863
 40
0.6222461795
 40
0.8076933729
 40
1.0
 40
1.0
 40
1.0
 40
1.0
 10
162.91794198
 20
71.6392152447
 30
0.0
 10
162.9184335047
 20
71.6380581485
 30
0.0
 10
162.92284091
 20
71.6366748294
 30
0.0
 10
162.9302885881
 20
71.6348296575
 30
0.0
 10
162.9430474678
 20
71.6330523408
 30
0.0
 10
162.9598605234
 20
71.6312252698
 30
0.0
 10
162.9811400314
 20
71.6294736487
 30
0.0
 10
163.0174288648
 20
71.6270638938
 30
0.0
 10
163.0717858872
 20
71.6244879113
 30
0.0
 10
163.1462334149
 20
71.6220298637
 30
0.0
 10
163.2309223945
 20
71.6201799849
 30
0.0
 10
163.322614327
 20
71.6190108994
 30
0.0
 10
163.3857333639
 20
71.6187163557
 30
0.0
 10
163.4178658275
 20
71.6186933544
 30
0.0
  0
SPLINE
  5
557
100
AcDbEntity
  8
ASSI
100
AcDbSpline
 62
250
  6
CONTINUOUS
 70
0
 71
3
 72
9
 73
5
 74
0
 42
0.0000001
 43
0.0000001
 44
0.0000000001
 40
0.0
 40
0.0
 40
0.0
 40
0.0
 40
0.249946546
 40
1.0
 40
1.0
 40
1.0
 40
1.0
 10
163.4178658275
 20
71.6186933542
 30
0.0
 10
163.4203153024
 20
75.0382764114
 30
0.0
 10
163.4276611294
 20
88.7195355578
 30
0.0
 10
163.4252163461
 20
102.4007999669
 30
0.0
 10
163.4178658275
 20
112.662474409
 30
0.0
  0
SPLINE
  5
558
100
AcDbEntity
  8
ASSI
100
AcDbSpline
 62
250
  6
CONTINUOUS
 70
0
 71
3
 72
11
 73
7
 74
0
 42
0.0000001
 43
0.0000001
 44
0.0000000001
 40
0.0
 40
0.0
 40
0.0
 40
0.0
 40
0.2498595544
 40
0.4998010891
 40
0.7498590152
 40
1.0
 40
1.0
 40
1.0
 40
1.0
 10
184.9743073463
 20
113.5995382721
 30
0.0
 10
184.9742479715
 20
113.6644639459
 30
0.0
 10
184.9481330837
 20
113.7957412127
 30
0.0
 10
184.8367895616
 20
113.9615711523
 30
0.0
 10
184.6707595379
 20
114.0727328186
 30
0.0
 10
184.5393823019
 20
114.0987937426
 30
0.0
 10
184.4743834987
 20
114.0988530396
 30
0.0
  0
SPLINE
  5
559
100
AcDbEntity
  8
ASSI
100
AcDbSpline
 62
250
  6
CONTINUOUS
 70
0
 71
3
 72
18
 73
14
 74
0
 42
0.0000001
 43
0.0000001
 44
0.0000000001
 40
0.0
 40
0.0
 40
0.0
 40
0.0
 40
0.0095503108
 40
0.0278613907
 40
0.0548140042
 40
0.0901743436
 40
0.1336467591
 40
0.1848664699
 40
0.3087241242
 40
0.4575492204
 40
0.6262599062
 40
0.8091762031
 40
1.0
 40
1.0
 40
1.0
 40
1.0
 10
184.4743834987
 20
114.0988530395
 30
0.0
 10
184.4733938141
 20
114.0943879648
 30
0.0
 10
184.4724886856
 20
114.0810099386
 30
0.0
 10
184.4708420304
 20
114.0548584113
 30
0.0
 10
184.4694754761
 20
114.0162474394
 30
0.0
 10
184.4679843545
 20
113.9656209969
 30
0.0
 10
184.4665937787
 20
113.9033530128
 30
0.0
 10
184.4646761129
 20
113.7987132452
 30
0.0
 10
184.4626203564
 20
113.6436149263
 30
0.0
 10
184.4606517667
 20
113.4322502676
 30
0.0
 10
184.4591521524
 20
113.1925985776
 30
0.0
 10
184.4581750116
 20
112.9328320568
 30
0.0
 10
184.4579006612
 20
112.7538558731
 30
0.0
 10
184.4578566698
 20
112.662474409
 30
0.0
  0
SPLINE
  5
55A
100
AcDbEntity
  8
ASSI
100
AcDbSpline
 62
250
  6
CONTINUOUS
 70
0
 71
3
 72
9
 73
5
 74
0
 42
0.0000001
 43
0.0000001
 44
0.0000000001
 40
0.0
 40
0.0
 40
0.0
 40
0.0
 40
0.2499465461
 40
1.0
 40
1.0
 40
1.0
 40
1.0
 10
162.91794198
 20
71.6392152447
 30
0.0
 10
162.9203914548
 20
75.0553787179
 30
0.0
 10
162.9277372818
 20
88.7229566028
 30
0.0
 10
162.9252924985
 20
102.3905397556
 30
0.0
 10
162.91794198
 20
112.6419525184
 30
0.0
  0
SPLINE
  5
55B
100
AcDbEntity
  8
ASSI
100
AcDbSpline
 62
250
  6
CONTINUOUS
 70
0
 71
3
 72
11
 73
7
 74
0
 42
0.0000001
 43
0.0000001
 44
0.0000000001
 40
0.0
 40
0.0
 40
0.0
 40
0.0
 40
0.2498595749
 40
0.4998011133
 40
0.7498590316
 40
1.0
 40
1.0
 40
1.0
 40
1.0
 10
184.9743073463
 20
70.681629491
 30
0.0
 10
184.9742479716
 20
70.6167038119
 30
0.0
 10
184.9481330812
 20
70.4854265381
 30
0.0
 10
184.8367895502
 20
70.3195965986
 30
0.0
 10
184.6707595273
 20
70.2084349413
 30
0.0
 10
184.5393822977
 20
70.1823740204
 30
0.0
 10
184.4743834987
 20
70.1823147237
 30
0.0
  0
SPLINE
  5
55C
100
AcDbEntity
  8
ASSI
100
AcDbSpline
 62
250
  6
CONTINUOUS
 70
0
 71
3
 72
18
 73
14
 74
0
 42
0.0000001
 43
0.0000001
 44
0.0000000001
 40
0.0
 40
0.0
 40
0.0
 40
0.0
 40
0.0075252151
 40
0.0237313254
 40
0.0489120866
 40
0.0829792204
 40
0.1256211529
 40
0.1764338455
 40
0.3007513232
 40
0.4512058541
 40
0.6222508023
 40
0.8076958654
 40
1.0
 40
1.0
 40
1.0
 40
1.0
 10
184.9577805173
 20
71.6392152447
 30
0.0
 10
184.9572884925
 20
71.6380581228
 30
0.0
 10
184.9528809638
 20
71.6366750094
 30
0.0
 10
184.9454323165
 20
71.6348296949
 30
0.0
 10
184.9326730115
 20
71.633052468
 30
0.0
 10
184.9158593801
 20
71.6312253953
 30
0.0
 10
184.894579511
 20
71.6294738176
 30
0.0
 10
184.8582903808
 20
71.6270641151
 30
0.0
 10
184.8039333187
 20
71.6244881983
 30
0.0
 10
184.7294860833
 20
71.622030216
 30
0.0
 10
184.6447978283
 20
71.6201803941
 30
0.0
 10
184.5531069445
 20
71.6190113494
 30
0.0
 10
184.4899887045
 20
71.6187168198
 30
0.0
 10
184.4578566698
 20
71.6186938218
 30
0.0
  0
SPLINE
  5
55D
100
AcDbEntity
  8
ASSI
100
AcDbSpline
 62
250
  6
CONTINUOUS
 70
0
 71
3
 72
18
 73
14
 74
0
 42
0.0000001
 43
0.0000001
 44
0.0000000001
 40
0.0
 40
0.0
 40
0.0
 40
0.0
 40
0.1908238136
 40
0.3737401087
 40
0.5424507968
 40
0.6912758939
 40
0.8151335739
 40
0.8663532756
 40
0.9098255771
 40
0.9451858436
 40
0.9721387462
 40
0.990450255
 40
1.0
 40
1.0
 40
1.0
 40
1.0
 10
184.4578566698
 20
71.6186933542
 30
0.0
 10
184.4579006985
 20
71.5273118815
 30
0.0
 10
184.4581750443
 20
71.3483356898
 30
0.0
 10
184.4591520476
 20
71.0885691587
 30
0.0
 10
184.4606518121
 20
70.8489174669
 30
0.0
 10
184.4626205859
 20
70.6375527959
 30
0.0
 10
184.4646762753
 20
70.4824544648
 30
0.0
 10
184.466593872
 20
70.3778147456
 30
0.0
 10
184.4679844504
 20
70.3155468467
 30
0.0
 10
184.4694757136
 20
70.2649203812
 30
0.0
 10
184.4708420287
 20
70.2263090381
 30
0.0
 10
184.4724887396
 20
70.2001575496
 30
0.0
 10
184.473393289
 20
70.1867794044
 30
0.0
 10
184.4743834987
 20
70.1823147237
 30
0.0
  0
SPLINE
  5
55E
100
AcDbEntity
  8
268140580
100
AcDbSpline
 62
250
  6
CONTINUOUS
 70
0
 71
3
 72
19
 73
15
 74
0
 42
0.0000001
 43
0.0000001
 44
0.0000000001
 40
0.0
 40
0.0
 40
0.0
 40
0.0
 40
0.2035311206
 40
0.3532634613
 40
0.4228382098
 40
0.4841894182
 40
0.5228226031
 40
0.5376117908
 40
0.5424265978
 40
0.563876662
 40
0.6042449765
 40
0.6612609397
 40
0.8075609572
 40
1.0
 40
1.0
 40
1.0
 40
1.0
 10
163.205194414
 20
69.7411320677
 30
0.0
 10
163.2039184892
 20
69.741128701
 30
0.0
 10
163.2017140131
 20
69.741157139
 30
0.0
 10
163.1990333427
 20
69.7410527758
 30
0.0
 10
163.1973276256
 20
69.7409933086
 30
0.0
 10
163.196143176
 20
69.7409824528
 30
0.0
 10
163.1956654769
 20
69.7409190212
 30
0.0
 10
163.1950046591
 20
69.7409144004
 30
0.0
 10
163.1952776054
 20
69.7407401637
 30
0.0
 10
163.1956781398
 20
69.7407941653
 30
0.0
 10
163.1964321014
 20
69.7406942299
 30
0.0
 10
163.1979527813
 20
69.7406736128
 30
0.0
 10
163.2004375324
 20
69.7405979363
 30
0.0
 10
163.2025596392
 20
69.7405909222
 30
0.0
 10
163.2037660247
 20
69.7405865325
 30
0.0
  0
LINE
  5
55F
100
AcDbEntity
  8
268140580
100
AcDbLine
 62
250
  6
CONTINUOUS
 10
184.6705280833
 20
114.5400356955
 11
184.6652900397
 21
114.5403097885
  0
LINE
  5
560
100
AcDbEntity
  8
268140580
100
AcDbLine
 62
250
  6
CONTINUOUS
 10
163.205194414
 20
114.5400356955
 11
163.2104324577
 21
114.5403097885
  0
SPLINE
  5
561
100
AcDbEntity
  8
268140580
100
AcDbSpline
 62
250
  6
CONTINUOUS
 70
0
 71
3
 72
9
 73
5
 74
0
 42
0.0000001
 43
0.0000001
 44
0.0000000001
 40
0.0
 40
0.0
 40
0.0
 40
0.0
 40
0.5392317388
 40
1.0
 40
1.0
 40
1.0
 40
1.0
 10
184.6705280833
 20
69.7405838816
 30
0.0
 10
184.6738881472
 20
69.7405838816
 30
0.0
 10
184.6868321264
 20
69.7407545066
 30
0.0
 10
184.6748683612
 20
69.7411331167
 30
0.0
 10
184.6719972199
 20
69.7411315033
 30
0.0
  0
LINE
  5
562
100
AcDbEntity
  8
268140580
100
AcDbLine
 62
250
  6
CONTINUOUS
 10
184.6705280833
 20
69.7411320677
 11
184.6652900397
 21
69.7408579746
  0
LINE
  5
563
100
AcDbEntity
  8
268140580
100
AcDbLine
 62
250
  6
CONTINUOUS
 10
163.205194414
 20
69.7411320677
 11
163.2104324577
 21
69.7408579746
  0
SPLINE
  5
564
100
AcDbEntity
  8
268140580
100
AcDbSpline
 62
250
  6
CONTINUOUS
 70
0
 71
3
 72
13
 73
9
 74
0
 42
0.0000001
 43
0.0000001
 44
0.0000000001
 40
0.0
 40
0.0
 40
0.0
 40
0.0
 40
0.1163060954
 40
0.2340374848
 40
0.3543787316
 40
0.4780387139
 40
0.7344054024
 40
1.0
 40
1.0
 40
1.0
 40
1.0
 10
165.6878612487
 20
68.2962463143
 30
0.0
 10
165.6878612487
 20
68.3104169486
 30
0.0
 10
165.6845899939
 20
68.3390349755
 30
0.0
 10
165.670117609
 20
68.3800705021
 30
0.0
 10
165.6466874545
 20
68.4177999759
 30
0.0
 10
165.6043807912
 20
68.4622071974
 30
0.0
 10
165.5343366131
 20
68.5020135972
 30
0.0
 10
165.4702210653
 20
68.5127526652
 30
0.0
 10
165.4378612487
 20
68.5127526652
 30
0.0
  0
SPLINE
  5
565
100
AcDbEntity
  8
268140580
100
AcDbSpline
 62
250
  6
CONTINUOUS
 70
0
 71
3
 72
13
 73
9
 74
0
 42
0.0000001
 43
0.0000001
 44
0.0000000001
 40
0.0
 40
0.0
 40
0.0
 40
0.0
 40
0.1163059017
 40
0.2340373992
 40
0.3543792462
 40
0.4780390904
 40
0.7344057545
 40
1.0
 40
1.0
 40
1.0
 40
1.0
 10
165.6878612487
 20
68.7292590162
 30
0.0
 10
165.6878612487
 20
68.7434296188
 30
0.0
 10
165.6845901291
 20
68.7720476364
 30
0.0
 10
165.670117633
 20
68.8130831755
 30
0.0
 10
165.646687302
 20
68.8508126336
 30
0.0
 10
165.6043800267
 20
68.8952192261
 30
0.0
 10
165.5343366762
 20
68.9350266438
 30
0.0
 10
165.470221004
 20
68.9457653671
 30
0.0
 10
165.4378612487
 20
68.9457653671
 30
0.0
  0
SPLINE
  5
566
100
AcDbEntity
  8
268140580
100
AcDbSpline
 62
250
  6
CONTINUOUS
 70
0
 71
3
 72
13
 73
9
 74
0
 42
0.0000001
 43
0.0000001
 44
0.0000000001
 40
0.0
 40
0.0
 40
0.0
 40
0.0
 40
0.2655945976
 40
0.5219612861
 40
0.6456212684
 40
0.7659625152
 40
0.8836939046
 40
1.0
 40
1.0
 40
1.0
 40
1.0
 10
163.5378612487
 20
68.5127526652
 30
0.0
 10
163.505501432
 20
68.5127526652
 30
0.0
 10
163.4413858843
 20
68.5020135972
 30
0.0
 10
163.3713417062
 20
68.4622071974
 30
0.0
 10
163.3290350429
 20
68.4177999759
 30
0.0
 10
163.3056048883
 20
68.3800705021
 30
0.0
 10
163.2911325035
 20
68.3390349755
 30
0.0
 10
163.2878612487
 20
68.3104169486
 30
0.0
 10
163.2878612487
 20
68.2962463143
 30
0.0
  0
SPLINE
  5
567
100
AcDbEntity
  8
268140580
100
AcDbSpline
 62
250
  6
CONTINUOUS
 70
0
 71
3
 72
13
 73
9
 74
0
 42
0.0000001
 43
0.0000001
 44
0.0000000001
 40
0.0
 40
0.0
 40
0.0
 40
0.0
 40
0.2655942455
 40
0.5219609096
 40
0.6456207538
 40
0.7659626008
 40
0.8836940984
 40
1.0
 40
1.0
 40
1.0
 40
1.0
 10
163.5378612487
 20
68.9457653671
 30
0.0
 10
163.5055014934
 20
68.9457653671
 30
0.0
 10
163.4413858212
 20
68.9350266438
 30
0.0
 10
163.3713424706
 20
68.8952192261
 30
0.0
 10
163.3290351954
 20
68.8508126335
 30
0.0
 10
163.3056048644
 20
68.8130831755
 30
0.0
 10
163.2911323683
 20
68.7720476364
 30
0.0
 10
163.2878612487
 20
68.7434296188
 30
0.0
 10
163.2878612487
 20
68.7292590162
 30
0.0
  0
SPLINE
  5
568
100
AcDbEntity
  8
268140580
100
AcDbSpline
 62
250
  6
CONTINUOUS
 70
0
 71
3
 72
13
 73
9
 74
0
 42
0.0000001
 43
0.0000001
 44
0.0000000001
 40
0.0
 40
0.0
 40
0.0
 40
0.0
 40
0.1163060954
 40
0.2340374848
 40
0.3543787316
 40
0.4780387139
 40
0.7344054024
 40
1.0
 40
1.0
 40
1.0
 40
1.0
 10
184.5878612487
 20
68.2962463143
 30
0.0
 10
184.5878612487
 20
68.3104169486
 30
0.0
 10
184.5845899939
 20
68.3390349755
 30
0.0
 10
184.570117609
 20
68.3800705021
 30
0.0
 10
184.5466874545
 20
68.4177999759
 30
0.0
 10
184.5043807912
 20
68.4622071974
 30
0.0
 10
184.4343366131
 20
68.5020135972
 30
0.0
 10
184.3702210653
 20
68.5127526652
 30
0.0
 10
184.3378612487
 20
68.5127526652
 30
0.0
  0
SPLINE
  5
569
100
AcDbEntity
  8
268140580
100
AcDbSpline
 62
250
  6
CONTINUOUS
 70
0
 71
3
 72
13
 73
9
 74
0
 42
0.0000001
 43
0.0000001
 44
0.0000000001
 40
0.0
 40
0.0
 40
0.0
 40
0.0
 40
0.1163059017
 40
0.2340373992
 40
0.3543792462
 40
0.4780390904
 40
0.7344057545
 40
1.0
 40
1.0
 40
1.0
 40
1.0
 10
184.5878612487
 20
68.7292590162
 30
0.0
 10
184.5878612487
 20
68.7434296188
 30
0.0
 10
184.5845901291
 20
68.7720476364
 30
0.0
 10
184.570117633
 20
68.8130831755
 30
0.0
 10
184.546687302
 20
68.8508126336
 30
0.0
 10
184.5043800267
 20
68.8952192261
 30
0.0
 10
184.4343366762
 20
68.9350266438
 30
0.0
 10
184.370221004
 20
68.9457653671
 30
0.0
 10
184.3378612487
 20
68.9457653671
 30
0.0
  0
SPLINE
  5
56A
100
AcDbEntity
  8
268140580
100
AcDbSpline
 62
250
  6
CONTINUOUS
 70
0
 71
3
 72
13
 73
9
 74
0
 42
0.0000001
 43
0.0000001
 44
0.0000000001
 40
0.0
 40
0.0
 40
0.0
 40
0.0
 40
0.2655945976
 40
0.5219612861
 40
0.6456212684
 40
0.7659625152
 40
0.8836939046
 40
1.0
 40
1.0
 40
1.0
 40
1.0
 10
182.4378612487
 20
68.5127526652
 30
0.0
 10
182.405501432
 20
68.5127526652
 30
0.0
 10
182.3413858843
 20
68.5020135972
 30
0.0
 10
182.2713417062
 20
68.4622071974
 30
0.0
 10
182.2290350429
 20
68.4177999759
 30
0.0
 10
182.2056048883
 20
68.3800705021
 30
0.0
 10
182.1911325035
 20
68.3390349755
 30
0.0
 10
182.1878612487
 20
68.3104169486
 30
0.0
 10
182.1878612487
 20
68.2962463143
 30
0.0
  0
SPLINE
  5
56B
100
AcDbEntity
  8
268140580
100
AcDbSpline
 62
250
  6
CONTINUOUS
 70
0
 71
3
 72
13
 73
9
 74
0
 42
0.0000001
 43
0.0000001
 44
0.0000000001
 40
0.0
 40
0.0
 40
0.0
 40
0.0
 40
0.2655942455
 40
0.5219609096
 40
0.6456207538
 40
0.7659626008
 40
0.8836940984
 40
1.0
 40
1.0
 40
1.0
 40
1.0
 10
182.4378612487
 20
68.9457653671
 30
0.0
 10
182.4055014934
 20
68.9457653671
 30
0.0
 10
182.3413858212
 20
68.9350266438
 30
0.0
 10
182.2713424706
 20
68.8952192261
 30
0.0
 10
182.2290351954
 20
68.8508126335
 30
0.0
 10
182.2056048644
 20
68.8130831755
 30
0.0
 10
182.1911323683
 20
68.7720476364
 30
0.0
 10
182.1878612487
 20
68.7434296188
 30
0.0
 10
182.1878612487
 20
68.7292590162
 30
0.0
  0
SPLINE
  5
56C
100
AcDbEntity
  8
268140580
100
AcDbSpline
 62
250
  6
CONTINUOUS
 70
0
 71
3
 72
13
 73
9
 74
0
 42
0.0000001
 43
0.0000001
 44
0.0000000001
 40
0.0
 40
0.0
 40
0.0
 40
0.0
 40
0.1163059025
 40
0.2340374008
 40
0.3543792483
 40
0.4780390927
 40
0.734405756
 40
1.0
 40
1.0
 40
1.0
 40
1.0
 10
184.5878612487
 20
115.551908747
 30
0.0
 10
184.5878612487
 20
115.5377381442
 30
0.0
 10
184.5845901291
 20
115.5091201264
 30
0.0
 10
184.5701176328
 20
115.4680845871
 30
0.0
 10
184.5466873015
 20
115.430355129
 30
0.0
 10
184.5043800261
 20
115.3859485366
 30
0.0
 10
184.4343366757
 20
115.3461411192
 30
0.0
 10
184.3702210038
 20
115.335402396
 30
0.0
 10
184.3378612487
 20
115.335402396
 30
0.0
  0
SPLINE
  5
56D
100
AcDbEntity
  8
268140580
100
AcDbSpline
 62
250
  6
CONTINUOUS
 70
0
 71
3
 72
13
 73
9
 74
0
 42
0.0000001
 43
0.0000001
 44
0.0000000001
 40
0.0
 40
0.0
 40
0.0
 40
0.0
 40
0.1163062618
 40
0.2340376303
 40
0.3543788675
 40
0.4780388243
 40
0.7344054563
 40
1.0
 40
1.0
 40
1.0
 40
1.0
 10
184.5878612487
 20
115.9849214489
 30
0.0
 10
184.5878612487
 20
115.9707507943
 30
0.0
 10
184.5845899912
 20
115.9421327483
 30
0.0
 10
184.5701175822
 20
115.9010972126
 30
0.0
 10
184.5466874246
 20
115.8633677493
 30
0.0
 10
184.5043807598
 20
115.8189605444
 30
0.0
 10
184.4343365931
 20
115.7791541611
 30
0.0
 10
184.3702210588
 20
115.7684150979
 30
0.0
 10
184.3378612487
 20
115.7684150979
 30
0.0
  0
SPLINE
  5
56E
100
AcDbEntity
  8
268140580
100
AcDbSpline
 62
250
  6
CONTINUOUS
 70
0
 71
3
 72
9
 73
5
 74
0
 42
0.0000001
 43
0.0000001
 44
0.0000000001
 40
0.0
 40
0.0
 40
0.0
 40
0.0
 40
0.53829089
 40
1.0
 40
1.0
 40
1.0
 40
1.0
 10
163.205194414
 20
114.5405838816
 30
0.0
 10
163.2018545068
 20
114.5405838816
 30
0.0
 10
163.1889774125
 20
114.5404061084
 30
0.0
 10
163.2009019521
 20
114.5400401317
 30
0.0
 10
163.203766695
 20
114.5400376732
 30
0.0
  0
LINE
  5
56F
100
AcDbEntity
  8
268140580
100
AcDbLine
 62
250
  6
CONTINUOUS
 10
163.203766695
 20
114.5400376732
 11
163.205194414
 21
114.5400356955
  0
SPLINE
  5
570
100
AcDbEntity
  8
268140580
100
AcDbSpline
 62
250
  6
CONTINUOUS
 70
0
 71
3
 72
13
 73
9
 74
0
 42
0.0000001
 43
0.0000001
 44
0.0000000001
 40
0.0
 40
0.0
 40
0.0
 40
0.0
 40
0.1163060954
 40
0.2340374848
 40
0.3543787316
 40
0.4780387139
 40
0.7344054024
 40
1.0
 40
1.0
 40
1.0
 40
1.0
 10
182.1878612487
 20
115.9849214489
 30
0.0
 10
182.1878612487
 20
115.9707508146
 30
0.0
 10
182.1911325035
 20
115.9421327876
 30
0.0
 10
182.2056048883
 20
115.9010972611
 30
0.0
 10
182.2290350429
 20
115.8633677873
 30
0.0
 10
182.2713417062
 20
115.8189605657
 30
0.0
 10
182.3413858843
 20
115.779154166
 30
0.0
 10
182.405501432
 20
115.7684150979
 30
0.0
 10
182.4378612487
 20
115.7684150979
 30
0.0
  0
SPLINE
  5
571
100
AcDbEntity
  8
268140580
100
AcDbSpline
 62
250
  6
CONTINUOUS
 70
0
 71
3
 72
13
 73
9
 74
0
 42
0.0000001
 43
0.0000001
 44
0.0000000001
 40
0.0
 40
0.0
 40
0.0
 40
0.0
 40
0.1163059016
 40
0.2340373992
 40
0.3543792462
 40
0.4780390904
 40
0.7344057545
 40
1.0
 40
1.0
 40
1.0
 40
1.0
 10
182.1878612487
 20
115.551908747
 30
0.0
 10
182.1878612487
 20
115.5377381443
 30
0.0
 10
182.1911323683
 20
115.5091201268
 30
0.0
 10
182.2056048644
 20
115.4680845877
 30
0.0
 10
182.2290351954
 20
115.4303551296
 30
0.0
 10
182.2713424706
 20
115.3859485371
 30
0.0
 10
182.3413858212
 20
115.3461411193
 30
0.0
 10
182.4055014934
 20
115.335402396
 30
0.0
 10
182.4378612487
 20
115.335402396
 30
0.0
  0
SPLINE
  5
572
100
AcDbEntity
  8
268140580
100
AcDbSpline
 62
250
  6
CONTINUOUS
 70
0
 71
3
 72
13
 73
9
 74
0
 42
0.0000001
 43
0.0000001
 44
0.0000000001
 40
0.0
 40
0.0
 40
0.0
 40
0.0
 40
0.1163059025
 40
0.2340374008
 40
0.3543792483
 40
0.4780390927
 40
0.734405756
 40
1.0
 40
1.0
 40
1.0
 40
1.0
 10
165.6878612487
 20
115.551908747
 30
0.0
 10
165.6878612487
 20
115.5377381442
 30
0.0
 10
165.6845901291
 20
115.5091201264
 30
0.0
 10
165.6701176328
 20
115.4680845871
 30
0.0
 10
165.6466873015
 20
115.430355129
 30
0.0
 10
165.6043800261
 20
115.3859485366
 30
0.0
 10
165.5343366757
 20
115.3461411192
 30
0.0
 10
165.4702210038
 20
115.335402396
 30
0.0
 10
165.4378612487
 20
115.335402396
 30
0.0
  0
SPLINE
  5
573
100
AcDbEntity
  8
268140580
100
AcDbSpline
 62
250
  6
CONTINUOUS
 70
0
 71
3
 72
13
 73
9
 74
0
 42
0.0000001
 43
0.0000001
 44
0.0000000001
 40
0.0
 40
0.0
 40
0.0
 40
0.0
 40
0.1163062618
 40
0.2340376303
 40
0.3543788675
 40
0.4780388243
 40
0.7344054563
 40
1.0
 40
1.0
 40
1.0
 40
1.0
 10
165.6878612487
 20
115.9849214489
 30
0.0
 10
165.6878612487
 20
115.9707507943
 30
0.0
 10
165.6845899912
 20
115.9421327483
 30
0.0
 10
165.6701175822
 20
115.9010972126
 30
0.0
 10
165.6466874246
 20
115.8633677493
 30
0.0
 10
165.6043807598
 20
115.8189605444
 30
0.0
 10
165.5343365931
 20
115.7791541611
 30
0.0
 10
165.4702210588
 20
115.7684150979
 30
0.0
 10
165.4378612487
 20
115.7684150979
 30
0.0
  0
SPLINE
  5
574
100
AcDbEntity
  8
268140580
100
AcDbSpline
 62
250
  6
CONTINUOUS
 70
0
 71
3
 72
12
 73
8
 74
0
 42
0.0000001
 43
0.0000001
 44
0.0000000001
 40
0.0
 40
0.0
 40
0.0
 40
0.0
 40
0.3679408844
 40
0.4578903114
 40
0.5381296689
 40
0.6705494906
 40
1.0
 40
1.0
 40
1.0
 40
1.0
 10
184.6705280833
 20
114.5400356955
 30
0.0
 10
184.6728221441
 20
114.5400417751
 30
0.0
 10
184.6759275171
 20
114.5399677051
 30
0.0
 10
184.6788436215
 20
114.5402264097
 30
0.0
 10
184.681709625
 20
114.5403044095
 30
0.0
 10
184.6756003271
 20
114.5406462035
 30
0.0
 10
184.6740103808
 20
114.5405741656
 30
0.0
 10
184.6719563076
 20
114.5405813818
 30
0.0
  0
SPLINE
  5
575
100
AcDbEntity
  8
268140580
100
AcDbSpline
 62
250
  6
CONTINUOUS
 70
0
 71
3
 72
13
 73
9
 74
0
 42
0.0000001
 43
0.0000001
 44
0.0000000001
 40
0.0
 40
0.0
 40
0.0
 40
0.0
 40
0.1163060954
 40
0.2340374848
 40
0.3543787316
 40
0.4780387139
 40
0.7344054024
 40
1.0
 40
1.0
 40
1.0
 40
1.0
 10
163.2878612487
 20
115.9849214489
 30
0.0
 10
163.2878612487
 20
115.9707508146
 30
0.0
 10
163.2911325035
 20
115.9421327876
 30
0.0
 10
163.3056048883
 20
115.9010972611
 30
0.0
 10
163.3290350429
 20
115.8633677873
 30
0.0
 10
163.3713417062
 20
115.8189605657
 30
0.0
 10
163.4413858843
 20
115.779154166
 30
0.0
 10
163.505501432
 20
115.7684150979
 30
0.0
 10
163.5378612487
 20
115.7684150979
 30
0.0
  0
SPLINE
  5
576
100
AcDbEntity
  8
268140580
100
AcDbSpline
 62
250
  6
CONTINUOUS
 70
0
 71
3
 72
13
 73
9
 74
0
 42
0.0000001
 43
0.0000001
 44
0.0000000001
 40
0.0
 40
0.0
 40
0.0
 40
0.0
 40
0.1163059016
 40
0.2340373992
 40
0.3543792462
 40
0.4780390904
 40
0.7344057545
 40
1.0
 40
1.0
 40
1.0
 40
1.0
 10
163.2878612487
 20
115.551908747
 30
0.0
 10
163.2878612487
 20
115.5377381443
 30
0.0
 10
163.2911323683
 20
115.5091201268
 30
0.0
 10
163.3056048644
 20
115.4680845877
 30
0.0
 10
163.3290351954
 20
115.4303551296
 30
0.0
 10
163.3713424706
 20
115.3859485371
 30
0.0
 10
163.4413858212
 20
115.3461411193
 30
0.0
 10
163.5055014934
 20
115.335402396
 30
0.0
 10
163.5378612487
 20
115.335402396
 30
0.0
  0
ELLIPSE
  5
577
100
AcDbEntity
  8
0
100
AcDbEllipse
 62
250
  6
CONTINUOUS
 10
606.6635896314
 20
92.1405838816
 30
0.0
 11
0.0
 21
500.0
 31
0.0
 40
1.0
 41
1.5672963196
 42
1.5742963339
  0
ELLIPSE
  5
578
100
AcDbEntity
  8
INCISIONI_LASER
100
AcDbEllipse
 62
250
  6
CONTINUOUS
 10
131.6155496314
 20
108.0405838816
 30
0.0
 11
1.7999999246
 21
0.0
 31
0.0
 40
1.0
 41
3.086008478
 42
4.5025183792
  0
ELLIPSE
  5
579
100
AcDbEntity
  8
INCISIONI_LASER
100
AcDbEllipse
 62
250
  6
CONTINUOUS
 10
131.6155496314
 20
108.0405838816
 30
0.0
 11
0.0
 21
1.7999968808
 31
0.0
 40
1.0
 41
-2.9317216922
 42
-1.5152120571
  0
ELLIPSE
  5
57A
100
AcDbEntity
  8
INCISIONI_LASER
100
AcDbEllipse
 62
250
  6
CONTINUOUS
 10
120.6528326314
 20
87.5402948816
 30
0.0
 11
-0.0
 21
0.8893898871
 31
0.0
 40
1.0
 41
-1.1721130604
 42
1.5707963268
  0
ELLIPSE
  5
57B
100
AcDbEntity
  8
INCISIONI_LASER
100
AcDbEllipse
 62
250
  6
CONTINUOUS
 10
120.6528326314
 20
87.4597888816
 30
0.0
 11
0.352865
 21
0.0
 31
0.0
 40
1.0
 41
0.0
 42
3.1415926536
  0
ELLIPSE
  5
57C
100
AcDbEntity
  8
INCISIONI_LASER
100
AcDbEllipse
 62
250
  6
CONTINUOUS
 10
135.2446666314
 20
87.9258078816
 30
0.0
 11
0.9911548367
 21
0.0
 31
0.0
 40
1.0
 41
2.3322856063
 42
3.1415926536
  0
ELLIPSE
  5
57D
100
AcDbEntity
  8
INCISIONI_LASER
100
AcDbEllipse
 62
250
  6
CONTINUOUS
 10
132.0035896314
 20
87.3905838816
 30
0.0
 11
1.6849638592
 21
-0.0
 31
0.0
 40
1.0
 41
-2.2308799162
 42
-0.7037206227
  0
ELLIPSE
  5
57E
100
AcDbEntity
  8
INCISIONI_LASER
100
AcDbEllipse
 62
250
  6
CONTINUOUS
 10
132.0035896314
 20
87.3905838816
 30
0.0
 11
1.6849640451
 21
-0.0
 31
0.0
 40
1.0
 41
0.7037206227
 42
2.2308799162
  0
ELLIPSE
  5
57F
100
AcDbEntity
  8
INCISIONI_LASER
100
AcDbEllipse
 62
250
  6
CONTINUOUS
 10
132.0035896314
 20
87.3905838816
 30
0.0
 11
0.0
 21
2.249922
 31
0.0
 40
1.0
 41
0.0
 42
6.2831853072
  0
ELLIPSE
  5
580
100
AcDbEntity
  8
INCISIONI_LASER
100
AcDbEllipse
 62
250
  6
CONTINUOUS
 10
130.5703816314
 20
95.3405838816
 30
0.0
 11
0.0
 21
0.3452682862
 31
0.0
 40
1.0
 41
0.8726652887
 42
2.2689285851
  0
ELLIPSE
  5
581
100
AcDbEntity
  8
INCISIONI_LASER
100
AcDbEllipse
 62
250
  6
CONTINUOUS
 10
133.4254896314
 20
91.8735408816
 30
0.0
 11
0.3038353159
 21
-0.0
 31
0.0
 40
1.0
 41
-2.4434591247
 42
0.0
  0
ELLIPSE
  5
582
100
AcDbEntity
  8
INCISIONI_LASER
100
AcDbEllipse
 62
250
  6
CONTINUOUS
 10
133.4254896314
 20
98.8076268816
 30
0.0
 11
0.0
 21
0.303837
 31
0.0
 40
1.0
 41
-1.5707963268
 42
0.8726645574
  0
ELLIPSE
  5
583
100
AcDbEntity
  8
INCISIONI_LASER
100
AcDbEllipse
 62
250
  6
CONTINUOUS
 10
132.4583486314
 20
93.3518398816
 30
0.0
 11
0.0
 21
0.096675
 31
0.0
 40
1.0
 41
-4.7123889804
 42
-3.1415926536
  0
ELLIPSE
  5
584
100
AcDbEntity
  8
INCISIONI_LASER
100
AcDbEllipse
 62
250
  6
CONTINUOUS
 10
132.6931306314
 20
93.3518398816
 30
0.0
 11
-0.0
 21
0.096675
 31
0.0
 40
1.0
 41
-3.1415926536
 42
-1.5707963268
  0
ELLIPSE
  5
585
100
AcDbEntity
  8
INCISIONI_LASER
100
AcDbEllipse
 62
250
  6
CONTINUOUS
 10
132.8864806314
 20
94.4428868816
 30
0.0
 11
0.0
 21
0.096675
 31
0.0
 40
1.0
 41
-0.0
 42
1.5707963268
  0
ELLIPSE
  5
586
100
AcDbEntity
  8
INCISIONI_LASER
100
AcDbEllipse
 62
250
  6
CONTINUOUS
 10
133.1505876314
 20
94.4428868816
 30
0.0
 11
0.096676
 21
-0.0
 31
0.0
 40
1.0
 41
0.0
 42
1.5707963268
  0
ELLIPSE
  5
587
100
AcDbEntity
  8
INCISIONI_LASER
100
AcDbEllipse
 62
250
  6
CONTINUOUS
 10
133.1505876314
 20
94.8433978816
 30
0.0
 11
0.0
 21
0.096675
 31
0.0
 40
1.0
 41
-3.1415926536
 42
-1.5707963268
  0
ELLIPSE
  5
588
100
AcDbEntity
  8
INCISIONI_LASER
100
AcDbEllipse
 62
250
  6
CONTINUOUS
 10
132.4583486314
 20
94.8433978816
 30
0.0
 11
-0.0
 21
0.096675
 31
0.0
 40
1.0
 41
-4.7123889804
 42
-3.1415926536
  0
ELLIPSE
  5
589
100
AcDbEntity
  8
INCISIONI_LASER
100
AcDbEllipse
 62
250
  6
CONTINUOUS
 10
133.1505876314
 20
96.6742848816
 30
0.0
 11
0.096675061
 21
0.0
 31
0.0
 40
1.0
 41
-0.8726582989
 42
0.8726651601
  0
ELLIPSE
  5
58A
100
AcDbEntity
  8
INCISIONI_LASER
100
AcDbEllipse
 62
250
  6
CONTINUOUS
 10
131.6155496314
 20
103.6554738816
 30
0.0
 11
-0.0
 21
1.7999999246
 31
0.0
 40
1.0
 41
1.5152121512
 42
4.767973156
  0
ELLIPSE
  5
58B
100
AcDbEntity
  8
INCISIONI_LASER
100
AcDbEllipse
 62
250
  6
CONTINUOUS
 10
131.6155496314
 20
103.6554738816
 30
0.0
 11
-0.0
 21
2.5499985399
 31
0.0
 40
1.0
 41
1.5315705596
 42
4.7516147475
  0
ELLIPSE
  5
58C
100
AcDbEntity
  8
INCISIONI_LASER
100
AcDbEllipse
 62
250
  6
CONTINUOUS
 10
131.6155496314
 20
108.0405838816
 30
0.0
 11
2.5499986575
 21
0.0
 31
0.0
 40
1.0
 41
3.1023668883
 42
6.3224110725
  0
ELLIPSE
  5
58D
100
AcDbEntity
  8
ASSI
100
AcDbEllipse
 62
7
  6
CONTINUOUS
 10
184.5273120457
 20
113.758453041
 30
0.0
 11
0.1582391023
 21
0.4751033573
 31
0.0
 40
0.9984778551
 41
-1.2488325878
 42
0.3210503505
  0
ELLIPSE
  5
58E
100
AcDbEntity
  8
ASSI
100
AcDbEllipse
 62
7
  6
CONTINUOUS
 10
184.5273120457
 20
70.5227147221
 30
0.0
 11
-0.1582391023
 21
0.4751033573
 31
0.0
 40
0.9984778551
 41
-3.4626430041
 42
-1.8927600658
  0
ELLIPSE
  5
58F
100
AcDbEntity
  8
ASSI
100
AcDbEllipse
 62
7
  6
CONTINUOUS
 10
163.3484104517
 20
70.5227147221
 30
0.0
 11
0.1582391023
 21
0.4751033573
 31
0.0
 40
0.9984778551
 41
-4.3904252414
 42
-2.8205423031
  0
ELLIPSE
  5
590
100
AcDbEntity
  8
ASSI
100
AcDbEllipse
 62
7
  6
CONTINUOUS
 10
163.3484104517
 20
113.758453041
 30
0.0
 11
-0.1582391023
 21
0.4751033573
 31
0.0
 40
0.9984778551
 41
-0.3210503505
 42
1.2488325878
  0
ELLIPSE
  5
591
100
AcDbEntity
  8
268140580
100
AcDbEllipse
 62
7
  6
CONTINUOUS
 10
178.0418880278
 20
68.3344750741
 30
0.0
 11
0.3
 21
0.0
 31
0.0
 40
0.0087268678
 41
-1.5707963268
 42
0.0000000026
  0
ELLIPSE
  5
592
100
AcDbEntity
  8
268140580
100
AcDbEllipse
 62
7
  6
CONTINUOUS
 10
169.8338344695
 20
115.946692689
 30
0.0
 11
0.3
 21
0.0
 31
0.0
 40
0.0087268678
 41
1.5707963268
 42
3.1415926562
  0
ELLIPSE
  5
593
100
AcDbEntity
  8
268140580
100
AcDbEllipse
 62
7
  6
CONTINUOUS
 10
163.1879221799
 20
70.1405838816
 30
0.0
 11
0.4000609312
 21
0.0
 31
0.0
 40
0.9998476952
 41
3.1415926536
 42
4.7123889804
  0
ELLIPSE
  5
594
100
AcDbEntity
  8
268140580
100
AcDbEllipse
 62
7
  6
CONTINUOUS
 10
184.6878003175
 20
70.1405838816
 30
0.0
 11
0.4000609312
 21
0.0
 31
0.0
 40
0.9998476952
 41
-1.5707963268
 42
0.0
  0
ELLIPSE
  5
595
100
AcDbEntity
  8
268140580
100
AcDbEllipse
 62
7
  6
CONTINUOUS
 10
163.1879221799
 20
114.1405838816
 30
0.0
 11
0.4000609312
 21
0.0
 31
0.0
 40
0.9998476952
 41
1.5707963268
 42
3.1415926536
  0
ELLIPSE
  5
596
100
AcDbEntity
  8
268140580
100
AcDbEllipse
 62
7
  6
CONTINUOUS
 10
184.6878003175
 20
114.1405838816
 30
0.0
 11
0.4000609312
 21
-0.0
 31
0.0
 40
0.9998476952
 41
0.0
 42
1.5707963268
  0
ELLIPSE
  5
597
100
AcDbEntity
  8
268140580
100
AcDbEllipse
 62
7
  6
CONTINUOUS
 10
169.8338344695
 20
68.3344750741
 30
0.0
 11
0.3
 21
0.0
 31
0.0
 40
0.0087268678
 41
3.141592651
 42
4.7123889804
  0
ELLIPSE
  5
598
100
AcDbEntity
  8
268140580
100
AcDbEllipse
 62
7
  6
CONTINUOUS
 10
178.0418880278
 20
115.946692689
 30
0.0
 11
0.3
 21
-0.0
 31
0.0
 40
0.0087268678
 41
-0.0000000026
 42
1.5707963268
  0
ELLIPSE
  5
599
100
AcDbEntity
  8
268140580
100
AcDbEllipse
 62
7
  6
CONTINUOUS
 10
178.0418880278
 20
114.5038984361
 30
0.0
 11
0.3
 21
0.0
 31
0.0
 40
0.0524077793
 41
-1.5707963268
 42
0.0000000025
  0
ELLIPSE
  5
59A
100
AcDbEntity
  8
268140580
100
AcDbEllipse
 62
7
  6
CONTINUOUS
 10
163.2315598422
 20
70.2197444889
 30
0.0
 11
-0.1265912819
 21
-0.3800826859
 31
0.0
 40
0.9984778551
 41
-1.2488325878
 42
0.3210503505
  0
ELLIPSE
  5
59B
100
AcDbEntity
  8
268140580
100
AcDbEllipse
 62
7
  6
CONTINUOUS
 10
184.6441626551
 20
70.2197444889
 30
0.0
 11
-0.1265912819
 21
0.3800826859
 31
0.0
 40
0.9984778551
 41
2.8205423031
 42
4.3904252414
  0
ELLIPSE
  5
59C
100
AcDbEntity
  8
268140580
100
AcDbEllipse
 62
7
  6
CONTINUOUS
 10
165.4378612487
 20
69.8060936057
 30
0.0
 11
0.25
 21
0.0
 31
0.0
 40
0.0524077793
 41
-0.0
 42
1.5707963268
  0
ELLIPSE
  5
59D
100
AcDbEntity
  8
268140580
100
AcDbEllipse
 62
7
  6
CONTINUOUS
 10
163.5378612487
 20
69.8060936057
 30
0.0
 11
0.25
 21
0.0
 31
0.0
 40
0.0524077793
 41
1.5707963268
 42
3.1415926536
  0
ELLIPSE
  5
59E
100
AcDbEntity
  8
268140580
100
AcDbEllipse
 62
7
  6
CONTINUOUS
 10
184.3378612487
 20
69.8060936057
 30
0.0
 11
0.25
 21
-0.0
 31
0.0
 40
0.0524077793
 41
-0.0
 42
1.5707963268
  0
ELLIPSE
  5
59F
100
AcDbEntity
  8
268140580
100
AcDbEllipse
 62
7
  6
CONTINUOUS
 10
182.4378612487
 20
69.8060936057
 30
0.0
 11
0.25
 21
0.0
 31
0.0
 40
0.0524077793
 41
1.5707963268
 42
3.1415926536
  0
ELLIPSE
  5
5A0
100
AcDbEntity
  8
268140580
100
AcDbEllipse
 62
7
  6
CONTINUOUS
 10
184.3378612487
 20
114.4750741575
 30
0.0
 11
0.25
 21
0.0
 31
0.0
 40
0.0524077793
 41
-1.5707963268
 42
0.0
  0
ELLIPSE
  5
5A1
100
AcDbEntity
  8
268140580
100
AcDbEllipse
 62
7
  6
CONTINUOUS
 10
163.2315598422
 20
114.0614232743
 30
0.0
 11
0.1265912819
 21
-0.3800826859
 31
0.0
 40
0.9984778551
 41
2.8205423031
 42
4.3904252414
  0
ELLIPSE
  5
5A2
100
AcDbEntity
  8
268140580
100
AcDbEllipse
 62
7
  6
CONTINUOUS
 10
182.4378612487
 20
114.4750741575
 30
0.0
 11
0.25
 21
0.0
 31
0.0
 40
0.0524077793
 41
-3.1415926536
 42
-1.5707963268
  0
ELLIPSE
  5
5A3
100
AcDbEntity
  8
268140580
100
AcDbEllipse
 62
7
  6
CONTINUOUS
 10
165.4378612487
 20
114.4750741575
 30
0.0
 11
0.25
 21
0.0
 31
0.0
 40
0.0524077793
 41
-1.5707963268
 42
0.0
  0
ELLIPSE
  5
5A4
100
AcDbEntity
  8
268140580
100
AcDbEllipse
 62
7
  6
CONTINUOUS
 10
163.5378612487
 20
114.4750741575
 30
0.0
 11
0.25
 21
-0.0
 31
0.0
 40
0.0524077793
 41
-3.1415926536
 42
-1.5707963268
  0
ELLIPSE
  5
5A5
100
AcDbEntity
  8
268140580
100
AcDbEllipse
 62
7
  6
CONTINUOUS
 10
184.6441626551
 20
114.0614232743
 30
0.0
 11
0.1265912819
 21
0.3800826859
 31
0.0
 40
0.9984778551
 41
-1.2488325878
 42
0.3210503505
  0
ELLIPSE
  5
5A6
100
AcDbEntity
  8
268140580
100
AcDbEllipse
 62
7
  6
CONTINUOUS
 10
169.8338344695
 20
69.7772693271
 30
0.0
 11
0.3
 21
0.0
 31
0.0
 40
0.0524077793
 41
1.5707963268
 42
3.1415926561
  0
ELLIPSE
  5
5A7
100
AcDbEntity
  8
268140580
100
AcDbEllipse
 62
7
  6
CONTINUOUS
 10
178.0418880278
 20
69.7772693271
 30
0.0
 11
0.3
 21
0.0
 31
0.0
 40
0.0524077793
 41
-0.0000000025
 42
1.5707963268
  0
ELLIPSE
  5
5A8
100
AcDbEntity
  8
268140580
100
AcDbEllipse
 62
7
  6
CONTINUOUS
 10
169.8338344695
 20
114.5038984361
 30
0.0
 11
0.3
 21
0.0
 31
0.0
 40
0.0524077793
 41
3.1415926511
 42
4.7123889804
  0
ENDSEC
  0
SECTION
  2
OBJECTS
  0
DICTIONARY
  5
C
100
AcDbDictionary
280
0
281
1
  3
ACAD_GROUP
350
D
  3
ACAD_MLINESTYLE
350
17
  3
ACAD_LAYOUT
350
1A
  3
ACAD_PLOTSETTINGS
350
19
  3
ACAD_PLOTSTYLENAME
350
E
  0
DICTIONARY
  5
D
102
{ACAD_REACTORS
330
C
102
}
100
AcDbDictionary
280
0
281
1
  0
ACDBDICTIONARYWDFLT
  5
E
102
{ACAD_REACTORS
330
C
102
}
100
AcDbDictionary
281
1
  3
Normal
350
F
100
AcDbDictionaryWithDefault
340
F
  0
DICTIONARY
  5
17
102
{ACAD_REACTORS
330
C
102
}
100
AcDbDictionary
280
0
281
1
  3
Standard
350
18
  0
DICTIONARY
  5
19
102
{ACAD_REACTORS
330
C
102
}
100
AcDbDictionary
281
1
  0
DICTIONARY
  5
1A
102
{ACAD_REACTORS
330
C
102
}
100
AcDbDictionary
281
1
  3
Model
350
5A9
  3
Layout1
350
5AA
  0
ACDBPLACEHOLDER
  5
F
102
{ACAD_REACTORS
330
E
102
}
  0
MLINESTYLE
  5
18
102
{ACAD_REACTORS
330
17
102
}
100
AcDbMlineStyle
  2
STANDARD
 70
0
  3

 62
256
 51
90.0
 52
90.0
 71
2
 49
0.5
 62
256
  6
BYLAYER
 49
-0.5
 62
256
  6
BYLAYER
  0
LAYOUT
  5
5A9
102
{ACAD_REACTORS
330
1A
102
}
100
AcDbPlotSettings
  1

  2
none_device
  4
ISO_A4_(297.00_x_210.00_MM)
  6

 40
0.0
 41
0.0
 42
0.0
 43
0.0
 44
297.0
 45
210.0
 46
0.0
 47
0.0
 48
0.0
 49
0.0
140
0.0
141
0.0
142
1.0
143
1.0
 70
1024
 72
1
 73
0
 74
0
  7

 75
0
147
1.0
148
0.0
149
0.0
100
AcDbLayout
  1
Model
 70
0
 71
0
 10
0.0
 20
0.0
 11
297.0
 21
210.0
 12
0.0
 22
0.0
 32
0.0
 14
0.0
 24
0.0
 34
0.0
 15
0.0
 25
0.0
 35
0.0
146
0.0
 13
0.0
 23
0.0
 33
0.0
 16
1.0
 26
0.0
 36
0.0
 17
0.0
 27
1.0
 37
0.0
 76
0
330
221
345
0
346
0
  0
LAYOUT
  5
5AA
102
{ACAD_REACTORS
330
1A
102
}
100
AcDbPlotSettings
  1

  2
none_device
  4
ISO_A4_(297.00_x_210.00_MM)
  6

 40
0.0
 41
0.0
 42
0.0
 43
0.0
 44
297.0
 45
210.0
 46
0.0
 47
0.0
 48
0.0
 49
0.0
140
0.0
141
0.0
142
1.0
143
1.0
 70
0
 72
1
 73
0
 74
0
  7

 75
0
147
1.0
148
0.0
149
0.0
100
AcDbLayout
  1
Layout1
 70
0
 71
1
 10
0.0
 20
0.0
 11
297.0
 21
210.0
 12
0.0
 22
0.0
 32
0.0
 14
0.0
 24
0.0
 34
0.0
 15
0.0
 25
0.0
 35
0.0
146
0.0
 13
0.0
 23
0.0
 33
0.0
 16
1.0
 26
0.0
 36
0.0
 17
0.0
 27
1.0
 37
0.0
 76
0
330
222
345
0
346
0
  0
ENDSEC
  0
EOF
