  0
SECTION
  2
HEADER
  9
$ACADVER
  1
AC1024
  9
$DWGCODEPAGE
  3
ANSI_1252
  9
$EXTMAX
 10
297.0
 20
210.0
 30
0.0
  9
$EXTMIN
 10
0.0
 20
0.0
 30
0.0
  9
$LIMMIN
 10
0.0
 20
0.0
  9
$LIMMAX
 10
297.0
 20
210.0
  9
$VIEWCTR
 10
148.5
 20
105.0
  9
$VIEWSIZE
 40
210.0
  9
$CLAYER
  8
0
  9
$LTSCALE
 40
16.335
  9
$CELTYPE
  6
BYLAYER
  9
$DIMSCALE
 40
1.0
  9
$DIMASZ
 40
3.0
  9
$DIMEXO
 40
0.5
  9
$DIMDLI
 40
11.286
  9
$DIMEXE
 40
1.5
  9
$DIMCEN
 40
2.673
  9
$DIMLFAC
 40
1.0
  9
$DIMBLK
  1
_FILLED
  9
$DIMALT
 70
0
  9
$DIMALTF
 40
0.0393700787
  9
$DIMTXT
 40
3.0
  9
$DIMTOL
 70
1
  9
$DIMLIM
 70
0
  9
$DIMTFAC
 40
1.0
  9
$DIMTP
 40
0.01
  9
$DIMTM
 40
0.01
  9
$DIMGAP
 40
0.625
  9
$DIMDSEP
 70
44
  9
$AUNITS
 70
0
  9
$PDMODE
 70
3
  9
$PDSIZE
 40
3.0
  9
$HANDSEED
  5
57F
  9
$TILEMODE
 70
1
  9
$MEASUREMENT
 70
1
  9
$INSUNITS
 70
4
  0
ENDSEC
  0
SECTION
  2
CLASSES
  0
CLASS
  1
ACDBDICTIONARYWDFLT
  2
AcDbDictionaryWithDefault
  3
AutoCAD 2000
 90
0
 91
1
280
0
281
0
  0
CLASS
  1
ACDBPLACEHOLDER
  2
AcDbPlaceHolder
  3
AutoCAD 2000
 90
0
 91
1
280
0
281
0
  0
CLASS
  1
LAYOUT
  2
AcDbLayout
  3
AutoCAD 2000
 90
0
 91
0
280
0
281
0
  0
ENDSEC
  0
SECTION
  2
TABLES
  0
TABLE
  2
VPORT
  5
8
100
AcDbSymbolTable
 70
2
  0
VPORT
  5
1F4
100
AcDbSymbolTableRecord
100
AcDbViewportTableRecord
  2
*ACTIVE
 70
0
 10
0.0
 20
0.0
 11
1.0
 21
1.0
 12
148.5
 22
105.0
 13
0.0
 23
0.0
 14
1.0
 24
1.0
 15
0.0
 25
0.0
 16
0.0
 26
0.0
 36
1.0
 17
0.0
 27
0.0
 37
0.0
 40
210.0
 41
1.4142857143
 42
50.0
 43
0.0
 44
0.0
 50
0.0
 51
0.0
 71
0
 72
100
 73
1
 74
1
 75
0
 76
0
 77
0
 78
0
  0
ENDTAB
  0
TABLE
  2
LTYPE
  5
5
100
AcDbSymbolTable
 70
6
  0
LTYPE
  5
14
100
AcDbSymbolTableRecord
100
AcDbLinetypeTableRecord
  2
BYBLOCK
 70
0
  3

 72
65
 73
0
 40
0.0
  0
LTYPE
  5
15
100
AcDbSymbolTableRecord
100
AcDbLinetypeTableRecord
  2
BYLAYER
 70
0
  3

 72
65
 73
0
 40
0.0
  0
LTYPE
  5
16
100
AcDbSymbolTableRecord
100
AcDbLinetypeTableRecord
  2
CONTINUOUS
 70
64
  3
Solid line
 72
65
 73
0
 40
0.0
  0
LTYPE
  5
1F5
100
AcDbSymbolTableRecord
100
AcDbLinetypeTableRecord
  2
CENTER
 70
64
  3
____ _ ____ _ ____ _ ____ _ ____ _ ____ _ ____
 72
65
 73
4
 40
0.6
 49
0.375
 74
0
 49
-0.075
 74
0
 49
0.075
 74
0
 49
-0.075
 74
0
  0
LTYPE
  5
1F6
100
AcDbSymbolTableRecord
100
AcDbLinetypeTableRecord
  2
HIDDEN
 70
64
  3
- - - - - - - - - - - - - - - - - - - -
 72
65
 73
2
 40
0.2
 49
0.1
 74
0
 49
-0.1
 74
0
  0
LTYPE
  5
1F7
100
AcDbSymbolTableRecord
100
AcDbLinetypeTableRecord
  2
PHANTOM
 70
64
  3
_____ _ _ _____ _ _ _____ _ _ _____
 72
65
 73
6
 40
0.8
 49
0.45
 74
0
 49
-0.05
 74
0
 49
0.1
 74
0
 49
-0.05
 74
0
 49
0.1
 74
0
 49
-0.05
 74
0
  0
LTYPE
  5
1F8
100
AcDbSymbolTableRecord
100
AcDbLinetypeTableRecord
  2
DOT
 70
64
  3
. . . . . . . . . . . . . . . . . . . .
 72
65
 73
2
 40
0.2
 49
0.1
 74
0
 49
-0.1
 74
0
  0
LTYPE
  5
1F9
100
AcDbSymbolTableRecord
100
AcDbLinetypeTableRecord
  2
DASHED
 70
64
  3
- - - - - - - - - - - - - - - - - - - -
 72
65
 73
2
 40
0.2
 49
0.1
 74
0
 49
-0.1
 74
0
  0
ENDTAB
  0
TABLE
  2
LAYER
  5
2
100
AcDbSymbolTable
 70
36
  0
LAYER
  5
10
100
AcDbSymbolTableRecord
100
AcDbLayerTableRecord
  2
0
 70
0
 62
7
  6
CONTINUOUS
370
-3
390
F
  0
LAYER
  5
1FA
100
AcDbSymbolTableRecord
100
AcDbLayerTableRecord
  2
DEFAULT_1
 70
0
 62
7
  6
CENTER
370
-3
390
F
  0
LAYER
  5
1FB
100
AcDbSymbolTableRecord
100
AcDbLayerTableRecord
  2
DEFAULT_2
 70
0
 62
7
  6
HIDDEN
370
-3
390
F
  0
LAYER
  5
1FC
100
AcDbSymbolTableRecord
100
AcDbLayerTableRecord
  2
DEFAULT_3
 70
0
 62
7
  6
PHANTOM
370
-3
390
F
  0
LAYER
  5
1FD
100
AcDbSymbolTableRecord
100
AcDbLayerTableRecord
  2
218140580
 70
0
 62
7
  6
CONTINUOUS
370
-3
390
F
  0
LAYER
  5
1FE
100
AcDbSymbolTableRecord
100
AcDbLayerTableRecord
  2
268140580
 70
0
 62
7
  6
CONTINUOUS
370
-3
390
F
  0
LAYER
  5
1FF
100
AcDbSymbolTableRecord
100
AcDbLayerTableRecord
  2
ASSI
 70
0
 62
7
  6
CONTINUOUS
370
-3
390
F
  0
LAYER
  5
200
100
AcDbSymbolTableRecord
100
AcDbLayerTableRecord
  2
COLOR5
 70
0
 62
7
  6
CONTINUOUS
370
-3
390
F
  0
LAYER
  5
201
100
AcDbSymbolTableRecord
100
AcDbLayerTableRecord
  2
COORDINATE
 70
0
 62
7
  6
CONTINUOUS
370
-3
390
F
  0
LAYER
  5
202
100
AcDbSymbolTableRecord
100
AcDbLayerTableRecord
  2
COORD_ORIGINE
 70
0
 62
7
  6
CONTINUOUS
370
-3
390
F
  0
LAYER
  5
203
100
AcDbSymbolTableRecord
100
AcDbLayerTableRecord
  2
COPY-PUBBLISH
 70
0
 62
7
  6
CONTINUOUS
370
-3
390
F
  0
LAYER
  5
204
100
AcDbSymbolTableRecord
100
AcDbLayerTableRecord
  2
COSMETICHE
 70
0
 62
7
  6
CONTINUOUS
370
-3
390
F
  0
LAYER
  5
205
100
AcDbSymbolTableRecord
100
AcDbLayerTableRecord
  2
CURVA_CENTRALE
 70
0
 62
7
  6
CONTINUOUS
370
-3
390
F
  0
LAYER
  5
206
100
AcDbSymbolTableRecord
100
AcDbLayerTableRecord
  2
CURVE
 70
0
 62
7
  6
CONTINUOUS
370
-3
390
F
  0
LAYER
  5
207
100
AcDbSymbolTableRecord
100
AcDbLayerTableRecord
  2
DRAFT
 70
0
 62
7
  6
CONTINUOUS
370
-3
390
F
  0
LAYER
  5
208
100
AcDbSymbolTableRecord
100
AcDbLayerTableRecord
  2
IGES_INCISIONI
 70
0
 62
7
  6
CONTINUOUS
370
-3
390
F
  0
LAYER
  5
209
100
AcDbSymbolTableRecord
100
AcDbLayerTableRecord
  2
INCISIONI_LASER
 70
0
 62
7
  6
CONTINUOUS
370
-3
390
F
  0
LAYER
  5
20A
100
AcDbSymbolTableRecord
100
AcDbLayerTableRecord
  2
INTF_1
 70
0
 62
7
  6
CONTINUOUS
370
-3
390
F
  0
LAYER
  5
20B
100
AcDbSymbolTableRecord
100
AcDbLayerTableRecord
  2
INTF_11
 70
0
 62
7
  6
CONTINUOUS
370
-3
390
F
  0
LAYER
  5
20C
100
AcDbSymbolTableRecord
100
AcDbLayerTableRecord
  2
INTF_2
 70
0
 62
7
  6
CONTINUOUS
370
-3
390
F
  0
LAYER
  5
20D
100
AcDbSymbolTableRecord
100
AcDbLayerTableRecord
  2
INTF_RED
 70
0
 62
7
  6
CONTINUOUS
370
-3
390
F
  0
LAYER
  5
20E
100
AcDbSymbolTableRecord
100
AcDbLayerTableRecord
  2
INTF_YELLOW
 70
0
 62
7
  6
CONTINUOUS
370
-3
390
F
  0
LAYER
  5
20F
100
AcDbSymbolTableRecord
100
AcDbLayerTableRecord
  2
NOTE
 70
0
 62
7
  6
CONTINUOUS
370
-3
390
F
  0
LAYER
  5
210
100
AcDbSymbolTableRecord
100
AcDbLayerTableRecord
  2
PIANI
 70
0
 62
7
  6
CONTINUOUS
370
-3
390
F
  0
LAYER
  5
211
100
AcDbSymbolTableRecord
100
AcDbLayerTableRecord
  2
PIANI_CONTATTI
 70
0
 62
7
  6
CONTINUOUS
370
-3
390
F
  0
LAYER
  5
212
100
AcDbSymbolTableRecord
100
AcDbLayerTableRecord
  2
PIANI_ORIGINE
 70
0
 62
7
  6
CONTINUOUS
370
-3
390
F
  0
LAYER
  5
213
100
AcDbSymbolTableRecord
100
AcDbLayerTableRecord
  2
PIANI_RIFERIMENTO
 70
0
 62
7
  6
CONTINUOUS
370
-3
390
F
  0
LAYER
  5
214
100
AcDbSymbolTableRecord
100
AcDbLayerTableRecord
  2
PIANI_SFORMI
 70
0
 62
7
  6
CONTINUOUS
370
-3
390
F
  0
LAYER
  5
215
100
AcDbSymbolTableRecord
100
AcDbLayerTableRecord
  2
PUNTI
 70
0
 62
7
  6
CONTINUOUS
370
-3
390
F
  0
LAYER
  5
216
100
AcDbSymbolTableRecord
100
AcDbLayerTableRecord
  2
RACCORDO
 70
0
 62
7
  6
CONTINUOUS
370
-3
390
F
  0
LAYER
  5
217
100
AcDbSymbolTableRecord
100
AcDbLayerTableRecord
  2
RGB__255__255__255__
 70
0
 62
7
  6
CONTINUOUS
370
-3
390
F
  0
LAYER
  5
218
100
AcDbSymbolTableRecord
100
AcDbLayerTableRecord
  2
SMUSSO
 70
0
 62
7
  6
CONTINUOUS
370
-3
390
F
  0
LAYER
  5
219
100
AcDbSymbolTableRecord
100
AcDbLayerTableRecord
  2
SNAPLINE
 70
0
 62
7
  6
CONTINUOUS
370
-3
390
F
  0
LAYER
  5
21A
100
AcDbSymbolTableRecord
100
AcDbLayerTableRecord
  2
SUPERFICI
 70
0
 62
7
  6
CONTINUOUS
370
-3
390
F
  0
LAYER
  5
21B
100
AcDbSymbolTableRecord
100
AcDbLayerTableRecord
  2
TRACCIABILITA
 70
0
 62
7
  6
CONTINUOUS
370
-3
390
F
  0
LAYER
  5
21C
100
AcDbSymbolTableRecord
100
AcDbLayerTableRecord
  2
TRASH
 70
0
 62
7
  6
CONTINUOUS
370
-3
390
F
  0
LAYER
  5
21D
100
AcDbSymbolTableRecord
100
AcDbLayerTableRecord
  2
WHITE
 70
0
 62
7
  6
CONTINUOUS
370
-3
390
F
  0
LAYER
  5
21E
100
AcDbSymbolTableRecord
100
AcDbLayerTableRecord
  2
XSEC_DATUMS
 70
0
 62
7
  6
CONTINUOUS
370
-3
390
F
  0
ENDTAB
  0
TABLE
  2
STYLE
  5
3
100
AcDbSymbolTable
 70
1
  0
STYLE
  5
11
100
AcDbSymbolTableRecord
100
AcDbTextStyleTableRecord
  2
STANDARD
 70
0
 40
0.0
 41
0.8
 50
0.0
 71
0
 42
0.2
  3
txt
  4

  0
STYLE
  5
21F
100
AcDbSymbolTableRecord
100
AcDbTextStyleTableRecord
  2
TEXTSTYLE_1
 70
0
 40
0.0
 41
0.8
 50
0.0
 71
0
 42
0.2
  3
gdt
  4

  0
ENDTAB
  0
TABLE
  2
VIEW
  5
6
100
AcDbSymbolTable
 70
0
  0
ENDTAB
  0
TABLE
  2
UCS
  5
7
100
AcDbSymbolTable
 70
0
  0
ENDTAB
  0
TABLE
  2
APPID
  5
9
100
AcDbSymbolTable
 70
1
  0
APPID
  5
220
100
AcDbSymbolTableRecord
100
AcDbRegAppTableRecord
  2
ACAD
 70
0
  0
ENDTAB
  0
TABLE
  2
BLOCK_RECORD
  5
1
100
AcDbSymbolTable
 70
0
  0
BLOCK_RECORD
  5
221
100
AcDbSymbolTableRecord
100
AcDbBlockTableRecord
  2
*Model_Space
  0
BLOCK_RECORD
  5
222
100
AcDbSymbolTableRecord
100
AcDbBlockTableRecord
  2
*Paper_Space
  0
BLOCK_RECORD
  5
223
100
AcDbSymbolTableRecord
100
AcDbBlockTableRecord
  2
_FILLED
  0
BLOCK_RECORD
  5
224
100
AcDbSymbolTableRecord
100
AcDbBlockTableRecord
  2
*D0
  0
BLOCK_RECORD
  5
225
100
AcDbSymbolTableRecord
100
AcDbBlockTableRecord
  2
*D1
  0
BLOCK_RECORD
  5
226
100
AcDbSymbolTableRecord
100
AcDbBlockTableRecord
  2
*D2
  0
BLOCK_RECORD
  5
227
100
AcDbSymbolTableRecord
100
AcDbBlockTableRecord
  2
*D3
  0
ENDTAB
  0
TABLE
  2
DIMSTYLE
  5
A
100
AcDbSymbolTable
 70
1
100
AcDbDimStyleTable
 71
0
  0
DIMSTYLE
105
228
100
AcDbSymbolTableRecord
100
AcDbDimStyleTableRecord
  2
STANDARD
 70
0
  3

  4

 40
1.0
 41
3.0
 42
0.5
 43
0.38
 44
1.5
 45
0.0
 46
0.0
 47
0.01
 48
0.01
140
3.0
141
0.0
142
0.0
143
25.4
144
1.0
145
0.0
146
1.0
147
0.625
 71
1
 72
0
 73
0
 74
0
 75
0
 76
0
 77
1
 78
8
 79
2
170
0
171
1
172
0
173
0
174
0
175
0
176
0
177
0
178
0
270
2
179
1
271
2
272
2
273
2
274
2
275
0
280
0
281
0
282
0
283
1
284
8
285
0
286
0
287
3
288
0
340
11
278
44
341
223
342
223
343
223
344
223
  0
DIMSTYLE
105
229
100
AcDbSymbolTableRecord
100
AcDbDimStyleTableRecord
  2
DIMSTYLE_1
 70
0
  3

  4

 40
1.0
 41
3.0
 42
0.5
 43
0.38
 44
1.5
 45
0.0
 46
0.0
 47
0.0
 48
0.0
140
3.0
141
0.0
142
0.0
143
25.4
144
1.0
145
0.0
146
1.0
147
0.75
 71
0
 72
0
 73
0
 74
0
 75
0
 76
0
 77
1
 78
8
 79
2
170
0
171
1
172
0
173
0
174
0
175
0
176
0
177
0
178
0
270
2
179
2
271
2
272
2
273
2
274
2
275
0
280
0
281
0
282
0
283
1
284
8
285
0
286
0
287
3
288
0
340
11
278
44
341
223
342
223
343
223
344
223
  0
DIMSTYLE
105
22A
100
AcDbSymbolTableRecord
100
AcDbDimStyleTableRecord
  2
DIMSTYLE_2
 70
0
  3

  4

 40
1.0
 41
3.0
 42
0.5
 43
0.38
 44
1.5
 45
0.0
 46
0.0
 47
0.0
 48
0.0
140
3.0
141
0.0
142
0.0
143
25.4
144
1.0
145
0.0
146
1.0
147
0.75
 71
0
 72
0
 73
0
 74
0
 75
0
 76
0
 77
1
 78
8
 79
2
170
0
171
1
172
0
173
0
174
0
175
0
176
0
177
0
178
0
270
2
179
1
271
1
272
1
273
2
274
2
275
0
280
0
281
0
282
0
283
1
284
8
285
0
286
0
287
3
288
0
340
11
278
44
341
223
342
223
343
223
344
223
  0
ENDTAB
  0
ENDSEC
  0
SECTION
  2
BLOCKS
  0
BLOCK
  5
20
100
AcDbEntity
  8
0
100
AcDbBlockBegin
  2
*Model_Space
 70
0
 10
0.0
 20
0.0
 30
0.0
  3
*Model_Space
  1

  0
ENDBLK
  5
21
100
AcDbEntity
  8
0
100
AcDbBlockEnd
  0
BLOCK
  5
1C
100
AcDbEntity
  8
0
100
AcDbBlockBegin
  2
*Paper_Space
 70
0
 10
0.0
 20
0.0
 30
0.0
  3
*Paper_Space
  1

  0
ENDBLK
  5
1D
100
AcDbEntity
  8
0
100
AcDbBlockEnd
  0
BLOCK
  5
22B
100
AcDbEntity
  8
0
100
AcDbBlockBegin
  2
_FILLED
 70
64
 10
0.0
 20
0.0
 30
0.0
  3
_FILLED
  1

  0
SOLID
  5
22C
100
AcDbEntity
  8
0
  6
BYBLOCK
 62
0
100
AcDbTrace
 10
0.0
 20
0.0
 30
0.0
 11
-1.0
 21
0.3166666667
 31
0.0
 12
-1.0
 22
-0.3166666667
 32
0.0
 13
-1.0
 23
-0.3166666667
 33
0.0
  0
ENDBLK
  5
22D
100
AcDbEntity
  8
0
  6
BYBLOCK
 62
0
100
AcDbBlockEnd
  0
BLOCK
  5
22E
100
AcDbEntity
  8
0
100
AcDbBlockBegin
 62
7
  6
CONTINUOUS
  2
*D0
 70
65
 10
0.0
 20
0.0
 30
0.0
  3
*D0
  1

  0
MTEXT
  5
22F
100
AcDbEntity
  8
0
100
AcDbMText
 62
7
  6
CONTINUOUS
  7
STANDARD
 71
2
 72
1
 10
-39.4712006115
 20
46.2696164137
 30
0.0
 11
1.0
 21
0.0
 31
0.0
 73
2
 44
0.9
  1
{\ftxt;\W0.0001;\H0.0001;\~}{\ftxt;\W2.7857142857;\H3.0; }{\ftxt;\W0.0001;\H0.0001;\~}
 40
3.0
 41
12.5357142857
  0
LINE
  5
230
100
AcDbEntity
  8
0
100
AcDbLine
 62
7
  6
CONTINUOUS
 10
-20.2212802565
 20
15.2501233207
 30
0.0
 11
-20.2212802565
 21
44.0196164137
 31
0.0
  0
LINE
  5
231
100
AcDbEntity
  8
0
100
AcDbLine
 62
7
  6
CONTINUOUS
 10
-58.7211209664
 20
0.8926968628
 30
0.0
 11
-58.7211209664
 21
44.0196164137
 31
0.0
  0
LINE
  5
232
100
AcDbEntity
  8
0
100
AcDbLine
 62
7
  6
CONTINUOUS
 10
-20.2212802565
 20
42.5196164137
 30
0.0
 11
-39.4712006115
 21
42.5196164137
 31
0.0
  0
LINE
  5
233
100
AcDbEntity
  8
0
100
AcDbLine
 62
7
  6
CONTINUOUS
 10
-58.7211209664
 20
42.5196164137
 30
0.0
 11
-39.4712006115
 21
42.5196164137
 31
0.0
  0
INSERT
  5
234
100
AcDbEntity
  8
0
100
AcDbBlockReference
 62
7
  6
CONTINUOUS
  2
_FILLED
 10
-20.2212802565
 20
42.5196164137
 30
0.0
 41
3.0
 42
3.0
 43
3.0
  0
INSERT
  5
235
100
AcDbEntity
  8
0
100
AcDbBlockReference
 62
7
  6
CONTINUOUS
  2
_FILLED
 10
-58.7211209664
 20
42.5196164137
 30
0.0
 41
3.0
 42
3.0
 43
3.0
 50
180.0
  0
ENDBLK
  5
236
100
AcDbEntity
  8
0
  6
BYBLOCK
 62
0
100
AcDbBlockEnd
  0
BLOCK
  5
237
100
AcDbEntity
  8
0
100
AcDbBlockBegin
 62
7
  6
CONTINUOUS
  2
*D1
 70
65
 10
0.0
 20
0.0
 30
0.0
  3
*D1
  1

  0
MTEXT
  5
238
100
AcDbEntity
  8
0
100
AcDbMText
 62
7
  6
CONTINUOUS
  7
STANDARD
 71
2
 72
1
 10
-34.2212802565
 20
36.2696164137
 30
0.0
 11
1.0
 21
0.0
 31
0.0
 73
2
 44
0.9
  1
{\ftxt;\W0.0001;\H0.0001;\~}{\ftxt;\W1.5714285714;\H3.0; }{\ftxt;\W0.0001;\H0.0001;\~}
 40
3.0
 41
7.0714285714
  0
LINE
  5
239
100
AcDbEntity
  8
0
100
AcDbLine
 62
7
  6
CONTINUOUS
 10
-20.2212802565
 20
15.2501233207
 30
0.0
 11
-20.2212802565
 21
34.0196164137
 31
0.0
  0
LINE
  5
23A
100
AcDbEntity
  8
0
100
AcDbLine
 62
7
  6
CONTINUOUS
 10
-48.2212802565
 20
24.7434453296
 30
0.0
 11
-48.2212802565
 21
34.0196164137
 31
0.0
  0
LINE
  5
23B
100
AcDbEntity
  8
0
100
AcDbLine
 62
7
  6
CONTINUOUS
 10
-20.2212802565
 20
32.5196164137
 30
0.0
 11
-34.2212802565
 21
32.5196164137
 31
0.0
  0
LINE
  5
23C
100
AcDbEntity
  8
0
100
AcDbLine
 62
7
  6
CONTINUOUS
 10
-48.2212802565
 20
32.5196164137
 30
0.0
 11
-34.2212802565
 21
32.5196164137
 31
0.0
  0
INSERT
  5
23D
100
AcDbEntity
  8
0
100
AcDbBlockReference
 62
7
  6
CONTINUOUS
  2
_FILLED
 10
-20.2212802565
 20
32.5196164137
 30
0.0
 41
3.0
 42
3.0
 43
3.0
  0
INSERT
  5
23E
100
AcDbEntity
  8
0
100
AcDbBlockReference
 62
7
  6
CONTINUOUS
  2
_FILLED
 10
-48.2212802565
 20
32.5196164137
 30
0.0
 41
3.0
 42
3.0
 43
3.0
 50
180.0
  0
ENDBLK
  5
23F
100
AcDbEntity
  8
0
  6
BYBLOCK
 62
0
100
AcDbBlockEnd
  0
BLOCK
  5
240
100
AcDbEntity
  8
0
100
AcDbBlockBegin
 62
7
  6
CONTINUOUS
  2
*D2
 70
65
 10
0.0
 20
0.0
 30
0.0
  3
*D2
  1

  0
MTEXT
  5
241
100
AcDbEntity
  8
0
100
AcDbMText
 62
7
  6
CONTINUOUS
  7
STANDARD
 71
2
 72
1
 10
0.0
 20
36.2029343209
 30
0.0
 11
1.0
 21
0.0
 31
0.0
 73
2
 44
0.9
  1
{\ftxt;\W0.0001;\H0.0001;\~}{\ftxt;\W2.8571428571;\H3.0; }{\ftxt;\W0.0001;\H0.0001;\~}
 40
3.0
 41
12.8571428571
  0
LINE
  5
242
100
AcDbEntity
  8
0
100
AcDbLine
 62
7
  6
CONTINUOUS
 10
-11.15
 20
22.5
 30
0.0
 11
-11.15
 21
33.9529343209
 31
0.0
  0
LINE
  5
243
100
AcDbEntity
  8
0
100
AcDbLine
 62
7
  6
CONTINUOUS
 10
11.15
 20
22.5
 30
0.0
 11
11.15
 21
33.9529343209
 31
0.0
  0
LINE
  5
244
100
AcDbEntity
  8
0
100
AcDbLine
 62
7
  6
CONTINUOUS
 10
-11.15
 20
32.4529343209
 30
0.0
 11
0.0
 21
32.4529343209
 31
0.0
  0
LINE
  5
245
100
AcDbEntity
  8
0
100
AcDbLine
 62
7
  6
CONTINUOUS
 10
11.15
 20
32.4529343209
 30
0.0
 11
0.0
 21
32.4529343209
 31
0.0
  0
INSERT
  5
246
100
AcDbEntity
  8
0
100
AcDbBlockReference
 62
7
  6
CONTINUOUS
  2
_FILLED
 10
-11.15
 20
32.4529343209
 30
0.0
 41
3.0
 42
3.0
 43
3.0
 50
180.0
  0
INSERT
  5
247
100
AcDbEntity
  8
0
100
AcDbBlockReference
 62
7
  6
CONTINUOUS
  2
_FILLED
 10
11.15
 20
32.4529343209
 30
0.0
 41
3.0
 42
3.0
 43
3.0
  0
ENDBLK
  5
248
100
AcDbEntity
  8
0
  6
BYBLOCK
 62
0
100
AcDbBlockEnd
  0
BLOCK
  5
249
100
AcDbEntity
  8
0
100
AcDbBlockBegin
 62
7
  6
CONTINUOUS
  2
*D3
 70
65
 10
0.0
 20
0.0
 30
0.0
  3
*D3
  1

  0
MTEXT
  5
24A
100
AcDbEntity
  8
0
100
AcDbMText
 62
7
  6
CONTINUOUS
  7
STANDARD
 71
2
 72
1
 10
16.25
 20
-0.0
 30
0.0
 11
0.0
 21
1.0
 31
0.0
 73
2
 44
0.9
  1
{\ftxt;\W0.0001;\H0.0001;\~}{\ftxt;\W1.5714285714;\H3.0; }{\ftxt;\W0.0001;\H0.0001;\~}
 40
3.0
 41
7.0714285714
  0
LINE
  5
24B
100
AcDbEntity
  8
0
100
AcDbLine
 62
7
  6
CONTINUOUS
 10
10.9
 20
24.5196164137
 30
0.0
 11
21.5
 21
24.5196164137
 31
0.0
  0
LINE
  5
24C
100
AcDbEntity
  8
0
100
AcDbLine
 62
7
  6
CONTINUOUS
 10
10.9
 20
-24.5196164137
 30
0.0
 11
21.5
 21
-24.5196164137
 31
0.0
  0
LINE
  5
24D
100
AcDbEntity
  8
0
100
AcDbLine
 62
7
  6
CONTINUOUS
 10
20.0
 20
24.5196164137
 30
0.0
 11
20.0
 21
-0.0
 31
0.0
  0
LINE
  5
24E
100
AcDbEntity
  8
0
100
AcDbLine
 62
7
  6
CONTINUOUS
 10
20.0
 20
-24.5196164137
 30
0.0
 11
20.0
 21
-0.0
 31
0.0
  0
INSERT
  5
24F
100
AcDbEntity
  8
0
100
AcDbBlockReference
 62
7
  6
CONTINUOUS
  2
_FILLED
 10
20.0
 20
24.5196164137
 30
0.0
 41
3.0
 42
3.0
 43
3.0
 50
90.0
  0
INSERT
  5
250
100
AcDbEntity
  8
0
100
AcDbBlockReference
 62
7
  6
CONTINUOUS
  2
_FILLED
 10
20.0
 20
-24.5196164137
 30
0.0
 41
3.0
 42
3.0
 43
3.0
 50
270.0
  0
ENDBLK
  5
251
100
AcDbEntity
  8
0
  6
BYBLOCK
 62
0
100
AcDbBlockEnd
  0
ENDSEC
  0
SECTION
  2
ENTITIES
  0
DIMENSION
  5
252
100
AcDbEntity
  8
0
100
AcDbDimension
 62
7
  6
CONTINUOUS
  2
*D0
 10
-58.7211209664
 20
42.5196164137
 30
0.0
 11
-39.8997731209
 21
42.5196164137
 31
0.0
 70
160
 71
2
 72
2
 41
0.9
 42
38.4998407099
  1
{\ftxt;\W0.0001;\H0.0001;\~}{\ftxt;\W2.7857142857;\H3.0; }{\ftxt;\W0.0001;\H0.0001;\~}
  3
DIMSTYLE_1
100
AcDbAlignedDimension
 13
-20.2212802565
 23
14.7501233207
 33
0.0
 14
-58.7211209664
 24
0.3926968628
 34
0.0
 50
180.0
100
AcDbRotatedDimension
  0
DIMENSION
  5
253
100
AcDbEntity
  8
0
100
AcDbDimension
 62
7
  6
CONTINUOUS
  2
*D1
 10
-48.2212802565
 20
32.5196164137
 30
0.0
 11
-34.6498519592
 21
32.5196164137
 31
0.0
 70
160
 71
2
 72
2
 41
0.9
 42
28.0
  1
{\ftxt;\W0.0001;\H0.0001;\~}{\ftxt;\W1.5714285714;\H3.0; }{\ftxt;\W0.0001;\H0.0001;\~}
  3
DIMSTYLE_1
100
AcDbAlignedDimension
 13
-20.2212802565
 23
14.7501233207
 33
0.0
 14
-48.2212802565
 24
24.2434453296
 34
0.0
 50
180.0
100
AcDbRotatedDimension
  0
DIMENSION
  5
254
100
AcDbEntity
  8
0
100
AcDbDimension
 62
7
  6
CONTINUOUS
  2
*D2
 10
11.15
 20
32.4529343209
 30
0.0
 11
-0.4285715189
 21
32.4529343209
 31
0.0
 70
160
 71
2
 72
2
 41
0.9
 42
22.3
  1
{\ftxt;\W0.0001;\H0.0001;\~}{\ftxt;\W2.8571428571;\H3.0; }{\ftxt;\W0.0001;\H0.0001;\~}
  3
DIMSTYLE_1
100
AcDbAlignedDimension
 13
-11.15
 23
22.0
 33
0.0
 14
11.15
 24
22.0
 34
0.0
100
AcDbRotatedDimension
  0
DIMENSION
  5
255
100
AcDbEntity
  8
0
100
AcDbDimension
 62
7
  6
CONTINUOUS
  2
*D3
 10
20.0
 20
-24.5196164137
 30
0.0
 11
20.0
 21
-0.4285720869
 31
0.0
 70
160
 71
2
 72
2
 41
0.9
 42
49.0392328274
  1
{\ftxt;\W0.0001;\H0.0001;\~}{\ftxt;\W1.5714285714;\H3.0; }{\ftxt;\W0.0001;\H0.0001;\~}
  3
DIMSTYLE_2
100
AcDbAlignedDimension
 13
10.4
 23
24.5196164137
 33
0.0
 14
10.4
 24
-24.5196164137
 34
0.0
 50
270.0
100
AcDbRotatedDimension
  0
LWPOLYLINE
  5
256
100
AcDbEntity
  8
0
100
AcDbPolyline
 62
7
  6
CONTINUOUS
 90
5
 70
0
 43
0.3500000006
 10
3.0000000658
 20
34.917217804
 10
3.357142951
 20
35.1315068207
 10
3.357142951
 20
35.7743648071
 10
3.0000000658
 20
36.2029337769
 10
2.1428571696
 20
36.2029337769
  0
LINE
  5
257
100
AcDbEntity
  8
268140580
100
AcDbLine
 62
7
  6
CONTINUOUS
 10
-10.4
 20
-24.5196259329
 30
0.0
 11
-8.5
 21
-24.5196259329
 31
0.0
  0
LINE
  5
258
100
AcDbEntity
  8
268140580
100
AcDbLine
 62
7
  6
CONTINUOUS
 10
8.5
 20
-24.5196259329
 30
0.0
 11
10.4
 21
-24.5196259329
 31
0.0
  0
LINE
  5
259
100
AcDbEntity
  8
268140580
100
AcDbLine
 62
250
  6
CONTINUOUS
 10
8.25
 20
-24.2696259329
 30
0.0
 11
10.65
 21
-24.2696259329
 31
0.0
  0
LINE
  5
25A
100
AcDbEntity
  8
268140580
100
AcDbLine
 62
250
  6
CONTINUOUS
 10
-8.25
 20
-24.2696259329
 30
0.0
 11
-10.65
 21
-24.2696259329
 31
0.0
  0
LINE
  5
25B
100
AcDbEntity
  8
268140580
100
AcDbLine
 62
250
  6
CONTINUOUS
 10
10.65
 20
-23.8443375673
 30
0.0
 11
8.25
 21
-23.8443375673
 31
0.0
  0
LINE
  5
25C
100
AcDbEntity
  8
268140580
100
AcDbLine
 62
250
  6
CONTINUOUS
 10
-8.25
 20
-23.8443375673
 30
0.0
 11
-10.65
 21
-23.8443375673
 31
0.0
  0
LINE
  5
25D
100
AcDbEntity
  8
268140580
100
AcDbLine
 62
7
  6
CONTINUOUS
 10
4.1040267792
 20
-23.8087268678
 30
0.0
 11
-4.1040267792
 21
-23.8087268678
 31
0.0
  0
LINE
  5
25E
100
AcDbEntity
  8
268140580
100
AcDbLine
 62
250
  6
CONTINUOUS
 10
10.4
 20
-23.6278312164
 30
0.0
 11
8.5
 21
-23.6278312164
 31
0.0
  0
LINE
  5
25F
100
AcDbEntity
  8
268140580
100
AcDbLine
 62
250
  6
CONTINUOUS
 10
-8.5
 20
-23.6278312164
 30
0.0
 11
-10.4
 21
-23.6278312164
 31
0.0
  0
LINE
  5
260
100
AcDbEntity
  8
268140580
100
AcDbLine
 62
250
  6
CONTINUOUS
 10
10.4
 20
-23.1948185145
 30
0.0
 11
8.5
 21
-23.1948185145
 31
0.0
  0
LINE
  5
261
100
AcDbEntity
  8
268140580
100
AcDbLine
 62
250
  6
CONTINUOUS
 10
-8.5
 20
-23.1948185145
 30
0.0
 11
-10.4
 21
-23.1948185145
 31
0.0
  0
LINE
  5
262
100
AcDbEntity
  8
268140580
100
AcDbLine
 62
250
  6
CONTINUOUS
 10
10.65
 20
-22.9783121635
 30
0.0
 11
8.25
 21
-22.9783121635
 31
0.0
  0
LINE
  5
263
100
AcDbEntity
  8
268140580
100
AcDbLine
 62
250
  6
CONTINUOUS
 10
-8.25
 20
-22.9783121635
 30
0.0
 11
-10.65
 21
-22.9783121635
 31
0.0
  0
LINE
  5
264
100
AcDbEntity
  8
268140580
100
AcDbLine
 62
7
  6
CONTINUOUS
 10
8.25
 20
-22.4
 30
0.0
 11
4.4040267792
 21
-22.4
 31
0.0
  0
LINE
  5
265
100
AcDbEntity
  8
268140580
100
AcDbLine
 62
7
  6
CONTINUOUS
 10
-4.4040267792
 20
-22.4
 30
0.0
 11
-8.25
 21
-22.4
 31
0.0
  0
LINE
  5
266
100
AcDbEntity
  8
268140580
100
AcDbLine
 62
7
  6
CONTINUOUS
 10
10.65
 20
-22.4
 30
0.0
 11
10.7499390688
 21
-22.4
 31
0.0
  0
LINE
  5
267
100
AcDbEntity
  8
268140580
100
AcDbLine
 62
7
  6
CONTINUOUS
 10
-10.65
 20
-22.4
 30
0.0
 11
-10.7499390688
 21
-22.4
 31
0.0
  0
LINE
  5
268
100
AcDbEntity
  8
268140580
100
AcDbLine
 62
250
  6
CONTINUOUS
 10
10.727428791
 20
-22.399725907
 30
0.0
 11
10.65
 21
-22.399725907
 31
0.0
  0
LINE
  5
269
100
AcDbEntity
  8
268140580
100
AcDbLine
 62
250
  6
CONTINUOUS
 10
8.25
 20
-22.399725907
 30
0.0
 11
4.4040267792
 21
-22.399725907
 31
0.0
  0
LINE
  5
26A
100
AcDbEntity
  8
268140580
100
AcDbLine
 62
250
  6
CONTINUOUS
 10
-4.4040267792
 20
-22.399725907
 30
0.0
 11
-8.25
 21
-22.399725907
 31
0.0
  0
LINE
  5
26B
100
AcDbEntity
  8
268140580
100
AcDbLine
 62
250
  6
CONTINUOUS
 10
-10.65
 20
-22.399725907
 30
0.0
 11
-10.727428791
 21
-22.399725907
 31
0.0
  0
LINE
  5
26C
100
AcDbEntity
  8
268140580
100
AcDbLine
 62
7
  6
CONTINUOUS
 10
-4.1040267792
 20
-22.3475922207
 30
0.0
 11
4.1040267792
 21
-22.3475922207
 31
0.0
  0
LINE
  5
26D
100
AcDbEntity
  8
268140580
100
AcDbLine
 62
7
  6
CONTINUOUS
 10
-10.7066668175
 20
-22.3213883311
 30
0.0
 11
-10.4
 21
-22.3213883311
 31
0.0
  0
LINE
  5
26E
100
AcDbEntity
  8
268140580
100
AcDbLine
 62
7
  6
CONTINUOUS
 10
-8.5
 20
-22.3213883311
 30
0.0
 11
8.5
 21
-22.3213883311
 31
0.0
  0
LINE
  5
26F
100
AcDbEntity
  8
268140580
100
AcDbLine
 62
7
  6
CONTINUOUS
 10
10.4
 20
-22.3213883311
 30
0.0
 11
10.7066668175
 21
-22.3213883311
 31
0.0
  0
LINE
  5
270
100
AcDbEntity
  8
RACCORDO
100
AcDbLine
 62
7
  6
CONTINUOUS
 10
-10.5864165478
 20
-22.15
 30
0.0
 11
10.5864165478
 21
-22.15
 31
0.0
  0
LINE
  5
271
100
AcDbEntity
  8
0
100
AcDbLine
 62
7
  6
CONTINUOUS
 10
-10.5864165478
 20
-22.15
 30
0.0
 11
10.5864165478
 21
-22.15
 31
0.0
  0
LINE
  5
272
100
AcDbEntity
  8
RACCORDO
100
AcDbLine
 62
250
  6
CONTINUOUS
 10
10.5365522332
 20
-22.000285404
 30
0.0
 11
-10.5365522332
 21
-22.000285404
 31
0.0
  0
LINE
  5
273
100
AcDbEntity
  8
0
100
AcDbLine
 62
250
  6
CONTINUOUS
 10
10.5365522332
 20
-22.000285404
 30
0.0
 11
-10.5365522332
 21
-22.000285404
 31
0.0
  0
LINE
  5
274
100
AcDbEntity
  8
268140580
100
AcDbLine
 62
250
  6
CONTINUOUS
 10
-11.15
 20
-22.0
 30
0.0
 11
-11.1326059127
 21
-22.0
 31
0.0
  0
LINE
  5
275
100
AcDbEntity
  8
268140580
100
AcDbLine
 62
250
  6
CONTINUOUS
 10
11.1326059127
 20
-22.0
 30
0.0
 11
11.15
 21
-22.0
 31
0.0
  0
LINE
  5
276
100
AcDbEntity
  8
268140580
100
AcDbLine
 62
7
  6
CONTINUOUS
 10
11.1202349998
 20
-20.8
 30
0.0
 11
11.0860359481
 21
-20.8
 31
0.0
  0
LINE
  5
277
100
AcDbEntity
  8
268140580
100
AcDbLine
 62
7
  6
CONTINUOUS
 10
-11.0860359481
 20
-20.8
 30
0.0
 11
-11.1202349998
 21
-20.8
 31
0.0
  0
LINE
  5
278
100
AcDbEntity
  8
DRAFT
100
AcDbLine
 62
7
  6
CONTINUOUS
 10
-11.1
 20
-20.7096311171
 30
0.0
 11
-11.0860359481
 21
-20.7096311171
 31
0.0
  0
LINE
  5
279
100
AcDbEntity
  8
0
100
AcDbLine
 62
7
  6
CONTINUOUS
 10
-11.1
 20
-20.7096311171
 30
0.0
 11
-11.0860359481
 21
-20.7096311171
 31
0.0
  0
LINE
  5
27A
100
AcDbEntity
  8
DRAFT
100
AcDbLine
 62
7
  6
CONTINUOUS
 10
11.0860359481
 20
-20.7096311171
 30
0.0
 11
11.1
 21
-20.7096311171
 31
0.0
  0
LINE
  5
27B
100
AcDbEntity
  8
0
100
AcDbLine
 62
7
  6
CONTINUOUS
 10
11.0860359481
 20
-20.7096311171
 30
0.0
 11
11.1
 21
-20.7096311171
 31
0.0
  0
LINE
  5
27C
100
AcDbEntity
  8
RACCORDO
100
AcDbLine
 62
250
  6
CONTINUOUS
 10
10.5200254648
 20
-20.5640332015
 30
0.0
 11
-10.5200254648
 21
-20.5640332015
 31
0.0
  0
LINE
  5
27D
100
AcDbEntity
  8
0
100
AcDbLine
 62
250
  6
CONTINUOUS
 10
10.5200254648
 20
-20.5640332015
 30
0.0
 11
-10.5200254648
 21
-20.5640332015
 31
0.0
  0
LINE
  5
27E
100
AcDbEntity
  8
CURVE
100
AcDbLine
 62
250
  6
CONTINUOUS
 10
-0.9999999702
 20
-14.7
 30
0.0
 11
-1.7499999776
 21
-14.7
 31
0.0
  0
LINE
  5
27F
100
AcDbEntity
  8
RACCORDO
100
AcDbLine
 62
7
  6
CONTINUOUS
 10
-11.15
 20
-17.6716990487
 30
0.0
 11
-11.15
 21
17.6716990487
 31
0.0
  0
LINE
  5
280
100
AcDbEntity
  8
268140580
100
AcDbLine
 62
7
  6
CONTINUOUS
 10
-11.15
 20
-22.0
 30
0.0
 11
-11.15
 21
22.0
 31
0.0
  0
LINE
  5
281
100
AcDbEntity
  8
268140580
100
AcDbLine
 62
250
  6
CONTINUOUS
 10
-11.1202349998
 20
-20.8
 30
0.0
 11
-11.1202349998
 21
20.8
 31
0.0
  0
LINE
  5
282
100
AcDbEntity
  8
268140580
100
AcDbLine
 62
7
  6
CONTINUOUS
 10
-11.1063623377
 20
-21.9212052494
 30
0.0
 11
-11.1063623377
 21
-20.8
 31
0.0
  0
LINE
  5
283
100
AcDbEntity
  8
268140580
100
AcDbLine
 62
7
  6
CONTINUOUS
 10
-11.1063623377
 20
20.8
 30
0.0
 11
-11.1063623377
 21
21.9212052494
 31
0.0
  0
LINE
  5
284
100
AcDbEntity
  8
RACCORDO
100
AcDbLine
 62
7
  6
CONTINUOUS
 10
-11.1
 20
20.7096311171
 30
0.0
 11
-11.1
 21
0.299969539
 31
0.0
  0
LINE
  5
285
100
AcDbEntity
  8
0
100
AcDbLine
 62
7
  6
CONTINUOUS
 10
-11.1
 20
20.7096311171
 30
0.0
 11
-11.1
 21
0.299969539
 31
0.0
  0
LINE
  5
286
100
AcDbEntity
  8
RACCORDO
100
AcDbLine
 62
7
  6
CONTINUOUS
 10
-11.1
 20
-20.7096311171
 30
0.0
 11
-11.1
 21
-0.299969539
 31
0.0
  0
LINE
  5
287
100
AcDbEntity
  8
0
100
AcDbLine
 62
7
  6
CONTINUOUS
 10
-11.1
 20
-20.7096311171
 30
0.0
 11
-11.1
 21
-0.299969539
 31
0.0
  0
LINE
  5
288
100
AcDbEntity
  8
RACCORDO
100
AcDbLine
 62
7
  6
CONTINUOUS
 10
-11.0860359481
 20
21.6497711479
 30
0.0
 11
-11.0860359481
 21
20.6677048937
 31
0.0
  0
LINE
  5
289
100
AcDbEntity
  8
0
100
AcDbLine
 62
7
  6
CONTINUOUS
 10
-11.0860359481
 20
21.6497711479
 30
0.0
 11
-11.0860359481
 21
20.6677048937
 31
0.0
  0
LINE
  5
28A
100
AcDbEntity
  8
RACCORDO
100
AcDbLine
 62
7
  6
CONTINUOUS
 10
-11.0860359481
 20
-21.6497711479
 30
0.0
 11
-11.0860359481
 21
-20.6677048937
 31
0.0
  0
LINE
  5
28B
100
AcDbEntity
  8
0
100
AcDbLine
 62
7
  6
CONTINUOUS
 10
-11.0860359481
 20
-21.6497711479
 30
0.0
 11
-11.0860359481
 21
-20.6677048937
 31
0.0
  0
LINE
  5
28C
100
AcDbEntity
  8
268140580
100
AcDbLine
 62
250
  6
CONTINUOUS
 10
-10.8202806912
 20
-0.1
 30
0.0
 11
-10.8202806912
 21
0.1
 31
0.0
  0
LINE
  5
28D
100
AcDbEntity
  8
268140580
100
AcDbLine
 62
250
  6
CONTINUOUS
 10
-10.727428791
 20
22.4
 30
0.0
 11
-10.727428791
 21
22.399725907
 31
0.0
  0
LINE
  5
28E
100
AcDbEntity
  8
268140580
100
AcDbLine
 62
250
  6
CONTINUOUS
 10
-10.727428791
 20
-22.399725907
 30
0.0
 11
-10.727428791
 21
-22.4
 31
0.0
  0
LINE
  5
28F
100
AcDbEntity
  8
CURVE
100
AcDbLine
 62
250
  6
CONTINUOUS
 10
-3.4
 20
14.2000000298
 30
0.0
 11
-2.8999999776
 21
14.7
 31
0.0
  0
LINE
  5
290
100
AcDbEntity
  8
CURVE
100
AcDbLine
 62
250
  6
CONTINUOUS
 10
-1.7499999776
 20
-11.2
 30
0.0
 11
-0.9999999702
 21
-11.2
 31
0.0
  0
LINE
  5
291
100
AcDbEntity
  8
CURVE
100
AcDbLine
 62
250
  6
CONTINUOUS
 10
-1.7499999776
 20
-14.7
 30
0.0
 11
-2.25
 21
-14.1999999776
 31
0.0
  0
LINE
  5
292
100
AcDbEntity
  8
268140580
100
AcDbLine
 62
7
  6
CONTINUOUS
 10
-10.65
 20
-22.3344902759
 30
0.0
 11
-10.65
 21
-24.2696259329
 31
0.0
  0
LINE
  5
293
100
AcDbEntity
  8
268140580
100
AcDbLine
 62
7
  6
CONTINUOUS
 10
-10.65
 20
22.3344902759
 30
0.0
 11
-10.65
 21
24.2696259329
 31
0.0
  0
LINE
  5
294
100
AcDbEntity
  8
RACCORDO
100
AcDbLine
 62
250
  6
CONTINUOUS
 10
-10.5126510259
 20
0.3926968735
 30
0.0
 11
-10.5126510259
 21
0.1925702545
 31
0.0
  0
LINE
  5
295
100
AcDbEntity
  8
0
100
AcDbLine
 62
250
  6
CONTINUOUS
 10
-10.5126510259
 20
0.3926968735
 30
0.0
 11
-10.5126510259
 21
0.1925702545
 31
0.0
  0
LINE
  5
296
100
AcDbEntity
  8
RACCORDO
100
AcDbLine
 62
250
  6
CONTINUOUS
 10
-10.5126510259
 20
-0.3926968735
 30
0.0
 11
-10.5126510259
 21
-0.1925702545
 31
0.0
  0
LINE
  5
297
100
AcDbEntity
  8
0
100
AcDbLine
 62
250
  6
CONTINUOUS
 10
-10.5126510259
 20
-0.3926968735
 30
0.0
 11
-10.5126510259
 21
-0.1925702545
 31
0.0
  0
LINE
  5
298
100
AcDbEntity
  8
268140580
100
AcDbLine
 62
250
  6
CONTINUOUS
 10
-10.4
 20
-22.3213883311
 30
0.0
 11
-10.4
 21
-24.5196259329
 31
0.0
  0
LINE
  5
299
100
AcDbEntity
  8
268140580
100
AcDbLine
 62
250
  6
CONTINUOUS
 10
-10.4
 20
22.3213883311
 30
0.0
 11
-10.4
 21
24.5196259329
 31
0.0
  0
LINE
  5
29A
100
AcDbEntity
  8
268140580
100
AcDbLine
 62
7
  6
CONTINUOUS
 10
-9.4825449351
 20
0.1192005714
 30
0.0
 11
-9.4825449351
 21
-0.1192005714
 31
0.0
  0
LINE
  5
29B
100
AcDbEntity
  8
268140580
100
AcDbLine
 62
7
  6
CONTINUOUS
 10
-9.4650898701
 20
-0.1192005714
 30
0.0
 11
-9.4650898701
 21
0.1192005714
 31
0.0
  0
LWPOLYLINE
  5
29C
100
AcDbEntity
  8
0
100
AcDbPolyline
 62
7
  6
CONTINUOUS
 90
3
 70
0
 43
0.3500000006
 10
1.1428571477
 20
33.4886485291
 10
1.0714285848
 20
33.2743640442
 10
0.9285714591
 20
32.9886483765
  0
LINE
  5
29D
100
AcDbEntity
  8
DRAFT
100
AcDbLine
 62
7
  6
CONTINUOUS
 10
-9.9
 20
0.1
 30
0.0
 11
-9.8904004454
 21
0.1192005714
 31
0.0
  0
LINE
  5
29E
100
AcDbEntity
  8
0
100
AcDbLine
 62
7
  6
CONTINUOUS
 10
-9.9
 20
0.1
 30
0.0
 11
-9.8904004454
 21
0.1192005714
 31
0.0
  0
LINE
  5
29F
100
AcDbEntity
  8
CURVE
100
AcDbLine
 62
250
  6
CONTINUOUS
 10
-1.65
 20
11.7000000224
 30
0.0
 11
-2.1499999702
 21
11.2
 31
0.0
  0
LINE
  5
2A0
100
AcDbEntity
  8
DRAFT
100
AcDbLine
 62
7
  6
CONTINUOUS
 10
-9.9
 20
-0.1
 30
0.0
 11
-9.8904004454
 21
-0.1192005714
 31
0.0
  0
LINE
  5
2A1
100
AcDbEntity
  8
0
100
AcDbLine
 62
7
  6
CONTINUOUS
 10
-9.9
 20
-0.1
 30
0.0
 11
-9.8904004454
 21
-0.1192005714
 31
0.0
  0
LINE
  5
2A2
100
AcDbEntity
  8
268140580
100
AcDbLine
 62
250
  6
CONTINUOUS
 10
-8.5
 20
-22.3213883311
 30
0.0
 11
-8.5
 21
-24.5196259329
 31
0.0
  0
LINE
  5
2A3
100
AcDbEntity
  8
268140580
100
AcDbLine
 62
250
  6
CONTINUOUS
 10
-8.5
 20
22.3213883311
 30
0.0
 11
-8.5
 21
24.5196259329
 31
0.0
  0
LINE
  5
2A4
100
AcDbEntity
  8
268140580
100
AcDbLine
 62
7
  6
CONTINUOUS
 10
-8.25
 20
24.2696259329
 30
0.0
 11
-8.25
 21
22.3344902759
 31
0.0
  0
LINE
  5
2A5
100
AcDbEntity
  8
268140580
100
AcDbLine
 62
7
  6
CONTINUOUS
 10
-8.25
 20
-22.3344902759
 30
0.0
 11
-8.25
 21
-24.2696259329
 31
0.0
  0
LINE
  5
2A6
100
AcDbEntity
  8
268140580
100
AcDbLine
 62
7
  6
CONTINUOUS
 10
-8.1805440373
 20
-0.1192005714
 30
0.0
 11
-8.1805440373
 21
0.1192005714
 31
0.0
  0
LINE
  5
2A7
100
AcDbEntity
  8
268140580
100
AcDbLine
 62
7
  6
CONTINUOUS
 10
-8.15
 20
-0.1192005714
 30
0.0
 11
-8.15
 21
0.1192005714
 31
0.0
  0
LINE
  5
2A8
100
AcDbEntity
  8
RACCORDO
100
AcDbLine
 62
250
  6
CONTINUOUS
 10
-11.1
 20
0.299969539
 30
0.0
 11
-11.0125748066
 21
0.3873947324
 31
0.0
  0
LINE
  5
2A9
100
AcDbEntity
  8
0
100
AcDbLine
 62
250
  6
CONTINUOUS
 10
-11.1
 20
0.299969539
 30
0.0
 11
-11.0125748066
 21
0.3873947324
 31
0.0
  0
LINE
  5
2AA
100
AcDbEntity
  8
RACCORDO
100
AcDbLine
 62
250
  6
CONTINUOUS
 10
-10.900030461
 20
0.1
 30
0.0
 11
-10.8126052676
 21
0.1874251934
 31
0.0
  0
LINE
  5
2AB
100
AcDbEntity
  8
0
100
AcDbLine
 62
250
  6
CONTINUOUS
 10
-10.900030461
 20
0.1
 30
0.0
 11
-10.8126052676
 21
0.1874251934
 31
0.0
  0
LINE
  5
2AC
100
AcDbEntity
  8
CURVE
100
AcDbLine
 62
250
  6
CONTINUOUS
 10
-0.9999999702
 20
-11.2
 30
0.0
 11
-0.5
 21
-11.6999999702
 31
0.0
  0
LINE
  5
2AD
100
AcDbEntity
  8
RACCORDO
100
AcDbLine
 62
250
  6
CONTINUOUS
 10
-11.0125748066
 20
-0.3873947324
 30
0.0
 11
-11.1
 21
-0.299969539
 31
0.0
  0
LINE
  5
2AE
100
AcDbEntity
  8
0
100
AcDbLine
 62
250
  6
CONTINUOUS
 10
-11.0125748066
 20
-0.3873947324
 30
0.0
 11
-11.1
 21
-0.299969539
 31
0.0
  0
LINE
  5
2AF
100
AcDbEntity
  8
RACCORDO
100
AcDbLine
 62
250
  6
CONTINUOUS
 10
-10.8126052676
 20
-0.1874251934
 30
0.0
 11
-10.900030461
 21
-0.1
 31
0.0
  0
LINE
  5
2B0
100
AcDbEntity
  8
0
100
AcDbLine
 62
250
  6
CONTINUOUS
 10
-10.8126052676
 20
-0.1874251934
 30
0.0
 11
-10.900030461
 21
-0.1
 31
0.0
  0
LINE
  5
2B1
100
AcDbEntity
  8
268140580
100
AcDbLine
 62
7
  6
CONTINUOUS
 10
-6.9971201749
 20
0.1
 30
0.0
 11
-6.9971201749
 21
-0.1
 31
0.0
  0
LINE
  5
2B2
100
AcDbEntity
  8
268140580
100
AcDbLine
 62
7
  6
CONTINUOUS
 10
-4.4040267792
 20
23.8061088075
 30
0.0
 11
-4.4040267792
 21
22.3633145545
 31
0.0
  0
LINE
  5
2B3
100
AcDbEntity
  8
268140580
100
AcDbLine
 62
7
  6
CONTINUOUS
 10
-4.4040267792
 20
-22.3633145545
 30
0.0
 11
-4.4040267792
 21
-23.8061088075
 31
0.0
  0
LINE
  5
2B4
100
AcDbEntity
  8
268140580
100
AcDbLine
 62
250
  6
CONTINUOUS
 10
-4.1040267792
 20
23.8087268678
 30
0.0
 11
-4.1040267792
 21
22.3475922207
 31
0.0
  0
LINE
  5
2B5
100
AcDbEntity
  8
268140580
100
AcDbLine
 62
250
  6
CONTINUOUS
 10
-4.1040267792
 20
-22.3475922207
 30
0.0
 11
-4.1040267792
 21
-23.8087268678
 31
0.0
  0
LINE
  5
2B6
100
AcDbEntity
  8
CURVE
100
AcDbLine
 62
250
  6
CONTINUOUS
 10
-3.4
 20
11.7000000224
 30
0.0
 11
-3.4
 21
14.2000001026
 31
0.0
  0
LINE
  5
2B7
100
AcDbEntity
  8
DRAFT
100
AcDbLine
 62
7
  6
CONTINUOUS
 10
-11.1
 20
-20.7096311171
 30
0.0
 11
-11.0860359481
 21
-20.6677048937
 31
0.0
  0
LINE
  5
2B8
100
AcDbEntity
  8
0
100
AcDbLine
 62
7
  6
CONTINUOUS
 10
-11.1
 20
-20.7096311171
 30
0.0
 11
-11.0860359481
 21
-20.6677048937
 31
0.0
  0
LINE
  5
2B9
100
AcDbEntity
  8
RACCORDO
100
AcDbLine
 62
250
  6
CONTINUOUS
 10
-11.0860359481
 20
-21.6497711479
 30
0.0
 11
-11.0364760808
 21
-21.5009706367
 31
0.0
  0
LINE
  5
2BA
100
AcDbEntity
  8
0
100
AcDbLine
 62
250
  6
CONTINUOUS
 10
-11.0860359481
 20
-21.6497711479
 30
0.0
 11
-11.0364760808
 21
-21.5009706367
 31
0.0
  0
LINE
  5
2BB
100
AcDbEntity
  8
268140580
100
AcDbLine
 62
250
  6
CONTINUOUS
 10
-11.1326059127
 20
-22.0
 30
0.0
 11
-11.1063623377
 21
-21.9212052494
 31
0.0
  0
LINE
  5
2BC
100
AcDbEntity
  8
CURVE
100
AcDbLine
 62
250
  6
CONTINUOUS
 10
0.4999999404
 20
-11.2
 30
0.0
 11
2.2499999404
 21
-14.7
 31
0.0
  0
LINE
  5
2BD
100
AcDbEntity
  8
DRAFT
100
AcDbLine
 62
7
  6
CONTINUOUS
 10
-11.1
 20
20.7096311171
 30
0.0
 11
-11.0860359481
 21
20.6677048937
 31
0.0
  0
LINE
  5
2BE
100
AcDbEntity
  8
0
100
AcDbLine
 62
7
  6
CONTINUOUS
 10
-11.1
 20
20.7096311171
 30
0.0
 11
-11.0860359481
 21
20.6677048937
 31
0.0
  0
LINE
  5
2BF
100
AcDbEntity
  8
RACCORDO
100
AcDbLine
 62
250
  6
CONTINUOUS
 10
-11.0364760808
 20
21.5009706367
 30
0.0
 11
-11.0860359481
 21
21.6497711479
 31
0.0
  0
LINE
  5
2C0
100
AcDbEntity
  8
0
100
AcDbLine
 62
250
  6
CONTINUOUS
 10
-11.0364760808
 20
21.5009706367
 30
0.0
 11
-11.0860359481
 21
21.6497711479
 31
0.0
  0
LINE
  5
2C1
100
AcDbEntity
  8
268140580
100
AcDbLine
 62
250
  6
CONTINUOUS
 10
-11.1063623377
 20
21.9212052494
 30
0.0
 11
-11.1326059127
 21
22.0
 31
0.0
  0
LINE
  5
2C2
100
AcDbEntity
  8
0
100
AcDbLine
 62
7
  6
CONTINUOUS
 10
-2.5
 20
-0.1
 30
0.0
 11
-2.5
 21
0.1
 31
0.0
  0
LINE
  5
2C3
100
AcDbEntity
  8
CURVE
100
AcDbLine
 62
250
  6
CONTINUOUS
 10
-2.25
 20
-14.1999999776
 30
0.0
 11
-2.25
 21
-11.6999998974
 31
0.0
  0
LINE
  5
2C4
100
AcDbEntity
  8
CURVE
100
AcDbLine
 62
250
  6
CONTINUOUS
 10
-1.65
 20
14.2000000298
 30
0.0
 11
-1.65
 21
11.6999999496
 31
0.0
  0
LINE
  5
2C5
100
AcDbEntity
  8
268140580
100
AcDbLine
 62
250
  6
CONTINUOUS
 10
-10.7326668346
 20
-22.3994518139
 30
0.0
 11
-10.7066668175
 21
-22.3213883311
 31
0.0
  0
LINE
  5
2C6
100
AcDbEntity
  8
RACCORDO
100
AcDbLine
 62
250
  6
CONTINUOUS
 10
-10.5864165478
 20
-22.15
 30
0.0
 11
-10.5365522332
 21
-22.000285404
 31
0.0
  0
LINE
  5
2C7
100
AcDbEntity
  8
0
100
AcDbLine
 62
250
  6
CONTINUOUS
 10
-10.5864165478
 20
-22.15
 30
0.0
 11
-10.5365522332
 21
-22.000285404
 31
0.0
  0
LINE
  5
2C8
100
AcDbEntity
  8
268140580
100
AcDbLine
 62
250
  6
CONTINUOUS
 10
-10.7066668175
 20
22.3213883311
 30
0.0
 11
-10.7326668346
 21
22.3994518139
 31
0.0
  0
LINE
  5
2C9
100
AcDbEntity
  8
RACCORDO
100
AcDbLine
 62
250
  6
CONTINUOUS
 10
-10.5365522332
 20
22.000285404
 30
0.0
 11
-10.5864165478
 21
22.15
 31
0.0
  0
LINE
  5
2CA
100
AcDbEntity
  8
0
100
AcDbLine
 62
250
  6
CONTINUOUS
 10
-10.5365522332
 20
22.000285404
 30
0.0
 11
-10.5864165478
 21
22.15
 31
0.0
  0
LINE
  5
2CB
100
AcDbEntity
  8
0
100
AcDbLine
 62
7
  6
CONTINUOUS
 10
-1.25
 20
0.1
 30
0.0
 11
-1.25
 21
-0.1
 31
0.0
  0
LINE
  5
2CC
100
AcDbEntity
  8
DRAFT
100
AcDbLine
 62
7
  6
CONTINUOUS
 10
-1.0
 20
0.1
 30
0.0
 11
-1.0
 21
-0.1
 31
0.0
  0
LINE
  5
2CD
100
AcDbEntity
  8
RACCORDO
100
AcDbLine
 62
7
  6
CONTINUOUS
 10
-0.8363712289
 20
-0.1
 30
0.0
 11
-0.8363712289
 21
0.1
 31
0.0
  0
LINE
  5
2CE
100
AcDbEntity
  8
CURVE
100
AcDbLine
 62
250
  6
CONTINUOUS
 10
-0.6500000596
 20
11.2
 30
0.0
 11
-0.6500000596
 21
14.7000000476
 31
0.0
  0
LINE
  5
2CF
100
AcDbEntity
  8
CURVE
100
AcDbLine
 62
250
  6
CONTINUOUS
 10
-0.5
 20
-11.6999999702
 30
0.0
 11
-0.5
 21
-14.2000000504
 31
0.0
  0
LINE
  5
2D0
100
AcDbEntity
  8
ASSI
100
AcDbLine
 62
7
  6
CONTINUOUS
 10
-0.490915691
 20
-0.1
 30
0.0
 11
-0.490915691
 21
0.1
 31
0.0
  0
LINE
  5
2D1
100
AcDbEntity
  8
DRAFT
100
AcDbLine
 62
7
  6
CONTINUOUS
 10
7.6052558883
 20
0.1
 30
0.0
 11
7.9
 21
0.1192005714
 31
0.0
  0
LINE
  5
2D2
100
AcDbEntity
  8
0
100
AcDbLine
 62
7
  6
CONTINUOUS
 10
7.6052558883
 20
0.1
 30
0.0
 11
7.9
 21
0.1192005714
 31
0.0
  0
LWPOLYLINE
  5
2D3
100
AcDbEntity
  8
0
100
AcDbPolyline
 62
7
  6
CONTINUOUS
 90
2
 70
0
 43
0.3500000006
 10
19.2499990768
 20
-1.3571429443
 10
17.749999752
 20
-1.3571429443
  0
LINE
  5
2D4
100
AcDbEntity
  8
RACCORDO
100
AcDbLine
 62
250
  6
CONTINUOUS
 10
10.5126510259
 20
-0.3926968735
 30
0.0
 11
-10.5126510259
 21
-0.3926968735
 31
0.0
  0
LINE
  5
2D5
100
AcDbEntity
  8
0
100
AcDbLine
 62
250
  6
CONTINUOUS
 10
10.5126510259
 20
-0.3926968735
 30
0.0
 11
-10.5126510259
 21
-0.3926968735
 31
0.0
  0
LINE
  5
2D6
100
AcDbEntity
  8
RACCORDO
100
AcDbLine
 62
250
  6
CONTINUOUS
 10
10.5126510259
 20
-0.1925702545
 30
0.0
 11
-10.5126510259
 21
-0.1925702545
 31
0.0
  0
LINE
  5
2D7
100
AcDbEntity
  8
0
100
AcDbLine
 62
250
  6
CONTINUOUS
 10
10.5126510259
 20
-0.1925702545
 30
0.0
 11
-10.5126510259
 21
-0.1925702545
 31
0.0
  0
LINE
  5
2D8
100
AcDbEntity
  8
DRAFT
100
AcDbLine
 62
7
  6
CONTINUOUS
 10
9.8904004454
 20
-0.1192005714
 30
0.0
 11
7.9
 21
-0.1192005714
 31
0.0
  0
LINE
  5
2D9
100
AcDbEntity
  8
0
100
AcDbLine
 62
7
  6
CONTINUOUS
 10
9.8904004454
 20
-0.1192005714
 30
0.0
 11
7.9
 21
-0.1192005714
 31
0.0
  0
LINE
  5
2DA
100
AcDbEntity
  8
DRAFT
100
AcDbLine
 62
7
  6
CONTINUOUS
 10
-7.9
 20
-0.1192005714
 30
0.0
 11
-9.8904004454
 21
-0.1192005714
 31
0.0
  0
LINE
  5
2DB
100
AcDbEntity
  8
0
100
AcDbLine
 62
7
  6
CONTINUOUS
 10
-7.9
 20
-0.1192005714
 30
0.0
 11
-9.8904004454
 21
-0.1192005714
 31
0.0
  0
LINE
  5
2DC
100
AcDbEntity
  8
RACCORDO
100
AcDbLine
 62
7
  6
CONTINUOUS
 10
-10.900030461
 20
-0.1
 30
0.0
 11
-9.9
 21
-0.1
 31
0.0
  0
LINE
  5
2DD
100
AcDbEntity
  8
0
100
AcDbLine
 62
7
  6
CONTINUOUS
 10
-10.900030461
 20
-0.1
 30
0.0
 11
-9.9
 21
-0.1
 31
0.0
  0
LINE
  5
2DE
100
AcDbEntity
  8
DRAFT
100
AcDbLine
 62
7
  6
CONTINUOUS
 10
-7.6052558883
 20
-0.1
 30
0.0
 11
7.6052558883
 21
-0.1
 31
0.0
  0
LINE
  5
2DF
100
AcDbEntity
  8
0
100
AcDbLine
 62
7
  6
CONTINUOUS
 10
-7.6052558883
 20
-0.1
 30
0.0
 11
7.6052558883
 21
-0.1
 31
0.0
  0
LINE
  5
2E0
100
AcDbEntity
  8
RACCORDO
100
AcDbLine
 62
7
  6
CONTINUOUS
 10
9.9
 20
-0.1
 30
0.0
 11
10.900030461
 21
-0.1
 31
0.0
  0
LINE
  5
2E1
100
AcDbEntity
  8
0
100
AcDbLine
 62
7
  6
CONTINUOUS
 10
9.9
 20
-0.1
 30
0.0
 11
10.900030461
 21
-0.1
 31
0.0
  0
LINE
  5
2E2
100
AcDbEntity
  8
RACCORDO
100
AcDbLine
 62
7
  6
CONTINUOUS
 10
10.900030461
 20
0.1
 30
0.0
 11
9.9
 21
0.1
 31
0.0
  0
LINE
  5
2E3
100
AcDbEntity
  8
0
100
AcDbLine
 62
7
  6
CONTINUOUS
 10
10.900030461
 20
0.1
 30
0.0
 11
9.9
 21
0.1
 31
0.0
  0
LINE
  5
2E4
100
AcDbEntity
  8
DRAFT
100
AcDbLine
 62
7
  6
CONTINUOUS
 10
7.6052558883
 20
0.1
 30
0.0
 11
-7.6052558883
 21
0.1
 31
0.0
  0
LINE
  5
2E5
100
AcDbEntity
  8
0
100
AcDbLine
 62
7
  6
CONTINUOUS
 10
7.6052558883
 20
0.1
 30
0.0
 11
-7.6052558883
 21
0.1
 31
0.0
  0
LINE
  5
2E6
100
AcDbEntity
  8
RACCORDO
100
AcDbLine
 62
7
  6
CONTINUOUS
 10
-9.9
 20
0.1
 30
0.0
 11
-10.900030461
 21
0.1
 31
0.0
  0
LINE
  5
2E7
100
AcDbEntity
  8
0
100
AcDbLine
 62
7
  6
CONTINUOUS
 10
-9.9
 20
0.1
 30
0.0
 11
-10.900030461
 21
0.1
 31
0.0
  0
LINE
  5
2E8
100
AcDbEntity
  8
DRAFT
100
AcDbLine
 62
7
  6
CONTINUOUS
 10
-9.8904004454
 20
0.1192005714
 30
0.0
 11
-7.9
 21
0.1192005714
 31
0.0
  0
LINE
  5
2E9
100
AcDbEntity
  8
0
100
AcDbLine
 62
7
  6
CONTINUOUS
 10
-9.8904004454
 20
0.1192005714
 30
0.0
 11
-7.9
 21
0.1192005714
 31
0.0
  0
LINE
  5
2EA
100
AcDbEntity
  8
DRAFT
100
AcDbLine
 62
7
  6
CONTINUOUS
 10
7.9
 20
0.1192005714
 30
0.0
 11
9.8904004454
 21
0.1192005714
 31
0.0
  0
LINE
  5
2EB
100
AcDbEntity
  8
0
100
AcDbLine
 62
7
  6
CONTINUOUS
 10
7.9
 20
0.1192005714
 30
0.0
 11
9.8904004454
 21
0.1192005714
 31
0.0
  0
LINE
  5
2EC
100
AcDbEntity
  8
RACCORDO
100
AcDbLine
 62
250
  6
CONTINUOUS
 10
-10.5126510259
 20
0.1925702545
 30
0.0
 11
10.5126510259
 21
0.1925702545
 31
0.0
  0
LINE
  5
2ED
100
AcDbEntity
  8
0
100
AcDbLine
 62
250
  6
CONTINUOUS
 10
-10.5126510259
 20
0.1925702545
 30
0.0
 11
10.5126510259
 21
0.1925702545
 31
0.0
  0
LINE
  5
2EE
100
AcDbEntity
  8
DRAFT
100
AcDbLine
 62
7
  6
CONTINUOUS
 10
-7.6052558883
 20
0.1
 30
0.0
 11
-7.9
 21
0.1192005714
 31
0.0
  0
LINE
  5
2EF
100
AcDbEntity
  8
0
100
AcDbLine
 62
7
  6
CONTINUOUS
 10
-7.6052558883
 20
0.1
 30
0.0
 11
-7.9
 21
0.1192005714
 31
0.0
  0
LINE
  5
2F0
100
AcDbEntity
  8
ASSI
100
AcDbLine
 62
7
  6
CONTINUOUS
 10
0.490915691
 20
0.1
 30
0.0
 11
0.490915691
 21
-0.1
 31
0.0
  0
LINE
  5
2F1
100
AcDbEntity
  8
CURVE
100
AcDbLine
 62
250
  6
CONTINUOUS
 10
0.4999999404
 20
-14.7
 30
0.0
 11
0.4999999404
 21
-11.1999999524
 31
0.0
  0
LINE
  5
2F2
100
AcDbEntity
  8
RACCORDO
100
AcDbLine
 62
7
  6
CONTINUOUS
 10
0.8363712289
 20
-0.1
 30
0.0
 11
0.8363712289
 21
0.1
 31
0.0
  0
LINE
  5
2F3
100
AcDbEntity
  8
DRAFT
100
AcDbLine
 62
7
  6
CONTINUOUS
 10
1.0
 20
-0.1
 30
0.0
 11
1.0
 21
0.1
 31
0.0
  0
LINE
  5
2F4
100
AcDbEntity
  8
0
100
AcDbLine
 62
7
  6
CONTINUOUS
 10
1.25
 20
-0.1
 30
0.0
 11
1.25
 21
0.1
 31
0.0
  0
LINE
  5
2F5
100
AcDbEntity
  8
CURVE
100
AcDbLine
 62
250
  6
CONTINUOUS
 10
1.85
 20
11.2
 30
0.0
 11
1.85
 21
14.7000000476
 31
0.0
  0
LINE
  5
2F6
100
AcDbEntity
  8
DRAFT
100
AcDbLine
 62
7
  6
CONTINUOUS
 10
-7.6052558883
 20
-0.1
 30
0.0
 11
-7.9
 21
-0.1192005714
 31
0.0
  0
LINE
  5
2F7
100
AcDbEntity
  8
0
100
AcDbLine
 62
7
  6
CONTINUOUS
 10
-7.6052558883
 20
-0.1
 30
0.0
 11
-7.9
 21
-0.1192005714
 31
0.0
  0
LINE
  5
2F8
100
AcDbEntity
  8
RACCORDO
100
AcDbLine
 62
250
  6
CONTINUOUS
 10
-10.5126510259
 20
0.3926968735
 30
0.0
 11
10.5126510259
 21
0.3926968735
 31
0.0
  0
LINE
  5
2F9
100
AcDbEntity
  8
0
100
AcDbLine
 62
250
  6
CONTINUOUS
 10
-10.5126510259
 20
0.3926968735
 30
0.0
 11
10.5126510259
 21
0.3926968735
 31
0.0
  0
LINE
  5
2FA
100
AcDbEntity
  8
DRAFT
100
AcDbLine
 62
7
  6
CONTINUOUS
 10
7.6052558883
 20
-0.1
 30
0.0
 11
7.9
 21
-0.1192005714
 31
0.0
  0
LINE
  5
2FB
100
AcDbEntity
  8
0
100
AcDbLine
 62
7
  6
CONTINUOUS
 10
7.6052558883
 20
-0.1
 30
0.0
 11
7.9
 21
-0.1192005714
 31
0.0
  0
LINE
  5
2FC
100
AcDbEntity
  8
CURVE
100
AcDbLine
 62
250
  6
CONTINUOUS
 10
2.2499999404
 20
-14.7
 30
0.0
 11
2.2499999404
 21
-11.1999999524
 31
0.0
  0
LINE
  5
2FD
100
AcDbEntity
  8
0
100
AcDbLine
 62
7
  6
CONTINUOUS
 10
2.5
 20
0.1
 30
0.0
 11
2.5
 21
-0.1
 31
0.0
  0
LINE
  5
2FE
100
AcDbEntity
  8
RACCORDO
100
AcDbLine
 62
250
  6
CONTINUOUS
 10
10.5864165478
 20
22.15
 30
0.0
 11
10.5365522332
 21
22.000285404
 31
0.0
  0
LINE
  5
2FF
100
AcDbEntity
  8
0
100
AcDbLine
 62
250
  6
CONTINUOUS
 10
10.5864165478
 20
22.15
 30
0.0
 11
10.5365522332
 21
22.000285404
 31
0.0
  0
LINE
  5
300
100
AcDbEntity
  8
268140580
100
AcDbLine
 62
250
  6
CONTINUOUS
 10
10.7326668346
 20
22.3994518139
 30
0.0
 11
10.7066668175
 21
22.3213883311
 31
0.0
  0
LINE
  5
301
100
AcDbEntity
  8
268140580
100
AcDbLine
 62
250
  6
CONTINUOUS
 10
11.1326059127
 20
22.0
 30
0.0
 11
11.1063623377
 21
21.9212052494
 31
0.0
  0
LINE
  5
302
100
AcDbEntity
  8
RACCORDO
100
AcDbLine
 62
250
  6
CONTINUOUS
 10
11.0860359481
 20
21.6497711479
 30
0.0
 11
11.0364760808
 21
21.5009706367
 31
0.0
  0
LINE
  5
303
100
AcDbEntity
  8
0
100
AcDbLine
 62
250
  6
CONTINUOUS
 10
11.0860359481
 20
21.6497711479
 30
0.0
 11
11.0364760808
 21
21.5009706367
 31
0.0
  0
LINE
  5
304
100
AcDbEntity
  8
RACCORDO
100
AcDbLine
 62
250
  6
CONTINUOUS
 10
10.5365522332
 20
-22.000285404
 30
0.0
 11
10.5864165478
 21
-22.15
 31
0.0
  0
LINE
  5
305
100
AcDbEntity
  8
0
100
AcDbLine
 62
250
  6
CONTINUOUS
 10
10.5365522332
 20
-22.000285404
 30
0.0
 11
10.5864165478
 21
-22.15
 31
0.0
  0
LINE
  5
306
100
AcDbEntity
  8
268140580
100
AcDbLine
 62
250
  6
CONTINUOUS
 10
10.7066668175
 20
-22.3213883311
 30
0.0
 11
10.7326668346
 21
-22.3994518139
 31
0.0
  0
LINE
  5
307
100
AcDbEntity
  8
268140580
100
AcDbLine
 62
250
  6
CONTINUOUS
 10
11.1063623377
 20
-21.9212052494
 30
0.0
 11
11.1326059127
 21
-22.0
 31
0.0
  0
LINE
  5
308
100
AcDbEntity
  8
RACCORDO
100
AcDbLine
 62
250
  6
CONTINUOUS
 10
11.0364760808
 20
-21.5009706367
 30
0.0
 11
11.0860359481
 21
-21.6497711479
 31
0.0
  0
LINE
  5
309
100
AcDbEntity
  8
0
100
AcDbLine
 62
250
  6
CONTINUOUS
 10
11.0364760808
 20
-21.5009706367
 30
0.0
 11
11.0860359481
 21
-21.6497711479
 31
0.0
  0
LINE
  5
30A
100
AcDbEntity
  8
268140580
100
AcDbLine
 62
250
  6
CONTINUOUS
 10
4.1040267792
 20
-23.8087268678
 30
0.0
 11
4.1040267792
 21
-22.3475922207
 31
0.0
  0
LINE
  5
30B
100
AcDbEntity
  8
268140580
100
AcDbLine
 62
250
  6
CONTINUOUS
 10
4.1040267792
 20
22.3475922207
 30
0.0
 11
4.1040267792
 21
23.8087268678
 31
0.0
  0
LINE
  5
30C
100
AcDbEntity
  8
268140580
100
AcDbLine
 62
7
  6
CONTINUOUS
 10
4.4040267792
 20
-23.8061088075
 30
0.0
 11
4.4040267792
 21
-22.3633145545
 31
0.0
  0
LINE
  5
30D
100
AcDbEntity
  8
268140580
100
AcDbLine
 62
7
  6
CONTINUOUS
 10
4.4040267792
 20
22.3633145545
 30
0.0
 11
4.4040267792
 21
23.8061088075
 31
0.0
  0
LINE
  5
30E
100
AcDbEntity
  8
DRAFT
100
AcDbLine
 62
7
  6
CONTINUOUS
 10
11.1
 20
20.7096311171
 30
0.0
 11
11.0860359481
 21
20.6677048937
 31
0.0
  0
LINE
  5
30F
100
AcDbEntity
  8
0
100
AcDbLine
 62
7
  6
CONTINUOUS
 10
11.1
 20
20.7096311171
 30
0.0
 11
11.0860359481
 21
20.6677048937
 31
0.0
  0
LINE
  5
310
100
AcDbEntity
  8
DRAFT
100
AcDbLine
 62
7
  6
CONTINUOUS
 10
11.1
 20
-20.7096311171
 30
0.0
 11
11.0860359481
 21
-20.6677048937
 31
0.0
  0
LINE
  5
311
100
AcDbEntity
  8
0
100
AcDbLine
 62
7
  6
CONTINUOUS
 10
11.1
 20
-20.7096311171
 30
0.0
 11
11.0860359481
 21
-20.6677048937
 31
0.0
  0
LINE
  5
312
100
AcDbEntity
  8
268140580
100
AcDbLine
 62
7
  6
CONTINUOUS
 10
6.9971201749
 20
-0.1
 30
0.0
 11
6.9971201749
 21
0.1
 31
0.0
  0
LINE
  5
313
100
AcDbEntity
  8
CURVE
100
AcDbLine
 62
250
  6
CONTINUOUS
 10
-2.25
 20
-11.6999999702
 30
0.0
 11
-1.7499999776
 21
-11.2
 31
0.0
  0
LINE
  5
314
100
AcDbEntity
  8
CURVE
100
AcDbLine
 62
250
  6
CONTINUOUS
 10
-2.8999999776
 20
11.2
 30
0.0
 11
-3.4
 21
11.7000000224
 31
0.0
  0
LINE
  5
315
100
AcDbEntity
  8
268140580
100
AcDbLine
 62
7
  6
CONTINUOUS
 10
8.15
 20
-0.1192005714
 30
0.0
 11
8.15
 21
0.1192005714
 31
0.0
  0
LINE
  5
316
100
AcDbEntity
  8
268140580
100
AcDbLine
 62
7
  6
CONTINUOUS
 10
8.1805440373
 20
-0.1192005714
 30
0.0
 11
8.1805440373
 21
0.1192005714
 31
0.0
  0
LINE
  5
317
100
AcDbEntity
  8
268140580
100
AcDbLine
 62
7
  6
CONTINUOUS
 10
8.25
 20
-22.3344902759
 30
0.0
 11
8.25
 21
-24.2696259329
 31
0.0
  0
LINE
  5
318
100
AcDbEntity
  8
268140580
100
AcDbLine
 62
7
  6
CONTINUOUS
 10
8.25
 20
22.3344902759
 30
0.0
 11
8.25
 21
24.2696259329
 31
0.0
  0
LINE
  5
319
100
AcDbEntity
  8
268140580
100
AcDbLine
 62
250
  6
CONTINUOUS
 10
8.5
 20
-22.3213883311
 30
0.0
 11
8.5
 21
-24.5196259329
 31
0.0
  0
LINE
  5
31A
100
AcDbEntity
  8
268140580
100
AcDbLine
 62
250
  6
CONTINUOUS
 10
8.5
 20
22.3213883311
 30
0.0
 11
8.5
 21
24.5196259329
 31
0.0
  0
LINE
  5
31B
100
AcDbEntity
  8
DRAFT
100
AcDbLine
 62
7
  6
CONTINUOUS
 10
9.9
 20
-0.1
 30
0.0
 11
9.8904004454
 21
-0.1192005714
 31
0.0
  0
LINE
  5
31C
100
AcDbEntity
  8
0
100
AcDbLine
 62
7
  6
CONTINUOUS
 10
9.9
 20
-0.1
 30
0.0
 11
9.8904004454
 21
-0.1192005714
 31
0.0
  0
LINE
  5
31D
100
AcDbEntity
  8
RACCORDO
100
AcDbLine
 62
250
  6
CONTINUOUS
 10
10.900030461
 20
-0.1
 30
0.0
 11
10.8126052676
 21
-0.1874251934
 31
0.0
  0
LINE
  5
31E
100
AcDbEntity
  8
0
100
AcDbLine
 62
250
  6
CONTINUOUS
 10
10.900030461
 20
-0.1
 30
0.0
 11
10.8126052676
 21
-0.1874251934
 31
0.0
  0
LINE
  5
31F
100
AcDbEntity
  8
RACCORDO
100
AcDbLine
 62
250
  6
CONTINUOUS
 10
11.1
 20
-0.299969539
 30
0.0
 11
11.0125748066
 21
-0.3873947324
 31
0.0
  0
LINE
  5
320
100
AcDbEntity
  8
0
100
AcDbLine
 62
250
  6
CONTINUOUS
 10
11.1
 20
-0.299969539
 30
0.0
 11
11.0125748066
 21
-0.3873947324
 31
0.0
  0
LINE
  5
321
100
AcDbEntity
  8
RACCORDO
100
AcDbLine
 62
250
  6
CONTINUOUS
 10
10.8126052676
 20
0.1874251934
 30
0.0
 11
10.900030461
 21
0.1
 31
0.0
  0
LINE
  5
322
100
AcDbEntity
  8
0
100
AcDbLine
 62
250
  6
CONTINUOUS
 10
10.8126052676
 20
0.1874251934
 30
0.0
 11
10.900030461
 21
0.1
 31
0.0
  0
LINE
  5
323
100
AcDbEntity
  8
RACCORDO
100
AcDbLine
 62
250
  6
CONTINUOUS
 10
11.0125748066
 20
0.3873947324
 30
0.0
 11
11.1
 21
0.299969539
 31
0.0
  0
LINE
  5
324
100
AcDbEntity
  8
0
100
AcDbLine
 62
250
  6
CONTINUOUS
 10
11.0125748066
 20
0.3873947324
 30
0.0
 11
11.1
 21
0.299969539
 31
0.0
  0
LINE
  5
325
100
AcDbEntity
  8
CURVE
100
AcDbLine
 62
250
  6
CONTINUOUS
 10
-2.1499999702
 20
14.7
 30
0.0
 11
-1.65
 21
14.2000000298
 31
0.0
  0
LINE
  5
326
100
AcDbEntity
  8
DRAFT
100
AcDbLine
 62
7
  6
CONTINUOUS
 10
9.9
 20
0.1
 30
0.0
 11
9.8904004454
 21
0.1192005714
 31
0.0
  0
LINE
  5
327
100
AcDbEntity
  8
0
100
AcDbLine
 62
7
  6
CONTINUOUS
 10
9.9
 20
0.1
 30
0.0
 11
9.8904004454
 21
0.1192005714
 31
0.0
  0
LINE
  5
328
100
AcDbEntity
  8
268140580
100
AcDbLine
 62
7
  6
CONTINUOUS
 10
9.4650898701
 20
0.1192005714
 30
0.0
 11
9.4650898701
 21
-0.1192005714
 31
0.0
  0
LINE
  5
329
100
AcDbEntity
  8
268140580
100
AcDbLine
 62
7
  6
CONTINUOUS
 10
9.4825449351
 20
-0.1192005714
 30
0.0
 11
9.4825449351
 21
0.1192005714
 31
0.0
  0
LINE
  5
32A
100
AcDbEntity
  8
268140580
100
AcDbLine
 62
250
  6
CONTINUOUS
 10
10.4
 20
-22.3213883311
 30
0.0
 11
10.4
 21
-24.5196259329
 31
0.0
  0
LINE
  5
32B
100
AcDbEntity
  8
268140580
100
AcDbLine
 62
250
  6
CONTINUOUS
 10
10.4
 20
22.3213883311
 30
0.0
 11
10.4
 21
24.5196259329
 31
0.0
  0
LINE
  5
32C
100
AcDbEntity
  8
RACCORDO
100
AcDbLine
 62
250
  6
CONTINUOUS
 10
10.5126510259
 20
0.3926968735
 30
0.0
 11
10.5126510259
 21
0.1925702545
 31
0.0
  0
LINE
  5
32D
100
AcDbEntity
  8
0
100
AcDbLine
 62
250
  6
CONTINUOUS
 10
10.5126510259
 20
0.3926968735
 30
0.0
 11
10.5126510259
 21
0.1925702545
 31
0.0
  0
LINE
  5
32E
100
AcDbEntity
  8
RACCORDO
100
AcDbLine
 62
250
  6
CONTINUOUS
 10
10.5126510259
 20
-0.3926968735
 30
0.0
 11
10.5126510259
 21
-0.1925702545
 31
0.0
  0
LINE
  5
32F
100
AcDbEntity
  8
0
100
AcDbLine
 62
250
  6
CONTINUOUS
 10
10.5126510259
 20
-0.3926968735
 30
0.0
 11
10.5126510259
 21
-0.1925702545
 31
0.0
  0
LINE
  5
330
100
AcDbEntity
  8
268140580
100
AcDbLine
 62
7
  6
CONTINUOUS
 10
10.65
 20
24.2696259329
 30
0.0
 11
10.65
 21
22.3344902759
 31
0.0
  0
LINE
  5
331
100
AcDbEntity
  8
268140580
100
AcDbLine
 62
7
  6
CONTINUOUS
 10
10.65
 20
-22.3344902759
 30
0.0
 11
10.65
 21
-24.2696259329
 31
0.0
  0
LINE
  5
332
100
AcDbEntity
  8
268140580
100
AcDbLine
 62
250
  6
CONTINUOUS
 10
10.727428791
 20
-22.4
 30
0.0
 11
10.727428791
 21
-22.399725907
 31
0.0
  0
LINE
  5
333
100
AcDbEntity
  8
268140580
100
AcDbLine
 62
250
  6
CONTINUOUS
 10
10.727428791
 20
22.399725907
 30
0.0
 11
10.727428791
 21
22.4
 31
0.0
  0
LINE
  5
334
100
AcDbEntity
  8
268140580
100
AcDbLine
 62
250
  6
CONTINUOUS
 10
10.8202806912
 20
0.1
 30
0.0
 11
10.8202806912
 21
-0.1
 31
0.0
  0
LINE
  5
335
100
AcDbEntity
  8
RACCORDO
100
AcDbLine
 62
7
  6
CONTINUOUS
 10
11.0860359481
 20
21.6497711479
 30
0.0
 11
11.0860359481
 21
20.6677048937
 31
0.0
  0
LINE
  5
336
100
AcDbEntity
  8
0
100
AcDbLine
 62
7
  6
CONTINUOUS
 10
11.0860359481
 20
21.6497711479
 30
0.0
 11
11.0860359481
 21
20.6677048937
 31
0.0
  0
LINE
  5
337
100
AcDbEntity
  8
RACCORDO
100
AcDbLine
 62
7
  6
CONTINUOUS
 10
11.0860359481
 20
-21.6497711479
 30
0.0
 11
11.0860359481
 21
-20.6677048937
 31
0.0
  0
LINE
  5
338
100
AcDbEntity
  8
0
100
AcDbLine
 62
7
  6
CONTINUOUS
 10
11.0860359481
 20
-21.6497711479
 30
0.0
 11
11.0860359481
 21
-20.6677048937
 31
0.0
  0
LINE
  5
339
100
AcDbEntity
  8
RACCORDO
100
AcDbLine
 62
7
  6
CONTINUOUS
 10
11.1
 20
20.7096311171
 30
0.0
 11
11.1
 21
0.299969539
 31
0.0
  0
LINE
  5
33A
100
AcDbEntity
  8
0
100
AcDbLine
 62
7
  6
CONTINUOUS
 10
11.1
 20
20.7096311171
 30
0.0
 11
11.1
 21
0.299969539
 31
0.0
  0
LINE
  5
33B
100
AcDbEntity
  8
RACCORDO
100
AcDbLine
 62
7
  6
CONTINUOUS
 10
11.1
 20
-20.7096311171
 30
0.0
 11
11.1
 21
-0.299969539
 31
0.0
  0
LINE
  5
33C
100
AcDbEntity
  8
0
100
AcDbLine
 62
7
  6
CONTINUOUS
 10
11.1
 20
-20.7096311171
 30
0.0
 11
11.1
 21
-0.299969539
 31
0.0
  0
LINE
  5
33D
100
AcDbEntity
  8
268140580
100
AcDbLine
 62
7
  6
CONTINUOUS
 10
11.1063623377
 20
-21.9212052494
 30
0.0
 11
11.1063623377
 21
-20.8
 31
0.0
  0
LINE
  5
33E
100
AcDbEntity
  8
268140580
100
AcDbLine
 62
7
  6
CONTINUOUS
 10
11.1063623377
 20
20.8
 30
0.0
 11
11.1063623377
 21
21.9212052494
 31
0.0
  0
LINE
  5
33F
100
AcDbEntity
  8
268140580
100
AcDbLine
 62
250
  6
CONTINUOUS
 10
11.1202349998
 20
20.8
 30
0.0
 11
11.1202349998
 21
-20.8
 31
0.0
  0
LINE
  5
340
100
AcDbEntity
  8
RACCORDO
100
AcDbLine
 62
7
  6
CONTINUOUS
 10
11.15
 20
17.6716990487
 30
0.0
 11
11.15
 21
-17.6716990487
 31
0.0
  0
LINE
  5
341
100
AcDbEntity
  8
268140580
100
AcDbLine
 62
7
  6
CONTINUOUS
 10
11.15
 20
-22.0
 30
0.0
 11
11.15
 21
22.0
 31
0.0
  0
LINE
  5
342
100
AcDbEntity
  8
CURVE
100
AcDbLine
 62
250
  6
CONTINUOUS
 10
-0.5
 20
-14.1999999776
 30
0.0
 11
-0.9999999702
 21
-14.7
 31
0.0
  0
LINE
  5
343
100
AcDbEntity
  8
CURVE
100
AcDbLine
 62
250
  6
CONTINUOUS
 10
-2.1499999702
 20
11.2
 30
0.0
 11
-2.8999999776
 21
11.2
 31
0.0
  0
LINE
  5
344
100
AcDbEntity
  8
CURVE
100
AcDbLine
 62
250
  6
CONTINUOUS
 10
3.3500001192
 20
13.2000000894
 30
0.0
 11
1.85
 21
13.2000000894
 31
0.0
  0
LINE
  5
345
100
AcDbEntity
  8
CURVE
100
AcDbLine
 62
250
  6
CONTINUOUS
 10
0.8500000596
 20
13.2000000894
 30
0.0
 11
-0.6500000596
 21
13.2000000894
 31
0.0
  0
LINE
  5
346
100
AcDbEntity
  8
CURVE
100
AcDbLine
 62
250
  6
CONTINUOUS
 10
-2.8999999776
 20
14.7
 30
0.0
 11
-2.1499999702
 21
14.7
 31
0.0
  0
LINE
  5
347
100
AcDbEntity
  8
CURVE
100
AcDbLine
 62
250
  6
CONTINUOUS
 10
-0.6500000596
 20
14.7
 30
0.0
 11
0.8500000596
 21
14.7
 31
0.0
  0
LINE
  5
348
100
AcDbEntity
  8
CURVE
100
AcDbLine
 62
250
  6
CONTINUOUS
 10
1.85
 20
14.7
 30
0.0
 11
3.3500001192
 21
14.7
 31
0.0
  0
LWPOLYLINE
  5
349
100
AcDbEntity
  8
0
100
AcDbPolyline
 62
7
  6
CONTINUOUS
 90
10
 70
0
 43
0.3500000006
 10
19.2499990768
 20
0.4285709152
 10
18.3928566055
 20
1.2857133865
 10
17.5357141342
 20
1.5000001373
 10
16.6785716629
 20
1.5000001373
 10
16.2500004272
 20
1.0714289017
 10
16.2500004272
 20
0.4285709152
 10
16.6785716629
 20
-0.0000003204
 10
17.5357141342
 20
-0.0000003204
 10
17.9642853699
 20
0.4285709152
 10
17.9642853699
 20
1.3571423035
  0
LWPOLYLINE
  5
34A
100
AcDbEntity
  8
0
100
AcDbPolyline
 62
7
  6
CONTINUOUS
 90
10
 70
0
 43
0.3500000006
 10
1.0714285848
 20
33.7029330139
 10
1.1428571477
 20
33.5600751801
 10
1.1428571477
 20
33.4886485291
 10
1.0000000219
 20
33.3457906952
 10
0.9285714591
 20
33.3457906952
 10
0.8571428254
 20
33.4172218781
 10
0.8571428254
 20
33.4886485291
 10
0.9285714591
 20
33.6315063629
 10
1.0000000219
 20
33.7029330139
 10
1.0714285848
 20
33.7029330139
  0
LWPOLYLINE
  5
34B
100
AcDbEntity
  8
0
100
AcDbPolyline
 62
7
  6
CONTINUOUS
 90
3
 70
0
 43
0.3500000006
 10
18.6071433563
 20
-0.8571427917
 10
18.6071433563
 20
-2.3571432495
 10
16.2500004272
 20
-1.7142852631
  0
LINE
  5
34C
100
AcDbEntity
  8
RACCORDO
100
AcDbLine
 62
250
  6
CONTINUOUS
 10
-10.5200254648
 20
20.5640332015
 30
0.0
 11
10.5200254648
 21
20.5640332015
 31
0.0
  0
LINE
  5
34D
100
AcDbEntity
  8
0
100
AcDbLine
 62
250
  6
CONTINUOUS
 10
-10.5200254648
 20
20.5640332015
 30
0.0
 11
10.5200254648
 21
20.5640332015
 31
0.0
  0
LINE
  5
34E
100
AcDbEntity
  8
DRAFT
100
AcDbLine
 62
7
  6
CONTINUOUS
 10
11.1
 20
20.7096311171
 30
0.0
 11
11.0860359481
 21
20.7096311171
 31
0.0
  0
LINE
  5
34F
100
AcDbEntity
  8
0
100
AcDbLine
 62
7
  6
CONTINUOUS
 10
11.1
 20
20.7096311171
 30
0.0
 11
11.0860359481
 21
20.7096311171
 31
0.0
  0
LINE
  5
350
100
AcDbEntity
  8
DRAFT
100
AcDbLine
 62
7
  6
CONTINUOUS
 10
-11.0860359481
 20
20.7096311171
 30
0.0
 11
-11.1
 21
20.7096311171
 31
0.0
  0
LINE
  5
351
100
AcDbEntity
  8
0
100
AcDbLine
 62
7
  6
CONTINUOUS
 10
-11.0860359481
 20
20.7096311171
 30
0.0
 11
-11.1
 21
20.7096311171
 31
0.0
  0
LINE
  5
352
100
AcDbEntity
  8
268140580
100
AcDbLine
 62
7
  6
CONTINUOUS
 10
-11.1202349998
 20
20.8
 30
0.0
 11
-11.0860359481
 21
20.8
 31
0.0
  0
LINE
  5
353
100
AcDbEntity
  8
268140580
100
AcDbLine
 62
7
  6
CONTINUOUS
 10
11.0860359481
 20
20.8
 30
0.0
 11
11.1202349998
 21
20.8
 31
0.0
  0
LINE
  5
354
100
AcDbEntity
  8
268140580
100
AcDbLine
 62
250
  6
CONTINUOUS
 10
11.15
 20
22.0
 30
0.0
 11
11.1326059127
 21
22.0
 31
0.0
  0
LINE
  5
355
100
AcDbEntity
  8
268140580
100
AcDbLine
 62
250
  6
CONTINUOUS
 10
-11.1326059127
 20
22.0
 30
0.0
 11
-11.15
 21
22.0
 31
0.0
  0
LINE
  5
356
100
AcDbEntity
  8
RACCORDO
100
AcDbLine
 62
250
  6
CONTINUOUS
 10
-10.5365522332
 20
22.000285404
 30
0.0
 11
10.5365522332
 21
22.000285404
 31
0.0
  0
LINE
  5
357
100
AcDbEntity
  8
0
100
AcDbLine
 62
250
  6
CONTINUOUS
 10
-10.5365522332
 20
22.000285404
 30
0.0
 11
10.5365522332
 21
22.000285404
 31
0.0
  0
LINE
  5
358
100
AcDbEntity
  8
RACCORDO
100
AcDbLine
 62
7
  6
CONTINUOUS
 10
10.5864165478
 20
22.15
 30
0.0
 11
-10.5864165478
 21
22.15
 31
0.0
  0
LINE
  5
359
100
AcDbEntity
  8
0
100
AcDbLine
 62
7
  6
CONTINUOUS
 10
10.5864165478
 20
22.15
 30
0.0
 11
-10.5864165478
 21
22.15
 31
0.0
  0
LINE
  5
35A
100
AcDbEntity
  8
268140580
100
AcDbLine
 62
7
  6
CONTINUOUS
 10
10.7066668175
 20
22.3213883311
 30
0.0
 11
10.4
 21
22.3213883311
 31
0.0
  0
LINE
  5
35B
100
AcDbEntity
  8
268140580
100
AcDbLine
 62
7
  6
CONTINUOUS
 10
8.5
 20
22.3213883311
 30
0.0
 11
-8.5
 21
22.3213883311
 31
0.0
  0
LINE
  5
35C
100
AcDbEntity
  8
268140580
100
AcDbLine
 62
7
  6
CONTINUOUS
 10
-10.4
 20
22.3213883311
 30
0.0
 11
-10.7066668175
 21
22.3213883311
 31
0.0
  0
LINE
  5
35D
100
AcDbEntity
  8
268140580
100
AcDbLine
 62
7
  6
CONTINUOUS
 10
-4.1040267792
 20
22.3475922207
 30
0.0
 11
4.1040267792
 21
22.3475922207
 31
0.0
  0
LINE
  5
35E
100
AcDbEntity
  8
268140580
100
AcDbLine
 62
250
  6
CONTINUOUS
 10
10.727428791
 20
22.399725907
 30
0.0
 11
10.65
 21
22.399725907
 31
0.0
  0
LINE
  5
35F
100
AcDbEntity
  8
268140580
100
AcDbLine
 62
250
  6
CONTINUOUS
 10
8.25
 20
22.399725907
 30
0.0
 11
4.4040267792
 21
22.399725907
 31
0.0
  0
LINE
  5
360
100
AcDbEntity
  8
268140580
100
AcDbLine
 62
250
  6
CONTINUOUS
 10
-4.4040267792
 20
22.399725907
 30
0.0
 11
-8.25
 21
22.399725907
 31
0.0
  0
LINE
  5
361
100
AcDbEntity
  8
268140580
100
AcDbLine
 62
250
  6
CONTINUOUS
 10
-10.65
 20
22.399725907
 30
0.0
 11
-10.727428791
 21
22.399725907
 31
0.0
  0
LINE
  5
362
100
AcDbEntity
  8
268140580
100
AcDbLine
 62
7
  6
CONTINUOUS
 10
10.7499390688
 20
22.4
 30
0.0
 11
10.65
 21
22.4
 31
0.0
  0
LINE
  5
363
100
AcDbEntity
  8
268140580
100
AcDbLine
 62
7
  6
CONTINUOUS
 10
8.25
 20
22.4
 30
0.0
 11
4.4040267792
 21
22.4
 31
0.0
  0
LINE
  5
364
100
AcDbEntity
  8
268140580
100
AcDbLine
 62
7
  6
CONTINUOUS
 10
-4.4040267792
 20
22.4
 30
0.0
 11
-8.25
 21
22.4
 31
0.0
  0
LINE
  5
365
100
AcDbEntity
  8
268140580
100
AcDbLine
 62
7
  6
CONTINUOUS
 10
-10.65
 20
22.4
 30
0.0
 11
-10.7499390688
 21
22.4
 31
0.0
  0
LINE
  5
366
100
AcDbEntity
  8
268140580
100
AcDbLine
 62
250
  6
CONTINUOUS
 10
8.25
 20
22.9783121635
 30
0.0
 11
10.65
 21
22.9783121635
 31
0.0
  0
LINE
  5
367
100
AcDbEntity
  8
268140580
100
AcDbLine
 62
250
  6
CONTINUOUS
 10
-8.25
 20
22.9783121635
 30
0.0
 11
-10.65
 21
22.9783121635
 31
0.0
  0
LINE
  5
368
100
AcDbEntity
  8
268140580
100
AcDbLine
 62
250
  6
CONTINUOUS
 10
10.4
 20
23.1948185145
 30
0.0
 11
8.5
 21
23.1948185145
 31
0.0
  0
LINE
  5
369
100
AcDbEntity
  8
268140580
100
AcDbLine
 62
250
  6
CONTINUOUS
 10
-8.5
 20
23.1948185145
 30
0.0
 11
-10.4
 21
23.1948185145
 31
0.0
  0
LINE
  5
36A
100
AcDbEntity
  8
268140580
100
AcDbLine
 62
250
  6
CONTINUOUS
 10
-10.4
 20
23.6278312164
 30
0.0
 11
-8.5
 21
23.6278312164
 31
0.0
  0
LINE
  5
36B
100
AcDbEntity
  8
268140580
100
AcDbLine
 62
250
  6
CONTINUOUS
 10
8.5
 20
23.6278312164
 30
0.0
 11
10.4
 21
23.6278312164
 31
0.0
  0
LINE
  5
36C
100
AcDbEntity
  8
268140580
100
AcDbLine
 62
7
  6
CONTINUOUS
 10
-4.1040267792
 20
23.8087268678
 30
0.0
 11
4.1040267792
 21
23.8087268678
 31
0.0
  0
LINE
  5
36D
100
AcDbEntity
  8
268140580
100
AcDbLine
 62
250
  6
CONTINUOUS
 10
8.25
 20
23.8443375673
 30
0.0
 11
10.65
 21
23.8443375673
 31
0.0
  0
LINE
  5
36E
100
AcDbEntity
  8
268140580
100
AcDbLine
 62
250
  6
CONTINUOUS
 10
-8.25
 20
23.8443375673
 30
0.0
 11
-10.65
 21
23.8443375673
 31
0.0
  0
LINE
  5
36F
100
AcDbEntity
  8
268140580
100
AcDbLine
 62
250
  6
CONTINUOUS
 10
8.25
 20
24.2696259329
 30
0.0
 11
10.65
 21
24.2696259329
 31
0.0
  0
LINE
  5
370
100
AcDbEntity
  8
268140580
100
AcDbLine
 62
250
  6
CONTINUOUS
 10
-8.25
 20
24.2696259329
 30
0.0
 11
-10.65
 21
24.2696259329
 31
0.0
  0
LINE
  5
371
100
AcDbEntity
  8
268140580
100
AcDbLine
 62
7
  6
CONTINUOUS
 10
10.4
 20
24.5196259329
 30
0.0
 11
8.5
 21
24.5196259329
 31
0.0
  0
LINE
  5
372
100
AcDbEntity
  8
268140580
100
AcDbLine
 62
7
  6
CONTINUOUS
 10
-8.5
 20
24.5196259329
 30
0.0
 11
-10.4
 21
24.5196259329
 31
0.0
  0
LWPOLYLINE
  5
373
100
AcDbEntity
  8
0
100
AcDbPolyline
 62
7
  6
CONTINUOUS
 90
7
 70
0
 43
0.3500000006
 10
-0.4285714127
 20
33.2029328613
 10
-1.9285714102
 20
33.2029328613
 10
-0.4285714127
 20
35.3457913055
 10
-0.4285714127
 20
35.7743648071
 10
-0.8571428254
 20
36.2029337769
 10
-1.5000000329
 20
36.2029337769
 10
-1.9285714102
 20
35.5600757904
  0
LWPOLYLINE
  5
374
100
AcDbEntity
  8
0
100
AcDbPolyline
 62
7
  6
CONTINUOUS
 90
6
 70
0
 43
0.3500000006
 10
2.1428571696
 20
33.2029328613
 10
3.2142856836
 20
33.2029328613
 10
3.4285713015
 20
33.4172218781
 10
3.4285713015
 20
34.4886488342
 10
3.0000000658
 20
34.917217804
 10
2.5714285469
 20
34.917217804
  0
LWPOLYLINE
  5
375
100
AcDbEntity
  8
0
100
AcDbPolyline
 62
7
  6
CONTINUOUS
 90
7
 70
0
 43
0.3500000006
 10
-2.7857141647
 20
33.2029328613
 10
-4.2857143393
 20
33.2029328613
 10
-2.7857141647
 20
35.3457913055
 10
-2.7857141647
 20
35.7743648071
 10
-3.2142856836
 20
36.2029337769
 10
-3.8571428204
 20
36.2029337769
 10
-4.2857143393
 20
35.5600757904
  0
LWPOLYLINE
  5
376
100
AcDbEntity
  8
0
100
AcDbPolyline
 62
7
  6
CONTINUOUS
 90
5
 70
0
 43
0.3500000006
 10
-42.792630661
 20
44.9839026489
 10
-42.4354883423
 20
45.1981871338
 10
-42.4354883423
 20
45.8410451202
 10
-42.792630661
 20
46.2696186218
 10
-43.6497731323
 20
46.2696186218
  0
LINE
  5
377
100
AcDbEntity
  8
268140580
100
AcDbLine
 62
250
  6
CONTINUOUS
 10
-49.2212802565
 20
23.4113248654
 30
0.0
 11
-48.4712802565
 21
23.8443375673
 31
0.0
  0
LINE
  5
378
100
AcDbEntity
  8
268140580
100
AcDbLine
 62
7
  6
CONTINUOUS
 10
-49.0962802565
 20
23.1948185145
 30
0.0
 11
-48.3462802565
 21
23.6278312164
 31
0.0
  0
LINE
  5
379
100
AcDbEntity
  8
268140580
100
AcDbLine
 62
250
  6
CONTINUOUS
 10
-48.4712802565
 20
-23.8443375673
 30
0.0
 11
-49.2212802565
 21
-23.4113248654
 31
0.0
  0
LINE
  5
37A
100
AcDbEntity
  8
268140580
100
AcDbLine
 62
7
  6
CONTINUOUS
 10
-48.3462802565
 20
-23.6278312164
 30
0.0
 11
-49.0962802565
 21
-23.1948185145
 31
0.0
  0
LINE
  5
37B
100
AcDbEntity
  8
268140580
100
AcDbLine
 62
7
  6
CONTINUOUS
 10
-51.4690986227
 20
-24.5196164137
 30
0.0
 11
-48.4690986227
 21
-24.4934358103
 31
0.0
  0
LINE
  5
37C
100
AcDbEntity
  8
268140580
100
AcDbLine
 62
250
  6
CONTINUOUS
 10
-51.4712802565
 20
-24.2696259329
 30
0.0
 11
-48.4712802565
 21
-24.2434453296
 31
0.0
  0
LINE
  5
37D
100
AcDbEntity
  8
268140580
100
AcDbLine
 62
7
  6
CONTINUOUS
 10
-48.2270609601
 20
-23.7913235796
 30
0.0
 11
-41.7169169888
 21
-23.7345104139
 31
0.0
  0
LINE
  5
37E
100
AcDbEntity
  8
268140580
100
AcDbLine
 62
250
  6
CONTINUOUS
 10
-51.4712802565
 20
-24.2696259329
 30
0.0
 11
-51.7212802565
 21
-24.2696259329
 31
0.0
  0
LINE
  5
37F
100
AcDbEntity
  8
268140580
100
AcDbLine
 62
250
  6
CONTINUOUS
 10
-48.4712802565
 20
-24.2434453296
 30
0.0
 11
-48.2212802565
 21
-24.2434453296
 31
0.0
  0
LINE
  5
380
100
AcDbEntity
  8
268140580
100
AcDbLine
 62
250
  6
CONTINUOUS
 10
-48.4712802565
 20
-23.8443375673
 30
0.0
 11
-48.2212802565
 21
-23.8443375673
 31
0.0
  0
LINE
  5
381
100
AcDbEntity
  8
268140580
100
AcDbLine
 62
250
  6
CONTINUOUS
 10
-51.4712802565
 20
-23.8443375673
 30
0.0
 11
-51.7212802565
 21
-23.8443375673
 31
0.0
  0
LINE
  5
382
100
AcDbEntity
  8
268140580
100
AcDbLine
 62
250
  6
CONTINUOUS
 10
-49.4712802565
 20
-22.9783121635
 30
0.0
 11
-49.2212802565
 21
-22.9783121635
 31
0.0
  0
LINE
  5
383
100
AcDbEntity
  8
268140580
100
AcDbLine
 62
250
  6
CONTINUOUS
 10
-50.4712802565
 20
-22.9783121635
 30
0.0
 11
-50.7212802565
 21
-22.9783121635
 31
0.0
  0
LINE
  5
384
100
AcDbEntity
  8
268140580
100
AcDbLine
 62
250
  6
CONTINUOUS
 10
-49.4712802565
 20
-22.6
 30
0.0
 11
-49.2212802565
 21
-22.6
 31
0.0
  0
LINE
  5
385
100
AcDbEntity
  8
0
100
AcDbLine
 62
7
  6
CONTINUOUS
 10
-56.8780049263
 20
-22.000285404
 30
0.0
 11
-54.0212802565
 21
-22.15
 31
0.0
  0
LINE
  5
386
100
AcDbEntity
  8
RACCORDO
100
AcDbLine
 62
7
  6
CONTINUOUS
 10
-56.8780049263
 20
-22.000285404
 30
0.0
 11
-54.0212802565
 21
-22.15
 31
0.0
  0
LINE
  5
387
100
AcDbEntity
  8
268140580
100
AcDbLine
 62
7
  6
CONTINUOUS
 10
-50.7212802565
 20
-22.3213883311
 30
0.0
 11
-49.2265102635
 21
-22.399725907
 31
0.0
  0
LINE
  5
388
100
AcDbEntity
  8
268140580
100
AcDbLine
 62
250
  6
CONTINUOUS
 10
-51.4712802565
 20
23.8443375673
 30
0.0
 11
-51.5962802565
 21
23.6278312164
 31
0.0
  0
LINE
  5
389
100
AcDbEntity
  8
268140580
100
AcDbLine
 62
250
  6
CONTINUOUS
 10
-50.7212802565
 20
23.4113248654
 30
0.0
 11
-50.8462802565
 21
23.1948185145
 31
0.0
  0
LINE
  5
38A
100
AcDbEntity
  8
268140580
100
AcDbLine
 62
7
  6
CONTINUOUS
 10
-38.2212802565
 20
-21.36385213
 30
0.0
 11
-48.2212802565
 21
-21.4
 31
0.0
  0
LINE
  5
38B
100
AcDbEntity
  8
268140580
100
AcDbLine
 62
7
  6
CONTINUOUS
 10
-39.2212802565
 20
-22.4
 30
0.0
 11
-49.424393144
 21
-22.4
 31
0.0
  0
LINE
  5
38C
100
AcDbEntity
  8
268140580
100
AcDbLine
 62
250
  6
CONTINUOUS
 10
-49.2177868505
 20
-22.0
 30
0.0
 11
-48.2212802565
 21
-22.0
 31
0.0
  0
LINE
  5
38D
100
AcDbEntity
  8
DRAFT
100
AcDbLine
 62
7
  6
CONTINUOUS
 10
-48.2212802565
 20
-20.85
 30
0.0
 11
-38.2212802565
 21
-20.85
 31
0.0
  0
LINE
  5
38E
100
AcDbEntity
  8
268140580
100
AcDbLine
 62
7
  6
CONTINUOUS
 10
-49.9265159785
 20
-20.8
 30
0.0
 11
-50.7212802565
 21
-20.8
 31
0.0
  0
LINE
  5
38F
100
AcDbEntity
  8
268140580
100
AcDbLine
 62
7
  6
CONTINUOUS
 10
-38.2212802565
 20
-20.9872686779
 30
0.0
 11
-48.2212802565
 21
-20.9
 31
0.0
  0
LINE
  5
390
100
AcDbEntity
  8
268140580
100
AcDbLine
 62
250
  6
CONTINUOUS
 10
-50.7212802565
 20
-21.9212052494
 30
0.0
 11
-49.2177868505
 21
-22.0
 31
0.0
  0
LINE
  5
391
100
AcDbEntity
  8
0
100
AcDbLine
 62
250
  6
CONTINUOUS
 10
-56.8605631514
 20
-21.5009706367
 30
0.0
 11
-54.0212802565
 21
-21.6497711479
 31
0.0
  0
LINE
  5
392
100
AcDbEntity
  8
RACCORDO
100
AcDbLine
 62
250
  6
CONTINUOUS
 10
-56.8605631514
 20
-21.5009706367
 30
0.0
 11
-54.0212802565
 21
-21.6497711479
 31
0.0
  0
LINE
  5
393
100
AcDbEntity
  8
0
100
AcDbLine
 62
7
  6
CONTINUOUS
 10
-53.2212802565
 20
-20.7096311171
 30
0.0
 11
-54.0212802565
 21
-20.6677048937
 31
0.0
  0
LINE
  5
394
100
AcDbEntity
  8
DRAFT
100
AcDbLine
 62
7
  6
CONTINUOUS
 10
-53.2212802565
 20
-20.7096311171
 30
0.0
 11
-54.0212802565
 21
-20.6677048937
 31
0.0
  0
LINE
  5
395
100
AcDbEntity
  8
268140580
100
AcDbLine
 62
250
  6
CONTINUOUS
 10
-51.4712802565
 20
-23.8443375673
 30
0.0
 11
-51.5962802565
 21
-23.6278312164
 31
0.0
  0
LINE
  5
396
100
AcDbEntity
  8
268140580
100
AcDbLine
 62
250
  6
CONTINUOUS
 10
-50.7212802565
 20
-23.4113248654
 30
0.0
 11
-50.8462802565
 21
-23.1948185145
 31
0.0
  0
LINE
  5
397
100
AcDbEntity
  8
RACCORDO
100
AcDbLine
 62
250
  6
CONTINUOUS
 10
-31.7300064598
 20
-18.4978258681
 30
0.0
 11
-32.2212802565
 21
-18.5235515162
 31
0.0
  0
LINE
  5
398
100
AcDbEntity
  8
0
100
AcDbLine
 62
250
  6
CONTINUOUS
 10
-57.8073810782
 20
-20.5434691683
 30
0.0
 11
-58.298222609
 21
-20.5640328209
 31
0.0
  0
LINE
  5
399
100
AcDbEntity
  8
RACCORDO
100
AcDbLine
 62
250
  6
CONTINUOUS
 10
-57.8073810782
 20
-20.5434691683
 30
0.0
 11
-58.298222609
 21
-20.5640328209
 31
0.0
  0
LINE
  5
39A
100
AcDbEntity
  8
RACCORDO
100
AcDbLine
 62
7
  6
CONTINUOUS
 10
-23.2038278501
 20
-19.3488485621
 30
0.0
 11
-38.2212802565
 21
-19.6109791689
 31
0.0
  0
LINE
  5
39B
100
AcDbEntity
  8
RACCORDO
100
AcDbLine
 62
250
  6
CONTINUOUS
 10
-33.2038278501
 20
-19.2305506016
 30
0.0
 11
-38.2212802565
 21
-19.3181305591
 31
0.0
  0
LINE
  5
39C
100
AcDbEntity
  8
RACCORDO
100
AcDbLine
 62
250
  6
CONTINUOUS
 10
-23.2038278501
 20
-18.3490008669
 30
0.0
 11
-31.7300064598
 21
-18.4978258681
 31
0.0
  0
LINE
  5
39D
100
AcDbEntity
  8
RACCORDO
100
AcDbLine
 62
250
  6
CONTINUOUS
 10
-48.2212802565
 20
-19.0856972195
 30
0.0
 11
-33.2038278501
 21
-18.9771191671
 31
0.0
  0
LINE
  5
39E
100
AcDbEntity
  8
268140580
100
AcDbLine
 62
250
  6
CONTINUOUS
 10
-52.6212802565
 20
-19.4359222411
 30
0.0
 11
-52.3265159785
 21
-19.4359222411
 31
0.0
  0
LINE
  5
39F
100
AcDbEntity
  8
268140580
100
AcDbLine
 62
250
  6
CONTINUOUS
 10
-52.3265159785
 20
-19.4359222411
 30
0.0
 11
-50.7212802565
 21
-19.4453098269
 31
0.0
  0
LINE
  5
3A0
100
AcDbEntity
  8
268140580
100
AcDbLine
 62
7
  6
CONTINUOUS
 10
-52.3265160011
 20
-19.9719805059
 30
0.0
 11
-50.7212802565
 21
-20.0
 31
0.0
  0
LINE
  5
3A1
100
AcDbEntity
  8
DRAFT
100
AcDbLine
 62
7
  6
CONTINUOUS
 10
-20.4951335337
 20
-15.0489817302
 30
0.0
 11
-22.2212802565
 21
-15.2
 31
0.0
  0
LINE
  5
3A2
100
AcDbEntity
  8
RACCORDO
100
AcDbLine
 62
250
  6
CONTINUOUS
 10
-48.2212802565
 20
-17.6716990487
 30
0.0
 11
-33.2038278501
 21
-17.5631209963
 31
0.0
  0
LINE
  5
3A3
100
AcDbEntity
  8
RACCORDO
100
AcDbLine
 62
250
  6
CONTINUOUS
 10
-22.2212802565
 20
-18.3490008669
 30
0.0
 11
-23.2038278501
 21
-18.3490008669
 31
0.0
  0
LINE
  5
3A4
100
AcDbEntity
  8
RACCORDO
100
AcDbLine
 62
250
  6
CONTINUOUS
 10
-33.2038278501
 20
-17.5631209963
 30
0.0
 11
-32.2212802565
 21
-17.5631209963
 31
0.0
  0
LINE
  5
3A5
100
AcDbEntity
  8
268140580
100
AcDbLine
 62
7
  6
CONTINUOUS
 10
-52.6212802565
 20
-16.8
 30
0.0
 11
-53.2212802565
 21
-16.8
 31
0.0
  0
LINE
  5
3A6
100
AcDbEntity
  8
268140580
100
AcDbLine
 62
250
  6
CONTINUOUS
 10
-52.3265159785
 20
-16.5
 30
0.0
 11
-53.2212802565
 21
-16.5
 31
0.0
  0
LINE
  5
3A7
100
AcDbEntity
  8
0
100
AcDbLine
 62
7
  6
CONTINUOUS
 10
-54.0212802565
 20
22.15
 30
0.0
 11
-54.0212802565
 21
20.6677048937
 31
0.0
  0
LINE
  5
3A8
100
AcDbEntity
  8
RACCORDO
100
AcDbLine
 62
7
  6
CONTINUOUS
 10
-54.0212802565
 20
22.15
 30
0.0
 11
-54.0212802565
 21
20.6677048937
 31
0.0
  0
LINE
  5
3A9
100
AcDbEntity
  8
0
100
AcDbLine
 62
7
  6
CONTINUOUS
 10
-54.0212802565
 20
-20.6677048937
 30
0.0
 11
-54.0212802565
 21
-22.15
 31
0.0
  0
LINE
  5
3AA
100
AcDbEntity
  8
RACCORDO
100
AcDbLine
 62
7
  6
CONTINUOUS
 10
-54.0212802565
 20
-20.6677048937
 30
0.0
 11
-54.0212802565
 21
-22.15
 31
0.0
  0
LINE
  5
3AB
100
AcDbEntity
  8
268140580
100
AcDbLine
 62
250
  6
CONTINUOUS
 10
-51.4712802565
 20
-24.2696259329
 30
0.0
 11
-51.4690986227
 21
-24.5196164137
 31
0.0
  0
LINE
  5
3AC
100
AcDbEntity
  8
0
100
AcDbLine
 62
7
  6
CONTINUOUS
 10
-53.2212802565
 20
20.7096311171
 30
0.0
 11
-53.2212802565
 21
0.1
 31
0.0
  0
LINE
  5
3AD
100
AcDbEntity
  8
RACCORDO
100
AcDbLine
 62
7
  6
CONTINUOUS
 10
-53.2212802565
 20
20.7096311171
 30
0.0
 11
-53.2212802565
 21
0.1
 31
0.0
  0
LINE
  5
3AE
100
AcDbEntity
  8
0
100
AcDbLine
 62
7
  6
CONTINUOUS
 10
-53.2212802565
 20
-20.7096311171
 30
0.0
 11
-53.2212802565
 21
-0.1
 31
0.0
  0
LINE
  5
3AF
100
AcDbEntity
  8
RACCORDO
100
AcDbLine
 62
7
  6
CONTINUOUS
 10
-53.2212802565
 20
-20.7096311171
 30
0.0
 11
-53.2212802565
 21
-0.1
 31
0.0
  0
LINE
  5
3B0
100
AcDbEntity
  8
268140580
100
AcDbLine
 62
7
  6
CONTINUOUS
 10
-52.6212802565
 20
3.4000456915
 30
0.0
 11
-52.6212802565
 21
2.3716114646
 31
0.0
  0
LINE
  5
3B1
100
AcDbEntity
  8
268140580
100
AcDbLine
 62
7
  6
CONTINUOUS
 10
-52.6212802565
 20
-2.3716114646
 30
0.0
 11
-52.6212802565
 21
-3.4000456915
 31
0.0
  0
LINE
  5
3B2
100
AcDbEntity
  8
268140580
100
AcDbLine
 62
7
  6
CONTINUOUS
 10
-52.6212802565
 20
-19.6720242565
 30
0.0
 11
-52.6212802565
 21
-16.7999543085
 31
0.0
  0
LINE
  5
3B3
100
AcDbEntity
  8
268140580
100
AcDbLine
 62
7
  6
CONTINUOUS
 10
-52.6212802565
 20
16.7999543085
 30
0.0
 11
-52.6212802565
 21
19.6720242565
 31
0.0
  0
LINE
  5
3B4
100
AcDbEntity
  8
268140580
100
AcDbLine
 62
250
  6
CONTINUOUS
 10
-52.3265159785
 20
19.4359222411
 30
0.0
 11
-52.3265159785
 21
16.5
 31
0.0
  0
LINE
  5
3B5
100
AcDbEntity
  8
268140580
100
AcDbLine
 62
250
  6
CONTINUOUS
 10
-52.3265159785
 20
3.7
 30
0.0
 11
-52.3265159785
 21
2.3716114646
 31
0.0
  0
LINE
  5
3B6
100
AcDbEntity
  8
268140580
100
AcDbLine
 62
250
  6
CONTINUOUS
 10
-52.3265159785
 20
-2.3716114646
 30
0.0
 11
-52.3265159785
 21
-3.7
 31
0.0
  0
LINE
  5
3B7
100
AcDbEntity
  8
268140580
100
AcDbLine
 62
250
  6
CONTINUOUS
 10
-52.3265159785
 20
-16.5
 30
0.0
 11
-52.3265159785
 21
-19.4359222411
 31
0.0
  0
LINE
  5
3B8
100
AcDbEntity
  8
268140580
100
AcDbLine
 62
7
  6
CONTINUOUS
 10
-51.7212802565
 20
24.2696259329
 30
0.0
 11
-51.7212802565
 21
23.8443375673
 31
0.0
  0
LINE
  5
3B9
100
AcDbEntity
  8
268140580
100
AcDbLine
 62
7
  6
CONTINUOUS
 10
-51.7212802565
 20
-23.8443375673
 30
0.0
 11
-51.7212802565
 21
-24.2696259329
 31
0.0
  0
LINE
  5
3BA
100
AcDbEntity
  8
268140580
100
AcDbLine
 62
250
  6
CONTINUOUS
 10
-51.4712802565
 20
24.2696259329
 30
0.0
 11
-51.4690986227
 21
24.5196164137
 31
0.0
  0
LWPOLYLINE
  5
3BB
100
AcDbEntity
  8
0
100
AcDbPolyline
 62
7
  6
CONTINUOUS
 90
3
 70
0
 43
0.3500000006
 10
-38.4354871216
 20
43.5553288422
 10
-38.5069137726
 20
43.3410443573
 10
-38.6497716064
 20
43.0553286896
  0
LINE
  5
3BC
100
AcDbEntity
  8
268140580
100
AcDbLine
 62
250
  6
CONTINUOUS
 10
-53.2212802565
 20
-13.8872296332
 30
0.0
 11
-50.2212802565
 21
-13.8348644384
 31
0.0
  0
LINE
  5
3BD
100
AcDbEntity
  8
268140580
100
AcDbLine
 62
7
  6
CONTINUOUS
 10
-53.2212802565
 20
-13.5872753246
 30
0.0
 11
-50.2212802565
 21
-13.5349101299
 31
0.0
  0
LINE
  5
3BE
100
AcDbEntity
  8
RACCORDO
100
AcDbLine
 62
7
  6
CONTINUOUS
 10
-50.2212802565
 20
-12.5785073661
 30
0.0
 11
-53.2212802565
 21
-12.5610538766
 31
0.0
  0
LINE
  5
3BF
100
AcDbEntity
  8
268140580
100
AcDbLine
 62
250
  6
CONTINUOUS
 10
-51.4712802565
 20
24.2696259329
 30
0.0
 11
-51.4712802565
 21
23.8443375673
 31
0.0
  0
LINE
  5
3C0
100
AcDbEntity
  8
268140580
100
AcDbLine
 62
250
  6
CONTINUOUS
 10
-51.4712802565
 20
-23.8443375673
 30
0.0
 11
-51.4712802565
 21
-24.2696259329
 31
0.0
  0
LINE
  5
3C1
100
AcDbEntity
  8
268140580
100
AcDbLine
 62
7
  6
CONTINUOUS
 10
-51.2212802565
 20
2.3523195033
 30
0.0
 11
-51.2212802565
 21
-2.3523195033
 31
0.0
  0
LINE
  5
3C2
100
AcDbEntity
  8
268140580
100
AcDbLine
 62
7
  6
CONTINUOUS
 10
-50.7212802565
 20
-19.4453098269
 30
0.0
 11
-50.7212802565
 21
-22.9783121635
 31
0.0
  0
LINE
  5
3C3
100
AcDbEntity
  8
268140580
100
AcDbLine
 62
7
  6
CONTINUOUS
 10
-50.7212802565
 20
19.4453098269
 30
0.0
 11
-50.7212802565
 21
22.9783121635
 31
0.0
  0
LINE
  5
3C4
100
AcDbEntity
  8
268140580
100
AcDbLine
 62
250
  6
CONTINUOUS
 10
-50.4712802565
 20
22.9783121635
 30
0.0
 11
-50.4712802565
 21
22.3344902759
 31
0.0
  0
LINE
  5
3C5
100
AcDbEntity
  8
268140580
100
AcDbLine
 62
250
  6
CONTINUOUS
 10
-50.4712802565
 20
-22.3344902759
 30
0.0
 11
-50.4712802565
 21
-22.9783121635
 31
0.0
  0
LINE
  5
3C6
100
AcDbEntity
  8
268140580
100
AcDbLine
 62
7
  6
CONTINUOUS
 10
-50.2212802565
 20
20.8
 30
0.0
 11
-50.2212802565
 21
-20.8
 31
0.0
  0
LINE
  5
3C7
100
AcDbEntity
  8
268140580
100
AcDbLine
 62
250
  6
CONTINUOUS
 10
-49.9265159785
 20
20.8
 30
0.0
 11
-49.9265159785
 21
-20.8
 31
0.0
  0
LINE
  5
3C8
100
AcDbEntity
  8
268140580
100
AcDbLine
 62
250
  6
CONTINUOUS
 10
-48.4712802565
 20
-24.2434453296
 30
0.0
 11
-48.4690986227
 21
-24.4934358103
 31
0.0
  0
LINE
  5
3C9
100
AcDbEntity
  8
268140580
100
AcDbLine
 62
250
  6
CONTINUOUS
 10
-49.4712802565
 20
-22.9783121635
 30
0.0
 11
-49.4712802565
 21
-22.6
 31
0.0
  0
LINE
  5
3CA
100
AcDbEntity
  8
268140580
100
AcDbLine
 62
250
  6
CONTINUOUS
 10
-49.4712802565
 20
22.6
 30
0.0
 11
-49.4712802565
 21
22.9783121635
 31
0.0
  0
LINE
  5
3CB
100
AcDbEntity
  8
268140580
100
AcDbLine
 62
7
  6
CONTINUOUS
 10
-49.2212802565
 20
-22.9783121635
 30
0.0
 11
-49.2212802565
 21
-22.6
 31
0.0
  0
LINE
  5
3CC
100
AcDbEntity
  8
268140580
100
AcDbLine
 62
7
  6
CONTINUOUS
 10
-49.2212802565
 20
22.6
 30
0.0
 11
-49.2212802565
 21
22.9783121635
 31
0.0
  0
LINE
  5
3CD
100
AcDbEntity
  8
268140580
100
AcDbLine
 62
250
  6
CONTINUOUS
 10
-48.4712802565
 20
-24.2434453296
 30
0.0
 11
-48.4712802565
 21
-23.8443375673
 31
0.0
  0
LINE
  5
3CE
100
AcDbEntity
  8
268140580
100
AcDbLine
 62
250
  6
CONTINUOUS
 10
-48.4712802565
 20
23.8443375673
 30
0.0
 11
-48.4712802565
 21
24.2434453296
 31
0.0
  0
LINE
  5
3CF
100
AcDbEntity
  8
RACCORDO
100
AcDbLine
 62
7
  6
CONTINUOUS
 10
-48.2212802565
 20
17.6716990487
 30
0.0
 11
-48.2212802565
 21
-17.6716990487
 31
0.0
  0
LINE
  5
3D0
100
AcDbEntity
  8
268140580
100
AcDbLine
 62
7
  6
CONTINUOUS
 10
-48.2212802565
 20
-24.2434453296
 30
0.0
 11
-48.2212802565
 21
-23.8443375673
 31
0.0
  0
LINE
  5
3D1
100
AcDbEntity
  8
268140580
100
AcDbLine
 62
7
  6
CONTINUOUS
 10
-48.2212802565
 20
-22.4
 30
0.0
 11
-48.2212802565
 21
22.4
 31
0.0
  0
LINE
  5
3D2
100
AcDbEntity
  8
268140580
100
AcDbLine
 62
7
  6
CONTINUOUS
 10
-48.2212802565
 20
23.8443375673
 30
0.0
 11
-48.2212802565
 21
24.2434453296
 31
0.0
  0
LINE
  5
3D3
100
AcDbEntity
  8
268140580
100
AcDbLine
 62
250
  6
CONTINUOUS
 10
-48.4690986227
 20
24.4934358103
 30
0.0
 11
-48.4712802565
 21
24.2434453296
 31
0.0
  0
LINE
  5
3D4
100
AcDbEntity
  8
RACCORDO
100
AcDbLine
 62
250
  6
CONTINUOUS
 10
-31.7300064598
 20
-9.4913486316
 30
0.0
 11
-23.2038278501
 21
-9.3425236303
 31
0.0
  0
LINE
  5
3D5
100
AcDbEntity
  8
RACCORDO
100
AcDbLine
 62
7
  6
CONTINUOUS
 10
-31.7300064598
 20
-8.991424784
 30
0.0
 11
-23.2038278501
 21
-8.8425997828
 31
0.0
  0
LINE
  5
3D6
100
AcDbEntity
  8
RACCORDO
100
AcDbLine
 62
250
  6
CONTINUOUS
 10
-31.7300064598
 20
-7.9915770888
 30
0.0
 11
-23.2038278501
 21
-7.8427520876
 31
0.0
  0
LINE
  5
3D7
100
AcDbEntity
  8
RACCORDO
100
AcDbLine
 62
7
  6
CONTINUOUS
 10
-50.2212802565
 20
-8.5214926339
 30
0.0
 11
-53.2212802565
 21
-8.5389461234
 31
0.0
  0
LINE
  5
3D8
100
AcDbEntity
  8
RACCORDO
100
AcDbLine
 62
250
  6
CONTINUOUS
 10
-33.2038278501
 20
-9.4913486316
 30
0.0
 11
-31.7300064598
 21
-9.4913486316
 31
0.0
  0
LINE
  5
3D9
100
AcDbEntity
  8
RACCORDO
100
AcDbLine
 62
250
  6
CONTINUOUS
 10
-22.2212802565
 20
-9.3425236303
 30
0.0
 11
-23.2038278501
 21
-9.3425236303
 31
0.0
  0
LINE
  5
3DA
100
AcDbEntity
  8
268140580
100
AcDbLine
 62
7
  6
CONTINUOUS
 10
-50.2212802565
 20
-8.4650898701
 30
0.0
 11
-53.2212802565
 21
-8.4127246754
 31
0.0
  0
LINE
  5
3DB
100
AcDbEntity
  8
268140580
100
AcDbLine
 62
250
  6
CONTINUOUS
 10
-50.2212802565
 20
-8.1651355616
 30
0.0
 11
-53.2212802565
 21
-8.1127703668
 31
0.0
  0
LINE
  5
3DC
100
AcDbEntity
  8
DRAFT
100
AcDbLine
 62
7
  6
CONTINUOUS
 10
-20.4951335337
 20
-4.6489817302
 30
0.0
 11
-22.2212802565
 21
-4.8
 31
0.0
  0
LINE
  5
3DD
100
AcDbEntity
  8
RACCORDO
100
AcDbLine
 62
250
  6
CONTINUOUS
 10
-23.2038278501
 20
-7.8427520876
 30
0.0
 11
-22.2212802565
 21
-7.8427520876
 31
0.0
  0
LINE
  5
3DE
100
AcDbEntity
  8
DRAFT
100
AcDbLine
 62
7
  6
CONTINUOUS
 10
-20.4951335337
 20
-9.1510182698
 30
0.0
 11
-22.2212802565
 21
-9.0
 31
0.0
  0
LWPOLYLINE
  5
3DF
100
AcDbEntity
  8
0
100
AcDbPolyline
 62
7
  6
CONTINUOUS
 90
4
 70
0
 43
0.3500000006
 10
-41.5069146881
 20
43.698186676
 10
-41.5069146881
 20
44.5553291473
 10
-41.0783457184
 20
44.9839026489
 10
-40.4354877319
 20
44.9839026489
  0
LINE
  5
3E0
100
AcDbEntity
  8
268140580
100
AcDbLine
 62
250
  6
CONTINUOUS
 10
-51.2212802565
 20
-2.3523195033
 30
0.0
 11
-52.3265159785
 21
-2.3716114646
 31
0.0
  0
LINE
  5
3E1
100
AcDbEntity
  8
268140580
100
AcDbLine
 62
7
  6
CONTINUOUS
 10
-51.2212802565
 20
-2.0523651948
 30
0.0
 11
-52.3265159785
 21
-2.0716571561
 31
0.0
  0
LINE
  5
3E2
100
AcDbEntity
  8
268140580
100
AcDbLine
 62
250
  6
CONTINUOUS
 10
-53.2212802565
 20
-3.7
 30
0.0
 11
-52.3265159785
 21
-3.7
 31
0.0
  0
LINE
  5
3E3
100
AcDbEntity
  8
268140580
100
AcDbLine
 62
7
  6
CONTINUOUS
 10
-53.2212802565
 20
-3.4
 30
0.0
 11
-52.6212802565
 21
-3.4
 31
0.0
  0
LINE
  5
3E4
100
AcDbEntity
  8
268140580
100
AcDbLine
 62
250
  6
CONTINUOUS
 10
-52.3265159785
 20
-2.3716114646
 30
0.0
 11
-52.6212802565
 21
-2.3716114646
 31
0.0
  0
LINE
  5
3E5
100
AcDbEntity
  8
DRAFT
100
AcDbLine
 62
7
  6
CONTINUOUS
 10
-52.4668379679
 20
-2.109403301
 30
0.0
 11
-53.2212802565
 21
-2.0234454599
 31
0.0
  0
LINE
  5
3E6
100
AcDbEntity
  8
268140580
100
AcDbLine
 62
7
  6
CONTINUOUS
 10
-41.2212802565
 20
23.2345294524
 30
0.0
 11
-41.2212802565
 21
22.4
 31
0.0
  0
LINE
  5
3E7
100
AcDbEntity
  8
268140580
100
AcDbLine
 62
7
  6
CONTINUOUS
 10
-41.2212802565
 20
-22.4
 30
0.0
 11
-41.2212802565
 21
-23.2345294524
 31
0.0
  0
LINE
  5
3E8
100
AcDbEntity
  8
0
100
AcDbLine
 62
250
  6
CONTINUOUS
 10
-53.2212802565
 20
-0.299969539
 30
0.0
 11
-58.2298662321
 21
-0.3873947324
 31
0.0
  0
LINE
  5
3E9
100
AcDbEntity
  8
RACCORDO
100
AcDbLine
 62
250
  6
CONTINUOUS
 10
-53.2212802565
 20
-0.299969539
 30
0.0
 11
-58.2298662321
 21
-0.3873947324
 31
0.0
  0
LINE
  5
3EA
100
AcDbEntity
  8
0
100
AcDbLine
 62
7
  6
CONTINUOUS
 10
-53.2212802565
 20
-0.1
 30
0.0
 11
-58.5246265872
 21
-0.1925702545
 31
0.0
  0
LINE
  5
3EB
100
AcDbEntity
  8
RACCORDO
100
AcDbLine
 62
7
  6
CONTINUOUS
 10
-53.2212802565
 20
-0.1
 30
0.0
 11
-58.5246265872
 21
-0.1925702545
 31
0.0
  0
LINE
  5
3EC
100
AcDbEntity
  8
0
100
AcDbLine
 62
250
  6
CONTINUOUS
 10
-58.2298659423
 20
-0.3873947324
 30
0.0
 11
-58.7211209662
 21
-0.3926968628
 31
0.0
  0
LINE
  5
3ED
100
AcDbEntity
  8
RACCORDO
100
AcDbLine
 62
250
  6
CONTINUOUS
 10
-58.2298659423
 20
-0.3873947324
 30
0.0
 11
-58.7211209662
 21
-0.3926968628
 31
0.0
  0
LINE
  5
3EE
100
AcDbEntity
  8
0
100
AcDbLine
 62
250
  6
CONTINUOUS
 10
-58.7211209664
 20
0.3926968628
 30
0.0
 11
-58.2298659423
 21
0.3873947324
 31
0.0
  0
LINE
  5
3EF
100
AcDbEntity
  8
RACCORDO
100
AcDbLine
 62
250
  6
CONTINUOUS
 10
-58.7211209664
 20
0.3926968628
 30
0.0
 11
-58.2298659423
 21
0.3873947324
 31
0.0
  0
LINE
  5
3F0
100
AcDbEntity
  8
0
100
AcDbLine
 62
7
  6
CONTINUOUS
 10
-58.5246265872
 20
0.1925702545
 30
0.0
 11
-53.2212802565
 21
0.1
 31
0.0
  0
LINE
  5
3F1
100
AcDbEntity
  8
RACCORDO
100
AcDbLine
 62
7
  6
CONTINUOUS
 10
-58.5246265872
 20
0.1925702545
 30
0.0
 11
-53.2212802565
 21
0.1
 31
0.0
  0
LINE
  5
3F2
100
AcDbEntity
  8
0
100
AcDbLine
 62
250
  6
CONTINUOUS
 10
-58.2298662321
 20
0.3873947324
 30
0.0
 11
-53.2212802565
 21
0.299969539
 31
0.0
  0
LINE
  5
3F3
100
AcDbEntity
  8
RACCORDO
100
AcDbLine
 62
250
  6
CONTINUOUS
 10
-58.2298662321
 20
0.3873947324
 30
0.0
 11
-53.2212802565
 21
0.299969539
 31
0.0
  0
LINE
  5
3F4
100
AcDbEntity
  8
268140580
100
AcDbLine
 62
7
  6
CONTINUOUS
 10
-38.2212802565
 20
-21.4
 30
0.0
 11
-38.2212802565
 21
-20.85
 31
0.0
  0
LINE
  5
3F5
100
AcDbEntity
  8
RACCORDO
100
AcDbLine
 62
7
  6
CONTINUOUS
 10
-38.2212802565
 20
-20.85
 30
0.0
 11
-38.2212802565
 21
-19.3181305591
 31
0.0
  0
LINE
  5
3F6
100
AcDbEntity
  8
RACCORDO
100
AcDbLine
 62
7
  6
CONTINUOUS
 10
-38.2212802565
 20
19.3181305591
 30
0.0
 11
-38.2212802565
 21
20.85
 31
0.0
  0
LINE
  5
3F7
100
AcDbEntity
  8
268140580
100
AcDbLine
 62
7
  6
CONTINUOUS
 10
-38.2212802565
 20
20.85
 30
0.0
 11
-38.2212802565
 21
21.4
 31
0.0
  0
LINE
  5
3F8
100
AcDbEntity
  8
268140580
100
AcDbLine
 62
7
  6
CONTINUOUS
 10
-52.3265159785
 20
2.0716571561
 30
0.0
 11
-51.2212802565
 21
2.0523651948
 31
0.0
  0
LINE
  5
3F9
100
AcDbEntity
  8
268140580
100
AcDbLine
 62
250
  6
CONTINUOUS
 10
-52.3265159785
 20
2.3716114646
 30
0.0
 11
-51.2212802565
 21
2.3523195033
 31
0.0
  0
LINE
  5
3FA
100
AcDbEntity
  8
268140580
100
AcDbLine
 62
250
  6
CONTINUOUS
 10
-49.2212802565
 20
-23.4113248654
 30
0.0
 11
-49.0962802565
 21
-23.1948185145
 31
0.0
  0
LINE
  5
3FB
100
AcDbEntity
  8
268140580
100
AcDbLine
 62
250
  6
CONTINUOUS
 10
-48.4712802565
 20
-23.8443375673
 30
0.0
 11
-48.3462802565
 21
-23.6278312164
 31
0.0
  0
LINE
  5
3FC
100
AcDbEntity
  8
DRAFT
100
AcDbLine
 62
7
  6
CONTINUOUS
 10
-52.4668379573
 20
2.1094033022
 30
0.0
 11
-53.2212802565
 21
2.0234454599
 31
0.0
  0
LINE
  5
3FD
100
AcDbEntity
  8
268140580
100
AcDbLine
 62
250
  6
CONTINUOUS
 10
-52.6212802565
 20
2.3716114646
 30
0.0
 11
-52.3265159785
 21
2.3716114646
 31
0.0
  0
LINE
  5
3FE
100
AcDbEntity
  8
268140580
100
AcDbLine
 62
7
  6
CONTINUOUS
 10
-52.6212802565
 20
3.4
 30
0.0
 11
-53.2212802565
 21
3.4
 31
0.0
  0
LINE
  5
3FF
100
AcDbEntity
  8
268140580
100
AcDbLine
 62
250
  6
CONTINUOUS
 10
-52.3265159785
 20
3.7
 30
0.0
 11
-53.2212802565
 21
3.7
 31
0.0
  0
LINE
  5
400
100
AcDbEntity
  8
DRAFT
100
AcDbLine
 62
7
  6
CONTINUOUS
 10
-20.4951335337
 20
1.2489817302
 30
0.0
 11
-22.2212802565
 21
1.4
 31
0.0
  0
LINE
  5
401
100
AcDbEntity
  8
268140580
100
AcDbLine
 62
250
  6
CONTINUOUS
 10
-49.2212802565
 20
23.4113248654
 30
0.0
 11
-49.0962802565
 21
23.1948185145
 31
0.0
  0
LINE
  5
402
100
AcDbEntity
  8
268140580
100
AcDbLine
 62
250
  6
CONTINUOUS
 10
-48.4712802565
 20
23.8443375673
 30
0.0
 11
-48.3462802565
 21
23.6278312164
 31
0.0
  0
LWPOLYLINE
  5
403
100
AcDbEntity
  8
0
100
AcDbPolyline
 62
7
  6
CONTINUOUS
 90
4
 70
0
 43
0.3500000006
 10
-34.2212807236
 20
33.6981881561
 10
-34.2212807236
 20
34.5553306274
 10
-33.7927094879
 20
34.983904129
 10
-33.1498515015
 20
34.983904129
  0
LINE
  5
404
100
AcDbEntity
  8
RACCORDO
100
AcDbLine
 62
250
  6
CONTINUOUS
 10
-33.2038278501
 20
-19.2305506016
 30
0.0
 11
-33.2038278501
 21
-18.9771191671
 31
0.0
  0
LINE
  5
405
100
AcDbEntity
  8
RACCORDO
100
AcDbLine
 62
250
  6
CONTINUOUS
 10
-33.2038278501
 20
-17.5631209963
 30
0.0
 11
-33.2038278501
 21
-9.4913486316
 31
0.0
  0
LINE
  5
406
100
AcDbEntity
  8
DRAFT
100
AcDbLine
 62
7
  6
CONTINUOUS
 10
-20.4951335337
 20
4.6489817302
 30
0.0
 11
-22.2212802565
 21
4.8
 31
0.0
  0
LINE
  5
407
100
AcDbEntity
  8
RACCORDO
100
AcDbLine
 62
7
  6
CONTINUOUS
 10
-32.2212802565
 20
-18.5235515162
 30
0.0
 11
-32.2212802565
 21
-9.4913486316
 31
0.0
  0
LINE
  5
408
100
AcDbEntity
  8
RACCORDO
100
AcDbLine
 62
250
  6
CONTINUOUS
 10
-31.7300064598
 20
-9.4913486316
 30
0.0
 11
-31.7300064598
 21
-18.4978258681
 31
0.0
  0
LINE
  5
409
100
AcDbEntity
  8
DRAFT
100
AcDbLine
 62
7
  6
CONTINUOUS
 10
-20.4951335337
 20
9.1510182698
 30
0.0
 11
-22.2212802565
 21
9.0
 31
0.0
  0
LINE
  5
40A
100
AcDbEntity
  8
268140580
100
AcDbLine
 62
250
  6
CONTINUOUS
 10
-53.2212802565
 20
8.1127703668
 30
0.0
 11
-50.2212802565
 21
8.1651355616
 31
0.0
  0
LINE
  5
40B
100
AcDbEntity
  8
RACCORDO
100
AcDbLine
 62
7
  6
CONTINUOUS
 10
-50.2212802565
 20
8.5214926339
 30
0.0
 11
-53.2212802565
 21
8.5389461234
 31
0.0
  0
LINE
  5
40C
100
AcDbEntity
  8
268140580
100
AcDbLine
 62
7
  6
CONTINUOUS
 10
-53.2212802565
 20
8.4127246754
 30
0.0
 11
-50.2212802565
 21
8.4650898701
 31
0.0
  0
LINE
  5
40D
100
AcDbEntity
  8
RACCORDO
100
AcDbLine
 62
7
  6
CONTINUOUS
 10
-50.2212802565
 20
12.5785073661
 30
0.0
 11
-53.2212802565
 21
12.5610538766
 31
0.0
  0
LINE
  5
40E
100
AcDbEntity
  8
268140580
100
AcDbLine
 62
7
  6
CONTINUOUS
 10
-50.8462802565
 20
-23.1948185145
 30
0.0
 11
-51.5962802565
 21
-23.6278312164
 31
0.0
  0
LINE
  5
40F
100
AcDbEntity
  8
268140580
100
AcDbLine
 62
250
  6
CONTINUOUS
 10
-50.7212802565
 20
-23.4113248654
 30
0.0
 11
-51.4712802565
 21
-23.8443375673
 31
0.0
  0
LINE
  5
410
100
AcDbEntity
  8
268140580
100
AcDbLine
 62
7
  6
CONTINUOUS
 10
-50.2212802565
 20
13.5349101299
 30
0.0
 11
-53.2212802565
 21
13.5872753246
 31
0.0
  0
LINE
  5
411
100
AcDbEntity
  8
268140580
100
AcDbLine
 62
250
  6
CONTINUOUS
 10
-50.2212802565
 20
13.8348644384
 30
0.0
 11
-53.2212802565
 21
13.8872296332
 31
0.0
  0
LINE
  5
412
100
AcDbEntity
  8
268140580
100
AcDbLine
 62
7
  6
CONTINUOUS
 10
-51.5962802565
 20
23.6278312164
 30
0.0
 11
-50.8462802565
 21
23.1948185145
 31
0.0
  0
LINE
  5
413
100
AcDbEntity
  8
268140580
100
AcDbLine
 62
250
  6
CONTINUOUS
 10
-51.4712802565
 20
23.8443375673
 30
0.0
 11
-50.7212802565
 21
23.4113248654
 31
0.0
  0
LINE
  5
414
100
AcDbEntity
  8
DRAFT
100
AcDbLine
 62
250
  6
CONTINUOUS
 10
-23.2038278501
 20
-9.3425236303
 30
0.0
 11
-23.2038278501
 21
-11.334376711
 31
0.0
  0
LINE
  5
415
100
AcDbEntity
  8
DRAFT
100
AcDbLine
 62
250
  6
CONTINUOUS
 10
-23.2038278501
 20
-12.865623289
 30
0.0
 11
-23.2038278501
 21
-18.3490008669
 31
0.0
  0
LINE
  5
416
100
AcDbEntity
  8
DRAFT
100
AcDbLine
 62
250
  6
CONTINUOUS
 10
-23.2038278501
 20
-7.8427520876
 30
0.0
 11
-23.2038278501
 21
-2.8700830992
 31
0.0
  0
LINE
  5
417
100
AcDbEntity
  8
DRAFT
100
AcDbLine
 62
250
  6
CONTINUOUS
 10
-23.2038278501
 20
-0.5299169008
 30
0.0
 11
-23.2038278501
 21
10.9299169008
 31
0.0
  0
LINE
  5
418
100
AcDbEntity
  8
DRAFT
100
AcDbLine
 62
250
  6
CONTINUOUS
 10
-23.2038278501
 20
13.2700830992
 30
0.0
 11
-23.2038278501
 21
17.49081975
 31
0.0
  0
LINE
  5
419
100
AcDbEntity
  8
RACCORDO
100
AcDbLine
 62
250
  6
CONTINUOUS
 10
-23.2038278501
 20
18.9048179208
 30
0.0
 11
-23.2038278501
 21
19.0559999523
 31
0.0
  0
LINE
  5
41A
100
AcDbEntity
  8
268140580
100
AcDbLine
 62
250
  6
CONTINUOUS
 10
-53.2212802565
 20
16.5
 30
0.0
 11
-52.3265159785
 21
16.5
 31
0.0
  0
LINE
  5
41B
100
AcDbEntity
  8
268140580
100
AcDbLine
 62
7
  6
CONTINUOUS
 10
-53.2212802565
 20
16.8
 30
0.0
 11
-52.6212802565
 21
16.8
 31
0.0
  0
LINE
  5
41C
100
AcDbEntity
  8
DRAFT
100
AcDbLine
 62
7
  6
CONTINUOUS
 10
-20.4951335337
 20
15.0489817302
 30
0.0
 11
-22.2212802565
 21
15.2
 31
0.0
  0
LINE
  5
41D
100
AcDbEntity
  8
RACCORDO
100
AcDbLine
 62
7
  6
CONTINUOUS
 10
-22.2212802565
 20
-7.8427520876
 30
0.0
 11
-22.2212802565
 21
-9.3425236303
 31
0.0
  0
LINE
  5
41E
100
AcDbEntity
  8
DRAFT
100
AcDbLine
 62
7
  6
CONTINUOUS
 10
-22.2212802565
 20
-9.3425236303
 30
0.0
 11
-22.2212802565
 21
-9.8129956931
 31
0.0
  0
LINE
  5
41F
100
AcDbEntity
  8
DRAFT
100
AcDbLine
 62
7
  6
CONTINUOUS
 10
-22.2212802565
 20
-14.3870043069
 30
0.0
 11
-22.2212802565
 21
-18.3490008669
 31
0.0
  0
LINE
  5
420
100
AcDbEntity
  8
DRAFT
100
AcDbLine
 62
7
  6
CONTINUOUS
 10
-22.2212802565
 20
-9.0
 30
0.0
 11
-22.2212802565
 21
-4.0989125538
 31
0.0
  0
LINE
  5
421
100
AcDbEntity
  8
DRAFT
100
AcDbLine
 62
7
  6
CONTINUOUS
 10
-22.2212802565
 20
0.6989125538
 30
0.0
 11
-22.2212802565
 21
9.7010874462
 31
0.0
  0
LINE
  5
422
100
AcDbEntity
  8
DRAFT
100
AcDbLine
 62
7
  6
CONTINUOUS
 10
-22.2212802565
 20
14.4989125538
 30
0.0
 11
-22.2212802565
 21
18.0231014374
 31
0.0
  0
LINE
  5
423
100
AcDbEntity
  8
RACCORDO
100
AcDbLine
 62
7
  6
CONTINUOUS
 10
-22.2212802565
 20
17.49081975
 30
0.0
 11
-22.2212802565
 21
18.3490008669
 31
0.0
  0
LINE
  5
424
100
AcDbEntity
  8
RACCORDO
100
AcDbLine
 62
250
  6
CONTINUOUS
 10
-20.5160445346
 20
12.5493089089
 30
0.0
 11
-20.5160445346
 21
11.6506910911
 31
0.0
  0
LINE
  5
425
100
AcDbEntity
  8
RACCORDO
100
AcDbLine
 62
250
  6
CONTINUOUS
 10
-20.5160445346
 20
-1.2506910911
 30
0.0
 11
-20.5160445346
 21
-2.1493089089
 31
0.0
  0
LINE
  5
426
100
AcDbEntity
  8
RACCORDO
100
AcDbLine
 62
250
  6
CONTINUOUS
 10
-20.4951335337
 20
15.0489817302
 30
0.0
 11
-20.4951335337
 21
12.5443826453
 31
0.0
  0
LINE
  5
427
100
AcDbEntity
  8
RACCORDO
100
AcDbLine
 62
250
  6
CONTINUOUS
 10
-20.4951335337
 20
11.6556173547
 30
0.0
 11
-20.4951335337
 21
9.1510182698
 31
0.0
  0
LINE
  5
428
100
AcDbEntity
  8
RACCORDO
100
AcDbLine
 62
250
  6
CONTINUOUS
 10
-20.4951335319
 20
4.64898173
 30
0.0
 11
-20.4951335337
 21
-1.2556173547
 31
0.0
  0
LINE
  5
429
100
AcDbEntity
  8
RACCORDO
100
AcDbLine
 62
250
  6
CONTINUOUS
 10
-20.4951335337
 20
-2.1443826453
 30
0.0
 11
-20.4951335337
 21
-4.6489817302
 31
0.0
  0
LINE
  5
42A
100
AcDbEntity
  8
RACCORDO
100
AcDbLine
 62
250
  6
CONTINUOUS
 10
-20.4951335317
 20
-9.15101827
 30
0.0
 11
-20.4951335322
 21
-15.04898173
 31
0.0
  0
LINE
  5
42B
100
AcDbEntity
  8
RACCORDO
100
AcDbLine
 62
250
  6
CONTINUOUS
 10
-23.2038278501
 20
17.49081975
 30
0.0
 11
-22.2212802565
 21
17.49081975
 31
0.0
  0
LINE
  5
42C
100
AcDbEntity
  8
RACCORDO
100
AcDbLine
 62
250
  6
CONTINUOUS
 10
-23.2038278501
 20
17.49081975
 30
0.0
 11
-48.2212802565
 21
17.6716990487
 31
0.0
  0
LINE
  5
42D
100
AcDbEntity
  8
RACCORDO
100
AcDbLine
 62
7
  6
CONTINUOUS
 10
-20.2212802565
 20
14.7501228389
 30
0.0
 11
-20.2212802565
 21
9.4498771611
 31
0.0
  0
LINE
  5
42E
100
AcDbEntity
  8
RACCORDO
100
AcDbLine
 62
7
  6
CONTINUOUS
 10
-20.2212802565
 20
4.3501227693
 30
0.0
 11
-20.2212802565
 21
-4.3501228389
 31
0.0
  0
LINE
  5
42F
100
AcDbEntity
  8
RACCORDO
100
AcDbLine
 62
7
  6
CONTINUOUS
 10
-20.2212802565
 20
-9.4498771939
 30
0.0
 11
-20.2212802565
 21
-14.7501228102
 31
0.0
  0
LINE
  5
430
100
AcDbEntity
  8
268140580
100
AcDbLine
 62
7
  6
CONTINUOUS
 10
-50.7212802565
 20
20.0
 30
0.0
 11
-52.3265159842
 21
19.9719805061
 31
0.0
  0
LINE
  5
431
100
AcDbEntity
  8
268140580
100
AcDbLine
 62
250
  6
CONTINUOUS
 10
-50.7212802565
 20
19.4453098269
 30
0.0
 11
-52.3265159785
 21
19.4359222411
 31
0.0
  0
LINE
  5
432
100
AcDbEntity
  8
268140580
100
AcDbLine
 62
250
  6
CONTINUOUS
 10
-52.6212802565
 20
19.4359222411
 30
0.0
 11
-52.3265159785
 21
19.4359222411
 31
0.0
  0
LINE
  5
433
100
AcDbEntity
  8
268140580
100
AcDbLine
 62
7
  6
CONTINUOUS
 10
-50.7212802565
 20
20.8
 30
0.0
 11
-49.9265159785
 21
20.8
 31
0.0
  0
LINE
  5
434
100
AcDbEntity
  8
DRAFT
100
AcDbLine
 62
7
  6
CONTINUOUS
 10
-48.2212802565
 20
20.85
 30
0.0
 11
-38.2212802565
 21
20.85
 31
0.0
  0
LINE
  5
435
100
AcDbEntity
  8
268140580
100
AcDbLine
 62
7
  6
CONTINUOUS
 10
-38.2212802565
 20
20.9
 30
0.0
 11
-48.2212802565
 21
20.9
 31
0.0
  0
LINE
  5
436
100
AcDbEntity
  8
RACCORDO
100
AcDbLine
 62
250
  6
CONTINUOUS
 10
-23.2038278501
 20
18.9048179208
 30
0.0
 11
-48.2212802565
 21
19.0856972195
 31
0.0
  0
LINE
  5
437
100
AcDbEntity
  8
RACCORDO
100
AcDbLine
 62
250
  6
CONTINUOUS
 10
-38.2212802565
 20
19.3181305591
 30
0.0
 11
-23.2038278501
 21
19.0559999523
 31
0.0
  0
LINE
  5
438
100
AcDbEntity
  8
RACCORDO
100
AcDbLine
 62
7
  6
CONTINUOUS
 10
-38.2212802565
 20
19.6109791689
 30
0.0
 11
-23.2038278501
 21
19.3488485621
 31
0.0
  0
LINE
  5
439
100
AcDbEntity
  8
0
100
AcDbLine
 62
250
  6
CONTINUOUS
 10
-57.8073810782
 20
20.5434691683
 30
0.0
 11
-58.2982318161
 21
20.5640332015
 31
0.0
  0
LINE
  5
43A
100
AcDbEntity
  8
RACCORDO
100
AcDbLine
 62
250
  6
CONTINUOUS
 10
-57.8073810782
 20
20.5434691683
 30
0.0
 11
-58.2982318161
 21
20.5640332015
 31
0.0
  0
LWPOLYLINE
  5
43B
100
AcDbEntity
  8
0
100
AcDbPolyline
 62
7
  6
CONTINUOUS
 90
10
 70
0
 43
0.3500000006
 10
-38.5069137726
 20
43.7696178589
 10
-38.4354871216
 20
43.626760025
 10
-38.4354871216
 20
43.5553288422
 10
-38.5783449554
 20
43.4124755402
 10
-38.6497716064
 20
43.4124755402
 10
-38.7212027893
 20
43.4839021912
 10
-38.7212027893
 20
43.5553288422
 10
-38.6497716064
 20
43.698186676
 10
-38.5783449554
 20
43.7696178589
 10
-38.5069137726
 20
43.7696178589
  0
LINE
  5
43C
100
AcDbEntity
  8
0
100
AcDbLine
 62
7
  6
CONTINUOUS
 10
-53.2212802565
 20
20.7096311171
 30
0.0
 11
-54.0212802565
 21
20.6677048937
 31
0.0
  0
LINE
  5
43D
100
AcDbEntity
  8
DRAFT
100
AcDbLine
 62
7
  6
CONTINUOUS
 10
-53.2212802565
 20
20.7096311171
 30
0.0
 11
-54.0212802565
 21
20.6677048937
 31
0.0
  0
LINE
  5
43E
100
AcDbEntity
  8
0
100
AcDbLine
 62
250
  6
CONTINUOUS
 10
-54.0212802565
 20
21.6497711479
 30
0.0
 11
-56.8605631514
 21
21.5009706367
 31
0.0
  0
LINE
  5
43F
100
AcDbEntity
  8
RACCORDO
100
AcDbLine
 62
250
  6
CONTINUOUS
 10
-54.0212802565
 20
21.6497711479
 30
0.0
 11
-56.8605631514
 21
21.5009706367
 31
0.0
  0
LINE
  5
440
100
AcDbEntity
  8
268140580
100
AcDbLine
 62
250
  6
CONTINUOUS
 10
-49.2177868505
 20
22.0
 30
0.0
 11
-50.7212802565
 21
21.9212052494
 31
0.0
  0
LINE
  5
441
100
AcDbEntity
  8
268140580
100
AcDbLine
 62
7
  6
CONTINUOUS
 10
-49.2265102635
 20
22.399725907
 30
0.0
 11
-50.7212802565
 21
22.3213883311
 31
0.0
  0
LINE
  5
442
100
AcDbEntity
  8
0
100
AcDbLine
 62
7
  6
CONTINUOUS
 10
-54.0212802565
 20
22.15
 30
0.0
 11
-56.8780049263
 21
22.000285404
 31
0.0
  0
LINE
  5
443
100
AcDbEntity
  8
RACCORDO
100
AcDbLine
 62
7
  6
CONTINUOUS
 10
-54.0212802565
 20
22.15
 30
0.0
 11
-56.8780049263
 21
22.000285404
 31
0.0
  0
LINE
  5
444
100
AcDbEntity
  8
268140580
100
AcDbLine
 62
250
  6
CONTINUOUS
 10
-49.2110694788
 20
22.3999905022
 30
0.0
 11
-49.2108922906
 21
22.3999975002
 31
0.0
  0
LINE
  5
445
100
AcDbEntity
  8
268140580
100
AcDbLine
 62
250
  6
CONTINUOUS
 10
-49.2110035967
 20
22.399990313
 30
0.0
 11
-49.2107978354
 21
22.3999974216
 31
0.0
  0
LINE
  5
446
100
AcDbEntity
  8
268140580
100
AcDbLine
 62
250
  6
CONTINUOUS
 10
-48.2212802565
 20
22.0
 30
0.0
 11
-49.2177868505
 21
22.0
 31
0.0
  0
LINE
  5
447
100
AcDbEntity
  8
268140580
100
AcDbLine
 62
7
  6
CONTINUOUS
 10
-39.2212802565
 20
22.4
 30
0.0
 11
-49.424393144
 21
22.4
 31
0.0
  0
LINE
  5
448
100
AcDbEntity
  8
268140580
100
AcDbLine
 62
250
  6
CONTINUOUS
 10
-49.4712802565
 20
22.6
 30
0.0
 11
-49.2212802565
 21
22.6
 31
0.0
  0
LINE
  5
449
100
AcDbEntity
  8
268140580
100
AcDbLine
 62
250
  6
CONTINUOUS
 10
-49.4712802565
 20
22.9783121635
 30
0.0
 11
-49.2212802565
 21
22.9783121635
 31
0.0
  0
LINE
  5
44A
100
AcDbEntity
  8
268140580
100
AcDbLine
 62
250
  6
CONTINUOUS
 10
-50.4712802565
 20
22.9783121635
 30
0.0
 11
-50.7212802565
 21
22.9783121635
 31
0.0
  0
LINE
  5
44B
100
AcDbEntity
  8
268140580
100
AcDbLine
 62
7
  6
CONTINUOUS
 10
-38.2212802565
 20
21.36385213
 30
0.0
 11
-48.2212802565
 21
21.4
 31
0.0
  0
LINE
  5
44C
100
AcDbEntity
  8
268140580
100
AcDbLine
 62
250
  6
CONTINUOUS
 10
-48.4712802565
 20
23.8443375673
 30
0.0
 11
-48.2212802565
 21
23.8443375673
 31
0.0
  0
LINE
  5
44D
100
AcDbEntity
  8
268140580
100
AcDbLine
 62
250
  6
CONTINUOUS
 10
-51.4712802565
 20
23.8443375673
 30
0.0
 11
-51.7212802565
 21
23.8443375673
 31
0.0
  0
LINE
  5
44E
100
AcDbEntity
  8
268140580
100
AcDbLine
 62
250
  6
CONTINUOUS
 10
-48.4712802565
 20
24.2434453296
 30
0.0
 11
-48.2212802565
 21
24.2434453296
 31
0.0
  0
LINE
  5
44F
100
AcDbEntity
  8
268140580
100
AcDbLine
 62
250
  6
CONTINUOUS
 10
-51.4712802565
 20
24.2696259329
 30
0.0
 11
-51.7212802565
 21
24.2696259329
 31
0.0
  0
LINE
  5
450
100
AcDbEntity
  8
268140580
100
AcDbLine
 62
7
  6
CONTINUOUS
 10
-48.2270609601
 20
23.7913235796
 30
0.0
 11
-41.7169169888
 21
23.7345104139
 31
0.0
  0
LINE
  5
451
100
AcDbEntity
  8
268140580
100
AcDbLine
 62
250
  6
CONTINUOUS
 10
-48.4712802565
 20
24.2434453296
 30
0.0
 11
-51.4712802565
 21
24.2696259329
 31
0.0
  0
LINE
  5
452
100
AcDbEntity
  8
268140580
100
AcDbLine
 62
7
  6
CONTINUOUS
 10
-48.4690986227
 20
24.4934358103
 30
0.0
 11
-51.4690986227
 21
24.5196164137
 31
0.0
  0
LWPOLYLINE
  5
453
100
AcDbEntity
  8
0
100
AcDbPolyline
 62
7
  6
CONTINUOUS
 90
7
 70
0
 43
0.3500000006
 10
-35.0784231949
 20
33.2696146545
 10
-36.5784236526
 20
33.2696146545
 10
-35.0784231949
 20
35.4124730988
 10
-35.0784231949
 20
35.8410466003
 10
-35.5069944305
 20
36.2696155701
 10
-36.149852417
 20
36.2696155701
 10
-36.5784236526
 20
35.6267575836
  0
LWPOLYLINE
  5
454
100
AcDbEntity
  8
0
100
AcDbPolyline
 62
7
  6
CONTINUOUS
 90
6
 70
0
 43
0.3500000006
 10
-43.6497731323
 20
43.2696177063
 10
-42.5783416443
 20
43.2696177063
 10
-42.3640571594
 20
43.4839021912
 10
-42.3640571594
 20
44.5553291473
 10
-42.792630661
 20
44.9839026489
 10
-43.2211996307
 20
44.9839026489
  0
LWPOLYLINE
  5
455
100
AcDbEntity
  8
0
100
AcDbPolyline
 62
7
  6
CONTINUOUS
 90
8
 70
0
 43
0.3500000006
 10
-37.4354868164
 20
43.2696177063
 10
-36.5783443451
 20
43.2696177063
 10
-36.1497731094
 20
43.698186676
 10
-36.1497731094
 20
44.5553291473
 10
-36.5783443451
 20
44.9839026489
 10
-37.4354868164
 20
44.9839026489
 10
-37.4354868164
 20
46.2696186218
 10
-36.1497731094
 20
46.2696186218
  0
LWPOLYLINE
  5
456
100
AcDbEntity
  8
0
100
AcDbPolyline
 62
7
  6
CONTINUOUS
 90
13
 70
0
 43
0.3500000006
 10
-33.7927094879
 20
34.983904129
 10
-34.0784228897
 20
35.1981886139
 10
-34.0784228897
 20
35.8410466003
 10
-33.7927094879
 20
36.2696155701
 10
-33.1498515015
 20
36.2696155701
 10
-32.8641380997
 20
35.8410466003
 10
-32.8641380997
 20
35.1981886139
 10
-33.1498515015
 20
34.983904129
 10
-32.7212802658
 20
34.5553306274
 10
-32.7212802658
 20
33.6981881561
 10
-33.1498515015
 20
33.2696146545
 10
-33.7927094879
 20
33.2696146545
 10
-34.2212807236
 20
33.6981881561
  0
LWPOLYLINE
  5
457
100
AcDbEntity
  8
0
100
AcDbPolyline
 62
7
  6
CONTINUOUS
 90
13
 70
0
 43
0.3500000006
 10
-41.0783457184
 20
44.9839026489
 10
-41.3640568542
 20
45.1981871338
 10
-41.3640568542
 20
45.8410451202
 10
-41.0783457184
 20
46.2696186218
 10
-40.4354877319
 20
46.2696186218
 10
-40.1497720642
 20
45.8410451202
 10
-40.1497720642
 20
45.1981871338
 10
-40.4354877319
 20
44.9839026489
 10
-40.0069142303
 20
44.5553291473
 10
-40.0069142303
 20
43.698186676
 10
-40.4354877319
 20
43.2696177063
 10
-41.0783457184
 20
43.2696177063
 10
-41.5069146881
 20
43.698186676
  0
ARC
  5
458
100
AcDbEntity
  8
268140580
100
AcDbCircle
 62
250
  6
CONTINUOUS
 10
10.7335777323
 20
-21.9404175016
 30
0.0
 40
0.4590352161
100
AcDbArc
 50
269.8863036516
 51
270.0696781792
  0
ARC
  5
459
100
AcDbEntity
  8
268140580
100
AcDbCircle
 62
250
  6
CONTINUOUS
 10
10.7326693717
 20
21.9934540346
 30
0.0
 40
0.4065459654
100
AcDbArc
 50
89.7990730756
 51
90.0003575534
  0
ARC
  5
45A
100
AcDbEntity
  8
268140580
100
AcDbCircle
 62
250
  6
CONTINUOUS
 10
-10.7322879089
 20
-21.999141835
 30
0.0
 40
0.4003102342
100
AcDbArc
 50
267.2226493906
 51
269.4724119825
  0
ARC
  5
45B
100
AcDbEntity
  8
268140580
100
AcDbCircle
 62
250
  6
CONTINUOUS
 10
10.7322879089
 20
-21.999141835
 30
0.0
 40
0.4003102342
100
AcDbArc
 50
270.5275880175
 51
272.7773506094
  0
ARC
  5
45C
100
AcDbEntity
  8
268140580
100
AcDbCircle
 62
250
  6
CONTINUOUS
 10
-10.7322933001
 20
21.9992953102
 30
0.0
 40
0.400156678
100
AcDbArc
 50
90.0534839348
 51
92.7777453574
  0
ARC
  5
45D
100
AcDbEntity
  8
268140580
100
AcDbCircle
 62
250
  6
CONTINUOUS
 10
10.7322933001
 20
21.9992953102
 30
0.0
 40
0.400156678
100
AcDbArc
 50
87.2222546426
 51
89.9465160652
  0
ARC
  5
45E
100
AcDbEntity
  8
268140580
100
AcDbCircle
 62
250
  6
CONTINUOUS
 10
-10.7325216553
 20
-21.9993036901
 30
0.0
 40
0.4001136125
100
AcDbArc
 50
180.0997179406
 51
267.254957295
  0
ARC
  5
45F
100
AcDbEntity
  8
268140580
100
AcDbCircle
 62
250
  6
CONTINUOUS
 10
10.7325216275
 20
-21.9993036354
 30
0.0
 40
0.4001136125
100
AcDbArc
 50
272.745046302
 51
359.9002742346
  0
ARC
  5
460
100
AcDbEntity
  8
268140580
100
AcDbCircle
 62
250
  6
CONTINUOUS
 10
-10.7325216548
 20
21.9993036876
 30
0.0
 40
0.4001136114
100
AcDbArc
 50
92.7451437407
 51
179.9002817005
  0
ARC
  5
461
100
AcDbEntity
  8
268140580
100
AcDbCircle
 62
250
  6
CONTINUOUS
 10
10.732521627
 20
21.999303633
 30
0.0
 40
0.4001136114
100
AcDbArc
 50
0.0997261133
 51
87.2548526614
  0
ARC
  5
462
100
AcDbEntity
  8
268140580
100
AcDbCircle
 62
250
  6
CONTINUOUS
 10
-10.7326299823
 20
-22.0000318133
 30
0.0
 40
0.3999726334
100
AcDbArc
 50
179.995442813
 51
267.2676520737
  0
ARC
  5
463
100
AcDbEntity
  8
268140580
100
AcDbCircle
 62
250
  6
CONTINUOUS
 10
10.7326300173
 20
-22.0000318466
 30
0.0
 40
0.3999726334
100
AcDbArc
 50
272.732343143
 51
0.0045619702
  0
ARC
  5
464
100
AcDbEntity
  8
268140580
100
AcDbCircle
 62
250
  6
CONTINUOUS
 10
-10.7326319505
 20
22.0000330255
 30
0.0
 40
0.3999705574
100
AcDbArc
 50
90.0049971961
 51
180.0047308558
  0
ARC
  5
465
100
AcDbEntity
  8
268140580
100
AcDbCircle
 62
250
  6
CONTINUOUS
 10
10.7326319505
 20
22.0000330255
 30
0.0
 40
0.3999705574
100
AcDbArc
 50
359.9952691438
 51
89.9950028032
  0
ARC
  5
466
100
AcDbEntity
  8
268140580
100
AcDbCircle
 62
250
  6
CONTINUOUS
 10
-10.7326533868
 20
-22.0002678353
 30
0.0
 40
0.3997322397
100
AcDbArc
 50
267.2693902521
 51
269.5219358058
  0
ARC
  5
467
100
AcDbEntity
  8
268140580
100
AcDbCircle
 62
250
  6
CONTINUOUS
 10
10.7326533868
 20
-22.0002678353
 30
0.0
 40
0.3997322397
100
AcDbArc
 50
270.4780641941
 51
272.7306097479
  0
ARC
  5
468
100
AcDbEntity
  8
268140580
100
AcDbCircle
 62
250
  6
CONTINUOUS
 10
-10.7323022732
 20
-22.0001632067
 30
0.0
 40
0.3992887736
100
AcDbArc
 50
269.4731235431
 51
269.9476873918
  0
ARC
  5
469
100
AcDbEntity
  8
268140580
100
AcDbCircle
 62
250
  6
CONTINUOUS
 10
10.7323022732
 20
-22.0001632067
 30
0.0
 40
0.3992887736
100
AcDbArc
 50
270.0523126082
 51
270.5268764569
  0
ARC
  5
46A
100
AcDbEntity
  8
268140580
100
AcDbCircle
 62
250
  6
CONTINUOUS
 10
-10.7326525168
 20
-22.0074497232
 30
0.0
 40
0.3925502771
100
AcDbArc
 50
269.7894251413
 51
269.997910203
  0
ARC
  5
46B
100
AcDbEntity
  8
268140580
100
AcDbCircle
 62
7
  6
CONTINUOUS
 10
-10.4
 20
24.2696259329
 30
0.0
 40
0.25
100
AcDbArc
 50
90.0
 51
180.0
  0
ARC
  5
46C
100
AcDbEntity
  8
268140580
100
AcDbCircle
 62
7
  6
CONTINUOUS
 10
-8.5
 20
24.2696259329
 30
0.0
 40
0.25
100
AcDbArc
 50
0.0
 51
90.0
  0
ARC
  5
46D
100
AcDbEntity
  8
268140580
100
AcDbCircle
 62
7
  6
CONTINUOUS
 10
8.5
 20
24.2696259329
 30
0.0
 40
0.25
100
AcDbArc
 50
90.0
 51
180.0
  0
ARC
  5
46E
100
AcDbEntity
  8
268140580
100
AcDbCircle
 62
7
  6
CONTINUOUS
 10
10.4
 20
24.2696259329
 30
0.0
 40
0.25
100
AcDbArc
 50
0.0
 51
90.0
  0
ARC
  5
46F
100
AcDbEntity
  8
268140580
100
AcDbCircle
 62
7
  6
CONTINUOUS
 10
8.5
 20
-24.2696259329
 30
0.0
 40
0.25
100
AcDbArc
 50
180.0
 51
270.0
  0
ARC
  5
470
100
AcDbEntity
  8
268140580
100
AcDbCircle
 62
7
  6
CONTINUOUS
 10
10.4
 20
-24.2696259329
 30
0.0
 40
0.25
100
AcDbArc
 50
270.0
 51
360.0
  0
ARC
  5
471
100
AcDbEntity
  8
268140580
100
AcDbCircle
 62
7
  6
CONTINUOUS
 10
-10.4
 20
-24.2696259329
 30
0.0
 40
0.25
100
AcDbArc
 50
180.0
 51
270.0
  0
ARC
  5
472
100
AcDbEntity
  8
268140580
100
AcDbCircle
 62
7
  6
CONTINUOUS
 10
-8.5
 20
-24.2696259329
 30
0.0
 40
0.25
100
AcDbArc
 50
270.0
 51
360.0
  0
ARC
  5
473
100
AcDbEntity
  8
RACCORDO
100
AcDbCircle
 62
250
  6
CONTINUOUS
 10
10.8125320941
 20
0.3874679059
 30
0.0
 40
0.2000430908
100
AcDbArc
 50
270.0209581743
 51
359.9790418257
  0
ARC
  5
474
100
AcDbEntity
  8
RACCORDO
100
AcDbCircle
 62
250
  6
CONTINUOUS
 10
-10.8125321432
 20
-0.3874678568
 30
0.0
 40
0.2000430908
100
AcDbArc
 50
90.0209441079
 51
179.9790558921
  0
ARC
  5
475
100
AcDbEntity
  8
0
100
AcDbCircle
 62
250
  6
CONTINUOUS
 10
-10.8125321432
 20
-0.3874678568
 30
0.0
 40
0.2000430908
100
AcDbArc
 50
90.0209441079
 51
179.9790558921
  0
ARC
  5
476
100
AcDbEntity
  8
0
100
AcDbCircle
 62
250
  6
CONTINUOUS
 10
10.8125320941
 20
0.3874679059
 30
0.0
 40
0.2000430908
100
AcDbArc
 50
270.0209581743
 51
359.9790418257
  0
ARC
  5
477
100
AcDbEntity
  8
RACCORDO
100
AcDbCircle
 62
250
  6
CONTINUOUS
 10
-10.8125320946
 20
0.3874679054
 30
0.0
 40
0.2000430904
100
AcDbArc
 50
180.0209580482
 51
269.9790419518
  0
ARC
  5
478
100
AcDbEntity
  8
RACCORDO
100
AcDbCircle
 62
250
  6
CONTINUOUS
 10
10.8125321436
 20
-0.3874678564
 30
0.0
 40
0.2000430904
100
AcDbArc
 50
0.0209439944
 51
89.9790560056
  0
ARC
  5
479
100
AcDbEntity
  8
0
100
AcDbCircle
 62
250
  6
CONTINUOUS
 10
10.8125321436
 20
-0.3874678564
 30
0.0
 40
0.2000430904
100
AcDbArc
 50
0.0209439944
 51
89.9790560056
  0
ARC
  5
47A
100
AcDbEntity
  8
0
100
AcDbCircle
 62
250
  6
CONTINUOUS
 10
-10.8125320946
 20
0.3874679054
 30
0.0
 40
0.2000430904
100
AcDbArc
 50
180.0209580482
 51
269.9790419518
  0
ARC
  5
47B
100
AcDbEntity
  8
0
100
AcDbCircle
 62
7
  6
CONTINUOUS
 10
-56.7995009919
 20
-20.5023411019
 30
0.0
 40
1.5
100
AcDbArc
 50
182.3571294643
 51
267.0
  0
ARC
  5
47C
100
AcDbEntity
  8
RACCORDO
100
AcDbCircle
 62
7
  6
CONTINUOUS
 10
-56.7995009919
 20
-20.5023411019
 30
0.0
 40
1.5
100
AcDbArc
 50
182.3571294643
 51
267.0
  0
ARC
  5
47D
100
AcDbEntity
  8
0
100
AcDbCircle
 62
250
  6
CONTINUOUS
 10
-56.8082188781
 20
-20.5023328776
 30
0.0
 40
1.0000086483
100
AcDbArc
 50
182.3575806779
 51
266.9995487863
  0
ARC
  5
47E
100
AcDbEntity
  8
RACCORDO
100
AcDbCircle
 62
250
  6
CONTINUOUS
 10
-56.8082188781
 20
-20.5023328776
 30
0.0
 40
1.0000086483
100
AcDbArc
 50
182.3575806779
 51
266.9995487863
  0
ARC
  5
47F
100
AcDbEntity
  8
268140580
100
AcDbCircle
 62
7
  6
CONTINUOUS
 10
-41.7212802565
 20
-23.2345294524
 30
0.0
 40
0.5
100
AcDbArc
 50
270.5
 51
360.0
  0
ARC
  5
480
100
AcDbEntity
  8
268140580
100
AcDbCircle
 62
250
  6
CONTINUOUS
 10
-48.9712802565
 20
-22.9783121635
 30
0.0
 40
0.4999996783
100
AcDbArc
 50
180.0
 51
240.0
  0
ARC
  5
481
100
AcDbEntity
  8
268140580
100
AcDbCircle
 62
250
  6
CONTINUOUS
 10
-50.9712802565
 20
-22.9783121635
 30
0.0
 40
0.4999996774
100
AcDbArc
 50
300.0
 51
360.0
  0
ARC
  5
482
100
AcDbEntity
  8
268140580
100
AcDbCircle
 62
250
  6
CONTINUOUS
 10
-49.0212802565
 20
-22.6
 30
0.0
 40
0.45
100
AcDbArc
 50
153.6118224715
 51
180.0
  0
ARC
  5
483
100
AcDbEntity
  8
268140580
100
AcDbCircle
 62
7
  6
CONTINUOUS
 10
-52.3212802565
 20
-19.6720259665
 30
0.0
 40
0.3
100
AcDbArc
 50
180.0
 51
268.9999996391
  0
ARC
  5
484
100
AcDbEntity
  8
268140580
100
AcDbCircle
 62
7
  6
CONTINUOUS
 10
-48.9712802565
 20
-22.9783121635
 30
0.0
 40
0.25
100
AcDbArc
 50
180.0
 51
240.0
  0
ARC
  5
485
100
AcDbEntity
  8
268140580
100
AcDbCircle
 62
7
  6
CONTINUOUS
 10
-50.9712802565
 20
-22.9783121635
 30
0.0
 40
0.25
100
AcDbArc
 50
300.0
 51
360.0
  0
ARC
  5
486
100
AcDbEntity
  8
268140580
100
AcDbCircle
 62
7
  6
CONTINUOUS
 10
-51.4712802565
 20
-23.8443375673
 30
0.0
 40
0.25
100
AcDbArc
 50
120.0
 51
180.0
  0
ARC
  5
487
100
AcDbEntity
  8
268140580
100
AcDbCircle
 62
7
  6
CONTINUOUS
 10
-51.4712802565
 20
-24.2696259329
 30
0.0
 40
0.25
100
AcDbArc
 50
180.0
 51
270.5
  0
ARC
  5
488
100
AcDbEntity
  8
268140580
100
AcDbCircle
 62
7
  6
CONTINUOUS
 10
-48.4712802565
 20
-24.2434453296
 30
0.0
 40
0.25
100
AcDbArc
 50
270.5
 51
360.0
  0
ARC
  5
489
100
AcDbEntity
  8
268140580
100
AcDbCircle
 62
7
  6
CONTINUOUS
 10
-48.4712802565
 20
-23.8443375673
 30
0.0
 40
0.25
100
AcDbArc
 50
0.0
 51
60.0
  0
ARC
  5
48A
100
AcDbEntity
  8
268140580
100
AcDbCircle
 62
7
  6
CONTINUOUS
 10
-49.2160430722
 20
-22.2
 30
0.0
 40
0.2
100
AcDbArc
 50
267.0
 51
270.0
  0
ARC
  5
48B
100
AcDbEntity
  8
268140580
100
AcDbCircle
 62
7
  6
CONTINUOUS
 10
-49.0212802565
 20
-22.6
 30
0.0
 40
0.2
100
AcDbArc
 50
90.0
 51
180.0
  0
ARC
  5
48C
100
AcDbEntity
  8
268140580
100
AcDbCircle
 62
7
  6
CONTINUOUS
 10
-52.3212802565
 20
-2.3716114646
 30
0.0
 40
0.3
100
AcDbArc
 50
91.0
 51
180.0
  0
ARC
  5
48D
100
AcDbEntity
  8
0
100
AcDbCircle
 62
7
  6
CONTINUOUS
 10
-58.5211361074
 20
-0.3925397936
 30
0.0
 40
0.2
100
AcDbArc
 50
90.9999995964
 51
180.0450000809
  0
ARC
  5
48E
100
AcDbEntity
  8
RACCORDO
100
AcDbCircle
 62
7
  6
CONTINUOUS
 10
-58.5211361074
 20
-0.3925397936
 30
0.0
 40
0.2
100
AcDbArc
 50
90.9999995964
 51
180.0450000809
  0
ARC
  5
48F
100
AcDbEntity
  8
268140580
100
AcDbCircle
 62
7
  6
CONTINUOUS
 10
-39.2212802565
 20
-21.4
 30
0.0
 40
1.0
100
AcDbArc
 50
270.0
 51
360.0
  0
ARC
  5
490
100
AcDbEntity
  8
RACCORDO
100
AcDbCircle
 62
7
  6
CONTINUOUS
 10
-23.2212802565
 20
-18.3490008669
 30
0.0
 40
1.0
100
AcDbArc
 50
271.0
 51
360.0
  0
ARC
  5
491
100
AcDbEntity
  8
RACCORDO
100
AcDbCircle
 62
7
  6
CONTINUOUS
 10
-33.2212802565
 20
-18.5235515162
 30
0.0
 40
1.0
100
AcDbArc
 50
271.0
 51
360.0
  0
ARC
  5
492
100
AcDbEntity
  8
RACCORDO
100
AcDbCircle
 62
7
  6
CONTINUOUS
 10
-20.5212802565
 20
-14.7501233207
 30
0.0
 40
0.3
100
AcDbArc
 50
275.0
 51
360.0
  0
ARC
  5
493
100
AcDbEntity
  8
RACCORDO
100
AcDbCircle
 62
250
  6
CONTINUOUS
 10
-31.7038278433
 20
-9.4913486382
 30
0.0
 40
1.5000000068
100
AcDbArc
 50
91.000000255
 51
179.999999745
  0
ARC
  5
494
100
AcDbEntity
  8
RACCORDO
100
AcDbCircle
 62
7
  6
CONTINUOUS
 10
-23.2212802565
 20
-7.8427520876
 30
0.0
 40
1.0
100
AcDbArc
 50
271.0
 51
360.0
  0
ARC
  5
495
100
AcDbEntity
  8
RACCORDO
100
AcDbCircle
 62
7
  6
CONTINUOUS
 10
-31.7212802565
 20
-9.4913486316
 30
0.0
 40
0.5
100
AcDbArc
 50
91.0
 51
180.0
  0
ARC
  5
496
100
AcDbEntity
  8
RACCORDO
100
AcDbCircle
 62
7
  6
CONTINUOUS
 10
-20.5212802565
 20
-4.3501233207
 30
0.0
 40
0.3
100
AcDbArc
 50
275.0
 51
360.0
  0
ARC
  5
497
100
AcDbEntity
  8
RACCORDO
100
AcDbCircle
 62
7
  6
CONTINUOUS
 10
-20.5212802565
 20
-9.4498766793
 30
0.0
 40
0.3
100
AcDbArc
 50
0.0
 51
85.0
  0
ARC
  5
498
100
AcDbEntity
  8
268140580
100
AcDbCircle
 62
7
  6
CONTINUOUS
 10
-52.3212802565
 20
2.3716114646
 30
0.0
 40
0.3
100
AcDbArc
 50
180.0
 51
269.0
  0
ARC
  5
499
100
AcDbEntity
  8
0
100
AcDbCircle
 62
7
  6
CONTINUOUS
 10
-58.5211361074
 20
0.3925397936
 30
0.0
 40
0.2
100
AcDbArc
 50
179.9549999191
 51
269.0000004036
  0
ARC
  5
49A
100
AcDbEntity
  8
RACCORDO
100
AcDbCircle
 62
7
  6
CONTINUOUS
 10
-58.5211361074
 20
0.3925397936
 30
0.0
 40
0.2
100
AcDbArc
 50
179.9549999191
 51
269.0000004036
  0
ARC
  5
49B
100
AcDbEntity
  8
0
100
AcDbCircle
 62
7
  6
CONTINUOUS
 10
-56.7995009919
 20
20.5023411019
 30
0.0
 40
1.5
100
AcDbArc
 50
93.0
 51
177.6428705357
  0
ARC
  5
49C
100
AcDbEntity
  8
RACCORDO
100
AcDbCircle
 62
7
  6
CONTINUOUS
 10
-56.7995009919
 20
20.5023411019
 30
0.0
 40
1.5
100
AcDbArc
 50
93.0
 51
177.6428705357
  0
ARC
  5
49D
100
AcDbEntity
  8
0
100
AcDbCircle
 62
250
  6
CONTINUOUS
 10
-56.8082188781
 20
20.5023328777
 30
0.0
 40
1.0000086483
100
AcDbArc
 50
93.0004512116
 51
177.6424193241
  0
ARC
  5
49E
100
AcDbEntity
  8
RACCORDO
100
AcDbCircle
 62
250
  6
CONTINUOUS
 10
-56.8082188781
 20
20.5023328777
 30
0.0
 40
1.0000086483
100
AcDbArc
 50
93.0004512116
 51
177.6424193241
  0
ARC
  5
49F
100
AcDbEntity
  8
268140580
100
AcDbCircle
 62
7
  6
CONTINUOUS
 10
-41.7212802565
 20
23.2345294524
 30
0.0
 40
0.5
100
AcDbArc
 50
0.0
 51
89.5
  0
ARC
  5
4A0
100
AcDbEntity
  8
268140580
100
AcDbCircle
 62
250
  6
CONTINUOUS
 10
-50.9712802565
 20
22.9783121635
 30
0.0
 40
0.4999996783
100
AcDbArc
 50
0.0
 51
60.0
  0
ARC
  5
4A1
100
AcDbEntity
  8
268140580
100
AcDbCircle
 62
250
  6
CONTINUOUS
 10
-48.9712802565
 20
22.9783121635
 30
0.0
 40
0.4999996774
100
AcDbArc
 50
120.0
 51
180.0
  0
ARC
  5
4A2
100
AcDbEntity
  8
268140580
100
AcDbCircle
 62
250
  6
CONTINUOUS
 10
-49.0212802565
 20
22.6
 30
0.0
 40
0.45
100
AcDbArc
 50
180.0
 51
206.3881753103
  0
ARC
  5
4A3
100
AcDbEntity
  8
268140580
100
AcDbCircle
 62
7
  6
CONTINUOUS
 10
-52.3212802565
 20
19.6720259665
 30
0.0
 40
0.3
100
AcDbArc
 50
91.0000003609
 51
180.0
  0
ARC
  5
4A4
100
AcDbEntity
  8
268140580
100
AcDbCircle
 62
7
  6
CONTINUOUS
 10
-51.4712802565
 20
23.8443375673
 30
0.0
 40
0.25
100
AcDbArc
 50
180.0
 51
240.0
  0
ARC
  5
4A5
100
AcDbEntity
  8
268140580
100
AcDbCircle
 62
7
  6
CONTINUOUS
 10
-51.4712802565
 20
24.2696259329
 30
0.0
 40
0.25
100
AcDbArc
 50
89.5
 51
180.0
  0
ARC
  5
4A6
100
AcDbEntity
  8
268140580
100
AcDbCircle
 62
7
  6
CONTINUOUS
 10
-48.4712802565
 20
24.2434453296
 30
0.0
 40
0.25
100
AcDbArc
 50
0.0
 51
89.5
  0
ARC
  5
4A7
100
AcDbEntity
  8
268140580
100
AcDbCircle
 62
7
  6
CONTINUOUS
 10
-48.4712802565
 20
23.8443375673
 30
0.0
 40
0.25
100
AcDbArc
 50
300.0
 51
360.0
  0
ARC
  5
4A8
100
AcDbEntity
  8
268140580
100
AcDbCircle
 62
7
  6
CONTINUOUS
 10
-48.9712802565
 20
22.9783121635
 30
0.0
 40
0.25
100
AcDbArc
 50
120.0
 51
180.0
  0
ARC
  5
4A9
100
AcDbEntity
  8
268140580
100
AcDbCircle
 62
7
  6
CONTINUOUS
 10
-50.9712802565
 20
22.9783121635
 30
0.0
 40
0.25
100
AcDbArc
 50
0.0
 51
60.0
  0
ARC
  5
4AA
100
AcDbEntity
  8
268140580
100
AcDbCircle
 62
7
  6
CONTINUOUS
 10
-49.2160430722
 20
22.2
 30
0.0
 40
0.2
100
AcDbArc
 50
90.0
 51
93.0
  0
ARC
  5
4AB
100
AcDbEntity
  8
268140580
100
AcDbCircle
 62
7
  6
CONTINUOUS
 10
-49.0212802565
 20
22.6
 30
0.0
 40
0.2
100
AcDbArc
 50
180.0
 51
270.0
  0
ARC
  5
4AC
100
AcDbEntity
  8
RACCORDO
100
AcDbCircle
 62
7
  6
CONTINUOUS
 10
-20.5212802565
 20
9.4498766793
 30
0.0
 40
0.3
100
AcDbArc
 50
275.0
 51
360.0
  0
ARC
  5
4AD
100
AcDbEntity
  8
RACCORDO
100
AcDbCircle
 62
7
  6
CONTINUOUS
 10
-20.5212802565
 20
0.9501233207
 30
0.0
 40
0.3
100
AcDbArc
 50
0.0
 51
85.0
  0
ARC
  5
4AE
100
AcDbEntity
  8
RACCORDO
100
AcDbCircle
 62
7
  6
CONTINUOUS
 10
-20.5212802565
 20
4.3501233207
 30
0.0
 40
0.3
100
AcDbArc
 50
0.0
 51
85.0
  0
ARC
  5
4AF
100
AcDbEntity
  8
268140580
100
AcDbCircle
 62
7
  6
CONTINUOUS
 10
-39.2212802565
 20
21.4
 30
0.0
 40
1.0
100
AcDbArc
 50
0.0
 51
90.0
  0
ARC
  5
4B0
100
AcDbEntity
  8
RACCORDO
100
AcDbCircle
 62
7
  6
CONTINUOUS
 10
-23.2212802565
 20
18.3490008669
 30
0.0
 40
1.0
100
AcDbArc
 50
0.0
 51
89.0
  0
ARC
  5
4B1
100
AcDbEntity
  8
RACCORDO
100
AcDbCircle
 62
7
  6
CONTINUOUS
 10
-20.5212802565
 20
14.7501233207
 30
0.0
 40
0.3
100
AcDbArc
 50
0.0
 51
85.0
  0
ARC
  5
4B2
100
AcDbEntity
  8
0
100
AcDbCircle
 62
250
  6
CONTINUOUS
 10
441.2705629587
 20
-0.0000120768
 30
0.0
 40
499.5005794249
100
AcDbArc
 50
177.6428718851
 51
179.9555620589
  0
ARC
  5
4B3
100
AcDbEntity
  8
RACCORDO
100
AcDbCircle
 62
250
  6
CONTINUOUS
 10
441.2705629587
 20
-0.0000120768
 30
0.0
 40
499.5005794249
100
AcDbArc
 50
177.6428718851
 51
179.9555620589
  0
ARC
  5
4B4
100
AcDbEntity
  8
0
100
AcDbCircle
 62
7
  6
CONTINUOUS
 10
441.2787097435
 20
0.0
 30
0.0
 40
500.0
100
AcDbArc
 50
177.6428705357
 51
179.9550002484
  0
ARC
  5
4B5
100
AcDbEntity
  8
CURVE
100
AcDbCircle
 62
250
  6
CONTINUOUS
 10
441.2787097435
 20
-0.0
 30
0.0
 40
500.0
100
AcDbArc
 50
178.3152613194
 51
178.7164671861
  0
ARC
  5
4B6
100
AcDbEntity
  8
0
100
AcDbCircle
 62
7
  6
CONTINUOUS
 10
441.2787097435
 20
-0.0
 30
0.0
 40
500.0
100
AcDbArc
 50
180.0449997516
 51
182.3571294643
  0
ARC
  5
4B7
100
AcDbEntity
  8
RACCORDO
100
AcDbCircle
 62
7
  6
CONTINUOUS
 10
441.2787097435
 20
-0.0
 30
0.0
 40
500.0
100
AcDbArc
 50
180.0449997516
 51
182.3571294643
  0
ARC
  5
4B8
100
AcDbEntity
  8
RACCORDO
100
AcDbCircle
 62
7
  6
CONTINUOUS
 10
441.2787097435
 20
-0.0
 30
0.0
 40
500.0
100
AcDbArc
 50
177.6428705357
 51
179.9550002484
  0
ARC
  5
4B9
100
AcDbEntity
  8
0
100
AcDbCircle
 62
250
  6
CONTINUOUS
 10
441.2705526073
 20
0.0000118598
 30
0.0
 40
499.5005690733
100
AcDbArc
 50
180.0444379172
 51
182.3571281389
  0
ARC
  5
4BA
100
AcDbEntity
  8
RACCORDO
100
AcDbCircle
 62
250
  6
CONTINUOUS
 10
441.2705526073
 20
0.0000118598
 30
0.0
 40
499.5005690733
100
AcDbArc
 50
180.0444379172
 51
182.3571281389
  0
SPLINE
  5
4BB
100
AcDbEntity
  8
RACCORDO
100
AcDbSpline
 62
250
  6
CONTINUOUS
 70
0
 71
3
 72
11
 73
7
 74
0
 42
0.0000001
 43
0.0000001
 44
0.0000000001
 40
0.0
 40
0.0
 40
0.0
 40
0.0
 40
0.2498595644
 40
0.499801101
 40
0.7498590234
 40
1.0
 40
1.0
 40
1.0
 40
1.0
 10
11.0364760808
 20
21.5009706367
 30
0.0
 10
11.036416706
 20
21.565896313
 30
0.0
 10
11.0103018168
 20
21.6971735832
 30
0.0
 10
10.8989582902
 20
21.8630035226
 30
0.0
 10
10.7329282669
 20
21.9741651843
 30
0.0
 10
10.6015510342
 20
22.000226107
 30
0.0
 10
10.5365522332
 20
22.0002854041
 30
0.0
  0
SPLINE
  5
4BC
100
AcDbEntity
  8
RACCORDO
100
AcDbSpline
 62
250
  6
CONTINUOUS
 70
0
 71
3
 72
18
 73
14
 74
0
 42
0.0000001
 43
0.0000001
 44
0.0000000001
 40
0.0
 40
0.0
 40
0.0
 40
0.0
 40
0.0095498884
 40
0.0278611434
 40
0.0548136053
 40
0.0901733276
 40
0.1336449546
 40
0.1848638734
 40
0.3087199795
 40
0.4575439043
 40
0.6262544403
 40
0.8091722922
 40
1.0
 40
1.0
 40
1.0
 40
1.0
 10
10.5365522332
 20
22.000285404
 30
0.0
 10
10.5355627686
 20
21.9958209
 30
0.0
 10
10.534657705
 20
21.982444193
 30
0.0
 10
10.5330108756
 20
21.9562951639
 30
0.0
 10
10.531644321
 20
21.9176878829
 30
0.0
 10
10.5301533356
 20
21.8670666396
 30
0.0
 10
10.5287628941
 20
21.8048051885
 30
0.0
 10
10.5268453322
 20
21.700176129
 30
0.0
 10
10.5247896634
 20
21.5450931425
 30
0.0
 10
10.522821031
 20
21.333748461
 30
0.0
 10
10.521321274
 20
21.0941177511
 30
0.0
 10
10.5203440621
 20
20.8343715461
 30
0.0
 10
10.5200695497
 20
20.6554084963
 30
0.0
 10
10.5200254648
 20
20.5640332015
 30
0.0
  0
SPLINE
  5
4BD
100
AcDbEntity
  8
RACCORDO
100
AcDbSpline
 62
250
  6
CONTINUOUS
 70
0
 71
3
 72
18
 73
14
 74
0
 42
0.0000001
 43
0.0000001
 44
0.0000000001
 40
0.0
 40
0.0
 40
0.0
 40
0.0
 40
0.009631099
 40
0.0279745946
 40
0.0549445688
 40
0.0903149132
 40
0.1337902297
 40
0.1850062296
 40
0.3088452893
 40
0.457644709
 40
0.6263254601
 40
0.8092083268
 40
1.0
 40
1.0
 40
1.0
 40
1.0
 10
11.0364760808
 20
21.5009706367
 30
0.0
 10
11.035507394
 20
21.4980520215
 30
0.0
 10
11.0345684178
 20
21.4890763595
 30
0.0
 10
11.03294373
 20
21.4716718224
 30
0.0
 10
11.0315652177
 20
21.4459107981
 30
0.0
 10
11.0300786394
 20
21.4121706967
 30
0.0
 10
11.0286864252
 20
21.3706601774
 30
0.0
 10
11.0267699015
 20
21.3009127278
 30
0.0
 10
11.0247137334
 20
21.1975250614
 30
0.0
 10
11.0227451059
 20
21.0566275807
 30
0.0
 10
11.0212453624
 20
20.8968700892
 30
0.0
 10
11.0202679138
 20
20.7237008085
 30
0.0
 10
11.019993283
 20
20.6043881371
 30
0.0
 10
11.0199493124
 20
20.5434691683
 30
0.0
  0
SPLINE
  5
4BE
100
AcDbEntity
  8
RACCORDO
100
AcDbSpline
 62
250
  6
CONTINUOUS
 70
0
 71
3
 72
9
 73
5
 74
0
 42
0.0000001
 43
0.0000001
 44
0.0000000001
 40
0.0
 40
0.0
 40
0.0
 40
0.0
 40
0.2499077644
 40
1.0
 40
1.0
 40
1.0
 40
1.0
 10
11.0199493124
 20
20.5434691683
 30
0.0
 10
11.0187429115
 20
18.8644163026
 30
0.0
 10
11.0145083873
 20
12.1457256173
 30
0.0
 10
11.0126430324
 20
5.4270334394
 30
0.0
 10
11.0125748066
 20
0.3873947324
 30
0.0
  0
SPLINE
  5
4BF
100
AcDbEntity
  8
RACCORDO
100
AcDbSpline
 62
250
  6
CONTINUOUS
 70
0
 71
3
 72
19
 73
15
 74
0
 42
0.0000001
 43
0.0000001
 44
0.0000000001
 40
0.0
 40
0.0
 40
0.0
 40
0.0
 40
0.1928319494
 40
0.3785606389
 40
0.549946385
 40
0.7007170455
 40
0.7665311812
 40
0.8251378828
 40
0.8759813001
 40
0.9185754199
 40
0.9525451023
 40
0.9775402187
 40
0.9933658768
 40
1.0
 40
1.0
 40
1.0
 40
1.0
 10
10.5126510259
 20
0.1925702545
 30
0.0
 10
10.5319408763
 20
0.1925701427
 30
0.0
 10
10.569810021
 20
0.1925068577
 30
0.0
 10
10.6248231077
 20
0.1922252467
 30
0.0
 10
10.6756270015
 20
0.1917673078
 30
0.0
 10
10.7144346272
 20
0.191238155
 30
0.0
 10
10.7419575358
 20
0.1907220081
 30
0.0
 10
10.7594879425
 20
0.1903260735
 30
0.0
 10
10.7746844837
 20
0.1898933183
 30
0.0
 10
10.7874428834
 20
0.1894731559
 30
0.0
 10
10.7975366921
 20
0.1889501517
 30
0.0
 10
10.8051358279
 20
0.1886444597
 30
0.0
 10
10.8096150777
 20
0.1879119327
 30
0.0
 10
10.8121321427
 20
0.1878905671
 30
0.0
 10
10.8126052676
 20
0.1874251934
 30
0.0
  0
SPLINE
  5
4C0
100
AcDbEntity
  8
RACCORDO
100
AcDbSpline
 62
250
  6
CONTINUOUS
 70
0
 71
3
 72
20
 73
16
 74
0
 42
0.0000001
 43
0.0000001
 44
0.0000000001
 40
0.0
 40
0.0
 40
0.0
 40
0.0
 40
0.0028338988
 40
0.0076361523
 40
0.0238409047
 40
0.0490186324
 40
0.0830814829
 40
0.1257180874
 40
0.176524541
 40
0.2350799358
 40
0.3008286645
 40
0.4512659139
 40
0.622291794
 40
0.8077166225
 40
1.0
 40
1.0
 40
1.0
 40
1.0
 10
11.0199493124
 20
20.5434691683
 30
0.0
 10
11.019764478
 20
20.5439051814
 30
0.0
 10
11.0186587295
 20
20.5447229681
 30
0.0
 10
11.0150121819
 20
20.5461876462
 30
0.0
 10
11.0073752256
 20
20.5478212969
 30
0.0
 10
10.9949433545
 20
20.5496632013
 30
0.0
 10
10.9779928205
 20
20.5514685296
 30
0.0
 10
10.9567645264
 20
20.5532328545
 30
0.0
 10
10.9314166043
 20
20.5549175346
 30
0.0
 10
10.9021971921
 20
20.5565036779
 30
0.0
 10
10.8563302091
 20
20.5585564924
 30
0.0
 10
10.7916563961
 20
20.560687338
 30
0.0
 10
10.7069694124
 20
20.5625442934
 30
0.0
 10
10.6152768365
 20
20.5637147666
 30
0.0
 10
10.5521579312
 20
20.5640101531
 30
0.0
 10
10.5200254648
 20
20.5640332015
 30
0.0
  0
SPLINE
  5
4C1
100
AcDbEntity
  8
RACCORDO
100
AcDbSpline
 62
250
  6
CONTINUOUS
 70
0
 71
3
 72
9
 73
5
 74
0
 42
0.0000001
 43
0.0000001
 44
0.0000000001
 40
0.0
 40
0.0
 40
0.0
 40
0.0
 40
0.2499077714
 40
1.0
 40
1.0
 40
1.0
 40
1.0
 10
10.5200254648
 20
20.5640332015
 30
0.0
 10
10.5188193577
 20
18.8837089332
 30
0.0
 10
10.5145857205
 20
12.1599309495
 30
0.0
 10
10.5127200996
 20
5.4361514753
 30
0.0
 10
10.5126510259
 20
0.3926968735
 30
0.0
  0
SPLINE
  5
4C2
100
AcDbEntity
  8
RACCORDO
100
AcDbSpline
 62
250
  6
CONTINUOUS
 70
0
 71
3
 72
11
 73
7
 74
0
 42
0.0000001
 43
0.0000001
 44
0.0000000001
 40
0.0
 40
0.0
 40
0.0
 40
0.0
 40
0.2498595749
 40
0.4998011133
 40
0.7498590316
 40
1.0
 40
1.0
 40
1.0
 40
1.0
 10
-11.0364760808
 20
21.5009706367
 30
0.0
 10
-11.0364167061
 20
21.5658963158
 30
0.0
 10
-11.0103018157
 20
21.6971735896
 30
0.0
 10
-10.8989582847
 20
21.8630035291
 30
0.0
 10
-10.7329282618
 20
21.9741651863
 30
0.0
 10
-10.6015510322
 20
22.0002261072
 30
0.0
 10
-10.5365522332
 20
22.000285404
 30
0.0
  0
SPLINE
  5
4C3
100
AcDbEntity
  8
RACCORDO
100
AcDbSpline
 62
250
  6
CONTINUOUS
 70
0
 71
3
 72
21
 73
17
 74
0
 42
0.0000001
 43
0.0000001
 44
0.0000000001
 40
0.0
 40
0.0
 40
0.0
 40
0.0
 40
0.1928926544
 40
0.3786772157
 40
0.5501055985
 40
0.7009135471
 40
0.7667419738
 40
0.825359383
 40
0.8762095125
 40
0.9188048318
 40
0.9527641752
 40
0.9777296885
 40
0.9867697693
 40
0.9934975568
 40
0.9979042999
 40
1.0
 40
1.0
 40
1.0
 40
1.0
 10
10.512651021
 20
0.3926968628
 30
0.0
 10
10.5448004252
 20
0.3926964784
 30
0.0
 10
10.607914546
 20
0.3926310033
 30
0.0
 10
10.6996002274
 20
0.3923404652
 30
0.0
 10
10.784270782
 20
0.3918684286
 30
0.0
 10
10.84894739
 20
0.3913222663
 30
0.0
 10
10.8948208087
 20
0.3907912399
 30
0.0
 10
10.9240347016
 20
0.3903805582
 30
0.0
 10
10.9493747444
 20
0.3899424722
 30
0.0
 10
10.9706060098
 20
0.389487167
 30
0.0
 10
10.9875157982
 20
0.3890083592
 30
0.0
 10
10.9988445839
 20
0.3885939136
 30
0.0
 10
11.0056116498
 20
0.3882036458
 30
0.0
 10
11.0089864779
 20
0.3879877266
 30
0.0
 10
11.011137691
 20
0.3876949276
 30
0.0
 10
11.0122607377
 20
0.3875773742
 30
0.0
 10
11.0125584718
 20
0.3873947324
 30
0.0
  0
SPLINE
  5
4C4
100
AcDbEntity
  8
RACCORDO
100
AcDbSpline
 62
250
  6
CONTINUOUS
 70
0
 71
3
 72
20
 73
16
 74
0
 42
0.0000001
 43
0.0000001
 44
0.0000000001
 40
0.0
 40
0.0
 40
0.0
 40
0.0
 40
0.0028343581
 40
0.0076371765
 40
0.0238430376
 40
0.0490217474
 40
0.0830854203
 40
0.1257226711
 40
0.1765295842
 40
0.2350852424
 40
0.3008340347
 40
0.4512708281
 40
0.6222955376
 40
0.8077186407
 40
1.0
 40
1.0
 40
1.0
 40
1.0
 10
-11.0199493123
 20
20.5434691683
 30
0.0
 10
-11.0197643203
 20
20.5439051978
 30
0.0
 10
-11.0186583642
 20
20.5447229113
 30
0.0
 10
-11.0150114145
 20
20.5461876076
 30
0.0
 10
-11.0073740295
 20
20.5478212148
 30
0.0
 10
-10.9949416552
 20
20.5496631207
 30
0.0
 10
-10.97799072
 20
20.5514684199
 30
0.0
 10
-10.9567621058
 20
20.553232721
 30
0.0
 10
-10.9314139629
 20
20.5549173716
 30
0.0
 10
-10.9021944281
 20
20.5565034856
 30
0.0
 10
-10.8563274818
 20
20.5585562556
 30
0.0
 10
-10.7916539525
 20
20.5606870525
 30
0.0
 10
-10.7069675596
 20
20.5625439613
 30
0.0
 10
-10.6152758384
 20
20.5637144008
 30
0.0
 10
-10.5521575821
 20
20.5640097755
 30
0.0
 10
-10.5200254648
 20
20.5640328209
 30
0.0
  0
SPLINE
  5
4C5
100
AcDbEntity
  8
RACCORDO
100
AcDbSpline
 62
250
  6
CONTINUOUS
 70
0
 71
3
 72
18
 73
14
 74
0
 42
0.0000001
 43
0.0000001
 44
0.0000000001
 40
0.0
 40
0.0
 40
0.0
 40
0.0
 40
0.1908277078
 40
0.3737455597
 40
0.5424560957
 40
0.6912800205
 40
0.8151361266
 40
0.8663550455
 40
0.9098266724
 40
0.9451863946
 40
0.9721388566
 40
0.9904501118
 40
1.0
 40
1.0
 40
1.0
 40
1.0
 10
-10.5200254648
 20
20.5640332015
 30
0.0
 10
-10.5200695497
 20
20.6554084963
 30
0.0
 10
-10.5203440621
 20
20.8343715461
 30
0.0
 10
-10.521321274
 20
21.0941177511
 30
0.0
 10
-10.522821031
 20
21.333748461
 30
0.0
 10
-10.5247896634
 20
21.5450931425
 30
0.0
 10
-10.5268453322
 20
21.700176129
 30
0.0
 10
-10.5287628941
 20
21.8048051885
 30
0.0
 10
-10.5301533356
 20
21.8670666395
 30
0.0
 10
-10.531644321
 20
21.9176878829
 30
0.0
 10
-10.5330108756
 20
21.956295164
 30
0.0
 10
-10.534657705
 20
21.9824441931
 30
0.0
 10
-10.5355627686
 20
21.9958209001
 30
0.0
 10
-10.5365522332
 20
22.000285404
 30
0.0
  0
SPLINE
  5
4C6
100
AcDbEntity
  8
RACCORDO
100
AcDbSpline
 62
250
  6
CONTINUOUS
 70
0
 71
3
 72
18
 73
14
 74
0
 42
0.0000001
 43
0.0000001
 44
0.0000000001
 40
0.0
 40
0.0
 40
0.0
 40
0.0
 40
0.1907916732
 40
0.3736745399
 40
0.542355291
 40
0.6911547107
 40
0.8149937705
 40
0.8662097704
 40
0.9096850866
 40
0.9450554309
 40
0.9720254055
 40
0.9903689019
 40
1.0
 40
1.0
 40
1.0
 40
1.0
 10
-11.0199493124
 20
20.5434691683
 30
0.0
 10
-11.019993283
 20
20.6043881371
 30
0.0
 10
-11.0202679138
 20
20.7237008085
 30
0.0
 10
-11.0212453624
 20
20.8968700893
 30
0.0
 10
-11.0227451059
 20
21.0566275807
 30
0.0
 10
-11.0247137334
 20
21.1975250614
 30
0.0
 10
-11.0267699015
 20
21.3009127278
 30
0.0
 10
-11.0286864252
 20
21.3706601774
 30
0.0
 10
-11.0300786393
 20
21.4121706966
 30
0.0
 10
-11.0315652178
 20
21.445910798
 30
0.0
 10
-11.0329437299
 20
21.4716718227
 30
0.0
 10
-11.034568418
 20
21.4890763597
 30
0.0
 10
-11.0355073937
 20
21.4980520219
 30
0.0
 10
-11.0364760808
 20
21.5009706367
 30
0.0
  0
SPLINE
  5
4C7
100
AcDbEntity
  8
RACCORDO
100
AcDbSpline
 62
250
  6
CONTINUOUS
 70
0
 71
3
 72
9
 73
5
 74
0
 42
0.0000001
 43
0.0000001
 44
0.0000000001
 40
0.0
 40
0.0
 40
0.0
 40
0.0
 40
0.2500664098
 40
1.0
 40
1.0
 40
1.0
 40
1.0
 10
-10.5126510259
 20
0.3926968735
 30
0.0
 10
-10.5126740538
 20
2.0740882242
 30
0.0
 10
-10.5133575844
 20
8.7978675058
 30
0.0
 10
-10.5164061287
 20
15.5216465479
 30
0.0
 10
-10.5200254648
 20
20.5640332015
 30
0.0
  0
SPLINE
  5
4C8
100
AcDbEntity
  8
RACCORDO
100
AcDbSpline
 62
250
  6
CONTINUOUS
 70
0
 71
3
 72
9
 73
5
 74
0
 42
0.0000001
 43
0.0000001
 44
0.0000000001
 40
0.0
 40
0.0
 40
0.0
 40
0.0
 40
0.2500664042
 40
1.0
 40
1.0
 40
1.0
 40
1.0
 10
-11.0125748066
 20
0.3873947324
 30
0.0
 10
-11.0125975518
 20
2.0675138836
 30
0.0
 10
-11.0132802404
 20
8.7862058684
 30
0.0
 10
-11.0163290944
 20
15.5048976137
 30
0.0
 10
-11.0199493124
 20
20.5434691683
 30
0.0
  0
SPLINE
  5
4C9
100
AcDbEntity
  8
RACCORDO
100
AcDbSpline
 62
250
  6
CONTINUOUS
 70
0
 71
3
 72
19
 73
15
 74
0
 42
0.0000001
 43
0.0000001
 44
0.0000000001
 40
0.0
 40
0.0
 40
0.0
 40
0.0
 40
0.0066341232
 40
0.0224597815
 40
0.047454898
 40
0.0814245803
 40
0.1240186999
 40
0.1748621171
 40
0.2334688188
 40
0.2992829546
 40
0.4500536151
 40
0.6214393611
 40
0.8071680506
 40
1.0
 40
1.0
 40
1.0
 40
1.0
 10
-10.8126052676
 20
0.1874251934
 30
0.0
 10
-10.8121321428
 20
0.1878905671
 30
0.0
 10
-10.8096150776
 20
0.1879119327
 30
0.0
 10
-10.8051358278
 20
0.1886444597
 30
0.0
 10
-10.797536692
 20
0.1889501517
 30
0.0
 10
-10.7874428833
 20
0.1894731559
 30
0.0
 10
-10.7746844837
 20
0.1898933183
 30
0.0
 10
-10.7594879425
 20
0.1903260735
 30
0.0
 10
-10.7419575358
 20
0.1907220081
 30
0.0
 10
-10.7144346271
 20
0.191238155
 30
0.0
 10
-10.6756270015
 20
0.1917673078
 30
0.0
 10
-10.6248231077
 20
0.1922252467
 30
0.0
 10
-10.569810021
 20
0.1925068577
 30
0.0
 10
-10.5319408763
 20
0.1925701427
 30
0.0
 10
-10.5126510259
 20
0.1925702545
 30
0.0
  0
SPLINE
  5
4CA
100
AcDbEntity
  8
RACCORDO
100
AcDbSpline
 62
250
  6
CONTINUOUS
 70
0
 71
3
 72
21
 73
17
 74
0
 42
0.0000001
 43
0.0000001
 44
0.0000000001
 40
0.0
 40
0.0
 40
0.0
 40
0.0
 40
0.0020957001
 40
0.0065024434
 40
0.013230231
 40
0.0222703121
 40
0.0472358256
 40
0.0811951689
 40
0.123790488
 40
0.1746406173
 40
0.2332580266
 40
0.2990864532
 40
0.4498944019
 40
0.6213227845
 40
0.8071073457
 40
1.0
 40
1.0
 40
1.0
 40
1.0
 10
-11.0125584721
 20
0.3873947324
 30
0.0
 10
-11.012260738
 20
0.3875773742
 30
0.0
 10
-11.0111376912
 20
0.3876949276
 30
0.0
 10
-11.0089864781
 20
0.3879877266
 30
0.0
 10
-11.0056116499
 20
0.3882036458
 30
0.0
 10
-10.9988445839
 20
0.3885939136
 30
0.0
 10
-10.9875157981
 20
0.3890083591
 30
0.0
 10
-10.9706060098
 20
0.389487167
 30
0.0
 10
-10.9493747444
 20
0.3899424722
 30
0.0
 10
-10.9240347016
 20
0.3903805582
 30
0.0
 10
-10.8948208087
 20
0.3907912399
 30
0.0
 10
-10.84894739
 20
0.3913222663
 30
0.0
 10
-10.784270782
 20
0.3918684286
 30
0.0
 10
-10.6996002275
 20
0.3923404652
 30
0.0
 10
-10.607914546
 20
0.3926310033
 30
0.0
 10
-10.5448004252
 20
0.3926964784
 30
0.0
 10
-10.512651021
 20
0.3926968628
 30
0.0
  0
SPLINE
  5
4CB
100
AcDbEntity
  8
RACCORDO
100
AcDbSpline
 62
250
  6
CONTINUOUS
 70
0
 71
3
 72
11
 73
7
 74
0
 42
0.0000001
 43
0.0000001
 44
0.0000000001
 40
0.0
 40
0.0
 40
0.0
 40
0.0
 40
0.2498595644
 40
0.499801101
 40
0.7498590234
 40
1.0
 40
1.0
 40
1.0
 40
1.0
 10
-11.0364760808
 20
-21.5009706367
 30
0.0
 10
-11.036416706
 20
-21.565896313
 30
0.0
 10
-11.0103018168
 20
-21.6971735832
 30
0.0
 10
-10.8989582902
 20
-21.8630035226
 30
0.0
 10
-10.7329282669
 20
-21.9741651843
 30
0.0
 10
-10.6015510342
 20
-22.000226107
 30
0.0
 10
-10.5365522332
 20
-22.0002854041
 30
0.0
  0
SPLINE
  5
4CC
100
AcDbEntity
  8
RACCORDO
100
AcDbSpline
 62
250
  6
CONTINUOUS
 70
0
 71
3
 72
18
 73
14
 74
0
 42
0.0000001
 43
0.0000001
 44
0.0000000001
 40
0.0
 40
0.0
 40
0.0
 40
0.0
 40
0.0095498884
 40
0.0278611434
 40
0.0548136053
 40
0.0901733276
 40
0.1336449546
 40
0.1848638734
 40
0.3087199795
 40
0.4575439043
 40
0.6262544403
 40
0.8091722922
 40
1.0
 40
1.0
 40
1.0
 40
1.0
 10
-10.5365522332
 20
-22.000285404
 30
0.0
 10
-10.5355627686
 20
-21.9958209
 30
0.0
 10
-10.534657705
 20
-21.982444193
 30
0.0
 10
-10.5330108756
 20
-21.9562951639
 30
0.0
 10
-10.531644321
 20
-21.9176878829
 30
0.0
 10
-10.5301533356
 20
-21.8670666396
 30
0.0
 10
-10.5287628941
 20
-21.8048051885
 30
0.0
 10
-10.5268453322
 20
-21.700176129
 30
0.0
 10
-10.5247896634
 20
-21.5450931425
 30
0.0
 10
-10.522821031
 20
-21.333748461
 30
0.0
 10
-10.521321274
 20
-21.0941177511
 30
0.0
 10
-10.5203440621
 20
-20.8343715461
 30
0.0
 10
-10.5200695497
 20
-20.6554084963
 30
0.0
 10
-10.5200254648
 20
-20.5640332015
 30
0.0
  0
SPLINE
  5
4CD
100
AcDbEntity
  8
RACCORDO
100
AcDbSpline
 62
250
  6
CONTINUOUS
 70
0
 71
3
 72
18
 73
14
 74
0
 42
0.0000001
 43
0.0000001
 44
0.0000000001
 40
0.0
 40
0.0
 40
0.0
 40
0.0
 40
0.009631099
 40
0.0279745946
 40
0.0549445688
 40
0.0903149132
 40
0.1337902297
 40
0.1850062296
 40
0.3088452893
 40
0.457644709
 40
0.6263254601
 40
0.8092083268
 40
1.0
 40
1.0
 40
1.0
 40
1.0
 10
-11.0364760808
 20
-21.5009706367
 30
0.0
 10
-11.035507394
 20
-21.4980520215
 30
0.0
 10
-11.0345684178
 20
-21.4890763595
 30
0.0
 10
-11.03294373
 20
-21.4716718224
 30
0.0
 10
-11.0315652177
 20
-21.4459107981
 30
0.0
 10
-11.0300786394
 20
-21.4121706967
 30
0.0
 10
-11.0286864252
 20
-21.3706601774
 30
0.0
 10
-11.0267699015
 20
-21.3009127278
 30
0.0
 10
-11.0247137334
 20
-21.1975250614
 30
0.0
 10
-11.0227451059
 20
-21.0566275807
 30
0.0
 10
-11.0212453624
 20
-20.8968700892
 30
0.0
 10
-11.0202679138
 20
-20.7237008085
 30
0.0
 10
-11.019993283
 20
-20.6043881371
 30
0.0
 10
-11.0199493124
 20
-20.5434691683
 30
0.0
  0
SPLINE
  5
4CE
100
AcDbEntity
  8
RACCORDO
100
AcDbSpline
 62
250
  6
CONTINUOUS
 70
0
 71
3
 72
9
 73
5
 74
0
 42
0.0000001
 43
0.0000001
 44
0.0000000001
 40
0.0
 40
0.0
 40
0.0
 40
0.0
 40
0.2499077644
 40
1.0
 40
1.0
 40
1.0
 40
1.0
 10
-11.0199493124
 20
-20.5434691683
 30
0.0
 10
-11.0187429115
 20
-18.8644163026
 30
0.0
 10
-11.0145083873
 20
-12.1457256173
 30
0.0
 10
-11.0126430324
 20
-5.4270334394
 30
0.0
 10
-11.0125748066
 20
-0.3873947324
 30
0.0
  0
SPLINE
  5
4CF
100
AcDbEntity
  8
RACCORDO
100
AcDbSpline
 62
250
  6
CONTINUOUS
 70
0
 71
3
 72
19
 73
15
 74
0
 42
0.0000001
 43
0.0000001
 44
0.0000000001
 40
0.0
 40
0.0
 40
0.0
 40
0.0
 40
0.1928319494
 40
0.3785606389
 40
0.549946385
 40
0.7007170455
 40
0.7665311812
 40
0.8251378828
 40
0.8759813001
 40
0.9185754199
 40
0.9525451023
 40
0.9775402187
 40
0.9933658768
 40
1.0
 40
1.0
 40
1.0
 40
1.0
 10
-10.5126510259
 20
-0.1925702545
 30
0.0
 10
-10.5319408763
 20
-0.1925701427
 30
0.0
 10
-10.569810021
 20
-0.1925068577
 30
0.0
 10
-10.6248231077
 20
-0.1922252467
 30
0.0
 10
-10.6756270015
 20
-0.1917673078
 30
0.0
 10
-10.7144346272
 20
-0.191238155
 30
0.0
 10
-10.7419575358
 20
-0.1907220081
 30
0.0
 10
-10.7594879425
 20
-0.1903260735
 30
0.0
 10
-10.7746844837
 20
-0.1898933183
 30
0.0
 10
-10.7874428834
 20
-0.1894731559
 30
0.0
 10
-10.7975366921
 20
-0.1889501517
 30
0.0
 10
-10.8051358279
 20
-0.1886444597
 30
0.0
 10
-10.8096150777
 20
-0.1879119327
 30
0.0
 10
-10.8121321427
 20
-0.1878905671
 30
0.0
 10
-10.8126052676
 20
-0.1874251934
 30
0.0
  0
SPLINE
  5
4D0
100
AcDbEntity
  8
RACCORDO
100
AcDbSpline
 62
250
  6
CONTINUOUS
 70
0
 71
3
 72
20
 73
16
 74
0
 42
0.0000001
 43
0.0000001
 44
0.0000000001
 40
0.0
 40
0.0
 40
0.0
 40
0.0
 40
0.0028338988
 40
0.0076361523
 40
0.0238409047
 40
0.0490186324
 40
0.0830814829
 40
0.1257180874
 40
0.176524541
 40
0.2350799358
 40
0.3008286645
 40
0.4512659139
 40
0.622291794
 40
0.8077166225
 40
1.0
 40
1.0
 40
1.0
 40
1.0
 10
-11.0199493124
 20
-20.5434691683
 30
0.0
 10
-11.019764478
 20
-20.5439051814
 30
0.0
 10
-11.0186587295
 20
-20.5447229681
 30
0.0
 10
-11.0150121819
 20
-20.5461876462
 30
0.0
 10
-11.0073752256
 20
-20.5478212969
 30
0.0
 10
-10.9949433545
 20
-20.5496632013
 30
0.0
 10
-10.9779928205
 20
-20.5514685296
 30
0.0
 10
-10.9567645264
 20
-20.5532328545
 30
0.0
 10
-10.9314166043
 20
-20.5549175346
 30
0.0
 10
-10.9021971921
 20
-20.5565036779
 30
0.0
 10
-10.8563302091
 20
-20.5585564924
 30
0.0
 10
-10.7916563961
 20
-20.560687338
 30
0.0
 10
-10.7069694124
 20
-20.5625442934
 30
0.0
 10
-10.6152768365
 20
-20.5637147666
 30
0.0
 10
-10.5521579312
 20
-20.5640101531
 30
0.0
 10
-10.5200254648
 20
-20.5640332015
 30
0.0
  0
SPLINE
  5
4D1
100
AcDbEntity
  8
RACCORDO
100
AcDbSpline
 62
250
  6
CONTINUOUS
 70
0
 71
3
 72
9
 73
5
 74
0
 42
0.0000001
 43
0.0000001
 44
0.0000000001
 40
0.0
 40
0.0
 40
0.0
 40
0.0
 40
0.2499077714
 40
1.0
 40
1.0
 40
1.0
 40
1.0
 10
-10.5200254648
 20
-20.5640332015
 30
0.0
 10
-10.5188193577
 20
-18.8837089332
 30
0.0
 10
-10.5145857205
 20
-12.1599309495
 30
0.0
 10
-10.5127200996
 20
-5.4361514753
 30
0.0
 10
-10.5126510259
 20
-0.3926968735
 30
0.0
  0
SPLINE
  5
4D2
100
AcDbEntity
  8
RACCORDO
100
AcDbSpline
 62
250
  6
CONTINUOUS
 70
0
 71
3
 72
11
 73
7
 74
0
 42
0.0000001
 43
0.0000001
 44
0.0000000001
 40
0.0
 40
0.0
 40
0.0
 40
0.0
 40
0.2498595749
 40
0.4998011133
 40
0.7498590316
 40
1.0
 40
1.0
 40
1.0
 40
1.0
 10
11.0364760808
 20
-21.5009706367
 30
0.0
 10
11.0364167061
 20
-21.5658963158
 30
0.0
 10
11.0103018157
 20
-21.6971735896
 30
0.0
 10
10.8989582847
 20
-21.8630035291
 30
0.0
 10
10.7329282618
 20
-21.9741651863
 30
0.0
 10
10.6015510322
 20
-22.0002261072
 30
0.0
 10
10.5365522332
 20
-22.000285404
 30
0.0
  0
SPLINE
  5
4D3
100
AcDbEntity
  8
RACCORDO
100
AcDbSpline
 62
250
  6
CONTINUOUS
 70
0
 71
3
 72
21
 73
17
 74
0
 42
0.0000001
 43
0.0000001
 44
0.0000000001
 40
0.0
 40
0.0
 40
0.0
 40
0.0
 40
0.1928926544
 40
0.3786772157
 40
0.5501055985
 40
0.7009135471
 40
0.7667419738
 40
0.825359383
 40
0.8762095125
 40
0.9188048318
 40
0.9527641752
 40
0.9777296885
 40
0.9867697693
 40
0.9934975568
 40
0.9979042999
 40
1.0
 40
1.0
 40
1.0
 40
1.0
 10
-10.512651021
 20
-0.3926968628
 30
0.0
 10
-10.5448004252
 20
-0.3926964784
 30
0.0
 10
-10.607914546
 20
-0.3926310033
 30
0.0
 10
-10.6996002274
 20
-0.3923404652
 30
0.0
 10
-10.784270782
 20
-0.3918684286
 30
0.0
 10
-10.84894739
 20
-0.3913222663
 30
0.0
 10
-10.8948208087
 20
-0.3907912399
 30
0.0
 10
-10.9240347016
 20
-0.3903805582
 30
0.0
 10
-10.9493747444
 20
-0.3899424722
 30
0.0
 10
-10.9706060098
 20
-0.389487167
 30
0.0
 10
-10.9875157982
 20
-0.3890083592
 30
0.0
 10
-10.9988445839
 20
-0.3885939136
 30
0.0
 10
-11.0056116498
 20
-0.3882036458
 30
0.0
 10
-11.0089864779
 20
-0.3879877266
 30
0.0
 10
-11.011137691
 20
-0.3876949276
 30
0.0
 10
-11.0122607377
 20
-0.3875773742
 30
0.0
 10
-11.0125584718
 20
-0.3873947324
 30
0.0
  0
SPLINE
  5
4D4
100
AcDbEntity
  8
RACCORDO
100
AcDbSpline
 62
250
  6
CONTINUOUS
 70
0
 71
3
 72
20
 73
16
 74
0
 42
0.0000001
 43
0.0000001
 44
0.0000000001
 40
0.0
 40
0.0
 40
0.0
 40
0.0
 40
0.0028343581
 40
0.0076371765
 40
0.0238430376
 40
0.0490217474
 40
0.0830854203
 40
0.1257226711
 40
0.1765295842
 40
0.2350852424
 40
0.3008340347
 40
0.4512708281
 40
0.6222955376
 40
0.8077186407
 40
1.0
 40
1.0
 40
1.0
 40
1.0
 10
11.0199493123
 20
-20.5434691683
 30
0.0
 10
11.0197643203
 20
-20.5439051978
 30
0.0
 10
11.0186583642
 20
-20.5447229113
 30
0.0
 10
11.0150114145
 20
-20.5461876076
 30
0.0
 10
11.0073740295
 20
-20.5478212148
 30
0.0
 10
10.9949416552
 20
-20.5496631207
 30
0.0
 10
10.97799072
 20
-20.5514684199
 30
0.0
 10
10.9567621058
 20
-20.553232721
 30
0.0
 10
10.9314139629
 20
-20.5549173716
 30
0.0
 10
10.9021944281
 20
-20.5565034856
 30
0.0
 10
10.8563274818
 20
-20.5585562556
 30
0.0
 10
10.7916539525
 20
-20.5606870525
 30
0.0
 10
10.7069675596
 20
-20.5625439613
 30
0.0
 10
10.6152758384
 20
-20.5637144008
 30
0.0
 10
10.5521575821
 20
-20.5640097755
 30
0.0
 10
10.5200254648
 20
-20.5640328209
 30
0.0
  0
SPLINE
  5
4D5
100
AcDbEntity
  8
RACCORDO
100
AcDbSpline
 62
250
  6
CONTINUOUS
 70
0
 71
3
 72
18
 73
14
 74
0
 42
0.0000001
 43
0.0000001
 44
0.0000000001
 40
0.0
 40
0.0
 40
0.0
 40
0.0
 40
0.1908277078
 40
0.3737455597
 40
0.5424560957
 40
0.6912800205
 40
0.8151361266
 40
0.8663550455
 40
0.9098266724
 40
0.9451863946
 40
0.9721388566
 40
0.9904501118
 40
1.0
 40
1.0
 40
1.0
 40
1.0
 10
10.5200254648
 20
-20.5640332015
 30
0.0
 10
10.5200695497
 20
-20.6554084963
 30
0.0
 10
10.5203440621
 20
-20.8343715461
 30
0.0
 10
10.521321274
 20
-21.0941177511
 30
0.0
 10
10.522821031
 20
-21.333748461
 30
0.0
 10
10.5247896634
 20
-21.5450931425
 30
0.0
 10
10.5268453322
 20
-21.700176129
 30
0.0
 10
10.5287628941
 20
-21.8048051885
 30
0.0
 10
10.5301533356
 20
-21.8670666395
 30
0.0
 10
10.531644321
 20
-21.9176878829
 30
0.0
 10
10.5330108756
 20
-21.956295164
 30
0.0
 10
10.534657705
 20
-21.9824441931
 30
0.0
 10
10.5355627686
 20
-21.9958209001
 30
0.0
 10
10.5365522332
 20
-22.000285404
 30
0.0
  0
SPLINE
  5
4D6
100
AcDbEntity
  8
RACCORDO
100
AcDbSpline
 62
250
  6
CONTINUOUS
 70
0
 71
3
 72
18
 73
14
 74
0
 42
0.0000001
 43
0.0000001
 44
0.0000000001
 40
0.0
 40
0.0
 40
0.0
 40
0.0
 40
0.1907916732
 40
0.3736745399
 40
0.542355291
 40
0.6911547107
 40
0.8149937705
 40
0.8662097704
 40
0.9096850866
 40
0.9450554309
 40
0.9720254055
 40
0.9903689019
 40
1.0
 40
1.0
 40
1.0
 40
1.0
 10
11.0199493124
 20
-20.5434691683
 30
0.0
 10
11.019993283
 20
-20.6043881371
 30
0.0
 10
11.0202679138
 20
-20.7237008085
 30
0.0
 10
11.0212453624
 20
-20.8968700893
 30
0.0
 10
11.0227451059
 20
-21.0566275807
 30
0.0
 10
11.0247137334
 20
-21.1975250614
 30
0.0
 10
11.0267699015
 20
-21.3009127278
 30
0.0
 10
11.0286864252
 20
-21.3706601774
 30
0.0
 10
11.0300786393
 20
-21.4121706966
 30
0.0
 10
11.0315652178
 20
-21.445910798
 30
0.0
 10
11.0329437299
 20
-21.4716718227
 30
0.0
 10
11.034568418
 20
-21.4890763597
 30
0.0
 10
11.0355073937
 20
-21.4980520219
 30
0.0
 10
11.0364760808
 20
-21.5009706367
 30
0.0
  0
SPLINE
  5
4D7
100
AcDbEntity
  8
RACCORDO
100
AcDbSpline
 62
250
  6
CONTINUOUS
 70
0
 71
3
 72
9
 73
5
 74
0
 42
0.0000001
 43
0.0000001
 44
0.0000000001
 40
0.0
 40
0.0
 40
0.0
 40
0.0
 40
0.2500664098
 40
1.0
 40
1.0
 40
1.0
 40
1.0
 10
10.5126510259
 20
-0.3926968735
 30
0.0
 10
10.5126740538
 20
-2.0740882242
 30
0.0
 10
10.5133575844
 20
-8.7978675058
 30
0.0
 10
10.5164061287
 20
-15.5216465479
 30
0.0
 10
10.5200254648
 20
-20.5640332015
 30
0.0
  0
SPLINE
  5
4D8
100
AcDbEntity
  8
RACCORDO
100
AcDbSpline
 62
250
  6
CONTINUOUS
 70
0
 71
3
 72
9
 73
5
 74
0
 42
0.0000001
 43
0.0000001
 44
0.0000000001
 40
0.0
 40
0.0
 40
0.0
 40
0.0
 40
0.2500664042
 40
1.0
 40
1.0
 40
1.0
 40
1.0
 10
11.0125748066
 20
-0.3873947324
 30
0.0
 10
11.0125975518
 20
-2.0675138836
 30
0.0
 10
11.0132802404
 20
-8.7862058684
 30
0.0
 10
11.0163290944
 20
-15.5048976137
 30
0.0
 10
11.0199493124
 20
-20.5434691683
 30
0.0
  0
SPLINE
  5
4D9
100
AcDbEntity
  8
RACCORDO
100
AcDbSpline
 62
250
  6
CONTINUOUS
 70
0
 71
3
 72
19
 73
15
 74
0
 42
0.0000001
 43
0.0000001
 44
0.0000000001
 40
0.0
 40
0.0
 40
0.0
 40
0.0
 40
0.0066341232
 40
0.0224597815
 40
0.047454898
 40
0.0814245803
 40
0.1240186999
 40
0.1748621171
 40
0.2334688188
 40
0.2992829546
 40
0.4500536151
 40
0.6214393611
 40
0.8071680506
 40
1.0
 40
1.0
 40
1.0
 40
1.0
 10
10.8126052676
 20
-0.1874251934
 30
0.0
 10
10.8121321428
 20
-0.1878905671
 30
0.0
 10
10.8096150776
 20
-0.1879119327
 30
0.0
 10
10.8051358278
 20
-0.1886444597
 30
0.0
 10
10.797536692
 20
-0.1889501517
 30
0.0
 10
10.7874428833
 20
-0.1894731559
 30
0.0
 10
10.7746844837
 20
-0.1898933183
 30
0.0
 10
10.7594879425
 20
-0.1903260735
 30
0.0
 10
10.7419575358
 20
-0.1907220081
 30
0.0
 10
10.7144346271
 20
-0.191238155
 30
0.0
 10
10.6756270015
 20
-0.1917673078
 30
0.0
 10
10.6248231077
 20
-0.1922252467
 30
0.0
 10
10.569810021
 20
-0.1925068577
 30
0.0
 10
10.5319408763
 20
-0.1925701427
 30
0.0
 10
10.5126510259
 20
-0.1925702545
 30
0.0
  0
SPLINE
  5
4DA
100
AcDbEntity
  8
RACCORDO
100
AcDbSpline
 62
250
  6
CONTINUOUS
 70
0
 71
3
 72
21
 73
17
 74
0
 42
0.0000001
 43
0.0000001
 44
0.0000000001
 40
0.0
 40
0.0
 40
0.0
 40
0.0
 40
0.0020957001
 40
0.0065024434
 40
0.013230231
 40
0.0222703121
 40
0.0472358256
 40
0.0811951689
 40
0.123790488
 40
0.1746406173
 40
0.2332580266
 40
0.2990864532
 40
0.4498944019
 40
0.6213227845
 40
0.8071073457
 40
1.0
 40
1.0
 40
1.0
 40
1.0
 10
11.0125584721
 20
-0.3873947324
 30
0.0
 10
11.012260738
 20
-0.3875773742
 30
0.0
 10
11.0111376912
 20
-0.3876949276
 30
0.0
 10
11.0089864781
 20
-0.3879877266
 30
0.0
 10
11.0056116499
 20
-0.3882036458
 30
0.0
 10
10.9988445839
 20
-0.3885939136
 30
0.0
 10
10.9875157981
 20
-0.3890083591
 30
0.0
 10
10.9706060098
 20
-0.389487167
 30
0.0
 10
10.9493747444
 20
-0.3899424722
 30
0.0
 10
10.9240347016
 20
-0.3903805582
 30
0.0
 10
10.8948208087
 20
-0.3907912399
 30
0.0
 10
10.84894739
 20
-0.3913222663
 30
0.0
 10
10.784270782
 20
-0.3918684286
 30
0.0
 10
10.6996002275
 20
-0.3923404652
 30
0.0
 10
10.607914546
 20
-0.3926310033
 30
0.0
 10
10.5448004252
 20
-0.3926964784
 30
0.0
 10
10.512651021
 20
-0.3926968628
 30
0.0
  0
SPLINE
  5
4DB
100
AcDbEntity
  8
0
100
AcDbSpline
 62
250
  6
CONTINUOUS
 70
0
 71
3
 72
18
 73
14
 74
0
 42
0.0000001
 43
0.0000001
 44
0.0000000001
 40
0.0
 40
0.0
 40
0.0
 40
0.0
 40
0.0095498884
 40
0.0278611434
 40
0.0548136053
 40
0.0901733276
 40
0.1336449546
 40
0.1848638734
 40
0.3087199795
 40
0.4575439043
 40
0.6262544403
 40
0.8091722922
 40
1.0
 40
1.0
 40
1.0
 40
1.0
 10
-10.5365522332
 20
-22.000285404
 30
0.0
 10
-10.5355627686
 20
-21.9958209
 30
0.0
 10
-10.534657705
 20
-21.982444193
 30
0.0
 10
-10.5330108756
 20
-21.9562951639
 30
0.0
 10
-10.531644321
 20
-21.9176878829
 30
0.0
 10
-10.5301533356
 20
-21.8670666396
 30
0.0
 10
-10.5287628941
 20
-21.8048051885
 30
0.0
 10
-10.5268453322
 20
-21.700176129
 30
0.0
 10
-10.5247896634
 20
-21.5450931425
 30
0.0
 10
-10.522821031
 20
-21.333748461
 30
0.0
 10
-10.521321274
 20
-21.0941177511
 30
0.0
 10
-10.5203440621
 20
-20.8343715461
 30
0.0
 10
-10.5200695497
 20
-20.6554084963
 30
0.0
 10
-10.5200254648
 20
-20.5640332015
 30
0.0
  0
SPLINE
  5
4DC
100
AcDbEntity
  8
0
100
AcDbSpline
 62
250
  6
CONTINUOUS
 70
0
 71
3
 72
19
 73
15
 74
0
 42
0.0000001
 43
0.0000001
 44
0.0000000001
 40
0.0
 40
0.0
 40
0.0
 40
0.0
 40
0.1928319494
 40
0.3785606389
 40
0.549946385
 40
0.7007170455
 40
0.7665311812
 40
0.8251378828
 40
0.8759813001
 40
0.9185754199
 40
0.9525451023
 40
0.9775402187
 40
0.9933658768
 40
1.0
 40
1.0
 40
1.0
 40
1.0
 10
-10.5126510259
 20
-0.1925702545
 30
0.0
 10
-10.5319408763
 20
-0.1925701427
 30
0.0
 10
-10.569810021
 20
-0.1925068577
 30
0.0
 10
-10.6248231077
 20
-0.1922252467
 30
0.0
 10
-10.6756270015
 20
-0.1917673078
 30
0.0
 10
-10.7144346272
 20
-0.191238155
 30
0.0
 10
-10.7419575358
 20
-0.1907220081
 30
0.0
 10
-10.7594879425
 20
-0.1903260735
 30
0.0
 10
-10.7746844837
 20
-0.1898933183
 30
0.0
 10
-10.7874428834
 20
-0.1894731559
 30
0.0
 10
-10.7975366921
 20
-0.1889501517
 30
0.0
 10
-10.8051358279
 20
-0.1886444597
 30
0.0
 10
-10.8096150777
 20
-0.1879119327
 30
0.0
 10
-10.8121321427
 20
-0.1878905671
 30
0.0
 10
-10.8126052676
 20
-0.1874251934
 30
0.0
  0
SPLINE
  5
4DD
100
AcDbEntity
  8
0
100
AcDbSpline
 62
250
  6
CONTINUOUS
 70
0
 71
3
 72
21
 73
17
 74
0
 42
0.0000001
 43
0.0000001
 44
0.0000000001
 40
0.0
 40
0.0
 40
0.0
 40
0.0
 40
0.1928926544
 40
0.3786772157
 40
0.5501055985
 40
0.7009135471
 40
0.7667419738
 40
0.825359383
 40
0.8762095125
 40
0.9188048318
 40
0.9527641752
 40
0.9777296885
 40
0.9867697693
 40
0.9934975568
 40
0.9979042999
 40
1.0
 40
1.0
 40
1.0
 40
1.0
 10
-10.512651021
 20
-0.3926968628
 30
0.0
 10
-10.5448004252
 20
-0.3926964784
 30
0.0
 10
-10.607914546
 20
-0.3926310033
 30
0.0
 10
-10.6996002274
 20
-0.3923404652
 30
0.0
 10
-10.784270782
 20
-0.3918684286
 30
0.0
 10
-10.84894739
 20
-0.3913222663
 30
0.0
 10
-10.8948208087
 20
-0.3907912399
 30
0.0
 10
-10.9240347016
 20
-0.3903805582
 30
0.0
 10
-10.9493747444
 20
-0.3899424722
 30
0.0
 10
-10.9706060098
 20
-0.389487167
 30
0.0
 10
-10.9875157982
 20
-0.3890083592
 30
0.0
 10
-10.9988445839
 20
-0.3885939136
 30
0.0
 10
-11.0056116498
 20
-0.3882036458
 30
0.0
 10
-11.0089864779
 20
-0.3879877266
 30
0.0
 10
-11.011137691
 20
-0.3876949276
 30
0.0
 10
-11.0122607377
 20
-0.3875773742
 30
0.0
 10
-11.0125584718
 20
-0.3873947324
 30
0.0
  0
SPLINE
  5
4DE
100
AcDbEntity
  8
0
100
AcDbSpline
 62
250
  6
CONTINUOUS
 70
0
 71
3
 72
18
 73
14
 74
0
 42
0.0000001
 43
0.0000001
 44
0.0000000001
 40
0.0
 40
0.0
 40
0.0
 40
0.0
 40
0.009631099
 40
0.0279745946
 40
0.0549445688
 40
0.0903149132
 40
0.1337902297
 40
0.1850062296
 40
0.3088452893
 40
0.457644709
 40
0.6263254601
 40
0.8092083268
 40
1.0
 40
1.0
 40
1.0
 40
1.0
 10
-11.0364760808
 20
-21.5009706367
 30
0.0
 10
-11.035507394
 20
-21.4980520215
 30
0.0
 10
-11.0345684178
 20
-21.4890763595
 30
0.0
 10
-11.03294373
 20
-21.4716718224
 30
0.0
 10
-11.0315652177
 20
-21.4459107981
 30
0.0
 10
-11.0300786394
 20
-21.4121706967
 30
0.0
 10
-11.0286864252
 20
-21.3706601774
 30
0.0
 10
-11.0267699015
 20
-21.3009127278
 30
0.0
 10
-11.0247137334
 20
-21.1975250614
 30
0.0
 10
-11.0227451059
 20
-21.0566275807
 30
0.0
 10
-11.0212453624
 20
-20.8968700892
 30
0.0
 10
-11.0202679138
 20
-20.7237008085
 30
0.0
 10
-11.019993283
 20
-20.6043881371
 30
0.0
 10
-11.0199493124
 20
-20.5434691683
 30
0.0
  0
SPLINE
  5
4DF
100
AcDbEntity
  8
0
100
AcDbSpline
 62
250
  6
CONTINUOUS
 70
0
 71
3
 72
9
 73
5
 74
0
 42
0.0000001
 43
0.0000001
 44
0.0000000001
 40
0.0
 40
0.0
 40
0.0
 40
0.0
 40
0.2499077644
 40
1.0
 40
1.0
 40
1.0
 40
1.0
 10
-11.0199493124
 20
-20.5434691683
 30
0.0
 10
-11.0187429115
 20
-18.8644163026
 30
0.0
 10
-11.0145083873
 20
-12.1457256173
 30
0.0
 10
-11.0126430324
 20
-5.4270334394
 30
0.0
 10
-11.0125748066
 20
-0.3873947324
 30
0.0
  0
SPLINE
  5
4E0
100
AcDbEntity
  8
0
100
AcDbSpline
 62
250
  6
CONTINUOUS
 70
0
 71
3
 72
20
 73
16
 74
0
 42
0.0000001
 43
0.0000001
 44
0.0000000001
 40
0.0
 40
0.0
 40
0.0
 40
0.0
 40
0.0028338988
 40
0.0076361523
 40
0.0238409047
 40
0.0490186324
 40
0.0830814829
 40
0.1257180874
 40
0.176524541
 40
0.2350799358
 40
0.3008286645
 40
0.4512659139
 40
0.622291794
 40
0.8077166225
 40
1.0
 40
1.0
 40
1.0
 40
1.0
 10
-11.0199493124
 20
-20.5434691683
 30
0.0
 10
-11.019764478
 20
-20.5439051814
 30
0.0
 10
-11.0186587295
 20
-20.5447229681
 30
0.0
 10
-11.0150121819
 20
-20.5461876462
 30
0.0
 10
-11.0073752256
 20
-20.5478212969
 30
0.0
 10
-10.9949433545
 20
-20.5496632013
 30
0.0
 10
-10.9779928205
 20
-20.5514685296
 30
0.0
 10
-10.9567645264
 20
-20.5532328545
 30
0.0
 10
-10.9314166043
 20
-20.5549175346
 30
0.0
 10
-10.9021971921
 20
-20.5565036779
 30
0.0
 10
-10.8563302091
 20
-20.5585564924
 30
0.0
 10
-10.7916563961
 20
-20.560687338
 30
0.0
 10
-10.7069694124
 20
-20.5625442934
 30
0.0
 10
-10.6152768365
 20
-20.5637147666
 30
0.0
 10
-10.5521579312
 20
-20.5640101531
 30
0.0
 10
-10.5200254648
 20
-20.5640332015
 30
0.0
  0
SPLINE
  5
4E1
100
AcDbEntity
  8
0
100
AcDbSpline
 62
250
  6
CONTINUOUS
 70
0
 71
3
 72
19
 73
15
 74
0
 42
0.0000001
 43
0.0000001
 44
0.0000000001
 40
0.0
 40
0.0
 40
0.0
 40
0.0
 40
0.0066341232
 40
0.0224597815
 40
0.047454898
 40
0.0814245803
 40
0.1240186999
 40
0.1748621171
 40
0.2334688188
 40
0.2992829546
 40
0.4500536151
 40
0.6214393611
 40
0.8071680506
 40
1.0
 40
1.0
 40
1.0
 40
1.0
 10
10.8126052676
 20
-0.1874251934
 30
0.0
 10
10.8121321428
 20
-0.1878905671
 30
0.0
 10
10.8096150776
 20
-0.1879119327
 30
0.0
 10
10.8051358278
 20
-0.1886444597
 30
0.0
 10
10.797536692
 20
-0.1889501517
 30
0.0
 10
10.7874428833
 20
-0.1894731559
 30
0.0
 10
10.7746844837
 20
-0.1898933183
 30
0.0
 10
10.7594879425
 20
-0.1903260735
 30
0.0
 10
10.7419575358
 20
-0.1907220081
 30
0.0
 10
10.7144346271
 20
-0.191238155
 30
0.0
 10
10.6756270015
 20
-0.1917673078
 30
0.0
 10
10.6248231077
 20
-0.1922252467
 30
0.0
 10
10.569810021
 20
-0.1925068577
 30
0.0
 10
10.5319408763
 20
-0.1925701427
 30
0.0
 10
10.5126510259
 20
-0.1925702545
 30
0.0
  0
SPLINE
  5
4E2
100
AcDbEntity
  8
0
100
AcDbSpline
 62
250
  6
CONTINUOUS
 70
0
 71
3
 72
20
 73
16
 74
0
 42
0.0000001
 43
0.0000001
 44
0.0000000001
 40
0.0
 40
0.0
 40
0.0
 40
0.0
 40
0.0028343581
 40
0.0076371765
 40
0.0238430376
 40
0.0490217474
 40
0.0830854203
 40
0.1257226711
 40
0.1765295842
 40
0.2350852424
 40
0.3008340347
 40
0.4512708281
 40
0.6222955376
 40
0.8077186407
 40
1.0
 40
1.0
 40
1.0
 40
1.0
 10
11.0199493123
 20
-20.5434691683
 30
0.0
 10
11.0197643203
 20
-20.5439051978
 30
0.0
 10
11.0186583642
 20
-20.5447229113
 30
0.0
 10
11.0150114145
 20
-20.5461876076
 30
0.0
 10
11.0073740295
 20
-20.5478212148
 30
0.0
 10
10.9949416552
 20
-20.5496631207
 30
0.0
 10
10.97799072
 20
-20.5514684199
 30
0.0
 10
10.9567621058
 20
-20.553232721
 30
0.0
 10
10.9314139629
 20
-20.5549173716
 30
0.0
 10
10.9021944281
 20
-20.5565034856
 30
0.0
 10
10.8563274818
 20
-20.5585562556
 30
0.0
 10
10.7916539525
 20
-20.5606870525
 30
0.0
 10
10.7069675596
 20
-20.5625439613
 30
0.0
 10
10.6152758384
 20
-20.5637144008
 30
0.0
 10
10.5521575821
 20
-20.5640097755
 30
0.0
 10
10.5200254648
 20
-20.5640328209
 30
0.0
  0
SPLINE
  5
4E3
100
AcDbEntity
  8
0
100
AcDbSpline
 62
250
  6
CONTINUOUS
 70
0
 71
3
 72
18
 73
14
 74
0
 42
0.0000001
 43
0.0000001
 44
0.0000000001
 40
0.0
 40
0.0
 40
0.0
 40
0.0
 40
0.1908277078
 40
0.3737455597
 40
0.5424560957
 40
0.6912800205
 40
0.8151361266
 40
0.8663550455
 40
0.9098266724
 40
0.9451863946
 40
0.9721388566
 40
0.9904501118
 40
1.0
 40
1.0
 40
1.0
 40
1.0
 10
10.5200254648
 20
-20.5640332015
 30
0.0
 10
10.5200695497
 20
-20.6554084963
 30
0.0
 10
10.5203440621
 20
-20.8343715461
 30
0.0
 10
10.521321274
 20
-21.0941177511
 30
0.0
 10
10.522821031
 20
-21.333748461
 30
0.0
 10
10.5247896634
 20
-21.5450931425
 30
0.0
 10
10.5268453322
 20
-21.700176129
 30
0.0
 10
10.5287628941
 20
-21.8048051885
 30
0.0
 10
10.5301533356
 20
-21.8670666395
 30
0.0
 10
10.531644321
 20
-21.9176878829
 30
0.0
 10
10.5330108756
 20
-21.956295164
 30
0.0
 10
10.534657705
 20
-21.9824441931
 30
0.0
 10
10.5355627686
 20
-21.9958209001
 30
0.0
 10
10.5365522332
 20
-22.000285404
 30
0.0
  0
SPLINE
  5
4E4
100
AcDbEntity
  8
0
100
AcDbSpline
 62
250
  6
CONTINUOUS
 70
0
 71
3
 72
18
 73
14
 74
0
 42
0.0000001
 43
0.0000001
 44
0.0000000001
 40
0.0
 40
0.0
 40
0.0
 40
0.0
 40
0.1907916732
 40
0.3736745399
 40
0.542355291
 40
0.6911547107
 40
0.8149937705
 40
0.8662097704
 40
0.9096850866
 40
0.9450554309
 40
0.9720254055
 40
0.9903689019
 40
1.0
 40
1.0
 40
1.0
 40
1.0
 10
11.0199493124
 20
-20.5434691683
 30
0.0
 10
11.019993283
 20
-20.6043881371
 30
0.0
 10
11.0202679138
 20
-20.7237008085
 30
0.0
 10
11.0212453624
 20
-20.8968700893
 30
0.0
 10
11.0227451059
 20
-21.0566275807
 30
0.0
 10
11.0247137334
 20
-21.1975250614
 30
0.0
 10
11.0267699015
 20
-21.3009127278
 30
0.0
 10
11.0286864252
 20
-21.3706601774
 30
0.0
 10
11.0300786393
 20
-21.4121706966
 30
0.0
 10
11.0315652178
 20
-21.445910798
 30
0.0
 10
11.0329437299
 20
-21.4716718227
 30
0.0
 10
11.034568418
 20
-21.4890763597
 30
0.0
 10
11.0355073937
 20
-21.4980520219
 30
0.0
 10
11.0364760808
 20
-21.5009706367
 30
0.0
  0
SPLINE
  5
4E5
100
AcDbEntity
  8
0
100
AcDbSpline
 62
250
  6
CONTINUOUS
 70
0
 71
3
 72
9
 73
5
 74
0
 42
0.0000001
 43
0.0000001
 44
0.0000000001
 40
0.0
 40
0.0
 40
0.0
 40
0.0
 40
0.2500664098
 40
1.0
 40
1.0
 40
1.0
 40
1.0
 10
10.5126510259
 20
-0.3926968735
 30
0.0
 10
10.5126740538
 20
-2.0740882242
 30
0.0
 10
10.5133575844
 20
-8.7978675058
 30
0.0
 10
10.5164061287
 20
-15.5216465479
 30
0.0
 10
10.5200254648
 20
-20.5640332015
 30
0.0
  0
SPLINE
  5
4E6
100
AcDbEntity
  8
0
100
AcDbSpline
 62
250
  6
CONTINUOUS
 70
0
 71
3
 72
9
 73
5
 74
0
 42
0.0000001
 43
0.0000001
 44
0.0000000001
 40
0.0
 40
0.0
 40
0.0
 40
0.0
 40
0.2500664042
 40
1.0
 40
1.0
 40
1.0
 40
1.0
 10
11.0125748066
 20
-0.3873947324
 30
0.0
 10
11.0125975518
 20
-2.0675138836
 30
0.0
 10
11.0132802404
 20
-8.7862058684
 30
0.0
 10
11.0163290944
 20
-15.5048976137
 30
0.0
 10
11.0199493124
 20
-20.5434691683
 30
0.0
  0
SPLINE
  5
4E7
100
AcDbEntity
  8
0
100
AcDbSpline
 62
250
  6
CONTINUOUS
 70
0
 71
3
 72
21
 73
17
 74
0
 42
0.0000001
 43
0.0000001
 44
0.0000000001
 40
0.0
 40
0.0
 40
0.0
 40
0.0
 40
0.0020957001
 40
0.0065024434
 40
0.013230231
 40
0.0222703121
 40
0.0472358256
 40
0.0811951689
 40
0.123790488
 40
0.1746406173
 40
0.2332580266
 40
0.2990864532
 40
0.4498944019
 40
0.6213227845
 40
0.8071073457
 40
1.0
 40
1.0
 40
1.0
 40
1.0
 10
11.0125584721
 20
-0.3873947324
 30
0.0
 10
11.012260738
 20
-0.3875773742
 30
0.0
 10
11.0111376912
 20
-0.3876949276
 30
0.0
 10
11.0089864781
 20
-0.3879877266
 30
0.0
 10
11.0056116499
 20
-0.3882036458
 30
0.0
 10
10.9988445839
 20
-0.3885939136
 30
0.0
 10
10.9875157981
 20
-0.3890083591
 30
0.0
 10
10.9706060098
 20
-0.389487167
 30
0.0
 10
10.9493747444
 20
-0.3899424722
 30
0.0
 10
10.9240347016
 20
-0.3903805582
 30
0.0
 10
10.8948208087
 20
-0.3907912399
 30
0.0
 10
10.84894739
 20
-0.3913222663
 30
0.0
 10
10.784270782
 20
-0.3918684286
 30
0.0
 10
10.6996002275
 20
-0.3923404652
 30
0.0
 10
10.607914546
 20
-0.3926310033
 30
0.0
 10
10.5448004252
 20
-0.3926964784
 30
0.0
 10
10.512651021
 20
-0.3926968628
 30
0.0
  0
SPLINE
  5
4E8
100
AcDbEntity
  8
0
100
AcDbSpline
 62
250
  6
CONTINUOUS
 70
0
 71
3
 72
9
 73
5
 74
0
 42
0.0000001
 43
0.0000001
 44
0.0000000001
 40
0.0
 40
0.0
 40
0.0
 40
0.0
 40
0.2499077714
 40
1.0
 40
1.0
 40
1.0
 40
1.0
 10
-10.5200254648
 20
-20.5640332015
 30
0.0
 10
-10.5188193577
 20
-18.8837089332
 30
0.0
 10
-10.5145857205
 20
-12.1599309495
 30
0.0
 10
-10.5127200996
 20
-5.4361514753
 30
0.0
 10
-10.5126510259
 20
-0.3926968735
 30
0.0
  0
SPLINE
  5
4E9
100
AcDbEntity
  8
0
100
AcDbSpline
 62
250
  6
CONTINUOUS
 70
0
 71
3
 72
11
 73
7
 74
0
 42
0.0000001
 43
0.0000001
 44
0.0000000001
 40
0.0
 40
0.0
 40
0.0
 40
0.0
 40
0.2498595749
 40
0.4998011133
 40
0.7498590316
 40
1.0
 40
1.0
 40
1.0
 40
1.0
 10
11.0364760808
 20
-21.5009706367
 30
0.0
 10
11.0364167061
 20
-21.5658963158
 30
0.0
 10
11.0103018157
 20
-21.6971735896
 30
0.0
 10
10.8989582847
 20
-21.8630035291
 30
0.0
 10
10.7329282618
 20
-21.9741651863
 30
0.0
 10
10.6015510322
 20
-22.0002261072
 30
0.0
 10
10.5365522332
 20
-22.000285404
 30
0.0
  0
SPLINE
  5
4EA
100
AcDbEntity
  8
0
100
AcDbSpline
 62
250
  6
CONTINUOUS
 70
0
 71
3
 72
11
 73
7
 74
0
 42
0.0000001
 43
0.0000001
 44
0.0000000001
 40
0.0
 40
0.0
 40
0.0
 40
0.0
 40
0.2498595644
 40
0.499801101
 40
0.7498590234
 40
1.0
 40
1.0
 40
1.0
 40
1.0
 10
-11.0364760808
 20
-21.5009706367
 30
0.0
 10
-11.036416706
 20
-21.565896313
 30
0.0
 10
-11.0103018168
 20
-21.6971735832
 30
0.0
 10
-10.8989582902
 20
-21.8630035226
 30
0.0
 10
-10.7329282669
 20
-21.9741651843
 30
0.0
 10
-10.6015510342
 20
-22.000226107
 30
0.0
 10
-10.5365522332
 20
-22.0002854041
 30
0.0
  0
SPLINE
  5
4EB
100
AcDbEntity
  8
0
100
AcDbSpline
 62
250
  6
CONTINUOUS
 70
0
 71
3
 72
11
 73
7
 74
0
 42
0.0000001
 43
0.0000001
 44
0.0000000001
 40
0.0
 40
0.0
 40
0.0
 40
0.0
 40
0.2498595644
 40
0.499801101
 40
0.7498590234
 40
1.0
 40
1.0
 40
1.0
 40
1.0
 10
11.0364760808
 20
21.5009706367
 30
0.0
 10
11.036416706
 20
21.565896313
 30
0.0
 10
11.0103018168
 20
21.6971735832
 30
0.0
 10
10.8989582902
 20
21.8630035226
 30
0.0
 10
10.7329282669
 20
21.9741651843
 30
0.0
 10
10.6015510342
 20
22.000226107
 30
0.0
 10
10.5365522332
 20
22.0002854041
 30
0.0
  0
SPLINE
  5
4EC
100
AcDbEntity
  8
0
100
AcDbSpline
 62
250
  6
CONTINUOUS
 70
0
 71
3
 72
18
 73
14
 74
0
 42
0.0000001
 43
0.0000001
 44
0.0000000001
 40
0.0
 40
0.0
 40
0.0
 40
0.0
 40
0.0095498884
 40
0.0278611434
 40
0.0548136053
 40
0.0901733276
 40
0.1336449546
 40
0.1848638734
 40
0.3087199795
 40
0.4575439043
 40
0.6262544403
 40
0.8091722922
 40
1.0
 40
1.0
 40
1.0
 40
1.0
 10
10.5365522332
 20
22.000285404
 30
0.0
 10
10.5355627686
 20
21.9958209
 30
0.0
 10
10.534657705
 20
21.982444193
 30
0.0
 10
10.5330108756
 20
21.9562951639
 30
0.0
 10
10.531644321
 20
21.9176878829
 30
0.0
 10
10.5301533356
 20
21.8670666396
 30
0.0
 10
10.5287628941
 20
21.8048051885
 30
0.0
 10
10.5268453322
 20
21.700176129
 30
0.0
 10
10.5247896634
 20
21.5450931425
 30
0.0
 10
10.522821031
 20
21.333748461
 30
0.0
 10
10.521321274
 20
21.0941177511
 30
0.0
 10
10.5203440621
 20
20.8343715461
 30
0.0
 10
10.5200695497
 20
20.6554084963
 30
0.0
 10
10.5200254648
 20
20.5640332015
 30
0.0
  0
SPLINE
  5
4ED
100
AcDbEntity
  8
0
100
AcDbSpline
 62
250
  6
CONTINUOUS
 70
0
 71
3
 72
18
 73
14
 74
0
 42
0.0000001
 43
0.0000001
 44
0.0000000001
 40
0.0
 40
0.0
 40
0.0
 40
0.0
 40
0.009631099
 40
0.0279745946
 40
0.0549445688
 40
0.0903149132
 40
0.1337902297
 40
0.1850062296
 40
0.3088452893
 40
0.457644709
 40
0.6263254601
 40
0.8092083268
 40
1.0
 40
1.0
 40
1.0
 40
1.0
 10
11.0364760808
 20
21.5009706367
 30
0.0
 10
11.035507394
 20
21.4980520215
 30
0.0
 10
11.0345684178
 20
21.4890763595
 30
0.0
 10
11.03294373
 20
21.4716718224
 30
0.0
 10
11.0315652177
 20
21.4459107981
 30
0.0
 10
11.0300786394
 20
21.4121706967
 30
0.0
 10
11.0286864252
 20
21.3706601774
 30
0.0
 10
11.0267699015
 20
21.3009127278
 30
0.0
 10
11.0247137334
 20
21.1975250614
 30
0.0
 10
11.0227451059
 20
21.0566275807
 30
0.0
 10
11.0212453624
 20
20.8968700892
 30
0.0
 10
11.0202679138
 20
20.7237008085
 30
0.0
 10
11.019993283
 20
20.6043881371
 30
0.0
 10
11.0199493124
 20
20.5434691683
 30
0.0
  0
SPLINE
  5
4EE
100
AcDbEntity
  8
0
100
AcDbSpline
 62
250
  6
CONTINUOUS
 70
0
 71
3
 72
9
 73
5
 74
0
 42
0.0000001
 43
0.0000001
 44
0.0000000001
 40
0.0
 40
0.0
 40
0.0
 40
0.0
 40
0.2499077644
 40
1.0
 40
1.0
 40
1.0
 40
1.0
 10
11.0199493124
 20
20.5434691683
 30
0.0
 10
11.0187429115
 20
18.8644163026
 30
0.0
 10
11.0145083873
 20
12.1457256173
 30
0.0
 10
11.0126430324
 20
5.4270334394
 30
0.0
 10
11.0125748066
 20
0.3873947324
 30
0.0
  0
SPLINE
  5
4EF
100
AcDbEntity
  8
0
100
AcDbSpline
 62
250
  6
CONTINUOUS
 70
0
 71
3
 72
19
 73
15
 74
0
 42
0.0000001
 43
0.0000001
 44
0.0000000001
 40
0.0
 40
0.0
 40
0.0
 40
0.0
 40
0.1928319494
 40
0.3785606389
 40
0.549946385
 40
0.7007170455
 40
0.7665311812
 40
0.8251378828
 40
0.8759813001
 40
0.9185754199
 40
0.9525451023
 40
0.9775402187
 40
0.9933658768
 40
1.0
 40
1.0
 40
1.0
 40
1.0
 10
10.5126510259
 20
0.1925702545
 30
0.0
 10
10.5319408763
 20
0.1925701427
 30
0.0
 10
10.569810021
 20
0.1925068577
 30
0.0
 10
10.6248231077
 20
0.1922252467
 30
0.0
 10
10.6756270015
 20
0.1917673078
 30
0.0
 10
10.7144346272
 20
0.191238155
 30
0.0
 10
10.7419575358
 20
0.1907220081
 30
0.0
 10
10.7594879425
 20
0.1903260735
 30
0.0
 10
10.7746844837
 20
0.1898933183
 30
0.0
 10
10.7874428834
 20
0.1894731559
 30
0.0
 10
10.7975366921
 20
0.1889501517
 30
0.0
 10
10.8051358279
 20
0.1886444597
 30
0.0
 10
10.8096150777
 20
0.1879119327
 30
0.0
 10
10.8121321427
 20
0.1878905671
 30
0.0
 10
10.8126052676
 20
0.1874251934
 30
0.0
  0
SPLINE
  5
4F0
100
AcDbEntity
  8
0
100
AcDbSpline
 62
250
  6
CONTINUOUS
 70
0
 71
3
 72
20
 73
16
 74
0
 42
0.0000001
 43
0.0000001
 44
0.0000000001
 40
0.0
 40
0.0
 40
0.0
 40
0.0
 40
0.0028338988
 40
0.0076361523
 40
0.0238409047
 40
0.0490186324
 40
0.0830814829
 40
0.1257180874
 40
0.176524541
 40
0.2350799358
 40
0.3008286645
 40
0.4512659139
 40
0.622291794
 40
0.8077166225
 40
1.0
 40
1.0
 40
1.0
 40
1.0
 10
11.0199493124
 20
20.5434691683
 30
0.0
 10
11.019764478
 20
20.5439051814
 30
0.0
 10
11.0186587295
 20
20.5447229681
 30
0.0
 10
11.0150121819
 20
20.5461876462
 30
0.0
 10
11.0073752256
 20
20.5478212969
 30
0.0
 10
10.9949433545
 20
20.5496632013
 30
0.0
 10
10.9779928205
 20
20.5514685296
 30
0.0
 10
10.9567645264
 20
20.5532328545
 30
0.0
 10
10.9314166043
 20
20.5549175346
 30
0.0
 10
10.9021971921
 20
20.5565036779
 30
0.0
 10
10.8563302091
 20
20.5585564924
 30
0.0
 10
10.7916563961
 20
20.560687338
 30
0.0
 10
10.7069694124
 20
20.5625442934
 30
0.0
 10
10.6152768365
 20
20.5637147666
 30
0.0
 10
10.5521579312
 20
20.5640101531
 30
0.0
 10
10.5200254648
 20
20.5640332015
 30
0.0
  0
SPLINE
  5
4F1
100
AcDbEntity
  8
0
100
AcDbSpline
 62
250
  6
CONTINUOUS
 70
0
 71
3
 72
21
 73
17
 74
0
 42
0.0000001
 43
0.0000001
 44
0.0000000001
 40
0.0
 40
0.0
 40
0.0
 40
0.0
 40
0.1928926544
 40
0.3786772157
 40
0.5501055985
 40
0.7009135471
 40
0.7667419738
 40
0.825359383
 40
0.8762095125
 40
0.9188048318
 40
0.9527641752
 40
0.9777296885
 40
0.9867697693
 40
0.9934975568
 40
0.9979042999
 40
1.0
 40
1.0
 40
1.0
 40
1.0
 10
10.512651021
 20
0.3926968628
 30
0.0
 10
10.5448004252
 20
0.3926964784
 30
0.0
 10
10.607914546
 20
0.3926310033
 30
0.0
 10
10.6996002274
 20
0.3923404652
 30
0.0
 10
10.784270782
 20
0.3918684286
 30
0.0
 10
10.84894739
 20
0.3913222663
 30
0.0
 10
10.8948208087
 20
0.3907912399
 30
0.0
 10
10.9240347016
 20
0.3903805582
 30
0.0
 10
10.9493747444
 20
0.3899424722
 30
0.0
 10
10.9706060098
 20
0.389487167
 30
0.0
 10
10.9875157982
 20
0.3890083592
 30
0.0
 10
10.9988445839
 20
0.3885939136
 30
0.0
 10
11.0056116498
 20
0.3882036458
 30
0.0
 10
11.0089864779
 20
0.3879877266
 30
0.0
 10
11.011137691
 20
0.3876949276
 30
0.0
 10
11.0122607377
 20
0.3875773742
 30
0.0
 10
11.0125584718
 20
0.3873947324
 30
0.0
  0
SPLINE
  5
4F2
100
AcDbEntity
  8
0
100
AcDbSpline
 62
250
  6
CONTINUOUS
 70
0
 71
3
 72
20
 73
16
 74
0
 42
0.0000001
 43
0.0000001
 44
0.0000000001
 40
0.0
 40
0.0
 40
0.0
 40
0.0
 40
0.0028343581
 40
0.0076371765
 40
0.0238430376
 40
0.0490217474
 40
0.0830854203
 40
0.1257226711
 40
0.1765295842
 40
0.2350852424
 40
0.3008340347
 40
0.4512708281
 40
0.6222955376
 40
0.8077186407
 40
1.0
 40
1.0
 40
1.0
 40
1.0
 10
-11.0199493123
 20
20.5434691683
 30
0.0
 10
-11.0197643203
 20
20.5439051978
 30
0.0
 10
-11.0186583642
 20
20.5447229113
 30
0.0
 10
-11.0150114145
 20
20.5461876076
 30
0.0
 10
-11.0073740295
 20
20.5478212148
 30
0.0
 10
-10.9949416552
 20
20.5496631207
 30
0.0
 10
-10.97799072
 20
20.5514684199
 30
0.0
 10
-10.9567621058
 20
20.553232721
 30
0.0
 10
-10.9314139629
 20
20.5549173716
 30
0.0
 10
-10.9021944281
 20
20.5565034856
 30
0.0
 10
-10.8563274818
 20
20.5585562556
 30
0.0
 10
-10.7916539525
 20
20.5606870525
 30
0.0
 10
-10.7069675596
 20
20.5625439613
 30
0.0
 10
-10.6152758384
 20
20.5637144008
 30
0.0
 10
-10.5521575821
 20
20.5640097755
 30
0.0
 10
-10.5200254648
 20
20.5640328209
 30
0.0
  0
SPLINE
  5
4F3
100
AcDbEntity
  8
0
100
AcDbSpline
 62
250
  6
CONTINUOUS
 70
0
 71
3
 72
18
 73
14
 74
0
 42
0.0000001
 43
0.0000001
 44
0.0000000001
 40
0.0
 40
0.0
 40
0.0
 40
0.0
 40
0.1908277078
 40
0.3737455597
 40
0.5424560957
 40
0.6912800205
 40
0.8151361266
 40
0.8663550455
 40
0.9098266724
 40
0.9451863946
 40
0.9721388566
 40
0.9904501118
 40
1.0
 40
1.0
 40
1.0
 40
1.0
 10
-10.5200254648
 20
20.5640332015
 30
0.0
 10
-10.5200695497
 20
20.6554084963
 30
0.0
 10
-10.5203440621
 20
20.8343715461
 30
0.0
 10
-10.521321274
 20
21.0941177511
 30
0.0
 10
-10.522821031
 20
21.333748461
 30
0.0
 10
-10.5247896634
 20
21.5450931425
 30
0.0
 10
-10.5268453322
 20
21.700176129
 30
0.0
 10
-10.5287628941
 20
21.8048051885
 30
0.0
 10
-10.5301533356
 20
21.8670666395
 30
0.0
 10
-10.531644321
 20
21.9176878829
 30
0.0
 10
-10.5330108756
 20
21.956295164
 30
0.0
 10
-10.534657705
 20
21.9824441931
 30
0.0
 10
-10.5355627686
 20
21.9958209001
 30
0.0
 10
-10.5365522332
 20
22.000285404
 30
0.0
  0
SPLINE
  5
4F4
100
AcDbEntity
  8
0
100
AcDbSpline
 62
250
  6
CONTINUOUS
 70
0
 71
3
 72
18
 73
14
 74
0
 42
0.0000001
 43
0.0000001
 44
0.0000000001
 40
0.0
 40
0.0
 40
0.0
 40
0.0
 40
0.1907916732
 40
0.3736745399
 40
0.542355291
 40
0.6911547107
 40
0.8149937705
 40
0.8662097704
 40
0.9096850866
 40
0.9450554309
 40
0.9720254055
 40
0.9903689019
 40
1.0
 40
1.0
 40
1.0
 40
1.0
 10
-11.0199493124
 20
20.5434691683
 30
0.0
 10
-11.019993283
 20
20.6043881371
 30
0.0
 10
-11.0202679138
 20
20.7237008085
 30
0.0
 10
-11.0212453624
 20
20.8968700893
 30
0.0
 10
-11.0227451059
 20
21.0566275807
 30
0.0
 10
-11.0247137334
 20
21.1975250614
 30
0.0
 10
-11.0267699015
 20
21.3009127278
 30
0.0
 10
-11.0286864252
 20
21.3706601774
 30
0.0
 10
-11.0300786393
 20
21.4121706966
 30
0.0
 10
-11.0315652178
 20
21.445910798
 30
0.0
 10
-11.0329437299
 20
21.4716718227
 30
0.0
 10
-11.034568418
 20
21.4890763597
 30
0.0
 10
-11.0355073937
 20
21.4980520219
 30
0.0
 10
-11.0364760808
 20
21.5009706367
 30
0.0
  0
SPLINE
  5
4F5
100
AcDbEntity
  8
0
100
AcDbSpline
 62
250
  6
CONTINUOUS
 70
0
 71
3
 72
9
 73
5
 74
0
 42
0.0000001
 43
0.0000001
 44
0.0000000001
 40
0.0
 40
0.0
 40
0.0
 40
0.0
 40
0.2500664098
 40
1.0
 40
1.0
 40
1.0
 40
1.0
 10
-10.5126510259
 20
0.3926968735
 30
0.0
 10
-10.5126740538
 20
2.0740882242
 30
0.0
 10
-10.5133575844
 20
8.7978675058
 30
0.0
 10
-10.5164061287
 20
15.5216465479
 30
0.0
 10
-10.5200254648
 20
20.5640332015
 30
0.0
  0
SPLINE
  5
4F6
100
AcDbEntity
  8
0
100
AcDbSpline
 62
250
  6
CONTINUOUS
 70
0
 71
3
 72
9
 73
5
 74
0
 42
0.0000001
 43
0.0000001
 44
0.0000000001
 40
0.0
 40
0.0
 40
0.0
 40
0.0
 40
0.2500664042
 40
1.0
 40
1.0
 40
1.0
 40
1.0
 10
-11.0125748066
 20
0.3873947324
 30
0.0
 10
-11.0125975518
 20
2.0675138836
 30
0.0
 10
-11.0132802404
 20
8.7862058684
 30
0.0
 10
-11.0163290944
 20
15.5048976137
 30
0.0
 10
-11.0199493124
 20
20.5434691683
 30
0.0
  0
SPLINE
  5
4F7
100
AcDbEntity
  8
0
100
AcDbSpline
 62
250
  6
CONTINUOUS
 70
0
 71
3
 72
9
 73
5
 74
0
 42
0.0000001
 43
0.0000001
 44
0.0000000001
 40
0.0
 40
0.0
 40
0.0
 40
0.0
 40
0.2499077714
 40
1.0
 40
1.0
 40
1.0
 40
1.0
 10
10.5200254648
 20
20.5640332015
 30
0.0
 10
10.5188193577
 20
18.8837089332
 30
0.0
 10
10.5145857205
 20
12.1599309495
 30
0.0
 10
10.5127200996
 20
5.4361514753
 30
0.0
 10
10.5126510259
 20
0.3926968735
 30
0.0
  0
SPLINE
  5
4F8
100
AcDbEntity
  8
0
100
AcDbSpline
 62
250
  6
CONTINUOUS
 70
0
 71
3
 72
11
 73
7
 74
0
 42
0.0000001
 43
0.0000001
 44
0.0000000001
 40
0.0
 40
0.0
 40
0.0
 40
0.0
 40
0.2498595749
 40
0.4998011133
 40
0.7498590316
 40
1.0
 40
1.0
 40
1.0
 40
1.0
 10
-11.0364760808
 20
21.5009706367
 30
0.0
 10
-11.0364167061
 20
21.5658963158
 30
0.0
 10
-11.0103018157
 20
21.6971735896
 30
0.0
 10
-10.8989582847
 20
21.8630035291
 30
0.0
 10
-10.7329282618
 20
21.9741651863
 30
0.0
 10
-10.6015510322
 20
22.0002261072
 30
0.0
 10
-10.5365522332
 20
22.000285404
 30
0.0
  0
SPLINE
  5
4F9
100
AcDbEntity
  8
0
100
AcDbSpline
 62
250
  6
CONTINUOUS
 70
0
 71
3
 72
19
 73
15
 74
0
 42
0.0000001
 43
0.0000001
 44
0.0000000001
 40
0.0
 40
0.0
 40
0.0
 40
0.0
 40
0.0066341232
 40
0.0224597815
 40
0.047454898
 40
0.0814245803
 40
0.1240186999
 40
0.1748621171
 40
0.2334688188
 40
0.2992829546
 40
0.4500536151
 40
0.6214393611
 40
0.8071680506
 40
1.0
 40
1.0
 40
1.0
 40
1.0
 10
-10.8126052676
 20
0.1874251934
 30
0.0
 10
-10.8121321428
 20
0.1878905671
 30
0.0
 10
-10.8096150776
 20
0.1879119327
 30
0.0
 10
-10.8051358278
 20
0.1886444597
 30
0.0
 10
-10.797536692
 20
0.1889501517
 30
0.0
 10
-10.7874428833
 20
0.1894731559
 30
0.0
 10
-10.7746844837
 20
0.1898933183
 30
0.0
 10
-10.7594879425
 20
0.1903260735
 30
0.0
 10
-10.7419575358
 20
0.1907220081
 30
0.0
 10
-10.7144346271
 20
0.191238155
 30
0.0
 10
-10.6756270015
 20
0.1917673078
 30
0.0
 10
-10.6248231077
 20
0.1922252467
 30
0.0
 10
-10.569810021
 20
0.1925068577
 30
0.0
 10
-10.5319408763
 20
0.1925701427
 30
0.0
 10
-10.5126510259
 20
0.1925702545
 30
0.0
  0
SPLINE
  5
4FA
100
AcDbEntity
  8
0
100
AcDbSpline
 62
250
  6
CONTINUOUS
 70
0
 71
3
 72
21
 73
17
 74
0
 42
0.0000001
 43
0.0000001
 44
0.0000000001
 40
0.0
 40
0.0
 40
0.0
 40
0.0
 40
0.0020957001
 40
0.0065024434
 40
0.013230231
 40
0.0222703121
 40
0.0472358256
 40
0.0811951689
 40
0.123790488
 40
0.1746406173
 40
0.2332580266
 40
0.2990864532
 40
0.4498944019
 40
0.6213227845
 40
0.8071073457
 40
1.0
 40
1.0
 40
1.0
 40
1.0
 10
-11.0125584721
 20
0.3873947324
 30
0.0
 10
-11.012260738
 20
0.3875773742
 30
0.0
 10
-11.0111376912
 20
0.3876949276
 30
0.0
 10
-11.0089864781
 20
0.3879877266
 30
0.0
 10
-11.0056116499
 20
0.3882036458
 30
0.0
 10
-10.9988445839
 20
0.3885939136
 30
0.0
 10
-10.9875157981
 20
0.3890083591
 30
0.0
 10
-10.9706060098
 20
0.389487167
 30
0.0
 10
-10.9493747444
 20
0.3899424722
 30
0.0
 10
-10.9240347016
 20
0.3903805582
 30
0.0
 10
-10.8948208087
 20
0.3907912399
 30
0.0
 10
-10.84894739
 20
0.3913222663
 30
0.0
 10
-10.784270782
 20
0.3918684286
 30
0.0
 10
-10.6996002275
 20
0.3923404652
 30
0.0
 10
-10.607914546
 20
0.3926310033
 30
0.0
 10
-10.5448004252
 20
0.3926964784
 30
0.0
 10
-10.512651021
 20
0.3926968628
 30
0.0
  0
SPLINE
  5
4FB
100
AcDbEntity
  8
268140580
100
AcDbSpline
 62
250
  6
CONTINUOUS
 70
0
 71
3
 72
19
 73
15
 74
0
 42
0.0000001
 43
0.0000001
 44
0.0000000001
 40
0.0
 40
0.0
 40
0.0
 40
0.0
 40
0.2035311206
 40
0.3532634613
 40
0.4228382098
 40
0.4841894182
 40
0.5228226031
 40
0.5376117908
 40
0.5424265978
 40
0.563876662
 40
0.6042449765
 40
0.6612609397
 40
0.8075609572
 40
1.0
 40
1.0
 40
1.0
 40
1.0
 10
-10.7326668346
 20
-22.3994518139
 30
0.0
 10
-10.7339427594
 20
-22.3994551805
 30
0.0
 10
-10.7361472356
 20
-22.3994267426
 30
0.0
 10
-10.738827906
 20
-22.3995311058
 30
0.0
 10
-10.7405336231
 20
-22.399590573
 30
0.0
 10
-10.7417180727
 20
-22.3996014288
 30
0.0
 10
-10.7421957718
 20
-22.3996648604
 30
0.0
 10
-10.7428565896
 20
-22.3996694811
 30
0.0
 10
-10.7425836433
 20
-22.3998437179
 30
0.0
 10
-10.7421831088
 20
-22.3997897163
 30
0.0
 10
-10.7414291473
 20
-22.3998896517
 30
0.0
 10
-10.7399084674
 20
-22.3999102687
 30
0.0
 10
-10.7374237163
 20
-22.3999859452
 30
0.0
 10
-10.7353016094
 20
-22.3999929594
 30
0.0
 10
-10.734095224
 20
-22.3999973491
 30
0.0
  0
LINE
  5
4FC
100
AcDbEntity
  8
268140580
100
AcDbLine
 62
250
  6
CONTINUOUS
 10
10.7326668346
 20
22.3994518139
 30
0.0
 11
10.727428791
 21
22.399725907
 31
0.0
  0
LINE
  5
4FD
100
AcDbEntity
  8
268140580
100
AcDbLine
 62
250
  6
CONTINUOUS
 10
-10.7326668346
 20
22.3994518139
 30
0.0
 11
-10.727428791
 21
22.399725907
 31
0.0
  0
SPLINE
  5
4FE
100
AcDbEntity
  8
268140580
100
AcDbSpline
 62
250
  6
CONTINUOUS
 70
0
 71
3
 72
9
 73
5
 74
0
 42
0.0000001
 43
0.0000001
 44
0.0000000001
 40
0.0
 40
0.0
 40
0.0
 40
0.0
 40
0.5392317388
 40
1.0
 40
1.0
 40
1.0
 40
1.0
 10
10.7326668346
 20
-22.4
 30
0.0
 10
10.7360268985
 20
-22.4
 30
0.0
 10
10.7489708777
 20
-22.3998293749
 30
0.0
 10
10.7370071125
 20
-22.3994507649
 30
0.0
 10
10.7341359712
 20
-22.3994523782
 30
0.0
  0
LINE
  5
4FF
100
AcDbEntity
  8
268140580
100
AcDbLine
 62
250
  6
CONTINUOUS
 10
10.7326668346
 20
-22.3994518139
 30
0.0
 11
10.727428791
 21
-22.399725907
 31
0.0
  0
LINE
  5
500
100
AcDbEntity
  8
268140580
100
AcDbLine
 62
250
  6
CONTINUOUS
 10
-10.7326668346
 20
-22.3994518139
 30
0.0
 11
-10.727428791
 21
-22.399725907
 31
0.0
  0
SPLINE
  5
501
100
AcDbEntity
  8
268140580
100
AcDbSpline
 62
250
  6
CONTINUOUS
 70
0
 71
3
 72
13
 73
9
 74
0
 42
0.0000001
 43
0.0000001
 44
0.0000000001
 40
0.0
 40
0.0
 40
0.0
 40
0.0
 40
0.1163060954
 40
0.2340374848
 40
0.3543787316
 40
0.4780387139
 40
0.7344054024
 40
1.0
 40
1.0
 40
1.0
 40
1.0
 10
-8.25
 20
-23.8443375673
 30
0.0
 10
-8.25
 20
-23.830166933
 30
0.0
 10
-8.2532712548
 20
-23.8015489061
 30
0.0
 10
-8.2677436397
 20
-23.7605133795
 30
0.0
 10
-8.2911737942
 20
-23.7227839057
 30
0.0
 10
-8.3334804575
 20
-23.6783766842
 30
0.0
 10
-8.4035246356
 20
-23.6385702844
 30
0.0
 10
-8.4676401834
 20
-23.6278312164
 30
0.0
 10
-8.5
 20
-23.6278312164
 30
0.0
  0
SPLINE
  5
502
100
AcDbEntity
  8
268140580
100
AcDbSpline
 62
250
  6
CONTINUOUS
 70
0
 71
3
 72
13
 73
9
 74
0
 42
0.0000001
 43
0.0000001
 44
0.0000000001
 40
0.0
 40
0.0
 40
0.0
 40
0.0
 40
0.1163059017
 40
0.2340373992
 40
0.3543792462
 40
0.4780390904
 40
0.7344057545
 40
1.0
 40
1.0
 40
1.0
 40
1.0
 10
-8.25
 20
-23.4113248654
 30
0.0
 10
-8.25
 20
-23.3971542628
 30
0.0
 10
-8.2532711196
 20
-23.3685362452
 30
0.0
 10
-8.2677436157
 20
-23.3275007061
 30
0.0
 10
-8.2911739467
 20
-23.289771248
 30
0.0
 10
-8.333481222
 20
-23.2453646555
 30
0.0
 10
-8.4035245725
 20
-23.2055572377
 30
0.0
 10
-8.4676402447
 20
-23.1948185145
 30
0.0
 10
-8.5
 20
-23.1948185145
 30
0.0
  0
SPLINE
  5
503
100
AcDbEntity
  8
268140580
100
AcDbSpline
 62
250
  6
CONTINUOUS
 70
0
 71
3
 72
13
 73
9
 74
0
 42
0.0000001
 43
0.0000001
 44
0.0000000001
 40
0.0
 40
0.0
 40
0.0
 40
0.0
 40
0.2655945976
 40
0.5219612861
 40
0.6456212684
 40
0.7659625152
 40
0.8836939046
 40
1.0
 40
1.0
 40
1.0
 40
1.0
 10
-10.4
 20
-23.6278312164
 30
0.0
 10
-10.4323598166
 20
-23.6278312164
 30
0.0
 10
-10.4964753644
 20
-23.6385702844
 30
0.0
 10
-10.5665195425
 20
-23.6783766842
 30
0.0
 10
-10.6088262058
 20
-23.7227839057
 30
0.0
 10
-10.6322563603
 20
-23.7605133795
 30
0.0
 10
-10.6467287452
 20
-23.8015489061
 30
0.0
 10
-10.65
 20
-23.830166933
 30
0.0
 10
-10.65
 20
-23.8443375673
 30
0.0
  0
SPLINE
  5
504
100
AcDbEntity
  8
268140580
100
AcDbSpline
 62
250
  6
CONTINUOUS
 70
0
 71
3
 72
13
 73
9
 74
0
 42
0.0000001
 43
0.0000001
 44
0.0000000001
 40
0.0
 40
0.0
 40
0.0
 40
0.0
 40
0.2655942455
 40
0.5219609096
 40
0.6456207538
 40
0.7659626008
 40
0.8836940984
 40
1.0
 40
1.0
 40
1.0
 40
1.0
 10
-10.4
 20
-23.1948185145
 30
0.0
 10
-10.4323597553
 20
-23.1948185145
 30
0.0
 10
-10.4964754275
 20
-23.2055572378
 30
0.0
 10
-10.566518778
 20
-23.2453646555
 30
0.0
 10
-10.6088260533
 20
-23.289771248
 30
0.0
 10
-10.6322563843
 20
-23.3275007061
 30
0.0
 10
-10.6467288804
 20
-23.3685362452
 30
0.0
 10
-10.65
 20
-23.3971542628
 30
0.0
 10
-10.65
 20
-23.4113248654
 30
0.0
  0
SPLINE
  5
505
100
AcDbEntity
  8
268140580
100
AcDbSpline
 62
250
  6
CONTINUOUS
 70
0
 71
3
 72
13
 73
9
 74
0
 42
0.0000001
 43
0.0000001
 44
0.0000000001
 40
0.0
 40
0.0
 40
0.0
 40
0.0
 40
0.1163060954
 40
0.2340374848
 40
0.3543787316
 40
0.4780387139
 40
0.7344054024
 40
1.0
 40
1.0
 40
1.0
 40
1.0
 10
10.65
 20
-23.8443375673
 30
0.0
 10
10.65
 20
-23.830166933
 30
0.0
 10
10.6467287452
 20
-23.8015489061
 30
0.0
 10
10.6322563603
 20
-23.7605133795
 30
0.0
 10
10.6088262058
 20
-23.7227839057
 30
0.0
 10
10.5665195425
 20
-23.6783766842
 30
0.0
 10
10.4964753644
 20
-23.6385702844
 30
0.0
 10
10.4323598166
 20
-23.6278312164
 30
0.0
 10
10.4
 20
-23.6278312164
 30
0.0
  0
SPLINE
  5
506
100
AcDbEntity
  8
268140580
100
AcDbSpline
 62
250
  6
CONTINUOUS
 70
0
 71
3
 72
13
 73
9
 74
0
 42
0.0000001
 43
0.0000001
 44
0.0000000001
 40
0.0
 40
0.0
 40
0.0
 40
0.0
 40
0.1163059017
 40
0.2340373992
 40
0.3543792462
 40
0.4780390904
 40
0.7344057545
 40
1.0
 40
1.0
 40
1.0
 40
1.0
 10
10.65
 20
-23.4113248654
 30
0.0
 10
10.65
 20
-23.3971542628
 30
0.0
 10
10.6467288804
 20
-23.3685362452
 30
0.0
 10
10.6322563843
 20
-23.3275007061
 30
0.0
 10
10.6088260533
 20
-23.289771248
 30
0.0
 10
10.566518778
 20
-23.2453646555
 30
0.0
 10
10.4964754275
 20
-23.2055572377
 30
0.0
 10
10.4323597553
 20
-23.1948185145
 30
0.0
 10
10.4
 20
-23.1948185145
 30
0.0
  0
SPLINE
  5
507
100
AcDbEntity
  8
268140580
100
AcDbSpline
 62
250
  6
CONTINUOUS
 70
0
 71
3
 72
13
 73
9
 74
0
 42
0.0000001
 43
0.0000001
 44
0.0000000001
 40
0.0
 40
0.0
 40
0.0
 40
0.0
 40
0.2655945976
 40
0.5219612861
 40
0.6456212684
 40
0.7659625152
 40
0.8836939046
 40
1.0
 40
1.0
 40
1.0
 40
1.0
 10
8.5
 20
-23.6278312164
 30
0.0
 10
8.4676401834
 20
-23.6278312164
 30
0.0
 10
8.4035246356
 20
-23.6385702844
 30
0.0
 10
8.3334804575
 20
-23.6783766842
 30
0.0
 10
8.2911737942
 20
-23.7227839057
 30
0.0
 10
8.2677436397
 20
-23.7605133795
 30
0.0
 10
8.2532712548
 20
-23.8015489061
 30
0.0
 10
8.25
 20
-23.830166933
 30
0.0
 10
8.25
 20
-23.8443375673
 30
0.0
  0
SPLINE
  5
508
100
AcDbEntity
  8
268140580
100
AcDbSpline
 62
250
  6
CONTINUOUS
 70
0
 71
3
 72
13
 73
9
 74
0
 42
0.0000001
 43
0.0000001
 44
0.0000000001
 40
0.0
 40
0.0
 40
0.0
 40
0.0
 40
0.2655942455
 40
0.5219609096
 40
0.6456207538
 40
0.7659626008
 40
0.8836940984
 40
1.0
 40
1.0
 40
1.0
 40
1.0
 10
8.5
 20
-23.1948185145
 30
0.0
 10
8.4676402447
 20
-23.1948185145
 30
0.0
 10
8.4035245725
 20
-23.2055572378
 30
0.0
 10
8.333481222
 20
-23.2453646555
 30
0.0
 10
8.2911739467
 20
-23.289771248
 30
0.0
 10
8.2677436157
 20
-23.3275007061
 30
0.0
 10
8.2532711196
 20
-23.3685362452
 30
0.0
 10
8.25
 20
-23.3971542628
 30
0.0
 10
8.25
 20
-23.4113248654
 30
0.0
  0
SPLINE
  5
509
100
AcDbEntity
  8
268140580
100
AcDbSpline
 62
250
  6
CONTINUOUS
 70
0
 71
3
 72
13
 73
9
 74
0
 42
0.0000001
 43
0.0000001
 44
0.0000000001
 40
0.0
 40
0.0
 40
0.0
 40
0.0
 40
0.1163059025
 40
0.2340374008
 40
0.3543792483
 40
0.4780390927
 40
0.734405756
 40
1.0
 40
1.0
 40
1.0
 40
1.0
 10
10.65
 20
23.4113248654
 30
0.0
 10
10.65
 20
23.3971542626
 30
0.0
 10
10.6467288804
 20
23.3685362449
 30
0.0
 10
10.6322563841
 20
23.3275007056
 30
0.0
 10
10.6088260529
 20
23.2897712474
 30
0.0
 10
10.5665187774
 20
23.245364655
 30
0.0
 10
10.496475427
 20
23.2055572377
 30
0.0
 10
10.4323597551
 20
23.1948185145
 30
0.0
 10
10.4
 20
23.1948185145
 30
0.0
  0
SPLINE
  5
50A
100
AcDbEntity
  8
268140580
100
AcDbSpline
 62
250
  6
CONTINUOUS
 70
0
 71
3
 72
13
 73
9
 74
0
 42
0.0000001
 43
0.0000001
 44
0.0000000001
 40
0.0
 40
0.0
 40
0.0
 40
0.0
 40
0.1163062618
 40
0.2340376303
 40
0.3543788675
 40
0.4780388243
 40
0.7344054563
 40
1.0
 40
1.0
 40
1.0
 40
1.0
 10
10.65
 20
23.8443375673
 30
0.0
 10
10.65
 20
23.8301669127
 30
0.0
 10
10.6467287425
 20
23.8015488668
 30
0.0
 10
10.6322563335
 20
23.760513331
 30
0.0
 10
10.6088261759
 20
23.7227838678
 30
0.0
 10
10.5665195111
 20
23.6783766629
 30
0.0
 10
10.4964753444
 20
23.6385702795
 30
0.0
 10
10.4323598101
 20
23.6278312164
 30
0.0
 10
10.4
 20
23.6278312164
 30
0.0
  0
SPLINE
  5
50B
100
AcDbEntity
  8
268140580
100
AcDbSpline
 62
250
  6
CONTINUOUS
 70
0
 71
3
 72
9
 73
5
 74
0
 42
0.0000001
 43
0.0000001
 44
0.0000000001
 40
0.0
 40
0.0
 40
0.0
 40
0.0
 40
0.53829089
 40
1.0
 40
1.0
 40
1.0
 40
1.0
 10
-10.7326668346
 20
22.4
 30
0.0
 10
-10.7360067418
 20
22.4
 30
0.0
 10
-10.7488838362
 20
22.3998222268
 30
0.0
 10
-10.7369592966
 20
22.3994562502
 30
0.0
 10
-10.7340945537
 20
22.3994537916
 30
0.0
  0
LINE
  5
50C
100
AcDbEntity
  8
268140580
100
AcDbLine
 62
250
  6
CONTINUOUS
 10
-10.7340945537
 20
22.3994537916
 30
0.0
 11
-10.7326668346
 21
22.3994518139
 31
0.0
  0
SPLINE
  5
50D
100
AcDbEntity
  8
268140580
100
AcDbSpline
 62
250
  6
CONTINUOUS
 70
0
 71
3
 72
13
 73
9
 74
0
 42
0.0000001
 43
0.0000001
 44
0.0000000001
 40
0.0
 40
0.0
 40
0.0
 40
0.0
 40
0.1163060954
 40
0.2340374848
 40
0.3543787316
 40
0.4780387139
 40
0.7344054024
 40
1.0
 40
1.0
 40
1.0
 40
1.0
 10
8.25
 20
23.8443375673
 30
0.0
 10
8.25
 20
23.830166933
 30
0.0
 10
8.2532712548
 20
23.8015489061
 30
0.0
 10
8.2677436397
 20
23.7605133795
 30
0.0
 10
8.2911737942
 20
23.7227839057
 30
0.0
 10
8.3334804575
 20
23.6783766842
 30
0.0
 10
8.4035246356
 20
23.6385702844
 30
0.0
 10
8.4676401834
 20
23.6278312164
 30
0.0
 10
8.5
 20
23.6278312164
 30
0.0
  0
SPLINE
  5
50E
100
AcDbEntity
  8
268140580
100
AcDbSpline
 62
250
  6
CONTINUOUS
 70
0
 71
3
 72
13
 73
9
 74
0
 42
0.0000001
 43
0.0000001
 44
0.0000000001
 40
0.0
 40
0.0
 40
0.0
 40
0.0
 40
0.1163059016
 40
0.2340373992
 40
0.3543792462
 40
0.4780390904
 40
0.7344057545
 40
1.0
 40
1.0
 40
1.0
 40
1.0
 10
8.25
 20
23.4113248654
 30
0.0
 10
8.25
 20
23.3971542628
 30
0.0
 10
8.2532711196
 20
23.3685362452
 30
0.0
 10
8.2677436157
 20
23.3275007061
 30
0.0
 10
8.2911739467
 20
23.289771248
 30
0.0
 10
8.333481222
 20
23.2453646555
 30
0.0
 10
8.4035245725
 20
23.2055572378
 30
0.0
 10
8.4676402447
 20
23.1948185145
 30
0.0
 10
8.5
 20
23.1948185145
 30
0.0
  0
SPLINE
  5
50F
100
AcDbEntity
  8
268140580
100
AcDbSpline
 62
250
  6
CONTINUOUS
 70
0
 71
3
 72
13
 73
9
 74
0
 42
0.0000001
 43
0.0000001
 44
0.0000000001
 40
0.0
 40
0.0
 40
0.0
 40
0.0
 40
0.1163059025
 40
0.2340374008
 40
0.3543792483
 40
0.4780390927
 40
0.734405756
 40
1.0
 40
1.0
 40
1.0
 40
1.0
 10
-8.25
 20
23.4113248654
 30
0.0
 10
-8.25
 20
23.3971542626
 30
0.0
 10
-8.2532711196
 20
23.3685362449
 30
0.0
 10
-8.2677436159
 20
23.3275007056
 30
0.0
 10
-8.2911739471
 20
23.2897712474
 30
0.0
 10
-8.3334812226
 20
23.245364655
 30
0.0
 10
-8.403524573
 20
23.2055572377
 30
0.0
 10
-8.4676402449
 20
23.1948185145
 30
0.0
 10
-8.5
 20
23.1948185145
 30
0.0
  0
SPLINE
  5
510
100
AcDbEntity
  8
268140580
100
AcDbSpline
 62
250
  6
CONTINUOUS
 70
0
 71
3
 72
13
 73
9
 74
0
 42
0.0000001
 43
0.0000001
 44
0.0000000001
 40
0.0
 40
0.0
 40
0.0
 40
0.0
 40
0.1163062618
 40
0.2340376303
 40
0.3543788675
 40
0.4780388243
 40
0.7344054563
 40
1.0
 40
1.0
 40
1.0
 40
1.0
 10
-8.25
 20
23.8443375673
 30
0.0
 10
-8.25
 20
23.8301669127
 30
0.0
 10
-8.2532712575
 20
23.8015488668
 30
0.0
 10
-8.2677436665
 20
23.760513331
 30
0.0
 10
-8.2911738241
 20
23.7227838678
 30
0.0
 10
-8.3334804889
 20
23.6783766629
 30
0.0
 10
-8.4035246556
 20
23.6385702795
 30
0.0
 10
-8.4676401899
 20
23.6278312164
 30
0.0
 10
-8.5
 20
23.6278312164
 30
0.0
  0
SPLINE
  5
511
100
AcDbEntity
  8
268140580
100
AcDbSpline
 62
250
  6
CONTINUOUS
 70
0
 71
3
 72
12
 73
8
 74
0
 42
0.0000001
 43
0.0000001
 44
0.0000000001
 40
0.0
 40
0.0
 40
0.0
 40
0.0
 40
0.3679408844
 40
0.4578903114
 40
0.5381296689
 40
0.6705494906
 40
1.0
 40
1.0
 40
1.0
 40
1.0
 10
10.7326668346
 20
22.3994518139
 30
0.0
 10
10.7349608954
 20
22.3994578935
 30
0.0
 10
10.7380662684
 20
22.3993838235
 30
0.0
 10
10.7409823729
 20
22.3996425281
 30
0.0
 10
10.7438483763
 20
22.3997205279
 30
0.0
 10
10.7377390784
 20
22.400062322
 30
0.0
 10
10.7361491321
 20
22.399990284
 30
0.0
 10
10.7340950589
 20
22.3999975002
 30
0.0
  0
SPLINE
  5
512
100
AcDbEntity
  8
268140580
100
AcDbSpline
 62
250
  6
CONTINUOUS
 70
0
 71
3
 72
13
 73
9
 74
0
 42
0.0000001
 43
0.0000001
 44
0.0000000001
 40
0.0
 40
0.0
 40
0.0
 40
0.0
 40
0.1163060954
 40
0.2340374848
 40
0.3543787316
 40
0.4780387139
 40
0.7344054024
 40
1.0
 40
1.0
 40
1.0
 40
1.0
 10
-10.65
 20
23.8443375673
 30
0.0
 10
-10.65
 20
23.830166933
 30
0.0
 10
-10.6467287452
 20
23.8015489061
 30
0.0
 10
-10.6322563603
 20
23.7605133795
 30
0.0
 10
-10.6088262058
 20
23.7227839057
 30
0.0
 10
-10.5665195425
 20
23.6783766842
 30
0.0
 10
-10.4964753644
 20
23.6385702844
 30
0.0
 10
-10.4323598166
 20
23.6278312164
 30
0.0
 10
-10.4
 20
23.6278312164
 30
0.0
  0
SPLINE
  5
513
100
AcDbEntity
  8
268140580
100
AcDbSpline
 62
250
  6
CONTINUOUS
 70
0
 71
3
 72
13
 73
9
 74
0
 42
0.0000001
 43
0.0000001
 44
0.0000000001
 40
0.0
 40
0.0
 40
0.0
 40
0.0
 40
0.1163059016
 40
0.2340373992
 40
0.3543792462
 40
0.4780390904
 40
0.7344057545
 40
1.0
 40
1.0
 40
1.0
 40
1.0
 10
-10.65
 20
23.4113248654
 30
0.0
 10
-10.65
 20
23.3971542628
 30
0.0
 10
-10.6467288804
 20
23.3685362452
 30
0.0
 10
-10.6322563843
 20
23.3275007061
 30
0.0
 10
-10.6088260533
 20
23.289771248
 30
0.0
 10
-10.566518778
 20
23.2453646555
 30
0.0
 10
-10.4964754275
 20
23.2055572378
 30
0.0
 10
-10.4323597553
 20
23.1948185145
 30
0.0
 10
-10.4
 20
23.1948185145
 30
0.0
  0
SPLINE
  5
514
100
AcDbEntity
  8
0
100
AcDbSpline
 62
250
  6
CONTINUOUS
 70
0
 71
3
 72
23
 73
19
 74
0
 42
0.0000001
 43
0.0000001
 44
0.0000000001
 40
0.0
 40
0.0
 40
0.0
 40
0.0
 40
0.1948435619
 40
0.3825421243
 40
0.555287727
 40
0.63402673
 40
0.7066797215
 40
0.7725632914
 40
0.8309982451
 40
0.881411794
 40
0.923369566
 40
0.9564484303
 40
0.9695423493
 40
0.9803086127
 40
0.9887319591
 40
0.9948011689
 40
0.9985194699
 40
1.0
 40
1.0
 40
1.0
 40
1.0
 10
-56.8605631514
 20
21.5009706367
 30
0.0
 10
-56.8622617825
 20
21.533392278
 30
0.0
 10
-56.8654888627
 20
21.5970523556
 30
0.0
 10
-56.8698524548
 20
21.6894752568
 30
0.0
 10
-56.8730173389
 20
21.7625866194
 30
0.0
 10
-56.8751509948
 20
21.816554456
 30
0.0
 10
-56.876478299
 20
21.8527340103
 30
0.0
 10
-56.8775720685
 20
21.8855366615
 30
0.0
 10
-56.8784212644
 20
21.9146389886
 30
0.0
 10
-56.8790189427
 20
21.9397615385
 30
0.0
 10
-56.879361181
 20
21.960659017
 30
0.0
 10
-56.8794453527
 20
21.9753517748
 30
0.0
 10
-56.8793543239
 20
21.9848276267
 30
0.0
 10
-56.8792269699
 20
21.9902299522
 30
0.0
 10
-56.8790424004
 20
21.9943718496
 30
0.0
 10
-56.8787994483
 20
21.9975427371
 30
0.0
 10
-56.878532633
 20
21.9991382725
 30
0.0
 10
-56.8782512828
 20
22.000272493
 30
0.0
 10
-56.8780049253
 20
22.0002854041
 30
0.0
  0
SPLINE
  5
515
100
AcDbEntity
  8
0
100
AcDbSpline
 62
250
  6
CONTINUOUS
 70
0
 71
3
 72
20
 73
16
 74
0
 42
0.0000001
 43
0.0000001
 44
0.0000000001
 40
0.0
 40
0.0
 40
0.0
 40
0.0
 40
0.194573572
 40
0.3824537315
 40
0.5553012246
 40
0.706678889
 40
0.7724880972
 40
0.8308997433
 40
0.8813741935
 40
0.9233726199
 40
0.9564177952
 40
0.9802760024
 40
0.9947882082
 40
0.9985164459
 40
1.0
 40
1.0
 40
1.0
 40
1.0
 10
-58.2298662321
 20
0.3873947324
 30
0.0
 10
-58.23009263
 20
0.3744204194
 30
0.0
 10
-58.2304937969
 20
0.3489173186
 30
0.0
 10
-58.2309494011
 20
0.3118865473
 30
0.0
 10
-58.2312334831
 20
0.2777346981
 30
0.0
 10
-58.2313273082
 20
0.2517234136
 30
0.0
 10
-58.2312979818
 20
0.2333426954
 30
0.0
 10
-58.2312305902
 20
0.2216941782
 30
0.0
 10
-58.2311190095
 20
0.2116263288
 30
0.0
 10
-58.2309634236
 20
0.2032731128
 30
0.0
 10
-58.2307710143
 20
0.1966372246
 30
0.0
 10
-58.2305380704
 20
0.1919774977
 30
0.0
 10
-58.2303173705
 20
0.1890085648
 30
0.0
 10
-58.2300928157
 20
0.1878776356
 30
0.0
 10
-58.2299651566
 20
0.1874269201
 30
0.0
 10
-58.2298662321
 20
0.1874251934
 30
0.0
  0
SPLINE
  5
516
100
AcDbEntity
  8
0
100
AcDbSpline
 62
250
  6
CONTINUOUS
 70
0
 71
3
 72
20
 73
16
 74
0
 42
0.0000001
 43
0.0000001
 44
0.0000000001
 40
0.0
 40
0.0
 40
0.0
 40
0.0
 40
0.1945736056
 40
0.3824538507
 40
0.555301395
 40
0.7066790544
 40
0.7724882464
 40
0.8308998612
 40
0.8813742799
 40
0.9233726892
 40
0.9564178513
 40
0.9802760356
 40
0.9947882196
 40
0.9985164499
 40
1.0
 40
1.0
 40
1.0
 40
1.0
 10
-58.2298662321
 20
-0.3873947324
 30
0.0
 10
-58.2300926284
 20
-0.3744204171
 30
0.0
 10
-58.2304937924
 20
-0.3489173085
 30
0.0
 10
-58.2309493942
 20
-0.3118865259
 30
0.0
 10
-58.2312334758
 20
-0.277734668
 30
0.0
 10
-58.2313273014
 20
-0.2517233816
 30
0.0
 10
-58.2312979755
 20
-0.2333426669
 30
0.0
 10
-58.2312305843
 20
-0.2216941551
 30
0.0
 10
-58.231119004
 20
-0.211626311
 30
0.0
 10
-58.2309634189
 20
-0.2032730992
 30
0.0
 10
-58.2307710107
 20
-0.1966372144
 30
0.0
 10
-58.2305380677
 20
-0.1919774915
 30
0.0
 10
-58.2303173689
 20
-0.1890085619
 30
0.0
 10
-58.2300928148
 20
-0.1878776349
 30
0.0
 10
-58.2299651563
 20
-0.1874269201
 30
0.0
 10
-58.2298662321
 20
-0.1874251934
 30
0.0
  0
SPLINE
  5
517
100
AcDbEntity
  8
0
100
AcDbSpline
 62
250
  6
CONTINUOUS
 70
0
 71
3
 72
23
 73
19
 74
0
 42
0.0000001
 43
0.0000001
 44
0.0000000001
 40
0.0
 40
0.0
 40
0.0
 40
0.0
 40
0.1948435676
 40
0.3825421409
 40
0.555287746
 40
0.6340267485
 40
0.706679738
 40
0.7725633058
 40
0.8309982587
 40
0.8814118054
 40
0.9233695745
 40
0.9564484372
 40
0.9695423555
 40
0.9803086181
 40
0.9887319636
 40
0.9948011723
 40
0.9985194721
 40
1.0
 40
1.0
 40
1.0
 40
1.0
 10
-56.8605631514
 20
-21.5009706367
 30
0.0
 10
-56.8622617801
 20
-21.5333922789
 30
0.0
 10
-56.8654888562
 20
-21.5970523593
 30
0.0
 10
-56.8698524438
 20
-21.6894752635
 30
0.0
 10
-56.8730173253
 20
-21.7625866279
 30
0.0
 10
-56.8751509803
 20
-21.8165544644
 30
0.0
 10
-56.8764782842
 20
-21.8527340177
 30
0.0
 10
-56.8775720539
 20
-21.8855366679
 30
0.0
 10
-56.8784212505
 20
-21.914638994
 30
0.0
 10
-56.87901893
 20
-21.9397615428
 30
0.0
 10
-56.87936117
 20
-21.9606590201
 30
0.0
 10
-56.8794453437
 20
-21.975351777
 30
0.0
 10
-56.8793543166
 20
-21.9848276282
 30
0.0
 10
-56.879226964
 20
-21.9902299535
 30
0.0
 10
-56.8790423957
 20
-21.9943718502
 30
0.0
 10
-56.8787994458
 20
-21.9975427378
 30
0.0
 10
-56.8785326308
 20
-21.9991382716
 30
0.0
 10
-56.8782512834
 20
-22.000272493
 30
0.0
 10
-56.8780049263
 20
-22.000285404
 30
0.0
  0
SPLINE
  5
518
100
AcDbEntity
  8
RACCORDO
100
AcDbSpline
 62
250
  6
CONTINUOUS
 70
0
 71
3
 72
20
 73
16
 74
0
 42
0.0000001
 43
0.0000001
 44
0.0000000001
 40
0.0
 40
0.0
 40
0.0
 40
0.0
 40
0.1945736056
 40
0.3824538507
 40
0.555301395
 40
0.7066790544
 40
0.7724882464
 40
0.8308998612
 40
0.8813742799
 40
0.9233726892
 40
0.9564178513
 40
0.9802760356
 40
0.9947882196
 40
0.9985164499
 40
1.0
 40
1.0
 40
1.0
 40
1.0
 10
-58.2298662321
 20
-0.3873947324
 30
0.0
 10
-58.2300926284
 20
-0.3744204171
 30
0.0
 10
-58.2304937924
 20
-0.3489173085
 30
0.0
 10
-58.2309493942
 20
-0.3118865259
 30
0.0
 10
-58.2312334758
 20
-0.277734668
 30
0.0
 10
-58.2313273014
 20
-0.2517233816
 30
0.0
 10
-58.2312979755
 20
-0.2333426669
 30
0.0
 10
-58.2312305843
 20
-0.2216941551
 30
0.0
 10
-58.231119004
 20
-0.211626311
 30
0.0
 10
-58.2309634189
 20
-0.2032730992
 30
0.0
 10
-58.2307710107
 20
-0.1966372144
 30
0.0
 10
-58.2305380677
 20
-0.1919774915
 30
0.0
 10
-58.2303173689
 20
-0.1890085619
 30
0.0
 10
-58.2300928148
 20
-0.1878776349
 30
0.0
 10
-58.2299651563
 20
-0.1874269201
 30
0.0
 10
-58.2298662321
 20
-0.1874251934
 30
0.0
  0
SPLINE
  5
519
100
AcDbEntity
  8
RACCORDO
100
AcDbSpline
 62
250
  6
CONTINUOUS
 70
0
 71
3
 72
23
 73
19
 74
0
 42
0.0000001
 43
0.0000001
 44
0.0000000001
 40
0.0
 40
0.0
 40
0.0
 40
0.0
 40
0.1948435676
 40
0.3825421409
 40
0.555287746
 40
0.6340267485
 40
0.706679738
 40
0.7725633058
 40
0.8309982587
 40
0.8814118054
 40
0.9233695745
 40
0.9564484372
 40
0.9695423555
 40
0.9803086181
 40
0.9887319636
 40
0.9948011723
 40
0.9985194721
 40
1.0
 40
1.0
 40
1.0
 40
1.0
 10
-56.8605631514
 20
-21.5009706367
 30
0.0
 10
-56.8622617801
 20
-21.5333922789
 30
0.0
 10
-56.8654888562
 20
-21.5970523593
 30
0.0
 10
-56.8698524438
 20
-21.6894752635
 30
0.0
 10
-56.8730173253
 20
-21.7625866279
 30
0.0
 10
-56.8751509803
 20
-21.8165544644
 30
0.0
 10
-56.8764782842
 20
-21.8527340177
 30
0.0
 10
-56.8775720539
 20
-21.8855366679
 30
0.0
 10
-56.8784212505
 20
-21.914638994
 30
0.0
 10
-56.87901893
 20
-21.9397615428
 30
0.0
 10
-56.87936117
 20
-21.9606590201
 30
0.0
 10
-56.8794453437
 20
-21.975351777
 30
0.0
 10
-56.8793543166
 20
-21.9848276282
 30
0.0
 10
-56.879226964
 20
-21.9902299535
 30
0.0
 10
-56.8790423957
 20
-21.9943718502
 30
0.0
 10
-56.8787994458
 20
-21.9975427378
 30
0.0
 10
-56.8785326308
 20
-21.9991382716
 30
0.0
 10
-56.8782512834
 20
-22.000272493
 30
0.0
 10
-56.8780049263
 20
-22.000285404
 30
0.0
  0
SPLINE
  5
51A
100
AcDbEntity
  8
RACCORDO
100
AcDbSpline
 62
250
  6
CONTINUOUS
 70
0
 71
3
 72
20
 73
16
 74
0
 42
0.0000001
 43
0.0000001
 44
0.0000000001
 40
0.0
 40
0.0
 40
0.0
 40
0.0
 40
0.194573572
 40
0.3824537315
 40
0.5553012246
 40
0.706678889
 40
0.7724880972
 40
0.8308997433
 40
0.8813741935
 40
0.9233726199
 40
0.9564177952
 40
0.9802760024
 40
0.9947882082
 40
0.9985164459
 40
1.0
 40
1.0
 40
1.0
 40
1.0
 10
-58.2298662321
 20
0.3873947324
 30
0.0
 10
-58.23009263
 20
0.3744204194
 30
0.0
 10
-58.2304937969
 20
0.3489173186
 30
0.0
 10
-58.2309494011
 20
0.3118865473
 30
0.0
 10
-58.2312334831
 20
0.2777346981
 30
0.0
 10
-58.2313273082
 20
0.2517234136
 30
0.0
 10
-58.2312979818
 20
0.2333426954
 30
0.0
 10
-58.2312305902
 20
0.2216941782
 30
0.0
 10
-58.2311190095
 20
0.2116263288
 30
0.0
 10
-58.2309634236
 20
0.2032731128
 30
0.0
 10
-58.2307710143
 20
0.1966372246
 30
0.0
 10
-58.2305380704
 20
0.1919774977
 30
0.0
 10
-58.2303173705
 20
0.1890085648
 30
0.0
 10
-58.2300928157
 20
0.1878776356
 30
0.0
 10
-58.2299651566
 20
0.1874269201
 30
0.0
 10
-58.2298662321
 20
0.1874251934
 30
0.0
  0
SPLINE
  5
51B
100
AcDbEntity
  8
RACCORDO
100
AcDbSpline
 62
250
  6
CONTINUOUS
 70
0
 71
3
 72
23
 73
19
 74
0
 42
0.0000001
 43
0.0000001
 44
0.0000000001
 40
0.0
 40
0.0
 40
0.0
 40
0.0
 40
0.1948435619
 40
0.3825421243
 40
0.555287727
 40
0.63402673
 40
0.7066797215
 40
0.7725632914
 40
0.8309982451
 40
0.881411794
 40
0.923369566
 40
0.9564484303
 40
0.9695423493
 40
0.9803086127
 40
0.9887319591
 40
0.9948011689
 40
0.9985194699
 40
1.0
 40
1.0
 40
1.0
 40
1.0
 10
-56.8605631514
 20
21.5009706367
 30
0.0
 10
-56.8622617825
 20
21.533392278
 30
0.0
 10
-56.8654888627
 20
21.5970523556
 30
0.0
 10
-56.8698524548
 20
21.6894752568
 30
0.0
 10
-56.8730173389
 20
21.7625866194
 30
0.0
 10
-56.8751509948
 20
21.816554456
 30
0.0
 10
-56.876478299
 20
21.8527340103
 30
0.0
 10
-56.8775720685
 20
21.8855366615
 30
0.0
 10
-56.8784212644
 20
21.9146389886
 30
0.0
 10
-56.8790189427
 20
21.9397615385
 30
0.0
 10
-56.879361181
 20
21.960659017
 30
0.0
 10
-56.8794453527
 20
21.9753517748
 30
0.0
 10
-56.8793543239
 20
21.9848276267
 30
0.0
 10
-56.8792269699
 20
21.9902299522
 30
0.0
 10
-56.8790424004
 20
21.9943718496
 30
0.0
 10
-56.8787994483
 20
21.9975427371
 30
0.0
 10
-56.878532633
 20
21.9991382725
 30
0.0
 10
-56.8782512828
 20
22.000272493
 30
0.0
 10
-56.8780049253
 20
22.0002854041
 30
0.0
  0
SPLINE
  5
51C
100
AcDbEntity
  8
268140580
100
AcDbSpline
 62
7
  6
CONTINUOUS
 70
0
 71
3
 72
26
 73
22
 74
0
 42
0.0000001
 43
0.0000001
 44
0.0000000001
 40
0.0
 40
0.0
 40
0.0
 40
0.0
 40
0.000748808
 40
0.0023502882
 40
0.004812956
 40
0.0081313887
 40
0.0172858684
 40
0.0296616262
 40
0.0450807421
 40
0.0633314553
 40
0.084191737
 40
0.1074400938
 40
0.1602306038
 40
0.2201006193
 40
0.285682361
 40
0.3558417636
 40
0.4296679502
 40
0.5064167996
 40
0.666342575
 40
0.8318243455
 40
1.0
 40
1.0
 40
1.0
 40
1.0
 10
-52.6212802565
 20
-3.4000456915
 30
0.0
 10
-52.6212802565
 20
-3.4001506734
 30
0.0
 10
-52.6210690281
 20
-3.4004391019
 30
0.0
 10
-52.6206985057
 20
-3.4009772915
 30
0.0
 10
-52.6200262622
 20
-3.4017799611
 30
0.0
 10
-52.6186698744
 20
-3.4033664167
 30
0.0
 10
-52.6163297563
 20
-3.405954348
 30
0.0
 10
-52.6128154415
 20
-3.409757041
 30
0.0
 10
-52.6083913969
 20
-3.4144596027
 30
0.0
 10
-52.6031243733
 20
-3.4200004389
 30
0.0
 10
-52.5970758242
 20
-3.426313285
 30
0.0
 10
-52.5876486246
 20
-3.4360950653
 30
0.0
 10
-52.5743780716
 20
-3.4497683985
 30
0.0
 10
-52.5569211572
 20
-3.4676492301
 30
0.0
 10
-52.5377200072
 20
-3.4872302691
 30
0.0
 10
-52.5171131951
 20
-3.5081732347
 30
0.0
 10
-52.4953776194
 20
-3.5302019271
 30
0.0
 10
-52.4647662437
 20
-3.5611529307
 30
0.0
 10
-52.4250567349
 20
-3.6011787951
 30
0.0
 10
-52.3762377758
 20
-3.6502228453
 30
0.0
 10
-52.343186886
 20
-3.6833265531
 30
0.0
 10
-52.3265159785
 20
-3.7
 30
0.0
  0
SPLINE
  5
51D
100
AcDbEntity
  8
268140580
100
AcDbSpline
 62
250
  6
CONTINUOUS
 70
0
 71
3
 72
20
 73
16
 74
0
 42
0.0000001
 43
0.0000001
 44
0.0000000001
 40
0.0
 40
0.0
 40
0.0
 40
0.0
 40
0.1893920114
 40
0.3719296539
 40
0.5410374329
 40
0.6905969474
 40
0.7563267818
 40
0.8152099101
 40
0.8667160939
 40
0.9103808416
 40
0.9458091587
 40
0.9726879312
 40
0.9907869763
 40
0.9965015058
 40
1.0
 40
1.0
 40
1.0
 40
1.0
 10
-49.2177868505
 20
-22.0
 30
0.0
 10
-49.2177868505
 20
-22.0252339004
 30
0.0
 10
-49.2177057175
 20
-22.0747884901
 30
0.0
 10
-49.2173434945
 20
-22.1468735827
 30
0.0
 10
-49.2167555979
 20
-22.2136498812
 30
0.0
 10
-49.2160734414
 20
-22.2648612719
 30
0.0
 10
-49.215411715
 20
-22.3013851178
 30
0.0
 10
-49.2148968154
 20
-22.3248449334
 30
0.0
 10
-49.2143486391
 20
-22.3453635486
 30
0.0
 10
-49.2137701489
 20
-22.3627539868
 30
0.0
 10
-49.2131790438
 20
-22.3768629721
 30
0.0
 10
-49.2125624201
 20
-22.3875545753
 30
0.0
 10
-49.2120372319
 20
-22.3942970149
 30
0.0
 10
-49.2115370374
 20
-22.3978964523
 30
0.0
 10
-49.2112982824
 20
-22.3991084828
 30
0.0
 10
-49.2111380549
 20
-22.3995462055
 30
0.0
  0
LINE
  5
51E
100
AcDbEntity
  8
268140580
100
AcDbLine
 62
250
  6
CONTINUOUS
 10
-49.2111380549
 20
-22.3995462055
 30
0.0
 11
-49.2108058879
 21
-22.4
 31
0.0
  0
LINE
  5
51F
100
AcDbEntity
  8
268140580
100
AcDbLine
 62
250
  6
CONTINUOUS
 10
-49.2317402704
 20
22.3994518139
 30
0.0
 11
-49.2110694788
 21
22.3999905022
 31
0.0
  0
LINE
  5
520
100
AcDbEntity
  8
268140580
100
AcDbLine
 62
250
  6
CONTINUOUS
 10
-49.2108058879
 20
-22.4
 30
0.0
 11
-49.2315175912
 21
-22.3994533959
 31
0.0
  0
LINE
  5
521
100
AcDbEntity
  8
268140580
100
AcDbLine
 62
250
  6
CONTINUOUS
 10
-49.2315175912
 20
-22.3994533959
 30
0.0
 11
-49.2316743304
 21
-22.3994523782
 31
0.0
  0
SPLINE
  5
522
100
AcDbEntity
  8
268140580
100
AcDbSpline
 62
250
  6
CONTINUOUS
 70
0
 71
3
 72
23
 73
19
 74
0
 42
0.0000001
 43
0.0000001
 44
0.0000000001
 40
0.0
 40
0.0
 40
0.0
 40
0.0
 40
0.1949812521
 40
0.382448137
 40
0.5552276939
 40
0.6340012974
 40
0.7066731622
 40
0.7725403536
 40
0.8309730834
 40
0.8814092777
 40
0.9233634985
 40
0.9564398448
 40
0.9695456437
 40
0.9803245503
 40
0.9887525042
 40
0.9948146967
 40
0.9985225101
 40
1.0
 40
1.0
 40
1.0
 40
1.0
 10
-52.3265159785
 20
-2.3716114646
 30
0.0
 10
-52.3268562907
 20
-2.3521090492
 30
0.0
 10
-52.3274593678
 20
-2.3138546595
 30
0.0
 10
-52.3281402935
 20
-2.2583152828
 30
0.0
 10
-52.3285072676
 20
-2.2143983103
 30
0.0
 10
-52.3286567339
 20
-2.1819640379
 30
0.0
 10
-52.3286952082
 20
-2.160224704
 30
0.0
 10
-52.3286636596
 20
-2.1405200972
 30
0.0
 10
-52.3285627955
 20
-2.1230404415
 30
0.0
 10
-52.3283948247
 20
-2.1079526538
 30
0.0
 10
-52.3281617541
 20
-2.0954052819
 30
0.0
 10
-52.3279039052
 20
-2.0865873077
 30
0.0
 10
-52.3276512854
 20
-2.0809014058
 30
0.0
 10
-52.3274618494
 20
-2.0776598374
 30
0.0
 10
-52.3272648584
 20
-2.0751772004
 30
0.0
 10
-52.3270515534
 20
-2.0732819554
 30
0.0
 10
-52.3268588362
 20
-2.0723305166
 30
0.0
 10
-52.32666376
 20
-2.0716597356
 30
0.0
 10
-52.3265159785
 20
-2.0716571561
 30
0.0
  0
SPLINE
  5
523
100
AcDbEntity
  8
268140580
100
AcDbSpline
 62
250
  6
CONTINUOUS
 70
0
 71
3
 72
20
 73
16
 74
0
 42
0.0000001
 43
0.0000001
 44
0.0000000001
 40
0.0
 40
0.0
 40
0.0
 40
0.0
 40
0.1893922076
 40
0.3719300327
 40
0.541037948
 40
0.6905975341
 40
0.7563273749
 40
0.815210488
 40
0.8667166339
 40
0.9103813201
 40
0.945809552
 40
0.9726882155
 40
0.9907871284
 40
0.9965015839
 40
1.0
 40
1.0
 40
1.0
 40
1.0
 10
-49.2177868505
 20
22.0
 30
0.0
 10
-49.2177868505
 20
22.0252339288
 30
0.0
 10
-49.2177057173
 20
22.0747885735
 30
0.0
 10
-49.2173434935
 20
22.1468737413
 30
0.0
 10
-49.2167555956
 20
22.2136500979
 30
0.0
 10
-49.2160734377
 20
22.2648615218
 30
0.0
 10
-49.2154117098
 20
22.3013853793
 30
0.0
 10
-49.2148968092
 20
22.3248451908
 30
0.0
 10
-49.214348632
 20
22.3453637926
 30
0.0
 10
-49.2137701407
 20
22.3627542077
 30
0.0
 10
-49.213179035
 20
22.3768631604
 30
0.0
 10
-49.2125624098
 20
22.3875547204
 30
0.0
 10
-49.2120372226
 20
22.3942971194
 30
0.0
 10
-49.2115370261
 20
22.3978965179
 30
0.0
 10
-49.2112982716
 20
22.3991085288
 30
0.0
 10
-49.2111380424
 20
22.3995462398
 30
0.0
  0
LINE
  5
524
100
AcDbEntity
  8
268140580
100
AcDbLine
 62
250
  6
CONTINUOUS
 10
-49.2111380424
 20
22.3995462398
 30
0.0
 11
-49.2108058879
 21
22.4
 31
0.0
  0
SPLINE
  5
525
100
AcDbEntity
  8
268140580
100
AcDbSpline
 62
250
  6
CONTINUOUS
 70
0
 71
3
 72
23
 73
19
 74
0
 42
0.0000001
 43
0.0000001
 44
0.0000000001
 40
0.0
 40
0.0
 40
0.0
 40
0.0
 40
0.1949811686
 40
0.3824479836
 40
0.5552274855
 40
0.6340010701
 40
0.706672927
 40
0.7725401232
 40
0.8309728534
 40
0.8814090734
 40
0.9233633194
 40
0.956439698
 40
0.9695455224
 40
0.9803244605
 40
0.9887524256
 40
0.9948146428
 40
0.9985224936
 40
1.0
 40
1.0
 40
1.0
 40
1.0
 10
-52.3265159785
 20
2.3716114646
 30
0.0
 10
-52.3268562906
 20
2.3521090576
 30
0.0
 10
-52.3274593674
 20
2.3138546834
 30
0.0
 10
-52.328140293
 20
2.2583153277
 30
0.0
 10
-52.3285072673
 20
2.2143983697
 30
0.0
 10
-52.3286567336
 20
2.1819641057
 30
0.0
 10
-52.3286952081
 20
2.160224774
 30
0.0
 10
-52.32866366
 20
2.1405201676
 30
0.0
 10
-52.3285627959
 20
2.1230405088
 30
0.0
 10
-52.3283948258
 20
2.1079527161
 30
0.0
 10
-52.3281617551
 20
2.0954053359
 30
0.0
 10
-52.3279039069
 20
2.0865873533
 30
0.0
 10
-52.3276512875
 20
2.0809014426
 30
0.0
 10
-52.3274618525
 20
2.0776598671
 30
0.0
 10
-52.3272648596
 20
2.075177224
 30
0.0
 10
-52.3270515548
 20
2.0732819701
 30
0.0
 10
-52.3268588345
 20
2.0723305274
 30
0.0
 10
-52.3266637616
 20
2.0716597356
 30
0.0
 10
-52.3265159785
 20
2.0716571561
 30
0.0
  0
SPLINE
  5
526
100
AcDbEntity
  8
268140580
100
AcDbSpline
 62
7
  6
CONTINUOUS
 70
0
 71
3
 72
26
 73
22
 74
0
 42
0.0000001
 43
0.0000001
 44
0.0000000001
 40
0.0
 40
0.0
 40
0.0
 40
0.0
 40
0.1681756545
 40
0.333657425
 40
0.4935832004
 40
0.5703320498
 40
0.6441582364
 40
0.714317639
 40
0.7798993807
 40
0.8397693962
 40
0.8925599062
 40
0.915808263
 40
0.9366685447
 40
0.9549192579
 40
0.9703383738
 40
0.9827141316
 40
0.9918686113
 40
0.995187044
 40
0.9976497118
 40
0.999251192
 40
1.0
 40
1.0
 40
1.0
 40
1.0
 10
-52.3265159785
 20
3.7
 30
0.0
 10
-52.343186886
 20
3.6833265531
 30
0.0
 10
-52.3762377758
 20
3.6502228453
 30
0.0
 10
-52.4250567349
 20
3.6011787951
 30
0.0
 10
-52.4647662437
 20
3.5611529307
 30
0.0
 10
-52.4953776194
 20
3.5302019271
 30
0.0
 10
-52.5171131951
 20
3.5081732347
 30
0.0
 10
-52.5377200072
 20
3.4872302691
 30
0.0
 10
-52.5569211572
 20
3.4676492301
 30
0.0
 10
-52.5743780716
 20
3.4497683985
 30
0.0
 10
-52.5876486246
 20
3.4360950653
 30
0.0
 10
-52.5970758242
 20
3.426313285
 30
0.0
 10
-52.6031243733
 20
3.4200004389
 30
0.0
 10
-52.6083913969
 20
3.4144596027
 30
0.0
 10
-52.6128154415
 20
3.409757041
 30
0.0
 10
-52.6163297563
 20
3.405954348
 30
0.0
 10
-52.6186698744
 20
3.4033664167
 30
0.0
 10
-52.6200262622
 20
3.4017799611
 30
0.0
 10
-52.6206985057
 20
3.4009772915
 30
0.0
 10
-52.6210690281
 20
3.4004391019
 30
0.0
 10
-52.6212802565
 20
3.4001506734
 30
0.0
 10
-52.6212802565
 20
3.4000456915
 30
0.0
  0
SPLINE
  5
527
100
AcDbEntity
  8
268140580
100
AcDbSpline
 62
7
  6
CONTINUOUS
 70
0
 71
3
 72
26
 73
22
 74
0
 42
0.0000001
 43
0.0000001
 44
0.0000000001
 40
0.0
 40
0.0
 40
0.0
 40
0.0
 40
0.0007487995
 40
0.0023502619
 40
0.0048129167
 40
0.0081313549
 40
0.0172858445
 40
0.029661625
 40
0.0450808449
 40
0.0633317061
 40
0.0841921199
 40
0.1074405926
 40
0.1602311711
 40
0.2201010685
 40
0.2856825505
 40
0.3558416448
 40
0.4296673534
 40
0.5064158161
 40
0.6663408773
 40
0.8318230084
 40
1.0
 40
1.0
 40
1.0
 40
1.0
 10
-52.6212802565
 20
16.7999543085
 30
0.0
 10
-52.6212802565
 20
16.7998493278
 30
0.0
 10
-52.6210690326
 20
16.7995609016
 30
0.0
 10
-52.6206985129
 20
16.7990227162
 30
0.0
 10
-52.6200262722
 20
16.798220049
 30
0.0
 10
-52.618669883
 20
16.796633594
 30
0.0
 10
-52.6163297619
 20
16.7940456585
 30
0.0
 10
-52.6128154344
 20
16.790242951
 30
0.0
 10
-52.6083913629
 20
16.7855403618
 30
0.0
 10
-52.603124302
 20
16.7799994868
 30
0.0
 10
-52.5970757146
 20
16.7736866004
 30
0.0
 10
-52.5876484833
 20
16.7639047892
 30
0.0
 10
-52.5743779238
 20
16.7502314492
 30
0.0
 10
-52.5569210388
 20
16.7323506494
 30
0.0
 10
-52.5377199563
 20
16.7127696791
 30
0.0
 10
-52.5171132468
 20
16.6918268181
 30
0.0
 10
-52.4953777869
 20
16.6697982425
 30
0.0
 10
-52.464766567
 20
16.6388473961
 30
0.0
 10
-52.4250571321
 20
16.5988216045
 30
0.0
 10
-52.3762380761
 20
16.5497774562
 30
0.0
 10
-52.3431870185
 20
16.5166735795
 30
0.0
 10
-52.3265159785
 20
16.5
 30
0.0
  0
SPLINE
  5
528
100
AcDbEntity
  8
268140580
100
AcDbSpline
 62
250
  6
CONTINUOUS
 70
0
 71
3
 72
29
 73
25
 74
0
 42
0.0000001
 43
0.0000001
 44
0.0000000001
 40
0.0
 40
0.0
 40
0.0
 40
0.0
 40
0.1950863616
 40
0.3826653295
 40
0.4713744351
 40
0.5555434267
 40
0.634363406
 40
0.7070736739
 40
0.7729748417
 40
0.8314332367
 40
0.8818850048
 40
0.903952999
 40
0.9238437528
 40
0.9415100945
 40
0.9569071158
 40
0.9700000399
 40
0.9807570215
 40
0.9891504684
 40
0.9924553531
 40
0.9951630706
 40
0.9972717302
 40
0.9987797489
 40
0.9996873377
 40
1.0
 40
1.0
 40
1.0
 40
1.0
 10
-52.3265159708
 20
19.4359222411
 30
0.0
 10
-52.3266300383
 20
19.4707820453
 30
0.0
 10
-52.3268320695
 20
19.5391602372
 30
0.0
 10
-52.3270258189
 20
19.6233899409
 30
0.0
 10
-52.3271374726
 20
19.6877999349
 30
0.0
 10
-52.3271969813
 20
19.7327758377
 30
0.0
 10
-52.3272333286
 20
19.7748929313
 30
0.0
 10
-52.3272462186
 20
19.8137457608
 30
0.0
 10
-52.3272356559
 20
19.8489601787
 30
0.0
 10
-52.3272018429
 20
19.8801972101
 30
0.0
 10
-52.3271530175
 20
19.9036016543
 30
0.0
 10
-52.3271004006
 20
19.920114419
 30
0.0
 10
-52.3270571751
 20
19.9307687238
 30
0.0
 10
-52.3270086702
 20
19.9402310354
 30
0.0
 10
-52.3269548364
 20
19.9484783497
 30
0.0
 10
-52.326896579
 20
19.9554916817
 30
0.0
 10
-52.3268325604
 20
19.9612514204
 30
0.0
 10
-52.3267750664
 20
19.9652669611
 30
0.0
 10
-52.3267196901
 20
19.967835425
 30
0.0
 10
-52.3266887418
 20
19.9692971348
 30
0.0
 10
-52.3266354181
 20
19.9703982294
 30
0.0
 10
-52.3266336554
 20
19.9712702209
 30
0.0
 10
-52.3265355161
 20
19.9716429378
 30
0.0
 10
-52.3265718536
 20
19.9719789493
 30
0.0
 10
-52.3265159939
 20
19.9719800035
 30
0.0
  0
SPLINE
  5
529
100
AcDbEntity
  8
268140580
100
AcDbSpline
 62
250
  6
CONTINUOUS
 70
0
 71
3
 72
24
 73
20
 74
0
 42
0.0000001
 43
0.0000001
 44
0.0000000001
 40
0.0
 40
0.0
 40
0.0
 40
0.0
 40
0.1950126526
 40
0.3824957699
 40
0.5552736379
 40
0.6340444611
 40
0.7067096121
 40
0.772572116
 40
0.8309983013
 40
0.8814267796
 40
0.923376682
 40
0.9410430104
 40
0.956447653
 40
0.969551939
 40
0.980328238
 40
0.9887549053
 40
0.9948165379
 40
0.9985233221
 40
1.0
 40
1.0
 40
1.0
 40
1.0
 10
-49.2177868505
 20
-22.0
 30
0.0
 10
-49.2191469369
 20
-22.025959902
 30
0.0
 10
-49.2217289673
 20
-22.076881917
 30
0.0
 10
-49.2252186821
 20
-22.1508186375
 30
0.0
 10
-49.227749862
 20
-22.2092877507
 30
0.0
 10
-49.2294574579
 20
-22.2524722822
 30
0.0
 10
-49.2305198307
 20
-22.2814190925
 30
0.0
 10
-49.2313943785
 20
-22.3076588225
 30
0.0
 10
-49.2320734662
 20
-22.3309391814
 30
0.0
 10
-49.232551063
 20
-22.3510358572
 30
0.0
 10
-49.2327927783
 20
-22.3657038606
 30
0.0
 10
-49.2328689718
 20
-22.3757030402
 30
0.0
 10
-49.232870384
 20
-22.3818607157
 30
0.0
 10
-49.2328206137
 20
-22.3870903984
 30
0.0
 10
-49.2327194213
 20
-22.3914154628
 30
0.0
 10
-49.2325728282
 20
-22.3947301444
 30
0.0
 10
-49.2323773244
 20
-22.3972636774
 30
0.0
 10
-49.2321651321
 20
-22.3985393349
 30
0.0
 10
-49.2319368442
 20
-22.3994415119
 30
0.0
 10
-49.2317402704
 20
-22.3994518139
 30
0.0
  0
SPLINE
  5
52A
100
AcDbEntity
  8
268140580
100
AcDbSpline
 62
7
  6
CONTINUOUS
 70
0
 71
3
 72
26
 73
22
 74
0
 42
0.0000001
 43
0.0000001
 44
0.0000000001
 40
0.0
 40
0.0
 40
0.0
 40
0.0
 40
0.1681769916
 40
0.3336591227
 40
0.4935841839
 40
0.5703326466
 40
0.6441583552
 40
0.7143174495
 40
0.7798989315
 40
0.8397688289
 40
0.8925594074
 40
0.9158078801
 40
0.9366682939
 40
0.9549191551
 40
0.970338375
 40
0.9827141555
 40
0.9918686451
 40
0.9951870833
 40
0.9976497381
 40
0.9992512005
 40
1.0
 40
1.0
 40
1.0
 40
1.0
 10
-52.3265159785
 20
-16.5
 30
0.0
 10
-52.3431870185
 20
-16.5166735795
 30
0.0
 10
-52.3762380761
 20
-16.5497774562
 30
0.0
 10
-52.4250571321
 20
-16.5988216045
 30
0.0
 10
-52.464766567
 20
-16.6388473961
 30
0.0
 10
-52.4953777869
 20
-16.6697982425
 30
0.0
 10
-52.5171132468
 20
-16.6918268181
 30
0.0
 10
-52.5377199563
 20
-16.7127696791
 30
0.0
 10
-52.5569210388
 20
-16.7323506494
 30
0.0
 10
-52.5743779238
 20
-16.7502314492
 30
0.0
 10
-52.5876484833
 20
-16.7639047892
 30
0.0
 10
-52.5970757146
 20
-16.7736866004
 30
0.0
 10
-52.603124302
 20
-16.7799994868
 30
0.0
 10
-52.6083913629
 20
-16.7855403618
 30
0.0
 10
-52.6128154344
 20
-16.790242951
 30
0.0
 10
-52.6163297619
 20
-16.7940456585
 30
0.0
 10
-52.618669883
 20
-16.796633594
 30
0.0
 10
-52.6200262722
 20
-16.798220049
 30
0.0
 10
-52.6206985129
 20
-16.7990227162
 30
0.0
 10
-52.6210690326
 20
-16.7995609016
 30
0.0
 10
-52.6212802565
 20
-16.7998493278
 30
0.0
 10
-52.6212802565
 20
-16.7999543085
 30
0.0
  0
SPLINE
  5
52B
100
AcDbEntity
  8
268140580
100
AcDbSpline
 62
250
  6
CONTINUOUS
 70
0
 71
3
 72
29
 73
25
 74
0
 42
0.0000001
 43
0.0000001
 44
0.0000000001
 40
0.0
 40
0.0
 40
0.0
 40
0.0
 40
0.0003126623
 40
0.0012202511
 40
0.0027282698
 40
0.0048369294
 40
0.0075446469
 40
0.0108495316
 40
0.0192429785
 40
0.0299999601
 40
0.0430928842
 40
0.0584899055
 40
0.0761562472
 40
0.096047001
 40
0.1181149952
 40
0.1685667633
 40
0.2270251583
 40
0.2929263261
 40
0.365636594
 40
0.4444565733
 40
0.5286255649
 40
0.6173346705
 40
0.8049136384
 40
1.0
 40
1.0
 40
1.0
 40
1.0
 10
-52.3265159939
 20
-19.9719800035
 30
0.0
 10
-52.3265718536
 20
-19.9719789493
 30
0.0
 10
-52.3265355161
 20
-19.9716429378
 30
0.0
 10
-52.3266336554
 20
-19.9712702209
 30
0.0
 10
-52.3266354181
 20
-19.9703982294
 30
0.0
 10
-52.3266887418
 20
-19.9692971348
 30
0.0
 10
-52.3267196901
 20
-19.967835425
 30
0.0
 10
-52.3267750664
 20
-19.9652669611
 30
0.0
 10
-52.3268325604
 20
-19.9612514204
 30
0.0
 10
-52.326896579
 20
-19.9554916817
 30
0.0
 10
-52.3269548364
 20
-19.9484783497
 30
0.0
 10
-52.3270086702
 20
-19.9402310354
 30
0.0
 10
-52.3270571751
 20
-19.9307687238
 30
0.0
 10
-52.3271004006
 20
-19.920114419
 30
0.0
 10
-52.3271530175
 20
-19.9036016543
 30
0.0
 10
-52.3272018429
 20
-19.8801972101
 30
0.0
 10
-52.3272356559
 20
-19.8489601787
 30
0.0
 10
-52.3272462186
 20
-19.8137457608
 30
0.0
 10
-52.3272333286
 20
-19.7748929313
 30
0.0
 10
-52.3271969813
 20
-19.7327758377
 30
0.0
 10
-52.3271374726
 20
-19.6877999349
 30
0.0
 10
-52.3270258189
 20
-19.6233899409
 30
0.0
 10
-52.3268320695
 20
-19.5391602372
 30
0.0
 10
-52.3266300383
 20
-19.4707820453
 30
0.0
 10
-52.3265159708
 20
-19.4359222411
 30
0.0
  0
SPLINE
  5
52C
100
AcDbEntity
  8
268140580
100
AcDbSpline
 62
250
  6
CONTINUOUS
 70
0
 71
3
 72
24
 73
20
 74
0
 42
0.0000001
 43
0.0000001
 44
0.0000000001
 40
0.0
 40
0.0
 40
0.0
 40
0.0
 40
0.1950126596
 40
0.3824957738
 40
0.5552736398
 40
0.634044462
 40
0.7067096122
 40
0.7725721154
 40
0.8309983002
 40
0.8814267782
 40
0.9233766804
 40
0.9410430089
 40
0.9564476515
 40
0.9695519376
 40
0.980328237
 40
0.9887549044
 40
0.9948165372
 40
0.9985233219
 40
1.0
 40
1.0
 40
1.0
 40
1.0
 10
-49.2177868505
 20
22.0
 30
0.0
 10
-49.219146937
 20
22.025959903
 30
0.0
 10
-49.2217289674
 20
22.0768819184
 30
0.0
 10
-49.2252186822
 20
22.1508186392
 30
0.0
 10
-49.2277498621
 20
22.2092877516
 30
0.0
 10
-49.2294574579
 20
22.2524722826
 30
0.0
 10
-49.2305198307
 20
22.2814190925
 30
0.0
 10
-49.2313943785
 20
22.3076588223
 30
0.0
 10
-49.2320734662
 20
22.3309391809
 30
0.0
 10
-49.2325510629
 20
22.3510358567
 30
0.0
 10
-49.2327927783
 20
22.36570386
 30
0.0
 10
-49.2328689718
 20
22.3757030396
 30
0.0
 10
-49.232870384
 20
22.3818607151
 30
0.0
 10
-49.2328206138
 20
22.3870903978
 30
0.0
 10
-49.2327194213
 20
22.3914154623
 30
0.0
 10
-49.2325728282
 20
22.3947301441
 30
0.0
 10
-49.2323773245
 20
22.3972636771
 30
0.0
 10
-49.2321651321
 20
22.3985393348
 30
0.0
 10
-49.2319368443
 20
22.3994415119
 30
0.0
 10
-49.2317402704
 20
22.3994518139
 30
0.0
  0
SPLINE
  5
52D
100
AcDbEntity
  8
RACCORDO
100
AcDbSpline
 62
250
  6
CONTINUOUS
 70
0
 71
3
 72
29
 73
25
 74
0
 42
0.0000001
 43
0.0000001
 44
0.0000000001
 40
0.0
 40
0.0
 40
0.0
 40
0.0
 40
0.0005231824
 40
0.0015220556
 40
0.0030852626
 40
0.0052321002
 40
0.011295284
 40
0.0197220989
 40
0.0304997698
 40
0.0436062642
 40
0.059011561
 40
0.0766800588
 40
0.0965698667
 40
0.118633537
 40
0.1690667528
 40
0.2274964567
 40
0.2933614753
 40
0.3660286872
 40
0.4447992798
 40
0.5289155513
 40
0.6175682019
 40
0.7099040371
 40
0.8050350079
 40
1.0
 40
1.0
 40
1.0
 40
1.0
 10
-23.2038278501
 20
-8.8425997828
 30
0.0
 10
-23.2036534091
 20
-8.8425967379
 30
0.0
 10
-23.2032504313
 20
-8.8421561058
 30
0.0
 10
-23.2029260988
 20
-8.8412181643
 30
0.0
 10
-23.2025226954
 20
-8.8396791377
 30
0.0
 10
-23.2019703521
 20
-8.8364759945
 30
0.0
 10
-23.2013374439
 20
-8.8309538289
 30
0.0
 10
-23.2006727494
 20
-8.8225571382
 30
0.0
 10
-23.2000444831
 20
-8.8117985595
 30
0.0
 10
-23.199461629
 20
-8.7987098056
 30
0.0
 10
-23.1989272099
 20
-8.7833187989
 30
0.0
 10
-23.1984442129
 20
-8.7656633767
 30
0.0
 10
-23.1980143578
 20
-8.7457855555
 30
0.0
 10
-23.1974909192
 20
-8.7149813902
 30
0.0
 10
-23.1970052189
 20
-8.67132316
 30
0.0
 10
-23.1966688239
 20
-8.6130567776
 30
0.0
 10
-23.1965637751
 20
-8.5473750721
 30
0.0
 10
-23.196692029
 20
-8.4749102959
 30
0.0
 10
-23.1970536019
 20
-8.3963599443
 30
0.0
 10
-23.1976456053
 20
-8.3124801427
 30
0.0
 10
-23.1984628207
 20
-8.2240783888
 30
0.0
 10
-23.1994976044
 20
-8.1320055619
 30
0.0
 10
-23.2011684195
 20
-8.0044855055
 30
0.0
 10
-23.2026935152
 20
-7.9077578916
 30
0.0
 10
-23.2038278501
 20
-7.8427520876
 30
0.0
  0
SPLINE
  5
52E
100
AcDbEntity
  8
RACCORDO
100
AcDbSpline
 62
7
  6
CONTINUOUS
 70
0
 71
3
 72
16
 73
12
 74
0
 42
0.0000001
 43
0.0000001
 44
0.0000000001
 40
0.0
 40
0.0
 40
0.0
 40
0.0
 40
0.0624982723
 40
0.1249982973
 40
0.1874991477
 40
0.2500002093
 40
0.3749985257
 40
0.4999986836
 40
0.6249995492
 40
0.7500007091
 40
1.0
 40
1.0
 40
1.0
 40
1.0
 10
-20.5160445346
 20
-2.1493089089
 30
0.0
 10
-20.5687836034
 20
-2.1736363051
 30
0.0
 10
-20.6756968449
 20
-2.2192036166
 30
0.0
 10
-20.8386733807
 20
-2.2809224122
 30
0.0
 10
-21.0034517243
 20
-2.3376430784
 30
0.0
 10
-21.2248775129
 20
-2.4080187269
 30
0.0
 10
-21.5040828951
 20
-2.4880947675
 30
0.0
 10
-21.8414914295
 20
-2.5753614731
 30
0.0
 10
-22.1805411216
 20
-2.6559995747
 30
0.0
 10
-22.6341818935
 20
-2.7566028844
 30
0.0
 10
-22.9757567158
 20
-2.8258344737
 30
0.0
 10
-23.2038278501
 20
-2.8700830992
 30
0.0
  0
SPLINE
  5
52F
100
AcDbEntity
  8
RACCORDO
100
AcDbSpline
 62
7
  6
CONTINUOUS
 70
0
 71
3
 72
16
 73
12
 74
0
 42
0.0000001
 43
0.0000001
 44
0.0000000001
 40
0.0
 40
0.0
 40
0.0
 40
0.0
 40
0.2499992909
 40
0.3750004508
 40
0.5000013164
 40
0.6250014743
 40
0.7499997907
 40
0.8125008523
 40
0.8750017027
 40
0.9375017277
 40
1.0
 40
1.0
 40
1.0
 40
1.0
 10
-23.2038278501
 20
13.2700830992
 30
0.0
 10
-22.9757567158
 20
13.2258344737
 30
0.0
 10
-22.6341818935
 20
13.1566028844
 30
0.0
 10
-22.1805411216
 20
13.0559995747
 30
0.0
 10
-21.8414914295
 20
12.9753614731
 30
0.0
 10
-21.5040828951
 20
12.8880947675
 30
0.0
 10
-21.2248775129
 20
12.8080187269
 30
0.0
 10
-21.0034517244
 20
12.7376430784
 30
0.0
 10
-20.8386733807
 20
12.6809224123
 30
0.0
 10
-20.675696845
 20
12.6192036166
 30
0.0
 10
-20.5687836034
 20
12.5736363051
 30
0.0
 10
-20.5160445346
 20
12.5493089089
 30
0.0
  0
SPLINE
  5
530
100
AcDbEntity
  8
RACCORDO
100
AcDbSpline
 62
7
  6
CONTINUOUS
 70
0
 71
3
 72
16
 73
12
 74
0
 42
0.0000001
 43
0.0000001
 44
0.0000000001
 40
0.0
 40
0.0
 40
0.0
 40
0.0
 40
0.0624982723
 40
0.1249982973
 40
0.1874991477
 40
0.2500002093
 40
0.3749985257
 40
0.4999986836
 40
0.6249995492
 40
0.7500007091
 40
1.0
 40
1.0
 40
1.0
 40
1.0
 10
-20.5160445346
 20
11.6506910911
 30
0.0
 10
-20.5687836034
 20
11.6263636949
 30
0.0
 10
-20.6756968449
 20
11.5807963834
 30
0.0
 10
-20.8386733807
 20
11.5190775878
 30
0.0
 10
-21.0034517243
 20
11.4623569216
 30
0.0
 10
-21.2248775129
 20
11.3919812731
 30
0.0
 10
-21.5040828951
 20
11.3119052325
 30
0.0
 10
-21.8414914295
 20
11.2246385269
 30
0.0
 10
-22.1805411216
 20
11.1440004253
 30
0.0
 10
-22.6341818935
 20
11.0433971156
 30
0.0
 10
-22.9757567158
 20
10.9741655263
 30
0.0
 10
-23.2038278501
 20
10.9299169008
 30
0.0
  0
SPLINE
  5
531
100
AcDbEntity
  8
RACCORDO
100
AcDbSpline
 62
7
  6
CONTINUOUS
 70
0
 71
3
 72
16
 73
12
 74
0
 42
0.0000001
 43
0.0000001
 44
0.0000000001
 40
0.0
 40
0.0
 40
0.0
 40
0.0
 40
0.2499992909
 40
0.3750004508
 40
0.5000013164
 40
0.6250014743
 40
0.7499997907
 40
0.8125008523
 40
0.8750017027
 40
0.9375017277
 40
1.0
 40
1.0
 40
1.0
 40
1.0
 10
-23.2038278501
 20
-0.5299169008
 30
0.0
 10
-22.9757567158
 20
-0.5741655263
 30
0.0
 10
-22.6341818935
 20
-0.6433971156
 30
0.0
 10
-22.1805411216
 20
-0.7440004253
 30
0.0
 10
-21.8414914295
 20
-0.8246385269
 30
0.0
 10
-21.5040828951
 20
-0.9119052325
 30
0.0
 10
-21.2248775129
 20
-0.9919812731
 30
0.0
 10
-21.0034517244
 20
-1.0623569216
 30
0.0
 10
-20.8386733807
 20
-1.1190775877
 30
0.0
 10
-20.675696845
 20
-1.1807963834
 30
0.0
 10
-20.5687836034
 20
-1.2263636949
 30
0.0
 10
-20.5160445346
 20
-1.2506910911
 30
0.0
  0
SPLINE
  5
532
100
AcDbEntity
  8
DRAFT
100
AcDbSpline
 62
7
  6
CONTINUOUS
 70
0
 71
3
 72
25
 73
21
 74
0
 42
0.0000001
 43
0.0000001
 44
0.0000000001
 40
0.0
 40
0.0
 40
0.0
 40
0.0
 40
0.0981977843
 40
0.150803549
 40
0.2057095497
 40
0.2628176757
 40
0.3219913899
 40
0.3830780951
 40
0.4459229433
 40
0.5103781581
 40
0.5763112631
 40
0.6436131155
 40
0.7122100004
 40
0.7820813285
 40
0.8175408683
 40
0.8533583297
 40
0.8895473879
 40
0.9260982541
 40
0.962953584
 40
1.0
 40
1.0
 40
1.0
 40
1.0
 10
-22.2212802565
 20
14.4989125538
 30
0.0
 10
-22.2212802565
 20
14.442891797
 30
0.0
 10
-22.231963874
 20
14.3567476546
 30
0.0
 10
-22.2605717263
 20
14.2429165334
 30
0.0
 10
-22.289952808
 20
14.1536212939
 30
0.0
 10
-22.3261904023
 20
14.0628798681
 30
0.0
 10
-22.3688695828
 20
13.971080647
 30
0.0
 10
-22.4176986775
 20
13.8786880159
 30
0.0
 10
-22.4725477361
 20
13.7862150619
 30
0.0
 10
-22.533482865
 20
13.6942912807
 30
0.0
 10
-22.6008256897
 20
13.6037485209
 30
0.0
 10
-22.6752683479
 20
13.5157806206
 30
0.0
 10
-22.7580016776
 20
13.4323086125
 30
0.0
 10
-22.8351981253
 20
13.3694604372
 30
0.0
 10
-22.903231442
 20
13.3262047386
 30
0.0
 10
-22.9580231929
 20
13.298434881
 30
0.0
 10
-23.0163633666
 20
13.2771376811
 30
0.0
 10
-23.077782168
 20
13.2641887572
 30
0.0
 10
-23.1409955253
 20
13.2611585043
 30
0.0
 10
-23.1830801501
 20
13.2660577883
 30
0.0
 10
-23.2038278501
 20
13.2700830992
 30
0.0
  0
SPLINE
  5
533
100
AcDbEntity
  8
DRAFT
100
AcDbSpline
 62
7
  6
CONTINUOUS
 70
0
 71
3
 72
25
 73
21
 74
0
 42
0.0000001
 43
0.0000001
 44
0.0000000001
 40
0.0
 40
0.0
 40
0.0
 40
0.0
 40
0.0370464004
 40
0.0739017138
 40
0.1104525836
 40
0.1466416648
 40
0.1824591535
 40
0.2179187092
 40
0.287790049
 40
0.3563869471
 40
0.4236888041
 40
0.4896219147
 40
0.554077131
 40
0.6169219745
 40
0.6780086704
 40
0.7371823732
 40
0.7942904886
 40
0.8491964792
 40
0.9018022345
 40
1.0
 40
1.0
 40
1.0
 40
1.0
 10
-23.2038278501
 20
10.9299169008
 30
0.0
 10
-23.1830801588
 20
10.93394221
 30
0.0
 10
-23.1409955529
 20
10.9388414976
 30
0.0
 10
-23.0777822124
 20
10.9358112433
 30
0.0
 10
-23.0163634026
 20
10.9228623321
 30
0.0
 10
-22.9580231988
 20
10.9015651235
 30
0.0
 10
-22.9032314141
 20
10.8737952481
 30
0.0
 10
-22.8351980791
 20
10.8305395207
 30
0.0
 10
-22.7580016029
 20
10.7676913431
 30
0.0
 10
-22.6752682922
 20
10.6842192918
 30
0.0
 10
-22.6008256157
 20
10.5962513908
 30
0.0
 10
-22.5334827946
 20
10.5057086193
 30
0.0
 10
-22.4725476779
 20
10.4137848286
 30
0.0
 10
-22.4176986302
 20
10.3213118767
 30
0.0
 10
-22.3688695416
 20
10.2289192589
 30
0.0
 10
-22.326190369
 20
10.1371200538
 30
0.0
 10
-22.289952784
 20
10.0463786441
 30
0.0
 10
-22.2605717117
 20
9.9570834197
 30
0.0
 10
-22.23196387
 20
9.8432523184
 30
0.0
 10
-22.2212802565
 20
9.7571081922
 30
0.0
 10
-22.2212802565
 20
9.7010874462
 30
0.0
  0
SPLINE
  5
534
100
AcDbEntity
  8
DRAFT
100
AcDbSpline
 62
7
  6
CONTINUOUS
 70
0
 71
3
 72
25
 73
21
 74
0
 42
0.0000001
 43
0.0000001
 44
0.0000000001
 40
0.0
 40
0.0
 40
0.0
 40
0.0
 40
0.0981977843
 40
0.150803549
 40
0.2057095497
 40
0.2628176757
 40
0.3219913899
 40
0.3830780951
 40
0.4459229433
 40
0.5103781581
 40
0.5763112631
 40
0.6436131155
 40
0.7122100004
 40
0.7820813285
 40
0.8175408683
 40
0.8533583297
 40
0.8895473879
 40
0.9260982541
 40
0.962953584
 40
1.0
 40
1.0
 40
1.0
 40
1.0
 10
-22.2212802565
 20
0.6989125538
 30
0.0
 10
-22.2212802565
 20
0.642891797
 30
0.0
 10
-22.231963874
 20
0.5567476546
 30
0.0
 10
-22.2605717263
 20
0.4429165334
 30
0.0
 10
-22.289952808
 20
0.3536212939
 30
0.0
 10
-22.3261904023
 20
0.2628798681
 30
0.0
 10
-22.3688695828
 20
0.171080647
 30
0.0
 10
-22.4176986775
 20
0.0786880159
 30
0.0
 10
-22.4725477361
 20
-0.0137849381
 30
0.0
 10
-22.533482865
 20
-0.1057087193
 30
0.0
 10
-22.6008256897
 20
-0.1962514791
 30
0.0
 10
-22.6752683479
 20
-0.2842193794
 30
0.0
 10
-22.7580016776
 20
-0.3676913875
 30
0.0
 10
-22.8351981253
 20
-0.4305395628
 30
0.0
 10
-22.903231442
 20
-0.4737952614
 30
0.0
 10
-22.9580231929
 20
-0.501565119
 30
0.0
 10
-23.0163633666
 20
-0.5228623189
 30
0.0
 10
-23.077782168
 20
-0.5358112428
 30
0.0
 10
-23.1409955253
 20
-0.5388414957
 30
0.0
 10
-23.1830801501
 20
-0.5339422117
 30
0.0
 10
-23.2038278501
 20
-0.5299169008
 30
0.0
  0
SPLINE
  5
535
100
AcDbEntity
  8
DRAFT
100
AcDbSpline
 62
7
  6
CONTINUOUS
 70
0
 71
3
 72
25
 73
21
 74
0
 42
0.0000001
 43
0.0000001
 44
0.0000000001
 40
0.0
 40
0.0
 40
0.0
 40
0.0
 40
0.0370464004
 40
0.0739017138
 40
0.1104525836
 40
0.1466416648
 40
0.1824591535
 40
0.2179187092
 40
0.287790049
 40
0.3563869471
 40
0.4236888041
 40
0.4896219147
 40
0.554077131
 40
0.6169219745
 40
0.6780086704
 40
0.7371823732
 40
0.7942904886
 40
0.8491964792
 40
0.9018022345
 40
1.0
 40
1.0
 40
1.0
 40
1.0
 10
-23.2038278501
 20
-2.8700830992
 30
0.0
 10
-23.1830801588
 20
-2.86605779
 30
0.0
 10
-23.1409955529
 20
-2.8611585024
 30
0.0
 10
-23.0777822124
 20
-2.8641887567
 30
0.0
 10
-23.0163634026
 20
-2.8771376679
 30
0.0
 10
-22.9580231988
 20
-2.8984348765
 30
0.0
 10
-22.9032314141
 20
-2.9262047519
 30
0.0
 10
-22.8351980791
 20
-2.9694604793
 30
0.0
 10
-22.7580016029
 20
-3.0323086569
 30
0.0
 10
-22.6752682922
 20
-3.1157807082
 30
0.0
 10
-22.6008256157
 20
-3.2037486092
 30
0.0
 10
-22.5334827946
 20
-3.2942913807
 30
0.0
 10
-22.4725476779
 20
-3.3862151714
 30
0.0
 10
-22.4176986302
 20
-3.4786881233
 30
0.0
 10
-22.3688695416
 20
-3.5710807411
 30
0.0
 10
-22.326190369
 20
-3.6628799462
 30
0.0
 10
-22.289952784
 20
-3.7536213559
 30
0.0
 10
-22.2605717117
 20
-3.8429165803
 30
0.0
 10
-22.23196387
 20
-3.9567476816
 30
0.0
 10
-22.2212802565
 20
-4.0428918078
 30
0.0
 10
-22.2212802565
 20
-4.0989125538
 30
0.0
  0
SPLINE
  5
536
100
AcDbEntity
  8
RACCORDO
100
AcDbSpline
 62
250
  6
CONTINUOUS
 70
0
 71
3
 72
10
 73
6
 74
0
 42
0.0000001
 43
0.0000001
 44
0.0000000001
 40
0.0
 40
0.0
 40
0.0
 40
0.0
 40
0.5411889456
 40
0.7856878719
 40
1.0
 40
1.0
 40
1.0
 40
1.0
 10
-23.2038278501
 20
17.49081975
 30
0.0
 10
-23.2029058321
 20
17.7458987649
 30
0.0
 10
-23.2021536904
 20
18.1162204148
 30
0.0
 10
-23.2025932948
 20
18.5875543048
 30
0.0
 10
-23.2033115236
 20
18.8038066752
 30
0.0
 10
-23.2038278501
 20
18.9048179208
 30
0.0
  0
SPLINE
  5
537
100
AcDbEntity
  8
RACCORDO
100
AcDbSpline
 62
250
  6
CONTINUOUS
 70
0
 71
3
 72
17
 73
13
 74
0
 42
0.0000001
 43
0.0000001
 44
0.0000000001
 40
0.0
 40
0.0
 40
0.0
 40
0.0
 40
0.1451003611
 40
0.2872780534
 40
0.4241406651
 40
0.5538550599
 40
0.6754346233
 40
0.7890262798
 40
0.843342795
 40
0.8963401077
 40
0.9484091071
 40
1.0
 40
1.0
 40
1.0
 40
1.0
 10
-23.2038278501
 20
18.9048179208
 30
0.0
 10
-23.1394232087
 20
18.9040230004
 30
0.0
 10
-23.011838591
 20
18.8937478087
 30
0.0
 10
-22.8274921136
 20
18.8525803779
 30
0.0
 10
-22.6574752675
 20
18.7871643657
 30
0.0
 10
-22.5080203933
 20
18.6997226864
 30
0.0
 10
-22.3846467055
 20
18.5932528818
 30
0.0
 10
-22.3063239317
 20
18.4898438456
 30
0.0
 10
-22.2622324561
 20
18.4020043095
 30
0.0
 10
-22.2386879362
 20
18.3350681807
 30
0.0
 10
-22.2244592109
 20
18.2667958197
 30
0.0
 10
-22.2212802565
 20
18.2207198538
 30
0.0
 10
-22.2212802565
 20
18.1978188354
 30
0.0
  0
SPLINE
  5
538
100
AcDbEntity
  8
RACCORDO
100
AcDbSpline
 62
250
  6
CONTINUOUS
 70
0
 71
3
 72
17
 73
13
 74
0
 42
0.0000001
 43
0.0000001
 44
0.0000000001
 40
0.0
 40
0.0
 40
0.0
 40
0.0
 40
0.145100413
 40
0.2872781551
 40
0.4241408118
 40
0.5538552437
 40
0.6754348375
 40
0.7890265212
 40
0.8433430523
 40
0.896340366
 40
0.9484094044
 40
1.0
 40
1.0
 40
1.0
 40
1.0
 10
-23.2038278501
 20
19.0559999523
 30
0.0
 10
-23.1394231858
 20
19.0552050316
 30
0.0
 10
-23.0118385228
 20
19.0449298338
 30
0.0
 10
-22.8274919853
 20
19.0037623721
 30
0.0
 10
-22.6574750917
 20
18.938346319
 30
0.0
 10
-22.508020192
 20
18.8509045807
 30
0.0
 10
-22.3846465112
 20
18.7444347043
 30
0.0
 10
-22.3063237503
 20
18.6410256137
 30
0.0
 10
-22.2622323266
 20
18.5531860298
 30
0.0
 10
-22.2386878317
 20
18.4862498654
 30
0.0
 10
-22.2244591978
 20
18.4179776019
 30
0.0
 10
-22.2212802565
 20
18.3719017533
 30
0.0
 10
-22.2212802565
 20
18.3490008669
 30
0.0
  0
SPLINE
  5
539
100
AcDbEntity
  8
RACCORDO
100
AcDbSpline
 62
250
  6
CONTINUOUS
 70
0
 71
3
 72
26
 73
22
 74
0
 42
0.0000001
 43
0.0000001
 44
0.0000000001
 40
0.0
 40
0.0
 40
0.0
 40
0.0
 40
0.2249129151
 40
0.4244169635
 40
0.5140341186
 40
0.5966000995
 40
0.6719164223
 40
0.7398012982
 40
0.8000933168
 40
0.8526457938
 40
0.8973343913
 40
0.9340516909
 40
0.9493938008
 40
0.9627118173
 40
0.9739993108
 40
0.9832508011
 40
0.9904618779
 40
0.9956328076
 40
0.9987745384
 40
0.9996028694
 40
1.0
 40
1.0
 40
1.0
 40
1.0
 10
-23.2038278501
 20
19.0559999523
 30
0.0
 10
-23.2036033381
 20
19.0779611667
 30
0.0
 10
-23.2032072216
 20
19.1194028822
 30
0.0
 10
-23.20281381
 20
19.1695959315
 30
0.0
 10
-23.202592908
 20
19.2058898867
 30
0.0
 10
-23.2024780471
 20
19.2300575216
 30
0.0
 10
-23.2024080493
 20
19.252103201
 30
0.0
 10
-23.202382986
 20
19.2719739646
 30
0.0
 10
-23.2024027198
 20
19.2896218907
 30
0.0
 10
-23.2024667846
 20
19.3050046197
 30
0.0
 10
-23.2025748022
 20
19.3180850466
 30
0.0
 10
-23.2027063003
 20
19.3275314355
 30
0.0
 10
-23.2028403479
 20
19.333914171
 30
0.0
 10
-23.2029453081
 20
19.3378133209
 30
0.0
 10
-23.2030609385
 20
19.3411182597
 30
0.0
 10
-23.2031850108
 20
19.3438229161
 30
0.0
 10
-23.2033208263
 20
19.3459372079
 30
0.0
 10
-23.2034548042
 20
19.347433618
 30
0.0
 10
-23.2035961834
 20
19.3483404269
 30
0.0
 10
-23.2037055803
 20
19.3487287089
 30
0.0
 10
-23.2037890769
 20
19.3488478853
 30
0.0
 10
-23.2038278501
 20
19.3488485621
 30
0.0
  0
SPLINE
  5
53A
100
AcDbEntity
  8
RACCORDO
100
AcDbSpline
 62
250
  6
CONTINUOUS
 70
0
 71
3
 72
29
 73
25
 74
0
 42
0.0000001
 43
0.0000001
 44
0.0000000001
 40
0.0
 40
0.0
 40
0.0
 40
0.0
 40
0.1949649921
 40
0.2900959629
 40
0.3824317981
 40
0.4710844487
 40
0.5552007202
 40
0.6339713128
 40
0.7066385247
 40
0.7725035433
 40
0.8309332472
 40
0.881366463
 40
0.9034301333
 40
0.9233199412
 40
0.940988439
 40
0.9563937358
 40
0.9695002302
 40
0.9802779011
 40
0.988704716
 40
0.9947678998
 40
0.9969147374
 40
0.9984779444
 40
0.9994768176
 40
1.0
 40
1.0
 40
1.0
 40
1.0
 10
-31.7300064598
 20
-7.9915770888
 30
0.0
 10
-31.7288721248
 20
-8.0565828928
 30
0.0
 10
-31.7273470292
 20
-8.1533105068
 30
0.0
 10
-31.7256762141
 20
-8.2808305631
 30
0.0
 10
-31.7246414304
 20
-8.37290339
 30
0.0
 10
-31.7238242149
 20
-8.4613051439
 30
0.0
 10
-31.7232322116
 20
-8.5451849455
 30
0.0
 10
-31.7228706386
 20
-8.6237352972
 30
0.0
 10
-31.7227423847
 20
-8.6962000734
 30
0.0
 10
-31.7228474336
 20
-8.7618817788
 30
0.0
 10
-31.7231838286
 20
-8.8201481613
 30
0.0
 10
-31.7236695289
 20
-8.8638063914
 30
0.0
 10
-31.7241929674
 20
-8.8946105568
 30
0.0
 10
-31.7246228225
 20
-8.914488378
 30
0.0
 10
-31.7251058195
 20
-8.9321438001
 30
0.0
 10
-31.7256402387
 20
-8.9475348068
 30
0.0
 10
-31.7262230928
 20
-8.9606235607
 30
0.0
 10
-31.726851359
 20
-8.9713821395
 30
0.0
 10
-31.7275160536
 20
-8.9797788301
 30
0.0
 10
-31.7281489617
 20
-8.9853009957
 30
0.0
 10
-31.7287013051
 20
-8.988504139
 30
0.0
 10
-31.7291047085
 20
-8.9900431655
 30
0.0
 10
-31.729429041
 20
-8.990981107
 30
0.0
 10
-31.7298320188
 20
-8.9914217391
 30
0.0
 10
-31.7300064598
 20
-8.991424784
 30
0.0
  0
SPLINE
  5
53B
100
AcDbEntity
  8
RACCORDO
100
AcDbSpline
 62
250
  6
CONTINUOUS
 70
0
 71
3
 72
17
 73
13
 74
0
 42
0.0000001
 43
0.0000001
 44
0.0000000001
 40
0.0
 40
0.0
 40
0.0
 40
0.0
 40
0.1451003611
 40
0.2872780534
 40
0.4241406651
 40
0.5538550599
 40
0.6754346233
 40
0.7890262798
 40
0.843342795
 40
0.8963401077
 40
0.9484091071
 40
1.0
 40
1.0
 40
1.0
 40
1.0
 10
-33.2038278501
 20
-18.9771191671
 30
0.0
 10
-33.1394232087
 20
-18.9763242467
 30
0.0
 10
-33.011838591
 20
-18.9660490549
 30
0.0
 10
-32.8274921136
 20
-18.9248816242
 30
0.0
 10
-32.6574752675
 20
-18.8594656119
 30
0.0
 10
-32.5080203933
 20
-18.7720239326
 30
0.0
 10
-32.3846467055
 20
-18.665554128
 30
0.0
 10
-32.3063239317
 20
-18.5621450918
 30
0.0
 10
-32.2622324561
 20
-18.4743055557
 30
0.0
 10
-32.2386879362
 20
-18.407369427
 30
0.0
 10
-32.2244592109
 20
-18.3390970659
 30
0.0
 10
-32.2212802565
 20
-18.2930211
 30
0.0
 10
-32.2212802565
 20
-18.2701200817
 30
0.0
  0
SPLINE
  5
53C
100
AcDbEntity
  8
RACCORDO
100
AcDbSpline
 62
250
  6
CONTINUOUS
 70
0
 71
3
 72
10
 73
6
 74
0
 42
0.0000001
 43
0.0000001
 44
0.0000000001
 40
0.0
 40
0.0
 40
0.0
 40
0.0
 40
0.2143121281
 40
0.4588110544
 40
1.0
 40
1.0
 40
1.0
 40
1.0
 10
-33.2038278501
 20
-18.9771191671
 30
0.0
 10
-33.2033115236
 20
-18.8761079215
 30
0.0
 10
-33.2025932948
 20
-18.6598555511
 30
0.0
 10
-33.2021536904
 20
-18.1885216611
 30
0.0
 10
-33.2029058321
 20
-17.8182000112
 30
0.0
 10
-33.2038278501
 20
-17.5631209963
 30
0.0
  0
SPLINE
  5
53D
100
AcDbEntity
  8
RACCORDO
100
AcDbSpline
 62
250
  6
CONTINUOUS
 70
0
 71
3
 72
17
 73
13
 74
0
 42
0.0000001
 43
0.0000001
 44
0.0000000001
 40
0.0
 40
0.0
 40
0.0
 40
0.0
 40
0.1451003611
 40
0.2872780534
 40
0.4241406651
 40
0.5538550599
 40
0.6754346233
 40
0.7890262798
 40
0.843342795
 40
0.8963401077
 40
0.9484091071
 40
1.0
 40
1.0
 40
1.0
 40
1.0
 10
-33.2038278501
 20
-19.2305506016
 30
0.0
 10
-33.1394232087
 20
-19.2297556812
 30
0.0
 10
-33.011838591
 20
-19.2194804895
 30
0.0
 10
-32.8274921136
 20
-19.1783130587
 30
0.0
 10
-32.6574752675
 20
-19.1128970465
 30
0.0
 10
-32.5080203933
 20
-19.0254553672
 30
0.0
 10
-32.3846467055
 20
-18.9189855626
 30
0.0
 10
-32.3063239317
 20
-18.8155765264
 30
0.0
 10
-32.2622324561
 20
-18.7277369902
 30
0.0
 10
-32.2386879362
 20
-18.6608008615
 30
0.0
 10
-32.2244592109
 20
-18.5925285004
 30
0.0
 10
-32.2212802565
 20
-18.5464525346
 30
0.0
 10
-32.2212802565
 20
-18.5235515162
 30
0.0
  0
SPLINE
  5
53E
100
AcDbEntity
  8
RACCORDO
100
AcDbSpline
 62
250
  6
CONTINUOUS
 70
0
 71
3
 72
26
 73
22
 74
0
 42
0.0000001
 43
0.0000001
 44
0.0000000001
 40
0.0
 40
0.0
 40
0.0
 40
0.0
 40
0.0003971306
 40
0.0012254616
 40
0.0043671924
 40
0.0095381221
 40
0.0167491989
 40
0.0260006892
 40
0.0372881827
 40
0.0506061992
 40
0.0659483091
 40
0.1026656087
 40
0.1473542062
 40
0.1999066832
 40
0.2601987018
 40
0.3280835777
 40
0.4033999005
 40
0.4859658814
 40
0.5755830365
 40
0.7750870849
 40
1.0
 40
1.0
 40
1.0
 40
1.0
 10
-33.2038278501
 20
-19.5233992113
 30
0.0
 10
-33.2037890769
 20
-19.5233985345
 30
0.0
 10
-33.2037055803
 20
-19.5232793581
 30
0.0
 10
-33.2035961834
 20
-19.5228910762
 30
0.0
 10
-33.2034548042
 20
-19.5219842673
 30
0.0
 10
-33.2033208263
 20
-19.5204878572
 30
0.0
 10
-33.2031850108
 20
-19.5183735654
 30
0.0
 10
-33.2030609385
 20
-19.515668909
 30
0.0
 10
-33.2029453081
 20
-19.5123639702
 30
0.0
 10
-33.2028403479
 20
-19.5084648203
 30
0.0
 10
-33.2027063003
 20
-19.5020820848
 30
0.0
 10
-33.2025748022
 20
-19.4926356959
 30
0.0
 10
-33.2024667846
 20
-19.479555269
 30
0.0
 10
-33.2024027198
 20
-19.4641725399
 30
0.0
 10
-33.202382986
 20
-19.4465246139
 30
0.0
 10
-33.2024080493
 20
-19.4266538503
 30
0.0
 10
-33.2024780471
 20
-19.4046081709
 30
0.0
 10
-33.202592908
 20
-19.380440536
 30
0.0
 10
-33.20281381
 20
-19.3441465808
 30
0.0
 10
-33.2032072216
 20
-19.2939535315
 30
0.0
 10
-33.2036033381
 20
-19.252511816
 30
0.0
 10
-33.2038278501
 20
-19.2305506016
 30
0.0
  0
SPLINE
  5
53F
100
AcDbEntity
  8
RACCORDO
100
AcDbSpline
 62
250
  6
CONTINUOUS
 70
0
 71
3
 72
29
 73
25
 74
0
 42
0.0000001
 43
0.0000001
 44
0.0000000001
 40
0.0
 40
0.0
 40
0.0
 40
0.0
 40
0.0005231824
 40
0.0015220556
 40
0.0030852626
 40
0.0052321002
 40
0.011295284
 40
0.0197220989
 40
0.0304997698
 40
0.0436062642
 40
0.0590115611
 40
0.0766800588
 40
0.0965698667
 40
0.118633537
 40
0.1690667528
 40
0.2274964567
 40
0.2933614753
 40
0.3660286873
 40
0.4447992799
 40
0.5289155513
 40
0.6175682019
 40
0.7099040372
 40
0.8050350079
 40
1.0
 40
1.0
 40
1.0
 40
1.0
 10
-31.7300064598
 20
-19.4976735633
 30
0.0
 10
-31.7298320188
 20
-19.4976705184
 30
0.0
 10
-31.729429041
 20
-19.4972298863
 30
0.0
 10
-31.7291047085
 20
-19.4962919448
 30
0.0
 10
-31.7287013051
 20
-19.4947529182
 30
0.0
 10
-31.7281489617
 20
-19.491549775
 30
0.0
 10
-31.7275160536
 20
-19.4860276094
 30
0.0
 10
-31.726851359
 20
-19.4776309188
 30
0.0
 10
-31.7262230928
 20
-19.46687234
 30
0.0
 10
-31.7256402387
 20
-19.4537835861
 30
0.0
 10
-31.7251058195
 20
-19.4383925794
 30
0.0
 10
-31.7246228225
 20
-19.4207371573
 30
0.0
 10
-31.7241929674
 20
-19.400859336
 30
0.0
 10
-31.7236695289
 20
-19.3700551707
 30
0.0
 10
-31.7231838286
 20
-19.3263969405
 30
0.0
 10
-31.7228474336
 20
-19.2681305581
 30
0.0
 10
-31.7227423847
 20
-19.2024488526
 30
0.0
 10
-31.7228706386
 20
-19.1299840764
 30
0.0
 10
-31.7232322116
 20
-19.0514337248
 30
0.0
 10
-31.7238242149
 20
-18.9675539232
 30
0.0
 10
-31.7246414304
 20
-18.8791521693
 30
0.0
 10
-31.7256762141
 20
-18.7870793424
 30
0.0
 10
-31.7273470292
 20
-18.6595592861
 30
0.0
 10
-31.7288721248
 20
-18.5628316721
 30
0.0
 10
-31.7300064598
 20
-18.4978258681
 30
0.0
  0
SPLINE
  5
540
100
AcDbEntity
  8
RACCORDO
100
AcDbSpline
 62
7
  6
CONTINUOUS
 70
0
 71
3
 72
21
 73
17
 74
0
 42
0.0000001
 43
0.0000001
 44
0.0000000001
 40
0.0
 40
0.0
 40
0.0
 40
0.0
 40
0.1976489675
 40
0.3852645256
 40
0.5564350003
 40
0.7053621727
 40
0.7698971714
 40
0.8270873965
 40
0.8764792045
 40
0.9177035475
 40
0.9504967147
 40
0.9636936393
 40
0.9747648999
 40
0.9837528093
 40
0.9907647991
 40
1.0
 40
1.0
 40
1.0
 40
1.0
 10
-20.4951335337
 20
12.5443826453
 30
0.0
 10
-20.4768866786
 20
12.5442616743
 30
0.0
 10
-20.4413203232
 20
12.5437792999
 30
0.0
 10
-20.3899680608
 20
12.5423140247
 30
0.0
 10
-20.3431420812
 20
12.5401649458
 30
0.0
 10
-20.3077080176
 20
12.5377751598
 30
0.0
 10
-20.2828239191
 20
12.5354956983
 30
0.0
 10
-20.2671220053
 20
12.5337472172
 30
0.0
 10
-20.253600187
 20
12.531896771
 30
0.0
 10
-20.2423703402
 20
12.5299583781
 30
0.0
 10
-20.2345076041
 20
12.5281960291
 30
0.0
 10
-20.2294550682
 20
12.5266877446
 30
0.0
 10
-20.2265733667
 20
12.5256382116
 30
0.0
 10
-20.2242960811
 20
12.5245552525
 30
0.0
 10
-20.2223654084
 20
12.5233394682
 30
0.0
 10
-20.2212802565
 20
12.5219799396
 30
0.0
 10
-20.2212802565
 20
12.5211273316
 30
0.0
  0
SPLINE
  5
541
100
AcDbEntity
  8
RACCORDO
100
AcDbSpline
 62
7
  6
CONTINUOUS
 70
0
 71
3
 72
21
 73
17
 74
0
 42
0.0000001
 43
0.0000001
 44
0.0000000001
 40
0.0
 40
0.0
 40
0.0
 40
0.0
 40
0.1976489675
 40
0.3852645256
 40
0.5564350003
 40
0.7053621727
 40
0.7698971714
 40
0.8270873965
 40
0.8764792045
 40
0.9177035475
 40
0.9504967147
 40
0.9636936393
 40
0.9747648999
 40
0.9837528093
 40
0.9907647991
 40
1.0
 40
1.0
 40
1.0
 40
1.0
 10
-20.4951335337
 20
11.6556173547
 30
0.0
 10
-20.4768866786
 20
11.6557383257
 30
0.0
 10
-20.4413203232
 20
11.6562207001
 30
0.0
 10
-20.3899680608
 20
11.6576859753
 30
0.0
 10
-20.3431420812
 20
11.6598350542
 30
0.0
 10
-20.3077080176
 20
11.6622248402
 30
0.0
 10
-20.2828239191
 20
11.6645043017
 30
0.0
 10
-20.2671220053
 20
11.6662527828
 30
0.0
 10
-20.253600187
 20
11.668103229
 30
0.0
 10
-20.2423703402
 20
11.6700416219
 30
0.0
 10
-20.2345076041
 20
11.6718039709
 30
0.0
 10
-20.2294550682
 20
11.6733122554
 30
0.0
 10
-20.2265733667
 20
11.6743617884
 30
0.0
 10
-20.2242960811
 20
11.6754447475
 30
0.0
 10
-20.2223654084
 20
11.6766605318
 30
0.0
 10
-20.2212802565
 20
11.6780200604
 30
0.0
 10
-20.2212802565
 20
11.6788726684
 30
0.0
  0
SPLINE
  5
542
100
AcDbEntity
  8
DRAFT
100
AcDbSpline
 62
7
  6
CONTINUOUS
 70
0
 71
3
 72
37
 73
33
 74
0
 42
0.0000001
 43
0.0000001
 44
0.0000000001
 40
0.0
 40
0.0
 40
0.0
 40
0.0
 40
0.0625065783
 40
0.1250129165
 40
0.1875186331
 40
0.2500224329
 40
0.2812765072
 40
0.3125304156
 40
0.3437837507
 40
0.375035541
 40
0.4062820225
 40
0.4219103256
 40
0.4375377124
 40
0.4531628012
 40
0.4687831696
 40
0.4843951905
 40
0.499999863
 40
0.5156045473
 40
0.53121656
 40
0.5468369589
 40
0.5624620877
 40
0.5780895164
 40
0.5937178592
 40
0.6249643919
 40
0.656216202
 40
0.6874695458
 40
0.7187234645
 40
0.7499775475
 40
0.8124813544
 40
0.8749870774
 40
0.9374934194
 40
1.0
 40
1.0
 40
1.0
 40
1.0
 10
-23.2038278501
 20
-12.865623289
 30
0.0
 10
-23.1398321203
 20
-12.8468369002
 30
0.0
 10
-23.0121764394
 20
-12.8081051499
 30
0.0
 10
-22.8220415067
 20
-12.7457163903
 30
0.0
 10
-22.6337815554
 20
-12.6778590299
 30
0.0
 10
-22.4791599125
 20
-12.6152758839
 30
0.0
 10
-22.3576941356
 20
-12.5600974696
 30
0.0
 10
-22.2680835467
 20
-12.5155549367
 30
0.0
 10
-22.1805267791
 20
-12.4670618224
 30
0.0
 10
-22.0959802462
 20
-12.4134686783
 30
0.0
 10
-22.0293580439
 20
-12.3630803216
 30
0.0
 10
-21.9801257883
 20
-12.3180144038
 30
0.0
 10
-21.9459981701
 20
-12.281348429
 30
0.0
 10
-21.9158027333
 20
-12.2413349036
 30
0.0
 10
-21.8912407899
 20
-12.1975600401
 30
0.0
 10
-21.8746857746
 20
-12.1500596079
 30
0.0
 10
-21.8687450845
 20
-12.100000422
 30
0.0
 10
-21.8746854949
 20
-12.0499411928
 30
0.0
 10
-21.8912405025
 20
-12.0024407173
 30
0.0
 10
-21.9158022925
 20
-11.9586656995
 30
0.0
 10
-21.9459976983
 20
-11.9186519924
 30
0.0
 10
-21.9801253665
 20
-11.8819858856
 30
0.0
 10
-22.029357709
 20
-11.8369198492
 30
0.0
 10
-22.0959800853
 20
-11.7865315252
 30
0.0
 10
-22.1805266454
 20
-11.7329382744
 30
0.0
 10
-22.2680834231
 20
-11.6844450884
 30
0.0
 10
-22.3576940439
 20
-11.639902552
 30
0.0
 10
-22.4791598652
 20
-11.5847241692
 30
0.0
 10
-22.633781508
 20
-11.5221409614
 30
0.0
 10
-22.8220414905
 20
-11.454283631
 30
0.0
 10
-23.01217643
 20
-11.3918948506
 30
0.0
 10
-23.1398321179
 20
-11.3531631005
 30
0.0
 10
-23.2038278501
 20
-11.334376711
 30
0.0
  0
SPLINE
  5
543
100
AcDbEntity
  8
RACCORDO
100
AcDbSpline
 62
250
  6
CONTINUOUS
 70
0
 71
3
 72
27
 73
23
 74
0
 42
0.0000001
 43
0.0000001
 44
0.0000000001
 40
0.0
 40
0.0
 40
0.0
 40
0.0
 40
0.1949658489
 40
0.3824328223
 40
0.4710856896
 40
0.5552022102
 40
0.6339730685
 40
0.706640511
 40
0.772505696
 40
0.8309355142
 40
0.8813688599
 40
0.9034324554
 40
0.9233225137
 40
0.9409907997
 40
0.9563964498
 40
0.9695026359
 40
0.9802806725
 40
0.9887072235
 40
0.9947706545
 40
0.9984778782
 40
0.999476818
 40
1.0
 40
1.0
 40
1.0
 40
1.0
 10
-31.7300064598
 20
-9.4913486316
 30
0.0
 10
-31.7305736281
 20
-9.4588456779
 30
0.0
 10
-31.7315785674
 20
-9.3950879895
 30
0.0
 10
-31.7325422052
 20
-9.3165465786
 30
0.0
 10
-31.7330976071
 20
-9.2564845964
 30
0.0
 10
-31.7333935779
 20
-9.2145446904
 30
0.0
 10
-31.733574373
 20
-9.1752695009
 30
0.0
 10
-31.7336384982
 20
-9.1390371035
 30
0.0
 10
-31.7335859754
 20
-9.1061962589
 30
0.0
 10
-31.7334177717
 20
-9.0770630769
 30
0.0
 10
-31.7331749344
 20
-9.0552340053
 30
0.0
 10
-31.7329131933
 20
-9.0398318968
 30
0.0
 10
-31.7326983043
 20
-9.0298930658
 30
0.0
 10
-31.7324567146
 20
-9.0210651699
 30
0.0
 10
-31.7321897464
 20
-9.0133701555
 30
0.0
 10
-31.7318976573
 20
-9.0068244396
 30
0.0
 10
-31.7315852882
 20
-9.0014487921
 30
0.0
 10
-31.7312484857
 20
-8.9972411127
 30
0.0
 10
-31.7309124906
 20
-8.9942423216
 30
0.0
 10
-31.7305715743
 20
-8.9924446904
 30
0.0
 10
-31.7302950419
 20
-8.9916464752
 30
0.0
 10
-31.73009368
 20
-8.9914263064
 30
0.0
 10
-31.7300064598
 20
-8.991424784
 30
0.0
  0
SPLINE
  5
544
100
AcDbEntity
  8
RACCORDO
100
AcDbSpline
 62
7
  6
CONTINUOUS
 70
0
 71
3
 72
21
 73
17
 74
0
 42
0.0000001
 43
0.0000001
 44
0.0000000001
 40
0.0
 40
0.0
 40
0.0
 40
0.0
 40
0.1976489675
 40
0.3852645256
 40
0.5564350003
 40
0.7053621727
 40
0.7698971714
 40
0.8270873965
 40
0.8764792045
 40
0.9177035475
 40
0.9504967147
 40
0.9636936393
 40
0.9747648999
 40
0.9837528093
 40
0.9907647991
 40
1.0
 40
1.0
 40
1.0
 40
1.0
 10
-20.4951335337
 20
-1.2556173547
 30
0.0
 10
-20.4768866786
 20
-1.2557383257
 30
0.0
 10
-20.4413203232
 20
-1.2562207001
 30
0.0
 10
-20.3899680608
 20
-1.2576859753
 30
0.0
 10
-20.3431420812
 20
-1.2598350542
 30
0.0
 10
-20.3077080176
 20
-1.2622248402
 30
0.0
 10
-20.2828239191
 20
-1.2645043017
 30
0.0
 10
-20.2671220053
 20
-1.2662527828
 30
0.0
 10
-20.253600187
 20
-1.268103229
 30
0.0
 10
-20.2423703402
 20
-1.2700416219
 30
0.0
 10
-20.2345076041
 20
-1.2718039709
 30
0.0
 10
-20.2294550682
 20
-1.2733122554
 30
0.0
 10
-20.2265733667
 20
-1.2743617884
 30
0.0
 10
-20.2242960811
 20
-1.2754447475
 30
0.0
 10
-20.2223654084
 20
-1.2766605318
 30
0.0
 10
-20.2212802565
 20
-1.2780200604
 30
0.0
 10
-20.2212802565
 20
-1.2788726684
 30
0.0
  0
SPLINE
  5
545
100
AcDbEntity
  8
RACCORDO
100
AcDbSpline
 62
7
  6
CONTINUOUS
 70
0
 71
3
 72
21
 73
17
 74
0
 42
0.0000001
 43
0.0000001
 44
0.0000000001
 40
0.0
 40
0.0
 40
0.0
 40
0.0
 40
0.1976489675
 40
0.3852645256
 40
0.5564350003
 40
0.7053621727
 40
0.7698971714
 40
0.8270873965
 40
0.8764792045
 40
0.9177035475
 40
0.9504967147
 40
0.9636936393
 40
0.9747648999
 40
0.9837528093
 40
0.9907647991
 40
1.0
 40
1.0
 40
1.0
 40
1.0
 10
-20.4951335337
 20
-2.1443826453
 30
0.0
 10
-20.4768866786
 20
-2.1442616743
 30
0.0
 10
-20.4413203232
 20
-2.1437792999
 30
0.0
 10
-20.3899680608
 20
-2.1423140247
 30
0.0
 10
-20.3431420812
 20
-2.1401649458
 30
0.0
 10
-20.3077080176
 20
-2.1377751598
 30
0.0
 10
-20.2828239191
 20
-2.1354956983
 30
0.0
 10
-20.2671220053
 20
-2.1337472172
 30
0.0
 10
-20.253600187
 20
-2.131896771
 30
0.0
 10
-20.2423703402
 20
-2.1299583781
 30
0.0
 10
-20.2345076041
 20
-2.1281960291
 30
0.0
 10
-20.2294550682
 20
-2.1266877446
 30
0.0
 10
-20.2265733667
 20
-2.1256382116
 30
0.0
 10
-20.2242960811
 20
-2.1245552525
 30
0.0
 10
-20.2223654084
 20
-2.1233394682
 30
0.0
 10
-20.2212802565
 20
-2.1219799396
 30
0.0
 10
-20.2212802565
 20
-2.1211273316
 30
0.0
  0
SPLINE
  5
546
100
AcDbEntity
  8
RACCORDO
100
AcDbSpline
 62
250
  6
CONTINUOUS
 70
0
 71
3
 72
29
 73
25
 74
0
 42
0.0000001
 43
0.0000001
 44
0.0000000001
 40
0.0
 40
0.0
 40
0.0
 40
0.0
 40
0.0005231824
 40
0.0015220556
 40
0.0030852626
 40
0.0052321002
 40
0.011295284
 40
0.0197220989
 40
0.0304997698
 40
0.0436062642
 40
0.059011561
 40
0.0766800588
 40
0.0965698667
 40
0.118633537
 40
0.1690667528
 40
0.2274964567
 40
0.2933614753
 40
0.3660286872
 40
0.4447992798
 40
0.5289155513
 40
0.6175682019
 40
0.7099040371
 40
0.8050350079
 40
1.0
 40
1.0
 40
1.0
 40
1.0
 10
-23.2038278501
 20
-19.3488485621
 30
0.0
 10
-23.2036534091
 20
-19.3488455172
 30
0.0
 10
-23.2032504313
 20
-19.3484048851
 30
0.0
 10
-23.2029260988
 20
-19.3474669435
 30
0.0
 10
-23.2025226954
 20
-19.345927917
 30
0.0
 10
-23.2019703521
 20
-19.3427247738
 30
0.0
 10
-23.2013374439
 20
-19.3372026082
 30
0.0
 10
-23.2006727494
 20
-19.3288059175
 30
0.0
 10
-23.2000444831
 20
-19.3180473388
 30
0.0
 10
-23.199461629
 20
-19.3049585849
 30
0.0
 10
-23.1989272099
 20
-19.2895675782
 30
0.0
 10
-23.1984442129
 20
-19.271912156
 30
0.0
 10
-23.1980143578
 20
-19.2520343348
 30
0.0
 10
-23.1974909192
 20
-19.2212301695
 30
0.0
 10
-23.1970052189
 20
-19.1775719393
 30
0.0
 10
-23.196668824
 20
-19.1193055569
 30
0.0
 10
-23.1965637751
 20
-19.0536238514
 30
0.0
 10
-23.196692029
 20
-18.9811590752
 30
0.0
 10
-23.1970536019
 20
-18.9026087236
 30
0.0
 10
-23.1976456053
 20
-18.818728922
 30
0.0
 10
-23.1984628207
 20
-18.7303271681
 30
0.0
 10
-23.1994976044
 20
-18.6382543411
 30
0.0
 10
-23.2011684195
 20
-18.5107342848
 30
0.0
 10
-23.2026935152
 20
-18.4140066709
 30
0.0
 10
-23.2038278501
 20
-18.3490008669
 30
0.0
  0
SPLINE
  5
547
100
AcDbEntity
  8
DRAFT
100
AcDbSpline
 62
7
  6
CONTINUOUS
 70
0
 71
3
 72
29
 73
25
 74
0
 42
0.0000001
 43
0.0000001
 44
0.0000000001
 40
0.0
 40
0.0
 40
0.0
 40
0.0
 40
0.0179414259
 40
0.0358482472
 40
0.0537015314
 40
0.0714878487
 40
0.1067962446
 40
0.1418721586
 40
0.176735542
 40
0.2113972438
 40
0.2458593699
 40
0.2801173668
 40
0.3479747724
 40
0.4148836144
 40
0.4807201199
 40
0.5453462679
 40
0.6086110459
 40
0.6703522931
 40
0.7303997128
 40
0.788581364
 40
0.8447342549
 40
0.8987231331
 40
0.9504693338
 40
1.0
 40
1.0
 40
1.0
 40
1.0
 10
-23.2038278501
 20
-12.865623289
 30
0.0
 10
-23.1926769428
 20
-12.8623498631
 30
0.0
 10
-23.1699657937
 20
-12.8571588067
 30
0.0
 10
-23.1351996641
 20
-12.8541170463
 30
0.0
 10
-23.1004495615
 20
-12.8561189752
 30
0.0
 10
-23.0552619212
 20
-12.8651863202
 30
0.0
 10
-23.0019244437
 20
-12.887000477
 30
0.0
 10
-22.9443082188
 20
-12.9238482946
 30
0.0
 10
-22.8919736216
 20
-12.9670626574
 30
0.0
 10
-22.8438132233
 20
-13.0142321511
 30
0.0
 10
-22.7989264989
 20
-13.063969086
 30
0.0
 10
-22.7427977968
 20
-13.1323810764
 30
0.0
 10
-22.678087161
 20
-13.2207945945
 30
0.0
 10
-22.6068629658
 20
-13.329521897
 30
0.0
 10
-22.5413277451
 20
-13.4393324038
 30
0.0
 10
-22.4810658373
 20
-13.5494322525
 30
0.0
 10
-22.4260049453
 20
-13.6592636207
 30
0.0
 10
-22.3763052047
 20
-13.7683746193
 30
0.0
 10
-22.3323042941
 20
-13.8763645624
 30
0.0
 10
-22.2944890369
 20
-13.9828494256
 30
0.0
 10
-22.2634818214
 20
-14.087439424
 30
0.0
 10
-22.2400376417
 20
-14.1897346182
 30
0.0
 10
-22.225041032
 20
-14.2892890522
 30
0.0
 10
-22.2212802565
 20
-14.3549211235
 30
0.0
 10
-22.2212802565
 20
-14.3870043069
 30
0.0
  0
SPLINE
  5
548
100
AcDbEntity
  8
DRAFT
100
AcDbSpline
 62
7
  6
CONTINUOUS
 70
0
 71
3
 72
29
 73
25
 74
0
 42
0.0000001
 43
0.0000001
 44
0.0000000001
 40
0.0
 40
0.0
 40
0.0
 40
0.0
 40
0.0495305782
 40
0.1012767445
 40
0.1552655337
 40
0.2114182481
 40
0.269599837
 40
0.3296474769
 40
0.3913889707
 40
0.4546539789
 40
0.5192802793
 40
0.5851167625
 40
0.6520256392
 40
0.7198830574
 40
0.754141076
 40
0.7886032135
 40
0.823264902
 40
0.8581283241
 40
0.8932042024
 40
0.9285124915
 40
0.9462987345
 40
0.9641519349
 40
0.9820586551
 40
1.0
 40
1.0
 40
1.0
 40
1.0
 10
-22.2212802565
 20
-9.8129956931
 30
0.0
 10
-22.2212802565
 20
-9.8450788196
 30
0.0
 10
-22.2250410176
 20
-9.9107108119
 30
0.0
 10
-22.2400375893
 20
-10.0102651136
 30
0.0
 10
-22.2634817062
 20
-10.1125601231
 30
0.0
 10
-22.2944888256
 20
-10.2171499278
 30
0.0
 10
-22.3323039921
 20
-10.3236348113
 30
0.0
 10
-22.3763050125
 20
-10.4316249945
 30
0.0
 10
-22.4260049577
 20
-10.5407363962
 30
0.0
 10
-22.4810660123
 20
-10.6505681383
 30
0.0
 10
-22.5413280054
 20
-10.7606682098
 30
0.0
 10
-22.6068634356
 20
-10.8704787148
 30
0.0
 10
-22.6780875789
 20
-10.9792060723
 30
0.0
 10
-22.7427983584
 20
-11.0676195403
 30
0.0
 10
-22.798927022
 20
-11.1360315985
 30
0.0
 10
-22.8438137888
 20
-11.1857685206
 30
0.0
 10
-22.8919743809
 20
-11.232937845
 30
0.0
 10
-22.9443089335
 20
-11.2761522503
 30
0.0
 10
-23.0019251943
 20
-11.3129998961
 30
0.0
 10
-23.0552625728
 20
-11.3348139208
 30
0.0
 10
-23.100450071
 20
-11.3438811081
 30
0.0
 10
-23.1352000089
 20
-11.345882945
 30
0.0
 10
-23.1699659599
 20
-11.3428411509
 30
0.0
 10
-23.1926769931
 20
-11.3376501222
 30
0.0
 10
-23.2038278501
 20
-11.334376711
 30
0.0
  0
SPLINE
  5
549
100
AcDbEntity
  8
RACCORDO
100
AcDbSpline
 62
250
  6
CONTINUOUS
 70
0
 71
3
 72
24
 73
20
 74
0
 42
0.0000001
 43
0.0000001
 44
0.0000000001
 40
0.0
 40
0.0
 40
0.0
 40
0.0
 40
0.0020360915
 40
0.0037235219
 40
0.0059488893
 40
0.0120941238
 40
0.0205508081
 40
0.0444164209
 40
0.0774265602
 40
0.1193001987
 40
0.1696523878
 40
0.2280075515
 40
0.2938078062
 40
0.3664202194
 40
0.4451435048
 40
0.5292161617
 40
0.6178244978
 40
0.8051835424
 40
1.0
 40
1.0
 40
1.0
 40
1.0
 10
-23.2038278501
 20
-8.8425997828
 30
0.0
 10
-23.2034879492
 20
-8.8425938779
 30
0.0
 10
-23.2029643931
 20
-8.8431365498
 30
0.0
 10
-23.2025459315
 20
-8.8439984624
 30
0.0
 10
-23.201963875
 20
-8.8455947614
 30
0.0
 10
-23.2013479516
 20
-8.8483312661
 30
0.0
 10
-23.2003290769
 20
-8.8546800532
 30
0.0
 10
-23.1993212689
 20
-8.865546156
 30
0.0
 10
-23.1983381576
 20
-8.8820054672
 30
0.0
 10
-23.1975676367
 20
-8.9029025245
 30
0.0
 10
-23.1970048231
 20
-8.9280381663
 30
0.0
 10
-23.1966691044
 20
-8.9571730564
 30
0.0
 10
-23.1965636598
 20
-8.9900261408
 30
0.0
 10
-23.1966921568
 20
-9.0262798472
 30
0.0
 10
-23.1970540631
 20
-9.0655828749
 30
0.0
 10
-23.1976464838
 20
-9.1075540927
 30
0.0
 10
-23.1987578876
 20
-9.1676573895
 30
0.0
 10
-23.2006854652
 20
-9.2462380746
 30
0.0
 10
-23.2026943767
 20
-9.310016219
 30
0.0
 10
-23.2038278501
 20
-9.3425236303
 30
0.0
  0
SPLINE
  5
54A
100
AcDbEntity
  8
RACCORDO
100
AcDbSpline
 62
7
  6
CONTINUOUS
 70
0
 71
3
 72
9
 73
5
 74
0
 42
0.0000001
 43
0.0000001
 44
0.0000000001
 40
0.0
 40
0.0
 40
0.0
 40
0.0
 40
0.4993942827
 40
1.0
 40
1.0
 40
1.0
 40
1.0
 10
-20.4951335337
 20
11.6556173547
 30
0.0
 10
-20.4987303717
 20
11.6555935087
 30
0.0
 10
-20.5059496171
 20
11.6546650969
 30
0.0
 10
-20.5127704339
 20
11.6522013632
 30
0.0
 10
-20.5160445346
 20
11.6506910911
 30
0.0
  0
SPLINE
  5
54B
100
AcDbEntity
  8
RACCORDO
100
AcDbSpline
 62
7
  6
CONTINUOUS
 70
0
 71
3
 72
9
 73
5
 74
0
 42
0.0000001
 43
0.0000001
 44
0.0000000001
 40
0.0
 40
0.0
 40
0.0
 40
0.0
 40
0.4993942827
 40
1.0
 40
1.0
 40
1.0
 40
1.0
 10
-20.4951335337
 20
12.5443826453
 30
0.0
 10
-20.4987303717
 20
12.5444064913
 30
0.0
 10
-20.5059496171
 20
12.5453349031
 30
0.0
 10
-20.5127704339
 20
12.5477986368
 30
0.0
 10
-20.5160445346
 20
12.5493089089
 30
0.0
  0
SPLINE
  5
54C
100
AcDbEntity
  8
RACCORDO
100
AcDbSpline
 62
7
  6
CONTINUOUS
 70
0
 71
3
 72
9
 73
5
 74
0
 42
0.0000001
 43
0.0000001
 44
0.0000000001
 40
0.0
 40
0.0
 40
0.0
 40
0.0
 40
0.4993942827
 40
1.0
 40
1.0
 40
1.0
 40
1.0
 10
-20.4951335337
 20
-2.1443826453
 30
0.0
 10
-20.4987303717
 20
-2.1444064913
 30
0.0
 10
-20.5059496171
 20
-2.1453349031
 30
0.0
 10
-20.5127704339
 20
-2.1477986368
 30
0.0
 10
-20.5160445346
 20
-2.1493089089
 30
0.0
  0
SPLINE
  5
54D
100
AcDbEntity
  8
RACCORDO
100
AcDbSpline
 62
7
  6
CONTINUOUS
 70
0
 71
3
 72
9
 73
5
 74
0
 42
0.0000001
 43
0.0000001
 44
0.0000000001
 40
0.0
 40
0.0
 40
0.0
 40
0.0
 40
0.4993942827
 40
1.0
 40
1.0
 40
1.0
 40
1.0
 10
-20.4951335337
 20
-1.2556173547
 30
0.0
 10
-20.4987303717
 20
-1.2555935087
 30
0.0
 10
-20.5059496171
 20
-1.2546650969
 30
0.0
 10
-20.5127704339
 20
-1.2522013632
 30
0.0
 10
-20.5160445346
 20
-1.2506910911
 30
0.0
  0
ELLIPSE
  5
54E
100
AcDbEntity
  8
RACCORDO
100
AcDbEllipse
 62
7
  6
CONTINUOUS
 10
10.8999695344
 20
0.3000304656
 30
0.0
 11
0.1414644378
 21
-0.1414644378
 31
0.0
 40
0.9996954599
 41
-0.7852458701
 42
0.7852458701
  0
ELLIPSE
  5
54F
100
AcDbEntity
  8
RACCORDO
100
AcDbEllipse
 62
7
  6
CONTINUOUS
 10
-10.8999695344
 20
0.3000304656
 30
0.0
 11
0.1414644378
 21
0.1414644378
 31
0.0
 40
0.9996954599
 41
2.3563467834
 42
3.9268385237
  0
ELLIPSE
  5
550
100
AcDbEntity
  8
RACCORDO
100
AcDbEllipse
 62
7
  6
CONTINUOUS
 10
10.585959784
 20
21.649313827
 30
0.0
 11
0.1582391023
 21
0.4751033573
 31
0.0
 40
0.9984778551
 41
-1.2488325878
 42
0.3210503505
  0
ELLIPSE
  5
551
100
AcDbEntity
  8
RACCORDO
100
AcDbEllipse
 62
7
  6
CONTINUOUS
 10
-10.585959784
 20
21.649313827
 30
0.0
 11
-0.1582391023
 21
0.4751033573
 31
0.0
 40
0.9984778551
 41
-0.3210503505
 42
1.2488325878
  0
ELLIPSE
  5
552
100
AcDbEntity
  8
RACCORDO
100
AcDbEllipse
 62
7
  6
CONTINUOUS
 10
-10.8999695344
 20
-0.3000304656
 30
0.0
 11
0.1414644378
 21
-0.1414644378
 31
0.0
 40
0.9996954599
 41
2.3563467834
 42
3.9268385237
  0
ELLIPSE
  5
553
100
AcDbEntity
  8
RACCORDO
100
AcDbEllipse
 62
7
  6
CONTINUOUS
 10
10.8999695344
 20
-0.3000304656
 30
0.0
 11
0.1414644378
 21
0.1414644378
 31
0.0
 40
0.9996954599
 41
-0.7852458701
 42
0.7852458701
  0
ELLIPSE
  5
554
100
AcDbEntity
  8
RACCORDO
100
AcDbEllipse
 62
7
  6
CONTINUOUS
 10
-10.585959784
 20
-21.649313827
 30
0.0
 11
0.1582391023
 21
0.4751033573
 31
0.0
 40
0.9984778551
 41
-4.3904252414
 42
-2.8205423031
  0
ELLIPSE
  5
555
100
AcDbEntity
  8
RACCORDO
100
AcDbEllipse
 62
7
  6
CONTINUOUS
 10
10.585959784
 20
-21.649313827
 30
0.0
 11
-0.1582391023
 21
0.4751033573
 31
0.0
 40
0.9984778551
 41
-3.4626430041
 42
-1.8927600658
  0
ELLIPSE
  5
556
100
AcDbEntity
  8
0
100
AcDbEllipse
 62
7
  6
CONTINUOUS
 10
-10.8999695344
 20
-0.3000304656
 30
0.0
 11
0.1414644378
 21
-0.1414644378
 31
0.0
 40
0.9996954599
 41
2.3563467834
 42
3.9268385237
  0
ELLIPSE
  5
557
100
AcDbEntity
  8
0
100
AcDbEllipse
 62
7
  6
CONTINUOUS
 10
10.8999695344
 20
-0.3000304656
 30
0.0
 11
0.1414644378
 21
0.1414644378
 31
0.0
 40
0.9996954599
 41
-0.7852458701
 42
0.7852458701
  0
ELLIPSE
  5
558
100
AcDbEntity
  8
0
100
AcDbEllipse
 62
7
  6
CONTINUOUS
 10
-10.585959784
 20
-21.649313827
 30
0.0
 11
0.1582391023
 21
0.4751033573
 31
0.0
 40
0.9984778551
 41
-4.3904252414
 42
-2.8205423031
  0
ELLIPSE
  5
559
100
AcDbEntity
  8
0
100
AcDbEllipse
 62
7
  6
CONTINUOUS
 10
10.585959784
 20
-21.649313827
 30
0.0
 11
-0.1582391023
 21
0.4751033573
 31
0.0
 40
0.9984778551
 41
-3.4626430041
 42
-1.8927600658
  0
ELLIPSE
  5
55A
100
AcDbEntity
  8
0
100
AcDbEllipse
 62
7
  6
CONTINUOUS
 10
10.8999695344
 20
0.3000304656
 30
0.0
 11
0.1414644378
 21
-0.1414644378
 31
0.0
 40
0.9996954599
 41
-0.7852458701
 42
0.7852458701
  0
ELLIPSE
  5
55B
100
AcDbEntity
  8
0
100
AcDbEllipse
 62
7
  6
CONTINUOUS
 10
-10.8999695344
 20
0.3000304656
 30
0.0
 11
0.1414644378
 21
0.1414644378
 31
0.0
 40
0.9996954599
 41
2.3563467834
 42
3.9268385237
  0
ELLIPSE
  5
55C
100
AcDbEntity
  8
0
100
AcDbEllipse
 62
7
  6
CONTINUOUS
 10
10.585959784
 20
21.649313827
 30
0.0
 11
0.1582391023
 21
0.4751033573
 31
0.0
 40
0.9984778551
 41
-1.2488325878
 42
0.3210503505
  0
ELLIPSE
  5
55D
100
AcDbEntity
  8
0
100
AcDbEllipse
 62
7
  6
CONTINUOUS
 10
-10.585959784
 20
21.649313827
 30
0.0
 11
-0.1582391023
 21
0.4751033573
 31
0.0
 40
0.9984778551
 41
-0.3210503505
 42
1.2488325878
  0
ELLIPSE
  5
55E
100
AcDbEntity
  8
ASSI
100
AcDbEllipse
 62
7
  6
CONTINUOUS
 10
-0.478407357
 20
-0.0
 30
0.0
 11
0.0
 21
2.15
 31
0.0
 40
0.0058178298
 41
1.5242663282
 42
1.6173263254
  0
ELLIPSE
  5
55F
100
AcDbEntity
  8
ASSI
100
AcDbEllipse
 62
7
  6
CONTINUOUS
 10
0.478407357
 20
-0.0
 30
0.0
 11
0.0
 21
2.15
 31
0.0
 40
0.0058178298
 41
4.6658589818
 42
4.758918979
  0
ELLIPSE
  5
560
100
AcDbEntity
  8
268140580
100
AcDbEllipse
 62
7
  6
CONTINUOUS
 10
4.1040267792
 20
-23.8061088075
 30
0.0
 11
0.3
 21
0.0
 31
0.0
 40
0.0087268678
 41
-1.5707963268
 42
0.0000000026
  0
ELLIPSE
  5
561
100
AcDbEntity
  8
268140580
100
AcDbEllipse
 62
7
  6
CONTINUOUS
 10
-4.1040267792
 20
23.8061088075
 30
0.0
 11
0.3
 21
0.0
 31
0.0
 40
0.0087268678
 41
1.5707963268
 42
3.1415926562
  0
ELLIPSE
  5
562
100
AcDbEntity
  8
268140580
100
AcDbEllipse
 62
7
  6
CONTINUOUS
 10
-10.7499390688
 20
-22.0
 30
0.0
 11
0.4000609312
 21
-0.0
 31
0.0
 40
0.9998476952
 41
3.1415926536
 42
4.7123889804
  0
ELLIPSE
  5
563
100
AcDbEntity
  8
268140580
100
AcDbEllipse
 62
7
  6
CONTINUOUS
 10
10.7499390688
 20
-22.0
 30
0.0
 11
0.4000609312
 21
-0.0
 31
0.0
 40
0.9998476952
 41
-1.5707963268
 42
0.0
  0
ELLIPSE
  5
564
100
AcDbEntity
  8
268140580
100
AcDbEllipse
 62
7
  6
CONTINUOUS
 10
-10.7499390688
 20
22.0
 30
0.0
 11
0.4000609312
 21
0.0
 31
0.0
 40
0.9998476952
 41
1.5707963268
 42
3.1415926536
  0
ELLIPSE
  5
565
100
AcDbEntity
  8
268140580
100
AcDbEllipse
 62
7
  6
CONTINUOUS
 10
10.7499390688
 20
22.0
 30
0.0
 11
0.4000609312
 21
-0.0
 31
0.0
 40
0.9998476952
 41
0.0
 42
1.5707963268
  0
ELLIPSE
  5
566
100
AcDbEntity
  8
268140580
100
AcDbEllipse
 62
7
  6
CONTINUOUS
 10
-6.9792652592
 20
-0.0
 30
0.0
 11
0.0
 21
2.15
 31
0.0
 40
0.0057596502
 41
1.5242619658
 42
1.6173306878
  0
ELLIPSE
  5
567
100
AcDbEntity
  8
268140580
100
AcDbEllipse
 62
7
  6
CONTINUOUS
 10
6.9792652592
 20
-0.0
 30
0.0
 11
0.0
 21
2.15
 31
0.0
 40
0.0057596502
 41
-1.6173306878
 42
-1.5242619658
  0
ELLIPSE
  5
568
100
AcDbEntity
  8
268140580
100
AcDbEllipse
 62
7
  6
CONTINUOUS
 10
-4.1040267792
 20
-23.8061088075
 30
0.0
 11
0.3
 21
0.0
 31
0.0
 40
0.0087268678
 41
3.141592651
 42
4.7123889804
  0
ELLIPSE
  5
569
100
AcDbEntity
  8
268140580
100
AcDbEllipse
 62
7
  6
CONTINUOUS
 10
4.1040267792
 20
23.8061088075
 30
0.0
 11
0.3
 21
0.0
 31
0.0
 40
0.0087268678
 41
-0.0000000026
 42
1.5707963268
  0
ELLIPSE
  5
56A
100
AcDbEntity
  8
268140580
100
AcDbEllipse
 62
7
  6
CONTINUOUS
 10
4.1040267792
 20
22.3633145545
 30
0.0
 11
0.3
 21
0.0
 31
0.0
 40
0.0524077793
 41
-1.5707963268
 42
0.0000000025
  0
ELLIPSE
  5
56B
100
AcDbEntity
  8
268140580
100
AcDbEllipse
 62
7
  6
CONTINUOUS
 10
-10.7063014065
 20
-21.9208393927
 30
0.0
 11
-0.1265912819
 21
-0.3800826859
 31
0.0
 40
0.9984778551
 41
-1.2488325878
 42
0.3210503505
  0
ELLIPSE
  5
56C
100
AcDbEntity
  8
268140580
100
AcDbEllipse
 62
7
  6
CONTINUOUS
 10
10.7063014065
 20
-21.9208393927
 30
0.0
 11
-0.1265912819
 21
0.3800826859
 31
0.0
 40
0.9984778551
 41
2.8205423031
 42
4.3904252414
  0
ELLIPSE
  5
56D
100
AcDbEntity
  8
268140580
100
AcDbEllipse
 62
7
  6
CONTINUOUS
 10
-8.5
 20
-22.3344902759
 30
0.0
 11
0.25
 21
-0.0
 31
0.0
 40
0.0524077793
 41
-0.0
 42
1.5707963268
  0
ELLIPSE
  5
56E
100
AcDbEntity
  8
268140580
100
AcDbEllipse
 62
7
  6
CONTINUOUS
 10
-10.4
 20
-22.3344902759
 30
0.0
 11
0.25
 21
0.0
 31
0.0
 40
0.0524077793
 41
1.5707963268
 42
3.1415926536
  0
ELLIPSE
  5
56F
100
AcDbEntity
  8
268140580
100
AcDbEllipse
 62
7
  6
CONTINUOUS
 10
10.4
 20
-22.3344902759
 30
0.0
 11
0.25
 21
-0.0
 31
0.0
 40
0.0524077793
 41
-0.0
 42
1.5707963268
  0
ELLIPSE
  5
570
100
AcDbEntity
  8
268140580
100
AcDbEllipse
 62
7
  6
CONTINUOUS
 10
8.5
 20
-22.3344902759
 30
0.0
 11
0.25
 21
0.0
 31
0.0
 40
0.0524077793
 41
1.5707963268
 42
3.1415926536
  0
ELLIPSE
  5
571
100
AcDbEntity
  8
268140580
100
AcDbEllipse
 62
7
  6
CONTINUOUS
 10
10.4
 20
22.3344902759
 30
0.0
 11
0.25
 21
0.0
 31
0.0
 40
0.0524077793
 41
-1.5707963268
 42
-0.0
  0
ELLIPSE
  5
572
100
AcDbEntity
  8
268140580
100
AcDbEllipse
 62
7
  6
CONTINUOUS
 10
-10.7063014065
 20
21.9208393927
 30
0.0
 11
0.1265912819
 21
-0.3800826859
 31
0.0
 40
0.9984778551
 41
2.8205423031
 42
4.3904252414
  0
ELLIPSE
  5
573
100
AcDbEntity
  8
268140580
100
AcDbEllipse
 62
7
  6
CONTINUOUS
 10
8.5
 20
22.3344902759
 30
0.0
 11
0.25
 21
-0.0
 31
0.0
 40
0.0524077793
 41
-3.1415926536
 42
-1.5707963268
  0
ELLIPSE
  5
574
100
AcDbEntity
  8
268140580
100
AcDbEllipse
 62
7
  6
CONTINUOUS
 10
-8.5
 20
22.3344902759
 30
0.0
 11
0.25
 21
-0.0
 31
0.0
 40
0.0524077793
 41
-1.5707963268
 42
-0.0
  0
ELLIPSE
  5
575
100
AcDbEntity
  8
268140580
100
AcDbEllipse
 62
7
  6
CONTINUOUS
 10
-10.4
 20
22.3344902759
 30
0.0
 11
0.25
 21
0.0
 31
0.0
 40
0.0524077793
 41
-3.1415926536
 42
-1.5707963268
  0
ELLIPSE
  5
576
100
AcDbEntity
  8
268140580
100
AcDbEllipse
 62
7
  6
CONTINUOUS
 10
10.7063014065
 20
21.9208393927
 30
0.0
 11
0.1265912819
 21
0.3800826859
 31
0.0
 40
0.9984778551
 41
-1.2488325878
 42
0.3210503505
  0
ELLIPSE
  5
577
100
AcDbEntity
  8
268140580
100
AcDbEllipse
 62
7
  6
CONTINUOUS
 10
-4.1040267792
 20
-22.3633145545
 30
0.0
 11
0.3
 21
-0.0
 31
0.0
 40
0.0524077793
 41
1.5707963268
 42
3.1415926561
  0
ELLIPSE
  5
578
100
AcDbEntity
  8
268140580
100
AcDbEllipse
 62
7
  6
CONTINUOUS
 10
4.1040267792
 20
-22.3633145545
 30
0.0
 11
0.3
 21
0.0
 31
0.0
 40
0.0524077793
 41
-0.0000000025
 42
1.5707963268
  0
ELLIPSE
  5
579
100
AcDbEntity
  8
268140580
100
AcDbEllipse
 62
7
  6
CONTINUOUS
 10
-4.1040267792
 20
22.3633145545
 30
0.0
 11
0.3
 21
0.0
 31
0.0
 40
0.0524077793
 41
3.1415926511
 42
4.7123889804
  0
ELLIPSE
  5
57A
100
AcDbEntity
  8
CURVE
100
AcDbEllipse
 62
250
  6
CONTINUOUS
 10
441.2787097435
 20
-0.0
 30
0.0
 11
0.0
 21
500.0
 31
0.0
 40
1.0
 41
1.5413920898
 42
1.5423925076
  0
ELLIPSE
  5
57B
100
AcDbEntity
  8
CURVE
100
AcDbEllipse
 62
250
  6
CONTINUOUS
 10
441.2787097435
 20
0.0
 30
0.0
 11
0.0
 21
500.0
 31
0.0
 40
1.0
 41
7.8305794979
 42
7.8315797603
  0
ELLIPSE
  5
57C
100
AcDbEntity
  8
CURVE
100
AcDbEllipse
 62
250
  6
CONTINUOUS
 10
441.2787097435
 20
0.0
 30
0.0
 11
0.0
 21
500.0
 31
0.0
 40
1.0
 41
-4.6839851613
 42
-4.6829847434
  0
ENDSEC
  0
SECTION
  2
OBJECTS
  0
DICTIONARY
  5
C
100
AcDbDictionary
280
0
281
1
  3
ACAD_GROUP
350
D
  3
ACAD_MLINESTYLE
350
17
  3
ACAD_LAYOUT
350
1A
  3
ACAD_PLOTSETTINGS
350
19
  3
ACAD_PLOTSTYLENAME
350
E
  0
DICTIONARY
  5
D
102
{ACAD_REACTORS
330
C
102
}
100
AcDbDictionary
280
0
281
1
  0
ACDBDICTIONARYWDFLT
  5
E
102
{ACAD_REACTORS
330
C
102
}
100
AcDbDictionary
281
1
  3
Normal
350
F
100
AcDbDictionaryWithDefault
340
F
  0
DICTIONARY
  5
17
102
{ACAD_REACTORS
330
C
102
}
100
AcDbDictionary
280
0
281
1
  3
Standard
350
18
  0
DICTIONARY
  5
19
102
{ACAD_REACTORS
330
C
102
}
100
AcDbDictionary
281
1
  0
DICTIONARY
  5
1A
102
{ACAD_REACTORS
330
C
102
}
100
AcDbDictionary
281
1
  3
Model
350
57D
  3
Layout1
350
57E
  0
ACDBPLACEHOLDER
  5
F
102
{ACAD_REACTORS
330
E
102
}
  0
MLINESTYLE
  5
18
102
{ACAD_REACTORS
330
17
102
}
100
AcDbMlineStyle
  2
STANDARD
 70
0
  3

 62
256
 51
90.0
 52
90.0
 71
2
 49
0.5
 62
256
  6
BYLAYER
 49
-0.5
 62
256
  6
BYLAYER
  0
LAYOUT
  5
57D
102
{ACAD_REACTORS
330
1A
102
}
100
AcDbPlotSettings
  1

  2
none_device
  4
ISO_A4_(297.00_x_210.00_MM)
  6

 40
0.0
 41
0.0
 42
0.0
 43
0.0
 44
297.0
 45
210.0
 46
0.0
 47
0.0
 48
0.0
 49
0.0
140
0.0
141
0.0
142
1.0
143
1.0
 70
1024
 72
1
 73
0
 74
0
  7

 75
0
147
1.0
148
0.0
149
0.0
100
AcDbLayout
  1
Model
 70
0
 71
0
 10
0.0
 20
0.0
 11
297.0
 21
210.0
 12
0.0
 22
0.0
 32
0.0
 14
0.0
 24
0.0
 34
0.0
 15
0.0
 25
0.0
 35
0.0
146
0.0
 13
0.0
 23
0.0
 33
0.0
 16
1.0
 26
0.0
 36
0.0
 17
0.0
 27
1.0
 37
0.0
 76
0
330
221
345
0
346
0
  0
LAYOUT
  5
57E
102
{ACAD_REACTORS
330
1A
102
}
100
AcDbPlotSettings
  1

  2
none_device
  4
ISO_A4_(297.00_x_210.00_MM)
  6

 40
0.0
 41
0.0
 42
0.0
 43
0.0
 44
297.0
 45
210.0
 46
0.0
 47
0.0
 48
0.0
 49
0.0
140
0.0
141
0.0
142
1.0
143
1.0
 70
0
 72
1
 73
0
 74
0
  7

 75
0
147
1.0
148
0.0
149
0.0
100
AcDbLayout
  1
Layout1
 70
0
 71
1
 10
0.0
 20
0.0
 11
297.0
 21
210.0
 12
0.0
 22
0.0
 32
0.0
 14
0.0
 24
0.0
 34
0.0
 15
0.0
 25
0.0
 35
0.0
146
0.0
 13
0.0
 23
0.0
 33
0.0
 16
1.0
 26
0.0
 36
0.0
 17
0.0
 27
1.0
 37
0.0
 76
0
330
222
345
0
346
0
  0
ENDSEC
  0
EOF
