  0
SECTION
  2
HEADER
  9
$ACADVER
  1
AC1024
  9
$DWGCODEPAGE
  3
ANSI_1252
  9
$EXTMAX
 10
558.8
 20
431.8
 30
0.0
  9
$EXTMIN
 10
0.0
 20
0.0
 30
0.0
  9
$LIMMIN
 10
0.0
 20
0.0
  9
$LIMMAX
 10
558.8
 20
431.8
  9
$VIEWCTR
 10
279.4
 20
215.9
  9
$VIEWSIZE
 40
431.8
  9
$CLAYER
  8
0
  9
$LTSCALE
 40
30.734
  9
$CELTYPE
  6
BYLAYER
  9
$DIMSCALE
 40
1.0
  9
$DIMASZ
 40
3.0
  9
$DIMEXO
 40
0.5
  9
$DIMDLI
 40
21.2344
  9
$DIMEXE
 40
1.5
  9
$DIMCEN
 40
5.0292
  9
$DIMLFAC
 40
1.0
  9
$DIMBLK
  1
_FILLED
  9
$DIMALT
 70
0
  9
$DIMALTF
 40
0.0393700787
  9
$DIMTXT
 40
3.0
  9
$DIMTOL
 70
1
  9
$DIMLIM
 70
0
  9
$DIMTFAC
 40
1.0
  9
$DIMTP
 40
0.01
  9
$DIMTM
 40
0.01
  9
$DIMGAP
 40
0.625
  9
$DIMDSEP
 70
44
  9
$AUNITS
 70
0
  9
$PDMODE
 70
3
  9
$PDSIZE
 40
3.0
  9
$HANDSEED
  5
2F3
  9
$TILEMODE
 70
1
  9
$MEASUREMENT
 70
1
  9
$INSUNITS
 70
4
  0
ENDSEC
  0
SECTION
  2
CLASSES
  0
CLASS
  1
ACDBDICTIONARYWDFLT
  2
AcDbDictionaryWithDefault
  3
AutoCAD 2000
 90
0
 91
1
280
0
281
0
  0
CLASS
  1
ACDBPLACEHOLDER
  2
AcDbPlaceHolder
  3
AutoCAD 2000
 90
0
 91
1
280
0
281
0
  0
CLASS
  1
LAYOUT
  2
AcDbLayout
  3
AutoCAD 2000
 90
0
 91
0
280
0
281
0
  0
ENDSEC
  0
SECTION
  2
TABLES
  0
TABLE
  2
VPORT
  5
8
100
AcDbSymbolTable
 70
2
  0
VPORT
  5
1F4
100
AcDbSymbolTableRecord
100
AcDbViewportTableRecord
  2
*ACTIVE
 70
0
 10
0.0
 20
0.0
 11
1.0
 21
1.0
 12
279.4
 22
215.9
 13
0.0
 23
0.0
 14
1.0
 24
1.0
 15
0.0
 25
0.0
 16
0.0
 26
0.0
 36
1.0
 17
0.0
 27
0.0
 37
0.0
 40
431.8
 41
1.2941176471
 42
50.0
 43
0.0
 44
0.0
 50
0.0
 51
0.0
 71
0
 72
100
 73
1
 74
1
 75
0
 76
0
 77
0
 78
0
  0
ENDTAB
  0
TABLE
  2
LTYPE
  5
5
100
AcDbSymbolTable
 70
6
  0
LTYPE
  5
14
100
AcDbSymbolTableRecord
100
AcDbLinetypeTableRecord
  2
BYBLOCK
 70
0
  3

 72
65
 73
0
 40
0.0
  0
LTYPE
  5
15
100
AcDbSymbolTableRecord
100
AcDbLinetypeTableRecord
  2
BYLAYER
 70
0
  3

 72
65
 73
0
 40
0.0
  0
LTYPE
  5
16
100
AcDbSymbolTableRecord
100
AcDbLinetypeTableRecord
  2
CONTINUOUS
 70
64
  3
Solid line
 72
65
 73
0
 40
0.0
  0
LTYPE
  5
1F5
100
AcDbSymbolTableRecord
100
AcDbLinetypeTableRecord
  2
CENTER
 70
64
  3
____ _ ____ _ ____ _ ____ _ ____ _ ____ _ ____
 72
65
 73
4
 40
0.6
 49
0.375
 74
0
 49
-0.075
 74
0
 49
0.075
 74
0
 49
-0.075
 74
0
  0
LTYPE
  5
1F6
100
AcDbSymbolTableRecord
100
AcDbLinetypeTableRecord
  2
HIDDEN
 70
64
  3
- - - - - - - - - - - - - - - - - - - -
 72
65
 73
2
 40
0.2
 49
0.1
 74
0
 49
-0.1
 74
0
  0
LTYPE
  5
1F7
100
AcDbSymbolTableRecord
100
AcDbLinetypeTableRecord
  2
PHANTOM
 70
64
  3
_____ _ _ _____ _ _ _____ _ _ _____
 72
65
 73
6
 40
0.8
 49
0.45
 74
0
 49
-0.05
 74
0
 49
0.1
 74
0
 49
-0.05
 74
0
 49
0.1
 74
0
 49
-0.05
 74
0
  0
LTYPE
  5
1F8
100
AcDbSymbolTableRecord
100
AcDbLinetypeTableRecord
  2
DOT
 70
64
  3
. . . . . . . . . . . . . . . . . . . .
 72
65
 73
2
 40
0.2
 49
0.1
 74
0
 49
-0.1
 74
0
  0
LTYPE
  5
1F9
100
AcDbSymbolTableRecord
100
AcDbLinetypeTableRecord
  2
DASHED
 70
64
  3
- - - - - - - - - - - - - - - - - - - -
 72
65
 73
2
 40
0.2
 49
0.1
 74
0
 49
-0.1
 74
0
  0
ENDTAB
  0
TABLE
  2
LAYER
  5
2
100
AcDbSymbolTable
 70
36
  0
LAYER
  5
10
100
AcDbSymbolTableRecord
100
AcDbLayerTableRecord
  2
0
 70
0
 62
7
  6
CONTINUOUS
370
-3
390
F
  0
LAYER
  5
1FA
100
AcDbSymbolTableRecord
100
AcDbLayerTableRecord
  2
DEFAULT_1
 70
0
 62
7
  6
CENTER
370
-3
390
F
  0
LAYER
  5
1FB
100
AcDbSymbolTableRecord
100
AcDbLayerTableRecord
  2
DEFAULT_2
 70
0
 62
7
  6
HIDDEN
370
-3
390
F
  0
LAYER
  5
1FC
100
AcDbSymbolTableRecord
100
AcDbLayerTableRecord
  2
DEFAULT_3
 70
0
 62
7
  6
PHANTOM
370
-3
390
F
  0
LAYER
  5
1FD
100
AcDbSymbolTableRecord
100
AcDbLayerTableRecord
  2
ASSI
 70
0
 62
7
  6
CONTINUOUS
370
-3
390
F
  0
LAYER
  5
1FE
100
AcDbSymbolTableRecord
100
AcDbLayerTableRecord
  2
COORDINATE
 70
0
 62
7
  6
CONTINUOUS
370
-3
390
F
  0
LAYER
  5
1FF
100
AcDbSymbolTableRecord
100
AcDbLayerTableRecord
  2
COPY_PUBLISH
 70
0
 62
7
  6
CONTINUOUS
370
-3
390
F
  0
LAYER
  5
200
100
AcDbSymbolTableRecord
100
AcDbLayerTableRecord
  2
COSMETIC
 70
0
 62
7
  6
CONTINUOUS
370
-3
390
F
  0
LAYER
  5
201
100
AcDbSymbolTableRecord
100
AcDbLayerTableRecord
  2
COSMETICI
 70
0
 62
7
  6
CONTINUOUS
370
-3
390
F
  0
LAYER
  5
202
100
AcDbSymbolTableRecord
100
AcDbLayerTableRecord
  2
CURVE
 70
0
 62
7
  6
CONTINUOUS
370
-3
390
F
  0
LAYER
  5
203
100
AcDbSymbolTableRecord
100
AcDbLayerTableRecord
  2
DRAFT
 70
0
 62
7
  6
CONTINUOUS
370
-3
390
F
  0
LAYER
  5
204
100
AcDbSymbolTableRecord
100
AcDbLayerTableRecord
  2
IMPORT_IGES
 70
0
 62
7
  6
CONTINUOUS
370
-3
390
F
  0
LAYER
  5
205
100
AcDbSymbolTableRecord
100
AcDbLayerTableRecord
  2
INTFCLR_11
 70
0
 62
7
  6
CONTINUOUS
370
-3
390
F
  0
LAYER
  5
206
100
AcDbSymbolTableRecord
100
AcDbLayerTableRecord
  2
INTF_1
 70
0
 62
7
  6
CONTINUOUS
370
-3
390
F
  0
LAYER
  5
207
100
AcDbSymbolTableRecord
100
AcDbLayerTableRecord
  2
INTF_3
 70
0
 62
7
  6
CONTINUOUS
370
-3
390
F
  0
LAYER
  5
208
100
AcDbSymbolTableRecord
100
AcDbLayerTableRecord
  2
NOTE
 70
0
 62
7
  6
CONTINUOUS
370
-3
390
F
  0
LAYER
  5
209
100
AcDbSymbolTableRecord
100
AcDbLayerTableRecord
  2
PIANI
 70
0
 62
7
  6
CONTINUOUS
370
-3
390
F
  0
LAYER
  5
20A
100
AcDbSymbolTableRecord
100
AcDbLayerTableRecord
  2
PUNTI
 70
0
 62
7
  6
CONTINUOUS
370
-3
390
F
  0
LAYER
  5
20B
100
AcDbSymbolTableRecord
100
AcDbLayerTableRecord
  2
RACCORDO
 70
0
 62
7
  6
CONTINUOUS
370
-3
390
F
  0
LAYER
  5
20C
100
AcDbSymbolTableRecord
100
AcDbLayerTableRecord
  2
SIMBOLI
 70
0
 62
7
  6
CONTINUOUS
370
-3
390
F
  0
LAYER
  5
20D
100
AcDbSymbolTableRecord
100
AcDbLayerTableRecord
  2
SMUSSO
 70
0
 62
7
  6
CONTINUOUS
370
-3
390
F
  0
LAYER
  5
20E
100
AcDbSymbolTableRecord
100
AcDbLayerTableRecord
  2
SNAPLINE
 70
0
 62
7
  6
CONTINUOUS
370
-3
390
F
  0
LAYER
  5
20F
100
AcDbSymbolTableRecord
100
AcDbLayerTableRecord
  2
SUPERFICI
 70
0
 62
7
  6
CONTINUOUS
370
-3
390
F
  0
LAYER
  5
210
100
AcDbSymbolTableRecord
100
AcDbLayerTableRecord
  2
TRASH
 70
0
 62
7
  6
CONTINUOUS
370
-3
390
F
  0
LAYER
  5
211
100
AcDbSymbolTableRecord
100
AcDbLayerTableRecord
  2
___SHELL
 70
0
 62
7
  6
CONTINUOUS
370
-3
390
F
  0
ENDTAB
  0
TABLE
  2
STYLE
  5
3
100
AcDbSymbolTable
 70
1
  0
STYLE
  5
11
100
AcDbSymbolTableRecord
100
AcDbTextStyleTableRecord
  2
STANDARD
 70
0
 40
0.0
 41
0.8
 50
0.0
 71
0
 42
0.2
  3
txt
  4

  0
STYLE
  5
212
100
AcDbSymbolTableRecord
100
AcDbTextStyleTableRecord
  2
TEXTSTYLE_1
 70
0
 40
0.0
 41
0.8
 50
0.0
 71
0
 42
0.2
  3
gdt
  4

  0
ENDTAB
  0
TABLE
  2
VIEW
  5
6
100
AcDbSymbolTable
 70
0
  0
ENDTAB
  0
TABLE
  2
UCS
  5
7
100
AcDbSymbolTable
 70
0
  0
ENDTAB
  0
TABLE
  2
APPID
  5
9
100
AcDbSymbolTable
 70
1
  0
APPID
  5
213
100
AcDbSymbolTableRecord
100
AcDbRegAppTableRecord
  2
ACAD
 70
0
  0
ENDTAB
  0
TABLE
  2
BLOCK_RECORD
  5
1
100
AcDbSymbolTable
 70
0
  0
BLOCK_RECORD
  5
214
100
AcDbSymbolTableRecord
100
AcDbBlockTableRecord
  2
*Model_Space
  0
BLOCK_RECORD
  5
215
100
AcDbSymbolTableRecord
100
AcDbBlockTableRecord
  2
*Paper_Space
  0
BLOCK_RECORD
  5
216
100
AcDbSymbolTableRecord
100
AcDbBlockTableRecord
  2
_FILLED
  0
BLOCK_RECORD
  5
217
100
AcDbSymbolTableRecord
100
AcDbBlockTableRecord
  2
*D0
  0
BLOCK_RECORD
  5
218
100
AcDbSymbolTableRecord
100
AcDbBlockTableRecord
  2
*D1
  0
BLOCK_RECORD
  5
219
100
AcDbSymbolTableRecord
100
AcDbBlockTableRecord
  2
*D2
  0
ENDTAB
  0
TABLE
  2
DIMSTYLE
  5
A
100
AcDbSymbolTable
 70
1
100
AcDbDimStyleTable
 71
0
  0
DIMSTYLE
105
21A
100
AcDbSymbolTableRecord
100
AcDbDimStyleTableRecord
  2
STANDARD
 70
0
  3

  4

 40
1.0
 41
3.0
 42
0.5
 43
0.38
 44
1.5
 45
0.0
 46
0.0
 47
0.01
 48
0.01
140
3.0
141
0.09
142
0.0
143
25.4
144
1.0
145
0.0
146
1.0
147
0.625
 71
1
 72
0
 73
0
 74
0
 75
0
 76
0
 77
1
 78
8
 79
2
170
0
171
1
172
0
173
0
174
0
175
0
176
0
177
0
178
0
270
2
179
2
271
2
272
2
273
2
274
2
275
0
280
0
281
0
282
0
283
1
284
8
285
0
286
0
287
3
288
0
340
11
278
44
341
216
342
216
343
216
344
216
  0
DIMSTYLE
105
21B
100
AcDbSymbolTableRecord
100
AcDbDimStyleTableRecord
  2
DIMSTYLE_1
 70
0
  3

  4

 40
1.0
 41
3.0
 42
0.5
 43
0.38
 44
1.5
 45
0.0
 46
0.0
 47
0.0
 48
0.0
140
3.0
141
0.09
142
0.0
143
25.4
144
1.0
145
0.0
146
1.0
147
0.75
 71
0
 72
0
 73
0
 74
0
 75
0
 76
0
 77
1
 78
8
 79
2
170
0
171
1
172
0
173
0
174
0
175
0
176
0
177
0
178
0
270
2
179
2
271
1
272
1
273
2
274
2
275
0
280
0
281
0
282
0
283
1
284
8
285
0
286
0
287
3
288
0
340
11
278
44
341
216
342
216
343
216
344
216
  0
DIMSTYLE
105
21C
100
AcDbSymbolTableRecord
100
AcDbDimStyleTableRecord
  2
DIMSTYLE_2
 70
0
  3

  4

 40
1.0
 41
3.0
 42
0.5
 43
0.38
 44
1.5
 45
0.0
 46
0.0
 47
0.0
 48
0.0
140
3.0
141
0.09
142
0.0
143
25.4
144
1.0
145
0.0
146
1.0
147
0.75
 71
0
 72
0
 73
0
 74
0
 75
0
 76
0
 77
1
 78
8
 79
2
170
0
171
1
172
0
173
0
174
0
175
0
176
0
177
0
178
0
270
2
179
2
271
2
272
2
273
2
274
2
275
0
280
0
281
0
282
0
283
1
284
8
285
0
286
0
287
3
288
0
340
11
278
44
341
216
342
216
343
216
344
216
  0
ENDTAB
  0
ENDSEC
  0
SECTION
  2
BLOCKS
  0
BLOCK
  5
20
100
AcDbEntity
  8
0
100
AcDbBlockBegin
  2
*Model_Space
 70
0
 10
0.0
 20
0.0
 30
0.0
  3
*Model_Space
  1

  0
ENDBLK
  5
21
100
AcDbEntity
  8
0
100
AcDbBlockEnd
  0
BLOCK
  5
1C
100
AcDbEntity
  8
0
100
AcDbBlockBegin
  2
*Paper_Space
 70
0
 10
0.0
 20
0.0
 30
0.0
  3
*Paper_Space
  1

  0
ENDBLK
  5
1D
100
AcDbEntity
  8
0
100
AcDbBlockEnd
  0
BLOCK
  5
21D
100
AcDbEntity
  8
0
100
AcDbBlockBegin
  2
_FILLED
 70
64
 10
0.0
 20
0.0
  3
_FILLED
  1

  0
SOLID
  5
21E
100
AcDbEntity
  8
0
  6
BYBLOCK
 62
0
100
AcDbTrace
 10
0.0
 20
0.0
 11
-1.0
 21
0.3166666667
 12
-1.0
 22
-0.3166666667
 13
-1.0
 23
-0.3166666667
  0
ENDBLK
  5
21F
100
AcDbEntity
  8
0
  6
BYBLOCK
 62
0
100
AcDbBlockEnd
  0
BLOCK
  5
220
100
AcDbEntity
  8
0
100
AcDbBlockBegin
 62
7
  6
CONTINUOUS
  2
*D0
 70
65
 10
0.0
 20
0.0
  3
*D0
  1

  0
MTEXT
  5
221
100
AcDbEntity
  8
0
100
AcDbMText
 62
7
  6
CONTINUOUS
  7
STANDARD
 71
2
 72
1
 10
272.932687474
 20
261.5681338626
 30
0.0
 11
1.0
 21
0.0
 31
0.0
 73
2
 44
0.9
  1
{\ftxt;\W0.0001;\H0.0001;\~}{\ftxt;\W1.5714285714;\H3.0; }{\ftxt;\W0.0001;\H0.0001;\~}
 40
3.0
 41
7.0714285714
  0
LINE
  5
222
100
AcDbEntity
  8
0
100
AcDbLine
 62
7
  6
CONTINUOUS
 10
261.910109448
 20
247.8179050105
 11
261.910109448
 21
259.3181338626
  0
LINE
  5
223
100
AcDbEntity
  8
0
100
AcDbLine
 62
7
  6
CONTINUOUS
 10
283.9552655
 20
247.8179050105
 11
283.9552655
 21
259.3181338626
  0
LINE
  5
224
100
AcDbEntity
  8
0
100
AcDbLine
 62
7
  6
CONTINUOUS
 10
261.910109448
 20
257.8181338626
 11
272.932687474
 21
257.8181338626
  0
LINE
  5
225
100
AcDbEntity
  8
0
100
AcDbLine
 62
7
  6
CONTINUOUS
 10
283.9552655
 20
257.8181338626
 11
272.932687474
 21
257.8181338626
  0
INSERT
  5
226
100
AcDbEntity
  8
0
100
AcDbBlockReference
 62
7
  6
CONTINUOUS
  2
_FILLED
 10
261.910109448
 20
257.8181338626
 41
3.0
 42
3.0
 43
3.0
 50
180.0
  0
INSERT
  5
227
100
AcDbEntity
  8
0
100
AcDbBlockReference
 62
7
  6
CONTINUOUS
  2
_FILLED
 10
283.9552655
 20
257.8181338626
 41
3.0
 42
3.0
 43
3.0
  0
ENDBLK
  5
228
100
AcDbEntity
  8
0
  6
BYBLOCK
 62
0
100
AcDbBlockEnd
  0
BLOCK
  5
229
100
AcDbEntity
  8
0
100
AcDbBlockBegin
 62
7
  6
CONTINUOUS
  2
*D1
 70
65
 10
0.0
 20
0.0
  3
*D1
  1

  0
MTEXT
  5
22A
100
AcDbEntity
  8
0
100
AcDbMText
 62
7
  6
CONTINUOUS
  7
STANDARD
 71
2
 72
1
 10
290.2139930325
 20
225.7483028721
 30
0.0
 11
0.0
 21
1.0
 31
0.0
 73
2
 44
0.9
  1
{\ftxt;\W0.0001;\H0.0001;\~}{\ftxt;\W2.7142857143;\H3.0; }{\ftxt;\W0.0001;\H0.0001;\~}
 40
3.0
 41
12.2142857143
  0
LINE
  5
22B
100
AcDbEntity
  8
0
100
AcDbLine
 62
7
  6
CONTINUOUS
 10
283.9556460997
 20
247.8181338626
 11
295.4639930325
 21
247.8181338626
  0
LINE
  5
22C
100
AcDbEntity
  8
0
100
AcDbLine
 62
7
  6
CONTINUOUS
 10
283.9556460997
 20
203.6784718815
 11
295.4639930325
 21
203.6784718815
  0
LINE
  5
22D
100
AcDbEntity
  8
0
100
AcDbLine
 62
7
  6
CONTINUOUS
 10
293.9639930325
 20
247.8181338626
 11
293.9639930325
 21
225.7483028721
  0
LINE
  5
22E
100
AcDbEntity
  8
0
100
AcDbLine
 62
7
  6
CONTINUOUS
 10
293.9639930325
 20
203.6784718815
 11
293.9639930325
 21
225.7483028721
  0
INSERT
  5
22F
100
AcDbEntity
  8
0
100
AcDbBlockReference
 62
7
  6
CONTINUOUS
  2
_FILLED
 10
293.9639930325
 20
247.8181338626
 41
3.0
 42
3.0
 43
3.0
 50
90.0
  0
INSERT
  5
230
100
AcDbEntity
  8
0
100
AcDbBlockReference
 62
7
  6
CONTINUOUS
  2
_FILLED
 10
293.9639930325
 20
203.6784718815
 41
3.0
 42
3.0
 43
3.0
 50
270.0
  0
ENDBLK
  5
231
100
AcDbEntity
  8
0
  6
BYBLOCK
 62
0
100
AcDbBlockEnd
  0
BLOCK
  5
232
100
AcDbEntity
  8
0
100
AcDbBlockBegin
 62
7
  6
CONTINUOUS
  2
*D2
 70
65
 10
0.0
 20
0.0
  3
*D2
  1

  0
MTEXT
  5
233
100
AcDbEntity
  8
0
100
AcDbMText
 62
7
  6
CONTINUOUS
  7
STANDARD
 71
3
 72
1
 10
234.885126449
 20
261.5681338626
 30
0.0
 11
1.0
 21
0.0
 31
0.0
 73
2
 44
0.9
  1
{\ftxt;\W0.0001;\H0.0001;\~}{\ftxt;\W2.0;\H3.0; }{\ftxt;\W0.0001;\H0.0001;\~}
 40
3.0
 41
9.0
  0
LINE
  5
234
100
AcDbEntity
  8
0
100
AcDbLine
 62
7
  6
CONTINUOUS
 10
242.5650455808
 20
238.3128500622
 11
242.5650455808
 21
259.3181338626
  0
LINE
  5
235
100
AcDbEntity
  8
0
100
AcDbLine
 62
7
  6
CONTINUOUS
 10
237.2650455808
 20
226.2483028721
 11
237.2650455808
 21
259.3181338626
  0
LINE
  5
236
100
AcDbEntity
  8
0
100
AcDbLine
 62
7
  6
CONTINUOUS
 10
242.5650455808
 20
257.8181338626
 11
246.5650455808
 21
257.8181338626
  0
LINE
  5
237
100
AcDbEntity
  8
0
100
AcDbLine
 62
7
  6
CONTINUOUS
 10
246.5650455808
 20
257.8181338626
 11
239.9150455808
 21
257.8181338626
  0
LINE
  5
238
100
AcDbEntity
  8
0
100
AcDbLine
 62
7
  6
CONTINUOUS
 10
237.2650455808
 20
257.8181338626
 11
228.885126449
 21
257.8181338626
  0
LINE
  5
239
100
AcDbEntity
  8
0
100
AcDbLine
 62
7
  6
CONTINUOUS
 10
228.885126449
 20
257.8181338626
 11
239.9150455808
 21
257.8181338626
  0
INSERT
  5
23A
100
AcDbEntity
  8
0
100
AcDbBlockReference
 62
7
  6
CONTINUOUS
  2
_FILLED
 10
242.5650455808
 20
257.8181338626
 41
3.0
 42
3.0
 43
3.0
 50
180.0
  0
INSERT
  5
23B
100
AcDbEntity
  8
0
100
AcDbBlockReference
 62
7
  6
CONTINUOUS
  2
_FILLED
 10
237.2650455808
 20
257.8181338626
 41
3.0
 42
3.0
 43
3.0
  0
ENDBLK
  5
23C
100
AcDbEntity
  8
0
  6
BYBLOCK
 62
0
100
AcDbBlockEnd
  0
ENDSEC
  0
SECTION
  2
ENTITIES
  0
DIMENSION
  5
23D
100
AcDbEntity
  8
0
100
AcDbDimension
 62
7
  6
CONTINUOUS
  2
*D0
 10
283.9552655
 20
257.8181338626
 11
272.504111615
 21
257.8181338626
 70
160
 71
2
 72
2
 41
0.9
 42
22.045156052
  1
{\ftxt;\W0.0001;\H0.0001;\~}{\ftxt;\W1.5714285714;\H3.0; }{\ftxt;\W0.0001;\H0.0001;\~}
  3
DIMSTYLE_1
100
AcDbAlignedDimension
 13
261.910109448
 23
247.3179050105
 14
283.9552655
 24
247.3179050105
100
AcDbRotatedDimension
  0
DIMENSION
  5
23E
100
AcDbEntity
  8
0
100
AcDbDimension
 62
7
  6
CONTINUOUS
  2
*D1
 10
293.9639930325
 20
203.6784718815
 11
293.9639930325
 21
225.3197366515
 70
160
 71
2
 72
2
 41
0.9
 42
44.139661981
  1
{\ftxt;\W0.0001;\H0.0001;\~}{\ftxt;\W2.7142857143;\H3.0; }{\ftxt;\W0.0001;\H0.0001;\~}
  3
DIMSTYLE_1
100
AcDbAlignedDimension
 13
283.4556460997
 23
247.8181338626
 14
283.4556460997
 24
203.6784718815
 50
270.0
100
AcDbRotatedDimension
  0
DIMENSION
  5
23F
100
AcDbEntity
  8
0
100
AcDbDimension
 62
7
  6
CONTINUOUS
  2
*D2
 10
237.2650455808
 20
257.8181338626
 11
231.4565612976
 21
257.8181338626
 70
160
 71
3
 72
2
 41
0.9
 42
5.3
  1
{\ftxt;\W0.0001;\H0.0001;\~}{\ftxt;\W2.0;\H3.0; }{\ftxt;\W0.0001;\H0.0001;\~}
  3
DIMSTYLE_2
100
AcDbAlignedDimension
 13
242.5650455808
 23
237.8128500622
 14
237.2650455808
 24
225.7483028721
 50
180.0
100
AcDbRotatedDimension
  0
LWPOLYLINE
  5
240
100
AcDbEntity
  8
0
100
AcDbPolyline
 62
250
  6
CONTINUOUS
 90
14
 70
0
 10
261.9500144349
 20
246.2902087089
 10
261.9535938593
 20
246.2923346011
 10
261.9624912612
 20
246.2944377188
 10
261.9766113435
 20
246.2964955282
 10
261.9958028522
 20
246.2984859798
 10
262.0198601918
 20
246.3003877471
 10
262.0485256247
 20
246.3021804552
 10
262.0814920428
 20
246.3038448967
 10
262.1184062488
 20
246.3053632361
 10
262.1588727284
 20
246.3067192039
 10
262.2024579176
 20
246.3078982697
 10
262.2486948291
 20
246.3088878004
 10
262.2970880361
 20
246.3096771953
 10
262.3471190187
 20
246.3102579968
  0
LWPOLYLINE
  5
241
100
AcDbEntity
  8
0
100
AcDbPolyline
 62
250
  6
CONTINUOUS
 90
16
 70
0
 10
261.9500144349
 20
205.2063970156
 10
261.9535939379
 20
205.2042711049
 10
261.9624915276
 20
205.2021679723
 10
261.9766118706
 20
205.2001101519
 10
261.9958036744
 20
205.1981196921
 10
262.0198613082
 20
205.1962179197
 10
262.0485270063
 20
205.1944252114
 10
262.0814936297
 20
205.1927607752
 10
262.1184079573
 20
205.1912424445
 10
262.1588744701
 20
205.1898864877
 10
262.2024595892
 20
205.1887074331
 10
262.2486963214
 20
205.1877179137
 10
262.2970892628
 20
205.1869285317
 10
262.3471199066
 20
205.1863477451
 10
262.398252199
 20
205.1859817765
 10
283.4154366655
 20
205.1858345472
  0
LINE
  5
242
100
AcDbEntity
  8
0
100
AcDbLine
 62
7
  6
CONTINUOUS
 10
262.4097288482
 20
203.6784718815
 11
283.4556460997
 21
203.6784718815
  0
LINE
  5
243
100
AcDbEntity
  8
0
100
AcDbLine
 62
250
  6
CONTINUOUS
 10
283.4319634361
 20
203.7495776501
 11
262.4334115118
 21
203.7495776501
  0
LINE
  5
244
100
AcDbEntity
  8
0
100
AcDbLine
 62
250
  6
CONTINUOUS
 10
283.5182563864
 20
205.1863477553
 11
283.4154366655
 21
205.1858345364
  0
LWPOLYLINE
  5
245
100
AcDbEntity
  8
0
100
AcDbPolyline
 62
250
  6
CONTINUOUS
 90
16
 70
0
 10
261.9334876642
 20
204.2488924175
 10
261.9362707512
 20
204.1967306851
 10
261.9444941748
 20
204.1451396638
 10
261.9580679774
 20
204.0946839324
 10
261.9768436512
 20
204.0459156482
 10
262.0006157582
 20
203.9993685151
 10
262.0291241743
 20
203.9555519409
 10
262.0620569473
 20
203.9149454433
 10
262.0990537001
 20
203.8779934201
 10
262.1397095628
 20
203.8451002899
 10
262.1835796333
 20
203.8166260371
 10
262.2301838271
 20
203.7928822934
 10
262.2790121102
 20
203.7741289309
 10
262.3295301199
 20
203.7605711952
 10
262.3811850178
 20
203.7523574678
 10
262.4334115123
 20
203.7495776516
  0
LWPOLYLINE
  5
246
100
AcDbEntity
  8
0
100
AcDbPolyline
 62
250
  6
CONTINUOUS
 90
16
 70
0
 10
261.9334876642
 20
247.2477133267
 10
261.9362708209
 20
247.2998757157
 10
261.9444944282
 20
247.3514672665
 10
261.9580684913
 20
247.4019233877
 10
261.9768444626
 20
247.4506919138
 10
262.0006168677
 20
247.497239147
 10
262.0291255536
 20
247.5410556988
 10
262.0620585359
 20
247.5816620633
 10
262.0990554132
 20
247.6186138655
 10
262.1397113108
 20
247.6515067241
 10
262.1835813115
 20
247.6799806764
 10
262.2301853248
 20
247.7037241185
 10
262.2790133404
 20
247.7224772142
 10
262.3295310097
 20
247.7360347396
 10
262.3811854935
 20
247.7442483279
 10
262.4334115118
 20
247.747028094
  0
LWPOLYLINE
  5
247
100
AcDbEntity
  8
0
100
AcDbPolyline
 62
250
  6
CONTINUOUS
 90
8
 70
0
 10
261.9420481403
 20
247.0890701135
 10
261.9409820578
 20
247.1254257607
 10
261.9398484405
 20
247.1579089336
 10
261.9386529402
 20
247.186450959
 10
261.937416971
 20
247.2098250861
 10
261.9361476709
 20
247.2276223979
 10
261.934837902
 20
247.2402518114
 10
261.9334876642
 20
247.2477133267
  0
LWPOLYLINE
  5
248
100
AcDbEntity
  8
0
100
AcDbPolyline
 62
250
  6
CONTINUOUS
 90
6
 70
0
 10
262.4397722987
 20
247.6126186577
 10
262.4385769973
 20
247.6550809042
 10
262.437341142
 20
247.6901957342
 10
262.4360718191
 20
247.717464085
 10
262.4347619424
 20
247.7365367911
 10
262.4334115118
 20
247.747028094
  0
LINE
  5
249
100
AcDbEntity
  8
0
100
AcDbLine
 62
250
  6
CONTINUOUS
 10
261.943990198
 20
247.0055561088
 11
261.9420481403
 21
247.0890701135
  0
LINE
  5
24A
100
AcDbEntity
  8
0
100
AcDbLine
 62
250
  6
CONTINUOUS
 10
262.4419719008
 20
247.5088183802
 11
262.4397722987
 21
247.6126186577
  0
LINE
  5
24B
100
AcDbEntity
  8
0
100
AcDbLine
 62
250
  6
CONTINUOUS
 10
261.9456606265
 20
246.9109791908
 11
261.943990198
 21
247.0055561088
  0
LINE
  5
24C
100
AcDbEntity
  8
0
100
AcDbLine
 62
250
  6
CONTINUOUS
 10
262.4447824779
 20
247.3147513209
 11
262.4419719008
 21
247.5088183802
  0
LINE
  5
24D
100
AcDbEntity
  8
0
100
AcDbLine
 62
250
  6
CONTINUOUS
 10
261.9477082736
 20
246.7472265085
 11
261.9456606265
 21
246.9109791908
  0
LINE
  5
24E
100
AcDbEntity
  8
0
100
AcDbLine
 62
250
  6
CONTINUOUS
 10
262.44763216
 20
246.9964710236
 11
262.4447824779
 21
247.3147513209
  0
LINE
  5
24F
100
AcDbEntity
  8
0
100
AcDbLine
 62
250
  6
CONTINUOUS
 10
261.9494759095
 20
246.4988665136
 11
261.9477082736
 21
246.7472265085
  0
LINE
  5
250
100
AcDbEntity
  8
0
100
AcDbLine
 62
250
  6
CONTINUOUS
 10
262.4496544869
 20
246.5221773773
 11
262.44763216
 21
246.9964710236
  0
LINE
  5
251
100
AcDbEntity
  8
0
100
AcDbLine
 62
7
  6
CONTINUOUS
 10
261.910109448
 20
247.3179050105
 11
261.910109448
 21
204.1787007336
  0
LINE
  5
252
100
AcDbEntity
  8
0
100
AcDbLine
 62
250
  6
CONTINUOUS
 10
261.9519287049
 20
208.138777969
 11
261.9494759095
 21
246.4988665136
  0
LINE
  5
253
100
AcDbEntity
  8
0
100
AcDbLine
 62
250
  6
CONTINUOUS
 10
262.4518525525
 20
208.1209448173
 11
262.4496544869
 21
246.5221773773
  0
LINE
  5
254
100
AcDbEntity
  8
0
100
AcDbLine
 62
250
  6
CONTINUOUS
 10
261.9493972851
 20
204.9808867584
 11
261.9519287049
 21
208.138777969
  0
LINE
  5
255
100
AcDbEntity
  8
0
100
AcDbLine
 62
250
  6
CONTINUOUS
 10
262.4484423708
 20
204.6377693207
 11
262.4518525525
 21
208.1209448173
  0
LINE
  5
256
100
AcDbEntity
  8
0
100
AcDbLine
 62
250
  6
CONTINUOUS
 10
261.947964302
 20
204.7757151853
 11
261.9493972851
 21
204.9808867584
  0
LINE
  5
257
100
AcDbEntity
  8
0
100
AcDbLine
 62
250
  6
CONTINUOUS
 10
262.4458297793
 20
204.2793103051
 11
262.4484423708
 21
204.6377693207
  0
LINE
  5
258
100
AcDbEntity
  8
0
100
AcDbLine
 62
250
  6
CONTINUOUS
 10
261.945905999
 20
204.6020475206
 11
261.947964302
 21
204.7757151853
  0
LINE
  5
259
100
AcDbEntity
  8
0
100
AcDbLine
 62
250
  6
CONTINUOUS
 10
262.443306132
 20
204.0696649731
 11
262.4458297793
 21
204.2793103051
  0
LINE
  5
25A
100
AcDbEntity
  8
0
100
AcDbLine
 62
250
  6
CONTINUOUS
 10
261.9442740848
 20
204.505292607
 11
261.945905999
 21
204.6020475206
  0
LINE
  5
25B
100
AcDbEntity
  8
0
100
AcDbLine
 62
250
  6
CONTINUOUS
 10
262.4413627112
 20
203.9554698989
 11
262.443306132
 21
204.0696649731
  0
LWPOLYLINE
  5
25C
100
AcDbEntity
  8
0
100
AcDbPolyline
 62
250
  6
CONTINUOUS
 90
7
 70
0
 10
262.4334115118
 20
203.7495776501
 10
262.4346628376
 20
203.7590155487
 10
262.4358749723
 20
203.7757523689
 10
262.4370479161
 20
203.7993714356
 10
262.4381800553
 20
203.8292506276
 10
262.4392730036
 20
203.8650498891
 10
262.4413627112
 20
203.9554698989
  0
LWPOLYLINE
  5
25D
100
AcDbEntity
  8
0
100
AcDbPolyline
 62
250
  6
CONTINUOUS
 90
10
 70
0
 10
261.9334876642
 20
204.2488924175
 10
261.934738813
 20
204.2556684176
 10
261.9359508512
 20
204.2667337035
 10
261.9371237791
 20
204.282088275
 10
261.938256034
 20
204.3018064559
 10
261.9393491786
 20
204.3258139224
 10
261.9404078997
 20
204.3538877038
 10
261.9414389712
 20
204.3861471632
 10
261.9424356193
 20
204.4224729375
 10
261.9442740848
 20
204.505292607
  0
LINE
  5
25E
100
AcDbEntity
  8
0
100
AcDbLine
 62
250
  6
CONTINUOUS
 10
261.910109448
 20
204.1787007336
 11
261.9334876642
 21
204.2488924175
  0
LWPOLYLINE
  5
25F
100
AcDbEntity
  8
0
100
AcDbPolyline
 62
7
  6
CONTINUOUS
 90
2
 70
0
 43
0.3500000087
 10
293.2139971191
 20
222.6768824707
 10
291.7139956543
 20
222.6768824707
  0
LINE
  5
260
100
AcDbEntity
  8
0
100
AcDbLine
 62
250
  6
CONTINUOUS
 10
261.9334876642
 20
247.2477133267
 11
261.910109448
 21
247.3179050105
  0
LINE
  5
261
100
AcDbEntity
  8
0
100
AcDbLine
 62
250
  6
CONTINUOUS
 10
262.4097288482
 20
203.6784718815
 11
262.4334115118
 21
203.7495776501
  0
LINE
  5
262
100
AcDbEntity
  8
0
100
AcDbLine
 62
250
  6
CONTINUOUS
 10
262.4334115118
 20
247.747028094
 11
262.4097288482
 21
247.8181338626
  0
LWPOLYLINE
  5
263
100
AcDbEntity
  8
0
100
AcDbPolyline
 62
7
  6
CONTINUOUS
 90
16
 70
0
 10
271.9591841328
 20
225.9769718848
 10
271.9825780305
 20
226.058915896
 10
272.0132377932
 20
226.1410372121
 10
272.0509936051
 20
226.2201252023
 10
272.0961202769
 20
226.2958240751
 10
272.1483429978
 20
226.368489621
 10
272.2066675188
 20
226.4359785853
 10
272.2713498316
 20
226.4981539821
 10
272.3421339445
 20
226.5551528005
 10
272.4172576333
 20
226.6052427507
 10
272.4969823398
 20
226.6481771056
 10
272.5810466222
 20
226.6842025981
 10
272.6669039317
 20
226.712327129
 10
272.7537054187
 20
226.7322200002
 10
272.8422999328
 20
226.7442119142
 10
272.932687474
 20
226.7483028721
  0
LWPOLYLINE
  5
264
100
AcDbEntity
  8
0
100
AcDbPolyline
 62
7
  6
CONTINUOUS
 90
3
 70
0
 10
273.1247269105
 20
224.7670966154
 10
273.0301001965
 20
224.7533797962
 10
272.932687474
 20
224.7483028721
  0
LWPOLYLINE
  5
265
100
AcDbEntity
  8
0
100
AcDbPolyline
 62
7
  6
CONTINUOUS
 90
2
 70
0
 43
0.3500000087
 10
293.2139971191
 20
225.0340130127
 10
291.7139956543
 20
225.0340130127
  0
LWPOLYLINE
  5
266
100
AcDbEntity
  8
0
100
AcDbPolyline
 62
7
  6
CONTINUOUS
 90
8
 70
0
 10
272.932687474
 20
224.7483028721
 10
272.8879788501
 20
224.7492797306
 10
272.8434005243
 20
224.7522737105
 10
272.7989524967
 20
224.7572848118
 10
272.7544966102
 20
224.7643326833
 10
272.7101710218
 20
224.7733976765
 10
272.6663902029
 20
224.7844208454
 10
272.6231618311
 20
224.7974398451
  0
LWPOLYLINE
  5
267
100
AcDbEntity
  8
0
100
AcDbPolyline
 62
7
  6
CONTINUOUS
 90
3
 70
0
 10
272.932687474
 20
224.7483028721
 10
272.8356741875
 20
224.7533146317
 10
272.7427288305
 20
224.7667393032
  0
LWPOLYLINE
  5
268
100
AcDbEntity
  8
0
100
AcDbPolyline
 62
7
  6
CONTINUOUS
 90
30
 70
0
 10
272.7413761215
 20
224.7669346833
 10
272.6497932761
 20
224.7891630283
 10
272.5602048094
 20
224.820358229
 10
272.4733315633
 20
224.8601617283
 10
272.391336063
 20
224.9074978489
 10
272.3143037917
 20
224.9625693091
 10
272.2421492661
 20
225.0251733974
 10
272.1767785615
 20
225.0936262906
 10
272.1183701573
 20
225.1681005242
 10
272.0667455741
 20
225.2484235665
 10
272.0232754484
 20
225.3323939904
 10
271.9881930126
 20
225.4200380069
 10
271.9612650343
 20
225.5113294032
 10
271.9431624529
 20
225.6039881136
 10
271.9340783045
 20
225.6980902108
 10
271.9338195529
 20
225.7935596162
 10
271.9424780294
 20
225.8878880366
 10
271.9603148988
 20
225.9810990305
 10
271.9870689962
 20
226.0731690331
 10
272.0220486578
 20
226.1615190681
 10
272.0655154012
 20
226.2460340563
 10
272.1172077088
 20
226.3268290749
 10
272.1756493639
 20
226.4016703843
 10
272.2409512989
 20
226.4703345954
 10
272.3130025815
 20
226.533045101
 10
272.3899941981
 20
226.5882383376
 10
272.4720411224
 20
226.6357673896
 10
272.5590283807
 20
226.6757791792
 10
272.6488020385
 20
226.7071509005
 10
272.7406441176
 20
226.729508287
  0
LINE
  5
269
100
AcDbEntity
  8
0
100
AcDbLine
 62
7
  6
CONTINUOUS
 10
272.5804782289
 20
224.8124170211
 11
272.5387308345
 21
224.8291804628
  0
LWPOLYLINE
  5
26A
100
AcDbEntity
  8
0
100
AcDbPolyline
 62
7
  6
CONTINUOUS
 90
12
 70
0
 10
272.4980228021
 20
224.8476964481
 10
272.4582509775
 20
224.8679986997
 10
272.4194973368
 20
224.8900164745
 10
272.3818910478
 20
224.9135940077
 10
272.3453029427
 20
224.9388870647
 10
272.3094274936
 20
224.966292198
 10
272.2741368509
 20
224.9957544377
 10
272.2395588642
 20
225.0273287546
 10
272.2057715554
 20
225.0615766123
 10
272.1726314473
 20
225.0984759849
 10
272.1402820171
 20
225.1380488996
 10
272.1092317182
 20
225.1809229001
  0
LWPOLYLINE
  5
26B
100
AcDbEntity
  8
0
100
AcDbPolyline
 62
7
  6
CONTINUOUS
 90
6
 70
0
 10
272.0793262011
 20
225.2270273077
 10
272.0507198154
 20
225.2764328023
 10
272.0243840633
 20
225.3299789656
 10
272.000021609
 20
225.3881113931
 10
271.9779297883
 20
225.4503844903
 10
271.9599721107
 20
225.5163010537
  0
LWPOLYLINE
  5
26C
100
AcDbEntity
  8
0
100
AcDbPolyline
 62
7
  6
CONTINUOUS
 90
5
 70
0
 10
271.9461618177
 20
225.5860785664
 10
271.9364856678
 20
225.6594995442
 10
271.9327674459
 20
225.7354143322
 10
271.9351791012
 20
225.8142118756
 10
271.9435486845
 20
225.8955032255
  0
LWPOLYLINE
  5
26D
100
AcDbEntity
  8
0
100
AcDbPolyline
 62
7
  6
CONTINUOUS
 90
16
 70
0
 10
273.9061495432
 20
225.5194582677
 10
273.8827407258
 20
225.4375192321
 10
273.8520663364
 20
225.3554046266
 10
273.8142991852
 20
225.2763269894
 10
273.7691656518
 20
225.2006441254
 10
273.7169393564
 20
225.1279982306
 10
273.65861397
 20
225.0605284267
 10
273.5939331443
 20
224.9983706258
 10
273.5231532277
 20
224.9413889124
 10
273.4480369352
 20
224.8913146652
 10
273.3683241812
 20
224.8483948489
 10
273.2842750514
 20
224.812382493
 10
273.1984325185
 20
224.7842680718
 10
273.1116442401
 20
224.7643817418
 10
273.0230625586
 20
224.7523933423
 10
272.932687474
 20
224.7483028721
  0
LWPOLYLINE
  5
26E
100
AcDbEntity
  8
0
100
AcDbPolyline
 62
7
  6
CONTINUOUS
 90
3
 70
0
 10
272.7406441176
 20
226.729508287
 10
272.8352725961
 20
226.7432256103
 10
272.932687474
 20
226.7483028721
  0
LWPOLYLINE
  5
26F
100
AcDbEntity
  8
0
100
AcDbPolyline
 62
7
  6
CONTINUOUS
 90
8
 70
0
 10
272.932687474
 20
226.7483028721
 10
272.9774033585
 20
226.7473257389
 10
273.0219889844
 20
226.7443307782
 10
273.0664443516
 20
226.73931799
 10
273.1109077171
 20
226.73226771
 10
273.155240824
 20
226.7231996023
 10
273.1990289014
 20
226.7121726587
 10
273.2422642431
 20
226.6991492016
  0
LWPOLYLINE
  5
270
100
AcDbEntity
  8
0
100
AcDbPolyline
 62
7
  6
CONTINUOUS
 90
3
 70
0
 10
272.932687474
 20
226.7483028721
 10
273.0296985702
 20
226.7432912002
 10
273.1226487181
 20
226.729866149
  0
LWPOLYLINE
  5
271
100
AcDbEntity
  8
0
100
AcDbPolyline
 62
7
  6
CONTINUOUS
 90
30
 70
0
 10
273.1239944229
 20
226.7296717851
 10
273.2155750321
 20
226.7074446253
 10
273.3051609948
 20
226.6762513227
 10
273.3920317139
 20
226.6364502702
 10
273.4740253987
 20
226.5891166531
 10
273.5510567153
 20
226.5340480647
 10
273.6232109976
 20
226.4714469049
 10
273.6885824556
 20
226.4029955701
 10
273.746992985
 20
226.3285219501
 10
273.7986206901
 20
226.2481981515
 10
273.8420940936
 20
226.1642228982
 10
273.8771804715
 20
226.0765664874
 10
273.9041125478
 20
225.9852586238
 10
273.9222170175
 20
225.8925871461
 10
273.9312992416
 20
225.7984791572
 10
273.9315538591
 20
225.7030075602
 10
273.9228914822
 20
225.6086788952
 10
273.9050515668
 20
225.5154695006
 10
273.878294657
 20
225.4234030441
 10
273.8433129983
 20
225.3350570589
 10
273.7998452699
 20
225.2505463981
 10
273.7481527927
 20
225.1697562106
 10
273.6897117746
 20
225.0949194697
 10
273.624411733
 20
225.0262595312
 10
273.5523631506
 20
224.9635530357
 10
273.4753736821
 20
224.9083628813
 10
273.3933275869
 20
224.8608355077
 10
273.3063406057
 20
224.8208244685
 10
273.2165676161
 20
224.789453331
 10
273.1247269105
 20
224.7670966154
  0
LINE
  5
272
100
AcDbEntity
  8
0
100
AcDbLine
 62
7
  6
CONTINUOUS
 10
273.2849545554
 20
226.6841669082
 11
273.326708186
 21
226.6673978027
  0
LWPOLYLINE
  5
273
100
AcDbEntity
  8
0
100
AcDbPolyline
 62
7
  6
CONTINUOUS
 90
12
 70
0
 10
273.367422012
 20
226.6488755613
 10
273.4071991563
 20
226.6285665073
 10
273.4459573354
 20
226.6065416352
 10
273.4835673051
 20
226.5829567426
 10
273.5201583096
 20
226.5576560314
 10
273.5560357982
 20
226.5302431031
 10
273.5913276545
 20
226.5007728805
 10
273.625905995
 20
226.4691904399
 10
273.659692618
 20
226.4349346129
 10
273.6928308031
 20
226.398027778
 10
273.7251772708
 20
226.3584475556
 10
273.7562239815
 20
226.3155656396
  0
LWPOLYLINE
  5
274
100
AcDbEntity
  8
0
100
AcDbPolyline
 62
7
  6
CONTINUOUS
 90
6
 70
0
 10
273.7861256862
 20
226.2694520076
 10
273.8147276338
 20
226.2200366807
 10
273.8410575323
 20
226.1664814182
 10
273.8654123787
 20
226.1083410762
 10
273.8874951759
 20
226.0460607976
 10
273.9054426403
 20
225.9801377708
  0
LWPOLYLINE
  5
275
100
AcDbEntity
  8
0
100
AcDbPolyline
 62
7
  6
CONTINUOUS
 90
5
 70
0
 10
273.9192414305
 20
225.91035395
 10
273.9289048879
 20
225.8369273822
 10
273.9326097537
 20
225.7610093955
 10
273.9301839352
 20
225.6822118212
 10
273.9217995252
 20
225.6009228316
  0
LINE
  5
276
100
AcDbEntity
  8
0
100
AcDbLine
 62
250
  6
CONTINUOUS
 10
283.4556460997
 20
247.8181338626
 11
283.4319634361
 21
247.747028094
  0
LINE
  5
277
100
AcDbEntity
  8
0
100
AcDbLine
 62
250
  6
CONTINUOUS
 10
283.4319634361
 20
203.7495776501
 11
283.4556460997
 21
203.6784718815
  0
LINE
  5
278
100
AcDbEntity
  8
0
100
AcDbLine
 62
250
  6
CONTINUOUS
 10
283.9552655
 20
247.3179050105
 11
283.9318872837
 21
247.2477133267
  0
LINE
  5
279
100
AcDbEntity
  8
0
100
AcDbLine
 62
250
  6
CONTINUOUS
 10
283.9318872837
 20
204.2488924175
 11
283.9552655
 21
204.1787007336
  0
LWPOLYLINE
  5
27A
100
AcDbEntity
  8
0
100
AcDbPolyline
 62
250
  6
CONTINUOUS
 90
7
 70
0
 10
283.4319634361
 20
247.747028094
 10
283.4306641717
 20
247.7370860694
 10
283.4294045209
 20
247.7192340764
 10
283.4281844837
 20
247.6938719751
 10
283.4270046796
 20
247.6616148313
 10
283.4258644891
 20
247.6227999263
 10
283.423690098
 20
247.5243763342
  0
LWPOLYLINE
  5
27B
100
AcDbEntity
  8
0
100
AcDbPolyline
 62
250
  6
CONTINUOUS
 90
9
 70
0
 10
283.9318872837
 20
247.2477133267
 10
283.9305882109
 20
247.2406116896
 10
283.9293286651
 20
247.2287992186
 10
283.9281086464
 20
247.2122759134
 10
283.9269287205
 20
247.1909678776
 10
283.9257883216
 20
247.1649490078
 10
283.9246857523
 20
247.1344409935
 10
283.9236138231
 20
247.0992676439
 10
283.9216033234
 20
247.0162037733
  0
LWPOLYLINE
  5
27C
100
AcDbEntity
  8
0
100
AcDbPolyline
 62
7
  6
CONTINUOUS
 90
10
 70
0
 43
0.3500000087
 10
292.7139966309
 20
227.0340149658
 10
292.8568344238
 20
227.1054509155
 10
292.9282874268
 20
227.1054509155
 10
293.0711252197
 20
226.9625960693
 10
293.0711252197
 20
226.8911601196
 10
292.9997063232
 20
226.8197241699
 10
292.9282874268
 20
226.8197241699
 10
292.7854155273
 20
226.8911601196
 10
292.7139966309
 20
226.9625960693
 10
292.7139966309
 20
227.0340149658
  0
LWPOLYLINE
  5
27D
100
AcDbEntity
  8
0
100
AcDbPolyline
 62
7
  6
CONTINUOUS
 90
3
 70
0
 43
0.3500000087
 10
292.9282874268
 20
227.1054509155
 10
293.1425782227
 20
227.0340149658
 10
293.428287915
 20
226.8911601196
  0
LWPOLYLINE
  5
27E
100
AcDbEntity
  8
0
100
AcDbPolyline
 62
250
  6
CONTINUOUS
 90
6
 70
0
 10
283.425931075
 20
203.8712963189
 10
283.4269943228
 20
203.835264059
 10
283.4281257627
 20
203.8041495613
 10
283.4293367951
 20
203.778606064
 10
283.4306160196
 20
203.7600829493
 10
283.4319634361
 20
203.7495776501
  0
LINE
  5
27F
100
AcDbEntity
  8
0
100
AcDbLine
 62
250
  6
CONTINUOUS
 10
283.4238955228
 20
203.9613393144
 11
283.425931075
 21
203.8712963189
  0
LWPOLYLINE
  5
280
100
AcDbEntity
  8
0
100
AcDbPolyline
 62
250
  6
CONTINUOUS
 90
8
 70
0
 10
283.9238192242
 20
204.389935582
 10
283.9248255022
 20
204.3580065299
 10
283.9258549265
 20
204.3297927501
 10
283.9269184252
 20
204.30551369
 10
283.9280500092
 20
204.2852736924
 10
283.9292610154
 20
204.2691075383
 10
283.9305401069
 20
204.2569804466
 10
283.9318872837
 20
204.2488924175
  0
LINE
  5
281
100
AcDbEntity
  8
0
100
AcDbLine
 62
250
  6
CONTINUOUS
 10
283.9219076654
 20
204.4661518448
 11
283.9238192242
 21
204.389935582
  0
LINE
  5
282
100
AcDbEntity
  8
0
100
AcDbLine
 62
250
  6
CONTINUOUS
 10
283.9201046376
 20
204.5615096759
 11
283.9219076654
 21
204.4661518448
  0
LINE
  5
283
100
AcDbEntity
  8
0
100
AcDbLine
 62
250
  6
CONTINUOUS
 10
283.421983791
 20
204.0754667909
 11
283.4238955228
 21
203.9613393144
  0
LINE
  5
284
100
AcDbEntity
  8
0
100
AcDbLine
 62
250
  6
CONTINUOUS
 10
283.9178583282
 20
204.7308029018
 11
283.9201046376
 21
204.5615096759
  0
LINE
  5
285
100
AcDbEntity
  8
0
100
AcDbLine
 62
250
  6
CONTINUOUS
 10
283.4193616566
 20
204.298282472
 11
283.421983791
 21
204.0754667909
  0
LINE
  5
286
100
AcDbEntity
  8
0
100
AcDbLine
 62
250
  6
CONTINUOUS
 10
283.9162951656
 20
204.9217238695
 11
283.9178583282
 21
204.7308029018
  0
LINE
  5
287
100
AcDbEntity
  8
0
100
AcDbLine
 62
250
  6
CONTINUOUS
 10
283.4163713572
 20
204.7587057099
 11
283.4193616566
 21
204.298282472
  0
LINE
  5
288
100
AcDbEntity
  8
0
100
AcDbLine
 62
250
  6
CONTINUOUS
 10
283.9153605131
 20
205.2063970156
 11
283.9162951656
 21
204.9217238695
  0
LINE
  5
289
100
AcDbEntity
  8
0
100
AcDbLine
 62
250
  6
CONTINUOUS
 10
283.4103764576
 20
214.2249750962
 11
283.4163713572
 21
204.7587057099
  0
LINE
  5
28A
100
AcDbEntity
  8
0
100
AcDbLine
 62
250
  6
CONTINUOUS
 10
283.907981446
 20
224.9255518658
 11
283.9153605131
 21
205.2063970156
  0
LINE
  5
28B
100
AcDbEntity
  8
0
100
AcDbLine
 62
7
  6
CONTINUOUS
 10
283.9552655
 20
204.1787007336
 11
283.9552655
 21
239.4983028721
  0
LINE
  5
28C
100
AcDbEntity
  8
0
100
AcDbLine
 62
7
  6
CONTINUOUS
 10
283.9552655
 20
243.4983028721
 11
283.9552655
 21
247.3179050105
  0
LINE
  5
28D
100
AcDbEntity
  8
0
100
AcDbLine
 62
7
  6
CONTINUOUS
 10
283.9639930325
 20
239.4983028721
 11
283.9639930325
 21
243.4983028721
  0
LINE
  5
28E
100
AcDbEntity
  8
0
100
AcDbLine
 62
250
  6
CONTINUOUS
 10
283.9159523944
 20
246.510429903
 11
283.907981446
 21
224.9255518658
  0
LINE
  5
28F
100
AcDbEntity
  8
0
100
AcDbLine
 62
250
  6
CONTINUOUS
 10
283.4167808351
 20
246.8302337766
 11
283.4103764576
 21
214.2249750962
  0
LINE
  5
290
100
AcDbEntity
  8
0
100
AcDbLine
 62
250
  6
CONTINUOUS
 10
283.4191163635
 20
247.1719330203
 11
283.4167808351
 21
246.8302337766
  0
LINE
  5
291
100
AcDbEntity
  8
0
100
AcDbLine
 62
250
  6
CONTINUOUS
 10
283.9177314865
 20
246.7539579385
 11
283.9159523944
 21
246.510429903
  0
LINE
  5
292
100
AcDbEntity
  8
0
100
AcDbLine
 62
250
  6
CONTINUOUS
 10
283.4216794265
 20
247.3997637642
 11
283.4191163635
 21
247.1719330203
  0
LINE
  5
293
100
AcDbEntity
  8
0
100
AcDbLine
 62
250
  6
CONTINUOUS
 10
283.9198228536
 20
246.9174122061
 11
283.9177314865
 21
246.7539579385
  0
LINE
  5
294
100
AcDbEntity
  8
0
100
AcDbLine
 62
250
  6
CONTINUOUS
 10
283.423690098
 20
247.5243763342
 11
283.4216794265
 21
247.3997637642
  0
LINE
  5
295
100
AcDbEntity
  8
0
100
AcDbLine
 62
250
  6
CONTINUOUS
 10
283.9216033234
 20
247.0162037733
 11
283.9198228536
 21
246.9174122061
  0
LWPOLYLINE
  5
296
100
AcDbEntity
  8
0
100
AcDbPolyline
 62
250
  6
CONTINUOUS
 90
16
 70
0
 10
283.9318872837
 20
247.2477133267
 10
283.9291042316
 20
247.2998747304
 10
283.9208809
 20
247.3514654861
 10
283.9073072282
 20
247.4019210212
 10
283.8885317045
 20
247.4506891825
 10
283.8647597487
 20
247.4972362632
 10
283.83625147
 20
247.5410528468
 10
283.8033188047
 20
247.5816594096
 10
283.7663221173
 20
247.6186115426
 10
283.7256662747
 20
247.6515048092
 10
283.6817961711
 20
247.6799792136
 10
283.6351918877
 20
247.7037231101
 10
283.5863634697
 20
247.7224766086
 10
283.5358452863
 20
247.7360344522
 10
283.484190176
 20
247.7442482512
 10
283.4319634359
 20
247.7470280934
  0
LWPOLYLINE
  5
297
100
AcDbEntity
  8
0
100
AcDbPolyline
 62
250
  6
CONTINUOUS
 90
16
 70
0
 10
283.9318872837
 20
204.2488924175
 10
283.9291041271
 20
204.1967300283
 10
283.9208805198
 20
204.1451384775
 10
283.9073064567
 20
204.0946823562
 10
283.8885304853
 20
204.0459138302
 10
283.8647580801
 20
203.9993665971
 10
283.8362493942
 20
203.9555500455
 10
283.8033164118
 20
203.9149436811
 10
283.7663195344
 20
203.877991879
 10
283.7256636368
 20
203.8450990206
 10
283.6817936361
 20
203.8166250683
 10
283.6351896228
 20
203.7928816264
 10
283.5863616072
 20
203.7741285307
 10
283.535843938
 20
203.7605710052
 10
283.4841894543
 20
203.7523574166
 10
283.4319634361
 20
203.7495776501
  0
LINE
  5
298
100
AcDbEntity
  8
0
100
AcDbLine
 62
7
  6
CONTINUOUS
 10
283.9552655
 20
239.4983028721
 11
283.9639930325
 21
239.4983028721
  0
LWPOLYLINE
  5
299
100
AcDbEntity
  8
0
100
AcDbPolyline
 62
7
  6
CONTINUOUS
 90
3
 70
0
 43
0.3500000087
 10
291.0711232666
 20
228.1054518921
 10
290.2139941895
 20
228.9625809692
 10
293.2139971191
 20
228.9625809692
  0
LINE
  5
29A
100
AcDbEntity
  8
0
100
AcDbLine
 62
7
  6
CONTINUOUS
 10
283.9552655
 20
243.4983028721
 11
283.9639930325
 21
243.4983028721
  0
LWPOLYLINE
  5
29B
100
AcDbEntity
  8
0
100
AcDbPolyline
 62
7
  6
CONTINUOUS
 90
3
 70
0
 43
0.3500000087
 10
292.5711247314
 20
225.534013501
 10
292.5711247314
 20
224.0340120361
 10
290.2139941895
 20
224.6768673706
  0
LWPOLYLINE
  5
29C
100
AcDbEntity
  8
0
100
AcDbPolyline
 62
7
  6
CONTINUOUS
 90
3
 70
0
 43
0.3500000087
 10
292.5711247314
 20
223.1768659058
 10
292.5711247314
 20
221.6768814941
 10
290.2139941895
 20
222.3197368286
  0
LINE
  5
29D
100
AcDbEntity
  8
0
100
AcDbLine
 62
250
  6
CONTINUOUS
 10
262.3471190187
 20
246.3102579968
 11
262.4499382825
 21
246.3107712245
  0
LWPOLYLINE
  5
29E
100
AcDbEntity
  8
0
100
AcDbPolyline
 62
250
  6
CONTINUOUS
 90
14
 70
0
 10
283.9153605131
 20
205.2063970243
 10
283.911781128
 20
205.20427115
 10
283.9028838202
 20
205.2021680467
 10
283.8887638689
 20
205.200110248
 10
283.8695725091
 20
205.1981198025
 10
283.8455153188
 20
205.196218037
 10
283.8168500212
 20
205.1944253281
 10
283.7838837086
 20
205.192760884
 10
283.7469695666
 20
205.1912425402
 10
283.7065031061
 20
205.189886567
 10
283.6629178836
 20
205.1887074944
 10
283.6166808832
 20
205.1877179569
 10
283.568287542
 20
205.1869285576
 10
283.5182563864
 20
205.1863477553
  0
LINE
  5
29F
100
AcDbEntity
  8
0
100
AcDbLine
 62
250
  6
CONTINUOUS
 10
283.4319634361
 20
247.747028094
 11
262.4334115118
 21
247.747028094
  0
LINE
  5
2A0
100
AcDbEntity
  8
0
100
AcDbLine
 62
7
  6
CONTINUOUS
 10
262.4097288482
 20
247.8181338626
 11
283.4556460997
 21
247.8181338626
  0
LWPOLYLINE
  5
2A1
100
AcDbEntity
  8
0
100
AcDbPolyline
 62
7
  6
CONTINUOUS
 90
7
 70
0
 43
0.3500000087
 10
274.432686145
 20
258.5681351196
 10
272.9326846802
 20
258.5681351196
 10
274.432686145
 20
260.7109919189
 10
274.432686145
 20
261.1395564575
 10
274.0041216064
 20
261.5681380493
 10
273.361266272
 20
261.5681380493
 10
272.9326846802
 20
260.9252827148
  0
LWPOLYLINE
  5
2A2
100
AcDbEntity
  8
0
100
AcDbPolyline
 62
7
  6
CONTINUOUS
 90
7
 70
0
 43
0.3500000087
 10
272.0755385498
 20
258.5681351196
 10
270.575537085
 20
258.5681351196
 10
272.0755385498
 20
260.7109919189
 10
272.0755385498
 20
261.1395564575
 10
271.6469740112
 20
261.5681380493
 10
271.0041186768
 20
261.5681380493
 10
270.575537085
 20
260.9252827148
  0
LWPOLYLINE
  5
2A3
100
AcDbEntity
  8
0
100
AcDbPolyline
 62
250
  6
CONTINUOUS
 90
16
 70
0
 10
283.9153605131
 20
246.2902087286
 10
283.91178101
 20
246.2923346392
 10
283.9028834203
 20
246.2944377718
 10
283.8887630773
 20
246.2964955923
 10
283.8695712734
 20
246.2984860521
 10
283.8455136396
 20
246.3003878244
 10
283.8168479414
 20
246.3021805327
 10
283.7838813179
 20
246.303844969
 10
283.7469669903
 20
246.3053632996
 10
283.7065004775
 20
246.3067192564
 10
283.6629153584
 20
246.307898311
 10
283.6166786263
 20
246.3088878304
 10
283.568285685
 20
246.3096772124
 10
283.5182550412
 20
246.3102579991
 10
283.4671227489
 20
246.3106239676
 10
262.4499382825
 20
246.3107711969
  0
LWPOLYLINE
  5
2A4
100
AcDbEntity
  8
0
100
AcDbPolyline
 62
7
  6
CONTINUOUS
 90
5
 70
0
 43
0.3500000087
 10
233.5994095703
 20
260.2824273804
 10
233.9565552124
 20
260.496701123
 10
233.9565552124
 20
261.1395564575
 10
233.5994095703
 20
261.5681380493
 10
232.7422634399
 20
261.5681380493
  0
LINE
  5
2A5
100
AcDbEntity
  8
0
100
AcDbLine
 62
250
  6
CONTINUOUS
 10
240.9650455808
 20
204.3084577843
 11
240.7676516238
 21
204.3084577843
  0
LINE
  5
2A6
100
AcDbEntity
  8
0
100
AcDbLine
 62
7
  6
CONTINUOUS
 10
239.1082666919
 20
203.7495776501
 11
240.4650455808
 21
203.6784718815
  0
LINE
  5
2A7
100
AcDbEntity
  8
0
100
AcDbLine
 62
250
  6
CONTINUOUS
 10
239.1257084668
 20
204.2488924175
 11
240.4650455808
 21
204.1787007336
  0
LINE
  5
2A8
100
AcDbEntity
  8
0
100
AcDbLine
 62
250
  6
CONTINUOUS
 10
237.6907145191
 20
205.1859817741
 11
237.6880396088
 21
205.1858345364
  0
LINE
  5
2A9
100
AcDbEntity
  8
0
100
AcDbLine
 62
250
  6
CONTINUOUS
 10
238.1788904107
 20
205.2063970243
 11
237.6907145191
 21
205.1859817741
  0
LWPOLYLINE
  5
2AA
100
AcDbEntity
  8
0
100
AcDbPolyline
 62
7
  6
CONTINUOUS
 90
3
 70
0
 43
0.3500000087
 10
231.7422624634
 20
258.853844812
 10
231.6708435669
 20
258.6395540161
 10
231.5279887207
 20
258.3538443237
  0
LINE
  5
2AB
100
AcDbEntity
  8
0
100
AcDbLine
 62
7
  6
CONTINUOUS
 10
240.9650455808
 20
212.4111922072
 11
242.2650455808
 21
212.4793223203
  0
LWPOLYLINE
  5
2AC
100
AcDbEntity
  8
0
100
AcDbPolyline
 62
7
  6
CONTINUOUS
 90
5
 70
0
 10
242.2603339242
 20
213.4461057905
 10
242.2552761321
 20
213.4450082933
 10
242.2480870338
 20
213.4454888999
 10
242.2387368049
 20
213.4475771458
 10
242.2271206933
 20
213.4512604146
  0
LINE
  5
2AD
100
AcDbEntity
  8
0
100
AcDbLine
 62
250
  6
CONTINUOUS
 10
242.5650455808
 20
213.6837557086
 11
242.375512772
 21
213.6616605586
  0
LWPOLYLINE
  5
2AE
100
AcDbEntity
  8
0
100
AcDbPolyline
 62
7
  6
CONTINUOUS
 90
7
 70
0
 10
242.2271206933
 20
213.4512604146
 10
242.2133290601
 20
213.4565079429
 10
242.1976845655
 20
213.4631974806
 10
242.1801951315
 20
213.4710775246
 10
242.1610219507
 20
213.4799807705
 10
242.1407856848
 20
213.4897792242
 10
242.0979828236
 20
213.5109874911
  0
LWPOLYLINE
  5
2AF
100
AcDbEntity
  8
0
100
AcDbPolyline
 62
7
  6
CONTINUOUS
 90
10
 70
0
 10
242.1407856847
 20
238.0068265199
 10
242.1610219507
 20
238.0166249736
 10
242.1801951314
 20
238.0255282195
 10
242.1976845655
 20
238.0334082635
 10
242.21332906
 20
238.0400978013
 10
242.2271206932
 20
238.0453453296
 10
242.2387368048
 20
238.0490285983
 10
242.2480870338
 20
238.0511168442
 10
242.2552761321
 20
238.0515974509
 10
242.2603339242
 20
238.0504999536
  0
LWPOLYLINE
  5
2B0
100
AcDbEntity
  8
0
100
AcDbPolyline
 62
7
  6
CONTINUOUS
 90
3
 70
0
 10
242.075512772
 20
237.974837483
 10
242.0979828236
 20
237.985618253
 10
242.1407856847
 20
238.0068265199
  0
LINE
  5
2B1
100
AcDbEntity
  8
0
100
AcDbLine
 62
7
  6
CONTINUOUS
 10
240.9650455808
 20
216.0854135369
 11
242.5650455808
 21
216.0015610901
  0
LINE
  5
2B2
100
AcDbEntity
  8
0
100
AcDbLine
 62
7
  6
CONTINUOUS
 10
242.0979828236
 20
213.5109874911
 11
242.075512772
 21
213.5217682611
  0
LWPOLYLINE
  5
2B3
100
AcDbEntity
  8
0
100
AcDbPolyline
 62
250
  6
CONTINUOUS
 90
22
 70
0
 10
238.1788904111
 20
205.2063970156
 10
238.1851552801
 20
205.1319048849
 10
238.1961555941
 20
205.0596233753
 10
238.211891353
 20
204.9895524866
 10
238.2324366161
 20
204.9217238695
 10
238.2577173242
 20
204.8561058734
 10
238.2875112994
 20
204.7926035467
 10
238.3219901448
 20
204.7308029018
 10
238.3609822572
 20
204.6711179265
 10
238.4037506491
 20
204.6146956319
 10
238.4506811253
 20
204.5615096759
 10
238.5013878808
 20
204.5115864008
 10
238.5539765139
 20
204.4661518448
 10
238.6077921415
 20
204.4257993538
 10
238.6634896466
 20
204.389935582
 10
238.721139276
 20
204.3580065299
 10
238.7801149525
 20
204.3297927501
 10
238.8410427534
 20
204.30551369
 10
238.9058711574
 20
204.2852736924
 10
238.9752496574
 20
204.2691075383
 10
239.0485287605
 20
204.2569804466
 10
239.1257084668
 20
204.2488924175
  0
LWPOLYLINE
  5
2B4
100
AcDbEntity
  8
0
100
AcDbPolyline
 62
250
  6
CONTINUOUS
 90
19
 70
0
 10
240.7676568454
 20
204.3084596848
 10
240.7755088248
 20
204.2634718328
 10
240.782423245
 20
204.2194390267
 10
240.7883446901
 20
204.176694208
 10
240.793276222
 20
204.1353221967
 10
240.7971343643
 20
204.095851848
 10
240.799846216
 20
204.059170777
 10
240.8015506437
 20
204.0255670777
 10
240.8023282289
 20
203.9949607053
 10
240.8021530029
 20
203.9675038867
 10
240.8011802325
 20
203.9434549669
 10
240.7995907904
 20
203.9223890232
 10
240.7973068807
 20
203.9035387847
 10
240.7943089485
 20
203.8869842307
 10
240.7906957168
 20
203.8727719264
 10
240.7863240318
 20
203.8605199314
 10
240.781041395
 20
203.8504348295
 10
240.7748332384
 20
203.8430205928
 10
240.7676516238
 20
203.8386114739
  0
LWPOLYLINE
  5
2B5
100
AcDbEntity
  8
0
100
AcDbPolyline
 62
250
  6
CONTINUOUS
 90
16
 70
0
 10
238.1788904111
 20
246.2902087286
 10
238.0691797988
 20
243.3563936448
 10
237.9763810579
 20
240.5092284936
 10
237.9004941886
 20
237.748713275
 10
237.8427205098
 20
235.0991560594
 10
237.8018587025
 20
232.5362487765
 10
237.7743048096
 20
229.9870672148
 10
237.7585704177
 20
227.4494466796
 10
237.7561439402
 20
224.9255518658
 10
237.7678866606
 20
222.348952646
 10
237.7925570918
 20
219.7139244421
 10
237.831396721
 20
217.0261918323
 10
237.888991293
 20
214.236498424
 10
237.9668693895
 20
211.3284254197
 10
238.0635024289
 20
208.3183916169
 10
238.1788904111
 20
205.2063970156
  0
LWPOLYLINE
  5
2B6
100
AcDbEntity
  8
0
100
AcDbPolyline
 62
250
  6
CONTINUOUS
 90
8
 70
0
 10
242.4295140788
 20
237.9619050491
 10
242.425977958
 20
237.9516914443
 10
242.4207193772
 20
237.9380295207
 10
242.4138936583
 20
237.9213228089
 10
242.4057024125
 20
237.9020647725
 10
242.3963875835
 20
237.8808242338
 10
242.386224302
 20
237.8582285717
 10
242.3755127595
 20
237.8349451914
  0
LWPOLYLINE
  5
2B7
100
AcDbEntity
  8
0
100
AcDbPolyline
 62
250
  6
CONTINUOUS
 90
8
 70
0
 10
242.4295140998
 20
213.5347007045
 10
242.4259779916
 20
213.5449143149
 10
242.4207194292
 20
213.5585762467
 10
242.4138937301
 20
213.5752829676
 10
242.4057024915
 20
213.5945410073
 10
242.3963876528
 20
213.6157815417
 10
242.3862243491
 20
213.6383771938
 10
242.375512772
 20
213.6616605586
  0
LINE
  5
2B8
100
AcDbEntity
  8
0
100
AcDbLine
 62
250
  6
CONTINUOUS
 10
239.1180558334
 20
247.4019210212
 11
239.1138032387
 21
247.4972362632
  0
LINE
  5
2B9
100
AcDbEntity
  8
0
100
AcDbLine
 62
250
  6
CONTINUOUS
 10
239.1138032387
 20
247.4972362632
 11
239.1104512608
 21
247.5816594096
  0
LWPOLYLINE
  5
2BA
100
AcDbEntity
  8
0
100
AcDbPolyline
 62
250
  6
CONTINUOUS
 90
8
 70
0
 10
239.1104512608
 20
247.5816594096
 10
239.1081462456
 20
247.6515048092
 10
239.1074197196
 20
247.6799792136
 10
239.1069888345
 20
247.7037231101
 10
239.1068583077
 20
247.7224766086
 10
239.1070295689
 20
247.7360344522
 10
239.1075007449
 20
247.7442482512
 10
239.1082666805
 20
247.7470280934
  0
LWPOLYLINE
  5
2BB
100
AcDbEntity
  8
0
100
AcDbPolyline
 62
250
  6
CONTINUOUS
 90
7
 70
0
 10
239.1081461795
 20
203.8450990206
 10
239.1074196728
 20
203.8166250683
 10
239.1069888044
 20
203.7928816264
 10
239.1068582927
 20
203.7741285307
 10
239.1070295672
 20
203.7605710052
 10
239.1075007523
 20
203.7523574166
 10
239.1082666919
 20
203.7495776501
  0
LINE
  5
2BC
100
AcDbEntity
  8
0
100
AcDbLine
 62
250
  6
CONTINUOUS
 10
239.1104511557
 20
203.9149436811
 11
239.1081461795
 21
203.8450990206
  0
LINE
  5
2BD
100
AcDbEntity
  8
0
100
AcDbLine
 62
250
  6
CONTINUOUS
 10
239.113803114
 20
203.9993665971
 11
239.1104511557
 21
203.9149436811
  0
LINE
  5
2BE
100
AcDbEntity
  8
0
100
AcDbLine
 62
250
  6
CONTINUOUS
 10
239.1180557252
 20
204.0946823562
 11
239.113803114
 21
203.9993665971
  0
LINE
  5
2BF
100
AcDbEntity
  8
0
100
AcDbLine
 62
250
  6
CONTINUOUS
 10
239.1257084668
 20
247.2477133267
 11
239.1180558334
 21
247.4019210212
  0
LINE
  5
2C0
100
AcDbEntity
  8
0
100
AcDbLine
 62
7
  6
CONTINUOUS
 10
240.4650455808
 20
203.6784718815
 11
240.4650455808
 21
239.4983028721
  0
LINE
  5
2C1
100
AcDbEntity
  8
0
100
AcDbLine
 62
7
  6
CONTINUOUS
 10
240.4650455808
 20
243.4983028721
 11
240.4650455808
 21
247.8181338626
  0
LINE
  5
2C2
100
AcDbEntity
  8
0
100
AcDbLine
 62
250
  6
CONTINUOUS
 10
240.7676516238
 20
247.1881479598
 11
240.7676516238
 21
243.4983028721
  0
LINE
  5
2C3
100
AcDbEntity
  8
0
100
AcDbLine
 62
250
  6
CONTINUOUS
 10
240.7676516238
 20
239.4983028721
 11
240.7676516238
 21
204.3084577843
  0
LINE
  5
2C4
100
AcDbEntity
  8
0
100
AcDbLine
 62
7
  6
CONTINUOUS
 10
240.9650455808
 20
204.1205192601
 11
240.9650455808
 21
247.376086484
  0
LINE
  5
2C5
100
AcDbEntity
  8
0
100
AcDbLine
 62
250
  6
CONTINUOUS
 10
239.1257084668
 20
204.2488924175
 11
239.1180557252
 21
204.0946823562
  0
LINE
  5
2C6
100
AcDbEntity
  8
0
100
AcDbLine
 62
250
  6
CONTINUOUS
 10
242.075512772
 20
212.4693893267
 11
242.075512772
 21
213.5217682611
  0
LINE
  5
2C7
100
AcDbEntity
  8
0
100
AcDbLine
 62
250
  6
CONTINUOUS
 10
242.075512772
 20
237.974837483
 11
242.075512772
 21
239.0272164175
  0
LINE
  5
2C8
100
AcDbEntity
  8
0
100
AcDbLine
 62
7
  6
CONTINUOUS
 10
242.2650455808
 20
239.0172834239
 11
242.2650455808
 21
238.0483028721
  0
LINE
  5
2C9
100
AcDbEntity
  8
0
100
AcDbLine
 62
7
  6
CONTINUOUS
 10
242.2650455808
 20
213.4483028721
 11
242.2650455808
 21
212.4793223203
  0
LINE
  5
2CA
100
AcDbEntity
  8
0
100
AcDbLine
 62
250
  6
CONTINUOUS
 10
242.375512772
 20
237.8349451855
 11
242.375512772
 21
235.4851116604
  0
LINE
  5
2CB
100
AcDbEntity
  8
0
100
AcDbLine
 62
250
  6
CONTINUOUS
 10
242.375512772
 20
216.0114940837
 11
242.375512772
 21
213.6616605586
  0
LINE
  5
2CC
100
AcDbEntity
  8
0
100
AcDbLine
 62
7
  6
CONTINUOUS
 10
242.5650455808
 20
237.8128500355
 11
242.5650455808
 21
235.4950446541
  0
LINE
  5
2CD
100
AcDbEntity
  8
0
100
AcDbLine
 62
7
  6
CONTINUOUS
 10
242.5650455808
 20
216.0015610901
 11
242.5650455808
 21
213.6837557086
  0
LWPOLYLINE
  5
2CE
100
AcDbEntity
  8
0
100
AcDbPolyline
 62
250
  6
CONTINUOUS
 90
3
 70
0
 10
242.4310551179
 20
237.9708913536
 10
242.4312232937
 20
237.9683686572
 10
242.4295140788
 20
237.9619050491
  0
LWPOLYLINE
  5
2CF
100
AcDbEntity
  8
0
100
AcDbPolyline
 62
250
  6
CONTINUOUS
 90
3
 70
0
 10
242.4310551179
 20
213.5257143905
 10
242.4312233035
 20
213.5282370915
 10
242.4295140998
 20
213.5347007045
  0
LWPOLYLINE
  5
2D0
100
AcDbEntity
  8
0
100
AcDbPolyline
 62
7
  6
CONTINUOUS
 90
10
 70
0
 43
0.3500000087
 10
231.6708435669
 20
259.0681356079
 10
231.7422624634
 20
258.9252807617
 10
231.7422624634
 20
258.853844812
 10
231.5994076172
 20
258.7109899658
 10
231.5279887207
 20
258.7109899658
 10
231.456552771
 20
258.7824259155
 10
231.456552771
 20
258.853844812
 10
231.5279887207
 20
258.9966996582
 10
231.5994076172
 20
259.0681356079
 10
231.6708435669
 20
259.0681356079
  0
LINE
  5
2D1
100
AcDbEntity
  8
0
100
AcDbLine
 62
7
  6
CONTINUOUS
 10
242.5650455808
 20
235.4950446541
 11
240.9650455808
 21
235.4111922072
  0
LINE
  5
2D2
100
AcDbEntity
  8
0
100
AcDbLine
 62
250
  6
CONTINUOUS
 10
242.375512772
 20
213.6616605586
 11
242.075512772
 21
213.5217682611
  0
LINE
  5
2D3
100
AcDbEntity
  8
0
100
AcDbLine
 62
250
  6
CONTINUOUS
 10
242.075512772
 20
237.974837483
 11
242.375512772
 21
237.8349451855
  0
LINE
  5
2D4
100
AcDbEntity
  8
0
100
AcDbLine
 62
7
  6
CONTINUOUS
 10
242.47843832
 20
213.5478095406
 11
242.2603339242
 21
213.4461057905
  0
LINE
  5
2D5
100
AcDbEntity
  8
0
100
AcDbLine
 62
7
  6
CONTINUOUS
 10
240.9650455808
 20
239.0854135369
 11
242.2650455808
 21
239.0172834239
  0
LINE
  5
2D6
100
AcDbEntity
  8
0
100
AcDbLine
 62
250
  6
CONTINUOUS
 10
242.375512772
 20
237.8349451855
 11
242.5650455808
 21
237.8128500622
  0
LINE
  5
2D7
100
AcDbEntity
  8
0
100
AcDbLine
 62
7
  6
CONTINUOUS
 10
242.2603339242
 20
238.0504999536
 11
242.47843832
 21
237.9487962036
  0
LINE
  5
2D8
100
AcDbEntity
  8
0
100
AcDbLine
 62
7
  6
CONTINUOUS
 10
240.4650455808
 20
239.4983028721
 11
240.9650455808
 21
239.4983028721
  0
LINE
  5
2D9
100
AcDbEntity
  8
0
100
AcDbLine
 62
7
  6
CONTINUOUS
 10
240.4650455808
 20
243.4983028721
 11
240.9650455808
 21
243.4983028721
  0
LINE
  5
2DA
100
AcDbEntity
  8
0
100
AcDbLine
 62
250
  6
CONTINUOUS
 10
240.7676516238
 20
204.3084577843
 11
240.4650455808
 21
204.1983181919
  0
LINE
  5
2DB
100
AcDbEntity
  8
0
100
AcDbLine
 62
7
  6
CONTINUOUS
 10
240.7676516238
 20
203.8386114739
 11
240.4650455808
 21
203.7284718815
  0
LWPOLYLINE
  5
2DC
100
AcDbEntity
  8
0
100
AcDbPolyline
 62
250
  6
CONTINUOUS
 90
22
 70
0
 10
239.1257084668
 20
247.2477133267
 10
239.0512846353
 20
247.2406116896
 10
238.9791253056
 20
247.2287992186
 10
238.9092304779
 20
247.2122759134
 10
238.8416325698
 20
247.1909678776
 10
238.7762991636
 20
247.1649490078
 10
238.7131330061
 20
247.1344409935
 10
238.6517222284
 20
247.0992676439
 10
238.5924786993
 20
247.0596051498
 10
238.5365407721
 20
247.0162037733
 10
238.4838864486
 20
246.9686774309
 10
238.4345377268
 20
246.9174122061
 10
238.3896989541
 20
246.8643166109
 10
238.3499561971
 20
246.8100524599
 10
238.3147233891
 20
246.7539579385
 10
238.2834466774
 20
246.6959561153
 10
238.255899456
 20
246.6366705777
 10
238.2323083311
 20
246.5754777383
 10
238.2127992675
 20
246.510429903
 10
238.1974142539
 20
246.4408778407
 10
238.1861113018
 20
246.3674707825
 10
238.1788904111
 20
246.2902087286
  0
LINE
  5
2DD
100
AcDbEntity
  8
0
100
AcDbLine
 62
250
  6
CONTINUOUS
 10
240.4650455808
 20
247.3179050105
 11
239.1257084668
 21
247.2477133267
  0
LINE
  5
2DE
100
AcDbEntity
  8
0
100
AcDbLine
 62
7
  6
CONTINUOUS
 10
240.4650455808
 20
247.8181338626
 11
239.1082666919
 21
247.747028094
  0
LINE
  5
2DF
100
AcDbEntity
  8
0
100
AcDbLine
 62
250
  6
CONTINUOUS
 10
240.9650455808
 20
247.1881479598
 11
240.7676516238
 21
247.1881479598
  0
LWPOLYLINE
  5
2E0
100
AcDbEntity
  8
0
100
AcDbPolyline
 62
7
  6
CONTINUOUS
 90
8
 70
0
 43
0.3500000087
 10
228.8851314331
 20
258.5681351196
 10
229.7422775635
 20
258.5681351196
 10
230.1708421021
 20
258.9966996582
 10
230.1708421021
 20
259.8538457886
 10
229.7422775635
 20
260.2824273804
 10
228.8851314331
 20
260.2824273804
 10
228.8851314331
 20
261.5681380493
 10
230.1708421021
 20
261.5681380493
  0
LWPOLYLINE
  5
2E1
100
AcDbEntity
  8
0
100
AcDbPolyline
 62
7
  6
CONTINUOUS
 90
6
 70
0
 43
0.3500000087
 10
232.7422634399
 20
258.5681351196
 10
233.8137003662
 20
258.5681351196
 10
234.0279911621
 20
258.7824259155
 10
234.0279911621
 20
259.8538457886
 10
233.5994095703
 20
260.2824273804
 10
233.1708450317
 20
260.2824273804
  0
LWPOLYLINE
  5
2E2
100
AcDbEntity
  8
0
100
AcDbPolyline
 62
250
  6
CONTINUOUS
 90
3
 70
0
 10
238.1788904111
 20
246.2902087286
 10
237.6907144441
 20
246.3106239676
 10
237.6880396083
 20
246.3107711969
  0
LINE
  5
2E3
100
AcDbEntity
  8
0
100
AcDbLine
 62
250
  6
CONTINUOUS
 10
240.4650455808
 20
247.2982875522
 11
240.7676516238
 21
247.1881479598
  0
LINE
  5
2E4
100
AcDbEntity
  8
0
100
AcDbLine
 62
7
  6
CONTINUOUS
 10
240.4650455808
 20
247.7681338626
 11
240.7676516238
 21
247.6579942702
  0
LWPOLYLINE
  5
2E5
100
AcDbEntity
  8
0
100
AcDbPolyline
 62
250
  6
CONTINUOUS
 90
37
 70
0
 10
240.7676516238
 20
247.6579942702
 10
240.7732994053
 20
247.6548505865
 10
240.7783216487
 20
247.6498946814
 10
240.7827531951
 20
247.6433183706
 10
240.786648845
 20
247.635313462
 10
240.7900422804
 20
247.6260620784
 10
240.7929370542
 20
247.6157184323
 10
240.79537839
 20
247.6044347721
 10
240.7974146131
 20
247.5923601124
 10
240.799044446
 20
247.5796077229
 10
240.8003125168
 20
247.5662907227
 10
240.8012641152
 20
247.5525333993
 10
240.8018919665
 20
247.5384412386
 10
240.8022377123
 20
247.5241206536
 10
240.8023470752
 20
247.5096564027
 10
240.8022123487
 20
247.4951025675
 10
240.8018685678
 20
247.4805541441
 10
240.8013570338
 20
247.4660597553
 10
240.8006670274
 20
247.4515811755
 10
240.7998223568
 20
247.4371738495
 10
240.798855179
 20
247.4228785965
 10
240.797751648
 20
247.4086130403
 10
240.7965267187
 20
247.3944113462
 10
240.7952033126
 20
247.3803023042
 10
240.7937650902
 20
247.3661787212
 10
240.7922200358
 20
247.3520629618
 10
240.7905831797
 20
247.3379740393
 10
240.7888359017
 20
247.3237879079
 10
240.7869804756
 20
247.3095197083
 10
240.7850253499
 20
247.295182963
 10
240.7829495567
 20
247.2806433861
 10
240.7807503427
 20
247.2659128122
 10
240.7784308566
 20
247.2510026764
 10
240.7759682899
 20
247.2357738632
 10
240.7733498439
 20
247.2201875443
 10
240.7705787791
 20
247.2043073473
 10
240.7676516238
 20
247.1881479598
  0
ARC
  5
2E6
100
AcDbEntity
  8
0
100
AcDbCircle
 62
7
  6
CONTINUOUS
 10
239.1867706263
 20
205.2475219522
 40
1.5
100
AcDbArc
 50
182.3569499908
 51
267.0
  0
ARC
  5
2E7
100
AcDbEntity
  8
0
100
AcDbCircle
 62
7
  6
CONTINUOUS
 10
240.6650455808
 20
204.1205192601
 40
0.3
100
AcDbArc
 50
290.0
 51
360.0
  0
ARC
  5
2E8
100
AcDbEntity
  8
0
100
AcDbCircle
 62
7
  6
CONTINUOUS
 10
242.4150455808
 20
213.6837557086
 40
0.15
100
AcDbArc
 50
295.0
 51
360.0
  0
ARC
  5
2E9
100
AcDbEntity
  8
0
100
AcDbCircle
 62
7
  6
CONTINUOUS
 10
239.1867706263
 20
246.2490837919
 40
1.5
100
AcDbArc
 50
93.0
 51
177.6430500092
  0
ARC
  5
2EA
100
AcDbEntity
  8
0
100
AcDbCircle
 62
7
  6
CONTINUOUS
 10
240.6650455808
 20
247.376086484
 40
0.3
100
AcDbArc
 50
0.0
 51
70.0
  0
ARC
  5
2EB
100
AcDbEntity
  8
0
100
AcDbCircle
 62
7
  6
CONTINUOUS
 10
242.4150455808
 20
237.8128500355
 40
0.15
100
AcDbArc
 50
0.0
 51
65.0
  0
ARC
  5
2EC
100
AcDbEntity
  8
0
100
AcDbCircle
 62
7
  6
CONTINUOUS
 10
737.2650455808
 20
225.7483028721
 40
500.0
100
AcDbArc
 50
177.6430500092
 51
182.3569499908
  0
ELLIPSE
  5
2ED
100
AcDbEntity
  8
0
100
AcDbEllipse
 62
7
  6
CONTINUOUS
 10
283.455189336
 20
247.3174476896
 30
0.0
 11
-0.1582391023
 21
-0.4751033573
 31
0.0
 40
0.9984778551
 41
1.8927600658
 42
3.4626430041
  0
ELLIPSE
  5
2EE
100
AcDbEntity
  8
0
100
AcDbEllipse
 62
7
  6
CONTINUOUS
 10
262.410185612
 20
247.3174476896
 30
0.0
 11
-0.1582391023
 21
0.4751033573
 31
0.0
 40
0.9984778551
 41
-0.3210503505
 42
1.2488325878
  0
ELLIPSE
  5
2EF
100
AcDbEntity
  8
0
100
AcDbEllipse
 62
7
  6
CONTINUOUS
 10
262.410185612
 20
204.1791580545
 30
0.0
 11
0.1582391023
 21
0.4751033573
 31
0.0
 40
0.9984778551
 41
1.8927600658
 42
3.4626430041
  0
ELLIPSE
  5
2F0
100
AcDbEntity
  8
0
100
AcDbEllipse
 62
7
  6
CONTINUOUS
 10
283.455189336
 20
204.1791580545
 30
0.0
 11
0.1582391023
 21
-0.4751033573
 31
0.0
 40
0.9984778551
 41
-0.3210503505
 42
1.2488325878
  0
ENDSEC
  0
SECTION
  2
OBJECTS
  0
DICTIONARY
  5
C
100
AcDbDictionary
280
0
281
1
  3
ACAD_GROUP
350
D
  3
ACAD_MLINESTYLE
350
17
  3
ACAD_LAYOUT
350
1A
  3
ACAD_PLOTSETTINGS
350
19
  3
ACAD_PLOTSTYLENAME
350
E
  0
DICTIONARY
  5
D
102
{ACAD_REACTORS
330
C
102
}
100
AcDbDictionary
280
0
281
1
  0
ACDBDICTIONARYWDFLT
  5
E
102
{ACAD_REACTORS
330
C
102
}
100
AcDbDictionary
281
1
  3
Normal
350
F
100
AcDbDictionaryWithDefault
340
F
  0
DICTIONARY
  5
17
102
{ACAD_REACTORS
330
C
102
}
100
AcDbDictionary
280
0
281
1
  3
Standard
350
18
  0
DICTIONARY
  5
19
102
{ACAD_REACTORS
330
C
102
}
100
AcDbDictionary
281
1
  0
DICTIONARY
  5
1A
102
{ACAD_REACTORS
330
C
102
}
100
AcDbDictionary
281
1
  3
Model
350
2F1
  3
Layout1
350
2F2
  0
ACDBPLACEHOLDER
  5
F
102
{ACAD_REACTORS
330
E
102
}
  0
MLINESTYLE
  5
18
102
{ACAD_REACTORS
330
17
102
}
100
AcDbMlineStyle
  2
STANDARD
 70
0
  3

 62
256
 51
90.0
 52
90.0
 71
2
 49
0.5
 62
256
  6
BYLAYER
 49
-0.5
 62
256
  6
BYLAYER
  0
LAYOUT
  5
2F1
102
{ACAD_REACTORS
330
1A
102
}
100
AcDbPlotSettings
  1

  2
none_device
  4
ANSI_C_(22.00_x_17.00_Inches)
  6

 40
0.0
 41
0.0
 42
0.0
 43
0.0
 44
558.8
 45
431.8
 46
0.0
 47
0.0
 48
0.0
 49
0.0
140
0.0
141
0.0
142
1.0
143
1.0
 70
1024
 72
1
 73
0
 74
0
  7

 75
0
147
1.0
148
0.0
149
0.0
100
AcDbLayout
  1
Model
 70
0
 71
0
 10
0.0
 20
0.0
 11
558.8
 21
431.8
 12
0.0
 22
0.0
 32
0.0
 14
0.0
 24
0.0
 34
0.0
 15
0.0
 25
0.0
 35
0.0
146
0.0
 13
0.0
 23
0.0
 33
0.0
 16
1.0
 26
0.0
 36
0.0
 17
0.0
 27
1.0
 37
0.0
 76
0
330
214
345
0
346
0
  0
LAYOUT
  5
2F2
102
{ACAD_REACTORS
330
1A
102
}
100
AcDbPlotSettings
  1

  2
none_device
  4
ANSI_C_(22.00_x_17.00_Inches)
  6

 40
0.0
 41
0.0
 42
0.0
 43
0.0
 44
558.8
 45
431.8
 46
0.0
 47
0.0
 48
0.0
 49
0.0
140
0.0
141
0.0
142
1.0
143
1.0
 70
0
 72
1
 73
0
 74
0
  7

 75
0
147
1.0
148
0.0
149
0.0
100
AcDbLayout
  1
Layout1
 70
0
 71
1
 10
0.0
 20
0.0
 11
558.8
 21
431.8
 12
0.0
 22
0.0
 32
0.0
 14
0.0
 24
0.0
 34
0.0
 15
0.0
 25
0.0
 35
0.0
146
0.0
 13
0.0
 23
0.0
 33
0.0
 16
1.0
 26
0.0
 36
0.0
 17
0.0
 27
1.0
 37
0.0
 76
0
330
215
345
0
346
0
  0
ENDSEC
  0
EOF
