  0
SECTION
  2
HEADER
  9
$ACADVER
  1
AC1024
  9
$DWGCODEPAGE
  3
ANSI_1252
  9
$EXTMAX
 10
558.8
 20
431.8
 30
0.0
  9
$EXTMIN
 10
0.0
 20
0.0
 30
0.0
  9
$LIMMIN
 10
0.0
 20
0.0
  9
$LIMMAX
 10
558.8
 20
431.8
  9
$VIEWCTR
 10
279.4
 20
215.9
  9
$VIEWSIZE
 40
431.8
  9
$CLAYER
  8
0
  9
$LTSCALE
 40
30.734
  9
$CELTYPE
  6
BYLAYER
  9
$DIMSCALE
 40
1.0
  9
$DIMASZ
 40
3.0
  9
$DIMEXO
 40
0.5
  9
$DIMDLI
 40
21.2344
  9
$DIMEXE
 40
1.5
  9
$DIMCEN
 40
5.0292
  9
$DIMLFAC
 40
1.0
  9
$DIMBLK
  1
_FILLED
  9
$DIMALT
 70
0
  9
$DIMALTF
 40
0.0393700787
  9
$DIMTXT
 40
3.0
  9
$DIMTOL
 70
1
  9
$DIMLIM
 70
0
  9
$DIMTFAC
 40
1.0
  9
$DIMTP
 40
0.01
  9
$DIMTM
 40
0.01
  9
$DIMGAP
 40
0.625
  9
$DIMDSEP
 70
44
  9
$AUNITS
 70
0
  9
$PDMODE
 70
3
  9
$PDSIZE
 40
3.0
  9
$HANDSEED
  5
338
  9
$TILEMODE
 70
1
  9
$MEASUREMENT
 70
1
  9
$INSUNITS
 70
4
  0
ENDSEC
  0
SECTION
  2
CLASSES
  0
CLASS
  1
ACDBDICTIONARYWDFLT
  2
AcDbDictionaryWithDefault
  3
AutoCAD 2000
 90
0
 91
1
280
0
281
0
  0
CLASS
  1
ACDBPLACEHOLDER
  2
AcDbPlaceHolder
  3
AutoCAD 2000
 90
0
 91
1
280
0
281
0
  0
CLASS
  1
LAYOUT
  2
AcDbLayout
  3
AutoCAD 2000
 90
0
 91
0
280
0
281
0
  0
ENDSEC
  0
SECTION
  2
TABLES
  0
TABLE
  2
VPORT
  5
8
100
AcDbSymbolTable
 70
2
  0
VPORT
  5
1F4
100
AcDbSymbolTableRecord
100
AcDbViewportTableRecord
  2
*ACTIVE
 70
0
 10
0.0
 20
0.0
 11
1.0
 21
1.0
 12
279.4
 22
215.9
 13
0.0
 23
0.0
 14
1.0
 24
1.0
 15
0.0
 25
0.0
 16
0.0
 26
0.0
 36
1.0
 17
0.0
 27
0.0
 37
0.0
 40
431.8
 41
1.2941176471
 42
50.0
 43
0.0
 44
0.0
 50
0.0
 51
0.0
 71
0
 72
100
 73
1
 74
1
 75
0
 76
0
 77
0
 78
0
  0
ENDTAB
  0
TABLE
  2
LTYPE
  5
5
100
AcDbSymbolTable
 70
6
  0
LTYPE
  5
14
100
AcDbSymbolTableRecord
100
AcDbLinetypeTableRecord
  2
BYBLOCK
 70
0
  3

 72
65
 73
0
 40
0.0
  0
LTYPE
  5
15
100
AcDbSymbolTableRecord
100
AcDbLinetypeTableRecord
  2
BYLAYER
 70
0
  3

 72
65
 73
0
 40
0.0
  0
LTYPE
  5
16
100
AcDbSymbolTableRecord
100
AcDbLinetypeTableRecord
  2
CONTINUOUS
 70
64
  3
Solid line
 72
65
 73
0
 40
0.0
  0
LTYPE
  5
1F5
100
AcDbSymbolTableRecord
100
AcDbLinetypeTableRecord
  2
CENTER
 70
64
  3
____ _ ____ _ ____ _ ____ _ ____ _ ____ _ ____
 72
65
 73
4
 40
0.6
 49
0.375
 74
0
 49
-0.075
 74
0
 49
0.075
 74
0
 49
-0.075
 74
0
  0
LTYPE
  5
1F6
100
AcDbSymbolTableRecord
100
AcDbLinetypeTableRecord
  2
HIDDEN
 70
64
  3
- - - - - - - - - - - - - - - - - - - -
 72
65
 73
2
 40
0.2
 49
0.1
 74
0
 49
-0.1
 74
0
  0
LTYPE
  5
1F7
100
AcDbSymbolTableRecord
100
AcDbLinetypeTableRecord
  2
PHANTOM
 70
64
  3
_____ _ _ _____ _ _ _____ _ _ _____
 72
65
 73
6
 40
0.8
 49
0.45
 74
0
 49
-0.05
 74
0
 49
0.1
 74
0
 49
-0.05
 74
0
 49
0.1
 74
0
 49
-0.05
 74
0
  0
LTYPE
  5
1F8
100
AcDbSymbolTableRecord
100
AcDbLinetypeTableRecord
  2
DOT
 70
64
  3
. . . . . . . . . . . . . . . . . . . .
 72
65
 73
2
 40
0.2
 49
0.1
 74
0
 49
-0.1
 74
0
  0
LTYPE
  5
1F9
100
AcDbSymbolTableRecord
100
AcDbLinetypeTableRecord
  2
DASHED
 70
64
  3
- - - - - - - - - - - - - - - - - - - -
 72
65
 73
2
 40
0.2
 49
0.1
 74
0
 49
-0.1
 74
0
  0
ENDTAB
  0
TABLE
  2
LAYER
  5
2
100
AcDbSymbolTable
 70
36
  0
LAYER
  5
10
100
AcDbSymbolTableRecord
100
AcDbLayerTableRecord
  2
0
 70
0
 62
7
  6
CONTINUOUS
370
-3
390
F
  0
LAYER
  5
1FA
100
AcDbSymbolTableRecord
100
AcDbLayerTableRecord
  2
DEFAULT_1
 70
0
 62
7
  6
CENTER
370
-3
390
F
  0
LAYER
  5
1FB
100
AcDbSymbolTableRecord
100
AcDbLayerTableRecord
  2
DEFAULT_2
 70
0
 62
7
  6
HIDDEN
370
-3
390
F
  0
LAYER
  5
1FC
100
AcDbSymbolTableRecord
100
AcDbLayerTableRecord
  2
DEFAULT_3
 70
0
 62
7
  6
PHANTOM
370
-3
390
F
  0
LAYER
  5
1FD
100
AcDbSymbolTableRecord
100
AcDbLayerTableRecord
  2
ASSI
 70
0
 62
7
  6
CONTINUOUS
370
-3
390
F
  0
LAYER
  5
1FE
100
AcDbSymbolTableRecord
100
AcDbLayerTableRecord
  2
COORDINATE
 70
0
 62
7
  6
CONTINUOUS
370
-3
390
F
  0
LAYER
  5
1FF
100
AcDbSymbolTableRecord
100
AcDbLayerTableRecord
  2
COPY_PUBLISH
 70
0
 62
7
  6
CONTINUOUS
370
-3
390
F
  0
LAYER
  5
200
100
AcDbSymbolTableRecord
100
AcDbLayerTableRecord
  2
COSMETIC
 70
0
 62
7
  6
CONTINUOUS
370
-3
390
F
  0
LAYER
  5
201
100
AcDbSymbolTableRecord
100
AcDbLayerTableRecord
  2
COSMETICI
 70
0
 62
7
  6
CONTINUOUS
370
-3
390
F
  0
LAYER
  5
202
100
AcDbSymbolTableRecord
100
AcDbLayerTableRecord
  2
CURVE
 70
0
 62
7
  6
CONTINUOUS
370
-3
390
F
  0
LAYER
  5
203
100
AcDbSymbolTableRecord
100
AcDbLayerTableRecord
  2
DRAFT
 70
0
 62
7
  6
CONTINUOUS
370
-3
390
F
  0
LAYER
  5
204
100
AcDbSymbolTableRecord
100
AcDbLayerTableRecord
  2
IMPORT_IGES
 70
0
 62
7
  6
CONTINUOUS
370
-3
390
F
  0
LAYER
  5
205
100
AcDbSymbolTableRecord
100
AcDbLayerTableRecord
  2
INTFCLR_11
 70
0
 62
7
  6
CONTINUOUS
370
-3
390
F
  0
LAYER
  5
206
100
AcDbSymbolTableRecord
100
AcDbLayerTableRecord
  2
INTF_1
 70
0
 62
7
  6
CONTINUOUS
370
-3
390
F
  0
LAYER
  5
207
100
AcDbSymbolTableRecord
100
AcDbLayerTableRecord
  2
INTF_3
 70
0
 62
7
  6
CONTINUOUS
370
-3
390
F
  0
LAYER
  5
208
100
AcDbSymbolTableRecord
100
AcDbLayerTableRecord
  2
NOTE
 70
0
 62
7
  6
CONTINUOUS
370
-3
390
F
  0
LAYER
  5
209
100
AcDbSymbolTableRecord
100
AcDbLayerTableRecord
  2
PIANI
 70
0
 62
7
  6
CONTINUOUS
370
-3
390
F
  0
LAYER
  5
20A
100
AcDbSymbolTableRecord
100
AcDbLayerTableRecord
  2
PUNTI
 70
0
 62
7
  6
CONTINUOUS
370
-3
390
F
  0
LAYER
  5
20B
100
AcDbSymbolTableRecord
100
AcDbLayerTableRecord
  2
RACCORDO
 70
0
 62
7
  6
CONTINUOUS
370
-3
390
F
  0
LAYER
  5
20C
100
AcDbSymbolTableRecord
100
AcDbLayerTableRecord
  2
SIMBOLI
 70
0
 62
7
  6
CONTINUOUS
370
-3
390
F
  0
LAYER
  5
20D
100
AcDbSymbolTableRecord
100
AcDbLayerTableRecord
  2
SMUSSO
 70
0
 62
7
  6
CONTINUOUS
370
-3
390
F
  0
LAYER
  5
20E
100
AcDbSymbolTableRecord
100
AcDbLayerTableRecord
  2
SNAPLINE
 70
0
 62
7
  6
CONTINUOUS
370
-3
390
F
  0
LAYER
  5
20F
100
AcDbSymbolTableRecord
100
AcDbLayerTableRecord
  2
SUPERFICI
 70
0
 62
7
  6
CONTINUOUS
370
-3
390
F
  0
LAYER
  5
210
100
AcDbSymbolTableRecord
100
AcDbLayerTableRecord
  2
TRASH
 70
0
 62
7
  6
CONTINUOUS
370
-3
390
F
  0
LAYER
  5
211
100
AcDbSymbolTableRecord
100
AcDbLayerTableRecord
  2
___SHELL
 70
0
 62
7
  6
CONTINUOUS
370
-3
390
F
  0
ENDTAB
  0
TABLE
  2
STYLE
  5
3
100
AcDbSymbolTable
 70
1
  0
STYLE
  5
11
100
AcDbSymbolTableRecord
100
AcDbTextStyleTableRecord
  2
STANDARD
 70
0
 40
0.0
 41
0.8
 50
0.0
 71
0
 42
0.2
  3
txt
  4

  0
STYLE
  5
212
100
AcDbSymbolTableRecord
100
AcDbTextStyleTableRecord
  2
TEXTSTYLE_1
 70
0
 40
0.0
 41
0.8
 50
0.0
 71
0
 42
0.2
  3
gdt
  4

  0
ENDTAB
  0
TABLE
  2
VIEW
  5
6
100
AcDbSymbolTable
 70
0
  0
ENDTAB
  0
TABLE
  2
UCS
  5
7
100
AcDbSymbolTable
 70
0
  0
ENDTAB
  0
TABLE
  2
APPID
  5
9
100
AcDbSymbolTable
 70
1
  0
APPID
  5
213
100
AcDbSymbolTableRecord
100
AcDbRegAppTableRecord
  2
ACAD
 70
0
  0
ENDTAB
  0
TABLE
  2
BLOCK_RECORD
  5
1
100
AcDbSymbolTable
 70
0
  0
BLOCK_RECORD
  5
214
100
AcDbSymbolTableRecord
100
AcDbBlockTableRecord
  2
*Model_Space
  0
BLOCK_RECORD
  5
215
100
AcDbSymbolTableRecord
100
AcDbBlockTableRecord
  2
*Paper_Space
  0
BLOCK_RECORD
  5
216
100
AcDbSymbolTableRecord
100
AcDbBlockTableRecord
  2
_FILLED
  0
BLOCK_RECORD
  5
217
100
AcDbSymbolTableRecord
100
AcDbBlockTableRecord
  2
*D0
  0
BLOCK_RECORD
  5
218
100
AcDbSymbolTableRecord
100
AcDbBlockTableRecord
  2
*D1
  0
BLOCK_RECORD
  5
219
100
AcDbSymbolTableRecord
100
AcDbBlockTableRecord
  2
*D2
  0
ENDTAB
  0
TABLE
  2
DIMSTYLE
  5
A
100
AcDbSymbolTable
 70
1
100
AcDbDimStyleTable
 71
0
  0
DIMSTYLE
105
21A
100
AcDbSymbolTableRecord
100
AcDbDimStyleTableRecord
  2
STANDARD
 70
0
  3

  4

 40
1.0
 41
3.0
 42
0.5
 43
0.38
 44
1.5
 45
0.0
 46
0.0
 47
0.01
 48
0.01
140
3.0
141
0.09
142
0.0
143
25.4
144
1.0
145
0.0
146
1.0
147
0.625
 71
1
 72
0
 73
0
 74
0
 75
0
 76
0
 77
1
 78
8
 79
2
170
0
171
1
172
0
173
0
174
0
175
0
176
0
177
0
178
0
270
2
179
2
271
2
272
2
273
2
274
2
275
0
280
0
281
0
282
0
283
1
284
8
285
0
286
0
287
3
288
0
340
11
278
44
341
216
342
216
343
216
344
216
  0
DIMSTYLE
105
21B
100
AcDbSymbolTableRecord
100
AcDbDimStyleTableRecord
  2
DIMSTYLE_1
 70
0
  3

  4

 40
1.0
 41
3.0
 42
0.5
 43
0.38
 44
1.5
 45
0.0
 46
0.0
 47
0.0
 48
0.0
140
3.0
141
0.09
142
0.0
143
25.4
144
1.0
145
0.0
146
1.0
147
0.75
 71
0
 72
0
 73
0
 74
0
 75
0
 76
0
 77
1
 78
8
 79
2
170
0
171
1
172
0
173
0
174
0
175
0
176
0
177
0
178
0
270
2
179
2
271
1
272
1
273
2
274
2
275
0
280
0
281
0
282
0
283
1
284
8
285
0
286
0
287
3
288
0
340
11
278
44
341
216
342
216
343
216
344
216
  0
DIMSTYLE
105
21C
100
AcDbSymbolTableRecord
100
AcDbDimStyleTableRecord
  2
DIMSTYLE_2
 70
0
  3

  4

 40
1.0
 41
3.0
 42
0.5
 43
0.38
 44
1.5
 45
0.0
 46
0.0
 47
0.0
 48
0.0
140
3.0
141
0.09
142
0.0
143
25.4
144
1.0
145
0.0
146
1.0
147
0.75
 71
0
 72
0
 73
0
 74
0
 75
0
 76
0
 77
1
 78
8
 79
2
170
0
171
1
172
0
173
0
174
0
175
0
176
0
177
0
178
0
270
2
179
2
271
2
272
2
273
2
274
2
275
0
280
0
281
0
282
0
283
1
284
8
285
0
286
0
287
3
288
0
340
11
278
44
341
216
342
216
343
216
344
216
  0
ENDTAB
  0
ENDSEC
  0
SECTION
  2
BLOCKS
  0
BLOCK
  5
20
100
AcDbEntity
  8
0
100
AcDbBlockBegin
  2
*Model_Space
 70
0
 10
0.0
 20
0.0
 30
0.0
  3
*Model_Space
  1

  0
ENDBLK
  5
21
100
AcDbEntity
  8
0
100
AcDbBlockEnd
  0
BLOCK
  5
1C
100
AcDbEntity
  8
0
100
AcDbBlockBegin
  2
*Paper_Space
 70
0
 10
0.0
 20
0.0
 30
0.0
  3
*Paper_Space
  1

  0
ENDBLK
  5
1D
100
AcDbEntity
  8
0
100
AcDbBlockEnd
  0
BLOCK
  5
21D
100
AcDbEntity
  8
0
100
AcDbBlockBegin
  2
_FILLED
 70
64
 10
0.0
 20
0.0
  3
_FILLED
  1

  0
SOLID
  5
21E
100
AcDbEntity
  8
0
  6
BYBLOCK
 62
0
100
AcDbTrace
 10
0.0
 20
0.0
 11
-1.0
 21
0.3166666667
 12
-1.0
 22
-0.3166666667
 13
-1.0
 23
-0.3166666667
  0
ENDBLK
  5
21F
100
AcDbEntity
  8
0
  6
BYBLOCK
 62
0
100
AcDbBlockEnd
  0
BLOCK
  5
220
100
AcDbEntity
  8
0
100
AcDbBlockBegin
 62
7
  6
CONTINUOUS
  2
*D0
 70
65
 10
0.0
 20
0.0
  3
*D0
  1

  0
MTEXT
  5
221
100
AcDbEntity
  8
0
100
AcDbMText
 62
7
  6
CONTINUOUS
  7
STANDARD
 71
2
 72
1
 10
261.8577105091
 20
233.8697820349
 30
0.0
 11
1.0
 21
0.0
 31
0.0
 73
2
 44
0.9
  1
{\ftxt;\W0.0001;\H0.0001;\~}{\ftxt;\W1.5714285714;\H3.0; }{\ftxt;\W0.0001;\H0.0001;\~}
 40
3.0
 41
7.0714285714
  0
LINE
  5
222
100
AcDbEntity
  8
0
100
AcDbLine
 62
7
  6
CONTINUOUS
 10
250.8351324831
 20
220.1195531828
 11
250.8351324831
 21
231.6197820349
  0
LINE
  5
223
100
AcDbEntity
  8
0
100
AcDbLine
 62
7
  6
CONTINUOUS
 10
272.8802885352
 20
220.1195531828
 11
272.8802885352
 21
231.6197820349
  0
LINE
  5
224
100
AcDbEntity
  8
0
100
AcDbLine
 62
7
  6
CONTINUOUS
 10
250.8351324831
 20
230.1197820349
 11
261.8577105091
 21
230.1197820349
  0
LINE
  5
225
100
AcDbEntity
  8
0
100
AcDbLine
 62
7
  6
CONTINUOUS
 10
272.8802885352
 20
230.1197820349
 11
261.8577105091
 21
230.1197820349
  0
INSERT
  5
226
100
AcDbEntity
  8
0
100
AcDbBlockReference
 62
7
  6
CONTINUOUS
  2
_FILLED
 10
250.8351324831
 20
230.1197820349
 41
3.0
 42
3.0
 43
3.0
 50
180.0
  0
INSERT
  5
227
100
AcDbEntity
  8
0
100
AcDbBlockReference
 62
7
  6
CONTINUOUS
  2
_FILLED
 10
272.8802885352
 20
230.1197820349
 41
3.0
 42
3.0
 43
3.0
  0
ENDBLK
  5
228
100
AcDbEntity
  8
0
  6
BYBLOCK
 62
0
100
AcDbBlockEnd
  0
BLOCK
  5
229
100
AcDbEntity
  8
0
100
AcDbBlockBegin
 62
7
  6
CONTINUOUS
  2
*D1
 70
65
 10
0.0
 20
0.0
  3
*D1
  1

  0
MTEXT
  5
22A
100
AcDbEntity
  8
0
100
AcDbMText
 62
7
  6
CONTINUOUS
  7
STANDARD
 71
2
 72
1
 10
279.1302885352
 20
198.0499510444
 30
0.0
 11
0.0
 21
1.0
 31
0.0
 73
2
 44
0.9
  1
{\ftxt;\W0.0001;\H0.0001;\~}{\ftxt;\W2.7142857143;\H3.0; }{\ftxt;\W0.0001;\H0.0001;\~}
 40
3.0
 41
12.2142857143
  0
LINE
  5
22B
100
AcDbEntity
  8
0
100
AcDbLine
 62
7
  6
CONTINUOUS
 10
272.8806691349
 20
220.1197820349
 11
284.3802885352
 21
220.1197820349
  0
LINE
  5
22C
100
AcDbEntity
  8
0
100
AcDbLine
 62
7
  6
CONTINUOUS
 10
272.8806691349
 20
175.9801200539
 11
284.3802885352
 21
175.9801200539
  0
LINE
  5
22D
100
AcDbEntity
  8
0
100
AcDbLine
 62
7
  6
CONTINUOUS
 10
282.8802885352
 20
220.1197820349
 11
282.8802885352
 21
198.0499510444
  0
LINE
  5
22E
100
AcDbEntity
  8
0
100
AcDbLine
 62
7
  6
CONTINUOUS
 10
282.8802885352
 20
175.9801200539
 11
282.8802885352
 21
198.0499510444
  0
INSERT
  5
22F
100
AcDbEntity
  8
0
100
AcDbBlockReference
 62
7
  6
CONTINUOUS
  2
_FILLED
 10
282.8802885352
 20
220.1197820349
 41
3.0
 42
3.0
 43
3.0
 50
90.0
  0
INSERT
  5
230
100
AcDbEntity
  8
0
100
AcDbBlockReference
 62
7
  6
CONTINUOUS
  2
_FILLED
 10
282.8802885352
 20
175.9801200539
 41
3.0
 42
3.0
 43
3.0
 50
270.0
  0
ENDBLK
  5
231
100
AcDbEntity
  8
0
  6
BYBLOCK
 62
0
100
AcDbBlockEnd
  0
BLOCK
  5
232
100
AcDbEntity
  8
0
100
AcDbBlockBegin
 62
7
  6
CONTINUOUS
  2
*D2
 70
65
 10
0.0
 20
0.0
  3
*D2
  1

  0
MTEXT
  5
233
100
AcDbEntity
  8
0
100
AcDbMText
 62
7
  6
CONTINUOUS
  7
STANDARD
 71
3
 72
1
 10
215.9563575609
 20
233.8697820349
 30
0.0
 11
1.0
 21
0.0
 31
0.0
 73
2
 44
0.9
  1
{\ftxt;\W0.0001;\H0.0001;\~}{\ftxt;\W2.0;\H3.0; }{\ftxt;\W0.0001;\H0.0001;\~}
 40
3.0
 41
9.0
  0
LINE
  5
234
100
AcDbEntity
  8
0
100
AcDbLine
 62
7
  6
CONTINUOUS
 10
227.2040908382
 20
210.6144982078
 11
227.2040908382
 21
231.6197820349
  0
LINE
  5
235
100
AcDbEntity
  8
0
100
AcDbLine
 62
7
  6
CONTINUOUS
 10
221.9040908382
 20
198.5499510444
 11
221.9040908382
 21
231.6197820349
  0
LINE
  5
236
100
AcDbEntity
  8
0
100
AcDbLine
 62
7
  6
CONTINUOUS
 10
227.2040908382
 20
230.1197820349
 11
231.2040908382
 21
230.1197820349
  0
LINE
  5
237
100
AcDbEntity
  8
0
100
AcDbLine
 62
7
  6
CONTINUOUS
 10
231.2040908382
 20
230.1197820349
 11
224.5540908382
 21
230.1197820349
  0
LINE
  5
238
100
AcDbEntity
  8
0
100
AcDbLine
 62
7
  6
CONTINUOUS
 10
221.9040908382
 20
230.1197820349
 11
209.9563575609
 21
230.1197820349
  0
LINE
  5
239
100
AcDbEntity
  8
0
100
AcDbLine
 62
7
  6
CONTINUOUS
 10
209.9563575609
 20
230.1197820349
 11
224.5540908382
 21
230.1197820349
  0
INSERT
  5
23A
100
AcDbEntity
  8
0
100
AcDbBlockReference
 62
7
  6
CONTINUOUS
  2
_FILLED
 10
227.2040908382
 20
230.1197820349
 41
3.0
 42
3.0
 43
3.0
 50
180.0
  0
INSERT
  5
23B
100
AcDbEntity
  8
0
100
AcDbBlockReference
 62
7
  6
CONTINUOUS
  2
_FILLED
 10
221.9040908382
 20
230.1197820349
 41
3.0
 42
3.0
 43
3.0
  0
ENDBLK
  5
23C
100
AcDbEntity
  8
0
  6
BYBLOCK
 62
0
100
AcDbBlockEnd
  0
ENDSEC
  0
SECTION
  2
ENTITIES
  0
DIMENSION
  5
23D
100
AcDbEntity
  8
0
100
AcDbDimension
 62
7
  6
CONTINUOUS
  2
*D0
 10
272.8802885352
 20
230.1197820349
 11
261.429134906
 21
230.1197820349
 70
160
 71
2
 72
2
 41
0.9
 42
22.045156052
  1
{\ftxt;\W0.0001;\H0.0001;\~}{\ftxt;\W1.5714285714;\H3.0; }{\ftxt;\W0.0001;\H0.0001;\~}
  3
DIMSTYLE_1
100
AcDbAlignedDimension
 13
250.8351324831
 23
219.6195531828
 14
272.8802885352
 24
219.6195531828
 50
360.0
100
AcDbRotatedDimension
  0
DIMENSION
  5
23E
100
AcDbEntity
  8
0
100
AcDbDimension
 62
7
  6
CONTINUOUS
  2
*D1
 10
282.8802885352
 20
175.9801200539
 11
282.8802885352
 21
197.6213813621
 70
160
 71
2
 72
2
 41
0.9
 42
44.139661981
  1
{\ftxt;\W0.0001;\H0.0001;\~}{\ftxt;\W2.7142857143;\H3.0; }{\ftxt;\W0.0001;\H0.0001;\~}
  3
DIMSTYLE_1
100
AcDbAlignedDimension
 13
272.3806691349
 23
220.1197820349
 14
272.3806691349
 24
175.9801200539
 50
270.0
100
AcDbRotatedDimension
  0
DIMENSION
  5
23F
100
AcDbEntity
  8
0
100
AcDbDimension
 62
7
  6
CONTINUOUS
  2
*D2
 10
221.9040908382
 20
230.1197820349
 11
212.5277911072
 21
230.1197820349
 70
160
 71
3
 72
2
 41
0.9
 42
5.3
  1
{\ftxt;\W0.0001;\H0.0001;\~}{\ftxt;\W2.0;\H3.0; }{\ftxt;\W0.0001;\H0.0001;\~}
  3
DIMSTYLE_2
100
AcDbAlignedDimension
 13
227.2040908382
 23
210.1144982078
 14
221.9040908382
 24
198.0499510444
 50
180.0
100
AcDbRotatedDimension
  0
LWPOLYLINE
  5
240
100
AcDbEntity
  8
0
100
AcDbPolyline
 62
250
  6
CONTINUOUS
 90
14
 70
0
 10
250.87503747
 20
218.5918568922
 10
250.8786168552
 20
218.5939827665
 10
250.8875141629
 20
218.5960858697
 10
250.9016341143
 20
218.5981436684
 10
250.920825474
 20
218.600134114
 10
250.9448826643
 20
218.6020358795
 10
250.973547962
 20
218.6038285884
 10
251.0065142745
 20
218.6054930324
 10
251.0434284165
 20
218.6070113762
 10
251.083894877
 20
218.6083673495
 10
251.1274800995
 20
218.609546422
 10
251.1737170999
 20
218.6105359595
 10
251.2221104411
 20
218.6113253589
 10
251.2721415967
 20
218.6119061612
  0
LWPOLYLINE
  5
241
100
AcDbEntity
  8
0
100
AcDbPolyline
 62
250
  6
CONTINUOUS
 90
16
 70
0
 10
250.87503747
 20
177.5080451879
 10
250.8786169731
 20
177.5059192772
 10
250.8875145628
 20
177.5038161446
 10
250.9016349058
 20
177.5017583242
 10
250.9208267097
 20
177.4997678644
 10
250.9448843436
 20
177.4978660921
 10
250.9735500417
 20
177.4960733838
 10
251.0065166652
 20
177.4944089475
 10
251.0434309928
 20
177.4928906168
 10
251.0838975056
 20
177.49153466
 10
251.1274826247
 20
177.4903556054
 10
251.1737193568
 20
177.489366086
 10
251.2221122981
 20
177.4885767041
 10
251.2721429419
 20
177.4879959174
 10
251.3232752342
 20
177.4876299488
 10
272.3404597007
 20
177.4874827196
  0
LINE
  5
242
100
AcDbEntity
  8
0
100
AcDbLine
 62
7
  6
CONTINUOUS
 10
272.3806691349
 20
175.9801200539
 11
251.3347518834
 21
175.9801200539
  0
LINE
  5
243
100
AcDbEntity
  8
0
100
AcDbLine
 62
250
  6
CONTINUOUS
 10
251.358434547
 20
176.0512258224
 11
272.3569864713
 21
176.0512258224
  0
LINE
  5
244
100
AcDbEntity
  8
0
100
AcDbLine
 62
250
  6
CONTINUOUS
 10
272.4432789644
 20
177.4879959196
 11
272.3404597007
 21
177.4874826919
  0
LWPOLYLINE
  5
245
100
AcDbEntity
  8
0
100
AcDbPolyline
 62
250
  6
CONTINUOUS
 90
16
 70
0
 10
250.8585106994
 20
176.5505405898
 10
250.8612937515
 20
176.498379186
 10
250.8695170831
 20
176.4467884303
 10
250.8830907549
 20
176.3963328952
 10
250.9018662786
 20
176.3475647339
 10
250.9256382344
 20
176.3010176532
 10
250.9541465131
 20
176.2572010697
 10
250.9870791784
 20
176.2165945068
 10
251.0240758658
 20
176.1796423738
 10
251.0647317084
 20
176.1467491072
 10
251.108601812
 20
176.1182747029
 10
251.1552060955
 20
176.0945308063
 10
251.2040345134
 20
176.0757773079
 10
251.2545526968
 20
176.0622194643
 10
251.3062078072
 20
176.0540056652
 10
251.3584345472
 20
176.051225823
  0
LWPOLYLINE
  5
246
100
AcDbEntity
  8
0
100
AcDbPolyline
 62
250
  6
CONTINUOUS
 90
16
 70
0
 10
250.8585106994
 20
219.549361499
 10
250.861293856
 20
219.6015238882
 10
250.8695174633
 20
219.653115439
 10
250.8830915264
 20
219.7035715603
 10
250.9018674978
 20
219.7523400862
 10
250.925639903
 20
219.7988873193
 10
250.9541485889
 20
219.8427038709
 10
250.9870815713
 20
219.8833102353
 10
251.0240784487
 20
219.9202620375
 10
251.0647343463
 20
219.9531548959
 10
251.108604347
 20
219.9816288481
 10
251.1552083603
 20
220.00537229
 10
251.2040363759
 20
220.0241253858
 10
251.2545540451
 20
220.0376829112
 10
251.3062085288
 20
220.0458964999
 10
251.358434547
 20
220.0486762664
  0
LWPOLYLINE
  5
247
100
AcDbEntity
  8
0
100
AcDbPolyline
 62
250
  6
CONTINUOUS
 90
8
 70
0
 10
250.8665787589
 20
219.4083183345
 10
250.8655724809
 20
219.4402473866
 10
250.8645430566
 20
219.4684611664
 10
250.8634795579
 20
219.4927402264
 10
250.8623479739
 20
219.512980224
 10
250.8611369677
 20
219.5291463782
 10
250.8598578762
 20
219.5412734698
 10
250.8585106994
 20
219.549361499
  0
LWPOLYLINE
  5
248
100
AcDbEntity
  8
0
100
AcDbPolyline
 62
250
  6
CONTINUOUS
 90
6
 70
0
 10
251.3644669081
 20
219.9269575975
 10
251.3634036603
 20
219.9629898574
 10
251.3622722204
 20
219.9941043551
 10
251.361061188
 20
220.0196478524
 10
251.3597819635
 20
220.0381709672
 10
251.358434547
 20
220.0486762664
  0
LINE
  5
249
100
AcDbEntity
  8
0
100
AcDbLine
 62
250
  6
CONTINUOUS
 10
250.8684903178
 20
219.3321020717
 11
250.8665787589
 21
219.4083183345
  0
LINE
  5
24A
100
AcDbEntity
  8
0
100
AcDbLine
 62
250
  6
CONTINUOUS
 10
251.3665024603
 20
219.836914602
 11
251.3644669081
 21
219.9269575975
  0
LINE
  5
24B
100
AcDbEntity
  8
0
100
AcDbLine
 62
250
  6
CONTINUOUS
 10
250.8702933455
 20
219.2367442405
 11
250.8684903178
 21
219.3321020717
  0
LINE
  5
24C
100
AcDbEntity
  8
0
100
AcDbLine
 62
250
  6
CONTINUOUS
 10
251.3684141921
 20
219.7227871255
 11
251.3665024603
 21
219.836914602
  0
LINE
  5
24D
100
AcDbEntity
  8
0
100
AcDbLine
 62
250
  6
CONTINUOUS
 10
250.8725396549
 20
219.0674510146
 11
250.8702933455
 21
219.2367442405
  0
LINE
  5
24E
100
AcDbEntity
  8
0
100
AcDbLine
 62
250
  6
CONTINUOUS
 10
251.3710363266
 20
219.4999714444
 11
251.3684141921
 21
219.7227871255
  0
LINE
  5
24F
100
AcDbEntity
  8
0
100
AcDbLine
 62
250
  6
CONTINUOUS
 10
250.8741028176
 20
218.876530047
 11
250.8725396549
 21
219.0674510146
  0
LINE
  5
250
100
AcDbEntity
  8
0
100
AcDbLine
 62
250
  6
CONTINUOUS
 10
251.3740266259
 20
219.0395482065
 11
251.3710363266
 21
219.4999714444
  0
LINE
  5
251
100
AcDbEntity
  8
0
100
AcDbLine
 62
250
  6
CONTINUOUS
 10
250.87503747
 20
218.5918569009
 11
250.8741028176
 21
218.876530047
  0
LINE
  5
252
100
AcDbEntity
  8
0
100
AcDbLine
 62
7
  6
CONTINUOUS
 10
250.8351324831
 20
219.6195531828
 11
250.8351324831
 21
176.4803489059
  0
LINE
  5
253
100
AcDbEntity
  8
0
100
AcDbLine
 62
250
  6
CONTINUOUS
 10
250.8769524759
 20
180.4418602717
 11
250.87503747
 21
218.5918569009
  0
LINE
  5
254
100
AcDbEntity
  8
0
100
AcDbLine
 62
250
  6
CONTINUOUS
 10
251.3768763235
 20
180.4240282025
 11
251.3740266259
 21
219.0395482065
  0
LINE
  5
255
100
AcDbEntity
  8
0
100
AcDbLine
 62
250
  6
CONTINUOUS
 10
250.8744455887
 20
177.2878240134
 11
250.8769524759
 21
180.4418602717
  0
LINE
  5
256
100
AcDbEntity
  8
0
100
AcDbLine
 62
250
  6
CONTINUOUS
 10
251.373617148
 20
176.9680201399
 11
251.3768763235
 21
180.4240282025
  0
LINE
  5
257
100
AcDbEntity
  8
0
100
AcDbLine
 62
250
  6
CONTINUOUS
 10
251.3712816196
 20
176.6263208961
 11
251.373617148
 21
176.9680201399
  0
LINE
  5
258
100
AcDbEntity
  8
0
100
AcDbLine
 62
250
  6
CONTINUOUS
 10
250.8726664966
 20
177.0442959779
 11
250.8744455887
 21
177.2878240134
  0
LINE
  5
259
100
AcDbEntity
  8
0
100
AcDbLine
 62
250
  6
CONTINUOUS
 10
251.3687185567
 20
176.3984901522
 11
251.3712816196
 21
176.6263208961
  0
LINE
  5
25A
100
AcDbEntity
  8
0
100
AcDbLine
 62
250
  6
CONTINUOUS
 10
250.8705751295
 20
176.8808417103
 11
250.8726664966
 21
177.0442959779
  0
LINE
  5
25B
100
AcDbEntity
  8
0
100
AcDbLine
 62
250
  6
CONTINUOUS
 10
251.3667078851
 20
176.2738775823
 11
251.3687185567
 21
176.3984901522
  0
LINE
  5
25C
100
AcDbEntity
  8
0
100
AcDbLine
 62
250
  6
CONTINUOUS
 10
250.8687946598
 20
176.7820501432
 11
250.8705751295
 21
176.8808417103
  0
LWPOLYLINE
  5
25D
100
AcDbEntity
  8
0
100
AcDbPolyline
 62
250
  6
CONTINUOUS
 90
7
 70
0
 10
251.358434547
 20
176.0512258224
 10
251.3597338114
 20
176.0611678471
 10
251.3609934622
 20
176.0790198401
 10
251.3622134994
 20
176.1043819414
 10
251.3633933036
 20
176.1366390852
 10
251.3645334941
 20
176.1754539902
 10
251.3667078851
 20
176.2738775823
  0
LWPOLYLINE
  5
25E
100
AcDbEntity
  8
0
100
AcDbPolyline
 62
250
  6
CONTINUOUS
 90
9
 70
0
 10
250.8585106994
 20
176.5505405898
 10
250.8598097722
 20
176.5576422268
 10
250.861069318
 20
176.5694546979
 10
250.8622893368
 20
176.5859780031
 10
250.8634692626
 20
176.6072860388
 10
250.8646096615
 20
176.6333049087
 10
250.8657122309
 20
176.663812923
 10
250.86678416
 20
176.6989862726
 10
250.8687946598
 20
176.7820501432
  0
LINE
  5
25F
100
AcDbEntity
  8
0
100
AcDbLine
 62
250
  6
CONTINUOUS
 10
250.8351324831
 20
176.4803489059
 11
250.8585106994
 21
176.5505405898
  0
LWPOLYLINE
  5
260
100
AcDbEntity
  8
0
100
AcDbPolyline
 62
7
  6
CONTINUOUS
 90
4
 70
0
 10
260.4813900866
 20
201.4105111622
 10
260.572927382
 20
201.5113618422
 10
260.6715415948
 20
201.6045493873
 10
260.7773279328
 20
201.6903826975
  0
LINE
  5
261
100
AcDbEntity
  8
0
100
AcDbLine
 62
7
  6
CONTINUOUS
 10
260.7776508621
 20
201.690513323
 11
260.8891641964
 21
201.7678598479
  0
LWPOLYLINE
  5
262
100
AcDbEntity
  8
0
100
AcDbPolyline
 62
7
  6
CONTINUOUS
 90
7
 70
0
 10
261.2828620492
 20
201.3028086545
 10
261.197496684
 20
201.2514064306
 10
261.1160967803
 20
201.1927399421
 10
261.0403352046
 20
201.1280151955
 10
260.9703287074
 20
201.0571068454
 10
260.9059605383
 20
200.9801402092
 10
260.8485533121
 20
200.8986972944
  0
LWPOLYLINE
  5
263
100
AcDbEntity
  8
0
100
AcDbPolyline
 62
7
  6
CONTINUOUS
 90
3
 70
0
 10
260.8894221599
 20
201.7680387735
 10
261.0068195324
 20
201.836751114
 10
261.1297463295
 20
201.8967976767
  0
LWPOLYLINE
  5
264
100
AcDbEntity
  8
0
100
AcDbPolyline
 62
7
  6
CONTINUOUS
 90
4
 70
0
 10
261.1302669804
 20
201.8969070998
 10
261.2569374266
 20
201.9474498702
 10
261.3863216476
 20
201.9878812842
 10
261.5187999598
 20
202.0185099379
  0
LWPOLYLINE
  5
265
100
AcDbEntity
  8
0
100
AcDbPolyline
 62
7
  6
CONTINUOUS
 90
4
 70
0
 10
261.5610826389
 20
201.4122250219
 10
261.4656568839
 20
201.3835206801
 10
261.372276378
 20
201.3467968389
 10
261.2828611428
 20
201.3028081598
  0
LWPOLYLINE
  5
266
100
AcDbEntity
  8
0
100
AcDbPolyline
 62
7
  6
CONTINUOUS
 90
8
 70
0
 10
263.7860058717
 20
194.0969577925
 10
263.6941939635
 20
194.0736818997
 10
263.6010119962
 20
194.0581289093
 10
263.5059339387
 20
194.0504060597
 10
263.4094858221
 20
194.0504061038
 10
263.314407675
 20
194.0581290784
 10
263.2212254204
 20
194.073682301
 10
263.1294131355
 20
194.0969584628
  0
LWPOLYLINE
  5
267
100
AcDbEntity
  8
0
100
AcDbPolyline
 62
7
  6
CONTINUOUS
 90
5
 70
0
 10
263.4290122956
 20
194.6512001298
 10
263.4869575038
 20
194.6512310208
 10
263.5442768342
 20
194.6573762768
 10
263.6013850407
 20
194.6698966039
 10
263.6578673693
 20
194.6885313008
  0
LWPOLYLINE
  5
268
100
AcDbEntity
  8
0
100
AcDbPolyline
 62
7
  6
CONTINUOUS
 90
2
 70
0
 43
0.3500000087
 10
282.1302891602
 20
194.9785266357
 10
280.6302876953
 20
194.9785266357
  0
LINE
  5
269
100
AcDbEntity
  8
0
100
AcDbLine
 62
7
  6
CONTINUOUS
 10
263.3705073495
 20
194.6574782311
 11
263.4283212993
 21
194.6514046131
  0
LWPOLYLINE
  5
26A
100
AcDbEntity
  8
0
100
AcDbPolyline
 62
7
  6
CONTINUOUS
 90
8
 70
0
 10
263.0401330801
 20
194.1276356647
 10
262.9415389089
 20
194.1716210385
 10
262.8484900792
 20
194.2237349658
 10
262.7608168695
 20
194.2844509393
 10
262.6783829057
 20
194.3535528386
 10
262.6032937244
 20
194.4292714483
 10
262.5362511712
 20
194.5110170414
 10
262.4765534004
 20
194.5993793848
  0
LINE
  5
26B
100
AcDbEntity
  8
0
100
AcDbLine
 62
250
  6
CONTINUOUS
 10
250.8585106994
 20
219.549361499
 11
250.8351324831
 21
219.6195531828
  0
LWPOLYLINE
  5
26C
100
AcDbEntity
  8
0
100
AcDbPolyline
 62
7
  6
CONTINUOUS
 90
3
 70
0
 10
259.4121107881
 20
196.6898581138
 10
259.4119866531
 20
196.6713595919
 10
259.4143096574
 20
196.652595162
  0
LWPOLYLINE
  5
26D
100
AcDbEntity
  8
0
100
AcDbPolyline
 62
7
  6
CONTINUOUS
 90
3
 70
0
 10
259.419457928
 20
196.7270528534
 10
259.4146200307
 20
196.7082495517
 10
259.4121346613
 20
196.6895947185
  0
LINE
  5
26E
100
AcDbEntity
  8
0
100
AcDbLine
 62
7
  6
CONTINUOUS
 10
258.8083933507
 20
196.7775412074
 11
258.8280614467
 21
196.8499421442
  0
LINE
  5
26F
100
AcDbEntity
  8
0
100
AcDbLine
 62
250
  6
CONTINUOUS
 10
251.3347518834
 20
175.9801200539
 11
251.358434547
 21
176.0512258224
  0
LWPOLYLINE
  5
270
100
AcDbEntity
  8
0
100
AcDbPolyline
 62
7
  6
CONTINUOUS
 90
4
 70
0
 10
260.1496844552
 20
200.8188602466
 10
260.1981130465
 20
200.9474545689
 10
260.2553863964
 20
201.0707779138
 10
260.3215045049
 20
201.1888302969
  0
LINE
  5
271
100
AcDbEntity
  8
0
100
AcDbLine
 62
7
  6
CONTINUOUS
 10
260.7555035049
 20
200.7234368217
 11
260.7194199057
 21
200.6290928014
  0
LWPOLYLINE
  5
272
100
AcDbEntity
  8
0
100
AcDbPolyline
 62
7
  6
CONTINUOUS
 90
3
 70
0
 10
260.8485533121
 20
200.8986972944
 10
260.7985479004
 20
200.8133054319
 10
260.7555034316
 20
200.723437271
  0
LWPOLYLINE
  5
273
100
AcDbEntity
  8
0
100
AcDbPolyline
 62
7
  6
CONTINUOUS
 90
3
 70
0
 10
260.3216196318
 20
201.189018762
 10
260.3969540258
 20
201.3022966094
 10
260.4810605707
 20
201.4102137099
  0
LWPOLYLINE
  5
274
100
AcDbEntity
  8
0
100
AcDbPolyline
 62
7
  6
CONTINUOUS
 90
3
 70
0
 10
264.627108055
 20
195.938130804
 10
264.5928359229
 20
195.9320931539
 10
264.5571841634
 20
195.9298365596
  0
LINE
  5
275
100
AcDbEntity
  8
0
100
AcDbLine
 62
7
  6
CONTINUOUS
 10
264.5571841634
 20
195.9298365596
 11
259.491057987
 21
195.9298365596
  0
LINE
  5
276
100
AcDbEntity
  8
0
100
AcDbLine
 62
7
  6
CONTINUOUS
 10
264.5572988053
 20
196.5299510444
 11
259.5616169361
 21
196.5299510444
  0
LWPOLYLINE
  5
277
100
AcDbEntity
  8
0
100
AcDbPolyline
 62
7
  6
CONTINUOUS
 90
22
 70
0
 10
259.491057987
 20
195.9298365596
 10
259.4284846731
 20
195.9326268289
 10
259.3664193735
 20
195.9409866494
 10
259.3053551459
 20
195.9548524424
 10
259.2458382858
 20
195.97409233
 10
259.1882789655
 20
195.9985693826
 10
259.1329704679
 20
196.0281969468
 10
259.0802207928
 20
196.0629058272
 10
259.0306697493
 20
196.1023739719
 10
258.9850398832
 20
196.1460329358
 10
258.9438637388
 20
196.1932453349
 10
258.9071959924
 20
196.2438064774
 10
258.8750326822
 20
196.2977590507
 10
258.8475690935
 20
196.3550600408
 10
258.8253215036
 20
196.4149676904
 10
258.808688487
 20
196.4764517346
 10
258.797783992
 20
196.5387346856
 10
258.7925592818
 20
196.6015437863
 10
258.7930019928
 20
196.6645563285
 10
258.7991090019
 20
196.7273272023
 10
258.8108290539
 20
196.7892882028
 10
258.8280614467
 20
196.8499421442
  0
LWPOLYLINE
  5
278
100
AcDbEntity
  8
0
100
AcDbPolyline
 62
7
  6
CONTINUOUS
 90
18
 70
0
 10
259.491057987
 20
195.9298365596
 10
259.41619797
 20
195.9340620006
 10
259.3437661294
 20
195.9455605777
 10
259.2737624654
 20
195.9643322932
 10
259.2054820646
 20
195.9907447643
 10
259.1396298402
 20
196.024430382
 10
259.0783205325
 20
196.0642863094
 10
259.0217028522
 20
196.1105070937
 10
258.9696280886
 20
196.1628981998
 10
258.9237648493
 20
196.2197731658
 10
258.8843099099
 20
196.28127563
 10
258.8510664949
 20
196.3472619642
 10
258.8251128845
 20
196.4156148023
 10
258.8066815512
 20
196.4864154508
 10
258.7955400225
 20
196.559582607
 10
258.7920691614
 20
196.6327549851
 10
258.7963959223
 20
196.7051454872
 10
258.8083933507
 20
196.7775412074
  0
LINE
  5
279
100
AcDbEntity
  8
0
100
AcDbLine
 62
7
  6
CONTINUOUS
 10
263.3136918323
 20
194.6698307157
 11
263.3705073495
 21
194.6574782311
  0
LWPOLYLINE
  5
27A
100
AcDbEntity
  8
0
100
AcDbPolyline
 62
7
  6
CONTINUOUS
 90
9
 70
0
 10
262.9530310168
 20
194.1659966008
 10
262.8684611831
 20
194.211758601
 10
262.7886485522
 20
194.2637517209
 10
262.7139615806
 20
194.3219514079
 10
262.6440318117
 20
194.3863822443
 10
262.5799788501
 20
194.4559479839
 10
262.522175897
 20
194.5302832197
 10
262.470249751
 20
194.6097533868
 10
262.4242004122
 20
194.6943585002
  0
LWPOLYLINE
  5
27B
100
AcDbEntity
  8
0
100
AcDbPolyline
 62
7
  6
CONTINUOUS
 90
5
 70
0
 10
263.1080180554
 20
194.7760547473
 10
263.1546935845
 20
194.7415340453
 10
263.2045007156
 20
194.71231821
 10
263.2579351049
 20
194.6883986477
 10
263.3145010962
 20
194.6697839409
  0
LINE
  5
27C
100
AcDbEntity
  8
0
100
AcDbLine
 62
7
  6
CONTINUOUS
 10
263.0646749831
 20
194.8159449786
 11
263.1075203404
 21
194.7766563826
  0
LWPOLYLINE
  5
27D
100
AcDbEntity
  8
0
100
AcDbPolyline
 62
7
  6
CONTINUOUS
 90
10
 70
0
 10
259.4258119884
 20
196.6162594186
 10
259.4348350366
 20
196.5998011699
 10
259.4459818271
 20
196.5844042395
 10
259.4587510045
 20
196.5707111125
 10
259.4732279153
 20
196.5587754364
 10
259.4893272129
 20
196.5485435628
 10
259.5062915033
 20
196.5404970329
 10
259.5238683216
 20
196.5347963603
 10
259.5423101325
 20
196.5312810308
 10
259.5616169361
 20
196.5299510444
  0
LINE
  5
27E
100
AcDbEntity
  8
0
100
AcDbLine
 62
250
  6
CONTINUOUS
 10
251.358434547
 20
220.0486762664
 11
251.3347518834
 21
220.1197820349
  0
LWPOLYLINE
  5
27F
100
AcDbEntity
  8
0
100
AcDbPolyline
 62
7
  6
CONTINUOUS
 90
3
 70
0
 10
259.4142948633
 20
196.6524467607
 10
259.4189404347
 20
196.633953636
 10
259.4257184638
 20
196.6164600721
  0
LWPOLYLINE
  5
280
100
AcDbEntity
  8
0
100
AcDbPolyline
 62
7
  6
CONTINUOUS
 90
2
 70
0
 43
0.3500000087
 10
282.1302891602
 20
197.3356571777
 10
280.6302876953
 20
197.3356571777
  0
LWPOLYLINE
  5
281
100
AcDbEntity
  8
0
100
AcDbPolyline
 62
7
  6
CONTINUOUS
 90
25
 70
0
 10
264.5572988053
 20
196.5299510444
 10
264.5925549267
 20
196.5280118453
 10
264.6268020788
 20
196.5219824378
 10
264.6600402618
 20
196.5118628223
 10
264.6929416781
 20
196.4972828731
 10
264.7248341251
 20
196.478612718
 10
264.753700996
 20
196.4569627376
 10
264.7790691586
 20
196.4323133363
 10
264.8014117449
 20
196.4046841126
 10
264.8201315445
 20
196.3752442374
 10
264.8351309506
 20
196.3439736043
 10
264.84650757
 20
196.3108923223
 10
264.8539570119
 20
196.2772298842
 10
264.8573711377
 20
196.2429701541
 10
264.856858086
 20
196.2081292692
 10
264.8524378818
 20
196.1739851301
 10
264.8439602532
 20
196.1405225361
 10
264.8315754721
 20
196.1077566874
 10
264.8157543788
 20
196.0770110846
 10
264.7963359338
 20
196.0483680403
 10
264.7734811765
 20
196.0217452393
 10
264.7481440649
 20
195.998219239
 10
264.7202246483
 20
195.977941947
 10
264.6898228773
 20
195.9607614524
 10
264.6581925623
 20
195.9472985844
  0
LINE
  5
282
100
AcDbEntity
  8
0
100
AcDbLine
 62
7
  6
CONTINUOUS
 10
264.5572988053
 20
196.5299510444
 11
264.5929530673
 21
196.5276964584
  0
LINE
  5
283
100
AcDbEntity
  8
0
100
AcDbLine
 62
7
  6
CONTINUOUS
 10
264.6272289901
 20
196.5216565903
 11
264.6600790507
 21
196.5118456334
  0
LWPOLYLINE
  5
284
100
AcDbEntity
  8
0
100
AcDbPolyline
 62
7
  6
CONTINUOUS
 90
23
 70
0
 10
264.6601265737
 20
196.5118314402
 10
264.6920534219
 20
196.497984073
 10
264.7226019309
 20
196.4803514257
 10
264.7505492895
 20
196.4596443076
 10
264.7757839743
 20
196.4357418815
 10
264.7984175087
 20
196.4087649874
 10
264.8175616515
 20
196.37978695
 10
264.8330771615
 20
196.3487299163
 10
264.8451032799
 20
196.3156717419
 10
264.8531694897
 20
196.2819193128
 10
264.8571190689
 20
196.2474455761
 10
264.8571087395
 20
196.212277586
 10
264.8531381503
 20
196.1778033882
 10
264.8450497085
 20
196.1440490676
 10
264.833001007
 20
196.1109885384
 10
264.8174644735
 20
196.0799315876
 10
264.7982992542
 20
196.050956847
 10
264.7756462029
 20
196.023985682
 10
264.7504003089
 20
196.0000919788
 10
264.7224554967
 20
195.9793991641
 10
264.6919178419
 20
195.961783808
 10
264.6600005596
 20
195.9479495105
 10
264.627108055
 20
195.938130804
  0
LWPOLYLINE
  5
285
100
AcDbEntity
  8
0
100
AcDbPolyline
 62
7
  6
CONTINUOUS
 90
3
 70
0
 10
262.9026251999
 20
195.0427989837
 10
262.9259090945
 20
195.0175853645
 10
262.9463938764
 20
194.9894747227
  0
LINE
  5
286
100
AcDbEntity
  8
0
100
AcDbLine
 62
7
  6
CONTINUOUS
 10
263.0267467855
 20
194.8591500588
 11
263.0646749831
 21
194.8159449786
  0
LWPOLYLINE
  5
287
100
AcDbEntity
  8
0
100
AcDbPolyline
 62
7
  6
CONTINUOUS
 90
3
 70
0
 10
262.9463938764
 20
194.9894747227
 10
262.9937190114
 20
194.9061616985
 10
263.0275307689
 20
194.8583685671
  0
LINE
  5
288
100
AcDbEntity
  8
0
100
AcDbLine
 62
7
  6
CONTINUOUS
 10
262.9468255128
 20
194.9892899474
 11
262.993214973
 21
194.9066574173
  0
LINE
  5
289
100
AcDbEntity
  8
0
100
AcDbLine
 62
7
  6
CONTINUOUS
 10
262.4765534004
 20
194.5993793848
 11
262.4242004122
 21
194.6943585002
  0
LINE
  5
28A
100
AcDbEntity
  8
0
100
AcDbLine
 62
7
  6
CONTINUOUS
 10
262.4242004122
 20
194.6943585002
 11
262.410826236
 21
194.7263466104
  0
LINE
  5
28B
100
AcDbEntity
  8
0
100
AcDbLine
 62
7
  6
CONTINUOUS
 10
262.4242004122
 20
194.6943585002
 11
262.4105821066
 21
194.7273459982
  0
LWPOLYLINE
  5
28C
100
AcDbEntity
  8
0
100
AcDbPolyline
 62
7
  6
CONTINUOUS
 90
24
 70
0
 10
262.410826236
 20
194.7263466104
 10
262.4009650803
 20
194.7607607335
 10
262.3953493333
 20
194.7946027063
 10
262.3937663196
 20
194.8293371345
 10
262.3961845851
 20
194.8644988016
 10
262.4025097677
 20
194.8986920548
 10
262.4128993826
 20
194.9318778175
 10
262.4271959147
 20
194.9640951636
 10
262.4448324555
 20
194.9940656631
 10
262.4659434314
 20
195.0216987601
 10
262.4903944161
 20
195.0470850055
 10
262.517215223
 20
195.0692176267
 10
262.546500503
 20
195.0879656513
 10
262.5781556052
 20
195.1034600469
 10
262.6109263906
 20
195.1150869501
 10
262.644857529
 20
195.122691575
 10
262.6799043507
 20
195.1264287049
 10
262.7146787075
 20
195.1261488309
 10
262.749169794
 20
195.1216915445
 10
262.7833884156
 20
195.1132172549
 10
262.8159788402
 20
195.1010576805
 10
262.8468794624
 20
195.0850606448
 10
262.8761518875
 20
195.065378328
 10
262.9026251999
 20
195.0427989837
  0
LWPOLYLINE
  5
28D
100
AcDbEntity
  8
0
100
AcDbPolyline
 62
7
  6
CONTINUOUS
 90
24
 70
0
 10
262.4013005654
 20
194.7589338097
 10
262.3956234004
 20
194.7921200986
 10
262.3937852079
 20
194.8263893604
 10
262.395795521
 20
194.8612577137
 10
262.4016829389
 20
194.8952735095
 10
262.4116348662
 20
194.92839576
 10
262.4254638984
 20
194.9606654507
 10
262.4426364204
 20
194.9907538892
 10
262.4633018057
 20
195.0185591173
 10
262.4873106809
 20
195.0441830884
 10
262.51368131
 20
195.0666029752
 10
262.5424685727
 20
195.0856748171
 10
262.5736175893
 20
195.1015425699
 10
262.6059819848
 20
195.11361528
 10
262.6396001649
 20
195.1217850357
 10
262.6744337239
 20
195.1261597459
 10
262.7092210703
 20
195.1264721878
 10
262.7439800538
 20
195.1226220362
 10
262.7786928246
 20
195.1147096168
 10
262.8120442413
 20
195.102768685
 10
262.8442201634
 20
195.0863706751
 10
262.8750347314
 20
195.0659441569
 10
262.9026152255
 20
195.0428085886
 10
262.926337406
 20
195.0174037907
  0
LWPOLYLINE
  5
28E
100
AcDbEntity
  8
0
100
AcDbPolyline
 62
7
  6
CONTINUOUS
 90
4
 70
0
 10
264.0749004272
 20
197.448207367
 10
264.0552228023
 20
197.4762472893
 10
264.0387002896
 20
197.506780901
 10
264.0253328889
 20
197.5398082023
  0
LINE
  5
28F
100
AcDbEntity
  8
0
100
AcDbLine
 62
7
  6
CONTINUOUS
 10
264.0382705865
 20
197.5070705882
 11
264.0253328889
 21
197.5398082023
  0
LWPOLYLINE
  5
290
100
AcDbEntity
  8
0
100
AcDbPolyline
 62
7
  6
CONTINUOUS
 90
24
 70
0
 10
264.6084916632
 20
197.6625609505
 10
264.609692863
 20
197.6289444539
 10
264.6069392071
 20
197.5946676176
 10
264.6002806038
 20
197.560240973
 10
264.589866779
 20
197.5271961138
 10
264.57548697
 20
197.4956136773
 10
264.5573519393
 20
197.4654130258
 10
264.5362437006
 20
197.4378838403
 10
264.5120645023
 20
197.413187951
 10
264.4849120961
 20
197.3911635267
 10
264.4558617503
 20
197.3726147559
 10
264.4248689706
 20
197.3576666305
 10
264.3919782514
 20
197.3461941576
 10
264.3583983445
 20
197.3386265484
 10
264.3241076719
 20
197.3350745097
 10
264.2891278115
 20
197.3354273343
 10
264.2547322488
 20
197.3397821129
 10
264.2209142553
 20
197.3482392132
 10
264.1876805594
 20
197.3606982679
 10
264.1563248322
 20
197.3769552657
 10
264.1267183811
 20
197.3974621236
 10
264.0989898986
 20
197.4217669258
 10
264.0748191333
 20
197.4483099106
 10
264.0547660013
 20
197.4765711577
  0
LWPOLYLINE
  5
291
100
AcDbEntity
  8
0
100
AcDbPolyline
 62
7
  6
CONTINUOUS
 90
23
 70
0
 10
264.6085629312
 20
197.6605756263
 10
264.6096330416
 20
197.6263513953
 10
264.6065942931
 20
197.5917773209
 10
264.5995394484
 20
197.5573100566
 10
264.5887467958
 20
197.5243195624
 10
264.5740651792
 20
197.492865613
 10
264.5556457547
 20
197.4628884334
 10
264.5342202786
 20
197.4355786583
 10
264.5096682262
 20
197.4110443271
 10
264.4821101223
 20
197.3891773996
 10
264.4526392973
 20
197.3708443901
 10
264.4211793027
 20
197.3561871586
 10
264.3878065871
 20
197.3450638441
 10
264.3538438266
 20
197.3379153802
 10
264.3192673835
 20
197.3349009144
 10
264.2841008954
 20
197.3358612989
 10
264.2497379516
 20
197.3407600236
 10
264.2162105434
 20
197.3497544428
 10
264.1834866794
 20
197.3626872027
 10
264.1528639743
 20
197.3790497318
 10
264.1244236486
 20
197.3989845339
 10
264.0980844818
 20
197.4223491062
 10
264.0749004272
 20
197.448207367
  0
LWPOLYLINE
  5
292
100
AcDbEntity
  8
0
100
AcDbPolyline
 62
7
  6
CONTINUOUS
 90
3
 70
0
 10
264.5144562264
 20
194.760763433
 10
264.5048390924
 20
194.7273476836
 10
264.4912206061
 20
194.6943585002
  0
LINE
  5
293
100
AcDbEntity
  8
0
100
AcDbLine
 62
250
  6
CONTINUOUS
 10
272.3806691349
 20
220.1197820349
 11
272.3569864713
 21
220.0486762664
  0
LWPOLYLINE
  5
294
100
AcDbEntity
  8
0
100
AcDbPolyline
 62
7
  6
CONTINUOUS
 90
3
 70
0
 10
263.9513414725
 20
194.9584670614
 10
263.9690281413
 20
194.9894758848
 10
263.9895137535
 20
195.0175873261
  0
LWPOLYLINE
  5
295
100
AcDbEntity
  8
0
100
AcDbPolyline
 62
7
  6
CONTINUOUS
 90
3
 70
0
 10
263.8886784472
 20
194.8591546096
 10
263.9222085017
 20
194.9066601695
 10
263.9686596429
 20
194.989366515
  0
LWPOLYLINE
  5
296
100
AcDbEntity
  8
0
100
AcDbPolyline
 62
7
  6
CONTINUOUS
 90
9
 70
0
 10
262.3431460507
 20
201.3467962678
 10
262.2497676624
 20
201.3835196475
 10
262.1543429966
 20
201.412223844
 10
262.0568296876
 20
201.4327428725
 10
261.9572701011
 20
201.4452427337
 10
261.8577105159
 20
201.4494664594
 10
261.7581509341
 20
201.4452427362
 10
261.6585913536
 20
201.4327428775
 10
261.5610780476
 20
201.4122238506
  0
LWPOLYLINE
  5
297
100
AcDbEntity
  8
0
100
AcDbPolyline
 62
7
  6
CONTINUOUS
 90
3
 70
0
 10
262.9377701846
 20
201.6905133001
 10
263.0440120625
 20
201.6043220102
 10
263.1426983325
 20
201.5111367528
  0
LWPOLYLINE
  5
298
100
AcDbEntity
  8
0
100
AcDbPolyline
 62
7
  6
CONTINUOUS
 90
6
 70
0
 10
263.1424988896
 20
201.5113564887
 10
263.2340350515
 20
201.4105066518
 10
263.3183984664
 20
201.3023032604
 10
263.3939174895
 20
201.1888286989
 10
263.4600349058
 20
201.0707770882
 10
263.5173079303
 20
200.947454276
  0
LWPOLYLINE
  5
299
100
AcDbEntity
  8
0
100
AcDbPolyline
 62
7
  6
CONTINUOUS
 90
10
 70
0
 10
262.9599174992
 20
200.7234367071
 10
262.9168736506
 20
200.8133039038
 10
262.866869567
 20
200.8986944016
 10
262.8094652072
 20
200.980134875
 10
262.7451006123
 20
201.0570986693
 10
262.675095905
 20
201.1280058057
 10
262.5993327497
 20
201.1927324297
 10
262.5179294819
 20
201.2514024238
 10
262.4325612313
 20
201.3028074198
 10
262.3431465953
 20
201.3467961158
  0
LINE
  5
29A
100
AcDbEntity
  8
0
100
AcDbLine
 62
7
  6
CONTINUOUS
 10
262.9960011125
 20
200.6290928014
 11
262.9599175866
 21
200.7234372701
  0
LINE
  5
29B
100
AcDbEntity
  8
0
100
AcDbLine
 62
7
  6
CONTINUOUS
 10
263.5171969882
 20
200.9476072066
 11
263.565736563
 21
200.8188602466
  0
LINE
  5
29C
100
AcDbEntity
  8
0
100
AcDbLine
 62
250
  6
CONTINUOUS
 10
272.3569864713
 20
176.0512258224
 11
272.3806691349
 21
175.9801200539
  0
LINE
  5
29D
100
AcDbEntity
  8
0
100
AcDbLine
 62
7
  6
CONTINUOUS
 10
264.5943744219
 20
197.7293445176
 11
264.6033855162
 21
197.6960276385
  0
LINE
  5
29E
100
AcDbEntity
  8
0
100
AcDbLine
 62
7
  6
CONTINUOUS
 10
264.5943744219
 20
197.7293445176
 11
264.6034767246
 21
197.6949066671
  0
LINE
  5
29F
100
AcDbEntity
  8
0
100
AcDbLine
 62
7
  6
CONTINUOUS
 10
264.6033855162
 20
197.6960276385
 11
264.6085624997
 21
197.6605785389
  0
LINE
  5
2A0
100
AcDbEntity
  8
0
100
AcDbLine
 62
250
  6
CONTINUOUS
 10
272.8802885352
 20
219.6195531828
 11
272.8569103189
 21
219.549361499
  0
LWPOLYLINE
  5
2A1
100
AcDbEntity
  8
0
100
AcDbPolyline
 62
7
  6
CONTINUOUS
 90
9
 70
0
 10
264.4912206061
 20
194.6943585002
 10
264.4451699844
 20
194.6097518289
 10
264.3932430125
 20
194.530280687
 10
264.3354396906
 20
194.4559450594
 10
264.2713870786
 20
194.3863798
 10
264.2014581164
 20
194.3219500269
 10
264.126771624
 20
194.2637511189
 10
264.0469586962
 20
194.2117580761
 10
263.962388238
 20
194.1659958687
  0
LWPOLYLINE
  5
2A2
100
AcDbEntity
  8
0
100
AcDbPolyline
 62
7
  6
CONTINUOUS
 90
9
 70
0
 10
264.4912206061
 20
194.6943585002
 10
264.4388676099
 20
194.5993793757
 10
264.3791698341
 20
194.5110170267
 10
264.3121272786
 20
194.4292714314
 10
264.2370380994
 20
194.3535528245
 10
264.1546041406
 20
194.2844509314
 10
264.0669309342
 20
194.2237349627
 10
263.9738821041
 20
194.1716210366
 10
263.8755940264
 20
194.1278929925
  0
LWPOLYLINE
  5
2A3
100
AcDbEntity
  8
0
100
AcDbPolyline
 62
7
  6
CONTINUOUS
 90
24
 70
0
 10
263.9895137535
 20
195.0175873261
 10
264.0127983091
 20
195.0428013822
 10
264.0392720317
 20
195.0653806917
 10
264.0685446977
 20
195.0850626111
 10
264.0994456367
 20
195.101059214
 10
264.1320365504
 20
195.1132184617
 10
264.1662557371
 20
195.1216923892
 10
264.2007474211
 20
195.1261491803
 10
264.2355224302
 20
195.1264284089
 10
264.2705699366
 20
195.1226905003
 10
264.3045016815
 20
195.1150849162
 10
264.3372729914
 20
195.1034568616
 10
264.3689285398
 20
195.0879611341
 10
264.3982140881
 20
195.0692115841
 10
264.4250351739
 20
195.0470765241
 10
264.4494862597
 20
195.0216876465
 10
264.4705964942
 20
194.9940538713
 10
264.4882306425
 20
194.9640863424
 10
264.5025239396
 20
194.9318739209
 10
264.5129112393
 20
194.8986921005
 10
264.5192359446
 20
194.8645007248
 10
264.5216546525
 20
194.829339953
 10
264.5200720081
 20
194.7946057491
 10
264.5144562264
 20
194.760763433
  0
LWPOLYLINE
  5
2A4
100
AcDbEntity
  8
0
100
AcDbPolyline
 62
7
  6
CONTINUOUS
 90
24
 70
0
 10
263.9892028523
 20
195.017533377
 10
264.0129711009
 20
195.0429676445
 10
264.0405841224
 20
195.0661025721
 10
264.0714221831
 20
195.0865049005
 10
264.1036260814
 20
195.1028748552
 10
264.1370154172
 20
195.1147924244
 10
264.1717705907
 20
195.1226776158
 10
264.2065736006
 20
195.1264906838
 10
264.2414082961
 20
195.1261302269
 10
264.276290828
 20
195.1216976462
 10
264.309951647
 20
195.1134574009
 10
264.3423518822
 20
195.1013010069
 10
264.3735304046
 20
195.0853369511
 10
264.4023342774
 20
195.0661551494
 10
264.4287217512
 20
195.0435590659
 10
264.4527345754
 20
195.0177452415
 10
264.4733450618
 20
194.9898932072
 10
264.4903469652
 20
194.9600256203
 10
264.5039465308
 20
194.9281198281
 10
264.5137348067
 20
194.8952873943
 10
264.5195898781
 20
194.8614061735
 10
264.5216336598
 20
194.8265983138
 10
264.5198229442
 20
194.7923418174
 10
264.5141433288
 20
194.7591293503
  0
LWPOLYLINE
  5
2A5
100
AcDbEntity
  8
0
100
AcDbPolyline
 62
7
  6
CONTINUOUS
 90
4
 70
0
 10
263.761083566
 20
194.7418026179
 10
263.8078174341
 20
194.7764392493
 10
263.8503229936
 20
194.8155126618
 10
263.8882241286
 20
194.8587273314
  0
LINE
  5
2A6
100
AcDbEntity
  8
0
100
AcDbLine
 62
7
  6
CONTINUOUS
 10
263.710587394
 20
194.7121455505
 11
263.760663508
 21
194.7416734882
  0
LINE
  5
2A7
100
AcDbEntity
  8
0
100
AcDbLine
 62
7
  6
CONTINUOUS
 10
263.6575781191
 20
194.6882589456
 11
263.710587394
 21
194.7121455505
  0
LWPOLYLINE
  5
2A8
100
AcDbEntity
  8
0
100
AcDbPolyline
 62
7
  6
CONTINUOUS
 90
9
 70
0
 10
263.8752857854
 20
194.127634826
 10
263.7745813618
 20
194.093671619
 10
263.6707741348
 20
194.0692028318
 10
263.5642423207
 20
194.0542406887
 10
263.4577105064
 20
194.049168195
 10
263.3511786913
 20
194.0542406896
 10
263.2446468758
 20
194.0692028335
 10
263.1408396481
 20
194.0936716214
 10
263.0398269846
 20
194.1278929948
  0
LINE
  5
2A9
100
AcDbEntity
  8
0
100
AcDbLine
 62
7
  6
CONTINUOUS
 10
261.5192293463
 20
202.0184677736
 11
261.6532444473
 21
202.0390012073
  0
LINE
  5
2AA
100
AcDbEntity
  8
0
100
AcDbLine
 62
7
  6
CONTINUOUS
 10
261.6536744274
 20
202.0390670877
 11
261.7893095013
 21
202.0492795447
  0
LWPOLYLINE
  5
2AB
100
AcDbEntity
  8
0
100
AcDbPolyline
 62
7
  6
CONTINUOUS
 90
4
 70
0
 10
261.7889012714
 20
202.0491384103
 10
261.9265242706
 20
202.0491382439
 10
262.0626033108
 20
202.0389691358
 10
262.1966258404
 20
202.0185089807
  0
LWPOLYLINE
  5
2AC
100
AcDbEntity
  8
0
100
AcDbPolyline
 62
7
  6
CONTINUOUS
 90
3
 70
0
 10
262.1961917029
 20
202.0184677674
 10
262.3294698144
 20
201.9876559771
 10
262.4588917841
 20
201.9472872259
  0
LINE
  5
2AD
100
AcDbEntity
  8
0
100
AcDbLine
 62
7
  6
CONTINUOUS
 10
262.4593160761
 20
201.9471548825
 11
262.5856747195
 21
201.8967976637
  0
LWPOLYLINE
  5
2AE
100
AcDbEntity
  8
0
100
AcDbPolyline
 62
7
  6
CONTINUOUS
 90
4
 70
0
 10
262.5851587892
 20
201.8969050924
 10
262.7087345969
 20
201.8365593865
 10
262.8265255666
 20
201.7677025369
 10
262.938097482
 20
201.690379152
  0
LINE
  5
2AF
100
AcDbEntity
  8
0
100
AcDbLine
 62
250
  6
CONTINUOUS
 10
272.8569103189
 20
176.5505405898
 11
272.8802885352
 21
176.4803489059
  0
LWPOLYLINE
  5
2B0
100
AcDbEntity
  8
0
100
AcDbPolyline
 62
250
  6
CONTINUOUS
 90
7
 70
0
 10
272.3569864713
 20
220.0486762664
 10
272.3557351455
 20
220.0392383677
 10
272.3545230108
 20
220.0225015476
 10
272.353350067
 20
219.9988824809
 10
272.3522179278
 20
219.9690032888
 10
272.3511249796
 20
219.9332040274
 10
272.3490352719
 20
219.8427840176
  0
LWPOLYLINE
  5
2B1
100
AcDbEntity
  8
0
100
AcDbPolyline
 62
250
  6
CONTINUOUS
 90
10
 70
0
 10
272.8569103189
 20
219.549361499
 10
272.8556591701
 20
219.5425854988
 10
272.8544471319
 20
219.531520213
 10
272.8532742041
 20
219.5161656414
 10
272.8521419491
 20
219.4964474606
 10
272.8510488046
 20
219.4724399941
 10
272.8499900835
 20
219.4443662127
 10
272.8489590119
 20
219.4121067532
 10
272.8479623638
 20
219.3757809789
 10
272.8461238983
 20
219.2929613095
  0
LWPOLYLINE
  5
2B2
100
AcDbEntity
  8
0
100
AcDbPolyline
 62
7
  6
CONTINUOUS
 90
10
 70
0
 43
0.3500000087
 10
281.6302886719
 20
199.3356591309
 10
281.7731435181
 20
199.4070950806
 10
281.8445794678
 20
199.4070950806
 10
281.987434314
 20
199.2642402344
 10
281.987434314
 20
199.1928042847
 10
281.9159983643
 20
199.1213853882
 10
281.8445794678
 20
199.1213853882
 10
281.7017246216
 20
199.1928042847
 10
281.6302886719
 20
199.2642402344
 10
281.6302886719
 20
199.3356591309
  0
LWPOLYLINE
  5
2B3
100
AcDbEntity
  8
0
100
AcDbPolyline
 62
7
  6
CONTINUOUS
 90
3
 70
0
 43
0.3500000087
 10
281.8445794678
 20
199.4070950806
 10
282.0588532104
 20
199.3356591309
 10
282.3445799561
 20
199.1928042847
  0
LWPOLYLINE
  5
2B4
100
AcDbEntity
  8
0
100
AcDbPolyline
 62
250
  6
CONTINUOUS
 90
6
 70
0
 10
272.3506256844
 20
176.1856352587
 10
272.3518209858
 20
176.1431730123
 10
272.3530568411
 20
176.1080581823
 10
272.354326164
 20
176.0807898314
 10
272.3556360408
 20
176.0617171253
 10
272.3569864713
 20
176.0512258224
  0
LINE
  5
2B5
100
AcDbEntity
  8
0
100
AcDbLine
 62
250
  6
CONTINUOUS
 10
272.3484260823
 20
176.2894355362
 11
272.3506256844
 21
176.1856352587
  0
LWPOLYLINE
  5
2B6
100
AcDbEntity
  8
0
100
AcDbPolyline
 62
250
  6
CONTINUOUS
 90
8
 70
0
 10
272.8483498428
 20
176.7091838029
 10
272.8494159253
 20
176.6728281557
 10
272.8505495426
 20
176.6403449829
 10
272.8517450429
 20
176.6118029575
 10
272.8529810121
 20
176.5884288304
 10
272.8542503122
 20
176.5706315185
 10
272.8555600811
 20
176.558002105
 10
272.8569103189
 20
176.5505405898
  0
LINE
  5
2B7
100
AcDbEntity
  8
0
100
AcDbLine
 62
250
  6
CONTINUOUS
 10
272.8464077851
 20
176.7926978076
 11
272.8483498428
 21
176.7091838029
  0
LINE
  5
2B8
100
AcDbEntity
  8
0
100
AcDbLine
 62
250
  6
CONTINUOUS
 10
272.8447373566
 20
176.8872747256
 11
272.8464077851
 21
176.7926978076
  0
LINE
  5
2B9
100
AcDbEntity
  8
0
100
AcDbLine
 62
250
  6
CONTINUOUS
 10
272.3456155052
 20
176.4835025955
 11
272.3484260823
 21
176.2894355362
  0
LINE
  5
2BA
100
AcDbEntity
  8
0
100
AcDbLine
 62
250
  6
CONTINUOUS
 10
272.8426897095
 20
177.0510274079
 11
272.8447373566
 21
176.8872747256
  0
LINE
  5
2BB
100
AcDbEntity
  8
0
100
AcDbLine
 62
250
  6
CONTINUOUS
 10
272.3427658231
 20
176.8017828928
 11
272.3456155052
 21
176.4835025955
  0
LINE
  5
2BC
100
AcDbEntity
  8
0
100
AcDbLine
 62
250
  6
CONTINUOUS
 10
272.8409220737
 20
177.2993874029
 11
272.8426897095
 21
177.0510274079
  0
LINE
  5
2BD
100
AcDbEntity
  8
0
100
AcDbLine
 62
250
  6
CONTINUOUS
 10
272.3407434962
 20
177.2760765391
 11
272.3427658231
 21
176.8017828928
  0
LINE
  5
2BE
100
AcDbEntity
  8
0
100
AcDbLine
 62
250
  6
CONTINUOUS
 10
272.3353987869
 20
186.5283791697
 11
272.3407434962
 21
177.2760765391
  0
LINE
  5
2BF
100
AcDbEntity
  8
0
100
AcDbLine
 62
250
  6
CONTINUOUS
 10
272.8353226345
 20
186.5399007416
 11
272.8409220737
 21
177.2993874029
  0
LINE
  5
2C0
100
AcDbEntity
  8
0
100
AcDbLine
 62
7
  6
CONTINUOUS
 10
272.8802885352
 20
176.4803489059
 11
272.8802885352
 21
219.6195531828
  0
LINE
  5
2C1
100
AcDbEntity
  8
0
100
AcDbLine
 62
250
  6
CONTINUOUS
 10
272.841000698
 20
218.8173671581
 11
272.8353226345
 21
186.5399007416
  0
LINE
  5
2C2
100
AcDbEntity
  8
0
100
AcDbLine
 62
250
  6
CONTINUOUS
 10
272.3419556123
 20
219.1604845957
 11
272.3353987869
 21
186.5283791697
  0
LINE
  5
2C3
100
AcDbEntity
  8
0
100
AcDbLine
 62
250
  6
CONTINUOUS
 10
272.8424336812
 20
219.0225387312
 11
272.841000698
 21
218.8173671581
  0
LINE
  5
2C4
100
AcDbEntity
  8
0
100
AcDbLine
 62
250
  6
CONTINUOUS
 10
272.3445682039
 20
219.5189436113
 11
272.3419556123
 21
219.1604845957
  0
LINE
  5
2C5
100
AcDbEntity
  8
0
100
AcDbLine
 62
250
  6
CONTINUOUS
 10
272.3470918512
 20
219.7285889433
 11
272.3445682039
 21
219.5189436113
  0
LINE
  5
2C6
100
AcDbEntity
  8
0
100
AcDbLine
 62
250
  6
CONTINUOUS
 10
272.8444919841
 20
219.1962063959
 11
272.8424336812
 21
219.0225387312
  0
LINE
  5
2C7
100
AcDbEntity
  8
0
100
AcDbLine
 62
250
  6
CONTINUOUS
 10
272.8461238983
 20
219.2929613095
 11
272.8444919841
 21
219.1962063959
  0
LINE
  5
2C8
100
AcDbEntity
  8
0
100
AcDbLine
 62
250
  6
CONTINUOUS
 10
272.3490352719
 20
219.8427840176
 11
272.3470918512
 21
219.7285889433
  0
LWPOLYLINE
  5
2C9
100
AcDbEntity
  8
0
100
AcDbPolyline
 62
250
  6
CONTINUOUS
 90
16
 70
0
 10
272.8569103189
 20
219.549361499
 10
272.8541272319
 20
219.6015232313
 10
272.8459038084
 20
219.6531142526
 10
272.8323300057
 20
219.703569984
 10
272.813554332
 20
219.7523382682
 10
272.789782225
 20
219.7988854014
 10
272.7612738088
 20
219.8427019755
 10
272.7283410358
 20
219.8833084731
 10
272.691344283
 20
219.9202604963
 10
272.6506884203
 20
219.9531536266
 10
272.6068183499
 20
219.9816278794
 10
272.560214156
 20
220.005371623
 10
272.5113858729
 20
220.0241249855
 10
272.4608678632
 20
220.0376827212
 10
272.4092129653
 20
220.0458964487
 10
272.3569864708
 20
220.0486762649
  0
LWPOLYLINE
  5
2CA
100
AcDbEntity
  8
0
100
AcDbPolyline
 62
250
  6
CONTINUOUS
 90
16
 70
0
 10
272.8569103189
 20
176.5505405898
 10
272.8541271622
 20
176.4983782007
 10
272.8459035549
 20
176.44678665
 10
272.8323294918
 20
176.3963305287
 10
272.8135535205
 20
176.3475620027
 10
272.7897811154
 20
176.3010147694
 10
272.7612724295
 20
176.2571982177
 10
272.7283394472
 20
176.2165918532
 10
272.6913425699
 20
176.1796400509
 10
272.6506866723
 20
176.1467471924
 10
272.6068166716
 20
176.11827324
 10
272.5602126583
 20
176.094529798
 10
272.5113846428
 20
176.0757767022
 10
272.4608669734
 20
176.0622191769
 10
272.4092124896
 20
176.0540055885
 10
272.3569864713
 20
176.0512258224
  0
LWPOLYLINE
  5
2CB
100
AcDbEntity
  8
0
100
AcDbPolyline
 62
7
  6
CONTINUOUS
 90
3
 70
0
 43
0.3500000087
 10
279.9874323608
 20
200.4070960571
 10
279.1302862305
 20
201.2642421875
 10
282.1302891602
 20
201.2642421875
  0
LWPOLYLINE
  5
2CC
100
AcDbEntity
  8
0
100
AcDbPolyline
 62
7
  6
CONTINUOUS
 90
3
 70
0
 43
0.3500000087
 10
281.4874338257
 20
197.835657666
 10
281.4874338257
 20
196.3356732544
 10
279.1302862305
 20
196.9785285889
  0
LWPOLYLINE
  5
2CD
100
AcDbEntity
  8
0
100
AcDbPolyline
 62
7
  6
CONTINUOUS
 90
3
 70
0
 43
0.3500000087
 10
281.4874338257
 20
195.478527124
 10
281.4874338257
 20
193.9785256592
 10
279.1302862305
 20
194.6213809937
  0
LINE
  5
2CE
100
AcDbEntity
  8
0
100
AcDbLine
 62
250
  6
CONTINUOUS
 10
251.2721415967
 20
218.6119061612
 11
251.3749613176
 21
218.6124193801
  0
LWPOLYLINE
  5
2CF
100
AcDbEntity
  8
0
100
AcDbPolyline
 62
250
  6
CONTINUOUS
 90
14
 70
0
 10
272.8403835482
 20
177.5080452076
 10
272.8368041238
 20
177.5059193154
 10
272.8279067219
 20
177.5038161976
 10
272.8137866396
 20
177.5017583882
 10
272.7945951309
 20
177.4997679366
 10
272.7705377913
 20
177.4978661694
 10
272.7418723585
 20
177.4960734613
 10
272.7089059403
 20
177.4944090198
 10
272.6719917343
 20
177.4928906803
 10
272.6315252547
 20
177.4915347125
 10
272.5879400655
 20
177.4903556467
 10
272.5417031541
 20
177.4893661161
 10
272.493309947
 20
177.4885767211
 10
272.4432789644
 20
177.4879959196
  0
LINE
  5
2D0
100
AcDbEntity
  8
0
100
AcDbLine
 62
250
  6
CONTINUOUS
 10
251.358434547
 20
220.0486762664
 11
272.3569864713
 21
220.0486762664
  0
LINE
  5
2D1
100
AcDbEntity
  8
0
100
AcDbLine
 62
7
  6
CONTINUOUS
 10
272.3806691349
 20
220.1197820349
 11
251.3347518834
 21
220.1197820349
  0
LWPOLYLINE
  5
2D2
100
AcDbEntity
  8
0
100
AcDbPolyline
 62
7
  6
CONTINUOUS
 90
7
 70
0
 43
0.3500000087
 10
263.357709436
 20
230.8697792847
 10
261.8577079712
 20
230.8697792847
 10
263.357709436
 20
233.012636084
 10
263.357709436
 20
233.4412176758
 10
262.9291448975
 20
233.8697822144
 10
262.286289563
 20
233.8697822144
 10
261.8577079712
 20
233.2269268799
  0
LWPOLYLINE
  5
2D3
100
AcDbEntity
  8
0
100
AcDbPolyline
 62
7
  6
CONTINUOUS
 90
7
 70
0
 43
0.3500000087
 10
261.0005618408
 20
230.8697792847
 10
259.500560376
 20
230.8697792847
 10
261.0005618408
 20
233.012636084
 10
261.0005618408
 20
233.4412176758
 10
260.5719973022
 20
233.8697822144
 10
259.9291419678
 20
233.8697822144
 10
259.500560376
 20
233.2269268799
  0
LWPOLYLINE
  5
2D4
100
AcDbEntity
  8
0
100
AcDbPolyline
 62
250
  6
CONTINUOUS
 90
16
 70
0
 10
272.8403835482
 20
218.5918569009
 10
272.8368040452
 20
218.5939828115
 10
272.8279064555
 20
218.5960859441
 10
272.8137861125
 20
218.5981437646
 10
272.7945943087
 20
218.6001342244
 10
272.7705366749
 20
218.6020359967
 10
272.7418709768
 20
218.603828705
 10
272.7089043534
 20
218.6054931413
 10
272.6719900258
 20
218.6070114719
 10
272.631523513
 20
218.6083674288
 10
272.5879383939
 20
218.6095464834
 10
272.5417016617
 20
218.6105360027
 10
272.4933087203
 20
218.6113253847
 10
272.4432780765
 20
218.6119061714
 10
272.3921457842
 20
218.6122721399
 10
251.3749613176
 20
218.6124193692
  0
LWPOLYLINE
  5
2D5
100
AcDbEntity
  8
0
100
AcDbPolyline
 62
7
  6
CONTINUOUS
 90
5
 70
0
 43
0.3500000087
 10
214.6706393799
 20
232.5840715454
 10
215.027785022
 20
232.7983452881
 10
215.027785022
 20
233.4412176758
 10
214.6706393799
 20
233.8697822144
 10
213.8134932495
 20
233.8697822144
  0
LWPOLYLINE
  5
2D6
100
AcDbEntity
  8
0
100
AcDbPolyline
 62
7
  6
CONTINUOUS
 90
3
 70
0
 43
0.3500000087
 10
212.8134922729
 20
231.1554889771
 10
212.7420733765
 20
230.9412152344
 10
212.5992185303
 20
230.6554884888
  0
LINE
  5
2D7
100
AcDbEntity
  8
0
100
AcDbLine
 62
250
  6
CONTINUOUS
 10
225.6040908382
 20
176.6101059566
 11
225.4066968812
 21
176.6101059566
  0
LINE
  5
2D8
100
AcDbEntity
  8
0
100
AcDbLine
 62
7
  6
CONTINUOUS
 10
223.7473119493
 20
176.0512258224
 11
225.1040908382
 21
175.9801200539
  0
LINE
  5
2D9
100
AcDbEntity
  8
0
100
AcDbLine
 62
250
  6
CONTINUOUS
 10
223.7647537242
 20
176.5505405898
 11
225.1040908382
 21
176.4803489059
  0
LINE
  5
2DA
100
AcDbEntity
  8
0
100
AcDbLine
 62
250
  6
CONTINUOUS
 10
222.3297597514
 20
177.4876299359
 11
222.3270848669
 21
177.4874826919
  0
LINE
  5
2DB
100
AcDbEntity
  8
0
100
AcDbLine
 62
250
  6
CONTINUOUS
 10
222.8179356677
 20
177.5080452076
 11
222.3297597514
 21
177.4876299359
  0
LWPOLYLINE
  5
2DC
100
AcDbEntity
  8
0
100
AcDbPolyline
 62
250
  6
CONTINUOUS
 90
13
 70
0
 10
227.4389531159
 20
180.4604806928
 10
227.4487380553
 20
180.4629806225
 10
227.4580773007
 20
180.4687023539
 10
227.4668179127
 20
180.4775521849
 10
227.4748167554
 20
180.4893851875
 10
227.4819428404
 20
180.5040075819
 10
227.4880794723
 20
180.5211799101
 10
227.4931261587
 20
180.5406209562
 10
227.4970002559
 20
180.5620123527
 10
227.4996383232
 20
180.5850037951
 10
227.5009971605
 20
180.6092187764
 10
227.5010545161
 20
180.6342607521
 10
227.4998094515
 20
180.6597196358
  0
LINE
  5
2DD
100
AcDbEntity
  8
0
100
AcDbLine
 62
7
  6
CONTINUOUS
 10
227.4389531353
 20
180.4604806945
 11
225.6040908382
 21
180.2999510444
  0
LINE
  5
2DE
100
AcDbEntity
  8
0
100
AcDbLine
 62
250
  6
CONTINUOUS
 10
227.3084541059
 20
180.6496747818
 11
225.6040908382
 21
180.5005623173
  0
LINE
  5
2DF
100
AcDbEntity
  8
0
100
AcDbLine
 62
250
  6
CONTINUOUS
 10
227.4998094191
 20
180.6597196341
 11
227.3084541059
 21
180.6496747818
  0
LINE
  5
2E0
100
AcDbEntity
  8
0
100
AcDbLine
 62
7
  6
CONTINUOUS
 10
226.9040908382
 20
184.7809704926
 11
225.6040908382
 21
184.7128403795
  0
LINE
  5
2E1
100
AcDbEntity
  8
0
100
AcDbLine
 62
250
  6
CONTINUOUS
 10
227.4998094191
 20
183.9401824546
 11
227.3084541059
 21
183.950227307
  0
LINE
  5
2E2
100
AcDbEntity
  8
0
100
AcDbLine
 62
250
  6
CONTINUOUS
 10
227.3084541059
 20
183.950227307
 11
225.6040908382
 21
184.0993397715
  0
LINE
  5
2E3
100
AcDbEntity
  8
0
100
AcDbLine
 62
7
  6
CONTINUOUS
 10
227.4389531353
 20
184.1394213943
 11
225.6040908382
 21
184.2999510444
  0
LWPOLYLINE
  5
2E4
100
AcDbEntity
  8
0
100
AcDbPolyline
 62
7
  6
CONTINUOUS
 90
5
 70
0
 10
226.8993791816
 20
185.7477539629
 10
226.8943216617
 20
185.7466564494
 10
226.8871332846
 20
185.7471368811
 10
226.8777842728
 20
185.7492247017
 10
226.8661701703
 20
185.7529071708
  0
LINE
  5
2E5
100
AcDbEntity
  8
0
100
AcDbLine
 62
250
  6
CONTINUOUS
 10
227.2040908382
 20
185.985403881
 11
227.0145580294
 21
185.9633087309
  0
LWPOLYLINE
  5
2E6
100
AcDbEntity
  8
0
100
AcDbPolyline
 62
7
  6
CONTINUOUS
 90
10
 70
0
 10
226.7798437723
 20
210.3084809127
 10
226.8000801354
 20
210.3182792719
 10
226.8192516837
 20
210.3271816287
 10
226.8367390237
 20
210.335060466
 10
226.8523811467
 20
210.34174863
 10
226.8661701703
 20
210.346994918
 10
226.8777842727
 20
210.3506773871
 10
226.8871332845
 20
210.3527652077
 10
226.8943216617
 20
210.3532456394
 10
226.8993791816
 20
210.3521481259
  0
LWPOLYLINE
  5
2E7
100
AcDbEntity
  8
0
100
AcDbPolyline
 62
7
  6
CONTINUOUS
 90
3
 70
0
 10
226.7145580294
 20
210.2764856553
 10
226.7370342815
 20
210.2872695271
 10
226.7798437723
 20
210.3084809127
  0
LWPOLYLINE
  5
2E8
100
AcDbEntity
  8
0
100
AcDbPolyline
 62
7
  6
CONTINUOUS
 90
7
 70
0
 10
226.8661701703
 20
185.7529071708
 10
226.8523811467
 20
185.7581534587
 10
226.8367390238
 20
185.7648416228
 10
226.8192516837
 20
185.77272046
 10
226.8000801355
 20
185.7816228168
 10
226.7798437724
 20
185.791421176
 10
226.7370342815
 20
185.8126325617
  0
LINE
  5
2E9
100
AcDbEntity
  8
0
100
AcDbLine
 62
7
  6
CONTINUOUS
 10
226.7370342815
 20
185.8126325617
 11
226.7145580294
 21
185.8234164335
  0
LINE
  5
2EA
100
AcDbEntity
  8
0
100
AcDbLine
 62
7
  6
CONTINUOUS
 10
225.6040908382
 20
188.3870617092
 11
227.2040908382
 21
188.3032092624
  0
LWPOLYLINE
  5
2EB
100
AcDbEntity
  8
0
100
AcDbPolyline
 62
250
  6
CONTINUOUS
 90
22
 70
0
 10
222.8179356685
 20
177.5080451879
 10
222.8239059587
 20
177.4363009005
 10
222.8341899922
 20
177.3667483055
 10
222.8487877689
 20
177.2993874029
 10
222.8677744427
 20
177.2343069455
 10
222.8910748597
 20
177.1714181806
 10
222.9184635583
 20
177.1104548494
 10
222.9500555614
 20
177.0510274079
 10
222.985735846
 20
176.9935254002
 10
223.0249338819
 20
176.938851199
 10
223.0673651817
 20
176.8872747256
 10
223.1133142327
 20
176.8385260589
 10
223.1630639671
 20
176.7926978076
 10
223.2167938323
 20
176.7494805975
 10
223.2743243808
 20
176.7091838029
 10
223.335400202
 20
176.6728281557
 10
223.4003450966
 20
176.6403449829
 10
223.468835264
 20
176.6118029575
 10
223.5396438917
 20
176.5884288304
 10
223.6123620422
 20
176.5706315185
 10
223.6873986531
 20
176.558002105
 10
223.7647537242
 20
176.5505405898
  0
LWPOLYLINE
  5
2EC
100
AcDbEntity
  8
0
100
AcDbPolyline
 62
250
  6
CONTINUOUS
 90
16
 70
0
 10
222.8179356685
 20
218.5918569009
 10
222.70826721
 20
215.6594759474
 10
222.6154962798
 20
212.8134678739
 10
222.539622878
 20
210.0538326804
 10
222.4818441443
 20
207.4048556753
 10
222.440962939
 20
204.8422515502
 10
222.4133878424
 20
202.2931643796
 10
222.3976323291
 20
199.7554156996
 10
222.3951829245
 20
197.2311839742
 10
222.4069077851
 20
194.6541486691
 10
222.4315673027
 20
192.018587214
 10
222.4704010857
 20
189.3302221792
 10
222.5279961155
 20
186.5399007416
 10
222.6058813862
 20
183.6312386266
 10
222.7025279039
 20
180.6206201087
 10
222.8179356685
 20
177.5080451879
  0
LWPOLYLINE
  5
2ED
100
AcDbEntity
  8
0
100
AcDbPolyline
 62
250
  6
CONTINUOUS
 90
19
 70
0
 10
225.4067021028
 20
176.6101078571
 10
225.4145540822
 20
176.5651200051
 10
225.4214685024
 20
176.521087199
 10
225.4273899475
 20
176.4783423804
 10
225.4323214794
 20
176.436970369
 10
225.4361796217
 20
176.3975000203
 10
225.4388914734
 20
176.3608189493
 10
225.4405959011
 20
176.32721525
 10
225.4413734863
 20
176.2966088776
 10
225.4411982603
 20
176.269152059
 10
225.4402254899
 20
176.2451031392
 10
225.4386360478
 20
176.2240371955
 10
225.4363521381
 20
176.205186957
 10
225.4333542059
 20
176.1886324031
 10
225.4297409741
 20
176.1744200987
 10
225.4253692892
 20
176.1621681037
 10
225.4200866524
 20
176.1520830018
 10
225.4138784958
 20
176.1446687651
 10
225.4066968812
 20
176.1402596462
  0
LWPOLYLINE
  5
2EE
100
AcDbEntity
  8
0
100
AcDbPolyline
 62
250
  6
CONTINUOUS
 90
8
 70
0
 10
227.068559338
 20
210.263553221
 10
227.0650232185
 20
210.253339616
 10
227.059764639
 20
210.2396776921
 10
227.0529389217
 20
210.2229709799
 10
227.044747677
 20
210.203712943
 10
227.0354328487
 20
210.1824724037
 10
227.0252695675
 20
210.159876741
 10
227.014558025
 20
210.1365933599
  0
LWPOLYLINE
  5
2EF
100
AcDbEntity
  8
0
100
AcDbPolyline
 62
250
  6
CONTINUOUS
 90
8
 70
0
 10
227.0685593321
 20
185.8363488651
 10
227.065023209
 20
185.8465624685
 10
227.059764624
 20
185.8602243899
 10
227.0529389008
 20
185.8769310995
 10
227.0447476546
 20
185.8961891357
 10
227.0354328308
 20
185.917429677
 10
227.0252695586
 20
185.9400253438
 10
227.0145580294
 20
185.9633087309
  0
LINE
  5
2F0
100
AcDbEntity
  8
0
100
AcDbLine
 62
250
  6
CONTINUOUS
 10
223.7647537242
 20
219.549361499
 11
223.7571010563
 21
219.703569984
  0
LINE
  5
2F1
100
AcDbEntity
  8
0
100
AcDbLine
 62
250
  6
CONTINUOUS
 10
223.7571010563
 20
219.703569984
 11
223.7528484525
 21
219.7988854014
  0
LINE
  5
2F2
100
AcDbEntity
  8
0
100
AcDbLine
 62
250
  6
CONTINUOUS
 10
223.7528484525
 20
219.7988854014
 11
223.7494964778
 21
219.8833084731
  0
LWPOLYLINE
  5
2F3
100
AcDbEntity
  8
0
100
AcDbPolyline
 62
250
  6
CONTINUOUS
 90
8
 70
0
 10
223.7494964778
 20
219.8833084731
 10
223.7471914729
 20
219.9531536266
 10
223.7464649527
 20
219.9816278794
 10
223.7460340727
 20
220.005371623
 10
223.7459035496
 20
220.0241249855
 10
223.7460748126
 20
220.0376827212
 10
223.7465459882
 20
220.0458964487
 10
223.7473119208
 20
220.0486762649
  0
LWPOLYLINE
  5
2F4
100
AcDbEntity
  8
0
100
AcDbPolyline
 62
250
  6
CONTINUOUS
 90
7
 70
0
 10
223.7471914487
 20
176.1467471924
 10
223.7464649442
 20
176.11827324
 10
223.7460340778
 20
176.094529798
 10
223.7459035659
 20
176.0757767022
 10
223.7460748373
 20
176.0622191769
 10
223.7465460172
 20
176.0540055885
 10
223.7473119493
 20
176.0512258224
  0
LINE
  5
2F5
100
AcDbEntity
  8
0
100
AcDbLine
 62
250
  6
CONTINUOUS
 10
223.7494964209
 20
176.2165918532
 11
223.7471914487
 21
176.1467471924
  0
LINE
  5
2F6
100
AcDbEntity
  8
0
100
AcDbLine
 62
250
  6
CONTINUOUS
 10
223.752848374
 20
176.3010147694
 11
223.7494964209
 21
176.2165918532
  0
LINE
  5
2F7
100
AcDbEntity
  8
0
100
AcDbLine
 62
250
  6
CONTINUOUS
 10
223.7595083374
 20
176.44678665
 11
223.752848374
 21
176.3010147694
  0
LINE
  5
2F8
100
AcDbEntity
  8
0
100
AcDbLine
 62
250
  6
CONTINUOUS
 10
223.7647537242
 20
176.5505405898
 11
223.7595083374
 21
176.44678665
  0
LINE
  5
2F9
100
AcDbEntity
  8
0
100
AcDbLine
 62
250
  6
CONTINUOUS
 10
227.3169314122
 20
180.5500990141
 11
227.3084541059
 21
180.6496747818
  0
LINE
  5
2FA
100
AcDbEntity
  8
0
100
AcDbLine
 62
7
  6
CONTINUOUS
 10
225.1040908382
 20
175.9801200539
 11
225.1040908382
 21
220.1197820349
  0
LINE
  5
2FB
100
AcDbEntity
  8
0
100
AcDbLine
 62
250
  6
CONTINUOUS
 10
225.4066968812
 20
219.4897961321
 11
225.4066968812
 21
176.6101059566
  0
LINE
  5
2FC
100
AcDbEntity
  8
0
100
AcDbLine
 62
7
  6
CONTINUOUS
 10
225.6040908382
 20
219.6777346563
 11
225.6040908382
 21
176.4221674325
  0
LWPOLYLINE
  5
2FD
100
AcDbEntity
  8
0
100
AcDbPolyline
 62
250
  6
CONTINUOUS
 90
22
 70
0
 10
227.8040908382
 20
183.7409016498
 10
227.8028436713
 20
183.7583281811
 10
227.7992537902
 20
183.7749736521
 10
227.7935504816
 20
183.7908380629
 10
227.7859705461
 20
183.8059515765
 10
227.7767363244
 20
183.8202840298
 10
227.7660365793
 20
183.8337449336
 10
227.7540715783
 20
183.846302426
 10
227.7410351311
 20
183.8579883688
 10
227.7270686021
 20
183.8688078583
 10
227.712385463
 20
183.878721495
 10
227.6971012799
 20
183.8877686784
 10
227.6811447479
 20
183.8960727027
 10
227.6646727465
 20
183.9036381905
 10
227.6477342365
 20
183.9104605192
 10
227.6299910988
 20
183.9166491151
 10
227.6115876533
 20
183.9222592944
 10
227.5924647935
 20
183.927235741
 10
227.5718412429
 20
183.9315219325
 10
227.549402023
 20
183.9350990282
 10
227.5253931668
 20
183.9379858689
 10
227.4998094191
 20
183.9401824546
  0
LWPOLYLINE
  5
2FE
100
AcDbEntity
  8
0
100
AcDbPolyline
 62
250
  6
CONTINUOUS
 90
3
 70
0
 10
227.0701003753
 20
210.2725395259
 10
227.0702685519
 20
210.2700168292
 10
227.068559338
 20
210.263553221
  0
LINE
  5
2FF
100
AcDbEntity
  8
0
100
AcDbLine
 62
250
  6
CONTINUOUS
 10
226.7145580294
 20
184.771037499
 11
226.7145580294
 21
185.8234164335
  0
LINE
  5
300
100
AcDbEntity
  8
0
100
AcDbLine
 62
250
  6
CONTINUOUS
 10
226.7145580294
 20
210.2764856553
 11
226.7145580294
 21
211.3288645898
  0
LINE
  5
301
100
AcDbEntity
  8
0
100
AcDbLine
 62
7
  6
CONTINUOUS
 10
226.9040908382
 20
184.7809704926
 11
226.9040908382
 21
185.7499510444
  0
LINE
  5
302
100
AcDbEntity
  8
0
100
AcDbLine
 62
7
  6
CONTINUOUS
 10
226.9040908382
 20
210.3499510444
 11
226.9040908382
 21
211.3189315962
  0
LINE
  5
303
100
AcDbEntity
  8
0
100
AcDbLine
 62
250
  6
CONTINUOUS
 10
227.0145580294
 20
185.9633087309
 11
227.0145580294
 21
188.313142256
  0
LINE
  5
304
100
AcDbEntity
  8
0
100
AcDbLine
 62
250
  6
CONTINUOUS
 10
227.0145580294
 20
207.7867598328
 11
227.0145580294
 21
210.1365933579
  0
LINE
  5
305
100
AcDbEntity
  8
0
100
AcDbLine
 62
7
  6
CONTINUOUS
 10
227.2040908382
 20
185.985403881
 11
227.2040908382
 21
188.3032092624
  0
LINE
  5
306
100
AcDbEntity
  8
0
100
AcDbLine
 62
7
  6
CONTINUOUS
 10
227.2040908382
 20
207.7966928264
 11
227.2040908382
 21
210.1144982078
  0
LINE
  5
307
100
AcDbEntity
  8
0
100
AcDbLine
 62
250
  6
CONTINUOUS
 10
227.3084541059
 20
183.950227307
 11
227.3084541059
 21
180.6496747818
  0
LINE
  5
308
100
AcDbEntity
  8
0
100
AcDbLine
 62
7
  6
CONTINUOUS
 10
227.8040908382
 20
183.740943515
 11
227.8040908382
 21
180.8589585738
  0
LWPOLYLINE
  5
309
100
AcDbEntity
  8
0
100
AcDbPolyline
 62
250
  6
CONTINUOUS
 90
3
 70
0
 10
227.0701003753
 20
185.8273625629
 10
227.0702685491
 20
185.8298852583
 10
227.0685593321
 20
185.8363488651
  0
LWPOLYLINE
  5
30A
100
AcDbEntity
  8
0
100
AcDbPolyline
 62
250
  6
CONTINUOUS
 90
7
 70
0
 10
227.3241399474
 20
180.4504358421
 10
227.3242169471
 20
180.4521584818
 10
227.3239946554
 20
180.4572574118
 10
227.3234768719
 20
180.4656454723
 10
227.3226724421
 20
180.4771792795
 10
227.3215951214
 20
180.4916616781
 10
227.3169314122
 20
180.5500990141
  0
LWPOLYLINE
  5
30B
100
AcDbEntity
  8
0
100
AcDbPolyline
 62
250
  6
CONTINUOUS
 90
13
 70
0
 10
227.4998094117
 20
183.940182455
 10
227.5010544786
 20
183.9656414053
 10
227.50099712
 20
183.9906834341
 10
227.4996382757
 20
184.0148984531
 10
227.4970001991
 20
184.0378899183
 10
227.493126092
 20
184.0592813216
 10
227.4880793981
 20
184.078722357
 10
227.4819427628
 20
184.0958946601
 10
227.4748166805
 20
184.1105170199
 10
227.4668178487
 20
184.122349983
 10
227.4580772568
 20
184.1311997759
 10
227.4487380409
 20
184.136921478
 10
227.4389531397
 20
184.1394213939
  0
LWPOLYLINE
  5
30C
100
AcDbEntity
  8
0
100
AcDbPolyline
 62
250
  6
CONTINUOUS
 90
5
 70
0
 10
227.3226724577
 20
184.1227228075
 10
227.3234768703
 20
184.1342566164
 10
227.323994647
 20
184.1426446776
 10
227.3242169393
 20
184.1477436076
 10
227.3241399474
 20
184.1494662466
  0
LINE
  5
30D
100
AcDbEntity
  8
0
100
AcDbLine
 62
250
  6
CONTINUOUS
 10
227.3202634031
 20
184.0910569713
 11
227.3226724577
 21
184.1227228075
  0
LWPOLYLINE
  5
30E
100
AcDbEntity
  8
0
100
AcDbPolyline
 62
250
  6
CONTINUOUS
 90
19
 70
0
 10
227.8040908382
 20
180.8590257255
 10
227.8024896117
 20
180.8392449365
 10
227.7978989931
 20
180.8204775973
 10
227.7906419008
 20
180.8027237078
 10
227.7810494896
 20
180.7859417426
 10
227.7694353408
 20
180.7701732272
 10
227.7560734884
 20
180.7555427381
 10
227.7412866163
 20
180.7421239129
 10
227.7253140407
 20
180.7298431141
 10
227.7082175492
 20
180.7186040052
 10
227.6903037677
 20
180.7084379523
 10
227.6716592895
 20
180.6993135892
 10
227.6518379067
 20
180.6910404813
 10
227.631015015
 20
180.6835246941
 10
227.6091594637
 20
180.676860162
 10
227.5852695205
 20
180.6711382531
 10
227.5589229185
 20
180.6663894236
 10
227.5304362238
 20
180.6625832172
 10
227.4998094191
 20
180.6597196341
  0
LINE
  5
30F
100
AcDbEntity
  8
0
100
AcDbLine
 62
250
  6
CONTINUOUS
 10
227.3149883501
 20
184.0264377756
 11
227.3202634031
 21
184.0910569713
  0
LINE
  5
310
100
AcDbEntity
  8
0
100
AcDbLine
 62
250
  6
CONTINUOUS
 10
227.3084541059
 20
183.950227307
 11
227.3149883501
 21
184.0264377756
  0
LWPOLYLINE
  5
311
100
AcDbEntity
  8
0
100
AcDbPolyline
 62
7
  6
CONTINUOUS
 90
10
 70
0
 43
0.3500000087
 10
212.7420733765
 20
231.3697797729
 10
212.8134922729
 20
231.2269249268
 10
212.8134922729
 20
231.1554889771
 10
212.6706374268
 20
231.0126341309
 10
212.5992185303
 20
231.0126341309
 10
212.5277825806
 20
231.0840700806
 10
212.5277825806
 20
231.1554889771
 10
212.5992185303
 20
231.2983608765
 10
212.6706374268
 20
231.3697797729
 10
212.7420733765
 20
231.3697797729
  0
LINE
  5
312
100
AcDbEntity
  8
0
100
AcDbLine
 62
7
  6
CONTINUOUS
 10
225.6040908382
 20
207.7128403795
 11
227.2040908382
 21
207.7966928264
  0
LINE
  5
313
100
AcDbEntity
  8
0
100
AcDbLine
 62
250
  6
CONTINUOUS
 10
227.0145580294
 20
185.9633087309
 11
226.7145580294
 21
185.8234164335
  0
LINE
  5
314
100
AcDbEntity
  8
0
100
AcDbLine
 62
7
  6
CONTINUOUS
 10
227.1174835774
 20
185.8494577129
 11
226.8993791816
 21
185.7477539629
  0
LINE
  5
315
100
AcDbEntity
  8
0
100
AcDbLine
 62
250
  6
CONTINUOUS
 10
226.7145580294
 20
210.2764856553
 11
227.0145580294
 21
210.1365933579
  0
LINE
  5
316
100
AcDbEntity
  8
0
100
AcDbLine
 62
7
  6
CONTINUOUS
 10
226.8993791816
 20
210.3521481259
 11
227.1174835774
 21
210.2504443759
  0
LINE
  5
317
100
AcDbEntity
  8
0
100
AcDbLine
 62
7
  6
CONTINUOUS
 10
225.6040908382
 20
211.3870617092
 11
226.9040908382
 21
211.3189315962
  0
LINE
  5
318
100
AcDbEntity
  8
0
100
AcDbLine
 62
250
  6
CONTINUOUS
 10
227.0145580294
 20
210.1365933579
 11
227.2040908382
 21
210.1144982078
  0
LWPOLYLINE
  5
319
100
AcDbEntity
  8
0
100
AcDbPolyline
 62
250
  6
CONTINUOUS
 90
37
 70
0
 10
225.4066968812
 20
219.9596424425
 10
225.4123446627
 20
219.9564987588
 10
225.4173669061
 20
219.9515428537
 10
225.4217984525
 20
219.9449665429
 10
225.4256941024
 20
219.9369616343
 10
225.4290875378
 20
219.9277102507
 10
225.4319823116
 20
219.9173666046
 10
225.4344236474
 20
219.9060829445
 10
225.4364598705
 20
219.8940082848
 10
225.4380897034
 20
219.8812558952
 10
225.4393577742
 20
219.867938895
 10
225.4403093726
 20
219.8541815717
 10
225.4409372239
 20
219.840089411
 10
225.4412829697
 20
219.825768826
 10
225.4413923326
 20
219.811304575
 10
225.4412576061
 20
219.7967507398
 10
225.4409138252
 20
219.7822023164
 10
225.4404022912
 20
219.7677079276
 10
225.4397122848
 20
219.7532293478
 10
225.4388676142
 20
219.7388220218
 10
225.4379004364
 20
219.7245267688
 10
225.4367969054
 20
219.7102612126
 10
225.4355719761
 20
219.6960595185
 10
225.43424857
 20
219.6819504766
 10
225.4328103476
 20
219.6678268936
 10
225.4312652932
 20
219.6537111341
 10
225.4296284371
 20
219.6396222117
 10
225.4278811591
 20
219.6254360802
 10
225.426025733
 20
219.6111678806
 10
225.4240706073
 20
219.5968311353
 10
225.4219948141
 20
219.5822915584
 10
225.4197956001
 20
219.5675609845
 10
225.417476114
 20
219.5526508487
 10
225.4150135473
 20
219.5374220355
 10
225.4123951013
 20
219.5218357167
 10
225.4096240365
 20
219.5059555196
 10
225.4066968812
 20
219.4897961321
  0
LINE
  5
31A
100
AcDbEntity
  8
0
100
AcDbLine
 62
250
  6
CONTINUOUS
 10
225.4066968812
 20
176.6101059566
 11
225.1040908382
 21
176.4999663643
  0
LINE
  5
31B
100
AcDbEntity
  8
0
100
AcDbLine
 62
7
  6
CONTINUOUS
 10
225.4066968812
 20
176.1402596462
 11
225.1040908382
 21
176.0301200539
  0
LWPOLYLINE
  5
31C
100
AcDbEntity
  8
0
100
AcDbPolyline
 62
250
  6
CONTINUOUS
 90
22
 70
0
 10
223.7647537242
 20
219.549361499
 10
223.6930754609
 20
219.5425854988
 10
223.6236378349
 20
219.531520213
 10
223.5564408459
 20
219.5161656414
 10
223.4915740013
 20
219.4964474606
 10
223.4289477938
 20
219.4724399941
 10
223.3682937023
 20
219.4443662127
 10
223.3092236548
 20
219.4121067532
 10
223.2521257234
 20
219.3757809789
 10
223.1978956029
 20
219.33596995
 10
223.1468001025
 20
219.2929613095
 10
223.0985724131
 20
219.2464674144
 10
223.0533078018
 20
219.1962063959
 10
223.0106988822
 20
219.1419954013
 10
222.9710530407
 20
219.0840172834
 10
222.9353877043
 20
219.0225387312
 10
222.903637774
 20
218.9572351142
 10
222.8758683488
 20
218.8884310631
 10
222.8532921533
 20
218.8173671581
 10
222.8363134287
 20
218.7444569261
 10
222.8245279338
 20
218.6692868404
 10
222.8179356685
 20
218.5918569009
  0
LINE
  5
31D
100
AcDbEntity
  8
0
100
AcDbLine
 62
250
  6
CONTINUOUS
 10
225.1040908382
 20
219.6195531828
 11
223.7647537242
 21
219.549361499
  0
LINE
  5
31E
100
AcDbEntity
  8
0
100
AcDbLine
 62
7
  6
CONTINUOUS
 10
225.1040908382
 20
220.1197820349
 11
223.7473119493
 21
220.0486762664
  0
LINE
  5
31F
100
AcDbEntity
  8
0
100
AcDbLine
 62
250
  6
CONTINUOUS
 10
225.6040908382
 20
219.4897961321
 11
225.4066968812
 21
219.4897961321
  0
LWPOLYLINE
  5
320
100
AcDbEntity
  8
0
100
AcDbPolyline
 62
7
  6
CONTINUOUS
 90
8
 70
0
 43
0.3500000087
 10
209.9563612427
 20
230.8697792847
 10
210.813507373
 20
230.8697792847
 10
211.2420719116
 20
231.2983608765
 10
211.2420719116
 20
232.1554899536
 10
210.813507373
 20
232.5840715454
 10
209.9563612427
 20
232.5840715454
 10
209.9563612427
 20
233.8697822144
 10
211.2420719116
 20
233.8697822144
  0
LWPOLYLINE
  5
321
100
AcDbEntity
  8
0
100
AcDbPolyline
 62
7
  6
CONTINUOUS
 90
6
 70
0
 43
0.3500000087
 10
213.8134932495
 20
230.8697792847
 10
214.8849301758
 20
230.8697792847
 10
215.0992209717
 20
231.0840700806
 10
215.0992209717
 20
232.1554899536
 10
214.6706393799
 20
232.5840715454
 10
214.2420748413
 20
232.5840715454
  0
LWPOLYLINE
  5
322
100
AcDbEntity
  8
0
100
AcDbPolyline
 62
250
  6
CONTINUOUS
 90
3
 70
0
 10
222.8179356685
 20
218.5918569009
 10
222.3297597015
 20
218.6122721399
 10
222.3270848657
 20
218.6124193692
  0
LINE
  5
323
100
AcDbEntity
  8
0
100
AcDbLine
 62
250
  6
CONTINUOUS
 10
225.1040908382
 20
219.5999357245
 11
225.4066968812
 21
219.4897961321
  0
LINE
  5
324
100
AcDbEntity
  8
0
100
AcDbLine
 62
7
  6
CONTINUOUS
 10
225.1040908382
 20
220.0697820349
 11
225.4066968812
 21
219.9596424425
  0
ARC
  5
325
100
AcDbEntity
  8
0
100
AcDbCircle
 62
7
  6
CONTINUOUS
 10
223.8258158837
 20
177.5491701245
 40
1.5
100
AcDbArc
 50
182.3569499908
 51
267.0
  0
ARC
  5
326
100
AcDbEntity
  8
0
100
AcDbCircle
 62
7
  6
CONTINUOUS
 10
227.4040908382
 20
180.8589585738
 40
0.4
100
AcDbArc
 50
275.0
 51
360.0
  0
ARC
  5
327
100
AcDbEntity
  8
0
100
AcDbCircle
 62
7
  6
CONTINUOUS
 10
227.4040908382
 20
183.740943515
 40
0.4
100
AcDbArc
 50
0.0
 51
85.0
  0
ARC
  5
328
100
AcDbEntity
  8
0
100
AcDbCircle
 62
7
  6
CONTINUOUS
 10
225.3040908382
 20
176.4221674325
 40
0.3
100
AcDbArc
 50
290.0
 51
360.0
  0
ARC
  5
329
100
AcDbEntity
  8
0
100
AcDbCircle
 62
7
  6
CONTINUOUS
 10
227.0540908382
 20
185.985403881
 40
0.15
100
AcDbArc
 50
295.0
 51
360.0
  0
ARC
  5
32A
100
AcDbEntity
  8
0
100
AcDbCircle
 62
7
  6
CONTINUOUS
 10
223.8258158837
 20
218.5507319642
 40
1.5
100
AcDbArc
 50
93.0
 51
177.6430500092
  0
ARC
  5
32B
100
AcDbEntity
  8
0
100
AcDbCircle
 62
7
  6
CONTINUOUS
 10
225.3040908382
 20
219.6777346563
 40
0.3
100
AcDbArc
 50
0.0
 51
70.0
  0
ARC
  5
32C
100
AcDbEntity
  8
0
100
AcDbCircle
 62
7
  6
CONTINUOUS
 10
227.0540908382
 20
210.1144982078
 40
0.15
100
AcDbArc
 50
0.0
 51
65.0
  0
ARC
  5
32D
100
AcDbEntity
  8
0
100
AcDbCircle
 62
7
  6
CONTINUOUS
 10
721.9040908382
 20
198.0499510444
 40
500.0
100
AcDbArc
 50
177.6430500092
 51
182.3569499908
  0
ELLIPSE
  5
32E
100
AcDbEntity
  8
0
100
AcDbEllipse
 62
7
  6
CONTINUOUS
 10
236.2362030443
 20
198.0499510444
 30
0.0
 11
-166.9755028216
 21
499.9311035759
 31
0.0
 40
0.0497084956
 41
-1.5884175772
 42
-1.582238985
  0
ELLIPSE
  5
32F
100
AcDbEntity
  8
0
100
AcDbEllipse
 62
7
  6
CONTINUOUS
 10
292.1068070207
 20
198.0499510444
 30
0.0
 11
-166.9755028216
 21
499.9311035759
 31
0.0
 40
0.0497084956
 41
1.5486575155
 42
1.5548365753
  0
ELLIPSE
  5
330
100
AcDbEntity
  8
0
100
AcDbEllipse
 62
7
  6
CONTINUOUS
 10
231.6086139975
 20
198.0499510444
 30
0.0
 11
166.9755028216
 21
499.9311035759
 31
0.0
 40
0.0497084956
 41
-1.5565953823
 42
-1.5486575155
  0
ELLIPSE
  5
331
100
AcDbEntity
  8
0
100
AcDbEllipse
 62
7
  6
CONTINUOUS
 10
287.479217974
 20
198.0499510444
 30
0.0
 11
166.9755028216
 21
499.9311035759
 31
0.0
 40
0.0497084956
 41
-4.7009463222
 42
-4.6931422163
  0
ELLIPSE
  5
332
100
AcDbEntity
  8
0
100
AcDbEllipse
 62
7
  6
CONTINUOUS
 10
272.3802123711
 20
176.4808062269
 30
0.0
 11
0.1582391023
 21
-0.4751033573
 31
0.0
 40
0.9984778551
 41
-0.3210503505
 42
1.2488325878
  0
ELLIPSE
  5
333
100
AcDbEntity
  8
0
100
AcDbEllipse
 62
7
  6
CONTINUOUS
 10
272.3802123711
 20
219.6190958619
 30
0.0
 11
-0.1582391023
 21
-0.4751033573
 31
0.0
 40
0.9984778551
 41
1.8927600658
 42
3.4626430041
  0
ELLIPSE
  5
334
100
AcDbEntity
  8
0
100
AcDbEllipse
 62
7
  6
CONTINUOUS
 10
251.3352086471
 20
219.6190958619
 30
0.0
 11
-0.1582391023
 21
0.4751033573
 31
0.0
 40
0.9984778551
 41
-0.3210503505
 42
1.2488325878
  0
ELLIPSE
  5
335
100
AcDbEntity
  8
0
100
AcDbEllipse
 62
7
  6
CONTINUOUS
 10
251.3352086471
 20
176.4808062269
 30
0.0
 11
0.1582391023
 21
0.4751033573
 31
0.0
 40
0.9984778551
 41
1.8927600658
 42
3.4626430041
  0
ENDSEC
  0
SECTION
  2
OBJECTS
  0
DICTIONARY
  5
C
100
AcDbDictionary
280
0
281
1
  3
ACAD_GROUP
350
D
  3
ACAD_MLINESTYLE
350
17
  3
ACAD_LAYOUT
350
1A
  3
ACAD_PLOTSETTINGS
350
19
  3
ACAD_PLOTSTYLENAME
350
E
  0
DICTIONARY
  5
D
102
{ACAD_REACTORS
330
C
102
}
100
AcDbDictionary
280
0
281
1
  0
ACDBDICTIONARYWDFLT
  5
E
102
{ACAD_REACTORS
330
C
102
}
100
AcDbDictionary
281
1
  3
Normal
350
F
100
AcDbDictionaryWithDefault
340
F
  0
DICTIONARY
  5
17
102
{ACAD_REACTORS
330
C
102
}
100
AcDbDictionary
280
0
281
1
  3
Standard
350
18
  0
DICTIONARY
  5
19
102
{ACAD_REACTORS
330
C
102
}
100
AcDbDictionary
281
1
  0
DICTIONARY
  5
1A
102
{ACAD_REACTORS
330
C
102
}
100
AcDbDictionary
281
1
  3
Model
350
336
  3
Layout1
350
337
  0
ACDBPLACEHOLDER
  5
F
102
{ACAD_REACTORS
330
E
102
}
  0
MLINESTYLE
  5
18
102
{ACAD_REACTORS
330
17
102
}
100
AcDbMlineStyle
  2
STANDARD
 70
0
  3

 62
256
 51
90.0
 52
90.0
 71
2
 49
0.5
 62
256
  6
BYLAYER
 49
-0.5
 62
256
  6
BYLAYER
  0
LAYOUT
  5
336
102
{ACAD_REACTORS
330
1A
102
}
100
AcDbPlotSettings
  1

  2
none_device
  4
ANSI_C_(22.00_x_17.00_Inches)
  6

 40
0.0
 41
0.0
 42
0.0
 43
0.0
 44
558.8
 45
431.8
 46
0.0
 47
0.0
 48
0.0
 49
0.0
140
0.0
141
0.0
142
1.0
143
1.0
 70
1024
 72
1
 73
0
 74
0
  7

 75
0
147
1.0
148
0.0
149
0.0
100
AcDbLayout
  1
Model
 70
0
 71
0
 10
0.0
 20
0.0
 11
558.8
 21
431.8
 12
0.0
 22
0.0
 32
0.0
 14
0.0
 24
0.0
 34
0.0
 15
0.0
 25
0.0
 35
0.0
146
0.0
 13
0.0
 23
0.0
 33
0.0
 16
1.0
 26
0.0
 36
0.0
 17
0.0
 27
1.0
 37
0.0
 76
0
330
214
345
0
346
0
  0
LAYOUT
  5
337
102
{ACAD_REACTORS
330
1A
102
}
100
AcDbPlotSettings
  1

  2
none_device
  4
ANSI_C_(22.00_x_17.00_Inches)
  6

 40
0.0
 41
0.0
 42
0.0
 43
0.0
 44
558.8
 45
431.8
 46
0.0
 47
0.0
 48
0.0
 49
0.0
140
0.0
141
0.0
142
1.0
143
1.0
 70
0
 72
1
 73
0
 74
0
  7

 75
0
147
1.0
148
0.0
149
0.0
100
AcDbLayout
  1
Layout1
 70
0
 71
1
 10
0.0
 20
0.0
 11
558.8
 21
431.8
 12
0.0
 22
0.0
 32
0.0
 14
0.0
 24
0.0
 34
0.0
 15
0.0
 25
0.0
 35
0.0
146
0.0
 13
0.0
 23
0.0
 33
0.0
 16
1.0
 26
0.0
 36
0.0
 17
0.0
 27
1.0
 37
0.0
 76
0
330
215
345
0
346
0
  0
ENDSEC
  0
EOF
