  0
SECTION
  2
HEADER
  9
$ACADVER
  1
AC1024
  9
$DWGCODEPAGE
  3
ANSI_1252
  9
$EXTMAX
 10
558.8
 20
431.8
 30
0.0
  9
$EXTMIN
 10
0.0
 20
0.0
 30
0.0
  9
$LIMMIN
 10
0.0
 20
0.0
  9
$LIMMAX
 10
558.8
 20
431.8
  9
$VIEWCTR
 10
279.4
 20
215.9
  9
$VIEWSIZE
 40
431.8
  9
$CLAYER
  8
0
  9
$LTSCALE
 40
30.734
  9
$CELTYPE
  6
BYLAYER
  9
$DIMSCALE
 40
1.0
  9
$DIMASZ
 40
3.0
  9
$DIMEXO
 40
0.5
  9
$DIMDLI
 40
21.2344
  9
$DIMEXE
 40
1.5
  9
$DIMCEN
 40
5.0292
  9
$DIMLFAC
 40
1.0
  9
$DIMBLK
  1
_FILLED
  9
$DIMALT
 70
0
  9
$DIMALTF
 40
0.0393700787
  9
$DIMTXT
 40
3.0
  9
$DIMTOL
 70
1
  9
$DIMLIM
 70
0
  9
$DIMTFAC
 40
1.0
  9
$DIMTP
 40
0.01
  9
$DIMTM
 40
0.01
  9
$DIMGAP
 40
0.625
  9
$DIMDSEP
 70
44
  9
$AUNITS
 70
0
  9
$PDMODE
 70
3
  9
$PDSIZE
 40
3.0
  9
$HANDSEED
  5
378
  9
$TILEMODE
 70
1
  9
$MEASUREMENT
 70
1
  9
$INSUNITS
 70
4
  0
ENDSEC
  0
SECTION
  2
CLASSES
  0
CLASS
  1
ACDBDICTIONARYWDFLT
  2
AcDbDictionaryWithDefault
  3
AutoCAD 2000
 90
0
 91
1
280
0
281
0
  0
CLASS
  1
ACDBPLACEHOLDER
  2
AcDbPlaceHolder
  3
AutoCAD 2000
 90
0
 91
1
280
0
281
0
  0
CLASS
  1
LAYOUT
  2
AcDbLayout
  3
AutoCAD 2000
 90
0
 91
0
280
0
281
0
  0
ENDSEC
  0
SECTION
  2
TABLES
  0
TABLE
  2
VPORT
  5
8
100
AcDbSymbolTable
 70
2
  0
VPORT
  5
1F4
100
AcDbSymbolTableRecord
100
AcDbViewportTableRecord
  2
*ACTIVE
 70
0
 10
0.0
 20
0.0
 11
1.0
 21
1.0
 12
279.4
 22
215.9
 13
0.0
 23
0.0
 14
1.0
 24
1.0
 15
0.0
 25
0.0
 16
0.0
 26
0.0
 36
1.0
 17
0.0
 27
0.0
 37
0.0
 40
431.8
 41
1.2941176471
 42
50.0
 43
0.0
 44
0.0
 50
0.0
 51
0.0
 71
0
 72
100
 73
1
 74
1
 75
0
 76
0
 77
0
 78
0
  0
ENDTAB
  0
TABLE
  2
LTYPE
  5
5
100
AcDbSymbolTable
 70
6
  0
LTYPE
  5
14
100
AcDbSymbolTableRecord
100
AcDbLinetypeTableRecord
  2
BYBLOCK
 70
0
  3

 72
65
 73
0
 40
0.0
  0
LTYPE
  5
15
100
AcDbSymbolTableRecord
100
AcDbLinetypeTableRecord
  2
BYLAYER
 70
0
  3

 72
65
 73
0
 40
0.0
  0
LTYPE
  5
16
100
AcDbSymbolTableRecord
100
AcDbLinetypeTableRecord
  2
CONTINUOUS
 70
64
  3
Solid line
 72
65
 73
0
 40
0.0
  0
LTYPE
  5
1F5
100
AcDbSymbolTableRecord
100
AcDbLinetypeTableRecord
  2
CENTER
 70
64
  3
____ _ ____ _ ____ _ ____ _ ____ _ ____ _ ____
 72
65
 73
4
 40
0.6
 49
0.375
 74
0
 49
-0.075
 74
0
 49
0.075
 74
0
 49
-0.075
 74
0
  0
LTYPE
  5
1F6
100
AcDbSymbolTableRecord
100
AcDbLinetypeTableRecord
  2
HIDDEN
 70
64
  3
- - - - - - - - - - - - - - - - - - - -
 72
65
 73
2
 40
0.2
 49
0.1
 74
0
 49
-0.1
 74
0
  0
LTYPE
  5
1F7
100
AcDbSymbolTableRecord
100
AcDbLinetypeTableRecord
  2
PHANTOM
 70
64
  3
_____ _ _ _____ _ _ _____ _ _ _____
 72
65
 73
6
 40
0.8
 49
0.45
 74
0
 49
-0.05
 74
0
 49
0.1
 74
0
 49
-0.05
 74
0
 49
0.1
 74
0
 49
-0.05
 74
0
  0
LTYPE
  5
1F8
100
AcDbSymbolTableRecord
100
AcDbLinetypeTableRecord
  2
DOT
 70
64
  3
. . . . . . . . . . . . . . . . . . . .
 72
65
 73
2
 40
0.2
 49
0.1
 74
0
 49
-0.1
 74
0
  0
LTYPE
  5
1F9
100
AcDbSymbolTableRecord
100
AcDbLinetypeTableRecord
  2
DASHED
 70
64
  3
- - - - - - - - - - - - - - - - - - - -
 72
65
 73
2
 40
0.2
 49
0.1
 74
0
 49
-0.1
 74
0
  0
ENDTAB
  0
TABLE
  2
LAYER
  5
2
100
AcDbSymbolTable
 70
36
  0
LAYER
  5
10
100
AcDbSymbolTableRecord
100
AcDbLayerTableRecord
  2
0
 70
0
 62
7
  6
CONTINUOUS
370
-3
390
F
  0
LAYER
  5
1FA
100
AcDbSymbolTableRecord
100
AcDbLayerTableRecord
  2
DEFAULT_1
 70
0
 62
7
  6
CENTER
370
-3
390
F
  0
LAYER
  5
1FB
100
AcDbSymbolTableRecord
100
AcDbLayerTableRecord
  2
DEFAULT_2
 70
0
 62
7
  6
HIDDEN
370
-3
390
F
  0
LAYER
  5
1FC
100
AcDbSymbolTableRecord
100
AcDbLayerTableRecord
  2
DEFAULT_3
 70
0
 62
7
  6
PHANTOM
370
-3
390
F
  0
LAYER
  5
1FD
100
AcDbSymbolTableRecord
100
AcDbLayerTableRecord
  2
ASSI
 70
0
 62
7
  6
CONTINUOUS
370
-3
390
F
  0
LAYER
  5
1FE
100
AcDbSymbolTableRecord
100
AcDbLayerTableRecord
  2
COORDINATE
 70
0
 62
7
  6
CONTINUOUS
370
-3
390
F
  0
LAYER
  5
1FF
100
AcDbSymbolTableRecord
100
AcDbLayerTableRecord
  2
COPY_PUBLISH
 70
0
 62
7
  6
CONTINUOUS
370
-3
390
F
  0
LAYER
  5
200
100
AcDbSymbolTableRecord
100
AcDbLayerTableRecord
  2
COSMETIC
 70
0
 62
7
  6
CONTINUOUS
370
-3
390
F
  0
LAYER
  5
201
100
AcDbSymbolTableRecord
100
AcDbLayerTableRecord
  2
COSMETICI
 70
0
 62
7
  6
CONTINUOUS
370
-3
390
F
  0
LAYER
  5
202
100
AcDbSymbolTableRecord
100
AcDbLayerTableRecord
  2
CURVE
 70
0
 62
7
  6
CONTINUOUS
370
-3
390
F
  0
LAYER
  5
203
100
AcDbSymbolTableRecord
100
AcDbLayerTableRecord
  2
DRAFT
 70
0
 62
7
  6
CONTINUOUS
370
-3
390
F
  0
LAYER
  5
204
100
AcDbSymbolTableRecord
100
AcDbLayerTableRecord
  2
IMPORT_IGES
 70
0
 62
7
  6
CONTINUOUS
370
-3
390
F
  0
LAYER
  5
205
100
AcDbSymbolTableRecord
100
AcDbLayerTableRecord
  2
INTFCLR_11
 70
0
 62
7
  6
CONTINUOUS
370
-3
390
F
  0
LAYER
  5
206
100
AcDbSymbolTableRecord
100
AcDbLayerTableRecord
  2
INTF_1
 70
0
 62
7
  6
CONTINUOUS
370
-3
390
F
  0
LAYER
  5
207
100
AcDbSymbolTableRecord
100
AcDbLayerTableRecord
  2
INTF_3
 70
0
 62
7
  6
CONTINUOUS
370
-3
390
F
  0
LAYER
  5
208
100
AcDbSymbolTableRecord
100
AcDbLayerTableRecord
  2
NOTE
 70
0
 62
7
  6
CONTINUOUS
370
-3
390
F
  0
LAYER
  5
209
100
AcDbSymbolTableRecord
100
AcDbLayerTableRecord
  2
PIANI
 70
0
 62
7
  6
CONTINUOUS
370
-3
390
F
  0
LAYER
  5
20A
100
AcDbSymbolTableRecord
100
AcDbLayerTableRecord
  2
PUNTI
 70
0
 62
7
  6
CONTINUOUS
370
-3
390
F
  0
LAYER
  5
20B
100
AcDbSymbolTableRecord
100
AcDbLayerTableRecord
  2
RACCORDO
 70
0
 62
7
  6
CONTINUOUS
370
-3
390
F
  0
LAYER
  5
20C
100
AcDbSymbolTableRecord
100
AcDbLayerTableRecord
  2
SIMBOLI
 70
0
 62
7
  6
CONTINUOUS
370
-3
390
F
  0
LAYER
  5
20D
100
AcDbSymbolTableRecord
100
AcDbLayerTableRecord
  2
SMUSSO
 70
0
 62
7
  6
CONTINUOUS
370
-3
390
F
  0
LAYER
  5
20E
100
AcDbSymbolTableRecord
100
AcDbLayerTableRecord
  2
SNAPLINE
 70
0
 62
7
  6
CONTINUOUS
370
-3
390
F
  0
LAYER
  5
20F
100
AcDbSymbolTableRecord
100
AcDbLayerTableRecord
  2
SUPERFICI
 70
0
 62
7
  6
CONTINUOUS
370
-3
390
F
  0
LAYER
  5
210
100
AcDbSymbolTableRecord
100
AcDbLayerTableRecord
  2
TRASH
 70
0
 62
7
  6
CONTINUOUS
370
-3
390
F
  0
LAYER
  5
211
100
AcDbSymbolTableRecord
100
AcDbLayerTableRecord
  2
___SHELL
 70
0
 62
7
  6
CONTINUOUS
370
-3
390
F
  0
ENDTAB
  0
TABLE
  2
STYLE
  5
3
100
AcDbSymbolTable
 70
1
  0
STYLE
  5
11
100
AcDbSymbolTableRecord
100
AcDbTextStyleTableRecord
  2
STANDARD
 70
0
 40
0.0
 41
0.8
 50
0.0
 71
0
 42
0.2
  3
txt
  4

  0
STYLE
  5
212
100
AcDbSymbolTableRecord
100
AcDbTextStyleTableRecord
  2
TEXTSTYLE_1
 70
0
 40
0.0
 41
0.8
 50
0.0
 71
0
 42
0.2
  3
gdt
  4

  0
ENDTAB
  0
TABLE
  2
VIEW
  5
6
100
AcDbSymbolTable
 70
0
  0
ENDTAB
  0
TABLE
  2
UCS
  5
7
100
AcDbSymbolTable
 70
0
  0
ENDTAB
  0
TABLE
  2
APPID
  5
9
100
AcDbSymbolTable
 70
1
  0
APPID
  5
213
100
AcDbSymbolTableRecord
100
AcDbRegAppTableRecord
  2
ACAD
 70
0
  0
ENDTAB
  0
TABLE
  2
BLOCK_RECORD
  5
1
100
AcDbSymbolTable
 70
0
  0
BLOCK_RECORD
  5
214
100
AcDbSymbolTableRecord
100
AcDbBlockTableRecord
  2
*Model_Space
  0
BLOCK_RECORD
  5
215
100
AcDbSymbolTableRecord
100
AcDbBlockTableRecord
  2
*Paper_Space
  0
BLOCK_RECORD
  5
216
100
AcDbSymbolTableRecord
100
AcDbBlockTableRecord
  2
_FILLED
  0
BLOCK_RECORD
  5
217
100
AcDbSymbolTableRecord
100
AcDbBlockTableRecord
  2
*D0
  0
BLOCK_RECORD
  5
218
100
AcDbSymbolTableRecord
100
AcDbBlockTableRecord
  2
*D1
  0
BLOCK_RECORD
  5
219
100
AcDbSymbolTableRecord
100
AcDbBlockTableRecord
  2
*D2
  0
ENDTAB
  0
TABLE
  2
DIMSTYLE
  5
A
100
AcDbSymbolTable
 70
1
100
AcDbDimStyleTable
 71
0
  0
DIMSTYLE
105
21A
100
AcDbSymbolTableRecord
100
AcDbDimStyleTableRecord
  2
STANDARD
 70
0
  3

  4

 40
1.0
 41
3.0
 42
0.5
 43
0.38
 44
1.5
 45
0.0
 46
0.0
 47
0.01
 48
0.01
140
3.0
141
0.09
142
0.0
143
25.4
144
1.0
145
0.0
146
1.0
147
0.625
 71
1
 72
0
 73
0
 74
0
 75
0
 76
0
 77
1
 78
8
 79
2
170
0
171
1
172
0
173
0
174
0
175
0
176
0
177
0
178
0
270
2
179
2
271
2
272
2
273
2
274
2
275
0
280
0
281
0
282
0
283
1
284
8
285
0
286
0
287
3
288
0
340
11
278
44
341
216
342
216
343
216
344
216
  0
DIMSTYLE
105
21B
100
AcDbSymbolTableRecord
100
AcDbDimStyleTableRecord
  2
DIMSTYLE_1
 70
0
  3

  4

 40
1.0
 41
3.0
 42
0.5
 43
0.38
 44
1.5
 45
0.0
 46
0.0
 47
0.0
 48
0.0
140
3.0
141
0.09
142
0.0
143
25.4
144
1.0
145
0.0
146
1.0
147
0.75
 71
0
 72
0
 73
0
 74
0
 75
0
 76
0
 77
1
 78
8
 79
2
170
0
171
1
172
0
173
0
174
0
175
0
176
0
177
0
178
0
270
2
179
2
271
1
272
1
273
2
274
2
275
0
280
0
281
0
282
0
283
1
284
8
285
0
286
0
287
3
288
0
340
11
278
44
341
216
342
216
343
216
344
216
  0
DIMSTYLE
105
21C
100
AcDbSymbolTableRecord
100
AcDbDimStyleTableRecord
  2
DIMSTYLE_2
 70
0
  3

  4

 40
1.0
 41
3.0
 42
0.5
 43
0.38
 44
1.5
 45
0.0
 46
0.0
 47
0.0
 48
0.0
140
3.0
141
0.09
142
0.0
143
25.4
144
1.0
145
0.0
146
1.0
147
0.75
 71
0
 72
0
 73
0
 74
0
 75
0
 76
0
 77
1
 78
8
 79
2
170
0
171
1
172
0
173
0
174
0
175
0
176
0
177
0
178
0
270
2
179
2
271
2
272
2
273
2
274
2
275
0
280
0
281
0
282
0
283
1
284
8
285
0
286
0
287
3
288
0
340
11
278
44
341
216
342
216
343
216
344
216
  0
ENDTAB
  0
ENDSEC
  0
SECTION
  2
BLOCKS
  0
BLOCK
  5
20
100
AcDbEntity
  8
0
100
AcDbBlockBegin
  2
*Model_Space
 70
0
 10
0.0
 20
0.0
 30
0.0
  3
*Model_Space
  1

  0
ENDBLK
  5
21
100
AcDbEntity
  8
0
100
AcDbBlockEnd
  0
BLOCK
  5
1C
100
AcDbEntity
  8
0
100
AcDbBlockBegin
  2
*Paper_Space
 70
0
 10
0.0
 20
0.0
 30
0.0
  3
*Paper_Space
  1

  0
ENDBLK
  5
1D
100
AcDbEntity
  8
0
100
AcDbBlockEnd
  0
BLOCK
  5
21D
100
AcDbEntity
  8
0
100
AcDbBlockBegin
  2
_FILLED
 70
64
 10
0.0
 20
0.0
  3
_FILLED
  1

  0
SOLID
  5
21E
100
AcDbEntity
  8
0
  6
BYBLOCK
 62
0
100
AcDbTrace
 10
0.0
 20
0.0
 11
-1.0
 21
0.3166666667
 12
-1.0
 22
-0.3166666667
 13
-1.0
 23
-0.3166666667
  0
ENDBLK
  5
21F
100
AcDbEntity
  8
0
  6
BYBLOCK
 62
0
100
AcDbBlockEnd
  0
BLOCK
  5
220
100
AcDbEntity
  8
0
100
AcDbBlockBegin
 62
7
  6
CONTINUOUS
  2
*D0
 70
65
 10
0.0
 20
0.0
  3
*D0
  1

  0
MTEXT
  5
221
100
AcDbEntity
  8
0
100
AcDbMText
 62
7
  6
CONTINUOUS
  7
STANDARD
 71
2
 72
1
 10
265.1076504569
 20
236.6667000506
 30
0.0
 11
1.0
 21
0.0
 31
0.0
 73
2
 44
0.9
  1
{\ftxt;\W0.0001;\H0.0001;\~}{\ftxt;\W1.5714285714;\H3.0; }{\ftxt;\W0.0001;\H0.0001;\~}
 40
3.0
 41
7.0714285714
  0
LINE
  5
222
100
AcDbEntity
  8
0
100
AcDbLine
 62
7
  6
CONTINUOUS
 10
254.0850724309
 20
222.9164711985
 11
254.0850724309
 21
234.4167000506
  0
LINE
  5
223
100
AcDbEntity
  8
0
100
AcDbLine
 62
7
  6
CONTINUOUS
 10
276.1302284829
 20
222.9164711985
 11
276.1302284829
 21
234.4167000506
  0
LINE
  5
224
100
AcDbEntity
  8
0
100
AcDbLine
 62
7
  6
CONTINUOUS
 10
254.0850724309
 20
232.9167000506
 11
265.1076504569
 21
232.9167000506
  0
LINE
  5
225
100
AcDbEntity
  8
0
100
AcDbLine
 62
7
  6
CONTINUOUS
 10
276.1302284829
 20
232.9167000506
 11
265.1076504569
 21
232.9167000506
  0
INSERT
  5
226
100
AcDbEntity
  8
0
100
AcDbBlockReference
 62
7
  6
CONTINUOUS
  2
_FILLED
 10
254.0850724309
 20
232.9167000506
 41
3.0
 42
3.0
 43
3.0
 50
180.0
  0
INSERT
  5
227
100
AcDbEntity
  8
0
100
AcDbBlockReference
 62
7
  6
CONTINUOUS
  2
_FILLED
 10
276.1302284829
 20
232.9167000506
 41
3.0
 42
3.0
 43
3.0
  0
ENDBLK
  5
228
100
AcDbEntity
  8
0
  6
BYBLOCK
 62
0
100
AcDbBlockEnd
  0
BLOCK
  5
229
100
AcDbEntity
  8
0
100
AcDbBlockBegin
 62
7
  6
CONTINUOUS
  2
*D1
 70
65
 10
0.0
 20
0.0
  3
*D1
  1

  0
MTEXT
  5
22A
100
AcDbEntity
  8
0
100
AcDbMText
 62
7
  6
CONTINUOUS
  7
STANDARD
 71
2
 72
1
 10
282.3802284829
 20
200.8468690601
 30
0.0
 11
0.0
 21
1.0
 31
0.0
 73
2
 44
0.9
  1
{\ftxt;\W0.0001;\H0.0001;\~}{\ftxt;\W2.7142857143;\H3.0; }{\ftxt;\W0.0001;\H0.0001;\~}
 40
3.0
 41
12.2142857143
  0
LINE
  5
22B
100
AcDbEntity
  8
0
100
AcDbLine
 62
7
  6
CONTINUOUS
 10
276.1306090827
 20
222.9167000506
 11
287.6302284829
 21
222.9167000506
  0
LINE
  5
22C
100
AcDbEntity
  8
0
100
AcDbLine
 62
7
  6
CONTINUOUS
 10
276.1306090827
 20
178.7770380695
 11
287.6302284829
 21
178.7770380695
  0
LINE
  5
22D
100
AcDbEntity
  8
0
100
AcDbLine
 62
7
  6
CONTINUOUS
 10
286.1302284829
 20
222.9167000506
 11
286.1302284829
 21
200.8468690601
  0
LINE
  5
22E
100
AcDbEntity
  8
0
100
AcDbLine
 62
7
  6
CONTINUOUS
 10
286.1302284829
 20
178.7770380695
 11
286.1302284829
 21
200.8468690601
  0
INSERT
  5
22F
100
AcDbEntity
  8
0
100
AcDbBlockReference
 62
7
  6
CONTINUOUS
  2
_FILLED
 10
286.1302284829
 20
222.9167000506
 41
3.0
 42
3.0
 43
3.0
 50
90.0
  0
INSERT
  5
230
100
AcDbEntity
  8
0
100
AcDbBlockReference
 62
7
  6
CONTINUOUS
  2
_FILLED
 10
286.1302284829
 20
178.7770380695
 41
3.0
 42
3.0
 43
3.0
 50
270.0
  0
ENDBLK
  5
231
100
AcDbEntity
  8
0
  6
BYBLOCK
 62
0
100
AcDbBlockEnd
  0
BLOCK
  5
232
100
AcDbEntity
  8
0
100
AcDbBlockBegin
 62
7
  6
CONTINUOUS
  2
*D2
 70
65
 10
0.0
 20
0.0
  3
*D2
  1

  0
MTEXT
  5
233
100
AcDbEntity
  8
0
100
AcDbMText
 62
7
  6
CONTINUOUS
  7
STANDARD
 71
3
 72
1
 10
226.9026842819
 20
236.6667000506
 30
0.0
 11
1.0
 21
0.0
 31
0.0
 73
2
 44
0.9
  1
{\ftxt;\W0.0001;\H0.0001;\~}{\ftxt;\W2.0;\H3.0; }{\ftxt;\W0.0001;\H0.0001;\~}
 40
3.0
 41
9.0
  0
LINE
  5
234
100
AcDbEntity
  8
0
100
AcDbLine
 62
7
  6
CONTINUOUS
 10
236.4613775348
 20
213.4114162235
 11
236.4613775348
 21
234.4167000506
  0
LINE
  5
235
100
AcDbEntity
  8
0
100
AcDbLine
 62
7
  6
CONTINUOUS
 10
231.1613775348
 20
201.3468690601
 11
231.1613775348
 21
234.4167000506
  0
LINE
  5
236
100
AcDbEntity
  8
0
100
AcDbLine
 62
7
  6
CONTINUOUS
 10
236.4613775348
 20
232.9167000506
 11
240.4613775348
 21
232.9167000506
  0
LINE
  5
237
100
AcDbEntity
  8
0
100
AcDbLine
 62
7
  6
CONTINUOUS
 10
240.4613775348
 20
232.9167000506
 11
233.8113775348
 21
232.9167000506
  0
LINE
  5
238
100
AcDbEntity
  8
0
100
AcDbLine
 62
7
  6
CONTINUOUS
 10
231.1613775348
 20
232.9167000506
 11
220.9026842819
 21
232.9167000506
  0
LINE
  5
239
100
AcDbEntity
  8
0
100
AcDbLine
 62
7
  6
CONTINUOUS
 10
220.9026842819
 20
232.9167000506
 11
233.8113775348
 21
232.9167000506
  0
INSERT
  5
23A
100
AcDbEntity
  8
0
100
AcDbBlockReference
 62
7
  6
CONTINUOUS
  2
_FILLED
 10
236.4613775348
 20
232.9167000506
 41
3.0
 42
3.0
 43
3.0
 50
180.0
  0
INSERT
  5
23B
100
AcDbEntity
  8
0
100
AcDbBlockReference
 62
7
  6
CONTINUOUS
  2
_FILLED
 10
231.1613775348
 20
232.9167000506
 41
3.0
 42
3.0
 43
3.0
  0
ENDBLK
  5
23C
100
AcDbEntity
  8
0
  6
BYBLOCK
 62
0
100
AcDbBlockEnd
  0
ENDSEC
  0
SECTION
  2
ENTITIES
  0
DIMENSION
  5
23D
100
AcDbEntity
  8
0
100
AcDbDimension
 62
7
  6
CONTINUOUS
  2
*D0
 10
276.1302284829
 20
232.9167000506
 11
264.6790783936
 21
232.9167000506
 70
160
 71
2
 72
2
 41
0.9
 42
22.045156052
  1
{\ftxt;\W0.0001;\H0.0001;\~}{\ftxt;\W1.5714285714;\H3.0; }{\ftxt;\W0.0001;\H0.0001;\~}
  3
DIMSTYLE_1
100
AcDbAlignedDimension
 13
254.0850724309
 23
222.4164711985
 14
276.1302284829
 24
222.4164711985
100
AcDbRotatedDimension
  0
DIMENSION
  5
23E
100
AcDbEntity
  8
0
100
AcDbDimension
 62
7
  6
CONTINUOUS
  2
*D1
 10
286.1302284829
 20
178.7770380695
 11
286.1302284829
 21
200.4182943909
 70
160
 71
2
 72
2
 41
0.9
 42
44.139661981
  1
{\ftxt;\W0.0001;\H0.0001;\~}{\ftxt;\W2.7142857143;\H3.0; }{\ftxt;\W0.0001;\H0.0001;\~}
  3
DIMSTYLE_1
100
AcDbAlignedDimension
 13
275.6306090827
 23
222.9167000506
 14
275.6306090827
 24
178.7770380695
 50
270.0
100
AcDbRotatedDimension
  0
DIMENSION
  5
23F
100
AcDbEntity
  8
0
100
AcDbDimension
 62
7
  6
CONTINUOUS
  2
*D2
 10
231.1613775348
 20
232.9167000506
 11
223.4741183044
 21
232.9167000506
 70
160
 71
3
 72
2
 41
0.9
 42
5.3
  1
{\ftxt;\W0.0001;\H0.0001;\~}{\ftxt;\W2.0;\H3.0; }{\ftxt;\W0.0001;\H0.0001;\~}
  3
DIMSTYLE_2
100
AcDbAlignedDimension
 13
236.4613775348
 23
212.9114162235
 14
231.1613775348
 24
200.8468690601
 50
180.0
100
AcDbRotatedDimension
  0
LWPOLYLINE
  5
240
100
AcDbEntity
  8
0
100
AcDbPolyline
 62
250
  6
CONTINUOUS
 90
14
 70
0
 10
254.1249774178
 20
221.3887749078
 10
254.1285568029
 20
221.3909007822
 10
254.1374541107
 20
221.3930038854
 10
254.151574062
 20
221.3950616841
 10
254.1707654218
 20
221.3970521296
 10
254.1948226121
 20
221.3989538951
 10
254.2234879097
 20
221.400746604
 10
254.2564542223
 20
221.4024110481
 10
254.2933683643
 20
221.4039293919
 10
254.3338348248
 20
221.4052853652
 10
254.3774200473
 20
221.4064644377
 10
254.4236570477
 20
221.4074539752
 10
254.4720503889
 20
221.4082433745
 10
254.5220815445
 20
221.4088241769
  0
LWPOLYLINE
  5
241
100
AcDbEntity
  8
0
100
AcDbPolyline
 62
250
  6
CONTINUOUS
 90
16
 70
0
 10
254.1249774178
 20
180.3049632036
 10
254.1285569209
 20
180.3028372929
 10
254.1374545106
 20
180.3007341603
 10
254.1515748536
 20
180.2986763398
 10
254.1707666575
 20
180.29668588
 10
254.1948242913
 20
180.2947841077
 10
254.2234899895
 20
180.2929913994
 10
254.256456613
 20
180.2913269631
 10
254.2933709406
 20
180.2898086325
 10
254.3338374534
 20
180.2884526757
 10
254.3774225725
 20
180.2872736211
 10
254.4236593046
 20
180.2862841017
 10
254.4720522459
 20
180.2854947197
 10
254.5220828897
 20
180.2849139331
 10
254.573215182
 20
180.2845479645
 10
275.5903996484
 20
180.2844007352
  0
LINE
  5
242
100
AcDbEntity
  8
0
100
AcDbLine
 62
7
  6
CONTINUOUS
 10
275.6306090827
 20
178.7770380695
 11
254.5846918312
 21
178.7770380695
  0
LINE
  5
243
100
AcDbEntity
  8
0
100
AcDbLine
 62
250
  6
CONTINUOUS
 10
254.6083744948
 20
178.8481438381
 11
275.6069264191
 21
178.8481438381
  0
LINE
  5
244
100
AcDbEntity
  8
0
100
AcDbLine
 62
250
  6
CONTINUOUS
 10
275.6932189122
 20
180.2849139353
 11
275.5903996484
 21
180.2844007076
  0
LWPOLYLINE
  5
245
100
AcDbEntity
  8
0
100
AcDbPolyline
 62
250
  6
CONTINUOUS
 90
16
 70
0
 10
254.1084506472
 20
179.3474586055
 10
254.1112336993
 20
179.2952972017
 10
254.1194570309
 20
179.243706446
 10
254.1330307027
 20
179.1932509109
 10
254.1518062264
 20
179.1444827496
 10
254.1755781822
 20
179.0979356689
 10
254.2040864609
 20
179.0541190853
 10
254.2370191262
 20
179.0135125225
 10
254.2740158136
 20
178.9765603895
 10
254.3146716562
 20
178.9436671229
 10
254.3585417598
 20
178.9151927185
 10
254.4051460432
 20
178.891448822
 10
254.4539744612
 20
178.8726953235
 10
254.5044926446
 20
178.8591374799
 10
254.5561477549
 20
178.8509236809
 10
254.608374495
 20
178.8481438387
  0
LWPOLYLINE
  5
246
100
AcDbEntity
  8
0
100
AcDbPolyline
 62
250
  6
CONTINUOUS
 90
16
 70
0
 10
254.1084506472
 20
222.3462795146
 10
254.1112338038
 20
222.3984419038
 10
254.1194574111
 20
222.4500334547
 10
254.1330314742
 20
222.5004895759
 10
254.1518074456
 20
222.5492581019
 10
254.1755798508
 20
222.595805335
 10
254.2040885367
 20
222.6396218866
 10
254.2370215191
 20
222.680228251
 10
254.2740183964
 20
222.7171800531
 10
254.3146742941
 20
222.7500729115
 10
254.3585442948
 20
222.7785468638
 10
254.4051483081
 20
222.8022903057
 10
254.4539763237
 20
222.8210434014
 10
254.5044939929
 20
222.8346009269
 10
254.5561484766
 20
222.8428145155
 10
254.6083744948
 20
222.845594282
  0
LWPOLYLINE
  5
247
100
AcDbEntity
  8
0
100
AcDbPolyline
 62
250
  6
CONTINUOUS
 90
8
 70
0
 10
254.1165187067
 20
222.2052363501
 10
254.1155124287
 20
222.2371654023
 10
254.1144830044
 20
222.265379182
 10
254.1134195057
 20
222.2896582421
 10
254.1122879217
 20
222.3098982397
 10
254.1110769155
 20
222.3260643938
 10
254.109797824
 20
222.3381914855
 10
254.1084506472
 20
222.3462795146
  0
LWPOLYLINE
  5
248
100
AcDbEntity
  8
0
100
AcDbPolyline
 62
250
  6
CONTINUOUS
 90
6
 70
0
 10
254.6144068559
 20
222.7238756132
 10
254.6133436081
 20
222.7599078731
 10
254.6122121682
 20
222.7910223708
 10
254.6110011358
 20
222.8165658681
 10
254.6097219113
 20
222.8350889829
 10
254.6083744948
 20
222.845594282
  0
LINE
  5
249
100
AcDbEntity
  8
0
100
AcDbLine
 62
250
  6
CONTINUOUS
 10
254.1184302655
 20
222.1290200873
 11
254.1165187067
 21
222.2052363501
  0
LINE
  5
24A
100
AcDbEntity
  8
0
100
AcDbLine
 62
250
  6
CONTINUOUS
 10
254.6164424081
 20
222.6338326177
 11
254.6144068559
 21
222.7238756132
  0
LINE
  5
24B
100
AcDbEntity
  8
0
100
AcDbLine
 62
250
  6
CONTINUOUS
 10
254.1202332933
 20
222.0336622562
 11
254.1184302655
 21
222.1290200873
  0
LINE
  5
24C
100
AcDbEntity
  8
0
100
AcDbLine
 62
250
  6
CONTINUOUS
 10
254.6183541399
 20
222.5197051412
 11
254.6164424081
 21
222.6338326177
  0
LINE
  5
24D
100
AcDbEntity
  8
0
100
AcDbLine
 62
250
  6
CONTINUOUS
 10
254.1224796027
 20
221.8643690303
 11
254.1202332933
 21
222.0336622562
  0
LINE
  5
24E
100
AcDbEntity
  8
0
100
AcDbLine
 62
250
  6
CONTINUOUS
 10
254.6209762743
 20
222.2968894601
 11
254.6183541399
 21
222.5197051412
  0
LINE
  5
24F
100
AcDbEntity
  8
0
100
AcDbLine
 62
250
  6
CONTINUOUS
 10
254.1240427653
 20
221.6734480626
 11
254.1224796027
 21
221.8643690303
  0
LINE
  5
250
100
AcDbEntity
  8
0
100
AcDbLine
 62
250
  6
CONTINUOUS
 10
254.6239665737
 20
221.8364662222
 11
254.6209762743
 21
222.2968894601
  0
LINE
  5
251
100
AcDbEntity
  8
0
100
AcDbLine
 62
250
  6
CONTINUOUS
 10
254.1249774178
 20
221.3887749165
 11
254.1240427653
 21
221.6734480626
  0
LINE
  5
252
100
AcDbEntity
  8
0
100
AcDbLine
 62
7
  6
CONTINUOUS
 10
254.0850724309
 20
222.4164711985
 11
254.0850724309
 21
179.2772669216
  0
LINE
  5
253
100
AcDbEntity
  8
0
100
AcDbLine
 62
250
  6
CONTINUOUS
 10
254.1268924237
 20
183.2387782873
 11
254.1249774178
 21
221.3887749165
  0
LINE
  5
254
100
AcDbEntity
  8
0
100
AcDbLine
 62
250
  6
CONTINUOUS
 10
254.6268162713
 20
183.2209462181
 11
254.6239665737
 21
221.8364662222
  0
LINE
  5
255
100
AcDbEntity
  8
0
100
AcDbLine
 62
250
  6
CONTINUOUS
 10
254.1243855365
 20
180.0847420291
 11
254.1268924237
 21
183.2387782873
  0
LINE
  5
256
100
AcDbEntity
  8
0
100
AcDbLine
 62
250
  6
CONTINUOUS
 10
254.6235570958
 20
179.7649381555
 11
254.6268162713
 21
183.2209462181
  0
LINE
  5
257
100
AcDbEntity
  8
0
100
AcDbLine
 62
250
  6
CONTINUOUS
 10
254.6212215674
 20
179.4232389118
 11
254.6235570958
 21
179.7649381555
  0
LINE
  5
258
100
AcDbEntity
  8
0
100
AcDbLine
 62
250
  6
CONTINUOUS
 10
254.1226064444
 20
179.8412139936
 11
254.1243855365
 21
180.0847420291
  0
LINE
  5
259
100
AcDbEntity
  8
0
100
AcDbLine
 62
250
  6
CONTINUOUS
 10
254.6186585044
 20
179.1954081679
 11
254.6212215674
 21
179.4232389118
  0
LINE
  5
25A
100
AcDbEntity
  8
0
100
AcDbLine
 62
250
  6
CONTINUOUS
 10
254.1205150773
 20
179.677759726
 11
254.1226064444
 21
179.8412139936
  0
LINE
  5
25B
100
AcDbEntity
  8
0
100
AcDbLine
 62
250
  6
CONTINUOUS
 10
254.6166478329
 20
179.0707955979
 11
254.6186585044
 21
179.1954081679
  0
LINE
  5
25C
100
AcDbEntity
  8
0
100
AcDbLine
 62
250
  6
CONTINUOUS
 10
254.1187346075
 20
179.5789681589
 11
254.1205150773
 21
179.677759726
  0
LWPOLYLINE
  5
25D
100
AcDbEntity
  8
0
100
AcDbPolyline
 62
250
  6
CONTINUOUS
 90
7
 70
0
 10
254.6083744948
 20
178.8481438381
 10
254.6096737592
 20
178.8580858627
 10
254.61093341
 20
178.8759378557
 10
254.6121534472
 20
178.901299957
 10
254.6133332513
 20
178.9335571008
 10
254.6144734418
 20
178.9723720058
 10
254.6166478329
 20
179.0707955979
  0
LWPOLYLINE
  5
25E
100
AcDbEntity
  8
0
100
AcDbPolyline
 62
250
  6
CONTINUOUS
 90
9
 70
0
 10
254.1084506472
 20
179.3474586055
 10
254.10974972
 20
179.3545602425
 10
254.1110092658
 20
179.3663727136
 10
254.1122292845
 20
179.3828960187
 10
254.1134092104
 20
179.4042040545
 10
254.1145496093
 20
179.4302229243
 10
254.1156521786
 20
179.4607309386
 10
254.1167241077
 20
179.4959042882
 10
254.1187346075
 20
179.5789681589
  0
LWPOLYLINE
  5
25F
100
AcDbEntity
  8
0
100
AcDbPolyline
 62
7
  6
CONTINUOUS
 90
3
 70
0
 10
261.8374792818
 20
198.1390617741
 10
261.8385836021
 20
198.1734215144
 10
261.8439287391
 20
198.2080361533
  0
LINE
  5
260
100
AcDbEntity
  8
0
100
AcDbLine
 62
250
  6
CONTINUOUS
 10
254.0850724309
 20
179.2772669216
 11
254.1084506472
 21
179.3474586055
  0
LWPOLYLINE
  5
261
100
AcDbEntity
  8
0
100
AcDbPolyline
 62
7
  6
CONTINUOUS
 90
13
 70
0
 10
265.125262455
 20
196.6164905368
 10
265.0905454785
 20
196.6164599988
 10
265.0564557118
 20
196.6203035244
 10
265.023014715
 20
196.6281292812
 10
264.990200928
 20
196.6398291039
 10
264.9592198271
 20
196.6550848427
 10
264.9300876881
 20
196.6740087943
 10
264.9027882352
 20
196.696488668
 10
264.8784781166
 20
196.721869433
 10
264.8572050757
 20
196.7505584436
 10
264.8389213691
 20
196.7821483534
 10
264.824640416
 20
196.8147620777
 10
264.8147000225
 20
196.8477739212
  0
LWPOLYLINE
  5
262
100
AcDbEntity
  8
0
100
AcDbPolyline
 62
7
  6
CONTINUOUS
 90
13
 70
0
 10
265.0900465488
 20
197.7767958531
 10
265.1247224325
 20
197.7768278344
 10
265.1587723539
 20
197.7729921442
 10
265.1921744771
 20
197.7651808785
 10
265.2249506379
 20
197.753501943
 10
265.2558982348
 20
197.7382725793
 10
265.2850012428
 20
197.7193806295
 10
265.3122756868
 20
197.696938256
 10
265.3365670392
 20
197.6715991806
 10
265.3578277014
 20
197.6429580718
 10
265.376105272
 20
197.6114202675
 10
265.3903880195
 20
197.578855491
 10
265.4003387001
 20
197.5458869833
  0
LWPOLYLINE
  5
263
100
AcDbEntity
  8
0
100
AcDbPolyline
 62
7
  6
CONTINUOUS
 90
2
 70
0
 43
0.3500000087
 10
285.3802241211
 20
197.7754427368
 10
283.8802226562
 20
197.7754427368
  0
LWPOLYLINE
  5
264
100
AcDbEntity
  8
0
100
AcDbPolyline
 62
7
  6
CONTINUOUS
 90
7
 70
0
 10
265.055416827
 20
196.6204848202
 10
265.0215522288
 20
196.62858479
 10
264.9883869785
 20
196.6406555068
 10
264.9572360671
 20
196.6562201881
 10
264.9281796594
 20
196.6754188766
 10
264.9011375907
 20
196.6981115357
 10
264.8771843581
 20
196.7234012637
  0
LINE
  5
265
100
AcDbEntity
  8
0
100
AcDbLine
 62
250
  6
CONTINUOUS
 10
254.1084506472
 20
222.3462795146
 11
254.0850724309
 21
222.4164711985
  0
LWPOLYLINE
  5
266
100
AcDbEntity
  8
0
100
AcDbPolyline
 62
7
  6
CONTINUOUS
 90
3
 70
0
 10
262.8339962301
 20
198.550713434
 10
262.8328888565
 20
198.5163795024
 10
262.8275529638
 20
198.4818182189
  0
LINE
  5
267
100
AcDbEntity
  8
0
100
AcDbLine
 62
250
  6
CONTINUOUS
 10
254.5846918312
 20
178.7770380695
 11
254.6083744948
 21
178.8481438381
  0
LWPOLYLINE
  5
268
100
AcDbEntity
  8
0
100
AcDbPolyline
 62
7
  6
CONTINUOUS
 90
3
 70
0
 10
263.6003015292
 20
202.3530309631
 10
263.5843672708
 20
202.3221754897
 10
263.5645888305
 20
202.2925087894
  0
LWPOLYLINE
  5
269
100
AcDbEntity
  8
0
100
AcDbPolyline
 62
7
  6
CONTINUOUS
 90
4
 70
0
 10
261.8655853632
 20
198.2739452779
 10
261.881888548
 20
198.3041316428
 10
261.9018390312
 20
198.332611798
 10
261.9254368129
 20
198.3593857421
  0
LWPOLYLINE
  5
26A
100
AcDbEntity
  8
0
100
AcDbPolyline
 62
7
  6
CONTINUOUS
 90
20
 70
0
 10
263.4807557776
 20
202.1732840167
 10
263.4066646192
 20
202.0495154787
 10
263.3423153553
 20
201.9212031742
 10
263.2874391348
 20
201.7875579352
 10
263.2423048087
 20
201.6493689317
 10
263.2077189304
 20
201.5090036758
 10
263.1838774133
 20
201.366451505
 10
263.1705843438
 20
201.2217230995
 10
263.1680585351
 20
201.077217993
 10
263.176480885
 20
200.932938453
 10
263.1956704957
 20
200.7888822362
 10
263.2253034865
 20
200.6474421105
 10
263.2655490648
 20
200.5086713251
 10
263.3162380231
 20
200.3725166511
 10
263.3765388588
 20
200.2412111363
 10
263.4466197419
 20
200.1148210569
 10
263.5263125024
 20
199.9932801448
 10
263.6142811281
 20
199.8786226252
 10
263.7106500125
 20
199.7709780712
 10
263.8152947621
 20
199.6702169029
  0
LINE
  5
26B
100
AcDbEntity
  8
0
100
AcDbLine
 62
7
  6
CONTINUOUS
 10
263.5839961429
 20
202.3213247688
 11
263.5645888305
 21
202.2925087894
  0
LWPOLYLINE
  5
26C
100
AcDbEntity
  8
0
100
AcDbPolyline
 62
7
  6
CONTINUOUS
 90
21
 70
0
 10
263.5645888305
 20
202.2925087894
 10
263.4766663457
 20
202.1668361538
 10
263.3995714705
 20
202.0363766379
 10
263.3333042051
 20
201.9011302411
 10
263.2775921537
 20
201.7602131884
 10
263.2327077121
 20
201.6145092583
 10
263.199468067
 20
201.4666697866
 10
263.178086376
 20
201.3166558977
 10
263.1683494816
 20
201.1645064888
 10
263.1704350985
 20
201.0129895634
 10
263.1845595013
 20
200.8621165858
 10
263.2105064154
 20
200.7118761196
 10
263.2478047314
 20
200.5650018185
 10
263.2966622005
 20
200.4215550826
 10
263.3568710715
 20
200.2814745331
 10
263.427336981
 20
200.1473096501
 10
263.5082478777
 20
200.0191684227
 10
263.599415813
 20
199.896942867
 10
263.6991825773
 20
199.7828584964
 10
263.8077058438
 20
199.6770642492
 10
263.9265061847
 20
199.5779846091
  0
LINE
  5
26D
100
AcDbEntity
  8
0
100
AcDbLine
 62
7
  6
CONTINUOUS
 10
262.9774735015
 20
202.5002384997
 11
263.0870985402
 21
202.6563027857
  0
LWPOLYLINE
  5
26E
100
AcDbEntity
  8
0
100
AcDbPolyline
 62
7
  6
CONTINUOUS
 90
3
 70
0
 10
263.0870985402
 20
202.6563027857
 10
263.1099185794
 20
202.6830604262
 10
263.1353462921
 20
202.7065584886
  0
LINE
  5
26F
100
AcDbEntity
  8
0
100
AcDbLine
 62
7
  6
CONTINUOUS
 10
263.0870985402
 20
202.6563027857
 11
263.1104524566
 21
202.6832526694
  0
LINE
  5
270
100
AcDbEntity
  8
0
100
AcDbLine
 62
7
  6
CONTINUOUS
 10
263.1359865204
 20
202.7068191157
 11
263.1635358762
 21
202.7268820696
  0
LINE
  5
271
100
AcDbEntity
  8
0
100
AcDbLine
 62
7
  6
CONTINUOUS
 10
263.1637007316
 20
202.7270021264
 11
263.1940285082
 21
202.7439833351
  0
LINE
  5
272
100
AcDbEntity
  8
0
100
AcDbLine
 62
7
  6
CONTINUOUS
 10
263.1633816784
 20
202.7267969746
 11
263.1946981471
 21
202.7440791648
  0
LINE
  5
273
100
AcDbEntity
  8
0
100
AcDbLine
 62
7
  6
CONTINUOUS
 10
263.1940285082
 20
202.7439833351
 11
263.2286222894
 21
202.7581017812
  0
LWPOLYLINE
  5
274
100
AcDbEntity
  8
0
100
AcDbPolyline
 62
7
  6
CONTINUOUS
 90
20
 70
0
 10
263.2265364322
 20
202.757581111
 10
263.2631338791
 20
202.767954987
 10
263.2979507885
 20
202.7732934377
 10
263.3333551452
 20
202.7744624794
 10
263.3681731066
 20
202.7715883112
 10
263.4024460424
 20
202.7645816241
 10
263.4361325829
 20
202.7535317262
 10
263.4679347755
 20
202.7388327425
 10
263.4978677855
 20
202.720199502
 10
263.5259164476
 20
202.6979171727
 10
263.550737313
 20
202.6732353884
 10
263.5720085593
 20
202.6462495726
 10
263.5900520088
 20
202.6168642992
 10
263.6044896797
 20
202.5860429275
 10
263.6153021022
 20
202.5537296292
 10
263.622508746
 20
202.519980231
 10
263.6257900385
 20
202.4859255758
 10
263.6249586196
 20
202.4513848398
 10
263.6202018492
 20
202.4165388467
 10
263.6117622344
 20
202.3830609124
  0
LWPOLYLINE
  5
275
100
AcDbEntity
  8
0
100
AcDbPolyline
 62
7
  6
CONTINUOUS
 90
14
 70
0
 10
262.1983790915
 20
197.8527989775
 10
262.1604545411
 20
197.8473962808
 10
262.1251634713
 20
197.8468201691
 10
262.0898681614
 20
197.8504633305
 10
262.0558253352
 20
197.8579433113
 10
262.0230890765
 20
197.8693484716
 10
261.9916053014
 20
197.884590454
 10
261.9624684828
 20
197.9030217285
 10
261.9357465008
 20
197.924729338
 10
261.9113714753
 20
197.9496262443
 10
261.8902342384
 20
197.976803795
 10
261.8724318246
 20
198.0064229559
 10
261.8578671996
 20
198.0383227657
 10
261.8471400919
 20
198.0711116804
  0
LWPOLYLINE
  5
276
100
AcDbEntity
  8
0
100
AcDbPolyline
 62
7
  6
CONTINUOUS
 90
19
 70
0
 10
262.163967263
 20
197.8476826737
 10
262.1292001234
 20
197.8467447325
 10
262.0940869241
 20
197.8498212257
 10
262.060018489
 20
197.856786558
 10
262.0270367092
 20
197.8677961093
 10
261.9950996936
 20
197.8826945022
 10
261.9654725936
 20
197.9008900063
 10
261.9382478958
 20
197.9225146422
 10
261.9133331136
 20
197.9474363938
 10
261.8917159378
 20
197.974667474
 10
261.8735285025
 20
198.0043017855
 10
261.8586386738
 20
198.03624543
 10
261.8476377402
 20
198.0692289165
 10
261.8406819149
 20
198.1032913881
 10
261.8376149847
 20
198.1383937037
 10
261.8385595995
 20
198.1731489433
 10
261.843678058
 20
198.2075478415
 10
261.8528080614
 20
198.2415996626
 10
261.8655853632
 20
198.2739452779
  0
LWPOLYLINE
  5
277
100
AcDbEntity
  8
0
100
AcDbPolyline
 62
7
  6
CONTINUOUS
 90
4
 70
0
 10
267.7044945634
 20
198.8423340295
 10
267.742008227
 20
198.836972822
 10
267.776052423
 20
198.8278569665
 10
267.8083912493
 20
198.8150950133
  0
LWPOLYLINE
  5
278
100
AcDbEntity
  8
0
100
AcDbPolyline
 62
7
  6
CONTINUOUS
 90
4
 70
0
 10
268.0544636067
 20
197.8474254744
 10
268.0169186887
 20
197.8527990643
 10
267.9828565483
 20
197.8619289217
 10
267.9505022546
 20
197.874707379
  0
LWPOLYLINE
  5
279
100
AcDbEntity
  8
0
100
AcDbPolyline
 62
7
  6
CONTINUOUS
 90
7
 70
0
 10
265.1598210359
 20
197.77280925
 10
265.1936457623
 20
197.7647229828
 10
265.2267726213
 20
197.7526726125
 10
265.2578893846
 20
197.7371337232
 10
265.2869161075
 20
197.71796664
 10
265.3139327345
 20
197.6953110425
 10
265.3378668717
 20
197.6700615461
  0
LWPOLYLINE
  5
27A
100
AcDbEntity
  8
0
100
AcDbPolyline
 62
7
  6
CONTINUOUS
 90
4
 70
0
 10
268.0190574508
 20
197.852532056
 10
267.9837121572
 20
197.8618281963
 10
267.9504375205
 20
197.8747375885
 10
267.9199034722
 20
197.8910681317
  0
LWPOLYLINE
  5
27B
100
AcDbEntity
  8
0
100
AcDbPolyline
 62
7
  6
CONTINUOUS
 90
23
 70
0
 10
260.8050454447
 20
200.8349608906
 10
260.7731751547
 20
200.8487918269
 10
260.7426741559
 20
200.8664055311
 10
260.7147640542
 20
200.8870976794
 10
260.6895544048
 20
200.9109904368
 10
260.6669356524
 20
200.9379616383
 10
260.6478007364
 20
200.9669404648
 10
260.6322888991
 20
200.9980070103
 10
260.6202608982
 20
201.0310811805
 10
260.6121919464
 20
201.0648518739
 10
260.6082405626
 20
201.0993470029
 10
260.608248228
 20
201.1345386548
 10
260.6122145979
 20
201.1690319908
 10
260.6202987632
 20
201.2027995057
 10
260.6323416332
 20
201.2358687046
 10
260.6478655912
 20
201.2669272643
 10
260.6670109096
 20
201.2958942905
 10
260.6896373161
 20
201.3228506779
 10
260.7148463771
 20
201.3467267875
 10
260.7427419171
 20
201.3673983687
 10
260.7732201116
 20
201.3849896728
 10
260.8050710536
 20
201.3988038136
 10
260.8378914406
 20
201.408608496
  0
LWPOLYLINE
  5
27C
100
AcDbEntity
  8
0
100
AcDbPolyline
 62
7
  6
CONTINUOUS
 90
20
 70
0
 10
264.0444113662
 20
199.4944099011
 10
264.1688832207
 20
199.4193640504
 10
264.297831298
 20
199.3541063814
 10
264.4313123556
 20
199.2988094841
 10
264.569269636
 20
199.2533007491
 10
264.7094424172
 20
199.2183217014
 10
264.8518988756
 20
199.1940479962
 10
264.9965708346
 20
199.1803039662
 10
265.1409930425
 20
199.1773041546
 10
265.2851294744
 20
199.1852352193
 10
265.4290161552
 20
199.2039105033
 10
265.5702959072
 20
199.2329845807
 10
265.7088983062
 20
199.2726052931
 10
265.8448937765
 20
199.3226248123
 10
265.9761364135
 20
199.3822542085
 10
266.1026112101
 20
199.4516866914
 10
266.2243331734
 20
199.5307290709
 10
266.3392014203
 20
199.6180128165
 10
266.4470417253
 20
199.7136229658
 10
266.548028314
 20
199.817474497
  0
LWPOLYLINE
  5
27D
100
AcDbEntity
  8
0
100
AcDbPolyline
 62
7
  6
CONTINUOUS
 90
20
 70
0
 10
263.9248279393
 20
199.579411175
 10
264.0484176351
 20
199.4916779465
 10
264.1785936801
 20
199.4140461932
 10
264.3152373254
 20
199.3463342635
 10
264.4558610954
 20
199.2897759041
 10
264.6005380722
 20
199.2445755406
 10
264.7491951737
 20
199.2105287273
 10
264.899125679
 20
199.1882559049
 10
265.0503530061
 20
199.1779729537
 10
265.202853737
 20
199.1794639857
 10
265.3538508964
 20
199.1927017925
 10
265.5033167516
 20
199.2179017053
 10
265.6512790354
 20
199.2548484016
 10
265.7950439709
 20
199.3028686955
 10
265.9345346146
 20
199.3621655715
 10
266.0698279101
 20
199.4325360658
 10
266.1984609108
 20
199.5126980696
 10
266.3203113033
 20
199.6028308394
 10
266.4355014012
 20
199.7027551404
 10
266.5419351981
 20
199.8106511225
  0
LINE
  5
27E
100
AcDbEntity
  8
0
100
AcDbLine
 62
7
  6
CONTINUOUS
 10
263.5525248423
 20
199.1085194019
 11
263.4079676464
 21
199.2293323792
  0
LWPOLYLINE
  5
27F
100
AcDbEntity
  8
0
100
AcDbPolyline
 62
7
  6
CONTINUOUS
 90
21
 70
0
 10
263.4140159242
 20
199.2237459268
 10
263.2841959394
 20
199.3486036703
 10
263.1629110462
 20
199.4829684202
 10
263.051954554
 20
199.6248507721
 10
262.9514682471
 20
199.7743796058
 10
262.8613103413
 20
199.9314260488
 10
262.7828487931
 20
200.0936140551
 10
262.7162661715
 20
200.2610121048
 10
262.6613799075
 20
200.4335516973
 10
262.6190102515
 20
200.6086513034
 10
262.5893427868
 20
200.7863469717
 10
262.57219193
 20
200.9666026122
 10
262.5678211806
 20
201.1467284828
 10
262.5764269792
 20
201.3267416685
 10
262.5978128852
 20
201.5066250377
 10
262.6316530764
 20
201.6836375278
 10
262.6781531684
 20
201.8577409393
 10
262.7371075454
 20
202.0289734384
 10
262.8075735381
 20
202.1947085236
 10
262.8892369232
 20
202.3540706952
 10
262.9824119239
 20
202.5079354487
  0
LWPOLYLINE
  5
280
100
AcDbEntity
  8
0
100
AcDbPolyline
 62
7
  6
CONTINUOUS
 90
20
 70
0
 10
263.4079676464
 20
199.2293323792
 10
263.2718512656
 20
199.3614637254
 10
263.146551882
 20
199.5025018185
 10
263.0322484474
 20
199.6525943395
 10
262.9287620101
 20
199.8115936244
 10
262.8377967598
 20
199.9768826283
 10
262.7595600737
 20
200.1485655958
 10
262.6938445746
 20
200.3265382661
 10
262.6417323215
 20
200.5078708206
 10
262.6034486707
 20
200.6926188802
 10
262.5787682657
 20
200.88072678
 10
262.5680970964
 20
201.0690977654
 10
262.5716672795
 20
201.257736184
 10
262.5892466981
 20
201.4466376343
 10
262.6205449917
 20
201.6326922408
 10
262.6657895162
 20
201.8158527297
 10
262.7247529157
 20
201.9961663344
 10
262.7964627608
 20
202.1706649543
 10
262.8805949083
 20
202.3383592228
 10
262.9774735015
 20
202.5002384997
  0
LINE
  5
281
100
AcDbEntity
  8
0
100
AcDbLine
 62
250
  6
CONTINUOUS
 10
254.6083744948
 20
222.845594282
 11
254.5846918312
 21
222.9167000506
  0
LINE
  5
282
100
AcDbEntity
  8
0
100
AcDbLine
 62
7
  6
CONTINUOUS
 10
265.4062945577
 20
197.5118915058
 11
265.4082555921
 21
197.4768690601
  0
LINE
  5
283
100
AcDbEntity
  8
0
100
AcDbLine
 62
7
  6
CONTINUOUS
 10
264.8087623823
 20
196.8818095815
 11
264.8068274954
 21
196.9168690601
  0
LWPOLYLINE
  5
284
100
AcDbEntity
  8
0
100
AcDbPolyline
 62
7
  6
CONTINUOUS
 90
3
 70
0
 10
264.8070453217
 20
197.4768690601
 10
264.8090445812
 20
197.5119666987
 10
264.8150118358
 20
197.5459937233
  0
LINE
  5
285
100
AcDbEntity
  8
0
100
AcDbLine
 62
7
  6
CONTINUOUS
 10
264.8070453217
 20
197.4768690601
 11
264.8093102933
 21
197.512501715
  0
LWPOLYLINE
  5
286
100
AcDbEntity
  8
0
100
AcDbPolyline
 62
7
  6
CONTINUOUS
 90
4
 70
0
 10
262.8059398303
 20
198.4160397558
 10
262.7896554555
 20
198.3858662428
 10
262.7697262979
 20
198.3573962554
 10
262.7461523577
 20
198.3306297922
  0
LINE
  5
287
100
AcDbEntity
  8
0
100
AcDbLine
 62
7
  6
CONTINUOUS
 10
262.7694021666
 20
198.3567414666
 11
262.7461523577
 21
198.3306297922
  0
LINE
  5
288
100
AcDbEntity
  8
0
100
AcDbLine
 62
7
  6
CONTINUOUS
 10
261.9021616136
 20
198.3332744734
 11
261.9254368129
 21
198.3593857421
  0
LWPOLYLINE
  5
289
100
AcDbEntity
  8
0
100
AcDbPolyline
 62
7
  6
CONTINUOUS
 90
19
 70
0
 10
262.3214849152
 20
198.7552972348
 10
262.347688308
 20
198.7787692809
 10
262.3760687329
 20
198.7986577654
 10
262.4066261897
 20
198.8149626866
 10
262.4400907321
 20
198.8278985525
 10
262.4757323064
 20
198.8372508525
 10
262.5113607522
 20
198.8423760574
 10
262.5466631195
 20
198.8429275448
 10
262.5819523582
 20
198.8392519365
 10
262.6159771583
 20
198.8317455691
 10
262.6486806965
 20
198.82032476
 10
262.6801197961
 20
198.8050731937
 10
262.7092136164
 20
198.7866382581
 10
262.7358981839
 20
198.764933361
 10
262.7602374721
 20
198.7400450979
 10
262.7813425611
 20
198.7128806375
 10
262.7991167078
 20
198.6832804683
 10
262.8136566551
 20
198.6514041054
 10
262.8243637128
 20
198.618637256
  0
LINE
  5
28A
100
AcDbEntity
  8
0
100
AcDbLine
 62
7
  6
CONTINUOUS
 10
262.3214849152
 20
198.7552972348
 11
262.3482515713
 21
198.7788749313
  0
LWPOLYLINE
  5
28B
100
AcDbEntity
  8
0
100
AcDbPolyline
 62
7
  6
CONTINUOUS
 90
3
 70
0
 10
268.6778907391
 20
201.4086083064
 10
268.7120841885
 20
201.4146359407
 10
268.7476504569
 20
201.4168863727
  0
LWPOLYLINE
  5
28C
100
AcDbEntity
  8
0
100
AcDbPolyline
 62
7
  6
CONTINUOUS
 90
3
 70
0
 10
269.3774095033
 20
200.8251468974
 10
269.343216356
 20
200.8191193731
 10
269.3076504569
 20
200.8168690121
  0
LWPOLYLINE
  5
28D
100
AcDbEntity
  8
0
100
AcDbPolyline
 62
7
  6
CONTINUOUS
 90
2
 70
0
 43
0.3500000087
 10
285.3802241211
 20
200.132590332
 10
283.8802226562
 20
200.132590332
  0
LINE
  5
28E
100
AcDbEntity
  8
0
100
AcDbLine
 62
7
  6
CONTINUOUS
 10
260.9076504569
 20
200.8168690121
 11
261.4676504569
 21
200.8168690121
  0
LINE
  5
28F
100
AcDbEntity
  8
0
100
AcDbLine
 62
7
  6
CONTINUOUS
 10
268.7476504569
 20
200.8168690121
 11
269.3076504569
 21
200.8168690121
  0
LWPOLYLINE
  5
290
100
AcDbEntity
  8
0
100
AcDbPolyline
 62
7
  6
CONTINUOUS
 90
25
 70
0
 10
260.9076504569
 20
200.8168690121
 10
260.8724722664
 20
200.8188023665
 10
260.838295067
 20
200.8248240895
 10
260.8051188588
 20
200.8349341812
 10
260.7722719559
 20
200.8495008596
 10
260.7404260442
 20
200.8681559066
 10
260.7115961808
 20
200.8897946676
 10
260.6862534075
 20
200.914438404
 10
260.6639266826
 20
200.9420658541
 10
260.6452179381
 20
200.9715085782
 10
260.6302253019
 20
201.0027880122
 10
260.618850646
 20
201.0358827197
 10
260.6114015181
 20
201.0695599524
 10
260.6079873812
 20
201.1038365707
 10
260.6084987723
 20
201.1386957138
 10
260.6129148497
 20
201.1728540509
 10
260.6213871956
 20
201.2063257303
 10
260.6337642278
 20
201.2390966037
 10
260.6495703587
 20
201.2698408959
 10
260.6689654978
 20
201.2984739154
 10
260.6917897357
 20
201.3250803541
 10
260.7170877565
 20
201.348588513
 10
260.7449583154
 20
201.3688464867
 10
260.7753026572
 20
201.3860061814
 10
260.8068692004
 20
201.3994516152
  0
LWPOLYLINE
  5
291
100
AcDbEntity
  8
0
100
AcDbPolyline
 62
7
  6
CONTINUOUS
 90
25
 70
0
 10
268.7476504569
 20
200.8168690121
 10
268.7124395659
 20
200.8188225076
 10
268.6782526606
 20
200.8248477609
 10
268.645089741
 20
200.8349447722
 10
268.6122941551
 20
200.8494748482
 10
268.5805225549
 20
200.868076682
 10
268.5517448968
 20
200.8896663531
 10
268.5264124676
 20
200.9142692094
 10
268.5040739804
 20
200.9418599027
 10
268.4853455307
 20
200.9712784679
 10
268.4703265181
 20
201.0025527264
 10
268.4589175431
 20
201.0356548565
 10
268.4514365029
 20
201.0693414284
 10
268.4479962804
 20
201.1036257036
 10
268.4484839928
 20
201.1384944203
 10
268.4528788888
 20
201.1726643646
 10
268.4613316479
 20
201.2061494654
 10
268.4736915907
 20
201.2389357936
 10
268.4894859275
 20
201.2696983489
 10
268.508876457
 20
201.2983545667
 10
268.5317013804
 20
201.324987012
 10
268.5570025121
 20
201.3485183781
 10
268.5848768583
 20
201.3687948574
 10
268.6152274126
 20
201.3859702583
 10
268.6468049701
 20
201.3994286982
  0
LINE
  5
292
100
AcDbEntity
  8
0
100
AcDbLine
 62
7
  6
CONTINUOUS
 10
260.9076504569
 20
200.8168690121
 11
260.8720794949
 21
200.8191168705
  0
LINE
  5
293
100
AcDbEntity
  8
0
100
AcDbLine
 62
7
  6
CONTINUOUS
 10
268.7476504569
 20
200.8168690121
 11
268.7120789768
 21
200.8191171784
  0
LWPOLYLINE
  5
294
100
AcDbEntity
  8
0
100
AcDbPolyline
 62
7
  6
CONTINUOUS
 90
4
 70
0
 10
267.739875633
 20
198.8372391965
 10
267.7751955249
 20
198.8279592018
 10
267.8084499376
 20
198.815067647
 10
267.8389707705
 20
198.7987557333
  0
LINE
  5
295
100
AcDbEntity
  8
0
100
AcDbLine
 62
7
  6
CONTINUOUS
 10
260.8378778241
 20
200.8251474966
 11
260.8050858909
 21
200.8349488015
  0
LWPOLYLINE
  5
296
100
AcDbEntity
  8
0
100
AcDbPolyline
 62
7
  6
CONTINUOUS
 90
23
 70
0
 10
261.537048521
 20
201.4089075012
 10
261.5702114178
 20
201.3988105235
 10
261.6030067991
 20
201.3842805973
 10
261.6347780902
 20
201.3656789758
 10
261.6635555677
 20
201.3440894191
 10
261.6888880847
 20
201.319486463
 10
261.711226788
 20
201.291895571
 10
261.7299553947
 20
201.2624768957
 10
261.7449744179
 20
201.2312027321
 10
261.7563833446
 20
201.1981007847
 10
261.7638643523
 20
201.1644143211
 10
261.7673046055
 20
201.1301300162
 10
261.7668169397
 20
201.0952611952
 10
261.7624220405
 20
201.0610911014
 10
261.7539691788
 20
201.0276057666
 10
261.7416090836
 20
200.9948191594
 10
261.7258146268
 20
200.9640564283
 10
261.706424048
 20
200.9354002247
 10
261.6835991077
 20
200.9087678977
 10
261.6582979586
 20
200.8852366419
 10
261.6304235604
 20
200.8649602252
 10
261.6000729535
 20
200.8477848799
 10
261.5684954123
 20
200.8343264969
  0
LWPOLYLINE
  5
297
100
AcDbEntity
  8
0
100
AcDbPolyline
 62
7
  6
CONTINUOUS
 90
23
 70
0
 10
261.5702559158
 20
201.3987943316
 10
261.6021254082
 20
201.384963954
 10
261.6326252536
 20
201.3673510598
 10
261.660534551
 20
201.3466596433
 10
261.6857440605
 20
201.3227674591
 10
261.7083630221
 20
201.2957967519
 10
261.7274982552
 20
201.2668182511
 10
261.7430104841
 20
201.2357517859
 10
261.7550389845
 20
201.2026775268
 10
261.763108403
 20
201.168906716
 10
261.767060175
 20
201.13441149
 10
261.7670528651
 20
201.0992197125
 10
261.7630868143
 20
201.0647262171
 10
261.7550029442
 20
201.0309585103
 10
261.7429603332
 20
200.9978890859
 10
261.7274365575
 20
200.9668302583
 10
261.7082913186
 20
200.9378628928
 10
261.6856649149
 20
200.9109061245
 10
261.6604558177
 20
200.8870296717
 10
261.6325602266
 20
200.8663578115
 10
261.6020819419
 20
200.848766267
 10
261.5702308355
 20
200.834951926
 10
261.5374101978
 20
200.8251470845
  0
LWPOLYLINE
  5
298
100
AcDbEntity
  8
0
100
AcDbPolyline
 62
7
  6
CONTINUOUS
 90
3
 70
0
 10
267.8385715354
 20
198.798808515
 10
267.8670464519
 20
198.7788759216
 10
267.8938159987
 20
198.7552972348
  0
LWPOLYLINE
  5
299
100
AcDbEntity
  8
0
100
AcDbPolyline
 62
7
  6
CONTINUOUS
 90
3
 70
0
 10
267.9203094384
 20
197.8910126441
 10
267.891824469
 20
197.9109665127
 10
267.8650473463
 20
197.9345689875
  0
LINE
  5
29A
100
AcDbEntity
  8
0
100
AcDbLine
 62
7
  6
CONTINUOUS
 10
267.8914400808
 20
197.9110119305
 11
267.8650473463
 21
197.9345689875
  0
LWPOLYLINE
  5
29B
100
AcDbEntity
  8
0
100
AcDbPolyline
 62
7
  6
CONTINUOUS
 90
9
 70
0
 10
267.4691485561
 20
198.3306297922
 10
267.4458775113
 20
198.3567841172
 10
267.4261322957
 20
198.3848617769
 10
267.4099129092
 20
198.4148627727
 10
267.3970585838
 20
198.4473966809
 10
267.3877300876
 20
198.4818539289
 10
267.3824097251
 20
198.5164057934
 10
267.3813118225
 20
198.5507703991
 10
267.3842220537
 20
198.585229621
  0
LINE
  5
29C
100
AcDbEntity
  8
0
100
AcDbLine
 62
7
  6
CONTINUOUS
 10
267.4691485561
 20
198.3306297922
 11
267.445574285
 21
198.3573969115
  0
LWPOLYLINE
  5
29D
100
AcDbEntity
  8
0
100
AcDbPolyline
 62
7
  6
CONTINUOUS
 90
3
 70
0
 10
265.39993999
 20
197.546758997
 10
265.4059912042
 20
197.5125005821
 10
265.4082555921
 20
197.4768690601
  0
LWPOLYLINE
  5
29E
100
AcDbEntity
  8
0
100
AcDbPolyline
 62
7
  6
CONTINUOUS
 90
3
 70
0
 10
264.8151031147
 20
196.8468871921
 10
264.8090682215
 20
196.8811915491
 10
264.8068274954
 20
196.9168690601
  0
LINE
  5
29F
100
AcDbEntity
  8
0
100
AcDbLine
 62
7
  6
CONTINUOUS
 10
266.0370053325
 20
204.3264364133
 11
266.0355228078
 21
204.3465273144
  0
LWPOLYLINE
  5
2A0
100
AcDbEntity
  8
0
100
AcDbPolyline
 62
7
  6
CONTINUOUS
 90
3
 70
0
 10
266.0370053325
 20
204.3264364133
 10
266.0357173507
 20
204.3460053542
 10
266.0318885778
 20
204.365227841
  0
LINE
  5
2A1
100
AcDbEntity
  8
0
100
AcDbLine
 62
7
  6
CONTINUOUS
 10
266.0411969591
 20
203.1216078565
 11
266.0373571817
 21
203.1929482079
  0
LWPOLYLINE
  5
2A2
100
AcDbEntity
  8
0
100
AcDbPolyline
 62
7
  6
CONTINUOUS
 90
3
 70
0
 10
266.6379499763
 20
203.2177916727
 10
266.6387492616
 20
203.2026554971
 10
266.6409574249
 20
203.1879552453
  0
LINE
  5
2A3
100
AcDbEntity
  8
0
100
AcDbLine
 62
7
  6
CONTINUOUS
 10
266.6345130081
 20
204.4517519036
 11
266.638315041
 21
204.3785252062
  0
LWPOLYLINE
  5
2A4
100
AcDbEntity
  8
0
100
AcDbPolyline
 62
7
  6
CONTINUOUS
 90
3
 70
0
 10
265.4084734184
 20
196.9168690601
 10
265.4065003951
 20
196.8817321109
 10
265.4005505105
 20
196.8476624888
  0
LINE
  5
2A5
100
AcDbEntity
  8
0
100
AcDbLine
 62
7
  6
CONTINUOUS
 10
265.4084734184
 20
196.9168690601
 11
265.4062321097
 21
196.8811903826
  0
LINE
  5
2A6
100
AcDbEntity
  8
0
100
AcDbLine
 62
7
  6
CONTINUOUS
 10
265.4001970348
 20
196.846885526
 11
265.390482307
 21
196.8143368182
  0
LINE
  5
2A7
100
AcDbEntity
  8
0
100
AcDbLine
 62
7
  6
CONTINUOUS
 10
264.8153616765
 20
197.5467605939
 11
264.8250867772
 21
197.5792689891
  0
LWPOLYLINE
  5
2A8
100
AcDbEntity
  8
0
100
AcDbPolyline
 62
7
  6
CONTINUOUS
 90
3
 70
0
 10
265.3903681939
 20
196.8139544881
 10
265.3765106184
 20
196.7819896756
 10
265.3588592768
 20
196.7513986781
  0
LWPOLYLINE
  5
2A9
100
AcDbEntity
  8
0
100
AcDbPolyline
 62
7
  6
CONTINUOUS
 90
3
 70
0
 10
264.8251994711
 20
197.5796456946
 10
264.8390583076
 20
197.611563548
 10
264.8567035555
 20
197.6421076198
  0
LWPOLYLINE
  5
2AA
100
AcDbEntity
  8
0
100
AcDbPolyline
 62
7
  6
CONTINUOUS
 90
19
 70
0
 10
266.8066027762
 20
200.1803493462
 10
266.874431839
 20
200.3158674603
 10
266.9318900944
 20
200.4570997962
 10
266.9779330878
 20
200.6014755876
 10
267.0123518606
 20
200.7490518089
 10
267.0353553713
 20
200.8997714635
 10
267.046526041
 20
201.0508928238
 10
267.0456474709
 20
201.2024234491
 10
267.0329360597
 20
201.3543557522
 10
267.0086234246
 20
201.5039252876
 10
266.9724973215
 20
201.6510887113
 10
266.9247699945
 20
201.7958893468
 10
266.8663097931
 20
201.9356927577
 10
266.796920048
 20
202.0704078093
 10
266.7167974284
 20
202.2001256336
 10
266.6274002922
 20
202.322485206
 10
266.5292147585
 20
202.4366995262
 10
266.4217547082
 20
202.5435556129
 10
266.2647968763
 20
202.6770830174
  0
LWPOLYLINE
  5
2AB
100
AcDbEntity
  8
0
100
AcDbPolyline
 62
7
  6
CONTINUOUS
 90
19
 70
0
 10
266.8002106357
 20
200.1690512951
 10
266.8660772366
 20
200.2974345898
 10
266.9220307785
 20
200.4304151434
 10
266.9682530548
 20
200.5679163459
 10
267.0039901031
 20
200.7076112721
 10
267.0290689373
 20
200.8494599827
 10
267.0436625434
 20
200.9935023957
 10
267.0475359182
 20
201.1375313701
 10
267.0405212605
 20
201.2816363432
 10
267.0227863715
 20
201.4257278536
 10
266.9945996504
 20
201.5673304144
 10
266.9557876574
 20
201.7063626867
 10
266.9065238324
 20
201.8429059934
 10
266.8475968947
 20
201.9747288467
 10
266.7788129804
 20
202.1017918681
 10
266.7003659535
 20
202.2241344353
 10
266.6136261249
 20
202.3396432059
 10
266.5190502652
 20
202.4476137394
 10
266.4161816038
 20
202.5487504933
  0
LINE
  5
2AC
100
AcDbEntity
  8
0
100
AcDbLine
 62
7
  6
CONTINUOUS
 10
266.7246127692
 20
200.0451886593
 11
266.8066027762
 21
200.1803493462
  0
LINE
  5
2AD
100
AcDbEntity
  8
0
100
AcDbLine
 62
7
  6
CONTINUOUS
 10
266.6394521939
 20
199.9266646597
 11
266.7282128888
 21
200.0506498888
  0
LWPOLYLINE
  5
2AE
100
AcDbEntity
  8
0
100
AcDbPolyline
 62
7
  6
CONTINUOUS
 90
7
 70
0
 10
264.8567035555
 20
197.6421076198
 10
264.8785608042
 20
197.6713956492
 10
264.9027838262
 20
197.6967062083
 10
264.9299910791
 20
197.7191524607
 10
264.9590326004
 20
197.738062433
 10
264.989922443
 20
197.7533204352
 10
265.0226465541
 20
197.7650421527
  0
LINE
  5
2AF
100
AcDbEntity
  8
0
100
AcDbLine
 62
7
  6
CONTINUOUS
 10
266.5419351981
 20
199.8106511225
 11
266.6405829801
 21
199.927943786
  0
LWPOLYLINE
  5
2B0
100
AcDbEntity
  8
0
100
AcDbPolyline
 62
7
  6
CONTINUOUS
 90
6
 70
0
 10
262.3502535675
 20
197.9345689875
 10
262.3240045803
 20
197.9110624655
 10
262.2956019195
 20
197.8911470414
 10
262.2650455852
 20
197.8748227127
 10
262.2316190995
 20
197.8618800829
 10
262.1960389404
 20
197.8525285449
  0
LINE
  5
2B1
100
AcDbEntity
  8
0
100
AcDbLine
 62
7
  6
CONTINUOUS
 10
262.3502535675
 20
197.9345689875
 11
262.3234786745
 21
197.9109673058
  0
LINE
  5
2B2
100
AcDbEntity
  8
0
100
AcDbLine
 62
7
  6
CONTINUOUS
 10
262.2949946517
 20
197.8910138788
 11
262.2649290866
 21
197.8747776049
  0
LINE
  5
2B3
100
AcDbEntity
  8
0
100
AcDbLine
 62
7
  6
CONTINUOUS
 10
262.3767253189
 20
198.7988069799
 11
262.4067593713
 21
198.8150141685
  0
LWPOLYLINE
  5
2B4
100
AcDbEntity
  8
0
100
AcDbPolyline
 62
7
  6
CONTINUOUS
 90
3
 70
0
 10
262.2648014992
 20
197.874708704
 10
262.2324448602
 20
197.8619297165
 10
262.1983790915
 20
197.8527989775
  0
LWPOLYLINE
  5
2B5
100
AcDbEntity
  8
0
100
AcDbPolyline
 62
7
  6
CONTINUOUS
 90
22
 70
0
 10
262.4069061582
 20
198.8150933787
 10
262.4392482265
 20
198.82785604
 10
262.4732973864
 20
198.836973049
 10
262.5076912255
 20
198.8420786638
 10
262.5424387017
 20
198.8430089988
 10
262.5775308571
 20
198.839927939
 10
262.6115784061
 20
198.8329613994
 10
262.6445394515
 20
198.8219542655
 10
262.6764558904
 20
198.8070616535
 10
262.7060641282
 20
198.788874825
 10
262.7332718271
 20
198.7672619546
 10
262.7581713248
 20
198.742354871
 10
262.7797760406
 20
198.715140316
 10
262.7979540214
 20
198.6855245448
 10
262.8128372202
 20
198.6536013058
 10
262.8238349155
 20
198.6206385792
 10
262.830791098
 20
198.5865971447
 10
262.8338617769
 20
198.5515162249
 10
262.832924259
 20
198.5167814623
 10
262.8278165083
 20
198.4824022793
 10
262.8187005606
 20
198.4483692532
 10
262.8059398303
 20
198.4160397558
  0
LWPOLYLINE
  5
2B6
100
AcDbEntity
  8
0
100
AcDbPolyline
 62
7
  6
CONTINUOUS
 90
3
 70
0
 10
261.5374101978
 20
200.8251470845
 10
261.5032167382
 20
200.8191194465
 10
261.4676504569
 20
200.8168690121
  0
LWPOLYLINE
  5
2B7
100
AcDbEntity
  8
0
100
AcDbPolyline
 62
7
  6
CONTINUOUS
 90
3
 70
0
 10
260.8378914406
 20
201.408608496
 10
260.872084575
 20
201.4146360156
 10
260.9076504569
 20
201.4168863727
  0
LINE
  5
2B8
100
AcDbEntity
  8
0
100
AcDbLine
 62
7
  6
CONTINUOUS
 10
260.9076504569
 20
201.4168863727
 11
261.4676504569
 21
201.4168863727
  0
LINE
  5
2B9
100
AcDbEntity
  8
0
100
AcDbLine
 62
7
  6
CONTINUOUS
 10
268.7476504569
 20
201.4168863727
 11
269.3076504569
 21
201.4168863727
  0
LWPOLYLINE
  5
2BA
100
AcDbEntity
  8
0
100
AcDbPolyline
 62
7
  6
CONTINUOUS
 90
25
 70
0
 10
269.3076504569
 20
201.4168863727
 10
269.3428286283
 20
201.4149531003
 10
269.3770059068
 20
201.4089313485
 10
269.4101822925
 20
201.3988211173
 10
269.4430295497
 20
201.3842541501
 10
269.474875914
 20
201.3655987027
 10
269.5037060926
 20
201.3439595433
 10
269.5290489521
 20
201.319315383
 10
269.5513756258
 20
201.2916875099
 10
269.5700842215
 20
201.2622445575
 10
269.5850765714
 20
201.2309652246
 10
269.5964508433
 20
201.197870812
 10
269.6038996473
 20
201.164193857
 10
269.6073135895
 20
201.1299174374
 10
269.606802064
 20
201.0950584755
 10
269.6023858632
 20
201.0609002757
 10
269.5939133703
 20
201.0274286464
 10
269.5815362022
 20
200.9946577796
 10
269.565730002
 20
200.9639135555
 10
269.5463348964
 20
200.9352807371
 10
269.5235107587
 20
200.9086745618
 10
269.498212852
 20
200.8851666205
 10
269.4703424243
 20
200.8649087796
 10
269.4399982275
 20
200.8477491729
 10
269.4084317804
 20
200.8343037935
  0
LINE
  5
2BB
100
AcDbEntity
  8
0
100
AcDbLine
 62
7
  6
CONTINUOUS
 10
261.4676504569
 20
201.4168863727
 11
261.502861534
 21
201.4149327842
  0
LWPOLYLINE
  5
2BC
100
AcDbEntity
  8
0
100
AcDbPolyline
 62
7
  6
CONTINUOUS
 90
4
 70
0
 10
261.4676504569
 20
201.4168863727
 10
261.5032219236
 20
201.4146382083
 10
261.5374237433
 20
201.408607528
 10
261.5702314784
 20
201.3988016357
  0
LINE
  5
2BD
100
AcDbEntity
  8
0
100
AcDbLine
 62
7
  6
CONTINUOUS
 10
269.3076504569
 20
201.4168863727
 11
269.3432214023
 21
201.4146385189
  0
LINE
  5
2BE
100
AcDbEntity
  8
0
100
AcDbLine
 62
7
  6
CONTINUOUS
 10
268.6778771459
 20
200.8251478629
 11
268.6450695551
 21
200.8349537155
  0
LINE
  5
2BF
100
AcDbEntity
  8
0
100
AcDbLine
 62
7
  6
CONTINUOUS
 10
269.3774230616
 20
201.4086078969
 11
269.4102151377
 21
201.3988065512
  0
LWPOLYLINE
  5
2C0
100
AcDbEntity
  8
0
100
AcDbPolyline
 62
7
  6
CONTINUOUS
 90
23
 70
0
 10
268.6450449642
 20
200.8349610655
 10
268.6131754638
 20
200.8487914527
 10
268.5826756125
 20
200.866404358
 10
268.554766314
 20
200.8870957824
 10
268.529556811
 20
200.9109879678
 10
268.5069378608
 20
200.937958672
 10
268.4878026376
 20
200.9669371699
 10
268.4722904152
 20
200.9980036329
 10
268.4602619199
 20
201.0310778891
 10
268.4521925057
 20
201.0648486975
 10
268.4482407373
 20
201.0993439218
 10
268.4482480501
 20
201.1345356979
 10
268.4522141039
 20
201.1690291925
 10
268.4602979775
 20
201.2027968999
 10
268.4723405921
 20
201.2358663256
 10
268.4878643725
 20
201.2669251542
 10
268.5070096183
 20
201.2958925212
 10
268.5296360298
 20
201.3228492914
 10
268.5548451321
 20
201.3467257431
 10
268.5827407241
 20
201.3673975981
 10
268.6132190069
 20
201.3849891355
 10
268.6450701087
 20
201.3988034698
 10
268.6778907391
 20
201.4086083064
  0
LINE
  5
2C1
100
AcDbEntity
  8
0
100
AcDbLine
 62
7
  6
CONTINUOUS
 10
267.8674261242
 20
198.7788322619
 11
267.8938159987
 21
198.7552972348
  0
LWPOLYLINE
  5
2C2
100
AcDbEntity
  8
0
100
AcDbPolyline
 62
7
  6
CONTINUOUS
 90
9
 70
0
 10
268.289864101
 20
198.3593857421
 10
268.3131571196
 20
198.3332272966
 10
268.3329225272
 20
198.3051415755
 10
268.3491603238
 20
198.2751285803
 10
268.362031854
 20
198.2425773519
 10
268.3713757732
 20
198.2080988538
 10
268.376708047
 20
198.1735259705
 10
268.3778136481
 20
198.1391420668
 10
268.3749076038
 20
198.1046637783
  0
LINE
  5
2C3
100
AcDbEntity
  8
0
100
AcDbLine
 62
7
  6
CONTINUOUS
 10
268.289864101
 20
198.3593857421
 11
268.3134621596
 21
198.3326110723
  0
LWPOLYLINE
  5
2C4
100
AcDbEntity
  8
0
100
AcDbPolyline
 62
7
  6
CONTINUOUS
 90
14
 70
0
 10
267.3842220537
 20
198.585229621
 10
267.3914667051
 20
198.6206412171
 10
267.4024651194
 20
198.6536047514
 10
267.4173492532
 20
198.6855288193
 10
267.435528282
 20
198.7151451853
 10
267.4571341987
 20
198.7423600294
 10
267.4820350105
 20
198.767267168
 10
267.5092439147
 20
198.7888798188
 10
267.5388532918
 20
198.8070660868
 10
267.5707707611
 20
198.8219578638
 10
267.6037323784
 20
198.8329640469
 10
267.637780164
 20
198.839929321
 10
267.6728720975
 20
198.8430089996
 10
267.7076181734
 20
198.8420779237
  0
LWPOLYLINE
  5
2C5
100
AcDbEntity
  8
0
100
AcDbPolyline
 62
7
  6
CONTINUOUS
 90
13
 70
0
 10
267.3909797448
 20
198.618800359
 10
267.4017328495
 20
198.6516224023
 10
267.4163334141
 20
198.6835559598
 10
267.4341769045
 20
198.7131985599
 10
267.455363351
 20
198.7403866009
 10
267.4797927233
 20
198.7652836808
 10
267.5065603959
 20
198.786978125
 10
267.5357339722
 20
198.8053783366
 10
267.5672458488
 20
198.8205759094
 10
267.5999885898
 20
198.8319339547
 10
267.6340237306
 20
198.8393553865
 10
267.6692897358
 20
198.8429372892
 10
267.7044945634
 20
198.8423340295
  0
LINE
  5
2C6
100
AcDbEntity
  8
0
100
AcDbLine
 62
250
  6
CONTINUOUS
 10
275.6306090827
 20
222.9167000506
 11
275.6069264191
 21
222.845594282
  0
LINE
  5
2C7
100
AcDbEntity
  8
0
100
AcDbLine
 62
7
  6
CONTINUOUS
 10
265.3906237644
 20
196.8146601921
 11
265.3763912108
 21
196.7821243532
  0
LWPOLYLINE
  5
2C8
100
AcDbEntity
  8
0
100
AcDbPolyline
 62
7
  6
CONTINUOUS
 90
7
 70
0
 10
265.3588592768
 20
196.7513986781
 10
265.3369823581
 20
196.7220572393
 10
265.3127378603
 20
196.6967053509
 10
265.2855033398
 20
196.6742233726
 10
265.256430747
 20
196.6552835097
 10
265.2255056901
 20
196.6400012912
 10
265.1927425608
 20
196.6282611819
  0
LWPOLYLINE
  5
2C9
100
AcDbEntity
  8
0
100
AcDbPolyline
 62
7
  6
CONTINUOUS
 90
22
 70
0
 10
267.1039133522
 20
199.546338219
 10
266.9814651095
 20
199.4021116431
 10
266.8482743455
 20
199.2670279445
 10
266.7062668963
 20
199.1428347443
 10
266.5552970282
 20
199.0297124074
 10
266.3955104749
 20
198.9274805294
 10
266.2295374588
 20
198.8378205452
 10
266.0572759746
 20
198.7609405208
 10
265.8788280276
 20
198.6966323444
 10
265.6971298564
 20
198.6459531816
 10
265.5121279053
 20
198.6091283396
 10
265.3238757301
 20
198.5859324805
 10
265.1354702359
 20
198.5767468062
 10
264.9469089001
 20
198.5818028587
 10
264.7581942454
 20
198.6008690945
 10
264.5724307451
 20
198.6336320951
 10
264.3896670365
 20
198.6803183018
 10
264.2098544822
 20
198.7407013016
 10
264.0359516432
 20
198.8137883999
 10
263.868055961
 20
198.8997898622
 10
263.7060699941
 20
198.9984954681
 10
263.5526599791
 20
199.1082817919
  0
LWPOLYLINE
  5
2CA
100
AcDbEntity
  8
0
100
AcDbPolyline
 62
7
  6
CONTINUOUS
 90
8
 70
0
 10
265.3381190749
 20
196.7234042667
 10
265.3141668288
 20
196.6981149653
 10
265.2871257223
 20
196.6754222431
 10
265.2580702124
 20
196.6562232862
 10
265.2269201832
 20
196.6406581924
 10
265.1937557505
 20
196.6285868577
 10
265.1598917182
 20
196.6204861659
 10
265.1253000383
 20
196.6165150422
  0
LWPOLYLINE
  5
2CB
100
AcDbEntity
  8
0
100
AcDbPolyline
 62
7
  6
CONTINUOUS
 90
8
 70
0
 10
264.8774313243
 20
197.6700583091
 10
264.9013644361
 20
197.6953073844
 10
264.9283800687
 20
197.7179630718
 10
264.9574058653
 20
197.7371304548
 10
264.9885217192
 20
197.7526697883
 10
265.0216477371
 20
197.7647208127
 10
265.0554718814
 20
197.7728078406
 10
265.0900221377
 20
197.7767723443
  0
LWPOLYLINE
  5
2CC
100
AcDbEntity
  8
0
100
AcDbPolyline
 62
7
  6
CONTINUOUS
 90
21
 70
0
 10
266.9870581615
 20
199.4081962267
 10
266.8613537829
 20
199.2792646901
 10
266.7266213159
 20
199.1596425443
 10
266.583039661
 20
199.0492308267
 10
266.4328453807
 20
198.9497436267
 10
266.2760023769
 20
198.8613813999
 10
266.1125467477
 20
198.7839436506
 10
265.9448233495
 20
198.7185430361
 10
265.7726932025
 20
198.6653349339
 10
265.5962952867
 20
198.6241639318
 10
265.4183913981
 20
198.5956765044
 10
265.2390344914
 20
198.5800742372
 10
265.0581716119
 20
198.5771555297
 10
264.8784056924
 20
198.5869620825
 10
264.699684343
 20
198.6096897156
 10
264.5220599535
 20
198.6451426202
 10
264.3482926262
 20
198.692775059
 10
264.1784946633
 20
198.7527571096
 10
264.0125537625
 20
198.8249187269
 10
263.8528931187
 20
198.9082039916
 10
263.699568852
 20
199.0027998529
  0
LWPOLYLINE
  5
2CD
100
AcDbEntity
  8
0
100
AcDbPolyline
 62
7
  6
CONTINUOUS
 90
20
 70
0
 10
263.2599242504
 20
202.7672505582
 10
263.2942225927
 20
202.7728309903
 10
263.3294008291
 20
202.7744830952
 10
263.3640668163
 20
202.7721440377
 10
263.3982010017
 20
202.7656544684
 10
263.4318229378
 20
202.7551737361
 10
263.4635991395
 20
202.7411170527
 10
263.4934567035
 20
202.7233387676
 10
263.5214685332
 20
202.701984529
 10
263.5465198534
 20
202.6779064976
 10
263.5684889711
 20
202.6509976378
 10
263.5874975794
 20
202.6213649823
 10
263.6027959826
 20
202.5901817955
 10
263.6142366669
 20
202.5573858492
 10
263.6219671461
 20
202.5230393697
 10
263.6256802655
 20
202.4885023056
 10
263.6252140582
 20
202.4537645945
 10
263.620730491
 20
202.4188362987
 10
263.61240831
 20
202.3851075556
 10
263.6003070973
 20
202.3530417453
  0
LWPOLYLINE
  5
2CE
100
AcDbEntity
  8
0
100
AcDbPolyline
 62
7
  6
CONTINUOUS
 90
24
 70
0
 10
264.1076845642
 20
204.4844697737
 10
264.0747632962
 20
204.494309226
 10
264.0428091263
 20
204.5081757208
 10
264.0122294088
 20
204.525834328
 10
263.9842462054
 20
204.5465802617
 10
263.9589680174
 20
204.5705364554
 10
263.9362863437
 20
204.5975799693
 10
263.9170977421
 20
204.626637209
 10
263.9015420555
 20
204.6577886446
 10
263.889479441
 20
204.6909538002
 10
263.8813869291
 20
204.7248176652
 10
263.8774236207
 20
204.7594082199
 10
263.8774304147
 20
204.7946974815
 10
263.8814070385
 20
204.8292864987
 10
263.8895130932
 20
204.8631476625
 10
263.9015889776
 20
204.8963085839
 10
263.9171556155
 20
204.9274531459
 10
263.9363536942
 20
204.956500174
 10
263.9590425263
 20
204.9835308486
 10
263.9843209736
 20
205.007472588
 10
264.0122931321
 20
205.0282007387
 10
264.0428549058
 20
205.0458399611
 10
264.0747928677
 20
205.0596916466
 10
264.1077025425
 20
205.0695229272
  0
LWPOLYLINE
  5
2CF
100
AcDbEntity
  8
0
100
AcDbPolyline
 62
7
  6
CONTINUOUS
 90
23
 70
0
 10
264.1078660864
 20
204.4842567411
 10
264.074626964
 20
204.4943588847
 10
264.0418776964
 20
204.5088399816
 10
264.0102304708
 20
204.5273593288
 10
263.9815218487
 20
204.5488948219
 10
263.9561405267
 20
204.5734927371
 10
263.9336978082
 20
204.6011067919
 10
263.9148641651
 20
204.6305760459
 10
263.8997505665
 20
204.6619326998
 10
263.8882460433
 20
204.6951445475
 10
263.8806881604
 20
204.7289540415
 10
263.8771952929
 20
204.7633748616
 10
263.8776490658
 20
204.7983933257
 10
263.8820319182
 20
204.8327108475
 10
263.8904977581
 20
204.8663398795
 10
263.9028926775
 20
204.8992679712
 10
263.9187373924
 20
204.9301591861
 10
263.9381939149
 20
204.958928065
 10
263.9611002327
 20
204.9856600729
 10
263.9864910256
 20
205.0092756635
 10
264.0144678037
 20
205.0296202733
 10
264.0449290568
 20
205.0468484725
 10
264.0766049338
 20
205.0603444166
  0
LWPOLYLINE
  5
2D0
100
AcDbEntity
  8
0
100
AcDbPolyline
 62
7
  6
CONTINUOUS
 90
23
 70
0
 10
269.4102554348
 20
201.3987945067
 10
269.4421257254
 20
201.3849635734
 10
269.4726267299
 20
201.3673498713
 10
269.5005368382
 20
201.3466577234
 10
269.525746494
 20
201.3227649626
 10
269.5483652536
 20
201.2957937552
 10
269.5675001749
 20
201.2668149242
 10
269.5830120143
 20
201.2357483764
 10
269.5950400154
 20
201.2026742047
 10
269.6031089674
 20
201.168903511
 10
269.6070603513
 20
201.1344083834
 10
269.607052686
 20
201.099216734
 10
269.6030863172
 20
201.0647234011
 10
269.5950021545
 20
201.0309558908
 10
269.5829592883
 20
200.9978866976
 10
269.5674353354
 20
200.9668281424
 10
269.548290025
 20
200.9378611206
 10
269.525663628
 20
200.9109047372
 10
269.5004545739
 20
200.8870286284
 10
269.4725590375
 20
200.8663570431
 10
269.442080844
 20
200.8487657324
 10
269.4102298987
 20
200.8349515851
 10
269.3774095033
 20
200.8251468974
  0
LWPOLYLINE
  5
2D1
100
AcDbEntity
  8
0
100
AcDbPolyline
 62
7
  6
CONTINUOUS
 90
3
 70
0
 10
265.9784100475
 20
204.4452289065
 10
265.9621227512
 20
204.4561046896
 10
265.9445479873
 20
204.4647658869
  0
LWPOLYLINE
  5
2D2
100
AcDbEntity
  8
0
100
AcDbPolyline
 62
7
  6
CONTINUOUS
 90
22
 70
0
 10
266.6941598529
 20
203.1007952446
 10
266.8383779361
 20
202.9760183652
 10
266.9716434531
 20
202.8425057436
 10
267.0939564041
 20
202.7002573604
 10
267.2058715143
 20
202.5483922265
 10
267.3068340584
 20
202.3877912977
 10
267.3951798605
 20
202.2210974845
 10
267.4706998434
 20
202.0482097941
 10
267.5336030843
 20
201.8692292243
 10
267.5828526391
 20
201.6871016919
 10
267.6182223247
 20
201.501774923
 10
267.6399383241
 20
201.3133012294
 10
267.6476422421
 20
201.1247834209
 10
267.6411019167
 20
200.9362207614
 10
267.62054951
 20
200.7476140404
 10
267.5863231135
 20
200.5620683603
 10
267.5381962011
 20
200.3796344787
 10
267.4763952991
 20
200.200261684
 10
267.4019380776
 20
200.0269028664
 10
267.3146148892
 20
199.8596576891
 10
267.2146353814
 20
199.6984265084
 10
267.1036461669
 20
199.5458632399
  0
LINE
  5
2D3
100
AcDbEntity
  8
0
100
AcDbLine
 62
7
  6
CONTINUOUS
 10
265.9933385123
 20
204.4321186153
 11
265.9786086712
 21
204.4449571277
  0
LWPOLYLINE
  5
2D4
100
AcDbEntity
  8
0
100
AcDbPolyline
 62
7
  6
CONTINUOUS
 90
9
 70
0
 10
266.3050201412
 20
202.6430534767
 10
266.2512293013
 20
202.6901049277
 10
266.2032198341
 20
202.7411442546
 10
266.1609917397
 20
202.7961714524
 10
266.1242366779
 20
202.8558210114
 10
266.0932629888
 20
202.9194584285
 10
266.0689956926
 20
202.9851802098
 10
266.0517431294
 20
203.0523518554
 10
266.0411969591
 20
203.1216078565
  0
LWPOLYLINE
  5
2D5
100
AcDbEntity
  8
0
100
AcDbPolyline
 62
7
  6
CONTINUOUS
 90
12
 70
0
 10
266.2647968763
 20
202.6770830174
 10
266.2275132352
 20
202.7137869
 10
266.1931692176
 20
202.7531651222
 10
266.1615371872
 20
202.7955317255
 10
266.1328447803
 20
202.8405726628
 10
266.1077749059
 20
202.8873457992
 10
266.0864602921
 20
202.9358899853
 10
266.0687682109
 20
202.9861663656
 10
266.0549833868
 20
203.0371162482
 10
266.045200728
 20
203.0883867355
 10
266.0393253263
 20
203.1403307226
 10
266.0373571817
 20
203.192948208
  0
LWPOLYLINE
  5
2D6
100
AcDbEntity
  8
0
100
AcDbPolyline
 62
7
  6
CONTINUOUS
 90
21
 70
0
 10
266.8316308252
 20
202.9823877901
 10
266.9592998198
 20
202.8558226291
 10
267.0771668365
 20
202.721099744
 10
267.1857620891
 20
202.5774310175
 10
267.2845553639
 20
202.4256045361
 10
267.3719560195
 20
202.2679845985
 10
267.4477566997
 20
202.1045117702
 10
267.5121647606
 20
201.9352454871
 10
267.5642116296
 20
201.7627283717
 10
267.6037096319
 20
201.5869058647
 10
267.6308464424
 20
201.4078325552
 10
267.645216513
 20
201.2282148012
 10
267.6466246809
 20
201.048050982
 10
267.635266109
 20
200.8673427638
 10
267.611320738
 20
200.6888014409
 10
267.5746065526
 20
200.5124716143
 10
267.5253055682
 20
200.3383087261
 10
267.4641437715
 20
200.1688903276
 10
267.3909259035
 20
200.0042572784
 10
267.3058472233
 20
199.8443687432
 10
267.2102194947
 20
199.6916797199
  0
LINE
  5
2D7
100
AcDbEntity
  8
0
100
AcDbLine
 62
7
  6
CONTINUOUS
 10
266.0060443581
 20
204.4176084142
 11
265.9932332285
 21
204.4322103806
  0
LINE
  5
2D8
100
AcDbEntity
  8
0
100
AcDbLine
 62
7
  6
CONTINUOUS
 10
266.0169223138
 20
204.4013358658
 11
266.0060443581
 21
204.4176084142
  0
LINE
  5
2D9
100
AcDbEntity
  8
0
100
AcDbLine
 62
7
  6
CONTINUOUS
 10
266.025603424
 20
204.3837364735
 11
266.0170069026
 21
204.4011068074
  0
LINE
  5
2DA
100
AcDbEntity
  8
0
100
AcDbLine
 62
7
  6
CONTINUOUS
 10
266.0318885778
 20
204.365227841
 11
266.0255866323
 21
204.3837770031
  0
LINE
  5
2DB
100
AcDbEntity
  8
0
100
AcDbLine
 62
250
  6
CONTINUOUS
 10
275.6069264191
 20
178.8481438381
 11
275.6306090827
 21
178.7770380695
  0
LWPOLYLINE
  5
2DC
100
AcDbEntity
  8
0
100
AcDbPolyline
 62
7
  6
CONTINUOUS
 90
8
 70
0
 10
266.6409534402
 20
203.1879524863
 10
266.6445799065
 20
203.1736732399
 10
266.6496941636
 20
203.1596789427
 10
266.6562249102
 20
203.1461115438
 10
266.6639582428
 20
203.1333968896
 10
266.6728228602
 20
203.1216769292
 10
266.6828900635
 20
203.1108097141
 10
266.6941598529
 20
203.1007952446
  0
LWPOLYLINE
  5
2DD
100
AcDbEntity
  8
0
100
AcDbPolyline
 62
7
  6
CONTINUOUS
 90
3
 70
0
 10
268.3716229276
 20
198.207548693
 10
268.3767411861
 20
198.1731504063
 10
268.3776858067
 20
198.1383947913
  0
LWPOLYLINE
  5
2DE
100
AcDbEntity
  8
0
100
AcDbPolyline
 62
7
  6
CONTINUOUS
 90
3
 70
0
 10
267.3874841106
 20
198.4824029817
 10
267.3823766027
 20
198.5167820592
 10
267.3814392506
 20
198.5515172919
  0
LWPOLYLINE
  5
2DF
100
AcDbEntity
  8
0
100
AcDbPolyline
 62
7
  6
CONTINUOUS
 90
14
 70
0
 10
268.3749076038
 20
198.1046637783
 10
268.3676629876
 20
198.0692282219
 10
268.3566616118
 20
198.0362439494
 10
268.341771145
 20
198.0042995174
 10
268.323582971
 20
197.9746646097
 10
268.3019649192
 20
197.9474331778
 10
268.2770491602
 20
197.9225112656
 10
268.2498235898
 20
197.900886693
 10
268.2201957339
 20
197.8826915359
 10
268.1882580666
 20
197.8677937138
 10
268.1552759062
 20
197.8567848105
 10
268.1212072093
 20
197.849820332
 10
268.0860940192
 20
197.8467447699
 10
268.0513277839
 20
197.8476831868
  0
LWPOLYLINE
  5
2E0
100
AcDbEntity
  8
0
100
AcDbPolyline
 62
7
  6
CONTINUOUS
 90
13
 70
0
 10
268.368150962
 20
198.0710738917
 10
268.3573956488
 20
198.0382318705
 10
268.342789738
 20
198.0062782498
 10
268.3249384992
 20
197.9766174218
 10
268.303741921
 20
197.9494134548
 10
268.2793000147
 20
197.9245022761
 10
268.2525180845
 20
197.9027960641
 10
268.2233287504
 20
197.8843863527
 10
268.1917993922
 20
197.8691816036
 10
268.1590374544
 20
197.8578193854
 10
268.1249809375
 20
197.8503965435
 10
268.0896918409
 20
197.84681623
 10
268.0544636067
 20
197.8474254744
  0
LINE
  5
2E1
100
AcDbEntity
  8
0
100
AcDbLine
 62
250
  6
CONTINUOUS
 10
276.1302284829
 20
222.4164711985
 11
276.1068502667
 21
222.3462795146
  0
LWPOLYLINE
  5
2E2
100
AcDbEntity
  8
0
100
AcDbPolyline
 62
7
  6
CONTINUOUS
 90
3
 70
0
 10
264.1077025425
 20
205.0695229272
 10
264.1419884055
 20
205.0755666754
 10
264.1776504569
 20
205.0778228924
  0
LINE
  5
2E3
100
AcDbEntity
  8
0
100
AcDbLine
 62
7
  6
CONTINUOUS
 10
265.8871610935
 20
204.4761672191
 11
264.1776504569
 21
204.4761672191
  0
LINE
  5
2E4
100
AcDbEntity
  8
0
100
AcDbLine
 62
7
  6
CONTINUOUS
 10
265.9395958513
 20
205.0778228924
 11
264.1776504569
 21
205.0778228924
  0
LWPOLYLINE
  5
2E5
100
AcDbEntity
  8
0
100
AcDbPolyline
 62
7
  6
CONTINUOUS
 90
19
 70
0
 10
265.9395958513
 20
205.0778228924
 10
265.9999760728
 20
205.0752178325
 10
266.0601531733
 20
205.0673693372
 10
266.1196678225
 20
205.0542683287
 10
266.1782676713
 20
205.0358702995
 10
266.235259493
 20
205.0122887729
 10
266.2895883816
 20
204.9839784252
 10
266.3405382835
 20
204.9514942661
 10
266.3881724792
 20
204.914987054
 10
266.4326316246
 20
204.8743833692
 10
266.4736508653
 20
204.8298302962
 10
266.5107691929
 20
204.7817243053
 10
266.5437404936
 20
204.7302701501
 10
266.5723533852
 20
204.675562009
 10
266.5961478899
 20
204.6182075412
 10
266.6146808158
 20
204.5592777685
 10
266.6278525405
 20
204.4994790338
 10
266.635722293
 20
204.439072799
 10
266.638315041
 20
204.3785252062
  0
LWPOLYLINE
  5
2E6
100
AcDbEntity
  8
0
100
AcDbPolyline
 62
7
  6
CONTINUOUS
 90
15
 70
0
 10
265.9395958513
 20
205.0778228924
 10
266.0127446159
 20
205.0739954782
 10
266.0850558808
 20
205.0625495088
 10
266.1557424361
 20
205.0436150735
 10
266.2240333999
 20
205.0174053637
 10
266.2891877854
 20
204.9842093593
 10
266.3505013413
 20
204.9443861549
 10
266.4073032709
 20
204.8983720352
 10
266.4589780749
 20
204.8466693801
 10
266.5049727788
 20
204.7898306999
 10
266.5447831596
 20
204.7284681537
 10
266.577968516
 20
204.6632525972
 10
266.6041664235
 20
204.5948945331
 10
266.6230862063
 20
204.5241378032
 10
266.6345130081
 20
204.4517519036
  0
LINE
  5
2E7
100
AcDbEntity
  8
0
100
AcDbLine
 62
7
  6
CONTINUOUS
 10
264.1776504569
 20
204.4761672191
 11
264.1422072507
 21
204.4781928522
  0
LWPOLYLINE
  5
2E8
100
AcDbEntity
  8
0
100
AcDbPolyline
 62
7
  6
CONTINUOUS
 90
3
 70
0
 10
264.1776504569
 20
204.4761672191
 10
264.1419802844
 20
204.4784224377
 10
264.1076845642
 20
204.4844697737
  0
LINE
  5
2E9
100
AcDbEntity
  8
0
100
AcDbLine
 62
7
  6
CONTINUOUS
 10
265.9067456199
 20
204.474886301
 11
265.8871610935
 21
204.4761672191
  0
LWPOLYLINE
  5
2EA
100
AcDbEntity
  8
0
100
AcDbPolyline
 62
7
  6
CONTINUOUS
 90
4
 70
0
 10
265.9445214784
 20
204.4647768558
 10
265.9263506113
 20
204.4709367401
 10
265.907230483
 20
204.4747335277
 10
265.8871610935
 20
204.4761672191
  0
LINE
  5
2EB
100
AcDbEntity
  8
0
100
AcDbLine
 62
250
  6
CONTINUOUS
 10
276.1068502667
 20
179.3474586055
 11
276.1302284829
 21
179.2772669216
  0
LWPOLYLINE
  5
2EC
100
AcDbEntity
  8
0
100
AcDbPolyline
 62
250
  6
CONTINUOUS
 90
7
 70
0
 10
275.6069264191
 20
222.845594282
 10
275.6056750933
 20
222.8361563834
 10
275.6044629586
 20
222.8194195632
 10
275.6032900148
 20
222.7958004965
 10
275.6021578756
 20
222.7659213045
 10
275.6010649273
 20
222.7301220431
 10
275.5989752197
 20
222.6397020332
  0
LWPOLYLINE
  5
2ED
100
AcDbEntity
  8
0
100
AcDbPolyline
 62
250
  6
CONTINUOUS
 90
10
 70
0
 10
276.1068502667
 20
222.3462795146
 10
276.1055991179
 20
222.3395035145
 10
276.1043870796
 20
222.3284382286
 10
276.1032141518
 20
222.3130836571
 10
276.1020818969
 20
222.2933654763
 10
276.1009887523
 20
222.2693580097
 10
276.0999300312
 20
222.2412842283
 10
276.0988989597
 20
222.2090247689
 10
276.0979023116
 20
222.1726989946
 10
276.0960638461
 20
222.0898793252
  0
LWPOLYLINE
  5
2EE
100
AcDbEntity
  8
0
100
AcDbPolyline
 62
7
  6
CONTINUOUS
 90
10
 70
0
 43
0.3500000087
 10
284.8802236328
 20
202.1325752319
 10
285.023078479
 20
202.2040111816
 10
285.0945144287
 20
202.2040111816
 10
285.2373692749
 20
202.0611563354
 10
285.2373692749
 20
201.9897203857
 10
285.1659503784
 20
201.9183014893
 10
285.0945144287
 20
201.9183014893
 10
284.9516595825
 20
201.9897203857
 10
284.8802236328
 20
202.0611563354
 10
284.8802236328
 20
202.1325752319
  0
LWPOLYLINE
  5
2EF
100
AcDbEntity
  8
0
100
AcDbPolyline
 62
7
  6
CONTINUOUS
 90
3
 70
0
 43
0.3500000087
 10
285.0945144287
 20
202.2040111816
 10
285.3088052246
 20
202.1325752319
 10
285.594514917
 20
201.9897203857
  0
LWPOLYLINE
  5
2F0
100
AcDbEntity
  8
0
100
AcDbPolyline
 62
250
  6
CONTINUOUS
 90
6
 70
0
 10
275.6005656322
 20
178.9825532744
 10
275.6017609336
 20
178.9400910279
 10
275.6029967889
 20
178.904976198
 10
275.6042661118
 20
178.8777078471
 10
275.6055759885
 20
178.858635141
 10
275.6069264191
 20
178.8481438381
  0
LINE
  5
2F1
100
AcDbEntity
  8
0
100
AcDbLine
 62
250
  6
CONTINUOUS
 10
275.5983660301
 20
179.0863535519
 11
275.6005656322
 21
178.9825532744
  0
LWPOLYLINE
  5
2F2
100
AcDbEntity
  8
0
100
AcDbPolyline
 62
250
  6
CONTINUOUS
 90
8
 70
0
 10
276.0982897906
 20
179.5061018186
 10
276.0993558731
 20
179.4697461714
 10
276.1004894904
 20
179.4372629986
 10
276.1016849907
 20
179.4087209731
 10
276.1029209599
 20
179.385346846
 10
276.10419026
 20
179.3675495342
 10
276.1055000289
 20
179.3549201207
 10
276.1068502667
 20
179.3474586055
  0
LINE
  5
2F3
100
AcDbEntity
  8
0
100
AcDbLine
 62
250
  6
CONTINUOUS
 10
276.0963477329
 20
179.5896158233
 11
276.0982897906
 21
179.5061018186
  0
LINE
  5
2F4
100
AcDbEntity
  8
0
100
AcDbLine
 62
250
  6
CONTINUOUS
 10
276.0946773044
 20
179.6841927413
 11
276.0963477329
 21
179.5896158233
  0
LINE
  5
2F5
100
AcDbEntity
  8
0
100
AcDbLine
 62
250
  6
CONTINUOUS
 10
275.595555453
 20
179.2804206112
 11
275.5983660301
 21
179.0863535519
  0
LINE
  5
2F6
100
AcDbEntity
  8
0
100
AcDbLine
 62
250
  6
CONTINUOUS
 10
276.0926296573
 20
179.8479454236
 11
276.0946773044
 21
179.6841927413
  0
LINE
  5
2F7
100
AcDbEntity
  8
0
100
AcDbLine
 62
250
  6
CONTINUOUS
 10
275.5927057709
 20
179.5987009085
 11
275.595555453
 21
179.2804206112
  0
LINE
  5
2F8
100
AcDbEntity
  8
0
100
AcDbLine
 62
250
  6
CONTINUOUS
 10
276.0908620214
 20
180.0963054185
 11
276.0926296573
 21
179.8479454236
  0
LINE
  5
2F9
100
AcDbEntity
  8
0
100
AcDbLine
 62
250
  6
CONTINUOUS
 10
275.590683444
 20
180.0729945548
 11
275.5927057709
 21
179.5987009085
  0
LINE
  5
2FA
100
AcDbEntity
  8
0
100
AcDbLine
 62
250
  6
CONTINUOUS
 10
275.5853387347
 20
189.3252971854
 11
275.590683444
 21
180.0729945548
  0
LINE
  5
2FB
100
AcDbEntity
  8
0
100
AcDbLine
 62
250
  6
CONTINUOUS
 10
276.0852625823
 20
189.3368187572
 11
276.0908620214
 21
180.0963054185
  0
LINE
  5
2FC
100
AcDbEntity
  8
0
100
AcDbLine
 62
7
  6
CONTINUOUS
 10
276.1302284829
 20
179.2772669216
 11
276.1302284829
 21
222.4164711985
  0
LINE
  5
2FD
100
AcDbEntity
  8
0
100
AcDbLine
 62
250
  6
CONTINUOUS
 10
276.0909406458
 20
221.6142851737
 11
276.0852625823
 21
189.3368187572
  0
LINE
  5
2FE
100
AcDbEntity
  8
0
100
AcDbLine
 62
250
  6
CONTINUOUS
 10
275.5918955601
 20
221.9574026114
 11
275.5853387347
 21
189.3252971854
  0
LINE
  5
2FF
100
AcDbEntity
  8
0
100
AcDbLine
 62
250
  6
CONTINUOUS
 10
276.0923736289
 20
221.8194567468
 11
276.0909406458
 21
221.6142851737
  0
LINE
  5
300
100
AcDbEntity
  8
0
100
AcDbLine
 62
250
  6
CONTINUOUS
 10
275.5945081516
 20
222.315861627
 11
275.5918955601
 21
221.9574026114
  0
LINE
  5
301
100
AcDbEntity
  8
0
100
AcDbLine
 62
250
  6
CONTINUOUS
 10
275.5970317989
 20
222.525506959
 11
275.5945081516
 21
222.315861627
  0
LINE
  5
302
100
AcDbEntity
  8
0
100
AcDbLine
 62
250
  6
CONTINUOUS
 10
276.0944319319
 20
221.9931244115
 11
276.0923736289
 21
221.8194567468
  0
LINE
  5
303
100
AcDbEntity
  8
0
100
AcDbLine
 62
250
  6
CONTINUOUS
 10
276.0960638461
 20
222.0898793252
 11
276.0944319319
 21
221.9931244115
  0
LINE
  5
304
100
AcDbEntity
  8
0
100
AcDbLine
 62
250
  6
CONTINUOUS
 10
275.5989752197
 20
222.6397020332
 11
275.5970317989
 21
222.525506959
  0
LWPOLYLINE
  5
305
100
AcDbEntity
  8
0
100
AcDbPolyline
 62
250
  6
CONTINUOUS
 90
16
 70
0
 10
276.1068502667
 20
222.3462795146
 10
276.1040671797
 20
222.398441247
 10
276.0958437561
 20
222.4500322683
 10
276.0822699535
 20
222.5004879997
 10
276.0634942797
 20
222.5492562839
 10
276.0397221727
 20
222.595803417
 10
276.0112137566
 20
222.6396199912
 10
275.9782809836
 20
222.6802264888
 10
275.9412842308
 20
222.717178512
 10
275.9006283681
 20
222.7500716422
 10
275.8567582976
 20
222.778545895
 10
275.8101541038
 20
222.8022896387
 10
275.7613258207
 20
222.8210430012
 10
275.710807811
 20
222.8346007369
 10
275.6591529131
 20
222.8428144643
 10
275.6069264186
 20
222.8455942805
  0
LWPOLYLINE
  5
306
100
AcDbEntity
  8
0
100
AcDbPolyline
 62
250
  6
CONTINUOUS
 90
16
 70
0
 10
276.1068502667
 20
179.3474586055
 10
276.10406711
 20
179.2952962164
 10
276.0958435027
 20
179.2437046656
 10
276.0822694396
 20
179.1932485444
 10
276.0634934682
 20
179.1444800183
 10
276.0397210632
 20
179.0979327851
 10
276.0112123773
 20
179.0541162333
 10
275.978279395
 20
179.0135098688
 10
275.9412825177
 20
178.9765580666
 10
275.9006266201
 20
178.943665208
 10
275.8567566194
 20
178.9151912557
 10
275.8101526061
 20
178.8914478137
 10
275.7613245905
 20
178.8726947179
 10
275.7108069212
 20
178.8591371925
 10
275.6591524374
 20
178.8509236042
 10
275.6069264191
 20
178.8481438381
  0
LWPOLYLINE
  5
307
100
AcDbEntity
  8
0
100
AcDbPolyline
 62
7
  6
CONTINUOUS
 90
3
 70
0
 43
0.3500000087
 10
283.2373673218
 20
203.2040121582
 10
282.3802211914
 20
204.0611582886
 10
285.3802241211
 20
204.0611582886
  0
LWPOLYLINE
  5
308
100
AcDbEntity
  8
0
100
AcDbPolyline
 62
7
  6
CONTINUOUS
 90
3
 70
0
 43
0.3500000087
 10
284.7373687866
 20
200.6325908203
 10
284.7373687866
 20
199.1325893555
 10
282.3802211914
 20
199.7754446899
  0
LWPOLYLINE
  5
309
100
AcDbEntity
  8
0
100
AcDbPolyline
 62
7
  6
CONTINUOUS
 90
3
 70
0
 43
0.3500000087
 10
284.7373687866
 20
198.2754432251
 10
284.7373687866
 20
196.7754417603
 10
282.3802211914
 20
197.4182970947
  0
LINE
  5
30A
100
AcDbEntity
  8
0
100
AcDbLine
 62
250
  6
CONTINUOUS
 10
254.5220815445
 20
221.4088241769
 11
254.6249012654
 21
221.4093373958
  0
LWPOLYLINE
  5
30B
100
AcDbEntity
  8
0
100
AcDbPolyline
 62
250
  6
CONTINUOUS
 90
14
 70
0
 10
276.090323496
 20
180.3049632232
 10
276.0867440716
 20
180.302837331
 10
276.0778466697
 20
180.3007342133
 10
276.0637265874
 20
180.2986764039
 10
276.0445350787
 20
180.2966859523
 10
276.0204777391
 20
180.2947841851
 10
275.9918123062
 20
180.2929914769
 10
275.9588458881
 20
180.2913270354
 10
275.9219316821
 20
180.289808696
 10
275.8814652025
 20
180.2884527282
 10
275.8378800133
 20
180.2872736624
 10
275.7916431018
 20
180.2862841317
 10
275.7432498948
 20
180.2854947368
 10
275.6932189122
 20
180.2849139353
  0
LINE
  5
30C
100
AcDbEntity
  8
0
100
AcDbLine
 62
250
  6
CONTINUOUS
 10
254.6083744948
 20
222.845594282
 11
275.6069264191
 21
222.845594282
  0
LINE
  5
30D
100
AcDbEntity
  8
0
100
AcDbLine
 62
7
  6
CONTINUOUS
 10
275.6306090827
 20
222.9167000506
 11
254.5846918312
 21
222.9167000506
  0
LWPOLYLINE
  5
30E
100
AcDbEntity
  8
0
100
AcDbPolyline
 62
7
  6
CONTINUOUS
 90
7
 70
0
 43
0.3500000087
 10
266.607644397
 20
233.6666953857
 10
265.1076429321
 20
233.6666953857
 10
266.607644397
 20
235.8095521851
 10
266.607644397
 20
236.2381337769
 10
266.1790798584
 20
236.6666983154
 10
265.5362245239
 20
236.6666983154
 10
265.1076429321
 20
236.023842981
  0
LWPOLYLINE
  5
30F
100
AcDbEntity
  8
0
100
AcDbPolyline
 62
7
  6
CONTINUOUS
 90
7
 70
0
 43
0.3500000087
 10
264.250513855
 20
233.6666953857
 10
262.7505123901
 20
233.6666953857
 10
264.250513855
 20
235.8095521851
 10
264.250513855
 20
236.2381337769
 10
263.8219322632
 20
236.6666983154
 10
263.1790769287
 20
236.6666983154
 10
262.7505123901
 20
236.023842981
  0
LWPOLYLINE
  5
310
100
AcDbEntity
  8
0
100
AcDbPolyline
 62
250
  6
CONTINUOUS
 90
16
 70
0
 10
276.090323496
 20
221.3887749165
 10
276.086743993
 20
221.3909008272
 10
276.0778464033
 20
221.3930039598
 10
276.0637260603
 20
221.3950617803
 10
276.0445342565
 20
221.39705224
 10
276.0204766227
 20
221.3989540124
 10
275.9918109246
 20
221.4007467207
 10
275.9588443011
 20
221.402411157
 10
275.9219299736
 20
221.4039294876
 10
275.8814634608
 20
221.4052854444
 10
275.8378783417
 20
221.406464499
 10
275.7916416095
 20
221.4074540184
 10
275.7432486681
 20
221.4082434004
 10
275.6932180243
 20
221.408824187
 10
275.6420857319
 20
221.4091901556
 10
254.6249012654
 20
221.4093373849
  0
LWPOLYLINE
  5
311
100
AcDbEntity
  8
0
100
AcDbPolyline
 62
7
  6
CONTINUOUS
 90
5
 70
0
 43
0.3500000087
 10
225.6169665771
 20
235.3809876465
 10
225.9741122192
 20
235.5952784424
 10
225.9741122192
 20
236.2381337769
 10
225.6169665771
 20
236.6666983154
 10
224.7598204468
 20
236.6666983154
  0
LINE
  5
312
100
AcDbEntity
  8
0
100
AcDbLine
 62
250
  6
CONTINUOUS
 10
234.8613775348
 20
179.4070239723
 11
234.6639835778
 21
179.4070239723
  0
LINE
  5
313
100
AcDbEntity
  8
0
100
AcDbLine
 62
7
  6
CONTINUOUS
 10
233.0045986459
 20
178.8481438381
 11
234.3613775348
 21
178.7770380695
  0
LINE
  5
314
100
AcDbEntity
  8
0
100
AcDbLine
 62
250
  6
CONTINUOUS
 10
233.0220404208
 20
179.3474586055
 11
234.3613775348
 21
179.2772669216
  0
LWPOLYLINE
  5
315
100
AcDbEntity
  8
0
100
AcDbPolyline
 62
7
  6
CONTINUOUS
 90
3
 70
0
 43
0.3500000087
 10
223.7598194702
 20
233.9524221313
 10
223.6884005737
 20
233.7381313354
 10
223.5455457275
 20
233.4524216431
  0
LINE
  5
316
100
AcDbEntity
  8
0
100
AcDbLine
 62
250
  6
CONTINUOUS
 10
231.587046448
 20
180.2845479516
 11
231.5843715635
 21
180.2844007076
  0
LINE
  5
317
100
AcDbEntity
  8
0
100
AcDbLine
 62
250
  6
CONTINUOUS
 10
232.0752223643
 20
180.3049632232
 11
231.587046448
 21
180.2845479516
  0
LWPOLYLINE
  5
318
100
AcDbEntity
  8
0
100
AcDbPolyline
 62
250
  6
CONTINUOUS
 90
13
 70
0
 10
236.6962398124
 20
183.2573987085
 10
236.7060247518
 20
183.2598986382
 10
236.7153639973
 20
183.2656203696
 10
236.7241046093
 20
183.2744702006
 10
236.732103452
 20
183.2863032032
 10
236.7392295369
 20
183.3009255976
 10
236.7453661689
 20
183.3180979258
 10
236.7504128553
 20
183.3375389719
 10
236.7542869525
 20
183.3589303684
 10
236.7569250198
 20
183.3819218108
 10
236.7582838571
 20
183.406136792
 10
236.7583412126
 20
183.4311787677
 10
236.757096148
 20
183.4566376515
  0
LINE
  5
319
100
AcDbEntity
  8
0
100
AcDbLine
 62
7
  6
CONTINUOUS
 10
236.6962398319
 20
183.2573987102
 11
234.8613775348
 21
183.0968690601
  0
LINE
  5
31A
100
AcDbEntity
  8
0
100
AcDbLine
 62
250
  6
CONTINUOUS
 10
236.5657408025
 20
183.4465927974
 11
234.8613775348
 21
183.297480333
  0
LINE
  5
31B
100
AcDbEntity
  8
0
100
AcDbLine
 62
250
  6
CONTINUOUS
 10
236.7570961157
 20
183.4566376498
 11
236.5657408025
 21
183.4465927974
  0
LINE
  5
31C
100
AcDbEntity
  8
0
100
AcDbLine
 62
7
  6
CONTINUOUS
 10
236.1613775348
 20
187.5778885083
 11
234.8613775348
 21
187.5097583952
  0
LINE
  5
31D
100
AcDbEntity
  8
0
100
AcDbLine
 62
250
  6
CONTINUOUS
 10
236.7570961157
 20
186.7371004703
 11
236.5657408025
 21
186.7471453227
  0
LINE
  5
31E
100
AcDbEntity
  8
0
100
AcDbLine
 62
250
  6
CONTINUOUS
 10
236.5657408025
 20
186.7471453227
 11
234.8613775348
 21
186.8962577871
  0
LINE
  5
31F
100
AcDbEntity
  8
0
100
AcDbLine
 62
7
  6
CONTINUOUS
 10
236.6962398319
 20
186.9363394099
 11
234.8613775348
 21
187.0968690601
  0
LWPOLYLINE
  5
320
100
AcDbEntity
  8
0
100
AcDbPolyline
 62
7
  6
CONTINUOUS
 90
5
 70
0
 10
236.1566658782
 20
188.5446719785
 10
236.1516083583
 20
188.5435744651
 10
236.1444199811
 20
188.5440548967
 10
236.1350709693
 20
188.5461427174
 10
236.1234568669
 20
188.5498251864
  0
LINE
  5
321
100
AcDbEntity
  8
0
100
AcDbLine
 62
250
  6
CONTINUOUS
 10
236.4613775348
 20
188.7823218966
 11
236.271844726
 21
188.7602267466
  0
LWPOLYLINE
  5
322
100
AcDbEntity
  8
0
100
AcDbPolyline
 62
7
  6
CONTINUOUS
 90
10
 70
0
 10
236.0371304689
 20
213.1053989284
 10
236.057366832
 20
213.1151972876
 10
236.0765383803
 20
213.1240996444
 10
236.0940257203
 20
213.1319784817
 10
236.1096678433
 20
213.1386666457
 10
236.1234568669
 20
213.1439129337
 10
236.1350709693
 20
213.1475954027
 10
236.1444199811
 20
213.1496832234
 10
236.1516083583
 20
213.150163655
 10
236.1566658782
 20
213.1490661416
  0
LWPOLYLINE
  5
323
100
AcDbEntity
  8
0
100
AcDbPolyline
 62
7
  6
CONTINUOUS
 90
3
 70
0
 10
235.971844726
 20
213.073403671
 10
235.9943209781
 20
213.0841875427
 10
236.0371304689
 20
213.1053989284
  0
LWPOLYLINE
  5
324
100
AcDbEntity
  8
0
100
AcDbPolyline
 62
7
  6
CONTINUOUS
 90
7
 70
0
 10
236.1234568669
 20
188.5498251864
 10
236.1096678433
 20
188.5550714744
 10
236.0940257204
 20
188.5617596384
 10
236.0765383803
 20
188.5696384757
 10
236.0573668321
 20
188.5785408325
 10
236.037130469
 20
188.5883391917
 10
235.9943209781
 20
188.6095505773
  0
LINE
  5
325
100
AcDbEntity
  8
0
100
AcDbLine
 62
7
  6
CONTINUOUS
 10
235.9943209781
 20
188.6095505773
 11
235.971844726
 21
188.6203344491
  0
LINE
  5
326
100
AcDbEntity
  8
0
100
AcDbLine
 62
7
  6
CONTINUOUS
 10
234.8613775348
 20
191.1839797249
 11
236.4613775348
 21
191.1001272781
  0
LWPOLYLINE
  5
327
100
AcDbEntity
  8
0
100
AcDbPolyline
 62
250
  6
CONTINUOUS
 90
22
 70
0
 10
232.0752223651
 20
180.3049632036
 10
232.0811926553
 20
180.2332189162
 10
232.0914766888
 20
180.1636663211
 10
232.1060744655
 20
180.0963054185
 10
232.1250611393
 20
180.0312249612
 10
232.1483615563
 20
179.9683361963
 10
232.1757502549
 20
179.907372865
 10
232.207342258
 20
179.8479454236
 10
232.2430225426
 20
179.7904434158
 10
232.2822205785
 20
179.7357692146
 10
232.3246518783
 20
179.6841927413
 10
232.3706009293
 20
179.6354440745
 10
232.4203506637
 20
179.5896158233
 10
232.4740805289
 20
179.5463986132
 10
232.5316110773
 20
179.5061018186
 10
232.5926868986
 20
179.4697461714
 10
232.6576317932
 20
179.4372629986
 10
232.7261219606
 20
179.4087209731
 10
232.7969305883
 20
179.385346846
 10
232.8696487388
 20
179.3675495342
 10
232.9446853497
 20
179.3549201207
 10
233.0220404208
 20
179.3474586055
  0
LWPOLYLINE
  5
328
100
AcDbEntity
  8
0
100
AcDbPolyline
 62
250
  6
CONTINUOUS
 90
16
 70
0
 10
232.0752223651
 20
221.3887749165
 10
231.9655539066
 20
218.4563939631
 10
231.8727829764
 20
215.6103858896
 10
231.7969095746
 20
212.8507506961
 10
231.7391308409
 20
210.201773691
 10
231.6982496356
 20
207.6391695659
 10
231.670674539
 20
205.0900823952
 10
231.6549190257
 20
202.5523337153
 10
231.652469621
 20
200.0281019898
 10
231.6641944817
 20
197.4510666847
 10
231.6888539993
 20
194.8155052296
 10
231.7276877822
 20
192.1271401949
 10
231.7852828121
 20
189.3368187572
 10
231.8631680828
 20
186.4281566423
 10
231.9598146005
 20
183.4175381244
 10
232.0752223651
 20
180.3049632036
  0
LWPOLYLINE
  5
329
100
AcDbEntity
  8
0
100
AcDbPolyline
 62
250
  6
CONTINUOUS
 90
19
 70
0
 10
234.6639887993
 20
179.4070258728
 10
234.6718407788
 20
179.3620380208
 10
234.678755199
 20
179.3180052147
 10
234.6846766441
 20
179.275260396
 10
234.6896081759
 20
179.2338883847
 10
234.6934663182
 20
179.194418036
 10
234.69617817
 20
179.157736965
 10
234.6978825977
 20
179.1241332657
 10
234.6986601829
 20
179.0935268933
 10
234.6984849569
 20
179.0660700747
 10
234.6975121865
 20
179.0420211549
 10
234.6959227443
 20
179.0209552111
 10
234.6936388347
 20
179.0021049726
 10
234.6906409025
 20
178.9855504187
 10
234.6870276707
 20
178.9713381144
 10
234.6826559858
 20
178.9590861194
 10
234.677373349
 20
178.9490010175
 10
234.6711651924
 20
178.9415867807
 10
234.6639835778
 20
178.9371776619
  0
LWPOLYLINE
  5
32A
100
AcDbEntity
  8
0
100
AcDbPolyline
 62
250
  6
CONTINUOUS
 90
8
 70
0
 10
236.3258460346
 20
213.0604712367
 10
236.3223099151
 20
213.0502576317
 10
236.3170513356
 20
213.0365957078
 10
236.3102256183
 20
213.0198889955
 10
236.3020343736
 20
213.0006309587
 10
236.2927195453
 20
212.9793904194
 10
236.2825562641
 20
212.9567947566
 10
236.2718447216
 20
212.9335113756
  0
LWPOLYLINE
  5
32B
100
AcDbEntity
  8
0
100
AcDbPolyline
 62
250
  6
CONTINUOUS
 90
8
 70
0
 10
236.3258460287
 20
188.6332668808
 10
236.3223099056
 20
188.6434804842
 10
236.3170513206
 20
188.6571424056
 10
236.3102255974
 20
188.6738491152
 10
236.3020343512
 20
188.6931071513
 10
236.2927195274
 20
188.7143476927
 10
236.2825562552
 20
188.7369433595
 10
236.271844726
 20
188.7602267466
  0
LINE
  5
32C
100
AcDbEntity
  8
0
100
AcDbLine
 62
250
  6
CONTINUOUS
 10
233.0220404208
 20
222.3462795146
 11
233.0143877528
 21
222.5004879997
  0
LINE
  5
32D
100
AcDbEntity
  8
0
100
AcDbLine
 62
250
  6
CONTINUOUS
 10
233.0143877528
 20
222.5004879997
 11
233.0101351491
 21
222.595803417
  0
LINE
  5
32E
100
AcDbEntity
  8
0
100
AcDbLine
 62
250
  6
CONTINUOUS
 10
233.0101351491
 20
222.595803417
 11
233.0067831743
 21
222.6802264888
  0
LWPOLYLINE
  5
32F
100
AcDbEntity
  8
0
100
AcDbPolyline
 62
250
  6
CONTINUOUS
 90
8
 70
0
 10
233.0067831743
 20
222.6802264888
 10
233.0044781695
 20
222.7500716422
 10
233.0037516493
 20
222.778545895
 10
233.0033207693
 20
222.8022896387
 10
233.0031902462
 20
222.8210430012
 10
233.0033615092
 20
222.8346007369
 10
233.0038326848
 20
222.8428144643
 10
233.0045986174
 20
222.8455942805
  0
LWPOLYLINE
  5
330
100
AcDbEntity
  8
0
100
AcDbPolyline
 62
250
  6
CONTINUOUS
 90
7
 70
0
 10
233.0044781453
 20
178.943665208
 10
233.0037516408
 20
178.9151912557
 10
233.0033207744
 20
178.8914478137
 10
233.0031902625
 20
178.8726947179
 10
233.0033615339
 20
178.8591371925
 10
233.0038327138
 20
178.8509236042
 10
233.0045986459
 20
178.8481438381
  0
LINE
  5
331
100
AcDbEntity
  8
0
100
AcDbLine
 62
250
  6
CONTINUOUS
 10
233.0067831175
 20
179.0135098688
 11
233.0044781453
 21
178.943665208
  0
LINE
  5
332
100
AcDbEntity
  8
0
100
AcDbLine
 62
250
  6
CONTINUOUS
 10
233.0101350706
 20
179.0979327851
 11
233.0067831175
 21
179.0135098688
  0
LINE
  5
333
100
AcDbEntity
  8
0
100
AcDbLine
 62
250
  6
CONTINUOUS
 10
233.0167950339
 20
179.2437046656
 11
233.0101350706
 21
179.0979327851
  0
LINE
  5
334
100
AcDbEntity
  8
0
100
AcDbLine
 62
250
  6
CONTINUOUS
 10
233.0220404208
 20
179.3474586055
 11
233.0167950339
 21
179.2437046656
  0
LINE
  5
335
100
AcDbEntity
  8
0
100
AcDbLine
 62
250
  6
CONTINUOUS
 10
236.5742181087
 20
183.3470170298
 11
236.5657408025
 21
183.4465927974
  0
LINE
  5
336
100
AcDbEntity
  8
0
100
AcDbLine
 62
7
  6
CONTINUOUS
 10
234.3613775348
 20
178.7770380695
 11
234.3613775348
 21
222.9167000506
  0
LINE
  5
337
100
AcDbEntity
  8
0
100
AcDbLine
 62
250
  6
CONTINUOUS
 10
234.6639835778
 20
222.2867141478
 11
234.6639835778
 21
179.4070239723
  0
LINE
  5
338
100
AcDbEntity
  8
0
100
AcDbLine
 62
7
  6
CONTINUOUS
 10
234.8613775348
 20
222.474652672
 11
234.8613775348
 21
179.2190854481
  0
LWPOLYLINE
  5
339
100
AcDbEntity
  8
0
100
AcDbPolyline
 62
250
  6
CONTINUOUS
 90
22
 70
0
 10
237.0613775348
 20
186.5378196656
 10
237.0601303686
 20
186.5552461917
 10
237.0565404893
 20
186.5718916592
 10
237.0508371827
 20
186.587756068
 10
237.0432572486
 20
186.6028695817
 10
237.0340230272
 20
186.6172020368
 10
237.0233232816
 20
186.6306629428
 10
237.0113582787
 20
186.6432204378
 10
236.9983218284
 20
186.6549063838
 10
236.9843552957
 20
186.6657258761
 10
236.9696721526
 20
186.6756395151
 10
236.9543879652
 20
186.6846867004
 10
236.9384314288
 20
186.6929907261
 10
236.9219594231
 20
186.7005562147
 10
236.9050209093
 20
186.7073785438
 10
236.8872777682
 20
186.7135671396
 10
236.8688743194
 20
186.7191773185
 10
236.849751457
 20
186.7241537641
 10
236.8291279075
 20
186.7284399543
 10
236.8066886937
 20
186.7320170483
 10
236.7826798481
 20
186.734903887
 10
236.7570961157
 20
186.7371004703
  0
LWPOLYLINE
  5
33A
100
AcDbEntity
  8
0
100
AcDbPolyline
 62
250
  6
CONTINUOUS
 90
3
 70
0
 10
236.3273870718
 20
213.0694575416
 10
236.3275552485
 20
213.0669348449
 10
236.3258460346
 20
213.0604712367
  0
LINE
  5
33B
100
AcDbEntity
  8
0
100
AcDbLine
 62
250
  6
CONTINUOUS
 10
235.971844726
 20
187.5679555147
 11
235.971844726
 21
188.6203344491
  0
LINE
  5
33C
100
AcDbEntity
  8
0
100
AcDbLine
 62
250
  6
CONTINUOUS
 10
235.971844726
 20
213.073403671
 11
235.971844726
 21
214.1257826055
  0
LINE
  5
33D
100
AcDbEntity
  8
0
100
AcDbLine
 62
7
  6
CONTINUOUS
 10
236.1613775348
 20
187.5778885083
 11
236.1613775348
 21
188.5468690601
  0
LINE
  5
33E
100
AcDbEntity
  8
0
100
AcDbLine
 62
7
  6
CONTINUOUS
 10
236.1613775348
 20
213.1468690601
 11
236.1613775348
 21
214.1158496118
  0
LINE
  5
33F
100
AcDbEntity
  8
0
100
AcDbLine
 62
250
  6
CONTINUOUS
 10
236.271844726
 20
188.7602267466
 11
236.271844726
 21
191.1100602717
  0
LINE
  5
340
100
AcDbEntity
  8
0
100
AcDbLine
 62
250
  6
CONTINUOUS
 10
236.271844726
 20
210.5836778484
 11
236.271844726
 21
212.9335113735
  0
LINE
  5
341
100
AcDbEntity
  8
0
100
AcDbLine
 62
7
  6
CONTINUOUS
 10
236.4613775348
 20
188.7823218966
 11
236.4613775348
 21
191.1001272781
  0
LINE
  5
342
100
AcDbEntity
  8
0
100
AcDbLine
 62
7
  6
CONTINUOUS
 10
236.4613775348
 20
210.593610842
 11
236.4613775348
 21
212.9114162235
  0
LINE
  5
343
100
AcDbEntity
  8
0
100
AcDbLine
 62
250
  6
CONTINUOUS
 10
236.5657408025
 20
186.7471453227
 11
236.5657408025
 21
183.4465927974
  0
LINE
  5
344
100
AcDbEntity
  8
0
100
AcDbLine
 62
7
  6
CONTINUOUS
 10
237.0613775348
 20
186.5378615307
 11
237.0613775348
 21
183.6558765894
  0
LWPOLYLINE
  5
345
100
AcDbEntity
  8
0
100
AcDbPolyline
 62
250
  6
CONTINUOUS
 90
3
 70
0
 10
236.3273870718
 20
188.6242805785
 10
236.3275552457
 20
188.626803274
 10
236.3258460287
 20
188.6332668808
  0
LWPOLYLINE
  5
346
100
AcDbEntity
  8
0
100
AcDbPolyline
 62
250
  6
CONTINUOUS
 90
7
 70
0
 10
236.581426644
 20
183.2473538578
 10
236.5815036437
 20
183.2490764975
 10
236.581281352
 20
183.2541754274
 10
236.5807635685
 20
183.2625634879
 10
236.5799591387
 20
183.2740972952
 10
236.578881818
 20
183.2885796938
 10
236.5742181087
 20
183.3470170298
  0
LWPOLYLINE
  5
347
100
AcDbEntity
  8
0
100
AcDbPolyline
 62
250
  6
CONTINUOUS
 90
13
 70
0
 10
236.7570961083
 20
186.7371004707
 10
236.7583411752
 20
186.7625594209
 10
236.7582838165
 20
186.7876014497
 10
236.7569249723
 20
186.8118164688
 10
236.7542868957
 20
186.834807934
 10
236.7504127886
 20
186.8561993372
 10
236.7453660947
 20
186.8756403727
 10
236.7392294594
 20
186.8928126758
 10
236.7321033771
 20
186.9074350356
 10
236.7241045453
 20
186.9192679987
 10
236.7153639534
 20
186.9281177916
 10
236.7060247375
 20
186.9338394936
 10
236.6962398363
 20
186.9363394095
  0
LWPOLYLINE
  5
348
100
AcDbEntity
  8
0
100
AcDbPolyline
 62
250
  6
CONTINUOUS
 90
5
 70
0
 10
236.5799591543
 20
186.9196408231
 10
236.5807635669
 20
186.9311746321
 10
236.5812813436
 20
186.9395626933
 10
236.5815036359
 20
186.9446616233
 10
236.581426644
 20
186.9463842623
  0
LINE
  5
349
100
AcDbEntity
  8
0
100
AcDbLine
 62
250
  6
CONTINUOUS
 10
236.5775500997
 20
186.887974987
 11
236.5799591543
 21
186.9196408231
  0
LWPOLYLINE
  5
34A
100
AcDbEntity
  8
0
100
AcDbPolyline
 62
250
  6
CONTINUOUS
 90
19
 70
0
 10
237.0613775348
 20
183.6559437411
 10
237.0597763091
 20
183.6361629566
 10
237.0551856921
 20
183.6173956201
 10
237.0479286014
 20
183.5996417315
 10
237.0383361904
 20
183.5828597649
 10
237.0267220401
 20
183.5670912461
 10
237.0133601849
 20
183.5524607536
 10
236.9985733087
 20
183.5390419253
 10
236.9826007278
 20
183.5267611231
 10
236.9655042305
 20
183.5155220116
 10
236.9475904434
 20
183.505355957
 10
236.9289459595
 20
183.496231593
 10
236.9091245717
 20
183.4879584847
 10
236.8883016748
 20
183.480442698
 10
236.8664461191
 20
183.473778167
 10
236.8425561764
 20
183.4680562599
 10
236.8162095816
 20
183.4633074326
 10
236.7877229003
 20
183.4595012293
 10
236.7570961157
 20
183.4566376498
  0
LINE
  5
34B
100
AcDbEntity
  8
0
100
AcDbLine
 62
250
  6
CONTINUOUS
 10
236.5722750467
 20
186.8233557913
 11
236.5775500997
 21
186.887974987
  0
LINE
  5
34C
100
AcDbEntity
  8
0
100
AcDbLine
 62
250
  6
CONTINUOUS
 10
236.5657408025
 20
186.7471453227
 11
236.5722750467
 21
186.8233557913
  0
LWPOLYLINE
  5
34D
100
AcDbEntity
  8
0
100
AcDbPolyline
 62
7
  6
CONTINUOUS
 90
10
 70
0
 43
0.3500000087
 10
223.6884005737
 20
234.166695874
 10
223.7598194702
 20
234.0238410278
 10
223.7598194702
 20
233.9524221313
 10
223.616964624
 20
233.8095502319
 10
223.5455457275
 20
233.8095502319
 10
223.4741097778
 20
233.8809861816
 10
223.4741097778
 20
233.9524221313
 10
223.5455457275
 20
234.0952769775
 10
223.616964624
 20
234.166695874
 10
223.6884005737
 20
234.166695874
  0
LINE
  5
34E
100
AcDbEntity
  8
0
100
AcDbLine
 62
7
  6
CONTINUOUS
 10
234.8613775348
 20
210.5097583952
 11
236.4613775348
 21
210.593610842
  0
LINE
  5
34F
100
AcDbEntity
  8
0
100
AcDbLine
 62
250
  6
CONTINUOUS
 10
236.271844726
 20
188.7602267466
 11
235.971844726
 21
188.6203344491
  0
LINE
  5
350
100
AcDbEntity
  8
0
100
AcDbLine
 62
7
  6
CONTINUOUS
 10
236.374770274
 20
188.6463757286
 11
236.1566658782
 21
188.5446719785
  0
LINE
  5
351
100
AcDbEntity
  8
0
100
AcDbLine
 62
250
  6
CONTINUOUS
 10
235.971844726
 20
213.073403671
 11
236.271844726
 21
212.9335113735
  0
LINE
  5
352
100
AcDbEntity
  8
0
100
AcDbLine
 62
7
  6
CONTINUOUS
 10
236.1566658782
 20
213.1490661416
 11
236.374770274
 21
213.0473623915
  0
LINE
  5
353
100
AcDbEntity
  8
0
100
AcDbLine
 62
7
  6
CONTINUOUS
 10
234.8613775348
 20
214.1839797249
 11
236.1613775348
 21
214.1158496118
  0
LINE
  5
354
100
AcDbEntity
  8
0
100
AcDbLine
 62
250
  6
CONTINUOUS
 10
236.271844726
 20
212.9335113735
 11
236.4613775348
 21
212.9114162235
  0
LWPOLYLINE
  5
355
100
AcDbEntity
  8
0
100
AcDbPolyline
 62
250
  6
CONTINUOUS
 90
37
 70
0
 10
234.6639835778
 20
222.7565604582
 10
234.6696313592
 20
222.7534167745
 10
234.6746536027
 20
222.7484608694
 10
234.6790851491
 20
222.7418845586
 10
234.682980799
 20
222.73387965
 10
234.6863742344
 20
222.7246282664
 10
234.6892690082
 20
222.7142846203
 10
234.691710344
 20
222.7030009601
 10
234.6937465671
 20
222.6909263004
 10
234.6953764
 20
222.6781739109
 10
234.6966444708
 20
222.6648569107
 10
234.6975960692
 20
222.6510995873
 10
234.6982239204
 20
222.6370074266
 10
234.6985696663
 20
222.6226868416
 10
234.6986790292
 20
222.6082225906
 10
234.6985443027
 20
222.5936687555
 10
234.6982005218
 20
222.5791203321
 10
234.6976889878
 20
222.5646259433
 10
234.6969989814
 20
222.5501473635
 10
234.6961543108
 20
222.5357400374
 10
234.695187133
 20
222.5214447844
 10
234.694083602
 20
222.5071792283
 10
234.6928586727
 20
222.4929775342
 10
234.6915352666
 20
222.4788684922
 10
234.6900970442
 20
222.4647449092
 10
234.6885519898
 20
222.4506291498
 10
234.6869151337
 20
222.4365402273
 10
234.6851678557
 20
222.4223540958
 10
234.6833124296
 20
222.4080858963
 10
234.6813573039
 20
222.393749151
 10
234.6792815107
 20
222.3792095741
 10
234.6770822967
 20
222.3644790002
 10
234.6747628106
 20
222.3495688644
 10
234.6723002439
 20
222.3343400512
 10
234.6696817978
 20
222.3187537323
 10
234.6669107331
 20
222.3028735353
 10
234.6639835778
 20
222.2867141478
  0
LINE
  5
356
100
AcDbEntity
  8
0
100
AcDbLine
 62
250
  6
CONTINUOUS
 10
234.6639835778
 20
179.4070239723
 11
234.3613775348
 21
179.2968843799
  0
LINE
  5
357
100
AcDbEntity
  8
0
100
AcDbLine
 62
7
  6
CONTINUOUS
 10
234.6639835778
 20
178.9371776619
 11
234.3613775348
 21
178.8270380695
  0
LWPOLYLINE
  5
358
100
AcDbEntity
  8
0
100
AcDbPolyline
 62
250
  6
CONTINUOUS
 90
22
 70
0
 10
233.0220404208
 20
222.3462795146
 10
232.9503621575
 20
222.3395035145
 10
232.8809245314
 20
222.3284382286
 10
232.8137275425
 20
222.3130836571
 10
232.7488606979
 20
222.2933654763
 10
232.6862344904
 20
222.2693580097
 10
232.6255803989
 20
222.2412842283
 10
232.5665103514
 20
222.2090247689
 10
232.50941242
 20
222.1726989946
 10
232.4551822995
 20
222.1328879657
 10
232.4040867991
 20
222.0898793252
 10
232.3558591097
 20
222.0433854301
 10
232.3105944984
 20
221.9931244115
 10
232.2679855787
 20
221.938913417
 10
232.2283397372
 20
221.880935299
 10
232.1926744009
 20
221.8194567468
 10
232.1609244706
 20
221.7541531299
 10
232.1331550454
 20
221.6853490787
 10
232.1105788498
 20
221.6142851737
 10
232.0936001253
 20
221.5413749418
 10
232.0818146304
 20
221.4662048561
 10
232.0752223651
 20
221.3887749165
  0
LINE
  5
359
100
AcDbEntity
  8
0
100
AcDbLine
 62
250
  6
CONTINUOUS
 10
234.3613775348
 20
222.4164711985
 11
233.0220404208
 21
222.3462795146
  0
LINE
  5
35A
100
AcDbEntity
  8
0
100
AcDbLine
 62
7
  6
CONTINUOUS
 10
234.3613775348
 20
222.9167000506
 11
233.0045986459
 21
222.845594282
  0
LINE
  5
35B
100
AcDbEntity
  8
0
100
AcDbLine
 62
250
  6
CONTINUOUS
 10
234.8613775348
 20
222.2867141478
 11
234.6639835778
 21
222.2867141478
  0
LWPOLYLINE
  5
35C
100
AcDbEntity
  8
0
100
AcDbPolyline
 62
7
  6
CONTINUOUS
 90
8
 70
0
 43
0.3500000087
 10
220.9026884399
 20
233.6666953857
 10
221.7598345703
 20
233.6666953857
 10
222.1883991089
 20
234.0952769775
 10
222.1883991089
 20
234.9524060547
 10
221.7598345703
 20
235.3809876465
 10
220.9026884399
 20
235.3809876465
 10
220.9026884399
 20
236.6666983154
 10
222.1883991089
 20
236.6666983154
  0
LWPOLYLINE
  5
35D
100
AcDbEntity
  8
0
100
AcDbPolyline
 62
7
  6
CONTINUOUS
 90
6
 70
0
 43
0.3500000087
 10
224.7598204468
 20
233.6666953857
 10
225.831257373
 20
233.6666953857
 10
226.0455481689
 20
233.8809861816
 10
226.0455481689
 20
234.9524060547
 10
225.6169665771
 20
235.3809876465
 10
225.1884020386
 20
235.3809876465
  0
LWPOLYLINE
  5
35E
100
AcDbEntity
  8
0
100
AcDbPolyline
 62
250
  6
CONTINUOUS
 90
3
 70
0
 10
232.0752223651
 20
221.3887749165
 10
231.5870463981
 20
221.4091901556
 10
231.5843715623
 20
221.4093373849
  0
LINE
  5
35F
100
AcDbEntity
  8
0
100
AcDbLine
 62
250
  6
CONTINUOUS
 10
234.3613775348
 20
222.3968537402
 11
234.6639835778
 21
222.2867141478
  0
LINE
  5
360
100
AcDbEntity
  8
0
100
AcDbLine
 62
7
  6
CONTINUOUS
 10
234.3613775348
 20
222.8667000506
 11
234.6639835778
 21
222.7565604582
  0
ARC
  5
361
100
AcDbEntity
  8
0
100
AcDbCircle
 62
7
  6
CONTINUOUS
 10
233.0831025802
 20
180.3460881402
 40
1.5
100
AcDbArc
 50
182.3569499908
 51
267.0
  0
ARC
  5
362
100
AcDbEntity
  8
0
100
AcDbCircle
 62
7
  6
CONTINUOUS
 10
236.6613775348
 20
183.6558765894
 40
0.4
100
AcDbArc
 50
275.0
 51
360.0
  0
ARC
  5
363
100
AcDbEntity
  8
0
100
AcDbCircle
 62
7
  6
CONTINUOUS
 10
236.6613775348
 20
186.5378615307
 40
0.4
100
AcDbArc
 50
0.0
 51
85.0
  0
ARC
  5
364
100
AcDbEntity
  8
0
100
AcDbCircle
 62
7
  6
CONTINUOUS
 10
234.5613775348
 20
179.2190854481
 40
0.3
100
AcDbArc
 50
290.0
 51
360.0
  0
ARC
  5
365
100
AcDbEntity
  8
0
100
AcDbCircle
 62
7
  6
CONTINUOUS
 10
236.3113775348
 20
188.7823218966
 40
0.15
100
AcDbArc
 50
295.0
 51
360.0
  0
ARC
  5
366
100
AcDbEntity
  8
0
100
AcDbCircle
 62
7
  6
CONTINUOUS
 10
233.0831025802
 20
221.3476499799
 40
1.5
100
AcDbArc
 50
93.0
 51
177.6430500092
  0
ARC
  5
367
100
AcDbEntity
  8
0
100
AcDbCircle
 62
7
  6
CONTINUOUS
 10
234.5613775348
 20
222.474652672
 40
0.3
100
AcDbArc
 50
0.0
 51
70.0
  0
ARC
  5
368
100
AcDbEntity
  8
0
100
AcDbCircle
 62
7
  6
CONTINUOUS
 10
236.3113775348
 20
212.9114162235
 40
0.15
100
AcDbArc
 50
0.0
 51
65.0
  0
ARC
  5
369
100
AcDbEntity
  8
0
100
AcDbCircle
 62
7
  6
CONTINUOUS
 10
731.1613775348
 20
200.8468690601
 40
500.0
100
AcDbArc
 50
177.6430500092
 51
182.3569499908
  0
ELLIPSE
  5
36A
100
AcDbEntity
  8
0
100
AcDbEllipse
 62
7
  6
CONTINUOUS
 10
303.4786009966
 20
200.8468690601
 30
0.0
 11
501.0650251186
 21
-499.6444881004
 31
0.0
 40
0.0376232033
 41
-1.6043254521
 42
-1.6035336208
  0
ELLIPSE
  5
36B
100
AcDbEntity
  8
0
100
AcDbEllipse
 62
7
  6
CONTINUOUS
 10
227.2766999172
 20
200.8468690601
 30
0.0
 11
501.0650251186
 21
-499.6444881004
 31
0.0
 40
0.0376232033
 41
1.5272594126
 42
1.5280515459
  0
ELLIPSE
  5
36C
100
AcDbEntity
  8
0
100
AcDbEllipse
 62
7
  6
CONTINUOUS
 10
292.0490909532
 20
200.8468690601
 30
0.0
 11
0.0
 21
500.0
 31
0.0
 40
0.053282881
 41
-4.7056489294
 42
-4.7045288995
  0
ELLIPSE
  5
36D
100
AcDbEntity
  8
0
100
AcDbEllipse
 62
7
  6
CONTINUOUS
 10
238.1662099606
 20
200.8468690601
 30
0.0
 11
0.0
 21
500.0
 31
0.0
 40
0.053282881
 41
-1.5786564077
 42
-1.5775363778
  0
ELLIPSE
  5
36E
100
AcDbEntity
  8
0
100
AcDbEllipse
 62
7
  6
CONTINUOUS
 10
302.9386009966
 20
200.8468690601
 30
0.0
 11
501.0650251186
 21
499.6444881004
 31
0.0
 40
0.0376232033
 41
1.6135411077
 42
1.614333241
  0
ELLIPSE
  5
36F
100
AcDbEntity
  8
0
100
AcDbEllipse
 62
7
  6
CONTINUOUS
 10
226.7366999172
 20
200.8468690601
 30
0.0
 11
501.0650251186
 21
499.6444881004
 31
0.0
 40
0.0376232033
 41
-1.5380590328
 42
-1.5372672015
  0
ELLIPSE
  5
370
100
AcDbEntity
  8
0
100
AcDbEllipse
 62
7
  6
CONTINUOUS
 10
239.3962099606
 20
200.8468690601
 30
0.0
 11
-0.0
 21
500.0
 31
0.0
 40
0.053282881
 41
-1.5661041513
 42
-1.5638371359
  0
ELLIPSE
  5
371
100
AcDbEntity
  8
0
100
AcDbEllipse
 62
7
  6
CONTINUOUS
 10
293.2790909532
 20
200.8468690601
 30
0.0
 11
0.0
 21
500.0
 31
0.0
 40
0.053282881
 41
1.5637329558
 42
1.5660544638
  0
ELLIPSE
  5
372
100
AcDbEntity
  8
0
100
AcDbEllipse
 62
7
  6
CONTINUOUS
 10
275.6301523189
 20
179.2777242425
 30
0.0
 11
0.1582391023
 21
-0.4751033573
 31
0.0
 40
0.9984778551
 41
-0.3210503505
 42
1.2488325878
  0
ELLIPSE
  5
373
100
AcDbEntity
  8
0
100
AcDbEllipse
 62
7
  6
CONTINUOUS
 10
275.6301523189
 20
222.4160138776
 30
0.0
 11
-0.1582391023
 21
-0.4751033573
 31
0.0
 40
0.9984778551
 41
1.8927600658
 42
3.4626430041
  0
ELLIPSE
  5
374
100
AcDbEntity
  8
0
100
AcDbEllipse
 62
7
  6
CONTINUOUS
 10
254.5851485949
 20
222.4160138776
 30
0.0
 11
-0.1582391023
 21
0.4751033573
 31
0.0
 40
0.9984778551
 41
-0.3210503505
 42
1.2488325878
  0
ELLIPSE
  5
375
100
AcDbEntity
  8
0
100
AcDbEllipse
 62
7
  6
CONTINUOUS
 10
254.5851485949
 20
179.2777242425
 30
0.0
 11
0.1582391023
 21
0.4751033573
 31
0.0
 40
0.9984778551
 41
1.8927600658
 42
3.4626430041
  0
ENDSEC
  0
SECTION
  2
OBJECTS
  0
DICTIONARY
  5
C
100
AcDbDictionary
280
0
281
1
  3
ACAD_GROUP
350
D
  3
ACAD_MLINESTYLE
350
17
  3
ACAD_LAYOUT
350
1A
  3
ACAD_PLOTSETTINGS
350
19
  3
ACAD_PLOTSTYLENAME
350
E
  0
DICTIONARY
  5
D
102
{ACAD_REACTORS
330
C
102
}
100
AcDbDictionary
280
0
281
1
  0
ACDBDICTIONARYWDFLT
  5
E
102
{ACAD_REACTORS
330
C
102
}
100
AcDbDictionary
281
1
  3
Normal
350
F
100
AcDbDictionaryWithDefault
340
F
  0
DICTIONARY
  5
17
102
{ACAD_REACTORS
330
C
102
}
100
AcDbDictionary
280
0
281
1
  3
Standard
350
18
  0
DICTIONARY
  5
19
102
{ACAD_REACTORS
330
C
102
}
100
AcDbDictionary
281
1
  0
DICTIONARY
  5
1A
102
{ACAD_REACTORS
330
C
102
}
100
AcDbDictionary
281
1
  3
Model
350
376
  3
Layout1
350
377
  0
ACDBPLACEHOLDER
  5
F
102
{ACAD_REACTORS
330
E
102
}
  0
MLINESTYLE
  5
18
102
{ACAD_REACTORS
330
17
102
}
100
AcDbMlineStyle
  2
STANDARD
 70
0
  3

 62
256
 51
90.0
 52
90.0
 71
2
 49
0.5
 62
256
  6
BYLAYER
 49
-0.5
 62
256
  6
BYLAYER
  0
LAYOUT
  5
376
102
{ACAD_REACTORS
330
1A
102
}
100
AcDbPlotSettings
  1

  2
none_device
  4
ANSI_C_(22.00_x_17.00_Inches)
  6

 40
0.0
 41
0.0
 42
0.0
 43
0.0
 44
558.8
 45
431.8
 46
0.0
 47
0.0
 48
0.0
 49
0.0
140
0.0
141
0.0
142
1.0
143
1.0
 70
1024
 72
1
 73
0
 74
0
  7

 75
0
147
1.0
148
0.0
149
0.0
100
AcDbLayout
  1
Model
 70
0
 71
0
 10
0.0
 20
0.0
 11
558.8
 21
431.8
 12
0.0
 22
0.0
 32
0.0
 14
0.0
 24
0.0
 34
0.0
 15
0.0
 25
0.0
 35
0.0
146
0.0
 13
0.0
 23
0.0
 33
0.0
 16
1.0
 26
0.0
 36
0.0
 17
0.0
 27
1.0
 37
0.0
 76
0
330
214
345
0
346
0
  0
LAYOUT
  5
377
102
{ACAD_REACTORS
330
1A
102
}
100
AcDbPlotSettings
  1

  2
none_device
  4
ANSI_C_(22.00_x_17.00_Inches)
  6

 40
0.0
 41
0.0
 42
0.0
 43
0.0
 44
558.8
 45
431.8
 46
0.0
 47
0.0
 48
0.0
 49
0.0
140
0.0
141
0.0
142
1.0
143
1.0
 70
0
 72
1
 73
0
 74
0
  7

 75
0
147
1.0
148
0.0
149
0.0
100
AcDbLayout
  1
Layout1
 70
0
 71
1
 10
0.0
 20
0.0
 11
558.8
 21
431.8
 12
0.0
 22
0.0
 32
0.0
 14
0.0
 24
0.0
 34
0.0
 15
0.0
 25
0.0
 35
0.0
146
0.0
 13
0.0
 23
0.0
 33
0.0
 16
1.0
 26
0.0
 36
0.0
 17
0.0
 27
1.0
 37
0.0
 76
0
330
215
345
0
346
0
  0
ENDSEC
  0
EOF
