  0
SECTION
  2
HEADER
  9
$ACADVER
  1
AC1024
  9
$DWGCODEPAGE
  3
ANSI_1252
  9
$EXTMAX
 10
558.8
 20
431.8
 30
0.0
  9
$EXTMIN
 10
0.0
 20
0.0
 30
0.0
  9
$LIMMIN
 10
0.0
 20
0.0
  9
$LIMMAX
 10
558.8
 20
431.8
  9
$VIEWCTR
 10
279.4
 20
215.9
  9
$VIEWSIZE
 40
431.8
  9
$CLAYER
  8
0
  9
$LTSCALE
 40
30.734
  9
$CELTYPE
  6
BYLAYER
  9
$DIMSCALE
 40
1.0
  9
$DIMASZ
 40
3.0
  9
$DIMEXO
 40
0.5
  9
$DIMDLI
 40
21.2344
  9
$DIMEXE
 40
1.5
  9
$DIMCEN
 40
5.0292
  9
$DIMLFAC
 40
1.0
  9
$DIMBLK
  1
_FILLED
  9
$DIMALT
 70
0
  9
$DIMALTF
 40
0.0393700787
  9
$DIMTXT
 40
3.0
  9
$DIMTOL
 70
1
  9
$DIMLIM
 70
0
  9
$DIMTFAC
 40
1.0
  9
$DIMTP
 40
0.01
  9
$DIMTM
 40
0.01
  9
$DIMGAP
 40
0.625
  9
$DIMDSEP
 70
44
  9
$AUNITS
 70
0
  9
$PDMODE
 70
3
  9
$PDSIZE
 40
3.0
  9
$HANDSEED
  5
355
  9
$TILEMODE
 70
1
  9
$MEASUREMENT
 70
1
  9
$INSUNITS
 70
4
  0
ENDSEC
  0
SECTION
  2
CLASSES
  0
CLASS
  1
ACDBDICTIONARYWDFLT
  2
AcDbDictionaryWithDefault
  3
AutoCAD 2000
 90
0
 91
1
280
0
281
0
  0
CLASS
  1
ACDBPLACEHOLDER
  2
AcDbPlaceHolder
  3
AutoCAD 2000
 90
0
 91
1
280
0
281
0
  0
CLASS
  1
LAYOUT
  2
AcDbLayout
  3
AutoCAD 2000
 90
0
 91
0
280
0
281
0
  0
ENDSEC
  0
SECTION
  2
TABLES
  0
TABLE
  2
VPORT
  5
8
100
AcDbSymbolTable
 70
2
  0
VPORT
  5
1F4
100
AcDbSymbolTableRecord
100
AcDbViewportTableRecord
  2
*ACTIVE
 70
0
 10
0.0
 20
0.0
 11
1.0
 21
1.0
 12
279.4
 22
215.9
 13
0.0
 23
0.0
 14
1.0
 24
1.0
 15
0.0
 25
0.0
 16
0.0
 26
0.0
 36
1.0
 17
0.0
 27
0.0
 37
0.0
 40
431.8
 41
1.2941176471
 42
50.0
 43
0.0
 44
0.0
 50
0.0
 51
0.0
 71
0
 72
100
 73
1
 74
1
 75
0
 76
0
 77
0
 78
0
  0
ENDTAB
  0
TABLE
  2
LTYPE
  5
5
100
AcDbSymbolTable
 70
6
  0
LTYPE
  5
14
100
AcDbSymbolTableRecord
100
AcDbLinetypeTableRecord
  2
BYBLOCK
 70
0
  3

 72
65
 73
0
 40
0.0
  0
LTYPE
  5
15
100
AcDbSymbolTableRecord
100
AcDbLinetypeTableRecord
  2
BYLAYER
 70
0
  3

 72
65
 73
0
 40
0.0
  0
LTYPE
  5
16
100
AcDbSymbolTableRecord
100
AcDbLinetypeTableRecord
  2
CONTINUOUS
 70
64
  3
Solid line
 72
65
 73
0
 40
0.0
  0
LTYPE
  5
1F5
100
AcDbSymbolTableRecord
100
AcDbLinetypeTableRecord
  2
CENTER
 70
64
  3
____ _ ____ _ ____ _ ____ _ ____ _ ____ _ ____
 72
65
 73
4
 40
0.6
 49
0.375
 74
0
 49
-0.075
 74
0
 49
0.075
 74
0
 49
-0.075
 74
0
  0
LTYPE
  5
1F6
100
AcDbSymbolTableRecord
100
AcDbLinetypeTableRecord
  2
HIDDEN
 70
64
  3
- - - - - - - - - - - - - - - - - - - -
 72
65
 73
2
 40
0.2
 49
0.1
 74
0
 49
-0.1
 74
0
  0
LTYPE
  5
1F7
100
AcDbSymbolTableRecord
100
AcDbLinetypeTableRecord
  2
PHANTOM
 70
64
  3
_____ _ _ _____ _ _ _____ _ _ _____
 72
65
 73
6
 40
0.8
 49
0.45
 74
0
 49
-0.05
 74
0
 49
0.1
 74
0
 49
-0.05
 74
0
 49
0.1
 74
0
 49
-0.05
 74
0
  0
LTYPE
  5
1F8
100
AcDbSymbolTableRecord
100
AcDbLinetypeTableRecord
  2
DOT
 70
64
  3
. . . . . . . . . . . . . . . . . . . .
 72
65
 73
2
 40
0.2
 49
0.1
 74
0
 49
-0.1
 74
0
  0
LTYPE
  5
1F9
100
AcDbSymbolTableRecord
100
AcDbLinetypeTableRecord
  2
DASHED
 70
64
  3
- - - - - - - - - - - - - - - - - - - -
 72
65
 73
2
 40
0.2
 49
0.1
 74
0
 49
-0.1
 74
0
  0
ENDTAB
  0
TABLE
  2
LAYER
  5
2
100
AcDbSymbolTable
 70
36
  0
LAYER
  5
10
100
AcDbSymbolTableRecord
100
AcDbLayerTableRecord
  2
0
 70
0
 62
7
  6
CONTINUOUS
370
-3
390
F
  0
LAYER
  5
1FA
100
AcDbSymbolTableRecord
100
AcDbLayerTableRecord
  2
DEFAULT_1
 70
0
 62
7
  6
CENTER
370
-3
390
F
  0
LAYER
  5
1FB
100
AcDbSymbolTableRecord
100
AcDbLayerTableRecord
  2
DEFAULT_2
 70
0
 62
7
  6
HIDDEN
370
-3
390
F
  0
LAYER
  5
1FC
100
AcDbSymbolTableRecord
100
AcDbLayerTableRecord
  2
DEFAULT_3
 70
0
 62
7
  6
PHANTOM
370
-3
390
F
  0
LAYER
  5
1FD
100
AcDbSymbolTableRecord
100
AcDbLayerTableRecord
  2
ASSI
 70
0
 62
7
  6
CONTINUOUS
370
-3
390
F
  0
LAYER
  5
1FE
100
AcDbSymbolTableRecord
100
AcDbLayerTableRecord
  2
COORDINATE
 70
0
 62
7
  6
CONTINUOUS
370
-3
390
F
  0
LAYER
  5
1FF
100
AcDbSymbolTableRecord
100
AcDbLayerTableRecord
  2
COPY_PUBLISH
 70
0
 62
7
  6
CONTINUOUS
370
-3
390
F
  0
LAYER
  5
200
100
AcDbSymbolTableRecord
100
AcDbLayerTableRecord
  2
COSMETIC
 70
0
 62
7
  6
CONTINUOUS
370
-3
390
F
  0
LAYER
  5
201
100
AcDbSymbolTableRecord
100
AcDbLayerTableRecord
  2
COSMETICI
 70
0
 62
7
  6
CONTINUOUS
370
-3
390
F
  0
LAYER
  5
202
100
AcDbSymbolTableRecord
100
AcDbLayerTableRecord
  2
CURVE
 70
0
 62
7
  6
CONTINUOUS
370
-3
390
F
  0
LAYER
  5
203
100
AcDbSymbolTableRecord
100
AcDbLayerTableRecord
  2
DRAFT
 70
0
 62
7
  6
CONTINUOUS
370
-3
390
F
  0
LAYER
  5
204
100
AcDbSymbolTableRecord
100
AcDbLayerTableRecord
  2
IMPORT_IGES
 70
0
 62
7
  6
CONTINUOUS
370
-3
390
F
  0
LAYER
  5
205
100
AcDbSymbolTableRecord
100
AcDbLayerTableRecord
  2
INTFCLR_11
 70
0
 62
7
  6
CONTINUOUS
370
-3
390
F
  0
LAYER
  5
206
100
AcDbSymbolTableRecord
100
AcDbLayerTableRecord
  2
INTF_1
 70
0
 62
7
  6
CONTINUOUS
370
-3
390
F
  0
LAYER
  5
207
100
AcDbSymbolTableRecord
100
AcDbLayerTableRecord
  2
INTF_3
 70
0
 62
7
  6
CONTINUOUS
370
-3
390
F
  0
LAYER
  5
208
100
AcDbSymbolTableRecord
100
AcDbLayerTableRecord
  2
NOTE
 70
0
 62
7
  6
CONTINUOUS
370
-3
390
F
  0
LAYER
  5
209
100
AcDbSymbolTableRecord
100
AcDbLayerTableRecord
  2
PIANI
 70
0
 62
7
  6
CONTINUOUS
370
-3
390
F
  0
LAYER
  5
20A
100
AcDbSymbolTableRecord
100
AcDbLayerTableRecord
  2
PUNTI
 70
0
 62
7
  6
CONTINUOUS
370
-3
390
F
  0
LAYER
  5
20B
100
AcDbSymbolTableRecord
100
AcDbLayerTableRecord
  2
RACCORDO
 70
0
 62
7
  6
CONTINUOUS
370
-3
390
F
  0
LAYER
  5
20C
100
AcDbSymbolTableRecord
100
AcDbLayerTableRecord
  2
SIMBOLI
 70
0
 62
7
  6
CONTINUOUS
370
-3
390
F
  0
LAYER
  5
20D
100
AcDbSymbolTableRecord
100
AcDbLayerTableRecord
  2
SMUSSO
 70
0
 62
7
  6
CONTINUOUS
370
-3
390
F
  0
LAYER
  5
20E
100
AcDbSymbolTableRecord
100
AcDbLayerTableRecord
  2
SNAPLINE
 70
0
 62
7
  6
CONTINUOUS
370
-3
390
F
  0
LAYER
  5
20F
100
AcDbSymbolTableRecord
100
AcDbLayerTableRecord
  2
SUPERFICI
 70
0
 62
7
  6
CONTINUOUS
370
-3
390
F
  0
LAYER
  5
210
100
AcDbSymbolTableRecord
100
AcDbLayerTableRecord
  2
TRASH
 70
0
 62
7
  6
CONTINUOUS
370
-3
390
F
  0
LAYER
  5
211
100
AcDbSymbolTableRecord
100
AcDbLayerTableRecord
  2
___SHELL
 70
0
 62
7
  6
CONTINUOUS
370
-3
390
F
  0
ENDTAB
  0
TABLE
  2
STYLE
  5
3
100
AcDbSymbolTable
 70
1
  0
STYLE
  5
11
100
AcDbSymbolTableRecord
100
AcDbTextStyleTableRecord
  2
STANDARD
 70
0
 40
0.0
 41
0.8
 50
0.0
 71
0
 42
0.2
  3
txt
  4

  0
STYLE
  5
212
100
AcDbSymbolTableRecord
100
AcDbTextStyleTableRecord
  2
TEXTSTYLE_1
 70
0
 40
0.0
 41
0.8
 50
0.0
 71
0
 42
0.2
  3
gdt
  4

  0
ENDTAB
  0
TABLE
  2
VIEW
  5
6
100
AcDbSymbolTable
 70
0
  0
ENDTAB
  0
TABLE
  2
UCS
  5
7
100
AcDbSymbolTable
 70
0
  0
ENDTAB
  0
TABLE
  2
APPID
  5
9
100
AcDbSymbolTable
 70
1
  0
APPID
  5
213
100
AcDbSymbolTableRecord
100
AcDbRegAppTableRecord
  2
ACAD
 70
0
  0
ENDTAB
  0
TABLE
  2
BLOCK_RECORD
  5
1
100
AcDbSymbolTable
 70
0
  0
BLOCK_RECORD
  5
214
100
AcDbSymbolTableRecord
100
AcDbBlockTableRecord
  2
*Model_Space
  0
BLOCK_RECORD
  5
215
100
AcDbSymbolTableRecord
100
AcDbBlockTableRecord
  2
*Paper_Space
  0
BLOCK_RECORD
  5
216
100
AcDbSymbolTableRecord
100
AcDbBlockTableRecord
  2
_FILLED
  0
BLOCK_RECORD
  5
217
100
AcDbSymbolTableRecord
100
AcDbBlockTableRecord
  2
*D0
  0
BLOCK_RECORD
  5
218
100
AcDbSymbolTableRecord
100
AcDbBlockTableRecord
  2
*D1
  0
BLOCK_RECORD
  5
219
100
AcDbSymbolTableRecord
100
AcDbBlockTableRecord
  2
*D2
  0
ENDTAB
  0
TABLE
  2
DIMSTYLE
  5
A
100
AcDbSymbolTable
 70
1
100
AcDbDimStyleTable
 71
0
  0
DIMSTYLE
105
21A
100
AcDbSymbolTableRecord
100
AcDbDimStyleTableRecord
  2
STANDARD
 70
0
  3

  4

 40
1.0
 41
3.0
 42
0.5
 43
0.38
 44
1.5
 45
0.0
 46
0.0
 47
0.01
 48
0.01
140
3.0
141
0.09
142
0.0
143
25.4
144
1.0
145
0.0
146
1.0
147
0.625
 71
1
 72
0
 73
0
 74
0
 75
0
 76
0
 77
1
 78
8
 79
2
170
0
171
1
172
0
173
0
174
0
175
0
176
0
177
0
178
0
270
2
179
2
271
2
272
2
273
2
274
2
275
0
280
0
281
0
282
0
283
1
284
8
285
0
286
0
287
3
288
0
340
11
278
44
341
216
342
216
343
216
344
216
  0
DIMSTYLE
105
21B
100
AcDbSymbolTableRecord
100
AcDbDimStyleTableRecord
  2
DIMSTYLE_1
 70
0
  3

  4

 40
1.0
 41
3.0
 42
0.5
 43
0.38
 44
1.5
 45
0.0
 46
0.0
 47
0.0
 48
0.0
140
3.0
141
0.09
142
0.0
143
25.4
144
1.0
145
0.0
146
1.0
147
0.75
 71
0
 72
0
 73
0
 74
0
 75
0
 76
0
 77
1
 78
8
 79
2
170
0
171
1
172
0
173
0
174
0
175
0
176
0
177
0
178
0
270
2
179
2
271
1
272
1
273
2
274
2
275
0
280
0
281
0
282
0
283
1
284
8
285
0
286
0
287
3
288
0
340
11
278
44
341
216
342
216
343
216
344
216
  0
DIMSTYLE
105
21C
100
AcDbSymbolTableRecord
100
AcDbDimStyleTableRecord
  2
DIMSTYLE_2
 70
0
  3

  4

 40
1.0
 41
3.0
 42
0.5
 43
0.38
 44
1.5
 45
0.0
 46
0.0
 47
0.0
 48
0.0
140
3.0
141
0.09
142
0.0
143
25.4
144
1.0
145
0.0
146
1.0
147
0.75
 71
0
 72
0
 73
0
 74
0
 75
0
 76
0
 77
1
 78
8
 79
2
170
0
171
1
172
0
173
0
174
0
175
0
176
0
177
0
178
0
270
2
179
2
271
2
272
2
273
2
274
2
275
0
280
0
281
0
282
0
283
1
284
8
285
0
286
0
287
3
288
0
340
11
278
44
341
216
342
216
343
216
344
216
  0
ENDTAB
  0
ENDSEC
  0
SECTION
  2
BLOCKS
  0
BLOCK
  5
20
100
AcDbEntity
  8
0
100
AcDbBlockBegin
  2
*Model_Space
 70
0
 10
0.0
 20
0.0
 30
0.0
  3
*Model_Space
  1

  0
ENDBLK
  5
21
100
AcDbEntity
  8
0
100
AcDbBlockEnd
  0
BLOCK
  5
1C
100
AcDbEntity
  8
0
100
AcDbBlockBegin
  2
*Paper_Space
 70
0
 10
0.0
 20
0.0
 30
0.0
  3
*Paper_Space
  1

  0
ENDBLK
  5
1D
100
AcDbEntity
  8
0
100
AcDbBlockEnd
  0
BLOCK
  5
21D
100
AcDbEntity
  8
0
100
AcDbBlockBegin
  2
_FILLED
 70
64
 10
0.0
 20
0.0
  3
_FILLED
  1

  0
SOLID
  5
21E
100
AcDbEntity
  8
0
  6
BYBLOCK
 62
0
100
AcDbTrace
 10
0.0
 20
0.0
 11
-1.0
 21
0.3166666667
 12
-1.0
 22
-0.3166666667
 13
-1.0
 23
-0.3166666667
  0
ENDBLK
  5
21F
100
AcDbEntity
  8
0
  6
BYBLOCK
 62
0
100
AcDbBlockEnd
  0
BLOCK
  5
220
100
AcDbEntity
  8
0
100
AcDbBlockBegin
 62
7
  6
CONTINUOUS
  2
*D0
 70
65
 10
0.0
 20
0.0
  3
*D0
  1

  0
MTEXT
  5
221
100
AcDbEntity
  8
0
100
AcDbMText
 62
7
  6
CONTINUOUS
  7
STANDARD
 71
2
 72
1
 10
250.7783697781
 20
211.7111005728
 30
0.0
 11
1.0
 21
0.0
 31
0.0
 73
2
 44
0.9
  1
{\ftxt;\W0.0001;\H0.0001;\~}{\ftxt;\W1.5714285714;\H3.0; }{\ftxt;\W0.0001;\H0.0001;\~}
 40
3.0
 41
7.0714285714
  0
LINE
  5
222
100
AcDbEntity
  8
0
100
AcDbLine
 62
7
  6
CONTINUOUS
 10
239.755791752
 20
197.9608717207
 11
239.755791752
 21
209.4611005728
  0
LINE
  5
223
100
AcDbEntity
  8
0
100
AcDbLine
 62
7
  6
CONTINUOUS
 10
261.8009478041
 20
197.9608717207
 11
261.8009478041
 21
209.4611005728
  0
LINE
  5
224
100
AcDbEntity
  8
0
100
AcDbLine
 62
7
  6
CONTINUOUS
 10
239.755791752
 20
207.9611005728
 11
250.7783697781
 21
207.9611005728
  0
LINE
  5
225
100
AcDbEntity
  8
0
100
AcDbLine
 62
7
  6
CONTINUOUS
 10
261.8009478041
 20
207.9611005728
 11
250.7783697781
 21
207.9611005728
  0
INSERT
  5
226
100
AcDbEntity
  8
0
100
AcDbBlockReference
 62
7
  6
CONTINUOUS
  2
_FILLED
 10
239.755791752
 20
207.9611005728
 41
3.0
 42
3.0
 43
3.0
 50
180.0
  0
INSERT
  5
227
100
AcDbEntity
  8
0
100
AcDbBlockReference
 62
7
  6
CONTINUOUS
  2
_FILLED
 10
261.8009478041
 20
207.9611005728
 41
3.0
 42
3.0
 43
3.0
  0
ENDBLK
  5
228
100
AcDbEntity
  8
0
  6
BYBLOCK
 62
0
100
AcDbBlockEnd
  0
BLOCK
  5
229
100
AcDbEntity
  8
0
100
AcDbBlockBegin
 62
7
  6
CONTINUOUS
  2
*D1
 70
65
 10
0.0
 20
0.0
  3
*D1
  1

  0
MTEXT
  5
22A
100
AcDbEntity
  8
0
100
AcDbMText
 62
7
  6
CONTINUOUS
  7
STANDARD
 71
2
 72
1
 10
268.0509478041
 20
175.8912695822
 30
0.0
 11
0.0
 21
1.0
 31
0.0
 73
2
 44
0.9
  1
{\ftxt;\W0.0001;\H0.0001;\~}{\ftxt;\W2.7142857143;\H3.0; }{\ftxt;\W0.0001;\H0.0001;\~}
 40
3.0
 41
12.2142857143
  0
LINE
  5
22B
100
AcDbEntity
  8
0
100
AcDbLine
 62
7
  6
CONTINUOUS
 10
261.8013284038
 20
197.9611005728
 11
273.3009478041
 21
197.9611005728
  0
LINE
  5
22C
100
AcDbEntity
  8
0
100
AcDbLine
 62
7
  6
CONTINUOUS
 10
261.8013284038
 20
153.8214385917
 11
273.3009478041
 21
153.8214385917
  0
LINE
  5
22D
100
AcDbEntity
  8
0
100
AcDbLine
 62
7
  6
CONTINUOUS
 10
271.8009478041
 20
197.9611005728
 11
271.8009478041
 21
175.8912695822
  0
LINE
  5
22E
100
AcDbEntity
  8
0
100
AcDbLine
 62
7
  6
CONTINUOUS
 10
271.8009478041
 20
153.8214385917
 11
271.8009478041
 21
175.8912695822
  0
INSERT
  5
22F
100
AcDbEntity
  8
0
100
AcDbBlockReference
 62
7
  6
CONTINUOUS
  2
_FILLED
 10
271.8009478041
 20
197.9611005728
 41
3.0
 42
3.0
 43
3.0
 50
90.0
  0
INSERT
  5
230
100
AcDbEntity
  8
0
100
AcDbBlockReference
 62
7
  6
CONTINUOUS
  2
_FILLED
 10
271.8009478041
 20
153.8214385917
 41
3.0
 42
3.0
 43
3.0
 50
270.0
  0
ENDBLK
  5
231
100
AcDbEntity
  8
0
  6
BYBLOCK
 62
0
100
AcDbBlockEnd
  0
BLOCK
  5
232
100
AcDbEntity
  8
0
100
AcDbBlockBegin
 62
7
  6
CONTINUOUS
  2
*D2
 70
65
 10
0.0
 20
0.0
  3
*D2
  1

  0
MTEXT
  5
233
100
AcDbEntity
  8
0
100
AcDbMText
 62
7
  6
CONTINUOUS
  7
STANDARD
 71
3
 72
1
 10
211.9879148219
 20
211.7111005728
 30
0.0
 11
1.0
 21
0.0
 31
0.0
 73
2
 44
0.9
  1
{\ftxt;\W0.0001;\H0.0001;\~}{\ftxt;\W2.0;\H3.0; }{\ftxt;\W0.0001;\H0.0001;\~}
 40
3.0
 41
9.0
  0
LINE
  5
234
100
AcDbEntity
  8
0
100
AcDbLine
 62
7
  6
CONTINUOUS
 10
221.9995939207
 20
188.4558167457
 11
221.9995939207
 21
209.4611005728
  0
LINE
  5
235
100
AcDbEntity
  8
0
100
AcDbLine
 62
7
  6
CONTINUOUS
 10
216.6995939207
 20
176.3912695822
 11
216.6995939207
 21
209.4611005728
  0
LINE
  5
236
100
AcDbEntity
  8
0
100
AcDbLine
 62
7
  6
CONTINUOUS
 10
221.9995939207
 20
207.9611005728
 11
225.9995939207
 21
207.9611005728
  0
LINE
  5
237
100
AcDbEntity
  8
0
100
AcDbLine
 62
7
  6
CONTINUOUS
 10
225.9995939207
 20
207.9611005728
 11
219.3495939207
 21
207.9611005728
  0
LINE
  5
238
100
AcDbEntity
  8
0
100
AcDbLine
 62
7
  6
CONTINUOUS
 10
216.6995939207
 20
207.9611005728
 11
205.9879148219
 21
207.9611005728
  0
LINE
  5
239
100
AcDbEntity
  8
0
100
AcDbLine
 62
7
  6
CONTINUOUS
 10
205.9879148219
 20
207.9611005728
 11
219.3495939207
 21
207.9611005728
  0
INSERT
  5
23A
100
AcDbEntity
  8
0
100
AcDbBlockReference
 62
7
  6
CONTINUOUS
  2
_FILLED
 10
221.9995939207
 20
207.9611005728
 41
3.0
 42
3.0
 43
3.0
 50
180.0
  0
INSERT
  5
23B
100
AcDbEntity
  8
0
100
AcDbBlockReference
 62
7
  6
CONTINUOUS
  2
_FILLED
 10
216.6995939207
 20
207.9611005728
 41
3.0
 42
3.0
 43
3.0
  0
ENDBLK
  5
23C
100
AcDbEntity
  8
0
  6
BYBLOCK
 62
0
100
AcDbBlockEnd
  0
ENDSEC
  0
SECTION
  2
ENTITIES
  0
DIMENSION
  5
23D
100
AcDbEntity
  8
0
100
AcDbDimension
 62
7
  6
CONTINUOUS
  2
*D0
 10
261.8009478041
 20
207.9611005728
 11
250.3498010986
 21
207.9611005728
 70
160
 71
2
 72
2
 41
0.9
 42
22.045156052
  1
{\ftxt;\W0.0001;\H0.0001;\~}{\ftxt;\W1.5714285714;\H3.0; }{\ftxt;\W0.0001;\H0.0001;\~}
  3
DIMSTYLE_1
100
AcDbAlignedDimension
 13
239.755791752
 23
197.4608717207
 14
261.8009478041
 24
197.4608717207
100
AcDbRotatedDimension
  0
DIMENSION
  5
23E
100
AcDbEntity
  8
0
100
AcDbDimension
 62
7
  6
CONTINUOUS
  2
*D1
 10
271.8009478041
 20
153.8214385917
 11
271.8009478041
 21
175.4626982971
 70
160
 71
2
 72
2
 41
0.9
 42
44.139661981
  1
{\ftxt;\W0.0001;\H0.0001;\~}{\ftxt;\W2.7142857143;\H3.0; }{\ftxt;\W0.0001;\H0.0001;\~}
  3
DIMSTYLE_1
100
AcDbAlignedDimension
 13
261.3013284038
 23
197.9611005728
 14
261.3013284038
 24
153.8214385917
 50
270.0
100
AcDbRotatedDimension
  0
DIMENSION
  5
23F
100
AcDbEntity
  8
0
100
AcDbDimension
 62
7
  6
CONTINUOUS
  2
*D2
 10
216.6995939207
 20
207.9611005728
 11
208.5593441895
 21
207.9611005728
 70
160
 71
3
 72
2
 41
0.9
 42
5.3
  1
{\ftxt;\W0.0001;\H0.0001;\~}{\ftxt;\W2.0;\H3.0; }{\ftxt;\W0.0001;\H0.0001;\~}
  3
DIMSTYLE_2
100
AcDbAlignedDimension
 13
221.9995939207
 23
187.9558167457
 14
216.6995939207
 24
175.8912695822
 50
180.0
100
AcDbRotatedDimension
  0
LWPOLYLINE
  5
240
100
AcDbEntity
  8
0
100
AcDbPolyline
 62
250
  6
CONTINUOUS
 90
14
 70
0
 10
239.795696739
 20
196.43317543
 10
239.7992761241
 20
196.4353013044
 10
239.8081734318
 20
196.4374044076
 10
239.8222933832
 20
196.4394622063
 10
239.8414847429
 20
196.4414526518
 10
239.8655419333
 20
196.4433544173
 10
239.8942072309
 20
196.4451471262
 10
239.9271735434
 20
196.4468115703
 10
239.9640876854
 20
196.4483299141
 10
240.004554146
 20
196.4496858873
 10
240.0481393684
 20
196.4508649599
 10
240.0943763689
 20
196.4518544974
 10
240.14276971
 20
196.4526438967
 10
240.1928008657
 20
196.4532246991
  0
LWPOLYLINE
  5
241
100
AcDbEntity
  8
0
100
AcDbPolyline
 62
250
  6
CONTINUOUS
 90
16
 70
0
 10
239.795696739
 20
155.3493637258
 10
239.799276242
 20
155.3472378151
 10
239.8081738317
 20
155.3451346825
 10
239.8222941748
 20
155.343076862
 10
239.8414859786
 20
155.3410864022
 10
239.8655436125
 20
155.3391846299
 10
239.8942093106
 20
155.3373919216
 10
239.9271759341
 20
155.3357274853
 10
239.9640902617
 20
155.3342091547
 10
240.0045567745
 20
155.3328531979
 10
240.0481418936
 20
155.3316741433
 10
240.0943786258
 20
155.3306846239
 10
240.1427715671
 20
155.3298952419
 10
240.1928022108
 20
155.3293144552
 10
240.2439345031
 20
155.3289484867
 10
261.2611189696
 20
155.3288012574
  0
LINE
  5
242
100
AcDbEntity
  8
0
100
AcDbLine
 62
7
  6
CONTINUOUS
 10
261.3013284038
 20
153.8214385917
 11
240.2554111523
 21
153.8214385917
  0
LINE
  5
243
100
AcDbEntity
  8
0
100
AcDbLine
 62
250
  6
CONTINUOUS
 10
240.2790938159
 20
153.8925443603
 11
261.2776457402
 21
153.8925443603
  0
LINE
  5
244
100
AcDbEntity
  8
0
100
AcDbLine
 62
250
  6
CONTINUOUS
 10
261.3639382333
 20
155.3293144575
 11
261.2611189696
 21
155.3288012298
  0
LWPOLYLINE
  5
245
100
AcDbEntity
  8
0
100
AcDbPolyline
 62
250
  6
CONTINUOUS
 90
16
 70
0
 10
239.7791699683
 20
154.3918591277
 10
239.7819530205
 20
154.3396977239
 10
239.790176352
 20
154.2881069682
 10
239.8037500239
 20
154.2376514331
 10
239.8225255475
 20
154.1888832718
 10
239.8462975033
 20
154.1423361911
 10
239.874805782
 20
154.0985196075
 10
239.9077384474
 20
154.0579130447
 10
239.9447351347
 20
154.0209609117
 10
239.9853909774
 20
153.9880676451
 10
240.029261081
 20
153.9595932407
 10
240.0758653644
 20
153.9358493442
 10
240.1246937823
 20
153.9170958457
 10
240.1752119657
 20
153.9035380021
 10
240.2268670761
 20
153.8953242031
 10
240.2790938161
 20
153.8925443609
  0
LWPOLYLINE
  5
246
100
AcDbEntity
  8
0
100
AcDbPolyline
 62
250
  6
CONTINUOUS
 90
16
 70
0
 10
239.7791699683
 20
197.3906800368
 10
239.7819531249
 20
197.442842426
 10
239.7901767323
 20
197.4944339769
 10
239.8037507954
 20
197.5448900981
 10
239.8225267668
 20
197.5936586241
 10
239.8462991719
 20
197.6402058572
 10
239.8748078578
 20
197.6840224088
 10
239.9077408402
 20
197.7246287732
 10
239.9447377176
 20
197.7615805753
 10
239.9853936152
 20
197.7944734337
 10
240.029263616
 20
197.822947386
 10
240.0758676293
 20
197.8466908279
 10
240.1246956448
 20
197.8654439236
 10
240.1752133141
 20
197.8790014491
 10
240.2268677977
 20
197.8872150377
 10
240.2790938159
 20
197.8899948042
  0
LWPOLYLINE
  5
247
100
AcDbEntity
  8
0
100
AcDbPolyline
 62
250
  6
CONTINUOUS
 90
8
 70
0
 10
239.7872380278
 20
197.2496368723
 10
239.7862317498
 20
197.2815659245
 10
239.7852023256
 20
197.3097797042
 10
239.7841388268
 20
197.3340587643
 10
239.7830072428
 20
197.3542987619
 10
239.7817962366
 20
197.370464916
 10
239.7805171451
 20
197.3825920077
 10
239.7791699683
 20
197.3906800368
  0
LWPOLYLINE
  5
248
100
AcDbEntity
  8
0
100
AcDbPolyline
 62
250
  6
CONTINUOUS
 90
6
 70
0
 10
240.2851261771
 20
197.7682761354
 10
240.2840629292
 20
197.8043083953
 10
240.2829314893
 20
197.835422893
 10
240.2817204569
 20
197.8609663903
 10
240.2804412325
 20
197.8794895051
 10
240.2790938159
 20
197.8899948042
  0
LINE
  5
249
100
AcDbEntity
  8
0
100
AcDbLine
 62
250
  6
CONTINUOUS
 10
239.7891495867
 20
197.1734206095
 11
239.7872380278
 21
197.2496368723
  0
LINE
  5
24A
100
AcDbEntity
  8
0
100
AcDbLine
 62
250
  6
CONTINUOUS
 10
240.2871617293
 20
197.6782331399
 11
240.2851261771
 21
197.7682761354
  0
LINE
  5
24B
100
AcDbEntity
  8
0
100
AcDbLine
 62
250
  6
CONTINUOUS
 10
239.7909526144
 20
197.0780627784
 11
239.7891495867
 21
197.1734206095
  0
LINE
  5
24C
100
AcDbEntity
  8
0
100
AcDbLine
 62
250
  6
CONTINUOUS
 10
240.2890734611
 20
197.5641056634
 11
240.2871617293
 21
197.6782331399
  0
LINE
  5
24D
100
AcDbEntity
  8
0
100
AcDbLine
 62
250
  6
CONTINUOUS
 10
239.7931989238
 20
196.9087695525
 11
239.7909526144
 21
197.0780627784
  0
LINE
  5
24E
100
AcDbEntity
  8
0
100
AcDbLine
 62
250
  6
CONTINUOUS
 10
240.2916955955
 20
197.3412899823
 11
240.2890734611
 21
197.5641056634
  0
LINE
  5
24F
100
AcDbEntity
  8
0
100
AcDbLine
 62
250
  6
CONTINUOUS
 10
239.7947620865
 20
196.7178485848
 11
239.7931989238
 21
196.9087695525
  0
LINE
  5
250
100
AcDbEntity
  8
0
100
AcDbLine
 62
250
  6
CONTINUOUS
 10
240.2946858948
 20
196.8808667444
 11
240.2916955955
 21
197.3412899823
  0
LINE
  5
251
100
AcDbEntity
  8
0
100
AcDbLine
 62
250
  6
CONTINUOUS
 10
239.795696739
 20
196.4331754387
 11
239.7947620865
 21
196.7178485848
  0
LINE
  5
252
100
AcDbEntity
  8
0
100
AcDbLine
 62
7
  6
CONTINUOUS
 10
239.755791752
 20
197.4608717207
 11
239.755791752
 21
154.3216674438
  0
LINE
  5
253
100
AcDbEntity
  8
0
100
AcDbLine
 62
250
  6
CONTINUOUS
 10
239.7976117448
 20
158.2831788095
 11
239.795696739
 21
196.4331754387
  0
LINE
  5
254
100
AcDbEntity
  8
0
100
AcDbLine
 62
250
  6
CONTINUOUS
 10
240.2975355924
 20
158.2653467403
 11
240.2946858948
 21
196.8808667444
  0
LINE
  5
255
100
AcDbEntity
  8
0
100
AcDbLine
 62
250
  6
CONTINUOUS
 10
239.7951048577
 20
155.1291425513
 11
239.7976117448
 21
158.2831788095
  0
LINE
  5
256
100
AcDbEntity
  8
0
100
AcDbLine
 62
250
  6
CONTINUOUS
 10
240.2942764169
 20
154.8093386777
 11
240.2975355924
 21
158.2653467403
  0
LINE
  5
257
100
AcDbEntity
  8
0
100
AcDbLine
 62
250
  6
CONTINUOUS
 10
240.2919408886
 20
154.467639434
 11
240.2942764169
 21
154.8093386777
  0
LINE
  5
258
100
AcDbEntity
  8
0
100
AcDbLine
 62
250
  6
CONTINUOUS
 10
239.7933257655
 20
154.8856145158
 11
239.7951048577
 21
155.1291425513
  0
LINE
  5
259
100
AcDbEntity
  8
0
100
AcDbLine
 62
250
  6
CONTINUOUS
 10
240.2893778256
 20
154.2398086901
 11
240.2919408886
 21
154.467639434
  0
LINE
  5
25A
100
AcDbEntity
  8
0
100
AcDbLine
 62
250
  6
CONTINUOUS
 10
239.7912343985
 20
154.7221602482
 11
239.7933257655
 21
154.8856145158
  0
LINE
  5
25B
100
AcDbEntity
  8
0
100
AcDbLine
 62
250
  6
CONTINUOUS
 10
240.287367154
 20
154.1151961201
 11
240.2893778256
 21
154.2398086901
  0
LINE
  5
25C
100
AcDbEntity
  8
0
100
AcDbLine
 62
250
  6
CONTINUOUS
 10
239.7894539287
 20
154.6233686811
 11
239.7912343985
 21
154.7221602482
  0
LWPOLYLINE
  5
25D
100
AcDbEntity
  8
0
100
AcDbPolyline
 62
250
  6
CONTINUOUS
 90
7
 70
0
 10
240.2790938159
 20
153.8925443603
 10
240.2803930804
 20
153.9024863849
 10
240.2816527312
 20
153.9203383779
 10
240.2828727683
 20
153.9457004792
 10
240.2840525725
 20
153.977957623
 10
240.285192763
 20
154.016772528
 10
240.287367154
 20
154.1151961201
  0
LWPOLYLINE
  5
25E
100
AcDbEntity
  8
0
100
AcDbPolyline
 62
250
  6
CONTINUOUS
 90
9
 70
0
 10
239.7791699683
 20
154.3918591277
 10
239.7804690411
 20
154.3989607647
 10
239.7817285869
 20
154.4107732358
 10
239.7829486057
 20
154.4272965409
 10
239.7841285316
 20
154.4486045767
 10
239.7852689304
 20
154.4746234465
 10
239.7863714998
 20
154.5051314608
 10
239.7874434289
 20
154.5403048104
 10
239.7894539287
 20
154.6233686811
  0
LINE
  5
25F
100
AcDbEntity
  8
0
100
AcDbLine
 62
250
  6
CONTINUOUS
 10
239.755791752
 20
154.3216674438
 11
239.7791699683
 21
154.3918591277
  0
LWPOLYLINE
  5
260
100
AcDbEntity
  8
0
100
AcDbPolyline
 62
7
  6
CONTINUOUS
 90
10
 70
0
 10
246.6147392491
 20
175.9771881377
 10
246.6040456963
 20
175.9590955835
 10
246.5960306664
 20
175.9404862031
 10
246.5906941595
 20
175.9213599965
 10
246.5880430218
 20
175.901361348
 10
246.588070407
 20
175.8808458734
 10
246.5907557762
 20
175.8608804193
 10
246.5960922831
 20
175.8418206012
 10
246.6040867741
 20
175.8233108037
 10
246.6147392491
 20
175.8053510268
  0
LINE
  5
261
100
AcDbEntity
  8
0
100
AcDbLine
 62
7
  6
CONTINUOUS
 10
246.0646761191
 20
176.2307825445
 11
246.1029018085
 21
176.2922228411
  0
LWPOLYLINE
  5
262
100
AcDbEntity
  8
0
100
AcDbPolyline
 62
7
  6
CONTINUOUS
 90
4
 70
0
 10
246.4641538859
 20
176.8082064079
 10
246.4979376222
 20
176.852586752
 10
246.5351948534
 20
176.8941782337
 10
246.575700671
 20
176.9327057532
  0
LWPOLYLINE
  5
263
100
AcDbEntity
  8
0
100
AcDbPolyline
 62
7
  6
CONTINUOUS
 90
3
 70
0
 10
246.5757963221
 20
176.9327831514
 10
246.6192330464
 20
176.9679309797
 10
246.6655019483
 20
176.9995932329
  0
LWPOLYLINE
  5
264
100
AcDbEntity
  8
0
100
AcDbPolyline
 62
7
  6
CONTINUOUS
 90
2
 70
0
 43
0.3500000087
 10
271.0509468262
 20
172.8198419678
 10
269.5509453613
 20
172.8198419678
  0
LINE
  5
265
100
AcDbEntity
  8
0
100
AcDbLine
 62
7
  6
CONTINUOUS
 10
246.6656048383
 20
174.7829310075
 11
246.6192801577
 21
174.8146247713
  0
LINE
  5
266
100
AcDbEntity
  8
0
100
AcDbLine
 62
7
  6
CONTINUOUS
 10
246.6192801577
 20
174.8146247713
 11
246.5757973919
 21
174.849754997
  0
LWPOLYLINE
  5
267
100
AcDbEntity
  8
0
100
AcDbPolyline
 62
7
  6
CONTINUOUS
 90
4
 70
0
 10
246.5757973919
 20
174.849754997
 10
246.5357116943
 20
174.887872295
 10
246.4984679115
 20
174.9294260574
 10
246.4641538859
 20
174.9743327566
  0
LWPOLYLINE
  5
268
100
AcDbEntity
  8
0
100
AcDbPolyline
 62
7
  6
CONTINUOUS
 90
7
 70
0
 10
246.9405013897
 20
175.3401415535
 10
246.9505942417
 20
175.3273601853
 10
246.9616907652
 20
175.3159393859
 10
246.9737909601
 20
175.3058791553
 10
246.9870526557
 20
175.2970987575
 10
247.0013180229
 20
175.2896789282
 10
247.0161135732
 20
175.2838618753
  0
LWPOLYLINE
  5
269
100
AcDbEntity
  8
0
100
AcDbPolyline
 62
7
  6
CONTINUOUS
 90
16
 70
0
 10
246.1029018085
 20
175.4903163234
 10
246.0724602454
 20
175.5377496193
 10
246.0458573928
 20
175.5876435757
 10
246.0233065236
 20
175.639694538
 10
246.0049548931
 20
175.6937222324
 10
245.9910327966
 20
175.749248397
 10
245.9817339687
 20
175.8054691741
 10
245.9770736921
 20
175.8616410681
 10
245.9769470712
 20
175.9177483492
 10
245.9813683575
 20
175.9740619265
 10
245.9904739763
 20
176.0305715396
 10
246.0042803804
 20
176.0865138881
 10
246.0226137964
 20
176.1410420289
 10
246.0452592047
 20
176.1936520788
 10
246.0720883137
 20
176.2441541964
 10
246.1029018085
 20
176.2922228411
  0
LWPOLYLINE
  5
26A
100
AcDbEntity
  8
0
100
AcDbPolyline
 62
7
  6
CONTINUOUS
 90
12
 70
0
 10
246.1029018085
 20
175.4903163234
 10
246.0646777141
 20
175.5517528751
 10
246.0333128291
 20
175.6153446306
 10
246.0088071536
 20
175.6810915894
 10
245.9910500289
 20
175.74971205
 10
245.9801521137
 20
175.8204877123
 10
245.9764453839
 20
175.8912636768
 10
245.9801509441
 20
175.962039906
 10
245.9910476896
 20
176.0328164346
 10
246.0088042826
 20
176.1014384721
 10
246.0333102771
 20
176.1671877546
 10
246.0646761191
 20
176.2307825445
  0
LINE
  5
26B
100
AcDbEntity
  8
0
100
AcDbLine
 62
250
  6
CONTINUOUS
 10
239.7791699683
 20
197.3906800368
 11
239.755791752
 21
197.4608717207
  0
LINE
  5
26C
100
AcDbEntity
  8
0
100
AcDbLine
 62
250
  6
CONTINUOUS
 10
240.2554111523
 20
153.8214385917
 11
240.2790938159
 21
153.8925443603
  0
LINE
  5
26D
100
AcDbEntity
  8
0
100
AcDbLine
 62
7
  6
CONTINUOUS
 10
246.6656048264
 20
176.9996081557
 11
246.7140616513
 21
177.027388886
  0
LINE
  5
26E
100
AcDbEntity
  8
0
100
AcDbLine
 62
7
  6
CONTINUOUS
 10
246.7141367431
 20
177.0274318687
 11
246.7648047685
 21
177.0512657107
  0
LWPOLYLINE
  5
26F
100
AcDbEntity
  8
0
100
AcDbPolyline
 62
7
  6
CONTINUOUS
 90
7
 70
0
 10
247.0160451286
 20
176.4986546095
 10
247.0012455166
 20
176.4928282508
 10
246.9869848737
 20
176.4853993738
 10
246.9737331451
 20
176.476616972
 10
246.9616469791
 20
176.4665640433
 10
246.9505697273
 20
176.4551575897
 10
246.9405013897
 20
176.442397611
  0
LINE
  5
270
100
AcDbEntity
  8
0
100
AcDbLine
 62
7
  6
CONTINUOUS
 10
246.7644572398
 20
177.0510734461
 11
246.8169849672
 21
177.0708449665
  0
LINE
  5
271
100
AcDbEntity
  8
0
100
AcDbLine
 62
7
  6
CONTINUOUS
 10
252.1786777002
 20
178.3415144066
 11
252.355443449
 21
178.399475157
  0
LINE
  5
272
100
AcDbEntity
  8
0
100
AcDbLine
 62
7
  6
CONTINUOUS
 10
246.8169849672
 20
177.0708449665
 11
246.8707596511
 21
177.0863302864
  0
LINE
  5
273
100
AcDbEntity
  8
0
100
AcDbLine
 62
7
  6
CONTINUOUS
 10
247.0160990988
 20
175.2838675661
 11
247.0302339445
 21
175.2800138072
  0
LWPOLYLINE
  5
274
100
AcDbEntity
  8
0
100
AcDbPolyline
 62
7
  6
CONTINUOUS
 90
3
 70
0
 10
246.8707363696
 20
174.6962136064
 10
246.8171596425
 20
174.7115926838
 10
246.7647873426
 20
174.731280805
  0
LWPOLYLINE
  5
275
100
AcDbEntity
  8
0
100
AcDbPolyline
 62
7
  6
CONTINUOUS
 90
11
 70
0
 10
252.3555704861
 20
173.3830273857
 10
252.1786779215
 20
173.4410246855
 10
252.0093525842
 20
173.5099358816
 10
251.8453490164
 20
173.5907021277
 10
251.6865900949
 20
173.6831514005
 10
251.5354013099
 20
173.7859293562
 10
251.3918939598
 20
173.8991884441
 10
251.2559567461
 20
174.022776261
 10
251.1295812639
 20
174.1548811754
 10
251.0134313778
 20
174.2948993172
 10
250.9068432232
 20
174.4434345832
  0
LWPOLYLINE
  5
276
100
AcDbEntity
  8
0
100
AcDbPolyline
 62
7
  6
CONTINUOUS
 90
11
 70
0
 10
252.1959824444
 20
173.4347150962
 10
252.0393249663
 20
173.4967753604
 10
251.8875601186
 20
173.5684598643
 10
251.7407541247
 20
173.649887364
 10
251.5988407612
 20
173.7409391409
 10
251.4635834253
 20
173.8405106659
 10
251.3350338414
 20
173.9487581917
 10
251.2131402851
 20
174.0655255002
 10
251.0995109804
 20
174.1892393501
 10
250.994682002
 20
174.3193753323
 10
250.8981172751
 20
174.4564578745
  0
LINE
  5
277
100
AcDbEntity
  8
0
100
AcDbLine
 62
7
  6
CONTINUOUS
 10
246.7644571101
 20
174.7314657559
 11
246.7140599254
 21
174.7551510907
  0
LINE
  5
278
100
AcDbEntity
  8
0
100
AcDbLine
 62
7
  6
CONTINUOUS
 10
246.7140599254
 20
174.7551510907
 11
246.6655032326
 21
174.7829451294
  0
LINE
  5
279
100
AcDbEntity
  8
0
100
AcDbLine
 62
250
  6
CONTINUOUS
 10
240.2790938159
 20
197.8899948042
 11
240.2554111523
 21
197.9611005728
  0
LWPOLYLINE
  5
27A
100
AcDbEntity
  8
0
100
AcDbPolyline
 62
7
  6
CONTINUOUS
 90
16
 70
0
 10
251.38849151
 20
176.9791108259
 10
251.2952161729
 20
176.8238218635
 10
251.2669475708
 20
176.7835641042
 10
251.2358745754
 20
176.7454360056
 10
251.2017197918
 20
176.7091695213
 10
251.164760615
 20
176.6750326996
 10
251.1258292296
 20
176.643829684
 10
251.0850670421
 20
176.6157538484
 10
251.0423326461
 20
176.5906118207
 10
250.9980340059
 20
176.5686276249
 10
250.9519681134
 20
176.5497728036
 10
250.9043379769
 20
176.5340758153
 10
250.8561605852
 20
176.521846059
 10
250.8077749345
 20
176.5131866676
 10
250.7588420285
 20
176.5079945086
 10
250.7093618673
 20
176.5062695822
  0
LWPOLYLINE
  5
27B
100
AcDbEntity
  8
0
100
AcDbPolyline
 62
7
  6
CONTINUOUS
 90
12
 70
0
 10
251.3206803816
 20
176.8662092821
 10
251.2876956159
 20
176.8127813845
 10
251.2507982832
 20
176.7631719174
 10
251.2099883836
 20
176.7173808831
 10
251.1648865046
 20
176.675110481
 10
251.1158720587
 20
176.6366585157
 10
251.0640832833
 20
176.602918398
 10
251.0094553063
 20
176.5740006658
 10
250.9520529998
 20
176.5497947841
 10
250.8932092173
 20
176.5308625542
 10
250.8333682433
 20
176.5173912436
 10
250.7720857934
 20
176.5091935862
  0
LWPOLYLINE
  5
27C
100
AcDbEntity
  8
0
100
AcDbPolyline
 62
7
  6
CONTINUOUS
 90
11
 70
0
 10
250.8098167998
 20
177.1820521811
 10
250.9068432082
 20
177.3391045513
 10
251.0134313336
 20
177.4876397844
 10
251.129581176
 20
177.6276578904
 10
251.2559565835
 20
177.7597627556
 10
251.391893708
 20
177.8833505203
 10
251.5354010053
 20
177.996609585
 10
251.6865898107
 20
178.0993875709
 10
251.8453487888
 20
178.1918369029
 10
252.0093523899
 20
178.2726031956
 10
252.1786777002
 20
178.3415144066
  0
LWPOLYLINE
  5
27D
100
AcDbEntity
  8
0
100
AcDbPolyline
 62
7
  6
CONTINUOUS
 90
11
 70
0
 10
250.8981154279
 20
177.3260753177
 10
250.9946729332
 20
177.4631494613
 10
251.0994893157
 20
177.5932746188
 10
251.2130950935
 20
177.7169711329
 10
251.3349597485
 20
177.8337186794
 10
251.4634917267
 20
177.9419562712
 10
251.5987557259
 20
178.0415368009
 10
251.7406870484
 20
178.1326074105
 10
251.8875000466
 20
178.2140484944
 10
252.0392455197
 20
178.2857332355
 10
252.1958726686
 20
178.3477884884
  0
LINE
  5
27E
100
AcDbEntity
  8
0
100
AcDbLine
 62
7
  6
CONTINUOUS
 10
253.8586202955
 20
175.3147338315
 11
253.7969301619
 21
175.3112717743
  0
LINE
  5
27F
100
AcDbEntity
  8
0
100
AcDbLine
 62
7
  6
CONTINUOUS
 10
250.6796280187
 20
174.6762120311
 11
247.0367571432
 21
174.6762120311
  0
LWPOLYLINE
  5
280
100
AcDbEntity
  8
0
100
AcDbPolyline
 62
7
  6
CONTINUOUS
 90
2
 70
0
 43
0.3500000087
 10
271.0509468262
 20
175.176989563
 10
269.5509453613
 20
175.176989563
  0
LINE
  5
281
100
AcDbEntity
  8
0
100
AcDbLine
 62
7
  6
CONTINUOUS
 10
250.7093618673
 20
175.2762695822
 11
247.0632078354
 21
175.2762695822
  0
LWPOLYLINE
  5
282
100
AcDbEntity
  8
0
100
AcDbPolyline
 62
7
  6
CONTINUOUS
 90
15
 70
0
 10
250.7093618673
 20
175.2762695822
 10
250.7588102897
 20
175.2745554725
 10
250.8077342132
 20
175.2693652416
 10
250.8561336378
 20
175.2606988896
 10
250.9043621146
 20
175.2484489014
 10
250.9520660925
 20
175.2327227928
 10
250.9981849177
 20
175.2138431103
 10
251.0424991766
 20
175.1918385859
 10
251.0852282827
 20
175.1666804888
 10
251.1259698224
 20
175.1386051714
 10
251.1648561375
 20
175.1074334372
 10
251.2017548861
 20
175.0733444846
 10
251.2358666288
 20
175.0371122575
 10
251.2669248857
 20
174.9989947378
 10
251.2951961367
 20
174.9587339457
  0
LWPOLYLINE
  5
283
100
AcDbEntity
  8
0
100
AcDbPolyline
 62
7
  6
CONTINUOUS
 90
4
 70
0
 10
247.0367571432
 20
174.6762120311
 10
246.9810402479
 20
174.6784343591
 10
246.9256344396
 20
174.6850968769
 10
246.8708929224
 20
174.6961686683
  0
LWPOLYLINE
  5
284
100
AcDbEntity
  8
0
100
AcDbPolyline
 62
7
  6
CONTINUOUS
 90
12
 70
0
 10
250.7093618674
 20
175.2762695822
 10
250.772085733
 20
175.2733456103
 10
250.8333681763
 20
175.2651479547
 10
250.8932091972
 20
175.2516766158
 10
250.9520531309
 20
175.2327442986
 10
251.0094556422
 20
175.2085382995
 10
251.0640837257
 20
175.179620506
 10
251.1158724113
 20
175.1458804386
 10
251.1648866691
 20
175.1074285798
 10
251.2099884045
 20
175.0651582599
 10
251.2507982526
 20
175.019367257
 10
251.2876955783
 20
174.969757797
  0
LINE
  5
285
100
AcDbEntity
  8
0
100
AcDbLine
 62
7
  6
CONTINUOUS
 10
253.7969301619
 20
175.3112717743
 11
253.7352422409
 21
175.3147346174
  0
LINE
  5
286
100
AcDbEntity
  8
0
100
AcDbLine
 62
7
  6
CONTINUOUS
 10
247.0469665792
 20
175.2772003999
 11
247.0632078354
 21
175.2762695822
  0
LWPOLYLINE
  5
287
100
AcDbEntity
  8
0
100
AcDbPolyline
 62
7
  6
CONTINUOUS
 90
9
 70
0
 10
253.7353555071
 20
175.3147495995
 10
253.6757625967
 20
175.3241638387
 10
253.6181514308
 20
175.3395144923
 10
253.5619862826
 20
175.3610642923
 10
253.5078028788
 20
175.3885505082
 10
253.4572084002
 20
175.421184946
 10
253.4102212955
 20
175.4592268628
 10
253.3668231161
 20
175.5024170033
 10
253.3285656961
 20
175.5491894048
  0
LINE
  5
288
100
AcDbEntity
  8
0
100
AcDbLine
 62
7
  6
CONTINUOUS
 10
247.0312814774
 20
175.2797283347
 11
247.0469795648
 21
175.2771975704
  0
LWPOLYLINE
  5
289
100
AcDbEntity
  8
0
100
AcDbPolyline
 62
7
  6
CONTINUOUS
 90
10
 70
0
 10
250.8098167998
 20
174.6004869834
 10
250.7999618292
 20
174.6154926047
 10
250.7887958974
 20
174.62893832
 10
250.7763190046
 20
174.6408241288
 10
250.762320019
 20
174.6512673977
 10
250.7470100722
 20
174.6601507596
 10
250.7310225593
 20
174.6671221141
 10
250.7145686119
 20
174.6720640942
 10
250.6974370984
 20
174.6750940666
 10
250.6796280187
 20
174.6762120311
  0
LINE
  5
28A
100
AcDbEntity
  8
0
100
AcDbLine
 62
7
  6
CONTINUOUS
 10
250.9068432232
 20
174.4434345832
 11
250.8098167998
 21
174.6004869833
  0
LINE
  5
28B
100
AcDbEntity
  8
0
100
AcDbLine
 62
7
  6
CONTINUOUS
 10
251.2876955783
 20
174.969757797
 11
251.3206803816
 21
174.9163298824
  0
LWPOLYLINE
  5
28C
100
AcDbEntity
  8
0
100
AcDbPolyline
 62
7
  6
CONTINUOUS
 90
31
 70
0
 10
251.3206803816
 20
174.9163298824
 10
251.4024805969
 20
174.7819419022
 10
251.4931801017
 20
174.6556503554
 10
251.5927788961
 20
174.5374552357
 10
251.7019798752
 20
174.4267434686
 10
251.8200801439
 20
174.3241281116
 10
251.9449710164
 20
174.2314483502
 10
252.0767766647
 20
174.148883488
 10
252.2153729169
 20
174.0762541923
 10
252.3582785715
 20
174.0148616893
 10
252.5055711077
 20
173.9649100711
 10
252.6571730462
 20
173.926195219
 10
252.8103707472
 20
173.8994060424
 10
252.965187755
 20
173.8847571064
 10
253.1216005254
 20
173.8820338344
 10
253.2768247861
 20
173.8912814274
 10
253.4308390181
 20
173.9127121516
 10
253.5836647406
 20
173.9461137496
 10
253.7325822385
 20
173.9908946418
 10
253.8775267745
 20
174.0472606218
 10
254.0185630859
 20
174.1150059211
 10
254.1531656698
 20
174.1929216172
 10
254.2812181761
 20
174.2811923894
 10
254.4028369548
 20
174.3796335882
 10
254.5158455531
 20
174.4864822936
 10
254.6200872885
 20
174.6018902601
 10
254.7157188435
 20
174.7257057535
 10
254.8010338123
 20
174.8557106116
 10
254.8754633932
 20
174.9911654459
 10
254.9395763879
 20
175.1328096455
 10
254.9933727964
 20
175.280643208
  0
LWPOLYLINE
  5
28D
100
AcDbEntity
  8
0
100
AcDbPolyline
 62
7
  6
CONTINUOUS
 90
37
 70
0
 10
251.2951961367
 20
174.9587339457
 10
251.3884902031
 20
174.8034300658
 10
251.4624529426
 20
174.6962139917
 10
251.5425686003
 20
174.5946816565
 10
251.6290696769
 20
174.4986176534
 10
251.7217236716
 20
174.4082373797
 10
251.819833082
 20
174.3241870368
 10
251.9237264904
 20
174.2462963825
 10
252.0330753145
 20
174.1747356442
 10
252.146196305
 20
174.1106617233
 10
252.2630079879
 20
174.0542840227
 10
252.3835918373
 20
174.0053931219
 10
252.5065090257
 20
173.9645176855
 10
252.6317477637
 20
173.9317338551
 10
252.7593198409
 20
173.9069654758
 10
252.8878217982
 20
173.8905127681
 10
253.0173936258
 20
173.8824699199
 10
253.1478953335
 20
173.8827427385
 10
253.2775034923
 20
173.8913488762
 10
253.4061459089
 20
173.9084160187
 10
253.5338947766
 20
173.9338164854
 10
253.6591432452
 20
173.9671848816
 10
253.7817817442
 20
174.0085683452
 10
253.9019198441
 20
174.0579197515
 10
254.0182794068
 20
174.1147323123
 10
254.1309593057
 20
174.1791791053
 10
254.2398606673
 20
174.2510870704
 10
254.3434087323
 20
174.3294302115
 10
254.4414311528
 20
174.4142302447
 10
254.5341002766
 20
174.5054654691
 10
254.620358389
 20
174.6020447602
 10
254.7001413476
 20
174.7040088784
 10
254.7735132947
 20
174.8113170717
 10
254.8396089419
 20
174.9227559419
 10
254.8981398599
 20
175.0379210222
 10
254.9493944781
 20
175.1572167782
 10
254.9933727964
 20
175.280643208
  0
LINE
  5
28E
100
AcDbEntity
  8
0
100
AcDbLine
 62
7
  6
CONTINUOUS
 10
253.3647846914
 20
176.2781146907
 11
253.409069687
 21
176.3223540789
  0
LINE
  5
28F
100
AcDbEntity
  8
0
100
AcDbLine
 62
7
  6
CONTINUOUS
 10
253.4076533053
 20
176.3212223419
 11
253.4560109802
 21
176.3604864858
  0
LWPOLYLINE
  5
290
100
AcDbEntity
  8
0
100
AcDbPolyline
 62
7
  6
CONTINUOUS
 90
6
 70
0
 10
253.454444096
 20
176.3593439573
 10
253.5054836446
 20
176.3924989535
 10
253.5604453701
 20
176.4206679154
 10
253.6172761925
 20
176.4427402943
 10
253.675291752
 20
176.4583459077
 10
253.7351764085
 20
176.4678549395
  0
LINE
  5
291
100
AcDbEntity
  8
0
100
AcDbLine
 62
7
  6
CONTINUOUS
 10
247.0312578626
 20
176.5028045138
 11
247.0160829057
 21
176.4986671317
  0
LWPOLYLINE
  5
292
100
AcDbEntity
  8
0
100
AcDbPolyline
 62
7
  6
CONTINUOUS
 90
10
 70
0
 10
250.6796280187
 20
177.1063271334
 10
250.6975414166
 20
177.1074735472
 10
250.7147476865
 20
177.1105308909
 10
250.7312468285
 20
177.1154991645
 10
250.7472453312
 20
177.1225037806
 10
250.7625367059
 20
177.1314193263
 10
250.7765014867
 20
177.1418695632
 10
250.788933185
 20
177.1537290785
 10
250.8000382893
 20
177.1671232846
 10
250.8098167998
 20
177.1820521811
  0
LWPOLYLINE
  5
293
100
AcDbEntity
  8
0
100
AcDbPolyline
 62
7
  6
CONTINUOUS
 90
3
 70
0
 10
247.0632078354
 20
176.5062695822
 10
247.0469479639
 20
176.5053337762
 10
247.0312270617
 20
176.502795452
  0
LINE
  5
294
100
AcDbEntity
  8
0
100
AcDbLine
 62
7
  6
CONTINUOUS
 10
253.7352400242
 20
176.4678053353
 11
253.7969301619
 21
176.4712673902
  0
LINE
  5
295
100
AcDbEntity
  8
0
100
AcDbLine
 62
7
  6
CONTINUOUS
 10
250.7720857934
 20
176.5091935862
 11
250.7093618674
 21
176.5062695822
  0
LINE
  5
296
100
AcDbEntity
  8
0
100
AcDbLine
 62
7
  6
CONTINUOUS
 10
250.7093618673
 20
176.5062695822
 11
247.0632078354
 21
176.5062695822
  0
LINE
  5
297
100
AcDbEntity
  8
0
100
AcDbLine
 62
7
  6
CONTINUOUS
 10
250.6796280187
 20
177.1063271334
 11
247.0367571432
 21
177.1063271334
  0
LINE
  5
298
100
AcDbEntity
  8
0
100
AcDbLine
 62
7
  6
CONTINUOUS
 10
253.7969301619
 20
176.4712673902
 11
253.8586180794
 21
176.4678045469
  0
LWPOLYLINE
  5
299
100
AcDbEntity
  8
0
100
AcDbPolyline
 62
7
  6
CONTINUOUS
 90
9
 70
0
 10
253.8585045256
 20
176.4677895515
 10
253.9180970991
 20
176.4583754215
 10
253.9757078823
 20
176.4430249997
 10
254.0318724774
 20
176.4214756676
 10
254.0860552822
 20
176.3939900422
 10
254.1366494905
 20
176.361355977
 10
254.1836369303
 20
176.3233139982
 10
254.2270357736
 20
176.2801235779
 10
254.2652937305
 20
176.2333509883
  0
LWPOLYLINE
  5
29A
100
AcDbEntity
  8
0
100
AcDbPolyline
 62
7
  6
CONTINUOUS
 90
4
 70
0
 10
253.2205367841
 20
175.828664374
 10
253.2169537072
 20
175.8891913175
 10
253.2198438908
 20
175.9492469383
 10
253.229025311
 20
176.0091304051
  0
LINE
  5
29B
100
AcDbEntity
  8
0
100
AcDbLine
 62
7
  6
CONTINUOUS
 10
253.229025311
 20
176.0091304051
 11
253.2453249353
 21
176.070463982
  0
LINE
  5
29C
100
AcDbEntity
  8
0
100
AcDbLine
 62
7
  6
CONTINUOUS
 10
254.3648347458
 20
175.7734070119
 11
254.3485353806
 21
175.7120751579
  0
LINE
  5
29D
100
AcDbEntity
  8
0
100
AcDbLine
 62
250
  6
CONTINUOUS
 10
261.3013284038
 20
197.9611005728
 11
261.2776457402
 21
197.8899948042
  0
LINE
  5
29E
100
AcDbEntity
  8
0
100
AcDbLine
 62
7
  6
CONTINUOUS
 10
253.2443387163
 20
176.0673990432
 11
253.2670850648
 21
176.1269013269
  0
LINE
  5
29F
100
AcDbEntity
  8
0
100
AcDbLine
 62
7
  6
CONTINUOUS
 10
254.3495209693
 20
175.7151381188
 11
254.3267752443
 21
175.6556378058
  0
LWPOLYLINE
  5
2A0
100
AcDbEntity
  8
0
100
AcDbPolyline
 62
7
  6
CONTINUOUS
 90
3
 70
0
 10
253.2661098467
 20
176.1243449288
 10
253.2948462446
 20
176.1813931446
 10
253.3277093396
 20
176.2321741022
  0
LWPOLYLINE
  5
2A1
100
AcDbEntity
  8
0
100
AcDbPolyline
 62
7
  6
CONTINUOUS
 90
3
 70
0
 10
254.3277492928
 20
175.6581916558
 10
254.2990140554
 20
175.6011459791
 10
254.266150949
 20
175.5503650137
  0
LWPOLYLINE
  5
2A2
100
AcDbEntity
  8
0
100
AcDbPolyline
 62
7
  6
CONTINUOUS
 90
3
 70
0
 10
253.2940129621
 20
176.1796759844
 10
253.3269115919
 20
176.2310733052
 10
253.3647846914
 20
176.2781146907
  0
LWPOLYLINE
  5
2A3
100
AcDbEntity
  8
0
100
AcDbPolyline
 62
7
  6
CONTINUOUS
 90
3
 70
0
 10
254.2998454597
 20
175.6028598928
 10
254.2669459085
 20
175.5514619537
 10
254.2290712761
 20
175.5044199394
  0
LINE
  5
2A4
100
AcDbEntity
  8
0
100
AcDbLine
 62
7
  6
CONTINUOUS
 10
254.2290712761
 20
175.5044199394
 11
254.184790562
 21
175.4601850236
  0
LINE
  5
2A5
100
AcDbEntity
  8
0
100
AcDbLine
 62
7
  6
CONTINUOUS
 10
254.1862009257
 20
175.4613117485
 11
254.1378492599
 21
175.4220526178
  0
LWPOLYLINE
  5
2A6
100
AcDbEntity
  8
0
100
AcDbPolyline
 62
7
  6
CONTINUOUS
 90
6
 70
0
 10
254.1394093857
 20
175.4231902005
 10
254.0883709083
 20
175.3900363917
 10
254.0334112413
 20
175.3618692243
 10
253.976582156
 20
175.3397982267
 10
253.9185675763
 20
175.3241932411
 10
253.8586835782
 20
175.3146844237
  0
LWPOLYLINE
  5
2A7
100
AcDbEntity
  8
0
100
AcDbPolyline
 62
7
  6
CONTINUOUS
 90
11
 70
0
 10
254.1579583498
 20
173.5147992209
 10
254.0025881927
 20
173.4501567386
 10
253.8441047262
 20
173.3958036476
 10
253.6825017354
 20
173.3518876215
 10
253.5177854352
 20
173.3182609574
 10
253.3519711697
 20
173.2953145546
 10
253.1850821466
 20
173.2831667046
 10
253.0170951582
 20
173.2816991042
 10
252.8499559258
 20
173.2909477661
 10
252.683618754
 20
173.3110392828
 10
252.5181293383
 20
173.3418470715
  0
LWPOLYLINE
  5
2A8
100
AcDbEntity
  8
0
100
AcDbPolyline
 62
7
  6
CONTINUOUS
 90
12
 70
0
 10
252.3532476334
 20
178.3987426249
 10
252.530505381
 20
178.443449664
 10
252.7104903916
 20
178.475451266
 10
252.8931632165
 20
178.4949317176
 10
253.0758487011
 20
178.5016056443
 10
253.2585470037
 20
178.49528466
 10
253.4412579659
 20
178.476157151
 10
253.6213059576
 20
178.4445028939
 10
253.798652067
 20
178.4001374676
 10
253.9733352058
 20
178.3432452646
 10
254.1427964789
 20
178.2746592762
 10
254.3069590652
 20
178.1942072539
  0
LWPOLYLINE
  5
2A9
100
AcDbEntity
  8
0
100
AcDbPolyline
 62
7
  6
CONTINUOUS
 90
4
 70
0
 10
246.8707596511
 20
177.0863302864
 10
246.9249058085
 20
177.0972943751
 10
246.9802989224
 20
177.103972265
 10
247.0367571432
 20
177.1063271334
  0
LWPOLYLINE
  5
2AA
100
AcDbEntity
  8
0
100
AcDbPolyline
 62
7
  6
CONTINUOUS
 90
11
 70
0
 10
252.5180107262
 20
178.4406635262
 10
252.6835216348
 20
178.4714833392
 10
252.8498795345
 20
178.4915846852
 10
253.0170336417
 20
178.5008388929
 10
253.18503474
 20
178.4993746434
 10
253.3519385397
 20
178.4872280497
 10
253.5177693938
 20
178.4642807126
 10
253.6825029494
 20
178.4306510196
 10
253.8441218579
 20
178.3867302585
 10
254.0026199072
 20
178.3323701941
 10
254.1580033096
 20
178.2677190323
  0
LINE
  5
2AB
100
AcDbEntity
  8
0
100
AcDbLine
 62
7
  6
CONTINUOUS
 10
253.3285656961
 20
175.5491894048
 11
253.294867024
 21
175.6011049015
  0
LINE
  5
2AC
100
AcDbEntity
  8
0
100
AcDbLine
 62
7
  6
CONTINUOUS
 10
254.2652937305
 20
176.2333509883
 11
254.298993292
 21
176.1814342792
  0
LINE
  5
2AD
100
AcDbEntity
  8
0
100
AcDbLine
 62
7
  6
CONTINUOUS
 10
253.2957117614
 20
175.5994934894
 11
253.2671080953
 21
175.6555792847
  0
LINE
  5
2AE
100
AcDbEntity
  8
0
100
AcDbLine
 62
7
  6
CONTINUOUS
 10
254.2981478769
 20
176.1830470556
 11
254.3267522217
 21
176.1269598988
  0
LINE
  5
2AF
100
AcDbEntity
  8
0
100
AcDbLine
 62
7
  6
CONTINUOUS
 10
253.2679985862
 20
175.6533798355
 11
253.245347464
 21
175.7120058442
  0
LINE
  5
2B0
100
AcDbEntity
  8
0
100
AcDbLine
 62
7
  6
CONTINUOUS
 10
254.3258611369
 20
176.1291609531
 11
254.3485128542
 21
176.070533338
  0
LINE
  5
2B1
100
AcDbEntity
  8
0
100
AcDbLine
 62
250
  6
CONTINUOUS
 10
261.2776457402
 20
153.8925443603
 11
261.3013284038
 21
153.8214385917
  0
LINE
  5
2B2
100
AcDbEntity
  8
0
100
AcDbLine
 62
7
  6
CONTINUOUS
 10
253.2461898274
 20
175.7094342147
 11
253.2297800899
 21
175.7704511684
  0
LINE
  5
2B3
100
AcDbEntity
  8
0
100
AcDbLine
 62
7
  6
CONTINUOUS
 10
254.3476699931
 20
176.0731064743
 11
254.3640802306
 21
176.0120880043
  0
LWPOLYLINE
  5
2B4
100
AcDbEntity
  8
0
100
AcDbPolyline
 62
7
  6
CONTINUOUS
 90
5
 70
0
 10
253.2304110975
 20
175.7679652783
 10
253.2202110133
 20
175.8308486678
 10
253.2169499844
 20
175.8912441218
 10
253.220202586
 20
175.9516339488
 10
253.2297632355
 20
176.0120217285
  0
LWPOLYLINE
  5
2B5
100
AcDbEntity
  8
0
100
AcDbPolyline
 62
7
  6
CONTINUOUS
 90
4
 70
0
 10
254.3733234561
 20
175.953874415
 10
254.3769066212
 20
175.8933465786
 10
254.3740163657
 20
175.8332906039
 10
254.3648347458
 20
175.7734070119
  0
LWPOLYLINE
  5
2B6
100
AcDbEntity
  8
0
100
AcDbPolyline
 62
7
  6
CONTINUOUS
 90
23
 70
0
 10
255.5782873409
 20
176.6172012994
 10
255.5789559062
 20
176.5809608116
 10
255.5754690455
 20
176.5464173443
 10
255.5679667237
 20
176.5120325334
 10
255.5567450148
 20
176.4791731659
 10
255.5416535156
 20
176.4479010898
 10
255.5228426294
 20
176.4181544581
 10
255.50105964
 20
176.3911145163
 10
255.4761854604
 20
176.3668908748
 10
255.4483391776
 20
176.3453739241
 10
255.4186253373
 20
176.3274160806
 10
255.3869693
 20
176.3131601585
 10
255.3534457051
 20
176.302463344
 10
255.3193830174
 20
176.2957496113
 10
255.2847596425
 20
176.2931784142
 10
255.2495971748
 20
176.2945902989
 10
255.215288861
 20
176.2999308775
 10
255.1818687056
 20
176.3093570993
 10
255.1493027042
 20
176.3227120148
 10
255.1188820902
 20
176.3394703873
 10
255.0906899123
 20
176.3597736851
 10
255.0646431218
 20
176.3834804393
 10
255.0417838063
 20
176.4096410081
  0
LWPOLYLINE
  5
2B7
100
AcDbEntity
  8
0
100
AcDbPolyline
 62
7
  6
CONTINUOUS
 90
23
 70
0
 10
255.5790491593
 20
176.5835493377
 10
255.5758414563
 20
176.5492709305
 10
255.5687217343
 20
176.5148829036
 10
255.5578625011
 20
176.4819357348
 10
255.5430527844
 20
176.4505210818
 10
255.5245035565
 20
176.4205472879
 10
255.5030202422
 20
176.393289859
 10
255.4785104207
 20
176.3689128844
 10
255.451066513
 20
176.3472522758
 10
255.4217712062
 20
176.329091274
 10
255.3905808161
 20
176.3145532633
 10
255.3575390271
 20
176.30351486
 10
255.3238595797
 20
176.296389152
 10
255.2895225837
 20
176.2932869468
 10
255.2545479294
 20
176.2940974371
 10
255.2202090282
 20
176.2989012884
 10
255.1865001001
 20
176.3077988647
 10
255.1534269251
 20
176.3206898018
 10
255.1222802552
 20
176.337353673
 10
255.0929372134
 20
176.3582441019
 10
255.0655206768
 20
176.382907464
 10
255.0416900285
 20
176.4097624608
 10
255.0219983962
 20
176.4382819925
  0
LWPOLYLINE
  5
2B8
100
AcDbEntity
  8
0
100
AcDbPolyline
 62
7
  6
CONTINUOUS
 90
3
 70
0
 10
255.5783279098
 20
175.1673331184
 10
255.5736851498
 20
175.1329281108
 10
255.5650276475
 20
175.0983628013
  0
LINE
  5
2B9
100
AcDbEntity
  8
0
100
AcDbLine
 62
250
  6
CONTINUOUS
 10
261.8009478041
 20
197.4608717207
 11
261.7775695878
 21
197.3906800368
  0
LWPOLYLINE
  5
2BA
100
AcDbEntity
  8
0
100
AcDbPolyline
 62
7
  6
CONTINUOUS
 90
12
 70
0
 10
255.5650276475
 20
175.0983628013
 10
255.5026252018
 20
174.9246145148
 10
255.4291039563
 20
174.7572182204
 10
255.3444639108
 20
174.5961739233
 10
255.2481805767
 20
174.4407531901
 10
255.1407784427
 20
174.2916844561
 10
255.0238309746
 20
174.1511530196
 10
254.8971976507
 20
174.0192849855
 10
254.7610189928
 20
173.8959542207
 10
254.617290032
 20
173.7829676524
 10
254.4658996306
 20
173.6804776706
 10
254.3069589263
 20
173.5883318391
  0
LINE
  5
2BB
100
AcDbEntity
  8
0
100
AcDbLine
 62
7
  6
CONTINUOUS
 10
254.9933727964
 20
175.280643208
 11
255.0059756966
 21
175.3136936329
  0
LWPOLYLINE
  5
2BC
100
AcDbEntity
  8
0
100
AcDbPolyline
 62
7
  6
CONTINUOUS
 90
3
 70
0
 10
254.9933727964
 20
175.280643208
 10
255.0063236273
 20
175.3138509038
 10
255.0224619078
 20
175.3446042067
  0
LWPOLYLINE
  5
2BD
100
AcDbEntity
  8
0
100
AcDbPolyline
 62
7
  6
CONTINUOUS
 90
11
 70
0
 10
255.5084883376
 20
174.9392632535
 10
255.442471482
 20
174.7852748188
 10
255.3669770808
 20
174.6363975021
 10
255.2815843939
 20
174.4920156519
 10
255.1867141613
 20
174.3527449233
 10
255.0836286028
 20
174.220432273
 10
254.9722632492
 20
174.0952293502
 10
254.8526825696
 20
173.9769844869
 10
254.7263421919
 20
173.8670896522
 10
254.593177429
 20
173.7656403266
 10
254.4532529679
 20
173.6725409963
  0
LWPOLYLINE
  5
2BE
100
AcDbEntity
  8
0
100
AcDbPolyline
 62
7
  6
CONTINUOUS
 90
24
 70
0
 10
255.0224619078
 20
175.3446042067
 10
255.041787638
 20
175.3729031161
 10
255.0646481303
 20
175.3990640517
 10
255.0906960724
 20
175.4227705928
 10
255.1188895271
 20
175.4430734786
 10
255.149311612
 20
175.4598314111
 10
255.1818792096
 20
175.4731856875
 10
255.2153010304
 20
175.4826109399
 10
255.2496111542
 20
175.4879501985
 10
255.2847755012
 20
175.4893604328
 10
255.3194005426
 20
175.4867871836
 10
255.3534646593
 20
175.4800709515
 10
255.3869894703
 20
175.4693712362
 10
255.4186463039
 20
175.4551120774
 10
255.4483608214
 20
175.4371498879
 10
255.4762073615
 20
175.4156282555
 10
255.5010802677
 20
175.3914019823
 10
255.5228592901
 20
175.364362621
 10
255.5416646787
 20
175.33461862
 10
255.5567515273
 20
175.3033501248
 10
255.5679702681
 20
175.2704957874
 10
255.575470469
 20
175.2361169568
 10
255.5789559276
 20
175.2015778238
 10
255.5783279098
 20
175.1673331184
  0
LWPOLYLINE
  5
2BF
100
AcDbEntity
  8
0
100
AcDbPolyline
 62
7
  6
CONTINUOUS
 90
25
 70
0
 10
255.0221666262
 20
175.3445150226
 10
255.0419455851
 20
175.3731073764
 10
255.0658635486
 20
175.3999906286
 10
255.0933695414
 20
175.424644844
 10
255.1228106377
 20
175.4455102183
 10
255.1540678426
 20
175.4621431293
 10
255.187260151
 20
175.4749871982
 10
255.2210916217
 20
175.4838134853
 10
255.2555615589
 20
175.4885199392
 10
255.2906706583
 20
175.4892086109
 10
255.3251250656
 20
175.4859567147
 10
255.3589024056
 20
175.4786507393
 10
255.3920250535
 20
175.4674041961
 10
255.4232662796
 20
175.4526348335
 10
255.4526037573
 20
175.4341636415
 10
255.4800598132
 20
175.4121696309
 10
255.504474698
 20
175.3876075812
 10
255.5256740405
 20
175.3603979236
 10
255.5438322117
 20
175.3306202279
 10
255.5583125754
 20
175.2994679822
 10
255.5689643963
 20
175.2668839474
 10
255.5759384096
 20
175.2329253636
 10
255.5790501845
 20
175.1989574364
 10
255.5782382439
 20
175.1654352344
 10
255.5735640649
 20
175.1319036893
  0
LWPOLYLINE
  5
2C0
100
AcDbEntity
  8
0
100
AcDbPolyline
 62
7
  6
CONTINUOUS
 90
12
 70
0
 10
254.3082184982
 20
173.5888971331
 10
254.1427963632
 20
173.5078798366
 10
253.9733351265
 20
173.4392938699
 10
253.7986520311
 20
173.3824016858
 10
253.6213059659
 20
173.3380362724
 10
253.4412580169
 20
173.306382021
 10
253.2585470981
 20
173.2872545115
 10
253.0758488414
 20
173.2809335201
 10
252.8931634158
 20
173.2876074289
 10
252.7104906522
 20
173.3070878558
 10
252.5305056748
 20
173.3390894374
 10
252.353247905
 20
173.3837964697
  0
LWPOLYLINE
  5
2C1
100
AcDbEntity
  8
0
100
AcDbPolyline
 62
7
  6
CONTINUOUS
 90
11
 70
0
 10
254.3082733532
 20
178.1936127208
 10
254.4658997858
 20
178.1020613999
 10
254.6172902087
 20
177.9995713831
 10
254.7610192084
 20
177.8865847555
 10
254.8971979106
 20
177.7632539189
 10
255.0238312599
 20
177.6313858258
 10
255.1407787265
 20
177.4908543385
 10
255.2481808404
 20
177.3417855663
 10
255.3444641359
 20
177.1863648471
 10
255.4291041247
 20
177.0253206293
 10
255.5026252952
 20
176.8579244662
  0
LWPOLYLINE
  5
2C2
100
AcDbEntity
  8
0
100
AcDbPolyline
 62
7
  6
CONTINUOUS
 90
11
 70
0
 10
254.4533120051
 20
178.1099626173
 10
254.5932372982
 20
178.0168573269
 10
254.7264046207
 20
177.9153986708
 10
254.8527534928
 20
177.8054868751
 10
254.9723443942
 20
177.6872216802
 10
255.0837141516
 20
177.5620041865
 10
255.1867948438
 20
177.4296838842
 10
255.281654392
 20
177.2904112641
 10
255.3670333873
 20
177.1460389383
 10
255.4425120269
 20
176.9971844469
 10
255.5085101136
 20
176.8432302536
  0
LWPOLYLINE
  5
2C3
100
AcDbEntity
  8
0
100
AcDbPolyline
 62
7
  6
CONTINUOUS
 90
4
 70
0
 10
255.0417838063
 20
176.4096410081
 10
255.0224593281
 20
176.4379388441
 10
255.0063223248
 20
176.4686904938
 10
254.9933727964
 20
176.5018959565
  0
LINE
  5
2C4
100
AcDbEntity
  8
0
100
AcDbLine
 62
7
  6
CONTINUOUS
 10
255.0058926522
 20
176.4689931579
 11
254.9933727964
 21
176.5018959565
  0
LWPOLYLINE
  5
2C5
100
AcDbEntity
  8
0
100
AcDbPolyline
 62
7
  6
CONTINUOUS
 90
31
 70
0
 10
254.9933727964
 20
176.5018959565
 10
254.9395763927
 20
176.6497295096
 10
254.8754634021
 20
176.7913737024
 10
254.8010338247
 20
176.9268285323
 10
254.7157188585
 20
177.0568333892
 10
254.6200873055
 20
177.1806488839
 10
254.5158455714
 20
177.2960568522
 10
254.4028369732
 20
177.4029055597
 10
254.281218194
 20
177.5013467612
 10
254.1531656885
 20
177.5896175355
 10
254.018563108
 20
177.6675332323
 10
253.8775268012
 20
177.7352785316
 10
253.7325822687
 20
177.7916445123
 10
253.5836647725
 20
177.8364254065
 10
253.4308390505
 20
177.8698270073
 10
253.276824817
 20
177.891257734
 10
253.1216005514
 20
177.900505329
 10
252.9651877743
 20
177.8977820586
 10
252.8103707612
 20
177.883133124
 10
252.6571730575
 20
177.8563439482
 10
252.5055711179
 20
177.8176290964
 10
252.358278581
 20
177.7676774789
 10
252.2153729263
 20
177.7062849767
 10
252.0767766744
 20
177.6336556821
 10
251.9449710264
 20
177.5510908211
 10
251.8200801546
 20
177.458411062
 10
251.7019798868
 20
177.3557957074
 10
251.5927789071
 20
177.2450839409
 10
251.4931801104
 20
177.1268888191
 10
251.4024806019
 20
177.0005972682
 10
251.3206803816
 20
176.8662092821
  0
LINE
  5
2C6
100
AcDbEntity
  8
0
100
AcDbLine
 62
7
  6
CONTINUOUS
 10
255.5026252952
 20
176.8579244662
 11
255.5650276475
 21
176.6841763632
  0
LWPOLYLINE
  5
2C7
100
AcDbEntity
  8
0
100
AcDbPolyline
 62
7
  6
CONTINUOUS
 90
36
 70
0
 10
254.9933727964
 20
176.5018959565
 10
254.949395604
 20
176.6253198382
 10
254.8981421444
 20
176.7446134879
 10
254.8396124176
 20
176.8597769034
 10
254.7735181501
 20
176.9712145029
 10
254.7001476154
 20
177.0785218671
 10
254.6203656339
 20
177.1804857407
 10
254.5341077267
 20
177.2770656644
 10
254.4414383727
 20
177.368302106
 10
254.3434158295
 20
177.4531032057
 10
254.2398679359
 20
177.5314469767
 10
254.130966853
 20
177.603355421
 10
254.0182873225
 20
177.6678026651
 10
253.9019284117
 20
177.7246156467
 10
253.7817910532
 20
177.7739674456
 10
253.6591527857
 20
177.8153514038
 10
253.5339036415
 20
177.8487205163
 10
253.4061535882
 20
177.8741218014
 10
253.2775100675
 20
177.8911896337
 10
253.1479010353
 20
177.8997962224
 10
253.0173985358
 20
177.9000693635
 10
252.8878261431
 20
177.8920268101
 10
252.7593239952
 20
177.8755744056
 10
252.6317519541
 20
177.8508063018
 10
252.5065131802
 20
177.8180227118
 10
252.3835956953
 20
177.7771474234
 10
252.2630114775
 20
177.7282566355
 10
252.1461996216
 20
177.6718791771
 10
252.0330788804
 20
177.6078057729
 10
251.923730501
 20
177.5362456807
 10
251.8198373197
 20
177.4583555303
 10
251.7217277886
 20
177.3743055658
 10
251.6290734554
 20
177.2839255284
 10
251.5425718002
 20
177.1878612975
 10
251.4624553161
 20
177.0863281632
 10
251.38849151
 20
176.9791108259
  0
LINE
  5
2C8
100
AcDbEntity
  8
0
100
AcDbLine
 62
250
  6
CONTINUOUS
 10
261.7775695878
 20
154.3918591277
 11
261.8009478041
 21
154.3216674438
  0
LINE
  5
2C9
100
AcDbEntity
  8
0
100
AcDbLine
 62
7
  6
CONTINUOUS
 10
255.5650276475
 20
176.6841763632
 11
255.5736135037
 21
176.6507436412
  0
LINE
  5
2CA
100
AcDbEntity
  8
0
100
AcDbLine
 62
7
  6
CONTINUOUS
 10
255.5650276475
 20
176.6841763632
 11
255.5736858615
 21
176.6496125235
  0
LWPOLYLINE
  5
2CB
100
AcDbEntity
  8
0
100
AcDbPolyline
 62
7
  6
CONTINUOUS
 90
5
 70
0
 10
254.3634489265
 20
176.0145746324
 10
254.3736493097
 20
175.9516904913
 10
254.3769103394
 20
175.8912950265
 10
254.3736577369
 20
175.8309051955
 10
254.364097085
 20
175.7705174145
  0
LINE
  5
2CC
100
AcDbEntity
  8
0
100
AcDbLine
 62
7
  6
CONTINUOUS
 10
255.5736135037
 20
176.6507436412
 11
255.5783286144
 21
176.6152073395
  0
LWPOLYLINE
  5
2CD
100
AcDbEntity
  8
0
100
AcDbPolyline
 62
250
  6
CONTINUOUS
 90
7
 70
0
 10
261.2776457402
 20
197.8899948042
 10
261.2763944145
 20
197.8805569056
 10
261.2751822797
 20
197.8638200854
 10
261.274009336
 20
197.8402010187
 10
261.2728771967
 20
197.8103218267
 10
261.2717842485
 20
197.7745225653
 10
261.2696945408
 20
197.6841025554
  0
LWPOLYLINE
  5
2CE
100
AcDbEntity
  8
0
100
AcDbPolyline
 62
250
  6
CONTINUOUS
 90
10
 70
0
 10
261.7775695878
 20
197.3906800368
 10
261.7763184391
 20
197.3839040367
 10
261.7751064008
 20
197.3728387508
 10
261.773933473
 20
197.3574841793
 10
261.772801218
 20
197.3377659985
 10
261.7717080735
 20
197.3137585319
 10
261.7706493524
 20
197.2856847505
 10
261.7696182809
 20
197.2534252911
 10
261.7686216328
 20
197.2170995168
 10
261.7667831672
 20
197.1342798474
  0
LWPOLYLINE
  5
2CF
100
AcDbEntity
  8
0
100
AcDbPolyline
 62
7
  6
CONTINUOUS
 90
10
 70
0
 43
0.3500000087
 10
270.5509463379
 20
177.1769915161
 10
270.6938011841
 20
177.2484104126
 10
270.7652371338
 20
177.2484104126
 10
270.90809198
 20
177.1055555664
 10
270.90809198
 20
177.0341196167
 10
270.8366560303
 20
176.9627007202
 10
270.7652371338
 20
176.9627007202
 10
270.6223822876
 20
177.0341196167
 10
270.5509463379
 20
177.1055555664
 10
270.5509463379
 20
177.1769915161
  0
LWPOLYLINE
  5
2D0
100
AcDbEntity
  8
0
100
AcDbPolyline
 62
7
  6
CONTINUOUS
 90
3
 70
0
 43
0.3500000087
 10
270.7652371338
 20
177.2484104126
 10
270.9795108765
 20
177.1769915161
 10
271.2652376221
 20
177.0341196167
  0
LWPOLYLINE
  5
2D1
100
AcDbEntity
  8
0
100
AcDbPolyline
 62
250
  6
CONTINUOUS
 90
6
 70
0
 10
261.2712849533
 20
154.0269537966
 10
261.2724802548
 20
153.9844915501
 10
261.27371611
 20
153.9493767201
 10
261.274985433
 20
153.9221083693
 10
261.2762953097
 20
153.9030356632
 10
261.2776457402
 20
153.8925443603
  0
LINE
  5
2D2
100
AcDbEntity
  8
0
100
AcDbLine
 62
250
  6
CONTINUOUS
 10
261.2690853513
 20
154.1307540741
 11
261.2712849533
 21
154.0269537966
  0
LWPOLYLINE
  5
2D3
100
AcDbEntity
  8
0
100
AcDbPolyline
 62
250
  6
CONTINUOUS
 90
8
 70
0
 10
261.7690091118
 20
154.5505023408
 10
261.7700751942
 20
154.5141466936
 10
261.7712088116
 20
154.4816635208
 10
261.7724043119
 20
154.4531214953
 10
261.7736402811
 20
154.4297473682
 10
261.7749095811
 20
154.4119500564
 10
261.77621935
 20
154.3993206429
 10
261.7775695878
 20
154.3918591277
  0
LINE
  5
2D4
100
AcDbEntity
  8
0
100
AcDbLine
 62
250
  6
CONTINUOUS
 10
261.767067054
 20
154.6340163455
 11
261.7690091118
 21
154.5505023408
  0
LINE
  5
2D5
100
AcDbEntity
  8
0
100
AcDbLine
 62
250
  6
CONTINUOUS
 10
261.7653966255
 20
154.7285932635
 11
261.767067054
 21
154.6340163455
  0
LINE
  5
2D6
100
AcDbEntity
  8
0
100
AcDbLine
 62
250
  6
CONTINUOUS
 10
261.2662747741
 20
154.3248211334
 11
261.2690853513
 21
154.1307540741
  0
LINE
  5
2D7
100
AcDbEntity
  8
0
100
AcDbLine
 62
250
  6
CONTINUOUS
 10
261.7633489785
 20
154.8923459458
 11
261.7653966255
 21
154.7285932635
  0
LINE
  5
2D8
100
AcDbEntity
  8
0
100
AcDbLine
 62
250
  6
CONTINUOUS
 10
261.263425092
 20
154.6431014307
 11
261.2662747741
 21
154.3248211334
  0
LINE
  5
2D9
100
AcDbEntity
  8
0
100
AcDbLine
 62
250
  6
CONTINUOUS
 10
261.7615813426
 20
155.1407059407
 11
261.7633489785
 21
154.8923459458
  0
LINE
  5
2DA
100
AcDbEntity
  8
0
100
AcDbLine
 62
250
  6
CONTINUOUS
 10
261.2614027652
 20
155.117395077
 11
261.263425092
 21
154.6431014307
  0
LINE
  5
2DB
100
AcDbEntity
  8
0
100
AcDbLine
 62
250
  6
CONTINUOUS
 10
261.2560580559
 20
164.3696977075
 11
261.2614027652
 21
155.117395077
  0
LINE
  5
2DC
100
AcDbEntity
  8
0
100
AcDbLine
 62
250
  6
CONTINUOUS
 10
261.7559819034
 20
164.3812192794
 11
261.7615813426
 21
155.1407059407
  0
LINE
  5
2DD
100
AcDbEntity
  8
0
100
AcDbLine
 62
7
  6
CONTINUOUS
 10
261.8009478041
 20
154.3216674438
 11
261.8009478041
 21
197.4608717207
  0
LINE
  5
2DE
100
AcDbEntity
  8
0
100
AcDbLine
 62
250
  6
CONTINUOUS
 10
261.7616599669
 20
196.6586856959
 11
261.7559819034
 21
164.3812192794
  0
LINE
  5
2DF
100
AcDbEntity
  8
0
100
AcDbLine
 62
250
  6
CONTINUOUS
 10
261.2626148813
 20
197.0018031336
 11
261.2560580559
 21
164.3696977075
  0
LINE
  5
2E0
100
AcDbEntity
  8
0
100
AcDbLine
 62
250
  6
CONTINUOUS
 10
261.7630929501
 20
196.863857269
 11
261.7616599669
 21
196.6586856959
  0
LINE
  5
2E1
100
AcDbEntity
  8
0
100
AcDbLine
 62
250
  6
CONTINUOUS
 10
261.2652274728
 20
197.3602621492
 11
261.2626148813
 21
197.0018031336
  0
LINE
  5
2E2
100
AcDbEntity
  8
0
100
AcDbLine
 62
250
  6
CONTINUOUS
 10
261.2677511201
 20
197.5699074812
 11
261.2652274728
 21
197.3602621492
  0
LINE
  5
2E3
100
AcDbEntity
  8
0
100
AcDbLine
 62
250
  6
CONTINUOUS
 10
261.765151253
 20
197.0375249337
 11
261.7630929501
 21
196.863857269
  0
LINE
  5
2E4
100
AcDbEntity
  8
0
100
AcDbLine
 62
250
  6
CONTINUOUS
 10
261.7667831672
 20
197.1342798474
 11
261.765151253
 21
197.0375249337
  0
LINE
  5
2E5
100
AcDbEntity
  8
0
100
AcDbLine
 62
250
  6
CONTINUOUS
 10
261.2696945408
 20
197.6841025554
 11
261.2677511201
 21
197.5699074812
  0
LWPOLYLINE
  5
2E6
100
AcDbEntity
  8
0
100
AcDbPolyline
 62
250
  6
CONTINUOUS
 90
16
 70
0
 10
261.7775695878
 20
197.3906800368
 10
261.7747865009
 20
197.4428417692
 10
261.7665630773
 20
197.4944327905
 10
261.7529892747
 20
197.5448885219
 10
261.7342136009
 20
197.5936568061
 10
261.7104414939
 20
197.6402039392
 10
261.6819330777
 20
197.6840205134
 10
261.6490003048
 20
197.724627011
 10
261.612003552
 20
197.7615790342
 10
261.5713476893
 20
197.7944721644
 10
261.5274776188
 20
197.8229464172
 10
261.4808734249
 20
197.8466901609
 10
261.4320451419
 20
197.8654435234
 10
261.3815271321
 20
197.8790012591
 10
261.3298722342
 20
197.8872149865
 10
261.2776457397
 20
197.8899948027
  0
LWPOLYLINE
  5
2E7
100
AcDbEntity
  8
0
100
AcDbPolyline
 62
250
  6
CONTINUOUS
 90
16
 70
0
 10
261.7775695878
 20
154.3918591277
 10
261.7747864312
 20
154.3396967386
 10
261.7665628238
 20
154.2881051878
 10
261.7529887607
 20
154.2376490666
 10
261.7342127894
 20
154.1888805405
 10
261.7104403843
 20
154.1423333073
 10
261.6819316985
 20
154.0985167555
 10
261.6489987161
 20
154.057910391
 10
261.6120018388
 20
154.0209585888
 10
261.5713459413
 20
153.9880657302
 10
261.5274759405
 20
153.9595917779
 10
261.4808719273
 20
153.9358483359
 10
261.4320439117
 20
153.9170952401
 10
261.3815262424
 20
153.9035377147
 10
261.3298717586
 20
153.8953241264
 10
261.2776457402
 20
153.8925443603
  0
LWPOLYLINE
  5
2E8
100
AcDbEntity
  8
0
100
AcDbPolyline
 62
7
  6
CONTINUOUS
 90
3
 70
0
 43
0.3500000087
 10
268.9080900269
 20
178.2484113892
 10
268.0509438965
 20
179.1055575195
 10
271.0509468262
 20
179.1055575195
  0
LWPOLYLINE
  5
2E9
100
AcDbEntity
  8
0
100
AcDbPolyline
 62
7
  6
CONTINUOUS
 90
3
 70
0
 43
0.3500000087
 10
270.4080914917
 20
175.6769900513
 10
270.4080914917
 20
174.1769885864
 10
268.0509438965
 20
174.8198439209
  0
LWPOLYLINE
  5
2EA
100
AcDbEntity
  8
0
100
AcDbPolyline
 62
7
  6
CONTINUOUS
 90
3
 70
0
 43
0.3500000087
 10
270.4080914917
 20
173.3198424561
 10
270.4080914917
 20
171.8198409912
 10
268.0509438965
 20
172.4626963257
  0
LINE
  5
2EB
100
AcDbEntity
  8
0
100
AcDbLine
 62
250
  6
CONTINUOUS
 10
240.1928008657
 20
196.4532246991
 11
240.2956205865
 21
196.453737918
  0
LWPOLYLINE
  5
2EC
100
AcDbEntity
  8
0
100
AcDbPolyline
 62
250
  6
CONTINUOUS
 90
14
 70
0
 10
261.7610428172
 20
155.3493637454
 10
261.7574633927
 20
155.3472378532
 10
261.7485659909
 20
155.3451347355
 10
261.7344459085
 20
155.3430769261
 10
261.7152543999
 20
155.3410864745
 10
261.6911970602
 20
155.3391847072
 10
261.6625316274
 20
155.3373919991
 10
261.6295652092
 20
155.3357275576
 10
261.5926510033
 20
155.3342092182
 10
261.5521845236
 20
155.3328532504
 10
261.5085993345
 20
155.3316741846
 10
261.462362423
 20
155.3306846539
 10
261.413969216
 20
155.329895259
 10
261.3639382333
 20
155.3293144575
  0
LINE
  5
2ED
100
AcDbEntity
  8
0
100
AcDbLine
 62
250
  6
CONTINUOUS
 10
240.2790938159
 20
197.8899948042
 11
261.2776457402
 21
197.8899948042
  0
LINE
  5
2EE
100
AcDbEntity
  8
0
100
AcDbLine
 62
7
  6
CONTINUOUS
 10
261.3013284038
 20
197.9611005728
 11
240.2554111523
 21
197.9611005728
  0
LWPOLYLINE
  5
2EF
100
AcDbEntity
  8
0
100
AcDbPolyline
 62
7
  6
CONTINUOUS
 90
7
 70
0
 43
0.3500000087
 10
252.2783671021
 20
208.7110946167
 10
250.7783656372
 20
208.7110946167
 10
252.2783671021
 20
210.853951416
 10
252.2783671021
 20
211.2825330078
 10
251.8498025635
 20
211.7110975464
 10
251.206947229
 20
211.7110975464
 10
250.7783656372
 20
211.0682422119
  0
LWPOLYLINE
  5
2F0
100
AcDbEntity
  8
0
100
AcDbPolyline
 62
7
  6
CONTINUOUS
 90
7
 70
0
 43
0.3500000087
 10
249.9212195068
 20
208.7110946167
 10
248.4212350952
 20
208.7110946167
 10
249.9212195068
 20
210.853951416
 10
249.9212195068
 20
211.2825330078
 10
249.4926549683
 20
211.7110975464
 10
248.8497996338
 20
211.7110975464
 10
248.4212350952
 20
211.0682422119
  0
LWPOLYLINE
  5
2F1
100
AcDbEntity
  8
0
100
AcDbPolyline
 62
250
  6
CONTINUOUS
 90
16
 70
0
 10
261.7610428172
 20
196.4331754387
 10
261.7574633141
 20
196.4353013494
 10
261.7485657245
 20
196.437404482
 10
261.7344453815
 20
196.4394623024
 10
261.7152535777
 20
196.4414527622
 10
261.6911959438
 20
196.4433545346
 10
261.6625302458
 20
196.4451472429
 10
261.6295636223
 20
196.4468116791
 10
261.5926492947
 20
196.4483300098
 10
261.5521827819
 20
196.4496859666
 10
261.5085976628
 20
196.4508650212
 10
261.4623609306
 20
196.4518545406
 10
261.4139679893
 20
196.4526439226
 10
261.3639373455
 20
196.4532247092
 10
261.3128050531
 20
196.4535906778
 10
240.2956205865
 20
196.4537379071
  0
LWPOLYLINE
  5
2F2
100
AcDbEntity
  8
0
100
AcDbPolyline
 62
7
  6
CONTINUOUS
 90
5
 70
0
 43
0.3500000087
 10
210.7022009888
 20
210.4253868774
 10
211.0593466309
 20
210.6396776733
 10
211.0593466309
 20
211.2825330078
 10
210.7022009888
 20
211.7110975464
 10
209.8450548584
 20
211.7110975464
  0
LWPOLYLINE
  5
2F3
100
AcDbEntity
  8
0
100
AcDbPolyline
 62
7
  6
CONTINUOUS
 90
3
 70
0
 43
0.3500000087
 10
208.8450538818
 20
208.9968213623
 10
208.7736349854
 20
208.7825305664
 10
208.6307801392
 20
208.496820874
  0
LINE
  5
2F4
100
AcDbEntity
  8
0
100
AcDbLine
 62
250
  6
CONTINUOUS
 10
220.3995939207
 20
154.4514244945
 11
220.2021999637
 21
154.4514244945
  0
LINE
  5
2F5
100
AcDbEntity
  8
0
100
AcDbLine
 62
7
  6
CONTINUOUS
 10
218.5428150318
 20
153.8925443603
 11
219.8995939207
 21
153.8214385917
  0
LINE
  5
2F6
100
AcDbEntity
  8
0
100
AcDbLine
 62
250
  6
CONTINUOUS
 10
218.5602568067
 20
154.3918591277
 11
219.8995939207
 21
154.3216674438
  0
LINE
  5
2F7
100
AcDbEntity
  8
0
100
AcDbLine
 62
250
  6
CONTINUOUS
 10
217.1252628339
 20
155.3289484737
 11
217.1225879494
 21
155.3288012298
  0
LINE
  5
2F8
100
AcDbEntity
  8
0
100
AcDbLine
 62
250
  6
CONTINUOUS
 10
217.6134387502
 20
155.3493637454
 11
217.1252628339
 21
155.3289484737
  0
LWPOLYLINE
  5
2F9
100
AcDbEntity
  8
0
100
AcDbPolyline
 62
250
  6
CONTINUOUS
 90
13
 70
0
 10
222.2344561983
 20
158.3017992307
 10
222.2442411377
 20
158.3042991604
 10
222.2535803831
 20
158.3100208918
 10
222.2623209952
 20
158.3188707228
 10
222.2703198379
 20
158.3307037254
 10
222.2774459228
 20
158.3453261198
 10
222.2835825548
 20
158.362498448
 10
222.2886292412
 20
158.3819394941
 10
222.2925033384
 20
158.4033308905
 10
222.2951414057
 20
158.426322333
 10
222.2965002429
 20
158.4505373142
 10
222.2965575985
 20
158.4755792899
 10
222.2953125339
 20
158.5010381737
  0
LINE
  5
2FA
100
AcDbEntity
  8
0
100
AcDbLine
 62
7
  6
CONTINUOUS
 10
222.2344562178
 20
158.3017992324
 11
220.3995939207
 21
158.1412695822
  0
LINE
  5
2FB
100
AcDbEntity
  8
0
100
AcDbLine
 62
250
  6
CONTINUOUS
 10
222.1039571884
 20
158.4909933196
 11
220.3995939207
 21
158.3418808552
  0
LINE
  5
2FC
100
AcDbEntity
  8
0
100
AcDbLine
 62
250
  6
CONTINUOUS
 10
222.2953125016
 20
158.501038172
 11
222.1039571884
 21
158.4909933196
  0
LINE
  5
2FD
100
AcDbEntity
  8
0
100
AcDbLine
 62
7
  6
CONTINUOUS
 10
221.6995939207
 20
162.6222890305
 11
220.3995939207
 21
162.5541589174
  0
LINE
  5
2FE
100
AcDbEntity
  8
0
100
AcDbLine
 62
250
  6
CONTINUOUS
 10
222.2953125016
 20
161.7815009925
 11
222.1039571884
 21
161.7915458449
  0
LINE
  5
2FF
100
AcDbEntity
  8
0
100
AcDbLine
 62
250
  6
CONTINUOUS
 10
222.1039571884
 20
161.7915458449
 11
220.3995939207
 21
161.9406583093
  0
LINE
  5
300
100
AcDbEntity
  8
0
100
AcDbLine
 62
7
  6
CONTINUOUS
 10
222.2344562178
 20
161.9807399321
 11
220.3995939207
 21
162.1412695822
  0
LWPOLYLINE
  5
301
100
AcDbEntity
  8
0
100
AcDbPolyline
 62
7
  6
CONTINUOUS
 90
5
 70
0
 10
221.6948822641
 20
163.5890725007
 10
221.6898247442
 20
163.5879749873
 10
221.682636367
 20
163.5884554189
 10
221.6732873552
 20
163.5905432396
 10
221.6616732528
 20
163.5942257086
  0
LINE
  5
302
100
AcDbEntity
  8
0
100
AcDbLine
 62
250
  6
CONTINUOUS
 10
221.9995939207
 20
163.8267224188
 11
221.8100611119
 21
163.8046272688
  0
LWPOLYLINE
  5
303
100
AcDbEntity
  8
0
100
AcDbPolyline
 62
7
  6
CONTINUOUS
 90
10
 70
0
 10
221.5753468548
 20
188.1497994506
 10
221.5955832179
 20
188.1595978097
 10
221.6147547661
 20
188.1685001666
 10
221.6322421062
 20
188.1763790039
 10
221.6478842292
 20
188.1830671679
 10
221.6616732527
 20
188.1883134558
 10
221.6732873552
 20
188.1919959249
 10
221.682636367
 20
188.1940837456
 10
221.6898247442
 20
188.1945641772
 10
221.6948822641
 20
188.1934666638
  0
LWPOLYLINE
  5
304
100
AcDbEntity
  8
0
100
AcDbPolyline
 62
7
  6
CONTINUOUS
 90
3
 70
0
 10
221.5100611119
 20
188.1178041932
 10
221.532537364
 20
188.1285880649
 10
221.5753468548
 20
188.1497994506
  0
LWPOLYLINE
  5
305
100
AcDbEntity
  8
0
100
AcDbPolyline
 62
7
  6
CONTINUOUS
 90
7
 70
0
 10
221.6616732528
 20
163.5942257086
 10
221.6478842292
 20
163.5994719966
 10
221.6322421063
 20
163.6061601606
 10
221.6147547662
 20
163.6140389979
 10
221.595583218
 20
163.6229413547
 10
221.5753468549
 20
163.6327397139
 10
221.532537364
 20
163.6539510995
  0
LINE
  5
306
100
AcDbEntity
  8
0
100
AcDbLine
 62
7
  6
CONTINUOUS
 10
221.532537364
 20
163.6539510995
 11
221.5100611119
 21
163.6647349713
  0
LINE
  5
307
100
AcDbEntity
  8
0
100
AcDbLine
 62
7
  6
CONTINUOUS
 10
220.3995939207
 20
166.2283802471
 11
221.9995939207
 21
166.1445278003
  0
LWPOLYLINE
  5
308
100
AcDbEntity
  8
0
100
AcDbPolyline
 62
250
  6
CONTINUOUS
 90
22
 70
0
 10
217.613438751
 20
155.3493637258
 10
217.6194090412
 20
155.2776194384
 10
217.6296930747
 20
155.2080668433
 10
217.6442908513
 20
155.1407059407
 10
217.6632775252
 20
155.0756254834
 10
217.6865779422
 20
155.0127367185
 10
217.7139666408
 20
154.9517733872
 10
217.7455586439
 20
154.8923459458
 10
217.7812389285
 20
154.834843938
 10
217.8204369644
 20
154.7801697368
 10
217.8628682642
 20
154.7285932635
 10
217.9088173152
 20
154.6798445967
 10
217.9585670496
 20
154.6340163455
 10
218.0122969147
 20
154.5907991354
 10
218.0698274632
 20
154.5505023408
 10
218.1309032845
 20
154.5141466936
 10
218.1958481791
 20
154.4816635208
 10
218.2643383465
 20
154.4531214953
 10
218.3351469742
 20
154.4297473682
 10
218.4078651247
 20
154.4119500564
 10
218.4829017355
 20
154.3993206429
 10
218.5602568067
 20
154.3918591277
  0
LWPOLYLINE
  5
309
100
AcDbEntity
  8
0
100
AcDbPolyline
 62
250
  6
CONTINUOUS
 90
16
 70
0
 10
217.613438751
 20
196.4331754387
 10
217.5037702925
 20
193.5007944853
 10
217.4109993623
 20
190.6547864118
 10
217.3351259605
 20
187.8951512183
 10
217.2773472268
 20
185.2461742132
 10
217.2364660215
 20
182.6835700881
 10
217.2088909249
 20
180.1344829174
 10
217.1931354116
 20
177.5967342375
 10
217.1906860069
 20
175.072502512
 10
217.2024108676
 20
172.4954672069
 10
217.2270703852
 20
169.8599057518
 10
217.2659041681
 20
167.1715407171
 10
217.323499198
 20
164.3812192794
 10
217.4013844687
 20
161.4725571644
 10
217.4980309864
 20
158.4619386466
 10
217.613438751
 20
155.3493637258
  0
LWPOLYLINE
  5
30A
100
AcDbEntity
  8
0
100
AcDbPolyline
 62
250
  6
CONTINUOUS
 90
19
 70
0
 10
220.2022051852
 20
154.451426395
 10
220.2100571647
 20
154.406438543
 10
220.2169715849
 20
154.3624057369
 10
220.22289303
 20
154.3196609182
 10
220.2278245618
 20
154.2782889069
 10
220.2316827041
 20
154.2388185581
 10
220.2343945558
 20
154.2021374872
 10
220.2360989836
 20
154.1685337879
 10
220.2368765688
 20
154.1379274155
 10
220.2367013428
 20
154.1104705969
 10
220.2357285724
 20
154.086421677
 10
220.2341391302
 20
154.0653557333
 10
220.2318552206
 20
154.0465054948
 10
220.2288572884
 20
154.0299509409
 10
220.2252440566
 20
154.0157386366
 10
220.2208723717
 20
154.0034866416
 10
220.2155897349
 20
153.9934015397
 10
220.2093815783
 20
153.9859873029
 10
220.2021999637
 20
153.9815781841
  0
LWPOLYLINE
  5
30B
100
AcDbEntity
  8
0
100
AcDbPolyline
 62
250
  6
CONTINUOUS
 90
8
 70
0
 10
221.8640624205
 20
188.1048717589
 10
221.860526301
 20
188.0946581539
 10
221.8552677215
 20
188.08099623
 10
221.8484420042
 20
188.0642895177
 10
221.8402507595
 20
188.0450314809
 10
221.8309359311
 20
188.0237909416
 10
221.82077265
 20
188.0011952788
 10
221.8100611075
 20
187.9779118978
  0
LWPOLYLINE
  5
30C
100
AcDbEntity
  8
0
100
AcDbPolyline
 62
250
  6
CONTINUOUS
 90
8
 70
0
 10
221.8640624146
 20
163.677667403
 10
221.8605262915
 20
163.6878810064
 10
221.8552677065
 20
163.7015429278
 10
221.8484419833
 20
163.7182496374
 10
221.8402507371
 20
163.7375076735
 10
221.8309359133
 20
163.7587482149
 10
221.8207726411
 20
163.7813438817
 10
221.8100611119
 20
163.8046272688
  0
LINE
  5
30D
100
AcDbEntity
  8
0
100
AcDbLine
 62
250
  6
CONTINUOUS
 10
218.5602568067
 20
197.3906800368
 11
218.5526041387
 21
197.5448885219
  0
LINE
  5
30E
100
AcDbEntity
  8
0
100
AcDbLine
 62
250
  6
CONTINUOUS
 10
218.5526041387
 20
197.5448885219
 11
218.548351535
 21
197.6402039392
  0
LINE
  5
30F
100
AcDbEntity
  8
0
100
AcDbLine
 62
250
  6
CONTINUOUS
 10
218.548351535
 20
197.6402039392
 11
218.5449995602
 21
197.724627011
  0
LWPOLYLINE
  5
310
100
AcDbEntity
  8
0
100
AcDbPolyline
 62
250
  6
CONTINUOUS
 90
8
 70
0
 10
218.5449995602
 20
197.724627011
 10
218.5426945554
 20
197.7944721644
 10
218.5419680352
 20
197.8229464172
 10
218.5415371552
 20
197.8466901609
 10
218.5414066321
 20
197.8654435234
 10
218.5415778951
 20
197.8790012591
 10
218.5420490707
 20
197.8872149865
 10
218.5428150033
 20
197.8899948027
  0
LWPOLYLINE
  5
311
100
AcDbEntity
  8
0
100
AcDbPolyline
 62
250
  6
CONTINUOUS
 90
7
 70
0
 10
218.5426945311
 20
153.9880657302
 10
218.5419680266
 20
153.9595917779
 10
218.5415371602
 20
153.9358483359
 10
218.5414066484
 20
153.9170952401
 10
218.5415779198
 20
153.9035377147
 10
218.5420490997
 20
153.8953241264
 10
218.5428150318
 20
153.8925443603
  0
LINE
  5
312
100
AcDbEntity
  8
0
100
AcDbLine
 62
250
  6
CONTINUOUS
 10
218.5449995034
 20
154.057910391
 11
218.5426945311
 21
153.9880657302
  0
LINE
  5
313
100
AcDbEntity
  8
0
100
AcDbLine
 62
250
  6
CONTINUOUS
 10
218.5483514565
 20
154.1423333073
 11
218.5449995034
 21
154.057910391
  0
LINE
  5
314
100
AcDbEntity
  8
0
100
AcDbLine
 62
250
  6
CONTINUOUS
 10
218.5550114198
 20
154.2881051878
 11
218.5483514565
 21
154.1423333073
  0
LINE
  5
315
100
AcDbEntity
  8
0
100
AcDbLine
 62
250
  6
CONTINUOUS
 10
218.5602568067
 20
154.3918591277
 11
218.5550114198
 21
154.2881051878
  0
LINE
  5
316
100
AcDbEntity
  8
0
100
AcDbLine
 62
250
  6
CONTINUOUS
 10
222.1124344946
 20
158.391417552
 11
222.1039571884
 21
158.4909933196
  0
LINE
  5
317
100
AcDbEntity
  8
0
100
AcDbLine
 62
7
  6
CONTINUOUS
 10
219.8995939207
 20
153.8214385917
 11
219.8995939207
 21
197.9611005728
  0
LINE
  5
318
100
AcDbEntity
  8
0
100
AcDbLine
 62
250
  6
CONTINUOUS
 10
220.2021999637
 20
197.33111467
 11
220.2021999637
 21
154.4514244945
  0
LINE
  5
319
100
AcDbEntity
  8
0
100
AcDbLine
 62
7
  6
CONTINUOUS
 10
220.3995939207
 20
197.5190531942
 11
220.3995939207
 21
154.2634859703
  0
LWPOLYLINE
  5
31A
100
AcDbEntity
  8
0
100
AcDbPolyline
 62
250
  6
CONTINUOUS
 90
22
 70
0
 10
222.5995939207
 20
161.5822201877
 10
222.5983467543
 20
161.5996467151
 10
222.5947568746
 20
161.6162921834
 10
222.5890535675
 20
161.6321565927
 10
222.5814736331
 20
161.6472701063
 10
222.5722394117
 20
161.661602561
 10
222.5615396661
 20
161.6750634665
 10
222.5495746637
 20
161.6876209609
 10
222.5365382141
 20
161.6993069061
 10
222.5225716823
 20
161.7101263978
 10
222.5078885401
 20
161.7200400363
 10
222.4926043537
 20
161.7290872211
 10
222.4766478183
 20
161.7373912465
 10
222.4601758137
 20
161.7449567349
 10
222.4432373007
 20
161.7517790639
 10
222.4254941604
 20
161.7579676598
 10
222.4070907124
 20
161.7635778387
 10
222.3879678506
 20
161.7685542845
 10
222.3673443008
 20
161.772840475
 10
222.3449050856
 20
161.7764175695
 10
222.3208962376
 20
161.7793044087
 10
222.2953125016
 20
161.7815009925
  0
LWPOLYLINE
  5
31B
100
AcDbEntity
  8
0
100
AcDbPolyline
 62
250
  6
CONTINUOUS
 90
3
 70
0
 10
221.8656034577
 20
188.1138580638
 10
221.8657716344
 20
188.1113353671
 10
221.8640624205
 20
188.1048717589
  0
LINE
  5
31C
100
AcDbEntity
  8
0
100
AcDbLine
 62
250
  6
CONTINUOUS
 10
221.5100611119
 20
162.6123560368
 11
221.5100611119
 21
163.6647349713
  0
LINE
  5
31D
100
AcDbEntity
  8
0
100
AcDbLine
 62
250
  6
CONTINUOUS
 10
221.5100611119
 20
188.1178041932
 11
221.5100611119
 21
189.1701831276
  0
LINE
  5
31E
100
AcDbEntity
  8
0
100
AcDbLine
 62
7
  6
CONTINUOUS
 10
221.6995939207
 20
162.6222890305
 11
221.6995939207
 21
163.5912695822
  0
LINE
  5
31F
100
AcDbEntity
  8
0
100
AcDbLine
 62
7
  6
CONTINUOUS
 10
221.6995939207
 20
188.1912695822
 11
221.6995939207
 21
189.160250134
  0
LINE
  5
320
100
AcDbEntity
  8
0
100
AcDbLine
 62
250
  6
CONTINUOUS
 10
221.8100611119
 20
163.8046272688
 11
221.8100611119
 21
166.1544607939
  0
LINE
  5
321
100
AcDbEntity
  8
0
100
AcDbLine
 62
250
  6
CONTINUOUS
 10
221.8100611119
 20
185.6280783706
 11
221.8100611119
 21
187.9779118957
  0
LINE
  5
322
100
AcDbEntity
  8
0
100
AcDbLine
 62
7
  6
CONTINUOUS
 10
221.9995939207
 20
163.8267224188
 11
221.9995939207
 21
166.1445278003
  0
LINE
  5
323
100
AcDbEntity
  8
0
100
AcDbLine
 62
7
  6
CONTINUOUS
 10
221.9995939207
 20
185.6380113642
 11
221.9995939207
 21
187.9558167457
  0
LINE
  5
324
100
AcDbEntity
  8
0
100
AcDbLine
 62
250
  6
CONTINUOUS
 10
222.1039571884
 20
161.7915458449
 11
222.1039571884
 21
158.4909933196
  0
LINE
  5
325
100
AcDbEntity
  8
0
100
AcDbLine
 62
7
  6
CONTINUOUS
 10
222.5995939207
 20
161.5822620529
 11
222.5995939207
 21
158.7002771116
  0
LWPOLYLINE
  5
326
100
AcDbEntity
  8
0
100
AcDbPolyline
 62
250
  6
CONTINUOUS
 90
3
 70
0
 10
221.8656034577
 20
163.6686811007
 10
221.8657716316
 20
163.6712037961
 10
221.8640624146
 20
163.677667403
  0
LWPOLYLINE
  5
327
100
AcDbEntity
  8
0
100
AcDbPolyline
 62
250
  6
CONTINUOUS
 90
7
 70
0
 10
222.1196430299
 20
158.29175438
 10
222.1197200296
 20
158.2934770197
 10
222.1194977379
 20
158.2985759496
 10
222.1189799544
 20
158.3069640101
 10
222.1181755246
 20
158.3184978174
 10
222.1170982039
 20
158.332980216
 10
222.1124344946
 20
158.391417552
  0
LWPOLYLINE
  5
328
100
AcDbEntity
  8
0
100
AcDbPolyline
 62
250
  6
CONTINUOUS
 90
13
 70
0
 10
222.2953124942
 20
161.7815009929
 10
222.2965575611
 20
161.8069599431
 10
222.2965002024
 20
161.8320019719
 10
222.2951413582
 20
161.856216991
 10
222.2925032816
 20
161.8792084562
 10
222.2886291745
 20
161.9005998594
 10
222.2835824806
 20
161.9200408949
 10
222.2774458453
 20
161.937213198
 10
222.270319763
 20
161.9518355578
 10
222.2623209312
 20
161.9636685209
 10
222.2535803393
 20
161.9725183138
 10
222.2442411234
 20
161.9782400158
 10
222.2344562222
 20
161.9807399317
  0
LWPOLYLINE
  5
329
100
AcDbEntity
  8
0
100
AcDbPolyline
 62
250
  6
CONTINUOUS
 90
5
 70
0
 10
222.1181755402
 20
161.9640413453
 10
222.1189799528
 20
161.9755751543
 10
222.1194977295
 20
161.9839632155
 10
222.1197200218
 20
161.9890621455
 10
222.1196430299
 20
161.9907847845
  0
LINE
  5
32A
100
AcDbEntity
  8
0
100
AcDbLine
 62
250
  6
CONTINUOUS
 10
222.1157664856
 20
161.9323755091
 11
222.1181755402
 21
161.9640413453
  0
LWPOLYLINE
  5
32B
100
AcDbEntity
  8
0
100
AcDbPolyline
 62
250
  6
CONTINUOUS
 90
19
 70
0
 10
222.5995939207
 20
158.7003442633
 10
222.5979926948
 20
158.6805634778
 10
222.5934020774
 20
158.6617961406
 10
222.5861449863
 20
158.6440422519
 10
222.5765525753
 20
158.6272602855
 10
222.5649384253
 20
158.6114917676
 10
222.5515765708
 20
158.5968612758
 10
222.5367896956
 20
158.5834424482
 10
222.5208171159
 20
158.5711616469
 10
222.50372062
 20
158.5599225359
 10
222.4858068342
 20
158.5497564817
 10
222.4671623516
 20
158.5406321179
 10
222.447340965
 20
158.5323590098
 10
222.4265180693
 20
158.5248432229
 10
222.4046625146
 20
158.5181786917
 10
222.3807725717
 20
158.5124567841
 10
222.3544259753
 20
158.5077079564
 10
222.3259392909
 20
158.5039017523
 10
222.2953125016
 20
158.501038172
  0
LINE
  5
32C
100
AcDbEntity
  8
0
100
AcDbLine
 62
250
  6
CONTINUOUS
 10
222.1104914326
 20
161.8677563135
 11
222.1157664856
 21
161.9323755091
  0
LINE
  5
32D
100
AcDbEntity
  8
0
100
AcDbLine
 62
250
  6
CONTINUOUS
 10
222.1039571884
 20
161.7915458449
 11
222.1104914326
 21
161.8677563135
  0
LWPOLYLINE
  5
32E
100
AcDbEntity
  8
0
100
AcDbPolyline
 62
7
  6
CONTINUOUS
 90
10
 70
0
 43
0.3500000087
 10
208.7736349854
 20
209.211095105
 10
208.8450538818
 20
209.0682402588
 10
208.8450538818
 20
208.9968213623
 10
208.7021990356
 20
208.8539494629
 10
208.6307801392
 20
208.8539494629
 10
208.5593441895
 20
208.9253854126
 10
208.5593441895
 20
208.9968213623
 10
208.6307801392
 20
209.1396762085
 10
208.7021990356
 20
209.211095105
 10
208.7736349854
 20
209.211095105
  0
LINE
  5
32F
100
AcDbEntity
  8
0
100
AcDbLine
 62
7
  6
CONTINUOUS
 10
220.3995939207
 20
185.5541589174
 11
221.9995939207
 21
185.6380113642
  0
LINE
  5
330
100
AcDbEntity
  8
0
100
AcDbLine
 62
250
  6
CONTINUOUS
 10
221.8100611119
 20
163.8046272688
 11
221.5100611119
 21
163.6647349713
  0
LINE
  5
331
100
AcDbEntity
  8
0
100
AcDbLine
 62
7
  6
CONTINUOUS
 10
221.9129866599
 20
163.6907762508
 11
221.6948822641
 21
163.5890725007
  0
LINE
  5
332
100
AcDbEntity
  8
0
100
AcDbLine
 62
250
  6
CONTINUOUS
 10
221.5100611119
 20
188.1178041932
 11
221.8100611119
 21
187.9779118957
  0
LINE
  5
333
100
AcDbEntity
  8
0
100
AcDbLine
 62
7
  6
CONTINUOUS
 10
221.6948822641
 20
188.1934666638
 11
221.9129866599
 21
188.0917629137
  0
LINE
  5
334
100
AcDbEntity
  8
0
100
AcDbLine
 62
7
  6
CONTINUOUS
 10
220.3995939207
 20
189.2283802471
 11
221.6995939207
 21
189.160250134
  0
LINE
  5
335
100
AcDbEntity
  8
0
100
AcDbLine
 62
250
  6
CONTINUOUS
 10
221.8100611119
 20
187.9779118957
 11
221.9995939207
 21
187.9558167457
  0
LWPOLYLINE
  5
336
100
AcDbEntity
  8
0
100
AcDbPolyline
 62
250
  6
CONTINUOUS
 90
37
 70
0
 10
220.2021999637
 20
197.8009609804
 10
220.2078477451
 20
197.7978172967
 10
220.2128699886
 20
197.7928613916
 10
220.217301535
 20
197.7862850807
 10
220.2211971849
 20
197.7782801722
 10
220.2245906203
 20
197.7690287886
 10
220.227485394
 20
197.7586851425
 10
220.2299267299
 20
197.7474014823
 10
220.231962953
 20
197.7353268226
 10
220.2335927859
 20
197.7225744331
 10
220.2348608567
 20
197.7092574329
 10
220.2358124551
 20
197.6955001095
 10
220.2364403063
 20
197.6814079488
 10
220.2367860522
 20
197.6670873638
 10
220.2368954151
 20
197.6526231128
 10
220.2367606885
 20
197.6380692777
 10
220.2364169077
 20
197.6235208543
 10
220.2359053737
 20
197.6090264655
 10
220.2352153673
 20
197.5945478857
 10
220.2343706967
 20
197.5801405596
 10
220.2334035189
 20
197.5658453066
 10
220.2322999878
 20
197.5515797505
 10
220.2310750586
 20
197.5373780564
 10
220.2297516525
 20
197.5232690144
 10
220.2283134301
 20
197.5091454314
 10
220.2267683757
 20
197.495029672
 10
220.2251315196
 20
197.4809407495
 10
220.2233842416
 20
197.466754618
 10
220.2215288155
 20
197.4524864185
 10
220.2195736897
 20
197.4381496732
 10
220.2174978965
 20
197.4236100963
 10
220.2152986826
 20
197.4088795224
 10
220.2129791965
 20
197.3939693866
 10
220.2105166298
 20
197.3787405734
 10
220.2078981837
 20
197.3631542545
 10
220.205127119
 20
197.3472740575
 10
220.2021999637
 20
197.33111467
  0
LINE
  5
337
100
AcDbEntity
  8
0
100
AcDbLine
 62
250
  6
CONTINUOUS
 10
220.2021999637
 20
154.4514244945
 11
219.8995939207
 21
154.3412849021
  0
LINE
  5
338
100
AcDbEntity
  8
0
100
AcDbLine
 62
7
  6
CONTINUOUS
 10
220.2021999637
 20
153.9815781841
 11
219.8995939207
 21
153.8714385917
  0
LWPOLYLINE
  5
339
100
AcDbEntity
  8
0
100
AcDbPolyline
 62
250
  6
CONTINUOUS
 90
22
 70
0
 10
218.5602568067
 20
197.3906800368
 10
218.4885785434
 20
197.3839040367
 10
218.4191409173
 20
197.3728387508
 10
218.3519439284
 20
197.3574841793
 10
218.2870770837
 20
197.3377659985
 10
218.2244508762
 20
197.3137585319
 10
218.1637967848
 20
197.2856847505
 10
218.1047267373
 20
197.2534252911
 10
218.0476288059
 20
197.2170995168
 10
217.9933986853
 20
197.1772884879
 10
217.942303185
 20
197.1342798474
 10
217.8940754956
 20
197.0877859522
 10
217.8488108843
 20
197.0375249337
 10
217.8062019646
 20
196.9833139392
 10
217.7665561231
 20
196.9253358212
 10
217.7308907868
 20
196.863857269
 10
217.6991408565
 20
196.7985536521
 10
217.6713714313
 20
196.7297496009
 10
217.6487952357
 20
196.6586856959
 10
217.6318165112
 20
196.585775464
 10
217.6200310163
 20
196.5106053783
 10
217.613438751
 20
196.4331754387
  0
LINE
  5
33A
100
AcDbEntity
  8
0
100
AcDbLine
 62
250
  6
CONTINUOUS
 10
219.8995939207
 20
197.4608717207
 11
218.5602568067
 21
197.3906800368
  0
LINE
  5
33B
100
AcDbEntity
  8
0
100
AcDbLine
 62
7
  6
CONTINUOUS
 10
219.8995939207
 20
197.9611005728
 11
218.5428150318
 21
197.8899948042
  0
LINE
  5
33C
100
AcDbEntity
  8
0
100
AcDbLine
 62
250
  6
CONTINUOUS
 10
220.3995939207
 20
197.33111467
 11
220.2021999637
 21
197.33111467
  0
LWPOLYLINE
  5
33D
100
AcDbEntity
  8
0
100
AcDbPolyline
 62
7
  6
CONTINUOUS
 90
8
 70
0
 43
0.3500000087
 10
205.9879228516
 20
208.7110946167
 10
206.8450519287
 20
208.7110946167
 10
207.2736335205
 20
209.1396762085
 10
207.2736335205
 20
209.9968223389
 10
206.8450519287
 20
210.4253868774
 10
205.9879228516
 20
210.4253868774
 10
205.9879228516
 20
211.7110975464
 10
207.2736335205
 20
211.7110975464
  0
LWPOLYLINE
  5
33E
100
AcDbEntity
  8
0
100
AcDbPolyline
 62
7
  6
CONTINUOUS
 90
6
 70
0
 43
0.3500000087
 10
209.8450548584
 20
208.7110946167
 10
210.9164917847
 20
208.7110946167
 10
211.1307655273
 20
208.9253854126
 10
211.1307655273
 20
209.9968223389
 10
210.7022009888
 20
210.4253868774
 10
210.2736364502
 20
210.4253868774
  0
LWPOLYLINE
  5
33F
100
AcDbEntity
  8
0
100
AcDbPolyline
 62
250
  6
CONTINUOUS
 90
3
 70
0
 10
217.613438751
 20
196.4331754387
 10
217.1252627839
 20
196.4535906778
 10
217.1225879482
 20
196.4537379071
  0
LINE
  5
340
100
AcDbEntity
  8
0
100
AcDbLine
 62
250
  6
CONTINUOUS
 10
219.8995939207
 20
197.4412542624
 11
220.2021999637
 21
197.33111467
  0
LINE
  5
341
100
AcDbEntity
  8
0
100
AcDbLine
 62
7
  6
CONTINUOUS
 10
219.8995939207
 20
197.9111005728
 11
220.2021999637
 21
197.8009609804
  0
ARC
  5
342
100
AcDbEntity
  8
0
100
AcDbCircle
 62
7
  6
CONTINUOUS
 10
218.6213189661
 20
155.3904886624
 40
1.5
100
AcDbArc
 50
182.3569499908
 51
267.0
  0
ARC
  5
343
100
AcDbEntity
  8
0
100
AcDbCircle
 62
7
  6
CONTINUOUS
 10
222.1995939207
 20
158.7002771116
 40
0.4
100
AcDbArc
 50
275.0
 51
360.0
  0
ARC
  5
344
100
AcDbEntity
  8
0
100
AcDbCircle
 62
7
  6
CONTINUOUS
 10
222.1995939207
 20
161.5822620529
 40
0.4
100
AcDbArc
 50
0.0
 51
85.0
  0
ARC
  5
345
100
AcDbEntity
  8
0
100
AcDbCircle
 62
7
  6
CONTINUOUS
 10
220.0995939207
 20
154.2634859703
 40
0.3
100
AcDbArc
 50
290.0
 51
360.0
  0
ARC
  5
346
100
AcDbEntity
  8
0
100
AcDbCircle
 62
7
  6
CONTINUOUS
 10
221.8495939207
 20
163.8267224188
 40
0.15
100
AcDbArc
 50
295.0
 51
360.0
  0
ARC
  5
347
100
AcDbEntity
  8
0
100
AcDbCircle
 62
7
  6
CONTINUOUS
 10
218.6213189661
 20
196.3920505021
 40
1.5
100
AcDbArc
 50
93.0
 51
177.6430500092
  0
ARC
  5
348
100
AcDbEntity
  8
0
100
AcDbCircle
 62
7
  6
CONTINUOUS
 10
220.0995939207
 20
197.5190531942
 40
0.3
100
AcDbArc
 50
0.0
 51
70.0
  0
ARC
  5
349
100
AcDbEntity
  8
0
100
AcDbCircle
 62
7
  6
CONTINUOUS
 10
221.8495939207
 20
187.9558167457
 40
0.15
100
AcDbArc
 50
0.0
 51
65.0
  0
ARC
  5
34A
100
AcDbEntity
  8
0
100
AcDbCircle
 62
7
  6
CONTINUOUS
 10
716.6995939207
 20
175.8912695822
 40
500.0
100
AcDbArc
 50
177.6430500092
 51
182.3569499908
  0
ELLIPSE
  5
34B
100
AcDbEntity
  8
0
100
AcDbEllipse
 62
7
  6
CONTINUOUS
 10
278.5436205577
 20
175.8912695822
 30
0.0
 11
-350.9080404475
 21
499.7734209976
 31
0.0
 40
0.0428911118
 41
1.5408619441
 42
1.5417923633
  0
ELLIPSE
  5
34C
100
AcDbEntity
  8
0
100
AcDbEllipse
 62
7
  6
CONTINUOUS
 10
278.5436205577
 20
175.8912695822
 30
0.0
 11
350.9080404475
 21
499.7734209976
 31
0.0
 40
0.0428911118
 41
-4.6833850169
 42
-4.6824545977
  0
ELLIPSE
  5
34D
100
AcDbEntity
  8
0
100
AcDbEllipse
 62
7
  6
CONTINUOUS
 10
213.8331189985
 20
175.8912695822
 30
0.0
 11
350.9080404475
 21
499.7734209976
 31
0.0
 40
0.0428911118
 41
-1.5398882004
 42
-1.5388562323
  0
ELLIPSE
  5
34E
100
AcDbEntity
  8
0
100
AcDbEllipse
 62
7
  6
CONTINUOUS
 10
213.8331189985
 20
175.8912695822
 30
0.0
 11
-350.9080404475
 21
499.7734209976
 31
0.0
 40
0.0428911118
 41
-1.6027364212
 42
-1.6017044532
  0
ELLIPSE
  5
34F
100
AcDbEntity
  8
0
100
AcDbEllipse
 62
7
  6
CONTINUOUS
 10
261.3008716401
 20
154.3221247647
 30
0.0
 11
0.1582391023
 21
-0.4751033573
 31
0.0
 40
0.9984778551
 41
-0.3210503505
 42
1.2488325878
  0
ELLIPSE
  5
350
100
AcDbEntity
  8
0
100
AcDbEllipse
 62
7
  6
CONTINUOUS
 10
261.3008716401
 20
197.4604143998
 30
0.0
 11
-0.1582391023
 21
-0.4751033573
 31
0.0
 40
0.9984778551
 41
1.8927600658
 42
3.4626430041
  0
ELLIPSE
  5
351
100
AcDbEntity
  8
0
100
AcDbEllipse
 62
7
  6
CONTINUOUS
 10
240.2558679161
 20
197.4604143998
 30
0.0
 11
-0.1582391023
 21
0.4751033573
 31
0.0
 40
0.9984778551
 41
-0.3210503505
 42
1.2488325878
  0
ELLIPSE
  5
352
100
AcDbEntity
  8
0
100
AcDbEllipse
 62
7
  6
CONTINUOUS
 10
240.2558679161
 20
154.3221247647
 30
0.0
 11
0.1582391023
 21
0.4751033573
 31
0.0
 40
0.9984778551
 41
1.8927600658
 42
3.4626430041
  0
ENDSEC
  0
SECTION
  2
OBJECTS
  0
DICTIONARY
  5
C
100
AcDbDictionary
280
0
281
1
  3
ACAD_GROUP
350
D
  3
ACAD_MLINESTYLE
350
17
  3
ACAD_LAYOUT
350
1A
  3
ACAD_PLOTSETTINGS
350
19
  3
ACAD_PLOTSTYLENAME
350
E
  0
DICTIONARY
  5
D
102
{ACAD_REACTORS
330
C
102
}
100
AcDbDictionary
280
0
281
1
  0
ACDBDICTIONARYWDFLT
  5
E
102
{ACAD_REACTORS
330
C
102
}
100
AcDbDictionary
281
1
  3
Normal
350
F
100
AcDbDictionaryWithDefault
340
F
  0
DICTIONARY
  5
17
102
{ACAD_REACTORS
330
C
102
}
100
AcDbDictionary
280
0
281
1
  3
Standard
350
18
  0
DICTIONARY
  5
19
102
{ACAD_REACTORS
330
C
102
}
100
AcDbDictionary
281
1
  0
DICTIONARY
  5
1A
102
{ACAD_REACTORS
330
C
102
}
100
AcDbDictionary
281
1
  3
Model
350
353
  3
Layout1
350
354
  0
ACDBPLACEHOLDER
  5
F
102
{ACAD_REACTORS
330
E
102
}
  0
MLINESTYLE
  5
18
102
{ACAD_REACTORS
330
17
102
}
100
AcDbMlineStyle
  2
STANDARD
 70
0
  3

 62
256
 51
90.0
 52
90.0
 71
2
 49
0.5
 62
256
  6
BYLAYER
 49
-0.5
 62
256
  6
BYLAYER
  0
LAYOUT
  5
353
102
{ACAD_REACTORS
330
1A
102
}
100
AcDbPlotSettings
  1

  2
none_device
  4
ANSI_C_(22.00_x_17.00_Inches)
  6

 40
0.0
 41
0.0
 42
0.0
 43
0.0
 44
558.8
 45
431.8
 46
0.0
 47
0.0
 48
0.0
 49
0.0
140
0.0
141
0.0
142
1.0
143
1.0
 70
1024
 72
1
 73
0
 74
0
  7

 75
0
147
1.0
148
0.0
149
0.0
100
AcDbLayout
  1
Model
 70
0
 71
0
 10
0.0
 20
0.0
 11
558.8
 21
431.8
 12
0.0
 22
0.0
 32
0.0
 14
0.0
 24
0.0
 34
0.0
 15
0.0
 25
0.0
 35
0.0
146
0.0
 13
0.0
 23
0.0
 33
0.0
 16
1.0
 26
0.0
 36
0.0
 17
0.0
 27
1.0
 37
0.0
 76
0
330
214
345
0
346
0
  0
LAYOUT
  5
354
102
{ACAD_REACTORS
330
1A
102
}
100
AcDbPlotSettings
  1

  2
none_device
  4
ANSI_C_(22.00_x_17.00_Inches)
  6

 40
0.0
 41
0.0
 42
0.0
 43
0.0
 44
558.8
 45
431.8
 46
0.0
 47
0.0
 48
0.0
 49
0.0
140
0.0
141
0.0
142
1.0
143
1.0
 70
0
 72
1
 73
0
 74
0
  7

 75
0
147
1.0
148
0.0
149
0.0
100
AcDbLayout
  1
Layout1
 70
0
 71
1
 10
0.0
 20
0.0
 11
558.8
 21
431.8
 12
0.0
 22
0.0
 32
0.0
 14
0.0
 24
0.0
 34
0.0
 15
0.0
 25
0.0
 35
0.0
146
0.0
 13
0.0
 23
0.0
 33
0.0
 16
1.0
 26
0.0
 36
0.0
 17
0.0
 27
1.0
 37
0.0
 76
0
330
215
345
0
346
0
  0
ENDSEC
  0
EOF
