  0
SECTION
  2
HEADER
  9
$ACADVER
  1
AC1024
  9
$DWGCODEPAGE
  3
ANSI_1252
  9
$EXTMAX
 10
558.8
 20
431.8
 30
0.0
  9
$EXTMIN
 10
0.0
 20
0.0
 30
0.0
  9
$LIMMIN
 10
0.0
 20
0.0
  9
$LIMMAX
 10
558.8
 20
431.8
  9
$VIEWCTR
 10
279.4
 20
215.9
  9
$VIEWSIZE
 40
431.8
  9
$CLAYER
  8
0
  9
$LTSCALE
 40
30.734
  9
$CELTYPE
  6
BYLAYER
  9
$DIMSCALE
 40
1.0
  9
$DIMASZ
 40
3.0
  9
$DIMEXO
 40
0.5
  9
$DIMDLI
 40
21.2344
  9
$DIMEXE
 40
1.5
  9
$DIMCEN
 40
5.0292
  9
$DIMLFAC
 40
1.0
  9
$DIMBLK
  1
_FILLED
  9
$DIMALT
 70
0
  9
$DIMALTF
 40
0.0393700787
  9
$DIMTXT
 40
3.0
  9
$DIMTOL
 70
1
  9
$DIMLIM
 70
0
  9
$DIMTFAC
 40
1.0
  9
$DIMTP
 40
0.01
  9
$DIMTM
 40
0.01
  9
$DIMGAP
 40
0.625
  9
$DIMDSEP
 70
44
  9
$AUNITS
 70
0
  9
$PDMODE
 70
3
  9
$PDSIZE
 40
3.0
  9
$HANDSEED
  5
2F3
  9
$TILEMODE
 70
1
  9
$MEASUREMENT
 70
1
  9
$INSUNITS
 70
4
  0
ENDSEC
  0
SECTION
  2
CLASSES
  0
CLASS
  1
ACDBDICTIONARYWDFLT
  2
AcDbDictionaryWithDefault
  3
AutoCAD 2000
 90
0
 91
1
280
0
281
0
  0
CLASS
  1
ACDBPLACEHOLDER
  2
AcDbPlaceHolder
  3
AutoCAD 2000
 90
0
 91
1
280
0
281
0
  0
CLASS
  1
LAYOUT
  2
AcDbLayout
  3
AutoCAD 2000
 90
0
 91
0
280
0
281
0
  0
ENDSEC
  0
SECTION
  2
TABLES
  0
TABLE
  2
VPORT
  5
8
100
AcDbSymbolTable
 70
2
  0
VPORT
  5
1F4
100
AcDbSymbolTableRecord
100
AcDbViewportTableRecord
  2
*ACTIVE
 70
0
 10
0.0
 20
0.0
 11
1.0
 21
1.0
 12
279.4
 22
215.9
 13
0.0
 23
0.0
 14
1.0
 24
1.0
 15
0.0
 25
0.0
 16
0.0
 26
0.0
 36
1.0
 17
0.0
 27
0.0
 37
0.0
 40
431.8
 41
1.2941176471
 42
50.0
 43
0.0
 44
0.0
 50
0.0
 51
0.0
 71
0
 72
100
 73
1
 74
1
 75
0
 76
0
 77
0
 78
0
  0
ENDTAB
  0
TABLE
  2
LTYPE
  5
5
100
AcDbSymbolTable
 70
6
  0
LTYPE
  5
14
100
AcDbSymbolTableRecord
100
AcDbLinetypeTableRecord
  2
BYBLOCK
 70
0
  3

 72
65
 73
0
 40
0.0
  0
LTYPE
  5
15
100
AcDbSymbolTableRecord
100
AcDbLinetypeTableRecord
  2
BYLAYER
 70
0
  3

 72
65
 73
0
 40
0.0
  0
LTYPE
  5
16
100
AcDbSymbolTableRecord
100
AcDbLinetypeTableRecord
  2
CONTINUOUS
 70
64
  3
Solid line
 72
65
 73
0
 40
0.0
  0
LTYPE
  5
1F5
100
AcDbSymbolTableRecord
100
AcDbLinetypeTableRecord
  2
CENTER
 70
64
  3
____ _ ____ _ ____ _ ____ _ ____ _ ____ _ ____
 72
65
 73
4
 40
0.6
 49
0.375
 74
0
 49
-0.075
 74
0
 49
0.075
 74
0
 49
-0.075
 74
0
  0
LTYPE
  5
1F6
100
AcDbSymbolTableRecord
100
AcDbLinetypeTableRecord
  2
HIDDEN
 70
64
  3
- - - - - - - - - - - - - - - - - - - -
 72
65
 73
2
 40
0.2
 49
0.1
 74
0
 49
-0.1
 74
0
  0
LTYPE
  5
1F7
100
AcDbSymbolTableRecord
100
AcDbLinetypeTableRecord
  2
PHANTOM
 70
64
  3
_____ _ _ _____ _ _ _____ _ _ _____
 72
65
 73
6
 40
0.8
 49
0.45
 74
0
 49
-0.05
 74
0
 49
0.1
 74
0
 49
-0.05
 74
0
 49
0.1
 74
0
 49
-0.05
 74
0
  0
LTYPE
  5
1F8
100
AcDbSymbolTableRecord
100
AcDbLinetypeTableRecord
  2
DOT
 70
64
  3
. . . . . . . . . . . . . . . . . . . .
 72
65
 73
2
 40
0.2
 49
0.1
 74
0
 49
-0.1
 74
0
  0
LTYPE
  5
1F9
100
AcDbSymbolTableRecord
100
AcDbLinetypeTableRecord
  2
DASHED
 70
64
  3
- - - - - - - - - - - - - - - - - - - -
 72
65
 73
2
 40
0.2
 49
0.1
 74
0
 49
-0.1
 74
0
  0
ENDTAB
  0
TABLE
  2
LAYER
  5
2
100
AcDbSymbolTable
 70
36
  0
LAYER
  5
10
100
AcDbSymbolTableRecord
100
AcDbLayerTableRecord
  2
0
 70
0
 62
7
  6
CONTINUOUS
370
-3
390
F
  0
LAYER
  5
1FA
100
AcDbSymbolTableRecord
100
AcDbLayerTableRecord
  2
DEFAULT_1
 70
0
 62
7
  6
CENTER
370
-3
390
F
  0
LAYER
  5
1FB
100
AcDbSymbolTableRecord
100
AcDbLayerTableRecord
  2
DEFAULT_2
 70
0
 62
7
  6
HIDDEN
370
-3
390
F
  0
LAYER
  5
1FC
100
AcDbSymbolTableRecord
100
AcDbLayerTableRecord
  2
DEFAULT_3
 70
0
 62
7
  6
PHANTOM
370
-3
390
F
  0
LAYER
  5
1FD
100
AcDbSymbolTableRecord
100
AcDbLayerTableRecord
  2
ASSI
 70
0
 62
7
  6
CONTINUOUS
370
-3
390
F
  0
LAYER
  5
1FE
100
AcDbSymbolTableRecord
100
AcDbLayerTableRecord
  2
COORDINATE
 70
0
 62
7
  6
CONTINUOUS
370
-3
390
F
  0
LAYER
  5
1FF
100
AcDbSymbolTableRecord
100
AcDbLayerTableRecord
  2
COPY_PUBLISH
 70
0
 62
7
  6
CONTINUOUS
370
-3
390
F
  0
LAYER
  5
200
100
AcDbSymbolTableRecord
100
AcDbLayerTableRecord
  2
COSMETIC
 70
0
 62
7
  6
CONTINUOUS
370
-3
390
F
  0
LAYER
  5
201
100
AcDbSymbolTableRecord
100
AcDbLayerTableRecord
  2
COSMETICI
 70
0
 62
7
  6
CONTINUOUS
370
-3
390
F
  0
LAYER
  5
202
100
AcDbSymbolTableRecord
100
AcDbLayerTableRecord
  2
CURVE
 70
0
 62
7
  6
CONTINUOUS
370
-3
390
F
  0
LAYER
  5
203
100
AcDbSymbolTableRecord
100
AcDbLayerTableRecord
  2
DRAFT
 70
0
 62
7
  6
CONTINUOUS
370
-3
390
F
  0
LAYER
  5
204
100
AcDbSymbolTableRecord
100
AcDbLayerTableRecord
  2
IMPORT_IGES
 70
0
 62
7
  6
CONTINUOUS
370
-3
390
F
  0
LAYER
  5
205
100
AcDbSymbolTableRecord
100
AcDbLayerTableRecord
  2
INTFCLR_11
 70
0
 62
7
  6
CONTINUOUS
370
-3
390
F
  0
LAYER
  5
206
100
AcDbSymbolTableRecord
100
AcDbLayerTableRecord
  2
INTF_1
 70
0
 62
7
  6
CONTINUOUS
370
-3
390
F
  0
LAYER
  5
207
100
AcDbSymbolTableRecord
100
AcDbLayerTableRecord
  2
INTF_3
 70
0
 62
7
  6
CONTINUOUS
370
-3
390
F
  0
LAYER
  5
208
100
AcDbSymbolTableRecord
100
AcDbLayerTableRecord
  2
NOTE
 70
0
 62
7
  6
CONTINUOUS
370
-3
390
F
  0
LAYER
  5
209
100
AcDbSymbolTableRecord
100
AcDbLayerTableRecord
  2
PIANI
 70
0
 62
7
  6
CONTINUOUS
370
-3
390
F
  0
LAYER
  5
20A
100
AcDbSymbolTableRecord
100
AcDbLayerTableRecord
  2
PUNTI
 70
0
 62
7
  6
CONTINUOUS
370
-3
390
F
  0
LAYER
  5
20B
100
AcDbSymbolTableRecord
100
AcDbLayerTableRecord
  2
RACCORDO
 70
0
 62
7
  6
CONTINUOUS
370
-3
390
F
  0
LAYER
  5
20C
100
AcDbSymbolTableRecord
100
AcDbLayerTableRecord
  2
SIMBOLI
 70
0
 62
7
  6
CONTINUOUS
370
-3
390
F
  0
LAYER
  5
20D
100
AcDbSymbolTableRecord
100
AcDbLayerTableRecord
  2
SMUSSO
 70
0
 62
7
  6
CONTINUOUS
370
-3
390
F
  0
LAYER
  5
20E
100
AcDbSymbolTableRecord
100
AcDbLayerTableRecord
  2
SNAPLINE
 70
0
 62
7
  6
CONTINUOUS
370
-3
390
F
  0
LAYER
  5
20F
100
AcDbSymbolTableRecord
100
AcDbLayerTableRecord
  2
SUPERFICI
 70
0
 62
7
  6
CONTINUOUS
370
-3
390
F
  0
LAYER
  5
210
100
AcDbSymbolTableRecord
100
AcDbLayerTableRecord
  2
TRASH
 70
0
 62
7
  6
CONTINUOUS
370
-3
390
F
  0
LAYER
  5
211
100
AcDbSymbolTableRecord
100
AcDbLayerTableRecord
  2
___SHELL
 70
0
 62
7
  6
CONTINUOUS
370
-3
390
F
  0
ENDTAB
  0
TABLE
  2
STYLE
  5
3
100
AcDbSymbolTable
 70
1
  0
STYLE
  5
11
100
AcDbSymbolTableRecord
100
AcDbTextStyleTableRecord
  2
STANDARD
 70
0
 40
0.0
 41
0.8
 50
0.0
 71
0
 42
0.2
  3
txt
  4

  0
STYLE
  5
212
100
AcDbSymbolTableRecord
100
AcDbTextStyleTableRecord
  2
TEXTSTYLE_1
 70
0
 40
0.0
 41
0.8
 50
0.0
 71
0
 42
0.2
  3
gdt
  4

  0
ENDTAB
  0
TABLE
  2
VIEW
  5
6
100
AcDbSymbolTable
 70
0
  0
ENDTAB
  0
TABLE
  2
UCS
  5
7
100
AcDbSymbolTable
 70
0
  0
ENDTAB
  0
TABLE
  2
APPID
  5
9
100
AcDbSymbolTable
 70
1
  0
APPID
  5
213
100
AcDbSymbolTableRecord
100
AcDbRegAppTableRecord
  2
ACAD
 70
0
  0
ENDTAB
  0
TABLE
  2
BLOCK_RECORD
  5
1
100
AcDbSymbolTable
 70
0
  0
BLOCK_RECORD
  5
214
100
AcDbSymbolTableRecord
100
AcDbBlockTableRecord
  2
*Model_Space
  0
BLOCK_RECORD
  5
215
100
AcDbSymbolTableRecord
100
AcDbBlockTableRecord
  2
*Paper_Space
  0
BLOCK_RECORD
  5
216
100
AcDbSymbolTableRecord
100
AcDbBlockTableRecord
  2
_FILLED
  0
BLOCK_RECORD
  5
217
100
AcDbSymbolTableRecord
100
AcDbBlockTableRecord
  2
*D0
  0
BLOCK_RECORD
  5
218
100
AcDbSymbolTableRecord
100
AcDbBlockTableRecord
  2
*D1
  0
BLOCK_RECORD
  5
219
100
AcDbSymbolTableRecord
100
AcDbBlockTableRecord
  2
*D2
  0
ENDTAB
  0
TABLE
  2
DIMSTYLE
  5
A
100
AcDbSymbolTable
 70
1
100
AcDbDimStyleTable
 71
0
  0
DIMSTYLE
105
21A
100
AcDbSymbolTableRecord
100
AcDbDimStyleTableRecord
  2
STANDARD
 70
0
  3

  4

 40
1.0
 41
3.0
 42
0.5
 43
0.38
 44
1.5
 45
0.0
 46
0.0
 47
0.01
 48
0.01
140
3.0
141
0.09
142
0.0
143
25.4
144
1.0
145
0.0
146
1.0
147
0.625
 71
1
 72
0
 73
0
 74
0
 75
0
 76
0
 77
1
 78
8
 79
2
170
0
171
1
172
0
173
0
174
0
175
0
176
0
177
0
178
0
270
2
179
2
271
2
272
2
273
2
274
2
275
0
280
0
281
0
282
0
283
1
284
8
285
0
286
0
287
3
288
0
340
11
278
44
341
216
342
216
343
216
344
216
  0
DIMSTYLE
105
21B
100
AcDbSymbolTableRecord
100
AcDbDimStyleTableRecord
  2
DIMSTYLE_1
 70
0
  3

  4

 40
1.0
 41
3.0
 42
0.5
 43
0.38
 44
1.5
 45
0.0
 46
0.0
 47
0.0
 48
0.0
140
3.0
141
0.09
142
0.0
143
25.4
144
1.0
145
0.0
146
1.0
147
0.75
 71
0
 72
0
 73
0
 74
0
 75
0
 76
0
 77
1
 78
8
 79
2
170
0
171
1
172
0
173
0
174
0
175
0
176
0
177
0
178
0
270
2
179
2
271
1
272
1
273
2
274
2
275
0
280
0
281
0
282
0
283
1
284
8
285
0
286
0
287
3
288
0
340
11
278
44
341
216
342
216
343
216
344
216
  0
DIMSTYLE
105
21C
100
AcDbSymbolTableRecord
100
AcDbDimStyleTableRecord
  2
DIMSTYLE_2
 70
0
  3

  4

 40
1.0
 41
3.0
 42
0.5
 43
0.38
 44
1.5
 45
0.0
 46
0.0
 47
0.0
 48
0.0
140
3.0
141
0.09
142
0.0
143
25.4
144
1.0
145
0.0
146
1.0
147
0.75
 71
0
 72
0
 73
0
 74
0
 75
0
 76
0
 77
1
 78
8
 79
2
170
0
171
1
172
0
173
0
174
0
175
0
176
0
177
0
178
0
270
2
179
2
271
2
272
2
273
2
274
2
275
0
280
0
281
0
282
0
283
1
284
8
285
0
286
0
287
3
288
0
340
11
278
44
341
216
342
216
343
216
344
216
  0
ENDTAB
  0
ENDSEC
  0
SECTION
  2
BLOCKS
  0
BLOCK
  5
20
100
AcDbEntity
  8
0
100
AcDbBlockBegin
  2
*Model_Space
 70
0
 10
0.0
 20
0.0
 30
0.0
  3
*Model_Space
  1

  0
ENDBLK
  5
21
100
AcDbEntity
  8
0
100
AcDbBlockEnd
  0
BLOCK
  5
1C
100
AcDbEntity
  8
0
100
AcDbBlockBegin
  2
*Paper_Space
 70
0
 10
0.0
 20
0.0
 30
0.0
  3
*Paper_Space
  1

  0
ENDBLK
  5
1D
100
AcDbEntity
  8
0
100
AcDbBlockEnd
  0
BLOCK
  5
21D
100
AcDbEntity
  8
0
100
AcDbBlockBegin
  2
_FILLED
 70
64
 10
0.0
 20
0.0
  3
_FILLED
  1

  0
SOLID
  5
21E
100
AcDbEntity
  8
0
  6
BYBLOCK
 62
0
100
AcDbTrace
 10
0.0
 20
0.0
 11
-1.0
 21
0.3166666667
 12
-1.0
 22
-0.3166666667
 13
-1.0
 23
-0.3166666667
  0
ENDBLK
  5
21F
100
AcDbEntity
  8
0
  6
BYBLOCK
 62
0
100
AcDbBlockEnd
  0
BLOCK
  5
220
100
AcDbEntity
  8
0
100
AcDbBlockBegin
 62
7
  6
CONTINUOUS
  2
*D0
 70
65
 10
0.0
 20
0.0
  3
*D0
  1

  0
MTEXT
  5
221
100
AcDbEntity
  8
0
100
AcDbMText
 62
7
  6
CONTINUOUS
  7
STANDARD
 71
2
 72
1
 10
262.8716066835
 20
245.9784673822
 30
0.0
 11
1.0
 21
0.0
 31
0.0
 73
2
 44
0.9
  1
{\ftxt;\W0.0001;\H0.0001;\~}{\ftxt;\W2.8571428571;\H3.0; }{\ftxt;\W0.0001;\H0.0001;\~}
 40
3.0
 41
12.8571428571
  0
LINE
  5
222
100
AcDbEntity
  8
0
100
AcDbLine
 62
7
  6
CONTINUOUS
 10
285.1441847095
 20
232.2282385301
 11
285.1441847095
 21
243.7284673822
  0
LINE
  5
223
100
AcDbEntity
  8
0
100
AcDbLine
 62
7
  6
CONTINUOUS
 10
240.5990286575
 20
232.2282385301
 11
240.5990286575
 21
243.7284673822
  0
LINE
  5
224
100
AcDbEntity
  8
0
100
AcDbLine
 62
7
  6
CONTINUOUS
 10
285.1441847095
 20
242.2284673822
 11
262.8716066835
 21
242.2284673822
  0
LINE
  5
225
100
AcDbEntity
  8
0
100
AcDbLine
 62
7
  6
CONTINUOUS
 10
240.5990286575
 20
242.2284673822
 11
262.8716066835
 21
242.2284673822
  0
INSERT
  5
226
100
AcDbEntity
  8
0
100
AcDbBlockReference
 62
7
  6
CONTINUOUS
  2
_FILLED
 10
285.1441847095
 20
242.2284673822
 41
3.0
 42
3.0
 43
3.0
 50
360.0
  0
INSERT
  5
227
100
AcDbEntity
  8
0
100
AcDbBlockReference
 62
7
  6
CONTINUOUS
  2
_FILLED
 10
240.5990286575
 20
242.2284673822
 41
3.0
 42
3.0
 43
3.0
 50
180.0
  0
ENDBLK
  5
228
100
AcDbEntity
  8
0
  6
BYBLOCK
 62
0
100
AcDbBlockEnd
  0
BLOCK
  5
229
100
AcDbEntity
  8
0
100
AcDbBlockBegin
 62
7
  6
CONTINUOUS
  2
*D1
 70
65
 10
0.0
 20
0.0
  3
*D1
  1

  0
MTEXT
  5
22A
100
AcDbEntity
  8
0
100
AcDbMText
 62
7
  6
CONTINUOUS
  7
STANDARD
 71
2
 72
1
 10
291.3941847095
 20
210.1586363916
 30
0.0
 11
0.0
 21
1.0
 31
0.0
 73
2
 44
0.9
  1
{\ftxt;\W0.0001;\H0.0001;\~}{\ftxt;\W2.7142857143;\H3.0; }{\ftxt;\W0.0001;\H0.0001;\~}
 40
3.0
 41
12.2142857143
  0
LINE
  5
22B
100
AcDbEntity
  8
0
100
AcDbLine
 62
7
  6
CONTINUOUS
 10
285.1445653093
 20
188.0888054011
 11
296.6441847095
 21
188.0888054011
  0
LINE
  5
22C
100
AcDbEntity
  8
0
100
AcDbLine
 62
7
  6
CONTINUOUS
 10
285.1445653093
 20
232.2284673822
 11
296.6441847095
 21
232.2284673822
  0
LINE
  5
22D
100
AcDbEntity
  8
0
100
AcDbLine
 62
7
  6
CONTINUOUS
 10
295.1441847095
 20
188.0888054011
 11
295.1441847095
 21
210.1586363916
  0
LINE
  5
22E
100
AcDbEntity
  8
0
100
AcDbLine
 62
7
  6
CONTINUOUS
 10
295.1441847095
 20
232.2284673822
 11
295.1441847095
 21
210.1586363916
  0
INSERT
  5
22F
100
AcDbEntity
  8
0
100
AcDbBlockReference
 62
7
  6
CONTINUOUS
  2
_FILLED
 10
295.1441847095
 20
188.0888054011
 41
3.0
 42
3.0
 43
3.0
 50
270.0
  0
INSERT
  5
230
100
AcDbEntity
  8
0
100
AcDbBlockReference
 62
7
  6
CONTINUOUS
  2
_FILLED
 10
295.1441847095
 20
232.2284673822
 41
3.0
 42
3.0
 43
3.0
 50
90.0
  0
ENDBLK
  5
231
100
AcDbEntity
  8
0
  6
BYBLOCK
 62
0
100
AcDbBlockEnd
  0
BLOCK
  5
232
100
AcDbEntity
  8
0
100
AcDbBlockBegin
 62
7
  6
CONTINUOUS
  2
*D2
 70
65
 10
0.0
 20
0.0
  3
*D2
  1

  0
MTEXT
  5
233
100
AcDbEntity
  8
0
100
AcDbMText
 62
7
  6
CONTINUOUS
  7
STANDARD
 71
3
 72
1
 10
215.2980901245
 20
245.9784673822
 30
0.0
 11
1.0
 21
0.0
 31
0.0
 73
2
 44
0.9
  1
{\ftxt;\W0.0001;\H0.0001;\~}{\ftxt;\W2.0714285714;\H3.0; }{\ftxt;\W0.0001;\H0.0001;\~}
 40
3.0
 41
9.3214285714
  0
LINE
  5
234
100
AcDbEntity
  8
0
100
AcDbLine
 62
7
  6
CONTINUOUS
 10
224.1834610163
 20
195.599559709
 11
224.1834610163
 21
243.7284673822
  0
LINE
  5
235
100
AcDbEntity
  8
0
100
AcDbLine
 62
7
  6
CONTINUOUS
 10
218.2834610163
 20
210.6586363916
 11
218.2834610163
 21
243.7284673822
  0
LINE
  5
236
100
AcDbEntity
  8
0
100
AcDbLine
 62
7
  6
CONTINUOUS
 10
224.1834610163
 20
242.2284673822
 11
228.1834610163
 21
242.2284673822
  0
LINE
  5
237
100
AcDbEntity
  8
0
100
AcDbLine
 62
7
  6
CONTINUOUS
 10
228.1834610163
 20
242.2284673822
 11
221.2334610163
 21
242.2284673822
  0
LINE
  5
238
100
AcDbEntity
  8
0
100
AcDbLine
 62
7
  6
CONTINUOUS
 10
218.2834610163
 20
242.2284673822
 11
209.0838044102
 21
242.2284673822
  0
LINE
  5
239
100
AcDbEntity
  8
0
100
AcDbLine
 62
7
  6
CONTINUOUS
 10
209.0838044102
 20
242.2284673822
 11
221.2334610163
 21
242.2284673822
  0
INSERT
  5
23A
100
AcDbEntity
  8
0
100
AcDbBlockReference
 62
7
  6
CONTINUOUS
  2
_FILLED
 10
224.1834610163
 20
242.2284673822
 41
3.0
 42
3.0
 43
3.0
 50
180.0
  0
INSERT
  5
23B
100
AcDbEntity
  8
0
100
AcDbBlockReference
 62
7
  6
CONTINUOUS
  2
_FILLED
 10
218.2834610163
 20
242.2284673822
 41
3.0
 42
3.0
 43
3.0
  0
ENDBLK
  5
23C
100
AcDbEntity
  8
0
  6
BYBLOCK
 62
0
100
AcDbBlockEnd
  0
ENDSEC
  0
SECTION
  2
ENTITIES
  0
DIMENSION
  5
23D
100
AcDbEntity
  8
0
100
AcDbDimension
 62
7
  6
CONTINUOUS
  2
*D0
 10
240.5990286575
 20
242.2284673822
 11
262.443034259
 21
242.2284673822
 70
160
 71
2
 72
2
 41
0.9
 42
44.545156052
  1
{\ftxt;\W0.0001;\H0.0001;\~}{\ftxt;\W2.8571428571;\H3.0; }{\ftxt;\W0.0001;\H0.0001;\~}
  3
DIMSTYLE_1
100
AcDbAlignedDimension
 13
285.1441847095
 23
231.7282385301
 14
240.5990286575
 24
231.7282385301
 50
180.0
100
AcDbRotatedDimension
  0
DIMENSION
  5
23E
100
AcDbEntity
  8
0
100
AcDbDimension
 62
7
  6
CONTINUOUS
  2
*D1
 10
295.1441847095
 20
232.2284673822
 11
295.1441847095
 21
209.7300638211
 70
160
 71
2
 72
2
 41
0.9
 42
44.139661981
  1
{\ftxt;\W0.0001;\H0.0001;\~}{\ftxt;\W2.7142857143;\H3.0; }{\ftxt;\W0.0001;\H0.0001;\~}
  3
DIMSTYLE_1
100
AcDbAlignedDimension
 13
284.6445653093
 23
188.0888054011
 14
284.6445653093
 24
232.2284673822
 50
90.0
100
AcDbRotatedDimension
  0
DIMENSION
  5
23F
100
AcDbEntity
  8
0
100
AcDbDimension
 62
7
  6
CONTINUOUS
  2
*D2
 10
218.2834610163
 20
242.2284673822
 11
211.7623742615
 21
242.2284673822
 70
160
 71
3
 72
2
 41
0.9
 42
5.9
  1
{\ftxt;\W0.0001;\H0.0001;\~}{\ftxt;\W2.0714285714;\H3.0; }{\ftxt;\W0.0001;\H0.0001;\~}
  3
DIMSTYLE_2
100
AcDbAlignedDimension
 13
224.1834610163
 23
195.099559709
 14
218.2834610163
 24
210.1586363916
 50
180.0
100
AcDbRotatedDimension
  0
LWPOLYLINE
  5
240
100
AcDbEntity
  8
0
100
AcDbPolyline
 62
250
  6
CONTINUOUS
 90
14
 70
0
 10
240.6389336444
 20
230.7005422394
 10
240.6425130295
 20
230.7026681138
 10
240.6514103373
 20
230.704771217
 10
240.6655302886
 20
230.7068290157
 10
240.6847216483
 20
230.7088194612
 10
240.7087788387
 20
230.7107212267
 10
240.7374441363
 20
230.7125139356
 10
240.7704104489
 20
230.7141783797
 10
240.8073245909
 20
230.7156967235
 10
240.8477910514
 20
230.7170526967
 10
240.8913762739
 20
230.7182317693
 10
240.9376132743
 20
230.7192213068
 10
240.9860066154
 20
230.7200107061
 10
241.0360377711
 20
230.7205915085
  0
LWPOLYLINE
  5
241
100
AcDbEntity
  8
0
100
AcDbPolyline
 62
250
  6
CONTINUOUS
 90
15
 70
0
 10
240.6389336444
 20
189.6167305352
 10
240.6425131475
 20
189.6146046245
 10
240.6514107372
 20
189.6125014919
 10
240.6655310802
 20
189.6104436714
 10
240.6847228841
 20
189.6084532116
 10
240.7087805179
 20
189.6065514393
 10
240.7374462161
 20
189.604758731
 10
240.7704128396
 20
189.6030942947
 10
240.8073271672
 20
189.6015759641
 10
240.84779368
 20
189.6002200073
 10
240.891378799
 20
189.5990409527
 10
240.9376155312
 20
189.5980514333
 10
240.9860084725
 20
189.5972620513
 10
241.0360391162
 20
189.5966812646
 10
241.138857492
 20
189.5961680668
  0
LWPOLYLINE
  5
242
100
AcDbEntity
  8
0
100
AcDbPolyline
 62
250
  6
CONTINUOUS
 90
16
 70
0
 10
240.6224068738
 20
188.6592259371
 10
240.6251899259
 20
188.6070645333
 10
240.6334132575
 20
188.5554737776
 10
240.6469869293
 20
188.5050182425
 10
240.665762453
 20
188.4562500812
 10
240.6895344088
 20
188.4097030005
 10
240.7180426875
 20
188.3658864169
 10
240.7509753528
 20
188.3252798541
 10
240.7879720402
 20
188.2883277211
 10
240.8286278828
 20
188.2554344545
 10
240.8724979864
 20
188.2269600501
 10
240.9191022698
 20
188.2032161536
 10
240.9679306877
 20
188.1844626551
 10
241.0184488712
 20
188.1709048115
 10
241.0701039815
 20
188.1626910125
 10
241.1223307215
 20
188.1599111703
  0
LWPOLYLINE
  5
243
100
AcDbEntity
  8
0
100
AcDbPolyline
 62
250
  6
CONTINUOUS
 90
16
 70
0
 10
240.6224068738
 20
231.6580468462
 10
240.6251900304
 20
231.7102092354
 10
240.6334136377
 20
231.7618007863
 10
240.6469877008
 20
231.8122569075
 10
240.6657636722
 20
231.8610254335
 10
240.6895360774
 20
231.9075726666
 10
240.7180447633
 20
231.9513892182
 10
240.7509777457
 20
231.9919955826
 10
240.787974623
 20
232.0289473847
 10
240.8286305206
 20
232.0618402431
 10
240.8725005214
 20
232.0903141954
 10
240.9191045347
 20
232.1140576373
 10
240.9679325503
 20
232.132810733
 10
241.0184502195
 20
232.1463682585
 10
241.0701047032
 20
232.1545818471
 10
241.1223307213
 20
232.1573616136
  0
LWPOLYLINE
  5
244
100
AcDbEntity
  8
0
100
AcDbPolyline
 62
250
  6
CONTINUOUS
 90
8
 70
0
 10
240.6304426787
 20
231.5181292512
 10
240.6294296352
 20
231.5500774439
 10
240.6283870782
 20
231.578338914
 10
240.6273088506
 20
231.6026489783
 10
240.6261738287
 20
231.6227959704
 10
240.6249749714
 20
231.6387093346
 10
240.6237193197
 20
231.6504596266
 10
240.6224068738
 20
231.6580468462
  0
LWPOLYLINE
  5
245
100
AcDbEntity
  8
0
100
AcDbPolyline
 62
250
  6
CONTINUOUS
 90
6
 70
0
 10
241.1283109339
 20
232.0375619387
 10
241.1272329243
 20
232.073701688
 10
241.1260980272
 20
232.1044853009
 10
241.1248991462
 20
232.1293695992
 10
241.1236433776
 20
232.1472494443
 10
241.1223307213
 20
232.1573616136
  0
LINE
  5
246
100
AcDbEntity
  8
0
100
AcDbLine
 62
250
  6
CONTINUOUS
 10
240.6323644074
 20
231.4417962656
 11
240.6304426787
 21
231.5181292512
  0
LINE
  5
247
100
AcDbEntity
  8
0
100
AcDbLine
 62
250
  6
CONTINUOUS
 10
241.1303663992
 20
231.9472644939
 11
241.1283109339
 21
232.0375619387
  0
LINE
  5
248
100
AcDbEntity
  8
0
100
AcDbLine
 62
250
  6
CONTINUOUS
 10
240.6341781667
 20
231.3461147835
 11
240.6323644074
 21
231.4417962656
  0
LINE
  5
249
100
AcDbEntity
  8
0
100
AcDbLine
 62
250
  6
CONTINUOUS
 10
241.1322882707
 20
231.8329857428
 11
241.1303663992
 21
231.9472644939
  0
LINE
  5
24A
100
AcDbEntity
  8
0
100
AcDbLine
 62
250
  6
CONTINUOUS
 10
240.6364364105
 20
231.17609529
 11
240.6341781667
 21
231.3461147835
  0
LINE
  5
24B
100
AcDbEntity
  8
0
100
AcDbLine
 62
250
  6
CONTINUOUS
 10
241.1349258359
 20
231.6093578284
 11
241.1322882707
 21
231.8329857428
  0
LINE
  5
24C
100
AcDbEntity
  8
0
100
AcDbLine
 62
250
  6
CONTINUOUS
 10
240.6380068147
 20
230.9836816052
 11
240.6364364105
 21
231.17609529
  0
LINE
  5
24D
100
AcDbEntity
  8
0
100
AcDbLine
 62
250
  6
CONTINUOUS
 10
241.1379306263
 20
231.1459602577
 11
241.1349258359
 21
231.6093578284
  0
LINE
  5
24E
100
AcDbEntity
  8
0
100
AcDbLine
 62
250
  6
CONTINUOUS
 10
240.6389336444
 20
230.7005422481
 11
240.6380068147
 21
230.9836816052
  0
LINE
  5
24F
100
AcDbEntity
  8
0
100
AcDbLine
 62
7
  6
CONTINUOUS
 10
240.5990286575
 20
231.7282385301
 11
240.5990286575
 21
188.5890342532
  0
LINE
  5
250
100
AcDbEntity
  8
0
100
AcDbLine
 62
250
  6
CONTINUOUS
 10
240.6408486503
 20
192.5505456189
 11
240.6389336444
 21
230.7005422481
  0
LINE
  5
251
100
AcDbEntity
  8
0
100
AcDbLine
 62
250
  6
CONTINUOUS
 10
241.1407724978
 20
192.5327135497
 11
241.1379306263
 21
231.1459602577
  0
LINE
  5
252
100
AcDbEntity
  8
0
100
AcDbLine
 62
250
  6
CONTINUOUS
 10
240.6383607037
 20
189.4005505444
 11
240.6408486503
 21
192.5505456189
  0
LINE
  5
253
100
AcDbEntity
  8
0
100
AcDbLine
 62
250
  6
CONTINUOUS
 10
241.1375335454
 20
189.081173233
 11
241.1407724978
 21
192.5327135497
  0
LINE
  5
254
100
AcDbEntity
  8
0
100
AcDbLine
 62
250
  6
CONTINUOUS
 10
241.1351951748
 20
188.7369223734
 11
241.1375335454
 21
189.081173233
  0
LINE
  5
255
100
AcDbEntity
  8
0
100
AcDbLine
 62
250
  6
CONTINUOUS
 10
240.6365819603
 20
189.1548423749
 11
240.6383607037
 21
189.4005505444
  0
LINE
  5
256
100
AcDbEntity
  8
0
100
AcDbLine
 62
250
  6
CONTINUOUS
 10
241.1326228281
 20
188.5077582951
 11
241.1351951748
 21
188.7369223734
  0
LINE
  5
257
100
AcDbEntity
  8
0
100
AcDbLine
 62
250
  6
CONTINUOUS
 10
240.6344863095
 20
188.9904907683
 11
240.6365819603
 21
189.1548423749
  0
LINE
  5
258
100
AcDbEntity
  8
0
100
AcDbLine
 62
250
  6
CONTINUOUS
 10
241.1306033867
 20
188.3825253764
 11
241.1326228281
 21
188.5077582951
  0
LINE
  5
259
100
AcDbEntity
  8
0
100
AcDbLine
 62
250
  6
CONTINUOUS
 10
240.632698939
 20
188.8911240208
 11
240.6344863095
 21
188.9904907683
  0
LINE
  5
25A
100
AcDbEntity
  8
0
100
AcDbLine
 62
250
  6
CONTINUOUS
 10
284.7071751387
 20
189.5966812669
 11
284.604355875
 21
189.5961680392
  0
LINE
  5
25B
100
AcDbEntity
  8
0
100
AcDbLine
 62
7
  6
CONTINUOUS
 10
284.6445653093
 20
188.0888054011
 11
241.0986480578
 21
188.0888054011
  0
LINE
  5
25C
100
AcDbEntity
  8
0
100
AcDbLine
 62
250
  6
CONTINUOUS
 10
241.1223307213
 20
188.1599111697
 11
284.6208826457
 21
188.1599111697
  0
LWPOLYLINE
  5
25D
100
AcDbEntity
  8
0
100
AcDbPolyline
 62
250
  6
CONTINUOUS
 90
7
 70
0
 10
241.1223307213
 20
188.1599111697
 10
241.1236134221
 20
188.1696683079
 10
241.1248627032
 20
188.1872317288
 10
241.1260785649
 20
188.2123244533
 10
241.1272628255
 20
188.2445187194
 10
241.1284136666
 20
188.2835452543
 10
241.1306033867
 20
188.3825253764
  0
LINE
  5
25E
100
AcDbEntity
  8
0
100
AcDbLine
 62
250
  6
CONTINUOUS
 10
241.138857492
 20
189.5961680668
 11
284.604355875
 21
189.5961680668
  0
LWPOLYLINE
  5
25F
100
AcDbEntity
  8
0
100
AcDbPolyline
 62
250
  6
CONTINUOUS
 90
9
 70
0
 10
240.6224068738
 20
188.6592259371
 10
240.6236893982
 20
188.6660741132
 10
240.6249385826
 20
188.6777215098
 10
240.6261544272
 20
188.6941681267
 10
240.627338799
 20
188.715506832
 10
240.6284898309
 20
188.7416447576
 10
240.629601921
 20
188.7723032997
 10
240.6306796517
 20
188.8076388576
 10
240.632698939
 20
188.8911240208
  0
LINE
  5
260
100
AcDbEntity
  8
0
100
AcDbLine
 62
250
  6
CONTINUOUS
 10
240.5990286575
 20
188.5890342532
 11
240.6224068738
 21
188.6592259371
  0
LINE
  5
261
100
AcDbEntity
  8
0
100
AcDbLine
 62
250
  6
CONTINUOUS
 10
241.0986480578
 20
188.0888054011
 11
241.1223307213
 21
188.1599111697
  0
LINE
  5
262
100
AcDbEntity
  8
0
100
AcDbLine
 62
250
  6
CONTINUOUS
 10
240.6224068738
 20
231.6580468462
 11
240.5990286575
 21
231.7282385301
  0
LINE
  5
263
100
AcDbEntity
  8
0
100
AcDbLine
 62
250
  6
CONTINUOUS
 10
241.1223307213
 20
232.1573616136
 11
241.0986480578
 21
232.2284673822
  0
LWPOLYLINE
  5
264
100
AcDbEntity
  8
0
100
AcDbPolyline
 62
7
  6
CONTINUOUS
 90
3
 70
0
 43
0.3500000087
 10
264.014463147
 20
243.2641808838
 10
263.9430271973
 20
243.0498900879
 10
263.8001723511
 20
242.7641803955
  0
LWPOLYLINE
  5
265
100
AcDbEntity
  8
0
100
AcDbPolyline
 62
7
  6
CONTINUOUS
 90
2
 70
0
 43
0.3500000087
 10
259.5858947021
 20
242.9784711914
 10
259.5858947021
 20
244.4784726563
  0
LWPOLYLINE
  5
266
100
AcDbEntity
  8
0
100
AcDbPolyline
 62
7
  6
CONTINUOUS
 90
2
 70
0
 43
0.3500000087
 10
294.3941824463
 20
207.0872014893
 10
292.8941809814
 20
207.0872014893
  0
LWPOLYLINE
  5
267
100
AcDbEntity
  8
0
100
AcDbPolyline
 62
7
  6
CONTINUOUS
 90
6
 70
0
 10
261.8755084421
 20
210.0715117613
 10
261.8716066835
 20
210.1585615446
 10
261.8754975681
 20
210.2456158428
 10
261.8869761948
 20
210.3326710461
 10
261.9057324794
 20
210.4176661154
 10
261.9318928596
 20
210.5004599086
  0
LWPOLYLINE
  5
268
100
AcDbEntity
  8
0
100
AcDbPolyline
 62
7
  6
CONTINUOUS
 90
2
 70
0
 43
0.3500000087
 10
261.9430422974
 20
242.9784711914
 10
261.9430422974
 20
244.4784726563
  0
LINE
  5
269
100
AcDbEntity
  8
0
100
AcDbLine
 62
7
  6
CONTINUOUS
 10
261.9318928596
 20
210.5004599086
 11
261.9662284525
 21
210.582955363
  0
LINE
  5
26A
100
AcDbEntity
  8
0
100
AcDbLine
 62
7
  6
CONTINUOUS
 10
261.9653308976
 20
210.5811935642
 11
262.0064824107
 21
210.6601743577
  0
LINE
  5
26B
100
AcDbEntity
  8
0
100
AcDbLine
 62
7
  6
CONTINUOUS
 10
262.0053571958
 20
210.6582294657
 11
262.053288772
 21
210.7333013589
  0
LWPOLYLINE
  5
26C
100
AcDbEntity
  8
0
100
AcDbPolyline
 62
7
  6
CONTINUOUS
 90
9
 70
0
 10
262.0521695705
 20
210.7315860419
 10
262.1055702053
 20
210.801244864
 10
262.1642762543
 20
210.8655130313
 10
262.2283659413
 20
210.9242065087
 10
262.2977610424
 20
210.977509335
 10
262.37094404
 20
211.0242807226
 10
262.4479626556
 20
211.0643934106
 10
262.5287691677
 20
211.0979746649
 10
262.6117028947
 20
211.1242654883
  0
LWPOLYLINE
  5
26D
100
AcDbEntity
  8
0
100
AcDbPolyline
 62
7
  6
CONTINUOUS
 90
4
 70
0
 10
263.1315105155
 20
209.1930073209
 10
263.0470031134
 20
209.1742599331
 10
262.9603685027
 20
209.162802957
 10
262.8716066835
 20
209.1586363916
  0
LWPOLYLINE
  5
26E
100
AcDbEntity
  8
0
100
AcDbPolyline
 62
7
  6
CONTINUOUS
 90
2
 70
0
 43
0.3500000087
 10
294.3941824463
 20
209.4443490845
 10
292.8941809814
 20
209.4443490845
  0
LWPOLYLINE
  5
26F
100
AcDbEntity
  8
0
100
AcDbPolyline
 62
7
  6
CONTINUOUS
 90
3
 70
0
 10
262.8716066835
 20
209.1586363916
 10
262.7836477745
 20
209.1626114045
 10
262.6975419113
 20
209.1739268826
  0
LINE
  5
270
100
AcDbEntity
  8
0
100
AcDbLine
 62
7
  6
CONTINUOUS
 10
262.6975419113
 20
209.1739268826
 11
262.6116752874
 21
209.1930162331
  0
LWPOLYLINE
  5
271
100
AcDbEntity
  8
0
100
AcDbPolyline
 62
7
  6
CONTINUOUS
 90
9
 70
0
 10
262.6132890939
 20
209.1925828271
 10
262.5302117995
 20
209.2188613472
 10
262.4489875509
 20
209.2524803374
 10
262.3716489164
 20
209.2925934766
 10
262.2983887585
 20
209.3393132849
 10
262.2290142147
 20
209.3925272473
 10
262.1649792654
 20
209.4510514904
 10
262.1063944421
 20
209.5149506941
 10
262.0531492134
 20
209.584160182
  0
LINE
  5
272
100
AcDbEntity
  8
0
100
AcDbLine
 62
7
  6
CONTINUOUS
 10
262.0531492134
 20
209.584160182
 11
262.0054825571
 21
209.658828909
  0
LWPOLYLINE
  5
273
100
AcDbEntity
  8
0
100
AcDbPolyline
 62
7
  6
CONTINUOUS
 90
6
 70
0
 10
262.0063659655
 20
209.6573020444
 10
261.9661227588
 20
209.7345521098
 10
261.932341533
 20
209.8157345498
 10
261.9059104937
 20
209.8989439673
 10
261.887031692
 20
209.9842237341
 10
261.8755030769
 20
210.0715304746
  0
LWPOLYLINE
  5
274
100
AcDbEntity
  8
0
100
AcDbPolyline
 62
7
  6
CONTINUOUS
 90
6
 70
0
 10
263.867706291
 20
210.2457511675
 10
263.8716066894
 20
210.1587056608
 10
263.8677153611
 20
210.0716536533
 10
263.8562367929
 20
209.9845998373
 10
263.8374805708
 20
209.8996056364
 10
263.8113200397
 20
209.8168120789
  0
LINE
  5
275
100
AcDbEntity
  8
0
100
AcDbLine
 62
7
  6
CONTINUOUS
 10
263.8113200397
 20
209.8168120789
 11
263.7769739217
 21
209.7342942498
  0
LINE
  5
276
100
AcDbEntity
  8
0
100
AcDbLine
 62
7
  6
CONTINUOUS
 10
263.7778818548
 20
209.73607814
 11
263.7367188196
 21
209.6570773959
  0
LINE
  5
277
100
AcDbEntity
  8
0
100
AcDbLine
 62
7
  6
CONTINUOUS
 10
263.7378555666
 20
209.6590421616
 11
263.6899121061
 21
209.5839533698
  0
LWPOLYLINE
  5
278
100
AcDbEntity
  8
0
100
AcDbPolyline
 62
7
  6
CONTINUOUS
 90
9
 70
0
 10
263.6910435183
 20
209.5856861144
 10
263.6376433669
 20
209.5160280278
 10
263.5789376342
 20
209.4517603294
 10
263.5148479223
 20
209.3930667791
 10
263.4454526292
 20
209.3397636133
 10
263.3722694703
 20
209.292991973
 10
263.2952507987
 20
209.2528792704
 10
263.2144442614
 20
209.2192980879
 10
263.1315105155
 20
209.1930073209
  0
LWPOLYLINE
  5
279
100
AcDbEntity
  8
0
100
AcDbPolyline
 62
7
  6
CONTINUOUS
 90
4
 70
0
 10
262.6117028947
 20
211.1242654883
 10
262.6962102761
 20
211.143012883
 10
262.7828448723
 20
211.1544698504
 10
262.8716066835
 20
211.1586363916
  0
LWPOLYLINE
  5
27A
100
AcDbEntity
  8
0
100
AcDbPolyline
 62
7
  6
CONTINUOUS
 90
3
 70
0
 10
262.8716066835
 20
211.1586363916
 10
262.9595614691
 20
211.1546621862
 10
263.0456643129
 20
211.1433475137
  0
LINE
  5
27B
100
AcDbEntity
  8
0
100
AcDbLine
 62
7
  6
CONTINUOUS
 10
263.0456643129
 20
211.1433475137
 11
263.1315382289
 21
211.1242565026
  0
LWPOLYLINE
  5
27C
100
AcDbEntity
  8
0
100
AcDbPolyline
 62
7
  6
CONTINUOUS
 90
9
 70
0
 10
263.129915215
 20
211.1246923732
 10
263.212991835
 20
211.0984148857
 10
263.2942165133
 20
211.0647969264
 10
263.3715562709
 20
211.024684125
 10
263.4448184645
 20
210.9779635759
 10
263.5141957373
 20
210.9247481795
 10
263.5782330402
 20
210.8662222746
 10
263.6368194358
 20
210.8023214713
 10
263.6900658614
 20
210.7331101558
  0
LINE
  5
27D
100
AcDbEntity
  8
0
100
AcDbLine
 62
7
  6
CONTINUOUS
 10
263.6900658614
 20
210.7331101558
 11
263.7377383251
 21
210.6584305839
  0
LWPOLYLINE
  5
27E
100
AcDbEntity
  8
0
100
AcDbPolyline
 62
7
  6
CONTINUOUS
 90
6
 70
0
 10
263.7368500798
 20
210.6599658341
 10
263.7770942301
 20
210.5827125583
 10
263.8108761732
 20
210.501526276
 10
263.8373072534
 20
210.4183123378
 10
263.8561851507
 20
210.3330262034
 10
263.8677121851
 20
210.2457124169
  0
LWPOLYLINE
  5
27F
100
AcDbEntity
  8
0
100
AcDbPolyline
 62
7
  6
CONTINUOUS
 90
10
 70
0
 43
0.3500000087
 10
293.894181958
 20
211.4443510376
 10
294.0370538574
 20
211.5157869873
 10
294.1084727539
 20
211.5157869873
 10
294.2513105469
 20
211.3729150879
 10
294.2513105469
 20
211.3014961914
 10
294.1798916504
 20
211.2300602417
 10
294.1084727539
 20
211.2300602417
 10
293.9656008545
 20
211.3014961914
 10
293.894181958
 20
211.3729150879
 10
293.894181958
 20
211.4443510376
  0
LWPOLYLINE
  5
280
100
AcDbEntity
  8
0
100
AcDbPolyline
 62
7
  6
CONTINUOUS
 90
3
 70
0
 43
0.3500000087
 10
294.1084727539
 20
211.5157869873
 10
294.3227635498
 20
211.4443510376
 10
294.6084732422
 20
211.3014961914
  0
LINE
  5
281
100
AcDbEntity
  8
0
100
AcDbLine
 62
250
  6
CONTINUOUS
 10
284.6445653093
 20
232.2284673822
 11
284.6208826457
 21
232.1573616136
  0
LINE
  5
282
100
AcDbEntity
  8
0
100
AcDbLine
 62
250
  6
CONTINUOUS
 10
285.1441847095
 20
231.7282385301
 11
285.1208064932
 21
231.6580468462
  0
LINE
  5
283
100
AcDbEntity
  8
0
100
AcDbLine
 62
250
  6
CONTINUOUS
 10
284.6208826457
 20
188.1599111697
 11
284.6445653093
 21
188.0888054011
  0
LINE
  5
284
100
AcDbEntity
  8
0
100
AcDbLine
 62
250
  6
CONTINUOUS
 10
285.1208064932
 20
188.6592259371
 11
285.1441847095
 21
188.5890342532
  0
LWPOLYLINE
  5
285
100
AcDbEntity
  8
0
100
AcDbPolyline
 62
7
  6
CONTINUOUS
 90
10
 70
0
 43
0.3500000087
 10
263.9430271973
 20
243.4784716797
 10
264.014463147
 20
243.3356168335
 10
264.014463147
 20
243.2641808838
 10
263.8716083008
 20
243.1213260376
 10
263.8001723511
 20
243.1213260376
 10
263.7287534546
 20
243.1927449341
 10
263.7287534546
 20
243.2641808838
 10
263.8001723511
 20
243.40703573
 10
263.8716083008
 20
243.4784716797
 10
263.9430271973
 20
243.4784716797
  0
LWPOLYLINE
  5
286
100
AcDbEntity
  8
0
100
AcDbPolyline
 62
250
  6
CONTINUOUS
 90
7
 70
0
 10
284.6208826457
 20
232.1573616136
 10
284.6196376782
 20
232.1480010719
 10
284.6184242077
 20
232.1312848255
 10
284.6172422343
 20
232.1074743085
 10
284.6160899839
 20
232.0769590327
 10
284.6149692306
 20
232.0399962218
 10
284.6128348368
 20
231.9465368809
  0
LWPOLYLINE
  5
287
100
AcDbEntity
  8
0
100
AcDbPolyline
 62
250
  6
CONTINUOUS
 90
10
 70
0
 10
285.1208064932
 20
231.6580468462
 10
285.119561689
 20
231.6514846805
 10
285.1183483077
 20
231.6403986125
 10
285.1171663495
 20
231.6247886423
 10
285.1160139935
 20
231.6045556631
 10
285.1148930605
 20
231.5797987817
 10
285.1138090126
 20
231.5508153183
 10
285.1127585851
 20
231.5175157751
 10
285.1117450426
 20
231.4799896498
 10
285.1098770021
 20
231.3940725783
  0
LWPOLYLINE
  5
288
100
AcDbEntity
  8
0
100
AcDbPolyline
 62
250
  6
CONTINUOUS
 90
6
 70
0
 10
284.6147427007
 20
188.2857452594
 10
284.6159148198
 20
188.2456441126
 10
284.6171168529
 20
188.2127531524
 10
284.6183422031
 20
188.1873690422
 10
284.6195974673
 20
188.1696886485
 10
284.6208826457
 20
188.1599111697
  0
LINE
  5
289
100
AcDbEntity
  8
0
100
AcDbLine
 62
250
  6
CONTINUOUS
 10
241.0360377711
 20
230.7205915085
 11
241.138857492
 21
230.7211047274
  0
LWPOLYLINE
  5
28A
100
AcDbEntity
  8
0
100
AcDbPolyline
 62
250
  6
CONTINUOUS
 90
8
 70
0
 10
285.1124742115
 20
188.8096534651
 10
285.1135440191
 20
188.7743404472
 10
285.1146665448
 20
188.7432552732
 10
285.115838839
 20
188.7163735701
 10
285.1170409738
 20
188.6944539261
 10
285.1182663064
 20
188.677749204
 10
285.1195214796
 20
188.6660065409
 10
285.1208064932
 20
188.6592259371
  0
LINE
  5
28B
100
AcDbEntity
  8
0
100
AcDbLine
 62
250
  6
CONTINUOUS
 10
285.1104949815
 20
188.892058206
 11
285.1124742115
 21
188.8096534651
  0
LINE
  5
28C
100
AcDbEntity
  8
0
100
AcDbLine
 62
250
  6
CONTINUOUS
 10
284.6125504506
 20
188.3856780734
 11
284.6147427007
 21
188.2857452594
  0
LINE
  5
28D
100
AcDbEntity
  8
0
100
AcDbLine
 62
250
  6
CONTINUOUS
 10
285.1087641026
 20
188.9876799073
 11
285.1104949815
 21
188.892058206
  0
LINE
  5
28E
100
AcDbEntity
  8
0
100
AcDbLine
 62
250
  6
CONTINUOUS
 10
284.6105710693
 20
188.5091595727
 11
284.6125504506
 21
188.3856780734
  0
LINE
  5
28F
100
AcDbEntity
  8
0
100
AcDbLine
 62
250
  6
CONTINUOUS
 10
285.106641962
 20
189.1541439212
 11
285.1087641026
 21
188.9876799073
  0
LINE
  5
290
100
AcDbEntity
  8
0
100
AcDbLine
 62
250
  6
CONTINUOUS
 10
284.6080697794
 20
188.7312550153
 11
284.6105710693
 21
188.5091595727
  0
LINE
  5
291
100
AcDbEntity
  8
0
100
AcDbLine
 62
250
  6
CONTINUOUS
 10
285.1048192766
 20
189.4078444319
 11
285.106641962
 21
189.1541439212
  0
LINE
  5
292
100
AcDbEntity
  8
0
100
AcDbLine
 62
250
  6
CONTINUOUS
 10
284.6052356299
 20
189.1833426424
 11
284.6080697794
 21
188.7312550153
  0
LINE
  5
293
100
AcDbEntity
  8
0
100
AcDbLine
 62
250
  6
CONTINUOUS
 10
284.5992949613
 20
198.6370645169
 11
284.6052356299
 21
189.1833426424
  0
LINE
  5
294
100
AcDbEntity
  8
0
100
AcDbLine
 62
250
  6
CONTINUOUS
 10
285.0992188089
 20
198.6485860888
 11
285.1048192766
 21
189.4078444319
  0
LINE
  5
295
100
AcDbEntity
  8
0
100
AcDbLine
 62
7
  6
CONTINUOUS
 10
285.1441847095
 20
188.5890342532
 11
285.1441847095
 21
231.7282385301
  0
LINE
  5
296
100
AcDbEntity
  8
0
100
AcDbLine
 62
250
  6
CONTINUOUS
 10
285.1048522801
 20
230.9166397807
 11
285.0992188089
 21
198.6485860888
  0
LINE
  5
297
100
AcDbEntity
  8
0
100
AcDbLine
 62
250
  6
CONTINUOUS
 10
284.6057534667
 20
231.2500201569
 11
284.5992949613
 21
198.6370645169
  0
LINE
  5
298
100
AcDbEntity
  8
0
100
AcDbLine
 62
250
  6
CONTINUOUS
 10
285.1062072607
 20
231.1178571827
 11
285.1048522801
 21
230.9166397807
  0
LINE
  5
299
100
AcDbEntity
  8
0
100
AcDbLine
 62
250
  6
CONTINUOUS
 10
284.6083037477
 20
231.611056268
 11
284.6057534667
 21
231.2500201569
  0
LINE
  5
29A
100
AcDbEntity
  8
0
100
AcDbLine
 62
250
  6
CONTINUOUS
 10
285.1082275414
 20
231.2938432827
 11
285.1062072607
 21
231.1178571827
  0
LINE
  5
29B
100
AcDbEntity
  8
0
100
AcDbLine
 62
250
  6
CONTINUOUS
 10
284.6108597317
 20
231.8284954795
 11
284.6083037477
 21
231.611056268
  0
LINE
  5
29C
100
AcDbEntity
  8
0
100
AcDbLine
 62
250
  6
CONTINUOUS
 10
285.1098770021
 20
231.3940725783
 11
285.1082275414
 21
231.2938432827
  0
LINE
  5
29D
100
AcDbEntity
  8
0
100
AcDbLine
 62
250
  6
CONTINUOUS
 10
284.6128348368
 20
231.9465368809
 11
284.6108597317
 21
231.8284954795
  0
LINE
  5
29E
100
AcDbEntity
  8
0
100
AcDbLine
 62
250
  6
CONTINUOUS
 10
241.1223307213
 20
232.1573616136
 11
284.6208826457
 21
232.1573616136
  0
LINE
  5
29F
100
AcDbEntity
  8
0
100
AcDbLine
 62
7
  6
CONTINUOUS
 10
284.6445653093
 20
232.2284673822
 11
241.0986480578
 21
232.2284673822
  0
LWPOLYLINE
  5
2A0
100
AcDbEntity
  8
0
100
AcDbPolyline
 62
7
  6
CONTINUOUS
 90
3
 70
0
 43
0.3500000087
 10
292.2513427002
 20
212.5157709106
 10
291.3941795166
 20
213.372917041
 10
294.3941824463
 20
213.372917041
  0
LWPOLYLINE
  5
2A1
100
AcDbEntity
  8
0
100
AcDbPolyline
 62
250
  6
CONTINUOUS
 90
16
 70
0
 10
285.1208064932
 20
231.6580468462
 10
285.1180234063
 20
231.7102085786
 10
285.1097999827
 20
231.7617995999
 10
285.0962261801
 20
231.8122553313
 10
285.0774505063
 20
231.8610236155
 10
285.0536783993
 20
231.9075707486
 10
285.0251699832
 20
231.9513873228
 10
284.9922372102
 20
231.9919938204
 10
284.9552404574
 20
232.0289458436
 10
284.9145845947
 20
232.0618389738
 10
284.8707145242
 20
232.0903132266
 10
284.8241103304
 20
232.1140569703
 10
284.7752820473
 20
232.1328103328
 10
284.7247640376
 20
232.1463680685
 10
284.6731091397
 20
232.1545817959
 10
284.6208826452
 20
232.1573616121
  0
LWPOLYLINE
  5
2A2
100
AcDbEntity
  8
0
100
AcDbPolyline
 62
250
  6
CONTINUOUS
 90
16
 70
0
 10
285.1208064932
 20
188.6592259371
 10
285.1180233366
 20
188.607063548
 10
285.1097997293
 20
188.5554719972
 10
285.0962256662
 20
188.505015876
 10
285.0774496948
 20
188.4562473499
 10
285.0536772898
 20
188.4097001167
 10
285.0251686039
 20
188.3658835649
 10
284.9922356216
 20
188.3252772004
 10
284.9552387443
 20
188.2883253982
 10
284.9145828467
 20
188.2554325396
 10
284.870712846
 20
188.2269585873
 10
284.8241088327
 20
188.2032151453
 10
284.7752808171
 20
188.1844620495
 10
284.7247631478
 20
188.1709045241
 10
284.673108664
 20
188.1626909358
 10
284.6208826457
 20
188.1599111697
  0
LWPOLYLINE
  5
2A3
100
AcDbEntity
  8
0
100
AcDbPolyline
 62
7
  6
CONTINUOUS
 90
3
 70
0
 43
0.3500000087
 10
293.751344165
 20
209.9443495728
 10
293.751344165
 20
208.4443481079
 10
291.3941795166
 20
209.0872034424
  0
LWPOLYLINE
  5
2A4
100
AcDbEntity
  8
0
100
AcDbPolyline
 62
7
  6
CONTINUOUS
 90
3
 70
0
 43
0.3500000087
 10
293.751344165
 20
207.5872019775
 10
293.751344165
 20
206.0872005127
 10
291.3941795166
 20
206.7300729004
  0
LWPOLYLINE
  5
2A5
100
AcDbEntity
  8
0
100
AcDbPolyline
 62
250
  6
CONTINUOUS
 90
14
 70
0
 10
285.1042797226
 20
189.6167305548
 10
285.1007002982
 20
189.6146046626
 10
285.0918028963
 20
189.6125015449
 10
285.077682814
 20
189.6104437355
 10
285.0584913053
 20
189.6084532839
 10
285.0344339657
 20
189.6065515166
 10
285.0057685328
 20
189.6047588085
 10
284.9728021147
 20
189.603094367
 10
284.9358879087
 20
189.6015760276
 10
284.895421429
 20
189.6002200598
 10
284.8518362399
 20
189.599040994
 10
284.8055993284
 20
189.5980514633
 10
284.7572061214
 20
189.5972620684
 10
284.7071751387
 20
189.5966812669
  0
LWPOLYLINE
  5
2A6
100
AcDbEntity
  8
0
100
AcDbPolyline
 62
7
  6
CONTINUOUS
 90
8
 70
0
 43
0.3500000087
 10
265.0144641235
 20
242.9784711914
 10
265.8716102539
 20
242.9784711914
 10
266.3001747925
 20
243.40703573
 10
266.3001747925
 20
244.2641818604
 10
265.8716102539
 20
244.6927463989
 10
265.0144641235
 20
244.6927463989
 10
265.0144641235
 20
245.9784741211
 10
266.3001747925
 20
245.9784741211
  0
LWPOLYLINE
  5
2A7
100
AcDbEntity
  8
0
100
AcDbPolyline
 62
7
  6
CONTINUOUS
 90
3
 70
0
 43
0.3500000087
 10
262.4430427856
 20
243.6213265259
 10
260.9430413208
 20
243.6213265259
 10
261.5858966553
 20
245.9784741211
  0
LWPOLYLINE
  5
2A8
100
AcDbEntity
  8
0
100
AcDbPolyline
 62
7
  6
CONTINUOUS
 90
3
 70
0
 43
0.3500000087
 10
260.0858951904
 20
243.6213265259
 10
258.5858937256
 20
243.6213265259
 10
259.2287490601
 20
245.9784741211
  0
LWPOLYLINE
  5
2A9
100
AcDbEntity
  8
0
100
AcDbPolyline
 62
250
  6
CONTINUOUS
 90
16
 70
0
 10
285.1042797226
 20
230.7005422481
 10
285.1007002196
 20
230.7026681588
 10
285.0918026299
 20
230.7047712914
 10
285.0776822869
 20
230.7068291118
 10
285.0584904831
 20
230.7088195716
 10
285.0344328493
 20
230.710721344
 10
285.0057671512
 20
230.7125140523
 10
284.9728005277
 20
230.7141784885
 10
284.9358862001
 20
230.7156968192
 10
284.8954196874
 20
230.717052776
 10
284.8518345683
 20
230.7182318306
 10
284.8055978361
 20
230.71922135
 10
284.7572048947
 20
230.720010732
 10
284.7071742509
 20
230.7205915186
 10
284.6560419585
 20
230.7209574872
 10
241.138857492
 20
230.7211047165
  0
LWPOLYLINE
  5
2AA
100
AcDbEntity
  8
0
100
AcDbPolyline
 62
7
  6
CONTINUOUS
 90
10
 70
0
 43
0.3500000087
 10
213.3695125977
 20
242.9784711914
 10
214.226658728
 20
243.8356173218
 10
214.4409495239
 20
244.6927463989
 10
214.4409495239
 20
245.5498925293
 10
214.0123679321
 20
245.9784741211
 10
213.3695125977
 20
245.9784741211
 10
212.9409480591
 20
245.5498925293
 10
212.9409480591
 20
244.6927463989
 10
213.3695125977
 20
244.2641818604
 10
214.2980946777
 20
244.2641818604
  0
LINE
  5
2AB
100
AcDbEntity
  8
0
100
AcDbLine
 62
250
  6
CONTINUOUS
 10
221.9834610163
 20
188.7187913039
 11
221.7860670593
 21
188.7187913039
  0
LINE
  5
2AC
100
AcDbEntity
  8
0
100
AcDbLine
 62
7
  6
CONTINUOUS
 10
220.1266821274
 20
188.1599111697
 11
221.4834610163
 21
188.0888054011
  0
LINE
  5
2AD
100
AcDbEntity
  8
0
100
AcDbLine
 62
250
  6
CONTINUOUS
 10
220.1441239023
 20
188.6592259371
 11
221.4834610163
 21
188.5890342532
  0
LWPOLYLINE
  5
2AE
100
AcDbEntity
  8
0
100
AcDbPolyline
 62
7
  6
CONTINUOUS
 90
3
 70
0
 43
0.3500000087
 10
211.9409470825
 20
243.2641808838
 10
211.8695111328
 20
243.0498900879
 10
211.7266562866
 20
242.7641803955
  0
LINE
  5
2AF
100
AcDbEntity
  8
0
100
AcDbLine
 62
250
  6
CONTINUOUS
 10
218.7091299295
 20
189.5963152831
 11
218.706455045
 21
189.5961680392
  0
LINE
  5
2B0
100
AcDbEntity
  8
0
100
AcDbLine
 62
250
  6
CONTINUOUS
 10
219.1973058458
 20
189.6167305548
 11
218.7091299295
 21
189.5963152831
  0
LWPOLYLINE
  5
2B1
100
AcDbEntity
  8
0
100
AcDbPolyline
 62
250
  6
CONTINUOUS
 90
13
 70
0
 10
223.8183232885
 20
191.8191660396
 10
223.8281080778
 20
191.8216659042
 10
223.8374472182
 20
191.8273874927
 10
223.846187771
 20
191.8362371375
 10
223.8541865984
 20
191.8480699468
 10
223.8613127053
 20
191.8626921726
 10
223.867449386
 20
191.8798643792
 10
223.872496139
 20
191.8993053757
 10
223.8763703092
 20
191.9206968089
 10
223.8790084423
 20
191.9436883662
 10
223.880367329
 20
191.9679035351
 10
223.8804247096
 20
191.9929457728
 10
223.8791796375
 20
192.0184049835
  0
LINE
  5
2B2
100
AcDbEntity
  8
0
100
AcDbLine
 62
7
  6
CONTINUOUS
 10
223.8183233134
 20
191.8191660418
 11
221.9834610163
 21
191.6586363916
  0
LINE
  5
2B3
100
AcDbEntity
  8
0
100
AcDbLine
 62
250
  6
CONTINUOUS
 10
223.687824284
 20
192.008360129
 11
221.9834610163
 21
191.8592476646
  0
LINE
  5
2B4
100
AcDbEntity
  8
0
100
AcDbLine
 62
250
  6
CONTINUOUS
 10
223.8791795972
 20
192.0184049814
 11
223.687824284
 21
192.008360129
  0
LINE
  5
2B5
100
AcDbEntity
  8
0
100
AcDbLine
 62
250
  6
CONTINUOUS
 10
223.8791855026
 20
195.2988674863
 11
223.687824284
 21
195.3089126543
  0
LINE
  5
2B6
100
AcDbEntity
  8
0
100
AcDbLine
 62
7
  6
CONTINUOUS
 10
223.5834610163
 20
196.9053781736
 11
221.9834610163
 21
196.8215257268
  0
LINE
  5
2B7
100
AcDbEntity
  8
0
100
AcDbLine
 62
250
  6
CONTINUOUS
 10
223.687824284
 20
195.3089126543
 11
221.9834610163
 21
195.4580251187
  0
LINE
  5
2B8
100
AcDbEntity
  8
0
100
AcDbLine
 62
7
  6
CONTINUOUS
 10
223.8183233134
 20
195.4981067415
 11
221.9834610163
 21
195.6586363916
  0
LINE
  5
2B9
100
AcDbEntity
  8
0
100
AcDbLine
 62
7
  6
CONTINUOUS
 10
221.9834610163
 20
200.4957470565
 11
223.5834610163
 21
200.4118946097
  0
LWPOLYLINE
  5
2BA
100
AcDbEntity
  8
0
100
AcDbPolyline
 62
250
  6
CONTINUOUS
 90
22
 70
0
 10
219.1973058466
 20
189.6167305352
 10
219.2030660731
 20
189.5453536249
 10
219.2133697484
 20
189.4757249238
 10
219.2282168725
 20
189.4078444319
 10
219.247705208
 20
189.3416066692
 10
219.2717369923
 20
189.2771171156
 10
219.3000189377
 20
189.2146922113
 10
219.3326384529
 20
189.1541439212
 10
219.3695081291
 20
189.0956602804
 10
219.4100724523
 20
189.040121834
 10
219.4542158033
 20
188.9876799073
 10
219.5020538012
 20
188.938183175
 10
219.5533777893
 20
188.892058206
 10
219.6083297995
 20
188.849169954
 10
219.6667677999
 20
188.8096534651
 10
219.7280570391
 20
188.7743404472
 10
219.7923664916
 20
188.7432552732
 10
219.8595271829
 20
188.7163735701
 10
219.9283974372
 20
188.6944539261
 10
219.9985966959
 20
188.677749204
 10
220.0705055176
 20
188.6660065409
 10
220.1441239023
 20
188.6592259371
  0
LWPOLYLINE
  5
2BB
100
AcDbEntity
  8
0
100
AcDbPolyline
 62
250
  6
CONTINUOUS
 90
16
 70
0
 10
219.1973058466
 20
230.7005422481
 10
219.0876373881
 20
227.7681612947
 10
218.9948664579
 20
224.9221532212
 10
218.9189930561
 20
222.1625180277
 10
218.8612143224
 20
219.5135410226
 10
218.8203331171
 20
216.9509368975
 10
218.7927580205
 20
214.4018497268
 10
218.7770025072
 20
211.8641010469
 10
218.7745531025
 20
209.3398693214
 10
218.7862779632
 20
206.7628340163
 10
218.8109374808
 20
204.1272725612
 10
218.8497712637
 20
201.4389075265
 10
218.9073662936
 20
198.6485860888
 10
218.9852515643
 20
195.7399239738
 10
219.081898082
 20
192.729305456
 10
219.1973058466
 20
189.6167305352
  0
LWPOLYLINE
  5
2BC
100
AcDbEntity
  8
0
100
AcDbPolyline
 62
250
  6
CONTINUOUS
 90
19
 70
0
 10
221.7860722461
 20
188.7187931917
 10
221.7939239449
 20
188.673812642
 10
221.8008356802
 20
188.6297976416
 10
221.8067533146
 20
188.5870803161
 10
221.8116807615
 20
188.5457496365
 10
221.8155369363
 20
188.5063268613
 10
221.818250408
 20
188.4696824372
 10
221.8199587123
 20
188.4360992173
 10
221.8207415425
 20
188.4055035065
 10
221.8205730034
 20
188.3780499333
 10
221.8196076606
 20
188.353999262
 10
221.818025907
 20
188.3329254876
 10
221.8157501045
 20
188.3140591042
 10
221.8127596224
 20
188.2974844872
 10
221.8091526337
 20
188.2832465474
 10
221.8047841522
 20
188.2709574433
 10
221.7994977787
 20
188.260829149
 10
221.7932757287
 20
188.2533772004
 10
221.7860670593
 20
188.2489449935
  0
LINE
  5
2BD
100
AcDbEntity
  8
0
100
AcDbLine
 62
250
  6
CONTINUOUS
 10
220.1441239023
 20
231.6580468462
 11
220.1364712343
 21
231.8122553313
  0
LINE
  5
2BE
100
AcDbEntity
  8
0
100
AcDbLine
 62
250
  6
CONTINUOUS
 10
220.1364712343
 20
231.8122553313
 11
220.1322186306
 21
231.9075707486
  0
LINE
  5
2BF
100
AcDbEntity
  8
0
100
AcDbLine
 62
250
  6
CONTINUOUS
 10
220.1322186306
 20
231.9075707486
 11
220.1288666558
 21
231.9919938204
  0
LWPOLYLINE
  5
2C0
100
AcDbEntity
  8
0
100
AcDbPolyline
 62
250
  6
CONTINUOUS
 90
8
 70
0
 10
220.1288666558
 20
231.9919938204
 10
220.126561651
 20
232.0618389738
 10
220.1258351308
 20
232.0903132266
 10
220.1254042508
 20
232.1140569703
 10
220.1252737277
 20
232.1328103328
 10
220.1254449907
 20
232.1463680685
 10
220.1259161663
 20
232.1545817959
 10
220.1266820989
 20
232.1573616121
  0
LWPOLYLINE
  5
2C1
100
AcDbEntity
  8
0
100
AcDbPolyline
 62
250
  6
CONTINUOUS
 90
7
 70
0
 10
220.1265616268
 20
188.2554325396
 10
220.1258351223
 20
188.2269585873
 10
220.1254042558
 20
188.2032151453
 10
220.125273744
 20
188.1844620495
 10
220.1254450154
 20
188.1709045241
 10
220.1259161953
 20
188.1626909358
 10
220.1266821274
 20
188.1599111697
  0
LINE
  5
2C2
100
AcDbEntity
  8
0
100
AcDbLine
 62
250
  6
CONTINUOUS
 10
220.128866599
 20
188.3252772004
 11
220.1265616268
 21
188.2554325396
  0
LINE
  5
2C3
100
AcDbEntity
  8
0
100
AcDbLine
 62
250
  6
CONTINUOUS
 10
220.1322185521
 20
188.4097001167
 11
220.128866599
 21
188.3252772004
  0
LINE
  5
2C4
100
AcDbEntity
  8
0
100
AcDbLine
 62
250
  6
CONTINUOUS
 10
220.1388785154
 20
188.5554719972
 11
220.1322185521
 21
188.4097001167
  0
LINE
  5
2C5
100
AcDbEntity
  8
0
100
AcDbLine
 62
250
  6
CONTINUOUS
 10
220.1441239023
 20
188.6592259371
 11
220.1388785154
 21
188.5554719972
  0
LWPOLYLINE
  5
2C6
100
AcDbEntity
  8
0
100
AcDbPolyline
 62
250
  6
CONTINUOUS
 90
16
 70
0
 10
224.1834610163
 20
195.099559709
 10
224.181575251
 20
195.1210743811
 10
224.1761282606
 20
195.141511415
 10
224.1674455822
 20
195.1608708105
 10
224.1559056807
 20
195.179195468
 10
224.1418195096
 20
195.1964424871
 10
224.1253266004
 20
195.2124831671
 10
224.106795615
 20
195.2272573989
 10
224.0863761147
 20
195.2408252914
 10
224.0635902694
 20
195.2532384712
 10
224.0382526062
 20
195.2646883823
 10
224.0106481937
 20
195.2749835806
 10
223.980823089
 20
195.2836013607
 10
223.9488695867
 20
195.2903674874
 10
223.9149382756
 20
195.2954561959
 10
223.8791855026
 20
195.2988674863
  0
LINE
  5
2C7
100
AcDbEntity
  8
0
100
AcDbLine
 62
250
  6
CONTINUOUS
 10
223.6963016968
 20
191.9087843718
 11
223.687824284
 21
192.008360129
  0
LINE
  5
2C8
100
AcDbEntity
  8
0
100
AcDbLine
 62
7
  6
CONTINUOUS
 10
221.4834610163
 20
188.0888054011
 11
221.4834610163
 21
232.2284673822
  0
LINE
  5
2C9
100
AcDbEntity
  8
0
100
AcDbLine
 62
250
  6
CONTINUOUS
 10
221.7860670593
 20
231.5984814794
 11
221.7860670593
 21
188.7187913039
  0
LINE
  5
2CA
100
AcDbEntity
  8
0
100
AcDbLine
 62
7
  6
CONTINUOUS
 10
221.9834610163
 20
231.7864200036
 11
221.9834610163
 21
188.5308527797
  0
LINE
  5
2CB
100
AcDbEntity
  8
0
100
AcDbLine
 62
250
  6
CONTINUOUS
 10
223.3939282199
 20
223.4218276026
 11
223.3939282075
 21
219.89544518
  0
LINE
  5
2CC
100
AcDbEntity
  8
0
100
AcDbLine
 62
250
  6
CONTINUOUS
 10
223.3939282075
 20
200.4218276033
 11
223.3939282199
 21
196.8954451807
  0
LINE
  5
2CD
100
AcDbEntity
  8
0
100
AcDbLine
 62
7
  6
CONTINUOUS
 10
223.5834610163
 20
223.4118946097
 11
223.5834610163
 21
219.9053781736
  0
LINE
  5
2CE
100
AcDbEntity
  8
0
100
AcDbLine
 62
7
  6
CONTINUOUS
 10
223.5834610163
 20
200.4118946097
 11
223.5834610163
 21
196.9053781736
  0
LINE
  5
2CF
100
AcDbEntity
  8
0
100
AcDbLine
 62
250
  6
CONTINUOUS
 10
223.687824284
 20
195.3089126543
 11
223.687824284
 21
192.008360129
  0
LINE
  5
2D0
100
AcDbEntity
  8
0
100
AcDbLine
 62
7
  6
CONTINUOUS
 10
224.1834610163
 20
195.0996288623
 11
224.1834610163
 21
192.217643921
  0
LWPOLYLINE
  5
2D1
100
AcDbEntity
  8
0
100
AcDbPolyline
 62
250
  6
CONTINUOUS
 90
7
 70
0
 10
223.7035101255
 20
191.8091211894
 10
223.7035871175
 20
191.8108438284
 10
223.7033648254
 20
191.8159427584
 10
223.7028470491
 20
191.8243308197
 10
223.7020426371
 20
191.8358646287
 10
223.7009653417
 20
191.8503470298
 10
223.6963016968
 20
191.9087843718
  0
LWPOLYLINE
  5
2D2
100
AcDbEntity
  8
0
100
AcDbPolyline
 62
250
  6
CONTINUOUS
 90
13
 70
0
 10
223.8791795898
 20
195.2988678023
 10
223.8804246567
 20
195.3243267525
 10
223.880367298
 20
195.3493687813
 10
223.8790084538
 20
195.3735838004
 10
223.8763703772
 20
195.3965752656
 10
223.8724962701
 20
195.4179666688
 10
223.8674495762
 20
195.4374077043
 10
223.8613129409
 20
195.4545800074
 10
223.8541868586
 20
195.4692023672
 10
223.8461880268
 20
195.4810353303
 10
223.8374474349
 20
195.4898851232
 10
223.828108219
 20
195.4956068252
 10
223.8183233178
 20
195.4981067411
  0
LWPOLYLINE
  5
2D3
100
AcDbEntity
  8
0
100
AcDbPolyline
 62
250
  6
CONTINUOUS
 90
5
 70
0
 10
223.7020426358
 20
195.4814081547
 10
223.7028470484
 20
195.4929419637
 10
223.7033648251
 20
195.5013300249
 10
223.7035871174
 20
195.5064289549
 10
223.7035101255
 20
195.5081515939
  0
LINE
  5
2D4
100
AcDbEntity
  8
0
100
AcDbLine
 62
250
  6
CONTINUOUS
 10
223.6996335812
 20
195.4497423185
 11
223.7020426358
 21
195.4814081547
  0
LWPOLYLINE
  5
2D5
100
AcDbEntity
  8
0
100
AcDbPolyline
 62
250
  6
CONTINUOUS
 90
19
 70
0
 10
224.1834610163
 20
192.217711401
 10
224.1818544229
 20
192.197898262
 10
224.1772511945
 20
192.1791084294
 10
224.1699792707
 20
192.1613419032
 10
224.1603757921
 20
192.144559739
 10
224.1487578168
 20
192.1288008812
 10
224.1353974249
 20
192.1141821625
 10
224.1206170374
 20
192.1007757635
 10
224.1046576644
 20
192.0885095037
 10
224.0875783864
 20
192.0772836736
 10
224.0696851008
 20
192.067128951
 10
224.0510645612
 20
192.0580146582
 10
224.0312679996
 20
192.0497490525
 10
224.0104753494
 20
192.0422381965
 10
223.9886503427
 20
192.0355760277
 10
223.9647714897
 20
192.0298526148
 10
223.9384070196
 20
192.025097981
 10
223.9098770983
 20
192.0212821032
 10
223.8791795972
 20
192.0184049814
  0
LINE
  5
2D6
100
AcDbEntity
  8
0
100
AcDbLine
 62
250
  6
CONTINUOUS
 10
223.6943585282
 20
195.3851231229
 11
223.6996335812
 21
195.4497423185
  0
LINE
  5
2D7
100
AcDbEntity
  8
0
100
AcDbLine
 62
250
  6
CONTINUOUS
 10
223.687824284
 20
195.3089126543
 11
223.6943585282
 21
195.3851231229
  0
LWPOLYLINE
  5
2D8
100
AcDbEntity
  8
0
100
AcDbPolyline
 62
7
  6
CONTINUOUS
 90
10
 70
0
 43
0.3500000087
 10
211.8695111328
 20
243.4784716797
 10
211.9409470825
 20
243.3356168335
 10
211.9409470825
 20
243.2641808838
 10
211.7980922363
 20
243.1213260376
 10
211.7266562866
 20
243.1213260376
 10
211.6552373901
 20
243.1927449341
 10
211.6552373901
 20
243.2641808838
 10
211.7266562866
 20
243.40703573
 10
211.7980922363
 20
243.4784716797
 10
211.8695111328
 20
243.4784716797
  0
LINE
  5
2D9
100
AcDbEntity
  8
0
100
AcDbLine
 62
7
  6
CONTINUOUS
 10
221.9834610163
 20
219.8215257268
 11
223.5834610163
 21
219.9053781736
  0
LINE
  5
2DA
100
AcDbEntity
  8
0
100
AcDbLine
 62
7
  6
CONTINUOUS
 10
221.9834610163
 20
223.4957470565
 11
223.5834610163
 21
223.4118946097
  0
LWPOLYLINE
  5
2DB
100
AcDbEntity
  8
0
100
AcDbPolyline
 62
250
  6
CONTINUOUS
 90
19
 70
0
 10
221.7860728367
 20
232.068325687
 10
221.7948943127
 20
232.0623359007
 10
221.8023035614
 20
232.0516379569
 10
221.8083415845
 20
232.0367428058
 10
221.8131439685
 20
232.0181068112
 10
221.816740932
 20
231.9962896704
 10
221.8190893734
 20
231.9720139093
 10
221.8203785472
 20
231.9458800773
 10
221.8207788342
 20
231.9183224588
 10
221.8202593774
 20
231.8898087143
 10
221.8189875619
 20
231.8610456498
 10
221.817173178
 20
231.8320988164
 10
221.814724755
 20
231.8022784664
 10
221.8116517487
 20
231.7718987115
 10
221.8080735426
 20
231.7409989623
 10
221.8038198339
 20
231.7082488076
 10
221.7987352834
 20
231.673239199
 10
221.7928310952
 20
231.6365933361
 10
221.7860670593
 20
231.5984814794
  0
LINE
  5
2DC
100
AcDbEntity
  8
0
100
AcDbLine
 62
250
  6
CONTINUOUS
 10
221.7860670593
 20
188.7187913039
 11
221.4834610163
 21
188.6086517115
  0
LINE
  5
2DD
100
AcDbEntity
  8
0
100
AcDbLine
 62
7
  6
CONTINUOUS
 10
221.7860670593
 20
188.2489449935
 11
221.4834610163
 21
188.1388054011
  0
LWPOLYLINE
  5
2DE
100
AcDbEntity
  8
0
100
AcDbPolyline
 62
250
  6
CONTINUOUS
 90
22
 70
0
 10
220.1441239023
 20
231.6580468462
 10
220.0728091143
 20
231.6514846805
 10
220.0032945485
 20
231.6403986125
 10
219.9355802049
 20
231.6247886423
 10
219.8695617762
 20
231.6045556631
 10
219.8053435697
 20
231.5797987817
 10
219.7432385071
 20
231.5508153183
 10
219.6830595539
 20
231.5175157751
 10
219.6249937446
 20
231.4799896498
 10
219.5699151051
 20
231.4388027566
 10
219.5179737722
 20
231.3940725783
 10
219.4690196091
 20
231.3456816319
 10
219.4234762319
 20
231.2938432827
 10
219.3812101074
 20
231.2384140106
 10
219.3423547687
 20
231.1795373357
 10
219.3077344316
 20
231.1178571827
 10
219.2773753168
 20
231.0532048166
 10
219.2512512036
 20
230.9857489726
 10
219.2301076446
 20
230.9166397807
 10
219.2141931576
 20
230.8462606177
 10
219.2032592249
 20
230.7742281069
 10
219.1973058466
 20
230.7005422481
  0
LINE
  5
2DF
100
AcDbEntity
  8
0
100
AcDbLine
 62
250
  6
CONTINUOUS
 10
221.4834610163
 20
231.7282385301
 11
220.1441239023
 21
231.6580468462
  0
LINE
  5
2E0
100
AcDbEntity
  8
0
100
AcDbLine
 62
7
  6
CONTINUOUS
 10
221.4834610163
 20
232.2284673822
 11
220.1266821274
 21
232.1573616136
  0
LINE
  5
2E1
100
AcDbEntity
  8
0
100
AcDbLine
 62
250
  6
CONTINUOUS
 10
221.9834610163
 20
231.5984814794
 11
221.7860670593
 21
231.5984814794
  0
LWPOLYLINE
  5
2E2
100
AcDbEntity
  8
0
100
AcDbPolyline
 62
7
  6
CONTINUOUS
 90
8
 70
0
 43
0.3500000087
 10
209.083798999
 20
242.9784711914
 10
209.9409451294
 20
242.9784711914
 10
210.3695267212
 20
243.40703573
 10
210.3695267212
 20
244.2641818604
 10
209.9409451294
 20
244.6927463989
 10
209.083798999
 20
244.6927463989
 10
209.083798999
 20
245.9784741211
 10
210.3695267212
 20
245.9784741211
  0
LWPOLYLINE
  5
2E3
100
AcDbEntity
  8
0
100
AcDbPolyline
 62
250
  6
CONTINUOUS
 90
3
 70
0
 10
219.1973058466
 20
230.7005422481
 10
218.7091298796
 20
230.7209574872
 10
218.7064550438
 20
230.7211047165
  0
LINE
  5
2E4
100
AcDbEntity
  8
0
100
AcDbLine
 62
250
  6
CONTINUOUS
 10
221.4834610163
 20
231.7086210718
 11
221.7860670593
 21
231.5984814794
  0
LINE
  5
2E5
100
AcDbEntity
  8
0
100
AcDbLine
 62
7
  6
CONTINUOUS
 10
221.4834610163
 20
232.1784673822
 11
221.7860670593
 21
232.0683277898
  0
ARC
  5
2E6
100
AcDbEntity
  8
0
100
AcDbCircle
 62
7
  6
CONTINUOUS
 10
718.2834610163
 20
210.1586363916
 40
500.0
100
AcDbArc
 50
177.6430500092
 51
182.3569499908
  0
ARC
  5
2E7
100
AcDbEntity
  8
0
100
AcDbCircle
 62
7
  6
CONTINUOUS
 10
220.2051860617
 20
230.6594173115
 40
1.5
100
AcDbArc
 50
93.0
 51
177.6430500092
  0
ARC
  5
2E8
100
AcDbEntity
  8
0
100
AcDbCircle
 62
7
  6
CONTINUOUS
 10
220.2051860617
 20
189.6578554718
 40
1.5
100
AcDbArc
 50
182.3569499908
 51
267.0
  0
ARC
  5
2E9
100
AcDbEntity
  8
0
100
AcDbCircle
 62
7
  6
CONTINUOUS
 10
223.7834610163
 20
192.217643921
 40
0.4
100
AcDbArc
 50
275.0
 51
360.0
  0
ARC
  5
2EA
100
AcDbEntity
  8
0
100
AcDbCircle
 62
7
  6
CONTINUOUS
 10
223.7834610163
 20
195.0996288623
 40
0.4
100
AcDbArc
 50
0.0
 51
85.0
  0
ARC
  5
2EB
100
AcDbEntity
  8
0
100
AcDbCircle
 62
7
  6
CONTINUOUS
 10
221.6834610163
 20
188.5308527797
 40
0.3
100
AcDbArc
 50
290.0
 51
360.0
  0
ARC
  5
2EC
100
AcDbEntity
  8
0
100
AcDbCircle
 62
7
  6
CONTINUOUS
 10
221.6834610163
 20
231.7864200036
 40
0.3
100
AcDbArc
 50
0.0
 51
70.0
  0
ELLIPSE
  5
2ED
100
AcDbEntity
  8
0
100
AcDbEllipse
 62
7
  6
CONTINUOUS
 10
284.6441085455
 20
188.5894915741
 30
0.0
 11
0.1582391023
 21
-0.4751033573
 31
0.0
 40
0.9984778551
 41
-0.3210503505
 42
1.2488325878
  0
ELLIPSE
  5
2EE
100
AcDbEntity
  8
0
100
AcDbEllipse
 62
7
  6
CONTINUOUS
 10
284.6441085455
 20
231.7277812092
 30
0.0
 11
-0.1582391023
 21
-0.4751033573
 31
0.0
 40
0.9984778551
 41
1.8927600658
 42
3.4626430041
  0
ELLIPSE
  5
2EF
100
AcDbEntity
  8
0
100
AcDbEllipse
 62
7
  6
CONTINUOUS
 10
241.0991048215
 20
231.7277812092
 30
0.0
 11
-0.1582391023
 21
0.4751033573
 31
0.0
 40
0.9984778551
 41
-0.3210503505
 42
1.2488325878
  0
ELLIPSE
  5
2F0
100
AcDbEntity
  8
0
100
AcDbEllipse
 62
7
  6
CONTINUOUS
 10
241.0991048215
 20
188.5894915741
 30
0.0
 11
0.1582391023
 21
0.4751033573
 31
0.0
 40
0.9984778551
 41
1.8927600658
 42
3.4626430041
  0
ENDSEC
  0
SECTION
  2
OBJECTS
  0
DICTIONARY
  5
C
100
AcDbDictionary
280
0
281
1
  3
ACAD_GROUP
350
D
  3
ACAD_MLINESTYLE
350
17
  3
ACAD_LAYOUT
350
1A
  3
ACAD_PLOTSETTINGS
350
19
  3
ACAD_PLOTSTYLENAME
350
E
  0
DICTIONARY
  5
D
102
{ACAD_REACTORS
330
C
102
}
100
AcDbDictionary
280
0
281
1
  0
ACDBDICTIONARYWDFLT
  5
E
102
{ACAD_REACTORS
330
C
102
}
100
AcDbDictionary
281
1
  3
Normal
350
F
100
AcDbDictionaryWithDefault
340
F
  0
DICTIONARY
  5
17
102
{ACAD_REACTORS
330
C
102
}
100
AcDbDictionary
280
0
281
1
  3
Standard
350
18
  0
DICTIONARY
  5
19
102
{ACAD_REACTORS
330
C
102
}
100
AcDbDictionary
281
1
  0
DICTIONARY
  5
1A
102
{ACAD_REACTORS
330
C
102
}
100
AcDbDictionary
281
1
  3
Model
350
2F1
  3
Layout1
350
2F2
  0
ACDBPLACEHOLDER
  5
F
102
{ACAD_REACTORS
330
E
102
}
  0
MLINESTYLE
  5
18
102
{ACAD_REACTORS
330
17
102
}
100
AcDbMlineStyle
  2
STANDARD
 70
0
  3

 62
256
 51
90.0
 52
90.0
 71
2
 49
0.5
 62
256
  6
BYLAYER
 49
-0.5
 62
256
  6
BYLAYER
  0
LAYOUT
  5
2F1
102
{ACAD_REACTORS
330
1A
102
}
100
AcDbPlotSettings
  1

  2
none_device
  4
ANSI_C_(22.00_x_17.00_Inches)
  6

 40
0.0
 41
0.0
 42
0.0
 43
0.0
 44
558.8
 45
431.8
 46
0.0
 47
0.0
 48
0.0
 49
0.0
140
0.0
141
0.0
142
1.0
143
1.0
 70
1024
 72
1
 73
0
 74
0
  7

 75
0
147
1.0
148
0.0
149
0.0
100
AcDbLayout
  1
Model
 70
0
 71
0
 10
0.0
 20
0.0
 11
558.8
 21
431.8
 12
0.0
 22
0.0
 32
0.0
 14
0.0
 24
0.0
 34
0.0
 15
0.0
 25
0.0
 35
0.0
146
0.0
 13
0.0
 23
0.0
 33
0.0
 16
1.0
 26
0.0
 36
0.0
 17
0.0
 27
1.0
 37
0.0
 76
0
330
214
345
0
346
0
  0
LAYOUT
  5
2F2
102
{ACAD_REACTORS
330
1A
102
}
100
AcDbPlotSettings
  1

  2
none_device
  4
ANSI_C_(22.00_x_17.00_Inches)
  6

 40
0.0
 41
0.0
 42
0.0
 43
0.0
 44
558.8
 45
431.8
 46
0.0
 47
0.0
 48
0.0
 49
0.0
140
0.0
141
0.0
142
1.0
143
1.0
 70
0
 72
1
 73
0
 74
0
  7

 75
0
147
1.0
148
0.0
149
0.0
100
AcDbLayout
  1
Layout1
 70
0
 71
1
 10
0.0
 20
0.0
 11
558.8
 21
431.8
 12
0.0
 22
0.0
 32
0.0
 14
0.0
 24
0.0
 34
0.0
 15
0.0
 25
0.0
 35
0.0
146
0.0
 13
0.0
 23
0.0
 33
0.0
 16
1.0
 26
0.0
 36
0.0
 17
0.0
 27
1.0
 37
0.0
 76
0
330
215
345
0
346
0
  0
ENDSEC
  0
EOF
