  0
SECTION
  2
HEADER
  9
$ACADVER
  1
AC1024
  9
$DWGCODEPAGE
  3
ANSI_1252
  9
$EXTMAX
 10
558.8
 20
431.8
 30
0.0
  9
$EXTMIN
 10
0.0
 20
0.0
 30
0.0
  9
$LIMMIN
 10
0.0
 20
0.0
  9
$LIMMAX
 10
558.8
 20
431.8
  9
$VIEWCTR
 10
279.4
 20
215.9
  9
$VIEWSIZE
 40
431.8
  9
$CLAYER
  8
0
  9
$LTSCALE
 40
30.734
  9
$CELTYPE
  6
BYLAYER
  9
$DIMSCALE
 40
1.0
  9
$DIMASZ
 40
3.0
  9
$DIMEXO
 40
0.5
  9
$DIMDLI
 40
21.2344
  9
$DIMEXE
 40
1.5
  9
$DIMCEN
 40
5.0292
  9
$DIMLFAC
 40
1.0
  9
$DIMBLK
  1
_FILLED
  9
$DIMALT
 70
0
  9
$DIMALTF
 40
0.0393700787
  9
$DIMTXT
 40
3.0
  9
$DIMTOL
 70
1
  9
$DIMLIM
 70
0
  9
$DIMTFAC
 40
1.0
  9
$DIMTP
 40
0.01
  9
$DIMTM
 40
0.01
  9
$DIMGAP
 40
0.625
  9
$DIMDSEP
 70
44
  9
$AUNITS
 70
0
  9
$PDMODE
 70
3
  9
$PDSIZE
 40
3.0
  9
$HANDSEED
  5
328
  9
$TILEMODE
 70
1
  9
$MEASUREMENT
 70
1
  9
$INSUNITS
 70
4
  0
ENDSEC
  0
SECTION
  2
CLASSES
  0
CLASS
  1
ACDBDICTIONARYWDFLT
  2
AcDbDictionaryWithDefault
  3
AutoCAD 2000
 90
0
 91
1
280
0
281
0
  0
CLASS
  1
ACDBPLACEHOLDER
  2
AcDbPlaceHolder
  3
AutoCAD 2000
 90
0
 91
1
280
0
281
0
  0
CLASS
  1
LAYOUT
  2
AcDbLayout
  3
AutoCAD 2000
 90
0
 91
0
280
0
281
0
  0
ENDSEC
  0
SECTION
  2
TABLES
  0
TABLE
  2
VPORT
  5
8
100
AcDbSymbolTable
 70
2
  0
VPORT
  5
1F4
100
AcDbSymbolTableRecord
100
AcDbViewportTableRecord
  2
*ACTIVE
 70
0
 10
0.0
 20
0.0
 11
1.0
 21
1.0
 12
279.4
 22
215.9
 13
0.0
 23
0.0
 14
1.0
 24
1.0
 15
0.0
 25
0.0
 16
0.0
 26
0.0
 36
1.0
 17
0.0
 27
0.0
 37
0.0
 40
431.8
 41
1.2941176471
 42
50.0
 43
0.0
 44
0.0
 50
0.0
 51
0.0
 71
0
 72
100
 73
1
 74
1
 75
0
 76
0
 77
0
 78
0
  0
ENDTAB
  0
TABLE
  2
LTYPE
  5
5
100
AcDbSymbolTable
 70
6
  0
LTYPE
  5
14
100
AcDbSymbolTableRecord
100
AcDbLinetypeTableRecord
  2
BYBLOCK
 70
0
  3

 72
65
 73
0
 40
0.0
  0
LTYPE
  5
15
100
AcDbSymbolTableRecord
100
AcDbLinetypeTableRecord
  2
BYLAYER
 70
0
  3

 72
65
 73
0
 40
0.0
  0
LTYPE
  5
16
100
AcDbSymbolTableRecord
100
AcDbLinetypeTableRecord
  2
CONTINUOUS
 70
64
  3
Solid line
 72
65
 73
0
 40
0.0
  0
LTYPE
  5
1F5
100
AcDbSymbolTableRecord
100
AcDbLinetypeTableRecord
  2
CENTER
 70
64
  3
____ _ ____ _ ____ _ ____ _ ____ _ ____ _ ____
 72
65
 73
4
 40
0.6
 49
0.375
 74
0
 49
-0.075
 74
0
 49
0.075
 74
0
 49
-0.075
 74
0
  0
LTYPE
  5
1F6
100
AcDbSymbolTableRecord
100
AcDbLinetypeTableRecord
  2
HIDDEN
 70
64
  3
- - - - - - - - - - - - - - - - - - - -
 72
65
 73
2
 40
0.2
 49
0.1
 74
0
 49
-0.1
 74
0
  0
LTYPE
  5
1F7
100
AcDbSymbolTableRecord
100
AcDbLinetypeTableRecord
  2
PHANTOM
 70
64
  3
_____ _ _ _____ _ _ _____ _ _ _____
 72
65
 73
6
 40
0.8
 49
0.45
 74
0
 49
-0.05
 74
0
 49
0.1
 74
0
 49
-0.05
 74
0
 49
0.1
 74
0
 49
-0.05
 74
0
  0
LTYPE
  5
1F8
100
AcDbSymbolTableRecord
100
AcDbLinetypeTableRecord
  2
DOT
 70
64
  3
. . . . . . . . . . . . . . . . . . . .
 72
65
 73
2
 40
0.2
 49
0.1
 74
0
 49
-0.1
 74
0
  0
LTYPE
  5
1F9
100
AcDbSymbolTableRecord
100
AcDbLinetypeTableRecord
  2
DASHED
 70
64
  3
- - - - - - - - - - - - - - - - - - - -
 72
65
 73
2
 40
0.2
 49
0.1
 74
0
 49
-0.1
 74
0
  0
ENDTAB
  0
TABLE
  2
LAYER
  5
2
100
AcDbSymbolTable
 70
36
  0
LAYER
  5
10
100
AcDbSymbolTableRecord
100
AcDbLayerTableRecord
  2
0
 70
0
 62
7
  6
CONTINUOUS
370
-3
390
F
  0
LAYER
  5
1FA
100
AcDbSymbolTableRecord
100
AcDbLayerTableRecord
  2
DEFAULT_1
 70
0
 62
7
  6
CENTER
370
-3
390
F
  0
LAYER
  5
1FB
100
AcDbSymbolTableRecord
100
AcDbLayerTableRecord
  2
DEFAULT_2
 70
0
 62
7
  6
HIDDEN
370
-3
390
F
  0
LAYER
  5
1FC
100
AcDbSymbolTableRecord
100
AcDbLayerTableRecord
  2
DEFAULT_3
 70
0
 62
7
  6
PHANTOM
370
-3
390
F
  0
LAYER
  5
1FD
100
AcDbSymbolTableRecord
100
AcDbLayerTableRecord
  2
ASSI
 70
0
 62
7
  6
CONTINUOUS
370
-3
390
F
  0
LAYER
  5
1FE
100
AcDbSymbolTableRecord
100
AcDbLayerTableRecord
  2
COORDINATE
 70
0
 62
7
  6
CONTINUOUS
370
-3
390
F
  0
LAYER
  5
1FF
100
AcDbSymbolTableRecord
100
AcDbLayerTableRecord
  2
COPY_PUBLISH
 70
0
 62
7
  6
CONTINUOUS
370
-3
390
F
  0
LAYER
  5
200
100
AcDbSymbolTableRecord
100
AcDbLayerTableRecord
  2
COSMETIC
 70
0
 62
7
  6
CONTINUOUS
370
-3
390
F
  0
LAYER
  5
201
100
AcDbSymbolTableRecord
100
AcDbLayerTableRecord
  2
COSMETICI
 70
0
 62
7
  6
CONTINUOUS
370
-3
390
F
  0
LAYER
  5
202
100
AcDbSymbolTableRecord
100
AcDbLayerTableRecord
  2
CURVE
 70
0
 62
7
  6
CONTINUOUS
370
-3
390
F
  0
LAYER
  5
203
100
AcDbSymbolTableRecord
100
AcDbLayerTableRecord
  2
DRAFT
 70
0
 62
7
  6
CONTINUOUS
370
-3
390
F
  0
LAYER
  5
204
100
AcDbSymbolTableRecord
100
AcDbLayerTableRecord
  2
IMPORT_IGES
 70
0
 62
7
  6
CONTINUOUS
370
-3
390
F
  0
LAYER
  5
205
100
AcDbSymbolTableRecord
100
AcDbLayerTableRecord
  2
INTFCLR_11
 70
0
 62
7
  6
CONTINUOUS
370
-3
390
F
  0
LAYER
  5
206
100
AcDbSymbolTableRecord
100
AcDbLayerTableRecord
  2
INTF_1
 70
0
 62
7
  6
CONTINUOUS
370
-3
390
F
  0
LAYER
  5
207
100
AcDbSymbolTableRecord
100
AcDbLayerTableRecord
  2
INTF_3
 70
0
 62
7
  6
CONTINUOUS
370
-3
390
F
  0
LAYER
  5
208
100
AcDbSymbolTableRecord
100
AcDbLayerTableRecord
  2
NOTE
 70
0
 62
7
  6
CONTINUOUS
370
-3
390
F
  0
LAYER
  5
209
100
AcDbSymbolTableRecord
100
AcDbLayerTableRecord
  2
PIANI
 70
0
 62
7
  6
CONTINUOUS
370
-3
390
F
  0
LAYER
  5
20A
100
AcDbSymbolTableRecord
100
AcDbLayerTableRecord
  2
PUNTI
 70
0
 62
7
  6
CONTINUOUS
370
-3
390
F
  0
LAYER
  5
20B
100
AcDbSymbolTableRecord
100
AcDbLayerTableRecord
  2
RACCORDO
 70
0
 62
7
  6
CONTINUOUS
370
-3
390
F
  0
LAYER
  5
20C
100
AcDbSymbolTableRecord
100
AcDbLayerTableRecord
  2
SIMBOLI
 70
0
 62
7
  6
CONTINUOUS
370
-3
390
F
  0
LAYER
  5
20D
100
AcDbSymbolTableRecord
100
AcDbLayerTableRecord
  2
SMUSSO
 70
0
 62
7
  6
CONTINUOUS
370
-3
390
F
  0
LAYER
  5
20E
100
AcDbSymbolTableRecord
100
AcDbLayerTableRecord
  2
SNAPLINE
 70
0
 62
7
  6
CONTINUOUS
370
-3
390
F
  0
LAYER
  5
20F
100
AcDbSymbolTableRecord
100
AcDbLayerTableRecord
  2
SUPERFICI
 70
0
 62
7
  6
CONTINUOUS
370
-3
390
F
  0
LAYER
  5
210
100
AcDbSymbolTableRecord
100
AcDbLayerTableRecord
  2
TRASH
 70
0
 62
7
  6
CONTINUOUS
370
-3
390
F
  0
LAYER
  5
211
100
AcDbSymbolTableRecord
100
AcDbLayerTableRecord
  2
___SHELL
 70
0
 62
7
  6
CONTINUOUS
370
-3
390
F
  0
ENDTAB
  0
TABLE
  2
STYLE
  5
3
100
AcDbSymbolTable
 70
1
  0
STYLE
  5
11
100
AcDbSymbolTableRecord
100
AcDbTextStyleTableRecord
  2
STANDARD
 70
0
 40
0.0
 41
0.8
 50
0.0
 71
0
 42
0.2
  3
txt
  4

  0
STYLE
  5
212
100
AcDbSymbolTableRecord
100
AcDbTextStyleTableRecord
  2
TEXTSTYLE_1
 70
0
 40
0.0
 41
0.8
 50
0.0
 71
0
 42
0.2
  3
gdt
  4

  0
ENDTAB
  0
TABLE
  2
VIEW
  5
6
100
AcDbSymbolTable
 70
0
  0
ENDTAB
  0
TABLE
  2
UCS
  5
7
100
AcDbSymbolTable
 70
0
  0
ENDTAB
  0
TABLE
  2
APPID
  5
9
100
AcDbSymbolTable
 70
1
  0
APPID
  5
213
100
AcDbSymbolTableRecord
100
AcDbRegAppTableRecord
  2
ACAD
 70
0
  0
ENDTAB
  0
TABLE
  2
BLOCK_RECORD
  5
1
100
AcDbSymbolTable
 70
0
  0
BLOCK_RECORD
  5
214
100
AcDbSymbolTableRecord
100
AcDbBlockTableRecord
  2
*Model_Space
  0
BLOCK_RECORD
  5
215
100
AcDbSymbolTableRecord
100
AcDbBlockTableRecord
  2
*Paper_Space
  0
BLOCK_RECORD
  5
216
100
AcDbSymbolTableRecord
100
AcDbBlockTableRecord
  2
_FILLED
  0
BLOCK_RECORD
  5
217
100
AcDbSymbolTableRecord
100
AcDbBlockTableRecord
  2
*D0
  0
BLOCK_RECORD
  5
218
100
AcDbSymbolTableRecord
100
AcDbBlockTableRecord
  2
*D1
  0
BLOCK_RECORD
  5
219
100
AcDbSymbolTableRecord
100
AcDbBlockTableRecord
  2
*D2
  0
ENDTAB
  0
TABLE
  2
DIMSTYLE
  5
A
100
AcDbSymbolTable
 70
1
100
AcDbDimStyleTable
 71
0
  0
DIMSTYLE
105
21A
100
AcDbSymbolTableRecord
100
AcDbDimStyleTableRecord
  2
STANDARD
 70
0
  3

  4

 40
1.0
 41
3.0
 42
0.5
 43
0.38
 44
1.5
 45
0.0
 46
0.0
 47
0.01
 48
0.01
140
3.0
141
0.09
142
0.0
143
25.4
144
1.0
145
0.0
146
1.0
147
0.625
 71
1
 72
0
 73
0
 74
0
 75
0
 76
0
 77
1
 78
8
 79
2
170
0
171
1
172
0
173
0
174
0
175
0
176
0
177
0
178
0
270
2
179
2
271
2
272
2
273
2
274
2
275
0
280
0
281
0
282
0
283
1
284
8
285
0
286
0
287
3
288
0
340
11
278
44
341
216
342
216
343
216
344
216
  0
DIMSTYLE
105
21B
100
AcDbSymbolTableRecord
100
AcDbDimStyleTableRecord
  2
DIMSTYLE_1
 70
0
  3

  4

 40
1.0
 41
3.0
 42
0.5
 43
0.38
 44
1.5
 45
0.0
 46
0.0
 47
0.0
 48
0.0
140
3.0
141
0.09
142
0.0
143
25.4
144
1.0
145
0.0
146
1.0
147
0.75
 71
0
 72
0
 73
0
 74
0
 75
0
 76
0
 77
1
 78
8
 79
2
170
0
171
1
172
0
173
0
174
0
175
0
176
0
177
0
178
0
270
2
179
2
271
2
272
2
273
2
274
2
275
0
280
0
281
0
282
0
283
1
284
8
285
0
286
0
287
3
288
0
340
11
278
44
341
216
342
216
343
216
344
216
  0
DIMSTYLE
105
21C
100
AcDbSymbolTableRecord
100
AcDbDimStyleTableRecord
  2
DIMSTYLE_2
 70
0
  3

  4

 40
1.0
 41
3.0
 42
0.5
 43
0.38
 44
1.5
 45
0.0
 46
0.0
 47
0.0
 48
0.0
140
3.0
141
0.09
142
0.0
143
25.4
144
1.0
145
0.0
146
1.0
147
0.75
 71
0
 72
0
 73
0
 74
0
 75
0
 76
0
 77
1
 78
8
 79
2
170
0
171
1
172
0
173
0
174
0
175
0
176
0
177
0
178
0
270
2
179
2
271
1
272
1
273
2
274
2
275
0
280
0
281
0
282
0
283
1
284
8
285
0
286
0
287
3
288
0
340
11
278
44
341
216
342
216
343
216
344
216
  0
ENDTAB
  0
ENDSEC
  0
SECTION
  2
BLOCKS
  0
BLOCK
  5
20
100
AcDbEntity
  8
0
100
AcDbBlockBegin
  2
*Model_Space
 70
0
 10
0.0
 20
0.0
 30
0.0
  3
*Model_Space
  1

  0
ENDBLK
  5
21
100
AcDbEntity
  8
0
100
AcDbBlockEnd
  0
BLOCK
  5
1C
100
AcDbEntity
  8
0
100
AcDbBlockBegin
  2
*Paper_Space
 70
0
 10
0.0
 20
0.0
 30
0.0
  3
*Paper_Space
  1

  0
ENDBLK
  5
1D
100
AcDbEntity
  8
0
100
AcDbBlockEnd
  0
BLOCK
  5
21D
100
AcDbEntity
  8
0
100
AcDbBlockBegin
  2
_FILLED
 70
64
 10
0.0
 20
0.0
  3
_FILLED
  1

  0
SOLID
  5
21E
100
AcDbEntity
  8
0
  6
BYBLOCK
 62
0
100
AcDbTrace
 10
0.0
 20
0.0
 11
-1.0
 21
0.3166666667
 12
-1.0
 22
-0.3166666667
 13
-1.0
 23
-0.3166666667
  0
ENDBLK
  5
21F
100
AcDbEntity
  8
0
  6
BYBLOCK
 62
0
100
AcDbBlockEnd
  0
BLOCK
  5
220
100
AcDbEntity
  8
0
100
AcDbBlockBegin
 62
7
  6
CONTINUOUS
  2
*D0
 70
65
 10
0.0
 20
0.0
  3
*D0
  1

  0
MTEXT
  5
221
100
AcDbEntity
  8
0
100
AcDbMText
 62
7
  6
CONTINUOUS
  7
STANDARD
 71
3
 72
1
 10
233.6375199607
 20
225.7990978312
 30
0.0
 11
1.0
 21
0.0
 31
0.0
 73
2
 44
0.9
  1
{\ftxt;\W0.0001;\H0.0001;\~}{\ftxt;\W2.0714285714;\H3.0; }{\ftxt;\W0.0001;\H0.0001;\~}
 40
3.0
 41
9.3214285714
  0
LINE
  5
222
100
AcDbEntity
  8
0
100
AcDbLine
 62
7
  6
CONTINUOUS
 10
245.8436211396
 20
175.4201901589
 11
245.8436211396
 21
223.5490978312
  0
LINE
  5
223
100
AcDbEntity
  8
0
100
AcDbLine
 62
7
  6
CONTINUOUS
 10
239.9436211396
 20
190.4792668407
 11
239.9436211396
 21
223.5490978312
  0
LINE
  5
224
100
AcDbEntity
  8
0
100
AcDbLine
 62
7
  6
CONTINUOUS
 10
245.8436211396
 20
222.0490978312
 11
249.8436211396
 21
222.0490978312
  0
LINE
  5
225
100
AcDbEntity
  8
0
100
AcDbLine
 62
7
  6
CONTINUOUS
 10
249.8436211396
 20
222.0490978312
 11
242.8936211396
 21
222.0490978312
  0
LINE
  5
226
100
AcDbEntity
  8
0
100
AcDbLine
 62
7
  6
CONTINUOUS
 10
239.9436211396
 20
222.0490978312
 11
227.4232342464
 21
222.0490978312
  0
LINE
  5
227
100
AcDbEntity
  8
0
100
AcDbLine
 62
7
  6
CONTINUOUS
 10
227.4232342464
 20
222.0490978312
 11
242.8936211396
 21
222.0490978312
  0
INSERT
  5
228
100
AcDbEntity
  8
0
100
AcDbBlockReference
 62
7
  6
CONTINUOUS
  2
_FILLED
 10
245.8436211396
 20
222.0490978312
 41
3.0
 42
3.0
 43
3.0
 50
180.0
  0
INSERT
  5
229
100
AcDbEntity
  8
0
100
AcDbBlockReference
 62
7
  6
CONTINUOUS
  2
_FILLED
 10
239.9436211396
 20
222.0490978312
 41
3.0
 42
3.0
 43
3.0
  0
ENDBLK
  5
22A
100
AcDbEntity
  8
0
  6
BYBLOCK
 62
0
100
AcDbBlockEnd
  0
BLOCK
  5
22B
100
AcDbEntity
  8
0
100
AcDbBlockBegin
 62
7
  6
CONTINUOUS
  2
*D1
 70
65
 10
0.0
 20
0.0
  3
*D1
  1

  0
MTEXT
  5
22C
100
AcDbEntity
  8
0
100
AcDbMText
 62
7
  6
CONTINUOUS
  7
STANDARD
 71
2
 72
1
 10
285.4050026762
 20
225.7990978312
 30
0.0
 11
1.0
 21
0.0
 31
0.0
 73
2
 44
0.9
  1
{\ftxt;\W0.0001;\H0.0001;\~}{\ftxt;\W2.8571428571;\H3.0; }{\ftxt;\W0.0001;\H0.0001;\~}
 40
3.0
 41
12.8571428571
  0
LINE
  5
22D
100
AcDbEntity
  8
0
100
AcDbLine
 62
7
  6
CONTINUOUS
 10
263.1324246502
 20
212.0488689792
 11
263.1324246502
 21
223.5490978312
  0
LINE
  5
22E
100
AcDbEntity
  8
0
100
AcDbLine
 62
7
  6
CONTINUOUS
 10
307.6775807023
 20
212.0488689792
 11
307.6775807023
 21
223.5490978312
  0
LINE
  5
22F
100
AcDbEntity
  8
0
100
AcDbLine
 62
7
  6
CONTINUOUS
 10
263.1324246502
 20
222.0490978312
 11
285.4050026762
 21
222.0490978312
  0
LINE
  5
230
100
AcDbEntity
  8
0
100
AcDbLine
 62
7
  6
CONTINUOUS
 10
307.6775807023
 20
222.0490978312
 11
285.4050026762
 21
222.0490978312
  0
INSERT
  5
231
100
AcDbEntity
  8
0
100
AcDbBlockReference
 62
7
  6
CONTINUOUS
  2
_FILLED
 10
263.1324246502
 20
222.0490978312
 41
3.0
 42
3.0
 43
3.0
 50
180.0
  0
INSERT
  5
232
100
AcDbEntity
  8
0
100
AcDbBlockReference
 62
7
  6
CONTINUOUS
  2
_FILLED
 10
307.6775807023
 20
222.0490978312
 41
3.0
 42
3.0
 43
3.0
  0
ENDBLK
  5
233
100
AcDbEntity
  8
0
  6
BYBLOCK
 62
0
100
AcDbBlockEnd
  0
BLOCK
  5
234
100
AcDbEntity
  8
0
100
AcDbBlockBegin
 62
7
  6
CONTINUOUS
  2
*D2
 70
65
 10
0.0
 20
0.0
  3
*D2
  1

  0
MTEXT
  5
235
100
AcDbEntity
  8
0
100
AcDbMText
 62
7
  6
CONTINUOUS
  7
STANDARD
 71
2
 72
1
 10
313.9275807023
 20
189.9792668407
 30
0.0
 11
0.0
 21
1.0
 31
0.0
 73
2
 44
0.9
  1
{\ftxt;\W0.0001;\H0.0001;\~}{\ftxt;\W2.7142857143;\H3.0; }{\ftxt;\W0.0001;\H0.0001;\~}
 40
3.0
 41
12.2142857143
  0
LINE
  5
236
100
AcDbEntity
  8
0
100
AcDbLine
 62
7
  6
CONTINUOUS
 10
307.677961302
 20
212.0490978312
 11
319.1775807023
 21
212.0490978312
  0
LINE
  5
237
100
AcDbEntity
  8
0
100
AcDbLine
 62
7
  6
CONTINUOUS
 10
307.677961302
 20
167.9094358502
 11
319.1775807023
 21
167.9094358502
  0
LINE
  5
238
100
AcDbEntity
  8
0
100
AcDbLine
 62
7
  6
CONTINUOUS
 10
317.6775807023
 20
212.0490978312
 11
317.6775807023
 21
189.9792668407
  0
LINE
  5
239
100
AcDbEntity
  8
0
100
AcDbLine
 62
7
  6
CONTINUOUS
 10
317.6775807023
 20
167.9094358502
 11
317.6775807023
 21
189.9792668407
  0
INSERT
  5
23A
100
AcDbEntity
  8
0
100
AcDbBlockReference
 62
7
  6
CONTINUOUS
  2
_FILLED
 10
317.6775807023
 20
212.0490978312
 41
3.0
 42
3.0
 43
3.0
 50
90.0
  0
INSERT
  5
23B
100
AcDbEntity
  8
0
100
AcDbBlockReference
 62
7
  6
CONTINUOUS
  2
_FILLED
 10
317.6775807023
 20
167.9094358502
 41
3.0
 42
3.0
 43
3.0
 50
270.0
  0
ENDBLK
  5
23C
100
AcDbEntity
  8
0
  6
BYBLOCK
 62
0
100
AcDbBlockEnd
  0
ENDSEC
  0
SECTION
  2
ENTITIES
  0
DIMENSION
  5
23D
100
AcDbEntity
  8
0
100
AcDbDimension
 62
7
  6
CONTINUOUS
  2
*D0
 10
239.9436211396
 20
222.0490978312
 11
230.1018021301
 21
222.0490978312
 70
160
 71
3
 72
2
 41
0.9
 42
5.9
  1
{\ftxt;\W0.0001;\H0.0001;\~}{\ftxt;\W2.0714285714;\H3.0; }{\ftxt;\W0.0001;\H0.0001;\~}
  3
DIMSTYLE_1
100
AcDbAlignedDimension
 13
245.8436211396
 23
174.9201901589
 14
239.9436211396
 24
189.9792668407
 50
180.0
100
AcDbRotatedDimension
  0
DIMENSION
  5
23E
100
AcDbEntity
  8
0
100
AcDbDimension
 62
7
  6
CONTINUOUS
  2
*D1
 10
307.6775807023
 20
222.0490978312
 11
284.9764293884
 21
222.0490978312
 70
160
 71
2
 72
2
 41
0.9
 42
44.545156052
  1
{\ftxt;\W0.0001;\H0.0001;\~}{\ftxt;\W2.8571428571;\H3.0; }{\ftxt;\W0.0001;\H0.0001;\~}
  3
DIMSTYLE_2
100
AcDbAlignedDimension
 13
263.1324246502
 23
211.5488689792
 14
307.6775807023
 24
211.5488689792
100
AcDbRotatedDimension
  0
DIMENSION
  5
23F
100
AcDbEntity
  8
0
100
AcDbDimension
 62
7
  6
CONTINUOUS
  2
*D2
 10
317.6775807023
 20
167.9094358502
 11
317.6775807023
 21
189.5507104601
 70
160
 71
2
 72
2
 41
0.9
 42
44.139661981
  1
{\ftxt;\W0.0001;\H0.0001;\~}{\ftxt;\W2.7142857143;\H3.0; }{\ftxt;\W0.0001;\H0.0001;\~}
  3
DIMSTYLE_2
100
AcDbAlignedDimension
 13
307.177961302
 23
212.0490978312
 14
307.177961302
 24
167.9094358502
 50
270.0
100
AcDbRotatedDimension
  0
LWPOLYLINE
  5
240
100
AcDbEntity
  8
0
100
AcDbPolyline
 62
250
  6
CONTINUOUS
 90
14
 70
0
 10
263.1723296371
 20
210.5211726885
 10
263.1759090223
 20
210.5232985628
 10
263.18480633
 20
210.5254016661
 10
263.1989262814
 20
210.5274594647
 10
263.2181176411
 20
210.5294499103
 10
263.2421748314
 20
210.5313516758
 10
263.2708401291
 20
210.5331443847
 10
263.3038064416
 20
210.5348088288
 10
263.3407205836
 20
210.5363271726
 10
263.3811870441
 20
210.5376831458
 10
263.4247722666
 20
210.5388622184
 10
263.471009267
 20
210.5398517559
 10
263.5194026082
 20
210.5406411552
 10
263.5694337638
 20
210.5412219575
  0
LWPOLYLINE
  5
241
100
AcDbEntity
  8
0
100
AcDbPolyline
 62
250
  6
CONTINUOUS
 90
15
 70
0
 10
263.1723296371
 20
169.4373609842
 10
263.1759091402
 20
169.4352350736
 10
263.1848067299
 20
169.433131941
 10
263.1989270729
 20
169.4310741205
 10
263.2181188768
 20
169.4290836607
 10
263.2421765107
 20
169.4271818884
 10
263.2708422088
 20
169.4253891801
 10
263.3038088323
 20
169.4237247438
 10
263.3407231599
 20
169.4222064132
 10
263.3811896727
 20
169.4208504564
 10
263.4247747918
 20
169.4196714017
 10
263.4710115239
 20
169.4186818824
 10
263.5194044652
 20
169.4178925004
 10
263.569435109
 20
169.4173117137
 10
263.6722534847
 20
169.4167985159
  0
LWPOLYLINE
  5
242
100
AcDbEntity
  8
0
100
AcDbPolyline
 62
250
  6
CONTINUOUS
 90
16
 70
0
 10
263.1558028665
 20
168.4798563861
 10
263.1585859186
 20
168.4276949824
 10
263.1668092502
 20
168.3761042267
 10
263.180382922
 20
168.3256486915
 10
263.1991584457
 20
168.2768805303
 10
263.2229304015
 20
168.2303334496
 10
263.2514386802
 20
168.186516866
 10
263.2843713455
 20
168.1459103032
 10
263.3213680329
 20
168.1089581702
 10
263.3620238756
 20
168.0760649036
 10
263.4058939791
 20
168.0475904992
 10
263.4524982626
 20
168.0238466027
 10
263.5013266805
 20
168.0050931042
 10
263.5518448639
 20
167.9915352606
 10
263.6034999743
 20
167.9833214616
 10
263.6557267143
 20
167.9805416194
  0
LWPOLYLINE
  5
243
100
AcDbEntity
  8
0
100
AcDbPolyline
 62
250
  6
CONTINUOUS
 90
16
 70
0
 10
263.1558028665
 20
211.4786772953
 10
263.1585860231
 20
211.5308396845
 10
263.1668096304
 20
211.5824312353
 10
263.1803836935
 20
211.6328873566
 10
263.1991596649
 20
211.6816558825
 10
263.2229320701
 20
211.7282031157
 10
263.251440756
 20
211.7720196673
 10
263.2843737384
 20
211.8126260317
 10
263.3213706158
 20
211.8495778338
 10
263.3620265134
 20
211.8824706922
 10
263.4058965141
 20
211.9109446445
 10
263.4525005274
 20
211.9346880863
 10
263.501328543
 20
211.9534411821
 10
263.5518462122
 20
211.9669987076
 10
263.6035006959
 20
211.9752122962
 10
263.6557267141
 20
211.9779920627
  0
LWPOLYLINE
  5
244
100
AcDbEntity
  8
0
100
AcDbPolyline
 62
250
  6
CONTINUOUS
 90
8
 70
0
 10
263.1638386715
 20
211.3387597003
 10
263.162825628
 20
211.370707893
 10
263.1617830709
 20
211.3989693631
 10
263.1607048433
 20
211.4232794274
 10
263.1595698215
 20
211.4434264195
 10
263.1583709641
 20
211.4593397837
 10
263.1571153124
 20
211.4710900757
 10
263.1558028665
 20
211.4786772953
  0
LWPOLYLINE
  5
245
100
AcDbEntity
  8
0
100
AcDbPolyline
 62
250
  6
CONTINUOUS
 90
6
 70
0
 10
263.6617069266
 20
211.8581923877
 10
263.660628917
 20
211.8943321371
 10
263.6594940199
 20
211.92511575
 10
263.6582951389
 20
211.9500000483
 10
263.6570393703
 20
211.9678798933
 10
263.6557267141
 20
211.9779920627
  0
LINE
  5
246
100
AcDbEntity
  8
0
100
AcDbLine
 62
250
  6
CONTINUOUS
 10
263.1657604001
 20
211.2624267147
 11
263.1638386715
 21
211.3387597003
  0
LINE
  5
247
100
AcDbEntity
  8
0
100
AcDbLine
 62
250
  6
CONTINUOUS
 10
263.6637623919
 20
211.767894943
 11
263.6617069266
 21
211.8581923877
  0
LINE
  5
248
100
AcDbEntity
  8
0
100
AcDbLine
 62
250
  6
CONTINUOUS
 10
263.1675741595
 20
211.1667452326
 11
263.1657604001
 21
211.2624267147
  0
LINE
  5
249
100
AcDbEntity
  8
0
100
AcDbLine
 62
250
  6
CONTINUOUS
 10
263.6656842634
 20
211.6536161919
 11
263.6637623919
 21
211.767894943
  0
LINE
  5
24A
100
AcDbEntity
  8
0
100
AcDbLine
 62
250
  6
CONTINUOUS
 10
263.1698324032
 20
210.996725739
 11
263.1675741595
 21
211.1667452326
  0
LINE
  5
24B
100
AcDbEntity
  8
0
100
AcDbLine
 62
250
  6
CONTINUOUS
 10
263.6683218286
 20
211.4299882775
 11
263.6656842634
 21
211.6536161919
  0
LINE
  5
24C
100
AcDbEntity
  8
0
100
AcDbLine
 62
250
  6
CONTINUOUS
 10
263.1714028074
 20
210.8043120543
 11
263.1698324032
 21
210.996725739
  0
LINE
  5
24D
100
AcDbEntity
  8
0
100
AcDbLine
 62
250
  6
CONTINUOUS
 10
263.671326619
 20
210.9665907068
 11
263.6683218286
 21
211.4299882775
  0
LINE
  5
24E
100
AcDbEntity
  8
0
100
AcDbLine
 62
250
  6
CONTINUOUS
 10
263.1723296371
 20
210.5211726972
 11
263.1714028074
 21
210.8043120543
  0
LINE
  5
24F
100
AcDbEntity
  8
0
100
AcDbLine
 62
7
  6
CONTINUOUS
 10
263.1324246502
 20
211.5488689792
 11
263.1324246502
 21
168.4096647023
  0
LINE
  5
250
100
AcDbEntity
  8
0
100
AcDbLine
 62
250
  6
CONTINUOUS
 10
263.174244643
 20
172.371176068
 11
263.1723296371
 21
210.5211726972
  0
LINE
  5
251
100
AcDbEntity
  8
0
100
AcDbLine
 62
250
  6
CONTINUOUS
 10
263.6741684906
 20
172.3533439988
 11
263.671326619
 21
210.9665907068
  0
LINE
  5
252
100
AcDbEntity
  8
0
100
AcDbLine
 62
250
  6
CONTINUOUS
 10
263.1717566964
 20
169.2211809935
 11
263.174244643
 21
172.371176068
  0
LINE
  5
253
100
AcDbEntity
  8
0
100
AcDbLine
 62
250
  6
CONTINUOUS
 10
263.6709295381
 20
168.9018036821
 11
263.6741684906
 21
172.3533439988
  0
LINE
  5
254
100
AcDbEntity
  8
0
100
AcDbLine
 62
250
  6
CONTINUOUS
 10
263.6685911676
 20
168.5575528225
 11
263.6709295381
 21
168.9018036821
  0
LINE
  5
255
100
AcDbEntity
  8
0
100
AcDbLine
 62
250
  6
CONTINUOUS
 10
263.1699779531
 20
168.975472824
 11
263.1717566964
 21
169.2211809935
  0
LINE
  5
256
100
AcDbEntity
  8
0
100
AcDbLine
 62
250
  6
CONTINUOUS
 10
263.6660188208
 20
168.3283887442
 11
263.6685911676
 21
168.5575528225
  0
LINE
  5
257
100
AcDbEntity
  8
0
100
AcDbLine
 62
250
  6
CONTINUOUS
 10
263.1678823023
 20
168.8111212174
 11
263.1699779531
 21
168.975472824
  0
LINE
  5
258
100
AcDbEntity
  8
0
100
AcDbLine
 62
250
  6
CONTINUOUS
 10
263.6639993794
 20
168.2031558255
 11
263.6660188208
 21
168.3283887442
  0
LINE
  5
259
100
AcDbEntity
  8
0
100
AcDbLine
 62
250
  6
CONTINUOUS
 10
263.1660949317
 20
168.7117544699
 11
263.1678823023
 21
168.8111212174
  0
LINE
  5
25A
100
AcDbEntity
  8
0
100
AcDbLine
 62
250
  6
CONTINUOUS
 10
307.2405711315
 20
169.4173117159
 11
307.1377518678
 21
169.4167984882
  0
LINE
  5
25B
100
AcDbEntity
  8
0
100
AcDbLine
 62
7
  6
CONTINUOUS
 10
307.177961302
 20
167.9094358502
 11
263.6320440505
 21
167.9094358502
  0
LINE
  5
25C
100
AcDbEntity
  8
0
100
AcDbLine
 62
250
  6
CONTINUOUS
 10
263.6557267141
 20
167.9805416188
 11
307.1542786384
 21
167.9805416188
  0
LWPOLYLINE
  5
25D
100
AcDbEntity
  8
0
100
AcDbPolyline
 62
250
  6
CONTINUOUS
 90
7
 70
0
 10
263.6557267141
 20
167.9805416188
 10
263.6570094148
 20
167.990298757
 10
263.658258696
 20
168.0078621779
 10
263.6594745577
 20
168.0329549024
 10
263.6606588183
 20
168.0651491685
 10
263.6618096594
 20
168.1041757034
 10
263.6639993794
 20
168.2031558255
  0
LINE
  5
25E
100
AcDbEntity
  8
0
100
AcDbLine
 62
250
  6
CONTINUOUS
 10
263.6722534847
 20
169.4167985159
 11
307.1377518678
 21
169.4167985159
  0
LWPOLYLINE
  5
25F
100
AcDbEntity
  8
0
100
AcDbPolyline
 62
250
  6
CONTINUOUS
 90
9
 70
0
 10
263.1558028665
 20
168.4798563861
 10
263.1570853909
 20
168.4867045623
 10
263.1583345754
 20
168.4983519589
 10
263.1595504199
 20
168.5147985758
 10
263.1607347917
 20
168.5361372811
 10
263.1618858236
 20
168.5622752067
 10
263.1629979137
 20
168.5929337488
 10
263.1640756445
 20
168.6282693067
 10
263.1660949317
 20
168.7117544699
  0
LINE
  5
260
100
AcDbEntity
  8
0
100
AcDbLine
 62
250
  6
CONTINUOUS
 10
263.1324246502
 20
168.4096647023
 11
263.1558028665
 21
168.4798563861
  0
LINE
  5
261
100
AcDbEntity
  8
0
100
AcDbLine
 62
250
  6
CONTINUOUS
 10
263.6320440505
 20
167.9094358502
 11
263.6557267141
 21
167.9805416188
  0
LINE
  5
262
100
AcDbEntity
  8
0
100
AcDbLine
 62
250
  6
CONTINUOUS
 10
263.1558028665
 20
211.4786772953
 11
263.1324246502
 21
211.5488689792
  0
LINE
  5
263
100
AcDbEntity
  8
0
100
AcDbLine
 62
250
  6
CONTINUOUS
 10
263.6557267141
 20
211.9779920627
 11
263.6320440505
 21
212.0490978312
  0
LWPOLYLINE
  5
264
100
AcDbEntity
  8
0
100
AcDbPolyline
 62
7
  6
CONTINUOUS
 90
3
 70
0
 43
0.3500000087
 10
286.5478582764
 20
223.0848126099
 10
286.4764393799
 20
222.870521814
 10
286.3335674805
 20
222.5848121216
  0
LWPOLYLINE
  5
265
100
AcDbEntity
  8
0
100
AcDbPolyline
 62
7
  6
CONTINUOUS
 90
2
 70
0
 43
0.3500000087
 10
282.1192898315
 20
222.7991029175
 10
282.1192898315
 20
224.2991043823
  0
LINE
  5
266
100
AcDbEntity
  8
0
100
AcDbLine
 62
7
  6
CONTINUOUS
 10
282.9594119475
 20
188.619306288
 11
282.9592948706
 21
188.6005457387
  0
LINE
  5
267
100
AcDbEntity
  8
0
100
AcDbLine
 62
7
  6
CONTINUOUS
 10
282.9619092001
 20
188.6380600459
 11
282.9594119475
 21
188.619306288
  0
LINE
  5
268
100
AcDbEntity
  8
0
100
AcDbLine
 62
7
  6
CONTINUOUS
 10
282.9667500951
 20
188.6563686498
 11
282.9618933801
 21
188.6377383306
  0
LINE
  5
269
100
AcDbEntity
  8
0
100
AcDbLine
 62
7
  6
CONTINUOUS
 10
282.3580865415
 20
188.7184566767
 11
282.3753536138
 21
188.7792579406
  0
LWPOLYLINE
  5
26A
100
AcDbEntity
  8
0
100
AcDbPolyline
 62
7
  6
CONTINUOUS
 90
4
 70
0
 10
283.6969766224
 20
192.748176043
 10
283.7454052136
 20
192.8767703655
 10
283.8026785637
 20
193.0000937108
 10
283.8687966727
 20
193.1181460945
  0
LINE
  5
26B
100
AcDbEntity
  8
0
100
AcDbLine
 62
7
  6
CONTINUOUS
 10
284.3027957059
 20
192.652752338
 11
284.2667120728
 21
192.5584085977
  0
LWPOLYLINE
  5
26C
100
AcDbEntity
  8
0
100
AcDbPolyline
 62
7
  6
CONTINUOUS
 90
3
 70
0
 10
284.3958454722
 20
192.8280130799
 10
284.3458400654
 20
192.7426212224
 10
284.302795599
 20
192.6527530651
  0
LWPOLYLINE
  5
26D
100
AcDbEntity
  8
0
100
AcDbPolyline
 62
7
  6
CONTINUOUS
 90
3
 70
0
 10
283.8689117989
 20
193.1183345583
 10
283.9442461929
 20
193.2316124058
 10
284.0283527379
 20
193.3395295062
  0
LWPOLYLINE
  5
26E
100
AcDbEntity
  8
0
100
AcDbPolyline
 62
7
  6
CONTINUOUS
 90
4
 70
0
 10
284.0286822569
 20
193.339826962
 10
284.1202195531
 20
193.4406776427
 10
284.2188337659
 20
193.5338651874
 10
284.3246201033
 20
193.6196984967
  0
LINE
  5
26F
100
AcDbEntity
  8
0
100
AcDbLine
 62
7
  6
CONTINUOUS
 10
284.3249430292
 20
193.6198291194
 11
284.4364563651
 21
193.6971756454
  0
LWPOLYLINE
  5
270
100
AcDbEntity
  8
0
100
AcDbPolyline
 62
7
  6
CONTINUOUS
 90
3
 70
0
 10
284.4367143271
 20
193.6973545698
 10
284.5541116995
 20
193.7660669103
 10
284.6770384966
 20
193.8261134731
  0
LWPOLYLINE
  5
271
100
AcDbEntity
  8
0
100
AcDbPolyline
 62
7
  6
CONTINUOUS
 90
4
 70
0
 10
284.677559152
 20
193.8262228979
 10
284.8042295986
 20
193.8767656683
 10
284.9336138194
 20
193.9171970818
 10
285.0660921313
 20
193.947825735
  0
LWPOLYLINE
  5
272
100
AcDbEntity
  8
0
100
AcDbPolyline
 62
7
  6
CONTINUOUS
 90
10
 70
0
 10
285.1083701642
 20
193.341539634
 10
285.0129454997
 20
193.3128354375
 10
284.9195671182
 20
193.2761120584
 10
284.8301541935
 20
193.2321244384
 10
284.7447888249
 20
193.1807222071
 10
284.6633889131
 20
193.1220557085
 10
284.5876273343
 20
193.0573309571
 10
284.5176208448
 20
192.986422612
 10
284.4532526883
 20
192.9094559859
 10
284.3958454722
 20
192.8280130799
  0
LINE
  5
273
100
AcDbEntity
  8
0
100
AcDbLine
 62
7
  6
CONTINUOUS
 10
288.1401267275
 20
187.8614079822
 11
288.1044763305
 21
187.8591523559
  0
LWPOLYLINE
  5
274
100
AcDbEntity
  8
0
100
AcDbPolyline
 62
7
  6
CONTINUOUS
 90
11
 70
0
 10
286.2251223441
 20
187.0557362875
 10
286.2564009559
 20
187.0558382287
 10
286.2874749285
 20
187.0526223187
 10
286.3185367664
 20
187.0459923635
 10
286.3493939652
 20
187.0360445583
 10
286.3788088895
 20
187.0229444807
 10
286.4067824643
 20
187.006402683
 10
286.4333137647
 20
186.9867086165
 10
286.4571623808
 20
186.9648962066
 10
286.4779148425
 20
186.9413100962
 10
286.4959846198
 20
186.9156056459
  0
LWPOLYLINE
  5
275
100
AcDbEntity
  8
0
100
AcDbPolyline
 62
7
  6
CONTINUOUS
 90
2
 70
0
 43
0.3500000087
 10
316.9275946289
 20
186.9078332153
 10
315.4275931641
 20
186.9078332153
  0
LINE
  5
276
100
AcDbEntity
  8
0
100
AcDbLine
 62
7
  6
CONTINUOUS
 10
288.1044763305
 20
187.8591523559
 11
283.0383501541
 21
187.8591523559
  0
LWPOLYLINE
  5
277
100
AcDbEntity
  8
0
100
AcDbPolyline
 62
7
  6
CONTINUOUS
 90
8
 70
0
 10
283.0383501541
 20
187.8591523559
 10
282.9836049573
 20
187.861287277
 10
282.9291973265
 20
187.8676872383
 10
282.8754579612
 20
187.8783159552
 10
282.8227567956
 20
187.8930962469
 10
282.7713704949
 20
187.9119489587
 10
282.7214928516
 20
187.9348271795
 10
282.6733386052
 20
187.9616877682
  0
LWPOLYLINE
  5
278
100
AcDbEntity
  8
0
100
AcDbPolyline
 62
7
  6
CONTINUOUS
 90
21
 70
0
 10
283.0383501541
 20
187.8591523559
 10
282.9752449522
 20
187.8619904342
 10
282.9127004537
 20
187.8704857018
 10
282.8512199311
 20
187.8845617635
 10
282.7912979489
 20
187.9040955009
 10
282.733414625
 20
187.9289234721
 10
282.6780325615
 20
187.9588451775
 10
282.6255977624
 20
187.9936140387
 10
282.5765278462
 20
188.0329452559
 10
282.5312095846
 20
188.0765273867
 10
282.4900086046
 20
188.1240077072
 10
282.4532546896
 20
188.1750023229
 10
282.4212364466
 20
188.2291111273
 10
282.3942149271
 20
188.2859013236
 10
282.3724112105
 20
188.3449143124
 10
282.3559996982
 20
188.405681816
 10
282.3451194899
 20
188.4677173775
 10
282.3398646092
 20
188.5305195649
 10
282.3402791381
 20
188.593582522
 10
282.3463661899
 20
188.6563974606
 10
282.3580865415
 20
188.7184566767
  0
LWPOLYLINE
  5
279
100
AcDbEntity
  8
0
100
AcDbPolyline
 62
7
  6
CONTINUOUS
 90
10
 70
0
 10
287.8160699911
 20
187.052381442
 10
287.8465918837
 20
187.0457843782
 10
287.8766532112
 20
187.0359823537
 10
287.9052530203
 20
187.0232632329
 10
287.9323569086
 20
187.0074921406
 10
287.9579992786
 20
186.9888039549
 10
287.9812823844
 20
186.9678911699
 10
288.0020771846
 20
186.9447094527
 10
288.0205127208
 20
186.9193031399
 10
288.0360783718
 20
186.8924977285
  0
LWPOLYLINE
  5
27A
100
AcDbEntity
  8
0
100
AcDbPolyline
 62
7
  6
CONTINUOUS
 90
4
 70
0
 10
283.0535836704
 20
188.4698128293
 10
283.0711604887
 20
188.4641121566
 10
283.0896022996
 20
188.4605968272
 10
283.1089091032
 20
188.4592668407
  0
LINE
  5
27B
100
AcDbEntity
  8
0
100
AcDbLine
 62
7
  6
CONTINUOUS
 10
283.0363461228
 20
188.477941238
 11
283.053428564
 21
188.4698743391
  0
LWPOLYLINE
  5
27C
100
AcDbEntity
  8
0
100
AcDbPolyline
 62
7
  6
CONTINUOUS
 90
8
 70
0
 10
282.6273371087
 20
187.9923477646
 10
282.5839744206
 20
188.0264960412
 10
282.5436051859
 20
188.0638094674
 10
282.5063545079
 20
188.1041240353
 10
282.4723347652
 20
188.1473219837
 10
282.4417527762
 20
188.1931859782
 10
282.4148436467
 20
188.2414131324
 10
282.3917743324
 20
188.2917637051
  0
LWPOLYLINE
  5
27D
100
AcDbEntity
  8
0
100
AcDbPolyline
 62
7
  6
CONTINUOUS
 90
3
 70
0
 10
283.0060431716
 20
188.5000269089
 10
283.0205200824
 20
188.4880912327
 10
283.03661938
 20
188.4778593591
  0
LINE
  5
27E
100
AcDbEntity
  8
0
100
AcDbLine
 62
7
  6
CONTINUOUS
 10
282.9930525056
 20
188.5139272937
 11
283.0059193941
 21
188.5001436317
  0
LWPOLYLINE
  5
27F
100
AcDbEntity
  8
0
100
AcDbPolyline
 62
7
  6
CONTINUOUS
 90
3
 70
0
 10
282.9731041555
 20
188.5455752149
 10
282.9821272037
 20
188.5291169662
 10
282.9932739942
 20
188.5137200359
  0
LWPOLYLINE
  5
280
100
AcDbEntity
  8
0
100
AcDbPolyline
 62
7
  6
CONTINUOUS
 90
9
 70
0
 10
282.3726817771
 20
188.3440663927
 10
282.3577809716
 20
188.3978828521
 10
282.3472520573
 20
188.4525333128
 10
282.3411292215
 20
188.5074931258
 10
282.3393654349
 20
188.5625831427
 10
282.3419361796
 20
188.6176256911
 10
282.3488272242
 20
188.672336183
 10
282.359991211
 20
188.7263237991
 10
282.3753536138
 20
188.7792579406
  0
LWPOLYLINE
  5
281
100
AcDbEntity
  8
0
100
AcDbPolyline
 62
7
  6
CONTINUOUS
 90
3
 70
0
 10
282.961552621
 20
188.5816528572
 10
282.9661491178
 20
188.5633477405
 10
282.9730106309
 20
188.5457758685
  0
LINE
  5
282
100
AcDbEntity
  8
0
100
AcDbLine
 62
7
  6
CONTINUOUS
 10
282.9592788202
 20
188.6006753883
 11
282.9616018245
 21
188.5819109584
  0
LWPOLYLINE
  5
283
100
AcDbEntity
  8
0
100
AcDbPolyline
 62
7
  6
CONTINUOUS
 90
2
 70
0
 43
0.3500000087
 10
284.4764374268
 20
222.7991029175
 10
284.4764374268
 20
224.2991043823
  0
LINE
  5
284
100
AcDbEntity
  8
0
100
AcDbLine
 62
7
  6
CONTINUOUS
 10
288.1045909724
 20
188.4592668407
 11
283.1089091032
 21
188.4592668407
  0
LWPOLYLINE
  5
285
100
AcDbEntity
  8
0
100
AcDbPolyline
 62
7
  6
CONTINUOUS
 90
2
 70
0
 43
0.3500000087
 10
316.9275946289
 20
189.2649808105
 10
315.4275931641
 20
189.2649808105
  0
LWPOLYLINE
  5
286
100
AcDbEntity
  8
0
100
AcDbPolyline
 62
7
  6
CONTINUOUS
 90
10
 70
0
 10
288.1045909724
 20
188.4592668407
 10
288.1358019983
 20
188.4576445203
 10
288.1661949553
 20
188.4529278003
 10
288.1957698435
 20
188.4451166812
 10
288.2249022632
 20
188.4340372379
 10
288.2532166141
 20
188.4198633965
 10
288.2795860951
 20
188.4031169342
 10
288.3038139318
 20
188.3838382983
 10
288.3260968986
 20
188.3619870434
 10
288.3458985176
 20
188.3379636069
  0
LINE
  5
287
100
AcDbEntity
  8
0
100
AcDbLine
 62
7
  6
CONTINUOUS
 10
283.0899982105
 20
188.4604577557
 11
283.1089091032
 21
188.4592668407
  0
LINE
  5
288
100
AcDbEntity
  8
0
100
AcDbLine
 62
7
  6
CONTINUOUS
 10
288.1045909724
 20
188.4592668407
 11
288.139629576
 21
188.4570505138
  0
LWPOLYLINE
  5
289
100
AcDbEntity
  8
0
100
AcDbPolyline
 62
7
  6
CONTINUOUS
 90
12
 70
0
 10
287.8330663949
 20
189.264939195
 10
287.8021542476
 20
189.2690275122
 10
287.7718848566
 20
189.2763646873
 10
287.7420788132
 20
189.2870717338
 10
287.712915526
 20
189.3010276387
 10
287.6855970034
 20
189.3179040839
 10
287.6601611327
 20
189.3379884263
 10
287.6365700265
 20
189.3609933098
 10
287.6159120311
 20
189.3857283474
 10
287.5985499286
 20
189.4117967433
 10
287.5841209369
 20
189.4395952936
 10
287.572625056
 20
189.4691239987
  0
LWPOLYLINE
  5
28A
100
AcDbEntity
  8
0
100
AcDbPolyline
 62
7
  6
CONTINUOUS
 90
26
 70
0
 10
288.1402319477
 20
188.4570124115
 10
288.1744939929
 20
188.4509775903
 10
288.2073771081
 20
188.4411623775
 10
288.2392859674
 20
188.4273324503
 10
288.2698158965
 20
188.4097221333
 10
288.2977528733
 20
188.3890343982
 10
288.3229903203
 20
188.365146708
 10
288.345634815
 20
188.3381816024
 10
288.3647920671
 20
188.3092096685
 10
288.3803223055
 20
188.2781507782
 10
288.3923653015
 20
188.2450850623
 10
288.4004460781
 20
188.2113234944
 10
288.4044065282
 20
188.1768399416
 10
288.4044047589
 20
188.1416605383
 10
288.400440115
 20
188.1071746579
 10
288.3923541977
 20
188.0734078976
 10
288.3803054058
 20
188.0403346594
 10
288.3647682797
 20
188.0092675227
 10
288.3456027593
 20
187.9802867103
 10
288.3229489047
 20
187.9533119967
 10
288.297701436
 20
187.9294152866
 10
288.2697535504
 20
187.908719231
 10
288.2392120508
 20
187.8911011755
 10
288.2072920661
 20
187.8772650666
 10
288.1743986393
 20
187.8674455523
 10
288.1401267275
 20
187.8614079822
  0
LWPOLYLINE
  5
28B
100
AcDbEntity
  8
0
100
AcDbPolyline
 62
7
  6
CONTINUOUS
 90
3
 70
0
 10
286.4732114709
 20
186.9468876863
 10
286.4936897958
 20
186.9187832633
 10
286.5113717128
 20
186.8877828577
  0
LWPOLYLINE
  5
28C
100
AcDbEntity
  8
0
100
AcDbPolyline
 62
7
  6
CONTINUOUS
 90
22
 70
0
 10
286.5113717128
 20
186.8877828577
 10
286.5404886506
 20
186.8359940527
 10
286.5740070862
 20
186.7885003808
 10
286.6119270197
 20
186.7453018348
 10
286.6547710373
 20
186.7060098443
 10
286.7020165527
 20
186.6710129669
 10
286.752095807
 20
186.6414768861
 10
286.8051049334
 20
186.6175853024
 10
286.8609477987
 20
186.5991545036
 10
286.9177682444
 20
186.5867990537
 10
286.9755993045
 20
186.5807238204
 10
287.0344079451
 20
186.5807239315
 10
287.0922389063
 20
186.5867993428
 10
287.1490590575
 20
186.5991548408
 10
287.2049015292
 20
186.6175856437
 10
287.2579104531
 20
186.6414773565
 10
287.3079899512
 20
186.6710139035
 10
287.3552359014
 20
186.7060113721
 10
287.3980800689
 20
186.7453036112
 10
287.4359997086
 20
186.7885019076
 10
287.4695175655
 20
186.8359949874
 10
287.4986336396
 20
186.8877828577
  0
LWPOLYLINE
  5
28D
100
AcDbEntity
  8
0
100
AcDbPolyline
 62
7
  6
CONTINUOUS
 90
24
 70
0
 10
286.4959846198
 20
186.9156056459
 10
286.5364723868
 20
186.8423566488
 10
286.5650485459
 20
186.800123685
 10
286.59710019
 20
186.7610839614
 10
286.6329409137
 20
186.7249745306
 10
286.6722571224
 20
186.6920583315
 10
286.714108033
 20
186.6631241881
 10
286.7586053316
 20
186.6382457012
 10
286.805637332
 20
186.6173492615
 10
286.8539281924
 20
186.6010028773
 10
286.9034605274
 20
186.5893393984
 10
286.9542517223
 20
186.5822259698
 10
287.005078092
 20
186.5798320428
 10
287.0559881112
 20
186.5822779973
 10
287.106933305
 20
186.5894434534
 10
287.1565445641
 20
186.6011367246
 10
287.2047479703
 20
186.6174664558
 10
287.2516174416
 20
186.6383240073
 10
287.2960056226
 20
186.6631917659
 10
287.3378744782
 20
186.6921858931
 10
287.3772620434
 20
186.7251902359
 10
287.4131350673
 20
186.7613387086
 10
287.4451491328
 20
186.8003426184
 10
287.4736486569
 20
186.8424906666
  0
LINE
  5
28E
100
AcDbEntity
  8
0
100
AcDbLine
 62
7
  6
CONTINUOUS
 10
286.0174009222
 20
186.5392066665
 11
285.9714925793
 21
186.6236742966
  0
LWPOLYLINE
  5
28F
100
AcDbEntity
  8
0
100
AcDbPolyline
 62
7
  6
CONTINUOUS
 90
9
 70
0
 10
285.9714925793
 20
186.6236742966
 10
285.9592937218
 20
186.6523436293
 10
285.9502059599
 20
186.6816034927
 10
285.9442292937
 20
186.7114538874
 10
285.9413412383
 20
186.7422546135
 10
285.9415642784
 20
186.7736458723
 10
285.9449658689
 20
186.8045482649
 10
285.9516788929
 20
186.8349386704
 10
285.9615704672
 20
186.8648402082
  0
LINE
  5
290
100
AcDbEntity
  8
0
100
AcDbLine
 62
7
  6
CONTINUOUS
 10
285.9714925793
 20
186.6236742966
 11
285.95819496
 21
186.6558813124
  0
LWPOLYLINE
  5
291
100
AcDbEntity
  8
0
100
AcDbPolyline
 62
7
  6
CONTINUOUS
 90
8
 70
0
 10
285.9578753024
 20
186.6566555274
 10
285.9482587408
 20
186.6900658874
 10
285.9426428945
 20
186.7239053773
 10
285.9410587201
 20
186.7586395168
 10
285.9434752609
 20
186.7938027873
 10
285.9497996472
 20
186.8279986291
 10
285.9601896813
 20
186.8611880266
 10
285.9744875608
 20
186.8934099926
  0
LWPOLYLINE
  5
292
100
AcDbEntity
  8
0
100
AcDbPolyline
 62
7
  6
CONTINUOUS
 90
18
 70
0
 10
285.9743093966
 20
186.893242837
 10
285.9921270089
 20
186.9233850068
 10
286.0132426815
 20
186.9510225529
 10
286.0376999227
 20
186.9764131421
 10
286.0645284869
 20
186.9985487931
 10
286.0938241537
 20
187.0172984341
 10
286.1254911435
 20
187.0327931321
 10
286.1582718722
 20
187.0444181129
 10
286.1922099415
 20
187.0520176674
 10
286.2272617497
 20
187.0557475022
 10
286.262038908
 20
187.0554599672
 10
286.2965312383
 20
187.0509939424
 10
286.3307489187
 20
187.0425105485
 10
286.3633340944
 20
187.0303454969
 10
286.3942221148
 20
187.0143488053
 10
286.4234776304
 20
186.9946704598
 10
286.4499367384
 20
186.9720961237
 10
286.4732114709
 20
186.9468876863
  0
LWPOLYLINE
  5
293
100
AcDbEntity
  8
0
100
AcDbPolyline
 62
7
  6
CONTINUOUS
 90
9
 70
0
 10
285.9899575864
 20
186.9200564765
 10
286.0084531314
 20
186.9453712037
 10
286.0292791201
 20
186.9684472112
 10
286.0525536687
 20
186.9892590406
 10
286.078158661
 20
187.0078321465
 10
286.1052228377
 20
187.0235030908
 10
286.1337903464
 20
187.0361482854
 10
286.1638170393
 20
187.0458913153
 10
286.1942992143
 20
187.0524395019
  0
LWPOLYLINE
  5
294
100
AcDbEntity
  8
0
100
AcDbPolyline
 62
7
  6
CONTINUOUS
 90
9
 70
0
 10
288.0836014955
 20
189.3672844163
 10
288.0619252728
 20
189.3448045361
 10
288.0382527703
 20
189.3248484482
 10
288.0124638162
 20
189.3074277231
 10
287.9846785824
 20
189.2925307896
 10
287.9558409476
 20
189.2806925609
 10
287.9259217464
 20
189.2720395304
 10
287.8949501443
 20
189.266445204
 10
287.8639575167
 20
189.2640650134
  0
LWPOLYLINE
  5
295
100
AcDbEntity
  8
0
100
AcDbPolyline
 62
7
  6
CONTINUOUS
 90
3
 70
0
 10
287.6025070441
 20
189.4055772051
 10
287.5859898972
 20
189.4361040507
 10
287.572625056
 20
189.4691239987
  0
LWPOLYLINE
  5
296
100
AcDbEntity
  8
0
100
AcDbPolyline
 62
7
  6
CONTINUOUS
 90
21
 70
0
 10
288.3632816934
 20
188.3114768659
 10
288.3781835215
 20
188.2828179458
 10
288.3898788104
 20
188.2532606555
 10
288.3981472048
 20
188.2229278371
 10
288.40320906
 20
188.1916966498
 10
288.4050002511
 20
188.1604723773
 10
288.403480312
 20
188.1292762211
 10
288.3986897088
 20
188.0980869798
 10
288.390685715
 20
188.0677463313
 10
288.3792539265
 20
188.0381045748
 10
288.3646087474
 20
188.0093114102
 10
288.3474506641
 20
187.9826576155
 10
288.3278576924
 20
187.9584402737
 10
288.3057518165
 20
187.9363622991
 10
288.2815994755
 20
187.9168232163
 10
288.2551919347
 20
187.8997544245
 10
288.226737929
 20
187.8852245222
 10
288.1973301013
 20
187.8738388325
 10
288.1673326662
 20
187.8657991294
 10
288.1363814093
 20
187.8609036373
 10
288.1044763305
 20
187.8591523559
  0
LWPOLYLINE
  5
297
100
AcDbEntity
  8
0
100
AcDbPolyline
 62
7
  6
CONTINUOUS
 90
15
 70
0
 10
286.507209631
 20
192.6527522092
 10
286.4641660969
 20
192.7426189171
 10
286.4141626772
 20
192.8280087316
 10
286.356759679
 20
192.9094480279
 10
286.2923967952
 20
192.9864104507
 10
286.2223931053
 20
193.0573169187
 10
286.1466295012
 20
193.1220442243
 10
286.0652250909
 20
193.1807156031
 10
285.9798562787
 20
193.2321216441
 10
285.8904426203
 20
193.2761105299
 10
285.7970645599
 20
193.3128341041
 10
285.7016398345
 20
193.3415384487
 10
285.6041254181
 20
193.3620579674
 10
285.5045643367
 20
193.3745582724
 10
285.405003405
 20
193.3787822557
  0
LWPOLYLINE
  5
298
100
AcDbEntity
  8
0
100
AcDbPolyline
 62
7
  6
CONTINUOUS
 90
8
 70
0
 10
288.0360783718
 20
186.8924977285
 10
288.0498167145
 20
186.8611858155
 10
288.0602059375
 20
186.8279976929
 10
288.0665300975
 20
186.7938028161
 10
288.0689467061
 20
186.7586403707
 10
288.0673625949
 20
186.7239066658
 10
288.0617467076
 20
186.6900671368
 10
288.0521301003
 20
186.6566563472
  0
LINE
  5
299
100
AcDbEntity
  8
0
100
AcDbLine
 62
7
  6
CONTINUOUS
 10
286.5432932796
 20
192.5584085978
 11
286.5072097534
 21
192.6527530641
  0
LWPOLYLINE
  5
29A
100
AcDbEntity
  8
0
100
AcDbPolyline
 62
7
  6
CONTINUOUS
 90
9
 70
0
 10
288.0486922821
 20
186.8642844511
 10
288.0584363074
 20
186.8346720783
 10
288.0650453936
 20
186.8045124122
 10
288.0684246454
 20
186.7737223714
 10
288.0686689583
 20
186.742385039
 10
288.0657979642
 20
186.7116014614
 10
288.0598182074
 20
186.6817386532
 10
288.0507231437
 20
186.6524295984
 10
288.0385127732
 20
186.6236742966
  0
LINE
  5
29B
100
AcDbEntity
  8
0
100
AcDbLine
 62
7
  6
CONTINUOUS
 10
288.0521301003
 20
186.6566563472
 11
288.0385127732
 21
186.6236742966
  0
LWPOLYLINE
  5
29C
100
AcDbEntity
  8
0
100
AcDbPolyline
 62
7
  6
CONTINUOUS
 90
31
 70
0
 10
288.0385127732
 20
186.6236742966
 10
287.9976509675
 20
186.5476498567
 10
287.9518492691
 20
186.4755954722
 10
287.901107678
 20
186.4075111327
 10
287.8450930062
 20
186.3430645492
 10
287.7841384417
 20
186.2825879911
 10
287.7192435483
 20
186.2270782832
 10
287.6503445402
 20
186.1766176659
 10
287.5775052033
 20
186.1311238763
 10
287.5019164589
 20
186.0913469805
 10
287.4235315098
 20
186.0573798105
 10
287.3423971531
 20
186.0291295151
 10
287.2598447012
 20
186.0070676361
 10
287.1758455911
 20
185.9912968859
 10
287.0904283858
 20
185.981714541
 10
287.0050100865
 20
185.9784839913
 10
286.919589921
 20
185.9817140147
 10
286.8341686616
 20
185.9912958333
 10
286.7501656259
 20
186.007066506
 10
286.6676097722
 20
186.0291291978
 10
286.5864721422
 20
186.0573807548
 10
286.5080851795
 20
186.0913487594
 10
286.4324965682
 20
186.1311255857
 10
286.3596586241
 20
186.1766188788
 10
286.290760738
 20
186.2270791277
 10
286.2258660713
 20
186.2825888706
 10
286.1649114626
 20
186.343065592
 10
286.1088968184
 20
186.4075121962
 10
286.0581554409
 20
186.4755963237
 10
286.0123540278
 20
186.5476503537
 10
285.9714925793
 20
186.6236742966
  0
LWPOLYLINE
  5
29D
100
AcDbEntity
  8
0
100
AcDbPolyline
 62
7
  6
CONTINUOUS
 90
27
 70
0
 10
288.0385127732
 20
186.6236742966
 10
287.9926044284
 20
186.539206664
 10
287.9407255736
 20
186.4597923293
 10
287.8828762086
 20
186.3854312776
 10
287.8185818989
 20
186.3156859541
 10
287.7483170791
 20
186.2509938862
 10
287.6735050531
 20
186.1926676797
 10
287.5940528147
 20
186.1408373668
 10
287.5100533701
 20
186.0953728847
 10
287.4232090408
 20
186.0571966925
 10
287.3334616682
 20
186.0264576683
 10
287.2408694109
 20
186.0030069105
 10
287.147309067
 20
185.98732021
 10
287.052760846
 20
185.9795561599
 10
286.9572445383
 20
185.9795561583
 10
286.8626963134
 20
185.9873202065
 10
286.769135959
 20
186.0030069084
 10
286.6765436873
 20
186.0264576689
 10
286.5867963043
 20
186.0571966953
 10
286.4999519731
 20
186.0953728882
 10
286.4159525306
 20
186.1408373704
 10
286.3365002942
 20
186.1926676834
 10
286.2616882684
 20
186.2509938906
 10
286.1914234487
 20
186.3156859593
 10
286.1271291395
 20
186.3854312828
 10
286.0692797756
 20
186.4597923335
 10
286.0174009222
 20
186.5392066665
  0
LWPOLYLINE
  5
29E
100
AcDbEntity
  8
0
100
AcDbPolyline
 62
7
  6
CONTINUOUS
 90
12
 70
0
 10
287.4736486569
 20
186.8424906666
 10
287.5141095092
 20
186.9157104745
 10
287.5322481214
 20
186.9414858132
 10
287.5530494763
 20
186.9651088718
 10
287.5769222156
 20
186.9869127685
 10
287.6034576975
 20
187.0065643816
 10
287.6314299971
 20
187.0230643491
 10
287.6608347364
 20
187.0361350804
 10
287.6916762934
 20
187.0460541626
 10
287.7227418764
 20
187.0526549999
 10
287.7538554189
 20
187.0558442986
 10
287.7851929875
 20
187.0557153512
  0
LINE
  5
29F
100
AcDbEntity
  8
0
100
AcDbLine
 62
7
  6
CONTINUOUS
 10
287.4986336396
 20
186.8877828577
 11
287.5163165119
 21
186.9187843003
  0
LWPOLYLINE
  5
2A0
100
AcDbEntity
  8
0
100
AcDbPolyline
 62
7
  6
CONTINUOUS
 90
19
 70
0
 10
287.5163165119
 20
186.9187843003
 10
287.536795545
 20
186.9468894056
 10
287.5600707391
 20
186.9720981704
 10
287.5865299883
 20
186.9946723473
 10
287.6157853985
 20
187.0143501789
 10
287.6466732864
 20
187.0303463967
 10
287.6792583247
 20
187.0425111621
 10
287.7134758407
 20
187.05099431
 10
287.7479681339
 20
187.0554600831
 10
287.78274548
 20
187.0557473723
 10
287.8177976033
 20
187.052017286
 10
287.8517359761
 20
187.0444173938
 10
287.8845169809
 20
187.0327919514
 10
287.9161842351
 20
187.0172967057
 10
287.9454800634
 20
186.9985464635
 10
287.9723087148
 20
186.9764099444
 10
287.9967659404
 20
186.9510184336
 10
288.0178813177
 20
186.9233805855
 10
288.0355199403
 20
186.8934063666
  0
LWPOLYLINE
  5
2A1
100
AcDbEntity
  8
0
100
AcDbPolyline
 62
7
  6
CONTINUOUS
 90
18
 70
0
 10
288.1026980751
 20
189.3917184635
 10
288.0815148722
 20
189.3648971907
 10
288.0569579759
 20
189.3403583915
 10
288.0293931697
 20
189.3184868711
 10
287.9999141744
 20
189.3001508259
 10
287.9684434752
 20
189.2854925052
 10
287.9350585868
 20
189.2743696589
 10
287.9010857741
 20
189.2672237342
 10
287.8665025449
 20
189.2642146802
 10
287.8313313914
 20
189.2651825475
 10
287.7969660549
 20
189.2700889367
 10
287.7634380484
 20
189.2790920106
 10
287.7307158588
 20
189.2920336069
 10
287.7000986886
 20
189.3084008384
 10
287.6716705098
 20
189.3283335882
 10
287.6453473504
 20
189.3516919743
 10
287.6221764967
 20
189.3775434615
 10
287.6025070441
 20
189.4055772051
  0
LINE
  5
2A2
100
AcDbEntity
  8
0
100
AcDbLine
 62
7
  6
CONTINUOUS
 10
285.0665215135
 20
193.9477835699
 11
285.2005366161
 21
193.968317004
  0
LWPOLYLINE
  5
2A3
100
AcDbEntity
  8
0
100
AcDbPolyline
 62
7
  6
CONTINUOUS
 90
3
 70
0
 10
285.3054428281
 20
193.3745585375
 10
285.2058824008
 20
193.3620584976
 10
285.1083683224
 20
193.3415391642
  0
LINE
  5
2A4
100
AcDbEntity
  8
0
100
AcDbLine
 62
7
  6
CONTINUOUS
 10
285.2009665945
 20
193.9683828841
 11
285.3366016684
 21
193.9785953411
  0
LINE
  5
2A5
100
AcDbEntity
  8
0
100
AcDbLine
 62
7
  6
CONTINUOUS
 10
285.4050026819
 20
193.3787822557
 11
285.3054430809
 21
193.3745585296
  0
LWPOLYLINE
  5
2A6
100
AcDbEntity
  8
0
100
AcDbPolyline
 62
7
  6
CONTINUOUS
 90
4
 70
0
 10
285.3361934398
 20
193.9784542069
 10
285.4738164364
 20
193.9784540405
 10
285.6098954746
 20
193.9682849326
 10
285.7439180032
 20
193.9478247778
  0
LWPOLYLINE
  5
2A7
100
AcDbEntity
  8
0
100
AcDbPolyline
 62
7
  6
CONTINUOUS
 90
3
 70
0
 10
285.74348387
 20
193.9477835637
 10
285.8767619815
 20
193.9169717735
 10
286.0061839487
 20
193.876603023
  0
LINE
  5
2A8
100
AcDbEntity
  8
0
100
AcDbLine
 62
7
  6
CONTINUOUS
 10
286.0066082432
 20
193.8764706789
 11
286.1329668866
 21
193.8261134601
  0
LWPOLYLINE
  5
2A9
100
AcDbEntity
  8
0
100
AcDbPolyline
 62
7
  6
CONTINUOUS
 90
4
 70
0
 10
286.1324509518
 20
193.8262208906
 10
286.2560267603
 20
193.7658751847
 10
286.3738177304
 20
193.6970183354
 10
286.4853896454
 20
193.6196949514
  0
LWPOLYLINE
  5
2AA
100
AcDbEntity
  8
0
100
AcDbPolyline
 62
7
  6
CONTINUOUS
 90
3
 70
0
 10
286.4850623517
 20
193.6198290965
 10
286.5913042296
 20
193.5336378065
 10
286.6899904973
 20
193.4404525513
  0
LWPOLYLINE
  5
2AB
100
AcDbEntity
  8
0
100
AcDbPolyline
 62
7
  6
CONTINUOUS
 90
6
 70
0
 10
286.6897910524
 20
193.4406722895
 10
286.7813272152
 20
193.3398224519
 10
286.8656906315
 20
193.2316190592
 10
286.9412096557
 20
193.1181444966
 10
287.0073270726
 20
193.0000928852
 10
287.0646000974
 20
192.8767700726
  0
LINE
  5
2AC
100
AcDbEntity
  8
0
100
AcDbLine
 62
7
  6
CONTINUOUS
 10
287.0644891553
 20
192.876923003
 11
287.1130287301
 21
192.748176043
  0
LWPOLYLINE
  5
2AD
100
AcDbEntity
  8
0
100
AcDbPolyline
 62
7
  6
CONTINUOUS
 90
10
 70
0
 10
288.141666589
 20
189.6586603139
 10
288.149935926
 20
189.6288006333
 10
288.1550481951
 20
189.5987192028
 10
288.1570033962
 20
189.5684160224
 10
288.1557918295
 20
189.5375289343
 10
288.1514231949
 20
189.5064200967
 10
288.1439265922
 20
189.4761759835
 10
288.1331289463
 20
189.4467956048
 10
288.1192033322
 20
189.4182799504
 10
288.1026980751
 20
189.3917184635
  0
LINE
  5
2AE
100
AcDbEntity
  8
0
100
AcDbLine
 62
7
  6
CONTINUOUS
 10
288.141666589
 20
189.6586603139
 11
288.1506129433
 21
189.6248169526
  0
LWPOLYLINE
  5
2AF
100
AcDbEntity
  8
0
100
AcDbPolyline
 62
7
  6
CONTINUOUS
 90
8
 70
0
 10
288.1507684967
 20
189.6242285059
 10
288.1558548276
 20
189.5899020045
 10
288.1569255815
 20
189.5556808098
 10
288.1538884665
 20
189.5211081776
 10
288.1468357746
 20
189.4866408524
 10
288.1360443816
 20
189.453649068
 10
288.1213629825
 20
189.4221923221
 10
288.1029428823
 20
189.3922111166
  0
LWPOLYLINE
  5
2B0
100
AcDbEntity
  8
0
100
AcDbPolyline
 62
7
  6
CONTINUOUS
 90
10
 70
0
 43
0.3500000087
 10
316.4275941406
 20
191.2649827637
 10
316.5704319336
 20
191.3364016602
 10
316.6418508301
 20
191.3364016602
 10
316.7847227295
 20
191.193546814
 10
316.7847227295
 20
191.1221279175
 10
316.713303833
 20
191.0506919678
 10
316.6418508301
 20
191.0506919678
 10
316.4990130371
 20
191.1221279175
 10
316.4275941406
 20
191.193546814
 10
316.4275941406
 20
191.2649827637
  0
LWPOLYLINE
  5
2B1
100
AcDbEntity
  8
0
100
AcDbPolyline
 62
7
  6
CONTINUOUS
 90
3
 70
0
 43
0.3500000087
 10
316.6418508301
 20
191.3364016602
 10
316.856141626
 20
191.2649827637
 10
317.1418513184
 20
191.1221279175
  0
LINE
  5
2B2
100
AcDbEntity
  8
0
100
AcDbLine
 62
250
  6
CONTINUOUS
 10
307.177961302
 20
212.0490978312
 11
307.1542786384
 21
211.9779920627
  0
LINE
  5
2B3
100
AcDbEntity
  8
0
100
AcDbLine
 62
250
  6
CONTINUOUS
 10
307.6775807023
 20
211.5488689792
 11
307.654202486
 21
211.4786772953
  0
LINE
  5
2B4
100
AcDbEntity
  8
0
100
AcDbLine
 62
250
  6
CONTINUOUS
 10
307.1542786384
 20
167.9805416188
 11
307.177961302
 21
167.9094358502
  0
LINE
  5
2B5
100
AcDbEntity
  8
0
100
AcDbLine
 62
250
  6
CONTINUOUS
 10
307.654202486
 20
168.4798563861
 11
307.6775807023
 21
168.4096647023
  0
LWPOLYLINE
  5
2B6
100
AcDbEntity
  8
0
100
AcDbPolyline
 62
7
  6
CONTINUOUS
 90
10
 70
0
 43
0.3500000087
 10
286.4764393799
 20
223.2991034058
 10
286.5478582764
 20
223.1562485596
 10
286.5478582764
 20
223.0848126099
 10
286.404986377
 20
222.9419577637
 10
286.3335674805
 20
222.9419577637
 10
286.262148584
 20
223.0133766602
 10
286.262148584
 20
223.0848126099
 10
286.3335674805
 20
223.2276674561
 10
286.404986377
 20
223.2991034058
 10
286.4764393799
 20
223.2991034058
  0
LWPOLYLINE
  5
2B7
100
AcDbEntity
  8
0
100
AcDbPolyline
 62
250
  6
CONTINUOUS
 90
7
 70
0
 10
307.1542786384
 20
211.9779920627
 10
307.1530336709
 20
211.968631521
 10
307.1518202004
 20
211.9519152746
 10
307.150638227
 20
211.9281047575
 10
307.1494859766
 20
211.8975894818
 10
307.1483652233
 20
211.8606266708
 10
307.1462308296
 20
211.76716733
  0
LWPOLYLINE
  5
2B8
100
AcDbEntity
  8
0
100
AcDbPolyline
 62
250
  6
CONTINUOUS
 90
10
 70
0
 10
307.654202486
 20
211.4786772953
 10
307.6529576817
 20
211.4721151296
 10
307.6517443005
 20
211.4610290616
 10
307.6505623422
 20
211.4454190914
 10
307.6494099862
 20
211.4251861122
 10
307.6482890533
 20
211.4004292308
 10
307.6472050054
 20
211.3714457674
 10
307.6461545778
 20
211.3381462242
 10
307.6451410354
 20
211.3006200989
 10
307.6432729948
 20
211.2147030273
  0
LWPOLYLINE
  5
2B9
100
AcDbEntity
  8
0
100
AcDbPolyline
 62
250
  6
CONTINUOUS
 90
6
 70
0
 10
307.1481386934
 20
168.1063757084
 10
307.1493108125
 20
168.0662745616
 10
307.1505128456
 20
168.0333836015
 10
307.1517381958
 20
168.0079994913
 10
307.15299346
 20
167.9903190975
 10
307.1542786384
 20
167.9805416188
  0
LINE
  5
2BA
100
AcDbEntity
  8
0
100
AcDbLine
 62
250
  6
CONTINUOUS
 10
263.5694337638
 20
210.5412219575
 11
263.6722534847
 21
210.5417351765
  0
LWPOLYLINE
  5
2BB
100
AcDbEntity
  8
0
100
AcDbPolyline
 62
250
  6
CONTINUOUS
 90
8
 70
0
 10
307.6458702042
 20
168.6302839142
 10
307.6469400119
 20
168.5949708963
 10
307.6480625375
 20
168.5638857223
 10
307.6492348318
 20
168.5370040192
 10
307.6504369665
 20
168.5150843752
 10
307.6516622991
 20
168.498379653
 10
307.6529174723
 20
168.48663699
 10
307.654202486
 20
168.4798563861
  0
LINE
  5
2BC
100
AcDbEntity
  8
0
100
AcDbLine
 62
250
  6
CONTINUOUS
 10
307.6438909742
 20
168.7126886551
 11
307.6458702042
 21
168.6302839142
  0
LINE
  5
2BD
100
AcDbEntity
  8
0
100
AcDbLine
 62
250
  6
CONTINUOUS
 10
307.1459464433
 20
168.2063085225
 11
307.1481386934
 21
168.1063757084
  0
LINE
  5
2BE
100
AcDbEntity
  8
0
100
AcDbLine
 62
250
  6
CONTINUOUS
 10
307.6421600953
 20
168.8083103564
 11
307.6438909742
 21
168.7126886551
  0
LINE
  5
2BF
100
AcDbEntity
  8
0
100
AcDbLine
 62
250
  6
CONTINUOUS
 10
307.143967062
 20
168.3297900218
 11
307.1459464433
 21
168.2063085225
  0
LINE
  5
2C0
100
AcDbEntity
  8
0
100
AcDbLine
 62
250
  6
CONTINUOUS
 10
307.6400379548
 20
168.9747743703
 11
307.6421600953
 21
168.8083103564
  0
LINE
  5
2C1
100
AcDbEntity
  8
0
100
AcDbLine
 62
250
  6
CONTINUOUS
 10
307.1414657722
 20
168.5518854644
 11
307.143967062
 21
168.3297900218
  0
LINE
  5
2C2
100
AcDbEntity
  8
0
100
AcDbLine
 62
250
  6
CONTINUOUS
 10
307.6382152693
 20
169.228474881
 11
307.6400379548
 21
168.9747743703
  0
LINE
  5
2C3
100
AcDbEntity
  8
0
100
AcDbLine
 62
250
  6
CONTINUOUS
 10
307.1386316226
 20
169.0039730915
 11
307.1414657722
 21
168.5518854644
  0
LINE
  5
2C4
100
AcDbEntity
  8
0
100
AcDbLine
 62
250
  6
CONTINUOUS
 10
307.132690954
 20
178.457694966
 11
307.1386316226
 21
169.0039730915
  0
LINE
  5
2C5
100
AcDbEntity
  8
0
100
AcDbLine
 62
250
  6
CONTINUOUS
 10
307.6326148016
 20
178.4692165379
 11
307.6382152693
 21
169.228474881
  0
LINE
  5
2C6
100
AcDbEntity
  8
0
100
AcDbLine
 62
7
  6
CONTINUOUS
 10
307.6775807023
 20
168.4096647023
 11
307.6775807023
 21
211.5488689792
  0
LINE
  5
2C7
100
AcDbEntity
  8
0
100
AcDbLine
 62
250
  6
CONTINUOUS
 10
307.6382482729
 20
210.7372702298
 11
307.6326148016
 21
178.4692165379
  0
LINE
  5
2C8
100
AcDbEntity
  8
0
100
AcDbLine
 62
250
  6
CONTINUOUS
 10
307.1391494594
 20
211.070650606
 11
307.132690954
 21
178.457694966
  0
LINE
  5
2C9
100
AcDbEntity
  8
0
100
AcDbLine
 62
250
  6
CONTINUOUS
 10
307.6396032535
 20
210.9384876318
 11
307.6382482729
 21
210.7372702298
  0
LINE
  5
2CA
100
AcDbEntity
  8
0
100
AcDbLine
 62
250
  6
CONTINUOUS
 10
307.1416997405
 20
211.4316867171
 11
307.1391494594
 21
211.070650606
  0
LINE
  5
2CB
100
AcDbEntity
  8
0
100
AcDbLine
 62
250
  6
CONTINUOUS
 10
307.6416235341
 20
211.1144737318
 11
307.6396032535
 21
210.9384876318
  0
LINE
  5
2CC
100
AcDbEntity
  8
0
100
AcDbLine
 62
250
  6
CONTINUOUS
 10
307.1442557244
 20
211.6491259285
 11
307.1416997405
 21
211.4316867171
  0
LINE
  5
2CD
100
AcDbEntity
  8
0
100
AcDbLine
 62
250
  6
CONTINUOUS
 10
307.6432729948
 20
211.2147030273
 11
307.6416235341
 21
211.1144737318
  0
LINE
  5
2CE
100
AcDbEntity
  8
0
100
AcDbLine
 62
250
  6
CONTINUOUS
 10
307.1462308296
 20
211.76716733
 11
307.1442557244
 21
211.6491259285
  0
LINE
  5
2CF
100
AcDbEntity
  8
0
100
AcDbLine
 62
250
  6
CONTINUOUS
 10
263.6557267141
 20
211.9779920627
 11
307.1542786384
 21
211.9779920627
  0
LINE
  5
2D0
100
AcDbEntity
  8
0
100
AcDbLine
 62
7
  6
CONTINUOUS
 10
307.177961302
 20
212.0490978312
 11
263.6320440505
 21
212.0490978312
  0
LWPOLYLINE
  5
2D1
100
AcDbEntity
  8
0
100
AcDbPolyline
 62
7
  6
CONTINUOUS
 90
3
 70
0
 43
0.3500000087
 10
314.7847207764
 20
192.3364026367
 10
313.9275916992
 20
193.1935487671
 10
316.9275946289
 20
193.1935487671
  0
LWPOLYLINE
  5
2D2
100
AcDbEntity
  8
0
100
AcDbPolyline
 62
250
  6
CONTINUOUS
 90
16
 70
0
 10
307.654202486
 20
211.4786772953
 10
307.651419399
 20
211.5308390277
 10
307.6431959755
 20
211.5824300489
 10
307.6296221728
 20
211.6328857804
 10
307.6108464991
 20
211.6816540646
 10
307.5870743921
 20
211.7282011977
 10
307.5585659759
 20
211.7720177719
 10
307.5256332029
 20
211.8126242695
 10
307.4886364501
 20
211.8495762926
 10
307.4479805874
 20
211.8824694229
 10
307.404110517
 20
211.9109436757
 10
307.3575063231
 20
211.9346874194
 10
307.30867804
 20
211.9534407819
 10
307.2581600303
 20
211.9669985176
 10
307.2065051324
 20
211.975212245
 10
307.1542786379
 20
211.9779920612
  0
LWPOLYLINE
  5
2D3
100
AcDbEntity
  8
0
100
AcDbPolyline
 62
250
  6
CONTINUOUS
 90
16
 70
0
 10
307.654202486
 20
168.4798563861
 10
307.6514193293
 20
168.4276939971
 10
307.643195722
 20
168.3761024463
 10
307.6296216589
 20
168.325646325
 10
307.6108456876
 20
168.276877799
 10
307.5870732825
 20
168.2303305658
 10
307.5585645966
 20
168.186514014
 10
307.5256316143
 20
168.1459076495
 10
307.488634737
 20
168.1089558473
 10
307.4479788394
 20
168.0760629887
 10
307.4041088387
 20
168.0475890364
 10
307.3575048254
 20
168.0238455943
 10
307.3086768099
 20
168.0050924986
 10
307.2581591405
 20
167.9915349732
 10
307.2065046567
 20
167.9833213849
 10
307.1542786384
 20
167.9805416188
  0
LWPOLYLINE
  5
2D4
100
AcDbEntity
  8
0
100
AcDbPolyline
 62
7
  6
CONTINUOUS
 90
3
 70
0
 43
0.3500000087
 10
316.2847222412
 20
189.7649812988
 10
316.2847222412
 20
188.264979834
 10
313.9275916992
 20
188.9078351685
  0
LWPOLYLINE
  5
2D5
100
AcDbEntity
  8
0
100
AcDbPolyline
 62
7
  6
CONTINUOUS
 90
3
 70
0
 43
0.3500000087
 10
316.2847222412
 20
187.4078337036
 10
316.2847222412
 20
185.9078322388
 10
313.9275916992
 20
186.5506875732
  0
LWPOLYLINE
  5
2D6
100
AcDbEntity
  8
0
100
AcDbPolyline
 62
250
  6
CONTINUOUS
 90
14
 70
0
 10
307.6376757153
 20
169.4373610039
 10
307.6340962909
 20
169.4352351117
 10
307.625198889
 20
169.433131994
 10
307.6110788067
 20
169.4310741846
 10
307.591887298
 20
169.429083733
 10
307.5678299584
 20
169.4271819657
 10
307.5391645256
 20
169.4253892576
 10
307.5061981074
 20
169.4237248161
 10
307.4692839014
 20
169.4222064767
 10
307.4288174218
 20
169.4208505089
 10
307.3852322326
 20
169.4196714431
 10
307.3389953212
 20
169.4186819124
 10
307.2906021141
 20
169.4178925175
 10
307.2405711315
 20
169.4173117159
  0
LWPOLYLINE
  5
2D7
100
AcDbEntity
  8
0
100
AcDbPolyline
 62
7
  6
CONTINUOUS
 90
8
 70
0
 43
0.3500000087
 10
287.5478592529
 20
222.7991029175
 10
288.4049883301
 20
222.7991029175
 10
288.8335699219
 20
223.2276674561
 10
288.8335699219
 20
224.0848135864
 10
288.4049883301
 20
224.513378125
 10
287.5478592529
 20
224.513378125
 10
287.5478592529
 20
225.7991058472
 10
288.8335699219
 20
225.7991058472
  0
LWPOLYLINE
  5
2D8
100
AcDbEntity
  8
0
100
AcDbPolyline
 62
7
  6
CONTINUOUS
 90
3
 70
0
 43
0.3500000087
 10
284.976437915
 20
223.441958252
 10
283.4764364502
 20
223.441958252
 10
284.1192917847
 20
225.7991058472
  0
LWPOLYLINE
  5
2D9
100
AcDbEntity
  8
0
100
AcDbPolyline
 62
7
  6
CONTINUOUS
 90
3
 70
0
 43
0.3500000087
 10
282.6192903198
 20
223.441958252
 10
281.119288855
 20
223.441958252
 10
281.7621441895
 20
225.7991058472
  0
LWPOLYLINE
  5
2DA
100
AcDbEntity
  8
0
100
AcDbPolyline
 62
250
  6
CONTINUOUS
 90
16
 70
0
 10
307.6376757153
 20
210.5211726972
 10
307.6340962123
 20
210.5232986079
 10
307.6251986226
 20
210.5254017405
 10
307.6110782796
 20
210.5274595609
 10
307.5918864758
 20
210.5294500207
 10
307.567828842
 20
210.5313517931
 10
307.5391631439
 20
210.5331445014
 10
307.5061965205
 20
210.5348089376
 10
307.4692821929
 20
210.5363272683
 10
307.4288156801
 20
210.5376832251
 10
307.385230561
 20
210.5388622797
 10
307.3389938288
 20
210.5398517991
 10
307.2906008874
 20
210.540641181
 10
307.2405702437
 20
210.5412219677
 10
307.1894379513
 20
210.5415879363
 10
263.6722534847
 20
210.5417351655
  0
LWPOLYLINE
  5
2DB
100
AcDbEntity
  8
0
100
AcDbPolyline
 62
7
  6
CONTINUOUS
 90
3
 70
0
 43
0.3500000087
 10
230.2803749512
 20
223.0848126099
 10
230.2089560547
 20
222.870521814
 10
230.0660841553
 20
222.5848121216
  0
LWPOLYLINE
  5
2DC
100
AcDbEntity
  8
0
100
AcDbPolyline
 62
7
  6
CONTINUOUS
 90
10
 70
0
 43
0.3500000087
 10
231.7089404663
 20
222.7991029175
 10
232.5660865967
 20
223.6562490479
 10
232.7803773926
 20
224.513378125
 10
232.7803773926
 20
225.3705242554
 10
232.351812854
 20
225.7991058472
 10
231.7089404663
 20
225.7991058472
 10
231.2803759277
 20
225.3705242554
 10
231.2803759277
 20
224.513378125
 10
231.7089404663
 20
224.0848135864
 10
232.6375225464
 20
224.0848135864
  0
LINE
  5
2DD
100
AcDbEntity
  8
0
100
AcDbLine
 62
250
  6
CONTINUOUS
 10
243.6436211396
 20
168.539421753
 11
243.4462271826
 21
168.539421753
  0
LINE
  5
2DE
100
AcDbEntity
  8
0
100
AcDbLine
 62
7
  6
CONTINUOUS
 10
241.7868422508
 20
167.9805416188
 11
243.1436211396
 21
167.9094358502
  0
LINE
  5
2DF
100
AcDbEntity
  8
0
100
AcDbLine
 62
250
  6
CONTINUOUS
 10
241.8042840257
 20
168.4798563861
 11
243.1436211396
 21
168.4096647023
  0
LINE
  5
2E0
100
AcDbEntity
  8
0
100
AcDbLine
 62
250
  6
CONTINUOUS
 10
240.3692900529
 20
169.4169457322
 11
240.3666151683
 21
169.4167984882
  0
LINE
  5
2E1
100
AcDbEntity
  8
0
100
AcDbLine
 62
250
  6
CONTINUOUS
 10
240.8574659691
 20
169.4373610039
 11
240.3692900529
 21
169.4169457322
  0
LWPOLYLINE
  5
2E2
100
AcDbEntity
  8
0
100
AcDbPolyline
 62
250
  6
CONTINUOUS
 90
13
 70
0
 10
245.4784834119
 20
171.6397964887
 10
245.4882682012
 20
171.6422963533
 10
245.4976073416
 20
171.6480179418
 10
245.5063478944
 20
171.6568675866
 10
245.5143467218
 20
171.6687003959
 10
245.5214728287
 20
171.6833226217
 10
245.5276095093
 20
171.7004948283
 10
245.5326562624
 20
171.7199358248
 10
245.5365304326
 20
171.741327258
 10
245.5391685657
 20
171.7643188153
 10
245.5405274524
 20
171.7885339842
 10
245.540584833
 20
171.8135762219
 10
245.5393397609
 20
171.8390354326
  0
LINE
  5
2E3
100
AcDbEntity
  8
0
100
AcDbLine
 62
7
  6
CONTINUOUS
 10
245.4784834367
 20
171.6397964909
 11
243.6436211396
 21
171.4792668407
  0
LINE
  5
2E4
100
AcDbEntity
  8
0
100
AcDbLine
 62
250
  6
CONTINUOUS
 10
245.3479844074
 20
171.8289905781
 11
243.6436211396
 21
171.6798781137
  0
LINE
  5
2E5
100
AcDbEntity
  8
0
100
AcDbLine
 62
250
  6
CONTINUOUS
 10
245.5393397206
 20
171.8390354305
 11
245.3479844074
 21
171.8289905781
  0
LINE
  5
2E6
100
AcDbEntity
  8
0
100
AcDbLine
 62
250
  6
CONTINUOUS
 10
245.5393456258
 20
175.1194979353
 11
245.3479844074
 21
175.1295431033
  0
LINE
  5
2E7
100
AcDbEntity
  8
0
100
AcDbLine
 62
7
  6
CONTINUOUS
 10
245.2436211396
 20
176.7260086227
 11
243.6436211396
 21
176.6421561759
  0
LINE
  5
2E8
100
AcDbEntity
  8
0
100
AcDbLine
 62
250
  6
CONTINUOUS
 10
245.3479844074
 20
175.1295431033
 11
243.6436211396
 21
175.2786555678
  0
LINE
  5
2E9
100
AcDbEntity
  8
0
100
AcDbLine
 62
7
  6
CONTINUOUS
 10
245.4784834367
 20
175.3187371906
 11
243.6436211396
 21
175.4792668407
  0
LINE
  5
2EA
100
AcDbEntity
  8
0
100
AcDbLine
 62
7
  6
CONTINUOUS
 10
243.6436211396
 20
180.3163775056
 11
245.2436211396
 21
180.2325250587
  0
LWPOLYLINE
  5
2EB
100
AcDbEntity
  8
0
100
AcDbPolyline
 62
250
  6
CONTINUOUS
 90
22
 70
0
 10
240.85746597
 20
169.4373609842
 10
240.8632261965
 20
169.365984074
 10
240.8735298718
 20
169.2963553729
 10
240.8883769959
 20
169.228474881
 10
240.9078653314
 20
169.1622371183
 10
240.9318971157
 20
169.0977475647
 10
240.9601790611
 20
169.0353226604
 10
240.9927985763
 20
168.9747743703
 10
241.0296682525
 20
168.9162907295
 10
241.0702325757
 20
168.860752283
 10
241.1143759266
 20
168.8083103564
 10
241.1622139245
 20
168.7588136241
 10
241.2135379127
 20
168.7126886551
 10
241.2684899229
 20
168.669800403
 10
241.3269279233
 20
168.6302839142
 10
241.3882171624
 20
168.5949708963
 10
241.452526615
 20
168.5638857223
 10
241.5196873063
 20
168.5370040192
 10
241.5885575606
 20
168.5150843752
 10
241.6587568193
 20
168.498379653
 10
241.730665641
 20
168.48663699
 10
241.8042840257
 20
168.4798563861
  0
LWPOLYLINE
  5
2EC
100
AcDbEntity
  8
0
100
AcDbPolyline
 62
250
  6
CONTINUOUS
 90
16
 70
0
 10
240.85746597
 20
210.5211726972
 10
240.7477975115
 20
207.5887917438
 10
240.6550265813
 20
204.7427836703
 10
240.5791531794
 20
201.9831484767
 10
240.5213744458
 20
199.3341714717
 10
240.4804932405
 20
196.7715673465
 10
240.4529181439
 20
194.2224801759
 10
240.4371626306
 20
191.684731496
 10
240.4347132259
 20
189.1604997705
 10
240.4464380866
 20
186.5834644654
 10
240.4710976042
 20
183.9479030103
 10
240.5099313871
 20
181.2595379756
 10
240.567526417
 20
178.4692165379
 10
240.6454116877
 20
175.5605544229
 10
240.7420582053
 20
172.549935905
 10
240.85746597
 20
169.4373609842
  0
LWPOLYLINE
  5
2ED
100
AcDbEntity
  8
0
100
AcDbPolyline
 62
250
  6
CONTINUOUS
 90
19
 70
0
 10
243.4462323694
 20
168.5394236408
 10
243.4540840683
 20
168.4944430911
 10
243.4609958036
 20
168.4504280907
 10
243.466913438
 20
168.4077107652
 10
243.4718408849
 20
168.3663800856
 10
243.4756970596
 20
168.3269573103
 10
243.4784105314
 20
168.2903128863
 10
243.4801188357
 20
168.2567296664
 10
243.4809016659
 20
168.2261339556
 10
243.4807331268
 20
168.1986803824
 10
243.4797677839
 20
168.1746297111
 10
243.4781860304
 20
168.1535559367
 10
243.4759102279
 20
168.1346895533
 10
243.4729197458
 20
168.1181149363
 10
243.4693127571
 20
168.1038769965
 10
243.4649442756
 20
168.0915878924
 10
243.4596579021
 20
168.0814595981
 10
243.4534358521
 20
168.0740076495
 10
243.4462271826
 20
168.0695754426
  0
LINE
  5
2EE
100
AcDbEntity
  8
0
100
AcDbLine
 62
250
  6
CONTINUOUS
 10
241.8042840257
 20
211.4786772953
 11
241.7966313577
 21
211.6328857804
  0
LINE
  5
2EF
100
AcDbEntity
  8
0
100
AcDbLine
 62
250
  6
CONTINUOUS
 10
241.7966313577
 20
211.6328857804
 11
241.792378754
 21
211.7282011977
  0
LINE
  5
2F0
100
AcDbEntity
  8
0
100
AcDbLine
 62
250
  6
CONTINUOUS
 10
241.792378754
 20
211.7282011977
 11
241.7890267792
 21
211.8126242695
  0
LWPOLYLINE
  5
2F1
100
AcDbEntity
  8
0
100
AcDbPolyline
 62
250
  6
CONTINUOUS
 90
8
 70
0
 10
241.7890267792
 20
211.8126242695
 10
241.7867217744
 20
211.8824694229
 10
241.7859952542
 20
211.9109436757
 10
241.7855643742
 20
211.9346874194
 10
241.7854338511
 20
211.9534407819
 10
241.7856051141
 20
211.9669985176
 10
241.7860762897
 20
211.975212245
 10
241.7868422222
 20
211.9779920612
  0
LWPOLYLINE
  5
2F2
100
AcDbEntity
  8
0
100
AcDbPolyline
 62
250
  6
CONTINUOUS
 90
7
 70
0
 10
241.7867217501
 20
168.0760629887
 10
241.7859952456
 20
168.0475890364
 10
241.7855643792
 20
168.0238455943
 10
241.7854338674
 20
168.0050924986
 10
241.7856051387
 20
167.9915349732
 10
241.7860763186
 20
167.9833213849
 10
241.7868422508
 20
167.9805416188
  0
LINE
  5
2F3
100
AcDbEntity
  8
0
100
AcDbLine
 62
250
  6
CONTINUOUS
 10
241.7890267224
 20
168.1459076495
 11
241.7867217501
 21
168.0760629887
  0
LINE
  5
2F4
100
AcDbEntity
  8
0
100
AcDbLine
 62
250
  6
CONTINUOUS
 10
241.7923786755
 20
168.2303305658
 11
241.7890267224
 21
168.1459076495
  0
LINE
  5
2F5
100
AcDbEntity
  8
0
100
AcDbLine
 62
250
  6
CONTINUOUS
 10
241.7990386388
 20
168.3761024463
 11
241.7923786755
 21
168.2303305658
  0
LINE
  5
2F6
100
AcDbEntity
  8
0
100
AcDbLine
 62
250
  6
CONTINUOUS
 10
241.8042840257
 20
168.4798563861
 11
241.7990386388
 21
168.3761024463
  0
LWPOLYLINE
  5
2F7
100
AcDbEntity
  8
0
100
AcDbPolyline
 62
250
  6
CONTINUOUS
 90
16
 70
0
 10
245.8436211396
 20
174.9201901589
 10
245.841735385
 20
174.9417047696
 10
245.8362884241
 20
174.9621417502
 10
245.8276057908
 20
174.9815011006
 10
245.8160659448
 20
174.9998257223
 10
245.8019798372
 20
175.017072714
 10
245.785487003
 20
175.0331133711
 10
245.7669561146
 20
175.0478875785
 10
245.7465367246
 20
175.0614554515
 10
245.7237509719
 20
175.0738686308
 10
245.698413371
 20
175.0853185705
 10
245.6708089856
 20
175.0956138167
 10
245.640983842
 20
175.1042316483
 10
245.6090302161
 20
175.1109978251
 10
245.5750986968
 20
175.1160865875
 10
245.5393456258
 20
175.1194979353
  0
LINE
  5
2F8
100
AcDbEntity
  8
0
100
AcDbLine
 62
250
  6
CONTINUOUS
 10
245.3564618202
 20
171.7294148209
 11
245.3479844074
 21
171.8289905781
  0
LINE
  5
2F9
100
AcDbEntity
  8
0
100
AcDbLine
 62
7
  6
CONTINUOUS
 10
243.1436211396
 20
167.9094358502
 11
243.1436211396
 21
212.0490978312
  0
LINE
  5
2FA
100
AcDbEntity
  8
0
100
AcDbLine
 62
250
  6
CONTINUOUS
 10
243.4462271826
 20
211.4191119285
 11
243.4462271826
 21
168.539421753
  0
LINE
  5
2FB
100
AcDbEntity
  8
0
100
AcDbLine
 62
7
  6
CONTINUOUS
 10
243.6436211396
 20
211.6070504527
 11
243.6436211396
 21
168.3514832288
  0
LINE
  5
2FC
100
AcDbEntity
  8
0
100
AcDbLine
 62
250
  6
CONTINUOUS
 10
245.0540883432
 20
203.2424580517
 11
245.0540883309
 21
199.7160756291
  0
LINE
  5
2FD
100
AcDbEntity
  8
0
100
AcDbLine
 62
250
  6
CONTINUOUS
 10
245.0540883309
 20
180.2424580523
 11
245.0540883432
 21
176.7160756298
  0
LINE
  5
2FE
100
AcDbEntity
  8
0
100
AcDbLine
 62
7
  6
CONTINUOUS
 10
245.2436211396
 20
203.2325250587
 11
245.2436211396
 21
199.7260086227
  0
LINE
  5
2FF
100
AcDbEntity
  8
0
100
AcDbLine
 62
7
  6
CONTINUOUS
 10
245.2436211396
 20
180.2325250587
 11
245.2436211396
 21
176.7260086227
  0
LINE
  5
300
100
AcDbEntity
  8
0
100
AcDbLine
 62
250
  6
CONTINUOUS
 10
245.3479844074
 20
175.1295431033
 11
245.3479844074
 21
171.8289905781
  0
LINE
  5
301
100
AcDbEntity
  8
0
100
AcDbLine
 62
7
  6
CONTINUOUS
 10
245.8436211396
 20
174.9202593114
 11
245.8436211396
 21
172.0382743701
  0
LWPOLYLINE
  5
302
100
AcDbEntity
  8
0
100
AcDbPolyline
 62
250
  6
CONTINUOUS
 90
7
 70
0
 10
245.3636702488
 20
171.6297516385
 10
245.3637472409
 20
171.6314742775
 10
245.3635249488
 20
171.6365732075
 10
245.3630071725
 20
171.6449612688
 10
245.3622027605
 20
171.6564950778
 10
245.3611254651
 20
171.6709774789
 10
245.3564618202
 20
171.7294148209
  0
LWPOLYLINE
  5
303
100
AcDbEntity
  8
0
100
AcDbPolyline
 62
250
  6
CONTINUOUS
 90
13
 70
0
 10
245.5393397132
 20
175.1194982514
 10
245.5405847801
 20
175.1449572016
 10
245.5405274214
 20
175.1699992304
 10
245.5391685772
 20
175.1942142495
 10
245.5365305006
 20
175.2172057147
 10
245.5326563935
 20
175.2385971179
 10
245.5276096995
 20
175.2580381534
 10
245.5214730643
 20
175.2752104565
 10
245.5143469819
 20
175.2898328163
 10
245.5063481502
 20
175.3016657794
 10
245.4976075583
 20
175.3105155723
 10
245.4882683424
 20
175.3162372743
 10
245.4784834412
 20
175.3187371902
  0
LWPOLYLINE
  5
304
100
AcDbEntity
  8
0
100
AcDbPolyline
 62
250
  6
CONTINUOUS
 90
5
 70
0
 10
245.3622027592
 20
175.3020386038
 10
245.3630071717
 20
175.3135724128
 10
245.3635249484
 20
175.321960474
 10
245.3637472407
 20
175.327059404
 10
245.3636702488
 20
175.328782043
  0
LINE
  5
305
100
AcDbEntity
  8
0
100
AcDbLine
 62
250
  6
CONTINUOUS
 10
245.3597937046
 20
175.2703727676
 11
245.3622027592
 21
175.3020386038
  0
LWPOLYLINE
  5
306
100
AcDbEntity
  8
0
100
AcDbPolyline
 62
250
  6
CONTINUOUS
 90
19
 70
0
 10
245.8436211396
 20
172.03834185
 10
245.8420145469
 20
172.0185287147
 10
245.8374113198
 20
171.9997388842
 10
245.8301393973
 20
171.9819723587
 10
245.8205359189
 20
171.9651901934
 10
245.8089179424
 20
171.949431333
 10
245.7955575484
 20
171.9348126116
 10
245.7807771577
 20
171.9214062101
 10
245.7648177805
 20
171.9091399477
 10
245.747738498
 20
171.8979141155
 10
245.729845208
 20
171.8877593916
 10
245.711224664
 20
171.878645098
 10
245.6914280984
 20
171.870379492
 10
245.6706354441
 20
171.8628686364
 10
245.648810434
 20
171.8562064684
 10
245.6249315813
 20
171.8504830569
 10
245.5985671168
 20
171.8457284249
 10
245.570037206
 20
171.8419125494
 10
245.5393397206
 20
171.8390354305
  0
LINE
  5
307
100
AcDbEntity
  8
0
100
AcDbLine
 62
250
  6
CONTINUOUS
 10
245.3545186516
 20
175.205753572
 11
245.3597937046
 21
175.2703727676
  0
LINE
  5
308
100
AcDbEntity
  8
0
100
AcDbLine
 62
250
  6
CONTINUOUS
 10
245.3479844074
 20
175.1295431033
 11
245.3545186516
 21
175.205753572
  0
LWPOLYLINE
  5
309
100
AcDbEntity
  8
0
100
AcDbPolyline
 62
7
  6
CONTINUOUS
 90
10
 70
0
 43
0.3500000087
 10
230.2089560547
 20
223.2991034058
 10
230.2803749512
 20
223.1562485596
 10
230.2803749512
 20
223.0848126099
 10
230.137520105
 20
222.9419577637
 10
230.0660841553
 20
222.9419577637
 10
229.9946652588
 20
223.0133766602
 10
229.9946652588
 20
223.0848126099
 10
230.0660841553
 20
223.2276674561
 10
230.137520105
 20
223.2991034058
 10
230.2089560547
 20
223.2991034058
  0
LINE
  5
30A
100
AcDbEntity
  8
0
100
AcDbLine
 62
7
  6
CONTINUOUS
 10
243.6436211396
 20
199.6421561759
 11
245.2436211396
 21
199.7260086227
  0
LINE
  5
30B
100
AcDbEntity
  8
0
100
AcDbLine
 62
7
  6
CONTINUOUS
 10
243.6436211396
 20
203.3163775056
 11
245.2436211396
 21
203.2325250587
  0
LWPOLYLINE
  5
30C
100
AcDbEntity
  8
0
100
AcDbPolyline
 62
250
  6
CONTINUOUS
 90
19
 70
0
 10
243.44623296
 20
211.8889561361
 10
243.4550544361
 20
211.8829663498
 10
243.4624636848
 20
211.872268406
 10
243.4685017079
 20
211.8573732549
 10
243.4733040918
 20
211.8387372603
 10
243.4769010554
 20
211.8169201195
 10
243.4792494968
 20
211.7926443584
 10
243.4805386705
 20
211.7665105263
 10
243.4809389576
 20
211.7389529079
 10
243.4804195008
 20
211.7104391634
 10
243.4791476852
 20
211.6816760989
 10
243.4773333014
 20
211.6527292654
 10
243.4748848783
 20
211.6229089155
 10
243.4718118721
 20
211.5925291606
 10
243.468233666
 20
211.5616294114
 10
243.4639799573
 20
211.5288792567
 10
243.4588954068
 20
211.4938696481
 10
243.4529912186
 20
211.4572237852
 10
243.4462271826
 20
211.4191119285
  0
LINE
  5
30D
100
AcDbEntity
  8
0
100
AcDbLine
 62
250
  6
CONTINUOUS
 10
243.4462271826
 20
168.539421753
 11
243.1436211396
 21
168.4292821606
  0
LINE
  5
30E
100
AcDbEntity
  8
0
100
AcDbLine
 62
7
  6
CONTINUOUS
 10
243.4462271826
 20
168.0695754426
 11
243.1436211396
 21
167.9594358502
  0
LWPOLYLINE
  5
30F
100
AcDbEntity
  8
0
100
AcDbPolyline
 62
250
  6
CONTINUOUS
 90
22
 70
0
 10
241.8042840257
 20
211.4786772953
 10
241.7329692377
 20
211.4721151296
 10
241.6634546719
 20
211.4610290616
 10
241.5957403283
 20
211.4454190914
 10
241.5297218996
 20
211.4251861122
 10
241.465503693
 20
211.4004292308
 10
241.4033986305
 20
211.3714457674
 10
241.3432196772
 20
211.3381462242
 10
241.2851538679
 20
211.3006200989
 10
241.2300752285
 20
211.2594332057
 10
241.1781338956
 20
211.2147030273
 10
241.1291797325
 20
211.166312081
 10
241.0836363553
 20
211.1144737318
 10
241.0413702308
 20
211.0590444597
 10
241.0025148921
 20
211.0001677847
 10
240.967894555
 20
210.9384876318
 10
240.9375354402
 20
210.8738352657
 10
240.9114113269
 20
210.8063794217
 10
240.890267768
 20
210.7372702298
 10
240.874353281
 20
210.6668910668
 10
240.8634193483
 20
210.5948585559
 10
240.85746597
 20
210.5211726972
  0
LINE
  5
310
100
AcDbEntity
  8
0
100
AcDbLine
 62
250
  6
CONTINUOUS
 10
243.1436211396
 20
211.5488689792
 11
241.8042840257
 21
211.4786772953
  0
LINE
  5
311
100
AcDbEntity
  8
0
100
AcDbLine
 62
7
  6
CONTINUOUS
 10
243.1436211396
 20
212.0490978312
 11
241.7868422508
 21
211.9779920627
  0
LINE
  5
312
100
AcDbEntity
  8
0
100
AcDbLine
 62
250
  6
CONTINUOUS
 10
243.6436211396
 20
211.4191119285
 11
243.4462271826
 21
211.4191119285
  0
LWPOLYLINE
  5
313
100
AcDbEntity
  8
0
100
AcDbPolyline
 62
7
  6
CONTINUOUS
 90
8
 70
0
 43
0.3500000087
 10
227.4232268677
 20
222.7991029175
 10
228.280372998
 20
222.7991029175
 10
228.7089545898
 20
223.2276674561
 10
228.7089545898
 20
224.0848135864
 10
228.280372998
 20
224.513378125
 10
227.4232268677
 20
224.513378125
 10
227.4232268677
 20
225.7991058472
 10
228.7089545898
 20
225.7991058472
  0
LWPOLYLINE
  5
314
100
AcDbEntity
  8
0
100
AcDbPolyline
 62
250
  6
CONTINUOUS
 90
3
 70
0
 10
240.85746597
 20
210.5211726972
 10
240.3692900029
 20
210.5415879363
 10
240.3666151672
 20
210.5417351655
  0
LINE
  5
315
100
AcDbEntity
  8
0
100
AcDbLine
 62
250
  6
CONTINUOUS
 10
243.1436211396
 20
211.5292515209
 11
243.4462271826
 21
211.4191119285
  0
LINE
  5
316
100
AcDbEntity
  8
0
100
AcDbLine
 62
7
  6
CONTINUOUS
 10
243.1436211396
 20
211.9990978312
 11
243.4462271826
 21
211.8889582389
  0
ARC
  5
317
100
AcDbEntity
  8
0
100
AcDbCircle
 62
7
  6
CONTINUOUS
 10
739.9436211396
 20
189.9792668407
 40
500.0
100
AcDbArc
 50
177.6430500092
 51
182.3569499908
  0
ARC
  5
318
100
AcDbEntity
  8
0
100
AcDbCircle
 62
7
  6
CONTINUOUS
 10
241.8653461851
 20
210.4800477606
 40
1.5
100
AcDbArc
 50
93.0
 51
177.6430500092
  0
ARC
  5
319
100
AcDbEntity
  8
0
100
AcDbCircle
 62
7
  6
CONTINUOUS
 10
241.8653461851
 20
169.4784859209
 40
1.5
100
AcDbArc
 50
182.3569499908
 51
267.0
  0
ARC
  5
31A
100
AcDbEntity
  8
0
100
AcDbCircle
 62
7
  6
CONTINUOUS
 10
245.4436211396
 20
172.0382743701
 40
0.4
100
AcDbArc
 50
275.0
 51
360.0
  0
ARC
  5
31B
100
AcDbEntity
  8
0
100
AcDbCircle
 62
7
  6
CONTINUOUS
 10
245.4436211396
 20
174.9202593114
 40
0.4
100
AcDbArc
 50
0.0
 51
85.0
  0
ARC
  5
31C
100
AcDbEntity
  8
0
100
AcDbCircle
 62
7
  6
CONTINUOUS
 10
243.3436211396
 20
168.3514832288
 40
0.3
100
AcDbArc
 50
290.0
 51
360.0
  0
ARC
  5
31D
100
AcDbEntity
  8
0
100
AcDbCircle
 62
7
  6
CONTINUOUS
 10
243.3436211396
 20
211.6070504527
 40
0.3
100
AcDbArc
 50
0.0
 51
70.0
  0
ELLIPSE
  5
31E
100
AcDbEntity
  8
0
100
AcDbEllipse
 62
7
  6
CONTINUOUS
 10
259.7834952114
 20
189.9792668407
 30
0.0
 11
-166.9755028216
 21
499.9311035759
 31
0.0
 40
0.0497084956
 41
-1.5884175772
 42
-1.582238985
  0
ELLIPSE
  5
31F
100
AcDbEntity
  8
0
100
AcDbEllipse
 62
7
  6
CONTINUOUS
 10
315.6540991878
 20
189.9792668407
 30
0.0
 11
-166.9755028216
 21
499.9311035759
 31
0.0
 40
0.0497084956
 41
1.5486575155
 42
1.5548365753
  0
ELLIPSE
  5
320
100
AcDbEntity
  8
0
100
AcDbEllipse
 62
7
  6
CONTINUOUS
 10
255.1559061646
 20
189.9792668407
 30
0.0
 11
166.9755028216
 21
499.9311035759
 31
0.0
 40
0.0497084956
 41
-1.5565953823
 42
-1.5486575155
  0
ELLIPSE
  5
321
100
AcDbEntity
  8
0
100
AcDbEllipse
 62
7
  6
CONTINUOUS
 10
311.0265101411
 20
189.9792668407
 30
0.0
 11
166.9755028216
 21
499.9311035759
 31
0.0
 40
0.0497084956
 41
-4.7009463222
 42
-4.6931422163
  0
ELLIPSE
  5
322
100
AcDbEntity
  8
0
100
AcDbEllipse
 62
7
  6
CONTINUOUS
 10
307.1775045382
 20
168.4101220232
 30
0.0
 11
0.1582391023
 21
-0.4751033573
 31
0.0
 40
0.9984778551
 41
-0.3210503505
 42
1.2488325878
  0
ELLIPSE
  5
323
100
AcDbEntity
  8
0
100
AcDbEllipse
 62
7
  6
CONTINUOUS
 10
307.1775045382
 20
211.5484116582
 30
0.0
 11
-0.1582391023
 21
-0.4751033573
 31
0.0
 40
0.9984778551
 41
1.8927600658
 42
3.4626430041
  0
ELLIPSE
  5
324
100
AcDbEntity
  8
0
100
AcDbEllipse
 62
7
  6
CONTINUOUS
 10
263.6325008142
 20
211.5484116582
 30
0.0
 11
-0.1582391023
 21
0.4751033573
 31
0.0
 40
0.9984778551
 41
-0.3210503505
 42
1.2488325878
  0
ELLIPSE
  5
325
100
AcDbEntity
  8
0
100
AcDbEllipse
 62
7
  6
CONTINUOUS
 10
263.6325008142
 20
168.4101220232
 30
0.0
 11
0.1582391023
 21
0.4751033573
 31
0.0
 40
0.9984778551
 41
1.8927600658
 42
3.4626430041
  0
ENDSEC
  0
SECTION
  2
OBJECTS
  0
DICTIONARY
  5
C
100
AcDbDictionary
280
0
281
1
  3
ACAD_GROUP
350
D
  3
ACAD_MLINESTYLE
350
17
  3
ACAD_LAYOUT
350
1A
  3
ACAD_PLOTSETTINGS
350
19
  3
ACAD_PLOTSTYLENAME
350
E
  0
DICTIONARY
  5
D
102
{ACAD_REACTORS
330
C
102
}
100
AcDbDictionary
280
0
281
1
  0
ACDBDICTIONARYWDFLT
  5
E
102
{ACAD_REACTORS
330
C
102
}
100
AcDbDictionary
281
1
  3
Normal
350
F
100
AcDbDictionaryWithDefault
340
F
  0
DICTIONARY
  5
17
102
{ACAD_REACTORS
330
C
102
}
100
AcDbDictionary
280
0
281
1
  3
Standard
350
18
  0
DICTIONARY
  5
19
102
{ACAD_REACTORS
330
C
102
}
100
AcDbDictionary
281
1
  0
DICTIONARY
  5
1A
102
{ACAD_REACTORS
330
C
102
}
100
AcDbDictionary
281
1
  3
Model
350
326
  3
Layout1
350
327
  0
ACDBPLACEHOLDER
  5
F
102
{ACAD_REACTORS
330
E
102
}
  0
MLINESTYLE
  5
18
102
{ACAD_REACTORS
330
17
102
}
100
AcDbMlineStyle
  2
STANDARD
 70
0
  3

 62
256
 51
90.0
 52
90.0
 71
2
 49
0.5
 62
256
  6
BYLAYER
 49
-0.5
 62
256
  6
BYLAYER
  0
LAYOUT
  5
326
102
{ACAD_REACTORS
330
1A
102
}
100
AcDbPlotSettings
  1

  2
none_device
  4
ANSI_C_(22.00_x_17.00_Inches)
  6

 40
0.0
 41
0.0
 42
0.0
 43
0.0
 44
558.8
 45
431.8
 46
0.0
 47
0.0
 48
0.0
 49
0.0
140
0.0
141
0.0
142
1.0
143
1.0
 70
1024
 72
1
 73
0
 74
0
  7

 75
0
147
1.0
148
0.0
149
0.0
100
AcDbLayout
  1
Model
 70
0
 71
0
 10
0.0
 20
0.0
 11
558.8
 21
431.8
 12
0.0
 22
0.0
 32
0.0
 14
0.0
 24
0.0
 34
0.0
 15
0.0
 25
0.0
 35
0.0
146
0.0
 13
0.0
 23
0.0
 33
0.0
 16
1.0
 26
0.0
 36
0.0
 17
0.0
 27
1.0
 37
0.0
 76
0
330
214
345
0
346
0
  0
LAYOUT
  5
327
102
{ACAD_REACTORS
330
1A
102
}
100
AcDbPlotSettings
  1

  2
none_device
  4
ANSI_C_(22.00_x_17.00_Inches)
  6

 40
0.0
 41
0.0
 42
0.0
 43
0.0
 44
558.8
 45
431.8
 46
0.0
 47
0.0
 48
0.0
 49
0.0
140
0.0
141
0.0
142
1.0
143
1.0
 70
0
 72
1
 73
0
 74
0
  7

 75
0
147
1.0
148
0.0
149
0.0
100
AcDbLayout
  1
Layout1
 70
0
 71
1
 10
0.0
 20
0.0
 11
558.8
 21
431.8
 12
0.0
 22
0.0
 32
0.0
 14
0.0
 24
0.0
 34
0.0
 15
0.0
 25
0.0
 35
0.0
146
0.0
 13
0.0
 23
0.0
 33
0.0
 16
1.0
 26
0.0
 36
0.0
 17
0.0
 27
1.0
 37
0.0
 76
0
330
215
345
0
346
0
  0
ENDSEC
  0
EOF
