  0
SECTION
  2
HEADER
  9
$ACADVER
  1
AC1024
  9
$DWGCODEPAGE
  3
ANSI_1252
  9
$EXTMAX
 10
558.8
 20
431.8
 30
0.0
  9
$EXTMIN
 10
0.0
 20
0.0
 30
0.0
  9
$LIMMIN
 10
0.0
 20
0.0
  9
$LIMMAX
 10
558.8
 20
431.8
  9
$VIEWCTR
 10
279.4
 20
215.9
  9
$VIEWSIZE
 40
431.8
  9
$CLAYER
  8
0
  9
$LTSCALE
 40
30.734
  9
$CELTYPE
  6
BYLAYER
  9
$DIMSCALE
 40
1.0
  9
$DIMASZ
 40
3.0
  9
$DIMEXO
 40
0.5
  9
$DIMDLI
 40
21.2344
  9
$DIMEXE
 40
1.5
  9
$DIMCEN
 40
5.0292
  9
$DIMLFAC
 40
1.0
  9
$DIMBLK
  1
_FILLED
  9
$DIMALT
 70
0
  9
$DIMALTF
 40
0.0393700787
  9
$DIMTXT
 40
3.0
  9
$DIMTOL
 70
1
  9
$DIMLIM
 70
0
  9
$DIMTFAC
 40
1.0
  9
$DIMTP
 40
0.01
  9
$DIMTM
 40
0.01
  9
$DIMGAP
 40
0.625
  9
$DIMDSEP
 70
44
  9
$AUNITS
 70
0
  9
$PDMODE
 70
3
  9
$PDSIZE
 40
3.0
  9
$HANDSEED
  5
359
  9
$TILEMODE
 70
1
  9
$MEASUREMENT
 70
1
  9
$INSUNITS
 70
4
  0
ENDSEC
  0
SECTION
  2
CLASSES
  0
CLASS
  1
ACDBDICTIONARYWDFLT
  2
AcDbDictionaryWithDefault
  3
AutoCAD 2000
 90
0
 91
1
280
0
281
0
  0
CLASS
  1
ACDBPLACEHOLDER
  2
AcDbPlaceHolder
  3
AutoCAD 2000
 90
0
 91
1
280
0
281
0
  0
CLASS
  1
LAYOUT
  2
AcDbLayout
  3
AutoCAD 2000
 90
0
 91
0
280
0
281
0
  0
ENDSEC
  0
SECTION
  2
TABLES
  0
TABLE
  2
VPORT
  5
8
100
AcDbSymbolTable
 70
2
  0
VPORT
  5
1F4
100
AcDbSymbolTableRecord
100
AcDbViewportTableRecord
  2
*ACTIVE
 70
0
 10
0.0
 20
0.0
 11
1.0
 21
1.0
 12
279.4
 22
215.9
 13
0.0
 23
0.0
 14
1.0
 24
1.0
 15
0.0
 25
0.0
 16
0.0
 26
0.0
 36
1.0
 17
0.0
 27
0.0
 37
0.0
 40
431.8
 41
1.2941176471
 42
50.0
 43
0.0
 44
0.0
 50
0.0
 51
0.0
 71
0
 72
100
 73
1
 74
1
 75
0
 76
0
 77
0
 78
0
  0
ENDTAB
  0
TABLE
  2
LTYPE
  5
5
100
AcDbSymbolTable
 70
6
  0
LTYPE
  5
14
100
AcDbSymbolTableRecord
100
AcDbLinetypeTableRecord
  2
BYBLOCK
 70
0
  3

 72
65
 73
0
 40
0.0
  0
LTYPE
  5
15
100
AcDbSymbolTableRecord
100
AcDbLinetypeTableRecord
  2
BYLAYER
 70
0
  3

 72
65
 73
0
 40
0.0
  0
LTYPE
  5
16
100
AcDbSymbolTableRecord
100
AcDbLinetypeTableRecord
  2
CONTINUOUS
 70
64
  3
Solid line
 72
65
 73
0
 40
0.0
  0
LTYPE
  5
1F5
100
AcDbSymbolTableRecord
100
AcDbLinetypeTableRecord
  2
CENTER
 70
64
  3
____ _ ____ _ ____ _ ____ _ ____ _ ____ _ ____
 72
65
 73
4
 40
0.6
 49
0.375
 74
0
 49
-0.075
 74
0
 49
0.075
 74
0
 49
-0.075
 74
0
  0
LTYPE
  5
1F6
100
AcDbSymbolTableRecord
100
AcDbLinetypeTableRecord
  2
HIDDEN
 70
64
  3
- - - - - - - - - - - - - - - - - - - -
 72
65
 73
2
 40
0.2
 49
0.1
 74
0
 49
-0.1
 74
0
  0
LTYPE
  5
1F7
100
AcDbSymbolTableRecord
100
AcDbLinetypeTableRecord
  2
PHANTOM
 70
64
  3
_____ _ _ _____ _ _ _____ _ _ _____
 72
65
 73
6
 40
0.8
 49
0.45
 74
0
 49
-0.05
 74
0
 49
0.1
 74
0
 49
-0.05
 74
0
 49
0.1
 74
0
 49
-0.05
 74
0
  0
LTYPE
  5
1F8
100
AcDbSymbolTableRecord
100
AcDbLinetypeTableRecord
  2
DOT
 70
64
  3
. . . . . . . . . . . . . . . . . . . .
 72
65
 73
2
 40
0.2
 49
0.1
 74
0
 49
-0.1
 74
0
  0
LTYPE
  5
1F9
100
AcDbSymbolTableRecord
100
AcDbLinetypeTableRecord
  2
DASHED
 70
64
  3
- - - - - - - - - - - - - - - - - - - -
 72
65
 73
2
 40
0.2
 49
0.1
 74
0
 49
-0.1
 74
0
  0
ENDTAB
  0
TABLE
  2
LAYER
  5
2
100
AcDbSymbolTable
 70
36
  0
LAYER
  5
10
100
AcDbSymbolTableRecord
100
AcDbLayerTableRecord
  2
0
 70
0
 62
7
  6
CONTINUOUS
370
-3
390
F
  0
LAYER
  5
1FA
100
AcDbSymbolTableRecord
100
AcDbLayerTableRecord
  2
DEFAULT_1
 70
0
 62
7
  6
CENTER
370
-3
390
F
  0
LAYER
  5
1FB
100
AcDbSymbolTableRecord
100
AcDbLayerTableRecord
  2
DEFAULT_2
 70
0
 62
7
  6
HIDDEN
370
-3
390
F
  0
LAYER
  5
1FC
100
AcDbSymbolTableRecord
100
AcDbLayerTableRecord
  2
DEFAULT_3
 70
0
 62
7
  6
PHANTOM
370
-3
390
F
  0
LAYER
  5
1FD
100
AcDbSymbolTableRecord
100
AcDbLayerTableRecord
  2
ASSI
 70
0
 62
7
  6
CONTINUOUS
370
-3
390
F
  0
LAYER
  5
1FE
100
AcDbSymbolTableRecord
100
AcDbLayerTableRecord
  2
COORDINATE
 70
0
 62
7
  6
CONTINUOUS
370
-3
390
F
  0
LAYER
  5
1FF
100
AcDbSymbolTableRecord
100
AcDbLayerTableRecord
  2
COPY_PUBLISH
 70
0
 62
7
  6
CONTINUOUS
370
-3
390
F
  0
LAYER
  5
200
100
AcDbSymbolTableRecord
100
AcDbLayerTableRecord
  2
COSMETIC
 70
0
 62
7
  6
CONTINUOUS
370
-3
390
F
  0
LAYER
  5
201
100
AcDbSymbolTableRecord
100
AcDbLayerTableRecord
  2
COSMETICI
 70
0
 62
7
  6
CONTINUOUS
370
-3
390
F
  0
LAYER
  5
202
100
AcDbSymbolTableRecord
100
AcDbLayerTableRecord
  2
CURVE
 70
0
 62
7
  6
CONTINUOUS
370
-3
390
F
  0
LAYER
  5
203
100
AcDbSymbolTableRecord
100
AcDbLayerTableRecord
  2
DRAFT
 70
0
 62
7
  6
CONTINUOUS
370
-3
390
F
  0
LAYER
  5
204
100
AcDbSymbolTableRecord
100
AcDbLayerTableRecord
  2
IMPORT_IGES
 70
0
 62
7
  6
CONTINUOUS
370
-3
390
F
  0
LAYER
  5
205
100
AcDbSymbolTableRecord
100
AcDbLayerTableRecord
  2
INTFCLR_11
 70
0
 62
7
  6
CONTINUOUS
370
-3
390
F
  0
LAYER
  5
206
100
AcDbSymbolTableRecord
100
AcDbLayerTableRecord
  2
INTF_1
 70
0
 62
7
  6
CONTINUOUS
370
-3
390
F
  0
LAYER
  5
207
100
AcDbSymbolTableRecord
100
AcDbLayerTableRecord
  2
INTF_3
 70
0
 62
7
  6
CONTINUOUS
370
-3
390
F
  0
LAYER
  5
208
100
AcDbSymbolTableRecord
100
AcDbLayerTableRecord
  2
NOTE
 70
0
 62
7
  6
CONTINUOUS
370
-3
390
F
  0
LAYER
  5
209
100
AcDbSymbolTableRecord
100
AcDbLayerTableRecord
  2
PIANI
 70
0
 62
7
  6
CONTINUOUS
370
-3
390
F
  0
LAYER
  5
20A
100
AcDbSymbolTableRecord
100
AcDbLayerTableRecord
  2
PUNTI
 70
0
 62
7
  6
CONTINUOUS
370
-3
390
F
  0
LAYER
  5
20B
100
AcDbSymbolTableRecord
100
AcDbLayerTableRecord
  2
RACCORDO
 70
0
 62
7
  6
CONTINUOUS
370
-3
390
F
  0
LAYER
  5
20C
100
AcDbSymbolTableRecord
100
AcDbLayerTableRecord
  2
SIMBOLI
 70
0
 62
7
  6
CONTINUOUS
370
-3
390
F
  0
LAYER
  5
20D
100
AcDbSymbolTableRecord
100
AcDbLayerTableRecord
  2
SMUSSO
 70
0
 62
7
  6
CONTINUOUS
370
-3
390
F
  0
LAYER
  5
20E
100
AcDbSymbolTableRecord
100
AcDbLayerTableRecord
  2
SNAPLINE
 70
0
 62
7
  6
CONTINUOUS
370
-3
390
F
  0
LAYER
  5
20F
100
AcDbSymbolTableRecord
100
AcDbLayerTableRecord
  2
SUPERFICI
 70
0
 62
7
  6
CONTINUOUS
370
-3
390
F
  0
LAYER
  5
210
100
AcDbSymbolTableRecord
100
AcDbLayerTableRecord
  2
TRASH
 70
0
 62
7
  6
CONTINUOUS
370
-3
390
F
  0
LAYER
  5
211
100
AcDbSymbolTableRecord
100
AcDbLayerTableRecord
  2
___SHELL
 70
0
 62
7
  6
CONTINUOUS
370
-3
390
F
  0
ENDTAB
  0
TABLE
  2
STYLE
  5
3
100
AcDbSymbolTable
 70
1
  0
STYLE
  5
11
100
AcDbSymbolTableRecord
100
AcDbTextStyleTableRecord
  2
STANDARD
 70
0
 40
0.0
 41
0.8
 50
0.0
 71
0
 42
0.2
  3
txt
  4

  0
STYLE
  5
212
100
AcDbSymbolTableRecord
100
AcDbTextStyleTableRecord
  2
TEXTSTYLE_1
 70
0
 40
0.0
 41
0.8
 50
0.0
 71
0
 42
0.2
  3
gdt
  4

  0
ENDTAB
  0
TABLE
  2
VIEW
  5
6
100
AcDbSymbolTable
 70
0
  0
ENDTAB
  0
TABLE
  2
UCS
  5
7
100
AcDbSymbolTable
 70
0
  0
ENDTAB
  0
TABLE
  2
APPID
  5
9
100
AcDbSymbolTable
 70
1
  0
APPID
  5
213
100
AcDbSymbolTableRecord
100
AcDbRegAppTableRecord
  2
ACAD
 70
0
  0
ENDTAB
  0
TABLE
  2
BLOCK_RECORD
  5
1
100
AcDbSymbolTable
 70
0
  0
BLOCK_RECORD
  5
214
100
AcDbSymbolTableRecord
100
AcDbBlockTableRecord
  2
*Model_Space
  0
BLOCK_RECORD
  5
215
100
AcDbSymbolTableRecord
100
AcDbBlockTableRecord
  2
*Paper_Space
  0
BLOCK_RECORD
  5
216
100
AcDbSymbolTableRecord
100
AcDbBlockTableRecord
  2
_FILLED
  0
BLOCK_RECORD
  5
217
100
AcDbSymbolTableRecord
100
AcDbBlockTableRecord
  2
*D0
  0
BLOCK_RECORD
  5
218
100
AcDbSymbolTableRecord
100
AcDbBlockTableRecord
  2
*D1
  0
BLOCK_RECORD
  5
219
100
AcDbSymbolTableRecord
100
AcDbBlockTableRecord
  2
*D2
  0
ENDTAB
  0
TABLE
  2
DIMSTYLE
  5
A
100
AcDbSymbolTable
 70
1
100
AcDbDimStyleTable
 71
0
  0
DIMSTYLE
105
21A
100
AcDbSymbolTableRecord
100
AcDbDimStyleTableRecord
  2
STANDARD
 70
0
  3

  4

 40
1.0
 41
3.0
 42
0.5
 43
0.38
 44
1.5
 45
0.0
 46
0.0
 47
0.01
 48
0.01
140
3.0
141
0.09
142
0.0
143
25.4
144
1.0
145
0.0
146
1.0
147
0.625
 71
1
 72
0
 73
0
 74
0
 75
0
 76
0
 77
1
 78
8
 79
2
170
0
171
1
172
0
173
0
174
0
175
0
176
0
177
0
178
0
270
2
179
2
271
2
272
2
273
2
274
2
275
0
280
0
281
0
282
0
283
1
284
8
285
0
286
0
287
3
288
0
340
11
278
44
341
216
342
216
343
216
344
216
  0
DIMSTYLE
105
21B
100
AcDbSymbolTableRecord
100
AcDbDimStyleTableRecord
  2
DIMSTYLE_1
 70
0
  3

  4

 40
1.0
 41
3.0
 42
0.5
 43
0.38
 44
1.5
 45
0.0
 46
0.0
 47
0.0
 48
0.0
140
3.0
141
0.09
142
0.0
143
25.4
144
1.0
145
0.0
146
1.0
147
0.75
 71
0
 72
0
 73
0
 74
0
 75
0
 76
0
 77
1
 78
8
 79
2
170
0
171
1
172
0
173
0
174
0
175
0
176
0
177
0
178
0
270
2
179
2
271
2
272
2
273
2
274
2
275
0
280
0
281
0
282
0
283
1
284
8
285
0
286
0
287
3
288
0
340
11
278
44
341
216
342
216
343
216
344
216
  0
DIMSTYLE
105
21C
100
AcDbSymbolTableRecord
100
AcDbDimStyleTableRecord
  2
DIMSTYLE_2
 70
0
  3

  4

 40
1.0
 41
3.0
 42
0.5
 43
0.38
 44
1.5
 45
0.0
 46
0.0
 47
0.0
 48
0.0
140
3.0
141
0.09
142
0.0
143
25.4
144
1.0
145
0.0
146
1.0
147
0.75
 71
0
 72
0
 73
0
 74
0
 75
0
 76
0
 77
1
 78
8
 79
2
170
0
171
1
172
0
173
0
174
0
175
0
176
0
177
0
178
0
270
2
179
2
271
1
272
1
273
2
274
2
275
0
280
0
281
0
282
0
283
1
284
8
285
0
286
0
287
3
288
0
340
11
278
44
341
216
342
216
343
216
344
216
  0
ENDTAB
  0
ENDSEC
  0
SECTION
  2
BLOCKS
  0
BLOCK
  5
20
100
AcDbEntity
  8
0
100
AcDbBlockBegin
  2
*Model_Space
 70
0
 10
0.0
 20
0.0
 30
0.0
  3
*Model_Space
  1

  0
ENDBLK
  5
21
100
AcDbEntity
  8
0
100
AcDbBlockEnd
  0
BLOCK
  5
1C
100
AcDbEntity
  8
0
100
AcDbBlockBegin
  2
*Paper_Space
 70
0
 10
0.0
 20
0.0
 30
0.0
  3
*Paper_Space
  1

  0
ENDBLK
  5
1D
100
AcDbEntity
  8
0
100
AcDbBlockEnd
  0
BLOCK
  5
21D
100
AcDbEntity
  8
0
100
AcDbBlockBegin
  2
_FILLED
 70
64
 10
0.0
 20
0.0
  3
_FILLED
  1

  0
SOLID
  5
21E
100
AcDbEntity
  8
0
  6
BYBLOCK
 62
0
100
AcDbTrace
 10
0.0
 20
0.0
 11
-1.0
 21
0.3166666667
 12
-1.0
 22
-0.3166666667
 13
-1.0
 23
-0.3166666667
  0
ENDBLK
  5
21F
100
AcDbEntity
  8
0
  6
BYBLOCK
 62
0
100
AcDbBlockEnd
  0
BLOCK
  5
220
100
AcDbEntity
  8
0
100
AcDbBlockBegin
 62
7
  6
CONTINUOUS
  2
*D0
 70
65
 10
0.0
 20
0.0
  3
*D0
  1

  0
MTEXT
  5
221
100
AcDbEntity
  8
0
100
AcDbMText
 62
7
  6
CONTINUOUS
  7
STANDARD
 71
3
 72
1
 10
236.1687041179
 20
230.7439307033
 30
0.0
 11
1.0
 21
0.0
 31
0.0
 73
2
 44
0.9
  1
{\ftxt;\W0.0001;\H0.0001;\~}{\ftxt;\W2.0714285714;\H3.0; }{\ftxt;\W0.0001;\H0.0001;\~}
 40
3.0
 41
9.3214285714
  0
LINE
  5
222
100
AcDbEntity
  8
0
100
AcDbLine
 62
7
  6
CONTINUOUS
 10
247.5252938785
 20
180.3650230318
 11
247.5252938785
 21
228.4939307033
  0
LINE
  5
223
100
AcDbEntity
  8
0
100
AcDbLine
 62
7
  6
CONTINUOUS
 10
241.6252938785
 20
195.4240997128
 11
241.6252938785
 21
228.4939307033
  0
LINE
  5
224
100
AcDbEntity
  8
0
100
AcDbLine
 62
7
  6
CONTINUOUS
 10
247.5252938785
 20
226.9939307033
 11
251.5252938785
 21
226.9939307033
  0
LINE
  5
225
100
AcDbEntity
  8
0
100
AcDbLine
 62
7
  6
CONTINUOUS
 10
251.5252938785
 20
226.9939307033
 11
244.5752938785
 21
226.9939307033
  0
LINE
  5
226
100
AcDbEntity
  8
0
100
AcDbLine
 62
7
  6
CONTINUOUS
 10
241.6252938785
 20
226.9939307033
 11
229.9544184036
 21
226.9939307033
  0
LINE
  5
227
100
AcDbEntity
  8
0
100
AcDbLine
 62
7
  6
CONTINUOUS
 10
229.9544184036
 20
226.9939307033
 11
244.5752938785
 21
226.9939307033
  0
INSERT
  5
228
100
AcDbEntity
  8
0
100
AcDbBlockReference
 62
7
  6
CONTINUOUS
  2
_FILLED
 10
247.5252938785
 20
226.9939307033
 41
3.0
 42
3.0
 43
3.0
 50
180.0
  0
INSERT
  5
229
100
AcDbEntity
  8
0
100
AcDbBlockReference
 62
7
  6
CONTINUOUS
  2
_FILLED
 10
241.6252938785
 20
226.9939307033
 41
3.0
 42
3.0
 43
3.0
  0
ENDBLK
  5
22A
100
AcDbEntity
  8
0
  6
BYBLOCK
 62
0
100
AcDbBlockEnd
  0
BLOCK
  5
22B
100
AcDbEntity
  8
0
100
AcDbBlockBegin
 62
7
  6
CONTINUOUS
  2
*D1
 70
65
 10
0.0
 20
0.0
  3
*D1
  1

  0
MTEXT
  5
22C
100
AcDbEntity
  8
0
100
AcDbMText
 62
7
  6
CONTINUOUS
  7
STANDARD
 71
2
 72
1
 10
283.4274634595
 20
230.7439307033
 30
0.0
 11
1.0
 21
0.0
 31
0.0
 73
2
 44
0.9
  1
{\ftxt;\W0.0001;\H0.0001;\~}{\ftxt;\W2.8571428571;\H3.0; }{\ftxt;\W0.0001;\H0.0001;\~}
 40
3.0
 41
12.8571428571
  0
LINE
  5
22D
100
AcDbEntity
  8
0
100
AcDbLine
 62
7
  6
CONTINUOUS
 10
261.1548854335
 20
216.9937018512
 11
261.1548854335
 21
228.4939307033
  0
LINE
  5
22E
100
AcDbEntity
  8
0
100
AcDbLine
 62
7
  6
CONTINUOUS
 10
305.7000414856
 20
216.9937018512
 11
305.7000414856
 21
228.4939307033
  0
LINE
  5
22F
100
AcDbEntity
  8
0
100
AcDbLine
 62
7
  6
CONTINUOUS
 10
261.1548854335
 20
226.9939307033
 11
283.4274634595
 21
226.9939307033
  0
LINE
  5
230
100
AcDbEntity
  8
0
100
AcDbLine
 62
7
  6
CONTINUOUS
 10
305.7000414856
 20
226.9939307033
 11
283.4274634595
 21
226.9939307033
  0
INSERT
  5
231
100
AcDbEntity
  8
0
100
AcDbBlockReference
 62
7
  6
CONTINUOUS
  2
_FILLED
 10
261.1548854335
 20
226.9939307033
 41
3.0
 42
3.0
 43
3.0
 50
180.0
  0
INSERT
  5
232
100
AcDbEntity
  8
0
100
AcDbBlockReference
 62
7
  6
CONTINUOUS
  2
_FILLED
 10
305.7000414856
 20
226.9939307033
 41
3.0
 42
3.0
 43
3.0
  0
ENDBLK
  5
233
100
AcDbEntity
  8
0
  6
BYBLOCK
 62
0
100
AcDbBlockEnd
  0
BLOCK
  5
234
100
AcDbEntity
  8
0
100
AcDbBlockBegin
 62
7
  6
CONTINUOUS
  2
*D2
 70
65
 10
0.0
 20
0.0
  3
*D2
  1

  0
MTEXT
  5
235
100
AcDbEntity
  8
0
100
AcDbMText
 62
7
  6
CONTINUOUS
  7
STANDARD
 71
2
 72
1
 10
311.9500414856
 20
194.9240997128
 30
0.0
 11
0.0
 21
1.0
 31
0.0
 73
2
 44
0.9
  1
{\ftxt;\W0.0001;\H0.0001;\~}{\ftxt;\W2.7142857143;\H3.0; }{\ftxt;\W0.0001;\H0.0001;\~}
 40
3.0
 41
12.2142857143
  0
LINE
  5
236
100
AcDbEntity
  8
0
100
AcDbLine
 62
7
  6
CONTINUOUS
 10
305.7004220853
 20
216.9939307033
 11
317.2000414856
 21
216.9939307033
  0
LINE
  5
237
100
AcDbEntity
  8
0
100
AcDbLine
 62
7
  6
CONTINUOUS
 10
305.7004220853
 20
172.8542687223
 11
317.2000414856
 21
172.8542687223
  0
LINE
  5
238
100
AcDbEntity
  8
0
100
AcDbLine
 62
7
  6
CONTINUOUS
 10
315.7000414856
 20
216.9939307033
 11
315.7000414856
 21
194.9240997128
  0
LINE
  5
239
100
AcDbEntity
  8
0
100
AcDbLine
 62
7
  6
CONTINUOUS
 10
315.7000414856
 20
172.8542687223
 11
315.7000414856
 21
194.9240997128
  0
INSERT
  5
23A
100
AcDbEntity
  8
0
100
AcDbBlockReference
 62
7
  6
CONTINUOUS
  2
_FILLED
 10
315.7000414856
 20
216.9939307033
 41
3.0
 42
3.0
 43
3.0
 50
90.0
  0
INSERT
  5
23B
100
AcDbEntity
  8
0
100
AcDbBlockReference
 62
7
  6
CONTINUOUS
  2
_FILLED
 10
315.7000414856
 20
172.8542687223
 41
3.0
 42
3.0
 43
3.0
 50
270.0
  0
ENDBLK
  5
23C
100
AcDbEntity
  8
0
  6
BYBLOCK
 62
0
100
AcDbBlockEnd
  0
ENDSEC
  0
SECTION
  2
ENTITIES
  0
DIMENSION
  5
23D
100
AcDbEntity
  8
0
100
AcDbDimension
 62
7
  6
CONTINUOUS
  2
*D0
 10
241.6252938785
 20
226.9939307033
 11
232.6329863892
 21
226.9939307033
 70
160
 71
3
 72
2
 41
0.9
 42
5.9
  1
{\ftxt;\W0.0001;\H0.0001;\~}{\ftxt;\W2.0714285714;\H3.0; }{\ftxt;\W0.0001;\H0.0001;\~}
  3
DIMSTYLE_1
100
AcDbAlignedDimension
 13
247.5252938785
 23
179.8650230318
 14
241.6252938785
 24
194.9240997128
 50
180.0
100
AcDbRotatedDimension
  0
DIMENSION
  5
23E
100
AcDbEntity
  8
0
100
AcDbDimension
 62
7
  6
CONTINUOUS
  2
*D1
 10
305.7000414856
 20
226.9939307033
 11
282.9988950562
 21
226.9939307033
 70
160
 71
2
 72
2
 41
0.9
 42
44.545156052
  1
{\ftxt;\W0.0001;\H0.0001;\~}{\ftxt;\W2.8571428571;\H3.0; }{\ftxt;\W0.0001;\H0.0001;\~}
  3
DIMSTYLE_2
100
AcDbAlignedDimension
 13
261.1548854335
 23
216.4937018512
 14
305.7000414856
 24
216.4937018512
100
AcDbRotatedDimension
  0
DIMENSION
  5
23F
100
AcDbEntity
  8
0
100
AcDbDimension
 62
7
  6
CONTINUOUS
  2
*D2
 10
315.7000414856
 20
172.8542687223
 11
315.7000414856
 21
194.4955226368
 70
160
 71
2
 72
2
 41
0.9
 42
44.139661981
  1
{\ftxt;\W0.0001;\H0.0001;\~}{\ftxt;\W2.7142857143;\H3.0; }{\ftxt;\W0.0001;\H0.0001;\~}
  3
DIMSTYLE_2
100
AcDbAlignedDimension
 13
305.2004220853
 23
216.9939307033
 14
305.2004220853
 24
172.8542687223
 50
270.0
100
AcDbRotatedDimension
  0
LWPOLYLINE
  5
240
100
AcDbEntity
  8
0
100
AcDbPolyline
 62
250
  6
CONTINUOUS
 90
14
 70
0
 10
261.1947904204
 20
215.4660055606
 10
261.1983698055
 20
215.4681314349
 10
261.2072671133
 20
215.4702345381
 10
261.2213870647
 20
215.4722923368
 10
261.2405784244
 20
215.4742827824
 10
261.2646356147
 20
215.4761845479
 10
261.2933009124
 20
215.4779772568
 10
261.3262672249
 20
215.4796417008
 10
261.3631813669
 20
215.4811600446
 10
261.4036478274
 20
215.4825160179
 10
261.4472330499
 20
215.4836950904
 10
261.4934700503
 20
215.484684628
 10
261.5418633915
 20
215.4854740273
 10
261.5918945471
 20
215.4860548296
  0
LWPOLYLINE
  5
241
100
AcDbEntity
  8
0
100
AcDbPolyline
 62
250
  6
CONTINUOUS
 90
15
 70
0
 10
261.1947904204
 20
174.3821938563
 10
261.1983699235
 20
174.3800679456
 10
261.2072675132
 20
174.377964813
 10
261.2213878562
 20
174.3759069926
 10
261.2405796601
 20
174.3739165328
 10
261.2646372939
 20
174.3720147605
 10
261.2933029921
 20
174.3702220522
 10
261.3262696156
 20
174.3685576159
 10
261.3631839432
 20
174.3670392852
 10
261.403650456
 20
174.3656833284
 10
261.4472355751
 20
174.3645042738
 10
261.4934723072
 20
174.3635147544
 10
261.5418652485
 20
174.3627253725
 10
261.5918958923
 20
174.3621445858
 10
261.694714268
 20
174.361631388
  0
LWPOLYLINE
  5
242
100
AcDbEntity
  8
0
100
AcDbPolyline
 62
250
  6
CONTINUOUS
 90
16
 70
0
 10
261.1782636498
 20
173.4246892582
 10
261.1810467019
 20
173.3725278544
 10
261.1892700335
 20
173.3209370987
 10
261.2028437053
 20
173.2704815636
 10
261.221619229
 20
173.2217134024
 10
261.2453911848
 20
173.1751663216
 10
261.2738994635
 20
173.1313497381
 10
261.3068321288
 20
173.0907431752
 10
261.3438288162
 20
173.0537910422
 10
261.3844846588
 20
173.0208977756
 10
261.4283547624
 20
172.9924233713
 10
261.4749590458
 20
172.9686794747
 10
261.5237874638
 20
172.9499259763
 10
261.5743056472
 20
172.9363681327
 10
261.6259607576
 20
172.9281543336
 10
261.6781874976
 20
172.9253744914
  0
LWPOLYLINE
  5
243
100
AcDbEntity
  8
0
100
AcDbPolyline
 62
250
  6
CONTINUOUS
 90
16
 70
0
 10
261.1782636498
 20
216.4235101674
 10
261.1810468064
 20
216.4756725566
 10
261.1892704137
 20
216.5272641074
 10
261.2028444768
 20
216.5777202287
 10
261.2216204482
 20
216.6264887546
 10
261.2453928534
 20
216.6730359877
 10
261.2739015393
 20
216.7168525393
 10
261.3068345217
 20
216.7574589037
 10
261.3438313991
 20
216.7944107059
 10
261.3844872967
 20
216.8273035643
 10
261.4283572974
 20
216.8557775165
 10
261.4749613107
 20
216.8795209584
 10
261.5237893263
 20
216.8982740542
 10
261.5743069955
 20
216.9118315797
 10
261.6259614792
 20
216.9200451683
 10
261.6781874974
 20
216.9228249348
  0
LWPOLYLINE
  5
244
100
AcDbEntity
  8
0
100
AcDbPolyline
 62
250
  6
CONTINUOUS
 90
8
 70
0
 10
261.1862994548
 20
216.2835925723
 10
261.1852864113
 20
216.3155407651
 10
261.1842438542
 20
216.3438022352
 10
261.1831656266
 20
216.3681122995
 10
261.1820306048
 20
216.3882592915
 10
261.1808317474
 20
216.4041726558
 10
261.1795760957
 20
216.4159229477
 10
261.1782636498
 20
216.4235101674
  0
LWPOLYLINE
  5
245
100
AcDbEntity
  8
0
100
AcDbPolyline
 62
250
  6
CONTINUOUS
 90
6
 70
0
 10
261.6841677099
 20
216.8030252598
 10
261.6830897003
 20
216.8391650092
 10
261.6819548032
 20
216.8699486221
 10
261.6807559222
 20
216.8948329204
 10
261.6795001536
 20
216.9127127654
 10
261.6781874974
 20
216.9228249348
  0
LINE
  5
246
100
AcDbEntity
  8
0
100
AcDbLine
 62
250
  6
CONTINUOUS
 10
261.1882211834
 20
216.2072595868
 11
261.1862994548
 21
216.2835925723
  0
LINE
  5
247
100
AcDbEntity
  8
0
100
AcDbLine
 62
250
  6
CONTINUOUS
 10
261.6862231752
 20
216.7127278151
 11
261.6841677099
 21
216.8030252598
  0
LINE
  5
248
100
AcDbEntity
  8
0
100
AcDbLine
 62
250
  6
CONTINUOUS
 10
261.1900349428
 20
216.1115781047
 11
261.1882211834
 21
216.2072595868
  0
LINE
  5
249
100
AcDbEntity
  8
0
100
AcDbLine
 62
250
  6
CONTINUOUS
 10
261.6881450467
 20
216.5984490639
 11
261.6862231752
 21
216.7127278151
  0
LINE
  5
24A
100
AcDbEntity
  8
0
100
AcDbLine
 62
250
  6
CONTINUOUS
 10
261.1922931865
 20
215.9415586111
 11
261.1900349428
 21
216.1115781047
  0
LINE
  5
24B
100
AcDbEntity
  8
0
100
AcDbLine
 62
250
  6
CONTINUOUS
 10
261.6907826119
 20
216.3748211496
 11
261.6881450467
 21
216.5984490639
  0
LINE
  5
24C
100
AcDbEntity
  8
0
100
AcDbLine
 62
250
  6
CONTINUOUS
 10
261.1938635907
 20
215.7491449264
 11
261.1922931865
 21
215.9415586111
  0
LINE
  5
24D
100
AcDbEntity
  8
0
100
AcDbLine
 62
250
  6
CONTINUOUS
 10
261.6937874023
 20
215.9114235788
 11
261.6907826119
 21
216.3748211496
  0
LINE
  5
24E
100
AcDbEntity
  8
0
100
AcDbLine
 62
250
  6
CONTINUOUS
 10
261.1947904204
 20
215.4660055693
 11
261.1938635907
 21
215.7491449264
  0
LINE
  5
24F
100
AcDbEntity
  8
0
100
AcDbLine
 62
7
  6
CONTINUOUS
 10
261.1548854335
 20
216.4937018512
 11
261.1548854335
 21
173.3544975743
  0
LINE
  5
250
100
AcDbEntity
  8
0
100
AcDbLine
 62
250
  6
CONTINUOUS
 10
261.1967054263
 20
177.3160089401
 11
261.1947904204
 21
215.4660055693
  0
LINE
  5
251
100
AcDbEntity
  8
0
100
AcDbLine
 62
250
  6
CONTINUOUS
 10
261.6966292739
 20
177.2981768709
 11
261.6937874023
 21
215.9114235788
  0
LINE
  5
252
100
AcDbEntity
  8
0
100
AcDbLine
 62
250
  6
CONTINUOUS
 10
261.1942174797
 20
174.1660138656
 11
261.1967054263
 21
177.3160089401
  0
LINE
  5
253
100
AcDbEntity
  8
0
100
AcDbLine
 62
250
  6
CONTINUOUS
 10
261.6933903214
 20
173.8466365542
 11
261.6966292739
 21
177.2981768709
  0
LINE
  5
254
100
AcDbEntity
  8
0
100
AcDbLine
 62
250
  6
CONTINUOUS
 10
261.6910519508
 20
173.5023856946
 11
261.6933903214
 21
173.8466365542
  0
LINE
  5
255
100
AcDbEntity
  8
0
100
AcDbLine
 62
250
  6
CONTINUOUS
 10
261.1924387363
 20
173.920305696
 11
261.1942174797
 21
174.1660138656
  0
LINE
  5
256
100
AcDbEntity
  8
0
100
AcDbLine
 62
250
  6
CONTINUOUS
 10
261.6884796041
 20
173.2732216163
 11
261.6910519508
 21
173.5023856946
  0
LINE
  5
257
100
AcDbEntity
  8
0
100
AcDbLine
 62
250
  6
CONTINUOUS
 10
261.1903430856
 20
173.7559540894
 11
261.1924387363
 21
173.920305696
  0
LINE
  5
258
100
AcDbEntity
  8
0
100
AcDbLine
 62
250
  6
CONTINUOUS
 10
261.6864601627
 20
173.1479886976
 11
261.6884796041
 21
173.2732216163
  0
LINE
  5
259
100
AcDbEntity
  8
0
100
AcDbLine
 62
250
  6
CONTINUOUS
 10
261.188555715
 20
173.656587342
 11
261.1903430856
 21
173.7559540894
  0
LINE
  5
25A
100
AcDbEntity
  8
0
100
AcDbLine
 62
250
  6
CONTINUOUS
 10
305.2630319148
 20
174.362144588
 11
305.160212651
 21
174.3616313603
  0
LINE
  5
25B
100
AcDbEntity
  8
0
100
AcDbLine
 62
7
  6
CONTINUOUS
 10
305.2004220853
 20
172.8542687223
 11
261.6545048338
 21
172.8542687223
  0
LINE
  5
25C
100
AcDbEntity
  8
0
100
AcDbLine
 62
250
  6
CONTINUOUS
 10
261.6781874974
 20
172.9253744908
 11
305.1767394217
 21
172.9253744908
  0
LWPOLYLINE
  5
25D
100
AcDbEntity
  8
0
100
AcDbPolyline
 62
250
  6
CONTINUOUS
 90
7
 70
0
 10
261.6781874974
 20
172.9253744908
 10
261.6794701981
 20
172.935131629
 10
261.6807194793
 20
172.95269505
 10
261.681935341
 20
172.9777877745
 10
261.6831196016
 20
173.0099820406
 10
261.6842704426
 20
173.0490085754
 10
261.6864601627
 20
173.1479886976
  0
LINE
  5
25E
100
AcDbEntity
  8
0
100
AcDbLine
 62
250
  6
CONTINUOUS
 10
261.694714268
 20
174.361631388
 11
305.1602126511
 21
174.361631388
  0
LWPOLYLINE
  5
25F
100
AcDbEntity
  8
0
100
AcDbPolyline
 62
250
  6
CONTINUOUS
 90
9
 70
0
 10
261.1782636498
 20
173.4246892582
 10
261.1795461742
 20
173.4315374344
 10
261.1807953587
 20
173.4431848309
 10
261.1820112032
 20
173.4596314479
 10
261.183195575
 20
173.4809701531
 10
261.1843466069
 20
173.5071080788
 10
261.185458697
 20
173.5377666209
 10
261.1865364278
 20
173.5731021788
 10
261.188555715
 20
173.656587342
  0
LINE
  5
260
100
AcDbEntity
  8
0
100
AcDbLine
 62
250
  6
CONTINUOUS
 10
261.1548854335
 20
173.3544975743
 11
261.1782636498
 21
173.4246892582
  0
LINE
  5
261
100
AcDbEntity
  8
0
100
AcDbLine
 62
250
  6
CONTINUOUS
 10
261.6545048338
 20
172.8542687223
 11
261.6781874974
 21
172.9253744908
  0
LINE
  5
262
100
AcDbEntity
  8
0
100
AcDbLine
 62
250
  6
CONTINUOUS
 10
261.1782636498
 20
216.4235101674
 11
261.1548854335
 21
216.4937018512
  0
LINE
  5
263
100
AcDbEntity
  8
0
100
AcDbLine
 62
250
  6
CONTINUOUS
 10
261.6781874974
 20
216.9228249348
 11
261.6545048338
 21
216.9939307033
  0
LWPOLYLINE
  5
264
100
AcDbEntity
  8
0
100
AcDbPolyline
 62
7
  6
CONTINUOUS
 90
3
 70
0
 43
0.3500000087
 10
284.5703154175
 20
228.0296503174
 10
284.498896521
 20
227.8153595215
 10
284.3560416748
 20
227.5296498291
  0
LWPOLYLINE
  5
265
100
AcDbEntity
  8
0
100
AcDbPolyline
 62
7
  6
CONTINUOUS
 90
9
 70
0
 10
280.3462031577
 20
191.9451796734
 10
280.3149583249
 20
191.9599003297
 10
280.2853223327
 20
191.978094932
 10
280.2580874481
 20
191.9997228291
 10
280.2331617369
 20
192.0246506724
 10
280.211535903
 20
192.0518881807
 10
280.1933432959
 20
192.0815282803
 10
280.1784505662
 20
192.1134780493
 10
280.1674483698
 20
192.1464684314
  0
LWPOLYLINE
  5
266
100
AcDbEntity
  8
0
100
AcDbPolyline
 62
7
  6
CONTINUOUS
 90
9
 70
0
 10
280.31813461
 20
191.9581183925
 10
280.2914096275
 20
191.9740262725
 10
280.2661205926
 20
191.9928052476
 10
280.2431363028
 20
192.0138471599
 10
280.2225471224
 20
192.0372491063
 10
280.2042626869
 20
192.0629139935
 10
280.1888807006
 20
192.0899423778
 10
280.1765185173
 20
192.118317955
 10
280.1670587831
 20
192.1480570316
  0
LWPOLYLINE
  5
267
100
AcDbEntity
  8
0
100
AcDbPolyline
 62
7
  6
CONTINUOUS
 90
21
 70
0
 10
278.969174152
 20
195.041816495
 10
278.9542801812
 20
195.0704770276
 10
278.9425893326
 20
195.1000373856
 10
278.934322418
 20
195.1303752699
 10
278.9292586254
 20
195.1616129792
 10
278.9274622459
 20
195.1928424129
 10
278.9289739591
 20
195.2240412122
 10
278.9337530855
 20
195.2552317356
 10
278.9417418774
 20
195.2855729592
 10
278.9531543341
 20
195.3152148469
 10
278.9677764563
 20
195.3440074346
 10
278.9849084995
 20
195.3706598067
 10
279.0044729554
 20
195.3948749439
 10
279.0265473321
 20
195.4169498658
 10
279.0506644097
 20
195.4364847153
 10
279.0770338442
 20
195.453547524
 10
279.1054459796
 20
195.4680702608
 10
279.1348046276
 20
195.4794489743
 10
279.1647443923
 20
195.4874823475
 10
279.1956306696
 20
195.4923716979
 10
279.2274634595
 20
195.4941170255
  0
LWPOLYLINE
  5
268
100
AcDbEntity
  8
0
100
AcDbPolyline
 62
7
  6
CONTINUOUS
 90
10
 70
0
 10
280.1607471405
 20
192.1783090788
 10
280.1576304428
 20
192.2090668251
 10
280.1576618366
 20
192.2403375426
 10
280.1609464041
 20
192.2712925162
 10
280.1676647579
 20
192.3021043166
 10
280.1776362852
 20
192.3326003723
 10
280.1904242303
 20
192.3614342527
 10
280.2058830077
 20
192.3881571458
 10
280.2241582028
 20
192.4132178603
 10
280.2452498155
 20
192.4366163949
  0
LWPOLYLINE
  5
269
100
AcDbEntity
  8
0
100
AcDbPolyline
 62
7
  6
CONTINUOUS
 90
10
 70
0
 10
281.1505472119
 20
192.66475652
 10
281.153591122
 20
192.6338477992
 10
281.1533814482
 20
192.6026616336
 10
281.1499736557
 20
192.5718933412
 10
281.1432570464
 20
192.5413891043
 10
281.1333423184
 20
192.5113027401
 10
281.1206170299
 20
192.4827910165
 10
281.1052103671
 20
192.4562395216
 10
281.0869931439
 20
192.4312626648
 10
281.0659653603
 20
192.407860445
  0
LWPOLYLINE
  5
26A
100
AcDbEntity
  8
0
100
AcDbPolyline
 62
7
  6
CONTINUOUS
 90
11
 70
0
 10
280.8992940159
 20
194.9502210923
 10
280.8885495397
 20
195.1230071832
 10
280.8894728819
 20
195.2952981515
 10
280.9022221073
 20
195.4670283359
 10
280.926639151
 20
195.6382633578
 10
280.9624114491
 20
195.8067410926
 10
281.0097299582
 20
195.9725092039
 10
281.0684037215
 20
196.1355200006
 10
281.1375473051
 20
196.293368337
 10
281.2168655642
 20
196.4452524993
 10
281.3066536434
 20
196.5919741992
  0
LWPOLYLINE
  5
26B
100
AcDbEntity
  8
0
100
AcDbPolyline
 62
7
  6
CONTINUOUS
 90
2
 70
0
 43
0.3500000087
 10
280.1417469727
 20
227.7439235718
 10
280.1417469727
 20
229.2439250366
  0
LWPOLYLINE
  5
26C
100
AcDbEntity
  8
0
100
AcDbPolyline
 62
7
  6
CONTINUOUS
 90
10
 70
0
 10
281.8041876525
 20
196.2560702393
 10
281.7328284468
 20
196.1382169139
 10
281.6703242159
 20
196.016179465
 10
281.6164410566
 20
195.8892992565
 10
281.5714128723
 20
195.7582349256
 10
281.5359413724
 20
195.6249623863
 10
281.510176395
 20
195.4894285142
 10
281.4939681021
 20
195.3516864481
 10
281.4875686899
 20
195.2138715029
 10
281.4911299445
 20
195.0760145827
  0
LINE
  5
26D
100
AcDbEntity
  8
0
100
AcDbLine
 62
7
  6
CONTINUOUS
 10
281.9041778402
 20
196.3994004295
 11
281.8844018331
 21
196.3697394421
  0
LWPOLYLINE
  5
26E
100
AcDbEntity
  8
0
100
AcDbPolyline
 62
7
  6
CONTINUOUS
 90
41
 70
0
 10
281.8844018331
 20
196.3697394421
 10
281.7964829111
 20
196.2440741316
 10
281.7193903115
 20
196.1136197625
 10
281.6531240344
 20
195.9783763343
 10
281.5974111303
 20
195.8374600774
 10
281.5525245486
 20
195.6917547648
 10
281.5192831377
 20
195.5439117169
 10
281.497900223
 20
195.3938915997
 10
281.488162479
 20
195.2417337688
 10
281.4902487781
 20
195.0902075867
 10
281.5043757216
 20
194.9393245193
 10
281.5303267081
 20
194.7890731287
 10
281.5676308064
 20
194.6421884226
 10
281.6164961246
 20
194.4987317841
 10
281.6767145545
 20
194.3586418513
 10
281.7471908405
 20
194.224469509
 10
281.828113111
 20
194.096323084
 10
281.9192932376
 20
193.9740942547
 10
282.01907158
 20
193.8600089249
 10
282.1276060537
 20
193.7542162647
 10
282.2447387432
 20
193.6565670919
 10
282.3683362627
 20
193.5688397739
 10
282.4985170169
 20
193.4912164633
 10
282.635162601
 20
193.4235149855
 10
282.775784415
 20
193.3669672136
 10
282.9204556538
 20
193.3217778041
 10
283.0691031225
 20
193.2877420804
 10
283.2190186372
 20
193.2654779159
 10
283.3702231862
 20
193.2552008822
 10
283.5226957812
 20
193.2566954002
 10
283.6736652727
 20
193.269932621
 10
283.8231042459
 20
193.295126417
 10
283.9710401156
 20
193.3320629247
 10
284.1147839771
 20
193.3800716937
 10
284.2542608382
 20
193.4393557113
 10
284.389545691
 20
193.509712011
 10
284.5181746071
 20
193.5898612118
 10
284.6400257252
 20
193.6799831332
 10
284.7552209065
 20
193.7798979773
 10
284.8616618067
 20
193.8877869327
 10
284.9605472033
 20
194.0054904954
  0
LINE
  5
26F
100
AcDbEntity
  8
0
100
AcDbLine
 62
7
  6
CONTINUOUS
 10
281.2972909422
 20
196.577478072
 11
281.4069115428
 21
196.7335334384
  0
LWPOLYLINE
  5
270
100
AcDbEntity
  8
0
100
AcDbPolyline
 62
7
  6
CONTINUOUS
 90
10
 70
0
 10
280.0285644393
 20
195.0155763668
 10
280.008674247
 20
194.9915757184
 10
279.9861522904
 20
194.9694365083
 10
279.9618037642
 20
194.9499573782
 10
279.9355823105
 20
194.9332727608
 10
279.9075342872
 20
194.9192482235
 10
279.8786039636
 20
194.9082791108
 10
279.8491060959
 20
194.9004972042
 10
279.8187259279
 20
194.8957707222
 10
279.7874634595
 20
194.8940996648
  0
LWPOLYLINE
  5
271
100
AcDbEntity
  8
0
100
AcDbPolyline
 62
7
  6
CONTINUOUS
 90
10
 70
0
 10
282.2557173226
 20
199.0332628781
 10
282.2756633153
 20
199.057326561
 10
282.2982482559
 20
199.0795244727
 10
282.3226629191
 20
199.0990545733
 10
282.3489521247
 20
199.1157811341
 10
282.3770710527
 20
199.1298398886
 10
282.4060760188
 20
199.1408359903
 10
282.4356524611
 20
199.1486378248
 10
282.4661149414
 20
199.1533770095
 10
282.4974634595
 20
199.1550535451
  0
LWPOLYLINE
  5
272
100
AcDbEntity
  8
0
100
AcDbPolyline
 62
7
  6
CONTINUOUS
 90
12
 70
0
 10
281.4069115428
 20
196.7335334384
 10
281.4273568575
 20
196.7577432852
 10
281.4499754556
 20
196.7793647335
 10
281.4747673371
 20
196.7983977844
 10
281.5021864506
 20
196.8150881513
 10
281.5317788476
 20
196.8291901228
 10
281.5621826826
 20
196.8399665628
 10
281.5933257282
 20
196.8471607384
 10
281.6252802118
 20
196.8510293839
 10
281.6569009704
 20
196.8516055638
 10
281.6879900092
 20
196.8488742104
 10
281.7187453228
 20
196.8428503911
  0
LINE
  5
273
100
AcDbEntity
  8
0
100
AcDbLine
 62
7
  6
CONTINUOUS
 10
281.4069115428
 20
196.7335334384
 11
281.4302610601
 21
196.7604776637
  0
LWPOLYLINE
  5
274
100
AcDbEntity
  8
0
100
AcDbPolyline
 62
7
  6
CONTINUOUS
 90
10
 70
0
 10
281.4302610601
 20
196.7604776637
 10
281.455788406
 20
196.7840397961
 10
281.4834935805
 20
196.8042198371
 10
281.5138076503
 20
196.821199044
 10
281.5462995488
 20
196.8347961624
 10
281.5796760765
 20
196.8444674261
 10
281.6139714233
 20
196.8500535084
 10
281.6491513993
 20
196.8517137374
 10
281.6838202346
 20
196.8493823298
 10
281.717957305
 20
196.8428991365
  0
LWPOLYLINE
  5
275
100
AcDbEntity
  8
0
100
AcDbPolyline
 62
7
  6
CONTINUOUS
 90
12
 70
0
 10
283.6487497037
 20
192.663547779
 10
283.4768006279
 20
192.6543043575
 10
283.3044720733
 20
192.6569071052
 10
283.1318535338
 20
192.6711919829
 10
282.9614596136
 20
192.6969447097
 10
282.793417218
 20
192.7343052167
 10
282.6275994419
 20
192.7831335917
 10
282.4661401739
 20
192.8427957927
 10
282.3090112107
 20
192.9134761995
 10
282.1562407556
 20
192.9949904653
 10
282.0100473071
 20
193.0861514573
 10
281.8705975708
 20
193.1870422105
  0
LWPOLYLINE
  5
276
100
AcDbEntity
  8
0
100
AcDbPolyline
 62
7
  6
CONTINUOUS
 90
2
 70
0
 43
0.3500000087
 10
314.9500347168
 20
191.8526709229
 10
313.450033252
 20
191.8526709229
  0
LWPOLYLINE
  5
277
100
AcDbEntity
  8
0
100
AcDbPolyline
 62
7
  6
CONTINUOUS
 90
9
 70
0
 10
283.5477036792
 20
191.8295294332
 10
283.5777398537
 20
191.814342753
 10
283.6067674558
 20
191.7951684357
 10
283.6337825687
 20
191.7725056392
 10
283.6577128987
 20
191.7472528595
 10
283.6784343945
 20
191.7193038163
 10
283.6960711074
 20
191.6887647954
 10
283.7099228978
 20
191.6568531389
 10
283.7197563859
 20
191.6239746283
  0
LWPOLYLINE
  5
278
100
AcDbEntity
  8
0
100
AcDbPolyline
 62
7
  6
CONTINUOUS
 90
9
 70
0
 10
283.3070774589
 20
190.718261949
 10
283.2770116632
 20
190.7334724421
 10
283.2479543616
 20
190.7526783759
 10
283.2209137932
 20
190.7753782488
 10
283.1969643607
 20
190.8006712611
 10
283.1762304919
 20
190.8286639664
 10
283.158587759
 20
190.8592498179
 10
283.1447372812
 20
190.8912083621
 10
283.134912765
 20
190.9241327819
  0
LWPOLYLINE
  5
279
100
AcDbEntity
  8
0
100
AcDbPolyline
 62
7
  6
CONTINUOUS
 90
11
 70
0
 10
283.575425508
 20
191.8157216609
 10
283.6015215444
 20
191.7990818853
 10
283.6261310923
 20
191.779435142
 10
283.6491148478
 20
191.7569563993
 10
283.6694494018
 20
191.7323377232
 10
283.6870050286
 20
191.7053272692
 10
283.7019114539
 20
191.6761768863
 10
283.7135344463
 20
191.6463341783
 10
283.7216625953
 20
191.6162816797
 10
283.7265073115
 20
191.5855368576
 10
283.7280685948
 20
191.5540997128
  0
LWPOLYLINE
  5
27A
100
AcDbEntity
  8
0
100
AcDbPolyline
 62
7
  6
CONTINUOUS
 90
11
 70
0
 10
283.2793253369
 20
190.7320929506
 10
283.2532024548
 20
190.7487605236
 10
283.2285692331
 20
190.7684401667
 10
283.2055652514
 20
190.7909563865
 10
283.1852161927
 20
190.8156152108
 10
283.1676523252
 20
190.8426695877
 10
283.1527433808
 20
190.8718665746
 10
283.141124238
 20
190.9017533613
 10
283.133006523
 20
190.9318456772
 10
283.1281786097
 20
190.962627794
 10
283.1266404981
 20
190.9940997128
  0
LINE
  5
27B
100
AcDbEntity
  8
0
100
AcDbLine
 62
7
  6
CONTINUOUS
 10
281.872579868
 20
193.1854296815
 11
281.7278780264
 21
193.3064756991
  0
LWPOLYLINE
  5
27C
100
AcDbEntity
  8
0
100
AcDbPolyline
 62
7
  6
CONTINUOUS
 90
11
 70
0
 10
281.737724841
 20
193.2975797235
 10
281.6131474986
 20
193.4163278037
 10
281.4969254177
 20
193.5434444286
 10
281.3889987242
 20
193.6787716423
 10
281.2909061769
 20
193.8203993419
 10
281.2028051694
 20
193.968404025
 10
281.1245383081
 20
194.1227091939
 10
281.0571721707
 20
194.2811752408
 10
281.0008604619
 20
194.4438212449
 10
280.955449477
 20
194.6106281041
 10
280.9215446802
 20
194.7793989306
  0
LWPOLYLINE
  5
27D
100
AcDbEntity
  8
0
100
AcDbPolyline
 62
7
  6
CONTINUOUS
 90
20
 70
0
 10
281.7278780264
 20
193.3064756991
 10
281.591750037
 20
193.4386046457
 10
281.4664386563
 20
193.579642839
 10
281.3521228976
 20
193.72973836
 10
281.2486237475
 20
193.8887431447
 10
281.1576469229
 20
194.0540392777
 10
281.0794001057
 20
194.2257311083
 10
281.0136756138
 20
194.403714271
 10
280.9615561179
 20
194.5850577628
 10
280.9232672713
 20
194.7698173799
 10
280.8985834207
 20
194.9579372821
 10
280.8879102763
 20
195.1463190041
 10
280.8914802362
 20
195.3349665549
 10
280.9090609023
 20
195.5238758718
 10
280.9403607912
 20
195.7099363846
 10
280.9856075304
 20
195.8931008239
 10
281.0445734924
 20
196.0734164188
 10
281.1162843113
 20
196.2479143605
 10
281.2004151983
 20
196.4156050463
 10
281.2972909422
 20
196.577478072
  0
LWPOLYLINE
  5
27E
100
AcDbEntity
  8
0
100
AcDbPolyline
 62
7
  6
CONTINUOUS
 90
17
 70
0
 10
280.063472222
 20
195.3117138121
 10
280.0748356619
 20
195.2799635786
 10
280.0829124658
 20
195.2461881116
 10
280.0868698983
 20
195.2116842939
 10
280.0868669746
 20
195.1764813013
 10
280.0829034698
 20
195.1419775681
 10
280.0748197704
 20
195.1082016772
 10
280.0627754897
 20
195.0751250461
 10
280.0472492428
 20
195.0440603617
 10
280.0281006022
 20
195.0150885993
 10
280.0054699954
 20
194.9881287839
 10
279.9802573189
 20
194.9642506769
 10
279.9523586176
 20
194.9435789311
 10
279.9218778467
 20
194.925988894
 10
279.8900267691
 20
194.9121763685
 10
279.8572093059
 20
194.902373289
 10
279.823021536
 20
194.8963477211
  0
LWPOLYLINE
  5
27F
100
AcDbEntity
  8
0
100
AcDbPolyline
 62
7
  6
CONTINUOUS
 90
9
 70
0
 10
280.0740992039
 20
195.2826664133
 10
280.0816639247
 20
195.2524799567
 10
280.0861715508
 20
195.2212870064
 10
280.0874410029
 20
195.1901328378
 10
280.0853426421
 20
195.1590153738
 10
280.0800061073
 20
195.1279366918
 10
280.0716392359
 20
195.0979482992
 10
280.0601784496
 20
195.0691436492
 10
280.0456873266
 20
195.041429289
  0
LWPOLYLINE
  5
280
100
AcDbEntity
  8
0
100
AcDbPolyline
 62
7
  6
CONTINUOUS
 90
11
 70
0
 10
281.5274759346
 20
194.8021248039
 10
281.5602011932
 20
194.6681496255
 10
281.6025321713
 20
194.5361442441
 10
281.6538346543
 20
194.4081061902
 10
281.7142539203
 20
194.2840885282
 10
281.7836446913
 20
194.1640382036
 10
281.8609369182
 20
194.049793563
 10
281.9462238239
 20
193.9414689394
 10
282.0394121856
 20
193.8389499973
 10
282.139152286
 20
193.7437320751
 10
282.2455972589
 20
193.6558869618
  0
LWPOLYLINE
  5
281
100
AcDbEntity
  8
0
100
AcDbPolyline
 62
7
  6
CONTINUOUS
 90
9
 70
0
 10
280.1670587831
 20
192.1480570316
 10
280.160493282
 20
192.1805405959
 10
280.1574287276
 20
192.2156533757
 10
280.1583756361
 20
192.2504142071
 10
280.1634961639
 20
192.2848102606
 10
280.1726281547
 20
192.3188543648
 10
280.1854060692
 20
192.35119244
 10
280.2017080609
 20
192.3813731248
 10
280.2216559764
 20
192.409847777
  0
LWPOLYLINE
  5
282
100
AcDbEntity
  8
0
100
AcDbPolyline
 62
7
  6
CONTINUOUS
 90
2
 70
0
 43
0.3500000087
 10
282.4988945679
 20
227.7439235718
 10
282.4988945679
 20
229.2439250366
  0
LWPOLYLINE
  5
283
100
AcDbEntity
  8
0
100
AcDbPolyline
 62
7
  6
CONTINUOUS
 90
11
 70
0
 10
283.1268583243
 20
191.5540997128
 10
283.1284458452
 20
191.5855995775
 10
283.1332999122
 20
191.616373354
 10
283.1414205255
 20
191.6464210415
 10
283.1530178756
 20
191.6762099848
 10
283.167881772
 20
191.7052728374
 10
283.1853816425
 20
191.7322075596
 10
283.2056387939
 20
191.7567736209
 10
283.2285319195
 20
191.7792115473
 10
283.2530665276
 20
191.7988408824
 10
283.2791162104
 20
191.8154967997
  0
LINE
  5
284
100
AcDbEntity
  8
0
100
AcDbLine
 62
7
  6
CONTINUOUS
 10
283.1268583243
 20
191.5540997128
 11
283.1291222434
 21
191.5897240593
  0
LINE
  5
285
100
AcDbEntity
  8
0
100
AcDbLine
 62
7
  6
CONTINUOUS
 10
281.0895349155
 20
192.4346213176
 11
281.0659653603
 21
192.407860445
  0
LINE
  5
286
100
AcDbEntity
  8
0
100
AcDbLine
 62
7
  6
CONTINUOUS
 10
280.2216559764
 20
192.409847777
 11
280.2452498155
 21
192.4366163949
  0
LWPOLYLINE
  5
287
100
AcDbEntity
  8
0
100
AcDbPolyline
 62
7
  6
CONTINUOUS
 90
21
 70
0
 10
280.6412979178
 20
192.8325278875
 10
280.6646207634
 20
192.8535266638
 10
280.6895680682
 20
192.8717297266
 10
280.716139832
 20
192.8871370748
 10
280.7447277347
 20
192.8998929865
 10
280.7749400964
 20
192.9098531815
 10
280.8056018778
 20
192.9165848213
 10
280.8365485383
 20
192.9199771085
 10
280.8679446184
 20
192.9201408397
 10
280.8991087
 20
192.9169755674
 10
280.9302968084
 20
192.9103097029
 10
280.9612529183
 20
192.9003148357
 10
280.990527535
 20
192.8874052858
 10
281.0178643961
 20
192.8715134438
 10
281.043519764
 20
192.8527069212
 10
281.0668129305
 20
192.8316028686
 10
281.087704292
 20
192.8081554582
 10
281.1062334522
 20
192.7824105203
 10
281.121838514
 20
192.7551226929
 10
281.1344420069
 20
192.7261217084
 10
281.1441214013
 20
192.6955778368
  0
LINE
  5
288
100
AcDbEntity
  8
0
100
AcDbLine
 62
7
  6
CONTINUOUS
 10
280.6412979178
 20
192.8325278875
 11
280.6676352508
 21
192.8557262162
  0
LWPOLYLINE
  5
289
100
AcDbEntity
  8
0
100
AcDbPolyline
 62
7
  6
CONTINUOUS
 90
26
 70
0
 10
280.668057106
 20
192.8560977927
 10
280.6965195485
 20
192.8760245701
 10
280.7266852451
 20
192.8923082179
 10
280.7590044797
 20
192.9050704056
 10
280.7930269685
 20
192.914189461
 10
280.8274018601
 20
192.9193003706
 10
280.8621427499
 20
192.9202415706
 10
280.8972360425
 20
192.9171746241
 10
280.9312901002
 20
192.9102192082
 10
280.9642644146
 20
192.8992181411
 10
280.996199494
 20
192.8843286064
 10
281.0258252255
 20
192.8661418295
 10
281.0530475698
 20
192.8445254176
 10
281.0779605662
 20
192.819611767
 10
281.0995762187
 20
192.7923892869
 10
281.1177620972
 20
192.7627643375
 10
281.1326506318
 20
192.7308305621
 10
281.1436511165
 20
192.6978572928
 10
281.1506066259
 20
192.6638037554
 10
281.1536740854
 20
192.6287107262
 10
281.1527335656
 20
192.5939698604
 10
281.1476235219
 20
192.5595947804
 10
281.1385054989
 20
192.5255718635
 10
281.1257442008
 20
192.4932518945
 10
281.1094611957
 20
192.4630851336
 10
281.0895349155
 20
192.4346213176
  0
LWPOLYLINE
  5
28A
100
AcDbEntity
  8
0
100
AcDbPolyline
 62
7
  6
CONTINUOUS
 90
10
 70
0
 10
283.8117248659
 20
193.2927715594
 10
283.9464945723
 20
193.3250532782
 10
284.0779410621
 20
193.3665392186
 10
284.2059604577
 20
193.4173514968
 10
284.3306566367
 20
193.4773680117
 10
284.4502238117
 20
193.545716116
 10
284.5646233793
 20
193.6225418167
 10
284.673893943
 20
193.7076991237
 10
284.7763455262
 20
193.7998773906
 10
284.871855855
 20
193.8991734575
  0
LINE
  5
28B
100
AcDbEntity
  8
0
100
AcDbLine
 62
7
  6
CONTINUOUS
 10
287.6630272916
 20
194.8963488596
 11
287.6274634595
 21
194.8940996648
  0
LINE
  5
28C
100
AcDbEntity
  8
0
100
AcDbLine
 62
7
  6
CONTINUOUS
 10
279.823021536
 20
194.8963477211
 11
279.7874634595
 21
194.8940996648
  0
LWPOLYLINE
  5
28D
100
AcDbEntity
  8
0
100
AcDbPolyline
 62
7
  6
CONTINUOUS
 90
2
 70
0
 43
0.3500000087
 10
314.9500347168
 20
194.2098185181
 10
313.450033252
 20
194.2098185181
  0
LINE
  5
28E
100
AcDbEntity
  8
0
100
AcDbLine
 62
7
  6
CONTINUOUS
 10
279.2274634595
 20
194.8940996648
 11
279.7874634595
 21
194.8940996648
  0
LINE
  5
28F
100
AcDbEntity
  8
0
100
AcDbLine
 62
7
  6
CONTINUOUS
 10
287.0674634595
 20
194.8940996648
 11
287.6274634595
 21
194.8940996648
  0
LWPOLYLINE
  5
290
100
AcDbEntity
  8
0
100
AcDbPolyline
 62
7
  6
CONTINUOUS
 90
12
 70
0
 10
287.0674634595
 20
194.8940996648
 10
287.0357269773
 20
194.8957047673
 10
287.004739792
 20
194.9006269458
 10
286.9745019036
 20
194.9088662005
 10
286.9445365014
 20
194.9206405187
 10
286.915320396
 20
194.9357319131
 10
286.88828402
 20
194.9534864213
 10
286.8636772632
 20
194.9740223875
 10
286.8412502357
 20
194.9972214675
 10
286.8216837003
 20
195.0220746657
 10
286.8051390382
 20
195.0484615278
 10
286.7914548682
 20
195.076502508
  0
LWPOLYLINE
  5
291
100
AcDbEntity
  8
0
100
AcDbPolyline
 62
7
  6
CONTINUOUS
 90
10
 70
0
 10
279.2274634595
 20
194.8940996648
 10
279.1963221954
 20
194.8957173088
 10
279.165992357
 20
194.9004277567
 10
279.1364739442
 20
194.9082310084
 10
279.1073913603
 20
194.9192999758
 10
279.079120202
 20
194.933461747
 10
279.0527872596
 20
194.9501975871
 10
279.0285887367
 20
194.9694676662
 10
279.0063284297
 20
194.9913118141
 10
278.9865445179
 20
195.0153307848
  0
LINE
  5
292
100
AcDbEntity
  8
0
100
AcDbLine
 62
7
  6
CONTINUOUS
 10
279.2274634595
 20
194.8940996648
 11
279.1925127401
 21
194.8963089453
  0
LINE
  5
293
100
AcDbEntity
  8
0
100
AcDbLine
 62
7
  6
CONTINUOUS
 10
287.0674634595
 20
194.8940996648
 11
287.0318997983
 21
194.8963476941
  0
LWPOLYLINE
  5
294
100
AcDbEntity
  8
0
100
AcDbPolyline
 62
7
  6
CONTINUOUS
 90
26
 70
0
 10
279.1919062627
 20
194.8963472816
 10
279.1577188697
 20
194.9023727123
 10
279.1249012805
 20
194.9121759572
 10
279.0930492444
 20
194.9259891251
 10
279.0625670121
 20
194.9435801071
 10
279.0346673361
 20
194.9642525759
 10
279.0094547554
 20
194.9881304482
 10
278.986824731
 20
195.0150898071
 10
278.9676763979
 20
195.044062575
 10
278.9521495537
 20
195.0751311369
 10
278.9401044008
 20
195.1082131073
 10
278.9320206821
 20
195.1419932534
 10
278.928058328
 20
195.1764985929
 10
278.928057408
 20
195.2117021075
 10
278.9320178733
 20
195.2462075104
 10
278.9400996411
 20
195.2799877515
 10
278.9521427941
 20
195.3130698808
 10
278.9676675316
 20
195.3441387625
 10
278.9868133306
 20
195.3731118918
 10
279.0094407142
 20
195.4000717739
 10
279.03465145
 20
195.4239507881
 10
279.062550066
 20
195.4446254464
 10
279.0930320344
 20
195.4622192374
 10
279.1248855395
 20
195.4760350061
 10
279.1577066428
 20
195.4858403676
 10
279.1918992828
 20
195.4918677073
  0
LWPOLYLINE
  5
295
100
AcDbEntity
  8
0
100
AcDbPolyline
 62
7
  6
CONTINUOUS
 90
10
 70
0
 10
279.823027107
 20
195.4918689987
 10
279.8572208171
 20
195.4858412696
 10
279.8900445898
 20
195.476033838
 10
279.9219036207
 20
195.4622137183
 10
279.9523927143
 20
195.4446138954
 10
279.9802962834
 20
195.4239333251
 10
280.0055083192
 20
195.400048103
 10
280.0281348306
 20
195.3730821326
 10
280.047278257
 20
195.3441060817
 10
280.062798502
 20
195.3130398706
  0
LWPOLYLINE
  5
296
100
AcDbEntity
  8
0
100
AcDbPolyline
 62
7
  6
CONTINUOUS
 90
11
 70
0
 10
282.3585939705
 20
193.5753428557
 10
282.4763333017
 20
193.5033797049
 10
282.5988063084
 20
193.4401687407
 10
282.7260219348
 20
193.3855387146
 10
282.8561978941
 20
193.340255853
 10
282.9894847837
 20
193.3044341118
 10
283.1257320062
 20
193.2779595213
 10
283.2627054832
 20
193.2612564211
 10
283.400304539
 20
193.2544865727
 10
283.5386298492
 20
193.25748821
 10
283.6757493618
 20
193.2702003849
  0
LINE
  5
297
100
AcDbEntity
  8
0
100
AcDbLine
 62
7
  6
CONTINUOUS
 10
286.1868697559
 20
192.8560977723
 11
286.2136290013
 21
192.8325278875
  0
LINE
  5
298
100
AcDbEntity
  8
0
100
AcDbLine
 62
7
  6
CONTINUOUS
 10
286.2116272182
 20
191.9882059585
 11
286.1848603489
 21
192.0117996402
  0
LWPOLYLINE
  5
299
100
AcDbEntity
  8
0
100
AcDbPolyline
 62
7
  6
CONTINUOUS
 90
31
 70
0
 10
285.7889615587
 20
192.407860445
 10
285.767972144
 20
192.4311727541
 10
285.7497757529
 20
192.4561091373
 10
285.7343723855
 20
192.4826695957
 10
285.7216212819
 20
192.5112691474
 10
285.711663202
 20
192.541492777
 10
285.7049204252
 20
192.5720954344
 10
285.7015172332
 20
192.6028727957
 10
285.7013293443
 20
192.634029185
 10
285.7044061934
 20
192.6649325224
 10
285.7108791997
 20
192.6958114102
 10
285.7206169439
 20
192.7264372456
 10
285.7332746033
 20
192.7554921397
 10
285.748928902
 20
192.78278309
 10
285.7675031159
 20
192.8085030963
 10
285.7884222498
 20
192.8319132715
 10
285.811719737
 20
192.8529670913
 10
285.8373621441
 20
192.8717110772
 10
285.8646741757
 20
192.88754591
 10
285.8939045756
 20
192.9004089173
 10
285.9248045999
 20
192.9103627695
 10
285.9559527215
 20
192.9169961613
 10
285.987112542
 20
192.9201391197
 10
286.0185204597
 20
192.9199616169
 10
286.049464142
 20
192.9165622661
 10
286.080088501
 20
192.9098323356
 10
286.1102486245
 20
192.8998805579
 10
286.1387974433
 20
192.8871317424
 10
286.1653526008
 20
192.8717274929
 10
286.1902964534
 20
192.8535262075
 10
286.2136290013
 20
192.8325278875
  0
LINE
  5
29A
100
AcDbEntity
  8
0
100
AcDbLine
 62
7
  6
CONTINUOUS
 10
285.7889615587
 20
192.407860445
 11
285.7657652482
 21
192.4341970901
  0
LWPOLYLINE
  5
29B
100
AcDbEntity
  8
0
100
AcDbPolyline
 62
7
  6
CONTINUOUS
 90
17
 70
0
 10
282.220668075
 20
198.7363757438
 10
282.2093068212
 20
198.7681354397
 10
282.2012078245
 20
198.8020035211
 10
282.1972395581
 20
198.8366020575
 10
282.1972425534
 20
198.8719017513
 10
282.2012170525
 20
198.9065002167
 10
282.2093231505
 20
198.9403687876
 10
282.2214007522
 20
198.9735361321
 10
282.2369698142
 20
199.0046858696
 10
282.2561711621
 20
199.0337367566
 10
282.2788639702
 20
199.0607700426
 10
282.3041457183
 20
199.0847130901
 10
282.3321205829
 20
199.1054408647
 10
282.3626843874
 20
199.1230784078
 10
282.3946220823
 20
199.1369281976
 10
282.427528651
 20
199.1467577285
 10
282.4618091101
 20
199.1527995106
  0
LWPOLYLINE
  5
29C
100
AcDbEntity
  8
0
100
AcDbPolyline
 62
7
  6
CONTINUOUS
 90
9
 70
0
 10
282.2100216828
 20
198.7655017031
 10
282.2024448177
 20
198.7957656743
 10
282.1979335048
 20
198.8270354313
 10
282.1966676062
 20
198.8582661474
 10
282.1987762725
 20
198.8894605874
 10
282.204130353
 20
198.9206159862
 10
282.2125222573
 20
198.950679225
 10
282.2240157472
 20
198.9795571392
 10
282.2385470609
 20
199.0073428965
  0
LWPOLYLINE
  5
29D
100
AcDbEntity
  8
0
100
AcDbPolyline
 62
7
  6
CONTINUOUS
 90
3
 70
0
 10
283.7197563859
 20
191.6239746283
 10
283.7258049516
 20
191.5897234856
 10
283.7280685948
 20
191.5540997128
  0
LWPOLYLINE
  5
29E
100
AcDbEntity
  8
0
100
AcDbPolyline
 62
7
  6
CONTINUOUS
 90
3
 70
0
 10
283.134912765
 20
190.9241327819
 10
283.128880504
 20
190.9584298981
 10
283.1266404981
 20
190.9940997128
  0
LINE
  5
29F
100
AcDbEntity
  8
0
100
AcDbLine
 62
7
  6
CONTINUOUS
 10
284.3568183352
 20
198.403667066
 11
284.3553358104
 21
198.4237579672
  0
LWPOLYLINE
  5
2A0
100
AcDbEntity
  8
0
100
AcDbPolyline
 62
7
  6
CONTINUOUS
 90
3
 70
0
 10
284.3568183352
 20
198.403667066
 10
284.3555303533
 20
198.4232360069
 10
284.3517015805
 20
198.4424584938
  0
LINE
  5
2A1
100
AcDbEntity
  8
0
100
AcDbLine
 62
7
  6
CONTINUOUS
 10
284.3610099617
 20
197.1988385093
 11
284.3571701843
 21
197.2701788607
  0
LWPOLYLINE
  5
2A2
100
AcDbEntity
  8
0
100
AcDbPolyline
 62
7
  6
CONTINUOUS
 90
3
 70
0
 10
284.9577629789
 20
197.2950223254
 10
284.9585622642
 20
197.2798861499
 10
284.9607704275
 20
197.265185898
  0
LINE
  5
2A3
100
AcDbEntity
  8
0
100
AcDbLine
 62
7
  6
CONTINUOUS
 10
284.9554896272
 20
198.5168238764
 11
284.9581280436
 21
198.4557558589
  0
LWPOLYLINE
  5
2A4
100
AcDbEntity
  8
0
100
AcDbPolyline
 62
7
  6
CONTINUOUS
 90
11
 70
0
 10
283.728286421
 20
190.9940997128
 10
283.7267221482
 20
190.9625641462
 10
283.7218845712
 20
190.9317520396
 10
283.7137736903
 20
190.9016633919
 10
283.7021789682
 20
190.8718289191
 10
283.687310942
 20
190.8427179038
 10
283.669801223
 20
190.8157381931
 10
283.6495279917
 20
190.79113167
 10
283.6266130676
 20
190.7686564459
 10
283.6020535208
 20
190.7489947082
 10
283.5759762026
 20
190.7323118419
  0
LINE
  5
2A5
100
AcDbEntity
  8
0
100
AcDbLine
 62
7
  6
CONTINUOUS
 10
283.728286421
 20
190.9940997128
 11
283.726046139
 21
190.958429314
  0
LWPOLYLINE
  5
2A6
100
AcDbEntity
  8
0
100
AcDbPolyline
 62
7
  6
CONTINUOUS
 90
17
 70
0
 10
283.726046139
 20
190.958429314
 10
283.7200137798
 20
190.9241319279
 10
283.7101893435
 20
190.8912075524
 10
283.6963391646
 20
190.8592495306
 10
283.6786969086
 20
190.8286645159
 10
283.6579635718
 20
190.8006724695
 10
283.6340147587
 20
190.7753797707
 10
283.6069748648
 20
190.7526800334
 10
283.5779180736
 20
190.7334740695
 10
283.5467639752
 20
190.7179025159
 10
283.5135929795
 20
190.7058247296
 10
283.4797204993
 20
190.6977196015
 10
283.4451173612
 20
190.6937467595
 10
283.4098127386
 20
190.6937465733
 10
283.3752095642
 20
190.6977190468
 10
283.341337054
 20
190.7058237594
 10
283.308165992
 20
190.7179011343
  0
LWPOLYLINE
  5
2A7
100
AcDbEntity
  8
0
100
AcDbPolyline
 62
7
  6
CONTINUOUS
 90
17
 70
0
 10
283.1291222434
 20
191.5897240593
 10
283.1351709036
 20
191.6239754618
 10
283.1450043051
 20
191.6568539182
 10
283.158855785
 20
191.6887650409
 10
283.1764920062
 20
191.7193032141
 10
283.1972129566
 20
191.7472515921
 10
283.2211426568
 20
191.7725040601
 10
283.2481570862
 20
191.7951667274
 10
283.2771841718
 20
191.8143410827
 10
283.3083041085
 20
191.8298868511
 10
283.3414367015
 20
191.8419443029
 10
283.3752692934
 20
191.850035745
 10
283.4098309855
 20
191.854001947
 10
283.4450926765
 20
191.8540021375
 10
283.4796544049
 20
191.8500363128
 10
283.513487026
 20
191.8419452964
 10
283.5466196845
 20
191.8298882666
  0
LWPOLYLINE
  5
2A8
100
AcDbEntity
  8
0
100
AcDbPolyline
 62
7
  6
CONTINUOUS
 90
20
 70
0
 10
285.0479594369
 20
194.1277795039
 10
285.1263604765
 20
194.2574796961
 10
285.1942007334
 20
194.3930014237
 10
285.2516703553
 20
194.5342399903
 10
285.297723432
 20
194.6786240317
 10
285.3321507387
 20
194.8262110151
 10
285.3551615003
 20
194.976943451
 10
285.3663374808
 20
195.1280775366
 10
285.3654618431
 20
195.2796206047
 10
285.3527514242
 20
195.4315652944
 10
285.3284385001
 20
195.581145763
 10
285.2923105758
 20
195.7283184336
 10
285.2445801462
 20
195.8731268625
 10
285.1861169722
 20
196.0129359146
 10
285.1167241845
 20
196.1476542131
 10
285.0365986524
 20
196.277373132
 10
284.9472007454
 20
196.3997316738
 10
284.8490172532
 20
196.5139428474
 10
284.741561386
 20
196.6207936624
 10
284.5846098792
 20
196.7543136699
  0
LWPOLYLINE
  5
2A9
100
AcDbEntity
  8
0
100
AcDbPolyline
 62
7
  6
CONTINUOUS
 90
11
 70
0
 10
285.0410964158
 20
194.1172273487
 10
285.1133796503
 20
194.2344521978
 10
285.1775207491
 20
194.3570968621
 10
285.2325680832
 20
194.4833556393
 10
285.2783945546
 20
194.6133120709
 10
285.3151272614
 20
194.7468826033
 10
285.3421958686
 20
194.8820108869
 10
285.359449558
 20
195.018687676
 10
285.3670391478
 20
195.1569221963
 10
285.3648467583
 20
195.2946858035
 10
285.3527149178
 20
195.4320220702
  0
LINE
  5
2AA
100
AcDbEntity
  8
0
100
AcDbLine
 62
7
  6
CONTINUOUS
 10
284.9591877623
 20
194.0037961572
 11
285.0479594369
 21
194.1277795039
  0
LWPOLYLINE
  5
2AB
100
AcDbEntity
  8
0
100
AcDbPolyline
 62
7
  6
CONTINUOUS
 90
10
 70
0
 10
286.8263621655
 20
195.3726398989
 10
286.8462523478
 20
195.396640603
 10
286.8687743178
 20
195.4187798984
 10
286.8931228656
 20
195.4382591055
 10
286.9193443439
 20
195.45494378
 10
286.9473924
 20
195.4689683668
 10
286.9763227663
 20
195.4799375192
 10
287.0058206871
 20
195.4877194552
 10
287.0362009182
 20
195.4924459573
 10
287.0674634595
 20
195.4941170255
  0
LWPOLYLINE
  5
2AC
100
AcDbEntity
  8
0
100
AcDbPolyline
 62
7
  6
CONTINUOUS
 90
11
 70
0
 10
285.3101440075
 20
193.4889101339
 10
285.190129789
 20
193.3651948892
 10
285.061465926
 20
193.2493590987
 10
284.9258909573
 20
193.142960084
 10
284.7832900708
 20
193.0461113405
 10
284.6337780787
 20
192.9586993402
 10
284.4794379557
 20
192.8819408626
 10
284.3202000194
 20
192.815991204
 10
284.1561339523
 20
192.7606950338
 10
283.9895317773
 20
192.7168031901
 10
283.8204087944
 20
192.6844733326
  0
LWPOLYLINE
  5
2AD
100
AcDbEntity
  8
0
100
AcDbPolyline
 62
7
  6
CONTINUOUS
 90
12
 70
0
 10
280.6700665701
 20
192.0117996402
 10
280.6465075707
 20
191.990498705
 10
280.6211395309
 20
191.9720652348
 10
280.5939624509
 20
191.9564992276
 10
280.5644894297
 20
191.9436188439
 10
280.5332073681
 20
191.9336059206
 10
280.5015769688
 20
191.9270059704
 10
280.4696875873
 20
191.9240768057
 10
280.4374498679
 20
191.9245606131
 10
280.4060564469
 20
191.9282294673
 10
280.3757076532
 20
191.9351120463
 10
280.3462031577
 20
191.9451796734
  0
LINE
  5
2AE
100
AcDbEntity
  8
0
100
AcDbLine
 62
7
  6
CONTINUOUS
 10
280.6700665701
 20
192.0117996402
 11
280.643296851
 21
191.98820307
  0
LWPOLYLINE
  5
2AF
100
AcDbEntity
  8
0
100
AcDbPolyline
 62
7
  6
CONTINUOUS
 90
10
 70
0
 10
280.643296851
 20
191.98820307
 10
280.6148202023
 20
191.9682530837
 10
280.5846366241
 20
191.9519496787
 10
280.5522942021
 20
191.9391708603
 10
280.5182448506
 20
191.9300386196
 10
280.4838443126
 20
191.9249189336
 10
280.4490798846
 20
191.9239745901
 10
280.4139642702
 20
191.9270428003
 10
280.3798913224
 20
191.9340011772
 10
280.3469034903
 20
191.9450056689
  0
LINE
  5
2B0
100
AcDbEntity
  8
0
100
AcDbLine
 62
7
  6
CONTINUOUS
 10
287.031905399
 20
195.4918689725
 11
287.0674634595
 21
195.4941170255
  0
LINE
  5
2B1
100
AcDbEntity
  8
0
100
AcDbLine
 62
7
  6
CONTINUOUS
 10
279.1918992828
 20
195.4918677073
 11
279.2274634595
 21
195.4941170255
  0
LINE
  5
2B2
100
AcDbEntity
  8
0
100
AcDbLine
 62
7
  6
CONTINUOUS
 10
279.2274634595
 20
195.4941170255
 11
279.7874634595
 21
195.4941170255
  0
LINE
  5
2B3
100
AcDbEntity
  8
0
100
AcDbLine
 62
7
  6
CONTINUOUS
 10
287.0674634595
 20
195.4941170255
 11
287.6274634595
 21
195.4941170255
  0
LWPOLYLINE
  5
2B4
100
AcDbEntity
  8
0
100
AcDbPolyline
 62
7
  6
CONTINUOUS
 90
12
 70
0
 10
279.7874634595
 20
195.4941170255
 10
279.8192002297
 20
195.4925118457
 10
279.8501876118
 20
195.487589603
 10
279.8804256059
 20
195.4793502974
 10
279.9103909848
 20
195.46757595
 10
279.9396069757
 20
195.4524845392
 10
279.9666432599
 20
195.4347300002
 10
279.9912500008
 20
195.41419396
 10
280.0136770349
 20
195.390994791
 10
280.0332435532
 20
195.3661415466
 10
280.0497881455
 20
195.3397547172
 10
280.063472222
 20
195.3117138121
  0
LWPOLYLINE
  5
2B5
100
AcDbEntity
  8
0
100
AcDbPolyline
 62
7
  6
CONTINUOUS
 90
10
 70
0
 10
287.6274634595
 20
195.4941170255
 10
287.6585982513
 20
195.4925048345
 10
287.6889293203
 20
195.487793995
 10
287.7184566664
 20
195.4799845069
 10
287.7475621837
 20
195.4688999302
 10
287.7758639782
 20
195.4547167045
 10
287.8022163681
 20
195.4379641485
 10
287.826413162
 20
195.4186866156
 10
287.8486605514
 20
195.3968397519
 10
287.8684314287
 20
195.3728198153
  0
LINE
  5
2B6
100
AcDbEntity
  8
0
100
AcDbLine
 62
7
  6
CONTINUOUS
 10
279.7874634595
 20
195.4941170255
 11
279.823027107
 21
195.4918689987
  0
LINE
  5
2B7
100
AcDbEntity
  8
0
100
AcDbLine
 62
7
  6
CONTINUOUS
 10
287.6274634595
 20
195.4941170255
 11
287.6624617482
 21
195.4919047794
  0
LWPOLYLINE
  5
2B8
100
AcDbEntity
  8
0
100
AcDbPolyline
 62
7
  6
CONTINUOUS
 90
10
 70
0
 10
287.0318997983
 20
194.8963476941
 10
286.9977060773
 20
194.9023754272
 10
286.9648822966
 20
194.9121828641
 10
286.9330232604
 20
194.9260029911
 10
286.9025341645
 20
194.943602822
 10
286.874630596
 20
194.9642833984
 10
286.8494185653
 20
194.9881686225
 10
286.8267920621
 20
195.0151345918
 10
286.8076486432
 20
195.0441106409
 10
286.7921284041
 20
195.0751768485
  0
LWPOLYLINE
  5
2B9
100
AcDbEntity
  8
0
100
AcDbPolyline
 62
7
  6
CONTINUOUS
 90
26
 70
0
 10
287.6630206058
 20
195.4918694539
 10
287.6972080028
 20
195.4858440217
 10
287.7300256505
 20
195.4760407287
 10
287.7618778473
 20
195.4622274324
 10
287.7923602948
 20
195.4446362747
 10
287.8202600984
 20
195.4239636819
 10
287.8454726382
 20
195.4000857855
 10
287.8681025342
 20
195.3731264533
 10
287.8872507513
 20
195.3441537166
 10
287.9027775272
 20
195.3130851765
 10
287.9148226243
 20
195.2800032316
 10
287.9229062947
 20
195.2462231094
 10
287.9268686066
 20
195.2117177882
 10
287.9268694918
 20
195.1765142899
 10
287.9229089979
 20
195.1420089081
 10
287.9148272054
 20
195.1082286963
 10
287.9027840338
 20
195.0751466015
 10
287.8872592891
 20
195.0440777572
 10
287.8681135232
 20
195.0151046813
 10
287.8454861842
 20
194.9881448562
 10
287.8202754224
 20
194.9642658629
 10
287.7923766141
 20
194.9435911494
 10
287.7618943829
 20
194.9259972679
 10
287.7300407497
 20
194.912181455
 10
287.6972197216
 20
194.902376123
 10
287.6630272916
 20
194.8963488596
  0
LWPOLYLINE
  5
2BA
100
AcDbEntity
  8
0
100
AcDbPolyline
 62
7
  6
CONTINUOUS
 90
17
 70
0
 10
281.7187453228
 20
196.8428503911
 10
281.7515832348
 20
196.8324243057
 10
281.7833641262
 20
196.8183724994
 10
281.813226832
 20
196.8005987636
 10
281.8412444995
 20
196.7792480498
 10
281.8663026731
 20
196.7551698785
 10
281.8882809565
 20
196.7282550751
 10
281.9072997461
 20
196.6986128114
 10
281.9226057754
 20
196.667420128
 10
281.934049821
 20
196.6346150984
 10
281.9417811064
 20
196.6002596473
 10
281.9454940352
 20
196.565716595
 10
281.9450264864
 20
196.5309774327
 10
281.940540581
 20
196.4960506691
 10
281.9322170863
 20
196.4623246525
 10
281.9201162579
 20
196.4302621665
 10
281.9041778402
 20
196.3994004295
  0
LWPOLYLINE
  5
2BB
100
AcDbEntity
  8
0
100
AcDbPolyline
 62
7
  6
CONTINUOUS
 90
19
 70
0
 10
281.7486157319
 20
196.8336123732
 10
281.7778829996
 20
196.8209246873
 10
281.8062653627
 20
196.8050228012
 10
281.8323663527
 20
196.7866913875
 10
281.85586919
 20
196.7659349177
 10
281.8770906542
 20
196.7427489183
 10
281.8955846153
 20
196.7179046449
 10
281.9113019123
 20
196.691392346
 10
281.9242917061
 20
196.6632217715
 10
281.9342553499
 20
196.63419343
 10
281.9411494127
 20
196.6043069192
 10
281.9450173255
 20
196.5735626406
 10
281.9456907349
 20
196.5427623094
 10
281.9430360445
 20
196.5117526914
 10
281.9371868506
 20
196.480687021
 10
281.928375589
 20
196.4508267181
 10
281.9166797381
 20
196.4225922568
 10
281.9020218195
 20
196.3955631646
 10
281.8844018331
 20
196.3697394421
  0
LWPOLYLINE
  5
2BC
100
AcDbEntity
  8
0
100
AcDbPolyline
 62
7
  6
CONTINUOUS
 90
9
 70
0
 10
284.6248331438
 20
196.7202841294
 10
284.5710423039
 20
196.7673355804
 10
284.5230328367
 20
196.8183749074
 10
284.4808047423
 20
196.8734021051
 10
284.4440496805
 20
196.9330516642
 10
284.4130759914
 20
196.9966890812
 10
284.3888086952
 20
197.0624108625
 10
284.371556132
 20
197.1295825082
 10
284.3610099617
 20
197.1988385093
  0
LWPOLYLINE
  5
2BD
100
AcDbEntity
  8
0
100
AcDbPolyline
 62
7
  6
CONTINUOUS
 90
12
 70
0
 10
284.5846098792
 20
196.7543136699
 10
284.5473262379
 20
196.7910175526
 10
284.5129822202
 20
196.8303957749
 10
284.4813501898
 20
196.8727623783
 10
284.4526577829
 20
196.9178033156
 10
284.4275879085
 20
196.964576452
 10
284.4062732947
 20
197.0131206381
 10
284.3885812135
 20
197.0633970183
 10
284.3747963894
 20
197.1143469009
 10
284.3650137306
 20
197.1656173882
 10
284.3591383289
 20
197.2175613754
 10
284.3571701843
 20
197.2701788608
  0
LWPOLYLINE
  5
2BE
100
AcDbEntity
  8
0
100
AcDbPolyline
 62
7
  6
CONTINUOUS
 90
31
 70
0
 10
286.6096771036
 20
192.4366163949
 10
286.6306866104
 20
192.4132999703
 10
286.6489016919
 20
192.3883560803
 10
286.6643223479
 20
192.361784726
 10
286.6770898557
 20
192.3331697031
 10
286.6870629382
 20
192.3029272191
 10
286.6938177635
 20
192.2723058923
 10
286.6972294155
 20
192.2415114456
 10
286.6974228104
 20
192.2103381569
 10
286.6943488645
 20
192.1794174761
 10
286.6878760639
 20
192.1485199347
 10
286.6781359225
 20
192.117875001
 10
286.6654738986
 20
192.0888025274
 10
286.6498137295
 20
192.0614963619
 10
286.6312316778
 20
192.0357626535
 10
286.6103019899
 20
192.0123397038
 10
286.5869903356
 20
191.9912732052
 10
286.5613310451
 20
191.9725174618
 10
286.5340013543
 20
191.9566736917
 10
286.5047527246
 20
191.9438052564
 10
286.4738336948
 20
191.9338487915
 10
286.4426671169
 20
191.9272154262
 10
286.4114901986
 20
191.9240749308
 10
286.3800657323
 20
191.9242575338
 10
286.3491049476
 20
191.9276650532
 10
286.3184612045
 20
191.9344068897
 10
286.288281143
 20
191.9443736438
 10
286.2597159117
 20
191.9571389328
 10
286.2331492271
 20
191.9725606303
 10
286.2081973729
 20
191.9907808655
 10
286.1848603489
 20
192.0117996402
  0
LINE
  5
2BF
100
AcDbEntity
  8
0
100
AcDbLine
 62
7
  6
CONTINUOUS
 10
286.6096771036
 20
192.4366163949
 11
286.6329009922
 21
192.4102675767
  0
LWPOLYLINE
  5
2C0
100
AcDbEntity
  8
0
100
AcDbPolyline
 62
7
  6
CONTINUOUS
 90
26
 70
0
 10
286.6332701511
 20
192.409848745
 10
286.6532175444
 20
192.3813752119
 10
286.6695192834
 20
192.3511957969
 10
286.6822972759
 20
192.3188595391
 10
286.6914296142
 20
192.2848174034
 10
286.6965505748
 20
192.2504222786
 10
286.6974982882
 20
192.21566087
 10
286.694434624
 20
192.1805464735
 10
286.6874794676
 20
192.1464718611
 10
286.6764756411
 20
192.1134776066
 10
286.6615803223
 20
192.081523134
 10
286.6433849307
 20
192.0518794884
 10
286.6217568966
 20
192.0246405846
 10
286.5968287897
 20
191.9997125034
 10
286.5695897379
 20
191.9780845357
 10
286.5399456821
 20
191.9598892364
 10
286.5079906815
 20
191.9449940461
 10
286.4749960416
 20
191.9339905845
 10
286.4409211097
 20
191.9270361973
 10
286.4058065386
 20
191.9239735363
 10
286.3710455919
 20
191.9249221804
 10
286.3366520317
 20
191.9300438791
 10
286.302612096
 20
191.9391768838
 10
286.2702777621
 20
191.9519555273
 10
286.2400996892
 20
191.9682579217
 10
286.2116272182
 20
191.9882059585
  0
LWPOLYLINE
  5
2C1
100
AcDbEntity
  8
0
100
AcDbPolyline
 62
7
  6
CONTINUOUS
 90
26
 70
0
 10
285.7653923038
 20
192.4346205239
 10
285.7454661942
 20
192.4630839744
 10
285.7291832298
 20
192.4932507977
 10
285.7164217543
 20
192.525571506
 10
285.7073034241
 20
192.5595955903
 10
285.7021932083
 20
192.5939715189
 10
285.7012527625
 20
192.628712529
 10
285.7043204312
 20
192.6638053837
 10
285.7112762161
 20
192.6978588368
 10
285.7222770726
 20
192.7308323383
 10
285.7371660452
 20
192.7627664361
 10
285.7553522704
 20
192.7923915292
 10
285.7769681365
 20
192.8196138299
 10
285.8018812551
 20
192.8445271224
 10
285.8291035971
 20
192.8661431623
 10
285.8587291197
 20
192.8843295801
 10
285.8906638657
 20
192.899218742
 10
285.9236379345
 20
192.9102195071
 10
285.9576919713
 20
192.9171747273
 10
285.9927853309
 20
192.9202415489
 10
286.0275261766
 20
192.9193002727
 10
286.0619007775
 20
192.914189344
 10
286.0959228645
 20
192.9050703181
 10
286.1282417947
 20
192.8923081616
 10
286.1584073538
 20
192.8760245309
 10
286.1868697559
 20
192.8560977723
  0
LINE
  5
2C2
100
AcDbEntity
  8
0
100
AcDbLine
 62
7
  6
CONTINUOUS
 10
284.3517015805
 20
198.4424584938
 11
284.3453996349
 21
198.4610076559
  0
LWPOLYLINE
  5
2C3
100
AcDbEntity
  8
0
100
AcDbPolyline
 62
7
  6
CONTINUOUS
 90
8
 70
0
 10
284.9607664428
 20
197.2651831391
 10
284.9643929091
 20
197.2509038926
 10
284.9695071662
 20
197.2369095955
 10
284.9760379128
 20
197.2233421965
 10
284.9837712454
 20
197.2106275423
 10
284.9926358628
 20
197.1989075819
 10
285.0027030661
 20
197.1880403668
 10
285.0139728555
 20
197.1780258973
  0
LWPOLYLINE
  5
2C4
100
AcDbEntity
  8
0
100
AcDbPolyline
 62
7
  6
CONTINUOUS
 90
10
 70
0
 10
285.3308010979
 20
195.5688874036
 10
285.2994598342
 20
195.7031224136
 10
285.2585709903
 20
195.8346160708
 10
285.2082547024
 20
195.9634793926
 10
285.1492259154
 20
196.0878860661
 10
285.0813039608
 20
196.2078495396
 10
285.004669507
 20
196.3233563653
 10
284.9205795035
 20
196.4325398946
 10
284.8294529334
 20
196.5347779177
 10
284.7308708136
 20
196.6306926597
  0
LWPOLYLINE
  5
2C5
100
AcDbEntity
  8
0
100
AcDbPolyline
 62
7
  6
CONTINUOUS
 90
12
 70
0
 10
285.9593514737
 20
195.3970865071
 10
285.9672339671
 20
195.2249026468
 10
285.963431476
 20
195.0519065865
 10
285.9480005631
 20
194.8802634022
 10
285.9207667898
 20
194.7098566692
 10
285.8819045948
 20
194.5408028519
 10
285.8319938562
 20
194.3756163587
 10
285.770914006
 20
194.2144623865
 10
285.6987856122
 20
194.0571757646
 10
285.6165502573
 20
193.9057753424
 10
285.5240360296
 20
193.7602696458
 10
285.4214148408
 20
193.6206501538
  0
LWPOLYLINE
  5
2C6
100
AcDbEntity
  8
0
100
AcDbPolyline
 62
7
  6
CONTINUOUS
 90
9
 70
0
 10
283.5482542618
 20
190.7184424567
 10
283.5195042149
 20
190.7075725763
 10
283.4895906364
 20
190.6997004994
 10
283.4586489518
 20
190.6948279245
 10
283.4277019541
 20
190.693145975
 10
283.3967480384
 20
190.6947805498
 10
283.3657888096
 20
190.69960575
 10
283.3358518761
 20
190.7074350035
 10
283.3070774589
 20
190.718261949
  0
LWPOLYLINE
  5
2C7
100
AcDbEntity
  8
0
100
AcDbPolyline
 62
7
  6
CONTINUOUS
 90
9
 70
0
 10
283.3068073757
 20
191.8293441218
 10
283.3355247552
 20
191.840196866
 10
283.3654035351
 20
191.8480566356
 10
283.3963085292
 20
191.8529218254
 10
283.4272189109
 20
191.8546016396
 10
283.458136299
 20
191.8529704126
 10
283.4890590747
 20
191.84815381
 10
283.5189615553
 20
191.8403380348
 10
283.5477036792
 20
191.8295294332
  0
LINE
  5
2C8
100
AcDbEntity
  8
0
100
AcDbLine
 62
7
  6
CONTINUOUS
 10
282.4618091101
 20
199.1527995106
 11
282.4974634595
 21
199.1550535451
  0
LINE
  5
2C9
100
AcDbEntity
  8
0
100
AcDbLine
 62
7
  6
CONTINUOUS
 10
284.2069740961
 20
198.5533978718
 11
282.4974634595
 21
198.5533978718
  0
LINE
  5
2CA
100
AcDbEntity
  8
0
100
AcDbLine
 62
7
  6
CONTINUOUS
 10
284.2594088539
 20
199.1550535451
 11
282.4974634595
 21
199.1550535451
  0
LWPOLYLINE
  5
2CB
100
AcDbEntity
  8
0
100
AcDbPolyline
 62
7
  6
CONTINUOUS
 90
14
 70
0
 10
284.2594088539
 20
199.1550535451
 10
284.3111273425
 20
199.1531432016
 10
284.3627916809
 20
199.1473821158
 10
284.4141122184
 20
199.1377488157
 10
284.4649241725
 20
199.1242046656
 10
284.5147933672
 20
199.1067931632
 10
284.5630514529
 20
199.0857364548
 10
284.6093623404
 20
199.0612312811
 10
284.6535676335
 20
199.0334149268
 10
284.6953333732
 20
199.0025585385
 10
284.7342513789
 20
198.9690869369
 10
284.7703998295
 20
198.9330620703
 10
284.8041048044
 20
198.8941349206
 10
284.8353157053
 20
198.852148868
  0
LWPOLYLINE
  5
2CC
100
AcDbEntity
  8
0
100
AcDbPolyline
 62
7
  6
CONTINUOUS
 90
18
 70
0
 10
284.2594088539
 20
199.1550535451
 10
284.3204127595
 20
199.1523937392
 10
284.3809237362
 20
199.1444314706
 10
284.4404841527
 20
199.1312310205
 10
284.4986430083
 20
199.1128972665
 10
284.5549619078
 20
199.0895718166
 10
284.6090178817
 20
199.0614306836
 10
284.6604005132
 20
199.028689573
 10
284.7087239612
 20
198.9915978728
 10
284.7536303265
 20
198.9504305435
 10
284.794778652
 20
198.905497637
 10
284.8318562774
 20
198.8571395374
 10
284.8645865239
 20
198.8057157675
 10
284.8927186277
 20
198.7516112672
 10
284.9160348801
 20
198.6952365072
 10
284.9343576323
 20
198.6370185211
 10
284.9475444553
 20
198.5773975525
 10
284.9554896272
 20
198.5168238764
  0
LWPOLYLINE
  5
2CD
100
AcDbEntity
  8
0
100
AcDbPolyline
 62
7
  6
CONTINUOUS
 90
12
 70
0
 10
282.4974634595
 20
198.5533978718
 10
282.4656778062
 20
198.5549941607
 10
282.434627095
 20
198.5599229118
 10
282.404311326
 20
198.5681841246
 10
282.3742447498
 20
198.5799979331
 10
282.3449131158
 20
198.5951442002
 10
282.3177736721
 20
198.6129625181
 10
282.2930849759
 20
198.6335721144
 10
282.2705884699
 20
198.6568537568
 10
282.25096573
 20
198.6817893482
 10
282.2343800195
 20
198.7082555734
 10
282.220668075
 20
198.7363757438
  0
LINE
  5
2CE
100
AcDbEntity
  8
0
100
AcDbLine
 62
7
  6
CONTINUOUS
 10
282.4974634595
 20
198.5533978718
 11
282.4618036313
 21
198.5556517765
  0
LINE
  5
2CF
100
AcDbEntity
  8
0
100
AcDbLine
 62
7
  6
CONTINUOUS
 10
284.2265586225
 20
198.5521169537
 11
284.2069740961
 21
198.5533978718
  0
LWPOLYLINE
  5
2D0
100
AcDbEntity
  8
0
100
AcDbPolyline
 62
7
  6
CONTINUOUS
 90
10
 70
0
 10
282.4618036313
 20
198.5556517765
 10
282.427517211
 20
198.5616957281
 10
282.3946041987
 20
198.5715297254
 10
282.3626582143
 20
198.5853873702
 10
282.3320856379
 20
198.6030350568
 10
282.3041056095
 20
198.6237719728
 10
282.278824487
 20
198.6477223635
 10
282.2561359126
 20
198.6747619773
 10
282.2369399524
 20
198.7038172579
 10
282.2213770796
 20
198.7349685183
  0
LWPOLYLINE
  5
2D1
100
AcDbEntity
  8
0
100
AcDbPolyline
 62
7
  6
CONTINUOUS
 90
4
 70
0
 10
284.264334481
 20
198.5420075085
 10
284.2461636139
 20
198.5481673928
 10
284.2270434856
 20
198.5519641805
 10
284.2069740961
 20
198.5533978718
  0
LWPOLYLINE
  5
2D2
100
AcDbEntity
  8
0
100
AcDbPolyline
 62
7
  6
CONTINUOUS
 90
3
 70
0
 10
284.2982230501
 20
198.5224595593
 10
284.2819357538
 20
198.5333353423
 10
284.2643609899
 20
198.5419965396
  0
LWPOLYLINE
  5
2D3
100
AcDbEntity
  8
0
100
AcDbPolyline
 62
7
  6
CONTINUOUS
 90
43
 70
0
 10
285.0139728555
 20
197.1780258973
 10
285.158185455
 20
197.0532555753
 10
285.291447444
 20
196.9197473809
 10
285.4137588227
 20
196.7775012945
 10
285.5256749556
 20
196.625636283
 10
285.6266404781
 20
196.4650333463
 10
285.7149892968
 20
196.2983355277
 10
285.7905121149
 20
196.1254417406
 10
285.8534182291
 20
195.9464530767
 10
285.9026694363
 20
195.7643158667
 10
285.9380393621
 20
195.5789774241
 10
285.959754381
 20
195.3904904735
 10
285.9674554127
 20
195.2019594774
 10
285.960909965
 20
195.0133838249
 10
285.9403505301
 20
194.8247641805
 10
285.9061155048
 20
194.6392069232
 10
285.8579780532
 20
194.4567628325
 10
285.796165011
 20
194.2773811749
 10
285.7216952821
 20
194.1040160527
 10
285.6343590462
 20
193.9367674706
 10
285.5343661235
 20
193.7755354434
 10
285.423364878
 20
193.6229740739
 10
285.3011730769
 20
193.4792274242
 10
285.1679729531
 20
193.3441514181
 10
285.0259595693
 20
193.2199679348
 10
284.8749873063
 20
193.1068577409
 10
284.7152017833
 20
193.0046400304
 10
284.5492349215
 20
192.9149943122
 10
284.3769852481
 20
192.8381289941
 10
284.1985542359
 20
192.7738356226
 10
284.0168782242
 20
192.7231684118
 10
283.8319066404
 20
192.6863521196
 10
283.643690057
 20
192.6631619575
 10
283.4553165305
 20
192.6539778239
 10
283.266780966
 20
192.6590299402
 10
283.0780884584
 20
192.6780880836
 10
282.8923423489
 20
192.710841493
 10
282.7095906722
 20
192.7575166734
 10
282.5297853935
 20
192.8178871484
 10
282.35588575
 20
192.8909626894
 10
282.1879887485
 20
192.9769539832
 10
282.0259973821
 20
193.0756503884
 10
281.872579868
 20
193.1854296815
  0
LINE
  5
2D4
100
AcDbEntity
  8
0
100
AcDbLine
 62
7
  6
CONTINUOUS
 10
284.3131515149
 20
198.5093492681
 11
284.2984216738
 21
198.5221877804
  0
LWPOLYLINE
  5
2D5
100
AcDbEntity
  8
0
100
AcDbPolyline
 62
7
  6
CONTINUOUS
 90
11
 70
0
 10
285.1456992939
 20
197.0649522822
 10
285.2685175773
 20
196.9442896446
 10
285.3824277057
 20
196.8160379686
 10
285.4879215199
 20
196.6794771622
 10
285.5845071791
 20
196.5353272892
 10
285.6707091613
 20
196.3857485767
 10
285.7463156745
 20
196.2307760958
 10
285.8115385108
 20
196.0703747748
 10
285.8655375234
 20
195.9065996412
 10
285.9081863841
 20
195.7392818693
 10
285.9396114212
 20
195.5685903078
  0
LINE
  5
2D6
100
AcDbEntity
  8
0
100
AcDbLine
 62
7
  6
CONTINUOUS
 10
284.3258573607
 20
198.4948390669
 11
284.3130462311
 21
198.5094410333
  0
LINE
  5
2D7
100
AcDbEntity
  8
0
100
AcDbLine
 62
7
  6
CONTINUOUS
 10
284.3367353164
 20
198.4785665185
 11
284.3258573607
 21
198.4948390669
  0
LWPOLYLINE
  5
2D8
100
AcDbEntity
  8
0
100
AcDbPolyline
 62
7
  6
CONTINUOUS
 90
8
 70
0
 10
284.8635269479
 20
198.8075453362
 10
284.8883413959
 20
198.760833713
 10
284.9096018718
 20
198.7122489376
 10
284.927153767
 20
198.6620772093
 10
284.9407842313
 20
198.6109965138
 10
284.9504600706
 20
198.5594487202
 10
284.9562304622
 20
198.5076039732
 10
284.9581280436
 20
198.4557558589
  0
LWPOLYLINE
  5
2D9
100
AcDbEntity
  8
0
100
AcDbPolyline
 62
7
  6
CONTINUOUS
 90
21
 70
0
 10
287.8857919742
 20
195.3463342555
 10
287.9006760077
 20
195.3176756224
 10
287.9123578802
 20
195.2881178248
 10
287.9206172664
 20
195.2577832193
 10
287.9256744917
 20
195.2265494493
 10
287.9274648837
 20
195.1953233547
 10
287.9259475051
 20
195.1641262271
 10
287.9211632933
 20
195.1329367752
 10
287.9131703874
 20
195.1025979643
 10
287.9017546691
 20
195.0729608144
 10
287.8871302569
 20
195.0441743059
 10
287.8699976452
 20
195.0175283453
 10
287.8504376643
 20
194.9933210032
 10
287.828369484
 20
194.9712542092
 10
287.8042511085
 20
194.9517236588
 10
287.7778625876
 20
194.9346572944
 10
287.7494238715
 20
194.9201271737
 10
287.7200528152
 20
194.9087451636
 10
287.6901220369
 20
194.90071522
 10
287.6592589184
 20
194.895833387
 10
287.6274634595
 20
194.8940996648
  0
LINE
  5
2DA
100
AcDbEntity
  8
0
100
AcDbLine
 62
7
  6
CONTINUOUS
 10
284.3454164266
 20
198.4609671263
 11
284.3368199052
 21
198.4783374601
  0
LWPOLYLINE
  5
2DB
100
AcDbEntity
  8
0
100
AcDbPolyline
 62
7
  6
CONTINUOUS
 90
17
 70
0
 10
286.7914548682
 20
195.076502508
 10
286.7800912493
 20
195.1082531354
 10
286.7720144497
 20
195.1420285987
 10
286.7680570199
 20
195.1765324153
 10
286.7680599453
 20
195.2117354078
 10
286.7720234528
 20
195.2462391421
 10
286.7801071566
 20
195.280015037
 10
286.7921514425
 20
195.3130916734
 10
286.8076776954
 20
195.3441563615
 10
286.8268263436
 20
195.3731281259
 10
286.8494569587
 20
195.4000879422
 10
286.8746696406
 20
195.4239660473
 10
286.9025683438
 20
195.4446377873
 10
286.9330491138
 20
195.4622278168
 10
286.9649001867
 20
195.4760403352
 10
286.9977176414
 20
195.4858434091
 10
287.031905399
 20
195.4918689725
  0
LWPOLYLINE
  5
2DC
100
AcDbEntity
  8
0
100
AcDbPolyline
 62
7
  6
CONTINUOUS
 90
9
 70
0
 10
286.7808278088
 20
195.1055499735
 10
286.7732630463
 20
195.1357364789
 10
286.7687553945
 20
195.1669294692
 10
286.7674859134
 20
195.1980836476
 10
286.7695842369
 20
195.2292010692
 10
286.774920731
 20
195.2602796786
 10
286.7832875551
 20
195.2902680125
 10
286.7947482761
 20
195.3190726279
 10
286.8092393269
 20
195.346786968
  0
LWPOLYLINE
  5
2DD
100
AcDbEntity
  8
0
100
AcDbPolyline
 62
7
  6
CONTINUOUS
 90
10
 70
0
 43
0.3500000087
 10
314.4500342285
 20
196.2098204712
 10
314.5929061279
 20
196.2812393677
 10
314.6643250244
 20
196.2812393677
 10
314.8071969238
 20
196.1383845215
 10
314.8071969238
 20
196.0669485718
 10
314.7357439209
 20
195.9955296753
 10
314.6643250244
 20
195.9955296753
 10
314.521453125
 20
196.0669485718
 10
314.4500342285
 20
196.1383845215
 10
314.4500342285
 20
196.2098204712
  0
LWPOLYLINE
  5
2DE
100
AcDbEntity
  8
0
100
AcDbPolyline
 62
7
  6
CONTINUOUS
 90
3
 70
0
 43
0.3500000087
 10
314.6643250244
 20
196.2812393677
 10
314.8786158203
 20
196.2098204712
 10
315.1643255127
 20
196.0669485718
  0
LINE
  5
2DF
100
AcDbEntity
  8
0
100
AcDbLine
 62
250
  6
CONTINUOUS
 10
305.2004220853
 20
216.9939307033
 11
305.1767394217
 21
216.9228249348
  0
LINE
  5
2E0
100
AcDbEntity
  8
0
100
AcDbLine
 62
250
  6
CONTINUOUS
 10
305.7000414856
 20
216.4937018512
 11
305.6766632693
 21
216.4235101674
  0
LINE
  5
2E1
100
AcDbEntity
  8
0
100
AcDbLine
 62
250
  6
CONTINUOUS
 10
305.1767394217
 20
172.9253744908
 11
305.2004220853
 21
172.8542687223
  0
LINE
  5
2E2
100
AcDbEntity
  8
0
100
AcDbLine
 62
250
  6
CONTINUOUS
 10
305.6766632693
 20
173.4246892582
 11
305.7000414856
 21
173.3544975743
  0
LWPOLYLINE
  5
2E3
100
AcDbEntity
  8
0
100
AcDbPolyline
 62
7
  6
CONTINUOUS
 90
10
 70
0
 43
0.3500000087
 10
284.498896521
 20
228.2439240601
 10
284.5703154175
 20
228.1010692139
 10
284.5703154175
 20
228.0296503174
 10
284.4274605713
 20
227.8867954712
 10
284.3560416748
 20
227.8867954712
 10
284.2846057251
 20
227.9582143677
 10
284.2846057251
 20
228.0296503174
 10
284.3560416748
 20
228.1725051636
 10
284.4274605713
 20
228.2439240601
 10
284.498896521
 20
228.2439240601
  0
LWPOLYLINE
  5
2E4
100
AcDbEntity
  8
0
100
AcDbPolyline
 62
250
  6
CONTINUOUS
 90
7
 70
0
 10
305.1767394217
 20
216.9228249348
 10
305.1754944542
 20
216.913464393
 10
305.1742809837
 20
216.8967481467
 10
305.1730990103
 20
216.8729376296
 10
305.1719467599
 20
216.8424223539
 10
305.1708260066
 20
216.8054595429
 10
305.1686916128
 20
216.712000202
  0
LWPOLYLINE
  5
2E5
100
AcDbEntity
  8
0
100
AcDbPolyline
 62
250
  6
CONTINUOUS
 90
10
 70
0
 10
305.6766632693
 20
216.4235101674
 10
305.675418465
 20
216.4169480016
 10
305.6742050838
 20
216.4058619336
 10
305.6730231255
 20
216.3902519634
 10
305.6718707695
 20
216.3700189843
 10
305.6707498366
 20
216.3452621029
 10
305.6696657887
 20
216.3162786395
 10
305.6686153611
 20
216.2829790962
 10
305.6676018187
 20
216.245452971
 10
305.6657337781
 20
216.1595358994
  0
LWPOLYLINE
  5
2E6
100
AcDbEntity
  8
0
100
AcDbPolyline
 62
250
  6
CONTINUOUS
 90
6
 70
0
 10
305.1705994767
 20
173.0512085805
 10
305.1717715958
 20
173.0111074337
 10
305.1729736289
 20
172.9782164736
 10
305.1741989791
 20
172.9528323634
 10
305.1754542433
 20
172.9351519696
 10
305.1767394217
 20
172.9253744908
  0
LINE
  5
2E7
100
AcDbEntity
  8
0
100
AcDbLine
 62
250
  6
CONTINUOUS
 10
261.5918945471
 20
215.4860548296
 11
261.694714268
 21
215.4865680485
  0
LWPOLYLINE
  5
2E8
100
AcDbEntity
  8
0
100
AcDbPolyline
 62
250
  6
CONTINUOUS
 90
8
 70
0
 10
305.6683309875
 20
173.5751167863
 10
305.6694007952
 20
173.5398037683
 10
305.6705233208
 20
173.5087185944
 10
305.6716956151
 20
173.4818368912
 10
305.6728977498
 20
173.4599172472
 10
305.6741230824
 20
173.4432125251
 10
305.6753782556
 20
173.4314698621
 10
305.6766632693
 20
173.4246892582
  0
LINE
  5
2E9
100
AcDbEntity
  8
0
100
AcDbLine
 62
250
  6
CONTINUOUS
 10
305.6663517575
 20
173.6575215272
 11
305.6683309875
 21
173.5751167863
  0
LINE
  5
2EA
100
AcDbEntity
  8
0
100
AcDbLine
 62
250
  6
CONTINUOUS
 10
305.1684072266
 20
173.1511413946
 11
305.1705994767
 21
173.0512085805
  0
LINE
  5
2EB
100
AcDbEntity
  8
0
100
AcDbLine
 62
250
  6
CONTINUOUS
 10
305.6646208786
 20
173.7531432285
 11
305.6663517575
 21
173.6575215272
  0
LINE
  5
2EC
100
AcDbEntity
  8
0
100
AcDbLine
 62
250
  6
CONTINUOUS
 10
305.1664278453
 20
173.2746228939
 11
305.1684072266
 21
173.1511413946
  0
LINE
  5
2ED
100
AcDbEntity
  8
0
100
AcDbLine
 62
250
  6
CONTINUOUS
 10
305.6624987381
 20
173.9196072424
 11
305.6646208786
 21
173.7531432285
  0
LINE
  5
2EE
100
AcDbEntity
  8
0
100
AcDbLine
 62
250
  6
CONTINUOUS
 10
305.1639265555
 20
173.4967183365
 11
305.1664278453
 21
173.2746228939
  0
LINE
  5
2EF
100
AcDbEntity
  8
0
100
AcDbLine
 62
250
  6
CONTINUOUS
 10
305.6606760526
 20
174.1733077531
 11
305.6624987381
 21
173.9196072424
  0
LINE
  5
2F0
100
AcDbEntity
  8
0
100
AcDbLine
 62
250
  6
CONTINUOUS
 10
305.1610924059
 20
173.9488059635
 11
305.1639265555
 21
173.4967183365
  0
LINE
  5
2F1
100
AcDbEntity
  8
0
100
AcDbLine
 62
250
  6
CONTINUOUS
 10
305.1551517373
 20
183.4025278381
 11
305.1610924059
 21
173.9488059635
  0
LINE
  5
2F2
100
AcDbEntity
  8
0
100
AcDbLine
 62
250
  6
CONTINUOUS
 10
305.6550755849
 20
183.41404941
 11
305.6606760526
 21
174.1733077531
  0
LINE
  5
2F3
100
AcDbEntity
  8
0
100
AcDbLine
 62
7
  6
CONTINUOUS
 10
305.7000414856
 20
173.3544975743
 11
305.7000414856
 21
216.4937018512
  0
LINE
  5
2F4
100
AcDbEntity
  8
0
100
AcDbLine
 62
250
  6
CONTINUOUS
 10
305.6607090561
 20
215.6821031019
 11
305.6550755849
 21
183.41404941
  0
LINE
  5
2F5
100
AcDbEntity
  8
0
100
AcDbLine
 62
250
  6
CONTINUOUS
 10
305.1616102427
 20
216.0154834781
 11
305.1551517373
 21
183.4025278381
  0
LINE
  5
2F6
100
AcDbEntity
  8
0
100
AcDbLine
 62
250
  6
CONTINUOUS
 10
305.6620640368
 20
215.8833205038
 11
305.6607090561
 21
215.6821031019
  0
LINE
  5
2F7
100
AcDbEntity
  8
0
100
AcDbLine
 62
250
  6
CONTINUOUS
 10
305.1641605237
 20
216.3765195892
 11
305.1616102427
 21
216.0154834781
  0
LINE
  5
2F8
100
AcDbEntity
  8
0
100
AcDbLine
 62
250
  6
CONTINUOUS
 10
305.6640843174
 20
216.0593066039
 11
305.6620640368
 21
215.8833205038
  0
LINE
  5
2F9
100
AcDbEntity
  8
0
100
AcDbLine
 62
250
  6
CONTINUOUS
 10
305.1667165077
 20
216.5939588006
 11
305.1641605237
 21
216.3765195892
  0
LINE
  5
2FA
100
AcDbEntity
  8
0
100
AcDbLine
 62
250
  6
CONTINUOUS
 10
305.6657337781
 20
216.1595358994
 11
305.6640843174
 21
216.0593066039
  0
LINE
  5
2FB
100
AcDbEntity
  8
0
100
AcDbLine
 62
250
  6
CONTINUOUS
 10
305.1686916128
 20
216.712000202
 11
305.1667165077
 21
216.5939588006
  0
LINE
  5
2FC
100
AcDbEntity
  8
0
100
AcDbLine
 62
250
  6
CONTINUOUS
 10
261.6781874974
 20
216.9228249348
 11
305.1767394217
 21
216.9228249348
  0
LINE
  5
2FD
100
AcDbEntity
  8
0
100
AcDbLine
 62
7
  6
CONTINUOUS
 10
305.2004220853
 20
216.9939307033
 11
261.6545048338
 21
216.9939307033
  0
LWPOLYLINE
  5
2FE
100
AcDbEntity
  8
0
100
AcDbPolyline
 62
7
  6
CONTINUOUS
 90
3
 70
0
 43
0.3500000087
 10
312.8071949707
 20
197.2812403442
 10
311.9500317871
 20
198.1383864746
 10
314.9500347168
 20
198.1383864746
  0
LWPOLYLINE
  5
2FF
100
AcDbEntity
  8
0
100
AcDbPolyline
 62
250
  6
CONTINUOUS
 90
16
 70
0
 10
305.6766632693
 20
216.4235101674
 10
305.6738801823
 20
216.4756718997
 10
305.6656567587
 20
216.527262921
 10
305.6520829561
 20
216.5777186524
 10
305.6333072823
 20
216.6264869367
 10
305.6095351753
 20
216.6730340698
 10
305.5810267592
 20
216.716850644
 10
305.5480939862
 20
216.7574571415
 10
305.5110972334
 20
216.7944091647
 10
305.4704413707
 20
216.827302295
 10
305.4265713002
 20
216.8557765478
 10
305.3799671064
 20
216.8795202914
 10
305.3311388233
 20
216.8982736539
 10
305.2806208136
 20
216.9118313896
 10
305.2289659157
 20
216.9200451171
 10
305.1767394212
 20
216.9228249333
  0
LWPOLYLINE
  5
300
100
AcDbEntity
  8
0
100
AcDbPolyline
 62
250
  6
CONTINUOUS
 90
16
 70
0
 10
305.6766632693
 20
173.4246892582
 10
305.6738801126
 20
173.3725268692
 10
305.6656565053
 20
173.3209353184
 10
305.6520824422
 20
173.2704791971
 10
305.6333064709
 20
173.2217106711
 10
305.6095340658
 20
173.1751634378
 10
305.5810253799
 20
173.1313468861
 10
305.5480923976
 20
173.0907405216
 10
305.5110955203
 20
173.0537887193
 10
305.4704396227
 20
173.0208958608
 10
305.426569622
 20
172.9924219084
 10
305.3799656087
 20
172.9686784664
 10
305.3311375932
 20
172.9499253706
 10
305.2806199238
 20
172.9363678453
 10
305.22896544
 20
172.9281542569
 10
305.1767394217
 20
172.9253744908
  0
LWPOLYLINE
  5
301
100
AcDbEntity
  8
0
100
AcDbPolyline
 62
7
  6
CONTINUOUS
 90
3
 70
0
 43
0.3500000087
 10
314.3071964355
 20
194.7098190063
 10
314.3071964355
 20
193.2098175415
 10
311.9500317871
 20
193.852672876
  0
LWPOLYLINE
  5
302
100
AcDbEntity
  8
0
100
AcDbPolyline
 62
7
  6
CONTINUOUS
 90
3
 70
0
 43
0.3500000087
 10
314.3071964355
 20
192.3526714111
 10
314.3071964355
 20
190.8526699463
 10
311.9500317871
 20
191.4955252808
  0
LWPOLYLINE
  5
303
100
AcDbEntity
  8
0
100
AcDbPolyline
 62
250
  6
CONTINUOUS
 90
14
 70
0
 10
305.6601364986
 20
174.382193876
 10
305.6565570742
 20
174.3800679838
 10
305.6476596723
 20
174.377964866
 10
305.63353959
 20
174.3759070566
 10
305.6143480813
 20
174.373916605
 10
305.5902907417
 20
174.3720148378
 10
305.5616253088
 20
174.3702221297
 10
305.5286588907
 20
174.3685576882
 10
305.4917446847
 20
174.3670393487
 10
305.4512782051
 20
174.365683381
 10
305.4076930159
 20
174.3645043152
 10
305.3614561045
 20
174.3635147845
 10
305.3130628974
 20
174.3627253896
 10
305.2630319148
 20
174.362144588
  0
LWPOLYLINE
  5
304
100
AcDbEntity
  8
0
100
AcDbPolyline
 62
7
  6
CONTINUOUS
 90
8
 70
0
 43
0.3500000087
 10
285.570316394
 20
227.7439235718
 10
286.4274625244
 20
227.7439235718
 10
286.8560441162
 20
228.1725051636
 10
286.8560441162
 20
229.0296512939
 10
286.4274625244
 20
229.4582158325
 10
285.570316394
 20
229.4582158325
 10
285.570316394
 20
230.7439265015
 10
286.8560441162
 20
230.7439265015
  0
LWPOLYLINE
  5
305
100
AcDbEntity
  8
0
100
AcDbPolyline
 62
7
  6
CONTINUOUS
 90
3
 70
0
 43
0.3500000087
 10
282.9988950562
 20
228.3867959595
 10
281.4988935913
 20
228.3867959595
 10
282.1417489258
 20
230.7439265015
  0
LWPOLYLINE
  5
306
100
AcDbEntity
  8
0
100
AcDbPolyline
 62
7
  6
CONTINUOUS
 90
3
 70
0
 43
0.3500000087
 10
280.6417474609
 20
228.3867959595
 10
279.1417459961
 20
228.3867959595
 10
279.7846013306
 20
230.7439265015
  0
LWPOLYLINE
  5
307
100
AcDbEntity
  8
0
100
AcDbPolyline
 62
250
  6
CONTINUOUS
 90
16
 70
0
 10
305.6601364986
 20
215.4660055693
 10
305.6565569956
 20
215.46813148
 10
305.6476594059
 20
215.4702346125
 10
305.6335390629
 20
215.472292433
 10
305.6143472591
 20
215.4742828928
 10
305.5902896253
 20
215.4761846651
 10
305.5616239272
 20
215.4779773734
 10
305.5286573038
 20
215.4796418097
 10
305.4917429762
 20
215.4811601403
 10
305.4512764634
 20
215.4825160972
 10
305.4076913443
 20
215.4836951518
 10
305.3614546121
 20
215.4846846712
 10
305.3130616707
 20
215.4854740531
 10
305.2630310269
 20
215.4860548398
 10
305.2118987346
 20
215.4864208083
 10
261.694714268
 20
215.4865680376
  0
LWPOLYLINE
  5
308
100
AcDbEntity
  8
0
100
AcDbPolyline
 62
7
  6
CONTINUOUS
 90
10
 70
0
 43
0.3500000087
 10
234.240133252
 20
227.7439235718
 10
235.0972793823
 20
228.6010697021
 10
235.311553125
 20
229.4582158325
 10
235.311553125
 20
230.3153619629
 10
234.8829885864
 20
230.7439265015
 10
234.240133252
 20
230.7439265015
 10
233.8115687134
 20
230.3153619629
 10
233.8115687134
 20
229.4582158325
 10
234.240133252
 20
229.0296512939
 10
235.1686982788
 20
229.0296512939
  0
LWPOLYLINE
  5
309
100
AcDbEntity
  8
0
100
AcDbPolyline
 62
7
  6
CONTINUOUS
 90
3
 70
0
 43
0.3500000087
 10
232.8115677368
 20
228.0296503174
 10
232.7401317871
 20
227.8153595215
 10
232.5972769409
 20
227.5296498291
  0
LINE
  5
30A
100
AcDbEntity
  8
0
100
AcDbLine
 62
250
  6
CONTINUOUS
 10
245.3252938785
 20
173.484254625
 11
245.1278999215
 21
173.484254625
  0
LINE
  5
30B
100
AcDbEntity
  8
0
100
AcDbLine
 62
7
  6
CONTINUOUS
 10
243.4685149896
 20
172.9253744908
 11
244.8252938785
 21
172.8542687223
  0
LINE
  5
30C
100
AcDbEntity
  8
0
100
AcDbLine
 62
250
  6
CONTINUOUS
 10
243.4859567645
 20
173.4246892582
 11
244.8252938785
 21
173.3544975743
  0
LINE
  5
30D
100
AcDbEntity
  8
0
100
AcDbLine
 62
250
  6
CONTINUOUS
 10
242.0509627918
 20
174.3617786043
 11
242.0482879072
 21
174.3616313603
  0
LINE
  5
30E
100
AcDbEntity
  8
0
100
AcDbLine
 62
250
  6
CONTINUOUS
 10
242.539138708
 20
174.382193876
 11
242.0509627918
 21
174.3617786043
  0
LWPOLYLINE
  5
30F
100
AcDbEntity
  8
0
100
AcDbPolyline
 62
250
  6
CONTINUOUS
 90
13
 70
0
 10
247.1601561508
 20
176.5846293607
 10
247.1699409401
 20
176.5871292253
 10
247.1792800805
 20
176.5928508138
 10
247.1880206333
 20
176.6017004586
 10
247.1960194607
 20
176.613533268
 10
247.2031455676
 20
176.6281554937
 10
247.2092822482
 20
176.6453277004
 10
247.2143290013
 20
176.6647686968
 10
247.2182031714
 20
176.68616013
 10
247.2208413046
 20
176.7091516873
 10
247.2222001913
 20
176.7333668562
 10
247.2222575719
 20
176.758409094
 10
247.2210124998
 20
176.7838683046
  0
LINE
  5
310
100
AcDbEntity
  8
0
100
AcDbLine
 62
7
  6
CONTINUOUS
 10
247.1601561756
 20
176.5846293629
 11
245.3252938785
 21
176.4240997128
  0
LINE
  5
311
100
AcDbEntity
  8
0
100
AcDbLine
 62
250
  6
CONTINUOUS
 10
247.0296571463
 20
176.7738234502
 11
245.3252938785
 21
176.6247109857
  0
LINE
  5
312
100
AcDbEntity
  8
0
100
AcDbLine
 62
250
  6
CONTINUOUS
 10
247.2210124594
 20
176.7838683025
 11
247.0296571463
 21
176.7738234502
  0
LINE
  5
313
100
AcDbEntity
  8
0
100
AcDbLine
 62
250
  6
CONTINUOUS
 10
247.2210183646
 20
180.0643308074
 11
247.0296571463
 21
180.0743759754
  0
LINE
  5
314
100
AcDbEntity
  8
0
100
AcDbLine
 62
7
  6
CONTINUOUS
 10
246.9252938785
 20
181.6708414948
 11
245.3252938785
 21
181.5869890479
  0
LINE
  5
315
100
AcDbEntity
  8
0
100
AcDbLine
 62
250
  6
CONTINUOUS
 10
247.0296571463
 20
180.0743759754
 11
245.3252938785
 21
180.2234884399
  0
LINE
  5
316
100
AcDbEntity
  8
0
100
AcDbLine
 62
7
  6
CONTINUOUS
 10
247.1601561756
 20
180.2635700627
 11
245.3252938785
 21
180.4240997128
  0
LINE
  5
317
100
AcDbEntity
  8
0
100
AcDbLine
 62
7
  6
CONTINUOUS
 10
245.3252938785
 20
185.2612103777
 11
246.9252938785
 21
185.1773579308
  0
LWPOLYLINE
  5
318
100
AcDbEntity
  8
0
100
AcDbPolyline
 62
250
  6
CONTINUOUS
 90
22
 70
0
 10
242.5391387088
 20
174.3821938563
 10
242.5448989354
 20
174.3108169461
 10
242.5552026107
 20
174.241188245
 10
242.5700497348
 20
174.1733077531
 10
242.5895380703
 20
174.1070699903
 10
242.6135698546
 20
174.0425804368
 10
242.6418517999
 20
173.9801555325
 10
242.6744713151
 20
173.9196072424
 10
242.7113409914
 20
173.8611236016
 10
242.7519053146
 20
173.8055851551
 10
242.7960486655
 20
173.7531432285
 10
242.8438866634
 20
173.7036464962
 10
242.8952106516
 20
173.6575215272
 10
242.9501626617
 20
173.6146332751
 10
243.0086006622
 20
173.5751167863
 10
243.0698899013
 20
173.5398037683
 10
243.1341993539
 20
173.5087185944
 10
243.2013600452
 20
173.4818368912
 10
243.2702302995
 20
173.4599172472
 10
243.3404295582
 20
173.4432125251
 10
243.4123383799
 20
173.4314698621
 10
243.4859567645
 20
173.4246892582
  0
LWPOLYLINE
  5
319
100
AcDbEntity
  8
0
100
AcDbPolyline
 62
250
  6
CONTINUOUS
 90
16
 70
0
 10
242.5391387088
 20
215.4660055693
 10
242.4294702503
 20
212.5336246158
 10
242.3366993202
 20
209.6876165423
 10
242.2608259183
 20
206.9279813488
 10
242.2030471847
 20
204.2790043437
 10
242.1621659794
 20
201.7164002186
 10
242.1345908828
 20
199.167313048
 10
242.1188353694
 20
196.629564368
 10
242.1163859648
 20
194.1053326426
 10
242.1281108255
 20
191.5282973375
 10
242.1527703431
 20
188.8927358824
 10
242.191604126
 20
186.2043708476
 10
242.2491991559
 20
183.41404941
 10
242.3270844266
 20
180.505387295
 10
242.4237309442
 20
177.4947687771
 10
242.5391387088
 20
174.3821938563
  0
LWPOLYLINE
  5
31A
100
AcDbEntity
  8
0
100
AcDbPolyline
 62
250
  6
CONTINUOUS
 90
19
 70
0
 10
245.1279051083
 20
173.4842565129
 10
245.1357568072
 20
173.4392759632
 10
245.1426685425
 20
173.3952609627
 10
245.1485861769
 20
173.3525436373
 10
245.1535136238
 20
173.3112129576
 10
245.1573697985
 20
173.2717901824
 10
245.1600832703
 20
173.2351457584
 10
245.1617915746
 20
173.2015625385
 10
245.1625744047
 20
173.1709668277
 10
245.1624058657
 20
173.1435132544
 10
245.1614405228
 20
173.1194625831
 10
245.1598587693
 20
173.0983888088
 10
245.1575829668
 20
173.0795224253
 10
245.1545924847
 20
173.0629478084
 10
245.150985496
 20
173.0487098686
 10
245.1466170145
 20
173.0364207644
 10
245.1413306409
 20
173.0262924702
 10
245.1351085909
 20
173.0188405215
 10
245.1278999215
 20
173.0144083146
  0
LINE
  5
31B
100
AcDbEntity
  8
0
100
AcDbLine
 62
250
  6
CONTINUOUS
 10
243.4859567645
 20
216.4235101674
 11
243.4783040966
 21
216.5777186524
  0
LINE
  5
31C
100
AcDbEntity
  8
0
100
AcDbLine
 62
250
  6
CONTINUOUS
 10
243.4783040966
 20
216.5777186524
 11
243.4740514929
 21
216.6730340698
  0
LINE
  5
31D
100
AcDbEntity
  8
0
100
AcDbLine
 62
250
  6
CONTINUOUS
 10
243.4740514929
 20
216.6730340698
 11
243.4706995181
 21
216.7574571415
  0
LWPOLYLINE
  5
31E
100
AcDbEntity
  8
0
100
AcDbPolyline
 62
250
  6
CONTINUOUS
 90
8
 70
0
 10
243.4706995181
 20
216.7574571415
 10
243.4683945133
 20
216.827302295
 10
243.4676679931
 20
216.8557765478
 10
243.4672371131
 20
216.8795202914
 10
243.46710659
 20
216.8982736539
 10
243.467277853
 20
216.9118313896
 10
243.4677490286
 20
216.9200451171
 10
243.4685149611
 20
216.9228249333
  0
LWPOLYLINE
  5
31F
100
AcDbEntity
  8
0
100
AcDbPolyline
 62
250
  6
CONTINUOUS
 90
7
 70
0
 10
243.468394489
 20
173.0208958608
 10
243.4676679845
 20
172.9924219084
 10
243.4672371181
 20
172.9686784664
 10
243.4671066063
 20
172.9499253706
 10
243.4672778776
 20
172.9363678453
 10
243.4677490575
 20
172.9281542569
 10
243.4685149896
 20
172.9253744908
  0
LINE
  5
320
100
AcDbEntity
  8
0
100
AcDbLine
 62
250
  6
CONTINUOUS
 10
243.4706994613
 20
173.0907405216
 11
243.468394489
 21
173.0208958608
  0
LINE
  5
321
100
AcDbEntity
  8
0
100
AcDbLine
 62
250
  6
CONTINUOUS
 10
243.4740514144
 20
173.1751634378
 11
243.4706994613
 21
173.0907405216
  0
LINE
  5
322
100
AcDbEntity
  8
0
100
AcDbLine
 62
250
  6
CONTINUOUS
 10
243.4807113777
 20
173.3209353184
 11
243.4740514144
 21
173.1751634378
  0
LINE
  5
323
100
AcDbEntity
  8
0
100
AcDbLine
 62
250
  6
CONTINUOUS
 10
243.4859567645
 20
173.4246892582
 11
243.4807113777
 21
173.3209353184
  0
LWPOLYLINE
  5
324
100
AcDbEntity
  8
0
100
AcDbPolyline
 62
250
  6
CONTINUOUS
 90
16
 70
0
 10
247.5252938785
 20
179.8650230318
 10
247.5234081328
 20
179.8865375909
 10
247.5179611966
 20
179.9069745268
 10
247.5092786011
 20
179.9263338394
 10
247.4977388016
 20
179.9446584313
 10
247.4836527472
 20
179.9619053998
 10
247.4671599758
 20
179.9779460378
 10
247.4486291686
 20
179.9927202249
 10
247.428209871
 20
180.0062880814
 10
247.4054241959
 20
180.0187012603
 10
247.3800866472
 20
180.0301512241
 10
247.3524822847
 20
180.0404465103
 10
247.3226571084
 20
180.0490643851
 10
247.2907033789
 20
180.0558306039
 10
247.2567716851
 20
180.0609194114
 10
247.2210183646
 20
180.0643308074
  0
LINE
  5
325
100
AcDbEntity
  8
0
100
AcDbLine
 62
250
  6
CONTINUOUS
 10
247.0381345591
 20
176.674247693
 11
247.0296571463
 21
176.7738234502
  0
LINE
  5
326
100
AcDbEntity
  8
0
100
AcDbLine
 62
7
  6
CONTINUOUS
 10
244.8252938785
 20
172.8542687223
 11
244.8252938785
 21
216.9939307033
  0
LINE
  5
327
100
AcDbEntity
  8
0
100
AcDbLine
 62
250
  6
CONTINUOUS
 10
245.1278999215
 20
216.3639448006
 11
245.1278999215
 21
173.484254625
  0
LINE
  5
328
100
AcDbEntity
  8
0
100
AcDbLine
 62
7
  6
CONTINUOUS
 10
245.3252938785
 20
216.5518833247
 11
245.3252938785
 21
173.2963161009
  0
LINE
  5
329
100
AcDbEntity
  8
0
100
AcDbLine
 62
250
  6
CONTINUOUS
 10
246.7357610821
 20
208.1872909238
 11
246.7357610698
 21
204.6609085012
  0
LINE
  5
32A
100
AcDbEntity
  8
0
100
AcDbLine
 62
250
  6
CONTINUOUS
 10
246.7357610698
 20
185.1872909244
 11
246.7357610821
 21
181.6609085018
  0
LINE
  5
32B
100
AcDbEntity
  8
0
100
AcDbLine
 62
7
  6
CONTINUOUS
 10
246.9252938785
 20
208.1773579308
 11
246.9252938785
 21
204.6708414948
  0
LINE
  5
32C
100
AcDbEntity
  8
0
100
AcDbLine
 62
7
  6
CONTINUOUS
 10
246.9252938785
 20
185.1773579308
 11
246.9252938785
 21
181.6708414948
  0
LINE
  5
32D
100
AcDbEntity
  8
0
100
AcDbLine
 62
250
  6
CONTINUOUS
 10
247.0296571463
 20
180.0743759754
 11
247.0296571463
 21
176.7738234502
  0
LINE
  5
32E
100
AcDbEntity
  8
0
100
AcDbLine
 62
7
  6
CONTINUOUS
 10
247.5252938785
 20
179.8650921834
 11
247.5252938785
 21
176.9831072422
  0
LWPOLYLINE
  5
32F
100
AcDbEntity
  8
0
100
AcDbPolyline
 62
250
  6
CONTINUOUS
 90
7
 70
0
 10
247.0453429877
 20
176.5745845106
 10
247.0454199798
 20
176.5763071496
 10
247.0451976877
 20
176.5814060796
 10
247.0446799114
 20
176.5897941409
 10
247.0438754994
 20
176.6013279499
 10
247.042798204
 20
176.6158103509
 10
247.0381345591
 20
176.674247693
  0
LWPOLYLINE
  5
330
100
AcDbEntity
  8
0
100
AcDbPolyline
 62
250
  6
CONTINUOUS
 90
13
 70
0
 10
247.221012452
 20
180.0643311234
 10
247.222257519
 20
180.0897900737
 10
247.2222001603
 20
180.1148321025
 10
247.2208413161
 20
180.1390471215
 10
247.2182032395
 20
180.1620385867
 10
247.2143291324
 20
180.18342999
 10
247.2092824384
 20
180.2028710254
 10
247.2031458032
 20
180.2200433285
 10
247.1960197208
 20
180.2346656883
 10
247.188020889
 20
180.2464986514
 10
247.1792802972
 20
180.2553484443
 10
247.1699410812
 20
180.2610701464
 10
247.16015618
 20
180.2635700623
  0
LWPOLYLINE
  5
331
100
AcDbEntity
  8
0
100
AcDbPolyline
 62
250
  6
CONTINUOUS
 90
5
 70
0
 10
247.0438754981
 20
180.2468714759
 10
247.0446799106
 20
180.2584052848
 10
247.0451976873
 20
180.266793346
 10
247.0454199796
 20
180.271892276
 10
247.0453429877
 20
180.273614915
  0
LINE
  5
332
100
AcDbEntity
  8
0
100
AcDbLine
 62
250
  6
CONTINUOUS
 10
247.0414664435
 20
180.2152056397
 11
247.0438754981
 21
180.2468714759
  0
LWPOLYLINE
  5
333
100
AcDbEntity
  8
0
100
AcDbPolyline
 62
250
  6
CONTINUOUS
 90
19
 70
0
 10
247.5252938785
 20
176.9831747221
 10
247.5236872863
 20
176.9633615897
 10
247.5190840603
 20
176.9445717611
 10
247.5118121388
 20
176.9268052362
 10
247.5022086607
 20
176.9100230699
 10
247.4905906832
 20
176.8942642073
 10
247.4772302873
 20
176.8796454837
 10
247.462449894
 20
176.8662390801
 10
247.4464905133
 20
176.8539728155
 10
247.4294112271
 20
176.8427469816
 10
247.4115179333
 20
176.8325922566
 10
247.3928973856
 20
176.8234779623
 10
247.3731008168
 20
176.8152123561
 10
247.352308159
 20
176.8077015008
 10
247.3304831459
 20
176.8010393334
 10
247.3066042935
 20
176.7953159231
 10
247.2802398338
 20
176.7905612926
 10
247.2517099317
 20
176.7867454191
 10
247.2210124594
 20
176.7838683025
  0
LINE
  5
334
100
AcDbEntity
  8
0
100
AcDbLine
 62
250
  6
CONTINUOUS
 10
247.0361913905
 20
180.150586444
 11
247.0414664435
 21
180.2152056397
  0
LINE
  5
335
100
AcDbEntity
  8
0
100
AcDbLine
 62
250
  6
CONTINUOUS
 10
247.0296571463
 20
180.0743759754
 11
247.0361913905
 21
180.150586444
  0
LWPOLYLINE
  5
336
100
AcDbEntity
  8
0
100
AcDbPolyline
 62
7
  6
CONTINUOUS
 90
10
 70
0
 43
0.3500000087
 10
232.7401317871
 20
228.2439240601
 10
232.8115677368
 20
228.1010692139
 10
232.8115677368
 20
228.0296503174
 10
232.6686958374
 20
227.8867954712
 10
232.5972769409
 20
227.8867954712
 10
232.5258409912
 20
227.9582143677
 10
232.5258409912
 20
228.0296503174
 10
232.5972769409
 20
228.1725051636
 10
232.6686958374
 20
228.2439240601
 10
232.7401317871
 20
228.2439240601
  0
LINE
  5
337
100
AcDbEntity
  8
0
100
AcDbLine
 62
7
  6
CONTINUOUS
 10
245.3252938785
 20
204.5869890479
 11
246.9252938785
 21
204.6708414948
  0
LINE
  5
338
100
AcDbEntity
  8
0
100
AcDbLine
 62
7
  6
CONTINUOUS
 10
245.3252938785
 20
208.2612103777
 11
246.9252938785
 21
208.1773579308
  0
LWPOLYLINE
  5
339
100
AcDbEntity
  8
0
100
AcDbPolyline
 62
250
  6
CONTINUOUS
 90
19
 70
0
 10
245.1279056989
 20
216.8337890081
 10
245.136727175
 20
216.8277992219
 10
245.1441364236
 20
216.817101278
 10
245.1501744468
 20
216.8022061269
 10
245.1549768307
 20
216.7835701323
 10
245.1585737943
 20
216.7617529916
 10
245.1609222357
 20
216.7374772304
 10
245.1622114094
 20
216.7113433984
 10
245.1626116965
 20
216.68378578
 10
245.1620922396
 20
216.6552720355
 10
245.1608204241
 20
216.626508971
 10
245.1590060402
 20
216.5975621375
 10
245.1565576172
 20
216.5677417876
 10
245.153484611
 20
216.5373620326
 10
245.1499064049
 20
216.5064622834
 10
245.1456526962
 20
216.4737121288
 10
245.1405681457
 20
216.4387025201
 10
245.1346639575
 20
216.4020566572
 10
245.1278999215
 20
216.3639448006
  0
LINE
  5
33A
100
AcDbEntity
  8
0
100
AcDbLine
 62
250
  6
CONTINUOUS
 10
245.1278999215
 20
173.484254625
 11
244.8252938785
 21
173.3741150327
  0
LINE
  5
33B
100
AcDbEntity
  8
0
100
AcDbLine
 62
7
  6
CONTINUOUS
 10
245.1278999215
 20
173.0144083146
 11
244.8252938785
 21
172.9042687223
  0
LWPOLYLINE
  5
33C
100
AcDbEntity
  8
0
100
AcDbPolyline
 62
250
  6
CONTINUOUS
 90
22
 70
0
 10
243.4859567645
 20
216.4235101674
 10
243.4146419766
 20
216.4169480016
 10
243.3451274108
 20
216.4058619336
 10
243.2774130671
 20
216.3902519634
 10
243.2113946384
 20
216.3700189843
 10
243.1471764319
 20
216.3452621029
 10
243.0850713694
 20
216.3162786395
 10
243.0248924161
 20
216.2829790962
 10
242.9668266068
 20
216.245452971
 10
242.9117479674
 20
216.2042660777
 10
242.8598066345
 20
216.1595358994
 10
242.8108524714
 20
216.1111449531
 10
242.7653090942
 20
216.0593066039
 10
242.7230429696
 20
216.0038773318
 10
242.684187631
 20
215.9450006568
 10
242.6495672938
 20
215.8833205038
 10
242.6192081791
 20
215.8186681378
 10
242.5930840658
 20
215.7512122938
 10
242.5719405069
 20
215.6821031019
 10
242.5560260199
 20
215.6117239389
 10
242.5450920872
 20
215.539691428
 10
242.5391387088
 20
215.4660055693
  0
LINE
  5
33D
100
AcDbEntity
  8
0
100
AcDbLine
 62
250
  6
CONTINUOUS
 10
244.8252938785
 20
216.4937018512
 11
243.4859567645
 21
216.4235101674
  0
LINE
  5
33E
100
AcDbEntity
  8
0
100
AcDbLine
 62
7
  6
CONTINUOUS
 10
244.8252938785
 20
216.9939307033
 11
243.4685149896
 21
216.9228249348
  0
LINE
  5
33F
100
AcDbEntity
  8
0
100
AcDbLine
 62
250
  6
CONTINUOUS
 10
245.3252938785
 20
216.3639448006
 11
245.1278999215
 21
216.3639448006
  0
LWPOLYLINE
  5
340
100
AcDbEntity
  8
0
100
AcDbPolyline
 62
7
  6
CONTINUOUS
 90
8
 70
0
 43
0.3500000087
 10
229.9544196533
 20
227.7439235718
 10
230.8115657837
 20
227.7439235718
 10
231.2401303223
 20
228.1725051636
 10
231.2401303223
 20
229.0296512939
 10
230.8115657837
 20
229.4582158325
 10
229.9544196533
 20
229.4582158325
 10
229.9544196533
 20
230.7439265015
 10
231.2401303223
 20
230.7439265015
  0
LWPOLYLINE
  5
341
100
AcDbEntity
  8
0
100
AcDbPolyline
 62
250
  6
CONTINUOUS
 90
3
 70
0
 10
242.5391387088
 20
215.4660055693
 10
242.0509627418
 20
215.4864208083
 10
242.0482879061
 20
215.4865680376
  0
LINE
  5
342
100
AcDbEntity
  8
0
100
AcDbLine
 62
250
  6
CONTINUOUS
 10
244.8252938785
 20
216.4740843929
 11
245.1278999215
 21
216.3639448006
  0
LINE
  5
343
100
AcDbEntity
  8
0
100
AcDbLine
 62
7
  6
CONTINUOUS
 10
244.8252938785
 20
216.9439307033
 11
245.1278999215
 21
216.8337911109
  0
ARC
  5
344
100
AcDbEntity
  8
0
100
AcDbCircle
 62
7
  6
CONTINUOUS
 10
243.547018924
 20
174.423318793
 40
1.5
100
AcDbArc
 50
182.3569499908
 51
267.0
  0
ARC
  5
345
100
AcDbEntity
  8
0
100
AcDbCircle
 62
7
  6
CONTINUOUS
 10
247.1252938785
 20
176.9831072422
 40
0.4
100
AcDbArc
 50
275.0
 51
360.0
  0
ARC
  5
346
100
AcDbEntity
  8
0
100
AcDbCircle
 62
7
  6
CONTINUOUS
 10
247.1252938785
 20
179.8650921834
 40
0.4
100
AcDbArc
 50
0.0
 51
85.0
  0
ARC
  5
347
100
AcDbEntity
  8
0
100
AcDbCircle
 62
7
  6
CONTINUOUS
 10
245.0252938785
 20
173.2963161009
 40
0.3
100
AcDbArc
 50
290.0
 51
360.0
  0
ARC
  5
348
100
AcDbEntity
  8
0
100
AcDbCircle
 62
7
  6
CONTINUOUS
 10
243.547018924
 20
215.4248806326
 40
1.5
100
AcDbArc
 50
93.0
 51
177.6430500092
  0
ARC
  5
349
100
AcDbEntity
  8
0
100
AcDbCircle
 62
7
  6
CONTINUOUS
 10
245.0252938785
 20
216.5518833247
 40
0.3
100
AcDbArc
 50
0.0
 51
70.0
  0
ARC
  5
34A
100
AcDbEntity
  8
0
100
AcDbCircle
 62
7
  6
CONTINUOUS
 10
741.6252938785
 20
194.9240997128
 40
500.0
100
AcDbArc
 50
177.6430500092
 51
182.3569499908
  0
ELLIPSE
  5
34B
100
AcDbEntity
  8
0
100
AcDbEllipse
 62
7
  6
CONTINUOUS
 10
321.7984139992
 20
194.9240997128
 30
0.0
 11
501.0650251186
 21
-499.6444881004
 31
0.0
 40
0.0376232033
 41
-1.6043254521
 42
-1.6035336208
  0
ELLIPSE
  5
34C
100
AcDbEntity
  8
0
100
AcDbEllipse
 62
7
  6
CONTINUOUS
 10
245.5965129198
 20
194.9240997128
 30
0.0
 11
501.0650251186
 21
-499.6444881004
 31
0.0
 40
0.0376232033
 41
1.5272594126
 42
1.5280515459
  0
ELLIPSE
  5
34D
100
AcDbEntity
  8
0
100
AcDbEllipse
 62
7
  6
CONTINUOUS
 10
310.3689039558
 20
194.9240997128
 30
0.0
 11
0.0
 21
500.0
 31
0.0
 40
0.053282881
 41
-4.7056489294
 42
-4.7045288995
  0
ELLIPSE
  5
34E
100
AcDbEntity
  8
0
100
AcDbEllipse
 62
7
  6
CONTINUOUS
 10
256.4860229632
 20
194.9240997128
 30
0.0
 11
0.0
 21
500.0
 31
0.0
 40
0.053282881
 41
-1.5786564077
 42
-1.5775363778
  0
ELLIPSE
  5
34F
100
AcDbEntity
  8
0
100
AcDbEllipse
 62
7
  6
CONTINUOUS
 10
321.2584139992
 20
194.9240997128
 30
0.0
 11
501.0650251186
 21
499.6444881004
 31
0.0
 40
0.0376232033
 41
1.6135411077
 42
1.614333241
  0
ELLIPSE
  5
350
100
AcDbEntity
  8
0
100
AcDbEllipse
 62
7
  6
CONTINUOUS
 10
245.0565129198
 20
194.9240997128
 30
0.0
 11
501.0650251186
 21
499.6444881004
 31
0.0
 40
0.0376232033
 41
-1.5380590328
 42
-1.5372672015
  0
ELLIPSE
  5
351
100
AcDbEntity
  8
0
100
AcDbEllipse
 62
7
  6
CONTINUOUS
 10
257.7160229632
 20
194.9240997128
 30
0.0
 11
-0.0
 21
500.0
 31
0.0
 40
0.053282881
 41
-1.5661041513
 42
-1.5638371359
  0
ELLIPSE
  5
352
100
AcDbEntity
  8
0
100
AcDbEllipse
 62
7
  6
CONTINUOUS
 10
311.5989039558
 20
194.9240997128
 30
0.0
 11
0.0
 21
500.0
 31
0.0
 40
0.053282881
 41
1.5637329558
 42
1.5660544638
  0
ELLIPSE
  5
353
100
AcDbEntity
  8
0
100
AcDbEllipse
 62
7
  6
CONTINUOUS
 10
305.1999653215
 20
173.3549548953
 30
0.0
 11
0.1582391023
 21
-0.4751033573
 31
0.0
 40
0.9984778551
 41
-0.3210503505
 42
1.2488325878
  0
ELLIPSE
  5
354
100
AcDbEntity
  8
0
100
AcDbEllipse
 62
7
  6
CONTINUOUS
 10
305.1999653215
 20
216.4932445303
 30
0.0
 11
-0.1582391023
 21
-0.4751033573
 31
0.0
 40
0.9984778551
 41
1.8927600658
 42
3.4626430041
  0
ELLIPSE
  5
355
100
AcDbEntity
  8
0
100
AcDbEllipse
 62
7
  6
CONTINUOUS
 10
261.6549615975
 20
216.4932445303
 30
0.0
 11
-0.1582391023
 21
0.4751033573
 31
0.0
 40
0.9984778551
 41
-0.3210503505
 42
1.2488325878
  0
ELLIPSE
  5
356
100
AcDbEntity
  8
0
100
AcDbEllipse
 62
7
  6
CONTINUOUS
 10
261.6549615975
 20
173.3549548953
 30
0.0
 11
0.1582391023
 21
0.4751033573
 31
0.0
 40
0.9984778551
 41
1.8927600658
 42
3.4626430041
  0
ENDSEC
  0
SECTION
  2
OBJECTS
  0
DICTIONARY
  5
C
100
AcDbDictionary
280
0
281
1
  3
ACAD_GROUP
350
D
  3
ACAD_MLINESTYLE
350
17
  3
ACAD_LAYOUT
350
1A
  3
ACAD_PLOTSETTINGS
350
19
  3
ACAD_PLOTSTYLENAME
350
E
  0
DICTIONARY
  5
D
102
{ACAD_REACTORS
330
C
102
}
100
AcDbDictionary
280
0
281
1
  0
ACDBDICTIONARYWDFLT
  5
E
102
{ACAD_REACTORS
330
C
102
}
100
AcDbDictionary
281
1
  3
Normal
350
F
100
AcDbDictionaryWithDefault
340
F
  0
DICTIONARY
  5
17
102
{ACAD_REACTORS
330
C
102
}
100
AcDbDictionary
280
0
281
1
  3
Standard
350
18
  0
DICTIONARY
  5
19
102
{ACAD_REACTORS
330
C
102
}
100
AcDbDictionary
281
1
  0
DICTIONARY
  5
1A
102
{ACAD_REACTORS
330
C
102
}
100
AcDbDictionary
281
1
  3
Model
350
357
  3
Layout1
350
358
  0
ACDBPLACEHOLDER
  5
F
102
{ACAD_REACTORS
330
E
102
}
  0
MLINESTYLE
  5
18
102
{ACAD_REACTORS
330
17
102
}
100
AcDbMlineStyle
  2
STANDARD
 70
0
  3

 62
256
 51
90.0
 52
90.0
 71
2
 49
0.5
 62
256
  6
BYLAYER
 49
-0.5
 62
256
  6
BYLAYER
  0
LAYOUT
  5
357
102
{ACAD_REACTORS
330
1A
102
}
100
AcDbPlotSettings
  1

  2
none_device
  4
ANSI_C_(22.00_x_17.00_Inches)
  6

 40
0.0
 41
0.0
 42
0.0
 43
0.0
 44
558.8
 45
431.8
 46
0.0
 47
0.0
 48
0.0
 49
0.0
140
0.0
141
0.0
142
1.0
143
1.0
 70
1024
 72
1
 73
0
 74
0
  7

 75
0
147
1.0
148
0.0
149
0.0
100
AcDbLayout
  1
Model
 70
0
 71
0
 10
0.0
 20
0.0
 11
558.8
 21
431.8
 12
0.0
 22
0.0
 32
0.0
 14
0.0
 24
0.0
 34
0.0
 15
0.0
 25
0.0
 35
0.0
146
0.0
 13
0.0
 23
0.0
 33
0.0
 16
1.0
 26
0.0
 36
0.0
 17
0.0
 27
1.0
 37
0.0
 76
0
330
214
345
0
346
0
  0
LAYOUT
  5
358
102
{ACAD_REACTORS
330
1A
102
}
100
AcDbPlotSettings
  1

  2
none_device
  4
ANSI_C_(22.00_x_17.00_Inches)
  6

 40
0.0
 41
0.0
 42
0.0
 43
0.0
 44
558.8
 45
431.8
 46
0.0
 47
0.0
 48
0.0
 49
0.0
140
0.0
141
0.0
142
1.0
143
1.0
 70
0
 72
1
 73
0
 74
0
  7

 75
0
147
1.0
148
0.0
149
0.0
100
AcDbLayout
  1
Layout1
 70
0
 71
1
 10
0.0
 20
0.0
 11
558.8
 21
431.8
 12
0.0
 22
0.0
 32
0.0
 14
0.0
 24
0.0
 34
0.0
 15
0.0
 25
0.0
 35
0.0
146
0.0
 13
0.0
 23
0.0
 33
0.0
 16
1.0
 26
0.0
 36
0.0
 17
0.0
 27
1.0
 37
0.0
 76
0
330
215
345
0
346
0
  0
ENDSEC
  0
EOF
