  0
SECTION
  2
HEADER
  9
$ACADVER
  1
AC1024
  9
$DWGCODEPAGE
  3
ANSI_1252
  9
$EXTMAX
 10
558.8
 20
431.8
 30
0.0
  9
$EXTMIN
 10
0.0
 20
0.0
 30
0.0
  9
$LIMMIN
 10
0.0
 20
0.0
  9
$LIMMAX
 10
558.8
 20
431.8
  9
$VIEWCTR
 10
279.4
 20
215.9
  9
$VIEWSIZE
 40
431.8
  9
$CLAYER
  8
0
  9
$LTSCALE
 40
30.734
  9
$CELTYPE
  6
BYLAYER
  9
$DIMSCALE
 40
1.0
  9
$DIMASZ
 40
3.0
  9
$DIMEXO
 40
0.5
  9
$DIMDLI
 40
21.2344
  9
$DIMEXE
 40
1.5
  9
$DIMCEN
 40
5.0292
  9
$DIMLFAC
 40
1.0
  9
$DIMBLK
  1
_FILLED
  9
$DIMALT
 70
0
  9
$DIMALTF
 40
0.0393700787
  9
$DIMTXT
 40
3.0
  9
$DIMTOL
 70
1
  9
$DIMLIM
 70
0
  9
$DIMTFAC
 40
1.0
  9
$DIMTP
 40
0.01
  9
$DIMTM
 40
0.01
  9
$DIMGAP
 40
0.625
  9
$DIMDSEP
 70
44
  9
$AUNITS
 70
0
  9
$PDMODE
 70
3
  9
$PDSIZE
 40
3.0
  9
$HANDSEED
  5
32D
  9
$TILEMODE
 70
1
  9
$MEASUREMENT
 70
1
  9
$INSUNITS
 70
4
  0
ENDSEC
  0
SECTION
  2
CLASSES
  0
CLASS
  1
ACDBDICTIONARYWDFLT
  2
AcDbDictionaryWithDefault
  3
AutoCAD 2000
 90
0
 91
1
280
0
281
0
  0
CLASS
  1
ACDBPLACEHOLDER
  2
AcDbPlaceHolder
  3
AutoCAD 2000
 90
0
 91
1
280
0
281
0
  0
CLASS
  1
LAYOUT
  2
AcDbLayout
  3
AutoCAD 2000
 90
0
 91
0
280
0
281
0
  0
ENDSEC
  0
SECTION
  2
TABLES
  0
TABLE
  2
VPORT
  5
8
100
AcDbSymbolTable
 70
2
  0
VPORT
  5
1F4
100
AcDbSymbolTableRecord
100
AcDbViewportTableRecord
  2
*ACTIVE
 70
0
 10
0.0
 20
0.0
 11
1.0
 21
1.0
 12
279.4
 22
215.9
 13
0.0
 23
0.0
 14
1.0
 24
1.0
 15
0.0
 25
0.0
 16
0.0
 26
0.0
 36
1.0
 17
0.0
 27
0.0
 37
0.0
 40
431.8
 41
1.2941176471
 42
50.0
 43
0.0
 44
0.0
 50
0.0
 51
0.0
 71
0
 72
100
 73
1
 74
1
 75
0
 76
0
 77
0
 78
0
  0
ENDTAB
  0
TABLE
  2
LTYPE
  5
5
100
AcDbSymbolTable
 70
6
  0
LTYPE
  5
14
100
AcDbSymbolTableRecord
100
AcDbLinetypeTableRecord
  2
BYBLOCK
 70
0
  3

 72
65
 73
0
 40
0.0
  0
LTYPE
  5
15
100
AcDbSymbolTableRecord
100
AcDbLinetypeTableRecord
  2
BYLAYER
 70
0
  3

 72
65
 73
0
 40
0.0
  0
LTYPE
  5
16
100
AcDbSymbolTableRecord
100
AcDbLinetypeTableRecord
  2
CONTINUOUS
 70
64
  3
Solid line
 72
65
 73
0
 40
0.0
  0
LTYPE
  5
1F5
100
AcDbSymbolTableRecord
100
AcDbLinetypeTableRecord
  2
CENTER
 70
64
  3
____ _ ____ _ ____ _ ____ _ ____ _ ____ _ ____
 72
65
 73
4
 40
0.6
 49
0.375
 74
0
 49
-0.075
 74
0
 49
0.075
 74
0
 49
-0.075
 74
0
  0
LTYPE
  5
1F6
100
AcDbSymbolTableRecord
100
AcDbLinetypeTableRecord
  2
HIDDEN
 70
64
  3
- - - - - - - - - - - - - - - - - - - -
 72
65
 73
2
 40
0.2
 49
0.1
 74
0
 49
-0.1
 74
0
  0
LTYPE
  5
1F7
100
AcDbSymbolTableRecord
100
AcDbLinetypeTableRecord
  2
PHANTOM
 70
64
  3
_____ _ _ _____ _ _ _____ _ _ _____
 72
65
 73
6
 40
0.8
 49
0.45
 74
0
 49
-0.05
 74
0
 49
0.1
 74
0
 49
-0.05
 74
0
 49
0.1
 74
0
 49
-0.05
 74
0
  0
LTYPE
  5
1F8
100
AcDbSymbolTableRecord
100
AcDbLinetypeTableRecord
  2
DOT
 70
64
  3
. . . . . . . . . . . . . . . . . . . .
 72
65
 73
2
 40
0.2
 49
0.1
 74
0
 49
-0.1
 74
0
  0
LTYPE
  5
1F9
100
AcDbSymbolTableRecord
100
AcDbLinetypeTableRecord
  2
DASHED
 70
64
  3
- - - - - - - - - - - - - - - - - - - -
 72
65
 73
2
 40
0.2
 49
0.1
 74
0
 49
-0.1
 74
0
  0
ENDTAB
  0
TABLE
  2
LAYER
  5
2
100
AcDbSymbolTable
 70
36
  0
LAYER
  5
10
100
AcDbSymbolTableRecord
100
AcDbLayerTableRecord
  2
0
 70
0
 62
7
  6
CONTINUOUS
370
-3
390
F
  0
LAYER
  5
1FA
100
AcDbSymbolTableRecord
100
AcDbLayerTableRecord
  2
DEFAULT_1
 70
0
 62
7
  6
CENTER
370
-3
390
F
  0
LAYER
  5
1FB
100
AcDbSymbolTableRecord
100
AcDbLayerTableRecord
  2
DEFAULT_2
 70
0
 62
7
  6
HIDDEN
370
-3
390
F
  0
LAYER
  5
1FC
100
AcDbSymbolTableRecord
100
AcDbLayerTableRecord
  2
DEFAULT_3
 70
0
 62
7
  6
PHANTOM
370
-3
390
F
  0
LAYER
  5
1FD
100
AcDbSymbolTableRecord
100
AcDbLayerTableRecord
  2
ASSI
 70
0
 62
7
  6
CONTINUOUS
370
-3
390
F
  0
LAYER
  5
1FE
100
AcDbSymbolTableRecord
100
AcDbLayerTableRecord
  2
COORDINATE
 70
0
 62
7
  6
CONTINUOUS
370
-3
390
F
  0
LAYER
  5
1FF
100
AcDbSymbolTableRecord
100
AcDbLayerTableRecord
  2
COPY_PUBLISH
 70
0
 62
7
  6
CONTINUOUS
370
-3
390
F
  0
LAYER
  5
200
100
AcDbSymbolTableRecord
100
AcDbLayerTableRecord
  2
COSMETIC
 70
0
 62
7
  6
CONTINUOUS
370
-3
390
F
  0
LAYER
  5
201
100
AcDbSymbolTableRecord
100
AcDbLayerTableRecord
  2
COSMETICI
 70
0
 62
7
  6
CONTINUOUS
370
-3
390
F
  0
LAYER
  5
202
100
AcDbSymbolTableRecord
100
AcDbLayerTableRecord
  2
CURVE
 70
0
 62
7
  6
CONTINUOUS
370
-3
390
F
  0
LAYER
  5
203
100
AcDbSymbolTableRecord
100
AcDbLayerTableRecord
  2
DRAFT
 70
0
 62
7
  6
CONTINUOUS
370
-3
390
F
  0
LAYER
  5
204
100
AcDbSymbolTableRecord
100
AcDbLayerTableRecord
  2
IMPORT_IGES
 70
0
 62
7
  6
CONTINUOUS
370
-3
390
F
  0
LAYER
  5
205
100
AcDbSymbolTableRecord
100
AcDbLayerTableRecord
  2
INTFCLR_11
 70
0
 62
7
  6
CONTINUOUS
370
-3
390
F
  0
LAYER
  5
206
100
AcDbSymbolTableRecord
100
AcDbLayerTableRecord
  2
INTF_1
 70
0
 62
7
  6
CONTINUOUS
370
-3
390
F
  0
LAYER
  5
207
100
AcDbSymbolTableRecord
100
AcDbLayerTableRecord
  2
INTF_3
 70
0
 62
7
  6
CONTINUOUS
370
-3
390
F
  0
LAYER
  5
208
100
AcDbSymbolTableRecord
100
AcDbLayerTableRecord
  2
NOTE
 70
0
 62
7
  6
CONTINUOUS
370
-3
390
F
  0
LAYER
  5
209
100
AcDbSymbolTableRecord
100
AcDbLayerTableRecord
  2
PIANI
 70
0
 62
7
  6
CONTINUOUS
370
-3
390
F
  0
LAYER
  5
20A
100
AcDbSymbolTableRecord
100
AcDbLayerTableRecord
  2
PUNTI
 70
0
 62
7
  6
CONTINUOUS
370
-3
390
F
  0
LAYER
  5
20B
100
AcDbSymbolTableRecord
100
AcDbLayerTableRecord
  2
RACCORDO
 70
0
 62
7
  6
CONTINUOUS
370
-3
390
F
  0
LAYER
  5
20C
100
AcDbSymbolTableRecord
100
AcDbLayerTableRecord
  2
SIMBOLI
 70
0
 62
7
  6
CONTINUOUS
370
-3
390
F
  0
LAYER
  5
20D
100
AcDbSymbolTableRecord
100
AcDbLayerTableRecord
  2
SMUSSO
 70
0
 62
7
  6
CONTINUOUS
370
-3
390
F
  0
LAYER
  5
20E
100
AcDbSymbolTableRecord
100
AcDbLayerTableRecord
  2
SNAPLINE
 70
0
 62
7
  6
CONTINUOUS
370
-3
390
F
  0
LAYER
  5
20F
100
AcDbSymbolTableRecord
100
AcDbLayerTableRecord
  2
SUPERFICI
 70
0
 62
7
  6
CONTINUOUS
370
-3
390
F
  0
LAYER
  5
210
100
AcDbSymbolTableRecord
100
AcDbLayerTableRecord
  2
TRASH
 70
0
 62
7
  6
CONTINUOUS
370
-3
390
F
  0
LAYER
  5
211
100
AcDbSymbolTableRecord
100
AcDbLayerTableRecord
  2
___SHELL
 70
0
 62
7
  6
CONTINUOUS
370
-3
390
F
  0
ENDTAB
  0
TABLE
  2
STYLE
  5
3
100
AcDbSymbolTable
 70
1
  0
STYLE
  5
11
100
AcDbSymbolTableRecord
100
AcDbTextStyleTableRecord
  2
STANDARD
 70
0
 40
0.0
 41
0.8
 50
0.0
 71
0
 42
0.2
  3
txt
  4

  0
STYLE
  5
212
100
AcDbSymbolTableRecord
100
AcDbTextStyleTableRecord
  2
TEXTSTYLE_1
 70
0
 40
0.0
 41
0.8
 50
0.0
 71
0
 42
0.2
  3
gdt
  4

  0
ENDTAB
  0
TABLE
  2
VIEW
  5
6
100
AcDbSymbolTable
 70
0
  0
ENDTAB
  0
TABLE
  2
UCS
  5
7
100
AcDbSymbolTable
 70
0
  0
ENDTAB
  0
TABLE
  2
APPID
  5
9
100
AcDbSymbolTable
 70
1
  0
APPID
  5
213
100
AcDbSymbolTableRecord
100
AcDbRegAppTableRecord
  2
ACAD
 70
0
  0
ENDTAB
  0
TABLE
  2
BLOCK_RECORD
  5
1
100
AcDbSymbolTable
 70
0
  0
BLOCK_RECORD
  5
214
100
AcDbSymbolTableRecord
100
AcDbBlockTableRecord
  2
*Model_Space
  0
BLOCK_RECORD
  5
215
100
AcDbSymbolTableRecord
100
AcDbBlockTableRecord
  2
*Paper_Space
  0
BLOCK_RECORD
  5
216
100
AcDbSymbolTableRecord
100
AcDbBlockTableRecord
  2
_FILLED
  0
BLOCK_RECORD
  5
217
100
AcDbSymbolTableRecord
100
AcDbBlockTableRecord
  2
*D0
  0
BLOCK_RECORD
  5
218
100
AcDbSymbolTableRecord
100
AcDbBlockTableRecord
  2
*D1
  0
BLOCK_RECORD
  5
219
100
AcDbSymbolTableRecord
100
AcDbBlockTableRecord
  2
*D2
  0
ENDTAB
  0
TABLE
  2
DIMSTYLE
  5
A
100
AcDbSymbolTable
 70
1
100
AcDbDimStyleTable
 71
0
  0
DIMSTYLE
105
21A
100
AcDbSymbolTableRecord
100
AcDbDimStyleTableRecord
  2
STANDARD
 70
0
  3

  4

 40
1.0
 41
3.0
 42
0.5
 43
0.38
 44
1.5
 45
0.0
 46
0.0
 47
0.01
 48
0.01
140
3.0
141
0.09
142
0.0
143
25.4
144
1.0
145
0.0
146
1.0
147
0.625
 71
1
 72
0
 73
0
 74
0
 75
0
 76
0
 77
1
 78
8
 79
2
170
0
171
1
172
0
173
0
174
0
175
0
176
0
177
0
178
0
270
2
179
2
271
2
272
2
273
2
274
2
275
0
280
0
281
0
282
0
283
1
284
8
285
0
286
0
287
3
288
0
340
11
278
44
341
216
342
216
343
216
344
216
  0
DIMSTYLE
105
21B
100
AcDbSymbolTableRecord
100
AcDbDimStyleTableRecord
  2
DIMSTYLE_1
 70
0
  3

  4

 40
1.0
 41
3.0
 42
0.5
 43
0.38
 44
1.5
 45
0.0
 46
0.0
 47
0.0
 48
0.0
140
3.0
141
0.09
142
0.0
143
25.4
144
1.0
145
0.0
146
1.0
147
0.75
 71
0
 72
0
 73
0
 74
0
 75
0
 76
0
 77
1
 78
8
 79
2
170
0
171
1
172
0
173
0
174
0
175
0
176
0
177
0
178
0
270
2
179
2
271
2
272
2
273
2
274
2
275
0
280
0
281
0
282
0
283
1
284
8
285
0
286
0
287
3
288
0
340
11
278
44
341
216
342
216
343
216
344
216
  0
DIMSTYLE
105
21C
100
AcDbSymbolTableRecord
100
AcDbDimStyleTableRecord
  2
DIMSTYLE_2
 70
0
  3

  4

 40
1.0
 41
3.0
 42
0.5
 43
0.38
 44
1.5
 45
0.0
 46
0.0
 47
0.0
 48
0.0
140
3.0
141
0.09
142
0.0
143
25.4
144
1.0
145
0.0
146
1.0
147
0.75
 71
0
 72
0
 73
0
 74
0
 75
0
 76
0
 77
1
 78
8
 79
2
170
0
171
1
172
0
173
0
174
0
175
0
176
0
177
0
178
0
270
2
179
2
271
1
272
1
273
2
274
2
275
0
280
0
281
0
282
0
283
1
284
8
285
0
286
0
287
3
288
0
340
11
278
44
341
216
342
216
343
216
344
216
  0
ENDTAB
  0
ENDSEC
  0
SECTION
  2
BLOCKS
  0
BLOCK
  5
20
100
AcDbEntity
  8
0
100
AcDbBlockBegin
  2
*Model_Space
 70
0
 10
0.0
 20
0.0
 30
0.0
  3
*Model_Space
  1

  0
ENDBLK
  5
21
100
AcDbEntity
  8
0
100
AcDbBlockEnd
  0
BLOCK
  5
1C
100
AcDbEntity
  8
0
100
AcDbBlockBegin
  2
*Paper_Space
 70
0
 10
0.0
 20
0.0
 30
0.0
  3
*Paper_Space
  1

  0
ENDBLK
  5
1D
100
AcDbEntity
  8
0
100
AcDbBlockEnd
  0
BLOCK
  5
21D
100
AcDbEntity
  8
0
100
AcDbBlockBegin
  2
_FILLED
 70
64
 10
0.0
 20
0.0
  3
_FILLED
  1

  0
SOLID
  5
21E
100
AcDbEntity
  8
0
  6
BYBLOCK
 62
0
100
AcDbTrace
 10
0.0
 20
0.0
 11
-1.0
 21
0.3166666667
 12
-1.0
 22
-0.3166666667
 13
-1.0
 23
-0.3166666667
  0
ENDBLK
  5
21F
100
AcDbEntity
  8
0
  6
BYBLOCK
 62
0
100
AcDbBlockEnd
  0
BLOCK
  5
220
100
AcDbEntity
  8
0
100
AcDbBlockBegin
 62
7
  6
CONTINUOUS
  2
*D0
 70
65
 10
0.0
 20
0.0
  3
*D0
  1

  0
MTEXT
  5
221
100
AcDbEntity
  8
0
100
AcDbMText
 62
7
  6
CONTINUOUS
  7
STANDARD
 71
3
 72
1
 10
227.1130466368
 20
230.4918141498
 30
0.0
 11
1.0
 21
0.0
 31
0.0
 73
2
 44
0.9
  1
{\ftxt;\W0.0001;\H0.0001;\~}{\ftxt;\W2.0714285714;\H3.0; }{\ftxt;\W0.0001;\H0.0001;\~}
 40
3.0
 41
9.3214285714
  0
LINE
  5
222
100
AcDbEntity
  8
0
100
AcDbLine
 62
7
  6
CONTINUOUS
 10
237.5463868241
 20
180.1129064781
 11
237.5463868241
 21
228.2418141498
  0
LINE
  5
223
100
AcDbEntity
  8
0
100
AcDbLine
 62
7
  6
CONTINUOUS
 10
231.6463868241
 20
195.1719831593
 11
231.6463868241
 21
228.2418141498
  0
LINE
  5
224
100
AcDbEntity
  8
0
100
AcDbLine
 62
7
  6
CONTINUOUS
 10
237.5463868241
 20
226.7418141498
 11
241.5463868241
 21
226.7418141498
  0
LINE
  5
225
100
AcDbEntity
  8
0
100
AcDbLine
 62
7
  6
CONTINUOUS
 10
241.5463868241
 20
226.7418141498
 11
234.5963868241
 21
226.7418141498
  0
LINE
  5
226
100
AcDbEntity
  8
0
100
AcDbLine
 62
7
  6
CONTINUOUS
 10
231.6463868241
 20
226.7418141498
 11
220.8987609225
 21
226.7418141498
  0
LINE
  5
227
100
AcDbEntity
  8
0
100
AcDbLine
 62
7
  6
CONTINUOUS
 10
220.8987609225
 20
226.7418141498
 11
234.5963868241
 21
226.7418141498
  0
INSERT
  5
228
100
AcDbEntity
  8
0
100
AcDbBlockReference
 62
7
  6
CONTINUOUS
  2
_FILLED
 10
237.5463868241
 20
226.7418141498
 41
3.0
 42
3.0
 43
3.0
 50
180.0
  0
INSERT
  5
229
100
AcDbEntity
  8
0
100
AcDbBlockReference
 62
7
  6
CONTINUOUS
  2
_FILLED
 10
231.6463868241
 20
226.7418141498
 41
3.0
 42
3.0
 43
3.0
  0
ENDBLK
  5
22A
100
AcDbEntity
  8
0
  6
BYBLOCK
 62
0
100
AcDbBlockEnd
  0
BLOCK
  5
22B
100
AcDbEntity
  8
0
100
AcDbBlockBegin
 62
7
  6
CONTINUOUS
  2
*D1
 70
65
 10
0.0
 20
0.0
  3
*D1
  1

  0
MTEXT
  5
22C
100
AcDbEntity
  8
0
100
AcDbMText
 62
7
  6
CONTINUOUS
  7
STANDARD
 71
2
 72
1
 10
275.5911688642
 20
230.4918141498
 30
0.0
 11
1.0
 21
0.0
 31
0.0
 73
2
 44
0.9
  1
{\ftxt;\W0.0001;\H0.0001;\~}{\ftxt;\W2.8571428571;\H3.0; }{\ftxt;\W0.0001;\H0.0001;\~}
 40
3.0
 41
12.8571428571
  0
LINE
  5
22D
100
AcDbEntity
  8
0
100
AcDbLine
 62
7
  6
CONTINUOUS
 10
253.3185908382
 20
216.7415852977
 11
253.3185908382
 21
228.2418141498
  0
LINE
  5
22E
100
AcDbEntity
  8
0
100
AcDbLine
 62
7
  6
CONTINUOUS
 10
297.8637468903
 20
216.7415852977
 11
297.8637468903
 21
228.2418141498
  0
LINE
  5
22F
100
AcDbEntity
  8
0
100
AcDbLine
 62
7
  6
CONTINUOUS
 10
253.3185908382
 20
226.7418141498
 11
275.5911688642
 21
226.7418141498
  0
LINE
  5
230
100
AcDbEntity
  8
0
100
AcDbLine
 62
7
  6
CONTINUOUS
 10
297.8637468903
 20
226.7418141498
 11
275.5911688642
 21
226.7418141498
  0
INSERT
  5
231
100
AcDbEntity
  8
0
100
AcDbBlockReference
 62
7
  6
CONTINUOUS
  2
_FILLED
 10
253.3185908382
 20
226.7418141498
 41
3.0
 42
3.0
 43
3.0
 50
180.0
  0
INSERT
  5
232
100
AcDbEntity
  8
0
100
AcDbBlockReference
 62
7
  6
CONTINUOUS
  2
_FILLED
 10
297.8637468903
 20
226.7418141498
 41
3.0
 42
3.0
 43
3.0
  0
ENDBLK
  5
233
100
AcDbEntity
  8
0
  6
BYBLOCK
 62
0
100
AcDbBlockEnd
  0
BLOCK
  5
234
100
AcDbEntity
  8
0
100
AcDbBlockBegin
 62
7
  6
CONTINUOUS
  2
*D2
 70
65
 10
0.0
 20
0.0
  3
*D2
  1

  0
MTEXT
  5
235
100
AcDbEntity
  8
0
100
AcDbMText
 62
7
  6
CONTINUOUS
  7
STANDARD
 71
2
 72
1
 10
304.1137468903
 20
194.6719831593
 30
0.0
 11
0.0
 21
1.0
 31
0.0
 73
2
 44
0.9
  1
{\ftxt;\W0.0001;\H0.0001;\~}{\ftxt;\W2.7142857143;\H3.0; }{\ftxt;\W0.0001;\H0.0001;\~}
 40
3.0
 41
12.2142857143
  0
LINE
  5
236
100
AcDbEntity
  8
0
100
AcDbLine
 62
7
  6
CONTINUOUS
 10
297.86412749
 20
216.7418141498
 11
309.3637468903
 21
216.7418141498
  0
LINE
  5
237
100
AcDbEntity
  8
0
100
AcDbLine
 62
7
  6
CONTINUOUS
 10
297.86412749
 20
172.6021521688
 11
309.3637468903
 21
172.6021521688
  0
LINE
  5
238
100
AcDbEntity
  8
0
100
AcDbLine
 62
7
  6
CONTINUOUS
 10
307.8637468903
 20
216.7418141498
 11
307.8637468903
 21
194.6719831593
  0
LINE
  5
239
100
AcDbEntity
  8
0
100
AcDbLine
 62
7
  6
CONTINUOUS
 10
307.8637468903
 20
172.6021521688
 11
307.8637468903
 21
194.6719831593
  0
INSERT
  5
23A
100
AcDbEntity
  8
0
100
AcDbBlockReference
 62
7
  6
CONTINUOUS
  2
_FILLED
 10
307.8637468903
 20
216.7418141498
 41
3.0
 42
3.0
 43
3.0
 50
90.0
  0
INSERT
  5
23B
100
AcDbEntity
  8
0
100
AcDbBlockReference
 62
7
  6
CONTINUOUS
  2
_FILLED
 10
307.8637468903
 20
172.6021521688
 41
3.0
 42
3.0
 43
3.0
 50
270.0
  0
ENDBLK
  5
23C
100
AcDbEntity
  8
0
  6
BYBLOCK
 62
0
100
AcDbBlockEnd
  0
ENDSEC
  0
SECTION
  2
ENTITIES
  0
DIMENSION
  5
23D
100
AcDbEntity
  8
0
100
AcDbDimension
 62
7
  6
CONTINUOUS
  2
*D0
 10
231.6463868241
 20
226.7418141498
 11
223.5773329346
 21
226.7418141498
 70
160
 71
3
 72
2
 41
0.9
 42
5.9
  1
{\ftxt;\W0.0001;\H0.0001;\~}{\ftxt;\W2.0714285714;\H3.0; }{\ftxt;\W0.0001;\H0.0001;\~}
  3
DIMSTYLE_1
100
AcDbAlignedDimension
 13
237.5463868241
 23
179.6129064781
 14
231.6463868241
 24
194.6719831593
 50
180.0
100
AcDbRotatedDimension
  0
DIMENSION
  5
23E
100
AcDbEntity
  8
0
100
AcDbDimension
 62
7
  6
CONTINUOUS
  2
*D1
 10
297.8637468903
 20
226.7418141498
 11
275.1625981812
 21
226.7418141498
 70
160
 71
2
 72
2
 41
0.9
 42
44.545156052
  1
{\ftxt;\W0.0001;\H0.0001;\~}{\ftxt;\W2.8571428571;\H3.0; }{\ftxt;\W0.0001;\H0.0001;\~}
  3
DIMSTYLE_2
100
AcDbAlignedDimension
 13
253.3185908382
 23
216.2415852977
 14
297.8637468903
 24
216.2415852977
100
AcDbRotatedDimension
  0
DIMENSION
  5
23F
100
AcDbEntity
  8
0
100
AcDbDimension
 62
7
  6
CONTINUOUS
  2
*D2
 10
307.8637468903
 20
172.6021521688
 11
307.8637468903
 21
194.2434038035
 70
160
 71
2
 72
2
 41
0.9
 42
44.139661981
  1
{\ftxt;\W0.0001;\H0.0001;\~}{\ftxt;\W2.7142857143;\H3.0; }{\ftxt;\W0.0001;\H0.0001;\~}
  3
DIMSTYLE_2
100
AcDbAlignedDimension
 13
297.36412749
 23
216.7418141498
 14
297.36412749
 24
172.6021521688
 50
270.0
100
AcDbRotatedDimension
  0
LWPOLYLINE
  5
240
100
AcDbEntity
  8
0
100
AcDbPolyline
 62
250
  6
CONTINUOUS
 90
14
 70
0
 10
253.3584958251
 20
215.2138890071
 10
253.3620752102
 20
215.2160148814
 10
253.370972518
 20
215.2181179846
 10
253.3850924694
 20
215.2201757833
 10
253.4042838291
 20
215.2221662288
 10
253.4283410194
 20
215.2240679943
 10
253.4570063171
 20
215.2258607032
 10
253.4899726296
 20
215.2275251473
 10
253.5268867716
 20
215.2290434911
 10
253.5673532321
 20
215.2303994644
 10
253.6109384546
 20
215.2315785369
 10
253.657175455
 20
215.2325680744
 10
253.7055687962
 20
215.2333574737
 10
253.7555999518
 20
215.2339382761
  0
LWPOLYLINE
  5
241
100
AcDbEntity
  8
0
100
AcDbPolyline
 62
250
  6
CONTINUOUS
 90
15
 70
0
 10
253.3584958251
 20
174.1300773028
 10
253.3620753282
 20
174.1279513921
 10
253.3709729179
 20
174.1258482595
 10
253.3850932609
 20
174.1237904391
 10
253.4042850648
 20
174.1217999793
 10
253.4283426986
 20
174.1198982069
 10
253.4570083968
 20
174.1181054986
 10
253.4899750203
 20
174.1164410624
 10
253.5268893479
 20
174.1149227317
 10
253.5673558607
 20
174.1135667749
 10
253.6109409798
 20
174.1123877203
 10
253.6571777119
 20
174.1113982009
 10
253.7055706532
 20
174.1106088189
 10
253.755601297
 20
174.1100280323
 10
253.8584196727
 20
174.1095148345
  0
LWPOLYLINE
  5
242
100
AcDbEntity
  8
0
100
AcDbPolyline
 62
250
  6
CONTINUOUS
 90
16
 70
0
 10
253.3419690545
 20
173.1725727047
 10
253.3447521066
 20
173.1204113009
 10
253.3529754382
 20
173.0688205452
 10
253.36654911
 20
173.0183650101
 10
253.3853246337
 20
172.9695968488
 10
253.4090965895
 20
172.9230497681
 10
253.4376048682
 20
172.8792331845
 10
253.4705375335
 20
172.8386266217
 10
253.5075342209
 20
172.8016744887
 10
253.5481900635
 20
172.7687812221
 10
253.5920601671
 20
172.7403068177
 10
253.6386644505
 20
172.7165629212
 10
253.6874928685
 20
172.6978094227
 10
253.7380110519
 20
172.6842515792
 10
253.7896661623
 20
172.6760377801
 10
253.8418929023
 20
172.6732579379
  0
LWPOLYLINE
  5
243
100
AcDbEntity
  8
0
100
AcDbPolyline
 62
250
  6
CONTINUOUS
 90
16
 70
0
 10
253.3419690545
 20
216.1713936139
 10
253.3447522111
 20
216.223556003
 10
253.3529758184
 20
216.2751475539
 10
253.3665498815
 20
216.3256036751
 10
253.3853258529
 20
216.3743722011
 10
253.4090982581
 20
216.4209194342
 10
253.437606944
 20
216.4647359858
 10
253.4705399264
 20
216.5053423502
 10
253.5075368038
 20
216.5422941523
 10
253.5481927014
 20
216.5751870108
 10
253.5920627021
 20
216.603660963
 10
253.6386667154
 20
216.6274044049
 10
253.687494731
 20
216.6461575006
 10
253.7380124002
 20
216.6597150261
 10
253.7896668839
 20
216.6679286147
 10
253.8418929021
 20
216.6707083812
  0
LWPOLYLINE
  5
244
100
AcDbEntity
  8
0
100
AcDbPolyline
 62
250
  6
CONTINUOUS
 90
8
 70
0
 10
253.3500048595
 20
216.0314760188
 10
253.348991816
 20
216.0634242115
 10
253.3479492589
 20
216.0916856816
 10
253.3468710313
 20
216.115995746
 10
253.3457360095
 20
216.136142738
 10
253.3445371521
 20
216.1520561023
 10
253.3432815004
 20
216.1638063942
 10
253.3419690545
 20
216.1713936139
  0
LWPOLYLINE
  5
245
100
AcDbEntity
  8
0
100
AcDbPolyline
 62
250
  6
CONTINUOUS
 90
6
 70
0
 10
253.8478731146
 20
216.5509087063
 10
253.846795105
 20
216.5870484556
 10
253.8456602079
 20
216.6178320685
 10
253.8444613269
 20
216.6427163669
 10
253.8432055583
 20
216.6605962119
 10
253.8418929021
 20
216.6707083812
  0
LINE
  5
246
100
AcDbEntity
  8
0
100
AcDbLine
 62
250
  6
CONTINUOUS
 10
253.3519265881
 20
215.9551430332
 11
253.3500048595
 21
216.0314760188
  0
LINE
  5
247
100
AcDbEntity
  8
0
100
AcDbLine
 62
250
  6
CONTINUOUS
 10
253.8499285799
 20
216.4606112616
 11
253.8478731146
 21
216.5509087063
  0
LINE
  5
248
100
AcDbEntity
  8
0
100
AcDbLine
 62
250
  6
CONTINUOUS
 10
253.3537403475
 20
215.8594615511
 11
253.3519265881
 21
215.9551430332
  0
LINE
  5
249
100
AcDbEntity
  8
0
100
AcDbLine
 62
250
  6
CONTINUOUS
 10
253.8518504514
 20
216.3463325104
 11
253.8499285799
 21
216.4606112616
  0
LINE
  5
24A
100
AcDbEntity
  8
0
100
AcDbLine
 62
250
  6
CONTINUOUS
 10
253.3559985912
 20
215.6894420576
 11
253.3537403475
 21
215.8594615511
  0
LINE
  5
24B
100
AcDbEntity
  8
0
100
AcDbLine
 62
250
  6
CONTINUOUS
 10
253.8544880166
 20
216.1227045961
 11
253.8518504514
 21
216.3463325104
  0
LINE
  5
24C
100
AcDbEntity
  8
0
100
AcDbLine
 62
250
  6
CONTINUOUS
 10
253.3575689954
 20
215.4970283728
 11
253.3559985912
 21
215.6894420576
  0
LINE
  5
24D
100
AcDbEntity
  8
0
100
AcDbLine
 62
250
  6
CONTINUOUS
 10
253.857492807
 20
215.6593070253
 11
253.8544880166
 21
216.1227045961
  0
LINE
  5
24E
100
AcDbEntity
  8
0
100
AcDbLine
 62
250
  6
CONTINUOUS
 10
253.3584958251
 20
215.2138890158
 11
253.3575689954
 21
215.4970283728
  0
LINE
  5
24F
100
AcDbEntity
  8
0
100
AcDbLine
 62
7
  6
CONTINUOUS
 10
253.3185908382
 20
216.2415852977
 11
253.3185908382
 21
173.1023810208
  0
LINE
  5
250
100
AcDbEntity
  8
0
100
AcDbLine
 62
250
  6
CONTINUOUS
 10
253.360410831
 20
177.0638923866
 11
253.3584958251
 21
215.2138890158
  0
LINE
  5
251
100
AcDbEntity
  8
0
100
AcDbLine
 62
250
  6
CONTINUOUS
 10
253.8603346786
 20
177.0460603174
 11
253.857492807
 21
215.6593070253
  0
LINE
  5
252
100
AcDbEntity
  8
0
100
AcDbLine
 62
250
  6
CONTINUOUS
 10
253.3579228844
 20
173.913897312
 11
253.360410831
 21
177.0638923866
  0
LINE
  5
253
100
AcDbEntity
  8
0
100
AcDbLine
 62
250
  6
CONTINUOUS
 10
253.8570957261
 20
173.5945200006
 11
253.8603346786
 21
177.0460603174
  0
LINE
  5
254
100
AcDbEntity
  8
0
100
AcDbLine
 62
250
  6
CONTINUOUS
 10
253.8547573555
 20
173.250269141
 11
253.8570957261
 21
173.5945200006
  0
LINE
  5
255
100
AcDbEntity
  8
0
100
AcDbLine
 62
250
  6
CONTINUOUS
 10
253.356144141
 20
173.6681891425
 11
253.3579228844
 21
173.913897312
  0
LINE
  5
256
100
AcDbEntity
  8
0
100
AcDbLine
 62
250
  6
CONTINUOUS
 10
253.8521850088
 20
173.0211050627
 11
253.8547573555
 21
173.250269141
  0
LINE
  5
257
100
AcDbEntity
  8
0
100
AcDbLine
 62
250
  6
CONTINUOUS
 10
253.3540484903
 20
173.5038375359
 11
253.356144141
 21
173.6681891425
  0
LINE
  5
258
100
AcDbEntity
  8
0
100
AcDbLine
 62
250
  6
CONTINUOUS
 10
253.8501655674
 20
172.895872144
 11
253.8521850088
 21
173.0211050627
  0
LINE
  5
259
100
AcDbEntity
  8
0
100
AcDbLine
 62
250
  6
CONTINUOUS
 10
253.3522611197
 20
173.4044707885
 11
253.3540484903
 21
173.5038375359
  0
LINE
  5
25A
100
AcDbEntity
  8
0
100
AcDbLine
 62
250
  6
CONTINUOUS
 10
297.4267373195
 20
174.1100280345
 11
297.3239180557
 21
174.1095148068
  0
LINE
  5
25B
100
AcDbEntity
  8
0
100
AcDbLine
 62
7
  6
CONTINUOUS
 10
297.36412749
 20
172.6021521688
 11
253.8182102385
 21
172.6021521688
  0
LINE
  5
25C
100
AcDbEntity
  8
0
100
AcDbLine
 62
250
  6
CONTINUOUS
 10
253.8418929021
 20
172.6732579373
 11
297.3404448264
 21
172.6732579373
  0
LWPOLYLINE
  5
25D
100
AcDbEntity
  8
0
100
AcDbPolyline
 62
250
  6
CONTINUOUS
 90
7
 70
0
 10
253.8418929021
 20
172.6732579373
 10
253.8431756028
 20
172.6830150755
 10
253.844424884
 20
172.7005784965
 10
253.8456407457
 20
172.7256712209
 10
253.8468250063
 20
172.7578654871
 10
253.8479758473
 20
172.7968920219
 10
253.8501655674
 20
172.895872144
  0
LINE
  5
25E
100
AcDbEntity
  8
0
100
AcDbLine
 62
250
  6
CONTINUOUS
 10
253.8584196727
 20
174.1095148345
 11
297.3239180558
 21
174.1095148345
  0
LWPOLYLINE
  5
25F
100
AcDbEntity
  8
0
100
AcDbPolyline
 62
250
  6
CONTINUOUS
 90
9
 70
0
 10
253.3419690545
 20
173.1725727047
 10
253.3432515789
 20
173.1794208809
 10
253.3445007634
 20
173.1910682774
 10
253.3457166079
 20
173.2075148943
 10
253.3469009797
 20
173.2288535996
 10
253.3480520116
 20
173.2549915253
 10
253.3491641017
 20
173.2856500674
 10
253.3502418325
 20
173.3209856252
 10
253.3522611197
 20
173.4044707885
  0
LINE
  5
260
100
AcDbEntity
  8
0
100
AcDbLine
 62
250
  6
CONTINUOUS
 10
253.3185908382
 20
173.1023810208
 11
253.3419690545
 21
173.1725727047
  0
LINE
  5
261
100
AcDbEntity
  8
0
100
AcDbLine
 62
250
  6
CONTINUOUS
 10
253.8182102385
 20
172.6021521688
 11
253.8418929021
 21
172.6732579373
  0
LINE
  5
262
100
AcDbEntity
  8
0
100
AcDbLine
 62
250
  6
CONTINUOUS
 10
253.3419690545
 20
216.1713936139
 11
253.3185908382
 21
216.2415852977
  0
LINE
  5
263
100
AcDbEntity
  8
0
100
AcDbLine
 62
250
  6
CONTINUOUS
 10
253.8418929021
 20
216.6707083812
 11
253.8182102385
 21
216.7418141498
  0
LWPOLYLINE
  5
264
100
AcDbEntity
  8
0
100
AcDbPolyline
 62
7
  6
CONTINUOUS
 90
3
 70
0
 43
0.3500000087
 10
276.7340185425
 20
227.7775354736
 10
276.662599646
 20
227.5632446777
 10
276.5197447998
 20
227.2775349854
  0
LINE
  5
265
100
AcDbEntity
  8
0
100
AcDbLine
 62
7
  6
CONTINUOUS
 10
270.8778986767
 20
195.0126385989
 11
270.9157008947
 21
195.0729364181
  0
LWPOLYLINE
  5
266
100
AcDbEntity
  8
0
100
AcDbPolyline
 62
7
  6
CONTINUOUS
 90
16
 70
0
 10
271.276952972
 20
195.5889199849
 10
271.3036851963
 20
195.6246253045
 10
271.3326938251
 20
195.6586136244
 10
271.3638729555
 20
195.6907361974
 10
271.3971636378
 20
195.720899074
 10
271.4323893863
 20
195.7489107173
 10
271.469226739
 20
195.774520198
 10
271.5073702252
 20
195.7975661895
 10
271.546779346
 20
195.8180731878
 10
271.5875183652
 20
195.8360772216
 10
271.6295691342
 20
195.8515311284
 10
271.6726359769
 20
195.8642881263
 10
271.7163688731
 20
195.8742400013
 10
271.7605252292
 20
195.8813507335
 10
271.8049816832
 20
195.8856192074
 10
271.8495562293
 20
195.8870407104
  0
LWPOLYLINE
  5
267
100
AcDbEntity
  8
0
100
AcDbPolyline
 62
7
  6
CONTINUOUS
 90
12
 70
0
 10
271.276952972
 20
195.5889199849
 10
271.3108296615
 20
195.6334126687
 10
271.348148493
 20
195.6750509098
 10
271.388671124
 20
195.7135696981
 10
271.4321387363
 20
195.7487240299
 10
271.4782740042
 20
195.780289923
 10
271.5267828698
 20
195.8080658351
 10
271.5773559177
 20
195.8318745312
 10
271.6296705728
 20
195.8515646689
 10
271.6833935171
 20
195.8670111096
 10
271.7381823736
 20
195.8781153388
 10
271.7936878516
 20
195.8848061966
  0
LINE
  5
268
100
AcDbEntity
  8
0
100
AcDbLine
 62
7
  6
CONTINUOUS
 10
271.3108297065
 20
193.7105535954
 11
271.276952972
 21
193.7550463336
  0
LWPOLYLINE
  5
269
100
AcDbEntity
  8
0
100
AcDbPolyline
 62
7
  6
CONTINUOUS
 90
16
 70
0
 10
270.9157008947
 20
194.2710299004
 10
270.8852220764
 20
194.3185267514
 10
270.8585938648
 20
194.3684870036
 10
270.8360295082
 20
194.4206054197
 10
270.8176732817
 20
194.474709861
 10
270.8037594858
 20
194.5303112863
 10
270.7944847291
 20
194.5865741853
 10
270.7898565882
 20
194.6427381081
 10
270.7897591181
 20
194.6988015053
 10
270.794200313
 20
194.755050458
 10
270.8033094332
 20
194.8114639251
 10
270.8170987361
 20
194.8672937999
 10
270.8354089216
 20
194.9217452558
 10
270.8580407542
 20
194.9743290247
 10
270.884868802
 20
195.0248358855
 10
270.9157008947
 20
195.0729364181
  0
LWPOLYLINE
  5
26A
100
AcDbEntity
  8
0
100
AcDbPolyline
 62
7
  6
CONTINUOUS
 90
12
 70
0
 10
270.9157008947
 20
194.2710299004
 10
270.8779004547
 20
194.3313245315
 10
270.8464275682
 20
194.3951362072
 10
270.8216059187
 20
194.4618061843
 10
270.8036903893
 20
194.5306462454
 10
270.7928657025
 20
194.6009456709
 10
270.7892444701
 20
194.671978568
 10
270.7928647544
 20
194.7430113746
 10
270.8036885098
 20
194.8133109773
 10
270.8216033901
 20
194.8821521166
 10
270.846425013
 20
194.948824186
 10
270.8778986767
 20
195.0126385989
  0
LWPOLYLINE
  5
26B
100
AcDbEntity
  8
0
100
AcDbPolyline
 62
7
  6
CONTINUOUS
 90
2
 70
0
 43
0.3500000087
 10
272.3054500977
 20
227.491808728
 10
272.3054500977
 20
228.9918101929
  0
LWPOLYLINE
  5
26C
100
AcDbEntity
  8
0
100
AcDbPolyline
 62
7
  6
CONTINUOUS
 90
10
 70
0
 10
271.4275383352
 20
194.7579017147
 10
271.417036271
 20
194.7405038513
 10
271.4089858265
 20
194.7218477981
 10
271.4035347887
 20
194.7022753323
 10
271.4007834464
 20
194.6821438968
 10
271.40078334
 20
194.6618239835
 10
271.4035345036
 20
194.6416923661
 10
271.4089854618
 20
194.6221195539
 10
271.4170359848
 20
194.6034630242
 10
271.4275383352
 20
194.5860646038
  0
LWPOLYLINE
  5
26D
100
AcDbEntity
  8
0
100
AcDbPolyline
 62
7
  6
CONTINUOUS
 90
13
 70
0
 10
271.4275383352
 20
194.7579017147
 10
271.419358128
 20
194.7447443448
 10
271.4126433199
 20
194.7311393523
 10
271.407393911
 20
194.7170867373
 10
271.4035846294
 20
194.7024517693
 10
271.4012407469
 20
194.6873691788
 10
271.4004380795
 20
194.672243157
 10
271.4012241543
 20
194.6570350548
 10
271.4035514443
 20
194.6417835214
 10
271.4073531839
 20
194.6270086957
 10
271.412607118
 20
194.6128839573
 10
271.4193355018
 20
194.5992359267
 10
271.4275383352
 20
194.5860646038
  0
LINE
  5
26E
100
AcDbEntity
  8
0
100
AcDbLine
 62
7
  6
CONTINUOUS
 10
271.7631472236
 20
195.2356887995
 11
271.7533004758
 21
195.223111188
  0
LWPOLYLINE
  5
26F
100
AcDbEntity
  8
0
100
AcDbPolyline
 62
7
  6
CONTINUOUS
 90
3
 70
0
 10
271.7865322313
 20
195.2573305491
 10
271.7744460652
 20
195.2472776203
 10
271.7633688134
 20
195.2358711667
  0
LINE
  5
270
100
AcDbEntity
  8
0
100
AcDbLine
 62
7
  6
CONTINUOUS
 10
271.7998541096
 20
195.2661868145
 11
271.7865572394
 21
195.2573491703
  0
LWPOLYLINE
  5
271
100
AcDbEntity
  8
0
100
AcDbPolyline
 62
7
  6
CONTINUOUS
 90
3
 70
0
 10
271.8288442148
 20
195.2793681865
 10
271.8140446027
 20
195.2735418278
 10
271.7997839599
 20
195.2661129508
  0
LINE
  5
272
100
AcDbEntity
  8
0
100
AcDbLine
 62
7
  6
CONTINUOUS
 10
276.9914757863
 20
197.1222276453
 11
277.1676915171
 21
197.1800298081
  0
LWPOLYLINE
  5
273
100
AcDbEntity
  8
0
100
AcDbPolyline
 62
7
  6
CONTINUOUS
 90
2
 70
0
 43
0.3500000087
 10
307.1137378418
 20
191.6005560791
 10
305.613736377
 20
191.6005560791
  0
LWPOLYLINE
  5
274
100
AcDbEntity
  8
0
100
AcDbPolyline
 62
7
  6
CONTINUOUS
 90
11
 70
0
 10
277.1678157498
 20
192.1639006675
 10
276.9914760085
 20
192.2217385994
 10
276.8221508158
 20
192.2906498424
 10
276.6581471927
 20
192.37141623
 10
276.4993881367
 20
192.4638656788
 10
276.348199324
 20
192.5666437191
 10
276.2046921664
 20
192.6799027264
 10
276.0687552521
 20
192.8034903714
 10
275.9423800229
 20
192.9355951197
 10
275.8262302923
 20
193.0756131334
 10
275.7196422467
 20
193.2241482769
  0
LINE
  5
275
100
AcDbEntity
  8
0
100
AcDbLine
 62
7
  6
CONTINUOUS
 10
271.8140161664
 20
194.0704077049
 11
271.8288828727
 21
194.0645853179
  0
LWPOLYLINE
  5
276
100
AcDbEntity
  8
0
100
AcDbPolyline
 62
7
  6
CONTINUOUS
 90
3
 70
0
 10
271.7865900462
 20
194.0865927323
 10
271.7998517419
 20
194.0778123345
 10
271.814117109
 20
194.0703925052
  0
LWPOLYLINE
  5
277
100
AcDbEntity
  8
0
100
AcDbPolyline
 62
7
  6
CONTINUOUS
 90
3
 70
0
 10
271.7631474947
 20
194.1082772086
 10
271.7742754735
 20
194.0968212161
 10
271.7865579833
 20
194.0866165945
  0
LINE
  5
278
100
AcDbEntity
  8
0
100
AcDbLine
 62
7
  6
CONTINUOUS
 10
271.7533004758
 20
194.1208551305
 11
271.7633933279
 21
194.1080737623
  0
LWPOLYLINE
  5
279
100
AcDbEntity
  8
0
100
AcDbPolyline
 62
7
  6
CONTINUOUS
 90
2
 70
0
 43
0.3500000087
 10
274.6625976929
 20
227.491808728
 10
274.6625976929
 20
228.9918101929
  0
LWPOLYLINE
  5
27A
100
AcDbEntity
  8
0
100
AcDbPolyline
 62
7
  6
CONTINUOUS
 90
16
 70
0
 10
276.2007086982
 20
195.7591459702
 10
276.1080152591
 20
195.6045354406
 10
276.0797466569
 20
195.5642776813
 10
276.0486736615
 20
195.5261495826
 10
276.014518878
 20
195.4898830983
 10
275.9775597012
 20
195.4557462767
 10
275.9386283157
 20
195.424543261
 10
275.8978661283
 20
195.3964674254
 10
275.8551317322
 20
195.3713253977
 10
275.810833092
 20
195.349341202
 10
275.7647671996
 20
195.3304863806
 10
275.7171370631
 20
195.3147893923
 10
275.6689596713
 20
195.302559636
 10
275.6205740206
 20
195.2939002446
 10
275.5716411147
 20
195.2887080856
 10
275.5221609534
 20
195.2869831593
  0
LWPOLYLINE
  5
27B
100
AcDbEntity
  8
0
100
AcDbPolyline
 62
7
  6
CONTINUOUS
 90
12
 70
0
 10
276.1334794677
 20
195.6469228591
 10
276.100494702
 20
195.5934949615
 10
276.0635973694
 20
195.5438854944
 10
276.0227874698
 20
195.4980944601
 10
275.9776855908
 20
195.455824058
 10
275.9286711448
 20
195.4173720927
 10
275.8768823694
 20
195.383631975
 10
275.8222543924
 20
195.3547142428
 10
275.764852086
 20
195.3305083611
 10
275.7060083035
 20
195.3115761312
 10
275.6461673295
 20
195.2981048206
 10
275.5848848796
 20
195.2899071632
  0
LWPOLYLINE
  5
27C
100
AcDbEntity
  8
0
100
AcDbPolyline
 62
7
  6
CONTINUOUS
 90
11
 70
0
 10
275.6226158859
 20
195.9627657582
 10
275.7196422316
 20
196.1198180129
 10
275.8262302501
 20
196.268353126
 10
275.9423799413
 20
196.4083711073
 10
276.0687551052
 20
196.5404758126
 10
276.2046919418
 20
196.6640634129
 10
276.3481990517
 20
196.7773223998
 10
276.4993878768
 20
196.8801004645
 10
276.6581469751
 20
196.972549962
 10
276.8221506213
 20
197.0533163888
 10
276.9914757863
 20
197.1222276453
  0
LWPOLYLINE
  5
27D
100
AcDbEntity
  8
0
100
AcDbPolyline
 62
7
  6
CONTINUOUS
 90
11
 70
0
 10
275.7109050292
 20
196.106764885
 10
275.8074360908
 20
196.2438082732
 10
275.9122090705
 20
196.3738959295
 10
276.0257385519
 20
196.4975362458
 10
276.1475099515
 20
196.6142208489
 10
276.2759795192
 20
196.7224246048
 10
276.4112504285
 20
196.8220269357
 10
276.5532195058
 20
196.9131484538
 10
276.7000334805
 20
196.9946258171
 10
276.8516943612
 20
197.0663075224
 10
277.0082001392
 20
197.1283451106
  0
LINE
  5
27E
100
AcDbEntity
  8
0
100
AcDbLine
 62
7
  6
CONTINUOUS
 10
278.6714016831
 20
194.0954440913
 11
278.6097292481
 21
194.0919853514
  0
LINE
  5
27F
100
AcDbEntity
  8
0
100
AcDbLine
 62
7
  6
CONTINUOUS
 10
275.4924271049
 20
193.4569256081
 11
271.8495562293
 21
193.4569256081
  0
LWPOLYLINE
  5
280
100
AcDbEntity
  8
0
100
AcDbPolyline
 62
7
  6
CONTINUOUS
 90
2
 70
0
 43
0.3500000087
 10
307.1137378418
 20
193.9577036743
 10
305.613736377
 20
193.9577036743
  0
LINE
  5
281
100
AcDbEntity
  8
0
100
AcDbLine
 62
7
  6
CONTINUOUS
 10
275.5221609534
 20
194.0569831593
 11
271.8760069216
 21
194.0569831593
  0
LWPOLYLINE
  5
282
100
AcDbEntity
  8
0
100
AcDbPolyline
 62
7
  6
CONTINUOUS
 90
16
 70
0
 10
271.8495562293
 20
193.4569256081
 10
271.8049883575
 20
193.4583466777
 10
271.7605315871
 20
193.462614763
 10
271.7163680542
 20
193.4697264761
 10
271.6726160618
 20
193.4796834098
 10
271.6295242319
 20
193.492450087
 10
271.5874586835
 20
193.5079132324
 10
271.5467204841
 20
193.5259214195
 10
271.5073208873
 20
193.5464278334
 10
271.4691923059
 20
193.5694684552
 10
271.4323792757
 20
193.5950631114
 10
271.397180915
 20
193.6230525598
 10
271.3639043653
 20
193.6531997701
 10
271.3327230393
 20
193.6853206198
 10
271.3037032103
 20
193.7193185115
 10
271.276952972
 20
193.7550463336
  0
LWPOLYLINE
  5
283
100
AcDbEntity
  8
0
100
AcDbPolyline
 62
7
  6
CONTINUOUS
 90
15
 70
0
 10
275.5221609534
 20
194.0569831593
 10
275.5716093759
 20
194.0552690495
 10
275.6205332994
 20
194.0500788186
 10
275.6689327239
 20
194.0414124666
 10
275.7171612008
 20
194.0291624785
 10
275.7648651787
 20
194.0134363698
 10
275.8109840038
 20
193.9945566873
 10
275.8552982627
 20
193.9725521629
 10
275.8980273689
 20
193.9473940658
 10
275.9387689085
 20
193.9193187484
 10
275.9776552236
 20
193.8881470143
 10
276.0145539723
 20
193.8540580616
 10
276.048665715
 20
193.8178258345
 10
276.0797239719
 20
193.7797083148
 10
276.1079952229
 20
193.7394475226
  0
LWPOLYLINE
  5
284
100
AcDbEntity
  8
0
100
AcDbPolyline
 62
7
  6
CONTINUOUS
 90
12
 70
0
 10
271.8495562293
 20
193.4569256081
 10
271.7936878537
 20
193.4591601218
 10
271.7381823683
 20
193.4658509806
 10
271.6833934956
 20
193.4769552142
 10
271.6296705121
 20
193.4924016697
 10
271.5773558116
 20
193.5120918322
 10
271.5267827554
 20
193.535900543
 10
271.4782739491
 20
193.56367643
 10
271.4321387656
 20
193.5952422667
 10
271.3886712001
 20
193.6303965536
 10
271.3481485657
 20
193.6689153338
 10
271.3108297065
 20
193.7105535954
  0
LWPOLYLINE
  5
285
100
AcDbEntity
  8
0
100
AcDbPolyline
 62
7
  6
CONTINUOUS
 90
12
 70
0
 10
275.5221609537
 20
194.0569831593
 10
275.5848848193
 20
194.0540591873
 10
275.6461672625
 20
194.0458615317
 10
275.7060082834
 20
194.0323901928
 10
275.764852217
 20
194.0134578756
 10
275.8222547283
 20
193.9892518765
 10
275.8768828119
 20
193.960334083
 10
275.9286714974
 20
193.9265940157
 10
275.9776857553
 20
193.8881421568
 10
276.0227874907
 20
193.8458718369
 10
276.0635973388
 20
193.800080834
 10
276.1004946645
 20
193.750471374
  0
LWPOLYLINE
  5
286
100
AcDbEntity
  8
0
100
AcDbPolyline
 62
7
  6
CONTINUOUS
 90
11
 70
0
 10
278.6097292481
 20
194.0919853514
 10
278.5539585999
 20
194.0947796358
 10
278.499628667
 20
194.1025709379
 10
278.4467394493
 20
194.1153592579
 10
278.3948244826
 20
194.1333606461
 10
278.3443502312
 20
194.1563590532
 10
278.296716088
 20
194.1837063299
 10
278.2520411334
 20
194.2154835721
 10
278.210206287
 20
194.2516096853
 10
278.1722537003
 20
194.2911932345
 10
278.1382420822
 20
194.3343845252
  0
LINE
  5
287
100
AcDbEntity
  8
0
100
AcDbLine
 62
7
  6
CONTINUOUS
 10
271.8600550411
 20
194.0578341707
 11
271.8760069216
 21
194.0569831593
  0
LWPOLYLINE
  5
288
100
AcDbEntity
  8
0
100
AcDbPolyline
 62
7
  6
CONTINUOUS
 90
30
 70
0
 10
278.6097292481
 20
194.0919853514
 10
278.5480579489
 20
194.0954442871
 10
278.4883317077
 20
194.104901784
 10
278.4305505246
 20
194.1203578423
 10
278.3741276876
 20
194.1421103812
 10
278.3196499086
 20
194.1698614829
 10
278.2688773237
 20
194.2027173929
 10
278.2219308619
 20
194.2408449801
 10
278.1786895941
 20
194.2840773772
 10
278.1405508695
 20
194.3310202238
 10
278.1076811213
 20
194.3817951772
 10
278.0799139163
 20
194.4362805807
 10
278.0581473037
 20
194.4927171024
 10
278.0425774852
 20
194.5511686934
 10
278.0330082593
 20
194.6115714014
 10
278.0297490701
 20
194.6719740392
 10
278.0330060384
 20
194.732376219
 10
278.0425730436
 20
194.7927783268
 10
278.058141168
 20
194.8512303351
 10
278.0799071012
 20
194.9076692889
 10
278.1076741536
 20
194.9621581423
 10
278.1405433398
 20
195.0129357326
 10
278.178680158
 20
195.0598792823
 10
278.2219191099
 20
195.1031115694
 10
278.2688647147
 20
195.1412397663
 10
278.3196391398
 20
195.1740979856
 10
278.3741202178
 20
195.2018521162
 10
278.4305459659
 20
195.2236069954
 10
278.4883290565
 20
195.239064236
 10
278.5480568173
 20
195.2485222264
  0
LWPOLYLINE
  5
289
100
AcDbEntity
  8
0
100
AcDbPolyline
 62
7
  6
CONTINUOUS
 90
10
 70
0
 10
280.095964791
 20
194.2701809623
 10
280.1270743863
 20
194.2680857946
 10
280.1581904136
 20
194.2627565546
 10
280.1882844163
 20
194.2543339818
 10
280.217339043
 20
194.2426850018
 10
280.2453716453
 20
194.2279426893
 10
280.2714058215
 20
194.2106470078
 10
280.2953287415
 20
194.1907336024
 10
280.3172532354
 20
194.1682668286
 10
280.3365413919
 20
194.1439797148
  0
LWPOLYLINE
  5
28A
100
AcDbEntity
  8
0
100
AcDbPolyline
 62
7
  6
CONTINUOUS
 90
3
 70
0
 10
271.8289126594
 20
194.0645754524
 10
271.8440805635
 20
194.0604419117
 10
271.8597786509
 20
194.0579111474
  0
LWPOLYLINE
  5
28B
100
AcDbEntity
  8
0
100
AcDbPolyline
 62
7
  6
CONTINUOUS
 90
11
 70
0
 10
277.0083080191
 20
192.215585878
 10
276.8517738875
 20
192.2776277085
 10
276.7000940899
 20
192.3493094112
 10
276.553284004
 20
192.4307756914
 10
276.4113282521
 20
192.5218818813
 10
276.2760614359
 20
192.6214771707
 10
276.1475758858
 20
192.7296897671
 10
276.0257792714
 20
192.8463914974
 10
275.9122292032
 20
192.970046973
 10
275.8074448846
 20
193.1001444025
 10
275.7109071122
 20
193.2371955961
  0
LWPOLYLINE
  5
28C
100
AcDbEntity
  8
0
100
AcDbPolyline
 62
7
  6
CONTINUOUS
 90
10
 70
0
 10
275.6226158859
 20
193.3812005604
 10
275.6127609153
 20
193.3962061817
 10
275.6015949836
 20
193.409651897
 10
275.5891180907
 20
193.4215377058
 10
275.5751191051
 20
193.4319809747
 10
275.5598091584
 20
193.4408643366
 10
275.5438216455
 20
193.4478356911
 10
275.5273676981
 20
193.4527776713
 10
275.5102361846
 20
193.4558076436
 10
275.4924271049
 20
193.4569256081
  0
LINE
  5
28D
100
AcDbEntity
  8
0
100
AcDbLine
 62
7
  6
CONTINUOUS
 10
275.7196422467
 20
193.2241482769
 11
275.622615886
 21
193.3812005603
  0
LINE
  5
28E
100
AcDbEntity
  8
0
100
AcDbLine
 62
7
  6
CONTINUOUS
 10
276.1004946645
 20
193.750471374
 11
276.1334794677
 21
193.6970434595
  0
LWPOLYLINE
  5
28F
100
AcDbEntity
  8
0
100
AcDbPolyline
 62
7
  6
CONTINUOUS
 90
31
 70
0
 10
276.1334794677
 20
193.6970434595
 10
276.2152779326
 20
193.5626573938
 10
276.3059763957
 20
193.4363669898
 10
276.4055748571
 20
193.3181722413
 10
276.5147766
 20
193.207459673
 10
276.6328783411
 20
193.104842743
 10
276.7577702306
 20
193.0121618398
 10
276.8895757988
 20
192.9295968408
 10
277.0281715153
 20
192.8569678392
 10
277.1710769399
 20
192.7955755417
 10
277.3183700614
 20
192.7456238195
 10
277.4699728909
 20
192.7069087745
 10
277.6231710214
 20
192.6801194596
 10
277.77798749
 20
192.6654705124
 10
277.9343992596
 20
192.6627472834
 10
278.0896228119
 20
192.6719948992
 10
278.2436369389
 20
192.693425564
 10
278.3964628486
 20
192.7268270822
 10
278.5453806467
 20
192.7716079855
 10
278.6903256339
 20
192.8279741584
 10
278.8313625095
 20
192.8957197414
 10
278.9659654772
 20
192.9736356505
 10
279.0940179765
 20
193.0619064038
 10
279.2156365679
 20
193.1603475129
 10
279.3286451372
 20
193.26719638
 10
279.4328872747
 20
193.3826051411
 10
279.5285193899
 20
193.5064216805
 10
279.613834597
 20
193.6364270135
 10
279.6882639338
 20
193.7718814773
 10
279.7523763623
 20
193.9135247353
 10
279.8061718826
 20
194.061356785
  0
LWPOLYLINE
  5
290
100
AcDbEntity
  8
0
100
AcDbPolyline
 62
7
  6
CONTINUOUS
 90
37
 70
0
 10
276.1079952229
 20
193.7394475226
 10
276.2007074821
 20
193.5848218667
 10
276.2743388928
 20
193.4779984723
 10
276.3543737001
 20
193.3765732729
 10
276.4412007742
 20
193.2801676601
 10
276.5344312449
 20
193.189160234
 10
276.6328985019
 20
193.1046868013
 10
276.7366665681
 20
193.0268312223
 10
276.8456714205
 20
192.9555096212
 10
276.9585543801
 20
192.8916061968
 10
277.0753636514
 20
192.8352137998
 10
277.1960510298
 20
192.7862395623
 10
277.319113222
 20
192.7452891044
 10
277.4445775402
 20
192.7124626646
 10
277.5724166722
 20
192.6876599912
 10
277.7010453885
 20
192.6711859702
 10
277.8304736551
 20
192.6631433477
 10
277.9606915059
 20
192.6634293726
 10
278.0900838138
 20
192.6720406873
 10
278.2186426092
 20
192.6890812762
 10
278.3463758617
 20
192.7144471599
 10
278.4716923519
 20
192.7478230374
 10
278.5945608012
 20
192.7893088634
 10
278.7150124882
 20
192.8388046965
 10
278.8315500303
 20
192.8956953923
 10
278.9441238988
 20
192.9600722212
 10
279.0527836224
 20
193.03184393
 10
279.1561804036
 20
193.1101215885
 10
279.2542505071
 20
193.1949877016
 10
279.3470576683
 20
193.2863597798
 10
279.4334442961
 20
193.3831013972
 10
279.513337334
 20
193.4853034487
 10
279.5868098385
 20
193.592875048
 10
279.6529233878
 20
193.7044070926
 10
279.7113651747
 20
193.8194298805
 10
279.7624480062
 20
193.9384131121
 10
279.8061718826
 20
194.061356785
  0
LINE
  5
291
100
AcDbEntity
  8
0
100
AcDbLine
 62
7
  6
CONTINUOUS
 10
271.8442868023
 20
195.2835881628
 11
271.8288819919
 21
195.2793807088
  0
LWPOLYLINE
  5
292
100
AcDbEntity
  8
0
100
AcDbPolyline
 62
7
  6
CONTINUOUS
 90
12
 70
0
 10
277.1660454992
 20
197.1794558776
 10
277.3433031214
 20
197.2241629521
 10
277.5232881989
 20
197.2561646395
 10
277.7059611857
 20
197.2756451981
 10
277.8886468049
 20
197.2823192204
 10
278.0713451656
 20
197.2759983065
 10
278.2540561587
 20
197.2568708563
 10
278.4341041802
 20
197.2252166546
 10
278.6114503211
 20
197.1808512866
 10
278.7861334904
 20
197.1239591383
 10
278.955594811
 20
197.0553731901
 10
279.1197574798
 20
196.9749211824
  0
LWPOLYLINE
  5
293
100
AcDbEntity
  8
0
100
AcDbPolyline
 62
7
  6
CONTINUOUS
 90
11
 70
0
 10
277.3302609008
 20
197.2212487796
 10
277.4958158845
 20
197.2521148887
 10
277.662219953
 20
197.2722579072
 10
277.829414895
 20
197.2815407858
 10
277.9974589218
 20
197.2801005837
 10
278.1643901524
 20
197.2679782308
 10
278.3302170573
 20
197.2450587813
 10
278.4949311659
 20
197.2114571694
 10
278.6565451853
 20
197.1675591407
 10
278.8150672939
 20
197.1132146192
 10
278.9704893132
 20
197.0485736516
  0
LWPOLYLINE
  5
294
100
AcDbEntity
  8
0
100
AcDbPolyline
 62
7
  6
CONTINUOUS
 90
10
 70
0
 10
275.4924271049
 20
195.8870407104
 10
275.5103405027
 20
195.8881871242
 10
275.5275467727
 20
195.8912444679
 10
275.5440459146
 20
195.8962127415
 10
275.5600444173
 20
195.9032173576
 10
275.575335792
 20
195.9121329033
 10
275.5893005729
 20
195.9225831402
 10
275.6017322711
 20
195.9344426555
 10
275.6128373755
 20
195.9478368616
 10
275.6226158859
 20
195.9627657582
  0
LWPOLYLINE
  5
295
100
AcDbEntity
  8
0
100
AcDbPolyline
 62
7
  6
CONTINUOUS
 90
3
 70
0
 10
271.8760069216
 20
195.2869831593
 10
271.8597470501
 20
195.2860473532
 10
271.8440261478
 20
195.283509029
  0
LINE
  5
296
100
AcDbEntity
  8
0
100
AcDbLine
 62
7
  6
CONTINUOUS
 10
278.5480568173
 20
195.2485222264
 11
278.6097292481
 21
195.2519809672
  0
LINE
  5
297
100
AcDbEntity
  8
0
100
AcDbLine
 62
7
  6
CONTINUOUS
 10
275.5848848796
 20
195.2899071632
 11
275.5221609537
 21
195.2869831593
  0
LINE
  5
298
100
AcDbEntity
  8
0
100
AcDbLine
 62
7
  6
CONTINUOUS
 10
271.7936878516
 20
195.8848061966
 11
271.8495562293
 21
195.8870407104
  0
LINE
  5
299
100
AcDbEntity
  8
0
100
AcDbLine
 62
7
  6
CONTINUOUS
 10
275.5221609534
 20
195.2869831593
 11
271.8760069216
 21
195.2869831593
  0
LINE
  5
29A
100
AcDbEntity
  8
0
100
AcDbLine
 62
7
  6
CONTINUOUS
 10
275.4924271049
 20
195.8870407104
 11
271.8495562293
 21
195.8870407104
  0
LWPOLYLINE
  5
29B
100
AcDbEntity
  8
0
100
AcDbPolyline
 62
7
  6
CONTINUOUS
 90
11
 70
0
 10
278.6097292481
 20
195.2519809672
 10
278.6655001753
 20
195.2491868124
 10
278.7198306399
 20
195.2413953546
 10
278.7727206419
 20
195.2286065936
 10
278.8246369543
 20
195.2106042807
 10
278.8751128041
 20
195.1876046635
 10
278.922747872
 20
195.1602564858
 10
278.9674223976
 20
195.1284792102
 10
279.0092561413
 20
195.0923533727
 10
279.0472080652
 20
195.0527693279
 10
279.08122021
 20
195.0095756134
  0
LWPOLYLINE
  5
29C
100
AcDbEntity
  8
0
100
AcDbPolyline
 62
7
  6
CONTINUOUS
 90
30
 70
0
 10
278.6097292481
 20
195.2519809672
 10
278.6714005509
 20
195.2485220318
 10
278.7311267966
 20
195.2390645335
 10
278.7889079851
 20
195.2236084719
 10
278.8453308302
 20
195.2018559264
 10
278.8998086182
 20
195.1741048162
 10
278.950581208
 20
195.1412488999
 10
278.9975276674
 20
195.1031213108
 10
279.0407689286
 20
195.0598889139
 10
279.0789076477
 20
195.0129460659
 10
279.1117773936
 20
194.9621711052
 10
279.1395445975
 20
194.9076856928
 10
279.1613112077
 20
194.8512491693
 10
279.1768810211
 20
194.7927975898
 10
279.1864502409
 20
194.7323949002
 10
279.1897094261
 20
194.6719922777
 10
279.1864524574
 20
194.6115901055
 10
279.1768854542
 20
194.5511880023
 10
279.161317333
 20
194.4927359983
 10
279.1395514044
 20
194.4362970502
 10
279.1117843578
 20
194.3818082024
 10
279.0789151786
 20
194.3310306164
 10
279.0407783706
 20
194.2840870705
 10
278.99753943
 20
194.2408547857
 10
278.95059383
 20
194.2027265875
 10
278.8998193982
 20
194.16986836
 10
278.8453383071
 20
194.1421142172
 10
278.7889125475
 20
194.1203593287
 10
278.7311294496
 20
194.1049020836
 10
278.6714016831
 20
194.0954440913
  0
LWPOLYLINE
  5
29D
100
AcDbEntity
  8
0
100
AcDbPolyline
 62
7
  6
CONTINUOUS
 90
12
 70
0
 10
280.0640052962
 20
195.0750501344
 10
280.0331458746
 20
195.0795408012
 10
280.0029704736
 20
195.0872716386
 10
279.9733008323
 20
195.0983660067
 10
279.9443152115
 20
195.112700545
 10
279.917211601
 20
195.1299318034
 10
279.8920314142
 20
195.1503472991
 10
279.8687332378
 20
195.1736595141
 10
279.8483908214
 20
195.1986624456
 10
279.8313620817
 20
195.2249540925
 10
279.8172891021
 20
195.2529364553
 10
279.8061718826
 20
195.2826095335
  0
LWPOLYLINE
  5
29E
100
AcDbEntity
  8
0
100
AcDbPolyline
 62
7
  6
CONTINUOUS
 90
23
 70
0
 10
278.1081127237
 20
194.3810332527
 10
278.0827316493
 20
194.4297970666
 10
278.0622560604
 20
194.480638546
 10
278.0465287555
 20
194.5335951113
 10
278.0359441549
 20
194.5874366734
 10
278.0306344898
 20
194.6423383484
 10
278.0304675291
 20
194.698125019
 10
278.035440999
 20
194.7530412452
 10
278.0456354209
 20
194.8068494265
 10
278.0609702735
 20
194.8597871623
 10
278.0812017193
 20
194.9108118128
 10
278.1066221371
 20
194.9601553111
 10
278.1369391481
 20
195.0075857238
 10
278.1710317786
 20
195.0513646123
 10
278.2087643889
 20
195.0911135413
 10
278.2502726187
 20
195.127210947
 10
278.2948424128
 20
195.1590536983
 10
278.342806
 20
195.1867213175
 10
278.3938311514
 20
195.2101342835
 10
278.4462071261
 20
195.2284509006
 10
278.4993636769
 20
195.2413906039
 10
278.5538710509
 20
195.2492339594
 10
278.6097292481
 20
195.2519809672
  0
LWPOLYLINE
  5
29F
100
AcDbEntity
  8
0
100
AcDbPolyline
 62
7
  6
CONTINUOUS
 90
12
 70
0
 10
279.8061718826
 20
194.061356785
 10
279.8173628884
 20
194.0911696768
 10
279.83151335
 20
194.119259682
 10
279.8486232673
 20
194.1456268002
 10
279.8690529474
 20
194.1706683485
 10
279.8924420832
 20
194.1939870092
 10
279.9177097538
 20
194.2143908295
 10
279.9448896658
 20
194.2315949812
 10
279.9739481125
 20
194.2458842918
 10
280.0037030525
 20
194.2569212922
 10
280.0339904925
 20
194.2645874133
 10
280.0649744258
 20
194.2690012239
  0
LWPOLYLINE
  5
2A0
100
AcDbEntity
  8
0
100
AcDbPolyline
 62
7
  6
CONTINUOUS
 90
3
 70
0
 10
279.8061718826
 20
194.061356785
 10
279.8191197714
 20
194.0945562891
 10
279.8344831588
 20
194.1238362851
  0
LWPOLYLINE
  5
2A1
100
AcDbEntity
  8
0
100
AcDbPolyline
 62
7
  6
CONTINUOUS
 90
18
 70
0
 10
279.835252315
 20
194.1253021655
 10
279.8545695133
 20
194.1535944137
 10
279.8774165456
 20
194.1797483045
 10
279.9034482327
 20
194.2034485662
 10
279.9316290369
 20
194.2237493842
 10
279.9620446739
 20
194.2405119876
 10
279.9946094281
 20
194.2538751466
 10
280.0280306145
 20
194.2633093585
 10
280.0623418179
 20
194.2686568967
 10
280.0975094537
 20
194.2700754874
 10
280.1321400831
 20
194.2675088076
 10
280.1662132622
 20
194.2607966217
 10
280.199749435
 20
194.2500991655
 10
280.2314164947
 20
194.2358408226
 10
280.2611389421
 20
194.2178779631
 10
280.2889922764
 20
194.1963542177
 10
280.3138708887
 20
194.1721248615
 10
280.3356546369
 20
194.1450810335
  0
LWPOLYLINE
  5
2A2
100
AcDbEntity
  8
0
100
AcDbPolyline
 62
7
  6
CONTINUOUS
 90
18
 70
0
 10
280.3353175898
 20
195.1982771268
 10
280.3138619679
 20
195.171831655
 10
280.288982951
 20
195.1476035005
 10
280.2611299368
 20
195.1260818974
 10
280.231407893
 20
195.1081209813
 10
280.1997411198
 20
195.0938639798
 10
280.1662053169
 20
195.0831676659
 10
280.1321325511
 20
195.0764564939
 10
280.0975023799
 20
195.0738907082
 10
280.0623352458
 20
195.0753100645
 10
280.0280245442
 20
195.0806582848
 10
279.9946038179
 20
195.0900931337
 10
279.9620395239
 20
195.1034568462
 10
279.9316244292
 20
195.1202198488
 10
279.9034442963
 20
195.1405209596
 10
279.8774133627
 20
195.1642213598
 10
279.8545671066
 20
195.1903750206
 10
279.8352506877
 20
195.2186665988
  0
LWPOLYLINE
  5
2A3
100
AcDbEntity
  8
0
100
AcDbPolyline
 62
7
  6
CONTINUOUS
 90
9
 70
0
 10
280.315892852
 20
195.1740911479
 10
280.293918121
 20
195.151902233
 10
280.2699814549
 20
195.1322630206
 10
280.2439622588
 20
195.1151837899
 10
280.2159811277
 20
195.1006542624
 10
280.186987905
 20
195.0891962401
 10
280.1569549036
 20
195.0809363123
 10
280.1259098107
 20
195.0757478899
 10
280.0948855307
 20
195.0737730079
  0
LWPOLYLINE
  5
2A4
100
AcDbEntity
  8
0
100
AcDbPolyline
 62
7
  6
CONTINUOUS
 90
12
 70
0
 10
279.1207459828
 20
192.3694656108
 10
278.9555947007
 20
192.2885930792
 10
278.7861334182
 20
192.2200071528
 10
278.6114502935
 20
192.1631150232
 10
278.4341041974
 20
192.1187496676
 10
278.2540562182
 20
192.087095471
 10
278.0713452676
 20
192.0679680196
 10
277.888646951
 20
192.061647098
 10
277.7059613872
 20
192.0683211025
 10
277.5232884575
 20
192.087801637
 10
277.3433034106
 20
192.1198033044
 10
277.1660457681
 20
192.1645103709
  0
LWPOLYLINE
  5
2A5
100
AcDbEntity
  8
0
100
AcDbPolyline
 62
7
  6
CONTINUOUS
 90
11
 70
0
 10
278.9704472906
 20
192.2953729605
 10
278.8150402327
 20
192.2307410505
 10
278.6565335569
 20
192.1764036106
 10
278.4949345951
 20
192.1325099571
 10
278.3302360155
 20
192.0989107445
 10
278.1644245711
 20
192.0759917114
 10
277.9975085684
 20
192.0638678013
 10
277.8294797008
 20
192.0624240591
 10
277.6622998019
 20
192.0717013801
 10
277.4959146058
 20
192.0918348966
 10
277.3303783782
 20
192.1226894861
  0
LWPOLYLINE
  5
2A6
100
AcDbEntity
  8
0
100
AcDbPolyline
 62
7
  6
CONTINUOUS
 90
11
 70
0
 10
279.1207994153
 20
196.9744721654
 10
279.2786983
 20
196.8827753283
 10
279.4300888036
 20
196.7802853189
 10
279.5738178432
 20
196.6672987214
 10
279.7099965663
 20
196.5439679223
 10
279.8366299465
 20
196.4120998497
 10
279.9535774654
 20
196.271568364
 10
280.0609796415
 20
196.1224995767
 10
280.1572630035
 20
195.9670788068
 10
280.2419030609
 20
195.8060344968
 10
280.3154243043
 20
195.6386382062
  0
LWPOLYLINE
  5
2A7
100
AcDbEntity
  8
0
100
AcDbPolyline
 62
7
  6
CONTINUOUS
 90
11
 70
0
 10
279.2658784483
 20
196.8908186305
 10
279.4058455642
 20
196.7977045399
 10
279.5390463911
 20
196.6962403583
 10
279.6654136346
 20
196.5863322265
 10
279.7850145891
 20
196.4680739704
 10
279.8963967665
 20
196.3428575896
 10
279.9994968859
 20
196.2105297615
 10
280.0943782282
 20
196.0712437897
 10
280.1797781486
 20
195.9268516243
 10
280.2552757655
 20
195.7779705846
 10
280.3212919605
 20
195.623983355
  0
LWPOLYLINE
  5
2A8
100
AcDbEntity
  8
0
100
AcDbPolyline
 62
7
  6
CONTINUOUS
 90
8
 70
0
 10
280.3365413919
 20
194.1439797148
 10
280.3544636632
 20
194.1153315956
 10
280.3695527854
 20
194.0840584072
 10
280.380771848
 20
194.0512001579
 10
280.3882710066
 20
194.016818159
 10
280.391755546
 20
193.9822782023
 10
280.3911272277
 20
193.9480355518
 10
280.3864842903
 20
193.9136349437
  0
LWPOLYLINE
  5
2A9
100
AcDbEntity
  8
0
100
AcDbPolyline
 62
7
  6
CONTINUOUS
 90
3
 70
0
 10
279.8352506877
 20
195.2186665988
 10
279.8191189463
 20
195.2494114367
 10
279.8061718826
 20
195.2826095335
  0
LWPOLYLINE
  5
2AA
100
AcDbEntity
  8
0
100
AcDbPolyline
 62
7
  6
CONTINUOUS
 90
23
 70
0
 10
279.1113505348
 20
194.9629236909
 10
279.1367318792
 20
194.9141583005
 10
279.1572062696
 20
194.863318241
 10
279.1729316795
 20
194.8103647141
 10
279.1835148688
 20
194.7565260653
 10
279.188824125
 20
194.7016267875
 10
279.1889911607
 20
194.6458423889
 10
279.1840178733
 20
194.5909277383
 10
279.173823562
 20
194.5371199204
 10
279.1584889278
 20
194.4841818516
 10
279.138257971
 20
194.4331571485
 10
279.1128384819
 20
194.3838144116
 10
279.0825226703
 20
194.3363850408
 10
279.0484311663
 20
194.2926068508
 10
279.0106997534
 20
194.2528580796
 10
278.9691926482
 20
194.2167604883
 10
278.9246231299
 20
194.1849171761
 10
278.8766583162
 20
194.15724836
 10
278.8256310895
 20
194.1338338218
 10
278.7732533766
 20
194.1155160076
 10
278.7200958199
 20
194.1025757326
 10
278.6655877771
 20
194.0947321806
 10
278.6097292481
 20
194.0919853514
  0
LWPOLYLINE
  5
2AB
100
AcDbEntity
  8
0
100
AcDbPolyline
 62
7
  6
CONTINUOUS
 90
9
 70
0
 10
280.3531151364
 20
194.1178179197
 10
280.3670525434
 20
194.0898357853
 10
280.3779499255
 20
194.0609293643
 10
280.3857045568
 20
194.0310564726
 10
280.3904191632
 20
194.0002592949
 10
280.391998235
 20
193.9695604361
 10
280.3904099357
 20
193.9393007645
 10
280.3856861019
 20
193.9091394119
 10
280.3778267336
 20
193.8790763783
  0
LWPOLYLINE
  5
2AC
100
AcDbEntity
  8
0
100
AcDbPolyline
 62
7
  6
CONTINUOUS
 90
31
 70
0
 10
279.8061718826
 20
195.2826095335
 10
279.7523763664
 20
195.4304415755
 10
279.6882639412
 20
195.5720848281
 10
279.6138346068
 20
195.7075392887
 10
279.5285194009
 20
195.8375446216
 10
279.432887286
 20
195.9613611633
 10
279.3286451492
 20
196.0767699262
 10
279.2156365824
 20
196.1836187935
 10
279.0940179938
 20
196.2820599025
 10
278.9659654954
 20
196.3703306565
 10
278.8313625258
 20
196.4482465683
 10
278.6903256464
 20
196.5159921548
 10
278.5453806534
 20
196.5723583308
 10
278.396462845
 20
196.6171392362
 10
278.243636923
 20
196.6505407561
 10
278.0896227886
 20
196.6719714216
 10
277.9343992378
 20
196.6812190366
 10
277.7779874746
 20
196.6784958059
 10
277.6231710125
 20
196.6638468577
 10
277.4699728878
 20
196.6370575436
 10
277.3183700641
 20
196.5983425003
 10
277.1710769467
 20
196.5483907795
 10
277.0281715228
 20
196.4869984824
 10
276.8895758051
 20
196.414369481
 10
276.7577702363
 20
196.3318044826
 10
276.6328783478
 20
196.2391235813
 10
276.5147766081
 20
196.1365066538
 10
276.4055748654
 20
196.0257940863
 10
276.3059764025
 20
195.9075993364
 10
276.2152779366
 20
195.7813089294
 10
276.1334794677
 20
195.6469228591
  0
LWPOLYLINE
  5
2AD
100
AcDbEntity
  8
0
100
AcDbPolyline
 62
7
  6
CONTINUOUS
 90
36
 70
0
 10
279.8061718826
 20
195.2826095335
 10
279.7624491145
 20
195.4055508878
 10
279.7113672375
 20
195.5245323815
 10
279.6529262517
 20
195.6395540126
 10
279.5868132903
 20
195.7510856644
 10
279.5133412201
 20
195.8586574518
 10
279.4334486411
 20
195.9608597231
 10
279.347062549
 20
196.0576014096
 10
279.2542559479
 20
196.1489735887
 10
279.1561864512
 20
196.2338398329
 10
279.0527906645
 20
196.3121175422
 10
278.944131982
 20
196.3838893322
 10
278.8315582
 20
196.448266602
 10
278.7150191459
 20
196.5051584322
 10
278.5945649922
 20
196.5546557594
 10
278.4716940527
 20
196.5961427681
 10
278.3463750353
 20
196.629519256
 10
278.2186392321
 20
196.6548854388
 10
278.0900788329
 20
196.6719261265
 10
277.9606863697
 20
196.6805372431
 10
277.8304693105
 20
196.6808228697
 10
277.7010422493
 20
196.6727800501
 10
277.5724152777
 20
196.6563062304
 10
277.4445783041
 20
196.6315039596
 10
277.3191156477
 20
196.5986779342
 10
277.1960542565
 20
196.5577279
 10
277.0753671824
 20
196.5087540979
 10
276.9585579006
 20
196.4523619655
 10
276.8456744786
 20
196.3884584429
 10
276.7366688489
 20
196.3171365727
 10
276.6329002834
 20
196.2392809472
 10
276.5344332182
 20
196.1548080665
 10
276.4412032173
 20
196.0638014149
 10
276.3543762454
 20
195.9673960646
 10
276.2743409573
 20
195.8659703709
 10
276.2007086982
 20
195.7591459702
  0
LINE
  5
2AE
100
AcDbEntity
  8
0
100
AcDbLine
 62
7
  6
CONTINUOUS
 10
280.3864842903
 20
193.9136349437
 11
280.3778267336
 21
193.8790763783
  0
LWPOLYLINE
  5
2AF
100
AcDbEntity
  8
0
100
AcDbPolyline
 62
7
  6
CONTINUOUS
 90
12
 70
0
 10
280.3778267336
 20
193.8790763783
 10
280.3154242075
 20
193.7053279226
 10
280.2419028867
 20
193.5379314964
 10
280.1572627711
 20
193.3768871052
 10
280.0609793707
 20
193.2214663223
 10
279.9535771755
 20
193.0723975762
 10
279.8366296562
 20
192.9318661443
 10
279.7099963022
 20
192.7999981322
 10
279.5738176241
 20
192.6766674061
 10
279.4300886247
 20
192.5636808691
 10
279.278698145
 20
192.4611908961
 10
279.1197573439
 20
192.3690450661
  0
LWPOLYLINE
  5
2B0
100
AcDbEntity
  8
0
100
AcDbPolyline
 62
7
  6
CONTINUOUS
 90
11
 70
0
 10
280.3212693678
 20
193.7199357273
 10
280.2552338241
 20
193.5659132021
 10
280.1797201025
 20
193.4170088075
 10
280.0943064594
 20
193.2726073115
 10
279.9994146384
 20
193.1333239498
 10
279.8963098705
 20
193.0010044213
 10
279.7849321904
 20
192.8758029465
 10
279.6653415634
 20
192.757565286
 10
279.5389831164
 20
192.647674438
 10
279.4057854071
 20
192.5462200503
 10
279.2658198779
 20
192.4531124418
  0
LINE
  5
2B1
100
AcDbEntity
  8
0
100
AcDbLine
 62
7
  6
CONTINUOUS
 10
280.3154243043
 20
195.6386382062
 11
280.3778267336
 21
195.4648899402
  0
LWPOLYLINE
  5
2B2
100
AcDbEntity
  8
0
100
AcDbPolyline
 62
7
  6
CONTINUOUS
 90
10
 70
0
 10
280.3778267336
 20
195.4648899402
 10
280.3857134357
 20
195.4349197823
 10
280.3904372603
 20
195.4047626786
 10
280.3919982077
 20
195.3744186289
 10
280.3903824213
 20
195.3435228686
 10
280.3856037576
 20
195.3124401625
 10
280.3777037857
 20
195.2822648055
 10
280.3665059236
 20
195.2529983251
 10
280.3521867533
 20
195.2246391943
 10
280.3353175898
 20
195.1982771268
  0
LINE
  5
2B3
100
AcDbEntity
  8
0
100
AcDbLine
 62
7
  6
CONTINUOUS
 10
280.3778267336
 20
195.4648899402
 11
280.3863444289
 21
195.4308914939
  0
LWPOLYLINE
  5
2B4
100
AcDbEntity
  8
0
100
AcDbPolyline
 62
7
  6
CONTINUOUS
 90
8
 70
0
 10
280.3864845895
 20
195.4303320419
 10
280.3911275252
 20
195.3959313924
 10
280.391755541
 20
195.361687992
 10
280.3882704272
 20
195.3271462177
 10
280.3807703935
 20
195.2927616928
 10
280.3695500678
 20
195.2599012866
 10
280.3544588948
 20
195.2286264795
 10
280.33564743
 20
195.1988757921
  0
LWPOLYLINE
  5
2B5
100
AcDbEntity
  8
0
100
AcDbPolyline
 62
7
  6
CONTINUOUS
 90
10
 70
0
 43
0.3500000087
 10
306.6137373535
 20
195.9577056274
 10
306.7566092529
 20
196.0291245239
 10
306.8280281494
 20
196.0291245239
 10
306.9709000488
 20
195.8862696777
 10
306.9709000488
 20
195.814833728
 10
306.8994470459
 20
195.7434148315
 10
306.8280281494
 20
195.7434148315
 10
306.6851903564
 20
195.814833728
 10
306.6137373535
 20
195.8862696777
 10
306.6137373535
 20
195.9577056274
  0
LWPOLYLINE
  5
2B6
100
AcDbEntity
  8
0
100
AcDbPolyline
 62
7
  6
CONTINUOUS
 90
3
 70
0
 43
0.3500000087
 10
306.8280281494
 20
196.0291245239
 10
307.0423189453
 20
195.9577056274
 10
307.3280286377
 20
195.814833728
  0
LINE
  5
2B7
100
AcDbEntity
  8
0
100
AcDbLine
 62
250
  6
CONTINUOUS
 10
297.36412749
 20
216.7418141498
 11
297.3404448264
 21
216.6707083812
  0
LINE
  5
2B8
100
AcDbEntity
  8
0
100
AcDbLine
 62
250
  6
CONTINUOUS
 10
297.8637468903
 20
216.2415852977
 11
297.840368674
 21
216.1713936139
  0
LINE
  5
2B9
100
AcDbEntity
  8
0
100
AcDbLine
 62
250
  6
CONTINUOUS
 10
297.3404448264
 20
172.6732579373
 11
297.36412749
 21
172.6021521688
  0
LINE
  5
2BA
100
AcDbEntity
  8
0
100
AcDbLine
 62
250
  6
CONTINUOUS
 10
297.840368674
 20
173.1725727047
 11
297.8637468903
 21
173.1023810208
  0
LWPOLYLINE
  5
2BB
100
AcDbEntity
  8
0
100
AcDbPolyline
 62
7
  6
CONTINUOUS
 90
10
 70
0
 43
0.3500000087
 10
276.662599646
 20
227.9918092163
 10
276.7340185425
 20
227.8489543701
 10
276.7340185425
 20
227.7775354736
 10
276.5911636963
 20
227.6346635742
 10
276.5197447998
 20
227.6346635742
 10
276.4483088501
 20
227.7060995239
 10
276.4483088501
 20
227.7775354736
 10
276.5197447998
 20
227.9203903198
 10
276.5911636963
 20
227.9918092163
 10
276.662599646
 20
227.9918092163
  0
LWPOLYLINE
  5
2BC
100
AcDbEntity
  8
0
100
AcDbPolyline
 62
250
  6
CONTINUOUS
 90
7
 70
0
 10
297.3404448264
 20
216.6707083812
 10
297.3391998589
 20
216.6613478395
 10
297.3379863884
 20
216.6446315932
 10
297.336804415
 20
216.6208210761
 10
297.3356521646
 20
216.5903058004
 10
297.3345314113
 20
216.5533429894
 10
297.3323970175
 20
216.4598836485
  0
LWPOLYLINE
  5
2BD
100
AcDbEntity
  8
0
100
AcDbPolyline
 62
250
  6
CONTINUOUS
 90
10
 70
0
 10
297.840368674
 20
216.1713936139
 10
297.8391238697
 20
216.1648314481
 10
297.8379104885
 20
216.1537453801
 10
297.8367285302
 20
216.1381354099
 10
297.8355761742
 20
216.1179024307
 10
297.8344552413
 20
216.0931455493
 10
297.8333711934
 20
216.064162086
 10
297.8323207658
 20
216.0308625427
 10
297.8313072234
 20
215.9933364174
 10
297.8294391828
 20
215.9074193459
  0
LWPOLYLINE
  5
2BE
100
AcDbEntity
  8
0
100
AcDbPolyline
 62
250
  6
CONTINUOUS
 90
6
 70
0
 10
297.3343048814
 20
172.799092027
 10
297.3354770005
 20
172.7589908802
 10
297.3366790336
 20
172.72609992
 10
297.3379043838
 20
172.7007158098
 10
297.339159648
 20
172.6830354161
 10
297.3404448264
 20
172.6732579373
  0
LINE
  5
2BF
100
AcDbEntity
  8
0
100
AcDbLine
 62
250
  6
CONTINUOUS
 10
253.7555999518
 20
215.2339382761
 11
253.8584196727
 21
215.234451495
  0
LWPOLYLINE
  5
2C0
100
AcDbEntity
  8
0
100
AcDbPolyline
 62
250
  6
CONTINUOUS
 90
8
 70
0
 10
297.8320363922
 20
173.3230002328
 10
297.8331061999
 20
173.2876872148
 10
297.8342287255
 20
173.2566020408
 10
297.8354010198
 20
173.2297203377
 10
297.8366031545
 20
173.2078006937
 10
297.8378284871
 20
173.1910959716
 10
297.8390836603
 20
173.1793533086
 10
297.840368674
 20
173.1725727047
  0
LINE
  5
2C1
100
AcDbEntity
  8
0
100
AcDbLine
 62
250
  6
CONTINUOUS
 10
297.8300571622
 20
173.4054049736
 11
297.8320363922
 21
173.3230002328
  0
LINE
  5
2C2
100
AcDbEntity
  8
0
100
AcDbLine
 62
250
  6
CONTINUOUS
 10
297.3321126313
 20
172.8990248411
 11
297.3343048814
 21
172.799092027
  0
LINE
  5
2C3
100
AcDbEntity
  8
0
100
AcDbLine
 62
250
  6
CONTINUOUS
 10
297.8283262833
 20
173.5010266749
 11
297.8300571622
 21
173.4054049736
  0
LINE
  5
2C4
100
AcDbEntity
  8
0
100
AcDbLine
 62
250
  6
CONTINUOUS
 10
297.33013325
 20
173.0225063404
 11
297.3321126313
 21
172.8990248411
  0
LINE
  5
2C5
100
AcDbEntity
  8
0
100
AcDbLine
 62
250
  6
CONTINUOUS
 10
297.8262041428
 20
173.6674906889
 11
297.8283262833
 21
173.5010266749
  0
LINE
  5
2C6
100
AcDbEntity
  8
0
100
AcDbLine
 62
250
  6
CONTINUOUS
 10
297.3276319602
 20
173.2446017829
 11
297.33013325
 21
173.0225063404
  0
LINE
  5
2C7
100
AcDbEntity
  8
0
100
AcDbLine
 62
250
  6
CONTINUOUS
 10
297.8243814573
 20
173.9211911996
 11
297.8262041428
 21
173.6674906889
  0
LINE
  5
2C8
100
AcDbEntity
  8
0
100
AcDbLine
 62
250
  6
CONTINUOUS
 10
297.3247978106
 20
173.69668941
 11
297.3276319602
 21
173.2446017829
  0
LINE
  5
2C9
100
AcDbEntity
  8
0
100
AcDbLine
 62
250
  6
CONTINUOUS
 10
297.318857142
 20
183.1504112846
 11
297.3247978106
 21
173.69668941
  0
LINE
  5
2CA
100
AcDbEntity
  8
0
100
AcDbLine
 62
250
  6
CONTINUOUS
 10
297.8187809896
 20
183.1619328564
 11
297.8243814573
 21
173.9211911996
  0
LINE
  5
2CB
100
AcDbEntity
  8
0
100
AcDbLine
 62
7
  6
CONTINUOUS
 10
297.8637468903
 20
173.1023810208
 11
297.8637468903
 21
216.2415852977
  0
LINE
  5
2CC
100
AcDbEntity
  8
0
100
AcDbLine
 62
250
  6
CONTINUOUS
 10
297.8244144608
 20
215.4299865484
 11
297.8187809896
 21
183.1619328564
  0
LINE
  5
2CD
100
AcDbEntity
  8
0
100
AcDbLine
 62
250
  6
CONTINUOUS
 10
297.3253156474
 20
215.7633669245
 11
297.318857142
 21
183.1504112846
  0
LINE
  5
2CE
100
AcDbEntity
  8
0
100
AcDbLine
 62
250
  6
CONTINUOUS
 10
297.8257694415
 20
215.6312039503
 11
297.8244144608
 21
215.4299865484
  0
LINE
  5
2CF
100
AcDbEntity
  8
0
100
AcDbLine
 62
250
  6
CONTINUOUS
 10
297.3278659284
 20
216.1244030357
 11
297.3253156474
 21
215.7633669245
  0
LINE
  5
2D0
100
AcDbEntity
  8
0
100
AcDbLine
 62
250
  6
CONTINUOUS
 10
297.8277897221
 20
215.8071900503
 11
297.8257694415
 21
215.6312039503
  0
LINE
  5
2D1
100
AcDbEntity
  8
0
100
AcDbLine
 62
250
  6
CONTINUOUS
 10
297.3304219124
 20
216.3418422471
 11
297.3278659284
 21
216.1244030357
  0
LINE
  5
2D2
100
AcDbEntity
  8
0
100
AcDbLine
 62
250
  6
CONTINUOUS
 10
297.8294391828
 20
215.9074193459
 11
297.8277897221
 21
215.8071900503
  0
LINE
  5
2D3
100
AcDbEntity
  8
0
100
AcDbLine
 62
250
  6
CONTINUOUS
 10
297.3323970175
 20
216.4598836485
 11
297.3304219124
 21
216.3418422471
  0
LINE
  5
2D4
100
AcDbEntity
  8
0
100
AcDbLine
 62
250
  6
CONTINUOUS
 10
253.8418929021
 20
216.6707083812
 11
297.3404448264
 21
216.6707083812
  0
LINE
  5
2D5
100
AcDbEntity
  8
0
100
AcDbLine
 62
7
  6
CONTINUOUS
 10
297.36412749
 20
216.7418141498
 11
253.8182102385
 21
216.7418141498
  0
LWPOLYLINE
  5
2D6
100
AcDbEntity
  8
0
100
AcDbPolyline
 62
7
  6
CONTINUOUS
 90
3
 70
0
 43
0.3500000087
 10
304.9708980957
 20
197.0291255005
 10
304.1137349121
 20
197.8862716309
 10
307.1137378418
 20
197.8862716309
  0
LWPOLYLINE
  5
2D7
100
AcDbEntity
  8
0
100
AcDbPolyline
 62
250
  6
CONTINUOUS
 90
16
 70
0
 10
297.840368674
 20
216.1713936139
 10
297.837585587
 20
216.2235553462
 10
297.8293621634
 20
216.2751463675
 10
297.8157883608
 20
216.3256020989
 10
297.797012687
 20
216.3743703831
 10
297.77324058
 20
216.4209175163
 10
297.7447321639
 20
216.4647340904
 10
297.7117993909
 20
216.505340588
 10
297.6748026381
 20
216.5422926112
 10
297.6341467754
 20
216.5751857414
 10
297.5902767049
 20
216.6036599942
 10
297.5436725111
 20
216.6274037379
 10
297.494844228
 20
216.6461571004
 10
297.4443262183
 20
216.6597148361
 10
297.3926713204
 20
216.6679285635
 10
297.3404448259
 20
216.6707083797
  0
LWPOLYLINE
  5
2D8
100
AcDbEntity
  8
0
100
AcDbPolyline
 62
250
  6
CONTINUOUS
 90
16
 70
0
 10
297.840368674
 20
173.1725727047
 10
297.8375855173
 20
173.1204103156
 10
297.82936191
 20
173.0688187648
 10
297.8157878469
 20
173.0183626436
 10
297.7970118756
 20
172.9695941176
 10
297.7732394705
 20
172.9230468843
 10
297.7447307846
 20
172.8792303326
 10
297.7117978023
 20
172.838623968
 10
297.674800925
 20
172.8016721658
 10
297.6341450274
 20
172.7687793073
 10
297.5902750267
 20
172.7403053549
 10
297.5436710134
 20
172.7165619129
 10
297.4948429979
 20
172.6978088171
 10
297.4443253285
 20
172.6842512918
 10
297.3926708447
 20
172.6760377034
 10
297.3404448264
 20
172.6732579373
  0
LWPOLYLINE
  5
2D9
100
AcDbEntity
  8
0
100
AcDbPolyline
 62
7
  6
CONTINUOUS
 90
3
 70
0
 43
0.3500000087
 10
306.4708995605
 20
194.4577041626
 10
306.4708995605
 20
192.9577026978
 10
304.1137349121
 20
193.6005580322
  0
LWPOLYLINE
  5
2DA
100
AcDbEntity
  8
0
100
AcDbPolyline
 62
7
  6
CONTINUOUS
 90
3
 70
0
 43
0.3500000087
 10
306.4708995605
 20
192.1005565674
 10
306.4708995605
 20
190.6005551025
 10
304.1137349121
 20
191.243410437
  0
LWPOLYLINE
  5
2DB
100
AcDbEntity
  8
0
100
AcDbPolyline
 62
250
  6
CONTINUOUS
 90
14
 70
0
 10
297.8238419033
 20
174.1300773224
 10
297.8202624789
 20
174.1279514302
 10
297.811365077
 20
174.1258483125
 10
297.7972449947
 20
174.1237905031
 10
297.778053486
 20
174.1218000515
 10
297.7539961464
 20
174.1198982843
 10
297.7253307135
 20
174.1181055761
 10
297.6923642954
 20
174.1164411346
 10
297.6554500894
 20
174.1149227952
 10
297.6149836098
 20
174.1135668274
 10
297.5713984206
 20
174.1123877616
 10
297.5251615092
 20
174.1113982309
 10
297.4767683021
 20
174.110608836
 10
297.4267373195
 20
174.1100280345
  0
LWPOLYLINE
  5
2DC
100
AcDbEntity
  8
0
100
AcDbPolyline
 62
7
  6
CONTINUOUS
 90
8
 70
0
 43
0.3500000087
 10
277.734019519
 20
227.491808728
 10
278.5911656494
 20
227.491808728
 10
279.0197472412
 20
227.9203903198
 10
279.0197472412
 20
228.7775364502
 10
278.5911656494
 20
229.2061009888
 10
277.734019519
 20
229.2061009888
 10
277.734019519
 20
230.4918116577
 10
279.0197472412
 20
230.4918116577
  0
LWPOLYLINE
  5
2DD
100
AcDbEntity
  8
0
100
AcDbPolyline
 62
7
  6
CONTINUOUS
 90
3
 70
0
 43
0.3500000087
 10
275.1625981812
 20
228.1346640625
 10
273.6625967163
 20
228.1346640625
 10
274.3054520508
 20
230.4918116577
  0
LWPOLYLINE
  5
2DE
100
AcDbEntity
  8
0
100
AcDbPolyline
 62
7
  6
CONTINUOUS
 90
3
 70
0
 43
0.3500000087
 10
272.8054505859
 20
228.1346640625
 10
271.3054491211
 20
228.1346640625
 10
271.9483044556
 20
230.4918116577
  0
LWPOLYLINE
  5
2DF
100
AcDbEntity
  8
0
100
AcDbPolyline
 62
250
  6
CONTINUOUS
 90
16
 70
0
 10
297.8238419033
 20
215.2138890158
 10
297.8202624003
 20
215.2160149264
 10
297.8113648106
 20
215.218118059
 10
297.7972444676
 20
215.2201758795
 10
297.7780526638
 20
215.2221663393
 10
297.75399503
 20
215.2240681116
 10
297.7253293319
 20
215.2258608199
 10
297.6923627085
 20
215.2275252562
 10
297.6554483809
 20
215.2290435868
 10
297.6149818681
 20
215.2303995436
 10
297.571396749
 20
215.2315785982
 10
297.5251600168
 20
215.2325681176
 10
297.4767670754
 20
215.2333574996
 10
297.4267364316
 20
215.2339382863
 10
297.3756041393
 20
215.2343042548
 10
253.8584196727
 20
215.2344514841
  0
LWPOLYLINE
  5
2E0
100
AcDbEntity
  8
0
100
AcDbPolyline
 62
7
  6
CONTINUOUS
 90
10
 70
0
 43
0.3500000087
 10
225.1844797974
 20
227.491808728
 10
226.0416259277
 20
228.3489548584
 10
226.2558996704
 20
229.2061009888
 10
226.2558996704
 20
230.0632471191
 10
225.8273351318
 20
230.4918116577
 10
225.1844797974
 20
230.4918116577
 10
224.7558982056
 20
230.0632471191
 10
224.7558982056
 20
229.2061009888
 10
225.1844797974
 20
228.7775364502
 10
226.1130448242
 20
228.7775364502
  0
LWPOLYLINE
  5
2E1
100
AcDbEntity
  8
0
100
AcDbPolyline
 62
7
  6
CONTINUOUS
 90
3
 70
0
 43
0.3500000087
 10
223.755897229
 20
227.7775354736
 10
223.6844783325
 20
227.5632446777
 10
223.5416234863
 20
227.2775349854
  0
LINE
  5
2E2
100
AcDbEntity
  8
0
100
AcDbLine
 62
250
  6
CONTINUOUS
 10
235.3463868241
 20
173.2321380715
 11
235.1489928671
 21
173.2321380715
  0
LINE
  5
2E3
100
AcDbEntity
  8
0
100
AcDbLine
 62
7
  6
CONTINUOUS
 10
233.4896079352
 20
172.6732579373
 11
234.8463868241
 21
172.6021521688
  0
LINE
  5
2E4
100
AcDbEntity
  8
0
100
AcDbLine
 62
250
  6
CONTINUOUS
 10
233.5070497101
 20
173.1725727047
 11
234.8463868241
 21
173.1023810208
  0
LINE
  5
2E5
100
AcDbEntity
  8
0
100
AcDbLine
 62
250
  6
CONTINUOUS
 10
232.0720557374
 20
174.1096620508
 11
232.0693808528
 21
174.1095148068
  0
LINE
  5
2E6
100
AcDbEntity
  8
0
100
AcDbLine
 62
250
  6
CONTINUOUS
 10
232.5602316536
 20
174.1300773224
 11
232.0720557374
 21
174.1096620508
  0
LWPOLYLINE
  5
2E7
100
AcDbEntity
  8
0
100
AcDbPolyline
 62
250
  6
CONTINUOUS
 90
13
 70
0
 10
237.1812490964
 20
176.3325128072
 10
237.1910338856
 20
176.3350126718
 10
237.200373026
 20
176.3407342603
 10
237.2091135788
 20
176.3495839051
 10
237.2171124062
 20
176.3614167144
 10
237.2242385132
 20
176.3760389402
 10
237.2303751938
 20
176.3932111469
 10
237.2354219469
 20
176.4126521433
 10
237.239296117
 20
176.4340435765
 10
237.2419342502
 20
176.4570351338
 10
237.2432931369
 20
176.4812503027
 10
237.2433505175
 20
176.5062925405
 10
237.2421054453
 20
176.5317517511
  0
LINE
  5
2E8
100
AcDbEntity
  8
0
100
AcDbLine
 62
7
  6
CONTINUOUS
 10
237.1812491212
 20
176.3325128094
 11
235.3463868241
 21
176.1719831593
  0
LINE
  5
2E9
100
AcDbEntity
  8
0
100
AcDbLine
 62
250
  6
CONTINUOUS
 10
237.0507500919
 20
176.5217068966
 11
235.3463868241
 21
176.3725944322
  0
LINE
  5
2EA
100
AcDbEntity
  8
0
100
AcDbLine
 62
250
  6
CONTINUOUS
 10
237.242105405
 20
176.531751749
 11
237.0507500919
 21
176.5217068966
  0
LINE
  5
2EB
100
AcDbEntity
  8
0
100
AcDbLine
 62
250
  6
CONTINUOUS
 10
237.2421113102
 20
179.8122142539
 11
237.0507500919
 21
179.8222594219
  0
LINE
  5
2EC
100
AcDbEntity
  8
0
100
AcDbLine
 62
7
  6
CONTINUOUS
 10
236.9463868241
 20
181.4187249413
 11
235.3463868241
 21
181.3348724944
  0
LINE
  5
2ED
100
AcDbEntity
  8
0
100
AcDbLine
 62
250
  6
CONTINUOUS
 10
237.0507500919
 20
179.8222594219
 11
235.3463868241
 21
179.9713718863
  0
LINE
  5
2EE
100
AcDbEntity
  8
0
100
AcDbLine
 62
7
  6
CONTINUOUS
 10
237.1812491212
 20
180.0114535091
 11
235.3463868241
 21
180.1719831593
  0
LINE
  5
2EF
100
AcDbEntity
  8
0
100
AcDbLine
 62
7
  6
CONTINUOUS
 10
235.3463868241
 20
185.0090938241
 11
236.9463868241
 21
184.9252413773
  0
LWPOLYLINE
  5
2F0
100
AcDbEntity
  8
0
100
AcDbPolyline
 62
250
  6
CONTINUOUS
 90
22
 70
0
 10
232.5602316544
 20
174.1300773028
 10
232.5659918809
 20
174.0587003925
 10
232.5762955562
 20
173.9890716915
 10
232.5911426804
 20
173.9211911996
 10
232.6106310159
 20
173.8549534368
 10
232.6346628002
 20
173.7904638833
 10
232.6629447455
 20
173.7280389789
 10
232.6955642607
 20
173.6674906889
 10
232.732433937
 20
173.609007048
 10
232.7729982601
 20
173.5534686016
 10
232.8171416111
 20
173.5010266749
 10
232.864979609
 20
173.4515299427
 10
232.9163035972
 20
173.4054049736
 10
232.9712556073
 20
173.3625167216
 10
233.0296936078
 20
173.3230002328
 10
233.0909828469
 20
173.2876872148
 10
233.1552922995
 20
173.2566020408
 10
233.2224529908
 20
173.2297203377
 10
233.2913232451
 20
173.2078006937
 10
233.3615225038
 20
173.1910959716
 10
233.4334313254
 20
173.1793533086
 10
233.5070497101
 20
173.1725727047
  0
LWPOLYLINE
  5
2F1
100
AcDbEntity
  8
0
100
AcDbPolyline
 62
250
  6
CONTINUOUS
 90
16
 70
0
 10
232.5602316544
 20
215.2138890158
 10
232.4505631959
 20
212.2815080623
 10
232.3577922657
 20
209.4354999888
 10
232.2819188639
 20
206.6758647953
 10
232.2241401303
 20
204.0268877902
 10
232.1832589249
 20
201.4642836651
 10
232.1556838283
 20
198.9151964944
 10
232.139928315
 20
196.3774478145
 10
232.1374789104
 20
193.8532160891
 10
232.1492037711
 20
191.2761807839
 10
232.1738632887
 20
188.6406193288
 10
232.2126970716
 20
185.9522542941
 10
232.2702921014
 20
183.1619328564
 10
232.3481773722
 20
180.2532707415
 10
232.4448238898
 20
177.2426522236
 10
232.5602316544
 20
174.1300773028
  0
LWPOLYLINE
  5
2F2
100
AcDbEntity
  8
0
100
AcDbPolyline
 62
250
  6
CONTINUOUS
 90
19
 70
0
 10
235.1489980539
 20
173.2321399593
 10
235.1568497528
 20
173.1871594096
 10
235.163761488
 20
173.1431444092
 10
235.1696791225
 20
173.1004270838
 10
235.1746065693
 20
173.0590964041
 10
235.1784627441
 20
173.0196736289
 10
235.1811762159
 20
172.9830292049
 10
235.1828845202
 20
172.9494459849
 10
235.1836673503
 20
172.9188502741
 10
235.1834988113
 20
172.8913967009
 10
235.1825334684
 20
172.8673460296
 10
235.1809517148
 20
172.8462722552
 10
235.1786759123
 20
172.8274058718
 10
235.1756854302
 20
172.8108312549
 10
235.1720784415
 20
172.796593315
 10
235.1677099601
 20
172.7843042109
 10
235.1624235865
 20
172.7741759166
 10
235.1562015365
 20
172.766723968
 10
235.1489928671
 20
172.7622917611
  0
LINE
  5
2F3
100
AcDbEntity
  8
0
100
AcDbLine
 62
250
  6
CONTINUOUS
 10
233.5070497101
 20
216.1713936139
 11
233.4993970422
 21
216.3256020989
  0
LINE
  5
2F4
100
AcDbEntity
  8
0
100
AcDbLine
 62
250
  6
CONTINUOUS
 10
233.4993970422
 20
216.3256020989
 11
233.4951444385
 21
216.4209175163
  0
LINE
  5
2F5
100
AcDbEntity
  8
0
100
AcDbLine
 62
250
  6
CONTINUOUS
 10
233.4951444385
 20
216.4209175163
 11
233.4917924637
 21
216.505340588
  0
LWPOLYLINE
  5
2F6
100
AcDbEntity
  8
0
100
AcDbPolyline
 62
250
  6
CONTINUOUS
 90
8
 70
0
 10
233.4917924637
 20
216.505340588
 10
233.4894874588
 20
216.5751857414
 10
233.4887609386
 20
216.6036599942
 10
233.4883300586
 20
216.6274037379
 10
233.4881995356
 20
216.6461571004
 10
233.4883707986
 20
216.6597148361
 10
233.4888419741
 20
216.6679285635
 10
233.4896079067
 20
216.6707083797
  0
LWPOLYLINE
  5
2F7
100
AcDbEntity
  8
0
100
AcDbPolyline
 62
250
  6
CONTINUOUS
 90
7
 70
0
 10
233.4894874346
 20
172.7687793073
 10
233.4887609301
 20
172.7403053549
 10
233.4883300637
 20
172.7165619129
 10
233.4881995518
 20
172.6978088171
 10
233.4883708232
 20
172.6842512918
 10
233.4888420031
 20
172.6760377034
 10
233.4896079352
 20
172.6732579373
  0
LINE
  5
2F8
100
AcDbEntity
  8
0
100
AcDbLine
 62
250
  6
CONTINUOUS
 10
233.4917924069
 20
172.838623968
 11
233.4894874346
 21
172.7687793073
  0
LINE
  5
2F9
100
AcDbEntity
  8
0
100
AcDbLine
 62
250
  6
CONTINUOUS
 10
233.49514436
 20
172.9230468843
 11
233.4917924069
 21
172.838623968
  0
LINE
  5
2FA
100
AcDbEntity
  8
0
100
AcDbLine
 62
250
  6
CONTINUOUS
 10
233.5018043233
 20
173.0688187648
 11
233.49514436
 21
172.9230468843
  0
LINE
  5
2FB
100
AcDbEntity
  8
0
100
AcDbLine
 62
250
  6
CONTINUOUS
 10
233.5070497101
 20
173.1725727047
 11
233.5018043233
 21
173.0688187648
  0
LWPOLYLINE
  5
2FC
100
AcDbEntity
  8
0
100
AcDbPolyline
 62
250
  6
CONTINUOUS
 90
16
 70
0
 10
237.5463868241
 20
179.6129064781
 10
237.5445010763
 20
179.6344210492
 10
237.5390541344
 20
179.6548579955
 10
237.5303715301
 20
179.6742173169
 10
237.5188317197
 20
179.6925419157
 10
237.5047456529
 20
179.7097888897
 10
237.488252867
 20
179.7258295321
 10
237.4697220409
 20
179.7406037239
 10
237.4493027218
 20
179.7541715842
 10
237.4265170285
 20
179.7665847633
 10
237.4011794677
 20
179.7780347214
 10
237.3735750999
 20
179.7883299983
 10
237.3437499312
 20
179.7969478631
 10
237.3117962258
 20
179.8037140721
 10
237.2778645726
 20
179.8088028691
 10
237.2421113102
 20
179.8122142539
  0
LINE
  5
2FD
100
AcDbEntity
  8
0
100
AcDbLine
 62
250
  6
CONTINUOUS
 10
237.0592275047
 20
176.4221311395
 11
237.0507500919
 21
176.5217068966
  0
LINE
  5
2FE
100
AcDbEntity
  8
0
100
AcDbLine
 62
7
  6
CONTINUOUS
 10
234.8463868241
 20
172.6021521688
 11
234.8463868241
 21
216.7418141498
  0
LINE
  5
2FF
100
AcDbEntity
  8
0
100
AcDbLine
 62
250
  6
CONTINUOUS
 10
235.1489928671
 20
216.111828247
 11
235.1489928671
 21
173.2321380715
  0
LINE
  5
300
100
AcDbEntity
  8
0
100
AcDbLine
 62
7
  6
CONTINUOUS
 10
235.3463868241
 20
216.2997667712
 11
235.3463868241
 21
173.0441995473
  0
LINE
  5
301
100
AcDbEntity
  8
0
100
AcDbLine
 62
250
  6
CONTINUOUS
 10
236.7568540277
 20
207.9351743702
 11
236.7568540154
 21
204.4087919477
  0
LINE
  5
302
100
AcDbEntity
  8
0
100
AcDbLine
 62
250
  6
CONTINUOUS
 10
236.7568540154
 20
184.9351743709
 11
236.7568540277
 21
181.4087919483
  0
LINE
  5
303
100
AcDbEntity
  8
0
100
AcDbLine
 62
7
  6
CONTINUOUS
 10
236.9463868241
 20
207.9252413773
 11
236.9463868241
 21
204.4187249413
  0
LINE
  5
304
100
AcDbEntity
  8
0
100
AcDbLine
 62
7
  6
CONTINUOUS
 10
236.9463868241
 20
184.9252413773
 11
236.9463868241
 21
181.4187249413
  0
LINE
  5
305
100
AcDbEntity
  8
0
100
AcDbLine
 62
250
  6
CONTINUOUS
 10
237.0507500919
 20
179.8222594219
 11
237.0507500919
 21
176.5217068966
  0
LINE
  5
306
100
AcDbEntity
  8
0
100
AcDbLine
 62
7
  6
CONTINUOUS
 10
237.5463868241
 20
179.6129756299
 11
237.5463868241
 21
176.7309906886
  0
LWPOLYLINE
  5
307
100
AcDbEntity
  8
0
100
AcDbPolyline
 62
250
  6
CONTINUOUS
 90
7
 70
0
 10
237.0664359333
 20
176.322467957
 10
237.0665129253
 20
176.324190596
 10
237.0662906333
 20
176.3292895261
 10
237.065772857
 20
176.3376775873
 10
237.0649684449
 20
176.3492113963
 10
237.0638911495
 20
176.3636937974
 10
237.0592275047
 20
176.4221311395
  0
LWPOLYLINE
  5
308
100
AcDbEntity
  8
0
100
AcDbPolyline
 62
250
  6
CONTINUOUS
 90
13
 70
0
 10
237.2421053976
 20
179.8122145699
 10
237.2433504646
 20
179.8376735201
 10
237.2432931059
 20
179.8627155489
 10
237.2419342617
 20
179.886930568
 10
237.239296185
 20
179.9099220332
 10
237.235422078
 20
179.9313134364
 10
237.230375384
 20
179.9507544719
 10
237.2242387487
 20
179.967926775
 10
237.2171126664
 20
179.9825491348
 10
237.2091138346
 20
179.9943820979
 10
237.2003732428
 20
180.0032318908
 10
237.1910340268
 20
180.0089535928
 10
237.1812491256
 20
180.0114535088
  0
LWPOLYLINE
  5
309
100
AcDbEntity
  8
0
100
AcDbPolyline
 62
250
  6
CONTINUOUS
 90
5
 70
0
 10
237.0649684437
 20
179.9947549224
 10
237.0657728562
 20
180.0062887313
 10
237.0662906329
 20
180.0146767925
 10
237.0665129252
 20
180.0197757225
 10
237.0664359333
 20
180.0214983615
  0
LINE
  5
30A
100
AcDbEntity
  8
0
100
AcDbLine
 62
250
  6
CONTINUOUS
 10
237.062559389
 20
179.9630890862
 11
237.0649684437
 21
179.9947549224
  0
LWPOLYLINE
  5
30B
100
AcDbEntity
  8
0
100
AcDbPolyline
 62
250
  6
CONTINUOUS
 90
19
 70
0
 10
237.5463868241
 20
176.7310581685
 10
237.5447802318
 20
176.7112450355
 10
237.5401770055
 20
176.6924552065
 10
237.5329050837
 20
176.6746886814
 10
237.5233016056
 20
176.6579065153
 10
237.5116836283
 20
176.6421476533
 10
237.4983232329
 20
176.6275289302
 10
237.4835428402
 20
176.6141225271
 10
237.4675834603
 20
176.601856263
 10
237.4505041749
 20
176.5906304295
 10
237.432610882
 20
176.5804757047
 10
237.4139903352
 20
176.5713614106
 10
237.3941937671
 20
176.5630958045
 10
237.3734011102
 20
176.555584949
 10
237.3515760978
 20
176.5489227815
 10
237.3276972453
 20
176.5431993709
 10
237.3013327844
 20
176.5384447401
 10
237.2728028803
 20
176.5346288661
 10
237.242105405
 20
176.531751749
  0
LINE
  5
30C
100
AcDbEntity
  8
0
100
AcDbLine
 62
250
  6
CONTINUOUS
 10
237.0572843361
 20
179.8984698905
 11
237.062559389
 21
179.9630890862
  0
LINE
  5
30D
100
AcDbEntity
  8
0
100
AcDbLine
 62
250
  6
CONTINUOUS
 10
237.0507500919
 20
179.8222594219
 11
237.0572843361
 21
179.8984698905
  0
LWPOLYLINE
  5
30E
100
AcDbEntity
  8
0
100
AcDbPolyline
 62
7
  6
CONTINUOUS
 90
10
 70
0
 43
0.3500000087
 10
223.6844783325
 20
227.9918092163
 10
223.755897229
 20
227.8489543701
 10
223.755897229
 20
227.7775354736
 10
223.6130423828
 20
227.6346635742
 10
223.5416234863
 20
227.6346635742
 10
223.4701875366
 20
227.7060995239
 10
223.4701875366
 20
227.7775354736
 10
223.5416234863
 20
227.9203903198
 10
223.6130423828
 20
227.9918092163
 10
223.6844783325
 20
227.9918092163
  0
LINE
  5
30F
100
AcDbEntity
  8
0
100
AcDbLine
 62
7
  6
CONTINUOUS
 10
235.3463868241
 20
204.3348724944
 11
236.9463868241
 21
204.4187249413
  0
LINE
  5
310
100
AcDbEntity
  8
0
100
AcDbLine
 62
7
  6
CONTINUOUS
 10
235.3463868241
 20
208.0090938241
 11
236.9463868241
 21
207.9252413773
  0
LWPOLYLINE
  5
311
100
AcDbEntity
  8
0
100
AcDbPolyline
 62
250
  6
CONTINUOUS
 90
19
 70
0
 10
235.1489986445
 20
216.5816724546
 10
235.1578201205
 20
216.5756826684
 10
235.1652293692
 20
216.5649847245
 10
235.1712673923
 20
216.5500895734
 10
235.1760697763
 20
216.5314535788
 10
235.1796667398
 20
216.5096364381
 10
235.1820151813
 20
216.4853606769
 10
235.183304355
 20
216.4592268449
 10
235.1837046421
 20
216.4316692265
 10
235.1831851852
 20
216.403155482
 10
235.1819133697
 20
216.3743924174
 10
235.1800989858
 20
216.345445584
 10
235.1776505628
 20
216.315625234
 10
235.1745775565
 20
216.2852454791
 10
235.1709993504
 20
216.2543457299
 10
235.1667456418
 20
216.2215955752
 10
235.1616610913
 20
216.1865859666
 10
235.1557569031
 20
216.1499401037
 10
235.1489928671
 20
216.111828247
  0
LINE
  5
312
100
AcDbEntity
  8
0
100
AcDbLine
 62
250
  6
CONTINUOUS
 10
235.1489928671
 20
173.2321380715
 11
234.8463868241
 21
173.1219984791
  0
LINE
  5
313
100
AcDbEntity
  8
0
100
AcDbLine
 62
7
  6
CONTINUOUS
 10
235.1489928671
 20
172.7622917611
 11
234.8463868241
 21
172.6521521688
  0
LWPOLYLINE
  5
314
100
AcDbEntity
  8
0
100
AcDbPolyline
 62
250
  6
CONTINUOUS
 90
22
 70
0
 10
233.5070497101
 20
216.1713936139
 10
233.4357349221
 20
216.1648314481
 10
233.3662203563
 20
216.1537453801
 10
233.2985060127
 20
216.1381354099
 10
233.232487584
 20
216.1179024307
 10
233.1682693775
 20
216.0931455493
 10
233.106164315
 20
216.064162086
 10
233.0459853617
 20
216.0308625427
 10
232.9879195524
 20
215.9933364174
 10
232.932840913
 20
215.9521495242
 10
232.88089958
 20
215.9074193459
 10
232.8319454169
 20
215.8590283996
 10
232.7864020397
 20
215.8071900503
 10
232.7441359152
 20
215.7517607783
 10
232.7052805766
 20
215.6928841033
 10
232.6706602394
 20
215.6312039503
 10
232.6403011247
 20
215.5665515843
 10
232.6141770114
 20
215.4990957402
 10
232.5930334525
 20
215.4299865484
 10
232.5771189655
 20
215.3596073853
 10
232.5661850328
 20
215.2875748745
 10
232.5602316544
 20
215.2138890158
  0
LINE
  5
315
100
AcDbEntity
  8
0
100
AcDbLine
 62
250
  6
CONTINUOUS
 10
234.8463868241
 20
216.2415852977
 11
233.5070497101
 21
216.1713936139
  0
LINE
  5
316
100
AcDbEntity
  8
0
100
AcDbLine
 62
7
  6
CONTINUOUS
 10
234.8463868241
 20
216.7418141498
 11
233.4896079352
 21
216.6707083812
  0
LINE
  5
317
100
AcDbEntity
  8
0
100
AcDbLine
 62
250
  6
CONTINUOUS
 10
235.3463868241
 20
216.111828247
 11
235.1489928671
 21
216.111828247
  0
LWPOLYLINE
  5
318
100
AcDbEntity
  8
0
100
AcDbPolyline
 62
7
  6
CONTINUOUS
 90
8
 70
0
 43
0.3500000087
 10
220.8987661987
 20
227.491808728
 10
221.7558952759
 20
227.491808728
 10
222.1844768677
 20
227.9203903198
 10
222.1844768677
 20
228.7775364502
 10
221.7558952759
 20
229.2061009888
 10
220.8987661987
 20
229.2061009888
 10
220.8987661987
 20
230.4918116577
 10
222.1844768677
 20
230.4918116577
  0
LWPOLYLINE
  5
319
100
AcDbEntity
  8
0
100
AcDbPolyline
 62
250
  6
CONTINUOUS
 90
3
 70
0
 10
232.5602316544
 20
215.2138890158
 10
232.0720556874
 20
215.2343042548
 10
232.0693808517
 20
215.2344514841
  0
LINE
  5
31A
100
AcDbEntity
  8
0
100
AcDbLine
 62
250
  6
CONTINUOUS
 10
234.8463868241
 20
216.2219678394
 11
235.1489928671
 21
216.111828247
  0
LINE
  5
31B
100
AcDbEntity
  8
0
100
AcDbLine
 62
7
  6
CONTINUOUS
 10
234.8463868241
 20
216.6918141498
 11
235.1489928671
 21
216.5816745574
  0
ARC
  5
31C
100
AcDbEntity
  8
0
100
AcDbCircle
 62
7
  6
CONTINUOUS
 10
233.5681118696
 20
174.1712022394
 40
1.5
100
AcDbArc
 50
182.3569499908
 51
267.0
  0
ARC
  5
31D
100
AcDbEntity
  8
0
100
AcDbCircle
 62
7
  6
CONTINUOUS
 10
237.1463868241
 20
176.7309906886
 40
0.4
100
AcDbArc
 50
275.0
 51
360.0
  0
ARC
  5
31E
100
AcDbEntity
  8
0
100
AcDbCircle
 62
7
  6
CONTINUOUS
 10
237.1463868241
 20
179.6129756299
 40
0.4
100
AcDbArc
 50
0.0
 51
85.0
  0
ARC
  5
31F
100
AcDbEntity
  8
0
100
AcDbCircle
 62
7
  6
CONTINUOUS
 10
235.0463868241
 20
173.0441995473
 40
0.3
100
AcDbArc
 50
290.0
 51
360.0
  0
ARC
  5
320
100
AcDbEntity
  8
0
100
AcDbCircle
 62
7
  6
CONTINUOUS
 10
233.5681118696
 20
215.1727640791
 40
1.5
100
AcDbArc
 50
93.0
 51
177.6430500092
  0
ARC
  5
321
100
AcDbEntity
  8
0
100
AcDbCircle
 62
7
  6
CONTINUOUS
 10
235.0463868241
 20
216.2997667712
 40
0.3
100
AcDbArc
 50
0.0
 51
70.0
  0
ARC
  5
322
100
AcDbEntity
  8
0
100
AcDbCircle
 62
7
  6
CONTINUOUS
 10
731.6463868241
 20
194.6719831593
 40
500.0
100
AcDbArc
 50
177.6430500092
 51
182.3569499908
  0
ELLIPSE
  5
323
100
AcDbEntity
  8
0
100
AcDbEllipse
 62
7
  6
CONTINUOUS
 10
303.3564196438
 20
194.6719831593
 30
0.0
 11
-350.9080404475
 21
499.7734209976
 31
0.0
 40
0.0428911118
 41
1.5408619441
 42
1.5417923633
  0
ELLIPSE
  5
324
100
AcDbEntity
  8
0
100
AcDbEllipse
 62
7
  6
CONTINUOUS
 10
303.3564196438
 20
194.6719831593
 30
0.0
 11
350.9080404475
 21
499.7734209976
 31
0.0
 40
0.0428911118
 41
-4.6833850169
 42
-4.6824545977
  0
ELLIPSE
  5
325
100
AcDbEntity
  8
0
100
AcDbEllipse
 62
7
  6
CONTINUOUS
 10
238.6459180846
 20
194.6719831593
 30
0.0
 11
350.9080404475
 21
499.7734209976
 31
0.0
 40
0.0428911118
 41
-1.5398882004
 42
-1.5388562323
  0
ELLIPSE
  5
326
100
AcDbEntity
  8
0
100
AcDbEllipse
 62
7
  6
CONTINUOUS
 10
238.6459180846
 20
194.6719831593
 30
0.0
 11
-350.9080404475
 21
499.7734209976
 31
0.0
 40
0.0428911118
 41
-1.6027364212
 42
-1.6017044532
  0
ELLIPSE
  5
327
100
AcDbEntity
  8
0
100
AcDbEllipse
 62
7
  6
CONTINUOUS
 10
297.3636707262
 20
173.1028383418
 30
0.0
 11
0.1582391023
 21
-0.4751033573
 31
0.0
 40
0.9984778551
 41
-0.3210503505
 42
1.2488325878
  0
ELLIPSE
  5
328
100
AcDbEntity
  8
0
100
AcDbEllipse
 62
7
  6
CONTINUOUS
 10
297.3636707262
 20
216.2411279768
 30
0.0
 11
-0.1582391023
 21
-0.4751033573
 31
0.0
 40
0.9984778551
 41
1.8927600658
 42
3.4626430041
  0
ELLIPSE
  5
329
100
AcDbEntity
  8
0
100
AcDbEllipse
 62
7
  6
CONTINUOUS
 10
253.8186670022
 20
216.2411279768
 30
0.0
 11
-0.1582391023
 21
0.4751033573
 31
0.0
 40
0.9984778551
 41
-0.3210503505
 42
1.2488325878
  0
ELLIPSE
  5
32A
100
AcDbEntity
  8
0
100
AcDbEllipse
 62
7
  6
CONTINUOUS
 10
253.8186670022
 20
173.1028383418
 30
0.0
 11
0.1582391023
 21
0.4751033573
 31
0.0
 40
0.9984778551
 41
1.8927600658
 42
3.4626430041
  0
ENDSEC
  0
SECTION
  2
OBJECTS
  0
DICTIONARY
  5
C
100
AcDbDictionary
280
0
281
1
  3
ACAD_GROUP
350
D
  3
ACAD_MLINESTYLE
350
17
  3
ACAD_LAYOUT
350
1A
  3
ACAD_PLOTSETTINGS
350
19
  3
ACAD_PLOTSTYLENAME
350
E
  0
DICTIONARY
  5
D
102
{ACAD_REACTORS
330
C
102
}
100
AcDbDictionary
280
0
281
1
  0
ACDBDICTIONARYWDFLT
  5
E
102
{ACAD_REACTORS
330
C
102
}
100
AcDbDictionary
281
1
  3
Normal
350
F
100
AcDbDictionaryWithDefault
340
F
  0
DICTIONARY
  5
17
102
{ACAD_REACTORS
330
C
102
}
100
AcDbDictionary
280
0
281
1
  3
Standard
350
18
  0
DICTIONARY
  5
19
102
{ACAD_REACTORS
330
C
102
}
100
AcDbDictionary
281
1
  0
DICTIONARY
  5
1A
102
{ACAD_REACTORS
330
C
102
}
100
AcDbDictionary
281
1
  3
Model
350
32B
  3
Layout1
350
32C
  0
ACDBPLACEHOLDER
  5
F
102
{ACAD_REACTORS
330
E
102
}
  0
MLINESTYLE
  5
18
102
{ACAD_REACTORS
330
17
102
}
100
AcDbMlineStyle
  2
STANDARD
 70
0
  3

 62
256
 51
90.0
 52
90.0
 71
2
 49
0.5
 62
256
  6
BYLAYER
 49
-0.5
 62
256
  6
BYLAYER
  0
LAYOUT
  5
32B
102
{ACAD_REACTORS
330
1A
102
}
100
AcDbPlotSettings
  1

  2
none_device
  4
ANSI_C_(22.00_x_17.00_Inches)
  6

 40
0.0
 41
0.0
 42
0.0
 43
0.0
 44
558.8
 45
431.8
 46
0.0
 47
0.0
 48
0.0
 49
0.0
140
0.0
141
0.0
142
1.0
143
1.0
 70
1024
 72
1
 73
0
 74
0
  7

 75
0
147
1.0
148
0.0
149
0.0
100
AcDbLayout
  1
Model
 70
0
 71
0
 10
0.0
 20
0.0
 11
558.8
 21
431.8
 12
0.0
 22
0.0
 32
0.0
 14
0.0
 24
0.0
 34
0.0
 15
0.0
 25
0.0
 35
0.0
146
0.0
 13
0.0
 23
0.0
 33
0.0
 16
1.0
 26
0.0
 36
0.0
 17
0.0
 27
1.0
 37
0.0
 76
0
330
214
345
0
346
0
  0
LAYOUT
  5
32C
102
{ACAD_REACTORS
330
1A
102
}
100
AcDbPlotSettings
  1

  2
none_device
  4
ANSI_C_(22.00_x_17.00_Inches)
  6

 40
0.0
 41
0.0
 42
0.0
 43
0.0
 44
558.8
 45
431.8
 46
0.0
 47
0.0
 48
0.0
 49
0.0
140
0.0
141
0.0
142
1.0
143
1.0
 70
0
 72
1
 73
0
 74
0
  7

 75
0
147
1.0
148
0.0
149
0.0
100
AcDbLayout
  1
Layout1
 70
0
 71
1
 10
0.0
 20
0.0
 11
558.8
 21
431.8
 12
0.0
 22
0.0
 32
0.0
 14
0.0
 24
0.0
 34
0.0
 15
0.0
 25
0.0
 35
0.0
146
0.0
 13
0.0
 23
0.0
 33
0.0
 16
1.0
 26
0.0
 36
0.0
 17
0.0
 27
1.0
 37
0.0
 76
0
330
215
345
0
346
0
  0
ENDSEC
  0
EOF
