  0
SECTION
  2
HEADER
  9
$ACADVER
  1
AC1015
  9
$DWGCODEPAGE
  3
ANSI_1252
  9
$EXTMAX
 10
297.0
 20
210.0
 30
0.0
  9
$EXTMIN
 10
0.0
 20
0.0
 30
0.0
  9
$LIMMIN
 10
0.0
 20
0.0
  9
$LIMMAX
 10
297.0
 20
210.0
  9
$VIEWCTR
 10
148.5
 20
105.0
  9
$VIEWSIZE
 40
210.0
  9
$CLAYER
  8
0
  9
$LTSCALE
 40
16.335
  9
$CELTYPE
  6
BYLAYER
  9
$DIMSCALE
 40
1.0
  9
$DIMASZ
 40
3.0
  9
$DIMEXO
 40
1.85625
  9
$DIMDLI
 40
11.286
  9
$DIMEXE
 40
5.346
  9
$DIMCEN
 40
2.673
  9
$DIMLFAC
 40
1.0
  9
$DIMBLK
  1
_FILLED
  9
$DIMTXT
 40
3.0
  9
$DIMTOL
 70
1
  9
$DIMLIM
 70
0
  9
$DIMTFAC
 40
1.0
  9
$DIMTP
 40
0.01
  9
$DIMTM
 40
0.01
  9
$PDMODE
 70
3
  9
$PDSIZE
 40
3.0
  9
$HANDSEED
  5
6D2
  9
$TILEMODE
 70
1
  9
$MEASUREMENT
 70
1
  9
$INSUNITS
 70
4
  0
ENDSEC
  0
SECTION
  2
CLASSES
  0
CLASS
  1
ACDBDICTIONARYWDFLT
  2
AcDbDictionaryWithDefault
  3
AutoCAD 2000
 90
0
280
0
281
0
  0
CLASS
  1
ACDBPLACEHOLDER
  2
AcDbPlaceHolder
  3
AutoCAD 2000
 90
0
280
0
281
0
  0
CLASS
  1
LAYOUT
  2
AcDbLayout
  3
AutoCAD 2000
 90
0
280
0
281
0
  0
ENDSEC
  0
SECTION
  2
TABLES
  0
TABLE
  2
VPORT
  5
8
100
AcDbSymbolTable
 70
2
  0
VPORT
  5
1F4
100
AcDbSymbolTableRecord
100
AcDbViewportTableRecord
  2
*ACTIVE
 70
0
 10
0.0
 20
0.0
 11
1.0
 21
1.0
 12
148.5
 22
105.0
 13
0.0
 23
0.0
 14
1.0
 24
1.0
 15
0.0
 25
0.0
 16
0.0
 26
0.0
 36
1.0
 17
0.0
 27
0.0
 37
0.0
 40
210.0
 41
1.4142857143
 42
50.0
 43
0.0
 44
0.0
 50
0.0
 51
0.0
 71
0
 72
100
 73
1
 74
1
 75
0
 76
0
 77
0
 78
0
  0
ENDTAB
  0
TABLE
  2
LTYPE
  5
5
100
AcDbSymbolTable
 70
6
  0
LTYPE
  5
14
100
AcDbSymbolTableRecord
100
AcDbLinetypeTableRecord
  2
BYBLOCK
 70
0
  3

 72
65
 73
0
 40
0.0
  0
LTYPE
  5
15
100
AcDbSymbolTableRecord
100
AcDbLinetypeTableRecord
  2
BYLAYER
 70
0
  3

 72
65
 73
0
 40
0.0
  0
LTYPE
  5
16
100
AcDbSymbolTableRecord
100
AcDbLinetypeTableRecord
  2
CONTINUOUS
 70
64
  3
Solid line
 72
65
 73
0
 40
0.0
  0
LTYPE
  5
1F5
100
AcDbSymbolTableRecord
100
AcDbLinetypeTableRecord
  2
CENTER
 70
64
  3
____ _ ____ _ ____ _ ____ _ ____ _ ____ _ ____
 72
65
 73
4
 40
0.6
 49
0.375
 74
0
 49
-0.075
 74
0
 49
0.075
 74
0
 49
-0.075
 74
0
  0
LTYPE
  5
1F6
100
AcDbSymbolTableRecord
100
AcDbLinetypeTableRecord
  2
HIDDEN
 70
64
  3
- - - - - - - - - - - - - - - - - - - -
 72
65
 73
2
 40
0.2
 49
0.1
 74
0
 49
-0.1
 74
0
  0
LTYPE
  5
1F7
100
AcDbSymbolTableRecord
100
AcDbLinetypeTableRecord
  2
PHANTOM
 70
64
  3
_____ _ _ _____ _ _ _____ _ _ _____
 72
65
 73
6
 40
0.8
 49
0.45
 74
0
 49
-0.05
 74
0
 49
0.1
 74
0
 49
-0.05
 74
0
 49
0.1
 74
0
 49
-0.05
 74
0
  0
LTYPE
  5
1F8
100
AcDbSymbolTableRecord
100
AcDbLinetypeTableRecord
  2
DOT
 70
64
  3
. . . . . . . . . . . . . . . . . . . .
 72
65
 73
2
 40
0.2
 49
0.1
 74
0
 49
-0.1
 74
0
  0
LTYPE
  5
1F9
100
AcDbSymbolTableRecord
100
AcDbLinetypeTableRecord
  2
DASHED
 70
64
  3
- - - - - - - - - - - - - - - - - - - -
 72
65
 73
2
 40
0.2
 49
0.1
 74
0
 49
-0.1
 74
0
  0
ENDTAB
  0
TABLE
  2
LAYER
  5
2
100
AcDbSymbolTable
 70
36
  0
LAYER
  5
10
100
AcDbSymbolTableRecord
100
AcDbLayerTableRecord
  2
0
 70
0
 62
7
  6
CONTINUOUS
370
-3
390
F
  0
LAYER
  5
1FA
100
AcDbSymbolTableRecord
100
AcDbLayerTableRecord
  2
DEFAULT_1
 70
0
 62
7
  6
CENTER
370
-3
390
F
  0
LAYER
  5
1FB
100
AcDbSymbolTableRecord
100
AcDbLayerTableRecord
  2
DEFAULT_2
 70
0
 62
7
  6
HIDDEN
370
-3
390
F
  0
LAYER
  5
1FC
100
AcDbSymbolTableRecord
100
AcDbLayerTableRecord
  2
DEFAULT_3
 70
0
 62
7
  6
PHANTOM
370
-3
390
F
  0
LAYER
  5
1FD
100
AcDbSymbolTableRecord
100
AcDbLayerTableRecord
  2
ASSI
 70
0
 62
7
  6
CONTINUOUS
370
-3
390
F
  0
LAYER
  5
1FE
100
AcDbSymbolTableRecord
100
AcDbLayerTableRecord
  2
COLOR15
 70
0
 62
7
  6
CONTINUOUS
370
-3
390
F
  0
LAYER
  5
1FF
100
AcDbSymbolTableRecord
100
AcDbLayerTableRecord
  2
COLOR9
 70
0
 62
7
  6
CONTINUOUS
370
-3
390
F
  0
LAYER
  5
200
100
AcDbSymbolTableRecord
100
AcDbLayerTableRecord
  2
COLORE_MATERIALE
 70
0
 62
7
  6
CONTINUOUS
370
-3
390
F
  0
LAYER
  5
201
100
AcDbSymbolTableRecord
100
AcDbLayerTableRecord
  2
COORDINATE
 70
0
 62
7
  6
CONTINUOUS
370
-3
390
F
  0
LAYER
  5
202
100
AcDbSymbolTableRecord
100
AcDbLayerTableRecord
  2
COORD_ORIGINE
 70
0
 62
7
  6
CONTINUOUS
370
-3
390
F
  0
LAYER
  5
203
100
AcDbSymbolTableRecord
100
AcDbLayerTableRecord
  2
COPY_PUBLISH
 70
0
 62
7
  6
CONTINUOUS
370
-3
390
F
  0
LAYER
  5
204
100
AcDbSymbolTableRecord
100
AcDbLayerTableRecord
  2
CORPO
 70
0
 62
7
  6
CONTINUOUS
370
-3
390
F
  0
LAYER
  5
205
100
AcDbSymbolTableRecord
100
AcDbLayerTableRecord
  2
COSMETIC
 70
0
 62
7
  6
CONTINUOUS
370
-3
390
F
  0
LAYER
  5
206
100
AcDbSymbolTableRecord
100
AcDbLayerTableRecord
  2
CURVE
 70
0
 62
7
  6
CONTINUOUS
370
-3
390
F
  0
LAYER
  5
207
100
AcDbSymbolTableRecord
100
AcDbLayerTableRecord
  2
DRAFT
 70
0
 62
7
  6
CONTINUOUS
370
-3
390
F
  0
LAYER
  5
208
100
AcDbSymbolTableRecord
100
AcDbLayerTableRecord
  2
FUSIBILE
 70
0
 62
7
  6
CONTINUOUS
370
-3
390
F
  0
LAYER
  5
209
100
AcDbSymbolTableRecord
100
AcDbLayerTableRecord
  2
IMPORT
 70
0
 62
7
  6
CONTINUOUS
370
-3
390
F
  0
LAYER
  5
20A
100
AcDbSymbolTableRecord
100
AcDbLayerTableRecord
  2
IMPORT_IGES
 70
0
 62
7
  6
CONTINUOUS
370
-3
390
F
  0
LAYER
  5
20B
100
AcDbSymbolTableRecord
100
AcDbLayerTableRecord
  2
INTF_1
 70
0
 62
7
  6
CONTINUOUS
370
-3
390
F
  0
LAYER
  5
20C
100
AcDbSymbolTableRecord
100
AcDbLayerTableRecord
  2
INTF_CYAN
 70
0
 62
7
  6
CONTINUOUS
370
-3
390
F
  0
LAYER
  5
20D
100
AcDbSymbolTableRecord
100
AcDbLayerTableRecord
  2
INTF_GREEN
 70
0
 62
7
  6
CONTINUOUS
370
-3
390
F
  0
LAYER
  5
20E
100
AcDbSymbolTableRecord
100
AcDbLayerTableRecord
  2
INTF_YELLOW
 70
0
 62
7
  6
CONTINUOUS
370
-3
390
F
  0
LAYER
  5
20F
100
AcDbSymbolTableRecord
100
AcDbLayerTableRecord
  2
MAGNETOTERMICO
 70
0
 62
7
  6
CONTINUOUS
370
-3
390
F
  0
LAYER
  5
210
100
AcDbSymbolTableRecord
100
AcDbLayerTableRecord
  2
MOLLA
 70
0
 62
7
  6
CONTINUOUS
370
-3
390
F
  0
LAYER
  5
211
100
AcDbSymbolTableRecord
100
AcDbLayerTableRecord
  2
NOTE
 70
0
 62
7
  6
CONTINUOUS
370
-3
390
F
  0
LAYER
  5
212
100
AcDbSymbolTableRecord
100
AcDbLayerTableRecord
  2
PIANI
 70
0
 62
7
  6
CONTINUOUS
370
-3
390
F
  0
LAYER
  5
213
100
AcDbSymbolTableRecord
100
AcDbLayerTableRecord
  2
PIANI_ORIGINE
 70
0
 62
7
  6
CONTINUOUS
370
-3
390
F
  0
LAYER
  5
214
100
AcDbSymbolTableRecord
100
AcDbLayerTableRecord
  2
PIANI_RIFERIMENTO
 70
0
 62
7
  6
CONTINUOUS
370
-3
390
F
  0
LAYER
  5
215
100
AcDbSymbolTableRecord
100
AcDbLayerTableRecord
  2
PORTATASTO
 70
0
 62
7
  6
CONTINUOUS
370
-3
390
F
  0
LAYER
  5
216
100
AcDbSymbolTableRecord
100
AcDbLayerTableRecord
  2
PUNTI
 70
0
 62
7
  6
CONTINUOUS
370
-3
390
F
  0
LAYER
  5
217
100
AcDbSymbolTableRecord
100
AcDbLayerTableRecord
  2
RACCORDO
 70
0
 62
7
  6
CONTINUOUS
370
-3
390
F
  0
LAYER
  5
218
100
AcDbSymbolTableRecord
100
AcDbLayerTableRecord
  2
RGB____0____0____0__
 70
0
 62
7
  6
CONTINUOUS
370
-3
390
F
  0
LAYER
  5
219
100
AcDbSymbolTableRecord
100
AcDbLayerTableRecord
  2
SKEL
 70
0
 62
7
  6
CONTINUOUS
370
-3
390
F
  0
LAYER
  5
21A
100
AcDbSymbolTableRecord
100
AcDbLayerTableRecord
  2
SMUSSO
 70
0
 62
7
  6
CONTINUOUS
370
-3
390
F
  0
LAYER
  5
21B
100
AcDbSymbolTableRecord
100
AcDbLayerTableRecord
  2
SNAPLINE
 70
0
 62
7
  6
CONTINUOUS
370
-3
390
F
  0
LAYER
  5
21C
100
AcDbSymbolTableRecord
100
AcDbLayerTableRecord
  2
SUPERFICI
 70
0
 62
7
  6
CONTINUOUS
370
-3
390
F
  0
LAYER
  5
21D
100
AcDbSymbolTableRecord
100
AcDbLayerTableRecord
  2
TASTO
 70
0
 62
7
  6
CONTINUOUS
370
-3
390
F
  0
LAYER
  5
21E
100
AcDbSymbolTableRecord
100
AcDbLayerTableRecord
  2
TRASH
 70
0
 62
7
  6
CONTINUOUS
370
-3
390
F
  0
LAYER
  5
21F
100
AcDbSymbolTableRecord
100
AcDbLayerTableRecord
  2
XSEC_DATUMS
 70
0
 62
7
  6
CONTINUOUS
370
-3
390
F
  0
LAYER
  5
220
100
AcDbSymbolTableRecord
100
AcDbLayerTableRecord
  2
___SHELL
 70
0
 62
7
  6
CONTINUOUS
370
-3
390
F
  0
ENDTAB
  0
TABLE
  2
STYLE
  5
3
100
AcDbSymbolTable
 70
1
  0
STYLE
  5
11
100
AcDbSymbolTableRecord
100
AcDbTextStyleTableRecord
  2
STANDARD
 70
0
 40
0.0
 41
0.8
 50
0.0
 71
0
 42
0.2
  3
txt
  4

  0
STYLE
  5
221
100
AcDbSymbolTableRecord
100
AcDbTextStyleTableRecord
  2
TEXTSTYLE_1
 70
0
 40
0.0
 41
0.8
 50
0.0
 71
0
 42
0.2
  3
gdt
  4

  0
ENDTAB
  0
TABLE
  2
VIEW
  5
6
100
AcDbSymbolTable
 70
0
  0
ENDTAB
  0
TABLE
  2
UCS
  5
7
100
AcDbSymbolTable
 70
0
  0
ENDTAB
  0
TABLE
  2
APPID
  5
9
100
AcDbSymbolTable
 70
1
  0
APPID
  5
222
100
AcDbSymbolTableRecord
100
AcDbRegAppTableRecord
  2
ACAD
 70
0
  0
ENDTAB
  0
TABLE
  2
BLOCK_RECORD
  5
1
100
AcDbSymbolTable
 70
0
  0
BLOCK_RECORD
  5
223
100
AcDbSymbolTableRecord
100
AcDbBlockTableRecord
  2
*Model_Space
  0
BLOCK_RECORD
  5
224
100
AcDbSymbolTableRecord
100
AcDbBlockTableRecord
  2
*Paper_Space
  0
BLOCK_RECORD
  5
225
100
AcDbSymbolTableRecord
100
AcDbBlockTableRecord
  2
_FILLED
  0
BLOCK_RECORD
  5
226
100
AcDbSymbolTableRecord
100
AcDbBlockTableRecord
  2
*D0
  0
BLOCK_RECORD
  5
227
100
AcDbSymbolTableRecord
100
AcDbBlockTableRecord
  2
*D1
  0
BLOCK_RECORD
  5
228
100
AcDbSymbolTableRecord
100
AcDbBlockTableRecord
  2
*D2
  0
BLOCK_RECORD
  5
229
100
AcDbSymbolTableRecord
100
AcDbBlockTableRecord
  2
*D3
  0
ENDTAB
  0
TABLE
  2
DIMSTYLE
  5
A
100
AcDbSymbolTable
 70
1
100
AcDbDimStyleTable
 71
0
  0
DIMSTYLE
105
22A
100
AcDbSymbolTableRecord
100
AcDbDimStyleTableRecord
  2
STANDARD
 70
0
  3

  4

 40
1.0
 41
3.0
 42
0.0625
 43
0.38
 44
0.18
 45
0.0
 46
0.0
 47
0.01
 48
0.01
140
3.0
141
0.09
142
0.0
143
25.4
144
1.0
145
0.0
146
1.0
147
0.09
 71
1.0
 72
0.0
 73
0
 74
0
 75
0
 76
0
 77
1
 78
8
170
0
171
2
172
0
173
0
174
0
175
0
176
0
177
0
178
0
270
2
271
2
272
2
273
2
274
2
275
0
280
0
281
0
282
0
283
1
284
8
285
0
286
0
287
3
288
0
340
11
341
225
342
225
343
225
344
225
  0
DIMSTYLE
105
22B
100
AcDbSymbolTableRecord
100
AcDbDimStyleTableRecord
  2
DIMSTYLE_1
 70
0
  3

  4

 40
1.0
 41
3.0
 42
0.0625
 43
0.38
 44
0.18
 45
0.0
 46
0.0
 47
0.0
 48
0.0
140
3.0
141
0.09
142
0.0
143
25.4
144
1.0
145
0.0
146
1.0
147
0.09
 71
0.0
 72
0.0
 73
0
 74
0
 75
0
 76
0
 77
1
 78
8
170
0
171
2
172
0
173
0
174
0
175
0
176
0
177
0
178
0
270
2
271
2
272
2
273
2
274
2
275
0
280
0
281
0
282
0
283
1
284
8
285
0
286
0
287
3
288
0
340
11
341
225
342
225
343
225
344
225
  0
ENDTAB
  0
ENDSEC
  0
SECTION
  2
BLOCKS
  0
BLOCK
  5
20
100
AcDbEntity
  8
0
100
AcDbBlockBegin
  2
*Model_Space
 70
0
 10
0.0
 20
0.0
 30
0.0
  3
*Model_Space
  1

  0
ENDBLK
  5
21
100
AcDbEntity
  8
0
100
AcDbBlockEnd
  0
BLOCK
  5
1C
100
AcDbEntity
  8
0
100
AcDbBlockBegin
  2
*Paper_Space
 70
0
 10
0.0
 20
0.0
 30
0.0
  3
*Paper_Space
  1

  0
ENDBLK
  5
1D
100
AcDbEntity
  8
0
100
AcDbBlockEnd
  0
BLOCK
  5
22C
100
AcDbEntity
  8
0
100
AcDbBlockBegin
  2
_FILLED
 70
64
 10
0.0
 20
0.0
  3
_FILLED
  1

  0
SOLID
  5
22D
100
AcDbEntity
  8
0
  6
BYBLOCK
 62
0
100
AcDbTrace
 10
0.0
 20
0.0
 11
-1.0
 21
0.3166666667
 12
-1.0
 22
-0.3166666667
 13
-1.0
 23
-0.3166666667
  0
ENDBLK
  5
22E
100
AcDbEntity
  8
0
  6
BYBLOCK
 62
0
100
AcDbBlockEnd
  0
BLOCK
  5
22F
100
AcDbEntity
  8
0
100
AcDbBlockBegin
 62
7
  6
CONTINUOUS
  2
*D0
 70
65
 10
0.0
 20
0.0
  3
*D0
  1

  0
MTEXT
  5
230
100
AcDbEntity
  8
0
100
AcDbMText
 62
7
  6
CONTINUOUS
  7
STANDARD
 71
2
 72
1
 10
-0.8533088328
 20
28.3464376446
 30
0.0
 11
1.0
 21
0.0
 31
0.0
 44
0.9
  1
44,8
 40
3.0
 41
8.7857142857
  0
LINE
  5
231
100
AcDbEntity
  8
0
100
AcDbLine
 62
7
  6
CONTINUOUS
 10
-23.2533088328
 20
10.2681366934
 11
-23.2533088328
 21
26.0964376446
  0
LINE
  5
232
100
AcDbEntity
  8
0
100
AcDbLine
 62
7
  6
CONTINUOUS
 10
21.5466911672
 20
10.2681366934
 11
21.5466911672
 21
26.0964376446
  0
LINE
  5
233
100
AcDbEntity
  8
0
100
AcDbLine
 62
7
  6
CONTINUOUS
 10
-23.2533088328
 20
24.5964376446
 11
-0.8533088328
 21
24.5964376446
  0
LINE
  5
234
100
AcDbEntity
  8
0
100
AcDbLine
 62
7
  6
CONTINUOUS
 10
21.5466911672
 20
24.5964376446
 11
-0.8533088328
 21
24.5964376446
  0
INSERT
  5
235
100
AcDbEntity
  8
0
100
AcDbBlockReference
 62
7
  6
CONTINUOUS
  2
_FILLED
 10
-23.2533088328
 20
24.5964376446
 41
3.0
 42
3.0
 43
3.0
 50
180.0
  0
INSERT
  5
236
100
AcDbEntity
  8
0
100
AcDbBlockReference
 62
7
  6
CONTINUOUS
  2
_FILLED
 10
21.5466911672
 20
24.5964376446
 41
3.0
 42
3.0
 43
3.0
  0
ENDBLK
  5
237
100
AcDbEntity
  8
0
  6
BYBLOCK
 62
0
100
AcDbBlockEnd
  0
BLOCK
  5
238
100
AcDbEntity
  8
0
100
AcDbBlockBegin
 62
7
  6
CONTINUOUS
  2
*D1
 70
65
 10
0.0
 20
0.0
  3
*D1
  1

  0
MTEXT
  5
239
100
AcDbEntity
  8
0
100
AcDbMText
 62
7
  6
CONTINUOUS
  7
STANDARD
 71
2
 72
1
 10
25.7466911672
 20
-7.9035623554
 30
0.0
 11
0.0
 21
1.0
 31
0.0
 44
0.9
  1
49
 40
3.0
 41
4.7142857143
  0
LINE
  5
23A
100
AcDbEntity
  8
0
100
AcDbLine
 62
7
  6
CONTINUOUS
 10
21.2216945942
 20
-32.4035623554
 11
30.9966911672
 21
-32.4035623554
  0
LINE
  5
23B
100
AcDbEntity
  8
0
100
AcDbLine
 62
7
  6
CONTINUOUS
 10
21.2216945942
 20
16.5964376446
 11
30.9966911672
 21
16.5964376446
  0
LINE
  5
23C
100
AcDbEntity
  8
0
100
AcDbLine
 62
7
  6
CONTINUOUS
 10
29.4966911672
 20
-32.4035623554
 11
29.4966911672
 21
-7.9035623554
  0
LINE
  5
23D
100
AcDbEntity
  8
0
100
AcDbLine
 62
7
  6
CONTINUOUS
 10
29.4966911672
 20
16.5964376446
 11
29.4966911672
 21
-7.9035623554
  0
INSERT
  5
23E
100
AcDbEntity
  8
0
100
AcDbBlockReference
 62
7
  6
CONTINUOUS
  2
_FILLED
 10
29.4966911672
 20
-32.4035623554
 41
3.0
 42
3.0
 43
3.0
 50
270.0
  0
INSERT
  5
23F
100
AcDbEntity
  8
0
100
AcDbBlockReference
 62
7
  6
CONTINUOUS
  2
_FILLED
 10
29.4966911672
 20
16.5964376446
 41
3.0
 42
3.0
 43
3.0
 50
90.0
  0
ENDBLK
  5
240
100
AcDbEntity
  8
0
  6
BYBLOCK
 62
0
100
AcDbBlockEnd
  0
BLOCK
  5
241
100
AcDbEntity
  8
0
100
AcDbBlockBegin
 62
7
  6
CONTINUOUS
  2
*D2
 70
65
 10
0.0
 20
0.0
  3
*D2
  1

  0
MTEXT
  5
242
100
AcDbEntity
  8
0
100
AcDbMText
 62
7
  6
CONTINUOUS
  7
STANDARD
 71
2
 72
1
 10
-58.9147577326
 20
38.4093130834
 30
0.0
 11
1.0
 21
0.0
 31
0.0
 44
0.9
  1
43
 40
3.0
 41
4.5
  0
LINE
  5
243
100
AcDbEntity
  8
0
100
AcDbLine
 62
7
  6
CONTINUOUS
 10
-37.4147577326
 20
8.8833473429
 11
-37.4147577326
 21
36.1593130834
  0
LINE
  5
244
100
AcDbEntity
  8
0
100
AcDbLine
 62
7
  6
CONTINUOUS
 10
-80.4147577326
 20
-7.4035623554
 11
-80.4147577326
 21
36.1593130834
  0
LINE
  5
245
100
AcDbEntity
  8
0
100
AcDbLine
 62
7
  6
CONTINUOUS
 10
-37.4147577326
 20
34.6593130834
 11
-58.9147577326
 21
34.6593130834
  0
LINE
  5
246
100
AcDbEntity
  8
0
100
AcDbLine
 62
7
  6
CONTINUOUS
 10
-80.4147577326
 20
34.6593130834
 11
-58.9147577326
 21
34.6593130834
  0
INSERT
  5
247
100
AcDbEntity
  8
0
100
AcDbBlockReference
 62
7
  6
CONTINUOUS
  2
_FILLED
 10
-37.4147577326
 20
34.6593130834
 41
3.0
 42
3.0
 43
3.0
  0
INSERT
  5
248
100
AcDbEntity
  8
0
100
AcDbBlockReference
 62
7
  6
CONTINUOUS
  2
_FILLED
 10
-80.4147577326
 20
34.6593130834
 41
3.0
 42
3.0
 43
3.0
 50
180.0
  0
ENDBLK
  5
249
100
AcDbEntity
  8
0
  6
BYBLOCK
 62
0
100
AcDbBlockEnd
  0
BLOCK
  5
24A
100
AcDbEntity
  8
0
100
AcDbBlockBegin
 62
7
  6
CONTINUOUS
  2
*D3
 70
65
 10
0.0
 20
0.0
  3
*D3
  1

  0
MTEXT
  5
24B
100
AcDbEntity
  8
0
100
AcDbMText
 62
7
  6
CONTINUOUS
  7
STANDARD
 71
2
 72
1
 10
-53.6647577326
 20
28.2002940038
 30
0.0
 11
1.0
 21
0.0
 31
0.0
 44
0.9
  1
32,5
 40
3.0
 41
8.3571428571
  0
LINE
  5
24C
100
AcDbEntity
  8
0
100
AcDbLine
 62
7
  6
CONTINUOUS
 10
-37.4147577326
 20
8.8833473429
 11
-37.4147577326
 21
25.9502940038
  0
LINE
  5
24D
100
AcDbEntity
  8
0
100
AcDbLine
 62
7
  6
CONTINUOUS
 10
-69.9147577326
 20
16.8464410716
 11
-69.9147577326
 21
25.9502940038
  0
LINE
  5
24E
100
AcDbEntity
  8
0
100
AcDbLine
 62
7
  6
CONTINUOUS
 10
-37.4147577326
 20
24.4502940038
 11
-53.6647577326
 21
24.4502940038
  0
LINE
  5
24F
100
AcDbEntity
  8
0
100
AcDbLine
 62
7
  6
CONTINUOUS
 10
-69.9147577326
 20
24.4502940038
 11
-53.6647577326
 21
24.4502940038
  0
INSERT
  5
250
100
AcDbEntity
  8
0
100
AcDbBlockReference
 62
7
  6
CONTINUOUS
  2
_FILLED
 10
-37.4147577326
 20
24.4502940038
 41
3.0
 42
3.0
 43
3.0
  0
INSERT
  5
251
100
AcDbEntity
  8
0
100
AcDbBlockReference
 62
7
  6
CONTINUOUS
  2
_FILLED
 10
-69.9147577326
 20
24.4502940038
 41
3.0
 42
3.0
 43
3.0
 50
180.0
  0
ENDBLK
  5
252
100
AcDbEntity
  8
0
  6
BYBLOCK
 62
0
100
AcDbBlockEnd
  0
ENDSEC
  0
SECTION
  2
ENTITIES
  0
DIMENSION
  5
253
100
AcDbEntity
  8
0
100
AcDbDimension
 62
7
  6
CONTINUOUS
  2
*D0
 10
21.5466911672
 20
24.5964376446
 11
-5.2461659756
 21
26.8464376446
 70
160
 71
2
 42
44.8
  3
DIMSTYLE_1
100
AcDbAlignedDimension
 13
-23.2533088328
 23
10.2681366934
 14
21.5466911672
 24
10.2681366934
100
AcDbRotatedDimension
  0
DIMENSION
  5
254
100
AcDbEntity
  8
0
100
AcDbDimension
 62
7
  6
CONTINUOUS
  2
*D1
 10
29.4966911672
 20
16.5964376446
 11
28.302864691
 21
-10.0108402053
 70
160
 71
2
 42
49.0
  3
DIMSTYLE_1
100
AcDbAlignedDimension
 13
21.2216945942
 23
-32.4035623554
 14
21.2216945942
 24
16.5964376446
 50
90.0
100
AcDbRotatedDimension
  0
DIMENSION
  5
255
100
AcDbEntity
  8
0
100
AcDbDimension
 62
7
  6
CONTINUOUS
  2
*D2
 10
-80.4147577326
 20
34.6593130834
 11
-61.1647577326
 21
36.9093130834
 70
160
 71
2
 42
43.0
  3
DIMSTYLE_1
100
AcDbAlignedDimension
 13
-37.4147577326
 23
8.8833473429
 14
-80.4147577326
 24
-7.4035623554
 50
180.0
100
AcDbRotatedDimension
  0
DIMENSION
  5
256
100
AcDbEntity
  8
0
100
AcDbDimension
 62
7
  6
CONTINUOUS
  2
*D3
 10
-69.9147577326
 20
24.4502940038
 11
-57.8433291612
 21
26.7002940038
 70
160
 71
2
 42
32.5
  3
DIMSTYLE_1
100
AcDbAlignedDimension
 13
-37.4147577326
 23
8.8833473429
 14
-69.9147577326
 24
16.8464410716
 50
180.0
100
AcDbRotatedDimension
  0
LINE
  5
257
100
AcDbEntity
  8
PORTATASTO
100
AcDbLine
 62
253
  6
CONTINUOUS
 10
-20.6703293755
 20
16.579413675
 11
-20.6533054058
 21
16.5964376446
  0
LINE
  5
258
100
AcDbEntity
  8
PORTATASTO
100
AcDbLine
 62
253
  6
CONTINUOUS
 10
-20.4203328024
 20
16.3294171019
 11
-20.4033088328
 21
16.3464410716
  0
LINE
  5
259
100
AcDbEntity
  8
PORTATASTO
100
AcDbLine
 62
253
  6
CONTINUOUS
 10
-20.6703293755
 20
-32.3865383857
 11
-20.6533054058
 21
-32.4035623554
  0
LINE
  5
25A
100
AcDbEntity
  8
PORTATASTO
100
AcDbLine
 62
253
  6
CONTINUOUS
 10
-20.4203328024
 20
-32.1365418127
 11
-20.4033088328
 21
-32.1535657823
  0
LINE
  5
25B
100
AcDbEntity
  8
PORTATASTO
100
AcDbLine
 62
7
  6
CONTINUOUS
 10
-22.4283122597
 20
-32.4035623554
 11
-20.6533054058
 21
-32.4035623554
  0
LINE
  5
25C
100
AcDbEntity
  8
PORTATASTO
100
AcDbLine
 62
7
  6
CONTINUOUS
 10
20.7216945942
 20
-32.4035623554
 11
18.9466877403
 21
-32.4035623554
  0
LINE
  5
25D
100
AcDbEntity
  8
PORTATASTO
100
AcDbLine
 62
7
  6
CONTINUOUS
 10
0.0716877403
 20
-32.4035623554
 11
1.8466945942
 21
-32.4035623554
  0
LINE
  5
25E
100
AcDbEntity
  8
PORTATASTO
100
AcDbLine
 62
7
  6
CONTINUOUS
 10
-1.7783054058
 20
-32.4035623554
 11
-3.5533122597
 21
-32.4035623554
  0
LINE
  5
25F
100
AcDbEntity
  8
PORTATASTO
100
AcDbLine
 62
7
  6
CONTINUOUS
 10
-22.4112882901
 20
-32.3865383857
 11
-20.6703293755
 21
-32.3865383857
  0
LINE
  5
260
100
AcDbEntity
  8
PORTATASTO
100
AcDbLine
 62
7
  6
CONTINUOUS
 10
-3.5362882901
 20
-32.3865383857
 11
-1.7953293755
 21
-32.3865383857
  0
LINE
  5
261
100
AcDbEntity
  8
PORTATASTO
100
AcDbLine
 62
7
  6
CONTINUOUS
 10
0.0887117099
 20
-32.3865383857
 11
1.8296706245
 21
-32.3865383857
  0
LINE
  5
262
100
AcDbEntity
  8
PORTATASTO
100
AcDbLine
 62
7
  6
CONTINUOUS
 10
18.9637117099
 20
-32.3865383857
 11
20.7046706245
 21
-32.3865383857
  0
LINE
  5
263
100
AcDbEntity
  8
PORTATASTO
100
AcDbLine
 62
7
  6
CONTINUOUS
 10
-23.2382189626
 20
-26.0509083939
 11
-23.2033088328
 21
-26.4035623554
  0
LINE
  5
264
100
AcDbEntity
  8
PORTATASTO
100
AcDbLine
 62
253
  6
CONTINUOUS
 10
-22.6652118898
 20
-31.4148872208
 11
-22.6612848631
 21
-31.8478999227
  0
LINE
  5
265
100
AcDbEntity
  8
ASSI
100
AcDbLine
 62
7
  6
CONTINUOUS
 10
-23.0033088328
 20
-5.4787791412
 11
-22.964953694
 21
-29.4267992062
  0
LINE
  5
266
100
AcDbEntity
  8
RACCORDO
100
AcDbLine
 62
7
  6
CONTINUOUS
 10
-23.0033088328
 20
-5.4787791412
 11
-22.964953694
 21
-29.4267992062
  0
LINE
  5
267
100
AcDbEntity
  8
CORPO
100
AcDbLine
 62
7
  6
CONTINUOUS
 10
-23.2533088328
 20
-25.5752614041
 11
-23.2533088328
 21
9.7681366934
  0
LINE
  5
268
100
AcDbEntity
  8
ASSI
100
AcDbLine
 62
7
  6
CONTINUOUS
 10
-23.2533088328
 20
-25.5752614041
 11
-23.2533088328
 21
9.7681366934
  0
LINE
  5
269
100
AcDbEntity
  8
PORTATASTO
100
AcDbLine
 62
7
  6
CONTINUOUS
 10
-23.2382189626
 20
-26.0509083939
 11
-23.2382189626
 21
10.2437836832
  0
LINE
  5
26A
100
AcDbEntity
  8
PORTATASTO
100
AcDbLine
 62
7
  6
CONTINUOUS
 10
-23.2033088328
 20
13.9464545677
 11
-23.2033088328
 21
10.5964376446
  0
LINE
  5
26B
100
AcDbEntity
  8
PORTATASTO
100
AcDbLine
 62
7
  6
CONTINUOUS
 10
-23.2033088328
 20
-29.7535792784
 11
-23.2033088328
 21
-26.4035623554
  0
LINE
  5
26C
100
AcDbEntity
  8
PORTATASTO
100
AcDbLine
 62
7
  6
CONTINUOUS
 10
-23.1771262354
 20
13.8675971236
 11
-23.1771262354
 21
-29.6747218344
  0
LINE
  5
26D
100
AcDbEntity
  8
ASSI
100
AcDbLine
 62
7
  6
CONTINUOUS
 10
-23.0033088328
 20
-5.4787791412
 11
-23.0033088328
 21
13.6964374095
  0
LINE
  5
26E
100
AcDbEntity
  8
RACCORDO
100
AcDbLine
 62
7
  6
CONTINUOUS
 10
-23.0033088328
 20
-5.4787791412
 11
-23.0033088328
 21
13.6964374095
  0
LINE
  5
26F
100
AcDbEntity
  8
PORTATASTO
100
AcDbLine
 62
253
  6
CONTINUOUS
 10
-22.6612848631
 20
16.0407752119
 11
-22.6652118898
 21
15.60776251
  0
LINE
  5
270
100
AcDbEntity
  8
PORTATASTO
100
AcDbLine
 62
7
  6
CONTINUOUS
 10
-23.2033088328
 20
10.5964376446
 11
-23.2382189626
 21
10.2437836832
  0
LINE
  5
271
100
AcDbEntity
  8
PORTATASTO
100
AcDbLine
 62
253
  6
CONTINUOUS
 10
2.0796671976
 20
-32.1365418127
 11
-0.1612848631
 21
-32.1365418127
  0
LINE
  5
272
100
AcDbEntity
  8
PORTATASTO
100
AcDbLine
 62
253
  6
CONTINUOUS
 10
-1.5453328024
 20
-32.1365418127
 11
-3.7862848631
 21
-32.1365418127
  0
LINE
  5
273
100
AcDbEntity
  8
PORTATASTO
100
AcDbLine
 62
253
  6
CONTINUOUS
 10
18.7137151369
 20
-32.1365418127
 11
20.9546671976
 21
-32.1365418127
  0
LINE
  5
274
100
AcDbEntity
  8
PORTATASTO
100
AcDbLine
 62
253
  6
CONTINUOUS
 10
-20.4203328024
 20
-32.1365418127
 11
-22.6612848631
 21
-32.1365418127
  0
LINE
  5
275
100
AcDbEntity
  8
PORTATASTO
100
AcDbLine
 62
253
  6
CONTINUOUS
 10
-0.1612848631
 20
-31.8478999227
 11
2.0796671976
 21
-31.8478999227
  0
LINE
  5
276
100
AcDbEntity
  8
PORTATASTO
100
AcDbLine
 62
253
  6
CONTINUOUS
 10
-1.5453328024
 20
-31.8478999227
 11
-3.7862848631
 21
-31.8478999227
  0
LINE
  5
277
100
AcDbEntity
  8
PORTATASTO
100
AcDbLine
 62
253
  6
CONTINUOUS
 10
18.7137151369
 20
-31.8478999227
 11
20.9546671976
 21
-31.8478999227
  0
LINE
  5
278
100
AcDbEntity
  8
PORTATASTO
100
AcDbLine
 62
253
  6
CONTINUOUS
 10
-20.4203328024
 20
-31.8478999227
 11
-22.6612848631
 21
-31.8478999227
  0
LINE
  5
279
100
AcDbEntity
  8
PORTATASTO
100
AcDbLine
 62
7
  6
CONTINUOUS
 10
14.7966911672
 20
-31.7035623554
 11
5.9966911672
 21
-31.7035623554
  0
LINE
  5
27A
100
AcDbEntity
  8
PORTATASTO
100
AcDbLine
 62
7
  6
CONTINUOUS
 10
-7.7033088328
 20
-31.7035623554
 11
-16.5033088328
 21
-31.7035623554
  0
LINE
  5
27B
100
AcDbEntity
  8
PORTATASTO
100
AcDbLine
 62
7
  6
CONTINUOUS
 10
-16.3946603848
 20
-31.6941320081
 11
-7.8119572808
 21
-31.6941320081
  0
LINE
  5
27C
100
AcDbEntity
  8
PORTATASTO
100
AcDbLine
 62
7
  6
CONTINUOUS
 10
6.1053396152
 20
-31.6941320081
 11
14.6880427192
 21
-31.6941320081
  0
LINE
  5
27D
100
AcDbEntity
  8
PORTATASTO
100
AcDbLine
 62
253
  6
CONTINUOUS
 10
20.7046706245
 20
-31.6313935717
 11
18.9637117099
 21
-31.6313935717
  0
LINE
  5
27E
100
AcDbEntity
  8
PORTATASTO
100
AcDbLine
 62
253
  6
CONTINUOUS
 10
1.8296706245
 20
-31.6313935717
 11
0.0887117099
 21
-31.6313935717
  0
LINE
  5
27F
100
AcDbEntity
  8
PORTATASTO
100
AcDbLine
 62
253
  6
CONTINUOUS
 10
-1.7953293755
 20
-31.6313935717
 11
-3.5362882901
 21
-31.6313935717
  0
LINE
  5
280
100
AcDbEntity
  8
PORTATASTO
100
AcDbLine
 62
253
  6
CONTINUOUS
 10
-20.6703293755
 20
-31.6313935717
 11
-22.4112882901
 21
-31.6313935717
  0
LINE
  5
281
100
AcDbEntity
  8
PORTATASTO
100
AcDbLine
 62
253
  6
CONTINUOUS
 10
-15.9954479254
 20
-31.4941347497
 11
-8.2111697402
 21
-31.4941347497
  0
LINE
  5
282
100
AcDbEntity
  8
PORTATASTO
100
AcDbLine
 62
253
  6
CONTINUOUS
 10
6.5045520746
 20
-31.4941347497
 11
14.2888302598
 21
-31.4941347497
  0
LINE
  5
283
100
AcDbEntity
  8
PORTATASTO
100
AcDbLine
 62
253
  6
CONTINUOUS
 10
20.7085976512
 20
-31.1983808698
 11
18.9597846832
 21
-31.1983808698
  0
LINE
  5
284
100
AcDbEntity
  8
PORTATASTO
100
AcDbLine
 62
253
  6
CONTINUOUS
 10
1.8335976512
 20
-31.1983808698
 11
0.0847846832
 21
-31.1983808698
  0
LINE
  5
285
100
AcDbEntity
  8
PORTATASTO
100
AcDbLine
 62
253
  6
CONTINUOUS
 10
-1.7914023488
 20
-31.1983808698
 11
-3.5402153168
 21
-31.1983808698
  0
LINE
  5
286
100
AcDbEntity
  8
PORTATASTO
100
AcDbLine
 62
253
  6
CONTINUOUS
 10
-20.6664023488
 20
-31.1983808698
 11
-22.4152153168
 21
-31.1983808698
  0
LINE
  5
287
100
AcDbEntity
  8
PORTATASTO
100
AcDbLine
 62
7
  6
CONTINUOUS
 10
-16.5980026943
 20
-31.1262120862
 11
-16.4980727972
 21
-31.1262120862
  0
LINE
  5
288
100
AcDbEntity
  8
PORTATASTO
100
AcDbLine
 62
7
  6
CONTINUOUS
 10
-7.7085448684
 20
-31.1262120862
 11
-7.6086149713
 21
-31.1262120862
  0
LINE
  5
289
100
AcDbEntity
  8
PORTATASTO
100
AcDbLine
 62
7
  6
CONTINUOUS
 10
5.9019973057
 20
-31.1262120862
 11
6.0019272028
 21
-31.1262120862
  0
LINE
  5
28A
100
AcDbEntity
  8
PORTATASTO
100
AcDbLine
 62
7
  6
CONTINUOUS
 10
14.7914551316
 20
-31.1262120862
 11
14.8913850287
 21
-31.1262120862
  0
LINE
  5
28B
100
AcDbEntity
  8
PORTATASTO
100
AcDbLine
 62
253
  6
CONTINUOUS
 10
20.9599032332
 20
-30.9818745189
 11
18.7084791013
 21
-30.9818745189
  0
LINE
  5
28C
100
AcDbEntity
  8
PORTATASTO
100
AcDbLine
 62
253
  6
CONTINUOUS
 10
2.0849032332
 20
-30.9818745189
 11
-0.1665208987
 21
-30.9818745189
  0
LINE
  5
28D
100
AcDbEntity
  8
PORTATASTO
100
AcDbLine
 62
253
  6
CONTINUOUS
 10
-1.5400967668
 20
-30.9818745189
 11
-3.7915208987
 21
-30.9818745189
  0
LINE
  5
28E
100
AcDbEntity
  8
PORTATASTO
100
AcDbLine
 62
253
  6
CONTINUOUS
 10
-20.4150967668
 20
-30.9818745189
 11
-22.6665208987
 21
-30.9818745189
  0
LINE
  5
28F
100
AcDbEntity
  8
CORPO
100
AcDbLine
 62
7
  6
CONTINUOUS
 10
-0.1730727972
 20
-30.3035623554
 11
-1.5335448684
 21
-30.3035623554
  0
LINE
  5
290
100
AcDbEntity
  8
ASSI
100
AcDbLine
 62
7
  6
CONTINUOUS
 10
-0.1730727972
 20
-30.3035623554
 11
-1.5335448684
 21
-30.3035623554
  0
LINE
  5
291
100
AcDbEntity
  8
PORTATASTO
100
AcDbLine
 62
7
  6
CONTINUOUS
 10
20.997071767
 20
-30.2535623554
 11
20.9664551316
 21
-30.2535623554
  0
LINE
  5
292
100
AcDbEntity
  8
PORTATASTO
100
AcDbLine
 62
7
  6
CONTINUOUS
 10
18.7019272028
 20
-30.2535623554
 11
14.7914551316
 21
-30.2535623554
  0
LINE
  5
293
100
AcDbEntity
  8
PORTATASTO
100
AcDbLine
 62
7
  6
CONTINUOUS
 10
6.0019272028
 20
-30.2535623554
 11
2.0914551316
 21
-30.2535623554
  0
LINE
  5
294
100
AcDbEntity
  8
PORTATASTO
100
AcDbLine
 62
7
  6
CONTINUOUS
 10
-0.1730727972
 20
-30.2535623554
 11
-1.5335448684
 21
-30.2535623554
  0
LINE
  5
295
100
AcDbEntity
  8
PORTATASTO
100
AcDbLine
 62
7
  6
CONTINUOUS
 10
-3.7980727972
 20
-30.2535623554
 11
-7.7085448684
 21
-30.2535623554
  0
LINE
  5
296
100
AcDbEntity
  8
PORTATASTO
100
AcDbLine
 62
7
  6
CONTINUOUS
 10
-16.4980727972
 20
-30.2535623554
 11
-20.4085448684
 21
-30.2535623554
  0
LINE
  5
297
100
AcDbEntity
  8
PORTATASTO
100
AcDbLine
 62
7
  6
CONTINUOUS
 10
-22.6730727972
 20
-30.2535623554
 11
-22.7036894325
 21
-30.2535623554
  0
LINE
  5
298
100
AcDbEntity
  8
PORTATASTO
100
AcDbLine
 62
7
  6
CONTINUOUS
 10
14.2888302598
 20
-30.2011545761
 11
6.5045520746
 21
-30.2011545761
  0
LINE
  5
299
100
AcDbEntity
  8
PORTATASTO
100
AcDbLine
 62
7
  6
CONTINUOUS
 10
-8.2111697402
 20
-30.2011545761
 11
-15.9954479254
 21
-30.2011545761
  0
LINE
  5
29A
100
AcDbEntity
  8
PORTATASTO
100
AcDbLine
 62
7
  6
CONTINUOUS
 10
20.9708891696
 20
-30.1749506864
 11
20.7099066601
 21
-30.1749506864
  0
LINE
  5
29B
100
AcDbEntity
  8
PORTATASTO
100
AcDbLine
 62
7
  6
CONTINUOUS
 10
18.9584756743
 20
-30.1749506864
 11
1.8349066601
 21
-30.1749506864
  0
LINE
  5
29C
100
AcDbEntity
  8
PORTATASTO
100
AcDbLine
 62
7
  6
CONTINUOUS
 10
0.0834756743
 20
-30.1749506864
 11
-1.7900933399
 21
-30.1749506864
  0
LINE
  5
29D
100
AcDbEntity
  8
PORTATASTO
100
AcDbLine
 62
7
  6
CONTINUOUS
 10
-3.5415243257
 20
-30.1749506864
 11
-20.6650933399
 21
-30.1749506864
  0
LINE
  5
29E
100
AcDbEntity
  8
PORTATASTO
100
AcDbLine
 62
7
  6
CONTINUOUS
 10
-22.4165243257
 20
-30.1749506864
 11
-22.6775068351
 21
-30.1749506864
  0
LINE
  5
29F
100
AcDbEntity
  8
ASSI
100
AcDbLine
 62
7
  6
CONTINUOUS
 10
-22.4646692889
 20
-29.9252018629
 11
20.7580516234
 21
-29.9252018629
  0
LINE
  5
2A0
100
AcDbEntity
  8
RACCORDO
100
AcDbLine
 62
7
  6
CONTINUOUS
 10
-22.4646692889
 20
-29.9252018629
 11
20.7580516234
 21
-29.9252018629
  0
LINE
  5
2A1
100
AcDbEntity
  8
PORTATASTO
100
AcDbLine
 62
253
  6
CONTINUOUS
 10
-22.4152153168
 20
-31.1983808698
 11
-22.4112882901
 21
-31.6313935717
  0
LINE
  5
2A2
100
AcDbEntity
  8
PORTATASTO
100
AcDbLine
 62
7
  6
CONTINUOUS
 10
-22.6730727972
 20
15.3190873754
 11
-22.6783088328
 21
15.8964376446
  0
LINE
  5
2A3
100
AcDbEntity
  8
PORTATASTO
100
AcDbLine
 62
7
  6
CONTINUOUS
 10
-20.4033088328
 20
-31.7035623554
 11
-20.4085448684
 21
-31.1262120862
  0
LINE
  5
2A4
100
AcDbEntity
  8
PORTATASTO
100
AcDbLine
 62
253
  6
CONTINUOUS
 10
-20.6664023488
 20
15.3912561591
 11
-20.6703293755
 21
15.824268861
  0
LINE
  5
2A5
100
AcDbEntity
  8
PORTATASTO
100
AcDbLine
 62
7
  6
CONTINUOUS
 10
-22.6783088328
 20
-32.1535657823
 11
-22.6783088328
 21
-31.7035623554
  0
LINE
  5
2A6
100
AcDbEntity
  8
PORTATASTO
100
AcDbLine
 62
7
  6
CONTINUOUS
 10
-22.6783088328
 20
15.8964376446
 11
-22.6783088328
 21
16.3464410716
  0
LINE
  5
2A7
100
AcDbEntity
  8
PORTATASTO
100
AcDbLine
 62
7
  6
CONTINUOUS
 10
-22.6730727972
 20
15.3190873754
 11
-22.6730727972
 21
15.1747498081
  0
LINE
  5
2A8
100
AcDbEntity
  8
PORTATASTO
100
AcDbLine
 62
7
  6
CONTINUOUS
 10
-22.6730727972
 20
-30.9818745189
 11
-22.6730727972
 21
-31.1262120862
  0
LINE
  5
2A9
100
AcDbEntity
  8
PORTATASTO
100
AcDbLine
 62
7
  6
CONTINUOUS
 10
-22.6665208987
 20
15.1747498081
 11
-22.6665208987
 21
14.3808593192
  0
LINE
  5
2AA
100
AcDbEntity
  8
PORTATASTO
100
AcDbLine
 62
7
  6
CONTINUOUS
 10
-22.6665208987
 20
-30.18798403
 11
-22.6665208987
 21
-30.9818745189
  0
LINE
  5
2AB
100
AcDbEntity
  8
PORTATASTO
100
AcDbLine
 62
7
  6
CONTINUOUS
 10
-22.6612848631
 20
16.3294171019
 11
-22.6612848631
 21
16.0407752119
  0
LINE
  5
2AC
100
AcDbEntity
  8
PORTATASTO
100
AcDbLine
 62
7
  6
CONTINUOUS
 10
-22.6612848631
 20
-31.8478999227
 11
-22.6612848631
 21
-32.1365418127
  0
LINE
  5
2AD
100
AcDbEntity
  8
PORTATASTO
100
AcDbLine
 62
253
  6
CONTINUOUS
 10
-22.4165243257
 20
15.1747498081
 11
-22.4165243257
 21
14.3678259757
  0
LINE
  5
2AE
100
AcDbEntity
  8
PORTATASTO
100
AcDbLine
 62
253
  6
CONTINUOUS
 10
-22.4165243257
 20
-30.1749506864
 11
-22.4165243257
 21
-30.9818745189
  0
LINE
  5
2AF
100
AcDbEntity
  8
PORTATASTO
100
AcDbLine
 62
253
  6
CONTINUOUS
 10
-22.4112882901
 20
-31.6313935717
 11
-22.4112882901
 21
-32.3865383857
  0
LINE
  5
2B0
100
AcDbEntity
  8
PORTATASTO
100
AcDbLine
 62
253
  6
CONTINUOUS
 10
-22.4112882901
 20
15.824268861
 11
-22.4112882901
 21
16.579413675
  0
LINE
  5
2B1
100
AcDbEntity
  8
PORTATASTO
100
AcDbLine
 62
253
  6
CONTINUOUS
 10
-20.6703293755
 20
-31.6313935717
 11
-20.6703293755
 21
-32.3865383857
  0
LINE
  5
2B2
100
AcDbEntity
  8
PORTATASTO
100
AcDbLine
 62
253
  6
CONTINUOUS
 10
-20.6703293755
 20
15.824268861
 11
-20.6703293755
 21
16.579413675
  0
LINE
  5
2B3
100
AcDbEntity
  8
PORTATASTO
100
AcDbLine
 62
253
  6
CONTINUOUS
 10
-20.6650933399
 20
-30.9818745189
 11
-20.6650933399
 21
-30.1749506864
  0
LINE
  5
2B4
100
AcDbEntity
  8
PORTATASTO
100
AcDbLine
 62
253
  6
CONTINUOUS
 10
-20.6650933399
 20
14.3678259757
 11
-20.6650933399
 21
15.1747498081
  0
LINE
  5
2B5
100
AcDbEntity
  8
PORTATASTO
100
AcDbLine
 62
7
  6
CONTINUOUS
 10
-20.4203328024
 20
-32.1365418127
 11
-20.4203328024
 21
-31.8478999227
  0
LINE
  5
2B6
100
AcDbEntity
  8
PORTATASTO
100
AcDbLine
 62
7
  6
CONTINUOUS
 10
-20.4203328024
 20
16.0407752119
 11
-20.4203328024
 21
16.3294171019
  0
LINE
  5
2B7
100
AcDbEntity
  8
PORTATASTO
100
AcDbLine
 62
7
  6
CONTINUOUS
 10
-20.4150967668
 20
-30.9818745189
 11
-20.4150967668
 21
-30.18798403
  0
LINE
  5
2B8
100
AcDbEntity
  8
PORTATASTO
100
AcDbLine
 62
7
  6
CONTINUOUS
 10
-20.4150967668
 20
14.3808593192
 11
-20.4150967668
 21
15.1747498081
  0
LINE
  5
2B9
100
AcDbEntity
  8
PORTATASTO
100
AcDbLine
 62
7
  6
CONTINUOUS
 10
-20.4085448684
 20
15.3190873754
 11
-20.4085448684
 21
15.1747498081
  0
LINE
  5
2BA
100
AcDbEntity
  8
PORTATASTO
100
AcDbLine
 62
7
  6
CONTINUOUS
 10
-20.4085448684
 20
-30.9818745189
 11
-20.4085448684
 21
-31.1262120862
  0
LINE
  5
2BB
100
AcDbEntity
  8
PORTATASTO
100
AcDbLine
 62
7
  6
CONTINUOUS
 10
-20.4033088328
 20
16.3464410716
 11
-20.4033088328
 21
15.8964376446
  0
LINE
  5
2BC
100
AcDbEntity
  8
PORTATASTO
100
AcDbLine
 62
7
  6
CONTINUOUS
 10
-20.4033088328
 20
-31.7035623554
 11
-20.4033088328
 21
-32.1535657823
  0
LINE
  5
2BD
100
AcDbEntity
  8
PORTATASTO
100
AcDbLine
 62
253
  6
CONTINUOUS
 10
-22.4112882901
 20
15.824268861
 11
-22.4152153168
 21
15.3912561591
  0
LINE
  5
2BE
100
AcDbEntity
  8
PORTATASTO
100
AcDbLine
 62
7
  6
CONTINUOUS
 10
-22.6783088328
 20
-31.7035623554
 11
-22.6730727972
 21
-31.1262120862
  0
LINE
  5
2BF
100
AcDbEntity
  8
PORTATASTO
100
AcDbLine
 62
7
  6
CONTINUOUS
 10
-20.4085448684
 20
15.3190873754
 11
-20.4033088328
 21
15.8964376446
  0
LINE
  5
2C0
100
AcDbEntity
  8
PORTATASTO
100
AcDbLine
 62
253
  6
CONTINUOUS
 10
-20.6703293755
 20
-31.6313935717
 11
-20.6664023488
 21
-31.1983808698
  0
LINE
  5
2C1
100
AcDbEntity
  8
ASSI
100
AcDbLine
 62
253
  6
CONTINUOUS
 10
20.6619882308
 20
-29.7329432456
 11
-22.3686058964
 21
-29.7329432456
  0
LINE
  5
2C2
100
AcDbEntity
  8
RACCORDO
100
AcDbLine
 62
253
  6
CONTINUOUS
 10
20.6619882308
 20
-29.7329432456
 11
-22.3686058964
 21
-29.7329432456
  0
LINE
  5
2C3
100
AcDbEntity
  8
ASSI
100
AcDbLine
 62
253
  6
CONTINUOUS
 10
20.6371945628
 20
-28.2961767296
 11
-22.3438122284
 21
-28.2961767296
  0
LINE
  5
2C4
100
AcDbEntity
  8
RACCORDO
100
AcDbLine
 62
253
  6
CONTINUOUS
 10
20.6371945628
 20
-28.2961767296
 11
-22.3438122284
 21
-28.2961767296
  0
LINE
  5
2C5
100
AcDbEntity
  8
PORTATASTO
100
AcDbLine
 62
253
  6
CONTINUOUS
 10
-20.4164057757
 20
15.60776251
 11
-20.4203328024
 21
16.0407752119
  0
LINE
  5
2C6
100
AcDbEntity
  8
PORTATASTO
100
AcDbLine
 62
253
  6
CONTINUOUS
 10
-20.4203328024
 20
-31.8478999227
 11
-20.4164057757
 21
-31.4148872208
  0
LINE
  5
2C7
100
AcDbEntity
  8
PORTATASTO
100
AcDbLine
 62
253
  6
CONTINUOUS
 10
-1.7953293755
 20
16.579413675
 11
-1.7783054058
 21
16.5964376446
  0
LINE
  5
2C8
100
AcDbEntity
  8
PORTATASTO
100
AcDbLine
 62
253
  6
CONTINUOUS
 10
-1.5453328024
 20
16.3294171019
 11
-1.5283088328
 21
16.3464410716
  0
LINE
  5
2C9
100
AcDbEntity
  8
PORTATASTO
100
AcDbLine
 62
253
  6
CONTINUOUS
 10
-1.7953293755
 20
-32.3865383857
 11
-1.7783054058
 21
-32.4035623554
  0
LINE
  5
2CA
100
AcDbEntity
  8
PORTATASTO
100
AcDbLine
 62
253
  6
CONTINUOUS
 10
-1.5453328024
 20
-32.1365418127
 11
-1.5283088328
 21
-32.1535657823
  0
LINE
  5
2CB
100
AcDbEntity
  8
PORTATASTO
100
AcDbLine
 62
7
  6
CONTINUOUS
 10
-16.5085448684
 20
-30.2535623554
 11
-16.5085448684
 21
-30.7606737154
  0
LINE
  5
2CC
100
AcDbEntity
  8
PORTATASTO
100
AcDbLine
 62
7
  6
CONTINUOUS
 10
-16.5085448684
 20
14.4464376446
 11
-16.5085448684
 21
14.9535490046
  0
LINE
  5
2CD
100
AcDbEntity
  8
PORTATASTO
100
AcDbLine
 62
7
  6
CONTINUOUS
 10
-16.4954410715
 20
15.8885698834
 11
-16.4954410715
 21
14.4200965524
  0
LINE
  5
2CE
100
AcDbEntity
  8
PORTATASTO
100
AcDbLine
 62
7
  6
CONTINUOUS
 10
-16.4954410715
 20
-30.2272212631
 11
-16.4954410715
 21
-31.6956945941
  0
LINE
  5
2CF
100
AcDbEntity
  8
PORTATASTO
100
AcDbLine
 62
253
  6
CONTINUOUS
 10
-15.9954479254
 20
15.687010039
 11
-15.9954479254
 21
14.3940298654
  0
LINE
  5
2D0
100
AcDbEntity
  8
PORTATASTO
100
AcDbLine
 62
253
  6
CONTINUOUS
 10
-15.9954479254
 20
-30.2011545761
 11
-15.9954479254
 21
-31.4941347497
  0
LINE
  5
2D1
100
AcDbEntity
  8
PORTATASTO
100
AcDbLine
 62
253
  6
CONTINUOUS
 10
1.8296706245
 20
16.579413675
 11
1.8466945942
 21
16.5964376446
  0
LINE
  5
2D2
100
AcDbEntity
  8
PORTATASTO
100
AcDbLine
 62
253
  6
CONTINUOUS
 10
2.0796671976
 20
16.3294171019
 11
2.0966911672
 21
16.3464410716
  0
LINE
  5
2D3
100
AcDbEntity
  8
0
100
AcDbLine
 62
253
  6
CONTINUOUS
 10
3.6466911672
 20
-22.9035623554
 11
-5.3533088328
 21
-22.9035623554
  0
LINE
  5
2D4
100
AcDbEntity
  8
PORTATASTO
100
AcDbLine
 62
253
  6
CONTINUOUS
 10
1.8296706245
 20
-32.3865383857
 11
1.8466945942
 21
-32.4035623554
  0
LINE
  5
2D5
100
AcDbEntity
  8
PORTATASTO
100
AcDbLine
 62
253
  6
CONTINUOUS
 10
2.0796671976
 20
-32.1365418127
 11
2.0966911672
 21
-32.1535657823
  0
LINE
  5
2D6
100
AcDbEntity
  8
PORTATASTO
100
AcDbLine
 62
253
  6
CONTINUOUS
 10
-23.2033088328
 20
-29.7533335033
 11
-23.1771262354
 21
-29.6747218344
  0
LINE
  5
2D7
100
AcDbEntity
  8
PORTATASTO
100
AcDbLine
 62
253
  6
CONTINUOUS
 10
-22.7036894325
 20
-30.2535623554
 11
-22.6803173086
 21
-30.1833889635
  0
LINE
  5
2D8
100
AcDbEntity
  8
PORTATASTO
100
AcDbLine
 62
253
  6
CONTINUOUS
 10
-23.1771262354
 20
13.8675971236
 11
-23.2033088328
 21
13.9462087926
  0
LINE
  5
2D9
100
AcDbEntity
  8
PORTATASTO
100
AcDbLine
 62
253
  6
CONTINUOUS
 10
-22.6803173086
 20
14.3762642527
 11
-22.7036894325
 21
14.4464376446
  0
LINE
  5
2DA
100
AcDbEntity
  8
ASSI
100
AcDbLine
 62
253
  6
CONTINUOUS
 10
-22.964953694
 20
-29.4267992062
 11
-22.8684345589
 21
-29.2336284782
  0
LINE
  5
2DB
100
AcDbEntity
  8
RACCORDO
100
AcDbLine
 62
253
  6
CONTINUOUS
 10
-22.964953694
 20
-29.4267992062
 11
-22.8684345589
 21
-29.2336284782
  0
LINE
  5
2DC
100
AcDbEntity
  8
ASSI
100
AcDbLine
 62
253
  6
CONTINUOUS
 10
-22.8684345589
 20
13.4265037675
 11
-23.0033088328
 21
13.6964374095
  0
LINE
  5
2DD
100
AcDbEntity
  8
RACCORDO
100
AcDbLine
 62
253
  6
CONTINUOUS
 10
-22.8684345589
 20
13.4265037675
 11
-23.0033088328
 21
13.6964374095
  0
LINE
  5
2DE
100
AcDbEntity
  8
PORTATASTO
100
AcDbLine
 62
253
  6
CONTINUOUS
 10
-8.2111697402
 20
-31.4941347497
 11
-8.2111697402
 21
-30.2011545761
  0
LINE
  5
2DF
100
AcDbEntity
  8
PORTATASTO
100
AcDbLine
 62
253
  6
CONTINUOUS
 10
-8.2111697402
 20
14.3940298654
 11
-8.2111697402
 21
15.687010039
  0
LINE
  5
2E0
100
AcDbEntity
  8
ASSI
100
AcDbLine
 62
253
  6
CONTINUOUS
 10
-22.4646692889
 20
-29.9252018629
 11
-22.3686058964
 21
-29.7329432456
  0
LINE
  5
2E1
100
AcDbEntity
  8
RACCORDO
100
AcDbLine
 62
253
  6
CONTINUOUS
 10
-22.4646692889
 20
-29.9252018629
 11
-22.3686058964
 21
-29.7329432456
  0
LINE
  5
2E2
100
AcDbEntity
  8
0
100
AcDbLine
 62
253
  6
CONTINUOUS
 10
-0.8533088328
 20
-18.4035623554
 11
3.6466911672
 21
-22.9035623554
  0
LINE
  5
2E3
100
AcDbEntity
  8
ASSI
100
AcDbLine
 62
253
  6
CONTINUOUS
 10
-22.3686058964
 20
13.9258185349
 11
-22.5038226692
 21
14.1964376446
  0
LINE
  5
2E4
100
AcDbEntity
  8
RACCORDO
100
AcDbLine
 62
253
  6
CONTINUOUS
 10
-22.3686058964
 20
13.9258185349
 11
-22.5038226692
 21
14.1964376446
  0
LINE
  5
2E5
100
AcDbEntity
  8
PORTATASTO
100
AcDbLine
 62
7
  6
CONTINUOUS
 10
-7.711176594
 20
-31.6956945941
 11
-7.711176594
 21
-30.2272212631
  0
LINE
  5
2E6
100
AcDbEntity
  8
PORTATASTO
100
AcDbLine
 62
7
  6
CONTINUOUS
 10
-7.711176594
 20
14.4200965524
 11
-7.711176594
 21
15.8885698834
  0
LINE
  5
2E7
100
AcDbEntity
  8
PORTATASTO
100
AcDbLine
 62
7
  6
CONTINUOUS
 10
-7.6980727972
 20
-30.2535623554
 11
-7.6980727972
 21
-30.7606737154
  0
LINE
  5
2E8
100
AcDbEntity
  8
PORTATASTO
100
AcDbLine
 62
7
  6
CONTINUOUS
 10
-7.6980727972
 20
14.4464376446
 11
-7.6980727972
 21
14.9535490046
  0
LINE
  5
2E9
100
AcDbEntity
  8
0
100
AcDbLine
 62
253
  6
CONTINUOUS
 10
3.6466911672
 20
-20.7822420118
 11
-0.8533088328
 21
-16.2822420118
  0
LINE
  5
2EA
100
AcDbEntity
  8
PORTATASTO
100
AcDbLine
 62
253
  6
CONTINUOUS
 10
-3.7902118898
 20
-31.4148872208
 11
-3.7862848631
 21
-31.8478999227
  0
LINE
  5
2EB
100
AcDbEntity
  8
PORTATASTO
100
AcDbLine
 62
253
  6
CONTINUOUS
 10
-3.5402153168
 20
-31.1983808698
 11
-3.5362882901
 21
-31.6313935717
  0
LINE
  5
2EC
100
AcDbEntity
  8
PORTATASTO
100
AcDbLine
 62
7
  6
CONTINUOUS
 10
-3.8033088328
 20
15.8964376446
 11
-3.7980727972
 21
15.3190873754
  0
LINE
  5
2ED
100
AcDbEntity
  8
PORTATASTO
100
AcDbLine
 62
7
  6
CONTINUOUS
 10
-3.8033088328
 20
-32.1535657823
 11
-3.8033088328
 21
-31.7035623554
  0
LINE
  5
2EE
100
AcDbEntity
  8
PORTATASTO
100
AcDbLine
 62
7
  6
CONTINUOUS
 10
-3.8033088328
 20
15.8964376446
 11
-3.8033088328
 21
16.3464410716
  0
LINE
  5
2EF
100
AcDbEntity
  8
PORTATASTO
100
AcDbLine
 62
7
  6
CONTINUOUS
 10
-3.7980727972
 20
15.3190873754
 11
-3.7980727972
 21
15.1747498081
  0
LINE
  5
2F0
100
AcDbEntity
  8
PORTATASTO
100
AcDbLine
 62
7
  6
CONTINUOUS
 10
-3.7980727972
 20
-30.9818745189
 11
-3.7980727972
 21
-31.1262120862
  0
LINE
  5
2F1
100
AcDbEntity
  8
PORTATASTO
100
AcDbLine
 62
7
  6
CONTINUOUS
 10
-3.7915208987
 20
15.1747498081
 11
-3.7915208987
 21
14.3808593192
  0
LINE
  5
2F2
100
AcDbEntity
  8
PORTATASTO
100
AcDbLine
 62
7
  6
CONTINUOUS
 10
-3.7915208987
 20
-30.18798403
 11
-3.7915208987
 21
-30.9818745189
  0
LINE
  5
2F3
100
AcDbEntity
  8
PORTATASTO
100
AcDbLine
 62
7
  6
CONTINUOUS
 10
-3.7862848631
 20
16.3294171019
 11
-3.7862848631
 21
16.0407752119
  0
LINE
  5
2F4
100
AcDbEntity
  8
PORTATASTO
100
AcDbLine
 62
7
  6
CONTINUOUS
 10
-3.7862848631
 20
-31.8478999227
 11
-3.7862848631
 21
-32.1365418127
  0
LINE
  5
2F5
100
AcDbEntity
  8
PORTATASTO
100
AcDbLine
 62
253
  6
CONTINUOUS
 10
-3.5415243257
 20
15.1747498081
 11
-3.5415243257
 21
14.3678259757
  0
LINE
  5
2F6
100
AcDbEntity
  8
PORTATASTO
100
AcDbLine
 62
253
  6
CONTINUOUS
 10
-3.5415243257
 20
-30.1749506864
 11
-3.5415243257
 21
-30.9818745189
  0
LINE
  5
2F7
100
AcDbEntity
  8
PORTATASTO
100
AcDbLine
 62
253
  6
CONTINUOUS
 10
-3.5362882901
 20
-31.6313935717
 11
-3.5362882901
 21
-32.3865383857
  0
LINE
  5
2F8
100
AcDbEntity
  8
PORTATASTO
100
AcDbLine
 62
253
  6
CONTINUOUS
 10
-3.5362882901
 20
15.824268861
 11
-3.5362882901
 21
16.579413675
  0
LINE
  5
2F9
100
AcDbEntity
  8
PORTATASTO
100
AcDbLine
 62
253
  6
CONTINUOUS
 10
-3.7862848631
 20
16.0407752119
 11
-3.7902118898
 21
15.60776251
  0
LINE
  5
2FA
100
AcDbEntity
  8
PORTATASTO
100
AcDbLine
 62
253
  6
CONTINUOUS
 10
-3.5362882901
 20
15.824268861
 11
-3.5402153168
 21
15.3912561591
  0
LINE
  5
2FB
100
AcDbEntity
  8
PORTATASTO
100
AcDbLine
 62
7
  6
CONTINUOUS
 10
-3.7980727972
 20
-31.1262120862
 11
-3.8033088328
 21
-31.7035623554
  0
LINE
  5
2FC
100
AcDbEntity
  8
PORTATASTO
100
AcDbLine
 62
7
  6
CONTINUOUS
 10
-1.5335448684
 20
-31.1262120862
 11
-1.5283088328
 21
-31.7035623554
  0
LINE
  5
2FD
100
AcDbEntity
  8
PORTATASTO
100
AcDbLine
 62
253
  6
CONTINUOUS
 10
-1.7914023488
 20
15.3912561591
 11
-1.7953293755
 21
15.824268861
  0
LINE
  5
2FE
100
AcDbEntity
  8
PORTATASTO
100
AcDbLine
 62
253
  6
CONTINUOUS
 10
-1.5414057757
 20
15.60776251
 11
-1.5453328024
 21
16.0407752119
  0
LINE
  5
2FF
100
AcDbEntity
  8
PORTATASTO
100
AcDbLine
 62
253
  6
CONTINUOUS
 10
-1.7953293755
 20
-31.6313935717
 11
-1.7953293755
 21
-32.3865383857
  0
LINE
  5
300
100
AcDbEntity
  8
PORTATASTO
100
AcDbLine
 62
253
  6
CONTINUOUS
 10
-1.7953293755
 20
15.824268861
 11
-1.7953293755
 21
16.579413675
  0
LINE
  5
301
100
AcDbEntity
  8
PORTATASTO
100
AcDbLine
 62
253
  6
CONTINUOUS
 10
-1.7900933399
 20
-30.9818745189
 11
-1.7900933399
 21
-30.1749506864
  0
LINE
  5
302
100
AcDbEntity
  8
PORTATASTO
100
AcDbLine
 62
253
  6
CONTINUOUS
 10
-1.7900933399
 20
14.3678259757
 11
-1.7900933399
 21
15.1747498081
  0
LINE
  5
303
100
AcDbEntity
  8
PORTATASTO
100
AcDbLine
 62
7
  6
CONTINUOUS
 10
-1.5453328024
 20
-32.1365418127
 11
-1.5453328024
 21
-31.8478999227
  0
LINE
  5
304
100
AcDbEntity
  8
PORTATASTO
100
AcDbLine
 62
7
  6
CONTINUOUS
 10
-1.5453328024
 20
16.0407752119
 11
-1.5453328024
 21
16.3294171019
  0
LINE
  5
305
100
AcDbEntity
  8
PORTATASTO
100
AcDbLine
 62
7
  6
CONTINUOUS
 10
-1.5400967668
 20
-30.9818745189
 11
-1.5400967668
 21
-30.18798403
  0
LINE
  5
306
100
AcDbEntity
  8
PORTATASTO
100
AcDbLine
 62
7
  6
CONTINUOUS
 10
-1.5400967668
 20
14.3808593192
 11
-1.5400967668
 21
15.1747498081
  0
LINE
  5
307
100
AcDbEntity
  8
PORTATASTO
100
AcDbLine
 62
7
  6
CONTINUOUS
 10
-1.5335448684
 20
15.3190873754
 11
-1.5335448684
 21
15.1747498081
  0
LINE
  5
308
100
AcDbEntity
  8
PORTATASTO
100
AcDbLine
 62
7
  6
CONTINUOUS
 10
-1.5335448684
 20
-30.9818745189
 11
-1.5335448684
 21
-31.1262120862
  0
LINE
  5
309
100
AcDbEntity
  8
PORTATASTO
100
AcDbLine
 62
7
  6
CONTINUOUS
 10
-1.5283088328
 20
16.3464410716
 11
-1.5283088328
 21
15.8964376446
  0
LINE
  5
30A
100
AcDbEntity
  8
PORTATASTO
100
AcDbLine
 62
7
  6
CONTINUOUS
 10
-1.5283088328
 20
-31.7035623554
 11
-1.5283088328
 21
-32.1535657823
  0
LINE
  5
30B
100
AcDbEntity
  8
PORTATASTO
100
AcDbLine
 62
7
  6
CONTINUOUS
 10
-1.5283088328
 20
15.8964376446
 11
-1.5335448684
 21
15.3190873754
  0
LINE
  5
30C
100
AcDbEntity
  8
PORTATASTO
100
AcDbLine
 62
253
  6
CONTINUOUS
 10
-1.7953293755
 20
-31.6313935717
 11
-1.7914023488
 21
-31.1983808698
  0
LINE
  5
30D
100
AcDbEntity
  8
PORTATASTO
100
AcDbLine
 62
253
  6
CONTINUOUS
 10
-1.5453328024
 20
-31.8478999227
 11
-1.5414057757
 21
-31.4148872208
  0
LINE
  5
30E
100
AcDbEntity
  8
PORTATASTO
100
AcDbLine
 62
253
  6
CONTINUOUS
 10
20.7046706245
 20
16.579413675
 11
20.7216945942
 21
16.5964376446
  0
LINE
  5
30F
100
AcDbEntity
  8
PORTATASTO
100
AcDbLine
 62
253
  6
CONTINUOUS
 10
20.9546671976
 20
16.3294171019
 11
20.9716911672
 21
16.3464410716
  0
LINE
  5
310
100
AcDbEntity
  8
PORTATASTO
100
AcDbLine
 62
253
  6
CONTINUOUS
 10
20.7046706245
 20
-32.3865383857
 11
20.7216945942
 21
-32.4035623554
  0
LINE
  5
311
100
AcDbEntity
  8
PORTATASTO
100
AcDbLine
 62
253
  6
CONTINUOUS
 10
20.9546671976
 20
-32.1365418127
 11
20.9716911672
 21
-32.1535657823
  0
LINE
  5
312
100
AcDbEntity
  8
PORTATASTO
100
AcDbLine
 62
253
  6
CONTINUOUS
 10
-0.1652118898
 20
-31.4148872208
 11
-0.1612848631
 21
-31.8478999227
  0
LINE
  5
313
100
AcDbEntity
  8
PORTATASTO
100
AcDbLine
 62
253
  6
CONTINUOUS
 10
0.0847846832
 20
-31.1983808698
 11
0.0887117099
 21
-31.6313935717
  0
LINE
  5
314
100
AcDbEntity
  8
PORTATASTO
100
AcDbLine
 62
7
  6
CONTINUOUS
 10
-0.1730727972
 20
15.3190873754
 11
-0.1783088328
 21
15.8964376446
  0
LINE
  5
315
100
AcDbEntity
  8
PORTATASTO
100
AcDbLine
 62
7
  6
CONTINUOUS
 10
2.0966911672
 20
-31.7035623554
 11
2.0914551316
 21
-31.1262120862
  0
LINE
  5
316
100
AcDbEntity
  8
PORTATASTO
100
AcDbLine
 62
7
  6
CONTINUOUS
 10
-0.1783088328
 20
-32.1535657823
 11
-0.1783088328
 21
-31.7035623554
  0
LINE
  5
317
100
AcDbEntity
  8
PORTATASTO
100
AcDbLine
 62
7
  6
CONTINUOUS
 10
-0.1783088328
 20
15.8964376446
 11
-0.1783088328
 21
16.3464410716
  0
LINE
  5
318
100
AcDbEntity
  8
PORTATASTO
100
AcDbLine
 62
7
  6
CONTINUOUS
 10
-0.1730727972
 20
15.3190873754
 11
-0.1730727972
 21
15.1747498081
  0
LINE
  5
319
100
AcDbEntity
  8
PORTATASTO
100
AcDbLine
 62
7
  6
CONTINUOUS
 10
-0.1730727972
 20
-30.9818745189
 11
-0.1730727972
 21
-31.1262120862
  0
LINE
  5
31A
100
AcDbEntity
  8
PORTATASTO
100
AcDbLine
 62
7
  6
CONTINUOUS
 10
-0.1665208987
 20
15.1747498081
 11
-0.1665208987
 21
14.3808593192
  0
LINE
  5
31B
100
AcDbEntity
  8
PORTATASTO
100
AcDbLine
 62
7
  6
CONTINUOUS
 10
-0.1665208987
 20
-30.18798403
 11
-0.1665208987
 21
-30.9818745189
  0
LINE
  5
31C
100
AcDbEntity
  8
PORTATASTO
100
AcDbLine
 62
7
  6
CONTINUOUS
 10
-0.1612848631
 20
16.3294171019
 11
-0.1612848631
 21
16.0407752119
  0
LINE
  5
31D
100
AcDbEntity
  8
PORTATASTO
100
AcDbLine
 62
7
  6
CONTINUOUS
 10
-0.1612848631
 20
-31.8478999227
 11
-0.1612848631
 21
-32.1365418127
  0
LINE
  5
31E
100
AcDbEntity
  8
PORTATASTO
100
AcDbLine
 62
253
  6
CONTINUOUS
 10
0.0834756743
 20
15.1747498081
 11
0.0834756743
 21
14.3678259757
  0
LINE
  5
31F
100
AcDbEntity
  8
PORTATASTO
100
AcDbLine
 62
253
  6
CONTINUOUS
 10
0.0834756743
 20
-30.1749506864
 11
0.0834756743
 21
-30.9818745189
  0
LINE
  5
320
100
AcDbEntity
  8
PORTATASTO
100
AcDbLine
 62
253
  6
CONTINUOUS
 10
0.0887117099
 20
-31.6313935717
 11
0.0887117099
 21
-32.3865383857
  0
LINE
  5
321
100
AcDbEntity
  8
PORTATASTO
100
AcDbLine
 62
253
  6
CONTINUOUS
 10
0.0887117099
 20
15.824268861
 11
0.0887117099
 21
16.579413675
  0
LINE
  5
322
100
AcDbEntity
  8
PORTATASTO
100
AcDbLine
 62
253
  6
CONTINUOUS
 10
1.8296706245
 20
-31.6313935717
 11
1.8296706245
 21
-32.3865383857
  0
LINE
  5
323
100
AcDbEntity
  8
PORTATASTO
100
AcDbLine
 62
253
  6
CONTINUOUS
 10
1.8296706245
 20
15.824268861
 11
1.8296706245
 21
16.579413675
  0
LINE
  5
324
100
AcDbEntity
  8
PORTATASTO
100
AcDbLine
 62
253
  6
CONTINUOUS
 10
1.8349066601
 20
-30.9818745189
 11
1.8349066601
 21
-30.1749506864
  0
LINE
  5
325
100
AcDbEntity
  8
PORTATASTO
100
AcDbLine
 62
253
  6
CONTINUOUS
 10
1.8349066601
 20
14.3678259757
 11
1.8349066601
 21
15.1747498081
  0
LINE
  5
326
100
AcDbEntity
  8
PORTATASTO
100
AcDbLine
 62
253
  6
CONTINUOUS
 10
-0.1612848631
 20
16.0407752119
 11
-0.1652118898
 21
15.60776251
  0
LINE
  5
327
100
AcDbEntity
  8
PORTATASTO
100
AcDbLine
 62
253
  6
CONTINUOUS
 10
0.0887117099
 20
15.824268861
 11
0.0847846832
 21
15.3912561591
  0
LINE
  5
328
100
AcDbEntity
  8
PORTATASTO
100
AcDbLine
 62
7
  6
CONTINUOUS
 10
-0.1783088328
 20
-31.7035623554
 11
-0.1730727972
 21
-31.1262120862
  0
LINE
  5
329
100
AcDbEntity
  8
PORTATASTO
100
AcDbLine
 62
7
  6
CONTINUOUS
 10
2.0914551316
 20
15.3190873754
 11
2.0966911672
 21
15.8964376446
  0
LINE
  5
32A
100
AcDbEntity
  8
PORTATASTO
100
AcDbLine
 62
253
  6
CONTINUOUS
 10
-22.6612848631
 20
-32.1365418127
 11
-22.6783088328
 21
-32.1535657823
  0
LINE
  5
32B
100
AcDbEntity
  8
PORTATASTO
100
AcDbLine
 62
253
  6
CONTINUOUS
 10
-22.4112882901
 20
-32.3865383857
 11
-22.4283122597
 21
-32.4035623554
  0
LINE
  5
32C
100
AcDbEntity
  8
PORTATASTO
100
AcDbLine
 62
253
  6
CONTINUOUS
 10
-22.6612848631
 20
16.3294171019
 11
-22.6783088328
 21
16.3464410716
  0
LINE
  5
32D
100
AcDbEntity
  8
PORTATASTO
100
AcDbLine
 62
253
  6
CONTINUOUS
 10
-22.4112882901
 20
16.579413675
 11
-22.4283122597
 21
16.5964376446
  0
LINE
  5
32E
100
AcDbEntity
  8
PORTATASTO
100
AcDbLine
 62
253
  6
CONTINUOUS
 10
1.8335976512
 20
15.3912561591
 11
1.8296706245
 21
15.824268861
  0
LINE
  5
32F
100
AcDbEntity
  8
PORTATASTO
100
AcDbLine
 62
253
  6
CONTINUOUS
 10
2.0835942243
 20
15.60776251
 11
2.0796671976
 21
16.0407752119
  0
LINE
  5
330
100
AcDbEntity
  8
PORTATASTO
100
AcDbLine
 62
7
  6
CONTINUOUS
 10
2.0796671976
 20
-32.1365418127
 11
2.0796671976
 21
-31.8478999227
  0
LINE
  5
331
100
AcDbEntity
  8
PORTATASTO
100
AcDbLine
 62
7
  6
CONTINUOUS
 10
2.0796671976
 20
16.0407752119
 11
2.0796671976
 21
16.3294171019
  0
LINE
  5
332
100
AcDbEntity
  8
PORTATASTO
100
AcDbLine
 62
7
  6
CONTINUOUS
 10
2.0849032332
 20
-30.9818745189
 11
2.0849032332
 21
-30.18798403
  0
LINE
  5
333
100
AcDbEntity
  8
PORTATASTO
100
AcDbLine
 62
7
  6
CONTINUOUS
 10
2.0849032332
 20
14.3808593192
 11
2.0849032332
 21
15.1747498081
  0
LINE
  5
334
100
AcDbEntity
  8
PORTATASTO
100
AcDbLine
 62
7
  6
CONTINUOUS
 10
2.0914551316
 20
15.3190873754
 11
2.0914551316
 21
15.1747498081
  0
LINE
  5
335
100
AcDbEntity
  8
PORTATASTO
100
AcDbLine
 62
7
  6
CONTINUOUS
 10
2.0914551316
 20
-30.9818745189
 11
2.0914551316
 21
-31.1262120862
  0
LINE
  5
336
100
AcDbEntity
  8
PORTATASTO
100
AcDbLine
 62
7
  6
CONTINUOUS
 10
2.0966911672
 20
16.3464410716
 11
2.0966911672
 21
15.8964376446
  0
LINE
  5
337
100
AcDbEntity
  8
PORTATASTO
100
AcDbLine
 62
7
  6
CONTINUOUS
 10
2.0966911672
 20
-31.7035623554
 11
2.0966911672
 21
-32.1535657823
  0
LINE
  5
338
100
AcDbEntity
  8
PORTATASTO
100
AcDbLine
 62
253
  6
CONTINUOUS
 10
1.8296706245
 20
-31.6313935717
 11
1.8335976512
 21
-31.1983808698
  0
LINE
  5
339
100
AcDbEntity
  8
PORTATASTO
100
AcDbLine
 62
253
  6
CONTINUOUS
 10
2.0796671976
 20
-31.8478999227
 11
2.0835942243
 21
-31.4148872208
  0
LINE
  5
33A
100
AcDbEntity
  8
PORTATASTO
100
AcDbLine
 62
7
  6
CONTINUOUS
 10
5.9914551316
 20
-30.2535623554
 11
5.9914551316
 21
-30.7606737154
  0
LINE
  5
33B
100
AcDbEntity
  8
PORTATASTO
100
AcDbLine
 62
7
  6
CONTINUOUS
 10
5.9914551316
 20
14.4464376446
 11
5.9914551316
 21
14.9535490046
  0
LINE
  5
33C
100
AcDbEntity
  8
PORTATASTO
100
AcDbLine
 62
7
  6
CONTINUOUS
 10
6.0045589285
 20
15.8885698834
 11
6.0045589285
 21
14.4200965524
  0
LINE
  5
33D
100
AcDbEntity
  8
PORTATASTO
100
AcDbLine
 62
7
  6
CONTINUOUS
 10
6.0045589285
 20
-30.2272212631
 11
6.0045589285
 21
-31.6956945941
  0
LINE
  5
33E
100
AcDbEntity
  8
PORTATASTO
100
AcDbLine
 62
253
  6
CONTINUOUS
 10
6.5045520746
 20
15.687010039
 11
6.5045520746
 21
14.3940298654
  0
LINE
  5
33F
100
AcDbEntity
  8
PORTATASTO
100
AcDbLine
 62
253
  6
CONTINUOUS
 10
6.5045520746
 20
-30.2011545761
 11
6.5045520746
 21
-31.4941347497
  0
LINE
  5
340
100
AcDbEntity
  8
0
100
AcDbLine
 62
253
  6
CONTINUOUS
 10
-0.8533088328
 20
-16.2822420118
 11
-5.3533088328
 21
-20.7822420118
  0
LINE
  5
341
100
AcDbEntity
  8
0
100
AcDbLine
 62
253
  6
CONTINUOUS
 10
-5.3533088328
 20
-22.9035623554
 11
-0.8533088328
 21
-18.4035623554
  0
LINE
  5
342
100
AcDbEntity
  8
ASSI
100
AcDbLine
 62
253
  6
CONTINUOUS
 10
20.7972050036
 20
14.1964376446
 11
20.6619882308
 21
13.9258185349
  0
LINE
  5
343
100
AcDbEntity
  8
RACCORDO
100
AcDbLine
 62
253
  6
CONTINUOUS
 10
20.7972050036
 20
14.1964376446
 11
20.6619882308
 21
13.9258185349
  0
LINE
  5
344
100
AcDbEntity
  8
ASSI
100
AcDbLine
 62
253
  6
CONTINUOUS
 10
21.2966911672
 20
13.6964374095
 11
21.1618168933
 21
13.4265037675
  0
LINE
  5
345
100
AcDbEntity
  8
RACCORDO
100
AcDbLine
 62
253
  6
CONTINUOUS
 10
21.2966911672
 20
13.6964374095
 11
21.1618168933
 21
13.4265037675
  0
LINE
  5
346
100
AcDbEntity
  8
ASSI
100
AcDbLine
 62
253
  6
CONTINUOUS
 10
20.6619882308
 20
-29.7329432456
 11
20.7580516234
 21
-29.9252018629
  0
LINE
  5
347
100
AcDbEntity
  8
RACCORDO
100
AcDbLine
 62
253
  6
CONTINUOUS
 10
20.6619882308
 20
-29.7329432456
 11
20.7580516234
 21
-29.9252018629
  0
LINE
  5
348
100
AcDbEntity
  8
ASSI
100
AcDbLine
 62
253
  6
CONTINUOUS
 10
21.1618168933
 20
-29.2336284782
 11
21.2583360285
 21
-29.4267992062
  0
LINE
  5
349
100
AcDbEntity
  8
RACCORDO
100
AcDbLine
 62
253
  6
CONTINUOUS
 10
21.1618168933
 20
-29.2336284782
 11
21.2583360285
 21
-29.4267992062
  0
LINE
  5
34A
100
AcDbEntity
  8
PORTATASTO
100
AcDbLine
 62
253
  6
CONTINUOUS
 10
14.2888302598
 20
-31.4941347497
 11
14.2888302598
 21
-30.2011545761
  0
LINE
  5
34B
100
AcDbEntity
  8
PORTATASTO
100
AcDbLine
 62
253
  6
CONTINUOUS
 10
14.2888302598
 20
14.3940298654
 11
14.2888302598
 21
15.687010039
  0
LINE
  5
34C
100
AcDbEntity
  8
PORTATASTO
100
AcDbLine
 62
253
  6
CONTINUOUS
 10
20.997071767
 20
14.4464376446
 11
20.973699643
 21
14.3762642527
  0
LINE
  5
34D
100
AcDbEntity
  8
PORTATASTO
100
AcDbLine
 62
253
  6
CONTINUOUS
 10
21.4966911672
 20
13.9462087926
 11
21.4705085698
 21
13.8675971236
  0
LINE
  5
34E
100
AcDbEntity
  8
PORTATASTO
100
AcDbLine
 62
253
  6
CONTINUOUS
 10
-3.7862848631
 20
-32.1365418127
 11
-3.8033088328
 21
-32.1535657823
  0
LINE
  5
34F
100
AcDbEntity
  8
PORTATASTO
100
AcDbLine
 62
253
  6
CONTINUOUS
 10
-3.7862848631
 20
16.3294171019
 11
-3.8033088328
 21
16.3464410716
  0
LINE
  5
350
100
AcDbEntity
  8
PORTATASTO
100
AcDbLine
 62
253
  6
CONTINUOUS
 10
20.973699643
 20
-30.1833889635
 11
20.997071767
 21
-30.2535623554
  0
LINE
  5
351
100
AcDbEntity
  8
PORTATASTO
100
AcDbLine
 62
253
  6
CONTINUOUS
 10
21.4705085698
 20
-29.6747218344
 11
21.4966911672
 21
-29.7533335033
  0
LINE
  5
352
100
AcDbEntity
  8
PORTATASTO
100
AcDbLine
 62
7
  6
CONTINUOUS
 10
14.788823406
 20
-31.6956945941
 11
14.788823406
 21
-30.2272212631
  0
LINE
  5
353
100
AcDbEntity
  8
PORTATASTO
100
AcDbLine
 62
7
  6
CONTINUOUS
 10
14.788823406
 20
14.4200965524
 11
14.788823406
 21
15.8885698834
  0
LINE
  5
354
100
AcDbEntity
  8
PORTATASTO
100
AcDbLine
 62
7
  6
CONTINUOUS
 10
14.8019272028
 20
-30.2535623554
 11
14.8019272028
 21
-30.7606737154
  0
LINE
  5
355
100
AcDbEntity
  8
PORTATASTO
100
AcDbLine
 62
7
  6
CONTINUOUS
 10
14.8019272028
 20
14.4464376446
 11
14.8019272028
 21
14.9535490046
  0
LINE
  5
356
100
AcDbEntity
  8
PORTATASTO
100
AcDbLine
 62
253
  6
CONTINUOUS
 10
-3.5362882901
 20
-32.3865383857
 11
-3.5533122597
 21
-32.4035623554
  0
LINE
  5
357
100
AcDbEntity
  8
PORTATASTO
100
AcDbLine
 62
253
  6
CONTINUOUS
 10
-0.1612848631
 20
-32.1365418127
 11
-0.1783088328
 21
-32.1535657823
  0
LINE
  5
358
100
AcDbEntity
  8
PORTATASTO
100
AcDbLine
 62
253
  6
CONTINUOUS
 10
-3.5362882901
 20
16.579413675
 11
-3.5533122597
 21
16.5964376446
  0
LINE
  5
359
100
AcDbEntity
  8
PORTATASTO
100
AcDbLine
 62
253
  6
CONTINUOUS
 10
-0.1612848631
 20
16.3294171019
 11
-0.1783088328
 21
16.3464410716
  0
LINE
  5
35A
100
AcDbEntity
  8
PORTATASTO
100
AcDbLine
 62
253
  6
CONTINUOUS
 10
18.7097881102
 20
-31.4148872208
 11
18.7137151369
 21
-31.8478999227
  0
LINE
  5
35B
100
AcDbEntity
  8
PORTATASTO
100
AcDbLine
 62
253
  6
CONTINUOUS
 10
18.9597846832
 20
-31.1983808698
 11
18.9637117099
 21
-31.6313935717
  0
LINE
  5
35C
100
AcDbEntity
  8
PORTATASTO
100
AcDbLine
 62
7
  6
CONTINUOUS
 10
18.6966911672
 20
15.8964376446
 11
18.7019272028
 21
15.3190873754
  0
LINE
  5
35D
100
AcDbEntity
  8
PORTATASTO
100
AcDbLine
 62
7
  6
CONTINUOUS
 10
18.6966911672
 20
-32.1535657823
 11
18.6966911672
 21
-31.7035623554
  0
LINE
  5
35E
100
AcDbEntity
  8
PORTATASTO
100
AcDbLine
 62
7
  6
CONTINUOUS
 10
18.6966911672
 20
15.8964376446
 11
18.6966911672
 21
16.3464410716
  0
LINE
  5
35F
100
AcDbEntity
  8
PORTATASTO
100
AcDbLine
 62
7
  6
CONTINUOUS
 10
18.7019272028
 20
15.3190873754
 11
18.7019272028
 21
15.1747498081
  0
LINE
  5
360
100
AcDbEntity
  8
PORTATASTO
100
AcDbLine
 62
7
  6
CONTINUOUS
 10
18.7019272028
 20
-30.9818745189
 11
18.7019272028
 21
-31.1262120862
  0
LINE
  5
361
100
AcDbEntity
  8
PORTATASTO
100
AcDbLine
 62
7
  6
CONTINUOUS
 10
18.7084791013
 20
15.1747498081
 11
18.7084791013
 21
14.3808593192
  0
LINE
  5
362
100
AcDbEntity
  8
PORTATASTO
100
AcDbLine
 62
7
  6
CONTINUOUS
 10
18.7084791013
 20
-30.18798403
 11
18.7084791013
 21
-30.9818745189
  0
LINE
  5
363
100
AcDbEntity
  8
PORTATASTO
100
AcDbLine
 62
7
  6
CONTINUOUS
 10
18.7137151369
 20
16.3294171019
 11
18.7137151369
 21
16.0407752119
  0
LINE
  5
364
100
AcDbEntity
  8
PORTATASTO
100
AcDbLine
 62
7
  6
CONTINUOUS
 10
18.7137151369
 20
-31.8478999227
 11
18.7137151369
 21
-32.1365418127
  0
LINE
  5
365
100
AcDbEntity
  8
PORTATASTO
100
AcDbLine
 62
253
  6
CONTINUOUS
 10
18.9584756743
 20
15.1747498081
 11
18.9584756743
 21
14.3678259757
  0
LINE
  5
366
100
AcDbEntity
  8
PORTATASTO
100
AcDbLine
 62
253
  6
CONTINUOUS
 10
18.9584756743
 20
-30.1749506864
 11
18.9584756743
 21
-30.9818745189
  0
LINE
  5
367
100
AcDbEntity
  8
PORTATASTO
100
AcDbLine
 62
253
  6
CONTINUOUS
 10
18.9637117099
 20
-31.6313935717
 11
18.9637117099
 21
-32.3865383857
  0
LINE
  5
368
100
AcDbEntity
  8
PORTATASTO
100
AcDbLine
 62
253
  6
CONTINUOUS
 10
18.9637117099
 20
15.824268861
 11
18.9637117099
 21
16.579413675
  0
LINE
  5
369
100
AcDbEntity
  8
PORTATASTO
100
AcDbLine
 62
253
  6
CONTINUOUS
 10
18.7137151369
 20
16.0407752119
 11
18.7097881102
 21
15.60776251
  0
LINE
  5
36A
100
AcDbEntity
  8
PORTATASTO
100
AcDbLine
 62
253
  6
CONTINUOUS
 10
18.9637117099
 20
15.824268861
 11
18.9597846832
 21
15.3912561591
  0
LINE
  5
36B
100
AcDbEntity
  8
PORTATASTO
100
AcDbLine
 62
7
  6
CONTINUOUS
 10
18.7019272028
 20
-31.1262120862
 11
18.6966911672
 21
-31.7035623554
  0
LINE
  5
36C
100
AcDbEntity
  8
PORTATASTO
100
AcDbLine
 62
253
  6
CONTINUOUS
 10
0.0887117099
 20
-32.3865383857
 11
0.0716877403
 21
-32.4035623554
  0
LINE
  5
36D
100
AcDbEntity
  8
PORTATASTO
100
AcDbLine
 62
253
  6
CONTINUOUS
 10
0.0887117099
 20
16.579413675
 11
0.0716877403
 21
16.5964376446
  0
LINE
  5
36E
100
AcDbEntity
  8
PORTATASTO
100
AcDbLine
 62
7
  6
CONTINUOUS
 10
20.9664551316
 20
-31.1262120862
 11
20.9716911672
 21
-31.7035623554
  0
LINE
  5
36F
100
AcDbEntity
  8
PORTATASTO
100
AcDbLine
 62
253
  6
CONTINUOUS
 10
20.7085976512
 20
15.3912561591
 11
20.7046706245
 21
15.824268861
  0
LINE
  5
370
100
AcDbEntity
  8
PORTATASTO
100
AcDbLine
 62
253
  6
CONTINUOUS
 10
20.9585942243
 20
15.60776251
 11
20.9546671976
 21
16.0407752119
  0
LINE
  5
371
100
AcDbEntity
  8
PORTATASTO
100
AcDbLine
 62
253
  6
CONTINUOUS
 10
20.7046706245
 20
-31.6313935717
 11
20.7046706245
 21
-32.3865383857
  0
LINE
  5
372
100
AcDbEntity
  8
PORTATASTO
100
AcDbLine
 62
253
  6
CONTINUOUS
 10
20.7046706245
 20
15.824268861
 11
20.7046706245
 21
16.579413675
  0
LINE
  5
373
100
AcDbEntity
  8
PORTATASTO
100
AcDbLine
 62
253
  6
CONTINUOUS
 10
20.7099066601
 20
-30.9818745189
 11
20.7099066601
 21
-30.1749506864
  0
LINE
  5
374
100
AcDbEntity
  8
PORTATASTO
100
AcDbLine
 62
253
  6
CONTINUOUS
 10
20.7099066601
 20
14.3678259757
 11
20.7099066601
 21
15.1747498081
  0
LINE
  5
375
100
AcDbEntity
  8
PORTATASTO
100
AcDbLine
 62
7
  6
CONTINUOUS
 10
20.9546671976
 20
-32.1365418127
 11
20.9546671976
 21
-31.8478999227
  0
LINE
  5
376
100
AcDbEntity
  8
PORTATASTO
100
AcDbLine
 62
7
  6
CONTINUOUS
 10
20.9546671976
 20
16.0407752119
 11
20.9546671976
 21
16.3294171019
  0
LINE
  5
377
100
AcDbEntity
  8
PORTATASTO
100
AcDbLine
 62
7
  6
CONTINUOUS
 10
20.9599032332
 20
-30.9818745189
 11
20.9599032332
 21
-30.18798403
  0
LINE
  5
378
100
AcDbEntity
  8
PORTATASTO
100
AcDbLine
 62
7
  6
CONTINUOUS
 10
20.9599032332
 20
14.3808593192
 11
20.9599032332
 21
15.1747498081
  0
LINE
  5
379
100
AcDbEntity
  8
PORTATASTO
100
AcDbLine
 62
7
  6
CONTINUOUS
 10
20.9664551316
 20
15.3190873754
 11
20.9664551316
 21
15.1747498081
  0
LINE
  5
37A
100
AcDbEntity
  8
PORTATASTO
100
AcDbLine
 62
7
  6
CONTINUOUS
 10
20.9664551316
 20
-30.9818745189
 11
20.9664551316
 21
-31.1262120862
  0
LINE
  5
37B
100
AcDbEntity
  8
PORTATASTO
100
AcDbLine
 62
7
  6
CONTINUOUS
 10
20.9716911672
 20
16.3464410716
 11
20.9716911672
 21
15.8964376446
  0
LINE
  5
37C
100
AcDbEntity
  8
PORTATASTO
100
AcDbLine
 62
7
  6
CONTINUOUS
 10
20.9716911672
 20
-31.7035623554
 11
20.9716911672
 21
-32.1535657823
  0
LINE
  5
37D
100
AcDbEntity
  8
ASSI
100
AcDbLine
 62
7
  6
CONTINUOUS
 10
21.2966911672
 20
-5.4787791412
 11
21.2966911672
 21
13.6964374095
  0
LINE
  5
37E
100
AcDbEntity
  8
RACCORDO
100
AcDbLine
 62
7
  6
CONTINUOUS
 10
21.2966911672
 20
-5.4787791412
 11
21.2966911672
 21
13.6964374095
  0
LINE
  5
37F
100
AcDbEntity
  8
PORTATASTO
100
AcDbLine
 62
7
  6
CONTINUOUS
 10
21.4705085698
 20
13.8675971236
 11
21.4705085698
 21
-29.6747218344
  0
LINE
  5
380
100
AcDbEntity
  8
PORTATASTO
100
AcDbLine
 62
7
  6
CONTINUOUS
 10
21.4966911672
 20
13.9464545677
 11
21.4966911672
 21
10.5964376446
  0
LINE
  5
381
100
AcDbEntity
  8
PORTATASTO
100
AcDbLine
 62
7
  6
CONTINUOUS
 10
21.4966911672
 20
-29.7535792784
 11
21.4966911672
 21
-26.4035623554
  0
LINE
  5
382
100
AcDbEntity
  8
PORTATASTO
100
AcDbLine
 62
7
  6
CONTINUOUS
 10
21.5316012971
 20
10.2437836832
 11
21.5316012971
 21
-26.0509083939
  0
LINE
  5
383
100
AcDbEntity
  8
CORPO
100
AcDbLine
 62
7
  6
CONTINUOUS
 10
21.5466911672
 20
9.7681366934
 11
21.5466911672
 21
-25.5752614041
  0
LINE
  5
384
100
AcDbEntity
  8
ASSI
100
AcDbLine
 62
7
  6
CONTINUOUS
 10
21.5466911672
 20
9.7681366934
 11
21.5466911672
 21
-25.5752614041
  0
LINE
  5
385
100
AcDbEntity
  8
ASSI
100
AcDbLine
 62
7
  6
CONTINUOUS
 10
21.2966911672
 20
-5.4787791412
 11
21.2583360285
 21
-29.4267992062
  0
LINE
  5
386
100
AcDbEntity
  8
RACCORDO
100
AcDbLine
 62
7
  6
CONTINUOUS
 10
21.2966911672
 20
-5.4787791412
 11
21.2583360285
 21
-29.4267992062
  0
LINE
  5
387
100
AcDbEntity
  8
PORTATASTO
100
AcDbLine
 62
7
  6
CONTINUOUS
 10
20.9716911672
 20
15.8964376446
 11
20.9664551316
 21
15.3190873754
  0
LINE
  5
388
100
AcDbEntity
  8
PORTATASTO
100
AcDbLine
 62
253
  6
CONTINUOUS
 10
20.7046706245
 20
-31.6313935717
 11
20.7085976512
 21
-31.1983808698
  0
LINE
  5
389
100
AcDbEntity
  8
PORTATASTO
100
AcDbLine
 62
253
  6
CONTINUOUS
 10
20.9546671976
 20
-31.8478999227
 11
20.9585942243
 21
-31.4148872208
  0
LINE
  5
38A
100
AcDbEntity
  8
ASSI
100
AcDbLine
 62
253
  6
CONTINUOUS
 10
20.6371945628
 20
12.4890520268
 11
-22.3438122284
 21
12.4890520268
  0
LINE
  5
38B
100
AcDbEntity
  8
RACCORDO
100
AcDbLine
 62
253
  6
CONTINUOUS
 10
20.6371945628
 20
12.4890520268
 11
-22.3438122284
 21
12.4890520268
  0
LINE
  5
38C
100
AcDbEntity
  8
ASSI
100
AcDbLine
 62
253
  6
CONTINUOUS
 10
20.6619882308
 20
13.9258185349
 11
-22.3686058964
 21
13.9258185349
  0
LINE
  5
38D
100
AcDbEntity
  8
RACCORDO
100
AcDbLine
 62
253
  6
CONTINUOUS
 10
20.6619882308
 20
13.9258185349
 11
-22.3686058964
 21
13.9258185349
  0
LINE
  5
38E
100
AcDbEntity
  8
ASSI
100
AcDbLine
 62
7
  6
CONTINUOUS
 10
-22.5038226692
 20
14.1964376446
 11
20.7972050036
 21
14.1964376446
  0
LINE
  5
38F
100
AcDbEntity
  8
RACCORDO
100
AcDbLine
 62
7
  6
CONTINUOUS
 10
-22.5038226692
 20
14.1964376446
 11
20.7972050036
 21
14.1964376446
  0
LINE
  5
390
100
AcDbEntity
  8
PORTATASTO
100
AcDbLine
 62
7
  6
CONTINUOUS
 10
20.9708891696
 20
14.3678259757
 11
20.7099066601
 21
14.3678259757
  0
LINE
  5
391
100
AcDbEntity
  8
PORTATASTO
100
AcDbLine
 62
7
  6
CONTINUOUS
 10
18.9584756743
 20
14.3678259757
 11
1.8349066601
 21
14.3678259757
  0
LINE
  5
392
100
AcDbEntity
  8
PORTATASTO
100
AcDbLine
 62
7
  6
CONTINUOUS
 10
0.0834756743
 20
14.3678259757
 11
-1.7900933399
 21
14.3678259757
  0
LINE
  5
393
100
AcDbEntity
  8
PORTATASTO
100
AcDbLine
 62
7
  6
CONTINUOUS
 10
-3.5415243257
 20
14.3678259757
 11
-20.6650933399
 21
14.3678259757
  0
LINE
  5
394
100
AcDbEntity
  8
PORTATASTO
100
AcDbLine
 62
7
  6
CONTINUOUS
 10
-22.4165243257
 20
14.3678259757
 11
-22.6775068351
 21
14.3678259757
  0
LINE
  5
395
100
AcDbEntity
  8
PORTATASTO
100
AcDbLine
 62
7
  6
CONTINUOUS
 10
14.2888302598
 20
14.3940298654
 11
6.5045520746
 21
14.3940298654
  0
LINE
  5
396
100
AcDbEntity
  8
PORTATASTO
100
AcDbLine
 62
7
  6
CONTINUOUS
 10
-8.2111697402
 20
14.3940298654
 11
-15.9954479254
 21
14.3940298654
  0
LINE
  5
397
100
AcDbEntity
  8
PORTATASTO
100
AcDbLine
 62
7
  6
CONTINUOUS
 10
-22.7036894325
 20
14.4464376446
 11
-22.6730727972
 21
14.4464376446
  0
LINE
  5
398
100
AcDbEntity
  8
PORTATASTO
100
AcDbLine
 62
7
  6
CONTINUOUS
 10
-20.4085448684
 20
14.4464376446
 11
-16.4980727972
 21
14.4464376446
  0
LINE
  5
399
100
AcDbEntity
  8
PORTATASTO
100
AcDbLine
 62
7
  6
CONTINUOUS
 10
-7.7085448684
 20
14.4464376446
 11
-3.7980727972
 21
14.4464376446
  0
LINE
  5
39A
100
AcDbEntity
  8
PORTATASTO
100
AcDbLine
 62
7
  6
CONTINUOUS
 10
-1.5335448684
 20
14.4464376446
 11
-0.1730727972
 21
14.4464376446
  0
LINE
  5
39B
100
AcDbEntity
  8
PORTATASTO
100
AcDbLine
 62
7
  6
CONTINUOUS
 10
2.0914551316
 20
14.4464376446
 11
6.0019272028
 21
14.4464376446
  0
LINE
  5
39C
100
AcDbEntity
  8
PORTATASTO
100
AcDbLine
 62
7
  6
CONTINUOUS
 10
14.7914551316
 20
14.4464376446
 11
18.7019272028
 21
14.4464376446
  0
LINE
  5
39D
100
AcDbEntity
  8
PORTATASTO
100
AcDbLine
 62
7
  6
CONTINUOUS
 10
20.9664551316
 20
14.4464376446
 11
20.997071767
 21
14.4464376446
  0
LINE
  5
39E
100
AcDbEntity
  8
CORPO
100
AcDbLine
 62
7
  6
CONTINUOUS
 10
-1.5335448684
 20
14.4964376446
 11
-0.1730727972
 21
14.4964376446
  0
LINE
  5
39F
100
AcDbEntity
  8
ASSI
100
AcDbLine
 62
7
  6
CONTINUOUS
 10
-1.5335448684
 20
14.4964376446
 11
-0.1730727972
 21
14.4964376446
  0
LINE
  5
3A0
100
AcDbEntity
  8
PORTATASTO
100
AcDbLine
 62
7
  6
CONTINUOUS
 10
21.4966911672
 20
10.5964376446
 11
21.5316012971
 21
10.2437836832
  0
LINE
  5
3A1
100
AcDbEntity
  8
PORTATASTO
100
AcDbLine
 62
7
  6
CONTINUOUS
 10
21.5316012971
 20
-26.0509083939
 11
21.4966911672
 21
-26.4035623554
  0
LINE
  5
3A2
100
AcDbEntity
  8
PORTATASTO
100
AcDbLine
 62
253
  6
CONTINUOUS
 10
-22.6665208987
 20
15.1747498082
 11
-20.4150967668
 21
15.1747498082
  0
LINE
  5
3A3
100
AcDbEntity
  8
PORTATASTO
100
AcDbLine
 62
253
  6
CONTINUOUS
 10
-3.7915208987
 20
15.1747498082
 11
-1.5400967668
 21
15.1747498082
  0
LINE
  5
3A4
100
AcDbEntity
  8
PORTATASTO
100
AcDbLine
 62
253
  6
CONTINUOUS
 10
-0.1665208987
 20
15.1747498082
 11
2.0849032332
 21
15.1747498082
  0
LINE
  5
3A5
100
AcDbEntity
  8
PORTATASTO
100
AcDbLine
 62
253
  6
CONTINUOUS
 10
18.7084791013
 20
15.1747498082
 11
20.9599032332
 21
15.1747498082
  0
LINE
  5
3A6
100
AcDbEntity
  8
PORTATASTO
100
AcDbLine
 62
7
  6
CONTINUOUS
 10
14.8913850287
 20
15.3190873754
 11
14.7914551316
 21
15.3190873754
  0
LINE
  5
3A7
100
AcDbEntity
  8
PORTATASTO
100
AcDbLine
 62
7
  6
CONTINUOUS
 10
6.0019272028
 20
15.3190873754
 11
5.9019973057
 21
15.3190873754
  0
LINE
  5
3A8
100
AcDbEntity
  8
PORTATASTO
100
AcDbLine
 62
7
  6
CONTINUOUS
 10
-7.6086149713
 20
15.3190873754
 11
-7.7085448684
 21
15.3190873754
  0
LINE
  5
3A9
100
AcDbEntity
  8
PORTATASTO
100
AcDbLine
 62
7
  6
CONTINUOUS
 10
-16.4980727972
 20
15.3190873754
 11
-16.5980026943
 21
15.3190873754
  0
LINE
  5
3AA
100
AcDbEntity
  8
PORTATASTO
100
AcDbLine
 62
253
  6
CONTINUOUS
 10
-22.4152153168
 20
15.3912561591
 11
-20.6664023488
 21
15.3912561591
  0
LINE
  5
3AB
100
AcDbEntity
  8
PORTATASTO
100
AcDbLine
 62
253
  6
CONTINUOUS
 10
-3.5402153168
 20
15.3912561591
 11
-1.7914023488
 21
15.3912561591
  0
LINE
  5
3AC
100
AcDbEntity
  8
PORTATASTO
100
AcDbLine
 62
253
  6
CONTINUOUS
 10
0.0847846832
 20
15.3912561591
 11
1.8335976512
 21
15.3912561591
  0
LINE
  5
3AD
100
AcDbEntity
  8
PORTATASTO
100
AcDbLine
 62
253
  6
CONTINUOUS
 10
18.9597846832
 20
15.3912561591
 11
20.7085976512
 21
15.3912561591
  0
LINE
  5
3AE
100
AcDbEntity
  8
PORTATASTO
100
AcDbLine
 62
253
  6
CONTINUOUS
 10
14.2888302598
 20
15.687010039
 11
6.5045520746
 21
15.687010039
  0
LINE
  5
3AF
100
AcDbEntity
  8
PORTATASTO
100
AcDbLine
 62
253
  6
CONTINUOUS
 10
-8.2111697402
 20
15.687010039
 11
-15.9954479254
 21
15.687010039
  0
LINE
  5
3B0
100
AcDbEntity
  8
PORTATASTO
100
AcDbLine
 62
253
  6
CONTINUOUS
 10
-22.4112882901
 20
15.824268861
 11
-20.6703293755
 21
15.824268861
  0
LINE
  5
3B1
100
AcDbEntity
  8
PORTATASTO
100
AcDbLine
 62
253
  6
CONTINUOUS
 10
-3.5362882901
 20
15.824268861
 11
-1.7953293755
 21
15.824268861
  0
LINE
  5
3B2
100
AcDbEntity
  8
PORTATASTO
100
AcDbLine
 62
253
  6
CONTINUOUS
 10
0.0887117099
 20
15.824268861
 11
1.8296706245
 21
15.824268861
  0
LINE
  5
3B3
100
AcDbEntity
  8
PORTATASTO
100
AcDbLine
 62
253
  6
CONTINUOUS
 10
18.9637117099
 20
15.824268861
 11
20.7046706245
 21
15.824268861
  0
LINE
  5
3B4
100
AcDbEntity
  8
PORTATASTO
100
AcDbLine
 62
7
  6
CONTINUOUS
 10
14.6880427192
 20
15.8870072974
 11
6.1053396152
 21
15.8870072974
  0
LINE
  5
3B5
100
AcDbEntity
  8
PORTATASTO
100
AcDbLine
 62
7
  6
CONTINUOUS
 10
-7.8119572808
 20
15.8870072974
 11
-16.3946603848
 21
15.8870072974
  0
LINE
  5
3B6
100
AcDbEntity
  8
PORTATASTO
100
AcDbLine
 62
7
  6
CONTINUOUS
 10
5.9966911672
 20
15.8964376446
 11
14.7966911672
 21
15.8964376446
  0
LINE
  5
3B7
100
AcDbEntity
  8
PORTATASTO
100
AcDbLine
 62
7
  6
CONTINUOUS
 10
-7.7033088328
 20
15.8964376446
 11
-16.5033088328
 21
15.8964376446
  0
LINE
  5
3B8
100
AcDbEntity
  8
PORTATASTO
100
AcDbLine
 62
253
  6
CONTINUOUS
 10
2.0796671976
 20
16.0407752119
 11
-0.1612848631
 21
16.0407752119
  0
LINE
  5
3B9
100
AcDbEntity
  8
PORTATASTO
100
AcDbLine
 62
253
  6
CONTINUOUS
 10
-1.5453328024
 20
16.0407752119
 11
-3.7862848631
 21
16.0407752119
  0
LINE
  5
3BA
100
AcDbEntity
  8
PORTATASTO
100
AcDbLine
 62
253
  6
CONTINUOUS
 10
18.7137151369
 20
16.0407752119
 11
20.9546671976
 21
16.0407752119
  0
LINE
  5
3BB
100
AcDbEntity
  8
PORTATASTO
100
AcDbLine
 62
253
  6
CONTINUOUS
 10
-20.4203328024
 20
16.0407752119
 11
-22.6612848631
 21
16.0407752119
  0
LINE
  5
3BC
100
AcDbEntity
  8
PORTATASTO
100
AcDbLine
 62
253
  6
CONTINUOUS
 10
-0.1612848631
 20
16.3294171019
 11
2.0796671976
 21
16.3294171019
  0
LINE
  5
3BD
100
AcDbEntity
  8
PORTATASTO
100
AcDbLine
 62
253
  6
CONTINUOUS
 10
-1.5453328024
 20
16.3294171019
 11
-3.7862848631
 21
16.3294171019
  0
LINE
  5
3BE
100
AcDbEntity
  8
PORTATASTO
100
AcDbLine
 62
253
  6
CONTINUOUS
 10
18.7137151369
 20
16.3294171019
 11
20.9546671976
 21
16.3294171019
  0
LINE
  5
3BF
100
AcDbEntity
  8
PORTATASTO
100
AcDbLine
 62
253
  6
CONTINUOUS
 10
-20.4203328024
 20
16.3294171019
 11
-22.6612848631
 21
16.3294171019
  0
LINE
  5
3C0
100
AcDbEntity
  8
PORTATASTO
100
AcDbLine
 62
7
  6
CONTINUOUS
 10
20.7046706245
 20
16.579413675
 11
18.9637117099
 21
16.579413675
  0
LINE
  5
3C1
100
AcDbEntity
  8
PORTATASTO
100
AcDbLine
 62
7
  6
CONTINUOUS
 10
1.8296706245
 20
16.579413675
 11
0.0887117099
 21
16.579413675
  0
LINE
  5
3C2
100
AcDbEntity
  8
PORTATASTO
100
AcDbLine
 62
7
  6
CONTINUOUS
 10
-1.7953293755
 20
16.579413675
 11
-3.5362882901
 21
16.579413675
  0
LINE
  5
3C3
100
AcDbEntity
  8
PORTATASTO
100
AcDbLine
 62
7
  6
CONTINUOUS
 10
-20.6703293755
 20
16.579413675
 11
-22.4112882901
 21
16.579413675
  0
LINE
  5
3C4
100
AcDbEntity
  8
PORTATASTO
100
AcDbLine
 62
7
  6
CONTINUOUS
 10
-22.4283122597
 20
16.5964376446
 11
-20.6533054058
 21
16.5964376446
  0
LINE
  5
3C5
100
AcDbEntity
  8
PORTATASTO
100
AcDbLine
 62
7
  6
CONTINUOUS
 10
20.7216945942
 20
16.5964376446
 11
18.9466877403
 21
16.5964376446
  0
LINE
  5
3C6
100
AcDbEntity
  8
PORTATASTO
100
AcDbLine
 62
7
  6
CONTINUOUS
 10
0.0716877403
 20
16.5964376446
 11
1.8466945942
 21
16.5964376446
  0
LINE
  5
3C7
100
AcDbEntity
  8
PORTATASTO
100
AcDbLine
 62
7
  6
CONTINUOUS
 10
-1.7783054058
 20
16.5964376446
 11
-3.5533122597
 21
16.5964376446
  0
LINE
  5
3C8
100
AcDbEntity
  8
PORTATASTO
100
AcDbLine
 62
253
  6
CONTINUOUS
 10
18.7137151369
 20
-32.1365418127
 11
18.6966911672
 21
-32.1535657823
  0
LINE
  5
3C9
100
AcDbEntity
  8
PORTATASTO
100
AcDbLine
 62
253
  6
CONTINUOUS
 10
18.9637117099
 20
-32.3865383857
 11
18.9466877403
 21
-32.4035623554
  0
LINE
  5
3CA
100
AcDbEntity
  8
PORTATASTO
100
AcDbLine
 62
253
  6
CONTINUOUS
 10
18.7137151369
 20
16.3294171019
 11
18.6966911672
 21
16.3464410716
  0
LINE
  5
3CB
100
AcDbEntity
  8
PORTATASTO
100
AcDbLine
 62
253
  6
CONTINUOUS
 10
18.9637117099
 20
16.579413675
 11
18.9466877403
 21
16.5964376446
  0
LINE
  5
3CC
100
AcDbEntity
  8
PORTATASTO
100
AcDbLine
 62
7
  6
CONTINUOUS
 10
-69.9147577326
 20
15.8964376446
 11
-70.9147577326
 21
15.3190873754
  0
LINE
  5
3CD
100
AcDbEntity
  8
PORTATASTO
100
AcDbLine
 62
7
  6
CONTINUOUS
 10
-70.9147577326
 20
-31.1262120862
 11
-69.9147577326
 21
-31.7035623554
  0
LINE
  5
3CE
100
AcDbEntity
  8
PORTATASTO
100
AcDbLine
 62
253
  6
CONTINUOUS
 10
-73.1660667236
 20
-32.1365418127
 11
-73.4147577326
 21
-32.1365418127
  0
LINE
  5
3CF
100
AcDbEntity
  8
PORTATASTO
100
AcDbLine
 62
253
  6
CONTINUOUS
 10
-73.4147577326
 20
-31.8478999227
 11
-73.1660667236
 21
-31.8478999227
  0
LINE
  5
3D0
100
AcDbEntity
  8
PORTATASTO
100
AcDbLine
 62
7
  6
CONTINUOUS
 10
-73.1660667236
 20
-32.3865383857
 11
-69.9147577326
 21
-32.4035623554
  0
LINE
  5
3D1
100
AcDbEntity
  8
PORTATASTO
100
AcDbLine
 62
253
  6
CONTINUOUS
 10
-73.1660667236
 20
-32.1365418127
 11
-69.9147577326
 21
-32.1535657823
  0
LINE
  5
3D2
100
AcDbEntity
  8
PORTATASTO
100
AcDbLine
 62
7
  6
CONTINUOUS
 10
-59.9089400012
 20
-30.1895323809
 11
-70.9147577326
 21
-30.2535623554
  0
LINE
  5
3D3
100
AcDbEntity
  8
PORTATASTO
100
AcDbLine
 62
253
  6
CONTINUOUS
 10
-70.9147577326
 20
-29.7535792784
 11
-69.9147577326
 21
-29.7477614486
  0
LINE
  5
3D4
100
AcDbEntity
  8
PORTATASTO
100
AcDbLine
 62
7
  6
CONTINUOUS
 10
-69.9147577326
 20
-31.7035623554
 11
-63.4095218405
 21
-31.6695007086
  0
LINE
  5
3D5
100
AcDbEntity
  8
PORTATASTO
100
AcDbLine
 62
253
  6
CONTINUOUS
 10
-72.1660667236
 20
-30.9818745189
 11
-72.4147577326
 21
-30.9818745189
  0
LINE
  5
3D6
100
AcDbEntity
  8
PORTATASTO
100
AcDbLine
 62
7
  6
CONTINUOUS
 10
-72.4147577326
 20
-30.1749506864
 11
-70.9147577326
 21
-30.2535623554
  0
LINE
  5
3D7
100
AcDbEntity
  8
ASSI
100
AcDbLine
 62
7
  6
CONTINUOUS
 10
-78.5784779566
 20
-29.7329432456
 11
-74.9099649996
 21
-29.9252018629
  0
LINE
  5
3D8
100
AcDbEntity
  8
RACCORDO
100
AcDbLine
 62
7
  6
CONTINUOUS
 10
-78.5784779566
 20
-29.7329432456
 11
-74.9099649996
 21
-29.9252018629
  0
LINE
  5
3D9
100
AcDbEntity
  8
PORTATASTO
100
AcDbLine
 62
253
  6
CONTINUOUS
 10
-72.4147577326
 20
-29.6747218344
 11
-70.9147577326
 21
-29.7533335033
  0
LINE
  5
3DA
100
AcDbEntity
  8
ASSI
100
AcDbLine
 62
253
  6
CONTINUOUS
 10
-78.5653984526
 20
-29.2336284782
 11
-74.8794813872
 21
-29.4267992062
  0
LINE
  5
3DB
100
AcDbEntity
  8
RACCORDO
100
AcDbLine
 62
253
  6
CONTINUOUS
 10
-78.5653984526
 20
-29.2336284782
 11
-74.8794813872
 21
-29.4267992062
  0
LINE
  5
3DC
100
AcDbEntity
  8
0
100
AcDbLine
 62
253
  6
CONTINUOUS
 10
-80.3108219275
 20
-18.0979236633
 11
-80.3106001332
 21
-18.1087938863
  0
LINE
  5
3DD
100
AcDbEntity
  8
CORPO
100
AcDbLine
 62
7
  6
CONTINUOUS
 10
-62.8147577326
 20
-28.6470864593
 11
-68.9147577326
 21
-28.7535623554
  0
LINE
  5
3DE
100
AcDbEntity
  8
ASSI
100
AcDbLine
 62
7
  6
CONTINUOUS
 10
-62.8147577326
 20
-28.6470864593
 11
-68.9147577326
 21
-28.7535623554
  0
LINE
  5
3DF
100
AcDbEntity
  8
CORPO
100
AcDbLine
 62
7
  6
CONTINUOUS
 10
-38.3973053262
 20
-27.0708782422
 11
-62.8147577326
 21
-27.4970864593
  0
LINE
  5
3E0
100
AcDbEntity
  8
ASSI
100
AcDbLine
 62
7
  6
CONTINUOUS
 10
-38.3973053262
 20
-27.0708782422
 11
-62.8147577326
 21
-27.4970864593
  0
LINE
  5
3E1
100
AcDbEntity
  8
PORTATASTO
100
AcDbLine
 62
7
  6
CONTINUOUS
 10
-58.9147577326
 20
-27.6035623554
 11
-62.8147577326
 21
-27.6035623554
  0
LINE
  5
3E2
100
AcDbEntity
  8
PORTATASTO
100
AcDbLine
 62
7
  6
CONTINUOUS
 10
-68.9147577326
 20
-27.6035623554
 11
-69.9147577326
 21
-27.6035623554
  0
LINE
  5
3E3
100
AcDbEntity
  8
PORTATASTO
100
AcDbLine
 62
7
  6
CONTINUOUS
 10
-69.9147577326
 20
-27.4035623554
 11
-68.9147577326
 21
-27.4035623554
  0
LINE
  5
3E4
100
AcDbEntity
  8
PORTATASTO
100
AcDbLine
 62
7
  6
CONTINUOUS
 10
-59.4060315294
 20
-29.3572977825
 11
-69.9147577326
 21
-29.3035623554
  0
LINE
  5
3E5
100
AcDbEntity
  8
PORTATASTO
100
AcDbLine
 62
7
  6
CONTINUOUS
 10
-58.9147577326
 20
-28.8995579011
 11
-69.9147577326
 21
-28.8035623554
  0
LINE
  5
3E6
100
AcDbEntity
  8
PORTATASTO
100
AcDbLine
 62
7
  6
CONTINUOUS
 10
-74.6226108171
 20
-27.8457476877
 11
-72.4147577326
 21
-27.9035623554
  0
LINE
  5
3E7
100
AcDbEntity
  8
ASSI
100
AcDbLine
 62
253
  6
CONTINUOUS
 10
-79.5122304327
 20
-28.2757841723
 11
-79.9986810466
 21
-28.2961749462
  0
LINE
  5
3E8
100
AcDbEntity
  8
RACCORDO
100
AcDbLine
 62
253
  6
CONTINUOUS
 10
-79.5122304327
 20
-28.2757841723
 11
-79.9986810466
 21
-28.2961749462
  0
LINE
  5
3E9
100
AcDbEntity
  8
CORPO
100
AcDbLine
 62
253
  6
CONTINUOUS
 10
-38.3973053262
 20
-26.7780296324
 11
-62.8147577326
 21
-27.2042378495
  0
LINE
  5
3EA
100
AcDbEntity
  8
ASSI
100
AcDbLine
 62
253
  6
CONTINUOUS
 10
-38.3973053262
 20
-26.7780296324
 11
-62.8147577326
 21
-27.2042378495
  0
LINE
  5
3EB
100
AcDbEntity
  8
CORPO
100
AcDbLine
 62
253
  6
CONTINUOUS
 10
-68.9147577326
 20
-26.9892595749
 11
-38.3973053262
 21
-26.7686145907
  0
LINE
  5
3EC
100
AcDbEntity
  8
ASSI
100
AcDbLine
 62
253
  6
CONTINUOUS
 10
-68.9147577326
 20
-26.9892595749
 11
-38.3973053262
 21
-26.7686145907
  0
LINE
  5
3ED
100
AcDbEntity
  8
CORPO
100
AcDbLine
 62
253
  6
CONTINUOUS
 10
-68.9147577326
 20
-25.5752614041
 11
-38.3973053262
 21
-25.3546164199
  0
LINE
  5
3EE
100
AcDbEntity
  8
ASSI
100
AcDbLine
 62
253
  6
CONTINUOUS
 10
-68.9147577326
 20
-25.5752614041
 11
-38.3973053262
 21
-25.3546164199
  0
LINE
  5
3EF
100
AcDbEntity
  8
PORTATASTO
100
AcDbLine
 62
253
  6
CONTINUOUS
 10
-74.6226108171
 20
-26.3462617002
 11
-74.691067642
 21
-26.3462617032
  0
LINE
  5
3F0
100
AcDbEntity
  8
CORPO
100
AcDbLine
 62
253
  6
CONTINUOUS
 10
-37.4147577326
 20
-25.3546164199
 11
-38.3973053262
 21
-25.3546164195
  0
LINE
  5
3F1
100
AcDbEntity
  8
ASSI
100
AcDbLine
 62
253
  6
CONTINUOUS
 10
-37.4147577326
 20
-25.3546164199
 11
-38.3973053262
 21
-25.3546164195
  0
LINE
  5
3F2
100
AcDbEntity
  8
PORTATASTO
100
AcDbLine
 62
7
  6
CONTINUOUS
 10
-69.9147577326
 20
-26.4622892232
 11
-68.9147577326
 21
-26.4710160909
  0
LINE
  5
3F3
100
AcDbEntity
  8
PORTATASTO
100
AcDbLine
 62
253
  6
CONTINUOUS
 10
-74.6226108171
 20
-26.3462617002
 11
-72.4147577326
 21
-26.4040763679
  0
LINE
  5
3F4
100
AcDbEntity
  8
PORTATASTO
100
AcDbLine
 62
253
  6
CONTINUOUS
 10
-74.6226108171
 20
-25.227002509
 11
-74.6226108171
 21
-26.3462617002
  0
LINE
  5
3F5
100
AcDbEntity
  8
CURVE
100
AcDbLine
 62
7
  6
CONTINUOUS
 10
-66.3155506572
 20
7.0523527924
 11
-66.260329673
 21
7.1075737766
  0
LINE
  5
3F6
100
AcDbEntity
  8
CURVE
100
AcDbLine
 62
7
  6
CONTINUOUS
 10
-66.3155506572
 20
6.6323313643
 11
-65.6164070807
 21
7.3314749408
  0
LINE
  5
3F7
100
AcDbEntity
  8
CURVE
100
AcDbLine
 62
7
  6
CONTINUOUS
 10
-66.2149282733
 20
6.3129323202
 11
-64.9724844885
 21
7.555376105
  0
LINE
  5
3F8
100
AcDbEntity
  8
CURVE
100
AcDbLine
 62
253
  6
CONTINUOUS
 10
-61.2549175947
 20
7.9607226845
 11
-60.9835303794
 21
8.0964369055
  0
LINE
  5
3F9
100
AcDbEntity
  8
CURVE
100
AcDbLine
 62
253
  6
CONTINUOUS
 10
-63.4164329583
 20
8.0964376446
 11
-66.3155506572
 21
7.0883726446
  0
LINE
  5
3FA
100
AcDbEntity
  8
CURVE
100
AcDbLine
 62
253
  6
CONTINUOUS
 10
-64.0308847476
 20
7.2610216446
 11
-63.4164329583
 21
7.4700116446
  0
LINE
  5
3FB
100
AcDbEntity
  8
CURVE
100
AcDbLine
 62
253
  6
CONTINUOUS
 10
-65.7613954968
 20
6.7028866446
 11
-64.5126709573
 21
7.1043066446
  0
LINE
  5
3FC
100
AcDbEntity
  8
PORTATASTO
100
AcDbLine
 62
7
  6
CONTINUOUS
 10
-68.9147577326
 20
-26.0509083939
 11
-70.9147577326
 21
-26.4035623554
  0
LINE
  5
3FD
100
AcDbEntity
  8
CURVE
100
AcDbLine
 62
253
  6
CONTINUOUS
 10
-61.3170725899
 20
-23.9035623554
 11
-60.0174685524
 21
-23.9035623554
  0
LINE
  5
3FE
100
AcDbEntity
  8
CURVE
100
AcDbLine
 62
253
  6
CONTINUOUS
 10
-64.3278912558
 20
-22.6935833554
 11
-66.3232043252
 21
-22.1239723554
  0
LINE
  5
3FF
100
AcDbEntity
  8
CURVE
100
AcDbLine
 62
253
  6
CONTINUOUS
 10
-66.3232043252
 20
-21.5191143554
 11
-63.4244345204
 21
-22.4511793554
  0
LINE
  5
400
100
AcDbEntity
  8
PORTATASTO
100
AcDbLine
 62
7
  6
CONTINUOUS
 10
-73.4147577326
 20
-32.1365418127
 11
-73.4147577326
 21
-31.8478999227
  0
LINE
  5
401
100
AcDbEntity
  8
ASSI
100
AcDbLine
 62
7
  6
CONTINUOUS
 10
-73.4147577326
 20
-5.4787791412
 11
-73.4147577326
 21
14.1964376446
  0
LINE
  5
402
100
AcDbEntity
  8
RACCORDO
100
AcDbLine
 62
7
  6
CONTINUOUS
 10
-73.4147577326
 20
-5.4787791412
 11
-73.4147577326
 21
14.1964376446
  0
LINE
  5
403
100
AcDbEntity
  8
PORTATASTO
100
AcDbLine
 62
7
  6
CONTINUOUS
 10
-73.4147577326
 20
16.0407752119
 11
-73.4147577326
 21
16.3294171019
  0
LINE
  5
404
100
AcDbEntity
  8
PORTATASTO
100
AcDbLine
 62
253
  6
CONTINUOUS
 10
-73.1660667236
 20
-32.1365418127
 11
-73.1660667236
 21
-31.8478999227
  0
LINE
  5
405
100
AcDbEntity
  8
PORTATASTO
100
AcDbLine
 62
253
  6
CONTINUOUS
 10
-73.1660667236
 20
16.0407752119
 11
-73.1660667236
 21
16.3294171019
  0
LINE
  5
406
100
AcDbEntity
  8
ASSI
100
AcDbLine
 62
7
  6
CONTINUOUS
 10
-72.6647577326
 20
7.3966356711
 11
-72.6647577326
 21
7.2941394986
  0
LINE
  5
407
100
AcDbEntity
  8
ASSI
100
AcDbLine
 62
7
  6
CONTINUOUS
 10
-72.6647577326
 20
4.8987312684
 11
-72.6647577326
 21
4.7962396182
  0
LINE
  5
408
100
AcDbEntity
  8
PORTATASTO
100
AcDbLine
 62
7
  6
CONTINUOUS
 10
-72.4147577326
 20
-30.9818745189
 11
-72.4147577326
 21
15.1747498081
  0
LINE
  5
409
100
AcDbEntity
  8
PORTATASTO
100
AcDbLine
 62
253
  6
CONTINUOUS
 10
-72.1660667236
 20
-30.9818745189
 11
-72.1660667236
 21
-30.18798403
  0
LINE
  5
40A
100
AcDbEntity
  8
PORTATASTO
100
AcDbLine
 62
253
  6
CONTINUOUS
 10
-72.1660667236
 20
14.3808593192
 11
-72.1660667236
 21
15.1747498081
  0
LINE
  5
40B
100
AcDbEntity
  8
RACCORDO
100
AcDbLine
 62
7
  6
CONTINUOUS
 10
-73.4147577326
 20
-5.4787791412
 11
-74.9099649996
 21
-29.9252018629
  0
LINE
  5
40C
100
AcDbEntity
  8
ASSI
100
AcDbLine
 62
7
  6
CONTINUOUS
 10
-73.4147577326
 20
-5.4787791412
 11
-74.9099649996
 21
-29.9252018629
  0
LINE
  5
40D
100
AcDbEntity
  8
CURVE
100
AcDbLine
 62
7
  6
CONTINUOUS
 10
-65.9064615162
 20
6.2013776493
 11
-65.496247632
 21
6.6115915335
  0
LINE
  5
40E
100
AcDbEntity
  8
CURVE
100
AcDbLine
 62
7
  6
CONTINUOUS
 10
-65.2360836753
 20
6.8717554902
 11
-64.3285618963
 21
7.7792772692
  0
LINE
  5
40F
100
AcDbEntity
  8
CURVE
100
AcDbLine
 62
7
  6
CONTINUOUS
 10
-65.597994759
 20
6.0898229784
 11
-65.183805552
 21
6.5040121854
  0
LINE
  5
410
100
AcDbEntity
  8
CURVE
100
AcDbLine
 62
7
  6
CONTINUOUS
 10
-64.6170723991
 20
7.0707453383
 11
-63.6846393041
 21
8.0031784334
  0
LINE
  5
411
100
AcDbEntity
  8
CURVE
100
AcDbLine
 62
7
  6
CONTINUOUS
 10
-66.3155506572
 20
4.9522456522
 11
-66.2601606648
 21
5.0076356446
  0
LINE
  5
412
100
AcDbEntity
  8
CURVE
100
AcDbLine
 62
7
  6
CONTINUOUS
 10
-65.2895280019
 20
5.9782683075
 11
-64.871363472
 21
6.3964328374
  0
LINE
  5
413
100
AcDbEntity
  8
CURVE
100
AcDbLine
 62
7
  6
CONTINUOUS
 10
-64.5126709573
 20
6.7551253521
 11
-64.0308847476
 21
7.2369115619
  0
LINE
  5
414
100
AcDbEntity
  8
CURVE
100
AcDbLine
 62
7
  6
CONTINUOUS
 10
-63.9943474365
 20
7.2734488729
 11
-63.4164329583
 21
7.8513633511
  0
LINE
  5
415
100
AcDbEntity
  8
CURVE
100
AcDbLine
 62
7
  6
CONTINUOUS
 10
-66.3155506572
 20
4.5322242242
 11
-65.8401392367
 21
5.0076356446
  0
LINE
  5
416
100
AcDbEntity
  8
CURVE
100
AcDbLine
 62
7
  6
CONTINUOUS
 10
-64.9810612447
 20
5.8667136367
 11
-64.558921392
 21
6.2888534894
  0
LINE
  5
417
100
AcDbEntity
  8
CURVE
100
AcDbLine
 62
7
  6
CONTINUOUS
 10
-64.5126709573
 20
6.3351039241
 11
-64.0308847476
 21
6.8168901338
  0
LINE
  5
418
100
AcDbEntity
  8
CURVE
100
AcDbLine
 62
7
  6
CONTINUOUS
 10
-66.0025618087
 20
4.4251916446
 11
-65.4201178087
 21
5.0076356446
  0
LINE
  5
419
100
AcDbEntity
  8
CURVE
100
AcDbLine
 62
7
  6
CONTINUOUS
 10
-64.6725944876
 20
5.7551589658
 11
-64.0308847476
 21
6.3968687058
  0
LINE
  5
41A
100
AcDbEntity
  8
CURVE
100
AcDbLine
 62
7
  6
CONTINUOUS
 10
-65.5825403807
 20
4.4251916446
 11
-65.0000963807
 21
5.0076356446
  0
LINE
  5
41B
100
AcDbEntity
  8
CURVE
100
AcDbLine
 62
7
  6
CONTINUOUS
 10
-64.3641277304
 20
5.6436042949
 11
-63.9307906434
 21
6.0769413819
  0
LINE
  5
41C
100
AcDbEntity
  8
CURVE
100
AcDbLine
 62
7
  6
CONTINUOUS
 10
-66.3155506572
 20
3.2721599401
 11
-66.2371796408
 21
3.3505309565
  0
LINE
  5
41D
100
AcDbEntity
  8
CURVE
100
AcDbLine
 62
7
  6
CONTINUOUS
 10
-65.1625189527
 20
4.4251916446
 11
-64.5800749527
 21
5.0076356446
  0
LINE
  5
41E
100
AcDbEntity
  8
CURVE
100
AcDbLine
 62
7
  6
CONTINUOUS
 10
-64.0556609733
 20
5.532049624
 11
-63.6203742498
 21
5.9673363475
  0
LINE
  5
41F
100
AcDbEntity
  8
CURVE
100
AcDbLine
 62
253
  6
CONTINUOUS
 10
-59.897981433
 20
7.2821515795
 11
-60.1693686766
 21
7.1464369055
  0
LINE
  5
420
100
AcDbEntity
  8
CURVE
100
AcDbLine
 62
253
  6
CONTINUOUS
 10
-66.3155506572
 20
3.3125766446
 11
-64.0181366316
 21
4.4251916446
  0
LINE
  5
421
100
AcDbEntity
  8
CURVE
100
AcDbLine
 62
253
  6
CONTINUOUS
 10
-60.0174685524
 20
-22.6578263554
 11
-61.3170725899
 21
-22.6578263554
  0
LINE
  5
422
100
AcDbEntity
  8
CURVE
100
AcDbLine
 62
253
  6
CONTINUOUS
 10
-66.3233782723
 20
-21.2944973554
 11
-63.4244345204
 21
-21.2944973554
  0
LINE
  5
423
100
AcDbEntity
  8
CURVE
100
AcDbLine
 62
253
  6
CONTINUOUS
 10
-61.3170725899
 20
-21.1731553554
 11
-60.0174685524
 21
-21.1731553554
  0
LINE
  5
424
100
AcDbEntity
  8
CURVE
100
AcDbLine
 62
253
  6
CONTINUOUS
 10
-61.3170725899
 20
-21.9136723554
 11
-60.0174685524
 21
-22.4840053554
  0
LINE
  5
425
100
AcDbEntity
  8
CURVE
100
AcDbLine
 62
253
  6
CONTINUOUS
 10
-61.3170725899
 20
-22.6578263554
 11
-60.0174685524
 21
-23.2806933554
  0
LINE
  5
426
100
AcDbEntity
  8
PORTATASTO
100
AcDbLine
 62
7
  6
CONTINUOUS
 10
-70.9147577326
 20
15.3190873754
 11
-70.9147577326
 21
14.4464376446
  0
LINE
  5
427
100
AcDbEntity
  8
PORTATASTO
100
AcDbLine
 62
7
  6
CONTINUOUS
 10
-70.9147577326
 20
13.9464545677
 11
-70.9147577326
 21
10.5964376446
  0
LINE
  5
428
100
AcDbEntity
  8
PORTATASTO
100
AcDbLine
 62
7
  6
CONTINUOUS
 10
-70.9147577326
 20
-29.7535792784
 11
-70.9147577326
 21
-26.4035623554
  0
LINE
  5
429
100
AcDbEntity
  8
PORTATASTO
100
AcDbLine
 62
7
  6
CONTINUOUS
 10
-70.9147577326
 20
-30.2535623554
 11
-70.9147577326
 21
-31.1262120862
  0
LINE
  5
42A
100
AcDbEntity
  8
PORTATASTO
100
AcDbLine
 62
7
  6
CONTINUOUS
 10
-69.9147577326
 20
16.5964376446
 11
-69.9147577326
 21
15.8964376446
  0
LINE
  5
42B
100
AcDbEntity
  8
PORTATASTO
100
AcDbLine
 62
7
  6
CONTINUOUS
 10
-69.9147577326
 20
14.4406198148
 11
-69.9147577326
 21
10.6551645124
  0
LINE
  5
42C
100
AcDbEntity
  8
PORTATASTO
100
AcDbLine
 62
7
  6
CONTINUOUS
 10
-69.9147577326
 20
-26.4622892232
 11
-69.9147577326
 21
-30.2477445256
  0
LINE
  5
42D
100
AcDbEntity
  8
PORTATASTO
100
AcDbLine
 62
7
  6
CONTINUOUS
 10
-69.9147577326
 20
-31.7035623554
 11
-69.9147577326
 21
-32.4035623554
  0
LINE
  5
42E
100
AcDbEntity
  8
CURVE
100
AcDbLine
 62
253
  6
CONTINUOUS
 10
-61.5263048101
 20
7.6892942425
 11
-61.2549175947
 21
7.9607226845
  0
LINE
  5
42F
100
AcDbEntity
  8
CURVE
100
AcDbLine
 62
7
  6
CONTINUOUS
 10
-66.3155506572
 20
2.8521385121
 11
-65.4227266417
 21
3.7449625276
  0
LINE
  5
430
100
AcDbEntity
  8
CURVE
100
AcDbLine
 62
7
  6
CONTINUOUS
 10
-64.7424975246
 20
4.4251916446
 11
-64.1600535246
 21
5.0076356446
  0
LINE
  5
431
100
AcDbEntity
  8
CURVE
100
AcDbLine
 62
7
  6
CONTINUOUS
 10
-63.7471942161
 20
5.4204949532
 11
-63.4164329583
 21
5.751256211
  0
LINE
  5
432
100
AcDbEntity
  8
CURVE
100
AcDbLine
 62
7
  6
CONTINUOUS
 10
-66.3155506572
 20
2.4321170841
 11
-65.7764600966
 21
2.9712076446
  0
LINE
  5
433
100
AcDbEntity
  8
CURVE
100
AcDbLine
 62
7
  6
CONTINUOUS
 10
-65.7164152883
 20
3.0312524529
 11
-64.6082736425
 21
4.1393940988
  0
LINE
  5
434
100
AcDbEntity
  8
CURVE
100
AcDbLine
 62
7
  6
CONTINUOUS
 10
-64.3224760966
 20
4.4251916446
 11
-63.7400320966
 21
5.0076356446
  0
LINE
  5
435
100
AcDbEntity
  8
CURVE
100
AcDbLine
 62
7
  6
CONTINUOUS
 10
-63.438727459
 20
5.3089402823
 11
-63.4164329583
 21
5.331234783
  0
LINE
  5
436
100
AcDbEntity
  8
CURVE
100
AcDbLine
 62
7
  6
CONTINUOUS
 10
-65.9388836686
 20
2.3887626446
 11
-65.3564386686
 21
2.9712076446
  0
LINE
  5
437
100
AcDbEntity
  8
CURVE
100
AcDbLine
 62
7
  6
CONTINUOUS
 10
-64.916215701
 20
3.4114306122
 11
-63.4164329583
 21
4.9112133549
  0
LINE
  5
438
100
AcDbEntity
  8
CURVE
100
AcDbLine
 62
7
  6
CONTINUOUS
 10
-65.5188622406
 20
2.3887626446
 11
-64.9364172406
 21
2.9712076446
  0
LINE
  5
439
100
AcDbEntity
  8
CURVE
100
AcDbLine
 62
7
  6
CONTINUOUS
 10
-64.1160161137
 20
3.7916087715
 11
-63.4164329583
 21
4.4911919269
  0
LINE
  5
43A
100
AcDbEntity
  8
CURVE
100
AcDbLine
 62
7
  6
CONTINUOUS
 10
-65.0988408125
 20
2.3887626446
 11
-64.5163958125
 21
2.9712076446
  0
LINE
  5
43B
100
AcDbEntity
  8
CURVE
100
AcDbLine
 62
253
  6
CONTINUOUS
 10
-59.6265941893
 20
7.5535800215
 11
-59.897981433
 21
7.2821515795
  0
LINE
  5
43C
100
AcDbEntity
  8
CURVE
100
AcDbLine
 62
7
  6
CONTINUOUS
 10
-66.3155506572
 20
0.752031372
 11
-65.8382685861
 21
1.229313443
  0
LINE
  5
43D
100
AcDbEntity
  8
CURVE
100
AcDbLine
 62
7
  6
CONTINUOUS
 10
-64.6788193845
 20
2.3887626446
 11
-64.0963743845
 21
2.9712076446
  0
LINE
  5
43E
100
AcDbEntity
  8
CURVE
100
AcDbLine
 62
7
  6
CONTINUOUS
 10
-66.3155506572
 20
0.332009944
 11
-65.1943088762
 21
1.453251725
  0
LINE
  5
43F
100
AcDbEntity
  8
CURVE
100
AcDbLine
 62
7
  6
CONTINUOUS
 10
-64.2587979565
 20
2.3887626446
 11
-63.6763529565
 21
2.9712076446
  0
LINE
  5
440
100
AcDbEntity
  8
CURVE
100
AcDbLine
 62
7
  6
CONTINUOUS
 10
-66.0127475856
 20
0.2147915875
 11
-65.6039115603
 21
0.6236276128
  0
LINE
  5
441
100
AcDbEntity
  8
CURVE
100
AcDbLine
 62
7
  6
CONTINUOUS
 10
-65.4492270931
 20
0.77831208
 11
-64.5503491662
 21
1.6771900069
  0
LINE
  5
442
100
AcDbEntity
  8
CURVE
100
AcDbLine
 62
7
  6
CONTINUOUS
 10
-63.8387765285
 20
2.3887626446
 11
-63.4164329583
 21
2.8111062148
  0
LINE
  5
443
100
AcDbEntity
  8
CURVE
100
AcDbLine
 62
253
  6
CONTINUOUS
 10
-57.1736890893
 20
7.7250082966
 11
-56.6166310822
 21
8.096436691
  0
LINE
  5
444
100
AcDbEntity
  8
CURVE
100
AcDbLine
 62
253
  6
CONTINUOUS
 10
-57.9164330859
 20
5.4035799023
 11
-57.1736890893
 21
5.7750082966
  0
LINE
  5
445
100
AcDbEntity
  8
CURVE
100
AcDbLine
 62
253
  6
CONTINUOUS
 10
-63.4164329583
 20
4.1239836446
 11
-65.8427976952
 21
2.9712076446
  0
LINE
  5
446
100
AcDbEntity
  8
CURVE
100
AcDbLine
 62
253
  6
CONTINUOUS
 10
-63.4164329583
 20
2.0715116446
 11
-66.3155506572
 21
1.0633376446
  0
LINE
  5
447
100
AcDbEntity
  8
CURVE
100
AcDbLine
 62
253
  6
CONTINUOUS
 10
-66.3232043252
 20
-23.2463103554
 11
-64.3278912558
 21
-22.6935833554
  0
LINE
  5
448
100
AcDbEntity
  8
CURVE
100
AcDbLine
 62
253
  6
CONTINUOUS
 10
-63.4244345204
 20
-20.6892263554
 11
-66.3233782723
 21
-20.6892263554
  0
LINE
  5
449
100
AcDbEntity
  8
CURVE
100
AcDbLine
 62
253
  6
CONTINUOUS
 10
-61.3170725899
 20
-19.8568073554
 11
-60.0174685524
 21
-19.8568073554
  0
LINE
  5
44A
100
AcDbEntity
  8
CURVE
100
AcDbLine
 62
253
  6
CONTINUOUS
 10
-65.3172768105
 20
-19.6537243554
 11
-63.4244345204
 21
-19.7843413554
  0
LINE
  5
44B
100
AcDbEntity
  8
CURVE
100
AcDbLine
 62
253
  6
CONTINUOUS
 10
-63.4244345204
 20
-20.3633893554
 11
-66.3232043252
 21
-20.1015673554
  0
LINE
  5
44C
100
AcDbEntity
  8
CURVE
100
AcDbLine
 62
253
  6
CONTINUOUS
 10
-64.7137986778
 20
-18.8979173554
 11
-66.3232043252
 21
-18.2926463554
  0
LINE
  5
44D
100
AcDbEntity
  8
CURVE
100
AcDbLine
 62
253
  6
CONTINUOUS
 10
-65.3093862146
 20
-18.1391103554
 11
-63.4244345204
 21
-18.8587783554
  0
LINE
  5
44E
100
AcDbEntity
  8
CORPO
100
AcDbLine
 62
7
  6
CONTINUOUS
 10
-68.9147577326
 20
12.9464376446
 11
-68.9147577326
 21
11.1821348642
  0
LINE
  5
44F
100
AcDbEntity
  8
ASSI
100
AcDbLine
 62
7
  6
CONTINUOUS
 10
-68.9147577326
 20
12.9464376446
 11
-68.9147577326
 21
11.1821348642
  0
LINE
  5
450
100
AcDbEntity
  8
CORPO
100
AcDbLine
 62
7
  6
CONTINUOUS
 10
-68.9147577326
 20
-26.1557429245
 11
-68.9147577326
 21
-26.0900799814
  0
LINE
  5
451
100
AcDbEntity
  8
ASSI
100
AcDbLine
 62
7
  6
CONTINUOUS
 10
-68.9147577326
 20
-26.1557429245
 11
-68.9147577326
 21
-26.0900799814
  0
LINE
  5
452
100
AcDbEntity
  8
PORTATASTO
100
AcDbLine
 62
7
  6
CONTINUOUS
 10
-68.9147577326
 20
11.5964376446
 11
-68.9147577326
 21
-27.4035623554
  0
LINE
  5
453
100
AcDbEntity
  8
CORPO
100
AcDbLine
 62
7
  6
CONTINUOUS
 10
-68.9147577326
 20
-26.9892595749
 11
-68.9147577326
 21
-28.7535623554
  0
LINE
  5
454
100
AcDbEntity
  8
ASSI
100
AcDbLine
 62
7
  6
CONTINUOUS
 10
-68.9147577326
 20
-26.9892595749
 11
-68.9147577326
 21
-28.7535623554
  0
LINE
  5
455
100
AcDbEntity
  8
CORPO
100
AcDbLine
 62
7
  6
CONTINUOUS
 10
-68.9147577326
 20
-25.9653829415
 11
-68.9147577326
 21
10.1582582424
  0
LINE
  5
456
100
AcDbEntity
  8
ASSI
100
AcDbLine
 62
7
  6
CONTINUOUS
 10
-68.9147577326
 20
-25.9653829415
 11
-68.9147577326
 21
10.1582582424
  0
LINE
  5
457
100
AcDbEntity
  8
CORPO
100
AcDbLine
 62
7
  6
CONTINUOUS
 10
-68.9147577326
 20
10.2829552694
 11
-68.9147577326
 21
10.3486182331
  0
LINE
  5
458
100
AcDbEntity
  8
ASSI
100
AcDbLine
 62
7
  6
CONTINUOUS
 10
-68.9147577326
 20
10.2829552694
 11
-68.9147577326
 21
10.3486182331
  0
LINE
  5
459
100
AcDbEntity
  8
CURVE
100
AcDbLine
 62
253
  6
CONTINUOUS
 10
-57.9164330859
 20
7.9107231137
 11
-57.7307470964
 21
8.096436691
  0
LINE
  5
45A
100
AcDbEntity
  8
CURVE
100
AcDbLine
 62
7
  6
CONTINUOUS
 10
-65.7042723108
 20
0.1032454343
 11
-65.2914695825
 21
0.5160481626
  0
LINE
  5
45B
100
AcDbEntity
  8
CURVE
100
AcDbLine
 62
7
  6
CONTINUOUS
 10
-64.8302163313
 20
0.9773014138
 11
-63.9063894562
 21
1.9011282888
  0
LINE
  5
45C
100
AcDbEntity
  8
CURVE
100
AcDbLine
 62
7
  6
CONTINUOUS
 10
-63.4187551005
 20
2.3887626446
 11
-63.4164329583
 21
2.3910847868
  0
LINE
  5
45D
100
AcDbEntity
  8
CURVE
100
AcDbLine
 62
7
  6
CONTINUOUS
 10
-65.3957970361
 20
-0.008300719
 11
-64.9790276047
 21
0.4084687123
  0
LINE
  5
45E
100
AcDbEntity
  8
CURVE
100
AcDbLine
 62
7
  6
CONTINUOUS
 10
-64.5126709573
 20
0.8748253598
 11
-63.4164329583
 21
1.9710633588
  0
LINE
  5
45F
100
AcDbEntity
  8
CURVE
100
AcDbLine
 62
7
  6
CONTINUOUS
 10
-65.0873217613
 20
-0.1198468723
 11
-64.6665856269
 21
0.3008892621
  0
LINE
  5
460
100
AcDbEntity
  8
CURVE
100
AcDbLine
 62
7
  6
CONTINUOUS
 10
-64.5126709573
 20
0.4548039318
 11
-64.0308847476
 21
0.9365901415
  0
LINE
  5
461
100
AcDbEntity
  8
CURVE
100
AcDbLine
 62
7
  6
CONTINUOUS
 10
-63.5772890362
 20
1.3901858528
 11
-63.4164329583
 21
1.5510419307
  0
LINE
  5
462
100
AcDbEntity
  8
CURVE
100
AcDbLine
 62
7
  6
CONTINUOUS
 10
-64.7788464865
 20
-0.2313930255
 11
-64.0308847476
 21
0.5165687135
  0
LINE
  5
463
100
AcDbEntity
  8
CURVE
100
AcDbLine
 62
7
  6
CONTINUOUS
 10
-66.3155506572
 20
-2.1881186242
 11
-66.2372553884
 21
-2.1098233554
  0
LINE
  5
464
100
AcDbEntity
  8
CURVE
100
AcDbLine
 62
7
  6
CONTINUOUS
 10
-64.4703712118
 20
-0.3429391788
 11
-64.0308847476
 21
0.0965472854
  0
LINE
  5
465
100
AcDbEntity
  8
CURVE
100
AcDbLine
 62
7
  6
CONTINUOUS
 10
-66.3155506572
 20
-2.6081400522
 11
-65.8172339603
 21
-2.1098233554
  0
LINE
  5
466
100
AcDbEntity
  8
CURVE
100
AcDbLine
 62
7
  6
CONTINUOUS
 10
-64.161895937
 20
-0.4544853321
 11
-63.7272999648
 21
-0.0198893598
  0
LINE
  5
467
100
AcDbEntity
  8
CURVE
100
AcDbLine
 62
7
  6
CONTINUOUS
 10
-66.0198185323
 20
-2.7324293554
 11
-65.3972125323
 21
-2.1098233554
  0
LINE
  5
468
100
AcDbEntity
  8
CURVE
100
AcDbLine
 62
7
  6
CONTINUOUS
 10
-63.8534206623
 20
-0.5660314853
 11
-63.4168428694
 21
-0.1294536924
  0
LINE
  5
469
100
AcDbEntity
  8
CURVE
100
AcDbLine
 62
253
  6
CONTINUOUS
 10
-57.9164330859
 20
4.2892947194
 11
-57.1736890893
 21
4.6607231137
  0
LINE
  5
46A
100
AcDbEntity
  8
CURVE
100
AcDbLine
 62
253
  6
CONTINUOUS
 10
-64.0308847476
 20
1.2359866446
 11
-63.4164329583
 21
1.4448686446
  0
LINE
  5
46B
100
AcDbEntity
  8
CURVE
100
AcDbLine
 62
253
  6
CONTINUOUS
 10
-65.7615594468
 20
0.6779086446
 11
-64.5126709573
 21
1.0793806446
  0
LINE
  5
46C
100
AcDbEntity
  8
CURVE
100
AcDbLine
 62
253
  6
CONTINUOUS
 10
-66.3232043252
 20
-17.6937893554
 11
-63.4244345204
 21
-17.4226393554
  0
LINE
  5
46D
100
AcDbEntity
  8
CURVE
100
AcDbLine
 62
253
  6
CONTINUOUS
 10
-63.4244345204
 20
-18.0147553554
 11
-65.3093862146
 21
-18.1391103554
  0
LINE
  5
46E
100
AcDbEntity
  8
CURVE
100
AcDbLine
 62
253
  6
CONTINUOUS
 10
-61.3170725899
 20
-18.0488343554
 11
-60.0174685524
 21
-18.0488343554
  0
LINE
  5
46F
100
AcDbEntity
  8
CURVE
100
AcDbLine
 62
253
  6
CONTINUOUS
 10
-61.3170725899
 20
-17.6605063554
 11
-60.0174685524
 21
-17.6605063554
  0
LINE
  5
470
100
AcDbEntity
  8
CURVE
100
AcDbLine
 62
253
  6
CONTINUOUS
 10
-61.3170725899
 20
-16.6283813554
 11
-60.0174685524
 21
-16.6283813554
  0
LINE
  5
471
100
AcDbEntity
  8
CURVE
100
AcDbLine
 62
253
  6
CONTINUOUS
 10
-65.5266960048
 20
-16.1366883554
 11
-64.4509257698
 21
-16.4380623554
  0
LINE
  5
472
100
AcDbEntity
  8
CURVE
100
AcDbLine
 62
253
  6
CONTINUOUS
 10
-64.0031322032
 20
-16.5618743554
 11
-63.4244345204
 21
-16.7288913554
  0
LINE
  5
473
100
AcDbEntity
  8
CURVE
100
AcDbLine
 62
253
  6
CONTINUOUS
 10
-63.4244345204
 20
-17.3275953554
 11
-66.3232043252
 21
-16.4180793554
  0
LINE
  5
474
100
AcDbEntity
  8
CURVE
100
AcDbLine
 62
253
  6
CONTINUOUS
 10
-66.3233782723
 20
-20.6892263554
 11
-66.3233782723
 21
-21.2944973554
  0
LINE
  5
475
100
AcDbEntity
  8
CURVE
100
AcDbLine
 62
253
  6
CONTINUOUS
 10
-66.3232043252
 20
-23.9038223554
 11
-66.3232043252
 21
-23.2463103554
  0
LINE
  5
476
100
AcDbEntity
  8
CURVE
100
AcDbLine
 62
253
  6
CONTINUOUS
 10
-66.3232043252
 20
-22.1239723554
 11
-66.3232043252
 21
-21.5191143554
  0
LINE
  5
477
100
AcDbEntity
  8
CURVE
100
AcDbLine
 62
253
  6
CONTINUOUS
 10
-66.3232043252
 20
-20.1015673554
 11
-66.3232043252
 21
-19.4967963554
  0
LINE
  5
478
100
AcDbEntity
  8
CURVE
100
AcDbLine
 62
253
  6
CONTINUOUS
 10
-66.3232043252
 20
-18.2926463554
 11
-66.3232043252
 21
-17.6937893554
  0
LINE
  5
479
100
AcDbEntity
  8
CURVE
100
AcDbLine
 62
253
  6
CONTINUOUS
 10
-66.3232043252
 20
-16.4180793554
 11
-66.3232043252
 21
-15.8325523554
  0
LINE
  5
47A
100
AcDbEntity
  8
CURVE
100
AcDbLine
 62
253
  6
CONTINUOUS
 10
-66.3155506572
 20
7.0883726446
 11
-66.3155506572
 21
6.3493216446
  0
LINE
  5
47B
100
AcDbEntity
  8
CURVE
100
AcDbLine
 62
253
  6
CONTINUOUS
 10
-66.3155506572
 20
1.0633376446
 11
-66.3155506572
 21
0.3242866446
  0
LINE
  5
47C
100
AcDbEntity
  8
CURVE
100
AcDbLine
 62
253
  6
CONTINUOUS
 10
-66.3155506572
 20
-4.3153423554
 11
-66.3155506572
 21
-5.2027723554
  0
LINE
  5
47D
100
AcDbEntity
  8
CURVE
100
AcDbLine
 62
253
  6
CONTINUOUS
 10
-66.3155506572
 20
-2.7324293554
 11
-66.3155506572
 21
-2.1098233554
  0
LINE
  5
47E
100
AcDbEntity
  8
CURVE
100
AcDbLine
 62
253
  6
CONTINUOUS
 10
-66.3155506572
 20
2.3887626446
 11
-66.3155506572
 21
3.3125766446
  0
LINE
  5
47F
100
AcDbEntity
  8
CURVE
100
AcDbLine
 62
253
  6
CONTINUOUS
 10
-66.3155506572
 20
4.4251916446
 11
-66.3155506572
 21
5.0076356446
  0
LINE
  5
480
100
AcDbEntity
  8
CURVE
100
AcDbLine
 62
253
  6
CONTINUOUS
 10
-65.8337644474
 20
-4.5801663554
 11
-65.8337644474
 21
-4.2169503554
  0
LINE
  5
481
100
AcDbEntity
  8
CURVE
100
AcDbLine
 62
7
  6
CONTINUOUS
 10
-65.5997971043
 20
-2.7324293554
 11
-64.9771911043
 21
-2.1098233554
  0
LINE
  5
482
100
AcDbEntity
  8
CURVE
100
AcDbLine
 62
7
  6
CONTINUOUS
 10
-63.5449453875
 20
-0.6775776386
 11
-63.4164329583
 21
-0.5490652094
  0
LINE
  5
483
100
AcDbEntity
  8
CURVE
100
AcDbLine
 62
7
  6
CONTINUOUS
 10
-66.2725641181
 20
-3.8252177972
 11
-65.5795242077
 21
-3.1321778868
  0
LINE
  5
484
100
AcDbEntity
  8
CURVE
100
AcDbLine
 62
7
  6
CONTINUOUS
 10
-65.1797756763
 20
-2.7324293554
 11
-64.5571696763
 21
-2.1098233554
  0
LINE
  5
485
100
AcDbEntity
  8
CURVE
100
AcDbLine
 62
7
  6
CONTINUOUS
 10
-63.898219168
 20
-1.4508728471
 11
-63.4841706763
 21
-1.0368243554
  0
LINE
  5
486
100
AcDbEntity
  8
CURVE
100
AcDbLine
 62
7
  6
CONTINUOUS
 10
-66.3146084418
 20
-4.2872835489
 11
-65.1746679426
 21
-3.1473430498
  0
LINE
  5
487
100
AcDbEntity
  8
CURVE
100
AcDbLine
 62
7
  6
CONTINUOUS
 10
-64.7597542482
 20
-2.7324293554
 11
-64.1371482482
 21
-2.1098233554
  0
LINE
  5
488
100
AcDbEntity
  8
CURVE
100
AcDbLine
 62
7
  6
CONTINUOUS
 10
-63.898219168
 20
-1.8708942751
 11
-63.4164329583
 21
-1.3891080654
  0
LINE
  5
489
100
AcDbEntity
  8
CURVE
100
AcDbLine
 62
7
  6
CONTINUOUS
 10
-66.3155505788
 20
-4.708247114
 11
-65.833764377
 21
-4.2264609121
  0
LINE
  5
48A
100
AcDbEntity
  8
CURVE
100
AcDbLine
 62
7
  6
CONTINUOUS
 10
-65.3928997781
 20
-3.7855963133
 11
-64.882521076
 21
-3.2752176112
  0
LINE
  5
48B
100
AcDbEntity
  8
CURVE
100
AcDbLine
 62
7
  6
CONTINUOUS
 10
-64.3397328202
 20
-2.7324293554
 11
-63.4164329583
 21
-1.8091294935
  0
LINE
  5
48C
100
AcDbEntity
  8
CURVE
100
AcDbLine
 62
7
  6
CONTINUOUS
 10
-66.3155506454
 20
-5.1282686085
 11
-65.7674483922
 21
-4.5801663554
  0
LINE
  5
48D
100
AcDbEntity
  8
CURVE
100
AcDbLine
 62
7
  6
CONTINUOUS
 10
-65.0972784779
 20
-3.9099964411
 11
-64.6888801228
 21
-3.501598086
  0
LINE
  5
48E
100
AcDbEntity
  8
CURVE
100
AcDbLine
 62
7
  6
CONTINUOUS
 10
-63.9197113922
 20
-2.7324293554
 11
-63.4164329583
 21
-2.2291509215
  0
LINE
  5
48F
100
AcDbEntity
  8
CURVE
100
AcDbLine
 62
7
  6
CONTINUOUS
 10
-65.9700329642
 20
-5.2027723554
 11
-65.3474269642
 21
-4.5801663554
  0
LINE
  5
490
100
AcDbEntity
  8
CURVE
100
AcDbLine
 62
7
  6
CONTINUOUS
 10
-65.0146410174
 20
-4.2473804086
 11
-64.5785714171
 21
-3.8113108083
  0
LINE
  5
491
100
AcDbEntity
  8
CURVE
100
AcDbLine
 62
7
  6
CONTINUOUS
 10
-63.4996899642
 20
-2.7324293554
 11
-63.4164329583
 21
-2.6491723495
  0
LINE
  5
492
100
AcDbEntity
  8
CURVE
100
AcDbLine
 62
253
  6
CONTINUOUS
 10
-57.9164330859
 20
2.7416753766
 11
-57.7307470964
 21
2.9273895737
  0
LINE
  5
493
100
AcDbEntity
  8
CURVE
100
AcDbLine
 62
7
  6
CONTINUOUS
 10
-65.5500115361
 20
-5.2027723554
 11
-64.5372539714
 21
-4.1900147906
  0
LINE
  5
494
100
AcDbEntity
  8
CURVE
100
AcDbLine
 62
7
  6
CONTINUOUS
 10
-65.1299901081
 20
-5.2027723554
 11
-64.5073841081
 21
-4.5801663554
  0
LINE
  5
495
100
AcDbEntity
  8
CURVE
100
AcDbLine
 62
253
  6
CONTINUOUS
 10
-64.4509257698
 20
-15.8585583554
 11
-65.5266960048
 21
-16.1366883554
  0
LINE
  5
496
100
AcDbEntity
  8
CURVE
100
AcDbLine
 62
253
  6
CONTINUOUS
 10
-61.3170725899
 20
-15.7348503554
 11
-60.0174685524
 21
-15.7348503554
  0
LINE
  5
497
100
AcDbEntity
  8
CURVE
100
AcDbLine
 62
253
  6
CONTINUOUS
 10
-60.0174685524
 20
-14.9309103554
 11
-61.3170725899
 21
-14.9309103554
  0
LINE
  5
498
100
AcDbEntity
  8
CURVE
100
AcDbLine
 62
253
  6
CONTINUOUS
 10
-66.2893369913
 20
-14.7651296997
 11
-63.4244341682
 21
-14.7651296997
  0
LINE
  5
499
100
AcDbEntity
  8
CURVE
100
AcDbLine
 62
253
  6
CONTINUOUS
 10
-61.3170725899
 20
-13.7639493554
 11
-60.0174685524
 21
-14.3342833554
  0
LINE
  5
49A
100
AcDbEntity
  8
PORTATASTO
100
AcDbLine
 62
253
  6
CONTINUOUS
 10
-63.3289306776
 20
-31.662106764
 11
-63.3352523777
 21
-30.2094660832
  0
LINE
  5
49B
100
AcDbEntity
  8
CURVE
100
AcDbLine
 62
253
  6
CONTINUOUS
 10
-65.0336011418
 20
-13.8364570311
 11
-65.0336011418
 21
-14.1823636272
  0
LINE
  5
49C
100
AcDbEntity
  8
CURVE
100
AcDbLine
 62
253
  6
CONTINUOUS
 10
-65.0146410174
 20
-4.5801663554
 11
-65.0146410174
 21
-4.2169503554
  0
LINE
  5
49D
100
AcDbEntity
  8
CURVE
100
AcDbLine
 62
253
  6
CONTINUOUS
 10
-64.5588526486
 20
-14.1622937386
 11
-64.5588526486
 21
-13.8377616826
  0
LINE
  5
49E
100
AcDbEntity
  8
CURVE
100
AcDbLine
 62
253
  6
CONTINUOUS
 10
-64.5328548077
 20
-4.3153423554
 11
-64.5328548077
 21
-4.5801663554
  0
LINE
  5
49F
100
AcDbEntity
  8
CURVE
100
AcDbLine
 62
253
  6
CONTINUOUS
 10
-64.5126709573
 20
7.1043066446
 11
-64.5126709573
 21
6.2729286446
  0
LINE
  5
4A0
100
AcDbEntity
  8
CURVE
100
AcDbLine
 62
253
  6
CONTINUOUS
 10
-64.5126709573
 20
1.0793806446
 11
-64.5126709573
 21
0.2478936446
  0
LINE
  5
4A1
100
AcDbEntity
  8
CURVE
100
AcDbLine
 62
253
  6
CONTINUOUS
 10
-64.4509257698
 20
-16.4380623554
 11
-64.4509257698
 21
-15.8585583554
  0
LINE
  5
4A2
100
AcDbEntity
  8
CURVE
100
AcDbLine
 62
253
  6
CONTINUOUS
 10
-64.0308847476
 20
0.0872496446
 11
-64.0308847476
 21
1.2359866446
  0
LINE
  5
4A3
100
AcDbEntity
  8
CURVE
100
AcDbLine
 62
253
  6
CONTINUOUS
 10
-64.0308847476
 20
6.1122836446
 11
-64.0308847476
 21
7.2610216446
  0
LINE
  5
4A4
100
AcDbEntity
  8
CURVE
100
AcDbLine
 62
253
  6
CONTINUOUS
 10
-64.0031322032
 20
-15.7375953554
 11
-64.0031322032
 21
-16.5618743554
  0
LINE
  5
4A5
100
AcDbEntity
  8
CURVE
100
AcDbLine
 62
253
  6
CONTINUOUS
 10
-63.898219168
 20
-2.1098233554
 11
-63.898219168
 21
-1.0368243554
  0
LINE
  5
4A6
100
AcDbEntity
  8
CURVE
100
AcDbLine
 62
253
  6
CONTINUOUS
 10
-63.4244345204
 20
-14.9428663554
 11
-63.4244345204
 21
-15.5807973554
  0
LINE
  5
4A7
100
AcDbEntity
  8
CURVE
100
AcDbLine
 62
253
  6
CONTINUOUS
 10
-63.4244345204
 20
-16.7288913554
 11
-63.4244345204
 21
-17.3275953554
  0
LINE
  5
4A8
100
AcDbEntity
  8
CURVE
100
AcDbLine
 62
253
  6
CONTINUOUS
 10
-63.4244345204
 20
-17.4226393554
 11
-63.4244345204
 21
-18.0147553554
  0
LINE
  5
4A9
100
AcDbEntity
  8
CURVE
100
AcDbLine
 62
253
  6
CONTINUOUS
 10
-63.4244345204
 20
-18.8587783554
 11
-63.4244345204
 21
-18.9436673554
  0
LINE
  5
4AA
100
AcDbEntity
  8
CURVE
100
AcDbLine
 62
253
  6
CONTINUOUS
 10
-63.4244345204
 20
-19.7843413554
 11
-63.4244345204
 21
-20.3633893554
  0
LINE
  5
4AB
100
AcDbEntity
  8
CURVE
100
AcDbLine
 62
253
  6
CONTINUOUS
 10
-63.4244345204
 20
-21.2944973554
 11
-63.4244345204
 21
-20.6892263554
  0
LINE
  5
4AC
100
AcDbEntity
  8
CURVE
100
AcDbLine
 62
253
  6
CONTINUOUS
 10
-63.4244345204
 20
-22.4511793554
 11
-63.4244345204
 21
-22.9845753554
  0
LINE
  5
4AD
100
AcDbEntity
  8
CURVE
100
AcDbLine
 62
253
  6
CONTINUOUS
 10
-63.4244341682
 20
-14.7651296997
 11
-63.4244341682
 21
-14.1622937386
  0
LINE
  5
4AE
100
AcDbEntity
  8
CURVE
100
AcDbLine
 62
253
  6
CONTINUOUS
 10
-63.4244341682
 20
-13.2354040937
 11
-63.4244341682
 21
-12.6532033702
  0
LINE
  5
4AF
100
AcDbEntity
  8
CURVE
100
AcDbLine
 62
253
  6
CONTINUOUS
 10
-63.4164329583
 20
5.0076356446
 11
-63.4164329583
 21
4.1239836446
  0
LINE
  5
4B0
100
AcDbEntity
  8
CURVE
100
AcDbLine
 62
253
  6
CONTINUOUS
 10
-63.4164329583
 20
2.9712076446
 11
-63.4164329583
 21
2.3887626446
  0
LINE
  5
4B1
100
AcDbEntity
  8
CURVE
100
AcDbLine
 62
253
  6
CONTINUOUS
 10
-63.4164329583
 20
-1.0368243554
 11
-63.4164329583
 21
-2.7324293554
  0
LINE
  5
4B2
100
AcDbEntity
  8
CURVE
100
AcDbLine
 62
253
  6
CONTINUOUS
 10
-63.4164329583
 20
-5.2027723554
 11
-63.4164329583
 21
-4.5801663554
  0
LINE
  5
4B3
100
AcDbEntity
  8
CURVE
100
AcDbLine
 62
253
  6
CONTINUOUS
 10
-63.4164329583
 20
-0.7240483554
 11
-63.4164329583
 21
-0.1295983554
  0
LINE
  5
4B4
100
AcDbEntity
  8
CURVE
100
AcDbLine
 62
253
  6
CONTINUOUS
 10
-63.4164329583
 20
1.4448686446
 11
-63.4164329583
 21
2.0715116446
  0
LINE
  5
4B5
100
AcDbEntity
  8
CURVE
100
AcDbLine
 62
253
  6
CONTINUOUS
 10
-63.4164329583
 20
5.3008776446
 11
-63.4164329583
 21
5.8953266446
  0
LINE
  5
4B6
100
AcDbEntity
  8
CURVE
100
AcDbLine
 62
253
  6
CONTINUOUS
 10
-63.4164329583
 20
7.4700116446
 11
-63.4164329583
 21
8.0964376446
  0
LINE
  5
4B7
100
AcDbEntity
  8
PORTATASTO
100
AcDbLine
 62
7
  6
CONTINUOUS
 10
-63.4147577326
 20
15.5871267349
 11
-63.4147577326
 21
14.9057485543
  0
LINE
  5
4B8
100
AcDbEntity
  8
PORTATASTO
100
AcDbLine
 62
7
  6
CONTINUOUS
 10
-63.4147577326
 20
-30.7128732651
 11
-63.4147577326
 21
-31.3942514457
  0
LINE
  5
4B9
100
AcDbEntity
  8
PORTATASTO
100
AcDbLine
 62
253
  6
CONTINUOUS
 10
-63.3352523777
 20
14.4023413724
 11
-63.3289306776
 21
15.8549820533
  0
LINE
  5
4BA
100
AcDbEntity
  8
CURVE
100
AcDbLine
 62
7
  6
CONTINUOUS
 10
-64.7099686801
 20
-5.2027723554
 11
-64.0873626801
 21
-4.5801663554
  0
LINE
  5
4BB
100
AcDbEntity
  8
CURVE
100
AcDbLine
 62
7
  6
CONTINUOUS
 10
-64.2899472521
 20
-5.2027723554
 11
-63.6673412521
 21
-4.5801663554
  0
LINE
  5
4BC
100
AcDbEntity
  8
CURVE
100
AcDbLine
 62
7
  6
CONTINUOUS
 10
-63.869925824
 20
-5.2027723554
 11
-63.4164329583
 21
-4.7492794896
  0
LINE
  5
4BD
100
AcDbEntity
  8
CURVE
100
AcDbLine
 62
253
  6
CONTINUOUS
 10
-57.9164330859
 20
0.698817968
 11
-57.7307470964
 21
0.8845327851
  0
LINE
  5
4BE
100
AcDbEntity
  8
CURVE
100
AcDbLine
 62
7
  6
CONTINUOUS
 10
-63.449904396
 20
-5.2027723554
 11
-63.4164329583
 21
-5.1693009177
  0
LINE
  5
4BF
100
AcDbEntity
  8
CURVE
100
AcDbLine
 62
253
  6
CONTINUOUS
 10
-57.1736890893
 20
0.5131037709
 11
-56.6166310822
 21
0.8845327851
  0
LINE
  5
4C0
100
AcDbEntity
  8
CURVE
100
AcDbLine
 62
253
  6
CONTINUOUS
 10
-63.4244345204
 20
-15.5807973554
 11
-64.0031322032
 21
-15.7375953554
  0
LINE
  5
4C1
100
AcDbEntity
  8
CURVE
100
AcDbLine
 62
253
  6
CONTINUOUS
 10
-65.0336011418
 20
-14.1823636272
 11
-65.8293700446
 21
-14.1823636272
  0
LINE
  5
4C2
100
AcDbEntity
  8
CURVE
100
AcDbLine
 62
253
  6
CONTINUOUS
 10
-63.4244341682
 20
-14.1622937386
 11
-64.5588526486
 21
-14.1622937386
  0
LINE
  5
4C3
100
AcDbEntity
  8
CURVE
100
AcDbLine
 62
253
  6
CONTINUOUS
 10
-64.777554324
 20
-13.2090066454
 11
-64.7946835279
 21
-13.2090066454
  0
LINE
  5
4C4
100
AcDbEntity
  8
CURVE
100
AcDbLine
 62
253
  6
CONTINUOUS
 10
-61.3170725899
 20
-12.9446443554
 11
-60.0174685524
 21
-12.9446443554
  0
LINE
  5
4C5
100
AcDbEntity
  8
PORTATASTO
100
AcDbLine
 62
7
  6
CONTINUOUS
 10
-62.9147577326
 20
-31.1695281239
 11
-62.9147577326
 21
-30.2070197169
  0
LINE
  5
4C6
100
AcDbEntity
  8
PORTATASTO
100
AcDbLine
 62
7
  6
CONTINUOUS
 10
-62.9147577326
 20
14.3998950061
 11
-62.9147577326
 21
15.3624034132
  0
LINE
  5
4C7
100
AcDbEntity
  8
CORPO
100
AcDbLine
 62
7
  6
CONTINUOUS
 10
-62.8147577326
 20
-28.6470864593
 11
-62.8147577326
 21
-27.2042378495
  0
LINE
  5
4C8
100
AcDbEntity
  8
ASSI
100
AcDbLine
 62
7
  6
CONTINUOUS
 10
-62.8147577326
 20
-28.6470864593
 11
-62.8147577326
 21
-27.2042378495
  0
LINE
  5
4C9
100
AcDbEntity
  8
CORPO
100
AcDbLine
 62
7
  6
CONTINUOUS
 10
-62.8147577326
 20
11.3971131388
 11
-62.8147577326
 21
12.8399617486
  0
LINE
  5
4CA
100
AcDbEntity
  8
ASSI
100
AcDbLine
 62
7
  6
CONTINUOUS
 10
-62.8147577326
 20
11.3971131388
 11
-62.8147577326
 21
12.8399617486
  0
LINE
  5
4CB
100
AcDbEntity
  8
CURVE
100
AcDbLine
 62
253
  6
CONTINUOUS
 10
-61.5263048101
 20
7.5535800215
 11
-61.5263048101
 21
7.6892942425
  0
LINE
  5
4CC
100
AcDbEntity
  8
CURVE
100
AcDbLine
 62
253
  6
CONTINUOUS
 10
-61.3170725899
 20
-18.9098203554
 11
-61.3170725899
 21
-19.8568073554
  0
LINE
  5
4CD
100
AcDbEntity
  8
CURVE
100
AcDbLine
 62
253
  6
CONTINUOUS
 10
-61.3170725899
 20
-20.7433193554
 11
-61.3170725899
 21
-21.1731553554
  0
LINE
  5
4CE
100
AcDbEntity
  8
CURVE
100
AcDbLine
 62
253
  6
CONTINUOUS
 10
-61.3170725899
 20
-15.4587073554
 11
-61.3170725899
 21
-14.4031153554
  0
LINE
  5
4CF
100
AcDbEntity
  8
CURVE
100
AcDbLine
 62
253
  6
CONTINUOUS
 10
-56.9880030998
 20
-2.1797533277
 11
-57.545061107
 21
-2.8297531727
  0
LINE
  5
4D0
100
AcDbEntity
  8
CURVE
100
AcDbLine
 62
253
  6
CONTINUOUS
 10
-57.9164330859
 20
-2.2726104263
 11
-57.8235900524
 21
-2.1797533277
  0
LINE
  5
4D1
100
AcDbEntity
  8
CURVE
100
AcDbLine
 62
253
  6
CONTINUOUS
 10
-56.7094740866
 20
-2.8297531727
 11
-56.6166310822
 21
-2.7368960741
  0
LINE
  5
4D2
100
AcDbEntity
  8
CURVE
100
AcDbLine
 62
253
  6
CONTINUOUS
 10
-57.9164330859
 20
-5.0583246234
 11
-57.1736890893
 21
-4.6868960354
  0
LINE
  5
4D3
100
AcDbEntity
  8
CURVE
100
AcDbLine
 62
253
  6
CONTINUOUS
 10
-57.9164330859
 20
-3.5726102713
 11
-56.6166310822
 21
-3.201181722
  0
LINE
  5
4D4
100
AcDbEntity
  8
CURVE
100
AcDbLine
 62
253
  6
CONTINUOUS
 10
-60.0174685524
 20
-11.5599583554
 11
-60.5203503347
 21
-11.5599583554
  0
LINE
  5
4D5
100
AcDbEntity
  8
CURVE
100
AcDbLine
 62
253
  6
CONTINUOUS
 10
-60.5203503347
 20
-11.5599583554
 11
-61.3170725899
 21
-11.0842193554
  0
LINE
  5
4D6
100
AcDbEntity
  8
CURVE
100
AcDbLine
 62
253
  6
CONTINUOUS
 10
-60.6672705711
 20
-19.8568073554
 11
-60.6672705711
 21
-18.9762163554
  0
LINE
  5
4D7
100
AcDbEntity
  8
CURVE
100
AcDbLine
 62
253
  6
CONTINUOUS
 10
-60.489165836
 20
-14.1272783554
 11
-60.489165836
 21
-13.4006213554
  0
LINE
  5
4D8
100
AcDbEntity
  8
CURVE
100
AcDbLine
 62
253
  6
CONTINUOUS
 10
-60.4817271024
 20
-22.2802643554
 11
-60.4817271024
 21
-21.5470793554
  0
LINE
  5
4D9
100
AcDbEntity
  8
CURVE
100
AcDbLine
 62
253
  6
CONTINUOUS
 10
-60.0336750406
 20
6.6035800215
 11
-60.0336750406
 21
5.6535800215
  0
LINE
  5
4DA
100
AcDbEntity
  8
CURVE
100
AcDbLine
 62
253
  6
CONTINUOUS
 10
-60.0336750406
 20
4.0250084635
 11
-60.0336750406
 21
3.0750085768
  0
LINE
  5
4DB
100
AcDbEntity
  8
CURVE
100
AcDbLine
 62
253
  6
CONTINUOUS
 10
-60.0174685524
 20
-21.1731553554
 11
-60.0174685524
 21
-20.7433193554
  0
LINE
  5
4DC
100
AcDbEntity
  8
CURVE
100
AcDbLine
 62
253
  6
CONTINUOUS
 10
-60.0174685524
 20
-19.8568073554
 11
-60.0174685524
 21
-18.8971303554
  0
LINE
  5
4DD
100
AcDbEntity
  8
CURVE
100
AcDbLine
 62
253
  6
CONTINUOUS
 10
-60.0174685524
 20
-12.9446443554
 11
-60.0174685524
 21
-12.1977103554
  0
LINE
  5
4DE
100
AcDbEntity
  8
CURVE
100
AcDbLine
 62
253
  6
CONTINUOUS
 10
-59.6265941893
 20
7.6892942425
 11
-59.6265941893
 21
7.5535800215
  0
LINE
  5
4DF
100
AcDbEntity
  8
PORTATASTO
100
AcDbLine
 62
253
  6
CONTINUOUS
 10
-59.4060315294
 20
-29.3572977825
 11
-59.4060315294
 21
-28.8952706196
  0
LINE
  5
4E0
100
AcDbEntity
  8
PORTATASTO
100
AcDbLine
 62
253
  6
CONTINUOUS
 10
-59.4060315294
 20
13.0881459089
 11
-59.4060315294
 21
13.5501730718
  0
LINE
  5
4E1
100
AcDbEntity
  8
CORPO
100
AcDbLine
 62
7
  6
CONTINUOUS
 10
-58.9147577326
 20
11.7964376446
 11
-58.9147577326
 21
11.6218869954
  0
LINE
  5
4E2
100
AcDbEntity
  8
ASSI
100
AcDbLine
 62
7
  6
CONTINUOUS
 10
-58.9147577326
 20
11.7964376446
 11
-58.9147577326
 21
11.6218869954
  0
LINE
  5
4E3
100
AcDbEntity
  8
PORTATASTO
100
AcDbLine
 62
7
  6
CONTINUOUS
 10
-58.9147577326
 20
-27.6035623554
 11
-58.9147577326
 21
-29.189549304
  0
LINE
  5
4E4
100
AcDbEntity
  8
CORPO
100
AcDbLine
 62
7
  6
CONTINUOUS
 10
-58.9147577326
 20
-27.4290117061
 11
-58.9147577326
 21
-27.6035623554
  0
LINE
  5
4E5
100
AcDbEntity
  8
ASSI
100
AcDbLine
 62
7
  6
CONTINUOUS
 10
-58.9147577326
 20
-27.4290117061
 11
-58.9147577326
 21
-27.6035623554
  0
LINE
  5
4E6
100
AcDbEntity
  8
PORTATASTO
100
AcDbLine
 62
7
  6
CONTINUOUS
 10
-58.9147577326
 20
11.7964376446
 11
-58.9147577326
 21
13.3824245933
  0
LINE
  5
4E7
100
AcDbEntity
  8
CURVE
100
AcDbLine
 62
253
  6
CONTINUOUS
 10
-57.9164330859
 20
-2.6440389756
 11
-57.9164330859
 21
-2.2726104263
  0
LINE
  5
4E8
100
AcDbEntity
  8
CURVE
100
AcDbLine
 62
253
  6
CONTINUOUS
 10
-57.9164330859
 20
-1.8083246234
 11
-57.9164330859
 21
-1.0654675249
  0
LINE
  5
4E9
100
AcDbEntity
  8
CURVE
100
AcDbLine
 62
253
  6
CONTINUOUS
 10
-57.9164330859
 20
-0.6940388206
 11
-57.9164330859
 21
-0.1368959192
  0
LINE
  5
4EA
100
AcDbEntity
  8
CURVE
100
AcDbLine
 62
253
  6
CONTINUOUS
 10
-57.9164330859
 20
0.2345327851
 11
-57.9164330859
 21
0.698817968
  0
LINE
  5
4EB
100
AcDbEntity
  8
CURVE
100
AcDbLine
 62
253
  6
CONTINUOUS
 10
-57.9164330859
 20
2.2773895737
 11
-57.9164330859
 21
2.7416753766
  0
LINE
  5
4EC
100
AcDbEntity
  8
CURVE
100
AcDbLine
 62
253
  6
CONTINUOUS
 10
-57.9164330859
 20
6.5178663251
 11
-57.9164330859
 21
7.0750082966
  0
LINE
  5
4ED
100
AcDbEntity
  8
CURVE
100
AcDbLine
 62
253
  6
CONTINUOUS
 10
-57.9164330859
 20
7.446436691
 11
-57.9164330859
 21
7.9107231137
  0
LINE
  5
4EE
100
AcDbEntity
  8
CURVE
100
AcDbLine
 62
253
  6
CONTINUOUS
 10
-57.3593751175
 20
6.8892947194
 11
-57.3593751175
 21
6.5178663251
  0
LINE
  5
4EF
100
AcDbEntity
  8
CURVE
100
AcDbLine
 62
253
  6
CONTINUOUS
 10
-57.3593751175
 20
-0.3226104263
 11
-57.3593751175
 21
-0.6940388206
  0
LINE
  5
4F0
100
AcDbEntity
  8
CURVE
100
AcDbLine
 62
253
  6
CONTINUOUS
 10
-57.1736890893
 20
7.9107231137
 11
-57.1736890893
 21
7.446436691
  0
LINE
  5
4F1
100
AcDbEntity
  8
CURVE
100
AcDbLine
 62
253
  6
CONTINUOUS
 10
-57.1736890893
 20
0.698817968
 11
-57.1736890893
 21
0.2345327851
  0
LINE
  5
4F2
100
AcDbEntity
  8
CURVE
100
AcDbLine
 62
253
  6
CONTINUOUS
 10
-56.9880030998
 20
-3.8202293816
 11
-56.9880030998
 21
-3.3249912384
  0
LINE
  5
4F3
100
AcDbEntity
  8
CURVE
100
AcDbLine
 62
253
  6
CONTINUOUS
 10
-56.6166310822
 20
2.7416753766
 11
-56.6166310822
 21
2.2773895737
  0
LINE
  5
4F4
100
AcDbEntity
  8
CURVE
100
AcDbLine
 62
253
  6
CONTINUOUS
 10
-56.6166310822
 20
-2.7368960741
 11
-56.6166310822
 21
-2.3654675249
  0
LINE
  5
4F5
100
AcDbEntity
  8
CURVE
100
AcDbLine
 62
253
  6
CONTINUOUS
 10
-56.6166310822
 20
-0.6940388206
 11
-56.6166310822
 21
-0.1368959192
  0
LINE
  5
4F6
100
AcDbEntity
  8
CURVE
100
AcDbLine
 62
253
  6
CONTINUOUS
 10
-56.6166310822
 20
6.5178663251
 11
-56.6166310822
 21
7.0750082966
  0
LINE
  5
4F7
100
AcDbEntity
  8
CURVE
100
AcDbLine
 62
253
  6
CONTINUOUS
 10
-61.3170725899
 20
-12.0356963554
 11
-60.5203503347
 21
-11.5599583554
  0
LINE
  5
4F8
100
AcDbEntity
  8
CURVE
100
AcDbLine
 62
253
  6
CONTINUOUS
 10
-60.0174685524
 20
-13.1936163554
 11
-61.3170725899
 21
-13.7639493554
  0
LINE
  5
4F9
100
AcDbEntity
  8
CURVE
100
AcDbLine
 62
253
  6
CONTINUOUS
 10
-66.3155506572
 20
-5.2027723554
 11
-63.4164329583
 21
-5.2027723554
  0
LINE
  5
4FA
100
AcDbEntity
  8
CURVE
100
AcDbLine
 62
253
  6
CONTINUOUS
 10
-56.6166310822
 20
-5.0583246234
 11
-57.9164330859
 21
-5.0583246234
  0
LINE
  5
4FB
100
AcDbEntity
  8
CURVE
100
AcDbLine
 62
253
  6
CONTINUOUS
 10
-63.4164329583
 20
-4.5801663554
 11
-64.5328548077
 21
-4.5801663554
  0
LINE
  5
4FC
100
AcDbEntity
  8
CURVE
100
AcDbLine
 62
253
  6
CONTINUOUS
 10
-65.0146410174
 20
-4.5801663554
 11
-65.8337644474
 21
-4.5801663554
  0
LINE
  5
4FD
100
AcDbEntity
  8
CURVE
100
AcDbLine
 62
253
  6
CONTINUOUS
 10
-57.9164330859
 20
-4.3154674474
 11
-56.6166310822
 21
-4.3154674474
  0
LINE
  5
4FE
100
AcDbEntity
  8
CURVE
100
AcDbLine
 62
253
  6
CONTINUOUS
 10
-56.6166310822
 20
-3.9440388981
 11
-57.9164330859
 21
-3.5726102713
  0
LINE
  5
4FF
100
AcDbEntity
  8
CURVE
100
AcDbLine
 62
253
  6
CONTINUOUS
 10
-57.1736890893
 20
-4.6868960354
 11
-57.9164330859
 21
-4.3154674474
  0
LINE
  5
500
100
AcDbEntity
  8
CURVE
100
AcDbLine
 62
253
  6
CONTINUOUS
 10
-57.7307470964
 20
-2.8297531727
 11
-57.9164330859
 21
-2.6440389756
  0
LINE
  5
501
100
AcDbEntity
  8
CURVE
100
AcDbLine
 62
253
  6
CONTINUOUS
 10
-60.0174685524
 20
-16.6283813554
 11
-61.3170725899
 21
-17.6605063554
  0
LINE
  5
502
100
AcDbEntity
  8
CURVE
100
AcDbLine
 62
253
  6
CONTINUOUS
 10
-66.3232043252
 20
-15.8325523554
 11
-63.4244345204
 21
-14.9428663554
  0
LINE
  5
503
100
AcDbEntity
  8
CURVE
100
AcDbLine
 62
253
  6
CONTINUOUS
 10
-57.545061107
 20
-2.8297531727
 11
-57.7307470964
 21
-2.8297531727
  0
LINE
  5
504
100
AcDbEntity
  8
CURVE
100
AcDbLine
 62
253
  6
CONTINUOUS
 10
-63.4164329583
 20
-2.7324293554
 11
-66.3155506572
 21
-2.7324293554
  0
LINE
  5
505
100
AcDbEntity
  8
CURVE
100
AcDbLine
 62
253
  6
CONTINUOUS
 10
-56.802317091
 20
-2.1797533277
 11
-56.9880030998
 21
-2.1797533277
  0
LINE
  5
506
100
AcDbEntity
  8
CURVE
100
AcDbLine
 62
253
  6
CONTINUOUS
 10
-66.3155506572
 20
-2.1098233554
 11
-63.898219168
 21
-2.1098233554
  0
LINE
  5
507
100
AcDbEntity
  8
CURVE
100
AcDbLine
 62
253
  6
CONTINUOUS
 10
-56.6166310822
 20
-1.4368959192
 11
-57.9164330859
 21
-1.4368959192
  0
LINE
  5
508
100
AcDbEntity
  8
CURVE
100
AcDbLine
 62
253
  6
CONTINUOUS
 10
-63.898219168
 20
-1.0368243554
 11
-63.4164329583
 21
-1.0368243554
  0
LINE
  5
509
100
AcDbEntity
  8
CURVE
100
AcDbLine
 62
253
  6
CONTINUOUS
 10
-64.5126709573
 20
0.2478936446
 11
-65.7615594468
 21
0.6779086446
  0
LINE
  5
50A
100
AcDbEntity
  8
CURVE
100
AcDbLine
 62
253
  6
CONTINUOUS
 10
-63.4164329583
 20
-0.1295983554
 11
-64.0308847476
 21
0.0872496446
  0
LINE
  5
50B
100
AcDbEntity
  8
CURVE
100
AcDbLine
 62
253
  6
CONTINUOUS
 10
-66.3155506572
 20
0.3242866446
 11
-63.4164329583
 21
-0.7240483554
  0
LINE
  5
50C
100
AcDbEntity
  8
CURVE
100
AcDbLine
 62
253
  6
CONTINUOUS
 10
-60.9835303794
 20
1.9892942425
 11
-61.5263048101
 21
2.5321514097
  0
LINE
  5
50D
100
AcDbEntity
  8
CURVE
100
AcDbLine
 62
253
  6
CONTINUOUS
 10
-56.6166310822
 20
-2.3654675249
 11
-56.802317091
 21
-2.1797533277
  0
LINE
  5
50E
100
AcDbEntity
  8
CORPO
100
AcDbLine
 62
7
  6
CONTINUOUS
 10
-49.9147577326
 20
11.1719428012
 11
-49.9147577326
 21
11.464791411
  0
LINE
  5
50F
100
AcDbEntity
  8
ASSI
100
AcDbLine
 62
7
  6
CONTINUOUS
 10
-49.9147577326
 20
11.1719428012
 11
-49.9147577326
 21
11.464791411
  0
LINE
  5
510
100
AcDbEntity
  8
CURVE
100
AcDbLine
 62
253
  6
CONTINUOUS
 10
-63.4244345204
 20
-18.9436673554
 11
-65.3172768105
 21
-19.6537243554
  0
LINE
  5
511
100
AcDbEntity
  8
CURVE
100
AcDbLine
 62
253
  6
CONTINUOUS
 10
-66.3232043252
 20
-19.4967963554
 11
-64.7137986778
 21
-18.8979173554
  0
LINE
  5
512
100
AcDbEntity
  8
CURVE
100
AcDbLine
 62
253
  6
CONTINUOUS
 10
-56.6166310822
 20
-0.6940388206
 11
-57.9164330859
 21
-0.6940388206
  0
LINE
  5
513
100
AcDbEntity
  8
CURVE
100
AcDbLine
 62
253
  6
CONTINUOUS
 10
-56.6166310822
 20
0.2345327851
 11
-57.9164330859
 21
0.2345327851
  0
LINE
  5
514
100
AcDbEntity
  8
CURVE
100
AcDbLine
 62
253
  6
CONTINUOUS
 10
-57.7307470964
 20
0.8845327851
 11
-57.3593751175
 21
0.8845327851
  0
LINE
  5
515
100
AcDbEntity
  8
CURVE
100
AcDbLine
 62
253
  6
CONTINUOUS
 10
-57.3593751175
 20
0.8845327851
 11
-57.1736890893
 21
0.698817968
  0
LINE
  5
516
100
AcDbEntity
  8
CURVE
100
AcDbLine
 62
253
  6
CONTINUOUS
 10
-60.9835303794
 20
4.567865574
 11
-61.5263048101
 21
5.110722911
  0
LINE
  5
517
100
AcDbEntity
  8
CURVE
100
AcDbLine
 62
253
  6
CONTINUOUS
 10
-61.2549175947
 20
7.2821515795
 11
-61.5263048101
 21
7.5535800215
  0
LINE
  5
518
100
AcDbEntity
  8
CURVE
100
AcDbLine
 62
253
  6
CONTINUOUS
 10
-56.6166310822
 20
2.2773895737
 11
-57.9164330859
 21
2.2773895737
  0
LINE
  5
519
100
AcDbEntity
  8
CURVE
100
AcDbLine
 62
253
  6
CONTINUOUS
 10
-63.4164329583
 20
2.3887626446
 11
-66.3155506572
 21
2.3887626446
  0
LINE
  5
51A
100
AcDbEntity
  8
CURVE
100
AcDbLine
 62
253
  6
CONTINUOUS
 10
-61.5263048101
 20
2.5321514097
 11
-59.6265941893
 21
2.5321514097
  0
LINE
  5
51B
100
AcDbEntity
  8
CURVE
100
AcDbLine
 62
253
  6
CONTINUOUS
 10
-57.7307470964
 20
2.9273895737
 11
-56.802317091
 21
2.9273895737
  0
LINE
  5
51C
100
AcDbEntity
  8
CURVE
100
AcDbLine
 62
253
  6
CONTINUOUS
 10
-65.8427976952
 20
2.9712076446
 11
-63.4164329583
 21
2.9712076446
  0
LINE
  5
51D
100
AcDbEntity
  8
CURVE
100
AcDbLine
 62
253
  6
CONTINUOUS
 10
-60.0336750406
 20
3.0750085768
 11
-61.5263048101
 21
3.482151353
  0
LINE
  5
51E
100
AcDbEntity
  8
CURVE
100
AcDbLine
 62
253
  6
CONTINUOUS
 10
-66.3155506572
 20
6.3493216446
 11
-63.4164329583
 21
5.3008776446
  0
LINE
  5
51F
100
AcDbEntity
  8
CURVE
100
AcDbLine
 62
253
  6
CONTINUOUS
 10
-56.802317091
 20
2.9273895737
 11
-56.6166310822
 21
2.7416753766
  0
LINE
  5
520
100
AcDbEntity
  8
CURVE
100
AcDbLine
 62
253
  6
CONTINUOUS
 10
-59.897981433
 20
7.9607226845
 11
-59.6265941893
 21
7.6892942425
  0
LINE
  5
521
100
AcDbEntity
  8
CORPO
100
AcDbLine
 62
7
  6
CONTINUOUS
 10
-47.0147577326
 20
8.4671252737
 11
-47.0147577326
 21
11.2058319934
  0
LINE
  5
522
100
AcDbEntity
  8
ASSI
100
AcDbLine
 62
7
  6
CONTINUOUS
 10
-47.0147577326
 20
8.4671252737
 11
-47.0147577326
 21
11.2058319934
  0
LINE
  5
523
100
AcDbEntity
  8
RACCORDO
100
AcDbLine
 62
7
  6
CONTINUOUS
 10
-45.5513394362
 20
10.7840221101
 11
-45.5713028834
 21
8.4964376446
  0
LINE
  5
524
100
AcDbEntity
  8
PORTATASTO
100
AcDbLine
 62
7
  6
CONTINUOUS
 10
-73.2897577326
 20
-31.6313935717
 11
-72.5397577326
 21
-31.1983808698
  0
LINE
  5
525
100
AcDbEntity
  8
CURVE
100
AcDbLine
 62
253
  6
CONTINUOUS
 10
-60.0174685524
 20
-23.2806933554
 11
-61.3170725899
 21
-23.9035623554
  0
LINE
  5
526
100
AcDbEntity
  8
CURVE
100
AcDbLine
 62
253
  6
CONTINUOUS
 10
-60.0174685524
 20
-21.3433383554
 11
-61.3170725899
 21
-21.9136723554
  0
LINE
  5
527
100
AcDbEntity
  8
CURVE
100
AcDbLine
 62
253
  6
CONTINUOUS
 10
-63.4244345204
 20
-22.9845753554
 11
-66.3232043252
 21
-23.9038223554
  0
LINE
  5
528
100
AcDbEntity
  8
CURVE
100
AcDbLine
 62
253
  6
CONTINUOUS
 10
-56.6166310822
 20
3.7011992451
 11
-57.9164330859
 21
3.7011992451
  0
LINE
  5
529
100
AcDbEntity
  8
CURVE
100
AcDbLine
 62
253
  6
CONTINUOUS
 10
-59.6265941893
 20
3.7083418724
 11
-60.5764494997
 21
3.7083418724
  0
LINE
  5
52A
100
AcDbEntity
  8
CURVE
100
AcDbLine
 62
253
  6
CONTINUOUS
 10
-56.6166310822
 20
4.2892947194
 11
-57.9164330859
 21
4.2892947194
  0
LINE
  5
52B
100
AcDbEntity
  8
CURVE
100
AcDbLine
 62
253
  6
CONTINUOUS
 10
-64.0181366316
 20
4.4251916446
 11
-66.3155506572
 21
4.4251916446
  0
LINE
  5
52C
100
AcDbEntity
  8
PORTATASTO
100
AcDbLine
 62
7
  6
CONTINUOUS
 10
-72.4147577326
 20
4.7962396182
 11
-73.4147577326
 21
4.7962396182
  0
LINE
  5
52D
100
AcDbEntity
  8
CURVE
100
AcDbLine
 62
253
  6
CONTINUOUS
 10
-66.3155506572
 20
5.0076356446
 11
-63.4164329583
 21
5.0076356446
  0
LINE
  5
52E
100
AcDbEntity
  8
CURVE
100
AcDbLine
 62
253
  6
CONTINUOUS
 10
-57.9164330859
 20
5.032151508
 11
-56.6166310822
 21
5.032151508
  0
LINE
  5
52F
100
AcDbEntity
  8
CURVE
100
AcDbLine
 62
253
  6
CONTINUOUS
 10
-61.5263048101
 20
5.110722911
 11
-59.6265941893
 21
5.110722911
  0
LINE
  5
530
100
AcDbEntity
  8
CURVE
100
AcDbLine
 62
253
  6
CONTINUOUS
 10
-56.6166310822
 20
5.4035799023
 11
-57.9164330859
 21
5.4035799023
  0
LINE
  5
531
100
AcDbEntity
  8
CURVE
100
AcDbLine
 62
253
  6
CONTINUOUS
 10
-60.0336750406
 20
5.6535800215
 11
-61.5263048101
 21
6.0607226845
  0
LINE
  5
532
100
AcDbEntity
  8
CURVE
100
AcDbLine
 62
253
  6
CONTINUOUS
 10
-64.5126709573
 20
6.2729286446
 11
-65.7613954968
 21
6.7028866446
  0
LINE
  5
533
100
AcDbEntity
  8
CURVE
100
AcDbLine
 62
253
  6
CONTINUOUS
 10
-63.4164329583
 20
5.8953266446
 11
-64.0308847476
 21
6.1122836446
  0
LINE
  5
534
100
AcDbEntity
  8
CURVE
100
AcDbLine
 62
253
  6
CONTINUOUS
 10
-57.1736890893
 20
4.6607231137
 11
-57.9164330859
 21
5.032151508
  0
LINE
  5
535
100
AcDbEntity
  8
CURVE
100
AcDbLine
 62
253
  6
CONTINUOUS
 10
-60.9835303794
 20
7.1464369055
 11
-61.2549175947
 21
7.2821515795
  0
LINE
  5
536
100
AcDbEntity
  8
CURVE
100
AcDbLine
 62
253
  6
CONTINUOUS
 10
-57.1736890893
 20
5.7750082966
 11
-57.9164330859
 21
6.146436691
  0
LINE
  5
537
100
AcDbEntity
  8
PORTATASTO
100
AcDbLine
 62
7
  6
CONTINUOUS
 10
-72.5397577326
 20
15.3912561591
 11
-73.2897577326
 21
15.824268861
  0
LINE
  5
538
100
AcDbEntity
  8
CURVE
100
AcDbLine
 62
253
  6
CONTINUOUS
 10
-57.3593751175
 20
8.096436691
 11
-57.1736890893
 21
7.9107231137
  0
LINE
  5
539
100
AcDbEntity
  8
RACCORDO
100
AcDbLine
 62
253
  6
CONTINUOUS
 10
-45.0557185861
 20
9.2801157221
 11
-45.062557641
 21
8.4964376446
  0
LINE
  5
53A
100
AcDbEntity
  8
RACCORDO
100
AcDbLine
 62
7
  6
CONTINUOUS
 10
-44.0713028834
 20
8.4964376446
 11
-44.0717828204
 21
8.4414423208
  0
LINE
  5
53B
100
AcDbEntity
  8
PORTATASTO
100
AcDbLine
 62
253
  6
CONTINUOUS
 10
-73.1660667236
 20
-31.8478999227
 11
-72.4160667236
 21
-31.4148872208
  0
LINE
  5
53C
100
AcDbEntity
  8
CURVE
100
AcDbLine
 62
253
  6
CONTINUOUS
 10
-57.9164330859
 20
6.146436691
 11
-56.6166310822
 21
6.146436691
  0
LINE
  5
53D
100
AcDbEntity
  8
DRAFT
100
AcDbLine
 62
7
  6
CONTINUOUS
 10
-37.3881407858
 20
6.1964376446
 11
-37.4147577326
 21
6.1964376446
  0
LINE
  5
53E
100
AcDbEntity
  8
CURVE
100
AcDbLine
 62
253
  6
CONTINUOUS
 10
-59.6265941893
 20
6.2869132039
 11
-60.5764494997
 21
6.2869132039
  0
LINE
  5
53F
100
AcDbEntity
  8
CURVE
100
AcDbLine
 62
253
  6
CONTINUOUS
 10
-56.6166310822
 20
6.5178663251
 11
-57.9164330859
 21
6.5178663251
  0
LINE
  5
540
100
AcDbEntity
  8
CURVE
100
AcDbLine
 62
253
  6
CONTINUOUS
 10
-60.1693686766
 20
7.1464369055
 11
-60.9835303794
 21
7.1464369055
  0
LINE
  5
541
100
AcDbEntity
  8
PORTATASTO
100
AcDbLine
 62
7
  6
CONTINUOUS
 10
-72.4147577326
 20
7.3966356711
 11
-73.4147577326
 21
7.3966356711
  0
LINE
  5
542
100
AcDbEntity
  8
CURVE
100
AcDbLine
 62
253
  6
CONTINUOUS
 10
-56.6166310822
 20
7.446436691
 11
-57.9164330859
 21
7.446436691
  0
LINE
  5
543
100
AcDbEntity
  8
CURVE
100
AcDbLine
 62
253
  6
CONTINUOUS
 10
-60.1693686766
 20
8.0964369055
 11
-59.897981433
 21
7.9607226845
  0
LINE
  5
544
100
AcDbEntity
  8
PORTATASTO
100
AcDbLine
 62
253
  6
CONTINUOUS
 10
-72.4160667236
 20
15.60776251
 11
-73.1660667236
 21
16.0407752119
  0
LINE
  5
545
100
AcDbEntity
  8
PORTATASTO
100
AcDbLine
 62
253
  6
CONTINUOUS
 10
-72.4147577326
 20
8.9965404471
 11
-73.4147577326
 21
8.9703545256
  0
LINE
  5
546
100
AcDbEntity
  8
PORTATASTO
100
AcDbLine
 62
7
  6
CONTINUOUS
 10
-72.4147577326
 20
9.2964376446
 11
-73.4147577326
 21
9.2702517231
  0
LINE
  5
547
100
AcDbEntity
  8
PORTATASTO
100
AcDbLine
 62
7
  6
CONTINUOUS
 10
-73.4147577326
 20
9.3353449174
 11
-72.4157412412
 21
9.3527828151
  0
LINE
  5
548
100
AcDbEntity
  8
RACCORDO
100
AcDbLine
 62
253
  6
CONTINUOUS
 10
-38.3966229417
 20
9.1638807753
 11
-37.414113425
 21
9.1726073108
  0
LINE
  5
549
100
AcDbEntity
  8
CURVE
100
AcDbLine
 62
253
  6
CONTINUOUS
 10
-60.9835303794
 20
8.0964369055
 11
-60.1693686766
 21
8.0964369055
  0
LINE
  5
54A
100
AcDbEntity
  8
CURVE
100
AcDbLine
 62
253
  6
CONTINUOUS
 10
-57.7307470964
 20
8.096436691
 11
-57.3593751175
 21
8.096436691
  0
LINE
  5
54B
100
AcDbEntity
  8
RACCORDO
100
AcDbLine
 62
7
  6
CONTINUOUS
 10
-37.4082125818
 20
8.4964376446
 11
-45.5713028834
 21
8.4964376446
  0
LINE
  5
54C
100
AcDbEntity
  8
DRAFT
100
AcDbLine
 62
7
  6
CONTINUOUS
 10
-46.4987323288
 20
8.7464376446
 11
-45.5691211665
 21
8.7464376446
  0
LINE
  5
54D
100
AcDbEntity
  8
CORPO
100
AcDbLine
 62
253
  6
CONTINUOUS
 10
-47.0147577326
 20
9.6097969641
 11
-68.9147577326
 21
9.7681366934
  0
LINE
  5
54E
100
AcDbEntity
  8
ASSI
100
AcDbLine
 62
253
  6
CONTINUOUS
 10
-47.0147577326
 20
9.6097969641
 11
-68.9147577326
 21
9.7681366934
  0
LINE
  5
54F
100
AcDbEntity
  8
RACCORDO
100
AcDbLine
 62
253
  6
CONTINUOUS
 10
-45.0557185861
 20
9.2801157221
 11
-45.5644257508
 21
9.2844789899
  0
LINE
  5
550
100
AcDbEntity
  8
CORPO
100
AcDbLine
 62
7
  6
CONTINUOUS
 10
-37.4147577326
 20
8.3833473429
 11
-47.0147577326
 21
8.4671252737
  0
LINE
  5
551
100
AcDbEntity
  8
ASSI
100
AcDbLine
 62
7
  6
CONTINUOUS
 10
-37.4147577326
 20
8.3833473429
 11
-47.0147577326
 21
8.4671252737
  0
LINE
  5
552
100
AcDbEntity
  8
RACCORDO
100
AcDbLine
 62
253
  6
CONTINUOUS
 10
-45.0557185861
 20
9.2801157221
 11
-38.3966229417
 21
9.1638807753
  0
LINE
  5
553
100
AcDbEntity
  8
PORTATASTO
100
AcDbLine
 62
7
  6
CONTINUOUS
 10
-70.9147577326
 20
10.5964376446
 11
-68.9147577326
 21
10.2437836832
  0
LINE
  5
554
100
AcDbEntity
  8
CORPO
100
AcDbLine
 62
253
  6
CONTINUOUS
 10
-58.7551765009
 20
-27.4262262053
 11
-58.9147577326
 21
-27.4843090236
  0
LINE
  5
555
100
AcDbEntity
  8
ASSI
100
AcDbLine
 62
253
  6
CONTINUOUS
 10
-58.7551765009
 20
-27.4262262053
 11
-58.9147577326
 21
-27.4843090236
  0
LINE
  5
556
100
AcDbEntity
  8
CORPO
100
AcDbLine
 62
7
  6
CONTINUOUS
 10
-57.8338507986
 20
-27.4101444054
 11
-58.9147577326
 21
-27.8035623554
  0
LINE
  5
557
100
AcDbEntity
  8
ASSI
100
AcDbLine
 62
7
  6
CONTINUOUS
 10
-57.8338507986
 20
-27.4101444054
 11
-58.9147577326
 21
-27.8035623554
  0
LINE
  5
558
100
AcDbEntity
  8
PORTATASTO
100
AcDbLine
 62
7
  6
CONTINUOUS
 10
-73.4147577326
 20
10.1042934211
 11
-72.4147577326
 21
10.1304793427
  0
LINE
  5
559
100
AcDbEntity
  8
PORTATASTO
100
AcDbLine
 62
253
  6
CONTINUOUS
 10
-73.4147577326
 20
11.7703545256
 11
-72.4147577326
 21
11.7965404471
  0
LINE
  5
55A
100
AcDbEntity
  8
PORTATASTO
100
AcDbLine
 62
7
  6
CONTINUOUS
 10
-69.9147577326
 20
10.6551645124
 11
-68.9147577326
 21
10.6638913802
  0
LINE
  5
55B
100
AcDbEntity
  8
PORTATASTO
100
AcDbLine
 62
7
  6
CONTINUOUS
 10
-69.9147577326
 20
11.5964376446
 11
-68.9147577326
 21
11.5964376446
  0
LINE
  5
55C
100
AcDbEntity
  8
PORTATASTO
100
AcDbLine
 62
7
  6
CONTINUOUS
 10
-58.9147577326
 20
11.7964376446
 11
-62.8147577326
 21
11.7964376446
  0
LINE
  5
55D
100
AcDbEntity
  8
PORTATASTO
100
AcDbLine
 62
7
  6
CONTINUOUS
 10
-68.9147577326
 20
11.7964376446
 11
-69.9147577326
 21
11.7964376446
  0
LINE
  5
55E
100
AcDbEntity
  8
CORPO
100
AcDbLine
 62
253
  6
CONTINUOUS
 10
-47.0147577326
 20
11.0237951349
 11
-68.9147577326
 21
11.1821348642
  0
LINE
  5
55F
100
AcDbEntity
  8
ASSI
100
AcDbLine
 62
253
  6
CONTINUOUS
 10
-47.0147577326
 20
11.0237951349
 11
-68.9147577326
 21
11.1821348642
  0
LINE
  5
560
100
AcDbEntity
  8
CORPO
100
AcDbLine
 62
253
  6
CONTINUOUS
 10
-62.8147577326
 20
11.3971131388
 11
-49.9147577326
 21
11.1719428012
  0
LINE
  5
561
100
AcDbEntity
  8
ASSI
100
AcDbLine
 62
253
  6
CONTINUOUS
 10
-62.8147577326
 20
11.3971131388
 11
-49.9147577326
 21
11.1719428012
  0
LINE
  5
562
100
AcDbEntity
  8
RACCORDO
100
AcDbLine
 62
7
  6
CONTINUOUS
 10
-45.0426322715
 20
11.27958269
 11
-38.4053498097
 21
11.1637284937
  0
LINE
  5
563
100
AcDbEntity
  8
CORPO
100
AcDbLine
 62
7
  6
CONTINUOUS
 10
-38.3973053262
 20
11.2637535314
 11
-62.8147577326
 21
11.6899617486
  0
LINE
  5
564
100
AcDbEntity
  8
ASSI
100
AcDbLine
 62
7
  6
CONTINUOUS
 10
-38.3973053262
 20
11.2637535314
 11
-62.8147577326
 21
11.6899617486
  0
LINE
  5
565
100
AcDbEntity
  8
CORPO
100
AcDbLine
 62
7
  6
CONTINUOUS
 10
-49.9147577326
 20
11.2774190431
 11
-47.0147577326
 21
11.2058319934
  0
LINE
  5
566
100
AcDbEntity
  8
ASSI
100
AcDbLine
 62
7
  6
CONTINUOUS
 10
-49.9147577326
 20
11.2774190431
 11
-47.0147577326
 21
11.2058319934
  0
LINE
  5
567
100
AcDbEntity
  8
ASSI
100
AcDbLine
 62
253
  6
CONTINUOUS
 10
-79.5122304327
 20
12.4686594616
 11
-79.9987259207
 21
12.4890520758
  0
LINE
  5
568
100
AcDbEntity
  8
RACCORDO
100
AcDbLine
 62
253
  6
CONTINUOUS
 10
-79.5122304327
 20
12.4686594616
 11
-79.9987259207
 21
12.4890520758
  0
LINE
  5
569
100
AcDbEntity
  8
CORPO
100
AcDbLine
 62
253
  6
CONTINUOUS
 10
-58.9147577326
 20
11.6771843129
 11
-58.7551765009
 21
11.6191014946
  0
LINE
  5
56A
100
AcDbEntity
  8
ASSI
100
AcDbLine
 62
253
  6
CONTINUOUS
 10
-58.9147577326
 20
11.6771843129
 11
-58.7551765009
 21
11.6191014946
  0
LINE
  5
56B
100
AcDbEntity
  8
CORPO
100
AcDbLine
 62
7
  6
CONTINUOUS
 10
-58.9147577326
 20
11.9964376446
 11
-57.8338507986
 21
11.6030196946
  0
LINE
  5
56C
100
AcDbEntity
  8
ASSI
100
AcDbLine
 62
7
  6
CONTINUOUS
 10
-58.9147577326
 20
11.9964376446
 11
-57.8338507986
 21
11.6030196946
  0
LINE
  5
56D
100
AcDbEntity
  8
DRAFT
100
AcDbLine
 62
7
  6
CONTINUOUS
 10
-38.90733933
 20
8.3963729052
 11
-38.9082125818
 21
8.4964376446
  0
LINE
  5
56E
100
AcDbEntity
  8
RACCORDO
100
AcDbLine
 62
253
  6
CONTINUOUS
 10
-38.3907982537
 20
8.4964376446
 11
-38.3966229417
 21
9.1638807753
  0
LINE
  5
56F
100
AcDbEntity
  8
DRAFT
100
AcDbLine
 62
7
  6
CONTINUOUS
 10
-37.3881407858
 20
6.1964376446
 11
-37.4082125818
 21
8.4964376446
  0
LINE
  5
570
100
AcDbEntity
  8
RACCORDO
100
AcDbLine
 62
7
  6
CONTINUOUS
 10
-37.4082125818
 20
8.4964376446
 11
-37.422840293
 21
10.172607334
  0
LINE
  5
571
100
AcDbEntity
  8
CORPO
100
AcDbLine
 62
253
  6
CONTINUOUS
 10
-38.3973053262
 20
8.3919219059
 11
-38.3973053262
 21
-25.3546164199
  0
LINE
  5
572
100
AcDbEntity
  8
ASSI
100
AcDbLine
 62
253
  6
CONTINUOUS
 10
-38.3973053262
 20
8.3919219059
 11
-38.3973053262
 21
-25.3546164199
  0
LINE
  5
573
100
AcDbEntity
  8
CORPO
100
AcDbLine
 62
253
  6
CONTINUOUS
 10
-38.3973053262
 20
-26.7686145907
 11
-38.3973053262
 21
-26.7780296324
  0
LINE
  5
574
100
AcDbEntity
  8
ASSI
100
AcDbLine
 62
253
  6
CONTINUOUS
 10
-38.3973053262
 20
-26.7686145907
 11
-38.3973053262
 21
-26.7780296324
  0
LINE
  5
575
100
AcDbEntity
  8
CORPO
100
AcDbLine
 62
7
  6
CONTINUOUS
 10
-37.4147577326
 20
10.2639058363
 11
-37.4147577326
 21
9.2464376446
  0
LINE
  5
576
100
AcDbEntity
  8
ASSI
100
AcDbLine
 62
7
  6
CONTINUOUS
 10
-37.4147577326
 20
10.2639058363
 11
-37.4147577326
 21
9.2464376446
  0
LINE
  5
577
100
AcDbEntity
  8
CORPO
100
AcDbLine
 62
7
  6
CONTINUOUS
 10
-37.4147577326
 20
8.3833473429
 11
-37.4147577326
 21
-26.071030547
  0
LINE
  5
578
100
AcDbEntity
  8
ASSI
100
AcDbLine
 62
7
  6
CONTINUOUS
 10
-37.4147577326
 20
8.3833473429
 11
-37.4147577326
 21
-26.071030547
  0
LINE
  5
579
100
AcDbEntity
  8
PORTATASTO
100
AcDbLine
 62
7
  6
CONTINUOUS
 10
-73.4147577326
 20
12.0702517231
 11
-72.4147577326
 21
12.0964376446
  0
LINE
  5
57A
100
AcDbEntity
  8
PORTATASTO
100
AcDbLine
 62
7
  6
CONTINUOUS
 10
-58.9147577326
 20
13.0924331903
 11
-69.9147577326
 21
12.9964376446
  0
LINE
  5
57B
100
AcDbEntity
  8
PORTATASTO
100
AcDbLine
 62
7
  6
CONTINUOUS
 10
-59.4060315294
 20
13.5501730718
 11
-69.9147577326
 21
13.4964376446
  0
LINE
  5
57C
100
AcDbEntity
  8
PORTATASTO
100
AcDbLine
 62
253
  6
CONTINUOUS
 10
-69.9147577326
 20
13.9406367379
 11
-70.9147577326
 21
13.9464545677
  0
LINE
  5
57D
100
AcDbEntity
  8
PORTATASTO
100
AcDbLine
 62
7
  6
CONTINUOUS
 10
-59.9089400012
 20
14.3824076701
 11
-70.9147577326
 21
14.4464376446
  0
LINE
  5
57E
100
AcDbEntity
  8
CORPO
100
AcDbLine
 62
7
  6
CONTINUOUS
 10
-62.8147577326
 20
12.8399617486
 11
-68.9147577326
 21
12.9464376446
  0
LINE
  5
57F
100
AcDbEntity
  8
ASSI
100
AcDbLine
 62
7
  6
CONTINUOUS
 10
-62.8147577326
 20
12.8399617486
 11
-68.9147577326
 21
12.9464376446
  0
LINE
  5
580
100
AcDbEntity
  8
0
100
AcDbLine
 62
7
  6
CONTINUOUS
 10
-47.0147577326
 20
9.0443650504
 11
-46.4987323288
 21
8.7464376446
  0
LINE
  5
581
100
AcDbEntity
  8
CORPO
100
AcDbLine
 62
7
  6
CONTINUOUS
 10
-49.7898745003
 20
11.2743362769
 11
-49.9147577326
 21
11.3464376446
  0
LINE
  5
582
100
AcDbEntity
  8
ASSI
100
AcDbLine
 62
7
  6
CONTINUOUS
 10
-49.7898745003
 20
11.2743362769
 11
-49.9147577326
 21
11.3464376446
  0
LINE
  5
583
100
AcDbEntity
  8
ASSI
100
AcDbLine
 62
253
  6
CONTINUOUS
 10
-73.4147577326
 20
13.6964374095
 11
-78.5653984526
 21
13.4265037675
  0
LINE
  5
584
100
AcDbEntity
  8
RACCORDO
100
AcDbLine
 62
253
  6
CONTINUOUS
 10
-73.4147577326
 20
13.6964374095
 11
-78.5653984526
 21
13.4265037675
  0
LINE
  5
585
100
AcDbEntity
  8
PORTATASTO
100
AcDbLine
 62
253
  6
CONTINUOUS
 10
-70.9147577326
 20
13.9462087926
 11
-72.4147577326
 21
13.8675971236
  0
LINE
  5
586
100
AcDbEntity
  8
ASSI
100
AcDbLine
 62
7
  6
CONTINUOUS
 10
-73.4147577326
 20
14.1964376446
 11
-78.5784779566
 21
13.9258185349
  0
LINE
  5
587
100
AcDbEntity
  8
RACCORDO
100
AcDbLine
 62
7
  6
CONTINUOUS
 10
-73.4147577326
 20
14.1964376446
 11
-78.5784779566
 21
13.9258185349
  0
LINE
  5
588
100
AcDbEntity
  8
PORTATASTO
100
AcDbLine
 62
7
  6
CONTINUOUS
 10
-70.9147577326
 20
14.4464376446
 11
-72.4147577326
 21
14.3678259757
  0
LINE
  5
589
100
AcDbEntity
  8
PORTATASTO
100
AcDbLine
 62
253
  6
CONTINUOUS
 10
-73.1660667236
 20
16.3294171019
 11
-69.9147577326
 21
16.3464410716
  0
LINE
  5
58A
100
AcDbEntity
  8
PORTATASTO
100
AcDbLine
 62
253
  6
CONTINUOUS
 10
-72.4147577326
 20
15.1747498081
 11
-72.1660667236
 21
15.1747498082
  0
LINE
  5
58B
100
AcDbEntity
  8
PORTATASTO
100
AcDbLine
 62
253
  6
CONTINUOUS
 10
-73.1660667236
 20
16.0407752119
 11
-73.4147577326
 21
16.0407752119
  0
LINE
  5
58C
100
AcDbEntity
  8
PORTATASTO
100
AcDbLine
 62
253
  6
CONTINUOUS
 10
-73.4147577326
 20
16.3294171019
 11
-73.1660667236
 21
16.3294171019
  0
LINE
  5
58D
100
AcDbEntity
  8
PORTATASTO
100
AcDbLine
 62
7
  6
CONTINUOUS
 10
-69.9147577326
 20
15.8964376446
 11
-63.4095218405
 21
15.8623759979
  0
LINE
  5
58E
100
AcDbEntity
  8
PORTATASTO
100
AcDbLine
 62
7
  6
CONTINUOUS
 10
-73.1660667236
 20
16.579413675
 11
-69.9147577326
 21
16.5964376446
  0
ARC
  5
58F
100
AcDbEntity
  8
ASSI
100
AcDbCircle
 62
253
  6
CONTINUOUS
 10
-22.3680698989
 20
-29.2325224442
 40
0.5003982717
100
AcDbArc
 50
180.1266495907
 51
269.9386308614
  0
ARC
  5
590
100
AcDbEntity
  8
RACCORDO
100
AcDbCircle
 62
253
  6
CONTINUOUS
 10
-22.3680693197
 20
-29.2325415836
 40
0.5003855357
100
AcDbArc
 50
180.1244578409
 51
269.9385621946
  0
ARC
  5
591
100
AcDbEntity
  8
PORTATASTO
100
AcDbCircle
 62
7
  6
CONTINUOUS
 10
-8.1033088328
 20
-31.0535623554
 40
0.5
100
AcDbArc
 50
323.7482894908
 51
35.8579202785
  0
ARC
  5
592
100
AcDbEntity
  8
PORTATASTO
100
AcDbCircle
 62
7
  6
CONTINUOUS
 10
-16.1033088328
 20
-31.0535623554
 40
0.5
100
AcDbArc
 50
144.1420797215
 51
216.2517105092
  0
ARC
  5
593
100
AcDbEntity
  8
PORTATASTO
100
AcDbCircle
 62
7
  6
CONTINUOUS
 10
-22.7033467928
 20
-29.7536116446
 40
0.4999540432
100
AcDbArc
 50
179.9681249369
 51
269.9607325142
  0
ARC
  5
594
100
AcDbEntity
  8
PORTATASTO
100
AcDbCircle
 62
7
  6
CONTINUOUS
 10
-20.6703376365
 20
-32.1365335517
 40
0.2500048342
100
AcDbArc
 50
270.0018932459
 51
359.9981067541
  0
ARC
  5
595
100
AcDbEntity
  8
PORTATASTO
100
AcDbCircle
 62
7
  6
CONTINUOUS
 10
-22.4112800291
 20
-32.1365335517
 40
0.2500048342
100
AcDbArc
 50
180.0018932365
 51
269.9981067635
  0
ARC
  5
596
100
AcDbEntity
  8
PORTATASTO
100
AcDbCircle
 62
7
  6
CONTINUOUS
 10
-3.5362800291
 20
-32.1365335517
 40
0.2500048342
100
AcDbArc
 50
180.0018932365
 51
269.9981067635
  0
ARC
  5
597
100
AcDbEntity
  8
PORTATASTO
100
AcDbCircle
 62
7
  6
CONTINUOUS
 10
-1.7953376365
 20
-32.1365335517
 40
0.2500048342
100
AcDbArc
 50
270.0018932459
 51
359.9981067541
  0
ARC
  5
598
100
AcDbEntity
  8
ASSI
100
AcDbCircle
 62
253
  6
CONTINUOUS
 10
-19127.7094532798
 20
-7.903562354
 40
19105.3765246684
100
AcDbArc
 50
359.9388438664
 51
0.0611561336
  0
ARC
  5
599
100
AcDbEntity
  8
RACCORDO
100
AcDbCircle
 62
253
  6
CONTINUOUS
 10
-19126.8462170348
 20
-7.903562354
 40
19104.5132885917
100
AcDbArc
 50
359.9388411031
 51
0.0611588969
  0
ARC
  5
59A
100
AcDbEntity
  8
ASSI
100
AcDbCircle
 62
253
  6
CONTINUOUS
 10
-19090.0177055961
 20
-7.9035623554
 40
19067.1849483223
100
AcDbArc
 50
359.9387826491
 51
0.0612173509
  0
ARC
  5
59B
100
AcDbEntity
  8
RACCORDO
100
AcDbCircle
 62
253
  6
CONTINUOUS
 10
-19089.1561706139
 20
-7.9035623554
 40
19066.3234135083
100
AcDbArc
 50
359.9387798829
 51
0.0612201171
  0
ARC
  5
59C
100
AcDbEntity
  8
ASSI
100
AcDbCircle
 62
253
  6
CONTINUOUS
 10
-22.3680699103
 20
13.4253977268
 40
0.5003982674
100
AcDbArc
 50
90.0613678104
 51
179.8733496463
  0
ARC
  5
59D
100
AcDbEntity
  8
RACCORDO
100
AcDbCircle
 62
253
  6
CONTINUOUS
 10
-22.3680693084
 20
13.4254168619
 40
0.5003855611
100
AcDbArc
 50
90.0614390669
 51
179.8755409137
  0
ARC
  5
59E
100
AcDbEntity
  8
PORTATASTO
100
AcDbCircle
 62
7
  6
CONTINUOUS
 10
-16.1033088328
 20
15.2464376446
 40
0.5
100
AcDbArc
 50
143.7482894908
 51
215.8579202785
  0
ARC
  5
59F
100
AcDbEntity
  8
PORTATASTO
100
AcDbCircle
 62
7
  6
CONTINUOUS
 10
-8.1033088328
 20
15.2464376446
 40
0.5
100
AcDbArc
 50
324.1420797215
 51
36.2517105092
  0
ARC
  5
5A0
100
AcDbEntity
  8
PORTATASTO
100
AcDbCircle
 62
7
  6
CONTINUOUS
 10
-22.7033470103
 20
13.9464872054
 40
0.499953721
100
AcDbArc
 50
89.996352029
 51
180.0037402902
  0
ARC
  5
5A1
100
AcDbEntity
  8
PORTATASTO
100
AcDbCircle
 62
7
  6
CONTINUOUS
 10
-20.6703376364
 20
16.329408841
 40
0.2500048342
100
AcDbArc
 50
0.0018932365
 51
89.9981067635
  0
ARC
  5
5A2
100
AcDbEntity
  8
PORTATASTO
100
AcDbCircle
 62
7
  6
CONTINUOUS
 10
-22.4112800291
 20
16.3294088409
 40
0.2500048342
100
AcDbArc
 50
90.0018932459
 51
179.9981067541
  0
ARC
  5
5A3
100
AcDbEntity
  8
PORTATASTO
100
AcDbCircle
 62
7
  6
CONTINUOUS
 10
-3.5362800291
 20
16.3294088409
 40
0.2500048342
100
AcDbArc
 50
90.0018932459
 51
179.9981067541
  0
ARC
  5
5A4
100
AcDbEntity
  8
PORTATASTO
100
AcDbCircle
 62
7
  6
CONTINUOUS
 10
-1.7953376364
 20
16.329408841
 40
0.2500048342
100
AcDbArc
 50
0.0018932365
 51
89.9981067635
  0
ARC
  5
5A5
100
AcDbEntity
  8
ASSI
100
AcDbCircle
 62
253
  6
CONTINUOUS
 10
20.6614522182
 20
-29.2325224375
 40
0.5003982858
100
AcDbArc
 50
270.0613708489
 51
359.8733496468
  0
ARC
  5
5A6
100
AcDbEntity
  8
RACCORDO
100
AcDbCircle
 62
253
  6
CONTINUOUS
 10
20.6614516592
 20
-29.2325415837
 40
0.5003855324
100
AcDbArc
 50
270.0614371969
 51
359.8755421666
  0
ARC
  5
5A7
100
AcDbEntity
  8
PORTATASTO
100
AcDbCircle
 62
7
  6
CONTINUOUS
 10
14.3966911672
 20
-31.0535623554
 40
0.5
100
AcDbArc
 50
323.7482894908
 51
35.8579202785
  0
ARC
  5
5A8
100
AcDbEntity
  8
PORTATASTO
100
AcDbCircle
 62
7
  6
CONTINUOUS
 10
6.3966911672
 20
-31.0535623554
 40
0.5
100
AcDbArc
 50
144.1420797215
 51
216.2517105092
  0
ARC
  5
5A9
100
AcDbEntity
  8
PORTATASTO
100
AcDbCircle
 62
7
  6
CONTINUOUS
 10
20.996729373
 20
-29.7536118218
 40
0.499953721
100
AcDbArc
 50
269.9963487893
 51
0.0037294835
  0
ARC
  5
5AA
100
AcDbEntity
  8
PORTATASTO
100
AcDbCircle
 62
7
  6
CONTINUOUS
 10
20.7046623635
 20
-32.1365335517
 40
0.2500048342
100
AcDbArc
 50
270.0018932459
 51
359.9981067541
  0
ARC
  5
5AB
100
AcDbEntity
  8
PORTATASTO
100
AcDbCircle
 62
7
  6
CONTINUOUS
 10
18.9637199709
 20
-32.1365335517
 40
0.2500048342
100
AcDbArc
 50
180.0018932365
 51
269.9981067635
  0
ARC
  5
5AC
100
AcDbEntity
  8
PORTATASTO
100
AcDbCircle
 62
7
  6
CONTINUOUS
 10
0.0887199709
 20
-32.1365335517
 40
0.2500048342
100
AcDbArc
 50
180.0018932365
 51
269.9981067635
  0
ARC
  5
5AD
100
AcDbEntity
  8
PORTATASTO
100
AcDbCircle
 62
7
  6
CONTINUOUS
 10
1.8296623635
 20
-32.1365335517
 40
0.2500048342
100
AcDbArc
 50
270.0018932459
 51
359.9981067541
  0
ARC
  5
5AE
100
AcDbEntity
  8
ASSI
100
AcDbCircle
 62
253
  6
CONTINUOUS
 10
19126.0028356214
 20
-7.903562354
 40
19105.3765246756
100
AcDbArc
 50
179.9388438664
 51
180.0611561336
  0
ARC
  5
5AF
100
AcDbEntity
  8
RACCORDO
100
AcDbCircle
 62
253
  6
CONTINUOUS
 10
19125.138918329
 20
-7.903562354
 40
19104.5126075518
100
AcDbArc
 50
179.9388411009
 51
180.0611588991
  0
ARC
  5
5B0
100
AcDbEntity
  8
ASSI
100
AcDbCircle
 62
253
  6
CONTINUOUS
 10
19088.3110879306
 20
-7.9035623554
 40
19067.1849483223
100
AcDbArc
 50
179.9387826491
 51
180.0612173509
  0
ARC
  5
5B1
100
AcDbEntity
  8
RACCORDO
100
AcDbCircle
 62
253
  6
CONTINUOUS
 10
19087.4488718196
 20
-7.9035623554
 40
19066.32273238
100
AcDbArc
 50
179.9387798807
 51
180.0612201193
  0
ARC
  5
5B2
100
AcDbEntity
  8
ASSI
100
AcDbCircle
 62
253
  6
CONTINUOUS
 10
20.6614522197
 20
13.4253977336
 40
0.5003982818
100
AcDbArc
 50
0.1266495702
 51
89.9386293014
  0
ARC
  5
5B3
100
AcDbEntity
  8
RACCORDO
100
AcDbCircle
 62
253
  6
CONTINUOUS
 10
20.6614516468
 20
13.4254168598
 40
0.5003855623
100
AcDbArc
 50
0.1244593332
 51
89.9385613605
  0
ARC
  5
5B4
100
AcDbEntity
  8
PORTATASTO
100
AcDbCircle
 62
7
  6
CONTINUOUS
 10
6.3966911672
 20
15.2464376446
 40
0.5
100
AcDbArc
 50
143.7482894908
 51
215.8579202785
  0
ARC
  5
5B5
100
AcDbEntity
  8
PORTATASTO
100
AcDbCircle
 62
7
  6
CONTINUOUS
 10
14.3966911672
 20
15.2464376446
 40
0.5
100
AcDbArc
 50
324.1420797215
 51
36.2517105092
  0
ARC
  5
5B6
100
AcDbEntity
  8
PORTATASTO
100
AcDbCircle
 62
7
  6
CONTINUOUS
 10
20.9967291292
 20
13.9464868657
 40
0.4999540432
100
AcDbArc
 50
359.9681327532
 51
89.9607327441
  0
ARC
  5
5B7
100
AcDbEntity
  8
PORTATASTO
100
AcDbCircle
 62
7
  6
CONTINUOUS
 10
20.7046623636
 20
16.329408841
 40
0.2500048342
100
AcDbArc
 50
0.0018932365
 51
89.9981067635
  0
ARC
  5
5B8
100
AcDbEntity
  8
PORTATASTO
100
AcDbCircle
 62
7
  6
CONTINUOUS
 10
18.9637199709
 20
16.3294088409
 40
0.2500048342
100
AcDbArc
 50
90.0018932459
 51
179.9981067541
  0
ARC
  5
5B9
100
AcDbEntity
  8
PORTATASTO
100
AcDbCircle
 62
7
  6
CONTINUOUS
 10
0.0887199709
 20
16.3294088409
 40
0.2500048342
100
AcDbArc
 50
90.0018932459
 51
179.9981067541
  0
ARC
  5
5BA
100
AcDbEntity
  8
PORTATASTO
100
AcDbCircle
 62
7
  6
CONTINUOUS
 10
1.8296623636
 20
16.329408841
 40
0.2500048342
100
AcDbArc
 50
0.0018932365
 51
89.9981067635
  0
ARC
  5
5BB
100
AcDbEntity
  8
CORPO
100
AcDbCircle
 62
253
  6
CONTINUOUS
 10
-204.9675727676
 20
-26.0726999133
 40
166.5717425078
100
AcDbArc
 50
359.7606250951
 51
0.2470002556
  0
ARC
  5
5BC
100
AcDbEntity
  8
ASSI
100
AcDbCircle
 62
253
  6
CONTINUOUS
 10
-204.9675727676
 20
-26.0726999133
 40
166.5717425078
100
AcDbArc
 50
359.7606250951
 51
0.2470002556
  0
ARC
  5
5BD
100
AcDbEntity
  8
PORTATASTO
100
AcDbCircle
 62
7
  6
CONTINUOUS
 10
-59.9147577326
 20
-29.189549304
 40
1.0
100
AcDbArc
 50
270.3333333333
 51
360.0
  0
ARC
  5
5BE
100
AcDbEntity
  8
PORTATASTO
100
AcDbCircle
 62
253
  6
CONTINUOUS
 10
-72.666068374
 20
-30.981873566
 40
0.5000016505
100
AcDbArc
 50
300.000109193
 51
359.9998908069
  0
ARC
  5
5BF
100
AcDbEntity
  8
PORTATASTO
100
AcDbCircle
 62
7
  6
CONTINUOUS
 10
-63.4147577326
 20
-31.1695281239
 40
0.5
100
AcDbArc
 50
270.5999999999
 51
360.0
  0
ARC
  5
5C0
100
AcDbEntity
  8
PORTATASTO
100
AcDbCircle
 62
7
  6
CONTINUOUS
 10
-73.1647577326
 20
-31.8478999227
 40
0.25
100
AcDbArc
 50
120.0
 51
180.0
  0
ARC
  5
5C1
100
AcDbEntity
  8
PORTATASTO
100
AcDbCircle
 62
7
  6
CONTINUOUS
 10
-72.6647577326
 20
-30.9818745189
 40
0.25
100
AcDbArc
 50
299.9999779197
 51
359.9996752656
  0
ARC
  5
5C2
100
AcDbEntity
  8
PORTATASTO
100
AcDbCircle
 62
7
  6
CONTINUOUS
 10
-73.1647577326
 20
-32.1365418127
 40
0.25
100
AcDbArc
 50
180.0
 51
269.7
  0
ARC
  5
5C3
100
AcDbEntity
  8
ASSI
100
AcDbCircle
 62
7
  6
CONTINUOUS
 10
-78.4999740222
 20
-28.2349989435
 40
1.5
100
AcDbArc
 50
182.3374676379
 51
267.0
  0
ARC
  5
5C4
100
AcDbEntity
  8
RACCORDO
100
AcDbCircle
 62
7
  6
CONTINUOUS
 10
-78.4999740222
 20
-28.2349989435
 40
1.5
100
AcDbArc
 50
182.3374676379
 51
267.0
  0
ARC
  5
5C5
100
AcDbEntity
  8
ASSI
100
AcDbCircle
 62
253
  6
CONTINUOUS
 10
-78.5130360047
 20
-28.2349701436
 40
1.00003024
100
AcDbArc
 50
182.3390566099
 51
266.9985706254
  0
ARC
  5
5C6
100
AcDbEntity
  8
RACCORDO
100
AcDbCircle
 62
253
  6
CONTINUOUS
 10
-78.5130602623
 20
-28.2349967351
 40
1.0000023222
100
AcDbArc
 50
182.3375910256
 51
266.9998787986
  0
ARC
  5
5C7
100
AcDbEntity
  8
CORPO
100
AcDbCircle
 62
7
  6
CONTINUOUS
 10
-38.4147577326
 20
-26.071030547
 40
1.0
100
AcDbArc
 50
271.0000000002
 51
360.0
  0
ARC
  5
5C8
100
AcDbEntity
  8
ASSI
100
AcDbCircle
 62
7
  6
CONTINUOUS
 10
-38.4147577326
 20
-26.071030547
 40
1.0
100
AcDbArc
 50
271.0000000002
 51
360.0
  0
ARC
  5
5C9
100
AcDbEntity
  8
CORPO
100
AcDbCircle
 62
253
  6
CONTINUOUS
 10
-37.9137214002
 20
-26.0610754705
 40
0.498971051
100
AcDbArc
 50
352.9228167799
 51
358.8597457188
  0
ARC
  5
5CA
100
AcDbEntity
  8
ASSI
100
AcDbCircle
 62
253
  6
CONTINUOUS
 10
-37.9137214002
 20
-26.0610754705
 40
0.498971051
100
AcDbArc
 50
352.9228167799
 51
358.8597457188
  0
ARC
  5
5CB
100
AcDbEntity
  8
CORPO
100
AcDbCircle
 62
253
  6
CONTINUOUS
 10
-37.8978232893
 20
-26.0616071028
 40
0.4830655567
100
AcDbArc
 50
358.8852651629
 51
359.9990033886
  0
ARC
  5
5CC
100
AcDbEntity
  8
ASSI
100
AcDbCircle
 62
253
  6
CONTINUOUS
 10
-37.8978232893
 20
-26.0616071028
 40
0.4830655567
100
AcDbArc
 50
358.8852651629
 51
359.9990033886
  0
ARC
  5
5CD
100
AcDbEntity
  8
PORTATASTO
100
AcDbCircle
 62
7
  6
CONTINUOUS
 10
-74.6147577326
 20
-27.5458504902
 40
0.3
100
AcDbArc
 50
236.5692914937
 51
268.5
  0
ARC
  5
5CE
100
AcDbEntity
  8
PORTATASTO
100
AcDbCircle
 62
7
  6
CONTINUOUS
 10
-74.9147577326
 20
6.0964376446
 40
2.55
100
AcDbArc
 50
11.2141055086
 51
30.6770237081
  0
ARC
  5
5CF
100
AcDbEntity
  8
PORTATASTO
100
AcDbCircle
 62
7
  6
CONTINUOUS
 10
-74.9147577326
 20
6.0964376446
 40
2.55
100
AcDbArc
 50
329.3229838999
 51
348.7857131917
  0
ARC
  5
5D0
100
AcDbEntity
  8
PORTATASTO
100
AcDbCircle
 62
253
  6
CONTINUOUS
 10
-74.9059792672
 20
6.0964032385
 40
2.049936466
100
AcDbArc
 50
320.6225639774
 51
39.3716752225
  0
ARC
  5
5D1
100
AcDbEntity
  8
ASSI
100
AcDbCircle
 62
7
  6
CONTINUOUS
 10
-78.4999740222
 20
12.4278742327
 40
1.5
100
AcDbArc
 50
93.0
 51
177.6625320585
  0
ARC
  5
5D2
100
AcDbEntity
  8
RACCORDO
100
AcDbCircle
 62
7
  6
CONTINUOUS
 10
-78.4999740222
 20
12.4278742327
 40
1.5
100
AcDbArc
 50
93.0
 51
177.6625320585
  0
ARC
  5
5D3
100
AcDbEntity
  8
ASSI
100
AcDbCircle
 62
253
  6
CONTINUOUS
 10
-78.5130333824
 20
12.4278480996
 40
1.0000302302
100
AcDbArc
 50
93.0015874122
 51
177.6611021799
  0
ARC
  5
5D4
100
AcDbEntity
  8
RACCORDO
100
AcDbCircle
 62
253
  6
CONTINUOUS
 10
-78.513060246
 20
12.4278720082
 40
1.0000023392
100
AcDbArc
 50
93.00012209
 51
177.6624080859
  0
ARC
  5
5D5
100
AcDbEntity
  8
PORTATASTO
100
AcDbCircle
 62
253
  6
CONTINUOUS
 10
-72.6660683736
 20
15.1747488555
 40
0.5000016501
100
AcDbArc
 50
0.0001091677
 51
59.9998908323
  0
ARC
  5
5D6
100
AcDbEntity
  8
PORTATASTO
100
AcDbCircle
 62
7
  6
CONTINUOUS
 10
-73.1647577326
 20
16.0407752119
 40
0.25
100
AcDbArc
 50
180.0
 51
240.0
  0
ARC
  5
5D7
100
AcDbEntity
  8
PORTATASTO
100
AcDbCircle
 62
7
  6
CONTINUOUS
 10
-72.6647577326
 20
15.1747498081
 40
0.25
100
AcDbArc
 50
0.0003243525
 51
60.000019938
  0
ARC
  5
5D8
100
AcDbEntity
  8
PORTATASTO
100
AcDbCircle
 62
7
  6
CONTINUOUS
 10
-73.1647577326
 20
16.3294171019
 40
0.25
100
AcDbArc
 50
90.3
 51
180.0
  0
ARC
  5
5D9
100
AcDbEntity
  8
PORTATASTO
100
AcDbCircle
 62
7
  6
CONTINUOUS
 10
-59.9147577326
 20
13.3824245933
 40
1.0
100
AcDbArc
 50
0.0
 51
89.6666666667
  0
ARC
  5
5DA
100
AcDbEntity
  8
PORTATASTO
100
AcDbCircle
 62
7
  6
CONTINUOUS
 10
-63.4147577326
 20
15.3624034132
 40
0.5
100
AcDbArc
 50
0.0
 51
89.4000000003
  0
ARC
  5
5DB
100
AcDbEntity
  8
RACCORDO
100
AcDbCircle
 62
7
  6
CONTINUOUS
 10
-38.4228022161
 20
10.1638807985
 40
1.0
100
AcDbArc
 50
0.5
 51
89.0
  0
ARC
  5
5DC
100
AcDbEntity
  8
CORPO
100
AcDbCircle
 62
7
  6
CONTINUOUS
 10
-38.4147577326
 20
10.2639058363
 40
1.0
100
AcDbArc
 50
0.0
 51
89.0
  0
ARC
  5
5DD
100
AcDbEntity
  8
ASSI
100
AcDbCircle
 62
7
  6
CONTINUOUS
 10
-38.4147577326
 20
10.2639058363
 40
1.0
100
AcDbArc
 50
0.0
 51
89.0
  0
ARC
  5
5DE
100
AcDbEntity
  8
RACCORDO
100
AcDbCircle
 62
7
  6
CONTINUOUS
 10
-45.0513594508
 20
10.7795469943
 40
0.5
100
AcDbArc
 50
89.0001118259
 51
179.4871826661
  0
ARC
  5
5DF
100
AcDbEntity
  8
ASSI
100
AcDbCircle
 62
7
  6
CONTINUOUS
 10
419.5852422674
 20
-7.9035623554
 40
500.0
100
AcDbArc
 50
177.6625301815
 51
182.3374698176
  0
ARC
  5
5E0
100
AcDbEntity
  8
RACCORDO
100
AcDbCircle
 62
7
  6
CONTINUOUS
 10
419.5852422674
 20
-7.9035623554
 40
500.0
100
AcDbArc
 50
177.6625301815
 51
182.3374698176
  0
ARC
  5
5E1
100
AcDbEntity
  8
RACCORDO
100
AcDbCircle
 62
253
  6
CONTINUOUS
 10
419.5721277971
 20
-7.9035623554
 40
499.4999740255
100
AcDbArc
 50
177.6625300542
 51
182.3374699458
  0
ARC
  5
5E2
100
AcDbEntity
  8
ASSI
100
AcDbCircle
 62
253
  6
CONTINUOUS
 10
419.5716285691
 20
-7.9035623554
 40
499.4994752129
100
AcDbArc
 50
177.6625277187
 51
182.3374722813
  0
SPLINE
  5
5E3
100
AcDbEntity
  8
ASSI
100
AcDbSpline
 62
253
  6
CONTINUOUS
 70
0
 71
3
 72
15
 73
11
 74
9
 42
0.0000001
 43
0.0000001
 44
0.0000000001
 12
-0.0010329935
 22
0.9586577095
 32
0.0
 13
-0.4272502274
 23
0.8581858274
 33
0.0
 40
0.0
 40
0.0
 40
0.0
 40
0.0
 40
0.1885991669
 40
0.3717544498
 40
0.5412810767
 40
0.690559694
 40
0.814764984
 40
0.909912078
 40
0.9722577166
 40
1.0
 40
1.0
 40
1.0
 40
1.0
 10
-22.8436408909
 20
12.4686594616
 30
0.0
 10
-22.8437058315
 20
12.5289268101
 30
0.0
 10
-22.8441152492
 20
12.6477201417
 30
0.0
 10
-22.8455539799
 20
12.820689831
 30
0.0
 10
-22.8478531446
 20
12.9810546025
 30
0.0
 10
-22.8506626243
 20
13.1226619628
 30
0.0
 10
-22.8545996699
 20
13.2402064535
 30
0.0
 10
-22.8575036789
 20
13.3306456867
 30
0.0
 10
-22.8635146552
 20
13.3887119053
 30
0.0
 10
-22.8644835932
 20
13.418567756
 30
0.0
 10
-22.8684345589
 20
13.4265037675
 30
0.0
 11
-22.8436408909
 21
12.4686594616
 31
0.0
 11
-22.8442701902
 21
12.6494605168
 31
0.0
 11
-22.845773053
 21
12.8250374109
 31
0.0
 11
-22.8481046744
 21
12.9875387865
 31
0.0
 11
-22.8511751362
 21
13.1306130237
 31
0.0
 11
-22.8548839078
 21
13.2496256777
 31
0.0
 11
-22.8591145666
 21
13.3407410601
 31
0.0
 11
-22.8637014864
 21
13.4003329499
 31
0.0
 11
-22.8684345589
 21
13.4265037675
 31
0.0
  0
SPLINE
  5
5E4
100
AcDbEntity
  8
ASSI
100
AcDbSpline
 62
253
  6
CONTINUOUS
 70
0
 71
3
 72
14
 73
10
 74
8
 42
0.0000001
 43
0.0000001
 44
0.0000000001
 12
0.2703573381
 22
-0.4217276662
 32
0.0
 13
0.5009461338
 23
-0.0005345647
 33
0.0
 40
0.0
 40
0.0
 40
0.0
 40
0.0
 40
0.0312059755
 40
0.1085145759
 40
0.2288099808
 40
0.3863821568
 40
0.57364025
 40
0.7815329018
 40
1.0
 40
1.0
 40
1.0
 40
1.0
 10
-22.8436408909
 20
-28.2757841723
 30
0.0
 10
-22.8408286361
 20
-28.2801709801
 30
0.0
 10
-22.8188710859
 20
-28.2797983823
 30
0.0
 10
-22.784294656
 20
-28.2864676484
 30
0.0
 10
-22.7232859958
 20
-28.2883983423
 30
0.0
 10
-22.6463994419
 20
-28.2920675302
 30
0.0
 10
-22.5538785897
 20
-28.2941857533
 30
0.0
 10
-22.4515063328
 20
-28.2957649758
 30
0.0
 10
-22.3802923111
 20
-28.2961378581
 30
0.0
 10
-22.3438122284
 20
-28.2961767864
 30
0.0
 11
-22.8436408909
 21
-28.2757841723
 31
0.0
 11
-22.8286595539
 21
-28.2802490662
 31
0.0
 11
-22.7901658225
 21
-28.2844975134
 31
0.0
 11
-22.7300258446
 21
-28.2883234448
 31
0.0
 11
-22.6511562432
 21
-28.2915412856
 31
0.0
 11
-22.5573820681
 21
-28.2939949764
 31
0.0
 11
-22.4532508319
 21
-28.295565531
 31
0.0
 11
-22.3438122284
 21
-28.2961767864
 31
0.0
  0
SPLINE
  5
5E5
100
AcDbEntity
  8
ASSI
100
AcDbSpline
 62
253
  6
CONTINUOUS
 70
0
 71
3
 72
14
 73
10
 74
8
 42
0.0000001
 43
0.0000001
 44
0.0000000001
 12
0.2707110611
 22
0.4215002954
 32
0.0
 13
0.5009457974
 23
0.0005345539
 33
0.0
 40
0.0
 40
0.0
 40
0.0
 40
0.0
 40
0.0312168744
 40
0.1085358628
 40
0.228837919
 40
0.3864112061
 40
0.5736643406
 40
0.7815466429
 40
1.0
 40
1.0
 40
1.0
 40
1.0
 10
-22.8436408903
 20
12.4686594616
 30
0.0
 10
-22.8408239726
 20
12.4730454355
 30
0.0
 10
-22.8188690082
 20
12.4726744935
 30
0.0
 10
-22.7842821513
 20
12.4793418481
 30
0.0
 10
-22.7232736584
 20
12.4812734602
 30
0.0
 10
-22.6463853492
 20
12.4849418795
 30
0.0
 10
-22.553867401
 20
12.4870600218
 30
0.0
 10
-22.4514999056
 20
12.4886389791
 30
0.0
 10
-22.3802899922
 20
12.4890118259
 30
0.0
 10
-22.3438122285
 20
12.4890507509
 30
0.0
 11
-22.8436408903
 21
12.4686594616
 31
0.0
 11
-22.8286538621
 21
12.4731243381
 31
0.0
 11
-22.7901549047
 21
12.4773726332
 31
0.0
 11
-22.7300116124
 21
12.4811983086
 31
0.0
 11
-22.6511414945
 21
12.4844158448
 31
0.0
 11
-22.5573698597
 21
12.4868692448
 31
0.0
 11
-22.4532438753
 21
12.4884395818
 31
0.0
 11
-22.3438122285
 21
12.4890507509
 31
0.0
  0
SPLINE
  5
5E6
100
AcDbEntity
  8
ASSI
100
AcDbSpline
 62
253
  6
CONTINUOUS
 70
0
 71
3
 72
14
 73
10
 74
8
 42
0.0000001
 43
0.0000001
 44
0.0000000001
 12
-0.270357287
 22
0.4217276973
 32
0.0
 13
-0.5009461324
 23
0.0005345647
 33
0.0
 40
0.0
 40
0.0
 40
0.0
 40
0.0
 40
0.0312063516
 40
0.1085154021
 40
0.2288109167
 40
0.3863829574
 40
0.5736408703
 40
0.7815332785
 40
1.0
 40
1.0
 40
1.0
 40
1.0
 10
21.1370232253
 20
12.4686594616
 30
0.0
 10
21.1342109371
 20
12.4730463225
 30
0.0
 10
21.1122532001
 20
12.472673671
 30
0.0
 10
21.077676636
 20
12.4793429721
 30
0.0
 10
21.0166679023
 20
12.4812736497
 30
0.0
 10
20.9397813817
 20
12.484942832
 30
0.0
 10
20.8472606236
 20
12.4870610481
 30
0.0
 10
20.7448885004
 20
12.4886402664
 30
0.0
 10
20.6736745826
 20
12.4890131476
 30
0.0
 10
20.6371945628
 20
12.4890520758
 30
0.0
 11
21.1370232253
 21
12.4686594616
 31
0.0
 11
21.122041701
 21
12.4731243861
 31
0.0
 11
21.0835477431
 21
12.4773728367
 31
0.0
 11
21.0234077098
 21
12.4811987579
 31
0.0
 11
20.944538176
 21
12.4844165882
 31
0.0
 11
20.8507640913
 21
12.4868702722
 31
0.0
 11
20.7466329773
 21
12.4884408224
 31
0.0
 11
20.6371945628
 21
12.4890520758
 31
0.0
  0
SPLINE
  5
5E7
100
AcDbEntity
  8
ASSI
100
AcDbSpline
 62
253
  6
CONTINUOUS
 70
0
 71
3
 72
14
 73
10
 74
8
 42
0.0000001
 43
0.0000001
 44
0.0000000001
 12
-0.2708376911
 22
-0.4214187861
 32
0.0
 13
-0.5009456681
 23
-0.0005346108
 33
0.0
 40
0.0
 40
0.0
 40
0.0
 40
0.0
 40
0.031220341
 40
0.1085426875
 40
0.2288472646
 40
0.3864213092
 40
0.5736728681
 40
0.7815515071
 40
1.0
 40
1.0
 40
1.0
 40
1.0
 10
21.1370232242
 20
-28.2757841723
 30
0.0
 10
21.1342046759
 20
-28.2801697851
 30
0.0
 10
21.112250808
 20
-28.2797994536
 30
0.0
 10
21.0776603204
 20
-28.2864660991
 30
0.0
 10
21.0166518577
 20
-28.2883980332
 30
0.0
 10
20.9397628092
 20
-28.2920661826
 30
0.0
 10
20.8472458008
 20
-28.2941843008
 30
0.0
 10
20.7448799627
 20
-28.295763176
 30
0.0
 10
20.673671505
 20
-28.2961360179
 30
0.0
 10
20.637194563
 20
-28.2961749462
 30
0.0
 11
21.1370232242
 21
-28.2757841723
 31
0.0
 11
21.122034369
 21
-28.2802489842
 31
0.0
 11
21.0835337211
 21
-28.2844972061
 31
0.0
 11
21.0233891733
 21
-28.2883227914
 31
0.0
 11
20.9445186918
 21
-28.2915402239
 31
0.0
 11
20.8507478682
 21
-28.2939935255
 31
0.0
 11
20.7466237449
 21
-28.2955637952
 31
0.0
 11
20.637194563
 21
-28.2961749462
 31
0.0
  0
SPLINE
  5
5E8
100
AcDbEntity
  8
ASSI
100
AcDbSpline
 62
253
  6
CONTINUOUS
 70
0
 71
3
 72
15
 73
11
 74
9
 42
0.0000001
 43
0.0000001
 44
0.0000000001
 12
-0.0010382474
 22
1.4373094781
 32
0.0
 13
-0.4538208289
 23
1.3637838058
 33
0.0
 40
0.0
 40
0.0
 40
0.0
 40
0.0
 40
0.1908579495
 40
0.3736179286
 40
0.5420811787
 40
0.6906933175
 40
0.8145682732
 40
0.90945666
 40
0.9719835848
 40
1.0
 40
1.0
 40
1.0
 40
1.0
 10
-22.3438122283
 20
12.4890520268
 30
0.0
 10
-22.3438782808
 20
12.5804926734
 30
0.0
 10
-22.3442933002
 20
12.7594928572
 30
0.0
 10
-22.3457405959
 20
13.0192075765
 30
0.0
 10
-22.3480432998
 20
13.2586528118
 30
0.0
 10
-22.350815964
 20
13.4699482779
 30
0.0
 10
-22.3548091395
 20
13.645771975
 30
0.0
 10
-22.3575155739
 20
13.7808683348
 30
0.0
 10
-22.3638904466
 20
13.8688598742
 30
0.0
 10
-22.3643677521
 20
13.9130824238
 30
0.0
 10
-22.3686058964
 20
13.9258185349
 30
0.0
 11
-22.3438122283
 21
12.4890520268
 31
0.0
 11
-22.3444543012
 21
12.7633732867
 31
0.0
 11
-22.3459629782
 21
13.026051673
 31
0.0
 11
-22.3482852108
 21
13.268174426
 31
0.0
 11
-22.3513428515
 21
13.4817542317
 31
0.0
 11
-22.3550366703
 21
13.6597626053
 31
0.0
 11
-22.3592429876
 21
13.7960817382
 31
0.0
 11
-22.363820043
 21
13.8858356743
 31
0.0
 11
-22.3686058964
 21
13.9258185349
 31
0.0
  0
SPLINE
  5
5E9
100
AcDbEntity
  8
ASSI
100
AcDbSpline
 62
253
  6
CONTINUOUS
 70
0
 71
3
 72
15
 73
11
 74
9
 42
0.0000001
 43
0.0000001
 44
0.0000000001
 12
-0.4538208347
 22
-1.3637838039
 32
0.0
 13
-0.0010382473
 23
-1.4373094781
 33
0.0
 40
0.0
 40
0.0
 40
0.0
 40
0.0
 40
0.0280164154
 40
0.0905433405
 40
0.1854317275
 40
0.3093066826
 40
0.4579188206
 40
0.6263820702
 40
0.8091420494
 40
1.0
 40
1.0
 40
1.0
 40
1.0
 10
20.6619882308
 20
13.9258185349
 30
0.0
 10
20.6577500865
 20
13.9130824237
 30
0.0
 10
20.6572727811
 20
13.8688598738
 30
0.0
 10
20.6508979083
 20
13.7808683341
 30
0.0
 10
20.6481914739
 20
13.6457719744
 30
0.0
 10
20.6441982984
 20
13.4699482779
 30
0.0
 10
20.6414256343
 20
13.2586528126
 30
0.0
 10
20.6391229304
 20
13.0192075779
 30
0.0
 10
20.6376756346
 20
12.7594928583
 30
0.0
 10
20.6372606153
 20
12.5804926739
 30
0.0
 10
20.6371945627
 20
12.4890520268
 30
0.0
 11
20.6619882308
 21
13.9258185349
 31
0.0
 11
20.6572023774
 21
13.8858356739
 31
0.0
 11
20.652625322
 21
13.7960817374
 31
0.0
 11
20.6484190047
 21
13.6597626044
 31
0.0
 11
20.644725186
 21
13.4817542316
 31
0.0
 11
20.6416675453
 21
13.268174427
 31
0.0
 11
20.6393453126
 21
13.0260516747
 31
0.0
 11
20.6378366357
 21
12.7633732884
 31
0.0
 11
20.6371945627
 21
12.4890520268
 31
0.0
  0
SPLINE
  5
5EA
100
AcDbEntity
  8
ASSI
100
AcDbSpline
 62
253
  6
CONTINUOUS
 70
0
 71
3
 72
15
 73
11
 74
9
 42
0.0000001
 43
0.0000001
 44
0.0000000001
 12
0.4531578764
 22
1.3640043671
 32
0.0
 13
0.0010335002
 23
1.437309607
 33
0.0
 40
0.0
 40
0.0
 40
0.0
 40
0.0
 40
0.0279828434
 40
0.0903260516
 40
0.1848901388
 40
0.3084954743
 40
0.4571315243
 40
0.625895162
 40
0.8090029542
 40
1.0
 40
1.0
 40
1.0
 40
1.0
 10
-22.3686058964
 20
-29.7329432456
 30
0.0
 10
-22.3643790144
 20
-29.7202203387
 30
0.0
 10
-22.3638848548
 20
-29.6761086163
 30
0.0
 10
-22.3575388254
 20
-29.5883701177
 30
0.0
 10
-22.3548251386
 20
-29.4536496681
 30
0.0
 10
-22.3508324286
 20
-29.2780980826
 30
0.0
 10
-22.3480552178
 20
-29.0667766708
 30
0.0
 10
-22.3457448408
 20
-28.8270094278
 30
0.0
 10
-22.3442934063
 20
-28.5669175095
 30
0.0
 10
-22.3438780267
 20
-28.3876840259
 30
0.0
 10
-22.3438122282
 20
-28.2961767296
 30
0.0
 11
-22.3686058964
 21
-29.7329432456
 31
0.0
 11
-22.3638227125
 21
-29.6930086595
 31
0.0
 11
-22.3592553245
 21
-29.6035186236
 31
0.0
 11
-22.3550564453
 21
-29.4676655903
 31
0.0
 11
-22.3513623495
 21
-29.2900448183
 31
0.0
 11
-22.3482990039
 21
-29.0764307044
 31
0.0
 11
-22.3459682785
 21
-28.8338762417
 31
0.0
 11
-22.3444546081
 21
-28.5706979378
 31
0.0
 11
-22.3438122282
 21
-28.2961767296
 31
0.0
  0
SPLINE
  5
5EB
100
AcDbEntity
  8
ASSI
100
AcDbSpline
 62
253
  6
CONTINUOUS
 70
0
 71
3
 72
15
 73
11
 74
9
 42
0.0000001
 43
0.0000001
 44
0.0000000001
 12
0.0010335003
 22
-1.437309607
 32
0.0
 13
0.4531578679
 23
-1.3640043699
 33
0.0
 40
0.0
 40
0.0
 40
0.0
 40
0.0
 40
0.190997045
 40
0.374104837
 40
0.542868475
 40
0.6915045257
 40
0.8151098618
 40
0.9096739491
 40
0.9720171569
 40
1.0
 40
1.0
 40
1.0
 40
1.0
 10
20.6371945627
 20
-28.2961767296
 30
0.0
 10
20.6372603612
 20
-28.3876840255
 30
0.0
 10
20.6376757407
 20
-28.5669175086
 30
0.0
 10
20.6391271752
 20
-28.8270094266
 30
0.0
 10
20.6414375522
 20
-29.06677667
 30
0.0
 10
20.6442147631
 20
-29.2780980825
 30
0.0
 10
20.6482074731
 20
-29.4536496687
 30
0.0
 10
20.6509211599
 20
-29.5883701184
 30
0.0
 10
20.6572671891
 20
-29.6761086168
 30
0.0
 10
20.657761349
 20
-29.7202203388
 30
0.0
 10
20.6619882308
 20
-29.7329432456
 30
0.0
 11
20.6371945627
 21
-28.2961767296
 31
0.0
 11
20.6378369426
 21
-28.5706979366
 31
0.0
 11
20.6393506129
 21
-28.8338762403
 31
0.0
 11
20.6416813384
 21
-29.0764307034
 31
0.0
 11
20.6447446839
 21
-29.2900448183
 31
0.0
 11
20.6484387797
 21
-29.4676655913
 31
0.0
 11
20.6526376589
 21
-29.6035186245
 31
0.0
 11
20.657205047
 21
-29.6930086599
 31
0.0
 11
20.6619882308
 21
-29.7329432456
 31
0.0
  0
SPLINE
  5
5EC
100
AcDbEntity
  8
ASSI
100
AcDbSpline
 62
253
  6
CONTINUOUS
 70
0
 71
3
 72
15
 73
11
 74
9
 42
0.0000001
 43
0.0000001
 44
0.0000000001
 12
0.0010294684
 22
-0.9586577181
 32
0.0
 13
0.4263389065
 23
-0.8586389329
 33
0.0
 40
0.0
 40
0.0
 40
0.0
 40
0.0
 40
0.1887627282
 40
0.372141242
 40
0.5417537792
 40
0.6909654693
 40
0.8150955496
 40
0.9100825131
 40
0.972289675
 40
1.0
 40
1.0
 40
1.0
 40
1.0
 10
21.1370232253
 20
-28.2757841723
 30
0.0
 10
21.1370880004
 20
-28.3361037877
 30
0.0
 10
21.1374980845
 20
-28.4550207294
 30
0.0
 10
21.1389395874
 20
-28.6281414237
 30
0.0
 10
21.1412423174
 20
-28.7885836871
 30
0.0
 10
21.1440554246
 20
-28.9301725319
 30
0.0
 10
21.147990079
 20
-29.0476218901
 30
0.0
 10
21.1509017099
 20
-29.1379372863
 30
0.0
 10
21.1568924662
 20
-29.195906964
 30
0.0
 10
21.1578788967
 20
-29.2256974236
 30
0.0
 10
21.1618168933
 20
-29.2336284782
 30
0.0
 11
21.1370232253
 21
-28.2757841723
 31
0.0
 11
21.1376532727
 21
-28.4567420261
 31
0.0
 11
21.1391595488
 21
-28.6325329019
 31
0.0
 11
21.1414951689
 21
-28.795116588
 31
0.0
 11
21.1445675339
 21
-28.9381266099
 31
0.0
 11
21.1482780023
 21
-29.0570670763
 31
0.0
 11
21.1525065526
 21
-29.1480288809
 31
0.0
 11
21.1570879162
 21
-29.2074880541
 31
0.0
 11
21.1618168933
 21
-29.2336284782
 31
0.0
  0
SPLINE
  5
5ED
100
AcDbEntity
  8
ASSI
100
AcDbSpline
 62
253
  6
CONTINUOUS
 70
0
 71
3
 72
15
 73
11
 74
9
 42
0.0000001
 43
0.0000001
 44
0.0000000001
 12
-0.4272502386
 22
-0.8581858218
 32
0.0
 13
-0.0010329934
 23
-0.9586577095
 33
0.0
 40
0.0
 40
0.0
 40
0.0
 40
0.0
 40
0.0277422837
 40
0.0900879227
 40
0.1852350165
 40
0.309440306
 40
0.4587189226
 40
0.6282455493
 40
0.8114008321
 40
1.0
 40
1.0
 40
1.0
 40
1.0
 10
21.1618168933
 20
13.4265037675
 30
0.0
 10
21.1578659275
 20
13.418567756
 30
0.0
 10
21.1568969897
 20
13.3887119049
 30
0.0
 10
21.1508860132
 20
13.3306456863
 30
0.0
 10
21.1479820044
 20
13.2402064531
 30
0.0
 10
21.1440449587
 20
13.1226619628
 30
0.0
 10
21.1412354791
 20
12.981054603
 30
0.0
 10
21.1389363143
 20
12.8206898318
 30
0.0
 10
21.1374975836
 20
12.6477201423
 30
0.0
 10
21.1370881659
 20
12.5289268104
 30
0.0
 10
21.1370232253
 20
12.4686594616
 30
0.0
 11
21.1618168933
 21
13.4265037675
 31
0.0
 11
21.1570838208
 21
13.4003329496
 31
0.0
 11
21.152496901
 21
13.3407410594
 31
0.0
 11
21.1482662422
 21
13.2496256773
 31
0.0
 11
21.1445574707
 21
13.1306130237
 31
0.0
 11
21.1414870089
 21
12.9875387872
 31
0.0
 11
21.1391553875
 21
12.8250374118
 31
0.0
 11
21.1376525247
 21
12.6494605177
 31
0.0
 11
21.1370232253
 21
12.4686594616
 31
0.0
  0
SPLINE
  5
5EE
100
AcDbEntity
  8
ASSI
100
AcDbSpline
 62
253
  6
CONTINUOUS
 70
0
 71
3
 72
15
 73
11
 74
9
 42
0.0000001
 43
0.0000001
 44
0.0000000001
 12
0.4263389156
 22
0.8586389283
 32
0.0
 13
0.0010294684
 23
0.9586577181
 33
0.0
 40
0.0
 40
0.0
 40
0.0
 40
0.0
 40
0.0277103252
 40
0.0899174876
 40
0.184904451
 40
0.309034531
 40
0.4582462204
 40
0.627858757
 40
0.8112372708
 40
1.0
 40
1.0
 40
1.0
 40
1.0
 10
-22.8684345589
 20
-29.2336284782
 30
0.0
 10
-22.8644965622
 20
-29.2256974236
 30
0.0
 10
-22.8635101319
 20
-29.1959069637
 30
0.0
 10
-22.8575193754
 20
-29.1379372858
 30
0.0
 10
-22.8546077445
 20
-29.0476218896
 30
0.0
 10
-22.8506730902
 20
-28.9301725318
 30
0.0
 10
-22.847859983
 20
-28.7885836875
 30
0.0
 10
-22.845557253
 20
-28.6281414244
 30
0.0
 10
-22.8441157501
 20
-28.45502073
 30
0.0
 10
-22.843705666
 20
-28.3361037881
 30
0.0
 10
-22.8436408909
 20
-28.2757841723
 30
0.0
 11
-22.8684345589
 21
-29.2336284782
 31
0.0
 11
-22.8637055817
 21
-29.2074880539
 31
0.0
 11
-22.8591242181
 21
-29.1480288803
 31
0.0
 11
-22.8548956678
 21
-29.0570670757
 31
0.0
 11
-22.8511851995
 21
-28.9381266097
 31
0.0
 11
-22.8481128344
 21
-28.7951165884
 31
0.0
 11
-22.8457772144
 21
-28.6325329028
 31
0.0
 11
-22.8442709383
 21
-28.4567420271
 31
0.0
 11
-22.8436408909
 21
-28.2757841723
 31
0.0
  0
SPLINE
  5
5EF
100
AcDbEntity
  8
RACCORDO
100
AcDbSpline
 62
253
  6
CONTINUOUS
 70
0
 71
3
 72
11
 73
7
 74
5
 42
0.0000001
 43
0.0000001
 44
0.0000000001
 12
0.2702760989
 22
-0.421600942
 32
0.0
 13
0.5007956054
 23
-0.0005344041
 33
0.0
 40
0.0
 40
0.0
 40
0.0
 40
0.0
 40
0.0847312255
 40
0.3031723635
 40
0.6239498673
 40
1.0
 40
1.0
 40
1.0
 40
1.0
 10
-22.8436408909
 20
-28.2757841723
 30
0.0
 10
-22.8360072825
 20
-28.2876917605
 30
0.0
 10
-22.7724187355
 20
-28.277448285
 30
0.0
 10
-22.6796393713
 20
-28.295923635
 30
0.0
 10
-22.5213530029
 20
-28.2932947133
 30
0.0
 10
-22.4065869797
 20
-28.2961097988
 30
0.0
 10
-22.3438122284
 20
-28.2961767864
 30
0.0
 11
-22.8436408909
 21
-28.2757841723
 31
0.0
 11
-22.8019092174
 21
-28.2834673434
 31
0.0
 11
-22.6927111578
 21
-28.2900189728
 31
0.0
 11
-22.5321288927
 21
-28.2944741672
 31
0.0
 11
-22.3438122284
 21
-28.2961767864
 31
0.0
  0
SPLINE
  5
5F0
100
AcDbEntity
  8
RACCORDO
100
AcDbSpline
 62
253
  6
CONTINUOUS
 70
0
 71
3
 72
11
 73
7
 74
5
 42
0.0000001
 43
0.0000001
 44
0.0000000001
 12
0.2706297859
 22
0.4213737288
 32
0.0
 13
0.5007953822
 23
0.000534363
 33
0.0
 40
0.0
 40
0.0
 40
0.0
 40
0.0
 40
0.0847441618
 40
0.3031884202
 40
0.6239604106
 40
1.0
 40
1.0
 40
1.0
 40
1.0
 10
-22.8436408903
 20
12.4686594616
 30
0.0
 10
-22.8359961255
 20
12.4805624494
 30
0.0
 10
-22.7724256031
 20
12.4703289901
 30
0.0
 10
-22.6796258837
 20
12.488794273
 30
0.0
 10
-22.5213511571
 20
12.4861702296
 30
0.0
 10
-22.4065851918
 20
12.4889837704
 30
0.0
 10
-22.3438122285
 20
12.4890507509
 30
0.0
 11
-22.8436408903
 21
12.4686594616
 31
0.0
 11
-22.8019025729
 21
12.4763422206
 31
0.0
 11
-22.6927029705
 21
12.4828934139
 31
0.0
 11
-22.5321235299
 21
12.4873482705
 31
0.0
 11
-22.3438122285
 21
12.4890507509
 31
0.0
  0
SPLINE
  5
5F1
100
AcDbEntity
  8
RACCORDO
100
AcDbSpline
 62
253
  6
CONTINUOUS
 70
0
 71
3
 72
11
 73
7
 74
5
 42
0.0000001
 43
0.0000001
 44
0.0000000001
 12
-0.2702760486
 22
0.4216009743
 32
0.0
 13
-0.5007956054
 23
0.0005344041
 33
0.0
 40
0.0
 40
0.0
 40
0.0
 40
0.0
 40
0.0847312236
 40
0.3031723612
 40
0.6239498658
 40
1.0
 40
1.0
 40
1.0
 40
1.0
 10
21.1370232253
 20
12.4686594616
 30
0.0
 10
21.1293896186
 20
12.4805670504
 30
0.0
 10
21.065801069
 20
12.4703235734
 30
0.0
 10
20.9730217077
 20
12.4887989249
 30
0.0
 10
20.8147353377
 20
12.4861700025
 30
0.0
 10
20.6999693144
 20
12.4889850882
 30
0.0
 10
20.6371945628
 20
12.4890520758
 30
0.0
 11
21.1370232253
 21
12.4686594616
 31
0.0
 11
21.0952915528
 21
12.4763426327
 31
0.0
 11
20.9860934934
 21
12.4828942622
 31
0.0
 11
20.8255112279
 21
12.4873494566
 31
0.0
 11
20.6371945628
 21
12.4890520758
 31
0.0
  0
SPLINE
  5
5F2
100
AcDbEntity
  8
RACCORDO
100
AcDbSpline
 62
253
  6
CONTINUOUS
 70
0
 71
3
 72
11
 73
7
 74
5
 42
0.0000001
 43
0.0000001
 44
0.0000000001
 12
-0.2707563922
 22
-0.4212922829
 32
0.0
 13
-0.5007952935
 23
-0.0005344242
 33
0.0
 40
0.0
 40
0.0
 40
0.0
 40
0.0
 40
0.0847487376
 40
0.3031941038
 40
0.6239641436
 40
1.0
 40
1.0
 40
1.0
 40
1.0
 10
21.1370232242
 20
-28.2757841723
 30
0.0
 10
21.1293744701
 20
-28.287685502
 30
0.0
 10
21.0658104015
 20
-28.2774555586
 30
0.0
 10
20.9730034154
 20
-28.2959172651
 30
0.0
 10
20.814732843
 20
-28.2932949517
 30
0.0
 10
20.699966892
 20
-28.2961079586
 30
0.0
 10
20.637194563
 20
-28.2961749462
 30
0.0
 11
21.1370232242
 21
-28.2757841723
 31
0.0
 11
21.0952825494
 21
-28.2834667414
 31
0.0
 11
20.9860824
 21
-28.2900177564
 31
0.0
 11
20.8255039617
 21
-28.2944724945
 31
0.0
 11
20.637194563
 21
-28.2961749462
 31
0.0
  0
SPLINE
  5
5F3
100
AcDbEntity
  8
RACCORDO
100
AcDbSpline
 62
253
  6
CONTINUOUS
 70
0
 71
3
 72
13
 73
9
 74
7
 42
0.0000001
 43
0.0000001
 44
0.0000000001
 12
-0.0010382295
 22
1.4372847521
 32
0.0
 13
-0.4538130218
 23
1.3637603447
 33
0.0
 40
0.0
 40
0.0
 40
0.0
 40
0.0
 40
0.2529134557
 40
0.4880097564
 40
0.6911126089
 40
0.8499719013
 40
0.9550158826
 40
1.0
 40
1.0
 40
1.0
 40
1.0
 10
-22.3438122283
 20
12.4890520268
 30
0.0
 10
-22.3438997557
 20
12.6102215779
 30
0.0
 10
-22.3446375768
 20
12.8440003507
 30
0.0
 10
-22.3467222407
 20
13.1751994729
 30
0.0
 10
-22.3514006229
 20
13.4609390206
 30
0.0
 10
-22.3534439572
 20
13.6853692704
 30
0.0
 10
-22.3635942319
 20
13.8318062955
 30
0.0
 10
-22.3618011036
 20
13.9053693497
 30
0.0
 10
-22.3686058964
 20
13.9258185349
 30
0.0
 11
-22.3438122283
 21
12.4890520268
 31
0.0
 11
-22.3448617135
 21
12.85255926
 31
0.0
 11
-22.3474266098
 21
13.1904499417
 31
0.0
 11
-22.351352949
 21
13.4823402446
 31
0.0
 11
-22.3564033903
 21
13.7106104797
 31
0.0
 11
-22.362271968
 21
13.8614745316
 31
0.0
 11
-22.3686058964
 21
13.9258185349
 31
0.0
  0
SPLINE
  5
5F4
100
AcDbEntity
  8
RACCORDO
100
AcDbSpline
 62
253
  6
CONTINUOUS
 70
0
 71
3
 72
13
 73
9
 74
7
 42
0.0000001
 43
0.0000001
 44
0.0000000001
 12
-0.4538130276
 22
-1.3637603427
 32
0.0
 13
-0.0010382295
 23
-1.4372847521
 33
0.0
 40
0.0
 40
0.0
 40
0.0
 40
0.0
 40
0.0449841174
 40
0.1500280987
 40
0.3088873911
 40
0.5119902436
 40
0.7470865443
 40
1.0
 40
1.0
 40
1.0
 40
1.0
 10
20.6619882308
 20
13.9258185349
 30
0.0
 10
20.655183438
 20
13.9053693497
 30
0.0
 10
20.6569765665
 20
13.8318062954
 30
0.0
 10
20.6468262915
 20
13.6853692704
 30
0.0
 10
20.6447829573
 20
13.4609390206
 30
0.0
 10
20.6401045751
 20
13.1751994729
 30
0.0
 10
20.6380199112
 20
12.8440003507
 30
0.0
 10
20.6372820901
 20
12.6102215779
 30
0.0
 10
20.6371945627
 20
12.4890520268
 30
0.0
 11
20.6619882308
 21
13.9258185349
 31
0.0
 11
20.6556543025
 21
13.8614745316
 31
0.0
 11
20.6497857247
 21
13.7106104797
 31
0.0
 11
20.6447352835
 21
13.4823402446
 31
0.0
 11
20.6408089443
 21
13.1904499417
 31
0.0
 11
20.6382440479
 21
12.85255926
 31
0.0
 11
20.6371945627
 21
12.4890520268
 31
0.0
  0
SPLINE
  5
5F5
100
AcDbEntity
  8
RACCORDO
100
AcDbSpline
 62
253
  6
CONTINUOUS
 70
0
 71
3
 72
13
 73
9
 74
7
 42
0.0000001
 43
0.0000001
 44
0.0000000001
 12
0.4531500512
 22
1.3639808133
 32
0.0
 13
0.0010334824
 23
1.4372847873
 33
0.0
 40
0.0
 40
0.0
 40
0.0
 40
0.0
 40
0.0449841968
 40
0.150028203
 40
0.3088874364
 40
0.5119901991
 40
0.7470865565
 40
1.0
 40
1.0
 40
1.0
 40
1.0
 10
-22.3686058964
 20
-29.7329432456
 30
0.0
 10
-22.3618110327
 20
-29.7124907185
 30
0.0
 10
-22.3635827414
 20
-29.638934627
 30
0.0
 10
-22.3534497617
 20
-29.4924918719
 30
0.0
 10
-22.3513972101
 20
-29.2680645331
 30
0.0
 10
-22.3467236003
 20
-28.9823238921
 30
0.0
 10
-22.3446374135
 20
-28.6511251723
 30
0.0
 10
-22.3438993554
 20
-28.4173462779
 30
0.0
 10
-22.3438122282
 20
-28.2961767296
 30
0.0
 11
-22.3686058964
 21
-29.7329432456
 31
0.0
 11
-22.3622717328
 21
-29.6685991495
 31
0.0
 11
-22.3564030128
 21
-29.5177350638
 31
0.0
 11
-22.3513523428
 21
-29.2894649136
 31
0.0
 11
-22.3474267548
 21
-28.9975747232
 31
0.0
 11
-22.3448617839
 21
-28.6596839532
 31
0.0
 11
-22.3438122282
 21
-28.2961767296
 31
0.0
  0
SPLINE
  5
5F6
100
AcDbEntity
  8
RACCORDO
100
AcDbSpline
 62
253
  6
CONTINUOUS
 70
0
 71
3
 72
13
 73
9
 74
7
 42
0.0000001
 43
0.0000001
 44
0.0000000001
 12
0.0010334824
 22
-1.4372847873
 32
0.0
 13
0.4531500427
 23
-1.3639808161
 33
0.0
 40
0.0
 40
0.0
 40
0.0
 40
0.0
 40
0.2529134435
 40
0.4880098009
 40
0.6911125636
 40
0.849971797
 40
0.9550158032
 40
1.0
 40
1.0
 40
1.0
 40
1.0
 10
20.6371945627
 20
-28.2961767296
 30
0.0
 10
20.6372816899
 20
-28.4173462779
 30
0.0
 10
20.638019748
 20
-28.6511251723
 30
0.0
 10
20.6401059347
 20
-28.9823238921
 30
0.0
 10
20.6447795445
 20
-29.2680645331
 30
0.0
 10
20.6468320962
 20
-29.4924918718
 30
0.0
 10
20.6569650757
 20
-29.6389346271
 30
0.0
 10
20.6551933672
 20
-29.7124907184
 30
0.0
 10
20.6619882308
 20
-29.7329432456
 30
0.0
 11
20.6371945627
 21
-28.2961767296
 31
0.0
 11
20.6382441184
 21
-28.6596839532
 31
0.0
 11
20.6408090892
 21
-28.9975747232
 31
0.0
 11
20.6447346773
 21
-29.2894649136
 31
0.0
 11
20.6497853472
 21
-29.5177350638
 31
0.0
 11
20.6556540672
 21
-29.6685991495
 31
0.0
 11
20.6619882308
 21
-29.7329432456
 31
0.0
  0
SPLINE
  5
5F7
100
AcDbEntity
  8
RACCORDO
100
AcDbSpline
 62
253
  6
CONTINUOUS
 70
0
 71
3
 72
13
 73
9
 74
7
 42
0.0000001
 43
0.0000001
 44
0.0000000001
 12
0.4263224932
 22
0.858605854
 32
0.0
 13
0.0010294287
 23
0.958620791
 33
0.0
 40
0.0
 40
0.0
 40
0.0
 40
0.0
 40
0.0448917563
 40
0.1500558739
 40
0.309347506
 40
0.5129473007
 40
0.748437278
 40
1.0
 40
1.0
 40
1.0
 40
1.0
 10
-22.8684345589
 20
-29.2336284782
 30
0.0
 10
-22.8620551037
 20
-29.22078037
 30
0.0
 10
-22.8630085106
 20
-29.170627006
 30
0.0
 10
-22.8535087482
 20
-29.0738443906
 30
0.0
 10
-22.8511279547
 20
-28.9233739794
 30
0.0
 10
-22.8465734755
 20
-28.7325795821
 30
0.0
 10
-22.8444514569
 20
-28.5117696614
 30
0.0
 10
-22.8437272128
 20
-28.3561685908
 30
0.0
 10
-22.8436408909
 20
-28.2757841723
 30
0.0
 11
-22.8684345589
 21
-29.2336284782
 31
0.0
 11
-22.8621278023
 21
-29.1910589254
 31
0.0
 11
-22.8562424788
 21
-29.0904182935
 31
0.0
 11
-22.8511767959
 21
-28.9378019828
 31
0.0
 11
-22.8472446985
 21
-28.7426664871
 31
0.0
 11
-22.8446813632
 21
-28.5169353224
 31
0.0
 11
-22.8436408909
 21
-28.2757841723
 31
0.0
  0
SPLINE
  5
5F8
100
AcDbEntity
  8
RACCORDO
100
AcDbSpline
 62
253
  6
CONTINUOUS
 70
0
 71
3
 72
13
 73
9
 74
7
 42
0.0000001
 43
0.0000001
 44
0.0000000001
 12
0.0010294288
 22
-0.958620791
 32
0.0
 13
0.4263224841
 23
-0.8586058585
 33
0.0
 40
0.0
 40
0.0
 40
0.0
 40
0.0
 40
0.2515627221
 40
0.4870526993
 40
0.690652494
 40
0.8499441261
 40
0.9551082438
 40
1.0
 40
1.0
 40
1.0
 40
1.0
 10
21.1370232253
 20
-28.2757841723
 30
0.0
 10
21.1371095473
 20
-28.3561685909
 30
0.0
 10
21.1378337913
 20
-28.5117696614
 30
0.0
 10
21.13995581
 20
-28.7325795821
 30
0.0
 10
21.1445102891
 20
-28.9233739794
 30
0.0
 10
21.1468910827
 20
-29.0738443906
 30
0.0
 10
21.1563908448
 20
-29.1706270061
 30
0.0
 10
21.1554374383
 20
-29.2207803699
 30
0.0
 10
21.1618168933
 20
-29.2336284782
 30
0.0
 11
21.1370232253
 21
-28.2757841723
 31
0.0
 11
21.1380636976
 21
-28.5169353224
 31
0.0
 11
21.1406270329
 21
-28.7426664871
 31
0.0
 11
21.1445591303
 21
-28.9378019828
 31
0.0
 11
21.1496248132
 21
-29.0904182935
 31
0.0
 11
21.1555101368
 21
-29.1910589255
 31
0.0
 11
21.1618168933
 21
-29.2336284782
 31
0.0
  0
SPLINE
  5
5F9
100
AcDbEntity
  8
RACCORDO
100
AcDbSpline
 62
253
  6
CONTINUOUS
 70
0
 71
3
 72
13
 73
9
 74
7
 42
0.0000001
 43
0.0000001
 44
0.0000000001
 12
-0.427233806
 22
-0.8581528149
 32
0.0
 13
-0.0010329537
 23
-0.9586208384
 33
0.0
 40
0.0
 40
0.0
 40
0.0
 40
0.0
 40
0.0448522341
 40
0.1498889
 40
0.3089852887
 40
0.5126580175
 40
0.748300923
 40
1.0
 40
1.0
 40
1.0
 40
1.0
 10
21.1618168933
 20
13.4265037675
 30
0.0
 10
21.1554294297
 20
13.4136737438
 30
0.0
 10
21.156406678
 20
13.3635624035
 30
0.0
 10
21.1468935753
 20
13.2669043578
 30
0.0
 10
21.1445198288
 20
13.116509038
 30
0.0
 10
21.1399575742
 20
12.925707323
 30
0.0
 10
21.1378347714
 20
12.7047807471
 30
0.0
 10
21.1371098898
 20
12.549087455
 30
0.0
 10
21.1370232253
 20
12.4686594616
 30
0.0
 11
21.1618168933
 21
13.4265037675
 31
0.0
 11
21.1555135596
 21
13.3839720057
 31
0.0
 11
21.1496320374
 21
13.2834535328
 31
0.0
 11
21.1445681157
 21
13.1310244231
 31
0.0
 11
21.1406311306
 21
12.9358190851
 31
0.0
 11
21.1380646437
 21
12.7099413344
 31
0.0
 11
21.1370232253
 21
12.4686594616
 31
0.0
  0
SPLINE
  5
5FA
100
AcDbEntity
  8
RACCORDO
100
AcDbSpline
 62
253
  6
CONTINUOUS
 70
0
 71
3
 72
13
 73
9
 74
7
 42
0.0000001
 43
0.0000001
 44
0.0000000001
 12
-0.0010329537
 22
0.9586208384
 32
0.0
 13
-0.4272337948
 23
0.8581528205
 33
0.0
 40
0.0
 40
0.0
 40
0.0
 40
0.0
 40
0.251699077
 40
0.4873419825
 40
0.6910147113
 40
0.8501111
 40
0.955147766
 40
1.0
 40
1.0
 40
1.0
 40
1.0
 10
-22.8436408909
 20
12.4686594616
 30
0.0
 10
-22.8437275554
 20
12.549087455
 30
0.0
 10
-22.844452437
 20
12.7047807471
 30
0.0
 10
-22.8465752398
 20
12.9257073229
 30
0.0
 10
-22.8511374943
 20
13.116509038
 30
0.0
 10
-22.853511241
 20
13.2669043577
 30
0.0
 10
-22.8630243434
 20
13.3635624036
 30
0.0
 10
-22.8620470955
 20
13.4136737438
 30
0.0
 10
-22.8684345589
 20
13.4265037675
 30
0.0
 11
-22.8436408909
 21
12.4686594616
 31
0.0
 11
-22.8446823093
 21
12.7099413345
 31
0.0
 11
-22.8472487962
 21
12.9358190851
 31
0.0
 11
-22.8511857813
 21
13.1310244231
 31
0.0
 11
-22.8562497029
 21
13.2834535328
 31
0.0
 11
-22.8621312252
 21
13.3839720058
 31
0.0
 11
-22.8684345589
 21
13.4265037675
 31
0.0
  0
SPLINE
  5
5FB
100
AcDbEntity
  8
PORTATASTO
100
AcDbSpline
 62
253
  6
CONTINUOUS
 70
0
 71
3
 72
16
 73
12
 74
10
 42
0.0000001
 43
0.0000001
 44
0.0000000001
 12
0.0000008704
 22
0.4330157742
 32
0.0
 13
-0.0039264321
 23
0.4329979721
 33
0.0
 40
0.0
 40
0.0
 40
0.0
 40
0.0
 40
0.1329751245
 40
0.2653311846
 40
0.3946181073
 40
0.5181583762
 40
0.634401034
 40
0.7423379184
 40
0.8404360722
 40
0.9268390095
 40
1.0
 40
1.0
 40
1.0
 40
1.0
 10
-20.4150967668
 20
15.1747498081
 30
0.0
 10
-20.4150967282
 20
15.1939432503
 30
0.0
 10
-20.4151082927
 20
15.2322407808
 30
0.0
 10
-20.4151602233
 20
15.2891993824
 30
0.0
 10
-20.4152465574
 20
15.3447961275
 30
0.0
 10
-20.4153658592
 20
15.3980670206
 30
0.0
 10
-20.4155162019
 20
15.4482561886
 30
0.0
 10
-20.4156956532
 20
15.4947729576
 30
0.0
 10
-20.4159016917
 20
15.53698255
 30
0.0
 10
-20.4161304644
 20
15.5741724384
 30
0.0
 10
-20.4163100218
 20
15.5972029899
 30
0.0
 10
-20.4164057757
 20
15.60776251
 30
0.0
 11
-20.4150967668
 21
15.1747498081
 31
0.0
 11
-20.415114185
 21
15.232330132
 31
0.0
 11
-20.4151668231
 21
15.2896423697
 31
0.0
 11
-20.415254398
 21
15.3456255781
 31
0.0
 11
-20.4153751635
 21
15.399120327
 31
0.0
 11
-20.4155272945
 21
15.4494550015
 31
0.0
 11
-20.4157094853
 21
15.49619302
 31
0.0
 11
-20.4159194935
 21
15.5386705489
 31
0.0
 11
-20.4161533299
 21
15.5760836529
 31
0.0
 11
-20.4164057757
 21
15.60776251
 31
0.0
  0
SPLINE
  5
5FC
100
AcDbEntity
  8
PORTATASTO
100
AcDbSpline
 62
253
  6
CONTINUOUS
 70
0
 71
3
 72
16
 73
12
 74
10
 42
0.0000001
 43
0.0000001
 44
0.0000000001
 12
0.003926422
 22
0.4329979722
 32
0.0
 13
-0.0000008708
 23
0.4330157742
 33
0.0
 40
0.0
 40
0.0
 40
0.0
 40
0.0
 40
0.0731609897
 40
0.1595639282
 40
0.2576620814
 40
0.3655989661
 40
0.4818416237
 40
0.6053818927
 40
0.7346688153
 40
0.8670248755
 40
1.0
 40
1.0
 40
1.0
 40
1.0
 10
-20.4164057757
 20
-31.4148872208
 30
0.0
 10
-20.4163100221
 20
-31.4043277007
 30
0.0
 10
-20.4161304643
 20
-31.3812971492
 30
0.0
 10
-20.4159016917
 20
-31.3441072608
 30
0.0
 10
-20.4156956532
 20
-31.3018976683
 30
0.0
 10
-20.4155162019
 20
-31.2553808994
 30
0.0
 10
-20.4153658592
 20
-31.2051917313
 30
0.0
 10
-20.4152465574
 20
-31.1519208382
 30
0.0
 10
-20.4151602233
 20
-31.0963240931
 30
0.0
 10
-20.4151082927
 20
-31.0393654915
 30
0.0
 10
-20.4150967282
 20
-31.001067961
 30
0.0
 10
-20.4150967668
 20
-30.9818745189
 30
0.0
 11
-20.4164057757
 21
-31.4148872208
 31
0.0
 11
-20.4161533298
 21
-31.383208364
 31
0.0
 11
-20.4159194935
 21
-31.3457952594
 31
0.0
 11
-20.4157094853
 21
-31.3033177308
 31
0.0
 11
-20.4155272945
 21
-31.2565797122
 31
0.0
 11
-20.4153751635
 21
-31.2062450377
 31
0.0
 11
-20.415254398
 21
-31.1527502888
 31
0.0
 11
-20.4151668231
 21
-31.0967670804
 31
0.0
 11
-20.415114185
 21
-31.0394548427
 31
0.0
 11
-20.4150967668
 21
-30.9818745189
 31
0.0
  0
SPLINE
  5
5FD
100
AcDbEntity
  8
PORTATASTO
100
AcDbSpline
 62
253
  6
CONTINUOUS
 70
0
 71
3
 72
16
 73
12
 74
10
 42
0.0000001
 43
0.0000001
 44
0.0000000001
 12
-0.003926422
 22
-0.4329979722
 32
0.0
 13
0.0000008708
 23
-0.4330157742
 33
0.0
 40
0.0
 40
0.0
 40
0.0
 40
0.0
 40
0.0731609897
 40
0.1595639282
 40
0.2576620814
 40
0.3655989661
 40
0.4818416237
 40
0.6053818927
 40
0.7346688153
 40
0.8670248755
 40
1.0
 40
1.0
 40
1.0
 40
1.0
 10
-22.6652118898
 20
15.60776251
 30
0.0
 10
-22.6653076435
 20
15.59720299
 30
0.0
 10
-22.6654872013
 20
15.5741724385
 30
0.0
 10
-22.6657159738
 20
15.53698255
 30
0.0
 10
-22.6659220123
 20
15.4947729576
 30
0.0
 10
-22.6661014637
 20
15.4482561886
 30
0.0
 10
-22.6662518063
 20
15.3980670206
 30
0.0
 10
-22.6663711082
 20
15.3447961275
 30
0.0
 10
-22.6664574423
 20
15.2891993824
 30
0.0
 10
-22.6665093729
 20
15.2322407808
 30
0.0
 10
-22.6665209373
 20
15.1939432503
 30
0.0
 10
-22.6665208987
 20
15.1747498081
 30
0.0
 11
-22.6652118898
 21
15.60776251
 31
0.0
 11
-22.6654643357
 21
15.5760836533
 31
0.0
 11
-22.6656981721
 21
15.5386705487
 31
0.0
 11
-22.6659081803
 21
15.4961930201
 31
0.0
 11
-22.6660903711
 21
15.4494550015
 31
0.0
 11
-22.6662425021
 21
15.399120327
 31
0.0
 11
-22.6663632675
 21
15.3456255781
 31
0.0
 11
-22.6664508424
 21
15.2896423697
 31
0.0
 11
-22.6665034805
 21
15.232330132
 31
0.0
 11
-22.6665208987
 21
15.1747498081
 31
0.0
  0
SPLINE
  5
5FE
100
AcDbEntity
  8
PORTATASTO
100
AcDbSpline
 62
253
  6
CONTINUOUS
 70
0
 71
3
 72
16
 73
12
 74
10
 42
0.0000001
 43
0.0000001
 44
0.0000000001
 12
-0.0000008704
 22
-0.4330157742
 32
0.0
 13
0.0039264321
 23
-0.4329979721
 33
0.0
 40
0.0
 40
0.0
 40
0.0
 40
0.0
 40
0.1329751245
 40
0.2653311846
 40
0.3946181073
 40
0.5181583762
 40
0.634401034
 40
0.7423379184
 40
0.8404360722
 40
0.9268390095
 40
1.0
 40
1.0
 40
1.0
 40
1.0
 10
-22.6665208987
 20
-30.9818745189
 30
0.0
 10
-22.6665209373
 20
-31.001067961
 30
0.0
 10
-22.6665093729
 20
-31.0393654915
 30
0.0
 10
-22.6664574423
 20
-31.0963240931
 30
0.0
 10
-22.6663711082
 20
-31.1519208382
 30
0.0
 10
-22.6662518063
 20
-31.2051917313
 30
0.0
 10
-22.6661014637
 20
-31.2553808993
 30
0.0
 10
-22.6659220123
 20
-31.3018976683
 30
0.0
 10
-22.6657159739
 20
-31.3441072607
 30
0.0
 10
-22.6654872011
 20
-31.3812971492
 30
0.0
 10
-22.6653076437
 20
-31.4043277006
 30
0.0
 10
-22.6652118898
 20
-31.4148872208
 30
0.0
 11
-22.6665208987
 21
-30.9818745189
 31
0.0
 11
-22.6665034805
 21
-31.0394548427
 31
0.0
 11
-22.6664508424
 21
-31.0967670804
 31
0.0
 11
-22.6663632675
 21
-31.1527502888
 31
0.0
 11
-22.6662425021
 21
-31.2062450377
 31
0.0
 11
-22.6660903711
 21
-31.2565797123
 31
0.0
 11
-22.6659081803
 21
-31.3033177307
 31
0.0
 11
-22.6656981721
 21
-31.3457952596
 31
0.0
 11
-22.6654643357
 21
-31.3832083637
 31
0.0
 11
-22.6652118898
 21
-31.4148872208
 31
0.0
  0
SPLINE
  5
5FF
100
AcDbEntity
  8
PORTATASTO
100
AcDbSpline
 62
253
  6
CONTINUOUS
 70
0
 71
3
 72
16
 73
12
 74
10
 42
0.0000001
 43
0.0000001
 44
0.0000000001
 12
-0.003926422
 22
-0.4329979722
 32
0.0
 13
0.0000008708
 23
-0.4330157742
 33
0.0
 40
0.0
 40
0.0
 40
0.0
 40
0.0
 40
0.0731609897
 40
0.1595639282
 40
0.2576620814
 40
0.3655989661
 40
0.4818416237
 40
0.6053818927
 40
0.7346688153
 40
0.8670248755
 40
1.0
 40
1.0
 40
1.0
 40
1.0
 10
-3.7902118898
 20
15.60776251
 30
0.0
 10
-3.7903076435
 20
15.59720299
 30
0.0
 10
-3.7904872013
 20
15.5741724385
 30
0.0
 10
-3.7907159738
 20
15.53698255
 30
0.0
 10
-3.7909220123
 20
15.4947729576
 30
0.0
 10
-3.7911014637
 20
15.4482561886
 30
0.0
 10
-3.7912518063
 20
15.3980670206
 30
0.0
 10
-3.7913711082
 20
15.3447961275
 30
0.0
 10
-3.7914574423
 20
15.2891993824
 30
0.0
 10
-3.7915093729
 20
15.2322407808
 30
0.0
 10
-3.7915209373
 20
15.1939432503
 30
0.0
 10
-3.7915208987
 20
15.1747498081
 30
0.0
 11
-3.7902118898
 21
15.60776251
 31
0.0
 11
-3.7904643357
 21
15.5760836533
 31
0.0
 11
-3.7906981721
 21
15.5386705487
 31
0.0
 11
-3.7909081803
 21
15.4961930201
 31
0.0
 11
-3.7910903711
 21
15.4494550015
 31
0.0
 11
-3.7912425021
 21
15.399120327
 31
0.0
 11
-3.7913632675
 21
15.3456255781
 31
0.0
 11
-3.7914508424
 21
15.2896423697
 31
0.0
 11
-3.7915034805
 21
15.232330132
 31
0.0
 11
-3.7915208987
 21
15.1747498081
 31
0.0
  0
SPLINE
  5
600
100
AcDbEntity
  8
PORTATASTO
100
AcDbSpline
 62
253
  6
CONTINUOUS
 70
0
 71
3
 72
16
 73
12
 74
10
 42
0.0000001
 43
0.0000001
 44
0.0000000001
 12
-0.0000008704
 22
-0.4330157742
 32
0.0
 13
0.0039264321
 23
-0.4329979721
 33
0.0
 40
0.0
 40
0.0
 40
0.0
 40
0.0
 40
0.1329751245
 40
0.2653311846
 40
0.3946181073
 40
0.5181583762
 40
0.634401034
 40
0.7423379184
 40
0.8404360722
 40
0.9268390095
 40
1.0
 40
1.0
 40
1.0
 40
1.0
 10
-3.7915208987
 20
-30.9818745189
 30
0.0
 10
-3.7915209373
 20
-31.001067961
 30
0.0
 10
-3.7915093729
 20
-31.0393654915
 30
0.0
 10
-3.7914574423
 20
-31.0963240931
 30
0.0
 10
-3.7913711082
 20
-31.1519208382
 30
0.0
 10
-3.7912518063
 20
-31.2051917313
 30
0.0
 10
-3.7911014637
 20
-31.2553808993
 30
0.0
 10
-3.7909220123
 20
-31.3018976683
 30
0.0
 10
-3.7907159739
 20
-31.3441072607
 30
0.0
 10
-3.7904872011
 20
-31.3812971492
 30
0.0
 10
-3.7903076437
 20
-31.4043277006
 30
0.0
 10
-3.7902118898
 20
-31.4148872208
 30
0.0
 11
-3.7915208987
 21
-30.9818745189
 31
0.0
 11
-3.7915034805
 21
-31.0394548427
 31
0.0
 11
-3.7914508424
 21
-31.0967670804
 31
0.0
 11
-3.7913632675
 21
-31.1527502888
 31
0.0
 11
-3.7912425021
 21
-31.2062450377
 31
0.0
 11
-3.7910903711
 21
-31.2565797123
 31
0.0
 11
-3.7909081803
 21
-31.3033177307
 31
0.0
 11
-3.7906981721
 21
-31.3457952596
 31
0.0
 11
-3.7904643357
 21
-31.3832083637
 31
0.0
 11
-3.7902118898
 21
-31.4148872208
 31
0.0
  0
SPLINE
  5
601
100
AcDbEntity
  8
PORTATASTO
100
AcDbSpline
 62
253
  6
CONTINUOUS
 70
0
 71
3
 72
16
 73
12
 74
10
 42
0.0000001
 43
0.0000001
 44
0.0000000001
 12
0.0000008704
 22
0.4330157742
 32
0.0
 13
-0.0039264321
 23
0.4329979721
 33
0.0
 40
0.0
 40
0.0
 40
0.0
 40
0.0
 40
0.1329751245
 40
0.2653311846
 40
0.3946181073
 40
0.5181583762
 40
0.634401034
 40
0.7423379184
 40
0.8404360722
 40
0.9268390095
 40
1.0
 40
1.0
 40
1.0
 40
1.0
 10
-1.5400967668
 20
15.1747498081
 30
0.0
 10
-1.5400967282
 20
15.1939432503
 30
0.0
 10
-1.5401082927
 20
15.2322407808
 30
0.0
 10
-1.5401602233
 20
15.2891993824
 30
0.0
 10
-1.5402465574
 20
15.3447961275
 30
0.0
 10
-1.5403658592
 20
15.3980670206
 30
0.0
 10
-1.5405162019
 20
15.4482561886
 30
0.0
 10
-1.5406956532
 20
15.4947729576
 30
0.0
 10
-1.5409016917
 20
15.53698255
 30
0.0
 10
-1.5411304644
 20
15.5741724384
 30
0.0
 10
-1.5413100218
 20
15.5972029899
 30
0.0
 10
-1.5414057757
 20
15.60776251
 30
0.0
 11
-1.5400967668
 21
15.1747498081
 31
0.0
 11
-1.540114185
 21
15.232330132
 31
0.0
 11
-1.5401668231
 21
15.2896423697
 31
0.0
 11
-1.540254398
 21
15.3456255781
 31
0.0
 11
-1.5403751635
 21
15.399120327
 31
0.0
 11
-1.5405272945
 21
15.4494550015
 31
0.0
 11
-1.5407094853
 21
15.49619302
 31
0.0
 11
-1.5409194935
 21
15.5386705489
 31
0.0
 11
-1.5411533299
 21
15.5760836529
 31
0.0
 11
-1.5414057757
 21
15.60776251
 31
0.0
  0
SPLINE
  5
602
100
AcDbEntity
  8
PORTATASTO
100
AcDbSpline
 62
253
  6
CONTINUOUS
 70
0
 71
3
 72
16
 73
12
 74
10
 42
0.0000001
 43
0.0000001
 44
0.0000000001
 12
0.003926422
 22
0.4329979722
 32
0.0
 13
-0.0000008708
 23
0.4330157742
 33
0.0
 40
0.0
 40
0.0
 40
0.0
 40
0.0
 40
0.0731609897
 40
0.1595639282
 40
0.2576620814
 40
0.3655989661
 40
0.4818416237
 40
0.6053818927
 40
0.7346688153
 40
0.8670248755
 40
1.0
 40
1.0
 40
1.0
 40
1.0
 10
-1.5414057757
 20
-31.4148872208
 30
0.0
 10
-1.5413100221
 20
-31.4043277007
 30
0.0
 10
-1.5411304643
 20
-31.3812971492
 30
0.0
 10
-1.5409016917
 20
-31.3441072608
 30
0.0
 10
-1.5406956532
 20
-31.3018976683
 30
0.0
 10
-1.5405162019
 20
-31.2553808994
 30
0.0
 10
-1.5403658592
 20
-31.2051917313
 30
0.0
 10
-1.5402465574
 20
-31.1519208382
 30
0.0
 10
-1.5401602233
 20
-31.0963240931
 30
0.0
 10
-1.5401082927
 20
-31.0393654915
 30
0.0
 10
-1.5400967282
 20
-31.001067961
 30
0.0
 10
-1.5400967668
 20
-30.9818745189
 30
0.0
 11
-1.5414057757
 21
-31.4148872208
 31
0.0
 11
-1.5411533298
 21
-31.383208364
 31
0.0
 11
-1.5409194935
 21
-31.3457952594
 31
0.0
 11
-1.5407094853
 21
-31.3033177308
 31
0.0
 11
-1.5405272945
 21
-31.2565797122
 31
0.0
 11
-1.5403751635
 21
-31.2062450377
 31
0.0
 11
-1.540254398
 21
-31.1527502888
 31
0.0
 11
-1.5401668231
 21
-31.0967670804
 31
0.0
 11
-1.540114185
 21
-31.0394548427
 31
0.0
 11
-1.5400967668
 21
-30.9818745189
 31
0.0
  0
SPLINE
  5
603
100
AcDbEntity
  8
PORTATASTO
100
AcDbSpline
 62
7
  6
CONTINUOUS
 70
0
 71
3
 72
19
 73
15
 74
13
 42
0.0000001
 43
0.0000001
 44
0.0000000001
 12
-0.4500351504
 22
-0.0031247734
 32
0.0
 13
-0.3803582905
 23
-0.240559705
 33
0.0
 40
0.0
 40
0.0
 40
0.0
 40
0.0
 40
0.0614780033
 40
0.1291586662
 40
0.2025429257
 40
0.2808336398
 40
0.3632485377
 40
0.449057599
 40
0.5375926221
 40
0.6282342422
 40
0.7203896159
 40
0.813467532
 40
0.9068812199
 40
1.0
 40
1.0
 40
1.0
 40
1.0
 10
14.6880427192
 20
15.8870072974
 30
0.0
 10
14.6788202984
 20
15.8869432625
 30
0.0
 10
14.6594620966
 20
15.8845154375
 30
0.0
 10
14.6301024443
 20
15.8765163045
 30
0.0
 10
14.5992432436
 20
15.8649907144
 30
0.0
 10
14.5671622816
 20
15.8506728474
 30
0.0
 10
14.5340761411
 20
15.8341337874
 30
0.0
 10
14.500180717
 20
15.8158290383
 30
0.0
 10
14.4656473427
 20
15.7961347253
 30
0.0
 10
14.4306352313
 20
15.7753723323
 30
0.0
 10
14.3952990326
 20
15.7538277533
 30
0.0
 10
14.3597944086
 20
15.7317642476
 30
0.0
 10
14.3242861266
 20
15.7094343574
 30
0.0
 10
14.3006364265
 20
15.6944769144
 30
0.0
 10
14.2888302598
 20
15.687010039
 30
0.0
 11
14.6880427192
 21
15.8870072974
 31
0.0
 11
14.6605358372
 21
15.8840263988
 31
0.0
 11
14.6310679983
 21
15.8763178177
 31
0.0
 11
14.6000625735
 21
15.8649424225
 31
0.0
 11
14.5678354128
 21
15.8506990153
 31
0.0
 11
14.5346206432
 21
15.8341919288
 31
0.0
 11
14.5006119939
 21
15.8158953826
 31
0.0
 11
14.4659780385
 21
15.7961951328
 31
0.0
 11
14.4308732671
 21
15.7754173662
 31
0.0
 11
14.3954479089
 21
15.7538500365
 31
0.0
 11
14.3598569791
 21
15.7317592504
 31
0.0
 11
14.3242583139
 21
15.7093955519
 31
0.0
 11
14.2888302598
 21
15.687010039
 31
0.0
  0
SPLINE
  5
604
100
AcDbEntity
  8
PORTATASTO
100
AcDbSpline
 62
7
  6
CONTINUOUS
 70
0
 71
3
 72
19
 73
15
 74
13
 42
0.0000001
 43
0.0000001
 44
0.0000000001
 12
0.4500351504
 22
0.0031247734
 32
0.0
 13
0.3803582905
 23
0.240559705
 33
0.0
 40
0.0
 40
0.0
 40
0.0
 40
0.0
 40
0.0614780033
 40
0.1291586662
 40
0.2025429257
 40
0.2808336398
 40
0.3632485377
 40
0.449057599
 40
0.5375926221
 40
0.6282342422
 40
0.7203896159
 40
0.813467532
 40
0.9068812199
 40
1.0
 40
1.0
 40
1.0
 40
1.0
 10
6.1053396152
 20
-31.6941320081
 30
0.0
 10
6.114562036
 20
-31.6940679732
 30
0.0
 10
6.1339202378
 20
-31.6916401482
 30
0.0
 10
6.1632798902
 20
-31.6836410152
 30
0.0
 10
6.1941390909
 20
-31.6721154252
 30
0.0
 10
6.2262200528
 20
-31.6577975581
 30
0.0
 10
6.2593061934
 20
-31.6412584982
 30
0.0
 10
6.2932016174
 20
-31.622953749
 30
0.0
 10
6.3277349918
 20
-31.603259436
 30
0.0
 10
6.3627471032
 20
-31.5824970431
 30
0.0
 10
6.3980833019
 20
-31.560952464
 30
0.0
 10
6.4335879258
 20
-31.5388889583
 30
0.0
 10
6.4690962078
 20
-31.5165590681
 30
0.0
 10
6.4927459079
 20
-31.5016016251
 30
0.0
 10
6.5045520746
 20
-31.4941347497
 30
0.0
 11
6.1053396152
 21
-31.6941320081
 31
0.0
 11
6.1328464973
 21
-31.6911511095
 31
0.0
 11
6.1623143361
 21
-31.6834425285
 31
0.0
 11
6.1933197609
 21
-31.6720671332
 31
0.0
 11
6.2255469217
 21
-31.657823726
 31
0.0
 11
6.2587616912
 21
-31.6413166395
 31
0.0
 11
6.2927703405
 21
-31.6230200933
 31
0.0
 11
6.3274042959
 21
-31.6033198436
 31
0.0
 11
6.3625090674
 21
-31.5825420769
 31
0.0
 11
6.3979344255
 21
-31.5609747472
 31
0.0
 11
6.4335253554
 21
-31.5388839611
 31
0.0
 11
6.4691240206
 21
-31.5165202626
 31
0.0
 11
6.5045520746
 21
-31.4941347497
 31
0.0
  0
SPLINE
  5
605
100
AcDbEntity
  8
PORTATASTO
100
AcDbSpline
 62
7
  6
CONTINUOUS
 70
0
 71
3
 72
19
 73
15
 74
13
 42
0.0000001
 43
0.0000001
 44
0.0000000001
 12
0.4500351504
 22
-0.0031247734
 32
0.0
 13
0.3803582905
 23
-0.240559705
 33
0.0
 40
0.0
 40
0.0
 40
0.0
 40
0.0
 40
0.0614780033
 40
0.1291586662
 40
0.2025429257
 40
0.2808336398
 40
0.3632485377
 40
0.449057599
 40
0.5375926221
 40
0.6282342422
 40
0.7203896159
 40
0.813467532
 40
0.9068812199
 40
1.0
 40
1.0
 40
1.0
 40
1.0
 10
6.1053396152
 20
15.8870072974
 30
0.0
 10
6.114562036
 20
15.8869432625
 30
0.0
 10
6.1339202378
 20
15.8845154375
 30
0.0
 10
6.1632798902
 20
15.8765163045
 30
0.0
 10
6.1941390909
 20
15.8649907144
 30
0.0
 10
6.2262200528
 20
15.8506728474
 30
0.0
 10
6.2593061934
 20
15.8341337874
 30
0.0
 10
6.2932016174
 20
15.8158290383
 30
0.0
 10
6.3277349918
 20
15.7961347253
 30
0.0
 10
6.3627471032
 20
15.7753723323
 30
0.0
 10
6.3980833019
 20
15.7538277533
 30
0.0
 10
6.4335879258
 20
15.7317642476
 30
0.0
 10
6.4690962078
 20
15.7094343574
 30
0.0
 10
6.4927459079
 20
15.6944769144
 30
0.0
 10
6.5045520746
 20
15.687010039
 30
0.0
 11
6.1053396152
 21
15.8870072974
 31
0.0
 11
6.1328464973
 21
15.8840263988
 31
0.0
 11
6.1623143361
 21
15.8763178177
 31
0.0
 11
6.1933197609
 21
15.8649424225
 31
0.0
 11
6.2255469217
 21
15.8506990153
 31
0.0
 11
6.2587616912
 21
15.8341919288
 31
0.0
 11
6.2927703405
 21
15.8158953826
 31
0.0
 11
6.3274042959
 21
15.7961951328
 31
0.0
 11
6.3625090674
 21
15.7754173662
 31
0.0
 11
6.3979344255
 21
15.7538500365
 31
0.0
 11
6.4335253554
 21
15.7317592504
 31
0.0
 11
6.4691240206
 21
15.7093955519
 31
0.0
 11
6.5045520746
 21
15.687010039
 31
0.0
  0
SPLINE
  5
606
100
AcDbEntity
  8
PORTATASTO
100
AcDbSpline
 62
7
  6
CONTINUOUS
 70
0
 71
3
 72
19
 73
15
 74
13
 42
0.0000001
 43
0.0000001
 44
0.0000000001
 12
-0.4500351504
 22
0.0031247734
 32
0.0
 13
-0.3803582905
 23
0.240559705
 33
0.0
 40
0.0
 40
0.0
 40
0.0
 40
0.0
 40
0.0614780033
 40
0.1291586662
 40
0.2025429257
 40
0.2808336398
 40
0.3632485377
 40
0.449057599
 40
0.5375926221
 40
0.6282342422
 40
0.7203896159
 40
0.813467532
 40
0.9068812199
 40
1.0
 40
1.0
 40
1.0
 40
1.0
 10
14.6880427192
 20
-31.6941320081
 30
0.0
 10
14.6788202984
 20
-31.6940679732
 30
0.0
 10
14.6594620966
 20
-31.6916401482
 30
0.0
 10
14.6301024443
 20
-31.6836410152
 30
0.0
 10
14.5992432436
 20
-31.6721154252
 30
0.0
 10
14.5671622816
 20
-31.6577975581
 30
0.0
 10
14.5340761411
 20
-31.6412584982
 30
0.0
 10
14.500180717
 20
-31.622953749
 30
0.0
 10
14.4656473427
 20
-31.603259436
 30
0.0
 10
14.4306352313
 20
-31.5824970431
 30
0.0
 10
14.3952990326
 20
-31.560952464
 30
0.0
 10
14.3597944086
 20
-31.5388889583
 30
0.0
 10
14.3242861266
 20
-31.5165590681
 30
0.0
 10
14.3006364265
 20
-31.5016016251
 30
0.0
 10
14.2888302598
 20
-31.4941347497
 30
0.0
 11
14.6880427192
 21
-31.6941320081
 31
0.0
 11
14.6605358372
 21
-31.6911511095
 31
0.0
 11
14.6310679983
 21
-31.6834425285
 31
0.0
 11
14.6000625735
 21
-31.6720671332
 31
0.0
 11
14.5678354128
 21
-31.657823726
 31
0.0
 11
14.5346206432
 21
-31.6413166395
 31
0.0
 11
14.5006119939
 21
-31.6230200933
 31
0.0
 11
14.4659780385
 21
-31.6033198436
 31
0.0
 11
14.4308732671
 21
-31.5825420769
 31
0.0
 11
14.3954479089
 21
-31.5609747472
 31
0.0
 11
14.3598569791
 21
-31.5388839611
 31
0.0
 11
14.3242583139
 21
-31.5165202626
 31
0.0
 11
14.2888302598
 21
-31.4941347497
 31
0.0
  0
SPLINE
  5
607
100
AcDbEntity
  8
PORTATASTO
100
AcDbSpline
 62
7
  6
CONTINUOUS
 70
0
 71
3
 72
19
 73
15
 74
13
 42
0.0000001
 43
0.0000001
 44
0.0000000001
 12
-0.4500351504
 22
-0.0031247734
 32
0.0
 13
-0.3803582905
 23
-0.240559705
 33
0.0
 40
0.0
 40
0.0
 40
0.0
 40
0.0
 40
0.0614780033
 40
0.1291586662
 40
0.2025429257
 40
0.2808336398
 40
0.3632485377
 40
0.449057599
 40
0.5375926221
 40
0.6282342422
 40
0.7203896159
 40
0.813467532
 40
0.9068812199
 40
1.0
 40
1.0
 40
1.0
 40
1.0
 10
-7.8119572808
 20
15.8870072974
 30
0.0
 10
-7.8211797016
 20
15.8869432625
 30
0.0
 10
-7.8405379034
 20
15.8845154375
 30
0.0
 10
-7.8698975557
 20
15.8765163045
 30
0.0
 10
-7.9007567564
 20
15.8649907144
 30
0.0
 10
-7.9328377184
 20
15.8506728474
 30
0.0
 10
-7.9659238589
 20
15.8341337874
 30
0.0
 10
-7.999819283
 20
15.8158290383
 30
0.0
 10
-8.0343526573
 20
15.7961347253
 30
0.0
 10
-8.0693647687
 20
15.7753723323
 30
0.0
 10
-8.1047009674
 20
15.7538277533
 30
0.0
 10
-8.1402055914
 20
15.7317642476
 30
0.0
 10
-8.1757138734
 20
15.7094343574
 30
0.0
 10
-8.1993635735
 20
15.6944769144
 30
0.0
 10
-8.2111697402
 20
15.687010039
 30
0.0
 11
-7.8119572808
 21
15.8870072974
 31
0.0
 11
-7.8394641628
 21
15.8840263988
 31
0.0
 11
-7.8689320017
 21
15.8763178177
 31
0.0
 11
-7.8999374265
 21
15.8649424225
 31
0.0
 11
-7.9321645872
 21
15.8506990153
 31
0.0
 11
-7.9653793568
 21
15.8341919288
 31
0.0
 11
-7.9993880061
 21
15.8158953826
 31
0.0
 11
-8.0340219615
 21
15.7961951328
 31
0.0
 11
-8.0691267329
 21
15.7754173662
 31
0.0
 11
-8.1045520911
 21
15.7538500365
 31
0.0
 11
-8.1401430209
 21
15.7317592504
 31
0.0
 11
-8.1757416861
 21
15.7093955519
 31
0.0
 11
-8.2111697402
 21
15.687010039
 31
0.0
  0
SPLINE
  5
608
100
AcDbEntity
  8
PORTATASTO
100
AcDbSpline
 62
7
  6
CONTINUOUS
 70
0
 71
3
 72
19
 73
15
 74
13
 42
0.0000001
 43
0.0000001
 44
0.0000000001
 12
0.4500351504
 22
0.0031247734
 32
0.0
 13
0.3803582905
 23
0.240559705
 33
0.0
 40
0.0
 40
0.0
 40
0.0
 40
0.0
 40
0.0614780033
 40
0.1291586662
 40
0.2025429257
 40
0.2808336398
 40
0.3632485377
 40
0.449057599
 40
0.5375926221
 40
0.6282342422
 40
0.7203896159
 40
0.813467532
 40
0.9068812199
 40
1.0
 40
1.0
 40
1.0
 40
1.0
 10
-16.3946603848
 20
-31.6941320081
 30
0.0
 10
-16.385437964
 20
-31.6940679732
 30
0.0
 10
-16.3660797622
 20
-31.6916401482
 30
0.0
 10
-16.3367201098
 20
-31.6836410152
 30
0.0
 10
-16.3058609091
 20
-31.6721154252
 30
0.0
 10
-16.2737799472
 20
-31.6577975581
 30
0.0
 10
-16.2406938066
 20
-31.6412584982
 30
0.0
 10
-16.2067983826
 20
-31.622953749
 30
0.0
 10
-16.1722650082
 20
-31.603259436
 30
0.0
 10
-16.1372528968
 20
-31.5824970431
 30
0.0
 10
-16.1019166981
 20
-31.560952464
 30
0.0
 10
-16.0664120742
 20
-31.5388889583
 30
0.0
 10
-16.0309037922
 20
-31.5165590681
 30
0.0
 10
-16.0072540921
 20
-31.5016016251
 30
0.0
 10
-15.9954479254
 20
-31.4941347497
 30
0.0
 11
-16.3946603848
 21
-31.6941320081
 31
0.0
 11
-16.3671535027
 21
-31.6911511095
 31
0.0
 11
-16.3376856639
 21
-31.6834425285
 31
0.0
 11
-16.3066802391
 21
-31.6720671332
 31
0.0
 11
-16.2744530783
 21
-31.657823726
 31
0.0
 11
-16.2412383088
 21
-31.6413166395
 31
0.0
 11
-16.2072296595
 21
-31.6230200933
 31
0.0
 11
-16.1725957041
 21
-31.6033198436
 31
0.0
 11
-16.1374909326
 21
-31.5825420769
 31
0.0
 11
-16.1020655745
 21
-31.5609747472
 31
0.0
 11
-16.0664746446
 21
-31.5388839611
 31
0.0
 11
-16.0308759794
 21
-31.5165202626
 31
0.0
 11
-15.9954479254
 21
-31.4941347497
 31
0.0
  0
SPLINE
  5
609
100
AcDbEntity
  8
PORTATASTO
100
AcDbSpline
 62
7
  6
CONTINUOUS
 70
0
 71
3
 72
19
 73
15
 74
13
 42
0.0000001
 43
0.0000001
 44
0.0000000001
 12
-0.4500351504
 22
0.0031247734
 32
0.0
 13
-0.3803582905
 23
0.240559705
 33
0.0
 40
0.0
 40
0.0
 40
0.0
 40
0.0
 40
0.0614780033
 40
0.1291586662
 40
0.2025429257
 40
0.2808336398
 40
0.3632485377
 40
0.449057599
 40
0.5375926221
 40
0.6282342422
 40
0.7203896159
 40
0.813467532
 40
0.9068812199
 40
1.0
 40
1.0
 40
1.0
 40
1.0
 10
-7.8119572808
 20
-31.6941320081
 30
0.0
 10
-7.8211797016
 20
-31.6940679732
 30
0.0
 10
-7.8405379034
 20
-31.6916401482
 30
0.0
 10
-7.8698975557
 20
-31.6836410152
 30
0.0
 10
-7.9007567564
 20
-31.6721154252
 30
0.0
 10
-7.9328377184
 20
-31.6577975581
 30
0.0
 10
-7.9659238589
 20
-31.6412584982
 30
0.0
 10
-7.999819283
 20
-31.622953749
 30
0.0
 10
-8.0343526573
 20
-31.603259436
 30
0.0
 10
-8.0693647687
 20
-31.5824970431
 30
0.0
 10
-8.1047009674
 20
-31.560952464
 30
0.0
 10
-8.1402055914
 20
-31.5388889583
 30
0.0
 10
-8.1757138734
 20
-31.5165590681
 30
0.0
 10
-8.1993635735
 20
-31.5016016251
 30
0.0
 10
-8.2111697402
 20
-31.4941347497
 30
0.0
 11
-7.8119572808
 21
-31.6941320081
 31
0.0
 11
-7.8394641628
 21
-31.6911511095
 31
0.0
 11
-7.8689320017
 21
-31.6834425285
 31
0.0
 11
-7.8999374265
 21
-31.6720671332
 31
0.0
 11
-7.9321645872
 21
-31.657823726
 31
0.0
 11
-7.9653793568
 21
-31.6413166395
 31
0.0
 11
-7.9993880061
 21
-31.6230200933
 31
0.0
 11
-8.0340219615
 21
-31.6033198436
 31
0.0
 11
-8.0691267329
 21
-31.5825420769
 31
0.0
 11
-8.1045520911
 21
-31.5609747472
 31
0.0
 11
-8.1401430209
 21
-31.5388839611
 31
0.0
 11
-8.1757416861
 21
-31.5165202626
 31
0.0
 11
-8.2111697402
 21
-31.4941347497
 31
0.0
  0
SPLINE
  5
60A
100
AcDbEntity
  8
PORTATASTO
100
AcDbSpline
 62
253
  6
CONTINUOUS
 70
0
 71
3
 72
16
 73
12
 74
10
 42
0.0000001
 43
0.0000001
 44
0.0000000001
 12
0.003926422
 22
0.4329979722
 32
0.0
 13
-0.0000008708
 23
0.4330157742
 33
0.0
 40
0.0
 40
0.0
 40
0.0
 40
0.0
 40
0.0731609897
 40
0.1595639282
 40
0.2576620814
 40
0.3655989661
 40
0.4818416237
 40
0.6053818927
 40
0.7346688153
 40
0.8670248755
 40
1.0
 40
1.0
 40
1.0
 40
1.0
 10
2.0835942243
 20
-31.4148872208
 30
0.0
 10
2.0836899779
 20
-31.4043277007
 30
0.0
 10
2.0838695357
 20
-31.3812971492
 30
0.0
 10
2.0840983083
 20
-31.3441072608
 30
0.0
 10
2.0843043468
 20
-31.3018976683
 30
0.0
 10
2.0844837981
 20
-31.2553808994
 30
0.0
 10
2.0846341408
 20
-31.2051917313
 30
0.0
 10
2.0847534426
 20
-31.1519208382
 30
0.0
 10
2.0848397767
 20
-31.0963240931
 30
0.0
 10
2.0848917073
 20
-31.0393654915
 30
0.0
 10
2.0849032718
 20
-31.001067961
 30
0.0
 10
2.0849032332
 20
-30.9818745189
 30
0.0
 11
2.0835942243
 21
-31.4148872208
 31
0.0
 11
2.0838466702
 21
-31.383208364
 31
0.0
 11
2.0840805065
 21
-31.3457952594
 31
0.0
 11
2.0842905147
 21
-31.3033177308
 31
0.0
 11
2.0844727055
 21
-31.2565797122
 31
0.0
 11
2.0846248365
 21
-31.2062450377
 31
0.0
 11
2.084745602
 21
-31.1527502888
 31
0.0
 11
2.0848331769
 21
-31.0967670804
 31
0.0
 11
2.084885815
 21
-31.0394548427
 31
0.0
 11
2.0849032332
 21
-30.9818745189
 31
0.0
  0
SPLINE
  5
60B
100
AcDbEntity
  8
PORTATASTO
100
AcDbSpline
 62
253
  6
CONTINUOUS
 70
0
 71
3
 72
16
 73
12
 74
10
 42
0.0000001
 43
0.0000001
 44
0.0000000001
 12
0.0000008704
 22
0.4330157742
 32
0.0
 13
-0.0039264321
 23
0.4329979721
 33
0.0
 40
0.0
 40
0.0
 40
0.0
 40
0.0
 40
0.1329751245
 40
0.2653311846
 40
0.3946181073
 40
0.5181583762
 40
0.634401034
 40
0.7423379184
 40
0.8404360722
 40
0.9268390095
 40
1.0
 40
1.0
 40
1.0
 40
1.0
 10
2.0849032332
 20
15.1747498081
 30
0.0
 10
2.0849032718
 20
15.1939432503
 30
0.0
 10
2.0848917073
 20
15.2322407808
 30
0.0
 10
2.0848397767
 20
15.2891993824
 30
0.0
 10
2.0847534426
 20
15.3447961275
 30
0.0
 10
2.0846341408
 20
15.3980670206
 30
0.0
 10
2.0844837981
 20
15.4482561886
 30
0.0
 10
2.0843043468
 20
15.4947729576
 30
0.0
 10
2.0840983083
 20
15.53698255
 30
0.0
 10
2.0838695356
 20
15.5741724384
 30
0.0
 10
2.0836899782
 20
15.5972029899
 30
0.0
 10
2.0835942243
 20
15.60776251
 30
0.0
 11
2.0849032332
 21
15.1747498081
 31
0.0
 11
2.084885815
 21
15.232330132
 31
0.0
 11
2.0848331769
 21
15.2896423697
 31
0.0
 11
2.084745602
 21
15.3456255781
 31
0.0
 11
2.0846248365
 21
15.399120327
 31
0.0
 11
2.0844727055
 21
15.4494550015
 31
0.0
 11
2.0842905147
 21
15.49619302
 31
0.0
 11
2.0840805065
 21
15.5386705489
 31
0.0
 11
2.0838466701
 21
15.5760836529
 31
0.0
 11
2.0835942243
 21
15.60776251
 31
0.0
  0
SPLINE
  5
60C
100
AcDbEntity
  8
PORTATASTO
100
AcDbSpline
 62
253
  6
CONTINUOUS
 70
0
 71
3
 72
16
 73
12
 74
10
 42
0.0000001
 43
0.0000001
 44
0.0000000001
 12
-0.0000008704
 22
-0.4330157742
 32
0.0
 13
0.0039264321
 23
-0.4329979721
 33
0.0
 40
0.0
 40
0.0
 40
0.0
 40
0.0
 40
0.1329751245
 40
0.2653311846
 40
0.3946181073
 40
0.5181583762
 40
0.634401034
 40
0.7423379184
 40
0.8404360722
 40
0.9268390095
 40
1.0
 40
1.0
 40
1.0
 40
1.0
 10
-0.1665208987
 20
-30.9818745189
 30
0.0
 10
-0.1665209373
 20
-31.001067961
 30
0.0
 10
-0.1665093729
 20
-31.0393654915
 30
0.0
 10
-0.1664574423
 20
-31.0963240931
 30
0.0
 10
-0.1663711082
 20
-31.1519208382
 30
0.0
 10
-0.1662518063
 20
-31.2051917313
 30
0.0
 10
-0.1661014637
 20
-31.2553808993
 30
0.0
 10
-0.1659220123
 20
-31.3018976683
 30
0.0
 10
-0.1657159739
 20
-31.3441072607
 30
0.0
 10
-0.1654872011
 20
-31.3812971492
 30
0.0
 10
-0.1653076437
 20
-31.4043277006
 30
0.0
 10
-0.1652118898
 20
-31.4148872208
 30
0.0
 11
-0.1665208987
 21
-30.9818745189
 31
0.0
 11
-0.1665034805
 21
-31.0394548427
 31
0.0
 11
-0.1664508424
 21
-31.0967670804
 31
0.0
 11
-0.1663632675
 21
-31.1527502888
 31
0.0
 11
-0.1662425021
 21
-31.2062450377
 31
0.0
 11
-0.1660903711
 21
-31.2565797123
 31
0.0
 11
-0.1659081803
 21
-31.3033177307
 31
0.0
 11
-0.1656981721
 21
-31.3457952596
 31
0.0
 11
-0.1654643357
 21
-31.3832083637
 31
0.0
 11
-0.1652118898
 21
-31.4148872208
 31
0.0
  0
SPLINE
  5
60D
100
AcDbEntity
  8
PORTATASTO
100
AcDbSpline
 62
253
  6
CONTINUOUS
 70
0
 71
3
 72
16
 73
12
 74
10
 42
0.0000001
 43
0.0000001
 44
0.0000000001
 12
-0.003926422
 22
-0.4329979722
 32
0.0
 13
0.0000008708
 23
-0.4330157742
 33
0.0
 40
0.0
 40
0.0
 40
0.0
 40
0.0
 40
0.0731609897
 40
0.1595639282
 40
0.2576620814
 40
0.3655989661
 40
0.4818416237
 40
0.6053818927
 40
0.7346688153
 40
0.8670248755
 40
1.0
 40
1.0
 40
1.0
 40
1.0
 10
-0.1652118898
 20
15.60776251
 30
0.0
 10
-0.1653076435
 20
15.59720299
 30
0.0
 10
-0.1654872013
 20
15.5741724385
 30
0.0
 10
-0.1657159738
 20
15.53698255
 30
0.0
 10
-0.1659220123
 20
15.4947729576
 30
0.0
 10
-0.1661014637
 20
15.4482561886
 30
0.0
 10
-0.1662518063
 20
15.3980670206
 30
0.0
 10
-0.1663711082
 20
15.3447961275
 30
0.0
 10
-0.1664574423
 20
15.2891993824
 30
0.0
 10
-0.1665093729
 20
15.2322407808
 30
0.0
 10
-0.1665209373
 20
15.1939432503
 30
0.0
 10
-0.1665208987
 20
15.1747498081
 30
0.0
 11
-0.1652118898
 21
15.60776251
 31
0.0
 11
-0.1654643357
 21
15.5760836533
 31
0.0
 11
-0.1656981721
 21
15.5386705487
 31
0.0
 11
-0.1659081803
 21
15.4961930201
 31
0.0
 11
-0.1660903711
 21
15.4494550015
 31
0.0
 11
-0.1662425021
 21
15.399120327
 31
0.0
 11
-0.1663632675
 21
15.3456255781
 31
0.0
 11
-0.1664508424
 21
15.2896423697
 31
0.0
 11
-0.1665034805
 21
15.232330132
 31
0.0
 11
-0.1665208987
 21
15.1747498081
 31
0.0
  0
SPLINE
  5
60E
100
AcDbEntity
  8
PORTATASTO
100
AcDbSpline
 62
253
  6
CONTINUOUS
 70
0
 71
3
 72
16
 73
12
 74
10
 42
0.0000001
 43
0.0000001
 44
0.0000000001
 12
-0.0000008704
 22
-0.4330157742
 32
0.0
 13
0.0039264321
 23
-0.4329979721
 33
0.0
 40
0.0
 40
0.0
 40
0.0
 40
0.0
 40
0.1329751245
 40
0.2653311846
 40
0.3946181073
 40
0.5181583762
 40
0.634401034
 40
0.7423379184
 40
0.8404360722
 40
0.9268390095
 40
1.0
 40
1.0
 40
1.0
 40
1.0
 10
18.7084791013
 20
-30.9818745189
 30
0.0
 10
18.7084790627
 20
-31.001067961
 30
0.0
 10
18.7084906271
 20
-31.0393654915
 30
0.0
 10
18.7085425577
 20
-31.0963240931
 30
0.0
 10
18.7086288918
 20
-31.1519208382
 30
0.0
 10
18.7087481937
 20
-31.2051917313
 30
0.0
 10
18.7088985363
 20
-31.2553808993
 30
0.0
 10
18.7090779877
 20
-31.3018976683
 30
0.0
 10
18.7092840261
 20
-31.3441072607
 30
0.0
 10
18.7095127989
 20
-31.3812971492
 30
0.0
 10
18.7096923563
 20
-31.4043277006
 30
0.0
 10
18.7097881102
 20
-31.4148872208
 30
0.0
 11
18.7084791013
 21
-30.9818745189
 31
0.0
 11
18.7084965195
 21
-31.0394548427
 31
0.0
 11
18.7085491576
 21
-31.0967670804
 31
0.0
 11
18.7086367325
 21
-31.1527502888
 31
0.0
 11
18.7087574979
 21
-31.2062450377
 31
0.0
 11
18.7089096289
 21
-31.2565797123
 31
0.0
 11
18.7090918197
 21
-31.3033177307
 31
0.0
 11
18.7093018279
 21
-31.3457952596
 31
0.0
 11
18.7095356643
 21
-31.3832083637
 31
0.0
 11
18.7097881102
 21
-31.4148872208
 31
0.0
  0
SPLINE
  5
60F
100
AcDbEntity
  8
PORTATASTO
100
AcDbSpline
 62
253
  6
CONTINUOUS
 70
0
 71
3
 72
16
 73
12
 74
10
 42
0.0000001
 43
0.0000001
 44
0.0000000001
 12
-0.003926422
 22
-0.4329979722
 32
0.0
 13
0.0000008708
 23
-0.4330157742
 33
0.0
 40
0.0
 40
0.0
 40
0.0
 40
0.0
 40
0.0731609897
 40
0.1595639282
 40
0.2576620814
 40
0.3655989661
 40
0.4818416237
 40
0.6053818927
 40
0.7346688153
 40
0.8670248755
 40
1.0
 40
1.0
 40
1.0
 40
1.0
 10
18.7097881102
 20
15.60776251
 30
0.0
 10
18.7096923565
 20
15.59720299
 30
0.0
 10
18.7095127987
 20
15.5741724385
 30
0.0
 10
18.7092840262
 20
15.53698255
 30
0.0
 10
18.7090779877
 20
15.4947729576
 30
0.0
 10
18.7088985363
 20
15.4482561886
 30
0.0
 10
18.7087481937
 20
15.3980670206
 30
0.0
 10
18.7086288918
 20
15.3447961275
 30
0.0
 10
18.7085425577
 20
15.2891993824
 30
0.0
 10
18.7084906271
 20
15.2322407808
 30
0.0
 10
18.7084790627
 20
15.1939432503
 30
0.0
 10
18.7084791013
 20
15.1747498081
 30
0.0
 11
18.7097881102
 21
15.60776251
 31
0.0
 11
18.7095356643
 21
15.5760836533
 31
0.0
 11
18.7093018279
 21
15.5386705487
 31
0.0
 11
18.7090918197
 21
15.4961930201
 31
0.0
 11
18.7089096289
 21
15.4494550015
 31
0.0
 11
18.7087574979
 21
15.399120327
 31
0.0
 11
18.7086367325
 21
15.3456255781
 31
0.0
 11
18.7085491576
 21
15.2896423697
 31
0.0
 11
18.7084965195
 21
15.232330132
 31
0.0
 11
18.7084791013
 21
15.1747498081
 31
0.0
  0
SPLINE
  5
610
100
AcDbEntity
  8
PORTATASTO
100
AcDbSpline
 62
253
  6
CONTINUOUS
 70
0
 71
3
 72
16
 73
12
 74
10
 42
0.0000001
 43
0.0000001
 44
0.0000000001
 12
0.003926422
 22
0.4329979722
 32
0.0
 13
-0.0000008708
 23
0.4330157742
 33
0.0
 40
0.0
 40
0.0
 40
0.0
 40
0.0
 40
0.0731609897
 40
0.1595639282
 40
0.2576620814
 40
0.3655989661
 40
0.4818416237
 40
0.6053818927
 40
0.7346688153
 40
0.8670248755
 40
1.0
 40
1.0
 40
1.0
 40
1.0
 10
20.9585942243
 20
-31.4148872208
 30
0.0
 10
20.9586899779
 20
-31.4043277007
 30
0.0
 10
20.9588695357
 20
-31.3812971492
 30
0.0
 10
20.9590983083
 20
-31.3441072608
 30
0.0
 10
20.9593043468
 20
-31.3018976683
 30
0.0
 10
20.9594837981
 20
-31.2553808994
 30
0.0
 10
20.9596341408
 20
-31.2051917313
 30
0.0
 10
20.9597534426
 20
-31.1519208382
 30
0.0
 10
20.9598397767
 20
-31.0963240931
 30
0.0
 10
20.9598917073
 20
-31.0393654915
 30
0.0
 10
20.9599032718
 20
-31.001067961
 30
0.0
 10
20.9599032332
 20
-30.9818745189
 30
0.0
 11
20.9585942243
 21
-31.4148872208
 31
0.0
 11
20.9588466702
 21
-31.383208364
 31
0.0
 11
20.9590805065
 21
-31.3457952594
 31
0.0
 11
20.9592905147
 21
-31.3033177308
 31
0.0
 11
20.9594727055
 21
-31.2565797122
 31
0.0
 11
20.9596248365
 21
-31.2062450377
 31
0.0
 11
20.959745602
 21
-31.1527502888
 31
0.0
 11
20.9598331769
 21
-31.0967670804
 31
0.0
 11
20.959885815
 21
-31.0394548427
 31
0.0
 11
20.9599032332
 21
-30.9818745189
 31
0.0
  0
SPLINE
  5
611
100
AcDbEntity
  8
PORTATASTO
100
AcDbSpline
 62
253
  6
CONTINUOUS
 70
0
 71
3
 72
16
 73
12
 74
10
 42
0.0000001
 43
0.0000001
 44
0.0000000001
 12
0.0000008704
 22
0.4330157742
 32
0.0
 13
-0.0039264321
 23
0.4329979721
 33
0.0
 40
0.0
 40
0.0
 40
0.0
 40
0.0
 40
0.1329751245
 40
0.2653311846
 40
0.3946181073
 40
0.5181583762
 40
0.634401034
 40
0.7423379184
 40
0.8404360722
 40
0.9268390095
 40
1.0
 40
1.0
 40
1.0
 40
1.0
 10
20.9599032332
 20
15.1747498081
 30
0.0
 10
20.9599032718
 20
15.1939432503
 30
0.0
 10
20.9598917073
 20
15.2322407808
 30
0.0
 10
20.9598397767
 20
15.2891993824
 30
0.0
 10
20.9597534426
 20
15.3447961275
 30
0.0
 10
20.9596341408
 20
15.3980670206
 30
0.0
 10
20.9594837981
 20
15.4482561886
 30
0.0
 10
20.9593043468
 20
15.4947729576
 30
0.0
 10
20.9590983083
 20
15.53698255
 30
0.0
 10
20.9588695356
 20
15.5741724384
 30
0.0
 10
20.9586899782
 20
15.5972029899
 30
0.0
 10
20.9585942243
 20
15.60776251
 30
0.0
 11
20.9599032332
 21
15.1747498081
 31
0.0
 11
20.959885815
 21
15.232330132
 31
0.0
 11
20.9598331769
 21
15.2896423697
 31
0.0
 11
20.959745602
 21
15.3456255781
 31
0.0
 11
20.9596248365
 21
15.399120327
 31
0.0
 11
20.9594727055
 21
15.4494550015
 31
0.0
 11
20.9592905147
 21
15.49619302
 31
0.0
 11
20.9590805065
 21
15.5386705489
 31
0.0
 11
20.9588466701
 21
15.5760836529
 31
0.0
 11
20.9585942243
 21
15.60776251
 31
0.0
  0
SPLINE
  5
612
100
AcDbEntity
  8
PORTATASTO
100
AcDbSpline
 62
7
  6
CONTINUOUS
 70
0
 71
3
 72
19
 73
15
 74
13
 42
0.0000001
 43
0.0000001
 44
0.0000000001
 12
0.4500351504
 22
-0.0031247734
 32
0.0
 13
0.3803582905
 23
-0.240559705
 33
0.0
 40
0.0
 40
0.0
 40
0.0
 40
0.0
 40
0.0614780033
 40
0.1291586662
 40
0.2025429257
 40
0.2808336398
 40
0.3632485377
 40
0.449057599
 40
0.5375926221
 40
0.6282342422
 40
0.7203896159
 40
0.813467532
 40
0.9068812199
 40
1.0
 40
1.0
 40
1.0
 40
1.0
 10
-16.3946603848
 20
15.8870072974
 30
0.0
 10
-16.385437964
 20
15.8869432625
 30
0.0
 10
-16.3660797622
 20
15.8845154375
 30
0.0
 10
-16.3367201098
 20
15.8765163045
 30
0.0
 10
-16.3058609091
 20
15.8649907144
 30
0.0
 10
-16.2737799472
 20
15.8506728474
 30
0.0
 10
-16.2406938066
 20
15.8341337874
 30
0.0
 10
-16.2067983826
 20
15.8158290383
 30
0.0
 10
-16.1722650082
 20
15.7961347253
 30
0.0
 10
-16.1372528968
 20
15.7753723323
 30
0.0
 10
-16.1019166981
 20
15.7538277533
 30
0.0
 10
-16.0664120742
 20
15.7317642476
 30
0.0
 10
-16.0309037922
 20
15.7094343574
 30
0.0
 10
-16.0072540921
 20
15.6944769144
 30
0.0
 10
-15.9954479254
 20
15.687010039
 30
0.0
 11
-16.3946603848
 21
15.8870072974
 31
0.0
 11
-16.3671535027
 21
15.8840263988
 31
0.0
 11
-16.3376856639
 21
15.8763178177
 31
0.0
 11
-16.3066802391
 21
15.8649424225
 31
0.0
 11
-16.2744530783
 21
15.8506990153
 31
0.0
 11
-16.2412383088
 21
15.8341919288
 31
0.0
 11
-16.2072296595
 21
15.8158953826
 31
0.0
 11
-16.1725957041
 21
15.7961951328
 31
0.0
 11
-16.1374909326
 21
15.7754173662
 31
0.0
 11
-16.1020655745
 21
15.7538500365
 31
0.0
 11
-16.0664746446
 21
15.7317592504
 31
0.0
 11
-16.0308759794
 21
15.7093955519
 31
0.0
 11
-15.9954479254
 21
15.687010039
 31
0.0
  0
SPLINE
  5
613
100
AcDbEntity
  8
PORTATASTO
100
AcDbSpline
 62
253
  6
CONTINUOUS
 70
0
 71
3
 72
18
 73
14
 74
12
 42
0.0000001
 43
0.0000001
 44
0.0000000001
 12
-0.3662499093
 22
-0.0008303874
 32
0.0
 13
-0.0011071506
 23
-0.3662491772
 33
0.0
 40
0.0
 40
0.0
 40
0.0
 40
0.0
 40
0.0971872096
 40
0.1939133523
 40
0.2897218612
 40
0.3842163772
 40
0.4770935418
 40
0.5681682897
 40
0.6573939174
 40
0.7448759241
 40
0.8308652934
 40
0.915759618
 40
1.0
 40
1.0
 40
1.0
 40
1.0
 10
18.9637117099
 20
-31.6313935717
 30
0.0
 10
18.9518467744
 20
-31.6314204727
 30
0.0
 10
18.9281503362
 20
-31.6329355921
 30
0.0
 10
18.8933154397
 20
-31.6395510017
 30
0.0
 10
18.8598880117
 20
-31.6503773888
 30
0.0
 10
18.828547485
 20
-31.6652016509
 30
0.0
 10
18.7999245809
 20
-31.6837317997
 30
0.0
 10
18.7746007152
 20
-31.7056020999
 30
0.0
 10
18.7530942233
 20
-31.7303794618
 30
0.0
 10
18.7358514012
 20
-31.7575681144
 30
0.0
 10
18.7232353254
 20
-31.7866227838
 30
0.0
 10
18.7155181588
 20
-31.8169326759
 30
0.0
 10
18.7137462258
 20
-31.8376155991
 30
0.0
 10
18.7137151369
 20
-31.8478999227
 30
0.0
 11
18.9637117099
 21
-31.6313935717
 31
0.0
 11
18.9281897319
 21
-31.6336708193
 31
0.0
 11
18.8933885779
 21
-31.6402952755
 31
0.0
 11
18.8600141006
 21
-31.6511326511
 31
0.0
 11
18.8287439345
 21
-31.6659629785
 31
0.0
 11
18.8002126401
 21
-31.6844853073
 31
0.0
 11
18.7749991933
 21
-31.7063237696
 31
0.0
 11
18.7536153691
 21
-31.7310350348
 31
0.0
 11
18.7364949252
 21
-31.7581177789
 31
0.0
 11
18.7239858846
 21
-31.7870206466
 31
0.0
 11
18.7163408975
 21
-31.8171587471
 31
0.0
 11
18.7137151369
 21
-31.8478999227
 31
0.0
  0
SPLINE
  5
614
100
AcDbEntity
  8
PORTATASTO
100
AcDbSpline
 62
253
  6
CONTINUOUS
 70
0
 71
3
 72
18
 73
14
 74
12
 42
0.0000001
 43
0.0000001
 44
0.0000000001
 12
-0.0011071506
 22
0.3662491663
 32
0.0
 13
-0.3662498983
 23
0.0008303874
 33
0.0
 40
0.0
 40
0.0
 40
0.0
 40
0.0
 40
0.0842955547
 40
0.169189152
 40
0.2551780173
 40
0.3426543807
 40
0.4318741974
 40
0.5229422751
 40
0.6158124279
 40
0.7102995819
 40
0.8061004335
 40
0.9028197334
 40
1.0
 40
1.0
 40
1.0
 40
1.0
 10
20.9546671976
 20
-31.8478999227
 30
0.0
 10
20.9546360883
 20
-31.8376088638
 30
0.0
 10
20.9528624452
 20
-31.8169192212
 30
0.0
 10
20.9451404641
 20
-31.7866037658
 30
0.0
 10
20.9325218277
 20
-31.7575511304
 30
0.0
 10
20.9152773793
 20
-31.7303652787
 30
0.0
 10
20.8937705112
 20
-31.7055912141
 30
0.0
 10
20.8684471496
 20
-31.683724019
 30
0.0
 10
20.8398255563
 20
-31.6651966254
 30
0.0
 10
20.8084869715
 20
-31.6503746101
 30
0.0
 10
20.7750618544
 20
-31.6395498312
 30
0.0
 10
20.7402294614
 20
-31.6329353777
 30
0.0
 10
20.7165347121
 20
-31.6314204708
 30
0.0
 10
20.7046706245
 20
-31.6313935717
 30
0.0
 11
20.9546671976
 21
-31.8478999227
 31
0.0
 11
20.9520380642
 21
-31.8171387555
 31
0.0
 11
20.9443899863
 21
-31.787001715
 31
0.0
 11
20.931878139
 21
-31.7581002644
 31
0.0
 11
20.9147563805
 21
-31.7310207978
 31
0.0
 11
20.8933721016
 21
-31.706312742
 31
0.0
 11
20.8681591771
 21
-31.6844774096
 31
0.0
 11
20.839629163
 21
-31.665957827
 31
0.0
 11
20.8083609169
 21
-31.6511297459
 31
0.0
 11
20.7749888538
 21
-31.6402940198
 31
0.0
 11
20.7401900739
 21
-31.6336704992
 31
0.0
 11
20.7046706245
 21
-31.6313935717
 31
0.0
  0
SPLINE
  5
615
100
AcDbEntity
  8
PORTATASTO
100
AcDbSpline
 62
253
  6
CONTINUOUS
 70
0
 71
3
 72
18
 73
14
 74
12
 42
0.0000001
 43
0.0000001
 44
0.0000000001
 12
0.3662499093
 22
0.0008303874
 32
0.0
 13
0.0011071506
 23
0.3662491772
 33
0.0
 40
0.0
 40
0.0
 40
0.0
 40
0.0
 40
0.0971872096
 40
0.1939133523
 40
0.2897218612
 40
0.3842163772
 40
0.4770935418
 40
0.5681682897
 40
0.6573939174
 40
0.7448759241
 40
0.8308652934
 40
0.915759618
 40
1.0
 40
1.0
 40
1.0
 40
1.0
 10
20.7046706245
 20
15.824268861
 30
0.0
 10
20.7165355601
 20
15.824295762
 30
0.0
 10
20.7402319983
 20
15.8258108814
 30
0.0
 10
20.7750668948
 20
15.832426291
 30
0.0
 10
20.8084943227
 20
15.8432526781
 30
0.0
 10
20.8398348494
 20
15.8580769402
 30
0.0
 10
20.8684577536
 20
15.876607089
 30
0.0
 10
20.8937816192
 20
15.8984773892
 30
0.0
 10
20.9152881112
 20
15.9232547511
 30
0.0
 10
20.9325309333
 20
15.9504434037
 30
0.0
 10
20.945147009
 20
15.979498073
 30
0.0
 10
20.9528641756
 20
16.0098079652
 30
0.0
 10
20.9546361086
 20
16.0304908884
 30
0.0
 10
20.9546671976
 20
16.0407752119
 30
0.0
 11
20.7046706245
 21
15.824268861
 31
0.0
 11
20.7401926025
 21
15.8265461086
 31
0.0
 11
20.7749937566
 21
15.8331705647
 31
0.0
 11
20.8083682339
 21
15.8440079404
 31
0.0
 11
20.8396384
 21
15.8588382677
 31
0.0
 11
20.8681696943
 21
15.8773605966
 31
0.0
 11
20.8933831412
 21
15.8991990589
 31
0.0
 11
20.9147669653
 21
15.923910324
 31
0.0
 11
20.9318874092
 21
15.9509930682
 31
0.0
 11
20.9443964498
 21
15.9798959359
 31
0.0
 11
20.9520414369
 21
16.0100340364
 31
0.0
 11
20.9546671976
 21
16.0407752119
 31
0.0
  0
SPLINE
  5
616
100
AcDbEntity
  8
PORTATASTO
100
AcDbSpline
 62
253
  6
CONTINUOUS
 70
0
 71
3
 72
18
 73
14
 74
12
 42
0.0000001
 43
0.0000001
 44
0.0000000001
 12
0.0011071506
 22
-0.3662491663
 32
0.0
 13
0.3662498983
 23
-0.0008303874
 33
0.0
 40
0.0
 40
0.0
 40
0.0
 40
0.0
 40
0.0842955547
 40
0.169189152
 40
0.2551780173
 40
0.3426543807
 40
0.4318741974
 40
0.5229422751
 40
0.6158124279
 40
0.7102995819
 40
0.8061004335
 40
0.9028197334
 40
1.0
 40
1.0
 40
1.0
 40
1.0
 10
18.7137151369
 20
16.0407752119
 30
0.0
 10
18.7137462462
 20
16.0304841531
 30
0.0
 10
18.7155198893
 20
16.0097945105
 30
0.0
 10
18.7232418704
 20
15.979479055
 30
0.0
 10
18.7358605067
 20
15.9504264196
 30
0.0
 10
18.7531049552
 20
15.923240568
 30
0.0
 10
18.7746118233
 20
15.8984665034
 30
0.0
 10
18.7999351849
 20
15.8765993083
 30
0.0
 10
18.8285567781
 20
15.8580719147
 30
0.0
 10
18.859895363
 20
15.8432498993
 30
0.0
 10
18.8933204801
 20
15.8324251205
 30
0.0
 10
18.9281528731
 20
15.825810667
 30
0.0
 10
18.9518476223
 20
15.8242957601
 30
0.0
 10
18.9637117099
 20
15.824268861
 30
0.0
 11
18.7137151369
 21
16.0407752119
 31
0.0
 11
18.7163442702
 21
16.0100140448
 31
0.0
 11
18.7239923482
 21
15.9798770042
 31
0.0
 11
18.7365041955
 21
15.9509755537
 31
0.0
 11
18.753625954
 21
15.923896087
 31
0.0
 11
18.7750102329
 21
15.8991880313
 31
0.0
 11
18.8002231573
 21
15.8773526989
 31
0.0
 11
18.8287531715
 21
15.8588331163
 31
0.0
 11
18.8600214175
 21
15.8440050352
 31
0.0
 11
18.8933934806
 21
15.833169309
 31
0.0
 11
18.9281922606
 21
15.8265457885
 31
0.0
 11
18.9637117099
 21
15.824268861
 31
0.0
  0
SPLINE
  5
617
100
AcDbEntity
  8
PORTATASTO
100
AcDbSpline
 62
253
  6
CONTINUOUS
 70
0
 71
3
 72
18
 73
14
 74
12
 42
0.0000001
 43
0.0000001
 44
0.0000000001
 12
0.3662499093
 22
0.0008303874
 32
0.0
 13
0.0011071506
 23
0.3662491772
 33
0.0
 40
0.0
 40
0.0
 40
0.0
 40
0.0
 40
0.0971872096
 40
0.1939133523
 40
0.2897218612
 40
0.3842163772
 40
0.4770935418
 40
0.5681682897
 40
0.6573939174
 40
0.7448759241
 40
0.8308652934
 40
0.915759618
 40
1.0
 40
1.0
 40
1.0
 40
1.0
 10
1.8296706245
 20
15.824268861
 30
0.0
 10
1.8415355601
 20
15.824295762
 30
0.0
 10
1.8652319983
 20
15.8258108814
 30
0.0
 10
1.9000668948
 20
15.832426291
 30
0.0
 10
1.9334943227
 20
15.8432526781
 30
0.0
 10
1.9648348494
 20
15.8580769402
 30
0.0
 10
1.9934577536
 20
15.876607089
 30
0.0
 10
2.0187816192
 20
15.8984773892
 30
0.0
 10
2.0402881112
 20
15.9232547511
 30
0.0
 10
2.0575309333
 20
15.9504434037
 30
0.0
 10
2.070147009
 20
15.979498073
 30
0.0
 10
2.0778641756
 20
16.0098079652
 30
0.0
 10
2.0796361086
 20
16.0304908884
 30
0.0
 10
2.0796671976
 20
16.0407752119
 30
0.0
 11
1.8296706245
 21
15.824268861
 31
0.0
 11
1.8651926025
 21
15.8265461086
 31
0.0
 11
1.8999937566
 21
15.8331705647
 31
0.0
 11
1.9333682339
 21
15.8440079404
 31
0.0
 11
1.9646384
 21
15.8588382677
 31
0.0
 11
1.9931696943
 21
15.8773605966
 31
0.0
 11
2.0183831412
 21
15.8991990589
 31
0.0
 11
2.0397669653
 21
15.923910324
 31
0.0
 11
2.0568874092
 21
15.9509930682
 31
0.0
 11
2.0693964498
 21
15.9798959359
 31
0.0
 11
2.0770414369
 21
16.0100340364
 31
0.0
 11
2.0796671976
 21
16.0407752119
 31
0.0
  0
SPLINE
  5
618
100
AcDbEntity
  8
PORTATASTO
100
AcDbSpline
 62
253
  6
CONTINUOUS
 70
0
 71
3
 72
18
 73
14
 74
12
 42
0.0000001
 43
0.0000001
 44
0.0000000001
 12
0.0011071506
 22
-0.3662491663
 32
0.0
 13
0.3662498983
 23
-0.0008303874
 33
0.0
 40
0.0
 40
0.0
 40
0.0
 40
0.0
 40
0.0842955547
 40
0.169189152
 40
0.2551780173
 40
0.3426543807
 40
0.4318741974
 40
0.5229422751
 40
0.6158124279
 40
0.7102995819
 40
0.8061004335
 40
0.9028197334
 40
1.0
 40
1.0
 40
1.0
 40
1.0
 10
-0.1612848631
 20
16.0407752119
 30
0.0
 10
-0.1612537538
 20
16.0304841531
 30
0.0
 10
-0.1594801107
 20
16.0097945105
 30
0.0
 10
-0.1517581296
 20
15.979479055
 30
0.0
 10
-0.1391394933
 20
15.9504264196
 30
0.0
 10
-0.1218950448
 20
15.923240568
 30
0.0
 10
-0.1003881767
 20
15.8984665034
 30
0.0
 10
-0.0750648151
 20
15.8765993083
 30
0.0
 10
-0.0464432219
 20
15.8580719147
 30
0.0
 10
-0.015104637
 20
15.8432498993
 30
0.0
 10
0.0183204801
 20
15.8324251205
 30
0.0
 10
0.0531528731
 20
15.825810667
 30
0.0
 10
0.0768476223
 20
15.8242957601
 30
0.0
 10
0.0887117099
 20
15.824268861
 30
0.0
 11
-0.1612848631
 21
16.0407752119
 31
0.0
 11
-0.1586557298
 21
16.0100140448
 31
0.0
 11
-0.1510076518
 21
15.9798770042
 31
0.0
 11
-0.1384958045
 21
15.9509755537
 31
0.0
 11
-0.121374046
 21
15.923896087
 31
0.0
 11
-0.0999897671
 21
15.8991880313
 31
0.0
 11
-0.0747768427
 21
15.8773526989
 31
0.0
 11
-0.0462468285
 21
15.8588331163
 31
0.0
 11
-0.0149785825
 21
15.8440050352
 31
0.0
 11
0.0183934806
 21
15.833169309
 31
0.0
 11
0.0531922606
 21
15.8265457885
 31
0.0
 11
0.0887117099
 21
15.824268861
 31
0.0
  0
SPLINE
  5
619
100
AcDbEntity
  8
PORTATASTO
100
AcDbSpline
 62
253
  6
CONTINUOUS
 70
0
 71
3
 72
18
 73
14
 74
12
 42
0.0000001
 43
0.0000001
 44
0.0000000001
 12
-0.3662499093
 22
-0.0008303874
 32
0.0
 13
-0.0011071506
 23
-0.3662491772
 33
0.0
 40
0.0
 40
0.0
 40
0.0
 40
0.0
 40
0.0971872096
 40
0.1939133523
 40
0.2897218612
 40
0.3842163772
 40
0.4770935418
 40
0.5681682897
 40
0.6573939174
 40
0.7448759241
 40
0.8308652934
 40
0.915759618
 40
1.0
 40
1.0
 40
1.0
 40
1.0
 10
0.0887117099
 20
-31.6313935717
 30
0.0
 10
0.0768467744
 20
-31.6314204727
 30
0.0
 10
0.0531503362
 20
-31.6329355921
 30
0.0
 10
0.0183154397
 20
-31.6395510017
 30
0.0
 10
-0.0151119883
 20
-31.6503773888
 30
0.0
 10
-0.046452515
 20
-31.6652016509
 30
0.0
 10
-0.0750754191
 20
-31.6837317997
 30
0.0
 10
-0.1003992848
 20
-31.7056020999
 30
0.0
 10
-0.1219057767
 20
-31.7303794618
 30
0.0
 10
-0.1391485988
 20
-31.7575681144
 30
0.0
 10
-0.1517646746
 20
-31.7866227838
 30
0.0
 10
-0.1594818412
 20
-31.8169326759
 30
0.0
 10
-0.1612537742
 20
-31.8376155991
 30
0.0
 10
-0.1612848631
 20
-31.8478999227
 30
0.0
 11
0.0887117099
 21
-31.6313935717
 31
0.0
 11
0.0531897319
 21
-31.6336708193
 31
0.0
 11
0.0183885779
 21
-31.6402952755
 31
0.0
 11
-0.0149858994
 21
-31.6511326511
 31
0.0
 11
-0.0462560655
 21
-31.6659629785
 31
0.0
 11
-0.0747873599
 21
-31.6844853073
 31
0.0
 11
-0.1000008067
 21
-31.7063237696
 31
0.0
 11
-0.1213846309
 21
-31.7310350348
 31
0.0
 11
-0.1385050748
 21
-31.7581177789
 31
0.0
 11
-0.1510141154
 21
-31.7870206466
 31
0.0
 11
-0.1586591025
 21
-31.8171587471
 31
0.0
 11
-0.1612848631
 21
-31.8478999227
 31
0.0
  0
SPLINE
  5
61A
100
AcDbEntity
  8
PORTATASTO
100
AcDbSpline
 62
253
  6
CONTINUOUS
 70
0
 71
3
 72
18
 73
14
 74
12
 42
0.0000001
 43
0.0000001
 44
0.0000000001
 12
-0.0011071506
 22
0.3662491663
 32
0.0
 13
-0.3662498983
 23
0.0008303874
 33
0.0
 40
0.0
 40
0.0
 40
0.0
 40
0.0
 40
0.0842955547
 40
0.169189152
 40
0.2551780173
 40
0.3426543807
 40
0.4318741974
 40
0.5229422751
 40
0.6158124279
 40
0.7102995819
 40
0.8061004335
 40
0.9028197334
 40
1.0
 40
1.0
 40
1.0
 40
1.0
 10
2.0796671976
 20
-31.8478999227
 30
0.0
 10
2.0796360883
 20
-31.8376088638
 30
0.0
 10
2.0778624452
 20
-31.8169192212
 30
0.0
 10
2.0701404641
 20
-31.7866037658
 30
0.0
 10
2.0575218277
 20
-31.7575511304
 30
0.0
 10
2.0402773793
 20
-31.7303652787
 30
0.0
 10
2.0187705112
 20
-31.7055912141
 30
0.0
 10
1.9934471496
 20
-31.683724019
 30
0.0
 10
1.9648255563
 20
-31.6651966254
 30
0.0
 10
1.9334869715
 20
-31.6503746101
 30
0.0
 10
1.9000618544
 20
-31.6395498312
 30
0.0
 10
1.8652294614
 20
-31.6329353777
 30
0.0
 10
1.8415347121
 20
-31.6314204708
 30
0.0
 10
1.8296706245
 20
-31.6313935717
 30
0.0
 11
2.0796671976
 21
-31.8478999227
 31
0.0
 11
2.0770380642
 21
-31.8171387555
 31
0.0
 11
2.0693899863
 21
-31.787001715
 31
0.0
 11
2.056878139
 21
-31.7581002644
 31
0.0
 11
2.0397563805
 21
-31.7310207978
 31
0.0
 11
2.0183721016
 21
-31.706312742
 31
0.0
 11
1.9931591771
 21
-31.6844774096
 31
0.0
 11
1.964629163
 21
-31.665957827
 31
0.0
 11
1.9333609169
 21
-31.6511297459
 31
0.0
 11
1.8999888538
 21
-31.6402940198
 31
0.0
 11
1.8651900739
 21
-31.6336704992
 31
0.0
 11
1.8296706245
 21
-31.6313935717
 31
0.0
  0
SPLINE
  5
61B
100
AcDbEntity
  8
PORTATASTO
100
AcDbSpline
 62
253
  6
CONTINUOUS
 70
0
 71
3
 72
16
 73
12
 74
10
 42
0.0000001
 43
0.0000001
 44
0.0000000001
 12
-0.0039285617
 22
0.2164754792
 32
0.0
 13
0.0000000128
 23
0.2165111237
 33
0.0
 40
0.0
 40
0.0
 40
0.0
 40
0.0
 40
0.0732188971
 40
0.1596179091
 40
0.2577063374
 40
0.3656269884
 40
0.4818484537
 40
0.6053651317
 40
0.7346278457
 40
0.8669588964
 40
1.0
 40
1.0
 40
1.0
 40
1.0
 10
18.959784684
 20
-31.1983809133
 30
0.0
 10
18.9596888023
 20
-31.193097548
 30
0.0
 10
18.9595093157
 20
-31.1815792242
 30
0.0
 10
18.9592804865
 20
-31.162981849
 30
0.0
 10
18.9590745128
 20
-31.1418796331
 30
0.0
 10
18.9588950904
 20
-31.1186248133
 30
0.0
 10
18.9587447787
 20
-31.0935345872
 30
0.0
 10
18.9586254893
 20
-31.0669039152
 30
0.0
 10
18.9585391669
 20
-31.0391104761
 30
0.0
 10
18.9584871913
 20
-31.0106295702
 30
0.0
 10
18.9584756746
 20
-30.9914775604
 30
0.0
 10
18.9584756752
 20
-30.9818759341
 30
0.0
 11
18.959784684
 21
-31.1983809133
 31
0.0
 11
18.9595320807
 21
-31.1825302203
 31
0.0
 11
18.9592982925
 21
-31.1638253341
 31
0.0
 11
18.9590883317
 21
-31.1425891362
 31
0.0
 11
18.9589061796
 21
-31.1192238248
 31
0.0
 11
18.9587540785
 21
-31.0940610444
 31
0.0
 11
18.9586333296
 21
-31.0673185823
 31
0.0
 11
18.9585457594
 21
-31.0393319038
 31
0.0
 11
18.9584931121
 21
-31.0106808077
 31
0.0
 11
18.9584756752
 21
-30.9818759341
 31
0.0
  0
SPLINE
  5
61C
100
AcDbEntity
  8
PORTATASTO
100
AcDbSpline
 62
253
  6
CONTINUOUS
 70
0
 71
3
 72
16
 73
12
 74
10
 42
0.0000001
 43
0.0000001
 44
0.0000000001
 12
0.0000000128
 22
-0.2165111267
 32
0.0
 13
-0.0039285624
 23
-0.2164754822
 33
0.0
 40
0.0
 40
0.0
 40
0.0
 40
0.0
 40
0.1330410941
 40
0.2653721429
 40
0.3946348552
 40
0.5181515314
 40
0.6343729951
 40
0.7422936446
 40
0.8403820716
 40
0.9267810823
 40
1.0
 40
1.0
 40
1.0
 40
1.0
 10
20.7099066593
 20
-30.9818759358
 30
0.0
 10
20.7099066598
 20
-30.9914775615
 30
0.0
 10
20.7098951431
 20
-31.0106295708
 30
0.0
 10
20.7098431676
 20
-31.0391104761
 30
0.0
 10
20.7097568452
 20
-31.0669039152
 30
0.0
 10
20.7096375558
 20
-31.0935345872
 30
0.0
 10
20.709487244
 20
-31.1186248133
 30
0.0
 10
20.7093078216
 20
-31.1418796331
 30
0.0
 10
20.709101848
 20
-31.162981849
 30
0.0
 10
20.7088730187
 20
-31.1815792258
 30
0.0
 10
20.7086935321
 20
-31.1930975512
 30
0.0
 10
20.7085976504
 20
-31.198380918
 30
0.0
 11
20.7099066593
 21
-30.9818759358
 31
0.0
 11
20.7098892224
 21
-31.0106808077
 31
0.0
 11
20.7098365751
 21
-31.0393319038
 31
0.0
 11
20.7097490048
 21
-31.0673185823
 31
0.0
 11
20.7096282559
 21
-31.0940610444
 31
0.0
 11
20.7094761548
 21
-31.1192238248
 31
0.0
 11
20.7092940027
 21
-31.1425891362
 31
0.0
 11
20.7090840419
 21
-31.1638253341
 31
0.0
 11
20.7088502538
 21
-31.1825302203
 31
0.0
 11
20.7085976504
 21
-31.198380918
 31
0.0
  0
SPLINE
  5
61D
100
AcDbEntity
  8
PORTATASTO
100
AcDbSpline
 62
253
  6
CONTINUOUS
 70
0
 71
3
 72
18
 73
14
 74
12
 42
0.0000001
 43
0.0000001
 44
0.0000000001
 12
0.3662498989
 22
-0.0008303865
 32
0.0
 13
0.0011071506
 23
-0.3662491668
 33
0.0
 40
0.0
 40
0.0
 40
0.0
 40
0.0
 40
0.097180097
 40
0.1938992423
 40
0.2896999712
 40
0.3841870463
 40
0.4770571712
 40
0.5681252747
 40
0.6573451698
 40
0.7448216444
 40
0.8308106258
 40
0.9157043353
 40
1.0
 40
1.0
 40
1.0
 40
1.0
 10
20.7085976505
 20
-31.1983808698
 30
0.0
 10
20.7204617174
 20
-31.1984077688
 30
0.0
 10
20.744156427
 20
-31.1999226706
 30
0.0
 10
20.7789887682
 20
-31.2065371027
 30
0.0
 10
20.8124138491
 20
-31.217361851
 30
0.0
 10
20.8437524184
 20
-31.2321838331
 30
0.0
 10
20.8723740179
 20
-31.2507111988
 30
0.0
 10
20.8976974049
 20
-31.2725783788
 30
0.0
 10
20.9192043104
 20
-31.297352446
 30
0.0
 10
20.9364487979
 20
-31.3245383177
 30
0.0
 10
20.9490674661
 20
-31.3535909851
 30
0.0
 10
20.9567894673
 20
-31.3839064786
 30
0.0
 10
20.958563115
 20
-31.4045961485
 30
0.0
 10
20.9585942243
 20
-31.4148872208
 30
0.0
 11
20.7085976505
 21
-31.1983808698
 31
0.0
 11
20.7441170382
 21
-31.2006577894
 31
0.0
 11
20.7789157647
 21
-31.2072812882
 31
0.0
 11
20.8122877907
 21
-31.2181169833
 31
0.0
 11
20.8435560207
 21
-31.2329450309
 31
0.0
 11
20.872086041
 21
-31.2514645855
 31
0.0
 11
20.8972989909
 21
-31.273299903
 31
0.0
 11
20.9186833085
 21
-31.2980079632
 31
0.0
 11
20.9358051074
 21
-31.3250874525
 31
0.0
 11
20.9483169866
 21
-31.3539889357
 31
0.0
 11
20.9559650842
 21
-31.3841260137
 31
0.0
 11
20.9585942243
 21
-31.4148872208
 31
0.0
  0
SPLINE
  5
61E
100
AcDbEntity
  8
PORTATASTO
100
AcDbSpline
 62
253
  6
CONTINUOUS
 70
0
 71
3
 72
16
 73
12
 74
10
 42
0.0000001
 43
0.0000001
 44
0.0000000001
 12
0.0039285617
 22
-0.2164754792
 32
0.0
 13
-0.0000000128
 23
-0.2165111237
 33
0.0
 40
0.0
 40
0.0
 40
0.0
 40
0.0
 40
0.0732188971
 40
0.1596179091
 40
0.2577063374
 40
0.3656269884
 40
0.4818484537
 40
0.6053651317
 40
0.7346278457
 40
0.8669588964
 40
1.0
 40
1.0
 40
1.0
 40
1.0
 10
20.7085976505
 20
15.3912562026
 30
0.0
 10
20.7086935321
 20
15.3859728373
 30
0.0
 10
20.7088730187
 20
15.3744545135
 30
0.0
 10
20.709101848
 20
15.3558571383
 30
0.0
 10
20.7093078216
 20
15.3347549224
 30
0.0
 10
20.709487244
 20
15.3115001025
 30
0.0
 10
20.7096375558
 20
15.2864098765
 30
0.0
 10
20.7097568452
 20
15.2597792045
 30
0.0
 10
20.7098431676
 20
15.2319857654
 30
0.0
 10
20.7098951431
 20
15.2035048595
 30
0.0
 10
20.7099066598
 20
15.1843528497
 30
0.0
 10
20.7099066593
 20
15.1747512234
 30
0.0
 11
20.7085976505
 21
15.3912562026
 31
0.0
 11
20.7088502537
 21
15.3754055096
 31
0.0
 11
20.7090840419
 21
15.3567006234
 31
0.0
 11
20.7092940027
 21
15.3354644255
 31
0.0
 11
20.7094761548
 21
15.312099114
 31
0.0
 11
20.7096282559
 21
15.2869363337
 31
0.0
 11
20.7097490048
 21
15.2601938715
 31
0.0
 11
20.7098365751
 21
15.2322071931
 31
0.0
 11
20.7098892224
 21
15.203556097
 31
0.0
 11
20.7099066593
 21
15.1747512234
 31
0.0
  0
SPLINE
  5
61F
100
AcDbEntity
  8
PORTATASTO
100
AcDbSpline
 62
253
  6
CONTINUOUS
 70
0
 71
3
 72
18
 73
14
 74
12
 42
0.0000001
 43
0.0000001
 44
0.0000000001
 12
-0.0011071506
 22
-0.3662491668
 32
0.0
 13
-0.3662498989
 23
-0.0008303865
 33
0.0
 40
0.0
 40
0.0
 40
0.0
 40
0.0
 40
0.0842956646
 40
0.1691893741
 40
0.2551783555
 40
0.34265483
 40
0.4318747249
 40
0.5229428283
 40
0.6158129532
 40
0.7103000283
 40
0.8061007574
 40
0.9028199028
 40
1.0
 40
1.0
 40
1.0
 40
1.0
 10
-20.4164057757
 20
15.60776251
 30
0.0
 10
-20.416436885
 20
15.5974714377
 30
0.0
 10
-20.4182105327
 20
15.5767817679
 30
0.0
 10
-20.4259325339
 20
15.5464662743
 30
0.0
 10
-20.4385512021
 20
15.517413607
 30
0.0
 10
-20.4557956896
 20
15.4902277354
 30
0.0
 10
-20.477302595
 20
15.4654536681
 30
0.0
 10
-20.502625982
 20
15.4435864882
 30
0.0
 10
-20.5312475814
 20
15.4250591225
 30
0.0
 10
-20.5625861507
 20
15.4102371403
 30
0.0
 10
-20.5960112317
 20
15.399412392
 30
0.0
 10
-20.6308435729
 20
15.3927979598
 30
0.0
 10
-20.6545382826
 20
15.3912830581
 30
0.0
 10
-20.6664023495
 20
15.3912561591
 30
0.0
 11
-20.4164057757
 21
15.60776251
 31
0.0
 11
-20.4190349158
 21
15.577001303
 31
0.0
 11
-20.4266830134
 21
15.546864225
 31
0.0
 11
-20.4391948926
 21
15.5179627418
 31
0.0
 11
-20.4563166914
 21
15.4908832525
 31
0.0
 11
-20.477701009
 21
15.4661751923
 31
0.0
 11
-20.5029139589
 21
15.4443398748
 31
0.0
 11
-20.5314439791
 21
15.4258203203
 31
0.0
 11
-20.5627122091
 21
15.4109922727
 31
0.0
 11
-20.5960842352
 21
15.4001565775
 31
0.0
 11
-20.6308829618
 21
15.3935330787
 31
0.0
 11
-20.6664023495
 21
15.3912561591
 31
0.0
  0
SPLINE
  5
620
100
AcDbEntity
  8
PORTATASTO
100
AcDbSpline
 62
253
  6
CONTINUOUS
 70
0
 71
3
 72
18
 73
14
 74
12
 42
0.0000001
 43
0.0000001
 44
0.0000000001
 12
-0.0011071506
 22
-0.3662491668
 32
0.0
 13
-0.3662498989
 23
-0.0008303865
 33
0.0
 40
0.0
 40
0.0
 40
0.0
 40
0.0
 40
0.0842956646
 40
0.1691893741
 40
0.2551783555
 40
0.34265483
 40
0.4318747249
 40
0.5229428283
 40
0.6158129532
 40
0.7103000283
 40
0.8061007574
 40
0.9028199028
 40
1.0
 40
1.0
 40
1.0
 40
1.0
 10
-1.5414057757
 20
15.60776251
 30
0.0
 10
-1.541436885
 20
15.5974714377
 30
0.0
 10
-1.5432105327
 20
15.5767817679
 30
0.0
 10
-1.5509325339
 20
15.5464662743
 30
0.0
 10
-1.5635512021
 20
15.517413607
 30
0.0
 10
-1.5807956896
 20
15.4902277354
 30
0.0
 10
-1.602302595
 20
15.4654536681
 30
0.0
 10
-1.627625982
 20
15.4435864882
 30
0.0
 10
-1.6562475814
 20
15.4250591225
 30
0.0
 10
-1.6875861507
 20
15.4102371403
 30
0.0
 10
-1.7210112317
 20
15.399412392
 30
0.0
 10
-1.7558435729
 20
15.3927979598
 30
0.0
 10
-1.7795382826
 20
15.3912830581
 30
0.0
 10
-1.7914023495
 20
15.3912561591
 30
0.0
 11
-1.5414057757
 21
15.60776251
 31
0.0
 11
-1.5440349158
 21
15.577001303
 31
0.0
 11
-1.5516830134
 21
15.546864225
 31
0.0
 11
-1.5641948926
 21
15.5179627418
 31
0.0
 11
-1.5813166914
 21
15.4908832525
 31
0.0
 11
-1.602701009
 21
15.4661751923
 31
0.0
 11
-1.6279139589
 21
15.4443398748
 31
0.0
 11
-1.6564439791
 21
15.4258203203
 31
0.0
 11
-1.6877122091
 21
15.4109922727
 31
0.0
 11
-1.7210842352
 21
15.4001565775
 31
0.0
 11
-1.7558829618
 21
15.3935330787
 31
0.0
 11
-1.7914023495
 21
15.3912561591
 31
0.0
  0
SPLINE
  5
621
100
AcDbEntity
  8
PORTATASTO
100
AcDbSpline
 62
253
  6
CONTINUOUS
 70
0
 71
3
 72
18
 73
14
 74
12
 42
0.0000001
 43
0.0000001
 44
0.0000000001
 12
0.0011071506
 22
0.3662491668
 32
0.0
 13
0.3662498989
 23
0.0008303865
 33
0.0
 40
0.0
 40
0.0
 40
0.0
 40
0.0
 40
0.0842956646
 40
0.1691893741
 40
0.2551783555
 40
0.34265483
 40
0.4318747249
 40
0.5229428283
 40
0.6158129532
 40
0.7103000283
 40
0.8061007574
 40
0.9028199028
 40
1.0
 40
1.0
 40
1.0
 40
1.0
 10
-22.6652118898
 20
-31.4148872208
 30
0.0
 10
-22.6651807805
 20
-31.4045961485
 30
0.0
 10
-22.6634071328
 20
-31.3839064786
 30
0.0
 10
-22.6556851316
 20
-31.3535909851
 30
0.0
 10
-22.6430664635
 20
-31.3245383177
 30
0.0
 10
-22.625821976
 20
-31.2973524461
 30
0.0
 10
-22.6043150705
 20
-31.2725783789
 30
0.0
 10
-22.5789916836
 20
-31.2507111989
 30
0.0
 10
-22.5503700841
 20
-31.2321838332
 30
0.0
 10
-22.5190315148
 20
-31.217361851
 30
0.0
 10
-22.4856064339
 20
-31.2065371027
 30
0.0
 10
-22.4507740926
 20
-31.1999226706
 30
0.0
 10
-22.427079383
 20
-31.1984077688
 30
0.0
 10
-22.4152153161
 20
-31.1983808698
 30
0.0
 11
-22.6652118898
 21
-31.4148872208
 31
0.0
 11
-22.6625827497
 21
-31.3841260138
 31
0.0
 11
-22.6549346521
 21
-31.3539889358
 31
0.0
 11
-22.642422773
 21
-31.3250874525
 31
0.0
 11
-22.6253009741
 21
-31.2980079632
 31
0.0
 11
-22.6039166566
 21
-31.2732999031
 31
0.0
 11
-22.5787037067
 21
-31.2514645856
 31
0.0
 11
-22.5501736865
 21
-31.232945031
 31
0.0
 11
-22.5189054564
 21
-31.2181169834
 31
0.0
 11
-22.4855334304
 21
-31.2072812883
 31
0.0
 11
-22.4507347038
 21
-31.2006577894
 31
0.0
 11
-22.4152153161
 21
-31.1983808698
 31
0.0
  0
SPLINE
  5
622
100
AcDbEntity
  8
PORTATASTO
100
AcDbSpline
 62
253
  6
CONTINUOUS
 70
0
 71
3
 72
18
 73
14
 74
12
 42
0.0000001
 43
0.0000001
 44
0.0000000001
 12
0.0011071506
 22
0.3662491668
 32
0.0
 13
0.3662498989
 23
0.0008303865
 33
0.0
 40
0.0
 40
0.0
 40
0.0
 40
0.0
 40
0.0842956646
 40
0.1691893741
 40
0.2551783555
 40
0.34265483
 40
0.4318747249
 40
0.5229428283
 40
0.6158129532
 40
0.7103000283
 40
0.8061007574
 40
0.9028199028
 40
1.0
 40
1.0
 40
1.0
 40
1.0
 10
-3.7902118898
 20
-31.4148872208
 30
0.0
 10
-3.7901807805
 20
-31.4045961485
 30
0.0
 10
-3.7884071328
 20
-31.3839064786
 30
0.0
 10
-3.7806851316
 20
-31.3535909851
 30
0.0
 10
-3.7680664635
 20
-31.3245383177
 30
0.0
 10
-3.750821976
 20
-31.2973524461
 30
0.0
 10
-3.7293150705
 20
-31.2725783789
 30
0.0
 10
-3.7039916836
 20
-31.2507111989
 30
0.0
 10
-3.6753700841
 20
-31.2321838332
 30
0.0
 10
-3.6440315148
 20
-31.217361851
 30
0.0
 10
-3.6106064339
 20
-31.2065371027
 30
0.0
 10
-3.5757740926
 20
-31.1999226706
 30
0.0
 10
-3.552079383
 20
-31.1984077688
 30
0.0
 10
-3.5402153161
 20
-31.1983808698
 30
0.0
 11
-3.7902118898
 21
-31.4148872208
 31
0.0
 11
-3.7875827497
 21
-31.3841260138
 31
0.0
 11
-3.7799346521
 21
-31.3539889358
 31
0.0
 11
-3.767422773
 21
-31.3250874525
 31
0.0
 11
-3.7503009741
 21
-31.2980079632
 31
0.0
 11
-3.7289166566
 21
-31.2732999031
 31
0.0
 11
-3.7037037067
 21
-31.2514645856
 31
0.0
 11
-3.6751736865
 21
-31.232945031
 31
0.0
 11
-3.6439054564
 21
-31.2181169834
 31
0.0
 11
-3.6105334304
 21
-31.2072812883
 31
0.0
 11
-3.5757347038
 21
-31.2006577894
 31
0.0
 11
-3.5402153161
 21
-31.1983808698
 31
0.0
  0
SPLINE
  5
623
100
AcDbEntity
  8
PORTATASTO
100
AcDbSpline
 62
253
  6
CONTINUOUS
 70
0
 71
3
 72
18
 73
14
 74
12
 42
0.0000001
 43
0.0000001
 44
0.0000000001
 12
0.3662498989
 22
-0.0008303865
 32
0.0
 13
0.0011071506
 23
-0.3662491668
 33
0.0
 40
0.0
 40
0.0
 40
0.0
 40
0.0
 40
0.097180097
 40
0.1938992423
 40
0.2896999712
 40
0.3841870463
 40
0.4770571712
 40
0.5681252747
 40
0.6573451698
 40
0.7448216444
 40
0.8308106258
 40
0.9157043353
 40
1.0
 40
1.0
 40
1.0
 40
1.0
 10
-20.6664023495
 20
-31.1983808698
 30
0.0
 10
-20.6545382826
 20
-31.1984077688
 30
0.0
 10
-20.630843573
 20
-31.1999226706
 30
0.0
 10
-20.5960112318
 20
-31.2065371027
 30
0.0
 10
-20.5625861509
 20
-31.217361851
 30
0.0
 10
-20.5312475816
 20
-31.2321838331
 30
0.0
 10
-20.5026259821
 20
-31.2507111988
 30
0.0
 10
-20.4773025951
 20
-31.2725783788
 30
0.0
 10
-20.4557956896
 20
-31.297352446
 30
0.0
 10
-20.4385512021
 20
-31.3245383177
 30
0.0
 10
-20.4259325339
 20
-31.3535909851
 30
0.0
 10
-20.4182105327
 20
-31.3839064786
 30
0.0
 10
-20.416436885
 20
-31.4045961485
 30
0.0
 10
-20.4164057757
 20
-31.4148872208
 30
0.0
 11
-20.6664023495
 21
-31.1983808698
 31
0.0
 11
-20.6308829618
 21
-31.2006577894
 31
0.0
 11
-20.5960842353
 21
-31.2072812882
 31
0.0
 11
-20.5627122093
 21
-31.2181169833
 31
0.0
 11
-20.5314439793
 21
-31.2329450309
 31
0.0
 11
-20.502913959
 21
-31.2514645855
 31
0.0
 11
-20.4777010091
 21
-31.273299903
 31
0.0
 11
-20.4563166915
 21
-31.2980079632
 31
0.0
 11
-20.4391948926
 21
-31.3250874525
 31
0.0
 11
-20.4266830134
 21
-31.3539889357
 31
0.0
 11
-20.4190349158
 21
-31.3841260137
 31
0.0
 11
-20.4164057757
 21
-31.4148872208
 31
0.0
  0
SPLINE
  5
624
100
AcDbEntity
  8
PORTATASTO
100
AcDbSpline
 62
253
  6
CONTINUOUS
 70
0
 71
3
 72
16
 73
12
 74
10
 42
0.0000001
 43
0.0000001
 44
0.0000000001
 12
0.0000000128
 22
-0.2165111267
 32
0.0
 13
-0.0039285624
 23
-0.2164754822
 33
0.0
 40
0.0
 40
0.0
 40
0.0
 40
0.0
 40
0.1330410941
 40
0.2653721429
 40
0.3946348552
 40
0.5181515314
 40
0.6343729951
 40
0.7422936446
 40
0.8403820716
 40
0.9267810823
 40
1.0
 40
1.0
 40
1.0
 40
1.0
 10
-20.6650933407
 20
-30.9818759358
 30
0.0
 10
-20.6650933402
 20
-30.9914775615
 30
0.0
 10
-20.6651048569
 20
-31.0106295708
 30
0.0
 10
-20.6651568324
 20
-31.0391104761
 30
0.0
 10
-20.6652431548
 20
-31.0669039152
 30
0.0
 10
-20.6653624442
 20
-31.0935345872
 30
0.0
 10
-20.665512756
 20
-31.1186248133
 30
0.0
 10
-20.6656921784
 20
-31.1418796331
 30
0.0
 10
-20.665898152
 20
-31.162981849
 30
0.0
 10
-20.6661269813
 20
-31.1815792258
 30
0.0
 10
-20.6663064679
 20
-31.1930975512
 30
0.0
 10
-20.6664023496
 20
-31.198380918
 30
0.0
 11
-20.6650933407
 21
-30.9818759358
 31
0.0
 11
-20.6651107776
 21
-31.0106808077
 31
0.0
 11
-20.6651634249
 21
-31.0393319038
 31
0.0
 11
-20.6652509952
 21
-31.0673185823
 31
0.0
 11
-20.6653717441
 21
-31.0940610444
 31
0.0
 11
-20.6655238452
 21
-31.1192238248
 31
0.0
 11
-20.6657059973
 21
-31.1425891362
 31
0.0
 11
-20.6659159581
 21
-31.1638253341
 31
0.0
 11
-20.6661497462
 21
-31.1825302203
 31
0.0
 11
-20.6664023496
 21
-31.198380918
 31
0.0
  0
SPLINE
  5
625
100
AcDbEntity
  8
PORTATASTO
100
AcDbSpline
 62
253
  6
CONTINUOUS
 70
0
 71
3
 72
16
 73
12
 74
10
 42
0.0000001
 43
0.0000001
 44
0.0000000001
 12
-0.0039285617
 22
0.2164754792
 32
0.0
 13
0.0000000128
 23
0.2165111237
 33
0.0
 40
0.0
 40
0.0
 40
0.0
 40
0.0
 40
0.0732188971
 40
0.1596179091
 40
0.2577063374
 40
0.3656269884
 40
0.4818484537
 40
0.6053651317
 40
0.7346278457
 40
0.8669588964
 40
1.0
 40
1.0
 40
1.0
 40
1.0
 10
-22.415215316
 20
-31.1983809133
 30
0.0
 10
-22.4153111977
 20
-31.193097548
 30
0.0
 10
-22.4154906843
 20
-31.1815792242
 30
0.0
 10
-22.4157195135
 20
-31.162981849
 30
0.0
 10
-22.4159254872
 20
-31.1418796331
 30
0.0
 10
-22.4161049096
 20
-31.1186248133
 30
0.0
 10
-22.4162552213
 20
-31.0935345872
 30
0.0
 10
-22.4163745107
 20
-31.0669039152
 30
0.0
 10
-22.4164608331
 20
-31.0391104761
 30
0.0
 10
-22.4165128087
 20
-31.0106295702
 30
0.0
 10
-22.4165243254
 20
-30.9914775604
 30
0.0
 10
-22.4165243248
 20
-30.9818759341
 30
0.0
 11
-22.415215316
 21
-31.1983809133
 31
0.0
 11
-22.4154679193
 21
-31.1825302203
 31
0.0
 11
-22.4157017075
 21
-31.1638253341
 31
0.0
 11
-22.4159116683
 21
-31.1425891362
 31
0.0
 11
-22.4160938204
 21
-31.1192238248
 31
0.0
 11
-22.4162459215
 21
-31.0940610444
 31
0.0
 11
-22.4163666704
 21
-31.0673185823
 31
0.0
 11
-22.4164542406
 21
-31.0393319038
 31
0.0
 11
-22.4165068879
 21
-31.0106808077
 31
0.0
 11
-22.4165243248
 21
-30.9818759341
 31
0.0
  0
SPLINE
  5
626
100
AcDbEntity
  8
PORTATASTO
100
AcDbSpline
 62
253
  6
CONTINUOUS
 70
0
 71
3
 72
18
 73
14
 74
12
 42
0.0000001
 43
0.0000001
 44
0.0000000001
 12
-0.3662498989
 22
0.0008303865
 32
0.0
 13
-0.0011071506
 23
0.3662491668
 33
0.0
 40
0.0
 40
0.0
 40
0.0
 40
0.0
 40
0.097180097
 40
0.1938992423
 40
0.2896999712
 40
0.3841870463
 40
0.4770571712
 40
0.5681252747
 40
0.6573451698
 40
0.7448216444
 40
0.8308106258
 40
0.9157043353
 40
1.0
 40
1.0
 40
1.0
 40
1.0
 10
-22.4152153161
 20
15.3912561591
 30
0.0
 10
-22.427079383
 20
15.3912830581
 30
0.0
 10
-22.4507740926
 20
15.3927979598
 30
0.0
 10
-22.4856064337
 20
15.399412392
 30
0.0
 10
-22.5190315147
 20
15.4102371402
 30
0.0
 10
-22.550370084
 20
15.4250591224
 30
0.0
 10
-22.5789916834
 20
15.4435864881
 30
0.0
 10
-22.6043150704
 20
15.4654536681
 30
0.0
 10
-22.625821976
 20
15.4902277353
 30
0.0
 10
-22.6430664635
 20
15.517413607
 30
0.0
 10
-22.6556851316
 20
15.5464662743
 30
0.0
 10
-22.6634071328
 20
15.5767817679
 30
0.0
 10
-22.6651807805
 20
15.5974714377
 30
0.0
 10
-22.6652118898
 20
15.60776251
 30
0.0
 11
-22.4152153161
 21
15.3912561591
 31
0.0
 11
-22.4507347037
 21
15.3935330787
 31
0.0
 11
-22.4855334302
 21
15.4001565775
 31
0.0
 11
-22.5189054562
 21
15.4109922726
 31
0.0
 11
-22.5501736863
 21
15.4258203202
 31
0.0
 11
-22.5787037065
 21
15.4443398747
 31
0.0
 11
-22.6039166565
 21
15.4661751922
 31
0.0
 11
-22.6253009741
 21
15.4908832525
 31
0.0
 11
-22.642422773
 21
15.5179627418
 31
0.0
 11
-22.6549346521
 21
15.546864225
 31
0.0
 11
-22.6625827497
 21
15.577001303
 31
0.0
 11
-22.6652118898
 21
15.60776251
 31
0.0
  0
SPLINE
  5
627
100
AcDbEntity
  8
PORTATASTO
100
AcDbSpline
 62
253
  6
CONTINUOUS
 70
0
 71
3
 72
16
 73
12
 74
10
 42
0.0000001
 43
0.0000001
 44
0.0000000001
 12
-0.0000000128
 22
0.2165111267
 32
0.0
 13
0.0039285624
 23
0.2164754822
 33
0.0
 40
0.0
 40
0.0
 40
0.0
 40
0.0
 40
0.1330410941
 40
0.2653721429
 40
0.3946348552
 40
0.5181515314
 40
0.6343729951
 40
0.7422936446
 40
0.8403820716
 40
0.9267810823
 40
1.0
 40
1.0
 40
1.0
 40
1.0
 10
-22.4165243248
 20
15.1747512251
 30
0.0
 10
-22.4165243254
 20
15.1843528508
 30
0.0
 10
-22.4165128087
 20
15.2035048601
 30
0.0
 10
-22.4164608331
 20
15.2319857654
 30
0.0
 10
-22.4163745107
 20
15.2597792045
 30
0.0
 10
-22.4162552213
 20
15.2864098765
 30
0.0
 10
-22.4161049096
 20
15.3115001025
 30
0.0
 10
-22.4159254872
 20
15.3347549224
 30
0.0
 10
-22.4157195135
 20
15.3558571383
 30
0.0
 10
-22.4154906843
 20
15.3744545151
 30
0.0
 10
-22.4153111976
 20
15.3859728404
 30
0.0
 10
-22.4152153159
 20
15.3912562073
 30
0.0
 11
-22.4165243248
 21
15.1747512251
 31
0.0
 11
-22.4165068879
 21
15.203556097
 31
0.0
 11
-22.4164542406
 21
15.2322071931
 31
0.0
 11
-22.4163666704
 21
15.2601938715
 31
0.0
 11
-22.4162459215
 21
15.2869363337
 31
0.0
 11
-22.4160938204
 21
15.312099114
 31
0.0
 11
-22.4159116683
 21
15.3354644255
 31
0.0
 11
-22.4157017075
 21
15.3567006234
 31
0.0
 11
-22.4154679193
 21
15.3754055096
 31
0.0
 11
-22.4152153159
 21
15.3912562073
 31
0.0
  0
SPLINE
  5
628
100
AcDbEntity
  8
PORTATASTO
100
AcDbSpline
 62
253
  6
CONTINUOUS
 70
0
 71
3
 72
16
 73
12
 74
10
 42
0.0000001
 43
0.0000001
 44
0.0000000001
 12
0.0039285617
 22
-0.2164754792
 32
0.0
 13
-0.0000000128
 23
-0.2165111237
 33
0.0
 40
0.0
 40
0.0
 40
0.0
 40
0.0
 40
0.0732188971
 40
0.1596179091
 40
0.2577063374
 40
0.3656269884
 40
0.4818484537
 40
0.6053651317
 40
0.7346278457
 40
0.8669588964
 40
1.0
 40
1.0
 40
1.0
 40
1.0
 10
-20.6664023495
 20
15.3912562026
 30
0.0
 10
-20.6663064679
 20
15.3859728373
 30
0.0
 10
-20.6661269813
 20
15.3744545135
 30
0.0
 10
-20.665898152
 20
15.3558571383
 30
0.0
 10
-20.6656921784
 20
15.3347549224
 30
0.0
 10
-20.665512756
 20
15.3115001025
 30
0.0
 10
-20.6653624442
 20
15.2864098765
 30
0.0
 10
-20.6652431548
 20
15.2597792045
 30
0.0
 10
-20.6651568324
 20
15.2319857654
 30
0.0
 10
-20.6651048569
 20
15.2035048595
 30
0.0
 10
-20.6650933402
 20
15.1843528497
 30
0.0
 10
-20.6650933407
 20
15.1747512234
 30
0.0
 11
-20.6664023495
 21
15.3912562026
 31
0.0
 11
-20.6661497463
 21
15.3754055096
 31
0.0
 11
-20.6659159581
 21
15.3567006234
 31
0.0
 11
-20.6657059973
 21
15.3354644255
 31
0.0
 11
-20.6655238452
 21
15.312099114
 31
0.0
 11
-20.6653717441
 21
15.2869363337
 31
0.0
 11
-20.6652509952
 21
15.2601938715
 31
0.0
 11
-20.6651634249
 21
15.2322071931
 31
0.0
 11
-20.6651107776
 21
15.203556097
 31
0.0
 11
-20.6650933407
 21
15.1747512234
 31
0.0
  0
SPLINE
  5
629
100
AcDbEntity
  8
PORTATASTO
100
AcDbSpline
 62
253
  6
CONTINUOUS
 70
0
 71
3
 72
18
 73
14
 74
12
 42
0.0000001
 43
0.0000001
 44
0.0000000001
 12
-0.3662498989
 22
0.0008303865
 32
0.0
 13
-0.0011071506
 23
0.3662491668
 33
0.0
 40
0.0
 40
0.0
 40
0.0
 40
0.0
 40
0.097180097
 40
0.1938992423
 40
0.2896999712
 40
0.3841870463
 40
0.4770571712
 40
0.5681252747
 40
0.6573451698
 40
0.7448216444
 40
0.8308106258
 40
0.9157043353
 40
1.0
 40
1.0
 40
1.0
 40
1.0
 10
-3.5402153161
 20
15.3912561591
 30
0.0
 10
-3.552079383
 20
15.3912830581
 30
0.0
 10
-3.5757740926
 20
15.3927979598
 30
0.0
 10
-3.6106064337
 20
15.399412392
 30
0.0
 10
-3.6440315147
 20
15.4102371402
 30
0.0
 10
-3.675370084
 20
15.4250591224
 30
0.0
 10
-3.7039916834
 20
15.4435864881
 30
0.0
 10
-3.7293150704
 20
15.4654536681
 30
0.0
 10
-3.750821976
 20
15.4902277353
 30
0.0
 10
-3.7680664635
 20
15.517413607
 30
0.0
 10
-3.7806851316
 20
15.5464662743
 30
0.0
 10
-3.7884071328
 20
15.5767817679
 30
0.0
 10
-3.7901807805
 20
15.5974714377
 30
0.0
 10
-3.7902118898
 20
15.60776251
 30
0.0
 11
-3.5402153161
 21
15.3912561591
 31
0.0
 11
-3.5757347037
 21
15.3935330787
 31
0.0
 11
-3.6105334302
 21
15.4001565775
 31
0.0
 11
-3.6439054562
 21
15.4109922726
 31
0.0
 11
-3.6751736863
 21
15.4258203202
 31
0.0
 11
-3.7037037065
 21
15.4443398747
 31
0.0
 11
-3.7289166565
 21
15.4661751922
 31
0.0
 11
-3.7503009741
 21
15.4908832525
 31
0.0
 11
-3.767422773
 21
15.5179627418
 31
0.0
 11
-3.7799346521
 21
15.546864225
 31
0.0
 11
-3.7875827497
 21
15.577001303
 31
0.0
 11
-3.7902118898
 21
15.60776251
 31
0.0
  0
SPLINE
  5
62A
100
AcDbEntity
  8
PORTATASTO
100
AcDbSpline
 62
253
  6
CONTINUOUS
 70
0
 71
3
 72
16
 73
12
 74
10
 42
0.0000001
 43
0.0000001
 44
0.0000000001
 12
-0.0000000128
 22
0.2165111267
 32
0.0
 13
0.0039285624
 23
0.2164754822
 33
0.0
 40
0.0
 40
0.0
 40
0.0
 40
0.0
 40
0.1330410941
 40
0.2653721429
 40
0.3946348552
 40
0.5181515314
 40
0.6343729951
 40
0.7422936446
 40
0.8403820716
 40
0.9267810823
 40
1.0
 40
1.0
 40
1.0
 40
1.0
 10
-3.5415243248
 20
15.1747512251
 30
0.0
 10
-3.5415243254
 20
15.1843528508
 30
0.0
 10
-3.5415128087
 20
15.2035048601
 30
0.0
 10
-3.5414608331
 20
15.2319857654
 30
0.0
 10
-3.5413745107
 20
15.2597792045
 30
0.0
 10
-3.5412552213
 20
15.2864098765
 30
0.0
 10
-3.5411049096
 20
15.3115001025
 30
0.0
 10
-3.5409254872
 20
15.3347549224
 30
0.0
 10
-3.5407195135
 20
15.3558571383
 30
0.0
 10
-3.5404906843
 20
15.3744545151
 30
0.0
 10
-3.5403111976
 20
15.3859728404
 30
0.0
 10
-3.5402153159
 20
15.3912562073
 30
0.0
 11
-3.5415243248
 21
15.1747512251
 31
0.0
 11
-3.5415068879
 21
15.203556097
 31
0.0
 11
-3.5414542406
 21
15.2322071931
 31
0.0
 11
-3.5413666704
 21
15.2601938715
 31
0.0
 11
-3.5412459215
 21
15.2869363337
 31
0.0
 11
-3.5410938204
 21
15.312099114
 31
0.0
 11
-3.5409116683
 21
15.3354644255
 31
0.0
 11
-3.5407017075
 21
15.3567006234
 31
0.0
 11
-3.5404679193
 21
15.3754055096
 31
0.0
 11
-3.5402153159
 21
15.3912562073
 31
0.0
  0
SPLINE
  5
62B
100
AcDbEntity
  8
PORTATASTO
100
AcDbSpline
 62
253
  6
CONTINUOUS
 70
0
 71
3
 72
16
 73
12
 74
10
 42
0.0000001
 43
0.0000001
 44
0.0000000001
 12
0.0039285617
 22
-0.2164754792
 32
0.0
 13
-0.0000000128
 23
-0.2165111237
 33
0.0
 40
0.0
 40
0.0
 40
0.0
 40
0.0
 40
0.0732188971
 40
0.1596179091
 40
0.2577063374
 40
0.3656269884
 40
0.4818484537
 40
0.6053651317
 40
0.7346278457
 40
0.8669588964
 40
1.0
 40
1.0
 40
1.0
 40
1.0
 10
-1.7914023495
 20
15.3912562026
 30
0.0
 10
-1.7913064679
 20
15.3859728373
 30
0.0
 10
-1.7911269813
 20
15.3744545135
 30
0.0
 10
-1.790898152
 20
15.3558571383
 30
0.0
 10
-1.7906921784
 20
15.3347549224
 30
0.0
 10
-1.790512756
 20
15.3115001025
 30
0.0
 10
-1.7903624442
 20
15.2864098765
 30
0.0
 10
-1.7902431548
 20
15.2597792045
 30
0.0
 10
-1.7901568324
 20
15.2319857654
 30
0.0
 10
-1.7901048569
 20
15.2035048595
 30
0.0
 10
-1.7900933402
 20
15.1843528497
 30
0.0
 10
-1.7900933407
 20
15.1747512234
 30
0.0
 11
-1.7914023495
 21
15.3912562026
 31
0.0
 11
-1.7911497463
 21
15.3754055096
 31
0.0
 11
-1.7909159581
 21
15.3567006234
 31
0.0
 11
-1.7907059973
 21
15.3354644255
 31
0.0
 11
-1.7905238452
 21
15.312099114
 31
0.0
 11
-1.7903717441
 21
15.2869363337
 31
0.0
 11
-1.7902509952
 21
15.2601938715
 31
0.0
 11
-1.7901634249
 21
15.2322071931
 31
0.0
 11
-1.7901107776
 21
15.203556097
 31
0.0
 11
-1.7900933407
 21
15.1747512234
 31
0.0
  0
SPLINE
  5
62C
100
AcDbEntity
  8
PORTATASTO
100
AcDbSpline
 62
253
  6
CONTINUOUS
 70
0
 71
3
 72
18
 73
14
 74
12
 42
0.0000001
 43
0.0000001
 44
0.0000000001
 12
0.3662498989
 22
-0.0008303865
 32
0.0
 13
0.0011071506
 23
-0.3662491668
 33
0.0
 40
0.0
 40
0.0
 40
0.0
 40
0.0
 40
0.097180097
 40
0.1938992423
 40
0.2896999712
 40
0.3841870463
 40
0.4770571712
 40
0.5681252747
 40
0.6573451698
 40
0.7448216444
 40
0.8308106258
 40
0.9157043353
 40
1.0
 40
1.0
 40
1.0
 40
1.0
 10
-1.7914023495
 20
-31.1983808698
 30
0.0
 10
-1.7795382826
 20
-31.1984077688
 30
0.0
 10
-1.755843573
 20
-31.1999226706
 30
0.0
 10
-1.7210112318
 20
-31.2065371027
 30
0.0
 10
-1.6875861509
 20
-31.217361851
 30
0.0
 10
-1.6562475816
 20
-31.2321838331
 30
0.0
 10
-1.6276259821
 20
-31.2507111988
 30
0.0
 10
-1.6023025951
 20
-31.2725783788
 30
0.0
 10
-1.5807956896
 20
-31.297352446
 30
0.0
 10
-1.5635512021
 20
-31.3245383177
 30
0.0
 10
-1.5509325339
 20
-31.3535909851
 30
0.0
 10
-1.5432105327
 20
-31.3839064786
 30
0.0
 10
-1.541436885
 20
-31.4045961485
 30
0.0
 10
-1.5414057757
 20
-31.4148872208
 30
0.0
 11
-1.7914023495
 21
-31.1983808698
 31
0.0
 11
-1.7558829618
 21
-31.2006577894
 31
0.0
 11
-1.7210842353
 21
-31.2072812882
 31
0.0
 11
-1.6877122093
 21
-31.2181169833
 31
0.0
 11
-1.6564439793
 21
-31.2329450309
 31
0.0
 11
-1.627913959
 21
-31.2514645855
 31
0.0
 11
-1.6027010091
 21
-31.273299903
 31
0.0
 11
-1.5813166915
 21
-31.2980079632
 31
0.0
 11
-1.5641948926
 21
-31.3250874525
 31
0.0
 11
-1.5516830134
 21
-31.3539889357
 31
0.0
 11
-1.5440349158
 21
-31.3841260137
 31
0.0
 11
-1.5414057757
 21
-31.4148872208
 31
0.0
  0
SPLINE
  5
62D
100
AcDbEntity
  8
PORTATASTO
100
AcDbSpline
 62
253
  6
CONTINUOUS
 70
0
 71
3
 72
16
 73
12
 74
10
 42
0.0000001
 43
0.0000001
 44
0.0000000001
 12
0.0000000128
 22
-0.2165111267
 32
0.0
 13
-0.0039285624
 23
-0.2164754822
 33
0.0
 40
0.0
 40
0.0
 40
0.0
 40
0.0
 40
0.1330410941
 40
0.2653721429
 40
0.3946348552
 40
0.5181515314
 40
0.6343729951
 40
0.7422936446
 40
0.8403820716
 40
0.9267810823
 40
1.0
 40
1.0
 40
1.0
 40
1.0
 10
-1.7900933407
 20
-30.9818759358
 30
0.0
 10
-1.7900933402
 20
-30.9914775615
 30
0.0
 10
-1.7901048569
 20
-31.0106295708
 30
0.0
 10
-1.7901568324
 20
-31.0391104761
 30
0.0
 10
-1.7902431548
 20
-31.0669039152
 30
0.0
 10
-1.7903624442
 20
-31.0935345872
 30
0.0
 10
-1.790512756
 20
-31.1186248133
 30
0.0
 10
-1.7906921784
 20
-31.1418796331
 30
0.0
 10
-1.790898152
 20
-31.162981849
 30
0.0
 10
-1.7911269813
 20
-31.1815792258
 30
0.0
 10
-1.7913064679
 20
-31.1930975512
 30
0.0
 10
-1.7914023496
 20
-31.198380918
 30
0.0
 11
-1.7900933407
 21
-30.9818759358
 31
0.0
 11
-1.7901107776
 21
-31.0106808077
 31
0.0
 11
-1.7901634249
 21
-31.0393319038
 31
0.0
 11
-1.7902509952
 21
-31.0673185823
 31
0.0
 11
-1.7903717441
 21
-31.0940610444
 31
0.0
 11
-1.7905238452
 21
-31.1192238248
 31
0.0
 11
-1.7907059973
 21
-31.1425891362
 31
0.0
 11
-1.7909159581
 21
-31.1638253341
 31
0.0
 11
-1.7911497462
 21
-31.1825302203
 31
0.0
 11
-1.7914023496
 21
-31.198380918
 31
0.0
  0
SPLINE
  5
62E
100
AcDbEntity
  8
PORTATASTO
100
AcDbSpline
 62
253
  6
CONTINUOUS
 70
0
 71
3
 72
16
 73
12
 74
10
 42
0.0000001
 43
0.0000001
 44
0.0000000001
 12
-0.0039285617
 22
0.2164754792
 32
0.0
 13
0.0000000128
 23
0.2165111237
 33
0.0
 40
0.0
 40
0.0
 40
0.0
 40
0.0
 40
0.0732188971
 40
0.1596179091
 40
0.2577063374
 40
0.3656269884
 40
0.4818484537
 40
0.6053651317
 40
0.7346278457
 40
0.8669588964
 40
1.0
 40
1.0
 40
1.0
 40
1.0
 10
-3.540215316
 20
-31.1983809133
 30
0.0
 10
-3.5403111977
 20
-31.193097548
 30
0.0
 10
-3.5404906843
 20
-31.1815792242
 30
0.0
 10
-3.5407195135
 20
-31.162981849
 30
0.0
 10
-3.5409254872
 20
-31.1418796331
 30
0.0
 10
-3.5411049096
 20
-31.1186248133
 30
0.0
 10
-3.5412552213
 20
-31.0935345872
 30
0.0
 10
-3.5413745107
 20
-31.0669039152
 30
0.0
 10
-3.5414608331
 20
-31.0391104761
 30
0.0
 10
-3.5415128087
 20
-31.0106295702
 30
0.0
 10
-3.5415243254
 20
-30.9914775604
 30
0.0
 10
-3.5415243248
 20
-30.9818759341
 30
0.0
 11
-3.540215316
 21
-31.1983809133
 31
0.0
 11
-3.5404679193
 21
-31.1825302203
 31
0.0
 11
-3.5407017075
 21
-31.1638253341
 31
0.0
 11
-3.5409116683
 21
-31.1425891362
 31
0.0
 11
-3.5410938204
 21
-31.1192238248
 31
0.0
 11
-3.5412459215
 21
-31.0940610444
 31
0.0
 11
-3.5413666704
 21
-31.0673185823
 31
0.0
 11
-3.5414542406
 21
-31.0393319038
 31
0.0
 11
-3.5415068879
 21
-31.0106808077
 31
0.0
 11
-3.5415243248
 21
-30.9818759341
 31
0.0
  0
SPLINE
  5
62F
100
AcDbEntity
  8
PORTATASTO
100
AcDbSpline
 62
253
  6
CONTINUOUS
 70
0
 71
3
 72
18
 73
14
 74
12
 42
0.0000001
 43
0.0000001
 44
0.0000000001
 12
-0.0011071506
 22
0.3662491663
 32
0.0
 13
-0.3662498983
 23
0.0008303874
 33
0.0
 40
0.0
 40
0.0
 40
0.0
 40
0.0
 40
0.0842955547
 40
0.169189152
 40
0.2551780173
 40
0.3426543807
 40
0.4318741974
 40
0.5229422751
 40
0.6158124279
 40
0.7102995819
 40
0.8061004335
 40
0.9028197334
 40
1.0
 40
1.0
 40
1.0
 40
1.0
 10
-20.4203328024
 20
-31.8478999227
 30
0.0
 10
-20.4203639117
 20
-31.8376088638
 30
0.0
 10
-20.4221375548
 20
-31.8169192212
 30
0.0
 10
-20.4298595359
 20
-31.7866037658
 30
0.0
 10
-20.4424781723
 20
-31.7575511304
 30
0.0
 10
-20.4597226207
 20
-31.7303652787
 30
0.0
 10
-20.4812294888
 20
-31.7055912141
 30
0.0
 10
-20.5065528504
 20
-31.683724019
 30
0.0
 10
-20.5351744437
 20
-31.6651966254
 30
0.0
 10
-20.5665130285
 20
-31.6503746101
 30
0.0
 10
-20.5999381456
 20
-31.6395498312
 30
0.0
 10
-20.6347705386
 20
-31.6329353777
 30
0.0
 10
-20.6584652879
 20
-31.6314204708
 30
0.0
 10
-20.6703293755
 20
-31.6313935717
 30
0.0
 11
-20.4203328024
 21
-31.8478999227
 31
0.0
 11
-20.4229619358
 21
-31.8171387555
 31
0.0
 11
-20.4306100137
 21
-31.787001715
 31
0.0
 11
-20.443121861
 21
-31.7581002644
 31
0.0
 11
-20.4602436195
 21
-31.7310207978
 31
0.0
 11
-20.4816278984
 21
-31.706312742
 31
0.0
 11
-20.5068408229
 21
-31.6844774096
 31
0.0
 11
-20.535370837
 21
-31.665957827
 31
0.0
 11
-20.5666390831
 21
-31.6511297459
 31
0.0
 11
-20.6000111462
 21
-31.6402940198
 31
0.0
 11
-20.6348099261
 21
-31.6336704992
 31
0.0
 11
-20.6703293755
 21
-31.6313935717
 31
0.0
  0
SPLINE
  5
630
100
AcDbEntity
  8
PORTATASTO
100
AcDbSpline
 62
253
  6
CONTINUOUS
 70
0
 71
3
 72
18
 73
14
 74
12
 42
0.0000001
 43
0.0000001
 44
0.0000000001
 12
-0.3662499093
 22
-0.0008303874
 32
0.0
 13
-0.0011071506
 23
-0.3662491772
 33
0.0
 40
0.0
 40
0.0
 40
0.0
 40
0.0
 40
0.0971872096
 40
0.1939133523
 40
0.2897218612
 40
0.3842163772
 40
0.4770935418
 40
0.5681682897
 40
0.6573939174
 40
0.7448759241
 40
0.8308652934
 40
0.915759618
 40
1.0
 40
1.0
 40
1.0
 40
1.0
 10
-22.4112882901
 20
-31.6313935717
 30
0.0
 10
-22.4231532256
 20
-31.6314204727
 30
0.0
 10
-22.4468496638
 20
-31.6329355921
 30
0.0
 10
-22.4816845603
 20
-31.6395510017
 30
0.0
 10
-22.5151119883
 20
-31.6503773888
 30
0.0
 10
-22.546452515
 20
-31.6652016509
 30
0.0
 10
-22.5750754191
 20
-31.6837317997
 30
0.0
 10
-22.6003992848
 20
-31.7056020999
 30
0.0
 10
-22.6219057767
 20
-31.7303794618
 30
0.0
 10
-22.6391485988
 20
-31.7575681144
 30
0.0
 10
-22.6517646746
 20
-31.7866227838
 30
0.0
 10
-22.6594818412
 20
-31.8169326759
 30
0.0
 10
-22.6612537742
 20
-31.8376155991
 30
0.0
 10
-22.6612848631
 20
-31.8478999227
 30
0.0
 11
-22.4112882901
 21
-31.6313935717
 31
0.0
 11
-22.4468102681
 21
-31.6336708193
 31
0.0
 11
-22.4816114221
 21
-31.6402952755
 31
0.0
 11
-22.5149858994
 21
-31.6511326511
 31
0.0
 11
-22.5462560655
 21
-31.6659629785
 31
0.0
 11
-22.5747873599
 21
-31.6844853073
 31
0.0
 11
-22.6000008067
 21
-31.7063237696
 31
0.0
 11
-22.6213846309
 21
-31.7310350348
 31
0.0
 11
-22.6385050748
 21
-31.7581177789
 31
0.0
 11
-22.6510141154
 21
-31.7870206466
 31
0.0
 11
-22.6586591025
 21
-31.8171587471
 31
0.0
 11
-22.6612848631
 21
-31.8478999227
 31
0.0
  0
SPLINE
  5
631
100
AcDbEntity
  8
PORTATASTO
100
AcDbSpline
 62
253
  6
CONTINUOUS
 70
0
 71
3
 72
18
 73
14
 74
12
 42
0.0000001
 43
0.0000001
 44
0.0000000001
 12
0.0011071506
 22
-0.3662491663
 32
0.0
 13
0.3662498983
 23
-0.0008303874
 33
0.0
 40
0.0
 40
0.0
 40
0.0
 40
0.0
 40
0.0842955547
 40
0.169189152
 40
0.2551780173
 40
0.3426543807
 40
0.4318741974
 40
0.5229422751
 40
0.6158124279
 40
0.7102995819
 40
0.8061004335
 40
0.9028197334
 40
1.0
 40
1.0
 40
1.0
 40
1.0
 10
-22.6612848631
 20
16.0407752119
 30
0.0
 10
-22.6612537538
 20
16.0304841531
 30
0.0
 10
-22.6594801107
 20
16.0097945105
 30
0.0
 10
-22.6517581296
 20
15.979479055
 30
0.0
 10
-22.6391394933
 20
15.9504264196
 30
0.0
 10
-22.6218950448
 20
15.923240568
 30
0.0
 10
-22.6003881767
 20
15.8984665034
 30
0.0
 10
-22.5750648151
 20
15.8765993083
 30
0.0
 10
-22.5464432219
 20
15.8580719147
 30
0.0
 10
-22.515104637
 20
15.8432498993
 30
0.0
 10
-22.4816795199
 20
15.8324251205
 30
0.0
 10
-22.4468471269
 20
15.825810667
 30
0.0
 10
-22.4231523777
 20
15.8242957601
 30
0.0
 10
-22.4112882901
 20
15.824268861
 30
0.0
 11
-22.6612848631
 21
16.0407752119
 31
0.0
 11
-22.6586557298
 21
16.0100140448
 31
0.0
 11
-22.6510076518
 21
15.9798770042
 31
0.0
 11
-22.6384958045
 21
15.9509755537
 31
0.0
 11
-22.621374046
 21
15.923896087
 31
0.0
 11
-22.5999897671
 21
15.8991880313
 31
0.0
 11
-22.5747768427
 21
15.8773526989
 31
0.0
 11
-22.5462468285
 21
15.8588331163
 31
0.0
 11
-22.5149785825
 21
15.8440050352
 31
0.0
 11
-22.4816065194
 21
15.833169309
 31
0.0
 11
-22.4468077394
 21
15.8265457885
 31
0.0
 11
-22.4112882901
 21
15.824268861
 31
0.0
  0
SPLINE
  5
632
100
AcDbEntity
  8
PORTATASTO
100
AcDbSpline
 62
253
  6
CONTINUOUS
 70
0
 71
3
 72
18
 73
14
 74
12
 42
0.0000001
 43
0.0000001
 44
0.0000000001
 12
0.3662499093
 22
0.0008303874
 32
0.0
 13
0.0011071506
 23
0.3662491772
 33
0.0
 40
0.0
 40
0.0
 40
0.0
 40
0.0
 40
0.0971872096
 40
0.1939133523
 40
0.2897218612
 40
0.3842163772
 40
0.4770935418
 40
0.5681682897
 40
0.6573939174
 40
0.7448759241
 40
0.8308652934
 40
0.915759618
 40
1.0
 40
1.0
 40
1.0
 40
1.0
 10
-20.6703293755
 20
15.824268861
 30
0.0
 10
-20.6584644399
 20
15.824295762
 30
0.0
 10
-20.6347680017
 20
15.8258108814
 30
0.0
 10
-20.5999331052
 20
15.832426291
 30
0.0
 10
-20.5665056773
 20
15.8432526781
 30
0.0
 10
-20.5351651506
 20
15.8580769402
 30
0.0
 10
-20.5065422464
 20
15.876607089
 30
0.0
 10
-20.4812183808
 20
15.8984773892
 30
0.0
 10
-20.4597118888
 20
15.9232547511
 30
0.0
 10
-20.4424690667
 20
15.9504434037
 30
0.0
 10
-20.429852991
 20
15.979498073
 30
0.0
 10
-20.4221358244
 20
16.0098079652
 30
0.0
 10
-20.4203638914
 20
16.0304908884
 30
0.0
 10
-20.4203328024
 20
16.0407752119
 30
0.0
 11
-20.6703293755
 21
15.824268861
 31
0.0
 11
-20.6348073975
 21
15.8265461086
 31
0.0
 11
-20.6000062434
 21
15.8331705647
 31
0.0
 11
-20.5666317661
 21
15.8440079404
 31
0.0
 11
-20.5353616
 21
15.8588382677
 31
0.0
 11
-20.5068303057
 21
15.8773605966
 31
0.0
 11
-20.4816168588
 21
15.8991990589
 31
0.0
 11
-20.4602330347
 21
15.923910324
 31
0.0
 11
-20.4431125908
 21
15.9509930682
 31
0.0
 11
-20.4306035502
 21
15.9798959359
 31
0.0
 11
-20.4229585631
 21
16.0100340364
 31
0.0
 11
-20.4203328024
 21
16.0407752119
 31
0.0
  0
SPLINE
  5
633
100
AcDbEntity
  8
PORTATASTO
100
AcDbSpline
 62
253
  6
CONTINUOUS
 70
0
 71
3
 72
18
 73
14
 74
12
 42
0.0000001
 43
0.0000001
 44
0.0000000001
 12
0.0011071506
 22
-0.3662491663
 32
0.0
 13
0.3662498983
 23
-0.0008303874
 33
0.0
 40
0.0
 40
0.0
 40
0.0
 40
0.0
 40
0.0842955547
 40
0.169189152
 40
0.2551780173
 40
0.3426543807
 40
0.4318741974
 40
0.5229422751
 40
0.6158124279
 40
0.7102995819
 40
0.8061004335
 40
0.9028197334
 40
1.0
 40
1.0
 40
1.0
 40
1.0
 10
-3.7862848631
 20
16.0407752119
 30
0.0
 10
-3.7862537538
 20
16.0304841531
 30
0.0
 10
-3.7844801107
 20
16.0097945105
 30
0.0
 10
-3.7767581296
 20
15.979479055
 30
0.0
 10
-3.7641394933
 20
15.9504264196
 30
0.0
 10
-3.7468950448
 20
15.923240568
 30
0.0
 10
-3.7253881767
 20
15.8984665034
 30
0.0
 10
-3.7000648151
 20
15.8765993083
 30
0.0
 10
-3.6714432219
 20
15.8580719147
 30
0.0
 10
-3.640104637
 20
15.8432498993
 30
0.0
 10
-3.6066795199
 20
15.8324251205
 30
0.0
 10
-3.5718471269
 20
15.825810667
 30
0.0
 10
-3.5481523777
 20
15.8242957601
 30
0.0
 10
-3.5362882901
 20
15.824268861
 30
0.0
 11
-3.7862848631
 21
16.0407752119
 31
0.0
 11
-3.7836557298
 21
16.0100140448
 31
0.0
 11
-3.7760076518
 21
15.9798770042
 31
0.0
 11
-3.7634958045
 21
15.9509755537
 31
0.0
 11
-3.746374046
 21
15.923896087
 31
0.0
 11
-3.7249897671
 21
15.8991880313
 31
0.0
 11
-3.6997768427
 21
15.8773526989
 31
0.0
 11
-3.6712468285
 21
15.8588331163
 31
0.0
 11
-3.6399785825
 21
15.8440050352
 31
0.0
 11
-3.6066065194
 21
15.833169309
 31
0.0
 11
-3.5718077394
 21
15.8265457885
 31
0.0
 11
-3.5362882901
 21
15.824268861
 31
0.0
  0
SPLINE
  5
634
100
AcDbEntity
  8
PORTATASTO
100
AcDbSpline
 62
253
  6
CONTINUOUS
 70
0
 71
3
 72
18
 73
14
 74
12
 42
0.0000001
 43
0.0000001
 44
0.0000000001
 12
0.3662499093
 22
0.0008303874
 32
0.0
 13
0.0011071506
 23
0.3662491772
 33
0.0
 40
0.0
 40
0.0
 40
0.0
 40
0.0
 40
0.0971872096
 40
0.1939133523
 40
0.2897218612
 40
0.3842163772
 40
0.4770935418
 40
0.5681682897
 40
0.6573939174
 40
0.7448759241
 40
0.8308652934
 40
0.915759618
 40
1.0
 40
1.0
 40
1.0
 40
1.0
 10
-1.7953293755
 20
15.824268861
 30
0.0
 10
-1.7834644399
 20
15.824295762
 30
0.0
 10
-1.7597680017
 20
15.8258108814
 30
0.0
 10
-1.7249331052
 20
15.832426291
 30
0.0
 10
-1.6915056773
 20
15.8432526781
 30
0.0
 10
-1.6601651506
 20
15.8580769402
 30
0.0
 10
-1.6315422464
 20
15.876607089
 30
0.0
 10
-1.6062183808
 20
15.8984773892
 30
0.0
 10
-1.5847118888
 20
15.9232547511
 30
0.0
 10
-1.5674690667
 20
15.9504434037
 30
0.0
 10
-1.554852991
 20
15.979498073
 30
0.0
 10
-1.5471358244
 20
16.0098079652
 30
0.0
 10
-1.5453638914
 20
16.0304908884
 30
0.0
 10
-1.5453328024
 20
16.0407752119
 30
0.0
 11
-1.7953293755
 21
15.824268861
 31
0.0
 11
-1.7598073975
 21
15.8265461086
 31
0.0
 11
-1.7250062434
 21
15.8331705647
 31
0.0
 11
-1.6916317661
 21
15.8440079404
 31
0.0
 11
-1.6603616
 21
15.8588382677
 31
0.0
 11
-1.6318303057
 21
15.8773605966
 31
0.0
 11
-1.6066168588
 21
15.8991990589
 31
0.0
 11
-1.5852330347
 21
15.923910324
 31
0.0
 11
-1.5681125908
 21
15.9509930682
 31
0.0
 11
-1.5556035502
 21
15.9798959359
 31
0.0
 11
-1.5479585631
 21
16.0100340364
 31
0.0
 11
-1.5453328024
 21
16.0407752119
 31
0.0
  0
SPLINE
  5
635
100
AcDbEntity
  8
PORTATASTO
100
AcDbSpline
 62
253
  6
CONTINUOUS
 70
0
 71
3
 72
18
 73
14
 74
12
 42
0.0000001
 43
0.0000001
 44
0.0000000001
 12
-0.0011071506
 22
0.3662491663
 32
0.0
 13
-0.3662498983
 23
0.0008303874
 33
0.0
 40
0.0
 40
0.0
 40
0.0
 40
0.0
 40
0.0842955547
 40
0.169189152
 40
0.2551780173
 40
0.3426543807
 40
0.4318741974
 40
0.5229422751
 40
0.6158124279
 40
0.7102995819
 40
0.8061004335
 40
0.9028197334
 40
1.0
 40
1.0
 40
1.0
 40
1.0
 10
-1.5453328024
 20
-31.8478999227
 30
0.0
 10
-1.5453639117
 20
-31.8376088638
 30
0.0
 10
-1.5471375548
 20
-31.8169192212
 30
0.0
 10
-1.5548595359
 20
-31.7866037658
 30
0.0
 10
-1.5674781723
 20
-31.7575511304
 30
0.0
 10
-1.5847226207
 20
-31.7303652787
 30
0.0
 10
-1.6062294888
 20
-31.7055912141
 30
0.0
 10
-1.6315528504
 20
-31.683724019
 30
0.0
 10
-1.6601744437
 20
-31.6651966254
 30
0.0
 10
-1.6915130285
 20
-31.6503746101
 30
0.0
 10
-1.7249381456
 20
-31.6395498312
 30
0.0
 10
-1.7597705386
 20
-31.6329353777
 30
0.0
 10
-1.7834652879
 20
-31.6314204708
 30
0.0
 10
-1.7953293755
 20
-31.6313935717
 30
0.0
 11
-1.5453328024
 21
-31.8478999227
 31
0.0
 11
-1.5479619358
 21
-31.8171387555
 31
0.0
 11
-1.5556100137
 21
-31.787001715
 31
0.0
 11
-1.568121861
 21
-31.7581002644
 31
0.0
 11
-1.5852436195
 21
-31.7310207978
 31
0.0
 11
-1.6066278984
 21
-31.706312742
 31
0.0
 11
-1.6318408229
 21
-31.6844774096
 31
0.0
 11
-1.660370837
 21
-31.665957827
 31
0.0
 11
-1.6916390831
 21
-31.6511297459
 31
0.0
 11
-1.7250111462
 21
-31.6402940198
 31
0.0
 11
-1.7598099261
 21
-31.6336704992
 31
0.0
 11
-1.7953293755
 21
-31.6313935717
 31
0.0
  0
SPLINE
  5
636
100
AcDbEntity
  8
PORTATASTO
100
AcDbSpline
 62
253
  6
CONTINUOUS
 70
0
 71
3
 72
18
 73
14
 74
12
 42
0.0000001
 43
0.0000001
 44
0.0000000001
 12
-0.3662499093
 22
-0.0008303874
 32
0.0
 13
-0.0011071506
 23
-0.3662491772
 33
0.0
 40
0.0
 40
0.0
 40
0.0
 40
0.0
 40
0.0971872096
 40
0.1939133523
 40
0.2897218612
 40
0.3842163772
 40
0.4770935418
 40
0.5681682897
 40
0.6573939174
 40
0.7448759241
 40
0.8308652934
 40
0.915759618
 40
1.0
 40
1.0
 40
1.0
 40
1.0
 10
-3.5362882901
 20
-31.6313935717
 30
0.0
 10
-3.5481532256
 20
-31.6314204727
 30
0.0
 10
-3.5718496638
 20
-31.6329355921
 30
0.0
 10
-3.6066845603
 20
-31.6395510017
 30
0.0
 10
-3.6401119883
 20
-31.6503773888
 30
0.0
 10
-3.671452515
 20
-31.6652016509
 30
0.0
 10
-3.7000754191
 20
-31.6837317997
 30
0.0
 10
-3.7253992848
 20
-31.7056020999
 30
0.0
 10
-3.7469057767
 20
-31.7303794618
 30
0.0
 10
-3.7641485988
 20
-31.7575681144
 30
0.0
 10
-3.7767646746
 20
-31.7866227838
 30
0.0
 10
-3.7844818412
 20
-31.8169326759
 30
0.0
 10
-3.7862537742
 20
-31.8376155991
 30
0.0
 10
-3.7862848631
 20
-31.8478999227
 30
0.0
 11
-3.5362882901
 21
-31.6313935717
 31
0.0
 11
-3.5718102681
 21
-31.6336708193
 31
0.0
 11
-3.6066114221
 21
-31.6402952755
 31
0.0
 11
-3.6399858994
 21
-31.6511326511
 31
0.0
 11
-3.6712560655
 21
-31.6659629785
 31
0.0
 11
-3.6997873599
 21
-31.6844853073
 31
0.0
 11
-3.7250008067
 21
-31.7063237696
 31
0.0
 11
-3.7463846309
 21
-31.7310350348
 31
0.0
 11
-3.7635050748
 21
-31.7581177789
 31
0.0
 11
-3.7760141154
 21
-31.7870206466
 31
0.0
 11
-3.7836591025
 21
-31.8171587471
 31
0.0
 11
-3.7862848631
 21
-31.8478999227
 31
0.0
  0
SPLINE
  5
637
100
AcDbEntity
  8
PORTATASTO
100
AcDbSpline
 62
253
  6
CONTINUOUS
 70
0
 71
3
 72
18
 73
14
 74
12
 42
0.0000001
 43
0.0000001
 44
0.0000000001
 12
-0.0011071506
 22
-0.3662491668
 32
0.0
 13
-0.3662498989
 23
-0.0008303865
 33
0.0
 40
0.0
 40
0.0
 40
0.0
 40
0.0
 40
0.0842956646
 40
0.1691893741
 40
0.2551783555
 40
0.34265483
 40
0.4318747249
 40
0.5229428283
 40
0.6158129532
 40
0.7103000283
 40
0.8061007574
 40
0.9028199028
 40
1.0
 40
1.0
 40
1.0
 40
1.0
 10
2.0835942243
 20
15.60776251
 30
0.0
 10
2.083563115
 20
15.5974714377
 30
0.0
 10
2.0817894673
 20
15.5767817679
 30
0.0
 10
2.0740674661
 20
15.5464662743
 30
0.0
 10
2.0614487979
 20
15.517413607
 30
0.0
 10
2.0442043104
 20
15.4902277354
 30
0.0
 10
2.022697405
 20
15.4654536681
 30
0.0
 10
1.997374018
 20
15.4435864882
 30
0.0
 10
1.9687524186
 20
15.4250591225
 30
0.0
 10
1.9374138493
 20
15.4102371403
 30
0.0
 10
1.9039887683
 20
15.399412392
 30
0.0
 10
1.8691564271
 20
15.3927979598
 30
0.0
 10
1.8454617174
 20
15.3912830581
 30
0.0
 10
1.8335976505
 20
15.3912561591
 30
0.0
 11
2.0835942243
 21
15.60776251
 31
0.0
 11
2.0809650842
 21
15.577001303
 31
0.0
 11
2.0733169866
 21
15.546864225
 31
0.0
 11
2.0608051074
 21
15.5179627418
 31
0.0
 11
2.0436833086
 21
15.4908832525
 31
0.0
 11
2.022298991
 21
15.4661751923
 31
0.0
 11
1.9970860411
 21
15.4443398748
 31
0.0
 11
1.9685560209
 21
15.4258203203
 31
0.0
 11
1.9372877909
 21
15.4109922727
 31
0.0
 11
1.9039157648
 21
15.4001565775
 31
0.0
 11
1.8691170382
 21
15.3935330787
 31
0.0
 11
1.8335976505
 21
15.3912561591
 31
0.0
  0
SPLINE
  5
638
100
AcDbEntity
  8
PORTATASTO
100
AcDbSpline
 62
253
  6
CONTINUOUS
 70
0
 71
3
 72
18
 73
14
 74
12
 42
0.0000001
 43
0.0000001
 44
0.0000000001
 12
-0.0011071506
 22
-0.3662491668
 32
0.0
 13
-0.3662498989
 23
-0.0008303865
 33
0.0
 40
0.0
 40
0.0
 40
0.0
 40
0.0
 40
0.0842956646
 40
0.1691893741
 40
0.2551783555
 40
0.34265483
 40
0.4318747249
 40
0.5229428283
 40
0.6158129532
 40
0.7103000283
 40
0.8061007574
 40
0.9028199028
 40
1.0
 40
1.0
 40
1.0
 40
1.0
 10
20.9585942243
 20
15.60776251
 30
0.0
 10
20.958563115
 20
15.5974714377
 30
0.0
 10
20.9567894673
 20
15.5767817679
 30
0.0
 10
20.9490674661
 20
15.5464662743
 30
0.0
 10
20.9364487979
 20
15.517413607
 30
0.0
 10
20.9192043104
 20
15.4902277354
 30
0.0
 10
20.897697405
 20
15.4654536681
 30
0.0
 10
20.872374018
 20
15.4435864882
 30
0.0
 10
20.8437524186
 20
15.4250591225
 30
0.0
 10
20.8124138493
 20
15.4102371403
 30
0.0
 10
20.7789887683
 20
15.399412392
 30
0.0
 10
20.7441564271
 20
15.3927979598
 30
0.0
 10
20.7204617174
 20
15.3912830581
 30
0.0
 10
20.7085976505
 20
15.3912561591
 30
0.0
 11
20.9585942243
 21
15.60776251
 31
0.0
 11
20.9559650842
 21
15.577001303
 31
0.0
 11
20.9483169866
 21
15.546864225
 31
0.0
 11
20.9358051074
 21
15.5179627418
 31
0.0
 11
20.9186833086
 21
15.4908832525
 31
0.0
 11
20.897298991
 21
15.4661751923
 31
0.0
 11
20.8720860411
 21
15.4443398748
 31
0.0
 11
20.8435560209
 21
15.4258203203
 31
0.0
 11
20.8122877909
 21
15.4109922727
 31
0.0
 11
20.7789157648
 21
15.4001565775
 31
0.0
 11
20.7441170382
 21
15.3935330787
 31
0.0
 11
20.7085976505
 21
15.3912561591
 31
0.0
  0
SPLINE
  5
639
100
AcDbEntity
  8
PORTATASTO
100
AcDbSpline
 62
253
  6
CONTINUOUS
 70
0
 71
3
 72
18
 73
14
 74
12
 42
0.0000001
 43
0.0000001
 44
0.0000000001
 12
0.0011071506
 22
0.3662491668
 32
0.0
 13
0.3662498989
 23
0.0008303865
 33
0.0
 40
0.0
 40
0.0
 40
0.0
 40
0.0
 40
0.0842956646
 40
0.1691893741
 40
0.2551783555
 40
0.34265483
 40
0.4318747249
 40
0.5229428283
 40
0.6158129532
 40
0.7103000283
 40
0.8061007574
 40
0.9028199028
 40
1.0
 40
1.0
 40
1.0
 40
1.0
 10
-0.1652118898
 20
-31.4148872208
 30
0.0
 10
-0.1651807805
 20
-31.4045961485
 30
0.0
 10
-0.1634071328
 20
-31.3839064786
 30
0.0
 10
-0.1556851316
 20
-31.3535909851
 30
0.0
 10
-0.1430664635
 20
-31.3245383177
 30
0.0
 10
-0.125821976
 20
-31.2973524461
 30
0.0
 10
-0.1043150705
 20
-31.2725783789
 30
0.0
 10
-0.0789916836
 20
-31.2507111989
 30
0.0
 10
-0.0503700841
 20
-31.2321838332
 30
0.0
 10
-0.0190315148
 20
-31.217361851
 30
0.0
 10
0.0143935661
 20
-31.2065371027
 30
0.0
 10
0.0492259074
 20
-31.1999226706
 30
0.0
 10
0.072920617
 20
-31.1984077688
 30
0.0
 10
0.0847846839
 20
-31.1983808698
 30
0.0
 11
-0.1652118898
 21
-31.4148872208
 31
0.0
 11
-0.1625827497
 21
-31.3841260138
 31
0.0
 11
-0.1549346521
 21
-31.3539889358
 31
0.0
 11
-0.142422773
 21
-31.3250874525
 31
0.0
 11
-0.1253009741
 21
-31.2980079632
 31
0.0
 11
-0.1039166566
 21
-31.2732999031
 31
0.0
 11
-0.0787037067
 21
-31.2514645856
 31
0.0
 11
-0.0501736865
 21
-31.232945031
 31
0.0
 11
-0.0189054564
 21
-31.2181169834
 31
0.0
 11
0.0144665696
 21
-31.2072812883
 31
0.0
 11
0.0492652962
 21
-31.2006577894
 31
0.0
 11
0.0847846839
 21
-31.1983808698
 31
0.0
  0
SPLINE
  5
63A
100
AcDbEntity
  8
PORTATASTO
100
AcDbSpline
 62
253
  6
CONTINUOUS
 70
0
 71
3
 72
18
 73
14
 74
12
 42
0.0000001
 43
0.0000001
 44
0.0000000001
 12
0.0011071506
 22
0.3662491668
 32
0.0
 13
0.3662498989
 23
0.0008303865
 33
0.0
 40
0.0
 40
0.0
 40
0.0
 40
0.0
 40
0.0842956646
 40
0.1691893741
 40
0.2551783555
 40
0.34265483
 40
0.4318747249
 40
0.5229428283
 40
0.6158129532
 40
0.7103000283
 40
0.8061007574
 40
0.9028199028
 40
1.0
 40
1.0
 40
1.0
 40
1.0
 10
18.7097881102
 20
-31.4148872208
 30
0.0
 10
18.7098192195
 20
-31.4045961485
 30
0.0
 10
18.7115928672
 20
-31.3839064786
 30
0.0
 10
18.7193148684
 20
-31.3535909851
 30
0.0
 10
18.7319335365
 20
-31.3245383177
 30
0.0
 10
18.749178024
 20
-31.2973524461
 30
0.0
 10
18.7706849295
 20
-31.2725783789
 30
0.0
 10
18.7960083164
 20
-31.2507111989
 30
0.0
 10
18.8246299159
 20
-31.2321838332
 30
0.0
 10
18.8559684852
 20
-31.217361851
 30
0.0
 10
18.8893935661
 20
-31.2065371027
 30
0.0
 10
18.9242259074
 20
-31.1999226706
 30
0.0
 10
18.947920617
 20
-31.1984077688
 30
0.0
 10
18.9597846839
 20
-31.1983808698
 30
0.0
 11
18.7097881102
 21
-31.4148872208
 31
0.0
 11
18.7124172503
 21
-31.3841260138
 31
0.0
 11
18.7200653479
 21
-31.3539889358
 31
0.0
 11
18.732577227
 21
-31.3250874525
 31
0.0
 11
18.7496990259
 21
-31.2980079632
 31
0.0
 11
18.7710833434
 21
-31.2732999031
 31
0.0
 11
18.7962962933
 21
-31.2514645856
 31
0.0
 11
18.8248263135
 21
-31.232945031
 31
0.0
 11
18.8560945436
 21
-31.2181169834
 31
0.0
 11
18.8894665696
 21
-31.2072812883
 31
0.0
 11
18.9242652962
 21
-31.2006577894
 31
0.0
 11
18.9597846839
 21
-31.1983808698
 31
0.0
  0
SPLINE
  5
63B
100
AcDbEntity
  8
PORTATASTO
100
AcDbSpline
 62
253
  6
CONTINUOUS
 70
0
 71
3
 72
18
 73
14
 74
12
 42
0.0000001
 43
0.0000001
 44
0.0000000001
 12
0.3662498989
 22
-0.0008303865
 32
0.0
 13
0.0011071506
 23
-0.3662491668
 33
0.0
 40
0.0
 40
0.0
 40
0.0
 40
0.0
 40
0.097180097
 40
0.1938992423
 40
0.2896999712
 40
0.3841870463
 40
0.4770571712
 40
0.5681252747
 40
0.6573451698
 40
0.7448216444
 40
0.8308106258
 40
0.9157043353
 40
1.0
 40
1.0
 40
1.0
 40
1.0
 10
1.8335976505
 20
-31.1983808698
 30
0.0
 10
1.8454617174
 20
-31.1984077688
 30
0.0
 10
1.869156427
 20
-31.1999226706
 30
0.0
 10
1.9039887682
 20
-31.2065371027
 30
0.0
 10
1.9374138491
 20
-31.217361851
 30
0.0
 10
1.9687524184
 20
-31.2321838331
 30
0.0
 10
1.9973740179
 20
-31.2507111988
 30
0.0
 10
2.0226974049
 20
-31.2725783788
 30
0.0
 10
2.0442043104
 20
-31.297352446
 30
0.0
 10
2.0614487979
 20
-31.3245383177
 30
0.0
 10
2.0740674661
 20
-31.3535909851
 30
0.0
 10
2.0817894673
 20
-31.3839064786
 30
0.0
 10
2.083563115
 20
-31.4045961485
 30
0.0
 10
2.0835942243
 20
-31.4148872208
 30
0.0
 11
1.8335976505
 21
-31.1983808698
 31
0.0
 11
1.8691170382
 21
-31.2006577894
 31
0.0
 11
1.9039157647
 21
-31.2072812882
 31
0.0
 11
1.9372877907
 21
-31.2181169833
 31
0.0
 11
1.9685560207
 21
-31.2329450309
 31
0.0
 11
1.997086041
 21
-31.2514645855
 31
0.0
 11
2.0222989909
 21
-31.273299903
 31
0.0
 11
2.0436833085
 21
-31.2980079632
 31
0.0
 11
2.0608051074
 21
-31.3250874525
 31
0.0
 11
2.0733169866
 21
-31.3539889357
 31
0.0
 11
2.0809650842
 21
-31.3841260137
 31
0.0
 11
2.0835942243
 21
-31.4148872208
 31
0.0
  0
SPLINE
  5
63C
100
AcDbEntity
  8
PORTATASTO
100
AcDbSpline
 62
253
  6
CONTINUOUS
 70
0
 71
3
 72
16
 73
12
 74
10
 42
0.0000001
 43
0.0000001
 44
0.0000000001
 12
0.0000000128
 22
-0.2165111267
 32
0.0
 13
-0.0039285624
 23
-0.2164754822
 33
0.0
 40
0.0
 40
0.0
 40
0.0
 40
0.0
 40
0.1330410941
 40
0.2653721429
 40
0.3946348552
 40
0.5181515314
 40
0.6343729951
 40
0.7422936446
 40
0.8403820716
 40
0.9267810823
 40
1.0
 40
1.0
 40
1.0
 40
1.0
 10
1.8349066593
 20
-30.9818759358
 30
0.0
 10
1.8349066598
 20
-30.9914775615
 30
0.0
 10
1.8348951431
 20
-31.0106295708
 30
0.0
 10
1.8348431676
 20
-31.0391104761
 30
0.0
 10
1.8347568452
 20
-31.0669039152
 30
0.0
 10
1.8346375558
 20
-31.0935345872
 30
0.0
 10
1.834487244
 20
-31.1186248133
 30
0.0
 10
1.8343078216
 20
-31.1418796331
 30
0.0
 10
1.834101848
 20
-31.162981849
 30
0.0
 10
1.8338730187
 20
-31.1815792258
 30
0.0
 10
1.8336935321
 20
-31.1930975512
 30
0.0
 10
1.8335976504
 20
-31.198380918
 30
0.0
 11
1.8349066593
 21
-30.9818759358
 31
0.0
 11
1.8348892224
 21
-31.0106808077
 31
0.0
 11
1.8348365751
 21
-31.0393319038
 31
0.0
 11
1.8347490048
 21
-31.0673185823
 31
0.0
 11
1.8346282559
 21
-31.0940610444
 31
0.0
 11
1.8344761548
 21
-31.1192238248
 31
0.0
 11
1.8342940027
 21
-31.1425891362
 31
0.0
 11
1.8340840419
 21
-31.1638253341
 31
0.0
 11
1.8338502538
 21
-31.1825302203
 31
0.0
 11
1.8335976504
 21
-31.198380918
 31
0.0
  0
SPLINE
  5
63D
100
AcDbEntity
  8
PORTATASTO
100
AcDbSpline
 62
253
  6
CONTINUOUS
 70
0
 71
3
 72
16
 73
12
 74
10
 42
0.0000001
 43
0.0000001
 44
0.0000000001
 12
-0.0039285617
 22
0.2164754792
 32
0.0
 13
0.0000000128
 23
0.2165111237
 33
0.0
 40
0.0
 40
0.0
 40
0.0
 40
0.0
 40
0.0732188971
 40
0.1596179091
 40
0.2577063374
 40
0.3656269884
 40
0.4818484537
 40
0.6053651317
 40
0.7346278457
 40
0.8669588964
 40
1.0
 40
1.0
 40
1.0
 40
1.0
 10
0.084784684
 20
-31.1983809133
 30
0.0
 10
0.0846888023
 20
-31.193097548
 30
0.0
 10
0.0845093157
 20
-31.1815792242
 30
0.0
 10
0.0842804865
 20
-31.162981849
 30
0.0
 10
0.0840745128
 20
-31.1418796331
 30
0.0
 10
0.0838950904
 20
-31.1186248133
 30
0.0
 10
0.0837447787
 20
-31.0935345872
 30
0.0
 10
0.0836254893
 20
-31.0669039152
 30
0.0
 10
0.0835391669
 20
-31.0391104761
 30
0.0
 10
0.0834871913
 20
-31.0106295702
 30
0.0
 10
0.0834756746
 20
-30.9914775604
 30
0.0
 10
0.0834756752
 20
-30.9818759341
 30
0.0
 11
0.084784684
 21
-31.1983809133
 31
0.0
 11
0.0845320807
 21
-31.1825302203
 31
0.0
 11
0.0842982925
 21
-31.1638253341
 31
0.0
 11
0.0840883317
 21
-31.1425891362
 31
0.0
 11
0.0839061796
 21
-31.1192238248
 31
0.0
 11
0.0837540785
 21
-31.0940610444
 31
0.0
 11
0.0836333296
 21
-31.0673185823
 31
0.0
 11
0.0835457594
 21
-31.0393319038
 31
0.0
 11
0.0834931121
 21
-31.0106808077
 31
0.0
 11
0.0834756752
 21
-30.9818759341
 31
0.0
  0
SPLINE
  5
63E
100
AcDbEntity
  8
PORTATASTO
100
AcDbSpline
 62
253
  6
CONTINUOUS
 70
0
 71
3
 72
18
 73
14
 74
12
 42
0.0000001
 43
0.0000001
 44
0.0000000001
 12
-0.3662498989
 22
0.0008303865
 32
0.0
 13
-0.0011071506
 23
0.3662491668
 33
0.0
 40
0.0
 40
0.0
 40
0.0
 40
0.0
 40
0.097180097
 40
0.1938992423
 40
0.2896999712
 40
0.3841870463
 40
0.4770571712
 40
0.5681252747
 40
0.6573451698
 40
0.7448216444
 40
0.8308106258
 40
0.9157043353
 40
1.0
 40
1.0
 40
1.0
 40
1.0
 10
0.0847846839
 20
15.3912561591
 30
0.0
 10
0.072920617
 20
15.3912830581
 30
0.0
 10
0.0492259074
 20
15.3927979598
 30
0.0
 10
0.0143935663
 20
15.399412392
 30
0.0
 10
-0.0190315147
 20
15.4102371402
 30
0.0
 10
-0.050370084
 20
15.4250591224
 30
0.0
 10
-0.0789916834
 20
15.4435864881
 30
0.0
 10
-0.1043150704
 20
15.4654536681
 30
0.0
 10
-0.125821976
 20
15.4902277353
 30
0.0
 10
-0.1430664635
 20
15.517413607
 30
0.0
 10
-0.1556851316
 20
15.5464662743
 30
0.0
 10
-0.1634071328
 20
15.5767817679
 30
0.0
 10
-0.1651807805
 20
15.5974714377
 30
0.0
 10
-0.1652118898
 20
15.60776251
 30
0.0
 11
0.0847846839
 21
15.3912561591
 31
0.0
 11
0.0492652963
 21
15.3935330787
 31
0.0
 11
0.0144665698
 21
15.4001565775
 31
0.0
 11
-0.0189054562
 21
15.4109922726
 31
0.0
 11
-0.0501736863
 21
15.4258203202
 31
0.0
 11
-0.0787037065
 21
15.4443398747
 31
0.0
 11
-0.1039166565
 21
15.4661751922
 31
0.0
 11
-0.1253009741
 21
15.4908832525
 31
0.0
 11
-0.142422773
 21
15.5179627418
 31
0.0
 11
-0.1549346521
 21
15.546864225
 31
0.0
 11
-0.1625827497
 21
15.577001303
 31
0.0
 11
-0.1652118898
 21
15.60776251
 31
0.0
  0
SPLINE
  5
63F
100
AcDbEntity
  8
PORTATASTO
100
AcDbSpline
 62
253
  6
CONTINUOUS
 70
0
 71
3
 72
16
 73
12
 74
10
 42
0.0000001
 43
0.0000001
 44
0.0000000001
 12
-0.0000000128
 22
0.2165111267
 32
0.0
 13
0.0039285624
 23
0.2164754822
 33
0.0
 40
0.0
 40
0.0
 40
0.0
 40
0.0
 40
0.1330410941
 40
0.2653721429
 40
0.3946348552
 40
0.5181515314
 40
0.6343729951
 40
0.7422936446
 40
0.8403820716
 40
0.9267810823
 40
1.0
 40
1.0
 40
1.0
 40
1.0
 10
0.0834756752
 20
15.1747512251
 30
0.0
 10
0.0834756746
 20
15.1843528508
 30
0.0
 10
0.0834871913
 20
15.2035048601
 30
0.0
 10
0.0835391669
 20
15.2319857654
 30
0.0
 10
0.0836254893
 20
15.2597792045
 30
0.0
 10
0.0837447787
 20
15.2864098765
 30
0.0
 10
0.0838950904
 20
15.3115001025
 30
0.0
 10
0.0840745128
 20
15.3347549224
 30
0.0
 10
0.0842804865
 20
15.3558571383
 30
0.0
 10
0.0845093157
 20
15.3744545151
 30
0.0
 10
0.0846888024
 20
15.3859728404
 30
0.0
 10
0.0847846841
 20
15.3912562073
 30
0.0
 11
0.0834756752
 21
15.1747512251
 31
0.0
 11
0.0834931121
 21
15.203556097
 31
0.0
 11
0.0835457594
 21
15.2322071931
 31
0.0
 11
0.0836333296
 21
15.2601938715
 31
0.0
 11
0.0837540785
 21
15.2869363337
 31
0.0
 11
0.0839061796
 21
15.312099114
 31
0.0
 11
0.0840883317
 21
15.3354644255
 31
0.0
 11
0.0842982925
 21
15.3567006234
 31
0.0
 11
0.0845320807
 21
15.3754055096
 31
0.0
 11
0.0847846841
 21
15.3912562073
 31
0.0
  0
SPLINE
  5
640
100
AcDbEntity
  8
PORTATASTO
100
AcDbSpline
 62
253
  6
CONTINUOUS
 70
0
 71
3
 72
16
 73
12
 74
10
 42
0.0000001
 43
0.0000001
 44
0.0000000001
 12
0.0039285617
 22
-0.2164754792
 32
0.0
 13
-0.0000000128
 23
-0.2165111237
 33
0.0
 40
0.0
 40
0.0
 40
0.0
 40
0.0
 40
0.0732188971
 40
0.1596179091
 40
0.2577063374
 40
0.3656269884
 40
0.4818484537
 40
0.6053651317
 40
0.7346278457
 40
0.8669588964
 40
1.0
 40
1.0
 40
1.0
 40
1.0
 10
1.8335976505
 20
15.3912562026
 30
0.0
 10
1.8336935321
 20
15.3859728373
 30
0.0
 10
1.8338730187
 20
15.3744545135
 30
0.0
 10
1.834101848
 20
15.3558571383
 30
0.0
 10
1.8343078216
 20
15.3347549224
 30
0.0
 10
1.834487244
 20
15.3115001025
 30
0.0
 10
1.8346375558
 20
15.2864098765
 30
0.0
 10
1.8347568452
 20
15.2597792045
 30
0.0
 10
1.8348431676
 20
15.2319857654
 30
0.0
 10
1.8348951431
 20
15.2035048595
 30
0.0
 10
1.8349066598
 20
15.1843528497
 30
0.0
 10
1.8349066593
 20
15.1747512234
 30
0.0
 11
1.8335976505
 21
15.3912562026
 31
0.0
 11
1.8338502537
 21
15.3754055096
 31
0.0
 11
1.8340840419
 21
15.3567006234
 31
0.0
 11
1.8342940027
 21
15.3354644255
 31
0.0
 11
1.8344761548
 21
15.312099114
 31
0.0
 11
1.8346282559
 21
15.2869363337
 31
0.0
 11
1.8347490048
 21
15.2601938715
 31
0.0
 11
1.8348365751
 21
15.2322071931
 31
0.0
 11
1.8348892224
 21
15.203556097
 31
0.0
 11
1.8349066593
 21
15.1747512234
 31
0.0
  0
SPLINE
  5
641
100
AcDbEntity
  8
PORTATASTO
100
AcDbSpline
 62
253
  6
CONTINUOUS
 70
0
 71
3
 72
18
 73
14
 74
12
 42
0.0000001
 43
0.0000001
 44
0.0000000001
 12
-0.3662498989
 22
0.0008303865
 32
0.0
 13
-0.0011071506
 23
0.3662491668
 33
0.0
 40
0.0
 40
0.0
 40
0.0
 40
0.0
 40
0.097180097
 40
0.1938992423
 40
0.2896999712
 40
0.3841870463
 40
0.4770571712
 40
0.5681252747
 40
0.6573451698
 40
0.7448216444
 40
0.8308106258
 40
0.9157043353
 40
1.0
 40
1.0
 40
1.0
 40
1.0
 10
18.9597846839
 20
15.3912561591
 30
0.0
 10
18.947920617
 20
15.3912830581
 30
0.0
 10
18.9242259074
 20
15.3927979598
 30
0.0
 10
18.8893935663
 20
15.399412392
 30
0.0
 10
18.8559684853
 20
15.4102371402
 30
0.0
 10
18.824629916
 20
15.4250591224
 30
0.0
 10
18.7960083166
 20
15.4435864881
 30
0.0
 10
18.7706849296
 20
15.4654536681
 30
0.0
 10
18.749178024
 20
15.4902277353
 30
0.0
 10
18.7319335365
 20
15.517413607
 30
0.0
 10
18.7193148684
 20
15.5464662743
 30
0.0
 10
18.7115928672
 20
15.5767817679
 30
0.0
 10
18.7098192195
 20
15.5974714377
 30
0.0
 10
18.7097881102
 20
15.60776251
 30
0.0
 11
18.9597846839
 21
15.3912561591
 31
0.0
 11
18.9242652963
 21
15.3935330787
 31
0.0
 11
18.8894665698
 21
15.4001565775
 31
0.0
 11
18.8560945438
 21
15.4109922726
 31
0.0
 11
18.8248263137
 21
15.4258203202
 31
0.0
 11
18.7962962935
 21
15.4443398747
 31
0.0
 11
18.7710833435
 21
15.4661751922
 31
0.0
 11
18.7496990259
 21
15.4908832525
 31
0.0
 11
18.732577227
 21
15.5179627418
 31
0.0
 11
18.7200653479
 21
15.546864225
 31
0.0
 11
18.7124172503
 21
15.577001303
 31
0.0
 11
18.7097881102
 21
15.60776251
 31
0.0
  0
SPLINE
  5
642
100
AcDbEntity
  8
PORTATASTO
100
AcDbSpline
 62
253
  6
CONTINUOUS
 70
0
 71
3
 72
16
 73
12
 74
10
 42
0.0000001
 43
0.0000001
 44
0.0000000001
 12
-0.0000000128
 22
0.2165111267
 32
0.0
 13
0.0039285624
 23
0.2164754822
 33
0.0
 40
0.0
 40
0.0
 40
0.0
 40
0.0
 40
0.1330410941
 40
0.2653721429
 40
0.3946348552
 40
0.5181515314
 40
0.6343729951
 40
0.7422936446
 40
0.8403820716
 40
0.9267810823
 40
1.0
 40
1.0
 40
1.0
 40
1.0
 10
18.9584756752
 20
15.1747512251
 30
0.0
 10
18.9584756746
 20
15.1843528508
 30
0.0
 10
18.9584871913
 20
15.2035048601
 30
0.0
 10
18.9585391669
 20
15.2319857654
 30
0.0
 10
18.9586254893
 20
15.2597792045
 30
0.0
 10
18.9587447787
 20
15.2864098765
 30
0.0
 10
18.9588950904
 20
15.3115001025
 30
0.0
 10
18.9590745128
 20
15.3347549224
 30
0.0
 10
18.9592804865
 20
15.3558571383
 30
0.0
 10
18.9595093157
 20
15.3744545151
 30
0.0
 10
18.9596888024
 20
15.3859728404
 30
0.0
 10
18.9597846841
 20
15.3912562073
 30
0.0
 11
18.9584756752
 21
15.1747512251
 31
0.0
 11
18.9584931121
 21
15.203556097
 31
0.0
 11
18.9585457594
 21
15.2322071931
 31
0.0
 11
18.9586333296
 21
15.2601938715
 31
0.0
 11
18.9587540785
 21
15.2869363337
 31
0.0
 11
18.9589061796
 21
15.312099114
 31
0.0
 11
18.9590883317
 21
15.3354644255
 31
0.0
 11
18.9592982925
 21
15.3567006234
 31
0.0
 11
18.9595320807
 21
15.3754055096
 31
0.0
 11
18.9597846841
 21
15.3912562073
 31
0.0
  0
SPLINE
  5
643
100
AcDbEntity
  8
RACCORDO
100
AcDbSpline
 62
253
  6
CONTINUOUS
 70
0
 71
3
 72
12
 73
8
 74
6
 42
0.0000001
 43
0.0000001
 44
0.0000000001
 12
0.0086816816
 22
1.9999847375
 32
0.0
 13
-1.9972602542
 23
0.1047177094
 33
0.0
 40
0.0
 40
0.0
 40
0.0
 40
0.0
 40
0.3086093926
 40
0.5875728636
 40
0.809003923
 40
0.9510767102
 40
1.0
 40
1.0
 40
1.0
 40
1.0
 10
-38.3966229417
 20
9.1638807753
 30
0.0
 10
-38.3957298588
 20
9.3696188003
 30
0.0
 10
-38.391127298
 20
9.7649388236
 30
0.0
 10
-38.4042001322
 20
10.2903382172
 30
0.0
 10
-38.3720235528
 20
10.7543622244
 30
0.0
 10
-38.4391619844
 20
10.9611398629
 30
0.0
 10
-38.3727789622
 20
11.162020782
 30
0.0
 10
-38.4053498097
 20
11.1637284937
 30
0.0
 11
-38.3966229417
 21
9.1638807753
 31
0.0
 11
-38.3947839988
 21
9.7810979259
 31
0.0
 11
-38.3948279504
 21
10.3390258651
 31
0.0
 11
-38.3967625186
 21
10.7818845512
 31
0.0
 11
-38.4003912203
 21
11.066007463
 31
0.0
 11
-38.4053498097
 21
11.1637284937
 31
0.0
  0
SPLINE
  5
644
100
AcDbEntity
  8
RACCORDO
100
AcDbSpline
 62
253
  6
CONTINUOUS
 70
0
 71
3
 72
12
 73
8
 74
6
 42
0.0000001
 43
0.0000001
 44
0.0000000001
 12
1.9916308343
 22
-0.1777158374
 32
0.0
 13
-0.0218177039
 23
-1.999424989
 33
0.0
 40
0.0
 40
0.0
 40
0.0
 40
0.0
 40
0.0489623091
 40
0.1911229051
 40
0.4125207735
 40
0.6914770343
 40
1.0
 40
1.0
 40
1.0
 40
1.0
 10
-45.0426322715
 20
11.27958269
 30
0.0
 10
-45.0101273234
 20
11.2766822307
 30
0.0
 10
-45.0838498615
 20
11.0782934625
 30
0.0
 10
-45.0161891086
 20
10.8690928054
 30
0.0
 10
-45.0551172152
 20
10.4064286925
 30
0.0
 10
-45.0458333737
 20
9.880756334
 30
0.0
 10
-45.0534748318
 20
9.4857385645
 30
0.0
 10
-45.0557185861
 20
9.2801157221
 30
0.0
 11
-45.0426322715
 21
11.27958269
 31
0.0
 11
-45.0410044595
 21
11.1816939312
 31
0.0
 11
-45.041670861
 21
10.8974383424
 31
0.0
 11
-45.0445701408
 21
10.4547530519
 31
0.0
 11
-45.0494159218
 21
9.8969887773
 31
0.0
 11
-45.0557185861
 21
9.2801157221
 31
0.0
  0
SPLINE
  5
645
100
AcDbEntity
  8
ASSI
100
AcDbSpline
 62
253
  6
CONTINUOUS
 70
0
 71
3
 72
14
 73
10
 74
8
 42
0.0000001
 43
0.0000001
 44
0.0000000001
 12
-0.0261420634
 22
0.499163349
 32
0.0
 13
0.4991624096
 23
0.0261599937
 33
0.0
 40
0.0
 40
0.0
 40
0.0
 40
0.0
 40
0.2223599894
 40
0.4335323473
 40
0.6229537742
 40
0.781153532
 40
0.900235208
 40
0.9742974101
 40
1.0
 40
1.0
 40
1.0
 40
1.0
 10
-78.5653984526
 20
13.4265037675
 30
0.0
 10
-78.5673361022
 20
13.4635017531
 30
0.0
 10
-78.5709418675
 20
13.5357000404
 30
0.0
 10
-78.5753025815
 20
13.6391769542
 30
0.0
 10
-78.5791459883
 20
13.7328998902
 30
0.0
 10
-78.5800013055
 20
13.8087092015
 30
0.0
 10
-78.5839058593
 20
13.8719146185
 30
0.0
 10
-78.5778232734
 20
13.899793733
 30
0.0
 10
-78.582754537
 20
13.9255944088
 30
0.0
 10
-78.578477948
 20
13.9258185353
 30
0.0
 11
-78.5653984526
 21
13.4265037675
 31
0.0
 11
-78.5708847011
 21
13.5375143523
 31
0.0
 11
-78.5754412566
 21
13.6429699188
 31
0.0
 11
-78.5788399641
 21
13.737590713
 31
0.0
 11
-78.5809106479
 21
13.8166393396
 31
0.0
 11
-78.5815496498
 21
13.8761585796
 31
0.0
 11
-78.5807249897
 21
13.9131691949
 31
0.0
 11
-78.578477948
 21
13.9258185353
 31
0.0
  0
SPLINE
  5
646
100
AcDbEntity
  8
ASSI
100
AcDbSpline
 62
253
  6
CONTINUOUS
 70
0
 71
3
 72
14
 73
10
 74
8
 42
0.0000001
 43
0.0000001
 44
0.0000000001
 12
-0.0261421157
 22
-0.499163347
 32
0.0
 13
0.4991624104
 23
-0.0261599934
 33
0.0
 40
0.0
 40
0.0
 40
0.0
 40
0.0
 40
0.2223614881
 40
0.4335340271
 40
0.62295495
 40
0.7811541795
 40
0.900235513
 40
0.9742974947
 40
1.0
 40
1.0
 40
1.0
 40
1.0
 10
-78.5653984526
 20
-29.2336284782
 30
0.0
 10
-78.5673361192
 20
-29.2706267131
 30
0.0
 10
-78.5709419037
 20
-29.3428252802
 30
0.0
 10
-78.5753026277
 20
-29.4463023891
 30
0.0
 10
-78.579146026
 20
-29.5400251823
 30
0.0
 10
-78.5800013356
 20
-29.6158342713
 30
0.0
 10
-78.583905868
 20
-29.6790394923
 30
0.0
 10
-78.577823293
 20
-29.7069185252
 30
0.0
 10
-78.5827545314
 20
-29.7327191198
 30
0.0
 10
-78.5784779566
 20
-29.7329432456
 30
0.0
 11
-78.5653984526
 21
-29.2336284782
 31
0.0
 11
-78.5708847459
 21
-29.344639811
 31
0.0
 11
-78.5754413068
 21
-29.450095468
 31
0.0
 11
-78.5788400024
 21
-29.5447160106
 31
0.0
 11
-78.5809106729
 21
-29.6237643736
 31
0.0
 11
-78.5815496637
 21
-29.6832834426
 31
0.0
 11
-78.5807249954
 21
-29.7202939477
 31
0.0
 11
-78.5784779566
 21
-29.7329432456
 31
0.0
  0
SPLINE
  5
647
100
AcDbEntity
  8
RACCORDO
100
AcDbSpline
 62
253
  6
CONTINUOUS
 70
0
 71
3
 72
11
 73
7
 74
5
 42
0.0000001
 43
0.0000001
 44
0.0000000001
 12
-0.0261371055
 22
0.4990687069
 32
0.0
 13
0.4990677676
 23
0.0261550337
 33
0.0
 40
0.0
 40
0.0
 40
0.0
 40
0.0
 40
0.3824386161
 40
0.7066073213
 40
0.9233114846
 40
1.0
 40
1.0
 40
1.0
 40
1.0
 10
-78.5653984526
 20
13.4265037675
 30
0.0
 10
-78.5687303987
 20
13.490124816
 30
0.0
 10
-78.571262082
 20
13.6040568651
 30
0.0
 10
-78.5876468936
 20
13.7706124554
 30
0.0
 10
-78.568394493
 20
13.8480797348
 30
0.0
 10
-78.5912355368
 20
13.9251499384
 30
0.0
 10
-78.578477948
 20
13.9258185353
 30
0.0
 11
-78.5653984526
 21
13.4265037675
 31
0.0
 11
-78.574402393
 21
13.6174162767
 31
0.0
 11
-78.5800492238
 21
13.7793220068
 31
0.0
 11
-78.5814803728
 21
13.8876110325
 31
0.0
 11
-78.578477948
 21
13.9258185353
 31
0.0
  0
SPLINE
  5
648
100
AcDbEntity
  8
RACCORDO
100
AcDbSpline
 62
253
  6
CONTINUOUS
 70
0
 71
3
 72
11
 73
7
 74
5
 42
0.0000001
 43
0.0000001
 44
0.0000000001
 12
-0.0261371598
 22
-0.4990687118
 32
0.0
 13
0.4990677754
 23
-0.0261550338
 33
0.0
 40
0.0
 40
0.0
 40
0.0
 40
0.0
 40
0.382456936
 40
0.7066253561
 40
0.9233180439
 40
1.0
 40
1.0
 40
1.0
 40
1.0
 10
-78.5653984526
 20
-29.2336284782
 30
0.0
 10
-78.5687305653
 20
-29.297252575
 30
0.0
 10
-78.571262187
 20
-29.4111873538
 30
0.0
 10
-78.5876470762
 20
-29.5777443771
 30
0.0
 10
-78.5683954413
 20
-29.6552094282
 30
0.0
 10
-78.5912344543
 20
-29.7322747059
 30
0.0
 10
-78.5784779566
 20
-29.7329432456
 30
0.0
 11
-78.5653984526
 21
-29.2336284782
 31
0.0
 11
-78.5744027886
 21
-29.4245501374
 31
0.0
 11
-78.5800494799
 21
-29.5864557322
 31
0.0
 11
-78.5814803507
 21
-29.6947390279
 31
0.0
 11
-78.5784779566
 21
-29.7329432456
 31
0.0
  0
SPLINE
  5
649
100
AcDbEntity
  8
PORTATASTO
100
AcDbSpline
 62
253
  6
CONTINUOUS
 70
0
 71
3
 72
18
 73
14
 74
12
 42
0.0000001
 43
0.0000001
 44
0.0000000001
 12
-0.2500020435
 22
0.0013090196
 32
0.0
 13
0.0013089837
 23
0.2500020437
 33
0.0
 40
0.0
 40
0.0
 40
0.0
 40
0.0
 40
0.0102052187
 40
0.0405407572
 40
0.0904038554
 40
0.1587816814
 40
0.2442830896
 40
0.3451679646
 40
0.459382884
 40
0.5846030002
 40
0.7182794006
 40
0.8576910118
 40
1.0
 40
1.0
 40
1.0
 40
1.0
 10
-73.1660667236
 20
-32.3865383857
 30
0.0
 10
-73.1669171654
 20
-32.3865339328
 30
0.0
 10
-73.1652610792
 20
-32.3811206462
 30
0.0
 10
-73.1670677706
 20
-32.3755352572
 30
0.0
 10
-73.1662166495
 20
-32.3620630096
 30
0.0
 10
-73.1666916089
 20
-32.3455533707
 30
0.0
 10
-73.1665720186
 20
-32.3241465562
 30
0.0
 10
-73.1666220816
 20
-32.2991564791
 30
0.0
 10
-73.1665659969
 20
-32.2707762844
 30
0.0
 10
-73.1664961941
 20
-32.2396891165
 30
0.0
 10
-73.166384923
 20
-32.2064944293
 30
0.0
 10
-73.166243141
 20
-32.1718780668
 30
0.0
 10
-73.1661288169
 20
-32.148400992
 30
0.0
 10
-73.1660667236
 20
-32.1365418127
 30
0.0
 11
-73.1660667236
 21
-32.3865383857
 31
0.0
 11
-73.1662396809
 21
-32.3839928944
 31
0.0
 11
-73.1663824711
 21
-32.3764101881
 31
0.0
 11
-73.1664921874
 21
-32.3639446236
 31
0.0
 11
-73.1665665965
 21
-32.346849955
 31
0.0
 11
-73.1666041836
 21
-32.3254741683
 31
0.0
 11
-73.1666041836
 21
-32.3002523976
 31
0.0
 11
-73.1665665965
 21
-32.2716980677
 31
0.0
 11
-73.1664921874
 21
-32.2403924421
 31
0.0
 11
-73.1663824711
 21
-32.2069727908
 31
0.0
 11
-73.1662396809
 21
-32.1721194178
 31
0.0
 11
-73.1660667236
 21
-32.1365418127
 31
0.0
  0
SPLINE
  5
64A
100
AcDbEntity
  8
PORTATASTO
100
AcDbSpline
 62
253
  6
CONTINUOUS
 70
0
 71
3
 72
18
 73
14
 74
12
 42
0.0000001
 43
0.0000001
 44
0.0000000001
 12
-0.0013089837
 22
0.2500020476
 32
0.0
 13
0.2500020474
 23
0.0013090196
 33
0.0
 40
0.0
 40
0.0
 40
0.0
 40
0.0
 40
0.142328713
 40
0.2817593786
 40
0.4154522312
 40
0.5406850046
 40
0.6549076346
 40
0.755794562
 40
0.8412916087
 40
0.9096600112
 40
0.9595054517
 40
0.9898195612
 40
1.0
 40
1.0
 40
1.0
 40
1.0
 10
-73.1660667236
 20
16.3294171019
 30
0.0
 10
-73.1661288255
 20
16.3412779252
 30
0.0
 10
-73.1662431642
 20
16.3647582321
 30
0.0
 10
-73.1663849593
 20
16.3993791974
 30
0.0
 10
-73.1664962349
 20
16.4325779004
 30
0.0
 10
-73.1665660278
 20
16.4636681324
 30
0.0
 10
-73.1666221039
 20
16.4920502103
 30
0.0
 10
-73.1665719906
 20
16.5170406981
 30
0.0
 10
-73.1666915991
 20
16.538446633
 30
0.0
 10
-73.1662165209
 20
16.5549534608
 30
0.0
 10
-73.1670675267
 20
16.5684218044
 30
0.0
 10
-73.1652618585
 20
16.5740026525
 30
0.0
 10
-73.1669151004
 20
16.5794092329
 30
0.0
 10
-73.1660667236
 20
16.579413675
 30
0.0
 11
-73.1660667236
 21
16.3294171019
 31
0.0
 11
-73.166239703
 21
16.3649996389
 31
0.0
 11
-73.1663825069
 21
16.3998577761
 31
0.0
 11
-73.1664922267
 21
16.433281541
 31
0.0
 11
-73.1665666282
 21
16.4645903316
 31
0.0
 11
-73.1666041968
 21
16.4931465896
 31
0.0
 11
-73.1666041679
 21
16.5183688738
 31
0.0
 11
-73.1665665431
 21
16.5397435704
 31
0.0
 11
-73.1664920879
 21
16.5568358831
 31
0.0
 11
-73.1663823255
 21
16.5692970327
 31
0.0
 11
-73.1662394876
 21
16.5768743799
 31
0.0
 11
-73.1660667236
 21
16.579413675
 31
0.0
  0
SPLINE
  5
64B
100
AcDbEntity
  8
PORTATASTO
100
AcDbSpline
 62
253
  6
CONTINUOUS
 70
0
 71
3
 72
14
 73
10
 74
8
 42
0.0000001
 43
0.0000001
 44
0.0000000001
 12
-0.0078441922
 22
-1.499509387
 32
0.0
 13
1.4978639158
 23
-0.0706655696
 33
0.0
 40
0.0
 40
0.0
 40
0.0
 40
0.0
 40
0.2225532816
 40
0.4339044446
 40
0.6234767879
 40
0.7817837558
 40
0.9009073549
 40
0.974879544
 40
1.0
 40
1.0
 40
1.0
 40
1.0
 10
-74.6226108171
 20
-26.3462617002
 30
0.0
 10
-74.623192734
 20
-26.4575019451
 30
0.0
 10
-74.624362917
 20
-26.6745514954
 30
0.0
 10
-74.6247697559
 20
-26.9854921393
 30
0.0
 10
-74.6274128565
 20
-27.2671789434
 30
0.0
 10
-74.6216163664
 20
-27.4945009329
 30
0.0
 10
-74.6353829569
 20
-27.6849629352
 30
0.0
 10
-74.608554678
 20
-27.7668837481
 30
0.0
 10
-74.6351531586
 20
-27.8451559705
 30
0.0
 10
-74.6226108171
 20
-27.8457476877
 30
0.0
 11
-74.6226108171
 21
-26.3462617002
 31
0.0
 11
-74.6241597678
 21
-26.6799834065
 31
0.0
 11
-74.6252378523
 21
-26.996908962
 31
0.0
 11
-74.6257901416
 21
-27.2811778233
 31
0.0
 11
-74.6257901287
 21
-27.5185638557
 31
0.0
 11
-74.6252377893
 21
-27.6971924009
 31
0.0
 11
-74.6241597422
 21
-27.8081106716
 31
0.0
 11
-74.6226108171
 21
-27.8457476877
 31
0.0
  0
SPLINE
  5
64C
100
AcDbEntity
  8
PORTATASTO
100
AcDbSpline
 62
253
  6
CONTINUOUS
 70
0
 71
3
 72
18
 73
14
 74
12
 42
0.0000001
 43
0.0000001
 44
0.0000000001
 12
-0.1246748135
 22
0.2159490317
 32
0.0
 13
0.2159475517
 23
0.1246773771
 33
0.0
 40
0.0
 40
0.0
 40
0.0
 40
0.0
 40
0.1424198037
 40
0.2818967973
 40
0.4156011363
 40
0.540820109
 40
0.6550131831
 40
0.7558635646
 40
0.8413252303
 40
0.9096645018
 40
0.9594954013
 40
0.9898085439
 40
1.0
 40
1.0
 40
1.0
 40
1.0
 10
-73.1660667236
 20
-31.8478999227
 30
0.0
 10
-73.1719854444
 20
-31.8376481164
 30
0.0
 10
-73.1836942375
 20
-31.8173525301
 30
0.0
 10
-73.2009360704
 20
-31.7874197088
 30
0.0
 10
-73.2174472417
 20
-31.7587132653
 30
0.0
 10
-73.2328800194
 20
-31.7318200219
 30
0.0
 10
-73.2469636258
 20
-31.7072713918
 30
0.0
 10
-73.2592792147
 20
-31.6856107945
 30
0.0
 10
-73.2699763714
 20
-31.6671426826
 30
0.0
 10
-73.2777287589
 20
-31.6526187152
 30
0.0
 10
-73.2851571415
 20
-31.6413937603
 30
0.0
 10
-73.2863341848
 20
-31.6356601818
 30
0.0
 10
-73.2904913393
 20
-31.6318171197
 30
0.0
 10
-73.2897577326
 20
-31.6313935717
 30
0.0
 11
-73.1660667236
 21
-31.8478999227
 31
0.0
 11
-73.1838129254
 21
-31.8171387555
 31
0.0
 11
-73.2011725083
 21
-31.787001715
 31
0.0
 11
-73.2177932561
 21
-31.7581002644
 31
0.0
 11
-73.2333379433
 21
-31.7310207978
 31
0.0
 11
-73.2474911771
 21
-31.706312742
 31
0.0
 11
-73.2599657964
 21
-31.6844774096
 31
0.0
 11
-73.2705086982
 21
-31.665957827
 31
0.0
 11
-73.2789059732
 21
-31.6511297459
 31
0.0
 11
-73.2849872453
 21
-31.6402940198
 31
0.0
 11
-73.288629129
 21
-31.6336704992
 31
0.0
 11
-73.2897577326
 21
-31.6313935717
 31
0.0
  0
SPLINE
  5
64D
100
AcDbEntity
  8
PORTATASTO
100
AcDbSpline
 62
253
  6
CONTINUOUS
 70
0
 71
3
 72
18
 73
14
 74
12
 42
0.0000001
 43
0.0000001
 44
0.0000000001
 12
-0.2159476287
 22
-0.1246772436
 32
0.0
 13
0.1246748135
 23
-0.2159490317
 33
0.0
 40
0.0
 40
0.0
 40
0.0
 40
0.0
 40
0.0101914202
 40
0.0405044625
 40
0.0903352187
 40
0.1586743352
 40
0.2441358709
 40
0.3449861831
 40
0.4591792777
 40
0.5843983549
 40
0.7181028449
 40
0.8575800117
 40
1.0
 40
1.0
 40
1.0
 40
1.0
 10
-72.5397577326
 20
-31.1983808698
 30
0.0
 10
-72.5404913369
 20
-31.1988044159
 30
0.0
 10
-72.5363341965
 20
-31.2026474664
 30
0.0
 10
-72.5351571571
 20
-31.2083810261
 30
0.0
 10
-72.5277287945
 20
-31.2196059517
 30
0.0
 10
-72.5199764238
 20
-31.2341298883
 30
0.0
 10
-72.5092792819
 20
-31.2525979748
 30
0.0
 10
-72.4969637006
 20
-31.2742585592
 30
0.0
 10
-72.482880092
 20
-31.2988071934
 30
0.0
 10
-72.467447303
 20
-31.3257004567
 30
0.0
 10
-72.450936114
 20
-31.3544069311
 30
0.0
 10
-72.43369426
 20
-31.3843397892
 30
0.0
 10
-72.421985452
 20
-31.4046354012
 30
0.0
 10
-72.4160667236
 20
-31.4148872208
 30
0.0
 11
-72.5397577326
 21
-31.1983808698
 31
0.0
 11
-72.5386291332
 21
-31.2006577894
 31
0.0
 11
-72.5349872618
 21
-31.2072812882
 31
0.0
 11
-72.5289060074
 21
-31.2181169833
 31
0.0
 11
-72.5205087517
 21
-31.2329450309
 31
0.0
 11
-72.5099658661
 21
-31.2514645855
 31
0.0
 11
-72.4974912556
 21
-31.273299903
 31
0.0
 11
-72.4833380194
 21
-31.2980079632
 31
0.0
 11
-72.4677933193
 21
-31.3250874525
 31
0.0
 11
-72.4511725528
 21
-31.3539889357
 31
0.0
 11
-72.4338129484
 21
-31.3841260137
 31
0.0
 11
-72.4160667236
 21
-31.4148872208
 31
0.0
  0
SPLINE
  5
64E
100
AcDbEntity
  8
PORTATASTO
100
AcDbSpline
 62
253
  6
CONTINUOUS
 70
0
 71
3
 72
18
 73
14
 74
12
 42
0.0000001
 43
0.0000001
 44
0.0000000001
 12
-0.1246748135
 22
-0.2159490317
 32
0.0
 13
0.2159476274
 23
-0.1246772439
 33
0.0
 40
0.0
 40
0.0
 40
0.0
 40
0.0
 40
0.1424199883
 40
0.2818971551
 40
0.415601645
 40
0.5408207221
 40
0.6550138165
 40
0.7558641287
 40
0.8413256644
 40
0.909664781
 40
0.9594955374
 40
0.9898085797
 40
1.0
 40
1.0
 40
1.0
 40
1.0
 10
-72.4160667236
 20
15.60776251
 30
0.0
 10
-72.421985452
 20
15.5975106905
 30
0.0
 10
-72.43369426
 20
15.5772150784
 30
0.0
 10
-72.450936114
 20
15.5472822204
 30
0.0
 10
-72.467447303
 20
15.518575746
 30
0.0
 10
-72.482880092
 20
15.4916824828
 30
0.0
 10
-72.4969637006
 20
15.4671338485
 30
0.0
 10
-72.5092792818
 20
15.4454732641
 30
0.0
 10
-72.5199764237
 20
15.4270051776
 30
0.0
 10
-72.5277287945
 20
15.4124812411
 30
0.0
 10
-72.5351571571
 20
15.4012563154
 30
0.0
 10
-72.5363341965
 20
15.3955227557
 30
0.0
 10
-72.5404913369
 20
15.3916797052
 30
0.0
 10
-72.5397577326
 20
15.3912561591
 30
0.0
 11
-72.4160667236
 21
15.60776251
 31
0.0
 11
-72.4338129484
 21
15.577001303
 31
0.0
 11
-72.4511725528
 21
15.546864225
 31
0.0
 11
-72.4677933193
 21
15.5179627418
 31
0.0
 11
-72.4833380194
 21
15.4908832525
 31
0.0
 11
-72.4974912555
 21
15.4661751923
 31
0.0
 11
-72.509965866
 21
15.4443398748
 31
0.0
 11
-72.5205087517
 21
15.4258203203
 31
0.0
 11
-72.5289060074
 21
15.4109922727
 31
0.0
 11
-72.5349872618
 21
15.4001565775
 31
0.0
 11
-72.5386291332
 21
15.3935330787
 31
0.0
 11
-72.5397577326
 21
15.3912561591
 31
0.0
  0
SPLINE
  5
64F
100
AcDbEntity
  8
PORTATASTO
100
AcDbSpline
 62
253
  6
CONTINUOUS
 70
0
 71
3
 72
18
 73
14
 74
12
 42
0.0000001
 43
0.0000001
 44
0.0000000001
 12
-0.2159475515
 22
0.124677377
 32
0.0
 13
0.1246748134
 23
0.2159490316
 33
0.0
 40
0.0
 40
0.0
 40
0.0
 40
0.0
 40
0.0101929118
 40
0.040510362
 40
0.0903488744
 40
0.1586985277
 40
0.2441728972
 40
0.345037767
 40
0.4592457078
 40
0.5844798716
 40
0.7181908024
 40
0.8576727369
 40
1.0
 40
1.0
 40
1.0
 40
1.0
 10
-73.2897577326
 20
15.824268861
 30
0.0
 10
-73.290491444
 20
15.8246924695
 30
0.0
 10
-73.286333674
 20
15.8285360666
 30
0.0
 10
-73.2851564595
 20
15.8342704983
 30
0.0
 10
-73.2777269369
 20
15.8454971311
 30
0.0
 10
-73.2699733761
 20
15.860023283
 30
0.0
 10
-73.2592746275
 20
15.8784941129
 30
0.0
 10
-73.2469573037
 20
15.9001577351
 30
0.0
 10
-73.2328718409
 20
15.9247095718
 30
0.0
 10
-73.2174375343
 20
15.9516054492
 30
0.0
 10
-73.2009252424
 20
15.9803138106
 30
0.0
 10
-73.1836867573
 20
16.01024079
 30
0.0
 10
-73.1719815985
 20
16.0305300671
 30
0.0
 10
-73.1660667236
 20
16.0407752119
 30
0.0
 11
-73.2897577326
 21
15.824268861
 31
0.0
 11
-73.2886289574
 21
15.8265461086
 31
0.0
 11
-73.284986546
 21
15.8331705647
 31
0.0
 11
-73.2789043342
 21
15.8440079404
 31
0.0
 11
-73.2705057724
 21
15.8588382677
 31
0.0
 11
-73.2599612917
 21
15.8773605966
 31
0.0
 11
-73.2474848681
 21
15.8991990589
 31
0.0
 11
-73.233329779
 21
15.923910324
 31
0.0
 11
-73.2177831926
 21
15.9509930682
 31
0.0
 11
-73.201161612
 21
15.9798959359
 31
0.0
 11
-73.183801401
 21
16.0100340364
 31
0.0
 11
-73.1660667236
 21
16.0407752119
 31
0.0
  0
SPLINE
  5
650
100
AcDbEntity
  8
PORTATASTO
100
AcDbSpline
 62
7
  6
CONTINUOUS
 70
0
 71
3
 72
20
 73
16
 74
14
 42
0.0000001
 43
0.0000001
 44
0.0000000001
 12
0.0
 22
-0.5000660232
 32
0.0
 13
0.1185618324
 23
-0.4885802824
 33
0.0
 40
0.0
 40
0.0
 40
0.0
 40
0.0
 40
0.120013053
 40
0.2386452224
 40
0.3539005988
 40
0.4642715845
 40
0.567645501
 40
0.6629086717
 40
0.7482722116
 40
0.822887334
 40
0.8853376493
 40
0.9349651843
 40
0.9708548472
 40
0.9925932729
 40
1.0
 40
1.0
 40
1.0
 40
1.0
 10
-70.9147577326
 20
-29.7535792784
 30
0.0
 10
-70.9147577326
 20
-29.7735840951
 30
0.0
 10
-70.9138732872
 20
-29.8133587997
 30
0.0
 10
-70.9141288963
 20
-29.8723520777
 30
0.0
 10
-70.9143765584
 20
-29.9297349222
 30
0.0
 10
-70.9148070416
 20
-29.9845741088
 30
0.0
 10
-70.9152426606
 20
-30.0360802918
 30
0.0
 10
-70.915647436
 20
-30.0834184778
 30
0.0
 10
-70.9159670608
 20
-30.1259625335
 30
0.0
 10
-70.9161954639
 20
-30.1630402841
 30
0.0
 10
-70.9162393028
 20
-30.1941542878
 30
0.0
 10
-70.9162765265
 20
-30.2188335804
 30
0.0
 10
-70.9158233409
 20
-30.2366771947
 30
0.0
 10
-70.9158961825
 20
-30.2475736629
 30
0.0
 10
-70.915050451
 20
-30.2523560951
 30
0.0
 10
-70.9147577326
 20
-30.2535623554
 30
0.0
 11
-70.9147577326
 21
-29.7535792784
 31
0.0
 11
-70.9141354383
 21
-29.8135905021
 31
0.0
 11
-70.9141311635
 21
-29.8729144191
 31
0.0
 11
-70.9144147528
 21
-29.9305490192
 31
0.0
 11
-70.9148219688
 21
-29.9857402968
 31
0.0
 11
-70.91525493
 21
-30.037432267
 31
0.0
 11
-70.9156528527
 21
-30.08506848
 31
0.0
 11
-70.9159702543
 21
-30.1277547058
 31
0.0
 11
-70.9161757838
 21
-30.1650666273
 31
0.0
 11
-70.9162428966
 21
-30.196295836
 31
0.0
 11
-70.9161510493
 21
-30.2211127101
 31
0.0
 11
-70.9158830233
 21
-30.2390579096
 31
0.0
 11
-70.9154235781
 21
-30.2499188442
 31
0.0
 11
-70.9147577326
 21
-30.2535623554
 31
0.0
  0
SPLINE
  5
651
100
AcDbEntity
  8
PORTATASTO
100
AcDbSpline
 62
7
  6
CONTINUOUS
 70
0
 71
3
 72
20
 73
16
 74
14
 42
0.0000001
 43
0.0000001
 44
0.0000000001
 12
0.0
 22
0.5003117728
 32
0.0
 13
0.1185846698
 23
0.4888280836
 33
0.0
 40
0.0
 40
0.0
 40
0.0
 40
0.0
 40
0.1204141932
 40
0.238987392
 40
0.3542153939
 40
0.4645180709
 40
0.5678334664
 40
0.6630545512
 40
0.7483766938
 40
0.8229547175
 40
0.8853861454
 40
0.9349997949
 40
0.970859407
 40
0.9925918845
 40
1.0
 40
1.0
 40
1.0
 40
1.0
 10
-70.9147577326
 20
13.9462087926
 30
0.0
 10
-70.9147577326
 20
13.9662903387
 30
0.0
 10
-70.9138746474
 20
14.0061416808
 30
0.0
 10
-70.9141284335
 20
14.0652164323
 30
0.0
 10
-70.9143766083
 20
14.1226016903
 30
0.0
 10
-70.9148069562
 20
14.1774421096
 30
0.0
 10
-70.9152425789
 20
14.2289454359
 30
0.0
 10
-70.9156473476
 20
14.2762832037
 30
0.0
 10
-70.9159669955
 20
14.318828059
 30
0.0
 10
-70.9161954243
 20
14.3559077874
 30
0.0
 10
-70.9162393179
 20
14.3870254363
 30
0.0
 10
-70.9162765083
 20
14.4117063599
 30
0.0
 10
-70.9158235167
 20
14.4295504828
 30
0.0
 10
-70.915896229
 20
14.4404464507
 30
0.0
 10
-70.9150505622
 20
14.4452305463
 30
0.0
 10
-70.9147577326
 20
14.4464376446
 30
0.0
 11
-70.9147577326
 21
13.9462087926
 31
0.0
 11
-70.9141354996
 21
14.0064502176
 31
0.0
 11
-70.9141311157
 21
14.0657737847
 31
0.0
 11
-70.9144147444
 21
14.123423013
 31
0.0
 11
-70.9148219014
 21
14.1786072388
 31
0.0
 11
-70.9152548259
 21
14.2302953345
 31
0.0
 11
-70.9156527734
 21
14.2779339021
 31
0.0
 11
-70.9159701905
 21
14.3206203944
 31
0.0
 11
-70.9161757438
 21
14.3579320915
 31
0.0
 11
-70.9162428979
 21
14.3891671976
 31
0.0
 11
-70.9161510384
 21
14.4139893206
 31
0.0
 11
-70.9158831457
 21
14.4319283065
 31
0.0
 11
-70.9154237724
 21
14.4427916125
 31
0.0
 11
-70.9147577326
 21
14.4464376446
 31
0.0
  0
SPLINE
  5
652
100
AcDbEntity
  8
PORTATASTO
100
AcDbSpline
 62
7
  6
CONTINUOUS
 70
0
 71
3
 72
10
 73
6
 74
4
 42
0.0000001
 43
0.0000001
 44
0.0000000001
 12
-7.1137194909
 22
0.0400111989
 32
0.0
 13
-7.1136506578
 23
0.0507957657
 33
0.0
 40
0.0
 40
0.0
 40
0.0
 40
0.0
 40
0.3396594066
 40
0.6730056873
 40
1.0
 40
1.0
 40
1.0
 40
1.0
 10
-63.4147577326
 20
-31.3942514457
 30
0.0
 10
-64.2201716464
 20
-31.3897213856
 30
0.0
 10
-65.8160276915
 20
-31.3804121477
 30
0.0
 10
-68.1872580112
 20
-31.3654658957
 30
0.0
 10
-69.75307224
 20
-31.3547660926
 30
0.0
 10
-70.5284466759
 20
-31.3492294504
 30
0.0
 11
-63.4147577326
 21
-31.3942514457
 31
0.0
 11
-65.83099645
 21
-31.3801338711
 31
0.0
 11
-68.2023186122
 21
-31.365159399
 31
0.0
 11
-70.5284466759
 21
-31.3492294504
 31
0.0
  0
SPLINE
  5
653
100
AcDbEntity
  8
PORTATASTO
100
AcDbSpline
 62
7
  6
CONTINUOUS
 70
0
 71
3
 72
10
 73
6
 74
4
 42
0.0000001
 43
0.0000001
 44
0.0000000001
 12
7.1136506578
 22
0.0507957657
 32
0.0
 13
7.1137194909
 23
0.0400111989
 33
0.0
 40
0.0
 40
0.0
 40
0.0
 40
0.0
 40
0.3269942247
 40
0.6603405691
 40
1.0
 40
1.0
 40
1.0
 40
1.0
 10
-70.5284466759
 20
15.5421047397
 30
0.0
 10
-69.7530724488
 20
15.5476413804
 30
0.0
 10
-68.1872582774
 20
15.5583411832
 30
0.0
 10
-65.8160279577
 20
15.5732874354
 30
0.0
 10
-64.2201717038
 20
15.5825966746
 30
0.0
 10
-63.4147577326
 20
15.5871267349
 30
0.0
 11
-70.5284466759
 21
15.5421047397
 31
0.0
 11
-68.2023192384
 21
15.5580346841
 31
0.0
 11
-65.8309966224
 21
15.5730091593
 31
0.0
 11
-63.4147577326
 21
15.5871267349
 31
0.0
  0
SPLINE
  5
654
100
AcDbEntity
  8
CORPO
100
AcDbSpline
 62
253
  6
CONTINUOUS
 70
0
 71
3
 72
13
 73
9
 74
7
 42
0.0000001
 43
0.0000001
 44
0.0000000001
 12
0.0
 22
-1.3294461743
 32
0.0
 13
-1.3293449222
 23
-0.0164075657
 33
0.0
 40
0.0
 40
0.0
 40
0.0
 40
0.0
 40
0.1384690448
 40
0.2853155788
 40
0.4456941123
 40
0.620472345
 40
0.8069775867
 40
1.0
 40
1.0
 40
1.0
 40
1.0
 10
-37.4147577326
 20
-26.071030547
 30
0.0
 10
-37.4147577326
 20
-26.1323929276
 30
0.0
 10
-37.438979175
 20
-26.2598481306
 30
0.0
 10
-37.5419590697
 20
-26.4322128628
 30
0.0
 10
-37.701628527
 20
-26.5778986492
 30
0.0
 10
-37.9065226953
 20
-26.68903253
 30
0.0
 10
-38.1433568577
 20
-26.7596767306
 30
0.0
 10
-38.3117742045
 20
-26.7769739556
 30
0.0
 10
-38.3973053261
 20
-26.7780296316
 30
0.0
 11
-37.4147577326
 21
-26.071030547
 31
0.0
 11
-37.448090279
 21
-26.2520747878
 31
0.0
 11
-37.5458658941
 21
-26.4210498128
 31
0.0
 11
-37.7015789536
 21
-26.5666998063
 31
0.0
 11
-37.9048329315
 21
-26.6792972226
 31
0.0
 11
-38.1420838787
 21
-26.7513425965
 31
0.0
 11
-38.3973053261
 21
-26.7780296316
 31
0.0
  0
SPLINE
  5
655
100
AcDbEntity
  8
CORPO
100
AcDbSpline
 62
253
  6
CONTINUOUS
 70
0
 71
3
 72
13
 73
9
 74
7
 42
0.0000001
 43
0.0000001
 44
0.0000000001
 12
-0.1565050194
 22
-1.2650190291
 32
0.0
 13
-1.2684118645
 23
-0.0156554937
 33
0.0
 40
0.0
 40
0.0
 40
0.0
 40
0.0
 40
0.097065939
 40
0.2509481908
 40
0.4189966524
 40
0.6021400651
 40
0.7975720145
 40
1.0
 40
1.0
 40
1.0
 40
1.0
 10
-37.4185519693
 20
-26.1225518438
 30
0.0
 10
-37.4236157382
 20
-26.1634819305
 30
0.0
 10
-37.4495634367
 20
-26.2681388439
 30
0.0
 10
-37.5419283813
 20
-26.4227561037
 30
0.0
 10
-37.701558299
 20
-26.5684308646
 30
0.0
 10
-37.9064038976
 20
-26.6795662266
 30
0.0
 10
-38.1432574383
 20
-26.7502466584
 30
0.0
 10
-38.3117179733
 20
-26.7675582207
 30
0.0
 10
-38.3973053262
 20
-26.7686145907
 30
0.0
 11
-37.4185519693
 21
-26.1225518438
 31
0.0
 11
-37.4480831199
 21
-26.2426406323
 31
0.0
 11
-37.545838119
 21
-26.4116002944
 31
0.0
 11
-37.7015072834
 21
-26.5572331991
 31
0.0
 11
-37.9047151428
 21
-26.6698328006
 31
0.0
 11
-38.1419177359
 21
-26.7418942483
 31
0.0
 11
-38.3973053262
 21
-26.7686145907
 31
0.0
  0
SPLINE
  5
656
100
AcDbEntity
  8
CORPO
100
AcDbSpline
 62
253
  6
CONTINUOUS
 70
0
 71
3
 72
11
 73
7
 74
5
 42
0.0000001
 43
0.0000001
 44
0.0000000001
 12
0.0029940421
 22
-0.2928698207
 32
0.0
 13
-0.2928405174
 23
-0.005111511
 33
0.0
 40
0.0
 40
0.0
 40
0.0
 40
0.0
 40
0.4245043662
 40
0.7399520789
 40
0.9342395734
 40
1.0
 40
1.0
 40
1.0
 40
1.0
 10
-38.3973053262
 20
-26.7780296324
 30
0.0
 10
-38.3968816648
 20
-26.8194711383
 30
0.0
 10
-38.3985295137
 20
-26.8891235252
 30
0.0
 10
-38.3908598221
 20
-26.9884457933
 30
0.0
 10
-38.4038314781
 20
-27.0302262054
 30
0.0
 10
-38.3908862204
 20
-27.0707661971
 30
0.0
 10
-38.3973053262
 20
-27.0708782422
 30
0.0
 11
-38.3973053262
 21
-26.7780296324
 31
0.0
 11
-38.3962307246
 21
-26.9023560025
 31
0.0
 11
-38.3958678776
 21
-26.9947452326
 31
0.0
 11
-38.3962307246
 21
-27.0516479928
 31
0.0
 11
-38.3973053262
 21
-27.0708782422
 31
0.0
  0
SPLINE
  5
657
100
AcDbEntity
  8
ASSI
100
AcDbSpline
 62
253
  6
CONTINUOUS
 70
0
 71
3
 72
13
 73
9
 74
7
 42
0.0000001
 43
0.0000001
 44
0.0000000001
 12
0.0
 22
-1.3294461743
 32
0.0
 13
-1.3293449222
 23
-0.0164075657
 33
0.0
 40
0.0
 40
0.0
 40
0.0
 40
0.0
 40
0.1384690448
 40
0.2853155788
 40
0.4456941123
 40
0.620472345
 40
0.8069775867
 40
1.0
 40
1.0
 40
1.0
 40
1.0
 10
-37.4147577326
 20
-26.071030547
 30
0.0
 10
-37.4147577326
 20
-26.1323929276
 30
0.0
 10
-37.438979175
 20
-26.2598481306
 30
0.0
 10
-37.5419590697
 20
-26.4322128628
 30
0.0
 10
-37.701628527
 20
-26.5778986492
 30
0.0
 10
-37.9065226953
 20
-26.68903253
 30
0.0
 10
-38.1433568577
 20
-26.7596767306
 30
0.0
 10
-38.3117742045
 20
-26.7769739556
 30
0.0
 10
-38.3973053261
 20
-26.7780296316
 30
0.0
 11
-37.4147577326
 21
-26.071030547
 31
0.0
 11
-37.448090279
 21
-26.2520747878
 31
0.0
 11
-37.5458658941
 21
-26.4210498128
 31
0.0
 11
-37.7015789536
 21
-26.5666998063
 31
0.0
 11
-37.9048329315
 21
-26.6792972226
 31
0.0
 11
-38.1420838787
 21
-26.7513425965
 31
0.0
 11
-38.3973053261
 21
-26.7780296316
 31
0.0
  0
SPLINE
  5
658
100
AcDbEntity
  8
ASSI
100
AcDbSpline
 62
253
  6
CONTINUOUS
 70
0
 71
3
 72
13
 73
9
 74
7
 42
0.0000001
 43
0.0000001
 44
0.0000000001
 12
-0.1565050194
 22
-1.2650190291
 32
0.0
 13
-1.2684118645
 23
-0.0156554937
 33
0.0
 40
0.0
 40
0.0
 40
0.0
 40
0.0
 40
0.097065939
 40
0.2509481908
 40
0.4189966524
 40
0.6021400651
 40
0.7975720145
 40
1.0
 40
1.0
 40
1.0
 40
1.0
 10
-37.4185519693
 20
-26.1225518438
 30
0.0
 10
-37.4236157382
 20
-26.1634819305
 30
0.0
 10
-37.4495634367
 20
-26.2681388439
 30
0.0
 10
-37.5419283813
 20
-26.4227561037
 30
0.0
 10
-37.701558299
 20
-26.5684308646
 30
0.0
 10
-37.9064038976
 20
-26.6795662266
 30
0.0
 10
-38.1432574383
 20
-26.7502466584
 30
0.0
 10
-38.3117179733
 20
-26.7675582207
 30
0.0
 10
-38.3973053262
 20
-26.7686145907
 30
0.0
 11
-37.4185519693
 21
-26.1225518438
 31
0.0
 11
-37.4480831199
 21
-26.2426406323
 31
0.0
 11
-37.545838119
 21
-26.4116002944
 31
0.0
 11
-37.7015072834
 21
-26.5572331991
 31
0.0
 11
-37.9047151428
 21
-26.6698328006
 31
0.0
 11
-38.1419177359
 21
-26.7418942483
 31
0.0
 11
-38.3973053262
 21
-26.7686145907
 31
0.0
  0
SPLINE
  5
659
100
AcDbEntity
  8
ASSI
100
AcDbSpline
 62
253
  6
CONTINUOUS
 70
0
 71
3
 72
11
 73
7
 74
5
 42
0.0000001
 43
0.0000001
 44
0.0000000001
 12
0.0029940421
 22
-0.2928698207
 32
0.0
 13
-0.2928405174
 23
-0.005111511
 33
0.0
 40
0.0
 40
0.0
 40
0.0
 40
0.0
 40
0.4245043662
 40
0.7399520789
 40
0.9342395734
 40
1.0
 40
1.0
 40
1.0
 40
1.0
 10
-38.3973053262
 20
-26.7780296324
 30
0.0
 10
-38.3968816648
 20
-26.8194711383
 30
0.0
 10
-38.3985295137
 20
-26.8891235252
 30
0.0
 10
-38.3908598221
 20
-26.9884457933
 30
0.0
 10
-38.4038314781
 20
-27.0302262054
 30
0.0
 10
-38.3908862204
 20
-27.0707661971
 30
0.0
 10
-38.3973053262
 20
-27.0708782422
 30
0.0
 11
-38.3973053262
 21
-26.7780296324
 31
0.0
 11
-38.3962307246
 21
-26.9023560025
 31
0.0
 11
-38.3958678776
 21
-26.9947452326
 31
0.0
 11
-38.3962307246
 21
-27.0516479928
 31
0.0
 11
-38.3973053262
 21
-27.0708782422
 31
0.0
  0
SPLINE
  5
65A
100
AcDbEntity
  8
CURVE
100
AcDbSpline
 62
253
  6
CONTINUOUS
 70
0
 71
3
 72
13
 73
9
 74
7
 42
0.0000001
 43
0.0000001
 44
0.0000000001
 12
0.6830460881
 22
0.0
 32
0.0
 13
0.0852923267
 23
-0.6778031497
 33
0.0
 40
0.0
 40
0.0
 40
0.0
 40
0.0
 40
0.2490801906
 40
0.3745290044
 40
0.5000465587
 40
0.6245839973
 40
0.7501008193
 40
1.0
 40
1.0
 40
1.0
 40
1.0
 10
-65.4242025148
 20
-3.7848024695
 30
0.0
 10
-65.3674914315
 20
-3.7848024695
 30
0.0
 10
-65.2804201587
 20
-3.7926130564
 30
0.0
 10
-65.1759038004
 20
-3.8396581432
 30
0.0
 10
-65.1061095427
 20
-3.8912336296
 30
0.0
 10
-65.0588458069
 20
-3.9646277432
 30
0.0
 10
-65.026461424
 20
-4.0746973357
 30
0.0
 10
-65.021745482
 20
-4.1604894072
 30
0.0
 10
-65.0146406545
 20
-4.2169502244
 30
0.0
 11
-65.4242025148
 21
-3.7848024695
 31
0.0
 11
-65.2555657024
 21
-3.8073214096
 31
0.0
 11
-65.1773695234
 21
-3.8423649355
 31
0.0
 11
-65.1097091415
 21
-3.895026907
 31
0.0
 11
-65.0627569098
 21
-3.9659708488
 31
0.0
 11
-65.0367093994
 21
-4.0476644227
 31
0.0
 11
-65.0146406545
 21
-4.2169502244
 31
0.0
  0
SPLINE
  5
65B
100
AcDbEntity
  8
CURVE
100
AcDbSpline
 62
253
  6
CONTINUOUS
 70
0
 71
3
 72
13
 73
9
 74
7
 42
0.0000001
 43
0.0000001
 44
0.0000000001
 12
0.0852923267
 22
0.6778031497
 32
0.0
 13
0.6830460881
 23
-0.0
 33
0.0
 40
0.0
 40
0.0
 40
0.0
 40
0.0
 40
0.2498991807
 40
0.3754160027
 40
0.4999534413
 40
0.6254709956
 40
0.7509198094
 40
1.0
 40
1.0
 40
1.0
 40
1.0
 10
-65.8337643751
 20
-4.2169502244
 30
0.0
 10
-65.8266595475
 20
-4.1604894072
 30
0.0
 10
-65.8219436055
 20
-4.0746973357
 30
0.0
 10
-65.7895592227
 20
-3.9646277432
 30
0.0
 10
-65.7422954868
 20
-3.8912336296
 30
0.0
 10
-65.6725012291
 20
-3.8396581432
 30
0.0
 10
-65.5679848708
 20
-3.7926130564
 30
0.0
 10
-65.480913598
 20
-3.7848024695
 30
0.0
 10
-65.4242025148
 20
-3.7848024695
 30
0.0
 11
-65.8337643751
 21
-4.2169502244
 31
0.0
 11
-65.8116956302
 21
-4.0476644227
 31
0.0
 11
-65.7856481197
 21
-3.9659708488
 31
0.0
 11
-65.738695888
 21
-3.895026907
 31
0.0
 11
-65.6710355062
 21
-3.8423649355
 31
0.0
 11
-65.5928393271
 21
-3.8073214096
 31
0.0
 11
-65.4242025148
 21
-3.7848024695
 31
0.0
  0
SPLINE
  5
65C
100
AcDbEntity
  8
CURVE
100
AcDbSpline
 62
253
  6
CONTINUOUS
 70
0
 71
3
 72
15
 73
11
 74
9
 42
0.0000001
 43
0.0000001
 44
0.0000000001
 12
-1.7069126765
 22
0.0
 32
0.0
 13
-0.0632100266
 23
-1.7060017172
 33
0.0
 40
0.0
 40
0.0
 40
0.0
 40
0.0
 40
0.1248401019
 40
0.2498663855
 40
0.374885782
 40
0.5000299202
 40
0.6250550432
 40
0.7501198193
 40
0.875035251
 40
1.0
 40
1.0
 40
1.0
 40
1.0
 10
-65.4242025148
 20
-3.122035555
 30
0.0
 10
-65.4952328989
 20
-3.122035555
 30
0.0
 10
-65.6378317145
 20
-3.131883032
 30
0.0
 10
-65.8449494661
 20
-3.1915915107
 30
0.0
 10
-66.0272451512
 20
-3.3100553398
 30
0.0
 10
-66.1599410481
 20
-3.4818176305
 30
0.0
 10
-66.2420768569
 20
-3.6805726153
 30
0.0
 10
-66.289934936
 20
-3.8892724378
 30
0.0
 10
-66.3098591948
 20
-4.1021140503
 30
0.0
 10
-66.3129175082
 20
-4.2442789391
 30
0.0
 10
-66.3155505165
 20
-4.3153422979
 30
0.0
 11
-65.4242025148
 21
-3.122035555
 31
0.0
 11
-65.6365891396
 21
-3.1393517962
 31
0.0
 11
-65.8407893814
 21
-3.2013744708
 31
0.0
 11
-66.018925
 21
-3.3188915744
 31
0.0
 11
-66.1515453162
 21
-3.4863719522
 31
0.0
 11
-66.2363634051
 21
-3.6822293222
 31
0.0
 11
-66.2852937647
 21
-3.8900523288
 31
0.0
 11
-66.3073025554
 21
-4.1021654401
 31
0.0
 11
-66.3155505165
 21
-4.3153422979
 31
0.0
  0
SPLINE
  5
65D
100
AcDbEntity
  8
CURVE
100
AcDbSpline
 62
253
  6
CONTINUOUS
 70
0
 71
3
 72
15
 73
11
 74
9
 42
0.0000001
 43
0.0000001
 44
0.0000000001
 12
-0.0632100266
 22
1.7060017172
 32
0.0
 13
-1.7069126765
 23
-0.0
 33
0.0
 40
0.0
 40
0.0
 40
0.0
 40
0.0
 40
0.124964749
 40
0.2498801807
 40
0.3749449568
 40
0.4999700798
 40
0.625114218
 40
0.7501336145
 40
0.8751598981
 40
1.0
 40
1.0
 40
1.0
 40
1.0
 10
-64.532854513
 20
-4.3153422979
 30
0.0
 10
-64.5354875214
 20
-4.2442789391
 30
0.0
 10
-64.5385458347
 20
-4.1021140503
 30
0.0
 10
-64.5584700935
 20
-3.8892724378
 30
0.0
 10
-64.6063281726
 20
-3.6805726153
 30
0.0
 10
-64.6884639814
 20
-3.4818176305
 30
0.0
 10
-64.8211598783
 20
-3.3100553398
 30
0.0
 10
-65.0034555635
 20
-3.1915915107
 30
0.0
 10
-65.210573315
 20
-3.131883032
 30
0.0
 10
-65.3531721306
 20
-3.122035555
 30
0.0
 10
-65.4242025148
 20
-3.122035555
 30
0.0
 11
-64.532854513
 21
-4.3153422979
 31
0.0
 11
-64.5411024741
 21
-4.1021654401
 31
0.0
 11
-64.5631112648
 21
-3.8900523288
 31
0.0
 11
-64.6120416244
 21
-3.6822293222
 31
0.0
 11
-64.6968597134
 21
-3.4863719522
 31
0.0
 11
-64.8294800295
 21
-3.3188915744
 31
0.0
 11
-65.0076156481
 21
-3.2013744708
 31
0.0
 11
-65.2118158899
 21
-3.1393517962
 31
0.0
 11
-65.4242025148
 21
-3.122035555
 31
0.0
  0
SPLINE
  5
65E
100
AcDbEntity
  8
CURVE
100
AcDbSpline
 62
253
  6
CONTINUOUS
 70
0
 71
3
 72
11
 73
7
 74
5
 42
0.0000001
 43
0.0000001
 44
0.0000000001
 12
0.7373377137
 22
0.0113808125
 32
0.0
 13
0.0164643223
 23
-0.7373539953
 33
0.0
 40
0.0
 40
0.0
 40
0.0
 40
0.0
 40
0.2491315025
 40
0.4973515609
 40
0.7462289133
 40
1.0
 40
1.0
 40
1.0
 40
1.0
 10
-65.4840687711
 20
-13.3662823815
 30
0.0
 10
-65.4228374203
 20
-13.3653372752
 30
0.0
 10
-65.2983833484
 20
-13.3768006751
 30
0.0
 10
-65.1347479455
 20
-13.4785616675
 30
0.0
 10
-65.049494023
 20
-13.6501120974
 30
0.0
 10
-65.0349938648
 20
-13.7740839896
 30
0.0
 10
-65.0336011418
 20
-13.8364570311
 30
0.0
 11
-65.4840687711
 21
-13.3662823815
 31
0.0
 11
-65.3020177099
 21
-13.3909631059
 31
0.0
 11
-65.1479984557
 21
-13.4898877447
 31
0.0
 11
-65.060486125
 21
-13.6512328246
 31
0.0
 11
-65.0336011418
 21
-13.8364570311
 31
0.0
  0
SPLINE
  5
65F
100
AcDbEntity
  8
CURVE
100
AcDbSpline
 62
253
  6
CONTINUOUS
 70
0
 71
3
 72
9
 73
5
 74
3
 42
0.0000001
 43
0.0000001
 44
0.0000000001
 12
0.0616043735
 22
0.5307774627
 32
0.0
 13
0.5341948855
 23
0.0083576149
 33
0.0
 40
0.0
 40
0.0
 40
0.0
 40
0.0
 40
0.5000882298
 40
1.0
 40
1.0
 40
1.0
 40
1.0
 10
-65.8464340358
 20
-13.7081880463
 30
0.0
 10
-65.8361648284
 20
-13.6197095258
 30
0.0
 10
-65.7583132484
 20
-13.4403211342
 30
0.0
 10
-65.5730855414
 20
-13.3676750715
 30
0.0
 10
-65.4840687711
 20
-13.3662823815
 30
0.0
 11
-65.8464340358
 21
-13.7081880463
 31
0.0
 11
-65.7314460044
 21
-13.4669844803
 31
0.0
 11
-65.4840687711
 21
-13.3662823815
 31
0.0
  0
SPLINE
  5
660
100
AcDbEntity
  8
CURVE
100
AcDbSpline
 62
253
  6
CONTINUOUS
 70
0
 71
3
 72
9
 73
5
 74
3
 42
0.0000001
 43
0.0000001
 44
0.0000000001
 12
-0.0800078963
 22
0.4690276623
 32
0.0
 13
0.054842989
 23
0.4726325126
 33
0.0
 40
0.0
 40
0.0
 40
0.0
 40
0.0
 40
0.4997637338
 40
1.0
 40
1.0
 40
1.0
 40
1.0
 10
-65.8293700446
 20
-14.1823636272
 30
0.0
 10
-65.8426983929
 20
-14.1042292886
 30
0.0
 10
-65.8620810028
 20
-13.9462887116
 30
0.0
 10
-65.8555788531
 20
-13.7869973541
 30
0.0
 10
-65.8464340358
 20
-13.7081880463
 30
0.0
 11
-65.8293700446
 21
-14.1823636272
 31
0.0
 11
-65.8556067682
 21
-13.9460259676
 31
0.0
 11
-65.8464340358
 21
-13.7081880463
 31
0.0
  0
SPLINE
  5
661
100
AcDbEntity
  8
CURVE
100
AcDbSpline
 62
253
  6
CONTINUOUS
 70
0
 71
3
 72
11
 73
7
 74
5
 42
0.0000001
 43
0.0000001
 44
0.0000000001
 12
-0.5116812263
 22
-1.4167437705
 32
0.0
 13
0.2191822581
 23
-1.4903036133
 33
0.0
 40
0.0
 40
0.0
 40
0.0
 40
0.0
 40
0.249614251
 40
0.499888924
 40
0.7499637517
 40
1.0
 40
1.0
 40
1.0
 40
1.0
 10
-66.2588174453
 20
-13.2714124746
 30
0.0
 10
-66.301391754
 20
-13.3892922863
 30
0.0
 10
-66.3488674474
 20
-13.6385768294
 30
0.0
 10
-66.3632742085
 20
-14.0152055027
 30
0.0
 10
-66.3401185348
 20
-14.3918373838
 30
0.0
 10
-66.3076048278
 20
-14.640919725
 30
0.0
 10
-66.2893369913
 20
-14.7651296997
 30
0.0
 11
-66.2588174453
 21
-13.2714124746
 31
0.0
 11
-66.3393615127
 21
-13.6386857283
 31
0.0
 11
-66.3570101309
 21
-14.0152710436
 31
0.0
 11
-66.3358464106
 21
-14.3913736094
 31
0.0
 11
-66.2893369913
 21
-14.7651296997
 31
0.0
  0
SPLINE
  5
662
100
AcDbEntity
  8
CURVE
100
AcDbSpline
 62
253
  6
CONTINUOUS
 70
0
 71
3
 72
18
 73
14
 74
12
 42
0.0000001
 43
0.0000001
 44
0.0000000001
 12
-0.2311001381
 22
1.7915717583
 32
0.0
 13
-0.6128270121
 23
-1.6992591149
 33
0.0
 40
0.0
 40
0.0
 40
0.0
 40
0.0
 40
0.0626155709
 40
0.1255750725
 40
0.1873779143
 40
0.2500548274
 40
0.3131302752
 40
0.3757850613
 40
0.5005898481
 40
0.6254073429
 40
0.7503252015
 40
0.8752611255
 40
1.0
 40
1.0
 40
1.0
 40
1.0
 10
-64.7946835279
 20
-13.2090066454
 30
0.0
 10
-64.7995070169
 20
-13.1716132159
 30
0.0
 10
-64.8524794446
 20
-13.1093047124
 30
0.0
 10
-64.924500746
 20
-13.0255564928
 30
0.0
 10
-65.0104500158
 20
-12.9506175997
 30
0.0
 10
-65.1068684934
 20
-12.8913120862
 30
0.0
 10
-65.2112476865
 20
-12.8458861512
 30
0.0
 10
-65.3569102568
 20
-12.8051054347
 30
0.0
 10
-65.5463066305
 20
-12.7909220633
 30
0.0
 10
-65.7714769214
 20
-12.8242681501
 30
0.0
 10
-65.9800285074
 20
-12.9194136239
 30
0.0
 10
-66.1501168244
 20
-13.0711186525
 30
0.0
 10
-66.233336328
 20
-13.2007579181
 30
0.0
 10
-66.2588174453
 20
-13.2714124746
 30
0.0
 11
-64.7946835279
 21
-13.2090066454
 31
0.0
 11
-64.8511643203
 21
-13.1110126483
 31
0.0
 11
-64.9273021662
 21
-13.026537384
 31
0.0
 11
-65.011753302
 21
-12.9535322953
 31
0.0
 11
-65.1079109353
 21
-12.8937840952
 31
0.0
 11
-65.2123476778
 21
-12.8482633629
 31
0.0
 11
-65.3213013914
 21
-12.8176794284
 31
0.0
 11
-65.5459676008
 21
-12.7993122943
 31
0.0
 11
-65.7686364025
 21
-12.8345470167
 31
0.0
 11
-65.973612913
 21
-12.9288423251
 31
0.0
 11
-66.1426573075
 21
-13.0783407912
 31
0.0
 11
-66.2588174453
 21
-13.2714124746
 31
0.0
  0
SPLINE
  5
663
100
AcDbEntity
  8
CURVE
100
AcDbSpline
 62
253
  6
CONTINUOUS
 70
0
 71
3
 72
11
 73
7
 74
5
 42
0.0000001
 43
0.0000001
 44
0.0000000001
 12
-0.6648989534
 22
-0.181193689
 32
0.0
 13
-0.2552161048
 23
-0.6402353954
 33
0.0
 40
0.0
 40
0.0
 40
0.0
 40
0.0
 40
0.2450440156
 40
0.5033055314
 40
0.7579591626
 40
1.0
 40
1.0
 40
1.0
 40
1.0
 10
-64.2090082233
 20
-12.8601210951
 30
0.0
 10
-64.2633180598
 20
-12.8749212382
 30
0.0
 10
-64.3752794777
 20
-12.9040837472
 30
0.0
 10
-64.5376874057
 20
-12.9687233725
 30
0.0
 10
-64.6853241894
 20
-13.0627202343
 30
0.0
 10
-64.7569634174
 20
-13.157352275
 30
0.0
 10
-64.777554324
 20
-13.2090066454
 30
0.0
 11
-64.2090082233
 21
-12.8601210951
 31
0.0
 11
-64.3713630473
 21
-12.9065795847
 31
0.0
 11
-64.5360270182
 21
-12.9741318746
 31
0.0
 11
-64.6810897334
 21
-13.0729098234
 31
0.0
 11
-64.777554324
 21
-13.2090066454
 31
0.0
  0
SPLINE
  5
664
100
AcDbEntity
  8
CURVE
100
AcDbSpline
 62
253
  6
CONTINUOUS
 70
0
 71
3
 72
8
 73
4
 74
2
 42
0.0000001
 43
0.0000001
 44
0.0000000001
 12
-0.7830184647
 22
-0.212730392
 32
0.0
 13
-0.7828503484
 23
-0.2133484193
 33
0.0
 40
0.0
 40
0.0
 40
0.0
 40
0.0
 40
1.0
 40
1.0
 40
1.0
 40
1.0
 10
-63.4244341682
 20
-12.6532033702
 30
0.0
 10
-63.6854403231
 20
-12.7241135008
 30
0.0
 10
-63.9480581072
 20
-12.7890049553
 30
0.0
 10
-64.2090082233
 20
-12.8601210951
 30
0.0
 11
-63.4244341682
 21
-12.6532033702
 31
0.0
 11
-64.2090082233
 21
-12.8601210951
 31
0.0
  0
SPLINE
  5
665
100
AcDbEntity
  8
CURVE
100
AcDbSpline
 62
253
  6
CONTINUOUS
 70
0
 71
3
 72
9
 73
5
 74
3
 42
0.0000001
 43
0.0000001
 44
0.0000000001
 12
0.8593546271
 22
0.3229459945
 32
0.0
 13
0.8822654545
 23
0.2537321442
 33
0.0
 40
0.0
 40
0.0
 40
0.0
 40
0.0
 40
0.499968398
 40
1.0
 40
1.0
 40
1.0
 40
1.0
 10
-64.3034362203
 20
-13.5000743909
 30
0.0
 10
-64.1602195016
 20
-13.4462534604
 30
0.0
 10
-63.8645987977
 20
-13.3649932808
 30
0.0
 10
-63.5714877044
 20
-13.2776954572
 30
0.0
 10
-63.4244341682
 20
-13.2354040937
 30
0.0
 11
-64.3034362203
 21
-13.5000743909
 31
0.0
 11
-63.8652448054
 21
-13.3634891966
 31
0.0
 11
-63.4244341682
 21
-13.2354040937
 31
0.0
  0
SPLINE
  5
666
100
AcDbEntity
  8
CURVE
100
AcDbSpline
 62
253
  6
CONTINUOUS
 70
0
 71
3
 72
11
 73
7
 74
5
 42
0.0000001
 43
0.0000001
 44
0.0000000001
 12
0.0
 22
0.4505958664
 32
0.0
 13
0.421793933
 23
0.1583423737
 33
0.0
 40
0.0
 40
0.0
 40
0.0
 40
0.0
 40
0.2477795725
 40
0.4960551195
 40
0.7486644071
 40
1.0
 40
1.0
 40
1.0
 40
1.0
 10
-64.5588526486
 20
-13.8377616826
 30
0.0
 10
-64.5588526486
 20
-13.8005455323
 30
0.0
 10
-64.5479644273
 20
-13.7252204516
 30
0.0
 10
-64.4922580685
 20
-13.6247078412
 30
0.0
 10
-64.4065981
 20
-13.5486536623
 30
0.0
 10
-64.3387734964
 20
-13.5133400823
 30
0.0
 10
-64.3034362203
 20
-13.5000743909
 30
0.0
 11
-64.5588526486
 21
-13.8377616826
 31
0.0
 11
-64.5414827976
 21
-13.7274730931
 31
0.0
 11
-64.4877233914
 21
-13.6293691911
 31
0.0
 11
-64.4038305252
 21
-13.5524542694
 31
0.0
 11
-64.3034362203
 21
-13.5000743909
 31
0.0
  0
ELLIPSE
  5
667
100
AcDbEntity
  8
CORPO
100
AcDbEllipse
 62
7
  6
CONTINUOUS
 10
19.5463865111
 20
9.7678843272
 30
0.0
 11
-1.8480888181
 21
-0.7655034529
 31
0.0
 40
0.9998215708
 41
2.7489566578
 42
2.8709991878
  0
ELLIPSE
  5
668
100
AcDbEntity
  8
CORPO
100
AcDbEllipse
 62
7
  6
CONTINUOUS
 10
19.5463865111
 20
-25.5750090379
 30
0.0
 11
1.8480888181
 21
-0.7655034529
 31
0.0
 40
0.9998215708
 41
0.2705934654
 42
0.3926359958
  0
ELLIPSE
  5
669
100
AcDbEntity
  8
CORPO
100
AcDbEllipse
 62
7
  6
CONTINUOUS
 10
-21.2530041767
 20
-25.5750090379
 30
0.0
 11
1.8480888181
 21
0.7655034529
 31
0.0
 40
0.9998215708
 41
2.7489566578
 42
2.8709991878
  0
ELLIPSE
  5
66A
100
AcDbEntity
  8
CORPO
100
AcDbEllipse
 62
7
  6
CONTINUOUS
 10
-21.2530041767
 20
9.7678843272
 30
0.0
 11
-1.8480888181
 21
0.7655034529
 31
0.0
 40
0.9998215708
 41
0.2705934654
 42
0.3926359958
  0
ELLIPSE
  5
66B
100
AcDbEntity
  8
ASSI
100
AcDbEllipse
 62
7
  6
CONTINUOUS
 10
-21.2530041767
 20
9.7678843272
 30
0.0
 11
-1.8480888181
 21
0.7655034529
 31
0.0
 40
0.9998215708
 41
0.2705934654
 42
0.3926359958
  0
ELLIPSE
  5
66C
100
AcDbEntity
  8
ASSI
100
AcDbEllipse
 62
7
  6
CONTINUOUS
 10
-21.2530041767
 20
-25.5750090379
 30
0.0
 11
1.8480888181
 21
0.7655034529
 31
0.0
 40
0.9998215708
 41
2.7489566578
 42
2.8709991878
  0
ELLIPSE
  5
66D
100
AcDbEntity
  8
ASSI
100
AcDbEllipse
 62
7
  6
CONTINUOUS
 10
19.5463865111
 20
-25.5750090379
 30
0.0
 11
1.8480888181
 21
-0.7655034529
 31
0.0
 40
0.9998215708
 41
0.2705934654
 42
0.3926359958
  0
ELLIPSE
  5
66E
100
AcDbEntity
  8
ASSI
100
AcDbEllipse
 62
7
  6
CONTINUOUS
 10
19.5463865111
 20
9.7678843272
 30
0.0
 11
-1.8480888181
 21
-0.7655034529
 31
0.0
 40
0.9998215708
 41
2.7489566578
 42
2.8709991878
  0
ELLIPSE
  5
66F
100
AcDbEntity
  8
ASSI
100
AcDbEllipse
 62
7
  6
CONTINUOUS
 10
20.796519771
 20
13.6957514716
 30
0.0
 11
0.2238673116
 21
0.4480418466
 31
0.0
 40
0.9982882662
 41
-1.1067376861
 42
0.4626886447
  0
ELLIPSE
  5
670
100
AcDbEntity
  8
ASSI
100
AcDbEllipse
 62
7
  6
CONTINUOUS
 10
-22.5031374365
 20
13.6957514716
 30
0.0
 11
-0.2238673116
 21
0.4480418466
 31
0.0
 40
0.9982882662
 41
-0.4626886447
 42
1.1067376861
  0
ELLIPSE
  5
671
100
AcDbEntity
  8
ASSI
100
AcDbEllipse
 62
7
  6
CONTINUOUS
 10
-22.4647833929
 20
-29.42611546
 30
0.0
 11
0.4994885634
 21
-0.0261749567
 31
0.0
 40
0.9978197385
 41
-3.0877528432
 42
-1.5183265125
  0
ELLIPSE
  5
672
100
AcDbEntity
  8
ASSI
100
AcDbEllipse
 62
7
  6
CONTINUOUS
 10
20.7581657273
 20
-29.42611546
 30
0.0
 11
0.4994885634
 21
0.0261749567
 31
0.0
 40
0.9978197385
 41
-1.6232661411
 42
-0.0538398104
  0
ELLIPSE
  5
673
100
AcDbEntity
  8
RACCORDO
100
AcDbEllipse
 62
7
  6
CONTINUOUS
 10
20.796519771
 20
13.6957514716
 30
0.0
 11
0.2238673116
 21
0.4480418466
 31
0.0
 40
0.9982882662
 41
-1.1067376861
 42
0.4626886447
  0
ELLIPSE
  5
674
100
AcDbEntity
  8
RACCORDO
100
AcDbEllipse
 62
7
  6
CONTINUOUS
 10
-22.5031374365
 20
13.6957514716
 30
0.0
 11
-0.2238673116
 21
0.4480418466
 31
0.0
 40
0.9982882662
 41
-0.4626886447
 42
1.1067376861
  0
ELLIPSE
  5
675
100
AcDbEntity
  8
RACCORDO
100
AcDbEllipse
 62
7
  6
CONTINUOUS
 10
-22.4647833929
 20
-29.42611546
 30
0.0
 11
0.4994885634
 21
-0.0261749567
 31
0.0
 40
0.9978197385
 41
-3.0877528432
 42
-1.5183265125
  0
ELLIPSE
  5
676
100
AcDbEntity
  8
RACCORDO
100
AcDbEllipse
 62
7
  6
CONTINUOUS
 10
20.7581657273
 20
-29.42611546
 30
0.0
 11
0.4994885634
 21
0.0261749567
 31
0.0
 40
0.9978197385
 41
-1.6232661411
 42
-0.0538398104
  0
ELLIPSE
  5
677
100
AcDbEntity
  8
PORTATASTO
100
AcDbEllipse
 62
7
  6
CONTINUOUS
 10
-20.6533122598
 20
16.3464342177
 30
0.0
 11
0.1767815418
 21
0.1767815417
 31
0.0
 40
0.9999725851
 41
0.5950227919
 42
0.7853844562
  0
ELLIPSE
  5
678
100
AcDbEntity
  8
PORTATASTO
100
AcDbEllipse
 62
7
  6
CONTINUOUS
 10
-20.6533122598
 20
16.3464342177
 30
0.0
 11
0.1767815418
 21
0.1767815417
 31
0.0
 40
0.9999725851
 41
0.1666317355
 42
0.5950227915
  0
ELLIPSE
  5
679
100
AcDbEntity
  8
PORTATASTO
100
AcDbEllipse
 62
7
  6
CONTINUOUS
 10
-20.6533122598
 20
16.3464342177
 30
0.0
 11
0.1767815417
 21
0.1767815418
 31
0.0
 40
0.9999725851
 41
-0.1666317419
 42
0.1666317354
  0
ELLIPSE
  5
67A
100
AcDbEntity
  8
PORTATASTO
100
AcDbEllipse
 62
7
  6
CONTINUOUS
 10
-20.6533122598
 20
16.3464342177
 30
0.0
 11
0.1767815417
 21
0.1767815418
 31
0.0
 40
0.9999725851
 41
-0.785384456
 42
-0.1666317421
  0
ELLIPSE
  5
67B
100
AcDbEntity
  8
PORTATASTO
100
AcDbEllipse
 62
7
  6
CONTINUOUS
 10
-22.4283054058
 20
16.3464342177
 30
0.0
 11
0.1767815418
 21
-0.1767815417
 31
0.0
 40
0.9999725851
 41
-2.5465698624
 42
-2.3562081981
  0
ELLIPSE
  5
67C
100
AcDbEntity
  8
PORTATASTO
100
AcDbEllipse
 62
7
  6
CONTINUOUS
 10
-22.4283054058
 20
16.3464342177
 30
0.0
 11
-0.1767815417
 21
0.1767815418
 31
0.0
 40
0.9999725851
 41
0.1666317355
 42
0.5950227916
  0
ELLIPSE
  5
67D
100
AcDbEntity
  8
PORTATASTO
100
AcDbEllipse
 62
7
  6
CONTINUOUS
 10
-22.4283054058
 20
16.3464342177
 30
0.0
 11
0.1767815418
 21
-0.1767815417
 31
0.0
 40
0.9999725851
 41
2.3562081977
 42
3.3082243893
  0
ELLIPSE
  5
67E
100
AcDbEntity
  8
PORTATASTO
100
AcDbEllipse
 62
7
  6
CONTINUOUS
 10
-1.7783122598
 20
16.3464342177
 30
0.0
 11
0.1767815418
 21
0.1767815417
 31
0.0
 40
0.9999725851
 41
0.0
 42
6.2831853072
  0
ELLIPSE
  5
67F
100
AcDbEntity
  8
PORTATASTO
100
AcDbEllipse
 62
7
  6
CONTINUOUS
 10
-3.5533054058
 20
16.3464342177
 30
0.0
 11
0.1767815418
 21
-0.1767815417
 31
0.0
 40
0.9999725851
 41
-2.5465698624
 42
-2.3562081981
  0
ELLIPSE
  5
680
100
AcDbEntity
  8
PORTATASTO
100
AcDbEllipse
 62
7
  6
CONTINUOUS
 10
-3.5533054058
 20
16.3464342177
 30
0.0
 11
-0.1767815417
 21
0.1767815418
 31
0.0
 40
0.9999725851
 41
-0.7853844556
 42
0.5950227912
  0
ELLIPSE
  5
681
100
AcDbEntity
  8
PORTATASTO
100
AcDbEllipse
 62
7
  6
CONTINUOUS
 10
-20.6533122598
 20
-32.1535589284
 30
0.0
 11
0.1767815417
 21
-0.1767815418
 31
0.0
 40
0.9999725851
 41
-0.1666317418
 42
0.7853844557
  0
ELLIPSE
  5
682
100
AcDbEntity
  8
PORTATASTO
100
AcDbEllipse
 62
7
  6
CONTINUOUS
 10
-20.6533122598
 20
-32.1535589284
 30
0.0
 11
-0.1767815417
 21
0.1767815418
 31
0.0
 40
0.9999725851
 41
-3.9269771092
 42
-3.3082243953
  0
ELLIPSE
  5
683
100
AcDbEntity
  8
PORTATASTO
100
AcDbEllipse
 62
7
  6
CONTINUOUS
 10
-22.4283054058
 20
-32.1535589284
 30
0.0
 11
0.1767815418
 21
0.1767815417
 31
0.0
 40
0.9999725851
 41
2.9749609119
 42
3.9269771094
  0
ELLIPSE
  5
684
100
AcDbEntity
  8
PORTATASTO
100
AcDbEllipse
 62
7
  6
CONTINUOUS
 10
-22.4283054058
 20
-32.1535589284
 30
0.0
 11
0.1767815417
 21
0.1767815418
 31
0.0
 40
0.9999725851
 41
-3.9269771095
 42
-3.3082243956
  0
ELLIPSE
  5
685
100
AcDbEntity
  8
PORTATASTO
100
AcDbEllipse
 62
7
  6
CONTINUOUS
 10
-1.7783122598
 20
-32.1535589284
 30
0.0
 11
0.1767815418
 21
-0.1767815417
 31
0.0
 40
0.9999725851
 41
-0.7853844558
 42
0.7853844558
  0
ELLIPSE
  5
686
100
AcDbEntity
  8
PORTATASTO
100
AcDbEllipse
 62
7
  6
CONTINUOUS
 10
-3.5533054058
 20
-32.1535589284
 30
0.0
 11
0.1767815418
 21
0.1767815418
 31
0.0
 40
0.9999725851
 41
3.308224389
 42
3.308224389
  0
ELLIPSE
  5
687
100
AcDbEntity
  8
PORTATASTO
100
AcDbEllipse
 62
7
  6
CONTINUOUS
 10
-3.5533054058
 20
-32.1535589284
 30
0.0
 11
0.1767815418
 21
0.1767815418
 31
0.0
 40
0.9999725851
 41
-3.9269771093
 42
-3.3082243954
  0
ELLIPSE
  5
688
100
AcDbEntity
  8
PORTATASTO
100
AcDbEllipse
 62
7
  6
CONTINUOUS
 10
20.7216877402
 20
-32.1535589284
 30
0.0
 11
0.1767815418
 21
-0.1767815417
 31
0.0
 40
0.9999725851
 41
-0.166631742
 42
0.7853844555
  0
ELLIPSE
  5
689
100
AcDbEntity
  8
PORTATASTO
100
AcDbEllipse
 62
7
  6
CONTINUOUS
 10
20.7216877402
 20
-32.1535589284
 30
0.0
 11
-0.1767815417
 21
0.1767815418
 31
0.0
 40
0.9999725851
 41
-3.9269771092
 42
-3.3082243953
  0
ELLIPSE
  5
68A
100
AcDbEntity
  8
PORTATASTO
100
AcDbEllipse
 62
7
  6
CONTINUOUS
 10
18.9466945942
 20
-32.1535589284
 30
0.0
 11
0.1767815417
 21
0.1767815418
 31
0.0
 40
0.9999725851
 41
-2.5465698623
 42
-2.356208198
  0
ELLIPSE
  5
68B
100
AcDbEntity
  8
PORTATASTO
100
AcDbEllipse
 62
7
  6
CONTINUOUS
 10
18.9466945942
 20
-32.1535589284
 30
0.0
 11
0.1767815418
 21
0.1767815417
 31
0.0
 40
0.9999725851
 41
2.9749609116
 42
2.9749609119
  0
ELLIPSE
  5
68C
100
AcDbEntity
  8
PORTATASTO
100
AcDbEllipse
 62
7
  6
CONTINUOUS
 10
1.8466877402
 20
-32.1535589284
 30
0.0
 11
0.1767815418
 21
-0.1767815417
 31
0.0
 40
0.9999725851
 41
-0.7853844558
 42
0.7853844558
  0
ELLIPSE
  5
68D
100
AcDbEntity
  8
PORTATASTO
100
AcDbEllipse
 62
7
  6
CONTINUOUS
 10
0.0716945942
 20
-32.1535589284
 30
0.0
 11
0.1767815418
 21
0.1767815417
 31
0.0
 40
0.9999725851
 41
-2.5465698621
 42
-2.3562081978
  0
ELLIPSE
  5
68E
100
AcDbEntity
  8
PORTATASTO
100
AcDbEllipse
 62
7
  6
CONTINUOUS
 10
0.0716945942
 20
-32.1535589284
 30
0.0
 11
0.1767815417
 21
0.1767815418
 31
0.0
 40
0.9999725851
 41
-2.9749609182
 42
-2.5465698621
  0
ELLIPSE
  5
68F
100
AcDbEntity
  8
PORTATASTO
100
AcDbEllipse
 62
7
  6
CONTINUOUS
 10
0.0716945942
 20
-32.1535589284
 30
0.0
 11
0.1767815417
 21
0.1767815418
 31
0.0
 40
0.9999725851
 41
-3.9269771094
 42
-2.9749609182
  0
ELLIPSE
  5
690
100
AcDbEntity
  8
PORTATASTO
100
AcDbEllipse
 62
7
  6
CONTINUOUS
 10
18.9466945942
 20
16.3464342177
 30
0.0
 11
0.1767815418
 21
-0.1767815417
 31
0.0
 40
0.9999725851
 41
-2.5465698622
 42
-2.3562081979
  0
ELLIPSE
  5
691
100
AcDbEntity
  8
PORTATASTO
100
AcDbEllipse
 62
7
  6
CONTINUOUS
 10
18.9466945942
 20
16.3464342177
 30
0.0
 11
-0.1767815418
 21
0.1767815417
 31
0.0
 40
0.9999725851
 41
0.1666317351
 42
0.5950227912
  0
ELLIPSE
  5
692
100
AcDbEntity
  8
PORTATASTO
100
AcDbEllipse
 62
7
  6
CONTINUOUS
 10
18.9466945942
 20
16.3464342177
 30
0.0
 11
0.1767815417
 21
-0.1767815418
 31
0.0
 40
0.9999725851
 41
2.3562081982
 42
3.3082243889
  0
ELLIPSE
  5
693
100
AcDbEntity
  8
PORTATASTO
100
AcDbEllipse
 62
7
  6
CONTINUOUS
 10
20.7216877402
 20
16.3464342177
 30
0.0
 11
0.1767815418
 21
0.1767815417
 31
0.0
 40
0.9999725851
 41
-0.1666317418
 42
0.7853844553
  0
ELLIPSE
  5
694
100
AcDbEntity
  8
PORTATASTO
100
AcDbEllipse
 62
7
  6
CONTINUOUS
 10
20.7216877402
 20
16.3464342177
 30
0.0
 11
0.1767815418
 21
0.1767815417
 31
0.0
 40
0.9999725851
 41
-0.7853844557
 42
-0.1666317417
  0
ELLIPSE
  5
695
100
AcDbEntity
  8
PORTATASTO
100
AcDbEllipse
 62
7
  6
CONTINUOUS
 10
0.0716945942
 20
16.3464342177
 30
0.0
 11
0.1767815418
 21
-0.1767815417
 31
0.0
 40
0.9999725851
 41
2.9749609114
 42
3.9269771094
  0
ELLIPSE
  5
696
100
AcDbEntity
  8
PORTATASTO
100
AcDbEllipse
 62
7
  6
CONTINUOUS
 10
0.0716945942
 20
16.3464342177
 30
0.0
 11
-0.1767815417
 21
0.1767815418
 31
0.0
 40
0.9999725851
 41
-0.7853844556
 42
-0.1666317417
  0
ELLIPSE
  5
697
100
AcDbEntity
  8
PORTATASTO
100
AcDbEllipse
 62
7
  6
CONTINUOUS
 10
1.8466877402
 20
16.3464342177
 30
0.0
 11
0.1767815418
 21
0.1767815417
 31
0.0
 40
0.9999725851
 41
-0.7853844556
 42
0.7853844556
  0
ELLIPSE
  5
698
100
AcDbEntity
  8
PORTATASTO
100
AcDbEllipse
 62
7
  6
CONTINUOUS
 10
-15.9954479254
 20
15.8885835912
 30
0.0
 11
0.5
 21
0.0
 31
0.0
 40
0.0052360356
 41
-3.1363566658
 42
-2.4954709846
  0
ELLIPSE
  5
699
100
AcDbEntity
  8
PORTATASTO
100
AcDbEllipse
 62
7
  6
CONTINUOUS
 10
-8.2111697402
 20
15.8885835912
 30
0.0
 11
0.5
 21
0.0
 31
0.0
 40
0.0052360356
 41
-0.646121669
 42
-0.0052359878
  0
ELLIPSE
  5
69A
100
AcDbEntity
  8
PORTATASTO
100
AcDbEllipse
 62
7
  6
CONTINUOUS
 10
14.2888302598
 20
14.420233755
 30
0.0
 11
0.5
 21
0.0
 31
0.0
 40
0.0524077793
 41
-1.5707963268
 42
-0.0052359878
  0
ELLIPSE
  5
69B
100
AcDbEntity
  8
PORTATASTO
100
AcDbEllipse
 62
7
  6
CONTINUOUS
 10
6.5045520746
 20
14.420233755
 30
0.0
 11
0.5
 21
0.0
 31
0.0
 40
0.0524077793
 41
-3.1363566658
 42
-1.5707963268
  0
ELLIPSE
  5
69C
100
AcDbEntity
  8
PORTATASTO
100
AcDbEllipse
 62
7
  6
CONTINUOUS
 10
-15.9954479254
 20
-31.695708302
 30
0.0
 11
0.5
 21
-0.0
 31
0.0
 40
0.0052360356
 41
2.4954709846
 42
3.1363566658
  0
ELLIPSE
  5
69D
100
AcDbEntity
  8
PORTATASTO
100
AcDbEllipse
 62
7
  6
CONTINUOUS
 10
-8.2111697402
 20
-31.695708302
 30
0.0
 11
0.5
 21
-0.0
 31
0.0
 40
0.0052360356
 41
0.0052359878
 42
0.646121669
  0
ELLIPSE
  5
69E
100
AcDbEntity
  8
PORTATASTO
100
AcDbEllipse
 62
7
  6
CONTINUOUS
 10
6.5045520746
 20
-30.2273584657
 30
0.0
 11
0.5
 21
-0.0
 31
0.0
 40
0.0524077793
 41
1.5707963268
 42
3.1363566658
  0
ELLIPSE
  5
69F
100
AcDbEntity
  8
PORTATASTO
100
AcDbEllipse
 62
7
  6
CONTINUOUS
 10
14.2888302598
 20
-30.2273584657
 30
0.0
 11
0.5
 21
0.0
 31
0.0
 40
0.0524077793
 41
0.0052359878
 42
1.5707963268
  0
ELLIPSE
  5
6A0
100
AcDbEntity
  8
PORTATASTO
100
AcDbEllipse
 62
7
  6
CONTINUOUS
 10
14.2888302598
 20
15.8885835912
 30
0.0
 11
0.5
 21
-0.0
 31
0.0
 40
0.0052360356
 41
-0.646121669
 42
-0.0052359878
  0
ELLIPSE
  5
6A1
100
AcDbEntity
  8
PORTATASTO
100
AcDbEllipse
 62
7
  6
CONTINUOUS
 10
6.5045520746
 20
15.8885835912
 30
0.0
 11
0.5
 21
-0.0
 31
0.0
 40
0.0052360356
 41
-3.1363566658
 42
-2.4954709846
  0
ELLIPSE
  5
6A2
100
AcDbEntity
  8
PORTATASTO
100
AcDbEllipse
 62
7
  6
CONTINUOUS
 10
-15.9954479254
 20
-30.2273584657
 30
0.0
 11
0.5
 21
0.0
 31
0.0
 40
0.0524077793
 41
1.5707963268
 42
3.1363566658
  0
ELLIPSE
  5
6A3
100
AcDbEntity
  8
PORTATASTO
100
AcDbEllipse
 62
7
  6
CONTINUOUS
 10
-8.2111697402
 20
-30.2273584657
 30
0.0
 11
0.5
 21
0.0
 31
0.0
 40
0.0524077793
 41
0.0052359878
 42
1.5707963268
  0
ELLIPSE
  5
6A4
100
AcDbEntity
  8
PORTATASTO
100
AcDbEllipse
 62
7
  6
CONTINUOUS
 10
6.5045520746
 20
-31.695708302
 30
0.0
 11
0.5
 21
0.0
 31
0.0
 40
0.0052360356
 41
2.4954709846
 42
3.1363566658
  0
ELLIPSE
  5
6A5
100
AcDbEntity
  8
PORTATASTO
100
AcDbEllipse
 62
7
  6
CONTINUOUS
 10
14.2888302598
 20
-31.695708302
 30
0.0
 11
0.5
 21
0.0
 31
0.0
 40
0.0052360356
 41
0.0052359878
 42
0.646121669
  0
ELLIPSE
  5
6A6
100
AcDbEntity
  8
PORTATASTO
100
AcDbEllipse
 62
7
  6
CONTINUOUS
 10
-15.9954479254
 20
14.420233755
 30
0.0
 11
0.5
 21
-0.0
 31
0.0
 40
0.0524077793
 41
-3.1363566658
 42
-1.5707963268
  0
ELLIPSE
  5
6A7
100
AcDbEntity
  8
PORTATASTO
100
AcDbEllipse
 62
7
  6
CONTINUOUS
 10
-8.2111697402
 20
14.420233755
 30
0.0
 11
0.5
 21
0.0
 31
0.0
 40
0.0524077793
 41
-1.5707963268
 42
-0.0052359878
  0
ELLIPSE
  5
6A8
100
AcDbEntity
  8
PORTATASTO
100
AcDbEllipse
 62
7
  6
CONTINUOUS
 10
-22.6770500714
 20
13.8671398027
 30
0.0
 11
-0.1582391023
 21
0.4751033573
 31
0.0
 40
0.9984778551
 41
-0.3210503505
 42
1.2488325878
  0
ELLIPSE
  5
6A9
100
AcDbEntity
  8
PORTATASTO
100
AcDbEllipse
 62
7
  6
CONTINUOUS
 10
-22.6770500714
 20
-29.6742645134
 30
0.0
 11
0.1582391023
 21
0.4751033573
 31
0.0
 40
0.9984778551
 41
1.8927600658
 42
3.4626430041
  0
ELLIPSE
  5
6AA
100
AcDbEntity
  8
PORTATASTO
100
AcDbEllipse
 62
7
  6
CONTINUOUS
 10
20.9704324058
 20
13.8671398027
 30
0.0
 11
-0.1582391023
 21
-0.4751033573
 31
0.0
 40
0.9984778551
 41
1.8927600658
 42
3.4626430041
  0
ELLIPSE
  5
6AB
100
AcDbEntity
  8
PORTATASTO
100
AcDbEllipse
 62
7
  6
CONTINUOUS
 10
20.9704324058
 20
-29.6742645134
 30
0.0
 11
-0.1582391023
 21
0.4751033573
 31
0.0
 40
0.9984778551
 41
-3.4626430041
 42
-1.8927600658
  0
ELLIPSE
  5
6AC
100
AcDbEntity
  8
PORTATASTO
100
AcDbEllipse
 62
7
  6
CONTINUOUS
 10
-20.6650933399
 20
14.3809279205
 30
0.0
 11
0.25
 21
0.0
 31
0.0
 40
0.0524077793
 41
-1.5707963268
 42
-0.0052359878
  0
ELLIPSE
  5
6AD
100
AcDbEntity
  8
PORTATASTO
100
AcDbEllipse
 62
7
  6
CONTINUOUS
 10
-22.4165243257
 20
14.3809279205
 30
0.0
 11
0.25
 21
0.0
 31
0.0
 40
0.0524077793
 41
-3.1363566658
 42
-1.5707963268
  0
ELLIPSE
  5
6AE
100
AcDbEntity
  8
PORTATASTO
100
AcDbEllipse
 62
7
  6
CONTINUOUS
 10
-3.5415243257
 20
14.3809279205
 30
0.0
 11
0.25
 21
0.0
 31
0.0
 40
0.0524077793
 41
-3.1363566658
 42
-1.5707963268
  0
ELLIPSE
  5
6AF
100
AcDbEntity
  8
PORTATASTO
100
AcDbEllipse
 62
7
  6
CONTINUOUS
 10
-1.7900933399
 20
14.3809279205
 30
0.0
 11
0.25
 21
0.0
 31
0.0
 40
0.0524077793
 41
-1.5707963268
 42
-0.0052359878
  0
ELLIPSE
  5
6B0
100
AcDbEntity
  8
PORTATASTO
100
AcDbEllipse
 62
7
  6
CONTINUOUS
 10
-20.6650933399
 20
-30.1880526313
 30
0.0
 11
0.25
 21
-0.0
 31
0.0
 40
0.0524077793
 41
0.0052359878
 42
1.5707963268
  0
ELLIPSE
  5
6B1
100
AcDbEntity
  8
PORTATASTO
100
AcDbEllipse
 62
7
  6
CONTINUOUS
 10
-22.4165243257
 20
-30.1880526313
 30
0.0
 11
0.25
 21
0.0
 31
0.0
 40
0.0524077793
 41
1.5707963268
 42
3.1363566658
  0
ELLIPSE
  5
6B2
100
AcDbEntity
  8
PORTATASTO
100
AcDbEllipse
 62
7
  6
CONTINUOUS
 10
-1.7900933399
 20
-30.1880526313
 30
0.0
 11
0.25
 21
0.0
 31
0.0
 40
0.0524077793
 41
0.0052359878
 42
1.5707963268
  0
ELLIPSE
  5
6B3
100
AcDbEntity
  8
PORTATASTO
100
AcDbEllipse
 62
7
  6
CONTINUOUS
 10
-3.5415243257
 20
-30.1880526313
 30
0.0
 11
0.25
 21
0.0
 31
0.0
 40
0.0524077793
 41
1.5707963268
 42
3.1363566658
  0
ELLIPSE
  5
6B4
100
AcDbEntity
  8
PORTATASTO
100
AcDbEllipse
 62
7
  6
CONTINUOUS
 10
0.0834756743
 20
14.3809279205
 30
0.0
 11
0.25
 21
-0.0
 31
0.0
 40
0.0524077793
 41
-3.1363566658
 42
-1.5707963268
  0
ELLIPSE
  5
6B5
100
AcDbEntity
  8
PORTATASTO
100
AcDbEllipse
 62
7
  6
CONTINUOUS
 10
1.8349066601
 20
14.3809279205
 30
0.0
 11
0.25
 21
-0.0
 31
0.0
 40
0.0524077793
 41
-1.5707963268
 42
-0.0052359878
  0
ELLIPSE
  5
6B6
100
AcDbEntity
  8
PORTATASTO
100
AcDbEllipse
 62
7
  6
CONTINUOUS
 10
20.7099066601
 20
14.3809279205
 30
0.0
 11
0.25
 21
0.0
 31
0.0
 40
0.0524077793
 41
-1.5707963268
 42
-0.0052359878
  0
ELLIPSE
  5
6B7
100
AcDbEntity
  8
PORTATASTO
100
AcDbEllipse
 62
7
  6
CONTINUOUS
 10
18.9584756743
 20
14.3809279205
 30
0.0
 11
0.25
 21
-0.0
 31
0.0
 40
0.0524077793
 41
-3.1363566658
 42
-1.5707963268
  0
ELLIPSE
  5
6B8
100
AcDbEntity
  8
PORTATASTO
100
AcDbEllipse
 62
7
  6
CONTINUOUS
 10
0.0834756743
 20
-30.1880526313
 30
0.0
 11
0.25
 21
-0.0
 31
0.0
 40
0.0524077793
 41
1.5707963268
 42
3.1363566658
  0
ELLIPSE
  5
6B9
100
AcDbEntity
  8
PORTATASTO
100
AcDbEllipse
 62
7
  6
CONTINUOUS
 10
1.8349066601
 20
-30.1880526313
 30
0.0
 11
0.25
 21
-0.0
 31
0.0
 40
0.0524077793
 41
0.0052359878
 42
1.5707963268
  0
ELLIPSE
  5
6BA
100
AcDbEntity
  8
PORTATASTO
100
AcDbEllipse
 62
7
  6
CONTINUOUS
 10
18.9584756743
 20
-30.1880526313
 30
0.0
 11
0.25
 21
0.0
 31
0.0
 40
0.0524077793
 41
1.5707963268
 42
3.1363566658
  0
ELLIPSE
  5
6BB
100
AcDbEntity
  8
PORTATASTO
100
AcDbEllipse
 62
7
  6
CONTINUOUS
 10
20.7099066601
 20
-30.1880526313
 30
0.0
 11
0.25
 21
-0.0
 31
0.0
 40
0.0524077793
 41
0.0052359878
 42
1.5707963268
  0
ELLIPSE
  5
6BC
100
AcDbEntity
  8
0
100
AcDbEllipse
 62
253
  6
CONTINUOUS
 10
419.5852422674
 20
-7.9035623554
 30
0.0
 11
461.9397662556
 21
-191.3417161825
 31
0.0
 40
1.0
 41
-2.7218098928
 42
-2.721574554
  0
ELLIPSE
  5
6BD
100
AcDbEntity
  8
0
100
AcDbEllipse
 62
253
  6
CONTINUOUS
 10
419.5852422674
 20
-7.9035623554
 30
0.0
 11
0.0
 21
500.0
 31
0.0
 40
1.0
 41
-4.6897026604
 42
-4.6853053013
  0
ELLIPSE
  5
6BE
100
AcDbEntity
  8
0
100
AcDbEllipse
 62
253
  6
CONTINUOUS
 10
419.5852422674
 20
-7.9035623554
 30
0.0
 11
-191.3417161825
 21
461.9397662556
 31
0.0
 40
1.0
 41
1.2007316858
 42
1.2007835651
  0
ELLIPSE
  5
6BF
100
AcDbEntity
  8
0
100
AcDbEllipse
 62
253
  6
CONTINUOUS
 10
419.5852422674
 20
-7.9035623554
 30
0.0
 11
0.0
 21
500.0
 31
0.0
 40
1.0
 41
-4.6913874366
 42
-4.6897545396
  0
ELLIPSE
  5
6C0
100
AcDbEntity
  8
0
100
AcDbEllipse
 62
253
  6
CONTINUOUS
 10
419.5852422674
 20
-7.9035623554
 30
0.0
 11
144.8920743442
 21
478.5460132445
 31
0.0
 40
1.0
 41
-4.3979757982
 42
-4.3957893381
  0
ELLIPSE
  5
6C1
100
AcDbEntity
  8
0
100
AcDbEllipse
 62
253
  6
CONTINUOUS
 10
419.5852422674
 20
-7.9035623554
 30
0.0
 11
353.5533905933
 21
353.5533905933
 31
0.0
 40
1.0
 41
-3.9042469929
 42
-3.9012306087
  0
ELLIPSE
  5
6C2
100
AcDbEntity
  8
0
100
AcDbEllipse
 62
253
  6
CONTINUOUS
 10
419.5852422674
 20
-7.9035623554
 30
0.0
 11
-223.60679775
 21
447.2135955
 31
0.0
 40
1.0
 41
1.1298925419
 42
1.132908926
  0
ELLIPSE
  5
6C3
100
AcDbEntity
  8
0
100
AcDbEllipse
 62
253
  6
CONTINUOUS
 10
419.5852422674
 20
-7.9035623554
 30
0.0
 11
-212.0776981249
 21
452.7947106118
 31
0.0
 40
1.0
 41
1.155365642
 42
1.1555111256
  0
ELLIPSE
  5
6C4
100
AcDbEntity
  8
0
100
AcDbEllipse
 62
253
  6
CONTINUOUS
 10
419.5852422674
 20
-7.9035623554
 30
0.0
 11
191.3417161825
 21
461.9397662556
 31
0.0
 40
1.0
 41
-4.2992780182
 42
-4.2969460746
  0
ELLIPSE
  5
6C5
100
AcDbEntity
  8
0
100
AcDbEllipse
 62
253
  6
CONTINUOUS
 10
419.5852422674
 20
-7.9035623554
 30
0.0
 11
-0.0
 21
500.0
 31
0.0
 40
1.0
 41
-4.6956308367
 42
-4.6919988449
  0
ELLIPSE
  5
6C6
100
AcDbEntity
  8
0
100
AcDbEllipse
 62
253
  6
CONTINUOUS
 10
419.5852422674
 20
-7.9035623554
 30
0.0
 11
-61.0916318479
 21
496.2537783415
 31
0.0
 40
1.0
 41
1.469308539
 42
1.470941436
  0
ELLIPSE
  5
6C7
100
AcDbEntity
  8
0
100
AcDbEllipse
 62
253
  6
CONTINUOUS
 10
419.5852422674
 20
-7.9035623554
 30
0.0
 11
-223.60679775
 21
447.2135955
 31
0.0
 40
1.0
 41
1.1297831585
 42
1.1298350378
  0
ELLIPSE
  5
6C8
100
AcDbEntity
  8
0
100
AcDbEllipse
 62
253
  6
CONTINUOUS
 10
419.5852422674
 20
-7.9035623554
 30
0.0
 11
165.5034707178
 21
471.8141595802
 31
0.0
 40
1.0
 41
-4.3523321893
 42
-4.3479348301
  0
ELLIPSE
  5
6C9
100
AcDbEntity
  8
0
100
AcDbEllipse
 62
253
  6
CONTINUOUS
 10
419.5852422674
 20
-7.9035623554
 30
0.0
 11
-144.8920743442
 21
478.5460132445
 31
0.0
 40
1.0
 41
1.3038787041
 42
1.3041140429
  0
ELLIPSE
  5
6CA
100
AcDbEntity
  8
0
100
AcDbEllipse
 62
253
  6
CONTINUOUS
 10
419.5852422674
 20
-7.9035623554
 30
0.0
 11
500.0
 21
0.0
 31
0.0
 40
1.0
 41
-3.1142736357
 42
-3.1115881518
  0
ELLIPSE
  5
6CB
100
AcDbEntity
  8
PORTATASTO
100
AcDbEllipse
 62
7
  6
CONTINUOUS
 10
-59.4147577326
 20
-29.8573293259
 30
0.0
 11
0.3546425507
 21
0.3568377408
 31
0.0
 40
0.9877342685
 41
-0.2093834035
 42
0.7710302454
  0
ELLIPSE
  5
6CC
100
AcDbEntity
  8
PORTATASTO
100
AcDbEllipse
 62
7
  6
CONTINUOUS
 10
-59.4147577326
 20
14.0502046151
 30
0.0
 11
-0.3546425507
 21
0.3568377408
 31
0.0
 40
0.9877342685
 41
-3.912622899
 42
-2.9322092501
  0
ELLIPSE
  5
6CD
100
AcDbEntity
  8
PORTATASTO
100
AcDbEllipse
 62
7
  6
CONTINUOUS
 10
6.4789168185
 20
-31.0535623554
 30
0.0
 11
95.4920931889
 21
-0.0
 31
0.0
 40
0.0052360356
 41
2.3919487288
 42
2.5157538818
  0
ELLIPSE
  5
6CE
100
AcDbEntity
  8
PORTATASTO
100
AcDbEllipse
 62
7
  6
CONTINUOUS
 10
6.4789168185
 20
15.2464376446
 30
0.0
 11
95.4920931889
 21
-0.0
 31
0.0
 40
0.0052360356
 41
-2.5157538818
 42
-2.3919487288
  0
ELLIPSE
  5
6CF
100
AcDbEntity
  8
CURVE
100
AcDbEllipse
 62
253
  6
CONTINUOUS
 10
-60.6672705711
 20
-20.7433193554
 30
0.0
 11
-0.0
 21
0.65
 31
0.0
 40
0.9996954135
 41
-1.5707963268
 42
1.5707963268
  0
ENDSEC
  0
SECTION
  2
OBJECTS
  0
DICTIONARY
  5
C
100
AcDbDictionary
280
0
281
1
  3
ACAD_GROUP
350
D
  3
ACAD_MLINESTYLE
350
17
  3
ACAD_LAYOUT
350
1A
  3
ACAD_PLOTSETTINGS
350
19
  3
ACAD_PLOTSTYLENAME
350
E
  0
DICTIONARY
  5
D
102
{ACAD_REACTORS
330
C
102
}
100
AcDbDictionary
280
0
281
1
  0
ACDBDICTIONARYWDFLT
  5
E
102
{ACAD_REACTORS
330
C
102
}
100
AcDbDictionary
281
1
  3
Normal
350
F
100
AcDbDictionaryWithDefault
340
F
  0
DICTIONARY
  5
17
102
{ACAD_REACTORS
330
C
102
}
100
AcDbDictionary
280
0
281
1
  3
Standard
350
18
  0
DICTIONARY
  5
19
102
{ACAD_REACTORS
330
C
102
}
100
AcDbDictionary
281
1
  0
DICTIONARY
  5
1A
102
{ACAD_REACTORS
330
C
102
}
100
AcDbDictionary
281
1
  3
Model
350
6D0
  3
Layout1
350
6D1
  0
ACDBPLACEHOLDER
  5
F
102
{ACAD_REACTORS
330
E
102
}
  0
MLINESTYLE
  5
18
102
{ACAD_REACTORS
330
17
102
}
100
AcDbMlineStyle
  2
STANDARD
 70
0
  3

 62
256
 51
90.0
 52
90.0
 71
2
 49
0.5
 62
256
  6
BYLAYER
 49
-0.5
 62
256
  6
BYLAYER
  0
LAYOUT
  5
6D0
102
{ACAD_REACTORS
330
1A
102
}
100
AcDbPlotSettings
  1

  2
none_device
  4
ISO_A4_(297.00_x_210.00_MM)
  6

 40
0.0
 41
0.0
 42
0.0
 43
0.0
 44
297.0
 45
210.0
 46
0.0
 47
0.0
 48
0.0
 49
0.0
140
0.0
141
0.0
142
1.0
143
1.0
 70
1024
 72
1
 73
0
 74
0
  7

 75
0
147
1.0
148
0.0
149
0.0
100
AcDbLayout
  1
Model
 70
0
 71
0
 10
0.0
 20
0.0
 11
297.0
 21
210.0
 12
0.0
 22
0.0
 32
0.0
 14
0.0
 24
0.0
 34
0.0
 15
0.0
 25
0.0
 35
0.0
146
0.0
 13
0.0
 23
0.0
 33
0.0
 16
1.0
 26
0.0
 36
0.0
 17
0.0
 27
1.0
 37
0.0
 76
0
330
223
345
0
346
0
  0
LAYOUT
  5
6D1
102
{ACAD_REACTORS
330
1A
102
}
100
AcDbPlotSettings
  1

  2
none_device
  4
ISO_A4_(297.00_x_210.00_MM)
  6

 40
0.0
 41
0.0
 42
0.0
 43
0.0
 44
297.0
 45
210.0
 46
0.0
 47
0.0
 48
0.0
 49
0.0
140
0.0
141
0.0
142
1.0
143
1.0
 70
0
 72
1
 73
0
 74
0
  7

 75
0
147
1.0
148
0.0
149
0.0
100
AcDbLayout
  1
Layout1
 70
0
 71
1
 10
0.0
 20
0.0
 11
297.0
 21
210.0
 12
0.0
 22
0.0
 32
0.0
 14
0.0
 24
0.0
 34
0.0
 15
0.0
 25
0.0
 35
0.0
146
0.0
 13
0.0
 23
0.0
 33
0.0
 16
1.0
 26
0.0
 36
0.0
 17
0.0
 27
1.0
 37
0.0
 76
0
330
224
345
0
346
0
  0
ENDSEC
  0
EOF
