  0
SECTION
  2
HEADER
  9
$ACADVER
  1
AC1015
  9
$DWGCODEPAGE
  3
ANSI_1252
  9
$EXTMAX
 10
297.0
 20
210.0
 30
0.0
  9
$EXTMIN
 10
0.0
 20
0.0
 30
0.0
  9
$LIMMIN
 10
0.0
 20
0.0
  9
$LIMMAX
 10
297.0
 20
210.0
  9
$VIEWCTR
 10
148.5
 20
105.0
  9
$VIEWSIZE
 40
210.0
  9
$CLAYER
  8
0
  9
$LTSCALE
 40
16.335
  9
$CELTYPE
  6
BYLAYER
  9
$DIMSCALE
 40
1.0
  9
$DIMASZ
 40
3.0
  9
$DIMEXO
 40
1.85625
  9
$DIMDLI
 40
11.286
  9
$DIMEXE
 40
5.346
  9
$DIMCEN
 40
2.673
  9
$DIMLFAC
 40
1.0
  9
$DIMBLK
  1
_FILLED
  9
$DIMTXT
 40
3.0
  9
$DIMTOL
 70
1
  9
$DIMLIM
 70
0
  9
$DIMTFAC
 40
1.0
  9
$DIMTP
 40
0.01
  9
$DIMTM
 40
0.01
  9
$PDMODE
 70
3
  9
$PDSIZE
 40
3.0
  9
$HANDSEED
  5
67B
  9
$TILEMODE
 70
1
  9
$MEASUREMENT
 70
1
  9
$INSUNITS
 70
4
  0
ENDSEC
  0
SECTION
  2
CLASSES
  0
CLASS
  1
ACDBDICTIONARYWDFLT
  2
AcDbDictionaryWithDefault
  3
AutoCAD 2000
 90
0
280
0
281
0
  0
CLASS
  1
ACDBPLACEHOLDER
  2
AcDbPlaceHolder
  3
AutoCAD 2000
 90
0
280
0
281
0
  0
CLASS
  1
LAYOUT
  2
AcDbLayout
  3
AutoCAD 2000
 90
0
280
0
281
0
  0
ENDSEC
  0
SECTION
  2
TABLES
  0
TABLE
  2
VPORT
  5
8
100
AcDbSymbolTable
 70
2
  0
VPORT
  5
1F4
100
AcDbSymbolTableRecord
100
AcDbViewportTableRecord
  2
*ACTIVE
 70
0
 10
0.0
 20
0.0
 11
1.0
 21
1.0
 12
148.5
 22
105.0
 13
0.0
 23
0.0
 14
1.0
 24
1.0
 15
0.0
 25
0.0
 16
0.0
 26
0.0
 36
1.0
 17
0.0
 27
0.0
 37
0.0
 40
210.0
 41
1.4142857143
 42
50.0
 43
0.0
 44
0.0
 50
0.0
 51
0.0
 71
0
 72
100
 73
1
 74
1
 75
0
 76
0
 77
0
 78
0
  0
ENDTAB
  0
TABLE
  2
LTYPE
  5
5
100
AcDbSymbolTable
 70
6
  0
LTYPE
  5
14
100
AcDbSymbolTableRecord
100
AcDbLinetypeTableRecord
  2
BYBLOCK
 70
0
  3

 72
65
 73
0
 40
0.0
  0
LTYPE
  5
15
100
AcDbSymbolTableRecord
100
AcDbLinetypeTableRecord
  2
BYLAYER
 70
0
  3

 72
65
 73
0
 40
0.0
  0
LTYPE
  5
16
100
AcDbSymbolTableRecord
100
AcDbLinetypeTableRecord
  2
CONTINUOUS
 70
64
  3
Solid line
 72
65
 73
0
 40
0.0
  0
LTYPE
  5
1F5
100
AcDbSymbolTableRecord
100
AcDbLinetypeTableRecord
  2
CENTER
 70
64
  3
____ _ ____ _ ____ _ ____ _ ____ _ ____ _ ____
 72
65
 73
4
 40
0.6
 49
0.375
 74
0
 49
-0.075
 74
0
 49
0.075
 74
0
 49
-0.075
 74
0
  0
LTYPE
  5
1F6
100
AcDbSymbolTableRecord
100
AcDbLinetypeTableRecord
  2
HIDDEN
 70
64
  3
- - - - - - - - - - - - - - - - - - - -
 72
65
 73
2
 40
0.2
 49
0.1
 74
0
 49
-0.1
 74
0
  0
LTYPE
  5
1F7
100
AcDbSymbolTableRecord
100
AcDbLinetypeTableRecord
  2
PHANTOM
 70
64
  3
_____ _ _ _____ _ _ _____ _ _ _____
 72
65
 73
6
 40
0.8
 49
0.45
 74
0
 49
-0.05
 74
0
 49
0.1
 74
0
 49
-0.05
 74
0
 49
0.1
 74
0
 49
-0.05
 74
0
  0
LTYPE
  5
1F8
100
AcDbSymbolTableRecord
100
AcDbLinetypeTableRecord
  2
DOT
 70
64
  3
. . . . . . . . . . . . . . . . . . . .
 72
65
 73
2
 40
0.2
 49
0.1
 74
0
 49
-0.1
 74
0
  0
LTYPE
  5
1F9
100
AcDbSymbolTableRecord
100
AcDbLinetypeTableRecord
  2
DASHED
 70
64
  3
- - - - - - - - - - - - - - - - - - - -
 72
65
 73
2
 40
0.2
 49
0.1
 74
0
 49
-0.1
 74
0
  0
ENDTAB
  0
TABLE
  2
LAYER
  5
2
100
AcDbSymbolTable
 70
36
  0
LAYER
  5
10
100
AcDbSymbolTableRecord
100
AcDbLayerTableRecord
  2
0
 70
0
 62
7
  6
CONTINUOUS
370
-3
390
F
  0
LAYER
  5
1FA
100
AcDbSymbolTableRecord
100
AcDbLayerTableRecord
  2
DEFAULT_1
 70
0
 62
7
  6
CENTER
370
-3
390
F
  0
LAYER
  5
1FB
100
AcDbSymbolTableRecord
100
AcDbLayerTableRecord
  2
DEFAULT_2
 70
0
 62
7
  6
HIDDEN
370
-3
390
F
  0
LAYER
  5
1FC
100
AcDbSymbolTableRecord
100
AcDbLayerTableRecord
  2
DEFAULT_3
 70
0
 62
7
  6
PHANTOM
370
-3
390
F
  0
LAYER
  5
1FD
100
AcDbSymbolTableRecord
100
AcDbLayerTableRecord
  2
ASSI
 70
0
 62
7
  6
CONTINUOUS
370
-3
390
F
  0
LAYER
  5
1FE
100
AcDbSymbolTableRecord
100
AcDbLayerTableRecord
  2
COLOR15
 70
0
 62
7
  6
CONTINUOUS
370
-3
390
F
  0
LAYER
  5
1FF
100
AcDbSymbolTableRecord
100
AcDbLayerTableRecord
  2
COLORE_MATERIALE
 70
0
 62
7
  6
CONTINUOUS
370
-3
390
F
  0
LAYER
  5
200
100
AcDbSymbolTableRecord
100
AcDbLayerTableRecord
  2
COORDINATE
 70
0
 62
7
  6
CONTINUOUS
370
-3
390
F
  0
LAYER
  5
201
100
AcDbSymbolTableRecord
100
AcDbLayerTableRecord
  2
COORD_ORIGINE
 70
0
 62
7
  6
CONTINUOUS
370
-3
390
F
  0
LAYER
  5
202
100
AcDbSymbolTableRecord
100
AcDbLayerTableRecord
  2
COPY_PUBLISH
 70
0
 62
7
  6
CONTINUOUS
370
-3
390
F
  0
LAYER
  5
203
100
AcDbSymbolTableRecord
100
AcDbLayerTableRecord
  2
CORPO
 70
0
 62
7
  6
CONTINUOUS
370
-3
390
F
  0
LAYER
  5
204
100
AcDbSymbolTableRecord
100
AcDbLayerTableRecord
  2
COSMETIC
 70
0
 62
7
  6
CONTINUOUS
370
-3
390
F
  0
LAYER
  5
205
100
AcDbSymbolTableRecord
100
AcDbLayerTableRecord
  2
CURVE
 70
0
 62
7
  6
CONTINUOUS
370
-3
390
F
  0
LAYER
  5
206
100
AcDbSymbolTableRecord
100
AcDbLayerTableRecord
  2
DRAFT
 70
0
 62
7
  6
CONTINUOUS
370
-3
390
F
  0
LAYER
  5
207
100
AcDbSymbolTableRecord
100
AcDbLayerTableRecord
  2
FUSIBILE
 70
0
 62
7
  6
CONTINUOUS
370
-3
390
F
  0
LAYER
  5
208
100
AcDbSymbolTableRecord
100
AcDbLayerTableRecord
  2
IMPORT
 70
0
 62
7
  6
CONTINUOUS
370
-3
390
F
  0
LAYER
  5
209
100
AcDbSymbolTableRecord
100
AcDbLayerTableRecord
  2
IMPORT_IGES
 70
0
 62
7
  6
CONTINUOUS
370
-3
390
F
  0
LAYER
  5
20A
100
AcDbSymbolTableRecord
100
AcDbLayerTableRecord
  2
INTF_1
 70
0
 62
7
  6
CONTINUOUS
370
-3
390
F
  0
LAYER
  5
20B
100
AcDbSymbolTableRecord
100
AcDbLayerTableRecord
  2
INTF_CYAN
 70
0
 62
7
  6
CONTINUOUS
370
-3
390
F
  0
LAYER
  5
20C
100
AcDbSymbolTableRecord
100
AcDbLayerTableRecord
  2
INTF_GREEN
 70
0
 62
7
  6
CONTINUOUS
370
-3
390
F
  0
LAYER
  5
20D
100
AcDbSymbolTableRecord
100
AcDbLayerTableRecord
  2
INTF_YELLOW
 70
0
 62
7
  6
CONTINUOUS
370
-3
390
F
  0
LAYER
  5
20E
100
AcDbSymbolTableRecord
100
AcDbLayerTableRecord
  2
MAGNETOTERMICO
 70
0
 62
7
  6
CONTINUOUS
370
-3
390
F
  0
LAYER
  5
20F
100
AcDbSymbolTableRecord
100
AcDbLayerTableRecord
  2
MOLLA
 70
0
 62
7
  6
CONTINUOUS
370
-3
390
F
  0
LAYER
  5
210
100
AcDbSymbolTableRecord
100
AcDbLayerTableRecord
  2
NOTE
 70
0
 62
7
  6
CONTINUOUS
370
-3
390
F
  0
LAYER
  5
211
100
AcDbSymbolTableRecord
100
AcDbLayerTableRecord
  2
PIANI
 70
0
 62
7
  6
CONTINUOUS
370
-3
390
F
  0
LAYER
  5
212
100
AcDbSymbolTableRecord
100
AcDbLayerTableRecord
  2
PIANI_ORIGINE
 70
0
 62
7
  6
CONTINUOUS
370
-3
390
F
  0
LAYER
  5
213
100
AcDbSymbolTableRecord
100
AcDbLayerTableRecord
  2
PIANI_RIFERIMENTO
 70
0
 62
7
  6
CONTINUOUS
370
-3
390
F
  0
LAYER
  5
214
100
AcDbSymbolTableRecord
100
AcDbLayerTableRecord
  2
PORTATASTO
 70
0
 62
7
  6
CONTINUOUS
370
-3
390
F
  0
LAYER
  5
215
100
AcDbSymbolTableRecord
100
AcDbLayerTableRecord
  2
PUNTI
 70
0
 62
7
  6
CONTINUOUS
370
-3
390
F
  0
LAYER
  5
216
100
AcDbSymbolTableRecord
100
AcDbLayerTableRecord
  2
RACCORDO
 70
0
 62
7
  6
CONTINUOUS
370
-3
390
F
  0
LAYER
  5
217
100
AcDbSymbolTableRecord
100
AcDbLayerTableRecord
  2
RGB____0____0____0__
 70
0
 62
7
  6
CONTINUOUS
370
-3
390
F
  0
LAYER
  5
218
100
AcDbSymbolTableRecord
100
AcDbLayerTableRecord
  2
SKEL
 70
0
 62
7
  6
CONTINUOUS
370
-3
390
F
  0
LAYER
  5
219
100
AcDbSymbolTableRecord
100
AcDbLayerTableRecord
  2
SMUSSO
 70
0
 62
7
  6
CONTINUOUS
370
-3
390
F
  0
LAYER
  5
21A
100
AcDbSymbolTableRecord
100
AcDbLayerTableRecord
  2
SNAPLINE
 70
0
 62
7
  6
CONTINUOUS
370
-3
390
F
  0
LAYER
  5
21B
100
AcDbSymbolTableRecord
100
AcDbLayerTableRecord
  2
SUPERFICI
 70
0
 62
7
  6
CONTINUOUS
370
-3
390
F
  0
LAYER
  5
21C
100
AcDbSymbolTableRecord
100
AcDbLayerTableRecord
  2
TASTO
 70
0
 62
7
  6
CONTINUOUS
370
-3
390
F
  0
LAYER
  5
21D
100
AcDbSymbolTableRecord
100
AcDbLayerTableRecord
  2
TRASH
 70
0
 62
7
  6
CONTINUOUS
370
-3
390
F
  0
LAYER
  5
21E
100
AcDbSymbolTableRecord
100
AcDbLayerTableRecord
  2
XSEC_DATUMS
 70
0
 62
7
  6
CONTINUOUS
370
-3
390
F
  0
LAYER
  5
21F
100
AcDbSymbolTableRecord
100
AcDbLayerTableRecord
  2
___SHELL
 70
0
 62
7
  6
CONTINUOUS
370
-3
390
F
  0
ENDTAB
  0
TABLE
  2
STYLE
  5
3
100
AcDbSymbolTable
 70
1
  0
STYLE
  5
11
100
AcDbSymbolTableRecord
100
AcDbTextStyleTableRecord
  2
STANDARD
 70
0
 40
0.0
 41
0.8
 50
0.0
 71
0
 42
0.2
  3
txt
  4

  0
STYLE
  5
220
100
AcDbSymbolTableRecord
100
AcDbTextStyleTableRecord
  2
TEXTSTYLE_1
 70
0
 40
0.0
 41
0.8
 50
0.0
 71
0
 42
0.2
  3
gdt
  4

  0
ENDTAB
  0
TABLE
  2
VIEW
  5
6
100
AcDbSymbolTable
 70
0
  0
ENDTAB
  0
TABLE
  2
UCS
  5
7
100
AcDbSymbolTable
 70
0
  0
ENDTAB
  0
TABLE
  2
APPID
  5
9
100
AcDbSymbolTable
 70
1
  0
APPID
  5
221
100
AcDbSymbolTableRecord
100
AcDbRegAppTableRecord
  2
ACAD
 70
0
  0
ENDTAB
  0
TABLE
  2
BLOCK_RECORD
  5
1
100
AcDbSymbolTable
 70
0
  0
BLOCK_RECORD
  5
222
100
AcDbSymbolTableRecord
100
AcDbBlockTableRecord
  2
*Model_Space
  0
BLOCK_RECORD
  5
223
100
AcDbSymbolTableRecord
100
AcDbBlockTableRecord
  2
*Paper_Space
  0
BLOCK_RECORD
  5
224
100
AcDbSymbolTableRecord
100
AcDbBlockTableRecord
  2
_FILLED
  0
BLOCK_RECORD
  5
225
100
AcDbSymbolTableRecord
100
AcDbBlockTableRecord
  2
*D0
  0
BLOCK_RECORD
  5
226
100
AcDbSymbolTableRecord
100
AcDbBlockTableRecord
  2
*D1
  0
BLOCK_RECORD
  5
227
100
AcDbSymbolTableRecord
100
AcDbBlockTableRecord
  2
*D2
  0
BLOCK_RECORD
  5
228
100
AcDbSymbolTableRecord
100
AcDbBlockTableRecord
  2
*D3
  0
ENDTAB
  0
TABLE
  2
DIMSTYLE
  5
A
100
AcDbSymbolTable
 70
1
100
AcDbDimStyleTable
 71
0
  0
DIMSTYLE
105
229
100
AcDbSymbolTableRecord
100
AcDbDimStyleTableRecord
  2
STANDARD
 70
0
  3

  4

 40
1.0
 41
3.0
 42
0.0625
 43
0.38
 44
0.18
 45
0.0
 46
0.0
 47
0.01
 48
0.01
140
3.0
141
0.09
142
0.0
143
25.4
144
1.0
145
0.0
146
1.0
147
0.09
 71
1.0
 72
0.0
 73
0
 74
0
 75
0
 76
0
 77
1
 78
8
170
0
171
2
172
0
173
0
174
0
175
0
176
0
177
0
178
0
270
2
271
2
272
2
273
2
274
2
275
0
280
0
281
0
282
0
283
1
284
8
285
0
286
0
287
3
288
0
340
11
341
224
342
224
343
224
344
224
  0
DIMSTYLE
105
22A
100
AcDbSymbolTableRecord
100
AcDbDimStyleTableRecord
  2
DIMSTYLE_1
 70
0
  3

  4

 40
1.0
 41
3.0
 42
0.0625
 43
0.38
 44
0.18
 45
0.0
 46
0.0
 47
0.0
 48
0.0
140
3.0
141
0.09
142
0.0
143
25.4
144
1.0
145
0.0
146
1.0
147
0.09
 71
0.0
 72
0.0
 73
0
 74
0
 75
0
 76
0
 77
1
 78
8
170
0
171
2
172
0
173
0
174
0
175
0
176
0
177
0
178
0
270
2
271
2
272
2
273
2
274
2
275
0
280
0
281
0
282
0
283
1
284
8
285
0
286
0
287
3
288
0
340
11
341
224
342
224
343
224
344
224
  0
ENDTAB
  0
ENDSEC
  0
SECTION
  2
BLOCKS
  0
BLOCK
  5
20
100
AcDbEntity
  8
0
100
AcDbBlockBegin
  2
*Model_Space
 70
0
 10
0.0
 20
0.0
 30
0.0
  3
*Model_Space
  1

  0
ENDBLK
  5
21
100
AcDbEntity
  8
0
100
AcDbBlockEnd
  0
BLOCK
  5
1C
100
AcDbEntity
  8
0
100
AcDbBlockBegin
  2
*Paper_Space
 70
0
 10
0.0
 20
0.0
 30
0.0
  3
*Paper_Space
  1

  0
ENDBLK
  5
1D
100
AcDbEntity
  8
0
100
AcDbBlockEnd
  0
BLOCK
  5
22B
100
AcDbEntity
  8
0
100
AcDbBlockBegin
  2
_FILLED
 70
64
 10
0.0
 20
0.0
  3
_FILLED
  1

  0
SOLID
  5
22C
100
AcDbEntity
  8
0
  6
BYBLOCK
 62
0
100
AcDbTrace
 10
0.0
 20
0.0
 11
-1.0
 21
0.3166666667
 12
-1.0
 22
-0.3166666667
 13
-1.0
 23
-0.3166666667
  0
ENDBLK
  5
22D
100
AcDbEntity
  8
0
  6
BYBLOCK
 62
0
100
AcDbBlockEnd
  0
BLOCK
  5
22E
100
AcDbEntity
  8
0
100
AcDbBlockBegin
 62
7
  6
CONTINUOUS
  2
*D0
 70
65
 10
0.0
 20
0.0
  3
*D0
  1

  0
MTEXT
  5
22F
100
AcDbEntity
  8
0
100
AcDbMText
 62
7
  6
CONTINUOUS
  7
STANDARD
 71
2
 72
1
 10
26.65
 20
0.0
 30
0.0
 11
0.0
 21
1.0
 31
0.0
 44
0.9
  1
49
 40
3.0
 41
4.7142857143
  0
LINE
  5
230
100
AcDbEntity
  8
0
100
AcDbLine
 62
7
  6
CONTINUOUS
 10
22.0750034269
 20
-24.5
 11
31.9
 21
-24.5
  0
LINE
  5
231
100
AcDbEntity
  8
0
100
AcDbLine
 62
7
  6
CONTINUOUS
 10
22.0750034269
 20
24.5
 11
31.9
 21
24.5
  0
LINE
  5
232
100
AcDbEntity
  8
0
100
AcDbLine
 62
7
  6
CONTINUOUS
 10
30.4
 20
-24.5
 11
30.4
 21
0.0
  0
LINE
  5
233
100
AcDbEntity
  8
0
100
AcDbLine
 62
7
  6
CONTINUOUS
 10
30.4
 20
24.5
 11
30.4
 21
0.0
  0
INSERT
  5
234
100
AcDbEntity
  8
0
100
AcDbBlockReference
 62
7
  6
CONTINUOUS
  2
_FILLED
 10
30.4
 20
-24.5
 41
3.0
 42
3.0
 43
3.0
 50
270.0
  0
INSERT
  5
235
100
AcDbEntity
  8
0
100
AcDbBlockReference
 62
7
  6
CONTINUOUS
  2
_FILLED
 10
30.4
 20
24.5
 41
3.0
 42
3.0
 43
3.0
 50
90.0
  0
ENDBLK
  5
236
100
AcDbEntity
  8
0
  6
BYBLOCK
 62
0
100
AcDbBlockEnd
  0
BLOCK
  5
237
100
AcDbEntity
  8
0
100
AcDbBlockBegin
 62
7
  6
CONTINUOUS
  2
*D1
 70
65
 10
0.0
 20
0.0
  3
*D1
  1

  0
MTEXT
  5
238
100
AcDbEntity
  8
0
100
AcDbMText
 62
7
  6
CONTINUOUS
  7
STANDARD
 71
2
 72
1
 10
0.0
 20
36.25
 30
0.0
 11
1.0
 21
0.0
 31
0.0
 44
0.9
  1
44,8
 40
3.0
 41
8.7857142857
  0
LINE
  5
239
100
AcDbEntity
  8
0
100
AcDbLine
 62
7
  6
CONTINUOUS
 10
-22.4
 20
18.1716990487
 11
-22.4
 21
34.0
  0
LINE
  5
23A
100
AcDbEntity
  8
0
100
AcDbLine
 62
7
  6
CONTINUOUS
 10
22.4
 20
18.1716990487
 11
22.4
 21
34.0
  0
LINE
  5
23B
100
AcDbEntity
  8
0
100
AcDbLine
 62
7
  6
CONTINUOUS
 10
-22.4
 20
32.5
 11
0.0
 21
32.5
  0
LINE
  5
23C
100
AcDbEntity
  8
0
100
AcDbLine
 62
7
  6
CONTINUOUS
 10
22.4
 20
32.5
 11
0.0
 21
32.5
  0
INSERT
  5
23D
100
AcDbEntity
  8
0
100
AcDbBlockReference
 62
7
  6
CONTINUOUS
  2
_FILLED
 10
-22.4
 20
32.5
 41
3.0
 42
3.0
 43
3.0
 50
180.0
  0
INSERT
  5
23E
100
AcDbEntity
  8
0
100
AcDbBlockReference
 62
7
  6
CONTINUOUS
  2
_FILLED
 10
22.4
 20
32.5
 41
3.0
 42
3.0
 43
3.0
  0
ENDBLK
  5
23F
100
AcDbEntity
  8
0
  6
BYBLOCK
 62
0
100
AcDbBlockEnd
  0
BLOCK
  5
240
100
AcDbEntity
  8
0
100
AcDbBlockBegin
 62
7
  6
CONTINUOUS
  2
*D2
 70
65
 10
0.0
 20
0.0
  3
*D2
  1

  0
MTEXT
  5
241
100
AcDbEntity
  8
0
100
AcDbMText
 62
7
  6
CONTINUOUS
  7
STANDARD
 71
2
 72
1
 10
-67.5525520329
 20
46.25
 30
0.0
 11
1.0
 21
0.0
 31
0.0
 44
0.9
  1
43
 40
3.0
 41
4.5
  0
LINE
  5
242
100
AcDbEntity
  8
0
100
AcDbLine
 62
7
  6
CONTINUOUS
 10
-46.0525520329
 20
16.7869096983
 11
-46.0525520329
 21
44.0
  0
LINE
  5
243
100
AcDbEntity
  8
0
100
AcDbLine
 62
7
  6
CONTINUOUS
 10
-89.0525520329
 20
0.5
 11
-89.0525520329
 21
44.0
  0
LINE
  5
244
100
AcDbEntity
  8
0
100
AcDbLine
 62
7
  6
CONTINUOUS
 10
-46.0525520329
 20
42.5
 11
-67.5525520329
 21
42.5
  0
LINE
  5
245
100
AcDbEntity
  8
0
100
AcDbLine
 62
7
  6
CONTINUOUS
 10
-89.0525520329
 20
42.5
 11
-67.5525520329
 21
42.5
  0
INSERT
  5
246
100
AcDbEntity
  8
0
100
AcDbBlockReference
 62
7
  6
CONTINUOUS
  2
_FILLED
 10
-46.0525520329
 20
42.5
 41
3.0
 42
3.0
 43
3.0
 50
0.0
  0
INSERT
  5
247
100
AcDbEntity
  8
0
100
AcDbBlockReference
 62
7
  6
CONTINUOUS
  2
_FILLED
 10
-89.0525520329
 20
42.5
 41
3.0
 42
3.0
 43
3.0
 50
180.0
  0
ENDBLK
  5
248
100
AcDbEntity
  8
0
  6
BYBLOCK
 62
0
100
AcDbBlockEnd
  0
BLOCK
  5
249
100
AcDbEntity
  8
0
100
AcDbBlockBegin
 62
7
  6
CONTINUOUS
  2
*D3
 70
65
 10
0.0
 20
0.0
  3
*D3
  1

  0
MTEXT
  5
24A
100
AcDbEntity
  8
0
100
AcDbMText
 62
7
  6
CONTINUOUS
  7
STANDARD
 71
2
 72
1
 10
-62.3025520329
 20
36.25
 30
0.0
 11
1.0
 21
0.0
 31
0.0
 44
0.9
  1
32,5
 40
3.0
 41
8.3571428571
  0
LINE
  5
24B
100
AcDbEntity
  8
0
100
AcDbLine
 62
7
  6
CONTINUOUS
 10
-46.0525520329
 20
16.7869096983
 11
-46.0525520329
 21
34.0
  0
LINE
  5
24C
100
AcDbEntity
  8
0
100
AcDbLine
 62
7
  6
CONTINUOUS
 10
-78.5525520329
 20
24.7500034269
 11
-78.5525520329
 21
34.0
  0
LINE
  5
24D
100
AcDbEntity
  8
0
100
AcDbLine
 62
7
  6
CONTINUOUS
 10
-46.0525520329
 20
32.5
 11
-62.3025520329
 21
32.5
  0
LINE
  5
24E
100
AcDbEntity
  8
0
100
AcDbLine
 62
7
  6
CONTINUOUS
 10
-78.5525520329
 20
32.5
 11
-62.3025520329
 21
32.5
  0
INSERT
  5
24F
100
AcDbEntity
  8
0
100
AcDbBlockReference
 62
7
  6
CONTINUOUS
  2
_FILLED
 10
-46.0525520329
 20
32.5
 41
3.0
 42
3.0
 43
3.0
  0
INSERT
  5
250
100
AcDbEntity
  8
0
100
AcDbBlockReference
 62
7
  6
CONTINUOUS
  2
_FILLED
 10
-78.5525520329
 20
32.5
 41
3.0
 42
3.0
 43
3.0
 50
180.0
  0
ENDBLK
  5
251
100
AcDbEntity
  8
0
  6
BYBLOCK
 62
0
100
AcDbBlockEnd
  0
ENDSEC
  0
SECTION
  2
ENTITIES
  0
DIMENSION
  5
252
100
AcDbEntity
  8
0
100
AcDbDimension
 62
7
  6
CONTINUOUS
  2
*D0
 10
30.4
 20
24.5
 11
29.2061735237
 21
-2.1072778499
 70
160
 71
2
 42
49.0
  3
DIMSTYLE_1
100
AcDbAlignedDimension
 13
22.0750034269
 23
-24.5
 14
22.0750034269
 24
24.5
 50
90.0
100
AcDbRotatedDimension
  0
DIMENSION
  5
253
100
AcDbEntity
  8
0
100
AcDbDimension
 62
7
  6
CONTINUOUS
  2
*D1
 10
22.4
 20
32.5
 11
-4.3928571429
 21
34.75
 70
160
 71
2
 42
44.8
  3
DIMSTYLE_1
100
AcDbAlignedDimension
 13
-22.4
 23
18.1716990487
 14
22.4
 24
18.1716990487
100
AcDbRotatedDimension
  0
DIMENSION
  5
254
100
AcDbEntity
  8
0
100
AcDbDimension
 62
7
  6
CONTINUOUS
  2
*D2
 10
-89.0525520329
 20
42.5
 11
-69.8025520329
 21
44.75
 70
160
 71
2
 42
43.0
  3
DIMSTYLE_1
100
AcDbAlignedDimension
 13
-46.0525520329
 23
16.7869096983
 14
-89.0525520329
 24
0.5
 50
180.0
100
AcDbRotatedDimension
  0
DIMENSION
  5
255
100
AcDbEntity
  8
0
100
AcDbDimension
 62
7
  6
CONTINUOUS
  2
*D3
 10
-78.5525520329
 20
32.5
 11
-66.4811234615
 21
34.75
 70
160
 71
2
 42
32.5
  3
DIMSTYLE_1
100
AcDbAlignedDimension
 13
-46.0525520329
 23
16.7869096983
 14
-78.5525520329
 24
24.7500034269
 50
180.0
100
AcDbRotatedDimension
  0
LINE
  5
256
100
AcDbEntity
  8
PORTATASTO
100
AcDbLine
 62
253
  6
CONTINUOUS
 10
-19.8170205427
 20
24.4829760304
 11
-19.7999965731
 21
24.5
  0
LINE
  5
257
100
AcDbEntity
  8
PORTATASTO
100
AcDbLine
 62
253
  6
CONTINUOUS
 10
-19.5670239696
 20
24.2329794573
 11
-19.55
 21
24.2500034269
  0
LINE
  5
258
100
AcDbEntity
  8
PORTATASTO
100
AcDbLine
 62
253
  6
CONTINUOUS
 10
-19.8170205427
 20
-24.4829760304
 11
-19.7999965731
 21
-24.5
  0
LINE
  5
259
100
AcDbEntity
  8
PORTATASTO
100
AcDbLine
 62
253
  6
CONTINUOUS
 10
-19.5670239696
 20
-24.2329794573
 11
-19.55
 21
-24.2500034269
  0
LINE
  5
25A
100
AcDbEntity
  8
PORTATASTO
100
AcDbLine
 62
7
  6
CONTINUOUS
 10
-22.3849101299
 20
-18.1473460386
 11
-22.35
 21
-18.5
  0
LINE
  5
25B
100
AcDbEntity
  8
PORTATASTO
100
AcDbLine
 62
7
  6
CONTINUOUS
 10
-22.35
 20
18.5
 11
-22.3849101299
 21
18.1473460386
  0
LINE
  5
25C
100
AcDbEntity
  8
PORTATASTO
100
AcDbLine
 62
7
  6
CONTINUOUS
 10
-21.5750034269
 20
-24.5
 11
-19.7999965731
 21
-24.5
  0
LINE
  5
25D
100
AcDbEntity
  8
PORTATASTO
100
AcDbLine
 62
7
  6
CONTINUOUS
 10
21.5750034269
 20
-24.5
 11
19.7999965731
 21
-24.5
  0
LINE
  5
25E
100
AcDbEntity
  8
PORTATASTO
100
AcDbLine
 62
7
  6
CONTINUOUS
 10
-0.9249965731
 20
-24.5
 11
-2.7000034269
 21
-24.5
  0
LINE
  5
25F
100
AcDbEntity
  8
PORTATASTO
100
AcDbLine
 62
7
  6
CONTINUOUS
 10
0.9249965731
 20
-24.5
 11
2.7000034269
 21
-24.5
  0
LINE
  5
260
100
AcDbEntity
  8
PORTATASTO
100
AcDbLine
 62
7
  6
CONTINUOUS
 10
-21.5579794573
 20
-24.4829760304
 11
-19.8170205427
 21
-24.4829760304
  0
LINE
  5
261
100
AcDbEntity
  8
PORTATASTO
100
AcDbLine
 62
7
  6
CONTINUOUS
 10
-2.6829794573
 20
-24.4829760304
 11
-0.9420205427
 21
-24.4829760304
  0
LINE
  5
262
100
AcDbEntity
  8
PORTATASTO
100
AcDbLine
 62
7
  6
CONTINUOUS
 10
0.9420205427
 20
-24.4829760304
 11
2.6829794573
 21
-24.4829760304
  0
LINE
  5
263
100
AcDbEntity
  8
PORTATASTO
100
AcDbLine
 62
7
  6
CONTINUOUS
 10
19.8170205427
 20
-24.4829760304
 11
21.5579794573
 21
-24.4829760304
  0
LINE
  5
264
100
AcDbEntity
  8
PORTATASTO
100
AcDbLine
 62
253
  6
CONTINUOUS
 10
0.6920239696
 20
-24.2329794573
 11
2.9329760304
 21
-24.2329794573
  0
LINE
  5
265
100
AcDbEntity
  8
PORTATASTO
100
AcDbLine
 62
253
  6
CONTINUOUS
 10
-0.6920239696
 20
-24.2329794573
 11
-2.9329760304
 21
-24.2329794573
  0
LINE
  5
266
100
AcDbEntity
  8
PORTATASTO
100
AcDbLine
 62
253
  6
CONTINUOUS
 10
19.5670239696
 20
-24.2329794573
 11
21.8079760304
 21
-24.2329794573
  0
LINE
  5
267
100
AcDbEntity
  8
PORTATASTO
100
AcDbLine
 62
253
  6
CONTINUOUS
 10
-19.5670239696
 20
-24.2329794573
 11
-21.8079760304
 21
-24.2329794573
  0
LINE
  5
268
100
AcDbEntity
  8
PORTATASTO
100
AcDbLine
 62
253
  6
CONTINUOUS
 10
-21.8119030571
 20
-23.5113248654
 11
-21.8079760304
 21
-23.9443375673
  0
LINE
  5
269
100
AcDbEntity
  8
CORPO
100
AcDbLine
 62
7
  6
CONTINUOUS
 10
-22.4
 20
-17.6716990487
 11
-22.4
 21
17.6716990487
  0
LINE
  5
26A
100
AcDbEntity
  8
ASSI
100
AcDbLine
 62
7
  6
CONTINUOUS
 10
-22.4
 20
-17.6716990487
 11
-22.4
 21
17.6716990487
  0
LINE
  5
26B
100
AcDbEntity
  8
PORTATASTO
100
AcDbLine
 62
7
  6
CONTINUOUS
 10
-22.3849101299
 20
-18.1473460386
 11
-22.3849101299
 21
18.1473460386
  0
LINE
  5
26C
100
AcDbEntity
  8
PORTATASTO
100
AcDbLine
 62
7
  6
CONTINUOUS
 10
-22.35
 20
21.850016923
 11
-22.35
 21
18.5
  0
LINE
  5
26D
100
AcDbEntity
  8
PORTATASTO
100
AcDbLine
 62
7
  6
CONTINUOUS
 10
-22.35
 20
-21.850016923
 11
-22.35
 21
-18.5
  0
LINE
  5
26E
100
AcDbEntity
  8
RACCORDO
100
AcDbLine
 62
7
  6
CONTINUOUS
 10
-22.325
 20
-21.7497711479
 11
-22.325
 21
21.7497711479
  0
LINE
  5
26F
100
AcDbEntity
  8
PORTATASTO
100
AcDbLine
 62
253
  6
CONTINUOUS
 10
-21.8079760304
 20
23.9443375673
 11
-21.8119030571
 21
23.5113248654
  0
LINE
  5
270
100
AcDbEntity
  8
PORTATASTO
100
AcDbLine
 62
253
  6
CONTINUOUS
 10
-0.6920239696
 20
-23.9443375673
 11
-2.9329760304
 21
-23.9443375673
  0
LINE
  5
271
100
AcDbEntity
  8
PORTATASTO
100
AcDbLine
 62
253
  6
CONTINUOUS
 10
0.6920239696
 20
-23.9443375673
 11
2.9329760304
 21
-23.9443375673
  0
LINE
  5
272
100
AcDbEntity
  8
PORTATASTO
100
AcDbLine
 62
253
  6
CONTINUOUS
 10
-19.5670239696
 20
-23.9443375673
 11
-21.8079760304
 21
-23.9443375673
  0
LINE
  5
273
100
AcDbEntity
  8
PORTATASTO
100
AcDbLine
 62
253
  6
CONTINUOUS
 10
19.5670239696
 20
-23.9443375673
 11
21.8079760304
 21
-23.9443375673
  0
LINE
  5
274
100
AcDbEntity
  8
PORTATASTO
100
AcDbLine
 62
7
  6
CONTINUOUS
 10
15.65
 20
-23.8
 11
6.85
 21
-23.8
  0
LINE
  5
275
100
AcDbEntity
  8
PORTATASTO
100
AcDbLine
 62
7
  6
CONTINUOUS
 10
-6.85
 20
-23.8
 11
-15.65
 21
-23.8
  0
LINE
  5
276
100
AcDbEntity
  8
PORTATASTO
100
AcDbLine
 62
7
  6
CONTINUOUS
 10
-15.541351552
 20
-23.7905696528
 11
-6.958648448
 21
-23.7905696528
  0
LINE
  5
277
100
AcDbEntity
  8
PORTATASTO
100
AcDbLine
 62
7
  6
CONTINUOUS
 10
6.958648448
 20
-23.7905696528
 11
15.541351552
 21
-23.7905696528
  0
LINE
  5
278
100
AcDbEntity
  8
PORTATASTO
100
AcDbLine
 62
253
  6
CONTINUOUS
 10
21.5579794573
 20
-23.7278312164
 11
19.8170205427
 21
-23.7278312164
  0
LINE
  5
279
100
AcDbEntity
  8
PORTATASTO
100
AcDbLine
 62
253
  6
CONTINUOUS
 10
2.6829794573
 20
-23.7278312164
 11
0.9420205427
 21
-23.7278312164
  0
LINE
  5
27A
100
AcDbEntity
  8
PORTATASTO
100
AcDbLine
 62
253
  6
CONTINUOUS
 10
-0.9420205427
 20
-23.7278312164
 11
-2.6829794573
 21
-23.7278312164
  0
LINE
  5
27B
100
AcDbEntity
  8
PORTATASTO
100
AcDbLine
 62
253
  6
CONTINUOUS
 10
-19.8170205427
 20
-23.7278312164
 11
-21.5579794573
 21
-23.7278312164
  0
LINE
  5
27C
100
AcDbEntity
  8
PORTATASTO
100
AcDbLine
 62
253
  6
CONTINUOUS
 10
-15.1421390926
 20
-23.5905723943
 11
-7.3578609074
 21
-23.5905723943
  0
LINE
  5
27D
100
AcDbEntity
  8
PORTATASTO
100
AcDbLine
 62
253
  6
CONTINUOUS
 10
7.3578609074
 20
-23.5905723943
 11
15.1421390926
 21
-23.5905723943
  0
LINE
  5
27E
100
AcDbEntity
  8
PORTATASTO
100
AcDbLine
 62
253
  6
CONTINUOUS
 10
21.561906484
 20
-23.2948185145
 11
19.813093516
 21
-23.2948185145
  0
LINE
  5
27F
100
AcDbEntity
  8
PORTATASTO
100
AcDbLine
 62
253
  6
CONTINUOUS
 10
2.686906484
 20
-23.2948185145
 11
0.938093516
 21
-23.2948185145
  0
LINE
  5
280
100
AcDbEntity
  8
PORTATASTO
100
AcDbLine
 62
253
  6
CONTINUOUS
 10
-0.938093516
 20
-23.2948185145
 11
-2.686906484
 21
-23.2948185145
  0
LINE
  5
281
100
AcDbEntity
  8
PORTATASTO
100
AcDbLine
 62
253
  6
CONTINUOUS
 10
-19.813093516
 20
-23.2948185145
 11
-21.561906484
 21
-23.2948185145
  0
LINE
  5
282
100
AcDbEntity
  8
PORTATASTO
100
AcDbLine
 62
7
  6
CONTINUOUS
 10
-15.7446938615
 20
-23.2226497308
 11
-15.6447639644
 21
-23.2226497308
  0
LINE
  5
283
100
AcDbEntity
  8
PORTATASTO
100
AcDbLine
 62
7
  6
CONTINUOUS
 10
-6.8552360356
 20
-23.2226497308
 11
-6.7553061385
 21
-23.2226497308
  0
LINE
  5
284
100
AcDbEntity
  8
PORTATASTO
100
AcDbLine
 62
7
  6
CONTINUOUS
 10
6.7553061385
 20
-23.2226497308
 11
6.8552360356
 21
-23.2226497308
  0
LINE
  5
285
100
AcDbEntity
  8
PORTATASTO
100
AcDbLine
 62
7
  6
CONTINUOUS
 10
15.6447639644
 20
-23.2226497308
 11
15.7446938615
 21
-23.2226497308
  0
LINE
  5
286
100
AcDbEntity
  8
PORTATASTO
100
AcDbLine
 62
253
  6
CONTINUOUS
 10
21.813212066
 20
-23.0783121635
 11
19.561787934
 21
-23.0783121635
  0
LINE
  5
287
100
AcDbEntity
  8
PORTATASTO
100
AcDbLine
 62
253
  6
CONTINUOUS
 10
2.938212066
 20
-23.0783121635
 11
0.686787934
 21
-23.0783121635
  0
LINE
  5
288
100
AcDbEntity
  8
PORTATASTO
100
AcDbLine
 62
253
  6
CONTINUOUS
 10
-0.686787934
 20
-23.0783121635
 11
-2.938212066
 21
-23.0783121635
  0
LINE
  5
289
100
AcDbEntity
  8
PORTATASTO
100
AcDbLine
 62
253
  6
CONTINUOUS
 10
-19.561787934
 20
-23.0783121635
 11
-21.813212066
 21
-23.0783121635
  0
LINE
  5
28A
100
AcDbEntity
  8
CORPO
100
AcDbLine
 62
7
  6
CONTINUOUS
 10
0.6802360356
 20
-22.4
 11
-0.6802360356
 21
-22.4
  0
LINE
  5
28B
100
AcDbEntity
  8
ASSI
100
AcDbLine
 62
7
  6
CONTINUOUS
 10
0.6802360356
 20
-22.4
 11
-0.6802360356
 21
-22.4
  0
LINE
  5
28C
100
AcDbEntity
  8
PORTATASTO
100
AcDbLine
 62
7
  6
CONTINUOUS
 10
21.8503805997
 20
-22.35
 11
21.8197639644
 21
-22.35
  0
LINE
  5
28D
100
AcDbEntity
  8
PORTATASTO
100
AcDbLine
 62
7
  6
CONTINUOUS
 10
19.5552360356
 20
-22.35
 11
15.6447639644
 21
-22.35
  0
LINE
  5
28E
100
AcDbEntity
  8
PORTATASTO
100
AcDbLine
 62
7
  6
CONTINUOUS
 10
6.8552360356
 20
-22.35
 11
2.9447639644
 21
-22.35
  0
LINE
  5
28F
100
AcDbEntity
  8
PORTATASTO
100
AcDbLine
 62
7
  6
CONTINUOUS
 10
0.6802360356
 20
-22.35
 11
-0.6802360356
 21
-22.35
  0
LINE
  5
290
100
AcDbEntity
  8
PORTATASTO
100
AcDbLine
 62
7
  6
CONTINUOUS
 10
-2.9447639644
 20
-22.35
 11
-6.8552360356
 21
-22.35
  0
LINE
  5
291
100
AcDbEntity
  8
PORTATASTO
100
AcDbLine
 62
7
  6
CONTINUOUS
 10
-15.6447639644
 20
-22.35
 11
-19.5552360356
 21
-22.35
  0
LINE
  5
292
100
AcDbEntity
  8
PORTATASTO
100
AcDbLine
 62
7
  6
CONTINUOUS
 10
-21.8197639644
 20
-22.35
 11
-21.8503805997
 21
-22.35
  0
LINE
  5
293
100
AcDbEntity
  8
PORTATASTO
100
AcDbLine
 62
7
  6
CONTINUOUS
 10
15.1421390926
 20
-22.2975922207
 11
7.3578609074
 21
-22.2975922207
  0
LINE
  5
294
100
AcDbEntity
  8
PORTATASTO
100
AcDbLine
 62
7
  6
CONTINUOUS
 10
-7.3578609074
 20
-22.2975922207
 11
-15.1421390926
 21
-22.2975922207
  0
LINE
  5
295
100
AcDbEntity
  8
PORTATASTO
100
AcDbLine
 62
7
  6
CONTINUOUS
 10
21.8241980023
 20
-22.2713883311
 11
21.5632154929
 21
-22.2713883311
  0
LINE
  5
296
100
AcDbEntity
  8
PORTATASTO
100
AcDbLine
 62
7
  6
CONTINUOUS
 10
19.8117845071
 20
-22.2713883311
 11
2.6882154929
 21
-22.2713883311
  0
LINE
  5
297
100
AcDbEntity
  8
PORTATASTO
100
AcDbLine
 62
7
  6
CONTINUOUS
 10
0.9367845071
 20
-22.2713883311
 11
-0.9367845071
 21
-22.2713883311
  0
LINE
  5
298
100
AcDbEntity
  8
PORTATASTO
100
AcDbLine
 62
7
  6
CONTINUOUS
 10
-2.6882154929
 20
-22.2713883311
 11
-19.8117845071
 21
-22.2713883311
  0
LINE
  5
299
100
AcDbEntity
  8
PORTATASTO
100
AcDbLine
 62
7
  6
CONTINUOUS
 10
-21.5632154929
 20
-22.2713883311
 11
-21.8241980023
 21
-22.2713883311
  0
LINE
  5
29A
100
AcDbEntity
  8
RACCORDO
100
AcDbLine
 62
7
  6
CONTINUOUS
 10
-21.8253805997
 20
-22.25
 11
-3.0
 21
-22.25
  0
LINE
  5
29B
100
AcDbEntity
  8
RACCORDO
100
AcDbLine
 62
7
  6
CONTINUOUS
 10
3.0
 20
-22.25
 11
21.8253805997
 21
-22.25
  0
LINE
  5
29C
100
AcDbEntity
  8
DRAFT
100
AcDbLine
 62
7
  6
CONTINUOUS
 10
-2.9476348052
 20
-22.0927766622
 11
2.9476348052
 21
-22.0927766622
  0
LINE
  5
29D
100
AcDbEntity
  8
RACCORDO
100
AcDbLine
 62
253
  6
CONTINUOUS
 10
21.7441014236
 20
-22.0059641777
 11
-21.7441014236
 21
-22.0059641777
  0
LINE
  5
29E
100
AcDbEntity
  8
PORTATASTO
100
AcDbLine
 62
253
  6
CONTINUOUS
 10
-21.561906484
 20
-23.2948185145
 11
-21.5579794573
 21
-23.7278312164
  0
LINE
  5
29F
100
AcDbEntity
  8
PORTATASTO
100
AcDbLine
 62
7
  6
CONTINUOUS
 10
-21.8197639644
 20
23.2226497308
 11
-21.825
 21
23.8
  0
LINE
  5
2A0
100
AcDbEntity
  8
PORTATASTO
100
AcDbLine
 62
7
  6
CONTINUOUS
 10
-19.55
 20
-23.8
 11
-19.5552360356
 21
-23.2226497308
  0
LINE
  5
2A1
100
AcDbEntity
  8
PORTATASTO
100
AcDbLine
 62
7
  6
CONTINUOUS
 10
-21.825
 20
-24.2500034269
 11
-21.825
 21
-23.8
  0
LINE
  5
2A2
100
AcDbEntity
  8
PORTATASTO
100
AcDbLine
 62
7
  6
CONTINUOUS
 10
-21.825
 20
23.8
 11
-21.825
 21
24.2500034269
  0
LINE
  5
2A3
100
AcDbEntity
  8
PORTATASTO
100
AcDbLine
 62
7
  6
CONTINUOUS
 10
-21.8197639644
 20
23.2226497308
 11
-21.8197639644
 21
23.0783121635
  0
LINE
  5
2A4
100
AcDbEntity
  8
PORTATASTO
100
AcDbLine
 62
7
  6
CONTINUOUS
 10
-21.8197639644
 20
-23.0783121635
 11
-21.8197639644
 21
-23.2226497308
  0
LINE
  5
2A5
100
AcDbEntity
  8
PORTATASTO
100
AcDbLine
 62
7
  6
CONTINUOUS
 10
-21.813212066
 20
23.0783121635
 11
-21.813212066
 21
22.2844216746
  0
LINE
  5
2A6
100
AcDbEntity
  8
PORTATASTO
100
AcDbLine
 62
7
  6
CONTINUOUS
 10
-21.813212066
 20
-22.2844216746
 11
-21.813212066
 21
-23.0783121635
  0
LINE
  5
2A7
100
AcDbEntity
  8
PORTATASTO
100
AcDbLine
 62
7
  6
CONTINUOUS
 10
-21.8079760304
 20
24.2329794573
 11
-21.8079760304
 21
23.9443375673
  0
LINE
  5
2A8
100
AcDbEntity
  8
PORTATASTO
100
AcDbLine
 62
7
  6
CONTINUOUS
 10
-21.8079760304
 20
-23.9443375673
 11
-21.8079760304
 21
-24.2329794573
  0
LINE
  5
2A9
100
AcDbEntity
  8
PORTATASTO
100
AcDbLine
 62
253
  6
CONTINUOUS
 10
-21.5632154929
 20
23.0783121635
 11
-21.5632154929
 21
22.2713883311
  0
LINE
  5
2AA
100
AcDbEntity
  8
PORTATASTO
100
AcDbLine
 62
253
  6
CONTINUOUS
 10
-21.5632154929
 20
-22.2713883311
 11
-21.5632154929
 21
-23.0783121635
  0
LINE
  5
2AB
100
AcDbEntity
  8
PORTATASTO
100
AcDbLine
 62
253
  6
CONTINUOUS
 10
-21.5579794573
 20
-23.7278312164
 11
-21.5579794573
 21
-24.4829760304
  0
LINE
  5
2AC
100
AcDbEntity
  8
PORTATASTO
100
AcDbLine
 62
253
  6
CONTINUOUS
 10
-21.5579794573
 20
23.7278312164
 11
-21.5579794573
 21
24.4829760304
  0
LINE
  5
2AD
100
AcDbEntity
  8
PORTATASTO
100
AcDbLine
 62
253
  6
CONTINUOUS
 10
-19.8170205427
 20
-23.7278312164
 11
-19.8170205427
 21
-24.4829760304
  0
LINE
  5
2AE
100
AcDbEntity
  8
PORTATASTO
100
AcDbLine
 62
253
  6
CONTINUOUS
 10
-19.8170205427
 20
23.7278312164
 11
-19.8170205427
 21
24.4829760304
  0
LINE
  5
2AF
100
AcDbEntity
  8
PORTATASTO
100
AcDbLine
 62
253
  6
CONTINUOUS
 10
-19.8117845071
 20
-23.0783121635
 11
-19.8117845071
 21
-22.2713883311
  0
LINE
  5
2B0
100
AcDbEntity
  8
PORTATASTO
100
AcDbLine
 62
253
  6
CONTINUOUS
 10
-19.8117845071
 20
22.2713883311
 11
-19.8117845071
 21
23.0783121635
  0
LINE
  5
2B1
100
AcDbEntity
  8
PORTATASTO
100
AcDbLine
 62
253
  6
CONTINUOUS
 10
-21.5579794573
 20
23.7278312164
 11
-21.561906484
 21
23.2948185145
  0
LINE
  5
2B2
100
AcDbEntity
  8
PORTATASTO
100
AcDbLine
 62
7
  6
CONTINUOUS
 10
-21.825
 20
-23.8
 11
-21.8197639644
 21
-23.2226497308
  0
LINE
  5
2B3
100
AcDbEntity
  8
PORTATASTO
100
AcDbLine
 62
7
  6
CONTINUOUS
 10
-19.5552360356
 20
23.2226497308
 11
-19.55
 21
23.8
  0
LINE
  5
2B4
100
AcDbEntity
  8
RACCORDO
100
AcDbLine
 62
253
  6
CONTINUOUS
 10
21.7275746634
 20
-20.5697290627
 11
-21.7275746634
 21
-20.5697290627
  0
LINE
  5
2B5
100
AcDbEntity
  8
PORTATASTO
100
AcDbLine
 62
253
  6
CONTINUOUS
 10
-19.813093516
 20
23.2948185145
 11
-19.8170205427
 21
23.7278312164
  0
LINE
  5
2B6
100
AcDbEntity
  8
PORTATASTO
100
AcDbLine
 62
253
  6
CONTINUOUS
 10
-19.5630969429
 20
23.5113248654
 11
-19.5670239696
 21
23.9443375673
  0
LINE
  5
2B7
100
AcDbEntity
  8
PORTATASTO
100
AcDbLine
 62
7
  6
CONTINUOUS
 10
-19.5670239696
 20
-24.2329794573
 11
-19.5670239696
 21
-23.9443375673
  0
LINE
  5
2B8
100
AcDbEntity
  8
PORTATASTO
100
AcDbLine
 62
7
  6
CONTINUOUS
 10
-19.5670239696
 20
23.9443375673
 11
-19.5670239696
 21
24.2329794573
  0
LINE
  5
2B9
100
AcDbEntity
  8
PORTATASTO
100
AcDbLine
 62
7
  6
CONTINUOUS
 10
-19.561787934
 20
-23.0783121635
 11
-19.561787934
 21
-22.2844216746
  0
LINE
  5
2BA
100
AcDbEntity
  8
PORTATASTO
100
AcDbLine
 62
7
  6
CONTINUOUS
 10
-19.561787934
 20
22.2844216746
 11
-19.561787934
 21
23.0783121635
  0
LINE
  5
2BB
100
AcDbEntity
  8
PORTATASTO
100
AcDbLine
 62
7
  6
CONTINUOUS
 10
-19.5552360356
 20
23.2226497308
 11
-19.5552360356
 21
23.0783121635
  0
LINE
  5
2BC
100
AcDbEntity
  8
PORTATASTO
100
AcDbLine
 62
7
  6
CONTINUOUS
 10
-19.5552360356
 20
-23.0783121635
 11
-19.5552360356
 21
-23.2226497308
  0
LINE
  5
2BD
100
AcDbEntity
  8
PORTATASTO
100
AcDbLine
 62
7
  6
CONTINUOUS
 10
-19.55
 20
24.2500034269
 11
-19.55
 21
23.8
  0
LINE
  5
2BE
100
AcDbEntity
  8
PORTATASTO
100
AcDbLine
 62
7
  6
CONTINUOUS
 10
-19.55
 20
-23.8
 11
-19.55
 21
-24.2500034269
  0
LINE
  5
2BF
100
AcDbEntity
  8
PORTATASTO
100
AcDbLine
 62
253
  6
CONTINUOUS
 10
-19.8170205427
 20
-23.7278312164
 11
-19.813093516
 21
-23.2948185145
  0
LINE
  5
2C0
100
AcDbEntity
  8
PORTATASTO
100
AcDbLine
 62
253
  6
CONTINUOUS
 10
-19.5670239696
 20
-23.9443375673
 11
-19.5630969429
 21
-23.5113248654
  0
LINE
  5
2C1
100
AcDbEntity
  8
PORTATASTO
100
AcDbLine
 62
253
  6
CONTINUOUS
 10
-0.9420205427
 20
24.4829760304
 11
-0.9249965731
 21
24.5
  0
LINE
  5
2C2
100
AcDbEntity
  8
PORTATASTO
100
AcDbLine
 62
253
  6
CONTINUOUS
 10
-0.6920239696
 20
24.2329794573
 11
-0.675
 21
24.2500034269
  0
LINE
  5
2C3
100
AcDbEntity
  8
PORTATASTO
100
AcDbLine
 62
253
  6
CONTINUOUS
 10
-0.9420205427
 20
-24.4829760304
 11
-0.9249965731
 21
-24.5
  0
LINE
  5
2C4
100
AcDbEntity
  8
PORTATASTO
100
AcDbLine
 62
253
  6
CONTINUOUS
 10
-0.6920239696
 20
-24.2329794573
 11
-0.675
 21
-24.2500034269
  0
LINE
  5
2C5
100
AcDbEntity
  8
PORTATASTO
100
AcDbLine
 62
7
  6
CONTINUOUS
 10
-15.6552360356
 20
-22.35
 11
-15.6552360356
 21
-22.85711136
  0
LINE
  5
2C6
100
AcDbEntity
  8
PORTATASTO
100
AcDbLine
 62
7
  6
CONTINUOUS
 10
-15.6552360356
 20
22.35
 11
-15.6552360356
 21
22.85711136
  0
LINE
  5
2C7
100
AcDbEntity
  8
PORTATASTO
100
AcDbLine
 62
7
  6
CONTINUOUS
 10
-15.6421322387
 20
23.7921322387
 11
-15.6421322387
 21
22.3236589077
  0
LINE
  5
2C8
100
AcDbEntity
  8
PORTATASTO
100
AcDbLine
 62
7
  6
CONTINUOUS
 10
-15.6421322387
 20
-22.3236589077
 11
-15.6421322387
 21
-23.7921322387
  0
LINE
  5
2C9
100
AcDbEntity
  8
PORTATASTO
100
AcDbLine
 62
253
  6
CONTINUOUS
 10
2.6829794573
 20
24.4829760304
 11
2.7000034269
 21
24.5
  0
LINE
  5
2CA
100
AcDbEntity
  8
PORTATASTO
100
AcDbLine
 62
253
  6
CONTINUOUS
 10
2.6829794573
 20
-24.4829760304
 11
2.7000034269
 21
-24.5
  0
LINE
  5
2CB
100
AcDbEntity
  8
PORTATASTO
100
AcDbLine
 62
253
  6
CONTINUOUS
 10
-15.1421390926
 20
23.5905723943
 11
-15.1421390926
 21
22.2975922207
  0
LINE
  5
2CC
100
AcDbEntity
  8
PORTATASTO
100
AcDbLine
 62
253
  6
CONTINUOUS
 10
-15.1421390926
 20
-22.2975922207
 11
-15.1421390926
 21
-23.5905723943
  0
LINE
  5
2CD
100
AcDbEntity
  8
RACCORDO
100
AcDbLine
 62
253
  6
CONTINUOUS
 10
-22.325
 20
-21.7497711479
 11
-22.2440252712
 21
-21.5066494103
  0
LINE
  5
2CE
100
AcDbEntity
  8
PORTATASTO
100
AcDbLine
 62
253
  6
CONTINUOUS
 10
-22.35
 20
-21.8497711479
 11
-22.3238174026
 21
-21.771159479
  0
LINE
  5
2CF
100
AcDbEntity
  8
RACCORDO
100
AcDbLine
 62
253
  6
CONTINUOUS
 10
-21.8253805997
 20
-22.25
 11
-21.7441014236
 21
-22.0059641777
  0
LINE
  5
2D0
100
AcDbEntity
  8
PORTATASTO
100
AcDbLine
 62
253
  6
CONTINUOUS
 10
-21.8503805997
 20
-22.35
 11
-21.8270084758
 21
-22.2798266081
  0
LINE
  5
2D1
100
AcDbEntity
  8
PORTATASTO
100
AcDbLine
 62
253
  6
CONTINUOUS
 10
2.9329760304
 20
24.2329794573
 11
2.95
 21
24.2500034269
  0
LINE
  5
2D2
100
AcDbEntity
  8
PORTATASTO
100
AcDbLine
 62
253
  6
CONTINUOUS
 10
2.9329760304
 20
-24.2329794573
 11
2.95
 21
-24.2500034269
  0
LINE
  5
2D3
100
AcDbEntity
  8
RACCORDO
100
AcDbLine
 62
253
  6
CONTINUOUS
 10
-22.2440252712
 20
21.5066494103
 11
-22.325
 21
21.7497711479
  0
LINE
  5
2D4
100
AcDbEntity
  8
PORTATASTO
100
AcDbLine
 62
253
  6
CONTINUOUS
 10
-22.3238174026
 20
21.771159479
 11
-22.35
 21
21.8497711479
  0
LINE
  5
2D5
100
AcDbEntity
  8
RACCORDO
100
AcDbLine
 62
253
  6
CONTINUOUS
 10
-21.7441014236
 20
22.0059641777
 11
-21.8253805997
 21
22.25
  0
LINE
  5
2D6
100
AcDbEntity
  8
PORTATASTO
100
AcDbLine
 62
253
  6
CONTINUOUS
 10
-21.8270084758
 20
22.2798266081
 11
-21.8503805997
 21
22.35
  0
LINE
  5
2D7
100
AcDbEntity
  8
PORTATASTO
100
AcDbLine
 62
253
  6
CONTINUOUS
 10
-7.3578609074
 20
-23.5905723943
 11
-7.3578609074
 21
-22.2975922207
  0
LINE
  5
2D8
100
AcDbEntity
  8
PORTATASTO
100
AcDbLine
 62
253
  6
CONTINUOUS
 10
-7.3578609074
 20
22.2975922207
 11
-7.3578609074
 21
23.5905723943
  0
LINE
  5
2D9
100
AcDbEntity
  8
PORTATASTO
100
AcDbLine
 62
7
  6
CONTINUOUS
 10
-6.8578677613
 20
-23.7921322387
 11
-6.8578677613
 21
-22.3236589077
  0
LINE
  5
2DA
100
AcDbEntity
  8
PORTATASTO
100
AcDbLine
 62
7
  6
CONTINUOUS
 10
-6.8578677613
 20
22.3236589077
 11
-6.8578677613
 21
23.7921322387
  0
LINE
  5
2DB
100
AcDbEntity
  8
PORTATASTO
100
AcDbLine
 62
7
  6
CONTINUOUS
 10
-6.8447639644
 20
-22.35
 11
-6.8447639644
 21
-22.85711136
  0
LINE
  5
2DC
100
AcDbEntity
  8
PORTATASTO
100
AcDbLine
 62
7
  6
CONTINUOUS
 10
-6.8447639644
 20
22.35
 11
-6.8447639644
 21
22.85711136
  0
LINE
  5
2DD
100
AcDbEntity
  8
DRAFT
100
AcDbLine
 62
7
  6
CONTINUOUS
 10
3.0
 20
22.25
 11
2.9476348052
 21
22.0927766622
  0
LINE
  5
2DE
100
AcDbEntity
  8
DRAFT
100
AcDbLine
 62
7
  6
CONTINUOUS
 10
3.0
 20
-22.25
 11
2.9476348052
 21
-22.0927766622
  0
LINE
  5
2DF
100
AcDbEntity
  8
PORTATASTO
100
AcDbLine
 62
253
  6
CONTINUOUS
 10
-2.9369030571
 20
-23.5113248654
 11
-2.9329760304
 21
-23.9443375673
  0
LINE
  5
2E0
100
AcDbEntity
  8
PORTATASTO
100
AcDbLine
 62
253
  6
CONTINUOUS
 10
-2.686906484
 20
-23.2948185145
 11
-2.6829794573
 21
-23.7278312164
  0
LINE
  5
2E1
100
AcDbEntity
  8
PORTATASTO
100
AcDbLine
 62
7
  6
CONTINUOUS
 10
-2.95
 20
23.8
 11
-2.9447639644
 21
23.2226497308
  0
LINE
  5
2E2
100
AcDbEntity
  8
PORTATASTO
100
AcDbLine
 62
7
  6
CONTINUOUS
 10
-2.95
 20
-24.2500034269
 11
-2.95
 21
-23.8
  0
LINE
  5
2E3
100
AcDbEntity
  8
PORTATASTO
100
AcDbLine
 62
7
  6
CONTINUOUS
 10
-2.95
 20
23.8
 11
-2.95
 21
24.2500034269
  0
LINE
  5
2E4
100
AcDbEntity
  8
PORTATASTO
100
AcDbLine
 62
7
  6
CONTINUOUS
 10
-2.9447639644
 20
23.2226497308
 11
-2.9447639644
 21
23.0783121635
  0
LINE
  5
2E5
100
AcDbEntity
  8
PORTATASTO
100
AcDbLine
 62
7
  6
CONTINUOUS
 10
-2.9447639644
 20
-23.0783121635
 11
-2.9447639644
 21
-23.2226497308
  0
LINE
  5
2E6
100
AcDbEntity
  8
PORTATASTO
100
AcDbLine
 62
7
  6
CONTINUOUS
 10
-2.938212066
 20
23.0783121635
 11
-2.938212066
 21
22.2844216746
  0
LINE
  5
2E7
100
AcDbEntity
  8
PORTATASTO
100
AcDbLine
 62
7
  6
CONTINUOUS
 10
-2.938212066
 20
-22.2844216746
 11
-2.938212066
 21
-23.0783121635
  0
LINE
  5
2E8
100
AcDbEntity
  8
PORTATASTO
100
AcDbLine
 62
7
  6
CONTINUOUS
 10
-2.9329760304
 20
24.2329794573
 11
-2.9329760304
 21
23.9443375673
  0
LINE
  5
2E9
100
AcDbEntity
  8
PORTATASTO
100
AcDbLine
 62
7
  6
CONTINUOUS
 10
-2.9329760304
 20
-23.9443375673
 11
-2.9329760304
 21
-24.2329794573
  0
LINE
  5
2EA
100
AcDbEntity
  8
PORTATASTO
100
AcDbLine
 62
253
  6
CONTINUOUS
 10
-2.6882154929
 20
23.0783121635
 11
-2.6882154929
 21
22.2713883311
  0
LINE
  5
2EB
100
AcDbEntity
  8
PORTATASTO
100
AcDbLine
 62
253
  6
CONTINUOUS
 10
-2.6882154929
 20
-22.2713883311
 11
-2.6882154929
 21
-23.0783121635
  0
LINE
  5
2EC
100
AcDbEntity
  8
PORTATASTO
100
AcDbLine
 62
253
  6
CONTINUOUS
 10
-2.6829794573
 20
-23.7278312164
 11
-2.6829794573
 21
-24.4829760304
  0
LINE
  5
2ED
100
AcDbEntity
  8
PORTATASTO
100
AcDbLine
 62
253
  6
CONTINUOUS
 10
-2.6829794573
 20
23.7278312164
 11
-2.6829794573
 21
24.4829760304
  0
LINE
  5
2EE
100
AcDbEntity
  8
PORTATASTO
100
AcDbLine
 62
253
  6
CONTINUOUS
 10
-2.9329760304
 20
23.9443375673
 11
-2.9369030571
 21
23.5113248654
  0
LINE
  5
2EF
100
AcDbEntity
  8
PORTATASTO
100
AcDbLine
 62
253
  6
CONTINUOUS
 10
-2.6829794573
 20
23.7278312164
 11
-2.686906484
 21
23.2948185145
  0
LINE
  5
2F0
100
AcDbEntity
  8
PORTATASTO
100
AcDbLine
 62
7
  6
CONTINUOUS
 10
-2.9447639644
 20
-23.2226497308
 11
-2.95
 21
-23.8
  0
LINE
  5
2F1
100
AcDbEntity
  8
PORTATASTO
100
AcDbLine
 62
253
  6
CONTINUOUS
 10
21.5579794573
 20
24.4829760304
 11
21.5750034269
 21
24.5
  0
LINE
  5
2F2
100
AcDbEntity
  8
PORTATASTO
100
AcDbLine
 62
253
  6
CONTINUOUS
 10
21.5579794573
 20
-24.4829760304
 11
21.5750034269
 21
-24.5
  0
LINE
  5
2F3
100
AcDbEntity
  8
PORTATASTO
100
AcDbLine
 62
7
  6
CONTINUOUS
 10
-0.6802360356
 20
-23.2226497308
 11
-0.675
 21
-23.8
  0
LINE
  5
2F4
100
AcDbEntity
  8
PORTATASTO
100
AcDbLine
 62
253
  6
CONTINUOUS
 10
-0.938093516
 20
23.2948185145
 11
-0.9420205427
 21
23.7278312164
  0
LINE
  5
2F5
100
AcDbEntity
  8
PORTATASTO
100
AcDbLine
 62
253
  6
CONTINUOUS
 10
-0.6880969429
 20
23.5113248654
 11
-0.6920239696
 21
23.9443375673
  0
LINE
  5
2F6
100
AcDbEntity
  8
PORTATASTO
100
AcDbLine
 62
253
  6
CONTINUOUS
 10
-0.9420205427
 20
-23.7278312164
 11
-0.9420205427
 21
-24.4829760304
  0
LINE
  5
2F7
100
AcDbEntity
  8
PORTATASTO
100
AcDbLine
 62
253
  6
CONTINUOUS
 10
-0.9420205427
 20
23.7278312164
 11
-0.9420205427
 21
24.4829760304
  0
LINE
  5
2F8
100
AcDbEntity
  8
PORTATASTO
100
AcDbLine
 62
253
  6
CONTINUOUS
 10
-0.9367845071
 20
-23.0783121635
 11
-0.9367845071
 21
-22.2713883311
  0
LINE
  5
2F9
100
AcDbEntity
  8
PORTATASTO
100
AcDbLine
 62
253
  6
CONTINUOUS
 10
-0.9367845071
 20
22.2713883311
 11
-0.9367845071
 21
23.0783121635
  0
LINE
  5
2FA
100
AcDbEntity
  8
PORTATASTO
100
AcDbLine
 62
7
  6
CONTINUOUS
 10
-0.6920239696
 20
-24.2329794573
 11
-0.6920239696
 21
-23.9443375673
  0
LINE
  5
2FB
100
AcDbEntity
  8
PORTATASTO
100
AcDbLine
 62
7
  6
CONTINUOUS
 10
-0.6920239696
 20
23.9443375673
 11
-0.6920239696
 21
24.2329794573
  0
LINE
  5
2FC
100
AcDbEntity
  8
PORTATASTO
100
AcDbLine
 62
7
  6
CONTINUOUS
 10
-0.686787934
 20
-23.0783121635
 11
-0.686787934
 21
-22.2844216746
  0
LINE
  5
2FD
100
AcDbEntity
  8
PORTATASTO
100
AcDbLine
 62
7
  6
CONTINUOUS
 10
-0.686787934
 20
22.2844216746
 11
-0.686787934
 21
23.0783121635
  0
LINE
  5
2FE
100
AcDbEntity
  8
PORTATASTO
100
AcDbLine
 62
7
  6
CONTINUOUS
 10
-0.6802360356
 20
23.2226497308
 11
-0.6802360356
 21
23.0783121635
  0
LINE
  5
2FF
100
AcDbEntity
  8
PORTATASTO
100
AcDbLine
 62
7
  6
CONTINUOUS
 10
-0.6802360356
 20
-23.0783121635
 11
-0.6802360356
 21
-23.2226497308
  0
LINE
  5
300
100
AcDbEntity
  8
PORTATASTO
100
AcDbLine
 62
7
  6
CONTINUOUS
 10
-0.675
 20
24.2500034269
 11
-0.675
 21
23.8
  0
LINE
  5
301
100
AcDbEntity
  8
PORTATASTO
100
AcDbLine
 62
7
  6
CONTINUOUS
 10
-0.675
 20
-23.8
 11
-0.675
 21
-24.2500034269
  0
LINE
  5
302
100
AcDbEntity
  8
PORTATASTO
100
AcDbLine
 62
7
  6
CONTINUOUS
 10
-0.675
 20
23.8
 11
-0.6802360356
 21
23.2226497308
  0
LINE
  5
303
100
AcDbEntity
  8
PORTATASTO
100
AcDbLine
 62
253
  6
CONTINUOUS
 10
-0.9420205427
 20
-23.7278312164
 11
-0.938093516
 21
-23.2948185145
  0
LINE
  5
304
100
AcDbEntity
  8
PORTATASTO
100
AcDbLine
 62
253
  6
CONTINUOUS
 10
-0.6920239696
 20
-23.9443375673
 11
-0.6880969429
 21
-23.5113248654
  0
LINE
  5
305
100
AcDbEntity
  8
PORTATASTO
100
AcDbLine
 62
253
  6
CONTINUOUS
 10
21.8079760304
 20
24.2329794573
 11
21.825
 21
24.2500034269
  0
LINE
  5
306
100
AcDbEntity
  8
PORTATASTO
100
AcDbLine
 62
253
  6
CONTINUOUS
 10
21.8079760304
 20
-24.2329794573
 11
21.825
 21
-24.2500034269
  0
LINE
  5
307
100
AcDbEntity
  8
PORTATASTO
100
AcDbLine
 62
253
  6
CONTINUOUS
 10
0.6880969429
 20
-23.5113248654
 11
0.6920239696
 21
-23.9443375673
  0
LINE
  5
308
100
AcDbEntity
  8
PORTATASTO
100
AcDbLine
 62
253
  6
CONTINUOUS
 10
0.938093516
 20
-23.2948185145
 11
0.9420205427
 21
-23.7278312164
  0
LINE
  5
309
100
AcDbEntity
  8
PORTATASTO
100
AcDbLine
 62
7
  6
CONTINUOUS
 10
0.6802360356
 20
23.2226497308
 11
0.675
 21
23.8
  0
LINE
  5
30A
100
AcDbEntity
  8
PORTATASTO
100
AcDbLine
 62
7
  6
CONTINUOUS
 10
0.675
 20
-24.2500034269
 11
0.675
 21
-23.8
  0
LINE
  5
30B
100
AcDbEntity
  8
PORTATASTO
100
AcDbLine
 62
7
  6
CONTINUOUS
 10
0.675
 20
23.8
 11
0.675
 21
24.2500034269
  0
LINE
  5
30C
100
AcDbEntity
  8
PORTATASTO
100
AcDbLine
 62
7
  6
CONTINUOUS
 10
0.6802360356
 20
23.2226497308
 11
0.6802360356
 21
23.0783121635
  0
LINE
  5
30D
100
AcDbEntity
  8
PORTATASTO
100
AcDbLine
 62
7
  6
CONTINUOUS
 10
0.6802360356
 20
-23.0783121635
 11
0.6802360356
 21
-23.2226497308
  0
LINE
  5
30E
100
AcDbEntity
  8
PORTATASTO
100
AcDbLine
 62
7
  6
CONTINUOUS
 10
0.686787934
 20
23.0783121635
 11
0.686787934
 21
22.2844216746
  0
LINE
  5
30F
100
AcDbEntity
  8
PORTATASTO
100
AcDbLine
 62
7
  6
CONTINUOUS
 10
0.686787934
 20
-22.2844216746
 11
0.686787934
 21
-23.0783121635
  0
LINE
  5
310
100
AcDbEntity
  8
PORTATASTO
100
AcDbLine
 62
7
  6
CONTINUOUS
 10
0.6920239696
 20
24.2329794573
 11
0.6920239696
 21
23.9443375673
  0
LINE
  5
311
100
AcDbEntity
  8
PORTATASTO
100
AcDbLine
 62
7
  6
CONTINUOUS
 10
0.6920239696
 20
-23.9443375673
 11
0.6920239696
 21
-24.2329794573
  0
LINE
  5
312
100
AcDbEntity
  8
PORTATASTO
100
AcDbLine
 62
253
  6
CONTINUOUS
 10
0.9367845071
 20
23.0783121635
 11
0.9367845071
 21
22.2713883311
  0
LINE
  5
313
100
AcDbEntity
  8
PORTATASTO
100
AcDbLine
 62
253
  6
CONTINUOUS
 10
0.9367845071
 20
-22.2713883311
 11
0.9367845071
 21
-23.0783121635
  0
LINE
  5
314
100
AcDbEntity
  8
PORTATASTO
100
AcDbLine
 62
253
  6
CONTINUOUS
 10
0.9420205427
 20
-23.7278312164
 11
0.9420205427
 21
-24.4829760304
  0
LINE
  5
315
100
AcDbEntity
  8
PORTATASTO
100
AcDbLine
 62
253
  6
CONTINUOUS
 10
0.9420205427
 20
23.7278312164
 11
0.9420205427
 21
24.4829760304
  0
LINE
  5
316
100
AcDbEntity
  8
PORTATASTO
100
AcDbLine
 62
253
  6
CONTINUOUS
 10
0.6920239696
 20
23.9443375673
 11
0.6880969429
 21
23.5113248654
  0
LINE
  5
317
100
AcDbEntity
  8
PORTATASTO
100
AcDbLine
 62
253
  6
CONTINUOUS
 10
0.9420205427
 20
23.7278312164
 11
0.938093516
 21
23.2948185145
  0
LINE
  5
318
100
AcDbEntity
  8
PORTATASTO
100
AcDbLine
 62
7
  6
CONTINUOUS
 10
0.675
 20
-23.8
 11
0.6802360356
 21
-23.2226497308
  0
LINE
  5
319
100
AcDbEntity
  8
PORTATASTO
100
AcDbLine
 62
253
  6
CONTINUOUS
 10
-21.8079760304
 20
-24.2329794573
 11
-21.825
 21
-24.2500034269
  0
LINE
  5
31A
100
AcDbEntity
  8
PORTATASTO
100
AcDbLine
 62
253
  6
CONTINUOUS
 10
-21.5579794573
 20
-24.4829760304
 11
-21.5750034269
 21
-24.5
  0
LINE
  5
31B
100
AcDbEntity
  8
PORTATASTO
100
AcDbLine
 62
253
  6
CONTINUOUS
 10
-21.8079760304
 20
24.2329794573
 11
-21.825
 21
24.2500034269
  0
LINE
  5
31C
100
AcDbEntity
  8
PORTATASTO
100
AcDbLine
 62
253
  6
CONTINUOUS
 10
-21.5579794573
 20
24.4829760304
 11
-21.5750034269
 21
24.5
  0
LINE
  5
31D
100
AcDbEntity
  8
PORTATASTO
100
AcDbLine
 62
7
  6
CONTINUOUS
 10
2.95
 20
-23.8
 11
2.9447639644
 21
-23.2226497308
  0
LINE
  5
31E
100
AcDbEntity
  8
PORTATASTO
100
AcDbLine
 62
253
  6
CONTINUOUS
 10
2.686906484
 20
23.2948185145
 11
2.6829794573
 21
23.7278312164
  0
LINE
  5
31F
100
AcDbEntity
  8
PORTATASTO
100
AcDbLine
 62
253
  6
CONTINUOUS
 10
2.9369030571
 20
23.5113248654
 11
2.9329760304
 21
23.9443375673
  0
LINE
  5
320
100
AcDbEntity
  8
PORTATASTO
100
AcDbLine
 62
253
  6
CONTINUOUS
 10
2.6829794573
 20
-23.7278312164
 11
2.6829794573
 21
-24.4829760304
  0
LINE
  5
321
100
AcDbEntity
  8
PORTATASTO
100
AcDbLine
 62
253
  6
CONTINUOUS
 10
2.6829794573
 20
23.7278312164
 11
2.6829794573
 21
24.4829760304
  0
LINE
  5
322
100
AcDbEntity
  8
PORTATASTO
100
AcDbLine
 62
253
  6
CONTINUOUS
 10
2.6882154929
 20
-23.0783121635
 11
2.6882154929
 21
-22.2713883311
  0
LINE
  5
323
100
AcDbEntity
  8
PORTATASTO
100
AcDbLine
 62
253
  6
CONTINUOUS
 10
2.6882154929
 20
22.2713883311
 11
2.6882154929
 21
23.0783121635
  0
LINE
  5
324
100
AcDbEntity
  8
PORTATASTO
100
AcDbLine
 62
7
  6
CONTINUOUS
 10
2.9329760304
 20
-24.2329794573
 11
2.9329760304
 21
-23.9443375673
  0
LINE
  5
325
100
AcDbEntity
  8
PORTATASTO
100
AcDbLine
 62
7
  6
CONTINUOUS
 10
2.9329760304
 20
23.9443375673
 11
2.9329760304
 21
24.2329794573
  0
LINE
  5
326
100
AcDbEntity
  8
PORTATASTO
100
AcDbLine
 62
7
  6
CONTINUOUS
 10
2.938212066
 20
-23.0783121635
 11
2.938212066
 21
-22.2844216746
  0
LINE
  5
327
100
AcDbEntity
  8
PORTATASTO
100
AcDbLine
 62
7
  6
CONTINUOUS
 10
2.938212066
 20
22.2844216746
 11
2.938212066
 21
23.0783121635
  0
LINE
  5
328
100
AcDbEntity
  8
PORTATASTO
100
AcDbLine
 62
7
  6
CONTINUOUS
 10
2.9447639644
 20
23.2226497308
 11
2.9447639644
 21
23.0783121635
  0
LINE
  5
329
100
AcDbEntity
  8
PORTATASTO
100
AcDbLine
 62
7
  6
CONTINUOUS
 10
2.9447639644
 20
-23.0783121635
 11
2.9447639644
 21
-23.2226497308
  0
LINE
  5
32A
100
AcDbEntity
  8
PORTATASTO
100
AcDbLine
 62
7
  6
CONTINUOUS
 10
2.95
 20
24.2500034269
 11
2.95
 21
23.8
  0
LINE
  5
32B
100
AcDbEntity
  8
PORTATASTO
100
AcDbLine
 62
7
  6
CONTINUOUS
 10
2.95
 20
-23.8
 11
2.95
 21
-24.2500034269
  0
LINE
  5
32C
100
AcDbEntity
  8
PORTATASTO
100
AcDbLine
 62
7
  6
CONTINUOUS
 10
2.9447639644
 20
23.2226497308
 11
2.95
 21
23.8
  0
LINE
  5
32D
100
AcDbEntity
  8
PORTATASTO
100
AcDbLine
 62
253
  6
CONTINUOUS
 10
2.6829794573
 20
-23.7278312164
 11
2.686906484
 21
-23.2948185145
  0
LINE
  5
32E
100
AcDbEntity
  8
PORTATASTO
100
AcDbLine
 62
253
  6
CONTINUOUS
 10
2.9329760304
 20
-23.9443375673
 11
2.9369030571
 21
-23.5113248654
  0
LINE
  5
32F
100
AcDbEntity
  8
DRAFT
100
AcDbLine
 62
7
  6
CONTINUOUS
 10
-3.0
 20
-22.25
 11
-2.9476348052
 21
-22.0927766622
  0
LINE
  5
330
100
AcDbEntity
  8
DRAFT
100
AcDbLine
 62
7
  6
CONTINUOUS
 10
-3.0
 20
22.25
 11
-2.9476348052
 21
22.0927766622
  0
LINE
  5
331
100
AcDbEntity
  8
PORTATASTO
100
AcDbLine
 62
7
  6
CONTINUOUS
 10
6.8447639644
 20
-22.35
 11
6.8447639644
 21
-22.85711136
  0
LINE
  5
332
100
AcDbEntity
  8
PORTATASTO
100
AcDbLine
 62
7
  6
CONTINUOUS
 10
6.8447639644
 20
22.35
 11
6.8447639644
 21
22.85711136
  0
LINE
  5
333
100
AcDbEntity
  8
PORTATASTO
100
AcDbLine
 62
7
  6
CONTINUOUS
 10
6.8578677613
 20
23.7921322387
 11
6.8578677613
 21
22.3236589077
  0
LINE
  5
334
100
AcDbEntity
  8
PORTATASTO
100
AcDbLine
 62
7
  6
CONTINUOUS
 10
6.8578677613
 20
-22.3236589077
 11
6.8578677613
 21
-23.7921322387
  0
LINE
  5
335
100
AcDbEntity
  8
PORTATASTO
100
AcDbLine
 62
253
  6
CONTINUOUS
 10
7.3578609074
 20
23.5905723943
 11
7.3578609074
 21
22.2975922207
  0
LINE
  5
336
100
AcDbEntity
  8
PORTATASTO
100
AcDbLine
 62
253
  6
CONTINUOUS
 10
7.3578609074
 20
-22.2975922207
 11
7.3578609074
 21
-23.5905723943
  0
LINE
  5
337
100
AcDbEntity
  8
PORTATASTO
100
AcDbLine
 62
253
  6
CONTINUOUS
 10
15.1421390926
 20
-23.5905723943
 11
15.1421390926
 21
-22.2975922207
  0
LINE
  5
338
100
AcDbEntity
  8
PORTATASTO
100
AcDbLine
 62
253
  6
CONTINUOUS
 10
15.1421390926
 20
22.2975922207
 11
15.1421390926
 21
23.5905723943
  0
LINE
  5
339
100
AcDbEntity
  8
PORTATASTO
100
AcDbLine
 62
7
  6
CONTINUOUS
 10
15.6421322387
 20
-23.7921322387
 11
15.6421322387
 21
-22.3236589077
  0
LINE
  5
33A
100
AcDbEntity
  8
PORTATASTO
100
AcDbLine
 62
7
  6
CONTINUOUS
 10
15.6421322387
 20
22.3236589077
 11
15.6421322387
 21
23.7921322387
  0
LINE
  5
33B
100
AcDbEntity
  8
PORTATASTO
100
AcDbLine
 62
7
  6
CONTINUOUS
 10
15.6552360356
 20
-22.35
 11
15.6552360356
 21
-22.85711136
  0
LINE
  5
33C
100
AcDbEntity
  8
PORTATASTO
100
AcDbLine
 62
7
  6
CONTINUOUS
 10
15.6552360356
 20
22.35
 11
15.6552360356
 21
22.85711136
  0
LINE
  5
33D
100
AcDbEntity
  8
PORTATASTO
100
AcDbLine
 62
253
  6
CONTINUOUS
 10
21.8503805997
 20
22.35
 11
21.8270084758
 21
22.2798266081
  0
LINE
  5
33E
100
AcDbEntity
  8
RACCORDO
100
AcDbLine
 62
253
  6
CONTINUOUS
 10
21.8253805997
 20
22.25
 11
21.7441014236
 21
22.0059641777
  0
LINE
  5
33F
100
AcDbEntity
  8
PORTATASTO
100
AcDbLine
 62
253
  6
CONTINUOUS
 10
22.35
 20
21.8497711479
 11
22.3238174026
 21
21.771159479
  0
LINE
  5
340
100
AcDbEntity
  8
RACCORDO
100
AcDbLine
 62
253
  6
CONTINUOUS
 10
22.325
 20
21.7497711479
 11
22.2440252712
 21
21.5066494103
  0
LINE
  5
341
100
AcDbEntity
  8
PORTATASTO
100
AcDbLine
 62
253
  6
CONTINUOUS
 10
-2.9329760304
 20
-24.2329794573
 11
-2.95
 21
-24.2500034269
  0
LINE
  5
342
100
AcDbEntity
  8
PORTATASTO
100
AcDbLine
 62
253
  6
CONTINUOUS
 10
-2.6829794573
 20
-24.4829760304
 11
-2.7000034269
 21
-24.5
  0
LINE
  5
343
100
AcDbEntity
  8
PORTATASTO
100
AcDbLine
 62
253
  6
CONTINUOUS
 10
-2.9329760304
 20
24.2329794573
 11
-2.95
 21
24.2500034269
  0
LINE
  5
344
100
AcDbEntity
  8
PORTATASTO
100
AcDbLine
 62
253
  6
CONTINUOUS
 10
-2.6829794573
 20
24.4829760304
 11
-2.7000034269
 21
24.5
  0
LINE
  5
345
100
AcDbEntity
  8
PORTATASTO
100
AcDbLine
 62
253
  6
CONTINUOUS
 10
21.8270084758
 20
-22.2798266081
 11
21.8503805997
 21
-22.35
  0
LINE
  5
346
100
AcDbEntity
  8
RACCORDO
100
AcDbLine
 62
253
  6
CONTINUOUS
 10
21.7441014236
 20
-22.0059641777
 11
21.8253805997
 21
-22.25
  0
LINE
  5
347
100
AcDbEntity
  8
PORTATASTO
100
AcDbLine
 62
253
  6
CONTINUOUS
 10
22.3238174026
 20
-21.771159479
 11
22.35
 21
-21.8497711479
  0
LINE
  5
348
100
AcDbEntity
  8
RACCORDO
100
AcDbLine
 62
253
  6
CONTINUOUS
 10
22.2440252712
 20
-21.5066494103
 11
22.325
 21
-21.7497711479
  0
LINE
  5
349
100
AcDbEntity
  8
PORTATASTO
100
AcDbLine
 62
253
  6
CONTINUOUS
 10
0.6920239696
 20
-24.2329794573
 11
0.675
 21
-24.2500034269
  0
LINE
  5
34A
100
AcDbEntity
  8
PORTATASTO
100
AcDbLine
 62
253
  6
CONTINUOUS
 10
0.9420205427
 20
-24.4829760304
 11
0.9249965731
 21
-24.5
  0
LINE
  5
34B
100
AcDbEntity
  8
PORTATASTO
100
AcDbLine
 62
253
  6
CONTINUOUS
 10
0.6920239696
 20
24.2329794573
 11
0.675
 21
24.2500034269
  0
LINE
  5
34C
100
AcDbEntity
  8
PORTATASTO
100
AcDbLine
 62
253
  6
CONTINUOUS
 10
0.9420205427
 20
24.4829760304
 11
0.9249965731
 21
24.5
  0
LINE
  5
34D
100
AcDbEntity
  8
PORTATASTO
100
AcDbLine
 62
253
  6
CONTINUOUS
 10
19.5630969429
 20
-23.5113248654
 11
19.5670239696
 21
-23.9443375673
  0
LINE
  5
34E
100
AcDbEntity
  8
PORTATASTO
100
AcDbLine
 62
253
  6
CONTINUOUS
 10
19.813093516
 20
-23.2948185145
 11
19.8170205427
 21
-23.7278312164
  0
LINE
  5
34F
100
AcDbEntity
  8
PORTATASTO
100
AcDbLine
 62
7
  6
CONTINUOUS
 10
19.55
 20
23.8
 11
19.5552360356
 21
23.2226497308
  0
LINE
  5
350
100
AcDbEntity
  8
PORTATASTO
100
AcDbLine
 62
7
  6
CONTINUOUS
 10
19.55
 20
-24.2500034269
 11
19.55
 21
-23.8
  0
LINE
  5
351
100
AcDbEntity
  8
PORTATASTO
100
AcDbLine
 62
7
  6
CONTINUOUS
 10
19.55
 20
23.8
 11
19.55
 21
24.2500034269
  0
LINE
  5
352
100
AcDbEntity
  8
PORTATASTO
100
AcDbLine
 62
7
  6
CONTINUOUS
 10
19.5552360356
 20
23.2226497308
 11
19.5552360356
 21
23.0783121635
  0
LINE
  5
353
100
AcDbEntity
  8
PORTATASTO
100
AcDbLine
 62
7
  6
CONTINUOUS
 10
19.5552360356
 20
-23.0783121635
 11
19.5552360356
 21
-23.2226497308
  0
LINE
  5
354
100
AcDbEntity
  8
PORTATASTO
100
AcDbLine
 62
7
  6
CONTINUOUS
 10
19.561787934
 20
23.0783121635
 11
19.561787934
 21
22.2844216746
  0
LINE
  5
355
100
AcDbEntity
  8
PORTATASTO
100
AcDbLine
 62
7
  6
CONTINUOUS
 10
19.561787934
 20
-22.2844216746
 11
19.561787934
 21
-23.0783121635
  0
LINE
  5
356
100
AcDbEntity
  8
PORTATASTO
100
AcDbLine
 62
7
  6
CONTINUOUS
 10
19.5670239696
 20
24.2329794573
 11
19.5670239696
 21
23.9443375673
  0
LINE
  5
357
100
AcDbEntity
  8
PORTATASTO
100
AcDbLine
 62
7
  6
CONTINUOUS
 10
19.5670239696
 20
-23.9443375673
 11
19.5670239696
 21
-24.2329794573
  0
LINE
  5
358
100
AcDbEntity
  8
PORTATASTO
100
AcDbLine
 62
253
  6
CONTINUOUS
 10
19.8117845071
 20
23.0783121635
 11
19.8117845071
 21
22.2713883311
  0
LINE
  5
359
100
AcDbEntity
  8
PORTATASTO
100
AcDbLine
 62
253
  6
CONTINUOUS
 10
19.8117845071
 20
-22.2713883311
 11
19.8117845071
 21
-23.0783121635
  0
LINE
  5
35A
100
AcDbEntity
  8
PORTATASTO
100
AcDbLine
 62
253
  6
CONTINUOUS
 10
19.8170205427
 20
-23.7278312164
 11
19.8170205427
 21
-24.4829760304
  0
LINE
  5
35B
100
AcDbEntity
  8
PORTATASTO
100
AcDbLine
 62
253
  6
CONTINUOUS
 10
19.8170205427
 20
23.7278312164
 11
19.8170205427
 21
24.4829760304
  0
LINE
  5
35C
100
AcDbEntity
  8
PORTATASTO
100
AcDbLine
 62
253
  6
CONTINUOUS
 10
19.5670239696
 20
23.9443375673
 11
19.5630969429
 21
23.5113248654
  0
LINE
  5
35D
100
AcDbEntity
  8
PORTATASTO
100
AcDbLine
 62
253
  6
CONTINUOUS
 10
19.8170205427
 20
23.7278312164
 11
19.813093516
 21
23.2948185145
  0
LINE
  5
35E
100
AcDbEntity
  8
PORTATASTO
100
AcDbLine
 62
7
  6
CONTINUOUS
 10
19.5552360356
 20
-23.2226497308
 11
19.55
 21
-23.8
  0
LINE
  5
35F
100
AcDbEntity
  8
PORTATASTO
100
AcDbLine
 62
7
  6
CONTINUOUS
 10
21.8197639644
 20
-23.2226497308
 11
21.825
 21
-23.8
  0
LINE
  5
360
100
AcDbEntity
  8
PORTATASTO
100
AcDbLine
 62
253
  6
CONTINUOUS
 10
21.561906484
 20
23.2948185145
 11
21.5579794573
 21
23.7278312164
  0
LINE
  5
361
100
AcDbEntity
  8
PORTATASTO
100
AcDbLine
 62
253
  6
CONTINUOUS
 10
21.8119030571
 20
23.5113248654
 11
21.8079760304
 21
23.9443375673
  0
LINE
  5
362
100
AcDbEntity
  8
PORTATASTO
100
AcDbLine
 62
253
  6
CONTINUOUS
 10
21.5579794573
 20
-23.7278312164
 11
21.5579794573
 21
-24.4829760304
  0
LINE
  5
363
100
AcDbEntity
  8
PORTATASTO
100
AcDbLine
 62
253
  6
CONTINUOUS
 10
21.5579794573
 20
23.7278312164
 11
21.5579794573
 21
24.4829760304
  0
LINE
  5
364
100
AcDbEntity
  8
PORTATASTO
100
AcDbLine
 62
253
  6
CONTINUOUS
 10
21.5632154929
 20
-23.0783121635
 11
21.5632154929
 21
-22.2713883311
  0
LINE
  5
365
100
AcDbEntity
  8
PORTATASTO
100
AcDbLine
 62
253
  6
CONTINUOUS
 10
21.5632154929
 20
22.2713883311
 11
21.5632154929
 21
23.0783121635
  0
LINE
  5
366
100
AcDbEntity
  8
PORTATASTO
100
AcDbLine
 62
7
  6
CONTINUOUS
 10
21.8079760304
 20
-24.2329794573
 11
21.8079760304
 21
-23.9443375673
  0
LINE
  5
367
100
AcDbEntity
  8
PORTATASTO
100
AcDbLine
 62
7
  6
CONTINUOUS
 10
21.8079760304
 20
23.9443375673
 11
21.8079760304
 21
24.2329794573
  0
LINE
  5
368
100
AcDbEntity
  8
PORTATASTO
100
AcDbLine
 62
7
  6
CONTINUOUS
 10
21.813212066
 20
-23.0783121635
 11
21.813212066
 21
-22.2844216746
  0
LINE
  5
369
100
AcDbEntity
  8
PORTATASTO
100
AcDbLine
 62
7
  6
CONTINUOUS
 10
21.813212066
 20
22.2844216746
 11
21.813212066
 21
23.0783121635
  0
LINE
  5
36A
100
AcDbEntity
  8
PORTATASTO
100
AcDbLine
 62
7
  6
CONTINUOUS
 10
21.8197639644
 20
23.2226497308
 11
21.8197639644
 21
23.0783121635
  0
LINE
  5
36B
100
AcDbEntity
  8
PORTATASTO
100
AcDbLine
 62
7
  6
CONTINUOUS
 10
21.8197639644
 20
-23.0783121635
 11
21.8197639644
 21
-23.2226497308
  0
LINE
  5
36C
100
AcDbEntity
  8
PORTATASTO
100
AcDbLine
 62
7
  6
CONTINUOUS
 10
21.825
 20
24.2500034269
 11
21.825
 21
23.8
  0
LINE
  5
36D
100
AcDbEntity
  8
PORTATASTO
100
AcDbLine
 62
7
  6
CONTINUOUS
 10
21.825
 20
-23.8
 11
21.825
 21
-24.2500034269
  0
LINE
  5
36E
100
AcDbEntity
  8
RACCORDO
100
AcDbLine
 62
7
  6
CONTINUOUS
 10
22.325
 20
-21.7497711479
 11
22.325
 21
21.7497711479
  0
LINE
  5
36F
100
AcDbEntity
  8
PORTATASTO
100
AcDbLine
 62
7
  6
CONTINUOUS
 10
22.35
 20
21.850016923
 11
22.35
 21
18.5
  0
LINE
  5
370
100
AcDbEntity
  8
PORTATASTO
100
AcDbLine
 62
7
  6
CONTINUOUS
 10
22.35
 20
-21.850016923
 11
22.35
 21
-18.5
  0
LINE
  5
371
100
AcDbEntity
  8
PORTATASTO
100
AcDbLine
 62
7
  6
CONTINUOUS
 10
22.3849101299
 20
18.1473460386
 11
22.3849101299
 21
-18.1473460386
  0
LINE
  5
372
100
AcDbEntity
  8
CORPO
100
AcDbLine
 62
7
  6
CONTINUOUS
 10
22.4
 20
17.6716990487
 11
22.4
 21
-17.6716990487
  0
LINE
  5
373
100
AcDbEntity
  8
ASSI
100
AcDbLine
 62
7
  6
CONTINUOUS
 10
22.4
 20
17.6716990487
 11
22.4
 21
-17.6716990487
  0
LINE
  5
374
100
AcDbEntity
  8
PORTATASTO
100
AcDbLine
 62
7
  6
CONTINUOUS
 10
21.825
 20
23.8
 11
21.8197639644
 21
23.2226497308
  0
LINE
  5
375
100
AcDbEntity
  8
PORTATASTO
100
AcDbLine
 62
253
  6
CONTINUOUS
 10
21.5579794573
 20
-23.7278312164
 11
21.561906484
 21
-23.2948185145
  0
LINE
  5
376
100
AcDbEntity
  8
PORTATASTO
100
AcDbLine
 62
253
  6
CONTINUOUS
 10
21.8079760304
 20
-23.9443375673
 11
21.8119030571
 21
-23.5113248654
  0
LINE
  5
377
100
AcDbEntity
  8
RACCORDO
100
AcDbLine
 62
253
  6
CONTINUOUS
 10
21.7275746634
 20
20.5697290627
 11
-21.7275746634
 21
20.5697290627
  0
LINE
  5
378
100
AcDbEntity
  8
RACCORDO
100
AcDbLine
 62
253
  6
CONTINUOUS
 10
21.7441014236
 20
22.0059641777
 11
-21.7441014236
 21
22.0059641777
  0
LINE
  5
379
100
AcDbEntity
  8
DRAFT
100
AcDbLine
 62
7
  6
CONTINUOUS
 10
-2.9476348052
 20
22.0927766622
 11
2.9476348052
 21
22.0927766622
  0
LINE
  5
37A
100
AcDbEntity
  8
RACCORDO
100
AcDbLine
 62
7
  6
CONTINUOUS
 10
-21.8253805997
 20
22.25
 11
-3.0
 21
22.25
  0
LINE
  5
37B
100
AcDbEntity
  8
RACCORDO
100
AcDbLine
 62
7
  6
CONTINUOUS
 10
3.0
 20
22.25
 11
21.8253805997
 21
22.25
  0
LINE
  5
37C
100
AcDbEntity
  8
PORTATASTO
100
AcDbLine
 62
7
  6
CONTINUOUS
 10
21.8241980023
 20
22.2713883311
 11
21.5632154929
 21
22.2713883311
  0
LINE
  5
37D
100
AcDbEntity
  8
PORTATASTO
100
AcDbLine
 62
7
  6
CONTINUOUS
 10
19.8117845071
 20
22.2713883311
 11
2.6882154929
 21
22.2713883311
  0
LINE
  5
37E
100
AcDbEntity
  8
PORTATASTO
100
AcDbLine
 62
7
  6
CONTINUOUS
 10
0.9367845071
 20
22.2713883311
 11
-0.9367845071
 21
22.2713883311
  0
LINE
  5
37F
100
AcDbEntity
  8
PORTATASTO
100
AcDbLine
 62
7
  6
CONTINUOUS
 10
-2.6882154929
 20
22.2713883311
 11
-19.8117845071
 21
22.2713883311
  0
LINE
  5
380
100
AcDbEntity
  8
PORTATASTO
100
AcDbLine
 62
7
  6
CONTINUOUS
 10
-21.5632154929
 20
22.2713883311
 11
-21.8241980023
 21
22.2713883311
  0
LINE
  5
381
100
AcDbEntity
  8
PORTATASTO
100
AcDbLine
 62
7
  6
CONTINUOUS
 10
15.1421390926
 20
22.2975922207
 11
7.3578609074
 21
22.2975922207
  0
LINE
  5
382
100
AcDbEntity
  8
PORTATASTO
100
AcDbLine
 62
7
  6
CONTINUOUS
 10
-7.3578609074
 20
22.2975922207
 11
-15.1421390926
 21
22.2975922207
  0
LINE
  5
383
100
AcDbEntity
  8
PORTATASTO
100
AcDbLine
 62
7
  6
CONTINUOUS
 10
-21.8503805997
 20
22.35
 11
-21.8197639644
 21
22.35
  0
LINE
  5
384
100
AcDbEntity
  8
PORTATASTO
100
AcDbLine
 62
7
  6
CONTINUOUS
 10
-19.5552360356
 20
22.35
 11
-15.6447639644
 21
22.35
  0
LINE
  5
385
100
AcDbEntity
  8
PORTATASTO
100
AcDbLine
 62
7
  6
CONTINUOUS
 10
-6.8552360356
 20
22.35
 11
-2.9447639644
 21
22.35
  0
LINE
  5
386
100
AcDbEntity
  8
PORTATASTO
100
AcDbLine
 62
7
  6
CONTINUOUS
 10
-0.6802360356
 20
22.35
 11
0.6802360356
 21
22.35
  0
LINE
  5
387
100
AcDbEntity
  8
PORTATASTO
100
AcDbLine
 62
7
  6
CONTINUOUS
 10
2.9447639644
 20
22.35
 11
6.8552360356
 21
22.35
  0
LINE
  5
388
100
AcDbEntity
  8
PORTATASTO
100
AcDbLine
 62
7
  6
CONTINUOUS
 10
15.6447639644
 20
22.35
 11
19.5552360356
 21
22.35
  0
LINE
  5
389
100
AcDbEntity
  8
PORTATASTO
100
AcDbLine
 62
7
  6
CONTINUOUS
 10
21.8197639644
 20
22.35
 11
21.8503805997
 21
22.35
  0
LINE
  5
38A
100
AcDbEntity
  8
CORPO
100
AcDbLine
 62
7
  6
CONTINUOUS
 10
-0.6802360356
 20
22.4
 11
0.6802360356
 21
22.4
  0
LINE
  5
38B
100
AcDbEntity
  8
ASSI
100
AcDbLine
 62
7
  6
CONTINUOUS
 10
-0.6802360356
 20
22.4
 11
0.6802360356
 21
22.4
  0
LINE
  5
38C
100
AcDbEntity
  8
PORTATASTO
100
AcDbLine
 62
7
  6
CONTINUOUS
 10
22.35
 20
18.5
 11
22.3849101299
 21
18.1473460386
  0
LINE
  5
38D
100
AcDbEntity
  8
PORTATASTO
100
AcDbLine
 62
7
  6
CONTINUOUS
 10
22.3849101299
 20
-18.1473460386
 11
22.35
 21
-18.5
  0
LINE
  5
38E
100
AcDbEntity
  8
PORTATASTO
100
AcDbLine
 62
253
  6
CONTINUOUS
 10
-21.813212066
 20
23.0783121635
 11
-19.561787934
 21
23.0783121635
  0
LINE
  5
38F
100
AcDbEntity
  8
PORTATASTO
100
AcDbLine
 62
253
  6
CONTINUOUS
 10
-2.938212066
 20
23.0783121635
 11
-0.686787934
 21
23.0783121635
  0
LINE
  5
390
100
AcDbEntity
  8
PORTATASTO
100
AcDbLine
 62
253
  6
CONTINUOUS
 10
0.686787934
 20
23.0783121635
 11
2.938212066
 21
23.0783121635
  0
LINE
  5
391
100
AcDbEntity
  8
PORTATASTO
100
AcDbLine
 62
253
  6
CONTINUOUS
 10
19.561787934
 20
23.0783121635
 11
21.813212066
 21
23.0783121635
  0
LINE
  5
392
100
AcDbEntity
  8
PORTATASTO
100
AcDbLine
 62
7
  6
CONTINUOUS
 10
15.7446938615
 20
23.2226497308
 11
15.6447639644
 21
23.2226497308
  0
LINE
  5
393
100
AcDbEntity
  8
PORTATASTO
100
AcDbLine
 62
7
  6
CONTINUOUS
 10
6.8552360356
 20
23.2226497308
 11
6.7553061385
 21
23.2226497308
  0
LINE
  5
394
100
AcDbEntity
  8
PORTATASTO
100
AcDbLine
 62
7
  6
CONTINUOUS
 10
-6.7553061385
 20
23.2226497308
 11
-6.8552360356
 21
23.2226497308
  0
LINE
  5
395
100
AcDbEntity
  8
PORTATASTO
100
AcDbLine
 62
7
  6
CONTINUOUS
 10
-15.6447639644
 20
23.2226497308
 11
-15.7446938615
 21
23.2226497308
  0
LINE
  5
396
100
AcDbEntity
  8
PORTATASTO
100
AcDbLine
 62
253
  6
CONTINUOUS
 10
-21.561906484
 20
23.2948185145
 11
-19.813093516
 21
23.2948185145
  0
LINE
  5
397
100
AcDbEntity
  8
PORTATASTO
100
AcDbLine
 62
253
  6
CONTINUOUS
 10
-2.686906484
 20
23.2948185145
 11
-0.938093516
 21
23.2948185145
  0
LINE
  5
398
100
AcDbEntity
  8
PORTATASTO
100
AcDbLine
 62
253
  6
CONTINUOUS
 10
0.938093516
 20
23.2948185145
 11
2.686906484
 21
23.2948185145
  0
LINE
  5
399
100
AcDbEntity
  8
PORTATASTO
100
AcDbLine
 62
253
  6
CONTINUOUS
 10
19.813093516
 20
23.2948185145
 11
21.561906484
 21
23.2948185145
  0
LINE
  5
39A
100
AcDbEntity
  8
PORTATASTO
100
AcDbLine
 62
253
  6
CONTINUOUS
 10
15.1421390926
 20
23.5905723943
 11
7.3578609074
 21
23.5905723943
  0
LINE
  5
39B
100
AcDbEntity
  8
PORTATASTO
100
AcDbLine
 62
253
  6
CONTINUOUS
 10
-7.3578609074
 20
23.5905723943
 11
-15.1421390926
 21
23.5905723943
  0
LINE
  5
39C
100
AcDbEntity
  8
PORTATASTO
100
AcDbLine
 62
253
  6
CONTINUOUS
 10
-21.5579794573
 20
23.7278312164
 11
-19.8170205427
 21
23.7278312164
  0
LINE
  5
39D
100
AcDbEntity
  8
PORTATASTO
100
AcDbLine
 62
253
  6
CONTINUOUS
 10
-2.6829794573
 20
23.7278312164
 11
-0.9420205427
 21
23.7278312164
  0
LINE
  5
39E
100
AcDbEntity
  8
PORTATASTO
100
AcDbLine
 62
253
  6
CONTINUOUS
 10
0.9420205427
 20
23.7278312164
 11
2.6829794573
 21
23.7278312164
  0
LINE
  5
39F
100
AcDbEntity
  8
PORTATASTO
100
AcDbLine
 62
253
  6
CONTINUOUS
 10
19.8170205427
 20
23.7278312164
 11
21.5579794573
 21
23.7278312164
  0
LINE
  5
3A0
100
AcDbEntity
  8
PORTATASTO
100
AcDbLine
 62
7
  6
CONTINUOUS
 10
15.541351552
 20
23.7905696528
 11
6.958648448
 21
23.7905696528
  0
LINE
  5
3A1
100
AcDbEntity
  8
PORTATASTO
100
AcDbLine
 62
7
  6
CONTINUOUS
 10
-6.958648448
 20
23.7905696528
 11
-15.541351552
 21
23.7905696528
  0
LINE
  5
3A2
100
AcDbEntity
  8
PORTATASTO
100
AcDbLine
 62
7
  6
CONTINUOUS
 10
-6.85
 20
23.8
 11
-15.65
 21
23.8
  0
LINE
  5
3A3
100
AcDbEntity
  8
PORTATASTO
100
AcDbLine
 62
7
  6
CONTINUOUS
 10
6.85
 20
23.8
 11
15.65
 21
23.8
  0
LINE
  5
3A4
100
AcDbEntity
  8
PORTATASTO
100
AcDbLine
 62
253
  6
CONTINUOUS
 10
0.6920239696
 20
23.9443375673
 11
2.9329760304
 21
23.9443375673
  0
LINE
  5
3A5
100
AcDbEntity
  8
PORTATASTO
100
AcDbLine
 62
253
  6
CONTINUOUS
 10
-0.6920239696
 20
23.9443375673
 11
-2.9329760304
 21
23.9443375673
  0
LINE
  5
3A6
100
AcDbEntity
  8
PORTATASTO
100
AcDbLine
 62
253
  6
CONTINUOUS
 10
19.5670239696
 20
23.9443375673
 11
21.8079760304
 21
23.9443375673
  0
LINE
  5
3A7
100
AcDbEntity
  8
PORTATASTO
100
AcDbLine
 62
253
  6
CONTINUOUS
 10
-19.5670239696
 20
23.9443375673
 11
-21.8079760304
 21
23.9443375673
  0
LINE
  5
3A8
100
AcDbEntity
  8
PORTATASTO
100
AcDbLine
 62
253
  6
CONTINUOUS
 10
-0.6920239696
 20
24.2329794573
 11
-2.9329760304
 21
24.2329794573
  0
LINE
  5
3A9
100
AcDbEntity
  8
PORTATASTO
100
AcDbLine
 62
253
  6
CONTINUOUS
 10
0.6920239696
 20
24.2329794573
 11
2.9329760304
 21
24.2329794573
  0
LINE
  5
3AA
100
AcDbEntity
  8
PORTATASTO
100
AcDbLine
 62
253
  6
CONTINUOUS
 10
-19.5670239696
 20
24.2329794573
 11
-21.8079760304
 21
24.2329794573
  0
LINE
  5
3AB
100
AcDbEntity
  8
PORTATASTO
100
AcDbLine
 62
253
  6
CONTINUOUS
 10
19.5670239696
 20
24.2329794573
 11
21.8079760304
 21
24.2329794573
  0
LINE
  5
3AC
100
AcDbEntity
  8
PORTATASTO
100
AcDbLine
 62
7
  6
CONTINUOUS
 10
21.5579794573
 20
24.4829760304
 11
19.8170205427
 21
24.4829760304
  0
LINE
  5
3AD
100
AcDbEntity
  8
PORTATASTO
100
AcDbLine
 62
7
  6
CONTINUOUS
 10
2.6829794573
 20
24.4829760304
 11
0.9420205427
 21
24.4829760304
  0
LINE
  5
3AE
100
AcDbEntity
  8
PORTATASTO
100
AcDbLine
 62
7
  6
CONTINUOUS
 10
-0.9420205427
 20
24.4829760304
 11
-2.6829794573
 21
24.4829760304
  0
LINE
  5
3AF
100
AcDbEntity
  8
PORTATASTO
100
AcDbLine
 62
7
  6
CONTINUOUS
 10
-19.8170205427
 20
24.4829760304
 11
-21.5579794573
 21
24.4829760304
  0
LINE
  5
3B0
100
AcDbEntity
  8
PORTATASTO
100
AcDbLine
 62
7
  6
CONTINUOUS
 10
-21.5750034269
 20
24.5
 11
-19.7999965731
 21
24.5
  0
LINE
  5
3B1
100
AcDbEntity
  8
PORTATASTO
100
AcDbLine
 62
7
  6
CONTINUOUS
 10
21.5750034269
 20
24.5
 11
19.7999965731
 21
24.5
  0
LINE
  5
3B2
100
AcDbEntity
  8
PORTATASTO
100
AcDbLine
 62
7
  6
CONTINUOUS
 10
-0.9249965731
 20
24.5
 11
-2.7000034269
 21
24.5
  0
LINE
  5
3B3
100
AcDbEntity
  8
PORTATASTO
100
AcDbLine
 62
7
  6
CONTINUOUS
 10
0.9249965731
 20
24.5
 11
2.7000034269
 21
24.5
  0
LINE
  5
3B4
100
AcDbEntity
  8
PORTATASTO
100
AcDbLine
 62
253
  6
CONTINUOUS
 10
19.5670239696
 20
-24.2329794573
 11
19.55
 21
-24.2500034269
  0
LINE
  5
3B5
100
AcDbEntity
  8
PORTATASTO
100
AcDbLine
 62
253
  6
CONTINUOUS
 10
19.8170205427
 20
-24.4829760304
 11
19.7999965731
 21
-24.5
  0
LINE
  5
3B6
100
AcDbEntity
  8
PORTATASTO
100
AcDbLine
 62
253
  6
CONTINUOUS
 10
19.5670239696
 20
24.2329794573
 11
19.55
 21
24.2500034269
  0
LINE
  5
3B7
100
AcDbEntity
  8
PORTATASTO
100
AcDbLine
 62
253
  6
CONTINUOUS
 10
19.8170205427
 20
24.4829760304
 11
19.7999965731
 21
24.5
  0
LINE
  5
3B8
100
AcDbEntity
  8
PORTATASTO
100
AcDbLine
 62
7
  6
CONTINUOUS
 10
-78.5525520329
 20
23.8
 11
-79.5525520329
 21
23.2226497308
  0
LINE
  5
3B9
100
AcDbEntity
  8
PORTATASTO
100
AcDbLine
 62
7
  6
CONTINUOUS
 10
-79.5525520329
 20
-23.2226497308
 11
-78.5525520329
 21
-23.8
  0
LINE
  5
3BA
100
AcDbEntity
  8
PORTATASTO
100
AcDbLine
 62
7
  6
CONTINUOUS
 10
-78.5525520329
 20
-23.8
 11
-72.0473161408
 21
-23.7659383532
  0
LINE
  5
3BB
100
AcDbEntity
  8
PORTATASTO
100
AcDbLine
 62
253
  6
CONTINUOUS
 10
-81.8038610238
 20
-24.2329794573
 11
-82.0525520329
 21
-24.2329794573
  0
LINE
  5
3BC
100
AcDbEntity
  8
PORTATASTO
100
AcDbLine
 62
253
  6
CONTINUOUS
 10
-82.0525520329
 20
-23.9443375673
 11
-81.8038610238
 21
-23.9443375673
  0
LINE
  5
3BD
100
AcDbEntity
  8
PORTATASTO
100
AcDbLine
 62
7
  6
CONTINUOUS
 10
-81.8038610238
 20
-24.4829760304
 11
-78.5525520329
 21
-24.5
  0
LINE
  5
3BE
100
AcDbEntity
  8
PORTATASTO
100
AcDbLine
 62
253
  6
CONTINUOUS
 10
-81.8038610238
 20
-24.2329794573
 11
-78.5525520329
 21
-24.2500034269
  0
LINE
  5
3BF
100
AcDbEntity
  8
PORTATASTO
100
AcDbLine
 62
7
  6
CONTINUOUS
 10
-68.5467343015
 20
-22.2859700255
 11
-79.5525520329
 21
-22.35
  0
LINE
  5
3C0
100
AcDbEntity
  8
PORTATASTO
100
AcDbLine
 62
253
  6
CONTINUOUS
 10
-79.5525520329
 20
-21.850016923
 11
-78.5525520329
 21
-21.8441990932
  0
LINE
  5
3C1
100
AcDbEntity
  8
PORTATASTO
100
AcDbLine
 62
253
  6
CONTINUOUS
 10
-80.8038610238
 20
-23.0783121635
 11
-81.0525520329
 21
-23.0783121635
  0
LINE
  5
3C2
100
AcDbEntity
  8
PORTATASTO
100
AcDbLine
 62
7
  6
CONTINUOUS
 10
-68.0438258297
 20
-21.4537354271
 11
-78.5525520329
 21
-21.4
  0
LINE
  5
3C3
100
AcDbEntity
  8
PORTATASTO
100
AcDbLine
 62
7
  6
CONTINUOUS
 10
-81.0525520329
 20
-21.45
 11
-82.5525520329
 21
-21.4369096983
  0
LINE
  5
3C4
100
AcDbEntity
  8
RACCORDO
100
AcDbLine
 62
7
  6
CONTINUOUS
 10
-87.2090329154
 20
-22.0059641777
 11
-82.5525520329
 21
-22.25
  0
LINE
  5
3C5
100
AcDbEntity
  8
PORTATASTO
100
AcDbLine
 62
7
  6
CONTINUOUS
 10
-81.0525520329
 20
-22.2713883311
 11
-79.5525520329
 21
-22.35
  0
LINE
  5
3C6
100
AcDbEntity
  8
RACCORDO
100
AcDbLine
 62
253
  6
CONTINUOUS
 10
-87.1915911405
 20
-21.5066494103
 11
-82.5525520329
 21
-21.7497711479
  0
LINE
  5
3C7
100
AcDbEntity
  8
PORTATASTO
100
AcDbLine
 62
253
  6
CONTINUOUS
 10
-81.0525520329
 20
-21.771159479
 11
-79.5525520329
 21
-21.8497711479
  0
LINE
  5
3C8
100
AcDbEntity
  8
RACCORDO
100
AcDbLine
 62
253
  6
CONTINUOUS
 10
-88.1384085984
 20
-20.5491593337
 11
-88.6292366273
 21
-20.5697281348
  0
LINE
  5
3C9
100
AcDbEntity
  8
CORPO
100
AcDbLine
 62
7
  6
CONTINUOUS
 10
-71.4525520329
 20
-20.7435241039
 11
-77.5525520329
 21
-20.85
  0
LINE
  5
3CA
100
AcDbEntity
  8
ASSI
100
AcDbLine
 62
7
  6
CONTINUOUS
 10
-71.4525520329
 20
-20.7435241039
 11
-77.5525520329
 21
-20.85
  0
LINE
  5
3CB
100
AcDbEntity
  8
CORPO
100
AcDbLine
 62
7
  6
CONTINUOUS
 10
-47.0350996265
 20
-19.1673158868
 11
-71.4525520329
 21
-19.5935241039
  0
LINE
  5
3CC
100
AcDbEntity
  8
ASSI
100
AcDbLine
 62
7
  6
CONTINUOUS
 10
-47.0350996265
 20
-19.1673158868
 11
-71.4525520329
 21
-19.5935241039
  0
LINE
  5
3CD
100
AcDbEntity
  8
PORTATASTO
100
AcDbLine
 62
7
  6
CONTINUOUS
 10
-67.5525520329
 20
-19.7
 11
-71.4525520329
 21
-19.7
  0
LINE
  5
3CE
100
AcDbEntity
  8
PORTATASTO
100
AcDbLine
 62
7
  6
CONTINUOUS
 10
-77.5525520329
 20
-19.7
 11
-78.5525520329
 21
-19.7
  0
LINE
  5
3CF
100
AcDbEntity
  8
PORTATASTO
100
AcDbLine
 62
7
  6
CONTINUOUS
 10
-78.5525520329
 20
-19.5
 11
-77.5525520329
 21
-19.5
  0
LINE
  5
3D0
100
AcDbEntity
  8
PORTATASTO
100
AcDbLine
 62
7
  6
CONTINUOUS
 10
-67.5525520329
 20
-20.9959955457
 11
-78.5525520329
 21
-20.9
  0
LINE
  5
3D1
100
AcDbEntity
  8
PORTATASTO
100
AcDbLine
 62
7
  6
CONTINUOUS
 10
-82.5525520329
 20
-19.9607211176
 11
-81.0525520329
 21
-20.0
  0
LINE
  5
3D2
100
AcDbEntity
  8
CORPO
100
AcDbLine
 62
253
  6
CONTINUOUS
 10
-47.0350996265
 20
-18.874467277
 11
-71.4525520329
 21
-19.3006754942
  0
LINE
  5
3D3
100
AcDbEntity
  8
ASSI
100
AcDbLine
 62
253
  6
CONTINUOUS
 10
-47.0350996265
 20
-18.874467277
 11
-71.4525520329
 21
-19.3006754942
  0
LINE
  5
3D4
100
AcDbEntity
  8
CORPO
100
AcDbLine
 62
253
  6
CONTINUOUS
 10
-77.5525520329
 20
-19.0856972195
 11
-47.0350996265
 21
-18.8650522354
  0
LINE
  5
3D5
100
AcDbEntity
  8
ASSI
100
AcDbLine
 62
253
  6
CONTINUOUS
 10
-77.5525520329
 20
-19.0856972195
 11
-47.0350996265
 21
-18.8650522354
  0
LINE
  5
3D6
100
AcDbEntity
  8
CORPO
100
AcDbLine
 62
253
  6
CONTINUOUS
 10
-77.5525520329
 20
-17.6716990487
 11
-47.0350996265
 21
-17.4510540646
  0
LINE
  5
3D7
100
AcDbEntity
  8
ASSI
100
AcDbLine
 62
253
  6
CONTINUOUS
 10
-77.5525520329
 20
-17.6716990487
 11
-47.0350996265
 21
-17.4510540646
  0
LINE
  5
3D8
100
AcDbEntity
  8
CORPO
100
AcDbLine
 62
253
  6
CONTINUOUS
 10
-46.0525520329
 20
-17.4510540646
 11
-47.0350996265
 21
-17.4510540642
  0
LINE
  5
3D9
100
AcDbEntity
  8
ASSI
100
AcDbLine
 62
253
  6
CONTINUOUS
 10
-46.0525520329
 20
-17.4510540646
 11
-47.0350996265
 21
-17.4510540642
  0
LINE
  5
3DA
100
AcDbEntity
  8
PORTATASTO
100
AcDbLine
 62
7
  6
CONTINUOUS
 10
-78.5525520329
 20
-18.5587268678
 11
-77.5525520329
 21
-18.5674537356
  0
LINE
  5
3DB
100
AcDbEntity
  8
PORTATASTO
100
AcDbLine
 62
253
  6
CONTINUOUS
 10
-82.5525520329
 20
-18.4612351302
 11
-81.0525520329
 21
-18.5005140125
  0
LINE
  5
3DC
100
AcDbEntity
  8
RACCORDO
100
AcDbLine
 62
7
  6
CONTINUOUS
 10
-82.5525520329
 20
-22.25
 11
-82.5525520329
 21
22.25
  0
LINE
  5
3DD
100
AcDbEntity
  8
CURVE
100
AcDbLine
 62
7
  6
CONTINUOUS
 10
-74.9533449575
 20
14.795394185
 11
-74.6520339704
 21
15.0967051721
  0
LINE
  5
3DE
100
AcDbEntity
  8
CURVE
100
AcDbLine
 62
7
  6
CONTINUOUS
 10
-74.9533449575
 20
14.375372757
 11
-74.0081113782
 21
15.3206063363
  0
LINE
  5
3DF
100
AcDbEntity
  8
CURVE
100
AcDbLine
 62
7
  6
CONTINUOUS
 10
-74.7348348243
 20
14.1738614622
 11
-74.3270770008
 21
14.5816192856
  0
LINE
  5
3E0
100
AcDbEntity
  8
CURVE
100
AcDbLine
 62
7
  6
CONTINUOUS
 10
-74.2563196881
 20
14.6523765984
 11
-73.364188786
 21
15.5445075005
  0
LINE
  5
3E1
100
AcDbEntity
  8
CURVE
100
AcDbLine
 62
253
  6
CONTINUOUS
 10
-72.0542272586
 20
16.0
 11
-74.9533449575
 21
14.991935
  0
LINE
  5
3E2
100
AcDbEntity
  8
CURVE
100
AcDbLine
 62
253
  6
CONTINUOUS
 10
-72.6686790479
 20
15.164584
 11
-72.0542272586
 21
15.373574
  0
LINE
  5
3E3
100
AcDbEntity
  8
CURVE
100
AcDbLine
 62
253
  6
CONTINUOUS
 10
-74.3991897971
 20
14.606449
 11
-73.1504652576
 21
15.007869
  0
LINE
  5
3E4
100
AcDbEntity
  8
PORTATASTO
100
AcDbLine
 62
7
  6
CONTINUOUS
 10
-77.5525520329
 20
-18.1473460386
 11
-79.5525520329
 21
-18.5
  0
LINE
  5
3E5
100
AcDbEntity
  8
CURVE
100
AcDbLine
 62
253
  6
CONTINUOUS
 10
-69.9548668902
 20
-16.0
 11
-68.6552628527
 21
-16.0
  0
LINE
  5
3E6
100
AcDbEntity
  8
CURVE
100
AcDbLine
 62
253
  6
CONTINUOUS
 10
-72.9656855561
 20
-14.790021
 11
-74.9609986255
 21
-14.22041
  0
LINE
  5
3E7
100
AcDbEntity
  8
CURVE
100
AcDbLine
 62
253
  6
CONTINUOUS
 10
-74.9609986255
 20
-13.615552
 11
-72.0622288207
 21
-14.547617
  0
LINE
  5
3E8
100
AcDbEntity
  8
PORTATASTO
100
AcDbLine
 62
7
  6
CONTINUOUS
 10
-82.3525520329
 20
12.6998019735
 11
-82.3525520329
 21
15.3001980265
  0
LINE
  5
3E9
100
AcDbEntity
  8
PORTATASTO
100
AcDbLine
 62
7
  6
CONTINUOUS
 10
-82.3525520329
 20
17.165958302
 11
-82.3525520329
 21
17.9613449281
  0
LINE
  5
3EA
100
AcDbEntity
  8
PORTATASTO
100
AcDbLine
 62
7
  6
CONTINUOUS
 10
-82.0525520329
 20
-24.2329794573
 11
-82.0525520329
 21
-23.9443375673
  0
LINE
  5
3EB
100
AcDbEntity
  8
PORTATASTO
100
AcDbLine
 62
7
  6
CONTINUOUS
 10
-82.0525520329
 20
23.9443375673
 11
-82.0525520329
 21
24.2329794573
  0
LINE
  5
3EC
100
AcDbEntity
  8
PORTATASTO
100
AcDbLine
 62
253
  6
CONTINUOUS
 10
-81.8038610238
 20
-24.2329794573
 11
-81.8038610238
 21
-23.9443375673
  0
LINE
  5
3ED
100
AcDbEntity
  8
PORTATASTO
100
AcDbLine
 62
253
  6
CONTINUOUS
 10
-81.8038610238
 20
23.9443375673
 11
-81.8038610238
 21
24.2329794573
  0
LINE
  5
3EE
100
AcDbEntity
  8
ASSI
100
AcDbLine
 62
7
  6
CONTINUOUS
 10
-81.3025520329
 20
15.3001980265
 11
-81.3025520329
 21
15.1977018539
  0
LINE
  5
3EF
100
AcDbEntity
  8
ASSI
100
AcDbLine
 62
7
  6
CONTINUOUS
 10
-81.3025520329
 20
12.8022936237
 11
-81.3025520329
 21
12.6998019735
  0
LINE
  5
3F0
100
AcDbEntity
  8
PORTATASTO
100
AcDbLine
 62
7
  6
CONTINUOUS
 10
-81.0525520329
 20
-23.0783121635
 11
-81.0525520329
 21
23.0783121635
  0
LINE
  5
3F1
100
AcDbEntity
  8
PORTATASTO
100
AcDbLine
 62
253
  6
CONTINUOUS
 10
-80.8038610238
 20
-23.0783121635
 11
-80.8038610238
 21
-22.2844216746
  0
LINE
  5
3F2
100
AcDbEntity
  8
PORTATASTO
100
AcDbLine
 62
253
  6
CONTINUOUS
 10
-80.8038610238
 20
22.2844216746
 11
-80.8038610238
 21
23.0783121635
  0
LINE
  5
3F3
100
AcDbEntity
  8
CURVE
100
AcDbLine
 62
7
  6
CONTINUOUS
 10
-74.4263680671
 20
14.0623067913
 11
-74.0146349208
 21
14.4740399376
  0
LINE
  5
3F4
100
AcDbEntity
  8
CURVE
100
AcDbLine
 62
7
  6
CONTINUOUS
 10
-73.6373084119
 20
14.8513664465
 11
-72.7202661938
 21
15.7684086647
  0
LINE
  5
3F5
100
AcDbEntity
  8
CURVE
100
AcDbLine
 62
7
  6
CONTINUOUS
 10
-74.11790131
 20
13.9507521204
 11
-73.7021928408
 21
14.3664605896
  0
LINE
  5
3F6
100
AcDbEntity
  8
CURVE
100
AcDbLine
 62
7
  6
CONTINUOUS
 10
-73.1504652576
 20
14.9181881728
 11
-72.0763436015
 21
15.9923098289
  0
LINE
  5
3F7
100
AcDbEntity
  8
CURVE
100
AcDbLine
 62
7
  6
CONTINUOUS
 10
-74.9533449575
 20
12.6952870449
 11
-74.7374340024
 21
12.911198
  0
LINE
  5
3F8
100
AcDbEntity
  8
CURVE
100
AcDbLine
 62
7
  6
CONTINUOUS
 10
-73.8094345528
 20
13.8391974495
 11
-73.3897507608
 21
14.2588812415
  0
LINE
  5
3F9
100
AcDbEntity
  8
CURVE
100
AcDbLine
 62
7
  6
CONTINUOUS
 10
-73.1504652576
 20
14.4981667448
 11
-72.6686790479
 21
14.9799529545
  0
LINE
  5
3FA
100
AcDbEntity
  8
CURVE
100
AcDbLine
 62
7
  6
CONTINUOUS
 10
-72.388882334
 20
15.2597496684
 11
-72.0542272586
 21
15.5944047438
  0
LINE
  5
3FB
100
AcDbEntity
  8
CURVE
100
AcDbLine
 62
7
  6
CONTINUOUS
 10
-74.8998565744
 20
12.328754
 11
-74.3174125744
 21
12.911198
  0
LINE
  5
3FC
100
AcDbEntity
  8
CURVE
100
AcDbLine
 62
7
  6
CONTINUOUS
 10
-73.5009677957
 20
13.7276427787
 11
-72.6686790479
 21
14.5599315265
  0
LINE
  5
3FD
100
AcDbEntity
  8
CURVE
100
AcDbLine
 62
7
  6
CONTINUOUS
 10
-74.4798351463
 20
12.328754
 11
-73.8973911463
 21
12.911198
  0
LINE
  5
3FE
100
AcDbEntity
  8
CURVE
100
AcDbLine
 62
7
  6
CONTINUOUS
 10
-73.1925010386
 20
13.6160881078
 11
-72.6686790479
 21
14.1399100985
  0
LINE
  5
3FF
100
AcDbEntity
  8
CURVE
100
AcDbLine
 62
7
  6
CONTINUOUS
 10
-74.0598137183
 20
12.328754
 11
-73.4773697183
 21
12.911198
  0
LINE
  5
400
100
AcDbEntity
  8
CURVE
100
AcDbLine
 62
7
  6
CONTINUOUS
 10
-72.8840342814
 20
13.5045334369
 11
-72.4499520954
 21
13.9386156229
  0
LINE
  5
401
100
AcDbEntity
  8
CURVE
100
AcDbLine
 62
7
  6
CONTINUOUS
 10
-74.9533449575
 20
11.0152013328
 11
-74.563711775
 21
11.4048345152
  0
LINE
  5
402
100
AcDbEntity
  8
CURVE
100
AcDbLine
 62
7
  6
CONTINUOUS
 10
-73.6397922903
 20
12.328754
 11
-73.0573482903
 21
12.911198
  0
LINE
  5
403
100
AcDbEntity
  8
CURVE
100
AcDbLine
 62
7
  6
CONTINUOUS
 10
-72.5755675243
 20
13.392978766
 11
-72.1395357018
 21
13.8290105885
  0
LINE
  5
404
100
AcDbEntity
  8
CURVE
100
AcDbLine
 62
7
  6
CONTINUOUS
 10
-74.9533449575
 20
10.5951799048
 11
-73.7492587759
 21
11.7992660864
  0
LINE
  5
405
100
AcDbEntity
  8
CURVE
100
AcDbLine
 62
7
  6
CONTINUOUS
 10
-73.2197708623
 20
12.328754
 11
-72.6373268623
 21
12.911198
  0
LINE
  5
406
100
AcDbEntity
  8
CURVE
100
AcDbLine
 62
7
  6
CONTINUOUS
 10
-72.2671007671
 20
13.2814240951
 11
-72.0542272586
 21
13.4942976037
  0
LINE
  5
407
100
AcDbEntity
  8
CURVE
100
AcDbLine
 62
253
  6
CONTINUOUS
 10
-74.9533449575
 20
11.216139
 11
-72.6559309319
 21
12.328754
  0
LINE
  5
408
100
AcDbEntity
  8
CURVE
100
AcDbLine
 62
253
  6
CONTINUOUS
 10
-72.0542272586
 20
12.027546
 11
-74.4805919955
 21
10.87477
  0
LINE
  5
409
100
AcDbEntity
  8
CURVE
100
AcDbLine
 62
253
  6
CONTINUOUS
 10
-74.9609986255
 20
-15.342748
 11
-72.9656855561
 21
-14.790021
  0
LINE
  5
40A
100
AcDbEntity
  8
CURVE
100
AcDbLine
 62
253
  6
CONTINUOUS
 10
-68.6552628527
 20
-14.754264
 11
-69.9548668902
 21
-14.754264
  0
LINE
  5
40B
100
AcDbEntity
  8
CURVE
100
AcDbLine
 62
253
  6
CONTINUOUS
 10
-74.9611725726
 20
-13.390935
 11
-72.0622288207
 21
-13.390935
  0
LINE
  5
40C
100
AcDbEntity
  8
CURVE
100
AcDbLine
 62
253
  6
CONTINUOUS
 10
-69.9548668902
 20
-13.269593
 11
-68.6552628527
 21
-13.269593
  0
LINE
  5
40D
100
AcDbEntity
  8
CURVE
100
AcDbLine
 62
253
  6
CONTINUOUS
 10
-72.0622288207
 20
-12.785664
 11
-74.9611725726
 21
-12.785664
  0
LINE
  5
40E
100
AcDbEntity
  8
CURVE
100
AcDbLine
 62
253
  6
CONTINUOUS
 10
-72.0622288207
 20
-12.459827
 11
-74.9609986255
 21
-12.198005
  0
LINE
  5
40F
100
AcDbEntity
  8
CURVE
100
AcDbLine
 62
253
  6
CONTINUOUS
 10
-69.9548668902
 20
-14.01011
 11
-68.6552628527
 21
-14.580443
  0
LINE
  5
410
100
AcDbEntity
  8
CURVE
100
AcDbLine
 62
253
  6
CONTINUOUS
 10
-69.9548668902
 20
-14.754264
 11
-68.6552628527
 21
-15.377131
  0
LINE
  5
411
100
AcDbEntity
  8
PORTATASTO
100
AcDbLine
 62
7
  6
CONTINUOUS
 10
-79.5525520329
 20
23.2226497308
 11
-79.5525520329
 21
22.35
  0
LINE
  5
412
100
AcDbEntity
  8
PORTATASTO
100
AcDbLine
 62
7
  6
CONTINUOUS
 10
-79.5525520329
 20
21.850016923
 11
-79.5525520329
 21
18.5
  0
LINE
  5
413
100
AcDbEntity
  8
PORTATASTO
100
AcDbLine
 62
7
  6
CONTINUOUS
 10
-79.5525520329
 20
-22.35
 11
-79.5525520329
 21
-23.2226497308
  0
LINE
  5
414
100
AcDbEntity
  8
PORTATASTO
100
AcDbLine
 62
7
  6
CONTINUOUS
 10
-79.5525520329
 20
-21.850016923
 11
-79.5525520329
 21
-18.5
  0
LINE
  5
415
100
AcDbEntity
  8
PORTATASTO
100
AcDbLine
 62
7
  6
CONTINUOUS
 10
-78.5525520329
 20
24.5
 11
-78.5525520329
 21
23.8
  0
LINE
  5
416
100
AcDbEntity
  8
PORTATASTO
100
AcDbLine
 62
7
  6
CONTINUOUS
 10
-78.5525520329
 20
22.3441821702
 11
-78.5525520329
 21
18.5587268678
  0
LINE
  5
417
100
AcDbEntity
  8
PORTATASTO
100
AcDbLine
 62
7
  6
CONTINUOUS
 10
-78.5525520329
 20
-18.5587268678
 11
-78.5525520329
 21
-22.3441821702
  0
LINE
  5
418
100
AcDbEntity
  8
PORTATASTO
100
AcDbLine
 62
7
  6
CONTINUOUS
 10
-78.5525520329
 20
-23.8
 11
-78.5525520329
 21
-24.5
  0
LINE
  5
419
100
AcDbEntity
  8
CURVE
100
AcDbLine
 62
7
  6
CONTINUOUS
 10
-74.8361784342
 20
10.292325
 11
-74.2537334342
 21
10.87477
  0
LINE
  5
41A
100
AcDbEntity
  8
CURVE
100
AcDbLine
 62
7
  6
CONTINUOUS
 10
-74.0483946956
 20
11.0801087387
 11
-72.9348057767
 21
12.1936976576
  0
LINE
  5
41B
100
AcDbEntity
  8
CURVE
100
AcDbLine
 62
7
  6
CONTINUOUS
 10
-72.7997494342
 20
12.328754
 11
-72.2173054342
 21
12.911198
  0
LINE
  5
41C
100
AcDbEntity
  8
CURVE
100
AcDbLine
 62
7
  6
CONTINUOUS
 10
-74.4161570062
 20
10.292325
 11
-73.8337120062
 21
10.87477
  0
LINE
  5
41D
100
AcDbEntity
  8
CURVE
100
AcDbLine
 62
7
  6
CONTINUOUS
 10
-73.2481951082
 20
11.460286898
 11
-72.0542272586
 21
12.6542547476
  0
LINE
  5
41E
100
AcDbEntity
  8
CURVE
100
AcDbLine
 62
7
  6
CONTINUOUS
 10
-73.9961355782
 20
10.292325
 11
-73.4136905782
 21
10.87477
  0
LINE
  5
41F
100
AcDbEntity
  8
CURVE
100
AcDbLine
 62
7
  6
CONTINUOUS
 10
-72.4479955209
 20
11.8404650573
 11
-72.0542272586
 21
12.2342333196
  0
LINE
  5
420
100
AcDbEntity
  8
CURVE
100
AcDbLine
 62
7
  6
CONTINUOUS
 10
-74.9533449575
 20
8.9150941927
 11
-74.8739184082
 21
8.994520742
  0
LINE
  5
421
100
AcDbEntity
  8
CURVE
100
AcDbLine
 62
7
  6
CONTINUOUS
 10
-73.5761141502
 20
10.292325
 11
-72.9936691502
 21
10.87477
  0
LINE
  5
422
100
AcDbEntity
  8
CURVE
100
AcDbLine
 62
7
  6
CONTINUOUS
 10
-74.9533449575
 20
8.4950727647
 11
-74.2299586982
 21
9.2184590239
  0
LINE
  5
423
100
AcDbEntity
  8
CURVE
100
AcDbLine
 62
7
  6
CONTINUOUS
 10
-73.1560927221
 20
10.292325
 11
-72.5736477221
 21
10.87477
  0
LINE
  5
424
100
AcDbEntity
  8
CURVE
100
AcDbLine
 62
7
  6
CONTINUOUS
 10
-74.8411261561
 20
8.187270138
 11
-73.5859989883
 21
9.4423973059
  0
LINE
  5
425
100
AcDbEntity
  8
CURVE
100
AcDbLine
 62
7
  6
CONTINUOUS
 10
-72.7360712941
 20
10.292325
 11
-72.1536262941
 21
10.87477
  0
LINE
  5
426
100
AcDbEntity
  8
CURVE
100
AcDbLine
 62
7
  6
CONTINUOUS
 10
-74.5326508814
 20
8.0757239847
 11
-74.1222988882
 21
8.4860759778
  0
LINE
  5
427
100
AcDbEntity
  8
CURVE
100
AcDbLine
 62
7
  6
CONTINUOUS
 10
-73.8504520263
 20
8.7579228398
 11
-72.9420392783
 21
9.6663355878
  0
LINE
  5
428
100
AcDbEntity
  8
CURVE
100
AcDbLine
 62
7
  6
CONTINUOUS
 10
-72.3160498661
 20
10.292325
 11
-72.0542272586
 21
10.5541476075
  0
LINE
  5
429
100
AcDbEntity
  8
CURVE
100
AcDbLine
 62
253
  6
CONTINUOUS
 10
-65.8114833896
 20
15.6285719872
 11
-65.2544253825
 21
16.0000003815
  0
LINE
  5
42A
100
AcDbEntity
  8
CURVE
100
AcDbLine
 62
253
  6
CONTINUOUS
 10
-66.5542273862
 20
13.3071435928
 11
-65.8114833896
 21
13.6785719872
  0
LINE
  5
42B
100
AcDbEntity
  8
CURVE
100
AcDbLine
 62
253
  6
CONTINUOUS
 10
-72.0542272586
 20
9.975074
 11
-74.9533449575
 21
8.9669
  0
LINE
  5
42C
100
AcDbEntity
  8
CURVE
100
AcDbLine
 62
253
  6
CONTINUOUS
 10
-69.9548668902
 20
-11.953245
 11
-68.6552628527
 21
-11.953245
  0
LINE
  5
42D
100
AcDbEntity
  8
CURVE
100
AcDbLine
 62
253
  6
CONTINUOUS
 10
-73.9550711108
 20
-11.750162
 11
-72.0622288207
 21
-11.880779
  0
LINE
  5
42E
100
AcDbEntity
  8
CURVE
100
AcDbLine
 62
253
  6
CONTINUOUS
 10
-73.3515929781
 20
-10.994355
 11
-74.9609986255
 21
-10.389084
  0
LINE
  5
42F
100
AcDbEntity
  8
CURVE
100
AcDbLine
 62
253
  6
CONTINUOUS
 10
-73.9471805149
 20
-10.235548
 11
-72.0622288207
 21
-10.955216
  0
LINE
  5
430
100
AcDbEntity
  8
CORPO
100
AcDbLine
 62
7
  6
CONTINUOUS
 10
-77.5525520329
 20
20.85
 11
-77.5525520329
 21
19.0856972195
  0
LINE
  5
431
100
AcDbEntity
  8
ASSI
100
AcDbLine
 62
7
  6
CONTINUOUS
 10
-77.5525520329
 20
20.85
 11
-77.5525520329
 21
19.0856972195
  0
LINE
  5
432
100
AcDbEntity
  8
PORTATASTO
100
AcDbLine
 62
7
  6
CONTINUOUS
 10
-77.5525520329
 20
19.5
 11
-77.5525520329
 21
-19.5
  0
LINE
  5
433
100
AcDbEntity
  8
CORPO
100
AcDbLine
 62
7
  6
CONTINUOUS
 10
-77.5525520329
 20
-19.0856972195
 11
-77.5525520329
 21
-20.85
  0
LINE
  5
434
100
AcDbEntity
  8
ASSI
100
AcDbLine
 62
7
  6
CONTINUOUS
 10
-77.5525520329
 20
-19.0856972195
 11
-77.5525520329
 21
-20.85
  0
LINE
  5
435
100
AcDbEntity
  8
CORPO
100
AcDbLine
 62
7
  6
CONTINUOUS
 10
-77.5525520329
 20
-18.2521805692
 11
-77.5525520329
 21
-18.1865176261
  0
LINE
  5
436
100
AcDbEntity
  8
ASSI
100
AcDbLine
 62
7
  6
CONTINUOUS
 10
-77.5525520329
 20
-18.2521805692
 11
-77.5525520329
 21
-18.1865176261
  0
LINE
  5
437
100
AcDbEntity
  8
CORPO
100
AcDbLine
 62
7
  6
CONTINUOUS
 10
-77.5525520329
 20
-18.0618205861
 11
-77.5525520329
 21
18.0618205978
  0
LINE
  5
438
100
AcDbEntity
  8
CORPO
100
AcDbLine
 62
7
  6
CONTINUOUS
 10
-77.5525520329
 20
18.1865176248
 11
-77.5525520329
 21
18.2521805885
  0
LINE
  5
439
100
AcDbEntity
  8
ASSI
100
AcDbLine
 62
7
  6
CONTINUOUS
 10
-77.5525520329
 20
-18.0618205861
 11
-77.5525520329
 21
18.0618205978
  0
LINE
  5
43A
100
AcDbEntity
  8
ASSI
100
AcDbLine
 62
7
  6
CONTINUOUS
 10
-77.5525520329
 20
18.1865176248
 11
-77.5525520329
 21
18.2521805885
  0
LINE
  5
43B
100
AcDbEntity
  8
CURVE
100
AcDbLine
 62
253
  6
CONTINUOUS
 10
-66.5542273862
 20
15.8142868042
 11
-66.3685413967
 21
16.0000003815
  0
LINE
  5
43C
100
AcDbEntity
  8
CURVE
100
AcDbLine
 62
7
  6
CONTINUOUS
 10
-74.2241756066
 20
7.9641778314
 11
-73.8098569104
 21
8.3784965276
  0
LINE
  5
43D
100
AcDbEntity
  8
CURVE
100
AcDbLine
 62
7
  6
CONTINUOUS
 10
-73.2314412644
 20
8.9569121736
 11
-72.2980795683
 21
9.8902738697
  0
LINE
  5
43E
100
AcDbEntity
  8
CURVE
100
AcDbLine
 62
7
  6
CONTINUOUS
 10
-73.9157003318
 20
7.8526316782
 11
-73.4974149326
 21
8.2709170774
  0
LINE
  5
43F
100
AcDbEntity
  8
CURVE
100
AcDbLine
 62
7
  6
CONTINUOUS
 10
-73.1504652576
 20
8.6178667525
 11
-72.6686790479
 21
9.0996529622
  0
LINE
  5
440
100
AcDbEntity
  8
CURVE
100
AcDbLine
 62
7
  6
CONTINUOUS
 10
-72.6082352168
 20
9.1600967932
 11
-72.0542272586
 21
9.7141047514
  0
LINE
  5
441
100
AcDbEntity
  8
CURVE
100
AcDbLine
 62
7
  6
CONTINUOUS
 10
-73.6072250571
 20
7.7410855249
 11
-73.1849729548
 21
8.1633376272
  0
LINE
  5
442
100
AcDbEntity
  8
CURVE
100
AcDbLine
 62
7
  6
CONTINUOUS
 10
-73.1504652576
 20
8.1978453244
 11
-72.6686790479
 21
8.6796315342
  0
LINE
  5
443
100
AcDbEntity
  8
CURVE
100
AcDbLine
 62
7
  6
CONTINUOUS
 10
-73.2987497823
 20
7.6295393717
 11
-72.6686790479
 21
8.2596101061
  0
LINE
  5
444
100
AcDbEntity
  8
CURVE
100
AcDbLine
 62
7
  6
CONTINUOUS
 10
-74.9533449575
 20
5.5549227685
 11
-74.714528726
 21
5.793739
  0
LINE
  5
445
100
AcDbEntity
  8
CURVE
100
AcDbLine
 62
7
  6
CONTINUOUS
 10
-72.9902745076
 20
7.5179932184
 11
-72.5569029571
 21
7.9513647689
  0
LINE
  5
446
100
AcDbEntity
  8
CURVE
100
AcDbLine
 62
7
  6
CONTINUOUS
 10
-74.9171132979
 20
5.171133
 11
-74.2945072979
 21
5.793739
  0
LINE
  5
447
100
AcDbEntity
  8
CURVE
100
AcDbLine
 62
7
  6
CONTINUOUS
 10
-72.6817992328
 20
7.4064470651
 11
-72.2464458617
 21
7.8418004363
  0
LINE
  5
448
100
AcDbEntity
  8
CURVE
100
AcDbLine
 62
7
  6
CONTINUOUS
 10
-74.4970918699
 20
5.171133
 11
-73.8744858699
 21
5.793739
  0
LINE
  5
449
100
AcDbEntity
  8
CURVE
100
AcDbLine
 62
7
  6
CONTINUOUS
 10
-72.373323958
 20
7.2949009119
 11
-72.0542272586
 21
7.6139976113
  0
LINE
  5
44A
100
AcDbEntity
  8
CURVE
100
AcDbLine
 62
253
  6
CONTINUOUS
 10
-66.5542273862
 20
12.19285779
 11
-65.8114833896
 21
12.5642868042
  0
LINE
  5
44B
100
AcDbEntity
  8
CURVE
100
AcDbLine
 62
253
  6
CONTINUOUS
 10
-72.6686790479
 20
9.139549
 11
-72.0542272586
 21
9.348431
  0
LINE
  5
44C
100
AcDbEntity
  8
CURVE
100
AcDbLine
 62
253
  6
CONTINUOUS
 10
-74.3993537471
 20
8.581471
 11
-73.1504652576
 21
8.982943
  0
LINE
  5
44D
100
AcDbEntity
  8
CURVE
100
AcDbLine
 62
253
  6
CONTINUOUS
 10
-74.9609986255
 20
-9.790227
 11
-72.0622288207
 21
-9.519077
  0
LINE
  5
44E
100
AcDbEntity
  8
CURVE
100
AcDbLine
 62
253
  6
CONTINUOUS
 10
-72.0622288207
 20
-10.111193
 11
-73.9471805149
 21
-10.235548
  0
LINE
  5
44F
100
AcDbEntity
  8
CURVE
100
AcDbLine
 62
253
  6
CONTINUOUS
 10
-69.9548668902
 20
-10.145272
 11
-68.6552628527
 21
-10.145272
  0
LINE
  5
450
100
AcDbEntity
  8
CURVE
100
AcDbLine
 62
253
  6
CONTINUOUS
 10
-69.9548668902
 20
-9.756944
 11
-68.6552628527
 21
-9.756944
  0
LINE
  5
451
100
AcDbEntity
  8
CURVE
100
AcDbLine
 62
253
  6
CONTINUOUS
 10
-69.9548668902
 20
-8.724819
 11
-68.6552628527
 21
-8.724819
  0
LINE
  5
452
100
AcDbEntity
  8
CURVE
100
AcDbLine
 62
253
  6
CONTINUOUS
 10
-74.1644903051
 20
-8.233126
 11
-73.0887200701
 21
-8.5345
  0
LINE
  5
453
100
AcDbEntity
  8
CURVE
100
AcDbLine
 62
253
  6
CONTINUOUS
 10
-72.6409265035
 20
-8.658312
 11
-72.0622288207
 21
-8.825329
  0
LINE
  5
454
100
AcDbEntity
  8
CURVE
100
AcDbLine
 62
253
  6
CONTINUOUS
 10
-72.0622288207
 20
-9.424033
 11
-74.9609986255
 21
-8.514517
  0
LINE
  5
455
100
AcDbEntity
  8
CURVE
100
AcDbLine
 62
253
  6
CONTINUOUS
 10
-74.9611725726
 20
-12.785664
 11
-74.9611725726
 21
-13.390935
  0
LINE
  5
456
100
AcDbEntity
  8
CURVE
100
AcDbLine
 62
253
  6
CONTINUOUS
 10
-74.9609986255
 20
-16.00026
 11
-74.9609986255
 21
-15.342748
  0
LINE
  5
457
100
AcDbEntity
  8
CURVE
100
AcDbLine
 62
253
  6
CONTINUOUS
 10
-74.9609986255
 20
-14.22041
 11
-74.9609986255
 21
-13.615552
  0
LINE
  5
458
100
AcDbEntity
  8
CURVE
100
AcDbLine
 62
253
  6
CONTINUOUS
 10
-74.9609986255
 20
-12.198005
 11
-74.9609986255
 21
-11.593234
  0
LINE
  5
459
100
AcDbEntity
  8
CURVE
100
AcDbLine
 62
253
  6
CONTINUOUS
 10
-74.9609986255
 20
-10.389084
 11
-74.9609986255
 21
-9.790227
  0
LINE
  5
45A
100
AcDbEntity
  8
CURVE
100
AcDbLine
 62
253
  6
CONTINUOUS
 10
-74.9609986255
 20
-8.514517
 11
-74.9609986255
 21
-7.92899
  0
LINE
  5
45B
100
AcDbEntity
  8
CURVE
100
AcDbLine
 62
253
  6
CONTINUOUS
 10
-74.9533449575
 20
14.991935
 11
-74.9533449575
 21
14.252884
  0
LINE
  5
45C
100
AcDbEntity
  8
CURVE
100
AcDbLine
 62
253
  6
CONTINUOUS
 10
-74.9533449575
 20
8.9669
 11
-74.9533449575
 21
8.227849
  0
LINE
  5
45D
100
AcDbEntity
  8
CURVE
100
AcDbLine
 62
253
  6
CONTINUOUS
 10
-74.9533449575
 20
3.58822
 11
-74.9533449575
 21
2.70079
  0
LINE
  5
45E
100
AcDbEntity
  8
CURVE
100
AcDbLine
 62
253
  6
CONTINUOUS
 10
-74.9533449575
 20
5.171133
 11
-74.9533449575
 21
5.793739
  0
LINE
  5
45F
100
AcDbEntity
  8
CURVE
100
AcDbLine
 62
253
  6
CONTINUOUS
 10
-74.9533449575
 20
10.292325
 11
-74.9533449575
 21
11.216139
  0
LINE
  5
460
100
AcDbEntity
  8
CURVE
100
AcDbLine
 62
253
  6
CONTINUOUS
 10
-74.9533449575
 20
12.328754
 11
-74.9533449575
 21
12.911198
  0
LINE
  5
461
100
AcDbEntity
  8
CURVE
100
AcDbLine
 62
253
  6
CONTINUOUS
 10
-74.4715587477
 20
3.323396
 11
-74.4715587477
 21
3.686612
  0
LINE
  5
462
100
AcDbEntity
  8
CURVE
100
AcDbLine
 62
7
  6
CONTINUOUS
 10
-74.0770704419
 20
5.171133
 11
-73.4544644419
 21
5.793739
  0
LINE
  5
463
100
AcDbEntity
  8
CURVE
100
AcDbLine
 62
7
  6
CONTINUOUS
 10
-72.5360134683
 20
6.7121899736
 11
-72.3814654419
 21
6.866738
  0
LINE
  5
464
100
AcDbEntity
  8
CURVE
100
AcDbLine
 62
7
  6
CONTINUOUS
 10
-72.0648486833
 20
7.1833547586
 11
-72.0542272586
 21
7.1939761833
  0
LINE
  5
465
100
AcDbEntity
  8
CURVE
100
AcDbLine
 62
7
  6
CONTINUOUS
 10
-74.9381787649
 20
3.8900032489
 11
-74.0472116505
 21
4.7809703633
  0
LINE
  5
466
100
AcDbEntity
  8
CURVE
100
AcDbLine
 62
7
  6
CONTINUOUS
 10
-73.6570490139
 20
5.171133
 11
-73.0344430139
 21
5.793739
  0
LINE
  5
467
100
AcDbEntity
  8
CURVE
100
AcDbLine
 62
7
  6
CONTINUOUS
 10
-72.5360134683
 20
6.2921685455
 11
-72.0542272586
 21
6.7739547553
  0
LINE
  5
468
100
AcDbEntity
  8
CURVE
100
AcDbLine
 62
7
  6
CONTINUOUS
 10
-74.953344838
 20
3.4548157479
 11
-73.6886484601
 21
4.7195121258
  0
LINE
  5
469
100
AcDbEntity
  8
CURVE
100
AcDbLine
 62
7
  6
CONTINUOUS
 10
-73.2370275858
 20
5.171133
 11
-72.6144215858
 21
5.793739
  0
LINE
  5
46A
100
AcDbEntity
  8
CURVE
100
AcDbLine
 62
7
  6
CONTINUOUS
 10
-72.5360134683
 20
5.8721471175
 11
-72.0542272586
 21
6.3539333272
  0
LINE
  5
46B
100
AcDbEntity
  8
CURVE
100
AcDbLine
 62
7
  6
CONTINUOUS
 10
-74.9533449045
 20
3.0347942533
 11
-74.4715587092
 21
3.5165804486
  0
LINE
  5
46C
100
AcDbEntity
  8
CURVE
100
AcDbLine
 62
7
  6
CONTINUOUS
 10
-73.8923035242
 20
4.0958356336
 11
-73.4358224208
 21
4.552316737
  0
LINE
  5
46D
100
AcDbEntity
  8
CURVE
100
AcDbLine
 62
7
  6
CONTINUOUS
 10
-72.8170061578
 20
5.171133
 11
-72.0542272586
 21
5.9339118992
  0
LINE
  5
46E
100
AcDbEntity
  8
CURVE
100
AcDbLine
 62
7
  6
CONTINUOUS
 10
-74.8673277298
 20
2.70079
 11
-74.2447217298
 21
3.323396
  0
LINE
  5
46F
100
AcDbEntity
  8
CURVE
100
AcDbLine
 62
7
  6
CONTINUOUS
 10
-73.6819889912
 20
3.8861287385
 11
-73.2753144269
 21
4.2928033029
  0
LINE
  5
470
100
AcDbEntity
  8
CURVE
100
AcDbLine
 62
7
  6
CONTINUOUS
 10
-72.3969847298
 20
5.171133
 11
-72.0542272586
 21
5.5138904712
  0
LINE
  5
471
100
AcDbEntity
  8
CURVE
100
AcDbLine
 62
253
  6
CONTINUOUS
 10
-66.5542273862
 20
10.6452390671
 11
-66.3685413967
 21
10.8309532642
  0
LINE
  5
472
100
AcDbEntity
  8
CURVE
100
AcDbLine
 62
7
  6
CONTINUOUS
 10
-74.4473063018
 20
2.70079
 11
-73.8247003018
 21
3.323396
  0
LINE
  5
473
100
AcDbEntity
  8
CURVE
100
AcDbLine
 62
7
  6
CONTINUOUS
 10
-73.6524353177
 20
3.4956609841
 11
-73.1932975406
 21
3.9547987611
  0
LINE
  5
474
100
AcDbEntity
  8
CURVE
100
AcDbLine
 62
7
  6
CONTINUOUS
 10
-74.0272848737
 20
2.70079
 11
-73.170649108
 21
3.5574257658
  0
LINE
  5
475
100
AcDbEntity
  8
CURVE
100
AcDbLine
 62
253
  6
CONTINUOUS
 10
-66.5542273862
 20
7.1476200342
 11
-65.2544253825
 21
7.5190484285
  0
LINE
  5
476
100
AcDbEntity
  8
CURVE
100
AcDbLine
 62
253
  6
CONTINUOUS
 10
-73.0887200701
 20
-7.954996
 11
-74.1644903051
 21
-8.233126
  0
LINE
  5
477
100
AcDbEntity
  8
CURVE
100
AcDbLine
 62
253
  6
CONTINUOUS
 10
-69.9548668902
 20
-7.831288
 11
-68.6552628527
 21
-7.831288
  0
LINE
  5
478
100
AcDbEntity
  8
CURVE
100
AcDbLine
 62
253
  6
CONTINUOUS
 10
-68.6552628527
 20
-7.027348
 11
-69.9548668902
 21
-7.027348
  0
LINE
  5
479
100
AcDbEntity
  8
CURVE
100
AcDbLine
 62
253
  6
CONTINUOUS
 10
-74.9271312916
 20
-6.8615673444
 11
-72.0622284685
 21
-6.8615673444
  0
LINE
  5
47A
100
AcDbEntity
  8
CURVE
100
AcDbLine
 62
253
  6
CONTINUOUS
 10
-73.6713954421
 20
-6.2788012718
 11
-74.4671643449
 21
-6.2788012718
  0
LINE
  5
47B
100
AcDbEntity
  8
CURVE
100
AcDbLine
 62
253
  6
CONTINUOUS
 10
-72.0622284685
 20
-6.2587313832
 11
-73.1966469489
 21
-6.2587313832
  0
LINE
  5
47C
100
AcDbEntity
  8
CURVE
100
AcDbLine
 62
253
  6
CONTINUOUS
 10
-69.9548668902
 20
-5.860387
 11
-68.6552628527
 21
-6.430721
  0
LINE
  5
47D
100
AcDbEntity
  8
PORTATASTO
100
AcDbLine
 62
253
  6
CONTINUOUS
 10
-71.9667249779
 20
-23.7585444086
 11
-71.973046678
 21
-22.3059037278
  0
LINE
  5
47E
100
AcDbEntity
  8
CURVE
100
AcDbLine
 62
253
  6
CONTINUOUS
 10
-73.6713954421
 20
-5.9328946758
 11
-73.6713954421
 21
-6.2788012718
  0
LINE
  5
47F
100
AcDbEntity
  8
CURVE
100
AcDbLine
 62
253
  6
CONTINUOUS
 10
-73.6524353177
 20
3.323396
 11
-73.6524353177
 21
3.686612
  0
LINE
  5
480
100
AcDbEntity
  8
CURVE
100
AcDbLine
 62
253
  6
CONTINUOUS
 10
-73.1966469489
 20
-6.2587313832
 11
-73.1966469489
 21
-5.9341993273
  0
LINE
  5
481
100
AcDbEntity
  8
CURVE
100
AcDbLine
 62
253
  6
CONTINUOUS
 10
-73.170649108
 20
3.58822
 11
-73.170649108
 21
3.323396
  0
LINE
  5
482
100
AcDbEntity
  8
CURVE
100
AcDbLine
 62
253
  6
CONTINUOUS
 10
-73.1504652576
 20
15.007869
 11
-73.1504652576
 21
14.176491
  0
LINE
  5
483
100
AcDbEntity
  8
CURVE
100
AcDbLine
 62
253
  6
CONTINUOUS
 10
-73.1504652576
 20
8.982943
 11
-73.1504652576
 21
8.151456
  0
LINE
  5
484
100
AcDbEntity
  8
CURVE
100
AcDbLine
 62
253
  6
CONTINUOUS
 10
-73.0887200701
 20
-8.5345
 11
-73.0887200701
 21
-7.954996
  0
LINE
  5
485
100
AcDbEntity
  8
CURVE
100
AcDbLine
 62
253
  6
CONTINUOUS
 10
-72.6686790479
 20
7.990812
 11
-72.6686790479
 21
9.139549
  0
LINE
  5
486
100
AcDbEntity
  8
CURVE
100
AcDbLine
 62
253
  6
CONTINUOUS
 10
-72.6686790479
 20
14.015846
 11
-72.6686790479
 21
15.164584
  0
LINE
  5
487
100
AcDbEntity
  8
CURVE
100
AcDbLine
 62
253
  6
CONTINUOUS
 10
-72.6409265035
 20
-7.834033
 11
-72.6409265035
 21
-8.658312
  0
LINE
  5
488
100
AcDbEntity
  8
CURVE
100
AcDbLine
 62
253
  6
CONTINUOUS
 10
-72.5360134683
 20
5.793739
 11
-72.5360134683
 21
6.866738
  0
LINE
  5
489
100
AcDbEntity
  8
CURVE
100
AcDbLine
 62
253
  6
CONTINUOUS
 10
-72.0622288207
 20
-7.039304
 11
-72.0622288207
 21
-7.677235
  0
LINE
  5
48A
100
AcDbEntity
  8
CURVE
100
AcDbLine
 62
253
  6
CONTINUOUS
 10
-72.0622288207
 20
-8.825329
 11
-72.0622288207
 21
-9.424033
  0
LINE
  5
48B
100
AcDbEntity
  8
CURVE
100
AcDbLine
 62
253
  6
CONTINUOUS
 10
-72.0622288207
 20
-9.519077
 11
-72.0622288207
 21
-10.111193
  0
LINE
  5
48C
100
AcDbEntity
  8
CURVE
100
AcDbLine
 62
253
  6
CONTINUOUS
 10
-72.0622288207
 20
-10.955216
 11
-72.0622288207
 21
-11.040105
  0
LINE
  5
48D
100
AcDbEntity
  8
CURVE
100
AcDbLine
 62
253
  6
CONTINUOUS
 10
-72.0622288207
 20
-11.880779
 11
-72.0622288207
 21
-12.459827
  0
LINE
  5
48E
100
AcDbEntity
  8
CURVE
100
AcDbLine
 62
253
  6
CONTINUOUS
 10
-72.0622288207
 20
-14.547617
 11
-72.0622288207
 21
-15.081013
  0
LINE
  5
48F
100
AcDbEntity
  8
CURVE
100
AcDbLine
 62
253
  6
CONTINUOUS
 10
-72.0622288207
 20
-13.390935
 11
-72.0622288207
 21
-12.785664
  0
LINE
  5
490
100
AcDbEntity
  8
CURVE
100
AcDbLine
 62
253
  6
CONTINUOUS
 10
-72.0622284685
 20
-6.8615673444
 11
-72.0622284685
 21
-6.2587313832
  0
LINE
  5
491
100
AcDbEntity
  8
CURVE
100
AcDbLine
 62
253
  6
CONTINUOUS
 10
-72.0622284685
 20
-5.3318417383
 11
-72.0622284685
 21
-4.7496410148
  0
LINE
  5
492
100
AcDbEntity
  8
CURVE
100
AcDbLine
 62
253
  6
CONTINUOUS
 10
-72.0542272586
 20
12.911198
 11
-72.0542272586
 21
12.027546
  0
LINE
  5
493
100
AcDbEntity
  8
CURVE
100
AcDbLine
 62
253
  6
CONTINUOUS
 10
-72.0542272586
 20
10.87477
 11
-72.0542272586
 21
10.292325
  0
LINE
  5
494
100
AcDbEntity
  8
CURVE
100
AcDbLine
 62
253
  6
CONTINUOUS
 10
-72.0542272586
 20
6.866738
 11
-72.0542272586
 21
5.171133
  0
LINE
  5
495
100
AcDbEntity
  8
CURVE
100
AcDbLine
 62
253
  6
CONTINUOUS
 10
-72.0542272586
 20
2.70079
 11
-72.0542272586
 21
3.323396
  0
LINE
  5
496
100
AcDbEntity
  8
CURVE
100
AcDbLine
 62
253
  6
CONTINUOUS
 10
-72.0542272586
 20
7.179514
 11
-72.0542272586
 21
7.773964
  0
LINE
  5
497
100
AcDbEntity
  8
CURVE
100
AcDbLine
 62
253
  6
CONTINUOUS
 10
-72.0542272586
 20
9.348431
 11
-72.0542272586
 21
9.975074
  0
LINE
  5
498
100
AcDbEntity
  8
CURVE
100
AcDbLine
 62
253
  6
CONTINUOUS
 10
-72.0542272586
 20
13.20444
 11
-72.0542272586
 21
13.798889
  0
LINE
  5
499
100
AcDbEntity
  8
CURVE
100
AcDbLine
 62
253
  6
CONTINUOUS
 10
-72.0542272586
 20
15.373574
 11
-72.0542272586
 21
16.0
  0
LINE
  5
49A
100
AcDbEntity
  8
PORTATASTO
100
AcDbLine
 62
7
  6
CONTINUOUS
 10
-72.0525520329
 20
23.4906890903
 11
-72.0525520329
 21
22.8093109097
  0
LINE
  5
49B
100
AcDbEntity
  8
PORTATASTO
100
AcDbLine
 62
7
  6
CONTINUOUS
 10
-72.0525520329
 20
-22.8093109097
 11
-72.0525520329
 21
-23.4906890903
  0
LINE
  5
49C
100
AcDbEntity
  8
PORTATASTO
100
AcDbLine
 62
253
  6
CONTINUOUS
 10
-71.973046678
 20
22.3059037278
 11
-71.9667249779
 21
23.7585444086
  0
LINE
  5
49D
100
AcDbEntity
  8
CURVE
100
AcDbLine
 62
7
  6
CONTINUOUS
 10
-73.6072634457
 20
2.70079
 11
-72.9846574457
 21
3.323396
  0
LINE
  5
49E
100
AcDbEntity
  8
CURVE
100
AcDbLine
 62
7
  6
CONTINUOUS
 10
-73.1872420177
 20
2.70079
 11
-72.5646360177
 21
3.323396
  0
LINE
  5
49F
100
AcDbEntity
  8
CURVE
100
AcDbLine
 62
7
  6
CONTINUOUS
 10
-72.7672205897
 20
2.70079
 11
-72.1446145897
 21
3.323396
  0
LINE
  5
4A0
100
AcDbEntity
  8
CURVE
100
AcDbLine
 62
7
  6
CONTINUOUS
 10
-72.3471991616
 20
2.70079
 11
-72.0542272586
 21
2.993761903
  0
LINE
  5
4A1
100
AcDbEntity
  8
CURVE
100
AcDbLine
 62
253
  6
CONTINUOUS
 10
-66.5542273862
 20
6.4047627807
 11
-65.2544253825
 21
6.77619133
  0
LINE
  5
4A2
100
AcDbEntity
  8
CURVE
100
AcDbLine
 62
253
  6
CONTINUOUS
 10
-72.0622288207
 20
-7.677235
 11
-72.6409265035
 21
-7.834033
  0
LINE
  5
4A3
100
AcDbEntity
  8
CURVE
100
AcDbLine
 62
253
  6
CONTINUOUS
 10
-73.4153486243
 20
-5.30544429
 11
-73.4324778282
 21
-5.30544429
  0
LINE
  5
4A4
100
AcDbEntity
  8
CURVE
100
AcDbLine
 62
253
  6
CONTINUOUS
 10
-69.9548668902
 20
-5.041082
 11
-68.6552628527
 21
-5.041082
  0
LINE
  5
4A5
100
AcDbEntity
  8
PORTATASTO
100
AcDbLine
 62
7
  6
CONTINUOUS
 10
-71.5525520329
 20
-23.2659657686
 11
-71.5525520329
 21
-22.3034573615
  0
LINE
  5
4A6
100
AcDbEntity
  8
PORTATASTO
100
AcDbLine
 62
7
  6
CONTINUOUS
 10
-71.5525520329
 20
22.3034573615
 11
-71.5525520329
 21
23.2659657686
  0
LINE
  5
4A7
100
AcDbEntity
  8
CORPO
100
AcDbLine
 62
7
  6
CONTINUOUS
 10
-71.4525520329
 20
-20.7435241039
 11
-71.4525520329
 21
-19.3006754942
  0
LINE
  5
4A8
100
AcDbEntity
  8
ASSI
100
AcDbLine
 62
7
  6
CONTINUOUS
 10
-71.4525520329
 20
-20.7435241039
 11
-71.4525520329
 21
-19.3006754942
  0
LINE
  5
4A9
100
AcDbEntity
  8
CORPO
100
AcDbLine
 62
7
  6
CONTINUOUS
 10
-71.4525520329
 20
19.3006754942
 11
-71.4525520329
 21
20.7435241039
  0
LINE
  5
4AA
100
AcDbEntity
  8
ASSI
100
AcDbLine
 62
7
  6
CONTINUOUS
 10
-71.4525520329
 20
19.3006754942
 11
-71.4525520329
 21
20.7435241039
  0
LINE
  5
4AB
100
AcDbEntity
  8
CURVE
100
AcDbLine
 62
253
  6
CONTINUOUS
 10
-69.9548668902
 20
-11.006258
 11
-69.9548668902
 21
-11.953245
  0
LINE
  5
4AC
100
AcDbEntity
  8
CURVE
100
AcDbLine
 62
253
  6
CONTINUOUS
 10
-69.9548668902
 20
-12.839757
 11
-69.9548668902
 21
-13.269593
  0
LINE
  5
4AD
100
AcDbEntity
  8
CURVE
100
AcDbLine
 62
253
  6
CONTINUOUS
 10
-69.9548668902
 20
-7.555145
 11
-69.9548668902
 21
-6.499553
  0
LINE
  5
4AE
100
AcDbEntity
  8
CURVE
100
AcDbLine
 62
253
  6
CONTINUOUS
 10
-66.5542273862
 20
4.7333341926
 11
-66.4613843527
 21
4.82619133
  0
LINE
  5
4AF
100
AcDbEntity
  8
CURVE
100
AcDbLine
 62
253
  6
CONTINUOUS
 10
-68.6552628527
 20
-3.656396
 11
-69.158144635
 21
-3.656396
  0
LINE
  5
4B0
100
AcDbEntity
  8
CURVE
100
AcDbLine
 62
253
  6
CONTINUOUS
 10
-69.158144635
 20
-3.656396
 11
-69.9548668902
 21
-3.180657
  0
LINE
  5
4B1
100
AcDbEntity
  8
CURVE
100
AcDbLine
 62
253
  6
CONTINUOUS
 10
-69.3050648714
 20
-11.953245
 11
-69.3050648714
 21
-11.072654
  0
LINE
  5
4B2
100
AcDbEntity
  8
CURVE
100
AcDbLine
 62
253
  6
CONTINUOUS
 10
-69.1269601363
 20
-6.223716
 11
-69.1269601363
 21
-5.497059
  0
LINE
  5
4B3
100
AcDbEntity
  8
CURVE
100
AcDbLine
 62
253
  6
CONTINUOUS
 10
-69.1195214027
 20
-14.376702
 11
-69.1195214027
 21
-13.643517
  0
LINE
  5
4B4
100
AcDbEntity
  8
CURVE
100
AcDbLine
 62
253
  6
CONTINUOUS
 10
-68.6714693409
 20
14.9142850161
 11
-68.6714693409
 21
13.9642850161
  0
LINE
  5
4B5
100
AcDbEntity
  8
CURVE
100
AcDbLine
 62
253
  6
CONTINUOUS
 10
-68.6714693409
 20
12.3357134581
 11
-68.6714693409
 21
11.3857135713
  0
LINE
  5
4B6
100
AcDbEntity
  8
CURVE
100
AcDbLine
 62
253
  6
CONTINUOUS
 10
-68.6552628527
 20
-13.269593
 11
-68.6552628527
 21
-12.839757
  0
LINE
  5
4B7
100
AcDbEntity
  8
CURVE
100
AcDbLine
 62
253
  6
CONTINUOUS
 10
-68.6552628527
 20
-11.953245
 11
-68.6552628527
 21
-10.993568
  0
LINE
  5
4B8
100
AcDbEntity
  8
CURVE
100
AcDbLine
 62
253
  6
CONTINUOUS
 10
-68.6552628527
 20
-5.041082
 11
-68.6552628527
 21
-4.294148
  0
LINE
  5
4B9
100
AcDbEntity
  8
PORTATASTO
100
AcDbLine
 62
253
  6
CONTINUOUS
 10
-68.0438258297
 20
-21.4537354271
 11
-68.0438258297
 21
-20.9917082642
  0
LINE
  5
4BA
100
AcDbEntity
  8
PORTATASTO
100
AcDbLine
 62
253
  6
CONTINUOUS
 10
-68.0438258297
 20
20.9917082642
 11
-68.0438258297
 21
21.4537354271
  0
LINE
  5
4BB
100
AcDbEntity
  8
CORPO
100
AcDbLine
 62
7
  6
CONTINUOUS
 10
-67.5525520329
 20
19.7
 11
-67.5525520329
 21
19.5254493507
  0
LINE
  5
4BC
100
AcDbEntity
  8
ASSI
100
AcDbLine
 62
7
  6
CONTINUOUS
 10
-67.5525520329
 20
19.7
 11
-67.5525520329
 21
19.5254493507
  0
LINE
  5
4BD
100
AcDbEntity
  8
PORTATASTO
100
AcDbLine
 62
7
  6
CONTINUOUS
 10
-67.5525520329
 20
-19.7
 11
-67.5525520329
 21
-21.2859869487
  0
LINE
  5
4BE
100
AcDbEntity
  8
CORPO
100
AcDbLine
 62
7
  6
CONTINUOUS
 10
-67.5525520329
 20
-19.5254493507
 11
-67.5525520329
 21
-19.7
  0
LINE
  5
4BF
100
AcDbEntity
  8
ASSI
100
AcDbLine
 62
7
  6
CONTINUOUS
 10
-67.5525520329
 20
-19.5254493507
 11
-67.5525520329
 21
-19.7
  0
LINE
  5
4C0
100
AcDbEntity
  8
PORTATASTO
100
AcDbLine
 62
7
  6
CONTINUOUS
 10
-67.5525520329
 20
19.7
 11
-67.5525520329
 21
21.2859869487
  0
LINE
  5
4C1
100
AcDbEntity
  8
CURVE
100
AcDbLine
 62
253
  6
CONTINUOUS
 10
-65.6257974001
 20
4.82619133
 11
-66.1828554072
 21
4.17619133
  0
LINE
  5
4C2
100
AcDbEntity
  8
CURVE
100
AcDbLine
 62
253
  6
CONTINUOUS
 10
-65.3472683869
 20
4.17619133
 11
-65.2544253825
 21
4.269048477
  0
LINE
  5
4C3
100
AcDbEntity
  8
CURVE
100
AcDbLine
 62
253
  6
CONTINUOUS
 10
-66.5542273862
 20
4.361905624
 11
-66.5542273862
 21
4.7333341926
  0
LINE
  5
4C4
100
AcDbEntity
  8
CURVE
100
AcDbLine
 62
253
  6
CONTINUOUS
 10
-66.5542273862
 20
8.2309532642
 11
-66.5542273862
 21
8.7880961657
  0
LINE
  5
4C5
100
AcDbEntity
  8
CURVE
100
AcDbLine
 62
253
  6
CONTINUOUS
 10
-66.5542273862
 20
10.1809532642
 11
-66.5542273862
 21
10.6452390671
  0
LINE
  5
4C6
100
AcDbEntity
  8
CURVE
100
AcDbLine
 62
253
  6
CONTINUOUS
 10
-66.5542273862
 20
14.4214293957
 11
-66.5542273862
 21
14.9785719872
  0
LINE
  5
4C7
100
AcDbEntity
  8
CURVE
100
AcDbLine
 62
253
  6
CONTINUOUS
 10
-66.5542273862
 20
15.3500003815
 11
-66.5542273862
 21
15.8142868042
  0
LINE
  5
4C8
100
AcDbEntity
  8
CURVE
100
AcDbLine
 62
253
  6
CONTINUOUS
 10
-65.9971694178
 20
14.7928584099
 11
-65.9971694178
 21
14.4214293957
  0
LINE
  5
4C9
100
AcDbEntity
  8
CURVE
100
AcDbLine
 62
253
  6
CONTINUOUS
 10
-65.9971694178
 20
8.6023816586
 11
-65.9971694178
 21
8.2309532642
  0
LINE
  5
4CA
100
AcDbEntity
  8
CURVE
100
AcDbLine
 62
253
  6
CONTINUOUS
 10
-65.8114833896
 20
15.8142868042
 11
-65.8114833896
 21
15.3500003815
  0
LINE
  5
4CB
100
AcDbEntity
  8
CURVE
100
AcDbLine
 62
253
  6
CONTINUOUS
 10
-65.6257974001
 20
6.1571437478
 11
-65.6257974001
 21
6.6523818135
  0
LINE
  5
4CC
100
AcDbEntity
  8
CURVE
100
AcDbLine
 62
253
  6
CONTINUOUS
 10
-65.2544253825
 20
10.6452390671
 11
-65.2544253825
 21
10.1809532642
  0
LINE
  5
4CD
100
AcDbEntity
  8
CURVE
100
AcDbLine
 62
253
  6
CONTINUOUS
 10
-65.2544253825
 20
4.269048477
 11
-65.2544253825
 21
4.6404770553
  0
LINE
  5
4CE
100
AcDbEntity
  8
CURVE
100
AcDbLine
 62
253
  6
CONTINUOUS
 10
-65.2544253825
 20
5.1976198792
 11
-65.2544253825
 21
5.6619056821
  0
LINE
  5
4CF
100
AcDbEntity
  8
CURVE
100
AcDbLine
 62
253
  6
CONTINUOUS
 10
-65.2544253825
 20
8.2309532642
 11
-65.2544253825
 21
8.7880961657
  0
LINE
  5
4D0
100
AcDbEntity
  8
CURVE
100
AcDbLine
 62
253
  6
CONTINUOUS
 10
-65.2544253825
 20
14.4214293957
 11
-65.2544253825
 21
14.9785719872
  0
LINE
  5
4D1
100
AcDbEntity
  8
CURVE
100
AcDbLine
 62
253
  6
CONTINUOUS
 10
-69.9548668902
 20
-4.132134
 11
-69.158144635
 21
-3.656396
  0
LINE
  5
4D2
100
AcDbEntity
  8
CURVE
100
AcDbLine
 62
253
  6
CONTINUOUS
 10
-68.6552628527
 20
-5.290054
 11
-69.9548668902
 21
-5.860387
  0
LINE
  5
4D3
100
AcDbEntity
  8
CURVE
100
AcDbLine
 62
253
  6
CONTINUOUS
 10
-74.9533449575
 20
2.70079
 11
-72.0542272586
 21
2.70079
  0
LINE
  5
4D4
100
AcDbEntity
  8
CURVE
100
AcDbLine
 62
253
  6
CONTINUOUS
 10
-72.0542272586
 20
3.323396
 11
-73.170649108
 21
3.323396
  0
LINE
  5
4D5
100
AcDbEntity
  8
CURVE
100
AcDbLine
 62
253
  6
CONTINUOUS
 10
-73.6524353177
 20
3.323396
 11
-74.4715587477
 21
3.323396
  0
LINE
  5
4D6
100
AcDbEntity
  8
CURVE
100
AcDbLine
 62
253
  6
CONTINUOUS
 10
-66.1828554072
 20
4.17619133
 11
-66.3685413967
 21
4.17619133
  0
LINE
  5
4D7
100
AcDbEntity
  8
CURVE
100
AcDbLine
 62
253
  6
CONTINUOUS
 10
-66.3685413967
 20
4.17619133
 11
-66.5542273862
 21
4.361905624
  0
LINE
  5
4D8
100
AcDbEntity
  8
CURVE
100
AcDbLine
 62
253
  6
CONTINUOUS
 10
-68.6552628527
 20
-8.724819
 11
-69.9548668902
 21
-9.756944
  0
LINE
  5
4D9
100
AcDbEntity
  8
CURVE
100
AcDbLine
 62
253
  6
CONTINUOUS
 10
-74.9609986255
 20
-7.92899
 11
-72.0622288207
 21
-7.039304
  0
LINE
  5
4DA
100
AcDbEntity
  8
CURVE
100
AcDbLine
 62
253
  6
CONTINUOUS
 10
-65.4401113913
 20
4.82619133
 11
-65.6257974001
 21
4.82619133
  0
LINE
  5
4DB
100
AcDbEntity
  8
CURVE
100
AcDbLine
 62
253
  6
CONTINUOUS
 10
-72.0542272586
 20
5.171133
 11
-74.9533449575
 21
5.171133
  0
LINE
  5
4DC
100
AcDbEntity
  8
CURVE
100
AcDbLine
 62
253
  6
CONTINUOUS
 10
-66.5542273862
 20
5.1976198792
 11
-65.2544253825
 21
5.1976198792
  0
LINE
  5
4DD
100
AcDbEntity
  8
CURVE
100
AcDbLine
 62
253
  6
CONTINUOUS
 10
-74.9533449575
 20
5.793739
 11
-72.5360134683
 21
5.793739
  0
LINE
  5
4DE
100
AcDbEntity
  8
CURVE
100
AcDbLine
 62
253
  6
CONTINUOUS
 10
-65.2544253825
 20
6.0333342314
 11
-66.5542273862
 21
6.4047627807
  0
LINE
  5
4DF
100
AcDbEntity
  8
CURVE
100
AcDbLine
 62
253
  6
CONTINUOUS
 10
-73.1504652576
 20
8.151456
 11
-74.3993537471
 21
8.581471
  0
LINE
  5
4E0
100
AcDbEntity
  8
CURVE
100
AcDbLine
 62
253
  6
CONTINUOUS
 10
-72.0542272586
 20
7.773964
 11
-72.6686790479
 21
7.990812
  0
LINE
  5
4E1
100
AcDbEntity
  8
CURVE
100
AcDbLine
 62
253
  6
CONTINUOUS
 10
-74.9533449575
 20
8.227849
 11
-72.0542272586
 21
7.179514
  0
LINE
  5
4E2
100
AcDbEntity
  8
CURVE
100
AcDbLine
 62
253
  6
CONTINUOUS
 10
-65.2544253825
 20
4.6404770553
 11
-65.4401113913
 21
4.82619133
  0
LINE
  5
4E3
100
AcDbEntity
  8
CURVE
100
AcDbLine
 62
253
  6
CONTINUOUS
 10
-69.6213246797
 20
10.2999992371
 11
-70.1640991104
 21
10.8428564042
  0
LINE
  5
4E4
100
AcDbEntity
  8
CORPO
100
AcDbLine
 62
7
  6
CONTINUOUS
 10
-58.5525520329
 20
19.0755051566
 11
-58.5525520329
 21
19.3683537664
  0
LINE
  5
4E5
100
AcDbEntity
  8
ASSI
100
AcDbLine
 62
7
  6
CONTINUOUS
 10
-58.5525520329
 20
19.0755051566
 11
-58.5525520329
 21
19.3683537664
  0
LINE
  5
4E6
100
AcDbEntity
  8
CURVE
100
AcDbLine
 62
253
  6
CONTINUOUS
 10
-72.0622288207
 20
-11.040105
 11
-73.9550711108
 21
-11.750162
  0
LINE
  5
4E7
100
AcDbEntity
  8
CURVE
100
AcDbLine
 62
253
  6
CONTINUOUS
 10
-74.9609986255
 20
-11.593234
 11
-73.3515929781
 21
-10.994355
  0
LINE
  5
4E8
100
AcDbEntity
  8
CURVE
100
AcDbLine
 62
253
  6
CONTINUOUS
 10
-72.5360134683
 20
6.866738
 11
-72.0542272586
 21
6.866738
  0
LINE
  5
4E9
100
AcDbEntity
  8
CURVE
100
AcDbLine
 62
253
  6
CONTINUOUS
 10
-65.2544253825
 20
8.2309532642
 11
-66.5542273862
 21
8.2309532642
  0
LINE
  5
4EA
100
AcDbEntity
  8
CURVE
100
AcDbLine
 62
253
  6
CONTINUOUS
 10
-65.2544253825
 20
7.5190484285
 11
-66.5542273862
 21
7.8904771328
  0
LINE
  5
4EB
100
AcDbEntity
  8
CURVE
100
AcDbLine
 62
253
  6
CONTINUOUS
 10
-69.6213246797
 20
12.8785705686
 11
-70.1640991104
 21
13.4214279056
  0
LINE
  5
4EC
100
AcDbEntity
  8
CURVE
100
AcDbLine
 62
253
  6
CONTINUOUS
 10
-65.2544253825
 20
10.1809532642
 11
-66.5542273862
 21
10.1809532642
  0
LINE
  5
4ED
100
AcDbEntity
  8
CURVE
100
AcDbLine
 62
253
  6
CONTINUOUS
 10
-72.0542272586
 20
10.292325
 11
-74.9533449575
 21
10.292325
  0
LINE
  5
4EE
100
AcDbEntity
  8
CURVE
100
AcDbLine
 62
253
  6
CONTINUOUS
 10
-66.3685413967
 20
10.8309532642
 11
-65.4401113913
 21
10.8309532642
  0
LINE
  5
4EF
100
AcDbEntity
  8
CURVE
100
AcDbLine
 62
253
  6
CONTINUOUS
 10
-70.1640991104
 20
10.8428564042
 11
-68.2643884896
 21
10.8428564042
  0
LINE
  5
4F0
100
AcDbEntity
  8
CURVE
100
AcDbLine
 62
253
  6
CONTINUOUS
 10
-74.4805919955
 20
10.87477
 11
-72.0542272586
 21
10.87477
  0
LINE
  5
4F1
100
AcDbEntity
  8
CURVE
100
AcDbLine
 62
253
  6
CONTINUOUS
 10
-68.6714693409
 20
11.3857135713
 11
-70.1640991104
 21
11.7928563476
  0
LINE
  5
4F2
100
AcDbEntity
  8
CURVE
100
AcDbLine
 62
253
  6
CONTINUOUS
 10
-74.9533449575
 20
14.252884
 11
-72.0542272586
 21
13.20444
  0
LINE
  5
4F3
100
AcDbEntity
  8
CURVE
100
AcDbLine
 62
253
  6
CONTINUOUS
 10
-65.4401113913
 20
10.8309532642
 11
-65.2544253825
 21
10.6452390671
  0
LINE
  5
4F4
100
AcDbEntity
  8
CURVE
100
AcDbLine
 62
253
  6
CONTINUOUS
 10
-69.6213246797
 20
15.4571419001
 11
-70.1640991104
 21
15.9999992371
  0
LINE
  5
4F5
100
AcDbEntity
  8
CORPO
100
AcDbLine
 62
7
  6
CONTINUOUS
 10
-55.6525520329
 20
16.3706876291
 11
-55.6525520329
 21
19.1093943488
  0
LINE
  5
4F6
100
AcDbEntity
  8
ASSI
100
AcDbLine
 62
7
  6
CONTINUOUS
 10
-55.6525520329
 20
16.3706876291
 11
-55.6525520329
 21
19.1093943488
  0
LINE
  5
4F7
100
AcDbEntity
  8
RACCORDO
100
AcDbLine
 62
7
  6
CONTINUOUS
 10
-54.1891337365
 20
18.6875844655
 11
-54.2090971837
 21
16.4
  0
LINE
  5
4F8
100
AcDbEntity
  8
CURVE
100
AcDbLine
 62
253
  6
CONTINUOUS
 10
-68.6552628527
 20
-13.439776
 11
-69.9548668902
 21
-14.01011
  0
LINE
  5
4F9
100
AcDbEntity
  8
CURVE
100
AcDbLine
 62
253
  6
CONTINUOUS
 10
-72.0622288207
 20
-15.081013
 11
-74.9609986255
 21
-16.00026
  0
LINE
  5
4FA
100
AcDbEntity
  8
CURVE
100
AcDbLine
 62
253
  6
CONTINUOUS
 10
-65.2544253825
 20
11.6047629356
 11
-66.5542273862
 21
11.6047629356
  0
LINE
  5
4FB
100
AcDbEntity
  8
CURVE
100
AcDbLine
 62
253
  6
CONTINUOUS
 10
-68.2643884896
 20
12.0190468669
 11
-69.2142438
 21
12.0190468669
  0
LINE
  5
4FC
100
AcDbEntity
  8
CURVE
100
AcDbLine
 62
253
  6
CONTINUOUS
 10
-65.2544253825
 20
12.19285779
 11
-66.5542273862
 21
12.19285779
  0
LINE
  5
4FD
100
AcDbEntity
  8
CURVE
100
AcDbLine
 62
253
  6
CONTINUOUS
 10
-72.6559309319
 20
12.328754
 11
-74.9533449575
 21
12.328754
  0
LINE
  5
4FE
100
AcDbEntity
  8
PORTATASTO
100
AcDbLine
 62
7
  6
CONTINUOUS
 10
-81.0525520329
 20
12.6998019735
 11
-82.5525520329
 21
12.6998019735
  0
LINE
  5
4FF
100
AcDbEntity
  8
CURVE
100
AcDbLine
 62
253
  6
CONTINUOUS
 10
-74.9533449575
 20
12.911198
 11
-72.0542272586
 21
12.911198
  0
LINE
  5
500
100
AcDbEntity
  8
CURVE
100
AcDbLine
 62
253
  6
CONTINUOUS
 10
-66.5542273862
 20
12.9357151985
 11
-65.2544253825
 21
12.9357151985
  0
LINE
  5
501
100
AcDbEntity
  8
CURVE
100
AcDbLine
 62
253
  6
CONTINUOUS
 10
-65.2544253825
 20
13.3071435928
 11
-66.5542273862
 21
13.3071435928
  0
LINE
  5
502
100
AcDbEntity
  8
CURVE
100
AcDbLine
 62
253
  6
CONTINUOUS
 10
-68.6714693409
 20
13.9642850161
 11
-70.1640991104
 21
14.3714276791
  0
LINE
  5
503
100
AcDbEntity
  8
CURVE
100
AcDbLine
 62
253
  6
CONTINUOUS
 10
-73.1504652576
 20
14.176491
 11
-74.3991897971
 21
14.606449
  0
LINE
  5
504
100
AcDbEntity
  8
CURVE
100
AcDbLine
 62
253
  6
CONTINUOUS
 10
-72.0542272586
 20
13.798889
 11
-72.6686790479
 21
14.015846
  0
LINE
  5
505
100
AcDbEntity
  8
CURVE
100
AcDbLine
 62
253
  6
CONTINUOUS
 10
-65.8114833896
 20
12.5642868042
 11
-66.5542273862
 21
12.9357151985
  0
LINE
  5
506
100
AcDbEntity
  8
CURVE
100
AcDbLine
 62
253
  6
CONTINUOUS
 10
-65.8114833896
 20
13.6785719872
 11
-66.5542273862
 21
14.0500010014
  0
LINE
  5
507
100
AcDbEntity
  8
CURVE
100
AcDbLine
 62
253
  6
CONTINUOUS
 10
-65.9971694178
 20
16.0000003815
 11
-65.8114833896
 21
15.8142868042
  0
LINE
  5
508
100
AcDbEntity
  8
RACCORDO
100
AcDbLine
 62
253
  6
CONTINUOUS
 10
-53.6935128864
 20
17.1836780775
 11
-53.7003519413
 21
16.4
  0
LINE
  5
509
100
AcDbEntity
  8
RACCORDO
100
AcDbLine
 62
7
  6
CONTINUOUS
 10
-52.7090971837
 20
16.4
 11
-52.7095771207
 21
16.3450046761
  0
LINE
  5
50A
100
AcDbEntity
  8
PORTATASTO
100
AcDbLine
 62
7
  6
CONTINUOUS
 10
-81.9275520329
 20
-23.7278312164
 11
-81.1775520329
 21
-23.2948185145
  0
LINE
  5
50B
100
AcDbEntity
  8
PORTATASTO
100
AcDbLine
 62
253
  6
CONTINUOUS
 10
-81.8038610238
 20
-23.9443375673
 11
-81.0538610238
 21
-23.5113248654
  0
LINE
  5
50C
100
AcDbEntity
  8
CURVE
100
AcDbLine
 62
253
  6
CONTINUOUS
 10
-68.6552628527
 20
-15.377131
 11
-69.9548668902
 21
-16.0
  0
LINE
  5
50D
100
AcDbEntity
  8
CURVE
100
AcDbLine
 62
253
  6
CONTINUOUS
 10
-70.1640991104
 20
13.4214279056
 11
-68.2643884896
 21
13.4214279056
  0
LINE
  5
50E
100
AcDbEntity
  8
CURVE
100
AcDbLine
 62
253
  6
CONTINUOUS
 10
-66.5542273862
 20
14.0500010014
 11
-65.2544253825
 21
14.0500010014
  0
LINE
  5
50F
100
AcDbEntity
  8
DRAFT
100
AcDbLine
 62
7
  6
CONTINUOUS
 10
-46.0259350861
 20
14.1
 11
-46.0525520329
 21
14.1
  0
LINE
  5
510
100
AcDbEntity
  8
CURVE
100
AcDbLine
 62
253
  6
CONTINUOUS
 10
-65.2544253825
 20
14.4214293957
 11
-66.5542273862
 21
14.4214293957
  0
LINE
  5
511
100
AcDbEntity
  8
CURVE
100
AcDbLine
 62
253
  6
CONTINUOUS
 10
-68.2643884896
 20
14.5976181984
 11
-69.2142438
 21
14.5976181984
  0
LINE
  5
512
100
AcDbEntity
  8
PORTATASTO
100
AcDbLine
 62
7
  6
CONTINUOUS
 10
-81.0525520329
 20
15.3001980265
 11
-82.5525520329
 21
15.3001980265
  0
LINE
  5
513
100
AcDbEntity
  8
CURVE
100
AcDbLine
 62
253
  6
CONTINUOUS
 10
-65.2544253825
 20
15.3500003815
 11
-66.5542273862
 21
15.3500003815
  0
LINE
  5
514
100
AcDbEntity
  8
PORTATASTO
100
AcDbLine
 62
7
  6
CONTINUOUS
 10
-81.1775520329
 20
23.2948185145
 11
-81.9275520329
 21
23.7278312164
  0
LINE
  5
515
100
AcDbEntity
  8
PORTATASTO
100
AcDbLine
 62
253
  6
CONTINUOUS
 10
-81.0538610238
 20
23.5113248654
 11
-81.8038610238
 21
23.9443375673
  0
LINE
  5
516
100
AcDbEntity
  8
PORTATASTO
100
AcDbLine
 62
253
  6
CONTINUOUS
 10
-81.0525520329
 20
16.9001028025
 11
-82.5525520329
 21
16.8608239202
  0
LINE
  5
517
100
AcDbEntity
  8
PORTATASTO
100
AcDbLine
 62
7
  6
CONTINUOUS
 10
-81.0525520329
 20
17.2
 11
-82.5525520329
 21
17.1607211176
  0
LINE
  5
518
100
AcDbEntity
  8
PORTATASTO
100
AcDbLine
 62
7
  6
CONTINUOUS
 10
-82.3525520329
 20
17.2336707533
 11
-81.0535355415
 21
17.2563451705
  0
LINE
  5
519
100
AcDbEntity
  8
RACCORDO
100
AcDbLine
 62
253
  6
CONTINUOUS
 10
-47.034417242
 20
17.0674431307
 11
-46.0519077253
 21
17.0761696662
  0
LINE
  5
51A
100
AcDbEntity
  8
CURVE
100
AcDbLine
 62
253
  6
CONTINUOUS
 10
-70.1640991104
 20
15.9999992371
 11
-68.2643884896
 21
15.9999992371
  0
LINE
  5
51B
100
AcDbEntity
  8
CURVE
100
AcDbLine
 62
253
  6
CONTINUOUS
 10
-66.3685413967
 20
16.0000003815
 11
-65.9971694178
 21
16.0000003815
  0
LINE
  5
51C
100
AcDbEntity
  8
RACCORDO
100
AcDbLine
 62
7
  6
CONTINUOUS
 10
-46.046006882
 20
16.4
 11
-54.2090971837
 21
16.4
  0
LINE
  5
51D
100
AcDbEntity
  8
DRAFT
100
AcDbLine
 62
7
  6
CONTINUOUS
 10
-55.1365266291
 20
16.65
 11
-54.2069154668
 21
16.65
  0
LINE
  5
51E
100
AcDbEntity
  8
CORPO
100
AcDbLine
 62
253
  6
CONTINUOUS
 10
-55.6525520329
 20
17.5133593194
 11
-77.5525520329
 21
17.6716990487
  0
LINE
  5
51F
100
AcDbEntity
  8
ASSI
100
AcDbLine
 62
253
  6
CONTINUOUS
 10
-55.6525520329
 20
17.5133593194
 11
-77.5525520329
 21
17.6716990487
  0
LINE
  5
520
100
AcDbEntity
  8
RACCORDO
100
AcDbLine
 62
253
  6
CONTINUOUS
 10
-53.6935128864
 20
17.1836780775
 11
-54.2022200511
 21
17.1880413452
  0
LINE
  5
521
100
AcDbEntity
  8
CORPO
100
AcDbLine
 62
7
  6
CONTINUOUS
 10
-46.0525520329
 20
16.2869096983
 11
-55.6525520329
 21
16.3706876291
  0
LINE
  5
522
100
AcDbEntity
  8
ASSI
100
AcDbLine
 62
7
  6
CONTINUOUS
 10
-46.0525520329
 20
16.2869096983
 11
-55.6525520329
 21
16.3706876291
  0
LINE
  5
523
100
AcDbEntity
  8
RACCORDO
100
AcDbLine
 62
253
  6
CONTINUOUS
 10
-53.6935128864
 20
17.1836780775
 11
-47.034417242
 21
17.0674431307
  0
LINE
  5
524
100
AcDbEntity
  8
PORTATASTO
100
AcDbLine
 62
7
  6
CONTINUOUS
 10
-79.5525520329
 20
18.5
 11
-77.5525520329
 21
18.1473460386
  0
LINE
  5
525
100
AcDbEntity
  8
CORPO
100
AcDbLine
 62
253
  6
CONTINUOUS
 10
-67.3929708012
 20
-19.52266385
 11
-67.5525520329
 21
-19.5807466683
  0
LINE
  5
526
100
AcDbEntity
  8
ASSI
100
AcDbLine
 62
253
  6
CONTINUOUS
 10
-67.3929708012
 20
-19.52266385
 11
-67.5525520329
 21
-19.5807466683
  0
LINE
  5
527
100
AcDbEntity
  8
CORPO
100
AcDbLine
 62
7
  6
CONTINUOUS
 10
-66.4716450989
 20
-19.50658205
 11
-67.5525520329
 21
-19.9
  0
LINE
  5
528
100
AcDbEntity
  8
ASSI
100
AcDbLine
 62
7
  6
CONTINUOUS
 10
-66.4716450989
 20
-19.50658205
 11
-67.5525520329
 21
-19.9
  0
LINE
  5
529
100
AcDbEntity
  8
PORTATASTO
100
AcDbLine
 62
253
  6
CONTINUOUS
 10
-82.3525520329
 20
17.5000571074
 11
-82.5525520329
 21
17.4948199231
  0
LINE
  5
52A
100
AcDbEntity
  8
PORTATASTO
100
AcDbLine
 62
7
  6
CONTINUOUS
 10
-78.5525520329
 20
18.5587268678
 11
-77.5525520329
 21
18.5674537356
  0
LINE
  5
52B
100
AcDbEntity
  8
PORTATASTO
100
AcDbLine
 62
7
  6
CONTINUOUS
 10
-78.5525520329
 20
19.5
 11
-77.5525520329
 21
19.5
  0
LINE
  5
52C
100
AcDbEntity
  8
PORTATASTO
100
AcDbLine
 62
7
  6
CONTINUOUS
 10
-67.5525520329
 20
19.7
 11
-71.4525520329
 21
19.7
  0
LINE
  5
52D
100
AcDbEntity
  8
PORTATASTO
100
AcDbLine
 62
7
  6
CONTINUOUS
 10
-77.5525520329
 20
19.7
 11
-78.5525520329
 21
19.7
  0
LINE
  5
52E
100
AcDbEntity
  8
CORPO
100
AcDbLine
 62
253
  6
CONTINUOUS
 10
-55.6525520329
 20
18.9273574902
 11
-77.5525520329
 21
19.0856972195
  0
LINE
  5
52F
100
AcDbEntity
  8
ASSI
100
AcDbLine
 62
253
  6
CONTINUOUS
 10
-55.6525520329
 20
18.9273574902
 11
-77.5525520329
 21
19.0856972195
  0
LINE
  5
530
100
AcDbEntity
  8
PORTATASTO
100
AcDbLine
 62
7
  6
CONTINUOUS
 10
-81.0525520329
 20
17.95
 11
-82.5525520329
 21
17.9630903017
  0
LINE
  5
531
100
AcDbEntity
  8
CORPO
100
AcDbLine
 62
253
  6
CONTINUOUS
 10
-71.4525520329
 20
19.3006754942
 11
-58.5525520329
 21
19.0755051566
  0
LINE
  5
532
100
AcDbEntity
  8
ASSI
100
AcDbLine
 62
253
  6
CONTINUOUS
 10
-71.4525520329
 20
19.3006754942
 11
-58.5525520329
 21
19.0755051566
  0
LINE
  5
533
100
AcDbEntity
  8
RACCORDO
100
AcDbLine
 62
7
  6
CONTINUOUS
 10
-53.6804265718
 20
19.1831450453
 11
-47.0431441099
 21
19.067290849
  0
LINE
  5
534
100
AcDbEntity
  8
CORPO
100
AcDbLine
 62
7
  6
CONTINUOUS
 10
-47.0350996265
 20
19.1673158868
 11
-71.4525520329
 21
19.5935241039
  0
LINE
  5
535
100
AcDbEntity
  8
ASSI
100
AcDbLine
 62
7
  6
CONTINUOUS
 10
-47.0350996265
 20
19.1673158868
 11
-71.4525520329
 21
19.5935241039
  0
LINE
  5
536
100
AcDbEntity
  8
CORPO
100
AcDbLine
 62
7
  6
CONTINUOUS
 10
-58.5525520329
 20
19.1809813985
 11
-55.6525520329
 21
19.1093943488
  0
LINE
  5
537
100
AcDbEntity
  8
ASSI
100
AcDbLine
 62
7
  6
CONTINUOUS
 10
-58.5525520329
 20
19.1809813985
 11
-55.6525520329
 21
19.1093943488
  0
LINE
  5
538
100
AcDbEntity
  8
RACCORDO
100
AcDbLine
 62
253
  6
CONTINUOUS
 10
-88.1384085984
 20
20.5491593337
 11
-88.6292590972
 21
20.5697290625
  0
LINE
  5
539
100
AcDbEntity
  8
CORPO
100
AcDbLine
 62
253
  6
CONTINUOUS
 10
-67.5525520329
 20
19.5807466683
 11
-67.3929708012
 21
19.52266385
  0
LINE
  5
53A
100
AcDbEntity
  8
ASSI
100
AcDbLine
 62
253
  6
CONTINUOUS
 10
-67.5525520329
 20
19.5807466683
 11
-67.3929708012
 21
19.52266385
  0
LINE
  5
53B
100
AcDbEntity
  8
CORPO
100
AcDbLine
 62
7
  6
CONTINUOUS
 10
-67.5525520329
 20
19.9
 11
-66.4716450989
 21
19.50658205
  0
LINE
  5
53C
100
AcDbEntity
  8
ASSI
100
AcDbLine
 62
7
  6
CONTINUOUS
 10
-67.5525520329
 20
19.9
 11
-66.4716450989
 21
19.50658205
  0
LINE
  5
53D
100
AcDbEntity
  8
DRAFT
100
AcDbLine
 62
7
  6
CONTINUOUS
 10
-47.5451336303
 20
16.2999352606
 11
-47.546006882
 21
16.4
  0
LINE
  5
53E
100
AcDbEntity
  8
RACCORDO
100
AcDbLine
 62
253
  6
CONTINUOUS
 10
-47.028592554
 20
16.4
 11
-47.034417242
 21
17.0674431307
  0
LINE
  5
53F
100
AcDbEntity
  8
DRAFT
100
AcDbLine
 62
7
  6
CONTINUOUS
 10
-46.0259350861
 20
14.1
 11
-46.046006882
 21
16.4
  0
LINE
  5
540
100
AcDbEntity
  8
RACCORDO
100
AcDbLine
 62
7
  6
CONTINUOUS
 10
-46.046006882
 20
16.4
 11
-46.0606345933
 21
18.0761696894
  0
LINE
  5
541
100
AcDbEntity
  8
CORPO
100
AcDbLine
 62
253
  6
CONTINUOUS
 10
-47.0350996265
 20
16.2954842613
 11
-47.0350996265
 21
-17.4510540646
  0
LINE
  5
542
100
AcDbEntity
  8
ASSI
100
AcDbLine
 62
253
  6
CONTINUOUS
 10
-47.0350996265
 20
16.2954842613
 11
-47.0350996265
 21
-17.4510540646
  0
LINE
  5
543
100
AcDbEntity
  8
CORPO
100
AcDbLine
 62
253
  6
CONTINUOUS
 10
-47.0350996265
 20
-18.8650522354
 11
-47.0350996265
 21
-18.874467277
  0
LINE
  5
544
100
AcDbEntity
  8
ASSI
100
AcDbLine
 62
253
  6
CONTINUOUS
 10
-47.0350996265
 20
-18.8650522354
 11
-47.0350996265
 21
-18.874467277
  0
LINE
  5
545
100
AcDbEntity
  8
CORPO
100
AcDbLine
 62
7
  6
CONTINUOUS
 10
-46.0525520329
 20
18.1674681916
 11
-46.0525520329
 21
17.15
  0
LINE
  5
546
100
AcDbEntity
  8
ASSI
100
AcDbLine
 62
7
  6
CONTINUOUS
 10
-46.0525520329
 20
18.1674681916
 11
-46.0525520329
 21
17.15
  0
LINE
  5
547
100
AcDbEntity
  8
CORPO
100
AcDbLine
 62
7
  6
CONTINUOUS
 10
-46.0525520329
 20
16.2869096983
 11
-46.0525520329
 21
-18.1674681916
  0
LINE
  5
548
100
AcDbEntity
  8
ASSI
100
AcDbLine
 62
7
  6
CONTINUOUS
 10
-46.0525520329
 20
16.2869096983
 11
-46.0525520329
 21
-18.1674681916
  0
LINE
  5
549
100
AcDbEntity
  8
PORTATASTO
100
AcDbLine
 62
7
  6
CONTINUOUS
 10
-67.5525520329
 20
20.9959955457
 11
-78.5525520329
 21
20.9
  0
LINE
  5
54A
100
AcDbEntity
  8
PORTATASTO
100
AcDbLine
 62
7
  6
CONTINUOUS
 10
-81.0525520329
 20
21.45
 11
-82.5525520329
 21
21.4369096983
  0
LINE
  5
54B
100
AcDbEntity
  8
PORTATASTO
100
AcDbLine
 62
7
  6
CONTINUOUS
 10
-68.0438258297
 20
21.4537354271
 11
-78.5525520329
 21
21.4
  0
LINE
  5
54C
100
AcDbEntity
  8
PORTATASTO
100
AcDbLine
 62
253
  6
CONTINUOUS
 10
-78.5525520329
 20
21.8441990932
 11
-79.5525520329
 21
21.850016923
  0
LINE
  5
54D
100
AcDbEntity
  8
CORPO
100
AcDbLine
 62
7
  6
CONTINUOUS
 10
-71.4525520329
 20
20.7435241039
 11
-77.5525520329
 21
20.85
  0
LINE
  5
54E
100
AcDbEntity
  8
ASSI
100
AcDbLine
 62
7
  6
CONTINUOUS
 10
-71.4525520329
 20
20.7435241039
 11
-77.5525520329
 21
20.85
  0
LINE
  5
54F
100
AcDbEntity
  8
0
100
AcDbLine
 62
7
  6
CONTINUOUS
 10
-55.6525520329
 20
16.9479274058
 11
-55.1365266291
 21
16.65
  0
LINE
  5
550
100
AcDbEntity
  8
CORPO
100
AcDbLine
 62
7
  6
CONTINUOUS
 10
-58.4276688006
 20
19.1778986322
 11
-58.5525520329
 21
19.25
  0
LINE
  5
551
100
AcDbEntity
  8
ASSI
100
AcDbLine
 62
7
  6
CONTINUOUS
 10
-58.4276688006
 20
19.1778986322
 11
-58.5525520329
 21
19.25
  0
LINE
  5
552
100
AcDbEntity
  8
PORTATASTO
100
AcDbLine
 62
253
  6
CONTINUOUS
 10
-79.5525520329
 20
21.8497711479
 11
-81.0525520329
 21
21.771159479
  0
LINE
  5
553
100
AcDbEntity
  8
RACCORDO
100
AcDbLine
 62
253
  6
CONTINUOUS
 10
-82.5525520329
 20
21.7497711479
 11
-87.1915911405
 21
21.5066494103
  0
LINE
  5
554
100
AcDbEntity
  8
PORTATASTO
100
AcDbLine
 62
7
  6
CONTINUOUS
 10
-79.5525520329
 20
22.35
 11
-81.0525520329
 21
22.2713883311
  0
LINE
  5
555
100
AcDbEntity
  8
RACCORDO
100
AcDbLine
 62
7
  6
CONTINUOUS
 10
-82.5525520329
 20
22.25
 11
-87.2090329154
 21
22.0059641777
  0
LINE
  5
556
100
AcDbEntity
  8
PORTATASTO
100
AcDbLine
 62
253
  6
CONTINUOUS
 10
-81.0525520329
 20
23.0783121635
 11
-80.8038610238
 21
23.0783121635
  0
LINE
  5
557
100
AcDbEntity
  8
PORTATASTO
100
AcDbLine
 62
253
  6
CONTINUOUS
 10
-81.8038610238
 20
23.9443375673
 11
-82.0525520329
 21
23.9443375673
  0
LINE
  5
558
100
AcDbEntity
  8
PORTATASTO
100
AcDbLine
 62
7
  6
CONTINUOUS
 10
-78.5525520329
 20
23.8
 11
-72.0473161408
 21
23.7659383532
  0
LINE
  5
559
100
AcDbEntity
  8
PORTATASTO
100
AcDbLine
 62
7
  6
CONTINUOUS
 10
-68.5467343015
 20
22.2859700255
 11
-79.5525520329
 21
22.35
  0
LINE
  5
55A
100
AcDbEntity
  8
PORTATASTO
100
AcDbLine
 62
253
  6
CONTINUOUS
 10
-81.8038610238
 20
24.2329794573
 11
-78.5525520329
 21
24.2500034269
  0
LINE
  5
55B
100
AcDbEntity
  8
PORTATASTO
100
AcDbLine
 62
7
  6
CONTINUOUS
 10
-81.8038610238
 20
24.4829760304
 11
-78.5525520329
 21
24.5
  0
LINE
  5
55C
100
AcDbEntity
  8
PORTATASTO
100
AcDbLine
 62
253
  6
CONTINUOUS
 10
-82.0525520329
 20
24.2329794573
 11
-81.8038610238
 21
24.2329794573
  0
ARC
  5
55D
100
AcDbEntity
  8
RACCORDO
100
AcDbCircle
 62
253
  6
CONTINUOUS
 10
-21.7438862345
 20
-21.5057822673
 40
0.5001617749
100
AcDbArc
 50
180.099339542
 51
269.9753501137
  0
ARC
  5
55E
100
AcDbEntity
  8
PORTATASTO
100
AcDbCircle
 62
7
  6
CONTINUOUS
 10
-15.25
 20
-23.15
 40
0.5
100
AcDbArc
 50
144.1420797215
 51
216.2517105092
  0
ARC
  5
55F
100
AcDbEntity
  8
PORTATASTO
100
AcDbCircle
 62
7
  6
CONTINUOUS
 10
-7.25
 20
-23.15
 40
0.5
100
AcDbArc
 50
323.7482894908
 51
35.8579202785
  0
ARC
  5
560
100
AcDbEntity
  8
PORTATASTO
100
AcDbCircle
 62
7
  6
CONTINUOUS
 10
-21.85003796
 20
-21.8500492892
 40
0.4999540432
100
AcDbArc
 50
179.9681249369
 51
269.9607325142
  0
ARC
  5
561
100
AcDbEntity
  8
PORTATASTO
100
AcDbCircle
 62
7
  6
CONTINUOUS
 10
-19.8170288037
 20
-24.2329711963
 40
0.2500048342
100
AcDbArc
 50
270.0018932459
 51
359.9981067541
  0
ARC
  5
562
100
AcDbEntity
  8
PORTATASTO
100
AcDbCircle
 62
7
  6
CONTINUOUS
 10
-21.5579711963
 20
-24.2329711963
 40
0.2500048342
100
AcDbArc
 50
180.0018932365
 51
269.9981067635
  0
ARC
  5
563
100
AcDbEntity
  8
PORTATASTO
100
AcDbCircle
 62
7
  6
CONTINUOUS
 10
-2.6829711963
 20
-24.2329711963
 40
0.2500048342
100
AcDbArc
 50
180.0018932365
 51
269.9981067635
  0
ARC
  5
564
100
AcDbEntity
  8
PORTATASTO
100
AcDbCircle
 62
7
  6
CONTINUOUS
 10
-0.9420288037
 20
-24.2329711963
 40
0.2500048342
100
AcDbArc
 50
270.0018932459
 51
359.9981067541
  0
ARC
  5
565
100
AcDbEntity
  8
RACCORDO
100
AcDbCircle
 62
253
  6
CONTINUOUS
 10
-21.7438862359
 20
21.5057822688
 40
0.5001617733
100
AcDbArc
 50
90.0246497283
 51
179.9006606225
  0
ARC
  5
566
100
AcDbEntity
  8
PORTATASTO
100
AcDbCircle
 62
7
  6
CONTINUOUS
 10
-15.25
 20
23.15
 40
0.5
100
AcDbArc
 50
143.7482894908
 51
215.8579202785
  0
ARC
  5
567
100
AcDbEntity
  8
PORTATASTO
100
AcDbCircle
 62
7
  6
CONTINUOUS
 10
-7.25
 20
23.15
 40
0.5
100
AcDbArc
 50
324.1420797215
 51
36.2517105092
  0
ARC
  5
568
100
AcDbEntity
  8
PORTATASTO
100
AcDbCircle
 62
7
  6
CONTINUOUS
 10
-21.8500381775
 20
21.8500495607
 40
0.499953721
100
AcDbArc
 50
89.996352029
 51
180.0037402902
  0
ARC
  5
569
100
AcDbEntity
  8
PORTATASTO
100
AcDbCircle
 62
7
  6
CONTINUOUS
 10
-19.8170288037
 20
24.2329711963
 40
0.2500048342
100
AcDbArc
 50
0.0018932365
 51
89.9981067635
  0
ARC
  5
56A
100
AcDbEntity
  8
PORTATASTO
100
AcDbCircle
 62
7
  6
CONTINUOUS
 10
-21.5579711963
 20
24.2329711963
 40
0.2500048342
100
AcDbArc
 50
90.0018932459
 51
179.9981067541
  0
ARC
  5
56B
100
AcDbEntity
  8
PORTATASTO
100
AcDbCircle
 62
7
  6
CONTINUOUS
 10
-2.6829711963
 20
24.2329711963
 40
0.2500048342
100
AcDbArc
 50
90.0018932459
 51
179.9981067541
  0
ARC
  5
56C
100
AcDbEntity
  8
PORTATASTO
100
AcDbCircle
 62
7
  6
CONTINUOUS
 10
-0.9420288037
 20
24.2329711963
 40
0.2500048342
100
AcDbArc
 50
0.0018932365
 51
89.9981067635
  0
CIRCLE
  5
56D
100
AcDbEntity
  8
RACCORDO
100
AcDbCircle
 62
253
  6
CONTINUOUS
 10
15.9999986244
 20
-16.0074724717
 40
1.4531226602
  0
CIRCLE
  5
56E
100
AcDbEntity
  8
RACCORDO
100
AcDbCircle
 62
7
  6
CONTINUOUS
 10
16.0
 20
-16.0
 40
1.25
  0
CIRCLE
  5
56F
100
AcDbEntity
  8
RACCORDO
100
AcDbCircle
 62
7
  6
CONTINUOUS
 10
16.0
 20
-16.0
 40
1.225
  0
CIRCLE
  5
570
100
AcDbEntity
  8
RACCORDO
100
AcDbCircle
 62
253
  6
CONTINUOUS
 10
16.0
 20
-16.0
 40
1.0459181267
  0
ARC
  5
571
100
AcDbEntity
  8
RACCORDO
100
AcDbCircle
 62
253
  6
CONTINUOUS
 10
21.7438862388
 20
-21.505782266
 40
0.5001617732
100
AcDbArc
 50
270.0246493955
 51
359.9006603012
  0
ARC
  5
572
100
AcDbEntity
  8
PORTATASTO
100
AcDbCircle
 62
7
  6
CONTINUOUS
 10
15.25
 20
-23.15
 40
0.5
100
AcDbArc
 50
323.7482894908
 51
35.8579202785
  0
ARC
  5
573
100
AcDbEntity
  8
PORTATASTO
100
AcDbCircle
 62
7
  6
CONTINUOUS
 10
7.25
 20
-23.15
 40
0.5
100
AcDbArc
 50
144.1420797215
 51
216.2517105092
  0
ARC
  5
574
100
AcDbEntity
  8
PORTATASTO
100
AcDbCircle
 62
7
  6
CONTINUOUS
 10
21.8500382058
 20
-21.8500494664
 40
0.499953721
100
AcDbArc
 50
269.9963487893
 51
0.0037294835
  0
ARC
  5
575
100
AcDbEntity
  8
PORTATASTO
100
AcDbCircle
 62
7
  6
CONTINUOUS
 10
2.6829711963
 20
-24.2329711963
 40
0.2500048342
100
AcDbArc
 50
270.0018932459
 51
359.9981067541
  0
ARC
  5
576
100
AcDbEntity
  8
PORTATASTO
100
AcDbCircle
 62
7
  6
CONTINUOUS
 10
0.9420288037
 20
-24.2329711963
 40
0.2500048342
100
AcDbArc
 50
180.0018932365
 51
269.9981067635
  0
ARC
  5
577
100
AcDbEntity
  8
PORTATASTO
100
AcDbCircle
 62
7
  6
CONTINUOUS
 10
19.8170288037
 20
-24.2329711963
 40
0.2500048342
100
AcDbArc
 50
180.0018932365
 51
269.9981067635
  0
ARC
  5
578
100
AcDbEntity
  8
PORTATASTO
100
AcDbCircle
 62
7
  6
CONTINUOUS
 10
21.5579711963
 20
-24.2329711963
 40
0.2500048342
100
AcDbArc
 50
270.0018932459
 51
359.9981067541
  0
ARC
  5
579
100
AcDbEntity
  8
RACCORDO
100
AcDbCircle
 62
253
  6
CONTINUOUS
 10
21.7438862392
 20
21.5057822662
 40
0.5001617733
100
AcDbArc
 50
0.099339673
 51
89.9753506436
  0
ARC
  5
57A
100
AcDbEntity
  8
PORTATASTO
100
AcDbCircle
 62
7
  6
CONTINUOUS
 10
7.25
 20
23.15
 40
0.5
100
AcDbArc
 50
143.7482894908
 51
215.8579202785
  0
ARC
  5
57B
100
AcDbEntity
  8
PORTATASTO
100
AcDbCircle
 62
7
  6
CONTINUOUS
 10
15.25
 20
23.15
 40
0.5
100
AcDbArc
 50
324.1420797215
 51
36.2517105092
  0
ARC
  5
57C
100
AcDbEntity
  8
PORTATASTO
100
AcDbCircle
 62
7
  6
CONTINUOUS
 10
21.850037962
 20
21.850049221
 40
0.4999540432
100
AcDbArc
 50
359.9681327532
 51
89.9607327441
  0
ARC
  5
57D
100
AcDbEntity
  8
PORTATASTO
100
AcDbCircle
 62
7
  6
CONTINUOUS
 10
2.6829711963
 20
24.2329711963
 40
0.2500048342
100
AcDbArc
 50
0.0018932365
 51
89.9981067635
  0
ARC
  5
57E
100
AcDbEntity
  8
PORTATASTO
100
AcDbCircle
 62
7
  6
CONTINUOUS
 10
0.9420288037
 20
24.2329711963
 40
0.2500048342
100
AcDbArc
 50
90.0018932459
 51
179.9981067541
  0
ARC
  5
57F
100
AcDbEntity
  8
PORTATASTO
100
AcDbCircle
 62
7
  6
CONTINUOUS
 10
19.8170288037
 20
24.2329711963
 40
0.2500048342
100
AcDbArc
 50
90.0018932459
 51
179.9981067541
  0
ARC
  5
580
100
AcDbEntity
  8
PORTATASTO
100
AcDbCircle
 62
7
  6
CONTINUOUS
 10
21.5579711963
 20
24.2329711963
 40
0.2500048342
100
AcDbArc
 50
0.0018932365
 51
89.9981067635
  0
ARC
  5
581
100
AcDbEntity
  8
CORPO
100
AcDbCircle
 62
253
  6
CONTINUOUS
 10
-213.6053670679
 20
-18.1691375579
 40
166.5717425078
100
AcDbArc
 50
359.7606250951
 51
0.2470002556
  0
ARC
  5
582
100
AcDbEntity
  8
ASSI
100
AcDbCircle
 62
253
  6
CONTINUOUS
 10
-213.6053670679
 20
-18.1691375579
 40
166.5717425078
100
AcDbArc
 50
359.7606250951
 51
0.2470002556
  0
ARC
  5
583
100
AcDbEntity
  8
RACCORDO
100
AcDbCircle
 62
7
  6
CONTINUOUS
 10
-87.1305289811
 20
-20.5080198755
 40
1.5
100
AcDbArc
 50
182.3577827148
 51
267.0
  0
ARC
  5
584
100
AcDbEntity
  8
RACCORDO
100
AcDbCircle
 62
253
  6
CONTINUOUS
 10
-87.1392535717
 20
-20.5080197507
 40
1.0000002519
100
AcDbArc
 50
182.3577860613
 51
266.9999081045
  0
ARC
  5
585
100
AcDbEntity
  8
PORTATASTO
100
AcDbCircle
 62
7
  6
CONTINUOUS
 10
-68.5525520329
 20
-21.2859869487
 40
1.0
100
AcDbArc
 50
270.3333333333
 51
360.0
  0
ARC
  5
586
100
AcDbEntity
  8
CORPO
100
AcDbCircle
 62
7
  6
CONTINUOUS
 10
-47.0525520329
 20
-18.1674681916
 40
1.0
100
AcDbArc
 50
271.0000000002
 51
360.0
  0
ARC
  5
587
100
AcDbEntity
  8
ASSI
100
AcDbCircle
 62
7
  6
CONTINUOUS
 10
-47.0525520329
 20
-18.1674681916
 40
1.0
100
AcDbArc
 50
271.0000000002
 51
360.0
  0
ARC
  5
588
100
AcDbEntity
  8
PORTATASTO
100
AcDbCircle
 62
253
  6
CONTINUOUS
 10
-81.3038626743
 20
-23.0783112106
 40
0.5000016505
100
AcDbArc
 50
300.000109193
 51
359.9998908069
  0
ARC
  5
589
100
AcDbEntity
  8
PORTATASTO
100
AcDbCircle
 62
7
  6
CONTINUOUS
 10
-72.0525520329
 20
-23.2659657686
 40
0.5
100
AcDbArc
 50
270.5999999999
 51
360.0
  0
ARC
  5
58A
100
AcDbEntity
  8
CORPO
100
AcDbCircle
 62
253
  6
CONTINUOUS
 10
-46.5515157005
 20
-18.1575131151
 40
0.498971051
100
AcDbArc
 50
352.9228167799
 51
358.8597457188
  0
ARC
  5
58B
100
AcDbEntity
  8
ASSI
100
AcDbCircle
 62
253
  6
CONTINUOUS
 10
-46.5515157005
 20
-18.1575131151
 40
0.498971051
100
AcDbArc
 50
352.9228167799
 51
358.8597457188
  0
ARC
  5
58C
100
AcDbEntity
  8
CORPO
100
AcDbCircle
 62
253
  6
CONTINUOUS
 10
-46.5356175898
 20
-18.1580447475
 40
0.483065557
100
AcDbArc
 50
358.8852651632
 51
359.9990033884
  0
ARC
  5
58D
100
AcDbEntity
  8
ASSI
100
AcDbCircle
 62
253
  6
CONTINUOUS
 10
-46.5356175898
 20
-18.1580447475
 40
0.483065557
100
AcDbArc
 50
358.8852651632
 51
359.9990033884
  0
ARC
  5
58E
100
AcDbEntity
  8
PORTATASTO
100
AcDbCircle
 62
7
  6
CONTINUOUS
 10
-81.8025520329
 20
-23.9443375673
 40
0.25
100
AcDbArc
 50
120.0
 51
180.0
  0
ARC
  5
58F
100
AcDbEntity
  8
PORTATASTO
100
AcDbCircle
 62
7
  6
CONTINUOUS
 10
-81.3025520329
 20
-23.0783121635
 40
0.25
100
AcDbArc
 50
299.9999779197
 51
359.9996752656
  0
ARC
  5
590
100
AcDbEntity
  8
PORTATASTO
100
AcDbCircle
 62
7
  6
CONTINUOUS
 10
-81.8025520329
 20
-24.2329794573
 40
0.25
100
AcDbArc
 50
180.0
 51
269.7
  0
ARC
  5
591
100
AcDbEntity
  8
PORTATASTO
100
AcDbCircle
 62
7
  6
CONTINUOUS
 10
-83.5525520329
 20
14.0
 40
2.55
100
AcDbArc
 50
11.2230352269
 51
30.6770237081
  0
ARC
  5
592
100
AcDbEntity
  8
PORTATASTO
100
AcDbCircle
 62
7
  6
CONTINUOUS
 10
-83.5525520329
 20
14.0
 40
2.55
100
AcDbArc
 50
329.3229838999
 51
348.7767103091
  0
ARC
  5
593
100
AcDbEntity
  8
PORTATASTO
100
AcDbCircle
 62
253
  6
CONTINUOUS
 10
-83.5437735675
 20
13.9999655939
 40
2.049936466
100
AcDbArc
 50
320.6225639774
 51
39.3716752225
  0
ARC
  5
594
100
AcDbEntity
  8
RACCORDO
100
AcDbCircle
 62
7
  6
CONTINUOUS
 10
-87.1305289811
 20
20.5080198755
 40
1.5
100
AcDbArc
 50
93.0
 51
177.6422172852
  0
ARC
  5
595
100
AcDbEntity
  8
RACCORDO
100
AcDbCircle
 62
253
  6
CONTINUOUS
 10
-87.1392550398
 20
20.508018267
 40
1.0000002519
100
AcDbArc
 50
93.0000034456
 51
177.6421255396
  0
ARC
  5
596
100
AcDbEntity
  8
PORTATASTO
100
AcDbCircle
 62
7
  6
CONTINUOUS
 10
-68.5525520329
 20
21.2859869487
 40
1.0
100
AcDbArc
 50
0.0
 51
89.6666666667
  0
ARC
  5
597
100
AcDbEntity
  8
PORTATASTO
100
AcDbCircle
 62
253
  6
CONTINUOUS
 10
-81.3038626739
 20
23.0783112108
 40
0.5000016501
100
AcDbArc
 50
0.0001091677
 51
59.9998908323
  0
ARC
  5
598
100
AcDbEntity
  8
PORTATASTO
100
AcDbCircle
 62
7
  6
CONTINUOUS
 10
-72.0525520329
 20
23.2659657686
 40
0.5
100
AcDbArc
 50
0.0
 51
89.4000000003
  0
ARC
  5
599
100
AcDbEntity
  8
PORTATASTO
100
AcDbCircle
 62
7
  6
CONTINUOUS
 10
-81.8025520329
 20
23.9443375673
 40
0.25
100
AcDbArc
 50
180.0
 51
240.0
  0
ARC
  5
59A
100
AcDbEntity
  8
PORTATASTO
100
AcDbCircle
 62
7
  6
CONTINUOUS
 10
-81.3025520329
 20
23.0783121635
 40
0.25
100
AcDbArc
 50
0.0003243525
 51
60.000019938
  0
ARC
  5
59B
100
AcDbEntity
  8
PORTATASTO
100
AcDbCircle
 62
7
  6
CONTINUOUS
 10
-81.8025520329
 20
24.2329794573
 40
0.25
100
AcDbArc
 50
90.3
 51
180.0
  0
ARC
  5
59C
100
AcDbEntity
  8
RACCORDO
100
AcDbCircle
 62
7
  6
CONTINUOUS
 10
-47.0605965164
 20
18.0674431539
 40
1.0
100
AcDbArc
 50
0.5
 51
89.0
  0
ARC
  5
59D
100
AcDbEntity
  8
CORPO
100
AcDbCircle
 62
7
  6
CONTINUOUS
 10
-47.0525520329
 20
18.1674681916
 40
1.0
100
AcDbArc
 50
0.0
 51
89.0
  0
ARC
  5
59E
100
AcDbEntity
  8
ASSI
100
AcDbCircle
 62
7
  6
CONTINUOUS
 10
-47.0525520329
 20
18.1674681916
 40
1.0
100
AcDbArc
 50
0.0
 51
89.0
  0
ARC
  5
59F
100
AcDbEntity
  8
RACCORDO
100
AcDbCircle
 62
7
  6
CONTINUOUS
 10
-53.6891537511
 20
18.6831093497
 40
0.5
100
AcDbArc
 50
89.0001118259
 51
179.4871826661
  0
ARC
  5
5A0
100
AcDbEntity
  8
RACCORDO
100
AcDbCircle
 62
7
  6
CONTINUOUS
 10
410.9474479671
 20
0.0
 40
500.0
100
AcDbArc
 50
177.6422172852
 51
182.3577827148
  0
ARC
  5
5A1
100
AcDbEntity
  8
RACCORDO
100
AcDbCircle
 62
253
  6
CONTINUOUS
 10
410.9386996296
 20
0.0
 40
499.4999778844
100
AcDbArc
 50
177.6422171808
 51
182.3577828192
  0
SPLINE
  5
5A2
100
AcDbEntity
  8
RACCORDO
100
AcDbSpline
 62
253
  6
CONTINUOUS
 70
0
 71
3
 72
14
 73
10
 74
8
 42
0.0000001
 43
0.0000001
 44
0.0000000001
 12
-0.3020871729
 22
-0.9089614721
 32
0.0
 13
-0.0006916938
 23
-0.9578450497
 33
0.0
 40
0.0
 40
0.0
 40
0.0
 40
0.0
 40
0.0345807478
 40
0.1139095907
 40
0.2345535942
 40
0.3911457192
 40
0.5768402945
 40
0.7831380459
 40
1.0
 40
1.0
 40
1.0
 40
1.0
 10
22.2440252712
 20
21.5066494103
 30
0.0
 10
22.2405431377
 20
21.4961718878
 30
0.0
 10
22.2407330661
 20
21.4590286852
 30
0.0
 10
22.2354990686
 20
21.3848852493
 30
0.0
 10
22.2338000987
 20
21.2707271443
 30
0.0
 10
22.2308987405
 20
21.1230789497
 30
0.0
 10
22.2291620704
 20
20.9478874282
 30
0.0
 10
22.2278758753
 20
20.7535101941
 30
0.0
 10
22.2275485117
 20
20.6183993834
 30
0.0
 10
22.227498511
 20
20.5491593337
 30
0.0
 11
22.2440252712
 21
21.5066494103
 31
0.0
 11
22.2404066899
 21
21.473724656
 31
0.0
 11
22.2369732929
 21
21.3978175059
 31
0.0
 11
22.2338925012
 21
21.2823002887
 31
0.0
 11
22.2313033349
 21
21.1323316067
 31
0.0
 11
22.2293199455
 21
20.9544759893
 31
0.0
 11
22.2280328469
 21
20.7568788498
 31
0.0
 11
22.227498511
 21
20.5491593337
 31
0.0
  0
SPLINE
  5
5A3
100
AcDbEntity
  8
RACCORDO
100
AcDbSpline
 62
253
  6
CONTINUOUS
 70
0
 71
3
 72
11
 73
7
 74
5
 42
0.0000001
 43
0.0000001
 44
0.0000000001
 12
0.1954687595
 22
-0.4612264335
 32
0.0
 13
0.500936852
 23
-0.0003594189
 33
0.0
 40
0.0
 40
0.0
 40
0.0
 40
0.0
 40
0.0823817765
 40
0.3002575855
 40
0.6220416578
 40
1.0
 40
1.0
 40
1.0
 40
1.0
 10
-22.227498511
 20
-20.5491593337
 30
0.0
 10
-22.2221308231
 20
-20.5618248847
 30
0.0
 10
-22.1546675429
 20
-20.549980935
 30
0.0
 10
-22.0661292256
 20
-20.5701273065
 30
0.0
 10
-21.9054012528
 20
-20.5666436366
 30
0.0
 10
-21.7906857508
 20
-20.5696837806
 30
0.0
 10
-21.7275746634
 20
-20.5697290624
 30
0.0
 11
-22.227498511
 21
-20.5491593337
 31
0.0
 11
-22.1869723353
 21
-20.5569492877
 31
0.0
 11
-22.0780318376
 21
-20.5635791474
 31
0.0
 11
-21.9169006313
 21
-20.5680615826
 31
0.0
 11
-21.7275746634
 21
-20.5697290624
 31
0.0
  0
SPLINE
  5
5A4
100
AcDbEntity
  8
RACCORDO
100
AcDbSpline
 62
253
  6
CONTINUOUS
 70
0
 71
3
 72
11
 73
7
 74
5
 42
0.0000001
 43
0.0000001
 44
0.0000000001
 12
0.1956981791
 22
0.4611290087
 32
0.0
 13
0.5009367334
 23
0.0003593754
 33
0.0
 40
0.0
 40
0.0
 40
0.0
 40
0.0
 40
0.0823883241
 40
0.3002657169
 40
0.6220469935
 40
1.0
 40
1.0
 40
1.0
 40
1.0
 10
-22.2274985108
 20
20.5491593337
 30
0.0
 10
-22.2221240958
 20
20.5618232157
 30
0.0
 10
-22.1546727181
 20
20.5499830031
 30
0.0
 10
-22.0661213661
 20
20.570125293
 30
0.0
 10
-21.9054007302
 20
20.5666436369
 30
0.0
 10
-21.7906848449
 20
20.5696831213
 30
0.0
 10
-21.7275746634
 20
20.5697283969
 30
0.0
 11
-22.2274985108
 21
20.5491593337
 31
0.0
 11
-22.1869689658
 21
20.556949083
 31
0.0
 11
-22.078027686
 21
20.5635787253
 31
0.0
 11
-21.9168979142
 21
20.5680609918
 31
0.0
 11
-21.7275746634
 21
20.5697283969
 31
0.0
  0
SPLINE
  5
5A5
100
AcDbEntity
  8
RACCORDO
100
AcDbSpline
 62
253
  6
CONTINUOUS
 70
0
 71
3
 72
11
 73
7
 74
5
 42
0.0000001
 43
0.0000001
 44
0.0000000001
 12
-0.1954687072
 22
0.4612264557
 32
0.0
 13
-0.500936852
 23
0.0003594198
 33
0.0
 40
0.0
 40
0.0
 40
0.0
 40
0.0
 40
0.0823817751
 40
0.3002575838
 40
0.6220416567
 40
1.0
 40
1.0
 40
1.0
 40
1.0
 10
22.227498511
 20
20.5491593337
 30
0.0
 10
22.2221308246
 20
20.561824885
 30
0.0
 10
22.1546675417
 20
20.5499809345
 30
0.0
 10
22.0661292273
 20
20.5701273068
 30
0.0
 10
21.9054012528
 20
20.5666436363
 30
0.0
 10
21.790685751
 20
20.5696837806
 30
0.0
 10
21.7275746634
 20
20.5697290625
 30
0.0
 11
22.227498511
 21
20.5491593337
 31
0.0
 11
22.1869723361
 21
20.5569492877
 31
0.0
 11
22.0780318385
 21
20.5635791474
 31
0.0
 11
21.9169006318
 21
20.5680615825
 31
0.0
 11
21.7275746634
 21
20.5697290625
 31
0.0
  0
SPLINE
  5
5A6
100
AcDbEntity
  8
RACCORDO
100
AcDbSpline
 62
253
  6
CONTINUOUS
 70
0
 71
3
 72
11
 73
7
 74
5
 42
0.0000001
 43
0.0000001
 44
0.0000000001
 12
-0.1957808134
 22
-0.4610938794
 32
0.0
 13
-0.5009366859
 23
-0.0003594037
 33
0.0
 40
0.0
 40
0.0
 40
0.0
 40
0.0
 40
0.082390661
 40
0.3002686213
 40
0.6220488999
 40
1.0
 40
1.0
 40
1.0
 40
1.0
 10
22.2274985107
 20
-20.5491593337
 30
0.0
 10
22.2221216738
 20
-20.5618226102
 30
0.0
 10
22.1546745821
 20
-20.549983705
 30
0.0
 10
22.0661185448
 20
-20.5701245404
 30
0.0
 10
21.9054005457
 20
-20.5666435981
 30
0.0
 10
21.7906845206
 20
-20.5696828558
 30
0.0
 10
21.7275746634
 20
-20.5697281348
 30
0.0
 11
22.2274985107
 21
-20.5491593337
 31
0.0
 11
22.1869677593
 21
-20.5569489877
 31
0.0
 11
22.0780261995
 21
-20.5635785395
 31
0.0
 11
21.9168969414
 21
-20.568060745
 31
0.0
 11
21.7275746634
 21
-20.5697281348
 31
0.0
  0
SPLINE
  5
5A7
100
AcDbEntity
  8
RACCORDO
100
AcDbSpline
 62
253
  6
CONTINUOUS
 70
0
 71
3
 72
14
 73
10
 74
8
 42
0.0000001
 43
0.0000001
 44
0.0000000001
 12
0.3109182479
 22
1.4024199754
 32
0.0
 13
0.0006920191
 23
1.4364718812
 33
0.0
 40
0.0
 40
0.0
 40
0.0
 40
0.0
 40
0.0346844622
 40
0.1140426828
 40
0.2346287331
 40
0.3910004541
 40
0.5763627665
 40
0.7823904562
 40
1.0
 40
1.0
 40
1.0
 40
1.0
 10
-21.7441014236
 20
-22.0059641777
 30
0.0
 10
-21.7405067462
 20
-21.9897501168
 30
0.0
 10
-21.7409053098
 20
-21.9345916298
 30
0.0
 10
-21.735511809
 20
-21.8227706926
 30
0.0
 10
-21.733896604
 20
-21.651935252
 30
0.0
 10
-21.7309680783
 20
-21.4306754145
 30
0.0
 10
-21.7292442631
 20
-21.1683664158
 30
0.0
 10
-21.7279523535
 20
-20.8767759871
 30
0.0
 10
-21.72762486
 20
-20.6739257263
 30
0.0
 10
-21.7275746634
 20
-20.5697290627
 30
0.0
 11
-21.7441014236
 21
-22.0059641777
 31
0.0
 11
-21.7404698255
 21
-21.9562734463
 31
0.0
 11
-21.7370407921
 21
-21.8423291657
 31
0.0
 11
-21.7339642478
 21
-21.6691379985
 31
0.0
 11
-21.7313797845
 21
-21.4445292608
 31
0.0
 11
-21.7293993369
 21
-21.1782688454
 31
0.0
 11
-21.7281120204
 21
-20.8823186278
 31
0.0
 11
-21.7275746634
 21
-20.5697290627
 31
0.0
  0
SPLINE
  5
5A8
100
AcDbEntity
  8
RACCORDO
100
AcDbSpline
 62
253
  6
CONTINUOUS
 70
0
 71
3
 72
14
 73
10
 74
8
 42
0.0000001
 43
0.0000001
 44
0.0000000001
 12
0.0006920189
 22
-1.4364718812
 32
0.0
 13
0.3109182226
 23
-1.4024199811
 33
0.0
 40
0.0
 40
0.0
 40
0.0
 40
0.0
 40
0.2176095438
 40
0.4236372335
 40
0.6089995459
 40
0.7653712669
 40
0.8859573172
 40
0.9653155378
 40
1.0
 40
1.0
 40
1.0
 40
1.0
 10
21.7275746634
 20
-20.5697290627
 30
0.0
 10
21.72762486
 20
-20.6739257263
 30
0.0
 10
21.7279523535
 20
-20.8767759871
 30
0.0
 10
21.729244263
 20
-21.1683664158
 30
0.0
 10
21.7309680783
 20
-21.4306754145
 30
0.0
 10
21.7338966039
 20
-21.651935252
 30
0.0
 10
21.7355118092
 20
-21.8227706926
 30
0.0
 10
21.7409053095
 20
-21.9345916299
 30
0.0
 10
21.7405067465
 20
-21.9897501167
 30
0.0
 10
21.7441014236
 20
-22.0059641777
 30
0.0
 11
21.7275746634
 21
-20.5697290627
 31
0.0
 11
21.7281120204
 21
-20.8823186278
 31
0.0
 11
21.7293993369
 21
-21.1782688454
 31
0.0
 11
21.7313797845
 21
-21.4445292608
 31
0.0
 11
21.7339642478
 21
-21.6691379985
 31
0.0
 11
21.7370407921
 21
-21.8423291657
 31
0.0
 11
21.7404698255
 21
-21.9562734463
 31
0.0
 11
21.7441014236
 21
-22.0059641777
 31
0.0
  0
SPLINE
  5
5A9
100
AcDbEntity
  8
RACCORDO
100
AcDbSpline
 62
253
  6
CONTINUOUS
 70
0
 71
3
 72
14
 73
10
 74
8
 42
0.0000001
 43
0.0000001
 44
0.0000000001
 12
-0.0006938607
 22
1.4364718756
 32
0.0
 13
-0.3112201715
 23
1.4023529996
 33
0.0
 40
0.0
 40
0.0
 40
0.0
 40
0.0
 40
0.2176177249
 40
0.423638759
 40
0.6090072556
 40
0.7653775951
 40
0.8859582228
 40
0.9653177962
 40
1.0
 40
1.0
 40
1.0
 40
1.0
 10
-21.7275746634
 20
20.5697290627
 30
0.0
 10
-21.7276249955
 20
20.6739296432
 30
0.0
 10
-21.7279522912
 20
20.8767806407
 30
0.0
 10
-21.7292442259
 20
21.168374732
 30
0.0
 10
-21.7309680186
 20
21.4306829315
 30
0.0
 10
-21.7338978483
 20
21.6519422097
 30
0.0
 10
-21.7355099434
 20
21.822775688
 30
0.0
 10
-21.7409092548
 20
21.9345922943
 30
0.0
 10
-21.7405034898
 20
21.9897519468
 30
0.0
 10
-21.7441014236
 20
22.0059641777
 30
0.0
 11
-21.7275746634
 21
20.5697290627
 31
0.0
 11
-21.728112029
 21
20.8823303787
 31
0.0
 11
-21.7293992609
 21
21.1782710351
 31
0.0
 11
-21.7313800521
 21
21.4445403306
 31
0.0
 11
-21.7339646036
 21
21.669147082
 31
0.0
 11
-21.7370409212
 21
21.8423304619
 31
0.0
 11
-21.7404700355
 21
21.956276684
 31
0.0
 11
-21.7441014236
 21
22.0059641777
 31
0.0
  0
SPLINE
  5
5AA
100
AcDbEntity
  8
RACCORDO
100
AcDbSpline
 62
253
  6
CONTINUOUS
 70
0
 71
3
 72
14
 73
10
 74
8
 42
0.0000001
 43
0.0000001
 44
0.0000000001
 12
-0.3112202057
 22
-1.402352992
 32
0.0
 13
-0.0006938608
 23
-1.4364718756
 33
0.0
 40
0.0
 40
0.0
 40
0.0
 40
0.0
 40
0.0346822038
 40
0.1140417772
 40
0.2346224049
 40
0.3909927444
 40
0.576361241
 40
0.7823822751
 40
1.0
 40
1.0
 40
1.0
 40
1.0
 10
21.7441014236
 20
22.0059641777
 30
0.0
 10
21.7405034894
 20
21.9897519469
 30
0.0
 10
21.7409092553
 20
21.9345922942
 30
0.0
 10
21.7355099431
 20
21.8227756881
 30
0.0
 10
21.7338978484
 20
21.6519422097
 30
0.0
 10
21.7309680185
 20
21.4306829315
 30
0.0
 10
21.729244226
 20
21.168374732
 30
0.0
 10
21.7279522912
 20
20.8767806407
 30
0.0
 10
21.7276249955
 20
20.6739296432
 30
0.0
 10
21.7275746634
 20
20.5697290627
 30
0.0
 11
21.7441014236
 21
22.0059641777
 31
0.0
 11
21.7404700355
 21
21.956276684
 31
0.0
 11
21.7370409212
 21
21.8423304619
 31
0.0
 11
21.7339646036
 21
21.669147082
 31
0.0
 11
21.7313800521
 21
21.4445403306
 31
0.0
 11
21.7293992609
 21
21.1782710351
 31
0.0
 11
21.728112029
 21
20.8823303787
 31
0.0
 11
21.7275746634
 21
20.5697290627
 31
0.0
  0
SPLINE
  5
5AB
100
AcDbEntity
  8
RACCORDO
100
AcDbSpline
 62
253
  6
CONTINUOUS
 70
0
 71
3
 72
21
 73
17
 74
15
 42
0.0000001
 43
0.0000001
 44
0.0000000001
 12
7.6217399568
 22
-0.0011436901
 32
0.0
 13
-7.6217399117
 23
-0.0014124544
 33
0.0
 40
0.0
 40
0.0
 40
0.0
 40
0.0
 40
0.0722443016
 40
0.1443234532
 40
0.2157368315
 40
0.286885503
 40
0.3578973891
 40
0.4289099563
 40
0.4999947499
 40
0.5710701988
 40
0.6420622748
 40
0.7130583776
 40
0.7842053475
 40
0.8556383164
 40
0.9277655883
 40
1.0
 40
1.0
 40
1.0
 40
1.0
 10
16.0
 20
-13.572614097
 30
0.0
 10
16.1835424266
 20
-13.5726416387
 30
0.0
 10
16.5515491327
 20
-13.6141883376
 30
0.0
 10
17.0727851395
 20
-13.79754851
 30
0.0
 10
17.5380061709
 20
-14.0907786241
 30
0.0
 10
17.9246115856
 20
-14.477929666
 30
0.0
 10
18.2152211127
 20
-14.9403082975
 30
0.0
 10
18.3957977206
 20
-15.4555604815
 30
0.0
 10
18.4571178841
 20
-15.9982724394
 30
0.0
 10
18.3958907825
 20
-16.5409419525
 30
0.0
 10
18.2154343335
 20
-17.0561123154
 30
0.0
 10
17.9249413669
 20
-17.5184507461
 30
0.0
 10
17.5383670065
 20
-17.9056433661
 30
0.0
 10
17.0730126853
 20
-18.1989832999
 30
0.0
 10
16.5516194885
 20
-18.3823646981
 30
0.0
 10
16.1835172996
 20
-18.4238911996
 30
0.0
 10
16.0
 20
-18.4239252088
 30
0.0
 11
16.0
 21
-13.572614097
 31
0.0
 11
16.5471315247
 21
-13.6345616784
 31
0.0
 11
17.0653913304
 21
-13.8168048796
 31
0.0
 11
17.5257994867
 21
-14.1071159389
 31
0.0
 11
17.9089451746
 21
-14.4908650465
 31
0.0
 11
18.1969022934
 21
-14.9491390779
 31
0.0
 11
18.3758741734
 21
-15.4599316728
 31
0.0
 11
18.4366858879
 21
-15.9982978514
 31
0.0
 11
18.3759641777
 21
-16.536602514
 31
0.0
 11
18.1971226068
 21
-17.0472752722
 31
0.0
 11
17.9092942136
 21
-17.5054881091
 31
0.0
 11
17.5261968382
 21
-17.8892671226
 31
0.0
 11
17.0656755019
 21
-18.179678632
 31
0.0
 11
16.5470599965
 21
-18.3620158895
 31
0.0
 11
16.0
 21
-18.4239252088
 31
0.0
  0
SPLINE
  5
5AC
100
AcDbEntity
  8
RACCORDO
100
AcDbSpline
 62
253
  6
CONTINUOUS
 70
0
 71
3
 72
21
 73
17
 74
15
 42
0.0000001
 43
0.0000001
 44
0.0000000001
 12
-7.6217398501
 22
0.0011626418
 32
0.0
 13
7.6217398122
 23
0.0013894156
 33
0.0
 40
0.0
 40
0.0
 40
0.0
 40
0.0
 40
0.0722440023
 40
0.1443207118
 40
0.2157284166
 40
0.2868688099
 40
0.3578717892
 40
0.4288774852
 40
0.4999596894
 40
0.5710377186
 40
0.6420366589
 40
0.713041665
 40
0.784196918
 40
0.8556355619
 40
0.9277652865
 40
1.0
 40
1.0
 40
1.0
 40
1.0
 10
16.0
 20
-18.4239252088
 30
0.0
 10
15.8164583362
 20
-18.4238972109
 30
0.0
 10
15.4484593134
 20
-18.3823669669
 30
0.0
 10
14.9272265803
 20
-18.1990680734
 30
0.0
 10
14.462001809
 20
-17.9059235499
 30
0.0
 10
14.0753896935
 20
-17.5188601931
 30
0.0
 10
13.78477496
 20
-17.0565552878
 30
0.0
 10
13.6041982006
 20
-16.5413510861
 30
0.0
 10
13.5428821137
 20
-15.9986556871
 30
0.0
 10
13.6041132966
 20
-15.4559696936
 30
0.0
 10
13.7845695928
 20
-14.9407514151
 30
0.0
 10
14.0750573783
 20
-14.4783393266
 30
0.0
 10
14.4616249855
 20
-14.0910589928
 30
0.0
 10
14.926975631
 20
-13.7976335422
 30
0.0
 10
15.4483720312
 20
-13.6141906925
 30
0.0
 10
15.8164819362
 20
-13.5726475517
 30
0.0
 10
16.0
 20
-13.572614097
 30
0.0
 11
16.0
 21
-18.4239252088
 31
0.0
 11
15.4528684767
 21
-18.3619979577
 31
0.0
 11
14.9346086662
 21
-18.1798109111
 31
0.0
 11
14.4742005109
 21
-17.8895809449
 31
0.0
 11
14.0910548243
 21
-17.5059210098
 31
0.0
 11
13.8030977059
 21
-17.0477271635
 31
0.0
 11
13.6241258262
 21
-16.5369900683
 31
0.0
 11
13.5633141121
 21
-15.9986437587
 31
0.0
 11
13.6240358226
 21
-15.4603193119
 31
0.0
 11
13.8028773936
 21
-14.9495911287
 31
0.0
 11
14.0907057869
 21
-14.4912981677
 31
0.0
 11
14.4738031623
 21
-14.107429967
 31
0.0
 11
14.9343244985
 21
-13.8169373912
 31
0.0
 11
15.4529400037
 21
-13.6345438008
 31
0.0
 11
16.0
 21
-13.572614097
 31
0.0
  0
SPLINE
  5
5AD
100
AcDbEntity
  8
RACCORDO
100
AcDbSpline
 62
253
  6
CONTINUOUS
 70
0
 71
3
 72
14
 73
10
 74
8
 42
0.0000001
 43
0.0000001
 44
0.0000000001
 12
-0.0006916938
 22
0.9578450497
 32
0.0
 13
-0.3020871209
 23
0.9089614893
 33
0.0
 40
0.0
 40
0.0
 40
0.0
 40
0.0
 40
0.2168619541
 40
0.4231597055
 40
0.6088542808
 40
0.7654464058
 40
0.8860904092
 40
0.9654192522
 40
1.0
 40
1.0
 40
1.0
 40
1.0
 10
-22.227498511
 20
20.5491593337
 30
0.0
 10
-22.2275485117
 20
20.6183993834
 30
0.0
 10
-22.2278758753
 20
20.7535101941
 30
0.0
 10
-22.2291620704
 20
20.9478874282
 30
0.0
 10
-22.2308987405
 20
21.1230789497
 30
0.0
 10
-22.2338000985
 20
21.2707271443
 30
0.0
 10
-22.235499069
 20
21.3848852492
 30
0.0
 10
-22.2407330654
 20
21.4590286854
 30
0.0
 10
-22.2405431383
 20
21.4961718876
 30
0.0
 10
-22.2440252712
 20
21.5066494103
 30
0.0
 11
-22.227498511
 21
20.5491593337
 31
0.0
 11
-22.2280328469
 21
20.7568788498
 31
0.0
 11
-22.2293199455
 21
20.9544759893
 31
0.0
 11
-22.2313033349
 21
21.1323316067
 31
0.0
 11
-22.2338925012
 21
21.2823002887
 31
0.0
 11
-22.2369732929
 21
21.3978175058
 31
0.0
 11
-22.2404066899
 21
21.473724656
 31
0.0
 11
-22.2440252712
 21
21.5066494103
 31
0.0
  0
SPLINE
  5
5AE
100
AcDbEntity
  8
RACCORDO
100
AcDbSpline
 62
253
  6
CONTINUOUS
 70
0
 71
3
 72
10
 73
6
 74
4
 42
0.0000001
 43
0.0000001
 44
0.0000000001
 12
0.0295373191
 22
41.0983111957
 32
0.0
 13
-0.0295373256
 23
41.0983111957
 33
0.0
 40
0.0
 40
0.0
 40
0.0
 40
0.0
 40
0.3332909864
 40
0.6667086433
 40
1.0
 40
1.0
 40
1.0
 40
1.0
 10
-22.227498511
 20
-20.5491593337
 30
0.0
 10
-22.2242170036
 20
-15.9832604413
 30
0.0
 10
-22.2198438283
 20
-6.84972561
 30
0.0
 10
-22.2198438255
 20
6.849715464
 30
0.0
 10
-22.2242169992
 20
15.9832553682
 30
0.0
 10
-22.227498511
 20
20.5491593337
 30
0.0
 11
-22.227498511
 21
-20.5491593337
 31
0.0
 11
-22.2209375371
 21
-6.8514606902
 31
0.0
 11
-22.2209375337
 21
6.8514454711
 31
0.0
 11
-22.227498511
 21
20.5491593337
 31
0.0
  0
SPLINE
  5
5AF
100
AcDbEntity
  8
RACCORDO
100
AcDbSpline
 62
253
  6
CONTINUOUS
 70
0
 71
3
 72
14
 73
10
 74
8
 42
0.0000001
 43
0.0000001
 44
0.0000000001
 12
0.3016556535
 22
0.909104759
 32
0.0
 13
0.0006902993
 23
0.9578450395
 33
0.0
 40
0.0
 40
0.0
 40
0.0
 40
0.0
 40
0.0345993956
 40
0.1139798147
 40
0.2347345359
 40
0.3913694934
 40
0.5769857566
 40
0.783211636
 40
1.0
 40
1.0
 40
1.0
 40
1.0
 10
-22.2440252712
 20
-21.5066494103
 30
0.0
 10
-22.2405462367
 20
-21.4961645852
 30
0.0
 10
-22.2407272158
 20
-21.4590017936
 30
0.0
 10
-22.2354979552
 20
-21.384798429
 30
0.0
 10
-22.2337960043
 20
-21.2705758814
 30
0.0
 10
-22.2308969283
 20
-21.1229031317
 30
0.0
 10
-22.2291609386
 20
-20.9477460945
 30
0.0
 10
-22.2278757545
 20
-20.7534402353
 30
0.0
 10
-22.2275483939
 20
-20.6183758867
 30
0.0
 10
-22.227498511
 20
-20.5491593337
 30
0.0
 11
-22.2440252712
 21
-21.5066494103
 31
0.0
 11
-22.2404054585
 21
-21.4737068225
 31
0.0
 11
-22.2369708688
 21
-21.3977502748
 31
0.0
 11
-22.2338887916
 21
-21.282127005
 31
0.0
 11
-22.2313003539
 21
-21.1321172792
 31
0.0
 11
-22.2293188019
 21
-20.954336659
 31
0.0
 11
-22.2280325506
 21
-20.7568083599
 31
0.0
 11
-22.227498511
 21
-20.5491593337
 31
0.0
  0
SPLINE
  5
5B0
100
AcDbEntity
  8
RACCORDO
100
AcDbSpline
 62
253
  6
CONTINUOUS
 70
0
 71
3
 72
21
 73
17
 74
15
 42
0.0000001
 43
0.0000001
 44
0.0000000001
 12
-8.1322848775
 22
0.001575351
 32
0.0
 13
8.1322848094
 23
0.0018946105
 33
0.0
 40
0.0
 40
0.0
 40
0.0
 40
0.0
 40
0.071949614
 40
0.1440403195
 40
0.2154727539
 40
0.2866484775
 40
0.357698863
 40
0.4287632761
 40
0.4999133949
 40
0.5710646621
 40
0.6421345088
 40
0.7131979919
 40
0.784398267
 40
0.8558699361
 40
0.9280214229
 40
1.0
 40
1.0
 40
1.0
 40
1.0
 10
16.0
 20
-18.5887045765
 30
0.0
 10
15.8049617473
 20
-18.5886667945
 30
0.0
 10
15.4130865671
 20
-18.5445996341
 30
0.0
 10
14.8574691636
 20
-18.3495749789
 30
0.0
 10
14.3607679025
 20
-18.0369025527
 30
0.0
 10
13.9479299482
 20
-17.6238162877
 30
0.0
 10
13.6375391015
 20
-17.1302789159
 30
0.0
 10
13.4446174297
 20
-16.5801454037
 30
0.0
 10
13.3790446259
 20
-16.0005638705
 30
0.0
 10
13.4443648474
 20
-15.420939733
 30
0.0
 10
13.6370428334
 20
-14.8706662212
 30
0.0
 10
13.9472379601
 20
-14.3768682996
 30
0.0
 10
14.3600089702
 20
-13.9634169738
 30
0.0
 10
14.8568549624
 20
-13.6503269012
 30
0.0
 10
15.4127627848
 20
-13.455026891
 30
0.0
 10
15.8048832369
 20
-13.4109114778
 30
0.0
 10
16.0
 20
-13.4108660207
 30
0.0
 11
16.0
 21
-18.5887045765
 31
0.0
 11
15.4185737172
 21
-18.5231090693
 31
0.0
 11
14.8653718594
 21
-18.329018806
 31
0.0
 11
14.3738151981
 21
-18.0194590888
 31
0.0
 11
13.9646775388
 21
-17.6100199109
 31
0.0
 11
13.6571191296
 21
-17.1208747782
 31
0.0
 11
13.4659050132
 21
-16.5755087204
 31
0.0
 11
13.4008686751
 21
-16.0005623477
 31
0.0
 11
13.4656494944
 21
-15.4255777304
 31
0.0
 11
13.6566168836
 21
-14.8800784106
 31
0.0
 11
13.9639780168
 21
-14.3906835109
 31
0.0
 11
14.3730435519
 21
-13.9808901166
 31
0.0
 11
14.8647288451
 21
-13.670936018
 31
0.0
 11
15.4183447379
 21
-13.476532876
 31
0.0
 11
16.0
 21
-13.4108660207
 31
0.0
  0
SPLINE
  5
5B1
100
AcDbEntity
  8
RACCORDO
100
AcDbSpline
 62
253
  6
CONTINUOUS
 70
0
 71
3
 72
21
 73
17
 74
15
 42
0.0000001
 43
0.0000001
 44
0.0000000001
 12
8.1322848788
 22
-0.0015732728
 32
0.0
 13
-8.1322848097
 23
-0.0018969799
 33
0.0
 40
0.0
 40
0.0
 40
0.0
 40
0.0
 40
0.0719499105
 40
0.1440430724
 40
0.2154811597
 40
0.2866651666
 40
0.3577244623
 40
0.4287957537
 40
0.4999484653
 40
0.5710971496
 40
0.6421601247
 40
0.7132146984
 40
0.7844066851
 40
0.855872694
 40
0.9280217194
 40
1.0
 40
1.0
 40
1.0
 40
1.0
 10
16.0
 20
-13.4108660207
 30
0.0
 10
16.1950390563
 20
-13.410903753
 30
0.0
 10
16.5869225371
 20
-13.4549874764
 30
0.0
 10
17.1425431582
 20
-13.6500785429
 30
0.0
 10
17.6392407376
 20
-13.9628416889
 30
0.0
 10
18.0520713858
 20
-14.3760217277
 30
0.0
 10
18.3624567195
 20
-14.8696377528
 30
0.0
 10
18.5553782077
 20
-15.4198225151
 30
0.0
 10
18.620955369
 20
-15.9994217225
 30
0.0
 10
18.5556395097
 20
-16.5790282554
 30
0.0
 10
18.3629613515
 20
-17.1292505778
 30
0.0
 10
18.0527607183
 20
-17.6229698836
 30
0.0
 10
17.6399823929
 20
-18.0363274275
 30
0.0
 10
17.1431326975
 20
-18.3493267109
 30
0.0
 10
16.5872280964
 20
-18.54456024
 30
0.0
 10
16.1951159592
 20
-18.5886590627
 30
0.0
 10
16.0
 20
-18.5887045765
 30
0.0
 11
16.0
 21
-13.4108660207
 31
0.0
 11
16.5814262843
 21
-13.4764830158
 31
0.0
 11
17.1346281371
 21
-13.6706336257
 31
0.0
 11
17.6261847994
 21
-13.9802796011
 31
0.0
 11
18.0353224601
 21
-14.3898140016
 31
0.0
 11
18.3428808697
 21
-14.8790447249
 31
0.0
 11
18.5340949863
 21
-15.4244700576
 31
0.0
 11
18.5991313249
 21
-15.9994376505
 31
0.0
 11
18.5343505059
 21
-16.57440113
 31
0.0
 11
18.3433831169
 21
-17.1198412415
 31
0.0
 11
18.0360219838
 21
-17.6091505816
 31
0.0
 11
17.6269564486
 21
-18.0188487328
 31
0.0
 11
17.1352711553
 21
-18.3287165054
 31
0.0
 11
16.5816552623
 21
-18.5230592248
 31
0.0
 11
16.0
 21
-18.5887045765
 31
0.0
  0
SPLINE
  5
5B2
100
AcDbEntity
  8
RACCORDO
100
AcDbSpline
 62
253
  6
CONTINUOUS
 70
0
 71
3
 72
10
 73
6
 74
4
 42
0.0000001
 43
0.0000001
 44
0.0000000001
 12
0.0295373192
 22
41.1394506613
 32
0.0
 13
-0.0295373258
 23
41.1394506613
 33
0.0
 40
0.0
 40
0.0
 40
0.0
 40
0.0
 40
0.3332915306
 40
0.6667084695
 40
1.0
 40
1.0
 40
1.0
 40
1.0
 10
-21.7275746634
 20
-20.5697290627
 30
0.0
 10
-21.7242931506
 20
-15.9992522366
 30
0.0
 10
-21.71991998
 20
-6.8565771116
 30
0.0
 10
-21.719919981
 20
6.8565771135
 30
0.0
 10
-21.7242931499
 20
15.9992522375
 30
0.0
 10
-21.7275746634
 20
20.5697290627
 30
0.0
 11
-21.7275746634
 21
-20.5697290627
 31
0.0
 11
-21.7210136842
 21
-6.85829662
 31
0.0
 11
-21.7210136844
 21
6.8582966228
 31
0.0
 11
-21.7275746634
 21
20.5697290627
 31
0.0
  0
SPLINE
  5
5B3
100
AcDbEntity
  8
RACCORDO
100
AcDbSpline
 62
253
  6
CONTINUOUS
 70
0
 71
3
 72
10
 73
6
 74
4
 42
0.0000001
 43
0.0000001
 44
0.0000000001
 12
-0.0295373258
 22
-41.1394506613
 32
0.0
 13
0.0295373192
 23
-41.1394506613
 33
0.0
 40
0.0
 40
0.0
 40
0.0
 40
0.0
 40
0.3332915305
 40
0.6667084694
 40
1.0
 40
1.0
 40
1.0
 40
1.0
 10
21.7275746634
 20
20.5697290627
 30
0.0
 10
21.7242931499
 20
15.9992522375
 30
0.0
 10
21.719919981
 20
6.8565771135
 30
0.0
 10
21.71991998
 20
-6.8565771116
 30
0.0
 10
21.7242931506
 20
-15.9992522366
 30
0.0
 10
21.7275746634
 20
-20.5697290627
 30
0.0
 11
21.7275746634
 21
20.5697290627
 31
0.0
 11
21.7210136844
 21
6.8582966228
 31
0.0
 11
21.7210136842
 21
-6.85829662
 31
0.0
 11
21.7275746634
 21
-20.5697290627
 31
0.0
  0
SPLINE
  5
5B4
100
AcDbEntity
  8
RACCORDO
100
AcDbSpline
 62
253
  6
CONTINUOUS
 70
0
 71
3
 72
14
 73
10
 74
8
 42
0.0000001
 43
0.0000001
 44
0.0000000001
 12
0.0006902991
 22
-0.9578450395
 32
0.0
 13
0.3016556632
 23
-0.9091047558
 33
0.0
 40
0.0
 40
0.0
 40
0.0
 40
0.0
 40
0.216788364
 40
0.4230142435
 40
0.6086305066
 40
0.7652654641
 40
0.8860201853
 40
0.9654006044
 40
1.0
 40
1.0
 40
1.0
 40
1.0
 10
22.227498511
 20
-20.5491593337
 30
0.0
 10
22.2275483939
 20
-20.6183758867
 30
0.0
 10
22.2278757545
 20
-20.7534402353
 30
0.0
 10
22.2291609386
 20
-20.9477460945
 30
0.0
 10
22.2308969283
 20
-21.1229031317
 30
0.0
 10
22.2337960043
 20
-21.2705758813
 30
0.0
 10
22.2354979552
 20
-21.384798429
 30
0.0
 10
22.2407272159
 20
-21.4590017935
 30
0.0
 10
22.2405462366
 20
-21.4961645853
 30
0.0
 10
22.2440252712
 20
-21.5066494103
 30
0.0
 11
22.227498511
 21
-20.5491593337
 31
0.0
 11
22.2280325506
 21
-20.7568083599
 31
0.0
 11
22.2293188019
 21
-20.9543366591
 31
0.0
 11
22.2313003539
 21
-21.1321172792
 31
0.0
 11
22.2338887916
 21
-21.282127005
 31
0.0
 11
22.2369708688
 21
-21.3977502748
 31
0.0
 11
22.2404054585
 21
-21.4737068225
 31
0.0
 11
22.2440252712
 21
-21.5066494103
 31
0.0
  0
SPLINE
  5
5B5
100
AcDbEntity
  8
RACCORDO
100
AcDbSpline
 62
253
  6
CONTINUOUS
 70
0
 71
3
 72
10
 73
6
 74
4
 42
0.0000001
 43
0.0000001
 44
0.0000000001
 12
-0.0295373256
 22
-41.0983111957
 32
0.0
 13
0.0295373191
 23
-41.0983111957
 33
0.0
 40
0.0
 40
0.0
 40
0.0
 40
0.0
 40
0.3332913567
 40
0.6667090136
 40
1.0
 40
1.0
 40
1.0
 40
1.0
 10
22.227498511
 20
20.5491593337
 30
0.0
 10
22.2242169992
 20
15.9832553682
 30
0.0
 10
22.2198438255
 20
6.849715464
 30
0.0
 10
22.2198438283
 20
-6.84972561
 30
0.0
 10
22.2242170036
 20
-15.9832604413
 30
0.0
 10
22.227498511
 20
-20.5491593337
 30
0.0
 11
22.227498511
 21
20.5491593337
 31
0.0
 11
22.2209375337
 21
6.8514454711
 31
0.0
 11
22.2209375371
 21
-6.8514606902
 31
0.0
 11
22.227498511
 21
-20.5491593337
 31
0.0
  0
SPLINE
  5
5B6
100
AcDbEntity
  8
PORTATASTO
100
AcDbSpline
 62
253
  6
CONTINUOUS
 70
0
 71
3
 72
16
 73
12
 74
10
 42
0.0000001
 43
0.0000001
 44
0.0000000001
 12
0.0000008704
 22
0.4330157742
 32
0.0
 13
-0.0039264321
 23
0.4329979721
 33
0.0
 40
0.0
 40
0.0
 40
0.0
 40
0.0
 40
0.1329751245
 40
0.2653311846
 40
0.3946181073
 40
0.5181583762
 40
0.634401034
 40
0.7423379184
 40
0.8404360722
 40
0.9268390095
 40
1.0
 40
1.0
 40
1.0
 40
1.0
 10
-19.561787934
 20
23.0783121635
 30
0.0
 10
-19.5617878955
 20
23.0975056057
 30
0.0
 10
-19.5617994599
 20
23.1358031362
 30
0.0
 10
-19.5618513905
 20
23.1927617377
 30
0.0
 10
-19.5619377246
 20
23.2483584828
 30
0.0
 10
-19.5620570265
 20
23.301629376
 30
0.0
 10
-19.5622073691
 20
23.351818544
 30
0.0
 10
-19.5623868205
 20
23.398335313
 30
0.0
 10
-19.5625928589
 20
23.4405449053
 30
0.0
 10
-19.5628216317
 20
23.4777347938
 30
0.0
 10
-19.5630011891
 20
23.5007653452
 30
0.0
 10
-19.5630969429
 20
23.5113248654
 30
0.0
 11
-19.561787934
 21
23.0783121635
 31
0.0
 11
-19.5618053522
 21
23.1358924874
 31
0.0
 11
-19.5618579904
 21
23.1932047251
 31
0.0
 11
-19.5619455652
 21
23.2491879335
 31
0.0
 11
-19.5620663307
 21
23.3026826824
 31
0.0
 11
-19.5622184617
 21
23.3530173569
 31
0.0
 11
-19.5624006525
 21
23.3997553754
 31
0.0
 11
-19.5626106607
 21
23.4422329043
 31
0.0
 11
-19.5628444971
 21
23.4796460083
 31
0.0
 11
-19.5630969429
 21
23.5113248654
 31
0.0
  0
SPLINE
  5
5B7
100
AcDbEntity
  8
PORTATASTO
100
AcDbSpline
 62
253
  6
CONTINUOUS
 70
0
 71
3
 72
16
 73
12
 74
10
 42
0.0000001
 43
0.0000001
 44
0.0000000001
 12
0.003926422
 22
0.4329979722
 32
0.0
 13
-0.0000008708
 23
0.4330157742
 33
0.0
 40
0.0
 40
0.0
 40
0.0
 40
0.0
 40
0.0731609897
 40
0.1595639282
 40
0.2576620814
 40
0.3655989661
 40
0.4818416237
 40
0.6053818927
 40
0.7346688153
 40
0.8670248755
 40
1.0
 40
1.0
 40
1.0
 40
1.0
 10
-19.5630969429
 20
-23.5113248654
 30
0.0
 10
-19.5630011893
 20
-23.5007653453
 30
0.0
 10
-19.5628216315
 20
-23.4777347939
 30
0.0
 10
-19.5625928589
 20
-23.4405449054
 30
0.0
 10
-19.5623868204
 20
-23.3983353129
 30
0.0
 10
-19.5622073691
 20
-23.351818544
 30
0.0
 10
-19.5620570264
 20
-23.3016293759
 30
0.0
 10
-19.5619377246
 20
-23.2483584828
 30
0.0
 10
-19.5618513905
 20
-23.1927617377
 30
0.0
 10
-19.5617994599
 20
-23.1358031362
 30
0.0
 10
-19.5617878954
 20
-23.0975056057
 30
0.0
 10
-19.561787934
 20
-23.0783121635
 30
0.0
 11
-19.5630969429
 21
-23.5113248654
 31
0.0
 11
-19.5628444971
 21
-23.4796460086
 31
0.0
 11
-19.5626106607
 21
-23.4422329041
 31
0.0
 11
-19.5624006525
 21
-23.3997553754
 31
0.0
 11
-19.5622184617
 21
-23.3530173569
 31
0.0
 11
-19.5620663307
 21
-23.3026826824
 31
0.0
 11
-19.5619455652
 21
-23.2491879335
 31
0.0
 11
-19.5618579904
 21
-23.1932047251
 31
0.0
 11
-19.5618053522
 21
-23.1358924873
 31
0.0
 11
-19.561787934
 21
-23.0783121635
 31
0.0
  0
SPLINE
  5
5B8
100
AcDbEntity
  8
PORTATASTO
100
AcDbSpline
 62
253
  6
CONTINUOUS
 70
0
 71
3
 72
16
 73
12
 74
10
 42
0.0000001
 43
0.0000001
 44
0.0000000001
 12
-0.003926422
 22
-0.4329979722
 32
0.0
 13
0.0000008708
 23
-0.4330157742
 33
0.0
 40
0.0
 40
0.0
 40
0.0
 40
0.0
 40
0.0731609897
 40
0.1595639282
 40
0.2576620814
 40
0.3655989661
 40
0.4818416237
 40
0.6053818927
 40
0.7346688153
 40
0.8670248755
 40
1.0
 40
1.0
 40
1.0
 40
1.0
 10
-21.8119030571
 20
23.5113248654
 30
0.0
 10
-21.8119988107
 20
23.5007653453
 30
0.0
 10
-21.8121783685
 20
23.4777347939
 30
0.0
 10
-21.8124071411
 20
23.4405449054
 30
0.0
 10
-21.8126131796
 20
23.3983353129
 30
0.0
 10
-21.8127926309
 20
23.351818544
 30
0.0
 10
-21.8129429736
 20
23.3016293759
 30
0.0
 10
-21.8130622754
 20
23.2483584828
 30
0.0
 10
-21.8131486095
 20
23.1927617377
 30
0.0
 10
-21.8132005401
 20
23.1358031362
 30
0.0
 10
-21.8132121046
 20
23.0975056057
 30
0.0
 10
-21.813212066
 20
23.0783121635
 30
0.0
 11
-21.8119030571
 21
23.5113248654
 31
0.0
 11
-21.8121555029
 21
23.4796460086
 31
0.0
 11
-21.8123893393
 21
23.4422329041
 31
0.0
 11
-21.8125993475
 21
23.3997553754
 31
0.0
 11
-21.8127815383
 21
23.3530173569
 31
0.0
 11
-21.8129336693
 21
23.3026826824
 31
0.0
 11
-21.8130544348
 21
23.2491879335
 31
0.0
 11
-21.8131420096
 21
23.1932047251
 31
0.0
 11
-21.8131946478
 21
23.1358924873
 31
0.0
 11
-21.813212066
 21
23.0783121635
 31
0.0
  0
SPLINE
  5
5B9
100
AcDbEntity
  8
PORTATASTO
100
AcDbSpline
 62
253
  6
CONTINUOUS
 70
0
 71
3
 72
16
 73
12
 74
10
 42
0.0000001
 43
0.0000001
 44
0.0000000001
 12
-0.0000008704
 22
-0.4330157742
 32
0.0
 13
0.0039264321
 23
-0.4329979721
 33
0.0
 40
0.0
 40
0.0
 40
0.0
 40
0.0
 40
0.1329751245
 40
0.2653311846
 40
0.3946181073
 40
0.5181583762
 40
0.634401034
 40
0.7423379184
 40
0.8404360722
 40
0.9268390095
 40
1.0
 40
1.0
 40
1.0
 40
1.0
 10
-21.813212066
 20
-23.0783121635
 30
0.0
 10
-21.8132121045
 20
-23.0975056057
 30
0.0
 10
-21.8132005401
 20
-23.1358031362
 30
0.0
 10
-21.8131486095
 20
-23.1927617377
 30
0.0
 10
-21.8130622754
 20
-23.2483584828
 30
0.0
 10
-21.8129429735
 20
-23.301629376
 30
0.0
 10
-21.8127926309
 20
-23.351818544
 30
0.0
 10
-21.8126131795
 20
-23.398335313
 30
0.0
 10
-21.8124071411
 20
-23.4405449053
 30
0.0
 10
-21.8121783683
 20
-23.4777347938
 30
0.0
 10
-21.8119988109
 20
-23.5007653452
 30
0.0
 10
-21.8119030571
 20
-23.5113248654
 30
0.0
 11
-21.813212066
 21
-23.0783121635
 31
0.0
 11
-21.8131946478
 21
-23.1358924874
 31
0.0
 11
-21.8131420096
 21
-23.1932047251
 31
0.0
 11
-21.8130544348
 21
-23.2491879335
 31
0.0
 11
-21.8129336693
 21
-23.3026826824
 31
0.0
 11
-21.8127815383
 21
-23.3530173569
 31
0.0
 11
-21.8125993475
 21
-23.3997553754
 31
0.0
 11
-21.8123893393
 21
-23.4422329043
 31
0.0
 11
-21.8121555029
 21
-23.4796460083
 31
0.0
 11
-21.8119030571
 21
-23.5113248654
 31
0.0
  0
SPLINE
  5
5BA
100
AcDbEntity
  8
PORTATASTO
100
AcDbSpline
 62
253
  6
CONTINUOUS
 70
0
 71
3
 72
16
 73
12
 74
10
 42
0.0000001
 43
0.0000001
 44
0.0000000001
 12
-0.003926422
 22
-0.4329979722
 32
0.0
 13
0.0000008708
 23
-0.4330157742
 33
0.0
 40
0.0
 40
0.0
 40
0.0
 40
0.0
 40
0.0731609897
 40
0.1595639282
 40
0.2576620814
 40
0.3655989661
 40
0.4818416237
 40
0.6053818927
 40
0.7346688153
 40
0.8670248755
 40
1.0
 40
1.0
 40
1.0
 40
1.0
 10
-2.9369030571
 20
23.5113248654
 30
0.0
 10
-2.9369988107
 20
23.5007653453
 30
0.0
 10
-2.9371783685
 20
23.4777347939
 30
0.0
 10
-2.9374071411
 20
23.4405449054
 30
0.0
 10
-2.9376131796
 20
23.3983353129
 30
0.0
 10
-2.9377926309
 20
23.351818544
 30
0.0
 10
-2.9379429736
 20
23.3016293759
 30
0.0
 10
-2.9380622754
 20
23.2483584828
 30
0.0
 10
-2.9381486095
 20
23.1927617377
 30
0.0
 10
-2.9382005401
 20
23.1358031362
 30
0.0
 10
-2.9382121046
 20
23.0975056057
 30
0.0
 10
-2.938212066
 20
23.0783121635
 30
0.0
 11
-2.9369030571
 21
23.5113248654
 31
0.0
 11
-2.9371555029
 21
23.4796460086
 31
0.0
 11
-2.9373893393
 21
23.4422329041
 31
0.0
 11
-2.9375993475
 21
23.3997553754
 31
0.0
 11
-2.9377815383
 21
23.3530173569
 31
0.0
 11
-2.9379336693
 21
23.3026826824
 31
0.0
 11
-2.9380544348
 21
23.2491879335
 31
0.0
 11
-2.9381420096
 21
23.1932047251
 31
0.0
 11
-2.9381946478
 21
23.1358924873
 31
0.0
 11
-2.938212066
 21
23.0783121635
 31
0.0
  0
SPLINE
  5
5BB
100
AcDbEntity
  8
PORTATASTO
100
AcDbSpline
 62
253
  6
CONTINUOUS
 70
0
 71
3
 72
16
 73
12
 74
10
 42
0.0000001
 43
0.0000001
 44
0.0000000001
 12
-0.0000008704
 22
-0.4330157742
 32
0.0
 13
0.0039264321
 23
-0.4329979721
 33
0.0
 40
0.0
 40
0.0
 40
0.0
 40
0.0
 40
0.1329751245
 40
0.2653311846
 40
0.3946181073
 40
0.5181583762
 40
0.634401034
 40
0.7423379184
 40
0.8404360722
 40
0.9268390095
 40
1.0
 40
1.0
 40
1.0
 40
1.0
 10
-2.938212066
 20
-23.0783121635
 30
0.0
 10
-2.9382121045
 20
-23.0975056057
 30
0.0
 10
-2.9382005401
 20
-23.1358031362
 30
0.0
 10
-2.9381486095
 20
-23.1927617377
 30
0.0
 10
-2.9380622754
 20
-23.2483584828
 30
0.0
 10
-2.9379429735
 20
-23.301629376
 30
0.0
 10
-2.9377926309
 20
-23.351818544
 30
0.0
 10
-2.9376131795
 20
-23.398335313
 30
0.0
 10
-2.9374071411
 20
-23.4405449053
 30
0.0
 10
-2.9371783683
 20
-23.4777347938
 30
0.0
 10
-2.9369988109
 20
-23.5007653452
 30
0.0
 10
-2.9369030571
 20
-23.5113248654
 30
0.0
 11
-2.938212066
 21
-23.0783121635
 31
0.0
 11
-2.9381946478
 21
-23.1358924874
 31
0.0
 11
-2.9381420096
 21
-23.1932047251
 31
0.0
 11
-2.9380544348
 21
-23.2491879335
 31
0.0
 11
-2.9379336693
 21
-23.3026826824
 31
0.0
 11
-2.9377815383
 21
-23.3530173569
 31
0.0
 11
-2.9375993475
 21
-23.3997553754
 31
0.0
 11
-2.9373893393
 21
-23.4422329043
 31
0.0
 11
-2.9371555029
 21
-23.4796460083
 31
0.0
 11
-2.9369030571
 21
-23.5113248654
 31
0.0
  0
SPLINE
  5
5BC
100
AcDbEntity
  8
PORTATASTO
100
AcDbSpline
 62
253
  6
CONTINUOUS
 70
0
 71
3
 72
16
 73
12
 74
10
 42
0.0000001
 43
0.0000001
 44
0.0000000001
 12
0.0000008704
 22
0.4330157742
 32
0.0
 13
-0.0039264321
 23
0.4329979721
 33
0.0
 40
0.0
 40
0.0
 40
0.0
 40
0.0
 40
0.1329751245
 40
0.2653311846
 40
0.3946181073
 40
0.5181583762
 40
0.634401034
 40
0.7423379184
 40
0.8404360722
 40
0.9268390095
 40
1.0
 40
1.0
 40
1.0
 40
1.0
 10
-0.686787934
 20
23.0783121635
 30
0.0
 10
-0.6867878955
 20
23.0975056057
 30
0.0
 10
-0.6867994599
 20
23.1358031362
 30
0.0
 10
-0.6868513905
 20
23.1927617377
 30
0.0
 10
-0.6869377246
 20
23.2483584828
 30
0.0
 10
-0.6870570265
 20
23.301629376
 30
0.0
 10
-0.6872073691
 20
23.351818544
 30
0.0
 10
-0.6873868205
 20
23.398335313
 30
0.0
 10
-0.6875928589
 20
23.4405449053
 30
0.0
 10
-0.6878216317
 20
23.4777347938
 30
0.0
 10
-0.6880011891
 20
23.5007653452
 30
0.0
 10
-0.6880969429
 20
23.5113248654
 30
0.0
 11
-0.686787934
 21
23.0783121635
 31
0.0
 11
-0.6868053522
 21
23.1358924874
 31
0.0
 11
-0.6868579904
 21
23.1932047251
 31
0.0
 11
-0.6869455652
 21
23.2491879335
 31
0.0
 11
-0.6870663307
 21
23.3026826824
 31
0.0
 11
-0.6872184617
 21
23.3530173569
 31
0.0
 11
-0.6874006525
 21
23.3997553754
 31
0.0
 11
-0.6876106607
 21
23.4422329043
 31
0.0
 11
-0.6878444971
 21
23.4796460083
 31
0.0
 11
-0.6880969429
 21
23.5113248654
 31
0.0
  0
SPLINE
  5
5BD
100
AcDbEntity
  8
PORTATASTO
100
AcDbSpline
 62
253
  6
CONTINUOUS
 70
0
 71
3
 72
16
 73
12
 74
10
 42
0.0000001
 43
0.0000001
 44
0.0000000001
 12
0.003926422
 22
0.4329979722
 32
0.0
 13
-0.0000008708
 23
0.4330157742
 33
0.0
 40
0.0
 40
0.0
 40
0.0
 40
0.0
 40
0.0731609897
 40
0.1595639282
 40
0.2576620814
 40
0.3655989661
 40
0.4818416237
 40
0.6053818927
 40
0.7346688153
 40
0.8670248755
 40
1.0
 40
1.0
 40
1.0
 40
1.0
 10
-0.6880969429
 20
-23.5113248654
 30
0.0
 10
-0.6880011893
 20
-23.5007653453
 30
0.0
 10
-0.6878216315
 20
-23.4777347939
 30
0.0
 10
-0.6875928589
 20
-23.4405449054
 30
0.0
 10
-0.6873868204
 20
-23.3983353129
 30
0.0
 10
-0.6872073691
 20
-23.351818544
 30
0.0
 10
-0.6870570264
 20
-23.3016293759
 30
0.0
 10
-0.6869377246
 20
-23.2483584828
 30
0.0
 10
-0.6868513905
 20
-23.1927617377
 30
0.0
 10
-0.6867994599
 20
-23.1358031362
 30
0.0
 10
-0.6867878954
 20
-23.0975056057
 30
0.0
 10
-0.686787934
 20
-23.0783121635
 30
0.0
 11
-0.6880969429
 21
-23.5113248654
 31
0.0
 11
-0.6878444971
 21
-23.4796460086
 31
0.0
 11
-0.6876106607
 21
-23.4422329041
 31
0.0
 11
-0.6874006525
 21
-23.3997553754
 31
0.0
 11
-0.6872184617
 21
-23.3530173569
 31
0.0
 11
-0.6870663307
 21
-23.3026826824
 31
0.0
 11
-0.6869455652
 21
-23.2491879335
 31
0.0
 11
-0.6868579904
 21
-23.1932047251
 31
0.0
 11
-0.6868053522
 21
-23.1358924873
 31
0.0
 11
-0.686787934
 21
-23.0783121635
 31
0.0
  0
SPLINE
  5
5BE
100
AcDbEntity
  8
PORTATASTO
100
AcDbSpline
 62
253
  6
CONTINUOUS
 70
0
 71
3
 72
16
 73
12
 74
10
 42
0.0000001
 43
0.0000001
 44
0.0000000001
 12
0.003926422
 22
0.4329979722
 32
0.0
 13
-0.0000008708
 23
0.4330157742
 33
0.0
 40
0.0
 40
0.0
 40
0.0
 40
0.0
 40
0.0731609897
 40
0.1595639282
 40
0.2576620814
 40
0.3655989661
 40
0.4818416237
 40
0.6053818927
 40
0.7346688153
 40
0.8670248755
 40
1.0
 40
1.0
 40
1.0
 40
1.0
 10
2.9369030571
 20
-23.5113248654
 30
0.0
 10
2.9369988107
 20
-23.5007653453
 30
0.0
 10
2.9371783685
 20
-23.4777347939
 30
0.0
 10
2.9374071411
 20
-23.4405449054
 30
0.0
 10
2.9376131796
 20
-23.3983353129
 30
0.0
 10
2.9377926309
 20
-23.351818544
 30
0.0
 10
2.9379429736
 20
-23.3016293759
 30
0.0
 10
2.9380622754
 20
-23.2483584828
 30
0.0
 10
2.9381486095
 20
-23.1927617377
 30
0.0
 10
2.9382005401
 20
-23.1358031362
 30
0.0
 10
2.9382121046
 20
-23.0975056057
 30
0.0
 10
2.938212066
 20
-23.0783121635
 30
0.0
 11
2.9369030571
 21
-23.5113248654
 31
0.0
 11
2.9371555029
 21
-23.4796460086
 31
0.0
 11
2.9373893393
 21
-23.4422329041
 31
0.0
 11
2.9375993475
 21
-23.3997553754
 31
0.0
 11
2.9377815383
 21
-23.3530173569
 31
0.0
 11
2.9379336693
 21
-23.3026826824
 31
0.0
 11
2.9380544348
 21
-23.2491879335
 31
0.0
 11
2.9381420096
 21
-23.1932047251
 31
0.0
 11
2.9381946478
 21
-23.1358924873
 31
0.0
 11
2.938212066
 21
-23.0783121635
 31
0.0
  0
SPLINE
  5
5BF
100
AcDbEntity
  8
PORTATASTO
100
AcDbSpline
 62
253
  6
CONTINUOUS
 70
0
 71
3
 72
16
 73
12
 74
10
 42
0.0000001
 43
0.0000001
 44
0.0000000001
 12
0.0000008704
 22
0.4330157742
 32
0.0
 13
-0.0039264321
 23
0.4329979721
 33
0.0
 40
0.0
 40
0.0
 40
0.0
 40
0.0
 40
0.1329751245
 40
0.2653311846
 40
0.3946181073
 40
0.5181583762
 40
0.634401034
 40
0.7423379184
 40
0.8404360722
 40
0.9268390095
 40
1.0
 40
1.0
 40
1.0
 40
1.0
 10
2.938212066
 20
23.0783121635
 30
0.0
 10
2.9382121045
 20
23.0975056057
 30
0.0
 10
2.9382005401
 20
23.1358031362
 30
0.0
 10
2.9381486095
 20
23.1927617377
 30
0.0
 10
2.9380622754
 20
23.2483584828
 30
0.0
 10
2.9379429735
 20
23.301629376
 30
0.0
 10
2.9377926309
 20
23.351818544
 30
0.0
 10
2.9376131795
 20
23.398335313
 30
0.0
 10
2.9374071411
 20
23.4405449053
 30
0.0
 10
2.9371783683
 20
23.4777347938
 30
0.0
 10
2.9369988109
 20
23.5007653452
 30
0.0
 10
2.9369030571
 20
23.5113248654
 30
0.0
 11
2.938212066
 21
23.0783121635
 31
0.0
 11
2.9381946478
 21
23.1358924874
 31
0.0
 11
2.9381420096
 21
23.1932047251
 31
0.0
 11
2.9380544348
 21
23.2491879335
 31
0.0
 11
2.9379336693
 21
23.3026826824
 31
0.0
 11
2.9377815383
 21
23.3530173569
 31
0.0
 11
2.9375993475
 21
23.3997553754
 31
0.0
 11
2.9373893393
 21
23.4422329043
 31
0.0
 11
2.9371555029
 21
23.4796460083
 31
0.0
 11
2.9369030571
 21
23.5113248654
 31
0.0
  0
SPLINE
  5
5C0
100
AcDbEntity
  8
PORTATASTO
100
AcDbSpline
 62
253
  6
CONTINUOUS
 70
0
 71
3
 72
16
 73
12
 74
10
 42
0.0000001
 43
0.0000001
 44
0.0000000001
 12
-0.0000008704
 22
-0.4330157742
 32
0.0
 13
0.0039264321
 23
-0.4329979721
 33
0.0
 40
0.0
 40
0.0
 40
0.0
 40
0.0
 40
0.1329751245
 40
0.2653311846
 40
0.3946181073
 40
0.5181583762
 40
0.634401034
 40
0.7423379184
 40
0.8404360722
 40
0.9268390095
 40
1.0
 40
1.0
 40
1.0
 40
1.0
 10
0.686787934
 20
-23.0783121635
 30
0.0
 10
0.6867878955
 20
-23.0975056057
 30
0.0
 10
0.6867994599
 20
-23.1358031362
 30
0.0
 10
0.6868513905
 20
-23.1927617377
 30
0.0
 10
0.6869377246
 20
-23.2483584828
 30
0.0
 10
0.6870570265
 20
-23.301629376
 30
0.0
 10
0.6872073691
 20
-23.351818544
 30
0.0
 10
0.6873868205
 20
-23.398335313
 30
0.0
 10
0.6875928589
 20
-23.4405449053
 30
0.0
 10
0.6878216317
 20
-23.4777347938
 30
0.0
 10
0.6880011891
 20
-23.5007653452
 30
0.0
 10
0.6880969429
 20
-23.5113248654
 30
0.0
 11
0.686787934
 21
-23.0783121635
 31
0.0
 11
0.6868053522
 21
-23.1358924874
 31
0.0
 11
0.6868579904
 21
-23.1932047251
 31
0.0
 11
0.6869455652
 21
-23.2491879335
 31
0.0
 11
0.6870663307
 21
-23.3026826824
 31
0.0
 11
0.6872184617
 21
-23.3530173569
 31
0.0
 11
0.6874006525
 21
-23.3997553754
 31
0.0
 11
0.6876106607
 21
-23.4422329043
 31
0.0
 11
0.6878444971
 21
-23.4796460083
 31
0.0
 11
0.6880969429
 21
-23.5113248654
 31
0.0
  0
SPLINE
  5
5C1
100
AcDbEntity
  8
PORTATASTO
100
AcDbSpline
 62
253
  6
CONTINUOUS
 70
0
 71
3
 72
16
 73
12
 74
10
 42
0.0000001
 43
0.0000001
 44
0.0000000001
 12
-0.003926422
 22
-0.4329979722
 32
0.0
 13
0.0000008708
 23
-0.4330157742
 33
0.0
 40
0.0
 40
0.0
 40
0.0
 40
0.0
 40
0.0731609897
 40
0.1595639282
 40
0.2576620814
 40
0.3655989661
 40
0.4818416237
 40
0.6053818927
 40
0.7346688153
 40
0.8670248755
 40
1.0
 40
1.0
 40
1.0
 40
1.0
 10
0.6880969429
 20
23.5113248654
 30
0.0
 10
0.6880011893
 20
23.5007653453
 30
0.0
 10
0.6878216315
 20
23.4777347939
 30
0.0
 10
0.6875928589
 20
23.4405449054
 30
0.0
 10
0.6873868204
 20
23.3983353129
 30
0.0
 10
0.6872073691
 20
23.351818544
 30
0.0
 10
0.6870570264
 20
23.3016293759
 30
0.0
 10
0.6869377246
 20
23.2483584828
 30
0.0
 10
0.6868513905
 20
23.1927617377
 30
0.0
 10
0.6867994599
 20
23.1358031362
 30
0.0
 10
0.6867878954
 20
23.0975056057
 30
0.0
 10
0.686787934
 20
23.0783121635
 30
0.0
 11
0.6880969429
 21
23.5113248654
 31
0.0
 11
0.6878444971
 21
23.4796460086
 31
0.0
 11
0.6876106607
 21
23.4422329041
 31
0.0
 11
0.6874006525
 21
23.3997553754
 31
0.0
 11
0.6872184617
 21
23.3530173569
 31
0.0
 11
0.6870663307
 21
23.3026826824
 31
0.0
 11
0.6869455652
 21
23.2491879335
 31
0.0
 11
0.6868579904
 21
23.1932047251
 31
0.0
 11
0.6868053522
 21
23.1358924873
 31
0.0
 11
0.686787934
 21
23.0783121635
 31
0.0
  0
SPLINE
  5
5C2
100
AcDbEntity
  8
PORTATASTO
100
AcDbSpline
 62
253
  6
CONTINUOUS
 70
0
 71
3
 72
16
 73
12
 74
10
 42
0.0000001
 43
0.0000001
 44
0.0000000001
 12
-0.0000008704
 22
-0.4330157742
 32
0.0
 13
0.0039264321
 23
-0.4329979721
 33
0.0
 40
0.0
 40
0.0
 40
0.0
 40
0.0
 40
0.1329751245
 40
0.2653311846
 40
0.3946181073
 40
0.5181583762
 40
0.634401034
 40
0.7423379184
 40
0.8404360722
 40
0.9268390095
 40
1.0
 40
1.0
 40
1.0
 40
1.0
 10
19.561787934
 20
-23.0783121635
 30
0.0
 10
19.5617878955
 20
-23.0975056057
 30
0.0
 10
19.5617994599
 20
-23.1358031362
 30
0.0
 10
19.5618513905
 20
-23.1927617377
 30
0.0
 10
19.5619377246
 20
-23.2483584828
 30
0.0
 10
19.5620570265
 20
-23.301629376
 30
0.0
 10
19.5622073691
 20
-23.351818544
 30
0.0
 10
19.5623868205
 20
-23.398335313
 30
0.0
 10
19.5625928589
 20
-23.4405449053
 30
0.0
 10
19.5628216317
 20
-23.4777347938
 30
0.0
 10
19.5630011891
 20
-23.5007653452
 30
0.0
 10
19.5630969429
 20
-23.5113248654
 30
0.0
 11
19.561787934
 21
-23.0783121635
 31
0.0
 11
19.5618053522
 21
-23.1358924874
 31
0.0
 11
19.5618579904
 21
-23.1932047251
 31
0.0
 11
19.5619455652
 21
-23.2491879335
 31
0.0
 11
19.5620663307
 21
-23.3026826824
 31
0.0
 11
19.5622184617
 21
-23.3530173569
 31
0.0
 11
19.5624006525
 21
-23.3997553754
 31
0.0
 11
19.5626106607
 21
-23.4422329043
 31
0.0
 11
19.5628444971
 21
-23.4796460083
 31
0.0
 11
19.5630969429
 21
-23.5113248654
 31
0.0
  0
SPLINE
  5
5C3
100
AcDbEntity
  8
PORTATASTO
100
AcDbSpline
 62
253
  6
CONTINUOUS
 70
0
 71
3
 72
16
 73
12
 74
10
 42
0.0000001
 43
0.0000001
 44
0.0000000001
 12
-0.003926422
 22
-0.4329979722
 32
0.0
 13
0.0000008708
 23
-0.4330157742
 33
0.0
 40
0.0
 40
0.0
 40
0.0
 40
0.0
 40
0.0731609897
 40
0.1595639282
 40
0.2576620814
 40
0.3655989661
 40
0.4818416237
 40
0.6053818927
 40
0.7346688153
 40
0.8670248755
 40
1.0
 40
1.0
 40
1.0
 40
1.0
 10
19.5630969429
 20
23.5113248654
 30
0.0
 10
19.5630011893
 20
23.5007653453
 30
0.0
 10
19.5628216315
 20
23.4777347939
 30
0.0
 10
19.5625928589
 20
23.4405449054
 30
0.0
 10
19.5623868204
 20
23.3983353129
 30
0.0
 10
19.5622073691
 20
23.351818544
 30
0.0
 10
19.5620570264
 20
23.3016293759
 30
0.0
 10
19.5619377246
 20
23.2483584828
 30
0.0
 10
19.5618513905
 20
23.1927617377
 30
0.0
 10
19.5617994599
 20
23.1358031362
 30
0.0
 10
19.5617878954
 20
23.0975056057
 30
0.0
 10
19.561787934
 20
23.0783121635
 30
0.0
 11
19.5630969429
 21
23.5113248654
 31
0.0
 11
19.5628444971
 21
23.4796460086
 31
0.0
 11
19.5626106607
 21
23.4422329041
 31
0.0
 11
19.5624006525
 21
23.3997553754
 31
0.0
 11
19.5622184617
 21
23.3530173569
 31
0.0
 11
19.5620663307
 21
23.3026826824
 31
0.0
 11
19.5619455652
 21
23.2491879335
 31
0.0
 11
19.5618579904
 21
23.1932047251
 31
0.0
 11
19.5618053522
 21
23.1358924873
 31
0.0
 11
19.561787934
 21
23.0783121635
 31
0.0
  0
SPLINE
  5
5C4
100
AcDbEntity
  8
PORTATASTO
100
AcDbSpline
 62
253
  6
CONTINUOUS
 70
0
 71
3
 72
16
 73
12
 74
10
 42
0.0000001
 43
0.0000001
 44
0.0000000001
 12
0.003926422
 22
0.4329979722
 32
0.0
 13
-0.0000008708
 23
0.4330157742
 33
0.0
 40
0.0
 40
0.0
 40
0.0
 40
0.0
 40
0.0731609897
 40
0.1595639282
 40
0.2576620814
 40
0.3655989661
 40
0.4818416237
 40
0.6053818927
 40
0.7346688153
 40
0.8670248755
 40
1.0
 40
1.0
 40
1.0
 40
1.0
 10
21.8119030571
 20
-23.5113248654
 30
0.0
 10
21.8119988107
 20
-23.5007653453
 30
0.0
 10
21.8121783685
 20
-23.4777347939
 30
0.0
 10
21.8124071411
 20
-23.4405449054
 30
0.0
 10
21.8126131796
 20
-23.3983353129
 30
0.0
 10
21.8127926309
 20
-23.351818544
 30
0.0
 10
21.8129429736
 20
-23.3016293759
 30
0.0
 10
21.8130622754
 20
-23.2483584828
 30
0.0
 10
21.8131486095
 20
-23.1927617377
 30
0.0
 10
21.8132005401
 20
-23.1358031362
 30
0.0
 10
21.8132121046
 20
-23.0975056057
 30
0.0
 10
21.813212066
 20
-23.0783121635
 30
0.0
 11
21.8119030571
 21
-23.5113248654
 31
0.0
 11
21.8121555029
 21
-23.4796460086
 31
0.0
 11
21.8123893393
 21
-23.4422329041
 31
0.0
 11
21.8125993475
 21
-23.3997553754
 31
0.0
 11
21.8127815383
 21
-23.3530173569
 31
0.0
 11
21.8129336693
 21
-23.3026826824
 31
0.0
 11
21.8130544348
 21
-23.2491879335
 31
0.0
 11
21.8131420096
 21
-23.1932047251
 31
0.0
 11
21.8131946478
 21
-23.1358924873
 31
0.0
 11
21.813212066
 21
-23.0783121635
 31
0.0
  0
SPLINE
  5
5C5
100
AcDbEntity
  8
PORTATASTO
100
AcDbSpline
 62
253
  6
CONTINUOUS
 70
0
 71
3
 72
16
 73
12
 74
10
 42
0.0000001
 43
0.0000001
 44
0.0000000001
 12
0.0000008704
 22
0.4330157742
 32
0.0
 13
-0.0039264321
 23
0.4329979721
 33
0.0
 40
0.0
 40
0.0
 40
0.0
 40
0.0
 40
0.1329751245
 40
0.2653311846
 40
0.3946181073
 40
0.5181583762
 40
0.634401034
 40
0.7423379184
 40
0.8404360722
 40
0.9268390095
 40
1.0
 40
1.0
 40
1.0
 40
1.0
 10
21.813212066
 20
23.0783121635
 30
0.0
 10
21.8132121045
 20
23.0975056057
 30
0.0
 10
21.8132005401
 20
23.1358031362
 30
0.0
 10
21.8131486095
 20
23.1927617377
 30
0.0
 10
21.8130622754
 20
23.2483584828
 30
0.0
 10
21.8129429735
 20
23.301629376
 30
0.0
 10
21.8127926309
 20
23.351818544
 30
0.0
 10
21.8126131795
 20
23.398335313
 30
0.0
 10
21.8124071411
 20
23.4405449053
 30
0.0
 10
21.8121783683
 20
23.4777347938
 30
0.0
 10
21.8119988109
 20
23.5007653452
 30
0.0
 10
21.8119030571
 20
23.5113248654
 30
0.0
 11
21.813212066
 21
23.0783121635
 31
0.0
 11
21.8131946478
 21
23.1358924874
 31
0.0
 11
21.8131420096
 21
23.1932047251
 31
0.0
 11
21.8130544348
 21
23.2491879335
 31
0.0
 11
21.8129336693
 21
23.3026826824
 31
0.0
 11
21.8127815383
 21
23.3530173569
 31
0.0
 11
21.8125993475
 21
23.3997553754
 31
0.0
 11
21.8123893393
 21
23.4422329043
 31
0.0
 11
21.8121555029
 21
23.4796460083
 31
0.0
 11
21.8119030571
 21
23.5113248654
 31
0.0
  0
SPLINE
  5
5C6
100
AcDbEntity
  8
PORTATASTO
100
AcDbSpline
 62
7
  6
CONTINUOUS
 70
0
 71
3
 72
19
 73
15
 74
13
 42
0.0000001
 43
0.0000001
 44
0.0000000001
 12
-0.4500351504
 22
-0.0031247734
 32
0.0
 13
-0.3803582905
 23
-0.240559705
 33
0.0
 40
0.0
 40
0.0
 40
0.0
 40
0.0
 40
0.0614780033
 40
0.1291586662
 40
0.2025429257
 40
0.2808336398
 40
0.3632485377
 40
0.449057599
 40
0.5375926221
 40
0.6282342422
 40
0.7203896159
 40
0.813467532
 40
0.9068812199
 40
1.0
 40
1.0
 40
1.0
 40
1.0
 10
15.541351552
 20
23.7905696528
 30
0.0
 10
15.5321291312
 20
23.7905056178
 30
0.0
 10
15.5127709294
 20
23.7880777929
 30
0.0
 10
15.483411277
 20
23.7800786599
 30
0.0
 10
15.4525520764
 20
23.7685530698
 30
0.0
 10
15.4204711144
 20
23.7542352027
 30
0.0
 10
15.3873849739
 20
23.7376961428
 30
0.0
 10
15.3534895498
 20
23.7193913937
 30
0.0
 10
15.3189561754
 20
23.6996970806
 30
0.0
 10
15.283944064
 20
23.6789346877
 30
0.0
 10
15.2486078654
 20
23.6573901086
 30
0.0
 10
15.2131032414
 20
23.635326603
 30
0.0
 10
15.1775949594
 20
23.6129967127
 30
0.0
 10
15.1539452593
 20
23.5980392697
 30
0.0
 10
15.1421390926
 20
23.5905723943
 30
0.0
 11
15.541351552
 21
23.7905696528
 31
0.0
 11
15.51384467
 21
23.7875887542
 31
0.0
 11
15.4843768311
 21
23.7798801731
 31
0.0
 11
15.4533714063
 21
23.7685047778
 31
0.0
 11
15.4211442455
 21
23.7542613706
 31
0.0
 11
15.387929476
 21
23.7377542841
 31
0.0
 11
15.3539208267
 21
23.7194577379
 31
0.0
 11
15.3192868713
 21
23.6997574882
 31
0.0
 11
15.2841820999
 21
23.6789797216
 31
0.0
 11
15.2487567417
 21
23.6574123918
 31
0.0
 11
15.2131658118
 21
23.6353216058
 31
0.0
 11
15.1775671466
 21
23.6129579072
 31
0.0
 11
15.1421390926
 21
23.5905723943
 31
0.0
  0
SPLINE
  5
5C7
100
AcDbEntity
  8
PORTATASTO
100
AcDbSpline
 62
7
  6
CONTINUOUS
 70
0
 71
3
 72
19
 73
15
 74
13
 42
0.0000001
 43
0.0000001
 44
0.0000000001
 12
0.4500351504
 22
0.0031247734
 32
0.0
 13
0.3803582905
 23
0.240559705
 33
0.0
 40
0.0
 40
0.0
 40
0.0
 40
0.0
 40
0.0614780033
 40
0.1291586662
 40
0.2025429257
 40
0.2808336398
 40
0.3632485377
 40
0.449057599
 40
0.5375926221
 40
0.6282342422
 40
0.7203896159
 40
0.813467532
 40
0.9068812199
 40
1.0
 40
1.0
 40
1.0
 40
1.0
 10
6.958648448
 20
-23.7905696528
 30
0.0
 10
6.9678708688
 20
-23.7905056178
 30
0.0
 10
6.9872290706
 20
-23.7880777929
 30
0.0
 10
7.016588723
 20
-23.7800786599
 30
0.0
 10
7.0474479236
 20
-23.7685530698
 30
0.0
 10
7.0795288856
 20
-23.7542352027
 30
0.0
 10
7.1126150261
 20
-23.7376961428
 30
0.0
 10
7.1465104502
 20
-23.7193913937
 30
0.0
 10
7.1810438246
 20
-23.6996970806
 30
0.0
 10
7.216055936
 20
-23.6789346877
 30
0.0
 10
7.2513921346
 20
-23.6573901086
 30
0.0
 10
7.2868967586
 20
-23.635326603
 30
0.0
 10
7.3224050406
 20
-23.6129967127
 30
0.0
 10
7.3460547407
 20
-23.5980392697
 30
0.0
 10
7.3578609074
 20
-23.5905723943
 30
0.0
 11
6.958648448
 21
-23.7905696528
 31
0.0
 11
6.98615533
 21
-23.7875887542
 31
0.0
 11
7.0156231689
 21
-23.7798801731
 31
0.0
 11
7.0466285937
 21
-23.7685047778
 31
0.0
 11
7.0788557545
 21
-23.7542613706
 31
0.0
 11
7.112070524
 21
-23.7377542841
 31
0.0
 11
7.1460791733
 21
-23.7194577379
 31
0.0
 11
7.1807131287
 21
-23.6997574882
 31
0.0
 11
7.2158179001
 21
-23.6789797216
 31
0.0
 11
7.2512432583
 21
-23.6574123918
 31
0.0
 11
7.2868341882
 21
-23.6353216058
 31
0.0
 11
7.3224328534
 21
-23.6129579072
 31
0.0
 11
7.3578609074
 21
-23.5905723943
 31
0.0
  0
SPLINE
  5
5C8
100
AcDbEntity
  8
PORTATASTO
100
AcDbSpline
 62
7
  6
CONTINUOUS
 70
0
 71
3
 72
19
 73
15
 74
13
 42
0.0000001
 43
0.0000001
 44
0.0000000001
 12
0.4500351504
 22
-0.0031247734
 32
0.0
 13
0.3803582905
 23
-0.240559705
 33
0.0
 40
0.0
 40
0.0
 40
0.0
 40
0.0
 40
0.0614780033
 40
0.1291586662
 40
0.2025429257
 40
0.2808336398
 40
0.3632485377
 40
0.449057599
 40
0.5375926221
 40
0.6282342422
 40
0.7203896159
 40
0.813467532
 40
0.9068812199
 40
1.0
 40
1.0
 40
1.0
 40
1.0
 10
6.958648448
 20
23.7905696528
 30
0.0
 10
6.9678708688
 20
23.7905056178
 30
0.0
 10
6.9872290706
 20
23.7880777929
 30
0.0
 10
7.016588723
 20
23.7800786599
 30
0.0
 10
7.0474479236
 20
23.7685530698
 30
0.0
 10
7.0795288856
 20
23.7542352027
 30
0.0
 10
7.1126150261
 20
23.7376961428
 30
0.0
 10
7.1465104502
 20
23.7193913937
 30
0.0
 10
7.1810438246
 20
23.6996970806
 30
0.0
 10
7.216055936
 20
23.6789346877
 30
0.0
 10
7.2513921346
 20
23.6573901086
 30
0.0
 10
7.2868967586
 20
23.635326603
 30
0.0
 10
7.3224050406
 20
23.6129967127
 30
0.0
 10
7.3460547407
 20
23.5980392697
 30
0.0
 10
7.3578609074
 20
23.5905723943
 30
0.0
 11
6.958648448
 21
23.7905696528
 31
0.0
 11
6.98615533
 21
23.7875887542
 31
0.0
 11
7.0156231689
 21
23.7798801731
 31
0.0
 11
7.0466285937
 21
23.7685047778
 31
0.0
 11
7.0788557545
 21
23.7542613706
 31
0.0
 11
7.112070524
 21
23.7377542841
 31
0.0
 11
7.1460791733
 21
23.7194577379
 31
0.0
 11
7.1807131287
 21
23.6997574882
 31
0.0
 11
7.2158179001
 21
23.6789797216
 31
0.0
 11
7.2512432583
 21
23.6574123918
 31
0.0
 11
7.2868341882
 21
23.6353216058
 31
0.0
 11
7.3224328534
 21
23.6129579072
 31
0.0
 11
7.3578609074
 21
23.5905723943
 31
0.0
  0
SPLINE
  5
5C9
100
AcDbEntity
  8
PORTATASTO
100
AcDbSpline
 62
7
  6
CONTINUOUS
 70
0
 71
3
 72
19
 73
15
 74
13
 42
0.0000001
 43
0.0000001
 44
0.0000000001
 12
-0.4500351504
 22
0.0031247734
 32
0.0
 13
-0.3803582905
 23
0.240559705
 33
0.0
 40
0.0
 40
0.0
 40
0.0
 40
0.0
 40
0.0614780033
 40
0.1291586662
 40
0.2025429257
 40
0.2808336398
 40
0.3632485377
 40
0.449057599
 40
0.5375926221
 40
0.6282342422
 40
0.7203896159
 40
0.813467532
 40
0.9068812199
 40
1.0
 40
1.0
 40
1.0
 40
1.0
 10
15.541351552
 20
-23.7905696528
 30
0.0
 10
15.5321291312
 20
-23.7905056178
 30
0.0
 10
15.5127709294
 20
-23.7880777929
 30
0.0
 10
15.483411277
 20
-23.7800786599
 30
0.0
 10
15.4525520764
 20
-23.7685530698
 30
0.0
 10
15.4204711144
 20
-23.7542352027
 30
0.0
 10
15.3873849739
 20
-23.7376961428
 30
0.0
 10
15.3534895498
 20
-23.7193913937
 30
0.0
 10
15.3189561754
 20
-23.6996970806
 30
0.0
 10
15.283944064
 20
-23.6789346877
 30
0.0
 10
15.2486078654
 20
-23.6573901086
 30
0.0
 10
15.2131032414
 20
-23.635326603
 30
0.0
 10
15.1775949594
 20
-23.6129967127
 30
0.0
 10
15.1539452593
 20
-23.5980392697
 30
0.0
 10
15.1421390926
 20
-23.5905723943
 30
0.0
 11
15.541351552
 21
-23.7905696528
 31
0.0
 11
15.51384467
 21
-23.7875887542
 31
0.0
 11
15.4843768311
 21
-23.7798801731
 31
0.0
 11
15.4533714063
 21
-23.7685047778
 31
0.0
 11
15.4211442455
 21
-23.7542613706
 31
0.0
 11
15.387929476
 21
-23.7377542841
 31
0.0
 11
15.3539208267
 21
-23.7194577379
 31
0.0
 11
15.3192868713
 21
-23.6997574882
 31
0.0
 11
15.2841820999
 21
-23.6789797216
 31
0.0
 11
15.2487567417
 21
-23.6574123918
 31
0.0
 11
15.2131658118
 21
-23.6353216058
 31
0.0
 11
15.1775671466
 21
-23.6129579072
 31
0.0
 11
15.1421390926
 21
-23.5905723943
 31
0.0
  0
SPLINE
  5
5CA
100
AcDbEntity
  8
PORTATASTO
100
AcDbSpline
 62
7
  6
CONTINUOUS
 70
0
 71
3
 72
19
 73
15
 74
13
 42
0.0000001
 43
0.0000001
 44
0.0000000001
 12
-0.4500351504
 22
-0.0031247734
 32
0.0
 13
-0.3803582905
 23
-0.240559705
 33
0.0
 40
0.0
 40
0.0
 40
0.0
 40
0.0
 40
0.0614780033
 40
0.1291586662
 40
0.2025429257
 40
0.2808336398
 40
0.3632485377
 40
0.449057599
 40
0.5375926221
 40
0.6282342422
 40
0.7203896159
 40
0.813467532
 40
0.9068812199
 40
1.0
 40
1.0
 40
1.0
 40
1.0
 10
-6.958648448
 20
23.7905696528
 30
0.0
 10
-6.9678708688
 20
23.7905056178
 30
0.0
 10
-6.9872290706
 20
23.7880777929
 30
0.0
 10
-7.016588723
 20
23.7800786599
 30
0.0
 10
-7.0474479236
 20
23.7685530698
 30
0.0
 10
-7.0795288856
 20
23.7542352027
 30
0.0
 10
-7.1126150261
 20
23.7376961428
 30
0.0
 10
-7.1465104502
 20
23.7193913937
 30
0.0
 10
-7.1810438246
 20
23.6996970806
 30
0.0
 10
-7.216055936
 20
23.6789346877
 30
0.0
 10
-7.2513921346
 20
23.6573901086
 30
0.0
 10
-7.2868967586
 20
23.635326603
 30
0.0
 10
-7.3224050406
 20
23.6129967127
 30
0.0
 10
-7.3460547407
 20
23.5980392697
 30
0.0
 10
-7.3578609074
 20
23.5905723943
 30
0.0
 11
-6.958648448
 21
23.7905696528
 31
0.0
 11
-6.98615533
 21
23.7875887542
 31
0.0
 11
-7.0156231689
 21
23.7798801731
 31
0.0
 11
-7.0466285937
 21
23.7685047778
 31
0.0
 11
-7.0788557545
 21
23.7542613706
 31
0.0
 11
-7.112070524
 21
23.7377542841
 31
0.0
 11
-7.1460791733
 21
23.7194577379
 31
0.0
 11
-7.1807131287
 21
23.6997574882
 31
0.0
 11
-7.2158179001
 21
23.6789797216
 31
0.0
 11
-7.2512432583
 21
23.6574123918
 31
0.0
 11
-7.2868341882
 21
23.6353216058
 31
0.0
 11
-7.3224328534
 21
23.6129579072
 31
0.0
 11
-7.3578609074
 21
23.5905723943
 31
0.0
  0
SPLINE
  5
5CB
100
AcDbEntity
  8
PORTATASTO
100
AcDbSpline
 62
7
  6
CONTINUOUS
 70
0
 71
3
 72
19
 73
15
 74
13
 42
0.0000001
 43
0.0000001
 44
0.0000000001
 12
0.4500351504
 22
0.0031247734
 32
0.0
 13
0.3803582905
 23
0.240559705
 33
0.0
 40
0.0
 40
0.0
 40
0.0
 40
0.0
 40
0.0614780033
 40
0.1291586662
 40
0.2025429257
 40
0.2808336398
 40
0.3632485377
 40
0.449057599
 40
0.5375926221
 40
0.6282342422
 40
0.7203896159
 40
0.813467532
 40
0.9068812199
 40
1.0
 40
1.0
 40
1.0
 40
1.0
 10
-15.541351552
 20
-23.7905696528
 30
0.0
 10
-15.5321291312
 20
-23.7905056178
 30
0.0
 10
-15.5127709294
 20
-23.7880777929
 30
0.0
 10
-15.483411277
 20
-23.7800786599
 30
0.0
 10
-15.4525520764
 20
-23.7685530698
 30
0.0
 10
-15.4204711144
 20
-23.7542352027
 30
0.0
 10
-15.3873849739
 20
-23.7376961428
 30
0.0
 10
-15.3534895498
 20
-23.7193913937
 30
0.0
 10
-15.3189561754
 20
-23.6996970806
 30
0.0
 10
-15.283944064
 20
-23.6789346877
 30
0.0
 10
-15.2486078654
 20
-23.6573901086
 30
0.0
 10
-15.2131032414
 20
-23.635326603
 30
0.0
 10
-15.1775949594
 20
-23.6129967127
 30
0.0
 10
-15.1539452593
 20
-23.5980392697
 30
0.0
 10
-15.1421390926
 20
-23.5905723943
 30
0.0
 11
-15.541351552
 21
-23.7905696528
 31
0.0
 11
-15.51384467
 21
-23.7875887542
 31
0.0
 11
-15.4843768311
 21
-23.7798801731
 31
0.0
 11
-15.4533714063
 21
-23.7685047778
 31
0.0
 11
-15.4211442455
 21
-23.7542613706
 31
0.0
 11
-15.387929476
 21
-23.7377542841
 31
0.0
 11
-15.3539208267
 21
-23.7194577379
 31
0.0
 11
-15.3192868713
 21
-23.6997574882
 31
0.0
 11
-15.2841820999
 21
-23.6789797216
 31
0.0
 11
-15.2487567417
 21
-23.6574123918
 31
0.0
 11
-15.2131658118
 21
-23.6353216058
 31
0.0
 11
-15.1775671466
 21
-23.6129579072
 31
0.0
 11
-15.1421390926
 21
-23.5905723943
 31
0.0
  0
SPLINE
  5
5CC
100
AcDbEntity
  8
PORTATASTO
100
AcDbSpline
 62
7
  6
CONTINUOUS
 70
0
 71
3
 72
19
 73
15
 74
13
 42
0.0000001
 43
0.0000001
 44
0.0000000001
 12
-0.4500351504
 22
0.0031247734
 32
0.0
 13
-0.3803582905
 23
0.240559705
 33
0.0
 40
0.0
 40
0.0
 40
0.0
 40
0.0
 40
0.0614780033
 40
0.1291586662
 40
0.2025429257
 40
0.2808336398
 40
0.3632485377
 40
0.449057599
 40
0.5375926221
 40
0.6282342422
 40
0.7203896159
 40
0.813467532
 40
0.9068812199
 40
1.0
 40
1.0
 40
1.0
 40
1.0
 10
-6.958648448
 20
-23.7905696528
 30
0.0
 10
-6.9678708688
 20
-23.7905056178
 30
0.0
 10
-6.9872290706
 20
-23.7880777929
 30
0.0
 10
-7.016588723
 20
-23.7800786599
 30
0.0
 10
-7.0474479236
 20
-23.7685530698
 30
0.0
 10
-7.0795288856
 20
-23.7542352027
 30
0.0
 10
-7.1126150261
 20
-23.7376961428
 30
0.0
 10
-7.1465104502
 20
-23.7193913937
 30
0.0
 10
-7.1810438246
 20
-23.6996970806
 30
0.0
 10
-7.216055936
 20
-23.6789346877
 30
0.0
 10
-7.2513921346
 20
-23.6573901086
 30
0.0
 10
-7.2868967586
 20
-23.635326603
 30
0.0
 10
-7.3224050406
 20
-23.6129967127
 30
0.0
 10
-7.3460547407
 20
-23.5980392697
 30
0.0
 10
-7.3578609074
 20
-23.5905723943
 30
0.0
 11
-6.958648448
 21
-23.7905696528
 31
0.0
 11
-6.98615533
 21
-23.7875887542
 31
0.0
 11
-7.0156231689
 21
-23.7798801731
 31
0.0
 11
-7.0466285937
 21
-23.7685047778
 31
0.0
 11
-7.0788557545
 21
-23.7542613706
 31
0.0
 11
-7.112070524
 21
-23.7377542841
 31
0.0
 11
-7.1460791733
 21
-23.7194577379
 31
0.0
 11
-7.1807131287
 21
-23.6997574882
 31
0.0
 11
-7.2158179001
 21
-23.6789797216
 31
0.0
 11
-7.2512432583
 21
-23.6574123918
 31
0.0
 11
-7.2868341882
 21
-23.6353216058
 31
0.0
 11
-7.3224328534
 21
-23.6129579072
 31
0.0
 11
-7.3578609074
 21
-23.5905723943
 31
0.0
  0
SPLINE
  5
5CD
100
AcDbEntity
  8
PORTATASTO
100
AcDbSpline
 62
7
  6
CONTINUOUS
 70
0
 71
3
 72
19
 73
15
 74
13
 42
0.0000001
 43
0.0000001
 44
0.0000000001
 12
0.4500351504
 22
-0.0031247734
 32
0.0
 13
0.3803582905
 23
-0.240559705
 33
0.0
 40
0.0
 40
0.0
 40
0.0
 40
0.0
 40
0.0614780033
 40
0.1291586662
 40
0.2025429257
 40
0.2808336398
 40
0.3632485377
 40
0.449057599
 40
0.5375926221
 40
0.6282342422
 40
0.7203896159
 40
0.813467532
 40
0.9068812199
 40
1.0
 40
1.0
 40
1.0
 40
1.0
 10
-15.541351552
 20
23.7905696528
 30
0.0
 10
-15.5321291312
 20
23.7905056178
 30
0.0
 10
-15.5127709294
 20
23.7880777929
 30
0.0
 10
-15.483411277
 20
23.7800786599
 30
0.0
 10
-15.4525520764
 20
23.7685530698
 30
0.0
 10
-15.4204711144
 20
23.7542352027
 30
0.0
 10
-15.3873849739
 20
23.7376961428
 30
0.0
 10
-15.3534895498
 20
23.7193913937
 30
0.0
 10
-15.3189561754
 20
23.6996970806
 30
0.0
 10
-15.283944064
 20
23.6789346877
 30
0.0
 10
-15.2486078654
 20
23.6573901086
 30
0.0
 10
-15.2131032414
 20
23.635326603
 30
0.0
 10
-15.1775949594
 20
23.6129967127
 30
0.0
 10
-15.1539452593
 20
23.5980392697
 30
0.0
 10
-15.1421390926
 20
23.5905723943
 30
0.0
 11
-15.541351552
 21
23.7905696528
 31
0.0
 11
-15.51384467
 21
23.7875887542
 31
0.0
 11
-15.4843768311
 21
23.7798801731
 31
0.0
 11
-15.4533714063
 21
23.7685047778
 31
0.0
 11
-15.4211442455
 21
23.7542613706
 31
0.0
 11
-15.387929476
 21
23.7377542841
 31
0.0
 11
-15.3539208267
 21
23.7194577379
 31
0.0
 11
-15.3192868713
 21
23.6997574882
 31
0.0
 11
-15.2841820999
 21
23.6789797216
 31
0.0
 11
-15.2487567417
 21
23.6574123918
 31
0.0
 11
-15.2131658118
 21
23.6353216058
 31
0.0
 11
-15.1775671466
 21
23.6129579072
 31
0.0
 11
-15.1421390926
 21
23.5905723943
 31
0.0
  0
SPLINE
  5
5CE
100
AcDbEntity
  8
PORTATASTO
100
AcDbSpline
 62
253
  6
CONTINUOUS
 70
0
 71
3
 72
18
 73
14
 74
12
 42
0.0000001
 43
0.0000001
 44
0.0000000001
 12
-0.0011071506
 22
-0.3662491668
 32
0.0
 13
-0.3662498989
 23
-0.0008303865
 33
0.0
 40
0.0
 40
0.0
 40
0.0
 40
0.0
 40
0.0842956646
 40
0.1691893741
 40
0.2551783555
 40
0.34265483
 40
0.4318747249
 40
0.5229428283
 40
0.6158129532
 40
0.7103000283
 40
0.8061007574
 40
0.9028199028
 40
1.0
 40
1.0
 40
1.0
 40
1.0
 10
-19.5630969429
 20
23.5113248654
 30
0.0
 10
-19.5631280523
 20
23.5010337931
 30
0.0
 10
-19.5649017
 20
23.4803441232
 30
0.0
 10
-19.5726237011
 20
23.4500286297
 30
0.0
 10
-19.5852423693
 20
23.4209759624
 30
0.0
 10
-19.6024868568
 20
23.3937900907
 30
0.0
 10
-19.6239937622
 20
23.3690160235
 30
0.0
 10
-19.6493171492
 20
23.3471488435
 30
0.0
 10
-19.6779387486
 20
23.3286214778
 30
0.0
 10
-19.7092773179
 20
23.3137994957
 30
0.0
 10
-19.7427023989
 20
23.3029747474
 30
0.0
 10
-19.7775347401
 20
23.2963603152
 30
0.0
 10
-19.8012294498
 20
23.2948454135
 30
0.0
 10
-19.8130935167
 20
23.2948185145
 30
0.0
 11
-19.5630969429
 21
23.5113248654
 31
0.0
 11
-19.565726083
 21
23.4805636584
 31
0.0
 11
-19.5733741806
 21
23.4504265804
 31
0.0
 11
-19.5858860598
 21
23.4215250971
 31
0.0
 11
-19.6030078586
 21
23.3944456079
 31
0.0
 11
-19.6243921762
 21
23.3697375477
 31
0.0
 11
-19.6496051261
 21
23.3479022302
 31
0.0
 11
-19.6781351463
 21
23.3293826756
 31
0.0
 11
-19.7094033764
 21
23.314554628
 31
0.0
 11
-19.7427754024
 21
23.3037189329
 31
0.0
 11
-19.777574129
 21
23.2970954341
 31
0.0
 11
-19.8130935167
 21
23.2948185145
 31
0.0
  0
SPLINE
  5
5CF
100
AcDbEntity
  8
PORTATASTO
100
AcDbSpline
 62
253
  6
CONTINUOUS
 70
0
 71
3
 72
18
 73
14
 74
12
 42
0.0000001
 43
0.0000001
 44
0.0000000001
 12
-0.0011071506
 22
-0.3662491668
 32
0.0
 13
-0.3662498989
 23
-0.0008303865
 33
0.0
 40
0.0
 40
0.0
 40
0.0
 40
0.0
 40
0.0842956646
 40
0.1691893741
 40
0.2551783555
 40
0.34265483
 40
0.4318747249
 40
0.5229428283
 40
0.6158129532
 40
0.7103000283
 40
0.8061007574
 40
0.9028199028
 40
1.0
 40
1.0
 40
1.0
 40
1.0
 10
-0.6880969429
 20
23.5113248654
 30
0.0
 10
-0.6881280523
 20
23.5010337931
 30
0.0
 10
-0.6899017
 20
23.4803441232
 30
0.0
 10
-0.6976237011
 20
23.4500286297
 30
0.0
 10
-0.7102423693
 20
23.4209759624
 30
0.0
 10
-0.7274868568
 20
23.3937900907
 30
0.0
 10
-0.7489937622
 20
23.3690160235
 30
0.0
 10
-0.7743171492
 20
23.3471488435
 30
0.0
 10
-0.8029387486
 20
23.3286214778
 30
0.0
 10
-0.8342773179
 20
23.3137994957
 30
0.0
 10
-0.8677023989
 20
23.3029747474
 30
0.0
 10
-0.9025347401
 20
23.2963603152
 30
0.0
 10
-0.9262294498
 20
23.2948454135
 30
0.0
 10
-0.9380935167
 20
23.2948185145
 30
0.0
 11
-0.6880969429
 21
23.5113248654
 31
0.0
 11
-0.690726083
 21
23.4805636584
 31
0.0
 11
-0.6983741806
 21
23.4504265804
 31
0.0
 11
-0.7108860598
 21
23.4215250971
 31
0.0
 11
-0.7280078586
 21
23.3944456079
 31
0.0
 11
-0.7493921762
 21
23.3697375477
 31
0.0
 11
-0.7746051261
 21
23.3479022302
 31
0.0
 11
-0.8031351463
 21
23.3293826756
 31
0.0
 11
-0.8344033764
 21
23.314554628
 31
0.0
 11
-0.8677754024
 21
23.3037189329
 31
0.0
 11
-0.902574129
 21
23.2970954341
 31
0.0
 11
-0.9380935167
 21
23.2948185145
 31
0.0
  0
SPLINE
  5
5D0
100
AcDbEntity
  8
PORTATASTO
100
AcDbSpline
 62
253
  6
CONTINUOUS
 70
0
 71
3
 72
18
 73
14
 74
12
 42
0.0000001
 43
0.0000001
 44
0.0000000001
 12
0.0011071506
 22
0.3662491668
 32
0.0
 13
0.3662498989
 23
0.0008303865
 33
0.0
 40
0.0
 40
0.0
 40
0.0
 40
0.0
 40
0.0842956646
 40
0.1691893741
 40
0.2551783555
 40
0.34265483
 40
0.4318747249
 40
0.5229428283
 40
0.6158129532
 40
0.7103000283
 40
0.8061007574
 40
0.9028199028
 40
1.0
 40
1.0
 40
1.0
 40
1.0
 10
-21.8119030571
 20
-23.5113248654
 30
0.0
 10
-21.8118719477
 20
-23.5010337931
 30
0.0
 10
-21.8100983
 20
-23.4803441232
 30
0.0
 10
-21.8023762989
 20
-23.4500286297
 30
0.0
 10
-21.7897576307
 20
-23.4209759624
 30
0.0
 10
-21.7725131432
 20
-23.3937900907
 30
0.0
 10
-21.7510062378
 20
-23.3690160235
 30
0.0
 10
-21.7256828508
 20
-23.3471488435
 30
0.0
 10
-21.6970612514
 20
-23.3286214778
 30
0.0
 10
-21.6657226821
 20
-23.3137994957
 30
0.0
 10
-21.6322976011
 20
-23.3029747474
 30
0.0
 10
-21.5974652599
 20
-23.2963603152
 30
0.0
 10
-21.5737705502
 20
-23.2948454135
 30
0.0
 10
-21.5619064833
 20
-23.2948185145
 30
0.0
 11
-21.8119030571
 21
-23.5113248654
 31
0.0
 11
-21.809273917
 21
-23.4805636584
 31
0.0
 11
-21.8016258194
 21
-23.4504265804
 31
0.0
 11
-21.7891139402
 21
-23.4215250971
 31
0.0
 11
-21.7719921414
 21
-23.3944456079
 31
0.0
 11
-21.7506078238
 21
-23.3697375477
 31
0.0
 11
-21.7253948739
 21
-23.3479022302
 31
0.0
 11
-21.6968648537
 21
-23.3293826756
 31
0.0
 11
-21.6655966236
 21
-23.314554628
 31
0.0
 11
-21.6322245976
 21
-23.3037189329
 31
0.0
 11
-21.597425871
 21
-23.2970954341
 31
0.0
 11
-21.5619064833
 21
-23.2948185145
 31
0.0
  0
SPLINE
  5
5D1
100
AcDbEntity
  8
PORTATASTO
100
AcDbSpline
 62
253
  6
CONTINUOUS
 70
0
 71
3
 72
18
 73
14
 74
12
 42
0.0000001
 43
0.0000001
 44
0.0000000001
 12
0.0011071506
 22
0.3662491668
 32
0.0
 13
0.3662498989
 23
0.0008303865
 33
0.0
 40
0.0
 40
0.0
 40
0.0
 40
0.0
 40
0.0842956646
 40
0.1691893741
 40
0.2551783555
 40
0.34265483
 40
0.4318747249
 40
0.5229428283
 40
0.6158129532
 40
0.7103000283
 40
0.8061007574
 40
0.9028199028
 40
1.0
 40
1.0
 40
1.0
 40
1.0
 10
-2.9369030571
 20
-23.5113248654
 30
0.0
 10
-2.9368719477
 20
-23.5010337931
 30
0.0
 10
-2.9350983
 20
-23.4803441232
 30
0.0
 10
-2.9273762989
 20
-23.4500286297
 30
0.0
 10
-2.9147576307
 20
-23.4209759624
 30
0.0
 10
-2.8975131432
 20
-23.3937900907
 30
0.0
 10
-2.8760062378
 20
-23.3690160235
 30
0.0
 10
-2.8506828508
 20
-23.3471488435
 30
0.0
 10
-2.8220612514
 20
-23.3286214778
 30
0.0
 10
-2.7907226821
 20
-23.3137994957
 30
0.0
 10
-2.7572976011
 20
-23.3029747474
 30
0.0
 10
-2.7224652599
 20
-23.2963603152
 30
0.0
 10
-2.6987705502
 20
-23.2948454135
 30
0.0
 10
-2.6869064833
 20
-23.2948185145
 30
0.0
 11
-2.9369030571
 21
-23.5113248654
 31
0.0
 11
-2.934273917
 21
-23.4805636584
 31
0.0
 11
-2.9266258194
 21
-23.4504265804
 31
0.0
 11
-2.9141139402
 21
-23.4215250971
 31
0.0
 11
-2.8969921414
 21
-23.3944456079
 31
0.0
 11
-2.8756078238
 21
-23.3697375477
 31
0.0
 11
-2.8503948739
 21
-23.3479022302
 31
0.0
 11
-2.8218648537
 21
-23.3293826756
 31
0.0
 11
-2.7905966236
 21
-23.314554628
 31
0.0
 11
-2.7572245976
 21
-23.3037189329
 31
0.0
 11
-2.722425871
 21
-23.2970954341
 31
0.0
 11
-2.6869064833
 21
-23.2948185145
 31
0.0
  0
SPLINE
  5
5D2
100
AcDbEntity
  8
PORTATASTO
100
AcDbSpline
 62
253
  6
CONTINUOUS
 70
0
 71
3
 72
18
 73
14
 74
12
 42
0.0000001
 43
0.0000001
 44
0.0000000001
 12
0.3662498989
 22
-0.0008303865
 32
0.0
 13
0.0011071506
 23
-0.3662491668
 33
0.0
 40
0.0
 40
0.0
 40
0.0
 40
0.0
 40
0.097180097
 40
0.1938992423
 40
0.2896999712
 40
0.3841870463
 40
0.4770571712
 40
0.5681252747
 40
0.6573451698
 40
0.7448216444
 40
0.8308106258
 40
0.9157043353
 40
1.0
 40
1.0
 40
1.0
 40
1.0
 10
-19.8130935167
 20
-23.2948185145
 30
0.0
 10
-19.8012294498
 20
-23.2948454135
 30
0.0
 10
-19.7775347402
 20
-23.2963603152
 30
0.0
 10
-19.742702399
 20
-23.3029747473
 30
0.0
 10
-19.7092773181
 20
-23.3137994956
 30
0.0
 10
-19.6779387488
 20
-23.3286214778
 30
0.0
 10
-19.6493171494
 20
-23.3471488434
 30
0.0
 10
-19.6239937623
 20
-23.3690160234
 30
0.0
 10
-19.6024868568
 20
-23.3937900907
 30
0.0
 10
-19.5852423693
 20
-23.4209759623
 30
0.0
 10
-19.5726237011
 20
-23.4500286297
 30
0.0
 10
-19.5649017
 20
-23.4803441232
 30
0.0
 10
-19.5631280523
 20
-23.5010337931
 30
0.0
 10
-19.5630969429
 20
-23.5113248654
 30
0.0
 11
-19.8130935167
 21
-23.2948185145
 31
0.0
 11
-19.7775741291
 21
-23.2970954341
 31
0.0
 11
-19.7427754025
 21
-23.3037189329
 31
0.0
 11
-19.7094033765
 21
-23.314554628
 31
0.0
 11
-19.6781351465
 21
-23.3293826755
 31
0.0
 11
-19.6496051263
 21
-23.3479022301
 31
0.0
 11
-19.6243921763
 21
-23.3697375476
 31
0.0
 11
-19.6030078587
 21
-23.3944456078
 31
0.0
 11
-19.5858860598
 21
-23.4215250971
 31
0.0
 11
-19.5733741806
 21
-23.4504265804
 31
0.0
 11
-19.565726083
 21
-23.4805636584
 31
0.0
 11
-19.5630969429
 21
-23.5113248654
 31
0.0
  0
SPLINE
  5
5D3
100
AcDbEntity
  8
PORTATASTO
100
AcDbSpline
 62
253
  6
CONTINUOUS
 70
0
 71
3
 72
16
 73
12
 74
10
 42
0.0000001
 43
0.0000001
 44
0.0000000001
 12
0.0000000128
 22
-0.2165111267
 32
0.0
 13
-0.0039285624
 23
-0.2164754822
 33
0.0
 40
0.0
 40
0.0
 40
0.0
 40
0.0
 40
0.1330410941
 40
0.2653721429
 40
0.3946348552
 40
0.5181515314
 40
0.6343729951
 40
0.7422936446
 40
0.8403820716
 40
0.9267810823
 40
1.0
 40
1.0
 40
1.0
 40
1.0
 10
-19.811784508
 20
-23.0783135804
 30
0.0
 10
-19.8117845074
 20
-23.0879152062
 30
0.0
 10
-19.8117960241
 20
-23.1070672154
 30
0.0
 10
-19.8118479997
 20
-23.1355481208
 30
0.0
 10
-19.8119343221
 20
-23.1633415599
 30
0.0
 10
-19.8120536115
 20
-23.1899722318
 30
0.0
 10
-19.8122039232
 20
-23.2150624579
 30
0.0
 10
-19.8123833456
 20
-23.2383172777
 30
0.0
 10
-19.8125893193
 20
-23.2594194936
 30
0.0
 10
-19.8128181485
 20
-23.2780168704
 30
0.0
 10
-19.8129976351
 20
-23.2895351958
 30
0.0
 10
-19.8130935168
 20
-23.2948185626
 30
0.0
 11
-19.811784508
 21
-23.0783135804
 31
0.0
 11
-19.8118019449
 21
-23.1071184523
 31
0.0
 11
-19.8118545921
 21
-23.1357695484
 31
0.0
 11
-19.8119421624
 21
-23.1637562269
 31
0.0
 11
-19.8120629113
 21
-23.190498689
 31
0.0
 11
-19.8122150124
 21
-23.2156614694
 31
0.0
 11
-19.8123971645
 21
-23.2390267808
 31
0.0
 11
-19.8126071253
 21
-23.2602629787
 31
0.0
 11
-19.8128409135
 21
-23.2789678649
 31
0.0
 11
-19.8130935168
 21
-23.2948185626
 31
0.0
  0
SPLINE
  5
5D4
100
AcDbEntity
  8
PORTATASTO
100
AcDbSpline
 62
253
  6
CONTINUOUS
 70
0
 71
3
 72
16
 73
12
 74
10
 42
0.0000001
 43
0.0000001
 44
0.0000000001
 12
-0.0039285617
 22
0.2164754792
 32
0.0
 13
0.0000000128
 23
0.2165111237
 33
0.0
 40
0.0
 40
0.0
 40
0.0
 40
0.0
 40
0.0732188971
 40
0.1596179091
 40
0.2577063374
 40
0.3656269884
 40
0.4818484537
 40
0.6053651317
 40
0.7346278457
 40
0.8669588964
 40
1.0
 40
1.0
 40
1.0
 40
1.0
 10
-21.5619064832
 20
-23.294818558
 30
0.0
 10
-21.5620023649
 20
-23.2895351927
 30
0.0
 10
-21.5621818515
 20
-23.2780168689
 30
0.0
 10
-21.5624106807
 20
-23.2594194936
 30
0.0
 10
-21.5626166544
 20
-23.2383172777
 30
0.0
 10
-21.5627960768
 20
-23.2150624579
 30
0.0
 10
-21.5629463885
 20
-23.1899722318
 30
0.0
 10
-21.5630656779
 20
-23.1633415599
 30
0.0
 10
-21.5631520003
 20
-23.1355481208
 30
0.0
 10
-21.5632039759
 20
-23.1070672149
 30
0.0
 10
-21.5632154926
 20
-23.087915205
 30
0.0
 10
-21.563215492
 20
-23.0783135788
 30
0.0
 11
-21.5619064832
 21
-23.294818558
 31
0.0
 11
-21.5621590865
 21
-23.2789678649
 31
0.0
 11
-21.5623928747
 21
-23.2602629787
 31
0.0
 11
-21.5626028355
 21
-23.2390267808
 31
0.0
 11
-21.5627849876
 21
-23.2156614694
 31
0.0
 11
-21.5629370887
 21
-23.190498689
 31
0.0
 11
-21.5630578376
 21
-23.1637562269
 31
0.0
 11
-21.5631454079
 21
-23.1357695484
 31
0.0
 11
-21.5631980551
 21
-23.1071184523
 31
0.0
 11
-21.563215492
 21
-23.0783135788
 31
0.0
  0
SPLINE
  5
5D5
100
AcDbEntity
  8
PORTATASTO
100
AcDbSpline
 62
253
  6
CONTINUOUS
 70
0
 71
3
 72
18
 73
14
 74
12
 42
0.0000001
 43
0.0000001
 44
0.0000000001
 12
-0.3662498989
 22
0.0008303865
 32
0.0
 13
-0.0011071506
 23
0.3662491668
 33
0.0
 40
0.0
 40
0.0
 40
0.0
 40
0.0
 40
0.097180097
 40
0.1938992423
 40
0.2896999712
 40
0.3841870463
 40
0.4770571712
 40
0.5681252747
 40
0.6573451698
 40
0.7448216444
 40
0.8308106258
 40
0.9157043353
 40
1.0
 40
1.0
 40
1.0
 40
1.0
 10
-21.5619064833
 20
23.2948185145
 30
0.0
 10
-21.5737705502
 20
23.2948454135
 30
0.0
 10
-21.5974652598
 20
23.2963603152
 30
0.0
 10
-21.632297601
 20
23.3029747473
 30
0.0
 10
-21.6657226819
 20
23.3137994956
 30
0.0
 10
-21.6970612512
 20
23.3286214778
 30
0.0
 10
-21.7256828506
 20
23.3471488434
 30
0.0
 10
-21.7510062377
 20
23.3690160234
 30
0.0
 10
-21.7725131432
 20
23.3937900907
 30
0.0
 10
-21.7897576307
 20
23.4209759623
 30
0.0
 10
-21.8023762989
 20
23.4500286297
 30
0.0
 10
-21.8100983
 20
23.4803441232
 30
0.0
 10
-21.8118719477
 20
23.5010337931
 30
0.0
 10
-21.8119030571
 20
23.5113248654
 30
0.0
 11
-21.5619064833
 21
23.2948185145
 31
0.0
 11
-21.5974258709
 21
23.2970954341
 31
0.0
 11
-21.6322245975
 21
23.3037189329
 31
0.0
 11
-21.6655966235
 21
23.314554628
 31
0.0
 11
-21.6968648535
 21
23.3293826755
 31
0.0
 11
-21.7253948737
 21
23.3479022301
 31
0.0
 11
-21.7506078237
 21
23.3697375476
 31
0.0
 11
-21.7719921413
 21
23.3944456078
 31
0.0
 11
-21.7891139402
 21
23.4215250971
 31
0.0
 11
-21.8016258194
 21
23.4504265804
 31
0.0
 11
-21.809273917
 21
23.4805636584
 31
0.0
 11
-21.8119030571
 21
23.5113248654
 31
0.0
  0
SPLINE
  5
5D6
100
AcDbEntity
  8
PORTATASTO
100
AcDbSpline
 62
253
  6
CONTINUOUS
 70
0
 71
3
 72
16
 73
12
 74
10
 42
0.0000001
 43
0.0000001
 44
0.0000000001
 12
-0.0000000128
 22
0.2165111267
 32
0.0
 13
0.0039285624
 23
0.2164754822
 33
0.0
 40
0.0
 40
0.0
 40
0.0
 40
0.0
 40
0.1330410941
 40
0.2653721429
 40
0.3946348552
 40
0.5181515314
 40
0.6343729951
 40
0.7422936446
 40
0.8403820716
 40
0.9267810823
 40
1.0
 40
1.0
 40
1.0
 40
1.0
 10
-21.563215492
 20
23.0783135804
 30
0.0
 10
-21.5632154926
 20
23.0879152062
 30
0.0
 10
-21.5632039759
 20
23.1070672154
 30
0.0
 10
-21.5631520003
 20
23.1355481208
 30
0.0
 10
-21.5630656779
 20
23.1633415599
 30
0.0
 10
-21.5629463885
 20
23.1899722318
 30
0.0
 10
-21.5627960768
 20
23.2150624579
 30
0.0
 10
-21.5626166544
 20
23.2383172777
 30
0.0
 10
-21.5624106807
 20
23.2594194936
 30
0.0
 10
-21.5621818515
 20
23.2780168704
 30
0.0
 10
-21.5620023649
 20
23.2895351958
 30
0.0
 10
-21.5619064832
 20
23.2948185626
 30
0.0
 11
-21.563215492
 21
23.0783135804
 31
0.0
 11
-21.5631980551
 21
23.1071184523
 31
0.0
 11
-21.5631454079
 21
23.1357695484
 31
0.0
 11
-21.5630578376
 21
23.1637562269
 31
0.0
 11
-21.5629370887
 21
23.190498689
 31
0.0
 11
-21.5627849876
 21
23.2156614694
 31
0.0
 11
-21.5626028355
 21
23.2390267808
 31
0.0
 11
-21.5623928747
 21
23.2602629787
 31
0.0
 11
-21.5621590865
 21
23.2789678649
 31
0.0
 11
-21.5619064832
 21
23.2948185626
 31
0.0
  0
SPLINE
  5
5D7
100
AcDbEntity
  8
PORTATASTO
100
AcDbSpline
 62
253
  6
CONTINUOUS
 70
0
 71
3
 72
16
 73
12
 74
10
 42
0.0000001
 43
0.0000001
 44
0.0000000001
 12
0.0039285617
 22
-0.2164754792
 32
0.0
 13
-0.0000000128
 23
-0.2165111237
 33
0.0
 40
0.0
 40
0.0
 40
0.0
 40
0.0
 40
0.0732188971
 40
0.1596179091
 40
0.2577063374
 40
0.3656269884
 40
0.4818484537
 40
0.6053651317
 40
0.7346278457
 40
0.8669588964
 40
1.0
 40
1.0
 40
1.0
 40
1.0
 10
-19.8130935168
 20
23.294818558
 30
0.0
 10
-19.8129976351
 20
23.2895351927
 30
0.0
 10
-19.8128181485
 20
23.2780168689
 30
0.0
 10
-19.8125893193
 20
23.2594194936
 30
0.0
 10
-19.8123833456
 20
23.2383172777
 30
0.0
 10
-19.8122039232
 20
23.2150624579
 30
0.0
 10
-19.8120536115
 20
23.1899722318
 30
0.0
 10
-19.8119343221
 20
23.1633415599
 30
0.0
 10
-19.8118479997
 20
23.1355481208
 30
0.0
 10
-19.8117960241
 20
23.1070672149
 30
0.0
 10
-19.8117845074
 20
23.087915205
 30
0.0
 10
-19.811784508
 20
23.0783135788
 30
0.0
 11
-19.8130935168
 21
23.294818558
 31
0.0
 11
-19.8128409135
 21
23.2789678649
 31
0.0
 11
-19.8126071253
 21
23.2602629787
 31
0.0
 11
-19.8123971645
 21
23.2390267808
 31
0.0
 11
-19.8122150124
 21
23.2156614694
 31
0.0
 11
-19.8120629113
 21
23.190498689
 31
0.0
 11
-19.8119421624
 21
23.1637562269
 31
0.0
 11
-19.8118545921
 21
23.1357695484
 31
0.0
 11
-19.8118019449
 21
23.1071184523
 31
0.0
 11
-19.811784508
 21
23.0783135788
 31
0.0
  0
SPLINE
  5
5D8
100
AcDbEntity
  8
PORTATASTO
100
AcDbSpline
 62
253
  6
CONTINUOUS
 70
0
 71
3
 72
18
 73
14
 74
12
 42
0.0000001
 43
0.0000001
 44
0.0000000001
 12
-0.3662498989
 22
0.0008303865
 32
0.0
 13
-0.0011071506
 23
0.3662491668
 33
0.0
 40
0.0
 40
0.0
 40
0.0
 40
0.0
 40
0.097180097
 40
0.1938992423
 40
0.2896999712
 40
0.3841870463
 40
0.4770571712
 40
0.5681252747
 40
0.6573451698
 40
0.7448216444
 40
0.8308106258
 40
0.9157043353
 40
1.0
 40
1.0
 40
1.0
 40
1.0
 10
-2.6869064833
 20
23.2948185145
 30
0.0
 10
-2.6987705502
 20
23.2948454135
 30
0.0
 10
-2.7224652598
 20
23.2963603152
 30
0.0
 10
-2.757297601
 20
23.3029747473
 30
0.0
 10
-2.7907226819
 20
23.3137994956
 30
0.0
 10
-2.8220612512
 20
23.3286214778
 30
0.0
 10
-2.8506828506
 20
23.3471488434
 30
0.0
 10
-2.8760062377
 20
23.3690160234
 30
0.0
 10
-2.8975131432
 20
23.3937900907
 30
0.0
 10
-2.9147576307
 20
23.4209759623
 30
0.0
 10
-2.9273762989
 20
23.4500286297
 30
0.0
 10
-2.9350983
 20
23.4803441232
 30
0.0
 10
-2.9368719477
 20
23.5010337931
 30
0.0
 10
-2.9369030571
 20
23.5113248654
 30
0.0
 11
-2.6869064833
 21
23.2948185145
 31
0.0
 11
-2.7224258709
 21
23.2970954341
 31
0.0
 11
-2.7572245975
 21
23.3037189329
 31
0.0
 11
-2.7905966235
 21
23.314554628
 31
0.0
 11
-2.8218648535
 21
23.3293826755
 31
0.0
 11
-2.8503948737
 21
23.3479022301
 31
0.0
 11
-2.8756078237
 21
23.3697375476
 31
0.0
 11
-2.8969921413
 21
23.3944456078
 31
0.0
 11
-2.9141139402
 21
23.4215250971
 31
0.0
 11
-2.9266258194
 21
23.4504265804
 31
0.0
 11
-2.934273917
 21
23.4805636584
 31
0.0
 11
-2.9369030571
 21
23.5113248654
 31
0.0
  0
SPLINE
  5
5D9
100
AcDbEntity
  8
PORTATASTO
100
AcDbSpline
 62
253
  6
CONTINUOUS
 70
0
 71
3
 72
16
 73
12
 74
10
 42
0.0000001
 43
0.0000001
 44
0.0000000001
 12
-0.0000000128
 22
0.2165111267
 32
0.0
 13
0.0039285624
 23
0.2164754822
 33
0.0
 40
0.0
 40
0.0
 40
0.0
 40
0.0
 40
0.1330410941
 40
0.2653721429
 40
0.3946348552
 40
0.5181515314
 40
0.6343729951
 40
0.7422936446
 40
0.8403820716
 40
0.9267810823
 40
1.0
 40
1.0
 40
1.0
 40
1.0
 10
-2.688215492
 20
23.0783135804
 30
0.0
 10
-2.6882154926
 20
23.0879152062
 30
0.0
 10
-2.6882039759
 20
23.1070672154
 30
0.0
 10
-2.6881520003
 20
23.1355481208
 30
0.0
 10
-2.6880656779
 20
23.1633415599
 30
0.0
 10
-2.6879463885
 20
23.1899722318
 30
0.0
 10
-2.6877960768
 20
23.2150624579
 30
0.0
 10
-2.6876166544
 20
23.2383172777
 30
0.0
 10
-2.6874106807
 20
23.2594194936
 30
0.0
 10
-2.6871818515
 20
23.2780168704
 30
0.0
 10
-2.6870023649
 20
23.2895351958
 30
0.0
 10
-2.6869064832
 20
23.2948185626
 30
0.0
 11
-2.688215492
 21
23.0783135804
 31
0.0
 11
-2.6881980551
 21
23.1071184523
 31
0.0
 11
-2.6881454079
 21
23.1357695484
 31
0.0
 11
-2.6880578376
 21
23.1637562269
 31
0.0
 11
-2.6879370887
 21
23.190498689
 31
0.0
 11
-2.6877849876
 21
23.2156614694
 31
0.0
 11
-2.6876028355
 21
23.2390267808
 31
0.0
 11
-2.6873928747
 21
23.2602629787
 31
0.0
 11
-2.6871590865
 21
23.2789678649
 31
0.0
 11
-2.6869064832
 21
23.2948185626
 31
0.0
  0
SPLINE
  5
5DA
100
AcDbEntity
  8
PORTATASTO
100
AcDbSpline
 62
253
  6
CONTINUOUS
 70
0
 71
3
 72
16
 73
12
 74
10
 42
0.0000001
 43
0.0000001
 44
0.0000000001
 12
0.0039285617
 22
-0.2164754792
 32
0.0
 13
-0.0000000128
 23
-0.2165111237
 33
0.0
 40
0.0
 40
0.0
 40
0.0
 40
0.0
 40
0.0732188971
 40
0.1596179091
 40
0.2577063374
 40
0.3656269884
 40
0.4818484537
 40
0.6053651317
 40
0.7346278457
 40
0.8669588964
 40
1.0
 40
1.0
 40
1.0
 40
1.0
 10
-0.9380935168
 20
23.294818558
 30
0.0
 10
-0.9379976351
 20
23.2895351927
 30
0.0
 10
-0.9378181485
 20
23.2780168689
 30
0.0
 10
-0.9375893193
 20
23.2594194936
 30
0.0
 10
-0.9373833456
 20
23.2383172777
 30
0.0
 10
-0.9372039232
 20
23.2150624579
 30
0.0
 10
-0.9370536115
 20
23.1899722318
 30
0.0
 10
-0.9369343221
 20
23.1633415599
 30
0.0
 10
-0.9368479997
 20
23.1355481208
 30
0.0
 10
-0.9367960241
 20
23.1070672149
 30
0.0
 10
-0.9367845074
 20
23.087915205
 30
0.0
 10
-0.936784508
 20
23.0783135788
 30
0.0
 11
-0.9380935168
 21
23.294818558
 31
0.0
 11
-0.9378409135
 21
23.2789678649
 31
0.0
 11
-0.9376071253
 21
23.2602629787
 31
0.0
 11
-0.9373971645
 21
23.2390267808
 31
0.0
 11
-0.9372150124
 21
23.2156614694
 31
0.0
 11
-0.9370629113
 21
23.190498689
 31
0.0
 11
-0.9369421624
 21
23.1637562269
 31
0.0
 11
-0.9368545921
 21
23.1357695484
 31
0.0
 11
-0.9368019449
 21
23.1071184523
 31
0.0
 11
-0.936784508
 21
23.0783135788
 31
0.0
  0
SPLINE
  5
5DB
100
AcDbEntity
  8
PORTATASTO
100
AcDbSpline
 62
253
  6
CONTINUOUS
 70
0
 71
3
 72
18
 73
14
 74
12
 42
0.0000001
 43
0.0000001
 44
0.0000000001
 12
0.3662498989
 22
-0.0008303865
 32
0.0
 13
0.0011071506
 23
-0.3662491668
 33
0.0
 40
0.0
 40
0.0
 40
0.0
 40
0.0
 40
0.097180097
 40
0.1938992423
 40
0.2896999712
 40
0.3841870463
 40
0.4770571712
 40
0.5681252747
 40
0.6573451698
 40
0.7448216444
 40
0.8308106258
 40
0.9157043353
 40
1.0
 40
1.0
 40
1.0
 40
1.0
 10
-0.9380935167
 20
-23.2948185145
 30
0.0
 10
-0.9262294498
 20
-23.2948454135
 30
0.0
 10
-0.9025347402
 20
-23.2963603152
 30
0.0
 10
-0.867702399
 20
-23.3029747473
 30
0.0
 10
-0.8342773181
 20
-23.3137994956
 30
0.0
 10
-0.8029387488
 20
-23.3286214778
 30
0.0
 10
-0.7743171494
 20
-23.3471488434
 30
0.0
 10
-0.7489937623
 20
-23.3690160234
 30
0.0
 10
-0.7274868568
 20
-23.3937900907
 30
0.0
 10
-0.7102423693
 20
-23.4209759623
 30
0.0
 10
-0.6976237011
 20
-23.4500286297
 30
0.0
 10
-0.6899017
 20
-23.4803441232
 30
0.0
 10
-0.6881280523
 20
-23.5010337931
 30
0.0
 10
-0.6880969429
 20
-23.5113248654
 30
0.0
 11
-0.9380935167
 21
-23.2948185145
 31
0.0
 11
-0.9025741291
 21
-23.2970954341
 31
0.0
 11
-0.8677754025
 21
-23.3037189329
 31
0.0
 11
-0.8344033765
 21
-23.314554628
 31
0.0
 11
-0.8031351465
 21
-23.3293826755
 31
0.0
 11
-0.7746051263
 21
-23.3479022301
 31
0.0
 11
-0.7493921763
 21
-23.3697375476
 31
0.0
 11
-0.7280078587
 21
-23.3944456078
 31
0.0
 11
-0.7108860598
 21
-23.4215250971
 31
0.0
 11
-0.6983741806
 21
-23.4504265804
 31
0.0
 11
-0.690726083
 21
-23.4805636584
 31
0.0
 11
-0.6880969429
 21
-23.5113248654
 31
0.0
  0
SPLINE
  5
5DC
100
AcDbEntity
  8
PORTATASTO
100
AcDbSpline
 62
253
  6
CONTINUOUS
 70
0
 71
3
 72
16
 73
12
 74
10
 42
0.0000001
 43
0.0000001
 44
0.0000000001
 12
0.0000000128
 22
-0.2165111267
 32
0.0
 13
-0.0039285624
 23
-0.2164754822
 33
0.0
 40
0.0
 40
0.0
 40
0.0
 40
0.0
 40
0.1330410941
 40
0.2653721429
 40
0.3946348552
 40
0.5181515314
 40
0.6343729951
 40
0.7422936446
 40
0.8403820716
 40
0.9267810823
 40
1.0
 40
1.0
 40
1.0
 40
1.0
 10
-0.936784508
 20
-23.0783135804
 30
0.0
 10
-0.9367845074
 20
-23.0879152062
 30
0.0
 10
-0.9367960241
 20
-23.1070672154
 30
0.0
 10
-0.9368479997
 20
-23.1355481208
 30
0.0
 10
-0.9369343221
 20
-23.1633415599
 30
0.0
 10
-0.9370536115
 20
-23.1899722318
 30
0.0
 10
-0.9372039232
 20
-23.2150624579
 30
0.0
 10
-0.9373833456
 20
-23.2383172777
 30
0.0
 10
-0.9375893193
 20
-23.2594194936
 30
0.0
 10
-0.9378181485
 20
-23.2780168704
 30
0.0
 10
-0.9379976351
 20
-23.2895351958
 30
0.0
 10
-0.9380935168
 20
-23.2948185626
 30
0.0
 11
-0.936784508
 21
-23.0783135804
 31
0.0
 11
-0.9368019449
 21
-23.1071184523
 31
0.0
 11
-0.9368545921
 21
-23.1357695484
 31
0.0
 11
-0.9369421624
 21
-23.1637562269
 31
0.0
 11
-0.9370629113
 21
-23.190498689
 31
0.0
 11
-0.9372150124
 21
-23.2156614694
 31
0.0
 11
-0.9373971645
 21
-23.2390267808
 31
0.0
 11
-0.9376071253
 21
-23.2602629787
 31
0.0
 11
-0.9378409135
 21
-23.2789678649
 31
0.0
 11
-0.9380935168
 21
-23.2948185626
 31
0.0
  0
SPLINE
  5
5DD
100
AcDbEntity
  8
PORTATASTO
100
AcDbSpline
 62
253
  6
CONTINUOUS
 70
0
 71
3
 72
16
 73
12
 74
10
 42
0.0000001
 43
0.0000001
 44
0.0000000001
 12
-0.0039285617
 22
0.2164754792
 32
0.0
 13
0.0000000128
 23
0.2165111237
 33
0.0
 40
0.0
 40
0.0
 40
0.0
 40
0.0
 40
0.0732188971
 40
0.1596179091
 40
0.2577063374
 40
0.3656269884
 40
0.4818484537
 40
0.6053651317
 40
0.7346278457
 40
0.8669588964
 40
1.0
 40
1.0
 40
1.0
 40
1.0
 10
-2.6869064832
 20
-23.294818558
 30
0.0
 10
-2.6870023649
 20
-23.2895351927
 30
0.0
 10
-2.6871818515
 20
-23.2780168689
 30
0.0
 10
-2.6874106807
 20
-23.2594194936
 30
0.0
 10
-2.6876166544
 20
-23.2383172777
 30
0.0
 10
-2.6877960768
 20
-23.2150624579
 30
0.0
 10
-2.6879463885
 20
-23.1899722318
 30
0.0
 10
-2.6880656779
 20
-23.1633415599
 30
0.0
 10
-2.6881520003
 20
-23.1355481208
 30
0.0
 10
-2.6882039759
 20
-23.1070672149
 30
0.0
 10
-2.6882154926
 20
-23.087915205
 30
0.0
 10
-2.688215492
 20
-23.0783135788
 30
0.0
 11
-2.6869064832
 21
-23.294818558
 31
0.0
 11
-2.6871590865
 21
-23.2789678649
 31
0.0
 11
-2.6873928747
 21
-23.2602629787
 31
0.0
 11
-2.6876028355
 21
-23.2390267808
 31
0.0
 11
-2.6877849876
 21
-23.2156614694
 31
0.0
 11
-2.6879370887
 21
-23.190498689
 31
0.0
 11
-2.6880578376
 21
-23.1637562269
 31
0.0
 11
-2.6881454079
 21
-23.1357695484
 31
0.0
 11
-2.6881980551
 21
-23.1071184523
 31
0.0
 11
-2.688215492
 21
-23.0783135788
 31
0.0
  0
SPLINE
  5
5DE
100
AcDbEntity
  8
PORTATASTO
100
AcDbSpline
 62
253
  6
CONTINUOUS
 70
0
 71
3
 72
18
 73
14
 74
12
 42
0.0000001
 43
0.0000001
 44
0.0000000001
 12
-0.0011071506
 22
0.3662491663
 32
0.0
 13
-0.3662498983
 23
0.0008303874
 33
0.0
 40
0.0
 40
0.0
 40
0.0
 40
0.0
 40
0.0842955547
 40
0.169189152
 40
0.2551780173
 40
0.3426543807
 40
0.4318741974
 40
0.5229422751
 40
0.6158124279
 40
0.7102995819
 40
0.8061004335
 40
0.9028197334
 40
1.0
 40
1.0
 40
1.0
 40
1.0
 10
-19.5670239696
 20
-23.9443375673
 30
0.0
 10
-19.5670550789
 20
-23.9340465084
 30
0.0
 10
-19.568828722
 20
-23.9133568659
 30
0.0
 10
-19.5765507032
 20
-23.8830414104
 30
0.0
 10
-19.5891693395
 20
-23.853988775
 30
0.0
 10
-19.606413788
 20
-23.8268029233
 30
0.0
 10
-19.6279206561
 20
-23.8020288588
 30
0.0
 10
-19.6532440177
 20
-23.7801616637
 30
0.0
 10
-19.6818656109
 20
-23.76163427
 30
0.0
 10
-19.7132041957
 20
-23.7468122547
 30
0.0
 10
-19.7466293128
 20
-23.7359874758
 30
0.0
 10
-19.7814617058
 20
-23.7293730223
 30
0.0
 10
-19.8051564551
 20
-23.7278581154
 30
0.0
 10
-19.8170205427
 20
-23.7278312164
 30
0.0
 11
-19.5670239696
 21
-23.9443375673
 31
0.0
 11
-19.569653103
 21
-23.9135764002
 31
0.0
 11
-19.5773011809
 21
-23.8834393596
 31
0.0
 11
-19.5898130283
 21
-23.854537909
 31
0.0
 11
-19.6069347867
 21
-23.8274584424
 31
0.0
 11
-19.6283190656
 21
-23.8027503867
 31
0.0
 11
-19.6535319901
 21
-23.7809150543
 31
0.0
 11
-19.6820620042
 21
-23.7623954716
 31
0.0
 11
-19.7133302503
 21
-23.7475673906
 31
0.0
 11
-19.7467023134
 21
-23.7367316644
 31
0.0
 11
-19.7815010934
 21
-23.7301081438
 31
0.0
 11
-19.8170205427
 21
-23.7278312164
 31
0.0
  0
SPLINE
  5
5DF
100
AcDbEntity
  8
PORTATASTO
100
AcDbSpline
 62
253
  6
CONTINUOUS
 70
0
 71
3
 72
18
 73
14
 74
12
 42
0.0000001
 43
0.0000001
 44
0.0000000001
 12
-0.3662499093
 22
-0.0008303874
 32
0.0
 13
-0.0011071506
 23
-0.3662491772
 33
0.0
 40
0.0
 40
0.0
 40
0.0
 40
0.0
 40
0.0971872096
 40
0.1939133523
 40
0.2897218612
 40
0.3842163772
 40
0.4770935418
 40
0.5681682897
 40
0.6573939174
 40
0.7448759241
 40
0.8308652934
 40
0.915759618
 40
1.0
 40
1.0
 40
1.0
 40
1.0
 10
-21.5579794573
 20
-23.7278312164
 30
0.0
 10
-21.5698443929
 20
-23.7278581174
 30
0.0
 10
-21.593540831
 20
-23.7293732367
 30
0.0
 10
-21.6283757276
 20
-23.7359886464
 30
0.0
 10
-21.6618031555
 20
-23.7468150334
 30
0.0
 10
-21.6931436822
 20
-23.7616392955
 30
0.0
 10
-21.7217665863
 20
-23.7801694443
 30
0.0
 10
-21.747090452
 20
-23.8020397445
 30
0.0
 10
-21.768596944
 20
-23.8268171064
 30
0.0
 10
-21.785839766
 20
-23.854005759
 30
0.0
 10
-21.7984558418
 20
-23.8830604284
 30
0.0
 10
-21.8061730084
 20
-23.9133703205
 30
0.0
 10
-21.8079449414
 20
-23.9340532438
 30
0.0
 10
-21.8079760304
 20
-23.9443375673
 30
0.0
 11
-21.5579794573
 21
-23.7278312164
 31
0.0
 11
-21.5935014353
 21
-23.7301084639
 31
0.0
 11
-21.6283025894
 21
-23.7367329201
 31
0.0
 11
-21.6616770666
 21
-23.7475702957
 31
0.0
 11
-21.6929472328
 21
-23.7624006231
 31
0.0
 11
-21.7214785271
 21
-23.780922952
 31
0.0
 11
-21.7466919739
 21
-23.8027614143
 31
0.0
 11
-21.7680757981
 21
-23.8274726794
 31
0.0
 11
-21.785196242
 21
-23.8545554235
 31
0.0
 11
-21.7977052826
 21
-23.8834582912
 31
0.0
 11
-21.8053502697
 21
-23.9135963917
 31
0.0
 11
-21.8079760304
 21
-23.9443375673
 31
0.0
  0
SPLINE
  5
5E0
100
AcDbEntity
  8
PORTATASTO
100
AcDbSpline
 62
253
  6
CONTINUOUS
 70
0
 71
3
 72
18
 73
14
 74
12
 42
0.0000001
 43
0.0000001
 44
0.0000000001
 12
0.0011071506
 22
-0.3662491663
 32
0.0
 13
0.3662498983
 23
-0.0008303874
 33
0.0
 40
0.0
 40
0.0
 40
0.0
 40
0.0
 40
0.0842955547
 40
0.169189152
 40
0.2551780173
 40
0.3426543807
 40
0.4318741974
 40
0.5229422751
 40
0.6158124279
 40
0.7102995819
 40
0.8061004335
 40
0.9028197334
 40
1.0
 40
1.0
 40
1.0
 40
1.0
 10
-21.8079760304
 20
23.9443375673
 30
0.0
 10
-21.8079449211
 20
23.9340465084
 30
0.0
 10
-21.806171278
 20
23.9133568659
 30
0.0
 10
-21.7984492968
 20
23.8830414104
 30
0.0
 10
-21.7858306605
 20
23.853988775
 30
0.0
 10
-21.768586212
 20
23.8268029233
 30
0.0
 10
-21.7470793439
 20
23.8020288588
 30
0.0
 10
-21.7217559823
 20
23.7801616637
 30
0.0
 10
-21.6931343891
 20
23.76163427
 30
0.0
 10
-21.6617958043
 20
23.7468122547
 30
0.0
 10
-21.6283706872
 20
23.7359874758
 30
0.0
 10
-21.5935382942
 20
23.7293730223
 30
0.0
 10
-21.5698435449
 20
23.7278581154
 30
0.0
 10
-21.5579794573
 20
23.7278312164
 30
0.0
 11
-21.8079760304
 21
23.9443375673
 31
0.0
 11
-21.805346897
 21
23.9135764002
 31
0.0
 11
-21.7976988191
 21
23.8834393596
 31
0.0
 11
-21.7851869717
 21
23.854537909
 31
0.0
 11
-21.7680652133
 21
23.8274584424
 31
0.0
 11
-21.7466809344
 21
23.8027503867
 31
0.0
 11
-21.7214680099
 21
23.7809150543
 31
0.0
 11
-21.6929379958
 21
23.7623954716
 31
0.0
 11
-21.6616697497
 21
23.7475673906
 31
0.0
 11
-21.6282976866
 21
23.7367316644
 31
0.0
 11
-21.5934989066
 21
23.7301081438
 31
0.0
 11
-21.5579794573
 21
23.7278312164
 31
0.0
  0
SPLINE
  5
5E1
100
AcDbEntity
  8
PORTATASTO
100
AcDbSpline
 62
253
  6
CONTINUOUS
 70
0
 71
3
 72
18
 73
14
 74
12
 42
0.0000001
 43
0.0000001
 44
0.0000000001
 12
0.3662499093
 22
0.0008303874
 32
0.0
 13
0.0011071506
 23
0.3662491772
 33
0.0
 40
0.0
 40
0.0
 40
0.0
 40
0.0
 40
0.0971872096
 40
0.1939133523
 40
0.2897218612
 40
0.3842163772
 40
0.4770935418
 40
0.5681682897
 40
0.6573939174
 40
0.7448759241
 40
0.8308652934
 40
0.915759618
 40
1.0
 40
1.0
 40
1.0
 40
1.0
 10
-19.8170205427
 20
23.7278312164
 30
0.0
 10
-19.8051556071
 20
23.7278581174
 30
0.0
 10
-19.781459169
 20
23.7293732367
 30
0.0
 10
-19.7466242724
 20
23.7359886464
 30
0.0
 10
-19.7131968445
 20
23.7468150334
 30
0.0
 10
-19.6818563178
 20
23.7616392955
 30
0.0
 10
-19.6532334137
 20
23.7801694443
 30
0.0
 10
-19.627909548
 20
23.8020397445
 30
0.0
 10
-19.606403056
 20
23.8268171064
 30
0.0
 10
-19.589160234
 20
23.854005759
 30
0.0
 10
-19.5765441582
 20
23.8830604284
 30
0.0
 10
-19.5688269916
 20
23.9133703205
 30
0.0
 10
-19.5670550586
 20
23.9340532438
 30
0.0
 10
-19.5670239696
 20
23.9443375673
 30
0.0
 11
-19.8170205427
 21
23.7278312164
 31
0.0
 11
-19.7814985647
 21
23.7301084639
 31
0.0
 11
-19.7466974106
 21
23.7367329201
 31
0.0
 11
-19.7133229334
 21
23.7475702957
 31
0.0
 11
-19.6820527672
 21
23.7624006231
 31
0.0
 11
-19.6535214729
 21
23.780922952
 31
0.0
 11
-19.6283080261
 21
23.8027614143
 31
0.0
 11
-19.6069242019
 21
23.8274726794
 31
0.0
 11
-19.589803758
 21
23.8545554235
 31
0.0
 11
-19.5772947174
 21
23.8834582912
 31
0.0
 11
-19.5696497303
 21
23.9135963917
 31
0.0
 11
-19.5670239696
 21
23.9443375673
 31
0.0
  0
SPLINE
  5
5E2
100
AcDbEntity
  8
PORTATASTO
100
AcDbSpline
 62
253
  6
CONTINUOUS
 70
0
 71
3
 72
18
 73
14
 74
12
 42
0.0000001
 43
0.0000001
 44
0.0000000001
 12
0.0011071506
 22
-0.3662491663
 32
0.0
 13
0.3662498983
 23
-0.0008303874
 33
0.0
 40
0.0
 40
0.0
 40
0.0
 40
0.0
 40
0.0842955547
 40
0.169189152
 40
0.2551780173
 40
0.3426543807
 40
0.4318741974
 40
0.5229422751
 40
0.6158124279
 40
0.7102995819
 40
0.8061004335
 40
0.9028197334
 40
1.0
 40
1.0
 40
1.0
 40
1.0
 10
-2.9329760304
 20
23.9443375673
 30
0.0
 10
-2.9329449211
 20
23.9340465084
 30
0.0
 10
-2.931171278
 20
23.9133568659
 30
0.0
 10
-2.9234492968
 20
23.8830414104
 30
0.0
 10
-2.9108306605
 20
23.853988775
 30
0.0
 10
-2.893586212
 20
23.8268029233
 30
0.0
 10
-2.8720793439
 20
23.8020288588
 30
0.0
 10
-2.8467559823
 20
23.7801616637
 30
0.0
 10
-2.8181343891
 20
23.76163427
 30
0.0
 10
-2.7867958043
 20
23.7468122547
 30
0.0
 10
-2.7533706872
 20
23.7359874758
 30
0.0
 10
-2.7185382942
 20
23.7293730223
 30
0.0
 10
-2.6948435449
 20
23.7278581154
 30
0.0
 10
-2.6829794573
 20
23.7278312164
 30
0.0
 11
-2.9329760304
 21
23.9443375673
 31
0.0
 11
-2.930346897
 21
23.9135764002
 31
0.0
 11
-2.9226988191
 21
23.8834393596
 31
0.0
 11
-2.9101869717
 21
23.854537909
 31
0.0
 11
-2.8930652133
 21
23.8274584424
 31
0.0
 11
-2.8716809344
 21
23.8027503867
 31
0.0
 11
-2.8464680099
 21
23.7809150543
 31
0.0
 11
-2.8179379958
 21
23.7623954716
 31
0.0
 11
-2.7866697497
 21
23.7475673906
 31
0.0
 11
-2.7532976866
 21
23.7367316644
 31
0.0
 11
-2.7184989066
 21
23.7301081438
 31
0.0
 11
-2.6829794573
 21
23.7278312164
 31
0.0
  0
SPLINE
  5
5E3
100
AcDbEntity
  8
PORTATASTO
100
AcDbSpline
 62
253
  6
CONTINUOUS
 70
0
 71
3
 72
18
 73
14
 74
12
 42
0.0000001
 43
0.0000001
 44
0.0000000001
 12
0.3662499093
 22
0.0008303874
 32
0.0
 13
0.0011071506
 23
0.3662491772
 33
0.0
 40
0.0
 40
0.0
 40
0.0
 40
0.0
 40
0.0971872096
 40
0.1939133523
 40
0.2897218612
 40
0.3842163772
 40
0.4770935418
 40
0.5681682897
 40
0.6573939174
 40
0.7448759241
 40
0.8308652934
 40
0.915759618
 40
1.0
 40
1.0
 40
1.0
 40
1.0
 10
-0.9420205427
 20
23.7278312164
 30
0.0
 10
-0.9301556071
 20
23.7278581174
 30
0.0
 10
-0.906459169
 20
23.7293732367
 30
0.0
 10
-0.8716242724
 20
23.7359886464
 30
0.0
 10
-0.8381968445
 20
23.7468150334
 30
0.0
 10
-0.8068563178
 20
23.7616392955
 30
0.0
 10
-0.7782334137
 20
23.7801694443
 30
0.0
 10
-0.752909548
 20
23.8020397445
 30
0.0
 10
-0.731403056
 20
23.8268171064
 30
0.0
 10
-0.714160234
 20
23.854005759
 30
0.0
 10
-0.7015441582
 20
23.8830604284
 30
0.0
 10
-0.6938269916
 20
23.9133703205
 30
0.0
 10
-0.6920550586
 20
23.9340532438
 30
0.0
 10
-0.6920239696
 20
23.9443375673
 30
0.0
 11
-0.9420205427
 21
23.7278312164
 31
0.0
 11
-0.9064985647
 21
23.7301084639
 31
0.0
 11
-0.8716974106
 21
23.7367329201
 31
0.0
 11
-0.8383229334
 21
23.7475702957
 31
0.0
 11
-0.8070527672
 21
23.7624006231
 31
0.0
 11
-0.7785214729
 21
23.780922952
 31
0.0
 11
-0.7533080261
 21
23.8027614143
 31
0.0
 11
-0.7319242019
 21
23.8274726794
 31
0.0
 11
-0.714803758
 21
23.8545554235
 31
0.0
 11
-0.7022947174
 21
23.8834582912
 31
0.0
 11
-0.6946497303
 21
23.9135963917
 31
0.0
 11
-0.6920239696
 21
23.9443375673
 31
0.0
  0
SPLINE
  5
5E4
100
AcDbEntity
  8
PORTATASTO
100
AcDbSpline
 62
253
  6
CONTINUOUS
 70
0
 71
3
 72
18
 73
14
 74
12
 42
0.0000001
 43
0.0000001
 44
0.0000000001
 12
-0.0011071506
 22
0.3662491663
 32
0.0
 13
-0.3662498983
 23
0.0008303874
 33
0.0
 40
0.0
 40
0.0
 40
0.0
 40
0.0
 40
0.0842955547
 40
0.169189152
 40
0.2551780173
 40
0.3426543807
 40
0.4318741974
 40
0.5229422751
 40
0.6158124279
 40
0.7102995819
 40
0.8061004335
 40
0.9028197334
 40
1.0
 40
1.0
 40
1.0
 40
1.0
 10
-0.6920239696
 20
-23.9443375673
 30
0.0
 10
-0.6920550789
 20
-23.9340465084
 30
0.0
 10
-0.693828722
 20
-23.9133568659
 30
0.0
 10
-0.7015507032
 20
-23.8830414104
 30
0.0
 10
-0.7141693395
 20
-23.853988775
 30
0.0
 10
-0.731413788
 20
-23.8268029233
 30
0.0
 10
-0.7529206561
 20
-23.8020288588
 30
0.0
 10
-0.7782440177
 20
-23.7801616637
 30
0.0
 10
-0.8068656109
 20
-23.76163427
 30
0.0
 10
-0.8382041957
 20
-23.7468122547
 30
0.0
 10
-0.8716293128
 20
-23.7359874758
 30
0.0
 10
-0.9064617058
 20
-23.7293730223
 30
0.0
 10
-0.9301564551
 20
-23.7278581154
 30
0.0
 10
-0.9420205427
 20
-23.7278312164
 30
0.0
 11
-0.6920239696
 21
-23.9443375673
 31
0.0
 11
-0.694653103
 21
-23.9135764002
 31
0.0
 11
-0.7023011809
 21
-23.8834393596
 31
0.0
 11
-0.7148130283
 21
-23.854537909
 31
0.0
 11
-0.7319347867
 21
-23.8274584424
 31
0.0
 11
-0.7533190656
 21
-23.8027503867
 31
0.0
 11
-0.7785319901
 21
-23.7809150543
 31
0.0
 11
-0.8070620042
 21
-23.7623954716
 31
0.0
 11
-0.8383302503
 21
-23.7475673906
 31
0.0
 11
-0.8717023134
 21
-23.7367316644
 31
0.0
 11
-0.9065010934
 21
-23.7301081438
 31
0.0
 11
-0.9420205427
 21
-23.7278312164
 31
0.0
  0
SPLINE
  5
5E5
100
AcDbEntity
  8
PORTATASTO
100
AcDbSpline
 62
253
  6
CONTINUOUS
 70
0
 71
3
 72
18
 73
14
 74
12
 42
0.0000001
 43
0.0000001
 44
0.0000000001
 12
-0.3662499093
 22
-0.0008303874
 32
0.0
 13
-0.0011071506
 23
-0.3662491772
 33
0.0
 40
0.0
 40
0.0
 40
0.0
 40
0.0
 40
0.0971872096
 40
0.1939133523
 40
0.2897218612
 40
0.3842163772
 40
0.4770935418
 40
0.5681682897
 40
0.6573939174
 40
0.7448759241
 40
0.8308652934
 40
0.915759618
 40
1.0
 40
1.0
 40
1.0
 40
1.0
 10
-2.6829794573
 20
-23.7278312164
 30
0.0
 10
-2.6948443929
 20
-23.7278581174
 30
0.0
 10
-2.718540831
 20
-23.7293732367
 30
0.0
 10
-2.7533757276
 20
-23.7359886464
 30
0.0
 10
-2.7868031555
 20
-23.7468150334
 30
0.0
 10
-2.8181436822
 20
-23.7616392955
 30
0.0
 10
-2.8467665863
 20
-23.7801694443
 30
0.0
 10
-2.872090452
 20
-23.8020397445
 30
0.0
 10
-2.893596944
 20
-23.8268171064
 30
0.0
 10
-2.910839766
 20
-23.854005759
 30
0.0
 10
-2.9234558418
 20
-23.8830604284
 30
0.0
 10
-2.9311730084
 20
-23.9133703205
 30
0.0
 10
-2.9329449414
 20
-23.9340532438
 30
0.0
 10
-2.9329760304
 20
-23.9443375673
 30
0.0
 11
-2.6829794573
 21
-23.7278312164
 31
0.0
 11
-2.7185014353
 21
-23.7301084639
 31
0.0
 11
-2.7533025894
 21
-23.7367329201
 31
0.0
 11
-2.7866770666
 21
-23.7475702957
 31
0.0
 11
-2.8179472328
 21
-23.7624006231
 31
0.0
 11
-2.8464785271
 21
-23.780922952
 31
0.0
 11
-2.8716919739
 21
-23.8027614143
 31
0.0
 11
-2.8930757981
 21
-23.8274726794
 31
0.0
 11
-2.910196242
 21
-23.8545554235
 31
0.0
 11
-2.9227052826
 21
-23.8834582912
 31
0.0
 11
-2.9303502697
 21
-23.9135963917
 31
0.0
 11
-2.9329760304
 21
-23.9443375673
 31
0.0
  0
SPLINE
  5
5E6
100
AcDbEntity
  8
PORTATASTO
100
AcDbSpline
 62
253
  6
CONTINUOUS
 70
0
 71
3
 72
18
 73
14
 74
12
 42
0.0000001
 43
0.0000001
 44
0.0000000001
 12
-0.0011071506
 22
-0.3662491668
 32
0.0
 13
-0.3662498989
 23
-0.0008303865
 33
0.0
 40
0.0
 40
0.0
 40
0.0
 40
0.0
 40
0.0842956646
 40
0.1691893741
 40
0.2551783555
 40
0.34265483
 40
0.4318747249
 40
0.5229428283
 40
0.6158129532
 40
0.7103000283
 40
0.8061007574
 40
0.9028199028
 40
1.0
 40
1.0
 40
1.0
 40
1.0
 10
2.9369030571
 20
23.5113248654
 30
0.0
 10
2.9368719477
 20
23.5010337931
 30
0.0
 10
2.9350983
 20
23.4803441232
 30
0.0
 10
2.9273762989
 20
23.4500286297
 30
0.0
 10
2.9147576307
 20
23.4209759624
 30
0.0
 10
2.8975131432
 20
23.3937900907
 30
0.0
 10
2.8760062378
 20
23.3690160235
 30
0.0
 10
2.8506828508
 20
23.3471488435
 30
0.0
 10
2.8220612514
 20
23.3286214778
 30
0.0
 10
2.7907226821
 20
23.3137994957
 30
0.0
 10
2.7572976011
 20
23.3029747474
 30
0.0
 10
2.7224652599
 20
23.2963603152
 30
0.0
 10
2.6987705502
 20
23.2948454135
 30
0.0
 10
2.6869064833
 20
23.2948185145
 30
0.0
 11
2.9369030571
 21
23.5113248654
 31
0.0
 11
2.934273917
 21
23.4805636584
 31
0.0
 11
2.9266258194
 21
23.4504265804
 31
0.0
 11
2.9141139402
 21
23.4215250971
 31
0.0
 11
2.8969921414
 21
23.3944456079
 31
0.0
 11
2.8756078238
 21
23.3697375477
 31
0.0
 11
2.8503948739
 21
23.3479022302
 31
0.0
 11
2.8218648537
 21
23.3293826756
 31
0.0
 11
2.7905966236
 21
23.314554628
 31
0.0
 11
2.7572245976
 21
23.3037189329
 31
0.0
 11
2.722425871
 21
23.2970954341
 31
0.0
 11
2.6869064833
 21
23.2948185145
 31
0.0
  0
SPLINE
  5
5E7
100
AcDbEntity
  8
PORTATASTO
100
AcDbSpline
 62
253
  6
CONTINUOUS
 70
0
 71
3
 72
18
 73
14
 74
12
 42
0.0000001
 43
0.0000001
 44
0.0000000001
 12
-0.0011071506
 22
-0.3662491668
 32
0.0
 13
-0.3662498989
 23
-0.0008303865
 33
0.0
 40
0.0
 40
0.0
 40
0.0
 40
0.0
 40
0.0842956646
 40
0.1691893741
 40
0.2551783555
 40
0.34265483
 40
0.4318747249
 40
0.5229428283
 40
0.6158129532
 40
0.7103000283
 40
0.8061007574
 40
0.9028199028
 40
1.0
 40
1.0
 40
1.0
 40
1.0
 10
21.8119030571
 20
23.5113248654
 30
0.0
 10
21.8118719477
 20
23.5010337931
 30
0.0
 10
21.8100983
 20
23.4803441232
 30
0.0
 10
21.8023762989
 20
23.4500286297
 30
0.0
 10
21.7897576307
 20
23.4209759624
 30
0.0
 10
21.7725131432
 20
23.3937900907
 30
0.0
 10
21.7510062378
 20
23.3690160235
 30
0.0
 10
21.7256828508
 20
23.3471488435
 30
0.0
 10
21.6970612514
 20
23.3286214778
 30
0.0
 10
21.6657226821
 20
23.3137994957
 30
0.0
 10
21.6322976011
 20
23.3029747474
 30
0.0
 10
21.5974652599
 20
23.2963603152
 30
0.0
 10
21.5737705502
 20
23.2948454135
 30
0.0
 10
21.5619064833
 20
23.2948185145
 30
0.0
 11
21.8119030571
 21
23.5113248654
 31
0.0
 11
21.809273917
 21
23.4805636584
 31
0.0
 11
21.8016258194
 21
23.4504265804
 31
0.0
 11
21.7891139402
 21
23.4215250971
 31
0.0
 11
21.7719921414
 21
23.3944456079
 31
0.0
 11
21.7506078238
 21
23.3697375477
 31
0.0
 11
21.7253948739
 21
23.3479022302
 31
0.0
 11
21.6968648537
 21
23.3293826756
 31
0.0
 11
21.6655966236
 21
23.314554628
 31
0.0
 11
21.6322245976
 21
23.3037189329
 31
0.0
 11
21.597425871
 21
23.2970954341
 31
0.0
 11
21.5619064833
 21
23.2948185145
 31
0.0
  0
SPLINE
  5
5E8
100
AcDbEntity
  8
PORTATASTO
100
AcDbSpline
 62
253
  6
CONTINUOUS
 70
0
 71
3
 72
18
 73
14
 74
12
 42
0.0000001
 43
0.0000001
 44
0.0000000001
 12
0.0011071506
 22
0.3662491668
 32
0.0
 13
0.3662498989
 23
0.0008303865
 33
0.0
 40
0.0
 40
0.0
 40
0.0
 40
0.0
 40
0.0842956646
 40
0.1691893741
 40
0.2551783555
 40
0.34265483
 40
0.4318747249
 40
0.5229428283
 40
0.6158129532
 40
0.7103000283
 40
0.8061007574
 40
0.9028199028
 40
1.0
 40
1.0
 40
1.0
 40
1.0
 10
0.6880969429
 20
-23.5113248654
 30
0.0
 10
0.6881280523
 20
-23.5010337931
 30
0.0
 10
0.6899017
 20
-23.4803441232
 30
0.0
 10
0.6976237011
 20
-23.4500286297
 30
0.0
 10
0.7102423693
 20
-23.4209759624
 30
0.0
 10
0.7274868568
 20
-23.3937900907
 30
0.0
 10
0.7489937622
 20
-23.3690160235
 30
0.0
 10
0.7743171492
 20
-23.3471488435
 30
0.0
 10
0.8029387486
 20
-23.3286214778
 30
0.0
 10
0.8342773179
 20
-23.3137994957
 30
0.0
 10
0.8677023989
 20
-23.3029747474
 30
0.0
 10
0.9025347401
 20
-23.2963603152
 30
0.0
 10
0.9262294498
 20
-23.2948454135
 30
0.0
 10
0.9380935167
 20
-23.2948185145
 30
0.0
 11
0.6880969429
 21
-23.5113248654
 31
0.0
 11
0.690726083
 21
-23.4805636584
 31
0.0
 11
0.6983741806
 21
-23.4504265804
 31
0.0
 11
0.7108860598
 21
-23.4215250971
 31
0.0
 11
0.7280078586
 21
-23.3944456079
 31
0.0
 11
0.7493921762
 21
-23.3697375477
 31
0.0
 11
0.7746051261
 21
-23.3479022302
 31
0.0
 11
0.8031351463
 21
-23.3293826756
 31
0.0
 11
0.8344033764
 21
-23.314554628
 31
0.0
 11
0.8677754024
 21
-23.3037189329
 31
0.0
 11
0.902574129
 21
-23.2970954341
 31
0.0
 11
0.9380935167
 21
-23.2948185145
 31
0.0
  0
SPLINE
  5
5E9
100
AcDbEntity
  8
PORTATASTO
100
AcDbSpline
 62
253
  6
CONTINUOUS
 70
0
 71
3
 72
18
 73
14
 74
12
 42
0.0000001
 43
0.0000001
 44
0.0000000001
 12
0.0011071506
 22
0.3662491668
 32
0.0
 13
0.3662498989
 23
0.0008303865
 33
0.0
 40
0.0
 40
0.0
 40
0.0
 40
0.0
 40
0.0842956646
 40
0.1691893741
 40
0.2551783555
 40
0.34265483
 40
0.4318747249
 40
0.5229428283
 40
0.6158129532
 40
0.7103000283
 40
0.8061007574
 40
0.9028199028
 40
1.0
 40
1.0
 40
1.0
 40
1.0
 10
19.5630969429
 20
-23.5113248654
 30
0.0
 10
19.5631280523
 20
-23.5010337931
 30
0.0
 10
19.5649017
 20
-23.4803441232
 30
0.0
 10
19.5726237011
 20
-23.4500286297
 30
0.0
 10
19.5852423693
 20
-23.4209759624
 30
0.0
 10
19.6024868568
 20
-23.3937900907
 30
0.0
 10
19.6239937622
 20
-23.3690160235
 30
0.0
 10
19.6493171492
 20
-23.3471488435
 30
0.0
 10
19.6779387486
 20
-23.3286214778
 30
0.0
 10
19.7092773179
 20
-23.3137994957
 30
0.0
 10
19.7427023989
 20
-23.3029747474
 30
0.0
 10
19.7775347401
 20
-23.2963603152
 30
0.0
 10
19.8012294498
 20
-23.2948454135
 30
0.0
 10
19.8130935167
 20
-23.2948185145
 30
0.0
 11
19.5630969429
 21
-23.5113248654
 31
0.0
 11
19.565726083
 21
-23.4805636584
 31
0.0
 11
19.5733741806
 21
-23.4504265804
 31
0.0
 11
19.5858860598
 21
-23.4215250971
 31
0.0
 11
19.6030078586
 21
-23.3944456079
 31
0.0
 11
19.6243921762
 21
-23.3697375477
 31
0.0
 11
19.6496051261
 21
-23.3479022302
 31
0.0
 11
19.6781351463
 21
-23.3293826756
 31
0.0
 11
19.7094033764
 21
-23.314554628
 31
0.0
 11
19.7427754024
 21
-23.3037189329
 31
0.0
 11
19.777574129
 21
-23.2970954341
 31
0.0
 11
19.8130935167
 21
-23.2948185145
 31
0.0
  0
SPLINE
  5
5EA
100
AcDbEntity
  8
PORTATASTO
100
AcDbSpline
 62
253
  6
CONTINUOUS
 70
0
 71
3
 72
18
 73
14
 74
12
 42
0.0000001
 43
0.0000001
 44
0.0000000001
 12
0.3662498989
 22
-0.0008303865
 32
0.0
 13
0.0011071506
 23
-0.3662491668
 33
0.0
 40
0.0
 40
0.0
 40
0.0
 40
0.0
 40
0.097180097
 40
0.1938992423
 40
0.2896999712
 40
0.3841870463
 40
0.4770571712
 40
0.5681252747
 40
0.6573451698
 40
0.7448216444
 40
0.8308106258
 40
0.9157043353
 40
1.0
 40
1.0
 40
1.0
 40
1.0
 10
2.6869064833
 20
-23.2948185145
 30
0.0
 10
2.6987705502
 20
-23.2948454135
 30
0.0
 10
2.7224652598
 20
-23.2963603152
 30
0.0
 10
2.757297601
 20
-23.3029747473
 30
0.0
 10
2.7907226819
 20
-23.3137994956
 30
0.0
 10
2.8220612512
 20
-23.3286214778
 30
0.0
 10
2.8506828506
 20
-23.3471488434
 30
0.0
 10
2.8760062377
 20
-23.3690160234
 30
0.0
 10
2.8975131432
 20
-23.3937900907
 30
0.0
 10
2.9147576307
 20
-23.4209759623
 30
0.0
 10
2.9273762989
 20
-23.4500286297
 30
0.0
 10
2.9350983
 20
-23.4803441232
 30
0.0
 10
2.9368719477
 20
-23.5010337931
 30
0.0
 10
2.9369030571
 20
-23.5113248654
 30
0.0
 11
2.6869064833
 21
-23.2948185145
 31
0.0
 11
2.7224258709
 21
-23.2970954341
 31
0.0
 11
2.7572245975
 21
-23.3037189329
 31
0.0
 11
2.7905966235
 21
-23.314554628
 31
0.0
 11
2.8218648535
 21
-23.3293826755
 31
0.0
 11
2.8503948737
 21
-23.3479022301
 31
0.0
 11
2.8756078237
 21
-23.3697375476
 31
0.0
 11
2.8969921413
 21
-23.3944456078
 31
0.0
 11
2.9141139402
 21
-23.4215250971
 31
0.0
 11
2.9266258194
 21
-23.4504265804
 31
0.0
 11
2.934273917
 21
-23.4805636584
 31
0.0
 11
2.9369030571
 21
-23.5113248654
 31
0.0
  0
SPLINE
  5
5EB
100
AcDbEntity
  8
PORTATASTO
100
AcDbSpline
 62
253
  6
CONTINUOUS
 70
0
 71
3
 72
16
 73
12
 74
10
 42
0.0000001
 43
0.0000001
 44
0.0000000001
 12
0.0000000128
 22
-0.2165111267
 32
0.0
 13
-0.0039285624
 23
-0.2164754822
 33
0.0
 40
0.0
 40
0.0
 40
0.0
 40
0.0
 40
0.1330410941
 40
0.2653721429
 40
0.3946348552
 40
0.5181515314
 40
0.6343729951
 40
0.7422936446
 40
0.8403820716
 40
0.9267810823
 40
1.0
 40
1.0
 40
1.0
 40
1.0
 10
2.688215492
 20
-23.0783135804
 30
0.0
 10
2.6882154926
 20
-23.0879152062
 30
0.0
 10
2.6882039759
 20
-23.1070672154
 30
0.0
 10
2.6881520003
 20
-23.1355481208
 30
0.0
 10
2.6880656779
 20
-23.1633415599
 30
0.0
 10
2.6879463885
 20
-23.1899722318
 30
0.0
 10
2.6877960768
 20
-23.2150624579
 30
0.0
 10
2.6876166544
 20
-23.2383172777
 30
0.0
 10
2.6874106807
 20
-23.2594194936
 30
0.0
 10
2.6871818515
 20
-23.2780168704
 30
0.0
 10
2.6870023649
 20
-23.2895351958
 30
0.0
 10
2.6869064832
 20
-23.2948185626
 30
0.0
 11
2.688215492
 21
-23.0783135804
 31
0.0
 11
2.6881980551
 21
-23.1071184523
 31
0.0
 11
2.6881454079
 21
-23.1357695484
 31
0.0
 11
2.6880578376
 21
-23.1637562269
 31
0.0
 11
2.6879370887
 21
-23.190498689
 31
0.0
 11
2.6877849876
 21
-23.2156614694
 31
0.0
 11
2.6876028355
 21
-23.2390267808
 31
0.0
 11
2.6873928747
 21
-23.2602629787
 31
0.0
 11
2.6871590865
 21
-23.2789678649
 31
0.0
 11
2.6869064832
 21
-23.2948185626
 31
0.0
  0
SPLINE
  5
5EC
100
AcDbEntity
  8
PORTATASTO
100
AcDbSpline
 62
253
  6
CONTINUOUS
 70
0
 71
3
 72
16
 73
12
 74
10
 42
0.0000001
 43
0.0000001
 44
0.0000000001
 12
-0.0039285617
 22
0.2164754792
 32
0.0
 13
0.0000000128
 23
0.2165111237
 33
0.0
 40
0.0
 40
0.0
 40
0.0
 40
0.0
 40
0.0732188971
 40
0.1596179091
 40
0.2577063374
 40
0.3656269884
 40
0.4818484537
 40
0.6053651317
 40
0.7346278457
 40
0.8669588964
 40
1.0
 40
1.0
 40
1.0
 40
1.0
 10
0.9380935168
 20
-23.294818558
 30
0.0
 10
0.9379976351
 20
-23.2895351927
 30
0.0
 10
0.9378181485
 20
-23.2780168689
 30
0.0
 10
0.9375893193
 20
-23.2594194936
 30
0.0
 10
0.9373833456
 20
-23.2383172777
 30
0.0
 10
0.9372039232
 20
-23.2150624579
 30
0.0
 10
0.9370536115
 20
-23.1899722318
 30
0.0
 10
0.9369343221
 20
-23.1633415599
 30
0.0
 10
0.9368479997
 20
-23.1355481208
 30
0.0
 10
0.9367960241
 20
-23.1070672149
 30
0.0
 10
0.9367845074
 20
-23.087915205
 30
0.0
 10
0.936784508
 20
-23.0783135788
 30
0.0
 11
0.9380935168
 21
-23.294818558
 31
0.0
 11
0.9378409135
 21
-23.2789678649
 31
0.0
 11
0.9376071253
 21
-23.2602629787
 31
0.0
 11
0.9373971645
 21
-23.2390267808
 31
0.0
 11
0.9372150124
 21
-23.2156614694
 31
0.0
 11
0.9370629113
 21
-23.190498689
 31
0.0
 11
0.9369421624
 21
-23.1637562269
 31
0.0
 11
0.9368545921
 21
-23.1357695484
 31
0.0
 11
0.9368019449
 21
-23.1071184523
 31
0.0
 11
0.936784508
 21
-23.0783135788
 31
0.0
  0
SPLINE
  5
5ED
100
AcDbEntity
  8
PORTATASTO
100
AcDbSpline
 62
253
  6
CONTINUOUS
 70
0
 71
3
 72
18
 73
14
 74
12
 42
0.0000001
 43
0.0000001
 44
0.0000000001
 12
-0.3662498989
 22
0.0008303865
 32
0.0
 13
-0.0011071506
 23
0.3662491668
 33
0.0
 40
0.0
 40
0.0
 40
0.0
 40
0.0
 40
0.097180097
 40
0.1938992423
 40
0.2896999712
 40
0.3841870463
 40
0.4770571712
 40
0.5681252747
 40
0.6573451698
 40
0.7448216444
 40
0.8308106258
 40
0.9157043353
 40
1.0
 40
1.0
 40
1.0
 40
1.0
 10
0.9380935167
 20
23.2948185145
 30
0.0
 10
0.9262294498
 20
23.2948454135
 30
0.0
 10
0.9025347402
 20
23.2963603152
 30
0.0
 10
0.867702399
 20
23.3029747473
 30
0.0
 10
0.8342773181
 20
23.3137994956
 30
0.0
 10
0.8029387488
 20
23.3286214778
 30
0.0
 10
0.7743171494
 20
23.3471488434
 30
0.0
 10
0.7489937623
 20
23.3690160234
 30
0.0
 10
0.7274868568
 20
23.3937900907
 30
0.0
 10
0.7102423693
 20
23.4209759623
 30
0.0
 10
0.6976237011
 20
23.4500286297
 30
0.0
 10
0.6899017
 20
23.4803441232
 30
0.0
 10
0.6881280523
 20
23.5010337931
 30
0.0
 10
0.6880969429
 20
23.5113248654
 30
0.0
 11
0.9380935167
 21
23.2948185145
 31
0.0
 11
0.9025741291
 21
23.2970954341
 31
0.0
 11
0.8677754025
 21
23.3037189329
 31
0.0
 11
0.8344033765
 21
23.314554628
 31
0.0
 11
0.8031351465
 21
23.3293826755
 31
0.0
 11
0.7746051263
 21
23.3479022301
 31
0.0
 11
0.7493921763
 21
23.3697375476
 31
0.0
 11
0.7280078587
 21
23.3944456078
 31
0.0
 11
0.7108860598
 21
23.4215250971
 31
0.0
 11
0.6983741806
 21
23.4504265804
 31
0.0
 11
0.690726083
 21
23.4805636584
 31
0.0
 11
0.6880969429
 21
23.5113248654
 31
0.0
  0
SPLINE
  5
5EE
100
AcDbEntity
  8
PORTATASTO
100
AcDbSpline
 62
253
  6
CONTINUOUS
 70
0
 71
3
 72
16
 73
12
 74
10
 42
0.0000001
 43
0.0000001
 44
0.0000000001
 12
-0.0000000128
 22
0.2165111267
 32
0.0
 13
0.0039285624
 23
0.2164754822
 33
0.0
 40
0.0
 40
0.0
 40
0.0
 40
0.0
 40
0.1330410941
 40
0.2653721429
 40
0.3946348552
 40
0.5181515314
 40
0.6343729951
 40
0.7422936446
 40
0.8403820716
 40
0.9267810823
 40
1.0
 40
1.0
 40
1.0
 40
1.0
 10
0.936784508
 20
23.0783135804
 30
0.0
 10
0.9367845074
 20
23.0879152062
 30
0.0
 10
0.9367960241
 20
23.1070672154
 30
0.0
 10
0.9368479997
 20
23.1355481208
 30
0.0
 10
0.9369343221
 20
23.1633415599
 30
0.0
 10
0.9370536115
 20
23.1899722318
 30
0.0
 10
0.9372039232
 20
23.2150624579
 30
0.0
 10
0.9373833456
 20
23.2383172777
 30
0.0
 10
0.9375893193
 20
23.2594194936
 30
0.0
 10
0.9378181485
 20
23.2780168704
 30
0.0
 10
0.9379976351
 20
23.2895351958
 30
0.0
 10
0.9380935168
 20
23.2948185626
 30
0.0
 11
0.936784508
 21
23.0783135804
 31
0.0
 11
0.9368019449
 21
23.1071184523
 31
0.0
 11
0.9368545921
 21
23.1357695484
 31
0.0
 11
0.9369421624
 21
23.1637562269
 31
0.0
 11
0.9370629113
 21
23.190498689
 31
0.0
 11
0.9372150124
 21
23.2156614694
 31
0.0
 11
0.9373971645
 21
23.2390267808
 31
0.0
 11
0.9376071253
 21
23.2602629787
 31
0.0
 11
0.9378409135
 21
23.2789678649
 31
0.0
 11
0.9380935168
 21
23.2948185626
 31
0.0
  0
SPLINE
  5
5EF
100
AcDbEntity
  8
PORTATASTO
100
AcDbSpline
 62
253
  6
CONTINUOUS
 70
0
 71
3
 72
16
 73
12
 74
10
 42
0.0000001
 43
0.0000001
 44
0.0000000001
 12
0.0039285617
 22
-0.2164754792
 32
0.0
 13
-0.0000000128
 23
-0.2165111237
 33
0.0
 40
0.0
 40
0.0
 40
0.0
 40
0.0
 40
0.0732188971
 40
0.1596179091
 40
0.2577063374
 40
0.3656269884
 40
0.4818484537
 40
0.6053651317
 40
0.7346278457
 40
0.8669588964
 40
1.0
 40
1.0
 40
1.0
 40
1.0
 10
2.6869064832
 20
23.294818558
 30
0.0
 10
2.6870023649
 20
23.2895351927
 30
0.0
 10
2.6871818515
 20
23.2780168689
 30
0.0
 10
2.6874106807
 20
23.2594194936
 30
0.0
 10
2.6876166544
 20
23.2383172777
 30
0.0
 10
2.6877960768
 20
23.2150624579
 30
0.0
 10
2.6879463885
 20
23.1899722318
 30
0.0
 10
2.6880656779
 20
23.1633415599
 30
0.0
 10
2.6881520003
 20
23.1355481208
 30
0.0
 10
2.6882039759
 20
23.1070672149
 30
0.0
 10
2.6882154926
 20
23.087915205
 30
0.0
 10
2.688215492
 20
23.0783135788
 30
0.0
 11
2.6869064832
 21
23.294818558
 31
0.0
 11
2.6871590865
 21
23.2789678649
 31
0.0
 11
2.6873928747
 21
23.2602629787
 31
0.0
 11
2.6876028355
 21
23.2390267808
 31
0.0
 11
2.6877849876
 21
23.2156614694
 31
0.0
 11
2.6879370887
 21
23.190498689
 31
0.0
 11
2.6880578376
 21
23.1637562269
 31
0.0
 11
2.6881454079
 21
23.1357695484
 31
0.0
 11
2.6881980551
 21
23.1071184523
 31
0.0
 11
2.688215492
 21
23.0783135788
 31
0.0
  0
SPLINE
  5
5F0
100
AcDbEntity
  8
PORTATASTO
100
AcDbSpline
 62
253
  6
CONTINUOUS
 70
0
 71
3
 72
18
 73
14
 74
12
 42
0.0000001
 43
0.0000001
 44
0.0000000001
 12
-0.3662498989
 22
0.0008303865
 32
0.0
 13
-0.0011071506
 23
0.3662491668
 33
0.0
 40
0.0
 40
0.0
 40
0.0
 40
0.0
 40
0.097180097
 40
0.1938992423
 40
0.2896999712
 40
0.3841870463
 40
0.4770571712
 40
0.5681252747
 40
0.6573451698
 40
0.7448216444
 40
0.8308106258
 40
0.9157043353
 40
1.0
 40
1.0
 40
1.0
 40
1.0
 10
19.8130935167
 20
23.2948185145
 30
0.0
 10
19.8012294498
 20
23.2948454135
 30
0.0
 10
19.7775347402
 20
23.2963603152
 30
0.0
 10
19.742702399
 20
23.3029747473
 30
0.0
 10
19.7092773181
 20
23.3137994956
 30
0.0
 10
19.6779387488
 20
23.3286214778
 30
0.0
 10
19.6493171494
 20
23.3471488434
 30
0.0
 10
19.6239937623
 20
23.3690160234
 30
0.0
 10
19.6024868568
 20
23.3937900907
 30
0.0
 10
19.5852423693
 20
23.4209759623
 30
0.0
 10
19.5726237011
 20
23.4500286297
 30
0.0
 10
19.5649017
 20
23.4803441232
 30
0.0
 10
19.5631280523
 20
23.5010337931
 30
0.0
 10
19.5630969429
 20
23.5113248654
 30
0.0
 11
19.8130935167
 21
23.2948185145
 31
0.0
 11
19.7775741291
 21
23.2970954341
 31
0.0
 11
19.7427754025
 21
23.3037189329
 31
0.0
 11
19.7094033765
 21
23.314554628
 31
0.0
 11
19.6781351465
 21
23.3293826755
 31
0.0
 11
19.6496051263
 21
23.3479022301
 31
0.0
 11
19.6243921763
 21
23.3697375476
 31
0.0
 11
19.6030078587
 21
23.3944456078
 31
0.0
 11
19.5858860598
 21
23.4215250971
 31
0.0
 11
19.5733741806
 21
23.4504265804
 31
0.0
 11
19.565726083
 21
23.4805636584
 31
0.0
 11
19.5630969429
 21
23.5113248654
 31
0.0
  0
SPLINE
  5
5F1
100
AcDbEntity
  8
PORTATASTO
100
AcDbSpline
 62
253
  6
CONTINUOUS
 70
0
 71
3
 72
16
 73
12
 74
10
 42
0.0000001
 43
0.0000001
 44
0.0000000001
 12
-0.0000000128
 22
0.2165111267
 32
0.0
 13
0.0039285624
 23
0.2164754822
 33
0.0
 40
0.0
 40
0.0
 40
0.0
 40
0.0
 40
0.1330410941
 40
0.2653721429
 40
0.3946348552
 40
0.5181515314
 40
0.6343729951
 40
0.7422936446
 40
0.8403820716
 40
0.9267810823
 40
1.0
 40
1.0
 40
1.0
 40
1.0
 10
19.811784508
 20
23.0783135804
 30
0.0
 10
19.8117845074
 20
23.0879152062
 30
0.0
 10
19.8117960241
 20
23.1070672154
 30
0.0
 10
19.8118479997
 20
23.1355481208
 30
0.0
 10
19.8119343221
 20
23.1633415599
 30
0.0
 10
19.8120536115
 20
23.1899722318
 30
0.0
 10
19.8122039232
 20
23.2150624579
 30
0.0
 10
19.8123833456
 20
23.2383172777
 30
0.0
 10
19.8125893193
 20
23.2594194936
 30
0.0
 10
19.8128181485
 20
23.2780168704
 30
0.0
 10
19.8129976351
 20
23.2895351958
 30
0.0
 10
19.8130935168
 20
23.2948185626
 30
0.0
 11
19.811784508
 21
23.0783135804
 31
0.0
 11
19.8118019449
 21
23.1071184523
 31
0.0
 11
19.8118545921
 21
23.1357695484
 31
0.0
 11
19.8119421624
 21
23.1637562269
 31
0.0
 11
19.8120629113
 21
23.190498689
 31
0.0
 11
19.8122150124
 21
23.2156614694
 31
0.0
 11
19.8123971645
 21
23.2390267808
 31
0.0
 11
19.8126071253
 21
23.2602629787
 31
0.0
 11
19.8128409135
 21
23.2789678649
 31
0.0
 11
19.8130935168
 21
23.2948185626
 31
0.0
  0
SPLINE
  5
5F2
100
AcDbEntity
  8
PORTATASTO
100
AcDbSpline
 62
253
  6
CONTINUOUS
 70
0
 71
3
 72
16
 73
12
 74
10
 42
0.0000001
 43
0.0000001
 44
0.0000000001
 12
0.0039285617
 22
-0.2164754792
 32
0.0
 13
-0.0000000128
 23
-0.2165111237
 33
0.0
 40
0.0
 40
0.0
 40
0.0
 40
0.0
 40
0.0732188971
 40
0.1596179091
 40
0.2577063374
 40
0.3656269884
 40
0.4818484537
 40
0.6053651317
 40
0.7346278457
 40
0.8669588964
 40
1.0
 40
1.0
 40
1.0
 40
1.0
 10
21.5619064832
 20
23.294818558
 30
0.0
 10
21.5620023649
 20
23.2895351927
 30
0.0
 10
21.5621818515
 20
23.2780168689
 30
0.0
 10
21.5624106807
 20
23.2594194936
 30
0.0
 10
21.5626166544
 20
23.2383172777
 30
0.0
 10
21.5627960768
 20
23.2150624579
 30
0.0
 10
21.5629463885
 20
23.1899722318
 30
0.0
 10
21.5630656779
 20
23.1633415599
 30
0.0
 10
21.5631520003
 20
23.1355481208
 30
0.0
 10
21.5632039759
 20
23.1070672149
 30
0.0
 10
21.5632154926
 20
23.087915205
 30
0.0
 10
21.563215492
 20
23.0783135788
 30
0.0
 11
21.5619064832
 21
23.294818558
 31
0.0
 11
21.5621590865
 21
23.2789678649
 31
0.0
 11
21.5623928747
 21
23.2602629787
 31
0.0
 11
21.5626028355
 21
23.2390267808
 31
0.0
 11
21.5627849876
 21
23.2156614694
 31
0.0
 11
21.5629370887
 21
23.190498689
 31
0.0
 11
21.5630578376
 21
23.1637562269
 31
0.0
 11
21.5631454079
 21
23.1357695484
 31
0.0
 11
21.5631980551
 21
23.1071184523
 31
0.0
 11
21.563215492
 21
23.0783135788
 31
0.0
  0
SPLINE
  5
5F3
100
AcDbEntity
  8
PORTATASTO
100
AcDbSpline
 62
253
  6
CONTINUOUS
 70
0
 71
3
 72
18
 73
14
 74
12
 42
0.0000001
 43
0.0000001
 44
0.0000000001
 12
0.3662498989
 22
-0.0008303865
 32
0.0
 13
0.0011071506
 23
-0.3662491668
 33
0.0
 40
0.0
 40
0.0
 40
0.0
 40
0.0
 40
0.097180097
 40
0.1938992423
 40
0.2896999712
 40
0.3841870463
 40
0.4770571712
 40
0.5681252747
 40
0.6573451698
 40
0.7448216444
 40
0.8308106258
 40
0.9157043353
 40
1.0
 40
1.0
 40
1.0
 40
1.0
 10
21.5619064833
 20
-23.2948185145
 30
0.0
 10
21.5737705502
 20
-23.2948454135
 30
0.0
 10
21.5974652598
 20
-23.2963603152
 30
0.0
 10
21.632297601
 20
-23.3029747473
 30
0.0
 10
21.6657226819
 20
-23.3137994956
 30
0.0
 10
21.6970612512
 20
-23.3286214778
 30
0.0
 10
21.7256828506
 20
-23.3471488434
 30
0.0
 10
21.7510062377
 20
-23.3690160234
 30
0.0
 10
21.7725131432
 20
-23.3937900907
 30
0.0
 10
21.7897576307
 20
-23.4209759623
 30
0.0
 10
21.8023762989
 20
-23.4500286297
 30
0.0
 10
21.8100983
 20
-23.4803441232
 30
0.0
 10
21.8118719477
 20
-23.5010337931
 30
0.0
 10
21.8119030571
 20
-23.5113248654
 30
0.0
 11
21.5619064833
 21
-23.2948185145
 31
0.0
 11
21.5974258709
 21
-23.2970954341
 31
0.0
 11
21.6322245975
 21
-23.3037189329
 31
0.0
 11
21.6655966235
 21
-23.314554628
 31
0.0
 11
21.6968648535
 21
-23.3293826755
 31
0.0
 11
21.7253948737
 21
-23.3479022301
 31
0.0
 11
21.7506078237
 21
-23.3697375476
 31
0.0
 11
21.7719921413
 21
-23.3944456078
 31
0.0
 11
21.7891139402
 21
-23.4215250971
 31
0.0
 11
21.8016258194
 21
-23.4504265804
 31
0.0
 11
21.809273917
 21
-23.4805636584
 31
0.0
 11
21.8119030571
 21
-23.5113248654
 31
0.0
  0
SPLINE
  5
5F4
100
AcDbEntity
  8
PORTATASTO
100
AcDbSpline
 62
253
  6
CONTINUOUS
 70
0
 71
3
 72
16
 73
12
 74
10
 42
0.0000001
 43
0.0000001
 44
0.0000000001
 12
0.0000000128
 22
-0.2165111267
 32
0.0
 13
-0.0039285624
 23
-0.2164754822
 33
0.0
 40
0.0
 40
0.0
 40
0.0
 40
0.0
 40
0.1330410941
 40
0.2653721429
 40
0.3946348552
 40
0.5181515314
 40
0.6343729951
 40
0.7422936446
 40
0.8403820716
 40
0.9267810823
 40
1.0
 40
1.0
 40
1.0
 40
1.0
 10
21.563215492
 20
-23.0783135804
 30
0.0
 10
21.5632154926
 20
-23.0879152062
 30
0.0
 10
21.5632039759
 20
-23.1070672154
 30
0.0
 10
21.5631520003
 20
-23.1355481208
 30
0.0
 10
21.5630656779
 20
-23.1633415599
 30
0.0
 10
21.5629463885
 20
-23.1899722318
 30
0.0
 10
21.5627960768
 20
-23.2150624579
 30
0.0
 10
21.5626166544
 20
-23.2383172777
 30
0.0
 10
21.5624106807
 20
-23.2594194936
 30
0.0
 10
21.5621818515
 20
-23.2780168704
 30
0.0
 10
21.5620023649
 20
-23.2895351958
 30
0.0
 10
21.5619064832
 20
-23.2948185626
 30
0.0
 11
21.563215492
 21
-23.0783135804
 31
0.0
 11
21.5631980551
 21
-23.1071184523
 31
0.0
 11
21.5631454079
 21
-23.1357695484
 31
0.0
 11
21.5630578376
 21
-23.1637562269
 31
0.0
 11
21.5629370887
 21
-23.190498689
 31
0.0
 11
21.5627849876
 21
-23.2156614694
 31
0.0
 11
21.5626028355
 21
-23.2390267808
 31
0.0
 11
21.5623928747
 21
-23.2602629787
 31
0.0
 11
21.5621590865
 21
-23.2789678649
 31
0.0
 11
21.5619064832
 21
-23.2948185626
 31
0.0
  0
SPLINE
  5
5F5
100
AcDbEntity
  8
PORTATASTO
100
AcDbSpline
 62
253
  6
CONTINUOUS
 70
0
 71
3
 72
16
 73
12
 74
10
 42
0.0000001
 43
0.0000001
 44
0.0000000001
 12
-0.0039285617
 22
0.2164754792
 32
0.0
 13
0.0000000128
 23
0.2165111237
 33
0.0
 40
0.0
 40
0.0
 40
0.0
 40
0.0
 40
0.0732188971
 40
0.1596179091
 40
0.2577063374
 40
0.3656269884
 40
0.4818484537
 40
0.6053651317
 40
0.7346278457
 40
0.8669588964
 40
1.0
 40
1.0
 40
1.0
 40
1.0
 10
19.8130935168
 20
-23.294818558
 30
0.0
 10
19.8129976351
 20
-23.2895351927
 30
0.0
 10
19.8128181485
 20
-23.2780168689
 30
0.0
 10
19.8125893193
 20
-23.2594194936
 30
0.0
 10
19.8123833456
 20
-23.2383172777
 30
0.0
 10
19.8122039232
 20
-23.2150624579
 30
0.0
 10
19.8120536115
 20
-23.1899722318
 30
0.0
 10
19.8119343221
 20
-23.1633415599
 30
0.0
 10
19.8118479997
 20
-23.1355481208
 30
0.0
 10
19.8117960241
 20
-23.1070672149
 30
0.0
 10
19.8117845074
 20
-23.087915205
 30
0.0
 10
19.811784508
 20
-23.0783135788
 30
0.0
 11
19.8130935168
 21
-23.294818558
 31
0.0
 11
19.8128409135
 21
-23.2789678649
 31
0.0
 11
19.8126071253
 21
-23.2602629787
 31
0.0
 11
19.8123971645
 21
-23.2390267808
 31
0.0
 11
19.8122150124
 21
-23.2156614694
 31
0.0
 11
19.8120629113
 21
-23.190498689
 31
0.0
 11
19.8119421624
 21
-23.1637562269
 31
0.0
 11
19.8118545921
 21
-23.1357695484
 31
0.0
 11
19.8118019449
 21
-23.1071184523
 31
0.0
 11
19.811784508
 21
-23.0783135788
 31
0.0
  0
SPLINE
  5
5F6
100
AcDbEntity
  8
PORTATASTO
100
AcDbSpline
 62
253
  6
CONTINUOUS
 70
0
 71
3
 72
18
 73
14
 74
12
 42
0.0000001
 43
0.0000001
 44
0.0000000001
 12
-0.0011071506
 22
0.3662491663
 32
0.0
 13
-0.3662498983
 23
0.0008303874
 33
0.0
 40
0.0
 40
0.0
 40
0.0
 40
0.0
 40
0.0842955547
 40
0.169189152
 40
0.2551780173
 40
0.3426543807
 40
0.4318741974
 40
0.5229422751
 40
0.6158124279
 40
0.7102995819
 40
0.8061004335
 40
0.9028197334
 40
1.0
 40
1.0
 40
1.0
 40
1.0
 10
2.9329760304
 20
-23.9443375673
 30
0.0
 10
2.9329449211
 20
-23.9340465084
 30
0.0
 10
2.931171278
 20
-23.9133568659
 30
0.0
 10
2.9234492968
 20
-23.8830414104
 30
0.0
 10
2.9108306605
 20
-23.853988775
 30
0.0
 10
2.893586212
 20
-23.8268029233
 30
0.0
 10
2.8720793439
 20
-23.8020288588
 30
0.0
 10
2.8467559823
 20
-23.7801616637
 30
0.0
 10
2.8181343891
 20
-23.76163427
 30
0.0
 10
2.7867958043
 20
-23.7468122547
 30
0.0
 10
2.7533706872
 20
-23.7359874758
 30
0.0
 10
2.7185382942
 20
-23.7293730223
 30
0.0
 10
2.6948435449
 20
-23.7278581154
 30
0.0
 10
2.6829794573
 20
-23.7278312164
 30
0.0
 11
2.9329760304
 21
-23.9443375673
 31
0.0
 11
2.930346897
 21
-23.9135764002
 31
0.0
 11
2.9226988191
 21
-23.8834393596
 31
0.0
 11
2.9101869717
 21
-23.854537909
 31
0.0
 11
2.8930652133
 21
-23.8274584424
 31
0.0
 11
2.8716809344
 21
-23.8027503867
 31
0.0
 11
2.8464680099
 21
-23.7809150543
 31
0.0
 11
2.8179379958
 21
-23.7623954716
 31
0.0
 11
2.7866697497
 21
-23.7475673906
 31
0.0
 11
2.7532976866
 21
-23.7367316644
 31
0.0
 11
2.7184989066
 21
-23.7301081438
 31
0.0
 11
2.6829794573
 21
-23.7278312164
 31
0.0
  0
SPLINE
  5
5F7
100
AcDbEntity
  8
PORTATASTO
100
AcDbSpline
 62
253
  6
CONTINUOUS
 70
0
 71
3
 72
18
 73
14
 74
12
 42
0.0000001
 43
0.0000001
 44
0.0000000001
 12
-0.3662499093
 22
-0.0008303874
 32
0.0
 13
-0.0011071506
 23
-0.3662491772
 33
0.0
 40
0.0
 40
0.0
 40
0.0
 40
0.0
 40
0.0971872096
 40
0.1939133523
 40
0.2897218612
 40
0.3842163772
 40
0.4770935418
 40
0.5681682897
 40
0.6573939174
 40
0.7448759241
 40
0.8308652934
 40
0.915759618
 40
1.0
 40
1.0
 40
1.0
 40
1.0
 10
0.9420205427
 20
-23.7278312164
 30
0.0
 10
0.9301556071
 20
-23.7278581174
 30
0.0
 10
0.906459169
 20
-23.7293732367
 30
0.0
 10
0.8716242724
 20
-23.7359886464
 30
0.0
 10
0.8381968445
 20
-23.7468150334
 30
0.0
 10
0.8068563178
 20
-23.7616392955
 30
0.0
 10
0.7782334137
 20
-23.7801694443
 30
0.0
 10
0.752909548
 20
-23.8020397445
 30
0.0
 10
0.731403056
 20
-23.8268171064
 30
0.0
 10
0.714160234
 20
-23.854005759
 30
0.0
 10
0.7015441582
 20
-23.8830604284
 30
0.0
 10
0.6938269916
 20
-23.9133703205
 30
0.0
 10
0.6920550586
 20
-23.9340532438
 30
0.0
 10
0.6920239696
 20
-23.9443375673
 30
0.0
 11
0.9420205427
 21
-23.7278312164
 31
0.0
 11
0.9064985647
 21
-23.7301084639
 31
0.0
 11
0.8716974106
 21
-23.7367329201
 31
0.0
 11
0.8383229334
 21
-23.7475702957
 31
0.0
 11
0.8070527672
 21
-23.7624006231
 31
0.0
 11
0.7785214729
 21
-23.780922952
 31
0.0
 11
0.7533080261
 21
-23.8027614143
 31
0.0
 11
0.7319242019
 21
-23.8274726794
 31
0.0
 11
0.714803758
 21
-23.8545554235
 31
0.0
 11
0.7022947174
 21
-23.8834582912
 31
0.0
 11
0.6946497303
 21
-23.9135963917
 31
0.0
 11
0.6920239696
 21
-23.9443375673
 31
0.0
  0
SPLINE
  5
5F8
100
AcDbEntity
  8
PORTATASTO
100
AcDbSpline
 62
253
  6
CONTINUOUS
 70
0
 71
3
 72
18
 73
14
 74
12
 42
0.0000001
 43
0.0000001
 44
0.0000000001
 12
0.0011071506
 22
-0.3662491663
 32
0.0
 13
0.3662498983
 23
-0.0008303874
 33
0.0
 40
0.0
 40
0.0
 40
0.0
 40
0.0
 40
0.0842955547
 40
0.169189152
 40
0.2551780173
 40
0.3426543807
 40
0.4318741974
 40
0.5229422751
 40
0.6158124279
 40
0.7102995819
 40
0.8061004335
 40
0.9028197334
 40
1.0
 40
1.0
 40
1.0
 40
1.0
 10
0.6920239696
 20
23.9443375673
 30
0.0
 10
0.6920550789
 20
23.9340465084
 30
0.0
 10
0.693828722
 20
23.9133568659
 30
0.0
 10
0.7015507032
 20
23.8830414104
 30
0.0
 10
0.7141693395
 20
23.853988775
 30
0.0
 10
0.731413788
 20
23.8268029233
 30
0.0
 10
0.7529206561
 20
23.8020288588
 30
0.0
 10
0.7782440177
 20
23.7801616637
 30
0.0
 10
0.8068656109
 20
23.76163427
 30
0.0
 10
0.8382041957
 20
23.7468122547
 30
0.0
 10
0.8716293128
 20
23.7359874758
 30
0.0
 10
0.9064617058
 20
23.7293730223
 30
0.0
 10
0.9301564551
 20
23.7278581154
 30
0.0
 10
0.9420205427
 20
23.7278312164
 30
0.0
 11
0.6920239696
 21
23.9443375673
 31
0.0
 11
0.694653103
 21
23.9135764002
 31
0.0
 11
0.7023011809
 21
23.8834393596
 31
0.0
 11
0.7148130283
 21
23.854537909
 31
0.0
 11
0.7319347867
 21
23.8274584424
 31
0.0
 11
0.7533190656
 21
23.8027503867
 31
0.0
 11
0.7785319901
 21
23.7809150543
 31
0.0
 11
0.8070620042
 21
23.7623954716
 31
0.0
 11
0.8383302503
 21
23.7475673906
 31
0.0
 11
0.8717023134
 21
23.7367316644
 31
0.0
 11
0.9065010934
 21
23.7301081438
 31
0.0
 11
0.9420205427
 21
23.7278312164
 31
0.0
  0
SPLINE
  5
5F9
100
AcDbEntity
  8
PORTATASTO
100
AcDbSpline
 62
253
  6
CONTINUOUS
 70
0
 71
3
 72
18
 73
14
 74
12
 42
0.0000001
 43
0.0000001
 44
0.0000000001
 12
0.3662499093
 22
0.0008303874
 32
0.0
 13
0.0011071506
 23
0.3662491772
 33
0.0
 40
0.0
 40
0.0
 40
0.0
 40
0.0
 40
0.0971872096
 40
0.1939133523
 40
0.2897218612
 40
0.3842163772
 40
0.4770935418
 40
0.5681682897
 40
0.6573939174
 40
0.7448759241
 40
0.8308652934
 40
0.915759618
 40
1.0
 40
1.0
 40
1.0
 40
1.0
 10
2.6829794573
 20
23.7278312164
 30
0.0
 10
2.6948443929
 20
23.7278581174
 30
0.0
 10
2.718540831
 20
23.7293732367
 30
0.0
 10
2.7533757276
 20
23.7359886464
 30
0.0
 10
2.7868031555
 20
23.7468150334
 30
0.0
 10
2.8181436822
 20
23.7616392955
 30
0.0
 10
2.8467665863
 20
23.7801694443
 30
0.0
 10
2.872090452
 20
23.8020397445
 30
0.0
 10
2.893596944
 20
23.8268171064
 30
0.0
 10
2.910839766
 20
23.854005759
 30
0.0
 10
2.9234558418
 20
23.8830604284
 30
0.0
 10
2.9311730084
 20
23.9133703205
 30
0.0
 10
2.9329449414
 20
23.9340532438
 30
0.0
 10
2.9329760304
 20
23.9443375673
 30
0.0
 11
2.6829794573
 21
23.7278312164
 31
0.0
 11
2.7185014353
 21
23.7301084639
 31
0.0
 11
2.7533025894
 21
23.7367329201
 31
0.0
 11
2.7866770666
 21
23.7475702957
 31
0.0
 11
2.8179472328
 21
23.7624006231
 31
0.0
 11
2.8464785271
 21
23.780922952
 31
0.0
 11
2.8716919739
 21
23.8027614143
 31
0.0
 11
2.8930757981
 21
23.8274726794
 31
0.0
 11
2.910196242
 21
23.8545554235
 31
0.0
 11
2.9227052826
 21
23.8834582912
 31
0.0
 11
2.9303502697
 21
23.9135963917
 31
0.0
 11
2.9329760304
 21
23.9443375673
 31
0.0
  0
SPLINE
  5
5FA
100
AcDbEntity
  8
PORTATASTO
100
AcDbSpline
 62
253
  6
CONTINUOUS
 70
0
 71
3
 72
18
 73
14
 74
12
 42
0.0000001
 43
0.0000001
 44
0.0000000001
 12
0.0011071506
 22
-0.3662491663
 32
0.0
 13
0.3662498983
 23
-0.0008303874
 33
0.0
 40
0.0
 40
0.0
 40
0.0
 40
0.0
 40
0.0842955547
 40
0.169189152
 40
0.2551780173
 40
0.3426543807
 40
0.4318741974
 40
0.5229422751
 40
0.6158124279
 40
0.7102995819
 40
0.8061004335
 40
0.9028197334
 40
1.0
 40
1.0
 40
1.0
 40
1.0
 10
19.5670239696
 20
23.9443375673
 30
0.0
 10
19.5670550789
 20
23.9340465084
 30
0.0
 10
19.568828722
 20
23.9133568659
 30
0.0
 10
19.5765507032
 20
23.8830414104
 30
0.0
 10
19.5891693395
 20
23.853988775
 30
0.0
 10
19.606413788
 20
23.8268029233
 30
0.0
 10
19.6279206561
 20
23.8020288588
 30
0.0
 10
19.6532440177
 20
23.7801616637
 30
0.0
 10
19.6818656109
 20
23.76163427
 30
0.0
 10
19.7132041957
 20
23.7468122547
 30
0.0
 10
19.7466293128
 20
23.7359874758
 30
0.0
 10
19.7814617058
 20
23.7293730223
 30
0.0
 10
19.8051564551
 20
23.7278581154
 30
0.0
 10
19.8170205427
 20
23.7278312164
 30
0.0
 11
19.5670239696
 21
23.9443375673
 31
0.0
 11
19.569653103
 21
23.9135764002
 31
0.0
 11
19.5773011809
 21
23.8834393596
 31
0.0
 11
19.5898130283
 21
23.854537909
 31
0.0
 11
19.6069347867
 21
23.8274584424
 31
0.0
 11
19.6283190656
 21
23.8027503867
 31
0.0
 11
19.6535319901
 21
23.7809150543
 31
0.0
 11
19.6820620042
 21
23.7623954716
 31
0.0
 11
19.7133302503
 21
23.7475673906
 31
0.0
 11
19.7467023134
 21
23.7367316644
 31
0.0
 11
19.7815010934
 21
23.7301081438
 31
0.0
 11
19.8170205427
 21
23.7278312164
 31
0.0
  0
SPLINE
  5
5FB
100
AcDbEntity
  8
PORTATASTO
100
AcDbSpline
 62
253
  6
CONTINUOUS
 70
0
 71
3
 72
18
 73
14
 74
12
 42
0.0000001
 43
0.0000001
 44
0.0000000001
 12
0.3662499093
 22
0.0008303874
 32
0.0
 13
0.0011071506
 23
0.3662491772
 33
0.0
 40
0.0
 40
0.0
 40
0.0
 40
0.0
 40
0.0971872096
 40
0.1939133523
 40
0.2897218612
 40
0.3842163772
 40
0.4770935418
 40
0.5681682897
 40
0.6573939174
 40
0.7448759241
 40
0.8308652934
 40
0.915759618
 40
1.0
 40
1.0
 40
1.0
 40
1.0
 10
21.5579794573
 20
23.7278312164
 30
0.0
 10
21.5698443929
 20
23.7278581174
 30
0.0
 10
21.593540831
 20
23.7293732367
 30
0.0
 10
21.6283757276
 20
23.7359886464
 30
0.0
 10
21.6618031555
 20
23.7468150334
 30
0.0
 10
21.6931436822
 20
23.7616392955
 30
0.0
 10
21.7217665863
 20
23.7801694443
 30
0.0
 10
21.747090452
 20
23.8020397445
 30
0.0
 10
21.768596944
 20
23.8268171064
 30
0.0
 10
21.785839766
 20
23.854005759
 30
0.0
 10
21.7984558418
 20
23.8830604284
 30
0.0
 10
21.8061730084
 20
23.9133703205
 30
0.0
 10
21.8079449414
 20
23.9340532438
 30
0.0
 10
21.8079760304
 20
23.9443375673
 30
0.0
 11
21.5579794573
 21
23.7278312164
 31
0.0
 11
21.5935014353
 21
23.7301084639
 31
0.0
 11
21.6283025894
 21
23.7367329201
 31
0.0
 11
21.6616770666
 21
23.7475702957
 31
0.0
 11
21.6929472328
 21
23.7624006231
 31
0.0
 11
21.7214785271
 21
23.780922952
 31
0.0
 11
21.7466919739
 21
23.8027614143
 31
0.0
 11
21.7680757981
 21
23.8274726794
 31
0.0
 11
21.785196242
 21
23.8545554235
 31
0.0
 11
21.7977052826
 21
23.8834582912
 31
0.0
 11
21.8053502697
 21
23.9135963917
 31
0.0
 11
21.8079760304
 21
23.9443375673
 31
0.0
  0
SPLINE
  5
5FC
100
AcDbEntity
  8
PORTATASTO
100
AcDbSpline
 62
253
  6
CONTINUOUS
 70
0
 71
3
 72
18
 73
14
 74
12
 42
0.0000001
 43
0.0000001
 44
0.0000000001
 12
-0.0011071506
 22
0.3662491663
 32
0.0
 13
-0.3662498983
 23
0.0008303874
 33
0.0
 40
0.0
 40
0.0
 40
0.0
 40
0.0
 40
0.0842955547
 40
0.169189152
 40
0.2551780173
 40
0.3426543807
 40
0.4318741974
 40
0.5229422751
 40
0.6158124279
 40
0.7102995819
 40
0.8061004335
 40
0.9028197334
 40
1.0
 40
1.0
 40
1.0
 40
1.0
 10
21.8079760304
 20
-23.9443375673
 30
0.0
 10
21.8079449211
 20
-23.9340465084
 30
0.0
 10
21.806171278
 20
-23.9133568659
 30
0.0
 10
21.7984492968
 20
-23.8830414104
 30
0.0
 10
21.7858306605
 20
-23.853988775
 30
0.0
 10
21.768586212
 20
-23.8268029233
 30
0.0
 10
21.7470793439
 20
-23.8020288588
 30
0.0
 10
21.7217559823
 20
-23.7801616637
 30
0.0
 10
21.6931343891
 20
-23.76163427
 30
0.0
 10
21.6617958043
 20
-23.7468122547
 30
0.0
 10
21.6283706872
 20
-23.7359874758
 30
0.0
 10
21.5935382942
 20
-23.7293730223
 30
0.0
 10
21.5698435449
 20
-23.7278581154
 30
0.0
 10
21.5579794573
 20
-23.7278312164
 30
0.0
 11
21.8079760304
 21
-23.9443375673
 31
0.0
 11
21.805346897
 21
-23.9135764002
 31
0.0
 11
21.7976988191
 21
-23.8834393596
 31
0.0
 11
21.7851869717
 21
-23.854537909
 31
0.0
 11
21.7680652133
 21
-23.8274584424
 31
0.0
 11
21.7466809344
 21
-23.8027503867
 31
0.0
 11
21.7214680099
 21
-23.7809150543
 31
0.0
 11
21.6929379958
 21
-23.7623954716
 31
0.0
 11
21.6616697497
 21
-23.7475673906
 31
0.0
 11
21.6282976866
 21
-23.7367316644
 31
0.0
 11
21.5934989066
 21
-23.7301081438
 31
0.0
 11
21.5579794573
 21
-23.7278312164
 31
0.0
  0
SPLINE
  5
5FD
100
AcDbEntity
  8
PORTATASTO
100
AcDbSpline
 62
253
  6
CONTINUOUS
 70
0
 71
3
 72
18
 73
14
 74
12
 42
0.0000001
 43
0.0000001
 44
0.0000000001
 12
-0.3662499093
 22
-0.0008303874
 32
0.0
 13
-0.0011071506
 23
-0.3662491772
 33
0.0
 40
0.0
 40
0.0
 40
0.0
 40
0.0
 40
0.0971872096
 40
0.1939133523
 40
0.2897218612
 40
0.3842163772
 40
0.4770935418
 40
0.5681682897
 40
0.6573939174
 40
0.7448759241
 40
0.8308652934
 40
0.915759618
 40
1.0
 40
1.0
 40
1.0
 40
1.0
 10
19.8170205427
 20
-23.7278312164
 30
0.0
 10
19.8051556071
 20
-23.7278581174
 30
0.0
 10
19.781459169
 20
-23.7293732367
 30
0.0
 10
19.7466242724
 20
-23.7359886464
 30
0.0
 10
19.7131968445
 20
-23.7468150334
 30
0.0
 10
19.6818563178
 20
-23.7616392955
 30
0.0
 10
19.6532334137
 20
-23.7801694443
 30
0.0
 10
19.627909548
 20
-23.8020397445
 30
0.0
 10
19.606403056
 20
-23.8268171064
 30
0.0
 10
19.589160234
 20
-23.854005759
 30
0.0
 10
19.5765441582
 20
-23.8830604284
 30
0.0
 10
19.5688269916
 20
-23.9133703205
 30
0.0
 10
19.5670550586
 20
-23.9340532438
 30
0.0
 10
19.5670239696
 20
-23.9443375673
 30
0.0
 11
19.8170205427
 21
-23.7278312164
 31
0.0
 11
19.7814985647
 21
-23.7301084639
 31
0.0
 11
19.7466974106
 21
-23.7367329201
 31
0.0
 11
19.7133229334
 21
-23.7475702957
 31
0.0
 11
19.6820527672
 21
-23.7624006231
 31
0.0
 11
19.6535214729
 21
-23.780922952
 31
0.0
 11
19.6283080261
 21
-23.8027614143
 31
0.0
 11
19.6069242019
 21
-23.8274726794
 31
0.0
 11
19.589803758
 21
-23.8545554235
 31
0.0
 11
19.5772947174
 21
-23.8834582912
 31
0.0
 11
19.5696497303
 21
-23.9135963917
 31
0.0
 11
19.5670239696
 21
-23.9443375673
 31
0.0
  0
SPLINE
  5
5FE
100
AcDbEntity
  8
RACCORDO
100
AcDbSpline
 62
253
  6
CONTINUOUS
 70
0
 71
3
 72
12
 73
8
 74
6
 42
0.0000001
 43
0.0000001
 44
0.0000000001
 12
0.0086816816
 22
1.9999847375
 32
0.0
 13
-1.9972602542
 23
0.1047177094
 33
0.0
 40
0.0
 40
0.0
 40
0.0
 40
0.0
 40
0.3086093926
 40
0.5875728636
 40
0.809003923
 40
0.9510767102
 40
1.0
 40
1.0
 40
1.0
 40
1.0
 10
-47.034417242
 20
17.0674431307
 30
0.0
 10
-47.0335241591
 20
17.2731811557
 30
0.0
 10
-47.0289215983
 20
17.668501179
 30
0.0
 10
-47.0419944325
 20
18.1939005725
 30
0.0
 10
-47.0098178531
 20
18.6579245798
 30
0.0
 10
-47.0769562847
 20
18.8647022183
 30
0.0
 10
-47.0105732625
 20
19.0655831374
 30
0.0
 10
-47.0431441099
 20
19.067290849
 30
0.0
 11
-47.034417242
 21
17.0674431307
 31
0.0
 11
-47.0325782991
 21
17.6846602813
 31
0.0
 11
-47.0326222507
 21
18.2425882204
 31
0.0
 11
-47.0345568189
 21
18.6854469066
 31
0.0
 11
-47.0381855206
 21
18.9695698184
 31
0.0
 11
-47.0431441099
 21
19.067290849
 31
0.0
  0
SPLINE
  5
5FF
100
AcDbEntity
  8
RACCORDO
100
AcDbSpline
 62
253
  6
CONTINUOUS
 70
0
 71
3
 72
12
 73
8
 74
6
 42
0.0000001
 43
0.0000001
 44
0.0000000001
 12
1.9916308343
 22
-0.1777158374
 32
0.0
 13
-0.0218177039
 23
-1.999424989
 33
0.0
 40
0.0
 40
0.0
 40
0.0
 40
0.0
 40
0.0489623091
 40
0.1911229051
 40
0.4125207735
 40
0.6914770343
 40
1.0
 40
1.0
 40
1.0
 40
1.0
 10
-53.6804265718
 20
19.1831450453
 30
0.0
 10
-53.6479216236
 20
19.1802445861
 30
0.0
 10
-53.7216441618
 20
18.9818558179
 30
0.0
 10
-53.6539834089
 20
18.7726551608
 30
0.0
 10
-53.6929115155
 20
18.3099910478
 30
0.0
 10
-53.683627674
 20
17.7843186893
 30
0.0
 10
-53.6912691321
 20
17.3893009199
 30
0.0
 10
-53.6935128864
 20
17.1836780775
 30
0.0
 11
-53.6804265718
 21
19.1831450453
 31
0.0
 11
-53.6787987598
 21
19.0852562866
 31
0.0
 11
-53.6794651613
 21
18.8010006977
 31
0.0
 11
-53.6823644411
 21
18.3583154072
 31
0.0
 11
-53.6872102221
 21
17.8005511327
 31
0.0
 11
-53.6935128864
 21
17.1836780775
 31
0.0
  0
SPLINE
  5
600
100
AcDbEntity
  8
RACCORDO
100
AcDbSpline
 62
253
  6
CONTINUOUS
 70
0
 71
3
 72
11
 73
7
 74
5
 42
0.0000001
 43
0.0000001
 44
0.0000000001
 12
-0.0261463235
 22
0.499053723
 32
0.0
 13
0.4990533063
 23
0.0261542755
 33
0.0
 40
0.0
 40
0.0
 40
0.0
 40
0.0
 40
0.3825985335
 40
0.7069041909
 40
0.923632886
 40
1.0
 40
1.0
 40
1.0
 40
1.0
 10
-87.1915911405
 20
21.5066494103
 30
0.0
 10
-87.1949256555
 20
21.5702951511
 30
0.0
 10
-87.1973062307
 20
21.684227251
 30
0.0
 10
-87.2157178197
 20
21.8509214267
 30
0.0
 10
-87.1952015547
 20
21.9281018711
 30
0.0
 10
-87.2217366664
 20
22.0052984023
 30
0.0
 10
-87.2090329129
 20
22.0059641778
 30
0.0
 11
-87.1915911405
 21
21.5066494103
 31
0.0
 11
-87.2009329868
 21
21.6976201509
 31
0.0
 11
-87.2075274698
 21
21.8595538509
 31
0.0
 11
-87.2103716578
 21
21.9678241035
 31
0.0
 11
-87.2090329129
 21
22.0059641778
 31
0.0
  0
SPLINE
  5
601
100
AcDbEntity
  8
RACCORDO
100
AcDbSpline
 62
253
  6
CONTINUOUS
 70
0
 71
3
 72
11
 73
7
 74
5
 42
0.0000001
 43
0.0000001
 44
0.0000000001
 12
-0.0261463311
 22
-0.4990537238
 32
0.0
 13
0.4990533075
 23
-0.0261542756
 33
0.0
 40
0.0
 40
0.0
 40
0.0
 40
0.0
 40
0.3826055134
 40
0.7069107633
 40
0.9236352603
 40
1.0
 40
1.0
 40
1.0
 40
1.0
 10
-87.1915911405
 20
-21.5066494103
 30
0.0
 10
-87.1949257173
 20
-21.5702963124
 30
0.0
 10
-87.1973062562
 20
-21.6842294024
 30
0.0
 10
-87.2157179094
 20
-21.8509240941
 30
0.0
 10
-87.1952019292
 20
-21.9281036805
 30
0.0
 10
-87.2217362741
 20
-22.0052984229
 30
0.0
 10
-87.2090329154
 20
-22.0059641777
 30
0.0
 11
-87.1915911405
 21
-21.5066494103
 31
0.0
 11
-87.2009331466
 21
-21.6976236359
 31
0.0
 11
-87.2075275881
 21
-21.8595571341
 31
0.0
 11
-87.2103716736
 21
-21.967825291
 31
0.0
 11
-87.2090329154
 21
-22.0059641777
 31
0.0
  0
SPLINE
  5
602
100
AcDbEntity
  8
PORTATASTO
100
AcDbSpline
 62
253
  6
CONTINUOUS
 70
0
 71
3
 72
18
 73
14
 74
12
 42
0.0000001
 43
0.0000001
 44
0.0000000001
 12
-0.2500020435
 22
0.0013090196
 32
0.0
 13
0.0013089837
 23
0.2500020437
 33
0.0
 40
0.0
 40
0.0
 40
0.0
 40
0.0
 40
0.0102052187
 40
0.0405407572
 40
0.0904038554
 40
0.1587816814
 40
0.2442830896
 40
0.3451679646
 40
0.459382884
 40
0.5846030002
 40
0.7182794006
 40
0.8576910118
 40
1.0
 40
1.0
 40
1.0
 40
1.0
 10
-81.8038610238
 20
-24.4829760304
 30
0.0
 10
-81.8047114657
 20
-24.4829715774
 30
0.0
 10
-81.8030553795
 20
-24.4775582909
 30
0.0
 10
-81.8048620709
 20
-24.4719729019
 30
0.0
 10
-81.8040109498
 20
-24.4585006542
 30
0.0
 10
-81.8044859092
 20
-24.4419910153
 30
0.0
 10
-81.8043663189
 20
-24.4205842008
 30
0.0
 10
-81.8044163819
 20
-24.3955941238
 30
0.0
 10
-81.8043602972
 20
-24.367213929
 30
0.0
 10
-81.8042904944
 20
-24.3361267612
 30
0.0
 10
-81.8041792233
 20
-24.3029320739
 30
0.0
 10
-81.8040374413
 20
-24.2683157115
 30
0.0
 10
-81.8039231172
 20
-24.2448386366
 30
0.0
 10
-81.8038610238
 20
-24.2329794573
 30
0.0
 11
-81.8038610238
 21
-24.4829760304
 31
0.0
 11
-81.8040339812
 21
-24.480430539
 31
0.0
 11
-81.8041767714
 21
-24.4728478328
 31
0.0
 11
-81.8042864877
 21
-24.4603822683
 31
0.0
 11
-81.8043608968
 21
-24.4432875996
 31
0.0
 11
-81.8043984839
 21
-24.4219118129
 31
0.0
 11
-81.8043984839
 21
-24.3966900423
 31
0.0
 11
-81.8043608968
 21
-24.3681357123
 31
0.0
 11
-81.8042864877
 21
-24.3368300867
 31
0.0
 11
-81.8041767714
 21
-24.3034104354
 31
0.0
 11
-81.8040339812
 21
-24.2685570624
 31
0.0
 11
-81.8038610238
 21
-24.2329794573
 31
0.0
  0
SPLINE
  5
603
100
AcDbEntity
  8
PORTATASTO
100
AcDbSpline
 62
253
  6
CONTINUOUS
 70
0
 71
3
 72
18
 73
14
 74
12
 42
0.0000001
 43
0.0000001
 44
0.0000000001
 12
-0.0013089837
 22
0.2500020476
 32
0.0
 13
0.2500020474
 23
0.0013090196
 33
0.0
 40
0.0
 40
0.0
 40
0.0
 40
0.0
 40
0.142328713
 40
0.2817593786
 40
0.4154522312
 40
0.5406850046
 40
0.6549076346
 40
0.755794562
 40
0.8412916087
 40
0.9096600112
 40
0.9595054517
 40
0.9898195612
 40
1.0
 40
1.0
 40
1.0
 40
1.0
 10
-81.8038610238
 20
24.2329794573
 30
0.0
 10
-81.8039231258
 20
24.2448402805
 30
0.0
 10
-81.8040374645
 20
24.2683205875
 30
0.0
 10
-81.8041792596
 20
24.3029415528
 30
0.0
 10
-81.8042905352
 20
24.3361402557
 30
0.0
 10
-81.8043603281
 20
24.3672304878
 30
0.0
 10
-81.8044164042
 20
24.3956125656
 30
0.0
 10
-81.8043662909
 20
24.4206030535
 30
0.0
 10
-81.8044858994
 20
24.4420089884
 30
0.0
 10
-81.8040108212
 20
24.4585158162
 30
0.0
 10
-81.804861827
 20
24.4719841597
 30
0.0
 10
-81.8030561588
 20
24.4775650079
 30
0.0
 10
-81.8047094007
 20
24.4829715882
 30
0.0
 10
-81.8038610238
 20
24.4829760304
 30
0.0
 11
-81.8038610238
 21
24.2329794573
 31
0.0
 11
-81.8040340033
 21
24.2685619943
 31
0.0
 11
-81.8041768072
 21
24.3034201314
 31
0.0
 11
-81.804286527
 21
24.3368438964
 31
0.0
 11
-81.8043609285
 21
24.3681526869
 31
0.0
 11
-81.8043984971
 21
24.396708945
 31
0.0
 11
-81.8043984682
 21
24.4219312292
 31
0.0
 11
-81.8043608434
 21
24.4433059258
 31
0.0
 11
-81.8042863882
 21
24.4603982385
 31
0.0
 11
-81.8041766258
 21
24.4728593881
 31
0.0
 11
-81.8040337879
 21
24.4804367353
 31
0.0
 11
-81.8038610238
 21
24.4829760304
 31
0.0
  0
SPLINE
  5
604
100
AcDbEntity
  8
PORTATASTO
100
AcDbSpline
 62
253
  6
CONTINUOUS
 70
0
 71
3
 72
18
 73
14
 74
12
 42
0.0000001
 43
0.0000001
 44
0.0000000001
 12
-0.2159475515
 22
0.124677377
 32
0.0
 13
0.1246748134
 23
0.2159490316
 33
0.0
 40
0.0
 40
0.0
 40
0.0
 40
0.0
 40
0.0101929118
 40
0.040510362
 40
0.0903488744
 40
0.1586985277
 40
0.2441728972
 40
0.345037767
 40
0.4592457078
 40
0.5844798716
 40
0.7181908024
 40
0.8576727369
 40
1.0
 40
1.0
 40
1.0
 40
1.0
 10
-81.9275520329
 20
23.7278312164
 30
0.0
 10
-81.9282857443
 20
23.7282548249
 30
0.0
 10
-81.9241279743
 20
23.7320984219
 30
0.0
 10
-81.9229507598
 20
23.7378328537
 30
0.0
 10
-81.9155212372
 20
23.7490594865
 30
0.0
 10
-81.9077676764
 20
23.7635856383
 30
0.0
 10
-81.8970689278
 20
23.7820564683
 30
0.0
 10
-81.884751604
 20
23.8037200905
 30
0.0
 10
-81.8706661412
 20
23.8282719272
 30
0.0
 10
-81.8552318346
 20
23.8551678046
 30
0.0
 10
-81.8387195427
 20
23.883876166
 30
0.0
 10
-81.8214810576
 20
23.9138031454
 30
0.0
 10
-81.8097758988
 20
23.9340924224
 30
0.0
 10
-81.8038610238
 20
23.9443375673
 30
0.0
 11
-81.9275520329
 21
23.7278312164
 31
0.0
 11
-81.9264232577
 21
23.7301084639
 31
0.0
 11
-81.9227808463
 21
23.7367329201
 31
0.0
 11
-81.9166986345
 21
23.7475702957
 31
0.0
 11
-81.9083000727
 21
23.7624006231
 31
0.0
 11
-81.897755592
 21
23.780922952
 31
0.0
 11
-81.8852791684
 21
23.8027614143
 31
0.0
 11
-81.8711240793
 21
23.8274726794
 31
0.0
 11
-81.8555774929
 21
23.8545554235
 31
0.0
 11
-81.8389559123
 21
23.8834582912
 31
0.0
 11
-81.8215957013
 21
23.9135963917
 31
0.0
 11
-81.8038610238
 21
23.9443375673
 31
0.0
  0
SPLINE
  5
605
100
AcDbEntity
  8
PORTATASTO
100
AcDbSpline
 62
253
  6
CONTINUOUS
 70
0
 71
3
 72
18
 73
14
 74
12
 42
0.0000001
 43
0.0000001
 44
0.0000000001
 12
-0.1246748135
 22
0.2159490317
 32
0.0
 13
0.2159475516
 23
0.1246773771
 33
0.0
 40
0.0
 40
0.0
 40
0.0
 40
0.0
 40
0.1424198037
 40
0.2818967973
 40
0.4156011363
 40
0.540820109
 40
0.6550131831
 40
0.7558635646
 40
0.8413252303
 40
0.9096645018
 40
0.9594954013
 40
0.9898085439
 40
1.0
 40
1.0
 40
1.0
 40
1.0
 10
-81.8038610238
 20
-23.9443375673
 30
0.0
 10
-81.8097797447
 20
-23.9340857611
 30
0.0
 10
-81.8214885378
 20
-23.9137901747
 30
0.0
 10
-81.8387303707
 20
-23.8838573534
 30
0.0
 10
-81.855241542
 20
-23.8551509099
 30
0.0
 10
-81.8706743197
 20
-23.8282576665
 30
0.0
 10
-81.8847579261
 20
-23.8037090364
 30
0.0
 10
-81.8970735149
 20
-23.7820484392
 30
0.0
 10
-81.9077706717
 20
-23.7635803272
 30
0.0
 10
-81.9155230592
 20
-23.7490563599
 30
0.0
 10
-81.9229514418
 20
-23.7378314049
 30
0.0
 10
-81.9241284851
 20
-23.7320978265
 30
0.0
 10
-81.9282856396
 20
-23.7282547644
 30
0.0
 10
-81.9275520329
 20
-23.7278312164
 30
0.0
 11
-81.8038610238
 21
-23.9443375673
 31
0.0
 11
-81.8216072257
 21
-23.9135764002
 31
0.0
 11
-81.8389668086
 21
-23.8834393596
 31
0.0
 11
-81.8555875564
 21
-23.854537909
 31
0.0
 11
-81.8711322436
 21
-23.8274584424
 31
0.0
 11
-81.8852854774
 21
-23.8027503867
 31
0.0
 11
-81.8977600967
 21
-23.7809150543
 31
0.0
 11
-81.9083029985
 21
-23.7623954716
 31
0.0
 11
-81.9167002734
 21
-23.7475673906
 31
0.0
 11
-81.9227815456
 21
-23.7367316644
 31
0.0
 11
-81.9264234293
 21
-23.7301081438
 31
0.0
 11
-81.9275520329
 21
-23.7278312164
 31
0.0
  0
SPLINE
  5
606
100
AcDbEntity
  8
PORTATASTO
100
AcDbSpline
 62
253
  6
CONTINUOUS
 70
0
 71
3
 72
18
 73
14
 74
12
 42
0.0000001
 43
0.0000001
 44
0.0000000001
 12
-0.2159476287
 22
-0.1246772436
 32
0.0
 13
0.1246748135
 23
-0.2159490317
 33
0.0
 40
0.0
 40
0.0
 40
0.0
 40
0.0
 40
0.0101914202
 40
0.0405044625
 40
0.0903352187
 40
0.1586743352
 40
0.2441358709
 40
0.3449861831
 40
0.4591792777
 40
0.5843983549
 40
0.7181028449
 40
0.8575800117
 40
1.0
 40
1.0
 40
1.0
 40
1.0
 10
-81.1775520329
 20
-23.2948185145
 30
0.0
 10
-81.1782856372
 20
-23.2952420605
 30
0.0
 10
-81.1741284968
 20
-23.2990851111
 30
0.0
 10
-81.1729514574
 20
-23.3048186707
 30
0.0
 10
-81.1655230948
 20
-23.3160435964
 30
0.0
 10
-81.1577707241
 20
-23.3305675329
 30
0.0
 10
-81.1470735822
 20
-23.3490356194
 30
0.0
 10
-81.1347580009
 20
-23.3706962038
 30
0.0
 10
-81.1206743923
 20
-23.3952448381
 30
0.0
 10
-81.1052416033
 20
-23.4221381014
 30
0.0
 10
-81.0887304143
 20
-23.4508445758
 30
0.0
 10
-81.0714885603
 20
-23.4807774338
 30
0.0
 10
-81.0597797523
 20
-23.5010730459
 30
0.0
 10
-81.0538610239
 20
-23.5113248654
 30
0.0
 11
-81.1775520329
 21
-23.2948185145
 31
0.0
 11
-81.1764234335
 21
-23.2970954341
 31
0.0
 11
-81.1727815621
 21
-23.3037189329
 31
0.0
 11
-81.1667003077
 21
-23.314554628
 31
0.0
 11
-81.158303052
 21
-23.3293826755
 31
0.0
 11
-81.1477601664
 21
-23.3479022301
 31
0.0
 11
-81.1352855559
 21
-23.3697375476
 31
0.0
 11
-81.1211323197
 21
-23.3944456078
 31
0.0
 11
-81.1055876196
 21
-23.4215250971
 31
0.0
 11
-81.0889668531
 21
-23.4504265804
 31
0.0
 11
-81.0716072487
 21
-23.4805636584
 31
0.0
 11
-81.0538610239
 21
-23.5113248654
 31
0.0
  0
SPLINE
  5
607
100
AcDbEntity
  8
PORTATASTO
100
AcDbSpline
 62
253
  6
CONTINUOUS
 70
0
 71
3
 72
18
 73
14
 74
12
 42
0.0000001
 43
0.0000001
 44
0.0000000001
 12
-0.1246748135
 22
-0.2159490317
 32
0.0
 13
0.2159476274
 23
-0.1246772439
 33
0.0
 40
0.0
 40
0.0
 40
0.0
 40
0.0
 40
0.1424199883
 40
0.2818971551
 40
0.415601645
 40
0.5408207221
 40
0.6550138165
 40
0.7558641287
 40
0.8413256644
 40
0.909664781
 40
0.9594955374
 40
0.9898085797
 40
1.0
 40
1.0
 40
1.0
 40
1.0
 10
-81.0538610239
 20
23.5113248654
 30
0.0
 10
-81.0597797523
 20
23.5010730459
 30
0.0
 10
-81.0714885603
 20
23.4807774338
 30
0.0
 10
-81.0887304143
 20
23.4508445758
 30
0.0
 10
-81.1052416033
 20
23.4221381014
 30
0.0
 10
-81.1206743923
 20
23.3952448381
 30
0.0
 10
-81.1347580009
 20
23.3706962039
 30
0.0
 10
-81.1470735821
 20
23.3490356195
 30
0.0
 10
-81.157770724
 20
23.330567533
 30
0.0
 10
-81.1655230948
 20
23.3160435964
 30
0.0
 10
-81.1729514574
 20
23.3048186707
 30
0.0
 10
-81.1741284968
 20
23.2990851111
 30
0.0
 10
-81.1782856372
 20
23.2952420605
 30
0.0
 10
-81.1775520329
 20
23.2948185145
 30
0.0
 11
-81.0538610239
 21
23.5113248654
 31
0.0
 11
-81.0716072487
 21
23.4805636584
 31
0.0
 11
-81.0889668531
 21
23.4504265804
 31
0.0
 11
-81.1055876196
 21
23.4215250971
 31
0.0
 11
-81.1211323197
 21
23.3944456079
 31
0.0
 11
-81.1352855558
 21
23.3697375477
 31
0.0
 11
-81.1477601663
 21
23.3479022302
 31
0.0
 11
-81.158303052
 21
23.3293826756
 31
0.0
 11
-81.1667003077
 21
23.314554628
 31
0.0
 11
-81.1727815621
 21
23.3037189329
 31
0.0
 11
-81.1764234335
 21
23.2970954341
 31
0.0
 11
-81.1775520329
 21
23.2948185145
 31
0.0
  0
SPLINE
  5
608
100
AcDbEntity
  8
PORTATASTO
100
AcDbSpline
 62
7
  6
CONTINUOUS
 70
0
 71
3
 72
20
 73
16
 74
14
 42
0.0000001
 43
0.0000001
 44
0.0000000001
 12
0.0
 22
-0.5000660232
 32
0.0
 13
0.1185618325
 23
-0.4885802824
 33
0.0
 40
0.0
 40
0.0
 40
0.0
 40
0.0
 40
0.120013053
 40
0.2386452224
 40
0.3539005988
 40
0.4642715845
 40
0.567645501
 40
0.6629086717
 40
0.7482722116
 40
0.822887334
 40
0.8853376493
 40
0.9349651843
 40
0.9708548472
 40
0.9925932729
 40
1.0
 40
1.0
 40
1.0
 40
1.0
 10
-79.5525520329
 20
-21.850016923
 30
0.0
 10
-79.5525520329
 20
-21.8700217397
 30
0.0
 10
-79.5516675875
 20
-21.9097964444
 30
0.0
 10
-79.5519231966
 20
-21.9687897223
 30
0.0
 10
-79.5521708587
 20
-22.0261725668
 30
0.0
 10
-79.5526013419
 20
-22.0810117535
 30
0.0
 10
-79.5530369609
 20
-22.1325179365
 30
0.0
 10
-79.5534417363
 20
-22.1798561224
 30
0.0
 10
-79.5537613611
 20
-22.2224001781
 30
0.0
 10
-79.5539897642
 20
-22.2594779287
 30
0.0
 10
-79.5540336031
 20
-22.2905919324
 30
0.0
 10
-79.5540708268
 20
-22.3152712251
 30
0.0
 10
-79.5536176412
 20
-22.3331148393
 30
0.0
 10
-79.5536904828
 20
-22.3440113076
 30
0.0
 10
-79.5528447513
 20
-22.3487937397
 30
0.0
 10
-79.5525520329
 20
-22.35
 30
0.0
 11
-79.5525520329
 21
-21.850016923
 31
0.0
 11
-79.5519297386
 21
-21.9100281468
 31
0.0
 11
-79.5519254637
 21
-21.9693520638
 31
0.0
 11
-79.5522090531
 21
-22.0269866638
 31
0.0
 11
-79.5526162691
 21
-22.0821779415
 31
0.0
 11
-79.5530492303
 21
-22.1338699116
 31
0.0
 11
-79.553447153
 21
-22.1815061246
 31
0.0
 11
-79.5537645546
 21
-22.2241923505
 31
0.0
 11
-79.5539700841
 21
-22.2615042719
 31
0.0
 11
-79.5540371969
 21
-22.2927334807
 31
0.0
 11
-79.5539453496
 21
-22.3175503547
 31
0.0
 11
-79.5536773236
 21
-22.3354955542
 31
0.0
 11
-79.5532178784
 21
-22.3463564888
 31
0.0
 11
-79.5525520329
 21
-22.35
 31
0.0
  0
SPLINE
  5
609
100
AcDbEntity
  8
PORTATASTO
100
AcDbSpline
 62
7
  6
CONTINUOUS
 70
0
 71
3
 72
20
 73
16
 74
14
 42
0.0000001
 43
0.0000001
 44
0.0000000001
 12
0.0
 22
0.5003117728
 32
0.0
 13
0.1185846698
 23
0.4888280836
 33
0.0
 40
0.0
 40
0.0
 40
0.0
 40
0.0
 40
0.1204141932
 40
0.238987392
 40
0.3542153939
 40
0.4645180709
 40
0.5678334664
 40
0.6630545512
 40
0.7483766938
 40
0.8229547175
 40
0.8853861454
 40
0.9349997949
 40
0.970859407
 40
0.9925918845
 40
1.0
 40
1.0
 40
1.0
 40
1.0
 10
-79.5525520329
 20
21.8497711479
 30
0.0
 10
-79.5525520329
 20
21.8698526941
 30
0.0
 10
-79.5516689477
 20
21.9097040362
 30
0.0
 10
-79.5519227338
 20
21.9687787876
 30
0.0
 10
-79.5521709086
 20
22.0261640457
 30
0.0
 10
-79.5526012565
 20
22.081004465
 30
0.0
 10
-79.5530368792
 20
22.1325077912
 30
0.0
 10
-79.5534416479
 20
22.1798455591
 30
0.0
 10
-79.5537612958
 20
22.2223904143
 30
0.0
 10
-79.5539897246
 20
22.2594701428
 30
0.0
 10
-79.5540336182
 20
22.2905877917
 30
0.0
 10
-79.5540708086
 20
22.3152687152
 30
0.0
 10
-79.553617817
 20
22.3331128382
 30
0.0
 10
-79.5536905293
 20
22.3440088061
 30
0.0
 10
-79.5528448625
 20
22.3487929017
 30
0.0
 10
-79.5525520329
 20
22.35
 30
0.0
 11
-79.5525520329
 21
21.8497711479
 31
0.0
 11
-79.5519297999
 21
21.9100125729
 31
0.0
 11
-79.551925416
 21
21.9693361401
 31
0.0
 11
-79.5522090447
 21
22.0269853683
 31
0.0
 11
-79.5526162017
 21
22.0821695942
 31
0.0
 11
-79.5530491262
 21
22.1338576898
 31
0.0
 11
-79.5534470737
 21
22.1814962575
 31
0.0
 11
-79.5537644908
 21
22.2241827498
 31
0.0
 11
-79.5539700441
 21
22.2614944468
 31
0.0
 11
-79.5540371982
 21
22.292729553
 31
0.0
 11
-79.5539453387
 21
22.317551676
 31
0.0
 11
-79.553677446
 21
22.3354906619
 31
0.0
 11
-79.5532180727
 21
22.3463539679
 31
0.0
 11
-79.5525520329
 21
22.35
 31
0.0
  0
SPLINE
  5
60A
100
AcDbEntity
  8
PORTATASTO
100
AcDbSpline
 62
7
  6
CONTINUOUS
 70
0
 71
3
 72
10
 73
6
 74
4
 42
0.0000001
 43
0.0000001
 44
0.0000000001
 12
-7.1137194909
 22
0.0400111989
 32
0.0
 13
-7.1136506578
 23
0.0507957657
 33
0.0
 40
0.0
 40
0.0
 40
0.0
 40
0.0
 40
0.3396594066
 40
0.6730056873
 40
1.0
 40
1.0
 40
1.0
 40
1.0
 10
-72.0525520329
 20
-23.4906890903
 30
0.0
 10
-72.8579659467
 20
-23.4861590303
 30
0.0
 10
-74.4538219918
 20
-23.4768497923
 30
0.0
 10
-76.8250523115
 20
-23.4619035403
 30
0.0
 10
-78.3908665403
 20
-23.4512037372
 30
0.0
 10
-79.1662409762
 20
-23.4456670951
 30
0.0
 11
-72.0525520329
 21
-23.4906890903
 31
0.0
 11
-74.4687907503
 21
-23.4765715157
 31
0.0
 11
-76.8401129125
 21
-23.4615970436
 31
0.0
 11
-79.1662409762
 21
-23.4456670951
 31
0.0
  0
SPLINE
  5
60B
100
AcDbEntity
  8
PORTATASTO
100
AcDbSpline
 62
7
  6
CONTINUOUS
 70
0
 71
3
 72
10
 73
6
 74
4
 42
0.0000001
 43
0.0000001
 44
0.0000000001
 12
7.1136506578
 22
0.0507957657
 32
0.0
 13
7.1137194909
 23
0.0400111989
 33
0.0
 40
0.0
 40
0.0
 40
0.0
 40
0.0
 40
0.3269942247
 40
0.6603405691
 40
1.0
 40
1.0
 40
1.0
 40
1.0
 10
-79.1662409762
 20
23.4456670951
 30
0.0
 10
-78.3908667491
 20
23.4512037357
 30
0.0
 10
-76.8250525777
 20
23.4619035386
 30
0.0
 10
-74.453822258
 20
23.4768497907
 30
0.0
 10
-72.8579660041
 20
23.4861590299
 30
0.0
 10
-72.0525520329
 20
23.4906890903
 30
0.0
 11
-79.1662409762
 21
23.4456670951
 31
0.0
 11
-76.8401135387
 21
23.4615970395
 31
0.0
 11
-74.4687909227
 21
23.4765715147
 31
0.0
 11
-72.0525520329
 21
23.4906890903
 31
0.0
  0
SPLINE
  5
60C
100
AcDbEntity
  8
CORPO
100
AcDbSpline
 62
253
  6
CONTINUOUS
 70
0
 71
3
 72
13
 73
9
 74
7
 42
0.0000001
 43
0.0000001
 44
0.0000000001
 12
0.0
 22
-1.3294461743
 32
0.0
 13
-1.3293449222
 23
-0.0164075657
 33
0.0
 40
0.0
 40
0.0
 40
0.0
 40
0.0
 40
0.1384690448
 40
0.2853155788
 40
0.4456941123
 40
0.620472345
 40
0.8069775867
 40
1.0
 40
1.0
 40
1.0
 40
1.0
 10
-46.0525520329
 20
-18.1674681916
 30
0.0
 10
-46.0525520329
 20
-18.2288305723
 30
0.0
 10
-46.0767734753
 20
-18.3562857752
 30
0.0
 10
-46.17975337
 20
-18.5286505075
 30
0.0
 10
-46.3394228273
 20
-18.6743362939
 30
0.0
 10
-46.5443169956
 20
-18.7854701746
 30
0.0
 10
-46.781151158
 20
-18.8561143753
 30
0.0
 10
-46.9495685048
 20
-18.8734116003
 30
0.0
 10
-47.0350996264
 20
-18.8744672762
 30
0.0
 11
-46.0525520329
 21
-18.1674681916
 31
0.0
 11
-46.0858845793
 21
-18.3485124324
 31
0.0
 11
-46.1836601943
 21
-18.5174874575
 31
0.0
 11
-46.3393732539
 21
-18.6631374509
 31
0.0
 11
-46.5426272318
 21
-18.7757348672
 31
0.0
 11
-46.779878179
 21
-18.8477802412
 31
0.0
 11
-47.0350996264
 21
-18.8744672762
 31
0.0
  0
SPLINE
  5
60D
100
AcDbEntity
  8
CORPO
100
AcDbSpline
 62
253
  6
CONTINUOUS
 70
0
 71
3
 72
13
 73
9
 74
7
 42
0.0000001
 43
0.0000001
 44
0.0000000001
 12
-0.1565050194
 22
-1.2650190291
 32
0.0
 13
-1.2684118645
 23
-0.0156554937
 33
0.0
 40
0.0
 40
0.0
 40
0.0
 40
0.0
 40
0.097065939
 40
0.2509481908
 40
0.4189966524
 40
0.6021400651
 40
0.7975720145
 40
1.0
 40
1.0
 40
1.0
 40
1.0
 10
-46.0563462696
 20
-18.2189894885
 30
0.0
 10
-46.0614100385
 20
-18.2599195751
 30
0.0
 10
-46.087357737
 20
-18.3645764886
 30
0.0
 10
-46.1797226816
 20
-18.5191937484
 30
0.0
 10
-46.3393525993
 20
-18.6648685092
 30
0.0
 10
-46.5441981979
 20
-18.7760038712
 30
0.0
 10
-46.7810517386
 20
-18.846684303
 30
0.0
 10
-46.9495122736
 20
-18.8639958654
 30
0.0
 10
-47.0350996265
 20
-18.8650522354
 30
0.0
 11
-46.0563462696
 21
-18.2189894885
 31
0.0
 11
-46.0858774202
 21
-18.339078277
 31
0.0
 11
-46.1836324193
 21
-18.508037939
 31
0.0
 11
-46.3393015837
 21
-18.6536708438
 31
0.0
 11
-46.5425094431
 21
-18.7662704453
 31
0.0
 11
-46.7797120362
 21
-18.8383318929
 31
0.0
 11
-47.0350996265
 21
-18.8650522354
 31
0.0
  0
SPLINE
  5
60E
100
AcDbEntity
  8
CORPO
100
AcDbSpline
 62
253
  6
CONTINUOUS
 70
0
 71
3
 72
11
 73
7
 74
5
 42
0.0000001
 43
0.0000001
 44
0.0000000001
 12
0.0029940421
 22
-0.2928698207
 32
0.0
 13
-0.2928405174
 23
-0.005111511
 33
0.0
 40
0.0
 40
0.0
 40
0.0
 40
0.0
 40
0.4245043662
 40
0.7399520789
 40
0.9342395734
 40
1.0
 40
1.0
 40
1.0
 40
1.0
 10
-47.0350996265
 20
-18.874467277
 30
0.0
 10
-47.0346759651
 20
-18.9159087829
 30
0.0
 10
-47.036323814
 20
-18.9855611698
 30
0.0
 10
-47.0286541223
 20
-19.0848834379
 30
0.0
 10
-47.0416257784
 20
-19.12666385
 30
0.0
 10
-47.0286805207
 20
-19.1672038418
 30
0.0
 10
-47.0350996265
 20
-19.1673158868
 30
0.0
 11
-47.0350996265
 21
-18.874467277
 31
0.0
 11
-47.0340250249
 21
-18.9987936472
 31
0.0
 11
-47.0336621779
 21
-19.0911828773
 31
0.0
 11
-47.0340250249
 21
-19.1480856375
 31
0.0
 11
-47.0350996265
 21
-19.1673158868
 31
0.0
  0
SPLINE
  5
60F
100
AcDbEntity
  8
ASSI
100
AcDbSpline
 62
253
  6
CONTINUOUS
 70
0
 71
3
 72
11
 73
7
 74
5
 42
0.0000001
 43
0.0000001
 44
0.0000000001
 12
0.0029940421
 22
-0.2928698207
 32
0.0
 13
-0.2928405174
 23
-0.005111511
 33
0.0
 40
0.0
 40
0.0
 40
0.0
 40
0.0
 40
0.4245043662
 40
0.7399520789
 40
0.9342395734
 40
1.0
 40
1.0
 40
1.0
 40
1.0
 10
-47.0350996265
 20
-18.874467277
 30
0.0
 10
-47.0346759651
 20
-18.9159087829
 30
0.0
 10
-47.036323814
 20
-18.9855611698
 30
0.0
 10
-47.0286541223
 20
-19.0848834379
 30
0.0
 10
-47.0416257784
 20
-19.12666385
 30
0.0
 10
-47.0286805207
 20
-19.1672038418
 30
0.0
 10
-47.0350996265
 20
-19.1673158868
 30
0.0
 11
-47.0350996265
 21
-18.874467277
 31
0.0
 11
-47.0340250249
 21
-18.9987936472
 31
0.0
 11
-47.0336621779
 21
-19.0911828773
 31
0.0
 11
-47.0340250249
 21
-19.1480856375
 31
0.0
 11
-47.0350996265
 21
-19.1673158868
 31
0.0
  0
SPLINE
  5
610
100
AcDbEntity
  8
ASSI
100
AcDbSpline
 62
253
  6
CONTINUOUS
 70
0
 71
3
 72
13
 73
9
 74
7
 42
0.0000001
 43
0.0000001
 44
0.0000000001
 12
0.0
 22
-1.3294461743
 32
0.0
 13
-1.3293449222
 23
-0.0164075657
 33
0.0
 40
0.0
 40
0.0
 40
0.0
 40
0.0
 40
0.1384690448
 40
0.2853155788
 40
0.4456941123
 40
0.620472345
 40
0.8069775867
 40
1.0
 40
1.0
 40
1.0
 40
1.0
 10
-46.0525520329
 20
-18.1674681916
 30
0.0
 10
-46.0525520329
 20
-18.2288305723
 30
0.0
 10
-46.0767734753
 20
-18.3562857752
 30
0.0
 10
-46.17975337
 20
-18.5286505075
 30
0.0
 10
-46.3394228273
 20
-18.6743362939
 30
0.0
 10
-46.5443169956
 20
-18.7854701746
 30
0.0
 10
-46.781151158
 20
-18.8561143753
 30
0.0
 10
-46.9495685048
 20
-18.8734116003
 30
0.0
 10
-47.0350996264
 20
-18.8744672762
 30
0.0
 11
-46.0525520329
 21
-18.1674681916
 31
0.0
 11
-46.0858845793
 21
-18.3485124324
 31
0.0
 11
-46.1836601943
 21
-18.5174874575
 31
0.0
 11
-46.3393732539
 21
-18.6631374509
 31
0.0
 11
-46.5426272318
 21
-18.7757348672
 31
0.0
 11
-46.779878179
 21
-18.8477802412
 31
0.0
 11
-47.0350996264
 21
-18.8744672762
 31
0.0
  0
SPLINE
  5
611
100
AcDbEntity
  8
ASSI
100
AcDbSpline
 62
253
  6
CONTINUOUS
 70
0
 71
3
 72
13
 73
9
 74
7
 42
0.0000001
 43
0.0000001
 44
0.0000000001
 12
-0.1565050194
 22
-1.2650190291
 32
0.0
 13
-1.2684118645
 23
-0.0156554937
 33
0.0
 40
0.0
 40
0.0
 40
0.0
 40
0.0
 40
0.097065939
 40
0.2509481908
 40
0.4189966524
 40
0.6021400651
 40
0.7975720145
 40
1.0
 40
1.0
 40
1.0
 40
1.0
 10
-46.0563462696
 20
-18.2189894885
 30
0.0
 10
-46.0614100385
 20
-18.2599195751
 30
0.0
 10
-46.087357737
 20
-18.3645764886
 30
0.0
 10
-46.1797226816
 20
-18.5191937484
 30
0.0
 10
-46.3393525993
 20
-18.6648685092
 30
0.0
 10
-46.5441981979
 20
-18.7760038712
 30
0.0
 10
-46.7810517386
 20
-18.846684303
 30
0.0
 10
-46.9495122736
 20
-18.8639958654
 30
0.0
 10
-47.0350996265
 20
-18.8650522354
 30
0.0
 11
-46.0563462696
 21
-18.2189894885
 31
0.0
 11
-46.0858774202
 21
-18.339078277
 31
0.0
 11
-46.1836324193
 21
-18.508037939
 31
0.0
 11
-46.3393015837
 21
-18.6536708438
 31
0.0
 11
-46.5425094431
 21
-18.7662704453
 31
0.0
 11
-46.7797120362
 21
-18.8383318929
 31
0.0
 11
-47.0350996265
 21
-18.8650522354
 31
0.0
  0
SPLINE
  5
612
100
AcDbEntity
  8
CURVE
100
AcDbSpline
 62
253
  6
CONTINUOUS
 70
0
 71
3
 72
13
 73
9
 74
7
 42
0.0000001
 43
0.0000001
 44
0.0000000001
 12
0.6830460881
 22
0.0
 32
0.0
 13
0.0852923267
 23
-0.6778031497
 33
0.0
 40
0.0
 40
0.0
 40
0.0
 40
0.0
 40
0.2490801906
 40
0.3745290044
 40
0.5000465587
 40
0.6245839973
 40
0.7501008193
 40
1.0
 40
1.0
 40
1.0
 40
1.0
 10
-74.0619968151
 20
4.1187598859
 30
0.0
 10
-74.0052857318
 20
4.1187598859
 30
0.0
 10
-73.918214459
 20
4.110949299
 30
0.0
 10
-73.8136981007
 20
4.0639042122
 30
0.0
 10
-73.743903843
 20
4.0123287258
 30
0.0
 10
-73.6966401072
 20
3.9389346122
 30
0.0
 10
-73.6642557243
 20
3.8288650197
 30
0.0
 10
-73.6595397823
 20
3.7430729482
 30
0.0
 10
-73.6524349548
 20
3.6866121309
 30
0.0
 11
-74.0619968151
 21
4.1187598859
 31
0.0
 11
-73.8933600027
 21
4.0962409458
 31
0.0
 11
-73.8151638237
 21
4.0611974199
 31
0.0
 11
-73.7475034418
 21
4.0085354483
 31
0.0
 11
-73.7005512101
 21
3.9375915065
 31
0.0
 11
-73.6745036997
 21
3.8558979327
 31
0.0
 11
-73.6524349548
 21
3.6866121309
 31
0.0
  0
SPLINE
  5
613
100
AcDbEntity
  8
CURVE
100
AcDbSpline
 62
253
  6
CONTINUOUS
 70
0
 71
3
 72
13
 73
9
 74
7
 42
0.0000001
 43
0.0000001
 44
0.0000000001
 12
0.0852923267
 22
0.6778031497
 32
0.0
 13
0.6830460881
 23
0.0
 33
0.0
 40
0.0
 40
0.0
 40
0.0
 40
0.0
 40
0.2498991807
 40
0.3754160027
 40
0.4999534413
 40
0.6254709956
 40
0.7509198094
 40
1.0
 40
1.0
 40
1.0
 40
1.0
 10
-74.4715586754
 20
3.6866121309
 30
0.0
 10
-74.4644538478
 20
3.7430729482
 30
0.0
 10
-74.4597379058
 20
3.8288650197
 30
0.0
 10
-74.427353523
 20
3.9389346122
 30
0.0
 10
-74.3800897871
 20
4.0123287258
 30
0.0
 10
-74.3102955294
 20
4.0639042122
 30
0.0
 10
-74.2057791711
 20
4.110949299
 30
0.0
 10
-74.1187078983
 20
4.1187598859
 30
0.0
 10
-74.0619968151
 20
4.1187598859
 30
0.0
 11
-74.4715586754
 21
3.6866121309
 31
0.0
 11
-74.4494899304
 21
3.8558979327
 31
0.0
 11
-74.42344242
 21
3.9375915065
 31
0.0
 11
-74.3764901883
 21
4.0085354483
 31
0.0
 11
-74.3088298065
 21
4.0611974199
 31
0.0
 11
-74.2306336274
 21
4.0962409458
 31
0.0
 11
-74.0619968151
 21
4.1187598859
 31
0.0
  0
SPLINE
  5
614
100
AcDbEntity
  8
CURVE
100
AcDbSpline
 62
253
  6
CONTINUOUS
 70
0
 71
3
 72
15
 73
11
 74
9
 42
0.0000001
 43
0.0000001
 44
0.0000000001
 12
-1.7069126765
 22
0.0
 32
0.0
 13
-0.0632100266
 23
-1.7060017172
 33
0.0
 40
0.0
 40
0.0
 40
0.0
 40
0.0
 40
0.1248401019
 40
0.2498663855
 40
0.374885782
 40
0.5000299202
 40
0.6250550432
 40
0.7501198193
 40
0.875035251
 40
1.0
 40
1.0
 40
1.0
 40
1.0
 10
-74.0619968151
 20
4.7815268003
 30
0.0
 10
-74.1330271992
 20
4.7815268003
 30
0.0
 10
-74.2756260148
 20
4.7716793234
 30
0.0
 10
-74.4827437664
 20
4.7119708447
 30
0.0
 10
-74.6650394515
 20
4.5935070156
 30
0.0
 10
-74.7977353484
 20
4.4217447249
 30
0.0
 10
-74.8798711572
 20
4.22298974
 30
0.0
 10
-74.9277292363
 20
4.0142899176
 30
0.0
 10
-74.9476534951
 20
3.801448305
 30
0.0
 10
-74.9507118085
 20
3.6592834163
 30
0.0
 10
-74.9533448168
 20
3.5882200575
 30
0.0
 11
-74.0619968151
 21
4.7815268003
 31
0.0
 11
-74.2743834399
 21
4.7642105591
 31
0.0
 11
-74.4785836817
 21
4.7021878845
 31
0.0
 11
-74.6567193003
 21
4.584670781
 31
0.0
 11
-74.7893396165
 21
4.4171904032
 31
0.0
 11
-74.8741577054
 21
4.2213330331
 31
0.0
 11
-74.923088065
 21
4.0135100265
 31
0.0
 11
-74.9450968557
 21
3.8013969153
 31
0.0
 11
-74.9533448168
 21
3.5882200575
 31
0.0
  0
SPLINE
  5
615
100
AcDbEntity
  8
CURVE
100
AcDbSpline
 62
253
  6
CONTINUOUS
 70
0
 71
3
 72
15
 73
11
 74
9
 42
0.0000001
 43
0.0000001
 44
0.0000000001
 12
-0.0632100266
 22
1.7060017172
 32
0.0
 13
-1.7069126765
 23
-0.0
 33
0.0
 40
0.0
 40
0.0
 40
0.0
 40
0.0
 40
0.124964749
 40
0.2498801807
 40
0.3749449568
 40
0.4999700798
 40
0.625114218
 40
0.7501336145
 40
0.8751598981
 40
1.0
 40
1.0
 40
1.0
 40
1.0
 10
-73.1706488133
 20
3.5882200575
 30
0.0
 10
-73.1732818217
 20
3.6592834163
 30
0.0
 10
-73.176340135
 20
3.801448305
 30
0.0
 10
-73.1962643938
 20
4.0142899176
 30
0.0
 10
-73.2441224729
 20
4.22298974
 30
0.0
 10
-73.3262582817
 20
4.4217447249
 30
0.0
 10
-73.4589541786
 20
4.5935070156
 30
0.0
 10
-73.6412498638
 20
4.7119708447
 30
0.0
 10
-73.8483676153
 20
4.7716793234
 30
0.0
 10
-73.9909664309
 20
4.7815268003
 30
0.0
 10
-74.0619968151
 20
4.7815268003
 30
0.0
 11
-73.1706488133
 21
3.5882200575
 31
0.0
 11
-73.1788967744
 21
3.8013969153
 31
0.0
 11
-73.2009055651
 21
4.0135100265
 31
0.0
 11
-73.2498359247
 21
4.2213330331
 31
0.0
 11
-73.3346540136
 21
4.4171904032
 31
0.0
 11
-73.4672743298
 21
4.584670781
 31
0.0
 11
-73.6454099484
 21
4.7021878845
 31
0.0
 11
-73.8496101902
 21
4.7642105591
 31
0.0
 11
-74.0619968151
 21
4.7815268003
 31
0.0
  0
SPLINE
  5
616
100
AcDbEntity
  8
CURVE
100
AcDbSpline
 62
253
  6
CONTINUOUS
 70
0
 71
3
 72
11
 73
7
 74
5
 42
0.0000001
 43
0.0000001
 44
0.0000000001
 12
0.7373377137
 22
0.0113808125
 32
0.0
 13
0.0164643223
 23
-0.7373539953
 33
0.0
 40
0.0
 40
0.0
 40
0.0
 40
0.0
 40
0.2491315025
 40
0.4973515609
 40
0.7462289133
 40
1.0
 40
1.0
 40
1.0
 40
1.0
 10
-74.1218630714
 20
-5.4627200261
 30
0.0
 10
-74.0606317206
 20
-5.4617749198
 30
0.0
 10
-73.9361776487
 20
-5.4732383197
 30
0.0
 10
-73.7725422458
 20
-5.5749993121
 30
0.0
 10
-73.6872883233
 20
-5.746549742
 30
0.0
 10
-73.6727881651
 20
-5.8705216342
 30
0.0
 10
-73.6713954421
 20
-5.9328946758
 30
0.0
 11
-74.1218630714
 21
-5.4627200261
 31
0.0
 11
-73.9398120102
 21
-5.4874007505
 31
0.0
 11
-73.785792756
 21
-5.5863253894
 31
0.0
 11
-73.6982804253
 21
-5.7476704692
 31
0.0
 11
-73.6713954421
 21
-5.9328946758
 31
0.0
  0
SPLINE
  5
617
100
AcDbEntity
  8
CURVE
100
AcDbSpline
 62
253
  6
CONTINUOUS
 70
0
 71
3
 72
9
 73
5
 74
3
 42
0.0000001
 43
0.0000001
 44
0.0000000001
 12
0.0616043735
 22
0.5307774627
 32
0.0
 13
0.5341948855
 23
0.0083576149
 33
0.0
 40
0.0
 40
0.0
 40
0.0
 40
0.0
 40
0.5000882298
 40
1.0
 40
1.0
 40
1.0
 40
1.0
 10
-74.4842283361
 20
-5.804625691
 30
0.0
 10
-74.4739591287
 20
-5.7161471704
 30
0.0
 10
-74.3961075487
 20
-5.5367587789
 30
0.0
 10
-74.2108798417
 20
-5.4641127161
 30
0.0
 10
-74.1218630714
 20
-5.4627200261
 30
0.0
 11
-74.4842283361
 21
-5.804625691
 31
0.0
 11
-74.3692403047
 21
-5.5634221249
 31
0.0
 11
-74.1218630714
 21
-5.4627200261
 31
0.0
  0
SPLINE
  5
618
100
AcDbEntity
  8
CURVE
100
AcDbSpline
 62
253
  6
CONTINUOUS
 70
0
 71
3
 72
9
 73
5
 74
3
 42
0.0000001
 43
0.0000001
 44
0.0000000001
 12
-0.0800078963
 22
0.4690276623
 32
0.0
 13
0.054842989
 23
0.4726325126
 33
0.0
 40
0.0
 40
0.0
 40
0.0
 40
0.0
 40
0.4997637338
 40
1.0
 40
1.0
 40
1.0
 40
1.0
 10
-74.4671643449
 20
-6.2788012718
 30
0.0
 10
-74.4804926932
 20
-6.2006669333
 30
0.0
 10
-74.4998753031
 20
-6.0427263562
 30
0.0
 10
-74.4933731534
 20
-5.8834349988
 30
0.0
 10
-74.4842283361
 20
-5.804625691
 30
0.0
 11
-74.4671643449
 21
-6.2788012718
 31
0.0
 11
-74.4934010685
 21
-6.0424636122
 31
0.0
 11
-74.4842283361
 21
-5.804625691
 31
0.0
  0
SPLINE
  5
619
100
AcDbEntity
  8
CURVE
100
AcDbSpline
 62
253
  6
CONTINUOUS
 70
0
 71
3
 72
11
 73
7
 74
5
 42
0.0000001
 43
0.0000001
 44
0.0000000001
 12
-0.5116812263
 22
-1.4167437705
 32
0.0
 13
0.2191822581
 23
-1.4903036133
 33
0.0
 40
0.0
 40
0.0
 40
0.0
 40
0.0
 40
0.249614251
 40
0.499888924
 40
0.7499637517
 40
1.0
 40
1.0
 40
1.0
 40
1.0
 10
-74.8966117456
 20
-5.3678501192
 30
0.0
 10
-74.9391860543
 20
-5.485729931
 30
0.0
 10
-74.9866617477
 20
-5.735014474
 30
0.0
 10
-75.0010685088
 20
-6.1116431473
 30
0.0
 10
-74.9779128351
 20
-6.4882750285
 30
0.0
 10
-74.9453991281
 20
-6.7373573696
 30
0.0
 10
-74.9271312916
 20
-6.8615673444
 30
0.0
 11
-74.8966117456
 21
-5.3678501192
 31
0.0
 11
-74.977155813
 21
-5.7351233729
 31
0.0
 11
-74.9948044312
 21
-6.1117086883
 31
0.0
 11
-74.9736407109
 21
-6.487811254
 31
0.0
 11
-74.9271312916
 21
-6.8615673444
 31
0.0
  0
SPLINE
  5
61A
100
AcDbEntity
  8
CURVE
100
AcDbSpline
 62
253
  6
CONTINUOUS
 70
0
 71
3
 72
18
 73
14
 74
12
 42
0.0000001
 43
0.0000001
 44
0.0000000001
 12
-0.2311001381
 22
1.7915717583
 32
0.0
 13
-0.6128270121
 23
-1.6992591149
 33
0.0
 40
0.0
 40
0.0
 40
0.0
 40
0.0
 40
0.0626155709
 40
0.1255750725
 40
0.1873779143
 40
0.2500548274
 40
0.3131302752
 40
0.3757850613
 40
0.5005898481
 40
0.6254073429
 40
0.7503252015
 40
0.8752611255
 40
1.0
 40
1.0
 40
1.0
 40
1.0
 10
-73.4324778282
 20
-5.30544429
 30
0.0
 10
-73.4373013172
 20
-5.2680508605
 30
0.0
 10
-73.4902737449
 20
-5.205742357
 30
0.0
 10
-73.5622950463
 20
-5.1219941374
 30
0.0
 10
-73.6482443161
 20
-5.0470552444
 30
0.0
 10
-73.7446627937
 20
-4.9877497308
 30
0.0
 10
-73.8490419868
 20
-4.9423237958
 30
0.0
 10
-73.9947045571
 20
-4.9015430794
 30
0.0
 10
-74.1841009308
 20
-4.887359708
 30
0.0
 10
-74.4092712217
 20
-4.9207057947
 30
0.0
 10
-74.6178228077
 20
-5.0158512686
 30
0.0
 10
-74.7879111247
 20
-5.1675562972
 30
0.0
 10
-74.8711306283
 20
-5.2971955627
 30
0.0
 10
-74.8966117456
 20
-5.3678501192
 30
0.0
 11
-73.4324778282
 21
-5.30544429
 31
0.0
 11
-73.4889586206
 21
-5.2074502929
 31
0.0
 11
-73.5650964665
 21
-5.1229750287
 31
0.0
 11
-73.6495476023
 21
-5.0499699399
 31
0.0
 11
-73.7457052356
 21
-4.9902217399
 31
0.0
 11
-73.8501419781
 21
-4.9447010075
 31
0.0
 11
-73.9590956917
 21
-4.914117073
 31
0.0
 11
-74.1837619011
 21
-4.8957499389
 31
0.0
 11
-74.4064307028
 21
-4.9309846614
 31
0.0
 11
-74.6114072133
 21
-5.0252799698
 31
0.0
 11
-74.7804516078
 21
-5.1747784359
 31
0.0
 11
-74.8966117456
 21
-5.3678501192
 31
0.0
  0
SPLINE
  5
61B
100
AcDbEntity
  8
CURVE
100
AcDbSpline
 62
253
  6
CONTINUOUS
 70
0
 71
3
 72
11
 73
7
 74
5
 42
0.0000001
 43
0.0000001
 44
0.0000000001
 12
-0.6648989534
 22
-0.181193689
 32
0.0
 13
-0.2552161048
 23
-0.6402353954
 33
0.0
 40
0.0
 40
0.0
 40
0.0
 40
0.0
 40
0.2450440156
 40
0.5033055314
 40
0.7579591626
 40
1.0
 40
1.0
 40
1.0
 40
1.0
 10
-72.8468025236
 20
-4.9565587397
 30
0.0
 10
-72.9011123601
 20
-4.9713588828
 30
0.0
 10
-73.013073778
 20
-5.0005213919
 30
0.0
 10
-73.175481706
 20
-5.0651610171
 30
0.0
 10
-73.3231184897
 20
-5.159157879
 30
0.0
 10
-73.3947577177
 20
-5.2537899196
 30
0.0
 10
-73.4153486243
 20
-5.30544429
 30
0.0
 11
-72.8468025236
 21
-4.9565587397
 31
0.0
 11
-73.0091573476
 21
-5.0030172293
 31
0.0
 11
-73.1738213185
 21
-5.0705695192
 31
0.0
 11
-73.3188840337
 21
-5.169347468
 31
0.0
 11
-73.4153486243
 21
-5.30544429
 31
0.0
  0
SPLINE
  5
61C
100
AcDbEntity
  8
CURVE
100
AcDbSpline
 62
253
  6
CONTINUOUS
 70
0
 71
3
 72
8
 73
4
 74
2
 42
0.0000001
 43
0.0000001
 44
0.0000000001
 12
-0.7830184647
 22
-0.212730392
 32
0.0
 13
-0.7828503484
 23
-0.2133484193
 33
0.0
 40
0.0
 40
0.0
 40
0.0
 40
0.0
 40
1.0
 40
1.0
 40
1.0
 40
1.0
 10
-72.0622284685
 20
-4.7496410148
 30
0.0
 10
-72.3232346234
 20
-4.8205511455
 30
0.0
 10
-72.5858524075
 20
-4.8854426
 30
0.0
 10
-72.8468025236
 20
-4.9565587397
 30
0.0
 11
-72.0622284685
 21
-4.7496410148
 31
0.0
 11
-72.8468025236
 21
-4.9565587397
 31
0.0
  0
SPLINE
  5
61D
100
AcDbEntity
  8
CURVE
100
AcDbSpline
 62
253
  6
CONTINUOUS
 70
0
 71
3
 72
9
 73
5
 74
3
 42
0.0000001
 43
0.0000001
 44
0.0000000001
 12
0.8593546271
 22
0.3229459945
 32
0.0
 13
0.8822654545
 23
0.2537321442
 33
0.0
 40
0.0
 40
0.0
 40
0.0
 40
0.0
 40
0.499968398
 40
1.0
 40
1.0
 40
1.0
 40
1.0
 10
-72.9412305206
 20
-5.5965120355
 30
0.0
 10
-72.7980138019
 20
-5.542691105
 30
0.0
 10
-72.502393098
 20
-5.4614309255
 30
0.0
 10
-72.2092820047
 20
-5.3741331019
 30
0.0
 10
-72.0622284685
 20
-5.3318417383
 30
0.0
 11
-72.9412305206
 21
-5.5965120355
 31
0.0
 11
-72.5030391057
 21
-5.4599268412
 31
0.0
 11
-72.0622284685
 21
-5.3318417383
 31
0.0
  0
SPLINE
  5
61E
100
AcDbEntity
  8
CURVE
100
AcDbSpline
 62
253
  6
CONTINUOUS
 70
0
 71
3
 72
11
 73
7
 74
5
 42
0.0000001
 43
0.0000001
 44
0.0000000001
 12
0.0
 22
0.4505958664
 32
0.0
 13
0.421793933
 23
0.1583423737
 33
0.0
 40
0.0
 40
0.0
 40
0.0
 40
0.0
 40
0.2477795725
 40
0.4960551195
 40
0.7486644071
 40
1.0
 40
1.0
 40
1.0
 40
1.0
 10
-73.1966469489
 20
-5.9341993273
 30
0.0
 10
-73.1966469489
 20
-5.8969831769
 30
0.0
 10
-73.1857587276
 20
-5.8216580962
 30
0.0
 10
-73.1300523687
 20
-5.7211454858
 30
0.0
 10
-73.0443924003
 20
-5.6450913069
 30
0.0
 10
-72.9765677967
 20
-5.609777727
 30
0.0
 10
-72.9412305206
 20
-5.5965120355
 30
0.0
 11
-73.1966469489
 21
-5.9341993273
 31
0.0
 11
-73.1792770979
 21
-5.8239107377
 31
0.0
 11
-73.1255176917
 21
-5.7258068357
 31
0.0
 11
-73.0416248255
 21
-5.648891914
 31
0.0
 11
-72.9412305206
 21
-5.5965120355
 31
0.0
  0
ELLIPSE
  5
61F
100
AcDbEntity
  8
CORPO
100
AcDbEllipse
 62
7
  6
CONTINUOUS
 10
20.3996953439
 20
17.6714466826
 30
0.0
 11
-1.8480888181
 21
-0.7655034529
 31
0.0
 40
0.9998215708
 41
2.7489566578
 42
2.8709991878
  0
ELLIPSE
  5
620
100
AcDbEntity
  8
CORPO
100
AcDbEllipse
 62
7
  6
CONTINUOUS
 10
20.3996953439
 20
-17.6714466826
 30
0.0
 11
1.8480888181
 21
-0.7655034529
 31
0.0
 40
0.9998215708
 41
0.2705934654
 42
0.3926359958
  0
ELLIPSE
  5
621
100
AcDbEntity
  8
CORPO
100
AcDbEllipse
 62
7
  6
CONTINUOUS
 10
-20.3996953439
 20
-17.6714466826
 30
0.0
 11
1.8480888181
 21
0.7655034529
 31
0.0
 40
0.9998215708
 41
2.7489566578
 42
2.8709991878
  0
ELLIPSE
  5
622
100
AcDbEntity
  8
CORPO
100
AcDbEllipse
 62
7
  6
CONTINUOUS
 10
-20.3996953439
 20
17.6714466826
 30
0.0
 11
-1.8480888181
 21
0.7655034529
 31
0.0
 40
0.9998215708
 41
0.2705934654
 42
0.3926359958
  0
ELLIPSE
  5
623
100
AcDbEntity
  8
ASSI
100
AcDbEllipse
 62
7
  6
CONTINUOUS
 10
-20.3996953439
 20
17.6714466826
 30
0.0
 11
-1.8480888181
 21
0.7655034529
 31
0.0
 40
0.9998215708
 41
0.2705934654
 42
0.3926359958
  0
ELLIPSE
  5
624
100
AcDbEntity
  8
ASSI
100
AcDbEllipse
 62
7
  6
CONTINUOUS
 10
-20.3996953439
 20
-17.6714466826
 30
0.0
 11
1.8480888181
 21
0.7655034529
 31
0.0
 40
0.9998215708
 41
2.7489566578
 42
2.8709991878
  0
ELLIPSE
  5
625
100
AcDbEntity
  8
ASSI
100
AcDbEllipse
 62
7
  6
CONTINUOUS
 10
20.3996953439
 20
-17.6714466826
 30
0.0
 11
1.8480888181
 21
-0.7655034529
 31
0.0
 40
0.9998215708
 41
0.2705934654
 42
0.3926359958
  0
ELLIPSE
  5
626
100
AcDbEntity
  8
ASSI
100
AcDbEllipse
 62
7
  6
CONTINUOUS
 10
20.3996953439
 20
17.6714466826
 30
0.0
 11
-1.8480888181
 21
-0.7655034529
 31
0.0
 40
0.9998215708
 41
2.7489566578
 42
2.8709991878
  0
ELLIPSE
  5
627
100
AcDbEntity
  8
RACCORDO
100
AcDbEllipse
 62
7
  6
CONTINUOUS
 10
21.824923836
 20
-21.749313827
 30
0.0
 11
-0.1582391023
 21
0.4751033573
 31
0.0
 40
0.9984778551
 41
-3.4626430041
 42
-1.8927600658
  0
ELLIPSE
  5
628
100
AcDbEntity
  8
RACCORDO
100
AcDbEllipse
 62
7
  6
CONTINUOUS
 10
21.824923836
 20
21.749313827
 30
0.0
 11
0.1582391023
 21
0.4751033573
 31
0.0
 40
0.9984778551
 41
-1.2488325878
 42
0.3210503505
  0
ELLIPSE
  5
629
100
AcDbEntity
  8
RACCORDO
100
AcDbEllipse
 62
7
  6
CONTINUOUS
 10
-21.824923836
 20
21.749313827
 30
0.0
 11
-0.1582391023
 21
0.4751033573
 31
0.0
 40
0.9984778551
 41
-0.3210503505
 42
1.2488325878
  0
ELLIPSE
  5
62A
100
AcDbEntity
  8
RACCORDO
100
AcDbEllipse
 62
7
  6
CONTINUOUS
 10
-21.824923836
 20
-21.749313827
 30
0.0
 11
0.1582391023
 21
0.4751033573
 31
0.0
 40
0.9984778551
 41
-4.3904252414
 42
-2.8205423031
  0
ELLIPSE
  5
62B
100
AcDbEntity
  8
PORTATASTO
100
AcDbEllipse
 62
7
  6
CONTINUOUS
 10
-19.800003427
 20
24.249996573
 30
0.0
 11
0.1767815418
 21
0.1767815417
 31
0.0
 40
0.9999725851
 41
0.5950227919
 42
0.7853844562
  0
ELLIPSE
  5
62C
100
AcDbEntity
  8
PORTATASTO
100
AcDbEllipse
 62
7
  6
CONTINUOUS
 10
-19.800003427
 20
24.249996573
 30
0.0
 11
0.1767815418
 21
0.1767815418
 31
0.0
 40
0.9999725851
 41
0.1666317354
 42
0.5950227915
  0
ELLIPSE
  5
62D
100
AcDbEntity
  8
PORTATASTO
100
AcDbEllipse
 62
7
  6
CONTINUOUS
 10
-19.800003427
 20
24.249996573
 30
0.0
 11
0.1767815418
 21
0.1767815417
 31
0.0
 40
0.9999725851
 41
-0.1666317414
 42
0.1666317358
  0
ELLIPSE
  5
62E
100
AcDbEntity
  8
PORTATASTO
100
AcDbEllipse
 62
7
  6
CONTINUOUS
 10
-19.800003427
 20
24.249996573
 30
0.0
 11
0.1767815417
 21
0.1767815418
 31
0.0
 40
0.9999725851
 41
-0.7853844559
 42
-0.1666317419
  0
ELLIPSE
  5
62F
100
AcDbEntity
  8
PORTATASTO
100
AcDbEllipse
 62
7
  6
CONTINUOUS
 10
-21.574996573
 20
24.249996573
 30
0.0
 11
0.1767815418
 21
-0.1767815417
 31
0.0
 40
0.9999725851
 41
-2.5465698624
 42
-2.3562081981
  0
ELLIPSE
  5
630
100
AcDbEntity
  8
PORTATASTO
100
AcDbEllipse
 62
7
  6
CONTINUOUS
 10
-21.574996573
 20
24.249996573
 30
0.0
 11
-0.1767815418
 21
0.1767815417
 31
0.0
 40
0.9999725851
 41
-0.1666317419
 42
0.5950227918
  0
ELLIPSE
  5
631
100
AcDbEntity
  8
PORTATASTO
100
AcDbEllipse
 62
7
  6
CONTINUOUS
 10
-21.574996573
 20
24.249996573
 30
0.0
 11
0.1767815417
 21
-0.1767815418
 31
0.0
 40
0.9999725851
 41
2.3562081981
 42
2.974960912
  0
ELLIPSE
  5
632
100
AcDbEntity
  8
PORTATASTO
100
AcDbEllipse
 62
7
  6
CONTINUOUS
 10
-0.925003427
 20
24.249996573
 30
0.0
 11
0.1767815418
 21
0.1767815418
 31
0.0
 40
0.9999725851
 41
0.0
 42
6.2831853072
  0
ELLIPSE
  5
633
100
AcDbEntity
  8
PORTATASTO
100
AcDbEllipse
 62
7
  6
CONTINUOUS
 10
-2.699996573
 20
24.249996573
 30
0.0
 11
0.1767815417
 21
-0.1767815418
 31
0.0
 40
0.9999725851
 41
-2.5465698618
 42
-2.3562081976
  0
ELLIPSE
  5
634
100
AcDbEntity
  8
PORTATASTO
100
AcDbEllipse
 62
7
  6
CONTINUOUS
 10
-2.699996573
 20
24.249996573
 30
0.0
 11
-0.1767815417
 21
0.1767815418
 31
0.0
 40
0.9999725851
 41
0.1666317355
 42
0.5950227915
  0
ELLIPSE
  5
635
100
AcDbEntity
  8
PORTATASTO
100
AcDbEllipse
 62
7
  6
CONTINUOUS
 10
-2.699996573
 20
24.249996573
 30
0.0
 11
0.1767815417
 21
-0.1767815418
 31
0.0
 40
0.9999725851
 41
2.974960912
 42
3.3082243892
  0
ELLIPSE
  5
636
100
AcDbEntity
  8
PORTATASTO
100
AcDbEllipse
 62
7
  6
CONTINUOUS
 10
-2.699996573
 20
24.249996573
 30
0.0
 11
-0.1767815418
 21
0.1767815417
 31
0.0
 40
0.9999725851
 41
-0.7853844558
 42
-0.1666317419
  0
ELLIPSE
  5
637
100
AcDbEntity
  8
PORTATASTO
100
AcDbEllipse
 62
7
  6
CONTINUOUS
 10
-19.800003427
 20
-24.249996573
 30
0.0
 11
0.1767815418
 21
-0.1767815417
 31
0.0
 40
0.9999725851
 41
-0.1666317419
 42
0.7853844559
  0
ELLIPSE
  5
638
100
AcDbEntity
  8
PORTATASTO
100
AcDbEllipse
 62
7
  6
CONTINUOUS
 10
-19.800003427
 20
-24.249996573
 30
0.0
 11
-0.1767815417
 21
0.1767815418
 31
0.0
 40
0.9999725851
 41
-3.9269771091
 42
-3.3082243951
  0
ELLIPSE
  5
639
100
AcDbEntity
  8
PORTATASTO
100
AcDbEllipse
 62
7
  6
CONTINUOUS
 10
-21.574996573
 20
-24.249996573
 30
0.0
 11
0.1767815418
 21
0.1767815417
 31
0.0
 40
0.9999725851
 41
2.9749609118
 42
3.9269771094
  0
ELLIPSE
  5
63A
100
AcDbEntity
  8
PORTATASTO
100
AcDbEllipse
 62
7
  6
CONTINUOUS
 10
-21.574996573
 20
-24.249996573
 30
0.0
 11
0.1767815417
 21
0.1767815418
 31
0.0
 40
0.9999725851
 41
-3.9269771094
 42
-3.3082243955
  0
ELLIPSE
  5
63B
100
AcDbEntity
  8
PORTATASTO
100
AcDbEllipse
 62
7
  6
CONTINUOUS
 10
-0.925003427
 20
-24.249996573
 30
0.0
 11
0.1767815418
 21
-0.1767815418
 31
0.0
 40
0.9999725851
 41
-0.7853844557
 42
0.7853844557
  0
ELLIPSE
  5
63C
100
AcDbEntity
  8
PORTATASTO
100
AcDbEllipse
 62
7
  6
CONTINUOUS
 10
-2.699996573
 20
-24.249996573
 30
0.0
 11
0.1767815418
 21
0.1767815418
 31
0.0
 40
0.9999725851
 41
-3.9269771093
 42
-2.3562081979
  0
ELLIPSE
  5
63D
100
AcDbEntity
  8
PORTATASTO
100
AcDbEllipse
 62
7
  6
CONTINUOUS
 10
21.574996573
 20
-24.249996573
 30
0.0
 11
0.1767815418
 21
-0.1767815418
 31
0.0
 40
0.9999725851
 41
0.5950227915
 42
0.7853844557
  0
ELLIPSE
  5
63E
100
AcDbEntity
  8
PORTATASTO
100
AcDbEllipse
 62
7
  6
CONTINUOUS
 10
21.574996573
 20
-24.249996573
 30
0.0
 11
-0.1767815417
 21
0.1767815418
 31
0.0
 40
0.9999725851
 41
-2.9749609179
 42
-2.5465698619
  0
ELLIPSE
  5
63F
100
AcDbEntity
  8
PORTATASTO
100
AcDbEllipse
 62
7
  6
CONTINUOUS
 10
21.574996573
 20
-24.249996573
 30
0.0
 11
0.1767815418
 21
-0.1767815417
 31
0.0
 40
0.9999725851
 41
-0.1666317419
 42
0.1666317353
  0
ELLIPSE
  5
640
100
AcDbEntity
  8
PORTATASTO
100
AcDbEllipse
 62
7
  6
CONTINUOUS
 10
21.574996573
 20
-24.249996573
 30
0.0
 11
-0.1767815417
 21
0.1767815418
 31
0.0
 40
0.9999725851
 41
-3.9269771092
 42
-3.3082243953
  0
ELLIPSE
  5
641
100
AcDbEntity
  8
PORTATASTO
100
AcDbEllipse
 62
7
  6
CONTINUOUS
 10
19.800003427
 20
-24.249996573
 30
0.0
 11
0.1767815418
 21
0.1767815417
 31
0.0
 40
0.9999725851
 41
-2.546569862
 42
-2.3562081978
  0
ELLIPSE
  5
642
100
AcDbEntity
  8
PORTATASTO
100
AcDbEllipse
 62
7
  6
CONTINUOUS
 10
19.800003427
 20
-24.249996573
 30
0.0
 11
0.1767815417
 21
0.1767815418
 31
0.0
 40
0.9999725851
 41
-2.9749609184
 42
-2.5465698623
  0
ELLIPSE
  5
643
100
AcDbEntity
  8
PORTATASTO
100
AcDbEllipse
 62
7
  6
CONTINUOUS
 10
19.800003427
 20
-24.249996573
 30
0.0
 11
0.1767815418
 21
0.1767815417
 31
0.0
 40
0.9999725851
 41
2.9749609118
 42
3.308224389
  0
ELLIPSE
  5
644
100
AcDbEntity
  8
PORTATASTO
100
AcDbEllipse
 62
7
  6
CONTINUOUS
 10
19.800003427
 20
-24.249996573
 30
0.0
 11
0.1767815417
 21
0.1767815418
 31
0.0
 40
0.9999725851
 41
-3.9269771095
 42
-3.3082243956
  0
ELLIPSE
  5
645
100
AcDbEntity
  8
PORTATASTO
100
AcDbEllipse
 62
7
  6
CONTINUOUS
 10
2.699996573
 20
-24.249996573
 30
0.0
 11
0.1767815418
 21
-0.1767815417
 31
0.0
 40
0.9999725851
 41
-0.7853844558
 42
0.7853844557
  0
ELLIPSE
  5
646
100
AcDbEntity
  8
PORTATASTO
100
AcDbEllipse
 62
7
  6
CONTINUOUS
 10
0.925003427
 20
-24.249996573
 30
0.0
 11
0.1767815418
 21
0.1767815418
 31
0.0
 40
0.9999725851
 41
-3.9269771093
 42
-2.3562081978
  0
ELLIPSE
  5
647
100
AcDbEntity
  8
PORTATASTO
100
AcDbEllipse
 62
7
  6
CONTINUOUS
 10
19.800003427
 20
24.249996573
 30
0.0
 11
0.1767815418
 21
-0.1767815417
 31
0.0
 40
0.9999725851
 41
-2.9749609183
 42
-2.356208198
  0
ELLIPSE
  5
648
100
AcDbEntity
  8
PORTATASTO
100
AcDbEllipse
 62
7
  6
CONTINUOUS
 10
19.800003427
 20
24.249996573
 30
0.0
 11
-0.1767815417
 21
0.1767815418
 31
0.0
 40
0.9999725851
 41
-0.1666317417
 42
0.1666317355
  0
ELLIPSE
  5
649
100
AcDbEntity
  8
PORTATASTO
100
AcDbEllipse
 62
7
  6
CONTINUOUS
 10
19.800003427
 20
24.249996573
 30
0.0
 11
0.1767815418
 21
-0.1767815417
 31
0.0
 40
0.9999725851
 41
2.3562081975
 42
2.9749609115
  0
ELLIPSE
  5
64A
100
AcDbEntity
  8
PORTATASTO
100
AcDbEllipse
 62
7
  6
CONTINUOUS
 10
21.574996573
 20
24.249996573
 30
0.0
 11
0.1767815419
 21
0.1767815416
 31
0.0
 40
0.9999725851
 41
-0.1666317411
 42
0.7853844557
  0
ELLIPSE
  5
64B
100
AcDbEntity
  8
PORTATASTO
100
AcDbEllipse
 62
7
  6
CONTINUOUS
 10
21.574996573
 20
24.249996573
 30
0.0
 11
0.1767815418
 21
0.1767815418
 31
0.0
 40
0.9999725851
 41
-0.7853844557
 42
-0.1666317418
  0
ELLIPSE
  5
64C
100
AcDbEntity
  8
PORTATASTO
100
AcDbEllipse
 62
7
  6
CONTINUOUS
 10
0.925003427
 20
24.249996573
 30
0.0
 11
0.1767815418
 21
-0.1767815417
 31
0.0
 40
0.9999725851
 41
-2.5465698624
 42
-2.3562081981
  0
ELLIPSE
  5
64D
100
AcDbEntity
  8
PORTATASTO
100
AcDbEllipse
 62
7
  6
CONTINUOUS
 10
0.925003427
 20
24.249996573
 30
0.0
 11
-0.1767815418
 21
0.1767815417
 31
0.0
 40
0.9999725851
 41
-0.1666317421
 42
0.5950227915
  0
ELLIPSE
  5
64E
100
AcDbEntity
  8
PORTATASTO
100
AcDbEllipse
 62
7
  6
CONTINUOUS
 10
0.925003427
 20
24.249996573
 30
0.0
 11
0.1767815417
 21
-0.1767815418
 31
0.0
 40
0.9999725851
 41
2.3562081979
 42
2.9749609118
  0
ELLIPSE
  5
64F
100
AcDbEntity
  8
PORTATASTO
100
AcDbEllipse
 62
7
  6
CONTINUOUS
 10
2.699996573
 20
24.249996573
 30
0.0
 11
0.1767815417
 21
0.1767815418
 31
0.0
 40
0.9999725851
 41
-0.7853844559
 42
0.5950227916
  0
ELLIPSE
  5
650
100
AcDbEntity
  8
PORTATASTO
100
AcDbEllipse
 62
7
  6
CONTINUOUS
 10
-15.1421390926
 20
23.7921459466
 30
0.0
 11
0.5
 21
0.0
 31
0.0
 40
0.0052360356
 41
-3.1363566658
 42
-2.4954709846
  0
ELLIPSE
  5
651
100
AcDbEntity
  8
PORTATASTO
100
AcDbEllipse
 62
7
  6
CONTINUOUS
 10
-7.3578609074
 20
23.7921459466
 30
0.0
 11
0.5
 21
0.0
 31
0.0
 40
0.0052360356
 41
-0.646121669
 42
-0.0052359878
  0
ELLIPSE
  5
652
100
AcDbEntity
  8
PORTATASTO
100
AcDbEllipse
 62
7
  6
CONTINUOUS
 10
-15.1421390926
 20
-23.7921459466
 30
0.0
 11
0.5
 21
-0.0
 31
0.0
 40
0.0052360356
 41
2.4954709846
 42
3.1363566658
  0
ELLIPSE
  5
653
100
AcDbEntity
  8
PORTATASTO
100
AcDbEllipse
 62
7
  6
CONTINUOUS
 10
-7.3578609074
 20
-23.7921459466
 30
0.0
 11
0.5
 21
-0.0
 31
0.0
 40
0.0052360356
 41
0.0052359878
 42
0.646121669
  0
ELLIPSE
  5
654
100
AcDbEntity
  8
PORTATASTO
100
AcDbEllipse
 62
7
  6
CONTINUOUS
 10
15.1421390926
 20
23.7921459466
 30
0.0
 11
0.5
 21
-0.0
 31
0.0
 40
0.0052360356
 41
-0.646121669
 42
-0.0052359878
  0
ELLIPSE
  5
655
100
AcDbEntity
  8
PORTATASTO
100
AcDbEllipse
 62
7
  6
CONTINUOUS
 10
7.3578609074
 20
23.7921459466
 30
0.0
 11
0.5
 21
-0.0
 31
0.0
 40
0.0052360356
 41
-3.1363566658
 42
-2.4954709846
  0
ELLIPSE
  5
656
100
AcDbEntity
  8
PORTATASTO
100
AcDbEllipse
 62
7
  6
CONTINUOUS
 10
7.3578609074
 20
-23.7921459466
 30
0.0
 11
0.5
 21
0.0
 31
0.0
 40
0.0052360356
 41
2.4954709846
 42
3.1363566658
  0
ELLIPSE
  5
657
100
AcDbEntity
  8
PORTATASTO
100
AcDbEllipse
 62
7
  6
CONTINUOUS
 10
15.1421390926
 20
-23.7921459466
 30
0.0
 11
0.5
 21
0.0
 31
0.0
 40
0.0052360356
 41
0.0052359878
 42
0.646121669
  0
ELLIPSE
  5
658
100
AcDbEntity
  8
PORTATASTO
100
AcDbEllipse
 62
7
  6
CONTINUOUS
 10
-21.8237412386
 20
21.7707021581
 30
0.0
 11
-0.1582391023
 21
0.4751033573
 31
0.0
 40
0.9984778551
 41
-0.3210503505
 42
1.1842867864
  0
ELLIPSE
  5
659
100
AcDbEntity
  8
PORTATASTO
100
AcDbEllipse
 62
7
  6
CONTINUOUS
 10
-21.8237412386
 20
-21.7707021581
 30
0.0
 11
0.1582391023
 21
0.4751033573
 31
0.0
 40
0.9984778551
 41
8.2404911743
 42
9.7458283113
  0
ELLIPSE
  5
65A
100
AcDbEntity
  8
PORTATASTO
100
AcDbEllipse
 62
7
  6
CONTINUOUS
 10
21.8237412386
 20
21.7707021581
 30
0.0
 11
-0.1582391023
 21
-0.4751033573
 31
0.0
 40
0.9984778551
 41
8.2404911743
 42
9.7458283113
  0
ELLIPSE
  5
65B
100
AcDbEntity
  8
PORTATASTO
100
AcDbEllipse
 62
7
  6
CONTINUOUS
 10
21.8237412386
 20
-21.7707021581
 30
0.0
 11
-0.1582391023
 21
0.4751033573
 31
0.0
 40
0.9984778551
 41
-3.4626430041
 42
-1.9573058671
  0
ELLIPSE
  5
65C
100
AcDbEntity
  8
PORTATASTO
100
AcDbEllipse
 62
7
  6
CONTINUOUS
 10
15.1421390926
 20
22.3237961104
 30
0.0
 11
0.5
 21
0.0
 31
0.0
 40
0.0524077793
 41
-1.5707963268
 42
-0.0052359878
  0
ELLIPSE
  5
65D
100
AcDbEntity
  8
PORTATASTO
100
AcDbEllipse
 62
7
  6
CONTINUOUS
 10
7.3578609074
 20
22.3237961104
 30
0.0
 11
0.5
 21
0.0
 31
0.0
 40
0.0524077793
 41
-3.1363566658
 42
-1.5707963268
  0
ELLIPSE
  5
65E
100
AcDbEntity
  8
PORTATASTO
100
AcDbEllipse
 62
7
  6
CONTINUOUS
 10
7.3578609074
 20
-22.3237961104
 30
0.0
 11
0.5
 21
-0.0
 31
0.0
 40
0.0524077793
 41
1.5707963268
 42
3.1363566658
  0
ELLIPSE
  5
65F
100
AcDbEntity
  8
PORTATASTO
100
AcDbEllipse
 62
7
  6
CONTINUOUS
 10
15.1421390926
 20
-22.3237961104
 30
0.0
 11
0.5
 21
-0.0
 31
0.0
 40
0.0524077793
 41
0.0052359878
 42
1.5707963268
  0
ELLIPSE
  5
660
100
AcDbEntity
  8
PORTATASTO
100
AcDbEllipse
 62
7
  6
CONTINUOUS
 10
-15.1421390926
 20
-22.3237961104
 30
0.0
 11
0.5
 21
-0.0
 31
0.0
 40
0.0524077793
 41
1.5707963268
 42
3.1363566658
  0
ELLIPSE
  5
661
100
AcDbEntity
  8
PORTATASTO
100
AcDbEllipse
 62
7
  6
CONTINUOUS
 10
-7.3578609074
 20
-22.3237961104
 30
0.0
 11
0.5
 21
-0.0
 31
0.0
 40
0.0524077793
 41
0.0052359878
 42
1.5707963268
  0
ELLIPSE
  5
662
100
AcDbEntity
  8
PORTATASTO
100
AcDbEllipse
 62
7
  6
CONTINUOUS
 10
-15.1421390926
 20
22.3237961104
 30
0.0
 11
0.5
 21
0.0
 31
0.0
 40
0.0524077793
 41
-3.1363566658
 42
-1.5707963268
  0
ELLIPSE
  5
663
100
AcDbEntity
  8
PORTATASTO
100
AcDbEllipse
 62
7
  6
CONTINUOUS
 10
-7.3578609074
 20
22.3237961104
 30
0.0
 11
0.5
 21
0.0
 31
0.0
 40
0.0524077793
 41
-1.5707963268
 42
-0.0052359878
  0
ELLIPSE
  5
664
100
AcDbEntity
  8
PORTATASTO
100
AcDbEllipse
 62
7
  6
CONTINUOUS
 10
-19.8117845071
 20
22.2844902759
 30
0.0
 11
0.25
 21
0.0
 31
0.0
 40
0.0524077793
 41
-1.5707963268
 42
-0.0052359878
  0
ELLIPSE
  5
665
100
AcDbEntity
  8
PORTATASTO
100
AcDbEllipse
 62
7
  6
CONTINUOUS
 10
-21.5632154929
 20
22.2844902759
 30
0.0
 11
0.25
 21
0.0
 31
0.0
 40
0.0524077793
 41
-3.1363566658
 42
-1.5707963268
  0
ELLIPSE
  5
666
100
AcDbEntity
  8
PORTATASTO
100
AcDbEllipse
 62
7
  6
CONTINUOUS
 10
-2.6882154929
 20
22.2844902759
 30
0.0
 11
0.25
 21
-0.0
 31
0.0
 40
0.0524077793
 41
-3.1363566658
 42
-1.5707963268
  0
ELLIPSE
  5
667
100
AcDbEntity
  8
PORTATASTO
100
AcDbEllipse
 62
7
  6
CONTINUOUS
 10
-0.9367845071
 20
22.2844902759
 30
0.0
 11
0.25
 21
-0.0
 31
0.0
 40
0.0524077793
 41
-1.5707963268
 42
-0.0052359878
  0
ELLIPSE
  5
668
100
AcDbEntity
  8
PORTATASTO
100
AcDbEllipse
 62
7
  6
CONTINUOUS
 10
-19.8117845071
 20
-22.2844902759
 30
0.0
 11
0.25
 21
-0.0
 31
0.0
 40
0.0524077793
 41
0.0052359878
 42
1.5707963268
  0
ELLIPSE
  5
669
100
AcDbEntity
  8
PORTATASTO
100
AcDbEllipse
 62
7
  6
CONTINUOUS
 10
-21.5632154929
 20
-22.2844902759
 30
0.0
 11
0.25
 21
-0.0
 31
0.0
 40
0.0524077793
 41
1.5707963268
 42
3.1363566658
  0
ELLIPSE
  5
66A
100
AcDbEntity
  8
PORTATASTO
100
AcDbEllipse
 62
7
  6
CONTINUOUS
 10
-0.9367845071
 20
-22.2844902759
 30
0.0
 11
0.25
 21
0.0
 31
0.0
 40
0.0524077793
 41
0.0052359878
 42
1.5707963268
  0
ELLIPSE
  5
66B
100
AcDbEntity
  8
PORTATASTO
100
AcDbEllipse
 62
7
  6
CONTINUOUS
 10
-2.6882154929
 20
-22.2844902759
 30
0.0
 11
0.25
 21
-0.0
 31
0.0
 40
0.0524077793
 41
1.5707963268
 42
3.1363566658
  0
ELLIPSE
  5
66C
100
AcDbEntity
  8
PORTATASTO
100
AcDbEllipse
 62
7
  6
CONTINUOUS
 10
0.9367845071
 20
22.2844902759
 30
0.0
 11
0.25
 21
-0.0
 31
0.0
 40
0.0524077793
 41
-3.1363566658
 42
-1.5707963268
  0
ELLIPSE
  5
66D
100
AcDbEntity
  8
PORTATASTO
100
AcDbEllipse
 62
7
  6
CONTINUOUS
 10
2.6882154929
 20
22.2844902759
 30
0.0
 11
0.25
 21
-0.0
 31
0.0
 40
0.0524077793
 41
-1.5707963268
 42
-0.0052359878
  0
ELLIPSE
  5
66E
100
AcDbEntity
  8
PORTATASTO
100
AcDbEllipse
 62
7
  6
CONTINUOUS
 10
21.5632154929
 20
22.2844902759
 30
0.0
 11
0.25
 21
0.0
 31
0.0
 40
0.0524077793
 41
-1.5707963268
 42
-0.0052359878
  0
ELLIPSE
  5
66F
100
AcDbEntity
  8
PORTATASTO
100
AcDbEllipse
 62
7
  6
CONTINUOUS
 10
19.8117845071
 20
22.2844902759
 30
0.0
 11
0.25
 21
-0.0
 31
0.0
 40
0.0524077793
 41
-3.1363566658
 42
-1.5707963268
  0
ELLIPSE
  5
670
100
AcDbEntity
  8
PORTATASTO
100
AcDbEllipse
 62
7
  6
CONTINUOUS
 10
0.9367845071
 20
-22.2844902759
 30
0.0
 11
0.25
 21
-0.0
 31
0.0
 40
0.0524077793
 41
1.5707963268
 42
3.1363566658
  0
ELLIPSE
  5
671
100
AcDbEntity
  8
PORTATASTO
100
AcDbEllipse
 62
7
  6
CONTINUOUS
 10
2.6882154929
 20
-22.2844902759
 30
0.0
 11
0.25
 21
-0.0
 31
0.0
 40
0.0524077793
 41
0.0052359878
 42
1.5707963268
  0
ELLIPSE
  5
672
100
AcDbEntity
  8
PORTATASTO
100
AcDbEllipse
 62
7
  6
CONTINUOUS
 10
19.8117845071
 20
-22.2844902759
 30
0.0
 11
0.25
 21
-0.0
 31
0.0
 40
0.0524077793
 41
1.5707963268
 42
3.1363566658
  0
ELLIPSE
  5
673
100
AcDbEntity
  8
PORTATASTO
100
AcDbEllipse
 62
7
  6
CONTINUOUS
 10
21.5632154929
 20
-22.2844902759
 30
0.0
 11
0.25
 21
0.0
 31
0.0
 40
0.0524077793
 41
0.0052359878
 42
1.5707963268
  0
ELLIPSE
  5
674
100
AcDbEntity
  8
PORTATASTO
100
AcDbEllipse
 62
7
  6
CONTINUOUS
 10
-68.0525520329
 20
-21.9537669705
 30
0.0
 11
0.3546425507
 21
0.3568377408
 31
0.0
 40
0.9877342685
 41
-0.2093834035
 42
0.7710302454
  0
ELLIPSE
  5
675
100
AcDbEntity
  8
PORTATASTO
100
AcDbEllipse
 62
7
  6
CONTINUOUS
 10
-68.0525520329
 20
21.9537669705
 30
0.0
 11
-0.3546425507
 21
0.3568377408
 31
0.0
 40
0.9877342685
 41
-3.912622899
 42
-2.9322092501
  0
ELLIPSE
  5
676
100
AcDbEntity
  8
PORTATASTO
100
AcDbEllipse
 62
7
  6
CONTINUOUS
 10
-2.1588774818
 20
-23.15
 30
0.0
 11
95.4920931889
 21
0.0
 31
0.0
 40
0.0052360356
 41
2.3919487288
 42
2.5157538818
  0
ELLIPSE
  5
677
100
AcDbEntity
  8
PORTATASTO
100
AcDbEllipse
 62
7
  6
CONTINUOUS
 10
-2.1588774818
 20
23.15
 30
0.0
 11
95.4920931889
 21
0.0
 31
0.0
 40
0.0052360356
 41
-2.5157538818
 42
-2.3919487288
  0
ELLIPSE
  5
678
100
AcDbEntity
  8
CURVE
100
AcDbEllipse
 62
253
  6
CONTINUOUS
 10
-69.3050648714
 20
-12.839757
 30
0.0
 11
0.0
 21
0.65
 31
0.0
 40
0.9996954135
 41
-1.5707963268
 42
1.5707963268
  0
ENDSEC
  0
SECTION
  2
OBJECTS
  0
DICTIONARY
  5
C
100
AcDbDictionary
280
0
281
1
  3
ACAD_GROUP
350
D
  3
ACAD_MLINESTYLE
350
17
  3
ACAD_LAYOUT
350
1A
  3
ACAD_PLOTSETTINGS
350
19
  3
ACAD_PLOTSTYLENAME
350
E
  0
DICTIONARY
  5
D
102
{ACAD_REACTORS
330
C
102
}
100
AcDbDictionary
280
0
281
1
  0
ACDBDICTIONARYWDFLT
  5
E
102
{ACAD_REACTORS
330
C
102
}
100
AcDbDictionary
281
1
  3
Normal
350
F
100
AcDbDictionaryWithDefault
340
F
  0
DICTIONARY
  5
17
102
{ACAD_REACTORS
330
C
102
}
100
AcDbDictionary
280
0
281
1
  3
Standard
350
18
  0
DICTIONARY
  5
19
102
{ACAD_REACTORS
330
C
102
}
100
AcDbDictionary
281
1
  0
DICTIONARY
  5
1A
102
{ACAD_REACTORS
330
C
102
}
100
AcDbDictionary
281
1
  3
Model
350
679
  3
Layout1
350
67A
  0
ACDBPLACEHOLDER
  5
F
102
{ACAD_REACTORS
330
E
102
}
  0
MLINESTYLE
  5
18
102
{ACAD_REACTORS
330
17
102
}
100
AcDbMlineStyle
  2
STANDARD
 70
0
  3

 62
256
 51
90.0
 52
90.0
 71
2
 49
0.5
 62
256
  6
BYLAYER
 49
-0.5
 62
256
  6
BYLAYER
  0
LAYOUT
  5
679
102
{ACAD_REACTORS
330
1A
102
}
100
AcDbPlotSettings
  1

  2
none_device
  4
ISO_A4_(297.00_x_210.00_MM)
  6

 40
0.0
 41
0.0
 42
0.0
 43
0.0
 44
297.0
 45
210.0
 46
0.0
 47
0.0
 48
0.0
 49
0.0
140
0.0
141
0.0
142
1.0
143
1.0
 70
1024
 72
1
 73
0
 74
0
  7

 75
0
147
1.0
148
0.0
149
0.0
100
AcDbLayout
  1
Model
 70
0
 71
0
 10
0.0
 20
0.0
 11
297.0
 21
210.0
 12
0.0
 22
0.0
 32
0.0
 14
0.0
 24
0.0
 34
0.0
 15
0.0
 25
0.0
 35
0.0
146
0.0
 13
0.0
 23
0.0
 33
0.0
 16
1.0
 26
0.0
 36
0.0
 17
0.0
 27
1.0
 37
0.0
 76
0
330
222
345
0
346
0
  0
LAYOUT
  5
67A
102
{ACAD_REACTORS
330
1A
102
}
100
AcDbPlotSettings
  1

  2
none_device
  4
ISO_A4_(297.00_x_210.00_MM)
  6

 40
0.0
 41
0.0
 42
0.0
 43
0.0
 44
297.0
 45
210.0
 46
0.0
 47
0.0
 48
0.0
 49
0.0
140
0.0
141
0.0
142
1.0
143
1.0
 70
0
 72
1
 73
0
 74
0
  7

 75
0
147
1.0
148
0.0
149
0.0
100
AcDbLayout
  1
Layout1
 70
0
 71
1
 10
0.0
 20
0.0
 11
297.0
 21
210.0
 12
0.0
 22
0.0
 32
0.0
 14
0.0
 24
0.0
 34
0.0
 15
0.0
 25
0.0
 35
0.0
146
0.0
 13
0.0
 23
0.0
 33
0.0
 16
1.0
 26
0.0
 36
0.0
 17
0.0
 27
1.0
 37
0.0
 76
0
330
223
345
0
346
0
  0
ENDSEC
  0
EOF
