  0
SECTION
  2
HEADER
  9
$ACADVER
  1
AC1021
  9
$DWGCODEPAGE
  3
ANSI_1252
  9
$EXTMAX
 10
279.4
 20
215.9
 30
0.0
  9
$EXTMIN
 10
0.0
 20
0.0
 30
0.0
  9
$LIMMIN
 10
0.0
 20
0.0
  9
$LIMMAX
 10
279.4
 20
215.9
  9
$VIEWCTR
 10
139.7
 20
107.95
  9
$VIEWSIZE
 40
215.9
  9
$CLAYER
  8
0
  9
$LTSCALE
 40
15.367
  9
$CELTYPE
  6
BYLAYER
  9
$DIMSCALE
 40
1.0
  9
$DIMASZ
 40
3.0
  9
$DIMEXO
 40
0.5
  9
$DIMDLI
 40
10.6172
  9
$DIMEXE
 40
1.5
  9
$DIMCEN
 40
2.5146
  9
$DIMLFAC
 40
1.0
  9
$DIMBLK
  1
_FILLED
  9
$DIMALT
 70
0
  9
$DIMALTF
 40
0.0393700787
  9
$DIMTXT
 40
3.0
  9
$DIMTOL
 70
1
  9
$DIMLIM
 70
0
  9
$DIMTFAC
 40
1.0
  9
$DIMTP
 40
0.01
  9
$DIMTM
 40
0.01
  9
$DIMGAP
 40
0.625
  9
$DIMDSEP
 70
44
  9
$AUNITS
 70
0
  9
$PDMODE
 70
3
  9
$PDSIZE
 40
3.0
  9
$HANDSEED
  5
708
  9
$TILEMODE
 70
1
  9
$MEASUREMENT
 70
1
  9
$INSUNITS
 70
4
  0
ENDSEC
  0
SECTION
  2
CLASSES
  0
CLASS
  1
ACDBDICTIONARYWDFLT
  2
AcDbDictionaryWithDefault
  3
AutoCAD 2000
 90
0
 91
1
280
0
281
0
  0
CLASS
  1
ACDBPLACEHOLDER
  2
AcDbPlaceHolder
  3
AutoCAD 2000
 90
0
 91
1
280
0
281
0
  0
CLASS
  1
LAYOUT
  2
AcDbLayout
  3
AutoCAD 2000
 90
0
 91
0
280
0
281
0
  0
ENDSEC
  0
SECTION
  2
TABLES
  0
TABLE
  2
VPORT
  5
8
100
AcDbSymbolTable
 70
2
  0
VPORT
  5
1F4
100
AcDbSymbolTableRecord
100
AcDbViewportTableRecord
  2
*ACTIVE
 70
0
 10
0.0
 20
0.0
 11
1.0
 21
1.0
 12
139.7
 22
107.95
 13
0.0
 23
0.0
 14
1.0
 24
1.0
 15
0.0
 25
0.0
 16
0.0
 26
0.0
 36
1.0
 17
0.0
 27
0.0
 37
0.0
 40
215.9
 41
1.2941176471
 42
50.0
 43
0.0
 44
0.0
 50
0.0
 51
0.0
 71
0
 72
100
 73
1
 74
1
 75
0
 76
0
 77
0
 78
0
  0
ENDTAB
  0
TABLE
  2
LTYPE
  5
5
100
AcDbSymbolTable
 70
6
  0
LTYPE
  5
14
100
AcDbSymbolTableRecord
100
AcDbLinetypeTableRecord
  2
BYBLOCK
 70
0
  3

 72
65
 73
0
 40
0.0
  0
LTYPE
  5
15
100
AcDbSymbolTableRecord
100
AcDbLinetypeTableRecord
  2
BYLAYER
 70
0
  3

 72
65
 73
0
 40
0.0
  0
LTYPE
  5
16
100
AcDbSymbolTableRecord
100
AcDbLinetypeTableRecord
  2
CONTINUOUS
 70
64
  3
Solid line
 72
65
 73
0
 40
0.0
  0
LTYPE
  5
1F5
100
AcDbSymbolTableRecord
100
AcDbLinetypeTableRecord
  2
CENTER
 70
64
  3
____ _ ____ _ ____ _ ____ _ ____ _ ____ _ ____
 72
65
 73
4
 40
0.6
 49
0.375
 74
0
 49
-0.075
 74
0
 49
0.075
 74
0
 49
-0.075
 74
0
  0
LTYPE
  5
1F6
100
AcDbSymbolTableRecord
100
AcDbLinetypeTableRecord
  2
HIDDEN
 70
64
  3
- - - - - - - - - - - - - - - - - - - -
 72
65
 73
2
 40
0.2
 49
0.1
 74
0
 49
-0.1
 74
0
  0
LTYPE
  5
1F7
100
AcDbSymbolTableRecord
100
AcDbLinetypeTableRecord
  2
PHANTOM
 70
64
  3
_____ _ _ _____ _ _ _____ _ _ _____
 72
65
 73
6
 40
0.8
 49
0.45
 74
0
 49
-0.05
 74
0
 49
0.1
 74
0
 49
-0.05
 74
0
 49
0.1
 74
0
 49
-0.05
 74
0
  0
LTYPE
  5
1F8
100
AcDbSymbolTableRecord
100
AcDbLinetypeTableRecord
  2
DOT
 70
64
  3
. . . . . . . . . . . . . . . . . . . .
 72
65
 73
2
 40
0.2
 49
0.1
 74
0
 49
-0.1
 74
0
  0
LTYPE
  5
1F9
100
AcDbSymbolTableRecord
100
AcDbLinetypeTableRecord
  2
DASHED
 70
64
  3
- - - - - - - - - - - - - - - - - - - -
 72
65
 73
2
 40
0.2
 49
0.1
 74
0
 49
-0.1
 74
0
  0
ENDTAB
  0
TABLE
  2
LAYER
  5
2
100
AcDbSymbolTable
 70
36
  0
LAYER
  5
10
100
AcDbSymbolTableRecord
100
AcDbLayerTableRecord
  2
0
 70
0
 62
7
  6
CONTINUOUS
370
-3
390
F
  0
LAYER
  5
1FA
100
AcDbSymbolTableRecord
100
AcDbLayerTableRecord
  2
DEFAULT_1
 70
0
 62
7
  6
CENTER
370
-3
390
F
  0
LAYER
  5
1FB
100
AcDbSymbolTableRecord
100
AcDbLayerTableRecord
  2
DEFAULT_2
 70
0
 62
7
  6
HIDDEN
370
-3
390
F
  0
LAYER
  5
1FC
100
AcDbSymbolTableRecord
100
AcDbLayerTableRecord
  2
DEFAULT_3
 70
0
 62
7
  6
PHANTOM
370
-3
390
F
  0
LAYER
  5
1FD
100
AcDbSymbolTableRecord
100
AcDbLayerTableRecord
  2
ASSI
 70
0
 62
7
  6
CONTINUOUS
370
-3
390
F
  0
LAYER
  5
1FE
100
AcDbSymbolTableRecord
100
AcDbLayerTableRecord
  2
COORDINATE
 70
0
 62
7
  6
CONTINUOUS
370
-3
390
F
  0
LAYER
  5
1FF
100
AcDbSymbolTableRecord
100
AcDbLayerTableRecord
  2
COORD_ORIGINE
 70
0
 62
7
  6
CONTINUOUS
370
-3
390
F
  0
LAYER
  5
200
100
AcDbSymbolTableRecord
100
AcDbLayerTableRecord
  2
CURVE
 70
0
 62
7
  6
CONTINUOUS
370
-3
390
F
  0
LAYER
  5
201
100
AcDbSymbolTableRecord
100
AcDbLayerTableRecord
  2
CURVE_COSTR_MODELLO
 70
0
 62
7
  6
CONTINUOUS
370
-3
390
F
  0
LAYER
  5
202
100
AcDbSymbolTableRecord
100
AcDbLayerTableRecord
  2
CURVE_SKETCH
 70
0
 62
7
  6
CONTINUOUS
370
-3
390
F
  0
LAYER
  5
203
100
AcDbSymbolTableRecord
100
AcDbLayerTableRecord
  2
DRAFT
 70
0
 62
7
  6
CONTINUOUS
370
-3
390
F
  0
LAYER
  5
204
100
AcDbSymbolTableRecord
100
AcDbLayerTableRecord
  2
IGES
 70
0
 62
7
  6
CONTINUOUS
370
-3
390
F
  0
LAYER
  5
205
100
AcDbSymbolTableRecord
100
AcDbLayerTableRecord
  2
INTF_6
 70
0
 62
7
  6
CONTINUOUS
370
-3
390
F
  0
LAYER
  5
206
100
AcDbSymbolTableRecord
100
AcDbLayerTableRecord
  2
NOTE
 70
0
 62
7
  6
CONTINUOUS
370
-3
390
F
  0
LAYER
  5
207
100
AcDbSymbolTableRecord
100
AcDbLayerTableRecord
  2
PIANI
 70
0
 62
7
  6
CONTINUOUS
370
-3
390
F
  0
LAYER
  5
208
100
AcDbSymbolTableRecord
100
AcDbLayerTableRecord
  2
PIANI_ORIGINE
 70
0
 62
7
  6
CONTINUOUS
370
-3
390
F
  0
LAYER
  5
209
100
AcDbSymbolTableRecord
100
AcDbLayerTableRecord
  2
PIANI_RIFERIMENTO
 70
0
 62
7
  6
CONTINUOUS
370
-3
390
F
  0
LAYER
  5
20A
100
AcDbSymbolTableRecord
100
AcDbLayerTableRecord
  2
PIANI_SFORMO
 70
0
 62
7
  6
CONTINUOUS
370
-3
390
F
  0
LAYER
  5
20B
100
AcDbSymbolTableRecord
100
AcDbLayerTableRecord
  2
PUNTI
 70
0
 62
7
  6
CONTINUOUS
370
-3
390
F
  0
LAYER
  5
20C
100
AcDbSymbolTableRecord
100
AcDbLayerTableRecord
  2
RACCORDO
 70
0
 62
7
  6
CONTINUOUS
370
-3
390
F
  0
LAYER
  5
20D
100
AcDbSymbolTableRecord
100
AcDbLayerTableRecord
  2
SMUSSO
 70
0
 62
7
  6
CONTINUOUS
370
-3
390
F
  0
LAYER
  5
20E
100
AcDbSymbolTableRecord
100
AcDbLayerTableRecord
  2
SNAPLINE
 70
0
 62
7
  6
CONTINUOUS
370
-3
390
F
  0
LAYER
  5
20F
100
AcDbSymbolTableRecord
100
AcDbLayerTableRecord
  2
SOLIDO
 70
0
 62
7
  6
CONTINUOUS
370
-3
390
F
  0
LAYER
  5
210
100
AcDbSymbolTableRecord
100
AcDbLayerTableRecord
  2
SUPERFICI
 70
0
 62
7
  6
CONTINUOUS
370
-3
390
F
  0
LAYER
  5
211
100
AcDbSymbolTableRecord
100
AcDbLayerTableRecord
  2
TRASH
 70
0
 62
7
  6
CONTINUOUS
370
-3
390
F
  0
LAYER
  5
212
100
AcDbSymbolTableRecord
100
AcDbLayerTableRecord
  2
XSEC_DATUMS
 70
0
 62
7
  6
CONTINUOUS
370
-3
390
F
  0
ENDTAB
  0
TABLE
  2
STYLE
  5
3
100
AcDbSymbolTable
 70
1
  0
STYLE
  5
11
100
AcDbSymbolTableRecord
100
AcDbTextStyleTableRecord
  2
STANDARD
 70
0
 40
0.0
 41
0.8
 50
0.0
 71
0
 42
0.2
  3
txt
  4

  0
STYLE
  5
213
100
AcDbSymbolTableRecord
100
AcDbTextStyleTableRecord
  2
TEXTSTYLE_1
 70
0
 40
0.0
 41
0.8
 50
0.0
 71
0
 42
0.2
  3
gdt
  4

  0
ENDTAB
  0
TABLE
  2
VIEW
  5
6
100
AcDbSymbolTable
 70
0
  0
ENDTAB
  0
TABLE
  2
UCS
  5
7
100
AcDbSymbolTable
 70
0
  0
ENDTAB
  0
TABLE
  2
APPID
  5
9
100
AcDbSymbolTable
 70
1
  0
APPID
  5
214
100
AcDbSymbolTableRecord
100
AcDbRegAppTableRecord
  2
ACAD
 70
0
  0
ENDTAB
  0
TABLE
  2
BLOCK_RECORD
  5
1
100
AcDbSymbolTable
 70
0
  0
BLOCK_RECORD
  5
215
100
AcDbSymbolTableRecord
100
AcDbBlockTableRecord
  2
*Model_Space
  0
BLOCK_RECORD
  5
216
100
AcDbSymbolTableRecord
100
AcDbBlockTableRecord
  2
*Paper_Space
  0
BLOCK_RECORD
  5
217
100
AcDbSymbolTableRecord
100
AcDbBlockTableRecord
  2
_FILLED
  0
BLOCK_RECORD
  5
218
100
AcDbSymbolTableRecord
100
AcDbBlockTableRecord
  2
*D0
  0
BLOCK_RECORD
  5
219
100
AcDbSymbolTableRecord
100
AcDbBlockTableRecord
  2
*D1
  0
BLOCK_RECORD
  5
21A
100
AcDbSymbolTableRecord
100
AcDbBlockTableRecord
  2
*D2
  0
BLOCK_RECORD
  5
21B
100
AcDbSymbolTableRecord
100
AcDbBlockTableRecord
  2
*D3
  0
ENDTAB
  0
TABLE
  2
DIMSTYLE
  5
A
100
AcDbSymbolTable
 70
1
100
AcDbDimStyleTable
 71
0
  0
DIMSTYLE
105
21C
100
AcDbSymbolTableRecord
100
AcDbDimStyleTableRecord
  2
STANDARD
 70
0
  3

  4

 40
1.0
 41
3.0
 42
0.5
 43
0.38
 44
1.5
 45
0.0
 46
0.0
 47
0.01
 48
0.01
140
3.0
141
0.09
142
0.0
143
25.4
144
1.0
145
0.0
146
1.0
147
0.625
 71
1.0
 72
0.0
 73
0
 74
0
 75
0
 76
0
 77
1
 78
8
170
0
171
2
172
0
173
0
174
0
175
0
176
0
177
0
178
0
270
2
271
2
272
2
273
2
274
2
275
0
280
0
281
0
282
0
283
1
284
8
285
0
286
0
287
3
288
0
340
11
278
44
341
217
342
217
343
217
344
217
  0
DIMSTYLE
105
21D
100
AcDbSymbolTableRecord
100
AcDbDimStyleTableRecord
  2
DIMSTYLE_1
 70
0
  3

  4

 40
1.0
 41
3.0
 42
0.5
 43
0.38
 44
1.5
 45
0.0
 46
0.0
 47
0.0
 48
0.0
140
3.0
141
0.09
142
0.0
143
25.4
144
1.0
145
0.0
146
1.0
147
0.75
 71
0.0
 72
0.0
 73
0
 74
0
 75
0
 76
0
 77
1
 78
8
170
0
171
2
172
0
173
0
174
0
175
0
176
0
177
0
178
0
270
2
271
2
272
2
273
2
274
2
275
0
280
0
281
0
282
0
283
1
284
8
285
0
286
0
287
3
288
0
340
11
278
44
341
217
342
217
343
217
344
217
  0
ENDTAB
  0
ENDSEC
  0
SECTION
  2
BLOCKS
  0
BLOCK
  5
20
100
AcDbEntity
  8
0
100
AcDbBlockBegin
  2
*Model_Space
 70
0
 10
0.0
 20
0.0
 30
0.0
  3
*Model_Space
  1

  0
ENDBLK
  5
21
100
AcDbEntity
  8
0
100
AcDbBlockEnd
  0
BLOCK
  5
1C
100
AcDbEntity
  8
0
100
AcDbBlockBegin
  2
*Paper_Space
 70
0
 10
0.0
 20
0.0
 30
0.0
  3
*Paper_Space
  1

  0
ENDBLK
  5
1D
100
AcDbEntity
  8
0
100
AcDbBlockEnd
  0
BLOCK
  5
21E
100
AcDbEntity
  8
0
100
AcDbBlockBegin
  2
_FILLED
 70
64
 10
0.0
 20
0.0
  3
_FILLED
  1

  0
SOLID
  5
21F
100
AcDbEntity
  8
0
  6
BYBLOCK
 62
0
100
AcDbTrace
 10
0.0
 20
0.0
 11
-1.0
 21
0.3166666667
 12
-1.0
 22
-0.3166666667
 13
-1.0
 23
-0.3166666667
  0
ENDBLK
  5
220
100
AcDbEntity
  8
0
  6
BYBLOCK
 62
0
100
AcDbBlockEnd
  0
BLOCK
  5
221
100
AcDbEntity
  8
0
100
AcDbBlockBegin
 62
7
  6
CONTINUOUS
  2
*D0
 70
65
 10
0.0
 20
0.0
  3
*D0
  1

  0
MTEXT
  5
222
100
AcDbEntity
  8
0
100
AcDbMText
 62
7
  6
CONTINUOUS
  7
STANDARD
 71
2
 72
1
 10
7.7906523845
 20
37.0767968296
 30
0.0
 11
1.0
 21
0.0
 31
0.0
 44
0.9
  1
39
 40
3.0
 41
6.75
  0
LINE
  5
223
100
AcDbEntity
  8
0
100
AcDbLine
 62
7
  6
CONTINUOUS
 10
-11.7093476155
 20
21.564381111
 11
-11.7093476155
 21
34.8267968296
  0
LINE
  5
224
100
AcDbEntity
  8
0
100
AcDbLine
 62
7
  6
CONTINUOUS
 10
27.2906523845
 20
16.7888391296
 11
27.2906523845
 21
34.8267968296
  0
LINE
  5
225
100
AcDbEntity
  8
0
100
AcDbLine
 62
7
  6
CONTINUOUS
 10
-11.7093476155
 20
33.3267968296
 11
7.7906523845
 21
33.3267968296
  0
LINE
  5
226
100
AcDbEntity
  8
0
100
AcDbLine
 62
7
  6
CONTINUOUS
 10
27.2906523845
 20
33.3267968296
 11
7.7906523845
 21
33.3267968296
  0
INSERT
  5
227
100
AcDbEntity
  8
0
100
AcDbBlockReference
 62
7
  6
CONTINUOUS
  2
_FILLED
 10
-11.7093476155
 20
33.3267968296
 41
3.0
 42
3.0
 43
3.0
 50
180.0
  0
INSERT
  5
228
100
AcDbEntity
  8
0
100
AcDbBlockReference
 62
7
  6
CONTINUOUS
  2
_FILLED
 10
27.2906523845
 20
33.3267968296
 41
3.0
 42
3.0
 43
3.0
  0
ENDBLK
  5
229
100
AcDbEntity
  8
0
  6
BYBLOCK
 62
0
100
AcDbBlockEnd
  0
BLOCK
  5
22A
100
AcDbEntity
  8
0
100
AcDbBlockBegin
 62
7
  6
CONTINUOUS
  2
*D1
 70
65
 10
0.0
 20
0.0
  3
*D1
  1

  0
MTEXT
  5
22B
100
AcDbEntity
  8
0
100
AcDbMText
 62
7
  6
CONTINUOUS
  7
STANDARD
 71
2
 72
1
 10
-1.9593476155
 20
47.0767968296
 30
0.0
 11
1.0
 21
0.0
 31
0.0
 44
0.9
  1
58,5
 40
3.0
 41
12.5357142857
  0
LINE
  5
22C
100
AcDbEntity
  8
0
100
AcDbLine
 62
7
  6
CONTINUOUS
 10
27.2906523845
 20
16.7888391296
 11
27.2906523845
 21
44.8267968296
  0
LINE
  5
22D
100
AcDbEntity
  8
0
100
AcDbLine
 62
7
  6
CONTINUOUS
 10
-31.2093476155
 20
-0.3267968296
 11
-31.2093476155
 21
44.8267968296
  0
LINE
  5
22E
100
AcDbEntity
  8
0
100
AcDbLine
 62
7
  6
CONTINUOUS
 10
27.2906523845
 20
43.3267968296
 11
-1.9593476155
 21
43.3267968296
  0
LINE
  5
22F
100
AcDbEntity
  8
0
100
AcDbLine
 62
7
  6
CONTINUOUS
 10
-31.2093476155
 20
43.3267968296
 11
-1.9593476155
 21
43.3267968296
  0
INSERT
  5
230
100
AcDbEntity
  8
0
100
AcDbBlockReference
 62
7
  6
CONTINUOUS
  2
_FILLED
 10
27.2906523845
 20
43.3267968296
 41
3.0
 42
3.0
 43
3.0
  0
INSERT
  5
231
100
AcDbEntity
  8
0
100
AcDbBlockReference
 62
7
  6
CONTINUOUS
  2
_FILLED
 10
-31.2093476155
 20
43.3267968296
 41
3.0
 42
3.0
 43
3.0
 50
180.0
  0
ENDBLK
  5
232
100
AcDbEntity
  8
0
  6
BYBLOCK
 62
0
100
AcDbBlockEnd
  0
BLOCK
  5
233
100
AcDbEntity
  8
0
100
AcDbBlockBegin
 62
7
  6
CONTINUOUS
  2
*D2
 70
65
 10
0.0
 20
0.0
  3
*D2
  1

  0
MTEXT
  5
234
100
AcDbEntity
  8
0
100
AcDbMText
 62
7
  6
CONTINUOUS
  7
STANDARD
 71
2
 72
1
 10
53.9900645435
 20
37.0767968296
 30
0.0
 11
1.0
 21
0.0
 31
0.0
 44
0.9
  1
22,3
 40
3.0
 41
12.8571428571
  0
LINE
  5
235
100
AcDbEntity
  8
0
100
AcDbLine
 62
7
  6
CONTINUOUS
 10
42.8400645435
 20
21.564381111
 11
42.8400645435
 21
34.8267968296
  0
LINE
  5
236
100
AcDbEntity
  8
0
100
AcDbLine
 62
7
  6
CONTINUOUS
 10
65.1400645435
 20
21.564381111
 11
65.1400645435
 21
34.8267968296
  0
LINE
  5
237
100
AcDbEntity
  8
0
100
AcDbLine
 62
7
  6
CONTINUOUS
 10
42.8400645435
 20
33.3267968296
 11
53.9900645435
 21
33.3267968296
  0
LINE
  5
238
100
AcDbEntity
  8
0
100
AcDbLine
 62
7
  6
CONTINUOUS
 10
65.1400645435
 20
33.3267968296
 11
53.9900645435
 21
33.3267968296
  0
INSERT
  5
239
100
AcDbEntity
  8
0
100
AcDbBlockReference
 62
7
  6
CONTINUOUS
  2
_FILLED
 10
42.8400645435
 20
33.3267968296
 41
3.0
 42
3.0
 43
3.0
 50
180.0
  0
INSERT
  5
23A
100
AcDbEntity
  8
0
100
AcDbBlockReference
 62
7
  6
CONTINUOUS
  2
_FILLED
 10
65.1400645435
 20
33.3267968296
 41
3.0
 42
3.0
 43
3.0
  0
ENDBLK
  5
23B
100
AcDbEntity
  8
0
  6
BYBLOCK
 62
0
100
AcDbBlockEnd
  0
BLOCK
  5
23C
100
AcDbEntity
  8
0
100
AcDbBlockBegin
 62
7
  6
CONTINUOUS
  2
*D3
 70
65
 10
0.0
 20
0.0
  3
*D3
  1

  0
MTEXT
  5
23D
100
AcDbEntity
  8
0
100
AcDbMText
 62
7
  6
CONTINUOUS
  7
STANDARD
 71
2
 72
1
 10
73.2400645435
 20
-0.8267968296
 30
0.0
 11
0.0
 21
1.0
 31
0.0
 44
0.9
  1
49
 40
3.0
 41
7.0714285714
  0
LINE
  5
23E
100
AcDbEntity
  8
0
100
AcDbLine
 62
7
  6
CONTINUOUS
 10
64.8900687743
 20
23.6732031704
 11
78.4900645435
 21
23.6732031704
  0
LINE
  5
23F
100
AcDbEntity
  8
0
100
AcDbLine
 62
7
  6
CONTINUOUS
 10
64.8900687743
 20
-25.3267968296
 11
78.4900645435
 21
-25.3267968296
  0
LINE
  5
240
100
AcDbEntity
  8
0
100
AcDbLine
 62
7
  6
CONTINUOUS
 10
76.9900645435
 20
23.6732031704
 11
76.9900645435
 21
-0.8267968296
  0
LINE
  5
241
100
AcDbEntity
  8
0
100
AcDbLine
 62
7
  6
CONTINUOUS
 10
76.9900645435
 20
-25.3267968296
 11
76.9900645435
 21
-0.8267968296
  0
INSERT
  5
242
100
AcDbEntity
  8
0
100
AcDbBlockReference
 62
7
  6
CONTINUOUS
  2
_FILLED
 10
76.9900645435
 20
23.6732031704
 41
3.0
 42
3.0
 43
3.0
 50
90.0
  0
INSERT
  5
243
100
AcDbEntity
  8
0
100
AcDbBlockReference
 62
7
  6
CONTINUOUS
  2
_FILLED
 10
76.9900645435
 20
-25.3267968296
 41
3.0
 42
3.0
 43
3.0
 50
270.0
  0
ENDBLK
  5
244
100
AcDbEntity
  8
0
  6
BYBLOCK
 62
0
100
AcDbBlockEnd
  0
ENDSEC
  0
SECTION
  2
ENTITIES
  0
DIMENSION
  5
245
100
AcDbEntity
  8
0
100
AcDbDimension
 62
7
  6
CONTINUOUS
  2
*D0
 10
27.2906523845
 20
33.3267968296
 11
7.3620811258
 21
33.3267968296
 70
160
 71
2
 42
39.0
  3
DIMSTYLE_1
100
AcDbAlignedDimension
 13
-11.7093476155
 23
21.064381111
 14
27.2906523845
 24
16.2888391296
100
AcDbRotatedDimension
  0
DIMENSION
  5
246
100
AcDbEntity
  8
0
100
AcDbDimension
 62
7
  6
CONTINUOUS
  2
*D1
 10
-31.2093476155
 20
43.3267968296
 11
-2.3879190031
 21
43.3267968296
 70
160
 71
2
 42
58.5
  3
DIMSTYLE_1
100
AcDbAlignedDimension
 13
27.2906523845
 23
16.2888391296
 14
-31.2093476155
 24
-0.8267968296
 50
180.0
100
AcDbRotatedDimension
  0
DIMENSION
  5
247
100
AcDbEntity
  8
0
100
AcDbDimension
 62
7
  6
CONTINUOUS
  2
*D2
 10
65.1400645435
 20
33.3267968296
 11
53.5614928757
 21
33.3267968296
 70
160
 71
2
 42
22.3
  3
DIMSTYLE_1
100
AcDbAlignedDimension
 13
42.8400645435
 23
21.064381111
 14
65.1400645435
 24
21.064381111
100
AcDbRotatedDimension
  0
DIMENSION
  5
248
100
AcDbEntity
  8
0
100
AcDbDimension
 62
7
  6
CONTINUOUS
  2
*D3
 10
76.9900645435
 20
-25.3267968296
 11
76.9900645435
 21
-1.2553697423
 70
160
 71
2
 42
49.0
  3
DIMSTYLE_1
100
AcDbAlignedDimension
 13
64.3900687743
 23
23.6732031704
 14
64.3900687743
 24
-25.3267968296
 50
270.0
100
AcDbRotatedDimension
  0
LINE
  5
249
100
AcDbEntity
  8
RACCORDO
100
AcDbLine
 62
253
  6
CONTINUOUS
 10
-30.8657982584
 20
-7.2383408474
 11
-30.8657982584
 21
5.5847471883
  0
LINE
  5
24A
100
AcDbEntity
  8
RACCORDO
100
AcDbLine
 62
253
  6
CONTINUOUS
 10
-30.4035394065
 20
-7.6836933391
 11
-30.4035394065
 21
6.0300996799
  0
LINE
  5
24B
100
AcDbEntity
  8
RACCORDO
100
AcDbLine
 62
253
  6
CONTINUOUS
 10
-11.9578931826
 20
-24.6711343969
 11
-12.7093476155
 21
-24.2372819778
  0
LINE
  5
24C
100
AcDbEntity
  8
RACCORDO
100
AcDbLine
 62
7
  6
CONTINUOUS
 10
-11.8343476155
 20
-24.4546280459
 11
-12.7093476155
 21
-23.9494465604
  0
LINE
  5
24D
100
AcDbEntity
  8
RACCORDO
100
AcDbLine
 62
7
  6
CONTINUOUS
 10
-13.9608020483
 20
-24.0937841277
 11
-14.1777780665
 21
-23.9680873998
  0
LINE
  5
24E
100
AcDbEntity
  8
RACCORDO
100
AcDbLine
 62
7
  6
CONTINUOUS
 10
-14.1777780665
 20
-23.9680873998
 11
-14.2040252361
 21
-23.9526993831
  0
LWPOLYLINE
  5
24F
100
AcDbEntity
  8
RACCORDO
100
AcDbPolyline
 62
7
  6
CONTINUOUS
 90
5
 70
0
 10
-14.2040252361
 20
-23.9526993831
 10
-14.2063413606
 20
-23.9513132621
 10
-14.2080042448
 20
-23.9502901801
 10
-14.2090102782
 20
-23.9496609903
 10
-14.2093476155
 20
-23.9494465604
  0
LWPOLYLINE
  5
250
100
AcDbEntity
  8
RACCORDO
100
AcDbPolyline
 62
253
  6
CONTINUOUS
 90
5
 70
0
 10
-15.081852013
 20
22.8058797547
 10
-15.0829843891
 20
22.8037889622
 10
-15.0837790746
 20
22.8022819923
 10
-15.0842338974
 20
22.8013629639
 10
-15.0843476155
 20
22.8010343868
  0
LINE
  5
251
100
AcDbEntity
  8
RACCORDO
100
AcDbLine
 62
253
  6
CONTINUOUS
 10
-15.0785874627
 20
22.8117884076
 11
-15.081852013
 21
22.8058797547
  0
LINE
  5
252
100
AcDbEntity
  8
RACCORDO
100
AcDbLine
 62
253
  6
CONTINUOUS
 10
-15.0712646052
 20
22.82483665
 11
-15.0785874627
 21
22.8117884076
  0
LINE
  5
253
100
AcDbEntity
  8
RACCORDO
100
AcDbLine
 62
253
  6
CONTINUOUS
 10
-15.0486273496
 20
22.8646825746
 11
-15.0712646052
 21
22.82483665
  0
LINE
  5
254
100
AcDbEntity
  8
RACCORDO
100
AcDbLine
 62
253
  6
CONTINUOUS
 10
-14.9738234845
 20
22.9949724614
 11
-15.0486273496
 21
22.8646825746
  0
LINE
  5
255
100
AcDbEntity
  8
RACCORDO
100
AcDbLine
 62
253
  6
CONTINUOUS
 10
-14.9608020483
 20
23.0175407377
 11
-14.9738234845
 21
22.9949724614
  0
LWPOLYLINE
  5
256
100
AcDbEntity
  8
RACCORDO
100
AcDbPolyline
 62
7
  6
CONTINUOUS
 90
3
 70
0
 10
-14.2093476155
 20
22.2958529012
 10
-14.209008111
 20
22.2961064786
 10
-14.2079967406
 20
22.2967318774
  0
LINE
  5
257
100
AcDbEntity
  8
RACCORDO
100
AcDbLine
 62
7
  6
CONTINUOUS
 10
-14.2079967406
 20
22.2967318774
 11
-14.2010536175
 21
22.3008642496
  0
LINE
  5
258
100
AcDbEntity
  8
RACCORDO
100
AcDbLine
 62
7
  6
CONTINUOUS
 10
-14.2010536175
 20
22.3008642496
 11
-14.1501731658
 21
22.3305656899
  0
LINE
  5
259
100
AcDbEntity
  8
RACCORDO
100
AcDbLine
 62
253
  6
CONTINUOUS
 10
-12.7093476155
 20
22.5836883187
 11
-11.9578931826
 21
23.0175407377
  0
LINE
  5
25A
100
AcDbEntity
  8
RACCORDO
100
AcDbLine
 62
7
  6
CONTINUOUS
 10
-12.7093476155
 20
22.2958529012
 11
-11.7093476155
 21
22.8732031704
  0
LINE
  5
25B
100
AcDbEntity
  8
RACCORDO
100
AcDbLine
 62
7
  6
CONTINUOUS
 10
-14.1501731658
 20
22.3305656899
 11
-13.9608020483
 21
22.4401904685
  0
LINE
  5
25C
100
AcDbEntity
  8
RACCORDO
100
AcDbLine
 62
7
  6
CONTINUOUS
 10
-11.9578931826
 20
-25.3224249956
 11
-12.7093476155
 21
-25.3267968296
  0
LINE
  5
25D
100
AcDbEntity
  8
RACCORDO
100
AcDbLine
 62
253
  6
CONTINUOUS
 10
-11.9578931826
 20
-25.0724292263
 11
-12.7093476155
 21
-25.0768010603
  0
LINE
  5
25E
100
AcDbEntity
  8
ASSI
100
AcDbLine
 62
7
  6
CONTINUOUS
 10
-11.7144389838
 20
-24.6210086205
 11
-5.2064387498
 21
-24.5831461827
  0
LINE
  5
25F
100
AcDbEntity
  8
RACCORDO
100
AcDbLine
 62
253
  6
CONTINUOUS
 10
-11.7093476155
 20
-25.0724292263
 11
-11.9578931826
 21
-25.0724292263
  0
LINE
  5
260
100
AcDbEntity
  8
RACCORDO
100
AcDbLine
 62
253
  6
CONTINUOUS
 10
-15.2093476155
 20
-25.0637024816
 11
-14.9608020483
 21
-25.0637024816
  0
LINE
  5
261
100
AcDbEntity
  8
RACCORDO
100
AcDbLine
 62
253
  6
CONTINUOUS
 10
-15.2093476155
 20
-24.6711343969
 11
-14.9608020483
 21
-24.6711343969
  0
LINE
  5
262
100
AcDbEntity
  8
RACCORDO
100
AcDbLine
 62
253
  6
CONTINUOUS
 10
-11.7093476155
 20
-24.6711343969
 11
-11.9578931826
 21
-24.6711343969
  0
LINE
  5
263
100
AcDbEntity
  8
RACCORDO
100
AcDbLine
 62
7
  6
CONTINUOUS
 10
-12.7093476155
 20
-25.3267968296
 11
-14.9608020483
 21
-25.3136982508
  0
LINE
  5
264
100
AcDbEntity
  8
RACCORDO
100
AcDbLine
 62
253
  6
CONTINUOUS
 10
-12.7093476155
 20
-25.0768010603
 11
-14.9608020483
 21
-25.0637024816
  0
LINE
  5
265
100
AcDbEntity
  8
RACCORDO
100
AcDbLine
 62
7
  6
CONTINUOUS
 10
-14.0848907575
 20
-23.1547076682
 11
-14.0657085796
 21
-23.1556051853
  0
LINE
  5
266
100
AcDbEntity
  8
RACCORDO
100
AcDbLine
 62
7
  6
CONTINUOUS
 10
-13.9932141408
 20
-23.1586162159
 11
-13.9716344377
 21
-23.1596503038
  0
LINE
  5
267
100
AcDbEntity
  8
RACCORDO
100
AcDbLine
 62
7
  6
CONTINUOUS
 10
-14.0848907575
 20
-23.1547076682
 11
-20.3661265044
 21
-22.8255220515
  0
LINE
  5
268
100
AcDbEntity
  8
RACCORDO
100
AcDbLine
 62
7
  6
CONTINUOUS
 10
-12.7093476155
 20
-23.2265049067
 11
-13.9716344377
 21
-23.1596503038
  0
LINE
  5
269
100
AcDbEntity
  8
RACCORDO
100
AcDbLine
 62
253
  6
CONTINUOUS
 10
-14.9608020483
 20
-24.6711343969
 11
-15.0439424654
 21
-24.5264813037
  0
LINE
  5
26A
100
AcDbEntity
  8
RACCORDO
100
AcDbLine
 62
253
  6
CONTINUOUS
 10
-15.0439424654
 20
-24.5264813037
 11
-15.0682058399
 21
-24.4838438865
  0
LINE
  5
26B
100
AcDbEntity
  8
RACCORDO
100
AcDbLine
 62
253
  6
CONTINUOUS
 10
-15.0682058399
 20
-24.4838438865
 11
-15.0764657735
 21
-24.4691809872
  0
LWPOLYLINE
  5
26C
100
AcDbEntity
  8
RACCORDO
100
AcDbPolyline
 62
253
  6
CONTINUOUS
 90
7
 70
0
 10
-15.0764657735
 20
-24.4691809872
 10
-15.0803858309
 20
-24.4621408855
 10
-15.0818525185
 20
-24.4594724882
 10
-15.0829846708
 20
-24.4573820953
 10
-15.0837791962
 20
-24.4558754153
 10
-15.084233925
 20
-24.4549565624
 10
-15.0843476155
 20
-24.4546280459
  0
LWPOLYLINE
  5
26D
100
AcDbEntity
  8
RACCORDO
100
AcDbPolyline
 62
253
  6
CONTINUOUS
 90
43
 70
0
 10
-21.2955027852
 20
-21.3687026861
 10
-21.2934322736
 20
-21.4038610058
 10
-21.2901387173
 20
-21.4388449305
 10
-21.2856221164
 20
-21.4736544603
 10
-21.2798738429
 20
-21.5083340221
 10
-21.2729025248
 20
-21.5428391888
 10
-21.2647340456
 20
-21.5770366799
 10
-21.2553639417
 20
-21.6109238084
 10
-21.2447966769
 20
-21.6445032613
 10
-21.2330715258
 20
-21.6776498187
 10
-21.2201842771
 20
-21.7103614945
 10
-21.2061391422
 20
-21.7426402747
 10
-21.1909880303
 20
-21.7743668978
 10
-21.1747268446
 20
-21.8055393901
 10
-21.1573596819
 20
-21.8361597252
 10
-21.1389507408
 20
-21.8661145625
 10
-21.1194960818
 20
-21.895401535
 10
-21.0989996445
 20
-21.9240230097
 10
-21.0775374463
 20
-21.9518727461
 10
-21.0551059651
 20
-21.9789477918
 10
-21.0317087231
 20
-22.0052510992
 10
-21.0074323042
 20
-22.0306852858
 10
-20.9822734457
 20
-22.0552471452
 10
-20.9562354104
 20
-22.0789398838
 10
-20.9294145706
 20
-22.1016757381
 10
-20.901807917
 20
-22.1234512235
 10
-20.8734184588
 20
-22.1442698245
 10
-20.8443515969
 20
-22.1640542309
 10
-20.8146049277
 20
-22.1828005186
 10
-20.7841808547
 20
-22.2005126118
 10
-20.7531919888
 20
-22.2171249728
 10
-20.7216362983
 20
-22.2326335257
 10
-20.6895158148
 20
-22.2470423465
 10
-20.6569492451
 20
-22.2602981253
 10
-20.6239345559
 20
-22.2723966746
 10
-20.5904737803
 20
-22.2833421819
 10
-20.5566917239
 20
-22.2930939003
 10
-20.5225861875
 20
-22.3016473534
 10
-20.4881593702
 20
-22.3090070175
 10
-20.4535426754
 20
-22.3151455745
 10
-20.4187799043
 20
-22.3200539182
 10
-20.3838272556
 20
-22.3237411548
 10
-20.3486847295
 20
-22.3262072842
  0
LINE
  5
26E
100
AcDbEntity
  8
0
100
AcDbLine
 62
7
  6
CONTINUOUS
 10
-23.7093476155
 20
6.4982031704
 11
-23.7093476155
 21
-8.1517968296
  0
LINE
  5
26F
100
AcDbEntity
  8
RACCORDO
100
AcDbLine
 62
253
  6
CONTINUOUS
 10
-23.4302745643
 20
-8.1714944885
 11
-23.4302745643
 21
6.5179008293
  0
LWPOLYLINE
  5
270
100
AcDbEntity
  8
RACCORDO
100
AcDbPolyline
 62
253
  6
CONTINUOUS
 90
22
 70
0
 10
-21.2955027852
 20
19.7151090269
 10
-21.3721523743
 20
17.759638259
 10
-21.441138595
 20
15.8039421611
 10
-21.5024614473
 20
13.8480207333
 10
-21.5561216384
 20
11.8918439129
 10
-21.6021184611
 20
9.9354417626
 10
-21.6404497938
 20
7.97890447
 10
-21.671115282
 20
6.0222320657
 10
-21.6941152801
 20
4.0654245191
 10
-21.7094487295
 20
2.1085719267
 10
-21.7171152773
 20
0.1516742899
 10
-21.7171152765
 20
-1.8052683927
 10
-21.7094487269
 20
-3.7621660293
 10
-21.6941152757
 20
-5.7190186215
 10
-21.6711152758
 20
-7.6758261678
 10
-21.6404497859
 20
-9.6324985718
 10
-21.6021184509
 20
-11.5890358804
 10
-21.5561216259
 20
-13.5454380468
 10
-21.5024614344
 20
-15.5016148342
 10
-21.4411385844
 20
-17.4575361638
 10
-21.372152368
 20
-19.4132321144
 10
-21.2955027852
 20
-21.3687026861
  0
LINE
  5
271
100
AcDbEntity
  8
DRAFT
100
AcDbLine
 62
7
  6
CONTINUOUS
 10
-11.7093476155
 20
-21.6767968296
 11
-1.7093476155
 21
-21.5022461803
  0
LINE
  5
272
100
AcDbEntity
  8
ASSI
100
AcDbLine
 62
7
  6
CONTINUOUS
 10
-11.7093476155
 20
-21.6767968296
 11
-1.7093476155
 21
-21.5022461803
  0
LINE
  5
273
100
AcDbEntity
  8
RACCORDO
100
AcDbLine
 62
7
  6
CONTINUOUS
 10
-2.70062108
 20
-23.1394519963
 11
-12.7093476155
 21
-23.2267968296
  0
LINE
  5
274
100
AcDbEntity
  8
RACCORDO
100
AcDbLine
 62
253
  6
CONTINUOUS
 10
-12.7071612865
 20
-22.7266825581
 11
-11.7093476155
 21
-22.7179747702
  0
LINE
  5
275
100
AcDbEntity
  8
RACCORDO
100
AcDbLine
 62
7
  6
CONTINUOUS
 10
-1.7093476155
 20
-21.8227923753
 11
-11.5095608553
 21
-21.73726721
  0
LINE
  5
276
100
AcDbEntity
  8
RACCORDO
100
AcDbLine
 62
7
  6
CONTINUOUS
 10
-2.2006214123
 20
-22.3927722628
 11
-11.7093476155
 21
-22.2267968296
  0
LINE
  5
277
100
AcDbEntity
  8
RACCORDO
100
AcDbLine
 62
7
  6
CONTINUOUS
 10
-14.0657085796
 20
-23.1556051853
 11
-13.9932141408
 21
-23.1586162159
  0
LINE
  5
278
100
AcDbEntity
  8
RACCORDO
100
AcDbLine
 62
253
  6
CONTINUOUS
 10
-20.3486847295
 20
-22.3262072842
 11
-12.7071612865
 21
-22.7266825581
  0
LINE
  5
279
100
AcDbEntity
  8
DRAFT
100
AcDbLine
 62
7
  6
CONTINUOUS
 10
-11.5095608553
 20
-21.73726721
 11
-11.7093476155
 21
-21.7267968296
  0
LINE
  5
27A
100
AcDbEntity
  8
RACCORDO
100
AcDbLine
 62
253
  6
CONTINUOUS
 10
-20.3486847295
 20
20.672613625
 11
-20.3556976236
 21
20.8132073018
  0
LINE
  5
27B
100
AcDbEntity
  8
RACCORDO
100
AcDbLine
 62
253
  6
CONTINUOUS
 10
-20.3556976236
 20
20.8132073018
 11
-20.3605900769
 21
20.9221393881
  0
LINE
  5
27C
100
AcDbEntity
  8
RACCORDO
100
AcDbLine
 62
253
  6
CONTINUOUS
 10
-20.3605900769
 20
20.9221393881
 11
-20.3636786802
 21
20.999438644
  0
LINE
  5
27D
100
AcDbEntity
  8
RACCORDO
100
AcDbLine
 62
253
  6
CONTINUOUS
 10
-20.3636786802
 20
20.999438644
 11
-20.3654381434
 21
21.0498077066
  0
LINE
  5
27E
100
AcDbEntity
  8
RACCORDO
100
AcDbLine
 62
253
  6
CONTINUOUS
 10
-20.3654381434
 20
21.0498077066
 11
-20.3663250729
 21
21.0791831656
  0
LINE
  5
27F
100
AcDbEntity
  8
RACCORDO
100
AcDbLine
 62
253
  6
CONTINUOUS
 10
-20.3663250729
 20
21.0791831656
 11
-20.3669735002
 21
21.1048809458
  0
LWPOLYLINE
  5
280
100
AcDbEntity
  8
RACCORDO
100
AcDbPolyline
 62
253
  6
CONTINUOUS
 90
11
 70
0
 10
-20.3669735002
 20
21.1048809458
 10
-20.3673775599
 20
21.1266685938
 10
-20.3674867223
 20
21.1360330969
 10
-20.3675335969
 20
21.1443490258
 10
-20.3675180777
 20
21.1515975642
 10
-20.3674401998
 20
21.1577623107
 10
-20.3673001394
 20
21.1628293164
 10
-20.3670982135
 20
21.1667871163
 10
-20.3668348788
 20
21.169626755
 10
-20.3665107313
 20
21.1713418072
 10
-20.3661265044
 20
21.1719283924
  0
LWPOLYLINE
  5
281
100
AcDbEntity
  8
RACCORDO
100
AcDbPolyline
 62
253
  6
CONTINUOUS
 90
10
 70
0
 10
-20.3673775599
 20
-22.7802622741
 10
-20.3674867221
 20
-22.7896267733
 10
-20.3675335967
 20
-22.7979426985
 10
-20.3675180774
 20
-22.8051912335
 10
-20.3674401995
 20
-22.811355977
 10
-20.3673001391
 20
-22.8164229803
 10
-20.3670982131
 20
-22.8203807781
 10
-20.3668348785
 20
-22.8232204153
 10
-20.3665107311
 20
-22.8249354667
 10
-20.3661265044
 20
-22.8255220515
  0
LINE
  5
282
100
AcDbEntity
  8
RACCORDO
100
AcDbLine
 62
253
  6
CONTINUOUS
 10
-20.3669735005
 20
-22.7584746346
 11
-20.3673775599
 21
-22.7802622741
  0
LINE
  5
283
100
AcDbEntity
  8
RACCORDO
100
AcDbLine
 62
253
  6
CONTINUOUS
 10
-20.3663250736
 20
-22.7327768628
 11
-20.3669735005
 21
-22.7584746346
  0
LINE
  5
284
100
AcDbEntity
  8
RACCORDO
100
AcDbLine
 62
253
  6
CONTINUOUS
 10
-20.3649076664
 20
-22.6874163576
 11
-20.3663250736
 21
-22.7327768628
  0
LINE
  5
285
100
AcDbEntity
  8
RACCORDO
100
AcDbLine
 62
253
  6
CONTINUOUS
 10
-20.3629829562
 20
-22.6347112117
 11
-20.3649076664
 21
-22.6874163576
  0
LINE
  5
286
100
AcDbEntity
  8
RACCORDO
100
AcDbLine
 62
253
  6
CONTINUOUS
 10
-20.3596965696
 20
-22.5548838006
 11
-20.3629829562
 21
-22.6347112117
  0
LINE
  5
287
100
AcDbEntity
  8
RACCORDO
100
AcDbLine
 62
253
  6
CONTINUOUS
 10
-20.3546029759
 20
-22.4438580967
 11
-20.3596965696
 21
-22.5548838006
  0
LINE
  5
288
100
AcDbEntity
  8
RACCORDO
100
AcDbLine
 62
253
  6
CONTINUOUS
 10
-20.3486847295
 20
-22.3262072842
 11
-20.3546029759
 21
-22.4438580967
  0
LWPOLYLINE
  5
289
100
AcDbEntity
  8
RACCORDO
100
AcDbPolyline
 62
7
  6
CONTINUOUS
 90
11
 70
0
 10
-12.7094955884
 20
21.5728943691
 10
-12.7099098339
 20
21.5716769102
 10
-12.7102868093
 20
21.5695304744
 10
-12.7106258169
 20
21.5664541955
 10
-12.7109206691
 20
21.5624441366
 10
-12.7111761114
 20
21.5575058605
 10
-12.7114077779
 20
21.5516642469
 10
-12.7116198051
 20
21.5449399762
 10
-12.7118064645
 20
21.5373452341
 10
-12.7119685485
 20
21.5289055281
 10
-12.7122154256
 20
21.5096092941
  0
LINE
  5
28A
100
AcDbEntity
  8
RACCORDO
100
AcDbLine
 62
253
  6
CONTINUOUS
 10
-21.7858006486
 20
-21.3892254927
 11
-21.7863533129
 21
-21.3892651431
  0
LINE
  5
28B
100
AcDbEntity
  8
RACCORDO
100
AcDbLine
 62
253
  6
CONTINUOUS
 10
-21.7813825114
 20
-21.3890099872
 11
-21.7858006486
 21
-21.3892254927
  0
LINE
  5
28C
100
AcDbEntity
  8
RACCORDO
100
AcDbLine
 62
253
  6
CONTINUOUS
 10
-21.2955027852
 20
-21.3687026861
 11
-21.7813825114
 21
-21.3890099872
  0
LINE
  5
28D
100
AcDbEntity
  8
RACCORDO
100
AcDbLine
 62
7
  6
CONTINUOUS
 10
26.308104791
 20
-19.9487295476
 11
-1.7093476155
 21
-20.4377759984
  0
LINE
  5
28E
100
AcDbEntity
  8
ASSI
100
AcDbLine
 62
7
  6
CONTINUOUS
 10
26.308104791
 20
-19.9487295476
 11
-1.7093476155
 21
-20.4377759984
  0
LINE
  5
28F
100
AcDbEntity
  8
RACCORDO
100
AcDbLine
 62
253
  6
CONTINUOUS
 10
26.308104791
 20
-19.6558809378
 11
-1.7093476155
 21
-20.1449273887
  0
LINE
  5
290
100
AcDbEntity
  8
ASSI
100
AcDbLine
 62
253
  6
CONTINUOUS
 10
26.308104791
 20
-19.6558809378
 11
-1.7093476155
 21
-20.1449273887
  0
LINE
  5
291
100
AcDbEntity
  8
RACCORDO
100
AcDbLine
 62
253
  6
CONTINUOUS
 10
-11.7093476155
 20
-19.9124940491
 11
26.308104791
 21
-19.6376231302
  0
LINE
  5
292
100
AcDbEntity
  8
ASSI
100
AcDbLine
 62
253
  6
CONTINUOUS
 10
-11.7093476155
 20
-19.9124940491
 11
26.308104791
 21
-19.6376231302
  0
LINE
  5
293
100
AcDbEntity
  8
RACCORDO
100
AcDbLine
 62
253
  6
CONTINUOUS
 10
-11.7093476155
 20
-18.4984958783
 11
26.308104791
 21
-18.2236249594
  0
LINE
  5
294
100
AcDbEntity
  8
ASSI
100
AcDbLine
 62
253
  6
CONTINUOUS
 10
-11.7093476155
 20
-18.4984958783
 11
26.308104791
 21
-18.2236249594
  0
LWPOLYLINE
  5
295
100
AcDbEntity
  8
RACCORDO
100
AcDbPolyline
 62
253
  6
CONTINUOUS
 90
6
 70
0
 10
-14.9608020483
 20
-25.3136982508
 10
-14.9608761701
 20
-25.3133552123
 10
-14.9609461023
 20
-25.3123279224
 10
-14.9610116535
 20
-25.3106191968
 10
-14.9610726438
 20
-25.3082337189
 10
-14.9611289061
 20
-25.3051780267
  0
LINE
  5
296
100
AcDbEntity
  8
CURVE
100
AcDbLine
 62
7
  6
CONTINUOUS
 10
-9.6089069313
 20
14.4675725354
 11
-9.3060494113
 21
14.7704300554
  0
LINE
  5
297
100
AcDbEntity
  8
CURVE
100
AcDbLine
 62
7
  6
CONTINUOUS
 10
-9.6089069313
 20
14.2700069007
 11
-9.0031918918
 21
14.8757219402
  0
LINE
  5
298
100
AcDbEntity
  8
CURVE
100
AcDbLine
 62
7
  6
CONTINUOUS
 10
-9.6089069313
 20
14.0724412661
 11
-8.7003343724
 21
14.9810138249
  0
LINE
  5
299
100
AcDbEntity
  8
CURVE
100
AcDbLine
 62
7
  6
CONTINUOUS
 10
-9.5712952873
 20
13.9124872754
 11
-8.397476853
 21
15.0863057097
  0
LINE
  5
29A
100
AcDbEntity
  8
CURVE
100
AcDbLine
 62
7
  6
CONTINUOUS
 10
-9.4261957951
 20
13.8600211329
 11
-9.0188837958
 21
14.2673331322
  0
LINE
  5
29B
100
AcDbEntity
  8
CURVE
100
AcDbLine
 62
7
  6
CONTINUOUS
 10
-8.9837807279
 20
14.3024362001
 11
-8.0946193336
 21
15.1915975944
  0
LINE
  5
29C
100
AcDbEntity
  8
CURVE
100
AcDbLine
 62
7
  6
CONTINUOUS
 10
-9.2810963028
 20
13.8075549905
 11
-8.8719145657
 21
14.2167367276
  0
LINE
  5
29D
100
AcDbEntity
  8
CURVE
100
AcDbLine
 62
7
  6
CONTINUOUS
 10
-8.6926371724
 20
14.3960141209
 11
-7.7917618142
 21
15.2968894792
  0
LINE
  5
29E
100
AcDbEntity
  8
CURVE
100
AcDbLine
 62
7
  6
CONTINUOUS
 10
-9.1359968106
 20
13.7550888481
 11
-8.7249453356
 21
14.1661403231
  0
LINE
  5
29F
100
AcDbEntity
  8
CURVE
100
AcDbLine
 62
7
  6
CONTINUOUS
 10
-8.401493617
 20
14.4895920417
 11
-7.4889042948
 21
15.4021813639
  0
LINE
  5
2A0
100
AcDbEntity
  8
CURVE
100
AcDbLine
 62
7
  6
CONTINUOUS
 10
-8.9908973184
 20
13.7026227057
 11
-8.5779761055
 21
14.1155439185
  0
LINE
  5
2A1
100
AcDbEntity
  8
CURVE
100
AcDbLine
 62
7
  6
CONTINUOUS
 10
-8.1103500616
 20
14.5831699625
 11
-7.1860467754
 21
15.5074732487
  0
LINE
  5
2A2
100
AcDbEntity
  8
CURVE
100
AcDbLine
 62
7
  6
CONTINUOUS
 10
-8.8457978261
 20
13.6501565632
 11
-8.4310068754
 21
14.0649475139
  0
LINE
  5
2A3
100
AcDbEntity
  8
CURVE
100
AcDbLine
 62
7
  6
CONTINUOUS
 10
-7.8192065061
 20
14.6767478832
 11
-6.8831892559
 21
15.6127651334
  0
LINE
  5
2A4
100
AcDbEntity
  8
CURVE
100
AcDbLine
 62
7
  6
CONTINUOUS
 10
-8.7006983339
 20
13.5976904208
 11
-8.2840376453
 21
14.0143511093
  0
LINE
  5
2A5
100
AcDbEntity
  8
CURVE
100
AcDbLine
 62
7
  6
CONTINUOUS
 10
-7.8057526023
 20
14.4926361524
 11
-6.7093476155
 21
15.5890411392
  0
LINE
  5
2A6
100
AcDbEntity
  8
CURVE
100
AcDbLine
 62
253
  6
CONTINUOUS
 10
-6.7093476155
 20
15.6732031704
 11
-9.6089069313
 21
14.6651381704
  0
LINE
  5
2A7
100
AcDbEntity
  8
CURVE
100
AcDbLine
 62
253
  6
CONTINUOUS
 10
-7.323893003
 20
14.8377871704
 11
-6.7093476155
 21
15.0467771704
  0
LINE
  5
2A8
100
AcDbEntity
  8
CURVE
100
AcDbLine
 62
253
  6
CONTINUOUS
 10
-9.0546673575
 20
14.2796521704
 11
-7.8057526023
 21
14.6810721704
  0
LINE
  5
2A9
100
AcDbEntity
  8
RACCORDO
100
AcDbLine
 62
7
  6
CONTINUOUS
 10
26.308104791
 20
-16.84110269
 11
-0.4593476155
 21
-16.9662959534
  0
LINE
  5
2AA
100
AcDbEntity
  8
ASSI
100
AcDbLine
 62
7
  6
CONTINUOUS
 10
26.308104791
 20
-16.84110269
 11
-0.4593476155
 21
-16.9662959534
  0
LINE
  5
2AB
100
AcDbEntity
  8
RACCORDO
100
AcDbLine
 62
7
  6
CONTINUOUS
 10
25.7906523845
 20
-16.3267968296
 11
24.2906523845
 21
-16.3320328386
  0
LINE
  5
2AC
100
AcDbEntity
  8
ASSI
100
AcDbLine
 62
7
  6
CONTINUOUS
 10
25.7906523845
 20
-16.3267968296
 11
24.2906523845
 21
-16.3320328386
  0
LINE
  5
2AD
100
AcDbEntity
  8
RACCORDO
100
AcDbLine
 62
7
  6
CONTINUOUS
 10
25.7906523845
 20
-16.5767968296
 11
-0.4593476155
 21
-16.6381787055
  0
LINE
  5
2AE
100
AcDbEntity
  8
ASSI
100
AcDbLine
 62
7
  6
CONTINUOUS
 10
25.7906523845
 20
-16.5767968296
 11
-0.4593476155
 21
-16.6381787055
  0
LINE
  5
2AF
100
AcDbEntity
  8
RACCORDO
100
AcDbLine
 62
253
  6
CONTINUOUS
 10
27.2906523845
 20
-18.2236249594
 11
26.308104791
 21
-18.2236249572
  0
LINE
  5
2B0
100
AcDbEntity
  8
ASSI
100
AcDbLine
 62
253
  6
CONTINUOUS
 10
27.2906523845
 20
-18.2236249594
 11
26.308104791
 21
-18.2236249572
  0
LINE
  5
2B1
100
AcDbEntity
  8
RACCORDO
100
AcDbLine
 62
7
  6
CONTINUOUS
 10
27.2906523845
 20
-16.5767968296
 11
25.7906523845
 21
-16.5767968296
  0
LINE
  5
2B2
100
AcDbEntity
  8
ASSI
100
AcDbLine
 62
7
  6
CONTINUOUS
 10
27.2906523845
 20
-16.5767968296
 11
25.7906523845
 21
-16.5767968296
  0
LWPOLYLINE
  5
2B3
100
AcDbEntity
  8
RACCORDO
100
AcDbPolyline
 62
7
  6
CONTINUOUS
 90
34
 70
0
 10
-0.4593476155
 20
-16.9662959534
 10
-0.5697424046
 20
-16.9611776536
 10
-0.6771872758
 20
-16.9461880641
 10
-0.7816822293
 20
-16.9213271849
 10
-0.8840525165
 20
-16.8862311754
 10
-0.9834728859
 20
-16.8412638761
 10
-1.0774675828
 20
-16.7875168094
 10
-1.166039274
 20
-16.7246285896
 10
-1.2491852927
 20
-16.6529606022
 10
-1.3244218842
 20
-16.5746885265
 10
-1.3913713633
 20
-16.4898662607
 10
-1.4504114151
 20
-16.3984399065
 10
-1.500191341
 20
-16.3024234488
 10
-1.5405974703
 20
-16.2013480042
 10
-1.5717434735
 20
-16.0956824561
 10
-1.5926196632
 20
-15.98884744
 10
-1.6028894767
 20
-15.8812035224
 10
-1.6028894767
 20
-15.7723901367
 10
-1.5926196632
 20
-15.6647462191
 10
-1.5717434735
 20
-15.557911203
 10
-1.5405974703
 20
-15.4522456549
 10
-1.500191341
 20
-15.3511702103
 10
-1.4504114151
 20
-15.2551537526
 10
-1.3913713633
 20
-15.1637273985
 10
-1.3244218842
 20
-15.0789051326
 10
-1.2491852927
 20
-15.0006330569
 10
-1.166039274
 20
-14.9289650696
 10
-1.0774675828
 20
-14.8660768497
 10
-0.9834728859
 20
-14.812329783
 10
-0.8840525165
 20
-14.7673624838
 10
-0.7816822293
 20
-14.7322664742
 10
-0.6771872758
 20
-14.707405595
 10
-0.5697424046
 20
-14.6924160056
 10
-0.4593476155
 20
-14.6872977058
  0
LWPOLYLINE
  5
2B4
100
AcDbEntity
  8
ASSI
100
AcDbPolyline
 62
7
  6
CONTINUOUS
 90
34
 70
0
 10
-0.4593476155
 20
-16.9662959534
 10
-0.5697424046
 20
-16.9611776536
 10
-0.6771872758
 20
-16.9461880641
 10
-0.7816822293
 20
-16.9213271849
 10
-0.8840525165
 20
-16.8862311754
 10
-0.9834728859
 20
-16.8412638761
 10
-1.0774675828
 20
-16.7875168094
 10
-1.166039274
 20
-16.7246285896
 10
-1.2491852927
 20
-16.6529606022
 10
-1.3244218842
 20
-16.5746885265
 10
-1.3913713633
 20
-16.4898662607
 10
-1.4504114151
 20
-16.3984399065
 10
-1.500191341
 20
-16.3024234488
 10
-1.5405974703
 20
-16.2013480042
 10
-1.5717434735
 20
-16.0956824561
 10
-1.5926196632
 20
-15.98884744
 10
-1.6028894767
 20
-15.8812035224
 10
-1.6028894767
 20
-15.7723901367
 10
-1.5926196632
 20
-15.6647462191
 10
-1.5717434735
 20
-15.557911203
 10
-1.5405974703
 20
-15.4522456549
 10
-1.500191341
 20
-15.3511702103
 10
-1.4504114151
 20
-15.2551537526
 10
-1.3913713633
 20
-15.1637273985
 10
-1.3244218842
 20
-15.0789051326
 10
-1.2491852927
 20
-15.0006330569
 10
-1.166039274
 20
-14.9289650696
 10
-1.0774675828
 20
-14.8660768497
 10
-0.9834728859
 20
-14.812329783
 10
-0.8840525165
 20
-14.7673624838
 10
-0.7816822293
 20
-14.7322664742
 10
-0.6771872758
 20
-14.707405595
 10
-0.5697424046
 20
-14.6924160056
 10
-0.4593476155
 20
-14.6872977058
  0
LINE
  5
2B5
100
AcDbEntity
  8
CURVE
100
AcDbLine
 62
253
  6
CONTINUOUS
 10
-9.1090439104
 20
-14.9645108296
 11
-7.1124510475
 21
-15.6056358296
  0
LINE
  5
2B6
100
AcDbEntity
  8
CURVE
100
AcDbLine
 62
253
  6
CONTINUOUS
 10
-6.2093546144
 20
-15.3156208296
 11
-9.1090439104
 21
-14.3844818296
  0
LWPOLYLINE
  5
2B7
100
AcDbEntity
  8
RACCORDO
100
AcDbPolyline
 62
7
  6
CONTINUOUS
 90
11
 70
0
 10
-12.7121050555
 20
-23.1732501156
 10
-12.7119685485
 20
-23.1824991872
 10
-12.7118064645
 20
-23.1909388932
 10
-12.7116198051
 20
-23.1985336353
 10
-12.7114077779
 20
-23.2052579061
 10
-12.7111761114
 20
-23.2110995196
 10
-12.7109206691
 20
-23.2160377957
 10
-12.7106258169
 20
-23.2200478547
 10
-12.7102868093
 20
-23.2231241335
 10
-12.7099098339
 20
-23.2252705693
 10
-12.7094955884
 20
-23.2264880282
  0
LINE
  5
2B8
100
AcDbEntity
  8
RACCORDO
100
AcDbLine
 62
253
  6
CONTINUOUS
 10
-14.9611289061
 20
-25.3051780267
 11
-14.9612266434
 21
-25.2970913138
  0
LINE
  5
2B9
100
AcDbEntity
  8
RACCORDO
100
AcDbLine
 62
253
  6
CONTINUOUS
 10
-14.9612266434
 20
-25.2970913138
 11
-14.9613343771
 21
-25.2802023482
  0
LINE
  5
2BA
100
AcDbEntity
  8
RACCORDO
100
AcDbLine
 62
253
  6
CONTINUOUS
 10
-14.9608020483
 20
23.4101088225
 11
-14.9613931922
 21
23.5674334083
  0
LINE
  5
2BB
100
AcDbEntity
  8
RACCORDO
100
AcDbLine
 62
7
  6
CONTINUOUS
 10
-15.2093476155
 20
-25.0637024816
 11
-15.2093476155
 21
-24.6711343969
  0
LINE
  5
2BC
100
AcDbEntity
  8
RACCORDO
100
AcDbLine
 62
7
  6
CONTINUOUS
 10
-15.2093476155
 20
23.0175407377
 11
-15.2093476155
 21
23.4101088225
  0
LINE
  5
2BD
100
AcDbEntity
  8
RACCORDO
100
AcDbLine
 62
253
  6
CONTINUOUS
 10
-14.9608020483
 20
-25.0637024816
 11
-14.9608020483
 21
-24.6711343969
  0
LINE
  5
2BE
100
AcDbEntity
  8
RACCORDO
100
AcDbLine
 62
253
  6
CONTINUOUS
 10
-14.9608020483
 20
23.0175407377
 11
-14.9608020483
 21
23.4101088225
  0
LINE
  5
2BF
100
AcDbEntity
  8
RACCORDO
100
AcDbLine
 62
7
  6
CONTINUOUS
 10
-14.2093476155
 20
-23.9494465604
 11
-14.2093476155
 21
-23.1481851606
  0
LINE
  5
2C0
100
AcDbEntity
  8
RACCORDO
100
AcDbLine
 62
7
  6
CONTINUOUS
 10
-14.2093476155
 20
21.4945915015
 11
-14.2093476155
 21
22.2958529012
  0
LINE
  5
2C1
100
AcDbEntity
  8
RACCORDO
100
AcDbLine
 62
253
  6
CONTINUOUS
 10
-13.9608020483
 20
-24.0937841277
 11
-13.9608020483
 21
-23.160207791
  0
LINE
  5
2C2
100
AcDbEntity
  8
RACCORDO
100
AcDbLine
 62
253
  6
CONTINUOUS
 10
-13.9608020483
 20
21.5066141318
 11
-13.9608020483
 21
22.4401904685
  0
LINE
  5
2C3
100
AcDbEntity
  8
RACCORDO
100
AcDbLine
 62
253
  6
CONTINUOUS
 10
-14.9613343771
 20
-25.2802023482
 11
-14.9614016406
 21
-25.2309793679
  0
LINE
  5
2C4
100
AcDbEntity
  8
RACCORDO
100
AcDbLine
 62
253
  6
CONTINUOUS
 10
-14.9613931922
 20
23.5674334083
 11
-14.9613595143
 21
23.6197699977
  0
LINE
  5
2C5
100
AcDbEntity
  8
RACCORDO
100
AcDbLine
 62
253
  6
CONTINUOUS
 10
-14.9614016406
 20
-25.2309793679
 11
-14.9609461023
 21
-25.0898335942
  0
LINE
  5
2C6
100
AcDbEntity
  8
RACCORDO
100
AcDbLine
 62
253
  6
CONTINUOUS
 10
-14.9609461023
 20
-25.0898335942
 11
-14.9608020483
 21
-25.0637024816
  0
LINE
  5
2C7
100
AcDbEntity
  8
RACCORDO
100
AcDbLine
 62
253
  6
CONTINUOUS
 10
-14.9613595143
 20
23.6197699977
 11
-14.9612678504
 21
23.6384887982
  0
LWPOLYLINE
  5
2C8
100
AcDbEntity
  8
RACCORDO
100
AcDbPolyline
 62
253
  6
CONTINUOUS
 90
8
 70
0
 10
-14.9612678504
 20
23.6384887982
 10
-14.9611802862
 20
23.6478668361
 10
-14.9611289061
 20
23.6515843675
 10
-14.9610726438
 20
23.6546400597
 10
-14.9610116535
 20
23.6570255377
 10
-14.9609461023
 20
23.6587342633
 10
-14.9608761701
 20
23.6597615531
 10
-14.9608020483
 20
23.6601045917
  0
LINE
  5
2C9
100
AcDbEntity
  8
CURVE
100
AcDbLine
 62
7
  6
CONTINUOUS
 10
-9.6089069313
 20
12.4919161887
 11
-9.5164219496
 21
12.5844011704
  0
LINE
  5
2CA
100
AcDbEntity
  8
CURVE
100
AcDbLine
 62
7
  6
CONTINUOUS
 10
-8.5555988416
 20
13.5452242784
 11
-8.1370684152
 21
13.9637547048
  0
LINE
  5
2CB
100
AcDbEntity
  8
CURVE
100
AcDbLine
 62
7
  6
CONTINUOUS
 10
-7.8057526023
 20
14.2950705178
 11
-7.323893003
 21
14.776930117
  0
LINE
  5
2CC
100
AcDbEntity
  8
CURVE
100
AcDbLine
 62
7
  6
CONTINUOUS
 10
-7.2316752132
 20
14.8691479068
 11
-6.7093476155
 21
15.3914755045
  0
LINE
  5
2CD
100
AcDbEntity
  8
CURVE
100
AcDbLine
 62
7
  6
CONTINUOUS
 10
-9.6089069313
 20
12.2943505541
 11
-9.3188563149
 21
12.5844011704
  0
LINE
  5
2CE
100
AcDbEntity
  8
CURVE
100
AcDbLine
 62
7
  6
CONTINUOUS
 10
-8.4104993494
 20
13.4927581359
 11
-7.9900991852
 21
13.9131583002
  0
LINE
  5
2CF
100
AcDbEntity
  8
CURVE
100
AcDbLine
 62
7
  6
CONTINUOUS
 10
-7.8057526023
 20
14.0975048831
 11
-7.323893003
 21
14.5793644824
  0
LINE
  5
2D0
100
AcDbEntity
  8
CURVE
100
AcDbLine
 62
7
  6
CONTINUOUS
 10
-6.9323004465
 20
14.9709570388
 11
-6.7093476155
 21
15.1939098699
  0
LINE
  5
2D1
100
AcDbEntity
  8
CURVE
100
AcDbLine
 62
7
  6
CONTINUOUS
 10
-9.6089069313
 20
12.0967849194
 11
-9.1212906803
 21
12.5844011704
  0
LINE
  5
2D2
100
AcDbEntity
  8
CURVE
100
AcDbLine
 62
7
  6
CONTINUOUS
 10
-8.2653998572
 20
13.4402919935
 11
-7.8431299551
 21
13.8625618956
  0
LINE
  5
2D3
100
AcDbEntity
  8
CURVE
100
AcDbLine
 62
7
  6
CONTINUOUS
 10
-7.8057526023
 20
13.8999392484
 11
-7.323893003
 21
14.3817988477
  0
LINE
  5
2D4
100
AcDbEntity
  8
CURVE
100
AcDbLine
 62
7
  6
CONTINUOUS
 10
-9.5061690456
 20
12.0019571704
 11
-8.9237250456
 21
12.5844011704
  0
LINE
  5
2D5
100
AcDbEntity
  8
CURVE
100
AcDbLine
 62
7
  6
CONTINUOUS
 10
-8.1203003649
 20
13.3878258511
 11
-7.323893003
 21
14.1842332131
  0
LINE
  5
2D6
100
AcDbEntity
  8
CURVE
100
AcDbLine
 62
7
  6
CONTINUOUS
 10
-9.3086034109
 20
12.0019571704
 11
-8.7261594109
 21
12.5844011704
  0
LINE
  5
2D7
100
AcDbEntity
  8
CURVE
100
AcDbLine
 62
7
  6
CONTINUOUS
 10
-7.9752008727
 20
13.3353597087
 11
-7.323893003
 21
13.9866675784
  0
LINE
  5
2D8
100
AcDbEntity
  8
CURVE
100
AcDbLine
 62
7
  6
CONTINUOUS
 10
-9.1110377763
 20
12.0019571704
 11
-8.5285937763
 21
12.5844011704
  0
LINE
  5
2D9
100
AcDbEntity
  8
CURVE
100
AcDbLine
 62
7
  6
CONTINUOUS
 10
-7.8301013805
 20
13.2828935662
 11
-7.323893003
 21
13.7891019437
  0
LINE
  5
2DA
100
AcDbEntity
  8
CURVE
100
AcDbLine
 62
7
  6
CONTINUOUS
 10
-8.9134721416
 20
12.0019571704
 11
-8.3310281416
 21
12.5844011704
  0
LINE
  5
2DB
100
AcDbEntity
  8
CURVE
100
AcDbLine
 62
7
  6
CONTINUOUS
 10
-7.6850018882
 20
13.2304274238
 11
-7.2518233612
 21
13.6636059508
  0
LINE
  5
2DC
100
AcDbEntity
  8
CURVE
100
AcDbLine
 62
7
  6
CONTINUOUS
 10
-8.7159065069
 20
12.0019571704
 11
-8.1334625069
 21
12.5844011704
  0
LINE
  5
2DD
100
AcDbEntity
  8
CURVE
100
AcDbLine
 62
7
  6
CONTINUOUS
 10
-7.539902396
 20
13.1779612814
 11
-7.1058068839
 21
13.6120567935
  0
LINE
  5
2DE
100
AcDbEntity
  8
CURVE
100
AcDbLine
 62
7
  6
CONTINUOUS
 10
-8.5183408723
 20
12.0019571704
 11
-7.9358968723
 21
12.5844011704
  0
LINE
  5
2DF
100
AcDbEntity
  8
CURVE
100
AcDbLine
 62
7
  6
CONTINUOUS
 10
-7.3948029038
 20
13.125495139
 11
-6.9597904066
 21
13.5605076361
  0
LINE
  5
2E0
100
AcDbEntity
  8
CURVE
100
AcDbLine
 62
7
  6
CONTINUOUS
 10
-9.6089069313
 20
10.7138254768
 11
-9.2686155904
 21
11.0541168177
  0
LINE
  5
2E1
100
AcDbEntity
  8
CURVE
100
AcDbLine
 62
7
  6
CONTINUOUS
 10
-8.3207752376
 20
12.0019571704
 11
-7.7383312376
 21
12.5844011704
  0
LINE
  5
2E2
100
AcDbEntity
  8
CURVE
100
AcDbLine
 62
7
  6
CONTINUOUS
 10
-7.2497034115
 20
13.0730289965
 11
-6.8137739293
 21
13.5089584788
  0
LINE
  5
2E3
100
AcDbEntity
  8
CURVE
100
AcDbLine
 62
7
  6
CONTINUOUS
 10
-9.6089069313
 20
10.5162598421
 11
-8.885575816
 21
11.2395909574
  0
LINE
  5
2E4
100
AcDbEntity
  8
CURVE
100
AcDbLine
 62
7
  6
CONTINUOUS
 10
-8.1232096029
 20
12.0019571704
 11
-7.5407656029
 21
12.5844011704
  0
LINE
  5
2E5
100
AcDbEntity
  8
CURVE
100
AcDbLine
 62
7
  6
CONTINUOUS
 10
-7.1046039193
 20
13.0205628541
 11
-6.7093476155
 21
13.4158191579
  0
LINE
  5
2E6
100
AcDbEntity
  8
CURVE
100
AcDbLine
 62
7
  6
CONTINUOUS
 10
-9.6089069313
 20
10.3186942074
 11
-8.5025360416
 21
11.4250650971
  0
LINE
  5
2E7
100
AcDbEntity
  8
CURVE
100
AcDbLine
 62
7
  6
CONTINUOUS
 10
-7.9256439683
 20
12.0019571704
 11
-7.3431999683
 21
12.5844011704
  0
LINE
  5
2E8
100
AcDbEntity
  8
CURVE
100
AcDbLine
 62
7
  6
CONTINUOUS
 10
-6.959504427
 20
12.9680967117
 11
-6.7093476155
 21
13.2182535232
  0
LINE
  5
2E9
100
AcDbEntity
  8
CURVE
100
AcDbLine
 62
7
  6
CONTINUOUS
 10
-9.6089069313
 20
10.1211285728
 11
-8.1194962673
 21
11.6105392368
  0
LINE
  5
2EA
100
AcDbEntity
  8
CURVE
100
AcDbLine
 62
7
  6
CONTINUOUS
 10
-7.7280783336
 20
12.0019571704
 11
-7.1456343336
 21
12.5844011704
  0
LINE
  5
2EB
100
AcDbEntity
  8
CURVE
100
AcDbLine
 62
7
  6
CONTINUOUS
 10
-6.8144049348
 20
12.9156305693
 11
-6.7093476155
 21
13.0206878886
  0
LINE
  5
2EC
100
AcDbEntity
  8
CURVE
100
AcDbLine
 62
7
  6
CONTINUOUS
 10
-9.566941699
 20
9.9655281704
 11
-8.984496699
 21
10.5479731704
  0
LINE
  5
2ED
100
AcDbEntity
  8
CURVE
100
AcDbLine
 62
7
  6
CONTINUOUS
 10
-8.8473306391
 20
10.6851392303
 11
-7.7364564929
 21
11.7960133765
  0
LINE
  5
2EE
100
AcDbEntity
  8
CURVE
100
AcDbLine
 62
7
  6
CONTINUOUS
 10
-7.530512699
 20
12.0019571704
 11
-6.948068699
 21
12.5844011704
  0
LINE
  5
2EF
100
AcDbEntity
  8
CURVE
100
AcDbLine
 62
7
  6
CONTINUOUS
 10
-9.3693760643
 20
9.9655281704
 11
-8.7869310643
 21
10.5479731704
  0
LINE
  5
2F0
100
AcDbEntity
  8
CURVE
100
AcDbLine
 62
7
  6
CONTINUOUS
 10
-8.4709923437
 20
10.863911891
 11
-7.3534167186
 21
11.9814875162
  0
LINE
  5
2F1
100
AcDbEntity
  8
CURVE
100
AcDbLine
 62
7
  6
CONTINUOUS
 10
-7.3329470643
 20
12.0019571704
 11
-6.7505030643
 21
12.5844011704
  0
LINE
  5
2F2
100
AcDbEntity
  8
CURVE
100
AcDbLine
 62
7
  6
CONTINUOUS
 10
-9.1718104296
 20
9.9655281704
 11
-8.5893654296
 21
10.5479731704
  0
LINE
  5
2F3
100
AcDbEntity
  8
CURVE
100
AcDbLine
 62
7
  6
CONTINUOUS
 10
-8.0946540484
 20
11.0426845517
 11
-6.7093476155
 21
12.4279909846
  0
LINE
  5
2F4
100
AcDbEntity
  8
CURVE
100
AcDbLine
 62
7
  6
CONTINUOUS
 10
-8.974244795
 20
9.9655281704
 11
-8.391799795
 21
10.5479731704
  0
LINE
  5
2F5
100
AcDbEntity
  8
CURVE
100
AcDbLine
 62
7
  6
CONTINUOUS
 10
-7.7183157531
 20
11.2214572123
 11
-6.7093476155
 21
12.2304253499
  0
LINE
  5
2F6
100
AcDbEntity
  8
CURVE
100
AcDbLine
 62
7
  6
CONTINUOUS
 10
-8.7766791603
 20
9.9655281704
 11
-8.1942341603
 21
10.5479731704
  0
LINE
  5
2F7
100
AcDbEntity
  8
CURVE
100
AcDbLine
 62
7
  6
CONTINUOUS
 10
-7.3419774578
 20
11.400229873
 11
-6.7093476155
 21
12.0328597153
  0
LINE
  5
2F8
100
AcDbEntity
  8
CURVE
100
AcDbLine
 62
7
  6
CONTINUOUS
 10
-8.5791135256
 20
9.9655281704
 11
-7.9966685256
 21
10.5479731704
  0
LINE
  5
2F9
100
AcDbEntity
  8
CURVE
100
AcDbLine
 62
7
  6
CONTINUOUS
 10
-6.9656391624
 20
11.5790025336
 11
-6.7093476155
 21
11.8352940806
  0
LINE
  5
2FA
100
AcDbEntity
  8
CURVE
100
AcDbLine
 62
253
  6
CONTINUOUS
 10
-9.6089069313
 20
10.8893421704
 11
-7.3111429452
 21
12.0019571704
  0
LINE
  5
2FB
100
AcDbEntity
  8
CURVE
100
AcDbLine
 62
253
  6
CONTINUOUS
 10
-6.7093476155
 20
11.7007491704
 11
-9.1360819558
 21
10.5479731704
  0
LWPOLYLINE
  5
2FC
100
AcDbEntity
  8
RACCORDO
100
AcDbPolyline
 62
7
  6
CONTINUOUS
 90
31
 70
0
 10
-0.4593476155
 20
-15.0154149537
 10
-0.5457829975
 20
-15.0200782142
 10
-0.6294898693
 20
-15.033151921
 10
-0.710468231
 20
-15.054636074
 10
-0.7895307447
 20
-15.0849406743
 10
-0.8658647483
 20
-15.1236557209
 10
-0.9370322553
 20
-15.1695512104
 10
-1.0028883641
 20
-15.2228860271
 10
-1.0635779763
 20
-15.2834012867
 10
-1.1170978094
 20
-15.3490903336
 10
-1.1631880153
 20
-15.4200644312
 10
-1.2021084421
 20
-15.496212316
 10
-1.2326353517
 20
-15.5751935429
 10
-1.2545256506
 20
-15.6571724105
 10
-1.2680224322
 20
-15.74198462
 10
-1.272631239
 20
-15.8267968296
 10
-1.2680224322
 20
-15.9116090391
 10
-1.2545256506
 20
-15.9964212487
 10
-1.2326353517
 20
-16.0784001163
 10
-1.2021084421
 20
-16.1573813431
 10
-1.1631880153
 20
-16.233529228
 10
-1.1170978094
 20
-16.3045033255
 10
-1.0635779763
 20
-16.3701923724
 10
-1.0028883641
 20
-16.4307076321
 10
-0.9370322553
 20
-16.4840424487
 10
-0.8658647483
 20
-16.5299379382
 10
-0.7895307447
 20
-16.5686529848
 10
-0.710468231
 20
-16.5989575851
 10
-0.6294898693
 20
-16.6204417381
 10
-0.5457829975
 20
-16.6335154449
 10
-0.4593476155
 20
-16.6381787055
  0
LWPOLYLINE
  5
2FD
100
AcDbEntity
  8
ASSI
100
AcDbPolyline
 62
7
  6
CONTINUOUS
 90
31
 70
0
 10
-0.4593476155
 20
-15.0154149537
 10
-0.5457829975
 20
-15.0200782142
 10
-0.6294898693
 20
-15.033151921
 10
-0.710468231
 20
-15.054636074
 10
-0.7895307447
 20
-15.0849406743
 10
-0.8658647483
 20
-15.1236557209
 10
-0.9370322553
 20
-15.1695512104
 10
-1.0028883641
 20
-15.2228860271
 10
-1.0635779763
 20
-15.2834012867
 10
-1.1170978094
 20
-15.3490903336
 10
-1.1631880153
 20
-15.4200644312
 10
-1.2021084421
 20
-15.496212316
 10
-1.2326353517
 20
-15.5751935429
 10
-1.2545256506
 20
-15.6571724105
 10
-1.2680224322
 20
-15.74198462
 10
-1.272631239
 20
-15.8267968296
 10
-1.2680224322
 20
-15.9116090391
 10
-1.2545256506
 20
-15.9964212487
 10
-1.2326353517
 20
-16.0784001163
 10
-1.2021084421
 20
-16.1573813431
 10
-1.1631880153
 20
-16.233529228
 10
-1.1170978094
 20
-16.3045033255
 10
-1.0635779763
 20
-16.3701923724
 10
-1.0028883641
 20
-16.4307076321
 10
-0.9370322553
 20
-16.4840424487
 10
-0.8658647483
 20
-16.5299379382
 10
-0.7895307447
 20
-16.5686529848
 10
-0.710468231
 20
-16.5989575851
 10
-0.6294898693
 20
-16.6204417381
 10
-0.5457829975
 20
-16.6335154449
 10
-0.4593476155
 20
-16.6381787055
  0
LINE
  5
2FE
100
AcDbEntity
  8
RACCORDO
100
AcDbLine
 62
7
  6
CONTINUOUS
 10
25.7906523845
 20
-15.0767968296
 11
27.2906523845
 21
-15.0767968296
  0
LINE
  5
2FF
100
AcDbEntity
  8
ASSI
100
AcDbLine
 62
7
  6
CONTINUOUS
 10
25.7906523845
 20
-15.0767968296
 11
27.2906523845
 21
-15.0767968296
  0
LINE
  5
300
100
AcDbEntity
  8
CURVE
100
AcDbLine
 62
253
  6
CONTINUOUS
 10
-9.1090439104
 20
-13.9978028296
 11
-6.2093476155
 21
-13.9978108296
  0
LINE
  5
301
100
AcDbEntity
  8
CURVE
100
AcDbLine
 62
253
  6
CONTINUOUS
 10
-6.2093546144
 20
-13.4177888296
 11
-9.1090439104
 21
-13.4177818296
  0
LINE
  5
302
100
AcDbEntity
  8
RACCORDO
100
AcDbLine
 62
7
  6
CONTINUOUS
 10
25.7906523845
 20
-15.0767968296
 11
-0.4593476155
 21
-15.0154149537
  0
LINE
  5
303
100
AcDbEntity
  8
ASSI
100
AcDbLine
 62
7
  6
CONTINUOUS
 10
25.7906523845
 20
-15.0767968296
 11
-0.4593476155
 21
-15.0154149537
  0
LINE
  5
304
100
AcDbEntity
  8
RACCORDO
100
AcDbLine
 62
7
  6
CONTINUOUS
 10
26.308104791
 20
-14.8124909691
 11
-0.4593476155
 21
-14.6872977058
  0
LINE
  5
305
100
AcDbEntity
  8
ASSI
100
AcDbLine
 62
7
  6
CONTINUOUS
 10
26.308104791
 20
-14.8124909691
 11
-0.4593476155
 21
-14.6872977058
  0
LWPOLYLINE
  5
306
100
AcDbEntity
  8
RACCORDO
100
AcDbPolyline
 62
253
  6
CONTINUOUS
 90
6
 70
0
 10
-11.9575662646
 20
23.6603073174
 10
-11.9576225349
 20
23.6633643786
 10
-11.9576835354
 20
23.6657509213
 10
-11.9577490987
 20
23.6674604045
 10
-11.9578190451
 20
23.6684881474
 10
-11.9578931826
 20
23.6688313364
  0
LINE
  5
307
100
AcDbEntity
  8
RACCORDO
100
AcDbLine
 62
7
  6
CONTINUOUS
 10
-12.7095751726
 20
21.1960237102
 11
-12.7071612865
 21
21.073088899
  0
LINE
  5
308
100
AcDbEntity
  8
RACCORDO
100
AcDbLine
 62
7
  6
CONTINUOUS
 10
-12.7113258783
 20
21.3130745138
 11
-12.7095751726
 21
21.1960237102
  0
LINE
  5
309
100
AcDbEntity
  8
RACCORDO
100
AcDbLine
 62
253
  6
CONTINUOUS
 10
-11.9574685186
 20
23.6522170129
 11
-11.9575662646
 21
23.6603073174
  0
LINE
  5
30A
100
AcDbEntity
  8
RACCORDO
100
AcDbLine
 62
7
  6
CONTINUOUS
 10
-12.7120559689
 20
21.3845478046
 11
-12.7113258783
 21
21.3130745138
  0
LINE
  5
30B
100
AcDbEntity
  8
RACCORDO
100
AcDbLine
 62
7
  6
CONTINUOUS
 10
-12.7123011192
 20
-23.1523423806
 11
-12.7121050555
 21
-23.1732501156
  0
LINE
  5
30C
100
AcDbEntity
  8
RACCORDO
100
AcDbLine
 62
253
  6
CONTINUOUS
 10
-11.9573607913
 20
23.6353207299
 11
-11.9574685186
 21
23.6522170129
  0
LINE
  5
30D
100
AcDbEntity
  8
RACCORDO
100
AcDbLine
 62
7
  6
CONTINUOUS
 10
-12.7123872883
 20
21.4474142474
 11
-12.7120559689
 21
21.3845478046
  0
LINE
  5
30E
100
AcDbEntity
  8
RACCORDO
100
AcDbLine
 62
7
  6
CONTINUOUS
 10
-12.7123956806
 20
-23.1282343915
 11
-12.7123011192
 21
-23.1523423806
  0
LINE
  5
30F
100
AcDbEntity
  8
RACCORDO
100
AcDbLine
 62
253
  6
CONTINUOUS
 10
-11.9573020061
 20
-25.2297833376
 11
-11.9578931826
 21
-25.0724292263
  0
LINE
  5
310
100
AcDbEntity
  8
RACCORDO
100
AcDbLine
 62
7
  6
CONTINUOUS
 10
-12.7093476155
 20
-23.2264867975
 11
-12.7093476155
 21
-25.3267968296
  0
LINE
  5
311
100
AcDbEntity
  8
RACCORDO
100
AcDbLine
 62
7
  6
CONTINUOUS
 10
-12.7093476155
 20
21.5728931384
 11
-12.7093476155
 21
23.6732031704
  0
LINE
  5
312
100
AcDbEntity
  8
RACCORDO
100
AcDbLine
 62
253
  6
CONTINUOUS
 10
-11.9578931826
 20
23.4188355672
 11
-11.9578931826
 21
23.0175407377
  0
LINE
  5
313
100
AcDbEntity
  8
RACCORDO
100
AcDbLine
 62
253
  6
CONTINUOUS
 10
-11.9578931826
 20
-24.6711343969
 11
-11.9578931826
 21
-25.0724292263
  0
LINE
  5
314
100
AcDbEntity
  8
RACCORDO
100
AcDbLine
 62
7
  6
CONTINUOUS
 10
-11.7093476155
 20
23.4188355672
 11
-11.7093476155
 21
22.8732031704
  0
LINE
  5
315
100
AcDbEntity
  8
ASSI
100
AcDbLine
 62
7
  6
CONTINUOUS
 10
-11.7093476155
 20
16.8449022192
 11
-11.7093476155
 21
-18.4984958783
  0
LINE
  5
316
100
AcDbEntity
  8
RACCORDO
100
AcDbLine
 62
7
  6
CONTINUOUS
 10
-11.7093476155
 20
-24.6711343969
 11
-11.7093476155
 21
-25.0724292263
  0
LINE
  5
317
100
AcDbEntity
  8
RACCORDO
100
AcDbLine
 62
7
  6
CONTINUOUS
 10
-11.7093476155
 20
-23.2180699618
 11
-11.7093476155
 21
21.5644763026
  0
LINE
  5
318
100
AcDbEntity
  8
RACCORDO
100
AcDbLine
 62
253
  6
CONTINUOUS
 10
-11.9572936103
 20
23.586078144
 11
-11.9573607913
 21
23.6353207299
  0
LINE
  5
319
100
AcDbEntity
  8
RACCORDO
100
AcDbLine
 62
253
  6
CONTINUOUS
 10
-11.9573358092
 20
-25.2821198252
 11
-11.9573020061
 21
-25.2297833376
  0
LINE
  5
31A
100
AcDbEntity
  8
RACCORDO
100
AcDbLine
 62
7
  6
CONTINUOUS
 10
-12.7123615122
 20
21.4870839643
 11
-12.7123872883
 21
21.4474142474
  0
LINE
  5
31B
100
AcDbEntity
  8
RACCORDO
100
AcDbLine
 62
7
  6
CONTINUOUS
 10
-12.7123431163
 20
-23.0862615648
 11
-12.7123956806
 21
-23.1282343915
  0
LINE
  5
31C
100
AcDbEntity
  8
RACCORDO
100
AcDbLine
 62
253
  6
CONTINUOUS
 10
-11.9577494091
 20
23.4449128016
 11
-11.9572936103
 21
23.586078144
  0
LINE
  5
31D
100
AcDbEntity
  8
RACCORDO
100
AcDbLine
 62
253
  6
CONTINUOUS
 10
-11.9578931826
 20
23.4188355672
 11
-11.9577494091
 21
23.4449128016
  0
LINE
  5
31E
100
AcDbEntity
  8
RACCORDO
100
AcDbLine
 62
253
  6
CONTINUOUS
 10
-11.9574275608
 20
-25.3008340572
 11
-11.9573358092
 21
-25.2821198252
  0
LINE
  5
31F
100
AcDbEntity
  8
RACCORDO
100
AcDbLine
 62
7
  6
CONTINUOUS
 10
-12.7122154256
 20
21.5096092941
 11
-12.7123615122
 21
21.4870839643
  0
LINE
  5
320
100
AcDbEntity
  8
RACCORDO
100
AcDbLine
 62
7
  6
CONTINUOUS
 10
-12.7119098816
 20
-23.0209577421
 11
-12.7123431163
 21
-23.0862615648
  0
LINE
  5
321
100
AcDbEntity
  8
RACCORDO
100
AcDbLine
 62
7
  6
CONTINUOUS
 10
-12.7108239165
 20
-22.928693194
 11
-12.7119098816
 21
-23.0209577421
  0
LINE
  5
322
100
AcDbEntity
  8
RACCORDO
100
AcDbLine
 62
7
  6
CONTINUOUS
 10
-12.7088367672
 20
-22.8089590935
 11
-12.7108239165
 21
-22.928693194
  0
LINE
  5
323
100
AcDbEntity
  8
RACCORDO
100
AcDbLine
 62
7
  6
CONTINUOUS
 10
-12.7071612865
 20
-22.7266825581
 11
-12.7088367672
 21
-22.8089590935
  0
LINE
  5
324
100
AcDbEntity
  8
CURVE
100
AcDbLine
 62
7
  6
CONTINUOUS
 10
-8.381547891
 20
9.9655281704
 11
-7.799102891
 21
10.5479731704
  0
LINE
  5
325
100
AcDbEntity
  8
CURVE
100
AcDbLine
 62
7
  6
CONTINUOUS
 10
-9.6089069313
 20
8.5406034955
 11
-9.4563704772
 21
8.6931399496
  0
LINE
  5
326
100
AcDbEntity
  8
CURVE
100
AcDbLine
 62
7
  6
CONTINUOUS
 10
-8.1839822563
 20
9.9655281704
 11
-7.6015372563
 21
10.5479731704
  0
LINE
  5
327
100
AcDbEntity
  8
CURVE
100
AcDbLine
 62
7
  6
CONTINUOUS
 10
-9.6089069313
 20
8.3430378608
 11
-9.1534955041
 21
8.7984492879
  0
LINE
  5
328
100
AcDbEntity
  8
CURVE
100
AcDbLine
 62
7
  6
CONTINUOUS
 10
-7.9864166217
 20
9.9655281704
 11
-7.4039716217
 21
10.5479731704
  0
LINE
  5
329
100
AcDbEntity
  8
CURVE
100
AcDbLine
 62
7
  6
CONTINUOUS
 10
-9.6089069313
 20
8.1454722261
 11
-8.8506205311
 21
8.9037586263
  0
LINE
  5
32A
100
AcDbEntity
  8
CURVE
100
AcDbLine
 62
7
  6
CONTINUOUS
 10
-7.788850987
 20
9.9655281704
 11
-7.206405987
 21
10.5479731704
  0
LINE
  5
32B
100
AcDbEntity
  8
CURVE
100
AcDbLine
 62
7
  6
CONTINUOUS
 10
-9.6089069313
 20
7.9479065915
 11
-8.5477455581
 21
9.0090679646
  0
LINE
  5
32C
100
AcDbEntity
  8
CURVE
100
AcDbLine
 62
7
  6
CONTINUOUS
 10
-7.5912853523
 20
9.9655281704
 11
-7.0088403523
 21
10.5479731704
  0
LINE
  5
32D
100
AcDbEntity
  8
CURVE
100
AcDbLine
 62
7
  6
CONTINUOUS
 10
-9.4982159987
 20
7.8610318894
 11
-8.2448705851
 21
9.114377303
  0
LINE
  5
32E
100
AcDbEntity
  8
CURVE
100
AcDbLine
 62
7
  6
CONTINUOUS
 10
-7.3937197177
 20
9.9655281704
 11
-6.8112747177
 21
10.5479731704
  0
LINE
  5
32F
100
AcDbEntity
  8
CURVE
100
AcDbLine
 62
7
  6
CONTINUOUS
 10
-9.3531125003
 20
7.8085697531
 11
-8.9448655376
 21
8.2168167158
  0
LINE
  5
330
100
AcDbEntity
  8
CURVE
100
AcDbLine
 62
7
  6
CONTINUOUS
 10
-8.8369910651
 20
8.3246911884
 11
-7.9419956121
 21
9.2196866413
  0
LINE
  5
331
100
AcDbEntity
  8
CURVE
100
AcDbLine
 62
7
  6
CONTINUOUS
 10
-7.196154083
 20
9.9655281704
 11
-6.7093476155
 21
10.452334638
  0
LINE
  5
332
100
AcDbEntity
  8
CURVE
100
AcDbLine
 62
7
  6
CONTINUOUS
 10
-9.208009002
 20
7.7561076168
 11
-8.7978963556
 21
8.1662202632
  0
LINE
  5
333
100
AcDbEntity
  8
CURVE
100
AcDbLine
 62
7
  6
CONTINUOUS
 10
-8.5458477515
 20
8.4182688673
 11
-7.6391206391
 21
9.3249959797
  0
LINE
  5
334
100
AcDbEntity
  8
CURVE
100
AcDbLine
 62
7
  6
CONTINUOUS
 10
-6.9985884483
 20
9.9655281704
 11
-6.7093476155
 21
10.2547690033
  0
LINE
  5
335
100
AcDbEntity
  8
CURVE
100
AcDbLine
 62
7
  6
CONTINUOUS
 10
-9.0629055036
 20
7.7036454805
 11
-8.6509271735
 21
8.1156238106
  0
LINE
  5
336
100
AcDbEntity
  8
CURVE
100
AcDbLine
 62
7
  6
CONTINUOUS
 10
-8.2547044378
 20
8.5118465463
 11
-7.3362456661
 21
9.430305318
  0
LINE
  5
337
100
AcDbEntity
  8
CURVE
100
AcDbLine
 62
7
  6
CONTINUOUS
 10
-6.8010228137
 20
9.9655281704
 11
-6.7093476155
 21
10.0572033686
  0
LINE
  5
338
100
AcDbEntity
  8
CURVE
100
AcDbLine
 62
7
  6
CONTINUOUS
 10
-8.9178020052
 20
7.6511833443
 11
-8.5039579915
 21
8.0650273579
  0
LINE
  5
339
100
AcDbEntity
  8
CURVE
100
AcDbLine
 62
7
  6
CONTINUOUS
 10
-7.9635611242
 20
8.6054242252
 11
-7.0333706931
 21
9.5356146564
  0
LINE
  5
33A
100
AcDbEntity
  8
CURVE
100
AcDbLine
 62
7
  6
CONTINUOUS
 10
-8.7726985068
 20
7.598721208
 11
-8.3569888095
 21
8.0144309053
  0
LINE
  5
33B
100
AcDbEntity
  8
CURVE
100
AcDbLine
 62
7
  6
CONTINUOUS
 10
-7.8057526023
 20
8.5656671125
 11
-6.7304957201
 21
9.6409239947
  0
LINE
  5
33C
100
AcDbEntity
  8
CURVE
100
AcDbLine
 62
7
  6
CONTINUOUS
 10
-8.6275950084
 20
7.5462590717
 11
-8.2100196274
 21
7.9638344527
  0
LINE
  5
33D
100
AcDbEntity
  8
CURVE
100
AcDbLine
 62
7
  6
CONTINUOUS
 10
-7.8057526023
 20
8.3681014779
 11
-6.7093476155
 21
9.4645064646
  0
LINE
  5
33E
100
AcDbEntity
  8
CURVE
100
AcDbLine
 62
7
  6
CONTINUOUS
 10
-8.48249151
 20
7.4937969354
 11
-8.0630504454
 21
7.9132380001
  0
LINE
  5
33F
100
AcDbEntity
  8
CURVE
100
AcDbLine
 62
7
  6
CONTINUOUS
 10
-7.8057526023
 20
8.1705358432
 11
-7.323893003
 21
8.6523954425
  0
LINE
  5
340
100
AcDbEntity
  8
CURVE
100
AcDbLine
 62
7
  6
CONTINUOUS
 10
-7.0809662549
 20
8.8953221905
 11
-6.7093476155
 21
9.26694083
  0
LINE
  5
341
100
AcDbEntity
  8
CURVE
100
AcDbLine
 62
7
  6
CONTINUOUS
 10
-8.3373880117
 20
7.4413347991
 11
-7.9160812634
 21
7.8626415474
  0
LINE
  5
342
100
AcDbEntity
  8
CURVE
100
AcDbLine
 62
7
  6
CONTINUOUS
 10
-7.8057526023
 20
7.9729702085
 11
-7.323893003
 21
8.4548298078
  0
LINE
  5
343
100
AcDbEntity
  8
CURVE
100
AcDbLine
 62
7
  6
CONTINUOUS
 10
-6.781671191
 20
8.9970516198
 11
-6.7093476155
 21
9.0693751953
  0
LINE
  5
344
100
AcDbEntity
  8
CURVE
100
AcDbLine
 62
7
  6
CONTINUOUS
 10
-8.1922845133
 20
7.3888726629
 11
-7.323893003
 21
8.2572641731
  0
LINE
  5
345
100
AcDbEntity
  8
CURVE
100
AcDbLine
 62
7
  6
CONTINUOUS
 10
-8.0471810149
 20
7.3364105266
 11
-7.323893003
 21
8.0596985385
  0
LINE
  5
346
100
AcDbEntity
  8
CURVE
100
AcDbLine
 62
7
  6
CONTINUOUS
 10
-7.9020775165
 20
7.2839483903
 11
-7.323893003
 21
7.8621329038
  0
LINE
  5
347
100
AcDbEntity
  8
CURVE
100
AcDbLine
 62
7
  6
CONTINUOUS
 10
-9.6089069313
 20
5.3795533409
 11
-9.5215181017
 21
5.4669421704
  0
LINE
  5
348
100
AcDbEntity
  8
CURVE
100
AcDbLine
 62
7
  6
CONTINUOUS
 10
-7.7569740181
 20
7.231486254
 11
-7.323893003
 21
7.6645672692
  0
LINE
  5
349
100
AcDbEntity
  8
CURVE
100
AcDbLine
 62
7
  6
CONTINUOUS
 10
-9.6089069313
 20
5.1819877062
 11
-9.323952467
 21
5.4669421704
  0
LINE
  5
34A
100
AcDbEntity
  8
CURVE
100
AcDbLine
 62
7
  6
CONTINUOUS
 10
-7.6118705197
 20
7.1790241177
 11
-7.1782654798
 21
7.6126291576
  0
LINE
  5
34B
100
AcDbEntity
  8
CURVE
100
AcDbLine
 62
253
  6
CONTINUOUS
 10
-6.7093476155
 20
9.6482771704
 11
-9.6089069313
 21
8.6401031704
  0
LINE
  5
34C
100
AcDbEntity
  8
CURVE
100
AcDbLine
 62
253
  6
CONTINUOUS
 10
-7.323893003
 20
8.8127521704
 11
-6.7093476155
 21
9.0216341704
  0
LINE
  5
34D
100
AcDbEntity
  8
CURVE
100
AcDbLine
 62
253
  6
CONTINUOUS
 10
-9.0548313325
 20
8.2546741704
 11
-7.8057526023
 21
8.6561461704
  0
LINE
  5
34E
100
AcDbEntity
  8
RACCORDO
100
AcDbLine
 62
7
  6
CONTINUOUS
 10
26.308104791
 20
-11.84110269
 11
-0.4593476155
 21
-11.9662959534
  0
LINE
  5
34F
100
AcDbEntity
  8
ASSI
100
AcDbLine
 62
7
  6
CONTINUOUS
 10
26.308104791
 20
-11.84110269
 11
-0.4593476155
 21
-11.9662959534
  0
LINE
  5
350
100
AcDbEntity
  8
RACCORDO
100
AcDbLine
 62
7
  6
CONTINUOUS
 10
25.7906523845
 20
-11.5767968296
 11
-0.4593476155
 21
-11.6381787055
  0
LINE
  5
351
100
AcDbEntity
  8
ASSI
100
AcDbLine
 62
7
  6
CONTINUOUS
 10
25.7906523845
 20
-11.5767968296
 11
-0.4593476155
 21
-11.6381787055
  0
LINE
  5
352
100
AcDbEntity
  8
CURVE
100
AcDbLine
 62
253
  6
CONTINUOUS
 10
-9.1090439104
 20
-12.8377818296
 11
-6.2093546144
 21
-12.8377818296
  0
LINE
  5
353
100
AcDbEntity
  8
CURVE
100
AcDbLine
 62
253
  6
CONTINUOUS
 10
-6.2093546144
 20
-12.2577598296
 11
-8.1215053402
 21
-12.2577598296
  0
LINE
  5
354
100
AcDbEntity
  8
RACCORDO
100
AcDbLine
 62
7
  6
CONTINUOUS
 10
27.2906523845
 20
-11.5767968296
 11
25.7906523845
 21
-11.5767968296
  0
LINE
  5
355
100
AcDbEntity
  8
ASSI
100
AcDbLine
 62
7
  6
CONTINUOUS
 10
27.2906523845
 20
-11.5767968296
 11
25.7906523845
 21
-11.5767968296
  0
LINE
  5
356
100
AcDbEntity
  8
CURVE
100
AcDbLine
 62
253
  6
CONTINUOUS
 10
-8.1215053402
 20
-10.5810018296
 11
-6.2093546144
 21
-10.5809938296
  0
LWPOLYLINE
  5
357
100
AcDbEntity
  8
RACCORDO
100
AcDbPolyline
 62
7
  6
CONTINUOUS
 90
34
 70
0
 10
-0.4593476155
 20
-11.9662959534
 10
-0.5697424046
 20
-11.9611776536
 10
-0.6771872758
 20
-11.9461880641
 10
-0.7816822293
 20
-11.9213271849
 10
-0.8840525165
 20
-11.8862311754
 10
-0.9834728859
 20
-11.8412638761
 10
-1.0774675828
 20
-11.7875168094
 10
-1.166039274
 20
-11.7246285896
 10
-1.2491852927
 20
-11.6529606022
 10
-1.3244218842
 20
-11.5746885265
 10
-1.3913713633
 20
-11.4898662607
 10
-1.4504114151
 20
-11.3984399065
 10
-1.500191341
 20
-11.3024234488
 10
-1.5405974703
 20
-11.2013480042
 10
-1.5717434735
 20
-11.0956824561
 10
-1.5926196632
 20
-10.98884744
 10
-1.6028894767
 20
-10.8812035224
 10
-1.6028894767
 20
-10.7723901367
 10
-1.5926196632
 20
-10.6647462191
 10
-1.5717434735
 20
-10.557911203
 10
-1.5405974703
 20
-10.4522456549
 10
-1.500191341
 20
-10.3511702103
 10
-1.4504114151
 20
-10.2551537526
 10
-1.3913713633
 20
-10.1637273985
 10
-1.3244218842
 20
-10.0789051326
 10
-1.2491852927
 20
-10.0006330569
 10
-1.166039274
 20
-9.9289650696
 10
-1.0774675828
 20
-9.8660768497
 10
-0.9834728859
 20
-9.812329783
 10
-0.8840525165
 20
-9.7673624838
 10
-0.7816822293
 20
-9.7322664742
 10
-0.6771872758
 20
-9.707405595
 10
-0.5697424046
 20
-9.6924160056
 10
-0.4593476155
 20
-9.6872977058
  0
LWPOLYLINE
  5
358
100
AcDbEntity
  8
ASSI
100
AcDbPolyline
 62
7
  6
CONTINUOUS
 90
34
 70
0
 10
-0.4593476155
 20
-11.9662959534
 10
-0.5697424046
 20
-11.9611776536
 10
-0.6771872758
 20
-11.9461880641
 10
-0.7816822293
 20
-11.9213271849
 10
-0.8840525165
 20
-11.8862311754
 10
-0.9834728859
 20
-11.8412638761
 10
-1.0774675828
 20
-11.7875168094
 10
-1.166039274
 20
-11.7246285896
 10
-1.2491852927
 20
-11.6529606022
 10
-1.3244218842
 20
-11.5746885265
 10
-1.3913713633
 20
-11.4898662607
 10
-1.4504114151
 20
-11.3984399065
 10
-1.500191341
 20
-11.3024234488
 10
-1.5405974703
 20
-11.2013480042
 10
-1.5717434735
 20
-11.0956824561
 10
-1.5926196632
 20
-10.98884744
 10
-1.6028894767
 20
-10.8812035224
 10
-1.6028894767
 20
-10.7723901367
 10
-1.5926196632
 20
-10.6647462191
 10
-1.5717434735
 20
-10.557911203
 10
-1.5405974703
 20
-10.4522456549
 10
-1.500191341
 20
-10.3511702103
 10
-1.4504114151
 20
-10.2551537526
 10
-1.3913713633
 20
-10.1637273985
 10
-1.3244218842
 20
-10.0789051326
 10
-1.2491852927
 20
-10.0006330569
 10
-1.166039274
 20
-9.9289650696
 10
-1.0774675828
 20
-9.8660768497
 10
-0.9834728859
 20
-9.812329783
 10
-0.8840525165
 20
-9.7673624838
 10
-0.7816822293
 20
-9.7322664742
 10
-0.6771872758
 20
-9.707405595
 10
-0.5697424046
 20
-9.6924160056
 10
-0.4593476155
 20
-9.6872977058
  0
LINE
  5
359
100
AcDbEntity
  8
CURVE
100
AcDbLine
 62
253
  6
CONTINUOUS
 10
-9.1090439104
 20
-10.8778088296
 11
-7.2206625638
 21
-11.4193768296
  0
LINE
  5
35A
100
AcDbEntity
  8
CURVE
100
AcDbLine
 62
253
  6
CONTINUOUS
 10
-6.2093626132
 20
-11.1293768296
 11
-8.1215053402
 21
-10.5810018296
  0
LINE
  5
35B
100
AcDbEntity
  8
CURVE
100
AcDbLine
 62
253
  6
CONTINUOUS
 10
-6.2093546144
 20
-9.6142938296
 11
-9.1090509093
 21
-8.6831688296
  0
LINE
  5
35C
100
AcDbEntity
  8
CURVE
100
AcDbLine
 62
253
  6
CONTINUOUS
 10
-6.7796037495
 20
-8.8511588296
 11
-6.2093626132
 21
-9.0342718296
  0
LINE
  5
35D
100
AcDbEntity
  8
CURVE
100
AcDbLine
 62
253
  6
CONTINUOUS
 10
-8.2059474773
 20
-8.3931468296
 11
-7.3305418262
 21
-8.6742368296
  0
LINE
  5
35E
100
AcDbEntity
  8
CURVE
100
AcDbLine
 62
253
  6
CONTINUOUS
 10
-8.3165812525
 20
3.4407058646
 11
-8.310926052
 21
3.3867390245
  0
LWPOLYLINE
  5
35F
100
AcDbEntity
  8
CURVE
100
AcDbPolyline
 62
253
  6
CONTINUOUS
 90
17
 70
0
 10
-7.8669871105
 20
-5.5075918296
 10
-7.8737063461
 20
-5.4390533252
 10
-7.8936081192
 20
-5.3731254312
 10
-7.9259343776
 20
-5.3123193205
 10
-7.9703231352
 20
-5.2580785952
 10
-8.0235310121
 20
-5.2143664948
 10
-8.0842146516
 20
-5.1818232563
 10
-8.1500626327
 20
-5.1616884415
 10
-8.2197983674
 20
-5.1547268296
 10
-8.288326433
 20
-5.1614470887
 10
-8.3542442859
 20
-5.1813518934
 10
-8.4150411355
 20
-5.213683076
 10
-8.4692735997
 20
-5.2580785952
 10
-8.5129790426
 20
-5.3112945772
 10
-8.5455173246
 20
-5.3719874605
 10
-8.5656490727
 20
-5.4378454721
 10
-8.5726096244
 20
-5.5075918604
  0
LINE
  5
360
100
AcDbEntity
  8
CURVE
100
AcDbLine
 62
253
  6
CONTINUOUS
 10
-7.8259392325
 20
3.2614232279
 11
-7.8306652368
 21
3.3983933943
  0
LINE
  5
361
100
AcDbEntity
  8
CURVE
100
AcDbLine
 62
253
  6
CONTINUOUS
 10
-9.6089069313
 20
14.6651381704
 11
-9.6089069313
 21
13.9260871704
  0
LINE
  5
362
100
AcDbEntity
  8
CURVE
100
AcDbLine
 62
253
  6
CONTINUOUS
 10
-9.6089069313
 20
8.6401031704
 11
-9.6089069313
 21
7.9010521704
  0
LINE
  5
363
100
AcDbEntity
  8
CURVE
100
AcDbLine
 62
253
  6
CONTINUOUS
 10
-9.6089069313
 20
3.2614231704
 11
-9.6089069313
 21
2.3739931704
  0
LINE
  5
364
100
AcDbEntity
  8
CURVE
100
AcDbLine
 62
253
  6
CONTINUOUS
 10
-9.6089069313
 20
4.8443361704
 11
-9.6089069313
 21
5.4669421704
  0
LINE
  5
365
100
AcDbEntity
  8
CURVE
100
AcDbLine
 62
253
  6
CONTINUOUS
 10
-9.6089069313
 20
9.9655281704
 11
-9.6089069313
 21
10.8893421704
  0
LINE
  5
366
100
AcDbEntity
  8
CURVE
100
AcDbLine
 62
253
  6
CONTINUOUS
 10
-9.6089069313
 20
12.0019571704
 11
-9.6089069313
 21
12.5844011704
  0
LINE
  5
367
100
AcDbEntity
  8
CURVE
100
AcDbLine
 62
253
  6
CONTINUOUS
 10
-9.127047332
 20
2.9965991704
 11
-9.127047332
 21
3.3598151704
  0
LINE
  5
368
100
AcDbEntity
  8
CURVE
100
AcDbLine
 62
253
  6
CONTINUOUS
 10
-9.1090509093
 20
-8.6831688296
 11
-9.1090509093
 21
-8.1031178296
  0
LINE
  5
369
100
AcDbEntity
  8
CURVE
100
AcDbLine
 62
253
  6
CONTINUOUS
 10
-9.1090509093
 20
-6.7852998296
 11
-9.1090509093
 21
-5.4270848296
  0
LINE
  5
36A
100
AcDbEntity
  8
CURVE
100
AcDbLine
 62
253
  6
CONTINUOUS
 10
-9.1090439104
 20
-10.0009728296
 11
-9.1090439104
 21
-10.8778088296
  0
LINE
  5
36B
100
AcDbEntity
  8
CURVE
100
AcDbLine
 62
253
  6
CONTINUOUS
 10
-9.1090439104
 20
-11.9609448296
 11
-9.1090439104
 21
-12.8377818296
  0
LINE
  5
36C
100
AcDbEntity
  8
CURVE
100
AcDbLine
 62
253
  6
CONTINUOUS
 10
-9.1090439104
 20
-13.4177818296
 11
-9.1090439104
 21
-13.9978028296
  0
LINE
  5
36D
100
AcDbEntity
  8
CURVE
100
AcDbLine
 62
253
  6
CONTINUOUS
 10
-9.1090439104
 20
-14.3844818296
 11
-9.1090439104
 21
-14.9645108296
  0
LINE
  5
36E
100
AcDbEntity
  8
CURVE
100
AcDbLine
 62
253
  6
CONTINUOUS
 10
-9.1090439104
 20
-16.2467678296
 11
-9.1090439104
 21
-16.8267968296
  0
LINE
  5
36F
100
AcDbEntity
  8
CURVE
100
AcDbLine
 62
253
  6
CONTINUOUS
 10
-8.5726106242
 20
-5.5075888296
 11
-8.5726106242
 21
-6.2132748296
  0
LINE
  5
370
100
AcDbEntity
  8
CURVE
100
AcDbLine
 62
253
  6
CONTINUOUS
 10
-8.3077991265
 20
2.9965991704
 11
-8.3077991265
 21
3.3598151704
  0
LINE
  5
371
100
AcDbEntity
  8
CURVE
100
AcDbLine
 62
253
  6
CONTINUOUS
 10
-7.8669891102
 20
-6.2132678296
 11
-7.8669891102
 21
-5.5075888296
  0
LINE
  5
372
100
AcDbEntity
  8
CURVE
100
AcDbLine
 62
253
  6
CONTINUOUS
 10
-7.8259395272
 20
3.2614231704
 11
-7.8259395272
 21
2.9965991704
  0
LINE
  5
373
100
AcDbEntity
  8
CURVE
100
AcDbLine
 62
253
  6
CONTINUOUS
 10
-7.8057526023
 20
14.6810721704
 11
-7.8057526023
 21
13.8496941704
  0
LINE
  5
374
100
AcDbEntity
  8
CURVE
100
AcDbLine
 62
253
  6
CONTINUOUS
 10
-7.8057526023
 20
8.6561461704
 11
-7.8057526023
 21
7.8246591704
  0
LWPOLYLINE
  5
375
100
AcDbEntity
  8
CURVE
100
AcDbPolyline
 62
253
  6
CONTINUOUS
 90
54
 70
0
 10
-9.1239199711
 20
3.3867390245
 10
-9.1182647706
 20
3.4407058646
 10
-9.116749132
 20
3.454183574
 10
-9.1151150294
 20
3.4676423547
 10
-9.1133235984
 20
3.4810755426
 10
-9.1113359747
 20
3.4944764735
 10
-9.1091132939
 20
3.5078384832
 10
-9.1066166918
 20
3.5211549075
 10
-9.103807304
 20
3.5344190823
 10
-9.1006462662
 20
3.5476243433
 10
-9.097094714
 20
3.5607640264
 10
-9.094126438
 20
3.5706511212
 10
-9.0909014012
 20
3.5804749483
 10
-9.0874084605
 20
3.5902135647
 10
-9.0836364725
 20
3.5998450276
 10
-9.0795742942
 20
3.6093473938
 10
-9.0752107822
 20
3.6186987203
 10
-9.0705347934
 20
3.6278770643
 10
-9.0655351846
 20
3.6368604827
 10
-9.0602008125
 20
3.6456270325
 10
-9.0545205339
 20
3.6541547706
 10
-9.0484832056
 20
3.6624217542
 10
-9.0425040681
 20
3.6699064953
 10
-9.0362202167
 20
3.6771460063
 10
-9.0296494361
 20
3.6841426709
 10
-9.0228095114
 20
3.6908988728
 10
-9.0157182274
 20
3.6974169957
 10
-9.0083933691
 20
3.7036994232
 10
-9.0008527213
 20
3.7097485392
 10
-8.9931140689
 20
3.7155667273
 10
-8.9851951969
 20
3.7211563711
 10
-8.9771138901
 20
3.7265198545
 10
-8.9688879335
 20
3.731659561
 10
-8.9605351119
 20
3.7365778745
 10
-8.9496392777
 20
3.7425762267
 10
-8.9385743252
 20
3.7482139969
 10
-8.9273512633
 20
3.7534922592
 10
-8.9159811007
 20
3.7584120879
 10
-8.904474846
 20
3.7629745574
 10
-8.892843508
 20
3.7671807417
 10
-8.8810980955
 20
3.7710317153
 10
-8.8692496172
 20
3.7745285524
 10
-8.8573090817
 20
3.7776723273
 10
-8.8452874979
 20
3.7804641141
 10
-8.8331958744
 20
3.7829049872
 10
-8.8204667711
 20
3.7850908189
 10
-8.8076822401
 20
3.7869195155
 10
-8.7948516203
 20
3.7884177727
 10
-8.7819842505
 20
3.7896122864
 10
-8.7690894695
 20
3.7905297525
 10
-8.7561766163
 20
3.7911968666
 10
-8.7432550297
 20
3.7916403248
 10
-8.7303340485
 20
3.7918868227
 10
-8.7174230116
 20
3.7919630563
  0
LWPOLYLINE
  5
376
100
AcDbEntity
  8
CURVE
100
AcDbPolyline
 62
253
  6
CONTINUOUS
 90
3
 70
0
 10
-9.1270472596
 20
3.3598153014
 10
-9.1254262544
 20
3.3732666347
 10
-9.1239199711
 20
3.3867390245
  0
LINE
  5
377
100
AcDbEntity
  8
CURVE
100
AcDbLine
 62
7
  6
CONTINUOUS
 10
-9.6089069313
 20
4.9844220715
 11
-9.1263868324
 21
5.4669421704
  0
LINE
  5
378
100
AcDbEntity
  8
CURVE
100
AcDbLine
 62
7
  6
CONTINUOUS
 10
-7.4667670214
 20
7.1265619815
 11
-7.032229859
 21
7.5610991438
  0
LINE
  5
379
100
AcDbEntity
  8
CURVE
100
AcDbLine
 62
7
  6
CONTINUOUS
 10
-9.5514271977
 20
4.8443361704
 11
-8.9288211977
 21
5.4669421704
  0
LINE
  5
37A
100
AcDbEntity
  8
CURVE
100
AcDbLine
 62
7
  6
CONTINUOUS
 10
-7.321663523
 20
7.0740998452
 11
-6.8861942381
 21
7.50956913
  0
LINE
  5
37B
100
AcDbEntity
  8
CURVE
100
AcDbLine
 62
7
  6
CONTINUOUS
 10
-9.353861563
 20
4.8443361704
 11
-8.731255563
 21
5.4669421704
  0
LINE
  5
37C
100
AcDbEntity
  8
CURVE
100
AcDbLine
 62
7
  6
CONTINUOUS
 10
-7.1765600246
 20
7.0216377089
 11
-6.7401586173
 21
7.4580391162
  0
LINE
  5
37D
100
AcDbEntity
  8
CURVE
100
AcDbLine
 62
7
  6
CONTINUOUS
 10
-9.1562959284
 20
4.8443361704
 11
-8.5336899284
 21
5.4669421704
  0
LINE
  5
37E
100
AcDbEntity
  8
CURVE
100
AcDbLine
 62
7
  6
CONTINUOUS
 10
-7.0314565262
 20
6.9691755726
 11
-6.7093476155
 21
7.2912844833
  0
LINE
  5
37F
100
AcDbEntity
  8
CURVE
100
AcDbLine
 62
7
  6
CONTINUOUS
 10
-8.9587302937
 20
4.8443361704
 11
-8.3361242937
 21
5.4669421704
  0
LINE
  5
380
100
AcDbEntity
  8
CURVE
100
AcDbLine
 62
7
  6
CONTINUOUS
 10
-6.8863530278
 20
6.9167134363
 11
-6.7093476155
 21
7.0937188487
  0
LINE
  5
381
100
AcDbEntity
  8
CURVE
100
AcDbLine
 62
7
  6
CONTINUOUS
 10
-8.7611646591
 20
4.8443361704
 11
-8.1385586591
 21
5.4669421704
  0
LINE
  5
382
100
AcDbEntity
  8
CURVE
100
AcDbLine
 62
7
  6
CONTINUOUS
 10
-7.1912072147
 20
6.4142936147
 11
-7.0655596591
 21
6.5399411704
  0
LINE
  5
383
100
AcDbEntity
  8
CURVE
100
AcDbLine
 62
7
  6
CONTINUOUS
 10
-6.7412495294
 20
6.8642513001
 11
-6.7093476155
 21
6.896153214
  0
LINE
  5
384
100
AcDbEntity
  8
CURVE
100
AcDbLine
 62
7
  6
CONTINUOUS
 10
-9.5364970903
 20
3.8714381045
 11
-8.9816860914
 21
4.4262491035
  0
LINE
  5
385
100
AcDbEntity
  8
CURVE
100
AcDbLine
 62
7
  6
CONTINUOUS
 10
-8.5635990244
 20
4.8443361704
 11
-7.9409930244
 21
5.4669421704
  0
LINE
  5
386
100
AcDbEntity
  8
CURVE
100
AcDbLine
 62
7
  6
CONTINUOUS
 10
-7.1912072147
 20
6.2167279801
 11
-6.8679940244
 21
6.5399411704
  0
LINE
  5
387
100
AcDbEntity
  8
CURVE
100
AcDbLine
 62
7
  6
CONTINUOUS
 10
-9.5870991523
 20
3.6232704079
 11
-8.7568370262
 21
4.4535325339
  0
LINE
  5
388
100
AcDbEntity
  8
CURVE
100
AcDbLine
 62
7
  6
CONTINUOUS
 10
-8.3660333897
 20
4.8443361704
 11
-7.7434273897
 21
5.4669421704
  0
LINE
  5
389
100
AcDbEntity
  8
CURVE
100
AcDbLine
 62
7
  6
CONTINUOUS
 10
-7.1912072147
 20
6.0191623454
 11
-6.7093476155
 21
6.5010219447
  0
LINE
  5
38A
100
AcDbEntity
  8
CURVE
100
AcDbLine
 62
7
  6
CONTINUOUS
 10
-9.6034943329
 20
3.4093095926
 11
-8.5669953537
 21
4.4458085718
  0
LINE
  5
38B
100
AcDbEntity
  8
CURVE
100
AcDbLine
 62
7
  6
CONTINUOUS
 10
-8.1684677551
 20
4.8443361704
 11
-7.5458617551
 21
5.4669421704
  0
LINE
  5
38C
100
AcDbEntity
  8
CURVE
100
AcDbLine
 62
7
  6
CONTINUOUS
 10
-7.1912072147
 20
5.8215967108
 11
-6.7093476155
 21
6.30345631
  0
LINE
  5
38D
100
AcDbEntity
  8
CURVE
100
AcDbLine
 62
7
  6
CONTINUOUS
 10
-9.6089069313
 20
3.2063313596
 11
-8.4021578901
 21
4.4130804007
  0
LINE
  5
38E
100
AcDbEntity
  8
CURVE
100
AcDbLine
 62
7
  6
CONTINUOUS
 10
-7.9709021204
 20
4.8443361704
 11
-7.3482961204
 21
5.4669421704
  0
LINE
  5
38F
100
AcDbEntity
  8
CURVE
100
AcDbLine
 62
7
  6
CONTINUOUS
 10
-7.1912072147
 20
5.6240310761
 11
-6.7093476155
 21
6.1058906754
  0
LINE
  5
390
100
AcDbEntity
  8
CURVE
100
AcDbLine
 62
7
  6
CONTINUOUS
 10
-9.6089069313
 20
3.0087657249
 11
-9.1086462896
 21
3.5090263666
  0
LINE
  5
391
100
AcDbEntity
  8
CURVE
100
AcDbLine
 62
7
  6
CONTINUOUS
 10
-8.835233148
 20
3.7824395082
 11
-8.261938969
 21
4.3557336872
  0
LINE
  5
392
100
AcDbEntity
  8
CURVE
100
AcDbLine
 62
7
  6
CONTINUOUS
 10
-7.7733364857
 20
4.8443361704
 11
-6.7093476155
 21
5.9083250407
  0
LINE
  5
393
100
AcDbEntity
  8
CURVE
100
AcDbLine
 62
7
  6
CONTINUOUS
 10
-9.6089069313
 20
2.8112000902
 11
-9.127047332
 21
3.2930596895
  0
LINE
  5
394
100
AcDbEntity
  8
CURVE
100
AcDbLine
 62
7
  6
CONTINUOUS
 10
-8.6327331983
 20
3.7873738232
 11
-8.1443302633
 21
4.2757767582
  0
LINE
  5
395
100
AcDbEntity
  8
CURVE
100
AcDbLine
 62
7
  6
CONTINUOUS
 10
-7.5757708511
 20
4.8443361704
 11
-6.7093476155
 21
5.710759406
  0
LINE
  5
396
100
AcDbEntity
  8
CURVE
100
AcDbLine
 62
7
  6
CONTINUOUS
 10
-9.6089069313
 20
2.6136344556
 11
-9.127047332
 21
3.0954940548
  0
LINE
  5
397
100
AcDbEntity
  8
CURVE
100
AcDbLine
 62
7
  6
CONTINUOUS
 10
-8.4820038897
 20
3.7405374972
 11
-8.0473703626
 21
4.1751710242
  0
LINE
  5
398
100
AcDbEntity
  8
CURVE
100
AcDbLine
 62
7
  6
CONTINUOUS
 10
-7.3782052164
 20
4.8443361704
 11
-6.7093476155
 21
5.5131937714
  0
LINE
  5
399
100
AcDbEntity
  8
CURVE
100
AcDbLine
 62
7
  6
CONTINUOUS
 10
-9.6089069313
 20
2.4160688209
 11
-9.0283765817
 21
2.9965991704
  0
LINE
  5
39A
100
AcDbEntity
  8
CURVE
100
AcDbLine
 62
7
  6
CONTINUOUS
 10
-8.3767718524
 20
3.6482038998
 11
-7.9711290963
 21
4.0538466559
  0
LINE
  5
39B
100
AcDbEntity
  8
CURVE
100
AcDbLine
 62
7
  6
CONTINUOUS
 10
-7.1806395817
 20
4.8443361704
 11
-6.7093476155
 21
5.3156281367
  0
LINE
  5
39C
100
AcDbEntity
  8
CURVE
100
AcDbLine
 62
7
  6
CONTINUOUS
 10
-9.4534169471
 20
2.3739931704
 11
-8.8308109471
 21
2.9965991704
  0
LINE
  5
39D
100
AcDbEntity
  8
CURVE
100
AcDbLine
 62
7
  6
CONTINUOUS
 10
-8.3250792966
 20
3.5023308209
 11
-7.9125603654
 21
3.9148497521
  0
LINE
  5
39E
100
AcDbEntity
  8
CURVE
100
AcDbLine
 62
7
  6
CONTINUOUS
 10
-6.9830739471
 20
4.8443361704
 11
-6.7093476155
 21
5.118062502
  0
LINE
  5
39F
100
AcDbEntity
  8
CURVE
100
AcDbLine
 62
7
  6
CONTINUOUS
 10
-9.2558513124
 20
2.3739931704
 11
-8.6332453124
 21
2.9965991704
  0
LINE
  5
3A0
100
AcDbEntity
  8
CURVE
100
AcDbLine
 62
7
  6
CONTINUOUS
 10
-8.3077988013
 20
3.3220456816
 11
-7.8701002637
 21
3.7597442192
  0
LINE
  5
3A1
100
AcDbEntity
  8
CURVE
100
AcDbLine
 62
7
  6
CONTINUOUS
 10
-6.7855083124
 20
4.8443361704
 11
-6.7093476155
 21
4.9204968674
  0
LINE
  5
3A2
100
AcDbEntity
  8
CURVE
100
AcDbLine
 62
7
  6
CONTINUOUS
 10
-9.0582856778
 20
2.3739931704
 11
-8.4356796778
 21
2.9965991704
  0
LINE
  5
3A3
100
AcDbEntity
  8
CURVE
100
AcDbLine
 62
7
  6
CONTINUOUS
 10
-8.3077989987
 20
3.1244798495
 11
-7.843359125
 21
3.5889197232
  0
LINE
  5
3A4
100
AcDbEntity
  8
CURVE
100
AcDbLine
 62
7
  6
CONTINUOUS
 10
-8.8607200431
 20
2.3739931704
 11
-7.8311041843
 21
3.4036090292
  0
LINE
  5
3A5
100
AcDbEntity
  8
CURVE
100
AcDbLine
 62
7
  6
CONTINUOUS
 10
-8.6631544084
 20
2.3739931704
 11
-7.8259392884
 21
3.2112082905
  0
LWPOLYLINE
  5
3A6
100
AcDbEntity
  8
RACCORDO
100
AcDbPolyline
 62
7
  6
CONTINUOUS
 90
31
 70
0
 10
-0.4593476155
 20
-10.0154149537
 10
-0.5457829975
 20
-10.0200782142
 10
-0.6294898693
 20
-10.033151921
 10
-0.710468231
 20
-10.054636074
 10
-0.7895307447
 20
-10.0849406743
 10
-0.8658647483
 20
-10.1236557209
 10
-0.9370322553
 20
-10.1695512104
 10
-1.0028883641
 20
-10.2228860271
 10
-1.0635779763
 20
-10.2834012867
 10
-1.1170978094
 20
-10.3490903336
 10
-1.1631880153
 20
-10.4200644312
 10
-1.2021084421
 20
-10.496212316
 10
-1.2326353517
 20
-10.5751935429
 10
-1.2545256506
 20
-10.6571724105
 10
-1.2680224322
 20
-10.74198462
 10
-1.272631239
 20
-10.8267968296
 10
-1.2680224322
 20
-10.9116090391
 10
-1.2545256506
 20
-10.9964212487
 10
-1.2326353517
 20
-11.0784001163
 10
-1.2021084421
 20
-11.1573813431
 10
-1.1631880153
 20
-11.233529228
 10
-1.1170978094
 20
-11.3045033255
 10
-1.0635779763
 20
-11.3701923724
 10
-1.0028883641
 20
-11.4307076321
 10
-0.9370322553
 20
-11.4840424487
 10
-0.8658647483
 20
-11.5299379382
 10
-0.7895307447
 20
-11.5686529848
 10
-0.710468231
 20
-11.5989575851
 10
-0.6294898693
 20
-11.6204417381
 10
-0.5457829975
 20
-11.6335154449
 10
-0.4593476155
 20
-11.6381787055
  0
LWPOLYLINE
  5
3A7
100
AcDbEntity
  8
ASSI
100
AcDbPolyline
 62
7
  6
CONTINUOUS
 90
31
 70
0
 10
-0.4593476155
 20
-10.0154149537
 10
-0.5457829975
 20
-10.0200782142
 10
-0.6294898693
 20
-10.033151921
 10
-0.710468231
 20
-10.054636074
 10
-0.7895307447
 20
-10.0849406743
 10
-0.8658647483
 20
-10.1236557209
 10
-0.9370322553
 20
-10.1695512104
 10
-1.0028883641
 20
-10.2228860271
 10
-1.0635779763
 20
-10.2834012867
 10
-1.1170978094
 20
-10.3490903336
 10
-1.1631880153
 20
-10.4200644312
 10
-1.2021084421
 20
-10.496212316
 10
-1.2326353517
 20
-10.5751935429
 10
-1.2545256506
 20
-10.6571724105
 10
-1.2680224322
 20
-10.74198462
 10
-1.272631239
 20
-10.8267968296
 10
-1.2680224322
 20
-10.9116090391
 10
-1.2545256506
 20
-10.9964212487
 10
-1.2326353517
 20
-11.0784001163
 10
-1.2021084421
 20
-11.1573813431
 10
-1.1631880153
 20
-11.233529228
 10
-1.1170978094
 20
-11.3045033255
 10
-1.0635779763
 20
-11.3701923724
 10
-1.0028883641
 20
-11.4307076321
 10
-0.9370322553
 20
-11.4840424487
 10
-0.8658647483
 20
-11.5299379382
 10
-0.7895307447
 20
-11.5686529848
 10
-0.710468231
 20
-11.5989575851
 10
-0.6294898693
 20
-11.6204417381
 10
-0.5457829975
 20
-11.6335154449
 10
-0.4593476155
 20
-11.6381787055
  0
LINE
  5
3A8
100
AcDbEntity
  8
RACCORDO
100
AcDbLine
 62
7
  6
CONTINUOUS
 10
25.7906523845
 20
-10.0767968296
 11
27.2906523845
 21
-10.0767968296
  0
LINE
  5
3A9
100
AcDbEntity
  8
ASSI
100
AcDbLine
 62
7
  6
CONTINUOUS
 10
25.7906523845
 20
-10.0767968296
 11
27.2906523845
 21
-10.0767968296
  0
LINE
  5
3AA
100
AcDbEntity
  8
CURVE
100
AcDbLine
 62
253
  6
CONTINUOUS
 10
-6.2093546144
 20
-10.0009728296
 11
-9.1090439104
 21
-10.0009728296
  0
LINE
  5
3AB
100
AcDbEntity
  8
RACCORDO
100
AcDbLine
 62
7
  6
CONTINUOUS
 10
25.7906523845
 20
-10.0767968296
 11
-0.4593476155
 21
-10.0154149537
  0
LINE
  5
3AC
100
AcDbEntity
  8
ASSI
100
AcDbLine
 62
7
  6
CONTINUOUS
 10
25.7906523845
 20
-10.0767968296
 11
-0.4593476155
 21
-10.0154149537
  0
LINE
  5
3AD
100
AcDbEntity
  8
RACCORDO
100
AcDbLine
 62
7
  6
CONTINUOUS
 10
26.308104791
 20
-9.8124909691
 11
-0.4593476155
 21
-9.6872977058
  0
LINE
  5
3AE
100
AcDbEntity
  8
ASSI
100
AcDbLine
 62
7
  6
CONTINUOUS
 10
26.308104791
 20
-9.8124909691
 11
-0.4593476155
 21
-9.6872977058
  0
LINE
  5
3AF
100
AcDbEntity
  8
DRAFT
100
AcDbLine
 62
7
  6
CONTINUOUS
 10
-23.4302745576
 20
-8.1714944889
 11
-22.1540804432
 21
-8.2607346748
  0
LINE
  5
3B0
100
AcDbEntity
  8
RACCORDO
100
AcDbLine
 62
7
  6
CONTINUOUS
 10
-23.7093476155
 20
-8.1517968296
 11
-30.4035394065
 21
-7.6836933391
  0
LWPOLYLINE
  5
3B1
100
AcDbEntity
  8
CURVE
100
AcDbPolyline
 62
253
  6
CONTINUOUS
 90
14
 70
0
 10
-7.4002852023
 20
-5.0818208296
 10
-7.489967228
 20
-4.9189533758
 10
-7.6115463765
 20
-4.7782937485
 10
-7.7623681764
 20
-4.6643878292
 10
-7.9309138028
 20
-4.5859350388
 10
-8.1151669489
 20
-4.543873906
 10
-8.3010555131
 20
-4.5414167967
 10
-8.4863557153
 20
-4.5785931052
 10
-8.6569154863
 20
-4.652563538
 10
-8.8106944241
 20
-4.7624431886
 10
-8.9359478563
 20
-4.8998401373
 10
-9.0299021193
 20
-5.0602802528
 10
-9.0891099585
 20
-5.239785317
 10
-9.1090527962
 20
-5.4270858592
  0
LWPOLYLINE
  5
3B2
100
AcDbEntity
  8
CURVE
100
AcDbPolyline
 62
253
  6
CONTINUOUS
 90
3
 70
0
 10
-8.310926052
 20
3.3867390245
 10
-8.3094197687
 20
3.3732666347
 10
-8.3077987635
 20
3.3598153014
  0
LWPOLYLINE
  5
3B3
100
AcDbEntity
  8
CURVE
100
AcDbPolyline
 62
253
  6
CONTINUOUS
 90
52
 70
0
 10
-7.8306652368
 20
3.3983933943
 10
-7.8326103104
 20
3.4440337837
 10
-7.835067872
 20
3.4896392105
 10
-7.8382344928
 20
3.535193597
 10
-7.8423067437
 20
3.5806808652
 10
-7.8462558864
 20
3.6163360914
 10
-7.850914536
 20
3.6519172396
 10
-7.8563127019
 20
3.6874015214
 10
-7.8624803932
 20
3.7227661485
 10
-7.8694476192
 20
3.7579883325
 10
-7.8772443889
 20
3.7930452851
 10
-7.8859007118
 20
3.8279142178
 10
-7.8954465969
 20
3.8625723423
 10
-7.9038561248
 20
3.890472819
 10
-7.9129084539
 20
3.9181787829
 10
-7.9226429495
 20
3.9456490105
 10
-7.9330989767
 20
3.9728422786
 10
-7.9443159006
 20
3.9997173638
 10
-7.9563330865
 20
4.0262330427
 10
-7.9691898994
 20
4.052348092
 10
-7.9829257045
 20
4.0780212882
 10
-7.9975798671
 20
4.103211408
 10
-8.0108507528
 20
4.1243153883
 10
-8.0248130372
 20
4.1449963697
 10
-8.0394591328
 20
4.1652140095
 10
-8.0547814519
 20
4.1849279648
 10
-8.0707724072
 20
4.2040978929
 10
-8.0874244111
 20
4.2226834509
 10
-8.1047298761
 20
4.240644296
 10
-8.1226812146
 20
4.2579400854
 10
-8.1412708392
 20
4.2745304763
 10
-8.1604911623
 20
4.2903751259
 10
-8.1817278521
 20
4.306457766
 10
-8.2036261526
 20
4.3216467205
 10
-8.2261350649
 20
4.3359472944
 10
-8.2492035901
 20
4.349364793
 10
-8.2727807294
 20
4.3619045214
 10
-8.2968154838
 20
4.3735717849
 10
-8.3212568543
 20
4.3843718885
 10
-8.3460538423
 20
4.3943101375
 10
-8.3711554486
 20
4.4033918371
 10
-8.3965106744
 20
4.4116222923
 10
-8.4259051545
 20
4.4200449069
 10
-8.4555374957
 20
4.4274074828
 10
-8.4853779437
 20
4.4337672723
 10
-8.5153967444
 20
4.4391815276
 10
-8.5455641435
 20
4.4437075011
 10
-8.5797807334
 20
4.4478183219
 10
-8.6141119289
 20
4.4509224549
 10
-8.6485207163
 20
4.4530734244
 10
-8.6829700817
 20
4.4543247549
 10
-8.7174230116
 20
4.4547299708
  0
LINE
  5
3B4
100
AcDbEntity
  8
CURVE
100
AcDbLine
 62
253
  6
CONTINUOUS
 10
-7.3305418262
 20
-8.6742368296
 11
-7.3305418262
 21
-8.1120428296
  0
LINE
  5
3B5
100
AcDbEntity
  8
CURVE
100
AcDbLine
 62
253
  6
CONTINUOUS
 10
-7.3305418262
 20
-5.6989748296
 11
-7.3305488251
 21
-6.2052058296
  0
LINE
  5
3B6
100
AcDbEntity
  8
CURVE
100
AcDbLine
 62
253
  6
CONTINUOUS
 10
-7.323893003
 20
7.6640151704
 11
-7.323893003
 21
8.8127521704
  0
LINE
  5
3B7
100
AcDbEntity
  8
CURVE
100
AcDbLine
 62
253
  6
CONTINUOUS
 10
-7.323893003
 20
13.6890491704
 11
-7.323893003
 21
14.8377871704
  0
LINE
  5
3B8
100
AcDbEntity
  8
CURVE
100
AcDbLine
 62
253
  6
CONTINUOUS
 10
-7.1912072147
 20
5.4669421704
 11
-7.1912072147
 21
6.5399411704
  0
LINE
  5
3B9
100
AcDbEntity
  8
CURVE
100
AcDbLine
 62
253
  6
CONTINUOUS
 10
-6.7796037495
 20
-7.9351138296
 11
-6.7796037495
 21
-8.8511588296
  0
LINE
  5
3BA
100
AcDbEntity
  8
CURVE
100
AcDbLine
 62
253
  6
CONTINUOUS
 10
-6.7093476155
 20
12.5844011704
 11
-6.7093476155
 21
11.7007491704
  0
LINE
  5
3BB
100
AcDbEntity
  8
CURVE
100
AcDbLine
 62
253
  6
CONTINUOUS
 10
-6.7093476155
 20
10.5479731704
 11
-6.7093476155
 21
9.9655281704
  0
LINE
  5
3BC
100
AcDbEntity
  8
CURVE
100
AcDbLine
 62
253
  6
CONTINUOUS
 10
-6.7093476155
 20
6.5399411704
 11
-6.7093476155
 21
4.8443361704
  0
LINE
  5
3BD
100
AcDbEntity
  8
CURVE
100
AcDbLine
 62
253
  6
CONTINUOUS
 10
-6.7093476155
 20
2.3739931704
 11
-6.7093476155
 21
2.9965991704
  0
LINE
  5
3BE
100
AcDbEntity
  8
CURVE
100
AcDbLine
 62
253
  6
CONTINUOUS
 10
-6.7093476155
 20
6.8527171704
 11
-6.7093476155
 21
7.4471671704
  0
LINE
  5
3BF
100
AcDbEntity
  8
CURVE
100
AcDbLine
 62
253
  6
CONTINUOUS
 10
-6.7093476155
 20
9.0216341704
 11
-6.7093476155
 21
9.6482771704
  0
LINE
  5
3C0
100
AcDbEntity
  8
CURVE
100
AcDbLine
 62
253
  6
CONTINUOUS
 10
-6.7093476155
 20
12.8776431704
 11
-6.7093476155
 21
13.4720921704
  0
LINE
  5
3C1
100
AcDbEntity
  8
CURVE
100
AcDbLine
 62
253
  6
CONTINUOUS
 10
-6.7093476155
 20
15.0467771704
 11
-6.7093476155
 21
15.6732031704
  0
LINE
  5
3C2
100
AcDbEntity
  8
CURVE
100
AcDbLine
 62
253
  6
CONTINUOUS
 10
-6.2093476155
 20
-15.8956648296
 11
-6.2093546144
 21
-15.3156208296
  0
LINE
  5
3C3
100
AcDbEntity
  8
CURVE
100
AcDbLine
 62
253
  6
CONTINUOUS
 10
-6.2093476155
 20
-13.9978108296
 11
-6.2093546144
 21
-13.4177888296
  0
LINE
  5
3C4
100
AcDbEntity
  8
CURVE
100
AcDbLine
 62
253
  6
CONTINUOUS
 10
-6.2093546144
 20
-11.7093838296
 11
-6.2093626132
 21
-11.1293768296
  0
LINE
  5
3C5
100
AcDbEntity
  8
CURVE
100
AcDbLine
 62
253
  6
CONTINUOUS
 10
-6.2093626132
 20
-9.0342718296
 11
-6.2093546144
 21
-9.6142938296
  0
LINE
  5
3C6
100
AcDbEntity
  8
CURVE
100
AcDbLine
 62
253
  6
CONTINUOUS
 10
-6.2093696121
 20
-4.4644158296
 11
-6.2093626132
 21
-5.1177208296
  0
LINE
  5
3C7
100
AcDbEntity
  8
CURVE
100
AcDbLine
 62
253
  6
CONTINUOUS
 10
-6.2093626132
 20
-6.2052708296
 11
-6.2093626132
 21
-6.7852998296
  0
LINE
  5
3C8
100
AcDbEntity
  8
CURVE
100
AcDbLine
 62
253
  6
CONTINUOUS
 10
-6.2093546144
 20
-12.8377818296
 11
-6.2093546144
 21
-12.2577598296
  0
LINE
  5
3C9
100
AcDbEntity
  8
CURVE
100
AcDbLine
 62
253
  6
CONTINUOUS
 10
-6.2093546144
 20
-10.5809938296
 11
-6.2093546144
 21
-10.0009728296
  0
LINE
  5
3CA
100
AcDbEntity
  8
CURVE
100
AcDbLine
 62
253
  6
CONTINUOUS
 10
-6.2093546144
 20
-7.1719788296
 11
-6.2093626132
 21
-7.7520078296
  0
LINE
  5
3CB
100
AcDbEntity
  8
ASSI
100
AcDbLine
 62
253
  6
CONTINUOUS
 10
-5.1348277887
 20
-24.5775702543
 11
-5.1348277887
 21
-23.1606949965
  0
LINE
  5
3CC
100
AcDbEntity
  8
ASSI
100
AcDbLine
 62
253
  6
CONTINUOUS
 10
-5.1348277887
 20
21.5071013373
 11
-5.1348277887
 21
22.9239765952
  0
LWPOLYLINE
  5
3CD
100
AcDbEntity
  8
RACCORDO
100
AcDbPolyline
 62
253
  6
CONTINUOUS
 90
8
 70
0
 10
-11.9578931826
 20
-25.3224249956
 10
-11.9578192326
 20
-25.3220835883
 10
-11.9577494091
 20
-25.3210603257
 10
-11.957683911
 20
-25.3193567215
 10
-11.9576229135
 20
-25.3169755914
 10
-11.9575666065
 20
-25.313922478
 10
-11.9575151842
 20
-25.3102070382
 10
-11.9574275608
 20
-25.3008340572
  0
LINE
  5
3CE
100
AcDbEntity
  8
CURVE
100
AcDbLine
 62
7
  6
CONTINUOUS
 10
-8.4655887738
 20
2.3739931704
 11
-7.8259395082
 21
3.013642436
  0
LINE
  5
3CF
100
AcDbEntity
  8
CURVE
100
AcDbLine
 62
7
  6
CONTINUOUS
 10
-8.2680231391
 20
2.3739931704
 11
-7.6454171391
 21
2.9965991704
  0
LINE
  5
3D0
100
AcDbEntity
  8
CURVE
100
AcDbLine
 62
7
  6
CONTINUOUS
 10
-8.0704575044
 20
2.3739931704
 11
-7.4478515044
 21
2.9965991704
  0
LINE
  5
3D1
100
AcDbEntity
  8
CURVE
100
AcDbLine
 62
7
  6
CONTINUOUS
 10
-7.8728918698
 20
2.3739931704
 11
-7.2502858698
 21
2.9965991704
  0
LINE
  5
3D2
100
AcDbEntity
  8
CURVE
100
AcDbLine
 62
7
  6
CONTINUOUS
 10
-7.6753262351
 20
2.3739931704
 11
-7.0527202351
 21
2.9965991704
  0
LINE
  5
3D3
100
AcDbEntity
  8
CURVE
100
AcDbLine
 62
7
  6
CONTINUOUS
 10
-7.4777606004
 20
2.3739931704
 11
-6.8551546004
 21
2.9965991704
  0
LINE
  5
3D4
100
AcDbEntity
  8
CURVE
100
AcDbLine
 62
7
  6
CONTINUOUS
 10
-7.2801949658
 20
2.3739931704
 11
-6.7093476155
 21
2.9448405207
  0
LINE
  5
3D5
100
AcDbEntity
  8
CURVE
100
AcDbLine
 62
7
  6
CONTINUOUS
 10
-7.0826293311
 20
2.3739931704
 11
-6.7093476155
 21
2.7472748861
  0
LINE
  5
3D6
100
AcDbEntity
  8
CURVE
100
AcDbLine
 62
7
  6
CONTINUOUS
 10
-6.8850636965
 20
2.3739931704
 11
-6.7093476155
 21
2.5497092514
  0
LINE
  5
3D7
100
AcDbEntity
  8
RACCORDO
100
AcDbLine
 62
7
  6
CONTINUOUS
 10
26.308104791
 20
-6.84110269
 11
-0.4593476155
 21
-6.9662959534
  0
LINE
  5
3D8
100
AcDbEntity
  8
ASSI
100
AcDbLine
 62
7
  6
CONTINUOUS
 10
26.308104791
 20
-6.84110269
 11
-0.4593476155
 21
-6.9662959534
  0
LINE
  5
3D9
100
AcDbEntity
  8
RACCORDO
100
AcDbLine
 62
7
  6
CONTINUOUS
 10
25.7906523845
 20
-6.5767968296
 11
-0.4593476155
 21
-6.6381787055
  0
LINE
  5
3DA
100
AcDbEntity
  8
ASSI
100
AcDbLine
 62
7
  6
CONTINUOUS
 10
25.7906523845
 20
-6.5767968296
 11
-0.4593476155
 21
-6.6381787055
  0
LINE
  5
3DB
100
AcDbEntity
  8
CURVE
100
AcDbLine
 62
253
  6
CONTINUOUS
 10
-6.2093626132
 20
-6.7852998296
 11
-9.1090509093
 21
-6.7852998296
  0
LINE
  5
3DC
100
AcDbEntity
  8
RACCORDO
100
AcDbLine
 62
7
  6
CONTINUOUS
 10
27.2906523845
 20
-6.5767968296
 11
25.7906523845
 21
-6.5767968296
  0
LINE
  5
3DD
100
AcDbEntity
  8
ASSI
100
AcDbLine
 62
7
  6
CONTINUOUS
 10
27.2906523845
 20
-6.5767968296
 11
25.7906523845
 21
-6.5767968296
  0
LINE
  5
3DE
100
AcDbEntity
  8
CURVE
100
AcDbLine
 62
253
  6
CONTINUOUS
 10
-8.5726106242
 20
-6.2132748296
 11
-7.8669891102
 21
-6.2132678296
  0
LINE
  5
3DF
100
AcDbEntity
  8
RACCORDO
100
AcDbLine
 62
7
  6
CONTINUOUS
 10
25.7906523845
 20
-5.0767968296
 11
27.2906523845
 21
-5.0767968296
  0
LINE
  5
3E0
100
AcDbEntity
  8
ASSI
100
AcDbLine
 62
7
  6
CONTINUOUS
 10
25.7906523845
 20
-5.0767968296
 11
27.2906523845
 21
-5.0767968296
  0
LINE
  5
3E1
100
AcDbEntity
  8
CURVE
100
AcDbLine
 62
253
  6
CONTINUOUS
 10
-7.3305488251
 20
-6.2052058296
 11
-6.2093626132
 21
-6.2052708296
  0
LINE
  5
3E2
100
AcDbEntity
  8
RACCORDO
100
AcDbLine
 62
7
  6
CONTINUOUS
 10
25.7906523845
 20
-5.0767968296
 11
-0.4593476155
 21
-5.0154149537
  0
LINE
  5
3E3
100
AcDbEntity
  8
ASSI
100
AcDbLine
 62
7
  6
CONTINUOUS
 10
25.7906523845
 20
-5.0767968296
 11
-0.4593476155
 21
-5.0154149537
  0
LWPOLYLINE
  5
3E4
100
AcDbEntity
  8
RACCORDO
100
AcDbPolyline
 62
7
  6
CONTINUOUS
 90
34
 70
0
 10
-0.4593476155
 20
-6.9662959534
 10
-0.5697424046
 20
-6.9611776536
 10
-0.6771872758
 20
-6.9461880641
 10
-0.7816822293
 20
-6.9213271849
 10
-0.8840525165
 20
-6.8862311754
 10
-0.9834728859
 20
-6.8412638761
 10
-1.0774675828
 20
-6.7875168094
 10
-1.166039274
 20
-6.7246285896
 10
-1.2491852927
 20
-6.6529606022
 10
-1.3244218842
 20
-6.5746885265
 10
-1.3913713633
 20
-6.4898662607
 10
-1.4504114151
 20
-6.3984399065
 10
-1.500191341
 20
-6.3024234488
 10
-1.5405974703
 20
-6.2013480042
 10
-1.5717434735
 20
-6.0956824561
 10
-1.5926196632
 20
-5.98884744
 10
-1.6028894767
 20
-5.8812035224
 10
-1.6028894767
 20
-5.7723901367
 10
-1.5926196632
 20
-5.6647462191
 10
-1.5717434735
 20
-5.557911203
 10
-1.5405974703
 20
-5.4522456549
 10
-1.500191341
 20
-5.3511702103
 10
-1.4504114151
 20
-5.2551537526
 10
-1.3913713633
 20
-5.1637273985
 10
-1.3244218842
 20
-5.0789051326
 10
-1.2491852927
 20
-5.0006330569
 10
-1.166039274
 20
-4.9289650696
 10
-1.0774675828
 20
-4.8660768497
 10
-0.9834728859
 20
-4.812329783
 10
-0.8840525165
 20
-4.7673624838
 10
-0.7816822293
 20
-4.7322664742
 10
-0.6771872758
 20
-4.707405595
 10
-0.5697424046
 20
-4.6924160056
 10
-0.4593476155
 20
-4.6872977058
  0
LWPOLYLINE
  5
3E5
100
AcDbEntity
  8
ASSI
100
AcDbPolyline
 62
7
  6
CONTINUOUS
 90
34
 70
0
 10
-0.4593476155
 20
-6.9662959534
 10
-0.5697424046
 20
-6.9611776536
 10
-0.6771872758
 20
-6.9461880641
 10
-0.7816822293
 20
-6.9213271849
 10
-0.8840525165
 20
-6.8862311754
 10
-0.9834728859
 20
-6.8412638761
 10
-1.0774675828
 20
-6.7875168094
 10
-1.166039274
 20
-6.7246285896
 10
-1.2491852927
 20
-6.6529606022
 10
-1.3244218842
 20
-6.5746885265
 10
-1.3913713633
 20
-6.4898662607
 10
-1.4504114151
 20
-6.3984399065
 10
-1.500191341
 20
-6.3024234488
 10
-1.5405974703
 20
-6.2013480042
 10
-1.5717434735
 20
-6.0956824561
 10
-1.5926196632
 20
-5.98884744
 10
-1.6028894767
 20
-5.8812035224
 10
-1.6028894767
 20
-5.7723901367
 10
-1.5926196632
 20
-5.6647462191
 10
-1.5717434735
 20
-5.557911203
 10
-1.5405974703
 20
-5.4522456549
 10
-1.500191341
 20
-5.3511702103
 10
-1.4504114151
 20
-5.2551537526
 10
-1.3913713633
 20
-5.1637273985
 10
-1.3244218842
 20
-5.0789051326
 10
-1.2491852927
 20
-5.0006330569
 10
-1.166039274
 20
-4.9289650696
 10
-1.0774675828
 20
-4.8660768497
 10
-0.9834728859
 20
-4.812329783
 10
-0.8840525165
 20
-4.7673624838
 10
-0.7816822293
 20
-4.7322664742
 10
-0.6771872758
 20
-4.707405595
 10
-0.5697424046
 20
-4.6924160056
 10
-0.4593476155
 20
-4.6872977058
  0
LINE
  5
3E6
100
AcDbEntity
  8
ASSI
100
AcDbLine
 62
7
  6
CONTINUOUS
 10
-4.7093476155
 20
-24.0831546443
 11
-4.7093476155
 21
-23.1569818872
  0
LINE
  5
3E7
100
AcDbEntity
  8
ASSI
100
AcDbLine
 62
7
  6
CONTINUOUS
 10
-4.7093476155
 20
21.5033882281
 11
-4.7093476155
 21
22.4295609851
  0
LINE
  5
3E8
100
AcDbEntity
  8
CURVE
100
AcDbLine
 62
253
  6
CONTINUOUS
 10
-4.6090582363
 20
14.3303458334
 11
-4.6090582363
 21
15.2803458334
  0
LINE
  5
3E9
100
AcDbEntity
  8
CURVE
100
AcDbLine
 62
253
  6
CONTINUOUS
 10
-3.1164284668
 20
13.7874889494
 11
-3.1164284668
 21
12.8374889494
  0
LINE
  5
3EA
100
AcDbEntity
  8
CURVE
100
AcDbLine
 62
253
  6
CONTINUOUS
 10
-3.1164284668
 20
11.2089173914
 11
-3.1164284668
 21
10.2589175047
  0
LWPOLYLINE
  5
3EB
100
AcDbEntity
  8
RACCORDO
100
AcDbPolyline
 62
7
  6
CONTINUOUS
 90
31
 70
0
 10
-0.4593476155
 20
-5.0154149537
 10
-0.5457829975
 20
-5.0200782142
 10
-0.6294898693
 20
-5.033151921
 10
-0.710468231
 20
-5.054636074
 10
-0.7895307447
 20
-5.0849406743
 10
-0.8658647483
 20
-5.1236557209
 10
-0.9370322553
 20
-5.1695512104
 10
-1.0028883641
 20
-5.2228860271
 10
-1.0635779763
 20
-5.2834012867
 10
-1.1170978094
 20
-5.3490903336
 10
-1.1631880153
 20
-5.4200644312
 10
-1.2021084421
 20
-5.496212316
 10
-1.2326353517
 20
-5.5751935429
 10
-1.2545256506
 20
-5.6571724105
 10
-1.2680224322
 20
-5.74198462
 10
-1.272631239
 20
-5.8267968296
 10
-1.2680224322
 20
-5.9116090391
 10
-1.2545256506
 20
-5.9964212487
 10
-1.2326353517
 20
-6.0784001163
 10
-1.2021084421
 20
-6.1573813431
 10
-1.1631880153
 20
-6.233529228
 10
-1.1170978094
 20
-6.3045033255
 10
-1.0635779763
 20
-6.3701923724
 10
-1.0028883641
 20
-6.4307076321
 10
-0.9370322553
 20
-6.4840424487
 10
-0.8658647483
 20
-6.5299379382
 10
-0.7895307447
 20
-6.5686529848
 10
-0.710468231
 20
-6.5989575851
 10
-0.6294898693
 20
-6.6204417381
 10
-0.5457829975
 20
-6.6335154449
 10
-0.4593476155
 20
-6.6381787055
  0
LWPOLYLINE
  5
3EC
100
AcDbEntity
  8
ASSI
100
AcDbPolyline
 62
7
  6
CONTINUOUS
 90
31
 70
0
 10
-0.4593476155
 20
-5.0154149537
 10
-0.5457829975
 20
-5.0200782142
 10
-0.6294898693
 20
-5.033151921
 10
-0.710468231
 20
-5.054636074
 10
-0.7895307447
 20
-5.0849406743
 10
-0.8658647483
 20
-5.1236557209
 10
-0.9370322553
 20
-5.1695512104
 10
-1.0028883641
 20
-5.2228860271
 10
-1.0635779763
 20
-5.2834012867
 10
-1.1170978094
 20
-5.3490903336
 10
-1.1631880153
 20
-5.4200644312
 10
-1.2021084421
 20
-5.496212316
 10
-1.2326353517
 20
-5.5751935429
 10
-1.2545256506
 20
-5.6571724105
 10
-1.2680224322
 20
-5.74198462
 10
-1.272631239
 20
-5.8267968296
 10
-1.2680224322
 20
-5.9116090391
 10
-1.2545256506
 20
-5.9964212487
 10
-1.2326353517
 20
-6.0784001163
 10
-1.2021084421
 20
-6.1573813431
 10
-1.1631880153
 20
-6.233529228
 10
-1.1170978094
 20
-6.3045033255
 10
-1.0635779763
 20
-6.3701923724
 10
-1.0028883641
 20
-6.4307076321
 10
-0.9370322553
 20
-6.4840424487
 10
-0.8658647483
 20
-6.5299379382
 10
-0.7895307447
 20
-6.5686529848
 10
-0.710468231
 20
-6.5989575851
 10
-0.6294898693
 20
-6.6204417381
 10
-0.5457829975
 20
-6.6335154449
 10
-0.4593476155
 20
-6.6381787055
  0
LINE
  5
3ED
100
AcDbEntity
  8
RACCORDO
100
AcDbLine
 62
7
  6
CONTINUOUS
 10
26.308104791
 20
-4.8124909691
 11
-0.4593476155
 21
-4.6872977058
  0
LINE
  5
3EE
100
AcDbEntity
  8
ASSI
100
AcDbLine
 62
7
  6
CONTINUOUS
 10
26.308104791
 20
-4.8124909691
 11
-0.4593476155
 21
-4.6872977058
  0
LINE
  5
3EF
100
AcDbEntity
  8
RACCORDO
100
AcDbLine
 62
253
  6
CONTINUOUS
 10
-2.2006214123
 20
20.7391786037
 11
-2.2006214123
 21
20.1649114347
  0
LINE
  5
3F0
100
AcDbEntity
  8
RACCORDO
100
AcDbLine
 62
253
  6
CONTINUOUS
 10
-2.2006214123
 20
-21.8185050938
 11
-2.2006214123
 21
-22.3927722628
  0
LINE
  5
3F1
100
AcDbEntity
  8
ASSI
100
AcDbLine
 62
7
  6
CONTINUOUS
 10
-1.7093476155
 20
-21.5022461803
 11
-1.7093476155
 21
-20.1449273887
  0
LINE
  5
3F2
100
AcDbEntity
  8
RACCORDO
100
AcDbLine
 62
7
  6
CONTINUOUS
 10
-1.7093476155
 20
-20.1449273887
 11
-1.7093476155
 21
-22.1394900733
  0
LINE
  5
3F3
100
AcDbEntity
  8
ASSI
100
AcDbLine
 62
7
  6
CONTINUOUS
 10
-1.7093476155
 20
18.4913337295
 11
-1.7093476155
 21
19.8486525212
  0
LINE
  5
3F4
100
AcDbEntity
  8
RACCORDO
100
AcDbLine
 62
7
  6
CONTINUOUS
 10
-1.7093476155
 20
18.4913337295
 11
-1.7093476155
 21
20.4858964141
  0
LINE
  5
3F5
100
AcDbEntity
  8
RACCORDO
100
AcDbLine
 62
253
  6
CONTINUOUS
 10
-0.4593476155
 20
13.3618212945
 11
-0.4593476155
 21
13.0337040466
  0
LINE
  5
3F6
100
AcDbEntity
  8
ASSI
100
AcDbLine
 62
253
  6
CONTINUOUS
 10
-0.4593476155
 20
13.3618212945
 11
-0.4593476155
 21
13.0337040466
  0
LINE
  5
3F7
100
AcDbEntity
  8
RACCORDO
100
AcDbLine
 62
253
  6
CONTINUOUS
 10
-0.4593476155
 20
8.3618212945
 11
-0.4593476155
 21
8.0337040466
  0
LINE
  5
3F8
100
AcDbEntity
  8
ASSI
100
AcDbLine
 62
253
  6
CONTINUOUS
 10
-0.4593476155
 20
8.3618212945
 11
-0.4593476155
 21
8.0337040466
  0
LINE
  5
3F9
100
AcDbEntity
  8
RACCORDO
100
AcDbLine
 62
253
  6
CONTINUOUS
 10
-0.4593476155
 20
3.3618212945
 11
-0.4593476155
 21
3.0337040466
  0
LINE
  5
3FA
100
AcDbEntity
  8
ASSI
100
AcDbLine
 62
253
  6
CONTINUOUS
 10
-0.4593476155
 20
3.3618212945
 11
-0.4593476155
 21
3.0337040466
  0
LINE
  5
3FB
100
AcDbEntity
  8
RACCORDO
100
AcDbLine
 62
253
  6
CONTINUOUS
 10
-0.4593476155
 20
-1.6381787055
 11
-0.4593476155
 21
-1.9662959534
  0
LINE
  5
3FC
100
AcDbEntity
  8
ASSI
100
AcDbLine
 62
253
  6
CONTINUOUS
 10
-0.4593476155
 20
-1.6381787055
 11
-0.4593476155
 21
-1.9662959534
  0
LINE
  5
3FD
100
AcDbEntity
  8
RACCORDO
100
AcDbLine
 62
253
  6
CONTINUOUS
 10
-0.4593476155
 20
-15.0154149537
 11
-0.4593476155
 21
-14.6872977058
  0
LINE
  5
3FE
100
AcDbEntity
  8
ASSI
100
AcDbLine
 62
253
  6
CONTINUOUS
 10
-0.4593476155
 20
-15.0154149537
 11
-0.4593476155
 21
-14.6872977058
  0
LINE
  5
3FF
100
AcDbEntity
  8
RACCORDO
100
AcDbLine
 62
253
  6
CONTINUOUS
 10
-0.4593476155
 20
-6.6381787055
 11
-0.4593476155
 21
-6.9662959534
  0
LINE
  5
400
100
AcDbEntity
  8
ASSI
100
AcDbLine
 62
253
  6
CONTINUOUS
 10
-0.4593476155
 20
-6.6381787055
 11
-0.4593476155
 21
-6.9662959534
  0
LINE
  5
401
100
AcDbEntity
  8
RACCORDO
100
AcDbLine
 62
253
  6
CONTINUOUS
 10
-0.4593476155
 20
-10.0154149537
 11
-0.4593476155
 21
-9.6872977058
  0
LINE
  5
402
100
AcDbEntity
  8
ASSI
100
AcDbLine
 62
253
  6
CONTINUOUS
 10
-0.4593476155
 20
-10.0154149537
 11
-0.4593476155
 21
-9.6872977058
  0
LINE
  5
403
100
AcDbEntity
  8
RACCORDO
100
AcDbLine
 62
253
  6
CONTINUOUS
 10
-0.4593476155
 20
-11.6381787055
 11
-0.4593476155
 21
-11.9662959534
  0
LINE
  5
404
100
AcDbEntity
  8
ASSI
100
AcDbLine
 62
253
  6
CONTINUOUS
 10
-0.4593476155
 20
-11.6381787055
 11
-0.4593476155
 21
-11.9662959534
  0
LINE
  5
405
100
AcDbEntity
  8
RACCORDO
100
AcDbLine
 62
253
  6
CONTINUOUS
 10
-0.4593476155
 20
-5.0154149537
 11
-0.4593476155
 21
-4.6872977058
  0
LINE
  5
406
100
AcDbEntity
  8
ASSI
100
AcDbLine
 62
253
  6
CONTINUOUS
 10
-0.4593476155
 20
-5.0154149537
 11
-0.4593476155
 21
-4.6872977058
  0
LINE
  5
407
100
AcDbEntity
  8
RACCORDO
100
AcDbLine
 62
253
  6
CONTINUOUS
 10
-0.4593476155
 20
-16.6381787055
 11
-0.4593476155
 21
-16.9662959534
  0
LINE
  5
408
100
AcDbEntity
  8
ASSI
100
AcDbLine
 62
253
  6
CONTINUOUS
 10
-0.4593476155
 20
-16.6381787055
 11
-0.4593476155
 21
-16.9662959534
  0
LINE
  5
409
100
AcDbEntity
  8
RACCORDO
100
AcDbLine
 62
253
  6
CONTINUOUS
 10
-0.4593476155
 20
-0.0154149537
 11
-0.4593476155
 21
0.3127022942
  0
LINE
  5
40A
100
AcDbEntity
  8
ASSI
100
AcDbLine
 62
253
  6
CONTINUOUS
 10
-0.4593476155
 20
-0.0154149537
 11
-0.4593476155
 21
0.3127022942
  0
LINE
  5
40B
100
AcDbEntity
  8
RACCORDO
100
AcDbLine
 62
253
  6
CONTINUOUS
 10
-0.4593476155
 20
4.9845850463
 11
-0.4593476155
 21
5.3127022942
  0
LINE
  5
40C
100
AcDbEntity
  8
ASSI
100
AcDbLine
 62
253
  6
CONTINUOUS
 10
-0.4593476155
 20
4.9845850463
 11
-0.4593476155
 21
5.3127022942
  0
LINE
  5
40D
100
AcDbEntity
  8
RACCORDO
100
AcDbLine
 62
253
  6
CONTINUOUS
 10
-0.4593476155
 20
9.9845850463
 11
-0.4593476155
 21
10.3127022942
  0
LINE
  5
40E
100
AcDbEntity
  8
ASSI
100
AcDbLine
 62
253
  6
CONTINUOUS
 10
-0.4593476155
 20
9.9845850463
 11
-0.4593476155
 21
10.3127022942
  0
LINE
  5
40F
100
AcDbEntity
  8
RACCORDO
100
AcDbLine
 62
253
  6
CONTINUOUS
 10
-0.4593476155
 20
14.9845850463
 11
-0.4593476155
 21
15.3127022942
  0
LINE
  5
410
100
AcDbEntity
  8
ASSI
100
AcDbLine
 62
253
  6
CONTINUOUS
 10
-0.4593476155
 20
14.9845850463
 11
-0.4593476155
 21
15.3127022942
  0
LWPOLYLINE
  5
411
100
AcDbEntity
  8
RACCORDO
100
AcDbPolyline
 62
7
  6
CONTINUOUS
 90
31
 70
0
 10
-0.4593476155
 20
-0.0154149537
 10
-0.5457829975
 20
-0.0200782142
 10
-0.6294898693
 20
-0.033151921
 10
-0.710468231
 20
-0.054636074
 10
-0.7895307447
 20
-0.0849406743
 10
-0.8658647483
 20
-0.1236557209
 10
-0.9370322553
 20
-0.1695512104
 10
-1.0028883641
 20
-0.2228860271
 10
-1.0635779763
 20
-0.2834012867
 10
-1.1170978094
 20
-0.3490903336
 10
-1.1631880153
 20
-0.4200644312
 10
-1.2021084421
 20
-0.496212316
 10
-1.2326353517
 20
-0.5751935429
 10
-1.2545256506
 20
-0.6571724105
 10
-1.2680224322
 20
-0.74198462
 10
-1.272631239
 20
-0.8267968296
 10
-1.2680224322
 20
-0.9116090391
 10
-1.2545256506
 20
-0.9964212487
 10
-1.2326353517
 20
-1.0784001163
 10
-1.2021084421
 20
-1.1573813431
 10
-1.1631880153
 20
-1.233529228
 10
-1.1170978094
 20
-1.3045033255
 10
-1.0635779763
 20
-1.3701923724
 10
-1.0028883641
 20
-1.4307076321
 10
-0.9370322553
 20
-1.4840424487
 10
-0.8658647483
 20
-1.5299379382
 10
-0.7895307447
 20
-1.5686529848
 10
-0.710468231
 20
-1.5989575851
 10
-0.6294898693
 20
-1.6204417381
 10
-0.5457829975
 20
-1.6335154449
 10
-0.4593476155
 20
-1.6381787055
  0
LWPOLYLINE
  5
412
100
AcDbEntity
  8
ASSI
100
AcDbPolyline
 62
7
  6
CONTINUOUS
 90
31
 70
0
 10
-0.4593476155
 20
-0.0154149537
 10
-0.5457829975
 20
-0.0200782142
 10
-0.6294898693
 20
-0.033151921
 10
-0.710468231
 20
-0.054636074
 10
-0.7895307447
 20
-0.0849406743
 10
-0.8658647483
 20
-0.1236557209
 10
-0.9370322553
 20
-0.1695512104
 10
-1.0028883641
 20
-0.2228860271
 10
-1.0635779763
 20
-0.2834012867
 10
-1.1170978094
 20
-0.3490903336
 10
-1.1631880153
 20
-0.4200644312
 10
-1.2021084421
 20
-0.496212316
 10
-1.2326353517
 20
-0.5751935429
 10
-1.2545256506
 20
-0.6571724105
 10
-1.2680224322
 20
-0.74198462
 10
-1.272631239
 20
-0.8267968296
 10
-1.2680224322
 20
-0.9116090391
 10
-1.2545256506
 20
-0.9964212487
 10
-1.2326353517
 20
-1.0784001163
 10
-1.2021084421
 20
-1.1573813431
 10
-1.1631880153
 20
-1.233529228
 10
-1.1170978094
 20
-1.3045033255
 10
-1.0635779763
 20
-1.3701923724
 10
-1.0028883641
 20
-1.4307076321
 10
-0.9370322553
 20
-1.4840424487
 10
-0.8658647483
 20
-1.5299379382
 10
-0.7895307447
 20
-1.5686529848
 10
-0.710468231
 20
-1.5989575851
 10
-0.6294898693
 20
-1.6204417381
 10
-0.5457829975
 20
-1.6335154449
 10
-0.4593476155
 20
-1.6381787055
  0
LINE
  5
413
100
AcDbEntity
  8
RACCORDO
100
AcDbLine
 62
7
  6
CONTINUOUS
 10
26.308104791
 20
-1.84110269
 11
-0.4593476155
 21
-1.9662959534
  0
LINE
  5
414
100
AcDbEntity
  8
ASSI
100
AcDbLine
 62
7
  6
CONTINUOUS
 10
26.308104791
 20
-1.84110269
 11
-0.4593476155
 21
-1.9662959534
  0
LINE
  5
415
100
AcDbEntity
  8
RACCORDO
100
AcDbLine
 62
7
  6
CONTINUOUS
 10
25.7906523845
 20
-1.5767968296
 11
-0.4593476155
 21
-1.6381787055
  0
LINE
  5
416
100
AcDbEntity
  8
ASSI
100
AcDbLine
 62
7
  6
CONTINUOUS
 10
25.7906523845
 20
-1.5767968296
 11
-0.4593476155
 21
-1.6381787055
  0
LINE
  5
417
100
AcDbEntity
  8
RACCORDO
100
AcDbLine
 62
7
  6
CONTINUOUS
 10
27.2906523845
 20
-1.5767968296
 11
25.7906523845
 21
-1.5767968296
  0
LINE
  5
418
100
AcDbEntity
  8
ASSI
100
AcDbLine
 62
7
  6
CONTINUOUS
 10
27.2906523845
 20
-1.5767968296
 11
25.7906523845
 21
-1.5767968296
  0
LINE
  5
419
100
AcDbEntity
  8
RACCORDO
100
AcDbLine
 62
7
  6
CONTINUOUS
 10
25.7906523845
 20
-0.0767968296
 11
27.2906523845
 21
-0.0767968296
  0
LINE
  5
41A
100
AcDbEntity
  8
ASSI
100
AcDbLine
 62
7
  6
CONTINUOUS
 10
25.7906523845
 20
-0.0767968296
 11
27.2906523845
 21
-0.0767968296
  0
LINE
  5
41B
100
AcDbEntity
  8
RACCORDO
100
AcDbLine
 62
7
  6
CONTINUOUS
 10
25.7906523845
 20
-0.0767968296
 11
-0.4593476155
 21
-0.0154149537
  0
LINE
  5
41C
100
AcDbEntity
  8
ASSI
100
AcDbLine
 62
7
  6
CONTINUOUS
 10
25.7906523845
 20
-0.0767968296
 11
-0.4593476155
 21
-0.0154149537
  0
LINE
  5
41D
100
AcDbEntity
  8
RACCORDO
100
AcDbLine
 62
7
  6
CONTINUOUS
 10
26.308104791
 20
0.1875090309
 11
-0.4593476155
 21
0.3127022942
  0
LINE
  5
41E
100
AcDbEntity
  8
ASSI
100
AcDbLine
 62
7
  6
CONTINUOUS
 10
26.308104791
 20
0.1875090309
 11
-0.4593476155
 21
0.3127022942
  0
LWPOLYLINE
  5
41F
100
AcDbEntity
  8
RACCORDO
100
AcDbPolyline
 62
7
  6
CONTINUOUS
 90
34
 70
0
 10
-0.4593476155
 20
-1.9662959534
 10
-0.5697424046
 20
-1.9611776536
 10
-0.6771872758
 20
-1.9461880641
 10
-0.7816822293
 20
-1.9213271849
 10
-0.8840525165
 20
-1.8862311754
 10
-0.9834728859
 20
-1.8412638761
 10
-1.0774675828
 20
-1.7875168094
 10
-1.166039274
 20
-1.7246285896
 10
-1.2491852927
 20
-1.6529606022
 10
-1.3244218842
 20
-1.5746885265
 10
-1.3913713633
 20
-1.4898662607
 10
-1.4504114151
 20
-1.3984399065
 10
-1.500191341
 20
-1.3024234488
 10
-1.5405974703
 20
-1.2013480042
 10
-1.5717434735
 20
-1.0956824561
 10
-1.5926196632
 20
-0.98884744
 10
-1.6028894767
 20
-0.8812035224
 10
-1.6028894767
 20
-0.7723901367
 10
-1.5926196632
 20
-0.6647462191
 10
-1.5717434735
 20
-0.557911203
 10
-1.5405974703
 20
-0.4522456549
 10
-1.500191341
 20
-0.3511702103
 10
-1.4504114151
 20
-0.2551537526
 10
-1.3913713633
 20
-0.1637273985
 10
-1.3244218842
 20
-0.0789051326
 10
-1.2491852927
 20
-0.0006330569
 10
-1.166039274
 20
0.0710349304
 10
-1.0774675828
 20
0.1339231503
 10
-0.9834728859
 20
0.187670217
 10
-0.8840525165
 20
0.2326375162
 10
-0.7816822293
 20
0.2677335258
 10
-0.6771872758
 20
0.292594405
 10
-0.5697424046
 20
0.3075839944
 10
-0.4593476155
 20
0.3127022942
  0
LWPOLYLINE
  5
420
100
AcDbEntity
  8
ASSI
100
AcDbPolyline
 62
7
  6
CONTINUOUS
 90
34
 70
0
 10
-0.4593476155
 20
-1.9662959534
 10
-0.5697424046
 20
-1.9611776536
 10
-0.6771872758
 20
-1.9461880641
 10
-0.7816822293
 20
-1.9213271849
 10
-0.8840525165
 20
-1.8862311754
 10
-0.9834728859
 20
-1.8412638761
 10
-1.0774675828
 20
-1.7875168094
 10
-1.166039274
 20
-1.7246285896
 10
-1.2491852927
 20
-1.6529606022
 10
-1.3244218842
 20
-1.5746885265
 10
-1.3913713633
 20
-1.4898662607
 10
-1.4504114151
 20
-1.3984399065
 10
-1.500191341
 20
-1.3024234488
 10
-1.5405974703
 20
-1.2013480042
 10
-1.5717434735
 20
-1.0956824561
 10
-1.5926196632
 20
-0.98884744
 10
-1.6028894767
 20
-0.8812035224
 10
-1.6028894767
 20
-0.7723901367
 10
-1.5926196632
 20
-0.6647462191
 10
-1.5717434735
 20
-0.557911203
 10
-1.5405974703
 20
-0.4522456549
 10
-1.500191341
 20
-0.3511702103
 10
-1.4504114151
 20
-0.2551537526
 10
-1.3913713633
 20
-0.1637273985
 10
-1.3244218842
 20
-0.0789051326
 10
-1.2491852927
 20
-0.0006330569
 10
-1.166039274
 20
0.0710349304
 10
-1.0774675828
 20
0.1339231503
 10
-0.9834728859
 20
0.187670217
 10
-0.8840525165
 20
0.2326375162
 10
-0.7816822293
 20
0.2677335258
 10
-0.6771872758
 20
0.292594405
 10
-0.5697424046
 20
0.3075839944
 10
-0.4593476155
 20
0.3127022942
  0
LWPOLYLINE
  5
421
100
AcDbEntity
  8
RACCORDO
100
AcDbPolyline
 62
253
  6
CONTINUOUS
 90
5
 70
0
 10
-11.8368432179
 20
-24.4594734138
 10
-11.8357108419
 20
-24.4573826214
 10
-11.8349161564
 20
-24.4558756514
 10
-11.8344613336
 20
-24.454956623
 10
-11.8343476155
 20
-24.4546280459
  0
LINE
  5
422
100
AcDbEntity
  8
RACCORDO
100
AcDbLine
 62
253
  6
CONTINUOUS
 10
-11.8401077683
 20
-24.4653820667
 11
-11.8368432179
 21
-24.4594734138
  0
LINE
  5
423
100
AcDbEntity
  8
RACCORDO
100
AcDbLine
 62
253
  6
CONTINUOUS
 10
-11.8474306257
 20
-24.4784303091
 11
-11.8401077683
 21
-24.4653820667
  0
LINE
  5
424
100
AcDbEntity
  8
RACCORDO
100
AcDbLine
 62
253
  6
CONTINUOUS
 10
-11.8700678813
 20
-24.5182762337
 11
-11.8474306257
 21
-24.4784303091
  0
LINE
  5
425
100
AcDbEntity
  8
RACCORDO
100
AcDbLine
 62
253
  6
CONTINUOUS
 10
-11.9448717464
 20
-24.6485661206
 11
-11.8700678813
 21
-24.5182762337
  0
LINE
  5
426
100
AcDbEntity
  8
RACCORDO
100
AcDbLine
 62
253
  6
CONTINUOUS
 10
-11.9578931826
 20
-24.6711343969
 11
-11.9448717464
 21
-24.6485661206
  0
LINE
  5
427
100
AcDbEntity
  8
CURVE
100
AcDbLine
 62
253
  6
CONTINUOUS
 10
-7.4002832026
 20
-5.0818188296
 11
-6.2093696121
 21
-4.4644158296
  0
LINE
  5
428
100
AcDbEntity
  8
CURVE
100
AcDbLine
 62
253
  6
CONTINUOUS
 10
-6.2093626132
 20
-5.1177208296
 11
-7.3305418262
 21
-5.6989748296
  0
LINE
  5
429
100
AcDbEntity
  8
RACCORDO
100
AcDbLine
 62
7
  6
CONTINUOUS
 10
19.2703978185
 20
3.125981458
 11
-0.4593476155
 21
3.0337040466
  0
LINE
  5
42A
100
AcDbEntity
  8
ASSI
100
AcDbLine
 62
7
  6
CONTINUOUS
 10
19.2703978185
 20
3.125981458
 11
-0.4593476155
 21
3.0337040466
  0
LINE
  5
42B
100
AcDbEntity
  8
CURVE
100
AcDbLine
 62
253
  6
CONTINUOUS
 10
-9.6089069313
 20
2.3739931704
 11
-6.7093476155
 21
2.3739931704
  0
LINE
  5
42C
100
AcDbEntity
  8
CURVE
100
AcDbLine
 62
253
  6
CONTINUOUS
 10
-6.7093476155
 20
2.9965991704
 11
-7.8259395272
 21
2.9965991704
  0
LINE
  5
42D
100
AcDbEntity
  8
CURVE
100
AcDbLine
 62
253
  6
CONTINUOUS
 10
-8.3077991265
 20
2.9965991704
 11
-9.127047332
 21
2.9965991704
  0
LINE
  5
42E
100
AcDbEntity
  8
RACCORDO
100
AcDbLine
 62
7
  6
CONTINUOUS
 10
26.308104791
 20
2.0458844039
 11
21.0906523845
 21
2.0732031704
  0
LINE
  5
42F
100
AcDbEntity
  8
ASSI
100
AcDbLine
 62
7
  6
CONTINUOUS
 10
26.308104791
 20
2.0458844039
 11
21.0906523845
 21
2.0732031704
  0
LINE
  5
430
100
AcDbEntity
  8
DRAFT
100
AcDbLine
 62
7
  6
CONTINUOUS
 10
24.7906523845
 20
2.0712633963
 11
21.0726109604
 21
2.0912945983
  0
LINE
  5
431
100
AcDbEntity
  8
RACCORDO
100
AcDbLine
 62
7
  6
CONTINUOUS
 10
27.2906523845
 20
2.0575672113
 11
24.7906523845
 21
2.0714149059
  0
LINE
  5
432
100
AcDbEntity
  8
ASSI
100
AcDbLine
 62
7
  6
CONTINUOUS
 10
27.2906523845
 20
2.0575672113
 11
21.0726109604
 21
2.0912945983
  0
LWPOLYLINE
  5
433
100
AcDbEntity
  8
DRAFT
100
AcDbPolyline
 62
7
  6
CONTINUOUS
 90
16
 70
0
 10
21.0726109604
 20
2.0912945983
 10
20.9049640605
 20
2.0982807665
 10
20.7405604636
 20
2.1180129209
 10
20.5794001697
 20
2.1504910616
 10
20.4206023405
 20
2.1960467637
 10
20.2650478143
 20
2.2543484521
 10
20.115379106
 20
2.324401401
 10
19.971507785
 20
2.4065425179
 10
19.8335222818
 20
2.5004348952
 10
19.7043304028
 20
2.6040730846
 10
19.5842763698
 20
2.7174889701
 10
19.473015961
 20
2.8406506675
 10
19.3724243177
 20
2.9714570765
 10
19.2831264869
 20
3.1092078302
 10
19.2044974216
 20
3.2546032955
 10
19.1365371217
 20
3.4076434723
  0
LWPOLYLINE
  5
434
100
AcDbEntity
  8
ASSI
100
AcDbPolyline
 62
7
  6
CONTINUOUS
 90
16
 70
0
 10
21.0726109604
 20
2.0912945983
 10
20.9049640605
 20
2.0982807665
 10
20.7405604636
 20
2.1180129209
 10
20.5794001697
 20
2.1504910616
 10
20.4206023405
 20
2.1960467637
 10
20.2650478143
 20
2.2543484521
 10
20.115379106
 20
2.324401401
 10
19.971507785
 20
2.4065425179
 10
19.8335222818
 20
2.5004348952
 10
19.7043304028
 20
2.6040730846
 10
19.5842763698
 20
2.7174889701
 10
19.473015961
 20
2.8406506675
 10
19.3724243177
 20
2.9714570765
 10
19.2831264869
 20
3.1092078302
 10
19.2044974216
 20
3.2546032955
 10
19.1365371217
 20
3.4076434723
  0
LWPOLYLINE
  5
435
100
AcDbEntity
  8
RACCORDO
100
AcDbPolyline
 62
7
  6
CONTINUOUS
 90
34
 70
0
 10
-0.4593476155
 20
3.0337040466
 10
-0.5697424046
 20
3.0388223464
 10
-0.6771872758
 20
3.0538119359
 10
-0.7816822293
 20
3.0786728151
 10
-0.8840525165
 20
3.1137688246
 10
-0.9834728859
 20
3.1587361239
 10
-1.0774675828
 20
3.2124831906
 10
-1.166039274
 20
3.2753714104
 10
-1.2491852927
 20
3.3470393978
 10
-1.3244218842
 20
3.4253114735
 10
-1.3913713633
 20
3.5101337393
 10
-1.4504114151
 20
3.6015600935
 10
-1.500191341
 20
3.6975765512
 10
-1.5405974703
 20
3.7986519958
 10
-1.5717434735
 20
3.9043175439
 10
-1.5926196632
 20
4.01115256
 10
-1.6028894767
 20
4.1187964776
 10
-1.6028894767
 20
4.2276098633
 10
-1.5926196632
 20
4.3352537809
 10
-1.5717434735
 20
4.442088797
 10
-1.5405974703
 20
4.5477543451
 10
-1.500191341
 20
4.6488297897
 10
-1.4504114151
 20
4.7448462474
 10
-1.3913713633
 20
4.8362726015
 10
-1.3244218842
 20
4.9210948674
 10
-1.2491852927
 20
4.9993669431
 10
-1.166039274
 20
5.0710349304
 10
-1.0774675828
 20
5.1339231503
 10
-0.9834728859
 20
5.187670217
 10
-0.8840525165
 20
5.2326375162
 10
-0.7816822293
 20
5.2677335258
 10
-0.6771872758
 20
5.292594405
 10
-0.5697424046
 20
5.3075839944
 10
-0.4593476155
 20
5.3127022942
  0
LWPOLYLINE
  5
436
100
AcDbEntity
  8
ASSI
100
AcDbPolyline
 62
7
  6
CONTINUOUS
 90
34
 70
0
 10
-0.4593476155
 20
3.0337040466
 10
-0.5697424046
 20
3.0388223464
 10
-0.6771872758
 20
3.0538119359
 10
-0.7816822293
 20
3.0786728151
 10
-0.8840525165
 20
3.1137688246
 10
-0.9834728859
 20
3.1587361239
 10
-1.0774675828
 20
3.2124831906
 10
-1.166039274
 20
3.2753714104
 10
-1.2491852927
 20
3.3470393978
 10
-1.3244218842
 20
3.4253114735
 10
-1.3913713633
 20
3.5101337393
 10
-1.4504114151
 20
3.6015600935
 10
-1.500191341
 20
3.6975765512
 10
-1.5405974703
 20
3.7986519958
 10
-1.5717434735
 20
3.9043175439
 10
-1.5926196632
 20
4.01115256
 10
-1.6028894767
 20
4.1187964776
 10
-1.6028894767
 20
4.2276098633
 10
-1.5926196632
 20
4.3352537809
 10
-1.5717434735
 20
4.442088797
 10
-1.5405974703
 20
4.5477543451
 10
-1.500191341
 20
4.6488297897
 10
-1.4504114151
 20
4.7448462474
 10
-1.3913713633
 20
4.8362726015
 10
-1.3244218842
 20
4.9210948674
 10
-1.2491852927
 20
4.9993669431
 10
-1.166039274
 20
5.0710349304
 10
-1.0774675828
 20
5.1339231503
 10
-0.9834728859
 20
5.187670217
 10
-0.8840525165
 20
5.2326375162
 10
-0.7816822293
 20
5.2677335258
 10
-0.6771872758
 20
5.292594405
 10
-0.5697424046
 20
5.3075839944
 10
-0.4593476155
 20
5.3127022942
  0
LINE
  5
437
100
AcDbEntity
  8
DRAFT
100
AcDbLine
 62
253
  6
CONTINUOUS
 10
21.0726109604
 20
16.2551117425
 11
21.0906523845
 21
16.2732031704
  0
LINE
  5
438
100
AcDbEntity
  8
ASSI
100
AcDbLine
 62
253
  6
CONTINUOUS
 10
21.0726109604
 20
16.2551117425
 11
21.0906523845
 21
16.2732031704
  0
LINE
  5
439
100
AcDbEntity
  8
0
100
AcDbLine
 62
7
  6
CONTINUOUS
 10
22.5355550427
 20
15.8130805754
 11
19.7507749795
 21
13.0283005123
  0
LINE
  5
43A
100
AcDbEntity
  8
0
100
AcDbLine
 62
7
  6
CONTINUOUS
 10
20.2457497264
 20
12.5333257655
 11
23.0305297895
 21
15.3181058286
  0
LINE
  5
43B
100
AcDbEntity
  8
CURVE
100
AcDbLine
 62
253
  6
CONTINUOUS
 10
-9.1090509093
 20
-8.1031178296
 11
-6.2093546144
 21
-7.1719788296
  0
LINE
  5
43C
100
AcDbEntity
  8
CURVE
100
AcDbLine
 62
253
  6
CONTINUOUS
 10
-7.3305418262
 20
-8.1120428296
 11
-8.2059474773
 21
-8.3931468296
  0
LINE
  5
43D
100
AcDbEntity
  8
CURVE
100
AcDbLine
 62
253
  6
CONTINUOUS
 10
-6.2093626132
 20
-7.7520078296
 11
-6.7796037495
 21
-7.9351138296
  0
LWPOLYLINE
  5
43E
100
AcDbEntity
  8
RACCORDO
100
AcDbPolyline
 62
7
  6
CONTINUOUS
 90
31
 70
0
 10
-0.4593476155
 20
4.9845850463
 10
-0.5457829975
 20
4.9799217858
 10
-0.6294898693
 20
4.966848079
 10
-0.710468231
 20
4.945363926
 10
-0.7895307447
 20
4.9150593257
 10
-0.8658647483
 20
4.8763442791
 10
-0.9370322553
 20
4.8304487896
 10
-1.0028883641
 20
4.7771139729
 10
-1.0635779763
 20
4.7165987133
 10
-1.1170978094
 20
4.6509096664
 10
-1.1631880153
 20
4.5799355688
 10
-1.2021084421
 20
4.503787684
 10
-1.2326353517
 20
4.4248064571
 10
-1.2545256506
 20
4.3428275895
 10
-1.2680224322
 20
4.25801538
 10
-1.272631239
 20
4.1732031704
 10
-1.2680224322
 20
4.0883909609
 10
-1.2545256506
 20
4.0035787513
 10
-1.2326353517
 20
3.9215998837
 10
-1.2021084421
 20
3.8426186569
 10
-1.1631880153
 20
3.766470772
 10
-1.1170978094
 20
3.6954966745
 10
-1.0635779763
 20
3.6298076276
 10
-1.0028883641
 20
3.5692923679
 10
-0.9370322553
 20
3.5159575513
 10
-0.8658647483
 20
3.4700620618
 10
-0.7895307447
 20
3.4313470152
 10
-0.710468231
 20
3.4010424149
 10
-0.6294898693
 20
3.3795582619
 10
-0.5457829975
 20
3.3664845551
 10
-0.4593476155
 20
3.3618212945
  0
LWPOLYLINE
  5
43F
100
AcDbEntity
  8
ASSI
100
AcDbPolyline
 62
7
  6
CONTINUOUS
 90
31
 70
0
 10
-0.4593476155
 20
4.9845850463
 10
-0.5457829975
 20
4.9799217858
 10
-0.6294898693
 20
4.966848079
 10
-0.710468231
 20
4.945363926
 10
-0.7895307447
 20
4.9150593257
 10
-0.8658647483
 20
4.8763442791
 10
-0.9370322553
 20
4.8304487896
 10
-1.0028883641
 20
4.7771139729
 10
-1.0635779763
 20
4.7165987133
 10
-1.1170978094
 20
4.6509096664
 10
-1.1631880153
 20
4.5799355688
 10
-1.2021084421
 20
4.503787684
 10
-1.2326353517
 20
4.4248064571
 10
-1.2545256506
 20
4.3428275895
 10
-1.2680224322
 20
4.25801538
 10
-1.272631239
 20
4.1732031704
 10
-1.2680224322
 20
4.0883909609
 10
-1.2545256506
 20
4.0035787513
 10
-1.2326353517
 20
3.9215998837
 10
-1.2021084421
 20
3.8426186569
 10
-1.1631880153
 20
3.766470772
 10
-1.1170978094
 20
3.6954966745
 10
-1.0635779763
 20
3.6298076276
 10
-1.0028883641
 20
3.5692923679
 10
-0.9370322553
 20
3.5159575513
 10
-0.8658647483
 20
3.4700620618
 10
-0.7895307447
 20
3.4313470152
 10
-0.710468231
 20
3.4010424149
 10
-0.6294898693
 20
3.3795582619
 10
-0.5457829975
 20
3.3664845551
 10
-0.4593476155
 20
3.3618212945
  0
LWPOLYLINE
  5
440
100
AcDbEntity
  8
CURVE
100
AcDbPolyline
 62
253
  6
CONTINUOUS
 90
53
 70
0
 10
-8.7174230116
 20
4.4547299708
 10
-8.7518759414
 20
4.4543247549
 10
-8.7863253069
 20
4.4530734244
 10
-8.8207340942
 20
4.4509224549
 10
-8.8550652897
 20
4.4478183219
 10
-8.8892818796
 20
4.4437075011
 10
-8.9194492788
 20
4.4391815276
 10
-8.9494680794
 20
4.4337672723
 10
-8.9793085274
 20
4.4274074828
 10
-9.0089408686
 20
4.4200449069
 10
-9.0383353487
 20
4.4116222923
 10
-9.0636905745
 20
4.4033918371
 10
-9.0887921809
 20
4.3943101375
 10
-9.1135891688
 20
4.3843718885
 10
-9.1380305394
 20
4.3735717849
 10
-9.1620652937
 20
4.3619045214
 10
-9.185642433
 20
4.349364793
 10
-9.2087109582
 20
4.3359472944
 10
-9.2312198705
 20
4.3216467205
 10
-9.253118171
 20
4.306457766
 10
-9.2743548608
 20
4.2903751259
 10
-9.2935751839
 20
4.2745304763
 10
-9.3121648085
 20
4.2579400854
 10
-9.330116147
 20
4.240644296
 10
-9.347421612
 20
4.2226834509
 10
-9.3640736159
 20
4.2040978929
 10
-9.3800645712
 20
4.1849279648
 10
-9.3953868903
 20
4.1652140095
 10
-9.4100329859
 20
4.1449963697
 10
-9.4239952703
 20
4.1243153883
 10
-9.437266156
 20
4.103211408
 10
-9.4519203186
 20
4.0780212882
 10
-9.4656561237
 20
4.052348092
 10
-9.4785129366
 20
4.0262330427
 10
-9.4905301225
 20
3.9997173638
 10
-9.5017470464
 20
3.9728422786
 10
-9.5122030736
 20
3.9456490105
 10
-9.5219375692
 20
3.9181787829
 10
-9.5309898984
 20
3.890472819
 10
-9.5393994262
 20
3.8625723423
 10
-9.5489453113
 20
3.8279142178
 10
-9.5576016342
 20
3.7930452851
 10
-9.565398404
 20
3.7579883325
 10
-9.5723656299
 20
3.7227661485
 10
-9.5785333212
 20
3.6874015214
 10
-9.5839314871
 20
3.6519172396
 10
-9.5885901367
 20
3.6163360914
 10
-9.5925392794
 20
3.5806808652
 10
-9.5966115304
 20
3.535193597
 10
-9.5997781511
 20
3.4896392105
 10
-9.6022357127
 20
3.4440337837
 10
-9.6041807864
 20
3.3983933943
 10
-9.6089067906
 20
3.2614232279
  0
LINE
  5
441
100
AcDbEntity
  8
RACCORDO
100
AcDbLine
 62
7
  6
CONTINUOUS
 10
19.1365371217
 20
3.4076434723
 11
-0.4593476155
 21
3.3618212945
  0
LINE
  5
442
100
AcDbEntity
  8
ASSI
100
AcDbLine
 62
7
  6
CONTINUOUS
 10
19.1365371217
 20
3.4076434723
 11
-0.4593476155
 21
3.3618212945
  0
LINE
  5
443
100
AcDbEntity
  8
CURVE
100
AcDbLine
 62
253
  6
CONTINUOUS
 10
-6.7093476155
 20
4.8443361704
 11
-9.6089069313
 21
4.8443361704
  0
LINE
  5
444
100
AcDbEntity
  8
CURVE
100
AcDbLine
 62
253
  6
CONTINUOUS
 10
-9.6089069313
 20
5.4669421704
 11
-7.1912072147
 21
5.4669421704
  0
LINE
  5
445
100
AcDbEntity
  8
0
100
AcDbLine
 62
7
  6
CONTINUOUS
 10
24.2906523845
 20
5.5732031704
 11
19.5339459169
 21
5.5732031704
  0
LINE
  5
446
100
AcDbEntity
  8
RACCORDO
100
AcDbLine
 62
7
  6
CONTINUOUS
 10
19.1365371217
 20
4.9387628686
 11
-0.4593476155
 21
4.9845850463
  0
LINE
  5
447
100
AcDbEntity
  8
ASSI
100
AcDbLine
 62
7
  6
CONTINUOUS
 10
19.1365371217
 20
4.9387628686
 11
-0.4593476155
 21
4.9845850463
  0
LINE
  5
448
100
AcDbEntity
  8
RACCORDO
100
AcDbLine
 62
7
  6
CONTINUOUS
 10
19.2703978185
 20
5.2204248829
 11
-0.4593476155
 21
5.3127022942
  0
LINE
  5
449
100
AcDbEntity
  8
ASSI
100
AcDbLine
 62
7
  6
CONTINUOUS
 10
19.2703978185
 20
5.2204248829
 11
-0.4593476155
 21
5.3127022942
  0
LWPOLYLINE
  5
44A
100
AcDbEntity
  8
CURVE
100
AcDbPolyline
 62
253
  6
CONTINUOUS
 90
53
 70
0
 10
-8.7174230116
 20
3.7919630563
 10
-8.7045119747
 20
3.7918868227
 10
-8.6915909935
 20
3.7916403248
 10
-8.6786694068
 20
3.7911968666
 10
-8.6657565536
 20
3.7905297525
 10
-8.6528617727
 20
3.7896122864
 10
-8.6399944028
 20
3.7884177727
 10
-8.627163783
 20
3.7869195155
 10
-8.614379252
 20
3.7850908189
 10
-8.6016501487
 20
3.7829049872
 10
-8.5895585252
 20
3.7804641141
 10
-8.5775369414
 20
3.7776723273
 10
-8.565596406
 20
3.7745285524
 10
-8.5537479276
 20
3.7710317153
 10
-8.5420025151
 20
3.7671807417
 10
-8.5303711771
 20
3.7629745574
 10
-8.5188649224
 20
3.7584120879
 10
-8.5074947598
 20
3.7534922592
 10
-8.4962716979
 20
3.7482139969
 10
-8.4852067454
 20
3.7425762267
 10
-8.4743109112
 20
3.7365778745
 10
-8.4659580896
 20
3.731659561
 10
-8.457732133
 20
3.7265198545
 10
-8.4496508262
 20
3.7211563711
 10
-8.4417319542
 20
3.7155667273
 10
-8.4339933019
 20
3.7097485392
 10
-8.426452654
 20
3.7036994232
 10
-8.4191277957
 20
3.6974169957
 10
-8.4120365117
 20
3.6908988728
 10
-8.405196587
 20
3.6841426709
 10
-8.3986258065
 20
3.6771460063
 10
-8.392341955
 20
3.6699064953
 10
-8.3863628175
 20
3.6624217542
 10
-8.3803254892
 20
3.6541547706
 10
-8.3746452106
 20
3.6456270325
 10
-8.3693108385
 20
3.6368604827
 10
-8.3643112297
 20
3.6278770643
 10
-8.3596352409
 20
3.6186987203
 10
-8.3552717289
 20
3.6093473938
 10
-8.3512095506
 20
3.5998450276
 10
-8.3474375627
 20
3.5902135647
 10
-8.3439446219
 20
3.5804749483
 10
-8.3407195851
 20
3.5706511212
 10
-8.3377513091
 20
3.5607640264
 10
-8.3341997569
 20
3.5476243433
 10
-8.3310387191
 20
3.5344190823
 10
-8.3282293313
 20
3.5211549075
 10
-8.3257327292
 20
3.5078384832
 10
-8.3235100485
 20
3.4944764735
 10
-8.3215224248
 20
3.4810755426
 10
-8.3197309937
 20
3.4676423547
 10
-8.3180968911
 20
3.454183574
 10
-8.3165812525
 20
3.4407058646
  0
LINE
  5
44B
100
AcDbEntity
  8
CURVE
100
AcDbLine
 62
253
  6
CONTINUOUS
 10
-7.8057526023
 20
7.8246591704
 11
-9.0548313325
 21
8.2546741704
  0
LINE
  5
44C
100
AcDbEntity
  8
CURVE
100
AcDbLine
 62
253
  6
CONTINUOUS
 10
-6.7093476155
 20
7.4471671704
 11
-7.323893003
 21
7.6640151704
  0
LINE
  5
44D
100
AcDbEntity
  8
CURVE
100
AcDbLine
 62
253
  6
CONTINUOUS
 10
-9.6089069313
 20
7.9010521704
 11
-6.7093476155
 21
6.8527171704
  0
LINE
  5
44E
100
AcDbEntity
  8
CURVE
100
AcDbLine
 62
253
  6
CONTINUOUS
 10
-4.0662838055
 20
9.1732031704
 11
-4.6090582363
 21
9.7160603376
  0
LINE
  5
44F
100
AcDbEntity
  8
CURVE
100
AcDbLine
 62
253
  6
CONTINUOUS
 10
-4.0662838055
 20
11.7517745019
 11
-4.6090582363
 21
12.2946318389
  0
LINE
  5
450
100
AcDbEntity
  8
DRAFT
100
AcDbLine
 62
253
  6
CONTINUOUS
 10
21.0726109604
 20
11.2551117425
 11
21.0906523845
 21
11.2732031704
  0
LINE
  5
451
100
AcDbEntity
  8
ASSI
100
AcDbLine
 62
253
  6
CONTINUOUS
 10
21.0726109604
 20
11.2551117425
 11
21.0906523845
 21
11.2732031704
  0
LINE
  5
452
100
AcDbEntity
  8
0
100
AcDbLine
 62
7
  6
CONTINUOUS
 10
22.5355550427
 20
10.8130805754
 11
19.7507749795
 21
8.0283005123
  0
LINE
  5
453
100
AcDbEntity
  8
RACCORDO
100
AcDbLine
 62
7
  6
CONTINUOUS
 10
-23.7093476155
 20
6.4982031704
 11
-30.4035394065
 21
6.0300996799
  0
LINE
  5
454
100
AcDbEntity
  8
DRAFT
100
AcDbLine
 62
7
  6
CONTINUOUS
 10
-23.4302745576
 20
6.5179008298
 11
-22.1540804437
 21
6.6071410156
  0
LINE
  5
455
100
AcDbEntity
  8
RACCORDO
100
AcDbLine
 62
7
  6
CONTINUOUS
 10
24.7906523845
 20
6.2749914349
 11
27.2906523845
 21
6.2888391296
  0
LINE
  5
456
100
AcDbEntity
  8
DRAFT
100
AcDbLine
 62
7
  6
CONTINUOUS
 10
24.7906523845
 20
6.2751429445
 11
21.0726109604
 21
6.2551117425
  0
LINE
  5
457
100
AcDbEntity
  8
ASSI
100
AcDbLine
 62
7
  6
CONTINUOUS
 10
27.2906523845
 20
6.2888391296
 11
21.0726109604
 21
6.2551117425
  0
LINE
  5
458
100
AcDbEntity
  8
RACCORDO
100
AcDbLine
 62
7
  6
CONTINUOUS
 10
26.308104791
 20
6.300521937
 11
21.0906523845
 21
6.2732031704
  0
LINE
  5
459
100
AcDbEntity
  8
ASSI
100
AcDbLine
 62
7
  6
CONTINUOUS
 10
26.308104791
 20
6.300521937
 11
21.0906523845
 21
6.2732031704
  0
LINE
  5
45A
100
AcDbEntity
  8
RACCORDO
100
AcDbLine
 62
7
  6
CONTINUOUS
 10
19.2703978185
 20
8.125981458
 11
-0.4593476155
 21
8.0337040466
  0
LINE
  5
45B
100
AcDbEntity
  8
ASSI
100
AcDbLine
 62
7
  6
CONTINUOUS
 10
19.2703978185
 20
8.125981458
 11
-0.4593476155
 21
8.0337040466
  0
LINE
  5
45C
100
AcDbEntity
  8
RACCORDO
100
AcDbLine
 62
7
  6
CONTINUOUS
 10
19.1365371217
 20
8.4076434723
 11
-0.4593476155
 21
8.3618212945
  0
LINE
  5
45D
100
AcDbEntity
  8
ASSI
100
AcDbLine
 62
7
  6
CONTINUOUS
 10
19.1365371217
 20
8.4076434723
 11
-0.4593476155
 21
8.3618212945
  0
LINE
  5
45E
100
AcDbEntity
  8
ASSI
100
AcDbLine
 62
7
  6
CONTINUOUS
 10
24.7906523845
 20
6.2732031704
 11
24.4306060716
 21
6.2732031704
  0
LINE
  5
45F
100
AcDbEntity
  8
CURVE
100
AcDbLine
 62
253
  6
CONTINUOUS
 10
-7.1912072147
 20
6.5399411704
 11
-6.7093476155
 21
6.5399411704
  0
LINE
  5
460
100
AcDbEntity
  8
RACCORDO
100
AcDbLine
 62
7
  6
CONTINUOUS
 10
26.308104791
 20
7.0458844039
 11
21.0906523845
 21
7.0732031704
  0
LINE
  5
461
100
AcDbEntity
  8
ASSI
100
AcDbLine
 62
7
  6
CONTINUOUS
 10
26.308104791
 20
7.0458844039
 11
21.0906523845
 21
7.0732031704
  0
LINE
  5
462
100
AcDbEntity
  8
DRAFT
100
AcDbLine
 62
7
  6
CONTINUOUS
 10
24.7906523845
 20
7.0712633963
 11
21.0726109604
 21
7.0912945983
  0
LINE
  5
463
100
AcDbEntity
  8
RACCORDO
100
AcDbLine
 62
7
  6
CONTINUOUS
 10
27.2906523845
 20
7.0575672113
 11
24.7906523845
 21
7.0714149059
  0
LINE
  5
464
100
AcDbEntity
  8
ASSI
100
AcDbLine
 62
7
  6
CONTINUOUS
 10
27.2906523845
 20
7.0575672113
 11
21.0726109604
 21
7.0912945983
  0
LWPOLYLINE
  5
465
100
AcDbEntity
  8
DRAFT
100
AcDbPolyline
 62
7
  6
CONTINUOUS
 90
16
 70
0
 10
21.0726109604
 20
7.0912945983
 10
20.9049640605
 20
7.0982807665
 10
20.7405604636
 20
7.1180129209
 10
20.5794001697
 20
7.1504910616
 10
20.4206023405
 20
7.1960467637
 10
20.2650478143
 20
7.2543484521
 10
20.115379106
 20
7.324401401
 10
19.971507785
 20
7.4065425179
 10
19.8335222818
 20
7.5004348952
 10
19.7043304028
 20
7.6040730846
 10
19.5842763698
 20
7.7174889701
 10
19.473015961
 20
7.8406506675
 10
19.3724243177
 20
7.9714570765
 10
19.2831264869
 20
8.1092078302
 10
19.2044974216
 20
8.2546032955
 10
19.1365371217
 20
8.4076434723
  0
LWPOLYLINE
  5
466
100
AcDbEntity
  8
ASSI
100
AcDbPolyline
 62
7
  6
CONTINUOUS
 90
16
 70
0
 10
21.0726109604
 20
7.0912945983
 10
20.9049640605
 20
7.0982807665
 10
20.7405604636
 20
7.1180129209
 10
20.5794001697
 20
7.1504910616
 10
20.4206023405
 20
7.1960467637
 10
20.2650478143
 20
7.2543484521
 10
20.115379106
 20
7.324401401
 10
19.971507785
 20
7.4065425179
 10
19.8335222818
 20
7.5004348952
 10
19.7043304028
 20
7.6040730846
 10
19.5842763698
 20
7.7174889701
 10
19.473015961
 20
7.8406506675
 10
19.3724243177
 20
7.9714570765
 10
19.2831264869
 20
8.1092078302
 10
19.2044974216
 20
8.2546032955
 10
19.1365371217
 20
8.4076434723
  0
LWPOLYLINE
  5
467
100
AcDbEntity
  8
RACCORDO
100
AcDbPolyline
 62
7
  6
CONTINUOUS
 90
34
 70
0
 10
-0.4593476155
 20
8.0337040466
 10
-0.5697424046
 20
8.0388223464
 10
-0.6771872758
 20
8.0538119359
 10
-0.7816822293
 20
8.0786728151
 10
-0.8840525165
 20
8.1137688246
 10
-0.9834728859
 20
8.1587361239
 10
-1.0774675828
 20
8.2124831906
 10
-1.166039274
 20
8.2753714104
 10
-1.2491852927
 20
8.3470393978
 10
-1.3244218842
 20
8.4253114735
 10
-1.3913713633
 20
8.5101337393
 10
-1.4504114151
 20
8.6015600935
 10
-1.500191341
 20
8.6975765512
 10
-1.5405974703
 20
8.7986519958
 10
-1.5717434735
 20
8.9043175439
 10
-1.5926196632
 20
9.01115256
 10
-1.6028894767
 20
9.1187964776
 10
-1.6028894767
 20
9.2276098633
 10
-1.5926196632
 20
9.3352537809
 10
-1.5717434735
 20
9.442088797
 10
-1.5405974703
 20
9.5477543451
 10
-1.500191341
 20
9.6488297897
 10
-1.4504114151
 20
9.7448462474
 10
-1.3913713633
 20
9.8362726015
 10
-1.3244218842
 20
9.9210948674
 10
-1.2491852927
 20
9.9993669431
 10
-1.166039274
 20
10.0710349304
 10
-1.0774675828
 20
10.1339231503
 10
-0.9834728859
 20
10.187670217
 10
-0.8840525165
 20
10.2326375162
 10
-0.7816822293
 20
10.2677335258
 10
-0.6771872758
 20
10.292594405
 10
-0.5697424046
 20
10.3075839944
 10
-0.4593476155
 20
10.3127022942
  0
LWPOLYLINE
  5
468
100
AcDbEntity
  8
ASSI
100
AcDbPolyline
 62
7
  6
CONTINUOUS
 90
34
 70
0
 10
-0.4593476155
 20
8.0337040466
 10
-0.5697424046
 20
8.0388223464
 10
-0.6771872758
 20
8.0538119359
 10
-0.7816822293
 20
8.0786728151
 10
-0.8840525165
 20
8.1137688246
 10
-0.9834728859
 20
8.1587361239
 10
-1.0774675828
 20
8.2124831906
 10
-1.166039274
 20
8.2753714104
 10
-1.2491852927
 20
8.3470393978
 10
-1.3244218842
 20
8.4253114735
 10
-1.3913713633
 20
8.5101337393
 10
-1.4504114151
 20
8.6015600935
 10
-1.500191341
 20
8.6975765512
 10
-1.5405974703
 20
8.7986519958
 10
-1.5717434735
 20
8.9043175439
 10
-1.5926196632
 20
9.01115256
 10
-1.6028894767
 20
9.1187964776
 10
-1.6028894767
 20
9.2276098633
 10
-1.5926196632
 20
9.3352537809
 10
-1.5717434735
 20
9.442088797
 10
-1.5405974703
 20
9.5477543451
 10
-1.500191341
 20
9.6488297897
 10
-1.4504114151
 20
9.7448462474
 10
-1.3913713633
 20
9.8362726015
 10
-1.3244218842
 20
9.9210948674
 10
-1.2491852927
 20
9.9993669431
 10
-1.166039274
 20
10.0710349304
 10
-1.0774675828
 20
10.1339231503
 10
-0.9834728859
 20
10.187670217
 10
-0.8840525165
 20
10.2326375162
 10
-0.7816822293
 20
10.2677335258
 10
-0.6771872758
 20
10.292594405
 10
-0.5697424046
 20
10.3075839944
 10
-0.4593476155
 20
10.3127022942
  0
LWPOLYLINE
  5
469
100
AcDbEntity
  8
DRAFT
100
AcDbPolyline
 62
7
  6
CONTINUOUS
 90
10
 70
0
 10
19.2703978185
 20
15.2204248829
 10
19.2534552726
 20
15.1899053357
 10
19.2370317062
 20
15.1591912236
 10
19.2211271194
 20
15.1282825465
 10
19.2057437731
 20
15.0971786287
 10
19.1908794063
 20
15.065880146
 10
19.176527236
 20
15.0343891258
 10
19.1626850014
 20
15.0027062441
 10
19.1493549632
 20
14.9708308251
 10
19.1365371217
 20
14.9387628686
  0
LWPOLYLINE
  5
46A
100
AcDbEntity
  8
ASSI
100
AcDbPolyline
 62
7
  6
CONTINUOUS
 90
10
 70
0
 10
19.2703978185
 20
15.2204248829
 10
19.2534552726
 20
15.1899053357
 10
19.2370317062
 20
15.1591912236
 10
19.2211271194
 20
15.1282825465
 10
19.2057437731
 20
15.0971786287
 10
19.1908794063
 20
15.065880146
 10
19.176527236
 20
15.0343891258
 10
19.1626850014
 20
15.0027062441
 10
19.1493549632
 20
14.9708308251
 10
19.1365371217
 20
14.9387628686
  0
LINE
  5
46B
100
AcDbEntity
  8
DRAFT
100
AcDbLine
 62
253
  6
CONTINUOUS
 10
21.0726109604
 20
6.2551117425
 11
21.0906523845
 21
6.2732031704
  0
LINE
  5
46C
100
AcDbEntity
  8
ASSI
100
AcDbLine
 62
253
  6
CONTINUOUS
 10
21.0726109604
 20
6.2551117425
 11
21.0906523845
 21
6.2732031704
  0
LINE
  5
46D
100
AcDbEntity
  8
0
100
AcDbLine
 62
7
  6
CONTINUOUS
 10
20.2457497264
 20
7.5333257655
 11
23.0305297895
 21
10.3181058286
  0
LINE
  5
46E
100
AcDbEntity
  8
CURVE
100
AcDbLine
 62
253
  6
CONTINUOUS
 10
-7.2206625638
 20
-11.4193768296
 11
-9.1090439104
 21
-11.9609448296
  0
LINE
  5
46F
100
AcDbEntity
  8
CURVE
100
AcDbLine
 62
253
  6
CONTINUOUS
 10
-8.1215053402
 20
-12.2577598296
 11
-6.2093546144
 21
-11.7093838296
  0
LWPOLYLINE
  5
470
100
AcDbEntity
  8
RACCORDO
100
AcDbPolyline
 62
7
  6
CONTINUOUS
 90
31
 70
0
 10
-0.4593476155
 20
9.9845850463
 10
-0.5457829975
 20
9.9799217858
 10
-0.6294898693
 20
9.966848079
 10
-0.710468231
 20
9.945363926
 10
-0.7895307447
 20
9.9150593257
 10
-0.8658647483
 20
9.8763442791
 10
-0.9370322553
 20
9.8304487896
 10
-1.0028883641
 20
9.7771139729
 10
-1.0635779763
 20
9.7165987133
 10
-1.1170978094
 20
9.6509096664
 10
-1.1631880153
 20
9.5799355688
 10
-1.2021084421
 20
9.503787684
 10
-1.2326353517
 20
9.4248064571
 10
-1.2545256506
 20
9.3428275895
 10
-1.2680224322
 20
9.25801538
 10
-1.272631239
 20
9.1732031704
 10
-1.2680224322
 20
9.0883909609
 10
-1.2545256506
 20
9.0035787513
 10
-1.2326353517
 20
8.9215998837
 10
-1.2021084421
 20
8.8426186569
 10
-1.1631880153
 20
8.766470772
 10
-1.1170978094
 20
8.6954966745
 10
-1.0635779763
 20
8.6298076276
 10
-1.0028883641
 20
8.5692923679
 10
-0.9370322553
 20
8.5159575513
 10
-0.8658647483
 20
8.4700620618
 10
-0.7895307447
 20
8.4313470152
 10
-0.710468231
 20
8.4010424149
 10
-0.6294898693
 20
8.3795582619
 10
-0.5457829975
 20
8.3664845551
 10
-0.4593476155
 20
8.3618212945
  0
LWPOLYLINE
  5
471
100
AcDbEntity
  8
ASSI
100
AcDbPolyline
 62
7
  6
CONTINUOUS
 90
31
 70
0
 10
-0.4593476155
 20
9.9845850463
 10
-0.5457829975
 20
9.9799217858
 10
-0.6294898693
 20
9.966848079
 10
-0.710468231
 20
9.945363926
 10
-0.7895307447
 20
9.9150593257
 10
-0.8658647483
 20
9.8763442791
 10
-0.9370322553
 20
9.8304487896
 10
-1.0028883641
 20
9.7771139729
 10
-1.0635779763
 20
9.7165987133
 10
-1.1170978094
 20
9.6509096664
 10
-1.1631880153
 20
9.5799355688
 10
-1.2021084421
 20
9.503787684
 10
-1.2326353517
 20
9.4248064571
 10
-1.2545256506
 20
9.3428275895
 10
-1.2680224322
 20
9.25801538
 10
-1.272631239
 20
9.1732031704
 10
-1.2680224322
 20
9.0883909609
 10
-1.2545256506
 20
9.0035787513
 10
-1.2326353517
 20
8.9215998837
 10
-1.2021084421
 20
8.8426186569
 10
-1.1631880153
 20
8.766470772
 10
-1.1170978094
 20
8.6954966745
 10
-1.0635779763
 20
8.6298076276
 10
-1.0028883641
 20
8.5692923679
 10
-0.9370322553
 20
8.5159575513
 10
-0.8658647483
 20
8.4700620618
 10
-0.7895307447
 20
8.4313470152
 10
-0.710468231
 20
8.4010424149
 10
-0.6294898693
 20
8.3795582619
 10
-0.5457829975
 20
8.3664845551
 10
-0.4593476155
 20
8.3618212945
  0
LINE
  5
472
100
AcDbEntity
  8
CURVE
100
AcDbLine
 62
253
  6
CONTINUOUS
 10
-4.6090582363
 20
9.7160603376
 11
-2.7093476155
 21
9.7160603376
  0
LINE
  5
473
100
AcDbEntity
  8
CURVE
100
AcDbLine
 62
253
  6
CONTINUOUS
 10
-6.7093476155
 20
9.9655281704
 11
-9.6089069313
 21
9.9655281704
  0
LINE
  5
474
100
AcDbEntity
  8
CURVE
100
AcDbLine
 62
253
  6
CONTINUOUS
 10
-9.1360819558
 20
10.5479731704
 11
-6.7093476155
 21
10.5479731704
  0
LINE
  5
475
100
AcDbEntity
  8
CURVE
100
AcDbLine
 62
253
  6
CONTINUOUS
 10
-2.7093476155
 20
10.8922508003
 11
-3.6592029259
 21
10.8922508003
  0
LINE
  5
476
100
AcDbEntity
  8
RACCORDO
100
AcDbLine
 62
7
  6
CONTINUOUS
 10
19.1365371217
 20
9.9387628686
 11
-0.4593476155
 21
9.9845850463
  0
LINE
  5
477
100
AcDbEntity
  8
ASSI
100
AcDbLine
 62
7
  6
CONTINUOUS
 10
19.1365371217
 20
9.9387628686
 11
-0.4593476155
 21
9.9845850463
  0
LINE
  5
478
100
AcDbEntity
  8
RACCORDO
100
AcDbLine
 62
7
  6
CONTINUOUS
 10
19.2703978185
 20
10.2204248829
 11
-0.4593476155
 21
10.3127022942
  0
LINE
  5
479
100
AcDbEntity
  8
ASSI
100
AcDbLine
 62
7
  6
CONTINUOUS
 10
19.2703978185
 20
10.2204248829
 11
-0.4593476155
 21
10.3127022942
  0
LINE
  5
47A
100
AcDbEntity
  8
CURVE
100
AcDbLine
 62
253
  6
CONTINUOUS
 10
-3.1164284668
 20
10.2589175047
 11
-4.6090582363
 21
10.6660602809
  0
LINE
  5
47B
100
AcDbEntity
  8
CURVE
100
AcDbLine
 62
253
  6
CONTINUOUS
 10
-7.8057526023
 20
13.8496941704
 11
-9.0546673575
 21
14.2796521704
  0
LINE
  5
47C
100
AcDbEntity
  8
CURVE
100
AcDbLine
 62
253
  6
CONTINUOUS
 10
-6.7093476155
 20
13.4720921704
 11
-7.323893003
 21
13.6890491704
  0
LINE
  5
47D
100
AcDbEntity
  8
CURVE
100
AcDbLine
 62
253
  6
CONTINUOUS
 10
-9.6089069313
 20
13.9260871704
 11
-6.7093476155
 21
12.8776431704
  0
LWPOLYLINE
  5
47E
100
AcDbEntity
  8
DRAFT
100
AcDbPolyline
 62
7
  6
CONTINUOUS
 90
16
 70
0
 10
19.1365371217
 20
14.9387628686
 10
19.2044974002
 20
15.0918030184
 10
19.2831264563
 20
15.2371984705
 10
19.3724242898
 20
15.3749492249
 10
19.4730159508
 20
15.5057556548
 10
19.5842763893
 20
15.628917387
 10
19.7043304553
 20
15.742333302
 10
19.8335223721
 20
15.8459715104
 10
19.9715079164
 20
15.9398639016
 10
20.1153792678
 20
16.0220050236
 10
20.2650479946
 20
16.0920579647
 10
20.4206025284
 20
16.1503596365
 10
20.5794003444
 20
16.195915322
 10
20.7405606009
 20
16.2283934486
 10
20.9049641396
 20
16.2481255888
 10
21.0726109604
 20
16.2551117425
  0
LWPOLYLINE
  5
47F
100
AcDbEntity
  8
ASSI
100
AcDbPolyline
 62
7
  6
CONTINUOUS
 90
16
 70
0
 10
19.1365371217
 20
14.9387628686
 10
19.2044974002
 20
15.0918030184
 10
19.2831264563
 20
15.2371984705
 10
19.3724242898
 20
15.3749492249
 10
19.4730159508
 20
15.5057556548
 10
19.5842763893
 20
15.628917387
 10
19.7043304553
 20
15.742333302
 10
19.8335223721
 20
15.8459715104
 10
19.9715079164
 20
15.9398639016
 10
20.1153792678
 20
16.0220050236
 10
20.2650479946
 20
16.0920579647
 10
20.4206025284
 20
16.1503596365
 10
20.5794003444
 20
16.195915322
 10
20.7405606009
 20
16.2283934486
 10
20.9049641396
 20
16.2481255888
 10
21.0726109604
 20
16.2551117425
  0
LWPOLYLINE
  5
480
100
AcDbEntity
  8
DRAFT
100
AcDbPolyline
 62
7
  6
CONTINUOUS
 90
16
 70
0
 10
19.1365371217
 20
9.9387628686
 10
19.2044974002
 20
10.0918030184
 10
19.2831264563
 20
10.2371984705
 10
19.3724242898
 20
10.3749492249
 10
19.4730159508
 20
10.5057556548
 10
19.5842763893
 20
10.628917387
 10
19.7043304553
 20
10.742333302
 10
19.8335223721
 20
10.8459715104
 10
19.9715079164
 20
10.9398639016
 10
20.1153792678
 20
11.0220050236
 10
20.2650479946
 20
11.0920579647
 10
20.4206025284
 20
11.1503596365
 10
20.5794003444
 20
11.195915322
 10
20.7405606009
 20
11.2283934486
 10
20.9049641396
 20
11.2481255888
 10
21.0726109604
 20
11.2551117425
  0
LWPOLYLINE
  5
481
100
AcDbEntity
  8
ASSI
100
AcDbPolyline
 62
7
  6
CONTINUOUS
 90
16
 70
0
 10
19.1365371217
 20
9.9387628686
 10
19.2044974002
 20
10.0918030184
 10
19.2831264563
 20
10.2371984705
 10
19.3724242898
 20
10.3749492249
 10
19.4730159508
 20
10.5057556548
 10
19.5842763893
 20
10.628917387
 10
19.7043304553
 20
10.742333302
 10
19.8335223721
 20
10.8459715104
 10
19.9715079164
 20
10.9398639016
 10
20.1153792678
 20
11.0220050236
 10
20.2650479946
 20
11.0920579647
 10
20.4206025284
 20
11.1503596365
 10
20.5794003444
 20
11.195915322
 10
20.7405606009
 20
11.2283934486
 10
20.9049641396
 20
11.2481255888
 10
21.0726109604
 20
11.2551117425
  0
LWPOLYLINE
  5
482
100
AcDbEntity
  8
DRAFT
100
AcDbPolyline
 62
7
  6
CONTINUOUS
 90
10
 70
0
 10
19.2703978185
 20
10.2204248829
 10
19.2534552726
 20
10.1899053357
 10
19.2370317062
 20
10.1591912236
 10
19.2211271194
 20
10.1282825465
 10
19.2057437731
 20
10.0971786287
 10
19.1908794063
 20
10.065880146
 10
19.176527236
 20
10.0343891258
 10
19.1626850014
 20
10.0027062441
 10
19.1493549632
 20
9.9708308251
 10
19.1365371217
 20
9.9387628686
  0
LWPOLYLINE
  5
483
100
AcDbEntity
  8
ASSI
100
AcDbPolyline
 62
7
  6
CONTINUOUS
 90
10
 70
0
 10
19.2703978185
 20
10.2204248829
 10
19.2534552726
 20
10.1899053357
 10
19.2370317062
 20
10.1591912236
 10
19.2211271194
 20
10.1282825465
 10
19.2057437731
 20
10.0971786287
 10
19.1908794063
 20
10.065880146
 10
19.176527236
 20
10.0343891258
 10
19.1626850014
 20
10.0027062441
 10
19.1493549632
 20
9.9708308251
 10
19.1365371217
 20
9.9387628686
  0
LINE
  5
484
100
AcDbEntity
  8
RACCORDO
100
AcDbLine
 62
7
  6
CONTINUOUS
 10
-14.2093476155
 20
-23.9494465604
 11
-15.0843476155
 21
-24.4546280459
  0
LINE
  5
485
100
AcDbEntity
  8
CURVE
100
AcDbLine
 62
253
  6
CONTINUOUS
 10
-7.1124510475
 20
-15.6056358296
 11
-9.1090439104
 21
-16.2467678296
  0
LINE
  5
486
100
AcDbEntity
  8
CURVE
100
AcDbLine
 62
253
  6
CONTINUOUS
 10
-9.1090439104
 20
-16.8267968296
 11
-6.2093476155
 21
-15.8956648296
  0
LINE
  5
487
100
AcDbEntity
  8
RACCORDO
100
AcDbLine
 62
7
  6
CONTINUOUS
 10
24.7906523845
 20
11.2749914349
 11
27.2906523845
 21
11.2888391296
  0
LINE
  5
488
100
AcDbEntity
  8
DRAFT
100
AcDbLine
 62
7
  6
CONTINUOUS
 10
24.7906523845
 20
11.2751429445
 11
21.0726109604
 21
11.2551117425
  0
LINE
  5
489
100
AcDbEntity
  8
ASSI
100
AcDbLine
 62
7
  6
CONTINUOUS
 10
27.2906523845
 20
11.2888391296
 11
21.0726109604
 21
11.2551117425
  0
LINE
  5
48A
100
AcDbEntity
  8
RACCORDO
100
AcDbLine
 62
7
  6
CONTINUOUS
 10
26.308104791
 20
11.300521937
 11
21.0906523845
 21
11.2732031704
  0
LINE
  5
48B
100
AcDbEntity
  8
ASSI
100
AcDbLine
 62
7
  6
CONTINUOUS
 10
26.308104791
 20
11.300521937
 11
21.0906523845
 21
11.2732031704
  0
LINE
  5
48C
100
AcDbEntity
  8
RACCORDO
100
AcDbLine
 62
7
  6
CONTINUOUS
 10
19.2703978185
 20
13.125981458
 11
-0.4593476155
 21
13.0337040466
  0
LINE
  5
48D
100
AcDbEntity
  8
ASSI
100
AcDbLine
 62
7
  6
CONTINUOUS
 10
19.2703978185
 20
13.125981458
 11
-0.4593476155
 21
13.0337040466
  0
LINE
  5
48E
100
AcDbEntity
  8
RACCORDO
100
AcDbLine
 62
7
  6
CONTINUOUS
 10
19.1365371217
 20
13.4076434723
 11
-0.4593476155
 21
13.3618212945
  0
LINE
  5
48F
100
AcDbEntity
  8
ASSI
100
AcDbLine
 62
7
  6
CONTINUOUS
 10
19.1365371217
 20
13.4076434723
 11
-0.4593476155
 21
13.3618212945
  0
LINE
  5
490
100
AcDbEntity
  8
CURVE
100
AcDbLine
 62
253
  6
CONTINUOUS
 10
-7.3111429452
 20
12.0019571704
 11
-9.6089069313
 21
12.0019571704
  0
LINE
  5
491
100
AcDbEntity
  8
CURVE
100
AcDbLine
 62
253
  6
CONTINUOUS
 10
-4.6090582363
 20
12.2946318389
 11
-2.7093476155
 21
12.2946318389
  0
LINE
  5
492
100
AcDbEntity
  8
CURVE
100
AcDbLine
 62
253
  6
CONTINUOUS
 10
-9.6089069313
 20
12.5844011704
 11
-6.7093476155
 21
12.5844011704
  0
LINE
  5
493
100
AcDbEntity
  8
CURVE
100
AcDbLine
 62
253
  6
CONTINUOUS
 10
-2.7093476155
 20
13.4708221318
 11
-3.6592029259
 21
13.4708221318
  0
LINE
  5
494
100
AcDbEntity
  8
RACCORDO
100
AcDbLine
 62
7
  6
CONTINUOUS
 10
26.308104791
 20
12.0458844039
 11
21.0906523845
 21
12.0732031704
  0
LINE
  5
495
100
AcDbEntity
  8
ASSI
100
AcDbLine
 62
7
  6
CONTINUOUS
 10
26.308104791
 20
12.0458844039
 11
21.0906523845
 21
12.0732031704
  0
LINE
  5
496
100
AcDbEntity
  8
DRAFT
100
AcDbLine
 62
7
  6
CONTINUOUS
 10
24.7906523845
 20
12.0712633963
 11
21.0726109604
 21
12.0912945983
  0
LINE
  5
497
100
AcDbEntity
  8
RACCORDO
100
AcDbLine
 62
7
  6
CONTINUOUS
 10
27.2906523845
 20
12.0575672113
 11
24.7906523845
 21
12.0714149059
  0
LINE
  5
498
100
AcDbEntity
  8
ASSI
100
AcDbLine
 62
7
  6
CONTINUOUS
 10
27.2906523845
 20
12.0575672113
 11
21.0726109604
 21
12.0912945983
  0
LWPOLYLINE
  5
499
100
AcDbEntity
  8
DRAFT
100
AcDbPolyline
 62
7
  6
CONTINUOUS
 90
16
 70
0
 10
21.0726109604
 20
12.0912945983
 10
20.9049640605
 20
12.0982807665
 10
20.7405604636
 20
12.1180129209
 10
20.5794001697
 20
12.1504910616
 10
20.4206023405
 20
12.1960467637
 10
20.2650478143
 20
12.2543484521
 10
20.115379106
 20
12.324401401
 10
19.971507785
 20
12.4065425179
 10
19.8335222818
 20
12.5004348952
 10
19.7043304028
 20
12.6040730846
 10
19.5842763698
 20
12.7174889701
 10
19.473015961
 20
12.8406506675
 10
19.3724243177
 20
12.9714570765
 10
19.2831264869
 20
13.1092078302
 10
19.2044974216
 20
13.2546032955
 10
19.1365371217
 20
13.4076434723
  0
LWPOLYLINE
  5
49A
100
AcDbEntity
  8
ASSI
100
AcDbPolyline
 62
7
  6
CONTINUOUS
 90
16
 70
0
 10
21.0726109604
 20
12.0912945983
 10
20.9049640605
 20
12.0982807665
 10
20.7405604636
 20
12.1180129209
 10
20.5794001697
 20
12.1504910616
 10
20.4206023405
 20
12.1960467637
 10
20.2650478143
 20
12.2543484521
 10
20.115379106
 20
12.324401401
 10
19.971507785
 20
12.4065425179
 10
19.8335222818
 20
12.5004348952
 10
19.7043304028
 20
12.6040730846
 10
19.5842763698
 20
12.7174889701
 10
19.473015961
 20
12.8406506675
 10
19.3724243177
 20
12.9714570765
 10
19.2831264869
 20
13.1092078302
 10
19.2044974216
 20
13.2546032955
 10
19.1365371217
 20
13.4076434723
  0
LWPOLYLINE
  5
49B
100
AcDbEntity
  8
RACCORDO
100
AcDbPolyline
 62
7
  6
CONTINUOUS
 90
34
 70
0
 10
-0.4593476155
 20
13.0337040466
 10
-0.5697424046
 20
13.0388223464
 10
-0.6771872758
 20
13.0538119359
 10
-0.7816822293
 20
13.0786728151
 10
-0.8840525165
 20
13.1137688246
 10
-0.9834728859
 20
13.1587361239
 10
-1.0774675828
 20
13.2124831906
 10
-1.166039274
 20
13.2753714104
 10
-1.2491852927
 20
13.3470393978
 10
-1.3244218842
 20
13.4253114735
 10
-1.3913713633
 20
13.5101337393
 10
-1.4504114151
 20
13.6015600935
 10
-1.500191341
 20
13.6975765512
 10
-1.5405974703
 20
13.7986519958
 10
-1.5717434735
 20
13.9043175439
 10
-1.5926196632
 20
14.01115256
 10
-1.6028894767
 20
14.1187964776
 10
-1.6028894767
 20
14.2276098633
 10
-1.5926196632
 20
14.3352537809
 10
-1.5717434735
 20
14.442088797
 10
-1.5405974703
 20
14.5477543451
 10
-1.500191341
 20
14.6488297897
 10
-1.4504114151
 20
14.7448462474
 10
-1.3913713633
 20
14.8362726015
 10
-1.3244218842
 20
14.9210948674
 10
-1.2491852927
 20
14.9993669431
 10
-1.166039274
 20
15.0710349304
 10
-1.0774675828
 20
15.1339231503
 10
-0.9834728859
 20
15.187670217
 10
-0.8840525165
 20
15.2326375162
 10
-0.7816822293
 20
15.2677335258
 10
-0.6771872758
 20
15.292594405
 10
-0.5697424046
 20
15.3075839944
 10
-0.4593476155
 20
15.3127022942
  0
LWPOLYLINE
  5
49C
100
AcDbEntity
  8
ASSI
100
AcDbPolyline
 62
7
  6
CONTINUOUS
 90
34
 70
0
 10
-0.4593476155
 20
13.0337040466
 10
-0.5697424046
 20
13.0388223464
 10
-0.6771872758
 20
13.0538119359
 10
-0.7816822293
 20
13.0786728151
 10
-0.8840525165
 20
13.1137688246
 10
-0.9834728859
 20
13.1587361239
 10
-1.0774675828
 20
13.2124831906
 10
-1.166039274
 20
13.2753714104
 10
-1.2491852927
 20
13.3470393978
 10
-1.3244218842
 20
13.4253114735
 10
-1.3913713633
 20
13.5101337393
 10
-1.4504114151
 20
13.6015600935
 10
-1.500191341
 20
13.6975765512
 10
-1.5405974703
 20
13.7986519958
 10
-1.5717434735
 20
13.9043175439
 10
-1.5926196632
 20
14.01115256
 10
-1.6028894767
 20
14.1187964776
 10
-1.6028894767
 20
14.2276098633
 10
-1.5926196632
 20
14.3352537809
 10
-1.5717434735
 20
14.442088797
 10
-1.5405974703
 20
14.5477543451
 10
-1.500191341
 20
14.6488297897
 10
-1.4504114151
 20
14.7448462474
 10
-1.3913713633
 20
14.8362726015
 10
-1.3244218842
 20
14.9210948674
 10
-1.2491852927
 20
14.9993669431
 10
-1.166039274
 20
15.0710349304
 10
-1.0774675828
 20
15.1339231503
 10
-0.9834728859
 20
15.187670217
 10
-0.8840525165
 20
15.2326375162
 10
-0.7816822293
 20
15.2677335258
 10
-0.6771872758
 20
15.292594405
 10
-0.5697424046
 20
15.3075839944
 10
-0.4593476155
 20
15.3127022942
  0
LINE
  5
49D
100
AcDbEntity
  8
CURVE
100
AcDbLine
 62
253
  6
CONTINUOUS
 10
-3.1164284668
 20
12.8374889494
 11
-4.6090582363
 21
13.2446316124
  0
LINE
  5
49E
100
AcDbEntity
  8
CURVE
100
AcDbLine
 62
253
  6
CONTINUOUS
 10
-4.6090582363
 20
15.2803458334
 11
-2.7093476155
 21
14.7374889494
  0
LINE
  5
49F
100
AcDbEntity
  8
RACCORDO
100
AcDbLine
 62
7
  6
CONTINUOUS
 10
-15.0843476155
 20
22.8010343868
 11
-14.2093476155
 21
22.2958529012
  0
LINE
  5
4A0
100
AcDbEntity
  8
RACCORDO
100
AcDbLine
 62
253
  6
CONTINUOUS
 10
-14.9608020483
 20
23.0175407377
 11
-13.9608020483
 21
22.4401904685
  0
LWPOLYLINE
  5
4A1
100
AcDbEntity
  8
RACCORDO
100
AcDbPolyline
 62
7
  6
CONTINUOUS
 90
4
 70
0
 10
-11.7093476155
 20
22.8732031704
 10
-11.7096871199
 20
22.8734567478
 10
-11.7106984903
 20
22.8740821466
 10
-11.7176416134
 20
22.8782145188
  0
LINE
  5
4A2
100
AcDbEntity
  8
0
100
AcDbLine
 62
7
  6
CONTINUOUS
 10
16.0906523845
 20
14.9458852351
 11
16.0906523845
 21
14.0732031704
  0
LINE
  5
4A3
100
AcDbEntity
  8
ASSI
100
AcDbLine
 62
7
  6
CONTINUOUS
 10
16.1906523845
 20
14.9456513993
 11
16.1906523845
 21
14.0732031704
  0
LWPOLYLINE
  5
4A4
100
AcDbEntity
  8
DRAFT
100
AcDbPolyline
 62
7
  6
CONTINUOUS
 90
16
 70
0
 10
19.1365371217
 20
4.9387628686
 10
19.2044974002
 20
5.0918030184
 10
19.2831264563
 20
5.2371984705
 10
19.3724242898
 20
5.3749492249
 10
19.4730159508
 20
5.5057556548
 10
19.5842763893
 20
5.628917387
 10
19.7043304553
 20
5.742333302
 10
19.8335223721
 20
5.8459715104
 10
19.9715079164
 20
5.9398639016
 10
20.1153792678
 20
6.0220050236
 10
20.2650479946
 20
6.0920579647
 10
20.4206025284
 20
6.1503596365
 10
20.5794003444
 20
6.195915322
 10
20.7405606009
 20
6.2283934486
 10
20.9049641396
 20
6.2481255888
 10
21.0726109604
 20
6.2551117425
  0
LWPOLYLINE
  5
4A5
100
AcDbEntity
  8
ASSI
100
AcDbPolyline
 62
7
  6
CONTINUOUS
 90
16
 70
0
 10
19.1365371217
 20
4.9387628686
 10
19.2044974002
 20
5.0918030184
 10
19.2831264563
 20
5.2371984705
 10
19.3724242898
 20
5.3749492249
 10
19.4730159508
 20
5.5057556548
 10
19.5842763893
 20
5.628917387
 10
19.7043304553
 20
5.742333302
 10
19.8335223721
 20
5.8459715104
 10
19.9715079164
 20
5.9398639016
 10
20.1153792678
 20
6.0220050236
 10
20.2650479946
 20
6.0920579647
 10
20.4206025284
 20
6.1503596365
 10
20.5794003444
 20
6.195915322
 10
20.7405606009
 20
6.2283934486
 10
20.9049641396
 20
6.2481255888
 10
21.0726109604
 20
6.2551117425
  0
LWPOLYLINE
  5
4A6
100
AcDbEntity
  8
DRAFT
100
AcDbPolyline
 62
7
  6
CONTINUOUS
 90
10
 70
0
 10
19.2703978185
 20
5.2204248829
 10
19.2534552726
 20
5.1899053357
 10
19.2370317062
 20
5.1591912236
 10
19.2211271194
 20
5.1282825465
 10
19.2057437731
 20
5.0971786287
 10
19.1908794063
 20
5.065880146
 10
19.176527236
 20
5.0343891258
 10
19.1626850014
 20
5.0027062441
 10
19.1493549632
 20
4.9708308251
 10
19.1365371217
 20
4.9387628686
  0
LWPOLYLINE
  5
4A7
100
AcDbEntity
  8
ASSI
100
AcDbPolyline
 62
7
  6
CONTINUOUS
 90
10
 70
0
 10
19.2703978185
 20
5.2204248829
 10
19.2534552726
 20
5.1899053357
 10
19.2370317062
 20
5.1591912236
 10
19.2211271194
 20
5.1282825465
 10
19.2057437731
 20
5.0971786287
 10
19.1908794063
 20
5.065880146
 10
19.176527236
 20
5.0343891258
 10
19.1626850014
 20
5.0027062441
 10
19.1493549632
 20
4.9708308251
 10
19.1365371217
 20
4.9387628686
  0
LINE
  5
4A8
100
AcDbEntity
  8
RACCORDO
100
AcDbLine
 62
253
  6
CONTINUOUS
 10
-13.9608020483
 20
-24.0937841277
 11
-14.9608020483
 21
-24.6711343969
  0
LWPOLYLINE
  5
4A9
100
AcDbEntity
  8
RACCORDO
100
AcDbPolyline
 62
7
  6
CONTINUOUS
 90
31
 70
0
 10
-0.4593476155
 20
14.9845850463
 10
-0.5457829975
 20
14.9799217858
 10
-0.6294898693
 20
14.966848079
 10
-0.710468231
 20
14.945363926
 10
-0.7895307447
 20
14.9150593257
 10
-0.8658647483
 20
14.8763442791
 10
-0.9370322553
 20
14.8304487896
 10
-1.0028883641
 20
14.7771139729
 10
-1.0635779763
 20
14.7165987133
 10
-1.1170978094
 20
14.6509096664
 10
-1.1631880153
 20
14.5799355688
 10
-1.2021084421
 20
14.503787684
 10
-1.2326353517
 20
14.4248064571
 10
-1.2545256506
 20
14.3428275895
 10
-1.2680224322
 20
14.25801538
 10
-1.272631239
 20
14.1732031704
 10
-1.2680224322
 20
14.0883909609
 10
-1.2545256506
 20
14.0035787513
 10
-1.2326353517
 20
13.9215998837
 10
-1.2021084421
 20
13.8426186569
 10
-1.1631880153
 20
13.766470772
 10
-1.1170978094
 20
13.6954966745
 10
-1.0635779763
 20
13.6298076276
 10
-1.0028883641
 20
13.5692923679
 10
-0.9370322553
 20
13.5159575513
 10
-0.8658647483
 20
13.4700620618
 10
-0.7895307447
 20
13.4313470152
 10
-0.710468231
 20
13.4010424149
 10
-0.6294898693
 20
13.3795582619
 10
-0.5457829975
 20
13.3664845551
 10
-0.4593476155
 20
13.3618212945
  0
LWPOLYLINE
  5
4AA
100
AcDbEntity
  8
ASSI
100
AcDbPolyline
 62
7
  6
CONTINUOUS
 90
31
 70
0
 10
-0.4593476155
 20
14.9845850463
 10
-0.5457829975
 20
14.9799217858
 10
-0.6294898693
 20
14.966848079
 10
-0.710468231
 20
14.945363926
 10
-0.7895307447
 20
14.9150593257
 10
-0.8658647483
 20
14.8763442791
 10
-0.9370322553
 20
14.8304487896
 10
-1.0028883641
 20
14.7771139729
 10
-1.0635779763
 20
14.7165987133
 10
-1.1170978094
 20
14.6509096664
 10
-1.1631880153
 20
14.5799355688
 10
-1.2021084421
 20
14.503787684
 10
-1.2326353517
 20
14.4248064571
 10
-1.2545256506
 20
14.3428275895
 10
-1.2680224322
 20
14.25801538
 10
-1.272631239
 20
14.1732031704
 10
-1.2680224322
 20
14.0883909609
 10
-1.2545256506
 20
14.0035787513
 10
-1.2326353517
 20
13.9215998837
 10
-1.2021084421
 20
13.8426186569
 10
-1.1631880153
 20
13.766470772
 10
-1.1170978094
 20
13.6954966745
 10
-1.0635779763
 20
13.6298076276
 10
-1.0028883641
 20
13.5692923679
 10
-0.9370322553
 20
13.5159575513
 10
-0.8658647483
 20
13.4700620618
 10
-0.7895307447
 20
13.4313470152
 10
-0.710468231
 20
13.4010424149
 10
-0.6294898693
 20
13.3795582619
 10
-0.5457829975
 20
13.3664845551
 10
-0.4593476155
 20
13.3618212945
  0
LINE
  5
4AB
100
AcDbEntity
  8
RACCORDO
100
AcDbLine
 62
7
  6
CONTINUOUS
 10
24.7906523845
 20
16.2749914349
 11
27.2906523845
 21
16.2888391296
  0
LINE
  5
4AC
100
AcDbEntity
  8
DRAFT
100
AcDbLine
 62
7
  6
CONTINUOUS
 10
24.7906523845
 20
16.2751429445
 11
21.0726109604
 21
16.2551117425
  0
LINE
  5
4AD
100
AcDbEntity
  8
ASSI
100
AcDbLine
 62
7
  6
CONTINUOUS
 10
27.2906523845
 20
16.2888391296
 11
21.0726109604
 21
16.2551117425
  0
LINE
  5
4AE
100
AcDbEntity
  8
RACCORDO
100
AcDbLine
 62
7
  6
CONTINUOUS
 10
26.308104791
 20
16.300521937
 11
21.0906523845
 21
16.2732031704
  0
LINE
  5
4AF
100
AcDbEntity
  8
ASSI
100
AcDbLine
 62
7
  6
CONTINUOUS
 10
26.308104791
 20
16.300521937
 11
21.0906523845
 21
16.2732031704
  0
LINE
  5
4B0
100
AcDbEntity
  8
0
100
AcDbLine
 62
253
  6
CONTINUOUS
 10
16.0906523845
 20
14.0732031704
 11
-1.2656054891
 21
14.0732031704
  0
LINE
  5
4B1
100
AcDbEntity
  8
RACCORDO
100
AcDbLine
 62
7
  6
CONTINUOUS
 10
16.0906523845
 20
14.0732031704
 11
16.7906523845
 21
14.0732031704
  0
LINE
  5
4B2
100
AcDbEntity
  8
CURVE
100
AcDbLine
 62
253
  6
CONTINUOUS
 10
-4.2019773566
 20
14.3303458334
 11
-4.6090582363
 21
14.3303458334
  0
LINE
  5
4B3
100
AcDbEntity
  8
RACCORDO
100
AcDbLine
 62
7
  6
CONTINUOUS
 10
19.1365371217
 20
14.9387628686
 11
-0.4593476155
 21
14.9845850463
  0
LINE
  5
4B4
100
AcDbEntity
  8
ASSI
100
AcDbLine
 62
7
  6
CONTINUOUS
 10
19.1365371217
 20
14.9387628686
 11
-0.4593476155
 21
14.9845850463
  0
LINE
  5
4B5
100
AcDbEntity
  8
RACCORDO
100
AcDbLine
 62
7
  6
CONTINUOUS
 10
19.2703978185
 20
15.2204248829
 11
-0.4593476155
 21
15.3127022942
  0
LINE
  5
4B6
100
AcDbEntity
  8
ASSI
100
AcDbLine
 62
7
  6
CONTINUOUS
 10
19.2703978185
 20
15.2204248829
 11
-0.4593476155
 21
15.3127022942
  0
LINE
  5
4B7
100
AcDbEntity
  8
RACCORDO
100
AcDbLine
 62
7
  6
CONTINUOUS
 10
-11.7472006692
 20
22.8955080407
 11
-11.9578931826
 21
23.0175407377
  0
LINE
  5
4B8
100
AcDbEntity
  8
RACCORDO
100
AcDbLine
 62
7
  6
CONTINUOUS
 10
-11.7176416134
 20
22.8782145188
 11
-11.7472006692
 21
22.8955080407
  0
LINE
  5
4B9
100
AcDbEntity
  8
DRAFT
100
AcDbLine
 62
253
  6
CONTINUOUS
 10
21.0726109604
 20
2.0912945983
 11
21.0906523845
 21
2.0732031704
  0
LINE
  5
4BA
100
AcDbEntity
  8
ASSI
100
AcDbLine
 62
253
  6
CONTINUOUS
 10
21.0726109604
 20
2.0912945983
 11
21.0906523845
 21
2.0732031704
  0
LINE
  5
4BB
100
AcDbEntity
  8
ASSI
100
AcDbLine
 62
253
  6
CONTINUOUS
 10
17.1906523845
 20
14.9433130422
 11
17.1906523845
 21
13.9887757288
  0
LINE
  5
4BC
100
AcDbEntity
  8
RACCORDO
100
AcDbLine
 62
7
  6
CONTINUOUS
 10
17.7906523845
 20
9.9419100279
 11
17.7906523845
 21
8.404496313
  0
LINE
  5
4BD
100
AcDbEntity
  8
ASSI
100
AcDbLine
 62
7
  6
CONTINUOUS
 10
18.1906523845
 20
14.940974685
 11
18.1906523845
 21
13.4054316559
  0
LINE
  5
4BE
100
AcDbEntity
  8
ASSI
100
AcDbLine
 62
7
  6
CONTINUOUS
 10
18.1906523845
 20
9.940974685
 11
18.1906523845
 21
8.4054316559
  0
LINE
  5
4BF
100
AcDbEntity
  8
RACCORDO
100
AcDbLine
 62
253
  6
CONTINUOUS
 10
26.308104791
 20
16.5700313003
 11
27.2906523845
 21
16.5700313003
  0
LINE
  5
4C0
100
AcDbEntity
  8
ASSI
100
AcDbLine
 62
253
  6
CONTINUOUS
 10
26.308104791
 20
16.5700313003
 11
27.2906523845
 21
16.5700313003
  0
LINE
  5
4C1
100
AcDbEntity
  8
RACCORDO
100
AcDbLine
 62
253
  6
CONTINUOUS
 10
26.308104791
 20
16.5700313003
 11
-11.7093476155
 21
16.8449022192
  0
LINE
  5
4C2
100
AcDbEntity
  8
ASSI
100
AcDbLine
 62
253
  6
CONTINUOUS
 10
26.308104791
 20
16.5700313003
 11
-11.7093476155
 21
16.8449022192
  0
LINE
  5
4C3
100
AcDbEntity
  8
RACCORDO
100
AcDbLine
 62
253
  6
CONTINUOUS
 10
26.308104791
 20
17.9840294711
 11
-11.7093476155
 21
18.25890039
  0
LINE
  5
4C4
100
AcDbEntity
  8
ASSI
100
AcDbLine
 62
253
  6
CONTINUOUS
 10
26.308104791
 20
17.9840294711
 11
-11.7093476155
 21
18.25890039
  0
LINE
  5
4C5
100
AcDbEntity
  8
RACCORDO
100
AcDbLine
 62
253
  6
CONTINUOUS
 10
-1.7093476155
 20
18.4913337295
 11
26.308104791
 21
18.0022872787
  0
LINE
  5
4C6
100
AcDbEntity
  8
ASSI
100
AcDbLine
 62
253
  6
CONTINUOUS
 10
-1.7093476155
 20
18.4913337295
 11
26.308104791
 21
18.0022872787
  0
LINE
  5
4C7
100
AcDbEntity
  8
RACCORDO
100
AcDbLine
 62
7
  6
CONTINUOUS
 10
-1.7093476155
 20
18.7841823393
 11
26.308104791
 21
18.2951358884
  0
LINE
  5
4C8
100
AcDbEntity
  8
ASSI
100
AcDbLine
 62
7
  6
CONTINUOUS
 10
-1.7093476155
 20
18.7841823393
 11
26.308104791
 21
18.2951358884
  0
LWPOLYLINE
  5
4C9
100
AcDbEntity
  8
RACCORDO
100
AcDbPolyline
 62
253
  6
CONTINUOUS
 90
19
 70
0
 10
26.308104791
 20
18.0022872787
 10
26.3942242261
 20
17.9985921367
 10
26.4795877118
 20
17.9896596508
 10
26.5635590101
 20
17.975553573
 10
26.6455155568
 20
17.9563752257
 10
26.7248412715
 20
17.932265434
 10
26.8009325479
 20
17.9034058442
 10
26.8732193109
 20
17.8700123777
 10
26.9411648801
 20
17.8323326482
 10
27.0042597329
 20
17.7906489469
 10
27.0620340226
 20
17.745271731
 10
27.1140565151
 20
17.6965397589
 10
27.1599365959
 20
17.6448199943
 10
27.1993486057
 20
17.5904755725
 10
27.2319796453
 20
17.5339333149
 10
27.2575589276
 20
17.4756929284
 10
27.2759192454
 20
17.4162204324
 10
27.2869674293
 20
17.3559360771
 10
27.2906523845
 20
17.2952881933
  0
LWPOLYLINE
  5
4CA
100
AcDbEntity
  8
ASSI
100
AcDbPolyline
 62
253
  6
CONTINUOUS
 90
19
 70
0
 10
26.308104791
 20
18.0022872787
 10
26.3942242261
 20
17.9985921367
 10
26.4795877118
 20
17.9896596508
 10
26.5635590101
 20
17.975553573
 10
26.6455155568
 20
17.9563752257
 10
26.7248412715
 20
17.932265434
 10
26.8009325479
 20
17.9034058442
 10
26.8732193109
 20
17.8700123777
 10
26.9411648801
 20
17.8323326482
 10
27.0042597329
 20
17.7906489469
 10
27.0620340226
 20
17.745271731
 10
27.1140565151
 20
17.6965397589
 10
27.1599365959
 20
17.6448199943
 10
27.1993486057
 20
17.5904755725
 10
27.2319796453
 20
17.5339333149
 10
27.2575589276
 20
17.4756929284
 10
27.2759192454
 20
17.4162204324
 10
27.2869674293
 20
17.3559360771
 10
27.2906523845
 20
17.2952881933
  0
LINE
  5
4CB
100
AcDbEntity
  8
RACCORDO
100
AcDbLine
 62
253
  6
CONTINUOUS
 10
-21.2955027852
 20
19.7151090269
 11
-21.7813827821
 21
19.7354163391
  0
LWPOLYLINE
  5
4CC
100
AcDbEntity
  8
RACCORDO
100
AcDbPolyline
 62
253
  6
CONTINUOUS
 90
3
 70
0
 10
-21.7813827821
 20
19.7354163391
 10
-21.7858009228
 20
19.7356318448
 10
-21.7863535878
 20
19.7356714952
  0
LWPOLYLINE
  5
4CD
100
AcDbEntity
  8
DRAFT
100
AcDbPolyline
 62
7
  6
CONTINUOUS
 90
10
 70
0
 10
19.2703978185
 20
3.125981458
 10
19.2534552726
 20
3.1565010052
 10
19.2370317062
 20
3.1872151173
 10
19.2211271194
 20
3.2181237943
 10
19.2057437731
 20
3.2492277122
 10
19.1908794063
 20
3.2805261949
 10
19.176527236
 20
3.312017215
 10
19.1626850014
 20
3.3437000967
 10
19.1493549632
 20
3.3755755158
 10
19.1365371217
 20
3.4076434723
  0
LWPOLYLINE
  5
4CE
100
AcDbEntity
  8
ASSI
100
AcDbPolyline
 62
7
  6
CONTINUOUS
 90
10
 70
0
 10
19.2703978185
 20
3.125981458
 10
19.2534552726
 20
3.1565010052
 10
19.2370317062
 20
3.1872151173
 10
19.2211271194
 20
3.2181237943
 10
19.2057437731
 20
3.2492277122
 10
19.1908794063
 20
3.2805261949
 10
19.176527236
 20
3.312017215
 10
19.1626850014
 20
3.3437000967
 10
19.1493549632
 20
3.3755755158
 10
19.1365371217
 20
3.4076434723
  0
LINE
  5
4CF
100
AcDbEntity
  8
DRAFT
100
AcDbLine
 62
7
  6
CONTINUOUS
 10
-11.5095608553
 20
20.0836735509
 11
-11.7093476155
 21
20.0732031704
  0
LINE
  5
4D0
100
AcDbEntity
  8
RACCORDO
100
AcDbLine
 62
253
  6
CONTINUOUS
 10
-12.7071612865
 20
21.073088899
 11
-20.3486847295
 21
20.672613625
  0
LINE
  5
4D1
100
AcDbEntity
  8
RACCORDO
100
AcDbLine
 62
7
  6
CONTINUOUS
 10
-2.2006214123
 20
20.7391786037
 11
-11.7093476155
 21
20.5732031704
  0
LINE
  5
4D2
100
AcDbEntity
  8
RACCORDO
100
AcDbLine
 62
7
  6
CONTINUOUS
 10
-1.7093476155
 20
20.1691987161
 11
-11.5095608553
 21
20.0836735509
  0
LINE
  5
4D3
100
AcDbEntity
  8
RACCORDO
100
AcDbLine
 62
253
  6
CONTINUOUS
 10
-11.7093476155
 20
21.064381111
 11
-12.7071612865
 21
21.073088899
  0
LINE
  5
4D4
100
AcDbEntity
  8
RACCORDO
100
AcDbLine
 62
7
  6
CONTINUOUS
 10
-2.70062108
 20
21.4858583372
 11
-12.7093476155
 21
21.5732031704
  0
LINE
  5
4D5
100
AcDbEntity
  8
DRAFT
100
AcDbLine
 62
7
  6
CONTINUOUS
 10
-11.7093476155
 20
20.0232031704
 11
-1.7093476155
 21
19.8486525212
  0
LINE
  5
4D6
100
AcDbEntity
  8
ASSI
100
AcDbLine
 62
7
  6
CONTINUOUS
 10
-11.7093476155
 20
20.0232031704
 11
-1.7093476155
 21
19.8486525212
  0
LWPOLYLINE
  5
4D7
100
AcDbEntity
  8
RACCORDO
100
AcDbPolyline
 62
253
  6
CONTINUOUS
 90
14
 70
0
 10
26.308104791
 20
17.9840294711
 10
26.4113667658
 20
17.9789662941
 10
26.5133353697
 20
17.9663823602
 10
26.6129180798
 20
17.9464124975
 10
26.7090479362
 20
17.9192706693
 10
26.8006949743
 20
17.8852476815
 10
26.8868772595
 20
17.8447080669
 10
26.9666714084
 20
17.7980861793
 10
27.0392224819
 20
17.74588154
 10
27.1037531456
 20
17.6886534856
 10
27.1595719981
 20
17.6270151749
 10
27.2060809792
 20
17.5616270197
 10
27.2427817773
 20
17.4931896089
 10
27.2692811688
 20
17.4224362018
  0
LWPOLYLINE
  5
4D8
100
AcDbEntity
  8
ASSI
100
AcDbPolyline
 62
253
  6
CONTINUOUS
 90
14
 70
0
 10
26.308104791
 20
17.9840294711
 10
26.4113667658
 20
17.9789662941
 10
26.5133353697
 20
17.9663823602
 10
26.6129180798
 20
17.9464124975
 10
26.7090479362
 20
17.9192706693
 10
26.8006949743
 20
17.8852476815
 10
26.8868772595
 20
17.8447080669
 10
26.9666714084
 20
17.7980861793
 10
27.0392224819
 20
17.74588154
 10
27.1037531456
 20
17.6886534856
 10
27.1595719981
 20
17.6270151749
 10
27.2060809792
 20
17.5616270197
 10
27.2427817773
 20
17.4931896089
 10
27.2692811688
 20
17.4224362018
  0
LINE
  5
4D9
100
AcDbEntity
  8
DRAFT
100
AcDbLine
 62
253
  6
CONTINUOUS
 10
21.0726109604
 20
7.0912945983
 11
21.0906523845
 21
7.0732031704
  0
LINE
  5
4DA
100
AcDbEntity
  8
ASSI
100
AcDbLine
 62
253
  6
CONTINUOUS
 10
21.0726109604
 20
7.0912945983
 11
21.0906523845
 21
7.0732031704
  0
LWPOLYLINE
  5
4DB
100
AcDbEntity
  8
DRAFT
100
AcDbPolyline
 62
7
  6
CONTINUOUS
 90
10
 70
0
 10
19.2703978185
 20
8.125981458
 10
19.2534552726
 20
8.1565010052
 10
19.2370317062
 20
8.1872151173
 10
19.2211271194
 20
8.2181237943
 10
19.2057437731
 20
8.2492277122
 10
19.1908794063
 20
8.2805261949
 10
19.176527236
 20
8.312017215
 10
19.1626850014
 20
8.3437000967
 10
19.1493549632
 20
8.3755755158
 10
19.1365371217
 20
8.4076434723
  0
LWPOLYLINE
  5
4DC
100
AcDbEntity
  8
ASSI
100
AcDbPolyline
 62
7
  6
CONTINUOUS
 90
10
 70
0
 10
19.2703978185
 20
8.125981458
 10
19.2534552726
 20
8.1565010052
 10
19.2370317062
 20
8.1872151173
 10
19.2211271194
 20
8.2181237943
 10
19.2057437731
 20
8.2492277122
 10
19.1908794063
 20
8.2805261949
 10
19.176527236
 20
8.312017215
 10
19.1626850014
 20
8.3437000967
 10
19.1493549632
 20
8.3755755158
 10
19.1365371217
 20
8.4076434723
  0
LINE
  5
4DD
100
AcDbEntity
  8
ASSI
100
AcDbLine
 62
7
  6
CONTINUOUS
 10
23.8906523845
 20
16.2702941331
 11
23.8906523845
 21
12.0761122078
  0
LINE
  5
4DE
100
AcDbEntity
  8
ASSI
100
AcDbLine
 62
7
  6
CONTINUOUS
 10
23.8906523845
 20
11.2702941331
 11
23.8906523845
 21
7.0761122078
  0
LINE
  5
4DF
100
AcDbEntity
  8
0
100
AcDbLine
 62
7
  6
CONTINUOUS
 10
24.2906523845
 20
5.5732031704
 11
24.2906523845
 21
2.0739571805
  0
LINE
  5
4E0
100
AcDbEntity
  8
0
100
AcDbLine
 62
7
  6
CONTINUOUS
 10
24.2906523845
 20
-0.0732892938
 11
24.2906523845
 21
-1.5803043653
  0
LINE
  5
4E1
100
AcDbEntity
  8
0
100
AcDbLine
 62
7
  6
CONTINUOUS
 10
24.2906523845
 20
-5.0732892938
 11
24.2906523845
 21
-6.5803043653
  0
LINE
  5
4E2
100
AcDbEntity
  8
0
100
AcDbLine
 62
7
  6
CONTINUOUS
 10
24.2906523845
 20
-10.0732892938
 11
24.2906523845
 21
-11.5803043653
  0
LINE
  5
4E3
100
AcDbEntity
  8
0
100
AcDbLine
 62
7
  6
CONTINUOUS
 10
24.2906523845
 20
-15.0732892938
 11
24.2906523845
 21
-16.5803043653
  0
LWPOLYLINE
  5
4E4
100
AcDbEntity
  8
RACCORDO
100
AcDbPolyline
 62
253
  6
CONTINUOUS
 90
43
 70
0
 10
-20.3486847295
 20
20.672613625
 10
-20.3838205494
 20
20.6701483852
 10
-20.4187681463
 20
20.6664619563
 10
-20.4535275204
 20
20.6615543382
 10
-20.4881430183
 20
20.6554163905
 10
-20.5225702933
 20
20.6480572536
 10
-20.5566763054
 20
20.639504349
 10
-20.5904583097
 20
20.6297532396
 10
-20.6239190511
 20
20.6188083626
 10
-20.6569337232
 20
20.6067104503
 10
-20.6895002879
 20
20.5934553111
 10
-20.7216207833
 20
20.5790471368
 10
-20.7531765179
 20
20.5635392348
 10
-20.7841654675
 20
20.5469275286
 10
-20.8145896563
 20
20.5292160948
 10
-20.844336465
 20
20.5104704706
 10
-20.8734034748
 20
20.4906867443
 10
-20.9017931045
 20
20.4698688276
 10
-20.9293999913
 20
20.4480939928
 10
-20.9562211359
 20
20.4253587547
 10
-20.9822595377
 20
20.4016665986
 10
-21.0074188314
 20
20.377105252
 10
-21.0316957687
 20
20.351671494
 10
-21.055093598
 20
20.3253685456
 10
-21.0775256994
 20
20.298293797
 10
-21.0989885513
 20
20.2704442854
 10
-21.1194856754
 20
20.2418229736
 10
-21.1389410166
 20
20.2125361401
 10
-21.1573506231
 20
20.1825814336
 10
-21.1747184469
 20
20.1519612054
 10
-21.1909802886
 20
20.1207887882
 10
-21.2061320521
 20
20.0890622003
 10
-21.2201778335
 20
20.0567834234
 10
-21.2330657216
 20
20.0240717342
 10
-21.2447915092
 20
19.9909251519
 10
-21.2553594034
 20
19.9573456574
 10
-21.2647301151
 20
19.9234584701
 10
-21.2728991475
 20
19.8892614486
 10
-21.2798709972
 20
19.8547567342
 10
-21.2856198658
 20
19.8200759705
 10
-21.2901371535
 20
19.7852630387
 10
-21.29343146
 20
19.7502740575
 10
-21.2955027852
 20
19.7151090269
  0
LINE
  5
4E5
100
AcDbEntity
  8
RACCORDO
100
AcDbLine
 62
7
  6
CONTINUOUS
 10
-20.3661265044
 20
21.1719283924
 11
-14.0848907575
 21
21.5011140091
  0
LINE
  5
4E6
100
AcDbEntity
  8
RACCORDO
100
AcDbLine
 62
7
  6
CONTINUOUS
 10
-12.7093476155
 20
21.5729112476
 11
-13.9824452457
 21
21.5055261197
  0
LINE
  5
4E7
100
AcDbEntity
  8
RACCORDO
100
AcDbLine
 62
7
  6
CONTINUOUS
 10
-13.9824452457
 20
21.5055261197
 11
-14.0039215138
 21
21.5045505381
  0
LINE
  5
4E8
100
AcDbEntity
  8
RACCORDO
100
AcDbLine
 62
7
  6
CONTINUOUS
 10
-14.0558050556
 20
21.5024436699
 11
-14.0848907575
 21
21.5011140091
  0
LINE
  5
4E9
100
AcDbEntity
  8
RACCORDO
100
AcDbLine
 62
7
  6
CONTINUOUS
 10
-14.0039215138
 20
21.5045505381
 11
-14.0558050556
 21
21.5024436699
  0
LINE
  5
4EA
100
AcDbEntity
  8
RACCORDO
100
AcDbLine
 62
253
  6
CONTINUOUS
 10
-12.7093476155
 20
23.4232074012
 11
-14.9608020483
 21
23.4101088225
  0
LINE
  5
4EB
100
AcDbEntity
  8
RACCORDO
100
AcDbLine
 62
7
  6
CONTINUOUS
 10
-12.7093476155
 20
23.6732031704
 11
-14.9608020483
 21
23.6601045917
  0
LINE
  5
4EC
100
AcDbEntity
  8
RACCORDO
100
AcDbLine
 62
253
  6
CONTINUOUS
 10
-15.2093476155
 20
23.0175407377
 11
-14.9608020483
 21
23.0175407377
  0
LINE
  5
4ED
100
AcDbEntity
  8
RACCORDO
100
AcDbLine
 62
253
  6
CONTINUOUS
 10
-15.2093476155
 20
23.4101088225
 11
-14.9608020483
 21
23.4101088225
  0
LINE
  5
4EE
100
AcDbEntity
  8
RACCORDO
100
AcDbLine
 62
253
  6
CONTINUOUS
 10
-11.7093476155
 20
23.4188355672
 11
-11.9578931826
 21
23.4188355672
  0
LINE
  5
4EF
100
AcDbEntity
  8
ASSI
100
AcDbLine
 62
7
  6
CONTINUOUS
 10
-11.7093476155
 20
22.9673853406
 11
-5.2064387498
 21
22.9295525236
  0
LINE
  5
4F0
100
AcDbEntity
  8
RACCORDO
100
AcDbLine
 62
253
  6
CONTINUOUS
 10
-11.9578931826
 20
23.4188355672
 11
-12.7093476155
 21
23.4232074012
  0
LINE
  5
4F1
100
AcDbEntity
  8
RACCORDO
100
AcDbLine
 62
7
  6
CONTINUOUS
 10
-11.9578931826
 20
23.6688313364
 11
-12.7093476155
 21
23.6732031704
  0
LINE
  5
4F2
100
AcDbEntity
  8
DRAFT
100
AcDbLine
 62
253
  6
CONTINUOUS
 10
21.0726109604
 20
12.0912945983
 11
21.0906523845
 21
12.0732031704
  0
LINE
  5
4F3
100
AcDbEntity
  8
ASSI
100
AcDbLine
 62
253
  6
CONTINUOUS
 10
21.0726109604
 20
12.0912945983
 11
21.0906523845
 21
12.0732031704
  0
LWPOLYLINE
  5
4F4
100
AcDbEntity
  8
DRAFT
100
AcDbPolyline
 62
7
  6
CONTINUOUS
 90
10
 70
0
 10
19.2703978185
 20
13.125981458
 10
19.2534552726
 20
13.1565010052
 10
19.2370317062
 20
13.1872151173
 10
19.2211271194
 20
13.2181237943
 10
19.2057437731
 20
13.2492277122
 10
19.1908794063
 20
13.2805261949
 10
19.176527236
 20
13.312017215
 10
19.1626850014
 20
13.3437000967
 10
19.1493549632
 20
13.3755755158
 10
19.1365371217
 20
13.4076434723
  0
LWPOLYLINE
  5
4F5
100
AcDbEntity
  8
ASSI
100
AcDbPolyline
 62
7
  6
CONTINUOUS
 90
10
 70
0
 10
19.2703978185
 20
13.125981458
 10
19.2534552726
 20
13.1565010052
 10
19.2370317062
 20
13.1872151173
 10
19.2211271194
 20
13.2181237943
 10
19.2057437731
 20
13.2492277122
 10
19.1908794063
 20
13.2805261949
 10
19.176527236
 20
13.312017215
 10
19.1626850014
 20
13.3437000967
 10
19.1493549632
 20
13.3755755158
 10
19.1365371217
 20
13.4076434723
  0
LINE
  5
4F6
100
AcDbEntity
  8
RACCORDO
100
AcDbLine
 62
253
  6
CONTINUOUS
 10
26.3093806861
 20
-19.814754333
 11
26.308104791
 21
-19.6558809378
  0
LINE
  5
4F7
100
AcDbEntity
  8
ASSI
100
AcDbLine
 62
253
  6
CONTINUOUS
 10
26.3093806861
 20
-19.814754333
 11
26.308104791
 21
-19.6558809378
  0
LWPOLYLINE
  5
4F8
100
AcDbEntity
  8
RACCORDO
100
AcDbPolyline
 62
253
  6
CONTINUOUS
 90
5
 70
0
 10
26.3095242664
 20
18.2348137264
 10
26.3093806861
 20
18.2610451395
 10
26.3090946178
 20
18.2799289189
 10
26.3086682382
 20
18.2913213938
 10
26.308104791
 20
18.2951358884
  0
LWPOLYLINE
  5
4F9
100
AcDbEntity
  8
ASSI
100
AcDbPolyline
 62
253
  6
CONTINUOUS
 90
5
 70
0
 10
26.3095242664
 20
18.2348137264
 10
26.3093806861
 20
18.2610451395
 10
26.3090946178
 20
18.2799289189
 10
26.3086682382
 20
18.2913213938
 10
26.308104791
 20
18.2951358884
  0
LINE
  5
4FA
100
AcDbEntity
  8
RACCORDO
100
AcDbLine
 62
253
  6
CONTINUOUS
 10
26.308104791
 20
-18.2236249594
 11
26.309179384
 21
-18.6137588754
  0
LINE
  5
4FB
100
AcDbEntity
  8
ASSI
100
AcDbLine
 62
253
  6
CONTINUOUS
 10
26.308104791
 20
-18.2236249594
 11
26.309179384
 21
-18.6137588754
  0
LINE
  5
4FC
100
AcDbEntity
  8
RACCORDO
100
AcDbLine
 62
253
  6
CONTINUOUS
 10
26.3093814274
 20
17.569857593
 11
26.308104791
 21
17.9840294711
  0
LINE
  5
4FD
100
AcDbEntity
  8
ASSI
100
AcDbLine
 62
253
  6
CONTINUOUS
 10
26.3093814274
 20
17.569857593
 11
26.308104791
 21
17.9840294711
  0
LINE
  5
4FE
100
AcDbEntity
  8
RACCORDO
100
AcDbLine
 62
253
  6
CONTINUOUS
 10
26.309179384
 20
-18.6137588754
 11
26.3095422478
 21
-18.9888677776
  0
LINE
  5
4FF
100
AcDbEntity
  8
ASSI
100
AcDbLine
 62
253
  6
CONTINUOUS
 10
26.309179384
 20
-18.6137588754
 11
26.3095422478
 21
-18.9888677776
  0
LINE
  5
500
100
AcDbEntity
  8
DRAFT
100
AcDbLine
 62
7
  6
CONTINUOUS
 10
24.7906523845
 20
2.0712633963
 11
24.7906523845
 21
6.2749914349
  0
LINE
  5
501
100
AcDbEntity
  8
ASSI
100
AcDbLine
 62
7
  6
CONTINUOUS
 10
24.7906523845
 20
2.0712633963
 11
24.7906523845
 21
6.2749914349
  0
LINE
  5
502
100
AcDbEntity
  8
DRAFT
100
AcDbLine
 62
7
  6
CONTINUOUS
 10
24.7906523845
 20
7.0712633963
 11
24.7906523845
 21
11.2749914349
  0
LINE
  5
503
100
AcDbEntity
  8
ASSI
100
AcDbLine
 62
7
  6
CONTINUOUS
 10
24.7906523845
 20
7.0712633963
 11
24.7906523845
 21
11.2749914349
  0
LINE
  5
504
100
AcDbEntity
  8
DRAFT
100
AcDbLine
 62
7
  6
CONTINUOUS
 10
24.7906523845
 20
12.0712633963
 11
24.7906523845
 21
16.2749914349
  0
LINE
  5
505
100
AcDbEntity
  8
ASSI
100
AcDbLine
 62
7
  6
CONTINUOUS
 10
24.7906523845
 20
12.0712633963
 11
24.7906523845
 21
16.2749914349
  0
LINE
  5
506
100
AcDbEntity
  8
DRAFT
100
AcDbLine
 62
7
  6
CONTINUOUS
 10
25.7906523845
 20
-0.0767968296
 11
25.7906523845
 21
-1.5767968296
  0
LINE
  5
507
100
AcDbEntity
  8
ASSI
100
AcDbLine
 62
7
  6
CONTINUOUS
 10
25.7906523845
 20
-0.0767968296
 11
25.7906523845
 21
-1.5767968296
  0
LINE
  5
508
100
AcDbEntity
  8
DRAFT
100
AcDbLine
 62
7
  6
CONTINUOUS
 10
25.7906523845
 20
-5.0767968296
 11
25.7906523845
 21
-6.5767968296
  0
LINE
  5
509
100
AcDbEntity
  8
ASSI
100
AcDbLine
 62
7
  6
CONTINUOUS
 10
25.7906523845
 20
-5.0767968296
 11
25.7906523845
 21
-6.5767968296
  0
LINE
  5
50A
100
AcDbEntity
  8
DRAFT
100
AcDbLine
 62
7
  6
CONTINUOUS
 10
25.7906523845
 20
-10.0767968296
 11
25.7906523845
 21
-11.5767968296
  0
LINE
  5
50B
100
AcDbEntity
  8
ASSI
100
AcDbLine
 62
7
  6
CONTINUOUS
 10
25.7906523845
 20
-10.0767968296
 11
25.7906523845
 21
-11.5767968296
  0
LINE
  5
50C
100
AcDbEntity
  8
DRAFT
100
AcDbLine
 62
7
  6
CONTINUOUS
 10
25.7906523845
 20
-15.0767968296
 11
25.7906523845
 21
-16.5767968296
  0
LINE
  5
50D
100
AcDbEntity
  8
ASSI
100
AcDbLine
 62
7
  6
CONTINUOUS
 10
25.7906523845
 20
-15.0767968296
 11
25.7906523845
 21
-16.5767968296
  0
LINE
  5
50E
100
AcDbEntity
  8
RACCORDO
100
AcDbLine
 62
253
  6
CONTINUOUS
 10
26.308104791
 20
12.0458844039
 11
26.308104791
 21
11.300521937
  0
LINE
  5
50F
100
AcDbEntity
  8
ASSI
100
AcDbLine
 62
253
  6
CONTINUOUS
 10
26.308104791
 20
12.0458844039
 11
26.308104791
 21
11.300521937
  0
LINE
  5
510
100
AcDbEntity
  8
RACCORDO
100
AcDbLine
 62
253
  6
CONTINUOUS
 10
26.308104791
 20
7.0458844039
 11
26.308104791
 21
6.300521937
  0
LINE
  5
511
100
AcDbEntity
  8
ASSI
100
AcDbLine
 62
253
  6
CONTINUOUS
 10
26.308104791
 20
7.0458844039
 11
26.308104791
 21
6.300521937
  0
LINE
  5
512
100
AcDbEntity
  8
RACCORDO
100
AcDbLine
 62
253
  6
CONTINUOUS
 10
26.308104791
 20
2.0458844039
 11
26.308104791
 21
0.1875090309
  0
LINE
  5
513
100
AcDbEntity
  8
ASSI
100
AcDbLine
 62
253
  6
CONTINUOUS
 10
26.308104791
 20
2.0458844039
 11
26.308104791
 21
0.1875090309
  0
LINE
  5
514
100
AcDbEntity
  8
RACCORDO
100
AcDbLine
 62
253
  6
CONTINUOUS
 10
26.308104791
 20
-1.84110269
 11
26.308104791
 21
-4.8124909691
  0
LINE
  5
515
100
AcDbEntity
  8
ASSI
100
AcDbLine
 62
253
  6
CONTINUOUS
 10
26.308104791
 20
-1.84110269
 11
26.308104791
 21
-4.8124909691
  0
LINE
  5
516
100
AcDbEntity
  8
RACCORDO
100
AcDbLine
 62
253
  6
CONTINUOUS
 10
26.308104791
 20
-6.84110269
 11
26.308104791
 21
-9.8124909691
  0
LINE
  5
517
100
AcDbEntity
  8
ASSI
100
AcDbLine
 62
253
  6
CONTINUOUS
 10
26.308104791
 20
-6.84110269
 11
26.308104791
 21
-9.8124909691
  0
LINE
  5
518
100
AcDbEntity
  8
RACCORDO
100
AcDbLine
 62
253
  6
CONTINUOUS
 10
26.308104791
 20
-11.84110269
 11
26.308104791
 21
-14.8124909691
  0
LINE
  5
519
100
AcDbEntity
  8
ASSI
100
AcDbLine
 62
253
  6
CONTINUOUS
 10
26.308104791
 20
-11.84110269
 11
26.308104791
 21
-14.8124909691
  0
LINE
  5
51A
100
AcDbEntity
  8
RACCORDO
100
AcDbLine
 62
253
  6
CONTINUOUS
 10
26.308104791
 20
-16.84110269
 11
26.308104791
 21
-18.2236249594
  0
LINE
  5
51B
100
AcDbEntity
  8
ASSI
100
AcDbLine
 62
253
  6
CONTINUOUS
 10
26.308104791
 20
-16.84110269
 11
26.308104791
 21
-18.2236249594
  0
LINE
  5
51C
100
AcDbEntity
  8
RACCORDO
100
AcDbLine
 62
253
  6
CONTINUOUS
 10
26.308104791
 20
-19.6376231302
 11
26.308104791
 21
-19.6558809378
  0
LINE
  5
51D
100
AcDbEntity
  8
ASSI
100
AcDbLine
 62
253
  6
CONTINUOUS
 10
26.308104791
 20
-19.6376231302
 11
26.308104791
 21
-19.6558809378
  0
LINE
  5
51E
100
AcDbEntity
  8
RACCORDO
100
AcDbLine
 62
253
  6
CONTINUOUS
 10
26.308104791
 20
16.300521937
 11
26.308104791
 21
16.5700313003
  0
LINE
  5
51F
100
AcDbEntity
  8
ASSI
100
AcDbLine
 62
253
  6
CONTINUOUS
 10
26.308104791
 20
16.300521937
 11
26.308104791
 21
16.5700313003
  0
LINE
  5
520
100
AcDbEntity
  8
RACCORDO
100
AcDbLine
 62
253
  6
CONTINUOUS
 10
26.308104791
 20
17.9840294711
 11
26.308104791
 21
18.0022872787
  0
LINE
  5
521
100
AcDbEntity
  8
ASSI
100
AcDbLine
 62
253
  6
CONTINUOUS
 10
26.308104791
 20
17.9840294711
 11
26.308104791
 21
18.0022872787
  0
LINE
  5
522
100
AcDbEntity
  8
RACCORDO
100
AcDbLine
 62
253
  6
CONTINUOUS
 10
26.3093814467
 20
17.0875954622
 11
26.3093814274
 21
17.569857593
  0
LINE
  5
523
100
AcDbEntity
  8
ASSI
100
AcDbLine
 62
253
  6
CONTINUOUS
 10
26.3093814467
 20
17.0875954622
 11
26.3093814274
 21
17.569857593
  0
LINE
  5
524
100
AcDbEntity
  8
RACCORDO
100
AcDbLine
 62
253
  6
CONTINUOUS
 10
26.3095422478
 20
-18.9888677776
 11
26.3091795018
 21
-19.3345748611
  0
LINE
  5
525
100
AcDbEntity
  8
ASSI
100
AcDbLine
 62
253
  6
CONTINUOUS
 10
26.3095422478
 20
-18.9888677776
 11
26.3091795018
 21
-19.3345748611
  0
LINE
  5
526
100
AcDbEntity
  8
RACCORDO
100
AcDbLine
 62
253
  6
CONTINUOUS
 10
26.308104791
 20
16.5700313003
 11
26.3093814467
 21
17.0875954622
  0
LINE
  5
527
100
AcDbEntity
  8
ASSI
100
AcDbLine
 62
253
  6
CONTINUOUS
 10
26.308104791
 20
16.5700313003
 11
26.3093814467
 21
17.0875954622
  0
LINE
  5
528
100
AcDbEntity
  8
RACCORDO
100
AcDbLine
 62
253
  6
CONTINUOUS
 10
26.3093806861
 20
18.1611606739
 11
26.3095242664
 21
18.2348137264
  0
LINE
  5
529
100
AcDbEntity
  8
ASSI
100
AcDbLine
 62
253
  6
CONTINUOUS
 10
26.3093806861
 20
18.1611606739
 11
26.3095242664
 21
18.2348137264
  0
LINE
  5
52A
100
AcDbEntity
  8
RACCORDO
100
AcDbLine
 62
253
  6
CONTINUOUS
 10
26.3091795018
 20
-19.3345748611
 11
26.308104791
 21
-19.6376231302
  0
LINE
  5
52B
100
AcDbEntity
  8
ASSI
100
AcDbLine
 62
253
  6
CONTINUOUS
 10
26.3091795018
 20
-19.3345748611
 11
26.308104791
 21
-19.6376231302
  0
LINE
  5
52C
100
AcDbEntity
  8
RACCORDO
100
AcDbLine
 62
253
  6
CONTINUOUS
 10
26.308104791
 20
18.0022872787
 11
26.3093806861
 21
18.1611606739
  0
LINE
  5
52D
100
AcDbEntity
  8
ASSI
100
AcDbLine
 62
253
  6
CONTINUOUS
 10
26.308104791
 20
18.0022872787
 11
26.3093806861
 21
18.1611606739
  0
LINE
  5
52E
100
AcDbEntity
  8
RACCORDO
100
AcDbLine
 62
253
  6
CONTINUOUS
 10
27.285295231
 20
17.3501248721
 11
27.2906523845
 21
17.2770303857
  0
LINE
  5
52F
100
AcDbEntity
  8
ASSI
100
AcDbLine
 62
253
  6
CONTINUOUS
 10
27.285295231
 20
17.3501248721
 11
27.2906523845
 21
17.2770303857
  0
LINE
  5
530
100
AcDbEntity
  8
RACCORDO
100
AcDbLine
 62
7
  6
CONTINUOUS
 10
27.2906523845
 20
-18.9488818524
 11
27.2906523845
 21
17.2952881933
  0
LINE
  5
531
100
AcDbEntity
  8
ASSI
100
AcDbLine
 62
7
  6
CONTINUOUS
 10
27.2906523845
 20
-18.9488818524
 11
27.2906523845
 21
17.2952881933
  0
LINE
  5
532
100
AcDbEntity
  8
RACCORDO
100
AcDbLine
 62
253
  6
CONTINUOUS
 10
27.2906523845
 20
-18.9488818524
 11
27.2869674293
 21
-19.0095297362
  0
LINE
  5
533
100
AcDbEntity
  8
ASSI
100
AcDbLine
 62
253
  6
CONTINUOUS
 10
27.2906523845
 20
-18.9488818524
 11
27.2869674293
 21
-19.0095297362
  0
LINE
  5
534
100
AcDbEntity
  8
RACCORDO
100
AcDbLine
 62
253
  6
CONTINUOUS
 10
27.2906523845
 20
-18.9306240448
 11
27.285295231
 21
-19.0037185312
  0
LINE
  5
535
100
AcDbEntity
  8
ASSI
100
AcDbLine
 62
253
  6
CONTINUOUS
 10
27.2906523845
 20
-18.9306240448
 11
27.285295231
 21
-19.0037185312
  0
LWPOLYLINE
  5
536
100
AcDbEntity
  8
RACCORDO
100
AcDbPolyline
 62
253
  6
CONTINUOUS
 90
6
 70
0
 10
26.308104791
 20
-19.9487295476
 10
26.3086682382
 20
-19.9449150529
 10
26.3090946178
 20
-19.933522578
 10
26.3093806861
 20
-19.9146387986
 10
26.3095242664
 20
-19.8884073855
 10
26.3093806861
 20
-19.814754333
  0
LWPOLYLINE
  5
537
100
AcDbEntity
  8
ASSI
100
AcDbPolyline
 62
253
  6
CONTINUOUS
 90
6
 70
0
 10
26.308104791
 20
-19.9487295476
 10
26.3086682382
 20
-19.9449150529
 10
26.3090946178
 20
-19.933522578
 10
26.3093806861
 20
-19.9146387986
 10
26.3095242664
 20
-19.8884073855
 10
26.3093806861
 20
-19.814754333
  0
LWPOLYLINE
  5
538
100
AcDbEntity
  8
RACCORDO
100
AcDbPolyline
 62
253
  6
CONTINUOUS
 90
18
 70
0
 10
27.2869674293
 20
-19.0095297362
 10
27.2759192454
 20
-19.0698140916
 10
27.2575589276
 20
-19.1292865875
 10
27.2319796453
 20
-19.187526974
 10
27.1993486057
 20
-19.2440692316
 10
27.1599365959
 20
-19.2984136535
 10
27.1140565151
 20
-19.350133418
 10
27.0620340226
 20
-19.3988653902
 10
27.0042597329
 20
-19.444242606
 10
26.9411648801
 20
-19.4859263073
 10
26.8732193109
 20
-19.5236060368
 10
26.8009325479
 20
-19.5569995034
 10
26.7248412715
 20
-19.5858590931
 10
26.6455155568
 20
-19.6099688848
 10
26.5635590101
 20
-19.6291472321
 10
26.4795877118
 20
-19.6432533099
 10
26.3942242261
 20
-19.6521857958
 10
26.308104791
 20
-19.6558809378
  0
LWPOLYLINE
  5
539
100
AcDbEntity
  8
ASSI
100
AcDbPolyline
 62
253
  6
CONTINUOUS
 90
18
 70
0
 10
27.2869674293
 20
-19.0095297362
 10
27.2759192454
 20
-19.0698140916
 10
27.2575589276
 20
-19.1292865875
 10
27.2319796453
 20
-19.187526974
 10
27.1993486057
 20
-19.2440692316
 10
27.1599365959
 20
-19.2984136535
 10
27.1140565151
 20
-19.350133418
 10
27.0620340226
 20
-19.3988653902
 10
27.0042597329
 20
-19.444242606
 10
26.9411648801
 20
-19.4859263073
 10
26.8732193109
 20
-19.5236060368
 10
26.8009325479
 20
-19.5569995034
 10
26.7248412715
 20
-19.5858590931
 10
26.6455155568
 20
-19.6099688848
 10
26.5635590101
 20
-19.6291472321
 10
26.4795877118
 20
-19.6432533099
 10
26.3942242261
 20
-19.6521857958
 10
26.308104791
 20
-19.6558809378
  0
LINE
  5
53A
100
AcDbEntity
  8
RACCORDO
100
AcDbLine
 62
253
  6
CONTINUOUS
 10
27.285295231
 20
-19.0037185312
 11
27.2692811688
 21
-19.0760298609
  0
LINE
  5
53B
100
AcDbEntity
  8
ASSI
100
AcDbLine
 62
253
  6
CONTINUOUS
 10
27.285295231
 20
-19.0037185312
 11
27.2692811688
 21
-19.0760298609
  0
LWPOLYLINE
  5
53C
100
AcDbEntity
  8
RACCORDO
100
AcDbPolyline
 62
253
  6
CONTINUOUS
 90
14
 70
0
 10
27.2692811688
 20
-19.0760298609
 10
27.2427817773
 20
-19.146783268
 10
27.2060809792
 20
-19.2152206789
 10
27.1595719981
 20
-19.2806088341
 10
27.1037531456
 20
-19.3422471448
 10
27.0392224819
 20
-19.3994751993
 10
26.9666714084
 20
-19.4516798386
 10
26.8868772596
 20
-19.4983017262
 10
26.8006949744
 20
-19.5388413409
 10
26.7090479363
 20
-19.5728643288
 10
26.6129180798
 20
-19.600006157
 10
26.5133353698
 20
-19.6199760196
 10
26.4113667658
 20
-19.6325599534
 10
26.308104791
 20
-19.6376231302
  0
LWPOLYLINE
  5
53D
100
AcDbEntity
  8
ASSI
100
AcDbPolyline
 62
253
  6
CONTINUOUS
 90
14
 70
0
 10
27.2692811688
 20
-19.0760298609
 10
27.2427817773
 20
-19.146783268
 10
27.2060809792
 20
-19.2152206789
 10
27.1595719981
 20
-19.2806088341
 10
27.1037531456
 20
-19.3422471448
 10
27.0392224819
 20
-19.3994751993
 10
26.9666714084
 20
-19.4516798386
 10
26.8868772596
 20
-19.4983017262
 10
26.8006949744
 20
-19.5388413409
 10
26.7090479363
 20
-19.5728643288
 10
26.6129180798
 20
-19.600006157
 10
26.5133353698
 20
-19.6199760196
 10
26.4113667658
 20
-19.6325599534
 10
26.308104791
 20
-19.6376231302
  0
LINE
  5
53E
100
AcDbEntity
  8
RACCORDO
100
AcDbLine
 62
253
  6
CONTINUOUS
 10
27.2692811688
 20
17.4224362018
 11
27.285295231
 21
17.3501248721
  0
LINE
  5
53F
100
AcDbEntity
  8
ASSI
100
AcDbLine
 62
253
  6
CONTINUOUS
 10
27.2692811688
 20
17.4224362018
 11
27.285295231
 21
17.3501248721
  0
LWPOLYLINE
  5
540
100
AcDbEntity
  8
RACCORDO
100
AcDbPolyline
 62
253
  6
CONTINUOUS
 90
31
 70
0
 10
64.3769701956
 20
-25.3136982508
 10
64.3900536816
 20
-25.3133552123
 10
64.4031013082
 20
-25.3123279224
 10
64.4160773143
 20
-25.3106191968
 10
64.4289461351
 20
-25.3082337189
 10
64.4416724997
 20
-25.3051780267
 10
64.4542215274
 20
-25.3014604953
 10
64.4665588236
 20
-25.2970913138
 10
64.4786505743
 20
-25.2920824573
 10
64.4904636381
 20
-25.2864476541
 10
64.5019656377
 20
-25.2802023482
 10
64.5131250482
 20
-25.2733636568
 10
64.5239112838
 20
-25.2659503234
 10
64.5342947814
 20
-25.2579826667
 10
64.5442470819
 20
-25.2494825244
 10
64.5537409078
 20
-25.2404731938
 10
64.5627502383
 20
-25.2309793679
 10
64.5712503806
 20
-25.2210270675
 10
64.5792180374
 20
-25.2106435698
 10
64.5866313707
 20
-25.1998573342
 10
64.5934700622
 20
-25.1886979237
 10
64.5997153681
 20
-25.1771959242
 10
64.6053501712
 20
-25.1653828603
 10
64.6103590277
 20
-25.1532911097
 10
64.6147282092
 20
-25.1409538134
 10
64.6184457406
 20
-25.1284047858
 10
64.6215014328
 20
-25.1156784212
 10
64.6238869108
 20
-25.1028096004
 10
64.6255956363
 20
-25.0898335942
 10
64.6266229262
 20
-25.0767859676
 10
64.6269659648
 20
-25.0637024816
  0
LWPOLYLINE
  5
541
100
AcDbEntity
  8
RACCORDO
100
AcDbPolyline
 62
7
  6
CONTINUOUS
 90
34
 70
0
 10
64.3900687743
 20
-25.3267968296
 10
64.4019640595
 20
-25.3265136793
 10
64.4138323991
 20
-25.3256648638
 10
64.4256469096
 20
-25.3242523037
 10
64.437380831
 20
-25.3222791973
 10
64.4490075823
 20
-25.3197500113
 10
64.4605008225
 20
-25.3166704713
 10
64.4718345173
 20
-25.3130475509
 10
64.4829829928
 20
-25.3088894553
 10
64.4939209898
 20
-25.3042056017
 10
64.5046237311
 20
-25.2990065984
 10
64.5150669718
 20
-25.2933042212
 10
64.5252270494
 20
-25.2871113877
 10
64.5350809486
 20
-25.280442125
 10
64.5446063473
 20
-25.2733115403
 10
64.5537816626
 20
-25.2657357884
 10
64.5625861096
 20
-25.25773203
 10
64.570999744
 20
-25.2493183956
 10
64.5790035024
 20
-25.2405139486
 10
64.5865792542
 20
-25.2313386334
 10
64.593709839
 20
-25.2218132347
 10
64.6003791016
 20
-25.2119593355
 10
64.6065719351
 20
-25.2017992578
 10
64.6122743123
 20
-25.1913560172
 10
64.6174733157
 20
-25.1806532759
 10
64.6221571693
 20
-25.1697152789
 10
64.6263152648
 20
-25.1585668033
 10
64.6299381852
 20
-25.1472331086
 10
64.6330177252
 20
-25.1357398684
 10
64.6355469112
 20
-25.124113117
 10
64.6375200177
 20
-25.1123791957
 10
64.6389325777
 20
-25.1005646851
 10
64.6397813933
 20
-25.0886963456
 10
64.6400645435
 20
-25.0768010603
  0
LINE
  5
542
100
AcDbEntity
  8
RACCORDO
100
AcDbLine
 62
7
  6
CONTINUOUS
 10
64.3900687743
 20
-25.3267968296
 11
62.4900603127
 21
-25.3267968296
  0
LINE
  5
543
100
AcDbEntity
  8
RACCORDO
100
AcDbLine
 62
7
  6
CONTINUOUS
 10
45.4900687743
 20
-25.3267968296
 11
43.5900603127
 21
-25.3267968296
  0
LINE
  5
544
100
AcDbEntity
  8
RACCORDO
100
AcDbLine
 62
253
  6
CONTINUOUS
 10
43.6031588914
 20
-25.3136982508
 11
45.4769701956
 21
-25.3136982508
  0
LINE
  5
545
100
AcDbEntity
  8
RACCORDO
100
AcDbLine
 62
253
  6
CONTINUOUS
 10
62.5031588914
 20
-25.3136982508
 11
64.3769701956
 21
-25.3136982508
  0
LINE
  5
546
100
AcDbEntity
  8
RACCORDO
100
AcDbLine
 62
7
  6
CONTINUOUS
 10
43.1165475337
 20
-23.1652713298
 11
43.1340505558
 21
-23.1740221743
  0
LINE
  5
547
100
AcDbEntity
  8
RACCORDO
100
AcDbLine
 62
253
  6
CONTINUOUS
 10
42.8400645435
 20
-22.7179747702
 11
42.8574814459
 21
-22.7266825581
  0
LWPOLYLINE
  5
548
100
AcDbEntity
  8
RACCORDO
100
AcDbPolyline
 62
7
  6
CONTINUOUS
 90
27
 70
0
 10
43.1340505558
 20
-23.1740221743
 10
43.1136066428
 20
-23.1632029532
 10
43.0951259537
 20
-23.1523423806
 10
43.0770947285
 20
-23.1406776234
 10
43.0595603272
 20
-23.1282343915
 10
43.0425317452
 20
-23.1150125226
 10
43.0260194635
 20
-23.1010079065
 10
43.0100868555
 20
-23.0862615648
 10
42.9948175808
 20
-23.0708469462
 10
42.9802420079
 20
-23.0547974886
 10
42.9663831761
 20
-23.0381414637
 10
42.9532997119
 20
-23.0209577421
 10
42.9410136215
 20
-23.0032912161
 10
42.9295346963
 20
-22.9851728691
 10
42.9188913796
 20
-22.9666681729
 10
42.909099763
 20
-22.9478334667
 10
42.9001566962
 20
-22.928693194
 10
42.8920581502
 20
-22.9092655818
 10
42.8848102331
 20
-22.8895915109
 10
42.8784152637
 20
-22.8697063661
 10
42.872867341
 20
-22.8496173694
 10
42.8681689201
 20
-22.829353832
 10
42.8643244794
 20
-22.8089590935
 10
42.8613337368
 20
-22.7884598313
 10
42.8591969608
 20
-22.7678886914
 10
42.8579136817
 20
-22.7472844724
 10
42.8574814459
 20
-22.7266825581
  0
LINE
  5
549
100
AcDbEntity
  8
RACCORDO
100
AcDbLine
 62
7
  6
CONTINUOUS
 10
43.1340505558
 20
21.5204285152
 11
43.1165475337
 21
21.5116776706
  0
LINE
  5
54A
100
AcDbEntity
  8
RACCORDO
100
AcDbLine
 62
253
  6
CONTINUOUS
 10
42.8574814459
 20
21.073088899
 11
42.8400645435
 21
21.064381111
  0
LWPOLYLINE
  5
54B
100
AcDbEntity
  8
RACCORDO
100
AcDbPolyline
 62
7
  6
CONTINUOUS
 90
11
 70
0
 10
43.1340505558
 20
21.5204285152
 10
43.1518770847
 20
21.5289055281
 10
43.1716950507
 20
21.5373452341
 10
43.1919048427
 20
21.5449399762
 10
43.2124536468
 20
21.5516642469
 10
43.2333210224
 20
21.5575058605
 10
43.2544526321
 20
21.5624441366
 10
43.2757406565
 20
21.5664541955
 10
43.2971210974
 20
21.5695304744
 10
43.3185761463
 20
21.5716769102
 10
43.3400654044
 20
21.5728943691
  0
LWPOLYLINE
  5
54C
100
AcDbEntity
  8
RACCORDO
100
AcDbPolyline
 62
7
  6
CONTINUOUS
 90
23
 70
0
 10
49.6938572298
 20
-24.6221357964
 10
49.7046463532
 20
-24.6215883944
 10
49.7157338154
 20
-24.6201607245
 10
49.7271196163
 20
-24.6179333175
 10
49.7388283966
 20
-24.6149947261
 10
49.7508355155
 20
-24.6114207011
 10
49.7630670515
 20
-24.6072563428
 10
49.7755157917
 20
-24.6025611998
 10
49.7881889489
 20
-24.5973986393
 10
49.8010342391
 20
-24.5917921399
 10
49.8140473712
 20
-24.5857870615
 10
49.8272326363
 20
-24.5794333943
 10
49.8405506232
 20
-24.5727428878
 10
49.8539991102
 20
-24.5657511127
 10
49.8675803191
 20
-24.5584982217
 10
49.8812615039
 20
-24.5509905026
 10
49.8950416156
 20
-24.5432570175
 10
49.9089217033
 20
-24.5353307806
 10
49.9228721679
 20
-24.5272160196
 10
49.9368927685
 20
-24.5189373586
 10
49.9509837459
 20
-24.5105227888
 10
49.9651162234
 20
-24.5019765093
 10
49.9935063597
 20
-24.4845780307
  0
LWPOLYLINE
  5
54D
100
AcDbEntity
  8
RACCORDO
100
AcDbPolyline
 62
253
  6
CONTINUOUS
 90
31
 70
0
 10
45.4769701956
 20
-25.3136982508
 10
45.4900565497
 20
-25.3133550618
 10
45.503107048
 20
-25.3123273189
 10
45.5160859055
 20
-25.3106178357
 10
45.5289575451
 20
-25.308231293
 10
45.541686659
 20
-25.3051742318
 10
45.5542383065
 20
-25.3014550423
 10
45.5665780626
 20
-25.2970839273
 10
45.5786720998
 20
-25.2920728718
 10
45.5904872454
 20
-25.2864356235
 10
45.6019911012
 20
-25.2801876443
 10
45.6131521272
 20
-25.2733460685
 10
45.6239397175
 20
-25.2659296617
 10
45.6343243068
 20
-25.2579587535
 10
45.6442774102
 20
-25.249455212
 10
45.6537717034
 20
-25.2404423929
 10
45.6627811252
 20
-25.2309450584
 10
45.6712810221
 20
-25.2209892213
 10
45.6792481644
 20
-25.2106020954
 10
45.6866607944
 20
-25.1998120162
 10
45.6934984762
 20
-25.1886486978
 10
45.6997422779
 20
-25.1771430974
 10
45.7053750265
 20
-25.1653270191
 10
45.7103814564
 20
-25.153232663
 10
45.7147480075
 20
-25.1408928591
 10
45.7184634472
 20
-25.1283386745
 10
45.7215165606
 20
-25.1156072093
 10
45.7238976907
 20
-25.1027414906
 10
45.725601295
 20
-25.089779716
 10
45.7266245576
 20
-25.0767548216
 10
45.7269659648
 20
-25.0637024816
  0
LWPOLYLINE
  5
54E
100
AcDbEntity
  8
RACCORDO
100
AcDbPolyline
 62
7
  6
CONTINUOUS
 90
34
 70
0
 10
45.4900687743
 20
-25.3267968296
 10
45.5019640595
 20
-25.3265136793
 10
45.5138323991
 20
-25.3256648638
 10
45.5256469096
 20
-25.3242523037
 10
45.537380831
 20
-25.3222791973
 10
45.5490075823
 20
-25.3197500113
 10
45.5605008225
 20
-25.3166704713
 10
45.5718345173
 20
-25.3130475509
 10
45.5829829928
 20
-25.3088894553
 10
45.5939209898
 20
-25.3042056017
 10
45.6046237311
 20
-25.2990065984
 10
45.6150669718
 20
-25.2933042212
 10
45.6252270494
 20
-25.2871113877
 10
45.6350809486
 20
-25.280442125
 10
45.6446063473
 20
-25.2733115403
 10
45.6537816626
 20
-25.2657357884
 10
45.6625861096
 20
-25.25773203
 10
45.670999744
 20
-25.2493183956
 10
45.6790035024
 20
-25.2405139486
 10
45.6865792542
 20
-25.2313386334
 10
45.693709839
 20
-25.2218132347
 10
45.7003791016
 20
-25.2119593355
 10
45.7065719351
 20
-25.2017992578
 10
45.7122743123
 20
-25.1913560172
 10
45.7174733157
 20
-25.1806532759
 10
45.7221571693
 20
-25.1697152789
 10
45.7263152648
 20
-25.1585668033
 10
45.7299381852
 20
-25.1472331086
 10
45.7330177252
 20
-25.1357398684
 10
45.7355469112
 20
-25.124113117
 10
45.7375200177
 20
-25.1123791957
 10
45.7389325777
 20
-25.1005646851
 10
45.7397813933
 20
-25.0886963456
 10
45.7400645435
 20
-25.0768010603
  0
LINE
  5
54F
100
AcDbEntity
  8
RACCORDO
100
AcDbLine
 62
253
  6
CONTINUOUS
 10
43.3531631222
 20
-25.0637024816
 11
45.7269659648
 21
-25.0637024816
  0
LINE
  5
550
100
AcDbEntity
  8
RACCORDO
100
AcDbLine
 62
253
  6
CONTINUOUS
 10
62.2531631222
 20
-25.0637024816
 11
64.6269659648
 21
-25.0637024816
  0
LINE
  5
551
100
AcDbEntity
  8
RACCORDO
100
AcDbLine
 62
253
  6
CONTINUOUS
 10
43.3531631222
 20
-24.6711343969
 11
45.7269659648
 21
-24.6711343969
  0
LINE
  5
552
100
AcDbEntity
  8
RACCORDO
100
AcDbLine
 62
253
  6
CONTINUOUS
 10
62.2531631222
 20
-24.6711343969
 11
64.6269659648
 21
-24.6711343969
  0
LINE
  5
553
100
AcDbEntity
  8
DRAFT
100
AcDbLine
 62
7
  6
CONTINUOUS
 10
58.3900645435
 20
-24.6267968296
 11
49.5900645435
 21
-24.6267968296
  0
LINE
  5
554
100
AcDbEntity
  8
RACCORDO
100
AcDbLine
 62
253
  6
CONTINUOUS
 10
49.6938572298
 20
-24.6221357964
 11
58.2862718572
 21
-24.6221357964
  0
LINE
  5
555
100
AcDbEntity
  8
RACCORDO
100
AcDbLine
 62
253
  6
CONTINUOUS
 10
64.3769701956
 20
-24.4546280459
 11
62.5031588914
 21
-24.4546280459
  0
LINE
  5
556
100
AcDbEntity
  8
RACCORDO
100
AcDbLine
 62
253
  6
CONTINUOUS
 10
45.4769701956
 20
-24.4546280459
 11
43.6031588914
 21
-24.4546280459
  0
LINE
  5
557
100
AcDbEntity
  8
RACCORDO
100
AcDbLine
 62
253
  6
CONTINUOUS
 10
50.0929819201
 20
-24.422139181
 11
57.8871471669
 21
-24.422139181
  0
LINE
  5
558
100
AcDbEntity
  8
RACCORDO
100
AcDbLine
 62
7
  6
CONTINUOUS
 10
64.3827880254
 20
-23.9494465604
 11
62.4973410616
 21
-23.9494465604
  0
LINE
  5
559
100
AcDbEntity
  8
RACCORDO
100
AcDbLine
 62
7
  6
CONTINUOUS
 10
45.4827880254
 20
-23.9494465604
 11
43.5973410616
 21
-23.9494465604
  0
LWPOLYLINE
  5
55A
100
AcDbEntity
  8
RACCORDO
100
AcDbPolyline
 62
7
  6
CONTINUOUS
 90
22
 70
0
 10
58.2862718572
 20
-24.6221357964
 10
58.2754827338
 20
-24.6215883944
 10
58.2643952716
 20
-24.6201607245
 10
58.2530094707
 20
-24.6179333175
 10
58.2413006904
 20
-24.6149947261
 10
58.2292935715
 20
-24.6114207011
 10
58.2170620355
 20
-24.6072563428
 10
58.2046132953
 20
-24.6025611998
 10
58.1919401381
 20
-24.5973986393
 10
58.1790948479
 20
-24.5917921399
 10
58.1660817158
 20
-24.5857870615
 10
58.1528964507
 20
-24.5794333943
 10
58.1395784638
 20
-24.5727428878
 10
58.1261299768
 20
-24.5657511127
 10
58.1125487679
 20
-24.5584982217
 10
58.0988675831
 20
-24.5509905026
 10
58.0850874714
 20
-24.5432570175
 10
58.0712073837
 20
-24.5353307806
 10
58.0572569191
 20
-24.5272160196
 10
58.0432363185
 20
-24.5189373586
 10
58.0291453411
 20
-24.5105227888
 10
58.0150128636
 20
-24.5019765093
  0
LWPOLYLINE
  5
55B
100
AcDbEntity
  8
RACCORDO
100
AcDbPolyline
 62
7
  6
CONTINUOUS
 90
11
 70
0
 10
43.3400654044
 20
-23.2264880282
 10
43.3185761463
 20
-23.2252705693
 10
43.2971210974
 20
-23.2231241335
 10
43.2757406565
 20
-23.2200478547
 10
43.2544526321
 20
-23.2160377957
 10
43.2333210224
 20
-23.2110995196
 10
43.2124536468
 20
-23.2052579061
 10
43.1919048427
 20
-23.1985336353
 10
43.1716950507
 20
-23.1909388932
 10
43.1518770847
 20
-23.1824991872
 10
43.1340505558
 20
-23.1740221743
  0
LINE
  5
55C
100
AcDbEntity
  8
RACCORDO
100
AcDbLine
 62
253
  6
CONTINUOUS
 10
45.4900687743
 20
-25.3267968296
 11
45.4769701956
 21
-25.3136982508
  0
LINE
  5
55D
100
AcDbEntity
  8
RACCORDO
100
AcDbLine
 62
253
  6
CONTINUOUS
 10
45.7400645435
 20
-25.0768010603
 11
45.7269659648
 21
-25.0637024816
  0
LWPOLYLINE
  5
55E
100
AcDbEntity
  8
RACCORDO
100
AcDbPolyline
 62
253
  6
CONTINUOUS
 90
16
 70
0
 10
43.0073915044
 20
19.7151090269
 10
43.0083555103
 20
19.7160767216
 10
43.0104248677
 20
19.7170422726
 10
43.0135949921
 20
19.7180035408
 10
43.0178588609
 20
19.7189583968
 10
43.0232070283
 20
19.7199047251
 10
43.0296276463
 20
19.7208404295
 10
43.0371064913
 20
19.7217634371
 10
43.0456269954
 20
19.722671703
 10
43.0551702829
 20
19.7235632152
 10
43.0657152126
 20
19.7244359988
 10
43.0772384241
 20
19.7252881202
 10
43.0897143898
 20
19.7261176917
 10
43.1031154718
 20
19.7269228756
 10
43.1174119823
 20
19.7277018881
 10
43.1325722502
 20
19.7284530035
  0
LINE
  5
55F
100
AcDbEntity
  8
RACCORDO
100
AcDbLine
 62
253
  6
CONTINUOUS
 10
45.4900687743
 20
23.6732031704
 11
45.4769701956
 21
23.6601045917
  0
LINE
  5
560
100
AcDbEntity
  8
RACCORDO
100
AcDbLine
 62
253
  6
CONTINUOUS
 10
45.7400645435
 20
23.4232074012
 11
45.7269659648
 21
23.4101088225
  0
LINE
  5
561
100
AcDbEntity
  8
RACCORDO
100
AcDbLine
 62
253
  6
CONTINUOUS
 10
64.8475568079
 20
-21.38204666
 11
64.8147811784
 21
-21.3834586087
  0
LINE
  5
562
100
AcDbEntity
  8
RACCORDO
100
AcDbLine
 62
253
  6
CONTINUOUS
 10
64.8147811784
 20
-21.3834586087
 11
64.7789769704
 21
-21.384739874
  0
LINE
  5
563
100
AcDbEntity
  8
RACCORDO
100
AcDbLine
 62
253
  6
CONTINUOUS
 10
64.7789769704
 20
-21.384739874
 11
64.7404612778
 21
-21.3858791084
  0
LINE
  5
564
100
AcDbEntity
  8
RACCORDO
100
AcDbLine
 62
253
  6
CONTINUOUS
 10
64.7404612778
 20
-21.3858791084
 11
64.6995752087
 21
-21.3868662226
  0
LINE
  5
565
100
AcDbEntity
  8
RACCORDO
100
AcDbLine
 62
253
  6
CONTINUOUS
 10
64.6995752087
 20
-21.3868662226
 11
64.6566808639
 21
-21.3876924743
  0
LINE
  5
566
100
AcDbEntity
  8
RACCORDO
100
AcDbLine
 62
253
  6
CONTINUOUS
 10
64.6566808639
 20
-21.3876924743
 11
64.5894088698
 21
-21.3886146333
  0
LINE
  5
567
100
AcDbEntity
  8
RACCORDO
100
AcDbLine
 62
253
  6
CONTINUOUS
 10
64.5894088698
 20
-21.3886146333
 11
64.5198156575
 21
-21.3891403779
  0
LINE
  5
568
100
AcDbEntity
  8
DRAFT
100
AcDbLine
 62
7
  6
CONTINUOUS
 10
45.7400645435
 20
-23.2267968296
 11
49.5900645435
 21
-23.2267968296
  0
LINE
  5
569
100
AcDbEntity
  8
DRAFT
100
AcDbLine
 62
7
  6
CONTINUOUS
 10
58.3900645435
 20
-23.2267968296
 11
62.2400645435
 21
-23.2267968296
  0
LINE
  5
56A
100
AcDbEntity
  8
RACCORDO
100
AcDbLine
 62
7
  6
CONTINUOUS
 10
50.0929819201
 20
-23.1743890503
 11
57.8871471669
 21
-23.1743890503
  0
LINE
  5
56B
100
AcDbEntity
  8
RACCORDO
100
AcDbLine
 62
7
  6
CONTINUOUS
 10
64.3827880254
 20
-23.1481851606
 11
62.4973410616
 21
-23.1481851606
  0
LINE
  5
56C
100
AcDbEntity
  8
RACCORDO
100
AcDbLine
 62
7
  6
CONTINUOUS
 10
45.4827880254
 20
-23.1481851606
 11
43.5973410616
 21
-23.1481851606
  0
LINE
  5
56D
100
AcDbEntity
  8
RACCORDO
100
AcDbLine
 62
253
  6
CONTINUOUS
 10
64.4893405057
 20
-22.8255220515
 11
43.4907885813
 21
-22.8255220515
  0
LINE
  5
56E
100
AcDbEntity
  8
RACCORDO
100
AcDbLine
 62
253
  6
CONTINUOUS
 10
64.5198156575
 20
-21.3891403779
 11
43.507315352
 21
-21.3892651544
  0
LINE
  5
56F
100
AcDbEntity
  8
RACCORDO
100
AcDbLine
 62
253
  6
CONTINUOUS
 10
43.4369426322
 20
-21.3890099982
 11
43.507315352
 21
-21.3892651544
  0
LINE
  5
570
100
AcDbEntity
  8
RACCORDO
100
AcDbLine
 62
253
  6
CONTINUOUS
 10
43.3679709189
 20
-21.3883505564
 11
43.4369426322
 21
-21.3890099982
  0
LINE
  5
571
100
AcDbEntity
  8
RACCORDO
100
AcDbLine
 62
253
  6
CONTINUOUS
 10
43.323448174
 20
-21.3876924843
 11
43.3679709189
 21
-21.3883505564
  0
LINE
  5
572
100
AcDbEntity
  8
RACCORDO
100
AcDbLine
 62
253
  6
CONTINUOUS
 10
43.2805538194
 20
-21.386866232
 11
43.323448174
 21
-21.3876924843
  0
LINE
  5
573
100
AcDbEntity
  8
RACCORDO
100
AcDbLine
 62
253
  6
CONTINUOUS
 10
43.2396677424
 20
-21.3858791172
 11
43.2805538194
 21
-21.386866232
  0
LINE
  5
574
100
AcDbEntity
  8
RACCORDO
100
AcDbLine
 62
253
  6
CONTINUOUS
 10
43.2011520439
 20
-21.384739882
 11
43.2396677424
 21
-21.3858791172
  0
LINE
  5
575
100
AcDbEntity
  8
RACCORDO
100
AcDbLine
 62
253
  6
CONTINUOUS
 10
43.1653478321
 20
-21.3834586159
 11
43.2011520439
 21
-21.384739882
  0
LWPOLYLINE
  5
576
100
AcDbEntity
  8
RACCORDO
100
AcDbPolyline
 62
7
  6
CONTINUOUS
 90
13
 70
0
 10
64.5989798835
 20
-23.1547076682
 10
64.6042142254
 20
-23.1551619651
 10
64.6090342305
 20
-23.1556051853
 10
64.6134305242
 20
-23.156037329
 10
64.617394781
 20
-23.1564502984
 10
64.6209188859
 20
-23.1568521913
 10
64.6239952645
 20
-23.1572673002
 10
64.6266180476
 20
-23.1576991406
 10
64.6287822684
 20
-23.1581441972
 10
64.6304835208
 20
-23.1586162159
 10
64.6317187376
 20
-23.1591197788
 10
64.6324859108
 20
-23.1596503038
 10
64.6327837946
 20
-23.160207791
  0
LWPOLYLINE
  5
577
100
AcDbEntity
  8
RACCORDO
100
AcDbPolyline
 62
253
  6
CONTINUOUS
 90
17
 70
0
 10
43.0073915044
 20
-21.3687026861
 10
43.008355504
 20
-21.369670381
 10
43.0104248554
 20
-21.3706359321
 10
43.0135949744
 20
-21.3715972005
 10
43.0178588381
 20
-21.3725520567
 10
43.0232070009
 20
-21.3734983853
 10
43.0296276147
 20
-21.37443409
 10
43.037106456
 20
-21.3753570977
 10
43.0456269568
 20
-21.3762653639
 10
43.0551702415
 20
-21.3771568764
 10
43.0657151688
 20
-21.3780296603
 10
43.0772383784
 20
-21.3788817819
 10
43.0897143427
 20
-21.3797113537
 10
43.1031154236
 20
-21.3805165379
 10
43.1174119335
 20
-21.3812955507
 10
43.1325722013
 20
-21.3820466663
 10
43.1653478321
 20
-21.3834586159
  0
LINE
  5
578
100
AcDbEntity
  8
RACCORDO
100
AcDbLine
 62
7
  6
CONTINUOUS
 10
58.0150128636
 20
-24.5019765093
 11
57.9866227273
 21
-24.4845780307
  0
LINE
  5
579
100
AcDbEntity
  8
RACCORDO
100
AcDbLine
 62
7
  6
CONTINUOUS
 10
57.9866227273
 20
-24.4845780307
 11
57.9439033588
 21
-24.4579506757
  0
LINE
  5
57A
100
AcDbEntity
  8
RACCORDO
100
AcDbLine
 62
7
  6
CONTINUOUS
 10
57.9439033588
 20
-24.4579506757
 11
57.8871471669
 21
-24.422139181
  0
LINE
  5
57B
100
AcDbEntity
  8
RACCORDO
100
AcDbLine
 62
7
  6
CONTINUOUS
 10
57.958155134
 20
22.8132789121
 11
57.8871471669
 21
22.7685455219
  0
LINE
  5
57C
100
AcDbEntity
  8
RACCORDO
100
AcDbLine
 62
7
  6
CONTINUOUS
 10
58.3871387053
 20
-24.6238709914
 11
58.3900645435
 21
-24.6267968296
  0
LWPOLYLINE
  5
57D
100
AcDbEntity
  8
RACCORDO
100
AcDbPolyline
 62
253
  6
CONTINUOUS
 90
34
 70
0
 10
42.9908647338
 20
-22.3262072842
 10
42.9914520339
 20
-22.3499518374
 10
42.9931691766
 20
-22.3736426646
 10
42.9960122766
 20
-22.3972261606
 10
42.9999749008
 20
-22.4206489635
 10
43.0050480831
 20
-22.4438580746
 10
43.0112203446
 20
-22.4668009791
 10
43.0184777193
 20
-22.4894257643
 10
43.0268037862
 20
-22.5116812374
 10
43.0361797061
 20
-22.5335170412
 10
43.0465842641
 20
-22.554883768
 10
43.0579939182
 20
-22.5757330716
 10
43.0703828517
 20
-22.5960177765
 10
43.0837230325
 20
-22.6156919846
 10
43.097984276
 20
-22.6347111794
 10
43.1131343135
 20
-22.6530323264
 10
43.1291388651
 20
-22.6706139703
 10
43.1459617175
 20
-22.6874163295
 10
43.163564806
 20
-22.7034013853
 10
43.1819083002
 20
-22.7185329685
 10
43.2009506946
 20
-22.7327768411
 10
43.2206489021
 20
-22.7461007734
 10
43.2409583519
 20
-22.7584746177
 10
43.26183309
 20
-22.7698703756
 10
43.2832258833
 20
-22.7802622621
 10
43.3050883266
 20
-22.7896267635
 10
43.327370952
 20
-22.7979426908
 10
43.3500233408
 20
-22.8051912277
 10
43.3729942377
 20
-22.8113559729
 10
43.3962316667
 20
-22.8164229776
 10
43.4196830487
 20
-22.8203807766
 10
43.4432953205
 20
-22.8232204146
 10
43.4670150548
 20
-22.8249354665
 10
43.4907885813
 20
-22.8255220515
  0
LWPOLYLINE
  5
57E
100
AcDbEntity
  8
RACCORDO
100
AcDbPolyline
 62
7
  6
CONTINUOUS
 90
27
 70
0
 10
42.8574814459
 20
21.073088899
 10
42.8579136817
 20
21.0936908133
 10
42.8591969608
 20
21.1142950323
 10
42.8613337368
 20
21.1348661721
 10
42.8643244794
 20
21.1553654344
 10
42.8681689201
 20
21.1757601729
 10
42.872867341
 20
21.1960237102
 10
42.8784152637
 20
21.216112707
 10
42.8848102331
 20
21.2359978518
 10
42.8920581502
 20
21.2556719227
 10
42.9001566962
 20
21.2750995349
 10
42.909099763
 20
21.2942398076
 10
42.9188913796
 20
21.3130745138
 10
42.9295346963
 20
21.33157921
 10
42.9410136215
 20
21.3496975569
 10
42.9532997119
 20
21.3673640829
 10
42.9663831761
 20
21.3845478046
 10
42.9802420079
 20
21.4012038294
 10
42.9948175808
 20
21.4172532871
 10
43.0100868555
 20
21.4326679057
 10
43.0260194635
 20
21.4474142474
 10
43.0425317452
 20
21.4614188635
 10
43.0595603272
 20
21.4746407324
 10
43.0770947285
 20
21.4870839643
 10
43.0951259537
 20
21.4987487215
 10
43.1136066428
 20
21.5096092941
 10
43.1340505558
 20
21.5204285152
  0
LINE
  5
57F
100
AcDbEntity
  8
RACCORDO
100
AcDbLine
 62
7
  6
CONTINUOUS
 10
58.3871387053
 20
22.9702773322
 11
58.3900645435
 21
22.9732031704
  0
LWPOLYLINE
  5
580
100
AcDbEntity
  8
RACCORDO
100
AcDbPolyline
 62
253
  6
CONTINUOUS
 90
10
 70
0
 10
42.99624524
 20
20.6067104503
 10
42.9956689667
 20
20.6188083626
 10
42.9950849073
 20
20.6297532396
 10
42.9944952402
 20
20.639504349
 10
42.9938999176
 20
20.6480572536
 10
42.9932989872
 20
20.6554163905
 10
42.9926947715
 20
20.6615543382
 10
42.9920880444
 20
20.6664619563
 10
42.9914780318
 20
20.6701483852
 10
42.9908647338
 20
20.672613625
  0
LWPOLYLINE
  5
581
100
AcDbEntity
  8
RACCORDO
100
AcDbPolyline
 62
253
  6
CONTINUOUS
 90
8
 70
0
 10
43.4950094958
 20
21.1076145435
 10
43.4944198734
 20
21.1222456489
 10
43.4938246472
 20
21.1350845667
 10
43.4932238186
 20
21.1461158389
 10
43.4926195786
 20
21.15532624
 10
43.4920126576
 20
21.1627043292
 10
43.4914023251
 20
21.1682407082
 10
43.4907885813
 20
21.1719283924
  0
LINE
  5
582
100
AcDbEntity
  8
RACCORDO
100
AcDbLine
 62
253
  6
CONTINUOUS
 10
42.9973743568
 20
20.5790471368
 11
42.99624524
 21
20.6067104503
  0
LWPOLYLINE
  5
583
100
AcDbEntity
  8
RACCORDO
100
AcDbPolyline
 62
253
  6
CONTINUOUS
 90
31
 70
0
 10
43.3531631222
 20
23.0175407377
 10
43.3535416778
 20
23.0062427655
 10
43.3546008054
 20
22.9949724614
 10
43.3563381819
 20
22.9837605916
 10
43.3587498833
 20
22.9726367825
 10
43.3618297536
 20
22.9616325304
 10
43.3655688046
 20
22.9507809906
 10
43.369956349
 20
22.9401128676
 10
43.374980748
 20
22.9296561943
 10
43.3806284286
 20
22.9194392755
 10
43.3868841212
 20
22.9094898704
 10
43.3937306958
 20
22.8998353458
 10
43.401149304
 20
22.8905023224
 10
43.4091196081
 20
22.8815163722
 10
43.4176199029
 20
22.872901953
 10
43.4266269934
 20
22.8646825746
 10
43.436116297
 20
22.856880678
 10
43.4460618841
 20
22.8495175897
 10
43.456436567
 20
22.8426134409
 10
43.4672119994
 20
22.8361870943
 10
43.4783587574
 20
22.8302560973
 10
43.4898463945
 20
22.82483665
 10
43.5016435512
 20
22.819943548
 10
43.5137179876
 20
22.8155901649
 10
43.5260366672
 20
22.8117884076
 10
43.5385659026
 20
22.8085486611
 10
43.5512715054
 20
22.8058797547
 10
43.5641188262
 20
22.8037889622
 10
43.5770727935
 20
22.8022819923
 10
43.5900980073
 20
22.8013629639
 10
43.6031588914
 20
22.8010343868
  0
LINE
  5
584
100
AcDbEntity
  8
RACCORDO
100
AcDbLine
 62
253
  6
CONTINUOUS
 10
42.9984660783
 20
20.5469275286
 11
42.9973743568
 21
20.5790471368
  0
LINE
  5
585
100
AcDbEntity
  8
RACCORDO
100
AcDbLine
 62
253
  6
CONTINUOUS
 10
43.4961697468
 20
21.0730512913
 11
43.4950094958
 21
21.1076145435
  0
LWPOLYLINE
  5
586
100
AcDbEntity
  8
RACCORDO
100
AcDbPolyline
 62
253
  6
CONTINUOUS
 90
31
 70
0
 10
43.3531631222
 20
-25.0637024816
 10
43.3535061608
 20
-25.0767859676
 10
43.3545334507
 20
-25.0898335942
 10
43.3562421762
 20
-25.1028096004
 10
43.3586276542
 20
-25.1156784212
 10
43.3616833464
 20
-25.1284047858
 10
43.3654008778
 20
-25.1409538134
 10
43.3697700593
 20
-25.1532911097
 10
43.3747789158
 20
-25.1653828603
 10
43.3804137189
 20
-25.1771959242
 10
43.3866590248
 20
-25.1886979237
 10
43.3934977163
 20
-25.1998573342
 10
43.4009110496
 20
-25.2106435698
 10
43.4088787064
 20
-25.2210270675
 10
43.4173788487
 20
-25.2309793679
 10
43.4263881792
 20
-25.2404731938
 10
43.4358820051
 20
-25.2494825244
 10
43.4458343056
 20
-25.2579826667
 10
43.4562178032
 20
-25.2659503234
 10
43.4670040388
 20
-25.2733636568
 10
43.4781634493
 20
-25.2802023482
 10
43.4896654489
 20
-25.2864476541
 10
43.5014785127
 20
-25.2920824573
 10
43.5135702634
 20
-25.2970913138
 10
43.5259075596
 20
-25.3014604953
 10
43.5384565873
 20
-25.3051780267
 10
43.5511829519
 20
-25.3082337189
 10
43.5640517727
 20
-25.3106191968
 10
43.5770277788
 20
-25.3123279224
 10
43.5900754054
 20
-25.3133552123
 10
43.6031588914
 20
-25.3136982508
  0
LINE
  5
587
100
AcDbEntity
  8
RACCORDO
100
AcDbLine
 62
253
  6
CONTINUOUS
 10
43.497298763
 20
21.0315678586
 11
43.4961697468
 21
21.0730512913
  0
LINE
  5
588
100
AcDbEntity
  8
RACCORDO
100
AcDbLine
 62
253
  6
CONTINUOUS
 10
43.0000237335
 20
20.4906867443
 11
42.9984660783
 21
20.5469275286
  0
LWPOLYLINE
  5
589
100
AcDbEntity
  8
RACCORDO
100
AcDbPolyline
 62
7
  6
CONTINUOUS
 90
34
 70
0
 10
43.3400645435
 20
-25.0768010603
 10
43.3403476937
 20
-25.0886963456
 10
43.3411965093
 20
-25.1005646851
 10
43.3426090694
 20
-25.1123791957
 10
43.3445821758
 20
-25.124113117
 10
43.3471113618
 20
-25.1357398684
 10
43.3501909018
 20
-25.1472331086
 10
43.3538138222
 20
-25.1585668033
 10
43.3579719177
 20
-25.1697152789
 10
43.3626557713
 20
-25.1806532759
 10
43.3678547747
 20
-25.1913560172
 10
43.3735571519
 20
-25.2017992578
 10
43.3797499854
 20
-25.2119593355
 10
43.386419248
 20
-25.2218132347
 10
43.3935498328
 20
-25.2313386334
 10
43.4011255846
 20
-25.2405139486
 10
43.409129343
 20
-25.2493183956
 10
43.4175429774
 20
-25.25773203
 10
43.4263474244
 20
-25.2657357884
 10
43.4355227397
 20
-25.2733115403
 10
43.4450481384
 20
-25.280442125
 10
43.4549020376
 20
-25.2871113877
 10
43.4650621152
 20
-25.2933042212
 10
43.4755053559
 20
-25.2990065984
 10
43.4862080972
 20
-25.3042056017
 10
43.4971460942
 20
-25.3088894553
 10
43.5082945697
 20
-25.3130475509
 10
43.5196282645
 20
-25.3166704713
 10
43.5311215047
 20
-25.3197500113
 10
43.542748256
 20
-25.3222791973
 10
43.5544821774
 20
-25.3242523037
 10
43.5662966879
 20
-25.3256648638
 10
43.5781650275
 20
-25.3265136793
 10
43.5900603127
 20
-25.3267968296
  0
LINE
  5
58A
100
AcDbEntity
  8
RACCORDO
100
AcDbLine
 62
253
  6
CONTINUOUS
 10
43.0014693212
 20
20.4253587547
 11
43.0000237335
 21
20.4906867443
  0
LINE
  5
58B
100
AcDbEntity
  8
RACCORDO
100
AcDbLine
 62
253
  6
CONTINUOUS
 10
43.4989213963
 20
20.9568240931
 11
43.497298763
 21
21.0315678586
  0
LINE
  5
58C
100
AcDbEntity
  8
RACCORDO
100
AcDbLine
 62
253
  6
CONTINUOUS
 10
43.0031951464
 20
20.3253685456
 11
43.0014693212
 21
20.4253587547
  0
LINE
  5
58D
100
AcDbEntity
  8
RACCORDO
100
AcDbLine
 62
253
  6
CONTINUOUS
 10
43.5009252374
 20
20.8351319953
 11
43.4989213963
 21
20.9568240931
  0
LINE
  5
58E
100
AcDbEntity
  8
RACCORDO
100
AcDbLine
 62
253
  6
CONTINUOUS
 10
43.0049800494
 20
20.1825814336
 11
43.0031951464
 21
20.3253685456
  0
LINE
  5
58F
100
AcDbEntity
  8
RACCORDO
100
AcDbLine
 62
253
  6
CONTINUOUS
 10
43.3531631222
 20
-24.6711343969
 11
43.3473452924
 21
-24.0937841277
  0
LINE
  5
590
100
AcDbEntity
  8
RACCORDO
100
AcDbLine
 62
253
  6
CONTINUOUS
 10
43.6031588914
 20
-24.4546280459
 11
43.5980682903
 21
-23.9494465604
  0
LINE
  5
591
100
AcDbEntity
  8
RACCORDO
100
AcDbLine
 62
253
  6
CONTINUOUS
 10
43.5035105546
 20
20.6104478627
 11
43.5009252374
 21
20.8351319953
  0
LINE
  5
592
100
AcDbEntity
  8
RACCORDO
100
AcDbLine
 62
253
  6
CONTINUOUS
 10
43.0065063358
 20
19.9909251519
 11
43.0049800494
 21
20.1825814336
  0
LINE
  5
593
100
AcDbEntity
  8
RACCORDO
100
AcDbLine
 62
253
  6
CONTINUOUS
 10
43.5060004036
 20
20.2482354368
 11
43.5035105546
 21
20.6104478627
  0
LINE
  5
594
100
AcDbEntity
  8
RACCORDO
100
AcDbLine
 62
253
  6
CONTINUOUS
 10
43.0073553493
 20
19.7502740575
 11
43.0065063358
 21
19.9909251519
  0
LINE
  5
595
100
AcDbEntity
  8
RACCORDO
100
AcDbLine
 62
253
  6
CONTINUOUS
 10
43.507315352
 20
19.7356714953
 11
43.5060004036
 21
20.2482354368
  0
LINE
  5
596
100
AcDbEntity
  8
RACCORDO
100
AcDbLine
 62
253
  6
CONTINUOUS
 10
43.0099335869
 20
15.8039421611
 11
43.0073553493
 21
19.7502740575
  0
LINE
  5
597
100
AcDbEntity
  8
RACCORDO
100
AcDbLine
 62
253
  6
CONTINUOUS
 10
43.5098574348
 20
15.8206290381
 11
43.507315352
 21
19.7356714953
  0
LINE
  5
598
100
AcDbEntity
  8
RACCORDO
100
AcDbLine
 62
253
  6
CONTINUOUS
 10
43.0139478449
 20
6.0222320657
 11
43.0099335869
 21
15.8039421611
  0
LINE
  5
599
100
AcDbEntity
  8
RACCORDO
100
AcDbLine
 62
253
  6
CONTINUOUS
 10
43.5138716925
 20
6.0290777261
 11
43.5098574348
 21
15.8206290381
  0
LINE
  5
59A
100
AcDbEntity
  8
ASSI
100
AcDbLine
 62
7
  6
CONTINUOUS
 10
42.8400645435
 20
-18.4984958783
 11
42.8400645435
 21
16.8449022192
  0
LINE
  5
59B
100
AcDbEntity
  8
RACCORDO
100
AcDbLine
 62
7
  6
CONTINUOUS
 10
42.8400645435
 20
-22.7179747702
 11
42.8400645435
 21
21.064381111
  0
LINE
  5
59C
100
AcDbEntity
  8
RACCORDO
100
AcDbLine
 62
7
  6
CONTINUOUS
 10
43.3400645435
 20
-23.2264867975
 11
43.3400645435
 21
-25.0768010603
  0
LINE
  5
59D
100
AcDbEntity
  8
RACCORDO
100
AcDbLine
 62
7
  6
CONTINUOUS
 10
43.3400645435
 20
21.5728931384
 11
43.3400645435
 21
23.4232074012
  0
LINE
  5
59E
100
AcDbEntity
  8
RACCORDO
100
AcDbLine
 62
253
  6
CONTINUOUS
 10
43.3473452924
 20
22.4401904685
 11
43.3473452924
 21
21.5066141318
  0
LINE
  5
59F
100
AcDbEntity
  8
RACCORDO
100
AcDbLine
 62
253
  6
CONTINUOUS
 10
43.3473452924
 20
-23.160207791
 11
43.3473452924
 21
-24.0937841277
  0
LINE
  5
5A0
100
AcDbEntity
  8
RACCORDO
100
AcDbLine
 62
253
  6
CONTINUOUS
 10
43.3531631222
 20
23.4101088225
 11
43.3531631222
 21
23.0175407377
  0
LINE
  5
5A1
100
AcDbEntity
  8
RACCORDO
100
AcDbLine
 62
253
  6
CONTINUOUS
 10
43.3531631222
 20
-24.6711343969
 11
43.3531631222
 21
-25.0637024816
  0
LINE
  5
5A2
100
AcDbEntity
  8
RACCORDO
100
AcDbLine
 62
253
  6
CONTINUOUS
 10
43.5973410616
 20
22.2958529012
 11
43.5973410616
 21
21.4945915015
  0
LINE
  5
5A3
100
AcDbEntity
  8
RACCORDO
100
AcDbLine
 62
253
  6
CONTINUOUS
 10
43.5973410616
 20
-23.1481851606
 11
43.5973410616
 21
-23.9494465604
  0
LINE
  5
5A4
100
AcDbEntity
  8
RACCORDO
100
AcDbLine
 62
253
  6
CONTINUOUS
 10
43.6031588914
 20
-24.4546280459
 11
43.6031588914
 21
-25.3136982508
  0
LINE
  5
5A5
100
AcDbEntity
  8
RACCORDO
100
AcDbLine
 62
253
  6
CONTINUOUS
 10
43.6031588914
 20
22.8010343868
 11
43.6031588914
 21
23.6601045917
  0
LINE
  5
5A6
100
AcDbEntity
  8
RACCORDO
100
AcDbLine
 62
253
  6
CONTINUOUS
 10
43.0143493113
 20
-5.7190186215
 11
43.0139478449
 21
6.0222320657
  0
LINE
  5
5A7
100
AcDbEntity
  8
RACCORDO
100
AcDbLine
 62
253
  6
CONTINUOUS
 10
43.514273159
 20
-5.7239252369
 11
43.5138716925
 21
6.0290777261
  0
LINE
  5
5A8
100
AcDbEntity
  8
RACCORDO
100
AcDbLine
 62
253
  6
CONTINUOUS
 10
43.0127435008
 20
-11.5890358804
 11
43.0143493113
 21
-5.7190186215
  0
LINE
  5
5A9
100
AcDbEntity
  8
RACCORDO
100
AcDbLine
 62
253
  6
CONTINUOUS
 10
43.5126673487
 20
-11.5998179684
 11
43.514273159
 21
-5.7239252369
  0
LINE
  5
5AA
100
AcDbEntity
  8
RACCORDO
100
AcDbLine
 62
253
  6
CONTINUOUS
 10
43.0110039811
 20
-15.5016148342
 11
43.0127435008
 21
-11.5890358804
  0
LINE
  5
5AB
100
AcDbEntity
  8
RACCORDO
100
AcDbLine
 62
253
  6
CONTINUOUS
 10
43.5109278292
 20
-15.5163032064
 11
43.5126673487
 21
-11.5998179684
  0
LINE
  5
5AC
100
AcDbEntity
  8
RACCORDO
100
AcDbLine
 62
253
  6
CONTINUOUS
 10
43.0087294278
 20
-19.4132321144
 11
43.0110039811
 21
-15.5016148342
  0
LINE
  5
5AD
100
AcDbEntity
  8
RACCORDO
100
AcDbLine
 62
253
  6
CONTINUOUS
 10
43.5086532757
 20
-19.4318866957
 11
43.5109278292
 21
-15.5163032064
  0
LINE
  5
5AE
100
AcDbEntity
  8
RACCORDO
100
AcDbLine
 62
253
  6
CONTINUOUS
 10
43.5060004085
 20
-21.9018286511
 11
43.5086532757
 21
-19.4318866957
  0
LINE
  5
5AF
100
AcDbEntity
  8
RACCORDO
100
AcDbLine
 62
253
  6
CONTINUOUS
 10
43.0066908783
 20
-21.6109238084
 11
43.0087294278
 21
-19.4132321144
  0
LINE
  5
5B0
100
AcDbEntity
  8
RACCORDO
100
AcDbLine
 62
253
  6
CONTINUOUS
 10
43.0052833525
 20
-21.8055393901
 11
43.0066908783
 21
-21.6109238084
  0
LINE
  5
5B1
100
AcDbEntity
  8
RACCORDO
100
AcDbLine
 62
253
  6
CONTINUOUS
 10
43.5035105643
 20
-22.2640411801
 11
43.5060004085
 21
-21.9018286511
  0
LINE
  5
5B2
100
AcDbEntity
  8
RACCORDO
100
AcDbLine
 62
253
  6
CONTINUOUS
 10
43.3473452924
 20
22.4401904685
 11
43.3531631222
 21
23.0175407377
  0
LINE
  5
5B3
100
AcDbEntity
  8
RACCORDO
100
AcDbLine
 62
253
  6
CONTINUOUS
 10
43.5980682903
 20
22.2958529012
 11
43.6031588914
 21
22.8010343868
  0
LINE
  5
5B4
100
AcDbEntity
  8
RACCORDO
100
AcDbLine
 62
253
  6
CONTINUOUS
 10
43.0035869053
 20
-21.9518727461
 11
43.0052833525
 21
-21.8055393901
  0
LINE
  5
5B5
100
AcDbEntity
  8
RACCORDO
100
AcDbLine
 62
253
  6
CONTINUOUS
 10
43.5009252499
 20
-22.4887253749
 11
43.5035105643
 21
-22.2640411801
  0
LINE
  5
5B6
100
AcDbEntity
  8
RACCORDO
100
AcDbLine
 62
253
  6
CONTINUOUS
 10
43.0019240659
 20
-22.0552471452
 11
43.0035869053
 21
-21.9518727461
  0
LINE
  5
5B7
100
AcDbEntity
  8
RACCORDO
100
AcDbLine
 62
253
  6
CONTINUOUS
 10
43.4989214094
 20
-22.610417503
 11
43.5009252499
 21
-22.4887253749
  0
LINE
  5
5B8
100
AcDbEntity
  8
RACCORDO
100
AcDbLine
 62
253
  6
CONTINUOUS
 10
43.0005195349
 20
-22.1234512235
 11
43.0019240659
 21
-22.0552471452
  0
LINE
  5
5B9
100
AcDbEntity
  8
RACCORDO
100
AcDbLine
 62
253
  6
CONTINUOUS
 10
43.4972987763
 20
-22.685161297
 11
43.4989214094
 21
-22.610417503
  0
LWPOLYLINE
  5
5BA
100
AcDbEntity
  8
RACCORDO
100
AcDbPolyline
 62
253
  6
CONTINUOUS
 90
34
 70
0
 10
42.9908647338
 20
20.672613625
 10
42.9914520342
 20
20.6963581836
 10
42.9931691776
 20
20.7200490155
 10
42.9960122787
 20
20.743632516
 10
42.9999749044
 20
20.7670553229
 10
43.0050480885
 20
20.7902644376
 10
43.011220352
 20
20.8132073452
 10
43.018477729
 20
20.835832133
 10
43.0268037982
 20
20.8580876082
 10
43.0361797205
 20
20.8799234136
 10
43.0465842809
 20
20.9012901414
 10
43.0579939373
 20
20.9221394456
 10
43.0703828731
 20
20.9424241506
 10
43.0837230561
 20
20.9620983585
 10
43.0979843015
 20
20.9811175526
 10
43.1131343405
 20
20.9994386985
 10
43.1291388935
 20
21.017020341
 10
43.145961747
 20
21.0338226984
 10
43.1635648362
 20
21.0498077523
 10
43.1819083308
 20
21.0649393334
 10
43.2009507251
 20
21.0791832037
 10
43.2206489322
 20
21.0925071336
 10
43.2409583811
 20
21.1048809754
 10
43.261833118
 20
21.1162767309
 10
43.2832259097
 20
21.126668615
 10
43.305088351
 20
21.1360331142
 10
43.3273709742
 20
21.1443490394
 10
43.3500233604
 20
21.1515975744
 10
43.3729942545
 20
21.1577623179
 10
43.3962316805
 20
21.1628293211
 10
43.4196830592
 20
21.166787119
 10
43.4432953276
 20
21.1696267562
 10
43.4670150584
 20
21.1713418075
 10
43.4907885813
 20
21.1719283924
  0
LINE
  5
5BB
100
AcDbEntity
  8
RACCORDO
100
AcDbLine
 62
253
  6
CONTINUOUS
 10
42.9989974011
 20
-22.1828005186
 11
43.0005195349
 21
-22.1234512235
  0
LINE
  5
5BC
100
AcDbEntity
  8
RACCORDO
100
AcDbLine
 62
253
  6
CONTINUOUS
 10
43.49616976
 20
-22.7266447747
 11
43.4972987763
 21
-22.685161297
  0
LINE
  5
5BD
100
AcDbEntity
  8
RACCORDO
100
AcDbLine
 62
253
  6
CONTINUOUS
 10
42.9979254342
 20
-22.2171249728
 11
42.9989974011
 21
-22.1828005186
  0
LWPOLYLINE
  5
5BE
100
AcDbEntity
  8
RACCORDO
100
AcDbPolyline
 62
253
  6
CONTINUOUS
 90
31
 70
0
 10
43.3531631222
 20
-24.6711343969
 10
43.3535424539
 20
-24.6598242463
 10
43.3546034359
 20
-24.6485449815
 10
43.3563431708
 20
-24.6373274036
 10
43.3587569077
 20
-24.6262021455
 10
43.3618380553
 20
-24.615199588
 10
43.3655781995
 20
-24.6043497767
 10
43.3699671269
 20
-24.5936823403
 10
43.3749928522
 20
-24.5832264092
 10
43.3806416512
 20
-24.5730105364
 10
43.3868980982
 20
-24.5630626194
 10
43.3937451081
 20
-24.5534098237
 10
43.4011639832
 20
-24.5440785092
 10
43.4091344641
 20
-24.5350941578
 10
43.4176347852
 20
-24.5264813037
 10
43.4266417337
 20
-24.518263467
 10
43.4361307136
 20
-24.5104630888
 10
43.4460758125
 20
-24.5031014702
 10
43.4564498724
 20
-24.4961987144
 10
43.4672245639
 20
-24.4897736714
 10
43.4783704636
 20
-24.4838438865
 10
43.4898571344
 20
-24.4784255528
 10
43.5016532086
 20
-24.4735334666
 10
43.5137264735
 20
-24.4691809872
 10
43.5260439597
 20
-24.4653800002
 10
43.5385720306
 20
-24.4621408855
 10
43.5512764746
 20
-24.4594724882
 10
43.5641225987
 20
-24.4573820953
 10
43.5770753228
 20
-24.4558754153
 10
43.5900992756
 20
-24.4549565624
 10
43.6031588914
 20
-24.4546280459
  0
LINE
  5
5BF
100
AcDbEntity
  8
RACCORDO
100
AcDbLine
 62
7
  6
CONTINUOUS
 10
45.7400645435
 20
21.5732031704
 11
45.7327837946
 21
21.5076172227
  0
LINE
  5
5C0
100
AcDbEntity
  8
RACCORDO
100
AcDbLine
 62
253
  6
CONTINUOUS
 10
64.3900687743
 20
-25.3267968296
 11
64.3769701956
 21
-25.3136982508
  0
LINE
  5
5C1
100
AcDbEntity
  8
RACCORDO
100
AcDbLine
 62
253
  6
CONTINUOUS
 10
64.6400645435
 20
-25.0768010603
 11
64.6269659648
 21
-25.0637024816
  0
LINE
  5
5C2
100
AcDbEntity
  8
RACCORDO
100
AcDbLine
 62
7
  6
CONTINUOUS
 10
45.7400645435
 20
-23.2267968296
 11
45.7327837946
 21
-23.1612108819
  0
LINE
  5
5C3
100
AcDbEntity
  8
RACCORDO
100
AcDbLine
 62
7
  6
CONTINUOUS
 10
43.3400645435
 20
21.5729112476
 11
43.3473452924
 21
21.5066141318
  0
LWPOLYLINE
  5
5C4
100
AcDbEntity
  8
RACCORDO
100
AcDbPolyline
 62
7
  6
CONTINUOUS
 90
34
 70
0
 10
45.7327837946
 20
-24.0937841277
 10
45.7324860683
 20
-24.0875425486
 10
45.7317148168
 20
-24.0812694375
 10
45.7304644541
 20
-24.0749830215
 10
45.7287304068
 20
-24.0687089894
 10
45.7265089641
 20
-24.0624594511
 10
45.7237969441
 20
-24.0562329671
 10
45.7205924472
 20
-24.0500500297
 10
45.7168945227
 20
-24.0439303995
 10
45.7127022717
 20
-24.037872243
 10
45.7080167875
 20
-24.0318970662
 10
45.7028401456
 20
-24.0260256586
 10
45.6971737748
 20
-24.0202558367
 10
45.6910219909
 20
-24.0146098557
 10
45.6843902085
 20
-24.0091093626
 10
45.6772824057
 20
-24.0037520269
 10
45.6697064102
 20
-23.9985605745
 10
45.6616713282
 20
-23.9935572658
 10
45.6531841026
 20
-23.9887398517
 10
45.6442563931
 20
-23.9841311583
 10
45.6349014144
 20
-23.9797537495
 10
45.6251297398
 20
-23.9756057016
 10
45.6149572286
 20
-23.9717094426
 10
45.6044016415
 20
-23.9680873998
 10
45.5934780407
 20
-23.9647381636
 10
45.5822069832
 20
-23.9616831305
 10
45.5706110587
 20
-23.9589439242
 10
45.5587103609
 20
-23.9565196428
 10
45.5465435332
 20
-23.9544328421
 10
45.5341254783
 20
-23.9526993831
 10
45.5214414842
 20
-23.9513132621
 10
45.5085067736
 20
-23.9502901801
 10
45.4953682721
 20
-23.9496609903
 10
45.4820607967
 20
-23.9494465604
  0
LWPOLYLINE
  5
5C5
100
AcDbEntity
  8
RACCORDO
100
AcDbPolyline
 62
253
  6
CONTINUOUS
 90
31
 70
0
 10
45.7269659648
 20
-24.6711343969
 10
45.7265866331
 20
-24.6598242463
 10
45.7255256511
 20
-24.6485449815
 10
45.7237859162
 20
-24.6373274036
 10
45.7213721793
 20
-24.6262021455
 10
45.7182910317
 20
-24.615199588
 10
45.7145508875
 20
-24.6043497767
 10
45.7101619601
 20
-24.5936823403
 10
45.7051362348
 20
-24.5832264092
 10
45.6994874358
 20
-24.5730105364
 10
45.6932309888
 20
-24.5630626194
 10
45.6863839789
 20
-24.5534098237
 10
45.6789651038
 20
-24.5440785092
 10
45.6709946229
 20
-24.5350941578
 10
45.6624943018
 20
-24.5264813037
 10
45.6534873533
 20
-24.518263467
 10
45.6439983734
 20
-24.5104630888
 10
45.6340532745
 20
-24.5031014702
 10
45.6236792146
 20
-24.4961987144
 10
45.6129045231
 20
-24.4897736714
 10
45.6017586234
 20
-24.4838438865
 10
45.5902719526
 20
-24.4784255528
 10
45.5784758784
 20
-24.4735334666
 10
45.5664026135
 20
-24.4691809872
 10
45.5540851273
 20
-24.4653800002
 10
45.5415570565
 20
-24.4621408855
 10
45.5288526124
 20
-24.4594724882
 10
45.5160064883
 20
-24.4573820953
 10
45.5030537642
 20
-24.4558754153
 10
45.4900298114
 20
-24.4549565624
 10
45.4769701956
 20
-24.4546280459
  0
LWPOLYLINE
  5
5C6
100
AcDbEntity
  8
RACCORDO
100
AcDbPolyline
 62
253
  6
CONTINUOUS
 90
31
 70
0
 10
45.7269659648
 20
23.4101088225
 10
45.7266245576
 20
23.4231611625
 10
45.725601295
 20
23.4361860568
 10
45.7238976907
 20
23.4491478314
 10
45.7215165606
 20
23.4620135502
 10
45.7184634472
 20
23.4747450154
 10
45.7147480075
 20
23.4872992
 10
45.7103814564
 20
23.4996390039
 10
45.7053750265
 20
23.51173336
 10
45.6997422779
 20
23.5235494383
 10
45.6934984762
 20
23.5350550387
 10
45.6866607944
 20
23.5462183571
 10
45.6792481644
 20
23.5570084363
 10
45.6712810221
 20
23.5673955621
 10
45.6627811252
 20
23.5773513993
 10
45.6537717034
 20
23.5868487338
 10
45.6442774102
 20
23.5958615529
 10
45.6343243068
 20
23.6043650944
 10
45.6239397175
 20
23.6123360026
 10
45.6131521272
 20
23.6197524094
 10
45.6019911012
 20
23.6265939852
 10
45.5904872454
 20
23.6328419644
 10
45.5786720998
 20
23.6384792127
 10
45.5665780626
 20
23.6434902681
 10
45.5542383065
 20
23.6478613832
 10
45.541686659
 20
23.6515805727
 10
45.5289575451
 20
23.6546376339
 10
45.5160859055
 20
23.6570241766
 10
45.503107048
 20
23.6587336597
 10
45.4900565497
 20
23.6597614027
 10
45.4769701956
 20
23.6601045917
  0
LWPOLYLINE
  5
5C7
100
AcDbEntity
  8
RACCORDO
100
AcDbPolyline
 62
7
  6
CONTINUOUS
 90
34
 70
0
 10
45.7400645435
 20
23.4232074012
 10
45.7397813933
 20
23.4351026865
 10
45.7389325777
 20
23.446971026
 10
45.7375200177
 20
23.4587855366
 10
45.7355469112
 20
23.4705194579
 10
45.7330177252
 20
23.4821462092
 10
45.7299381852
 20
23.4936394494
 10
45.7263152648
 20
23.5049731442
 10
45.7221571693
 20
23.5161216197
 10
45.7174733157
 20
23.5270596167
 10
45.7122743123
 20
23.537762358
 10
45.7065719351
 20
23.5482055987
 10
45.7003791016
 20
23.5583656763
 10
45.693709839
 20
23.5682195756
 10
45.6865792542
 20
23.5777449743
 10
45.6790035024
 20
23.5869202895
 10
45.670999744
 20
23.5957247365
 10
45.6625861096
 20
23.6041383709
 10
45.6537816626
 20
23.6121421293
 10
45.6446063473
 20
23.6197178811
 10
45.6350809486
 20
23.6268484659
 10
45.6252270494
 20
23.6335177286
 10
45.6150669718
 20
23.6397105621
 10
45.6046237311
 20
23.6454129393
 10
45.5939209898
 20
23.6506119426
 10
45.5829829928
 20
23.6552957962
 10
45.5718345173
 20
23.6594538918
 10
45.5605008225
 20
23.6630768121
 10
45.5490075823
 20
23.6661563522
 10
45.537380831
 20
23.6686855382
 10
45.5256469096
 20
23.6706586446
 10
45.5138323991
 20
23.6720712047
 10
45.5019640595
 20
23.6729200202
 10
45.4900687743
 20
23.6732031704
  0
LINE
  5
5C8
100
AcDbEntity
  8
RACCORDO
100
AcDbLine
 62
253
  6
CONTINUOUS
 10
45.4769701956
 20
22.8010343868
 11
45.4820607967
 21
22.2958529012
  0
LINE
  5
5C9
100
AcDbEntity
  8
RACCORDO
100
AcDbLine
 62
253
  6
CONTINUOUS
 10
45.7269659648
 20
23.0175407377
 11
45.7327837946
 21
22.4401904685
  0
LINE
  5
5CA
100
AcDbEntity
  8
RACCORDO
100
AcDbLine
 62
253
  6
CONTINUOUS
 10
45.4769701956
 20
-24.4546280459
 11
45.4769701956
 21
-25.3136982508
  0
LINE
  5
5CB
100
AcDbEntity
  8
RACCORDO
100
AcDbLine
 62
253
  6
CONTINUOUS
 10
45.4769701956
 20
22.8010343868
 11
45.4769701956
 21
23.6601045917
  0
LINE
  5
5CC
100
AcDbEntity
  8
RACCORDO
100
AcDbLine
 62
253
  6
CONTINUOUS
 10
45.4827880254
 20
22.2958529012
 11
45.4827880254
 21
21.4945915015
  0
LINE
  5
5CD
100
AcDbEntity
  8
RACCORDO
100
AcDbLine
 62
253
  6
CONTINUOUS
 10
45.4827880254
 20
-23.1481851606
 11
45.4827880254
 21
-23.9494465604
  0
LINE
  5
5CE
100
AcDbEntity
  8
RACCORDO
100
AcDbLine
 62
253
  6
CONTINUOUS
 10
45.7269659648
 20
-25.0637024816
 11
45.7269659648
 21
-24.6711343969
  0
LINE
  5
5CF
100
AcDbEntity
  8
RACCORDO
100
AcDbLine
 62
253
  6
CONTINUOUS
 10
45.7269659648
 20
23.0175407377
 11
45.7269659648
 21
23.4101088225
  0
LINE
  5
5D0
100
AcDbEntity
  8
RACCORDO
100
AcDbLine
 62
253
  6
CONTINUOUS
 10
45.7327837946
 20
22.4401904685
 11
45.7327837946
 21
21.5076172227
  0
LINE
  5
5D1
100
AcDbEntity
  8
RACCORDO
100
AcDbLine
 62
253
  6
CONTINUOUS
 10
45.7327837946
 20
-23.1612108819
 11
45.7327837946
 21
-24.0937841277
  0
LINE
  5
5D2
100
AcDbEntity
  8
RACCORDO
100
AcDbLine
 62
7
  6
CONTINUOUS
 10
45.7400645435
 20
-23.2267968296
 11
45.7400645435
 21
-25.0768010603
  0
LINE
  5
5D3
100
AcDbEntity
  8
RACCORDO
100
AcDbLine
 62
7
  6
CONTINUOUS
 10
45.7400645435
 20
21.5732031704
 11
45.7400645435
 21
23.4232074012
  0
LINE
  5
5D4
100
AcDbEntity
  8
RACCORDO
100
AcDbLine
 62
253
  6
CONTINUOUS
 10
45.4820607967
 20
-23.9494465604
 11
45.4769701956
 21
-24.4546280459
  0
LINE
  5
5D5
100
AcDbEntity
  8
RACCORDO
100
AcDbLine
 62
253
  6
CONTINUOUS
 10
45.7327837946
 20
-24.0937841277
 11
45.7269659648
 21
-24.6711343969
  0
LWPOLYLINE
  5
5D6
100
AcDbEntity
  8
RACCORDO
100
AcDbPolyline
 62
253
  6
CONTINUOUS
 90
31
 70
0
 10
45.7269659648
 20
23.0175407377
 10
45.7265874092
 20
23.0062427655
 10
45.7255282816
 20
22.9949724614
 10
45.7237909051
 20
22.9837605916
 10
45.7213792037
 20
22.9726367825
 10
45.7182993334
 20
22.9616325304
 10
45.7145602824
 20
22.9507809906
 10
45.710172738
 20
22.9401128676
 10
45.705148339
 20
22.9296561943
 10
45.6995006584
 20
22.9194392755
 10
45.6932449658
 20
22.9094898704
 10
45.6863983912
 20
22.8998353458
 10
45.678979783
 20
22.8905023224
 10
45.6710094789
 20
22.8815163722
 10
45.6625091841
 20
22.872901953
 10
45.6535020936
 20
22.8646825746
 10
45.64401279
 20
22.856880678
 10
45.6340672029
 20
22.8495175897
 10
45.62369252
 20
22.8426134409
 10
45.6129170876
 20
22.8361870943
 10
45.6017703296
 20
22.8302560973
 10
45.5902826925
 20
22.82483665
 10
45.5784855358
 20
22.819943548
 10
45.5664110994
 20
22.8155901649
 10
45.5540924198
 20
22.8117884076
 10
45.5415631844
 20
22.8085486611
 10
45.5288575816
 20
22.8058797547
 10
45.5160102608
 20
22.8037889622
 10
45.5030562935
 20
22.8022819923
 10
45.4900310797
 20
22.8013629639
 10
45.4769701956
 20
22.8010343868
  0
LWPOLYLINE
  5
5D7
100
AcDbEntity
  8
RACCORDO
100
AcDbPolyline
 62
7
  6
CONTINUOUS
 90
34
 70
0
 10
43.3473452924
 20
-24.0937841277
 10
43.3476430188
 20
-24.0875425486
 10
43.3484142702
 20
-24.0812694375
 10
43.3496646329
 20
-24.0749830215
 10
43.3513986802
 20
-24.0687089894
 10
43.3536201229
 20
-24.0624594511
 10
43.3563321429
 20
-24.0562329671
 10
43.3595366398
 20
-24.0500500297
 10
43.3632345643
 20
-24.0439303995
 10
43.3674268153
 20
-24.037872243
 10
43.3721122995
 20
-24.0318970662
 10
43.3772889414
 20
-24.0260256586
 10
43.3829553122
 20
-24.0202558367
 10
43.3891070961
 20
-24.0146098557
 10
43.3957388785
 20
-24.0091093626
 10
43.4028466813
 20
-24.0037520269
 10
43.4104226768
 20
-23.9985605745
 10
43.4184577588
 20
-23.9935572658
 10
43.4269449844
 20
-23.9887398517
 10
43.4358726939
 20
-23.9841311583
 10
43.4452276726
 20
-23.9797537495
 10
43.4549993472
 20
-23.9756057016
 10
43.4651718584
 20
-23.9717094426
 10
43.4757274455
 20
-23.9680873998
 10
43.4866510463
 20
-23.9647381636
 10
43.4979221038
 20
-23.9616831305
 10
43.5095180283
 20
-23.9589439242
 10
43.5214187261
 20
-23.9565196428
 10
43.5335855538
 20
-23.9544328421
 10
43.5460036087
 20
-23.9526993831
 10
43.5586876028
 20
-23.9513132621
 10
43.5716223134
 20
-23.9502901801
 10
43.5847608149
 20
-23.9496609903
 10
43.5980682903
 20
-23.9494465604
  0
LWPOLYLINE
  5
5D8
100
AcDbEntity
  8
RACCORDO
100
AcDbPolyline
 62
7
  6
CONTINUOUS
 90
34
 70
0
 10
45.7327837946
 20
22.4401904685
 10
45.7324860683
 20
22.4339488895
 10
45.7317148168
 20
22.4276757784
 10
45.7304644541
 20
22.4213893624
 10
45.7287304068
 20
22.4151153303
 10
45.7265089641
 20
22.408865792
 10
45.7237969441
 20
22.402639308
 10
45.7205924472
 20
22.3964563705
 10
45.7168945227
 20
22.3903367403
 10
45.7127022717
 20
22.3842785838
 10
45.7080167875
 20
22.3783034071
 10
45.7028401456
 20
22.3724319994
 10
45.6971737748
 20
22.3666621775
 10
45.6910219909
 20
22.3610161966
 10
45.6843902085
 20
22.3555157035
 10
45.6772824057
 20
22.3501583677
 10
45.6697064102
 20
22.3449669154
 10
45.6616713282
 20
22.3399636066
 10
45.6531841026
 20
22.3351461926
 10
45.6442563931
 20
22.3305374992
 10
45.6349014144
 20
22.3261600904
 10
45.6251297398
 20
22.3220120424
 10
45.6149572286
 20
22.3181157835
 10
45.6044016415
 20
22.3144937407
 10
45.5934780407
 20
22.3111445045
 10
45.5822069832
 20
22.3080894714
 10
45.5706110587
 20
22.3053502651
 10
45.5587103609
 20
22.3029259837
 10
45.5465435332
 20
22.300839183
 10
45.5341254783
 20
22.299105724
 10
45.5214414842
 20
22.297719603
 10
45.5085067736
 20
22.296696521
 10
45.4953682721
 20
22.2960673312
 10
45.4820607967
 20
22.2958529012
  0
LINE
  5
5D9
100
AcDbEntity
  8
RACCORDO
100
AcDbLine
 62
7
  6
CONTINUOUS
 10
43.3473452924
 20
-23.160207791
 11
43.3400645435
 21
-23.2265049067
  0
LINE
  5
5DA
100
AcDbEntity
  8
RACCORDO
100
AcDbLine
 62
253
  6
CONTINUOUS
 10
64.3900687743
 20
23.6732031704
 11
64.3769701956
 21
23.6601045917
  0
LINE
  5
5DB
100
AcDbEntity
  8
RACCORDO
100
AcDbLine
 62
253
  6
CONTINUOUS
 10
64.6400645435
 20
23.4232074012
 11
64.6269659648
 21
23.4101088225
  0
LINE
  5
5DC
100
AcDbEntity
  8
DRAFT
100
AcDbLine
 62
7
  6
CONTINUOUS
 10
51.9587525121
 20
-8.3058523469
 11
53.4630326876
 21
-8.3058523469
  0
LINE
  5
5DD
100
AcDbEntity
  8
DRAFT
100
AcDbLine
 62
7
  6
CONTINUOUS
 10
54.5170963994
 20
-8.3058523469
 11
56.021376575
 21
-8.3058523469
  0
LWPOLYLINE
  5
5DE
100
AcDbEntity
  8
RACCORDO
100
AcDbPolyline
 62
253
  6
CONTINUOUS
 90
133
 70
0
 10
53.9900645435
 20
-8.7453761811
 10
53.8028353036
 20
-8.7431883416
 10
53.6156491872
 20
-8.736541872
 10
53.4285061943
 20
-8.7254367694
 10
53.2412590807
 20
-8.7098724941
 10
53.0540550906
 20
-8.6898495746
 10
52.8673359568
 20
-8.6653696077
 10
52.6811037494
 20
-8.6364137282
 10
52.4953563982
 20
-8.6030007792
 10
52.3105294262
 20
-8.5651889177
 10
52.1266324217
 20
-8.5229617547
 10
51.9436557962
 20
-8.476335647
 10
51.7620063076
 20
-8.4254178689
 10
51.5817262097
 20
-8.3702089544
 10
51.4027732485
 20
-8.3107083291
 10
51.2254274206
 20
-8.2470216032
 10
51.0497040244
 20
-8.1791507416
 10
50.8755877614
 20
-8.1070937327
 10
50.7033127325
 20
-8.0309502204
 10
50.5328620582
 20
-7.9507077562
 10
50.364252618
 20
-7.8663787372
 10
50.1977691504
 20
-7.7781000766
 10
50.0334060438
 20
-7.6858586654
 10
49.8711689099
 20
-7.589667559
 10
49.7113593225
 20
-7.4897029178
 10
49.553988884
 20
-7.3859611743
 10
49.399045992
 20
-7.278445843
 10
49.2467974122
 20
-7.1673437104
 10
49.0972518161
 20
-7.052652034
 10
48.9504005324
 20
-6.9343735063
 10
48.8064843123
 20
-6.8127030705
 10
48.6655057381
 20
-6.6876336866
 10
48.5274622276
 20
-6.5591723495
 10
48.3925867857
 20
-6.4275350587
 10
48.2608828696
 20
-6.2927142452
 10
48.1323470221
 20
-6.15471744
 10
48.0072018771
 20
-6.0137832975
 10
47.885454604
 20
-5.869907951
 10
47.7670980335
 20
-5.7230952383
 10
47.6523332912
 20
-5.5735953751
 10
47.5411674215
 20
-5.4214053707
 10
47.43359338
 20
-5.2665281973
 10
47.3297911592
 20
-5.1092230209
 10
47.2297662768
 20
-4.9494848528
 10
47.133513215
 20
-4.7873186741
 10
47.0411954135
 20
-4.6229986117
 10
46.9528185702
 20
-4.4565186877
 10
46.8683769871
 20
-4.2878848838
 10
46.7880170097
 20
-4.1173892721
 10
46.7117462869
 20
-3.9450289952
 10
46.6395571697
 20
-3.7708069256
 10
46.5715730577
 20
-3.595023737
 10
46.5078017933
 20
-3.4176778703
 10
46.4482355341
 20
-3.2387709103
 10
46.3929741516
 20
-3.0586082513
 10
46.3420254894
 20
-2.8771906565
 10
46.295381704
 20
-2.6945173979
 10
46.2531191361
 20
-2.5108916376
 10
46.2152450009
 20
-2.3263184204
 10
46.1817520832
 20
-2.1407927444
 10
46.1526950781
 20
-1.9546027051
 10
46.1280789595
 20
-1.7677431804
 10
46.1078987534
 20
-1.5802193411
 10
46.0921942329
 20
-1.3923347249
 10
46.0809729119
 20
-1.2040704173
 10
46.0742272764
 20
-1.015445385
 10
46.0719745578
 20
-0.8268199886
 10
46.0742262211
 20
-0.6381940817
 10
46.0809708013
 20
-0.4495678642
 10
46.0921911345
 20
-0.2613022166
 10
46.1078947757
 20
-0.0734161447
 10
46.12807417
 20
0.114109305
 10
46.1526894885
 20
0.3009701926
 10
46.1817456954
 20
0.4871611786
 10
46.2152378265
 20
0.6726875538
 10
46.25311116
 20
0.8572613264
 10
46.2953728995
 20
1.0408874933
 10
46.3420158414
 20
1.2235610147
 10
46.3929636533
 20
1.404978847
 10
46.4482241846
 20
1.5851417577
 10
46.507789586
 20
1.7640489442
 10
46.5715599759
 20
1.9413950116
 10
46.6395431855
 20
2.1171783531
 10
46.7117313838
 20
2.2914005497
 10
46.7880011962
 20
2.4637609934
 10
46.8683602682
 20
2.6342568184
 10
46.9528009544
 20
2.8028908753
 10
47.0411769445
 20
2.9693711367
 10
47.1334939567
 20
3.133691657
 10
47.2297462728
 20
3.2958583781
 10
47.3297704271
 20
3.4555971094
 10
47.4335719382
 20
3.6129028615
 10
47.5411452876
 20
3.7677806315
 10
47.6523104535
 20
3.9199712157
 10
47.7670744601
 20
4.0694716151
 10
47.8854302832
 20
4.2162848474
 10
48.0071768289
 20
4.3601607386
 10
48.1323212729
 20
4.5010954635
 10
48.2608564395
 20
4.6390928764
 10
48.3925597066
 20
4.7739143282
 10
48.5274345578
 20
4.9055523091
 10
48.6654775094
 20
5.034014367
 10
48.8064554892
 20
5.1590844438
 10
48.9503710516
 20
5.2807555169
 10
49.0972216422
 20
5.399034654
 10
49.2467665246
 20
5.5137269371
 10
49.3990143104
 20
5.6248296437
 10
49.5539563882
 20
5.7323455462
 10
49.7113261874
 20
5.8360879729
 10
49.8711353769
 20
5.9360534629
 10
50.0333722877
 20
6.03224553
 10
50.1977353435
 20
6.1244879668
 10
50.3642190981
 20
6.2127677774
 10
50.5328289977
 20
6.2970980114
 10
50.7032798037
 20
6.377341531
 10
50.8755545306
 20
6.4534858539
 10
51.049670164
 20
6.525543514
 10
51.2253924231
 20
6.5934148983
 10
51.4027362439
 20
6.6571019238
 10
51.5816866904
 20
6.7166027202
 10
51.7619646731
 20
6.7718119934
 10
51.943612442
 20
6.8227304103
 10
52.126587747
 20
6.8693573443
 10
52.3104847489
 20
6.9115855591
 10
52.4953133083
 20
6.9493988001
 10
52.6810635646
 20
6.9828133542
 10
52.8673000962
 20
7.0117707952
 10
53.0540257506
 20
7.0362522927
 10
53.2412376803
 20
7.0562766994
 10
53.4284919208
 20
7.0718421113
 10
53.6156404841
 20
7.0829478975
 10
53.8028313584
 20
7.0895947001
 10
53.9900645435
 20
7.091782522
  0
LWPOLYLINE
  5
5DF
100
AcDbEntity
  8
RACCORDO
100
AcDbPolyline
 62
253
  6
CONTINUOUS
 90
133
 70
0
 10
53.9900645435
 20
-8.6438076957
 10
53.8053587328
 20
-8.6416258256
 10
53.6204901596
 20
-8.6350688496
 10
53.4355629342
 20
-8.6241215578
 10
53.2506434443
 20
-8.6087675585
 10
53.0658759989
 20
-8.588998428
 10
52.8814817946
 20
-8.5648228824
 10
52.6975660623
 20
-8.5362439042
 10
52.5142350759
 20
-8.5032671232
 10
52.3317094636
 20
-8.465925521
 10
52.1500993512
 20
-8.4242394658
 10
51.9695022566
 20
-8.378229146
 10
51.7901160431
 20
-8.3279460939
 10
51.612079301
 20
-8.2734355275
 10
51.4354530148
 20
-8.2147225134
 10
51.2603160046
 20
-8.1518372881
 10
51.0867798774
 20
-8.0848238631
 10
50.9149279573
 20
-8.0137183741
 10
50.7447973743
 20
-7.9385369867
 10
50.5764667659
 20
-7.8593120872
 10
50.41005065
 20
-7.7760951715
 10
50.2456404245
 20
-7.6889300074
 10
50.0833205831
 20
-7.5978589907
 10
49.9231936399
 20
-7.5029371942
 10
49.7653754344
 20
-7.4042322756
 10
49.6099617135
 20
-7.3018048147
 10
49.4570337237
 20
-7.1957090553
 10
49.3066822623
 20
-7.0860083893
 10
49.158996232
 20
-6.9727687604
 10
49.0140546473
 20
-6.856051844
 10
48.87193145
 20
-6.7359173593
 10
48.7327052741
 20
-6.612431573
 10
48.5964570659
 20
-6.4856660711
 10
48.4632623841
 20
-6.3556907034
 10
48.333194926
 20
-6.2225769027
 10
48.2063306357
 20
-6.0864018964
 10
48.0827456241
 20
-5.9472470751
 10
47.9625109344
 20
-5.8051927969
 10
47.8456933866
 20
-5.6603183862
 10
47.7323595725
 20
-5.5127064779
 10
47.6225746048
 20
-5.3624423524
 10
47.5163994036
 20
-5.2096098901
 10
47.4138915069
 20
-5.0542917223
 10
47.3151085041
 20
-4.8965748177
 10
47.2201071449
 20
-4.7365494963
 10
47.1289409141
 20
-4.5743052384
 10
47.0416605437
 20
-4.4099317282
 10
46.9583169279
 20
-4.2435242075
 10
46.8789601891
 20
-4.0751824813
 10
46.8036353248
 20
-3.9050026016
 10
46.7323845791
 20
-3.7330806687
 10
46.6652498249
 20
-3.5595184485
 10
46.6022689916
 20
-3.3844156712
 10
46.5434767998
 20
-3.2078706926
 10
46.4889064076
 20
-3.0299846574
 10
46.4385888766
 20
-2.8508613181
 10
46.3925512399
 20
-2.6705996738
 10
46.3508174459
 20
-2.4892946585
 10
46.3134122663
 20
-2.307055343
 10
46.2803552744
 20
-2.123978789
 10
46.2516613445
 20
-1.9401422477
 10
46.227348042
 20
-1.7556455648
 10
46.2074316144
 20
-1.5705971752
 10
46.1919241562
 20
-1.3850874342
 10
46.1808364438
 20
-1.1992034932
 10
46.1741792928
 20
-1.0130685425
 10
46.1719593271
 20
-0.826827461
 10
46.1741778448
 20
-0.6405858698
 10
46.1808336027
 20
-0.4544497312
 10
46.1919199877
 20
-0.268564436
 10
46.2074261913
 20
-0.0830532146
 10
46.2273414485
 20
0.1019968156
 10
46.2516536185
 20
0.2864949021
 10
46.280346408
 20
0.4703324467
 10
46.3134022533
 20
0.6534097698
 10
46.3508062832
 20
0.8356497199
 10
46.3925389123
 20
1.0169552314
 10
46.4385753593
 20
1.1972172412
 10
46.4888916977
 20
1.3763409292
 10
46.5434609044
 20
1.5542273352
 10
46.6022519046
 20
1.7307726688
 10
46.6652315366
 20
1.9058757824
 10
46.732365068
 20
2.0794382988
 10
46.8036145748
 20
2.2513605122
 10
46.87893821
 20
2.4215407203
 10
46.9582937336
 20
2.5898828266
 10
47.0416361481
 20
2.7562907741
 10
47.1289153593
 20
2.9206648049
 10
47.2200804984
 20
3.08290971
 10
47.3150808201
 20
3.2429357657
 10
47.413862808
 20
3.4006534322
 10
47.5163697095
 20
3.555972383
 10
47.6225439394
 20
3.7088056546
 10
47.7323279324
 20
3.8590705772
 10
47.8456607462
 20
4.006683246
 10
47.9624772853
 20
4.1515584085
 10
48.0827109906
 20
4.2936134713
 10
48.2062950523
 20
4.4327691186
 10
48.3331584197
 20
4.5689449812
 10
48.4632249912
 20
4.7020596758
 10
48.5964188489
 20
4.8320359963
 10
48.7326662736
 20
4.9588024841
 10
48.8718916411
 20
5.0822892294
 10
49.0140139726
 20
5.2024246248
 10
49.1589546601
 20
5.3191424324
 10
49.306639781
 20
5.4323829528
 10
49.4569902662
 20
5.542084474
 10
49.6099172638
 20
5.6481810952
 10
49.7653301641
 20
5.7506095473
 10
49.9231477994
 20
5.8493156182
 10
50.0832743612
 20
5.9442386699
 10
50.2455939948
 20
6.0353110201
 10
50.4100043447
 20
6.1224776642
 10
50.5764207723
 20
6.2056961088
 10
50.7447513905
 20
6.2849223497
 10
50.9148815511
 20
6.3601048641
 10
51.0867327213
 20
6.4312113462
 10
51.2602676154
 20
6.4982256011
 10
51.4354025494
 20
6.5611114089
 10
51.6120262479
 20
6.6198249311
 10
51.7900607918
 20
6.6743362349
 10
51.9694452257
 20
6.724620231
 10
52.1500409525
 20
6.7706316672
 10
52.3316509907
 20
6.8123191715
 10
52.514178113
 20
6.8496625156
 10
52.6975119418
 20
6.882641174
 10
52.8814319271
 20
6.9112220809
 10
53.0658320266
 20
6.9353995348
 10
53.2506067891
 20
6.9551704174
 10
53.4355344067
 20
6.9705258705
 10
53.6204703574
 20
6.9814742535
 10
53.8053484444
 20
6.9880319234
 10
53.9900645435
 20
6.9902140366
  0
LWPOLYLINE
  5
5E0
100
AcDbEntity
  8
RACCORDO
100
AcDbPolyline
 62
253
  6
CONTINUOUS
 90
9
 70
0
 10
43.4907885813
 20
-22.8255220515
 10
43.4914023323
 20
-22.8218343433
 10
43.4920126697
 20
-22.8162979304
 10
43.4926195937
 20
-22.8089198054
 10
43.4932238334
 20
-22.79970938
 10
43.4938246597
 20
-22.7886780995
 10
43.4944198843
 20
-22.7758391755
 10
43.495009507
 20
-22.7612080571
 10
43.49616976
 20
-22.7266447747
  0
LINE
  5
5E1
100
AcDbEntity
  8
DRAFT
100
AcDbLine
 62
7
  6
CONTINUOUS
 10
51.8773451187
 20
-8.3267968296
 11
51.9316048325
 21
-8.3127635138
  0
LINE
  5
5E2
100
AcDbEntity
  8
DRAFT
100
AcDbLine
 62
7
  6
CONTINUOUS
 10
51.9316048325
 20
-8.3127635138
 11
51.9587525121
 21
-8.3058523469
  0
LINE
  5
5E3
100
AcDbEntity
  8
DRAFT
100
AcDbLine
 62
7
  6
CONTINUOUS
 10
56.0756586119
 20
-8.3197448582
 11
56.021376575
 21
-8.3058523469
  0
LINE
  5
5E4
100
AcDbEntity
  8
DRAFT
100
AcDbLine
 62
7
  6
CONTINUOUS
 10
56.1027839683
 20
-8.3267968296
 11
56.0756586119
 21
-8.3197448582
  0
LINE
  5
5E5
100
AcDbEntity
  8
DRAFT
100
AcDbLine
 62
7
  6
CONTINUOUS
 10
49.5900645435
 20
-24.6267968296
 11
49.5900645435
 21
-23.2267968296
  0
LINE
  5
5E6
100
AcDbEntity
  8
DRAFT
100
AcDbLine
 62
7
  6
CONTINUOUS
 10
49.5900645435
 20
21.5732031704
 11
49.5900645435
 21
22.9732031704
  0
LINE
  5
5E7
100
AcDbEntity
  8
RACCORDO
100
AcDbLine
 62
253
  6
CONTINUOUS
 10
49.5929903817
 20
22.9702773322
 11
49.5929903817
 21
21.5468468336
  0
LINE
  5
5E8
100
AcDbEntity
  8
RACCORDO
100
AcDbLine
 62
253
  6
CONTINUOUS
 10
49.5929903817
 20
-23.2004404927
 11
49.5929903817
 21
-24.6238709914
  0
LINE
  5
5E9
100
AcDbEntity
  8
RACCORDO
100
AcDbLine
 62
253
  6
CONTINUOUS
 10
50.0929819201
 20
22.7685455219
 11
50.0929819201
 21
21.5207953912
  0
LINE
  5
5EA
100
AcDbEntity
  8
RACCORDO
100
AcDbLine
 62
253
  6
CONTINUOUS
 10
50.0929819201
 20
-23.1743890503
 11
50.0929819201
 21
-24.422139181
  0
LWPOLYLINE
  5
5EB
100
AcDbEntity
  8
RACCORDO
100
AcDbPolyline
 62
253
  6
CONTINUOUS
 90
12
 70
0
 10
42.9908647338
 20
-22.3262072842
 10
42.9914781488
 20
-22.3237411548
 10
42.9920882496
 20
-22.3200539182
 10
42.992695036
 20
-22.3151455745
 10
42.9932992727
 20
-22.3090070175
 10
42.993900195
 20
-22.3016473534
 10
42.9944955094
 20
-22.2930939003
 10
42.9950851773
 20
-22.2833421819
 10
42.9956692374
 20
-22.2723966746
 10
42.9962455109
 20
-22.2602981253
 10
42.9968139625
 20
-22.2470423465
 10
42.9979254342
 20
-22.2171249728
  0
LINE
  5
5EC
100
AcDbEntity
  8
RACCORDO
100
AcDbLine
 62
253
  6
CONTINUOUS
 10
42.9908647338
 20
20.672613625
 11
42.8574814459
 21
21.073088899
  0
LINE
  5
5ED
100
AcDbEntity
  8
RACCORDO
100
AcDbLine
 62
7
  6
CONTINUOUS
 10
49.5900645435
 20
-23.2267968296
 11
49.5929903817
 21
-23.2004404927
  0
LINE
  5
5EE
100
AcDbEntity
  8
RACCORDO
100
AcDbLine
 62
253
  6
CONTINUOUS
 10
42.8574814459
 20
-22.7266825581
 11
42.9908647338
 21
-22.3262072842
  0
LINE
  5
5EF
100
AcDbEntity
  8
RACCORDO
100
AcDbLine
 62
253
  6
CONTINUOUS
 10
43.4907885813
 20
-22.8255220515
 11
43.3811492035
 21
-23.1547076682
  0
LINE
  5
5F0
100
AcDbEntity
  8
RACCORDO
100
AcDbLine
 62
253
  6
CONTINUOUS
 10
43.3811492035
 20
21.5011140091
 11
43.4907885813
 21
21.1719283924
  0
LINE
  5
5F1
100
AcDbEntity
  8
RACCORDO
100
AcDbLine
 62
7
  6
CONTINUOUS
 10
49.5900645435
 20
21.5732031704
 11
49.5929903817
 21
21.5468468336
  0
LWPOLYLINE
  5
5F2
100
AcDbEntity
  8
RACCORDO
100
AcDbPolyline
 62
7
  6
CONTINUOUS
 90
13
 70
0
 10
64.6327837946
 20
21.5066141318
 10
64.6324859108
 20
21.5060566447
 10
64.6317187376
 20
21.5055261197
 10
64.6304835208
 20
21.5050225568
 10
64.6287822684
 20
21.5045505381
 10
64.6266180476
 20
21.5041054815
 10
64.6239952645
 20
21.503673641
 10
64.6209188859
 20
21.5032585321
 10
64.617394781
 20
21.5028566393
 10
64.6134305242
 20
21.5024436699
 10
64.6090342305
 20
21.5020115262
 10
64.6042142254
 20
21.5015683059
 10
64.5989798835
 20
21.5011140091
  0
LINE
  5
5F3
100
AcDbEntity
  8
RACCORDO
100
AcDbLine
 62
7
  6
CONTINUOUS
 10
58.3900645435
 20
21.5732031704
 11
58.3871387053
 21
21.5468468336
  0
LWPOLYLINE
  5
5F4
100
AcDbEntity
  8
RACCORDO
100
AcDbPolyline
 62
7
  6
CONTINUOUS
 90
13
 70
0
 10
43.3473452924
 20
-23.160207791
 10
43.3476431762
 20
-23.1596503038
 10
43.3484103494
 20
-23.1591197788
 10
43.3496455662
 20
-23.1586162159
 10
43.3513468186
 20
-23.1581441972
 10
43.3535110394
 20
-23.1576991406
 10
43.3561338225
 20
-23.1572673002
 10
43.3592102011
 20
-23.1568521913
 10
43.362734306
 20
-23.1564502984
 10
43.3666985628
 20
-23.156037329
 10
43.3710948565
 20
-23.1556051853
 10
43.3759148616
 20
-23.1551619651
 10
43.3811492035
 20
-23.1547076682
  0
LINE
  5
5F5
100
AcDbEntity
  8
RACCORDO
100
AcDbLine
 62
7
  6
CONTINUOUS
 10
58.3900645435
 20
-23.2267968296
 11
58.3871387053
 21
-23.2004404927
  0
LINE
  5
5F6
100
AcDbEntity
  8
RACCORDO
100
AcDbLine
 62
253
  6
CONTINUOUS
 10
57.8871471669
 20
-24.422139181
 11
57.8871471669
 21
-23.1743890503
  0
LINE
  5
5F7
100
AcDbEntity
  8
RACCORDO
100
AcDbLine
 62
253
  6
CONTINUOUS
 10
57.8871471669
 20
21.5207953912
 11
57.8871471669
 21
22.7685455219
  0
LINE
  5
5F8
100
AcDbEntity
  8
RACCORDO
100
AcDbLine
 62
253
  6
CONTINUOUS
 10
64.4893405057
 20
21.1719283924
 11
64.5989798835
 21
21.5011140091
  0
LINE
  5
5F9
100
AcDbEntity
  8
RACCORDO
100
AcDbLine
 62
253
  6
CONTINUOUS
 10
65.1226476411
 20
21.073088899
 11
64.9892643532
 21
20.672613625
  0
LINE
  5
5FA
100
AcDbEntity
  8
RACCORDO
100
AcDbLine
 62
253
  6
CONTINUOUS
 10
64.5989798835
 20
-23.1547076682
 11
64.4893405057
 21
-22.8255220515
  0
LINE
  5
5FB
100
AcDbEntity
  8
RACCORDO
100
AcDbLine
 62
253
  6
CONTINUOUS
 10
64.9892643532
 20
-22.3262072842
 11
65.1226476411
 21
-22.7266825581
  0
LINE
  5
5FC
100
AcDbEntity
  8
RACCORDO
100
AcDbLine
 62
253
  6
CONTINUOUS
 10
58.3871387053
 20
-24.6238709914
 11
58.3871387053
 21
-23.2004404927
  0
LINE
  5
5FD
100
AcDbEntity
  8
RACCORDO
100
AcDbLine
 62
253
  6
CONTINUOUS
 10
58.3871387053
 20
21.5468468336
 11
58.3871387053
 21
22.9702773322
  0
LINE
  5
5FE
100
AcDbEntity
  8
DRAFT
100
AcDbLine
 62
7
  6
CONTINUOUS
 10
58.3900645435
 20
22.9732031704
 11
58.3900645435
 21
21.5732031704
  0
LINE
  5
5FF
100
AcDbEntity
  8
DRAFT
100
AcDbLine
 62
7
  6
CONTINUOUS
 10
58.3900645435
 20
-23.2267968296
 11
58.3900645435
 21
-24.6267968296
  0
LWPOLYLINE
  5
600
100
AcDbEntity
  8
RACCORDO
100
AcDbPolyline
 62
253
  6
CONTINUOUS
 90
12
 70
0
 10
64.9892643532
 20
20.672613625
 10
64.9886510552
 20
20.6701483852
 10
64.9880410426
 20
20.6664619563
 10
64.9874343155
 20
20.6615543382
 10
64.9868300998
 20
20.6554163905
 10
64.9862291694
 20
20.6480572536
 10
64.9856338468
 20
20.639504349
 10
64.9850441797
 20
20.6297532396
 10
64.9844601203
 20
20.6188083626
 10
64.983883847
 20
20.6067104503
 10
64.9833153955
 20
20.5934553111
 10
64.9822039228
 20
20.5635392348
  0
LINE
  5
601
100
AcDbEntity
  8
DRAFT
100
AcDbLine
 62
7
  6
CONTINUOUS
 10
56.1027839683
 20
6.6732031704
 11
56.0485242545
 21
6.6591698547
  0
LINE
  5
602
100
AcDbEntity
  8
DRAFT
100
AcDbLine
 62
7
  6
CONTINUOUS
 10
56.0485242545
 20
6.6591698547
 11
56.021376575
 21
6.6522586877
  0
LINE
  5
603
100
AcDbEntity
  8
DRAFT
100
AcDbLine
 62
7
  6
CONTINUOUS
 10
51.9044704751
 20
6.6661511991
 11
51.9587525121
 21
6.6522586877
  0
LINE
  5
604
100
AcDbEntity
  8
DRAFT
100
AcDbLine
 62
7
  6
CONTINUOUS
 10
51.8773451187
 20
6.6732031704
 11
51.9044704751
 21
6.6661511991
  0
LINE
  5
605
100
AcDbEntity
  8
RACCORDO
100
AcDbLine
 62
7
  6
CONTINUOUS
 10
64.6400645435
 20
-23.2265049067
 11
64.6327837946
 21
-23.160207791
  0
LWPOLYLINE
  5
606
100
AcDbEntity
  8
RACCORDO
100
AcDbPolyline
 62
253
  6
CONTINUOUS
 90
31
 70
0
 10
62.2531631222
 20
-25.0637024816
 10
62.2535063112
 20
-25.0767888357
 10
62.2545340542
 20
-25.0898393341
 10
62.2562435374
 20
-25.1028181915
 10
62.2586300801
 20
-25.1156898312
 10
62.2616871412
 20
-25.1284189451
 10
62.2654063307
 20
-25.1409705925
 10
62.2697774458
 20
-25.1533103486
 10
62.2747885013
 20
-25.1654043859
 10
62.2804257496
 20
-25.1772195315
 10
62.2866737287
 20
-25.1887233873
 10
62.2935153045
 20
-25.1998844133
 10
62.3009317114
 20
-25.2106720036
 10
62.3089026196
 20
-25.2210565929
 10
62.3174061611
 20
-25.2310096963
 10
62.3264189802
 20
-25.2405039894
 10
62.3359163146
 20
-25.2495134113
 10
62.3458721518
 20
-25.2580133082
 10
62.3562592777
 20
-25.2659804504
 10
62.3670493569
 20
-25.2733930805
 10
62.3782126753
 20
-25.2802307623
 10
62.3897182757
 20
-25.2864745639
 10
62.4015343539
 20
-25.2921073125
 10
62.4136287101
 20
-25.2971137424
 10
62.425968514
 20
-25.3014802935
 10
62.4385226986
 20
-25.3051957333
 10
62.4512541637
 20
-25.3082488467
 10
62.4641198825
 20
-25.3106299768
 10
62.4770816571
 20
-25.312333581
 10
62.4901065515
 20
-25.3133568436
 10
62.5031588914
 20
-25.3136982508
  0
LWPOLYLINE
  5
607
100
AcDbEntity
  8
RACCORDO
100
AcDbPolyline
 62
7
  6
CONTINUOUS
 90
34
 70
0
 10
62.2400645435
 20
-25.0768010603
 10
62.2403476937
 20
-25.0886963456
 10
62.2411965093
 20
-25.1005646851
 10
62.2426090694
 20
-25.1123791957
 10
62.2445821758
 20
-25.124113117
 10
62.2471113618
 20
-25.1357398684
 10
62.2501909018
 20
-25.1472331086
 10
62.2538138222
 20
-25.1585668033
 10
62.2579719177
 20
-25.1697152789
 10
62.2626557713
 20
-25.1806532759
 10
62.2678547747
 20
-25.1913560172
 10
62.2735571519
 20
-25.2017992578
 10
62.2797499854
 20
-25.2119593355
 10
62.286419248
 20
-25.2218132347
 10
62.2935498328
 20
-25.2313386334
 10
62.3011255846
 20
-25.2405139486
 10
62.309129343
 20
-25.2493183956
 10
62.3175429774
 20
-25.25773203
 10
62.3263474244
 20
-25.2657357884
 10
62.3355227397
 20
-25.2733115403
 10
62.3450481384
 20
-25.280442125
 10
62.3549020376
 20
-25.2871113877
 10
62.3650621152
 20
-25.2933042212
 10
62.3755053559
 20
-25.2990065984
 10
62.3862080972
 20
-25.3042056017
 10
62.3971460942
 20
-25.3088894553
 10
62.4082945697
 20
-25.3130475509
 10
62.4196282645
 20
-25.3166704713
 10
62.4311215047
 20
-25.3197500113
 10
62.442748256
 20
-25.3222791973
 10
62.4544821774
 20
-25.3242523037
 10
62.4662966879
 20
-25.3256648638
 10
62.4781650275
 20
-25.3265136793
 10
62.4900603127
 20
-25.3267968296
  0
LINE
  5
608
100
AcDbEntity
  8
RACCORDO
100
AcDbLine
 62
253
  6
CONTINUOUS
 10
62.2531631222
 20
-24.6711343969
 11
62.2473452924
 21
-24.0937841277
  0
LINE
  5
609
100
AcDbEntity
  8
RACCORDO
100
AcDbLine
 62
253
  6
CONTINUOUS
 10
62.2473452924
 20
22.4401904685
 11
62.2531631222
 21
23.0175407377
  0
LWPOLYLINE
  5
60A
100
AcDbEntity
  8
RACCORDO
100
AcDbPolyline
 62
253
  6
CONTINUOUS
 90
9
 70
0
 10
64.4893405057
 20
21.1719283924
 10
64.4887267619
 20
21.1682407082
 10
64.4881164294
 20
21.1627043292
 10
64.4875095084
 20
21.15532624
 10
64.4869052684
 20
21.1461158389
 10
64.4863044398
 20
21.1350845667
 10
64.4857092136
 20
21.1222456489
 10
64.4851195912
 20
21.1076145435
 10
64.4839593402
 20
21.0730512913
  0
LINE
  5
60B
100
AcDbEntity
  8
DRAFT
100
AcDbLine
 62
7
  6
CONTINUOUS
 10
56.021376575
 20
6.6522586877
 11
54.5170963994
 21
6.6522586877
  0
LINE
  5
60C
100
AcDbEntity
  8
DRAFT
100
AcDbLine
 62
7
  6
CONTINUOUS
 10
53.4630326876
 20
6.6522586877
 11
51.9587525121
 21
6.6522586877
  0
LWPOLYLINE
  5
60D
100
AcDbEntity
  8
RACCORDO
100
AcDbPolyline
 62
253
  6
CONTINUOUS
 90
133
 70
0
 10
53.9900645435
 20
7.091782522
 10
54.1772937834
 20
7.0895946825
 10
54.3644798999
 20
7.0829482129
 10
54.5516228931
 20
7.0718431103
 10
54.7388700071
 20
7.0562788349
 10
54.9260739978
 20
7.0362559153
 10
55.1127931321
 20
7.0117759483
 10
55.2990253402
 20
6.9828200687
 10
55.4847726919
 20
6.9494071194
 10
55.6695996645
 20
6.9115952577
 10
55.8534966694
 20
6.8693680945
 10
56.0364732952
 20
6.8227419867
 10
56.218122784
 20
6.7718242084
 10
56.3984028819
 20
6.7166152938
 10
56.5773558429
 20
6.6571146685
 10
56.7547016707
 20
6.5934279424
 10
56.9304250669
 20
6.5255570808
 10
57.10454133
 20
6.4535000717
 10
57.2768163595
 20
6.377356559
 10
57.4472670349
 20
6.297114094
 10
57.6158764767
 20
6.2127850741
 10
57.7823599456
 20
6.1245064125
 10
57.9467230533
 20
6.0322650004
 10
58.1089601882
 20
5.936073893
 10
58.2687697757
 20
5.8361092516
 10
58.4261402125
 20
5.7323675088
 10
58.581083102
 20
5.6248521789
 10
58.7333316794
 20
5.5137500479
 10
58.882877273
 20
5.3990583734
 10
59.0297285545
 20
5.2807798476
 10
59.1736447743
 20
5.1591094117
 10
59.3146233518
 20
5.0340400247
 10
59.4526668676
 20
4.9055786825
 10
59.5875423149
 20
4.773941386
 10
59.7192462374
 20
4.6391205648
 10
59.8477820914
 20
4.5011237512
 10
59.9729272388
 20
4.360189605
 10
60.0946745081
 20
4.2163142619
 10
60.2130310708
 20
4.0695015572
 10
60.3277958038
 20
3.9200017053
 10
60.4389616611
 20
3.767811719
 10
60.5465356886
 20
3.6129345668
 10
60.6503379014
 20
3.4556294028
 10
60.7503627849
 20
3.2958912347
 10
60.8466158537
 20
3.1337250472
 10
60.9389336664
 20
2.9694049657
 10
61.0273105277
 20
2.8029250051
 10
61.1117521328
 20
2.6342911542
 10
61.1921121264
 20
2.4637955055
 10
61.2683828564
 20
2.2914352044
 10
61.3405719748
 20
2.1172131204
 10
61.4085560815
 20
1.9414299381
 10
61.4723273309
 20
1.7640841077
 10
61.5318935686
 20
1.5851772045
 10
61.5871549314
 20
1.4050146058
 10
61.6381035779
 20
1.2235970729
 10
61.6847473496
 20
1.0409238796
 10
61.727009908
 20
0.8572981756
 10
61.7648840399
 20
0.6727249962
 10
61.7983769586
 20
0.4871993489
 10
61.8274339658
 20
0.301009346
 10
61.8520500859
 20
0.1141498711
 10
61.8722302946
 20
-0.0733739109
 10
61.8879348204
 20
-0.2612584637
 10
61.8991561508
 20
-0.4495226849
 10
61.9059017983
 20
-0.6381476247
 10
61.9081545292
 20
-0.8267729744
 10
61.9059028787
 20
-1.0153989143
 10
61.8991583116
 20
-1.2040252105
 10
61.887937989
 20
-1.3922909334
 10
61.8722343546
 20
-1.5801770616
 10
61.8520549646
 20
-1.7677025642
 10
61.8274396493
 20
-1.9545634991
 10
61.7983834456
 20
-2.140754521
 10
61.7648913165
 20
-2.3262809267
 10
61.7270179806
 20
-2.5108547391
 10
61.6847562324
 20
-2.6944809642
 10
61.6381132774
 20
-2.8771545531
 10
61.5871654504
 20
-3.0585724495
 10
61.5319048998
 20
-3.2387354227
 10
61.4723394772
 20
-3.4176426682
 10
61.4085690726
 20
-3.5949887738
 10
61.340585858
 20
-3.7707721233
 10
61.2683976613
 20
-3.9449943071
 10
61.1921278563
 20
-4.1173547279
 10
61.111768801
 20
-4.2878505168
 10
61.0273281375
 20
-4.4564845275
 10
60.938952166
 20
-4.6229647529
 10
60.8466351655
 20
-4.7872852547
 10
60.750382857
 20
-4.9494519675
 10
60.6503587043
 20
-5.1091906996
 10
60.5465571854
 20
-5.266496465
 10
60.4389838223
 20
-5.4213742574
 10
60.327818644
 20
-5.5735648607
 10
60.2130546281
 20
-5.7230652727
 10
60.094698797
 20
-5.8698785143
 10
59.9729522474
 20
-6.0137544101
 10
59.8478078057
 20
-6.1546891325
 10
59.7192726455
 20
-6.292686538
 10
59.5875693847
 20
-6.427507983
 10
59.4526945389
 20
-6.5591459592
 10
59.3146515924
 20
-6.6876080128
 10
59.1736736157
 20
-6.8126780873
 10
59.0297580529
 20
-6.9343491613
 10
58.8829074599
 20
-7.0526283012
 10
58.7333625747
 20
-7.1673205871
 10
58.5811147861
 20
-7.2784232959
 10
58.4261727054
 20
-7.3859392008
 10
58.2688029041
 20
-7.4896816291
 10
58.1089937142
 20
-7.5896471196
 10
57.9467568038
 20
-7.6858391865
 10
57.7823937487
 20
-7.778081623
 10
57.6159099949
 20
-7.8663614334
 10
57.4473000964
 20
-7.9506916671
 10
57.2768492909
 20
-8.0309351867
 10
57.104574564
 20
-8.1070795098
 10
56.9304589302
 20
-8.1791371702
 10
56.7547366705
 20
-8.2470085549
 10
56.5773928489
 20
-8.3106955809
 10
56.3984424016
 20
-8.3701963777
 10
56.2181644181
 20
-8.4254056512
 10
56.0365166488
 20
-8.4763240684
 10
55.8535413434
 20
-8.5229510026
 10
55.6696443412
 20
-8.5651792175
 10
55.4848157816
 20
-8.6029924587
 10
55.2990655252
 20
-8.6364070129
 10
55.1128289935
 20
-8.6653644539
 10
54.9261033389
 20
-8.6898459515
 10
54.738891409
 20
-8.7098703583
 10
54.5516371681
 20
-8.7254357703
 10
54.3644886043
 20
-8.7365415565
 10
54.1772977294
 20
-8.7431883592
 10
53.9900645435
 20
-8.7453761811
  0
LWPOLYLINE
  5
60E
100
AcDbEntity
  8
RACCORDO
100
AcDbPolyline
 62
253
  6
CONTINUOUS
 90
133
 70
0
 10
53.9900645435
 20
6.9902140366
 10
54.1747703542
 20
6.9880321665
 10
54.3596389275
 20
6.9814751905
 10
54.5445661532
 20
6.9705278987
 10
54.7294856435
 20
6.9551738993
 10
54.9142530894
 20
6.9354047687
 10
55.0986472943
 20
6.911229223
 10
55.2825630272
 20
6.8826502446
 10
55.4658940142
 20
6.8496734635
 10
55.6484196271
 20
6.8123318611
 10
55.8300297399
 20
6.7706458057
 10
56.0106268348
 20
6.7246354857
 10
56.1900130485
 20
6.6743524334
 10
56.3680497906
 20
6.6198418669
 10
56.5446760766
 20
6.5611288528
 10
56.7198130866
 20
6.4982436274
 10
56.8933492139
 20
6.4312302023
 10
57.0652011341
 20
6.360124713
 10
57.2353317177
 20
6.2849433253
 10
57.4036623272
 20
6.2057184251
 10
57.5700784446
 20
6.1225015085
 10
57.7344886714
 20
6.0353363434
 10
57.896808514
 20
5.9442653258
 10
58.0569354581
 20
5.8493435284
 10
58.2147536636
 20
5.7506386095
 10
58.3701673829
 20
5.6482111492
 10
58.5230953701
 20
5.5421153913
 10
58.6734468292
 20
5.4324147268
 10
58.821132857
 20
5.3191750997
 10
58.9660744394
 20
5.2024581851
 10
59.1081976366
 20
5.0823237005
 10
59.2474238158
 20
4.9588379112
 10
59.3836720292
 20
4.8320724043
 10
59.5168667164
 20
4.7020970309
 10
59.6469341809
 20
4.5689832227
 10
59.7737984777
 20
4.4328082082
 10
59.8973834915
 20
4.2936533831
 10
60.0176181772
 20
4.1515991079
 10
60.1344357175
 20
4.0067247054
 10
60.2477695224
 20
3.8591128082
 10
60.3575544772
 20
3.7088487002
 10
60.4637296646
 20
3.5560162588
 10
60.5662375541
 20
3.4006981037
 10
60.6650205581
 20
3.2429811993
 10
60.7600219238
 20
3.0829558689
 10
60.8511881659
 20
2.9207115921
 10
60.9384685551
 20
2.7563380463
 10
61.0218121926
 20
2.5899304794
 10
61.1011689464
 20
2.4215887161
 10
61.1764938179
 20
2.2514088125
 10
61.2477445655
 20
2.0794868656
 10
61.3148793136
 20
1.9059246514
 10
61.377860131
 20
1.7308219094
 10
61.436652302
 20
1.5542769871
 10
61.4912226755
 20
1.3763910117
 10
61.5415401904
 20
1.1972677334
 10
61.5875778134
 20
1.0170061535
 10
61.6293115988
 20
0.835701194
 10
61.6667167759
 20
0.653461916
 10
61.6997737688
 20
0.4703853903
 10
61.7284676999
 20
0.2865488847
 10
61.7527810037
 20
0.102052251
 10
61.7726974342
 20
-0.0829960821
 10
61.7882048976
 20
-0.2685057604
 10
61.799292617
 20
-0.4543896162
 10
61.8059497789
 20
-0.6405244755
 10
61.8081697599
 20
-0.826765511
 10
61.8059512578
 20
-1.0130071347
 10
61.7992955118
 20
-1.199143351
 10
61.7882091353
 20
-1.3850287206
 10
61.7727029385
 20
-1.5705399975
 10
61.7527876857
 20
-1.7555900799
 10
61.7284755186
 20
-1.940088213
 10
61.6997827316
 20
-2.1239257932
 10
61.6667268882
 20
-2.3070031462
 10
61.6293228568
 20
-2.4892431357
 10
61.5875902198
 20
-2.6705487049
 10
61.5415537597
 20
-2.8508107812
 10
61.4912374057
 20
-3.0299345325
 10
61.4366681807
 20
-3.2078210004
 10
61.3778771601
 20
-3.3843663924
 10
61.3148975124
 20
-3.5594695433
 10
61.2477639752
 20
-3.7330320674
 10
61.1765144707
 20
-3.9049542684
 10
61.101190843
 20
-4.0751344539
 10
61.0218353348
 20
-4.2434765239
 10
60.9384929427
 20
-4.4098844258
 10
60.8512137509
 20
-4.5742584217
 10
60.7600486236
 20
-4.7365033085
 10
60.6650483089
 20
-4.8965293559
 10
60.5662663228
 20
-5.0542470232
 10
60.4637594144
 20
-5.2095659877
 10
60.3575851707
 20
-5.3623992812
 10
60.247801165
 20
-5.5126642225
 10
60.134468342
 20
-5.6602769036
 10
60.0176517952
 20
-5.8051520756
 10
59.8974180858
 20
-5.9472071426
 10
59.7738340261
 20
-6.0863627871
 10
59.6469706652
 20
-6.2225386426
 10
59.5169041
 20
-6.3556533308
 10
59.3837102476
 20
-6.4856296465
 10
59.2474628279
 20
-6.61239613
 10
59.1082374636
 20
-6.7358828732
 10
58.9661151319
 20
-6.8560182695
 10
58.8211744418
 20
-6.9727360798
 10
58.6734893181
 20
-7.0859766028
 10
58.5231388302
 20
-7.1956781264
 10
58.3702118298
 20
-7.3017747499
 10
58.2147989274
 20
-7.4042032036
 10
58.0569812916
 20
-7.5029092749
 10
57.8968547303
 20
-7.5978323264
 10
57.7345350974
 20
-7.6889046764
 10
57.5701247482
 20
-7.7760713202
 10
57.4037083216
 20
-7.8592897645
 10
57.235377704
 20
-7.9385160054
 10
57.0652475434
 20
-8.01369852
 10
56.8933963728
 20
-8.0848050025
 10
56.7198614781
 20
-8.1518192578
 10
56.5447265434
 20
-8.2147050661
 10
56.368102844
 20
-8.2734185887
 10
56.1900682994
 20
-8.3279298928
 10
56.0106838651
 20
-8.3782138891
 10
55.8300881379
 20
-8.4242253256
 10
55.6484780994
 20
-8.4659128299
 10
55.4659509769
 20
-8.5032561742
 10
55.2826171479
 20
-8.5362348327
 10
55.0986971625
 20
-8.5648157397
 10
54.9142970628
 20
-8.5889931936
 10
54.7295223001
 20
-8.6087640763
 10
54.5445946822
 20
-8.6241195295
 10
54.3596587311
 20
-8.6350679126
 10
54.1747806433
 20
-8.6416255825
 10
53.9900645435
 20
-8.6438076957
  0
LWPOLYLINE
  5
60F
100
AcDbEntity
  8
RACCORDO
100
AcDbPolyline
 62
7
  6
CONTINUOUS
 90
34
 70
0
 10
62.2473452924
 20
22.4401904685
 10
62.2476430188
 20
22.4339488895
 10
62.2484142702
 20
22.4276757784
 10
62.2496646329
 20
22.4213893624
 10
62.2513986802
 20
22.4151153303
 10
62.2536201229
 20
22.408865792
 10
62.2563321429
 20
22.402639308
 10
62.2595366398
 20
22.3964563705
 10
62.2632345643
 20
22.3903367403
 10
62.2674268153
 20
22.3842785838
 10
62.2721122995
 20
22.3783034071
 10
62.2772889414
 20
22.3724319994
 10
62.2829553122
 20
22.3666621775
 10
62.2891070961
 20
22.3610161966
 10
62.2957388785
 20
22.3555157035
 10
62.3028466813
 20
22.3501583677
 10
62.3104226768
 20
22.3449669154
 10
62.3184577588
 20
22.3399636066
 10
62.3269449844
 20
22.3351461926
 10
62.3358726939
 20
22.3305374992
 10
62.3452276726
 20
22.3261600904
 10
62.3549993472
 20
22.3220120424
 10
62.3651718584
 20
22.3181157835
 10
62.3757274455
 20
22.3144937407
 10
62.3866510463
 20
22.3111445045
 10
62.3979221038
 20
22.3080894714
 10
62.4095180283
 20
22.3053502651
 10
62.4214187261
 20
22.3029259837
 10
62.4335855538
 20
22.300839183
 10
62.4460036087
 20
22.299105724
 10
62.4586876028
 20
22.297719603
 10
62.4716223134
 20
22.296696521
 10
62.4847608149
 20
22.2960673312
 10
62.4980682903
 20
22.2958529012
  0
LWPOLYLINE
  5
610
100
AcDbEntity
  8
RACCORDO
100
AcDbPolyline
 62
7
  6
CONTINUOUS
 90
34
 70
0
 10
64.6327837946
 20
-24.0937841277
 10
64.6324860683
 20
-24.0875425486
 10
64.6317148168
 20
-24.0812694375
 10
64.6304644541
 20
-24.0749830215
 10
64.6287304068
 20
-24.0687089894
 10
64.6265089641
 20
-24.0624594511
 10
64.6237969441
 20
-24.0562329671
 10
64.6205924472
 20
-24.0500500297
 10
64.6168945227
 20
-24.0439303995
 10
64.6127022717
 20
-24.037872243
 10
64.6080167875
 20
-24.0318970662
 10
64.6028401456
 20
-24.0260256586
 10
64.5971737748
 20
-24.0202558367
 10
64.5910219909
 20
-24.0146098557
 10
64.5843902085
 20
-24.0091093626
 10
64.5772824057
 20
-24.0037520269
 10
64.5697064102
 20
-23.9985605745
 10
64.5616713282
 20
-23.9935572658
 10
64.5531841026
 20
-23.9887398517
 10
64.5442563931
 20
-23.9841311583
 10
64.5349014144
 20
-23.9797537495
 10
64.5251297398
 20
-23.9756057016
 10
64.5149572286
 20
-23.9717094426
 10
64.5044016415
 20
-23.9680873998
 10
64.4934780407
 20
-23.9647381636
 10
64.4822069832
 20
-23.9616831305
 10
64.4706110587
 20
-23.9589439242
 10
64.4587103609
 20
-23.9565196428
 10
64.4465435332
 20
-23.9544328421
 10
64.4341254783
 20
-23.9526993831
 10
64.4214414842
 20
-23.9513132621
 10
64.4085067736
 20
-23.9502901801
 10
64.3953682721
 20
-23.9496609903
 10
64.3820607967
 20
-23.9494465604
  0
LWPOLYLINE
  5
611
100
AcDbEntity
  8
RACCORDO
100
AcDbPolyline
 62
253
  6
CONTINUOUS
 90
11
 70
0
 10
64.9833151245
 20
-22.2470423465
 10
64.9838835761
 20
-22.2602981253
 10
64.9844598496
 20
-22.2723966746
 10
64.9850439097
 20
-22.2833421819
 10
64.9856335776
 20
-22.2930939003
 10
64.986228892
 20
-22.3016473534
 10
64.9868298143
 20
-22.3090070175
 10
64.987434051
 20
-22.3151455745
 10
64.9880408374
 20
-22.3200539182
 10
64.9886509382
 20
-22.3237411548
 10
64.9892643532
 20
-22.3262072842
  0
LWPOLYLINE
  5
612
100
AcDbEntity
  8
RACCORDO
100
AcDbPolyline
 62
253
  6
CONTINUOUS
 90
8
 70
0
 10
64.48511958
 20
-22.7612080571
 10
64.4857092027
 20
-22.7758391755
 10
64.4863044273
 20
-22.7886780995
 10
64.4869052536
 20
-22.79970938
 10
64.4875094933
 20
-22.8089198054
 10
64.4881164173
 20
-22.8162979304
 10
64.4887267547
 20
-22.8218343433
 10
64.4893405057
 20
-22.8255220515
  0
LWPOLYLINE
  5
613
100
AcDbEntity
  8
RACCORDO
100
AcDbPolyline
 62
253
  6
CONTINUOUS
 90
31
 70
0
 10
62.2531631222
 20
23.0175407377
 10
62.2535416778
 20
23.0062427655
 10
62.2546008054
 20
22.9949724614
 10
62.2563381819
 20
22.9837605916
 10
62.2587498833
 20
22.9726367825
 10
62.2618297536
 20
22.9616325304
 10
62.2655688046
 20
22.9507809906
 10
62.269956349
 20
22.9401128676
 10
62.274980748
 20
22.9296561943
 10
62.2806284286
 20
22.9194392755
 10
62.2868841212
 20
22.9094898704
 10
62.2937306958
 20
22.8998353458
 10
62.301149304
 20
22.8905023224
 10
62.3091196081
 20
22.8815163722
 10
62.3176199029
 20
22.872901953
 10
62.3266269934
 20
22.8646825746
 10
62.336116297
 20
22.856880678
 10
62.3460618841
 20
22.8495175897
 10
62.356436567
 20
22.8426134409
 10
62.3672119994
 20
22.8361870943
 10
62.3783587574
 20
22.8302560973
 10
62.3898463945
 20
22.82483665
 10
62.4016435512
 20
22.819943548
 10
62.4137179876
 20
22.8155901649
 10
62.4260366672
 20
22.8117884076
 10
62.4385659026
 20
22.8085486611
 10
62.4512715054
 20
22.8058797547
 10
62.4641188262
 20
22.8037889622
 10
62.4770727935
 20
22.8022819923
 10
62.4900980073
 20
22.8013629639
 10
62.5031588914
 20
22.8010343868
  0
LWPOLYLINE
  5
614
100
AcDbEntity
  8
RACCORDO
100
AcDbPolyline
 62
253
  6
CONTINUOUS
 90
31
 70
0
 10
64.6269659648
 20
-24.6711343969
 10
64.6265866331
 20
-24.6598242463
 10
64.6255256511
 20
-24.6485449815
 10
64.6237859162
 20
-24.6373274036
 10
64.6213721793
 20
-24.6262021455
 10
64.6182910317
 20
-24.615199588
 10
64.6145508875
 20
-24.6043497767
 10
64.6101619601
 20
-24.5936823403
 10
64.6051362348
 20
-24.5832264092
 10
64.5994874358
 20
-24.5730105364
 10
64.5932309888
 20
-24.5630626194
 10
64.5863839789
 20
-24.5534098237
 10
64.5789651038
 20
-24.5440785092
 10
64.5709946229
 20
-24.5350941578
 10
64.5624943018
 20
-24.5264813037
 10
64.5534873533
 20
-24.518263467
 10
64.5439983734
 20
-24.5104630888
 10
64.5340532745
 20
-24.5031014702
 10
64.5236792146
 20
-24.4961987144
 10
64.5129045231
 20
-24.4897736714
 10
64.5017586234
 20
-24.4838438865
 10
64.4902719526
 20
-24.4784255528
 10
64.4784758784
 20
-24.4735334666
 10
64.4664026135
 20
-24.4691809872
 10
64.4540851273
 20
-24.4653800002
 10
64.4415570565
 20
-24.4621408855
 10
64.4288526124
 20
-24.4594724882
 10
64.4160064883
 20
-24.4573820953
 10
64.4030537642
 20
-24.4558754153
 10
64.3900298114
 20
-24.4549565624
 10
64.3769701956
 20
-24.4546280459
  0
LINE
  5
615
100
AcDbEntity
  8
RACCORDO
100
AcDbLine
 62
253
  6
CONTINUOUS
 10
64.483959327
 20
-22.7266447747
 11
64.48511958
 21
-22.7612080571
  0
LINE
  5
616
100
AcDbEntity
  8
RACCORDO
100
AcDbLine
 62
253
  6
CONTINUOUS
 10
64.4828303107
 20
-22.685161297
 11
64.483959327
 21
-22.7266447747
  0
LWPOLYLINE
  5
617
100
AcDbEntity
  8
RACCORDO
100
AcDbPolyline
 62
253
  6
CONTINUOUS
 90
3
 70
0
 10
64.4806884911
 20
-22.5822857294
 10
64.4812076776
 20
-22.610417503
 10
64.4828303107
 20
-22.685161297
  0
LINE
  5
618
100
AcDbEntity
  8
RACCORDO
100
AcDbLine
 62
253
  6
CONTINUOUS
 10
62.5031588914
 20
-24.4546280459
 11
62.4980682903
 21
-23.9494465604
  0
LINE
  5
619
100
AcDbEntity
  8
RACCORDO
100
AcDbLine
 62
7
  6
CONTINUOUS
 10
62.2400645435
 20
-23.2267968296
 11
62.2400645435
 21
-25.0768010603
  0
LINE
  5
61A
100
AcDbEntity
  8
RACCORDO
100
AcDbLine
 62
7
  6
CONTINUOUS
 10
62.2400645435
 20
21.5732031704
 11
62.2400645435
 21
23.4232074012
  0
LINE
  5
61B
100
AcDbEntity
  8
RACCORDO
100
AcDbLine
 62
253
  6
CONTINUOUS
 10
62.2473452924
 20
-24.0937841277
 11
62.2473452924
 21
-23.1612108819
  0
LINE
  5
61C
100
AcDbEntity
  8
RACCORDO
100
AcDbLine
 62
253
  6
CONTINUOUS
 10
62.2473452924
 20
21.5076172227
 11
62.2473452924
 21
22.4401904685
  0
LINE
  5
61D
100
AcDbEntity
  8
RACCORDO
100
AcDbLine
 62
253
  6
CONTINUOUS
 10
62.2531631222
 20
23.4101088225
 11
62.2531631222
 21
23.0175407377
  0
LINE
  5
61E
100
AcDbEntity
  8
RACCORDO
100
AcDbLine
 62
253
  6
CONTINUOUS
 10
62.2531631222
 20
-24.6711343969
 11
62.2531631222
 21
-25.0637024816
  0
LINE
  5
61F
100
AcDbEntity
  8
RACCORDO
100
AcDbLine
 62
253
  6
CONTINUOUS
 10
62.4973410616
 20
-23.9494465604
 11
62.4973410616
 21
-23.1481851606
  0
LINE
  5
620
100
AcDbEntity
  8
RACCORDO
100
AcDbLine
 62
253
  6
CONTINUOUS
 10
62.4973410616
 20
21.4945915015
 11
62.4973410616
 21
22.2958529012
  0
LINE
  5
621
100
AcDbEntity
  8
RACCORDO
100
AcDbLine
 62
253
  6
CONTINUOUS
 10
62.5031588914
 20
-24.4546280459
 11
62.5031588914
 21
-25.3136982508
  0
LINE
  5
622
100
AcDbEntity
  8
RACCORDO
100
AcDbLine
 62
253
  6
CONTINUOUS
 10
62.5031588914
 20
22.8010343868
 11
62.5031588914
 21
23.6601045917
  0
LINE
  5
623
100
AcDbEntity
  8
RACCORDO
100
AcDbLine
 62
253
  6
CONTINUOUS
 10
62.4980682903
 20
22.2958529012
 11
62.5031588914
 21
22.8010343868
  0
LINE
  5
624
100
AcDbEntity
  8
RACCORDO
100
AcDbLine
 62
253
  6
CONTINUOUS
 10
64.482830324
 20
21.0315678586
 11
64.4812076907
 21
20.9568240931
  0
LINE
  5
625
100
AcDbEntity
  8
RACCORDO
100
AcDbLine
 62
253
  6
CONTINUOUS
 10
64.4839593402
 20
21.0730512913
 11
64.482830324
 21
21.0315678586
  0
LWPOLYLINE
  5
626
100
AcDbEntity
  8
RACCORDO
100
AcDbPolyline
 62
253
  6
CONTINUOUS
 90
31
 70
0
 10
62.2531631222
 20
-24.6711343969
 10
62.2535424539
 20
-24.6598242463
 10
62.2546034359
 20
-24.6485449815
 10
62.2563431708
 20
-24.6373274036
 10
62.2587569077
 20
-24.6262021455
 10
62.2618380553
 20
-24.615199588
 10
62.2655781995
 20
-24.6043497767
 10
62.2699671269
 20
-24.5936823403
 10
62.2749928522
 20
-24.5832264092
 10
62.2806416512
 20
-24.5730105364
 10
62.2868980982
 20
-24.5630626194
 10
62.2937451081
 20
-24.5534098237
 10
62.3011639832
 20
-24.5440785092
 10
62.3091344641
 20
-24.5350941578
 10
62.3176347852
 20
-24.5264813037
 10
62.3266417337
 20
-24.518263467
 10
62.3361307136
 20
-24.5104630888
 10
62.3460758125
 20
-24.5031014702
 10
62.3564498724
 20
-24.4961987144
 10
62.3672245639
 20
-24.4897736714
 10
62.3783704636
 20
-24.4838438865
 10
62.3898571344
 20
-24.4784255528
 10
62.4016532086
 20
-24.4735334666
 10
62.4137264735
 20
-24.4691809872
 10
62.4260439597
 20
-24.4653800002
 10
62.4385720306
 20
-24.4621408855
 10
62.4512764746
 20
-24.4594724882
 10
62.4641225987
 20
-24.4573820953
 10
62.4770753228
 20
-24.4558754153
 10
62.4900992756
 20
-24.4549565624
 10
62.5031588914
 20
-24.4546280459
  0
LWPOLYLINE
  5
627
100
AcDbEntity
  8
RACCORDO
100
AcDbPolyline
 62
253
  6
CONTINUOUS
 90
31
 70
0
 10
64.6269659648
 20
23.0175407377
 10
64.6265874092
 20
23.0062427655
 10
64.6255282816
 20
22.9949724614
 10
64.6237909051
 20
22.9837605916
 10
64.6213792037
 20
22.9726367825
 10
64.6182993334
 20
22.9616325304
 10
64.6145602824
 20
22.9507809906
 10
64.610172738
 20
22.9401128676
 10
64.605148339
 20
22.9296561943
 10
64.5995006584
 20
22.9194392755
 10
64.5932449658
 20
22.9094898704
 10
64.5863983912
 20
22.8998353458
 10
64.578979783
 20
22.8905023224
 10
64.5710094789
 20
22.8815163722
 10
64.5625091841
 20
22.872901953
 10
64.5535020936
 20
22.8646825746
 10
64.54401279
 20
22.856880678
 10
64.5340672029
 20
22.8495175897
 10
64.52369252
 20
22.8426134409
 10
64.5129170876
 20
22.8361870943
 10
64.5017703296
 20
22.8302560973
 10
64.4902826925
 20
22.82483665
 10
64.4784855358
 20
22.819943548
 10
64.4664110994
 20
22.8155901649
 10
64.4540924198
 20
22.8117884076
 10
64.4415631844
 20
22.8085486611
 10
64.4288575816
 20
22.8058797547
 10
64.4160102608
 20
22.8037889622
 10
64.4030562935
 20
22.8022819923
 10
64.3900310797
 20
22.8013629639
 10
64.3769701956
 20
22.8010343868
  0
LWPOLYLINE
  5
628
100
AcDbEntity
  8
RACCORDO
100
AcDbPolyline
 62
7
  6
CONTINUOUS
 90
34
 70
0
 10
62.2473452924
 20
-24.0937841277
 10
62.2476430188
 20
-24.0875425486
 10
62.2484142702
 20
-24.0812694375
 10
62.2496646329
 20
-24.0749830215
 10
62.2513986802
 20
-24.0687089894
 10
62.2536201229
 20
-24.0624594511
 10
62.2563321429
 20
-24.0562329671
 10
62.2595366398
 20
-24.0500500297
 10
62.2632345643
 20
-24.0439303995
 10
62.2674268153
 20
-24.037872243
 10
62.2721122995
 20
-24.0318970662
 10
62.2772889414
 20
-24.0260256586
 10
62.2829553122
 20
-24.0202558367
 10
62.2891070961
 20
-24.0146098557
 10
62.2957388785
 20
-24.0091093626
 10
62.3028466813
 20
-24.0037520269
 10
62.3104226768
 20
-23.9985605745
 10
62.3184577588
 20
-23.9935572658
 10
62.3269449844
 20
-23.9887398517
 10
62.3358726939
 20
-23.9841311583
 10
62.3452276726
 20
-23.9797537495
 10
62.3549993472
 20
-23.9756057016
 10
62.3651718584
 20
-23.9717094426
 10
62.3757274455
 20
-23.9680873998
 10
62.3866510463
 20
-23.9647381636
 10
62.3979221038
 20
-23.9616831305
 10
62.4095180283
 20
-23.9589439242
 10
62.4214187261
 20
-23.9565196428
 10
62.4335855538
 20
-23.9544328421
 10
62.4460036087
 20
-23.9526993831
 10
62.4586876028
 20
-23.9513132621
 10
62.4716223134
 20
-23.9502901801
 10
62.4847608149
 20
-23.9496609903
 10
62.4980682903
 20
-23.9494465604
  0
LINE
  5
629
100
AcDbEntity
  8
RACCORDO
100
AcDbLine
 62
7
  6
CONTINUOUS
 10
64.6327837946
 20
21.5066141318
 11
64.6400645435
 21
21.5729112476
  0
LINE
  5
62A
100
AcDbEntity
  8
RACCORDO
100
AcDbLine
 62
253
  6
CONTINUOUS
 10
43.3400645435
 20
23.4232074012
 11
43.3531631222
 21
23.4101088225
  0
LINE
  5
62B
100
AcDbEntity
  8
RACCORDO
100
AcDbLine
 62
253
  6
CONTINUOUS
 10
43.5900603127
 20
23.6732031704
 11
43.6031588914
 21
23.6601045917
  0
LINE
  5
62C
100
AcDbEntity
  8
RACCORDO
100
AcDbLine
 62
253
  6
CONTINUOUS
 10
64.9822036528
 20
-22.2171249728
 11
64.9833151245
 21
-22.2470423465
  0
LINE
  5
62D
100
AcDbEntity
  8
RACCORDO
100
AcDbLine
 62
253
  6
CONTINUOUS
 10
64.9811316859
 20
-22.1828005186
 11
64.9822036528
 21
-22.2171249728
  0
LWPOLYLINE
  5
62E
100
AcDbEntity
  8
RACCORDO
100
AcDbPolyline
 62
253
  6
CONTINUOUS
 90
31
 70
0
 10
64.6269659648
 20
23.4101088225
 10
64.6266229262
 20
23.4231923085
 10
64.6255956363
 20
23.4362399351
 10
64.6238869108
 20
23.4492159412
 10
64.6215014328
 20
23.4620847621
 10
64.6184457406
 20
23.4748111266
 10
64.6147282092
 20
23.4873601543
 10
64.6103590277
 20
23.4996974506
 10
64.6053501712
 20
23.5117892012
 10
64.5997153681
 20
23.523602265
 10
64.5934700622
 20
23.5351042646
 10
64.5866313707
 20
23.5462636751
 10
64.5792180374
 20
23.5570499107
 10
64.5712503806
 20
23.5674334083
 10
64.5627502383
 20
23.5773857088
 10
64.5537409078
 20
23.5868795347
 10
64.5442470819
 20
23.5958888653
 10
64.5342947814
 20
23.6043890076
 10
64.5239112838
 20
23.6123566643
 10
64.5131250482
 20
23.6197699977
 10
64.5019656377
 20
23.6266086891
 10
64.4904636381
 20
23.632853995
 10
64.4786505743
 20
23.6384887982
 10
64.4665588236
 20
23.6434976547
 10
64.4542215274
 20
23.6478668361
 10
64.4416724997
 20
23.6515843675
 10
64.4289461351
 20
23.6546400597
 10
64.4160773143
 20
23.6570255377
 10
64.4031013082
 20
23.6587342633
 10
64.3900536816
 20
23.6597615531
 10
64.3769701956
 20
23.6601045917
  0
LWPOLYLINE
  5
62F
100
AcDbEntity
  8
RACCORDO
100
AcDbPolyline
 62
253
  6
CONTINUOUS
 90
34
 70
0
 10
64.9892643532
 20
20.672613625
 10
64.9886770533
 20
20.6963581746
 10
64.9869599111
 20
20.7200489983
 10
64.9841168119
 20
20.7436324911
 10
64.9801541888
 20
20.767055291
 10
64.9750810078
 20
20.7902643995
 10
64.9689087478
 20
20.8132073018
 10
64.9616513747
 20
20.835832085
 10
64.9533253095
 20
20.8580875565
 10
64.9439493914
 20
20.8799233591
 10
64.9335448352
 20
20.901290085
 10
64.922135183
 20
20.9221393881
 10
64.9097462511
 20
20.9424240927
 10
64.8964060719
 20
20.962098301
 10
64.8821448299
 20
20.9811174963
 10
64.8669947937
 20
20.999438644
 10
64.8509902432
 20
21.0170202889
 10
64.8341673916
 20
21.0338226493
 10
64.8165643037
 20
21.0498077066
 10
64.7982208097
 20
21.0649392914
 10
64.7791784153
 20
21.0791831656
 10
64.7594802075
 20
21.0925070998
 10
64.7391707572
 20
21.1048809458
 10
64.7182960182
 20
21.1162767055
 10
64.6969032238
 20
21.1266685938
 10
64.675040779
 20
21.1360330969
 10
64.6527581519
 20
21.1443490258
 10
64.6301057612
 20
21.1515975642
 10
64.6071348621
 20
21.1577623107
 10
64.5838974307
 20
21.1628293164
 10
64.5604460462
 20
21.1667871163
 10
64.5368337719
 20
21.169626755
 10
64.5131140349
 20
21.1713418072
 10
64.4893405057
 20
21.1719283924
  0
LINE
  5
630
100
AcDbEntity
  8
RACCORDO
100
AcDbLine
 62
253
  6
CONTINUOUS
 10
64.9796095521
 20
-22.1234512235
 11
64.9811316859
 21
-22.1828005186
  0
LWPOLYLINE
  5
631
100
AcDbEntity
  8
RACCORDO
100
AcDbPolyline
 62
7
  6
CONTINUOUS
 90
34
 70
0
 10
64.6400645435
 20
23.4232074012
 10
64.6397813933
 20
23.4351026865
 10
64.6389325777
 20
23.446971026
 10
64.6375200177
 20
23.4587855366
 10
64.6355469112
 20
23.4705194579
 10
64.6330177252
 20
23.4821462092
 10
64.6299381852
 20
23.4936394494
 10
64.6263152648
 20
23.5049731442
 10
64.6221571693
 20
23.5161216197
 10
64.6174733157
 20
23.5270596167
 10
64.6122743123
 20
23.537762358
 10
64.6065719351
 20
23.5482055987
 10
64.6003791016
 20
23.5583656763
 10
64.593709839
 20
23.5682195756
 10
64.5865792542
 20
23.5777449743
 10
64.5790035024
 20
23.5869202895
 10
64.570999744
 20
23.5957247365
 10
64.5625861096
 20
23.6041383709
 10
64.5537816626
 20
23.6121421293
 10
64.5446063473
 20
23.6197178811
 10
64.5350809486
 20
23.6268484659
 10
64.5252270494
 20
23.6335177286
 10
64.5150669718
 20
23.6397105621
 10
64.5046237311
 20
23.6454129393
 10
64.4939209898
 20
23.6506119426
 10
64.4829829928
 20
23.6552957962
 10
64.4718345173
 20
23.6594538918
 10
64.4605008225
 20
23.6630768121
 10
64.4490075823
 20
23.6661563522
 10
64.437380831
 20
23.6686855382
 10
64.4256469096
 20
23.6706586446
 10
64.4138323991
 20
23.6720712047
 10
64.4019640595
 20
23.6729200202
 10
64.3900687743
 20
23.6732031704
  0
LINE
  5
632
100
AcDbEntity
  8
RACCORDO
100
AcDbLine
 62
253
  6
CONTINUOUS
 10
64.9777658716
 20
-22.0306852858
 11
64.9796095521
 21
-22.1234512235
  0
LINE
  5
633
100
AcDbEntity
  8
RACCORDO
100
AcDbLine
 62
253
  6
CONTINUOUS
 10
64.4782812536
 20
-22.4191060196
 11
64.4806884911
 21
-22.5822857294
  0
LINE
  5
634
100
AcDbEntity
  8
RACCORDO
100
AcDbLine
 62
253
  6
CONTINUOUS
 10
64.975809791
 20
-21.895401535
 11
64.9777658716
 21
-22.0306852858
  0
LINE
  5
635
100
AcDbEntity
  8
RACCORDO
100
AcDbLine
 62
253
  6
CONTINUOUS
 10
64.3769701956
 20
22.8010343868
 11
64.3820607967
 21
22.2958529012
  0
LINE
  5
636
100
AcDbEntity
  8
RACCORDO
100
AcDbLine
 62
253
  6
CONTINUOUS
 10
64.6269659648
 20
23.0175407377
 11
64.6327837946
 21
22.4401904685
  0
LINE
  5
637
100
AcDbEntity
  8
RACCORDO
100
AcDbLine
 62
253
  6
CONTINUOUS
 10
64.4755465986
 20
-22.1354158183
 11
64.4782812536
 21
-22.4191060196
  0
LINE
  5
638
100
AcDbEntity
  8
RACCORDO
100
AcDbLine
 62
253
  6
CONTINUOUS
 10
64.9740522721
 20
-21.7103614945
 11
64.975809791
 21
-21.895401535
  0
LINE
  5
639
100
AcDbEntity
  8
RACCORDO
100
AcDbLine
 62
253
  6
CONTINUOUS
 10
64.4733510101
 20
-21.7018367739
 11
64.4755465986
 21
-22.1354158183
  0
LINE
  5
63A
100
AcDbEntity
  8
RACCORDO
100
AcDbLine
 62
253
  6
CONTINUOUS
 10
64.9729100503
 20
-21.4736544603
 11
64.9740522721
 21
-21.7103614945
  0
LWPOLYLINE
  5
63B
100
AcDbEntity
  8
RACCORDO
100
AcDbPolyline
 62
253
  6
CONTINUOUS
 90
4
 70
0
 10
64.4692012578
 20
-15.5163032064
 10
64.4702716522
 20
-17.4742226971
 10
64.4714758113
 20
-19.4318866957
 10
64.4733510101
 20
-21.7018367739
  0
LWPOLYLINE
  5
63C
100
AcDbEntity
  8
RACCORDO
100
AcDbPolyline
 62
253
  6
CONTINUOUS
 90
3
 70
0
 10
64.9691251059
 20
-15.5016148342
 10
64.9701955003
 20
-17.4575361638
 10
64.9729100503
 20
-21.4736544603
  0
LINE
  5
63D
100
AcDbEntity
  8
RACCORDO
100
AcDbLine
 62
253
  6
CONTINUOUS
 10
64.4667926625
 20
-9.6413123173
 11
64.4692012578
 21
-15.5163032064
  0
LINE
  5
63E
100
AcDbEntity
  8
RACCORDO
100
AcDbLine
 62
253
  6
CONTINUOUS
 10
64.9667165103
 20
-9.6324985718
 11
64.9691251059
 21
-15.5016148342
  0
LINE
  5
63F
100
AcDbEntity
  8
RACCORDO
100
AcDbLine
 62
253
  6
CONTINUOUS
 10
64.4655882817
 20
-3.7651039316
 11
64.4667926625
 21
-9.6413123173
  0
LINE
  5
640
100
AcDbEntity
  8
RACCORDO
100
AcDbLine
 62
253
  6
CONTINUOUS
 10
64.9655121293
 20
-3.7621660293
 11
64.9667165103
 21
-9.6324985718
  0
LINE
  5
641
100
AcDbEntity
  8
RACCORDO
100
AcDbLine
 62
253
  6
CONTINUOUS
 10
64.3769701956
 20
-24.4546280459
 11
64.3769701956
 21
-25.3136982508
  0
LINE
  5
642
100
AcDbEntity
  8
RACCORDO
100
AcDbLine
 62
253
  6
CONTINUOUS
 10
64.3769701956
 20
22.8010343868
 11
64.3769701956
 21
23.6601045917
  0
LINE
  5
643
100
AcDbEntity
  8
RACCORDO
100
AcDbLine
 62
253
  6
CONTINUOUS
 10
64.3827880254
 20
-23.9494465604
 11
64.3827880254
 21
-23.1481851606
  0
LINE
  5
644
100
AcDbEntity
  8
RACCORDO
100
AcDbLine
 62
253
  6
CONTINUOUS
 10
64.3827880254
 20
21.4945915015
 11
64.3827880254
 21
22.2958529012
  0
LINE
  5
645
100
AcDbEntity
  8
RACCORDO
100
AcDbLine
 62
253
  6
CONTINUOUS
 10
64.6269659648
 20
-25.0637024816
 11
64.6269659648
 21
-24.6711343969
  0
LINE
  5
646
100
AcDbEntity
  8
RACCORDO
100
AcDbLine
 62
253
  6
CONTINUOUS
 10
64.6269659648
 20
23.0175407377
 11
64.6269659648
 21
23.4101088225
  0
LINE
  5
647
100
AcDbEntity
  8
RACCORDO
100
AcDbLine
 62
253
  6
CONTINUOUS
 10
64.6327837946
 20
-24.0937841277
 11
64.6327837946
 21
-23.160207791
  0
LINE
  5
648
100
AcDbEntity
  8
RACCORDO
100
AcDbLine
 62
253
  6
CONTINUOUS
 10
64.6327837946
 20
21.5066141318
 11
64.6327837946
 21
22.4401904685
  0
LINE
  5
649
100
AcDbEntity
  8
RACCORDO
100
AcDbLine
 62
7
  6
CONTINUOUS
 10
64.6400645435
 20
-23.2264867975
 11
64.6400645435
 21
-25.0768010603
  0
LINE
  5
64A
100
AcDbEntity
  8
RACCORDO
100
AcDbLine
 62
7
  6
CONTINUOUS
 10
64.6400645435
 20
21.5728931384
 11
64.6400645435
 21
23.4232074012
  0
LINE
  5
64B
100
AcDbEntity
  8
ASSI
100
AcDbLine
 62
7
  6
CONTINUOUS
 10
65.1400645435
 20
16.8449022192
 11
65.1400645435
 21
-18.4984958783
  0
LINE
  5
64C
100
AcDbEntity
  8
RACCORDO
100
AcDbLine
 62
7
  6
CONTINUOUS
 10
65.1400645435
 20
-22.7179747702
 11
65.1400645435
 21
21.064381111
  0
LINE
  5
64D
100
AcDbEntity
  8
RACCORDO
100
AcDbLine
 62
253
  6
CONTINUOUS
 10
64.4655882817
 20
2.1115102727
 11
64.4655882817
 21
-3.7651039316
  0
LINE
  5
64E
100
AcDbEntity
  8
RACCORDO
100
AcDbLine
 62
253
  6
CONTINUOUS
 10
64.9655121293
 20
2.1085719267
 11
64.9655121293
 21
-3.7621660293
  0
LINE
  5
64F
100
AcDbEntity
  8
RACCORDO
100
AcDbLine
 62
253
  6
CONTINUOUS
 10
64.4682646157
 20
11.9045646209
 11
64.4655882817
 21
2.1115102727
  0
LINE
  5
650
100
AcDbEntity
  8
RACCORDO
100
AcDbLine
 62
253
  6
CONTINUOUS
 10
64.9681884636
 20
11.8918439129
 11
64.9655121293
 21
2.1085719267
  0
LINE
  5
651
100
AcDbEntity
  8
RACCORDO
100
AcDbLine
 62
253
  6
CONTINUOUS
 10
64.4741286834
 20
20.2482354368
 11
64.4682646157
 21
11.9045646209
  0
LINE
  5
652
100
AcDbEntity
  8
RACCORDO
100
AcDbLine
 62
253
  6
CONTINUOUS
 10
64.9734382879
 20
19.9573456574
 11
64.9681884636
 21
11.8918439129
  0
LINE
  5
653
100
AcDbEntity
  8
RACCORDO
100
AcDbLine
 62
253
  6
CONTINUOUS
 10
64.4766185324
 20
20.6104478627
 11
64.4741286834
 21
20.2482354368
  0
LINE
  5
654
100
AcDbEntity
  8
RACCORDO
100
AcDbLine
 62
253
  6
CONTINUOUS
 10
64.9748458811
 20
20.1519612054
 11
64.9734382879
 21
19.9573456574
  0
LINE
  5
655
100
AcDbEntity
  8
RACCORDO
100
AcDbLine
 62
253
  6
CONTINUOUS
 10
64.3820607967
 20
-23.9494465604
 11
64.3769701956
 21
-24.4546280459
  0
LINE
  5
656
100
AcDbEntity
  8
RACCORDO
100
AcDbLine
 62
253
  6
CONTINUOUS
 10
64.6327837946
 20
-24.0937841277
 11
64.6269659648
 21
-24.6711343969
  0
LINE
  5
657
100
AcDbEntity
  8
RACCORDO
100
AcDbLine
 62
253
  6
CONTINUOUS
 10
64.9765423868
 20
20.298293797
 11
64.9748458811
 21
20.1519612054
  0
LINE
  5
658
100
AcDbEntity
  8
RACCORDO
100
AcDbLine
 62
253
  6
CONTINUOUS
 10
64.4792038496
 20
20.8351319953
 11
64.4766185324
 21
20.6104478627
  0
LINE
  5
659
100
AcDbEntity
  8
RACCORDO
100
AcDbLine
 62
253
  6
CONTINUOUS
 10
64.9782052638
 20
20.4016665986
 11
64.9765423868
 21
20.298293797
  0
LINE
  5
65A
100
AcDbEntity
  8
RACCORDO
100
AcDbLine
 62
253
  6
CONTINUOUS
 10
64.4812076907
 20
20.9568240931
 11
64.4792038496
 21
20.8351319953
  0
LWPOLYLINE
  5
65B
100
AcDbEntity
  8
RACCORDO
100
AcDbPolyline
 62
7
  6
CONTINUOUS
 90
27
 70
0
 10
65.1226476411
 20
-22.7266825581
 10
65.1222154053
 20
-22.7472844724
 10
65.1209321262
 20
-22.7678886914
 10
65.1187953502
 20
-22.7884598313
 10
65.1158046076
 20
-22.8089590935
 10
65.1119601669
 20
-22.829353832
 10
65.107261746
 20
-22.8496173694
 10
65.1017138233
 20
-22.8697063661
 10
65.0953188539
 20
-22.8895915109
 10
65.0880709368
 20
-22.9092655818
 10
65.0799723908
 20
-22.928693194
 10
65.071029324
 20
-22.9478334667
 10
65.0612377074
 20
-22.9666681729
 10
65.0505943907
 20
-22.9851728691
 10
65.0391154655
 20
-23.0032912161
 10
65.0268293751
 20
-23.0209577421
 10
65.0137459109
 20
-23.0381414637
 10
64.9998870791
 20
-23.0547974886
 10
64.9853115062
 20
-23.0708469462
 10
64.9700422315
 20
-23.0862615648
 10
64.9541096235
 20
-23.1010079065
 10
64.9375973418
 20
-23.1150125226
 10
64.9205687598
 20
-23.1282343915
 10
64.9030343585
 20
-23.1406776234
 10
64.8850031333
 20
-23.1523423806
 10
64.8665224443
 20
-23.1632029532
 10
64.8460785313
 20
-23.1740221743
  0
LINE
  5
65C
100
AcDbEntity
  8
RACCORDO
100
AcDbLine
 62
253
  6
CONTINUOUS
 10
64.9796098106
 20
20.4698688276
 11
64.9782052638
 21
20.4016665986
  0
LWPOLYLINE
  5
65D
100
AcDbEntity
  8
RACCORDO
100
AcDbPolyline
 62
253
  6
CONTINUOUS
 90
34
 70
0
 10
64.9892643532
 20
-22.3262072842
 10
64.9886770528
 20
-22.3499518427
 10
64.9869599094
 20
-22.3736426747
 10
64.9841168083
 20
-22.3972261752
 10
64.9801541826
 20
-22.420648982
 10
64.9750809985
 20
-22.4438580967
 10
64.968908735
 20
-22.4668010043
 10
64.961651358
 20
-22.4894257921
 10
64.9533252888
 20
-22.5116812673
 10
64.9439493665
 20
-22.5335170727
 10
64.9335448061
 20
-22.5548838006
 10
64.9221351497
 20
-22.5757331048
 10
64.9097462139
 20
-22.5960178098
 10
64.8964060309
 20
-22.6156920176
 10
64.8821447855
 20
-22.6347112117
 10
64.8669947465
 20
-22.6530323576
 10
64.8509901935
 20
-22.6706140001
 10
64.83416734
 20
-22.6874163576
 10
64.8165642508
 20
-22.7034014114
 10
64.7982207563
 20
-22.7185329925
 10
64.7791783619
 20
-22.7327768628
 10
64.7594801548
 20
-22.7461007928
 10
64.7391707059
 20
-22.7584746346
 10
64.718295969
 20
-22.76987039
 10
64.6969031773
 20
-22.7802622741
 10
64.675040736
 20
-22.7896267733
 10
64.6527581128
 20
-22.7979426985
 10
64.6301057266
 20
-22.8051912335
 10
64.6071348325
 20
-22.811355977
 10
64.5838974065
 20
-22.8164229803
 10
64.5604460278
 20
-22.8203807781
 10
64.5368337594
 20
-22.8232204153
 10
64.5131140286
 20
-22.8249354667
 10
64.4893405057
 20
-22.8255220515
  0
LINE
  5
65E
100
AcDbEntity
  8
RACCORDO
100
AcDbLine
 62
253
  6
CONTINUOUS
 10
64.9811319525
 20
20.5292160948
 11
64.9796098106
 21
20.4698688276
  0
LINE
  5
65F
100
AcDbEntity
  8
RACCORDO
100
AcDbLine
 62
253
  6
CONTINUOUS
 10
64.9822039228
 20
20.5635392348
 11
64.9811319525
 21
20.5292160948
  0
LINE
  5
660
100
AcDbEntity
  8
RACCORDO
100
AcDbLine
 62
7
  6
CONTINUOUS
 10
62.2400645435
 20
-23.2267968296
 11
62.2473452924
 21
-23.1612108819
  0
LINE
  5
661
100
AcDbEntity
  8
RACCORDO
100
AcDbLine
 62
253
  6
CONTINUOUS
 10
43.3400645435
 20
-25.0768010603
 11
43.3531631222
 21
-25.0637024816
  0
LINE
  5
662
100
AcDbEntity
  8
RACCORDO
100
AcDbLine
 62
253
  6
CONTINUOUS
 10
43.5900603127
 20
-25.3267968296
 11
43.6031588914
 21
-25.3136982508
  0
LINE
  5
663
100
AcDbEntity
  8
RACCORDO
100
AcDbLine
 62
7
  6
CONTINUOUS
 10
62.2400645435
 20
21.5732031704
 11
62.2473452924
 21
21.5076172227
  0
LINE
  5
664
100
AcDbEntity
  8
RACCORDO
100
AcDbLine
 62
7
  6
CONTINUOUS
 10
49.5929903817
 20
22.9702773322
 11
49.5900645435
 21
22.9732031704
  0
LINE
  5
665
100
AcDbEntity
  8
RACCORDO
100
AcDbLine
 62
7
  6
CONTINUOUS
 10
49.5929903817
 20
-24.6238709914
 11
49.5900645435
 21
-24.6267968296
  0
LINE
  5
666
100
AcDbEntity
  8
RACCORDO
100
AcDbLine
 62
7
  6
CONTINUOUS
 10
49.9651162234
 20
22.8483828502
 11
49.9935063597
 21
22.8309843715
  0
LINE
  5
667
100
AcDbEntity
  8
RACCORDO
100
AcDbLine
 62
7
  6
CONTINUOUS
 10
49.9935063597
 20
22.8309843715
 11
50.0362257282
 21
22.8043570166
  0
LINE
  5
668
100
AcDbEntity
  8
RACCORDO
100
AcDbLine
 62
7
  6
CONTINUOUS
 10
50.0362257282
 20
22.8043570166
 11
50.0929819201
 21
22.7685455219
  0
LINE
  5
669
100
AcDbEntity
  8
RACCORDO
100
AcDbLine
 62
7
  6
CONTINUOUS
 10
50.021973953
 20
-24.4668725712
 11
50.0929819201
 21
-24.422139181
  0
LINE
  5
66A
100
AcDbEntity
  8
RACCORDO
100
AcDbLine
 62
7
  6
CONTINUOUS
 10
49.9935063597
 20
-24.4845780307
 11
50.021973953
 21
-24.4668725712
  0
LINE
  5
66B
100
AcDbEntity
  8
RACCORDO
100
AcDbLine
 62
253
  6
CONTINUOUS
 10
43.3455303718
 20
19.7344492776
 11
43.4137277621
 21
19.7352409548
  0
LINE
  5
66C
100
AcDbEntity
  8
RACCORDO
100
AcDbLine
 62
253
  6
CONTINUOUS
 10
43.4137277621
 20
19.7352409548
 11
43.4837883284
 21
19.7356318381
  0
LINE
  5
66D
100
AcDbEntity
  8
RACCORDO
100
AcDbLine
 62
253
  6
CONTINUOUS
 10
64.4963407627
 20
19.7356318448
 11
43.4837883284
 21
19.7356318381
  0
LINE
  5
66E
100
AcDbEntity
  8
RACCORDO
100
AcDbLine
 62
253
  6
CONTINUOUS
 10
64.5664013413
 20
19.7352409612
 11
64.4963407627
 21
19.7356318448
  0
LINE
  5
66F
100
AcDbEntity
  8
RACCORDO
100
AcDbLine
 62
253
  6
CONTINUOUS
 10
64.6345987427
 20
19.7344492836
 11
64.5664013413
 21
19.7352409612
  0
LINE
  5
670
100
AcDbEntity
  8
RACCORDO
100
AcDbLine
 62
253
  6
CONTINUOUS
 10
43.1325722502
 20
19.7284530035
 11
43.1653478802
 21
19.7298649526
  0
LINE
  5
671
100
AcDbEntity
  8
RACCORDO
100
AcDbLine
 62
253
  6
CONTINUOUS
 10
43.1653478802
 20
19.7298649526
 11
43.2011520896
 21
19.7311462182
  0
LINE
  5
672
100
AcDbEntity
  8
RACCORDO
100
AcDbLine
 62
253
  6
CONTINUOUS
 10
43.2011520896
 20
19.7311462182
 11
43.2396677844
 21
19.7322854529
  0
LINE
  5
673
100
AcDbEntity
  8
RACCORDO
100
AcDbLine
 62
253
  6
CONTINUOUS
 10
43.2396677844
 20
19.7322854529
 11
43.2805538564
 21
19.7332725674
  0
LWPOLYLINE
  5
674
100
AcDbEntity
  8
RACCORDO
100
AcDbPolyline
 62
253
  6
CONTINUOUS
 90
3
 70
0
 10
43.2805538564
 20
19.7332725674
 10
43.3234482049
 20
19.7340988193
 10
43.3455303718
 20
19.7344492776
  0
LINE
  5
675
100
AcDbEntity
  8
RACCORDO
100
AcDbLine
 62
253
  6
CONTINUOUS
 10
64.4893405057
 20
21.1719283924
 11
43.4907885813
 21
21.1719283924
  0
LINE
  5
676
100
AcDbEntity
  8
RACCORDO
100
AcDbLine
 62
7
  6
CONTINUOUS
 10
64.3827880254
 20
21.4945915015
 11
62.4973410616
 21
21.4945915015
  0
LINE
  5
677
100
AcDbEntity
  8
RACCORDO
100
AcDbLine
 62
7
  6
CONTINUOUS
 10
45.4827880254
 20
21.4945915015
 11
43.5973410616
 21
21.4945915015
  0
LINE
  5
678
100
AcDbEntity
  8
RACCORDO
100
AcDbLine
 62
7
  6
CONTINUOUS
 10
50.0929819201
 20
21.5207953912
 11
57.8871471669
 21
21.5207953912
  0
LINE
  5
679
100
AcDbEntity
  8
DRAFT
100
AcDbLine
 62
7
  6
CONTINUOUS
 10
45.7400645435
 20
21.5732031704
 11
49.5900645435
 21
21.5732031704
  0
LINE
  5
67A
100
AcDbEntity
  8
DRAFT
100
AcDbLine
 62
7
  6
CONTINUOUS
 10
58.3900645435
 20
21.5732031704
 11
62.2400645435
 21
21.5732031704
  0
LINE
  5
67B
100
AcDbEntity
  8
RACCORDO
100
AcDbLine
 62
253
  6
CONTINUOUS
 10
64.6783557602
 20
19.7337062984
 11
64.6345987427
 21
19.7344492836
  0
LINE
  5
67C
100
AcDbEntity
  8
RACCORDO
100
AcDbLine
 62
253
  6
CONTINUOUS
 10
64.7202924274
 20
19.7327986094
 11
64.6783557602
 21
19.7337062984
  0
LINE
  5
67D
100
AcDbEntity
  8
RACCORDO
100
AcDbLine
 62
253
  6
CONTINUOUS
 10
64.7600373388
 20
19.7317342555
 11
64.7202924274
 21
19.7327986094
  0
LINE
  5
67E
100
AcDbEntity
  8
RACCORDO
100
AcDbLine
 62
253
  6
CONTINUOUS
 10
64.7972385001
 20
19.7305226628
 11
64.7600373388
 21
19.7317342555
  0
LWPOLYLINE
  5
67F
100
AcDbEntity
  8
RACCORDO
100
AcDbPolyline
 62
7
  6
CONTINUOUS
 90
13
 70
0
 10
43.3811492035
 20
21.5011140091
 10
43.3759148616
 20
21.5015683059
 10
43.3710948565
 20
21.5020115262
 10
43.3666985628
 20
21.5024436699
 10
43.362734306
 20
21.5028566393
 10
43.3592102011
 20
21.5032585321
 10
43.3561338225
 20
21.503673641
 10
43.3535110394
 20
21.5041054815
 10
43.3513468186
 20
21.5045505381
 10
43.3496455662
 20
21.5050225568
 10
43.3484103494
 20
21.5055261197
 10
43.3476431762
 20
21.5060566447
 10
43.3473452924
 20
21.5066141318
  0
LWPOLYLINE
  5
680
100
AcDbEntity
  8
RACCORDO
100
AcDbPolyline
 62
253
  6
CONTINUOUS
 90
18
 70
0
 10
64.9727375826
 20
19.7151090269
 10
64.971773583
 20
19.7160767218
 10
64.9697042316
 20
19.717042273
 10
64.9665341126
 20
19.7180035414
 10
64.9622702489
 20
19.7189583976
 10
64.9569220862
 20
19.7199047262
 10
64.9505014723
 20
19.7208404308
 10
64.943022631
 20
19.7217634386
 10
64.9345021302
 20
19.7226717048
 10
64.9249588455
 20
19.7235632173
 10
64.9144139182
 20
19.7244360011
 10
64.9028907087
 20
19.7252881228
 10
64.8904147443
 20
19.7261176946
 10
64.8770136634
 20
19.7269228787
 10
64.8627171535
 20
19.7277018915
 10
64.8475568858
 20
19.7284530072
 10
64.831566445
 20
19.7291745618
 10
64.7972385001
 20
19.7305226628
  0
LWPOLYLINE
  5
681
100
AcDbEntity
  8
RACCORDO
100
AcDbPolyline
 62
253
  6
CONTINUOUS
 90
16
 70
0
 10
64.9727375826
 20
-21.3687026861
 10
64.9717735729
 20
-21.3696703806
 10
64.9697042121
 20
-21.3706359314
 10
64.9665340844
 20
-21.3715971995
 10
64.9622702126
 20
-21.3725520552
 10
64.9569220425
 20
-21.3734983834
 10
64.950501422
 20
-21.3744340876
 10
64.9430225748
 20
-21.375357095
 10
64.9345020688
 20
-21.3762653607
 10
64.9249587796
 20
-21.3771568728
 10
64.9144138486
 20
-21.3780296562
 10
64.902890636
 20
-21.3788817774
 10
64.8904146693
 20
-21.3797113487
 10
64.8770135868
 20
-21.3805165324
 10
64.8627170759
 20
-21.3812955448
 10
64.8475568079
 20
-21.38204666
  0
LINE
  5
682
100
AcDbEntity
  8
RACCORDO
100
AcDbLine
 62
253
  6
CONTINUOUS
 10
62.2400645435
 20
-25.0768010603
 11
62.2531631222
 21
-25.0637024816
  0
LWPOLYLINE
  5
683
100
AcDbEntity
  8
RACCORDO
100
AcDbPolyline
 62
7
  6
CONTINUOUS
 90
25
 70
0
 10
58.2862718572
 20
22.9685421373
 10
58.2754827338
 20
22.9679947353
 10
58.2643952716
 20
22.9665670654
 10
58.2530094707
 20
22.9643396584
 10
58.2413006904
 20
22.961401067
 10
58.2292935715
 20
22.957827042
 10
58.2170620355
 20
22.9536626837
 10
58.2046132953
 20
22.9489675407
 10
58.1919401381
 20
22.9438049801
 10
58.1790948479
 20
22.9381984808
 10
58.1660817158
 20
22.9321934024
 10
58.1528964507
 20
22.9258397352
 10
58.1395784638
 20
22.9191492287
 10
58.1261299768
 20
22.9121574536
 10
58.1125487679
 20
22.9049045626
 10
58.0988675831
 20
22.8973968434
 10
58.0850874714
 20
22.8896633583
 10
58.0712073837
 20
22.8817371214
 10
58.0572569191
 20
22.8736223605
 10
58.0432363185
 20
22.8653436995
 10
58.0291453411
 20
22.8569291297
 10
58.0150128636
 20
22.8483828502
 10
58.0008385455
 20
22.839726431
 10
57.9866227273
 20
22.8309843715
 10
57.958155134
 20
22.8132789121
  0
LWPOLYLINE
  5
684
100
AcDbEntity
  8
RACCORDO
100
AcDbPolyline
 62
253
  6
CONTINUOUS
 90
31
 70
0
 10
62.5031588914
 20
23.6601045917
 10
62.4901065515
 20
23.6597631845
 10
62.4770816571
 20
23.6587399219
 10
62.4641198825
 20
23.6570363177
 10
62.4512541637
 20
23.6546551875
 10
62.4385226986
 20
23.6516020741
 10
62.425968514
 20
23.6478866344
 10
62.4136287101
 20
23.6435200833
 10
62.4015343539
 20
23.6385136534
 10
62.3897182757
 20
23.6328809048
 10
62.3782126753
 20
23.6266371032
 10
62.3670493569
 20
23.6197994213
 10
62.3562592777
 20
23.6123867913
 10
62.3458721518
 20
23.6044196491
 10
62.3359163146
 20
23.5959197521
 10
62.3264189802
 20
23.5869103303
 10
62.3174061611
 20
23.5774160372
 10
62.3089026196
 20
23.5674629337
 10
62.3009317114
 20
23.5570783445
 10
62.2935153045
 20
23.5462907542
 10
62.2866737287
 20
23.5351297282
 10
62.2804257496
 20
23.5236258724
 10
62.2747885013
 20
23.5118107268
 10
62.2697774458
 20
23.4997166895
 10
62.2654063307
 20
23.4873769334
 10
62.2616871412
 20
23.474825286
 10
62.2586300801
 20
23.462096172
 10
62.2562435374
 20
23.4492245324
 10
62.2545340542
 20
23.436245675
 10
62.2535063112
 20
23.4231951766
 10
62.2531631222
 20
23.4101088225
  0
LWPOLYLINE
  5
685
100
AcDbEntity
  8
RACCORDO
100
AcDbPolyline
 62
7
  6
CONTINUOUS
 90
34
 70
0
 10
62.4900603127
 20
23.6732031704
 10
62.4781650275
 20
23.6729200202
 10
62.4662966879
 20
23.6720712047
 10
62.4544821774
 20
23.6706586446
 10
62.442748256
 20
23.6686855382
 10
62.4311215047
 20
23.6661563522
 10
62.4196282645
 20
23.6630768121
 10
62.4082945697
 20
23.6594538918
 10
62.3971460942
 20
23.6552957962
 10
62.3862080972
 20
23.6506119426
 10
62.3755053559
 20
23.6454129393
 10
62.3650621152
 20
23.6397105621
 10
62.3549020376
 20
23.6335177286
 10
62.3450481384
 20
23.6268484659
 10
62.3355227397
 20
23.6197178811
 10
62.3263474244
 20
23.6121421293
 10
62.3175429774
 20
23.6041383709
 10
62.309129343
 20
23.5957247365
 10
62.3011255846
 20
23.5869202895
 10
62.2935498328
 20
23.5777449743
 10
62.286419248
 20
23.5682195756
 10
62.2797499854
 20
23.5583656763
 10
62.2735571519
 20
23.5482055987
 10
62.2678547747
 20
23.537762358
 10
62.2626557713
 20
23.5270596167
 10
62.2579719177
 20
23.5161216197
 10
62.2538138222
 20
23.5049731442
 10
62.2501909018
 20
23.4936394494
 10
62.2471113618
 20
23.4821462092
 10
62.2445821758
 20
23.4705194579
 10
62.2426090694
 20
23.4587855366
 10
62.2411965093
 20
23.446971026
 10
62.2403476937
 20
23.4351026865
 10
62.2400645435
 20
23.4232074012
  0
LWPOLYLINE
  5
686
100
AcDbEntity
  8
RACCORDO
100
AcDbPolyline
 62
7
  6
CONTINUOUS
 90
34
 70
0
 10
64.3827880254
 20
22.2958529012
 10
64.3958125005
 20
22.2961064786
 10
64.4087420727
 20
22.2967318774
 10
64.4215426711
 20
22.2977290975
 10
64.4341927282
 20
22.2991107629
 10
64.4466488785
 20
22.3008642496
 10
64.4588473921
 20
22.3029516861
 10
64.4707480143
 20
22.3053741548
 10
64.4823384133
 20
22.3081305733
 10
64.4936003983
 20
22.3111798227
 10
64.5045115709
 20
22.3145223817
 10
64.5150516756
 20
22.3181577715
 10
64.5252075689
 20
22.3220434375
 10
64.5349617105
 20
22.3261794257
 10
64.5442984255
 20
22.3305656899
 10
64.5532087599
 20
22.3351595373
 10
64.5616796029
 20
22.3399607626
 10
64.5696993351
 20
22.3449695711
 10
64.5772622386
 20
22.3501438845
 10
64.5843591309
 20
22.3554833672
 10
64.59098204
 20
22.3609883548
 10
64.5971277839
 20
22.3666177769
 10
64.6027906649
 20
22.3723712275
 10
64.6079660221
 20
22.3782491124
 10
64.6126528002
 20
22.3842115789
 10
64.6168484251
 20
22.3902581633
 10
64.6205512753
 20
22.3963893291
 10
64.6237622525
 20
22.4025666142
 10
64.6264816194
 20
22.4087894731
 10
64.6287105659
 20
22.4150584512
 10
64.6304519286
 20
22.4213367224
 10
64.6317086674
 20
22.4276120113
 10
64.6324843722
 20
22.4338965934
 10
64.6327837946
 20
22.4401904685
  0
LINE
  5
687
100
AcDbEntity
  8
RACCORDO
100
AcDbLine
 62
7
  6
CONTINUOUS
 10
64.3820607967
 20
22.2958529012
 11
62.4980682903
 21
22.2958529012
  0
LINE
  5
688
100
AcDbEntity
  8
RACCORDO
100
AcDbLine
 62
7
  6
CONTINUOUS
 10
45.4820607967
 20
22.2958529012
 11
43.5980682903
 21
22.2958529012
  0
LINE
  5
689
100
AcDbEntity
  8
RACCORDO
100
AcDbLine
 62
253
  6
CONTINUOUS
 10
57.8871471669
 20
22.7685455219
 11
50.0929819201
 21
22.7685455219
  0
LINE
  5
68A
100
AcDbEntity
  8
RACCORDO
100
AcDbLine
 62
253
  6
CONTINUOUS
 10
43.6031588914
 20
22.8010343868
 11
45.4769701956
 21
22.8010343868
  0
LINE
  5
68B
100
AcDbEntity
  8
RACCORDO
100
AcDbLine
 62
253
  6
CONTINUOUS
 10
62.5031588914
 20
22.8010343868
 11
64.3769701956
 21
22.8010343868
  0
LINE
  5
68C
100
AcDbEntity
  8
RACCORDO
100
AcDbLine
 62
253
  6
CONTINUOUS
 10
58.2862718572
 20
22.9685421373
 11
49.6938572298
 21
22.9685421373
  0
LINE
  5
68D
100
AcDbEntity
  8
DRAFT
100
AcDbLine
 62
7
  6
CONTINUOUS
 10
49.5900645435
 20
22.9732031704
 11
58.3900645435
 21
22.9732031704
  0
LINE
  5
68E
100
AcDbEntity
  8
RACCORDO
100
AcDbLine
 62
253
  6
CONTINUOUS
 10
43.3531631222
 20
23.0175407377
 11
45.7269659648
 21
23.0175407377
  0
LINE
  5
68F
100
AcDbEntity
  8
RACCORDO
100
AcDbLine
 62
253
  6
CONTINUOUS
 10
62.2531631222
 20
23.0175407377
 11
64.6269659648
 21
23.0175407377
  0
LINE
  5
690
100
AcDbEntity
  8
RACCORDO
100
AcDbLine
 62
253
  6
CONTINUOUS
 10
43.3531631222
 20
23.4101088225
 11
45.7269659648
 21
23.4101088225
  0
LINE
  5
691
100
AcDbEntity
  8
RACCORDO
100
AcDbLine
 62
253
  6
CONTINUOUS
 10
62.2531631222
 20
23.4101088225
 11
64.6269659648
 21
23.4101088225
  0
LINE
  5
692
100
AcDbEntity
  8
RACCORDO
100
AcDbLine
 62
253
  6
CONTINUOUS
 10
64.3769701956
 20
23.6601045917
 11
62.5031588914
 21
23.6601045917
  0
LINE
  5
693
100
AcDbEntity
  8
RACCORDO
100
AcDbLine
 62
253
  6
CONTINUOUS
 10
45.4769701956
 20
23.6601045917
 11
43.6031588914
 21
23.6601045917
  0
LINE
  5
694
100
AcDbEntity
  8
RACCORDO
100
AcDbLine
 62
7
  6
CONTINUOUS
 10
43.5900603127
 20
23.6732031704
 11
45.4900687743
 21
23.6732031704
  0
LINE
  5
695
100
AcDbEntity
  8
RACCORDO
100
AcDbLine
 62
7
  6
CONTINUOUS
 10
62.4900603127
 20
23.6732031704
 11
64.3900687743
 21
23.6732031704
  0
LWPOLYLINE
  5
696
100
AcDbEntity
  8
RACCORDO
100
AcDbPolyline
 62
7
  6
CONTINUOUS
 90
34
 70
0
 10
43.5973410616
 20
22.2958529012
 10
43.5843165865
 20
22.2961064786
 10
43.5713870143
 20
22.2967318774
 10
43.5585864159
 20
22.2977290975
 10
43.5459363588
 20
22.2991107629
 10
43.5334802085
 20
22.3008642496
 10
43.5212816949
 20
22.3029516861
 10
43.5093810727
 20
22.3053741548
 10
43.4977906737
 20
22.3081305733
 10
43.4865286887
 20
22.3111798227
 10
43.4756175161
 20
22.3145223817
 10
43.4650774114
 20
22.3181577715
 10
43.4549215181
 20
22.3220434375
 10
43.4451673765
 20
22.3261794257
 10
43.4358306615
 20
22.3305656899
 10
43.4269203271
 20
22.3351595373
 10
43.4184494841
 20
22.3399607626
 10
43.4104297519
 20
22.3449695711
 10
43.4028668484
 20
22.3501438845
 10
43.3957699561
 20
22.3554833672
 10
43.389147047
 20
22.3609883548
 10
43.3830013031
 20
22.3666177769
 10
43.3773384221
 20
22.3723712275
 10
43.3721630649
 20
22.3782491124
 10
43.3674762868
 20
22.3842115789
 10
43.3632806619
 20
22.3902581633
 10
43.3595778117
 20
22.3963893291
 10
43.3563668345
 20
22.4025666142
 10
43.3536474676
 20
22.4087894731
 10
43.3514185211
 20
22.4150584512
 10
43.3496771584
 20
22.4213367224
 10
43.3484204196
 20
22.4276120113
 10
43.3476447148
 20
22.4338965934
 10
43.3473452924
 20
22.4401904685
  0
LWPOLYLINE
  5
697
100
AcDbEntity
  8
RACCORDO
100
AcDbPolyline
 62
7
  6
CONTINUOUS
 90
22
 70
0
 10
49.6938572298
 20
22.9685421373
 10
49.7046463532
 20
22.9679947353
 10
49.7157338154
 20
22.9665670654
 10
49.7271196163
 20
22.9643396584
 10
49.7388283966
 20
22.961401067
 10
49.7508355155
 20
22.957827042
 10
49.7630670515
 20
22.9536626837
 10
49.7755157917
 20
22.9489675407
 10
49.7881889489
 20
22.9438049801
 10
49.8010342391
 20
22.9381984808
 10
49.8140473712
 20
22.9321934024
 10
49.8272326363
 20
22.9258397352
 10
49.8405506232
 20
22.9191492287
 10
49.8539991102
 20
22.9121574536
 10
49.8675803191
 20
22.9049045626
 10
49.8812615039
 20
22.8973968434
 10
49.8950416156
 20
22.8896633583
 10
49.9089217033
 20
22.8817371214
 10
49.9228721679
 20
22.8736223605
 10
49.9368927685
 20
22.8653436995
 10
49.9509837459
 20
22.8569291297
 10
49.9651162234
 20
22.8483828502
  0
LWPOLYLINE
  5
698
100
AcDbEntity
  8
RACCORDO
100
AcDbPolyline
 62
7
  6
CONTINUOUS
 90
11
 70
0
 10
64.6400636826
 20
21.5728943691
 10
64.6615529407
 20
21.5716769102
 10
64.6830079896
 20
21.5695304744
 10
64.7043884305
 20
21.5664541955
 10
64.7256764549
 20
21.5624441366
 10
64.7468080646
 20
21.5575058605
 10
64.7676754402
 20
21.5516642469
 10
64.7882242443
 20
21.5449399762
 10
64.8084340363
 20
21.5373452341
 10
64.8282520023
 20
21.5289055281
 10
64.8460785313
 20
21.5204285152
  0
LINE
  5
699
100
AcDbEntity
  8
RACCORDO
100
AcDbLine
 62
253
  6
CONTINUOUS
 10
62.2400645435
 20
23.4232074012
 11
62.2531631222
 21
23.4101088225
  0
LINE
  5
69A
100
AcDbEntity
  8
RACCORDO
100
AcDbLine
 62
253
  6
CONTINUOUS
 10
62.4900603127
 20
23.6732031704
 11
62.5031588914
 21
23.6601045917
  0
LINE
  5
69B
100
AcDbEntity
  8
RACCORDO
100
AcDbLine
 62
253
  6
CONTINUOUS
 10
62.4900603127
 20
-25.3267968296
 11
62.5031588914
 21
-25.3136982508
  0
LINE
  5
69C
100
AcDbEntity
  8
RACCORDO
100
AcDbLine
 62
253
  6
CONTINUOUS
 10
65.1226476411
 20
-22.7266825581
 11
65.1400645435
 21
-22.7179747702
  0
LINE
  5
69D
100
AcDbEntity
  8
RACCORDO
100
AcDbLine
 62
7
  6
CONTINUOUS
 10
64.8460785313
 20
-23.1740221743
 11
64.8635815533
 21
-23.1652713298
  0
LWPOLYLINE
  5
69E
100
AcDbEntity
  8
RACCORDO
100
AcDbPolyline
 62
7
  6
CONTINUOUS
 90
11
 70
0
 10
64.8460785313
 20
-23.1740221743
 10
64.8282520023
 20
-23.1824991872
 10
64.8084340363
 20
-23.1909388932
 10
64.7882242443
 20
-23.1985336353
 10
64.7676754402
 20
-23.2052579061
 10
64.7468080646
 20
-23.2110995196
 10
64.7256764549
 20
-23.2160377957
 10
64.7043884305
 20
-23.2200478547
 10
64.6830079896
 20
-23.2231241335
 10
64.6615529407
 20
-23.2252705693
 10
64.6400636826
 20
-23.2264880282
  0
LWPOLYLINE
  5
69F
100
AcDbEntity
  8
RACCORDO
100
AcDbPolyline
 62
253
  6
CONTINUOUS
 90
31
 70
0
 10
43.6031588914
 20
23.6601045917
 10
43.5900725373
 20
23.6597614027
 10
43.577022039
 20
23.6587336597
 10
43.5640431816
 20
23.6570241766
 10
43.5511715419
 20
23.6546376339
 10
43.538442428
 20
23.6515805727
 10
43.5258907805
 20
23.6478613832
 10
43.5135510244
 20
23.6434902681
 10
43.5014569872
 20
23.6384792127
 10
43.4896418416
 20
23.6328419644
 10
43.4781379858
 20
23.6265939852
 10
43.4669769598
 20
23.6197524094
 10
43.4561893695
 20
23.6123360026
 10
43.4458047802
 20
23.6043650944
 10
43.4358516768
 20
23.5958615529
 10
43.4263573836
 20
23.5868487338
 10
43.4173479618
 20
23.5773513993
 10
43.4088480649
 20
23.5673955621
 10
43.4008809226
 20
23.5570084363
 10
43.3934682926
 20
23.5462183571
 10
43.3866306108
 20
23.5350550387
 10
43.3803868091
 20
23.5235494383
 10
43.3747540605
 20
23.51173336
 10
43.3697476306
 20
23.4996390039
 10
43.3653810795
 20
23.4872992
 10
43.3616656398
 20
23.4747450154
 10
43.3586125264
 20
23.4620135502
 10
43.3562313963
 20
23.4491478314
 10
43.354527792
 20
23.4361860568
 10
43.3535045294
 20
23.4231611625
 10
43.3531631222
 20
23.4101088225
  0
LWPOLYLINE
  5
6A0
100
AcDbEntity
  8
RACCORDO
100
AcDbPolyline
 62
7
  6
CONTINUOUS
 90
34
 70
0
 10
43.5900603127
 20
23.6732031704
 10
43.5781650275
 20
23.6729200202
 10
43.5662966879
 20
23.6720712047
 10
43.5544821774
 20
23.6706586446
 10
43.542748256
 20
23.6686855382
 10
43.5311215047
 20
23.6661563522
 10
43.5196282645
 20
23.6630768121
 10
43.5082945697
 20
23.6594538918
 10
43.4971460942
 20
23.6552957962
 10
43.4862080972
 20
23.6506119426
 10
43.4755053559
 20
23.6454129393
 10
43.4650621152
 20
23.6397105621
 10
43.4549020376
 20
23.6335177286
 10
43.4450481384
 20
23.6268484659
 10
43.4355227397
 20
23.6197178811
 10
43.4263474244
 20
23.6121421293
 10
43.4175429774
 20
23.6041383709
 10
43.409129343
 20
23.5957247365
 10
43.4011255846
 20
23.5869202895
 10
43.3935498328
 20
23.5777449743
 10
43.386419248
 20
23.5682195756
 10
43.3797499854
 20
23.5583656763
 10
43.3735571519
 20
23.5482055987
 10
43.3678547747
 20
23.537762358
 10
43.3626557713
 20
23.5270596167
 10
43.3579719177
 20
23.5161216197
 10
43.3538138222
 20
23.5049731442
 10
43.3501909018
 20
23.4936394494
 10
43.3471113618
 20
23.4821462092
 10
43.3445821758
 20
23.4705194579
 10
43.3426090694
 20
23.4587855366
 10
43.3411965093
 20
23.446971026
 10
43.3403476937
 20
23.4351026865
 10
43.3400645435
 20
23.4232074012
  0
LINE
  5
6A1
100
AcDbEntity
  8
RACCORDO
100
AcDbLine
 62
253
  6
CONTINUOUS
 10
65.1400645435
 20
21.064381111
 11
65.1226476411
 21
21.073088899
  0
LINE
  5
6A2
100
AcDbEntity
  8
RACCORDO
100
AcDbLine
 62
7
  6
CONTINUOUS
 10
64.8635815533
 20
21.5116776706
 11
64.8460785313
 21
21.5204285152
  0
LWPOLYLINE
  5
6A3
100
AcDbEntity
  8
RACCORDO
100
AcDbPolyline
 62
7
  6
CONTINUOUS
 90
27
 70
0
 10
64.8460785313
 20
21.5204285152
 10
64.8665224443
 20
21.5096092941
 10
64.8850031333
 20
21.4987487215
 10
64.9030343585
 20
21.4870839643
 10
64.9205687598
 20
21.4746407324
 10
64.9375973418
 20
21.4614188635
 10
64.9541096235
 20
21.4474142474
 10
64.9700422315
 20
21.4326679057
 10
64.9853115062
 20
21.4172532871
 10
64.9998870791
 20
21.4012038294
 10
65.0137459109
 20
21.3845478046
 10
65.0268293751
 20
21.3673640829
 10
65.0391154655
 20
21.3496975569
 10
65.0505943907
 20
21.33157921
 10
65.0612377074
 20
21.3130745138
 10
65.071029324
 20
21.2942398076
 10
65.0799723908
 20
21.2750995349
 10
65.0880709368
 20
21.2556719227
 10
65.0953188539
 20
21.2359978518
 10
65.1017138233
 20
21.216112707
 10
65.107261746
 20
21.1960237102
 10
65.1119601669
 20
21.1757601729
 10
65.1158046076
 20
21.1553654344
 10
65.1187953502
 20
21.1348661721
 10
65.1209321262
 20
21.1142950323
 10
65.1222154053
 20
21.0936908133
 10
65.1226476411
 20
21.073088899
  0
ARC
  5
6A4
100
AcDbEntity
  8
RACCORDO
100
AcDbCircle
 62
7
  6
CONTINUOUS
 10
-20.28762257
 20
-21.3275777494
 40
1.5
100
AcDbArc
 50
182.3569499908
 51
267.0
  0
ARC
  5
6A5
100
AcDbEntity
  8
0
100
AcDbCircle
 62
7
  6
CONTINUOUS
 10
16.7906523845
 20
-12.9267968296
 40
1.5
100
AcDbArc
 50
62.5902876302
 51
117.6762696383
  0
ARC
  5
6A6
100
AcDbEntity
  8
RACCORDO
100
AcDbCircle
 62
7
  6
CONTINUOUS
 10
-2.7093476155
 20
-22.1394900733
 40
1.0
100
AcDbArc
 50
270.5
 51
360.0
  0
ARC
  5
6A7
100
AcDbEntity
  8
RACCORDO
100
AcDbCircle
 62
7
  6
CONTINUOUS
 10
26.2906523845
 20
-18.9488818524
 40
1.0
100
AcDbArc
 50
271.0
 51
360.0
  0
ARC
  5
6A8
100
AcDbEntity
  8
ASSI
100
AcDbCircle
 62
7
  6
CONTINUOUS
 10
26.2906523845
 20
-18.9488818524
 40
1.0
100
AcDbArc
 50
271.0
 51
360.0
  0
ARC
  5
6A9
100
AcDbEntity
  8
RACCORDO
100
AcDbCircle
 62
7
  6
CONTINUOUS
 10
-30.3686611697
 20
-7.1849113139
 40
0.5
100
AcDbArc
 50
186.1342859595
 51
266.0
  0
ARC
  5
6AA
100
AcDbEntity
  8
ASSI
100
AcDbCircle
 62
7
  6
CONTINUOUS
 10
-5.2093476155
 20
-24.0831546443
 40
0.5
100
AcDbArc
 50
270.3333333333
 51
360.0
  0
ARC
  5
6AB
100
AcDbEntity
  8
RACCORDO
100
AcDbCircle
 62
7
  6
CONTINUOUS
 10
-23.4093476155
 20
-7.8722252739
 40
0.3
100
AcDbArc
 50
185.7331507522
 51
266.0
  0
ARC
  5
6AC
100
AcDbEntity
  8
RACCORDO
100
AcDbCircle
 62
7
  6
CONTINUOUS
 10
-11.9593476155
 20
-25.0724292263
 40
0.25
100
AcDbArc
 50
270.3333333333
 51
360.0
  0
ARC
  5
6AD
100
AcDbEntity
  8
RACCORDO
100
AcDbCircle
 62
7
  6
CONTINUOUS
 10
-11.9593476155
 20
-24.6711343969
 40
0.25
100
AcDbArc
 50
0.0
 51
60.0
  0
ARC
  5
6AE
100
AcDbEntity
  8
RACCORDO
100
AcDbCircle
 62
7
  6
CONTINUOUS
 10
-14.9593476155
 20
-25.0637024816
 40
0.25
100
AcDbArc
 50
180.0
 51
269.6666666667
  0
ARC
  5
6AF
100
AcDbEntity
  8
RACCORDO
100
AcDbCircle
 62
7
  6
CONTINUOUS
 10
-14.9593476155
 20
-24.6711343969
 40
0.25
100
AcDbArc
 50
120.0
 51
180.0
  0
ARC
  5
6B0
100
AcDbEntity
  8
RACCORDO
100
AcDbCircle
 62
7
  6
CONTINUOUS
 10
28.7906523845
 20
-0.8267968296
 40
60.0
100
AcDbArc
 50
173.8657140405
 51
186.1342859595
  0
CIRCLE
  5
6B1
100
AcDbEntity
  8
ASSI
100
AcDbCircle
 62
7
  6
CONTINUOUS
 10
21.3906523845
 20
14.1732031704
 40
2.0
  0
CIRCLE
  5
6B2
100
AcDbEntity
  8
ASSI
100
AcDbCircle
 62
7
  6
CONTINUOUS
 10
21.3906523845
 20
9.1732031704
 40
2.0
  0
ARC
  5
6B3
100
AcDbEntity
  8
RACCORDO
100
AcDbCircle
 62
7
  6
CONTINUOUS
 10
-20.28762257
 20
19.6739840903
 40
1.5
100
AcDbArc
 50
93.0
 51
177.6430500092
  0
ARC
  5
6B4
100
AcDbEntity
  8
RACCORDO
100
AcDbCircle
 62
7
  6
CONTINUOUS
 10
-2.7093476155
 20
20.4858964141
 40
1.0
100
AcDbArc
 50
0.0
 51
89.5
  0
ARC
  5
6B5
100
AcDbEntity
  8
RACCORDO
100
AcDbCircle
 62
7
  6
CONTINUOUS
 10
16.7906523845
 20
13.0732031704
 40
1.0
100
AcDbArc
 50
19.3450070542
 51
90.0
  0
ARC
  5
6B6
100
AcDbEntity
  8
RACCORDO
100
AcDbCircle
 62
7
  6
CONTINUOUS
 10
26.2906523845
 20
17.2952881933
 40
1.0
100
AcDbArc
 50
0.0
 51
89.0
  0
ARC
  5
6B7
100
AcDbEntity
  8
ASSI
100
AcDbCircle
 62
7
  6
CONTINUOUS
 10
26.2906523845
 20
17.2952881933
 40
1.0
100
AcDbArc
 50
0.0
 51
89.0
  0
ARC
  5
6B8
100
AcDbEntity
  8
RACCORDO
100
AcDbCircle
 62
7
  6
CONTINUOUS
 10
-30.3686611697
 20
5.5313176548
 40
0.5
100
AcDbArc
 50
94.0
 51
173.8657140405
  0
ARC
  5
6B9
100
AcDbEntity
  8
ASSI
100
AcDbCircle
 62
7
  6
CONTINUOUS
 10
-5.2093476155
 20
22.4295609851
 40
0.5
100
AcDbArc
 50
0.0
 51
89.6666666667
  0
ARC
  5
6BA
100
AcDbEntity
  8
RACCORDO
100
AcDbCircle
 62
7
  6
CONTINUOUS
 10
-23.4093476155
 20
6.2186316147
 40
0.3
100
AcDbArc
 50
94.0
 51
174.2668492478
  0
ARC
  5
6BB
100
AcDbEntity
  8
RACCORDO
100
AcDbCircle
 62
7
  6
CONTINUOUS
 10
-14.9593476155
 20
23.4101088225
 40
0.25
100
AcDbArc
 50
90.3333333333
 51
180.0
  0
ARC
  5
6BC
100
AcDbEntity
  8
RACCORDO
100
AcDbCircle
 62
7
  6
CONTINUOUS
 10
-11.9593476155
 20
23.4188355672
 40
0.25
100
AcDbArc
 50
0.0
 51
89.6666666667
  0
ARC
  5
6BD
100
AcDbEntity
  8
RACCORDO
100
AcDbCircle
 62
7
  6
CONTINUOUS
 10
-14.9593476155
 20
23.0175407377
 40
0.25
100
AcDbArc
 50
180.0
 51
240.0
  0
ARC
  5
6BE
100
AcDbEntity
  8
RACCORDO
100
AcDbCircle
 62
7
  6
CONTINUOUS
 10
477.7906523845
 20
-0.8267968296
 40
500.0
100
AcDbArc
 50
177.6430500092
 51
182.3569499908
  0
ARC
  5
6BF
100
AcDbEntity
  8
DRAFT
100
AcDbCircle
 62
7
  6
CONTINUOUS
 10
53.9900645435
 20
-0.8267968296
 40
7.7918921558
100
AcDbArc
 50
254.2676882611
 51
285.7323117389
  0
ARC
  5
6C0
100
AcDbEntity
  8
DRAFT
100
AcDbCircle
 62
7
  6
CONTINUOUS
 10
53.9900645435
 20
-0.8267968296
 40
7.7918921558
100
AcDbArc
 50
74.2676882611
 51
105.7323117389
  0
ARC
  5
6C1
100
AcDbEntity
  8
DRAFT
100
AcDbCircle
 62
7
  6
CONTINUOUS
 10
53.9900645435
 20
-0.8267968296
 40
7.75
100
AcDbArc
 50
105.1949889679
 51
254.8050110321
  0
ARC
  5
6C2
100
AcDbEntity
  8
DRAFT
100
AcDbCircle
 62
7
  6
CONTINUOUS
 10
53.9900645435
 20
-0.8267968296
 40
7.75
100
AcDbArc
 50
285.1949889679
 51
74.8050110321
  0
CIRCLE
  5
6C3
100
AcDbEntity
  8
DRAFT
100
AcDbCircle
 62
7
  6
CONTINUOUS
 10
53.9900645435
 20
-0.8267968296
 40
7.5
  0
CIRCLE
  5
6C4
100
AcDbEntity
  8
RACCORDO
100
AcDbCircle
 62
253
  6
CONTINUOUS
 10
53.9900645435
 20
-0.8267968296
 40
7.3446976577
  0
CIRCLE
  5
6C5
100
AcDbEntity
  8
0
100
AcDbCircle
 62
7
  6
CONTINUOUS
 10
53.9900645435
 20
-0.8267968296
 40
7.325
  0
CIRCLE
  5
6C6
100
AcDbEntity
  8
RACCORDO
100
AcDbCircle
 62
253
  6
CONTINUOUS
 10
53.9900645435
 20
-0.8267968296
 40
6.8568965095
  0
CIRCLE
  5
6C7
100
AcDbEntity
  8
RACCORDO
100
AcDbCircle
 62
253
  6
CONTINUOUS
 10
53.9900645435
 20
-0.8267968296
 40
6.4115440154
  0
ELLIPSE
  5
6C8
100
AcDbEntity
  8
RACCORDO
100
AcDbEllipse
 62
7
  6
CONTINUOUS
 10
-2.2093476155
 20
21.2391024513
 30
0.0
 11
0.0
 21
0.5
 31
0.0
 40
1.0
 41
-3.1241393611
 42
-2.2313643779
  0
ELLIPSE
  5
6C9
100
AcDbEntity
  8
RACCORDO
100
AcDbEllipse
 62
7
  6
CONTINUOUS
 10
-2.2093476155
 20
-22.8926961104
 30
0.0
 11
-0.0
 21
0.5
 31
0.0
 40
1.0
 41
-0.9102282757
 42
-0.0174532925
  0
ELLIPSE
  5
6CA
100
AcDbEntity
  8
DRAFT
100
AcDbEllipse
 62
7
  6
CONTINUOUS
 10
21.0906523845
 20
14.1732031704
 30
0.0
 11
2.1
 21
0.0
 31
0.0
 40
1.0
 41
1.5707963268
 42
2.6195208674
  0
ELLIPSE
  5
6CB
100
AcDbEntity
  8
DRAFT
100
AcDbEllipse
 62
7
  6
CONTINUOUS
 10
21.0906523845
 20
14.1732031704
 30
0.0
 11
2.1
 21
0.0
 31
0.0
 40
1.0
 41
-2.6195208674
 42
-1.5707963268
  0
ELLIPSE
  5
6CC
100
AcDbEntity
  8
DRAFT
100
AcDbEllipse
 62
7
  6
CONTINUOUS
 10
21.0906523845
 20
9.1732031704
 30
0.0
 11
2.1
 21
-0.0
 31
0.0
 40
1.0
 41
1.5707963268
 42
2.6195208674
  0
ELLIPSE
  5
6CD
100
AcDbEntity
  8
DRAFT
100
AcDbEllipse
 62
7
  6
CONTINUOUS
 10
21.0906523845
 20
9.1732031704
 30
0.0
 11
-0.0
 21
2.1
 31
0.0
 40
1.0
 41
-4.1903171942
 42
-3.1415926536
  0
ELLIPSE
  5
6CE
100
AcDbEntity
  8
DRAFT
100
AcDbEllipse
 62
7
  6
CONTINUOUS
 10
21.0906523845
 20
4.1732031704
 30
0.0
 11
2.1
 21
0.0
 31
0.0
 40
1.0
 41
1.5707963268
 42
2.6195208674
  0
ELLIPSE
  5
6CF
100
AcDbEntity
  8
DRAFT
100
AcDbEllipse
 62
7
  6
CONTINUOUS
 10
21.0906523845
 20
4.1732031704
 30
0.0
 11
2.1
 21
-0.0
 31
0.0
 40
1.0
 41
-2.6195208674
 42
-1.5707963268
  0
ELLIPSE
  5
6D0
100
AcDbEntity
  8
RACCORDO
100
AcDbEllipse
 62
7
  6
CONTINUOUS
 10
26.2906523845
 20
6.2830666329
 30
0.0
 11
0.9999999954
 21
0.0055407478
 31
0.0
 40
0.0173607453
 41
0.0133490089
 42
1.5532468428
  0
ELLIPSE
  5
6D1
100
AcDbEntity
  8
RACCORDO
100
AcDbEllipse
 62
7
  6
CONTINUOUS
 10
26.2906523845
 20
2.063339708
 30
0.0
 11
0.9999999954
 21
-0.0055407478
 31
0.0
 40
0.0173607453
 41
-1.5532468428
 42
-0.0133490089
  0
ELLIPSE
  5
6D2
100
AcDbEntity
  8
RACCORDO
100
AcDbEllipse
 62
7
  6
CONTINUOUS
 10
26.2906523845
 20
11.2830666329
 30
0.0
 11
0.9999999954
 21
0.0055407478
 31
0.0
 40
0.0173607453
 41
0.0133490089
 42
1.5532468428
  0
ELLIPSE
  5
6D3
100
AcDbEntity
  8
RACCORDO
100
AcDbEllipse
 62
7
  6
CONTINUOUS
 10
26.2906523845
 20
7.063339708
 30
0.0
 11
0.9999999954
 21
-0.0055407478
 31
0.0
 40
0.0173607453
 41
-1.5532468428
 42
-0.0133490089
  0
ELLIPSE
  5
6D4
100
AcDbEntity
  8
RACCORDO
100
AcDbEllipse
 62
7
  6
CONTINUOUS
 10
26.2906523845
 20
16.2830666329
 30
0.0
 11
0.9999999954
 21
0.0055407478
 31
0.0
 40
0.0173607453
 41
0.0133490089
 42
1.5532468428
  0
ELLIPSE
  5
6D5
100
AcDbEntity
  8
RACCORDO
100
AcDbEllipse
 62
7
  6
CONTINUOUS
 10
26.2906523845
 20
12.063339708
 30
0.0
 11
0.9999999954
 21
-0.0055407478
 31
0.0
 40
0.0173607453
 41
-1.5532468428
 42
-0.0133490089
  0
ELLIPSE
  5
6D6
100
AcDbEntity
  8
RACCORDO
100
AcDbEllipse
 62
7
  6
CONTINUOUS
 10
26.2906523845
 20
-1.5731943075
 30
0.0
 11
1.0
 21
0.0
 31
0.0
 40
0.2679491924
 41
-1.5533430343
 42
-0.0134452004
  0
ELLIPSE
  5
6D7
100
AcDbEntity
  8
RACCORDO
100
AcDbEllipse
 62
7
  6
CONTINUOUS
 10
26.2906523845
 20
-0.0803993516
 30
0.0
 11
1.0
 21
-0.0
 31
0.0
 40
0.2679491924
 41
0.0134452004
 42
1.5533430343
  0
ELLIPSE
  5
6D8
100
AcDbEntity
  8
RACCORDO
100
AcDbEllipse
 62
7
  6
CONTINUOUS
 10
26.2906523845
 20
-6.5731943075
 30
0.0
 11
1.0
 21
0.0
 31
0.0
 40
0.2679491924
 41
-1.5533430343
 42
-0.0134452004
  0
ELLIPSE
  5
6D9
100
AcDbEntity
  8
RACCORDO
100
AcDbEllipse
 62
7
  6
CONTINUOUS
 10
26.2906523845
 20
-5.0803993516
 30
0.0
 11
1.0
 21
0.0
 31
0.0
 40
0.2679491924
 41
0.0134452004
 42
1.5533430343
  0
ELLIPSE
  5
6DA
100
AcDbEntity
  8
RACCORDO
100
AcDbEllipse
 62
7
  6
CONTINUOUS
 10
26.2906523845
 20
-11.5731943075
 30
0.0
 11
1.0
 21
-0.0
 31
0.0
 40
0.2679491924
 41
-1.5533430343
 42
-0.0134452004
  0
ELLIPSE
  5
6DB
100
AcDbEntity
  8
RACCORDO
100
AcDbEllipse
 62
7
  6
CONTINUOUS
 10
26.2906523845
 20
-10.0803993516
 30
0.0
 11
1.0
 21
-0.0
 31
0.0
 40
0.2679491924
 41
0.0134452004
 42
1.5533430343
  0
ELLIPSE
  5
6DC
100
AcDbEntity
  8
RACCORDO
100
AcDbEllipse
 62
7
  6
CONTINUOUS
 10
26.2906523845
 20
-16.5731943075
 30
0.0
 11
1.0
 21
-0.0
 31
0.0
 40
0.2679491924
 41
-1.5533430343
 42
-0.0134452004
  0
ELLIPSE
  5
6DD
100
AcDbEntity
  8
RACCORDO
100
AcDbEllipse
 62
7
  6
CONTINUOUS
 10
26.2906523845
 20
-15.0803993516
 30
0.0
 11
1.0
 21
0.0
 31
0.0
 40
0.2679491924
 41
0.0134452004
 42
1.5533430343
  0
ELLIPSE
  5
6DE
100
AcDbEntity
  8
ASSI
100
AcDbEllipse
 62
7
  6
CONTINUOUS
 10
21.0906523845
 20
4.1732031704
 30
0.0
 11
2.1
 21
-0.0
 31
0.0
 40
1.0
 41
-2.6195208674
 42
-1.5707963268
  0
ELLIPSE
  5
6DF
100
AcDbEntity
  8
ASSI
100
AcDbEllipse
 62
7
  6
CONTINUOUS
 10
26.2906523845
 20
-15.0803993516
 30
0.0
 11
1.0
 21
0.0
 31
0.0
 40
0.2679491924
 41
0.0134452004
 42
1.5533430343
  0
ELLIPSE
  5
6E0
100
AcDbEntity
  8
ASSI
100
AcDbEllipse
 62
7
  6
CONTINUOUS
 10
26.2906523845
 20
-16.5731943075
 30
0.0
 11
1.0
 21
-0.0
 31
0.0
 40
0.2679491924
 41
-1.5533430343
 42
-0.0134452004
  0
ELLIPSE
  5
6E1
100
AcDbEntity
  8
ASSI
100
AcDbEllipse
 62
7
  6
CONTINUOUS
 10
26.2906523845
 20
-10.0803993516
 30
0.0
 11
1.0
 21
-0.0
 31
0.0
 40
0.2679491924
 41
0.0134452004
 42
1.5533430343
  0
ELLIPSE
  5
6E2
100
AcDbEntity
  8
ASSI
100
AcDbEllipse
 62
7
  6
CONTINUOUS
 10
26.2906523845
 20
-11.5731943075
 30
0.0
 11
1.0
 21
-0.0
 31
0.0
 40
0.2679491924
 41
-1.5533430343
 42
-0.0134452004
  0
ELLIPSE
  5
6E3
100
AcDbEntity
  8
ASSI
100
AcDbEllipse
 62
7
  6
CONTINUOUS
 10
26.2906523845
 20
-5.0803993516
 30
0.0
 11
1.0
 21
0.0
 31
0.0
 40
0.2679491924
 41
0.0134452004
 42
1.5533430343
  0
ELLIPSE
  5
6E4
100
AcDbEntity
  8
ASSI
100
AcDbEllipse
 62
7
  6
CONTINUOUS
 10
26.2906523845
 20
-6.5731943075
 30
0.0
 11
1.0
 21
0.0
 31
0.0
 40
0.2679491924
 41
-1.5533430343
 42
-0.0134452004
  0
ELLIPSE
  5
6E5
100
AcDbEntity
  8
ASSI
100
AcDbEllipse
 62
7
  6
CONTINUOUS
 10
26.2906523845
 20
-0.0803993516
 30
0.0
 11
1.0
 21
-0.0
 31
0.0
 40
0.2679491924
 41
0.0134452004
 42
1.5533430343
  0
ELLIPSE
  5
6E6
100
AcDbEntity
  8
ASSI
100
AcDbEllipse
 62
7
  6
CONTINUOUS
 10
26.2906523845
 20
-1.5731943075
 30
0.0
 11
1.0
 21
0.0
 31
0.0
 40
0.2679491924
 41
-1.5533430343
 42
-0.0134452004
  0
ELLIPSE
  5
6E7
100
AcDbEntity
  8
ASSI
100
AcDbEllipse
 62
7
  6
CONTINUOUS
 10
21.0906523845
 20
14.1732031704
 30
0.0
 11
2.1
 21
0.0
 31
0.0
 40
1.0
 41
1.5707963268
 42
2.6195208674
  0
ELLIPSE
  5
6E8
100
AcDbEntity
  8
ASSI
100
AcDbEllipse
 62
7
  6
CONTINUOUS
 10
21.0906523845
 20
14.1732031704
 30
0.0
 11
2.1
 21
0.0
 31
0.0
 40
1.0
 41
-2.6195208674
 42
-1.5707963268
  0
ELLIPSE
  5
6E9
100
AcDbEntity
  8
ASSI
100
AcDbEllipse
 62
7
  6
CONTINUOUS
 10
26.2906523845
 20
12.063339708
 30
0.0
 11
0.9999999954
 21
-0.0055407478
 31
0.0
 40
0.0173607453
 41
-1.5532468428
 42
-0.0133490089
  0
ELLIPSE
  5
6EA
100
AcDbEntity
  8
ASSI
100
AcDbEllipse
 62
7
  6
CONTINUOUS
 10
21.0906523845
 20
9.1732031704
 30
0.0
 11
2.1
 21
-0.0
 31
0.0
 40
1.0
 41
1.5707963268
 42
2.6195208674
  0
ELLIPSE
  5
6EB
100
AcDbEntity
  8
ASSI
100
AcDbEllipse
 62
7
  6
CONTINUOUS
 10
26.2906523845
 20
16.2830666329
 30
0.0
 11
0.9999999954
 21
0.0055407478
 31
0.0
 40
0.0173607453
 41
0.0133490089
 42
1.5532468428
  0
ELLIPSE
  5
6EC
100
AcDbEntity
  8
ASSI
100
AcDbEllipse
 62
7
  6
CONTINUOUS
 10
26.2906523845
 20
7.063339708
 30
0.0
 11
0.9999999954
 21
-0.0055407478
 31
0.0
 40
0.0173607453
 41
-1.5532468428
 42
-0.0133490089
  0
ELLIPSE
  5
6ED
100
AcDbEntity
  8
ASSI
100
AcDbEllipse
 62
7
  6
CONTINUOUS
 10
26.2906523845
 20
11.2830666329
 30
0.0
 11
0.9999999954
 21
0.0055407478
 31
0.0
 40
0.0173607453
 41
0.0133490089
 42
1.5532468428
  0
ELLIPSE
  5
6EE
100
AcDbEntity
  8
ASSI
100
AcDbEllipse
 62
7
  6
CONTINUOUS
 10
26.2906523845
 20
2.063339708
 30
0.0
 11
0.9999999954
 21
-0.0055407478
 31
0.0
 40
0.0173607453
 41
-1.5532468428
 42
-0.0133490089
  0
ELLIPSE
  5
6EF
100
AcDbEntity
  8
ASSI
100
AcDbEllipse
 62
7
  6
CONTINUOUS
 10
26.2906523845
 20
6.2830666329
 30
0.0
 11
0.9999999954
 21
0.0055407478
 31
0.0
 40
0.0173607453
 41
0.0133490089
 42
1.5532468428
  0
ELLIPSE
  5
6F0
100
AcDbEntity
  8
ASSI
100
AcDbEllipse
 62
7
  6
CONTINUOUS
 10
21.0906523845
 20
9.1732031704
 30
0.0
 11
-0.0
 21
2.1
 31
0.0
 40
1.0
 41
-4.1903171942
 42
-3.1415926536
  0
ELLIPSE
  5
6F1
100
AcDbEntity
  8
ASSI
100
AcDbEllipse
 62
7
  6
CONTINUOUS
 10
21.0906523845
 20
4.1732031704
 30
0.0
 11
2.1
 21
0.0
 31
0.0
 40
1.0
 41
1.5707963268
 42
2.6195208674
  0
ELLIPSE
  5
6F2
100
AcDbEntity
  8
RACCORDO
100
AcDbEllipse
 62
7
  6
CONTINUOUS
 10
43.3401407075
 20
-22.7180509226
 30
0.0
 11
0.4473055582
 21
-0.2236357461
 31
0.0
 40
0.9998096356
 41
-2.6780516535
 42
-1.5707963219
  0
ELLIPSE
  5
6F3
100
AcDbEntity
  8
RACCORDO
100
AcDbEllipse
 62
7
  6
CONTINUOUS
 10
64.6399883795
 20
21.0644572635
 30
0.0
 11
0.4473055582
 21
-0.2236357461
 31
0.0
 40
0.9998096356
 41
0.4635410001
 42
1.5707963317
  0
ELLIPSE
  5
6F4
100
AcDbEntity
  8
RACCORDO
100
AcDbEllipse
 62
7
  6
CONTINUOUS
 10
43.3401407075
 20
21.0644572635
 30
0.0
 11
0.4473055582
 21
0.2236357461
 31
0.0
 40
0.9998096356
 41
1.5707963219
 42
2.6780516535
  0
ELLIPSE
  5
6F5
100
AcDbEntity
  8
RACCORDO
100
AcDbEllipse
 62
7
  6
CONTINUOUS
 10
64.6399883795
 20
-22.7180509226
 30
0.0
 11
0.4473055582
 21
0.2236357461
 31
0.0
 40
0.9998096356
 41
-1.5707963317
 42
-0.4635410001
  0
ELLIPSE
  5
6F6
100
AcDbEntity
  8
RACCORDO
100
AcDbEllipse
 62
7
  6
CONTINUOUS
 10
45.4827880254
 20
21.5076934463
 30
0.0
 11
0.25
 21
0.0
 31
0.0
 40
0.0524077793
 41
-1.5707963268
 42
-0.0058177642
  0
ELLIPSE
  5
6F7
100
AcDbEntity
  8
RACCORDO
100
AcDbEllipse
 62
7
  6
CONTINUOUS
 10
50.0929819201
 20
-23.2005929399
 30
0.0
 11
0.5
 21
0.0
 31
0.0
 40
0.0524077793
 41
1.5707963268
 42
3.1357748894
  0
ELLIPSE
  5
6F8
100
AcDbEntity
  8
RACCORDO
100
AcDbEllipse
 62
7
  6
CONTINUOUS
 10
50.0929819201
 20
-24.6238879147
 30
0.0
 11
0.5
 21
0.0
 31
0.0
 40
0.0058178298
 41
2.495179495
 42
3.1357748894
  0
ELLIPSE
  5
6F9
100
AcDbEntity
  8
RACCORDO
100
AcDbEllipse
 62
7
  6
CONTINUOUS
 10
57.8871471669
 20
-24.6238879147
 30
0.0
 11
0.5
 21
0.0
 31
0.0
 40
0.0058178298
 41
0.0058177642
 42
0.6464131586
  0
ELLIPSE
  5
6FA
100
AcDbEntity
  8
RACCORDO
100
AcDbEllipse
 62
7
  6
CONTINUOUS
 10
62.4973410616
 20
21.5076934463
 30
0.0
 11
0.25
 21
-0.0
 31
0.0
 40
0.0524077793
 41
-3.1357748894
 42
-1.5707963268
  0
ELLIPSE
  5
6FB
100
AcDbEntity
  8
RACCORDO
100
AcDbEllipse
 62
7
  6
CONTINUOUS
 10
57.8871471669
 20
-23.2005929399
 30
0.0
 11
0.5
 21
0.0
 31
0.0
 40
0.0524077793
 41
0.0058177642
 42
1.5707963268
  0
ELLIPSE
  5
6FC
100
AcDbEntity
  8
RACCORDO
100
AcDbEllipse
 62
7
  6
CONTINUOUS
 10
50.0929819201
 20
22.9702942555
 30
0.0
 11
0.5
 21
0.0
 31
0.0
 40
0.0058178298
 41
-3.1357748894
 42
-2.495179495
  0
ELLIPSE
  5
6FD
100
AcDbEntity
  8
RACCORDO
100
AcDbEllipse
 62
7
  6
CONTINUOUS
 10
50.0929819201
 20
21.5469992808
 30
0.0
 11
0.5
 21
0.0
 31
0.0
 40
0.0524077793
 41
-3.1357748894
 42
-1.5707963268
  0
ELLIPSE
  5
6FE
100
AcDbEntity
  8
RACCORDO
100
AcDbEllipse
 62
7
  6
CONTINUOUS
 10
64.3827880254
 20
21.5076934463
 30
0.0
 11
0.25
 21
-0.0
 31
0.0
 40
0.0524077793
 41
-1.5707963268
 42
-0.5261092631
  0
ELLIPSE
  5
6FF
100
AcDbEntity
  8
RACCORDO
100
AcDbEllipse
 62
7
  6
CONTINUOUS
 10
43.5973410616
 20
-23.1612871055
 30
0.0
 11
0.25
 21
0.0
 31
0.0
 40
0.0524077793
 41
1.5707963268
 42
2.6154833905
  0
ELLIPSE
  5
700
100
AcDbEntity
  8
RACCORDO
100
AcDbEllipse
 62
7
  6
CONTINUOUS
 10
57.8871471669
 20
21.5469992808
 30
0.0
 11
0.5
 21
0.0
 31
0.0
 40
0.0524077793
 41
-1.5707963268
 42
-0.0058177642
  0
ELLIPSE
  5
701
100
AcDbEntity
  8
RACCORDO
100
AcDbEllipse
 62
7
  6
CONTINUOUS
 10
57.8871471669
 20
22.9702942555
 30
0.0
 11
0.5
 21
-0.0
 31
0.0
 40
0.0058178298
 41
-0.6464131586
 42
-0.0058177642
  0
ELLIPSE
  5
702
100
AcDbEntity
  8
RACCORDO
100
AcDbEllipse
 62
7
  6
CONTINUOUS
 10
43.5973410616
 20
21.5076934463
 30
0.0
 11
0.25
 21
0.0
 31
0.0
 40
0.0524077793
 41
-2.6154833905
 42
-1.5707963268
  0
ELLIPSE
  5
703
100
AcDbEntity
  8
RACCORDO
100
AcDbEllipse
 62
7
  6
CONTINUOUS
 10
45.4827880254
 20
-23.1612871055
 30
0.0
 11
0.25
 21
0.0
 31
0.0
 40
0.0524077793
 41
0.0058177642
 42
1.5707963268
  0
ELLIPSE
  5
704
100
AcDbEntity
  8
RACCORDO
100
AcDbEllipse
 62
7
  6
CONTINUOUS
 10
62.4973410616
 20
-23.1612871055
 30
0.0
 11
0.25
 21
-0.0
 31
0.0
 40
0.0524077793
 41
1.5707963268
 42
3.1357748894
  0
ELLIPSE
  5
705
100
AcDbEntity
  8
RACCORDO
100
AcDbEllipse
 62
7
  6
CONTINUOUS
 10
64.3827880254
 20
-23.1612871055
 30
0.0
 11
0.25
 21
0.0
 31
0.0
 40
0.0524077793
 41
0.5261092631
 42
1.5707963268
  0
ENDSEC
  0
SECTION
  2
OBJECTS
  0
DICTIONARY
  5
C
100
AcDbDictionary
280
0
281
1
  3
ACAD_GROUP
350
D
  3
ACAD_MLINESTYLE
350
17
  3
ACAD_LAYOUT
350
1A
  3
ACAD_PLOTSETTINGS
350
19
  3
ACAD_PLOTSTYLENAME
350
E
  0
DICTIONARY
  5
D
102
{ACAD_REACTORS
330
C
102
}
100
AcDbDictionary
280
0
281
1
  0
ACDBDICTIONARYWDFLT
  5
E
102
{ACAD_REACTORS
330
C
102
}
100
AcDbDictionary
281
1
  3
Normal
350
F
100
AcDbDictionaryWithDefault
340
F
  0
DICTIONARY
  5
17
102
{ACAD_REACTORS
330
C
102
}
100
AcDbDictionary
280
0
281
1
  3
Standard
350
18
  0
DICTIONARY
  5
19
102
{ACAD_REACTORS
330
C
102
}
100
AcDbDictionary
281
1
  0
DICTIONARY
  5
1A
102
{ACAD_REACTORS
330
C
102
}
100
AcDbDictionary
281
1
  3
Model
350
706
  3
Layout1
350
707
  0
ACDBPLACEHOLDER
  5
F
102
{ACAD_REACTORS
330
E
102
}
  0
MLINESTYLE
  5
18
102
{ACAD_REACTORS
330
17
102
}
100
AcDbMlineStyle
  2
STANDARD
 70
0
  3

 62
256
 51
90.0
 52
90.0
 71
2
 49
0.5
 62
256
  6
BYLAYER
 49
-0.5
 62
256
  6
BYLAYER
  0
LAYOUT
  5
706
102
{ACAD_REACTORS
330
1A
102
}
100
AcDbPlotSettings
  1

  2
none_device
  4
ANSI_A_(11.00_x_8.50_Inches)
  6

 40
0.0
 41
0.0
 42
0.0
 43
0.0
 44
279.4
 45
215.9
 46
0.0
 47
0.0
 48
0.0
 49
0.0
140
0.0
141
0.0
142
1.0
143
1.0
 70
1024
 72
1
 73
0
 74
0
  7

 75
0
147
1.0
148
0.0
149
0.0
100
AcDbLayout
  1
Model
 70
0
 71
0
 10
0.0
 20
0.0
 11
279.4
 21
215.9
 12
0.0
 22
0.0
 32
0.0
 14
0.0
 24
0.0
 34
0.0
 15
0.0
 25
0.0
 35
0.0
146
0.0
 13
0.0
 23
0.0
 33
0.0
 16
1.0
 26
0.0
 36
0.0
 17
0.0
 27
1.0
 37
0.0
 76
0
330
215
345
0
346
0
  0
LAYOUT
  5
707
102
{ACAD_REACTORS
330
1A
102
}
100
AcDbPlotSettings
  1

  2
none_device
  4
ANSI_A_(11.00_x_8.50_Inches)
  6

 40
0.0
 41
0.0
 42
0.0
 43
0.0
 44
279.4
 45
215.9
 46
0.0
 47
0.0
 48
0.0
 49
0.0
140
0.0
141
0.0
142
1.0
143
1.0
 70
0
 72
1
 73
0
 74
0
  7

 75
0
147
1.0
148
0.0
149
0.0
100
AcDbLayout
  1
Layout1
 70
0
 71
1
 10
0.0
 20
0.0
 11
279.4
 21
215.9
 12
0.0
 22
0.0
 32
0.0
 14
0.0
 24
0.0
 34
0.0
 15
0.0
 25
0.0
 35
0.0
146
0.0
 13
0.0
 23
0.0
 33
0.0
 16
1.0
 26
0.0
 36
0.0
 17
0.0
 27
1.0
 37
0.0
 76
0
330
216
345
0
346
0
  0
ENDSEC
  0
EOF
