  0
SECTION
  2
HEADER
  9
$ACADVER
  1
AC1024
  9
$DWGCODEPAGE
  3
ANSI_1252
  9
$EXTMAX
 10
279.4
 20
215.9
 30
0.0
  9
$EXTMIN
 10
0.0
 20
0.0
 30
0.0
  9
$LIMMIN
 10
0.0
 20
0.0
  9
$LIMMAX
 10
279.4
 20
215.9
  9
$VIEWCTR
 10
139.7
 20
107.95
  9
$VIEWSIZE
 40
215.9
  9
$CLAYER
  8
0
  9
$LTSCALE
 40
15.367
  9
$CELTYPE
  6
BYLAYER
  9
$DIMSCALE
 40
1.0
  9
$DIMASZ
 40
3.0
  9
$DIMEXO
 40
0.5
  9
$DIMDLI
 40
10.6172
  9
$DIMEXE
 40
1.5
  9
$DIMCEN
 40
2.5146
  9
$DIMLFAC
 40
1.0
  9
$DIMBLK
  1
_FILLED
  9
$DIMALT
 70
0
  9
$DIMALTF
 40
0.0393700787
  9
$DIMTXT
 40
3.0
  9
$DIMTOL
 70
1
  9
$DIMLIM
 70
0
  9
$DIMTFAC
 40
1.0
  9
$DIMTP
 40
0.01
  9
$DIMTM
 40
0.01
  9
$DIMGAP
 40
0.625
  9
$DIMDSEP
 70
44
  9
$AUNITS
 70
0
  9
$PDMODE
 70
3
  9
$PDSIZE
 40
3.0
  9
$HANDSEED
  5
680
  9
$TILEMODE
 70
1
  9
$MEASUREMENT
 70
1
  9
$INSUNITS
 70
4
  0
ENDSEC
  0
SECTION
  2
CLASSES
  0
CLASS
  1
ACDBDICTIONARYWDFLT
  2
AcDbDictionaryWithDefault
  3
AutoCAD 2000
 90
0
 91
1
280
0
281
0
  0
CLASS
  1
ACDBPLACEHOLDER
  2
AcDbPlaceHolder
  3
AutoCAD 2000
 90
0
 91
1
280
0
281
0
  0
CLASS
  1
LAYOUT
  2
AcDbLayout
  3
AutoCAD 2000
 90
0
 91
0
280
0
281
0
  0
ENDSEC
  0
SECTION
  2
TABLES
  0
TABLE
  2
VPORT
  5
8
100
AcDbSymbolTable
 70
2
  0
VPORT
  5
1F4
100
AcDbSymbolTableRecord
100
AcDbViewportTableRecord
  2
*ACTIVE
 70
0
 10
0.0
 20
0.0
 11
1.0
 21
1.0
 12
139.7
 22
107.95
 13
0.0
 23
0.0
 14
1.0
 24
1.0
 15
0.0
 25
0.0
 16
0.0
 26
0.0
 36
1.0
 17
0.0
 27
0.0
 37
0.0
 40
215.9
 41
1.2941176471
 42
50.0
 43
0.0
 44
0.0
 50
0.0
 51
0.0
 71
0
 72
100
 73
1
 74
1
 75
0
 76
0
 77
0
 78
0
  0
ENDTAB
  0
TABLE
  2
LTYPE
  5
5
100
AcDbSymbolTable
 70
6
  0
LTYPE
  5
14
100
AcDbSymbolTableRecord
100
AcDbLinetypeTableRecord
  2
BYBLOCK
 70
0
  3

 72
65
 73
0
 40
0.0
  0
LTYPE
  5
15
100
AcDbSymbolTableRecord
100
AcDbLinetypeTableRecord
  2
BYLAYER
 70
0
  3

 72
65
 73
0
 40
0.0
  0
LTYPE
  5
16
100
AcDbSymbolTableRecord
100
AcDbLinetypeTableRecord
  2
CONTINUOUS
 70
64
  3
Solid line
 72
65
 73
0
 40
0.0
  0
LTYPE
  5
1F5
100
AcDbSymbolTableRecord
100
AcDbLinetypeTableRecord
  2
CENTER
 70
64
  3
____ _ ____ _ ____ _ ____ _ ____ _ ____ _ ____
 72
65
 73
4
 40
0.6
 49
0.375
 74
0
 49
-0.075
 74
0
 49
0.075
 74
0
 49
-0.075
 74
0
  0
LTYPE
  5
1F6
100
AcDbSymbolTableRecord
100
AcDbLinetypeTableRecord
  2
HIDDEN
 70
64
  3
- - - - - - - - - - - - - - - - - - - -
 72
65
 73
2
 40
0.2
 49
0.1
 74
0
 49
-0.1
 74
0
  0
LTYPE
  5
1F7
100
AcDbSymbolTableRecord
100
AcDbLinetypeTableRecord
  2
PHANTOM
 70
64
  3
_____ _ _ _____ _ _ _____ _ _ _____
 72
65
 73
6
 40
0.8
 49
0.45
 74
0
 49
-0.05
 74
0
 49
0.1
 74
0
 49
-0.05
 74
0
 49
0.1
 74
0
 49
-0.05
 74
0
  0
LTYPE
  5
1F8
100
AcDbSymbolTableRecord
100
AcDbLinetypeTableRecord
  2
DOT
 70
64
  3
. . . . . . . . . . . . . . . . . . . .
 72
65
 73
2
 40
0.2
 49
0.1
 74
0
 49
-0.1
 74
0
  0
LTYPE
  5
1F9
100
AcDbSymbolTableRecord
100
AcDbLinetypeTableRecord
  2
DASHED
 70
64
  3
- - - - - - - - - - - - - - - - - - - -
 72
65
 73
2
 40
0.2
 49
0.1
 74
0
 49
-0.1
 74
0
  0
ENDTAB
  0
TABLE
  2
LAYER
  5
2
100
AcDbSymbolTable
 70
36
  0
LAYER
  5
10
100
AcDbSymbolTableRecord
100
AcDbLayerTableRecord
  2
0
 70
0
 62
7
  6
CONTINUOUS
370
-3
390
F
  0
LAYER
  5
1FA
100
AcDbSymbolTableRecord
100
AcDbLayerTableRecord
  2
DEFAULT_1
 70
0
 62
7
  6
CENTER
370
-3
390
F
  0
LAYER
  5
1FB
100
AcDbSymbolTableRecord
100
AcDbLayerTableRecord
  2
DEFAULT_2
 70
0
 62
7
  6
HIDDEN
370
-3
390
F
  0
LAYER
  5
1FC
100
AcDbSymbolTableRecord
100
AcDbLayerTableRecord
  2
DEFAULT_3
 70
0
 62
7
  6
PHANTOM
370
-3
390
F
  0
LAYER
  5
1FD
100
AcDbSymbolTableRecord
100
AcDbLayerTableRecord
  2
ASSI
 70
0
 62
7
  6
CONTINUOUS
370
-3
390
F
  0
LAYER
  5
1FE
100
AcDbSymbolTableRecord
100
AcDbLayerTableRecord
  2
COORDINATE
 70
0
 62
7
  6
CONTINUOUS
370
-3
390
F
  0
LAYER
  5
1FF
100
AcDbSymbolTableRecord
100
AcDbLayerTableRecord
  2
COORD_ORIGINE
 70
0
 62
7
  6
CONTINUOUS
370
-3
390
F
  0
LAYER
  5
200
100
AcDbSymbolTableRecord
100
AcDbLayerTableRecord
  2
CURVE
 70
0
 62
7
  6
CONTINUOUS
370
-3
390
F
  0
LAYER
  5
201
100
AcDbSymbolTableRecord
100
AcDbLayerTableRecord
  2
CURVE_COSTR_MODELLO
 70
0
 62
7
  6
CONTINUOUS
370
-3
390
F
  0
LAYER
  5
202
100
AcDbSymbolTableRecord
100
AcDbLayerTableRecord
  2
CURVE_SKETCH
 70
0
 62
7
  6
CONTINUOUS
370
-3
390
F
  0
LAYER
  5
203
100
AcDbSymbolTableRecord
100
AcDbLayerTableRecord
  2
DRAFT
 70
0
 62
7
  6
CONTINUOUS
370
-3
390
F
  0
LAYER
  5
204
100
AcDbSymbolTableRecord
100
AcDbLayerTableRecord
  2
IGES
 70
0
 62
7
  6
CONTINUOUS
370
-3
390
F
  0
LAYER
  5
205
100
AcDbSymbolTableRecord
100
AcDbLayerTableRecord
  2
INTF_1
 70
0
 62
7
  6
CONTINUOUS
370
-3
390
F
  0
LAYER
  5
206
100
AcDbSymbolTableRecord
100
AcDbLayerTableRecord
  2
INTF_12
 70
0
 62
7
  6
CONTINUOUS
370
-3
390
F
  0
LAYER
  5
207
100
AcDbSymbolTableRecord
100
AcDbLayerTableRecord
  2
INTF_6
 70
0
 62
7
  6
CONTINUOUS
370
-3
390
F
  0
LAYER
  5
208
100
AcDbSymbolTableRecord
100
AcDbLayerTableRecord
  2
NOTE
 70
0
 62
7
  6
CONTINUOUS
370
-3
390
F
  0
LAYER
  5
209
100
AcDbSymbolTableRecord
100
AcDbLayerTableRecord
  2
PIANI
 70
0
 62
7
  6
CONTINUOUS
370
-3
390
F
  0
LAYER
  5
20A
100
AcDbSymbolTableRecord
100
AcDbLayerTableRecord
  2
PIANI_ORIGINE
 70
0
 62
7
  6
CONTINUOUS
370
-3
390
F
  0
LAYER
  5
20B
100
AcDbSymbolTableRecord
100
AcDbLayerTableRecord
  2
PIANI_RIFERIMENTO
 70
0
 62
7
  6
CONTINUOUS
370
-3
390
F
  0
LAYER
  5
20C
100
AcDbSymbolTableRecord
100
AcDbLayerTableRecord
  2
PIANI_SFORMO
 70
0
 62
7
  6
CONTINUOUS
370
-3
390
F
  0
LAYER
  5
20D
100
AcDbSymbolTableRecord
100
AcDbLayerTableRecord
  2
PUNTI
 70
0
 62
7
  6
CONTINUOUS
370
-3
390
F
  0
LAYER
  5
20E
100
AcDbSymbolTableRecord
100
AcDbLayerTableRecord
  2
RACCORDO
 70
0
 62
7
  6
CONTINUOUS
370
-3
390
F
  0
LAYER
  5
20F
100
AcDbSymbolTableRecord
100
AcDbLayerTableRecord
  2
SMUSSO
 70
0
 62
7
  6
CONTINUOUS
370
-3
390
F
  0
LAYER
  5
210
100
AcDbSymbolTableRecord
100
AcDbLayerTableRecord
  2
SNAPLINE
 70
0
 62
7
  6
CONTINUOUS
370
-3
390
F
  0
LAYER
  5
211
100
AcDbSymbolTableRecord
100
AcDbLayerTableRecord
  2
SOLIDO
 70
0
 62
7
  6
CONTINUOUS
370
-3
390
F
  0
LAYER
  5
212
100
AcDbSymbolTableRecord
100
AcDbLayerTableRecord
  2
SUPERFICI
 70
0
 62
7
  6
CONTINUOUS
370
-3
390
F
  0
LAYER
  5
213
100
AcDbSymbolTableRecord
100
AcDbLayerTableRecord
  2
TRASH
 70
0
 62
7
  6
CONTINUOUS
370
-3
390
F
  0
LAYER
  5
214
100
AcDbSymbolTableRecord
100
AcDbLayerTableRecord
  2
XSEC_DATUMS
 70
0
 62
7
  6
CONTINUOUS
370
-3
390
F
  0
ENDTAB
  0
TABLE
  2
STYLE
  5
3
100
AcDbSymbolTable
 70
1
  0
STYLE
  5
11
100
AcDbSymbolTableRecord
100
AcDbTextStyleTableRecord
  2
STANDARD
 70
0
 40
0.0
 41
0.8
 50
0.0
 71
0
 42
0.2
  3
txt
  4

  0
STYLE
  5
215
100
AcDbSymbolTableRecord
100
AcDbTextStyleTableRecord
  2
TEXTSTYLE_1
 70
0
 40
0.0
 41
0.8
 50
0.0
 71
0
 42
0.2
  3
gdt
  4

  0
ENDTAB
  0
TABLE
  2
VIEW
  5
6
100
AcDbSymbolTable
 70
0
  0
ENDTAB
  0
TABLE
  2
UCS
  5
7
100
AcDbSymbolTable
 70
0
  0
ENDTAB
  0
TABLE
  2
APPID
  5
9
100
AcDbSymbolTable
 70
1
  0
APPID
  5
216
100
AcDbSymbolTableRecord
100
AcDbRegAppTableRecord
  2
ACAD
 70
0
  0
ENDTAB
  0
TABLE
  2
BLOCK_RECORD
  5
1
100
AcDbSymbolTable
 70
0
  0
BLOCK_RECORD
  5
217
100
AcDbSymbolTableRecord
100
AcDbBlockTableRecord
  2
*Model_Space
  0
BLOCK_RECORD
  5
218
100
AcDbSymbolTableRecord
100
AcDbBlockTableRecord
  2
*Paper_Space
  0
BLOCK_RECORD
  5
219
100
AcDbSymbolTableRecord
100
AcDbBlockTableRecord
  2
_FILLED
  0
BLOCK_RECORD
  5
21A
100
AcDbSymbolTableRecord
100
AcDbBlockTableRecord
  2
*D0
  0
BLOCK_RECORD
  5
21B
100
AcDbSymbolTableRecord
100
AcDbBlockTableRecord
  2
*D1
  0
BLOCK_RECORD
  5
21C
100
AcDbSymbolTableRecord
100
AcDbBlockTableRecord
  2
*D2
  0
BLOCK_RECORD
  5
21D
100
AcDbSymbolTableRecord
100
AcDbBlockTableRecord
  2
*D3
  0
ENDTAB
  0
TABLE
  2
DIMSTYLE
  5
A
100
AcDbSymbolTable
 70
1
100
AcDbDimStyleTable
 71
0
  0
DIMSTYLE
105
21E
100
AcDbSymbolTableRecord
100
AcDbDimStyleTableRecord
  2
STANDARD
 70
0
  3

  4

 40
1.0
 41
3.0
 42
0.5
 43
0.38
 44
1.5
 45
0.0
 46
0.0
 47
0.01
 48
0.01
140
3.0
141
0.09
142
0.0
143
25.4
144
1.0
145
0.0
146
1.0
147
0.625
 71
1.0
 72
0.0
 73
0
 74
0
 75
0
 76
0
 77
1
 78
8
 79
2
170
0
171
1
172
0
173
0
174
0
175
0
176
0
177
0
178
0
270
2
179
2
271
2
272
2
273
2
274
2
275
0
280
0
281
0
282
0
283
1
284
8
285
0
286
0
287
3
288
0
340
11
278
44
341
219
342
219
343
219
344
219
  0
DIMSTYLE
105
21F
100
AcDbSymbolTableRecord
100
AcDbDimStyleTableRecord
  2
DIMSTYLE_1
 70
0
  3

  4

 40
1.0
 41
3.0
 42
0.5
 43
0.38
 44
1.5
 45
0.0
 46
0.0
 47
0.0
 48
0.0
140
3.0
141
0.09
142
0.0
143
25.4
144
1.0
145
0.0
146
1.0
147
0.75
 71
0.0
 72
0.0
 73
0
 74
0
 75
0
 76
0
 77
1
 78
8
 79
2
170
0
171
1
172
0
173
0
174
0
175
0
176
0
177
0
178
0
270
2
179
2
271
2
272
2
273
2
274
2
275
0
280
0
281
0
282
0
283
1
284
8
285
0
286
0
287
3
288
0
340
11
278
44
341
219
342
219
343
219
344
219
  0
ENDTAB
  0
ENDSEC
  0
SECTION
  2
BLOCKS
  0
BLOCK
  5
20
100
AcDbEntity
  8
0
100
AcDbBlockBegin
  2
*Model_Space
 70
0
 10
0.0
 20
0.0
 30
0.0
  3
*Model_Space
  1

  0
ENDBLK
  5
21
100
AcDbEntity
  8
0
100
AcDbBlockEnd
  0
BLOCK
  5
1C
100
AcDbEntity
  8
0
100
AcDbBlockBegin
  2
*Paper_Space
 70
0
 10
0.0
 20
0.0
 30
0.0
  3
*Paper_Space
  1

  0
ENDBLK
  5
1D
100
AcDbEntity
  8
0
100
AcDbBlockEnd
  0
BLOCK
  5
220
100
AcDbEntity
  8
0
100
AcDbBlockBegin
  2
_FILLED
 70
64
 10
0.0
 20
0.0
  3
_FILLED
  1

  0
SOLID
  5
221
100
AcDbEntity
  8
0
  6
BYBLOCK
 62
0
100
AcDbTrace
 10
0.0
 20
0.0
 11
-1.0
 21
0.3166666667
 12
-1.0
 22
-0.3166666667
 13
-1.0
 23
-0.3166666667
  0
ENDBLK
  5
222
100
AcDbEntity
  8
0
  6
BYBLOCK
 62
0
100
AcDbBlockEnd
  0
BLOCK
  5
223
100
AcDbEntity
  8
0
100
AcDbBlockBegin
 62
7
  6
CONTINUOUS
  2
*D0
 70
65
 10
0.0
 20
0.0
  3
*D0
  1

  0
LINE
  5
224
100
AcDbEntity
  8
0
100
AcDbLine
 62
7
  6
CONTINUOUS
 10
29.1406523845
 20
16.7888391296
 11
29.1406523845
 21
44.8267968296
  0
LINE
  5
225
100
AcDbEntity
  8
0
100
AcDbLine
 62
7
  6
CONTINUOUS
 10
-33.0593476155
 20
-0.3267968296
 11
-33.0593476155
 21
44.8267968296
  0
LINE
  5
226
100
AcDbEntity
  8
0
100
AcDbLine
 62
7
  6
CONTINUOUS
 10
29.1406523845
 20
43.3267968296
 11
-1.9593476155
 21
43.3267968296
  0
LINE
  5
227
100
AcDbEntity
  8
0
100
AcDbLine
 62
7
  6
CONTINUOUS
 10
-33.0593476155
 20
43.3267968296
 11
-1.9593476155
 21
43.3267968296
  0
INSERT
  5
228
100
AcDbEntity
  8
0
100
AcDbBlockReference
 62
7
  6
CONTINUOUS
  2
_FILLED
 10
29.1406523845
 20
43.3267968296
 41
3.0
 42
3.0
 43
3.0
  0
INSERT
  5
229
100
AcDbEntity
  8
0
100
AcDbBlockReference
 62
7
  6
CONTINUOUS
  2
_FILLED
 10
-33.0593476155
 20
43.3267968296
 41
3.0
 42
3.0
 43
3.0
 50
180.0
  0
ENDBLK
  5
22A
100
AcDbEntity
  8
0
  6
BYBLOCK
 62
0
100
AcDbBlockEnd
  0
BLOCK
  5
22B
100
AcDbEntity
  8
0
100
AcDbBlockBegin
 62
7
  6
CONTINUOUS
  2
*D1
 70
65
 10
0.0
 20
0.0
  3
*D1
  1

  0
LINE
  5
22C
100
AcDbEntity
  8
0
100
AcDbLine
 62
7
  6
CONTINUOUS
 10
-9.8593476155
 20
21.5743830149
 11
-9.8593476155
 21
34.8267968296
  0
LINE
  5
22D
100
AcDbEntity
  8
0
100
AcDbLine
 62
7
  6
CONTINUOUS
 10
29.1406523845
 20
16.7888391296
 11
29.1406523845
 21
34.8267968296
  0
LINE
  5
22E
100
AcDbEntity
  8
0
100
AcDbLine
 62
7
  6
CONTINUOUS
 10
-9.8593476155
 20
33.3267968296
 11
9.6406523845
 21
33.3267968296
  0
LINE
  5
22F
100
AcDbEntity
  8
0
100
AcDbLine
 62
7
  6
CONTINUOUS
 10
29.1406523845
 20
33.3267968296
 11
9.6406523845
 21
33.3267968296
  0
INSERT
  5
230
100
AcDbEntity
  8
0
100
AcDbBlockReference
 62
7
  6
CONTINUOUS
  2
_FILLED
 10
-9.8593476155
 20
33.3267968296
 41
3.0
 42
3.0
 43
3.0
 50
180.0
  0
INSERT
  5
231
100
AcDbEntity
  8
0
100
AcDbBlockReference
 62
7
  6
CONTINUOUS
  2
_FILLED
 10
29.1406523845
 20
33.3267968296
 41
3.0
 42
3.0
 43
3.0
  0
ENDBLK
  5
232
100
AcDbEntity
  8
0
  6
BYBLOCK
 62
0
100
AcDbBlockEnd
  0
BLOCK
  5
233
100
AcDbEntity
  8
0
100
AcDbBlockBegin
 62
7
  6
CONTINUOUS
  2
*D2
 70
65
 10
0.0
 20
0.0
  3
*D2
  1

  0
LINE
  5
234
100
AcDbEntity
  8
0
100
AcDbLine
 62
7
  6
CONTINUOUS
 10
40.7417482104
 20
21.5743830149
 11
40.7417482104
 21
34.8267968296
  0
LINE
  5
235
100
AcDbEntity
  8
0
100
AcDbLine
 62
7
  6
CONTINUOUS
 10
63.0417482104
 20
21.5743830149
 11
63.0417482104
 21
34.8267968296
  0
LINE
  5
236
100
AcDbEntity
  8
0
100
AcDbLine
 62
7
  6
CONTINUOUS
 10
40.7417482104
 20
33.3267968296
 11
51.8917482104
 21
33.3267968296
  0
LINE
  5
237
100
AcDbEntity
  8
0
100
AcDbLine
 62
7
  6
CONTINUOUS
 10
63.0417482104
 20
33.3267968296
 11
51.8917482104
 21
33.3267968296
  0
INSERT
  5
238
100
AcDbEntity
  8
0
100
AcDbBlockReference
 62
7
  6
CONTINUOUS
  2
_FILLED
 10
40.7417482104
 20
33.3267968296
 41
3.0
 42
3.0
 43
3.0
 50
180.0
  0
INSERT
  5
239
100
AcDbEntity
  8
0
100
AcDbBlockReference
 62
7
  6
CONTINUOUS
  2
_FILLED
 10
63.0417482104
 20
33.3267968296
 41
3.0
 42
3.0
 43
3.0
  0
ENDBLK
  5
23A
100
AcDbEntity
  8
0
  6
BYBLOCK
 62
0
100
AcDbBlockEnd
  0
BLOCK
  5
23B
100
AcDbEntity
  8
0
100
AcDbBlockBegin
 62
7
  6
CONTINUOUS
  2
*D3
 70
65
 10
0.0
 20
0.0
  3
*D3
  1

  0
LINE
  5
23C
100
AcDbEntity
  8
0
100
AcDbLine
 62
7
  6
CONTINUOUS
 10
62.7917524411
 20
23.6732031704
 11
76.3917482104
 21
23.6732031704
  0
LINE
  5
23D
100
AcDbEntity
  8
0
100
AcDbLine
 62
7
  6
CONTINUOUS
 10
62.7917524411
 20
-25.3267968296
 11
76.3917482104
 21
-25.3267968296
  0
LINE
  5
23E
100
AcDbEntity
  8
0
100
AcDbLine
 62
7
  6
CONTINUOUS
 10
74.8917482104
 20
23.6732031704
 11
74.8917482104
 21
-0.8267968296
  0
LINE
  5
23F
100
AcDbEntity
  8
0
100
AcDbLine
 62
7
  6
CONTINUOUS
 10
74.8917482104
 20
-25.3267968296
 11
74.8917482104
 21
-0.8267968296
  0
INSERT
  5
240
100
AcDbEntity
  8
0
100
AcDbBlockReference
 62
7
  6
CONTINUOUS
  2
_FILLED
 10
74.8917482104
 20
23.6732031704
 41
3.0
 42
3.0
 43
3.0
 50
90.0
  0
INSERT
  5
241
100
AcDbEntity
  8
0
100
AcDbBlockReference
 62
7
  6
CONTINUOUS
  2
_FILLED
 10
74.8917482104
 20
-25.3267968296
 41
3.0
 42
3.0
 43
3.0
 50
270.0
  0
ENDBLK
  5
242
100
AcDbEntity
  8
0
  6
BYBLOCK
 62
0
100
AcDbBlockEnd
  0
ENDSEC
  0
SECTION
  2
ENTITIES
  0
DIMENSION
  5
243
100
AcDbEntity
  8
0
100
AcDbDimension
 62
7
  6
CONTINUOUS
  2
*D0
 10
-33.0593476155
 20
43.3267968296
 11
-6.3522047583
 21
43.3267968296
 70
160
 71
2
 72
2
 41
0.9
 42
62.2
  3
DIMSTYLE_1
100
AcDbAlignedDimension
 13
29.1406523845
 23
16.2888391296
 14
-33.0593476155
 24
-0.8267968296
 50
180.0
100
AcDbRotatedDimension
  0
DIMENSION
  5
244
100
AcDbEntity
  8
0
100
AcDbDimension
 62
7
  6
CONTINUOUS
  2
*D1
 10
29.1406523845
 20
33.3267968296
 11
7.3906523845
 21
33.3267968296
 70
160
 71
2
 72
2
 41
0.9
 42
39.0
  3
DIMSTYLE_1
100
AcDbAlignedDimension
 13
-9.8593476155
 23
21.0743830149
 14
29.1406523845
 24
16.2888391296
100
AcDbRotatedDimension
  0
DIMENSION
  5
245
100
AcDbEntity
  8
0
100
AcDbDimension
 62
7
  6
CONTINUOUS
  2
*D2
 10
63.0417482104
 20
33.3267968296
 11
47.6060339246
 21
33.3267968296
 70
160
 71
2
 72
2
 41
0.9
 42
22.3
  3
DIMSTYLE_1
100
AcDbAlignedDimension
 13
40.7417482104
 23
21.0743830149
 14
63.0417482104
 24
21.0743830149
100
AcDbRotatedDimension
  0
DIMENSION
  5
246
100
AcDbEntity
  8
0
100
AcDbDimension
 62
7
  6
CONTINUOUS
  2
*D3
 10
74.8917482104
 20
-25.3267968296
 11
74.8917482104
 21
-3.1839396867
 70
160
 71
2
 72
2
 41
0.9
 42
49.0
  3
DIMSTYLE_1
100
AcDbAlignedDimension
 13
62.2917524411
 23
23.6732031704
 14
62.2917524411
 24
-25.3267968296
 50
270.0
100
AcDbRotatedDimension
  0
LWPOLYLINE
  5
247
100
AcDbEntity
  8
0
100
AcDbPolyline
 62
7
  6
CONTINUOUS
 90
10
 70
0
 43
0.3500000087
 10
-5.2807760685
 20
47.0767950897
 10
-5.9236335346
 20
46.4339397552
 10
-6.3522050011
 20
45.5767978882
 10
-6.3522050011
 20
44.5053694885
 10
-5.9236335346
 20
44.0767964233
 10
-5.2807760685
 20
44.0767964233
 10
-4.8522046021
 20
44.5053694885
 10
-4.8522046021
 20
45.3625113556
 10
-5.2807760685
 20
45.7910844208
 10
-6.2093474903
 20
45.7910844208
  0
LINE
  5
248
100
AcDbEntity
  8
RACCORDO
100
AcDbLine
 62
250
  6
CONTINUOUS
 10
-32.6840422999
 20
-7.5272284415
 11
-32.6840422999
 21
5.8736347824
  0
LINE
  5
249
100
AcDbEntity
  8
RACCORDO
100
AcDbLine
 62
250
  6
CONTINUOUS
 10
-32.222048081
 20
-7.9701735417
 11
-32.222048081
 21
6.3165798826
  0
LWPOLYLINE
  5
24A
100
AcDbEntity
  8
0
100
AcDbPolyline
 62
7
  6
CONTINUOUS
 90
5
 70
0
 43
0.3500000087
 10
8.247795401
 20
35.7910831818
 10
8.6049378456
 20
36.0053697144
 10
8.6049378456
 20
36.6482250488
 10
8.247795401
 20
37.076798114
 10
7.3906524681
 20
37.076798114
  0
LINE
  5
24B
100
AcDbEntity
  8
RACCORDO
100
AcDbLine
 62
250
  6
CONTINUOUS
 10
-10.8593476155
 20
22.5836883187
 11
-10.1078931826
 21
23.0175407377
  0
LINE
  5
24C
100
AcDbEntity
  8
RACCORDO
100
AcDbLine
 62
7
  6
CONTINUOUS
 10
-10.8593476155
 20
22.2958529012
 11
-9.8593476155
 21
22.8732031704
  0
LINE
  5
24D
100
AcDbEntity
  8
RACCORDO
100
AcDbLine
 62
7
  6
CONTINUOUS
 10
-10.1078931826
 20
-25.3224249956
 11
-10.8593476155
 21
-25.3267968296
  0
LINE
  5
24E
100
AcDbEntity
  8
RACCORDO
100
AcDbLine
 62
250
  6
CONTINUOUS
 10
-10.1078931826
 20
-25.0724292263
 11
-10.8593476155
 21
-25.0768010603
  0
LINE
  5
24F
100
AcDbEntity
  8
RACCORDO
100
AcDbLine
 62
250
  6
CONTINUOUS
 10
-9.8593476155
 20
-25.0724292263
 11
-10.1078931826
 21
-25.0724292263
  0
LINE
  5
250
100
AcDbEntity
  8
RACCORDO
100
AcDbLine
 62
250
  6
CONTINUOUS
 10
-13.3593476155
 20
-25.0637024816
 11
-13.1108020483
 21
-25.0637024816
  0
LINE
  5
251
100
AcDbEntity
  8
RACCORDO
100
AcDbLine
 62
250
  6
CONTINUOUS
 10
-13.3593476155
 20
-24.6711343969
 11
-13.1108020483
 21
-24.6711343969
  0
LINE
  5
252
100
AcDbEntity
  8
RACCORDO
100
AcDbLine
 62
250
  6
CONTINUOUS
 10
-9.8593476155
 20
-24.6711343969
 11
-10.1078931826
 21
-24.6711343969
  0
LINE
  5
253
100
AcDbEntity
  8
RACCORDO
100
AcDbLine
 62
7
  6
CONTINUOUS
 10
-10.8593476155
 20
-25.3267968296
 11
-13.1108020483
 21
-25.3136982508
  0
LINE
  5
254
100
AcDbEntity
  8
RACCORDO
100
AcDbLine
 62
250
  6
CONTINUOUS
 10
-10.8593476155
 20
-25.0768010603
 11
-13.1108020483
 21
-25.0637024816
  0
LINE
  5
255
100
AcDbEntity
  8
RACCORDO
100
AcDbLine
 62
250
  6
CONTINUOUS
 10
-10.1078931826
 20
-24.6711343969
 11
-10.8593476155
 21
-24.2372819778
  0
LINE
  5
256
100
AcDbEntity
  8
RACCORDO
100
AcDbLine
 62
7
  6
CONTINUOUS
 10
-9.9843476155
 20
-24.4546280459
 11
-10.8593476155
 21
-23.9494465604
  0
LINE
  5
257
100
AcDbEntity
  8
RACCORDO
100
AcDbLine
 62
7
  6
CONTINUOUS
 10
-0.85062108
 20
-23.1394519963
 11
-10.8593476155
 21
-23.2267968296
  0
LINE
  5
258
100
AcDbEntity
  8
RACCORDO
100
AcDbLine
 62
250
  6
CONTINUOUS
 10
-10.8572050131
 20
-22.7366848436
 11
-9.8593476155
 21
-22.727976674
  0
LINE
  5
259
100
AcDbEntity
  8
ASSI
100
AcDbLine
 62
7
  6
CONTINUOUS
 10
-9.8644389838
 20
-24.6210086205
 11
-3.3564387498
 21
-24.5831461827
  0
LINE
  5
25A
100
AcDbEntity
  8
RACCORDO
100
AcDbLine
 62
7
  6
CONTINUOUS
 10
-0.3506214123
 20
-22.3927722628
 11
-9.8593476155
 21
-22.2267968296
  0
LINE
  5
25B
100
AcDbEntity
  8
RACCORDO
100
AcDbLine
 62
7
  6
CONTINUOUS
 10
-12.2151035876
 20
-23.1557446698
 11
-18.5161265044
 21
-22.8255220515
  0
LINE
  5
25C
100
AcDbEntity
  8
RACCORDO
100
AcDbLine
 62
250
  6
CONTINUOUS
 10
-18.499033565
 20
-22.3361935795
 11
-10.8572050131
 21
-22.7366848436
  0
LINE
  5
25D
100
AcDbEntity
  8
0
100
AcDbLine
 62
7
  6
CONTINUOUS
 10
-21.7593476155
 20
-8.7017968296
 11
-21.7593476155
 21
7.0482031704
  0
LINE
  5
25E
100
AcDbEntity
  8
RACCORDO
100
AcDbLine
 62
250
  6
CONTINUOUS
 10
-21.4802745576
 20
-8.7274359385
 11
-21.4802745576
 21
7.0738422794
  0
LINE
  5
25F
100
AcDbEntity
  8
RACCORDO
100
AcDbLine
 62
250
  6
CONTINUOUS
 10
-19.4553198012
 20
-21.3691139354
 11
-19.9363533117
 21
-21.389265143
  0
LINE
  5
260
100
AcDbEntity
  8
DRAFT
100
AcDbLine
 62
7
  6
CONTINUOUS
 10
-9.8593476155
 20
-21.6767968296
 11
0.1406523845
 21
-21.5022461803
  0
LINE
  5
261
100
AcDbEntity
  8
ASSI
100
AcDbLine
 62
7
  6
CONTINUOUS
 10
-9.8593476155
 20
-21.6767968296
 11
0.1406523845
 21
-21.5022461803
  0
LINE
  5
262
100
AcDbEntity
  8
RACCORDO
100
AcDbLine
 62
7
  6
CONTINUOUS
 10
28.158104791
 20
-19.9487295476
 11
0.1406523845
 21
-20.4377759984
  0
LINE
  5
263
100
AcDbEntity
  8
ASSI
100
AcDbLine
 62
7
  6
CONTINUOUS
 10
28.158104791
 20
-19.9487295476
 11
0.1406523845
 21
-20.4377759984
  0
LINE
  5
264
100
AcDbEntity
  8
RACCORDO
100
AcDbLine
 62
250
  6
CONTINUOUS
 10
28.158104791
 20
-19.6558809378
 11
0.1406523845
 21
-20.1449273887
  0
LINE
  5
265
100
AcDbEntity
  8
ASSI
100
AcDbLine
 62
250
  6
CONTINUOUS
 10
28.158104791
 20
-19.6558809378
 11
0.1406523845
 21
-20.1449273887
  0
LINE
  5
266
100
AcDbEntity
  8
RACCORDO
100
AcDbLine
 62
250
  6
CONTINUOUS
 10
-9.8593476155
 20
-19.9124940491
 11
28.158104791
 21
-19.6376231302
  0
LINE
  5
267
100
AcDbEntity
  8
ASSI
100
AcDbLine
 62
250
  6
CONTINUOUS
 10
-9.8593476155
 20
-19.9124940491
 11
28.158104791
 21
-19.6376231302
  0
LINE
  5
268
100
AcDbEntity
  8
RACCORDO
100
AcDbLine
 62
7
  6
CONTINUOUS
 10
0.1406523845
 20
-21.7267968296
 11
-9.8593476155
 21
-21.7267968296
  0
LWPOLYLINE
  5
269
100
AcDbEntity
  8
0
100
AcDbPolyline
 62
7
  6
CONTINUOUS
 90
10
 70
0
 43
0.3500000087
 10
9.9620812668
 20
34.0767951843
 10
10.8192241997
 20
34.9339413147
 10
11.0335096664
 20
35.7910831818
 10
11.0335096664
 20
36.6482250488
 10
10.6049376671
 20
37.076798114
 10
9.9620812668
 20
37.076798114
 10
9.5335092674
 20
36.6482250488
 10
9.5335092674
 20
35.7910831818
 10
9.9620812668
 20
35.3625101166
 10
10.8906526886
 20
35.3625101166
  0
LINE
  5
26A
100
AcDbEntity
  8
CURVE
100
AcDbLine
 62
250
  6
CONTINUOUS
 10
-4.8593476155
 20
15.6732031704
 11
-7.7589069313
 21
14.6651381704
  0
LINE
  5
26B
100
AcDbEntity
  8
RACCORDO
100
AcDbLine
 62
250
  6
CONTINUOUS
 10
-9.8593476155
 20
-18.4984958783
 11
28.158104791
 21
-18.2236249594
  0
LINE
  5
26C
100
AcDbEntity
  8
ASSI
100
AcDbLine
 62
250
  6
CONTINUOUS
 10
-9.8593476155
 20
-18.4984958783
 11
28.158104791
 21
-18.2236249594
  0
LINE
  5
26D
100
AcDbEntity
  8
RACCORDO
100
AcDbLine
 62
7
  6
CONTINUOUS
 10
28.158104791
 20
-16.84110269
 11
1.3906523845
 21
-16.9662959534
  0
LINE
  5
26E
100
AcDbEntity
  8
ASSI
100
AcDbLine
 62
7
  6
CONTINUOUS
 10
28.158104791
 20
-16.84110269
 11
1.3906523845
 21
-16.9662959534
  0
LINE
  5
26F
100
AcDbEntity
  8
RACCORDO
100
AcDbLine
 62
7
  6
CONTINUOUS
 10
5.8406523845
 20
-16.402893494
 11
2.8406523845
 21
-16.4133655121
  0
LINE
  5
270
100
AcDbEntity
  8
ASSI
100
AcDbLine
 62
7
  6
CONTINUOUS
 10
5.8406523845
 20
-16.402893494
 11
2.8406523845
 21
-16.4133655121
  0
LINE
  5
271
100
AcDbEntity
  8
RACCORDO
100
AcDbLine
 62
7
  6
CONTINUOUS
 10
5.8406523845
 20
-16.627773016
 11
1.3906523845
 21
-16.6381787055
  0
LINE
  5
272
100
AcDbEntity
  8
ASSI
100
AcDbLine
 62
7
  6
CONTINUOUS
 10
5.8406523845
 20
-16.627773016
 11
1.3906523845
 21
-16.6381787055
  0
LINE
  5
273
100
AcDbEntity
  8
RACCORDO
100
AcDbLine
 62
250
  6
CONTINUOUS
 10
29.1406523845
 20
-18.2236249594
 11
28.158104791
 21
-18.2236249572
  0
LINE
  5
274
100
AcDbEntity
  8
ASSI
100
AcDbLine
 62
250
  6
CONTINUOUS
 10
29.1406523845
 20
-18.2236249594
 11
28.158104791
 21
-18.2236249572
  0
LINE
  5
275
100
AcDbEntity
  8
RACCORDO
100
AcDbLine
 62
7
  6
CONTINUOUS
 10
29.1406523845
 20
-16.5767968296
 11
27.6406523845
 21
-16.5767968296
  0
LINE
  5
276
100
AcDbEntity
  8
ASSI
100
AcDbLine
 62
7
  6
CONTINUOUS
 10
29.1406523845
 20
-16.5767968296
 11
27.6406523845
 21
-16.5767968296
  0
LINE
  5
277
100
AcDbEntity
  8
CURVE
100
AcDbLine
 62
250
  6
CONTINUOUS
 10
-7.6590439104
 20
-14.9645108296
 11
-5.6624510475
 21
-15.6056358296
  0
LWPOLYLINE
  5
278
100
AcDbEntity
  8
0
100
AcDbPolyline
 62
7
  6
CONTINUOUS
 90
3
 70
0
 43
0.3500000087
 10
-0.9236333148
 20
44.362510379
 10
-0.9950618703
 20
44.1482238464
 10
-1.137919048
 20
43.8625098907
  0
LINE
  5
279
100
AcDbEntity
  8
CURVE
100
AcDbLine
 62
7
  6
CONTINUOUS
 10
-7.7589069313
 20
14.4675725354
 11
-7.4560494113
 21
14.7704300554
  0
LINE
  5
27A
100
AcDbEntity
  8
CURVE
100
AcDbLine
 62
7
  6
CONTINUOUS
 10
-7.7589069313
 20
14.2700069007
 11
-7.1531918918
 21
14.8757219402
  0
LINE
  5
27B
100
AcDbEntity
  8
CURVE
100
AcDbLine
 62
7
  6
CONTINUOUS
 10
-7.7589069313
 20
14.0724412661
 11
-6.8503343724
 21
14.9810138249
  0
LINE
  5
27C
100
AcDbEntity
  8
CURVE
100
AcDbLine
 62
7
  6
CONTINUOUS
 10
-7.7212952873
 20
13.9124872754
 11
-6.547476853
 21
15.0863057097
  0
LINE
  5
27D
100
AcDbEntity
  8
CURVE
100
AcDbLine
 62
7
  6
CONTINUOUS
 10
-7.5761957951
 20
13.8600211329
 11
-7.1688837958
 21
14.2673331322
  0
LINE
  5
27E
100
AcDbEntity
  8
CURVE
100
AcDbLine
 62
7
  6
CONTINUOUS
 10
-7.1337807279
 20
14.3024362001
 11
-6.2446193336
 21
15.1915975944
  0
LINE
  5
27F
100
AcDbEntity
  8
CURVE
100
AcDbLine
 62
7
  6
CONTINUOUS
 10
-7.4310963028
 20
13.8075549905
 11
-7.0219145657
 21
14.2167367276
  0
LINE
  5
280
100
AcDbEntity
  8
CURVE
100
AcDbLine
 62
7
  6
CONTINUOUS
 10
-6.8426371724
 20
14.3960141209
 11
-5.9417618142
 21
15.2968894792
  0
LINE
  5
281
100
AcDbEntity
  8
CURVE
100
AcDbLine
 62
7
  6
CONTINUOUS
 10
-7.2859968106
 20
13.7550888481
 11
-6.8749453356
 21
14.1661403231
  0
LINE
  5
282
100
AcDbEntity
  8
CURVE
100
AcDbLine
 62
7
  6
CONTINUOUS
 10
-6.551493617
 20
14.4895920417
 11
-5.6389042948
 21
15.4021813639
  0
LINE
  5
283
100
AcDbEntity
  8
CURVE
100
AcDbLine
 62
7
  6
CONTINUOUS
 10
-7.1408973184
 20
13.7026227057
 11
-6.7279761055
 21
14.1155439185
  0
LINE
  5
284
100
AcDbEntity
  8
CURVE
100
AcDbLine
 62
7
  6
CONTINUOUS
 10
-6.2603500616
 20
14.5831699625
 11
-5.3360467754
 21
15.5074732487
  0
LINE
  5
285
100
AcDbEntity
  8
CURVE
100
AcDbLine
 62
7
  6
CONTINUOUS
 10
-6.9957978261
 20
13.6501565632
 11
-6.5810068754
 21
14.0649475139
  0
LINE
  5
286
100
AcDbEntity
  8
CURVE
100
AcDbLine
 62
7
  6
CONTINUOUS
 10
-5.9692065061
 20
14.6767478832
 11
-5.0331892559
 21
15.6127651334
  0
LINE
  5
287
100
AcDbEntity
  8
CURVE
100
AcDbLine
 62
7
  6
CONTINUOUS
 10
-6.8506983339
 20
13.5976904208
 11
-6.4340376453
 21
14.0143511093
  0
LINE
  5
288
100
AcDbEntity
  8
CURVE
100
AcDbLine
 62
7
  6
CONTINUOUS
 10
-5.9557526023
 20
14.4926361524
 11
-4.8593476155
 21
15.5890411392
  0
LINE
  5
289
100
AcDbEntity
  8
CURVE
100
AcDbLine
 62
7
  6
CONTINUOUS
 10
-7.7589069313
 20
12.4919161887
 11
-7.6664219496
 21
12.5844011704
  0
LINE
  5
28A
100
AcDbEntity
  8
CURVE
100
AcDbLine
 62
7
  6
CONTINUOUS
 10
-6.7055988416
 20
13.5452242784
 11
-6.2870684152
 21
13.9637547048
  0
LINE
  5
28B
100
AcDbEntity
  8
CURVE
100
AcDbLine
 62
7
  6
CONTINUOUS
 10
-5.9557526023
 20
14.2950705178
 11
-5.473893003
 21
14.776930117
  0
LINE
  5
28C
100
AcDbEntity
  8
CURVE
100
AcDbLine
 62
7
  6
CONTINUOUS
 10
-5.3816752132
 20
14.8691479068
 11
-4.8593476155
 21
15.3914755045
  0
LINE
  5
28D
100
AcDbEntity
  8
CURVE
100
AcDbLine
 62
7
  6
CONTINUOUS
 10
-7.7589069313
 20
12.2943505541
 11
-7.4688563149
 21
12.5844011704
  0
LINE
  5
28E
100
AcDbEntity
  8
CURVE
100
AcDbLine
 62
7
  6
CONTINUOUS
 10
-6.5604993494
 20
13.4927581359
 11
-6.1400991852
 21
13.9131583002
  0
LINE
  5
28F
100
AcDbEntity
  8
CURVE
100
AcDbLine
 62
7
  6
CONTINUOUS
 10
-5.9557526023
 20
14.0975048831
 11
-5.473893003
 21
14.5793644824
  0
LINE
  5
290
100
AcDbEntity
  8
CURVE
100
AcDbLine
 62
7
  6
CONTINUOUS
 10
-5.0823004465
 20
14.9709570388
 11
-4.8593476155
 21
15.1939098699
  0
LINE
  5
291
100
AcDbEntity
  8
CURVE
100
AcDbLine
 62
7
  6
CONTINUOUS
 10
-7.7589069313
 20
12.0967849194
 11
-7.2712906803
 21
12.5844011704
  0
LINE
  5
292
100
AcDbEntity
  8
CURVE
100
AcDbLine
 62
7
  6
CONTINUOUS
 10
-6.4153998572
 20
13.4402919935
 11
-5.9931299551
 21
13.8625618956
  0
LINE
  5
293
100
AcDbEntity
  8
CURVE
100
AcDbLine
 62
7
  6
CONTINUOUS
 10
-5.9557526023
 20
13.8999392484
 11
-5.473893003
 21
14.3817988477
  0
LINE
  5
294
100
AcDbEntity
  8
CURVE
100
AcDbLine
 62
7
  6
CONTINUOUS
 10
-7.6561690456
 20
12.0019571704
 11
-7.0737250456
 21
12.5844011704
  0
LINE
  5
295
100
AcDbEntity
  8
CURVE
100
AcDbLine
 62
7
  6
CONTINUOUS
 10
-6.2703003649
 20
13.3878258511
 11
-5.473893003
 21
14.1842332131
  0
LINE
  5
296
100
AcDbEntity
  8
CURVE
100
AcDbLine
 62
7
  6
CONTINUOUS
 10
-7.4586034109
 20
12.0019571704
 11
-6.8761594109
 21
12.5844011704
  0
LINE
  5
297
100
AcDbEntity
  8
CURVE
100
AcDbLine
 62
7
  6
CONTINUOUS
 10
-6.1252008727
 20
13.3353597087
 11
-5.473893003
 21
13.9866675784
  0
LINE
  5
298
100
AcDbEntity
  8
CURVE
100
AcDbLine
 62
7
  6
CONTINUOUS
 10
-7.2610377763
 20
12.0019571704
 11
-6.6785937763
 21
12.5844011704
  0
LINE
  5
299
100
AcDbEntity
  8
CURVE
100
AcDbLine
 62
7
  6
CONTINUOUS
 10
-5.9801013805
 20
13.2828935662
 11
-5.473893003
 21
13.7891019437
  0
LINE
  5
29A
100
AcDbEntity
  8
CURVE
100
AcDbLine
 62
250
  6
CONTINUOUS
 10
-5.473893003
 20
14.8377871704
 11
-4.8593476155
 21
15.0467771704
  0
LINE
  5
29B
100
AcDbEntity
  8
CURVE
100
AcDbLine
 62
250
  6
CONTINUOUS
 10
-7.2046673575
 20
14.2796521704
 11
-5.9557526023
 21
14.6810721704
  0
LINE
  5
29C
100
AcDbEntity
  8
0
100
AcDbLine
 62
7
  6
CONTINUOUS
 10
1.8406523845
 20
-15.5267968296
 11
0.6406523845
 21
-15.5267968296
  0
LINE
  5
29D
100
AcDbEntity
  8
0
100
AcDbLine
 62
7
  6
CONTINUOUS
 10
1.8406523845
 20
-15.1267968296
 11
0.9792645144
 21
-15.1267968296
  0
LINE
  5
29E
100
AcDbEntity
  8
RACCORDO
100
AcDbLine
 62
7
  6
CONTINUOUS
 10
27.6406523845
 20
-15.0767968296
 11
29.1406523845
 21
-15.0767968296
  0
LINE
  5
29F
100
AcDbEntity
  8
ASSI
100
AcDbLine
 62
7
  6
CONTINUOUS
 10
27.6406523845
 20
-15.0767968296
 11
29.1406523845
 21
-15.0767968296
  0
LINE
  5
2A0
100
AcDbEntity
  8
CURVE
100
AcDbLine
 62
250
  6
CONTINUOUS
 10
-7.6590439104
 20
-13.9978028296
 11
-4.7593476155
 21
-13.9978108296
  0
LINE
  5
2A1
100
AcDbEntity
  8
RACCORDO
100
AcDbLine
 62
7
  6
CONTINUOUS
 10
5.8406523845
 20
-15.0258206431
 11
1.3906523845
 21
-15.0154149537
  0
LINE
  5
2A2
100
AcDbEntity
  8
ASSI
100
AcDbLine
 62
7
  6
CONTINUOUS
 10
5.8406523845
 20
-15.0258206431
 11
1.3906523845
 21
-15.0154149537
  0
LINE
  5
2A3
100
AcDbEntity
  8
RACCORDO
100
AcDbLine
 62
7
  6
CONTINUOUS
 10
28.158104791
 20
-14.8124909691
 11
1.3906523845
 21
-14.6872977058
  0
LINE
  5
2A4
100
AcDbEntity
  8
ASSI
100
AcDbLine
 62
7
  6
CONTINUOUS
 10
28.158104791
 20
-14.8124909691
 11
1.3906523845
 21
-14.6872977058
  0
LINE
  5
2A5
100
AcDbEntity
  8
CURVE
100
AcDbLine
 62
250
  6
CONTINUOUS
 10
-4.7593546144
 20
-15.3156208296
 11
-7.6590439104
 21
-14.3844818296
  0
LINE
  5
2A6
100
AcDbEntity
  8
RACCORDO
100
AcDbLine
 62
7
  6
CONTINUOUS
 10
-13.3593476155
 20
-25.0637024816
 11
-13.3593476155
 21
-24.6711343969
  0
LINE
  5
2A7
100
AcDbEntity
  8
RACCORDO
100
AcDbLine
 62
7
  6
CONTINUOUS
 10
-13.3593476155
 20
23.0175407377
 11
-13.3593476155
 21
23.4101088225
  0
LINE
  5
2A8
100
AcDbEntity
  8
RACCORDO
100
AcDbLine
 62
250
  6
CONTINUOUS
 10
-13.1108020483
 20
-25.0637024816
 11
-13.1108020483
 21
-24.6711343969
  0
LINE
  5
2A9
100
AcDbEntity
  8
RACCORDO
100
AcDbLine
 62
250
  6
CONTINUOUS
 10
-13.1108020483
 20
23.0175407377
 11
-13.1108020483
 21
23.4101088225
  0
LINE
  5
2AA
100
AcDbEntity
  8
RACCORDO
100
AcDbLine
 62
7
  6
CONTINUOUS
 10
-12.3593476155
 20
22.2958529012
 11
-12.3593476155
 21
21.4945915015
  0
LINE
  5
2AB
100
AcDbEntity
  8
RACCORDO
100
AcDbLine
 62
7
  6
CONTINUOUS
 10
-12.3593476155
 20
-23.1481851606
 11
-12.3593476155
 21
-23.9494465604
  0
LINE
  5
2AC
100
AcDbEntity
  8
RACCORDO
100
AcDbLine
 62
250
  6
CONTINUOUS
 10
-12.1108020483
 20
22.4401904685
 11
-12.1108020483
 21
21.5071383676
  0
LINE
  5
2AD
100
AcDbEntity
  8
RACCORDO
100
AcDbLine
 62
250
  6
CONTINUOUS
 10
-12.1108020483
 20
-23.1607320267
 11
-12.1108020483
 21
-24.0937841277
  0
LINE
  5
2AE
100
AcDbEntity
  8
RACCORDO
100
AcDbLine
 62
7
  6
CONTINUOUS
 10
-10.8593476155
 20
-23.2267378357
 11
-10.8593476155
 21
-25.3267968296
  0
LINE
  5
2AF
100
AcDbEntity
  8
RACCORDO
100
AcDbLine
 62
7
  6
CONTINUOUS
 10
-10.8593476155
 20
21.5731441766
 11
-10.8593476155
 21
23.6732031704
  0
LINE
  5
2B0
100
AcDbEntity
  8
CURVE
100
AcDbLine
 62
7
  6
CONTINUOUS
 10
-7.0634721416
 20
12.0019571704
 11
-6.4810281416
 21
12.5844011704
  0
LINE
  5
2B1
100
AcDbEntity
  8
CURVE
100
AcDbLine
 62
7
  6
CONTINUOUS
 10
-5.8350018882
 20
13.2304274238
 11
-5.4018233612
 21
13.6636059508
  0
LINE
  5
2B2
100
AcDbEntity
  8
CURVE
100
AcDbLine
 62
7
  6
CONTINUOUS
 10
-6.8659065069
 20
12.0019571704
 11
-6.2834625069
 21
12.5844011704
  0
LINE
  5
2B3
100
AcDbEntity
  8
CURVE
100
AcDbLine
 62
7
  6
CONTINUOUS
 10
-5.689902396
 20
13.1779612814
 11
-5.2558068839
 21
13.6120567935
  0
LINE
  5
2B4
100
AcDbEntity
  8
CURVE
100
AcDbLine
 62
7
  6
CONTINUOUS
 10
-6.6683408723
 20
12.0019571704
 11
-6.0858968723
 21
12.5844011704
  0
LINE
  5
2B5
100
AcDbEntity
  8
CURVE
100
AcDbLine
 62
7
  6
CONTINUOUS
 10
-5.5448029038
 20
13.125495139
 11
-5.1097904066
 21
13.5605076361
  0
LINE
  5
2B6
100
AcDbEntity
  8
CURVE
100
AcDbLine
 62
7
  6
CONTINUOUS
 10
-7.7589069313
 20
10.7138254768
 11
-7.4186155904
 21
11.0541168177
  0
LINE
  5
2B7
100
AcDbEntity
  8
CURVE
100
AcDbLine
 62
7
  6
CONTINUOUS
 10
-6.4707752376
 20
12.0019571704
 11
-5.8883312376
 21
12.5844011704
  0
LINE
  5
2B8
100
AcDbEntity
  8
CURVE
100
AcDbLine
 62
7
  6
CONTINUOUS
 10
-5.3997034115
 20
13.0730289965
 11
-4.9637739293
 21
13.5089584788
  0
LINE
  5
2B9
100
AcDbEntity
  8
CURVE
100
AcDbLine
 62
7
  6
CONTINUOUS
 10
-7.7589069313
 20
10.5162598421
 11
-7.035575816
 21
11.2395909574
  0
LINE
  5
2BA
100
AcDbEntity
  8
CURVE
100
AcDbLine
 62
7
  6
CONTINUOUS
 10
-6.2732096029
 20
12.0019571704
 11
-5.6907656029
 21
12.5844011704
  0
LINE
  5
2BB
100
AcDbEntity
  8
CURVE
100
AcDbLine
 62
7
  6
CONTINUOUS
 10
-5.2546039193
 20
13.0205628541
 11
-4.8593476155
 21
13.4158191579
  0
LINE
  5
2BC
100
AcDbEntity
  8
CURVE
100
AcDbLine
 62
7
  6
CONTINUOUS
 10
-7.7589069313
 20
10.3186942074
 11
-6.6525360416
 21
11.4250650971
  0
LINE
  5
2BD
100
AcDbEntity
  8
CURVE
100
AcDbLine
 62
7
  6
CONTINUOUS
 10
-6.0756439683
 20
12.0019571704
 11
-5.4931999683
 21
12.5844011704
  0
LINE
  5
2BE
100
AcDbEntity
  8
CURVE
100
AcDbLine
 62
7
  6
CONTINUOUS
 10
-5.109504427
 20
12.9680967117
 11
-4.8593476155
 21
13.2182535232
  0
LINE
  5
2BF
100
AcDbEntity
  8
CURVE
100
AcDbLine
 62
7
  6
CONTINUOUS
 10
-7.7589069313
 20
10.1211285728
 11
-6.2694962673
 21
11.6105392368
  0
LINE
  5
2C0
100
AcDbEntity
  8
CURVE
100
AcDbLine
 62
7
  6
CONTINUOUS
 10
-5.8780783336
 20
12.0019571704
 11
-5.2956343336
 21
12.5844011704
  0
LINE
  5
2C1
100
AcDbEntity
  8
CURVE
100
AcDbLine
 62
7
  6
CONTINUOUS
 10
-4.9644049348
 20
12.9156305693
 11
-4.8593476155
 21
13.0206878886
  0
LINE
  5
2C2
100
AcDbEntity
  8
CURVE
100
AcDbLine
 62
7
  6
CONTINUOUS
 10
-7.716941699
 20
9.9655281704
 11
-7.134496699
 21
10.5479731704
  0
LINE
  5
2C3
100
AcDbEntity
  8
CURVE
100
AcDbLine
 62
7
  6
CONTINUOUS
 10
-6.9973306391
 20
10.6851392303
 11
-5.8864564929
 21
11.7960133765
  0
LINE
  5
2C4
100
AcDbEntity
  8
CURVE
100
AcDbLine
 62
7
  6
CONTINUOUS
 10
-5.680512699
 20
12.0019571704
 11
-5.098068699
 21
12.5844011704
  0
LINE
  5
2C5
100
AcDbEntity
  8
CURVE
100
AcDbLine
 62
7
  6
CONTINUOUS
 10
-7.5193760643
 20
9.9655281704
 11
-6.9369310643
 21
10.5479731704
  0
LINE
  5
2C6
100
AcDbEntity
  8
CURVE
100
AcDbLine
 62
7
  6
CONTINUOUS
 10
-6.6209923437
 20
10.863911891
 11
-5.5034167186
 21
11.9814875162
  0
LINE
  5
2C7
100
AcDbEntity
  8
CURVE
100
AcDbLine
 62
7
  6
CONTINUOUS
 10
-5.4829470643
 20
12.0019571704
 11
-4.9005030643
 21
12.5844011704
  0
LINE
  5
2C8
100
AcDbEntity
  8
CURVE
100
AcDbLine
 62
7
  6
CONTINUOUS
 10
-7.3218104296
 20
9.9655281704
 11
-6.7393654296
 21
10.5479731704
  0
LINE
  5
2C9
100
AcDbEntity
  8
CURVE
100
AcDbLine
 62
7
  6
CONTINUOUS
 10
-6.2446540484
 20
11.0426845517
 11
-4.8593476155
 21
12.4279909846
  0
LINE
  5
2CA
100
AcDbEntity
  8
CURVE
100
AcDbLine
 62
7
  6
CONTINUOUS
 10
-7.124244795
 20
9.9655281704
 11
-6.541799795
 21
10.5479731704
  0
LINE
  5
2CB
100
AcDbEntity
  8
CURVE
100
AcDbLine
 62
7
  6
CONTINUOUS
 10
-5.8683157531
 20
11.2214572123
 11
-4.8593476155
 21
12.2304253499
  0
LINE
  5
2CC
100
AcDbEntity
  8
CURVE
100
AcDbLine
 62
7
  6
CONTINUOUS
 10
-6.9266791603
 20
9.9655281704
 11
-6.3442341603
 21
10.5479731704
  0
LINE
  5
2CD
100
AcDbEntity
  8
CURVE
100
AcDbLine
 62
7
  6
CONTINUOUS
 10
-5.4919774578
 20
11.400229873
 11
-4.8593476155
 21
12.0328597153
  0
LINE
  5
2CE
100
AcDbEntity
  8
CURVE
100
AcDbLine
 62
250
  6
CONTINUOUS
 10
-1.6735093182
 20
15.2089173914
 11
-1.9448965902
 21
14.9374889494
  0
LINE
  5
2CF
100
AcDbEntity
  8
CURVE
100
AcDbLine
 62
7
  6
CONTINUOUS
 10
-6.7291135256
 20
9.9655281704
 11
-6.1466685256
 21
10.5479731704
  0
LINE
  5
2D0
100
AcDbEntity
  8
CURVE
100
AcDbLine
 62
7
  6
CONTINUOUS
 10
-5.1156391624
 20
11.5790025336
 11
-4.8593476155
 21
11.8352940806
  0
LINE
  5
2D1
100
AcDbEntity
  8
CURVE
100
AcDbLine
 62
7
  6
CONTINUOUS
 10
-6.531547891
 20
9.9655281704
 11
-5.949102891
 21
10.5479731704
  0
LINE
  5
2D2
100
AcDbEntity
  8
CURVE
100
AcDbLine
 62
7
  6
CONTINUOUS
 10
-7.7589069313
 20
8.5406034955
 11
-7.6063704772
 21
8.6931399496
  0
LINE
  5
2D3
100
AcDbEntity
  8
CURVE
100
AcDbLine
 62
7
  6
CONTINUOUS
 10
-6.3339822563
 20
9.9655281704
 11
-5.7515372563
 21
10.5479731704
  0
LINE
  5
2D4
100
AcDbEntity
  8
CURVE
100
AcDbLine
 62
7
  6
CONTINUOUS
 10
-7.7589069313
 20
8.3430378608
 11
-7.3034955041
 21
8.7984492879
  0
LINE
  5
2D5
100
AcDbEntity
  8
CURVE
100
AcDbLine
 62
7
  6
CONTINUOUS
 10
-6.1364166217
 20
9.9655281704
 11
-5.5539716217
 21
10.5479731704
  0
LINE
  5
2D6
100
AcDbEntity
  8
CURVE
100
AcDbLine
 62
7
  6
CONTINUOUS
 10
-7.7589069313
 20
8.1454722261
 11
-7.0006205311
 21
8.9037586263
  0
LINE
  5
2D7
100
AcDbEntity
  8
CURVE
100
AcDbLine
 62
7
  6
CONTINUOUS
 10
-5.938850987
 20
9.9655281704
 11
-5.356405987
 21
10.5479731704
  0
LINE
  5
2D8
100
AcDbEntity
  8
CURVE
100
AcDbLine
 62
7
  6
CONTINUOUS
 10
-7.7589069313
 20
7.9479065915
 11
-6.6977455581
 21
9.0090679646
  0
LINE
  5
2D9
100
AcDbEntity
  8
CURVE
100
AcDbLine
 62
7
  6
CONTINUOUS
 10
-5.7412853523
 20
9.9655281704
 11
-5.1588403523
 21
10.5479731704
  0
LINE
  5
2DA
100
AcDbEntity
  8
CURVE
100
AcDbLine
 62
250
  6
CONTINUOUS
 10
-1.6735093182
 20
13.8517747284
 11
-1.9448965902
 21
13.5803458334
  0
LINE
  5
2DB
100
AcDbEntity
  8
CURVE
100
AcDbLine
 62
7
  6
CONTINUOUS
 10
-7.6482159987
 20
7.8610318894
 11
-6.3948705851
 21
9.114377303
  0
LINE
  5
2DC
100
AcDbEntity
  8
CURVE
100
AcDbLine
 62
7
  6
CONTINUOUS
 10
-5.5437197177
 20
9.9655281704
 11
-4.9612747177
 21
10.5479731704
  0
LINE
  5
2DD
100
AcDbEntity
  8
CURVE
100
AcDbLine
 62
7
  6
CONTINUOUS
 10
-7.5031125003
 20
7.8085697531
 11
-7.0948655376
 21
8.2168167158
  0
LINE
  5
2DE
100
AcDbEntity
  8
CURVE
100
AcDbLine
 62
7
  6
CONTINUOUS
 10
-6.9869910651
 20
8.3246911884
 11
-6.0919956121
 21
9.2196866413
  0
LINE
  5
2DF
100
AcDbEntity
  8
CURVE
100
AcDbLine
 62
7
  6
CONTINUOUS
 10
-5.346154083
 20
9.9655281704
 11
-4.8593476155
 21
10.452334638
  0
LINE
  5
2E0
100
AcDbEntity
  8
CURVE
100
AcDbLine
 62
250
  6
CONTINUOUS
 10
-2.4876710209
 20
15.1636794688
 11
-2.7590582363
 21
14.9374889494
  0
LINE
  5
2E1
100
AcDbEntity
  8
CURVE
100
AcDbLine
 62
250
  6
CONTINUOUS
 10
-7.7589069313
 20
10.8893421704
 11
-5.4611429452
 21
12.0019571704
  0
LINE
  5
2E2
100
AcDbEntity
  8
CURVE
100
AcDbLine
 62
250
  6
CONTINUOUS
 10
-4.8593476155
 20
11.7007491704
 11
-7.2860819558
 21
10.5479731704
  0
LINE
  5
2E3
100
AcDbEntity
  8
RACCORDO
100
AcDbLine
 62
7
  6
CONTINUOUS
 10
28.158104791
 20
-11.84110269
 11
1.3906523845
 21
-11.9662959534
  0
LINE
  5
2E4
100
AcDbEntity
  8
ASSI
100
AcDbLine
 62
7
  6
CONTINUOUS
 10
28.158104791
 20
-11.84110269
 11
1.3906523845
 21
-11.9662959534
  0
LINE
  5
2E5
100
AcDbEntity
  8
RACCORDO
100
AcDbLine
 62
7
  6
CONTINUOUS
 10
5.8406523845
 20
-11.627773016
 11
1.3906523845
 21
-11.6381787055
  0
LINE
  5
2E6
100
AcDbEntity
  8
ASSI
100
AcDbLine
 62
7
  6
CONTINUOUS
 10
5.8406523845
 20
-11.627773016
 11
1.3906523845
 21
-11.6381787055
  0
LINE
  5
2E7
100
AcDbEntity
  8
CURVE
100
AcDbLine
 62
250
  6
CONTINUOUS
 10
-4.7593546144
 20
-13.4177888296
 11
-7.6590439104
 21
-13.4177818296
  0
LINE
  5
2E8
100
AcDbEntity
  8
CURVE
100
AcDbLine
 62
250
  6
CONTINUOUS
 10
-7.6590439104
 20
-12.8377818296
 11
-4.7593546144
 21
-12.8377818296
  0
LINE
  5
2E9
100
AcDbEntity
  8
CURVE
100
AcDbLine
 62
250
  6
CONTINUOUS
 10
-4.7593546144
 20
-12.2577598296
 11
-6.6715053402
 21
-12.2577598296
  0
LINE
  5
2EA
100
AcDbEntity
  8
RACCORDO
100
AcDbLine
 62
7
  6
CONTINUOUS
 10
29.1406523845
 20
-11.5767968296
 11
27.6406523845
 21
-11.5767968296
  0
LINE
  5
2EB
100
AcDbEntity
  8
ASSI
100
AcDbLine
 62
7
  6
CONTINUOUS
 10
29.1406523845
 20
-11.5767968296
 11
27.6406523845
 21
-11.5767968296
  0
LINE
  5
2EC
100
AcDbEntity
  8
CURVE
100
AcDbLine
 62
250
  6
CONTINUOUS
 10
-7.6590439104
 20
-10.8778088296
 11
-5.7706625638
 21
-11.4193768296
  0
LINE
  5
2ED
100
AcDbEntity
  8
CURVE
100
AcDbLine
 62
250
  6
CONTINUOUS
 10
-4.7593626132
 20
-11.1293768296
 11
-6.6715053402
 21
-10.5810018296
  0
LINE
  5
2EE
100
AcDbEntity
  8
RACCORDO
100
AcDbLine
 62
250
  6
CONTINUOUS
 10
-10.1078931826
 20
23.4188355672
 11
-10.1078931826
 21
23.0175407377
  0
LINE
  5
2EF
100
AcDbEntity
  8
RACCORDO
100
AcDbLine
 62
250
  6
CONTINUOUS
 10
-10.1078931826
 20
-24.6711343969
 11
-10.1078931826
 21
-25.0724292263
  0
LINE
  5
2F0
100
AcDbEntity
  8
RACCORDO
100
AcDbLine
 62
7
  6
CONTINUOUS
 10
-9.8593476155
 20
23.4188355672
 11
-9.8593476155
 21
22.8732031704
  0
LINE
  5
2F1
100
AcDbEntity
  8
ASSI
100
AcDbLine
 62
7
  6
CONTINUOUS
 10
-9.8593476155
 20
16.8449022192
 11
-9.8593476155
 21
-18.4984958783
  0
LINE
  5
2F2
100
AcDbEntity
  8
RACCORDO
100
AcDbLine
 62
7
  6
CONTINUOUS
 10
-9.8593476155
 20
-24.6711343969
 11
-9.8593476155
 21
-25.0724292263
  0
LINE
  5
2F3
100
AcDbEntity
  8
RACCORDO
100
AcDbLine
 62
7
  6
CONTINUOUS
 10
-9.8593476155
 20
-23.2180699618
 11
-9.8593476155
 21
21.5644763026
  0
LINE
  5
2F4
100
AcDbEntity
  8
CURVE
100
AcDbLine
 62
7
  6
CONTINUOUS
 10
-7.358009002
 20
7.7561076168
 11
-6.9478963556
 21
8.1662202632
  0
LINE
  5
2F5
100
AcDbEntity
  8
CURVE
100
AcDbLine
 62
7
  6
CONTINUOUS
 10
-6.6958477515
 20
8.4182688673
 11
-5.7891206391
 21
9.3249959797
  0
LINE
  5
2F6
100
AcDbEntity
  8
CURVE
100
AcDbLine
 62
7
  6
CONTINUOUS
 10
-5.1485884483
 20
9.9655281704
 11
-4.8593476155
 21
10.2547690033
  0
LINE
  5
2F7
100
AcDbEntity
  8
CURVE
100
AcDbLine
 62
7
  6
CONTINUOUS
 10
-7.2129055036
 20
7.7036454805
 11
-6.8009271735
 21
8.1156238106
  0
LINE
  5
2F8
100
AcDbEntity
  8
CURVE
100
AcDbLine
 62
7
  6
CONTINUOUS
 10
-6.4047044378
 20
8.5118465463
 11
-5.4862456661
 21
9.430305318
  0
LINE
  5
2F9
100
AcDbEntity
  8
CURVE
100
AcDbLine
 62
7
  6
CONTINUOUS
 10
-4.9510228137
 20
9.9655281704
 11
-4.8593476155
 21
10.0572033686
  0
LINE
  5
2FA
100
AcDbEntity
  8
CURVE
100
AcDbLine
 62
7
  6
CONTINUOUS
 10
-7.0678020052
 20
7.6511833443
 11
-6.6539579915
 21
8.0650273579
  0
LINE
  5
2FB
100
AcDbEntity
  8
CURVE
100
AcDbLine
 62
7
  6
CONTINUOUS
 10
-6.1135611242
 20
8.6054242252
 11
-5.1833706931
 21
9.5356146564
  0
LINE
  5
2FC
100
AcDbEntity
  8
CURVE
100
AcDbLine
 62
7
  6
CONTINUOUS
 10
-6.9226985068
 20
7.598721208
 11
-6.5069888095
 21
8.0144309053
  0
LINE
  5
2FD
100
AcDbEntity
  8
CURVE
100
AcDbLine
 62
7
  6
CONTINUOUS
 10
-5.9557526023
 20
8.5656671125
 11
-4.8804957201
 21
9.6409239947
  0
LINE
  5
2FE
100
AcDbEntity
  8
CURVE
100
AcDbLine
 62
7
  6
CONTINUOUS
 10
-6.7775950084
 20
7.5462590717
 11
-6.3600196274
 21
7.9638344527
  0
LINE
  5
2FF
100
AcDbEntity
  8
CURVE
100
AcDbLine
 62
7
  6
CONTINUOUS
 10
-5.9557526023
 20
8.3681014779
 11
-4.8593476155
 21
9.4645064646
  0
LINE
  5
300
100
AcDbEntity
  8
CURVE
100
AcDbLine
 62
7
  6
CONTINUOUS
 10
-6.63249151
 20
7.4937969354
 11
-6.2130504454
 21
7.9132380001
  0
LINE
  5
301
100
AcDbEntity
  8
CURVE
100
AcDbLine
 62
7
  6
CONTINUOUS
 10
-5.9557526023
 20
8.1705358432
 11
-5.473893003
 21
8.6523954425
  0
LINE
  5
302
100
AcDbEntity
  8
CURVE
100
AcDbLine
 62
7
  6
CONTINUOUS
 10
-5.2309662549
 20
8.8953221905
 11
-4.8593476155
 21
9.26694083
  0
LINE
  5
303
100
AcDbEntity
  8
CURVE
100
AcDbLine
 62
7
  6
CONTINUOUS
 10
-6.4873880117
 20
7.4413347991
 11
-6.0660812634
 21
7.8626415474
  0
LINE
  5
304
100
AcDbEntity
  8
CURVE
100
AcDbLine
 62
7
  6
CONTINUOUS
 10
-5.9557526023
 20
7.9729702085
 11
-5.473893003
 21
8.4548298078
  0
LINE
  5
305
100
AcDbEntity
  8
CURVE
100
AcDbLine
 62
7
  6
CONTINUOUS
 10
-4.931671191
 20
8.9970516198
 11
-4.8593476155
 21
9.0693751953
  0
LINE
  5
306
100
AcDbEntity
  8
CURVE
100
AcDbLine
 62
7
  6
CONTINUOUS
 10
-6.3422845133
 20
7.3888726629
 11
-5.473893003
 21
8.2572641731
  0
LINE
  5
307
100
AcDbEntity
  8
CURVE
100
AcDbLine
 62
7
  6
CONTINUOUS
 10
-6.1971810149
 20
7.3364105266
 11
-5.473893003
 21
8.0596985385
  0
LINE
  5
308
100
AcDbEntity
  8
CURVE
100
AcDbLine
 62
7
  6
CONTINUOUS
 10
-6.0520775165
 20
7.2839483903
 11
-5.473893003
 21
7.8621329038
  0
LINE
  5
309
100
AcDbEntity
  8
CURVE
100
AcDbLine
 62
7
  6
CONTINUOUS
 10
-7.7589069313
 20
5.3795533409
 11
-7.6715181017
 21
5.4669421704
  0
LINE
  5
30A
100
AcDbEntity
  8
CURVE
100
AcDbLine
 62
7
  6
CONTINUOUS
 10
-5.9069740181
 20
7.231486254
 11
-5.473893003
 21
7.6645672692
  0
LINE
  5
30B
100
AcDbEntity
  8
CURVE
100
AcDbLine
 62
7
  6
CONTINUOUS
 10
-7.7589069313
 20
5.1819877062
 11
-7.473952467
 21
5.4669421704
  0
LINE
  5
30C
100
AcDbEntity
  8
CURVE
100
AcDbLine
 62
7
  6
CONTINUOUS
 10
-5.7618705197
 20
7.1790241177
 11
-5.3282654798
 21
7.6126291576
  0
LINE
  5
30D
100
AcDbEntity
  8
CURVE
100
AcDbLine
 62
7
  6
CONTINUOUS
 10
-7.7589069313
 20
4.9844220715
 11
-7.2763868324
 21
5.4669421704
  0
LINE
  5
30E
100
AcDbEntity
  8
CURVE
100
AcDbLine
 62
7
  6
CONTINUOUS
 10
-5.6167670214
 20
7.1265619815
 11
-5.182229859
 21
7.5610991438
  0
LINE
  5
30F
100
AcDbEntity
  8
CURVE
100
AcDbLine
 62
7
  6
CONTINUOUS
 10
-7.7014271977
 20
4.8443361704
 11
-7.0788211977
 21
5.4669421704
  0
LINE
  5
310
100
AcDbEntity
  8
CURVE
100
AcDbLine
 62
7
  6
CONTINUOUS
 10
-5.471663523
 20
7.0740998452
 11
-5.0361942381
 21
7.50956913
  0
LINE
  5
311
100
AcDbEntity
  8
CURVE
100
AcDbLine
 62
7
  6
CONTINUOUS
 10
-7.503861563
 20
4.8443361704
 11
-6.881255563
 21
5.4669421704
  0
LINE
  5
312
100
AcDbEntity
  8
CURVE
100
AcDbLine
 62
7
  6
CONTINUOUS
 10
-5.3265600246
 20
7.0216377089
 11
-4.8901586173
 21
7.4580391162
  0
LINE
  5
313
100
AcDbEntity
  8
CURVE
100
AcDbLine
 62
7
  6
CONTINUOUS
 10
-7.3062959284
 20
4.8443361704
 11
-6.6836899284
 21
5.4669421704
  0
LINE
  5
314
100
AcDbEntity
  8
CURVE
100
AcDbLine
 62
7
  6
CONTINUOUS
 10
-5.1814565262
 20
6.9691755726
 11
-4.8593476155
 21
7.2912844833
  0
LINE
  5
315
100
AcDbEntity
  8
CURVE
100
AcDbLine
 62
7
  6
CONTINUOUS
 10
-7.1087302937
 20
4.8443361704
 11
-6.4861242937
 21
5.4669421704
  0
LINE
  5
316
100
AcDbEntity
  8
CURVE
100
AcDbLine
 62
7
  6
CONTINUOUS
 10
-5.0363530278
 20
6.9167134363
 11
-4.8593476155
 21
7.0937188487
  0
LINE
  5
317
100
AcDbEntity
  8
CURVE
100
AcDbLine
 62
7
  6
CONTINUOUS
 10
-6.9111646591
 20
4.8443361704
 11
-6.2885586591
 21
5.4669421704
  0
LINE
  5
318
100
AcDbEntity
  8
CURVE
100
AcDbLine
 62
7
  6
CONTINUOUS
 10
-5.3412072147
 20
6.4142936147
 11
-5.2155596591
 21
6.5399411704
  0
LINE
  5
319
100
AcDbEntity
  8
CURVE
100
AcDbLine
 62
7
  6
CONTINUOUS
 10
-4.8912495294
 20
6.8642513001
 11
-4.8593476155
 21
6.896153214
  0
LINE
  5
31A
100
AcDbEntity
  8
CURVE
100
AcDbLine
 62
7
  6
CONTINUOUS
 10
-7.6864970903
 20
3.8714381045
 11
-7.1316860914
 21
4.4262491035
  0
LINE
  5
31B
100
AcDbEntity
  8
CURVE
100
AcDbLine
 62
7
  6
CONTINUOUS
 10
-6.7135990244
 20
4.8443361704
 11
-6.0909930244
 21
5.4669421704
  0
LINE
  5
31C
100
AcDbEntity
  8
CURVE
100
AcDbLine
 62
7
  6
CONTINUOUS
 10
-5.3412072147
 20
6.2167279801
 11
-5.0179940244
 21
6.5399411704
  0
LINE
  5
31D
100
AcDbEntity
  8
CURVE
100
AcDbLine
 62
7
  6
CONTINUOUS
 10
-7.7370991523
 20
3.6232704079
 11
-6.9068370262
 21
4.4535325339
  0
LINE
  5
31E
100
AcDbEntity
  8
CURVE
100
AcDbLine
 62
7
  6
CONTINUOUS
 10
-6.5160333897
 20
4.8443361704
 11
-5.8934273897
 21
5.4669421704
  0
LINE
  5
31F
100
AcDbEntity
  8
CURVE
100
AcDbLine
 62
7
  6
CONTINUOUS
 10
-5.3412072147
 20
6.0191623454
 11
-4.8593476155
 21
6.5010219447
  0
LINE
  5
320
100
AcDbEntity
  8
CURVE
100
AcDbLine
 62
250
  6
CONTINUOUS
 10
-4.8593476155
 20
9.6482771704
 11
-7.7589069313
 21
8.6401031704
  0
LINE
  5
321
100
AcDbEntity
  8
CURVE
100
AcDbLine
 62
250
  6
CONTINUOUS
 10
-5.473893003
 20
8.8127521704
 11
-4.8593476155
 21
9.0216341704
  0
LINE
  5
322
100
AcDbEntity
  8
CURVE
100
AcDbLine
 62
250
  6
CONTINUOUS
 10
-7.2048313325
 20
8.2546741704
 11
-5.9557526023
 21
8.6561461704
  0
LINE
  5
323
100
AcDbEntity
  8
0
100
AcDbLine
 62
7
  6
CONTINUOUS
 10
0.6227969978
 20
-10.5611386113
 11
1.8406523845
 21
-10.3367968296
  0
LINE
  5
324
100
AcDbEntity
  8
0
100
AcDbLine
 62
7
  6
CONTINUOUS
 10
1.4135772751
 20
-10.0154685602
 11
1.0827000495
 21
-10.0764196281
  0
LINE
  5
325
100
AcDbEntity
  8
CURVE
100
AcDbLine
 62
250
  6
CONTINUOUS
 10
-6.6715053402
 20
-10.5810018296
 11
-4.7593546144
 21
-10.5809938296
  0
LINE
  5
326
100
AcDbEntity
  8
RACCORDO
100
AcDbLine
 62
7
  6
CONTINUOUS
 10
27.6406523845
 20
-10.0767968296
 11
29.1406523845
 21
-10.0767968296
  0
LINE
  5
327
100
AcDbEntity
  8
ASSI
100
AcDbLine
 62
7
  6
CONTINUOUS
 10
27.6406523845
 20
-10.0767968296
 11
29.1406523845
 21
-10.0767968296
  0
LINE
  5
328
100
AcDbEntity
  8
CURVE
100
AcDbLine
 62
250
  6
CONTINUOUS
 10
-4.7593546144
 20
-10.0009728296
 11
-7.6590439104
 21
-10.0009728296
  0
LINE
  5
329
100
AcDbEntity
  8
RACCORDO
100
AcDbLine
 62
7
  6
CONTINUOUS
 10
5.8406523845
 20
-10.0258206431
 11
1.3906523845
 21
-10.0154149537
  0
LINE
  5
32A
100
AcDbEntity
  8
ASSI
100
AcDbLine
 62
7
  6
CONTINUOUS
 10
5.8406523845
 20
-10.0258206431
 11
1.3906523845
 21
-10.0154149537
  0
LINE
  5
32B
100
AcDbEntity
  8
RACCORDO
100
AcDbLine
 62
7
  6
CONTINUOUS
 10
28.158104791
 20
-9.8124909691
 11
1.3906523845
 21
-9.6872977058
  0
LINE
  5
32C
100
AcDbEntity
  8
ASSI
100
AcDbLine
 62
7
  6
CONTINUOUS
 10
28.158104791
 20
-9.8124909691
 11
1.3906523845
 21
-9.6872977058
  0
LINE
  5
32D
100
AcDbEntity
  8
RACCORDO
100
AcDbLine
 62
7
  6
CONTINUOUS
 10
-20.2956066333
 20
-8.8102759897
 11
-21.4802745576
 21
-8.7274359385
  0
LINE
  5
32E
100
AcDbEntity
  8
0
100
AcDbLine
 62
7
  6
CONTINUOUS
 10
-32.2220480805
 20
-7.9701735417
 11
-21.7593476155
 21
-8.7017968296
  0
LINE
  5
32F
100
AcDbEntity
  8
CURVE
100
AcDbLine
 62
250
  6
CONTINUOUS
 10
-4.7593546144
 20
-9.6142938296
 11
-7.6590509093
 21
-8.6831688296
  0
LINE
  5
330
100
AcDbEntity
  8
CURVE
100
AcDbLine
 62
250
  6
CONTINUOUS
 10
-5.3296037495
 20
-8.8511588296
 11
-4.7593626132
 21
-9.0342718296
  0
LINE
  5
331
100
AcDbEntity
  8
CURVE
100
AcDbLine
 62
250
  6
CONTINUOUS
 10
-6.7559474773
 20
-8.3931468296
 11
-5.8805418262
 21
-8.6742368296
  0
LINE
  5
332
100
AcDbEntity
  8
CURVE
100
AcDbLine
 62
250
  6
CONTINUOUS
 10
-7.7589069313
 20
14.6651381704
 11
-7.7589069313
 21
13.9260871704
  0
LINE
  5
333
100
AcDbEntity
  8
CURVE
100
AcDbLine
 62
250
  6
CONTINUOUS
 10
-7.7589069313
 20
8.6401031704
 11
-7.7589069313
 21
7.9010521704
  0
LINE
  5
334
100
AcDbEntity
  8
CURVE
100
AcDbLine
 62
250
  6
CONTINUOUS
 10
-7.7589069313
 20
3.2614231704
 11
-7.7589069313
 21
2.3739931704
  0
LINE
  5
335
100
AcDbEntity
  8
CURVE
100
AcDbLine
 62
250
  6
CONTINUOUS
 10
-7.7589069313
 20
4.8443361704
 11
-7.7589069313
 21
5.4669421704
  0
LINE
  5
336
100
AcDbEntity
  8
CURVE
100
AcDbLine
 62
250
  6
CONTINUOUS
 10
-7.7589069313
 20
9.9655281704
 11
-7.7589069313
 21
10.8893421704
  0
LINE
  5
337
100
AcDbEntity
  8
CURVE
100
AcDbLine
 62
250
  6
CONTINUOUS
 10
-7.7589069313
 20
12.0019571704
 11
-7.7589069313
 21
12.5844011704
  0
LINE
  5
338
100
AcDbEntity
  8
CURVE
100
AcDbLine
 62
250
  6
CONTINUOUS
 10
-7.6590509093
 20
-8.6831688296
 11
-7.6590509093
 21
-8.1031178296
  0
LINE
  5
339
100
AcDbEntity
  8
CURVE
100
AcDbLine
 62
250
  6
CONTINUOUS
 10
-7.6590509093
 20
-6.7852998296
 11
-7.6590509093
 21
-5.4270848296
  0
LINE
  5
33A
100
AcDbEntity
  8
CURVE
100
AcDbLine
 62
250
  6
CONTINUOUS
 10
-7.6590439104
 20
-10.0009728296
 11
-7.6590439104
 21
-10.8778088296
  0
LINE
  5
33B
100
AcDbEntity
  8
CURVE
100
AcDbLine
 62
250
  6
CONTINUOUS
 10
-7.6590439104
 20
-11.9609448296
 11
-7.6590439104
 21
-12.8377818296
  0
LINE
  5
33C
100
AcDbEntity
  8
CURVE
100
AcDbLine
 62
250
  6
CONTINUOUS
 10
-7.6590439104
 20
-13.4177818296
 11
-7.6590439104
 21
-13.9978028296
  0
LINE
  5
33D
100
AcDbEntity
  8
CURVE
100
AcDbLine
 62
250
  6
CONTINUOUS
 10
-7.6590439104
 20
-14.3844818296
 11
-7.6590439104
 21
-14.9645108296
  0
LINE
  5
33E
100
AcDbEntity
  8
CURVE
100
AcDbLine
 62
250
  6
CONTINUOUS
 10
-7.6590439104
 20
-16.2467678296
 11
-7.6590439104
 21
-16.8267968296
  0
LINE
  5
33F
100
AcDbEntity
  8
CURVE
100
AcDbLine
 62
250
  6
CONTINUOUS
 10
-7.277047332
 20
2.9965991704
 11
-7.277047332
 21
3.3598151704
  0
LINE
  5
340
100
AcDbEntity
  8
CURVE
100
AcDbLine
 62
250
  6
CONTINUOUS
 10
-7.1226106242
 20
-5.5075888296
 11
-7.1226106242
 21
-6.2132748296
  0
LINE
  5
341
100
AcDbEntity
  8
CURVE
100
AcDbLine
 62
250
  6
CONTINUOUS
 10
-6.4577991265
 20
2.9965991704
 11
-6.4577991265
 21
3.3598151704
  0
LINE
  5
342
100
AcDbEntity
  8
CURVE
100
AcDbLine
 62
250
  6
CONTINUOUS
 10
-6.4169891102
 20
-6.2132678296
 11
-6.4169891102
 21
-5.5075888296
  0
LINE
  5
343
100
AcDbEntity
  8
CURVE
100
AcDbLine
 62
250
  6
CONTINUOUS
 10
-5.9759395272
 20
3.2614231704
 11
-5.9759395272
 21
2.9965991704
  0
LINE
  5
344
100
AcDbEntity
  8
CURVE
100
AcDbLine
 62
250
  6
CONTINUOUS
 10
-5.9557526023
 20
14.6810721704
 11
-5.9557526023
 21
13.8496941704
  0
LINE
  5
345
100
AcDbEntity
  8
CURVE
100
AcDbLine
 62
250
  6
CONTINUOUS
 10
-5.9557526023
 20
8.6561461704
 11
-5.9557526023
 21
7.8246591704
  0
LINE
  5
346
100
AcDbEntity
  8
CURVE
100
AcDbLine
 62
250
  6
CONTINUOUS
 10
-5.8805418262
 20
-8.6742368296
 11
-5.8805418262
 21
-8.1120428296
  0
LINE
  5
347
100
AcDbEntity
  8
CURVE
100
AcDbLine
 62
250
  6
CONTINUOUS
 10
-5.8805418262
 20
-5.6989748296
 11
-5.8805488251
 21
-6.2052058296
  0
LINE
  5
348
100
AcDbEntity
  8
CURVE
100
AcDbLine
 62
250
  6
CONTINUOUS
 10
-5.473893003
 20
7.6640151704
 11
-5.473893003
 21
8.8127521704
  0
LINE
  5
349
100
AcDbEntity
  8
CURVE
100
AcDbLine
 62
250
  6
CONTINUOUS
 10
-5.473893003
 20
13.6890491704
 11
-5.473893003
 21
14.8377871704
  0
LINE
  5
34A
100
AcDbEntity
  8
CURVE
100
AcDbLine
 62
250
  6
CONTINUOUS
 10
-5.3412072147
 20
5.4669421704
 11
-5.3412072147
 21
6.5399411704
  0
LINE
  5
34B
100
AcDbEntity
  8
CURVE
100
AcDbLine
 62
250
  6
CONTINUOUS
 10
-5.3296037495
 20
-7.9351138296
 11
-5.3296037495
 21
-8.8511588296
  0
LINE
  5
34C
100
AcDbEntity
  8
CURVE
100
AcDbLine
 62
7
  6
CONTINUOUS
 10
-7.7534943329
 20
3.4093095926
 11
-6.7169953537
 21
4.4458085718
  0
LINE
  5
34D
100
AcDbEntity
  8
CURVE
100
AcDbLine
 62
7
  6
CONTINUOUS
 10
-6.3184677551
 20
4.8443361704
 11
-5.6958617551
 21
5.4669421704
  0
LINE
  5
34E
100
AcDbEntity
  8
CURVE
100
AcDbLine
 62
7
  6
CONTINUOUS
 10
-5.3412072147
 20
5.8215967108
 11
-4.8593476155
 21
6.30345631
  0
LINE
  5
34F
100
AcDbEntity
  8
CURVE
100
AcDbLine
 62
7
  6
CONTINUOUS
 10
-7.7589069313
 20
3.2063313596
 11
-6.5521578901
 21
4.4130804007
  0
LINE
  5
350
100
AcDbEntity
  8
CURVE
100
AcDbLine
 62
7
  6
CONTINUOUS
 10
-6.1209021204
 20
4.8443361704
 11
-5.4982961204
 21
5.4669421704
  0
LINE
  5
351
100
AcDbEntity
  8
CURVE
100
AcDbLine
 62
7
  6
CONTINUOUS
 10
-5.3412072147
 20
5.6240310761
 11
-4.8593476155
 21
6.1058906754
  0
LINE
  5
352
100
AcDbEntity
  8
CURVE
100
AcDbLine
 62
7
  6
CONTINUOUS
 10
-7.7589069313
 20
3.0087657249
 11
-7.2586462896
 21
3.5090263666
  0
LINE
  5
353
100
AcDbEntity
  8
CURVE
100
AcDbLine
 62
7
  6
CONTINUOUS
 10
-6.985233148
 20
3.7824395082
 11
-6.411938969
 21
4.3557336872
  0
LINE
  5
354
100
AcDbEntity
  8
CURVE
100
AcDbLine
 62
7
  6
CONTINUOUS
 10
-5.9233364857
 20
4.8443361704
 11
-4.8593476155
 21
5.9083250407
  0
LINE
  5
355
100
AcDbEntity
  8
CURVE
100
AcDbLine
 62
7
  6
CONTINUOUS
 10
-7.7589069313
 20
2.8112000902
 11
-7.277047332
 21
3.2930596895
  0
LINE
  5
356
100
AcDbEntity
  8
CURVE
100
AcDbLine
 62
7
  6
CONTINUOUS
 10
-6.7827331983
 20
3.7873738232
 11
-6.2943302633
 21
4.2757767582
  0
LINE
  5
357
100
AcDbEntity
  8
CURVE
100
AcDbLine
 62
7
  6
CONTINUOUS
 10
-5.7257708511
 20
4.8443361704
 11
-4.8593476155
 21
5.710759406
  0
LINE
  5
358
100
AcDbEntity
  8
CURVE
100
AcDbLine
 62
7
  6
CONTINUOUS
 10
-7.7589069313
 20
2.6136344556
 11
-7.277047332
 21
3.0954940548
  0
LINE
  5
359
100
AcDbEntity
  8
CURVE
100
AcDbLine
 62
7
  6
CONTINUOUS
 10
-6.6320038897
 20
3.7405374972
 11
-6.1973703626
 21
4.1751710242
  0
LINE
  5
35A
100
AcDbEntity
  8
CURVE
100
AcDbLine
 62
7
  6
CONTINUOUS
 10
-5.5282052164
 20
4.8443361704
 11
-4.8593476155
 21
5.5131937714
  0
LINE
  5
35B
100
AcDbEntity
  8
CURVE
100
AcDbLine
 62
7
  6
CONTINUOUS
 10
-7.7589069313
 20
2.4160688209
 11
-7.1783765817
 21
2.9965991704
  0
LINE
  5
35C
100
AcDbEntity
  8
CURVE
100
AcDbLine
 62
7
  6
CONTINUOUS
 10
-6.5267718524
 20
3.6482038998
 11
-6.1211290963
 21
4.0538466559
  0
LINE
  5
35D
100
AcDbEntity
  8
CURVE
100
AcDbLine
 62
7
  6
CONTINUOUS
 10
-5.3306395817
 20
4.8443361704
 11
-4.8593476155
 21
5.3156281367
  0
LINE
  5
35E
100
AcDbEntity
  8
CURVE
100
AcDbLine
 62
7
  6
CONTINUOUS
 10
-7.6034169471
 20
2.3739931704
 11
-6.9808109471
 21
2.9965991704
  0
LINE
  5
35F
100
AcDbEntity
  8
CURVE
100
AcDbLine
 62
7
  6
CONTINUOUS
 10
-6.4750792966
 20
3.5023308209
 11
-6.0625603654
 21
3.9148497521
  0
LINE
  5
360
100
AcDbEntity
  8
CURVE
100
AcDbLine
 62
7
  6
CONTINUOUS
 10
-5.1330739471
 20
4.8443361704
 11
-4.8593476155
 21
5.118062502
  0
LINE
  5
361
100
AcDbEntity
  8
CURVE
100
AcDbLine
 62
7
  6
CONTINUOUS
 10
-7.4058513124
 20
2.3739931704
 11
-6.7832453124
 21
2.9965991704
  0
LINE
  5
362
100
AcDbEntity
  8
CURVE
100
AcDbLine
 62
7
  6
CONTINUOUS
 10
-6.4577988013
 20
3.3220456816
 11
-6.0201002637
 21
3.7597442192
  0
LINE
  5
363
100
AcDbEntity
  8
CURVE
100
AcDbLine
 62
7
  6
CONTINUOUS
 10
-4.9355083124
 20
4.8443361704
 11
-4.8593476155
 21
4.9204968674
  0
LINE
  5
364
100
AcDbEntity
  8
CURVE
100
AcDbLine
 62
7
  6
CONTINUOUS
 10
-7.2082856778
 20
2.3739931704
 11
-6.5856796778
 21
2.9965991704
  0
LINE
  5
365
100
AcDbEntity
  8
CURVE
100
AcDbLine
 62
7
  6
CONTINUOUS
 10
-6.4577989987
 20
3.1244798495
 11
-5.993359125
 21
3.5889197232
  0
LINE
  5
366
100
AcDbEntity
  8
CURVE
100
AcDbLine
 62
7
  6
CONTINUOUS
 10
-7.0107200431
 20
2.3739931704
 11
-5.9811041843
 21
3.4036090292
  0
LINE
  5
367
100
AcDbEntity
  8
CURVE
100
AcDbLine
 62
7
  6
CONTINUOUS
 10
-6.8131544084
 20
2.3739931704
 11
-5.9759392884
 21
3.2112082905
  0
LINE
  5
368
100
AcDbEntity
  8
CURVE
100
AcDbLine
 62
7
  6
CONTINUOUS
 10
-6.6155887738
 20
2.3739931704
 11
-5.9759395082
 21
3.013642436
  0
LINE
  5
369
100
AcDbEntity
  8
CURVE
100
AcDbLine
 62
7
  6
CONTINUOUS
 10
-6.4180231391
 20
2.3739931704
 11
-5.7954171391
 21
2.9965991704
  0
LINE
  5
36A
100
AcDbEntity
  8
CURVE
100
AcDbLine
 62
7
  6
CONTINUOUS
 10
-6.2204575044
 20
2.3739931704
 11
-5.5978515044
 21
2.9965991704
  0
LINE
  5
36B
100
AcDbEntity
  8
CURVE
100
AcDbLine
 62
7
  6
CONTINUOUS
 10
-6.0228918698
 20
2.3739931704
 11
-5.4002858698
 21
2.9965991704
  0
LINE
  5
36C
100
AcDbEntity
  8
CURVE
100
AcDbLine
 62
7
  6
CONTINUOUS
 10
-5.8253262351
 20
2.3739931704
 11
-5.2027202351
 21
2.9965991704
  0
LINE
  5
36D
100
AcDbEntity
  8
CURVE
100
AcDbLine
 62
7
  6
CONTINUOUS
 10
-5.6277606004
 20
2.3739931704
 11
-5.0051546004
 21
2.9965991704
  0
LINE
  5
36E
100
AcDbEntity
  8
CURVE
100
AcDbLine
 62
7
  6
CONTINUOUS
 10
-5.4301949658
 20
2.3739931704
 11
-4.8593476155
 21
2.9448405207
  0
LINE
  5
36F
100
AcDbEntity
  8
CURVE
100
AcDbLine
 62
7
  6
CONTINUOUS
 10
-5.2326293311
 20
2.3739931704
 11
-4.8593476155
 21
2.7472748861
  0
LINE
  5
370
100
AcDbEntity
  8
CURVE
100
AcDbLine
 62
7
  6
CONTINUOUS
 10
-5.0350636965
 20
2.3739931704
 11
-4.8593476155
 21
2.5497092514
  0
LINE
  5
371
100
AcDbEntity
  8
RACCORDO
100
AcDbLine
 62
7
  6
CONTINUOUS
 10
28.158104791
 20
-6.84110269
 11
1.3906523845
 21
-6.9662959534
  0
LINE
  5
372
100
AcDbEntity
  8
ASSI
100
AcDbLine
 62
7
  6
CONTINUOUS
 10
28.158104791
 20
-6.84110269
 11
1.3906523845
 21
-6.9662959534
  0
LINE
  5
373
100
AcDbEntity
  8
RACCORDO
100
AcDbLine
 62
7
  6
CONTINUOUS
 10
5.8406523845
 20
-6.627773016
 11
1.3906523845
 21
-6.6381787055
  0
LINE
  5
374
100
AcDbEntity
  8
ASSI
100
AcDbLine
 62
7
  6
CONTINUOUS
 10
5.8406523845
 20
-6.627773016
 11
1.3906523845
 21
-6.6381787055
  0
LINE
  5
375
100
AcDbEntity
  8
CURVE
100
AcDbLine
 62
250
  6
CONTINUOUS
 10
-4.7593626132
 20
-6.7852998296
 11
-7.6590509093
 21
-6.7852998296
  0
LINE
  5
376
100
AcDbEntity
  8
RACCORDO
100
AcDbLine
 62
7
  6
CONTINUOUS
 10
29.1406523845
 20
-6.5767968296
 11
27.6406523845
 21
-6.5767968296
  0
LINE
  5
377
100
AcDbEntity
  8
ASSI
100
AcDbLine
 62
7
  6
CONTINUOUS
 10
29.1406523845
 20
-6.5767968296
 11
27.6406523845
 21
-6.5767968296
  0
LINE
  5
378
100
AcDbEntity
  8
CURVE
100
AcDbLine
 62
250
  6
CONTINUOUS
 10
-7.1226106242
 20
-6.2132748296
 11
-6.4169891102
 21
-6.2132678296
  0
LINE
  5
379
100
AcDbEntity
  8
CURVE
100
AcDbLine
 62
250
  6
CONTINUOUS
 10
-5.8805488251
 20
-6.2052058296
 11
-4.7593626132
 21
-6.2052708296
  0
LINE
  5
37A
100
AcDbEntity
  8
CURVE
100
AcDbLine
 62
250
  6
CONTINUOUS
 10
-4.8593476155
 20
12.5844011704
 11
-4.8593476155
 21
11.7007491704
  0
LINE
  5
37B
100
AcDbEntity
  8
CURVE
100
AcDbLine
 62
250
  6
CONTINUOUS
 10
-4.8593476155
 20
10.5479731704
 11
-4.8593476155
 21
9.9655281704
  0
LINE
  5
37C
100
AcDbEntity
  8
CURVE
100
AcDbLine
 62
250
  6
CONTINUOUS
 10
-4.8593476155
 20
6.5399411704
 11
-4.8593476155
 21
4.8443361704
  0
LINE
  5
37D
100
AcDbEntity
  8
CURVE
100
AcDbLine
 62
250
  6
CONTINUOUS
 10
-4.8593476155
 20
2.3739931704
 11
-4.8593476155
 21
2.9965991704
  0
LINE
  5
37E
100
AcDbEntity
  8
CURVE
100
AcDbLine
 62
250
  6
CONTINUOUS
 10
-4.8593476155
 20
6.8527171704
 11
-4.8593476155
 21
7.4471671704
  0
LINE
  5
37F
100
AcDbEntity
  8
CURVE
100
AcDbLine
 62
250
  6
CONTINUOUS
 10
-4.8593476155
 20
9.0216341704
 11
-4.8593476155
 21
9.6482771704
  0
LINE
  5
380
100
AcDbEntity
  8
CURVE
100
AcDbLine
 62
250
  6
CONTINUOUS
 10
-4.8593476155
 20
12.8776431704
 11
-4.8593476155
 21
13.4720921704
  0
LINE
  5
381
100
AcDbEntity
  8
CURVE
100
AcDbLine
 62
250
  6
CONTINUOUS
 10
-4.8593476155
 20
15.0467771704
 11
-4.8593476155
 21
15.6732031704
  0
LINE
  5
382
100
AcDbEntity
  8
CURVE
100
AcDbLine
 62
250
  6
CONTINUOUS
 10
-4.7593476155
 20
-15.8956648296
 11
-4.7593546144
 21
-15.3156208296
  0
LINE
  5
383
100
AcDbEntity
  8
CURVE
100
AcDbLine
 62
250
  6
CONTINUOUS
 10
-4.7593476155
 20
-13.9978108296
 11
-4.7593546144
 21
-13.4177888296
  0
LINE
  5
384
100
AcDbEntity
  8
CURVE
100
AcDbLine
 62
250
  6
CONTINUOUS
 10
-4.7593546144
 20
-11.7093838296
 11
-4.7593626132
 21
-11.1293768296
  0
LINE
  5
385
100
AcDbEntity
  8
CURVE
100
AcDbLine
 62
250
  6
CONTINUOUS
 10
-4.7593626132
 20
-9.0342718296
 11
-4.7593546144
 21
-9.6142938296
  0
LINE
  5
386
100
AcDbEntity
  8
CURVE
100
AcDbLine
 62
250
  6
CONTINUOUS
 10
-4.7593696121
 20
-4.4644158296
 11
-4.7593626132
 21
-5.1177208296
  0
LINE
  5
387
100
AcDbEntity
  8
CURVE
100
AcDbLine
 62
250
  6
CONTINUOUS
 10
-4.7593626132
 20
-6.2052708296
 11
-4.7593626132
 21
-6.7852998296
  0
LINE
  5
388
100
AcDbEntity
  8
CURVE
100
AcDbLine
 62
250
  6
CONTINUOUS
 10
-4.7593546144
 20
-12.8377818296
 11
-4.7593546144
 21
-12.2577598296
  0
LINE
  5
389
100
AcDbEntity
  8
CURVE
100
AcDbLine
 62
250
  6
CONTINUOUS
 10
-4.7593546144
 20
-10.5809938296
 11
-4.7593546144
 21
-10.0009728296
  0
LINE
  5
38A
100
AcDbEntity
  8
CURVE
100
AcDbLine
 62
250
  6
CONTINUOUS
 10
-4.7593546144
 20
-7.1719788296
 11
-4.7593626132
 21
-7.7520078296
  0
LINE
  5
38B
100
AcDbEntity
  8
ASSI
100
AcDbLine
 62
250
  6
CONTINUOUS
 10
-3.2848277887
 20
-24.5775702543
 11
-3.2848277887
 21
-23.1606949965
  0
LINE
  5
38C
100
AcDbEntity
  8
ASSI
100
AcDbLine
 62
250
  6
CONTINUOUS
 10
-3.2848277887
 20
21.5071013373
 11
-3.2848277887
 21
22.9243673417
  0
LINE
  5
38D
100
AcDbEntity
  8
ASSI
100
AcDbLine
 62
7
  6
CONTINUOUS
 10
-2.8593476155
 20
-24.0831546443
 11
-2.8593476155
 21
-23.1569818872
  0
LINE
  5
38E
100
AcDbEntity
  8
ASSI
100
AcDbLine
 62
7
  6
CONTINUOUS
 10
-2.8593476155
 20
21.5033882281
 11
-2.8593476155
 21
22.4324613892
  0
LINE
  5
38F
100
AcDbEntity
  8
CURVE
100
AcDbLine
 62
250
  6
CONTINUOUS
 10
-2.7590582363
 20
14.9374889494
 11
-2.7590582363
 21
14.3946316124
  0
LINE
  5
390
100
AcDbEntity
  8
CURVE
100
AcDbLine
 62
250
  6
CONTINUOUS
 10
-2.7590582363
 20
13.0374889494
 11
-2.7590582363
 21
13.8517747284
  0
LINE
  5
391
100
AcDbEntity
  8
RACCORDO
100
AcDbLine
 62
7
  6
CONTINUOUS
 10
27.6406523845
 20
-5.0767968296
 11
29.1406523845
 21
-5.0767968296
  0
LINE
  5
392
100
AcDbEntity
  8
ASSI
100
AcDbLine
 62
7
  6
CONTINUOUS
 10
27.6406523845
 20
-5.0767968296
 11
29.1406523845
 21
-5.0767968296
  0
LINE
  5
393
100
AcDbEntity
  8
RACCORDO
100
AcDbLine
 62
7
  6
CONTINUOUS
 10
5.8406523845
 20
-5.0258206431
 11
1.3906523845
 21
-5.0154149537
  0
LINE
  5
394
100
AcDbEntity
  8
ASSI
100
AcDbLine
 62
7
  6
CONTINUOUS
 10
5.8406523845
 20
-5.0258206431
 11
1.3906523845
 21
-5.0154149537
  0
LINE
  5
395
100
AcDbEntity
  8
RACCORDO
100
AcDbLine
 62
7
  6
CONTINUOUS
 10
28.158104791
 20
-4.8124909691
 11
1.3906523845
 21
-4.6872977058
  0
LINE
  5
396
100
AcDbEntity
  8
ASSI
100
AcDbLine
 62
7
  6
CONTINUOUS
 10
28.158104791
 20
-4.8124909691
 11
1.3906523845
 21
-4.6872977058
  0
LINE
  5
397
100
AcDbEntity
  8
0
100
AcDbLine
 62
250
  6
CONTINUOUS
 10
-3.9865369818
 20
-1.4548221061
 11
-2.7608329008
 21
-2.0080715309
  0
LINE
  5
398
100
AcDbEntity
  8
0
100
AcDbLine
 62
250
  6
CONTINUOUS
 10
-1.5794923451
 20
-2.5412964273
 11
-0.3098121453
 21
-3.1143952548
  0
LINE
  5
399
100
AcDbEntity
  8
CURVE
100
AcDbLine
 62
250
  6
CONTINUOUS
 10
-1.9448965902
 20
14.9374889494
 11
-1.9448965902
 21
14.6660605074
  0
LINE
  5
39A
100
AcDbEntity
  8
CURVE
100
AcDbLine
 62
250
  6
CONTINUOUS
 10
-1.9448965902
 20
13.5803458334
 11
-1.9448965902
 21
13.0374889494
  0
LINE
  5
39B
100
AcDbEntity
  8
CURVE
100
AcDbLine
 62
250
  6
CONTINUOUS
 10
-1.2664284668
 20
11.4089173914
 11
-1.2664284668
 21
10.4589175047
  0
LINE
  5
39C
100
AcDbEntity
  8
CURVE
100
AcDbLine
 62
250
  6
CONTINUOUS
 10
-0.8593476155
 20
13.0374889494
 11
-0.8593476155
 21
13.5803458334
  0
LINE
  5
39D
100
AcDbEntity
  8
CURVE
100
AcDbLine
 62
250
  6
CONTINUOUS
 10
-0.8593476155
 20
14.3946316124
 11
-0.8593476155
 21
15.0732031704
  0
LINE
  5
39E
100
AcDbEntity
  8
RACCORDO
100
AcDbLine
 62
250
  6
CONTINUOUS
 10
-0.3506214123
 20
20.7391786037
 11
-0.3506214123
 21
20.0732031704
  0
LINE
  5
39F
100
AcDbEntity
  8
RACCORDO
100
AcDbLine
 62
250
  6
CONTINUOUS
 10
-0.3506214123
 20
-21.7267968296
 11
-0.3506214123
 21
-22.3927722628
  0
LINE
  5
3A0
100
AcDbEntity
  8
0
100
AcDbLine
 62
250
  6
CONTINUOUS
 10
-0.3098121453
 20
-3.1143952548
 11
-0.3098121453
 21
-2.097729318
  0
LINE
  5
3A1
100
AcDbEntity
  8
ASSI
100
AcDbLine
 62
7
  6
CONTINUOUS
 10
0.1406523845
 20
-21.5022461803
 11
0.1406523845
 21
-20.1449273887
  0
LINE
  5
3A2
100
AcDbEntity
  8
RACCORDO
100
AcDbLine
 62
7
  6
CONTINUOUS
 10
0.1406523845
 20
-20.1449273887
 11
0.1406523845
 21
-22.1394900733
  0
LINE
  5
3A3
100
AcDbEntity
  8
ASSI
100
AcDbLine
 62
7
  6
CONTINUOUS
 10
0.1406523845
 20
18.4913337295
 11
0.1406523845
 21
19.8486525212
  0
LINE
  5
3A4
100
AcDbEntity
  8
RACCORDO
100
AcDbLine
 62
7
  6
CONTINUOUS
 10
0.1406523845
 20
18.4913337295
 11
0.1406523845
 21
20.4858964141
  0
LINE
  5
3A5
100
AcDbEntity
  8
RACCORDO
100
AcDbLine
 62
7
  6
CONTINUOUS
 10
28.158104791
 20
-1.84110269
 11
1.3906523845
 21
-1.9662959534
  0
LINE
  5
3A6
100
AcDbEntity
  8
ASSI
100
AcDbLine
 62
7
  6
CONTINUOUS
 10
28.158104791
 20
-1.84110269
 11
1.3906523845
 21
-1.9662959534
  0
LINE
  5
3A7
100
AcDbEntity
  8
RACCORDO
100
AcDbLine
 62
7
  6
CONTINUOUS
 10
27.6406523845
 20
-1.5767968296
 11
19.6405792104
 21
-1.5955038581
  0
LINE
  5
3A8
100
AcDbEntity
  8
ASSI
100
AcDbLine
 62
7
  6
CONTINUOUS
 10
27.6406523845
 20
-1.5767968296
 11
19.6405792104
 21
-1.5955038581
  0
LINE
  5
3A9
100
AcDbEntity
  8
RACCORDO
100
AcDbLine
 62
7
  6
CONTINUOUS
 10
5.8406523845
 20
-1.627773016
 11
1.3906523845
 21
-1.6381787055
  0
LINE
  5
3AA
100
AcDbEntity
  8
ASSI
100
AcDbLine
 62
7
  6
CONTINUOUS
 10
5.8406523845
 20
-1.627773016
 11
1.3906523845
 21
-1.6381787055
  0
LINE
  5
3AB
100
AcDbEntity
  8
0
100
AcDbLine
 62
7
  6
CONTINUOUS
 10
27.6406523845
 20
-1.6267968296
 11
19.6406523845
 21
-1.6267968296
  0
LINE
  5
3AC
100
AcDbEntity
  8
RACCORDO
100
AcDbLine
 62
7
  6
CONTINUOUS
 10
29.1406523845
 20
-1.5767968296
 11
27.6406523845
 21
-1.5767968296
  0
LINE
  5
3AD
100
AcDbEntity
  8
ASSI
100
AcDbLine
 62
7
  6
CONTINUOUS
 10
29.1406523845
 20
-1.5767968296
 11
27.6406523845
 21
-1.5767968296
  0
LINE
  5
3AE
100
AcDbEntity
  8
RACCORDO
100
AcDbLine
 62
7
  6
CONTINUOUS
 10
27.6406523845
 20
-0.0767968296
 11
29.1406523845
 21
-0.0767968296
  0
LINE
  5
3AF
100
AcDbEntity
  8
ASSI
100
AcDbLine
 62
7
  6
CONTINUOUS
 10
27.6406523845
 20
-0.0767968296
 11
29.1406523845
 21
-0.0767968296
  0
LINE
  5
3B0
100
AcDbEntity
  8
0
100
AcDbLine
 62
250
  6
CONTINUOUS
 10
-0.3098121453
 20
-0.0643952555
 11
-1.3263243332
 21
-0.0643952555
  0
LINE
  5
3B1
100
AcDbEntity
  8
0
100
AcDbLine
 62
250
  6
CONTINUOUS
 10
-5.3923719906
 20
-0.0643952555
 11
-6.4088830842
 21
-0.0643952555
  0
LINE
  5
3B2
100
AcDbEntity
  8
RACCORDO
100
AcDbLine
 62
7
  6
CONTINUOUS
 10
27.6406523845
 20
-0.0767968296
 11
19.6406523845
 21
-0.0580899721
  0
LINE
  5
3B3
100
AcDbEntity
  8
ASSI
100
AcDbLine
 62
7
  6
CONTINUOUS
 10
27.6406523845
 20
-0.0767968296
 11
19.6406523845
 21
-0.0580899721
  0
LINE
  5
3B4
100
AcDbEntity
  8
RACCORDO
100
AcDbLine
 62
7
  6
CONTINUOUS
 10
5.8406523845
 20
-0.0258206431
 11
1.3906523845
 21
-0.0154149537
  0
LINE
  5
3B5
100
AcDbEntity
  8
ASSI
100
AcDbLine
 62
7
  6
CONTINUOUS
 10
5.8406523845
 20
-0.0258206431
 11
1.3906523845
 21
-0.0154149537
  0
LINE
  5
3B6
100
AcDbEntity
  8
RACCORDO
100
AcDbLine
 62
7
  6
CONTINUOUS
 10
28.158104791
 20
0.1875090309
 11
1.3906523845
 21
0.3127022942
  0
LINE
  5
3B7
100
AcDbEntity
  8
ASSI
100
AcDbLine
 62
7
  6
CONTINUOUS
 10
28.158104791
 20
0.1875090309
 11
1.3906523845
 21
0.3127022942
  0
LINE
  5
3B8
100
AcDbEntity
  8
0
100
AcDbLine
 62
250
  6
CONTINUOUS
 10
-1.8060650046
 20
-1.3762322627
 11
-2.2840382703
 21
-1.1457515284
  0
LINE
  5
3B9
100
AcDbEntity
  8
0
100
AcDbLine
 62
250
  6
CONTINUOUS
 10
-0.3098121453
 20
-2.097729318
 11
-0.8705459626
 21
-1.8273418166
  0
LINE
  5
3BA
100
AcDbEntity
  8
0
100
AcDbLine
 62
250
  6
CONTINUOUS
 10
1.2706523845
 20
-15.5267968296
 11
1.2706523845
 21
-15.1267968296
  0
LINE
  5
3BB
100
AcDbEntity
  8
RACCORDO
100
AcDbLine
 62
250
  6
CONTINUOUS
 10
1.3906523845
 20
13.3618212945
 11
1.3906523845
 21
13.0337040466
  0
LINE
  5
3BC
100
AcDbEntity
  8
ASSI
100
AcDbLine
 62
250
  6
CONTINUOUS
 10
1.3906523845
 20
13.3618212945
 11
1.3906523845
 21
13.0337040466
  0
LINE
  5
3BD
100
AcDbEntity
  8
RACCORDO
100
AcDbLine
 62
250
  6
CONTINUOUS
 10
1.3906523845
 20
8.3618212945
 11
1.3906523845
 21
8.0337040466
  0
LINE
  5
3BE
100
AcDbEntity
  8
ASSI
100
AcDbLine
 62
250
  6
CONTINUOUS
 10
1.3906523845
 20
8.3618212945
 11
1.3906523845
 21
8.0337040466
  0
LINE
  5
3BF
100
AcDbEntity
  8
RACCORDO
100
AcDbLine
 62
250
  6
CONTINUOUS
 10
1.3906523845
 20
3.3618212945
 11
1.3906523845
 21
3.0337040466
  0
LINE
  5
3C0
100
AcDbEntity
  8
ASSI
100
AcDbLine
 62
250
  6
CONTINUOUS
 10
1.3906523845
 20
3.3618212945
 11
1.3906523845
 21
3.0337040466
  0
LINE
  5
3C1
100
AcDbEntity
  8
RACCORDO
100
AcDbLine
 62
250
  6
CONTINUOUS
 10
1.3906523845
 20
-1.6381787055
 11
1.3906523845
 21
-1.9662959534
  0
LINE
  5
3C2
100
AcDbEntity
  8
ASSI
100
AcDbLine
 62
250
  6
CONTINUOUS
 10
1.3906523845
 20
-1.6381787055
 11
1.3906523845
 21
-1.9662959534
  0
LINE
  5
3C3
100
AcDbEntity
  8
RACCORDO
100
AcDbLine
 62
250
  6
CONTINUOUS
 10
1.3906523845
 20
-15.0154149537
 11
1.3906523845
 21
-14.6872977058
  0
LINE
  5
3C4
100
AcDbEntity
  8
ASSI
100
AcDbLine
 62
250
  6
CONTINUOUS
 10
1.3906523845
 20
-15.0154149537
 11
1.3906523845
 21
-14.6872977058
  0
LINE
  5
3C5
100
AcDbEntity
  8
RACCORDO
100
AcDbLine
 62
250
  6
CONTINUOUS
 10
1.3906523845
 20
-6.6381787055
 11
1.3906523845
 21
-6.9662959534
  0
LINE
  5
3C6
100
AcDbEntity
  8
ASSI
100
AcDbLine
 62
250
  6
CONTINUOUS
 10
1.3906523845
 20
-6.6381787055
 11
1.3906523845
 21
-6.9662959534
  0
LINE
  5
3C7
100
AcDbEntity
  8
RACCORDO
100
AcDbLine
 62
250
  6
CONTINUOUS
 10
1.3906523845
 20
-10.0154149537
 11
1.3906523845
 21
-9.6872977058
  0
LINE
  5
3C8
100
AcDbEntity
  8
ASSI
100
AcDbLine
 62
250
  6
CONTINUOUS
 10
1.3906523845
 20
-10.0154149537
 11
1.3906523845
 21
-9.6872977058
  0
LINE
  5
3C9
100
AcDbEntity
  8
RACCORDO
100
AcDbLine
 62
250
  6
CONTINUOUS
 10
1.3906523845
 20
-11.6381787055
 11
1.3906523845
 21
-11.9662959534
  0
LINE
  5
3CA
100
AcDbEntity
  8
ASSI
100
AcDbLine
 62
250
  6
CONTINUOUS
 10
1.3906523845
 20
-11.6381787055
 11
1.3906523845
 21
-11.9662959534
  0
LINE
  5
3CB
100
AcDbEntity
  8
RACCORDO
100
AcDbLine
 62
250
  6
CONTINUOUS
 10
1.3906523845
 20
-5.0154149537
 11
1.3906523845
 21
-4.6872977058
  0
LINE
  5
3CC
100
AcDbEntity
  8
ASSI
100
AcDbLine
 62
250
  6
CONTINUOUS
 10
1.3906523845
 20
-5.0154149537
 11
1.3906523845
 21
-4.6872977058
  0
LINE
  5
3CD
100
AcDbEntity
  8
RACCORDO
100
AcDbLine
 62
250
  6
CONTINUOUS
 10
1.3906523845
 20
-16.6381787055
 11
1.3906523845
 21
-16.9662959534
  0
LINE
  5
3CE
100
AcDbEntity
  8
ASSI
100
AcDbLine
 62
250
  6
CONTINUOUS
 10
1.3906523845
 20
-16.6381787055
 11
1.3906523845
 21
-16.9662959534
  0
LINE
  5
3CF
100
AcDbEntity
  8
RACCORDO
100
AcDbLine
 62
250
  6
CONTINUOUS
 10
1.3906523845
 20
-0.0154149537
 11
1.3906523845
 21
0.3127022942
  0
LINE
  5
3D0
100
AcDbEntity
  8
ASSI
100
AcDbLine
 62
250
  6
CONTINUOUS
 10
1.3906523845
 20
-0.0154149537
 11
1.3906523845
 21
0.3127022942
  0
LINE
  5
3D1
100
AcDbEntity
  8
RACCORDO
100
AcDbLine
 62
250
  6
CONTINUOUS
 10
1.3906523845
 20
4.9845850463
 11
1.3906523845
 21
5.3127022942
  0
LINE
  5
3D2
100
AcDbEntity
  8
ASSI
100
AcDbLine
 62
250
  6
CONTINUOUS
 10
1.3906523845
 20
4.9845850463
 11
1.3906523845
 21
5.3127022942
  0
LINE
  5
3D3
100
AcDbEntity
  8
RACCORDO
100
AcDbLine
 62
250
  6
CONTINUOUS
 10
1.3906523845
 20
9.9845850463
 11
1.3906523845
 21
10.3127022942
  0
LINE
  5
3D4
100
AcDbEntity
  8
ASSI
100
AcDbLine
 62
250
  6
CONTINUOUS
 10
1.3906523845
 20
9.9845850463
 11
1.3906523845
 21
10.3127022942
  0
LINE
  5
3D5
100
AcDbEntity
  8
RACCORDO
100
AcDbLine
 62
250
  6
CONTINUOUS
 10
1.3906523845
 20
14.9845850463
 11
1.3906523845
 21
15.3127022942
  0
LINE
  5
3D6
100
AcDbEntity
  8
ASSI
100
AcDbLine
 62
250
  6
CONTINUOUS
 10
1.3906523845
 20
14.9845850463
 11
1.3906523845
 21
15.3127022942
  0
LINE
  5
3D7
100
AcDbEntity
  8
0
100
AcDbLine
 62
7
  6
CONTINUOUS
 10
1.8406523845
 20
-16.6371264447
 11
1.8406523845
 21
-15.0164672144
  0
LINE
  5
3D8
100
AcDbEntity
  8
0
100
AcDbLine
 62
7
  6
CONTINUOUS
 10
1.8406523845
 20
-11.6371264447
 11
1.8406523845
 21
-10.0164672144
  0
LINE
  5
3D9
100
AcDbEntity
  8
0
100
AcDbLine
 62
7
  6
CONTINUOUS
 10
1.8406523845
 20
-6.6371264447
 11
1.8406523845
 21
-5.0164672144
  0
LINE
  5
3DA
100
AcDbEntity
  8
0
100
AcDbLine
 62
7
  6
CONTINUOUS
 10
1.8406523845
 20
-1.6371264447
 11
1.8406523845
 21
-0.0164672144
  0
LINE
  5
3DB
100
AcDbEntity
  8
0
100
AcDbLine
 62
7
  6
CONTINUOUS
 10
1.8406523845
 20
3.3628735553
 11
1.8406523845
 21
4.9835327856
  0
LINE
  5
3DC
100
AcDbEntity
  8
0
100
AcDbLine
 62
7
  6
CONTINUOUS
 10
2.8406523845
 20
-16.6347880876
 11
2.8406523845
 21
-15.0188055716
  0
LINE
  5
3DD
100
AcDbEntity
  8
0
100
AcDbLine
 62
7
  6
CONTINUOUS
 10
2.8406523845
 20
-11.6347880876
 11
2.8406523845
 21
-10.0188055716
  0
LINE
  5
3DE
100
AcDbEntity
  8
0
100
AcDbLine
 62
7
  6
CONTINUOUS
 10
2.8406523845
 20
-6.6347880876
 11
2.8406523845
 21
-5.0188055716
  0
LINE
  5
3DF
100
AcDbEntity
  8
0
100
AcDbLine
 62
7
  6
CONTINUOUS
 10
2.8406523845
 20
-1.6347880876
 11
2.8406523845
 21
-0.0188055716
  0
LINE
  5
3E0
100
AcDbEntity
  8
0
100
AcDbLine
 62
7
  6
CONTINUOUS
 10
2.8406523845
 20
3.3652119124
 11
2.8406523845
 21
4.9811944284
  0
LINE
  5
3E1
100
AcDbEntity
  8
CURVE
100
AcDbLine
 62
250
  6
CONTINUOUS
 10
-5.9502832026
 20
-5.0818188296
 11
-4.7593696121
 21
-4.4644158296
  0
LINE
  5
3E2
100
AcDbEntity
  8
CURVE
100
AcDbLine
 62
250
  6
CONTINUOUS
 10
-4.7593626132
 20
-5.1177208296
 11
-5.8805418262
 21
-5.6989748296
  0
LINE
  5
3E3
100
AcDbEntity
  8
RACCORDO
100
AcDbLine
 62
7
  6
CONTINUOUS
 10
21.1203978185
 20
3.125981458
 11
1.3906523845
 21
3.0337040466
  0
LINE
  5
3E4
100
AcDbEntity
  8
ASSI
100
AcDbLine
 62
7
  6
CONTINUOUS
 10
21.1203978185
 20
3.125981458
 11
1.3906523845
 21
3.0337040466
  0
LINE
  5
3E5
100
AcDbEntity
  8
CURVE
100
AcDbLine
 62
250
  6
CONTINUOUS
 10
-7.7589069313
 20
2.3739931704
 11
-4.8593476155
 21
2.3739931704
  0
LINE
  5
3E6
100
AcDbEntity
  8
CURVE
100
AcDbLine
 62
250
  6
CONTINUOUS
 10
-4.8593476155
 20
2.9965991704
 11
-5.9759395272
 21
2.9965991704
  0
LINE
  5
3E7
100
AcDbEntity
  8
CURVE
100
AcDbLine
 62
250
  6
CONTINUOUS
 10
-6.4577991265
 20
2.9965991704
 11
-7.277047332
 21
2.9965991704
  0
LINE
  5
3E8
100
AcDbEntity
  8
RACCORDO
100
AcDbLine
 62
7
  6
CONTINUOUS
 10
28.158104791
 20
2.0458844039
 11
22.9406523845
 21
2.0732031704
  0
LINE
  5
3E9
100
AcDbEntity
  8
ASSI
100
AcDbLine
 62
7
  6
CONTINUOUS
 10
28.158104791
 20
2.0458844039
 11
22.9406523845
 21
2.0732031704
  0
LINE
  5
3EA
100
AcDbEntity
  8
DRAFT
100
AcDbLine
 62
7
  6
CONTINUOUS
 10
26.6406523845
 20
2.0712633963
 11
22.9226109604
 21
2.0912945983
  0
LINE
  5
3EB
100
AcDbEntity
  8
RACCORDO
100
AcDbLine
 62
7
  6
CONTINUOUS
 10
29.1406523845
 20
2.0575672113
 11
26.6406523845
 21
2.0714149059
  0
LINE
  5
3EC
100
AcDbEntity
  8
ASSI
100
AcDbLine
 62
7
  6
CONTINUOUS
 10
29.1406523845
 20
2.0575672113
 11
22.9226109604
 21
2.0912945983
  0
LINE
  5
3ED
100
AcDbEntity
  8
RACCORDO
100
AcDbLine
 62
250
  6
CONTINUOUS
 10
5.6906523845
 20
8.3718762304
 11
5.6906523845
 21
9.9745301105
  0
LINE
  5
3EE
100
AcDbEntity
  8
RACCORDO
100
AcDbLine
 62
250
  6
CONTINUOUS
 10
5.6906523845
 20
13.3718762304
 11
5.6906523845
 21
14.9745301105
  0
LINE
  5
3EF
100
AcDbEntity
  8
RACCORDO
100
AcDbLine
 62
7
  6
CONTINUOUS
 10
5.8406523845
 20
-17.6267968296
 11
5.8406523845
 21
14.9741793569
  0
LINE
  5
3F0
100
AcDbEntity
  8
DRAFT
100
AcDbLine
 62
250
  6
CONTINUOUS
 10
22.9226109604
 20
16.2551117425
 11
22.9406523845
 21
16.2732031704
  0
LINE
  5
3F1
100
AcDbEntity
  8
ASSI
100
AcDbLine
 62
250
  6
CONTINUOUS
 10
22.9226109604
 20
16.2551117425
 11
22.9406523845
 21
16.2732031704
  0
LINE
  5
3F2
100
AcDbEntity
  8
CURVE
100
AcDbLine
 62
250
  6
CONTINUOUS
 10
-7.6590509093
 20
-8.1031178296
 11
-4.7593546144
 21
-7.1719788296
  0
LINE
  5
3F3
100
AcDbEntity
  8
RACCORDO
100
AcDbLine
 62
7
  6
CONTINUOUS
 10
20.9865371217
 20
3.4076434723
 11
19.6406523845
 21
3.404496313
  0
LINE
  5
3F4
100
AcDbEntity
  8
ASSI
100
AcDbLine
 62
7
  6
CONTINUOUS
 10
20.9865371217
 20
3.4076434723
 11
19.6406523845
 21
3.404496313
  0
LINE
  5
3F5
100
AcDbEntity
  8
RACCORDO
100
AcDbLine
 62
7
  6
CONTINUOUS
 10
5.8406523845
 20
3.372226984
 11
1.3906523845
 21
3.3618212945
  0
LINE
  5
3F6
100
AcDbEntity
  8
ASSI
100
AcDbLine
 62
7
  6
CONTINUOUS
 10
5.8406523845
 20
3.372226984
 11
1.3906523845
 21
3.3618212945
  0
LINE
  5
3F7
100
AcDbEntity
  8
CURVE
100
AcDbLine
 62
250
  6
CONTINUOUS
 10
-4.8593476155
 20
4.8443361704
 11
-7.7589069313
 21
4.8443361704
  0
LINE
  5
3F8
100
AcDbEntity
  8
CURVE
100
AcDbLine
 62
250
  6
CONTINUOUS
 10
-7.7589069313
 20
5.4669421704
 11
-5.3412072147
 21
5.4669421704
  0
LINE
  5
3F9
100
AcDbEntity
  8
RACCORDO
100
AcDbLine
 62
7
  6
CONTINUOUS
 10
20.9865371217
 20
4.9387628686
 11
19.6406523845
 21
4.9419100279
  0
LINE
  5
3FA
100
AcDbEntity
  8
ASSI
100
AcDbLine
 62
7
  6
CONTINUOUS
 10
20.9865371217
 20
4.9387628686
 11
19.6406523845
 21
4.9419100279
  0
LINE
  5
3FB
100
AcDbEntity
  8
RACCORDO
100
AcDbLine
 62
7
  6
CONTINUOUS
 10
5.8406523845
 20
4.9741793569
 11
1.3906523845
 21
4.9845850463
  0
LINE
  5
3FC
100
AcDbEntity
  8
ASSI
100
AcDbLine
 62
7
  6
CONTINUOUS
 10
5.8406523845
 20
4.9741793569
 11
1.3906523845
 21
4.9845850463
  0
LINE
  5
3FD
100
AcDbEntity
  8
RACCORDO
100
AcDbLine
 62
7
  6
CONTINUOUS
 10
21.1203978185
 20
5.2204248829
 11
1.3906523845
 21
5.3127022942
  0
LINE
  5
3FE
100
AcDbEntity
  8
ASSI
100
AcDbLine
 62
7
  6
CONTINUOUS
 10
21.1203978185
 20
5.2204248829
 11
1.3906523845
 21
5.3127022942
  0
LINE
  5
3FF
100
AcDbEntity
  8
CURVE
100
AcDbLine
 62
250
  6
CONTINUOUS
 10
-5.9557526023
 20
7.8246591704
 11
-7.2048313325
 21
8.2546741704
  0
LINE
  5
400
100
AcDbEntity
  8
CURVE
100
AcDbLine
 62
250
  6
CONTINUOUS
 10
-4.8593476155
 20
7.4471671704
 11
-5.473893003
 21
7.6640151704
  0
LINE
  5
401
100
AcDbEntity
  8
CURVE
100
AcDbLine
 62
250
  6
CONTINUOUS
 10
-7.7589069313
 20
7.9010521704
 11
-4.8593476155
 21
6.8527171704
  0
LINE
  5
402
100
AcDbEntity
  8
CURVE
100
AcDbLine
 62
250
  6
CONTINUOUS
 10
-2.2162838055
 20
9.3732031704
 11
-2.7590582363
 21
9.9160603376
  0
LINE
  5
403
100
AcDbEntity
  8
DRAFT
100
AcDbLine
 62
250
  6
CONTINUOUS
 10
22.9226109604
 20
11.2551117425
 11
22.9406523845
 21
11.2732031704
  0
LINE
  5
404
100
AcDbEntity
  8
ASSI
100
AcDbLine
 62
250
  6
CONTINUOUS
 10
22.9226109604
 20
11.2551117425
 11
22.9406523845
 21
11.2732031704
  0
LINE
  5
405
100
AcDbEntity
  8
0
100
AcDbLine
 62
7
  6
CONTINUOUS
 10
24.2855550427
 20
15.8130805754
 11
21.5007749795
 21
13.0283005123
  0
LINE
  5
406
100
AcDbEntity
  8
0
100
AcDbLine
 62
7
  6
CONTINUOUS
 10
21.9957497264
 20
12.5333257655
 11
24.7805297895
 21
15.3181058286
  0
LINE
  5
407
100
AcDbEntity
  8
CURVE
100
AcDbLine
 62
250
  6
CONTINUOUS
 10
-5.8805418262
 20
-8.1120428296
 11
-6.7559474773
 21
-8.3931468296
  0
LINE
  5
408
100
AcDbEntity
  8
CURVE
100
AcDbLine
 62
250
  6
CONTINUOUS
 10
-4.7593626132
 20
-7.7520078296
 11
-5.3296037495
 21
-7.9351138296
  0
LINE
  5
409
100
AcDbEntity
  8
0
100
AcDbLine
 62
7
  6
CONTINUOUS
 10
-32.2220480805
 20
6.3165798826
 11
-21.7593476155
 21
7.0482031704
  0
LINE
  5
40A
100
AcDbEntity
  8
RACCORDO
100
AcDbLine
 62
7
  6
CONTINUOUS
 10
-20.2956066334
 20
7.1566823305
 11
-21.4802745576
 21
7.0738422794
  0
LINE
  5
40B
100
AcDbEntity
  8
RACCORDO
100
AcDbLine
 62
7
  6
CONTINUOUS
 10
26.6406523845
 20
6.2749914349
 11
29.1406523845
 21
6.2888391296
  0
LINE
  5
40C
100
AcDbEntity
  8
DRAFT
100
AcDbLine
 62
7
  6
CONTINUOUS
 10
26.6406523845
 20
6.2751429445
 11
22.9226109604
 21
6.2551117425
  0
LINE
  5
40D
100
AcDbEntity
  8
ASSI
100
AcDbLine
 62
7
  6
CONTINUOUS
 10
29.1406523845
 20
6.2888391296
 11
22.9226109604
 21
6.2551117425
  0
LINE
  5
40E
100
AcDbEntity
  8
RACCORDO
100
AcDbLine
 62
7
  6
CONTINUOUS
 10
28.158104791
 20
6.300521937
 11
22.9406523845
 21
6.2732031704
  0
LINE
  5
40F
100
AcDbEntity
  8
ASSI
100
AcDbLine
 62
7
  6
CONTINUOUS
 10
28.158104791
 20
6.300521937
 11
22.9406523845
 21
6.2732031704
  0
LINE
  5
410
100
AcDbEntity
  8
RACCORDO
100
AcDbLine
 62
7
  6
CONTINUOUS
 10
21.1203978185
 20
8.125981458
 11
1.3906523845
 21
8.0337040466
  0
LINE
  5
411
100
AcDbEntity
  8
ASSI
100
AcDbLine
 62
7
  6
CONTINUOUS
 10
21.1203978185
 20
8.125981458
 11
1.3906523845
 21
8.0337040466
  0
LINE
  5
412
100
AcDbEntity
  8
RACCORDO
100
AcDbLine
 62
7
  6
CONTINUOUS
 10
20.9865371217
 20
8.4076434723
 11
19.6406523845
 21
8.404496313
  0
LINE
  5
413
100
AcDbEntity
  8
ASSI
100
AcDbLine
 62
7
  6
CONTINUOUS
 10
20.9865371217
 20
8.4076434723
 11
19.6406523845
 21
8.404496313
  0
LINE
  5
414
100
AcDbEntity
  8
RACCORDO
100
AcDbLine
 62
7
  6
CONTINUOUS
 10
5.8406523845
 20
8.372226984
 11
1.3906523845
 21
8.3618212945
  0
LINE
  5
415
100
AcDbEntity
  8
ASSI
100
AcDbLine
 62
7
  6
CONTINUOUS
 10
5.8406523845
 20
8.372226984
 11
1.3906523845
 21
8.3618212945
  0
LINE
  5
416
100
AcDbEntity
  8
CURVE
100
AcDbLine
 62
250
  6
CONTINUOUS
 10
-5.3412072147
 20
6.5399411704
 11
-4.8593476155
 21
6.5399411704
  0
LINE
  5
417
100
AcDbEntity
  8
RACCORDO
100
AcDbLine
 62
7
  6
CONTINUOUS
 10
28.158104791
 20
7.0458844039
 11
22.9406523845
 21
7.0732031704
  0
LINE
  5
418
100
AcDbEntity
  8
ASSI
100
AcDbLine
 62
7
  6
CONTINUOUS
 10
28.158104791
 20
7.0458844039
 11
22.9406523845
 21
7.0732031704
  0
LINE
  5
419
100
AcDbEntity
  8
DRAFT
100
AcDbLine
 62
7
  6
CONTINUOUS
 10
26.6406523845
 20
7.0712633963
 11
22.9226109604
 21
7.0912945983
  0
LINE
  5
41A
100
AcDbEntity
  8
RACCORDO
100
AcDbLine
 62
7
  6
CONTINUOUS
 10
29.1406523845
 20
7.0575672113
 11
26.6406523845
 21
7.0714149059
  0
LINE
  5
41B
100
AcDbEntity
  8
ASSI
100
AcDbLine
 62
7
  6
CONTINUOUS
 10
29.1406523845
 20
7.0575672113
 11
22.9226109604
 21
7.0912945983
  0
LINE
  5
41C
100
AcDbEntity
  8
CURVE
100
AcDbLine
 62
250
  6
CONTINUOUS
 10
-2.2162838055
 20
11.9517745019
 11
-2.7590582363
 21
12.4946318389
  0
LINE
  5
41D
100
AcDbEntity
  8
CURVE
100
AcDbLine
 62
250
  6
CONTINUOUS
 10
-1.9448965902
 20
14.9374889494
 11
-2.0805901412
 21
15.1636794688
  0
LINE
  5
41E
100
AcDbEntity
  8
0
100
AcDbLine
 62
7
  6
CONTINUOUS
 10
24.2855550427
 20
10.8130805754
 11
21.5007749795
 21
8.0283005123
  0
LINE
  5
41F
100
AcDbEntity
  8
0
100
AcDbLine
 62
7
  6
CONTINUOUS
 10
21.9957497264
 20
7.5333257655
 11
24.7805297895
 21
10.3181058286
  0
LINE
  5
420
100
AcDbEntity
  8
CURVE
100
AcDbLine
 62
250
  6
CONTINUOUS
 10
-5.7706625638
 20
-11.4193768296
 11
-7.6590439104
 21
-11.9609448296
  0
LINE
  5
421
100
AcDbEntity
  8
CURVE
100
AcDbLine
 62
250
  6
CONTINUOUS
 10
-6.6715053402
 20
-12.2577598296
 11
-4.7593546144
 21
-11.7093838296
  0
LINE
  5
422
100
AcDbEntity
  8
RACCORDO
100
AcDbLine
 62
7
  6
CONTINUOUS
 10
26.6406523845
 20
11.2749914349
 11
29.1406523845
 21
11.2888391296
  0
LINE
  5
423
100
AcDbEntity
  8
DRAFT
100
AcDbLine
 62
7
  6
CONTINUOUS
 10
26.6406523845
 20
11.2751429445
 11
22.9226109604
 21
11.2551117425
  0
LINE
  5
424
100
AcDbEntity
  8
ASSI
100
AcDbLine
 62
7
  6
CONTINUOUS
 10
29.1406523845
 20
11.2888391296
 11
22.9226109604
 21
11.2551117425
  0
LINE
  5
425
100
AcDbEntity
  8
RACCORDO
100
AcDbLine
 62
7
  6
CONTINUOUS
 10
28.158104791
 20
11.300521937
 11
22.9406523845
 21
11.2732031704
  0
LINE
  5
426
100
AcDbEntity
  8
ASSI
100
AcDbLine
 62
7
  6
CONTINUOUS
 10
28.158104791
 20
11.300521937
 11
22.9406523845
 21
11.2732031704
  0
LINE
  5
427
100
AcDbEntity
  8
CURVE
100
AcDbLine
 62
250
  6
CONTINUOUS
 10
-2.7590582363
 20
9.9160603376
 11
-0.8593476155
 21
9.9160603376
  0
LINE
  5
428
100
AcDbEntity
  8
CURVE
100
AcDbLine
 62
250
  6
CONTINUOUS
 10
-4.8593476155
 20
9.9655281704
 11
-7.7589069313
 21
9.9655281704
  0
LINE
  5
429
100
AcDbEntity
  8
CURVE
100
AcDbLine
 62
250
  6
CONTINUOUS
 10
-7.2860819558
 20
10.5479731704
 11
-4.8593476155
 21
10.5479731704
  0
LINE
  5
42A
100
AcDbEntity
  8
CURVE
100
AcDbLine
 62
250
  6
CONTINUOUS
 10
-0.8593476155
 20
11.0922508003
 11
-1.8092029259
 21
11.0922508003
  0
LINE
  5
42B
100
AcDbEntity
  8
RACCORDO
100
AcDbLine
 62
7
  6
CONTINUOUS
 10
20.9865371217
 20
9.9387628686
 11
19.6406523845
 21
9.9419100279
  0
LINE
  5
42C
100
AcDbEntity
  8
ASSI
100
AcDbLine
 62
7
  6
CONTINUOUS
 10
20.9865371217
 20
9.9387628686
 11
19.6406523845
 21
9.9419100279
  0
LINE
  5
42D
100
AcDbEntity
  8
RACCORDO
100
AcDbLine
 62
7
  6
CONTINUOUS
 10
5.8406523845
 20
9.9741793569
 11
1.3906523845
 21
9.9845850463
  0
LINE
  5
42E
100
AcDbEntity
  8
ASSI
100
AcDbLine
 62
7
  6
CONTINUOUS
 10
5.8406523845
 20
9.9741793569
 11
1.3906523845
 21
9.9845850463
  0
LINE
  5
42F
100
AcDbEntity
  8
RACCORDO
100
AcDbLine
 62
7
  6
CONTINUOUS
 10
21.1203978185
 20
10.2204248829
 11
1.3906523845
 21
10.3127022942
  0
LINE
  5
430
100
AcDbEntity
  8
ASSI
100
AcDbLine
 62
7
  6
CONTINUOUS
 10
21.1203978185
 20
10.2204248829
 11
1.3906523845
 21
10.3127022942
  0
LINE
  5
431
100
AcDbEntity
  8
CURVE
100
AcDbLine
 62
250
  6
CONTINUOUS
 10
-1.2664284668
 20
10.4589175047
 11
-2.7590582363
 21
10.8660602809
  0
LINE
  5
432
100
AcDbEntity
  8
CURVE
100
AcDbLine
 62
250
  6
CONTINUOUS
 10
-5.9557526023
 20
13.8496941704
 11
-7.2046673575
 21
14.2796521704
  0
LINE
  5
433
100
AcDbEntity
  8
CURVE
100
AcDbLine
 62
250
  6
CONTINUOUS
 10
-4.8593476155
 20
13.4720921704
 11
-5.473893003
 21
13.6890491704
  0
LINE
  5
434
100
AcDbEntity
  8
CURVE
100
AcDbLine
 62
250
  6
CONTINUOUS
 10
-7.7589069313
 20
13.9260871704
 11
-4.8593476155
 21
12.8776431704
  0
LINE
  5
435
100
AcDbEntity
  8
CURVE
100
AcDbLine
 62
250
  6
CONTINUOUS
 10
-0.8593476155
 20
13.5803458334
 11
-1.1307348592
 21
13.8517747284
  0
LINE
  5
436
100
AcDbEntity
  8
CURVE
100
AcDbLine
 62
250
  6
CONTINUOUS
 10
-0.8593476155
 20
15.0732031704
 11
-0.9950412373
 21
15.2089173914
  0
LINE
  5
437
100
AcDbEntity
  8
DRAFT
100
AcDbLine
 62
250
  6
CONTINUOUS
 10
22.9226109604
 20
6.2551117425
 11
22.9406523845
 21
6.2732031704
  0
LINE
  5
438
100
AcDbEntity
  8
ASSI
100
AcDbLine
 62
250
  6
CONTINUOUS
 10
22.9226109604
 20
6.2551117425
 11
22.9406523845
 21
6.2732031704
  0
LINE
  5
439
100
AcDbEntity
  8
0
100
AcDbLine
 62
7
  6
CONTINUOUS
 10
24.2855550427
 20
5.8130805754
 11
21.5007749795
 21
3.0283005123
  0
LINE
  5
43A
100
AcDbEntity
  8
0
100
AcDbLine
 62
7
  6
CONTINUOUS
 10
21.9957497264
 20
2.5333257655
 11
24.7805297895
 21
5.3181058286
  0
LINE
  5
43B
100
AcDbEntity
  8
CURVE
100
AcDbLine
 62
250
  6
CONTINUOUS
 10
-5.6624510475
 20
-15.6056358296
 11
-7.6590439104
 21
-16.2467678296
  0
LINE
  5
43C
100
AcDbEntity
  8
CURVE
100
AcDbLine
 62
250
  6
CONTINUOUS
 10
-7.6590439104
 20
-16.8267968296
 11
-4.7593476155
 21
-15.8956648296
  0
LINE
  5
43D
100
AcDbEntity
  8
RACCORDO
100
AcDbLine
 62
7
  6
CONTINUOUS
 10
21.1203978185
 20
13.125981458
 11
1.3906523845
 21
13.0337040466
  0
LINE
  5
43E
100
AcDbEntity
  8
ASSI
100
AcDbLine
 62
7
  6
CONTINUOUS
 10
21.1203978185
 20
13.125981458
 11
1.3906523845
 21
13.0337040466
  0
LINE
  5
43F
100
AcDbEntity
  8
RACCORDO
100
AcDbLine
 62
7
  6
CONTINUOUS
 10
20.9865371217
 20
13.4076434723
 11
19.6406523845
 21
13.404496313
  0
LINE
  5
440
100
AcDbEntity
  8
ASSI
100
AcDbLine
 62
7
  6
CONTINUOUS
 10
20.9865371217
 20
13.4076434723
 11
19.6406523845
 21
13.404496313
  0
LINE
  5
441
100
AcDbEntity
  8
RACCORDO
100
AcDbLine
 62
7
  6
CONTINUOUS
 10
5.8406523845
 20
13.372226984
 11
1.3906523845
 21
13.3618212945
  0
LINE
  5
442
100
AcDbEntity
  8
ASSI
100
AcDbLine
 62
7
  6
CONTINUOUS
 10
5.8406523845
 20
13.372226984
 11
1.3906523845
 21
13.3618212945
  0
LINE
  5
443
100
AcDbEntity
  8
CURVE
100
AcDbLine
 62
250
  6
CONTINUOUS
 10
-5.4611429452
 20
12.0019571704
 11
-7.7589069313
 21
12.0019571704
  0
LINE
  5
444
100
AcDbEntity
  8
CURVE
100
AcDbLine
 62
250
  6
CONTINUOUS
 10
-2.7590582363
 20
12.4946318389
 11
-0.8593476155
 21
12.4946318389
  0
LINE
  5
445
100
AcDbEntity
  8
CURVE
100
AcDbLine
 62
250
  6
CONTINUOUS
 10
-7.7589069313
 20
12.5844011704
 11
-4.8593476155
 21
12.5844011704
  0
LINE
  5
446
100
AcDbEntity
  8
CURVE
100
AcDbLine
 62
250
  6
CONTINUOUS
 10
-1.9448965902
 20
13.0374889494
 11
-2.7590582363
 21
13.0374889494
  0
LINE
  5
447
100
AcDbEntity
  8
CURVE
100
AcDbLine
 62
250
  6
CONTINUOUS
 10
-1.1307348592
 20
13.8517747284
 11
-1.6735093182
 21
13.8517747284
  0
LINE
  5
448
100
AcDbEntity
  8
RACCORDO
100
AcDbLine
 62
250
  6
CONTINUOUS
 10
18.0406523845
 20
14.1732031704
 11
5.8406523845
 21
14.1732031704
  0
LINE
  5
449
100
AcDbEntity
  8
RACCORDO
100
AcDbLine
 62
7
  6
CONTINUOUS
 10
28.158104791
 20
12.0458844039
 11
22.9406523845
 21
12.0732031704
  0
LINE
  5
44A
100
AcDbEntity
  8
ASSI
100
AcDbLine
 62
7
  6
CONTINUOUS
 10
28.158104791
 20
12.0458844039
 11
22.9406523845
 21
12.0732031704
  0
LINE
  5
44B
100
AcDbEntity
  8
DRAFT
100
AcDbLine
 62
7
  6
CONTINUOUS
 10
26.6406523845
 20
12.0712633963
 11
22.9226109604
 21
12.0912945983
  0
LINE
  5
44C
100
AcDbEntity
  8
RACCORDO
100
AcDbLine
 62
7
  6
CONTINUOUS
 10
29.1406523845
 20
12.0575672113
 11
26.6406523845
 21
12.0714149059
  0
LINE
  5
44D
100
AcDbEntity
  8
ASSI
100
AcDbLine
 62
7
  6
CONTINUOUS
 10
29.1406523845
 20
12.0575672113
 11
22.9226109604
 21
12.0912945983
  0
LINE
  5
44E
100
AcDbEntity
  8
RACCORDO
100
AcDbLine
 62
7
  6
CONTINUOUS
 10
-13.2343476155
 20
22.8010343868
 11
-12.3593476155
 21
22.2958529012
  0
LINE
  5
44F
100
AcDbEntity
  8
RACCORDO
100
AcDbLine
 62
250
  6
CONTINUOUS
 10
-13.1108020483
 20
23.0175407377
 11
-12.1108020483
 21
22.4401904685
  0
LINE
  5
450
100
AcDbEntity
  8
RACCORDO
100
AcDbLine
 62
7
  6
CONTINUOUS
 10
-12.3593476155
 20
-23.9494465604
 11
-13.2343476155
 21
-24.4546280459
  0
LINE
  5
451
100
AcDbEntity
  8
RACCORDO
100
AcDbLine
 62
250
  6
CONTINUOUS
 10
-12.1108020483
 20
-24.0937841277
 11
-13.1108020483
 21
-24.6711343969
  0
LINE
  5
452
100
AcDbEntity
  8
RACCORDO
100
AcDbLine
 62
7
  6
CONTINUOUS
 10
26.6406523845
 20
16.2749914349
 11
29.1406523845
 21
16.2888391296
  0
LINE
  5
453
100
AcDbEntity
  8
DRAFT
100
AcDbLine
 62
7
  6
CONTINUOUS
 10
26.6406523845
 20
16.2751429445
 11
22.9226109604
 21
16.2551117425
  0
LINE
  5
454
100
AcDbEntity
  8
ASSI
100
AcDbLine
 62
7
  6
CONTINUOUS
 10
29.1406523845
 20
16.2888391296
 11
22.9226109604
 21
16.2551117425
  0
LINE
  5
455
100
AcDbEntity
  8
RACCORDO
100
AcDbLine
 62
7
  6
CONTINUOUS
 10
28.158104791
 20
16.300521937
 11
22.9406523845
 21
16.2732031704
  0
LINE
  5
456
100
AcDbEntity
  8
ASSI
100
AcDbLine
 62
7
  6
CONTINUOUS
 10
28.158104791
 20
16.300521937
 11
22.9406523845
 21
16.2732031704
  0
LINE
  5
457
100
AcDbEntity
  8
RACCORDO
100
AcDbLine
 62
7
  6
CONTINUOUS
 10
19.6406523845
 20
14.3732031704
 11
18.0406523845
 21
14.3732031704
  0
LINE
  5
458
100
AcDbEntity
  8
CURVE
100
AcDbLine
 62
250
  6
CONTINUOUS
 10
-2.0805901412
 20
15.1636794688
 11
-2.4876710209
 21
15.1636794688
  0
LINE
  5
459
100
AcDbEntity
  8
CURVE
100
AcDbLine
 62
250
  6
CONTINUOUS
 10
-0.9950412373
 20
15.2089173914
 11
-1.6735093182
 21
15.2089173914
  0
LINE
  5
45A
100
AcDbEntity
  8
RACCORDO
100
AcDbLine
 62
250
  6
CONTINUOUS
 10
28.158104791
 20
16.5700313003
 11
29.1406523845
 21
16.5700313003
  0
LINE
  5
45B
100
AcDbEntity
  8
ASSI
100
AcDbLine
 62
250
  6
CONTINUOUS
 10
28.158104791
 20
16.5700313003
 11
29.1406523845
 21
16.5700313003
  0
LINE
  5
45C
100
AcDbEntity
  8
RACCORDO
100
AcDbLine
 62
7
  6
CONTINUOUS
 10
20.9865371217
 20
14.9387628686
 11
1.3906523845
 21
14.9845850463
  0
LINE
  5
45D
100
AcDbEntity
  8
ASSI
100
AcDbLine
 62
7
  6
CONTINUOUS
 10
20.9865371217
 20
14.9387628686
 11
1.3906523845
 21
14.9845850463
  0
LINE
  5
45E
100
AcDbEntity
  8
RACCORDO
100
AcDbLine
 62
7
  6
CONTINUOUS
 10
21.1203978185
 20
15.2204248829
 11
1.3906523845
 21
15.3127022942
  0
LINE
  5
45F
100
AcDbEntity
  8
ASSI
100
AcDbLine
 62
7
  6
CONTINUOUS
 10
21.1203978185
 20
15.2204248829
 11
1.3906523845
 21
15.3127022942
  0
LINE
  5
460
100
AcDbEntity
  8
RACCORDO
100
AcDbLine
 62
250
  6
CONTINUOUS
 10
28.158104791
 20
16.5700313003
 11
-9.8593476155
 21
16.8449022192
  0
LINE
  5
461
100
AcDbEntity
  8
ASSI
100
AcDbLine
 62
250
  6
CONTINUOUS
 10
28.158104791
 20
16.5700313003
 11
-9.8593476155
 21
16.8449022192
  0
LINE
  5
462
100
AcDbEntity
  8
RACCORDO
100
AcDbLine
 62
7
  6
CONTINUOUS
 10
18.0406523845
 20
14.1732031704
 11
18.0406523845
 21
14.9456513993
  0
LINE
  5
463
100
AcDbEntity
  8
0
100
AcDbLine
 62
7
  6
CONTINUOUS
 10
18.1406523845
 20
14.9454175636
 11
18.1406523845
 21
14.3732031704
  0
LINE
  5
464
100
AcDbEntity
  8
0
100
AcDbLine
 62
7
  6
CONTINUOUS
 10
19.6406523845
 20
14.9419100279
 11
19.6406523845
 21
-1.6267968296
  0
LINE
  5
465
100
AcDbEntity
  8
RACCORDO
100
AcDbLine
 62
250
  6
CONTINUOUS
 10
28.158104791
 20
17.9840294711
 11
-9.8593476155
 21
18.25890039
  0
LINE
  5
466
100
AcDbEntity
  8
ASSI
100
AcDbLine
 62
250
  6
CONTINUOUS
 10
28.158104791
 20
17.9840294711
 11
-9.8593476155
 21
18.25890039
  0
LINE
  5
467
100
AcDbEntity
  8
RACCORDO
100
AcDbLine
 62
250
  6
CONTINUOUS
 10
0.1406523845
 20
18.4913337295
 11
28.158104791
 21
18.0022872787
  0
LINE
  5
468
100
AcDbEntity
  8
ASSI
100
AcDbLine
 62
250
  6
CONTINUOUS
 10
0.1406523845
 20
18.4913337295
 11
28.158104791
 21
18.0022872787
  0
LINE
  5
469
100
AcDbEntity
  8
RACCORDO
100
AcDbLine
 62
7
  6
CONTINUOUS
 10
0.1406523845
 20
18.7841823393
 11
28.158104791
 21
18.2951358884
  0
LINE
  5
46A
100
AcDbEntity
  8
ASSI
100
AcDbLine
 62
7
  6
CONTINUOUS
 10
0.1406523845
 20
18.7841823393
 11
28.158104791
 21
18.2951358884
  0
LINE
  5
46B
100
AcDbEntity
  8
RACCORDO
100
AcDbLine
 62
250
  6
CONTINUOUS
 10
-19.4553198012
 20
19.7155202763
 11
-19.9363535878
 21
19.7356714952
  0
LINE
  5
46C
100
AcDbEntity
  8
DRAFT
100
AcDbLine
 62
250
  6
CONTINUOUS
 10
22.9226109604
 20
2.0912945983
 11
22.9406523845
 21
2.0732031704
  0
LINE
  5
46D
100
AcDbEntity
  8
ASSI
100
AcDbLine
 62
250
  6
CONTINUOUS
 10
22.9226109604
 20
2.0912945983
 11
22.9406523845
 21
2.0732031704
  0
LWPOLYLINE
  5
46E
100
AcDbEntity
  8
0
100
AcDbPolyline
 62
7
  6
CONTINUOUS
 90
10
 70
0
 43
0.3500000087
 10
-0.9950618703
 20
44.5767969116
 10
-0.9236333148
 20
44.4339378021
 10
-0.9236333148
 20
44.362510379
 10
-1.0664904925
 20
44.2196555328
 10
-1.137919048
 20
44.2196555328
 10
-1.2093476702
 20
44.2910829559
 10
-1.2093476702
 20
44.362510379
 10
-1.137919048
 20
44.5053694885
 10
-1.0664904925
 20
44.5767969116
 10
-0.9950618703
 20
44.5767969116
  0
LINE
  5
46F
100
AcDbEntity
  8
RACCORDO
100
AcDbLine
 62
250
  6
CONTINUOUS
 10
-10.8572050131
 20
21.0830911844
 11
-18.499033565
 21
20.6825999204
  0
LINE
  5
470
100
AcDbEntity
  8
RACCORDO
100
AcDbLine
 62
7
  6
CONTINUOUS
 10
-18.5161265044
 20
21.1719283924
 11
-12.2151035876
 21
21.5021510107
  0
LINE
  5
471
100
AcDbEntity
  8
RACCORDO
100
AcDbLine
 62
7
  6
CONTINUOUS
 10
-0.3506214123
 20
20.7391786037
 11
-9.8593476155
 21
20.5732031704
  0
LINE
  5
472
100
AcDbEntity
  8
RACCORDO
100
AcDbLine
 62
7
  6
CONTINUOUS
 10
0.1406523845
 20
20.0732031704
 11
-9.8593476155
 21
20.0732031704
  0
LINE
  5
473
100
AcDbEntity
  8
RACCORDO
100
AcDbLine
 62
250
  6
CONTINUOUS
 10
-9.8593476155
 20
21.0743830149
 11
-10.8572050131
 21
21.0830911844
  0
LINE
  5
474
100
AcDbEntity
  8
RACCORDO
100
AcDbLine
 62
7
  6
CONTINUOUS
 10
-0.85062108
 20
21.4858583372
 11
-10.8593476155
 21
21.5732031704
  0
LINE
  5
475
100
AcDbEntity
  8
DRAFT
100
AcDbLine
 62
7
  6
CONTINUOUS
 10
-9.8593476155
 20
20.0232031704
 11
0.1406523845
 21
19.8486525212
  0
LINE
  5
476
100
AcDbEntity
  8
ASSI
100
AcDbLine
 62
7
  6
CONTINUOUS
 10
-9.8593476155
 20
20.0232031704
 11
0.1406523845
 21
19.8486525212
  0
LINE
  5
477
100
AcDbEntity
  8
DRAFT
100
AcDbLine
 62
250
  6
CONTINUOUS
 10
22.9226109604
 20
7.0912945983
 11
22.9406523845
 21
7.0732031704
  0
LINE
  5
478
100
AcDbEntity
  8
ASSI
100
AcDbLine
 62
250
  6
CONTINUOUS
 10
22.9226109604
 20
7.0912945983
 11
22.9406523845
 21
7.0732031704
  0
LINE
  5
479
100
AcDbEntity
  8
RACCORDO
100
AcDbLine
 62
250
  6
CONTINUOUS
 10
-10.8593476155
 20
23.4232074012
 11
-13.1108020483
 21
23.4101088225
  0
LINE
  5
47A
100
AcDbEntity
  8
RACCORDO
100
AcDbLine
 62
7
  6
CONTINUOUS
 10
-10.8593476155
 20
23.6732031704
 11
-13.1108020483
 21
23.6601045917
  0
LINE
  5
47B
100
AcDbEntity
  8
RACCORDO
100
AcDbLine
 62
250
  6
CONTINUOUS
 10
-13.3593476155
 20
23.0175407377
 11
-13.1108020483
 21
23.0175407377
  0
LINE
  5
47C
100
AcDbEntity
  8
RACCORDO
100
AcDbLine
 62
250
  6
CONTINUOUS
 10
-13.3593476155
 20
23.4101088225
 11
-13.1108020483
 21
23.4101088225
  0
LINE
  5
47D
100
AcDbEntity
  8
RACCORDO
100
AcDbLine
 62
250
  6
CONTINUOUS
 10
-9.8593476155
 20
23.4188355672
 11
-10.1078931826
 21
23.4188355672
  0
LINE
  5
47E
100
AcDbEntity
  8
ASSI
100
AcDbLine
 62
7
  6
CONTINUOUS
 10
-9.8593476155
 20
22.9673853406
 11
-3.3506549623
 21
22.9295188745
  0
LINE
  5
47F
100
AcDbEntity
  8
RACCORDO
100
AcDbLine
 62
250
  6
CONTINUOUS
 10
-10.1078931826
 20
23.4188355672
 11
-10.8593476155
 21
23.4232074012
  0
LINE
  5
480
100
AcDbEntity
  8
RACCORDO
100
AcDbLine
 62
7
  6
CONTINUOUS
 10
-10.1078931826
 20
23.6688313364
 11
-10.8593476155
 21
23.6732031704
  0
LINE
  5
481
100
AcDbEntity
  8
DRAFT
100
AcDbLine
 62
250
  6
CONTINUOUS
 10
22.9226109604
 20
12.0912945983
 11
22.9406523845
 21
12.0732031704
  0
LINE
  5
482
100
AcDbEntity
  8
ASSI
100
AcDbLine
 62
250
  6
CONTINUOUS
 10
22.9226109604
 20
12.0912945983
 11
22.9406523845
 21
12.0732031704
  0
LINE
  5
483
100
AcDbEntity
  8
0
100
AcDbLine
 62
7
  6
CONTINUOUS
 10
25.6406523845
 20
16.2697553763
 11
25.6406523845
 21
12.0766509646
  0
LINE
  5
484
100
AcDbEntity
  8
0
100
AcDbLine
 62
7
  6
CONTINUOUS
 10
25.6406523845
 20
11.2697553763
 11
25.6406523845
 21
7.0766509646
  0
LINE
  5
485
100
AcDbEntity
  8
0
100
AcDbLine
 62
7
  6
CONTINUOUS
 10
25.6406523845
 20
6.2697553763
 11
25.6406523845
 21
2.0766509646
  0
LINE
  5
486
100
AcDbEntity
  8
DRAFT
100
AcDbLine
 62
7
  6
CONTINUOUS
 10
26.6406523845
 20
2.0712633963
 11
26.6406523845
 21
6.2749914349
  0
LINE
  5
487
100
AcDbEntity
  8
ASSI
100
AcDbLine
 62
7
  6
CONTINUOUS
 10
26.6406523845
 20
2.0712633963
 11
26.6406523845
 21
6.2749914349
  0
LINE
  5
488
100
AcDbEntity
  8
DRAFT
100
AcDbLine
 62
7
  6
CONTINUOUS
 10
26.6406523845
 20
7.0712633963
 11
26.6406523845
 21
11.2749914349
  0
LINE
  5
489
100
AcDbEntity
  8
ASSI
100
AcDbLine
 62
7
  6
CONTINUOUS
 10
26.6406523845
 20
7.0712633963
 11
26.6406523845
 21
11.2749914349
  0
LINE
  5
48A
100
AcDbEntity
  8
DRAFT
100
AcDbLine
 62
7
  6
CONTINUOUS
 10
26.6406523845
 20
12.0712633963
 11
26.6406523845
 21
16.2749914349
  0
LINE
  5
48B
100
AcDbEntity
  8
ASSI
100
AcDbLine
 62
7
  6
CONTINUOUS
 10
26.6406523845
 20
12.0712633963
 11
26.6406523845
 21
16.2749914349
  0
LINE
  5
48C
100
AcDbEntity
  8
DRAFT
100
AcDbLine
 62
7
  6
CONTINUOUS
 10
27.6406523845
 20
-0.0767968296
 11
27.6406523845
 21
-1.5767968296
  0
LINE
  5
48D
100
AcDbEntity
  8
ASSI
100
AcDbLine
 62
7
  6
CONTINUOUS
 10
27.6406523845
 20
-0.0767968296
 11
27.6406523845
 21
-1.5767968296
  0
LINE
  5
48E
100
AcDbEntity
  8
RACCORDO
100
AcDbLine
 62
250
  6
CONTINUOUS
 10
28.158104791
 20
12.0458844039
 11
28.158104791
 21
11.300521937
  0
LINE
  5
48F
100
AcDbEntity
  8
ASSI
100
AcDbLine
 62
250
  6
CONTINUOUS
 10
28.158104791
 20
12.0458844039
 11
28.158104791
 21
11.300521937
  0
LINE
  5
490
100
AcDbEntity
  8
RACCORDO
100
AcDbLine
 62
250
  6
CONTINUOUS
 10
28.158104791
 20
7.0458844039
 11
28.158104791
 21
6.300521937
  0
LINE
  5
491
100
AcDbEntity
  8
ASSI
100
AcDbLine
 62
250
  6
CONTINUOUS
 10
28.158104791
 20
7.0458844039
 11
28.158104791
 21
6.300521937
  0
LINE
  5
492
100
AcDbEntity
  8
RACCORDO
100
AcDbLine
 62
250
  6
CONTINUOUS
 10
28.158104791
 20
2.0458844039
 11
28.158104791
 21
0.1875090309
  0
LINE
  5
493
100
AcDbEntity
  8
ASSI
100
AcDbLine
 62
250
  6
CONTINUOUS
 10
28.158104791
 20
2.0458844039
 11
28.158104791
 21
0.1875090309
  0
LINE
  5
494
100
AcDbEntity
  8
RACCORDO
100
AcDbLine
 62
250
  6
CONTINUOUS
 10
28.158104791
 20
-1.84110269
 11
28.158104791
 21
-4.8124909691
  0
LINE
  5
495
100
AcDbEntity
  8
ASSI
100
AcDbLine
 62
250
  6
CONTINUOUS
 10
28.158104791
 20
-1.84110269
 11
28.158104791
 21
-4.8124909691
  0
LINE
  5
496
100
AcDbEntity
  8
RACCORDO
100
AcDbLine
 62
250
  6
CONTINUOUS
 10
28.158104791
 20
-6.84110269
 11
28.158104791
 21
-9.8124909691
  0
LINE
  5
497
100
AcDbEntity
  8
ASSI
100
AcDbLine
 62
250
  6
CONTINUOUS
 10
28.158104791
 20
-6.84110269
 11
28.158104791
 21
-9.8124909691
  0
LINE
  5
498
100
AcDbEntity
  8
RACCORDO
100
AcDbLine
 62
250
  6
CONTINUOUS
 10
28.158104791
 20
-11.84110269
 11
28.158104791
 21
-14.8124909691
  0
LINE
  5
499
100
AcDbEntity
  8
ASSI
100
AcDbLine
 62
250
  6
CONTINUOUS
 10
28.158104791
 20
-11.84110269
 11
28.158104791
 21
-14.8124909691
  0
LINE
  5
49A
100
AcDbEntity
  8
RACCORDO
100
AcDbLine
 62
250
  6
CONTINUOUS
 10
28.158104791
 20
-16.84110269
 11
28.158104791
 21
-18.2236249594
  0
LINE
  5
49B
100
AcDbEntity
  8
ASSI
100
AcDbLine
 62
250
  6
CONTINUOUS
 10
28.158104791
 20
-16.84110269
 11
28.158104791
 21
-18.2236249594
  0
LINE
  5
49C
100
AcDbEntity
  8
RACCORDO
100
AcDbLine
 62
250
  6
CONTINUOUS
 10
28.158104791
 20
-19.6376231302
 11
28.158104791
 21
-19.6558809378
  0
LINE
  5
49D
100
AcDbEntity
  8
ASSI
100
AcDbLine
 62
250
  6
CONTINUOUS
 10
28.158104791
 20
-19.6376231302
 11
28.158104791
 21
-19.6558809378
  0
LINE
  5
49E
100
AcDbEntity
  8
RACCORDO
100
AcDbLine
 62
250
  6
CONTINUOUS
 10
28.158104791
 20
16.300521937
 11
28.158104791
 21
16.5700313003
  0
LINE
  5
49F
100
AcDbEntity
  8
ASSI
100
AcDbLine
 62
250
  6
CONTINUOUS
 10
28.158104791
 20
16.300521937
 11
28.158104791
 21
16.5700313003
  0
LINE
  5
4A0
100
AcDbEntity
  8
RACCORDO
100
AcDbLine
 62
250
  6
CONTINUOUS
 10
28.158104791
 20
17.9840294711
 11
28.158104791
 21
18.0022872787
  0
LINE
  5
4A1
100
AcDbEntity
  8
ASSI
100
AcDbLine
 62
250
  6
CONTINUOUS
 10
28.158104791
 20
17.9840294711
 11
28.158104791
 21
18.0022872787
  0
LINE
  5
4A2
100
AcDbEntity
  8
RACCORDO
100
AcDbLine
 62
7
  6
CONTINUOUS
 10
29.1406523845
 20
-18.9488818524
 11
29.1406523845
 21
17.2952881933
  0
LINE
  5
4A3
100
AcDbEntity
  8
ASSI
100
AcDbLine
 62
7
  6
CONTINUOUS
 10
29.1406523845
 20
-18.9488818524
 11
29.1406523845
 21
17.2952881933
  0
LWPOLYLINE
  5
4A4
100
AcDbEntity
  8
0
100
AcDbPolyline
 62
7
  6
CONTINUOUS
 90
6
 70
0
 43
0.3500000087
 10
7.3906524681
 20
34.0767951843
 10
8.4620808678
 20
34.0767951843
 10
8.6763668674
 20
34.2910817169
 10
8.6763668674
 20
35.3625101166
 10
8.247795401
 20
35.7910831818
 10
7.8192239346
 20
35.7910831818
  0
LWPOLYLINE
  5
4A5
100
AcDbEntity
  8
0
100
AcDbPolyline
 62
7
  6
CONTINUOUS
 90
7
 70
0
 43
0.3500000087
 10
1.5763667285
 20
44.0767964233
 10
0.0763666709
 20
44.0767964233
 10
1.5763667285
 20
46.2196532227
 10
1.5763667285
 20
46.6482262878
 10
1.1477952621
 20
47.0767950897
 10
0.5049380957
 20
47.0767950897
 10
0.0763666709
 20
46.4339397552
  0
LWPOLYLINE
  5
4A6
100
AcDbEntity
  8
0
100
AcDbPolyline
 62
7
  6
CONTINUOUS
 90
7
 70
0
 43
0.3500000087
 10
-2.4950618031
 20
44.0767964233
 10
-3.9950619356
 20
44.0767964233
 10
-2.4950618031
 20
46.2196532227
 10
-2.4950618031
 20
46.6482262878
 10
-2.9236332695
 20
47.0767950897
 10
-3.5664904692
 20
47.0767950897
 10
-3.9950619356
 20
46.4339397552
  0
LWPOLYLINE
  5
4A7
100
AcDbEntity
  8
0
100
AcDbPolyline
 62
7
  6
CONTINUOUS
 90
5
 70
0
 43
0.3500000087
 10
54.8917486938
 20
35.7910831818
 10
55.2488900726
 20
36.0053697144
 10
55.2488900726
 20
36.6482250488
 10
54.8917486938
 20
37.076798114
 10
54.0346068268
 20
37.076798114
  0
LINE
  5
4A8
100
AcDbEntity
  8
RACCORDO
100
AcDbLine
 62
7
  6
CONTINUOUS
 10
62.2917524411
 20
-25.3267968296
 11
60.3917439796
 21
-25.3267968296
  0
LINE
  5
4A9
100
AcDbEntity
  8
RACCORDO
100
AcDbLine
 62
7
  6
CONTINUOUS
 10
43.3917524411
 20
-25.3267968296
 11
41.4917439796
 21
-25.3267968296
  0
LINE
  5
4AA
100
AcDbEntity
  8
RACCORDO
100
AcDbLine
 62
250
  6
CONTINUOUS
 10
41.5048425583
 20
-25.3136982508
 11
43.3786538624
 21
-25.3136982508
  0
LINE
  5
4AB
100
AcDbEntity
  8
RACCORDO
100
AcDbLine
 62
250
  6
CONTINUOUS
 10
60.4048425583
 20
-25.3136982508
 11
62.2786538624
 21
-25.3136982508
  0
LINE
  5
4AC
100
AcDbEntity
  8
RACCORDO
100
AcDbLine
 62
7
  6
CONTINUOUS
 10
41.0127015407
 20
-23.1663273024
 11
41.0302036048
 21
-23.175077668
  0
LINE
  5
4AD
100
AcDbEntity
  8
RACCORDO
100
AcDbLine
 62
250
  6
CONTINUOUS
 10
40.7417482104
 20
-22.727976674
 11
40.759165876
 21
-22.7366848436
  0
LINE
  5
4AE
100
AcDbEntity
  8
RACCORDO
100
AcDbLine
 62
7
  6
CONTINUOUS
 10
41.0302036048
 20
21.5214840089
 11
41.0127015407
 21
21.5127336433
  0
LINE
  5
4AF
100
AcDbEntity
  8
RACCORDO
100
AcDbLine
 62
250
  6
CONTINUOUS
 10
40.759165876
 20
21.0830911844
 11
40.7417482104
 21
21.0743830149
  0
LINE
  5
4B0
100
AcDbEntity
  8
RACCORDO
100
AcDbLine
 62
250
  6
CONTINUOUS
 10
41.2548467891
 20
-25.0637024816
 11
43.6286496316
 21
-25.0637024816
  0
LINE
  5
4B1
100
AcDbEntity
  8
RACCORDO
100
AcDbLine
 62
250
  6
CONTINUOUS
 10
60.1548467891
 20
-25.0637024816
 11
62.5286496316
 21
-25.0637024816
  0
LINE
  5
4B2
100
AcDbEntity
  8
RACCORDO
100
AcDbLine
 62
250
  6
CONTINUOUS
 10
41.2548467891
 20
-24.6711343969
 11
43.6286496316
 21
-24.6711343969
  0
LINE
  5
4B3
100
AcDbEntity
  8
RACCORDO
100
AcDbLine
 62
250
  6
CONTINUOUS
 10
60.1548467891
 20
-24.6711343969
 11
62.5286496316
 21
-24.6711343969
  0
LINE
  5
4B4
100
AcDbEntity
  8
DRAFT
100
AcDbLine
 62
7
  6
CONTINUOUS
 10
56.2917482104
 20
-24.6267968296
 11
47.4917482104
 21
-24.6267968296
  0
LINE
  5
4B5
100
AcDbEntity
  8
RACCORDO
100
AcDbLine
 62
250
  6
CONTINUOUS
 10
47.5955408967
 20
-24.6221357964
 11
56.187955524
 21
-24.6221357964
  0
LINE
  5
4B6
100
AcDbEntity
  8
RACCORDO
100
AcDbLine
 62
250
  6
CONTINUOUS
 10
62.2786538624
 20
-24.4546280459
 11
60.4048425583
 21
-24.4546280459
  0
LINE
  5
4B7
100
AcDbEntity
  8
RACCORDO
100
AcDbLine
 62
250
  6
CONTINUOUS
 10
43.3786538624
 20
-24.4546280459
 11
41.5048425583
 21
-24.4546280459
  0
LINE
  5
4B8
100
AcDbEntity
  8
RACCORDO
100
AcDbLine
 62
250
  6
CONTINUOUS
 10
47.994665587
 20
-24.422139181
 11
55.7888308337
 21
-24.422139181
  0
LINE
  5
4B9
100
AcDbEntity
  8
RACCORDO
100
AcDbLine
 62
7
  6
CONTINUOUS
 10
62.2844716922
 20
-23.9494465604
 11
60.3990247285
 21
-23.9494465604
  0
LINE
  5
4BA
100
AcDbEntity
  8
RACCORDO
100
AcDbLine
 62
7
  6
CONTINUOUS
 10
43.3844716922
 20
-23.9494465604
 11
41.4990247285
 21
-23.9494465604
  0
LINE
  5
4BB
100
AcDbEntity
  8
RACCORDO
100
AcDbLine
 62
250
  6
CONTINUOUS
 10
43.3917524411
 20
-25.3267968296
 11
43.3786538624
 21
-25.3136982508
  0
LINE
  5
4BC
100
AcDbEntity
  8
RACCORDO
100
AcDbLine
 62
250
  6
CONTINUOUS
 10
43.6417482104
 20
-25.0768010603
 11
43.6286496316
 21
-25.0637024816
  0
LINE
  5
4BD
100
AcDbEntity
  8
RACCORDO
100
AcDbLine
 62
250
  6
CONTINUOUS
 10
43.3917524411
 20
23.6732031704
 11
43.3786538624
 21
23.6601045917
  0
LINE
  5
4BE
100
AcDbEntity
  8
RACCORDO
100
AcDbLine
 62
250
  6
CONTINUOUS
 10
43.6417482104
 20
23.4232074012
 11
43.6286496316
 21
23.4101088225
  0
LINE
  5
4BF
100
AcDbEntity
  8
DRAFT
100
AcDbLine
 62
7
  6
CONTINUOUS
 10
43.6417482104
 20
-23.2267968296
 11
47.4917482104
 21
-23.2267968296
  0
LINE
  5
4C0
100
AcDbEntity
  8
DRAFT
100
AcDbLine
 62
7
  6
CONTINUOUS
 10
56.2917482104
 20
-23.2267968296
 11
60.1417482104
 21
-23.2267968296
  0
LINE
  5
4C1
100
AcDbEntity
  8
RACCORDO
100
AcDbLine
 62
7
  6
CONTINUOUS
 10
47.994665587
 20
-23.1743890503
 11
55.7888308337
 21
-23.1743890503
  0
LINE
  5
4C2
100
AcDbEntity
  8
RACCORDO
100
AcDbLine
 62
7
  6
CONTINUOUS
 10
62.2844716922
 20
-23.1481851606
 11
60.3990247285
 21
-23.1481851606
  0
LINE
  5
4C3
100
AcDbEntity
  8
RACCORDO
100
AcDbLine
 62
7
  6
CONTINUOUS
 10
43.3844716922
 20
-23.1481851606
 11
41.4990247285
 21
-23.1481851606
  0
LINE
  5
4C4
100
AcDbEntity
  8
RACCORDO
100
AcDbLine
 62
250
  6
CONTINUOUS
 10
62.4010165605
 20
-22.8255220515
 11
41.3824798602
 21
-22.8255220515
  0
LINE
  5
4C5
100
AcDbEntity
  8
RACCORDO
100
AcDbLine
 62
250
  6
CONTINUOUS
 10
62.3843245222
 20
-21.3892651544
 11
41.3991718985
 21
-21.3892651544
  0
LINE
  5
4C6
100
AcDbEntity
  8
RACCORDO
100
AcDbLine
 62
7
  6
CONTINUOUS
 10
56.2888223722
 20
-24.6238709914
 11
56.2917482104
 21
-24.6267968296
  0
LINE
  5
4C7
100
AcDbEntity
  8
RACCORDO
100
AcDbLine
 62
7
  6
CONTINUOUS
 10
56.2888223722
 20
22.9702773322
 11
56.2917482104
 21
22.9732031704
  0
LINE
  5
4C8
100
AcDbEntity
  8
RACCORDO
100
AcDbLine
 62
250
  6
CONTINUOUS
 10
41.2548467891
 20
-24.6711343969
 11
41.2490289593
 21
-24.0937841277
  0
LINE
  5
4C9
100
AcDbEntity
  8
RACCORDO
100
AcDbLine
 62
250
  6
CONTINUOUS
 10
41.5048425583
 20
-24.4546280459
 11
41.4997519572
 21
-23.9494465604
  0
LINE
  5
4CA
100
AcDbEntity
  8
ASSI
100
AcDbLine
 62
7
  6
CONTINUOUS
 10
40.7417482104
 20
-18.4984958783
 11
40.7417482104
 21
16.8449022192
  0
LINE
  5
4CB
100
AcDbEntity
  8
RACCORDO
100
AcDbLine
 62
7
  6
CONTINUOUS
 10
40.7417482104
 20
-22.727976674
 11
40.7417482104
 21
21.0743830149
  0
LINE
  5
4CC
100
AcDbEntity
  8
RACCORDO
100
AcDbLine
 62
7
  6
CONTINUOUS
 10
41.2417482104
 20
-23.2267378357
 11
41.2417482104
 21
-25.0768010603
  0
LINE
  5
4CD
100
AcDbEntity
  8
RACCORDO
100
AcDbLine
 62
7
  6
CONTINUOUS
 10
41.2417482104
 20
21.5731441766
 11
41.2417482104
 21
23.4232074012
  0
LINE
  5
4CE
100
AcDbEntity
  8
RACCORDO
100
AcDbLine
 62
250
  6
CONTINUOUS
 10
41.2490289593
 20
-24.0937841277
 11
41.2490289593
 21
-23.1607320267
  0
LINE
  5
4CF
100
AcDbEntity
  8
RACCORDO
100
AcDbLine
 62
250
  6
CONTINUOUS
 10
41.2490289593
 20
21.5071383676
 11
41.2490289593
 21
22.4401904685
  0
LINE
  5
4D0
100
AcDbEntity
  8
RACCORDO
100
AcDbLine
 62
250
  6
CONTINUOUS
 10
41.2548467891
 20
23.4101088225
 11
41.2548467891
 21
23.0175407377
  0
LINE
  5
4D1
100
AcDbEntity
  8
RACCORDO
100
AcDbLine
 62
250
  6
CONTINUOUS
 10
41.2548467891
 20
-24.6711343969
 11
41.2548467891
 21
-25.0637024816
  0
LINE
  5
4D2
100
AcDbEntity
  8
RACCORDO
100
AcDbLine
 62
250
  6
CONTINUOUS
 10
41.4990247285
 20
-23.9494465604
 11
41.4990247285
 21
-23.1481851606
  0
LINE
  5
4D3
100
AcDbEntity
  8
RACCORDO
100
AcDbLine
 62
250
  6
CONTINUOUS
 10
41.4990247285
 20
21.4945915015
 11
41.4990247285
 21
22.2958529012
  0
LINE
  5
4D4
100
AcDbEntity
  8
RACCORDO
100
AcDbLine
 62
250
  6
CONTINUOUS
 10
41.5048425583
 20
-24.4546280459
 11
41.5048425583
 21
-25.3136982508
  0
LINE
  5
4D5
100
AcDbEntity
  8
RACCORDO
100
AcDbLine
 62
250
  6
CONTINUOUS
 10
41.5048425583
 20
22.8010343868
 11
41.5048425583
 21
23.6601045917
  0
LINE
  5
4D6
100
AcDbEntity
  8
RACCORDO
100
AcDbLine
 62
250
  6
CONTINUOUS
 10
41.2490289593
 20
22.4401904685
 11
41.2548467891
 21
23.0175407377
  0
LINE
  5
4D7
100
AcDbEntity
  8
RACCORDO
100
AcDbLine
 62
250
  6
CONTINUOUS
 10
41.4997519572
 20
22.2958529012
 11
41.5048425583
 21
22.8010343868
  0
LINE
  5
4D8
100
AcDbEntity
  8
RACCORDO
100
AcDbLine
 62
7
  6
CONTINUOUS
 10
43.6417482104
 20
21.5732031704
 11
43.6344674614
 21
21.5076172227
  0
LWPOLYLINE
  5
4D9
100
AcDbEntity
  8
0
100
AcDbPolyline
 62
7
  6
CONTINUOUS
 90
3
 70
0
 43
0.3500000087
 10
53.0346058502
 20
34.36250914
 10
52.9631784271
 20
34.1482268707
 10
52.8203193176
 20
33.862512915
  0
LINE
  5
4DA
100
AcDbEntity
  8
RACCORDO
100
AcDbLine
 62
250
  6
CONTINUOUS
 10
62.2917524411
 20
-25.3267968296
 11
62.2786538624
 21
-25.3136982508
  0
LINE
  5
4DB
100
AcDbEntity
  8
RACCORDO
100
AcDbLine
 62
250
  6
CONTINUOUS
 10
62.5417482104
 20
-25.0768010603
 11
62.5286496316
 21
-25.0637024816
  0
LINE
  5
4DC
100
AcDbEntity
  8
RACCORDO
100
AcDbLine
 62
7
  6
CONTINUOUS
 10
43.6417482104
 20
-23.2267968296
 11
43.6344674614
 21
-23.1612108819
  0
LINE
  5
4DD
100
AcDbEntity
  8
RACCORDO
100
AcDbLine
 62
250
  6
CONTINUOUS
 10
43.3786538624
 20
22.8010343868
 11
43.3837444635
 21
22.2958529012
  0
LINE
  5
4DE
100
AcDbEntity
  8
RACCORDO
100
AcDbLine
 62
250
  6
CONTINUOUS
 10
43.6286496316
 20
23.0175407377
 11
43.6344674614
 21
22.4401904685
  0
LINE
  5
4DF
100
AcDbEntity
  8
RACCORDO
100
AcDbLine
 62
250
  6
CONTINUOUS
 10
43.3786538624
 20
-24.4546280459
 11
43.3786538624
 21
-25.3136982508
  0
LINE
  5
4E0
100
AcDbEntity
  8
RACCORDO
100
AcDbLine
 62
250
  6
CONTINUOUS
 10
43.3786538624
 20
22.8010343868
 11
43.3786538624
 21
23.6601045917
  0
LINE
  5
4E1
100
AcDbEntity
  8
RACCORDO
100
AcDbLine
 62
250
  6
CONTINUOUS
 10
43.3844716922
 20
22.2958529012
 11
43.3844716922
 21
21.4945915015
  0
LINE
  5
4E2
100
AcDbEntity
  8
RACCORDO
100
AcDbLine
 62
250
  6
CONTINUOUS
 10
43.3844716922
 20
-23.1481851606
 11
43.3844716922
 21
-23.9494465604
  0
LINE
  5
4E3
100
AcDbEntity
  8
RACCORDO
100
AcDbLine
 62
250
  6
CONTINUOUS
 10
43.6286496316
 20
-25.0637024816
 11
43.6286496316
 21
-24.6711343969
  0
LINE
  5
4E4
100
AcDbEntity
  8
RACCORDO
100
AcDbLine
 62
250
  6
CONTINUOUS
 10
43.6286496316
 20
23.0175407377
 11
43.6286496316
 21
23.4101088225
  0
LINE
  5
4E5
100
AcDbEntity
  8
RACCORDO
100
AcDbLine
 62
250
  6
CONTINUOUS
 10
43.6344674614
 20
22.4401904685
 11
43.6344674614
 21
21.5076172227
  0
LINE
  5
4E6
100
AcDbEntity
  8
RACCORDO
100
AcDbLine
 62
250
  6
CONTINUOUS
 10
43.6344674614
 20
-23.1612108819
 11
43.6344674614
 21
-24.0937841277
  0
LINE
  5
4E7
100
AcDbEntity
  8
RACCORDO
100
AcDbLine
 62
7
  6
CONTINUOUS
 10
43.6417482104
 20
-23.2267968296
 11
43.6417482104
 21
-25.0768010603
  0
LINE
  5
4E8
100
AcDbEntity
  8
RACCORDO
100
AcDbLine
 62
7
  6
CONTINUOUS
 10
43.6417482104
 20
21.5732031704
 11
43.6417482104
 21
23.4232074012
  0
LINE
  5
4E9
100
AcDbEntity
  8
RACCORDO
100
AcDbLine
 62
250
  6
CONTINUOUS
 10
43.3837444635
 20
-23.9494465604
 11
43.3786538624
 21
-24.4546280459
  0
LINE
  5
4EA
100
AcDbEntity
  8
RACCORDO
100
AcDbLine
 62
250
  6
CONTINUOUS
 10
43.6344674614
 20
-24.0937841277
 11
43.6286496316
 21
-24.6711343969
  0
LINE
  5
4EB
100
AcDbEntity
  8
RACCORDO
100
AcDbLine
 62
250
  6
CONTINUOUS
 10
62.2917524411
 20
23.6732031704
 11
62.2786538624
 21
23.6601045917
  0
LINE
  5
4EC
100
AcDbEntity
  8
RACCORDO
100
AcDbLine
 62
250
  6
CONTINUOUS
 10
62.5417482104
 20
23.4232074012
 11
62.5286496316
 21
23.4101088225
  0
LINE
  5
4ED
100
AcDbEntity
  8
DRAFT
100
AcDbLine
 62
7
  6
CONTINUOUS
 10
55.3169486207
 20
-8.3423315646
 11
55.3047750535
 21
-8.3377054143
  0
LINE
  5
4EE
100
AcDbEntity
  8
DRAFT
100
AcDbLine
 62
7
  6
CONTINUOUS
 10
47.4917482104
 20
-24.6267968296
 11
47.4917482104
 21
-23.2267968296
  0
LINE
  5
4EF
100
AcDbEntity
  8
DRAFT
100
AcDbLine
 62
7
  6
CONTINUOUS
 10
47.4917482104
 20
21.5732031704
 11
47.4917482104
 21
22.9732031704
  0
LINE
  5
4F0
100
AcDbEntity
  8
RACCORDO
100
AcDbLine
 62
250
  6
CONTINUOUS
 10
47.4946740485
 20
22.9702773322
 11
47.4946740485
 21
21.5468468336
  0
LINE
  5
4F1
100
AcDbEntity
  8
RACCORDO
100
AcDbLine
 62
250
  6
CONTINUOUS
 10
47.4946740485
 20
-23.2004404927
 11
47.4946740485
 21
-24.6238709914
  0
LINE
  5
4F2
100
AcDbEntity
  8
RACCORDO
100
AcDbLine
 62
250
  6
CONTINUOUS
 10
47.994665587
 20
22.7685455219
 11
47.994665587
 21
21.5207953912
  0
LINE
  5
4F3
100
AcDbEntity
  8
RACCORDO
100
AcDbLine
 62
250
  6
CONTINUOUS
 10
47.994665587
 20
-23.1743890503
 11
47.994665587
 21
-24.422139181
  0
LINE
  5
4F4
100
AcDbEntity
  8
DRAFT
100
AcDbLine
 62
7
  6
CONTINUOUS
 10
55.3169486207
 20
6.6887379054
 11
55.3047750535
 21
6.6841117552
  0
LINE
  5
4F5
100
AcDbEntity
  8
RACCORDO
100
AcDbLine
 62
250
  6
CONTINUOUS
 10
40.8925544896
 20
20.6825999204
 11
40.759165876
 21
21.0830911844
  0
LINE
  5
4F6
100
AcDbEntity
  8
RACCORDO
100
AcDbLine
 62
7
  6
CONTINUOUS
 10
47.4917482104
 20
-23.2267968296
 11
47.4946740485
 21
-23.2004404927
  0
LINE
  5
4F7
100
AcDbEntity
  8
RACCORDO
100
AcDbLine
 62
250
  6
CONTINUOUS
 10
40.759165876
 20
-22.7366848436
 11
40.8925544896
 21
-22.3361935795
  0
LINE
  5
4F8
100
AcDbEntity
  8
RACCORDO
100
AcDbLine
 62
250
  6
CONTINUOUS
 10
41.3824798602
 20
-22.8255220515
 11
41.2724950961
 21
-23.1557446698
  0
LWPOLYLINE
  5
4F9
100
AcDbEntity
  8
0
100
AcDbPolyline
 62
7
  6
CONTINUOUS
 90
2
 70
0
 43
0.3500000087
 10
74.1417504395
 20
-2.1839395145
 10
72.6417489746
 20
-2.1839395145
  0
LINE
  5
4FA
100
AcDbEntity
  8
RACCORDO
100
AcDbLine
 62
250
  6
CONTINUOUS
 10
41.2724950961
 20
21.5021510107
 11
41.3824798602
 21
21.1719283924
  0
LINE
  5
4FB
100
AcDbEntity
  8
RACCORDO
100
AcDbLine
 62
7
  6
CONTINUOUS
 10
47.4917482104
 20
21.5732031704
 11
47.4946740485
 21
21.5468468336
  0
LINE
  5
4FC
100
AcDbEntity
  8
RACCORDO
100
AcDbLine
 62
7
  6
CONTINUOUS
 10
56.2917482104
 20
21.5732031704
 11
56.2888223722
 21
21.5468468336
  0
LINE
  5
4FD
100
AcDbEntity
  8
RACCORDO
100
AcDbLine
 62
7
  6
CONTINUOUS
 10
56.2917482104
 20
-23.2267968296
 11
56.2888223722
 21
-23.2004404927
  0
LINE
  5
4FE
100
AcDbEntity
  8
RACCORDO
100
AcDbLine
 62
250
  6
CONTINUOUS
 10
55.7888308337
 20
-24.422139181
 11
55.7888308337
 21
-23.1743890503
  0
LINE
  5
4FF
100
AcDbEntity
  8
RACCORDO
100
AcDbLine
 62
250
  6
CONTINUOUS
 10
55.7888308337
 20
21.5207953912
 11
55.7888308337
 21
22.7685455219
  0
LINE
  5
500
100
AcDbEntity
  8
RACCORDO
100
AcDbLine
 62
250
  6
CONTINUOUS
 10
62.4010165605
 20
21.1719283924
 11
62.5110013246
 21
21.5021510107
  0
LINE
  5
501
100
AcDbEntity
  8
RACCORDO
100
AcDbLine
 62
250
  6
CONTINUOUS
 10
63.0243305447
 20
21.0830911844
 11
62.8909419311
 21
20.6825999204
  0
LINE
  5
502
100
AcDbEntity
  8
RACCORDO
100
AcDbLine
 62
250
  6
CONTINUOUS
 10
62.5110013246
 20
-23.1557446698
 11
62.4010165605
 21
-22.8255220515
  0
LINE
  5
503
100
AcDbEntity
  8
RACCORDO
100
AcDbLine
 62
250
  6
CONTINUOUS
 10
62.8909419311
 20
-22.3361935795
 11
63.0243305447
 21
-22.7366848436
  0
LINE
  5
504
100
AcDbEntity
  8
RACCORDO
100
AcDbLine
 62
250
  6
CONTINUOUS
 10
56.2888223722
 20
-24.6238709914
 11
56.2888223722
 21
-23.2004404927
  0
LINE
  5
505
100
AcDbEntity
  8
RACCORDO
100
AcDbLine
 62
250
  6
CONTINUOUS
 10
56.2888223722
 20
21.5468468336
 11
56.2888223722
 21
22.9702773322
  0
LINE
  5
506
100
AcDbEntity
  8
DRAFT
100
AcDbLine
 62
7
  6
CONTINUOUS
 10
56.2917482104
 20
22.9732031704
 11
56.2917482104
 21
21.5732031704
  0
LINE
  5
507
100
AcDbEntity
  8
DRAFT
100
AcDbLine
 62
7
  6
CONTINUOUS
 10
56.2917482104
 20
-23.2267968296
 11
56.2917482104
 21
-24.6267968296
  0
LINE
  5
508
100
AcDbEntity
  8
DRAFT
100
AcDbLine
 62
7
  6
CONTINUOUS
 10
48.4665478
 20
6.6887379054
 11
48.4787213673
 21
6.6841117552
  0
LINE
  5
509
100
AcDbEntity
  8
RACCORDO
100
AcDbLine
 62
250
  6
CONTINUOUS
 10
60.1548467891
 20
-24.6711343969
 11
60.1490289593
 21
-24.0937841277
  0
LINE
  5
50A
100
AcDbEntity
  8
RACCORDO
100
AcDbLine
 62
250
  6
CONTINUOUS
 10
60.1490289593
 20
22.4401904685
 11
60.1548467891
 21
23.0175407377
  0
LINE
  5
50B
100
AcDbEntity
  8
DRAFT
100
AcDbLine
 62
7
  6
CONTINUOUS
 10
48.4665478
 20
-8.3423315646
 11
48.4787213673
 21
-8.3377054143
  0
LINE
  5
50C
100
AcDbEntity
  8
RACCORDO
100
AcDbLine
 62
250
  6
CONTINUOUS
 10
60.4048425583
 20
-24.4546280459
 11
60.3997519572
 21
-23.9494465604
  0
LINE
  5
50D
100
AcDbEntity
  8
RACCORDO
100
AcDbLine
 62
7
  6
CONTINUOUS
 10
60.1417482104
 20
-23.2267968296
 11
60.1417482104
 21
-25.0768010603
  0
LINE
  5
50E
100
AcDbEntity
  8
RACCORDO
100
AcDbLine
 62
7
  6
CONTINUOUS
 10
60.1417482104
 20
21.5732031704
 11
60.1417482104
 21
23.4232074012
  0
LINE
  5
50F
100
AcDbEntity
  8
RACCORDO
100
AcDbLine
 62
250
  6
CONTINUOUS
 10
60.1490289593
 20
-24.0937841277
 11
60.1490289593
 21
-23.1612108819
  0
LINE
  5
510
100
AcDbEntity
  8
RACCORDO
100
AcDbLine
 62
250
  6
CONTINUOUS
 10
60.1490289593
 20
21.5076172227
 11
60.1490289593
 21
22.4401904685
  0
LINE
  5
511
100
AcDbEntity
  8
RACCORDO
100
AcDbLine
 62
250
  6
CONTINUOUS
 10
60.1548467891
 20
23.4101088225
 11
60.1548467891
 21
23.0175407377
  0
LINE
  5
512
100
AcDbEntity
  8
RACCORDO
100
AcDbLine
 62
250
  6
CONTINUOUS
 10
60.1548467891
 20
-24.6711343969
 11
60.1548467891
 21
-25.0637024816
  0
LINE
  5
513
100
AcDbEntity
  8
RACCORDO
100
AcDbLine
 62
250
  6
CONTINUOUS
 10
60.3990247285
 20
-23.9494465604
 11
60.3990247285
 21
-23.1481851606
  0
LINE
  5
514
100
AcDbEntity
  8
RACCORDO
100
AcDbLine
 62
250
  6
CONTINUOUS
 10
60.3990247285
 20
21.4945915015
 11
60.3990247285
 21
22.2958529012
  0
LINE
  5
515
100
AcDbEntity
  8
RACCORDO
100
AcDbLine
 62
250
  6
CONTINUOUS
 10
60.4048425583
 20
-24.4546280459
 11
60.4048425583
 21
-25.3136982508
  0
LINE
  5
516
100
AcDbEntity
  8
RACCORDO
100
AcDbLine
 62
250
  6
CONTINUOUS
 10
60.4048425583
 20
22.8010343868
 11
60.4048425583
 21
23.6601045917
  0
LINE
  5
517
100
AcDbEntity
  8
RACCORDO
100
AcDbLine
 62
250
  6
CONTINUOUS
 10
60.3997519572
 20
22.2958529012
 11
60.4048425583
 21
22.8010343868
  0
LINE
  5
518
100
AcDbEntity
  8
RACCORDO
100
AcDbLine
 62
250
  6
CONTINUOUS
 10
41.2417482104
 20
23.4232074012
 11
41.2548467891
 21
23.4101088225
  0
LINE
  5
519
100
AcDbEntity
  8
RACCORDO
100
AcDbLine
 62
250
  6
CONTINUOUS
 10
41.4917439796
 20
23.6732031704
 11
41.5048425583
 21
23.6601045917
  0
LINE
  5
51A
100
AcDbEntity
  8
RACCORDO
100
AcDbLine
 62
250
  6
CONTINUOUS
 10
62.2786538624
 20
22.8010343868
 11
62.2837444635
 21
22.2958529012
  0
LINE
  5
51B
100
AcDbEntity
  8
RACCORDO
100
AcDbLine
 62
250
  6
CONTINUOUS
 10
62.5286496316
 20
23.0175407377
 11
62.5344674614
 21
22.4401904685
  0
LINE
  5
51C
100
AcDbEntity
  8
RACCORDO
100
AcDbLine
 62
250
  6
CONTINUOUS
 10
62.2786538624
 20
-24.4546280459
 11
62.2786538624
 21
-25.3136982508
  0
LINE
  5
51D
100
AcDbEntity
  8
RACCORDO
100
AcDbLine
 62
250
  6
CONTINUOUS
 10
62.2786538624
 20
22.8010343868
 11
62.2786538624
 21
23.6601045917
  0
LINE
  5
51E
100
AcDbEntity
  8
RACCORDO
100
AcDbLine
 62
250
  6
CONTINUOUS
 10
62.2844716922
 20
22.2958529012
 11
62.2844716922
 21
21.4945915015
  0
LINE
  5
51F
100
AcDbEntity
  8
RACCORDO
100
AcDbLine
 62
250
  6
CONTINUOUS
 10
62.2844716922
 20
-23.1481851606
 11
62.2844716922
 21
-23.9494465604
  0
LINE
  5
520
100
AcDbEntity
  8
RACCORDO
100
AcDbLine
 62
250
  6
CONTINUOUS
 10
62.5286496316
 20
-25.0637024816
 11
62.5286496316
 21
-24.6711343969
  0
LINE
  5
521
100
AcDbEntity
  8
RACCORDO
100
AcDbLine
 62
250
  6
CONTINUOUS
 10
62.5286496316
 20
23.0175407377
 11
62.5286496316
 21
23.4101088225
  0
LINE
  5
522
100
AcDbEntity
  8
RACCORDO
100
AcDbLine
 62
250
  6
CONTINUOUS
 10
62.5344674614
 20
22.4401904685
 11
62.5344674614
 21
21.5071383676
  0
LINE
  5
523
100
AcDbEntity
  8
RACCORDO
100
AcDbLine
 62
250
  6
CONTINUOUS
 10
62.5344674614
 20
-23.1607320267
 11
62.5344674614
 21
-24.0937841277
  0
LINE
  5
524
100
AcDbEntity
  8
RACCORDO
100
AcDbLine
 62
7
  6
CONTINUOUS
 10
62.5417482104
 20
-23.2267378357
 11
62.5417482104
 21
-25.0768010603
  0
LINE
  5
525
100
AcDbEntity
  8
RACCORDO
100
AcDbLine
 62
7
  6
CONTINUOUS
 10
62.5417482104
 20
21.5731441766
 11
62.5417482104
 21
23.4232074012
  0
LINE
  5
526
100
AcDbEntity
  8
ASSI
100
AcDbLine
 62
7
  6
CONTINUOUS
 10
63.0417482104
 20
16.8449022192
 11
63.0417482104
 21
-18.4984958783
  0
LINE
  5
527
100
AcDbEntity
  8
RACCORDO
100
AcDbLine
 62
7
  6
CONTINUOUS
 10
63.0417482104
 20
-22.727976674
 11
63.0417482104
 21
21.0743830149
  0
LINE
  5
528
100
AcDbEntity
  8
RACCORDO
100
AcDbLine
 62
250
  6
CONTINUOUS
 10
62.2837444635
 20
-23.9494465604
 11
62.2786538624
 21
-24.4546280459
  0
LINE
  5
529
100
AcDbEntity
  8
RACCORDO
100
AcDbLine
 62
250
  6
CONTINUOUS
 10
62.5344674614
 20
-24.0937841277
 11
62.5286496316
 21
-24.6711343969
  0
LINE
  5
52A
100
AcDbEntity
  8
RACCORDO
100
AcDbLine
 62
7
  6
CONTINUOUS
 10
60.1417482104
 20
-23.2267968296
 11
60.1490289593
 21
-23.1612108819
  0
LINE
  5
52B
100
AcDbEntity
  8
RACCORDO
100
AcDbLine
 62
250
  6
CONTINUOUS
 10
41.2417482104
 20
-25.0768010603
 11
41.2548467891
 21
-25.0637024816
  0
LINE
  5
52C
100
AcDbEntity
  8
RACCORDO
100
AcDbLine
 62
250
  6
CONTINUOUS
 10
41.4917439796
 20
-25.3267968296
 11
41.5048425583
 21
-25.3136982508
  0
LINE
  5
52D
100
AcDbEntity
  8
RACCORDO
100
AcDbLine
 62
7
  6
CONTINUOUS
 10
60.1417482104
 20
21.5732031704
 11
60.1490289593
 21
21.5076172227
  0
LINE
  5
52E
100
AcDbEntity
  8
RACCORDO
100
AcDbLine
 62
7
  6
CONTINUOUS
 10
47.4946740485
 20
22.9702773322
 11
47.4917482104
 21
22.9732031704
  0
LINE
  5
52F
100
AcDbEntity
  8
RACCORDO
100
AcDbLine
 62
7
  6
CONTINUOUS
 10
47.4946740485
 20
-24.6238709914
 11
47.4917482104
 21
-24.6267968296
  0
LWPOLYLINE
  5
530
100
AcDbEntity
  8
0
100
AcDbPolyline
 62
7
  6
CONTINUOUS
 90
10
 70
0
 43
0.3500000087
 10
74.1417504395
 20
-0.3982256927
 10
73.2846043091
 20
0.4589172401
 10
72.4274667053
 20
0.6732027069
 10
71.570320575
 20
0.6732027069
 10
71.1417475098
 20
0.2446317734
 10
71.1417475098
 20
-0.3982256927
 10
71.570320575
 20
-0.8267966263
 10
72.4274667053
 20
-0.8267966263
 10
72.8560312439
 20
-0.3982256927
 10
72.8560312439
 20
0.5303457291
  0
LWPOLYLINE
  5
531
100
AcDbEntity
  8
0
100
AcDbPolyline
 62
7
  6
CONTINUOUS
 90
10
 70
0
 43
0.3500000087
 10
52.9631784271
 20
34.5767956726
 10
53.0346058502
 20
34.4339408264
 10
53.0346058502
 20
34.36250914
 10
52.8917467407
 20
34.2196542938
 10
52.8203193176
 20
34.2196542938
 10
52.7488918945
 20
34.2910817169
 10
52.7488918945
 20
34.36250914
 10
52.8203193176
 20
34.5053682495
 10
52.8917467407
 20
34.5767956726
 10
52.9631784271
 20
34.5767956726
  0
LINE
  5
532
100
AcDbEntity
  8
RACCORDO
100
AcDbLine
 62
250
  6
CONTINUOUS
 10
62.3843245222
 20
19.7356714953
 11
41.3991718985
 21
19.7356714953
  0
LWPOLYLINE
  5
533
100
AcDbEntity
  8
0
100
AcDbPolyline
 62
7
  6
CONTINUOUS
 90
3
 70
0
 43
0.3500000087
 10
73.498895105
 20
-1.6839395592
 10
73.498895105
 20
-3.1839394253
 10
71.1417475098
 20
-2.5410824921
  0
LINE
  5
534
100
AcDbEntity
  8
RACCORDO
100
AcDbLine
 62
250
  6
CONTINUOUS
 10
62.4010165605
 20
21.1719283924
 11
41.3824798602
 21
21.1719283924
  0
LINE
  5
535
100
AcDbEntity
  8
RACCORDO
100
AcDbLine
 62
7
  6
CONTINUOUS
 10
62.2844716922
 20
21.4945915015
 11
60.3990247285
 21
21.4945915015
  0
LINE
  5
536
100
AcDbEntity
  8
RACCORDO
100
AcDbLine
 62
7
  6
CONTINUOUS
 10
43.3844716922
 20
21.4945915015
 11
41.4990247285
 21
21.4945915015
  0
LINE
  5
537
100
AcDbEntity
  8
RACCORDO
100
AcDbLine
 62
7
  6
CONTINUOUS
 10
47.994665587
 20
21.5207953912
 11
55.7888308337
 21
21.5207953912
  0
LINE
  5
538
100
AcDbEntity
  8
DRAFT
100
AcDbLine
 62
7
  6
CONTINUOUS
 10
43.6417482104
 20
21.5732031704
 11
47.4917482104
 21
21.5732031704
  0
LINE
  5
539
100
AcDbEntity
  8
DRAFT
100
AcDbLine
 62
7
  6
CONTINUOUS
 10
56.2917482104
 20
21.5732031704
 11
60.1417482104
 21
21.5732031704
  0
LINE
  5
53A
100
AcDbEntity
  8
RACCORDO
100
AcDbLine
 62
250
  6
CONTINUOUS
 10
60.1417482104
 20
-25.0768010603
 11
60.1548467891
 21
-25.0637024816
  0
LINE
  5
53B
100
AcDbEntity
  8
RACCORDO
100
AcDbLine
 62
7
  6
CONTINUOUS
 10
62.2837444635
 20
22.2958529012
 11
60.3997519572
 21
22.2958529012
  0
LINE
  5
53C
100
AcDbEntity
  8
RACCORDO
100
AcDbLine
 62
7
  6
CONTINUOUS
 10
43.3837444635
 20
22.2958529012
 11
41.4997519572
 21
22.2958529012
  0
LINE
  5
53D
100
AcDbEntity
  8
RACCORDO
100
AcDbLine
 62
250
  6
CONTINUOUS
 10
55.7888308337
 20
22.7685455219
 11
47.994665587
 21
22.7685455219
  0
LINE
  5
53E
100
AcDbEntity
  8
RACCORDO
100
AcDbLine
 62
250
  6
CONTINUOUS
 10
41.5048425583
 20
22.8010343868
 11
43.3786538624
 21
22.8010343868
  0
LINE
  5
53F
100
AcDbEntity
  8
RACCORDO
100
AcDbLine
 62
250
  6
CONTINUOUS
 10
60.4048425583
 20
22.8010343868
 11
62.2786538624
 21
22.8010343868
  0
LINE
  5
540
100
AcDbEntity
  8
RACCORDO
100
AcDbLine
 62
250
  6
CONTINUOUS
 10
56.187955524
 20
22.9685421373
 11
47.5955408967
 21
22.9685421373
  0
LINE
  5
541
100
AcDbEntity
  8
DRAFT
100
AcDbLine
 62
7
  6
CONTINUOUS
 10
47.4917482104
 20
22.9732031704
 11
56.2917482104
 21
22.9732031704
  0
LINE
  5
542
100
AcDbEntity
  8
RACCORDO
100
AcDbLine
 62
250
  6
CONTINUOUS
 10
41.2548467891
 20
23.0175407377
 11
43.6286496316
 21
23.0175407377
  0
LINE
  5
543
100
AcDbEntity
  8
RACCORDO
100
AcDbLine
 62
250
  6
CONTINUOUS
 10
60.1548467891
 20
23.0175407377
 11
62.5286496316
 21
23.0175407377
  0
LINE
  5
544
100
AcDbEntity
  8
RACCORDO
100
AcDbLine
 62
250
  6
CONTINUOUS
 10
41.2548467891
 20
23.4101088225
 11
43.6286496316
 21
23.4101088225
  0
LINE
  5
545
100
AcDbEntity
  8
RACCORDO
100
AcDbLine
 62
250
  6
CONTINUOUS
 10
60.1548467891
 20
23.4101088225
 11
62.5286496316
 21
23.4101088225
  0
LINE
  5
546
100
AcDbEntity
  8
RACCORDO
100
AcDbLine
 62
250
  6
CONTINUOUS
 10
62.2786538624
 20
23.6601045917
 11
60.4048425583
 21
23.6601045917
  0
LINE
  5
547
100
AcDbEntity
  8
RACCORDO
100
AcDbLine
 62
250
  6
CONTINUOUS
 10
43.3786538624
 20
23.6601045917
 11
41.5048425583
 21
23.6601045917
  0
LINE
  5
548
100
AcDbEntity
  8
RACCORDO
100
AcDbLine
 62
7
  6
CONTINUOUS
 10
41.4917439796
 20
23.6732031704
 11
43.3917524411
 21
23.6732031704
  0
LINE
  5
549
100
AcDbEntity
  8
RACCORDO
100
AcDbLine
 62
7
  6
CONTINUOUS
 10
60.3917439796
 20
23.6732031704
 11
62.2917524411
 21
23.6732031704
  0
LINE
  5
54A
100
AcDbEntity
  8
RACCORDO
100
AcDbLine
 62
250
  6
CONTINUOUS
 10
60.1417482104
 20
23.4232074012
 11
60.1548467891
 21
23.4101088225
  0
LINE
  5
54B
100
AcDbEntity
  8
RACCORDO
100
AcDbLine
 62
250
  6
CONTINUOUS
 10
60.3917439796
 20
23.6732031704
 11
60.4048425583
 21
23.6601045917
  0
LINE
  5
54C
100
AcDbEntity
  8
RACCORDO
100
AcDbLine
 62
250
  6
CONTINUOUS
 10
60.3917439796
 20
-25.3267968296
 11
60.4048425583
 21
-25.3136982508
  0
LINE
  5
54D
100
AcDbEntity
  8
RACCORDO
100
AcDbLine
 62
250
  6
CONTINUOUS
 10
63.0243305447
 20
-22.7366848436
 11
63.0417482104
 21
-22.727976674
  0
LINE
  5
54E
100
AcDbEntity
  8
RACCORDO
100
AcDbLine
 62
7
  6
CONTINUOUS
 10
62.7532928159
 20
-23.175077668
 11
62.77079488
 21
-23.1663273024
  0
LINE
  5
54F
100
AcDbEntity
  8
RACCORDO
100
AcDbLine
 62
250
  6
CONTINUOUS
 10
63.0417482104
 20
21.0743830149
 11
63.0243305447
 21
21.0830911844
  0
LINE
  5
550
100
AcDbEntity
  8
RACCORDO
100
AcDbLine
 62
7
  6
CONTINUOUS
 10
62.77079488
 20
21.5127336433
 11
62.7532928159
 21
21.5214840089
  0
LWPOLYLINE
  5
551
100
AcDbEntity
  8
0
100
AcDbPolyline
 62
7
  6
CONTINUOUS
 90
7
 70
0
 43
0.3500000087
 10
51.4631769623
 20
34.0767951843
 10
49.9631754974
 20
34.0767951843
 10
51.4631769623
 20
36.2196519836
 10
51.4631769623
 20
36.6482250488
 10
51.0346038971
 20
37.076798114
 10
50.3917485626
 20
37.076798114
 10
49.9631754974
 20
36.4339385162
  0
LWPOLYLINE
  5
552
100
AcDbEntity
  8
0
100
AcDbPolyline
 62
7
  6
CONTINUOUS
 90
7
 70
0
 43
0.3500000087
 10
49.1060336304
 20
34.0767951843
 10
47.6060321655
 20
34.0767951843
 10
49.1060336304
 20
36.2196519836
 10
49.1060336304
 20
36.6482250488
 10
48.6774605652
 20
37.076798114
 10
48.0346052307
 20
37.076798114
 10
47.6060321655
 20
36.4339385162
  0
LWPOLYLINE
  5
553
100
AcDbEntity
  8
0
100
AcDbPolyline
 62
7
  6
CONTINUOUS
 90
6
 70
0
 43
0.3500000087
 10
54.0346068268
 20
34.0767951843
 10
55.1060352264
 20
34.0767951843
 10
55.320321759
 20
34.2910817169
 10
55.320321759
 20
35.3625101166
 10
54.8917486938
 20
35.7910831818
 10
54.4631756287
 20
35.7910831818
  0
ARC
  5
554
100
AcDbEntity
  8
RACCORDO
100
AcDbCircle
 62
250
  6
CONTINUOUS
 10
-157.7002447529
 20
-18.9306240448
 40
185.8596942397
100
AcDbArc
 50
359.7820497792
 51
0.2179502208
  0
ARC
  5
555
100
AcDbEntity
  8
ASSI
100
AcDbCircle
 62
250
  6
CONTINUOUS
 10
-157.7002447529
 20
-18.9306240448
 40
185.8596942397
100
AcDbArc
 50
359.7820497792
 51
0.2179502208
  0
ARC
  5
556
100
AcDbEntity
  8
RACCORDO
100
AcDbCircle
 62
7
  6
CONTINUOUS
 10
-18.43762257
 20
-21.3275777494
 40
1.5
100
AcDbArc
 50
182.3569499908
 51
267.0
  0
ARC
  5
557
100
AcDbEntity
  8
RACCORDO
100
AcDbCircle
 62
7
  6
CONTINUOUS
 10
1.3853277029
 20
-15.8267968296
 40
1.1395115644
100
AcDbArc
 50
89.7322687165
 51
270.2677312835
  0
ARC
  5
558
100
AcDbEntity
  8
ASSI
100
AcDbCircle
 62
7
  6
CONTINUOUS
 10
1.3853277029
 20
-15.8267968296
 40
1.1395115644
100
AcDbArc
 50
89.7322687165
 51
270.2677312835
  0
ARC
  5
559
100
AcDbEntity
  8
RACCORDO
100
AcDbCircle
 62
250
  6
CONTINUOUS
 10
-18.4461742433
 20
-21.3275777436
 40
1.0100000061
100
AcDbArc
 50
182.3569503053
 51
266.9999996855
  0
ARC
  5
55A
100
AcDbEntity
  8
RACCORDO
100
AcDbCircle
 62
7
  6
CONTINUOUS
 10
-0.8593476155
 20
-22.1394900733
 40
1.0
100
AcDbArc
 50
270.5
 51
360.0
  0
ARC
  5
55B
100
AcDbEntity
  8
RACCORDO
100
AcDbCircle
 62
7
  6
CONTINUOUS
 10
28.1406523845
 20
-18.9488818524
 40
1.0
100
AcDbArc
 50
271.0
 51
360.0
  0
ARC
  5
55C
100
AcDbEntity
  8
ASSI
100
AcDbCircle
 62
7
  6
CONTINUOUS
 10
28.1406523845
 20
-18.9488818524
 40
1.0
100
AcDbArc
 50
271.0
 51
360.0
  0
ARC
  5
55D
100
AcDbEntity
  8
RACCORDO
100
AcDbCircle
 62
7
  6
CONTINUOUS
 10
1.3887675145
 20
-15.8267968296
 40
0.8113840994
100
AcDbArc
 50
89.8669000301
 51
270.1330999699
  0
ARC
  5
55E
100
AcDbEntity
  8
ASSI
100
AcDbCircle
 62
7
  6
CONTINUOUS
 10
1.3887675145
 20
-15.8267968296
 40
0.8113840994
100
AcDbArc
 50
89.8669000301
 51
270.1330999699
  0
ARC
  5
55F
100
AcDbEntity
  8
RACCORDO
100
AcDbCircle
 62
250
  6
CONTINUOUS
 10
28.6177696988
 20
-18.9269860848
 40
0.523141807
100
AcDbArc
 50
343.4478682185
 51
351.5659816893
  0
ARC
  5
560
100
AcDbEntity
  8
ASSI
100
AcDbCircle
 62
250
  6
CONTINUOUS
 10
28.6177696988
 20
-18.9269860848
 40
0.523141807
100
AcDbArc
 50
343.4478682185
 51
351.5659816893
  0
ARC
  5
561
100
AcDbEntity
  8
RACCORDO
100
AcDbCircle
 62
250
  6
CONTINUOUS
 10
28.6394078091
 20
-18.9303478765
 40
0.5012446515
100
AcDbArc
 50
351.5833295842
 51
359.9684320215
  0
ARC
  5
562
100
AcDbEntity
  8
ASSI
100
AcDbCircle
 62
250
  6
CONTINUOUS
 10
28.6394078091
 20
-18.9303478765
 40
0.5012446515
100
AcDbArc
 50
351.5833295842
 51
359.9684320215
  0
ARC
  5
563
100
AcDbEntity
  8
RACCORDO
100
AcDbCircle
 62
250
  6
CONTINUOUS
 10
28.6397716851
 20
-18.9487253617
 40
0.5008807239
100
AcDbArc
 50
353.0275212914
 51
359.9820990165
  0
ARC
  5
564
100
AcDbEntity
  8
ASSI
100
AcDbCircle
 62
250
  6
CONTINUOUS
 10
28.6397716851
 20
-18.9487253617
 40
0.5008807239
100
AcDbArc
 50
353.0275212914
 51
359.9820990165
  0
ARC
  5
565
100
AcDbEntity
  8
ASSI
100
AcDbCircle
 62
7
  6
CONTINUOUS
 10
-3.3593476155
 20
-24.0831546443
 40
0.5
100
AcDbArc
 50
270.3333333333
 51
360.0
  0
ARC
  5
566
100
AcDbEntity
  8
RACCORDO
100
AcDbCircle
 62
7
  6
CONTINUOUS
 10
-10.1093476155
 20
-25.0724292263
 40
0.25
100
AcDbArc
 50
270.3333333333
 51
360.0
  0
ARC
  5
567
100
AcDbEntity
  8
RACCORDO
100
AcDbCircle
 62
7
  6
CONTINUOUS
 10
-10.1093476155
 20
-24.6711343969
 40
0.25
100
AcDbArc
 50
0.0
 51
60.0
  0
ARC
  5
568
100
AcDbEntity
  8
RACCORDO
100
AcDbCircle
 62
7
  6
CONTINUOUS
 10
-13.1093476155
 20
-25.0637024816
 40
0.25
100
AcDbArc
 50
180.0
 51
269.6666666667
  0
ARC
  5
569
100
AcDbEntity
  8
RACCORDO
100
AcDbCircle
 62
7
  6
CONTINUOUS
 10
-13.1093476155
 20
-24.6711343969
 40
0.25
100
AcDbArc
 50
120.0
 51
180.0
  0
ARC
  5
56A
100
AcDbEntity
  8
RACCORDO
100
AcDbCircle
 62
7
  6
CONTINUOUS
 10
17.1406523845
 20
-8.3267968296
 40
9.75
100
AcDbArc
 50
43.7664718709
 51
57.9508497965
  0
ARC
  5
56B
100
AcDbEntity
  8
RACCORDO
100
AcDbCircle
 62
250
  6
CONTINUOUS
 10
17.1406523845
 20
-8.3267968296
 40
7.7499999051
100
AcDbArc
 50
60.3763063421
 51
71.1794912813
  0
ARC
  5
56C
100
AcDbEntity
  8
RACCORDO
100
AcDbCircle
 62
7
  6
CONTINUOUS
 10
1.3853277029
 20
-5.8267968296
 40
1.1395115644
100
AcDbArc
 50
89.7322687165
 51
270.2677312835
  0
ARC
  5
56D
100
AcDbEntity
  8
RACCORDO
100
AcDbCircle
 62
7
  6
CONTINUOUS
 10
1.3853277029
 20
-10.8267968296
 40
1.1395115644
100
AcDbArc
 50
89.7322687165
 51
270.2677312835
  0
ARC
  5
56E
100
AcDbEntity
  8
ASSI
100
AcDbCircle
 62
7
  6
CONTINUOUS
 10
1.3853277029
 20
-10.8267968296
 40
1.1395115644
100
AcDbArc
 50
89.7322687165
 51
270.2677312835
  0
ARC
  5
56F
100
AcDbEntity
  8
ASSI
100
AcDbCircle
 62
7
  6
CONTINUOUS
 10
1.3853277029
 20
-5.8267968296
 40
1.1395115644
100
AcDbArc
 50
89.7322687165
 51
270.2677312835
  0
ARC
  5
570
100
AcDbEntity
  8
RACCORDO
100
AcDbCircle
 62
7
  6
CONTINUOUS
 10
0.6406523845
 20
-15.3267968296
 40
1.0
100
AcDbArc
 50
11.5385237266
 51
18.1339893009
  0
ARC
  5
571
100
AcDbEntity
  8
RACCORDO
100
AcDbCircle
 62
7
  6
CONTINUOUS
 10
0.6406523845
 20
-15.3267968296
 40
1.0
100
AcDbArc
 50
276.0561791201
 51
348.4589088499
  0
ARC
  5
572
100
AcDbEntity
  8
RACCORDO
100
AcDbCircle
 62
7
  6
CONTINUOUS
 10
1.3887675145
 20
-5.8267968296
 40
0.8113840994
100
AcDbArc
 50
89.8669000301
 51
270.1330999699
  0
ARC
  5
573
100
AcDbEntity
  8
RACCORDO
100
AcDbCircle
 62
7
  6
CONTINUOUS
 10
1.3887675145
 20
-10.8267968296
 40
0.8113840994
100
AcDbArc
 50
89.8669000301
 51
270.1330999699
  0
ARC
  5
574
100
AcDbEntity
  8
ASSI
100
AcDbCircle
 62
7
  6
CONTINUOUS
 10
1.3887675145
 20
-10.8267968296
 40
0.8113840994
100
AcDbArc
 50
89.8669000301
 51
270.1330999699
  0
ARC
  5
575
100
AcDbEntity
  8
ASSI
100
AcDbCircle
 62
7
  6
CONTINUOUS
 10
1.3887675145
 20
-5.8267968296
 40
0.8113840994
100
AcDbArc
 50
89.8669000301
 51
270.1330999699
  0
ARC
  5
576
100
AcDbEntity
  8
RACCORDO
100
AcDbCircle
 62
7
  6
CONTINUOUS
 10
-32.1871698436
 20
-7.4713915166
 40
0.5
100
AcDbArc
 50
186.4118152838
 51
266.0
  0
ARC
  5
577
100
AcDbEntity
  8
RACCORDO
100
AcDbCircle
 62
7
  6
CONTINUOUS
 10
-21.4593476155
 20
-8.4281667234
 40
0.3
100
AcDbArc
 50
179.9999999999
 51
265.999999909
  0
ARC
  5
578
100
AcDbEntity
  8
RACCORDO
100
AcDbCircle
 62
250
  6
CONTINUOUS
 10
0.6406523845
 20
-15.3267968296
 40
0.2999985432
100
AcDbArc
 50
263.0183138732
 51
318.1335265247
  0
ARC
  5
579
100
AcDbEntity
  8
RACCORDO
100
AcDbCircle
 62
250
  6
CONTINUOUS
 10
-157.6917078181
 20
17.2770303857
 40
185.8511573666
100
AcDbArc
 50
359.7820397678
 51
0.2179602322
  0
ARC
  5
57A
100
AcDbEntity
  8
ASSI
100
AcDbCircle
 62
250
  6
CONTINUOUS
 10
-157.6917078181
 20
17.2770303857
 40
185.8511573666
100
AcDbArc
 50
359.7820397678
 51
0.2179602322
  0
ARC
  5
57B
100
AcDbEntity
  8
0
100
AcDbCircle
 62
7
  6
CONTINUOUS
 10
26.9406523845
 20
-0.8267968296
 40
60.0
100
AcDbArc
 50
173.5881847162
 51
186.4118152838
  0
ARC
  5
57C
100
AcDbEntity
  8
DRAFT
100
AcDbCircle
 62
7
  6
CONTINUOUS
 10
23.0274081949
 20
9.2049335735
 40
2.1910787852
100
AcDbArc
 50
201.3386821427
 51
209.5003995832
  0
ARC
  5
57D
100
AcDbEntity
  8
DRAFT
100
AcDbCircle
 62
7
  6
CONTINUOUS
 10
23.0274081949
 20
9.1414727674
 40
2.1910787852
100
AcDbArc
 50
150.4996004168
 51
158.6613178573
  0
ARC
  5
57E
100
AcDbEntity
  8
DRAFT
100
AcDbCircle
 62
7
  6
CONTINUOUS
 10
23.0274081949
 20
4.2049335735
 40
2.1910787852
100
AcDbArc
 50
201.3386821427
 51
209.5003995832
  0
ARC
  5
57F
100
AcDbEntity
  8
DRAFT
100
AcDbCircle
 62
7
  6
CONTINUOUS
 10
23.0274081949
 20
4.1414727674
 40
2.1910787852
100
AcDbArc
 50
150.4996004168
 51
158.6613178573
  0
ARC
  5
580
100
AcDbEntity
  8
ASSI
100
AcDbCircle
 62
7
  6
CONTINUOUS
 10
23.0274081949
 20
4.1414727674
 40
2.1910787852
100
AcDbArc
 50
150.4996004168
 51
158.6613178573
  0
ARC
  5
581
100
AcDbEntity
  8
ASSI
100
AcDbCircle
 62
7
  6
CONTINUOUS
 10
23.0274081949
 20
4.2049335735
 40
2.1910787852
100
AcDbArc
 50
201.3386821427
 51
209.5003995832
  0
ARC
  5
582
100
AcDbEntity
  8
ASSI
100
AcDbCircle
 62
7
  6
CONTINUOUS
 10
23.0274081949
 20
9.1414727674
 40
2.1910787852
100
AcDbArc
 50
150.4996004168
 51
158.6613178573
  0
ARC
  5
583
100
AcDbEntity
  8
ASSI
100
AcDbCircle
 62
7
  6
CONTINUOUS
 10
23.0274081949
 20
9.2049335735
 40
2.1910787852
100
AcDbArc
 50
201.3386821427
 51
209.5003995832
  0
ARC
  5
584
100
AcDbEntity
  8
DRAFT
100
AcDbCircle
 62
7
  6
CONTINUOUS
 10
22.9227671879
 20
9.1729068947
 40
2.0822470819
100
AcDbArc
 50
90.0042988944
 51
158.4192330707
  0
ARC
  5
585
100
AcDbEntity
  8
DRAFT
100
AcDbCircle
 62
7
  6
CONTINUOUS
 10
22.9227671879
 20
4.1729068947
 40
2.0822470819
100
AcDbArc
 50
90.0042988944
 51
158.4192330707
  0
ARC
  5
586
100
AcDbEntity
  8
ASSI
100
AcDbCircle
 62
7
  6
CONTINUOUS
 10
22.9227671879
 20
4.1729068947
 40
2.0822470819
100
AcDbArc
 50
90.0042988944
 51
158.4192330707
  0
ARC
  5
587
100
AcDbEntity
  8
ASSI
100
AcDbCircle
 62
7
  6
CONTINUOUS
 10
22.9227671879
 20
9.1729068947
 40
2.0822470819
100
AcDbArc
 50
90.0042988944
 51
158.4192330707
  0
ARC
  5
588
100
AcDbEntity
  8
DRAFT
100
AcDbCircle
 62
7
  6
CONTINUOUS
 10
22.9227671031
 20
9.1734993212
 40
2.0822470815
100
AcDbArc
 50
201.5807645916
 51
269.9957034383
  0
ARC
  5
589
100
AcDbEntity
  8
DRAFT
100
AcDbCircle
 62
7
  6
CONTINUOUS
 10
22.9227671031
 20
4.1734993212
 40
2.0822470815
100
AcDbArc
 50
201.5807645916
 51
269.9957034383
  0
ARC
  5
58A
100
AcDbEntity
  8
ASSI
100
AcDbCircle
 62
7
  6
CONTINUOUS
 10
22.9227671031
 20
4.1734993212
 40
2.0822470815
100
AcDbArc
 50
201.5807645916
 51
269.9957034383
  0
ARC
  5
58B
100
AcDbEntity
  8
ASSI
100
AcDbCircle
 62
7
  6
CONTINUOUS
 10
22.9227671031
 20
9.1734993212
 40
2.0822470815
100
AcDbArc
 50
201.5807645916
 51
269.9957034383
  0
CIRCLE
  5
58C
100
AcDbEntity
  8
ASSI
100
AcDbCircle
 62
7
  6
CONTINUOUS
 10
23.1406523845
 20
9.1732031704
 40
2.0
  0
CIRCLE
  5
58D
100
AcDbEntity
  8
ASSI
100
AcDbCircle
 62
7
  6
CONTINUOUS
 10
23.1406523845
 20
4.1732031704
 40
2.0
  0
ARC
  5
58E
100
AcDbEntity
  8
0
100
AcDbCircle
 62
250
  6
CONTINUOUS
 10
-3.3639621168
 20
-0.0623600813
 40
1.520154595
100
AcDbArc
 50
137.3907648571
 51
180.076707283
  0
ARC
  5
58F
100
AcDbEntity
  8
RACCORDO
100
AcDbCircle
 62
7
  6
CONTINUOUS
 10
1.3853277029
 20
9.1732031704
 40
1.1395115644
100
AcDbArc
 50
89.7322687165
 51
270.2677312835
  0
ARC
  5
590
100
AcDbEntity
  8
RACCORDO
100
AcDbCircle
 62
7
  6
CONTINUOUS
 10
1.3853277029
 20
4.1732031704
 40
1.1395115644
100
AcDbArc
 50
89.7322687165
 51
270.2677312835
  0
ARC
  5
591
100
AcDbEntity
  8
RACCORDO
100
AcDbCircle
 62
7
  6
CONTINUOUS
 10
1.3853277029
 20
-0.8267968296
 40
1.1395115644
100
AcDbArc
 50
89.7322687165
 51
270.2677312835
  0
ARC
  5
592
100
AcDbEntity
  8
ASSI
100
AcDbCircle
 62
7
  6
CONTINUOUS
 10
1.3853277029
 20
-0.8267968296
 40
1.1395115644
100
AcDbArc
 50
89.7322687165
 51
270.2677312835
  0
ARC
  5
593
100
AcDbEntity
  8
ASSI
100
AcDbCircle
 62
7
  6
CONTINUOUS
 10
1.3853277029
 20
4.1732031704
 40
1.1395115644
100
AcDbArc
 50
89.7322687165
 51
270.2677312835
  0
ARC
  5
594
100
AcDbEntity
  8
ASSI
100
AcDbCircle
 62
7
  6
CONTINUOUS
 10
1.3853277029
 20
9.1732031704
 40
1.1395115644
100
AcDbArc
 50
89.7322687165
 51
270.2677312835
  0
ARC
  5
595
100
AcDbEntity
  8
RACCORDO
100
AcDbCircle
 62
7
  6
CONTINUOUS
 10
1.3887675145
 20
9.1732031704
 40
0.8113840994
100
AcDbArc
 50
89.8669000301
 51
270.1330999699
  0
ARC
  5
596
100
AcDbEntity
  8
RACCORDO
100
AcDbCircle
 62
7
  6
CONTINUOUS
 10
1.3887675145
 20
4.1732031704
 40
0.8113840994
100
AcDbArc
 50
89.8669000301
 51
270.1330999699
  0
ARC
  5
597
100
AcDbEntity
  8
RACCORDO
100
AcDbCircle
 62
7
  6
CONTINUOUS
 10
1.3887675145
 20
-0.8267968296
 40
0.8113840994
100
AcDbArc
 50
89.8669000301
 51
270.1330999699
  0
ARC
  5
598
100
AcDbEntity
  8
ASSI
100
AcDbCircle
 62
7
  6
CONTINUOUS
 10
1.3887675145
 20
-0.8267968296
 40
0.8113840994
100
AcDbArc
 50
89.8669000301
 51
270.1330999699
  0
ARC
  5
599
100
AcDbEntity
  8
ASSI
100
AcDbCircle
 62
7
  6
CONTINUOUS
 10
1.3887675145
 20
4.1732031704
 40
0.8113840994
100
AcDbArc
 50
89.8669000301
 51
270.1330999699
  0
ARC
  5
59A
100
AcDbEntity
  8
ASSI
100
AcDbCircle
 62
7
  6
CONTINUOUS
 10
1.3887675145
 20
9.1732031704
 40
0.8113840994
100
AcDbArc
 50
89.8669000301
 51
270.1330999699
  0
ARC
  5
59B
100
AcDbEntity
  8
RACCORDO
100
AcDbCircle
 62
7
  6
CONTINUOUS
 10
-32.1871698436
 20
5.8177978575
 40
0.5
100
AcDbArc
 50
94.0
 51
173.5881847162
  0
ARC
  5
59C
100
AcDbEntity
  8
RACCORDO
100
AcDbCircle
 62
7
  6
CONTINUOUS
 10
-21.4593476155
 20
6.7745730643
 40
0.3
100
AcDbArc
 50
94.000000091
 51
180.0000000001
  0
ARC
  5
59D
100
AcDbEntity
  8
RACCORDO
100
AcDbCircle
 62
7
  6
CONTINUOUS
 10
1.3853277029
 20
14.1732031704
 40
1.1395115644
100
AcDbArc
 50
89.7322687165
 51
270.2677312835
  0
ARC
  5
59E
100
AcDbEntity
  8
ASSI
100
AcDbCircle
 62
7
  6
CONTINUOUS
 10
1.3853277029
 20
14.1732031704
 40
1.1395115644
100
AcDbArc
 50
89.7322687165
 51
270.2677312835
  0
ARC
  5
59F
100
AcDbEntity
  8
RACCORDO
100
AcDbCircle
 62
7
  6
CONTINUOUS
 10
1.3887675145
 20
14.1732031704
 40
0.8113840994
100
AcDbArc
 50
89.8669000301
 51
270.1330999699
  0
ARC
  5
5A0
100
AcDbEntity
  8
ASSI
100
AcDbCircle
 62
7
  6
CONTINUOUS
 10
1.3887675145
 20
14.1732031704
 40
0.8113840994
100
AcDbArc
 50
89.8669000301
 51
270.1330999699
  0
ARC
  5
5A1
100
AcDbEntity
  8
RACCORDO
100
AcDbCircle
 62
7
  6
CONTINUOUS
 10
-18.43762257
 20
19.6739840903
 40
1.5
100
AcDbArc
 50
93.0
 51
177.6430500092
  0
ARC
  5
5A2
100
AcDbEntity
  8
RACCORDO
100
AcDbCircle
 62
250
  6
CONTINUOUS
 10
-18.4461742433
 20
19.6739840845
 40
1.0100000061
100
AcDbArc
 50
93.000000316
 51
177.6430496932
  0
ARC
  5
5A3
100
AcDbEntity
  8
RACCORDO
100
AcDbCircle
 62
7
  6
CONTINUOUS
 10
-0.8593476155
 20
20.4858964141
 40
1.0
100
AcDbArc
 50
0.0
 51
89.5
  0
ARC
  5
5A4
100
AcDbEntity
  8
ASSI
100
AcDbCircle
 62
7
  6
CONTINUOUS
 10
-3.3564387498
 20
22.4324613892
 40
0.4970911343
100
AcDbArc
 50
0.0
 51
89.3333333334
  0
ARC
  5
5A5
100
AcDbEntity
  8
RACCORDO
100
AcDbCircle
 62
7
  6
CONTINUOUS
 10
-13.1093476155
 20
23.4101088225
 40
0.25
100
AcDbArc
 50
90.3333333333
 51
180.0
  0
ARC
  5
5A6
100
AcDbEntity
  8
RACCORDO
100
AcDbCircle
 62
7
  6
CONTINUOUS
 10
-10.1093476155
 20
23.4188355672
 40
0.25
100
AcDbArc
 50
0.0
 51
89.6666666667
  0
ARC
  5
5A7
100
AcDbEntity
  8
RACCORDO
100
AcDbCircle
 62
7
  6
CONTINUOUS
 10
-13.1093476155
 20
23.0175407377
 40
0.25
100
AcDbArc
 50
180.0
 51
240.0
  0
ARC
  5
5A8
100
AcDbEntity
  8
DRAFT
100
AcDbCircle
 62
7
  6
CONTINUOUS
 10
23.0274081949
 20
14.2049335735
 40
2.1910787852
100
AcDbArc
 50
201.3386821427
 51
209.5003995832
  0
ARC
  5
5A9
100
AcDbEntity
  8
DRAFT
100
AcDbCircle
 62
7
  6
CONTINUOUS
 10
23.0274081949
 20
14.1414727674
 40
2.1910787852
100
AcDbArc
 50
150.4996004168
 51
158.6613178573
  0
ARC
  5
5AA
100
AcDbEntity
  8
ASSI
100
AcDbCircle
 62
7
  6
CONTINUOUS
 10
23.0274081949
 20
14.1414727674
 40
2.1910787852
100
AcDbArc
 50
150.4996004168
 51
158.6613178573
  0
ARC
  5
5AB
100
AcDbEntity
  8
ASSI
100
AcDbCircle
 62
7
  6
CONTINUOUS
 10
23.0274081949
 20
14.2049335735
 40
2.1910787852
100
AcDbArc
 50
201.3386821427
 51
209.5003995832
  0
ARC
  5
5AC
100
AcDbEntity
  8
DRAFT
100
AcDbCircle
 62
7
  6
CONTINUOUS
 10
22.9227671879
 20
14.1729068947
 40
2.0822470819
100
AcDbArc
 50
90.0042988944
 51
158.4192330707
  0
ARC
  5
5AD
100
AcDbEntity
  8
ASSI
100
AcDbCircle
 62
7
  6
CONTINUOUS
 10
22.9227671879
 20
14.1729068947
 40
2.0822470819
100
AcDbArc
 50
90.0042988944
 51
158.4192330707
  0
ARC
  5
5AE
100
AcDbEntity
  8
DRAFT
100
AcDbCircle
 62
7
  6
CONTINUOUS
 10
22.9227671031
 20
14.1734993212
 40
2.0822470815
100
AcDbArc
 50
201.5807645916
 51
269.9957034383
  0
ARC
  5
5AF
100
AcDbEntity
  8
ASSI
100
AcDbCircle
 62
7
  6
CONTINUOUS
 10
22.9227671031
 20
14.1734993212
 40
2.0822470815
100
AcDbArc
 50
201.5807645916
 51
269.9957034383
  0
CIRCLE
  5
5B0
100
AcDbEntity
  8
ASSI
100
AcDbCircle
 62
7
  6
CONTINUOUS
 10
23.1406523845
 20
14.1732031704
 40
2.0
  0
ARC
  5
5B1
100
AcDbEntity
  8
RACCORDO
100
AcDbCircle
 62
7
  6
CONTINUOUS
 10
28.1406523845
 20
17.2952881933
 40
1.0
100
AcDbArc
 50
0.0
 51
89.0
  0
ARC
  5
5B2
100
AcDbEntity
  8
ASSI
100
AcDbCircle
 62
7
  6
CONTINUOUS
 10
28.1406523845
 20
17.2952881933
 40
1.0
100
AcDbArc
 50
0.0
 51
89.0
  0
ARC
  5
5B3
100
AcDbEntity
  8
RACCORDO
100
AcDbCircle
 62
250
  6
CONTINUOUS
 10
28.6467370681
 20
17.2770176191
 40
0.4939153166
100
AcDbArc
 50
0.0014809685
 51
2.1107348801
  0
ARC
  5
5B4
100
AcDbEntity
  8
ASSI
100
AcDbCircle
 62
250
  6
CONTINUOUS
 10
28.6467370681
 20
17.2770176191
 40
0.4939153166
100
AcDbArc
 50
0.0014809685
 51
2.1107348801
  0
ARC
  5
5B5
100
AcDbEntity
  8
RACCORDO
100
AcDbCircle
 62
7
  6
CONTINUOUS
 10
479.6406523845
 20
-0.8267968296
 40
500.0
100
AcDbArc
 50
177.6430500092
 51
182.3569499908
  0
ARC
  5
5B6
100
AcDbEntity
  8
RACCORDO
100
AcDbCircle
 62
250
  6
CONTINUOUS
 10
479.63211955
 20
-0.8267968296
 40
499.5100188287
100
AcDbArc
 50
177.6430500981
 51
182.3569499019
  0
ARC
  5
5B7
100
AcDbEntity
  8
DRAFT
100
AcDbCircle
 62
7
  6
CONTINUOUS
 10
48.3213449301
 20
-26.7322991479
 40
19.6756036429
100
AcDbArc
 50
69.0397776544
 51
69.173021796
  0
ARC
  5
5B8
100
AcDbEntity
  8
RACCORDO
100
AcDbCircle
 62
7
  6
CONTINUOUS
 10
41.249523216
 20
-22.7365035667
 40
0.490356735
100
AcDbArc
 50
180.0211812877
 51
243.43154579
  0
ARC
  5
5B9
100
AcDbEntity
  8
RACCORDO
100
AcDbCircle
 62
250
  6
CONTINUOUS
 10
41.3826849724
 20
-22.3353225618
 40
0.4901689269
100
AcDbArc
 50
180.1018210187
 51
269.9760259542
  0
ARC
  5
5BA
100
AcDbEntity
  8
RACCORDO
100
AcDbCircle
 62
7
  6
CONTINUOUS
 10
41.2492885455
 20
-22.7369063339
 40
0.4898900718
100
AcDbArc
 50
243.4350246596
 51
269.1181178945
  0
ARC
  5
5BB
100
AcDbEntity
  8
RACCORDO
100
AcDbCircle
 62
250
  6
CONTINUOUS
 10
41.5048527723
 20
-25.0636922676
 40
0.2500059834
100
AcDbArc
 50
180.0023408215
 51
269.9976591785
  0
ARC
  5
5BC
100
AcDbEntity
  8
RACCORDO
100
AcDbCircle
 62
250
  6
CONTINUOUS
 10
43.3786436484
 20
-25.0636922676
 40
0.2500059834
100
AcDbArc
 50
270.0023408263
 51
359.9976591737
  0
ARC
  5
5BD
100
AcDbEntity
  8
RACCORDO
100
AcDbCircle
 62
7
  6
CONTINUOUS
 10
41.4917428617
 20
-25.0768021782
 40
0.2499946513
100
AcDbArc
 50
179.9997437926
 51
270.0002562074
  0
ARC
  5
5BE
100
AcDbEntity
  8
RACCORDO
100
AcDbCircle
 62
7
  6
CONTINUOUS
 10
43.391753559
 20
-25.0768021782
 40
0.2499946513
100
AcDbArc
 50
269.9997437926
 51
0.0002562074
  0
ARC
  5
5BF
100
AcDbEntity
  8
DRAFT
100
AcDbCircle
 62
7
  6
CONTINUOUS
 10
48.3213449317
 20
25.0787054846
 40
19.6756036385
100
AcDbArc
 50
290.826978204
 51
290.9602223456
  0
ARC
  5
5C0
100
AcDbEntity
  8
RACCORDO
100
AcDbCircle
 62
250
  6
CONTINUOUS
 10
51.8912664315
 20
-0.8267968296
 40
8.4186164026
100
AcDbArc
 50
270.003278942
 51
89.996721058
  0
ARC
  5
5C1
100
AcDbEntity
  8
RACCORDO
100
AcDbCircle
 62
7
  6
CONTINUOUS
 10
41.2495232158
 20
21.0829099073
 40
0.490356735
100
AcDbArc
 50
116.5684541757
 51
179.9788186768
  0
ARC
  5
5C2
100
AcDbEntity
  8
RACCORDO
100
AcDbCircle
 62
250
  6
CONTINUOUS
 10
41.3826850324
 20
20.6817288426
 40
0.4901689269
100
AcDbArc
 50
90.0239810508
 51
179.8981719698
  0
ARC
  5
5C3
100
AcDbEntity
  8
RACCORDO
100
AcDbCircle
 62
7
  6
CONTINUOUS
 10
41.2492885455
 20
21.0833126748
 40
0.4898900718
100
AcDbArc
 50
90.8818821055
 51
116.5649753403
  0
ARC
  5
5C4
100
AcDbEntity
  8
RACCORDO
100
AcDbCircle
 62
250
  6
CONTINUOUS
 10
41.5048527723
 20
23.4100986085
 40
0.2500059834
100
AcDbArc
 50
90.0023408263
 51
179.9976591737
  0
ARC
  5
5C5
100
AcDbEntity
  8
RACCORDO
100
AcDbCircle
 62
250
  6
CONTINUOUS
 10
43.3786436484
 20
23.4100986085
 40
0.2500059834
100
AcDbArc
 50
0.0023408263
 51
89.9976591737
  0
ARC
  5
5C6
100
AcDbEntity
  8
RACCORDO
100
AcDbCircle
 62
7
  6
CONTINUOUS
 10
43.391753559
 20
23.4232085191
 40
0.2499946513
100
AcDbArc
 50
359.9997437926
 51
90.0002562074
  0
ARC
  5
5C7
100
AcDbEntity
  8
RACCORDO
100
AcDbCircle
 62
7
  6
CONTINUOUS
 10
41.4917428617
 20
23.4232085191
 40
0.2499946513
100
AcDbArc
 50
89.9997437926
 51
180.0002562074
  0
ARC
  5
5C8
100
AcDbEntity
  8
DRAFT
100
AcDbCircle
 62
7
  6
CONTINUOUS
 10
55.4621514915
 20
-26.7322991502
 40
19.6756036453
100
AcDbArc
 50
110.826978204
 51
110.9602223456
  0
ARC
  5
5C9
100
AcDbEntity
  8
RACCORDO
100
AcDbCircle
 62
7
  6
CONTINUOUS
 10
62.5339732178
 20
-22.7365035744
 40
0.490356735
100
AcDbArc
 50
296.5684532438
 51
359.9788196087
  0
ARC
  5
5CA
100
AcDbEntity
  8
RACCORDO
100
AcDbCircle
 62
250
  6
CONTINUOUS
 10
62.4008114483
 20
-22.3353225619
 40
0.4901689269
100
AcDbArc
 50
270.0239740422
 51
359.8981789889
  0
ARC
  5
5CB
100
AcDbEntity
  8
RACCORDO
100
AcDbCircle
 62
7
  6
CONTINUOUS
 10
62.5342078752
 20
-22.7369063339
 40
0.4898900718
100
AcDbArc
 50
270.8818821055
 51
296.5649753404
  0
ARC
  5
5CC
100
AcDbEntity
  8
RACCORDO
100
AcDbCircle
 62
250
  6
CONTINUOUS
 10
62.2786436484
 20
-25.0636922676
 40
0.2500059834
100
AcDbArc
 50
270.0023408215
 51
359.9976591785
  0
ARC
  5
5CD
100
AcDbEntity
  8
RACCORDO
100
AcDbCircle
 62
250
  6
CONTINUOUS
 10
60.4048527723
 20
-25.0636922676
 40
0.2500059834
100
AcDbArc
 50
180.0023408263
 51
269.9976591737
  0
ARC
  5
5CE
100
AcDbEntity
  8
RACCORDO
100
AcDbCircle
 62
7
  6
CONTINUOUS
 10
62.291753559
 20
-25.0768021782
 40
0.2499946513
100
AcDbArc
 50
269.9997437926
 51
0.0002562074
  0
ARC
  5
5CF
100
AcDbEntity
  8
RACCORDO
100
AcDbCircle
 62
7
  6
CONTINUOUS
 10
60.3917428617
 20
-25.0768021782
 40
0.2499946513
100
AcDbArc
 50
179.9997437926
 51
270.0002562074
  0
ARC
  5
5D0
100
AcDbEntity
  8
DRAFT
100
AcDbCircle
 62
7
  6
CONTINUOUS
 10
55.4621514917
 20
25.0787054917
 40
19.675603646
100
AcDbArc
 50
249.0397776544
 51
249.1730217959
  0
ARC
  5
5D1
100
AcDbEntity
  8
RACCORDO
100
AcDbCircle
 62
250
  6
CONTINUOUS
 10
51.8922299896
 20
-0.8267968296
 40
8.4186164135
100
AcDbArc
 50
90.0032789447
 51
269.9967210553
  0
ARC
  5
5D2
100
AcDbEntity
  8
DRAFT
100
AcDbCircle
 62
7
  6
CONTINUOUS
 10
51.8917482104
 20
-0.8267968296
 40
8.2918921558
100
AcDbArc
 50
245.2768801712
 51
294.7231198288
  0
ARC
  5
5D3
100
AcDbEntity
  8
DRAFT
100
AcDbCircle
 62
7
  6
CONTINUOUS
 10
51.8917482104
 20
-0.8267968296
 40
8.2918921558
100
AcDbArc
 50
65.2768801712
 51
114.7231198288
  0
ARC
  5
5D4
100
AcDbEntity
  8
DRAFT
100
AcDbCircle
 62
7
  6
CONTINUOUS
 10
51.8917482104
 20
-0.8267968296
 40
8.2609085847
100
AcDbArc
 50
65.488642178
 51
114.511357822
  0
ARC
  5
5D5
100
AcDbEntity
  8
DRAFT
100
AcDbCircle
 62
7
  6
CONTINUOUS
 10
51.8917482104
 20
-0.8267968296
 40
8.2609085847
100
AcDbArc
 50
245.488642178
 51
294.511357822
  0
ARC
  5
5D6
100
AcDbEntity
  8
DRAFT
100
AcDbCircle
 62
7
  6
CONTINUOUS
 10
51.8917482104
 20
-0.8267968296
 40
8.25
100
AcDbArc
 50
294.4374899962
 51
65.5625100038
  0
ARC
  5
5D7
100
AcDbEntity
  8
DRAFT
100
AcDbCircle
 62
7
  6
CONTINUOUS
 10
51.8917482104
 20
-0.8267968296
 40
8.25
100
AcDbArc
 50
114.4374899962
 51
245.5625100038
  0
CIRCLE
  5
5D8
100
AcDbEntity
  8
0
100
AcDbCircle
 62
7
  6
CONTINUOUS
 10
51.8917482104
 20
-0.8267968296
 40
8.0
  0
CIRCLE
  5
5D9
100
AcDbEntity
  8
RACCORDO
100
AcDbCircle
 62
250
  6
CONTINUOUS
 10
51.8917482104
 20
-0.8267968296
 40
7.9006391073
  0
CIRCLE
  5
5DA
100
AcDbEntity
  8
0
100
AcDbCircle
 62
7
  6
CONTINUOUS
 10
51.8917482104
 20
-0.8267968296
 40
7.875
  0
CIRCLE
  5
5DB
100
AcDbEntity
  8
RACCORDO
100
AcDbCircle
 62
250
  6
CONTINUOUS
 10
51.8917482104
 20
-0.8267968296
 40
7.1433767121
  0
CIRCLE
  5
5DC
100
AcDbEntity
  8
RACCORDO
100
AcDbCircle
 62
250
  6
CONTINUOUS
 10
51.8917482104
 20
-0.8267968296
 40
6.7004316157
  0
ARC
  5
5DD
100
AcDbEntity
  8
RACCORDO
100
AcDbCircle
 62
7
  6
CONTINUOUS
 10
62.5339732177
 20
21.0829099155
 40
0.490356735
100
AcDbArc
 50
0.0211803564
 51
63.4315467212
  0
ARC
  5
5DE
100
AcDbEntity
  8
RACCORDO
100
AcDbCircle
 62
250
  6
CONTINUOUS
 10
62.4008114403
 20
20.6817289199
 40
0.4901689269
100
AcDbArc
 50
0.1018189994
 51
89.9760250161
  0
ARC
  5
5DF
100
AcDbEntity
  8
RACCORDO
100
AcDbCircle
 62
7
  6
CONTINUOUS
 10
62.5342078752
 20
21.0833126748
 40
0.4898900718
100
AcDbArc
 50
63.4350246596
 51
89.1181178945
  0
ARC
  5
5E0
100
AcDbEntity
  8
RACCORDO
100
AcDbCircle
 62
250
  6
CONTINUOUS
 10
62.2786436484
 20
23.4100986085
 40
0.2500059834
100
AcDbArc
 50
0.0023408215
 51
89.9976591785
  0
ARC
  5
5E1
100
AcDbEntity
  8
RACCORDO
100
AcDbCircle
 62
250
  6
CONTINUOUS
 10
60.4048527723
 20
23.4100986085
 40
0.2500059834
100
AcDbArc
 50
90.0023408263
 51
179.9976591737
  0
ARC
  5
5E2
100
AcDbEntity
  8
RACCORDO
100
AcDbCircle
 62
7
  6
CONTINUOUS
 10
62.291753559
 20
23.4232085191
 40
0.2499946513
100
AcDbArc
 50
359.9997437926
 51
90.0002562074
  0
ARC
  5
5E3
100
AcDbEntity
  8
RACCORDO
100
AcDbCircle
 62
7
  6
CONTINUOUS
 10
60.3917428617
 20
23.4232085191
 40
0.2499946513
100
AcDbArc
 50
89.9997437926
 51
180.0002562074
  0
SPLINE
  5
5E4
100
AcDbEntity
  8
RACCORDO
100
AcDbSpline
 62
7
  6
CONTINUOUS
 70
0
 71
3
 72
13
 73
9
 74
0
 42
0.0000001
 43
0.0000001
 44
0.0000000001
 40
0.0
 40
0.0
 40
0.0
 40
0.0
 40
0.0225227418
 40
0.0871911485
 40
0.1883898844
 40
0.3188730435
 40
0.6394257438
 40
1.0
 40
1.0
 40
1.0
 40
1.0
 10
-9.8593476155
 20
22.8732031704
 30
0.0
 10
-9.8611812885
 20
22.8743409838
 30
0.0
 10
-9.8683144963
 20
22.8786880258
 30
0.0
 10
-9.8839355635
 20
22.8877322054
 30
0.0
 10
-9.9084391955
 20
22.9020727463
 30
0.0
 10
-9.9541994468
 20
22.9286292364
 30
0.0
 10
-10.0214751357
 20
22.9676181535
 30
0.0
 10
-10.0779763125
 20
23.0002677862
 30
0.0
 10
-10.1078931826
 20
23.0175407377
 30
0.0
  0
LINE
  5
5E5
100
AcDbEntity
  8
RACCORDO
100
AcDbLine
 62
7
  6
CONTINUOUS
 10
-12.2151035876
 20
-23.1557446698
 11
-12.1108020483
 21
-23.1607320267
  0
SPLINE
  5
5E6
100
AcDbEntity
  8
RACCORDO
100
AcDbSpline
 62
7
  6
CONTINUOUS
 70
0
 71
3
 72
13
 73
9
 74
0
 42
0.0000001
 43
0.0000001
 44
0.0000000001
 40
0.0
 40
0.0
 40
0.0
 40
0.0
 40
0.3611707034
 40
0.6821065924
 40
0.8126146064
 40
0.9136705937
 40
0.9780274868
 40
1.0
 40
1.0
 40
1.0
 40
1.0
 10
-12.1108020483
 20
-24.0937841277
 30
0.0
 10
-12.1407684065
 20
-24.0764826035
 30
0.0
 10
-12.197350873
 20
-24.0437860489
 30
0.0
 10
-12.2647095713
 20
-24.0047484527
 30
0.0
 10
-12.3104918586
 20
-23.9781792644
 30
0.0
 10
-12.3349593134
 20
-23.9638583994
 30
0.0
 10
-12.3504975427
 20
-23.954863129
 30
0.0
 10
-12.3575590086
 20
-23.9505570125
 30
0.0
 10
-12.3593476155
 20
-23.9494465604
 30
0.0
  0
SPLINE
  5
5E7
100
AcDbEntity
  8
RACCORDO
100
AcDbSpline
 62
250
  6
CONTINUOUS
 70
0
 71
3
 72
26
 73
22
 74
0
 42
0.0000001
 43
0.0000001
 44
0.0000000001
 40
0.0
 40
0.0
 40
0.0
 40
0.0
 40
0.1952383918
 40
0.3828751996
 40
0.5557522696
 40
0.6345521823
 40
0.7072377922
 40
0.7731077036
 40
0.8315332971
 40
0.8819531884
 40
0.9238816869
 40
0.9415349589
 40
0.9569209738
 40
0.9700022033
 40
0.980750657
 40
0.9891391387
 40
0.9951459694
 40
0.9972533339
 40
0.99876251
 40
0.9996742483
 40
1.0
 40
1.0
 40
1.0
 40
1.0
 10
-13.1108020483
 20
-24.6711343969
 30
0.0
 10
-13.1189136556
 20
-24.6570842053
 30
0.0
 10
-13.1348076722
 20
-24.6295231407
 30
0.0
 10
-13.1578377491
 20
-24.5894943112
 30
0.0
 10
-13.1760070056
 20
-24.5578316219
 30
0.0
 10
-13.1893967531
 20
-24.5344393093
 30
0.0
 10
-13.1983563695
 20
-24.5187567621
 30
0.0
 10
-13.2064622653
 20
-24.5045363437
 30
0.0
 10
-13.2136367563
 20
-24.4919146832
 30
0.0
 10
-13.2198110568
 20
-24.4810129397
 30
0.0
 10
-13.2242989783
 20
-24.473049684
 30
0.0
 10
-13.2273434934
 20
-24.4676148932
 30
0.0
 10
-13.2292096212
 20
-24.4642671499
 30
0.0
 10
-13.2307873968
 20
-24.4614168031
 30
0.0
 10
-13.2320766869
 20
-24.459067929
 30
0.0
 10
-13.233065502
 20
-24.4572338465
 30
0.0
 10
-13.2337153772
 20
-24.4560128009
 30
0.0
 10
-13.2340630094
 20
-24.4553101884
 30
0.0
 10
-13.2342466141
 20
-24.4549521474
 30
0.0
 10
-13.2342996422
 20
-24.4547759747
 30
0.0
 10
-13.2343710578
 20
-24.4546415803
 30
0.0
 10
-13.2343476155
 20
-24.4546280459
 30
0.0
  0
SPLINE
  5
5E8
100
AcDbEntity
  8
RACCORDO
100
AcDbSpline
 62
250
  6
CONTINUOUS
 70
0
 71
3
 72
26
 73
22
 74
0
 42
0.0000001
 43
0.0000001
 44
0.0000000001
 40
0.0
 40
0.0
 40
0.0
 40
0.0
 40
0.1950812131
 40
0.3826499456
 40
0.5555245119
 40
0.6343402047
 40
0.7070490478
 40
0.7729468713
 40
0.8314025054
 40
0.881852257
 40
0.9238084245
 40
0.9414741935
 40
0.956871577
 40
0.9699629139
 40
0.9807201421
 40
0.9891160416
 40
0.9951290477
 40
0.9972391968
 40
0.998751184
 40
0.9996663718
 40
1.0
 40
1.0
 40
1.0
 40
1.0
 10
-13.1108020483
 20
23.4101088225
 30
0.0
 10
-13.1108966278
 20
23.4263662063
 30
0.0
 10
-13.1110642339
 20
23.4582550177
 30
0.0
 10
-13.1112534736
 20
23.504550888
 30
0.0
 10
-13.1113554641
 20
23.5411576836
 30
0.0
 10
-13.1113970028
 20
23.5681923949
 30
0.0
 10
-13.1114077007
 20
23.586311919
 30
0.0
 10
-13.1113989181
 20
23.6027346764
 30
0.0
 10
-13.1113709347
 20
23.6173023975
 30
0.0
 10
-13.111324113
 20
23.629874776
 30
0.0
 10
-13.1112676476
 20
23.6390478287
 30
0.0
 10
-13.1112106289
 20
23.6452994176
 30
0.0
 10
-13.1111661628
 20
23.6491458394
 30
0.0
 10
-13.1111173214
 20
23.6524154058
 30
0.0
 10
-13.1110656681
 20
23.6551041973
 30
0.0
 10
-13.1110085078
 20
23.6571953683
 30
0.0
 10
-13.1109595238
 20
23.6585823408
 30
0.0
 10
-13.11090847
 20
23.6593688871
 30
0.0
 10
-13.1108835242
 20
23.6597707044
 30
0.0
 10
-13.1108430625
 20
23.6599542569
 30
0.0
 10
-13.1108298517
 20
23.66010443
 30
0.0
 10
-13.1108020483
 20
23.6601045917
 30
0.0
  0
SPLINE
  5
5E9
100
AcDbEntity
  8
RACCORDO
100
AcDbSpline
 62
250
  6
CONTINUOUS
 70
0
 71
3
 72
26
 73
22
 74
0
 42
0.0000001
 43
0.0000001
 44
0.0000000001
 40
0.0
 40
0.0
 40
0.0
 40
0.0
 40
0.1950806194
 40
0.3826494983
 40
0.5555241467
 40
0.6343398971
 40
0.7070487948
 40
0.7729466726
 40
0.831402351
 40
0.8818521527
 40
0.9238083539
 40
0.9414741419
 40
0.9568715356
 40
0.9699628847
 40
0.9807201252
 40
0.9891160312
 40
0.9951290418
 40
0.9972391931
 40
0.9987511822
 40
0.9996663713
 40
1.0
 40
1.0
 40
1.0
 40
1.0
 10
-10.1078931826
 20
23.4188355672
 30
0.0
 10
-10.1077986034
 20
23.4350929015
 30
0.0
 10
-10.1076309975
 20
23.4669816757
 30
0.0
 10
-10.1074417577
 20
23.5132775155
 30
0.0
 10
-10.107339767
 20
23.5498843349
 30
0.0
 10
-10.1072982283
 20
23.5769190624
 30
0.0
 10
-10.1072875303
 20
23.5950386005
 30
0.0
 10
-10.1072963128
 20
23.6114613706
 30
0.0
 10
-10.1073242962
 20
23.6260291041
 30
0.0
 10
-10.1073711178
 20
23.6386014933
 30
0.0
 10
-10.1074275833
 20
23.6477745545
 30
0.0
 10
-10.1074846019
 20
23.6540261487
 30
0.0
 10
-10.107529068
 20
23.6578725739
 30
0.0
 10
-10.1075779095
 20
23.6611421432
 30
0.0
 10
-10.1076295628
 20
23.6638309373
 30
0.0
 10
-10.1076867231
 20
23.6659221102
 30
0.0
 10
-10.1077357071
 20
23.6673090838
 30
0.0
 10
-10.1077867609
 20
23.6680956309
 30
0.0
 10
-10.1078117067
 20
23.6684974486
 30
0.0
 10
-10.1078521685
 20
23.6686810013
 30
0.0
 10
-10.1078653792
 20
23.6688311747
 30
0.0
 10
-10.1078931826
 20
23.6688313364
 30
0.0
  0
SPLINE
  5
5EA
100
AcDbEntity
  8
RACCORDO
100
AcDbSpline
 62
250
  6
CONTINUOUS
 70
0
 71
3
 72
26
 73
22
 74
0
 42
0.0000001
 43
0.0000001
 44
0.0000000001
 40
0.0
 40
0.0
 40
0.0
 40
0.0
 40
0.1952381202
 40
0.3828749837
 40
0.5557520914
 40
0.6345520338
 40
0.7072376715
 40
0.7731076099
 40
0.8315332255
 40
0.8819531408
 40
0.9238816554
 40
0.9415349362
 40
0.956920956
 40
0.9700021908
 40
0.9807506497
 40
0.9891391341
 40
0.9951459668
 40
0.9972533322
 40
0.9987625092
 40
0.9996742481
 40
1.0
 40
1.0
 40
1.0
 40
1.0
 10
-10.1078931826
 20
-24.6711343969
 30
0.0
 10
-10.0997815866
 20
-24.6570842248
 30
0.0
 10
-10.083887579
 20
-24.6295231758
 30
0.0
 10
-10.0608575094
 20
-24.5894943592
 30
0.0
 10
-10.0426882478
 20
-24.557831661
 30
0.0
 10
-10.0292984963
 20
-24.5344393416
 30
0.0
 10
-10.0203388764
 20
-24.5187567883
 30
0.0
 10
-10.0122329774
 20
-24.5045363644
 30
0.0
 10
-10.0050584834
 20
-24.4919146986
 30
0.0
 10
-9.9988841803
 20
-24.4810129506
 30
0.0
 10
-9.9943962568
 20
-24.4730496914
 30
0.0
 10
-9.9913517405
 20
-24.4676148984
 30
0.0
 10
-9.9894856119
 20
-24.4642671538
 30
0.0
 10
-9.9879078356
 20
-24.4614168058
 30
0.0
 10
-9.986618545
 20
-24.4590679308
 30
0.0
 10
-9.9856297296
 20
-24.4572338475
 30
0.0
 10
-9.9849798541
 20
-24.4560128016
 30
0.0
 10
-9.9846322218
 20
-24.4553101887
 30
0.0
 10
-9.9844486169
 20
-24.4549521476
 30
0.0
 10
-9.9843955888
 20
-24.4547759748
 30
0.0
 10
-9.9843241732
 20
-24.4546415803
 30
0.0
 10
-9.9843476155
 20
-24.4546280459
 30
0.0
  0
SPLINE
  5
5EB
100
AcDbEntity
  8
RACCORDO
100
AcDbSpline
 62
250
  6
CONTINUOUS
 70
0
 71
3
 72
26
 73
22
 74
0
 42
0.0000001
 43
0.0000001
 44
0.0000000001
 40
0.0
 40
0.0
 40
0.0
 40
0.0
 40
0.0003336228
 40
0.0012487957
 40
0.0027607629
 40
0.0048708913
 40
0.0108838711
 40
0.0192797588
 40
0.0300369534
 40
0.0431282632
 40
0.0585256394
 40
0.076191382
 40
0.1181475232
 40
0.1685972475
 40
0.2270528812
 40
0.2929506998
 40
0.3656595516
 40
0.4444752648
 40
0.6173498903
 40
0.804918698
 40
1.0
 40
1.0
 40
1.0
 40
1.0
 10
-10.1078931826
 20
-25.3224249956
 30
0.0
 10
-10.1078653797
 20
-25.3224248338
 30
0.0
 10
-10.1078521679
 20
-25.3222746637
 30
0.0
 10
-10.1078117071
 20
-25.3220911135
 30
0.0
 10
-10.1077867609
 20
-25.3216893014
 30
0.0
 10
-10.1077357074
 20
-25.3209027604
 30
0.0
 10
-10.1076867236
 20
-25.319515793
 30
0.0
 10
-10.1076295638
 20
-25.3174246279
 30
0.0
 10
-10.1075779102
 20
-25.3147358424
 30
0.0
 10
-10.1075290687
 20
-25.3114662817
 30
0.0
 10
-10.1074846025
 20
-25.307619865
 30
0.0
 10
-10.1074275837
 20
-25.3013682811
 30
0.0
 10
-10.1073711183
 20
-25.2921952351
 30
0.0
 10
-10.1073242964
 20
-25.2796228611
 30
0.0
 10
-10.107296313
 20
-25.2650551426
 30
0.0
 10
-10.1072875302
 20
-25.248632385
 30
0.0
 10
-10.1072982281
 20
-25.2305128588
 30
0.0
 10
-10.1073397667
 20
-25.2034781401
 30
0.0
 10
-10.1074417572
 20
-25.1668713316
 30
0.0
 10
-10.1076309969
 20
-25.1205754427
 30
0.0
 10
-10.1077986031
 20
-25.0886866176
 30
0.0
 10
-10.1078931826
 20
-25.0724292263
 30
0.0
  0
SPLINE
  5
5EC
100
AcDbEntity
  8
RACCORDO
100
AcDbSpline
 62
250
  6
CONTINUOUS
 70
0
 71
3
 72
26
 73
22
 74
0
 42
0.0000001
 43
0.0000001
 44
0.0000000001
 40
0.0
 40
0.0
 40
0.0
 40
0.0
 40
0.0003336282
 40
0.001248816
 40
0.0027608032
 40
0.0048709523
 40
0.0108839584
 40
0.0192798579
 40
0.0300370861
 40
0.043128423
 40
0.0585258065
 40
0.0761915755
 40
0.118147743
 40
0.1685974946
 40
0.2270531287
 40
0.2929509522
 40
0.3656597953
 40
0.4444754881
 40
0.6173500544
 40
0.8049187869
 40
1.0
 40
1.0
 40
1.0
 40
1.0
 10
-13.1108020483
 20
-25.3136982508
 30
0.0
 10
-13.1108298517
 20
-25.3136980891
 30
0.0
 10
-13.1108430625
 20
-25.313547916
 30
0.0
 10
-13.1108835242
 20
-25.3133643635
 30
0.0
 10
-13.11090847
 20
-25.3129625462
 30
0.0
 10
-13.1109595238
 20
-25.3121759999
 30
0.0
 10
-13.1110085078
 20
-25.3107890274
 30
0.0
 10
-13.1110656681
 20
-25.3086978564
 30
0.0
 10
-13.1111173214
 20
-25.3060090649
 30
0.0
 10
-13.1111661628
 20
-25.3027394985
 30
0.0
 10
-13.1112106289
 20
-25.2988930767
 30
0.0
 10
-13.1112676476
 20
-25.2926414878
 30
0.0
 10
-13.111324113
 20
-25.2834684351
 30
0.0
 10
-13.1113709347
 20
-25.2708960567
 30
0.0
 10
-13.1113989181
 20
-25.2563283355
 30
0.0
 10
-13.1114077007
 20
-25.2399055782
 30
0.0
 10
-13.1113970028
 20
-25.221786054
 30
0.0
 10
-13.1113554641
 20
-25.1947513427
 30
0.0
 10
-13.1112534736
 20
-25.1581445471
 30
0.0
 10
-13.1110642339
 20
-25.1118486769
 30
0.0
 10
-13.1108966278
 20
-25.0799598654
 30
0.0
 10
-13.1108020483
 20
-25.0637024816
 30
0.0
  0
SPLINE
  5
5ED
100
AcDbEntity
  8
RACCORDO
100
AcDbSpline
 62
250
  6
CONTINUOUS
 70
0
 71
3
 72
26
 73
22
 74
0
 42
0.0000001
 43
0.0000001
 44
0.0000000001
 40
0.0
 40
0.0
 40
0.0
 40
0.0
 40
0.1952381202
 40
0.3828749837
 40
0.5557520914
 40
0.6345520338
 40
0.7072376715
 40
0.7731076099
 40
0.8315332255
 40
0.8819531408
 40
0.9238816554
 40
0.9415349362
 40
0.956920956
 40
0.9700021908
 40
0.9807506497
 40
0.9891391341
 40
0.9951459668
 40
0.9972533322
 40
0.9987625092
 40
0.9996742481
 40
1.0
 40
1.0
 40
1.0
 40
1.0
 10
-13.1108020483
 20
23.0175407377
 30
0.0
 10
-13.1189136444
 20
23.0034905657
 30
0.0
 10
-13.1348076519
 20
22.9759295167
 30
0.0
 10
-13.1578377216
 20
22.9359007001
 30
0.0
 10
-13.1760069832
 20
22.9042380019
 30
0.0
 10
-13.1893967347
 20
22.8808456825
 30
0.0
 10
-13.1983563545
 20
22.8651631292
 30
0.0
 10
-13.2064622536
 20
22.8509427053
 30
0.0
 10
-13.2136367476
 20
22.8383210394
 30
0.0
 10
-13.2198110507
 20
22.8274192915
 30
0.0
 10
-13.2242989741
 20
22.8194560323
 30
0.0
 10
-13.2273434905
 20
22.8140212393
 30
0.0
 10
-13.229209619
 20
22.8106734946
 30
0.0
 10
-13.2307873953
 20
22.8078231467
 30
0.0
 10
-13.232076686
 20
22.8054742716
 30
0.0
 10
-13.2330655014
 20
22.8036401884
 30
0.0
 10
-13.2337153768
 20
22.8024191425
 30
0.0
 10
-13.2340630092
 20
22.8017165296
 30
0.0
 10
-13.2342466141
 20
22.8013584885
 30
0.0
 10
-13.2342996422
 20
22.8011823156
 30
0.0
 10
-13.2343710578
 20
22.8010479212
 30
0.0
 10
-13.2343476155
 20
22.8010343868
 30
0.0
  0
SPLINE
  5
5EE
100
AcDbEntity
  8
RACCORDO
100
AcDbSpline
 62
7
  6
CONTINUOUS
 70
0
 71
3
 72
13
 73
9
 74
0
 42
0.0000001
 43
0.0000001
 44
0.0000000001
 40
0.0
 40
0.0
 40
0.0
 40
0.0
 40
0.3605742562
 40
0.6811269565
 40
0.8116101156
 40
0.9128088515
 40
0.9774772582
 40
1.0
 40
1.0
 40
1.0
 40
1.0
 10
-12.1108020483
 20
22.4401904685
 30
0.0
 10
-12.1407189185
 20
22.422917517
 30
0.0
 10
-12.1972200952
 20
22.3902678843
 30
0.0
 10
-12.2644957841
 20
22.3512789672
 30
0.0
 10
-12.3102560354
 20
22.3247224772
 30
0.0
 10
-12.3347596675
 20
22.3103819362
 30
0.0
 10
-12.3503807347
 20
22.3013377566
 30
0.0
 10
-12.3575139424
 20
22.2969907146
 30
0.0
 10
-12.3593476155
 20
22.2958529012
 30
0.0
  0
LINE
  5
5EF
100
AcDbEntity
  8
RACCORDO
100
AcDbLine
 62
7
  6
CONTINUOUS
 10
-12.1108020483
 20
21.5071383676
 11
-12.2151035876
 21
21.5021510107
  0
SPLINE
  5
5F0
100
AcDbEntity
  8
RACCORDO
100
AcDbSpline
 62
250
  6
CONTINUOUS
 70
0
 71
3
 72
25
 73
21
 74
0
 42
0.0000001
 43
0.0000001
 44
0.0000000001
 40
0.0
 40
0.0
 40
0.0
 40
0.0
 40
0.1950126392
 40
0.3824957337
 40
0.4711548316
 40
0.5552736864
 40
0.6340445003
 40
0.7067096429
 40
0.7725721393
 40
0.8309983179
 40
0.8814267906
 40
0.9233766885
 40
0.9410430151
 40
0.9564476561
 40
0.9695519408
 40
0.980328239
 40
0.9887549056
 40
0.9948165378
 40
0.998523322
 40
1.0
 40
1.0
 40
1.0
 40
1.0
 10
-18.499033565
 20
-22.3361935795
 30
0.0
 10
-18.5006996709
 20
-22.3679944607
 30
0.0
 10
-18.5038624805
 20
-22.4303739263
 30
0.0
 10
-18.5074904133
 20
-22.5072255376
 30
0.0
 10
-18.5100870989
 20
-22.5659968962
 30
0.0
 10
-18.511810455
 20
-22.6070373034
 30
0.0
 10
-18.5133300162
 20
-22.6454721279
 30
0.0
 10
-18.5146314757
 20
-22.6809319673
 30
0.0
 10
-18.5157027845
 20
-22.7130756369
 30
0.0
 10
-18.5165346697
 20
-22.7415940761
 30
0.0
 10
-18.5171197251
 20
-22.7662125039
 30
0.0
 10
-18.5174158266
 20
-22.784180808
 30
0.0
 10
-18.5175091635
 20
-22.796429803
 30
0.0
 10
-18.5175108936
 20
-22.8039729555
 30
0.0
 10
-18.517449925
 20
-22.8103793168
 30
0.0
 10
-18.5173259642
 20
-22.8156775208
 30
0.0
 10
-18.5171463877
 20
-22.819738006
 30
0.0
 10
-18.5169068956
 20
-22.822841584
 30
0.0
 10
-18.5166469599
 20
-22.8244042646
 30
0.0
 10
-18.5163673073
 20
-22.8255094316
 30
0.0
 10
-18.5161265044
 20
-22.8255220515
 30
0.0
  0
LINE
  5
5F1
100
AcDbEntity
  8
RACCORDO
100
AcDbLine
 62
7
  6
CONTINUOUS
 10
-10.8593476155
 20
-23.2267456009
 11
-12.1108020483
 21
-23.1607320267
  0
SPLINE
  5
5F2
100
AcDbEntity
  8
RACCORDO
100
AcDbSpline
 62
250
  6
CONTINUOUS
 70
0
 71
3
 72
25
 73
21
 74
0
 42
0.0000001
 43
0.0000001
 44
0.0000000001
 40
0.0
 40
0.0
 40
0.0
 40
0.0
 40
0.195012639
 40
0.3824957335
 40
0.4711548313
 40
0.5552736861
 40
0.6340445001
 40
0.7067096427
 40
0.772572139
 40
0.8309983177
 40
0.8814267904
 40
0.9233766883
 40
0.9410430149
 40
0.9564476559
 40
0.9695519406
 40
0.9803282389
 40
0.9887549055
 40
0.9948165377
 40
0.998523322
 40
1.0
 40
1.0
 40
1.0
 40
1.0
 10
-18.499033565
 20
20.6825999204
 30
0.0
 10
-18.500699671
 20
20.7144008015
 30
0.0
 10
-18.5038624807
 20
20.7767802671
 30
0.0
 10
-18.5074904136
 20
20.8536318783
 30
0.0
 10
-18.5100870992
 20
20.912403237
 30
0.0
 10
-18.5118104554
 20
20.9534436442
 30
0.0
 10
-18.5133300166
 20
20.9918784687
 30
0.0
 10
-18.5146314761
 20
21.0273383081
 30
0.0
 10
-18.5157027849
 20
21.0594819777
 30
0.0
 10
-18.5165346701
 20
21.0880004169
 30
0.0
 10
-18.5171197255
 20
21.1126188447
 30
0.0
 10
-18.5174158269
 20
21.1305871488
 30
0.0
 10
-18.5175091638
 20
21.1428361439
 30
0.0
 10
-18.5175108938
 20
21.1503792964
 30
0.0
 10
-18.5174499252
 20
21.1567856577
 30
0.0
 10
-18.5173259644
 20
21.1620838617
 30
0.0
 10
-18.5171463879
 20
21.1661443469
 30
0.0
 10
-18.5169068957
 20
21.1692479249
 30
0.0
 10
-18.51664696
 20
21.1708106055
 30
0.0
 10
-18.5163673073
 20
21.1719157725
 30
0.0
 10
-18.5161265044
 20
21.1719283924
 30
0.0
  0
LINE
  5
5F3
100
AcDbEntity
  8
RACCORDO
100
AcDbLine
 62
7
  6
CONTINUOUS
 10
-12.1108020483
 20
21.5071383676
 11
-10.8593476155
 21
21.5731519418
  0
SPLINE
  5
5F4
100
AcDbEntity
  8
RACCORDO
100
AcDbSpline
 62
7
  6
CONTINUOUS
 70
0
 71
3
 72
24
 73
20
 74
0
 42
0.0000001
 43
0.0000001
 44
0.0000000001
 40
0.0
 40
0.0
 40
0.0
 40
0.0
 40
0.0021127266
 40
0.0064711287
 40
0.0131426017
 40
0.0221318053
 40
0.0334220355
 40
0.0469905439
 40
0.0628092804
 40
0.080838879
 40
0.1233602963
 40
0.1741556113
 40
0.23274876
 40
0.2985851873
 40
0.371041897
 40
0.4494356183
 40
0.6210187088
 40
0.8068659412
 40
1.0
 40
1.0
 40
1.0
 40
1.0
 10
-10.8594110653
 20
21.5731447188
 30
0.0
 10
-10.8596766137
 20
21.5729240488
 30
0.0
 10
-10.8599289805
 20
21.5717937666
 30
0.0
 10
-10.8603180857
 20
21.5697572162
 30
0.0
 10
-10.8606254381
 20
21.5664583543
 30
0.0
 10
-10.8609364567
 20
21.5620818227
 30
0.0
 10
-10.8612055207
 20
21.5565500111
 30
0.0
 10
-10.8614515996
 20
21.5499091292
 30
0.0
 10
-10.8616702502
 20
21.5421623159
 30
0.0
 10
-10.8619395432
 20
21.5296848448
 30
0.0
 10
-10.8621796008
 20
21.5114893078
 30
0.0
 10
-10.8623320982
 20
21.4866640521
 30
0.0
 10
-10.8623600582
 20
21.4580280165
 30
0.0
 10
-10.8622612821
 20
21.4258522064
 30
0.0
 10
-10.8620360745
 20
21.3904410767
 30
0.0
 10
-10.8615542917
 20
21.3377499195
 30
0.0
 10
-10.8606422592
 20
21.2665314787
 30
0.0
 10
-10.8591369006
 20
21.1765686006
 30
0.0
 10
-10.8578994407
 20
21.1146462445
 30
0.0
 10
-10.8572050131
 20
21.0830911844
 30
0.0
  0
SPLINE
  5
5F5
100
AcDbEntity
  8
RACCORDO
100
AcDbSpline
 62
7
  6
CONTINUOUS
 70
0
 71
3
 72
24
 73
20
 74
0
 42
0.0000001
 43
0.0000001
 44
0.0000000001
 40
0.0
 40
0.0
 40
0.0
 40
0.0
 40
0.1931340588
 40
0.3789812912
 40
0.5505643817
 40
0.628958103
 40
0.7014148127
 40
0.76725124
 40
0.8258443887
 40
0.8766397037
 40
0.919161121
 40
0.9371907196
 40
0.9530094561
 40
0.9665779645
 40
0.9778681947
 40
0.9868573983
 40
0.9935288713
 40
0.9978872734
 40
1.0
 40
1.0
 40
1.0
 40
1.0
 10
-10.8572050131
 20
-22.7366848436
 30
0.0
 10
-10.8578994407
 20
-22.7682399037
 30
0.0
 10
-10.8591369006
 20
-22.8301622597
 30
0.0
 10
-10.8606422592
 20
-22.9201251378
 30
0.0
 10
-10.8615542917
 20
-22.9913435786
 30
0.0
 10
-10.8620360745
 20
-23.0440347358
 30
0.0
 10
-10.8622612821
 20
-23.0794458655
 30
0.0
 10
-10.8623600582
 20
-23.1116216756
 30
0.0
 10
-10.8623320982
 20
-23.1402577112
 30
0.0
 10
-10.8621796008
 20
-23.165082967
 30
0.0
 10
-10.8619395432
 20
-23.183278504
 30
0.0
 10
-10.8616702502
 20
-23.195755975
 30
0.0
 10
-10.8614515996
 20
-23.2035027883
 30
0.0
 10
-10.8612055207
 20
-23.2101436702
 30
0.0
 10
-10.8609364567
 20
-23.2156754819
 30
0.0
 10
-10.8606254381
 20
-23.2200520134
 30
0.0
 10
-10.8603180857
 20
-23.2233508753
 30
0.0
 10
-10.8599289805
 20
-23.2253874257
 30
0.0
 10
-10.8596766137
 20
-23.2265177079
 30
0.0
 10
-10.8594110653
 20
-23.226738378
 30
0.0
  0
SPLINE
  5
5F6
100
AcDbEntity
  8
RACCORDO
100
AcDbSpline
 62
250
  6
CONTINUOUS
 70
0
 71
3
 72
13
 73
9
 74
0
 42
0.0000001
 43
0.0000001
 44
0.0000000001
 40
0.0
 40
0.0
 40
0.0
 40
0.0
 40
0.2871807683
 40
0.5533965419
 40
0.6752296459
 40
0.7890367246
 40
0.8963987342
 40
1.0
 40
1.0
 40
1.0
 40
1.0
 10
28.158104791
 20
18.0022872787
 30
0.0
 10
28.2853110011
 20
18.000717224
 30
0.0
 10
28.5312761721
 20
17.9649765585
 30
0.0
 10
28.8079603729
 20
17.8368238062
 30
0.0
 10
28.9772802114
 20
17.690694047
 30
0.0
 10
29.0698646933
 20
17.5685549694
 30
0.0
 10
29.1274623631
 20
17.4350951162
 30
0.0
 10
29.1406523845
 20
17.3411816848
 30
0.0
 10
29.1406523845
 20
17.2952881933
 30
0.0
  0
SPLINE
  5
5F7
100
AcDbEntity
  8
RACCORDO
100
AcDbSpline
 62
250
  6
CONTINUOUS
 70
0
 71
3
 72
12
 73
8
 74
0
 42
0.0000001
 43
0.0000001
 44
0.0000000001
 40
0.0
 40
0.0
 40
0.0
 40
0.0
 40
0.1046915043
 40
0.2146618478
 40
0.4539763317
 40
0.7190722238
 40
1.0
 40
1.0
 40
1.0
 40
1.0
 10
29.119232991
 20
-19.0760227141
 30
0.0
 10
29.1074994878
 20
-19.115571781
 30
0.0
 10
29.0738370553
 20
-19.1940733739
 30
0.0
 10
28.9697566129
 20
-19.3408705871
 30
0.0
 10
28.7755958159
 20
-19.4938903621
 30
0.0
 10
28.4846301942
 20
-19.60839777
 30
0.0
 10
28.2687939038
 20
-19.6362569399
 30
0.0
 10
28.158104791
 20
-19.6376231302
 30
0.0
  0
SPLINE
  5
5F8
100
AcDbEntity
  8
RACCORDO
100
AcDbSpline
 62
250
  6
CONTINUOUS
 70
0
 71
3
 72
12
 73
8
 74
0
 42
0.0000001
 43
0.0000001
 44
0.0000000001
 40
0.0
 40
0.0
 40
0.0
 40
0.0
 40
0.2809277763
 40
0.5460236683
 40
0.7853381522
 40
0.8953084957
 40
1.0
 40
1.0
 40
1.0
 40
1.0
 10
28.158104791
 20
17.9840294711
 30
0.0
 10
28.2687939038
 20
17.9826632806
 30
0.0
 10
28.4846301941
 20
17.9548041104
 30
0.0
 10
28.7755958159
 20
17.8402967028
 30
0.0
 10
28.9697566129
 20
17.6872769278
 30
0.0
 10
29.0738370553
 20
17.5404797148
 30
0.0
 10
29.1074994878
 20
17.4619781219
 30
0.0
 10
29.119232991
 20
17.422429055
 30
0.0
  0
SPLINE
  5
5F9
100
AcDbEntity
  8
RACCORDO
100
AcDbSpline
 62
250
  6
CONTINUOUS
 70
0
 71
3
 72
9
 73
5
 74
0
 42
0.0000001
 43
0.0000001
 44
0.0000000001
 40
0.0
 40
0.0
 40
0.0
 40
0.0
 40
0.2527572658
 40
1.0
 40
1.0
 40
1.0
 40
1.0
 10
29.119232991
 20
17.422429055
 30
0.0
 10
29.1223278166
 20
17.411997604
 30
0.0
 10
29.1333162939
 20
17.3703667861
 30
0.0
 10
29.139133229
 20
17.3273549805
 30
0.0
 10
29.1403172684
 20
17.2952089851
 30
0.0
  0
SPLINE
  5
5FA
100
AcDbEntity
  8
RACCORDO
100
AcDbSpline
 62
250
  6
CONTINUOUS
 70
0
 71
3
 72
18
 73
14
 74
0
 42
0.0000001
 43
0.0000001
 44
0.0000000001
 40
0.0
 40
0.0
 40
0.0
 40
0.0
 40
0.2245967258
 40
0.424285677
 40
0.5966901203
 40
0.7399001702
 40
0.8527297891
 40
0.8974019754
 40
0.9340908956
 40
0.9627369452
 40
0.9832870563
 40
0.9956970345
 40
1.0
 40
1.0
 40
1.0
 40
1.0
 10
28.158104791
 20
18.0022872787
 30
0.0
 10
28.1583289682
 20
18.0242157436
 30
0.0
 10
28.1587248789
 20
18.0656414294
 30
0.0
 10
28.1591805156
 20
18.12389918
 30
0.0
 10
28.1594654071
 20
18.1742164053
 30
0.0
 10
28.1595653873
 20
18.2160389896
 30
0.0
 10
28.1595228363
 20
18.245425284
 30
0.0
 10
28.1593470405
 20
18.264347517
 30
0.0
 10
28.1592380733
 20
18.275167879
 30
0.0
 10
28.1589389787
 20
18.2833434386
 30
0.0
 10
28.1589626193
 20
18.2898287689
 30
0.0
 10
28.1582853958
 20
18.2926201246
 30
0.0
 10
28.1585248683
 20
18.2951285559
 30
0.0
 10
28.158104791
 20
18.2951358884
 30
0.0
  0
SPLINE
  5
5FB
100
AcDbEntity
  8
RACCORDO
100
AcDbSpline
 62
250
  6
CONTINUOUS
 70
0
 71
3
 72
13
 73
9
 74
0
 42
0.0000001
 43
0.0000001
 44
0.0000000001
 40
0.0
 40
0.0
 40
0.0
 40
0.0
 40
0.1037157785
 40
0.2119730846
 40
0.326911093
 40
0.4495104117
 40
0.7153742512
 40
1.0
 40
1.0
 40
1.0
 40
1.0
 10
29.1369481834
 20
-19.0095285613
 30
0.0
 10
29.131631588
 20
-19.0530738158
 30
0.0
 10
29.1090069241
 20
-19.1410013458
 30
0.0
 10
29.0424761769
 20
-19.2635573551
 30
0.0
 10
28.9459116604
 20
-19.374788546
 30
0.0
 10
28.7775023479
 20
-19.5068144602
 30
0.0
 10
28.5120008561
 20
-19.6220643788
 30
0.0
 10
28.2784836436
 20
-19.6543951504
 30
0.0
 10
28.158104791
 20
-19.6558809378
 30
0.0
  0
SPLINE
  5
5FC
100
AcDbEntity
  8
RACCORDO
100
AcDbSpline
 62
250
  6
CONTINUOUS
 70
0
 71
3
 72
18
 73
14
 74
0
 42
0.0000001
 43
0.0000001
 44
0.0000000001
 40
0.0
 40
0.0
 40
0.0
 40
0.0
 40
0.0043029655
 40
0.0167129437
 40
0.0372630548
 40
0.0659091044
 40
0.1025980246
 40
0.1472702109
 40
0.2600998298
 40
0.4033098797
 40
0.575714323
 40
0.7754032742
 40
1.0
 40
1.0
 40
1.0
 40
1.0
 10
28.158104791
 20
-19.9487295476
 30
0.0
 10
28.1585248683
 20
-19.9487222151
 30
0.0
 10
28.1582853958
 20
-19.9462137837
 30
0.0
 10
28.1589626193
 20
-19.943422428
 30
0.0
 10
28.1589389787
 20
-19.9369370978
 30
0.0
 10
28.1592380733
 20
-19.9287615381
 30
0.0
 10
28.1593470405
 20
-19.9179411762
 30
0.0
 10
28.1595228363
 20
-19.8990189432
 30
0.0
 10
28.1595653873
 20
-19.8696326487
 30
0.0
 10
28.1594654071
 20
-19.8278100644
 30
0.0
 10
28.1591805156
 20
-19.7774928391
 30
0.0
 10
28.1587248789
 20
-19.7192350886
 30
0.0
 10
28.1583289682
 20
-19.6778094027
 30
0.0
 10
28.158104791
 20
-19.6558809378
 30
0.0
  0
SPLINE
  5
5FD
100
AcDbEntity
  8
ASSI
100
AcDbSpline
 62
250
  6
CONTINUOUS
 70
0
 71
3
 72
18
 73
14
 74
0
 42
0.0000001
 43
0.0000001
 44
0.0000000001
 40
0.0
 40
0.0
 40
0.0
 40
0.0
 40
0.2245967258
 40
0.424285677
 40
0.5966901203
 40
0.7399001702
 40
0.8527297891
 40
0.8974019754
 40
0.9340908956
 40
0.9627369452
 40
0.9832870563
 40
0.9956970345
 40
1.0
 40
1.0
 40
1.0
 40
1.0
 10
28.158104791
 20
18.0022872787
 30
0.0
 10
28.1583289682
 20
18.0242157436
 30
0.0
 10
28.1587248789
 20
18.0656414294
 30
0.0
 10
28.1591805156
 20
18.12389918
 30
0.0
 10
28.1594654071
 20
18.1742164053
 30
0.0
 10
28.1595653873
 20
18.2160389896
 30
0.0
 10
28.1595228363
 20
18.245425284
 30
0.0
 10
28.1593470405
 20
18.264347517
 30
0.0
 10
28.1592380733
 20
18.275167879
 30
0.0
 10
28.1589389787
 20
18.2833434386
 30
0.0
 10
28.1589626193
 20
18.2898287689
 30
0.0
 10
28.1582853958
 20
18.2926201246
 30
0.0
 10
28.1585248683
 20
18.2951285559
 30
0.0
 10
28.158104791
 20
18.2951358884
 30
0.0
  0
SPLINE
  5
5FE
100
AcDbEntity
  8
ASSI
100
AcDbSpline
 62
250
  6
CONTINUOUS
 70
0
 71
3
 72
12
 73
8
 74
0
 42
0.0000001
 43
0.0000001
 44
0.0000000001
 40
0.0
 40
0.0
 40
0.0
 40
0.0
 40
0.2809277763
 40
0.5460236683
 40
0.7853381522
 40
0.8953084957
 40
1.0
 40
1.0
 40
1.0
 40
1.0
 10
28.158104791
 20
17.9840294711
 30
0.0
 10
28.2687939038
 20
17.9826632806
 30
0.0
 10
28.4846301941
 20
17.9548041104
 30
0.0
 10
28.7755958159
 20
17.8402967028
 30
0.0
 10
28.9697566129
 20
17.6872769278
 30
0.0
 10
29.0738370553
 20
17.5404797148
 30
0.0
 10
29.1074994878
 20
17.4619781219
 30
0.0
 10
29.119232991
 20
17.422429055
 30
0.0
  0
SPLINE
  5
5FF
100
AcDbEntity
  8
ASSI
100
AcDbSpline
 62
250
  6
CONTINUOUS
 70
0
 71
3
 72
9
 73
5
 74
0
 42
0.0000001
 43
0.0000001
 44
0.0000000001
 40
0.0
 40
0.0
 40
0.0
 40
0.0
 40
0.2527572658
 40
1.0
 40
1.0
 40
1.0
 40
1.0
 10
29.119232991
 20
17.422429055
 30
0.0
 10
29.1223278166
 20
17.411997604
 30
0.0
 10
29.1333162939
 20
17.3703667861
 30
0.0
 10
29.139133229
 20
17.3273549805
 30
0.0
 10
29.1403172684
 20
17.2952089851
 30
0.0
  0
SPLINE
  5
600
100
AcDbEntity
  8
ASSI
100
AcDbSpline
 62
250
  6
CONTINUOUS
 70
0
 71
3
 72
13
 73
9
 74
0
 42
0.0000001
 43
0.0000001
 44
0.0000000001
 40
0.0
 40
0.0
 40
0.0
 40
0.0
 40
0.2871807683
 40
0.5533965419
 40
0.6752296459
 40
0.7890367246
 40
0.8963987342
 40
1.0
 40
1.0
 40
1.0
 40
1.0
 10
28.158104791
 20
18.0022872787
 30
0.0
 10
28.2853110011
 20
18.000717224
 30
0.0
 10
28.5312761721
 20
17.9649765585
 30
0.0
 10
28.8079603729
 20
17.8368238062
 30
0.0
 10
28.9772802114
 20
17.690694047
 30
0.0
 10
29.0698646933
 20
17.5685549694
 30
0.0
 10
29.1274623631
 20
17.4350951162
 30
0.0
 10
29.1406523845
 20
17.3411816848
 30
0.0
 10
29.1406523845
 20
17.2952881933
 30
0.0
  0
SPLINE
  5
601
100
AcDbEntity
  8
ASSI
100
AcDbSpline
 62
250
  6
CONTINUOUS
 70
0
 71
3
 72
12
 73
8
 74
0
 42
0.0000001
 43
0.0000001
 44
0.0000000001
 40
0.0
 40
0.0
 40
0.0
 40
0.0
 40
0.1046915043
 40
0.2146618478
 40
0.4539763317
 40
0.7190722238
 40
1.0
 40
1.0
 40
1.0
 40
1.0
 10
29.119232991
 20
-19.0760227141
 30
0.0
 10
29.1074994878
 20
-19.115571781
 30
0.0
 10
29.0738370553
 20
-19.1940733739
 30
0.0
 10
28.9697566129
 20
-19.3408705871
 30
0.0
 10
28.7755958159
 20
-19.4938903621
 30
0.0
 10
28.4846301942
 20
-19.60839777
 30
0.0
 10
28.2687939038
 20
-19.6362569399
 30
0.0
 10
28.158104791
 20
-19.6376231302
 30
0.0
  0
SPLINE
  5
602
100
AcDbEntity
  8
ASSI
100
AcDbSpline
 62
250
  6
CONTINUOUS
 70
0
 71
3
 72
13
 73
9
 74
0
 42
0.0000001
 43
0.0000001
 44
0.0000000001
 40
0.0
 40
0.0
 40
0.0
 40
0.0
 40
0.1037157785
 40
0.2119730846
 40
0.326911093
 40
0.4495104117
 40
0.7153742512
 40
1.0
 40
1.0
 40
1.0
 40
1.0
 10
29.1369481834
 20
-19.0095285613
 30
0.0
 10
29.131631588
 20
-19.0530738158
 30
0.0
 10
29.1090069241
 20
-19.1410013458
 30
0.0
 10
29.0424761769
 20
-19.2635573551
 30
0.0
 10
28.9459116604
 20
-19.374788546
 30
0.0
 10
28.7775023479
 20
-19.5068144602
 30
0.0
 10
28.5120008561
 20
-19.6220643788
 30
0.0
 10
28.2784836436
 20
-19.6543951504
 30
0.0
 10
28.158104791
 20
-19.6558809378
 30
0.0
  0
SPLINE
  5
603
100
AcDbEntity
  8
ASSI
100
AcDbSpline
 62
250
  6
CONTINUOUS
 70
0
 71
3
 72
18
 73
14
 74
0
 42
0.0000001
 43
0.0000001
 44
0.0000000001
 40
0.0
 40
0.0
 40
0.0
 40
0.0
 40
0.0043029655
 40
0.0167129437
 40
0.0372630548
 40
0.0659091044
 40
0.1025980246
 40
0.1472702109
 40
0.2600998298
 40
0.4033098797
 40
0.575714323
 40
0.7754032742
 40
1.0
 40
1.0
 40
1.0
 40
1.0
 10
28.158104791
 20
-19.9487295476
 30
0.0
 10
28.1585248683
 20
-19.9487222151
 30
0.0
 10
28.1582853958
 20
-19.9462137837
 30
0.0
 10
28.1589626193
 20
-19.943422428
 30
0.0
 10
28.1589389787
 20
-19.9369370978
 30
0.0
 10
28.1592380733
 20
-19.9287615381
 30
0.0
 10
28.1593470405
 20
-19.9179411762
 30
0.0
 10
28.1595228363
 20
-19.8990189432
 30
0.0
 10
28.1595653873
 20
-19.8696326487
 30
0.0
 10
28.1594654071
 20
-19.8278100644
 30
0.0
 10
28.1591805156
 20
-19.7774928391
 30
0.0
 10
28.1587248789
 20
-19.7192350886
 30
0.0
 10
28.1583289682
 20
-19.6778094027
 30
0.0
 10
28.158104791
 20
-19.6558809378
 30
0.0
  0
SPLINE
  5
604
100
AcDbEntity
  8
0
100
AcDbSpline
 62
250
  6
CONTINUOUS
 70
0
 71
3
 72
19
 73
15
 74
0
 42
0.0000001
 43
0.0000001
 44
0.0000000001
 40
0.0
 40
0.0
 40
0.0
 40
0.0
 40
0.1815123459
 40
0.3567442887
 40
0.4444469834
 40
0.5327915734
 40
0.6226320824
 40
0.6685430334
 40
0.7153380486
 40
0.7523395529
 40
0.7887619738
 40
0.8602220603
 40
0.9304650535
 40
1.0
 40
1.0
 40
1.0
 40
1.0
 10
-6.4088830842
 20
-0.0643952555
 30
0.0
 10
-6.4088830842
 20
-0.4681122257
 30
0.0
 10
-6.248956778
 20
-1.27086763
 30
0.0
 10
-5.6796103699
 20
-2.1102044695
 30
0.0
 10
-5.0738362424
 20
-2.609863433
 30
0.0
 10
-4.5509881794
 20
-2.8940561431
 30
0.0
 10
-4.0716168093
 20
-3.0427876634
 30
0.0
 10
-3.6697350144
 20
-3.1040318707
 30
0.0
 10
-3.381120759
 20
-3.1185293587
 30
0.0
 10
-3.1137049766
 20
-3.1079118265
 30
0.0
 10
-2.7935193779
 20
-3.0694897753
 30
0.0
 10
-2.4067966791
 20
-2.9756779798
 30
0.0
 10
-1.9715064645
 20
-2.7944154436
 30
0.0
 10
-1.7049862652
 20
-2.631660954
 30
0.0
 10
-1.5794923451
 20
-2.5412964273
 30
0.0
  0
SPLINE
  5
605
100
AcDbEntity
  8
0
100
AcDbSpline
 62
250
  6
CONTINUOUS
 70
0
 71
3
 72
15
 73
11
 74
0
 42
0.0000001
 43
0.0000001
 44
0.0000000001
 40
0.0
 40
0.0
 40
0.0
 40
0.0
 40
0.0791654732
 40
0.1194853435
 40
0.160415553
 40
0.2692267831
 40
0.3748093685
 40
0.5807459632
 40
0.786682558
 40
1.0
 40
1.0
 40
1.0
 40
1.0
 10
-2.7608329008
 20
-2.0080715309
 30
0.0
 10
-2.8562871264
 20
-2.0374399104
 30
0.0
 10
-3.003948439
 20
-2.071129294
 30
0.0
 10
-3.2051790709
 20
-2.0938836568
 30
0.0
 10
-3.4449378341
 20
-2.1028944537
 30
0.0
 10
-3.7679464992
 20
-2.0705680152
 30
0.0
 10
-4.2771885301
 20
-1.912771365
 30
0.0
 10
-4.83303691
 20
-1.5376806644
 30
0.0
 10
-5.2852800194
 20
-0.8689440166
 30
0.0
 10
-5.3923719906
 20
-0.3335400007
 30
0.0
 10
-5.3923719906
 20
-0.0643952555
 30
0.0
  0
SPLINE
  5
606
100
AcDbEntity
  8
0
100
AcDbSpline
 62
250
  6
CONTINUOUS
 70
0
 71
3
 72
133
 73
129
 74
0
 42
0.0000001
 43
0.0000001
 44
0.0000000001
 40
0.0
 40
0.0
 40
0.0
 40
0.0
 40
0.015625
 40
0.03125
 40
0.0390625
 40
0.046875
 40
0.0546875
 40
0.05859375
 40
0.0625
 40
0.06640625
 40
0.0703125
 40
0.078125
 40
0.09375
 40
0.109375
 40
0.1171875
 40
0.12109375
 40
0.125
 40
0.12890625
 40
0.1328125
 40
0.140625
 40
0.15625
 40
0.171875
 40
0.1796875
 40
0.18359375
 40
0.1875
 40
0.19140625
 40
0.1953125
 40
0.203125
 40
0.21875
 40
0.234375
 40
0.2421875
 40
0.24609375
 40
0.25
 40
0.25390625
 40
0.2578125
 40
0.265625
 40
0.28125
 40
0.296875
 40
0.3046875
 40
0.30859375
 40
0.3125
 40
0.31640625
 40
0.3203125
 40
0.328125
 40
0.34375
 40
0.359375
 40
0.3671875
 40
0.37109375
 40
0.375
 40
0.37890625
 40
0.3828125
 40
0.390625
 40
0.40625
 40
0.421875
 40
0.4296875
 40
0.43359375
 40
0.4375
 40
0.44140625
 40
0.4453125
 40
0.453125
 40
0.46875
 40
0.484375
 40
0.4921875
 40
0.49609375
 40
0.5
 40
0.50390625
 40
0.5078125
 40
0.515625
 40
0.53125
 40
0.546875
 40
0.5546875
 40
0.55859375
 40
0.5625
 40
0.56640625
 40
0.5703125
 40
0.578125
 40
0.59375
 40
0.609375
 40
0.6171875
 40
0.62109375
 40
0.625
 40
0.62890625
 40
0.6328125
 40
0.640625
 40
0.65625
 40
0.671875
 40
0.6796875
 40
0.68359375
 40
0.6875
 40
0.69140625
 40
0.6953125
 40
0.703125
 40
0.71875
 40
0.734375
 40
0.7421875
 40
0.74609375
 40
0.75
 40
0.75390625
 40
0.7578125
 40
0.765625
 40
0.78125
 40
0.796875
 40
0.8046875
 40
0.80859375
 40
0.8125
 40
0.81640625
 40
0.8203125
 40
0.828125
 40
0.84375
 40
0.859375
 40
0.8671875
 40
0.87109375
 40
0.875
 40
0.87890625
 40
0.8828125
 40
0.890625
 40
0.90625
 40
0.921875
 40
0.9296875
 40
0.93359375
 40
0.9375
 40
0.94140625
 40
0.9453125
 40
0.953125
 40
0.9609375
 40
0.96875
 40
0.984375
 40
1.0
 40
1.0
 40
1.0
 40
1.0
 10
-3.3593486153
 20
0.4439371704
 30
0.0
 10
-3.3675753397
 20
0.4431304102
 30
0.0
 10
-3.3840289798
 20
0.4415178562
 30
0.0
 10
-3.4045950732
 20
0.4394973312
 30
0.0
 10
-3.4210499571
 20
0.4378910595
 30
0.0
 10
-3.4333856665
 20
0.4366588103
 30
0.0
 10
-3.4436827654
 20
0.4357195255
 30
0.0
 10
-3.4518815529
 20
0.4347716555
 30
0.0
 10
-3.4581369135
 20
0.4345975257
 30
0.0
 10
-3.4639866402
 20
0.4323745264
 30
0.0
 10
-3.4719278428
 20
0.4301253864
 30
0.0
 10
-3.4857582128
 20
0.4258544148
 30
0.0
 10
-3.505557019
 20
0.4199435344
 30
0.0
 10
-3.5253183995
 20
0.413908674
 30
0.0
 10
-3.5392011654
 20
0.4098112743
 30
0.0
 10
-3.5470600316
 20
0.4072893785
 30
0.0
 10
-3.5531623813
 20
0.4059032437
 30
0.0
 10
-3.5584690023
 20
0.4025862228
 30
0.0
 10
-3.565822156
 20
0.3988372277
 30
0.0
 10
-3.5785598065
 20
0.3919607438
 30
0.0
 10
-3.5968326717
 20
0.3823171867
 30
0.0
 10
-3.6150489714
 20
0.3725550781
 30
0.0
 10
-3.6278658135
 20
0.3658445664
 30
0.0
 10
-3.6350945232
 20
0.3618347578
 30
0.0
 10
-3.6407829609
 20
0.3593179601
 30
0.0
 10
-3.645451377
 20
0.3549265428
 30
0.0
 10
-3.6520318862
 20
0.3497253444
 30
0.0
 10
-3.6633803317
 20
0.3403171577
 30
0.0
 10
-3.6796928161
 20
0.327047922
 30
0.0
 10
-3.6959225666
 20
0.3136775897
 30
0.0
 10
-3.7073868397
 20
0.3044109383
 30
0.0
 10
-3.7137853341
 20
0.2989873272
 30
0.0
 10
-3.7190122049
 20
0.2952783122
 30
0.0
 10
-3.7226033349
 20
0.2901987149
 30
0.0
 10
-3.7279622435
 20
0.2839041079
 30
0.0
 10
-3.7370727058
 20
0.272664595
 30
0.0
 10
-3.7502413473
 20
0.2567345138
 30
0.0
 10
-3.7633049744
 20
0.2407255421
 30
0.0
 10
-3.7725624569
 20
0.2295964759
 30
0.0
 10
-3.7776903338
 20
0.2231283098
 30
0.0
 10
-3.7819903111
 20
0.2185812233
 30
0.0
 10
-3.7845550663
 20
0.2128723343
 30
0.0
 10
-3.7885801941
 20
0.205665812
 30
0.0
 10
-3.795340176
 20
0.192864745
 30
0.0
 10
-3.8051610554
 20
0.1746831163
 30
0.0
 10
-3.8148678219
 20
0.1564402916
 30
0.0
 10
-3.8217875618
 20
0.1437248992
 30
0.0
 10
-3.8255616414
 20
0.1363837454
 30
0.0
 10
-3.8288966582
 20
0.13108793
 30
0.0
 10
-3.8303038752
 20
0.1249895227
 30
0.0
 10
-3.8328528039
 20
0.117138326
 30
0.0
 10
-3.8369980151
 20
0.1032676665
 30
0.0
 10
-3.8431008959
 20
0.0835258069
 30
0.0
 10
-3.8490799631
 20
0.0637401226
 30
0.0
 10
-3.8533985135
 20
0.0499308177
 30
0.0
 10
-3.8556750521
 20
0.0419832066
 30
0.0
 10
-3.8579180113
 20
0.0361806163
 30
0.0
 10
-3.858114352
 20
0.0297738438
 30
0.0
 10
-3.8590902321
 20
0.0214422096
 30
0.0
 10
-3.8604632155
 20
0.0067638319
 30
0.0
 10
-3.8626165464
 20
-0.0141553601
 30
0.0
 10
-3.8646399003
 20
-0.0350875275
 30
0.0
 10
-3.8661948515
 20
-0.0497477396
 30
0.0
 10
-3.8668847821
 20
-0.0581079197
 30
0.0
 10
-3.8679584677
 20
-0.0644271082
 30
0.0
 10
-3.8669065094
 20
-0.0705586251
 30
0.0
 10
-3.8662455486
 20
-0.0787994822
 30
0.0
 10
-3.864741293
 20
-0.0931900689
 30
0.0
 10
-3.8627903759
 20
-0.1137673915
 30
0.0
 10
-3.8607094268
 20
-0.1343262304
 30
0.0
 10
-3.8593872159
 20
-0.1487426943
 30
0.0
 10
-3.8584401848
 20
-0.1569428873
 30
0.0
 10
-3.858265942
 20
-0.1631991693
 30
0.0
 10
-3.8560433185
 20
-0.1690497955
 30
0.0
 10
-3.853794509
 20
-0.1769922051
 30
0.0
 10
-3.8495241953
 20
-0.1908246835
 30
0.0
 10
-3.8436142109
 20
-0.2106265046
 30
0.0
 10
-3.837580271
 20
-0.2303908957
 30
0.0
 10
-3.8334834951
 20
-0.2442757762
 30
0.0
 10
-3.8309619834
 20
-0.2521358396
 30
0.0
 10
-3.8295760598
 20
-0.2582391188
 30
0.0
 10
-3.8262595441
 20
-0.2635465482
 30
0.0
 10
-3.8225111199
 20
-0.2709008219
 30
0.0
 10
-3.8156356833
 20
-0.2836404128
 30
0.0
 10
-3.8059935951
 20
-0.3019160614
 30
0.0
 10
-3.7962329733
 20
-0.3201351359
 30
0.0
 10
-3.7895234836
 20
-0.3329539305
 30
0.0
 10
-3.7855142857
 20
-0.3401837413
 30
0.0
 10
-3.7829978713
 20
-0.3458730455
 30
0.0
 10
-3.7786071229
 20
-0.3505421727
 30
0.0
 10
-3.7734067166
 20
-0.3571236843
 30
0.0
 10
-3.7639999628
 20
-0.3684738585
 30
0.0
 10
-3.7507327481
 20
-0.3847888278
 30
0.0
 10
-3.7373644521
 20
-0.4010210505
 30
0.0
 10
-3.7280992121
 20
-0.4124870699
 30
0.0
 10
-3.7226764271
 20
-0.4188865389
 30
0.0
 10
-3.718967977
 20
-0.424114206
 30
0.0
 10
-3.7138891533
 20
-0.427705883
 30
0.0
 10
-3.707595505
 20
-0.4330656079
 30
0.0
 10
-3.6963577039
 20
-0.442177458
 30
0.0
 10
-3.680430049
 20
-0.4553481055
 30
0.0
 10
-3.6644235155
 20
-0.4684137225
 30
0.0
 10
-3.6532961444
 20
-0.4776726152
 30
0.0
 10
-3.6468289634
 20
-0.4828012732
 30
0.0
 10
-3.6422825694
 20
-0.4871019055
 30
0.0
 10
-3.6365745499
 20
-0.4896670514
 30
0.0
 10
-3.6293691251
 20
-0.4936927924
 30
0.0
 10
-3.6165700078
 20
-0.500453804
 30
0.0
 10
-3.5983911483
 20
-0.5102761794
 30
0.0
 10
-3.5801511021
 20
-0.5199844245
 30
0.0
 10
-3.5674376463
 20
-0.5269052184
 30
0.0
 10
-3.5600976106
 20
-0.5306798729
 30
0.0
 10
-3.5548026018
 20
-0.5340153978
 30
0.0
 10
-3.5487051233
 20
-0.5354228291
 30
0.0
 10
-3.5408551224
 20
-0.5379721461
 30
0.0
 10
-3.5269865754
 20
-0.5421179886
 30
0.0
 10
-3.5072477231
 20
-0.5482218003
 30
0.0
 10
-3.4874650504
 20
-0.554201774
 30
0.0
 10
-3.4736578519
 20
-0.5585209898
 30
0.0
 10
-3.4657114462
 20
-0.5607978631
 30
0.0
 10
-3.4599097552
 20
-0.563041201
 30
0.0
 10
-3.4535039003
 20
-0.5632374322
 30
0.0
 10
-3.4451738027
 20
-0.564214155
 30
0.0
 10
-3.434688773
 20
-0.565189717
 30
0.0
 10
-3.4221377311
 20
-0.5664654084
 30
0.0
 10
-3.4053921785
 20
-0.5681296347
 30
0.0
 10
-3.3844639785
 20
-0.570222592
 30
0.0
 10
-3.3677202784
 20
-0.5718930951
 30
0.0
 10
-3.3593485709
 20
-0.5727288296
 30
0.0
  0
SPLINE
  5
607
100
AcDbEntity
  8
0
100
AcDbSpline
 62
250
  6
CONTINUOUS
 70
0
 71
3
 72
133
 73
129
 74
0
 42
0.0000001
 43
0.0000001
 44
0.0000000001
 40
0.0
 40
0.0
 40
0.0
 40
0.0
 40
0.015625
 40
0.03125
 40
0.0390625
 40
0.046875
 40
0.0546875
 40
0.05859375
 40
0.0625
 40
0.06640625
 40
0.0703125
 40
0.078125
 40
0.09375
 40
0.109375
 40
0.1171875
 40
0.12109375
 40
0.125
 40
0.12890625
 40
0.1328125
 40
0.140625
 40
0.15625
 40
0.171875
 40
0.1796875
 40
0.18359375
 40
0.1875
 40
0.19140625
 40
0.1953125
 40
0.203125
 40
0.21875
 40
0.234375
 40
0.2421875
 40
0.24609375
 40
0.25
 40
0.25390625
 40
0.2578125
 40
0.265625
 40
0.28125
 40
0.296875
 40
0.3046875
 40
0.30859375
 40
0.3125
 40
0.31640625
 40
0.3203125
 40
0.328125
 40
0.34375
 40
0.359375
 40
0.3671875
 40
0.37109375
 40
0.375
 40
0.37890625
 40
0.3828125
 40
0.390625
 40
0.40625
 40
0.421875
 40
0.4296875
 40
0.43359375
 40
0.4375
 40
0.44140625
 40
0.4453125
 40
0.453125
 40
0.46875
 40
0.484375
 40
0.4921875
 40
0.49609375
 40
0.5
 40
0.50390625
 40
0.5078125
 40
0.515625
 40
0.53125
 40
0.546875
 40
0.5546875
 40
0.55859375
 40
0.5625
 40
0.56640625
 40
0.5703125
 40
0.578125
 40
0.59375
 40
0.609375
 40
0.6171875
 40
0.62109375
 40
0.625
 40
0.62890625
 40
0.6328125
 40
0.640625
 40
0.65625
 40
0.671875
 40
0.6796875
 40
0.68359375
 40
0.6875
 40
0.69140625
 40
0.6953125
 40
0.703125
 40
0.71875
 40
0.734375
 40
0.7421875
 40
0.74609375
 40
0.75
 40
0.75390625
 40
0.7578125
 40
0.765625
 40
0.78125
 40
0.796875
 40
0.8046875
 40
0.80859375
 40
0.8125
 40
0.81640625
 40
0.8203125
 40
0.828125
 40
0.84375
 40
0.859375
 40
0.8671875
 40
0.87109375
 40
0.875
 40
0.87890625
 40
0.8828125
 40
0.890625
 40
0.90625
 40
0.921875
 40
0.9296875
 40
0.93359375
 40
0.9375
 40
0.94140625
 40
0.9453125
 40
0.953125
 40
0.9609375
 40
0.96875
 40
0.984375
 40
1.0
 40
1.0
 40
1.0
 40
1.0
 10
-3.3593486153
 20
-0.5727288296
 30
0.0
 10
-3.3511218909
 20
-0.5719220693
 30
0.0
 10
-3.3346682508
 20
-0.5703095153
 30
0.0
 10
-3.3141021575
 20
-0.5682889903
 30
0.0
 10
-3.2976472736
 20
-0.5666827186
 30
0.0
 10
-3.2853115641
 20
-0.5654504694
 30
0.0
 10
-3.2750144653
 20
-0.5645111846
 30
0.0
 10
-3.2668156777
 20
-0.5635633146
 30
0.0
 10
-3.2605603172
 20
-0.5633891848
 30
0.0
 10
-3.2547105904
 20
-0.5611661855
 30
0.0
 10
-3.2467693878
 20
-0.5589170456
 30
0.0
 10
-3.2329390178
 20
-0.5546460739
 30
0.0
 10
-3.2131402117
 20
-0.5487351935
 30
0.0
 10
-3.1933788311
 20
-0.5427003332
 30
0.0
 10
-3.1794960653
 20
-0.5386029334
 30
0.0
 10
-3.171637199
 20
-0.5360810376
 30
0.0
 10
-3.1655348493
 20
-0.5346949028
 30
0.0
 10
-3.1602282283
 20
-0.5313778819
 30
0.0
 10
-3.1528750747
 20
-0.5276288868
 30
0.0
 10
-3.1401374241
 20
-0.5207524029
 30
0.0
 10
-3.121864559
 20
-0.5111088459
 30
0.0
 10
-3.1036482593
 20
-0.5013467373
 30
0.0
 10
-3.0908314171
 20
-0.4946362255
 30
0.0
 10
-3.0836027074
 20
-0.490626417
 30
0.0
 10
-3.0779142698
 20
-0.4881096192
 30
0.0
 10
-3.0732458537
 20
-0.4837182019
 30
0.0
 10
-3.0666653444
 20
-0.4785170035
 30
0.0
 10
-3.055316899
 20
-0.4691088168
 30
0.0
 10
-3.0390044145
 20
-0.4558395811
 30
0.0
 10
-3.0227746641
 20
-0.4424692488
 30
0.0
 10
-3.0113103909
 20
-0.4332025974
 30
0.0
 10
-3.0049118966
 20
-0.4277789864
 30
0.0
 10
-2.9996850258
 20
-0.4240699714
 30
0.0
 10
-2.9960938958
 20
-0.418990374
 30
0.0
 10
-2.9907349872
 20
-0.412695767
 30
0.0
 10
-2.9816245249
 20
-0.4014562541
 30
0.0
 10
-2.9684558834
 20
-0.3855261729
 30
0.0
 10
-2.9553922562
 20
-0.3695172012
 30
0.0
 10
-2.9461347738
 20
-0.3583881351
 30
0.0
 10
-2.9410068969
 20
-0.3519199689
 30
0.0
 10
-2.9367069195
 20
-0.3473728824
 30
0.0
 10
-2.9341421643
 20
-0.3416639934
 30
0.0
 10
-2.9301170365
 20
-0.3344574711
 30
0.0
 10
-2.9233570546
 20
-0.3216564041
 30
0.0
 10
-2.9135361753
 20
-0.3034747755
 30
0.0
 10
-2.9038294087
 20
-0.2852319508
 30
0.0
 10
-2.8969096689
 20
-0.2725165583
 30
0.0
 10
-2.8931355893
 20
-0.2651754046
 30
0.0
 10
-2.8898005724
 20
-0.2598795891
 30
0.0
 10
-2.8883933555
 20
-0.2537811818
 30
0.0
 10
-2.8858444268
 20
-0.2459299852
 30
0.0
 10
-2.8816992156
 20
-0.2320593257
 30
0.0
 10
-2.8755963347
 20
-0.212317466
 30
0.0
 10
-2.8696172675
 20
-0.1925317817
 30
0.0
 10
-2.8652987172
 20
-0.1787224768
 30
0.0
 10
-2.8630221785
 20
-0.1707748657
 30
0.0
 10
-2.8607792194
 20
-0.1649722754
 30
0.0
 10
-2.8605828787
 20
-0.1585655029
 30
0.0
 10
-2.8596069985
 20
-0.1502338687
 30
0.0
 10
-2.8582340152
 20
-0.135555491
 30
0.0
 10
-2.8560806843
 20
-0.114636299
 30
0.0
 10
-2.8540573304
 20
-0.0937041317
 30
0.0
 10
-2.8525023792
 20
-0.0790439195
 30
0.0
 10
-2.8518124485
 20
-0.0706837394
 30
0.0
 10
-2.8507387629
 20
-0.064364551
 30
0.0
 10
-2.8517907212
 20
-0.0582330341
 30
0.0
 10
-2.852451682
 20
-0.0499921769
 30
0.0
 10
-2.8539559377
 20
-0.0356015902
 30
0.0
 10
-2.8559068548
 20
-0.0150242676
 30
0.0
 10
-2.8579878038
 20
0.0055345713
 30
0.0
 10
-2.8593100148
 20
0.0199510352
 30
0.0
 10
-2.8602570458
 20
0.0281512282
 30
0.0
 10
-2.8604312887
 20
0.0344075102
 30
0.0
 10
-2.8626539122
 20
0.0402581364
 30
0.0
 10
-2.8649027217
 20
0.0482005459
 30
0.0
 10
-2.8691730353
 20
0.0620330244
 30
0.0
 10
-2.8750830197
 20
0.0818348455
 30
0.0
 10
-2.8811169597
 20
0.1015992365
 30
0.0
 10
-2.8852137356
 20
0.1154841171
 30
0.0
 10
-2.8877352472
 20
0.1233441804
 30
0.0
 10
-2.8891211709
 20
0.1294474597
 30
0.0
 10
-2.8924376866
 20
0.1347548891
 30
0.0
 10
-2.8961861107
 20
0.1421091628
 30
0.0
 10
-2.9030615473
 20
0.1548487536
 30
0.0
 10
-2.9127036356
 20
0.1731244023
 30
0.0
 10
-2.9224642574
 20
0.1913434768
 30
0.0
 10
-2.9291737471
 20
0.2041622713
 30
0.0
 10
-2.9331829449
 20
0.2113920822
 30
0.0
 10
-2.9356993594
 20
0.2170813863
 30
0.0
 10
-2.9400901078
 20
0.2217505136
 30
0.0
 10
-2.9452905141
 20
0.2283320252
 30
0.0
 10
-2.9546972678
 20
0.2396821993
 30
0.0
 10
-2.9679644826
 20
0.2559971687
 30
0.0
 10
-2.9813327785
 20
0.2722293914
 30
0.0
 10
-2.9905980185
 20
0.2836954108
 30
0.0
 10
-2.9960208036
 20
0.2900948798
 30
0.0
 10
-2.9997292536
 20
0.2953225468
 30
0.0
 10
-3.0048080773
 20
0.2989142239
 30
0.0
 10
-3.0111017257
 20
0.3042739488
 30
0.0
 10
-3.0223395267
 20
0.3133857988
 30
0.0
 10
-3.0382671817
 20
0.3265564463
 30
0.0
 10
-3.0542737151
 20
0.3396220634
 30
0.0
 10
-3.0654010863
 20
0.348880956
 30
0.0
 10
-3.0718682673
 20
0.354009614
 30
0.0
 10
-3.0764146612
 20
0.3583102464
 30
0.0
 10
-3.0821226808
 20
0.3608753923
 30
0.0
 10
-3.0893281055
 20
0.3649011333
 30
0.0
 10
-3.1021272228
 20
0.3716621449
 30
0.0
 10
-3.1203060823
 20
0.3814845202
 30
0.0
 10
-3.1385461285
 20
0.3911927654
 30
0.0
 10
-3.1512595844
 20
0.3981135593
 30
0.0
 10
-3.15859962
 20
0.4018882138
 30
0.0
 10
-3.1638946289
 20
0.4052237387
 30
0.0
 10
-3.1699921073
 20
0.40663117
 30
0.0
 10
-3.1778421082
 20
0.4091804869
 30
0.0
 10
-3.1917106552
 20
0.4133263295
 30
0.0
 10
-3.2114495076
 20
0.4194301412
 30
0.0
 10
-3.2312321803
 20
0.4254101149
 30
0.0
 10
-3.2450393788
 20
0.4297293306
 30
0.0
 10
-3.2529857844
 20
0.432006204
 30
0.0
 10
-3.2587874755
 20
0.4342495419
 30
0.0
 10
-3.2651933304
 20
0.4344457731
 30
0.0
 10
-3.273523428
 20
0.4354224958
 30
0.0
 10
-3.2840084577
 20
0.4363980579
 30
0.0
 10
-3.2965594996
 20
0.4376737493
 30
0.0
 10
-3.3133050521
 20
0.4393379755
 30
0.0
 10
-3.3342332522
 20
0.4414309329
 30
0.0
 10
-3.3509769522
 20
0.443101436
 30
0.0
 10
-3.3593486598
 20
0.4439371704
 30
0.0
  0
SPLINE
  5
608
100
AcDbEntity
  8
CURVE
100
AcDbSpline
 62
250
  6
CONTINUOUS
 70
0
 71
3
 72
131
 73
127
 74
0
 42
0.0000001
 43
0.0000001
 44
0.0000000001
 40
0.0
 40
0.0
 40
0.0
 40
0.0
 40
0.015625
 40
0.03125
 40
0.046875
 40
0.0546875
 40
0.05859375
 40
0.0625
 40
0.06640625
 40
0.0703125
 40
0.078125
 40
0.09375
 40
0.109375
 40
0.1171875
 40
0.12109375
 40
0.125
 40
0.12890625
 40
0.1328125
 40
0.140625
 40
0.15625
 40
0.171875
 40
0.1796875
 40
0.18359375
 40
0.1875
 40
0.19140625
 40
0.1953125
 40
0.203125
 40
0.21875
 40
0.234375
 40
0.2421875
 40
0.24609375
 40
0.25
 40
0.25390625
 40
0.2578125
 40
0.265625
 40
0.28125
 40
0.296875
 40
0.3046875
 40
0.30859375
 40
0.3125
 40
0.31640625
 40
0.3203125
 40
0.328125
 40
0.34375
 40
0.359375
 40
0.3671875
 40
0.37109375
 40
0.375
 40
0.37890625
 40
0.3828125
 40
0.390625
 40
0.40625
 40
0.421875
 40
0.4296875
 40
0.43359375
 40
0.4375
 40
0.44140625
 40
0.4453125
 40
0.453125
 40
0.46875
 40
0.484375
 40
0.4921875
 40
0.49609375
 40
0.5
 40
0.50390625
 40
0.5078125
 40
0.515625
 40
0.53125
 40
0.546875
 40
0.5546875
 40
0.55859375
 40
0.5625
 40
0.56640625
 40
0.5703125
 40
0.578125
 40
0.59375
 40
0.609375
 40
0.6171875
 40
0.62109375
 40
0.625
 40
0.62890625
 40
0.6328125
 40
0.640625
 40
0.65625
 40
0.671875
 40
0.6796875
 40
0.68359375
 40
0.6875
 40
0.69140625
 40
0.6953125
 40
0.703125
 40
0.71875
 40
0.734375
 40
0.7421875
 40
0.74609375
 40
0.75
 40
0.75390625
 40
0.7578125
 40
0.765625
 40
0.78125
 40
0.796875
 40
0.8046875
 40
0.80859375
 40
0.8125
 40
0.81640625
 40
0.8203125
 40
0.828125
 40
0.84375
 40
0.859375
 40
0.8671875
 40
0.87109375
 40
0.875
 40
0.87890625
 40
0.8828125
 40
0.890625
 40
0.90625
 40
0.921875
 40
0.9296875
 40
0.93359375
 40
0.9375
 40
0.94140625
 40
0.9453125
 40
0.953125
 40
0.96875
 40
0.984375
 40
1.0
 40
1.0
 40
1.0
 40
1.0
 10
-6.4169871105
 20
-5.5075918296
 30
0.0
 10
-6.4175470468
 20
-5.5018802875
 30
0.0
 10
-6.4186693992
 20
-5.4904576946
 30
0.0
 10
-6.4203380489
 20
-5.4733208585
 30
0.0
 10
-6.4217719873
 20
-5.4590487562
 30
0.0
 10
-6.4226911199
 20
-5.4490415255
 30
0.0
 10
-6.4233483897
 20
-5.4433492594
 30
0.0
 10
-6.4234693669
 20
-5.4390063939
 30
0.0
 10
-6.4250122192
 20
-5.4349451162
 30
0.0
 10
-6.4265732574
 20
-5.4294318045
 30
0.0
 10
-6.4295375417
 20
-5.4198298358
 30
0.0
 10
-6.4336400238
 20
-5.4060841817
 30
0.0
 10
-6.4378285501
 20
-5.3923645101
 30
0.0
 10
-6.4406723726
 20
-5.382726166
 30
0.0
 10
-6.4424227079
 20
-5.3772700156
 30
0.0
 10
-6.4433847622
 20
-5.3730333565
 30
0.0
 10
-6.4456869585
 20
-5.3693491455
 30
0.0
 10
-6.4482889687
 20
-5.3642440947
 30
0.0
 10
-6.4530616294
 20
-5.3554007661
 30
0.0
 10
-6.4597547921
 20
-5.3427145216
 30
0.0
 10
-6.4665302362
 20
-5.3300675485
 30
0.0
 10
-6.471187703
 20
-5.3211692399
 30
0.0
 10
-6.4739707322
 20
-5.3161505864
 30
0.0
 10
-6.4757175293
 20
-5.3122012927
 30
0.0
 10
-6.4787654161
 20
-5.3089601661
 30
0.0
 10
-6.4823753359
 20
-5.3043915367
 30
0.0
 10
-6.4889051385
 20
-5.2965126872
 30
0.0
 10
-6.498114723
 20
-5.28518747
 30
0.0
 10
-6.5073944742
 20
-5.2739196922
 30
0.0
 10
-6.5138260435
 20
-5.2659604274
 30
0.0
 10
-6.51759033
 20
-5.2615181649
 30
0.0
 10
-6.5201645918
 20
-5.2578893218
 30
0.0
 10
-6.5236901137
 20
-5.2553961193
 30
0.0
 10
-6.5280589197
 20
-5.2516756066
 30
0.0
 10
-6.5358597641
 20
-5.2453505147
 30
0.0
 10
-6.5469161228
 20
-5.2362079634
 30
0.0
 10
-6.5580272358
 20
-5.2271383202
 30
0.0
 10
-6.5657514241
 20
-5.220711157
 30
0.0
 10
-6.5702406897
 20
-5.217151042
 30
0.0
 10
-6.5733966196
 20
-5.2141657103
 30
0.0
 10
-6.5773589047
 20
-5.2123850858
 30
0.0
 10
-6.5823606304
 20
-5.2095905729
 30
0.0
 10
-6.5912452799
 20
-5.2048973416
 30
0.0
 10
-6.6038643372
 20
-5.1980790306
 30
0.0
 10
-6.6165258679
 20
-5.1913399444
 30
0.0
 10
-6.6253510546
 20
-5.1865357984
 30
0.0
 10
-6.6304462219
 20
-5.18391558
 30
0.0
 10
-6.6341218111
 20
-5.1816001884
 30
0.0
 10
-6.6383544435
 20
-5.1806232043
 30
0.0
 10
-6.6438036089
 20
-5.1788535676
 30
0.0
 10
-6.6534306148
 20
-5.1759756848
 30
0.0
 10
-6.6671325588
 20
-5.171738657
 30
0.0
 10
-6.6808649196
 20
-5.1675875888
 30
0.0
 10
-6.6904493421
 20
-5.1645893625
 30
0.0
 10
-6.6959654244
 20
-5.1630088372
 30
0.0
 10
-6.6999927434
 20
-5.161451625
 30
0.0
 10
-6.7044393984
 20
-5.1613153121
 30
0.0
 10
-6.710222014
 20
-5.1606377909
 30
0.0
 10
-6.7204096211
 20
-5.1596845741
 30
0.0
 10
-6.734928699
 20
-5.1581895878
 30
0.0
 10
-6.7494567825
 20
-5.1567848403
 30
0.0
 10
-6.7596317817
 20
-5.1557052892
 30
0.0
 10
-6.7654342097
 20
-5.1552262932
 30
0.0
 10
-6.7698200765
 20
-5.1544808689
 30
0.0
 10
-6.7740756889
 20
-5.1552112087
 30
0.0
 10
-6.7797953002
 20
-5.1556700918
 30
0.0
 10
-6.7897831644
 20
-5.1567144467
 30
0.0
 10
-6.804064966
 20
-5.1580689037
 30
0.0
 10
-6.8183339389
 20
-5.1595136377
 30
0.0
 10
-6.8283397633
 20
-5.1604316049
 30
0.0
 10
-6.8340311514
 20
-5.1610890972
 30
0.0
 10
-6.8383733576
 20
-5.1612100682
 30
0.0
 10
-6.8424340163
 20
-5.162753162
 30
0.0
 10
-6.8479464884
 20
-5.1643144359
 30
0.0
 10
-6.8575469946
 20
-5.1672791731
 30
0.0
 10
-6.8712905552
 20
-5.1713822794
 30
0.0
 10
-6.8850081373
 20
-5.1755714439
 30
0.0
 10
-6.8946450134
 20
-5.1784156996
 30
0.0
 10
-6.9001003327
 20
-5.1801663016
 30
0.0
 10
-6.9043363466
 20
-5.1811285024
 30
0.0
 10
-6.9080199965
 20
-5.1834310493
 30
0.0
 10
-6.9131242698
 20
-5.1860334559
 30
0.0
 10
-6.9219662515
 20
-5.1908068437
 30
0.0
 10
-6.9346505638
 20
-5.1975010259
 30
0.0
 10
-6.9472956107
 20
-5.2042775021
 30
0.0
 10
-6.9561925641
 20
-5.2089356783
 30
0.0
 10
-6.9612104532
 20
-5.2117191315
 30
0.0
 10
-6.9651591454
 20
-5.2134661946
 30
0.0
 10
-6.9683997783
 20
-5.2165145457
 30
0.0
 10
-6.9729677119
 20
-5.2201250154
 30
0.0
 10
-6.9808453614
 20
-5.2266558127
 30
0.0
 10
-6.9921688538
 20
-5.2358668001
 30
0.0
 10
-7.0034349154
 20
-5.2451479649
 30
0.0
 10
-7.0113929679
 20
-5.2515805139
 30
0.0
 10
-7.0158345539
 20
-5.2553453738
 30
0.0
 10
-7.0194628443
 20
-5.2579200277
 30
0.0
 10
-7.0219556671
 20
-5.2614460867
 30
0.0
 10
-7.0256756131
 20
-5.2658155581
 30
0.0
 10
-7.0319997417
 20
-5.2736175908
 30
0.0
 10
-7.0411409005
 20
-5.2846756337
 30
0.0
 10
-7.0502091624
 20
-5.2957884392
 30
0.0
 10
-7.0566353467
 20
-5.3035138042
 30
0.0
 10
-7.0601949195
 20
-5.3080037536
 30
0.0
 10
-7.0631797965
 20
-5.3111601642
 30
0.0
 10
-7.0649601498
 20
-5.3151230529
 30
0.0
 10
-7.067754237
 20
-5.3201255405
 30
0.0
 10
-7.0724467536
 20
-5.3290115434
 30
0.0
 10
-7.0792640261
 20
-5.3416325229
 30
0.0
 10
-7.086002086
 20
-5.3542959823
 30
0.0
 10
-7.0908055002
 20
-5.3631225133
 30
0.0
 10
-7.0934253195
 20
-5.3682184567
 30
0.0
 10
-7.0957403585
 20
-5.3718946059
 30
0.0
 10
-7.0967171938
 20
-5.376127883
 30
0.0
 10
-7.098486561
 20
-5.3815778784
 30
0.0
 10
-7.1013640054
 20
-5.3912063509
 30
0.0
 10
-7.1056003878
 20
-5.404910382
 30
0.0
 10
-7.1097508245
 20
-5.4186448348
 30
0.0
 10
-7.1127485928
 20
-5.428230717
 30
0.0
 10
-7.1143288796
 20
-5.4337476399
 30
0.0
 10
-7.115885848
 20
-5.4377755712
 30
0.0
 10
-7.1160221647
 20
-5.4422229081
 30
0.0
 10
-7.1166994604
 20
-5.448006397
 30
0.0
 10
-7.1176538372
 20
-5.4581956663
 30
0.0
 10
-7.1191380205
 20
-5.4727161061
 30
0.0
 10
-7.1208670088
 20
-5.4901559948
 30
0.0
 10
-7.1220295784
 20
-5.5017796614
 30
0.0
 10
-7.1226096244
 20
-5.5075918604
 30
0.0
  0
SPLINE
  5
609
100
AcDbEntity
  8
CURVE
100
AcDbSpline
 62
250
  6
CONTINUOUS
 70
0
 71
3
 72
146
 73
142
 74
0
 42
0.0000001
 43
0.0000001
 44
0.0000000001
 40
0.0
 40
0.0
 40
0.0
 40
0.0
 40
0.03125
 40
0.046875
 40
0.0546875
 40
0.0625
 40
0.0703125
 40
0.078125
 40
0.08203125
 40
0.0859375
 40
0.09375
 40
0.1015625
 40
0.109375
 40
0.125
 40
0.140625
 40
0.1484375
 40
0.15234375
 40
0.154296875
 40
0.15625
 40
0.16015625
 40
0.1640625
 40
0.171875
 40
0.1796875
 40
0.1875
 40
0.203125
 40
0.21875
 40
0.22265625
 40
0.2265625
 40
0.228515625
 40
0.23046875
 40
0.232421875
 40
0.234375
 40
0.23828125
 40
0.2421875
 40
0.25
 40
0.2578125
 40
0.265625
 40
0.28125
 40
0.2890625
 40
0.296875
 40
0.30078125
 40
0.3046875
 40
0.30859375
 40
0.310546875
 40
0.3125
 40
0.31640625
 40
0.3203125
 40
0.328125
 40
0.34375
 40
0.359375
 40
0.3671875
 40
0.375
 40
0.37890625
 40
0.3828125
 40
0.384765625
 40
0.38671875
 40
0.390625
 40
0.3984375
 40
0.40625
 40
0.421875
 40
0.4375
 40
0.4453125
 40
0.453125
 40
0.45703125
 40
0.458984375
 40
0.4609375
 40
0.46484375
 40
0.46875
 40
0.4765625
 40
0.484375
 40
0.5
 40
0.515625
 40
0.5234375
 40
0.53125
 40
0.53515625
 40
0.5390625
 40
0.541015625
 40
0.54296875
 40
0.546875
 40
0.5546875
 40
0.5625
 40
0.578125
 40
0.59375
 40
0.6015625
 40
0.609375
 40
0.61328125
 40
0.615234375
 40
0.6171875
 40
0.62109375
 40
0.625
 40
0.6328125
 40
0.640625
 40
0.65625
 40
0.671875
 40
0.6796875
 40
0.68359375
 40
0.6875
 40
0.689453125
 40
0.69140625
 40
0.6953125
 40
0.69921875
 40
0.703125
 40
0.7109375
 40
0.71875
 40
0.734375
 40
0.7421875
 40
0.75
 40
0.7578125
 40
0.76171875
 40
0.765625
 40
0.767578125
 40
0.76953125
 40
0.771484375
 40
0.7734375
 40
0.77734375
 40
0.78125
 40
0.796875
 40
0.8125
 40
0.8203125
 40
0.828125
 40
0.8359375
 40
0.83984375
 40
0.84375
 40
0.845703125
 40
0.84765625
 40
0.8515625
 40
0.859375
 40
0.875
 40
0.890625
 40
0.8984375
 40
0.90625
 40
0.9140625
 40
0.91796875
 40
0.921875
 40
0.9296875
 40
0.9375
 40
0.9453125
 40
0.953125
 40
0.96875
 40
0.984375
 40
1.0
 40
1.0
 40
1.0
 40
1.0
 10
-5.9502852023
 20
-5.0818208296
 30
0.0
 10
-5.9624296433
 20
-5.0597658619
 30
0.0
 10
-5.9806503566
 20
-5.0266862314
 30
0.0
 10
-6.0018936739
 20
-4.9880834554
 30
0.0
 10
-6.0140529718
 20
-4.9660388316
 30
0.0
 10
-6.0231157189
 20
-4.949465869
 30
0.0
 10
-6.0323952416
 20
-4.9330438327
 30
0.0
 10
-6.0394528635
 20
-4.9188886269
 30
0.0
 10
-6.0481065038
 20
-4.9096584123
 30
0.0
 10
-6.0562348598
 20
-4.9000624781
 30
0.0
 10
-6.066575509
 20
-4.8881930203
 30
0.0
 10
-6.0789072342
 20
-4.8738960428
 30
0.0
 10
-6.095376053
 20
-4.8548517749
 30
0.0
 10
-6.1159558214
 20
-4.8310427442
 30
0.0
 10
-6.1365274619
 20
-4.8072255361
 30
0.0
 10
-6.1509490575
 20
-4.79057325
 30
0.0
 10
-6.158129818
 20
-4.7822196141
 30
0.0
 10
-6.1622815383
 20
-4.7774904157
 30
0.0
 10
-6.1676217365
 20
-4.7738485396
 30
0.0
 10
-6.1738900473
 20
-4.7689238929
 30
0.0
 10
-6.1841467848
 20
-4.7612525434
 30
0.0
 10
-6.1968896529
 20
-4.7515919232
 30
0.0
 10
-6.2122145927
 20
-4.7400299314
 30
0.0
 10
-6.2326357037
 20
-4.7246023207
 30
0.0
 10
-6.2581694133
 20
-4.705328088
 30
0.0
 10
-6.2811370564
 20
-4.6879573426
 30
0.0
 10
-6.2964663173
 20
-4.6764115987
 30
0.0
 10
-6.3028278712
 20
-4.6715495992
 30
0.0
 10
-6.307976896
 20
-4.6677795791
 30
0.0
 10
-6.3116747024
 20
-4.6646240894
 30
0.0
 10
-6.3159984667
 20
-4.6627207085
 30
0.0
 10
-6.321689943
 20
-4.6600357594
 30
0.0
 10
-6.3288294694
 20
-4.6567299427
 30
0.0
 10
-6.3402386383
 20
-4.6514124853
 30
0.0
 10
-6.3545049254
 20
-4.6447753158
 30
0.0
 10
-6.3716224156
 20
-4.6368066073
 30
0.0
 10
-6.3944463967
 20
-4.6261829647
 30
0.0
 10
-6.4172705216
 20
-4.6155597203
 30
0.0
 10
-6.4400937193
 20
-4.6049343048
 30
0.0
 10
-6.4543604162
 20
-4.598298516
 30
0.0
 10
-6.4657687294
 20
-4.5929781976
 30
0.0
 10
-6.4743387781
 20
-4.5890199631
 30
0.0
 10
-6.4814365413
 20
-4.5856196233
 30
0.0
 10
-6.4877655283
 20
-4.5844070901
 30
0.0
 10
-6.4939808646
 20
-4.5829312474
 30
0.0
 10
-6.501788944
 20
-4.5811765926
 30
0.0
 10
-6.5142601551
 20
-4.578318813
 30
0.0
 10
-6.5360949021
 20
-4.5733413506
 30
0.0
 10
-6.5672820249
 20
-4.5662167046
 30
0.0
 10
-6.5984713487
 20
-4.5591029494
 30
0.0
 10
-6.6234218235
 20
-4.5533969957
 30
0.0
 10
-6.6390172305
 20
-4.5498627031
 30
0.0
 10
-6.6514905374
 20
-4.5469623779
 30
0.0
 10
-6.6592932209
 20
-4.5453159384
 30
0.0
 10
-6.6655196423
 20
-4.5436179766
 30
0.0
 10
-6.6718290256
 20
-4.5439290574
 30
0.0
 10
-6.6828317978
 20
-4.5435375249
 30
0.0
 10
-6.6985702097
 20
-4.5434664874
 30
0.0
 10
-6.7237403938
 20
-4.5430800815
 30
0.0
 10
-6.7552070218
 20
-4.5426894896
 30
0.0
 10
-6.7866721517
 20
-4.5422701679
 30
0.0
 10
-6.8118447329
 20
-4.5419297298
 30
0.0
 10
-6.827577152
 20
-4.5417437728
 30
0.0
 10
-6.8385906738
 20
-4.541558377
 30
0.0
 10
-6.8448828279
 20
-4.5415390646
 30
0.0
 10
-6.851179814
 20
-4.5411942785
 30
0.0
 10
-6.8590164155
 20
-4.543096063
 30
0.0
 10
-6.8715647033
 20
-4.5454841433
 30
0.0
 10
-6.8872466983
 20
-4.5486935288
 30
0.0
 10
-6.9123399746
 20
-4.5537026704
 30
0.0
 10
-6.9437043967
 20
-4.5600110213
 30
0.0
 10
-6.9750749064
 20
-4.5662890203
 30
0.0
 10
-7.0001584425
 20
-4.5713467251
 30
0.0
 10
-7.0158647878
 20
-4.5744347025
 30
0.0
 10
-7.0283631574
 20
-4.5770716694
 30
0.0
 10
-7.0363268375
 20
-4.5783398552
 30
0.0
 10
-7.0420037015
 20
-4.5810869244
 30
0.0
 10
-7.0478016151
 20
-4.5835318364
 30
0.0
 10
-7.0578915827
 20
-4.5879511717
 30
0.0
 10
-7.0723351532
 20
-4.5941912607
 30
0.0
 10
-7.0954289761
 20
-4.6042152648
 30
0.0
 10
-7.124298105
 20
-4.6167392955
 30
0.0
 10
-7.1531796949
 20
-4.6292373969
 30
0.0
 10
-7.1762535803
 20
-4.6393028878
 30
0.0
 10
-7.1907469946
 20
-4.6454392598
 30
0.0
 10
-7.2007475548
 20
-4.6500446375
 30
0.0
 10
-7.2066887696
 20
-4.652191363
 30
0.0
 10
-7.211778722
 20
-4.6561597001
 30
0.0
 10
-7.2183428567
 20
-4.6606885179
 30
0.0
 10
-7.2287327532
 20
-4.6681758295
 30
0.0
 10
-7.2417587404
 20
-4.6774523596
 30
0.0
 10
-7.2625786121
 20
-4.6923411016
 30
0.0
 10
-7.2886117931
 20
-4.7109352625
 30
0.0
 10
-7.3146387436
 20
-4.7295386226
 30
0.0
 10
-7.3328648541
 20
-4.742553393
 30
0.0
 10
-7.3432692232
 20
-4.7500006421
 30
0.0
 10
-7.3497966068
 20
-4.7546313844
 30
0.0
 10
-7.3549619845
 20
-4.7583905109
 30
0.0
 10
-7.3603337566
 20
-4.7619505376
 30
0.0
 10
-7.3655711754
 20
-4.7678256536
 30
0.0
 10
-7.3719518432
 20
-4.7747834124
 30
0.0
 10
-7.3804259518
 20
-4.7840926905
 30
0.0
 10
-7.3910300383
 20
-4.7957182411
 30
0.0
 10
-7.4079901883
 20
-4.81432529
 30
0.0
 10
-7.424952026
 20
-4.832930682
 30
0.0
 10
-7.441913592
 20
-4.8515364186
 30
0.0
 10
-7.4546338937
 20
-4.8654913443
 30
0.0
 10
-7.4652371677
 20
-4.8771182282
 30
0.0
 10
-7.4737129692
 20
-4.8864247536
 30
0.0
 10
-7.4790258781
 20
-4.8922298965
 30
0.0
 10
-7.4832406306
 20
-4.8969002016
 30
0.0
 10
-7.4864990988
 20
-4.9003312194
 30
0.0
 10
-7.4886521648
 20
-4.9045760598
 30
0.0
 10
-7.4919089817
 20
-4.9099516191
 30
0.0
 10
-7.4958480411
 20
-4.9167682209
 30
0.0
 10
-7.5054104299
 20
-4.933048083
 30
0.0
 10
-7.51970786
 20
-4.9575017781
 30
0.0
 10
-7.5356179412
 20
-4.9846551788
 30
0.0
 10
-7.5483375215
 20
-5.0063834293
 30
0.0
 10
-7.5578882321
 20
-5.0226734503
 30
0.0
 10
-7.5658139417
 20
-5.0362667198
 30
0.0
 10
-7.5722287148
 20
-5.0471006142
 30
0.0
 10
-7.5760690425
 20
-5.0539644751
 30
0.0
 10
-7.5795281263
 20
-5.0592433195
 30
0.0
 10
-7.5815750482
 20
-5.0652969999
 30
0.0
 10
-7.5850564611
 20
-5.0759461978
 30
0.0
 10
-7.5920906632
 20
-5.0972053822
 30
0.0
 10
-7.6021031565
 20
-5.127595988
 30
0.0
 10
-7.6121251624
 20
-5.1579799131
 30
0.0
 10
-7.6201490303
 20
-5.182286813
 30
0.0
 10
-7.6261424343
 20
-5.2005217168
 30
0.0
 10
-7.6312159845
 20
-5.2157018071
 30
0.0
 10
-7.6350973605
 20
-5.2278811058
 30
0.0
 10
-7.6396253559
 20
-5.239932029
 30
0.0
 10
-7.6406575343
 20
-5.2559144661
 30
0.0
 10
-7.6428937193
 20
-5.2748953381
 30
0.0
 10
-7.6448630319
 20
-5.2939291935
 30
0.0
 10
-7.6475820069
 20
-5.3192891591
 30
0.0
 10
-7.6509487206
 20
-5.3509954701
 30
0.0
 10
-7.6550025638
 20
-5.3890403062
 30
0.0
 10
-7.6577024999
 20
-5.4144040516
 30
0.0
 10
-7.6590527962
 20
-5.4270858592
 30
0.0
  0
SPLINE
  5
60A
100
AcDbEntity
  8
CURVE
100
AcDbSpline
 62
250
  6
CONTINUOUS
 70
0
 71
3
 72
12
 73
8
 74
0
 42
0.0000001
 43
0.0000001
 44
0.0000000001
 40
0.0
 40
0.0
 40
0.0
 40
0.0
 40
0.1701568743
 40
0.3687042076
 40
0.5372569999
 40
0.7023470901
 40
1.0
 40
1.0
 40
1.0
 40
1.0
 10
-6.8674230116
 20
3.7919630563
 30
0.0
 10
-6.8287141561
 20
3.7919630563
 30
0.0
 10
-6.7442738424
 20
3.7877633236
 30
0.0
 10
-6.627213706
 20
3.7461921559
 30
0.0
 10
-6.5292601803
 20
3.6688675987
 30
0.0
 10
-6.4704484182
 20
3.533085077
 30
0.0
 10
-6.4662553683
 20
3.42700822
 30
0.0
 10
-6.4577987635
 20
3.3598153014
 30
0.0
  0
SPLINE
  5
60B
100
AcDbEntity
  8
CURVE
100
AcDbSpline
 62
250
  6
CONTINUOUS
 70
0
 71
3
 72
12
 73
8
 74
0
 42
0.0000001
 43
0.0000001
 44
0.0000000001
 40
0.0
 40
0.0
 40
0.0
 40
0.0
 40
0.2976529099
 40
0.4627430001
 40
0.6312957924
 40
0.8298431257
 40
1.0
 40
1.0
 40
1.0
 40
1.0
 10
-7.2770472596
 20
3.3598153014
 30
0.0
 10
-7.2685906548
 20
3.42700822
 30
0.0
 10
-7.2643976049
 20
3.533085077
 30
0.0
 10
-7.2055858428
 20
3.6688675987
 30
0.0
 10
-7.1076323171
 20
3.7461921559
 30
0.0
 10
-6.9905721807
 20
3.7877633236
 30
0.0
 10
-6.906131867
 20
3.7919630563
 30
0.0
 10
-6.8674230116
 20
3.7919630563
 30
0.0
  0
SPLINE
  5
60C
100
AcDbEntity
  8
CURVE
100
AcDbSpline
 62
250
  6
CONTINUOUS
 70
0
 71
3
 72
14
 73
10
 74
0
 42
0.0000001
 43
0.0000001
 44
0.0000000001
 40
0.0
 40
0.0
 40
0.0
 40
0.0
 40
0.1009478552
 40
0.190321385
 40
0.3458553706
 40
0.4912948062
 40
0.6445129696
 40
0.8126389463
 40
1.0
 40
1.0
 40
1.0
 40
1.0
 10
-6.8674230116
 20
4.4547299708
 30
0.0
 10
-6.9248269684
 20
4.4547299708
 30
0.0
 10
-7.0333159115
 20
4.4485037005
 30
0.0
 10
-7.22638326
 20
4.4086547631
 30
0.0
 10
-7.4309417129
 20
4.307962261
 30
0.0
 10
-7.60184287
 20
4.1061323613
 30
0.0
 10
-7.7007031456
 20
3.8566747441
 30
0.0
 10
-7.7517161513
 20
3.5704035136
 30
0.0
 10
-7.7549607206
 20
3.3679091321
 30
0.0
 10
-7.7589067906
 20
3.2614232279
 30
0.0
  0
SPLINE
  5
60D
100
AcDbEntity
  8
CURVE
100
AcDbSpline
 62
250
  6
CONTINUOUS
 70
0
 71
3
 72
14
 73
10
 74
0
 42
0.0000001
 43
0.0000001
 44
0.0000000001
 40
0.0
 40
0.0
 40
0.0
 40
0.0
 40
0.1873610537
 40
0.3554870304
 40
0.5087051938
 40
0.6541446294
 40
0.809678615
 40
0.8990521448
 40
1.0
 40
1.0
 40
1.0
 40
1.0
 10
-5.9759392325
 20
3.2614232279
 30
0.0
 10
-5.9798853025
 20
3.3679091321
 30
0.0
 10
-5.9831298719
 20
3.5704035136
 30
0.0
 10
-6.0341428775
 20
3.8566747441
 30
0.0
 10
-6.1330031531
 20
4.1061323613
 30
0.0
 10
-6.3039043102
 20
4.307962261
 30
0.0
 10
-6.5084627631
 20
4.4086547631
 30
0.0
 10
-6.7015301116
 20
4.4485037005
 30
0.0
 10
-6.8100190547
 20
4.4547299708
 30
0.0
 10
-6.8674230116
 20
4.4547299708
 30
0.0
  0
SPLINE
  5
60E
100
AcDbEntity
  8
0
100
AcDbSpline
 62
250
  6
CONTINUOUS
 70
0
 71
3
 72
11
 73
7
 74
0
 42
0.0000001
 43
0.0000001
 44
0.0000000001
 40
0.0
 40
0.0
 40
0.0
 40
0.0
 40
0.2577993743
 40
0.5067761248
 40
0.7528564382
 40
1.0
 40
1.0
 40
1.0
 40
1.0
 10
-4.8841153494
 20
-0.0643952555
 30
0.0
 10
-4.8841153494
 20
-0.2143179832
 30
0.0
 10
-4.8406660407
 20
-0.5110092884
 30
0.0
 10
-4.6515160502
 20
-0.9123398993
 30
0.0
 10
-4.3623260593
 20
-1.2400599045
 30
0.0
 10
-4.1163907193
 20
-1.3962682454
 30
0.0
 10
-3.9853857058
 20
-1.455340916
 30
0.0
  0
SPLINE
  5
60F
100
AcDbEntity
  8
0
100
AcDbSpline
 62
250
  6
CONTINUOUS
 70
0
 71
3
 72
21
 73
17
 74
0
 42
0.0000001
 43
0.0000001
 44
0.0000000001
 40
0.0
 40
0.0
 40
0.0
 40
0.0
 40
0.1211580534
 40
0.1833229257
 40
0.2150353714
 40
0.2473050049
 40
0.3110976584
 40
0.3729974563
 40
0.493731698
 40
0.6144659398
 40
0.6763657377
 40
0.7401583911
 40
0.8039510446
 40
0.8658508425
 40
0.9865850843
 40
1.0
 40
1.0
 40
1.0
 40
1.0
 10
-2.2840382703
 20
-1.1457515284
 30
0.0
 10
-2.1457788127
 20
-1.0074710099
 30
0.0
 10
-1.9748578946
 20
-0.754403504
 30
0.0
 10
-1.8709939128
 20
-0.4214032467
 30
0.0
 10
-1.8398504054
 20
-0.2198102302
 30
0.0
 10
-1.829336635
 20
-0.0135565721
 30
0.0
 10
-1.8549461012
 20
0.2420913368
 30
0.0
 10
-1.9733298895
 20
0.6240956907
 30
0.0
 10
-2.2540971524
 20
1.0410330642
 30
0.0
 10
-2.6709362826
 20
1.3218301179
 30
0.0
 10
-3.0529529861
 20
1.4402399165
 30
0.0
 10
-3.3593475743
 20
1.4709432727
 30
0.0
 10
-3.6657424028
 20
1.4402289868
 30
0.0
 10
-4.0477581872
 20
1.3218889936
 30
0.0
 10
-4.3171409499
 20
1.1400875823
 30
0.0
 10
-4.468034202
 20
0.9828171857
 30
0.0
 10
-4.4827776207
 20
0.9667763824
 30
0.0
  0
SPLINE
  5
610
100
AcDbEntity
  8
0
100
AcDbSpline
 62
250
  6
CONTINUOUS
 70
0
 71
3
 72
9
 73
5
 74
0
 42
0.0000001
 43
0.0000001
 44
0.0000000001
 40
0.0
 40
0.0
 40
0.0
 40
0.0
 40
0.5088964989
 40
1.0
 40
1.0
 40
1.0
 40
1.0
 10
-1.3263243332
 20
-0.0643952555
 30
0.0
 10
-1.3263243332
 20
-0.3050745872
 30
0.0
 10
-1.4107839547
 20
-0.7822193412
 30
0.0
 10
-1.6561250794
 20
-1.1989393913
 30
0.0
 10
-1.8060464004
 20
-1.376318731
 30
0.0
  0
SPLINE
  5
611
100
AcDbEntity
  8
0
100
AcDbSpline
 62
250
  6
CONTINUOUS
 70
0
 71
3
 72
9
 73
5
 74
0
 42
0.0000001
 43
0.0000001
 44
0.0000000001
 40
0.0
 40
0.0
 40
0.0
 40
0.0
 40
0.4911977691
 40
1.0
 40
1.0
 40
1.0
 40
1.0
 10
-0.8705459626
 20
-1.8273418166
 30
0.0
 10
-0.6931713159
 20
-1.5773144902
 30
0.0
 10
-0.407231093
 20
-1.0103456182
 30
0.0
 10
-0.3098121453
 20
-0.3819524297
 30
0.0
 10
-0.3098121453
 20
-0.0643952555
 30
0.0
  0
SPLINE
  5
612
100
AcDbEntity
  8
RACCORDO
100
AcDbSpline
 62
250
  6
CONTINUOUS
 70
0
 71
3
 72
13
 73
9
 74
0
 42
0.0000001
 43
0.0000001
 44
0.0000000001
 40
0.0
 40
0.0
 40
0.0
 40
0.0
 40
0.1162399782
 40
0.2339778175
 40
0.3543713311
 40
0.4780980184
 40
0.7345386243
 40
1.0
 40
1.0
 40
1.0
 40
1.0
 10
43.6286496316
 20
23.0175407377
 30
0.0
 10
43.6286021052
 20
23.0033909673
 30
0.0
 10
43.6252438207
 20
22.9748179733
 30
0.0
 10
43.6106864935
 20
22.9338579057
 30
0.0
 10
43.5872160798
 20
22.8961860545
 30
0.0
 10
43.5449136896
 20
22.8518236576
 30
0.0
 10
43.4749867612
 20
22.8119906457
 30
0.0
 10
43.4109682765
 20
22.8011157931
 30
0.0
 10
43.3786538624
 20
22.8010343868
 30
0.0
  0
SPLINE
  5
613
100
AcDbEntity
  8
RACCORDO
100
AcDbSpline
 62
7
  6
CONTINUOUS
 70
0
 71
3
 72
15
 73
11
 74
0
 42
0.0000001
 43
0.0000001
 44
0.0000000001
 40
0.0
 40
0.0
 40
0.0
 40
0.0
 40
0.0847129374
 40
0.1757006909
 40
0.2778081862
 40
0.3942292046
 40
0.5263924491
 40
0.6737522819
 40
0.8333934372
 40
1.0
 40
1.0
 40
1.0
 40
1.0
 10
43.6344674614
 20
22.4401904685
 30
0.0
 10
43.6343778323
 20
22.4312956154
 30
0.0
 10
43.6311362408
 20
22.4127680493
 30
0.0
 10
43.617588279
 20
22.386527994
 30
0.0
 10
43.5957219748
 20
22.3620966742
 30
0.0
 10
43.5658745828
 20
22.3401668225
 30
0.0
 10
43.5285144537
 20
22.3215376036
 30
0.0
 10
43.4845416825
 20
22.3071594141
 30
0.0
 10
43.43553112
 20
22.2980232183
 30
0.0
 10
43.4012390303
 20
22.2958529012
 30
0.0
 10
43.3837444635
 20
22.2958529012
 30
0.0
  0
SPLINE
  5
614
100
AcDbEntity
  8
RACCORDO
100
AcDbSpline
 62
7
  6
CONTINUOUS
 70
0
 71
3
 72
13
 73
9
 74
0
 42
0.0000001
 43
0.0000001
 44
0.0000000001
 40
0.0
 40
0.0
 40
0.0
 40
0.0
 40
0.0927966287
 40
0.2002447148
 40
0.3193571807
 40
0.4469985052
 40
0.7183509509
 40
1.0
 40
1.0
 40
1.0
 40
1.0
 10
47.5955408967
 20
-24.6221357964
 30
0.0
 10
47.6094558097
 20
-24.6220285093
 30
0.0
 10
47.6393659384
 20
-24.6165965966
 30
0.0
 10
47.6845009634
 20
-24.6004699028
 30
0.0
 10
47.7327455847
 20
-24.5781066804
 30
0.0
 10
47.8013272825
 20
-24.5415666276
 30
0.0
 10
47.8888890577
 20
-24.4890332084
 30
0.0
 10
47.9589707438
 20
-24.444714582
 30
0.0
 10
47.994665587
 20
-24.422139181
 30
0.0
  0
SPLINE
  5
615
100
AcDbEntity
  8
RACCORDO
100
AcDbSpline
 62
7
  6
CONTINUOUS
 70
0
 71
3
 72
13
 73
9
 74
0
 42
0.0000001
 43
0.0000001
 44
0.0000000001
 40
0.0
 40
0.0
 40
0.0
 40
0.0
 40
0.0927966287
 40
0.2002447148
 40
0.3193571807
 40
0.4469985052
 40
0.7183509509
 40
1.0
 40
1.0
 40
1.0
 40
1.0
 10
56.187955524
 20
-24.6221357964
 30
0.0
 10
56.174040611
 20
-24.6220285093
 30
0.0
 10
56.1441304823
 20
-24.6165965966
 30
0.0
 10
56.0989954573
 20
-24.6004699028
 30
0.0
 10
56.050750836
 20
-24.5781066804
 30
0.0
 10
55.9821691382
 20
-24.5415666276
 30
0.0
 10
55.894607363
 20
-24.4890332084
 30
0.0
 10
55.8245256769
 20
-24.444714582
 30
0.0
 10
55.7888308337
 20
-24.422139181
 30
0.0
  0
SPLINE
  5
616
100
AcDbEntity
  8
RACCORDO
100
AcDbSpline
 62
7
  6
CONTINUOUS
 70
0
 71
3
 72
13
 73
9
 74
0
 42
0.0000001
 43
0.0000001
 44
0.0000000001
 40
0.0
 40
0.0
 40
0.0
 40
0.0
 40
0.0927966287
 40
0.2002447148
 40
0.3193571807
 40
0.4469985052
 40
0.7183509509
 40
1.0
 40
1.0
 40
1.0
 40
1.0
 10
56.187955524
 20
22.9685421373
 30
0.0
 10
56.174040611
 20
22.9684348501
 30
0.0
 10
56.1441304823
 20
22.9630029375
 30
0.0
 10
56.0989954573
 20
22.9468762437
 30
0.0
 10
56.050750836
 20
22.9245130213
 30
0.0
 10
55.9821691382
 20
22.8879729685
 30
0.0
 10
55.894607363
 20
22.8354395493
 30
0.0
 10
55.8245256769
 20
22.7911209229
 30
0.0
 10
55.7888308337
 20
22.7685455219
 30
0.0
  0
SPLINE
  5
617
100
AcDbEntity
  8
RACCORDO
100
AcDbSpline
 62
7
  6
CONTINUOUS
 70
0
 71
3
 72
15
 73
11
 74
0
 42
0.0000001
 43
0.0000001
 44
0.0000000001
 40
0.0
 40
0.0
 40
0.0
 40
0.0
 40
0.0847129374
 40
0.1757006909
 40
0.2778081862
 40
0.3942292046
 40
0.5263924491
 40
0.6737522819
 40
0.8333934372
 40
1.0
 40
1.0
 40
1.0
 40
1.0
 10
60.1490289593
 20
22.4401904685
 30
0.0
 10
60.1491185884
 20
22.4312956154
 30
0.0
 10
60.1523601799
 20
22.4127680493
 30
0.0
 10
60.1659081418
 20
22.386527994
 30
0.0
 10
60.1877744459
 20
22.3620966742
 30
0.0
 10
60.2176218379
 20
22.3401668225
 30
0.0
 10
60.254981967
 20
22.3215376036
 30
0.0
 10
60.2989547382
 20
22.3071594141
 30
0.0
 10
60.3479653007
 20
22.2980232183
 30
0.0
 10
60.3822573904
 20
22.2958529012
 30
0.0
 10
60.3997519572
 20
22.2958529012
 30
0.0
  0
SPLINE
  5
618
100
AcDbEntity
  8
RACCORDO
100
AcDbSpline
 62
250
  6
CONTINUOUS
 70
0
 71
3
 72
13
 73
9
 74
0
 42
0.0000001
 43
0.0000001
 44
0.0000000001
 40
0.0
 40
0.0
 40
0.0
 40
0.0
 40
0.1162399782
 40
0.2339778175
 40
0.3543713311
 40
0.4780980184
 40
0.7345386243
 40
1.0
 40
1.0
 40
1.0
 40
1.0
 10
60.1548467891
 20
23.0175407377
 30
0.0
 10
60.1548943155
 20
23.0033909673
 30
0.0
 10
60.1582526
 20
22.9748179733
 30
0.0
 10
60.1728099272
 20
22.9338579057
 30
0.0
 10
60.196280341
 20
22.8961860545
 30
0.0
 10
60.2385827311
 20
22.8518236576
 30
0.0
 10
60.3085096595
 20
22.8119906457
 30
0.0
 10
60.3725281442
 20
22.8011157931
 30
0.0
 10
60.4048425583
 20
22.8010343868
 30
0.0
  0
SPLINE
  5
619
100
AcDbEntity
  8
RACCORDO
100
AcDbSpline
 62
250
  6
CONTINUOUS
 70
0
 71
3
 72
13
 73
9
 74
0
 42
0.0000001
 43
0.0000001
 44
0.0000000001
 40
0.0
 40
0.0
 40
0.0
 40
0.0
 40
0.1162399782
 40
0.2339778175
 40
0.3543713311
 40
0.4780980184
 40
0.7345386243
 40
1.0
 40
1.0
 40
1.0
 40
1.0
 10
62.5286496316
 20
23.0175407377
 30
0.0
 10
62.5286021052
 20
23.0033909673
 30
0.0
 10
62.5252438207
 20
22.9748179733
 30
0.0
 10
62.5106864935
 20
22.9338579057
 30
0.0
 10
62.4872160798
 20
22.8961860545
 30
0.0
 10
62.4449136896
 20
22.8518236576
 30
0.0
 10
62.3749867612
 20
22.8119906457
 30
0.0
 10
62.3109682765
 20
22.8011157931
 30
0.0
 10
62.2786538624
 20
22.8010343868
 30
0.0
  0
SPLINE
  5
61A
100
AcDbEntity
  8
RACCORDO
100
AcDbSpline
 62
7
  6
CONTINUOUS
 70
0
 71
3
 72
13
 73
9
 74
0
 42
0.0000001
 43
0.0000001
 44
0.0000000001
 40
0.0
 40
0.0
 40
0.0
 40
0.0
 40
0.0927966287
 40
0.2002447148
 40
0.3193571807
 40
0.4469985052
 40
0.7183509509
 40
1.0
 40
1.0
 40
1.0
 40
1.0
 10
47.5955408967
 20
22.9685421373
 30
0.0
 10
47.6094558097
 20
22.9684348501
 30
0.0
 10
47.6393659384
 20
22.9630029375
 30
0.0
 10
47.6845009634
 20
22.9468762437
 30
0.0
 10
47.7327455847
 20
22.9245130213
 30
0.0
 10
47.8013272825
 20
22.8879729685
 30
0.0
 10
47.8888890577
 20
22.8354395493
 30
0.0
 10
47.9589707438
 20
22.7911209229
 30
0.0
 10
47.994665587
 20
22.7685455219
 30
0.0
  0
SPLINE
  5
61B
100
AcDbEntity
  8
RACCORDO
100
AcDbSpline
 62
7
  6
CONTINUOUS
 70
0
 71
3
 72
15
 73
11
 74
0
 42
0.0000001
 43
0.0000001
 44
0.0000000001
 40
0.0
 40
0.0
 40
0.0
 40
0.0
 40
0.0847605315
 40
0.1757792657
 40
0.2778914393
 40
0.3942891746
 40
0.5264083789
 40
0.6737220208
 40
0.8333454489
 40
1.0
 40
1.0
 40
1.0
 40
1.0
 10
62.5344674614
 20
22.4401904685
 30
0.0
 10
62.5343779884
 20
22.4313111114
 30
0.0
 10
62.5311480777
 20
22.4128181663
 30
0.0
 10
62.5176477561
 20
22.3866211496
 30
0.0
 10
62.4958562702
 20
22.3622231282
 30
0.0
 10
62.4661084941
 20
22.3403129992
 30
0.0
 10
62.4288682085
 20
22.3216873551
 30
0.0
 10
62.3850271437
 20
22.30728136
 30
0.0
 10
62.3361427687
 20
22.2981229663
 30
0.0
 10
62.3019310024
 20
22.2958529012
 30
0.0
 10
62.2844716922
 20
22.2958529012
 30
0.0
  0
SPLINE
  5
61C
100
AcDbEntity
  8
RACCORDO
100
AcDbSpline
 62
7
  6
CONTINUOUS
 70
0
 71
3
 72
12
 73
8
 74
0
 42
0.0000001
 43
0.0000001
 44
0.0000000001
 40
0.0
 40
0.0
 40
0.0
 40
0.0
 40
0.0338067152
 40
0.088827394
 40
0.2798654815
 40
0.5840996365
 40
1.0
 40
1.0
 40
1.0
 40
1.0
 10
62.5344674614
 20
21.5071383676
 30
0.0
 10
62.5344374663
 20
21.5068655113
 30
0.0
 10
62.5339233608
 20
21.5062511261
 30
0.0
 10
62.5318743702
 20
21.5052960028
 30
0.0
 10
62.5274710583
 20
21.5042850862
 30
0.0
 10
62.5201736824
 20
21.5031985874
 30
0.0
 10
62.5143572264
 20
21.5025277363
 30
0.0
 10
62.5110013246
 20
21.5021510107
 30
0.0
  0
SPLINE
  5
61D
100
AcDbEntity
  8
RACCORDO
100
AcDbSpline
 62
7
  6
CONTINUOUS
 70
0
 71
3
 72
12
 73
8
 74
0
 42
0.0000001
 43
0.0000001
 44
0.0000000001
 40
0.0
 40
0.0
 40
0.0
 40
0.0
 40
0.0338067152
 40
0.088827394
 40
0.2798654815
 40
0.5840996365
 40
1.0
 40
1.0
 40
1.0
 40
1.0
 10
41.2490289593
 20
-23.1607320267
 30
0.0
 10
41.2490589544
 20
-23.1604591705
 30
0.0
 10
41.2495730599
 20
-23.1598447853
 30
0.0
 10
41.2516220505
 20
-23.1588896619
 30
0.0
 10
41.2560253624
 20
-23.1578787454
 30
0.0
 10
41.2633227383
 20
-23.1567922465
 30
0.0
 10
41.2691391943
 20
-23.1561213954
 30
0.0
 10
41.2724950961
 20
-23.1557446698
 30
0.0
  0
SPLINE
  5
61E
100
AcDbEntity
  8
RACCORDO
100
AcDbSpline
 62
250
  6
CONTINUOUS
 70
0
 71
3
 72
13
 73
9
 74
0
 42
0.0000001
 43
0.0000001
 44
0.0000000001
 40
0.0
 40
0.0
 40
0.0
 40
0.0
 40
0.1162401412
 40
0.2339779602
 40
0.3543714643
 40
0.4780981267
 40
0.7345386771
 40
1.0
 40
1.0
 40
1.0
 40
1.0
 10
41.2548467891
 20
-24.6711343969
 30
0.0
 10
41.2548943156
 20
-24.6569846066
 30
0.0
 10
41.2582526028
 20
-24.628411594
 30
0.0
 10
41.2728099536
 20
-24.5874515174
 30
0.0
 10
41.2962803703
 20
-24.5497796765
 30
0.0
 10
41.3385827618
 20
-24.5054172959
 30
0.0
 10
41.4085096791
 20
-24.4655843
 30
0.0
 10
41.4725281506
 20
-24.4547094522
 30
0.0
 10
41.5048425583
 20
-24.4546280459
 30
0.0
  0
SPLINE
  5
61F
100
AcDbEntity
  8
RACCORDO
100
AcDbSpline
 62
7
  6
CONTINUOUS
 70
0
 71
3
 72
15
 73
11
 74
0
 42
0.0000001
 43
0.0000001
 44
0.0000000001
 40
0.0
 40
0.0
 40
0.0
 40
0.0
 40
0.0847129374
 40
0.1757006909
 40
0.2778081862
 40
0.3942292046
 40
0.5263924491
 40
0.6737522819
 40
0.8333934372
 40
1.0
 40
1.0
 40
1.0
 40
1.0
 10
41.2490289593
 20
-24.0937841277
 30
0.0
 10
41.2491185884
 20
-24.0848892745
 30
0.0
 10
41.2523601799
 20
-24.0663617084
 30
0.0
 10
41.2659081418
 20
-24.0401216532
 30
0.0
 10
41.2877744459
 20
-24.0156903333
 30
0.0
 10
41.3176218379
 20
-23.9937604817
 30
0.0
 10
41.354981967
 20
-23.9751312628
 30
0.0
 10
41.3989547382
 20
-23.9607530732
 30
0.0
 10
41.4479653007
 20
-23.9516168775
 30
0.0
 10
41.4822573904
 20
-23.9494465604
 30
0.0
 10
41.4997519572
 20
-23.9494465604
 30
0.0
  0
SPLINE
  5
620
100
AcDbEntity
  8
RACCORDO
100
AcDbSpline
 62
7
  6
CONTINUOUS
 70
0
 71
3
 72
15
 73
11
 74
0
 42
0.0000001
 43
0.0000001
 44
0.0000000001
 40
0.0
 40
0.0
 40
0.0
 40
0.0
 40
0.0847129374
 40
0.1757006909
 40
0.2778081862
 40
0.3942292046
 40
0.5263924491
 40
0.6737522819
 40
0.8333934372
 40
1.0
 40
1.0
 40
1.0
 40
1.0
 10
43.6344674614
 20
-24.0937841277
 30
0.0
 10
43.6343778323
 20
-24.0848892745
 30
0.0
 10
43.6311362408
 20
-24.0663617084
 30
0.0
 10
43.617588279
 20
-24.0401216532
 30
0.0
 10
43.5957219748
 20
-24.0156903333
 30
0.0
 10
43.5658745828
 20
-23.9937604817
 30
0.0
 10
43.5285144537
 20
-23.9751312628
 30
0.0
 10
43.4845416825
 20
-23.9607530732
 30
0.0
 10
43.43553112
 20
-23.9516168775
 30
0.0
 10
43.4012390303
 20
-23.9494465604
 30
0.0
 10
43.3837444635
 20
-23.9494465604
 30
0.0
  0
SPLINE
  5
621
100
AcDbEntity
  8
RACCORDO
100
AcDbSpline
 62
250
  6
CONTINUOUS
 70
0
 71
3
 72
13
 73
9
 74
0
 42
0.0000001
 43
0.0000001
 44
0.0000000001
 40
0.0
 40
0.0
 40
0.0
 40
0.0
 40
0.1162401412
 40
0.2339779602
 40
0.3543714643
 40
0.4780981267
 40
0.7345386771
 40
1.0
 40
1.0
 40
1.0
 40
1.0
 10
43.6286496316
 20
-24.6711343969
 30
0.0
 10
43.6286021052
 20
-24.6569846066
 30
0.0
 10
43.6252438179
 20
-24.628411594
 30
0.0
 10
43.6106864671
 20
-24.5874515174
 30
0.0
 10
43.5872160505
 20
-24.5497796765
 30
0.0
 10
43.5449136589
 20
-24.5054172959
 30
0.0
 10
43.4749867417
 20
-24.4655843
 30
0.0
 10
43.4109682701
 20
-24.4547094522
 30
0.0
 10
43.3786538624
 20
-24.4546280459
 30
0.0
  0
SPLINE
  5
622
100
AcDbEntity
  8
RACCORDO
100
AcDbSpline
 62
250
  6
CONTINUOUS
 70
0
 71
3
 72
13
 73
9
 74
0
 42
0.0000001
 43
0.0000001
 44
0.0000000001
 40
0.0
 40
0.0
 40
0.0
 40
0.0
 40
0.1162401412
 40
0.2339779602
 40
0.3543714643
 40
0.4780981267
 40
0.7345386771
 40
1.0
 40
1.0
 40
1.0
 40
1.0
 10
60.1548467891
 20
-24.6711343969
 30
0.0
 10
60.1548943156
 20
-24.6569846066
 30
0.0
 10
60.1582526028
 20
-24.628411594
 30
0.0
 10
60.1728099536
 20
-24.5874515174
 30
0.0
 10
60.1962803703
 20
-24.5497796765
 30
0.0
 10
60.2385827618
 20
-24.5054172959
 30
0.0
 10
60.3085096791
 20
-24.4655843
 30
0.0
 10
60.3725281506
 20
-24.4547094522
 30
0.0
 10
60.4048425583
 20
-24.4546280459
 30
0.0
  0
SPLINE
  5
623
100
AcDbEntity
  8
RACCORDO
100
AcDbSpline
 62
7
  6
CONTINUOUS
 70
0
 71
3
 72
12
 73
8
 74
0
 42
0.0000001
 43
0.0000001
 44
0.0000000001
 40
0.0
 40
0.0
 40
0.0
 40
0.0
 40
0.4159003635
 40
0.7201345185
 40
0.911172606
 40
0.9661932848
 40
1.0
 40
1.0
 40
1.0
 40
1.0
 10
41.2724950961
 20
21.5021510107
 30
0.0
 10
41.2691391943
 20
21.5025277363
 30
0.0
 10
41.2633227383
 20
21.5031985874
 30
0.0
 10
41.2560253624
 20
21.5042850862
 30
0.0
 10
41.2516220505
 20
21.5052960028
 30
0.0
 10
41.2495730599
 20
21.5062511261
 30
0.0
 10
41.2490589544
 20
21.5068655113
 30
0.0
 10
41.2490289593
 20
21.5071383676
 30
0.0
  0
SPLINE
  5
624
100
AcDbEntity
  8
RACCORDO
100
AcDbSpline
 62
7
  6
CONTINUOUS
 70
0
 71
3
 72
15
 73
11
 74
0
 42
0.0000001
 43
0.0000001
 44
0.0000000001
 40
0.0
 40
0.0
 40
0.0
 40
0.0
 40
0.0847129374
 40
0.1757006909
 40
0.2778081862
 40
0.3942292046
 40
0.5263924491
 40
0.6737522819
 40
0.8333934372
 40
1.0
 40
1.0
 40
1.0
 40
1.0
 10
60.1490289593
 20
-24.0937841277
 30
0.0
 10
60.1491185884
 20
-24.0848892745
 30
0.0
 10
60.1523601799
 20
-24.0663617084
 30
0.0
 10
60.1659081418
 20
-24.0401216532
 30
0.0
 10
60.1877744459
 20
-24.0156903333
 30
0.0
 10
60.2176218379
 20
-23.9937604817
 30
0.0
 10
60.254981967
 20
-23.9751312628
 30
0.0
 10
60.2989547382
 20
-23.9607530732
 30
0.0
 10
60.3479653007
 20
-23.9516168775
 30
0.0
 10
60.3822573904
 20
-23.9494465604
 30
0.0
 10
60.3997519572
 20
-23.9494465604
 30
0.0
  0
SPLINE
  5
625
100
AcDbEntity
  8
RACCORDO
100
AcDbSpline
 62
7
  6
CONTINUOUS
 70
0
 71
3
 72
12
 73
8
 74
0
 42
0.0000001
 43
0.0000001
 44
0.0000000001
 40
0.0
 40
0.0
 40
0.0
 40
0.0
 40
0.4159003635
 40
0.7201345185
 40
0.911172606
 40
0.9661932848
 40
1.0
 40
1.0
 40
1.0
 40
1.0
 10
62.5110013246
 20
-23.1557446698
 30
0.0
 10
62.5143572264
 20
-23.1561213954
 30
0.0
 10
62.5201736824
 20
-23.1567922465
 30
0.0
 10
62.5274710583
 20
-23.1578787454
 30
0.0
 10
62.5318743702
 20
-23.1588896619
 30
0.0
 10
62.5339233608
 20
-23.1598447853
 30
0.0
 10
62.5344374663
 20
-23.1604591705
 30
0.0
 10
62.5344674614
 20
-23.1607320267
 30
0.0
  0
SPLINE
  5
626
100
AcDbEntity
  8
RACCORDO
100
AcDbSpline
 62
7
  6
CONTINUOUS
 70
0
 71
3
 72
15
 73
11
 74
0
 42
0.0000001
 43
0.0000001
 44
0.0000000001
 40
0.0
 40
0.0
 40
0.0
 40
0.0
 40
0.0847605315
 40
0.1757792657
 40
0.2778914393
 40
0.3942891746
 40
0.5264083789
 40
0.6737220208
 40
0.8333454489
 40
1.0
 40
1.0
 40
1.0
 40
1.0
 10
41.2490289593
 20
22.4401904685
 30
0.0
 10
41.2491184323
 20
22.4313111114
 30
0.0
 10
41.252348343
 20
22.4128181663
 30
0.0
 10
41.2658486646
 20
22.3866211496
 30
0.0
 10
41.2876401505
 20
22.3622231282
 30
0.0
 10
41.3173879266
 20
22.3403129992
 30
0.0
 10
41.3546282122
 20
22.3216873551
 30
0.0
 10
41.398469277
 20
22.30728136
 30
0.0
 10
41.447353652
 20
22.2981229663
 30
0.0
 10
41.4815654184
 20
22.2958529012
 30
0.0
 10
41.4990247285
 20
22.2958529012
 30
0.0
  0
SPLINE
  5
627
100
AcDbEntity
  8
RACCORDO
100
AcDbSpline
 62
7
  6
CONTINUOUS
 70
0
 71
3
 72
15
 73
11
 74
0
 42
0.0000001
 43
0.0000001
 44
0.0000000001
 40
0.0
 40
0.0
 40
0.0
 40
0.0
 40
0.0847129374
 40
0.1757006909
 40
0.2778081862
 40
0.3942292046
 40
0.5263924491
 40
0.6737522819
 40
0.8333934372
 40
1.0
 40
1.0
 40
1.0
 40
1.0
 10
62.5344674614
 20
-24.0937841277
 30
0.0
 10
62.5343778323
 20
-24.0848892745
 30
0.0
 10
62.5311362408
 20
-24.0663617084
 30
0.0
 10
62.517588279
 20
-24.0401216532
 30
0.0
 10
62.4957219748
 20
-24.0156903333
 30
0.0
 10
62.4658745828
 20
-23.9937604817
 30
0.0
 10
62.4285144537
 20
-23.9751312628
 30
0.0
 10
62.3845416825
 20
-23.9607530732
 30
0.0
 10
62.33553112
 20
-23.9516168775
 30
0.0
 10
62.3012390303
 20
-23.9494465604
 30
0.0
 10
62.2837444635
 20
-23.9494465604
 30
0.0
  0
SPLINE
  5
628
100
AcDbEntity
  8
RACCORDO
100
AcDbSpline
 62
250
  6
CONTINUOUS
 70
0
 71
3
 72
13
 73
9
 74
0
 42
0.0000001
 43
0.0000001
 44
0.0000000001
 40
0.0
 40
0.0
 40
0.0
 40
0.0
 40
0.1162401412
 40
0.2339779602
 40
0.3543714643
 40
0.4780981267
 40
0.7345386771
 40
1.0
 40
1.0
 40
1.0
 40
1.0
 10
62.5286496316
 20
-24.6711343969
 30
0.0
 10
62.5286021052
 20
-24.6569846066
 30
0.0
 10
62.5252438179
 20
-24.628411594
 30
0.0
 10
62.5106864671
 20
-24.5874515174
 30
0.0
 10
62.4872160505
 20
-24.5497796765
 30
0.0
 10
62.4449136589
 20
-24.5054172959
 30
0.0
 10
62.3749867417
 20
-24.4655843
 30
0.0
 10
62.3109682701
 20
-24.4547094522
 30
0.0
 10
62.2786538624
 20
-24.4546280459
 30
0.0
  0
LINE
  5
629
100
AcDbEntity
  8
RACCORDO
100
AcDbLine
 62
7
  6
CONTINUOUS
 10
62.5417482104
 20
-23.2267456009
 11
62.5344674614
 21
-23.1607320267
  0
SPLINE
  5
62A
100
AcDbEntity
  8
RACCORDO
100
AcDbSpline
 62
250
  6
CONTINUOUS
 70
0
 71
3
 72
22
 73
18
 74
0
 42
0.0000001
 43
0.0000001
 44
0.0000000001
 40
0.0
 40
0.0
 40
0.0
 40
0.0
 40
0.0028346584
 40
0.0076285164
 40
0.0146109723
 40
0.0238387352
 40
0.0490322419
 40
0.0830855075
 40
0.1257141876
 40
0.1765347173
 40
0.2350813857
 40
0.3008091726
 40
0.3731030224
 40
0.4512870361
 40
0.6223418929
 40
0.8075559724
 40
1.0
 40
1.0
 40
1.0
 40
1.0
 10
62.8742498928
 20
-21.3691139354
 30
0.0
 10
62.8740686878
 20
-21.3695413431
 30
0.0
 10
62.8729889724
 20
-21.3703450152
 30
0.0
 10
62.8708051968
 20
-21.371230648
 30
0.0
 10
62.8674720089
 20
-21.372173343
 30
0.0
 10
62.860843608
 20
-21.3735640175
 30
0.0
 10
62.8497302198
 20
-21.3751743757
 30
0.0
 10
62.833144292
 20
-21.376954933
 30
0.0
 10
62.8123312267
 20
-21.3786802238
 30
0.0
 10
62.7874935859
 20
-21.3803321602
 30
0.0
 10
62.7588595981
 20
-21.381886898
 30
0.0
 10
62.7266994781
 20
-21.3833279974
 30
0.0
 10
62.6913153729
 20
-21.3846401167
 30
0.0
 10
62.638682058
 20
-21.3862476043
 30
0.0
 10
62.5675471161
 20
-21.387804348
 30
0.0
 10
62.4776905487
 20
-21.3889552009
 30
0.0
 10
62.4158411653
 20
-21.3892425384
 30
0.0
 10
62.3843245222
 20
-21.389265143
 30
0.0
  0
SPLINE
  5
62B
100
AcDbEntity
  8
RACCORDO
100
AcDbSpline
 62
250
  6
CONTINUOUS
 70
0
 71
3
 72
22
 73
18
 74
0
 42
0.0000001
 43
0.0000001
 44
0.0000000001
 40
0.0
 40
0.0
 40
0.0
 40
0.0
 40
0.1908431115
 40
0.3737341792
 40
0.5424577582
 40
0.6196897108
 40
0.6912772718
 40
0.7566108794
 40
0.8151344886
 40
0.8663502726
 40
0.9098229035
 40
0.945183552
 40
0.9721334503
 40
0.9823813935
 40
0.9904496494
 40
0.9963235241
 40
1.0
 40
1.0
 40
1.0
 40
1.0
 10
62.3843245222
 20
-21.3892651544
 30
0.0
 10
62.3843687581
 20
-21.480648875
 30
0.0
 10
62.3846462045
 20
-21.6596085222
 30
0.0
 10
62.3856336059
 20
-21.9193585114
 30
0.0
 10
62.3869311151
 20
-22.1247045628
 30
0.0
 10
62.3882559819
 20
-22.2767518813
 30
0.0
 10
62.3893342162
 20
-22.3792918281
 30
0.0
 10
62.3905163206
 20
-22.4728716381
 30
0.0
 10
62.3917908027
 20
-22.5566944336
 30
0.0
 10
62.3931459484
 20
-22.6300463661
 30
0.0
 10
62.3945633426
 20
-22.6923037456
 30
0.0
 10
62.3960334461
 20
-22.7429355923
 30
0.0
 10
62.3973567304
 20
-22.7776567557
 30
0.0
 10
62.3985031189
 20
-22.7993008241
 30
0.0
 10
62.3992701446
 20
-22.8108617556
 30
0.0
 10
62.4000462565
 20
-22.8192581862
 30
0.0
 10
62.4006314239
 20
-22.8238042448
 30
0.0
 10
62.4010165605
 20
-22.8255220515
 30
0.0
  0
SPLINE
  5
62C
100
AcDbEntity
  8
RACCORDO
100
AcDbSpline
 62
250
  6
CONTINUOUS
 70
0
 71
3
 72
21
 73
17
 74
0
 42
0.0000001
 43
0.0000001
 44
0.0000000001
 40
0.0
 40
0.0
 40
0.0
 40
0.0
 40
0.1908078102
 40
0.3736647906
 40
0.5423568972
 40
0.6911501407
 40
0.7564738745
 40
0.8149906152
 40
0.8662033913
 40
0.9096780746
 40
0.9450474637
 40
0.9720159804
 40
0.9822790167
 40
0.9903681185
 40
0.9962724717
 40
1.0
 40
1.0
 40
1.0
 40
1.0
 10
62.8742498928
 20
-21.3691139354
 30
0.0
 10
62.8742941236
 20
-21.4306481042
 30
0.0
 10
62.8745717986
 20
-21.5511523121
 30
0.0
 10
62.875558451
 20
-21.7260562
 30
0.0
 10
62.8770752612
 20
-21.8874063607
 30
0.0
 10
62.8787935934
 20
-22.0108483493
 30
0.0
 10
62.8804418266
 20
-22.0987555145
 30
0.0
 10
62.8817165066
 20
-22.1551947871
 30
0.0
 10
62.8830715911
 20
-22.2045835977
 30
0.0
 10
62.8844891398
 20
-22.2465028267
 30
0.0
 10
62.8859590858
 20
-22.2805946569
 30
0.0
 10
62.8872830046
 20
-22.3039737559
 30
0.0
 10
62.8884286224
 20
-22.3185432433
 30
0.0
 10
62.8891973907
 20
-22.3263321776
 30
0.0
 10
62.8899718572
 20
-22.3319886805
 30
0.0
 10
62.8905621902
 20
-22.3350530333
 30
0.0
 10
62.8909419311
 20
-22.3361935795
 30
0.0
  0
SPLINE
  5
62D
100
AcDbEntity
  8
RACCORDO
100
AcDbSpline
 62
250
  6
CONTINUOUS
 70
0
 71
3
 72
22
 73
18
 74
0
 42
0.0000001
 43
0.0000001
 44
0.0000000001
 40
0.0
 40
0.0
 40
0.0
 40
0.0
 40
0.0028346435
 40
0.0076284833
 40
0.014610921
 40
0.0238386666
 40
0.0490321422
 40
0.0830853821
 40
0.1257140422
 40
0.1765345581
 40
0.2350812188
 40
0.3008090043
 40
0.3731028589
 40
0.4512868833
 40
0.6223417772
 40
0.80755591
 40
1.0
 40
1.0
 40
1.0
 40
1.0
 10
62.8742498928
 20
19.7155202763
 30
0.0
 10
62.8740686928
 20
19.7159476835
 30
0.0
 10
62.872988984
 20
19.7167513579
 30
0.0
 10
62.8708052176
 20
19.7176369897
 30
0.0
 10
62.8674720387
 20
19.7185796854
 30
0.0
 10
62.8608436491
 20
19.7199703603
 30
0.0
 10
62.849730273
 20
19.7215807192
 30
0.0
 10
62.8331443577
 20
19.7233612772
 30
0.0
 10
62.8123313021
 20
19.7250865688
 30
0.0
 10
62.7874936678
 20
19.726738506
 30
0.0
 10
62.7588596834
 20
19.7282932447
 30
0.0
 10
62.7266995637
 20
19.729734345
 30
0.0
 10
62.6913154559
 20
19.7310464652
 30
0.0
 10
62.6386821318
 20
19.7326539539
 30
0.0
 10
62.5675471725
 20
19.7342106989
 30
0.0
 10
62.477690579
 20
19.7353615527
 30
0.0
 10
62.4158411759
 20
19.7356488905
 30
0.0
 10
62.3843245222
 20
19.7356714952
 30
0.0
  0
SPLINE
  5
62E
100
AcDbEntity
  8
RACCORDO
100
AcDbSpline
 62
250
  6
CONTINUOUS
 70
0
 71
3
 72
9
 73
5
 74
0
 42
0.0000001
 43
0.0000001
 44
0.0000000001
 40
0.0
 40
0.0
 40
0.0
 40
0.0
 40
0.2499471355
 40
1.0
 40
1.0
 40
1.0
 40
1.0
 10
62.3843245222
 20
19.7356714953
 30
0.0
 10
62.3818652851
 20
16.3093188416
 30
0.0
 10
62.3744901714
 20
2.6010078374
 30
0.0
 10
62.3769447304
 20
-11.1073084609
 30
0.0
 10
62.3843245222
 20
-21.3892651544
 30
0.0
  0
SPLINE
  5
62F
100
AcDbEntity
  8
RACCORDO
100
AcDbSpline
 62
250
  6
CONTINUOUS
 70
0
 71
3
 72
9
 73
5
 74
0
 42
0.0000001
 43
0.0000001
 44
0.0000000001
 40
0.0
 40
0.0
 40
0.0
 40
0.0
 40
0.2499471355
 40
1.0
 40
1.0
 40
1.0
 40
1.0
 10
62.8742498928
 20
19.7155202763
 30
0.0
 10
62.8717906557
 20
16.2925254494
 30
0.0
 10
62.864415542
 20
2.5976485924
 30
0.0
 10
62.866870101
 20
-11.0972335639
 30
0.0
 10
62.8742498928
 20
-21.3691139354
 30
0.0
  0
SPLINE
  5
630
100
AcDbEntity
  8
RACCORDO
100
AcDbSpline
 62
250
  6
CONTINUOUS
 70
0
 71
3
 72
22
 73
18
 74
0
 42
0.0000001
 43
0.0000001
 44
0.0000000001
 40
0.0
 40
0.0
 40
0.0
 40
0.0
 40
0.0036764995
 40
0.0095503559
 40
0.0176186001
 40
0.0278665464
 40
0.0548164491
 40
0.0901770958
 40
0.1336497273
 40
0.184865511
 40
0.2433891203
 40
0.3087227279
 40
0.3803102889
 40
0.4575422414
 40
0.6262658205
 40
0.8091568882
 40
1.0
 40
1.0
 40
1.0
 40
1.0
 10
62.4010165605
 20
21.1719283924
 30
0.0
 10
62.4006314134
 20
21.1702105764
 30
0.0
 10
62.4000462461
 20
21.1656645141
 30
0.0
 10
62.3992701526
 20
21.1572680855
 30
0.0
 10
62.3985031319
 20
21.1457071665
 30
0.0
 10
62.3973567339
 20
21.1240631008
 30
0.0
 10
62.396033452
 20
21.0893419344
 30
0.0
 10
62.3945633519
 20
21.0387100862
 30
0.0
 10
62.3931459551
 20
20.9764527074
 30
0.0
 10
62.3917908116
 20
20.9031007746
 30
0.0
 10
62.3905163286
 20
20.8192779792
 30
0.0
 10
62.3893342241
 20
20.7256981692
 30
0.0
 10
62.3882559884
 20
20.6231582225
 30
0.0
 10
62.3869311199
 20
20.471110904
 30
0.0
 10
62.3856336082
 20
20.2657648526
 30
0.0
 10
62.3846462069
 20
20.0060148633
 30
0.0
 10
62.384368751
 20
19.827055216
 30
0.0
 10
62.3843245222
 20
19.7356714953
 30
0.0
  0
SPLINE
  5
631
100
AcDbEntity
  8
RACCORDO
100
AcDbSpline
 62
250
  6
CONTINUOUS
 70
0
 71
3
 72
21
 73
17
 74
0
 42
0.0000001
 43
0.0000001
 44
0.0000000001
 40
0.0
 40
0.0
 40
0.0
 40
0.0
 40
0.0037275565
 40
0.0096318743
 40
0.0177209763
 40
0.0279840482
 40
0.054952565
 40
0.0903219333
 40
0.1337966228
 40
0.185009388
 40
0.2435261251
 40
0.308849853
 40
0.4576430895
 40
0.6263351926
 40
0.8091921641
 40
1.0
 40
1.0
 40
1.0
 40
1.0
 10
62.8909419311
 20
20.6825999204
 30
0.0
 10
62.8905622007
 20
20.6814593611
 30
0.0
 10
62.8899718564
 20
20.6783950158
 30
0.0
 10
62.8891973893
 20
20.672738513
 30
0.0
 10
62.8884286212
 20
20.6649495795
 30
0.0
 10
62.8872830087
 20
20.6503800796
 30
0.0
 10
62.8859590852
 20
20.6270009765
 30
0.0
 10
62.8844891398
 20
20.5929091507
 30
0.0
 10
62.8830715918
 20
20.55098993
 30
0.0
 10
62.8817165066
 20
20.5016011222
 30
0.0
 10
62.8804418268
 20
20.4451618562
 30
0.0
 10
62.8787935934
 20
20.3572546963
 30
0.0
 10
62.8770752611
 20
20.233812713
 30
0.0
 10
62.8755584508
 20
20.0724625588
 30
0.0
 10
62.8745717987
 20
19.8975586667
 30
0.0
 10
62.8742941214
 20
19.7770544533
 30
0.0
 10
62.8742498928
 20
19.7155202763
 30
0.0
  0
LINE
  5
632
100
AcDbEntity
  8
RACCORDO
100
AcDbLine
 62
7
  6
CONTINUOUS
 10
62.5344674614
 20
21.5071383676
 11
62.5417482104
 21
21.5731519418
  0
SPLINE
  5
633
100
AcDbEntity
  8
RACCORDO
100
AcDbSpline
 62
250
  6
CONTINUOUS
 70
0
 71
3
 72
13
 73
9
 74
0
 42
0.0000001
 43
0.0000001
 44
0.0000000001
 40
0.0
 40
0.0
 40
0.0
 40
0.0
 40
0.1162399782
 40
0.2339778175
 40
0.3543713311
 40
0.4780980184
 40
0.7345386243
 40
1.0
 40
1.0
 40
1.0
 40
1.0
 10
41.2548467891
 20
23.0175407377
 30
0.0
 10
41.2548943155
 20
23.0033909673
 30
0.0
 10
41.2582526
 20
22.9748179733
 30
0.0
 10
41.2728099272
 20
22.9338579057
 30
0.0
 10
41.296280341
 20
22.8961860545
 30
0.0
 10
41.3385827311
 20
22.8518236576
 30
0.0
 10
41.4085096595
 20
22.8119906457
 30
0.0
 10
41.4725281442
 20
22.8011157931
 30
0.0
 10
41.5048425583
 20
22.8010343868
 30
0.0
  0
LINE
  5
634
100
AcDbEntity
  8
RACCORDO
100
AcDbLine
 62
7
  6
CONTINUOUS
 10
41.2490289593
 20
-23.1607320267
 11
41.2417482104
 21
-23.2267456009
  0
SPLINE
  5
635
100
AcDbEntity
  8
RACCORDO
100
AcDbSpline
 62
250
  6
CONTINUOUS
 70
0
 71
3
 72
22
 73
18
 74
0
 42
0.0000001
 43
0.0000001
 44
0.0000000001
 40
0.0
 40
0.0
 40
0.0
 40
0.0
 40
0.0036764759
 40
0.0095503506
 40
0.0176186065
 40
0.0278665497
 40
0.054816448
 40
0.0901770965
 40
0.1336497274
 40
0.1848655114
 40
0.2433891206
 40
0.3087227282
 40
0.3803102892
 40
0.4575422418
 40
0.6262658208
 40
0.8091568885
 40
1.0
 40
1.0
 40
1.0
 40
1.0
 10
41.3824798602
 20
-22.8255220515
 30
0.0
 10
41.3828649968
 20
-22.8238042448
 30
0.0
 10
41.3834501642
 20
-22.8192581862
 30
0.0
 10
41.3842262762
 20
-22.8108617556
 30
0.0
 10
41.3849933018
 20
-22.7993008241
 30
0.0
 10
41.3861396903
 20
-22.7776567557
 30
0.0
 10
41.3874629746
 20
-22.7429355923
 30
0.0
 10
41.3889330781
 20
-22.6923037456
 30
0.0
 10
41.3903504723
 20
-22.6300463661
 30
0.0
 10
41.391705618
 20
-22.5566944336
 30
0.0
 10
41.3929801001
 20
-22.4728716381
 30
0.0
 10
41.3941622045
 20
-22.3792918281
 30
0.0
 10
41.3952404388
 20
-22.2767518813
 30
0.0
 10
41.3965653056
 20
-22.1247045628
 30
0.0
 10
41.3978628148
 20
-21.9193585114
 30
0.0
 10
41.3988502162
 20
-21.6596085222
 30
0.0
 10
41.3991276626
 20
-21.480648875
 30
0.0
 10
41.3991718985
 20
-21.3892651544
 30
0.0
  0
SPLINE
  5
636
100
AcDbEntity
  8
RACCORDO
100
AcDbSpline
 62
250
  6
CONTINUOUS
 70
0
 71
3
 72
21
 73
17
 74
0
 42
0.0000001
 43
0.0000001
 44
0.0000000001
 40
0.0
 40
0.0
 40
0.0
 40
0.0
 40
0.0037275284
 40
0.0096318815
 40
0.0177209833
 40
0.0279840196
 40
0.0549525363
 40
0.0903219254
 40
0.1337966087
 40
0.1850093848
 40
0.2435261255
 40
0.3088498593
 40
0.4576431028
 40
0.6263352094
 40
0.8091921898
 40
1.0
 40
1.0
 40
1.0
 40
1.0
 10
40.8925544896
 20
-22.3361935795
 30
0.0
 10
40.8929342305
 20
-22.3350530333
 30
0.0
 10
40.8935245635
 20
-22.3319886805
 30
0.0
 10
40.89429903
 20
-22.3263321776
 30
0.0
 10
40.8950677983
 20
-22.3185432433
 30
0.0
 10
40.8962134161
 20
-22.3039737559
 30
0.0
 10
40.897537335
 20
-22.2805946569
 30
0.0
 10
40.8990072809
 20
-22.2465028267
 30
0.0
 10
40.9004248296
 20
-22.2045835977
 30
0.0
 10
40.9017799141
 20
-22.1551947871
 30
0.0
 10
40.9030545941
 20
-22.0987555145
 30
0.0
 10
40.9047028273
 20
-22.0108483493
 30
0.0
 10
40.9064211596
 20
-21.8874063607
 30
0.0
 10
40.9079379697
 20
-21.7260562
 30
0.0
 10
40.9089246221
 20
-21.5511523121
 30
0.0
 10
40.9092022971
 20
-21.4306481042
 30
0.0
 10
40.9092465279
 20
-21.3691139354
 30
0.0
  0
SPLINE
  5
637
100
AcDbEntity
  8
RACCORDO
100
AcDbSpline
 62
250
  6
CONTINUOUS
 70
0
 71
3
 72
22
 73
18
 74
0
 42
0.0000001
 43
0.0000001
 44
0.0000000001
 40
0.0
 40
0.0
 40
0.0
 40
0.0
 40
0.0028346435
 40
0.0076284833
 40
0.014610921
 40
0.0238386666
 40
0.0490321423
 40
0.0830853821
 40
0.1257140422
 40
0.1765345581
 40
0.2350812189
 40
0.3008090044
 40
0.373102859
 40
0.4512868834
 40
0.6223417772
 40
0.80755591
 40
1.0
 40
1.0
 40
1.0
 40
1.0
 10
40.9092465279
 20
-21.3691139354
 30
0.0
 10
40.9094277279
 20
-21.3695413426
 30
0.0
 10
40.9105074367
 20
-21.370345017
 30
0.0
 10
40.9126912031
 20
-21.3712306488
 30
0.0
 10
40.916024382
 20
-21.3721733445
 30
0.0
 10
40.9226527716
 20
-21.3735640194
 30
0.0
 10
40.9337661477
 20
-21.3751743783
 30
0.0
 10
40.950352063
 20
-21.3769549363
 30
0.0
 10
40.9711651187
 20
-21.3786802279
 30
0.0
 10
40.996002753
 20
-21.3803321652
 30
0.0
 10
41.0246367373
 20
-21.3818869039
 30
0.0
 10
41.056796857
 20
-21.3833280041
 30
0.0
 10
41.0921809649
 20
-21.3846401244
 30
0.0
 10
41.144814289
 20
-21.386247613
 30
0.0
 10
41.2159492482
 20
-21.387804358
 30
0.0
 10
41.3058058417
 20
-21.3889552118
 30
0.0
 10
41.3676552448
 20
-21.3892425496
 30
0.0
 10
41.3991718985
 20
-21.3892651544
 30
0.0
  0
SPLINE
  5
638
100
AcDbEntity
  8
RACCORDO
100
AcDbSpline
 62
250
  6
CONTINUOUS
 70
0
 71
3
 72
9
 73
5
 74
0
 42
0.0000001
 43
0.0000001
 44
0.0000000001
 40
0.0
 40
0.0
 40
0.0
 40
0.0
 40
0.2499471355
 40
1.0
 40
1.0
 40
1.0
 40
1.0
 10
41.3991718985
 20
-21.3892651544
 30
0.0
 10
41.4016311356
 20
-17.9629125007
 30
0.0
 10
41.4090062493
 20
-4.2546014965
 30
0.0
 10
41.4065516904
 20
9.4537148018
 30
0.0
 10
41.3991718985
 20
19.7356714953
 30
0.0
  0
SPLINE
  5
639
100
AcDbEntity
  8
RACCORDO
100
AcDbSpline
 62
250
  6
CONTINUOUS
 70
0
 71
3
 72
9
 73
5
 74
0
 42
0.0000001
 43
0.0000001
 44
0.0000000001
 40
0.0
 40
0.0
 40
0.0
 40
0.0
 40
0.2499471355
 40
1.0
 40
1.0
 40
1.0
 40
1.0
 10
40.9092465279
 20
-21.3691139354
 30
0.0
 10
40.911705765
 20
-17.9461191085
 30
0.0
 10
40.9190808787
 20
-4.2512422515
 30
0.0
 10
40.9166263198
 20
9.4436399048
 30
0.0
 10
40.9092465279
 20
19.7155202763
 30
0.0
  0
SPLINE
  5
63A
100
AcDbEntity
  8
RACCORDO
100
AcDbSpline
 62
250
  6
CONTINUOUS
 70
0
 71
3
 72
22
 73
18
 74
0
 42
0.0000001
 43
0.0000001
 44
0.0000000001
 40
0.0
 40
0.0
 40
0.0
 40
0.0
 40
0.0028346528
 40
0.0076285041
 40
0.0146109531
 40
0.0238387094
 40
0.0490322043
 40
0.08308546
 40
0.1257141321
 40
0.1765346562
 40
0.2350813213
 40
0.3008091073
 40
0.3731029587
 40
0.4512869764
 40
0.6223418474
 40
0.8075559477
 40
1.0
 40
1.0
 40
1.0
 40
1.0
 10
40.9092465279
 20
19.7155202763
 30
0.0
 10
40.9094277311
 20
19.7159476838
 30
0.0
 10
40.910507444
 20
19.7167513568
 30
0.0
 10
40.9126912162
 20
19.7176369892
 30
0.0
 10
40.9160244007
 20
19.7185796845
 30
0.0
 10
40.9226527972
 20
19.7199703592
 30
0.0
 10
40.9337661808
 20
19.7215807176
 30
0.0
 10
40.9503521038
 20
19.7233612753
 30
0.0
 10
40.9711651652
 20
19.7250865664
 30
0.0
 10
40.9960028034
 20
19.7267385031
 30
0.0
 10
41.0246367897
 20
19.7282932413
 30
0.0
 10
41.0567969095
 20
19.729734341
 30
0.0
 10
41.0921810155
 20
19.7310464608
 30
0.0
 10
41.1448143339
 20
19.7326539487
 30
0.0
 10
41.2159492825
 20
19.734210693
 30
0.0
 10
41.3058058601
 20
19.7353615462
 30
0.0
 10
41.3676552512
 20
19.7356488838
 30
0.0
 10
41.3991718985
 20
19.7356714884
 30
0.0
  0
SPLINE
  5
63B
100
AcDbEntity
  8
RACCORDO
100
AcDbSpline
 62
250
  6
CONTINUOUS
 70
0
 71
3
 72
22
 73
18
 74
0
 42
0.0000001
 43
0.0000001
 44
0.0000000001
 40
0.0
 40
0.0
 40
0.0
 40
0.0
 40
0.1908431118
 40
0.3737341795
 40
0.5424577586
 40
0.6196897111
 40
0.6912772721
 40
0.7566108797
 40
0.815134489
 40
0.8663502727
 40
0.9098229042
 40
0.9451835509
 40
0.9721334536
 40
0.9823813999
 40
0.9904496441
 40
0.9963235005
 40
1.0
 40
1.0
 40
1.0
 40
1.0
 10
41.3991718985
 20
19.7356714953
 30
0.0
 10
41.3991276697
 20
19.827055216
 30
0.0
 10
41.3988502138
 20
20.0060148633
 30
0.0
 10
41.3978628125
 20
20.2657648526
 30
0.0
 10
41.3965653008
 20
20.471110904
 30
0.0
 10
41.3952404323
 20
20.6231582225
 30
0.0
 10
41.3941621966
 20
20.7256981692
 30
0.0
 10
41.3929800921
 20
20.8192779792
 30
0.0
 10
41.3917056091
 20
20.9031007746
 30
0.0
 10
41.3903504656
 20
20.9764527074
 30
0.0
 10
41.3889330688
 20
21.0387100862
 30
0.0
 10
41.3874629687
 20
21.0893419344
 30
0.0
 10
41.3861396868
 20
21.1240631008
 30
0.0
 10
41.3849932888
 20
21.1457071665
 30
0.0
 10
41.3842262681
 20
21.1572680855
 30
0.0
 10
41.3834501746
 20
21.1656645141
 30
0.0
 10
41.3828650073
 20
21.1702105764
 30
0.0
 10
41.3824798602
 20
21.1719283924
 30
0.0
  0
SPLINE
  5
63C
100
AcDbEntity
  8
RACCORDO
100
AcDbSpline
 62
250
  6
CONTINUOUS
 70
0
 71
3
 72
21
 73
17
 74
0
 42
0.0000001
 43
0.0000001
 44
0.0000000001
 40
0.0
 40
0.0
 40
0.0
 40
0.0
 40
0.1908078359
 40
0.3736648074
 40
0.5423569105
 40
0.691150147
 40
0.7564738749
 40
0.814990612
 40
0.8662033772
 40
0.9096780667
 40
0.945047435
 40
0.9720159518
 40
0.9822790237
 40
0.9903681257
 40
0.9962724435
 40
1.0
 40
1.0
 40
1.0
 40
1.0
 10
40.9092465279
 20
19.7155202763
 30
0.0
 10
40.9092022993
 20
19.7770544533
 30
0.0
 10
40.9089246221
 20
19.8975586667
 30
0.0
 10
40.9079379699
 20
20.0724625588
 30
0.0
 10
40.9064211596
 20
20.233812713
 30
0.0
 10
40.9047028273
 20
20.3572546963
 30
0.0
 10
40.9030545939
 20
20.4451618562
 30
0.0
 10
40.9017799141
 20
20.5016011222
 30
0.0
 10
40.9004248289
 20
20.55098993
 30
0.0
 10
40.8990072809
 20
20.5929091507
 30
0.0
 10
40.8975373355
 20
20.6270009765
 30
0.0
 10
40.896213412
 20
20.6503800796
 30
0.0
 10
40.8950677995
 20
20.6649495795
 30
0.0
 10
40.8942990314
 20
20.672738513
 30
0.0
 10
40.8935245643
 20
20.6783950158
 30
0.0
 10
40.89293422
 20
20.6814593611
 30
0.0
 10
40.8925544896
 20
20.6825999204
 30
0.0
  0
LINE
  5
63D
100
AcDbEntity
  8
RACCORDO
100
AcDbLine
 62
7
  6
CONTINUOUS
 10
41.2417482104
 20
21.5731519418
 11
41.2490289593
 21
21.5071383676
  0
SPLINE
  5
63E
100
AcDbEntity
  8
RACCORDO
100
AcDbSpline
 62
250
  6
CONTINUOUS
 70
0
 71
3
 72
39
 73
35
 74
0
 42
0.0000001
 43
0.0000001
 44
0.0000000001
 40
0.0
 40
0.0
 40
0.0
 40
0.0
 40
0.0312507075
 40
0.0625009391
 40
0.0937512984
 40
0.1250014159
 40
0.1562513056
 40
0.1875009988
 40
0.2187505351
 40
0.2499999852
 40
0.2812494356
 40
0.3124989692
 40
0.3437486572
 40
0.3749985494
 40
0.4062486595
 40
0.4374989695
 40
0.4687494375
 40
0.4999999995
 40
0.5312505616
 40
0.5625010296
 40
0.5937513396
 40
0.6250014498
 40
0.6562513419
 40
0.6875010299
 40
0.7187505636
 40
0.750000014
 40
0.781249464
 40
0.8124990003
 40
0.8437486935
 40
0.8749985832
 40
0.9062487007
 40
0.93749906
 40
0.9687492919
 40
1.0
 40
1.0
 40
1.0
 40
1.0
 10
51.8917482104
 20
7.4900714755
 30
0.0
 10
52.1638341828
 20
7.490071018
 30
0.0
 10
52.7083800238
 20
7.4633335142
 30
0.0
 10
53.5170327787
 20
7.343394921
 30
0.0
 10
54.3101162573
 20
7.1447849506
 30
0.0
 10
55.0798932058
 20
6.8694095249
 30
0.0
 10
55.818978945
 20
6.5199243397
 30
0.0
 10
56.5202490761
 20
6.0996892431
 30
0.0
 10
57.1769542194
 20
5.612749871
 30
0.0
 10
57.7827714624
 20
5.0637928819
 30
0.0
 10
58.3318638
 20
4.4580981607
 30
0.0
 10
58.818944401
 20
3.8014975044
 30
0.0
 10
59.2393185295
 20
3.1003097867
 30
0.0
 10
59.5889322771
 20
2.3612853473
 30
0.0
 10
59.8644173785
 20
1.5915426053
 30
0.0
 10
60.0631126889
 20
0.7984949542
 30
0.0
 10
60.1831021693
 20
-0.0102159171
 30
0.0
 10
60.2232290752
 20
-0.8267968171
 30
0.0
 10
60.1831021715
 20
-1.6433777178
 30
0.0
 10
60.0631126938
 20
-2.452088591
 30
0.0
 10
59.8644173847
 20
-3.2451362431
 30
0.0
 10
59.5889322855
 20
-4.0148789859
 30
0.0
 10
59.2393185402
 20
-4.7539034263
 30
0.0
 10
58.8189444132
 20
-5.4550911448
 30
0.0
 10
58.3318638143
 20
-6.1116918027
 30
0.0
 10
57.7827714781
 20
-6.7173865254
 30
0.0
 10
57.1769542365
 20
-7.2663435158
 30
0.0
 10
56.5202490949
 20
-7.7532828901
 30
0.0
 10
55.8189789643
 20
-8.1735179884
 30
0.0
 10
55.0798932265
 20
-8.5230031747
 30
0.0
 10
54.3101162797
 20
-8.798378606
 30
0.0
 10
53.5170327991
 20
-8.9969885652
 30
0.0
 10
52.7083800384
 20
-9.1169272075
 30
0.0
 10
52.1638341883
 20
-9.1436646238
 30
0.0
 10
51.8917482104
 20
-9.1436651346
 30
0.0
  0
SPLINE
  5
63F
100
AcDbEntity
  8
RACCORDO
100
AcDbSpline
 62
250
  6
CONTINUOUS
 70
0
 71
3
 72
39
 73
35
 74
0
 42
0.0000001
 43
0.0000001
 44
0.0000000001
 40
0.0
 40
0.0
 40
0.0
 40
0.0
 40
0.0312507075
 40
0.0625009391
 40
0.0937512984
 40
0.1250014159
 40
0.1562513056
 40
0.1875009988
 40
0.2187505351
 40
0.2499999852
 40
0.2812494356
 40
0.3124989692
 40
0.3437486572
 40
0.3749985494
 40
0.4062486595
 40
0.4374989695
 40
0.4687494375
 40
0.4999999995
 40
0.5312505616
 40
0.5625010296
 40
0.5937513396
 40
0.6250014498
 40
0.6562513419
 40
0.6875010299
 40
0.7187505636
 40
0.750000014
 40
0.781249464
 40
0.8124990003
 40
0.8437486935
 40
0.8749985832
 40
0.9062487007
 40
0.93749906
 40
0.9687492919
 40
1.0
 40
1.0
 40
1.0
 40
1.0
 10
51.8917482104
 20
-9.1436651346
 30
0.0
 10
51.6196622379
 20
-9.1436646771
 30
0.0
 10
51.0751163969
 20
-9.1169271733
 30
0.0
 10
50.266463642
 20
-8.9969885802
 30
0.0
 10
49.4733801634
 20
-8.7983786097
 30
0.0
 10
48.7036032149
 20
-8.523003184
 30
0.0
 10
47.9645174757
 20
-8.1735179988
 30
0.0
 10
47.2632473446
 20
-7.7532829022
 30
0.0
 10
46.6065422013
 20
-7.2663435302
 30
0.0
 10
46.0007249583
 20
-6.7173865411
 30
0.0
 10
45.4516326208
 20
-6.1116918198
 30
0.0
 10
44.9645520197
 20
-5.4550911636
 30
0.0
 10
44.5441778913
 20
-4.7539034459
 30
0.0
 10
44.1945641437
 20
-4.0148790064
 30
0.0
 10
43.9190790422
 20
-3.2451362644
 30
0.0
 10
43.7203837318
 20
-2.4520886133
 30
0.0
 10
43.6003942514
 20
-1.6433777418
 30
0.0
 10
43.5602673455
 20
-0.8267968418
 30
0.0
 10
43.6003942492
 20
-0.0102159412
 30
0.0
 10
43.720383727
 20
0.798494932
 30
0.0
 10
43.919079036
 20
1.591542584
 30
0.0
 10
44.1945641352
 20
2.3612853268
 30
0.0
 10
44.5441778805
 20
3.1003097672
 30
0.0
 10
44.9645520076
 20
3.8014974857
 30
0.0
 10
45.4516326064
 20
4.4580981436
 30
0.0
 10
46.0007249426
 20
5.0637928662
 30
0.0
 10
46.6065421842
 20
5.6127498567
 30
0.0
 10
47.2632473259
 20
6.099689231
 30
0.0
 10
47.9645174564
 20
6.5199243293
 30
0.0
 10
48.7036031942
 20
6.8694095156
 30
0.0
 10
49.473380141
 20
7.1447849469
 30
0.0
 10
50.2664636216
 20
7.343394906
 30
0.0
 10
51.0751163823
 20
7.4633335484
 30
0.0
 10
51.6196622324
 20
7.4900709646
 30
0.0
 10
51.8917482104
 20
7.4900714755
 30
0.0
  0
ELLIPSE
  5
640
100
AcDbEntity
  8
RACCORDO
100
AcDbEllipse
 62
7
  6
CONTINUOUS
 10
-0.3593476155
 20
21.2391024513
 30
0.0
 11
0.5
 21
-0.0
 31
0.0
 40
1.0
 41
-1.5533430343
 42
-0.6605680511
  0
ELLIPSE
  5
641
100
AcDbEntity
  8
RACCORDO
100
AcDbEllipse
 62
7
  6
CONTINUOUS
 10
-0.3593476155
 20
-22.8926961104
 30
0.0
 11
0.5
 21
-0.0
 31
0.0
 40
1.0
 41
0.6605680511
 42
1.5533430343
  0
ELLIPSE
  5
642
100
AcDbEntity
  8
DRAFT
100
AcDbEllipse
 62
7
  6
CONTINUOUS
 10
22.9406523845
 20
14.1732031704
 30
0.0
 11
2.1
 21
0.0
 31
0.0
 40
1.0
 41
1.5707963268
 42
2.6195208674
  0
ELLIPSE
  5
643
100
AcDbEntity
  8
DRAFT
100
AcDbEllipse
 62
7
  6
CONTINUOUS
 10
22.9406523845
 20
14.1732031704
 30
0.0
 11
2.1
 21
0.0
 31
0.0
 40
1.0
 41
-2.6195208674
 42
-1.5707963268
  0
ELLIPSE
  5
644
100
AcDbEntity
  8
DRAFT
100
AcDbEllipse
 62
7
  6
CONTINUOUS
 10
22.9406523845
 20
9.1732031704
 30
0.0
 11
2.1
 21
0.0
 31
0.0
 40
1.0
 41
1.5707963268
 42
2.6195208674
  0
ELLIPSE
  5
645
100
AcDbEntity
  8
DRAFT
100
AcDbEllipse
 62
7
  6
CONTINUOUS
 10
22.9406523845
 20
9.1732031704
 30
0.0
 11
2.1
 21
-0.0
 31
0.0
 40
1.0
 41
-2.6195208674
 42
-1.5707963268
  0
ELLIPSE
  5
646
100
AcDbEntity
  8
DRAFT
100
AcDbEllipse
 62
7
  6
CONTINUOUS
 10
22.9406523845
 20
4.1732031704
 30
0.0
 11
2.1
 21
0.0
 31
0.0
 40
1.0
 41
1.5707963268
 42
2.6195208674
  0
ELLIPSE
  5
647
100
AcDbEntity
  8
DRAFT
100
AcDbEllipse
 62
7
  6
CONTINUOUS
 10
22.9406523845
 20
4.1732031704
 30
0.0
 11
2.1
 21
-0.0
 31
0.0
 40
1.0
 41
-2.6195208674
 42
-1.5707963268
  0
ELLIPSE
  5
648
100
AcDbEntity
  8
RACCORDO
100
AcDbEllipse
 62
7
  6
CONTINUOUS
 10
28.1406523845
 20
6.2830666329
 30
0.0
 11
0.9999999954
 21
0.0055407478
 31
0.0
 40
0.0173607453
 41
0.0133490089
 42
1.5532468428
  0
ELLIPSE
  5
649
100
AcDbEntity
  8
RACCORDO
100
AcDbEllipse
 62
7
  6
CONTINUOUS
 10
28.1406523845
 20
2.063339708
 30
0.0
 11
0.9999999954
 21
-0.0055407478
 31
0.0
 40
0.0173607453
 41
-1.5532468428
 42
-0.0133490089
  0
ELLIPSE
  5
64A
100
AcDbEntity
  8
RACCORDO
100
AcDbEllipse
 62
7
  6
CONTINUOUS
 10
28.1406523845
 20
11.2830666329
 30
0.0
 11
0.9999999954
 21
0.0055407478
 31
0.0
 40
0.0173607453
 41
0.0133490089
 42
1.5532468428
  0
ELLIPSE
  5
64B
100
AcDbEntity
  8
RACCORDO
100
AcDbEllipse
 62
7
  6
CONTINUOUS
 10
28.1406523845
 20
7.063339708
 30
0.0
 11
0.9999999954
 21
-0.0055407478
 31
0.0
 40
0.0173607453
 41
-1.5532468428
 42
-0.0133490089
  0
ELLIPSE
  5
64C
100
AcDbEntity
  8
RACCORDO
100
AcDbEllipse
 62
7
  6
CONTINUOUS
 10
28.1406523845
 20
16.2830666329
 30
0.0
 11
0.9999999954
 21
0.0055407478
 31
0.0
 40
0.0173607453
 41
0.0133490089
 42
1.5532468428
  0
ELLIPSE
  5
64D
100
AcDbEntity
  8
RACCORDO
100
AcDbEllipse
 62
7
  6
CONTINUOUS
 10
28.1406523845
 20
12.063339708
 30
0.0
 11
0.9999999954
 21
-0.0055407478
 31
0.0
 40
0.0173607453
 41
-1.5532468428
 42
-0.0133490089
  0
ELLIPSE
  5
64E
100
AcDbEntity
  8
RACCORDO
100
AcDbEllipse
 62
7
  6
CONTINUOUS
 10
28.1406523845
 20
-1.5731943075
 30
0.0
 11
1.0
 21
0.0
 31
0.0
 40
0.2679491924
 41
-1.5533430343
 42
-0.0134452004
  0
ELLIPSE
  5
64F
100
AcDbEntity
  8
RACCORDO
100
AcDbEllipse
 62
7
  6
CONTINUOUS
 10
28.1406523845
 20
-0.0803993516
 30
0.0
 11
1.0
 21
-0.0
 31
0.0
 40
0.2679491924
 41
0.0134452004
 42
1.5533430343
  0
ELLIPSE
  5
650
100
AcDbEntity
  8
RACCORDO
100
AcDbEllipse
 62
7
  6
CONTINUOUS
 10
28.1406523845
 20
-6.5731943075
 30
0.0
 11
1.0
 21
0.0
 31
0.0
 40
0.2679491924
 41
-1.5533430343
 42
-0.0134452004
  0
ELLIPSE
  5
651
100
AcDbEntity
  8
RACCORDO
100
AcDbEllipse
 62
7
  6
CONTINUOUS
 10
28.1406523845
 20
-5.0803993516
 30
0.0
 11
1.0
 21
-0.0
 31
0.0
 40
0.2679491924
 41
0.0134452004
 42
1.5533430343
  0
ELLIPSE
  5
652
100
AcDbEntity
  8
RACCORDO
100
AcDbEllipse
 62
7
  6
CONTINUOUS
 10
28.1406523845
 20
-11.5731943075
 30
0.0
 11
1.0
 21
-0.0
 31
0.0
 40
0.2679491924
 41
-1.5533430343
 42
-0.0134452004
  0
ELLIPSE
  5
653
100
AcDbEntity
  8
RACCORDO
100
AcDbEllipse
 62
7
  6
CONTINUOUS
 10
28.1406523845
 20
-10.0803993516
 30
0.0
 11
1.0
 21
-0.0
 31
0.0
 40
0.2679491924
 41
0.0134452004
 42
1.5533430343
  0
ELLIPSE
  5
654
100
AcDbEntity
  8
RACCORDO
100
AcDbEllipse
 62
7
  6
CONTINUOUS
 10
28.1406523845
 20
-16.5731943075
 30
0.0
 11
1.0
 21
0.0
 31
0.0
 40
0.2679491924
 41
-1.5533430343
 42
-0.0134452004
  0
ELLIPSE
  5
655
100
AcDbEntity
  8
RACCORDO
100
AcDbEllipse
 62
7
  6
CONTINUOUS
 10
28.1406523845
 20
-15.0803993516
 30
0.0
 11
1.0
 21
-0.0
 31
0.0
 40
0.2679491924
 41
0.0134452004
 42
1.5533430343
  0
ELLIPSE
  5
656
100
AcDbEntity
  8
ASSI
100
AcDbEllipse
 62
7
  6
CONTINUOUS
 10
28.1406523845
 20
-15.0803993516
 30
0.0
 11
1.0
 21
-0.0
 31
0.0
 40
0.2679491924
 41
0.0134452004
 42
1.5533430343
  0
ELLIPSE
  5
657
100
AcDbEntity
  8
ASSI
100
AcDbEllipse
 62
7
  6
CONTINUOUS
 10
28.1406523845
 20
-16.5731943075
 30
0.0
 11
1.0
 21
0.0
 31
0.0
 40
0.2679491924
 41
-1.5533430343
 42
-0.0134452004
  0
ELLIPSE
  5
658
100
AcDbEntity
  8
ASSI
100
AcDbEllipse
 62
7
  6
CONTINUOUS
 10
28.1406523845
 20
-10.0803993516
 30
0.0
 11
1.0
 21
-0.0
 31
0.0
 40
0.2679491924
 41
0.0134452004
 42
1.5533430343
  0
ELLIPSE
  5
659
100
AcDbEntity
  8
ASSI
100
AcDbEllipse
 62
7
  6
CONTINUOUS
 10
28.1406523845
 20
-11.5731943075
 30
0.0
 11
1.0
 21
-0.0
 31
0.0
 40
0.2679491924
 41
-1.5533430343
 42
-0.0134452004
  0
ELLIPSE
  5
65A
100
AcDbEntity
  8
ASSI
100
AcDbEllipse
 62
7
  6
CONTINUOUS
 10
28.1406523845
 20
-5.0803993516
 30
0.0
 11
1.0
 21
-0.0
 31
0.0
 40
0.2679491924
 41
0.0134452004
 42
1.5533430343
  0
ELLIPSE
  5
65B
100
AcDbEntity
  8
ASSI
100
AcDbEllipse
 62
7
  6
CONTINUOUS
 10
28.1406523845
 20
-6.5731943075
 30
0.0
 11
1.0
 21
0.0
 31
0.0
 40
0.2679491924
 41
-1.5533430343
 42
-0.0134452004
  0
ELLIPSE
  5
65C
100
AcDbEntity
  8
ASSI
100
AcDbEllipse
 62
7
  6
CONTINUOUS
 10
28.1406523845
 20
-0.0803993516
 30
0.0
 11
1.0
 21
-0.0
 31
0.0
 40
0.2679491924
 41
0.0134452004
 42
1.5533430343
  0
ELLIPSE
  5
65D
100
AcDbEntity
  8
ASSI
100
AcDbEllipse
 62
7
  6
CONTINUOUS
 10
28.1406523845
 20
-1.5731943075
 30
0.0
 11
1.0
 21
0.0
 31
0.0
 40
0.2679491924
 41
-1.5533430343
 42
-0.0134452004
  0
ELLIPSE
  5
65E
100
AcDbEntity
  8
ASSI
100
AcDbEllipse
 62
7
  6
CONTINUOUS
 10
22.9406523845
 20
14.1732031704
 30
0.0
 11
2.1
 21
0.0
 31
0.0
 40
1.0
 41
1.5707963268
 42
2.6195208674
  0
ELLIPSE
  5
65F
100
AcDbEntity
  8
ASSI
100
AcDbEllipse
 62
7
  6
CONTINUOUS
 10
22.9406523845
 20
14.1732031704
 30
0.0
 11
2.1
 21
0.0
 31
0.0
 40
1.0
 41
-2.6195208674
 42
-1.5707963268
  0
ELLIPSE
  5
660
100
AcDbEntity
  8
ASSI
100
AcDbEllipse
 62
7
  6
CONTINUOUS
 10
28.1406523845
 20
12.063339708
 30
0.0
 11
0.9999999954
 21
-0.0055407478
 31
0.0
 40
0.0173607453
 41
-1.5532468428
 42
-0.0133490089
  0
ELLIPSE
  5
661
100
AcDbEntity
  8
ASSI
100
AcDbEllipse
 62
7
  6
CONTINUOUS
 10
22.9406523845
 20
9.1732031704
 30
0.0
 11
2.1
 21
0.0
 31
0.0
 40
1.0
 41
1.5707963268
 42
2.6195208674
  0
ELLIPSE
  5
662
100
AcDbEntity
  8
ASSI
100
AcDbEllipse
 62
7
  6
CONTINUOUS
 10
28.1406523845
 20
16.2830666329
 30
0.0
 11
0.9999999954
 21
0.0055407478
 31
0.0
 40
0.0173607453
 41
0.0133490089
 42
1.5532468428
  0
ELLIPSE
  5
663
100
AcDbEntity
  8
ASSI
100
AcDbEllipse
 62
7
  6
CONTINUOUS
 10
28.1406523845
 20
7.063339708
 30
0.0
 11
0.9999999954
 21
-0.0055407478
 31
0.0
 40
0.0173607453
 41
-1.5532468428
 42
-0.0133490089
  0
ELLIPSE
  5
664
100
AcDbEntity
  8
ASSI
100
AcDbEllipse
 62
7
  6
CONTINUOUS
 10
28.1406523845
 20
11.2830666329
 30
0.0
 11
0.9999999954
 21
0.0055407478
 31
0.0
 40
0.0173607453
 41
0.0133490089
 42
1.5532468428
  0
ELLIPSE
  5
665
100
AcDbEntity
  8
ASSI
100
AcDbEllipse
 62
7
  6
CONTINUOUS
 10
28.1406523845
 20
2.063339708
 30
0.0
 11
0.9999999954
 21
-0.0055407478
 31
0.0
 40
0.0173607453
 41
-1.5532468428
 42
-0.0133490089
  0
ELLIPSE
  5
666
100
AcDbEntity
  8
ASSI
100
AcDbEllipse
 62
7
  6
CONTINUOUS
 10
28.1406523845
 20
6.2830666329
 30
0.0
 11
0.9999999954
 21
0.0055407478
 31
0.0
 40
0.0173607453
 41
0.0133490089
 42
1.5532468428
  0
ELLIPSE
  5
667
100
AcDbEntity
  8
ASSI
100
AcDbEllipse
 62
7
  6
CONTINUOUS
 10
22.9406523845
 20
9.1732031704
 30
0.0
 11
2.1
 21
-0.0
 31
0.0
 40
1.0
 41
-2.6195208674
 42
-1.5707963268
  0
ELLIPSE
  5
668
100
AcDbEntity
  8
ASSI
100
AcDbEllipse
 62
7
  6
CONTINUOUS
 10
22.9406523845
 20
4.1732031704
 30
0.0
 11
2.1
 21
0.0
 31
0.0
 40
1.0
 41
1.5707963268
 42
2.6195208674
  0
ELLIPSE
  5
669
100
AcDbEntity
  8
ASSI
100
AcDbEllipse
 62
7
  6
CONTINUOUS
 10
22.9406523845
 20
4.1732031704
 30
0.0
 11
2.1
 21
-0.0
 31
0.0
 40
1.0
 41
-2.6195208674
 42
-1.5707963268
  0
ELLIPSE
  5
66A
100
AcDbEntity
  8
RACCORDO
100
AcDbEllipse
 62
7
  6
CONTINUOUS
 10
62.5516735696
 20
21.0744576442
 30
0.0
 11
0.4383594471
 21
-0.2191630312
 31
0.0
 40
0.9998096356
 41
0.4635410001
 42
1.5707963317
  0
ELLIPSE
  5
66B
100
AcDbEntity
  8
RACCORDO
100
AcDbEllipse
 62
7
  6
CONTINUOUS
 10
41.2318228511
 20
-22.7280513034
 30
0.0
 11
0.4383594471
 21
-0.2191630312
 31
0.0
 40
0.9998096356
 41
-2.6780516535
 42
-1.5707963219
  0
ELLIPSE
  5
66C
100
AcDbEntity
  8
RACCORDO
100
AcDbEllipse
 62
7
  6
CONTINUOUS
 10
62.5516735696
 20
-22.7280513034
 30
0.0
 11
0.4383594471
 21
0.2191630312
 31
0.0
 40
0.9998096356
 41
-1.5707963317
 42
-0.4635410001
  0
ELLIPSE
  5
66D
100
AcDbEntity
  8
RACCORDO
100
AcDbEllipse
 62
7
  6
CONTINUOUS
 10
41.2318228511
 20
21.0744576442
 30
0.0
 11
0.4383594471
 21
0.2191630312
 31
0.0
 40
0.9998096356
 41
1.5707963219
 42
2.6780516535
  0
ELLIPSE
  5
66E
100
AcDbEntity
  8
RACCORDO
100
AcDbEllipse
 62
7
  6
CONTINUOUS
 10
47.994665587
 20
-23.2005929399
 30
0.0
 11
0.5
 21
0.0
 31
0.0
 40
0.0524077793
 41
1.5707963268
 42
3.1357748894
  0
ELLIPSE
  5
66F
100
AcDbEntity
  8
RACCORDO
100
AcDbEllipse
 62
7
  6
CONTINUOUS
 10
43.3844716922
 20
21.5076934463
 30
0.0
 11
0.25
 21
-0.0
 31
0.0
 40
0.0524077793
 41
-1.5707963268
 42
-0.0058177642
  0
ELLIPSE
  5
670
100
AcDbEntity
  8
RACCORDO
100
AcDbEllipse
 62
7
  6
CONTINUOUS
 10
47.994665587
 20
-24.6238879147
 30
0.0
 11
0.5
 21
0.0
 31
0.0
 40
0.0058178298
 41
2.495179495
 42
3.1357748894
  0
ELLIPSE
  5
671
100
AcDbEntity
  8
RACCORDO
100
AcDbEllipse
 62
7
  6
CONTINUOUS
 10
55.7888308337
 20
-24.6238879147
 30
0.0
 11
0.5
 21
-0.0
 31
0.0
 40
0.0058178298
 41
0.0058177642
 42
0.6464131586
  0
ELLIPSE
  5
672
100
AcDbEntity
  8
RACCORDO
100
AcDbEllipse
 62
7
  6
CONTINUOUS
 10
55.7888308337
 20
-23.2005929399
 30
0.0
 11
0.5
 21
0.0
 31
0.0
 40
0.0524077793
 41
0.0058177642
 42
1.5707963268
  0
ELLIPSE
  5
673
100
AcDbEntity
  8
RACCORDO
100
AcDbEllipse
 62
7
  6
CONTINUOUS
 10
47.994665587
 20
22.9702942555
 30
0.0
 11
0.5
 21
0.0
 31
0.0
 40
0.0058178298
 41
-3.1357748894
 42
-2.495179495
  0
ELLIPSE
  5
674
100
AcDbEntity
  8
RACCORDO
100
AcDbEllipse
 62
7
  6
CONTINUOUS
 10
47.994665587
 20
21.5469992808
 30
0.0
 11
0.5
 21
-0.0
 31
0.0
 40
0.0524077793
 41
-3.1357748894
 42
-1.5707963268
  0
ELLIPSE
  5
675
100
AcDbEntity
  8
RACCORDO
100
AcDbEllipse
 62
7
  6
CONTINUOUS
 10
60.3990247285
 20
21.5076934463
 30
0.0
 11
0.25
 21
0.0
 31
0.0
 40
0.0524077793
 41
-3.1357748894
 42
-1.5707963268
  0
ELLIPSE
  5
676
100
AcDbEntity
  8
RACCORDO
100
AcDbEllipse
 62
7
  6
CONTINUOUS
 10
62.2844716922
 20
21.5076934463
 30
0.0
 11
0.25
 21
0.0
 31
0.0
 40
0.0524077793
 41
-1.5707963268
 42
-0.4367799193
  0
ELLIPSE
  5
677
100
AcDbEntity
  8
RACCORDO
100
AcDbEllipse
 62
7
  6
CONTINUOUS
 10
55.7888308337
 20
21.5469992808
 30
0.0
 11
0.5
 21
0.0
 31
0.0
 40
0.0524077793
 41
-1.5707963268
 42
-0.0058177642
  0
ELLIPSE
  5
678
100
AcDbEntity
  8
RACCORDO
100
AcDbEllipse
 62
7
  6
CONTINUOUS
 10
41.4990247285
 20
-23.1612871055
 30
0.0
 11
0.25
 21
0.0
 31
0.0
 40
0.0524077793
 41
1.5707963268
 42
2.7048127343
  0
ELLIPSE
  5
679
100
AcDbEntity
  8
RACCORDO
100
AcDbEllipse
 62
7
  6
CONTINUOUS
 10
55.7888308337
 20
22.9702942555
 30
0.0
 11
0.5
 21
0.0
 31
0.0
 40
0.0058178298
 41
-0.6464131586
 42
-0.0058177642
  0
ELLIPSE
  5
67A
100
AcDbEntity
  8
RACCORDO
100
AcDbEllipse
 62
7
  6
CONTINUOUS
 10
43.3844716922
 20
-23.1612871055
 30
0.0
 11
0.25
 21
-0.0
 31
0.0
 40
0.0524077793
 41
0.0058177642
 42
1.5707963268
  0
ELLIPSE
  5
67B
100
AcDbEntity
  8
RACCORDO
100
AcDbEllipse
 62
7
  6
CONTINUOUS
 10
60.3990247285
 20
-23.1612871055
 30
0.0
 11
0.25
 21
-0.0
 31
0.0
 40
0.0524077793
 41
1.5707963268
 42
3.1357748894
  0
ELLIPSE
  5
67C
100
AcDbEntity
  8
RACCORDO
100
AcDbEllipse
 62
7
  6
CONTINUOUS
 10
41.4990247285
 20
21.5076934463
 30
0.0
 11
0.25
 21
-0.0
 31
0.0
 40
0.0524077793
 41
-2.7048127343
 42
-1.5707963268
  0
ELLIPSE
  5
67D
100
AcDbEntity
  8
RACCORDO
100
AcDbEllipse
 62
7
  6
CONTINUOUS
 10
62.2844716922
 20
-23.1612871055
 30
0.0
 11
0.25
 21
0.0
 31
0.0
 40
0.0524077793
 41
0.4367799193
 42
1.5707963268
  0
ENDSEC
  0
SECTION
  2
OBJECTS
  0
DICTIONARY
  5
C
100
AcDbDictionary
280
0
281
1
  3
ACAD_GROUP
350
D
  3
ACAD_MLINESTYLE
350
17
  3
ACAD_LAYOUT
350
1A
  3
ACAD_PLOTSETTINGS
350
19
  3
ACAD_PLOTSTYLENAME
350
E
  0
DICTIONARY
  5
D
102
{ACAD_REACTORS
330
C
102
}
100
AcDbDictionary
280
0
281
1
  0
ACDBDICTIONARYWDFLT
  5
E
102
{ACAD_REACTORS
330
C
102
}
100
AcDbDictionary
281
1
  3
Normal
350
F
100
AcDbDictionaryWithDefault
340
F
  0
DICTIONARY
  5
17
102
{ACAD_REACTORS
330
C
102
}
100
AcDbDictionary
280
0
281
1
  3
Standard
350
18
  0
DICTIONARY
  5
19
102
{ACAD_REACTORS
330
C
102
}
100
AcDbDictionary
281
1
  0
DICTIONARY
  5
1A
102
{ACAD_REACTORS
330
C
102
}
100
AcDbDictionary
281
1
  3
Model
350
67E
  3
Layout1
350
67F
  0
ACDBPLACEHOLDER
  5
F
102
{ACAD_REACTORS
330
E
102
}
  0
MLINESTYLE
  5
18
102
{ACAD_REACTORS
330
17
102
}
100
AcDbMlineStyle
  2
STANDARD
 70
0
  3

 62
256
 51
90.0
 52
90.0
 71
2
 49
0.5
 62
256
  6
BYLAYER
 49
-0.5
 62
256
  6
BYLAYER
  0
LAYOUT
  5
67E
102
{ACAD_REACTORS
330
1A
102
}
100
AcDbPlotSettings
  1

  2
none_device
  4
ANSI_A_(11.00_x_8.50_Inches)
  6

 40
0.0
 41
0.0
 42
0.0
 43
0.0
 44
279.4
 45
215.9
 46
0.0
 47
0.0
 48
0.0
 49
0.0
140
0.0
141
0.0
142
1.0
143
1.0
 70
1024
 72
1
 73
0
 74
0
  7

 75
0
147
1.0
148
0.0
149
0.0
100
AcDbLayout
  1
Model
 70
0
 71
0
 10
0.0
 20
0.0
 11
279.4
 21
215.9
 12
0.0
 22
0.0
 32
0.0
 14
0.0
 24
0.0
 34
0.0
 15
0.0
 25
0.0
 35
0.0
146
0.0
 13
0.0
 23
0.0
 33
0.0
 16
1.0
 26
0.0
 36
0.0
 17
0.0
 27
1.0
 37
0.0
 76
0
330
217
345
0
346
0
  0
LAYOUT
  5
67F
102
{ACAD_REACTORS
330
1A
102
}
100
AcDbPlotSettings
  1

  2
none_device
  4
ANSI_A_(11.00_x_8.50_Inches)
  6

 40
0.0
 41
0.0
 42
0.0
 43
0.0
 44
279.4
 45
215.9
 46
0.0
 47
0.0
 48
0.0
 49
0.0
140
0.0
141
0.0
142
1.0
143
1.0
 70
0
 72
1
 73
0
 74
0
  7

 75
0
147
1.0
148
0.0
149
0.0
100
AcDbLayout
  1
Layout1
 70
0
 71
1
 10
0.0
 20
0.0
 11
279.4
 21
215.9
 12
0.0
 22
0.0
 32
0.0
 14
0.0
 24
0.0
 34
0.0
 15
0.0
 25
0.0
 35
0.0
146
0.0
 13
0.0
 23
0.0
 33
0.0
 16
1.0
 26
0.0
 36
0.0
 17
0.0
 27
1.0
 37
0.0
 76
0
330
218
345
0
346
0
  0
ENDSEC
  0
EOF
