  0
SECTION
  2
HEADER
  9
$ACADVER
  1
AC1015
  9
$DWGCODEPAGE
  3
ANSI_1252
  9
$EXTMAX
 10
297.0
 20
210.0
 30
0.0
  9
$EXTMIN
 10
0.0
 20
0.0
 30
0.0
  9
$LIMMIN
 10
0.0
 20
0.0
  9
$LIMMAX
 10
297.0
 20
210.0
  9
$VIEWCTR
 10
148.5
 20
105.0
  9
$VIEWSIZE
 40
210.0
  9
$CLAYER
  8
0
  9
$LTSCALE
 40
16.335
  9
$CELTYPE
  6
BYLAYER
  9
$DIMSCALE
 40
1.0
  9
$DIMASZ
 40
3.0
  9
$DIMEXO
 40
1.85625
  9
$DIMDLI
 40
11.286
  9
$DIMEXE
 40
5.346
  9
$DIMCEN
 40
2.673
  9
$DIMLFAC
 40
1.0
  9
$DIMBLK
  1
_FILLED
  9
$DIMTXT
 40
3.0
  9
$DIMTOL
 70
1
  9
$DIMLIM
 70
0
  9
$DIMTFAC
 40
1.0
  9
$DIMTP
 40
0.01
  9
$DIMTM
 40
0.01
  9
$PDMODE
 70
3
  9
$PDSIZE
 40
3.0
  9
$HANDSEED
  5
6E4
  9
$TILEMODE
 70
1
  9
$MEASUREMENT
 70
1
  9
$INSUNITS
 70
4
  0
ENDSEC
  0
SECTION
  2
CLASSES
  0
CLASS
  1
ACDBDICTIONARYWDFLT
  2
AcDbDictionaryWithDefault
  3
AutoCAD 2000
 90
0
280
0
281
0
  0
CLASS
  1
ACDBPLACEHOLDER
  2
AcDbPlaceHolder
  3
AutoCAD 2000
 90
0
280
0
281
0
  0
CLASS
  1
LAYOUT
  2
AcDbLayout
  3
AutoCAD 2000
 90
0
280
0
281
0
  0
ENDSEC
  0
SECTION
  2
TABLES
  0
TABLE
  2
VPORT
  5
8
100
AcDbSymbolTable
 70
2
  0
VPORT
  5
1F4
100
AcDbSymbolTableRecord
100
AcDbViewportTableRecord
  2
*ACTIVE
 70
0
 10
0.0
 20
0.0
 11
1.0
 21
1.0
 12
148.5
 22
105.0
 13
0.0
 23
0.0
 14
1.0
 24
1.0
 15
0.0
 25
0.0
 16
0.0
 26
0.0
 36
1.0
 17
0.0
 27
0.0
 37
0.0
 40
210.0
 41
1.4142857143
 42
50.0
 43
0.0
 44
0.0
 50
0.0
 51
0.0
 71
0
 72
100
 73
1
 74
1
 75
0
 76
0
 77
0
 78
0
  0
ENDTAB
  0
TABLE
  2
LTYPE
  5
5
100
AcDbSymbolTable
 70
6
  0
LTYPE
  5
14
100
AcDbSymbolTableRecord
100
AcDbLinetypeTableRecord
  2
BYBLOCK
 70
0
  3

 72
65
 73
0
 40
0.0
  0
LTYPE
  5
15
100
AcDbSymbolTableRecord
100
AcDbLinetypeTableRecord
  2
BYLAYER
 70
0
  3

 72
65
 73
0
 40
0.0
  0
LTYPE
  5
16
100
AcDbSymbolTableRecord
100
AcDbLinetypeTableRecord
  2
CONTINUOUS
 70
64
  3
Solid line
 72
65
 73
0
 40
0.0
  0
LTYPE
  5
1F5
100
AcDbSymbolTableRecord
100
AcDbLinetypeTableRecord
  2
CENTER
 70
64
  3
____ _ ____ _ ____ _ ____ _ ____ _ ____ _ ____
 72
65
 73
4
 40
0.6
 49
0.375
 74
0
 49
-0.075
 74
0
 49
0.075
 74
0
 49
-0.075
 74
0
  0
LTYPE
  5
1F6
100
AcDbSymbolTableRecord
100
AcDbLinetypeTableRecord
  2
HIDDEN
 70
64
  3
- - - - - - - - - - - - - - - - - - - -
 72
65
 73
2
 40
0.2
 49
0.1
 74
0
 49
-0.1
 74
0
  0
LTYPE
  5
1F7
100
AcDbSymbolTableRecord
100
AcDbLinetypeTableRecord
  2
PHANTOM
 70
64
  3
_____ _ _ _____ _ _ _____ _ _ _____
 72
65
 73
6
 40
0.8
 49
0.45
 74
0
 49
-0.05
 74
0
 49
0.1
 74
0
 49
-0.05
 74
0
 49
0.1
 74
0
 49
-0.05
 74
0
  0
LTYPE
  5
1F8
100
AcDbSymbolTableRecord
100
AcDbLinetypeTableRecord
  2
DOT
 70
64
  3
. . . . . . . . . . . . . . . . . . . .
 72
65
 73
2
 40
0.2
 49
0.1
 74
0
 49
-0.1
 74
0
  0
LTYPE
  5
1F9
100
AcDbSymbolTableRecord
100
AcDbLinetypeTableRecord
  2
DASHED
 70
64
  3
- - - - - - - - - - - - - - - - - - - -
 72
65
 73
2
 40
0.2
 49
0.1
 74
0
 49
-0.1
 74
0
  0
ENDTAB
  0
TABLE
  2
LAYER
  5
2
100
AcDbSymbolTable
 70
36
  0
LAYER
  5
10
100
AcDbSymbolTableRecord
100
AcDbLayerTableRecord
  2
0
 70
0
 62
7
  6
CONTINUOUS
370
-3
390
F
  0
LAYER
  5
1FA
100
AcDbSymbolTableRecord
100
AcDbLayerTableRecord
  2
DEFAULT_1
 70
0
 62
7
  6
CENTER
370
-3
390
F
  0
LAYER
  5
1FB
100
AcDbSymbolTableRecord
100
AcDbLayerTableRecord
  2
DEFAULT_2
 70
0
 62
7
  6
HIDDEN
370
-3
390
F
  0
LAYER
  5
1FC
100
AcDbSymbolTableRecord
100
AcDbLayerTableRecord
  2
DEFAULT_3
 70
0
 62
7
  6
PHANTOM
370
-3
390
F
  0
LAYER
  5
1FD
100
AcDbSymbolTableRecord
100
AcDbLayerTableRecord
  2
ASSI
 70
0
 62
7
  6
CONTINUOUS
370
-3
390
F
  0
LAYER
  5
1FE
100
AcDbSymbolTableRecord
100
AcDbLayerTableRecord
  2
COLOR15
 70
0
 62
7
  6
CONTINUOUS
370
-3
390
F
  0
LAYER
  5
1FF
100
AcDbSymbolTableRecord
100
AcDbLayerTableRecord
  2
COLOR9
 70
0
 62
7
  6
CONTINUOUS
370
-3
390
F
  0
LAYER
  5
200
100
AcDbSymbolTableRecord
100
AcDbLayerTableRecord
  2
COLORE_MATERIALE
 70
0
 62
7
  6
CONTINUOUS
370
-3
390
F
  0
LAYER
  5
201
100
AcDbSymbolTableRecord
100
AcDbLayerTableRecord
  2
COORDINATE
 70
0
 62
7
  6
CONTINUOUS
370
-3
390
F
  0
LAYER
  5
202
100
AcDbSymbolTableRecord
100
AcDbLayerTableRecord
  2
COORD_ORIGINE
 70
0
 62
7
  6
CONTINUOUS
370
-3
390
F
  0
LAYER
  5
203
100
AcDbSymbolTableRecord
100
AcDbLayerTableRecord
  2
COPY_PUBLISH
 70
0
 62
7
  6
CONTINUOUS
370
-3
390
F
  0
LAYER
  5
204
100
AcDbSymbolTableRecord
100
AcDbLayerTableRecord
  2
CORPO
 70
0
 62
7
  6
CONTINUOUS
370
-3
390
F
  0
LAYER
  5
205
100
AcDbSymbolTableRecord
100
AcDbLayerTableRecord
  2
COSMETIC
 70
0
 62
7
  6
CONTINUOUS
370
-3
390
F
  0
LAYER
  5
206
100
AcDbSymbolTableRecord
100
AcDbLayerTableRecord
  2
CURVE
 70
0
 62
7
  6
CONTINUOUS
370
-3
390
F
  0
LAYER
  5
207
100
AcDbSymbolTableRecord
100
AcDbLayerTableRecord
  2
DRAFT
 70
0
 62
7
  6
CONTINUOUS
370
-3
390
F
  0
LAYER
  5
208
100
AcDbSymbolTableRecord
100
AcDbLayerTableRecord
  2
FUSIBILE
 70
0
 62
7
  6
CONTINUOUS
370
-3
390
F
  0
LAYER
  5
209
100
AcDbSymbolTableRecord
100
AcDbLayerTableRecord
  2
IMPORT
 70
0
 62
7
  6
CONTINUOUS
370
-3
390
F
  0
LAYER
  5
20A
100
AcDbSymbolTableRecord
100
AcDbLayerTableRecord
  2
IMPORT_IGES
 70
0
 62
7
  6
CONTINUOUS
370
-3
390
F
  0
LAYER
  5
20B
100
AcDbSymbolTableRecord
100
AcDbLayerTableRecord
  2
INTF_1
 70
0
 62
7
  6
CONTINUOUS
370
-3
390
F
  0
LAYER
  5
20C
100
AcDbSymbolTableRecord
100
AcDbLayerTableRecord
  2
INTF_CYAN
 70
0
 62
7
  6
CONTINUOUS
370
-3
390
F
  0
LAYER
  5
20D
100
AcDbSymbolTableRecord
100
AcDbLayerTableRecord
  2
INTF_GREEN
 70
0
 62
7
  6
CONTINUOUS
370
-3
390
F
  0
LAYER
  5
20E
100
AcDbSymbolTableRecord
100
AcDbLayerTableRecord
  2
INTF_YELLOW
 70
0
 62
7
  6
CONTINUOUS
370
-3
390
F
  0
LAYER
  5
20F
100
AcDbSymbolTableRecord
100
AcDbLayerTableRecord
  2
MAGNETOTERMICO
 70
0
 62
7
  6
CONTINUOUS
370
-3
390
F
  0
LAYER
  5
210
100
AcDbSymbolTableRecord
100
AcDbLayerTableRecord
  2
MOLLA
 70
0
 62
7
  6
CONTINUOUS
370
-3
390
F
  0
LAYER
  5
211
100
AcDbSymbolTableRecord
100
AcDbLayerTableRecord
  2
NOTE
 70
0
 62
7
  6
CONTINUOUS
370
-3
390
F
  0
LAYER
  5
212
100
AcDbSymbolTableRecord
100
AcDbLayerTableRecord
  2
PIANI
 70
0
 62
7
  6
CONTINUOUS
370
-3
390
F
  0
LAYER
  5
213
100
AcDbSymbolTableRecord
100
AcDbLayerTableRecord
  2
PIANI_ORIGINE
 70
0
 62
7
  6
CONTINUOUS
370
-3
390
F
  0
LAYER
  5
214
100
AcDbSymbolTableRecord
100
AcDbLayerTableRecord
  2
PIANI_RIFERIMENTO
 70
0
 62
7
  6
CONTINUOUS
370
-3
390
F
  0
LAYER
  5
215
100
AcDbSymbolTableRecord
100
AcDbLayerTableRecord
  2
PORTATASTO
 70
0
 62
7
  6
CONTINUOUS
370
-3
390
F
  0
LAYER
  5
216
100
AcDbSymbolTableRecord
100
AcDbLayerTableRecord
  2
PUNTI
 70
0
 62
7
  6
CONTINUOUS
370
-3
390
F
  0
LAYER
  5
217
100
AcDbSymbolTableRecord
100
AcDbLayerTableRecord
  2
RACCORDO
 70
0
 62
7
  6
CONTINUOUS
370
-3
390
F
  0
LAYER
  5
218
100
AcDbSymbolTableRecord
100
AcDbLayerTableRecord
  2
RGB____0____0____0__
 70
0
 62
7
  6
CONTINUOUS
370
-3
390
F
  0
LAYER
  5
219
100
AcDbSymbolTableRecord
100
AcDbLayerTableRecord
  2
SKEL
 70
0
 62
7
  6
CONTINUOUS
370
-3
390
F
  0
LAYER
  5
21A
100
AcDbSymbolTableRecord
100
AcDbLayerTableRecord
  2
SMUSSO
 70
0
 62
7
  6
CONTINUOUS
370
-3
390
F
  0
LAYER
  5
21B
100
AcDbSymbolTableRecord
100
AcDbLayerTableRecord
  2
SNAPLINE
 70
0
 62
7
  6
CONTINUOUS
370
-3
390
F
  0
LAYER
  5
21C
100
AcDbSymbolTableRecord
100
AcDbLayerTableRecord
  2
SUPERFICI
 70
0
 62
7
  6
CONTINUOUS
370
-3
390
F
  0
LAYER
  5
21D
100
AcDbSymbolTableRecord
100
AcDbLayerTableRecord
  2
TASTO
 70
0
 62
7
  6
CONTINUOUS
370
-3
390
F
  0
LAYER
  5
21E
100
AcDbSymbolTableRecord
100
AcDbLayerTableRecord
  2
TRASH
 70
0
 62
7
  6
CONTINUOUS
370
-3
390
F
  0
LAYER
  5
21F
100
AcDbSymbolTableRecord
100
AcDbLayerTableRecord
  2
XSEC_DATUMS
 70
0
 62
7
  6
CONTINUOUS
370
-3
390
F
  0
LAYER
  5
220
100
AcDbSymbolTableRecord
100
AcDbLayerTableRecord
  2
___SHELL
 70
0
 62
7
  6
CONTINUOUS
370
-3
390
F
  0
ENDTAB
  0
TABLE
  2
STYLE
  5
3
100
AcDbSymbolTable
 70
1
  0
STYLE
  5
11
100
AcDbSymbolTableRecord
100
AcDbTextStyleTableRecord
  2
STANDARD
 70
0
 40
0.0
 41
0.8
 50
0.0
 71
0
 42
0.2
  3
txt
  4

  0
STYLE
  5
221
100
AcDbSymbolTableRecord
100
AcDbTextStyleTableRecord
  2
TEXTSTYLE_1
 70
0
 40
0.0
 41
0.8
 50
0.0
 71
0
 42
0.2
  3
gdt
  4

  0
ENDTAB
  0
TABLE
  2
VIEW
  5
6
100
AcDbSymbolTable
 70
0
  0
ENDTAB
  0
TABLE
  2
UCS
  5
7
100
AcDbSymbolTable
 70
0
  0
ENDTAB
  0
TABLE
  2
APPID
  5
9
100
AcDbSymbolTable
 70
1
  0
APPID
  5
222
100
AcDbSymbolTableRecord
100
AcDbRegAppTableRecord
  2
ACAD
 70
0
  0
ENDTAB
  0
TABLE
  2
BLOCK_RECORD
  5
1
100
AcDbSymbolTable
 70
0
  0
BLOCK_RECORD
  5
223
100
AcDbSymbolTableRecord
100
AcDbBlockTableRecord
  2
*Model_Space
  0
BLOCK_RECORD
  5
224
100
AcDbSymbolTableRecord
100
AcDbBlockTableRecord
  2
*Paper_Space
  0
BLOCK_RECORD
  5
225
100
AcDbSymbolTableRecord
100
AcDbBlockTableRecord
  2
_FILLED
  0
BLOCK_RECORD
  5
226
100
AcDbSymbolTableRecord
100
AcDbBlockTableRecord
  2
*D0
  0
BLOCK_RECORD
  5
227
100
AcDbSymbolTableRecord
100
AcDbBlockTableRecord
  2
*D1
  0
BLOCK_RECORD
  5
228
100
AcDbSymbolTableRecord
100
AcDbBlockTableRecord
  2
*D2
  0
BLOCK_RECORD
  5
229
100
AcDbSymbolTableRecord
100
AcDbBlockTableRecord
  2
*D3
  0
ENDTAB
  0
TABLE
  2
DIMSTYLE
  5
A
100
AcDbSymbolTable
 70
1
100
AcDbDimStyleTable
 71
0
  0
DIMSTYLE
105
22A
100
AcDbSymbolTableRecord
100
AcDbDimStyleTableRecord
  2
STANDARD
 70
0
  3

  4

 40
1.0
 41
3.0
 42
0.0625
 43
0.38
 44
0.18
 45
0.0
 46
0.0
 47
0.01
 48
0.01
140
3.0
141
0.09
142
0.0
143
25.4
144
1.0
145
0.0
146
1.0
147
0.09
 71
1.0
 72
0.0
 73
0
 74
0
 75
0
 76
0
 77
1
 78
8
170
0
171
2
172
0
173
0
174
0
175
0
176
0
177
0
178
0
270
2
271
2
272
2
273
2
274
2
275
0
280
0
281
0
282
0
283
1
284
8
285
0
286
0
287
3
288
0
340
11
341
225
342
225
343
225
344
225
  0
DIMSTYLE
105
22B
100
AcDbSymbolTableRecord
100
AcDbDimStyleTableRecord
  2
DIMSTYLE_1
 70
0
  3

  4

 40
1.0
 41
3.0
 42
0.0625
 43
0.38
 44
0.18
 45
0.0
 46
0.0
 47
0.0
 48
0.0
140
3.0
141
0.09
142
0.0
143
25.4
144
1.0
145
0.0
146
1.0
147
0.09
 71
0.0
 72
0.0
 73
0
 74
0
 75
0
 76
0
 77
1
 78
8
170
0
171
2
172
0
173
0
174
0
175
0
176
0
177
0
178
0
270
2
271
2
272
2
273
2
274
2
275
0
280
0
281
0
282
0
283
1
284
8
285
0
286
0
287
3
288
0
340
11
341
225
342
225
343
225
344
225
  0
ENDTAB
  0
ENDSEC
  0
SECTION
  2
BLOCKS
  0
BLOCK
  5
20
100
AcDbEntity
  8
0
100
AcDbBlockBegin
  2
*Model_Space
 70
0
 10
0.0
 20
0.0
 30
0.0
  3
*Model_Space
  1

  0
ENDBLK
  5
21
100
AcDbEntity
  8
0
100
AcDbBlockEnd
  0
BLOCK
  5
1C
100
AcDbEntity
  8
0
100
AcDbBlockBegin
  2
*Paper_Space
 70
0
 10
0.0
 20
0.0
 30
0.0
  3
*Paper_Space
  1

  0
ENDBLK
  5
1D
100
AcDbEntity
  8
0
100
AcDbBlockEnd
  0
BLOCK
  5
22C
100
AcDbEntity
  8
0
100
AcDbBlockBegin
  2
_FILLED
 70
64
 10
0.0
 20
0.0
  3
_FILLED
  1

  0
SOLID
  5
22D
100
AcDbEntity
  8
0
  6
BYBLOCK
 62
0
100
AcDbTrace
 10
0.0
 20
0.0
 11
-1.0
 21
0.3166666667
 12
-1.0
 22
-0.3166666667
 13
-1.0
 23
-0.3166666667
  0
ENDBLK
  5
22E
100
AcDbEntity
  8
0
  6
BYBLOCK
 62
0
100
AcDbBlockEnd
  0
BLOCK
  5
22F
100
AcDbEntity
  8
0
100
AcDbBlockBegin
 62
7
  6
CONTINUOUS
  2
*D0
 70
65
 10
0.0
 20
0.0
  3
*D0
  1

  0
MTEXT
  5
230
100
AcDbEntity
  8
0
100
AcDbMText
 62
7
  6
CONTINUOUS
  7
STANDARD
 71
2
 72
1
 10
-60.4137922724
 20
46.75
 30
0.0
 11
1.0
 21
0.0
 31
0.0
 44
0.9
  1
43
 40
3.0
 41
4.5
  0
LINE
  5
231
100
AcDbEntity
  8
0
100
AcDbLine
 62
7
  6
CONTINUOUS
 10
-38.9137922724
 20
16.7869096983
 11
-38.9137922724
 21
44.5
  0
LINE
  5
232
100
AcDbEntity
  8
0
100
AcDbLine
 62
7
  6
CONTINUOUS
 10
-81.9137922724
 20
0.5
 11
-81.9137922724
 21
44.5
  0
LINE
  5
233
100
AcDbEntity
  8
0
100
AcDbLine
 62
7
  6
CONTINUOUS
 10
-38.9137922724
 20
43.0
 11
-60.4137922724
 21
43.0
  0
LINE
  5
234
100
AcDbEntity
  8
0
100
AcDbLine
 62
7
  6
CONTINUOUS
 10
-81.9137922724
 20
43.0
 11
-60.4137922724
 21
43.0
  0
INSERT
  5
235
100
AcDbEntity
  8
0
100
AcDbBlockReference
 62
7
  6
CONTINUOUS
  2
_FILLED
 10
-38.9137922724
 20
43.0
 41
3.0
 42
3.0
 43
3.0
  0
INSERT
  5
236
100
AcDbEntity
  8
0
100
AcDbBlockReference
 62
7
  6
CONTINUOUS
  2
_FILLED
 10
-81.9137922724
 20
43.0
 41
3.0
 42
3.0
 43
3.0
 50
180.0
  0
ENDBLK
  5
237
100
AcDbEntity
  8
0
  6
BYBLOCK
 62
0
100
AcDbBlockEnd
  0
BLOCK
  5
238
100
AcDbEntity
  8
0
100
AcDbBlockBegin
 62
7
  6
CONTINUOUS
  2
*D1
 70
65
 10
0.0
 20
0.0
  3
*D1
  1

  0
MTEXT
  5
239
100
AcDbEntity
  8
0
100
AcDbMText
 62
7
  6
CONTINUOUS
  7
STANDARD
 71
2
 72
1
 10
31.75
 20
0.0
 30
0.0
 11
0.0
 21
1.0
 31
0.0
 44
0.9
  1
49
 40
3.0
 41
4.7142857143
  0
LINE
  5
23A
100
AcDbEntity
  8
0
100
AcDbLine
 62
7
  6
CONTINUOUS
 10
22.0750034269
 20
24.5
 11
37.0
 21
24.5
  0
LINE
  5
23B
100
AcDbEntity
  8
0
100
AcDbLine
 62
7
  6
CONTINUOUS
 10
22.0750034269
 20
-24.5
 11
37.0
 21
-24.5
  0
LINE
  5
23C
100
AcDbEntity
  8
0
100
AcDbLine
 62
7
  6
CONTINUOUS
 10
35.5
 20
24.5
 11
35.5
 21
0.0
  0
LINE
  5
23D
100
AcDbEntity
  8
0
100
AcDbLine
 62
7
  6
CONTINUOUS
 10
35.5
 20
-24.5
 11
35.5
 21
0.0
  0
INSERT
  5
23E
100
AcDbEntity
  8
0
100
AcDbBlockReference
 62
7
  6
CONTINUOUS
  2
_FILLED
 10
35.5
 20
24.5
 41
3.0
 42
3.0
 43
3.0
 50
90.0
  0
INSERT
  5
23F
100
AcDbEntity
  8
0
100
AcDbBlockReference
 62
7
  6
CONTINUOUS
  2
_FILLED
 10
35.5
 20
-24.5
 41
3.0
 42
3.0
 43
3.0
 50
270.0
  0
ENDBLK
  5
240
100
AcDbEntity
  8
0
  6
BYBLOCK
 62
0
100
AcDbBlockEnd
  0
BLOCK
  5
241
100
AcDbEntity
  8
0
100
AcDbBlockBegin
 62
7
  6
CONTINUOUS
  2
*D2
 70
65
 10
0.0
 20
0.0
  3
*D2
  1

  0
MTEXT
  5
242
100
AcDbEntity
  8
0
100
AcDbMText
 62
7
  6
CONTINUOUS
  7
STANDARD
 71
2
 72
1
 10
0.0
 20
36.75
 30
0.0
 11
1.0
 21
0.0
 31
0.0
 44
0.9
  1
44,8
 40
3.0
 41
8.7857142857
  0
LINE
  5
243
100
AcDbEntity
  8
0
100
AcDbLine
 62
7
  6
CONTINUOUS
 10
22.4
 20
18.1716990487
 11
22.4
 21
34.5
  0
LINE
  5
244
100
AcDbEntity
  8
0
100
AcDbLine
 62
7
  6
CONTINUOUS
 10
-22.4
 20
18.1716990487
 11
-22.4
 21
34.5
  0
LINE
  5
245
100
AcDbEntity
  8
0
100
AcDbLine
 62
7
  6
CONTINUOUS
 10
22.4
 20
33.0
 11
0.0
 21
33.0
  0
LINE
  5
246
100
AcDbEntity
  8
0
100
AcDbLine
 62
7
  6
CONTINUOUS
 10
-22.4
 20
33.0
 11
0.0
 21
33.0
  0
INSERT
  5
247
100
AcDbEntity
  8
0
100
AcDbBlockReference
 62
7
  6
CONTINUOUS
  2
_FILLED
 10
22.4
 20
33.0
 41
3.0
 42
3.0
 43
3.0
  0
INSERT
  5
248
100
AcDbEntity
  8
0
100
AcDbBlockReference
 62
7
  6
CONTINUOUS
  2
_FILLED
 10
-22.4
 20
33.0
 41
3.0
 42
3.0
 43
3.0
 50
180.0
  0
ENDBLK
  5
249
100
AcDbEntity
  8
0
  6
BYBLOCK
 62
0
100
AcDbBlockEnd
  0
BLOCK
  5
24A
100
AcDbEntity
  8
0
100
AcDbBlockBegin
 62
7
  6
CONTINUOUS
  2
*D3
 70
65
 10
0.0
 20
0.0
  3
*D3
  1

  0
MTEXT
  5
24B
100
AcDbEntity
  8
0
100
AcDbMText
 62
7
  6
CONTINUOUS
  7
STANDARD
 71
2
 72
1
 10
-55.1637922724
 20
36.75
 30
0.0
 11
1.0
 21
0.0
 31
0.0
 44
0.9
  1
32,5
 40
3.0
 41
8.3571428571
  0
LINE
  5
24C
100
AcDbEntity
  8
0
100
AcDbLine
 62
7
  6
CONTINUOUS
 10
-38.9137922724
 20
16.7869096983
 11
-38.9137922724
 21
34.5
  0
LINE
  5
24D
100
AcDbEntity
  8
0
100
AcDbLine
 62
7
  6
CONTINUOUS
 10
-71.4137922724
 20
24.7500034269
 11
-71.4137922724
 21
34.5
  0
LINE
  5
24E
100
AcDbEntity
  8
0
100
AcDbLine
 62
7
  6
CONTINUOUS
 10
-38.9137922724
 20
33.0
 11
-55.1637922724
 21
33.0
  0
LINE
  5
24F
100
AcDbEntity
  8
0
100
AcDbLine
 62
7
  6
CONTINUOUS
 10
-71.4137922724
 20
33.0
 11
-55.1637922724
 21
33.0
  0
INSERT
  5
250
100
AcDbEntity
  8
0
100
AcDbBlockReference
 62
7
  6
CONTINUOUS
  2
_FILLED
 10
-38.9137922724
 20
33.0
 41
3.0
 42
3.0
 43
3.0
  0
INSERT
  5
251
100
AcDbEntity
  8
0
100
AcDbBlockReference
 62
7
  6
CONTINUOUS
  2
_FILLED
 10
-71.4137922724
 20
33.0
 41
3.0
 42
3.0
 43
3.0
 50
180.0
  0
ENDBLK
  5
252
100
AcDbEntity
  8
0
  6
BYBLOCK
 62
0
100
AcDbBlockEnd
  0
ENDSEC
  0
SECTION
  2
ENTITIES
  0
DIMENSION
  5
253
100
AcDbEntity
  8
0
100
AcDbDimension
 62
7
  6
CONTINUOUS
  2
*D0
 10
-81.9137922724
 20
43.0
 11
-62.6637922724
 21
45.25
 70
160
 71
2
 42
43.0
  3
DIMSTYLE_1
100
AcDbAlignedDimension
 13
-38.9137922724
 23
16.7869096983
 14
-81.9137922724
 24
0.5
 50
180.0
100
AcDbRotatedDimension
  0
DIMENSION
  5
254
100
AcDbEntity
  8
0
100
AcDbDimension
 62
7
  6
CONTINUOUS
  2
*D1
 10
35.5
 20
-24.5
 11
34.3061735237
 21
-2.1072778499
 70
160
 71
2
 42
49.0
  3
DIMSTYLE_1
100
AcDbAlignedDimension
 13
22.0750034269
 23
24.5
 14
22.0750034269
 24
-24.5
 50
270.0
100
AcDbRotatedDimension
  0
DIMENSION
  5
255
100
AcDbEntity
  8
0
100
AcDbDimension
 62
7
  6
CONTINUOUS
  2
*D2
 10
-22.4
 20
33.0
 11
-4.3928571429
 21
35.25
 70
160
 71
2
 42
44.8
  3
DIMSTYLE_1
100
AcDbAlignedDimension
 13
22.4
 23
18.1716990487
 14
-22.4
 24
18.1716990487
 50
180.0
100
AcDbRotatedDimension
  0
DIMENSION
  5
256
100
AcDbEntity
  8
0
100
AcDbDimension
 62
7
  6
CONTINUOUS
  2
*D3
 10
-71.4137922724
 20
33.0
 11
-59.342363701
 21
35.25
 70
160
 71
2
 42
32.5
  3
DIMSTYLE_1
100
AcDbAlignedDimension
 13
-38.9137922724
 23
16.7869096983
 14
-71.4137922724
 24
24.7500034269
 50
180.0
100
AcDbRotatedDimension
  0
LINE
  5
257
100
AcDbEntity
  8
PORTATASTO
100
AcDbLine
 62
253
  6
CONTINUOUS
 10
-19.8170205427
 20
24.4829760304
 11
-19.7999965731
 21
24.5
  0
LINE
  5
258
100
AcDbEntity
  8
PORTATASTO
100
AcDbLine
 62
253
  6
CONTINUOUS
 10
-19.5670239696
 20
24.2329794573
 11
-19.55
 21
24.2500034269
  0
LINE
  5
259
100
AcDbEntity
  8
PORTATASTO
100
AcDbLine
 62
253
  6
CONTINUOUS
 10
-19.8170205427
 20
-24.4829760304
 11
-19.7999965731
 21
-24.5
  0
LINE
  5
25A
100
AcDbEntity
  8
PORTATASTO
100
AcDbLine
 62
253
  6
CONTINUOUS
 10
-19.5670239696
 20
-24.2329794573
 11
-19.55
 21
-24.2500034269
  0
LINE
  5
25B
100
AcDbEntity
  8
PORTATASTO
100
AcDbLine
 62
7
  6
CONTINUOUS
 10
-21.5750034269
 20
-24.5
 11
-19.7999965731
 21
-24.5
  0
LINE
  5
25C
100
AcDbEntity
  8
PORTATASTO
100
AcDbLine
 62
7
  6
CONTINUOUS
 10
21.5750034269
 20
-24.5
 11
19.7999965731
 21
-24.5
  0
LINE
  5
25D
100
AcDbEntity
  8
PORTATASTO
100
AcDbLine
 62
7
  6
CONTINUOUS
 10
-0.9249965731
 20
-24.5
 11
-2.7000034269
 21
-24.5
  0
LINE
  5
25E
100
AcDbEntity
  8
PORTATASTO
100
AcDbLine
 62
7
  6
CONTINUOUS
 10
0.9249965731
 20
-24.5
 11
2.7000034269
 21
-24.5
  0
LINE
  5
25F
100
AcDbEntity
  8
PORTATASTO
100
AcDbLine
 62
7
  6
CONTINUOUS
 10
-21.5579794573
 20
-24.4829760304
 11
-19.8170205427
 21
-24.4829760304
  0
LINE
  5
260
100
AcDbEntity
  8
PORTATASTO
100
AcDbLine
 62
7
  6
CONTINUOUS
 10
-2.6829794573
 20
-24.4829760304
 11
-0.9420205427
 21
-24.4829760304
  0
LINE
  5
261
100
AcDbEntity
  8
PORTATASTO
100
AcDbLine
 62
7
  6
CONTINUOUS
 10
0.9420205427
 20
-24.4829760304
 11
2.6829794573
 21
-24.4829760304
  0
LINE
  5
262
100
AcDbEntity
  8
PORTATASTO
100
AcDbLine
 62
7
  6
CONTINUOUS
 10
19.8170205427
 20
-24.4829760304
 11
21.5579794573
 21
-24.4829760304
  0
LINE
  5
263
100
AcDbEntity
  8
PORTATASTO
100
AcDbLine
 62
7
  6
CONTINUOUS
 10
-22.3849101299
 20
-18.1473460386
 11
-22.35
 21
-18.5
  0
LINE
  5
264
100
AcDbEntity
  8
PORTATASTO
100
AcDbLine
 62
253
  6
CONTINUOUS
 10
-21.8119030571
 20
-23.5113248654
 11
-21.8079760304
 21
-23.9443375673
  0
LINE
  5
265
100
AcDbEntity
  8
ASSI
100
AcDbLine
 62
7
  6
CONTINUOUS
 10
-22.15
 20
2.4247832141
 11
-22.1116448613
 21
-21.5232368509
  0
LINE
  5
266
100
AcDbEntity
  8
RACCORDO
100
AcDbLine
 62
7
  6
CONTINUOUS
 10
-22.15
 20
2.4247832141
 11
-22.1116448613
 21
-21.5232368509
  0
LINE
  5
267
100
AcDbEntity
  8
CORPO
100
AcDbLine
 62
7
  6
CONTINUOUS
 10
-22.4
 20
-17.6716990487
 11
-22.4
 21
17.6716990487
  0
LINE
  5
268
100
AcDbEntity
  8
ASSI
100
AcDbLine
 62
7
  6
CONTINUOUS
 10
-22.4
 20
-17.6716990487
 11
-22.4
 21
17.6716990487
  0
LINE
  5
269
100
AcDbEntity
  8
PORTATASTO
100
AcDbLine
 62
7
  6
CONTINUOUS
 10
-22.3849101299
 20
-18.1473460386
 11
-22.3849101299
 21
18.1473460386
  0
LINE
  5
26A
100
AcDbEntity
  8
PORTATASTO
100
AcDbLine
 62
7
  6
CONTINUOUS
 10
-22.35
 20
21.850016923
 11
-22.35
 21
18.5
  0
LINE
  5
26B
100
AcDbEntity
  8
PORTATASTO
100
AcDbLine
 62
7
  6
CONTINUOUS
 10
-22.35
 20
-21.850016923
 11
-22.35
 21
-18.5
  0
LINE
  5
26C
100
AcDbEntity
  8
PORTATASTO
100
AcDbLine
 62
7
  6
CONTINUOUS
 10
-22.3238174026
 20
21.771159479
 11
-22.3238174026
 21
-21.771159479
  0
LINE
  5
26D
100
AcDbEntity
  8
ASSI
100
AcDbLine
 62
7
  6
CONTINUOUS
 10
-22.15
 20
2.4247832141
 11
-22.15
 21
21.5999997649
  0
LINE
  5
26E
100
AcDbEntity
  8
RACCORDO
100
AcDbLine
 62
7
  6
CONTINUOUS
 10
-22.15
 20
2.4247832141
 11
-22.15
 21
21.5999997649
  0
LINE
  5
26F
100
AcDbEntity
  8
PORTATASTO
100
AcDbLine
 62
253
  6
CONTINUOUS
 10
-21.8079760304
 20
23.9443375673
 11
-21.8119030571
 21
23.5113248654
  0
LINE
  5
270
100
AcDbEntity
  8
PORTATASTO
100
AcDbLine
 62
7
  6
CONTINUOUS
 10
-22.35
 20
18.5
 11
-22.3849101299
 21
18.1473460386
  0
LINE
  5
271
100
AcDbEntity
  8
PORTATASTO
100
AcDbLine
 62
253
  6
CONTINUOUS
 10
0.6920239696
 20
-24.2329794573
 11
2.9329760304
 21
-24.2329794573
  0
LINE
  5
272
100
AcDbEntity
  8
PORTATASTO
100
AcDbLine
 62
253
  6
CONTINUOUS
 10
-0.6920239696
 20
-24.2329794573
 11
-2.9329760304
 21
-24.2329794573
  0
LINE
  5
273
100
AcDbEntity
  8
PORTATASTO
100
AcDbLine
 62
253
  6
CONTINUOUS
 10
19.5670239696
 20
-24.2329794573
 11
21.8079760304
 21
-24.2329794573
  0
LINE
  5
274
100
AcDbEntity
  8
PORTATASTO
100
AcDbLine
 62
253
  6
CONTINUOUS
 10
-19.5670239696
 20
-24.2329794573
 11
-21.8079760304
 21
-24.2329794573
  0
LINE
  5
275
100
AcDbEntity
  8
PORTATASTO
100
AcDbLine
 62
253
  6
CONTINUOUS
 10
-0.6920239696
 20
-23.9443375673
 11
-2.9329760304
 21
-23.9443375673
  0
LINE
  5
276
100
AcDbEntity
  8
PORTATASTO
100
AcDbLine
 62
253
  6
CONTINUOUS
 10
0.6920239696
 20
-23.9443375673
 11
2.9329760304
 21
-23.9443375673
  0
LINE
  5
277
100
AcDbEntity
  8
PORTATASTO
100
AcDbLine
 62
253
  6
CONTINUOUS
 10
-19.5670239696
 20
-23.9443375673
 11
-21.8079760304
 21
-23.9443375673
  0
LINE
  5
278
100
AcDbEntity
  8
PORTATASTO
100
AcDbLine
 62
253
  6
CONTINUOUS
 10
19.5670239696
 20
-23.9443375673
 11
21.8079760304
 21
-23.9443375673
  0
LINE
  5
279
100
AcDbEntity
  8
PORTATASTO
100
AcDbLine
 62
7
  6
CONTINUOUS
 10
15.65
 20
-23.8
 11
6.85
 21
-23.8
  0
LINE
  5
27A
100
AcDbEntity
  8
PORTATASTO
100
AcDbLine
 62
7
  6
CONTINUOUS
 10
-6.85
 20
-23.8
 11
-15.65
 21
-23.8
  0
LINE
  5
27B
100
AcDbEntity
  8
PORTATASTO
100
AcDbLine
 62
7
  6
CONTINUOUS
 10
-15.541351552
 20
-23.7905696528
 11
-6.958648448
 21
-23.7905696528
  0
LINE
  5
27C
100
AcDbEntity
  8
PORTATASTO
100
AcDbLine
 62
7
  6
CONTINUOUS
 10
6.958648448
 20
-23.7905696528
 11
15.541351552
 21
-23.7905696528
  0
LINE
  5
27D
100
AcDbEntity
  8
PORTATASTO
100
AcDbLine
 62
253
  6
CONTINUOUS
 10
21.5579794573
 20
-23.7278312164
 11
19.8170205427
 21
-23.7278312164
  0
LINE
  5
27E
100
AcDbEntity
  8
PORTATASTO
100
AcDbLine
 62
253
  6
CONTINUOUS
 10
2.6829794573
 20
-23.7278312164
 11
0.9420205427
 21
-23.7278312164
  0
LINE
  5
27F
100
AcDbEntity
  8
PORTATASTO
100
AcDbLine
 62
253
  6
CONTINUOUS
 10
-0.9420205427
 20
-23.7278312164
 11
-2.6829794573
 21
-23.7278312164
  0
LINE
  5
280
100
AcDbEntity
  8
PORTATASTO
100
AcDbLine
 62
253
  6
CONTINUOUS
 10
-19.8170205427
 20
-23.7278312164
 11
-21.5579794573
 21
-23.7278312164
  0
LINE
  5
281
100
AcDbEntity
  8
PORTATASTO
100
AcDbLine
 62
253
  6
CONTINUOUS
 10
-15.1421390926
 20
-23.5905723943
 11
-7.3578609074
 21
-23.5905723943
  0
LINE
  5
282
100
AcDbEntity
  8
PORTATASTO
100
AcDbLine
 62
253
  6
CONTINUOUS
 10
7.3578609074
 20
-23.5905723943
 11
15.1421390926
 21
-23.5905723943
  0
LINE
  5
283
100
AcDbEntity
  8
PORTATASTO
100
AcDbLine
 62
253
  6
CONTINUOUS
 10
21.561906484
 20
-23.2948185145
 11
19.813093516
 21
-23.2948185145
  0
LINE
  5
284
100
AcDbEntity
  8
PORTATASTO
100
AcDbLine
 62
253
  6
CONTINUOUS
 10
2.686906484
 20
-23.2948185145
 11
0.938093516
 21
-23.2948185145
  0
LINE
  5
285
100
AcDbEntity
  8
PORTATASTO
100
AcDbLine
 62
253
  6
CONTINUOUS
 10
-0.938093516
 20
-23.2948185145
 11
-2.686906484
 21
-23.2948185145
  0
LINE
  5
286
100
AcDbEntity
  8
PORTATASTO
100
AcDbLine
 62
253
  6
CONTINUOUS
 10
-19.813093516
 20
-23.2948185145
 11
-21.561906484
 21
-23.2948185145
  0
LINE
  5
287
100
AcDbEntity
  8
PORTATASTO
100
AcDbLine
 62
7
  6
CONTINUOUS
 10
-15.7446938615
 20
-23.2226497308
 11
-15.6447639644
 21
-23.2226497308
  0
LINE
  5
288
100
AcDbEntity
  8
PORTATASTO
100
AcDbLine
 62
7
  6
CONTINUOUS
 10
-6.8552360356
 20
-23.2226497308
 11
-6.7553061385
 21
-23.2226497308
  0
LINE
  5
289
100
AcDbEntity
  8
PORTATASTO
100
AcDbLine
 62
7
  6
CONTINUOUS
 10
6.7553061385
 20
-23.2226497308
 11
6.8552360356
 21
-23.2226497308
  0
LINE
  5
28A
100
AcDbEntity
  8
PORTATASTO
100
AcDbLine
 62
7
  6
CONTINUOUS
 10
15.6447639644
 20
-23.2226497308
 11
15.7446938615
 21
-23.2226497308
  0
LINE
  5
28B
100
AcDbEntity
  8
PORTATASTO
100
AcDbLine
 62
253
  6
CONTINUOUS
 10
21.813212066
 20
-23.0783121635
 11
19.561787934
 21
-23.0783121635
  0
LINE
  5
28C
100
AcDbEntity
  8
PORTATASTO
100
AcDbLine
 62
253
  6
CONTINUOUS
 10
2.938212066
 20
-23.0783121635
 11
0.686787934
 21
-23.0783121635
  0
LINE
  5
28D
100
AcDbEntity
  8
PORTATASTO
100
AcDbLine
 62
253
  6
CONTINUOUS
 10
-0.686787934
 20
-23.0783121635
 11
-2.938212066
 21
-23.0783121635
  0
LINE
  5
28E
100
AcDbEntity
  8
PORTATASTO
100
AcDbLine
 62
253
  6
CONTINUOUS
 10
-19.561787934
 20
-23.0783121635
 11
-21.813212066
 21
-23.0783121635
  0
LINE
  5
28F
100
AcDbEntity
  8
CORPO
100
AcDbLine
 62
7
  6
CONTINUOUS
 10
0.6802360356
 20
-22.4
 11
-0.6802360356
 21
-22.4
  0
LINE
  5
290
100
AcDbEntity
  8
ASSI
100
AcDbLine
 62
7
  6
CONTINUOUS
 10
0.6802360356
 20
-22.4
 11
-0.6802360356
 21
-22.4
  0
LINE
  5
291
100
AcDbEntity
  8
PORTATASTO
100
AcDbLine
 62
7
  6
CONTINUOUS
 10
21.8503805997
 20
-22.35
 11
21.8197639644
 21
-22.35
  0
LINE
  5
292
100
AcDbEntity
  8
PORTATASTO
100
AcDbLine
 62
7
  6
CONTINUOUS
 10
19.5552360356
 20
-22.35
 11
15.6447639644
 21
-22.35
  0
LINE
  5
293
100
AcDbEntity
  8
PORTATASTO
100
AcDbLine
 62
7
  6
CONTINUOUS
 10
6.8552360356
 20
-22.35
 11
2.9447639644
 21
-22.35
  0
LINE
  5
294
100
AcDbEntity
  8
PORTATASTO
100
AcDbLine
 62
7
  6
CONTINUOUS
 10
0.6802360356
 20
-22.35
 11
-0.6802360356
 21
-22.35
  0
LINE
  5
295
100
AcDbEntity
  8
PORTATASTO
100
AcDbLine
 62
7
  6
CONTINUOUS
 10
-2.9447639644
 20
-22.35
 11
-6.8552360356
 21
-22.35
  0
LINE
  5
296
100
AcDbEntity
  8
PORTATASTO
100
AcDbLine
 62
7
  6
CONTINUOUS
 10
-15.6447639644
 20
-22.35
 11
-19.5552360356
 21
-22.35
  0
LINE
  5
297
100
AcDbEntity
  8
PORTATASTO
100
AcDbLine
 62
7
  6
CONTINUOUS
 10
-21.8197639644
 20
-22.35
 11
-21.8503805997
 21
-22.35
  0
LINE
  5
298
100
AcDbEntity
  8
PORTATASTO
100
AcDbLine
 62
7
  6
CONTINUOUS
 10
15.1421390926
 20
-22.2975922207
 11
7.3578609074
 21
-22.2975922207
  0
LINE
  5
299
100
AcDbEntity
  8
PORTATASTO
100
AcDbLine
 62
7
  6
CONTINUOUS
 10
-7.3578609074
 20
-22.2975922207
 11
-15.1421390926
 21
-22.2975922207
  0
LINE
  5
29A
100
AcDbEntity
  8
PORTATASTO
100
AcDbLine
 62
7
  6
CONTINUOUS
 10
21.8241980023
 20
-22.2713883311
 11
21.5632154929
 21
-22.2713883311
  0
LINE
  5
29B
100
AcDbEntity
  8
PORTATASTO
100
AcDbLine
 62
7
  6
CONTINUOUS
 10
19.8117845071
 20
-22.2713883311
 11
2.6882154929
 21
-22.2713883311
  0
LINE
  5
29C
100
AcDbEntity
  8
PORTATASTO
100
AcDbLine
 62
7
  6
CONTINUOUS
 10
0.9367845071
 20
-22.2713883311
 11
-0.9367845071
 21
-22.2713883311
  0
LINE
  5
29D
100
AcDbEntity
  8
PORTATASTO
100
AcDbLine
 62
7
  6
CONTINUOUS
 10
-2.6882154929
 20
-22.2713883311
 11
-19.8117845071
 21
-22.2713883311
  0
LINE
  5
29E
100
AcDbEntity
  8
PORTATASTO
100
AcDbLine
 62
7
  6
CONTINUOUS
 10
-21.5632154929
 20
-22.2713883311
 11
-21.8241980023
 21
-22.2713883311
  0
LINE
  5
29F
100
AcDbEntity
  8
ASSI
100
AcDbLine
 62
7
  6
CONTINUOUS
 10
-21.6113604562
 20
-22.0216395076
 11
21.6113604562
 21
-22.0216395076
  0
LINE
  5
2A0
100
AcDbEntity
  8
RACCORDO
100
AcDbLine
 62
7
  6
CONTINUOUS
 10
-21.6113604562
 20
-22.0216395076
 11
21.6113604562
 21
-22.0216395076
  0
LINE
  5
2A1
100
AcDbEntity
  8
PORTATASTO
100
AcDbLine
 62
253
  6
CONTINUOUS
 10
-21.561906484
 20
-23.2948185145
 11
-21.5579794573
 21
-23.7278312164
  0
LINE
  5
2A2
100
AcDbEntity
  8
PORTATASTO
100
AcDbLine
 62
7
  6
CONTINUOUS
 10
-21.8197639644
 20
23.2226497308
 11
-21.825
 21
23.8
  0
LINE
  5
2A3
100
AcDbEntity
  8
PORTATASTO
100
AcDbLine
 62
7
  6
CONTINUOUS
 10
-19.55
 20
-23.8
 11
-19.5552360356
 21
-23.2226497308
  0
LINE
  5
2A4
100
AcDbEntity
  8
PORTATASTO
100
AcDbLine
 62
253
  6
CONTINUOUS
 10
-19.813093516
 20
23.2948185145
 11
-19.8170205427
 21
23.7278312164
  0
LINE
  5
2A5
100
AcDbEntity
  8
PORTATASTO
100
AcDbLine
 62
7
  6
CONTINUOUS
 10
-21.825
 20
-24.2500034269
 11
-21.825
 21
-23.8
  0
LINE
  5
2A6
100
AcDbEntity
  8
PORTATASTO
100
AcDbLine
 62
7
  6
CONTINUOUS
 10
-21.825
 20
23.8
 11
-21.825
 21
24.2500034269
  0
LINE
  5
2A7
100
AcDbEntity
  8
PORTATASTO
100
AcDbLine
 62
7
  6
CONTINUOUS
 10
-21.8197639644
 20
23.2226497308
 11
-21.8197639644
 21
23.0783121635
  0
LINE
  5
2A8
100
AcDbEntity
  8
PORTATASTO
100
AcDbLine
 62
7
  6
CONTINUOUS
 10
-21.8197639644
 20
-23.0783121635
 11
-21.8197639644
 21
-23.2226497308
  0
LINE
  5
2A9
100
AcDbEntity
  8
PORTATASTO
100
AcDbLine
 62
7
  6
CONTINUOUS
 10
-21.813212066
 20
23.0783121635
 11
-21.813212066
 21
22.2844216746
  0
LINE
  5
2AA
100
AcDbEntity
  8
PORTATASTO
100
AcDbLine
 62
7
  6
CONTINUOUS
 10
-21.813212066
 20
-22.2844216746
 11
-21.813212066
 21
-23.0783121635
  0
LINE
  5
2AB
100
AcDbEntity
  8
PORTATASTO
100
AcDbLine
 62
7
  6
CONTINUOUS
 10
-21.8079760304
 20
24.2329794573
 11
-21.8079760304
 21
23.9443375673
  0
LINE
  5
2AC
100
AcDbEntity
  8
PORTATASTO
100
AcDbLine
 62
7
  6
CONTINUOUS
 10
-21.8079760304
 20
-23.9443375673
 11
-21.8079760304
 21
-24.2329794573
  0
LINE
  5
2AD
100
AcDbEntity
  8
PORTATASTO
100
AcDbLine
 62
253
  6
CONTINUOUS
 10
-21.5632154929
 20
23.0783121635
 11
-21.5632154929
 21
22.2713883311
  0
LINE
  5
2AE
100
AcDbEntity
  8
PORTATASTO
100
AcDbLine
 62
253
  6
CONTINUOUS
 10
-21.5632154929
 20
-22.2713883311
 11
-21.5632154929
 21
-23.0783121635
  0
LINE
  5
2AF
100
AcDbEntity
  8
PORTATASTO
100
AcDbLine
 62
253
  6
CONTINUOUS
 10
-21.5579794573
 20
-23.7278312164
 11
-21.5579794573
 21
-24.4829760304
  0
LINE
  5
2B0
100
AcDbEntity
  8
PORTATASTO
100
AcDbLine
 62
253
  6
CONTINUOUS
 10
-21.5579794573
 20
23.7278312164
 11
-21.5579794573
 21
24.4829760304
  0
LINE
  5
2B1
100
AcDbEntity
  8
PORTATASTO
100
AcDbLine
 62
253
  6
CONTINUOUS
 10
-19.8170205427
 20
-23.7278312164
 11
-19.8170205427
 21
-24.4829760304
  0
LINE
  5
2B2
100
AcDbEntity
  8
PORTATASTO
100
AcDbLine
 62
253
  6
CONTINUOUS
 10
-19.8170205427
 20
23.7278312164
 11
-19.8170205427
 21
24.4829760304
  0
LINE
  5
2B3
100
AcDbEntity
  8
PORTATASTO
100
AcDbLine
 62
253
  6
CONTINUOUS
 10
-19.8117845071
 20
-23.0783121635
 11
-19.8117845071
 21
-22.2713883311
  0
LINE
  5
2B4
100
AcDbEntity
  8
PORTATASTO
100
AcDbLine
 62
253
  6
CONTINUOUS
 10
-19.8117845071
 20
22.2713883311
 11
-19.8117845071
 21
23.0783121635
  0
LINE
  5
2B5
100
AcDbEntity
  8
PORTATASTO
100
AcDbLine
 62
7
  6
CONTINUOUS
 10
-19.5670239696
 20
-24.2329794573
 11
-19.5670239696
 21
-23.9443375673
  0
LINE
  5
2B6
100
AcDbEntity
  8
PORTATASTO
100
AcDbLine
 62
7
  6
CONTINUOUS
 10
-19.5670239696
 20
23.9443375673
 11
-19.5670239696
 21
24.2329794573
  0
LINE
  5
2B7
100
AcDbEntity
  8
PORTATASTO
100
AcDbLine
 62
7
  6
CONTINUOUS
 10
-19.561787934
 20
-23.0783121635
 11
-19.561787934
 21
-22.2844216746
  0
LINE
  5
2B8
100
AcDbEntity
  8
PORTATASTO
100
AcDbLine
 62
7
  6
CONTINUOUS
 10
-19.561787934
 20
22.2844216746
 11
-19.561787934
 21
23.0783121635
  0
LINE
  5
2B9
100
AcDbEntity
  8
PORTATASTO
100
AcDbLine
 62
7
  6
CONTINUOUS
 10
-19.5552360356
 20
23.2226497308
 11
-19.5552360356
 21
23.0783121635
  0
LINE
  5
2BA
100
AcDbEntity
  8
PORTATASTO
100
AcDbLine
 62
7
  6
CONTINUOUS
 10
-19.5552360356
 20
-23.0783121635
 11
-19.5552360356
 21
-23.2226497308
  0
LINE
  5
2BB
100
AcDbEntity
  8
PORTATASTO
100
AcDbLine
 62
7
  6
CONTINUOUS
 10
-19.55
 20
24.2500034269
 11
-19.55
 21
23.8
  0
LINE
  5
2BC
100
AcDbEntity
  8
PORTATASTO
100
AcDbLine
 62
7
  6
CONTINUOUS
 10
-19.55
 20
-23.8
 11
-19.55
 21
-24.2500034269
  0
LINE
  5
2BD
100
AcDbEntity
  8
PORTATASTO
100
AcDbLine
 62
253
  6
CONTINUOUS
 10
-21.5579794573
 20
23.7278312164
 11
-21.561906484
 21
23.2948185145
  0
LINE
  5
2BE
100
AcDbEntity
  8
PORTATASTO
100
AcDbLine
 62
7
  6
CONTINUOUS
 10
-21.825
 20
-23.8
 11
-21.8197639644
 21
-23.2226497308
  0
LINE
  5
2BF
100
AcDbEntity
  8
PORTATASTO
100
AcDbLine
 62
7
  6
CONTINUOUS
 10
-19.5552360356
 20
23.2226497308
 11
-19.55
 21
23.8
  0
LINE
  5
2C0
100
AcDbEntity
  8
PORTATASTO
100
AcDbLine
 62
253
  6
CONTINUOUS
 10
-19.8170205427
 20
-23.7278312164
 11
-19.813093516
 21
-23.2948185145
  0
LINE
  5
2C1
100
AcDbEntity
  8
ASSI
100
AcDbLine
 62
253
  6
CONTINUOUS
 10
21.5152970636
 20
-21.8293808902
 11
-21.5152970636
 21
-21.8293808902
  0
LINE
  5
2C2
100
AcDbEntity
  8
RACCORDO
100
AcDbLine
 62
253
  6
CONTINUOUS
 10
21.5152970636
 20
-21.8293808902
 11
-21.5152970636
 21
-21.8293808902
  0
LINE
  5
2C3
100
AcDbEntity
  8
ASSI
100
AcDbLine
 62
253
  6
CONTINUOUS
 10
21.4905033956
 20
-20.3926143742
 11
-21.4905033956
 21
-20.3926143742
  0
LINE
  5
2C4
100
AcDbEntity
  8
RACCORDO
100
AcDbLine
 62
253
  6
CONTINUOUS
 10
21.4905033956
 20
-20.3926143742
 11
-21.4905033956
 21
-20.3926143742
  0
LINE
  5
2C5
100
AcDbEntity
  8
PORTATASTO
100
AcDbLine
 62
253
  6
CONTINUOUS
 10
-19.5630969429
 20
23.5113248654
 11
-19.5670239696
 21
23.9443375673
  0
LINE
  5
2C6
100
AcDbEntity
  8
PORTATASTO
100
AcDbLine
 62
253
  6
CONTINUOUS
 10
-19.5670239696
 20
-23.9443375673
 11
-19.5630969429
 21
-23.5113248654
  0
LINE
  5
2C7
100
AcDbEntity
  8
PORTATASTO
100
AcDbLine
 62
253
  6
CONTINUOUS
 10
-0.9420205427
 20
24.4829760304
 11
-0.9249965731
 21
24.5
  0
LINE
  5
2C8
100
AcDbEntity
  8
PORTATASTO
100
AcDbLine
 62
253
  6
CONTINUOUS
 10
-0.6920239696
 20
24.2329794573
 11
-0.675
 21
24.2500034269
  0
LINE
  5
2C9
100
AcDbEntity
  8
PORTATASTO
100
AcDbLine
 62
253
  6
CONTINUOUS
 10
-0.9420205427
 20
-24.4829760304
 11
-0.9249965731
 21
-24.5
  0
LINE
  5
2CA
100
AcDbEntity
  8
PORTATASTO
100
AcDbLine
 62
253
  6
CONTINUOUS
 10
-0.6920239696
 20
-24.2329794573
 11
-0.675
 21
-24.2500034269
  0
LINE
  5
2CB
100
AcDbEntity
  8
PORTATASTO
100
AcDbLine
 62
7
  6
CONTINUOUS
 10
-15.6552360356
 20
-22.35
 11
-15.6552360356
 21
-22.85711136
  0
LINE
  5
2CC
100
AcDbEntity
  8
PORTATASTO
100
AcDbLine
 62
7
  6
CONTINUOUS
 10
-15.6552360356
 20
22.35
 11
-15.6552360356
 21
22.85711136
  0
LINE
  5
2CD
100
AcDbEntity
  8
PORTATASTO
100
AcDbLine
 62
7
  6
CONTINUOUS
 10
-15.6421322387
 20
23.7921322387
 11
-15.6421322387
 21
22.3236589077
  0
LINE
  5
2CE
100
AcDbEntity
  8
PORTATASTO
100
AcDbLine
 62
7
  6
CONTINUOUS
 10
-15.6421322387
 20
-22.3236589077
 11
-15.6421322387
 21
-23.7921322387
  0
LINE
  5
2CF
100
AcDbEntity
  8
PORTATASTO
100
AcDbLine
 62
253
  6
CONTINUOUS
 10
-15.1421390926
 20
23.5905723943
 11
-15.1421390926
 21
22.2975922207
  0
LINE
  5
2D0
100
AcDbEntity
  8
PORTATASTO
100
AcDbLine
 62
253
  6
CONTINUOUS
 10
-15.1421390926
 20
-22.2975922207
 11
-15.1421390926
 21
-23.5905723943
  0
LINE
  5
2D1
100
AcDbEntity
  8
PORTATASTO
100
AcDbLine
 62
253
  6
CONTINUOUS
 10
2.6829794573
 20
24.4829760304
 11
2.7000034269
 21
24.5
  0
LINE
  5
2D2
100
AcDbEntity
  8
PORTATASTO
100
AcDbLine
 62
253
  6
CONTINUOUS
 10
2.9329760304
 20
24.2329794573
 11
2.95
 21
24.2500034269
  0
LINE
  5
2D3
100
AcDbEntity
  8
0
100
AcDbLine
 62
253
  6
CONTINUOUS
 10
4.5
 20
-15.0
 11
-4.5
 21
-15.0
  0
LINE
  5
2D4
100
AcDbEntity
  8
PORTATASTO
100
AcDbLine
 62
253
  6
CONTINUOUS
 10
2.6829794573
 20
-24.4829760304
 11
2.7000034269
 21
-24.5
  0
LINE
  5
2D5
100
AcDbEntity
  8
PORTATASTO
100
AcDbLine
 62
253
  6
CONTINUOUS
 10
2.9329760304
 20
-24.2329794573
 11
2.95
 21
-24.2500034269
  0
LINE
  5
2D6
100
AcDbEntity
  8
PORTATASTO
100
AcDbLine
 62
253
  6
CONTINUOUS
 10
-22.35
 20
-21.8497711479
 11
-22.3238174026
 21
-21.771159479
  0
LINE
  5
2D7
100
AcDbEntity
  8
PORTATASTO
100
AcDbLine
 62
253
  6
CONTINUOUS
 10
-21.8503805997
 20
-22.35
 11
-21.8270084758
 21
-22.2798266081
  0
LINE
  5
2D8
100
AcDbEntity
  8
PORTATASTO
100
AcDbLine
 62
253
  6
CONTINUOUS
 10
-22.3238174026
 20
21.771159479
 11
-22.35
 21
21.8497711479
  0
LINE
  5
2D9
100
AcDbEntity
  8
PORTATASTO
100
AcDbLine
 62
253
  6
CONTINUOUS
 10
-21.8270084758
 20
22.2798266081
 11
-21.8503805997
 21
22.35
  0
LINE
  5
2DA
100
AcDbEntity
  8
ASSI
100
AcDbLine
 62
253
  6
CONTINUOUS
 10
-22.1116448613
 20
-21.5232368509
 11
-22.0151257261
 21
-21.3300661228
  0
LINE
  5
2DB
100
AcDbEntity
  8
RACCORDO
100
AcDbLine
 62
253
  6
CONTINUOUS
 10
-22.1116448613
 20
-21.5232368509
 11
-22.0151257261
 21
-21.3300661228
  0
LINE
  5
2DC
100
AcDbEntity
  8
ASSI
100
AcDbLine
 62
253
  6
CONTINUOUS
 10
-22.0151257261
 20
21.3300661228
 11
-22.15
 21
21.5999997649
  0
LINE
  5
2DD
100
AcDbEntity
  8
RACCORDO
100
AcDbLine
 62
253
  6
CONTINUOUS
 10
-22.0151257261
 20
21.3300661228
 11
-22.15
 21
21.5999997649
  0
LINE
  5
2DE
100
AcDbEntity
  8
PORTATASTO
100
AcDbLine
 62
253
  6
CONTINUOUS
 10
-7.3578609074
 20
-23.5905723943
 11
-7.3578609074
 21
-22.2975922207
  0
LINE
  5
2DF
100
AcDbEntity
  8
PORTATASTO
100
AcDbLine
 62
253
  6
CONTINUOUS
 10
-7.3578609074
 20
22.2975922207
 11
-7.3578609074
 21
23.5905723943
  0
LINE
  5
2E0
100
AcDbEntity
  8
ASSI
100
AcDbLine
 62
253
  6
CONTINUOUS
 10
-21.6113604562
 20
-22.0216395076
 11
-21.5152970636
 21
-21.8293808902
  0
LINE
  5
2E1
100
AcDbEntity
  8
RACCORDO
100
AcDbLine
 62
253
  6
CONTINUOUS
 10
-21.6113604562
 20
-22.0216395076
 11
-21.5152970636
 21
-21.8293808902
  0
LINE
  5
2E2
100
AcDbEntity
  8
0
100
AcDbLine
 62
253
  6
CONTINUOUS
 10
0.0
 20
-10.5
 11
4.5
 21
-15.0
  0
LINE
  5
2E3
100
AcDbEntity
  8
ASSI
100
AcDbLine
 62
253
  6
CONTINUOUS
 10
-21.5152970636
 20
21.8293808902
 11
-21.6505138364
 21
22.1
  0
LINE
  5
2E4
100
AcDbEntity
  8
RACCORDO
100
AcDbLine
 62
253
  6
CONTINUOUS
 10
-21.5152970636
 20
21.8293808902
 11
-21.6505138364
 21
22.1
  0
LINE
  5
2E5
100
AcDbEntity
  8
PORTATASTO
100
AcDbLine
 62
7
  6
CONTINUOUS
 10
-6.8578677613
 20
-23.7921322387
 11
-6.8578677613
 21
-22.3236589077
  0
LINE
  5
2E6
100
AcDbEntity
  8
PORTATASTO
100
AcDbLine
 62
7
  6
CONTINUOUS
 10
-6.8578677613
 20
22.3236589077
 11
-6.8578677613
 21
23.7921322387
  0
LINE
  5
2E7
100
AcDbEntity
  8
PORTATASTO
100
AcDbLine
 62
7
  6
CONTINUOUS
 10
-6.8447639644
 20
-22.35
 11
-6.8447639644
 21
-22.85711136
  0
LINE
  5
2E8
100
AcDbEntity
  8
PORTATASTO
100
AcDbLine
 62
7
  6
CONTINUOUS
 10
-6.8447639644
 20
22.35
 11
-6.8447639644
 21
22.85711136
  0
LINE
  5
2E9
100
AcDbEntity
  8
0
100
AcDbLine
 62
253
  6
CONTINUOUS
 10
4.5
 20
-12.8786796564
 11
-0.0
 21
-8.3786796564
  0
LINE
  5
2EA
100
AcDbEntity
  8
PORTATASTO
100
AcDbLine
 62
253
  6
CONTINUOUS
 10
-2.9369030571
 20
-23.5113248654
 11
-2.9329760304
 21
-23.9443375673
  0
LINE
  5
2EB
100
AcDbEntity
  8
PORTATASTO
100
AcDbLine
 62
253
  6
CONTINUOUS
 10
-2.686906484
 20
-23.2948185145
 11
-2.6829794573
 21
-23.7278312164
  0
LINE
  5
2EC
100
AcDbEntity
  8
PORTATASTO
100
AcDbLine
 62
7
  6
CONTINUOUS
 10
-2.95
 20
23.8
 11
-2.9447639644
 21
23.2226497308
  0
LINE
  5
2ED
100
AcDbEntity
  8
PORTATASTO
100
AcDbLine
 62
7
  6
CONTINUOUS
 10
-2.95
 20
-24.2500034269
 11
-2.95
 21
-23.8
  0
LINE
  5
2EE
100
AcDbEntity
  8
PORTATASTO
100
AcDbLine
 62
7
  6
CONTINUOUS
 10
-2.95
 20
23.8
 11
-2.95
 21
24.2500034269
  0
LINE
  5
2EF
100
AcDbEntity
  8
PORTATASTO
100
AcDbLine
 62
7
  6
CONTINUOUS
 10
-2.9447639644
 20
23.2226497308
 11
-2.9447639644
 21
23.0783121635
  0
LINE
  5
2F0
100
AcDbEntity
  8
PORTATASTO
100
AcDbLine
 62
7
  6
CONTINUOUS
 10
-2.9447639644
 20
-23.0783121635
 11
-2.9447639644
 21
-23.2226497308
  0
LINE
  5
2F1
100
AcDbEntity
  8
PORTATASTO
100
AcDbLine
 62
7
  6
CONTINUOUS
 10
-2.938212066
 20
23.0783121635
 11
-2.938212066
 21
22.2844216746
  0
LINE
  5
2F2
100
AcDbEntity
  8
PORTATASTO
100
AcDbLine
 62
7
  6
CONTINUOUS
 10
-2.938212066
 20
-22.2844216746
 11
-2.938212066
 21
-23.0783121635
  0
LINE
  5
2F3
100
AcDbEntity
  8
PORTATASTO
100
AcDbLine
 62
7
  6
CONTINUOUS
 10
-2.9329760304
 20
24.2329794573
 11
-2.9329760304
 21
23.9443375673
  0
LINE
  5
2F4
100
AcDbEntity
  8
PORTATASTO
100
AcDbLine
 62
7
  6
CONTINUOUS
 10
-2.9329760304
 20
-23.9443375673
 11
-2.9329760304
 21
-24.2329794573
  0
LINE
  5
2F5
100
AcDbEntity
  8
PORTATASTO
100
AcDbLine
 62
253
  6
CONTINUOUS
 10
-2.6882154929
 20
23.0783121635
 11
-2.6882154929
 21
22.2713883311
  0
LINE
  5
2F6
100
AcDbEntity
  8
PORTATASTO
100
AcDbLine
 62
253
  6
CONTINUOUS
 10
-2.6882154929
 20
-22.2713883311
 11
-2.6882154929
 21
-23.0783121635
  0
LINE
  5
2F7
100
AcDbEntity
  8
PORTATASTO
100
AcDbLine
 62
253
  6
CONTINUOUS
 10
-2.6829794573
 20
-23.7278312164
 11
-2.6829794573
 21
-24.4829760304
  0
LINE
  5
2F8
100
AcDbEntity
  8
PORTATASTO
100
AcDbLine
 62
253
  6
CONTINUOUS
 10
-2.6829794573
 20
23.7278312164
 11
-2.6829794573
 21
24.4829760304
  0
LINE
  5
2F9
100
AcDbEntity
  8
PORTATASTO
100
AcDbLine
 62
253
  6
CONTINUOUS
 10
-2.9329760304
 20
23.9443375673
 11
-2.9369030571
 21
23.5113248654
  0
LINE
  5
2FA
100
AcDbEntity
  8
PORTATASTO
100
AcDbLine
 62
253
  6
CONTINUOUS
 10
-2.6829794573
 20
23.7278312164
 11
-2.686906484
 21
23.2948185145
  0
LINE
  5
2FB
100
AcDbEntity
  8
PORTATASTO
100
AcDbLine
 62
7
  6
CONTINUOUS
 10
-2.9447639644
 20
-23.2226497308
 11
-2.95
 21
-23.8
  0
LINE
  5
2FC
100
AcDbEntity
  8
PORTATASTO
100
AcDbLine
 62
7
  6
CONTINUOUS
 10
-0.6802360356
 20
-23.2226497308
 11
-0.675
 21
-23.8
  0
LINE
  5
2FD
100
AcDbEntity
  8
PORTATASTO
100
AcDbLine
 62
253
  6
CONTINUOUS
 10
-0.938093516
 20
23.2948185145
 11
-0.9420205427
 21
23.7278312164
  0
LINE
  5
2FE
100
AcDbEntity
  8
PORTATASTO
100
AcDbLine
 62
253
  6
CONTINUOUS
 10
-0.6880969429
 20
23.5113248654
 11
-0.6920239696
 21
23.9443375673
  0
LINE
  5
2FF
100
AcDbEntity
  8
PORTATASTO
100
AcDbLine
 62
253
  6
CONTINUOUS
 10
-0.9420205427
 20
-23.7278312164
 11
-0.9420205427
 21
-24.4829760304
  0
LINE
  5
300
100
AcDbEntity
  8
PORTATASTO
100
AcDbLine
 62
253
  6
CONTINUOUS
 10
-0.9420205427
 20
23.7278312164
 11
-0.9420205427
 21
24.4829760304
  0
LINE
  5
301
100
AcDbEntity
  8
PORTATASTO
100
AcDbLine
 62
253
  6
CONTINUOUS
 10
-0.9367845071
 20
-23.0783121635
 11
-0.9367845071
 21
-22.2713883311
  0
LINE
  5
302
100
AcDbEntity
  8
PORTATASTO
100
AcDbLine
 62
253
  6
CONTINUOUS
 10
-0.9367845071
 20
22.2713883311
 11
-0.9367845071
 21
23.0783121635
  0
LINE
  5
303
100
AcDbEntity
  8
PORTATASTO
100
AcDbLine
 62
7
  6
CONTINUOUS
 10
-0.6920239696
 20
-24.2329794573
 11
-0.6920239696
 21
-23.9443375673
  0
LINE
  5
304
100
AcDbEntity
  8
PORTATASTO
100
AcDbLine
 62
7
  6
CONTINUOUS
 10
-0.6920239696
 20
23.9443375673
 11
-0.6920239696
 21
24.2329794573
  0
LINE
  5
305
100
AcDbEntity
  8
PORTATASTO
100
AcDbLine
 62
7
  6
CONTINUOUS
 10
-0.686787934
 20
-23.0783121635
 11
-0.686787934
 21
-22.2844216746
  0
LINE
  5
306
100
AcDbEntity
  8
PORTATASTO
100
AcDbLine
 62
7
  6
CONTINUOUS
 10
-0.686787934
 20
22.2844216746
 11
-0.686787934
 21
23.0783121635
  0
LINE
  5
307
100
AcDbEntity
  8
PORTATASTO
100
AcDbLine
 62
7
  6
CONTINUOUS
 10
-0.6802360356
 20
23.2226497308
 11
-0.6802360356
 21
23.0783121635
  0
LINE
  5
308
100
AcDbEntity
  8
PORTATASTO
100
AcDbLine
 62
7
  6
CONTINUOUS
 10
-0.6802360356
 20
-23.0783121635
 11
-0.6802360356
 21
-23.2226497308
  0
LINE
  5
309
100
AcDbEntity
  8
PORTATASTO
100
AcDbLine
 62
7
  6
CONTINUOUS
 10
-0.675
 20
24.2500034269
 11
-0.675
 21
23.8
  0
LINE
  5
30A
100
AcDbEntity
  8
PORTATASTO
100
AcDbLine
 62
7
  6
CONTINUOUS
 10
-0.675
 20
-23.8
 11
-0.675
 21
-24.2500034269
  0
LINE
  5
30B
100
AcDbEntity
  8
PORTATASTO
100
AcDbLine
 62
7
  6
CONTINUOUS
 10
-0.675
 20
23.8
 11
-0.6802360356
 21
23.2226497308
  0
LINE
  5
30C
100
AcDbEntity
  8
PORTATASTO
100
AcDbLine
 62
253
  6
CONTINUOUS
 10
-0.9420205427
 20
-23.7278312164
 11
-0.938093516
 21
-23.2948185145
  0
LINE
  5
30D
100
AcDbEntity
  8
PORTATASTO
100
AcDbLine
 62
253
  6
CONTINUOUS
 10
-0.6920239696
 20
-23.9443375673
 11
-0.6880969429
 21
-23.5113248654
  0
LINE
  5
30E
100
AcDbEntity
  8
PORTATASTO
100
AcDbLine
 62
253
  6
CONTINUOUS
 10
21.5579794573
 20
24.4829760304
 11
21.5750034269
 21
24.5
  0
LINE
  5
30F
100
AcDbEntity
  8
PORTATASTO
100
AcDbLine
 62
253
  6
CONTINUOUS
 10
21.8079760304
 20
24.2329794573
 11
21.825
 21
24.2500034269
  0
LINE
  5
310
100
AcDbEntity
  8
PORTATASTO
100
AcDbLine
 62
253
  6
CONTINUOUS
 10
21.5579794573
 20
-24.4829760304
 11
21.5750034269
 21
-24.5
  0
LINE
  5
311
100
AcDbEntity
  8
PORTATASTO
100
AcDbLine
 62
253
  6
CONTINUOUS
 10
21.8079760304
 20
-24.2329794573
 11
21.825
 21
-24.2500034269
  0
LINE
  5
312
100
AcDbEntity
  8
PORTATASTO
100
AcDbLine
 62
253
  6
CONTINUOUS
 10
0.6880969429
 20
-23.5113248654
 11
0.6920239696
 21
-23.9443375673
  0
LINE
  5
313
100
AcDbEntity
  8
PORTATASTO
100
AcDbLine
 62
253
  6
CONTINUOUS
 10
0.938093516
 20
-23.2948185145
 11
0.9420205427
 21
-23.7278312164
  0
LINE
  5
314
100
AcDbEntity
  8
PORTATASTO
100
AcDbLine
 62
7
  6
CONTINUOUS
 10
0.6802360356
 20
23.2226497308
 11
0.675
 21
23.8
  0
LINE
  5
315
100
AcDbEntity
  8
PORTATASTO
100
AcDbLine
 62
7
  6
CONTINUOUS
 10
2.95
 20
-23.8
 11
2.9447639644
 21
-23.2226497308
  0
LINE
  5
316
100
AcDbEntity
  8
PORTATASTO
100
AcDbLine
 62
7
  6
CONTINUOUS
 10
0.675
 20
-24.2500034269
 11
0.675
 21
-23.8
  0
LINE
  5
317
100
AcDbEntity
  8
PORTATASTO
100
AcDbLine
 62
7
  6
CONTINUOUS
 10
0.675
 20
23.8
 11
0.675
 21
24.2500034269
  0
LINE
  5
318
100
AcDbEntity
  8
PORTATASTO
100
AcDbLine
 62
7
  6
CONTINUOUS
 10
0.6802360356
 20
23.2226497308
 11
0.6802360356
 21
23.0783121635
  0
LINE
  5
319
100
AcDbEntity
  8
PORTATASTO
100
AcDbLine
 62
7
  6
CONTINUOUS
 10
0.6802360356
 20
-23.0783121635
 11
0.6802360356
 21
-23.2226497308
  0
LINE
  5
31A
100
AcDbEntity
  8
PORTATASTO
100
AcDbLine
 62
7
  6
CONTINUOUS
 10
0.686787934
 20
23.0783121635
 11
0.686787934
 21
22.2844216746
  0
LINE
  5
31B
100
AcDbEntity
  8
PORTATASTO
100
AcDbLine
 62
7
  6
CONTINUOUS
 10
0.686787934
 20
-22.2844216746
 11
0.686787934
 21
-23.0783121635
  0
LINE
  5
31C
100
AcDbEntity
  8
PORTATASTO
100
AcDbLine
 62
7
  6
CONTINUOUS
 10
0.6920239696
 20
24.2329794573
 11
0.6920239696
 21
23.9443375673
  0
LINE
  5
31D
100
AcDbEntity
  8
PORTATASTO
100
AcDbLine
 62
7
  6
CONTINUOUS
 10
0.6920239696
 20
-23.9443375673
 11
0.6920239696
 21
-24.2329794573
  0
LINE
  5
31E
100
AcDbEntity
  8
PORTATASTO
100
AcDbLine
 62
253
  6
CONTINUOUS
 10
0.9367845071
 20
23.0783121635
 11
0.9367845071
 21
22.2713883311
  0
LINE
  5
31F
100
AcDbEntity
  8
PORTATASTO
100
AcDbLine
 62
253
  6
CONTINUOUS
 10
0.9367845071
 20
-22.2713883311
 11
0.9367845071
 21
-23.0783121635
  0
LINE
  5
320
100
AcDbEntity
  8
PORTATASTO
100
AcDbLine
 62
253
  6
CONTINUOUS
 10
0.9420205427
 20
-23.7278312164
 11
0.9420205427
 21
-24.4829760304
  0
LINE
  5
321
100
AcDbEntity
  8
PORTATASTO
100
AcDbLine
 62
253
  6
CONTINUOUS
 10
0.9420205427
 20
23.7278312164
 11
0.9420205427
 21
24.4829760304
  0
LINE
  5
322
100
AcDbEntity
  8
PORTATASTO
100
AcDbLine
 62
253
  6
CONTINUOUS
 10
2.6829794573
 20
-23.7278312164
 11
2.6829794573
 21
-24.4829760304
  0
LINE
  5
323
100
AcDbEntity
  8
PORTATASTO
100
AcDbLine
 62
253
  6
CONTINUOUS
 10
2.6829794573
 20
23.7278312164
 11
2.6829794573
 21
24.4829760304
  0
LINE
  5
324
100
AcDbEntity
  8
PORTATASTO
100
AcDbLine
 62
253
  6
CONTINUOUS
 10
2.6882154929
 20
-23.0783121635
 11
2.6882154929
 21
-22.2713883311
  0
LINE
  5
325
100
AcDbEntity
  8
PORTATASTO
100
AcDbLine
 62
253
  6
CONTINUOUS
 10
2.6882154929
 20
22.2713883311
 11
2.6882154929
 21
23.0783121635
  0
LINE
  5
326
100
AcDbEntity
  8
PORTATASTO
100
AcDbLine
 62
253
  6
CONTINUOUS
 10
0.6920239696
 20
23.9443375673
 11
0.6880969429
 21
23.5113248654
  0
LINE
  5
327
100
AcDbEntity
  8
PORTATASTO
100
AcDbLine
 62
253
  6
CONTINUOUS
 10
0.9420205427
 20
23.7278312164
 11
0.938093516
 21
23.2948185145
  0
LINE
  5
328
100
AcDbEntity
  8
PORTATASTO
100
AcDbLine
 62
7
  6
CONTINUOUS
 10
0.675
 20
-23.8
 11
0.6802360356
 21
-23.2226497308
  0
LINE
  5
329
100
AcDbEntity
  8
PORTATASTO
100
AcDbLine
 62
7
  6
CONTINUOUS
 10
2.9447639644
 20
23.2226497308
 11
2.95
 21
23.8
  0
LINE
  5
32A
100
AcDbEntity
  8
PORTATASTO
100
AcDbLine
 62
253
  6
CONTINUOUS
 10
-21.8079760304
 20
-24.2329794573
 11
-21.825
 21
-24.2500034269
  0
LINE
  5
32B
100
AcDbEntity
  8
PORTATASTO
100
AcDbLine
 62
253
  6
CONTINUOUS
 10
-21.5579794573
 20
-24.4829760304
 11
-21.5750034269
 21
-24.5
  0
LINE
  5
32C
100
AcDbEntity
  8
PORTATASTO
100
AcDbLine
 62
253
  6
CONTINUOUS
 10
-21.8079760304
 20
24.2329794573
 11
-21.825
 21
24.2500034269
  0
LINE
  5
32D
100
AcDbEntity
  8
PORTATASTO
100
AcDbLine
 62
253
  6
CONTINUOUS
 10
-21.5579794573
 20
24.4829760304
 11
-21.5750034269
 21
24.5
  0
LINE
  5
32E
100
AcDbEntity
  8
PORTATASTO
100
AcDbLine
 62
253
  6
CONTINUOUS
 10
2.686906484
 20
23.2948185145
 11
2.6829794573
 21
23.7278312164
  0
LINE
  5
32F
100
AcDbEntity
  8
PORTATASTO
100
AcDbLine
 62
253
  6
CONTINUOUS
 10
2.9369030571
 20
23.5113248654
 11
2.9329760304
 21
23.9443375673
  0
LINE
  5
330
100
AcDbEntity
  8
PORTATASTO
100
AcDbLine
 62
7
  6
CONTINUOUS
 10
2.9329760304
 20
-24.2329794573
 11
2.9329760304
 21
-23.9443375673
  0
LINE
  5
331
100
AcDbEntity
  8
PORTATASTO
100
AcDbLine
 62
7
  6
CONTINUOUS
 10
2.9329760304
 20
23.9443375673
 11
2.9329760304
 21
24.2329794573
  0
LINE
  5
332
100
AcDbEntity
  8
PORTATASTO
100
AcDbLine
 62
7
  6
CONTINUOUS
 10
2.938212066
 20
-23.0783121635
 11
2.938212066
 21
-22.2844216746
  0
LINE
  5
333
100
AcDbEntity
  8
PORTATASTO
100
AcDbLine
 62
7
  6
CONTINUOUS
 10
2.938212066
 20
22.2844216746
 11
2.938212066
 21
23.0783121635
  0
LINE
  5
334
100
AcDbEntity
  8
PORTATASTO
100
AcDbLine
 62
7
  6
CONTINUOUS
 10
2.9447639644
 20
23.2226497308
 11
2.9447639644
 21
23.0783121635
  0
LINE
  5
335
100
AcDbEntity
  8
PORTATASTO
100
AcDbLine
 62
7
  6
CONTINUOUS
 10
2.9447639644
 20
-23.0783121635
 11
2.9447639644
 21
-23.2226497308
  0
LINE
  5
336
100
AcDbEntity
  8
PORTATASTO
100
AcDbLine
 62
7
  6
CONTINUOUS
 10
2.95
 20
24.2500034269
 11
2.95
 21
23.8
  0
LINE
  5
337
100
AcDbEntity
  8
PORTATASTO
100
AcDbLine
 62
7
  6
CONTINUOUS
 10
2.95
 20
-23.8
 11
2.95
 21
-24.2500034269
  0
LINE
  5
338
100
AcDbEntity
  8
PORTATASTO
100
AcDbLine
 62
253
  6
CONTINUOUS
 10
2.6829794573
 20
-23.7278312164
 11
2.686906484
 21
-23.2948185145
  0
LINE
  5
339
100
AcDbEntity
  8
PORTATASTO
100
AcDbLine
 62
253
  6
CONTINUOUS
 10
2.9329760304
 20
-23.9443375673
 11
2.9369030571
 21
-23.5113248654
  0
LINE
  5
33A
100
AcDbEntity
  8
PORTATASTO
100
AcDbLine
 62
7
  6
CONTINUOUS
 10
6.8447639644
 20
-22.35
 11
6.8447639644
 21
-22.85711136
  0
LINE
  5
33B
100
AcDbEntity
  8
PORTATASTO
100
AcDbLine
 62
7
  6
CONTINUOUS
 10
6.8447639644
 20
22.35
 11
6.8447639644
 21
22.85711136
  0
LINE
  5
33C
100
AcDbEntity
  8
PORTATASTO
100
AcDbLine
 62
7
  6
CONTINUOUS
 10
6.8578677613
 20
23.7921322387
 11
6.8578677613
 21
22.3236589077
  0
LINE
  5
33D
100
AcDbEntity
  8
PORTATASTO
100
AcDbLine
 62
7
  6
CONTINUOUS
 10
6.8578677613
 20
-22.3236589077
 11
6.8578677613
 21
-23.7921322387
  0
LINE
  5
33E
100
AcDbEntity
  8
PORTATASTO
100
AcDbLine
 62
253
  6
CONTINUOUS
 10
7.3578609074
 20
23.5905723943
 11
7.3578609074
 21
22.2975922207
  0
LINE
  5
33F
100
AcDbEntity
  8
PORTATASTO
100
AcDbLine
 62
253
  6
CONTINUOUS
 10
7.3578609074
 20
-22.2975922207
 11
7.3578609074
 21
-23.5905723943
  0
LINE
  5
340
100
AcDbEntity
  8
0
100
AcDbLine
 62
253
  6
CONTINUOUS
 10
-0.0
 20
-8.3786796564
 11
-4.5
 21
-12.8786796564
  0
LINE
  5
341
100
AcDbEntity
  8
0
100
AcDbLine
 62
253
  6
CONTINUOUS
 10
-4.5
 20
-15.0
 11
-0.0
 21
-10.5
  0
LINE
  5
342
100
AcDbEntity
  8
ASSI
100
AcDbLine
 62
253
  6
CONTINUOUS
 10
21.6505138364
 20
22.1
 11
21.5152970636
 21
21.8293808902
  0
LINE
  5
343
100
AcDbEntity
  8
RACCORDO
100
AcDbLine
 62
253
  6
CONTINUOUS
 10
21.6505138364
 20
22.1
 11
21.5152970636
 21
21.8293808902
  0
LINE
  5
344
100
AcDbEntity
  8
ASSI
100
AcDbLine
 62
253
  6
CONTINUOUS
 10
22.15
 20
21.5999997649
 11
22.0151257261
 21
21.3300661228
  0
LINE
  5
345
100
AcDbEntity
  8
RACCORDO
100
AcDbLine
 62
253
  6
CONTINUOUS
 10
22.15
 20
21.5999997649
 11
22.0151257261
 21
21.3300661228
  0
LINE
  5
346
100
AcDbEntity
  8
ASSI
100
AcDbLine
 62
253
  6
CONTINUOUS
 10
21.5152970636
 20
-21.8293808902
 11
21.6113604562
 21
-22.0216395076
  0
LINE
  5
347
100
AcDbEntity
  8
RACCORDO
100
AcDbLine
 62
253
  6
CONTINUOUS
 10
21.5152970636
 20
-21.8293808902
 11
21.6113604562
 21
-22.0216395076
  0
LINE
  5
348
100
AcDbEntity
  8
ASSI
100
AcDbLine
 62
253
  6
CONTINUOUS
 10
22.0151257261
 20
-21.3300661228
 11
22.1116448613
 21
-21.5232368509
  0
LINE
  5
349
100
AcDbEntity
  8
RACCORDO
100
AcDbLine
 62
253
  6
CONTINUOUS
 10
22.0151257261
 20
-21.3300661228
 11
22.1116448613
 21
-21.5232368509
  0
LINE
  5
34A
100
AcDbEntity
  8
PORTATASTO
100
AcDbLine
 62
253
  6
CONTINUOUS
 10
15.1421390926
 20
-23.5905723943
 11
15.1421390926
 21
-22.2975922207
  0
LINE
  5
34B
100
AcDbEntity
  8
PORTATASTO
100
AcDbLine
 62
253
  6
CONTINUOUS
 10
15.1421390926
 20
22.2975922207
 11
15.1421390926
 21
23.5905723943
  0
LINE
  5
34C
100
AcDbEntity
  8
PORTATASTO
100
AcDbLine
 62
253
  6
CONTINUOUS
 10
21.8503805997
 20
22.35
 11
21.8270084758
 21
22.2798266081
  0
LINE
  5
34D
100
AcDbEntity
  8
PORTATASTO
100
AcDbLine
 62
253
  6
CONTINUOUS
 10
22.35
 20
21.8497711479
 11
22.3238174026
 21
21.771159479
  0
LINE
  5
34E
100
AcDbEntity
  8
PORTATASTO
100
AcDbLine
 62
253
  6
CONTINUOUS
 10
-2.9329760304
 20
-24.2329794573
 11
-2.95
 21
-24.2500034269
  0
LINE
  5
34F
100
AcDbEntity
  8
PORTATASTO
100
AcDbLine
 62
253
  6
CONTINUOUS
 10
-2.9329760304
 20
24.2329794573
 11
-2.95
 21
24.2500034269
  0
LINE
  5
350
100
AcDbEntity
  8
PORTATASTO
100
AcDbLine
 62
253
  6
CONTINUOUS
 10
21.8270084758
 20
-22.2798266081
 11
21.8503805997
 21
-22.35
  0
LINE
  5
351
100
AcDbEntity
  8
PORTATASTO
100
AcDbLine
 62
253
  6
CONTINUOUS
 10
22.3238174026
 20
-21.771159479
 11
22.35
 21
-21.8497711479
  0
LINE
  5
352
100
AcDbEntity
  8
PORTATASTO
100
AcDbLine
 62
7
  6
CONTINUOUS
 10
15.6421322387
 20
-23.7921322387
 11
15.6421322387
 21
-22.3236589077
  0
LINE
  5
353
100
AcDbEntity
  8
PORTATASTO
100
AcDbLine
 62
7
  6
CONTINUOUS
 10
15.6421322387
 20
22.3236589077
 11
15.6421322387
 21
23.7921322387
  0
LINE
  5
354
100
AcDbEntity
  8
PORTATASTO
100
AcDbLine
 62
7
  6
CONTINUOUS
 10
15.6552360356
 20
-22.35
 11
15.6552360356
 21
-22.85711136
  0
LINE
  5
355
100
AcDbEntity
  8
PORTATASTO
100
AcDbLine
 62
7
  6
CONTINUOUS
 10
15.6552360356
 20
22.35
 11
15.6552360356
 21
22.85711136
  0
LINE
  5
356
100
AcDbEntity
  8
PORTATASTO
100
AcDbLine
 62
253
  6
CONTINUOUS
 10
-2.6829794573
 20
-24.4829760304
 11
-2.7000034269
 21
-24.5
  0
LINE
  5
357
100
AcDbEntity
  8
PORTATASTO
100
AcDbLine
 62
253
  6
CONTINUOUS
 10
0.6920239696
 20
-24.2329794573
 11
0.675
 21
-24.2500034269
  0
LINE
  5
358
100
AcDbEntity
  8
PORTATASTO
100
AcDbLine
 62
253
  6
CONTINUOUS
 10
-2.6829794573
 20
24.4829760304
 11
-2.7000034269
 21
24.5
  0
LINE
  5
359
100
AcDbEntity
  8
PORTATASTO
100
AcDbLine
 62
253
  6
CONTINUOUS
 10
0.6920239696
 20
24.2329794573
 11
0.675
 21
24.2500034269
  0
LINE
  5
35A
100
AcDbEntity
  8
PORTATASTO
100
AcDbLine
 62
253
  6
CONTINUOUS
 10
19.5630969429
 20
-23.5113248654
 11
19.5670239696
 21
-23.9443375673
  0
LINE
  5
35B
100
AcDbEntity
  8
PORTATASTO
100
AcDbLine
 62
253
  6
CONTINUOUS
 10
19.813093516
 20
-23.2948185145
 11
19.8170205427
 21
-23.7278312164
  0
LINE
  5
35C
100
AcDbEntity
  8
PORTATASTO
100
AcDbLine
 62
7
  6
CONTINUOUS
 10
19.55
 20
23.8
 11
19.5552360356
 21
23.2226497308
  0
LINE
  5
35D
100
AcDbEntity
  8
PORTATASTO
100
AcDbLine
 62
7
  6
CONTINUOUS
 10
19.55
 20
-24.2500034269
 11
19.55
 21
-23.8
  0
LINE
  5
35E
100
AcDbEntity
  8
PORTATASTO
100
AcDbLine
 62
7
  6
CONTINUOUS
 10
19.55
 20
23.8
 11
19.55
 21
24.2500034269
  0
LINE
  5
35F
100
AcDbEntity
  8
PORTATASTO
100
AcDbLine
 62
7
  6
CONTINUOUS
 10
19.5552360356
 20
23.2226497308
 11
19.5552360356
 21
23.0783121635
  0
LINE
  5
360
100
AcDbEntity
  8
PORTATASTO
100
AcDbLine
 62
7
  6
CONTINUOUS
 10
19.5552360356
 20
-23.0783121635
 11
19.5552360356
 21
-23.2226497308
  0
LINE
  5
361
100
AcDbEntity
  8
PORTATASTO
100
AcDbLine
 62
7
  6
CONTINUOUS
 10
19.561787934
 20
23.0783121635
 11
19.561787934
 21
22.2844216746
  0
LINE
  5
362
100
AcDbEntity
  8
PORTATASTO
100
AcDbLine
 62
7
  6
CONTINUOUS
 10
19.561787934
 20
-22.2844216746
 11
19.561787934
 21
-23.0783121635
  0
LINE
  5
363
100
AcDbEntity
  8
PORTATASTO
100
AcDbLine
 62
7
  6
CONTINUOUS
 10
19.5670239696
 20
24.2329794573
 11
19.5670239696
 21
23.9443375673
  0
LINE
  5
364
100
AcDbEntity
  8
PORTATASTO
100
AcDbLine
 62
7
  6
CONTINUOUS
 10
19.5670239696
 20
-23.9443375673
 11
19.5670239696
 21
-24.2329794573
  0
LINE
  5
365
100
AcDbEntity
  8
PORTATASTO
100
AcDbLine
 62
253
  6
CONTINUOUS
 10
19.8117845071
 20
23.0783121635
 11
19.8117845071
 21
22.2713883311
  0
LINE
  5
366
100
AcDbEntity
  8
PORTATASTO
100
AcDbLine
 62
253
  6
CONTINUOUS
 10
19.8117845071
 20
-22.2713883311
 11
19.8117845071
 21
-23.0783121635
  0
LINE
  5
367
100
AcDbEntity
  8
PORTATASTO
100
AcDbLine
 62
253
  6
CONTINUOUS
 10
19.8170205427
 20
-23.7278312164
 11
19.8170205427
 21
-24.4829760304
  0
LINE
  5
368
100
AcDbEntity
  8
PORTATASTO
100
AcDbLine
 62
253
  6
CONTINUOUS
 10
19.8170205427
 20
23.7278312164
 11
19.8170205427
 21
24.4829760304
  0
LINE
  5
369
100
AcDbEntity
  8
PORTATASTO
100
AcDbLine
 62
253
  6
CONTINUOUS
 10
19.5670239696
 20
23.9443375673
 11
19.5630969429
 21
23.5113248654
  0
LINE
  5
36A
100
AcDbEntity
  8
PORTATASTO
100
AcDbLine
 62
253
  6
CONTINUOUS
 10
19.8170205427
 20
23.7278312164
 11
19.813093516
 21
23.2948185145
  0
LINE
  5
36B
100
AcDbEntity
  8
PORTATASTO
100
AcDbLine
 62
7
  6
CONTINUOUS
 10
19.5552360356
 20
-23.2226497308
 11
19.55
 21
-23.8
  0
LINE
  5
36C
100
AcDbEntity
  8
PORTATASTO
100
AcDbLine
 62
253
  6
CONTINUOUS
 10
0.9420205427
 20
-24.4829760304
 11
0.9249965731
 21
-24.5
  0
LINE
  5
36D
100
AcDbEntity
  8
PORTATASTO
100
AcDbLine
 62
253
  6
CONTINUOUS
 10
0.9420205427
 20
24.4829760304
 11
0.9249965731
 21
24.5
  0
LINE
  5
36E
100
AcDbEntity
  8
PORTATASTO
100
AcDbLine
 62
7
  6
CONTINUOUS
 10
21.8197639644
 20
-23.2226497308
 11
21.825
 21
-23.8
  0
LINE
  5
36F
100
AcDbEntity
  8
PORTATASTO
100
AcDbLine
 62
253
  6
CONTINUOUS
 10
21.561906484
 20
23.2948185145
 11
21.5579794573
 21
23.7278312164
  0
LINE
  5
370
100
AcDbEntity
  8
PORTATASTO
100
AcDbLine
 62
253
  6
CONTINUOUS
 10
21.8119030571
 20
23.5113248654
 11
21.8079760304
 21
23.9443375673
  0
LINE
  5
371
100
AcDbEntity
  8
PORTATASTO
100
AcDbLine
 62
253
  6
CONTINUOUS
 10
21.5579794573
 20
-23.7278312164
 11
21.5579794573
 21
-24.4829760304
  0
LINE
  5
372
100
AcDbEntity
  8
PORTATASTO
100
AcDbLine
 62
253
  6
CONTINUOUS
 10
21.5579794573
 20
23.7278312164
 11
21.5579794573
 21
24.4829760304
  0
LINE
  5
373
100
AcDbEntity
  8
PORTATASTO
100
AcDbLine
 62
253
  6
CONTINUOUS
 10
21.5632154929
 20
-23.0783121635
 11
21.5632154929
 21
-22.2713883311
  0
LINE
  5
374
100
AcDbEntity
  8
PORTATASTO
100
AcDbLine
 62
253
  6
CONTINUOUS
 10
21.5632154929
 20
22.2713883311
 11
21.5632154929
 21
23.0783121635
  0
LINE
  5
375
100
AcDbEntity
  8
PORTATASTO
100
AcDbLine
 62
7
  6
CONTINUOUS
 10
21.8079760304
 20
-24.2329794573
 11
21.8079760304
 21
-23.9443375673
  0
LINE
  5
376
100
AcDbEntity
  8
PORTATASTO
100
AcDbLine
 62
7
  6
CONTINUOUS
 10
21.8079760304
 20
23.9443375673
 11
21.8079760304
 21
24.2329794573
  0
LINE
  5
377
100
AcDbEntity
  8
PORTATASTO
100
AcDbLine
 62
7
  6
CONTINUOUS
 10
21.813212066
 20
-23.0783121635
 11
21.813212066
 21
-22.2844216746
  0
LINE
  5
378
100
AcDbEntity
  8
PORTATASTO
100
AcDbLine
 62
7
  6
CONTINUOUS
 10
21.813212066
 20
22.2844216746
 11
21.813212066
 21
23.0783121635
  0
LINE
  5
379
100
AcDbEntity
  8
PORTATASTO
100
AcDbLine
 62
7
  6
CONTINUOUS
 10
21.8197639644
 20
23.2226497308
 11
21.8197639644
 21
23.0783121635
  0
LINE
  5
37A
100
AcDbEntity
  8
PORTATASTO
100
AcDbLine
 62
7
  6
CONTINUOUS
 10
21.8197639644
 20
-23.0783121635
 11
21.8197639644
 21
-23.2226497308
  0
LINE
  5
37B
100
AcDbEntity
  8
PORTATASTO
100
AcDbLine
 62
7
  6
CONTINUOUS
 10
21.825
 20
24.2500034269
 11
21.825
 21
23.8
  0
LINE
  5
37C
100
AcDbEntity
  8
PORTATASTO
100
AcDbLine
 62
7
  6
CONTINUOUS
 10
21.825
 20
-23.8
 11
21.825
 21
-24.2500034269
  0
LINE
  5
37D
100
AcDbEntity
  8
ASSI
100
AcDbLine
 62
7
  6
CONTINUOUS
 10
22.15
 20
2.4247832141
 11
22.15
 21
21.5999997649
  0
LINE
  5
37E
100
AcDbEntity
  8
RACCORDO
100
AcDbLine
 62
7
  6
CONTINUOUS
 10
22.15
 20
2.4247832141
 11
22.15
 21
21.5999997649
  0
LINE
  5
37F
100
AcDbEntity
  8
PORTATASTO
100
AcDbLine
 62
7
  6
CONTINUOUS
 10
22.3238174026
 20
21.771159479
 11
22.3238174026
 21
-21.771159479
  0
LINE
  5
380
100
AcDbEntity
  8
PORTATASTO
100
AcDbLine
 62
7
  6
CONTINUOUS
 10
22.35
 20
21.850016923
 11
22.35
 21
18.5
  0
LINE
  5
381
100
AcDbEntity
  8
PORTATASTO
100
AcDbLine
 62
7
  6
CONTINUOUS
 10
22.35
 20
-21.850016923
 11
22.35
 21
-18.5
  0
LINE
  5
382
100
AcDbEntity
  8
PORTATASTO
100
AcDbLine
 62
7
  6
CONTINUOUS
 10
22.3849101299
 20
18.1473460386
 11
22.3849101299
 21
-18.1473460386
  0
LINE
  5
383
100
AcDbEntity
  8
CORPO
100
AcDbLine
 62
7
  6
CONTINUOUS
 10
22.4
 20
17.6716990487
 11
22.4
 21
-17.6716990487
  0
LINE
  5
384
100
AcDbEntity
  8
ASSI
100
AcDbLine
 62
7
  6
CONTINUOUS
 10
22.4
 20
17.6716990487
 11
22.4
 21
-17.6716990487
  0
LINE
  5
385
100
AcDbEntity
  8
ASSI
100
AcDbLine
 62
7
  6
CONTINUOUS
 10
22.15
 20
2.4247832141
 11
22.1116448613
 21
-21.5232368509
  0
LINE
  5
386
100
AcDbEntity
  8
RACCORDO
100
AcDbLine
 62
7
  6
CONTINUOUS
 10
22.15
 20
2.4247832141
 11
22.1116448613
 21
-21.5232368509
  0
LINE
  5
387
100
AcDbEntity
  8
PORTATASTO
100
AcDbLine
 62
7
  6
CONTINUOUS
 10
21.825
 20
23.8
 11
21.8197639644
 21
23.2226497308
  0
LINE
  5
388
100
AcDbEntity
  8
PORTATASTO
100
AcDbLine
 62
253
  6
CONTINUOUS
 10
21.5579794573
 20
-23.7278312164
 11
21.561906484
 21
-23.2948185145
  0
LINE
  5
389
100
AcDbEntity
  8
PORTATASTO
100
AcDbLine
 62
253
  6
CONTINUOUS
 10
21.8079760304
 20
-23.9443375673
 11
21.8119030571
 21
-23.5113248654
  0
LINE
  5
38A
100
AcDbEntity
  8
ASSI
100
AcDbLine
 62
253
  6
CONTINUOUS
 10
21.4905033956
 20
20.3926143821
 11
-21.4905033956
 21
20.3926143821
  0
LINE
  5
38B
100
AcDbEntity
  8
RACCORDO
100
AcDbLine
 62
253
  6
CONTINUOUS
 10
21.4905033956
 20
20.3926143821
 11
-21.4905033956
 21
20.3926143821
  0
LINE
  5
38C
100
AcDbEntity
  8
ASSI
100
AcDbLine
 62
253
  6
CONTINUOUS
 10
21.5152970636
 20
21.8293808902
 11
-21.5152970636
 21
21.8293808902
  0
LINE
  5
38D
100
AcDbEntity
  8
RACCORDO
100
AcDbLine
 62
253
  6
CONTINUOUS
 10
21.5152970636
 20
21.8293808902
 11
-21.5152970636
 21
21.8293808902
  0
LINE
  5
38E
100
AcDbEntity
  8
ASSI
100
AcDbLine
 62
7
  6
CONTINUOUS
 10
-21.6505138364
 20
22.1
 11
21.6505138364
 21
22.1
  0
LINE
  5
38F
100
AcDbEntity
  8
RACCORDO
100
AcDbLine
 62
7
  6
CONTINUOUS
 10
-21.6505138364
 20
22.1
 11
21.6505138364
 21
22.1
  0
LINE
  5
390
100
AcDbEntity
  8
PORTATASTO
100
AcDbLine
 62
7
  6
CONTINUOUS
 10
21.8241980023
 20
22.2713883311
 11
21.5632154929
 21
22.2713883311
  0
LINE
  5
391
100
AcDbEntity
  8
PORTATASTO
100
AcDbLine
 62
7
  6
CONTINUOUS
 10
19.8117845071
 20
22.2713883311
 11
2.6882154929
 21
22.2713883311
  0
LINE
  5
392
100
AcDbEntity
  8
PORTATASTO
100
AcDbLine
 62
7
  6
CONTINUOUS
 10
0.9367845071
 20
22.2713883311
 11
-0.9367845071
 21
22.2713883311
  0
LINE
  5
393
100
AcDbEntity
  8
PORTATASTO
100
AcDbLine
 62
7
  6
CONTINUOUS
 10
-2.6882154929
 20
22.2713883311
 11
-19.8117845071
 21
22.2713883311
  0
LINE
  5
394
100
AcDbEntity
  8
PORTATASTO
100
AcDbLine
 62
7
  6
CONTINUOUS
 10
-21.5632154929
 20
22.2713883311
 11
-21.8241980023
 21
22.2713883311
  0
LINE
  5
395
100
AcDbEntity
  8
PORTATASTO
100
AcDbLine
 62
7
  6
CONTINUOUS
 10
15.1421390926
 20
22.2975922207
 11
7.3578609074
 21
22.2975922207
  0
LINE
  5
396
100
AcDbEntity
  8
PORTATASTO
100
AcDbLine
 62
7
  6
CONTINUOUS
 10
-7.3578609074
 20
22.2975922207
 11
-15.1421390926
 21
22.2975922207
  0
LINE
  5
397
100
AcDbEntity
  8
PORTATASTO
100
AcDbLine
 62
7
  6
CONTINUOUS
 10
-21.8503805997
 20
22.35
 11
-21.8197639644
 21
22.35
  0
LINE
  5
398
100
AcDbEntity
  8
PORTATASTO
100
AcDbLine
 62
7
  6
CONTINUOUS
 10
-19.5552360356
 20
22.35
 11
-15.6447639644
 21
22.35
  0
LINE
  5
399
100
AcDbEntity
  8
PORTATASTO
100
AcDbLine
 62
7
  6
CONTINUOUS
 10
-6.8552360356
 20
22.35
 11
-2.9447639644
 21
22.35
  0
LINE
  5
39A
100
AcDbEntity
  8
PORTATASTO
100
AcDbLine
 62
7
  6
CONTINUOUS
 10
-0.6802360356
 20
22.35
 11
0.6802360356
 21
22.35
  0
LINE
  5
39B
100
AcDbEntity
  8
PORTATASTO
100
AcDbLine
 62
7
  6
CONTINUOUS
 10
2.9447639644
 20
22.35
 11
6.8552360356
 21
22.35
  0
LINE
  5
39C
100
AcDbEntity
  8
PORTATASTO
100
AcDbLine
 62
7
  6
CONTINUOUS
 10
15.6447639644
 20
22.35
 11
19.5552360356
 21
22.35
  0
LINE
  5
39D
100
AcDbEntity
  8
PORTATASTO
100
AcDbLine
 62
7
  6
CONTINUOUS
 10
21.8197639644
 20
22.35
 11
21.8503805997
 21
22.35
  0
LINE
  5
39E
100
AcDbEntity
  8
CORPO
100
AcDbLine
 62
7
  6
CONTINUOUS
 10
-0.6802360356
 20
22.4
 11
0.6802360356
 21
22.4
  0
LINE
  5
39F
100
AcDbEntity
  8
ASSI
100
AcDbLine
 62
7
  6
CONTINUOUS
 10
-0.6802360356
 20
22.4
 11
0.6802360356
 21
22.4
  0
LINE
  5
3A0
100
AcDbEntity
  8
PORTATASTO
100
AcDbLine
 62
7
  6
CONTINUOUS
 10
22.35
 20
18.5
 11
22.3849101299
 21
18.1473460386
  0
LINE
  5
3A1
100
AcDbEntity
  8
PORTATASTO
100
AcDbLine
 62
7
  6
CONTINUOUS
 10
22.3849101299
 20
-18.1473460386
 11
22.35
 21
-18.5
  0
LINE
  5
3A2
100
AcDbEntity
  8
PORTATASTO
100
AcDbLine
 62
253
  6
CONTINUOUS
 10
-21.813212066
 20
23.0783121635
 11
-19.561787934
 21
23.0783121635
  0
LINE
  5
3A3
100
AcDbEntity
  8
PORTATASTO
100
AcDbLine
 62
253
  6
CONTINUOUS
 10
-2.938212066
 20
23.0783121635
 11
-0.686787934
 21
23.0783121635
  0
LINE
  5
3A4
100
AcDbEntity
  8
PORTATASTO
100
AcDbLine
 62
253
  6
CONTINUOUS
 10
0.686787934
 20
23.0783121635
 11
2.938212066
 21
23.0783121635
  0
LINE
  5
3A5
100
AcDbEntity
  8
PORTATASTO
100
AcDbLine
 62
253
  6
CONTINUOUS
 10
19.561787934
 20
23.0783121635
 11
21.813212066
 21
23.0783121635
  0
LINE
  5
3A6
100
AcDbEntity
  8
PORTATASTO
100
AcDbLine
 62
7
  6
CONTINUOUS
 10
15.7446938615
 20
23.2226497308
 11
15.6447639644
 21
23.2226497308
  0
LINE
  5
3A7
100
AcDbEntity
  8
PORTATASTO
100
AcDbLine
 62
7
  6
CONTINUOUS
 10
6.8552360356
 20
23.2226497308
 11
6.7553061385
 21
23.2226497308
  0
LINE
  5
3A8
100
AcDbEntity
  8
PORTATASTO
100
AcDbLine
 62
7
  6
CONTINUOUS
 10
-6.7553061385
 20
23.2226497308
 11
-6.8552360356
 21
23.2226497308
  0
LINE
  5
3A9
100
AcDbEntity
  8
PORTATASTO
100
AcDbLine
 62
7
  6
CONTINUOUS
 10
-15.6447639644
 20
23.2226497308
 11
-15.7446938615
 21
23.2226497308
  0
LINE
  5
3AA
100
AcDbEntity
  8
PORTATASTO
100
AcDbLine
 62
253
  6
CONTINUOUS
 10
-21.561906484
 20
23.2948185145
 11
-19.813093516
 21
23.2948185145
  0
LINE
  5
3AB
100
AcDbEntity
  8
PORTATASTO
100
AcDbLine
 62
253
  6
CONTINUOUS
 10
-2.686906484
 20
23.2948185145
 11
-0.938093516
 21
23.2948185145
  0
LINE
  5
3AC
100
AcDbEntity
  8
PORTATASTO
100
AcDbLine
 62
253
  6
CONTINUOUS
 10
0.938093516
 20
23.2948185145
 11
2.686906484
 21
23.2948185145
  0
LINE
  5
3AD
100
AcDbEntity
  8
PORTATASTO
100
AcDbLine
 62
253
  6
CONTINUOUS
 10
19.813093516
 20
23.2948185145
 11
21.561906484
 21
23.2948185145
  0
LINE
  5
3AE
100
AcDbEntity
  8
PORTATASTO
100
AcDbLine
 62
253
  6
CONTINUOUS
 10
15.1421390926
 20
23.5905723943
 11
7.3578609074
 21
23.5905723943
  0
LINE
  5
3AF
100
AcDbEntity
  8
PORTATASTO
100
AcDbLine
 62
253
  6
CONTINUOUS
 10
-7.3578609074
 20
23.5905723943
 11
-15.1421390926
 21
23.5905723943
  0
LINE
  5
3B0
100
AcDbEntity
  8
PORTATASTO
100
AcDbLine
 62
253
  6
CONTINUOUS
 10
-21.5579794573
 20
23.7278312164
 11
-19.8170205427
 21
23.7278312164
  0
LINE
  5
3B1
100
AcDbEntity
  8
PORTATASTO
100
AcDbLine
 62
253
  6
CONTINUOUS
 10
-2.6829794573
 20
23.7278312164
 11
-0.9420205427
 21
23.7278312164
  0
LINE
  5
3B2
100
AcDbEntity
  8
PORTATASTO
100
AcDbLine
 62
253
  6
CONTINUOUS
 10
0.9420205427
 20
23.7278312164
 11
2.6829794573
 21
23.7278312164
  0
LINE
  5
3B3
100
AcDbEntity
  8
PORTATASTO
100
AcDbLine
 62
253
  6
CONTINUOUS
 10
19.8170205427
 20
23.7278312164
 11
21.5579794573
 21
23.7278312164
  0
LINE
  5
3B4
100
AcDbEntity
  8
PORTATASTO
100
AcDbLine
 62
7
  6
CONTINUOUS
 10
15.541351552
 20
23.7905696528
 11
6.958648448
 21
23.7905696528
  0
LINE
  5
3B5
100
AcDbEntity
  8
PORTATASTO
100
AcDbLine
 62
7
  6
CONTINUOUS
 10
-6.958648448
 20
23.7905696528
 11
-15.541351552
 21
23.7905696528
  0
LINE
  5
3B6
100
AcDbEntity
  8
PORTATASTO
100
AcDbLine
 62
7
  6
CONTINUOUS
 10
-6.85
 20
23.8
 11
-15.65
 21
23.8
  0
LINE
  5
3B7
100
AcDbEntity
  8
PORTATASTO
100
AcDbLine
 62
7
  6
CONTINUOUS
 10
6.85
 20
23.8
 11
15.65
 21
23.8
  0
LINE
  5
3B8
100
AcDbEntity
  8
PORTATASTO
100
AcDbLine
 62
253
  6
CONTINUOUS
 10
0.6920239696
 20
23.9443375673
 11
2.9329760304
 21
23.9443375673
  0
LINE
  5
3B9
100
AcDbEntity
  8
PORTATASTO
100
AcDbLine
 62
253
  6
CONTINUOUS
 10
-0.6920239696
 20
23.9443375673
 11
-2.9329760304
 21
23.9443375673
  0
LINE
  5
3BA
100
AcDbEntity
  8
PORTATASTO
100
AcDbLine
 62
253
  6
CONTINUOUS
 10
19.5670239696
 20
23.9443375673
 11
21.8079760304
 21
23.9443375673
  0
LINE
  5
3BB
100
AcDbEntity
  8
PORTATASTO
100
AcDbLine
 62
253
  6
CONTINUOUS
 10
-19.5670239696
 20
23.9443375673
 11
-21.8079760304
 21
23.9443375673
  0
LINE
  5
3BC
100
AcDbEntity
  8
PORTATASTO
100
AcDbLine
 62
253
  6
CONTINUOUS
 10
-0.6920239696
 20
24.2329794573
 11
-2.9329760304
 21
24.2329794573
  0
LINE
  5
3BD
100
AcDbEntity
  8
PORTATASTO
100
AcDbLine
 62
253
  6
CONTINUOUS
 10
0.6920239696
 20
24.2329794573
 11
2.9329760304
 21
24.2329794573
  0
LINE
  5
3BE
100
AcDbEntity
  8
PORTATASTO
100
AcDbLine
 62
253
  6
CONTINUOUS
 10
-19.5670239696
 20
24.2329794573
 11
-21.8079760304
 21
24.2329794573
  0
LINE
  5
3BF
100
AcDbEntity
  8
PORTATASTO
100
AcDbLine
 62
253
  6
CONTINUOUS
 10
19.5670239696
 20
24.2329794573
 11
21.8079760304
 21
24.2329794573
  0
LINE
  5
3C0
100
AcDbEntity
  8
PORTATASTO
100
AcDbLine
 62
7
  6
CONTINUOUS
 10
21.5579794573
 20
24.4829760304
 11
19.8170205427
 21
24.4829760304
  0
LINE
  5
3C1
100
AcDbEntity
  8
PORTATASTO
100
AcDbLine
 62
7
  6
CONTINUOUS
 10
2.6829794573
 20
24.4829760304
 11
0.9420205427
 21
24.4829760304
  0
LINE
  5
3C2
100
AcDbEntity
  8
PORTATASTO
100
AcDbLine
 62
7
  6
CONTINUOUS
 10
-0.9420205427
 20
24.4829760304
 11
-2.6829794573
 21
24.4829760304
  0
LINE
  5
3C3
100
AcDbEntity
  8
PORTATASTO
100
AcDbLine
 62
7
  6
CONTINUOUS
 10
-19.8170205427
 20
24.4829760304
 11
-21.5579794573
 21
24.4829760304
  0
LINE
  5
3C4
100
AcDbEntity
  8
PORTATASTO
100
AcDbLine
 62
7
  6
CONTINUOUS
 10
-21.5750034269
 20
24.5
 11
-19.7999965731
 21
24.5
  0
LINE
  5
3C5
100
AcDbEntity
  8
PORTATASTO
100
AcDbLine
 62
7
  6
CONTINUOUS
 10
21.5750034269
 20
24.5
 11
19.7999965731
 21
24.5
  0
LINE
  5
3C6
100
AcDbEntity
  8
PORTATASTO
100
AcDbLine
 62
7
  6
CONTINUOUS
 10
-0.9249965731
 20
24.5
 11
-2.7000034269
 21
24.5
  0
LINE
  5
3C7
100
AcDbEntity
  8
PORTATASTO
100
AcDbLine
 62
7
  6
CONTINUOUS
 10
0.9249965731
 20
24.5
 11
2.7000034269
 21
24.5
  0
LINE
  5
3C8
100
AcDbEntity
  8
PORTATASTO
100
AcDbLine
 62
253
  6
CONTINUOUS
 10
19.5670239696
 20
-24.2329794573
 11
19.55
 21
-24.2500034269
  0
LINE
  5
3C9
100
AcDbEntity
  8
PORTATASTO
100
AcDbLine
 62
253
  6
CONTINUOUS
 10
19.8170205427
 20
-24.4829760304
 11
19.7999965731
 21
-24.5
  0
LINE
  5
3CA
100
AcDbEntity
  8
PORTATASTO
100
AcDbLine
 62
253
  6
CONTINUOUS
 10
19.5670239696
 20
24.2329794573
 11
19.55
 21
24.2500034269
  0
LINE
  5
3CB
100
AcDbEntity
  8
PORTATASTO
100
AcDbLine
 62
253
  6
CONTINUOUS
 10
19.8170205427
 20
24.4829760304
 11
19.7999965731
 21
24.5
  0
LINE
  5
3CC
100
AcDbEntity
  8
PORTATASTO
100
AcDbLine
 62
7
  6
CONTINUOUS
 10
-71.4137922724
 20
23.8
 11
-72.4137922724
 21
23.2226497308
  0
LINE
  5
3CD
100
AcDbEntity
  8
PORTATASTO
100
AcDbLine
 62
7
  6
CONTINUOUS
 10
-72.4137922724
 20
-23.2226497308
 11
-71.4137922724
 21
-23.8
  0
LINE
  5
3CE
100
AcDbEntity
  8
PORTATASTO
100
AcDbLine
 62
253
  6
CONTINUOUS
 10
-74.6651012634
 20
-24.2329794573
 11
-74.9137922724
 21
-24.2329794573
  0
LINE
  5
3CF
100
AcDbEntity
  8
PORTATASTO
100
AcDbLine
 62
253
  6
CONTINUOUS
 10
-74.9137922724
 20
-23.9443375673
 11
-74.6651012634
 21
-23.9443375673
  0
LINE
  5
3D0
100
AcDbEntity
  8
PORTATASTO
100
AcDbLine
 62
7
  6
CONTINUOUS
 10
-74.6651012634
 20
-24.4829760304
 11
-71.4137922724
 21
-24.5
  0
LINE
  5
3D1
100
AcDbEntity
  8
PORTATASTO
100
AcDbLine
 62
253
  6
CONTINUOUS
 10
-74.6651012634
 20
-24.2329794573
 11
-71.4137922724
 21
-24.2500034269
  0
LINE
  5
3D2
100
AcDbEntity
  8
PORTATASTO
100
AcDbLine
 62
7
  6
CONTINUOUS
 10
-61.407974541
 20
-22.2859700255
 11
-72.4137922724
 21
-22.35
  0
LINE
  5
3D3
100
AcDbEntity
  8
PORTATASTO
100
AcDbLine
 62
253
  6
CONTINUOUS
 10
-72.4137922724
 20
-21.850016923
 11
-71.4137922724
 21
-21.8441990932
  0
LINE
  5
3D4
100
AcDbEntity
  8
PORTATASTO
100
AcDbLine
 62
7
  6
CONTINUOUS
 10
-71.4137922724
 20
-23.8
 11
-64.9085563803
 21
-23.7659383532
  0
LINE
  5
3D5
100
AcDbEntity
  8
PORTATASTO
100
AcDbLine
 62
253
  6
CONTINUOUS
 10
-73.6651012634
 20
-23.0783121635
 11
-73.9137922724
 21
-23.0783121635
  0
LINE
  5
3D6
100
AcDbEntity
  8
PORTATASTO
100
AcDbLine
 62
7
  6
CONTINUOUS
 10
-73.9137922724
 20
-22.2713883311
 11
-72.4137922724
 21
-22.35
  0
LINE
  5
3D7
100
AcDbEntity
  8
ASSI
100
AcDbLine
 62
7
  6
CONTINUOUS
 10
-80.0775124964
 20
-21.8293808902
 11
-76.4089995394
 21
-22.0216395076
  0
LINE
  5
3D8
100
AcDbEntity
  8
RACCORDO
100
AcDbLine
 62
7
  6
CONTINUOUS
 10
-80.0775124964
 20
-21.8293808902
 11
-76.4089995394
 21
-22.0216395076
  0
LINE
  5
3D9
100
AcDbEntity
  8
PORTATASTO
100
AcDbLine
 62
253
  6
CONTINUOUS
 10
-73.9137922724
 20
-21.771159479
 11
-72.4137922724
 21
-21.8497711479
  0
LINE
  5
3DA
100
AcDbEntity
  8
ASSI
100
AcDbLine
 62
253
  6
CONTINUOUS
 10
-80.0644329924
 20
-21.3300661228
 11
-76.378515927
 21
-21.5232368509
  0
LINE
  5
3DB
100
AcDbEntity
  8
RACCORDO
100
AcDbLine
 62
253
  6
CONTINUOUS
 10
-80.0644329924
 20
-21.3300661228
 11
-76.378515927
 21
-21.5232368509
  0
LINE
  5
3DC
100
AcDbEntity
  8
0
100
AcDbLine
 62
253
  6
CONTINUOUS
 10
-81.8098564673
 20
-10.1943613079
 11
-81.809634673
 21
-10.2052315309
  0
LINE
  5
3DD
100
AcDbEntity
  8
CORPO
100
AcDbLine
 62
7
  6
CONTINUOUS
 10
-64.3137922724
 20
-20.7435241039
 11
-70.4137922724
 21
-20.85
  0
LINE
  5
3DE
100
AcDbEntity
  8
ASSI
100
AcDbLine
 62
7
  6
CONTINUOUS
 10
-64.3137922724
 20
-20.7435241039
 11
-70.4137922724
 21
-20.85
  0
LINE
  5
3DF
100
AcDbEntity
  8
CORPO
100
AcDbLine
 62
7
  6
CONTINUOUS
 10
-39.896339866
 20
-19.1673158868
 11
-64.3137922724
 21
-19.5935241039
  0
LINE
  5
3E0
100
AcDbEntity
  8
ASSI
100
AcDbLine
 62
7
  6
CONTINUOUS
 10
-39.896339866
 20
-19.1673158868
 11
-64.3137922724
 21
-19.5935241039
  0
LINE
  5
3E1
100
AcDbEntity
  8
PORTATASTO
100
AcDbLine
 62
7
  6
CONTINUOUS
 10
-60.4137922724
 20
-19.7
 11
-64.3137922724
 21
-19.7
  0
LINE
  5
3E2
100
AcDbEntity
  8
PORTATASTO
100
AcDbLine
 62
7
  6
CONTINUOUS
 10
-70.4137922724
 20
-19.7
 11
-71.4137922724
 21
-19.7
  0
LINE
  5
3E3
100
AcDbEntity
  8
PORTATASTO
100
AcDbLine
 62
7
  6
CONTINUOUS
 10
-71.4137922724
 20
-19.5
 11
-70.4137922724
 21
-19.5
  0
LINE
  5
3E4
100
AcDbEntity
  8
PORTATASTO
100
AcDbLine
 62
7
  6
CONTINUOUS
 10
-60.9050660692
 20
-21.4537354271
 11
-71.4137922724
 21
-21.4
  0
LINE
  5
3E5
100
AcDbEntity
  8
PORTATASTO
100
AcDbLine
 62
7
  6
CONTINUOUS
 10
-60.4137922724
 20
-20.9959955457
 11
-71.4137922724
 21
-20.9
  0
LINE
  5
3E6
100
AcDbEntity
  8
PORTATASTO
100
AcDbLine
 62
7
  6
CONTINUOUS
 10
-76.1216453569
 20
-19.9421853323
 11
-73.9137922724
 21
-20.0
  0
LINE
  5
3E7
100
AcDbEntity
  8
ASSI
100
AcDbLine
 62
253
  6
CONTINUOUS
 10
-81.0112649725
 20
-20.372221817
 11
-81.4977155864
 21
-20.3926125908
  0
LINE
  5
3E8
100
AcDbEntity
  8
RACCORDO
100
AcDbLine
 62
253
  6
CONTINUOUS
 10
-81.0112649725
 20
-20.372221817
 11
-81.4977155864
 21
-20.3926125908
  0
LINE
  5
3E9
100
AcDbEntity
  8
CORPO
100
AcDbLine
 62
253
  6
CONTINUOUS
 10
-39.896339866
 20
-18.874467277
 11
-64.3137922724
 21
-19.3006754942
  0
LINE
  5
3EA
100
AcDbEntity
  8
ASSI
100
AcDbLine
 62
253
  6
CONTINUOUS
 10
-39.896339866
 20
-18.874467277
 11
-64.3137922724
 21
-19.3006754942
  0
LINE
  5
3EB
100
AcDbEntity
  8
CORPO
100
AcDbLine
 62
253
  6
CONTINUOUS
 10
-70.4137922724
 20
-19.0856972195
 11
-39.896339866
 21
-18.8650522354
  0
LINE
  5
3EC
100
AcDbEntity
  8
ASSI
100
AcDbLine
 62
253
  6
CONTINUOUS
 10
-70.4137922724
 20
-19.0856972195
 11
-39.896339866
 21
-18.8650522354
  0
LINE
  5
3ED
100
AcDbEntity
  8
CORPO
100
AcDbLine
 62
253
  6
CONTINUOUS
 10
-70.4137922724
 20
-17.6716990487
 11
-39.896339866
 21
-17.4510540646
  0
LINE
  5
3EE
100
AcDbEntity
  8
ASSI
100
AcDbLine
 62
253
  6
CONTINUOUS
 10
-70.4137922724
 20
-17.6716990487
 11
-39.896339866
 21
-17.4510540646
  0
LINE
  5
3EF
100
AcDbEntity
  8
PORTATASTO
100
AcDbLine
 62
253
  6
CONTINUOUS
 10
-76.1216453569
 20
-18.4426993448
 11
-76.1901021818
 21
-18.4426993478
  0
LINE
  5
3F0
100
AcDbEntity
  8
CORPO
100
AcDbLine
 62
253
  6
CONTINUOUS
 10
-38.9137922724
 20
-17.4510540646
 11
-39.896339866
 21
-17.4510540642
  0
LINE
  5
3F1
100
AcDbEntity
  8
ASSI
100
AcDbLine
 62
253
  6
CONTINUOUS
 10
-38.9137922724
 20
-17.4510540646
 11
-39.896339866
 21
-17.4510540642
  0
LINE
  5
3F2
100
AcDbEntity
  8
PORTATASTO
100
AcDbLine
 62
7
  6
CONTINUOUS
 10
-71.4137922724
 20
-18.5587268678
 11
-70.4137922724
 21
-18.5674537356
  0
LINE
  5
3F3
100
AcDbEntity
  8
PORTATASTO
100
AcDbLine
 62
253
  6
CONTINUOUS
 10
-76.1216453569
 20
-18.4426993448
 11
-73.9137922724
 21
-18.5005140125
  0
LINE
  5
3F4
100
AcDbEntity
  8
PORTATASTO
100
AcDbLine
 62
253
  6
CONTINUOUS
 10
-76.1216453569
 20
-17.3234401537
 11
-76.1216453569
 21
-18.4426993448
  0
LINE
  5
3F5
100
AcDbEntity
  8
CURVE
100
AcDbLine
 62
7
  6
CONTINUOUS
 10
-67.814585197
 20
14.7937896691
 11
-67.5108143734
 21
15.0975604927
  0
LINE
  5
3F6
100
AcDbEntity
  8
CURVE
100
AcDbLine
 62
7
  6
CONTINUOUS
 10
-67.814585197
 20
14.3737682411
 11
-66.8668917812
 21
15.3214616569
  0
LINE
  5
3F7
100
AcDbEntity
  8
CURVE
100
AcDbLine
 62
7
  6
CONTINUOUS
 10
-67.5948966958
 20
14.1734353143
 11
-67.1871236862
 21
14.5812083238
  0
LINE
  5
3F8
100
AcDbEntity
  8
CURVE
100
AcDbLine
 62
7
  6
CONTINUOUS
 10
-67.1151952543
 20
14.6531367558
 11
-66.222969189
 21
15.5453628211
  0
LINE
  5
3F9
100
AcDbEntity
  8
CURVE
100
AcDbLine
 62
253
  6
CONTINUOUS
 10
-64.9154674981
 20
16.0
 11
-67.814585197
 21
14.991935
  0
LINE
  5
3FA
100
AcDbEntity
  8
CURVE
100
AcDbLine
 62
253
  6
CONTINUOUS
 10
-65.5299192874
 20
15.164584
 11
-64.9154674981
 21
15.373574
  0
LINE
  5
3FB
100
AcDbEntity
  8
CURVE
100
AcDbLine
 62
253
  6
CONTINUOUS
 10
-67.2604300366
 20
14.606449
 11
-66.0117054971
 21
15.007869
  0
LINE
  5
3FC
100
AcDbEntity
  8
PORTATASTO
100
AcDbLine
 62
7
  6
CONTINUOUS
 10
-70.4137922724
 20
-18.1473460386
 11
-72.4137922724
 21
-18.5
  0
LINE
  5
3FD
100
AcDbEntity
  8
CURVE
100
AcDbLine
 62
253
  6
CONTINUOUS
 10
-62.8161071297
 20
-16.0
 11
-61.5165030922
 21
-16.0
  0
LINE
  5
3FE
100
AcDbEntity
  8
CURVE
100
AcDbLine
 62
253
  6
CONTINUOUS
 10
-65.8269257956
 20
-14.790021
 11
-67.822238865
 21
-14.22041
  0
LINE
  5
3FF
100
AcDbEntity
  8
CURVE
100
AcDbLine
 62
253
  6
CONTINUOUS
 10
-67.822238865
 20
-13.615552
 11
-64.9234690602
 21
-14.547617
  0
LINE
  5
400
100
AcDbEntity
  8
PORTATASTO
100
AcDbLine
 62
7
  6
CONTINUOUS
 10
-74.9137922724
 20
-24.2329794573
 11
-74.9137922724
 21
-23.9443375673
  0
LINE
  5
401
100
AcDbEntity
  8
ASSI
100
AcDbLine
 62
7
  6
CONTINUOUS
 10
-74.9137922724
 20
2.4247832141
 11
-74.9137922724
 21
22.1
  0
LINE
  5
402
100
AcDbEntity
  8
RACCORDO
100
AcDbLine
 62
7
  6
CONTINUOUS
 10
-74.9137922724
 20
2.4247832141
 11
-74.9137922724
 21
22.1
  0
LINE
  5
403
100
AcDbEntity
  8
PORTATASTO
100
AcDbLine
 62
7
  6
CONTINUOUS
 10
-74.9137922724
 20
23.9443375673
 11
-74.9137922724
 21
24.2329794573
  0
LINE
  5
404
100
AcDbEntity
  8
PORTATASTO
100
AcDbLine
 62
253
  6
CONTINUOUS
 10
-74.6651012634
 20
-24.2329794573
 11
-74.6651012634
 21
-23.9443375673
  0
LINE
  5
405
100
AcDbEntity
  8
PORTATASTO
100
AcDbLine
 62
253
  6
CONTINUOUS
 10
-74.6651012634
 20
23.9443375673
 11
-74.6651012634
 21
24.2329794573
  0
LINE
  5
406
100
AcDbEntity
  8
ASSI
100
AcDbLine
 62
7
  6
CONTINUOUS
 10
-74.1637922724
 20
15.3001980265
 11
-74.1637922724
 21
15.1977018539
  0
LINE
  5
407
100
AcDbEntity
  8
ASSI
100
AcDbLine
 62
7
  6
CONTINUOUS
 10
-74.1637922724
 20
12.8022936237
 11
-74.1637922724
 21
12.6998019735
  0
LINE
  5
408
100
AcDbEntity
  8
PORTATASTO
100
AcDbLine
 62
7
  6
CONTINUOUS
 10
-73.9137922724
 20
-23.0783121635
 11
-73.9137922724
 21
23.0783121635
  0
LINE
  5
409
100
AcDbEntity
  8
PORTATASTO
100
AcDbLine
 62
253
  6
CONTINUOUS
 10
-73.6651012634
 20
-23.0783121635
 11
-73.6651012634
 21
-22.2844216746
  0
LINE
  5
40A
100
AcDbEntity
  8
PORTATASTO
100
AcDbLine
 62
253
  6
CONTINUOUS
 10
-73.6651012634
 20
22.2844216746
 11
-73.6651012634
 21
23.0783121635
  0
LINE
  5
40B
100
AcDbEntity
  8
RACCORDO
100
AcDbLine
 62
7
  6
CONTINUOUS
 10
-74.9137922724
 20
2.4247832141
 11
-76.4089995394
 21
-22.0216395076
  0
LINE
  5
40C
100
AcDbEntity
  8
ASSI
100
AcDbLine
 62
7
  6
CONTINUOUS
 10
-74.9137922724
 20
2.4247832141
 11
-76.4089995394
 21
-22.0216395076
  0
LINE
  5
40D
100
AcDbEntity
  8
CURVE
100
AcDbLine
 62
7
  6
CONTINUOUS
 10
-67.2864299386
 20
14.0618806434
 11
-66.8746816062
 21
14.4736289758
  0
LINE
  5
40E
100
AcDbEntity
  8
CURVE
100
AcDbLine
 62
7
  6
CONTINUOUS
 10
-66.4961839781
 20
14.8521266039
 11
-65.5790465967
 21
15.7692639853
  0
LINE
  5
40F
100
AcDbEntity
  8
CURVE
100
AcDbLine
 62
7
  6
CONTINUOUS
 10
-66.9779631815
 20
13.9503259725
 11
-66.5622395263
 21
14.3660496277
  0
LINE
  5
410
100
AcDbEntity
  8
CURVE
100
AcDbLine
 62
7
  6
CONTINUOUS
 10
-66.0117054971
 20
14.9165836569
 11
-64.9351240045
 21
15.9931651495
  0
LINE
  5
411
100
AcDbEntity
  8
CURVE
100
AcDbLine
 62
7
  6
CONTINUOUS
 10
-67.814585197
 20
12.693682529
 11
-67.597069726
 21
12.911198
  0
LINE
  5
412
100
AcDbEntity
  8
CURVE
100
AcDbLine
 62
7
  6
CONTINUOUS
 10
-66.6694964243
 20
13.8387713016
 11
-66.2497974463
 21
14.2584702797
  0
LINE
  5
413
100
AcDbEntity
  8
CURVE
100
AcDbLine
 62
7
  6
CONTINUOUS
 10
-66.0117054971
 20
14.4965622289
 11
-65.5299192874
 21
14.9783484386
  0
LINE
  5
414
100
AcDbEntity
  8
CURVE
100
AcDbLine
 62
7
  6
CONTINUOUS
 10
-65.2476910307
 20
15.2605766953
 11
-64.9154674981
 21
15.5928002279
  0
LINE
  5
415
100
AcDbEntity
  8
CURVE
100
AcDbLine
 62
7
  6
CONTINUOUS
 10
-67.7594922979
 20
12.328754
 11
-67.1770482979
 21
12.911198
  0
LINE
  5
416
100
AcDbEntity
  8
CURVE
100
AcDbLine
 62
7
  6
CONTINUOUS
 10
-66.3610296672
 20
13.7272166308
 11
-65.5299192874
 21
14.5583270106
  0
LINE
  5
417
100
AcDbEntity
  8
CURVE
100
AcDbLine
 62
7
  6
CONTINUOUS
 10
-67.3394708699
 20
12.328754
 11
-66.7570268699
 21
12.911198
  0
LINE
  5
418
100
AcDbEntity
  8
CURVE
100
AcDbLine
 62
7
  6
CONTINUOUS
 10
-66.05256291
 20
13.6156619599
 11
-65.5299192874
 21
14.1383055825
  0
LINE
  5
419
100
AcDbEntity
  8
CURVE
100
AcDbLine
 62
7
  6
CONTINUOUS
 10
-66.9194494419
 20
12.328754
 11
-66.3370054419
 21
12.911198
  0
LINE
  5
41A
100
AcDbEntity
  8
CURVE
100
AcDbLine
 62
7
  6
CONTINUOUS
 10
-65.7440961529
 20
13.504107289
 11
-65.3100065191
 21
13.9381969227
  0
LINE
  5
41B
100
AcDbEntity
  8
CURVE
100
AcDbLine
 62
7
  6
CONTINUOUS
 10
-67.814585197
 20
11.0135968169
 11
-67.421840738
 21
11.4063412758
  0
LINE
  5
41C
100
AcDbEntity
  8
CURVE
100
AcDbLine
 62
7
  6
CONTINUOUS
 10
-66.4994280139
 20
12.328754
 11
-65.9169840139
 21
12.911198
  0
LINE
  5
41D
100
AcDbEntity
  8
CURVE
100
AcDbLine
 62
7
  6
CONTINUOUS
 10
-65.4356293957
 20
13.3925526181
 11
-64.9995901255
 21
13.8285918883
  0
LINE
  5
41E
100
AcDbEntity
  8
CURVE
100
AcDbLine
 62
253
  6
CONTINUOUS
 10
-67.814585197
 20
11.216139
 11
-65.5171711714
 21
12.328754
  0
LINE
  5
41F
100
AcDbEntity
  8
CURVE
100
AcDbLine
 62
253
  6
CONTINUOUS
 10
-61.5165030922
 20
-14.754264
 11
-62.8161071297
 21
-14.754264
  0
LINE
  5
420
100
AcDbEntity
  8
CURVE
100
AcDbLine
 62
253
  6
CONTINUOUS
 10
-67.8224128121
 20
-13.390935
 11
-64.9234690602
 21
-13.390935
  0
LINE
  5
421
100
AcDbEntity
  8
CURVE
100
AcDbLine
 62
253
  6
CONTINUOUS
 10
-57.0139549253
 20
-13.349998
 11
-56.263363615
 21
-13.349998
  0
LINE
  5
422
100
AcDbEntity
  8
CURVE
100
AcDbLine
 62
253
  6
CONTINUOUS
 10
-52.6700184328
 20
-13.349998
 11
-51.9194271225
 21
-13.349998
  0
LINE
  5
423
100
AcDbEntity
  8
CURVE
100
AcDbLine
 62
253
  6
CONTINUOUS
 10
-62.8161071297
 20
-13.269593
 11
-61.5165030922
 21
-13.269593
  0
LINE
  5
424
100
AcDbEntity
  8
CURVE
100
AcDbLine
 62
253
  6
CONTINUOUS
 10
-62.8161071297
 20
-14.01011
 11
-61.5165030922
 21
-14.580443
  0
LINE
  5
425
100
AcDbEntity
  8
CURVE
100
AcDbLine
 62
253
  6
CONTINUOUS
 10
-62.8161071297
 20
-14.754264
 11
-61.5165030922
 21
-15.377131
  0
LINE
  5
426
100
AcDbEntity
  8
PORTATASTO
100
AcDbLine
 62
7
  6
CONTINUOUS
 10
-72.4137922724
 20
23.2226497308
 11
-72.4137922724
 21
22.35
  0
LINE
  5
427
100
AcDbEntity
  8
PORTATASTO
100
AcDbLine
 62
7
  6
CONTINUOUS
 10
-72.4137922724
 20
21.850016923
 11
-72.4137922724
 21
18.5
  0
LINE
  5
428
100
AcDbEntity
  8
PORTATASTO
100
AcDbLine
 62
7
  6
CONTINUOUS
 10
-72.4137922724
 20
-22.35
 11
-72.4137922724
 21
-23.2226497308
  0
LINE
  5
429
100
AcDbEntity
  8
PORTATASTO
100
AcDbLine
 62
7
  6
CONTINUOUS
 10
-72.4137922724
 20
-21.850016923
 11
-72.4137922724
 21
-18.5
  0
LINE
  5
42A
100
AcDbEntity
  8
PORTATASTO
100
AcDbLine
 62
7
  6
CONTINUOUS
 10
-71.4137922724
 20
24.5
 11
-71.4137922724
 21
23.8
  0
LINE
  5
42B
100
AcDbEntity
  8
PORTATASTO
100
AcDbLine
 62
7
  6
CONTINUOUS
 10
-71.4137922724
 20
22.3441821702
 11
-71.4137922724
 21
18.5587268678
  0
LINE
  5
42C
100
AcDbEntity
  8
PORTATASTO
100
AcDbLine
 62
7
  6
CONTINUOUS
 10
-71.4137922724
 20
-18.5587268678
 11
-71.4137922724
 21
-22.3441821702
  0
LINE
  5
42D
100
AcDbEntity
  8
PORTATASTO
100
AcDbLine
 62
7
  6
CONTINUOUS
 10
-71.4137922724
 20
-23.8
 11
-71.4137922724
 21
-24.5
  0
LINE
  5
42E
100
AcDbEntity
  8
CURVE
100
AcDbLine
 62
7
  6
CONTINUOUS
 10
-67.814585197
 20
10.5935753889
 11
-66.6073877388
 21
11.800772847
  0
LINE
  5
42F
100
AcDbEntity
  8
CURVE
100
AcDbLine
 62
7
  6
CONTINUOUS
 10
-66.0794065858
 20
12.328754
 11
-65.4969625858
 21
12.911198
  0
LINE
  5
430
100
AcDbEntity
  8
CURVE
100
AcDbLine
 62
7
  6
CONTINUOUS
 10
-65.1271626386
 20
13.2809979473
 11
-64.9154674981
 21
13.4926930877
  0
LINE
  5
431
100
AcDbEntity
  8
CURVE
100
AcDbLine
 62
7
  6
CONTINUOUS
 10
-67.6958141578
 20
10.292325
 11
-67.1133691578
 21
10.87477
  0
LINE
  5
432
100
AcDbEntity
  8
CURVE
100
AcDbLine
 62
7
  6
CONTINUOUS
 10
-66.9065781077
 20
11.0815610501
 11
-65.7929347397
 21
12.1952044181
  0
LINE
  5
433
100
AcDbEntity
  8
CURVE
100
AcDbLine
 62
7
  6
CONTINUOUS
 10
-65.6593851578
 20
12.328754
 11
-65.0769411578
 21
12.911198
  0
LINE
  5
434
100
AcDbEntity
  8
CURVE
100
AcDbLine
 62
253
  6
CONTINUOUS
 10
-61.9397904318
 20
16.0000005245
 11
-62.2111777038
 21
15.7285720825
  0
LINE
  5
435
100
AcDbEntity
  8
CURVE
100
AcDbLine
 62
7
  6
CONTINUOUS
 10
-67.2757927298
 20
10.292325
 11
-66.6933477298
 21
10.87477
  0
LINE
  5
436
100
AcDbEntity
  8
CURVE
100
AcDbLine
 62
7
  6
CONTINUOUS
 10
-66.1063785204
 20
11.4617392094
 11
-64.9154674981
 21
12.6526502317
  0
LINE
  5
437
100
AcDbEntity
  8
CURVE
100
AcDbLine
 62
7
  6
CONTINUOUS
 10
-66.8557713018
 20
10.292325
 11
-66.2733263018
 21
10.87477
  0
LINE
  5
438
100
AcDbEntity
  8
CURVE
100
AcDbLine
 62
7
  6
CONTINUOUS
 10
-65.3061789331
 20
11.8419173687
 11
-64.9154674981
 21
12.2326288037
  0
LINE
  5
439
100
AcDbEntity
  8
CURVE
100
AcDbLine
 62
7
  6
CONTINUOUS
 10
-67.814585197
 20
8.9134896768
 11
-67.7326986694
 21
8.9953762044
  0
LINE
  5
43A
100
AcDbEntity
  8
CURVE
100
AcDbLine
 62
7
  6
CONTINUOUS
 10
-66.4357498737
 20
10.292325
 11
-65.8533048737
 21
10.87477
  0
LINE
  5
43B
100
AcDbEntity
  8
CURVE
100
AcDbLine
 62
253
  6
CONTINUOUS
 10
-61.9397904318
 20
14.6428578615
 11
-62.2111777038
 21
14.3714294195
  0
LINE
  5
43C
100
AcDbEntity
  8
CURVE
100
AcDbLine
 62
7
  6
CONTINUOUS
 10
-67.814585197
 20
8.4934682487
 11
-67.0887389594
 21
9.2193144863
  0
LINE
  5
43D
100
AcDbEntity
  8
CURVE
100
AcDbLine
 62
7
  6
CONTINUOUS
 10
-66.0157284457
 20
10.292325
 11
-65.4332834457
 21
10.87477
  0
LINE
  5
43E
100
AcDbEntity
  8
CURVE
100
AcDbLine
 62
7
  6
CONTINUOUS
 10
-67.7011879951
 20
8.1868440226
 11
-66.4447792494
 21
9.4432527683
  0
LINE
  5
43F
100
AcDbEntity
  8
CURVE
100
AcDbLine
 62
7
  6
CONTINUOUS
 10
-65.5957070177
 20
10.292325
 11
-65.0132620177
 21
10.87477
  0
LINE
  5
440
100
AcDbEntity
  8
CURVE
100
AcDbLine
 62
253
  6
CONTINUOUS
 10
-58.6727236291
 20
15.628570652
 11
-58.115665622
 21
15.9999990463
  0
LINE
  5
441
100
AcDbEntity
  8
CURVE
100
AcDbLine
 62
253
  6
CONTINUOUS
 10
-59.4154676257
 20
13.3071422577
 11
-58.6727236291
 21
13.678570652
  0
LINE
  5
442
100
AcDbEntity
  8
CURVE
100
AcDbLine
 62
253
  6
CONTINUOUS
 10
-64.9154674981
 20
12.027546
 11
-67.341832235
 21
10.87477
  0
LINE
  5
443
100
AcDbEntity
  8
CURVE
100
AcDbLine
 62
253
  6
CONTINUOUS
 10
-64.9154674981
 20
9.975074
 11
-67.814585197
 21
8.9669
  0
LINE
  5
444
100
AcDbEntity
  8
CURVE
100
AcDbLine
 62
253
  6
CONTINUOUS
 10
-67.822238865
 20
-15.342748
 11
-65.8269257956
 21
-14.790021
  0
LINE
  5
445
100
AcDbEntity
  8
CURVE
100
AcDbLine
 62
253
  6
CONTINUOUS
 10
-64.9234690602
 20
-12.785664
 11
-67.8224128121
 21
-12.785664
  0
LINE
  5
446
100
AcDbEntity
  8
CURVE
100
AcDbLine
 62
253
  6
CONTINUOUS
 10
-62.8161071297
 20
-11.953245
 11
-61.5165030922
 21
-11.953245
  0
LINE
  5
447
100
AcDbEntity
  8
CURVE
100
AcDbLine
 62
253
  6
CONTINUOUS
 10
-66.8163113503
 20
-11.750162
 11
-64.9234690602
 21
-11.880779
  0
LINE
  5
448
100
AcDbEntity
  8
CURVE
100
AcDbLine
 62
253
  6
CONTINUOUS
 10
-64.9234690602
 20
-12.459827
 11
-67.822238865
 21
-12.198005
  0
LINE
  5
449
100
AcDbEntity
  8
CURVE
100
AcDbLine
 62
253
  6
CONTINUOUS
 10
-66.2128332176
 20
-10.994355
 11
-67.822238865
 21
-10.389084
  0
LINE
  5
44A
100
AcDbEntity
  8
CURVE
100
AcDbLine
 62
253
  6
CONTINUOUS
 10
-66.8084207544
 20
-10.235548
 11
-64.9234690602
 21
-10.955216
  0
LINE
  5
44B
100
AcDbEntity
  8
CORPO
100
AcDbLine
 62
7
  6
CONTINUOUS
 10
-70.4137922724
 20
20.85
 11
-70.4137922724
 21
19.0856972195
  0
LINE
  5
44C
100
AcDbEntity
  8
ASSI
100
AcDbLine
 62
7
  6
CONTINUOUS
 10
-70.4137922724
 20
20.85
 11
-70.4137922724
 21
19.0856972195
  0
LINE
  5
44D
100
AcDbEntity
  8
PORTATASTO
100
AcDbLine
 62
7
  6
CONTINUOUS
 10
-70.4137922724
 20
19.5
 11
-70.4137922724
 21
-19.5
  0
LINE
  5
44E
100
AcDbEntity
  8
CORPO
100
AcDbLine
 62
7
  6
CONTINUOUS
 10
-70.4137922724
 20
-19.0856972195
 11
-70.4137922724
 21
-20.85
  0
LINE
  5
44F
100
AcDbEntity
  8
ASSI
100
AcDbLine
 62
7
  6
CONTINUOUS
 10
-70.4137922724
 20
-19.0856972195
 11
-70.4137922724
 21
-20.85
  0
LINE
  5
450
100
AcDbEntity
  8
CORPO
100
AcDbLine
 62
7
  6
CONTINUOUS
 10
-70.4137922724
 20
-18.2521805692
 11
-70.4137922724
 21
-18.1865176261
  0
LINE
  5
451
100
AcDbEntity
  8
ASSI
100
AcDbLine
 62
7
  6
CONTINUOUS
 10
-70.4137922724
 20
-18.2521805692
 11
-70.4137922724
 21
-18.1865176261
  0
LINE
  5
452
100
AcDbEntity
  8
CORPO
100
AcDbLine
 62
7
  6
CONTINUOUS
 10
-70.4137922724
 20
-18.0618205861
 11
-70.4137922724
 21
18.0618205978
  0
LINE
  5
453
100
AcDbEntity
  8
CORPO
100
AcDbLine
 62
7
  6
CONTINUOUS
 10
-70.4137922724
 20
18.1865176248
 11
-70.4137922724
 21
18.2521805885
  0
LINE
  5
454
100
AcDbEntity
  8
ASSI
100
AcDbLine
 62
7
  6
CONTINUOUS
 10
-70.4137922724
 20
-18.0618205861
 11
-70.4137922724
 21
18.0618205978
  0
LINE
  5
455
100
AcDbEntity
  8
ASSI
100
AcDbLine
 62
7
  6
CONTINUOUS
 10
-70.4137922724
 20
18.1865176248
 11
-70.4137922724
 21
18.2521805885
  0
LINE
  5
456
100
AcDbEntity
  8
CURVE
100
AcDbLine
 62
7
  6
CONTINUOUS
 10
-67.3927127203
 20
8.0752978694
 11
-66.982345574
 21
8.4856650156
  0
LINE
  5
457
100
AcDbEntity
  8
CURVE
100
AcDbLine
 62
7
  6
CONTINUOUS
 10
-66.7093275945
 20
8.7586829952
 11
-65.8008195395
 21
9.6671910502
  0
LINE
  5
458
100
AcDbEntity
  8
CURVE
100
AcDbLine
 62
7
  6
CONTINUOUS
 10
-65.1756855897
 20
10.292325
 11
-64.9154674981
 21
10.5525430916
  0
LINE
  5
459
100
AcDbEntity
  8
CURVE
100
AcDbLine
 62
253
  6
CONTINUOUS
 10
-59.4154676257
 20
15.8142854691
 11
-59.2297816362
 21
15.9999990463
  0
LINE
  5
45A
100
AcDbEntity
  8
CURVE
100
AcDbLine
 62
253
  6
CONTINUOUS
 10
-61.3970159728
 20
13.6928578615
 11
-61.1256287291
 21
13.9642863035
  0
LINE
  5
45B
100
AcDbEntity
  8
CURVE
100
AcDbLine
 62
7
  6
CONTINUOUS
 10
-67.0842374455
 20
7.9637517161
 11
-66.6699035962
 21
8.3780855654
  0
LINE
  5
45C
100
AcDbEntity
  8
CURVE
100
AcDbLine
 62
7
  6
CONTINUOUS
 10
-66.0903168326
 20
8.957672329
 11
-65.1568598295
 21
9.8911293321
  0
LINE
  5
45D
100
AcDbEntity
  8
CURVE
100
AcDbLine
 62
7
  6
CONTINUOUS
 10
-66.7757621708
 20
7.8522055628
 11
-66.3574616184
 21
8.2705061152
  0
LINE
  5
45E
100
AcDbEntity
  8
CURVE
100
AcDbLine
 62
7
  6
CONTINUOUS
 10
-66.0117054971
 20
8.6162622365
 11
-65.5299192874
 21
9.0980484463
  0
LINE
  5
45F
100
AcDbEntity
  8
CURVE
100
AcDbLine
 62
7
  6
CONTINUOUS
 10
-65.467044561
 20
9.1609231726
 11
-64.9154674981
 21
9.7125002355
  0
LINE
  5
460
100
AcDbEntity
  8
CURVE
100
AcDbLine
 62
7
  6
CONTINUOUS
 10
-66.467286896
 20
7.7406594096
 11
-66.0450196406
 21
8.162926665
  0
LINE
  5
461
100
AcDbEntity
  8
CURVE
100
AcDbLine
 62
7
  6
CONTINUOUS
 10
-66.0117054971
 20
8.1962408085
 11
-65.5299192874
 21
8.6780270182
  0
LINE
  5
462
100
AcDbEntity
  8
CURVE
100
AcDbLine
 62
7
  6
CONTINUOUS
 10
-66.1588116213
 20
7.6291132563
 11
-65.5299192874
 21
8.2580055902
  0
LINE
  5
463
100
AcDbEntity
  8
CURVE
100
AcDbLine
 62
7
  6
CONTINUOUS
 10
-67.814585197
 20
5.5533182526
 11
-67.5741644495
 21
5.793739
  0
LINE
  5
464
100
AcDbEntity
  8
CURVE
100
AcDbLine
 62
7
  6
CONTINUOUS
 10
-65.8503363465
 20
7.517567103
 11
-65.4169572253
 21
7.9509462243
  0
LINE
  5
465
100
AcDbEntity
  8
CURVE
100
AcDbLine
 62
7
  6
CONTINUOUS
 10
-67.7767490215
 20
5.171133
 11
-67.1541430215
 21
5.793739
  0
LINE
  5
466
100
AcDbEntity
  8
CURVE
100
AcDbLine
 62
7
  6
CONTINUOUS
 10
-65.5418610717
 20
7.4060209498
 11
-65.1065001299
 21
7.8413818916
  0
LINE
  5
467
100
AcDbEntity
  8
CURVE
100
AcDbLine
 62
7
  6
CONTINUOUS
 10
-67.3567275935
 20
5.171133
 11
-66.7341215935
 21
5.793739
  0
LINE
  5
468
100
AcDbEntity
  8
CURVE
100
AcDbLine
 62
7
  6
CONTINUOUS
 10
-65.233385797
 20
7.2944747965
 11
-64.9154674981
 21
7.6123930954
  0
LINE
  5
469
100
AcDbEntity
  8
CURVE
100
AcDbLine
 62
253
  6
CONTINUOUS
 10
-59.4154676257
 20
12.1928570747
 11
-58.6727236291
 21
12.5642854691
  0
LINE
  5
46A
100
AcDbEntity
  8
CURVE
100
AcDbLine
 62
253
  6
CONTINUOUS
 10
-65.5299192874
 20
9.139549
 11
-64.9154674981
 21
9.348431
  0
LINE
  5
46B
100
AcDbEntity
  8
CURVE
100
AcDbLine
 62
253
  6
CONTINUOUS
 10
-67.2605939866
 20
8.581471
 11
-66.0117054971
 21
8.982943
  0
LINE
  5
46C
100
AcDbEntity
  8
CURVE
100
AcDbLine
 62
253
  6
CONTINUOUS
 10
-67.822238865
 20
-9.790227
 11
-64.9234690602
 21
-9.519077
  0
LINE
  5
46D
100
AcDbEntity
  8
CURVE
100
AcDbLine
 62
253
  6
CONTINUOUS
 10
-64.9234690602
 20
-10.111193
 11
-66.8084207544
 21
-10.235548
  0
LINE
  5
46E
100
AcDbEntity
  8
CURVE
100
AcDbLine
 62
253
  6
CONTINUOUS
 10
-62.8161071297
 20
-10.145272
 11
-61.5165030922
 21
-10.145272
  0
LINE
  5
46F
100
AcDbEntity
  8
CURVE
100
AcDbLine
 62
253
  6
CONTINUOUS
 10
-62.8161071297
 20
-9.756944
 11
-61.5165030922
 21
-9.756944
  0
LINE
  5
470
100
AcDbEntity
  8
CURVE
100
AcDbLine
 62
253
  6
CONTINUOUS
 10
-54.841576804
 20
-9.364888
 11
-54.0918052438
 21
-9.364888
  0
LINE
  5
471
100
AcDbEntity
  8
CURVE
100
AcDbLine
 62
253
  6
CONTINUOUS
 10
-57.0139549253
 20
-8.964888
 11
-56.263363615
 21
-8.964888
  0
LINE
  5
472
100
AcDbEntity
  8
CURVE
100
AcDbLine
 62
253
  6
CONTINUOUS
 10
-52.6700184328
 20
-8.964888
 11
-51.9194271225
 21
-8.964888
  0
LINE
  5
473
100
AcDbEntity
  8
CURVE
100
AcDbLine
 62
253
  6
CONTINUOUS
 10
-62.8161071297
 20
-8.724819
 11
-61.5165030922
 21
-8.724819
  0
LINE
  5
474
100
AcDbEntity
  8
CURVE
100
AcDbLine
 62
253
  6
CONTINUOUS
 10
-67.0257305446
 20
-8.233126
 11
-65.9499603096
 21
-8.5345
  0
LINE
  5
475
100
AcDbEntity
  8
CURVE
100
AcDbLine
 62
253
  6
CONTINUOUS
 10
-65.502166743
 20
-8.658312
 11
-64.9234690602
 21
-8.825329
  0
LINE
  5
476
100
AcDbEntity
  8
CURVE
100
AcDbLine
 62
253
  6
CONTINUOUS
 10
-64.9234690602
 20
-9.424033
 11
-67.822238865
 21
-8.514517
  0
LINE
  5
477
100
AcDbEntity
  8
CURVE
100
AcDbLine
 62
253
  6
CONTINUOUS
 10
-67.8224128121
 20
-12.785664
 11
-67.8224128121
 21
-13.390935
  0
LINE
  5
478
100
AcDbEntity
  8
CURVE
100
AcDbLine
 62
253
  6
CONTINUOUS
 10
-67.822238865
 20
-16.00026
 11
-67.822238865
 21
-15.342748
  0
LINE
  5
479
100
AcDbEntity
  8
CURVE
100
AcDbLine
 62
253
  6
CONTINUOUS
 10
-67.822238865
 20
-14.22041
 11
-67.822238865
 21
-13.615552
  0
LINE
  5
47A
100
AcDbEntity
  8
CURVE
100
AcDbLine
 62
253
  6
CONTINUOUS
 10
-67.822238865
 20
-12.198005
 11
-67.822238865
 21
-11.593234
  0
LINE
  5
47B
100
AcDbEntity
  8
CURVE
100
AcDbLine
 62
253
  6
CONTINUOUS
 10
-67.822238865
 20
-10.389084
 11
-67.822238865
 21
-9.790227
  0
LINE
  5
47C
100
AcDbEntity
  8
CURVE
100
AcDbLine
 62
253
  6
CONTINUOUS
 10
-67.822238865
 20
-8.514517
 11
-67.822238865
 21
-7.92899
  0
LINE
  5
47D
100
AcDbEntity
  8
CURVE
100
AcDbLine
 62
253
  6
CONTINUOUS
 10
-67.814585197
 20
14.991935
 11
-67.814585197
 21
14.252884
  0
LINE
  5
47E
100
AcDbEntity
  8
CURVE
100
AcDbLine
 62
253
  6
CONTINUOUS
 10
-67.814585197
 20
8.9669
 11
-67.814585197
 21
8.227849
  0
LINE
  5
47F
100
AcDbEntity
  8
CURVE
100
AcDbLine
 62
253
  6
CONTINUOUS
 10
-67.814585197
 20
3.58822
 11
-67.814585197
 21
2.70079
  0
LINE
  5
480
100
AcDbEntity
  8
CURVE
100
AcDbLine
 62
253
  6
CONTINUOUS
 10
-67.814585197
 20
5.171133
 11
-67.814585197
 21
5.793739
  0
LINE
  5
481
100
AcDbEntity
  8
CURVE
100
AcDbLine
 62
253
  6
CONTINUOUS
 10
-67.814585197
 20
10.292325
 11
-67.814585197
 21
11.216139
  0
LINE
  5
482
100
AcDbEntity
  8
CURVE
100
AcDbLine
 62
253
  6
CONTINUOUS
 10
-67.814585197
 20
12.328754
 11
-67.814585197
 21
12.911198
  0
LINE
  5
483
100
AcDbEntity
  8
CURVE
100
AcDbLine
 62
253
  6
CONTINUOUS
 10
-67.3327989872
 20
3.323396
 11
-67.3327989872
 21
3.686612
  0
LINE
  5
484
100
AcDbEntity
  8
CURVE
100
AcDbLine
 62
7
  6
CONTINUOUS
 10
-66.9367061655
 20
5.171133
 11
-66.3141001655
 21
5.793739
  0
LINE
  5
485
100
AcDbEntity
  8
CURVE
100
AcDbLine
 62
7
  6
CONTINUOUS
 10
-65.3972537078
 20
6.7105854576
 11
-65.2411011655
 21
6.866738
  0
LINE
  5
486
100
AcDbEntity
  8
CURVE
100
AcDbLine
 62
7
  6
CONTINUOUS
 10
-64.9249105222
 20
7.1829286433
 11
-64.9154674981
 21
7.1923716674
  0
LINE
  5
487
100
AcDbEntity
  8
CURVE
100
AcDbLine
 62
7
  6
CONTINUOUS
 10
-67.7995548892
 20
3.8882628483
 11
-66.9069055696
 21
4.7809121678
  0
LINE
  5
488
100
AcDbEntity
  8
CURVE
100
AcDbLine
 62
7
  6
CONTINUOUS
 10
-66.5166847374
 20
5.171133
 11
-65.8940787374
 21
5.793739
  0
LINE
  5
489
100
AcDbEntity
  8
CURVE
100
AcDbLine
 62
7
  6
CONTINUOUS
 10
-65.3972537078
 20
6.2905640296
 11
-64.9154674981
 21
6.7723502393
  0
LINE
  5
48A
100
AcDbEntity
  8
CURVE
100
AcDbLine
 62
7
  6
CONTINUOUS
 10
-67.8145850777
 20
3.4532112317
 11
-66.5487431625
 21
4.7190531469
  0
LINE
  5
48B
100
AcDbEntity
  8
CURVE
100
AcDbLine
 62
7
  6
CONTINUOUS
 10
-66.0966633094
 20
5.171133
 11
-65.4740573094
 21
5.793739
  0
LINE
  5
48C
100
AcDbEntity
  8
CURVE
100
AcDbLine
 62
7
  6
CONTINUOUS
 10
-65.3972537078
 20
5.8705426016
 11
-64.9154674981
 21
6.3523288113
  0
LINE
  5
48D
100
AcDbEntity
  8
CURVE
100
AcDbLine
 62
7
  6
CONTINUOUS
 10
-67.8145851443
 20
3.0331897371
 11
-67.3327989491
 21
3.5149759323
  0
LINE
  5
48E
100
AcDbEntity
  8
CURVE
100
AcDbLine
 62
7
  6
CONTINUOUS
 10
-66.7523841334
 20
4.095390748
 11
-66.2962717452
 21
4.5515031362
  0
LINE
  5
48F
100
AcDbEntity
  8
CURVE
100
AcDbLine
 62
7
  6
CONTINUOUS
 10
-65.6766418814
 20
5.171133
 11
-64.9154674981
 21
5.9323073833
  0
LINE
  5
490
100
AcDbEntity
  8
CURVE
100
AcDbLine
 62
7
  6
CONTINUOUS
 10
-67.7269634534
 20
2.70079
 11
-67.1043574534
 21
3.323396
  0
LINE
  5
491
100
AcDbEntity
  8
CURVE
100
AcDbLine
 62
7
  6
CONTINUOUS
 10
-66.5428464503
 20
3.884907003
 11
-66.1360732817
 21
4.2916801716
  0
LINE
  5
492
100
AcDbEntity
  8
CURVE
100
AcDbLine
 62
7
  6
CONTINUOUS
 10
-65.2566204534
 20
5.171133
 11
-64.9154674981
 21
5.5122859553
  0
LINE
  5
493
100
AcDbEntity
  8
CURVE
100
AcDbLine
 62
253
  6
CONTINUOUS
 10
-59.4154676257
 20
10.6452377319
 11
-59.2297816362
 21
10.8309519291
  0
LINE
  5
494
100
AcDbEntity
  8
CURVE
100
AcDbLine
 62
7
  6
CONTINUOUS
 10
-67.3069420253
 20
2.70079
 11
-66.6843360253
 21
3.323396
  0
LINE
  5
495
100
AcDbEntity
  8
CURVE
100
AcDbLine
 62
7
  6
CONTINUOUS
 10
-66.5136755572
 20
3.4940564681
 11
-66.0543537131
 21
3.9533783123
  0
LINE
  5
496
100
AcDbEntity
  8
CURVE
100
AcDbLine
 62
7
  6
CONTINUOUS
 10
-66.8869205973
 20
2.70079
 11
-66.0318893475
 21
3.5558212498
  0
LINE
  5
497
100
AcDbEntity
  8
CURVE
100
AcDbLine
 62
253
  6
CONTINUOUS
 10
-65.9499603096
 20
-7.954996
 11
-67.0257305446
 21
-8.233126
  0
LINE
  5
498
100
AcDbEntity
  8
CURVE
100
AcDbLine
 62
253
  6
CONTINUOUS
 10
-62.8161071297
 20
-7.831288
 11
-61.5165030922
 21
-7.831288
  0
LINE
  5
499
100
AcDbEntity
  8
CURVE
100
AcDbLine
 62
253
  6
CONTINUOUS
 10
-61.5165030922
 20
-7.027348
 11
-62.8161071297
 21
-7.027348
  0
LINE
  5
49A
100
AcDbEntity
  8
CURVE
100
AcDbLine
 62
253
  6
CONTINUOUS
 10
-67.7883715311
 20
-6.8615673444
 11
-64.923468708
 21
-6.8615673444
  0
LINE
  5
49B
100
AcDbEntity
  8
CURVE
100
AcDbLine
 62
253
  6
CONTINUOUS
 10
-62.8161071297
 20
-5.860387
 11
-61.5165030922
 21
-6.430721
  0
LINE
  5
49C
100
AcDbEntity
  8
PORTATASTO
100
AcDbLine
 62
253
  6
CONTINUOUS
 10
-64.8279652174
 20
-23.7585444086
 11
-64.8342869175
 21
-22.3059037278
  0
LINE
  5
49D
100
AcDbEntity
  8
CURVE
100
AcDbLine
 62
253
  6
CONTINUOUS
 10
-66.5326356816
 20
-5.9328946758
 11
-66.5326356816
 21
-6.2788012718
  0
LINE
  5
49E
100
AcDbEntity
  8
CURVE
100
AcDbLine
 62
253
  6
CONTINUOUS
 10
-66.5136755572
 20
3.323396
 11
-66.5136755572
 21
3.686612
  0
LINE
  5
49F
100
AcDbEntity
  8
CURVE
100
AcDbLine
 62
253
  6
CONTINUOUS
 10
-66.0578871884
 20
-6.2587313832
 11
-66.0578871884
 21
-5.9341993273
  0
LINE
  5
4A0
100
AcDbEntity
  8
CURVE
100
AcDbLine
 62
253
  6
CONTINUOUS
 10
-66.0318893475
 20
3.58822
 11
-66.0318893475
 21
3.323396
  0
LINE
  5
4A1
100
AcDbEntity
  8
CURVE
100
AcDbLine
 62
253
  6
CONTINUOUS
 10
-66.0117054971
 20
15.007869
 11
-66.0117054971
 21
14.176491
  0
LINE
  5
4A2
100
AcDbEntity
  8
CURVE
100
AcDbLine
 62
253
  6
CONTINUOUS
 10
-66.0117054971
 20
8.982943
 11
-66.0117054971
 21
8.151456
  0
LINE
  5
4A3
100
AcDbEntity
  8
CURVE
100
AcDbLine
 62
253
  6
CONTINUOUS
 10
-65.9499603096
 20
-8.5345
 11
-65.9499603096
 21
-7.954996
  0
LINE
  5
4A4
100
AcDbEntity
  8
CURVE
100
AcDbLine
 62
253
  6
CONTINUOUS
 10
-65.5299192874
 20
7.990812
 11
-65.5299192874
 21
9.139549
  0
LINE
  5
4A5
100
AcDbEntity
  8
CURVE
100
AcDbLine
 62
253
  6
CONTINUOUS
 10
-65.5299192874
 20
14.015846
 11
-65.5299192874
 21
15.164584
  0
LINE
  5
4A6
100
AcDbEntity
  8
CURVE
100
AcDbLine
 62
253
  6
CONTINUOUS
 10
-65.502166743
 20
-7.834033
 11
-65.502166743
 21
-8.658312
  0
LINE
  5
4A7
100
AcDbEntity
  8
CURVE
100
AcDbLine
 62
253
  6
CONTINUOUS
 10
-65.3972537078
 20
5.793739
 11
-65.3972537078
 21
6.866738
  0
LINE
  5
4A8
100
AcDbEntity
  8
CURVE
100
AcDbLine
 62
253
  6
CONTINUOUS
 10
-64.9234690602
 20
-7.039304
 11
-64.9234690602
 21
-7.677235
  0
LINE
  5
4A9
100
AcDbEntity
  8
CURVE
100
AcDbLine
 62
253
  6
CONTINUOUS
 10
-64.9234690602
 20
-8.825329
 11
-64.9234690602
 21
-9.424033
  0
LINE
  5
4AA
100
AcDbEntity
  8
CURVE
100
AcDbLine
 62
253
  6
CONTINUOUS
 10
-64.9234690602
 20
-9.519077
 11
-64.9234690602
 21
-10.111193
  0
LINE
  5
4AB
100
AcDbEntity
  8
CURVE
100
AcDbLine
 62
253
  6
CONTINUOUS
 10
-64.9234690602
 20
-10.955216
 11
-64.9234690602
 21
-11.040105
  0
LINE
  5
4AC
100
AcDbEntity
  8
CURVE
100
AcDbLine
 62
253
  6
CONTINUOUS
 10
-64.9234690602
 20
-11.880779
 11
-64.9234690602
 21
-12.459827
  0
LINE
  5
4AD
100
AcDbEntity
  8
CURVE
100
AcDbLine
 62
253
  6
CONTINUOUS
 10
-64.9234690602
 20
-14.547617
 11
-64.9234690602
 21
-15.081013
  0
LINE
  5
4AE
100
AcDbEntity
  8
CURVE
100
AcDbLine
 62
253
  6
CONTINUOUS
 10
-64.9234690602
 20
-13.390935
 11
-64.9234690602
 21
-12.785664
  0
LINE
  5
4AF
100
AcDbEntity
  8
CURVE
100
AcDbLine
 62
253
  6
CONTINUOUS
 10
-64.923468708
 20
-6.8615673444
 11
-64.923468708
 21
-6.2587313832
  0
LINE
  5
4B0
100
AcDbEntity
  8
CURVE
100
AcDbLine
 62
253
  6
CONTINUOUS
 10
-64.923468708
 20
-5.3318417383
 11
-64.923468708
 21
-4.7496410148
  0
LINE
  5
4B1
100
AcDbEntity
  8
CURVE
100
AcDbLine
 62
253
  6
CONTINUOUS
 10
-64.9154674981
 20
12.911198
 11
-64.9154674981
 21
12.027546
  0
LINE
  5
4B2
100
AcDbEntity
  8
CURVE
100
AcDbLine
 62
253
  6
CONTINUOUS
 10
-64.9154674981
 20
10.87477
 11
-64.9154674981
 21
10.292325
  0
LINE
  5
4B3
100
AcDbEntity
  8
CURVE
100
AcDbLine
 62
253
  6
CONTINUOUS
 10
-64.9154674981
 20
6.866738
 11
-64.9154674981
 21
5.171133
  0
LINE
  5
4B4
100
AcDbEntity
  8
CURVE
100
AcDbLine
 62
253
  6
CONTINUOUS
 10
-64.9154674981
 20
2.70079
 11
-64.9154674981
 21
3.323396
  0
LINE
  5
4B5
100
AcDbEntity
  8
CURVE
100
AcDbLine
 62
253
  6
CONTINUOUS
 10
-64.9154674981
 20
7.179514
 11
-64.9154674981
 21
7.773964
  0
LINE
  5
4B6
100
AcDbEntity
  8
CURVE
100
AcDbLine
 62
253
  6
CONTINUOUS
 10
-64.9154674981
 20
9.348431
 11
-64.9154674981
 21
9.975074
  0
LINE
  5
4B7
100
AcDbEntity
  8
CURVE
100
AcDbLine
 62
253
  6
CONTINUOUS
 10
-64.9154674981
 20
13.20444
 11
-64.9154674981
 21
13.798889
  0
LINE
  5
4B8
100
AcDbEntity
  8
CURVE
100
AcDbLine
 62
253
  6
CONTINUOUS
 10
-64.9154674981
 20
15.373574
 11
-64.9154674981
 21
16.0
  0
LINE
  5
4B9
100
AcDbEntity
  8
PORTATASTO
100
AcDbLine
 62
7
  6
CONTINUOUS
 10
-64.9137922724
 20
23.4906890903
 11
-64.9137922724
 21
22.8093109097
  0
LINE
  5
4BA
100
AcDbEntity
  8
PORTATASTO
100
AcDbLine
 62
7
  6
CONTINUOUS
 10
-64.9137922724
 20
-22.8093109097
 11
-64.9137922724
 21
-23.4906890903
  0
LINE
  5
4BB
100
AcDbEntity
  8
PORTATASTO
100
AcDbLine
 62
253
  6
CONTINUOUS
 10
-64.8342869175
 20
22.3059037278
 11
-64.8279652174
 21
23.7585444086
  0
LINE
  5
4BC
100
AcDbEntity
  8
CURVE
100
AcDbLine
 62
7
  6
CONTINUOUS
 10
-66.4668991693
 20
2.70079
 11
-65.8442931693
 21
3.323396
  0
LINE
  5
4BD
100
AcDbEntity
  8
CURVE
100
AcDbLine
 62
7
  6
CONTINUOUS
 10
-66.0468777413
 20
2.70079
 11
-65.4242717413
 21
3.323396
  0
LINE
  5
4BE
100
AcDbEntity
  8
CURVE
100
AcDbLine
 62
7
  6
CONTINUOUS
 10
-65.6268563132
 20
2.70079
 11
-65.0042503132
 21
3.323396
  0
LINE
  5
4BF
100
AcDbEntity
  8
CURVE
100
AcDbLine
 62
253
  6
CONTINUOUS
 10
-59.4154676257
 20
8.6023803234
 11
-59.2297816362
 21
8.7880951405
  0
LINE
  5
4C0
100
AcDbEntity
  8
CURVE
100
AcDbLine
 62
7
  6
CONTINUOUS
 10
-65.2068348852
 20
2.70079
 11
-64.9154674981
 21
2.9921573871
  0
LINE
  5
4C1
100
AcDbEntity
  8
CURVE
100
AcDbLine
 62
253
  6
CONTINUOUS
 10
-58.6727236291
 20
8.4166661263
 11
-58.115665622
 21
8.7880951405
  0
LINE
  5
4C2
100
AcDbEntity
  8
CURVE
100
AcDbLine
 62
253
  6
CONTINUOUS
 10
-64.9234690602
 20
-7.677235
 11
-65.502166743
 21
-7.834033
  0
LINE
  5
4C3
100
AcDbEntity
  8
CURVE
100
AcDbLine
 62
253
  6
CONTINUOUS
 10
-66.5326356816
 20
-6.2788012718
 11
-67.3284045844
 21
-6.2788012718
  0
LINE
  5
4C4
100
AcDbEntity
  8
CURVE
100
AcDbLine
 62
253
  6
CONTINUOUS
 10
-64.923468708
 20
-6.2587313832
 11
-66.0578871884
 21
-6.2587313832
  0
LINE
  5
4C5
100
AcDbEntity
  8
CURVE
100
AcDbLine
 62
253
  6
CONTINUOUS
 10
-66.2765888638
 20
-5.30544429
 11
-66.2937180677
 21
-5.30544429
  0
LINE
  5
4C6
100
AcDbEntity
  8
CURVE
100
AcDbLine
 62
253
  6
CONTINUOUS
 10
-62.8161071297
 20
-5.041082
 11
-61.5165030922
 21
-5.041082
  0
LINE
  5
4C7
100
AcDbEntity
  8
PORTATASTO
100
AcDbLine
 62
7
  6
CONTINUOUS
 10
-64.4137922724
 20
-23.2659657686
 11
-64.4137922724
 21
-22.3034573615
  0
LINE
  5
4C8
100
AcDbEntity
  8
PORTATASTO
100
AcDbLine
 62
7
  6
CONTINUOUS
 10
-64.4137922724
 20
22.3034573615
 11
-64.4137922724
 21
23.2659657686
  0
LINE
  5
4C9
100
AcDbEntity
  8
CORPO
100
AcDbLine
 62
7
  6
CONTINUOUS
 10
-64.3137922724
 20
-20.7435241039
 11
-64.3137922724
 21
-19.3006754942
  0
LINE
  5
4CA
100
AcDbEntity
  8
ASSI
100
AcDbLine
 62
7
  6
CONTINUOUS
 10
-64.3137922724
 20
-20.7435241039
 11
-64.3137922724
 21
-19.3006754942
  0
LINE
  5
4CB
100
AcDbEntity
  8
CORPO
100
AcDbLine
 62
7
  6
CONTINUOUS
 10
-64.3137922724
 20
19.3006754942
 11
-64.3137922724
 21
20.7435241039
  0
LINE
  5
4CC
100
AcDbEntity
  8
ASSI
100
AcDbLine
 62
7
  6
CONTINUOUS
 10
-64.3137922724
 20
19.3006754942
 11
-64.3137922724
 21
20.7435241039
  0
LINE
  5
4CD
100
AcDbEntity
  8
CURVE
100
AcDbLine
 62
253
  6
CONTINUOUS
 10
-63.0253393499
 20
15.1857147455
 11
-63.0253393499
 21
16.0000005245
  0
LINE
  5
4CE
100
AcDbEntity
  8
CURVE
100
AcDbLine
 62
253
  6
CONTINUOUS
 10
-62.8161071297
 20
-11.006258
 11
-62.8161071297
 21
-11.953245
  0
LINE
  5
4CF
100
AcDbEntity
  8
CURVE
100
AcDbLine
 62
253
  6
CONTINUOUS
 10
-62.8161071297
 20
-12.839757
 11
-62.8161071297
 21
-13.269593
  0
LINE
  5
4D0
100
AcDbEntity
  8
CURVE
100
AcDbLine
 62
253
  6
CONTINUOUS
 10
-62.8161071297
 20
-7.555145
 11
-62.8161071297
 21
-6.499553
  0
LINE
  5
4D1
100
AcDbEntity
  8
CURVE
100
AcDbLine
 62
253
  6
CONTINUOUS
 10
-58.4870376396
 20
5.7238090277
 11
-59.0440956468
 21
5.0738091826
  0
LINE
  5
4D2
100
AcDbEntity
  8
CURVE
100
AcDbLine
 62
253
  6
CONTINUOUS
 10
-59.4154676257
 20
5.6309519291
 11
-59.3226245922
 21
5.7238090277
  0
LINE
  5
4D3
100
AcDbEntity
  8
CURVE
100
AcDbLine
 62
253
  6
CONTINUOUS
 10
-58.2085086264
 20
5.0738091826
 11
-58.115665622
 21
5.1666662812
  0
LINE
  5
4D4
100
AcDbEntity
  8
CURVE
100
AcDbLine
 62
253
  6
CONTINUOUS
 10
-59.4154676257
 20
2.8452377319
 11
-58.6727236291
 21
3.21666632
  0
LINE
  5
4D5
100
AcDbEntity
  8
CURVE
100
AcDbLine
 62
253
  6
CONTINUOUS
 10
-59.4154676257
 20
4.3309520841
 11
-58.115665622
 21
4.7023806334
  0
LINE
  5
4D6
100
AcDbEntity
  8
CURVE
100
AcDbLine
 62
253
  6
CONTINUOUS
 10
-61.5165030922
 20
-3.656396
 11
-62.0193848745
 21
-3.656396
  0
LINE
  5
4D7
100
AcDbEntity
  8
CURVE
100
AcDbLine
 62
253
  6
CONTINUOUS
 10
-62.0193848745
 20
-3.656396
 11
-62.8161071297
 21
-3.180657
  0
LINE
  5
4D8
100
AcDbEntity
  8
CURVE
100
AcDbLine
 62
253
  6
CONTINUOUS
 10
-62.2111777038
 20
15.7285720825
 11
-62.2111777038
 21
15.1857147455
  0
LINE
  5
4D9
100
AcDbEntity
  8
CURVE
100
AcDbLine
 62
253
  6
CONTINUOUS
 10
-62.2111777038
 20
14.3714294195
 11
-62.2111777038
 21
13.7833339334
  0
LINE
  5
4DA
100
AcDbEntity
  8
CURVE
100
AcDbLine
 62
253
  6
CONTINUOUS
 10
-62.1663051109
 20
-11.953245
 11
-62.1663051109
 21
-11.072654
  0
LINE
  5
4DB
100
AcDbEntity
  8
CURVE
100
AcDbLine
 62
253
  6
CONTINUOUS
 10
-61.9882003758
 20
-6.223716
 11
-61.9882003758
 21
-5.497059
  0
LINE
  5
4DC
100
AcDbEntity
  8
CURVE
100
AcDbLine
 62
253
  6
CONTINUOUS
 10
-61.9807616422
 20
-14.376702
 11
-61.9807616422
 21
-13.643517
  0
LINE
  5
4DD
100
AcDbEntity
  8
CURVE
100
AcDbLine
 62
253
  6
CONTINUOUS
 10
-61.5327095804
 20
12.0642863035
 11
-61.5327095804
 21
11.1142864168
  0
LINE
  5
4DE
100
AcDbEntity
  8
CURVE
100
AcDbLine
 62
253
  6
CONTINUOUS
 10
-61.5165030922
 20
-13.269593
 11
-61.5165030922
 21
-12.839757
  0
LINE
  5
4DF
100
AcDbEntity
  8
CURVE
100
AcDbLine
 62
253
  6
CONTINUOUS
 10
-61.5165030922
 20
-11.953245
 11
-61.5165030922
 21
-10.993568
  0
LINE
  5
4E0
100
AcDbEntity
  8
CURVE
100
AcDbLine
 62
253
  6
CONTINUOUS
 10
-61.5165030922
 20
-5.041082
 11
-61.5165030922
 21
-4.294148
  0
LINE
  5
4E1
100
AcDbEntity
  8
CURVE
100
AcDbLine
 62
253
  6
CONTINUOUS
 10
-61.1256287291
 20
13.9642863035
 11
-61.1256287291
 21
14.3714294195
  0
LINE
  5
4E2
100
AcDbEntity
  8
CURVE
100
AcDbLine
 62
253
  6
CONTINUOUS
 10
-61.1256287291
 20
15.1857147455
 11
-61.1256287291
 21
15.7285720825
  0
LINE
  5
4E3
100
AcDbEntity
  8
PORTATASTO
100
AcDbLine
 62
253
  6
CONTINUOUS
 10
-60.9050660692
 20
-21.4537354271
 11
-60.9050660692
 21
-20.9917082642
  0
LINE
  5
4E4
100
AcDbEntity
  8
PORTATASTO
100
AcDbLine
 62
253
  6
CONTINUOUS
 10
-60.9050660692
 20
20.9917082642
 11
-60.9050660692
 21
21.4537354271
  0
LINE
  5
4E5
100
AcDbEntity
  8
CORPO
100
AcDbLine
 62
7
  6
CONTINUOUS
 10
-60.4137922724
 20
19.7
 11
-60.4137922724
 21
19.5254493507
  0
LINE
  5
4E6
100
AcDbEntity
  8
ASSI
100
AcDbLine
 62
7
  6
CONTINUOUS
 10
-60.4137922724
 20
19.7
 11
-60.4137922724
 21
19.5254493507
  0
LINE
  5
4E7
100
AcDbEntity
  8
PORTATASTO
100
AcDbLine
 62
7
  6
CONTINUOUS
 10
-60.4137922724
 20
-19.7
 11
-60.4137922724
 21
-21.2859869487
  0
LINE
  5
4E8
100
AcDbEntity
  8
CORPO
100
AcDbLine
 62
7
  6
CONTINUOUS
 10
-60.4137922724
 20
-19.5254493507
 11
-60.4137922724
 21
-19.7
  0
LINE
  5
4E9
100
AcDbEntity
  8
ASSI
100
AcDbLine
 62
7
  6
CONTINUOUS
 10
-60.4137922724
 20
-19.5254493507
 11
-60.4137922724
 21
-19.7
  0
LINE
  5
4EA
100
AcDbEntity
  8
PORTATASTO
100
AcDbLine
 62
7
  6
CONTINUOUS
 10
-60.4137922724
 20
19.7
 11
-60.4137922724
 21
21.2859869487
  0
LINE
  5
4EB
100
AcDbEntity
  8
CURVE
100
AcDbLine
 62
253
  6
CONTINUOUS
 10
-59.4154676257
 20
5.2595233798
 11
-59.4154676257
 21
5.6309519291
  0
LINE
  5
4EC
100
AcDbEntity
  8
CURVE
100
AcDbLine
 62
253
  6
CONTINUOUS
 10
-59.4154676257
 20
6.0952377319
 11
-59.4154676257
 21
6.8380948305
  0
LINE
  5
4ED
100
AcDbEntity
  8
CURVE
100
AcDbLine
 62
253
  6
CONTINUOUS
 10
-59.4154676257
 20
7.2095235348
 11
-59.4154676257
 21
7.7666664362
  0
LINE
  5
4EE
100
AcDbEntity
  8
CURVE
100
AcDbLine
 62
253
  6
CONTINUOUS
 10
-59.4154676257
 20
8.1380951405
 11
-59.4154676257
 21
8.6023803234
  0
LINE
  5
4EF
100
AcDbEntity
  8
CURVE
100
AcDbLine
 62
253
  6
CONTINUOUS
 10
-59.4154676257
 20
10.1809519291
 11
-59.4154676257
 21
10.6452377319
  0
LINE
  5
4F0
100
AcDbEntity
  8
CURVE
100
AcDbLine
 62
253
  6
CONTINUOUS
 10
-59.4154676257
 20
14.4214286804
 11
-59.4154676257
 21
14.978570652
  0
LINE
  5
4F1
100
AcDbEntity
  8
CURVE
100
AcDbLine
 62
253
  6
CONTINUOUS
 10
-59.4154676257
 20
15.3499990463
 11
-59.4154676257
 21
15.8142854691
  0
LINE
  5
4F2
100
AcDbEntity
  8
CURVE
100
AcDbLine
 62
253
  6
CONTINUOUS
 10
-58.8584096573
 20
14.7928570747
 11
-58.8584096573
 21
14.4214286804
  0
LINE
  5
4F3
100
AcDbEntity
  8
CURVE
100
AcDbLine
 62
253
  6
CONTINUOUS
 10
-58.8584096573
 20
7.5809519291
 11
-58.8584096573
 21
7.2095235348
  0
LINE
  5
4F4
100
AcDbEntity
  8
CURVE
100
AcDbLine
 62
253
  6
CONTINUOUS
 10
-58.6727236291
 20
15.8142854691
 11
-58.6727236291
 21
15.3499990463
  0
LINE
  5
4F5
100
AcDbEntity
  8
CURVE
100
AcDbLine
 62
253
  6
CONTINUOUS
 10
-58.6727236291
 20
8.6023803234
 11
-58.6727236291
 21
8.1380951405
  0
LINE
  5
4F6
100
AcDbEntity
  8
CURVE
100
AcDbLine
 62
253
  6
CONTINUOUS
 10
-58.4870376396
 20
4.0833329737
 11
-58.4870376396
 21
4.5785711169
  0
LINE
  5
4F7
100
AcDbEntity
  8
CURVE
100
AcDbLine
 62
253
  6
CONTINUOUS
 10
-58.115665622
 20
10.6452377319
 11
-58.115665622
 21
10.1809519291
  0
LINE
  5
4F8
100
AcDbEntity
  8
CURVE
100
AcDbLine
 62
253
  6
CONTINUOUS
 10
-58.115665622
 20
5.1666662812
 11
-58.115665622
 21
5.5380948305
  0
LINE
  5
4F9
100
AcDbEntity
  8
CURVE
100
AcDbLine
 62
253
  6
CONTINUOUS
 10
-58.115665622
 20
7.2095235348
 11
-58.115665622
 21
7.7666664362
  0
LINE
  5
4FA
100
AcDbEntity
  8
CURVE
100
AcDbLine
 62
253
  6
CONTINUOUS
 10
-58.115665622
 20
14.4214286804
 11
-58.115665622
 21
14.978570652
  0
LINE
  5
4FB
100
AcDbEntity
  8
CURVE
100
AcDbLine
 62
253
  6
CONTINUOUS
 10
-62.8161071297
 20
-4.132134
 11
-62.0193848745
 21
-3.656396
  0
LINE
  5
4FC
100
AcDbEntity
  8
CURVE
100
AcDbLine
 62
253
  6
CONTINUOUS
 10
-61.5165030922
 20
-5.290054
 11
-62.8161071297
 21
-5.860387
  0
LINE
  5
4FD
100
AcDbEntity
  8
CURVE
100
AcDbLine
 62
253
  6
CONTINUOUS
 10
-67.814585197
 20
2.70079
 11
-64.9154674981
 21
2.70079
  0
LINE
  5
4FE
100
AcDbEntity
  8
CURVE
100
AcDbLine
 62
253
  6
CONTINUOUS
 10
-58.115665622
 20
2.8452377319
 11
-59.4154676257
 21
2.8452377319
  0
LINE
  5
4FF
100
AcDbEntity
  8
CURVE
100
AcDbLine
 62
253
  6
CONTINUOUS
 10
-64.9154674981
 20
3.323396
 11
-66.0318893475
 21
3.323396
  0
LINE
  5
500
100
AcDbEntity
  8
CURVE
100
AcDbLine
 62
253
  6
CONTINUOUS
 10
-66.5136755572
 20
3.323396
 11
-67.3327989872
 21
3.323396
  0
LINE
  5
501
100
AcDbEntity
  8
CURVE
100
AcDbLine
 62
253
  6
CONTINUOUS
 10
-59.4154676257
 20
3.588094908
 11
-58.115665622
 21
3.588094908
  0
LINE
  5
502
100
AcDbEntity
  8
CURVE
100
AcDbLine
 62
253
  6
CONTINUOUS
 10
-58.115665622
 20
3.9595234573
 11
-59.4154676257
 21
4.3309520841
  0
LINE
  5
503
100
AcDbEntity
  8
CURVE
100
AcDbLine
 62
253
  6
CONTINUOUS
 10
-58.6727236291
 20
3.21666632
 11
-59.4154676257
 21
3.588094908
  0
LINE
  5
504
100
AcDbEntity
  8
CURVE
100
AcDbLine
 62
253
  6
CONTINUOUS
 10
-59.2297816362
 20
5.0738091826
 11
-59.4154676257
 21
5.2595233798
  0
LINE
  5
505
100
AcDbEntity
  8
CURVE
100
AcDbLine
 62
253
  6
CONTINUOUS
 10
-54.841576804
 20
-10.825388
 11
-54.841576804
 21
-9.364888
  0
LINE
  5
506
100
AcDbEntity
  8
CURVE
100
AcDbLine
 62
253
  6
CONTINUOUS
 10
-54.0918052438
 20
-9.364888
 11
-54.0918052438
 21
-10.825388
  0
LINE
  5
507
100
AcDbEntity
  8
CURVE
100
AcDbLine
 62
253
  6
CONTINUOUS
 10
-61.5165030922
 20
-8.724819
 11
-62.8161071297
 21
-9.756944
  0
LINE
  5
508
100
AcDbEntity
  8
CURVE
100
AcDbLine
 62
253
  6
CONTINUOUS
 10
-67.822238865
 20
-7.92899
 11
-64.9234690602
 21
-7.039304
  0
LINE
  5
509
100
AcDbEntity
  8
CURVE
100
AcDbLine
 62
253
  6
CONTINUOUS
 10
-59.0440956468
 20
5.0738091826
 11
-59.2297816362
 21
5.0738091826
  0
LINE
  5
50A
100
AcDbEntity
  8
CURVE
100
AcDbLine
 62
253
  6
CONTINUOUS
 10
-64.9154674981
 20
5.171133
 11
-67.814585197
 21
5.171133
  0
LINE
  5
50B
100
AcDbEntity
  8
CURVE
100
AcDbLine
 62
253
  6
CONTINUOUS
 10
-58.3013516308
 20
5.7238090277
 11
-58.4870376396
 21
5.7238090277
  0
LINE
  5
50C
100
AcDbEntity
  8
CURVE
100
AcDbLine
 62
253
  6
CONTINUOUS
 10
-67.814585197
 20
5.793739
 11
-65.3972537078
 21
5.793739
  0
LINE
  5
50D
100
AcDbEntity
  8
CURVE
100
AcDbLine
 62
253
  6
CONTINUOUS
 10
-58.115665622
 20
6.4666664362
 11
-59.4154676257
 21
6.4666664362
  0
LINE
  5
50E
100
AcDbEntity
  8
CURVE
100
AcDbLine
 62
253
  6
CONTINUOUS
 10
-65.3972537078
 20
6.866738
 11
-64.9154674981
 21
6.866738
  0
LINE
  5
50F
100
AcDbEntity
  8
CURVE
100
AcDbLine
 62
253
  6
CONTINUOUS
 10
-66.0117054971
 20
8.151456
 11
-67.2605939866
 21
8.581471
  0
LINE
  5
510
100
AcDbEntity
  8
CURVE
100
AcDbLine
 62
253
  6
CONTINUOUS
 10
-64.9154674981
 20
7.773964
 11
-65.5299192874
 21
7.990812
  0
LINE
  5
511
100
AcDbEntity
  8
CURVE
100
AcDbLine
 62
253
  6
CONTINUOUS
 10
-67.814585197
 20
8.227849
 11
-64.9154674981
 21
7.179514
  0
LINE
  5
512
100
AcDbEntity
  8
CURVE
100
AcDbLine
 62
253
  6
CONTINUOUS
 10
-58.115665622
 20
5.5380948305
 11
-58.3013516308
 21
5.7238090277
  0
LINE
  5
513
100
AcDbEntity
  8
CURVE
100
AcDbLine
 62
253
  6
CONTINUOUS
 10
-62.4825649192
 20
10.0285720825
 11
-63.0253393499
 21
10.5714292496
  0
LINE
  5
514
100
AcDbEntity
  8
CORPO
100
AcDbLine
 62
7
  6
CONTINUOUS
 10
-51.4137922724
 20
19.0755051566
 11
-51.4137922724
 21
19.3683537664
  0
LINE
  5
515
100
AcDbEntity
  8
ASSI
100
AcDbLine
 62
7
  6
CONTINUOUS
 10
-51.4137922724
 20
19.0755051566
 11
-51.4137922724
 21
19.3683537664
  0
LINE
  5
516
100
AcDbEntity
  8
CURVE
100
AcDbLine
 62
253
  6
CONTINUOUS
 10
-64.9234690602
 20
-11.040105
 11
-66.8163113503
 21
-11.750162
  0
LINE
  5
517
100
AcDbEntity
  8
CURVE
100
AcDbLine
 62
253
  6
CONTINUOUS
 10
-67.822238865
 20
-11.593234
 11
-66.2128332176
 21
-10.994355
  0
LINE
  5
518
100
AcDbEntity
  8
CURVE
100
AcDbLine
 62
253
  6
CONTINUOUS
 10
-58.115665622
 20
7.2095235348
 11
-59.4154676257
 21
7.2095235348
  0
LINE
  5
519
100
AcDbEntity
  8
CURVE
100
AcDbLine
 62
253
  6
CONTINUOUS
 10
-58.115665622
 20
8.1380951405
 11
-59.4154676257
 21
8.1380951405
  0
LINE
  5
51A
100
AcDbEntity
  8
CURVE
100
AcDbLine
 62
253
  6
CONTINUOUS
 10
-59.2297816362
 20
8.7880951405
 11
-58.8584096573
 21
8.7880951405
  0
LINE
  5
51B
100
AcDbEntity
  8
CURVE
100
AcDbLine
 62
253
  6
CONTINUOUS
 10
-58.8584096573
 20
8.7880951405
 11
-58.6727236291
 21
8.6023803234
  0
LINE
  5
51C
100
AcDbEntity
  8
CURVE
100
AcDbLine
 62
253
  6
CONTINUOUS
 10
-62.4825649192
 20
12.607143414
 11
-63.0253393499
 21
13.150000751
  0
LINE
  5
51D
100
AcDbEntity
  8
CURVE
100
AcDbLine
 62
253
  6
CONTINUOUS
 10
-63.0253393499
 20
14.3714294195
 11
-62.6182584702
 21
13.9642863035
  0
LINE
  5
51E
100
AcDbEntity
  8
CURVE
100
AcDbLine
 62
253
  6
CONTINUOUS
 10
-58.115665622
 20
10.1809519291
 11
-59.4154676257
 21
10.1809519291
  0
LINE
  5
51F
100
AcDbEntity
  8
CURVE
100
AcDbLine
 62
253
  6
CONTINUOUS
 10
-64.9154674981
 20
10.292325
 11
-67.814585197
 21
10.292325
  0
LINE
  5
520
100
AcDbEntity
  8
CURVE
100
AcDbLine
 62
253
  6
CONTINUOUS
 10
-63.0253393499
 20
10.5714292496
 11
-61.1256287291
 21
10.5714292496
  0
LINE
  5
521
100
AcDbEntity
  8
CURVE
100
AcDbLine
 62
253
  6
CONTINUOUS
 10
-59.2297816362
 20
10.8309519291
 11
-58.3013516308
 21
10.8309519291
  0
LINE
  5
522
100
AcDbEntity
  8
CURVE
100
AcDbLine
 62
253
  6
CONTINUOUS
 10
-67.341832235
 20
10.87477
 11
-64.9154674981
 21
10.87477
  0
LINE
  5
523
100
AcDbEntity
  8
CURVE
100
AcDbLine
 62
253
  6
CONTINUOUS
 10
-61.5327095804
 20
11.1142864168
 11
-63.0253393499
 21
11.521429193
  0
LINE
  5
524
100
AcDbEntity
  8
CURVE
100
AcDbLine
 62
253
  6
CONTINUOUS
 10
-67.814585197
 20
14.252884
 11
-64.9154674981
 21
13.20444
  0
LINE
  5
525
100
AcDbEntity
  8
CURVE
100
AcDbLine
 62
253
  6
CONTINUOUS
 10
-58.3013516308
 20
10.8309519291
 11
-58.115665622
 21
10.6452377319
  0
LINE
  5
526
100
AcDbEntity
  8
CURVE
100
AcDbLine
 62
253
  6
CONTINUOUS
 10
-61.1256287291
 20
14.3714294195
 11
-61.3970159728
 21
14.6428578615
  0
LINE
  5
527
100
AcDbEntity
  8
CURVE
100
AcDbLine
 62
253
  6
CONTINUOUS
 10
-61.1256287291
 20
15.7285720825
 11
-61.3970159728
 21
16.0000005245
  0
LINE
  5
528
100
AcDbEntity
  8
CORPO
100
AcDbLine
 62
7
  6
CONTINUOUS
 10
-48.5137922724
 20
16.3706876291
 11
-48.5137922724
 21
19.1093943488
  0
LINE
  5
529
100
AcDbEntity
  8
ASSI
100
AcDbLine
 62
7
  6
CONTINUOUS
 10
-48.5137922724
 20
16.3706876291
 11
-48.5137922724
 21
19.1093943488
  0
LINE
  5
52A
100
AcDbEntity
  8
RACCORDO
100
AcDbLine
 62
7
  6
CONTINUOUS
 10
-47.050373976
 20
18.6875844655
 11
-47.0703374232
 21
16.4
  0
LINE
  5
52B
100
AcDbEntity
  8
PORTATASTO
100
AcDbLine
 62
7
  6
CONTINUOUS
 10
-74.7887922724
 20
-23.7278312164
 11
-74.0387922724
 21
-23.2948185145
  0
LINE
  5
52C
100
AcDbEntity
  8
CURVE
100
AcDbLine
 62
253
  6
CONTINUOUS
 10
-61.5165030922
 20
-15.377131
 11
-62.8161071297
 21
-16.0
  0
LINE
  5
52D
100
AcDbEntity
  8
CURVE
100
AcDbLine
 62
253
  6
CONTINUOUS
 10
-61.5165030922
 20
-13.439776
 11
-62.8161071297
 21
-14.01011
  0
LINE
  5
52E
100
AcDbEntity
  8
CURVE
100
AcDbLine
 62
253
  6
CONTINUOUS
 10
-64.9234690602
 20
-15.081013
 11
-67.822238865
 21
-16.00026
  0
LINE
  5
52F
100
AcDbEntity
  8
CURVE
100
AcDbLine
 62
253
  6
CONTINUOUS
 10
-58.115665622
 20
11.6047616005
 11
-59.4154676257
 21
11.6047616005
  0
LINE
  5
530
100
AcDbEntity
  8
CURVE
100
AcDbLine
 62
253
  6
CONTINUOUS
 10
-61.1256287291
 20
11.7476197124
 11
-62.0754840395
 21
11.7476197124
  0
LINE
  5
531
100
AcDbEntity
  8
CURVE
100
AcDbLine
 62
253
  6
CONTINUOUS
 10
-58.115665622
 20
12.1928570747
 11
-59.4154676257
 21
12.1928570747
  0
LINE
  5
532
100
AcDbEntity
  8
CURVE
100
AcDbLine
 62
253
  6
CONTINUOUS
 10
-65.5171711714
 20
12.328754
 11
-67.814585197
 21
12.328754
  0
LINE
  5
533
100
AcDbEntity
  8
PORTATASTO
100
AcDbLine
 62
7
  6
CONTINUOUS
 10
-73.9137922724
 20
12.6998019735
 11
-74.9137922724
 21
12.6998019735
  0
LINE
  5
534
100
AcDbEntity
  8
CURVE
100
AcDbLine
 62
253
  6
CONTINUOUS
 10
-67.814585197
 20
12.911198
 11
-64.9154674981
 21
12.911198
  0
LINE
  5
535
100
AcDbEntity
  8
CURVE
100
AcDbLine
 62
253
  6
CONTINUOUS
 10
-59.4154676257
 20
12.9357138634
 11
-58.115665622
 21
12.9357138634
  0
LINE
  5
536
100
AcDbEntity
  8
CURVE
100
AcDbLine
 62
253
  6
CONTINUOUS
 10
-63.0253393499
 20
13.150000751
 11
-61.1256287291
 21
13.150000751
  0
LINE
  5
537
100
AcDbEntity
  8
CURVE
100
AcDbLine
 62
253
  6
CONTINUOUS
 10
-58.115665622
 20
13.3071422577
 11
-59.4154676257
 21
13.3071422577
  0
LINE
  5
538
100
AcDbEntity
  8
CURVE
100
AcDbLine
 62
253
  6
CONTINUOUS
 10
-66.0117054971
 20
14.176491
 11
-67.2604300366
 21
14.606449
  0
LINE
  5
539
100
AcDbEntity
  8
CURVE
100
AcDbLine
 62
253
  6
CONTINUOUS
 10
-64.9154674981
 20
13.798889
 11
-65.5299192874
 21
14.015846
  0
LINE
  5
53A
100
AcDbEntity
  8
CURVE
100
AcDbLine
 62
253
  6
CONTINUOUS
 10
-62.6182584702
 20
13.9642863035
 11
-62.0754840395
 21
13.6928578615
  0
LINE
  5
53B
100
AcDbEntity
  8
CURVE
100
AcDbLine
 62
253
  6
CONTINUOUS
 10
-58.6727236291
 20
12.5642854691
 11
-59.4154676257
 21
12.9357138634
  0
LINE
  5
53C
100
AcDbEntity
  8
CURVE
100
AcDbLine
 62
253
  6
CONTINUOUS
 10
-58.6727236291
 20
13.678570652
 11
-59.4154676257
 21
14.0499990463
  0
LINE
  5
53D
100
AcDbEntity
  8
PORTATASTO
100
AcDbLine
 62
7
  6
CONTINUOUS
 10
-74.0387922724
 20
23.2948185145
 11
-74.7887922724
 21
23.7278312164
  0
LINE
  5
53E
100
AcDbEntity
  8
CURVE
100
AcDbLine
 62
253
  6
CONTINUOUS
 10
-58.8584096573
 20
15.9999990463
 11
-58.6727236291
 21
15.8142854691
  0
LINE
  5
53F
100
AcDbEntity
  8
RACCORDO
100
AcDbLine
 62
253
  6
CONTINUOUS
 10
-46.5547531259
 20
17.1836780775
 11
-46.5615921808
 21
16.4
  0
LINE
  5
540
100
AcDbEntity
  8
RACCORDO
100
AcDbLine
 62
7
  6
CONTINUOUS
 10
-45.5703374232
 20
16.4
 11
-45.5708173602
 21
16.3450046761
  0
LINE
  5
541
100
AcDbEntity
  8
PORTATASTO
100
AcDbLine
 62
253
  6
CONTINUOUS
 10
-74.6651012634
 20
-23.9443375673
 11
-73.9151012634
 21
-23.5113248654
  0
LINE
  5
542
100
AcDbEntity
  8
CURVE
100
AcDbLine
 62
253
  6
CONTINUOUS
 10
-62.0754840395
 20
13.6928578615
 11
-61.3970159728
 21
13.6928578615
  0
LINE
  5
543
100
AcDbEntity
  8
CURVE
100
AcDbLine
 62
253
  6
CONTINUOUS
 10
-59.4154676257
 20
14.0499990463
 11
-58.115665622
 21
14.0499990463
  0
LINE
  5
544
100
AcDbEntity
  8
DRAFT
100
AcDbLine
 62
7
  6
CONTINUOUS
 10
-38.8871753256
 20
14.1
 11
-38.9137922724
 21
14.1
  0
LINE
  5
545
100
AcDbEntity
  8
CURVE
100
AcDbLine
 62
253
  6
CONTINUOUS
 10
-58.115665622
 20
14.4214286804
 11
-59.4154676257
 21
14.4214286804
  0
LINE
  5
546
100
AcDbEntity
  8
CURVE
100
AcDbLine
 62
253
  6
CONTINUOUS
 10
-61.3970159728
 20
14.6428578615
 11
-61.9397904318
 21
14.6428578615
  0
LINE
  5
547
100
AcDbEntity
  8
CURVE
100
AcDbLine
 62
253
  6
CONTINUOUS
 10
-62.2111777038
 20
15.1857147455
 11
-63.0253393499
 21
15.1857147455
  0
LINE
  5
548
100
AcDbEntity
  8
PORTATASTO
100
AcDbLine
 62
7
  6
CONTINUOUS
 10
-73.9137922724
 20
15.3001980265
 11
-74.9137922724
 21
15.3001980265
  0
LINE
  5
549
100
AcDbEntity
  8
CURVE
100
AcDbLine
 62
253
  6
CONTINUOUS
 10
-58.115665622
 20
15.3499990463
 11
-59.4154676257
 21
15.3499990463
  0
LINE
  5
54A
100
AcDbEntity
  8
PORTATASTO
100
AcDbLine
 62
253
  6
CONTINUOUS
 10
-73.9151012634
 20
23.5113248654
 11
-74.6651012634
 21
23.9443375673
  0
LINE
  5
54B
100
AcDbEntity
  8
PORTATASTO
100
AcDbLine
 62
253
  6
CONTINUOUS
 10
-73.9137922724
 20
16.9001028025
 11
-74.9137922724
 21
16.8739168809
  0
LINE
  5
54C
100
AcDbEntity
  8
PORTATASTO
100
AcDbLine
 62
7
  6
CONTINUOUS
 10
-73.9137922724
 20
17.2
 11
-74.9137922724
 21
17.1738140784
  0
LINE
  5
54D
100
AcDbEntity
  8
PORTATASTO
100
AcDbLine
 62
7
  6
CONTINUOUS
 10
-74.9137922724
 20
17.2389072728
 11
-73.914775781
 21
17.2563451705
  0
LINE
  5
54E
100
AcDbEntity
  8
RACCORDO
100
AcDbLine
 62
253
  6
CONTINUOUS
 10
-39.8956574815
 20
17.0674431307
 11
-38.9131479648
 21
17.0761696662
  0
LINE
  5
54F
100
AcDbEntity
  8
CURVE
100
AcDbLine
 62
253
  6
CONTINUOUS
 10
-59.2297816362
 20
15.9999990463
 11
-58.8584096573
 21
15.9999990463
  0
LINE
  5
550
100
AcDbEntity
  8
CURVE
100
AcDbLine
 62
253
  6
CONTINUOUS
 10
-61.3970159728
 20
16.0000005245
 11
-61.9397904318
 21
16.0000005245
  0
LINE
  5
551
100
AcDbEntity
  8
RACCORDO
100
AcDbLine
 62
7
  6
CONTINUOUS
 10
-38.9072471216
 20
16.4
 11
-47.0703374232
 21
16.4
  0
LINE
  5
552
100
AcDbEntity
  8
DRAFT
100
AcDbLine
 62
7
  6
CONTINUOUS
 10
-47.9977668686
 20
16.65
 11
-47.0681557063
 21
16.65
  0
LINE
  5
553
100
AcDbEntity
  8
CORPO
100
AcDbLine
 62
253
  6
CONTINUOUS
 10
-48.5137922724
 20
17.5133593194
 11
-70.4137922724
 21
17.6716990487
  0
LINE
  5
554
100
AcDbEntity
  8
ASSI
100
AcDbLine
 62
253
  6
CONTINUOUS
 10
-48.5137922724
 20
17.5133593194
 11
-70.4137922724
 21
17.6716990487
  0
LINE
  5
555
100
AcDbEntity
  8
RACCORDO
100
AcDbLine
 62
253
  6
CONTINUOUS
 10
-46.5547531259
 20
17.1836780775
 11
-47.0634602906
 21
17.1880413452
  0
LINE
  5
556
100
AcDbEntity
  8
CORPO
100
AcDbLine
 62
7
  6
CONTINUOUS
 10
-38.9137922724
 20
16.2869096983
 11
-48.5137922724
 21
16.3706876291
  0
LINE
  5
557
100
AcDbEntity
  8
ASSI
100
AcDbLine
 62
7
  6
CONTINUOUS
 10
-38.9137922724
 20
16.2869096983
 11
-48.5137922724
 21
16.3706876291
  0
LINE
  5
558
100
AcDbEntity
  8
RACCORDO
100
AcDbLine
 62
253
  6
CONTINUOUS
 10
-46.5547531259
 20
17.1836780775
 11
-39.8956574815
 21
17.0674431307
  0
LINE
  5
559
100
AcDbEntity
  8
PORTATASTO
100
AcDbLine
 62
7
  6
CONTINUOUS
 10
-72.4137922724
 20
18.5
 11
-70.4137922724
 21
18.1473460386
  0
LINE
  5
55A
100
AcDbEntity
  8
CORPO
100
AcDbLine
 62
253
  6
CONTINUOUS
 10
-60.2542110407
 20
-19.52266385
 11
-60.4137922724
 21
-19.5807466683
  0
LINE
  5
55B
100
AcDbEntity
  8
ASSI
100
AcDbLine
 62
253
  6
CONTINUOUS
 10
-60.2542110407
 20
-19.52266385
 11
-60.4137922724
 21
-19.5807466683
  0
LINE
  5
55C
100
AcDbEntity
  8
CORPO
100
AcDbLine
 62
7
  6
CONTINUOUS
 10
-59.3328853384
 20
-19.50658205
 11
-60.4137922724
 21
-19.9
  0
LINE
  5
55D
100
AcDbEntity
  8
ASSI
100
AcDbLine
 62
7
  6
CONTINUOUS
 10
-59.3328853384
 20
-19.50658205
 11
-60.4137922724
 21
-19.9
  0
LINE
  5
55E
100
AcDbEntity
  8
PORTATASTO
100
AcDbLine
 62
7
  6
CONTINUOUS
 10
-74.9137922724
 20
18.0078557765
 11
-73.9137922724
 21
18.034041698
  0
LINE
  5
55F
100
AcDbEntity
  8
PORTATASTO
100
AcDbLine
 62
253
  6
CONTINUOUS
 10
-74.9137922724
 20
19.6739168809
 11
-73.9137922724
 21
19.7001028025
  0
LINE
  5
560
100
AcDbEntity
  8
PORTATASTO
100
AcDbLine
 62
7
  6
CONTINUOUS
 10
-71.4137922724
 20
18.5587268678
 11
-70.4137922724
 21
18.5674537356
  0
LINE
  5
561
100
AcDbEntity
  8
PORTATASTO
100
AcDbLine
 62
7
  6
CONTINUOUS
 10
-71.4137922724
 20
19.5
 11
-70.4137922724
 21
19.5
  0
LINE
  5
562
100
AcDbEntity
  8
PORTATASTO
100
AcDbLine
 62
7
  6
CONTINUOUS
 10
-60.4137922724
 20
19.7
 11
-64.3137922724
 21
19.7
  0
LINE
  5
563
100
AcDbEntity
  8
PORTATASTO
100
AcDbLine
 62
7
  6
CONTINUOUS
 10
-70.4137922724
 20
19.7
 11
-71.4137922724
 21
19.7
  0
LINE
  5
564
100
AcDbEntity
  8
CORPO
100
AcDbLine
 62
253
  6
CONTINUOUS
 10
-48.5137922724
 20
18.9273574902
 11
-70.4137922724
 21
19.0856972195
  0
LINE
  5
565
100
AcDbEntity
  8
ASSI
100
AcDbLine
 62
253
  6
CONTINUOUS
 10
-48.5137922724
 20
18.9273574902
 11
-70.4137922724
 21
19.0856972195
  0
LINE
  5
566
100
AcDbEntity
  8
CORPO
100
AcDbLine
 62
253
  6
CONTINUOUS
 10
-64.3137922724
 20
19.3006754942
 11
-51.4137922724
 21
19.0755051566
  0
LINE
  5
567
100
AcDbEntity
  8
ASSI
100
AcDbLine
 62
253
  6
CONTINUOUS
 10
-64.3137922724
 20
19.3006754942
 11
-51.4137922724
 21
19.0755051566
  0
LINE
  5
568
100
AcDbEntity
  8
RACCORDO
100
AcDbLine
 62
7
  6
CONTINUOUS
 10
-46.5416668113
 20
19.1831450453
 11
-39.9043843495
 21
19.067290849
  0
LINE
  5
569
100
AcDbEntity
  8
CORPO
100
AcDbLine
 62
7
  6
CONTINUOUS
 10
-39.896339866
 20
19.1673158868
 11
-64.3137922724
 21
19.5935241039
  0
LINE
  5
56A
100
AcDbEntity
  8
ASSI
100
AcDbLine
 62
7
  6
CONTINUOUS
 10
-39.896339866
 20
19.1673158868
 11
-64.3137922724
 21
19.5935241039
  0
LINE
  5
56B
100
AcDbEntity
  8
CORPO
100
AcDbLine
 62
7
  6
CONTINUOUS
 10
-51.4137922724
 20
19.1809813985
 11
-48.5137922724
 21
19.1093943488
  0
LINE
  5
56C
100
AcDbEntity
  8
ASSI
100
AcDbLine
 62
7
  6
CONTINUOUS
 10
-51.4137922724
 20
19.1809813985
 11
-48.5137922724
 21
19.1093943488
  0
LINE
  5
56D
100
AcDbEntity
  8
ASSI
100
AcDbLine
 62
253
  6
CONTINUOUS
 10
-81.0112649725
 20
20.372221817
 11
-81.4977604605
 21
20.3926144311
  0
LINE
  5
56E
100
AcDbEntity
  8
RACCORDO
100
AcDbLine
 62
253
  6
CONTINUOUS
 10
-81.0112649725
 20
20.372221817
 11
-81.4977604605
 21
20.3926144311
  0
LINE
  5
56F
100
AcDbEntity
  8
CORPO
100
AcDbLine
 62
253
  6
CONTINUOUS
 10
-60.4137922724
 20
19.5807466683
 11
-60.2542110407
 21
19.52266385
  0
LINE
  5
570
100
AcDbEntity
  8
ASSI
100
AcDbLine
 62
253
  6
CONTINUOUS
 10
-60.4137922724
 20
19.5807466683
 11
-60.2542110407
 21
19.52266385
  0
LINE
  5
571
100
AcDbEntity
  8
CORPO
100
AcDbLine
 62
7
  6
CONTINUOUS
 10
-60.4137922724
 20
19.9
 11
-59.3328853384
 21
19.50658205
  0
LINE
  5
572
100
AcDbEntity
  8
ASSI
100
AcDbLine
 62
7
  6
CONTINUOUS
 10
-60.4137922724
 20
19.9
 11
-59.3328853384
 21
19.50658205
  0
LINE
  5
573
100
AcDbEntity
  8
DRAFT
100
AcDbLine
 62
7
  6
CONTINUOUS
 10
-40.4063738698
 20
16.2999352606
 11
-40.4072471216
 21
16.4
  0
LINE
  5
574
100
AcDbEntity
  8
RACCORDO
100
AcDbLine
 62
253
  6
CONTINUOUS
 10
-39.8898327935
 20
16.4
 11
-39.8956574815
 21
17.0674431307
  0
LINE
  5
575
100
AcDbEntity
  8
DRAFT
100
AcDbLine
 62
7
  6
CONTINUOUS
 10
-38.8871753256
 20
14.1
 11
-38.9072471216
 21
16.4
  0
LINE
  5
576
100
AcDbEntity
  8
RACCORDO
100
AcDbLine
 62
7
  6
CONTINUOUS
 10
-38.9072471216
 20
16.4
 11
-38.9218748328
 21
18.0761696894
  0
LINE
  5
577
100
AcDbEntity
  8
CORPO
100
AcDbLine
 62
253
  6
CONTINUOUS
 10
-39.896339866
 20
16.2954842613
 11
-39.896339866
 21
-17.4510540646
  0
LINE
  5
578
100
AcDbEntity
  8
ASSI
100
AcDbLine
 62
253
  6
CONTINUOUS
 10
-39.896339866
 20
16.2954842613
 11
-39.896339866
 21
-17.4510540646
  0
LINE
  5
579
100
AcDbEntity
  8
CORPO
100
AcDbLine
 62
253
  6
CONTINUOUS
 10
-39.896339866
 20
-18.8650522354
 11
-39.896339866
 21
-18.874467277
  0
LINE
  5
57A
100
AcDbEntity
  8
ASSI
100
AcDbLine
 62
253
  6
CONTINUOUS
 10
-39.896339866
 20
-18.8650522354
 11
-39.896339866
 21
-18.874467277
  0
LINE
  5
57B
100
AcDbEntity
  8
CORPO
100
AcDbLine
 62
7
  6
CONTINUOUS
 10
-38.9137922724
 20
18.1674681916
 11
-38.9137922724
 21
17.15
  0
LINE
  5
57C
100
AcDbEntity
  8
ASSI
100
AcDbLine
 62
7
  6
CONTINUOUS
 10
-38.9137922724
 20
18.1674681916
 11
-38.9137922724
 21
17.15
  0
LINE
  5
57D
100
AcDbEntity
  8
CORPO
100
AcDbLine
 62
7
  6
CONTINUOUS
 10
-38.9137922724
 20
16.2869096983
 11
-38.9137922724
 21
-18.1674681916
  0
LINE
  5
57E
100
AcDbEntity
  8
ASSI
100
AcDbLine
 62
7
  6
CONTINUOUS
 10
-38.9137922724
 20
16.2869096983
 11
-38.9137922724
 21
-18.1674681916
  0
LINE
  5
57F
100
AcDbEntity
  8
CURVE
100
AcDbLine
 62
253
  6
CONTINUOUS
 10
-38.9137922724
 20
-17.5461413672
 11
-38.9137922724
 21
-17.4949747482
  0
LINE
  5
580
100
AcDbEntity
  8
PORTATASTO
100
AcDbLine
 62
7
  6
CONTINUOUS
 10
-74.9137922724
 20
19.9738140784
 11
-73.9137922724
 21
20.0
  0
LINE
  5
581
100
AcDbEntity
  8
PORTATASTO
100
AcDbLine
 62
7
  6
CONTINUOUS
 10
-60.4137922724
 20
20.9959955457
 11
-71.4137922724
 21
20.9
  0
LINE
  5
582
100
AcDbEntity
  8
PORTATASTO
100
AcDbLine
 62
7
  6
CONTINUOUS
 10
-60.9050660692
 20
21.4537354271
 11
-71.4137922724
 21
21.4
  0
LINE
  5
583
100
AcDbEntity
  8
PORTATASTO
100
AcDbLine
 62
253
  6
CONTINUOUS
 10
-71.4137922724
 20
21.8441990932
 11
-72.4137922724
 21
21.850016923
  0
LINE
  5
584
100
AcDbEntity
  8
PORTATASTO
100
AcDbLine
 62
7
  6
CONTINUOUS
 10
-61.407974541
 20
22.2859700255
 11
-72.4137922724
 21
22.35
  0
LINE
  5
585
100
AcDbEntity
  8
CORPO
100
AcDbLine
 62
7
  6
CONTINUOUS
 10
-64.3137922724
 20
20.7435241039
 11
-70.4137922724
 21
20.85
  0
LINE
  5
586
100
AcDbEntity
  8
ASSI
100
AcDbLine
 62
7
  6
CONTINUOUS
 10
-64.3137922724
 20
20.7435241039
 11
-70.4137922724
 21
20.85
  0
LINE
  5
587
100
AcDbEntity
  8
0
100
AcDbLine
 62
7
  6
CONTINUOUS
 10
-48.5137922724
 20
16.9479274058
 11
-47.9977668686
 21
16.65
  0
LINE
  5
588
100
AcDbEntity
  8
CORPO
100
AcDbLine
 62
7
  6
CONTINUOUS
 10
-51.2889090401
 20
19.1778986322
 11
-51.4137922724
 21
19.25
  0
LINE
  5
589
100
AcDbEntity
  8
ASSI
100
AcDbLine
 62
7
  6
CONTINUOUS
 10
-51.2889090401
 20
19.1778986322
 11
-51.4137922724
 21
19.25
  0
LINE
  5
58A
100
AcDbEntity
  8
ASSI
100
AcDbLine
 62
253
  6
CONTINUOUS
 10
-74.9137922724
 20
21.5999997649
 11
-80.0644329924
 21
21.3300661228
  0
LINE
  5
58B
100
AcDbEntity
  8
RACCORDO
100
AcDbLine
 62
253
  6
CONTINUOUS
 10
-74.9137922724
 20
21.5999997649
 11
-80.0644329924
 21
21.3300661228
  0
LINE
  5
58C
100
AcDbEntity
  8
PORTATASTO
100
AcDbLine
 62
253
  6
CONTINUOUS
 10
-72.4137922724
 20
21.8497711479
 11
-73.9137922724
 21
21.771159479
  0
LINE
  5
58D
100
AcDbEntity
  8
ASSI
100
AcDbLine
 62
7
  6
CONTINUOUS
 10
-74.9137922724
 20
22.1
 11
-80.0775124964
 21
21.8293808902
  0
LINE
  5
58E
100
AcDbEntity
  8
RACCORDO
100
AcDbLine
 62
7
  6
CONTINUOUS
 10
-74.9137922724
 20
22.1
 11
-80.0775124964
 21
21.8293808902
  0
LINE
  5
58F
100
AcDbEntity
  8
PORTATASTO
100
AcDbLine
 62
7
  6
CONTINUOUS
 10
-72.4137922724
 20
22.35
 11
-73.9137922724
 21
22.2713883311
  0
LINE
  5
590
100
AcDbEntity
  8
PORTATASTO
100
AcDbLine
 62
253
  6
CONTINUOUS
 10
-74.6651012634
 20
24.2329794573
 11
-71.4137922724
 21
24.2500034269
  0
LINE
  5
591
100
AcDbEntity
  8
PORTATASTO
100
AcDbLine
 62
253
  6
CONTINUOUS
 10
-73.9137922724
 20
23.0783121635
 11
-73.6651012634
 21
23.0783121635
  0
LINE
  5
592
100
AcDbEntity
  8
PORTATASTO
100
AcDbLine
 62
253
  6
CONTINUOUS
 10
-74.6651012634
 20
23.9443375673
 11
-74.9137922724
 21
23.9443375673
  0
LINE
  5
593
100
AcDbEntity
  8
PORTATASTO
100
AcDbLine
 62
253
  6
CONTINUOUS
 10
-74.9137922724
 20
24.2329794573
 11
-74.6651012634
 21
24.2329794573
  0
LINE
  5
594
100
AcDbEntity
  8
PORTATASTO
100
AcDbLine
 62
7
  6
CONTINUOUS
 10
-71.4137922724
 20
23.8
 11
-64.9085563803
 21
23.7659383532
  0
LINE
  5
595
100
AcDbEntity
  8
PORTATASTO
100
AcDbLine
 62
7
  6
CONTINUOUS
 10
-74.6651012634
 20
24.4829760304
 11
-71.4137922724
 21
24.5
  0
ARC
  5
596
100
AcDbEntity
  8
ASSI
100
AcDbCircle
 62
253
  6
CONTINUOUS
 10
-21.5147610662
 20
-21.3289600888
 40
0.5003982717
100
AcDbArc
 50
180.1266495966
 51
269.9386308672
  0
ARC
  5
597
100
AcDbEntity
  8
RACCORDO
100
AcDbCircle
 62
253
  6
CONTINUOUS
 10
-21.5147604869
 20
-21.3289792282
 40
0.5003855358
100
AcDbArc
 50
180.1244578476
 51
269.9385621878
  0
ARC
  5
598
100
AcDbEntity
  8
PORTATASTO
100
AcDbCircle
 62
7
  6
CONTINUOUS
 10
-7.25
 20
-23.15
 40
0.5
100
AcDbArc
 50
323.7482894908
 51
35.8579202785
  0
ARC
  5
599
100
AcDbEntity
  8
PORTATASTO
100
AcDbCircle
 62
7
  6
CONTINUOUS
 10
-15.25
 20
-23.15
 40
0.5
100
AcDbArc
 50
144.1420797215
 51
216.2517105092
  0
ARC
  5
59A
100
AcDbEntity
  8
PORTATASTO
100
AcDbCircle
 62
7
  6
CONTINUOUS
 10
-21.85003796
 20
-21.8500492892
 40
0.4999540432
100
AcDbArc
 50
179.9681249369
 51
269.9607325142
  0
ARC
  5
59B
100
AcDbEntity
  8
PORTATASTO
100
AcDbCircle
 62
7
  6
CONTINUOUS
 10
-19.8170288037
 20
-24.2329711963
 40
0.2500048342
100
AcDbArc
 50
270.0018932459
 51
359.9981067541
  0
ARC
  5
59C
100
AcDbEntity
  8
PORTATASTO
100
AcDbCircle
 62
7
  6
CONTINUOUS
 10
-21.5579711963
 20
-24.2329711963
 40
0.2500048342
100
AcDbArc
 50
180.0018932365
 51
269.9981067635
  0
ARC
  5
59D
100
AcDbEntity
  8
PORTATASTO
100
AcDbCircle
 62
7
  6
CONTINUOUS
 10
-2.6829711963
 20
-24.2329711963
 40
0.2500048342
100
AcDbArc
 50
180.0018932365
 51
269.9981067635
  0
ARC
  5
59E
100
AcDbEntity
  8
PORTATASTO
100
AcDbCircle
 62
7
  6
CONTINUOUS
 10
-0.9420288037
 20
-24.2329711963
 40
0.2500048342
100
AcDbArc
 50
270.0018932459
 51
359.9981067541
  0
ARC
  5
59F
100
AcDbEntity
  8
ASSI
100
AcDbCircle
 62
253
  6
CONTINUOUS
 10
-19126.856144447
 20
0.0000000013
 40
19105.3765246684
100
AcDbArc
 50
359.9388438664
 51
0.0611561336
  0
ARC
  5
5A0
100
AcDbEntity
  8
RACCORDO
100
AcDbCircle
 62
253
  6
CONTINUOUS
 10
-19125.992908202
 20
0.0000000013
 40
19104.5132885916
100
AcDbArc
 50
359.9388411031
 51
0.0611588969
  0
ARC
  5
5A1
100
AcDbEntity
  8
ASSI
100
AcDbCircle
 62
253
  6
CONTINUOUS
 10
-19089.1643967634
 20
0.0
 40
19067.1849483223
100
AcDbArc
 50
359.9387826491
 51
0.0612173509
  0
ARC
  5
5A2
100
AcDbEntity
  8
RACCORDO
100
AcDbCircle
 62
253
  6
CONTINUOUS
 10
-19088.3028617811
 20
0.0
 40
19066.3234135083
100
AcDbArc
 50
359.9387798829
 51
0.0612201171
  0
ARC
  5
5A3
100
AcDbEntity
  8
ASSI
100
AcDbCircle
 62
253
  6
CONTINUOUS
 10
-21.5147610775
 20
21.3289600821
 40
0.5003982674
100
AcDbArc
 50
90.0613678137
 51
179.8733496434
  0
ARC
  5
5A4
100
AcDbEntity
  8
RACCORDO
100
AcDbCircle
 62
253
  6
CONTINUOUS
 10
-21.5147604757
 20
21.3289792174
 40
0.500385561
100
AcDbArc
 50
90.0614390621
 51
179.8755409185
  0
ARC
  5
5A5
100
AcDbEntity
  8
PORTATASTO
100
AcDbCircle
 62
7
  6
CONTINUOUS
 10
-15.25
 20
23.15
 40
0.5
100
AcDbArc
 50
143.7482894908
 51
215.8579202785
  0
ARC
  5
5A6
100
AcDbEntity
  8
PORTATASTO
100
AcDbCircle
 62
7
  6
CONTINUOUS
 10
-7.25
 20
23.15
 40
0.5
100
AcDbArc
 50
324.1420797215
 51
36.2517105092
  0
ARC
  5
5A7
100
AcDbEntity
  8
PORTATASTO
100
AcDbCircle
 62
7
  6
CONTINUOUS
 10
-21.8500381775
 20
21.8500495607
 40
0.499953721
100
AcDbArc
 50
89.996352029
 51
180.0037402902
  0
ARC
  5
5A8
100
AcDbEntity
  8
PORTATASTO
100
AcDbCircle
 62
7
  6
CONTINUOUS
 10
-19.8170288037
 20
24.2329711963
 40
0.2500048342
100
AcDbArc
 50
0.0018932365
 51
89.9981067635
  0
ARC
  5
5A9
100
AcDbEntity
  8
PORTATASTO
100
AcDbCircle
 62
7
  6
CONTINUOUS
 10
-21.5579711963
 20
24.2329711963
 40
0.2500048342
100
AcDbArc
 50
90.0018932459
 51
179.9981067541
  0
ARC
  5
5AA
100
AcDbEntity
  8
PORTATASTO
100
AcDbCircle
 62
7
  6
CONTINUOUS
 10
-2.6829711963
 20
24.2329711963
 40
0.2500048342
100
AcDbArc
 50
90.0018932459
 51
179.9981067541
  0
ARC
  5
5AB
100
AcDbEntity
  8
PORTATASTO
100
AcDbCircle
 62
7
  6
CONTINUOUS
 10
-0.9420288037
 20
24.2329711963
 40
0.2500048342
100
AcDbArc
 50
0.0018932365
 51
89.9981067635
  0
ARC
  5
5AC
100
AcDbEntity
  8
ASSI
100
AcDbCircle
 62
253
  6
CONTINUOUS
 10
21.514761051
 20
-21.3289600821
 40
0.5003982858
100
AcDbArc
 50
270.0613708489
 51
359.8733496468
  0
ARC
  5
5AD
100
AcDbEntity
  8
RACCORDO
100
AcDbCircle
 62
253
  6
CONTINUOUS
 10
21.514760492
 20
-21.3289792283
 40
0.5003855325
100
AcDbArc
 50
270.061437201
 51
359.8755421626
  0
ARC
  5
5AE
100
AcDbEntity
  8
PORTATASTO
100
AcDbCircle
 62
7
  6
CONTINUOUS
 10
15.25
 20
-23.15
 40
0.5
100
AcDbArc
 50
323.7482894908
 51
35.8579202785
  0
ARC
  5
5AF
100
AcDbEntity
  8
PORTATASTO
100
AcDbCircle
 62
7
  6
CONTINUOUS
 10
7.25
 20
-23.15
 40
0.5
100
AcDbArc
 50
144.1420797215
 51
216.2517105092
  0
ARC
  5
5B0
100
AcDbEntity
  8
PORTATASTO
100
AcDbCircle
 62
7
  6
CONTINUOUS
 10
21.8500382058
 20
-21.8500494664
 40
0.499953721
100
AcDbArc
 50
269.9963487893
 51
0.0037294835
  0
ARC
  5
5B1
100
AcDbEntity
  8
PORTATASTO
100
AcDbCircle
 62
7
  6
CONTINUOUS
 10
21.5579711963
 20
-24.2329711963
 40
0.2500048342
100
AcDbArc
 50
270.0018932459
 51
359.9981067541
  0
ARC
  5
5B2
100
AcDbEntity
  8
PORTATASTO
100
AcDbCircle
 62
7
  6
CONTINUOUS
 10
19.8170288037
 20
-24.2329711963
 40
0.2500048342
100
AcDbArc
 50
180.0018932365
 51
269.9981067635
  0
ARC
  5
5B3
100
AcDbEntity
  8
PORTATASTO
100
AcDbCircle
 62
7
  6
CONTINUOUS
 10
0.9420288037
 20
-24.2329711963
 40
0.2500048342
100
AcDbArc
 50
180.0018932365
 51
269.9981067635
  0
ARC
  5
5B4
100
AcDbEntity
  8
PORTATASTO
100
AcDbCircle
 62
7
  6
CONTINUOUS
 10
2.6829711963
 20
-24.2329711963
 40
0.2500048342
100
AcDbArc
 50
270.0018932459
 51
359.9981067541
  0
ARC
  5
5B5
100
AcDbEntity
  8
ASSI
100
AcDbCircle
 62
253
  6
CONTINUOUS
 10
19126.8561444542
 20
0.0000000013
 40
19105.3765246756
100
AcDbArc
 50
179.9388438664
 51
180.0611561336
  0
ARC
  5
5B6
100
AcDbEntity
  8
RACCORDO
100
AcDbCircle
 62
253
  6
CONTINUOUS
 10
19125.9922271618
 20
0.0000000013
 40
19104.5126075518
100
AcDbArc
 50
179.9388411009
 51
180.0611588991
  0
ARC
  5
5B7
100
AcDbEntity
  8
ASSI
100
AcDbCircle
 62
253
  6
CONTINUOUS
 10
19089.1643967634
 20
0.0
 40
19067.1849483223
100
AcDbArc
 50
179.9387826491
 51
180.0612173509
  0
ARC
  5
5B8
100
AcDbEntity
  8
RACCORDO
100
AcDbCircle
 62
253
  6
CONTINUOUS
 10
19088.3021806524
 20
0.0
 40
19066.32273238
100
AcDbArc
 50
179.9387798807
 51
180.0612201193
  0
ARC
  5
5B9
100
AcDbEntity
  8
ASSI
100
AcDbCircle
 62
253
  6
CONTINUOUS
 10
21.5147610525
 20
21.3289600889
 40
0.5003982819
100
AcDbArc
 50
0.1266495716
 51
89.9386293017
  0
ARC
  5
5BA
100
AcDbEntity
  8
RACCORDO
100
AcDbCircle
 62
253
  6
CONTINUOUS
 10
21.5147604797
 20
21.3289792152
 40
0.5003855622
100
AcDbArc
 50
0.124459328
 51
89.9385613656
  0
ARC
  5
5BB
100
AcDbEntity
  8
PORTATASTO
100
AcDbCircle
 62
7
  6
CONTINUOUS
 10
7.25
 20
23.15
 40
0.5
100
AcDbArc
 50
143.7482894908
 51
215.8579202785
  0
ARC
  5
5BC
100
AcDbEntity
  8
PORTATASTO
100
AcDbCircle
 62
7
  6
CONTINUOUS
 10
15.25
 20
23.15
 40
0.5
100
AcDbArc
 50
324.1420797215
 51
36.2517105092
  0
ARC
  5
5BD
100
AcDbEntity
  8
PORTATASTO
100
AcDbCircle
 62
7
  6
CONTINUOUS
 10
21.850037962
 20
21.850049221
 40
0.4999540432
100
AcDbArc
 50
359.9681327532
 51
89.9607327441
  0
ARC
  5
5BE
100
AcDbEntity
  8
PORTATASTO
100
AcDbCircle
 62
7
  6
CONTINUOUS
 10
21.5579711963
 20
24.2329711963
 40
0.2500048342
100
AcDbArc
 50
0.0018932365
 51
89.9981067635
  0
ARC
  5
5BF
100
AcDbEntity
  8
PORTATASTO
100
AcDbCircle
 62
7
  6
CONTINUOUS
 10
19.8170288037
 20
24.2329711963
 40
0.2500048342
100
AcDbArc
 50
90.0018932459
 51
179.9981067541
  0
ARC
  5
5C0
100
AcDbEntity
  8
PORTATASTO
100
AcDbCircle
 62
7
  6
CONTINUOUS
 10
0.9420288037
 20
24.2329711963
 40
0.2500048342
100
AcDbArc
 50
90.0018932459
 51
179.9981067541
  0
ARC
  5
5C1
100
AcDbEntity
  8
PORTATASTO
100
AcDbCircle
 62
7
  6
CONTINUOUS
 10
2.6829711963
 20
24.2329711963
 40
0.2500048342
100
AcDbArc
 50
0.0018932365
 51
89.9981067635
  0
ARC
  5
5C2
100
AcDbEntity
  8
CORPO
100
AcDbCircle
 62
253
  6
CONTINUOUS
 10
-206.4666073074
 20
-18.1691375579
 40
166.5717425078
100
AcDbArc
 50
359.7606250951
 51
0.2470002556
  0
ARC
  5
5C3
100
AcDbEntity
  8
ASSI
100
AcDbCircle
 62
253
  6
CONTINUOUS
 10
-206.4666073074
 20
-18.1691375579
 40
166.5717425078
100
AcDbArc
 50
359.7606250951
 51
0.2470002556
  0
ARC
  5
5C4
100
AcDbEntity
  8
PORTATASTO
100
AcDbCircle
 62
7
  6
CONTINUOUS
 10
-61.4137922724
 20
-21.2859869487
 40
1.0
100
AcDbArc
 50
270.3333333333
 51
360.0
  0
ARC
  5
5C5
100
AcDbEntity
  8
PORTATASTO
100
AcDbCircle
 62
253
  6
CONTINUOUS
 10
-74.1651029138
 20
-23.0783112106
 40
0.5000016505
100
AcDbArc
 50
300.000109193
 51
359.9998908069
  0
ARC
  5
5C6
100
AcDbEntity
  8
PORTATASTO
100
AcDbCircle
 62
7
  6
CONTINUOUS
 10
-64.9137922724
 20
-23.2659657686
 40
0.5
100
AcDbArc
 50
270.5999999999
 51
360.0
  0
ARC
  5
5C7
100
AcDbEntity
  8
PORTATASTO
100
AcDbCircle
 62
7
  6
CONTINUOUS
 10
-74.6637922724
 20
-23.9443375673
 40
0.25
100
AcDbArc
 50
120.0
 51
180.0
  0
ARC
  5
5C8
100
AcDbEntity
  8
PORTATASTO
100
AcDbCircle
 62
7
  6
CONTINUOUS
 10
-74.1637922724
 20
-23.0783121635
 40
0.25
100
AcDbArc
 50
299.9999779197
 51
359.9996752656
  0
ARC
  5
5C9
100
AcDbEntity
  8
PORTATASTO
100
AcDbCircle
 62
7
  6
CONTINUOUS
 10
-74.6637922724
 20
-24.2329794573
 40
0.25
100
AcDbArc
 50
180.0
 51
269.7
  0
ARC
  5
5CA
100
AcDbEntity
  8
ASSI
100
AcDbCircle
 62
7
  6
CONTINUOUS
 10
-79.999008562
 20
-20.3314365881
 40
1.5
100
AcDbArc
 50
182.3374676379
 51
267.0
  0
ARC
  5
5CB
100
AcDbEntity
  8
RACCORDO
100
AcDbCircle
 62
7
  6
CONTINUOUS
 10
-79.999008562
 20
-20.3314365881
 40
1.5
100
AcDbArc
 50
182.3374676379
 51
267.0
  0
ARC
  5
5CC
100
AcDbEntity
  8
ASSI
100
AcDbCircle
 62
253
  6
CONTINUOUS
 10
-80.0120705446
 20
-20.3314077883
 40
1.0000302399
100
AcDbArc
 50
182.3390566073
 51
266.998570628
  0
ARC
  5
5CD
100
AcDbEntity
  8
RACCORDO
100
AcDbCircle
 62
253
  6
CONTINUOUS
 10
-80.0120948021
 20
-20.3314343798
 40
1.0000023222
100
AcDbArc
 50
182.3375910256
 51
266.9998787986
  0
ARC
  5
5CE
100
AcDbEntity
  8
PORTATASTO
100
AcDbCircle
 62
7
  6
CONTINUOUS
 10
-76.1137922724
 20
-19.6422881348
 40
0.3
100
AcDbArc
 50
236.5692915023
 51
268.5
  0
ARC
  5
5CF
100
AcDbEntity
  8
CORPO
100
AcDbCircle
 62
7
  6
CONTINUOUS
 10
-39.9137922724
 20
-18.1674681916
 40
1.0
100
AcDbArc
 50
271.0000000002
 51
360.0
  0
ARC
  5
5D0
100
AcDbEntity
  8
ASSI
100
AcDbCircle
 62
7
  6
CONTINUOUS
 10
-39.9137922724
 20
-18.1674681916
 40
1.0
100
AcDbArc
 50
271.0000000002
 51
360.0
  0
ARC
  5
5D1
100
AcDbEntity
  8
CORPO
100
AcDbCircle
 62
253
  6
CONTINUOUS
 10
-39.41275594
 20
-18.1575131151
 40
0.498971051
100
AcDbArc
 50
352.9228167799
 51
358.8597457188
  0
ARC
  5
5D2
100
AcDbEntity
  8
ASSI
100
AcDbCircle
 62
253
  6
CONTINUOUS
 10
-39.41275594
 20
-18.1575131151
 40
0.498971051
100
AcDbArc
 50
352.9228167799
 51
358.8597457188
  0
ARC
  5
5D3
100
AcDbEntity
  8
CORPO
100
AcDbCircle
 62
253
  6
CONTINUOUS
 10
-39.3968578293
 20
-18.1580447475
 40
0.483065557
100
AcDbArc
 50
358.8852651632
 51
359.9990033884
  0
ARC
  5
5D4
100
AcDbEntity
  8
ASSI
100
AcDbCircle
 62
253
  6
CONTINUOUS
 10
-39.3968578293
 20
-18.1580447475
 40
0.483065557
100
AcDbArc
 50
358.8852651632
 51
359.9990033884
  0
ARC
  5
5D5
100
AcDbEntity
  8
CURVE
100
AcDbCircle
 62
253
  6
CONTINUOUS
 10
-54.4636358897
 20
-9.0645395647
 40
2.5461567163
100
AcDbArc
 50
358.1409101855
 51
2.2430144318
  0
ARC
  5
5D6
100
AcDbEntity
  8
CURVE
100
AcDbCircle
 62
253
  6
CONTINUOUS
 10
-54.4636358943
 20
-13.4496495652
 40
2.5461565641
100
AcDbArc
 50
358.1409121912
 51
2.2430144373
  0
ARC
  5
5D7
100
AcDbEntity
  8
PORTATASTO
100
AcDbCircle
 62
7
  6
CONTINUOUS
 10
-76.4137922724
 20
14.0
 40
2.55
100
AcDbArc
 50
11.2141055086
 51
30.6770237081
  0
ARC
  5
5D8
100
AcDbEntity
  8
PORTATASTO
100
AcDbCircle
 62
7
  6
CONTINUOUS
 10
-76.4137922724
 20
14.0
 40
2.55
100
AcDbArc
 50
329.3229838999
 51
348.7857131917
  0
ARC
  5
5D9
100
AcDbEntity
  8
PORTATASTO
100
AcDbCircle
 62
253
  6
CONTINUOUS
 10
-76.405013807
 20
13.9999655939
 40
2.049936466
100
AcDbArc
 50
320.6225639774
 51
39.3716752225
  0
ARC
  5
5DA
100
AcDbEntity
  8
ASSI
100
AcDbCircle
 62
7
  6
CONTINUOUS
 10
-79.999008562
 20
20.3314365881
 40
1.5
100
AcDbArc
 50
93.0
 51
177.6625320585
  0
ARC
  5
5DB
100
AcDbEntity
  8
RACCORDO
100
AcDbCircle
 62
7
  6
CONTINUOUS
 10
-79.999008562
 20
20.3314365881
 40
1.5
100
AcDbArc
 50
93.0
 51
177.6625320585
  0
ARC
  5
5DC
100
AcDbEntity
  8
ASSI
100
AcDbCircle
 62
253
  6
CONTINUOUS
 10
-80.0120679222
 20
20.331410455
 40
1.0000302301
100
AcDbArc
 50
93.0015874106
 51
177.6611021806
  0
ARC
  5
5DD
100
AcDbEntity
  8
RACCORDO
100
AcDbCircle
 62
253
  6
CONTINUOUS
 10
-80.0120947858
 20
20.3314343636
 40
1.0000023392
100
AcDbArc
 50
93.00012209
 51
177.6624080859
  0
ARC
  5
5DE
100
AcDbEntity
  8
PORTATASTO
100
AcDbCircle
 62
253
  6
CONTINUOUS
 10
-74.1651029134
 20
23.0783112108
 40
0.5000016501
100
AcDbArc
 50
0.0001091677
 51
59.9998908323
  0
ARC
  5
5DF
100
AcDbEntity
  8
PORTATASTO
100
AcDbCircle
 62
7
  6
CONTINUOUS
 10
-74.6637922724
 20
23.9443375673
 40
0.25
100
AcDbArc
 50
180.0
 51
240.0
  0
ARC
  5
5E0
100
AcDbEntity
  8
PORTATASTO
100
AcDbCircle
 62
7
  6
CONTINUOUS
 10
-74.1637922724
 20
23.0783121635
 40
0.25
100
AcDbArc
 50
0.0003243525
 51
60.000019938
  0
ARC
  5
5E1
100
AcDbEntity
  8
PORTATASTO
100
AcDbCircle
 62
7
  6
CONTINUOUS
 10
-74.6637922724
 20
24.2329794573
 40
0.25
100
AcDbArc
 50
90.3
 51
180.0
  0
ARC
  5
5E2
100
AcDbEntity
  8
PORTATASTO
100
AcDbCircle
 62
7
  6
CONTINUOUS
 10
-61.4137922724
 20
21.2859869487
 40
1.0
100
AcDbArc
 50
0.0
 51
89.6666666667
  0
ARC
  5
5E3
100
AcDbEntity
  8
PORTATASTO
100
AcDbCircle
 62
7
  6
CONTINUOUS
 10
-64.9137922724
 20
23.2659657686
 40
0.5
100
AcDbArc
 50
0.0
 51
89.4000000003
  0
ARC
  5
5E4
100
AcDbEntity
  8
RACCORDO
100
AcDbCircle
 62
7
  6
CONTINUOUS
 10
-39.9218367559
 20
18.0674431539
 40
1.0
100
AcDbArc
 50
0.5
 51
89.0
  0
ARC
  5
5E5
100
AcDbEntity
  8
CORPO
100
AcDbCircle
 62
7
  6
CONTINUOUS
 10
-39.9137922724
 20
18.1674681916
 40
1.0
100
AcDbArc
 50
0.0
 51
89.0
  0
ARC
  5
5E6
100
AcDbEntity
  8
ASSI
100
AcDbCircle
 62
7
  6
CONTINUOUS
 10
-39.9137922724
 20
18.1674681916
 40
1.0
100
AcDbArc
 50
0.0
 51
89.0
  0
ARC
  5
5E7
100
AcDbEntity
  8
RACCORDO
100
AcDbCircle
 62
7
  6
CONTINUOUS
 10
-46.5503939906
 20
18.6831093497
 40
0.5
100
AcDbArc
 50
89.0001118259
 51
179.4871826661
  0
ARC
  5
5E8
100
AcDbEntity
  8
ASSI
100
AcDbCircle
 62
7
  6
CONTINUOUS
 10
418.0862077276
 20
0.0
 40
500.0
100
AcDbArc
 50
177.6625301815
 51
182.3374698176
  0
ARC
  5
5E9
100
AcDbEntity
  8
RACCORDO
100
AcDbCircle
 62
7
  6
CONTINUOUS
 10
418.0862077276
 20
0.0
 40
500.0
100
AcDbArc
 50
177.6625301815
 51
182.3374698176
  0
ARC
  5
5EA
100
AcDbEntity
  8
RACCORDO
100
AcDbCircle
 62
253
  6
CONTINUOUS
 10
418.0730932573
 20
0.0
 40
499.4999740255
100
AcDbArc
 50
177.6625300542
 51
182.3374699458
  0
ARC
  5
5EB
100
AcDbEntity
  8
ASSI
100
AcDbCircle
 62
253
  6
CONTINUOUS
 10
418.0725940293
 20
0.0
 40
499.4994752129
100
AcDbArc
 50
177.6625277187
 51
182.3374722813
  0
SPLINE
  5
5EC
100
AcDbEntity
  8
ASSI
100
AcDbSpline
 62
253
  6
CONTINUOUS
 70
0
 71
3
 72
15
 73
11
 74
9
 42
0.0000001
 43
0.0000001
 44
0.0000000001
 12
-0.0010329935
 22
0.9586577095
 32
0.0
 13
-0.4272502274
 23
0.8581858274
 33
0.0
 40
0.0
 40
0.0
 40
0.0
 40
0.0
 40
0.1885991669
 40
0.3717544498
 40
0.5412810767
 40
0.690559694
 40
0.814764984
 40
0.909912078
 40
0.9722577166
 40
1.0
 40
1.0
 40
1.0
 40
1.0
 10
-21.9903320581
 20
20.372221817
 30
0.0
 10
-21.9903969987
 20
20.4324891654
 30
0.0
 10
-21.9908064164
 20
20.551282497
 30
0.0
 10
-21.9922451471
 20
20.7242521863
 30
0.0
 10
-21.9945443118
 20
20.8846169578
 30
0.0
 10
-21.9973537915
 20
21.0262243181
 30
0.0
 10
-22.0012908372
 20
21.1437688089
 30
0.0
 10
-22.0041948461
 20
21.2342080421
 30
0.0
 10
-22.0102058224
 20
21.2922742607
 30
0.0
 10
-22.0111747604
 20
21.3221301114
 30
0.0
 10
-22.0151257261
 20
21.3300661228
 30
0.0
 11
-21.9903320581
 21
20.372221817
 31
0.0
 11
-21.9909613574
 21
20.5530228721
 31
0.0
 11
-21.9924642202
 21
20.7285997662
 31
0.0
 11
-21.9947958416
 21
20.8911011419
 31
0.0
 11
-21.9978663035
 21
21.0341753791
 31
0.0
 11
-22.001575075
 21
21.1531880331
 31
0.0
 11
-22.0058057338
 21
21.2443034155
 31
0.0
 11
-22.0103926537
 21
21.3038953052
 31
0.0
 11
-22.0151257261
 21
21.3300661228
 31
0.0
  0
SPLINE
  5
5ED
100
AcDbEntity
  8
ASSI
100
AcDbSpline
 62
253
  6
CONTINUOUS
 70
0
 71
3
 72
14
 73
10
 74
8
 42
0.0000001
 43
0.0000001
 44
0.0000000001
 12
0.2703573381
 22
-0.4217276662
 32
0.0
 13
0.5009461338
 23
-0.0005345647
 33
0.0
 40
0.0
 40
0.0
 40
0.0
 40
0.0
 40
0.0312059755
 40
0.1085145759
 40
0.2288099808
 40
0.3863821568
 40
0.57364025
 40
0.7815329018
 40
1.0
 40
1.0
 40
1.0
 40
1.0
 10
-21.9903320581
 20
-20.372221817
 30
0.0
 10
-21.9875198033
 20
-20.3766086247
 30
0.0
 10
-21.9655622532
 20
-20.376236027
 30
0.0
 10
-21.9309858232
 20
-20.382905293
 30
0.0
 10
-21.869977163
 20
-20.384835987
 30
0.0
 10
-21.7930906091
 20
-20.3885051748
 30
0.0
 10
-21.7005697569
 20
-20.390623398
 30
0.0
 10
-21.5981975
 20
-20.3922026204
 30
0.0
 10
-21.5269834783
 20
-20.3925755027
 30
0.0
 10
-21.4905033956
 20
-20.392614431
 30
0.0
 11
-21.9903320581
 21
-20.372221817
 31
0.0
 11
-21.9753507211
 21
-20.3766867108
 31
0.0
 11
-21.9368569897
 21
-20.380935158
 31
0.0
 11
-21.8767170119
 21
-20.3847610894
 31
0.0
 11
-21.7978474104
 21
-20.3879789302
 31
0.0
 11
-21.7040732353
 21
-20.3904326211
 31
0.0
 11
-21.5999419991
 21
-20.3920031757
 31
0.0
 11
-21.4905033956
 21
-20.392614431
 31
0.0
  0
SPLINE
  5
5EE
100
AcDbEntity
  8
ASSI
100
AcDbSpline
 62
253
  6
CONTINUOUS
 70
0
 71
3
 72
14
 73
10
 74
8
 42
0.0000001
 43
0.0000001
 44
0.0000000001
 12
0.2707110611
 22
0.4215002954
 32
0.0
 13
0.5009457974
 23
0.0005345539
 33
0.0
 40
0.0
 40
0.0
 40
0.0
 40
0.0
 40
0.0312168744
 40
0.1085358628
 40
0.228837919
 40
0.3864112061
 40
0.5736643406
 40
0.7815466429
 40
1.0
 40
1.0
 40
1.0
 40
1.0
 10
-21.9903320575
 20
20.372221817
 30
0.0
 10
-21.9875151398
 20
20.3766077909
 30
0.0
 10
-21.9655601754
 20
20.3762368488
 30
0.0
 10
-21.9309733185
 20
20.3829042034
 30
0.0
 10
-21.8699648256
 20
20.3848358156
 30
0.0
 10
-21.7930765164
 20
20.3885042349
 30
0.0
 10
-21.7005585683
 20
20.3906223771
 30
0.0
 10
-21.5981910728
 20
20.3922013345
 30
0.0
 10
-21.5269811594
 20
20.3925741812
 30
0.0
 10
-21.4905033957
 20
20.3926131063
 30
0.0
 11
-21.9903320575
 21
20.372221817
 31
0.0
 11
-21.9753450294
 21
20.3766866935
 31
0.0
 11
-21.9368460719
 21
20.3809349886
 31
0.0
 11
-21.8767027796
 21
20.384760664
 31
0.0
 11
-21.7978326617
 21
20.3879782002
 31
0.0
 11
-21.7040610269
 21
20.3904316002
 31
0.0
 11
-21.5999350425
 21
20.3920019371
 31
0.0
 11
-21.4905033957
 21
20.3926131063
 31
0.0
  0
SPLINE
  5
5EF
100
AcDbEntity
  8
ASSI
100
AcDbSpline
 62
253
  6
CONTINUOUS
 70
0
 71
3
 72
14
 73
10
 74
8
 42
0.0000001
 43
0.0000001
 44
0.0000000001
 12
-0.270357287
 22
0.4217276973
 32
0.0
 13
-0.5009461324
 23
0.0005345647
 33
0.0
 40
0.0
 40
0.0
 40
0.0
 40
0.0
 40
0.0312063516
 40
0.1085154021
 40
0.2288109167
 40
0.3863829574
 40
0.5736408703
 40
0.7815332785
 40
1.0
 40
1.0
 40
1.0
 40
1.0
 10
21.9903320581
 20
20.372221817
 30
0.0
 10
21.9875197699
 20
20.3766086779
 30
0.0
 10
21.9655620329
 20
20.3762360264
 30
0.0
 10
21.9309854688
 20
20.3829053275
 30
0.0
 10
21.8699767351
 20
20.384836005
 30
0.0
 10
21.7930902145
 20
20.3885051873
 30
0.0
 10
21.7005694563
 20
20.3906234034
 30
0.0
 10
21.5981973331
 20
20.3922026218
 30
0.0
 10
21.5269834153
 20
20.3925755029
 30
0.0
 10
21.4905033956
 20
20.3926144311
 30
0.0
 11
21.9903320581
 21
20.372221817
 31
0.0
 11
21.9753505337
 21
20.3766867414
 31
0.0
 11
21.9368565759
 21
20.380935192
 31
0.0
 11
21.8767165426
 21
20.3847611133
 31
0.0
 11
21.7978470087
 21
20.3879789435
 31
0.0
 11
21.704072924
 21
20.3904326275
 31
0.0
 11
21.5999418101
 21
20.3920031777
 31
0.0
 11
21.4905033956
 21
20.3926144311
 31
0.0
  0
SPLINE
  5
5F0
100
AcDbEntity
  8
ASSI
100
AcDbSpline
 62
253
  6
CONTINUOUS
 70
0
 71
3
 72
14
 73
10
 74
8
 42
0.0000001
 43
0.0000001
 44
0.0000000001
 12
-0.2708376911
 22
-0.4214187861
 32
0.0
 13
-0.5009456681
 23
-0.0005346108
 33
0.0
 40
0.0
 40
0.0
 40
0.0
 40
0.0
 40
0.031220341
 40
0.1085426875
 40
0.2288472646
 40
0.3864213092
 40
0.5736728681
 40
0.7815515071
 40
1.0
 40
1.0
 40
1.0
 40
1.0
 10
21.990332057
 20
-20.372221817
 30
0.0
 10
21.9875135087
 20
-20.3766074297
 30
0.0
 10
21.9655596407
 20
-20.3762370982
 30
0.0
 10
21.9309691532
 20
-20.3829037437
 30
0.0
 10
21.8699606904
 20
-20.3848356778
 30
0.0
 10
21.7930716419
 20
-20.3885038273
 30
0.0
 10
21.7005546335
 20
-20.3906219454
 30
0.0
 10
21.5981887954
 20
-20.3922008206
 30
0.0
 10
21.5269803378
 20
-20.3925736625
 30
0.0
 10
21.4905033957
 20
-20.3926125908
 30
0.0
 11
21.990332057
 21
-20.372221817
 31
0.0
 11
21.9753432018
 21
-20.3766866289
 31
0.0
 11
21.9368425539
 21
-20.3809348507
 31
0.0
 11
21.8766980061
 21
-20.384760436
 31
0.0
 11
21.7978275246
 21
-20.3879778685
 31
0.0
 11
21.704056701
 21
-20.3904311701
 31
0.0
 11
21.5999325777
 21
-20.3920014398
 31
0.0
 11
21.4905033957
 21
-20.3926125908
 31
0.0
  0
SPLINE
  5
5F1
100
AcDbEntity
  8
ASSI
100
AcDbSpline
 62
253
  6
CONTINUOUS
 70
0
 71
3
 72
15
 73
11
 74
9
 42
0.0000001
 43
0.0000001
 44
0.0000000001
 12
-0.0010382474
 22
1.4373094781
 32
0.0
 13
-0.4538208289
 23
1.3637838058
 33
0.0
 40
0.0
 40
0.0
 40
0.0
 40
0.0
 40
0.1908579495
 40
0.3736179286
 40
0.5420811787
 40
0.6906933175
 40
0.8145682732
 40
0.90945666
 40
0.9719835848
 40
1.0
 40
1.0
 40
1.0
 40
1.0
 10
-21.4905033955
 20
20.3926143821
 30
0.0
 10
-21.4905694481
 20
20.4840550287
 30
0.0
 10
-21.4909844674
 20
20.6630552125
 30
0.0
 10
-21.4924317631
 20
20.9227699318
 30
0.0
 10
-21.4947344671
 20
21.1622151671
 30
0.0
 10
-21.4975071312
 20
21.3735106333
 30
0.0
 10
-21.5015003067
 20
21.5493343304
 30
0.0
 10
-21.5042067411
 20
21.6844306901
 30
0.0
 10
-21.5105816138
 20
21.7724222295
 30
0.0
 10
-21.5110589193
 20
21.8166447791
 30
0.0
 10
-21.5152970636
 20
21.8293808902
 30
0.0
 11
-21.4905033955
 21
20.3926143821
 31
0.0
 11
-21.4911454684
 21
20.6669356421
 31
0.0
 11
-21.4926541454
 21
20.9296140284
 31
0.0
 11
-21.494976378
 21
21.1717367813
 31
0.0
 11
-21.4980340187
 21
21.3853165871
 31
0.0
 11
-21.5017278375
 21
21.5633249607
 31
0.0
 11
-21.5059341548
 21
21.6996440936
 31
0.0
 11
-21.5105112102
 21
21.7893980296
 31
0.0
 11
-21.5152970636
 21
21.8293808902
 31
0.0
  0
SPLINE
  5
5F2
100
AcDbEntity
  8
ASSI
100
AcDbSpline
 62
253
  6
CONTINUOUS
 70
0
 71
3
 72
15
 73
11
 74
9
 42
0.0000001
 43
0.0000001
 44
0.0000000001
 12
-0.4538208347
 22
-1.3637838039
 32
0.0
 13
-0.0010382473
 23
-1.4373094781
 33
0.0
 40
0.0
 40
0.0
 40
0.0
 40
0.0
 40
0.0280164154
 40
0.0905433405
 40
0.1854317275
 40
0.3093066826
 40
0.4579188206
 40
0.6263820702
 40
0.8091420494
 40
1.0
 40
1.0
 40
1.0
 40
1.0
 10
21.5152970636
 20
21.8293808902
 30
0.0
 10
21.5110589192
 20
21.816644779
 30
0.0
 10
21.5105816139
 20
21.7724222291
 30
0.0
 10
21.504206741
 20
21.6844306894
 30
0.0
 10
21.5015003067
 20
21.5493343297
 30
0.0
 10
21.4975071312
 20
21.3735106333
 30
0.0
 10
21.4947344671
 20
21.162215168
 30
0.0
 10
21.4924317632
 20
20.9227699333
 30
0.0
 10
21.4909844674
 20
20.6630552136
 30
0.0
 10
21.4905694481
 20
20.4840550293
 30
0.0
 10
21.4905033955
 20
20.3926143821
 30
0.0
 11
21.5152970636
 21
21.8293808902
 31
0.0
 11
21.5105112102
 21
21.7893980293
 31
0.0
 11
21.5059341547
 21
21.6996440928
 31
0.0
 11
21.5017278375
 21
21.5633249598
 31
0.0
 11
21.4980340187
 21
21.3853165869
 31
0.0
 11
21.4949763781
 21
21.1717367824
 31
0.0
 11
21.4926541454
 21
20.9296140301
 31
0.0
 11
21.4911454685
 21
20.6669356437
 31
0.0
 11
21.4905033955
 21
20.3926143821
 31
0.0
  0
SPLINE
  5
5F3
100
AcDbEntity
  8
ASSI
100
AcDbSpline
 62
253
  6
CONTINUOUS
 70
0
 71
3
 72
15
 73
11
 74
9
 42
0.0000001
 43
0.0000001
 44
0.0000000001
 12
0.4531578764
 22
1.3640043671
 32
0.0
 13
0.0010335002
 23
1.437309607
 33
0.0
 40
0.0
 40
0.0
 40
0.0
 40
0.0
 40
0.0279828434
 40
0.0903260516
 40
0.1848901388
 40
0.3084954743
 40
0.4571315243
 40
0.625895162
 40
0.8090029542
 40
1.0
 40
1.0
 40
1.0
 40
1.0
 10
-21.5152970636
 20
-21.8293808902
 30
0.0
 10
-21.5110701816
 20
-21.8166579833
 30
0.0
 10
-21.510576022
 20
-21.7725462609
 30
0.0
 10
-21.5042299926
 20
-21.6848077623
 30
0.0
 10
-21.5015163059
 20
-21.5500873127
 30
0.0
 10
-21.4975235958
 20
-21.3745357272
 30
0.0
 10
-21.494746385
 20
-21.1632143154
 30
0.0
 10
-21.492436008
 20
-20.9234470725
 30
0.0
 10
-21.4909845735
 20
-20.6633551541
 30
0.0
 10
-21.490569194
 20
-20.4841216705
 30
0.0
 10
-21.4905033955
 20
-20.3926143742
 30
0.0
 11
-21.5152970636
 21
-21.8293808902
 31
0.0
 11
-21.5105138797
 21
-21.7894463041
 31
0.0
 11
-21.5059464917
 21
-21.6999562682
 31
0.0
 11
-21.5017476125
 21
-21.564103235
 31
0.0
 11
-21.4980535167
 21
-21.386482463
 31
0.0
 11
-21.4949901711
 21
-21.172868349
 31
0.0
 11
-21.4926594457
 21
-20.9303138863
 31
0.0
 11
-21.4911457753
 21
-20.6671355824
 31
0.0
 11
-21.4905033955
 21
-20.3926143742
 31
0.0
  0
SPLINE
  5
5F4
100
AcDbEntity
  8
ASSI
100
AcDbSpline
 62
253
  6
CONTINUOUS
 70
0
 71
3
 72
15
 73
11
 74
9
 42
0.0000001
 43
0.0000001
 44
0.0000000001
 12
0.0010335003
 22
-1.437309607
 32
0.0
 13
0.4531578679
 23
-1.3640043699
 33
0.0
 40
0.0
 40
0.0
 40
0.0
 40
0.0
 40
0.190997045
 40
0.374104837
 40
0.542868475
 40
0.6915045257
 40
0.8151098618
 40
0.9096739491
 40
0.9720171569
 40
1.0
 40
1.0
 40
1.0
 40
1.0
 10
21.4905033955
 20
-20.3926143742
 30
0.0
 10
21.490569194
 20
-20.4841216701
 30
0.0
 10
21.4909845735
 20
-20.6633551533
 30
0.0
 10
21.492436008
 20
-20.9234470713
 30
0.0
 10
21.494746385
 20
-21.1632143146
 30
0.0
 10
21.4975235958
 20
-21.3745357272
 30
0.0
 10
21.5015163059
 20
-21.5500873133
 30
0.0
 10
21.5042299927
 20
-21.684807763
 30
0.0
 10
21.5105760219
 20
-21.7725462614
 30
0.0
 10
21.5110701817
 20
-21.8166579835
 30
0.0
 10
21.5152970636
 20
-21.8293808902
 30
0.0
 11
21.4905033955
 21
-20.3926143742
 31
0.0
 11
21.4911457753
 21
-20.6671355813
 31
0.0
 11
21.4926594457
 21
-20.9303138849
 31
0.0
 11
21.4949901711
 21
-21.172868348
 31
0.0
 11
21.4980535167
 21
-21.3864824629
 31
0.0
 11
21.5017476125
 21
-21.5641032359
 31
0.0
 11
21.5059464917
 21
-21.6999562691
 31
0.0
 11
21.5105138797
 21
-21.7894463046
 31
0.0
 11
21.5152970636
 21
-21.8293808902
 31
0.0
  0
SPLINE
  5
5F5
100
AcDbEntity
  8
ASSI
100
AcDbSpline
 62
253
  6
CONTINUOUS
 70
0
 71
3
 72
15
 73
11
 74
9
 42
0.0000001
 43
0.0000001
 44
0.0000000001
 12
0.0010294684
 22
-0.9586577181
 32
0.0
 13
0.4263389065
 23
-0.8586389329
 33
0.0
 40
0.0
 40
0.0
 40
0.0
 40
0.0
 40
0.1887627282
 40
0.372141242
 40
0.5417537792
 40
0.6909654693
 40
0.8150955496
 40
0.9100825131
 40
0.972289675
 40
1.0
 40
1.0
 40
1.0
 40
1.0
 10
21.9903320581
 20
-20.372221817
 30
0.0
 10
21.9903968332
 20
-20.4325414324
 30
0.0
 10
21.9908069173
 20
-20.551458374
 30
0.0
 10
21.9922484202
 20
-20.7245790683
 30
0.0
 10
21.9945511502
 20
-20.8850213317
 30
0.0
 10
21.9973642574
 20
-21.0266101765
 30
0.0
 10
22.0012989118
 20
-21.1440595347
 30
0.0
 10
22.0042105427
 20
-21.2343749309
 30
0.0
 10
22.010201299
 20
-21.2923446086
 30
0.0
 10
22.0111877295
 20
-21.3221350682
 30
0.0
 10
22.0151257261
 20
-21.3300661228
 30
0.0
 11
21.9903320581
 21
-20.372221817
 31
0.0
 11
21.9909621055
 21
-20.5531796707
 31
0.0
 11
21.9924683816
 21
-20.7289705465
 31
0.0
 11
21.9948040016
 21
-20.8915542327
 31
0.0
 11
21.9978763667
 21
-21.0345642546
 31
0.0
 11
22.0015868351
 21
-21.1535047209
 31
0.0
 11
22.0058153854
 21
-21.2444665256
 31
0.0
 11
22.0103967489
 21
-21.3039256987
 31
0.0
 11
22.0151257261
 21
-21.3300661228
 31
0.0
  0
SPLINE
  5
5F6
100
AcDbEntity
  8
ASSI
100
AcDbSpline
 62
253
  6
CONTINUOUS
 70
0
 71
3
 72
15
 73
11
 74
9
 42
0.0000001
 43
0.0000001
 44
0.0000000001
 12
-0.4272502386
 22
-0.8581858218
 32
0.0
 13
-0.0010329934
 23
-0.9586577095
 33
0.0
 40
0.0
 40
0.0
 40
0.0
 40
0.0
 40
0.0277422837
 40
0.0900879227
 40
0.1852350165
 40
0.309440306
 40
0.4587189226
 40
0.6282455493
 40
0.8114008321
 40
1.0
 40
1.0
 40
1.0
 40
1.0
 10
22.0151257261
 20
21.3300661228
 30
0.0
 10
22.0111747603
 20
21.3221301113
 30
0.0
 10
22.0102058225
 20
21.2922742603
 30
0.0
 10
22.004194846
 20
21.2342080416
 30
0.0
 10
22.0012908372
 20
21.1437688085
 30
0.0
 10
21.9973537915
 20
21.0262243182
 30
0.0
 10
21.9945443118
 20
20.8846169584
 30
0.0
 10
21.9922451471
 20
20.7242521872
 30
0.0
 10
21.9908064164
 20
20.5512824977
 30
0.0
 10
21.9903969987
 20
20.4324891657
 30
0.0
 10
21.9903320581
 20
20.372221817
 30
0.0
 11
22.0151257261
 21
21.3300661228
 31
0.0
 11
22.0103926536
 21
21.3038953049
 31
0.0
 11
22.0058057338
 21
21.2443034148
 31
0.0
 11
22.001575075
 21
21.1531880326
 31
0.0
 11
21.9978663035
 21
21.0341753791
 31
0.0
 11
21.9947958416
 21
20.8911011425
 31
0.0
 11
21.9924642202
 21
20.7285997671
 31
0.0
 11
21.9909613574
 21
20.5530228731
 31
0.0
 11
21.9903320581
 21
20.372221817
 31
0.0
  0
SPLINE
  5
5F7
100
AcDbEntity
  8
ASSI
100
AcDbSpline
 62
253
  6
CONTINUOUS
 70
0
 71
3
 72
15
 73
11
 74
9
 42
0.0000001
 43
0.0000001
 44
0.0000000001
 12
0.4263389156
 22
0.8586389283
 32
0.0
 13
0.0010294684
 23
0.9586577181
 33
0.0
 40
0.0
 40
0.0
 40
0.0
 40
0.0
 40
0.0277103252
 40
0.0899174876
 40
0.184904451
 40
0.309034531
 40
0.4582462204
 40
0.627858757
 40
0.8112372708
 40
1.0
 40
1.0
 40
1.0
 40
1.0
 10
-22.0151257261
 20
-21.3300661228
 30
0.0
 10
-22.0111877294
 20
-21.3221350682
 30
0.0
 10
-22.0102012991
 20
-21.2923446083
 30
0.0
 10
-22.0042105426
 20
-21.2343749304
 30
0.0
 10
-22.0012989118
 20
-21.1440595343
 30
0.0
 10
-21.9973642574
 20
-21.0266101764
 30
0.0
 10
-21.9945511502
 20
-20.8850213321
 30
0.0
 10
-21.9922484202
 20
-20.7245790691
 30
0.0
 10
-21.9908069173
 20
-20.5514583746
 30
0.0
 10
-21.9903968332
 20
-20.4325414327
 30
0.0
 10
-21.9903320581
 20
-20.372221817
 30
0.0
 11
-22.0151257261
 21
-21.3300661228
 31
0.0
 11
-22.0103967489
 21
-21.3039256985
 31
0.0
 11
-22.0058153854
 21
-21.2444665249
 31
0.0
 11
-22.001586835
 21
-21.1535047203
 31
0.0
 11
-21.9978763667
 21
-21.0345642543
 31
0.0
 11
-21.9948040017
 21
-20.8915542331
 31
0.0
 11
-21.9924683816
 21
-20.7289705474
 31
0.0
 11
-21.9909621055
 21
-20.5531796717
 31
0.0
 11
-21.9903320581
 21
-20.372221817
 31
0.0
  0
SPLINE
  5
5F8
100
AcDbEntity
  8
RACCORDO
100
AcDbSpline
 62
253
  6
CONTINUOUS
 70
0
 71
3
 72
11
 73
7
 74
5
 42
0.0000001
 43
0.0000001
 44
0.0000000001
 12
0.2702760989
 22
-0.421600942
 32
0.0
 13
0.5007956054
 23
-0.0005344041
 33
0.0
 40
0.0
 40
0.0
 40
0.0
 40
0.0
 40
0.0847312255
 40
0.3031723635
 40
0.6239498673
 40
1.0
 40
1.0
 40
1.0
 40
1.0
 10
-21.9903320581
 20
-20.372221817
 30
0.0
 10
-21.9826984497
 20
-20.3841294051
 30
0.0
 10
-21.9191099028
 20
-20.3738859296
 30
0.0
 10
-21.8263305385
 20
-20.3923612796
 30
0.0
 10
-21.6680441702
 20
-20.3897323579
 30
0.0
 10
-21.5532781469
 20
-20.3925474434
 30
0.0
 10
-21.4905033956
 20
-20.392614431
 30
0.0
 11
-21.9903320581
 21
-20.372221817
 31
0.0
 11
-21.9486003846
 21
-20.379904988
 31
0.0
 11
-21.839402325
 21
-20.3864566174
 31
0.0
 11
-21.6788200599
 21
-20.3909118118
 31
0.0
 11
-21.4905033956
 21
-20.392614431
 31
0.0
  0
SPLINE
  5
5F9
100
AcDbEntity
  8
RACCORDO
100
AcDbSpline
 62
253
  6
CONTINUOUS
 70
0
 71
3
 72
11
 73
7
 74
5
 42
0.0000001
 43
0.0000001
 44
0.0000000001
 12
0.2706297859
 22
0.4213737288
 32
0.0
 13
0.5007953822
 23
0.000534363
 33
0.0
 40
0.0
 40
0.0
 40
0.0
 40
0.0
 40
0.0847441618
 40
0.3031884202
 40
0.6239604106
 40
1.0
 40
1.0
 40
1.0
 40
1.0
 10
-21.9903320575
 20
20.372221817
 30
0.0
 10
-21.9826872927
 20
20.3841248048
 30
0.0
 10
-21.9191167703
 20
20.3738913454
 30
0.0
 10
-21.8263170509
 20
20.3923566284
 30
0.0
 10
-21.6680423243
 20
20.389732585
 30
0.0
 10
-21.553276359
 20
20.3925461257
 30
0.0
 10
-21.4905033957
 20
20.3926131063
 30
0.0
 11
-21.9903320575
 21
20.372221817
 31
0.0
 11
-21.9485937401
 21
20.379904576
 31
0.0
 11
-21.8393941378
 21
20.3864557693
 31
0.0
 11
-21.6788146971
 21
20.3909106259
 31
0.0
 11
-21.4905033957
 21
20.3926131063
 31
0.0
  0
SPLINE
  5
5FA
100
AcDbEntity
  8
RACCORDO
100
AcDbSpline
 62
253
  6
CONTINUOUS
 70
0
 71
3
 72
11
 73
7
 74
5
 42
0.0000001
 43
0.0000001
 44
0.0000000001
 12
-0.2702760486
 22
0.4216009743
 32
0.0
 13
-0.5007956054
 23
0.0005344041
 33
0.0
 40
0.0
 40
0.0
 40
0.0
 40
0.0
 40
0.0847312236
 40
0.3031723612
 40
0.6239498658
 40
1.0
 40
1.0
 40
1.0
 40
1.0
 10
21.9903320581
 20
20.372221817
 30
0.0
 10
21.9826984513
 20
20.3841294058
 30
0.0
 10
21.9191099018
 20
20.3738859288
 30
0.0
 10
21.8263305405
 20
20.3923612802
 30
0.0
 10
21.6680441704
 20
20.3897323578
 30
0.0
 10
21.5532781472
 20
20.3925474436
 30
0.0
 10
21.4905033956
 20
20.3926144311
 30
0.0
 11
21.9903320581
 21
20.372221817
 31
0.0
 11
21.9486003855
 21
20.379904988
 31
0.0
 11
21.8394023262
 21
20.3864566175
 31
0.0
 11
21.6788200607
 21
20.390911812
 31
0.0
 11
21.4905033956
 21
20.3926144311
 31
0.0
  0
SPLINE
  5
5FB
100
AcDbEntity
  8
RACCORDO
100
AcDbSpline
 62
253
  6
CONTINUOUS
 70
0
 71
3
 72
11
 73
7
 74
5
 42
0.0000001
 43
0.0000001
 44
0.0000000001
 12
-0.2707563922
 22
-0.4212922829
 32
0.0
 13
-0.5007952935
 23
-0.0005344242
 33
0.0
 40
0.0
 40
0.0
 40
0.0
 40
0.0
 40
0.0847487376
 40
0.3031941038
 40
0.6239641436
 40
1.0
 40
1.0
 40
1.0
 40
1.0
 10
21.990332057
 20
-20.372221817
 30
0.0
 10
21.9826833029
 20
-20.3841231467
 30
0.0
 10
21.9191192343
 20
-20.3738932032
 30
0.0
 10
21.8263122482
 20
-20.3923549097
 30
0.0
 10
21.6680416758
 20
-20.3897325963
 30
0.0
 10
21.5532757248
 20
-20.3925456033
 30
0.0
 10
21.4905033957
 20
-20.3926125908
 30
0.0
 11
21.990332057
 21
-20.372221817
 31
0.0
 11
21.9485913822
 21
-20.379904386
 31
0.0
 11
21.8393912328
 21
-20.386455401
 31
0.0
 11
21.6788127945
 21
-20.3909101391
 31
0.0
 11
21.4905033957
 21
-20.3926125908
 31
0.0
  0
SPLINE
  5
5FC
100
AcDbEntity
  8
RACCORDO
100
AcDbSpline
 62
253
  6
CONTINUOUS
 70
0
 71
3
 72
13
 73
9
 74
7
 42
0.0000001
 43
0.0000001
 44
0.0000000001
 12
-0.0010382295
 22
1.4372847521
 32
0.0
 13
-0.4538130218
 23
1.3637603447
 33
0.0
 40
0.0
 40
0.0
 40
0.0
 40
0.0
 40
0.2529134557
 40
0.4880097564
 40
0.6911126089
 40
0.8499719013
 40
0.9550158826
 40
1.0
 40
1.0
 40
1.0
 40
1.0
 10
-21.4905033955
 20
20.3926143821
 30
0.0
 10
-21.4905909229
 20
20.5137839333
 30
0.0
 10
-21.491328744
 20
20.747562706
 30
0.0
 10
-21.4934134079
 20
21.0787618282
 30
0.0
 10
-21.4980917901
 20
21.364501376
 30
0.0
 10
-21.5001351244
 20
21.5889316258
 30
0.0
 10
-21.5102853992
 20
21.7353686508
 30
0.0
 10
-21.5084922708
 20
21.8089317051
 30
0.0
 10
-21.5152970636
 20
21.8293808902
 30
0.0
 11
-21.4905033955
 21
20.3926143821
 31
0.0
 11
-21.4915528807
 21
20.7561216154
 31
0.0
 11
-21.4941177771
 21
21.094012297
 31
0.0
 11
-21.4980441162
 21
21.3859026
 31
0.0
 11
-21.5030945575
 21
21.6141728351
 31
0.0
 11
-21.5089631353
 21
21.765036887
 31
0.0
 11
-21.5152970636
 21
21.8293808902
 31
0.0
  0
SPLINE
  5
5FD
100
AcDbEntity
  8
RACCORDO
100
AcDbSpline
 62
253
  6
CONTINUOUS
 70
0
 71
3
 72
13
 73
9
 74
7
 42
0.0000001
 43
0.0000001
 44
0.0000000001
 12
-0.4538130276
 22
-1.3637603427
 32
0.0
 13
-0.0010382295
 23
-1.4372847521
 33
0.0
 40
0.0
 40
0.0
 40
0.0
 40
0.0
 40
0.0449841174
 40
0.1500280987
 40
0.3088873911
 40
0.5119902436
 40
0.7470865443
 40
1.0
 40
1.0
 40
1.0
 40
1.0
 10
21.5152970636
 20
21.8293808902
 30
0.0
 10
21.5084922708
 20
21.8089317051
 30
0.0
 10
21.5102853993
 20
21.7353686508
 30
0.0
 10
21.5001351243
 20
21.5889316258
 30
0.0
 10
21.4980917901
 20
21.364501376
 30
0.0
 10
21.4934134079
 20
21.0787618282
 30
0.0
 10
21.491328744
 20
20.747562706
 30
0.0
 10
21.4905909229
 20
20.5137839333
 30
0.0
 10
21.4905033955
 20
20.3926143821
 30
0.0
 11
21.5152970636
 21
21.8293808902
 31
0.0
 11
21.5089631353
 21
21.765036887
 31
0.0
 11
21.5030945575
 21
21.6141728351
 31
0.0
 11
21.4980441162
 21
21.3859026
 31
0.0
 11
21.4941177771
 21
21.094012297
 31
0.0
 11
21.4915528807
 21
20.7561216154
 31
0.0
 11
21.4905033955
 21
20.3926143821
 31
0.0
  0
SPLINE
  5
5FE
100
AcDbEntity
  8
RACCORDO
100
AcDbSpline
 62
253
  6
CONTINUOUS
 70
0
 71
3
 72
13
 73
9
 74
7
 42
0.0000001
 43
0.0000001
 44
0.0000000001
 12
0.4531500512
 22
1.3639808133
 32
0.0
 13
0.0010334824
 23
1.4372847873
 33
0.0
 40
0.0
 40
0.0
 40
0.0
 40
0.0
 40
0.0449841968
 40
0.150028203
 40
0.3088874364
 40
0.5119901991
 40
0.7470865565
 40
1.0
 40
1.0
 40
1.0
 40
1.0
 10
-21.5152970636
 20
-21.8293808902
 30
0.0
 10
-21.5085021999
 20
-21.8089283631
 30
0.0
 10
-21.5102739086
 20
-21.7353722717
 30
0.0
 10
-21.5001409289
 20
-21.5889295165
 30
0.0
 10
-21.4980883773
 20
-21.3645021777
 30
0.0
 10
-21.4934147675
 20
-21.0787615368
 30
0.0
 10
-21.4913285808
 20
-20.7475628169
 30
0.0
 10
-21.4905905226
 20
-20.5137839225
 30
0.0
 10
-21.4905033955
 20
-20.3926143742
 30
0.0
 11
-21.5152970636
 21
-21.8293808902
 31
0.0
 11
-21.5089629
 21
-21.7650367941
 31
0.0
 11
-21.50309418
 21
-21.6141727084
 31
0.0
 11
-21.4980435101
 21
-21.3859025582
 31
0.0
 11
-21.494117922
 21
-21.0940123678
 31
0.0
 11
-21.4915529512
 21
-20.7561215979
 31
0.0
 11
-21.4905033955
 21
-20.3926143742
 31
0.0
  0
SPLINE
  5
5FF
100
AcDbEntity
  8
RACCORDO
100
AcDbSpline
 62
253
  6
CONTINUOUS
 70
0
 71
3
 72
13
 73
9
 74
7
 42
0.0000001
 43
0.0000001
 44
0.0000000001
 12
0.0010334824
 22
-1.4372847873
 32
0.0
 13
0.4531500427
 23
-1.3639808161
 33
0.0
 40
0.0
 40
0.0
 40
0.0
 40
0.0
 40
0.2529134435
 40
0.4880098009
 40
0.6911125636
 40
0.849971797
 40
0.9550158032
 40
1.0
 40
1.0
 40
1.0
 40
1.0
 10
21.4905033955
 20
-20.3926143742
 30
0.0
 10
21.4905905227
 20
-20.5137839225
 30
0.0
 10
21.4913285807
 20
-20.7475628169
 30
0.0
 10
21.4934147675
 20
-21.0787615368
 30
0.0
 10
21.4980883773
 20
-21.3645021777
 30
0.0
 10
21.500140929
 20
-21.5889295165
 30
0.0
 10
21.5102739085
 20
-21.7353722717
 30
0.0
 10
21.5085022
 20
-21.8089283631
 30
0.0
 10
21.5152970636
 20
-21.8293808902
 30
0.0
 11
21.4905033955
 21
-20.3926143742
 31
0.0
 11
21.4915529512
 21
-20.7561215979
 31
0.0
 11
21.494117922
 21
-21.0940123678
 31
0.0
 11
21.4980435101
 21
-21.3859025582
 31
0.0
 11
21.50309418
 21
-21.6141727084
 31
0.0
 11
21.5089629
 21
-21.7650367941
 31
0.0
 11
21.5152970636
 21
-21.8293808902
 31
0.0
  0
SPLINE
  5
600
100
AcDbEntity
  8
RACCORDO
100
AcDbSpline
 62
253
  6
CONTINUOUS
 70
0
 71
3
 72
13
 73
9
 74
7
 42
0.0000001
 43
0.0000001
 44
0.0000000001
 12
0.4263224932
 22
0.858605854
 32
0.0
 13
0.0010294287
 23
0.958620791
 33
0.0
 40
0.0
 40
0.0
 40
0.0
 40
0.0
 40
0.0448917563
 40
0.1500558739
 40
0.309347506
 40
0.5129473007
 40
0.748437278
 40
1.0
 40
1.0
 40
1.0
 40
1.0
 10
-22.0151257261
 20
-21.3300661228
 30
0.0
 10
-22.0087462709
 20
-21.3172180146
 30
0.0
 10
-22.0096996778
 20
-21.2670646506
 30
0.0
 10
-22.0001999154
 20
-21.1702820353
 30
0.0
 10
-21.997819122
 20
-21.0198116241
 30
0.0
 10
-21.9932646428
 20
-20.8290172267
 30
0.0
 10
-21.9911426241
 20
-20.608207306
 30
0.0
 10
-21.9904183801
 20
-20.4526062355
 30
0.0
 10
-21.9903320581
 20
-20.372221817
 30
0.0
 11
-22.0151257261
 21
-21.3300661228
 31
0.0
 11
-22.0088189695
 21
-21.28749657
 31
0.0
 11
-22.002933646
 21
-21.1868559382
 31
0.0
 11
-21.9978679631
 21
-21.0342396274
 31
0.0
 11
-21.9939358657
 21
-20.8391041317
 31
0.0
 11
-21.9913725304
 21
-20.613372967
 31
0.0
 11
-21.9903320581
 21
-20.372221817
 31
0.0
  0
SPLINE
  5
601
100
AcDbEntity
  8
RACCORDO
100
AcDbSpline
 62
253
  6
CONTINUOUS
 70
0
 71
3
 72
13
 73
9
 74
7
 42
0.0000001
 43
0.0000001
 44
0.0000000001
 12
0.0010294288
 22
-0.958620791
 32
0.0
 13
0.4263224841
 23
-0.8586058585
 33
0.0
 40
0.0
 40
0.0
 40
0.0
 40
0.0
 40
0.2515627221
 40
0.4870526993
 40
0.690652494
 40
0.8499441261
 40
0.9551082438
 40
1.0
 40
1.0
 40
1.0
 40
1.0
 10
21.9903320581
 20
-20.372221817
 30
0.0
 10
21.9904183801
 20
-20.4526062355
 30
0.0
 10
21.9911426241
 20
-20.608207306
 30
0.0
 10
21.9932646428
 20
-20.8290172267
 30
0.0
 10
21.9978191219
 20
-21.0198116241
 30
0.0
 10
22.0001999155
 20
-21.1702820352
 30
0.0
 10
22.0096996776
 20
-21.2670646507
 30
0.0
 10
22.0087462711
 20
-21.3172180145
 30
0.0
 10
22.0151257261
 20
-21.3300661228
 30
0.0
 11
21.9903320581
 21
-20.372221817
 31
0.0
 11
21.9913725304
 21
-20.613372967
 31
0.0
 11
21.9939358657
 21
-20.8391041317
 31
0.0
 11
21.9978679631
 21
-21.0342396274
 31
0.0
 11
22.002933646
 21
-21.1868559382
 31
0.0
 11
22.0088189695
 21
-21.2874965701
 31
0.0
 11
22.0151257261
 21
-21.3300661228
 31
0.0
  0
SPLINE
  5
602
100
AcDbEntity
  8
RACCORDO
100
AcDbSpline
 62
253
  6
CONTINUOUS
 70
0
 71
3
 72
13
 73
9
 74
7
 42
0.0000001
 43
0.0000001
 44
0.0000000001
 12
-0.427233806
 22
-0.8581528149
 32
0.0
 13
-0.0010329537
 23
-0.9586208384
 33
0.0
 40
0.0
 40
0.0
 40
0.0
 40
0.0
 40
0.0448522341
 40
0.1498889
 40
0.3089852887
 40
0.5126580175
 40
0.748300923
 40
1.0
 40
1.0
 40
1.0
 40
1.0
 10
22.0151257261
 20
21.3300661228
 30
0.0
 10
22.0087382625
 20
21.3172360992
 30
0.0
 10
22.0097155108
 20
21.2671247589
 30
0.0
 10
22.0002024081
 20
21.1704667131
 30
0.0
 10
21.9978286616
 20
21.0200713934
 30
0.0
 10
21.993266407
 20
20.8292696783
 30
0.0
 10
21.9911436042
 20
20.6083431025
 30
0.0
 10
21.9904187226
 20
20.4526498104
 30
0.0
 10
21.9903320581
 20
20.372221817
 30
0.0
 11
22.0151257261
 21
21.3300661228
 31
0.0
 11
22.0088223924
 21
21.2875343611
 31
0.0
 11
22.0029408701
 21
21.1870158882
 31
0.0
 11
21.9978769485
 21
21.0345867784
 31
0.0
 11
21.9939399634
 21
20.8393814404
 31
0.0
 11
21.9913734765
 21
20.6135036898
 31
0.0
 11
21.9903320581
 21
20.372221817
 31
0.0
  0
SPLINE
  5
603
100
AcDbEntity
  8
RACCORDO
100
AcDbSpline
 62
253
  6
CONTINUOUS
 70
0
 71
3
 72
13
 73
9
 74
7
 42
0.0000001
 43
0.0000001
 44
0.0000000001
 12
-0.0010329537
 22
0.9586208384
 32
0.0
 13
-0.4272337948
 23
0.8581528205
 33
0.0
 40
0.0
 40
0.0
 40
0.0
 40
0.0
 40
0.251699077
 40
0.4873419825
 40
0.6910147113
 40
0.8501111
 40
0.955147766
 40
1.0
 40
1.0
 40
1.0
 40
1.0
 10
-21.9903320581
 20
20.372221817
 30
0.0
 10
-21.9904187226
 20
20.4526498104
 30
0.0
 10
-21.9911436042
 20
20.6083431025
 30
0.0
 10
-21.993266407
 20
20.8292696783
 30
0.0
 10
-21.9978286615
 20
21.0200713934
 30
0.0
 10
-22.0002024082
 20
21.1704667131
 30
0.0
 10
-22.0097155106
 20
21.267124759
 30
0.0
 10
-22.0087382627
 20
21.3172360992
 30
0.0
 10
-22.0151257261
 20
21.3300661228
 30
0.0
 11
-21.9903320581
 21
20.372221817
 31
0.0
 11
-21.9913734765
 21
20.6135036898
 31
0.0
 11
-21.9939399634
 21
20.8393814404
 31
0.0
 11
-21.9978769485
 21
21.0345867784
 31
0.0
 11
-22.0029408701
 21
21.1870158882
 31
0.0
 11
-22.0088223924
 21
21.2875343612
 31
0.0
 11
-22.0151257261
 21
21.3300661228
 31
0.0
  0
SPLINE
  5
604
100
AcDbEntity
  8
PORTATASTO
100
AcDbSpline
 62
253
  6
CONTINUOUS
 70
0
 71
3
 72
16
 73
12
 74
10
 42
0.0000001
 43
0.0000001
 44
0.0000000001
 12
0.0000008704
 22
0.4330157742
 32
0.0
 13
-0.0039264321
 23
0.4329979721
 33
0.0
 40
0.0
 40
0.0
 40
0.0
 40
0.0
 40
0.1329751245
 40
0.2653311846
 40
0.3946181073
 40
0.5181583762
 40
0.634401034
 40
0.7423379184
 40
0.8404360722
 40
0.9268390095
 40
1.0
 40
1.0
 40
1.0
 40
1.0
 10
-19.561787934
 20
23.0783121635
 30
0.0
 10
-19.5617878955
 20
23.0975056057
 30
0.0
 10
-19.5617994599
 20
23.1358031362
 30
0.0
 10
-19.5618513905
 20
23.1927617377
 30
0.0
 10
-19.5619377246
 20
23.2483584828
 30
0.0
 10
-19.5620570265
 20
23.301629376
 30
0.0
 10
-19.5622073691
 20
23.351818544
 30
0.0
 10
-19.5623868205
 20
23.398335313
 30
0.0
 10
-19.5625928589
 20
23.4405449053
 30
0.0
 10
-19.5628216317
 20
23.4777347938
 30
0.0
 10
-19.5630011891
 20
23.5007653452
 30
0.0
 10
-19.5630969429
 20
23.5113248654
 30
0.0
 11
-19.561787934
 21
23.0783121635
 31
0.0
 11
-19.5618053522
 21
23.1358924874
 31
0.0
 11
-19.5618579904
 21
23.1932047251
 31
0.0
 11
-19.5619455652
 21
23.2491879335
 31
0.0
 11
-19.5620663307
 21
23.3026826824
 31
0.0
 11
-19.5622184617
 21
23.3530173569
 31
0.0
 11
-19.5624006525
 21
23.3997553754
 31
0.0
 11
-19.5626106607
 21
23.4422329043
 31
0.0
 11
-19.5628444971
 21
23.4796460083
 31
0.0
 11
-19.5630969429
 21
23.5113248654
 31
0.0
  0
SPLINE
  5
605
100
AcDbEntity
  8
PORTATASTO
100
AcDbSpline
 62
253
  6
CONTINUOUS
 70
0
 71
3
 72
16
 73
12
 74
10
 42
0.0000001
 43
0.0000001
 44
0.0000000001
 12
0.003926422
 22
0.4329979722
 32
0.0
 13
-0.0000008708
 23
0.4330157742
 33
0.0
 40
0.0
 40
0.0
 40
0.0
 40
0.0
 40
0.0731609897
 40
0.1595639282
 40
0.2576620814
 40
0.3655989661
 40
0.4818416237
 40
0.6053818927
 40
0.7346688153
 40
0.8670248755
 40
1.0
 40
1.0
 40
1.0
 40
1.0
 10
-19.5630969429
 20
-23.5113248654
 30
0.0
 10
-19.5630011893
 20
-23.5007653453
 30
0.0
 10
-19.5628216315
 20
-23.4777347939
 30
0.0
 10
-19.5625928589
 20
-23.4405449054
 30
0.0
 10
-19.5623868204
 20
-23.3983353129
 30
0.0
 10
-19.5622073691
 20
-23.351818544
 30
0.0
 10
-19.5620570264
 20
-23.3016293759
 30
0.0
 10
-19.5619377246
 20
-23.2483584828
 30
0.0
 10
-19.5618513905
 20
-23.1927617377
 30
0.0
 10
-19.5617994599
 20
-23.1358031362
 30
0.0
 10
-19.5617878954
 20
-23.0975056057
 30
0.0
 10
-19.561787934
 20
-23.0783121635
 30
0.0
 11
-19.5630969429
 21
-23.5113248654
 31
0.0
 11
-19.5628444971
 21
-23.4796460086
 31
0.0
 11
-19.5626106607
 21
-23.4422329041
 31
0.0
 11
-19.5624006525
 21
-23.3997553754
 31
0.0
 11
-19.5622184617
 21
-23.3530173569
 31
0.0
 11
-19.5620663307
 21
-23.3026826824
 31
0.0
 11
-19.5619455652
 21
-23.2491879335
 31
0.0
 11
-19.5618579904
 21
-23.1932047251
 31
0.0
 11
-19.5618053522
 21
-23.1358924873
 31
0.0
 11
-19.561787934
 21
-23.0783121635
 31
0.0
  0
SPLINE
  5
606
100
AcDbEntity
  8
PORTATASTO
100
AcDbSpline
 62
253
  6
CONTINUOUS
 70
0
 71
3
 72
16
 73
12
 74
10
 42
0.0000001
 43
0.0000001
 44
0.0000000001
 12
-0.003926422
 22
-0.4329979722
 32
0.0
 13
0.0000008708
 23
-0.4330157742
 33
0.0
 40
0.0
 40
0.0
 40
0.0
 40
0.0
 40
0.0731609897
 40
0.1595639282
 40
0.2576620814
 40
0.3655989661
 40
0.4818416237
 40
0.6053818927
 40
0.7346688153
 40
0.8670248755
 40
1.0
 40
1.0
 40
1.0
 40
1.0
 10
-21.8119030571
 20
23.5113248654
 30
0.0
 10
-21.8119988107
 20
23.5007653453
 30
0.0
 10
-21.8121783685
 20
23.4777347939
 30
0.0
 10
-21.8124071411
 20
23.4405449054
 30
0.0
 10
-21.8126131796
 20
23.3983353129
 30
0.0
 10
-21.8127926309
 20
23.351818544
 30
0.0
 10
-21.8129429736
 20
23.3016293759
 30
0.0
 10
-21.8130622754
 20
23.2483584828
 30
0.0
 10
-21.8131486095
 20
23.1927617377
 30
0.0
 10
-21.8132005401
 20
23.1358031362
 30
0.0
 10
-21.8132121046
 20
23.0975056057
 30
0.0
 10
-21.813212066
 20
23.0783121635
 30
0.0
 11
-21.8119030571
 21
23.5113248654
 31
0.0
 11
-21.8121555029
 21
23.4796460086
 31
0.0
 11
-21.8123893393
 21
23.4422329041
 31
0.0
 11
-21.8125993475
 21
23.3997553754
 31
0.0
 11
-21.8127815383
 21
23.3530173569
 31
0.0
 11
-21.8129336693
 21
23.3026826824
 31
0.0
 11
-21.8130544348
 21
23.2491879335
 31
0.0
 11
-21.8131420096
 21
23.1932047251
 31
0.0
 11
-21.8131946478
 21
23.1358924873
 31
0.0
 11
-21.813212066
 21
23.0783121635
 31
0.0
  0
SPLINE
  5
607
100
AcDbEntity
  8
PORTATASTO
100
AcDbSpline
 62
253
  6
CONTINUOUS
 70
0
 71
3
 72
16
 73
12
 74
10
 42
0.0000001
 43
0.0000001
 44
0.0000000001
 12
-0.0000008704
 22
-0.4330157742
 32
0.0
 13
0.0039264321
 23
-0.4329979721
 33
0.0
 40
0.0
 40
0.0
 40
0.0
 40
0.0
 40
0.1329751245
 40
0.2653311846
 40
0.3946181073
 40
0.5181583762
 40
0.634401034
 40
0.7423379184
 40
0.8404360722
 40
0.9268390095
 40
1.0
 40
1.0
 40
1.0
 40
1.0
 10
-21.813212066
 20
-23.0783121635
 30
0.0
 10
-21.8132121045
 20
-23.0975056057
 30
0.0
 10
-21.8132005401
 20
-23.1358031362
 30
0.0
 10
-21.8131486095
 20
-23.1927617377
 30
0.0
 10
-21.8130622754
 20
-23.2483584828
 30
0.0
 10
-21.8129429735
 20
-23.301629376
 30
0.0
 10
-21.8127926309
 20
-23.351818544
 30
0.0
 10
-21.8126131795
 20
-23.398335313
 30
0.0
 10
-21.8124071411
 20
-23.4405449053
 30
0.0
 10
-21.8121783683
 20
-23.4777347938
 30
0.0
 10
-21.8119988109
 20
-23.5007653452
 30
0.0
 10
-21.8119030571
 20
-23.5113248654
 30
0.0
 11
-21.813212066
 21
-23.0783121635
 31
0.0
 11
-21.8131946478
 21
-23.1358924874
 31
0.0
 11
-21.8131420096
 21
-23.1932047251
 31
0.0
 11
-21.8130544348
 21
-23.2491879335
 31
0.0
 11
-21.8129336693
 21
-23.3026826824
 31
0.0
 11
-21.8127815383
 21
-23.3530173569
 31
0.0
 11
-21.8125993475
 21
-23.3997553754
 31
0.0
 11
-21.8123893393
 21
-23.4422329043
 31
0.0
 11
-21.8121555029
 21
-23.4796460083
 31
0.0
 11
-21.8119030571
 21
-23.5113248654
 31
0.0
  0
SPLINE
  5
608
100
AcDbEntity
  8
PORTATASTO
100
AcDbSpline
 62
253
  6
CONTINUOUS
 70
0
 71
3
 72
16
 73
12
 74
10
 42
0.0000001
 43
0.0000001
 44
0.0000000001
 12
-0.003926422
 22
-0.4329979722
 32
0.0
 13
0.0000008708
 23
-0.4330157742
 33
0.0
 40
0.0
 40
0.0
 40
0.0
 40
0.0
 40
0.0731609897
 40
0.1595639282
 40
0.2576620814
 40
0.3655989661
 40
0.4818416237
 40
0.6053818927
 40
0.7346688153
 40
0.8670248755
 40
1.0
 40
1.0
 40
1.0
 40
1.0
 10
-2.9369030571
 20
23.5113248654
 30
0.0
 10
-2.9369988107
 20
23.5007653453
 30
0.0
 10
-2.9371783685
 20
23.4777347939
 30
0.0
 10
-2.9374071411
 20
23.4405449054
 30
0.0
 10
-2.9376131796
 20
23.3983353129
 30
0.0
 10
-2.9377926309
 20
23.351818544
 30
0.0
 10
-2.9379429736
 20
23.3016293759
 30
0.0
 10
-2.9380622754
 20
23.2483584828
 30
0.0
 10
-2.9381486095
 20
23.1927617377
 30
0.0
 10
-2.9382005401
 20
23.1358031362
 30
0.0
 10
-2.9382121046
 20
23.0975056057
 30
0.0
 10
-2.938212066
 20
23.0783121635
 30
0.0
 11
-2.9369030571
 21
23.5113248654
 31
0.0
 11
-2.9371555029
 21
23.4796460086
 31
0.0
 11
-2.9373893393
 21
23.4422329041
 31
0.0
 11
-2.9375993475
 21
23.3997553754
 31
0.0
 11
-2.9377815383
 21
23.3530173569
 31
0.0
 11
-2.9379336693
 21
23.3026826824
 31
0.0
 11
-2.9380544348
 21
23.2491879335
 31
0.0
 11
-2.9381420096
 21
23.1932047251
 31
0.0
 11
-2.9381946478
 21
23.1358924873
 31
0.0
 11
-2.938212066
 21
23.0783121635
 31
0.0
  0
SPLINE
  5
609
100
AcDbEntity
  8
PORTATASTO
100
AcDbSpline
 62
253
  6
CONTINUOUS
 70
0
 71
3
 72
16
 73
12
 74
10
 42
0.0000001
 43
0.0000001
 44
0.0000000001
 12
-0.0000008704
 22
-0.4330157742
 32
0.0
 13
0.0039264321
 23
-0.4329979721
 33
0.0
 40
0.0
 40
0.0
 40
0.0
 40
0.0
 40
0.1329751245
 40
0.2653311846
 40
0.3946181073
 40
0.5181583762
 40
0.634401034
 40
0.7423379184
 40
0.8404360722
 40
0.9268390095
 40
1.0
 40
1.0
 40
1.0
 40
1.0
 10
-2.938212066
 20
-23.0783121635
 30
0.0
 10
-2.9382121045
 20
-23.0975056057
 30
0.0
 10
-2.9382005401
 20
-23.1358031362
 30
0.0
 10
-2.9381486095
 20
-23.1927617377
 30
0.0
 10
-2.9380622754
 20
-23.2483584828
 30
0.0
 10
-2.9379429735
 20
-23.301629376
 30
0.0
 10
-2.9377926309
 20
-23.351818544
 30
0.0
 10
-2.9376131795
 20
-23.398335313
 30
0.0
 10
-2.9374071411
 20
-23.4405449053
 30
0.0
 10
-2.9371783683
 20
-23.4777347938
 30
0.0
 10
-2.9369988109
 20
-23.5007653452
 30
0.0
 10
-2.9369030571
 20
-23.5113248654
 30
0.0
 11
-2.938212066
 21
-23.0783121635
 31
0.0
 11
-2.9381946478
 21
-23.1358924874
 31
0.0
 11
-2.9381420096
 21
-23.1932047251
 31
0.0
 11
-2.9380544348
 21
-23.2491879335
 31
0.0
 11
-2.9379336693
 21
-23.3026826824
 31
0.0
 11
-2.9377815383
 21
-23.3530173569
 31
0.0
 11
-2.9375993475
 21
-23.3997553754
 31
0.0
 11
-2.9373893393
 21
-23.4422329043
 31
0.0
 11
-2.9371555029
 21
-23.4796460083
 31
0.0
 11
-2.9369030571
 21
-23.5113248654
 31
0.0
  0
SPLINE
  5
60A
100
AcDbEntity
  8
PORTATASTO
100
AcDbSpline
 62
253
  6
CONTINUOUS
 70
0
 71
3
 72
16
 73
12
 74
10
 42
0.0000001
 43
0.0000001
 44
0.0000000001
 12
0.0000008704
 22
0.4330157742
 32
0.0
 13
-0.0039264321
 23
0.4329979721
 33
0.0
 40
0.0
 40
0.0
 40
0.0
 40
0.0
 40
0.1329751245
 40
0.2653311846
 40
0.3946181073
 40
0.5181583762
 40
0.634401034
 40
0.7423379184
 40
0.8404360722
 40
0.9268390095
 40
1.0
 40
1.0
 40
1.0
 40
1.0
 10
-0.686787934
 20
23.0783121635
 30
0.0
 10
-0.6867878955
 20
23.0975056057
 30
0.0
 10
-0.6867994599
 20
23.1358031362
 30
0.0
 10
-0.6868513905
 20
23.1927617377
 30
0.0
 10
-0.6869377246
 20
23.2483584828
 30
0.0
 10
-0.6870570265
 20
23.301629376
 30
0.0
 10
-0.6872073691
 20
23.351818544
 30
0.0
 10
-0.6873868205
 20
23.398335313
 30
0.0
 10
-0.6875928589
 20
23.4405449053
 30
0.0
 10
-0.6878216317
 20
23.4777347938
 30
0.0
 10
-0.6880011891
 20
23.5007653452
 30
0.0
 10
-0.6880969429
 20
23.5113248654
 30
0.0
 11
-0.686787934
 21
23.0783121635
 31
0.0
 11
-0.6868053522
 21
23.1358924874
 31
0.0
 11
-0.6868579904
 21
23.1932047251
 31
0.0
 11
-0.6869455652
 21
23.2491879335
 31
0.0
 11
-0.6870663307
 21
23.3026826824
 31
0.0
 11
-0.6872184617
 21
23.3530173569
 31
0.0
 11
-0.6874006525
 21
23.3997553754
 31
0.0
 11
-0.6876106607
 21
23.4422329043
 31
0.0
 11
-0.6878444971
 21
23.4796460083
 31
0.0
 11
-0.6880969429
 21
23.5113248654
 31
0.0
  0
SPLINE
  5
60B
100
AcDbEntity
  8
PORTATASTO
100
AcDbSpline
 62
253
  6
CONTINUOUS
 70
0
 71
3
 72
16
 73
12
 74
10
 42
0.0000001
 43
0.0000001
 44
0.0000000001
 12
0.003926422
 22
0.4329979722
 32
0.0
 13
-0.0000008708
 23
0.4330157742
 33
0.0
 40
0.0
 40
0.0
 40
0.0
 40
0.0
 40
0.0731609897
 40
0.1595639282
 40
0.2576620814
 40
0.3655989661
 40
0.4818416237
 40
0.6053818927
 40
0.7346688153
 40
0.8670248755
 40
1.0
 40
1.0
 40
1.0
 40
1.0
 10
-0.6880969429
 20
-23.5113248654
 30
0.0
 10
-0.6880011893
 20
-23.5007653453
 30
0.0
 10
-0.6878216315
 20
-23.4777347939
 30
0.0
 10
-0.6875928589
 20
-23.4405449054
 30
0.0
 10
-0.6873868204
 20
-23.3983353129
 30
0.0
 10
-0.6872073691
 20
-23.351818544
 30
0.0
 10
-0.6870570264
 20
-23.3016293759
 30
0.0
 10
-0.6869377246
 20
-23.2483584828
 30
0.0
 10
-0.6868513905
 20
-23.1927617377
 30
0.0
 10
-0.6867994599
 20
-23.1358031362
 30
0.0
 10
-0.6867878954
 20
-23.0975056057
 30
0.0
 10
-0.686787934
 20
-23.0783121635
 30
0.0
 11
-0.6880969429
 21
-23.5113248654
 31
0.0
 11
-0.6878444971
 21
-23.4796460086
 31
0.0
 11
-0.6876106607
 21
-23.4422329041
 31
0.0
 11
-0.6874006525
 21
-23.3997553754
 31
0.0
 11
-0.6872184617
 21
-23.3530173569
 31
0.0
 11
-0.6870663307
 21
-23.3026826824
 31
0.0
 11
-0.6869455652
 21
-23.2491879335
 31
0.0
 11
-0.6868579904
 21
-23.1932047251
 31
0.0
 11
-0.6868053522
 21
-23.1358924873
 31
0.0
 11
-0.686787934
 21
-23.0783121635
 31
0.0
  0
SPLINE
  5
60C
100
AcDbEntity
  8
PORTATASTO
100
AcDbSpline
 62
7
  6
CONTINUOUS
 70
0
 71
3
 72
19
 73
15
 74
13
 42
0.0000001
 43
0.0000001
 44
0.0000000001
 12
-0.4500351504
 22
-0.0031247734
 32
0.0
 13
-0.3803582905
 23
-0.240559705
 33
0.0
 40
0.0
 40
0.0
 40
0.0
 40
0.0
 40
0.0614780033
 40
0.1291586662
 40
0.2025429257
 40
0.2808336398
 40
0.3632485377
 40
0.449057599
 40
0.5375926221
 40
0.6282342422
 40
0.7203896159
 40
0.813467532
 40
0.9068812199
 40
1.0
 40
1.0
 40
1.0
 40
1.0
 10
15.541351552
 20
23.7905696528
 30
0.0
 10
15.5321291312
 20
23.7905056178
 30
0.0
 10
15.5127709294
 20
23.7880777929
 30
0.0
 10
15.483411277
 20
23.7800786599
 30
0.0
 10
15.4525520764
 20
23.7685530698
 30
0.0
 10
15.4204711144
 20
23.7542352027
 30
0.0
 10
15.3873849739
 20
23.7376961428
 30
0.0
 10
15.3534895498
 20
23.7193913937
 30
0.0
 10
15.3189561754
 20
23.6996970806
 30
0.0
 10
15.283944064
 20
23.6789346877
 30
0.0
 10
15.2486078654
 20
23.6573901086
 30
0.0
 10
15.2131032414
 20
23.635326603
 30
0.0
 10
15.1775949594
 20
23.6129967127
 30
0.0
 10
15.1539452593
 20
23.5980392697
 30
0.0
 10
15.1421390926
 20
23.5905723943
 30
0.0
 11
15.541351552
 21
23.7905696528
 31
0.0
 11
15.51384467
 21
23.7875887542
 31
0.0
 11
15.4843768311
 21
23.7798801731
 31
0.0
 11
15.4533714063
 21
23.7685047778
 31
0.0
 11
15.4211442455
 21
23.7542613706
 31
0.0
 11
15.387929476
 21
23.7377542841
 31
0.0
 11
15.3539208267
 21
23.7194577379
 31
0.0
 11
15.3192868713
 21
23.6997574882
 31
0.0
 11
15.2841820999
 21
23.6789797216
 31
0.0
 11
15.2487567417
 21
23.6574123918
 31
0.0
 11
15.2131658118
 21
23.6353216058
 31
0.0
 11
15.1775671466
 21
23.6129579072
 31
0.0
 11
15.1421390926
 21
23.5905723943
 31
0.0
  0
SPLINE
  5
60D
100
AcDbEntity
  8
PORTATASTO
100
AcDbSpline
 62
7
  6
CONTINUOUS
 70
0
 71
3
 72
19
 73
15
 74
13
 42
0.0000001
 43
0.0000001
 44
0.0000000001
 12
0.4500351504
 22
0.0031247734
 32
0.0
 13
0.3803582905
 23
0.240559705
 33
0.0
 40
0.0
 40
0.0
 40
0.0
 40
0.0
 40
0.0614780033
 40
0.1291586662
 40
0.2025429257
 40
0.2808336398
 40
0.3632485377
 40
0.449057599
 40
0.5375926221
 40
0.6282342422
 40
0.7203896159
 40
0.813467532
 40
0.9068812199
 40
1.0
 40
1.0
 40
1.0
 40
1.0
 10
6.958648448
 20
-23.7905696528
 30
0.0
 10
6.9678708688
 20
-23.7905056178
 30
0.0
 10
6.9872290706
 20
-23.7880777929
 30
0.0
 10
7.016588723
 20
-23.7800786599
 30
0.0
 10
7.0474479236
 20
-23.7685530698
 30
0.0
 10
7.0795288856
 20
-23.7542352027
 30
0.0
 10
7.1126150261
 20
-23.7376961428
 30
0.0
 10
7.1465104502
 20
-23.7193913937
 30
0.0
 10
7.1810438246
 20
-23.6996970806
 30
0.0
 10
7.216055936
 20
-23.6789346877
 30
0.0
 10
7.2513921346
 20
-23.6573901086
 30
0.0
 10
7.2868967586
 20
-23.635326603
 30
0.0
 10
7.3224050406
 20
-23.6129967127
 30
0.0
 10
7.3460547407
 20
-23.5980392697
 30
0.0
 10
7.3578609074
 20
-23.5905723943
 30
0.0
 11
6.958648448
 21
-23.7905696528
 31
0.0
 11
6.98615533
 21
-23.7875887542
 31
0.0
 11
7.0156231689
 21
-23.7798801731
 31
0.0
 11
7.0466285937
 21
-23.7685047778
 31
0.0
 11
7.0788557545
 21
-23.7542613706
 31
0.0
 11
7.112070524
 21
-23.7377542841
 31
0.0
 11
7.1460791733
 21
-23.7194577379
 31
0.0
 11
7.1807131287
 21
-23.6997574882
 31
0.0
 11
7.2158179001
 21
-23.6789797216
 31
0.0
 11
7.2512432583
 21
-23.6574123918
 31
0.0
 11
7.2868341882
 21
-23.6353216058
 31
0.0
 11
7.3224328534
 21
-23.6129579072
 31
0.0
 11
7.3578609074
 21
-23.5905723943
 31
0.0
  0
SPLINE
  5
60E
100
AcDbEntity
  8
PORTATASTO
100
AcDbSpline
 62
7
  6
CONTINUOUS
 70
0
 71
3
 72
19
 73
15
 74
13
 42
0.0000001
 43
0.0000001
 44
0.0000000001
 12
0.4500351504
 22
-0.0031247734
 32
0.0
 13
0.3803582905
 23
-0.240559705
 33
0.0
 40
0.0
 40
0.0
 40
0.0
 40
0.0
 40
0.0614780033
 40
0.1291586662
 40
0.2025429257
 40
0.2808336398
 40
0.3632485377
 40
0.449057599
 40
0.5375926221
 40
0.6282342422
 40
0.7203896159
 40
0.813467532
 40
0.9068812199
 40
1.0
 40
1.0
 40
1.0
 40
1.0
 10
6.958648448
 20
23.7905696528
 30
0.0
 10
6.9678708688
 20
23.7905056178
 30
0.0
 10
6.9872290706
 20
23.7880777929
 30
0.0
 10
7.016588723
 20
23.7800786599
 30
0.0
 10
7.0474479236
 20
23.7685530698
 30
0.0
 10
7.0795288856
 20
23.7542352027
 30
0.0
 10
7.1126150261
 20
23.7376961428
 30
0.0
 10
7.1465104502
 20
23.7193913937
 30
0.0
 10
7.1810438246
 20
23.6996970806
 30
0.0
 10
7.216055936
 20
23.6789346877
 30
0.0
 10
7.2513921346
 20
23.6573901086
 30
0.0
 10
7.2868967586
 20
23.635326603
 30
0.0
 10
7.3224050406
 20
23.6129967127
 30
0.0
 10
7.3460547407
 20
23.5980392697
 30
0.0
 10
7.3578609074
 20
23.5905723943
 30
0.0
 11
6.958648448
 21
23.7905696528
 31
0.0
 11
6.98615533
 21
23.7875887542
 31
0.0
 11
7.0156231689
 21
23.7798801731
 31
0.0
 11
7.0466285937
 21
23.7685047778
 31
0.0
 11
7.0788557545
 21
23.7542613706
 31
0.0
 11
7.112070524
 21
23.7377542841
 31
0.0
 11
7.1460791733
 21
23.7194577379
 31
0.0
 11
7.1807131287
 21
23.6997574882
 31
0.0
 11
7.2158179001
 21
23.6789797216
 31
0.0
 11
7.2512432583
 21
23.6574123918
 31
0.0
 11
7.2868341882
 21
23.6353216058
 31
0.0
 11
7.3224328534
 21
23.6129579072
 31
0.0
 11
7.3578609074
 21
23.5905723943
 31
0.0
  0
SPLINE
  5
60F
100
AcDbEntity
  8
PORTATASTO
100
AcDbSpline
 62
7
  6
CONTINUOUS
 70
0
 71
3
 72
19
 73
15
 74
13
 42
0.0000001
 43
0.0000001
 44
0.0000000001
 12
-0.4500351504
 22
0.0031247734
 32
0.0
 13
-0.3803582905
 23
0.240559705
 33
0.0
 40
0.0
 40
0.0
 40
0.0
 40
0.0
 40
0.0614780033
 40
0.1291586662
 40
0.2025429257
 40
0.2808336398
 40
0.3632485377
 40
0.449057599
 40
0.5375926221
 40
0.6282342422
 40
0.7203896159
 40
0.813467532
 40
0.9068812199
 40
1.0
 40
1.0
 40
1.0
 40
1.0
 10
15.541351552
 20
-23.7905696528
 30
0.0
 10
15.5321291312
 20
-23.7905056178
 30
0.0
 10
15.5127709294
 20
-23.7880777929
 30
0.0
 10
15.483411277
 20
-23.7800786599
 30
0.0
 10
15.4525520764
 20
-23.7685530698
 30
0.0
 10
15.4204711144
 20
-23.7542352027
 30
0.0
 10
15.3873849739
 20
-23.7376961428
 30
0.0
 10
15.3534895498
 20
-23.7193913937
 30
0.0
 10
15.3189561754
 20
-23.6996970806
 30
0.0
 10
15.283944064
 20
-23.6789346877
 30
0.0
 10
15.2486078654
 20
-23.6573901086
 30
0.0
 10
15.2131032414
 20
-23.635326603
 30
0.0
 10
15.1775949594
 20
-23.6129967127
 30
0.0
 10
15.1539452593
 20
-23.5980392697
 30
0.0
 10
15.1421390926
 20
-23.5905723943
 30
0.0
 11
15.541351552
 21
-23.7905696528
 31
0.0
 11
15.51384467
 21
-23.7875887542
 31
0.0
 11
15.4843768311
 21
-23.7798801731
 31
0.0
 11
15.4533714063
 21
-23.7685047778
 31
0.0
 11
15.4211442455
 21
-23.7542613706
 31
0.0
 11
15.387929476
 21
-23.7377542841
 31
0.0
 11
15.3539208267
 21
-23.7194577379
 31
0.0
 11
15.3192868713
 21
-23.6997574882
 31
0.0
 11
15.2841820999
 21
-23.6789797216
 31
0.0
 11
15.2487567417
 21
-23.6574123918
 31
0.0
 11
15.2131658118
 21
-23.6353216058
 31
0.0
 11
15.1775671466
 21
-23.6129579072
 31
0.0
 11
15.1421390926
 21
-23.5905723943
 31
0.0
  0
SPLINE
  5
610
100
AcDbEntity
  8
PORTATASTO
100
AcDbSpline
 62
7
  6
CONTINUOUS
 70
0
 71
3
 72
19
 73
15
 74
13
 42
0.0000001
 43
0.0000001
 44
0.0000000001
 12
-0.4500351504
 22
-0.0031247734
 32
0.0
 13
-0.3803582905
 23
-0.240559705
 33
0.0
 40
0.0
 40
0.0
 40
0.0
 40
0.0
 40
0.0614780033
 40
0.1291586662
 40
0.2025429257
 40
0.2808336398
 40
0.3632485377
 40
0.449057599
 40
0.5375926221
 40
0.6282342422
 40
0.7203896159
 40
0.813467532
 40
0.9068812199
 40
1.0
 40
1.0
 40
1.0
 40
1.0
 10
-6.958648448
 20
23.7905696528
 30
0.0
 10
-6.9678708688
 20
23.7905056178
 30
0.0
 10
-6.9872290706
 20
23.7880777929
 30
0.0
 10
-7.016588723
 20
23.7800786599
 30
0.0
 10
-7.0474479236
 20
23.7685530698
 30
0.0
 10
-7.0795288856
 20
23.7542352027
 30
0.0
 10
-7.1126150261
 20
23.7376961428
 30
0.0
 10
-7.1465104502
 20
23.7193913937
 30
0.0
 10
-7.1810438246
 20
23.6996970806
 30
0.0
 10
-7.216055936
 20
23.6789346877
 30
0.0
 10
-7.2513921346
 20
23.6573901086
 30
0.0
 10
-7.2868967586
 20
23.635326603
 30
0.0
 10
-7.3224050406
 20
23.6129967127
 30
0.0
 10
-7.3460547407
 20
23.5980392697
 30
0.0
 10
-7.3578609074
 20
23.5905723943
 30
0.0
 11
-6.958648448
 21
23.7905696528
 31
0.0
 11
-6.98615533
 21
23.7875887542
 31
0.0
 11
-7.0156231689
 21
23.7798801731
 31
0.0
 11
-7.0466285937
 21
23.7685047778
 31
0.0
 11
-7.0788557545
 21
23.7542613706
 31
0.0
 11
-7.112070524
 21
23.7377542841
 31
0.0
 11
-7.1460791733
 21
23.7194577379
 31
0.0
 11
-7.1807131287
 21
23.6997574882
 31
0.0
 11
-7.2158179001
 21
23.6789797216
 31
0.0
 11
-7.2512432583
 21
23.6574123918
 31
0.0
 11
-7.2868341882
 21
23.6353216058
 31
0.0
 11
-7.3224328534
 21
23.6129579072
 31
0.0
 11
-7.3578609074
 21
23.5905723943
 31
0.0
  0
SPLINE
  5
611
100
AcDbEntity
  8
PORTATASTO
100
AcDbSpline
 62
7
  6
CONTINUOUS
 70
0
 71
3
 72
19
 73
15
 74
13
 42
0.0000001
 43
0.0000001
 44
0.0000000001
 12
0.4500351504
 22
0.0031247734
 32
0.0
 13
0.3803582905
 23
0.240559705
 33
0.0
 40
0.0
 40
0.0
 40
0.0
 40
0.0
 40
0.0614780033
 40
0.1291586662
 40
0.2025429257
 40
0.2808336398
 40
0.3632485377
 40
0.449057599
 40
0.5375926221
 40
0.6282342422
 40
0.7203896159
 40
0.813467532
 40
0.9068812199
 40
1.0
 40
1.0
 40
1.0
 40
1.0
 10
-15.541351552
 20
-23.7905696528
 30
0.0
 10
-15.5321291312
 20
-23.7905056178
 30
0.0
 10
-15.5127709294
 20
-23.7880777929
 30
0.0
 10
-15.483411277
 20
-23.7800786599
 30
0.0
 10
-15.4525520764
 20
-23.7685530698
 30
0.0
 10
-15.4204711144
 20
-23.7542352027
 30
0.0
 10
-15.3873849739
 20
-23.7376961428
 30
0.0
 10
-15.3534895498
 20
-23.7193913937
 30
0.0
 10
-15.3189561754
 20
-23.6996970806
 30
0.0
 10
-15.283944064
 20
-23.6789346877
 30
0.0
 10
-15.2486078654
 20
-23.6573901086
 30
0.0
 10
-15.2131032414
 20
-23.635326603
 30
0.0
 10
-15.1775949594
 20
-23.6129967127
 30
0.0
 10
-15.1539452593
 20
-23.5980392697
 30
0.0
 10
-15.1421390926
 20
-23.5905723943
 30
0.0
 11
-15.541351552
 21
-23.7905696528
 31
0.0
 11
-15.51384467
 21
-23.7875887542
 31
0.0
 11
-15.4843768311
 21
-23.7798801731
 31
0.0
 11
-15.4533714063
 21
-23.7685047778
 31
0.0
 11
-15.4211442455
 21
-23.7542613706
 31
0.0
 11
-15.387929476
 21
-23.7377542841
 31
0.0
 11
-15.3539208267
 21
-23.7194577379
 31
0.0
 11
-15.3192868713
 21
-23.6997574882
 31
0.0
 11
-15.2841820999
 21
-23.6789797216
 31
0.0
 11
-15.2487567417
 21
-23.6574123918
 31
0.0
 11
-15.2131658118
 21
-23.6353216058
 31
0.0
 11
-15.1775671466
 21
-23.6129579072
 31
0.0
 11
-15.1421390926
 21
-23.5905723943
 31
0.0
  0
SPLINE
  5
612
100
AcDbEntity
  8
PORTATASTO
100
AcDbSpline
 62
7
  6
CONTINUOUS
 70
0
 71
3
 72
19
 73
15
 74
13
 42
0.0000001
 43
0.0000001
 44
0.0000000001
 12
-0.4500351504
 22
0.0031247734
 32
0.0
 13
-0.3803582905
 23
0.240559705
 33
0.0
 40
0.0
 40
0.0
 40
0.0
 40
0.0
 40
0.0614780033
 40
0.1291586662
 40
0.2025429257
 40
0.2808336398
 40
0.3632485377
 40
0.449057599
 40
0.5375926221
 40
0.6282342422
 40
0.7203896159
 40
0.813467532
 40
0.9068812199
 40
1.0
 40
1.0
 40
1.0
 40
1.0
 10
-6.958648448
 20
-23.7905696528
 30
0.0
 10
-6.9678708688
 20
-23.7905056178
 30
0.0
 10
-6.9872290706
 20
-23.7880777929
 30
0.0
 10
-7.016588723
 20
-23.7800786599
 30
0.0
 10
-7.0474479236
 20
-23.7685530698
 30
0.0
 10
-7.0795288856
 20
-23.7542352027
 30
0.0
 10
-7.1126150261
 20
-23.7376961428
 30
0.0
 10
-7.1465104502
 20
-23.7193913937
 30
0.0
 10
-7.1810438246
 20
-23.6996970806
 30
0.0
 10
-7.216055936
 20
-23.6789346877
 30
0.0
 10
-7.2513921346
 20
-23.6573901086
 30
0.0
 10
-7.2868967586
 20
-23.635326603
 30
0.0
 10
-7.3224050406
 20
-23.6129967127
 30
0.0
 10
-7.3460547407
 20
-23.5980392697
 30
0.0
 10
-7.3578609074
 20
-23.5905723943
 30
0.0
 11
-6.958648448
 21
-23.7905696528
 31
0.0
 11
-6.98615533
 21
-23.7875887542
 31
0.0
 11
-7.0156231689
 21
-23.7798801731
 31
0.0
 11
-7.0466285937
 21
-23.7685047778
 31
0.0
 11
-7.0788557545
 21
-23.7542613706
 31
0.0
 11
-7.112070524
 21
-23.7377542841
 31
0.0
 11
-7.1460791733
 21
-23.7194577379
 31
0.0
 11
-7.1807131287
 21
-23.6997574882
 31
0.0
 11
-7.2158179001
 21
-23.6789797216
 31
0.0
 11
-7.2512432583
 21
-23.6574123918
 31
0.0
 11
-7.2868341882
 21
-23.6353216058
 31
0.0
 11
-7.3224328534
 21
-23.6129579072
 31
0.0
 11
-7.3578609074
 21
-23.5905723943
 31
0.0
  0
SPLINE
  5
613
100
AcDbEntity
  8
PORTATASTO
100
AcDbSpline
 62
253
  6
CONTINUOUS
 70
0
 71
3
 72
16
 73
12
 74
10
 42
0.0000001
 43
0.0000001
 44
0.0000000001
 12
0.003926422
 22
0.4329979722
 32
0.0
 13
-0.0000008708
 23
0.4330157742
 33
0.0
 40
0.0
 40
0.0
 40
0.0
 40
0.0
 40
0.0731609897
 40
0.1595639282
 40
0.2576620814
 40
0.3655989661
 40
0.4818416237
 40
0.6053818927
 40
0.7346688153
 40
0.8670248755
 40
1.0
 40
1.0
 40
1.0
 40
1.0
 10
2.9369030571
 20
-23.5113248654
 30
0.0
 10
2.9369988107
 20
-23.5007653453
 30
0.0
 10
2.9371783685
 20
-23.4777347939
 30
0.0
 10
2.9374071411
 20
-23.4405449054
 30
0.0
 10
2.9376131796
 20
-23.3983353129
 30
0.0
 10
2.9377926309
 20
-23.351818544
 30
0.0
 10
2.9379429736
 20
-23.3016293759
 30
0.0
 10
2.9380622754
 20
-23.2483584828
 30
0.0
 10
2.9381486095
 20
-23.1927617377
 30
0.0
 10
2.9382005401
 20
-23.1358031362
 30
0.0
 10
2.9382121046
 20
-23.0975056057
 30
0.0
 10
2.938212066
 20
-23.0783121635
 30
0.0
 11
2.9369030571
 21
-23.5113248654
 31
0.0
 11
2.9371555029
 21
-23.4796460086
 31
0.0
 11
2.9373893393
 21
-23.4422329041
 31
0.0
 11
2.9375993475
 21
-23.3997553754
 31
0.0
 11
2.9377815383
 21
-23.3530173569
 31
0.0
 11
2.9379336693
 21
-23.3026826824
 31
0.0
 11
2.9380544348
 21
-23.2491879335
 31
0.0
 11
2.9381420096
 21
-23.1932047251
 31
0.0
 11
2.9381946478
 21
-23.1358924873
 31
0.0
 11
2.938212066
 21
-23.0783121635
 31
0.0
  0
SPLINE
  5
614
100
AcDbEntity
  8
PORTATASTO
100
AcDbSpline
 62
253
  6
CONTINUOUS
 70
0
 71
3
 72
16
 73
12
 74
10
 42
0.0000001
 43
0.0000001
 44
0.0000000001
 12
0.0000008704
 22
0.4330157742
 32
0.0
 13
-0.0039264321
 23
0.4329979721
 33
0.0
 40
0.0
 40
0.0
 40
0.0
 40
0.0
 40
0.1329751245
 40
0.2653311846
 40
0.3946181073
 40
0.5181583762
 40
0.634401034
 40
0.7423379184
 40
0.8404360722
 40
0.9268390095
 40
1.0
 40
1.0
 40
1.0
 40
1.0
 10
2.938212066
 20
23.0783121635
 30
0.0
 10
2.9382121045
 20
23.0975056057
 30
0.0
 10
2.9382005401
 20
23.1358031362
 30
0.0
 10
2.9381486095
 20
23.1927617377
 30
0.0
 10
2.9380622754
 20
23.2483584828
 30
0.0
 10
2.9379429735
 20
23.301629376
 30
0.0
 10
2.9377926309
 20
23.351818544
 30
0.0
 10
2.9376131795
 20
23.398335313
 30
0.0
 10
2.9374071411
 20
23.4405449053
 30
0.0
 10
2.9371783683
 20
23.4777347938
 30
0.0
 10
2.9369988109
 20
23.5007653452
 30
0.0
 10
2.9369030571
 20
23.5113248654
 30
0.0
 11
2.938212066
 21
23.0783121635
 31
0.0
 11
2.9381946478
 21
23.1358924874
 31
0.0
 11
2.9381420096
 21
23.1932047251
 31
0.0
 11
2.9380544348
 21
23.2491879335
 31
0.0
 11
2.9379336693
 21
23.3026826824
 31
0.0
 11
2.9377815383
 21
23.3530173569
 31
0.0
 11
2.9375993475
 21
23.3997553754
 31
0.0
 11
2.9373893393
 21
23.4422329043
 31
0.0
 11
2.9371555029
 21
23.4796460083
 31
0.0
 11
2.9369030571
 21
23.5113248654
 31
0.0
  0
SPLINE
  5
615
100
AcDbEntity
  8
PORTATASTO
100
AcDbSpline
 62
253
  6
CONTINUOUS
 70
0
 71
3
 72
16
 73
12
 74
10
 42
0.0000001
 43
0.0000001
 44
0.0000000001
 12
-0.0000008704
 22
-0.4330157742
 32
0.0
 13
0.0039264321
 23
-0.4329979721
 33
0.0
 40
0.0
 40
0.0
 40
0.0
 40
0.0
 40
0.1329751245
 40
0.2653311846
 40
0.3946181073
 40
0.5181583762
 40
0.634401034
 40
0.7423379184
 40
0.8404360722
 40
0.9268390095
 40
1.0
 40
1.0
 40
1.0
 40
1.0
 10
0.686787934
 20
-23.0783121635
 30
0.0
 10
0.6867878955
 20
-23.0975056057
 30
0.0
 10
0.6867994599
 20
-23.1358031362
 30
0.0
 10
0.6868513905
 20
-23.1927617377
 30
0.0
 10
0.6869377246
 20
-23.2483584828
 30
0.0
 10
0.6870570265
 20
-23.301629376
 30
0.0
 10
0.6872073691
 20
-23.351818544
 30
0.0
 10
0.6873868205
 20
-23.398335313
 30
0.0
 10
0.6875928589
 20
-23.4405449053
 30
0.0
 10
0.6878216317
 20
-23.4777347938
 30
0.0
 10
0.6880011891
 20
-23.5007653452
 30
0.0
 10
0.6880969429
 20
-23.5113248654
 30
0.0
 11
0.686787934
 21
-23.0783121635
 31
0.0
 11
0.6868053522
 21
-23.1358924874
 31
0.0
 11
0.6868579904
 21
-23.1932047251
 31
0.0
 11
0.6869455652
 21
-23.2491879335
 31
0.0
 11
0.6870663307
 21
-23.3026826824
 31
0.0
 11
0.6872184617
 21
-23.3530173569
 31
0.0
 11
0.6874006525
 21
-23.3997553754
 31
0.0
 11
0.6876106607
 21
-23.4422329043
 31
0.0
 11
0.6878444971
 21
-23.4796460083
 31
0.0
 11
0.6880969429
 21
-23.5113248654
 31
0.0
  0
SPLINE
  5
616
100
AcDbEntity
  8
PORTATASTO
100
AcDbSpline
 62
253
  6
CONTINUOUS
 70
0
 71
3
 72
16
 73
12
 74
10
 42
0.0000001
 43
0.0000001
 44
0.0000000001
 12
-0.003926422
 22
-0.4329979722
 32
0.0
 13
0.0000008708
 23
-0.4330157742
 33
0.0
 40
0.0
 40
0.0
 40
0.0
 40
0.0
 40
0.0731609897
 40
0.1595639282
 40
0.2576620814
 40
0.3655989661
 40
0.4818416237
 40
0.6053818927
 40
0.7346688153
 40
0.8670248755
 40
1.0
 40
1.0
 40
1.0
 40
1.0
 10
0.6880969429
 20
23.5113248654
 30
0.0
 10
0.6880011893
 20
23.5007653453
 30
0.0
 10
0.6878216315
 20
23.4777347939
 30
0.0
 10
0.6875928589
 20
23.4405449054
 30
0.0
 10
0.6873868204
 20
23.3983353129
 30
0.0
 10
0.6872073691
 20
23.351818544
 30
0.0
 10
0.6870570264
 20
23.3016293759
 30
0.0
 10
0.6869377246
 20
23.2483584828
 30
0.0
 10
0.6868513905
 20
23.1927617377
 30
0.0
 10
0.6867994599
 20
23.1358031362
 30
0.0
 10
0.6867878954
 20
23.0975056057
 30
0.0
 10
0.686787934
 20
23.0783121635
 30
0.0
 11
0.6880969429
 21
23.5113248654
 31
0.0
 11
0.6878444971
 21
23.4796460086
 31
0.0
 11
0.6876106607
 21
23.4422329041
 31
0.0
 11
0.6874006525
 21
23.3997553754
 31
0.0
 11
0.6872184617
 21
23.3530173569
 31
0.0
 11
0.6870663307
 21
23.3026826824
 31
0.0
 11
0.6869455652
 21
23.2491879335
 31
0.0
 11
0.6868579904
 21
23.1932047251
 31
0.0
 11
0.6868053522
 21
23.1358924873
 31
0.0
 11
0.686787934
 21
23.0783121635
 31
0.0
  0
SPLINE
  5
617
100
AcDbEntity
  8
PORTATASTO
100
AcDbSpline
 62
253
  6
CONTINUOUS
 70
0
 71
3
 72
16
 73
12
 74
10
 42
0.0000001
 43
0.0000001
 44
0.0000000001
 12
-0.0000008704
 22
-0.4330157742
 32
0.0
 13
0.0039264321
 23
-0.4329979721
 33
0.0
 40
0.0
 40
0.0
 40
0.0
 40
0.0
 40
0.1329751245
 40
0.2653311846
 40
0.3946181073
 40
0.5181583762
 40
0.634401034
 40
0.7423379184
 40
0.8404360722
 40
0.9268390095
 40
1.0
 40
1.0
 40
1.0
 40
1.0
 10
19.561787934
 20
-23.0783121635
 30
0.0
 10
19.5617878955
 20
-23.0975056057
 30
0.0
 10
19.5617994599
 20
-23.1358031362
 30
0.0
 10
19.5618513905
 20
-23.1927617377
 30
0.0
 10
19.5619377246
 20
-23.2483584828
 30
0.0
 10
19.5620570265
 20
-23.301629376
 30
0.0
 10
19.5622073691
 20
-23.351818544
 30
0.0
 10
19.5623868205
 20
-23.398335313
 30
0.0
 10
19.5625928589
 20
-23.4405449053
 30
0.0
 10
19.5628216317
 20
-23.4777347938
 30
0.0
 10
19.5630011891
 20
-23.5007653452
 30
0.0
 10
19.5630969429
 20
-23.5113248654
 30
0.0
 11
19.561787934
 21
-23.0783121635
 31
0.0
 11
19.5618053522
 21
-23.1358924874
 31
0.0
 11
19.5618579904
 21
-23.1932047251
 31
0.0
 11
19.5619455652
 21
-23.2491879335
 31
0.0
 11
19.5620663307
 21
-23.3026826824
 31
0.0
 11
19.5622184617
 21
-23.3530173569
 31
0.0
 11
19.5624006525
 21
-23.3997553754
 31
0.0
 11
19.5626106607
 21
-23.4422329043
 31
0.0
 11
19.5628444971
 21
-23.4796460083
 31
0.0
 11
19.5630969429
 21
-23.5113248654
 31
0.0
  0
SPLINE
  5
618
100
AcDbEntity
  8
PORTATASTO
100
AcDbSpline
 62
253
  6
CONTINUOUS
 70
0
 71
3
 72
16
 73
12
 74
10
 42
0.0000001
 43
0.0000001
 44
0.0000000001
 12
-0.003926422
 22
-0.4329979722
 32
0.0
 13
0.0000008708
 23
-0.4330157742
 33
0.0
 40
0.0
 40
0.0
 40
0.0
 40
0.0
 40
0.0731609897
 40
0.1595639282
 40
0.2576620814
 40
0.3655989661
 40
0.4818416237
 40
0.6053818927
 40
0.7346688153
 40
0.8670248755
 40
1.0
 40
1.0
 40
1.0
 40
1.0
 10
19.5630969429
 20
23.5113248654
 30
0.0
 10
19.5630011893
 20
23.5007653453
 30
0.0
 10
19.5628216315
 20
23.4777347939
 30
0.0
 10
19.5625928589
 20
23.4405449054
 30
0.0
 10
19.5623868204
 20
23.3983353129
 30
0.0
 10
19.5622073691
 20
23.351818544
 30
0.0
 10
19.5620570264
 20
23.3016293759
 30
0.0
 10
19.5619377246
 20
23.2483584828
 30
0.0
 10
19.5618513905
 20
23.1927617377
 30
0.0
 10
19.5617994599
 20
23.1358031362
 30
0.0
 10
19.5617878954
 20
23.0975056057
 30
0.0
 10
19.561787934
 20
23.0783121635
 30
0.0
 11
19.5630969429
 21
23.5113248654
 31
0.0
 11
19.5628444971
 21
23.4796460086
 31
0.0
 11
19.5626106607
 21
23.4422329041
 31
0.0
 11
19.5624006525
 21
23.3997553754
 31
0.0
 11
19.5622184617
 21
23.3530173569
 31
0.0
 11
19.5620663307
 21
23.3026826824
 31
0.0
 11
19.5619455652
 21
23.2491879335
 31
0.0
 11
19.5618579904
 21
23.1932047251
 31
0.0
 11
19.5618053522
 21
23.1358924873
 31
0.0
 11
19.561787934
 21
23.0783121635
 31
0.0
  0
SPLINE
  5
619
100
AcDbEntity
  8
PORTATASTO
100
AcDbSpline
 62
253
  6
CONTINUOUS
 70
0
 71
3
 72
16
 73
12
 74
10
 42
0.0000001
 43
0.0000001
 44
0.0000000001
 12
0.003926422
 22
0.4329979722
 32
0.0
 13
-0.0000008708
 23
0.4330157742
 33
0.0
 40
0.0
 40
0.0
 40
0.0
 40
0.0
 40
0.0731609897
 40
0.1595639282
 40
0.2576620814
 40
0.3655989661
 40
0.4818416237
 40
0.6053818927
 40
0.7346688153
 40
0.8670248755
 40
1.0
 40
1.0
 40
1.0
 40
1.0
 10
21.8119030571
 20
-23.5113248654
 30
0.0
 10
21.8119988107
 20
-23.5007653453
 30
0.0
 10
21.8121783685
 20
-23.4777347939
 30
0.0
 10
21.8124071411
 20
-23.4405449054
 30
0.0
 10
21.8126131796
 20
-23.3983353129
 30
0.0
 10
21.8127926309
 20
-23.351818544
 30
0.0
 10
21.8129429736
 20
-23.3016293759
 30
0.0
 10
21.8130622754
 20
-23.2483584828
 30
0.0
 10
21.8131486095
 20
-23.1927617377
 30
0.0
 10
21.8132005401
 20
-23.1358031362
 30
0.0
 10
21.8132121046
 20
-23.0975056057
 30
0.0
 10
21.813212066
 20
-23.0783121635
 30
0.0
 11
21.8119030571
 21
-23.5113248654
 31
0.0
 11
21.8121555029
 21
-23.4796460086
 31
0.0
 11
21.8123893393
 21
-23.4422329041
 31
0.0
 11
21.8125993475
 21
-23.3997553754
 31
0.0
 11
21.8127815383
 21
-23.3530173569
 31
0.0
 11
21.8129336693
 21
-23.3026826824
 31
0.0
 11
21.8130544348
 21
-23.2491879335
 31
0.0
 11
21.8131420096
 21
-23.1932047251
 31
0.0
 11
21.8131946478
 21
-23.1358924873
 31
0.0
 11
21.813212066
 21
-23.0783121635
 31
0.0
  0
SPLINE
  5
61A
100
AcDbEntity
  8
PORTATASTO
100
AcDbSpline
 62
253
  6
CONTINUOUS
 70
0
 71
3
 72
16
 73
12
 74
10
 42
0.0000001
 43
0.0000001
 44
0.0000000001
 12
0.0000008704
 22
0.4330157742
 32
0.0
 13
-0.0039264321
 23
0.4329979721
 33
0.0
 40
0.0
 40
0.0
 40
0.0
 40
0.0
 40
0.1329751245
 40
0.2653311846
 40
0.3946181073
 40
0.5181583762
 40
0.634401034
 40
0.7423379184
 40
0.8404360722
 40
0.9268390095
 40
1.0
 40
1.0
 40
1.0
 40
1.0
 10
21.813212066
 20
23.0783121635
 30
0.0
 10
21.8132121045
 20
23.0975056057
 30
0.0
 10
21.8132005401
 20
23.1358031362
 30
0.0
 10
21.8131486095
 20
23.1927617377
 30
0.0
 10
21.8130622754
 20
23.2483584828
 30
0.0
 10
21.8129429735
 20
23.301629376
 30
0.0
 10
21.8127926309
 20
23.351818544
 30
0.0
 10
21.8126131795
 20
23.398335313
 30
0.0
 10
21.8124071411
 20
23.4405449053
 30
0.0
 10
21.8121783683
 20
23.4777347938
 30
0.0
 10
21.8119988109
 20
23.5007653452
 30
0.0
 10
21.8119030571
 20
23.5113248654
 30
0.0
 11
21.813212066
 21
23.0783121635
 31
0.0
 11
21.8131946478
 21
23.1358924874
 31
0.0
 11
21.8131420096
 21
23.1932047251
 31
0.0
 11
21.8130544348
 21
23.2491879335
 31
0.0
 11
21.8129336693
 21
23.3026826824
 31
0.0
 11
21.8127815383
 21
23.3530173569
 31
0.0
 11
21.8125993475
 21
23.3997553754
 31
0.0
 11
21.8123893393
 21
23.4422329043
 31
0.0
 11
21.8121555029
 21
23.4796460083
 31
0.0
 11
21.8119030571
 21
23.5113248654
 31
0.0
  0
SPLINE
  5
61B
100
AcDbEntity
  8
PORTATASTO
100
AcDbSpline
 62
7
  6
CONTINUOUS
 70
0
 71
3
 72
19
 73
15
 74
13
 42
0.0000001
 43
0.0000001
 44
0.0000000001
 12
0.4500351504
 22
-0.0031247734
 32
0.0
 13
0.3803582905
 23
-0.240559705
 33
0.0
 40
0.0
 40
0.0
 40
0.0
 40
0.0
 40
0.0614780033
 40
0.1291586662
 40
0.2025429257
 40
0.2808336398
 40
0.3632485377
 40
0.449057599
 40
0.5375926221
 40
0.6282342422
 40
0.7203896159
 40
0.813467532
 40
0.9068812199
 40
1.0
 40
1.0
 40
1.0
 40
1.0
 10
-15.541351552
 20
23.7905696528
 30
0.0
 10
-15.5321291312
 20
23.7905056178
 30
0.0
 10
-15.5127709294
 20
23.7880777929
 30
0.0
 10
-15.483411277
 20
23.7800786599
 30
0.0
 10
-15.4525520764
 20
23.7685530698
 30
0.0
 10
-15.4204711144
 20
23.7542352027
 30
0.0
 10
-15.3873849739
 20
23.7376961428
 30
0.0
 10
-15.3534895498
 20
23.7193913937
 30
0.0
 10
-15.3189561754
 20
23.6996970806
 30
0.0
 10
-15.283944064
 20
23.6789346877
 30
0.0
 10
-15.2486078654
 20
23.6573901086
 30
0.0
 10
-15.2131032414
 20
23.635326603
 30
0.0
 10
-15.1775949594
 20
23.6129967127
 30
0.0
 10
-15.1539452593
 20
23.5980392697
 30
0.0
 10
-15.1421390926
 20
23.5905723943
 30
0.0
 11
-15.541351552
 21
23.7905696528
 31
0.0
 11
-15.51384467
 21
23.7875887542
 31
0.0
 11
-15.4843768311
 21
23.7798801731
 31
0.0
 11
-15.4533714063
 21
23.7685047778
 31
0.0
 11
-15.4211442455
 21
23.7542613706
 31
0.0
 11
-15.387929476
 21
23.7377542841
 31
0.0
 11
-15.3539208267
 21
23.7194577379
 31
0.0
 11
-15.3192868713
 21
23.6997574882
 31
0.0
 11
-15.2841820999
 21
23.6789797216
 31
0.0
 11
-15.2487567417
 21
23.6574123918
 31
0.0
 11
-15.2131658118
 21
23.6353216058
 31
0.0
 11
-15.1775671466
 21
23.6129579072
 31
0.0
 11
-15.1421390926
 21
23.5905723943
 31
0.0
  0
SPLINE
  5
61C
100
AcDbEntity
  8
PORTATASTO
100
AcDbSpline
 62
253
  6
CONTINUOUS
 70
0
 71
3
 72
18
 73
14
 74
12
 42
0.0000001
 43
0.0000001
 44
0.0000000001
 12
-0.3662499093
 22
-0.0008303874
 32
0.0
 13
-0.0011071506
 23
-0.3662491772
 33
0.0
 40
0.0
 40
0.0
 40
0.0
 40
0.0
 40
0.0971872096
 40
0.1939133523
 40
0.2897218612
 40
0.3842163772
 40
0.4770935418
 40
0.5681682897
 40
0.6573939174
 40
0.7448759241
 40
0.8308652934
 40
0.915759618
 40
1.0
 40
1.0
 40
1.0
 40
1.0
 10
19.8170205427
 20
-23.7278312164
 30
0.0
 10
19.8051556071
 20
-23.7278581174
 30
0.0
 10
19.781459169
 20
-23.7293732367
 30
0.0
 10
19.7466242724
 20
-23.7359886464
 30
0.0
 10
19.7131968445
 20
-23.7468150334
 30
0.0
 10
19.6818563178
 20
-23.7616392955
 30
0.0
 10
19.6532334137
 20
-23.7801694443
 30
0.0
 10
19.627909548
 20
-23.8020397445
 30
0.0
 10
19.606403056
 20
-23.8268171064
 30
0.0
 10
19.589160234
 20
-23.854005759
 30
0.0
 10
19.5765441582
 20
-23.8830604284
 30
0.0
 10
19.5688269916
 20
-23.9133703205
 30
0.0
 10
19.5670550586
 20
-23.9340532438
 30
0.0
 10
19.5670239696
 20
-23.9443375673
 30
0.0
 11
19.8170205427
 21
-23.7278312164
 31
0.0
 11
19.7814985647
 21
-23.7301084639
 31
0.0
 11
19.7466974106
 21
-23.7367329201
 31
0.0
 11
19.7133229334
 21
-23.7475702957
 31
0.0
 11
19.6820527672
 21
-23.7624006231
 31
0.0
 11
19.6535214729
 21
-23.780922952
 31
0.0
 11
19.6283080261
 21
-23.8027614143
 31
0.0
 11
19.6069242019
 21
-23.8274726794
 31
0.0
 11
19.589803758
 21
-23.8545554235
 31
0.0
 11
19.5772947174
 21
-23.8834582912
 31
0.0
 11
19.5696497303
 21
-23.9135963917
 31
0.0
 11
19.5670239696
 21
-23.9443375673
 31
0.0
  0
SPLINE
  5
61D
100
AcDbEntity
  8
PORTATASTO
100
AcDbSpline
 62
253
  6
CONTINUOUS
 70
0
 71
3
 72
18
 73
14
 74
12
 42
0.0000001
 43
0.0000001
 44
0.0000000001
 12
-0.0011071506
 22
0.3662491663
 32
0.0
 13
-0.3662498983
 23
0.0008303874
 33
0.0
 40
0.0
 40
0.0
 40
0.0
 40
0.0
 40
0.0842955547
 40
0.169189152
 40
0.2551780173
 40
0.3426543807
 40
0.4318741974
 40
0.5229422751
 40
0.6158124279
 40
0.7102995819
 40
0.8061004335
 40
0.9028197334
 40
1.0
 40
1.0
 40
1.0
 40
1.0
 10
21.8079760304
 20
-23.9443375673
 30
0.0
 10
21.8079449211
 20
-23.9340465084
 30
0.0
 10
21.806171278
 20
-23.9133568659
 30
0.0
 10
21.7984492968
 20
-23.8830414104
 30
0.0
 10
21.7858306605
 20
-23.853988775
 30
0.0
 10
21.768586212
 20
-23.8268029233
 30
0.0
 10
21.7470793439
 20
-23.8020288588
 30
0.0
 10
21.7217559823
 20
-23.7801616637
 30
0.0
 10
21.6931343891
 20
-23.76163427
 30
0.0
 10
21.6617958043
 20
-23.7468122547
 30
0.0
 10
21.6283706872
 20
-23.7359874758
 30
0.0
 10
21.5935382942
 20
-23.7293730223
 30
0.0
 10
21.5698435449
 20
-23.7278581154
 30
0.0
 10
21.5579794573
 20
-23.7278312164
 30
0.0
 11
21.8079760304
 21
-23.9443375673
 31
0.0
 11
21.805346897
 21
-23.9135764002
 31
0.0
 11
21.7976988191
 21
-23.8834393596
 31
0.0
 11
21.7851869717
 21
-23.854537909
 31
0.0
 11
21.7680652133
 21
-23.8274584424
 31
0.0
 11
21.7466809344
 21
-23.8027503867
 31
0.0
 11
21.7214680099
 21
-23.7809150543
 31
0.0
 11
21.6929379958
 21
-23.7623954716
 31
0.0
 11
21.6616697497
 21
-23.7475673906
 31
0.0
 11
21.6282976866
 21
-23.7367316644
 31
0.0
 11
21.5934989066
 21
-23.7301081438
 31
0.0
 11
21.5579794573
 21
-23.7278312164
 31
0.0
  0
SPLINE
  5
61E
100
AcDbEntity
  8
PORTATASTO
100
AcDbSpline
 62
253
  6
CONTINUOUS
 70
0
 71
3
 72
18
 73
14
 74
12
 42
0.0000001
 43
0.0000001
 44
0.0000000001
 12
0.3662499093
 22
0.0008303874
 32
0.0
 13
0.0011071506
 23
0.3662491772
 33
0.0
 40
0.0
 40
0.0
 40
0.0
 40
0.0
 40
0.0971872096
 40
0.1939133523
 40
0.2897218612
 40
0.3842163772
 40
0.4770935418
 40
0.5681682897
 40
0.6573939174
 40
0.7448759241
 40
0.8308652934
 40
0.915759618
 40
1.0
 40
1.0
 40
1.0
 40
1.0
 10
21.5579794573
 20
23.7278312164
 30
0.0
 10
21.5698443929
 20
23.7278581174
 30
0.0
 10
21.593540831
 20
23.7293732367
 30
0.0
 10
21.6283757276
 20
23.7359886464
 30
0.0
 10
21.6618031555
 20
23.7468150334
 30
0.0
 10
21.6931436822
 20
23.7616392955
 30
0.0
 10
21.7217665863
 20
23.7801694443
 30
0.0
 10
21.747090452
 20
23.8020397445
 30
0.0
 10
21.768596944
 20
23.8268171064
 30
0.0
 10
21.785839766
 20
23.854005759
 30
0.0
 10
21.7984558418
 20
23.8830604284
 30
0.0
 10
21.8061730084
 20
23.9133703205
 30
0.0
 10
21.8079449414
 20
23.9340532438
 30
0.0
 10
21.8079760304
 20
23.9443375673
 30
0.0
 11
21.5579794573
 21
23.7278312164
 31
0.0
 11
21.5935014353
 21
23.7301084639
 31
0.0
 11
21.6283025894
 21
23.7367329201
 31
0.0
 11
21.6616770666
 21
23.7475702957
 31
0.0
 11
21.6929472328
 21
23.7624006231
 31
0.0
 11
21.7214785271
 21
23.780922952
 31
0.0
 11
21.7466919739
 21
23.8027614143
 31
0.0
 11
21.7680757981
 21
23.8274726794
 31
0.0
 11
21.785196242
 21
23.8545554235
 31
0.0
 11
21.7977052826
 21
23.8834582912
 31
0.0
 11
21.8053502697
 21
23.9135963917
 31
0.0
 11
21.8079760304
 21
23.9443375673
 31
0.0
  0
SPLINE
  5
61F
100
AcDbEntity
  8
PORTATASTO
100
AcDbSpline
 62
253
  6
CONTINUOUS
 70
0
 71
3
 72
18
 73
14
 74
12
 42
0.0000001
 43
0.0000001
 44
0.0000000001
 12
0.0011071506
 22
-0.3662491663
 32
0.0
 13
0.3662498983
 23
-0.0008303874
 33
0.0
 40
0.0
 40
0.0
 40
0.0
 40
0.0
 40
0.0842955547
 40
0.169189152
 40
0.2551780173
 40
0.3426543807
 40
0.4318741974
 40
0.5229422751
 40
0.6158124279
 40
0.7102995819
 40
0.8061004335
 40
0.9028197334
 40
1.0
 40
1.0
 40
1.0
 40
1.0
 10
19.5670239696
 20
23.9443375673
 30
0.0
 10
19.5670550789
 20
23.9340465084
 30
0.0
 10
19.568828722
 20
23.9133568659
 30
0.0
 10
19.5765507032
 20
23.8830414104
 30
0.0
 10
19.5891693395
 20
23.853988775
 30
0.0
 10
19.606413788
 20
23.8268029233
 30
0.0
 10
19.6279206561
 20
23.8020288588
 30
0.0
 10
19.6532440177
 20
23.7801616637
 30
0.0
 10
19.6818656109
 20
23.76163427
 30
0.0
 10
19.7132041957
 20
23.7468122547
 30
0.0
 10
19.7466293128
 20
23.7359874758
 30
0.0
 10
19.7814617058
 20
23.7293730223
 30
0.0
 10
19.8051564551
 20
23.7278581154
 30
0.0
 10
19.8170205427
 20
23.7278312164
 30
0.0
 11
19.5670239696
 21
23.9443375673
 31
0.0
 11
19.569653103
 21
23.9135764002
 31
0.0
 11
19.5773011809
 21
23.8834393596
 31
0.0
 11
19.5898130283
 21
23.854537909
 31
0.0
 11
19.6069347867
 21
23.8274584424
 31
0.0
 11
19.6283190656
 21
23.8027503867
 31
0.0
 11
19.6535319901
 21
23.7809150543
 31
0.0
 11
19.6820620042
 21
23.7623954716
 31
0.0
 11
19.7133302503
 21
23.7475673906
 31
0.0
 11
19.7467023134
 21
23.7367316644
 31
0.0
 11
19.7815010934
 21
23.7301081438
 31
0.0
 11
19.8170205427
 21
23.7278312164
 31
0.0
  0
SPLINE
  5
620
100
AcDbEntity
  8
PORTATASTO
100
AcDbSpline
 62
253
  6
CONTINUOUS
 70
0
 71
3
 72
18
 73
14
 74
12
 42
0.0000001
 43
0.0000001
 44
0.0000000001
 12
0.3662499093
 22
0.0008303874
 32
0.0
 13
0.0011071506
 23
0.3662491772
 33
0.0
 40
0.0
 40
0.0
 40
0.0
 40
0.0
 40
0.0971872096
 40
0.1939133523
 40
0.2897218612
 40
0.3842163772
 40
0.4770935418
 40
0.5681682897
 40
0.6573939174
 40
0.7448759241
 40
0.8308652934
 40
0.915759618
 40
1.0
 40
1.0
 40
1.0
 40
1.0
 10
2.6829794573
 20
23.7278312164
 30
0.0
 10
2.6948443929
 20
23.7278581174
 30
0.0
 10
2.718540831
 20
23.7293732367
 30
0.0
 10
2.7533757276
 20
23.7359886464
 30
0.0
 10
2.7868031555
 20
23.7468150334
 30
0.0
 10
2.8181436822
 20
23.7616392955
 30
0.0
 10
2.8467665863
 20
23.7801694443
 30
0.0
 10
2.872090452
 20
23.8020397445
 30
0.0
 10
2.893596944
 20
23.8268171064
 30
0.0
 10
2.910839766
 20
23.854005759
 30
0.0
 10
2.9234558418
 20
23.8830604284
 30
0.0
 10
2.9311730084
 20
23.9133703205
 30
0.0
 10
2.9329449414
 20
23.9340532438
 30
0.0
 10
2.9329760304
 20
23.9443375673
 30
0.0
 11
2.6829794573
 21
23.7278312164
 31
0.0
 11
2.7185014353
 21
23.7301084639
 31
0.0
 11
2.7533025894
 21
23.7367329201
 31
0.0
 11
2.7866770666
 21
23.7475702957
 31
0.0
 11
2.8179472328
 21
23.7624006231
 31
0.0
 11
2.8464785271
 21
23.780922952
 31
0.0
 11
2.8716919739
 21
23.8027614143
 31
0.0
 11
2.8930757981
 21
23.8274726794
 31
0.0
 11
2.910196242
 21
23.8545554235
 31
0.0
 11
2.9227052826
 21
23.8834582912
 31
0.0
 11
2.9303502697
 21
23.9135963917
 31
0.0
 11
2.9329760304
 21
23.9443375673
 31
0.0
  0
SPLINE
  5
621
100
AcDbEntity
  8
PORTATASTO
100
AcDbSpline
 62
253
  6
CONTINUOUS
 70
0
 71
3
 72
18
 73
14
 74
12
 42
0.0000001
 43
0.0000001
 44
0.0000000001
 12
0.0011071506
 22
-0.3662491663
 32
0.0
 13
0.3662498983
 23
-0.0008303874
 33
0.0
 40
0.0
 40
0.0
 40
0.0
 40
0.0
 40
0.0842955547
 40
0.169189152
 40
0.2551780173
 40
0.3426543807
 40
0.4318741974
 40
0.5229422751
 40
0.6158124279
 40
0.7102995819
 40
0.8061004335
 40
0.9028197334
 40
1.0
 40
1.0
 40
1.0
 40
1.0
 10
0.6920239696
 20
23.9443375673
 30
0.0
 10
0.6920550789
 20
23.9340465084
 30
0.0
 10
0.693828722
 20
23.9133568659
 30
0.0
 10
0.7015507032
 20
23.8830414104
 30
0.0
 10
0.7141693395
 20
23.853988775
 30
0.0
 10
0.731413788
 20
23.8268029233
 30
0.0
 10
0.7529206561
 20
23.8020288588
 30
0.0
 10
0.7782440177
 20
23.7801616637
 30
0.0
 10
0.8068656109
 20
23.76163427
 30
0.0
 10
0.8382041957
 20
23.7468122547
 30
0.0
 10
0.8716293128
 20
23.7359874758
 30
0.0
 10
0.9064617058
 20
23.7293730223
 30
0.0
 10
0.9301564551
 20
23.7278581154
 30
0.0
 10
0.9420205427
 20
23.7278312164
 30
0.0
 11
0.6920239696
 21
23.9443375673
 31
0.0
 11
0.694653103
 21
23.9135764002
 31
0.0
 11
0.7023011809
 21
23.8834393596
 31
0.0
 11
0.7148130283
 21
23.854537909
 31
0.0
 11
0.7319347867
 21
23.8274584424
 31
0.0
 11
0.7533190656
 21
23.8027503867
 31
0.0
 11
0.7785319901
 21
23.7809150543
 31
0.0
 11
0.8070620042
 21
23.7623954716
 31
0.0
 11
0.8383302503
 21
23.7475673906
 31
0.0
 11
0.8717023134
 21
23.7367316644
 31
0.0
 11
0.9065010934
 21
23.7301081438
 31
0.0
 11
0.9420205427
 21
23.7278312164
 31
0.0
  0
SPLINE
  5
622
100
AcDbEntity
  8
PORTATASTO
100
AcDbSpline
 62
253
  6
CONTINUOUS
 70
0
 71
3
 72
18
 73
14
 74
12
 42
0.0000001
 43
0.0000001
 44
0.0000000001
 12
-0.3662499093
 22
-0.0008303874
 32
0.0
 13
-0.0011071506
 23
-0.3662491772
 33
0.0
 40
0.0
 40
0.0
 40
0.0
 40
0.0
 40
0.0971872096
 40
0.1939133523
 40
0.2897218612
 40
0.3842163772
 40
0.4770935418
 40
0.5681682897
 40
0.6573939174
 40
0.7448759241
 40
0.8308652934
 40
0.915759618
 40
1.0
 40
1.0
 40
1.0
 40
1.0
 10
0.9420205427
 20
-23.7278312164
 30
0.0
 10
0.9301556071
 20
-23.7278581174
 30
0.0
 10
0.906459169
 20
-23.7293732367
 30
0.0
 10
0.8716242724
 20
-23.7359886464
 30
0.0
 10
0.8381968445
 20
-23.7468150334
 30
0.0
 10
0.8068563178
 20
-23.7616392955
 30
0.0
 10
0.7782334137
 20
-23.7801694443
 30
0.0
 10
0.752909548
 20
-23.8020397445
 30
0.0
 10
0.731403056
 20
-23.8268171064
 30
0.0
 10
0.714160234
 20
-23.854005759
 30
0.0
 10
0.7015441582
 20
-23.8830604284
 30
0.0
 10
0.6938269916
 20
-23.9133703205
 30
0.0
 10
0.6920550586
 20
-23.9340532438
 30
0.0
 10
0.6920239696
 20
-23.9443375673
 30
0.0
 11
0.9420205427
 21
-23.7278312164
 31
0.0
 11
0.9064985647
 21
-23.7301084639
 31
0.0
 11
0.8716974106
 21
-23.7367329201
 31
0.0
 11
0.8383229334
 21
-23.7475702957
 31
0.0
 11
0.8070527672
 21
-23.7624006231
 31
0.0
 11
0.7785214729
 21
-23.780922952
 31
0.0
 11
0.7533080261
 21
-23.8027614143
 31
0.0
 11
0.7319242019
 21
-23.8274726794
 31
0.0
 11
0.714803758
 21
-23.8545554235
 31
0.0
 11
0.7022947174
 21
-23.8834582912
 31
0.0
 11
0.6946497303
 21
-23.9135963917
 31
0.0
 11
0.6920239696
 21
-23.9443375673
 31
0.0
  0
SPLINE
  5
623
100
AcDbEntity
  8
PORTATASTO
100
AcDbSpline
 62
253
  6
CONTINUOUS
 70
0
 71
3
 72
18
 73
14
 74
12
 42
0.0000001
 43
0.0000001
 44
0.0000000001
 12
-0.0011071506
 22
0.3662491663
 32
0.0
 13
-0.3662498983
 23
0.0008303874
 33
0.0
 40
0.0
 40
0.0
 40
0.0
 40
0.0
 40
0.0842955547
 40
0.169189152
 40
0.2551780173
 40
0.3426543807
 40
0.4318741974
 40
0.5229422751
 40
0.6158124279
 40
0.7102995819
 40
0.8061004335
 40
0.9028197334
 40
1.0
 40
1.0
 40
1.0
 40
1.0
 10
2.9329760304
 20
-23.9443375673
 30
0.0
 10
2.9329449211
 20
-23.9340465084
 30
0.0
 10
2.931171278
 20
-23.9133568659
 30
0.0
 10
2.9234492968
 20
-23.8830414104
 30
0.0
 10
2.9108306605
 20
-23.853988775
 30
0.0
 10
2.893586212
 20
-23.8268029233
 30
0.0
 10
2.8720793439
 20
-23.8020288588
 30
0.0
 10
2.8467559823
 20
-23.7801616637
 30
0.0
 10
2.8181343891
 20
-23.76163427
 30
0.0
 10
2.7867958043
 20
-23.7468122547
 30
0.0
 10
2.7533706872
 20
-23.7359874758
 30
0.0
 10
2.7185382942
 20
-23.7293730223
 30
0.0
 10
2.6948435449
 20
-23.7278581154
 30
0.0
 10
2.6829794573
 20
-23.7278312164
 30
0.0
 11
2.9329760304
 21
-23.9443375673
 31
0.0
 11
2.930346897
 21
-23.9135764002
 31
0.0
 11
2.9226988191
 21
-23.8834393596
 31
0.0
 11
2.9101869717
 21
-23.854537909
 31
0.0
 11
2.8930652133
 21
-23.8274584424
 31
0.0
 11
2.8716809344
 21
-23.8027503867
 31
0.0
 11
2.8464680099
 21
-23.7809150543
 31
0.0
 11
2.8179379958
 21
-23.7623954716
 31
0.0
 11
2.7866697497
 21
-23.7475673906
 31
0.0
 11
2.7532976866
 21
-23.7367316644
 31
0.0
 11
2.7184989066
 21
-23.7301081438
 31
0.0
 11
2.6829794573
 21
-23.7278312164
 31
0.0
  0
SPLINE
  5
624
100
AcDbEntity
  8
PORTATASTO
100
AcDbSpline
 62
253
  6
CONTINUOUS
 70
0
 71
3
 72
16
 73
12
 74
10
 42
0.0000001
 43
0.0000001
 44
0.0000000001
 12
-0.0039285617
 22
0.2164754792
 32
0.0
 13
0.0000000128
 23
0.2165111237
 33
0.0
 40
0.0
 40
0.0
 40
0.0
 40
0.0
 40
0.0732188971
 40
0.1596179091
 40
0.2577063374
 40
0.3656269884
 40
0.4818484537
 40
0.6053651317
 40
0.7346278457
 40
0.8669588964
 40
1.0
 40
1.0
 40
1.0
 40
1.0
 10
19.8130935168
 20
-23.294818558
 30
0.0
 10
19.8129976351
 20
-23.2895351927
 30
0.0
 10
19.8128181485
 20
-23.2780168689
 30
0.0
 10
19.8125893193
 20
-23.2594194936
 30
0.0
 10
19.8123833456
 20
-23.2383172777
 30
0.0
 10
19.8122039232
 20
-23.2150624579
 30
0.0
 10
19.8120536115
 20
-23.1899722318
 30
0.0
 10
19.8119343221
 20
-23.1633415599
 30
0.0
 10
19.8118479997
 20
-23.1355481208
 30
0.0
 10
19.8117960241
 20
-23.1070672149
 30
0.0
 10
19.8117845074
 20
-23.087915205
 30
0.0
 10
19.811784508
 20
-23.0783135788
 30
0.0
 11
19.8130935168
 21
-23.294818558
 31
0.0
 11
19.8128409135
 21
-23.2789678649
 31
0.0
 11
19.8126071253
 21
-23.2602629787
 31
0.0
 11
19.8123971645
 21
-23.2390267808
 31
0.0
 11
19.8122150124
 21
-23.2156614694
 31
0.0
 11
19.8120629113
 21
-23.190498689
 31
0.0
 11
19.8119421624
 21
-23.1637562269
 31
0.0
 11
19.8118545921
 21
-23.1357695484
 31
0.0
 11
19.8118019449
 21
-23.1071184523
 31
0.0
 11
19.811784508
 21
-23.0783135788
 31
0.0
  0
SPLINE
  5
625
100
AcDbEntity
  8
PORTATASTO
100
AcDbSpline
 62
253
  6
CONTINUOUS
 70
0
 71
3
 72
16
 73
12
 74
10
 42
0.0000001
 43
0.0000001
 44
0.0000000001
 12
0.0000000128
 22
-0.2165111267
 32
0.0
 13
-0.0039285624
 23
-0.2164754822
 33
0.0
 40
0.0
 40
0.0
 40
0.0
 40
0.0
 40
0.1330410941
 40
0.2653721429
 40
0.3946348552
 40
0.5181515314
 40
0.6343729951
 40
0.7422936446
 40
0.8403820716
 40
0.9267810823
 40
1.0
 40
1.0
 40
1.0
 40
1.0
 10
21.563215492
 20
-23.0783135804
 30
0.0
 10
21.5632154926
 20
-23.0879152062
 30
0.0
 10
21.5632039759
 20
-23.1070672154
 30
0.0
 10
21.5631520003
 20
-23.1355481208
 30
0.0
 10
21.5630656779
 20
-23.1633415599
 30
0.0
 10
21.5629463885
 20
-23.1899722318
 30
0.0
 10
21.5627960768
 20
-23.2150624579
 30
0.0
 10
21.5626166544
 20
-23.2383172777
 30
0.0
 10
21.5624106807
 20
-23.2594194936
 30
0.0
 10
21.5621818515
 20
-23.2780168704
 30
0.0
 10
21.5620023649
 20
-23.2895351958
 30
0.0
 10
21.5619064832
 20
-23.2948185626
 30
0.0
 11
21.563215492
 21
-23.0783135804
 31
0.0
 11
21.5631980551
 21
-23.1071184523
 31
0.0
 11
21.5631454079
 21
-23.1357695484
 31
0.0
 11
21.5630578376
 21
-23.1637562269
 31
0.0
 11
21.5629370887
 21
-23.190498689
 31
0.0
 11
21.5627849876
 21
-23.2156614694
 31
0.0
 11
21.5626028355
 21
-23.2390267808
 31
0.0
 11
21.5623928747
 21
-23.2602629787
 31
0.0
 11
21.5621590865
 21
-23.2789678649
 31
0.0
 11
21.5619064832
 21
-23.2948185626
 31
0.0
  0
SPLINE
  5
626
100
AcDbEntity
  8
PORTATASTO
100
AcDbSpline
 62
253
  6
CONTINUOUS
 70
0
 71
3
 72
18
 73
14
 74
12
 42
0.0000001
 43
0.0000001
 44
0.0000000001
 12
0.3662498989
 22
-0.0008303865
 32
0.0
 13
0.0011071506
 23
-0.3662491668
 33
0.0
 40
0.0
 40
0.0
 40
0.0
 40
0.0
 40
0.097180097
 40
0.1938992423
 40
0.2896999712
 40
0.3841870463
 40
0.4770571712
 40
0.5681252747
 40
0.6573451698
 40
0.7448216444
 40
0.8308106258
 40
0.9157043353
 40
1.0
 40
1.0
 40
1.0
 40
1.0
 10
21.5619064833
 20
-23.2948185145
 30
0.0
 10
21.5737705502
 20
-23.2948454135
 30
0.0
 10
21.5974652598
 20
-23.2963603152
 30
0.0
 10
21.632297601
 20
-23.3029747473
 30
0.0
 10
21.6657226819
 20
-23.3137994956
 30
0.0
 10
21.6970612512
 20
-23.3286214778
 30
0.0
 10
21.7256828506
 20
-23.3471488434
 30
0.0
 10
21.7510062377
 20
-23.3690160234
 30
0.0
 10
21.7725131432
 20
-23.3937900907
 30
0.0
 10
21.7897576307
 20
-23.4209759623
 30
0.0
 10
21.8023762989
 20
-23.4500286297
 30
0.0
 10
21.8100983
 20
-23.4803441232
 30
0.0
 10
21.8118719477
 20
-23.5010337931
 30
0.0
 10
21.8119030571
 20
-23.5113248654
 30
0.0
 11
21.5619064833
 21
-23.2948185145
 31
0.0
 11
21.5974258709
 21
-23.2970954341
 31
0.0
 11
21.6322245975
 21
-23.3037189329
 31
0.0
 11
21.6655966235
 21
-23.314554628
 31
0.0
 11
21.6968648535
 21
-23.3293826755
 31
0.0
 11
21.7253948737
 21
-23.3479022301
 31
0.0
 11
21.7506078237
 21
-23.3697375476
 31
0.0
 11
21.7719921413
 21
-23.3944456078
 31
0.0
 11
21.7891139402
 21
-23.4215250971
 31
0.0
 11
21.8016258194
 21
-23.4504265804
 31
0.0
 11
21.809273917
 21
-23.4805636584
 31
0.0
 11
21.8119030571
 21
-23.5113248654
 31
0.0
  0
SPLINE
  5
627
100
AcDbEntity
  8
PORTATASTO
100
AcDbSpline
 62
253
  6
CONTINUOUS
 70
0
 71
3
 72
16
 73
12
 74
10
 42
0.0000001
 43
0.0000001
 44
0.0000000001
 12
0.0039285617
 22
-0.2164754792
 32
0.0
 13
-0.0000000128
 23
-0.2165111237
 33
0.0
 40
0.0
 40
0.0
 40
0.0
 40
0.0
 40
0.0732188971
 40
0.1596179091
 40
0.2577063374
 40
0.3656269884
 40
0.4818484537
 40
0.6053651317
 40
0.7346278457
 40
0.8669588964
 40
1.0
 40
1.0
 40
1.0
 40
1.0
 10
21.5619064832
 20
23.294818558
 30
0.0
 10
21.5620023649
 20
23.2895351927
 30
0.0
 10
21.5621818515
 20
23.2780168689
 30
0.0
 10
21.5624106807
 20
23.2594194936
 30
0.0
 10
21.5626166544
 20
23.2383172777
 30
0.0
 10
21.5627960768
 20
23.2150624579
 30
0.0
 10
21.5629463885
 20
23.1899722318
 30
0.0
 10
21.5630656779
 20
23.1633415599
 30
0.0
 10
21.5631520003
 20
23.1355481208
 30
0.0
 10
21.5632039759
 20
23.1070672149
 30
0.0
 10
21.5632154926
 20
23.087915205
 30
0.0
 10
21.563215492
 20
23.0783135788
 30
0.0
 11
21.5619064832
 21
23.294818558
 31
0.0
 11
21.5621590865
 21
23.2789678649
 31
0.0
 11
21.5623928747
 21
23.2602629787
 31
0.0
 11
21.5626028355
 21
23.2390267808
 31
0.0
 11
21.5627849876
 21
23.2156614694
 31
0.0
 11
21.5629370887
 21
23.190498689
 31
0.0
 11
21.5630578376
 21
23.1637562269
 31
0.0
 11
21.5631454079
 21
23.1357695484
 31
0.0
 11
21.5631980551
 21
23.1071184523
 31
0.0
 11
21.563215492
 21
23.0783135788
 31
0.0
  0
SPLINE
  5
628
100
AcDbEntity
  8
PORTATASTO
100
AcDbSpline
 62
253
  6
CONTINUOUS
 70
0
 71
3
 72
18
 73
14
 74
12
 42
0.0000001
 43
0.0000001
 44
0.0000000001
 12
-0.0011071506
 22
-0.3662491668
 32
0.0
 13
-0.3662498989
 23
-0.0008303865
 33
0.0
 40
0.0
 40
0.0
 40
0.0
 40
0.0
 40
0.0842956646
 40
0.1691893741
 40
0.2551783555
 40
0.34265483
 40
0.4318747249
 40
0.5229428283
 40
0.6158129532
 40
0.7103000283
 40
0.8061007574
 40
0.9028199028
 40
1.0
 40
1.0
 40
1.0
 40
1.0
 10
-19.5630969429
 20
23.5113248654
 30
0.0
 10
-19.5631280523
 20
23.5010337931
 30
0.0
 10
-19.5649017
 20
23.4803441232
 30
0.0
 10
-19.5726237011
 20
23.4500286297
 30
0.0
 10
-19.5852423693
 20
23.4209759624
 30
0.0
 10
-19.6024868568
 20
23.3937900907
 30
0.0
 10
-19.6239937622
 20
23.3690160235
 30
0.0
 10
-19.6493171492
 20
23.3471488435
 30
0.0
 10
-19.6779387486
 20
23.3286214778
 30
0.0
 10
-19.7092773179
 20
23.3137994957
 30
0.0
 10
-19.7427023989
 20
23.3029747474
 30
0.0
 10
-19.7775347401
 20
23.2963603152
 30
0.0
 10
-19.8012294498
 20
23.2948454135
 30
0.0
 10
-19.8130935167
 20
23.2948185145
 30
0.0
 11
-19.5630969429
 21
23.5113248654
 31
0.0
 11
-19.565726083
 21
23.4805636584
 31
0.0
 11
-19.5733741806
 21
23.4504265804
 31
0.0
 11
-19.5858860598
 21
23.4215250971
 31
0.0
 11
-19.6030078586
 21
23.3944456079
 31
0.0
 11
-19.6243921762
 21
23.3697375477
 31
0.0
 11
-19.6496051261
 21
23.3479022302
 31
0.0
 11
-19.6781351463
 21
23.3293826756
 31
0.0
 11
-19.7094033764
 21
23.314554628
 31
0.0
 11
-19.7427754024
 21
23.3037189329
 31
0.0
 11
-19.777574129
 21
23.2970954341
 31
0.0
 11
-19.8130935167
 21
23.2948185145
 31
0.0
  0
SPLINE
  5
629
100
AcDbEntity
  8
PORTATASTO
100
AcDbSpline
 62
253
  6
CONTINUOUS
 70
0
 71
3
 72
18
 73
14
 74
12
 42
0.0000001
 43
0.0000001
 44
0.0000000001
 12
-0.0011071506
 22
-0.3662491668
 32
0.0
 13
-0.3662498989
 23
-0.0008303865
 33
0.0
 40
0.0
 40
0.0
 40
0.0
 40
0.0
 40
0.0842956646
 40
0.1691893741
 40
0.2551783555
 40
0.34265483
 40
0.4318747249
 40
0.5229428283
 40
0.6158129532
 40
0.7103000283
 40
0.8061007574
 40
0.9028199028
 40
1.0
 40
1.0
 40
1.0
 40
1.0
 10
-0.6880969429
 20
23.5113248654
 30
0.0
 10
-0.6881280523
 20
23.5010337931
 30
0.0
 10
-0.6899017
 20
23.4803441232
 30
0.0
 10
-0.6976237011
 20
23.4500286297
 30
0.0
 10
-0.7102423693
 20
23.4209759624
 30
0.0
 10
-0.7274868568
 20
23.3937900907
 30
0.0
 10
-0.7489937622
 20
23.3690160235
 30
0.0
 10
-0.7743171492
 20
23.3471488435
 30
0.0
 10
-0.8029387486
 20
23.3286214778
 30
0.0
 10
-0.8342773179
 20
23.3137994957
 30
0.0
 10
-0.8677023989
 20
23.3029747474
 30
0.0
 10
-0.9025347401
 20
23.2963603152
 30
0.0
 10
-0.9262294498
 20
23.2948454135
 30
0.0
 10
-0.9380935167
 20
23.2948185145
 30
0.0
 11
-0.6880969429
 21
23.5113248654
 31
0.0
 11
-0.690726083
 21
23.4805636584
 31
0.0
 11
-0.6983741806
 21
23.4504265804
 31
0.0
 11
-0.7108860598
 21
23.4215250971
 31
0.0
 11
-0.7280078586
 21
23.3944456079
 31
0.0
 11
-0.7493921762
 21
23.3697375477
 31
0.0
 11
-0.7746051261
 21
23.3479022302
 31
0.0
 11
-0.8031351463
 21
23.3293826756
 31
0.0
 11
-0.8344033764
 21
23.314554628
 31
0.0
 11
-0.8677754024
 21
23.3037189329
 31
0.0
 11
-0.902574129
 21
23.2970954341
 31
0.0
 11
-0.9380935167
 21
23.2948185145
 31
0.0
  0
SPLINE
  5
62A
100
AcDbEntity
  8
PORTATASTO
100
AcDbSpline
 62
253
  6
CONTINUOUS
 70
0
 71
3
 72
18
 73
14
 74
12
 42
0.0000001
 43
0.0000001
 44
0.0000000001
 12
0.0011071506
 22
0.3662491668
 32
0.0
 13
0.3662498989
 23
0.0008303865
 33
0.0
 40
0.0
 40
0.0
 40
0.0
 40
0.0
 40
0.0842956646
 40
0.1691893741
 40
0.2551783555
 40
0.34265483
 40
0.4318747249
 40
0.5229428283
 40
0.6158129532
 40
0.7103000283
 40
0.8061007574
 40
0.9028199028
 40
1.0
 40
1.0
 40
1.0
 40
1.0
 10
-21.8119030571
 20
-23.5113248654
 30
0.0
 10
-21.8118719477
 20
-23.5010337931
 30
0.0
 10
-21.8100983
 20
-23.4803441232
 30
0.0
 10
-21.8023762989
 20
-23.4500286297
 30
0.0
 10
-21.7897576307
 20
-23.4209759624
 30
0.0
 10
-21.7725131432
 20
-23.3937900907
 30
0.0
 10
-21.7510062378
 20
-23.3690160235
 30
0.0
 10
-21.7256828508
 20
-23.3471488435
 30
0.0
 10
-21.6970612514
 20
-23.3286214778
 30
0.0
 10
-21.6657226821
 20
-23.3137994957
 30
0.0
 10
-21.6322976011
 20
-23.3029747474
 30
0.0
 10
-21.5974652599
 20
-23.2963603152
 30
0.0
 10
-21.5737705502
 20
-23.2948454135
 30
0.0
 10
-21.5619064833
 20
-23.2948185145
 30
0.0
 11
-21.8119030571
 21
-23.5113248654
 31
0.0
 11
-21.809273917
 21
-23.4805636584
 31
0.0
 11
-21.8016258194
 21
-23.4504265804
 31
0.0
 11
-21.7891139402
 21
-23.4215250971
 31
0.0
 11
-21.7719921414
 21
-23.3944456079
 31
0.0
 11
-21.7506078238
 21
-23.3697375477
 31
0.0
 11
-21.7253948739
 21
-23.3479022302
 31
0.0
 11
-21.6968648537
 21
-23.3293826756
 31
0.0
 11
-21.6655966236
 21
-23.314554628
 31
0.0
 11
-21.6322245976
 21
-23.3037189329
 31
0.0
 11
-21.597425871
 21
-23.2970954341
 31
0.0
 11
-21.5619064833
 21
-23.2948185145
 31
0.0
  0
SPLINE
  5
62B
100
AcDbEntity
  8
PORTATASTO
100
AcDbSpline
 62
253
  6
CONTINUOUS
 70
0
 71
3
 72
18
 73
14
 74
12
 42
0.0000001
 43
0.0000001
 44
0.0000000001
 12
0.0011071506
 22
0.3662491668
 32
0.0
 13
0.3662498989
 23
0.0008303865
 33
0.0
 40
0.0
 40
0.0
 40
0.0
 40
0.0
 40
0.0842956646
 40
0.1691893741
 40
0.2551783555
 40
0.34265483
 40
0.4318747249
 40
0.5229428283
 40
0.6158129532
 40
0.7103000283
 40
0.8061007574
 40
0.9028199028
 40
1.0
 40
1.0
 40
1.0
 40
1.0
 10
-2.9369030571
 20
-23.5113248654
 30
0.0
 10
-2.9368719477
 20
-23.5010337931
 30
0.0
 10
-2.9350983
 20
-23.4803441232
 30
0.0
 10
-2.9273762989
 20
-23.4500286297
 30
0.0
 10
-2.9147576307
 20
-23.4209759624
 30
0.0
 10
-2.8975131432
 20
-23.3937900907
 30
0.0
 10
-2.8760062378
 20
-23.3690160235
 30
0.0
 10
-2.8506828508
 20
-23.3471488435
 30
0.0
 10
-2.8220612514
 20
-23.3286214778
 30
0.0
 10
-2.7907226821
 20
-23.3137994957
 30
0.0
 10
-2.7572976011
 20
-23.3029747474
 30
0.0
 10
-2.7224652599
 20
-23.2963603152
 30
0.0
 10
-2.6987705502
 20
-23.2948454135
 30
0.0
 10
-2.6869064833
 20
-23.2948185145
 30
0.0
 11
-2.9369030571
 21
-23.5113248654
 31
0.0
 11
-2.934273917
 21
-23.4805636584
 31
0.0
 11
-2.9266258194
 21
-23.4504265804
 31
0.0
 11
-2.9141139402
 21
-23.4215250971
 31
0.0
 11
-2.8969921414
 21
-23.3944456079
 31
0.0
 11
-2.8756078238
 21
-23.3697375477
 31
0.0
 11
-2.8503948739
 21
-23.3479022302
 31
0.0
 11
-2.8218648537
 21
-23.3293826756
 31
0.0
 11
-2.7905966236
 21
-23.314554628
 31
0.0
 11
-2.7572245976
 21
-23.3037189329
 31
0.0
 11
-2.722425871
 21
-23.2970954341
 31
0.0
 11
-2.6869064833
 21
-23.2948185145
 31
0.0
  0
SPLINE
  5
62C
100
AcDbEntity
  8
PORTATASTO
100
AcDbSpline
 62
253
  6
CONTINUOUS
 70
0
 71
3
 72
18
 73
14
 74
12
 42
0.0000001
 43
0.0000001
 44
0.0000000001
 12
0.3662498989
 22
-0.0008303865
 32
0.0
 13
0.0011071506
 23
-0.3662491668
 33
0.0
 40
0.0
 40
0.0
 40
0.0
 40
0.0
 40
0.097180097
 40
0.1938992423
 40
0.2896999712
 40
0.3841870463
 40
0.4770571712
 40
0.5681252747
 40
0.6573451698
 40
0.7448216444
 40
0.8308106258
 40
0.9157043353
 40
1.0
 40
1.0
 40
1.0
 40
1.0
 10
-19.8130935167
 20
-23.2948185145
 30
0.0
 10
-19.8012294498
 20
-23.2948454135
 30
0.0
 10
-19.7775347402
 20
-23.2963603152
 30
0.0
 10
-19.742702399
 20
-23.3029747473
 30
0.0
 10
-19.7092773181
 20
-23.3137994956
 30
0.0
 10
-19.6779387488
 20
-23.3286214778
 30
0.0
 10
-19.6493171494
 20
-23.3471488434
 30
0.0
 10
-19.6239937623
 20
-23.3690160234
 30
0.0
 10
-19.6024868568
 20
-23.3937900907
 30
0.0
 10
-19.5852423693
 20
-23.4209759623
 30
0.0
 10
-19.5726237011
 20
-23.4500286297
 30
0.0
 10
-19.5649017
 20
-23.4803441232
 30
0.0
 10
-19.5631280523
 20
-23.5010337931
 30
0.0
 10
-19.5630969429
 20
-23.5113248654
 30
0.0
 11
-19.8130935167
 21
-23.2948185145
 31
0.0
 11
-19.7775741291
 21
-23.2970954341
 31
0.0
 11
-19.7427754025
 21
-23.3037189329
 31
0.0
 11
-19.7094033765
 21
-23.314554628
 31
0.0
 11
-19.6781351465
 21
-23.3293826755
 31
0.0
 11
-19.6496051263
 21
-23.3479022301
 31
0.0
 11
-19.6243921763
 21
-23.3697375476
 31
0.0
 11
-19.6030078587
 21
-23.3944456078
 31
0.0
 11
-19.5858860598
 21
-23.4215250971
 31
0.0
 11
-19.5733741806
 21
-23.4504265804
 31
0.0
 11
-19.565726083
 21
-23.4805636584
 31
0.0
 11
-19.5630969429
 21
-23.5113248654
 31
0.0
  0
SPLINE
  5
62D
100
AcDbEntity
  8
PORTATASTO
100
AcDbSpline
 62
253
  6
CONTINUOUS
 70
0
 71
3
 72
16
 73
12
 74
10
 42
0.0000001
 43
0.0000001
 44
0.0000000001
 12
0.0000000128
 22
-0.2165111267
 32
0.0
 13
-0.0039285624
 23
-0.2164754822
 33
0.0
 40
0.0
 40
0.0
 40
0.0
 40
0.0
 40
0.1330410941
 40
0.2653721429
 40
0.3946348552
 40
0.5181515314
 40
0.6343729951
 40
0.7422936446
 40
0.8403820716
 40
0.9267810823
 40
1.0
 40
1.0
 40
1.0
 40
1.0
 10
-19.811784508
 20
-23.0783135804
 30
0.0
 10
-19.8117845074
 20
-23.0879152062
 30
0.0
 10
-19.8117960241
 20
-23.1070672154
 30
0.0
 10
-19.8118479997
 20
-23.1355481208
 30
0.0
 10
-19.8119343221
 20
-23.1633415599
 30
0.0
 10
-19.8120536115
 20
-23.1899722318
 30
0.0
 10
-19.8122039232
 20
-23.2150624579
 30
0.0
 10
-19.8123833456
 20
-23.2383172777
 30
0.0
 10
-19.8125893193
 20
-23.2594194936
 30
0.0
 10
-19.8128181485
 20
-23.2780168704
 30
0.0
 10
-19.8129976351
 20
-23.2895351958
 30
0.0
 10
-19.8130935168
 20
-23.2948185626
 30
0.0
 11
-19.811784508
 21
-23.0783135804
 31
0.0
 11
-19.8118019449
 21
-23.1071184523
 31
0.0
 11
-19.8118545921
 21
-23.1357695484
 31
0.0
 11
-19.8119421624
 21
-23.1637562269
 31
0.0
 11
-19.8120629113
 21
-23.190498689
 31
0.0
 11
-19.8122150124
 21
-23.2156614694
 31
0.0
 11
-19.8123971645
 21
-23.2390267808
 31
0.0
 11
-19.8126071253
 21
-23.2602629787
 31
0.0
 11
-19.8128409135
 21
-23.2789678649
 31
0.0
 11
-19.8130935168
 21
-23.2948185626
 31
0.0
  0
SPLINE
  5
62E
100
AcDbEntity
  8
PORTATASTO
100
AcDbSpline
 62
253
  6
CONTINUOUS
 70
0
 71
3
 72
16
 73
12
 74
10
 42
0.0000001
 43
0.0000001
 44
0.0000000001
 12
-0.0039285617
 22
0.2164754792
 32
0.0
 13
0.0000000128
 23
0.2165111237
 33
0.0
 40
0.0
 40
0.0
 40
0.0
 40
0.0
 40
0.0732188971
 40
0.1596179091
 40
0.2577063374
 40
0.3656269884
 40
0.4818484537
 40
0.6053651317
 40
0.7346278457
 40
0.8669588964
 40
1.0
 40
1.0
 40
1.0
 40
1.0
 10
-21.5619064832
 20
-23.294818558
 30
0.0
 10
-21.5620023649
 20
-23.2895351927
 30
0.0
 10
-21.5621818515
 20
-23.2780168689
 30
0.0
 10
-21.5624106807
 20
-23.2594194936
 30
0.0
 10
-21.5626166544
 20
-23.2383172777
 30
0.0
 10
-21.5627960768
 20
-23.2150624579
 30
0.0
 10
-21.5629463885
 20
-23.1899722318
 30
0.0
 10
-21.5630656779
 20
-23.1633415599
 30
0.0
 10
-21.5631520003
 20
-23.1355481208
 30
0.0
 10
-21.5632039759
 20
-23.1070672149
 30
0.0
 10
-21.5632154926
 20
-23.087915205
 30
0.0
 10
-21.563215492
 20
-23.0783135788
 30
0.0
 11
-21.5619064832
 21
-23.294818558
 31
0.0
 11
-21.5621590865
 21
-23.2789678649
 31
0.0
 11
-21.5623928747
 21
-23.2602629787
 31
0.0
 11
-21.5626028355
 21
-23.2390267808
 31
0.0
 11
-21.5627849876
 21
-23.2156614694
 31
0.0
 11
-21.5629370887
 21
-23.190498689
 31
0.0
 11
-21.5630578376
 21
-23.1637562269
 31
0.0
 11
-21.5631454079
 21
-23.1357695484
 31
0.0
 11
-21.5631980551
 21
-23.1071184523
 31
0.0
 11
-21.563215492
 21
-23.0783135788
 31
0.0
  0
SPLINE
  5
62F
100
AcDbEntity
  8
PORTATASTO
100
AcDbSpline
 62
253
  6
CONTINUOUS
 70
0
 71
3
 72
18
 73
14
 74
12
 42
0.0000001
 43
0.0000001
 44
0.0000000001
 12
-0.3662498989
 22
0.0008303865
 32
0.0
 13
-0.0011071506
 23
0.3662491668
 33
0.0
 40
0.0
 40
0.0
 40
0.0
 40
0.0
 40
0.097180097
 40
0.1938992423
 40
0.2896999712
 40
0.3841870463
 40
0.4770571712
 40
0.5681252747
 40
0.6573451698
 40
0.7448216444
 40
0.8308106258
 40
0.9157043353
 40
1.0
 40
1.0
 40
1.0
 40
1.0
 10
-21.5619064833
 20
23.2948185145
 30
0.0
 10
-21.5737705502
 20
23.2948454135
 30
0.0
 10
-21.5974652598
 20
23.2963603152
 30
0.0
 10
-21.632297601
 20
23.3029747473
 30
0.0
 10
-21.6657226819
 20
23.3137994956
 30
0.0
 10
-21.6970612512
 20
23.3286214778
 30
0.0
 10
-21.7256828506
 20
23.3471488434
 30
0.0
 10
-21.7510062377
 20
23.3690160234
 30
0.0
 10
-21.7725131432
 20
23.3937900907
 30
0.0
 10
-21.7897576307
 20
23.4209759623
 30
0.0
 10
-21.8023762989
 20
23.4500286297
 30
0.0
 10
-21.8100983
 20
23.4803441232
 30
0.0
 10
-21.8118719477
 20
23.5010337931
 30
0.0
 10
-21.8119030571
 20
23.5113248654
 30
0.0
 11
-21.5619064833
 21
23.2948185145
 31
0.0
 11
-21.5974258709
 21
23.2970954341
 31
0.0
 11
-21.6322245975
 21
23.3037189329
 31
0.0
 11
-21.6655966235
 21
23.314554628
 31
0.0
 11
-21.6968648535
 21
23.3293826755
 31
0.0
 11
-21.7253948737
 21
23.3479022301
 31
0.0
 11
-21.7506078237
 21
23.3697375476
 31
0.0
 11
-21.7719921413
 21
23.3944456078
 31
0.0
 11
-21.7891139402
 21
23.4215250971
 31
0.0
 11
-21.8016258194
 21
23.4504265804
 31
0.0
 11
-21.809273917
 21
23.4805636584
 31
0.0
 11
-21.8119030571
 21
23.5113248654
 31
0.0
  0
SPLINE
  5
630
100
AcDbEntity
  8
PORTATASTO
100
AcDbSpline
 62
253
  6
CONTINUOUS
 70
0
 71
3
 72
16
 73
12
 74
10
 42
0.0000001
 43
0.0000001
 44
0.0000000001
 12
-0.0000000128
 22
0.2165111267
 32
0.0
 13
0.0039285624
 23
0.2164754822
 33
0.0
 40
0.0
 40
0.0
 40
0.0
 40
0.0
 40
0.1330410941
 40
0.2653721429
 40
0.3946348552
 40
0.5181515314
 40
0.6343729951
 40
0.7422936446
 40
0.8403820716
 40
0.9267810823
 40
1.0
 40
1.0
 40
1.0
 40
1.0
 10
-21.563215492
 20
23.0783135804
 30
0.0
 10
-21.5632154926
 20
23.0879152062
 30
0.0
 10
-21.5632039759
 20
23.1070672154
 30
0.0
 10
-21.5631520003
 20
23.1355481208
 30
0.0
 10
-21.5630656779
 20
23.1633415599
 30
0.0
 10
-21.5629463885
 20
23.1899722318
 30
0.0
 10
-21.5627960768
 20
23.2150624579
 30
0.0
 10
-21.5626166544
 20
23.2383172777
 30
0.0
 10
-21.5624106807
 20
23.2594194936
 30
0.0
 10
-21.5621818515
 20
23.2780168704
 30
0.0
 10
-21.5620023649
 20
23.2895351958
 30
0.0
 10
-21.5619064832
 20
23.2948185626
 30
0.0
 11
-21.563215492
 21
23.0783135804
 31
0.0
 11
-21.5631980551
 21
23.1071184523
 31
0.0
 11
-21.5631454079
 21
23.1357695484
 31
0.0
 11
-21.5630578376
 21
23.1637562269
 31
0.0
 11
-21.5629370887
 21
23.190498689
 31
0.0
 11
-21.5627849876
 21
23.2156614694
 31
0.0
 11
-21.5626028355
 21
23.2390267808
 31
0.0
 11
-21.5623928747
 21
23.2602629787
 31
0.0
 11
-21.5621590865
 21
23.2789678649
 31
0.0
 11
-21.5619064832
 21
23.2948185626
 31
0.0
  0
SPLINE
  5
631
100
AcDbEntity
  8
PORTATASTO
100
AcDbSpline
 62
253
  6
CONTINUOUS
 70
0
 71
3
 72
16
 73
12
 74
10
 42
0.0000001
 43
0.0000001
 44
0.0000000001
 12
0.0039285617
 22
-0.2164754792
 32
0.0
 13
-0.0000000128
 23
-0.2165111237
 33
0.0
 40
0.0
 40
0.0
 40
0.0
 40
0.0
 40
0.0732188971
 40
0.1596179091
 40
0.2577063374
 40
0.3656269884
 40
0.4818484537
 40
0.6053651317
 40
0.7346278457
 40
0.8669588964
 40
1.0
 40
1.0
 40
1.0
 40
1.0
 10
-19.8130935168
 20
23.294818558
 30
0.0
 10
-19.8129976351
 20
23.2895351927
 30
0.0
 10
-19.8128181485
 20
23.2780168689
 30
0.0
 10
-19.8125893193
 20
23.2594194936
 30
0.0
 10
-19.8123833456
 20
23.2383172777
 30
0.0
 10
-19.8122039232
 20
23.2150624579
 30
0.0
 10
-19.8120536115
 20
23.1899722318
 30
0.0
 10
-19.8119343221
 20
23.1633415599
 30
0.0
 10
-19.8118479997
 20
23.1355481208
 30
0.0
 10
-19.8117960241
 20
23.1070672149
 30
0.0
 10
-19.8117845074
 20
23.087915205
 30
0.0
 10
-19.811784508
 20
23.0783135788
 30
0.0
 11
-19.8130935168
 21
23.294818558
 31
0.0
 11
-19.8128409135
 21
23.2789678649
 31
0.0
 11
-19.8126071253
 21
23.2602629787
 31
0.0
 11
-19.8123971645
 21
23.2390267808
 31
0.0
 11
-19.8122150124
 21
23.2156614694
 31
0.0
 11
-19.8120629113
 21
23.190498689
 31
0.0
 11
-19.8119421624
 21
23.1637562269
 31
0.0
 11
-19.8118545921
 21
23.1357695484
 31
0.0
 11
-19.8118019449
 21
23.1071184523
 31
0.0
 11
-19.811784508
 21
23.0783135788
 31
0.0
  0
SPLINE
  5
632
100
AcDbEntity
  8
PORTATASTO
100
AcDbSpline
 62
253
  6
CONTINUOUS
 70
0
 71
3
 72
18
 73
14
 74
12
 42
0.0000001
 43
0.0000001
 44
0.0000000001
 12
-0.3662498989
 22
0.0008303865
 32
0.0
 13
-0.0011071506
 23
0.3662491668
 33
0.0
 40
0.0
 40
0.0
 40
0.0
 40
0.0
 40
0.097180097
 40
0.1938992423
 40
0.2896999712
 40
0.3841870463
 40
0.4770571712
 40
0.5681252747
 40
0.6573451698
 40
0.7448216444
 40
0.8308106258
 40
0.9157043353
 40
1.0
 40
1.0
 40
1.0
 40
1.0
 10
-2.6869064833
 20
23.2948185145
 30
0.0
 10
-2.6987705502
 20
23.2948454135
 30
0.0
 10
-2.7224652598
 20
23.2963603152
 30
0.0
 10
-2.757297601
 20
23.3029747473
 30
0.0
 10
-2.7907226819
 20
23.3137994956
 30
0.0
 10
-2.8220612512
 20
23.3286214778
 30
0.0
 10
-2.8506828506
 20
23.3471488434
 30
0.0
 10
-2.8760062377
 20
23.3690160234
 30
0.0
 10
-2.8975131432
 20
23.3937900907
 30
0.0
 10
-2.9147576307
 20
23.4209759623
 30
0.0
 10
-2.9273762989
 20
23.4500286297
 30
0.0
 10
-2.9350983
 20
23.4803441232
 30
0.0
 10
-2.9368719477
 20
23.5010337931
 30
0.0
 10
-2.9369030571
 20
23.5113248654
 30
0.0
 11
-2.6869064833
 21
23.2948185145
 31
0.0
 11
-2.7224258709
 21
23.2970954341
 31
0.0
 11
-2.7572245975
 21
23.3037189329
 31
0.0
 11
-2.7905966235
 21
23.314554628
 31
0.0
 11
-2.8218648535
 21
23.3293826755
 31
0.0
 11
-2.8503948737
 21
23.3479022301
 31
0.0
 11
-2.8756078237
 21
23.3697375476
 31
0.0
 11
-2.8969921413
 21
23.3944456078
 31
0.0
 11
-2.9141139402
 21
23.4215250971
 31
0.0
 11
-2.9266258194
 21
23.4504265804
 31
0.0
 11
-2.934273917
 21
23.4805636584
 31
0.0
 11
-2.9369030571
 21
23.5113248654
 31
0.0
  0
SPLINE
  5
633
100
AcDbEntity
  8
PORTATASTO
100
AcDbSpline
 62
253
  6
CONTINUOUS
 70
0
 71
3
 72
16
 73
12
 74
10
 42
0.0000001
 43
0.0000001
 44
0.0000000001
 12
-0.0000000128
 22
0.2165111267
 32
0.0
 13
0.0039285624
 23
0.2164754822
 33
0.0
 40
0.0
 40
0.0
 40
0.0
 40
0.0
 40
0.1330410941
 40
0.2653721429
 40
0.3946348552
 40
0.5181515314
 40
0.6343729951
 40
0.7422936446
 40
0.8403820716
 40
0.9267810823
 40
1.0
 40
1.0
 40
1.0
 40
1.0
 10
-2.688215492
 20
23.0783135804
 30
0.0
 10
-2.6882154926
 20
23.0879152062
 30
0.0
 10
-2.6882039759
 20
23.1070672154
 30
0.0
 10
-2.6881520003
 20
23.1355481208
 30
0.0
 10
-2.6880656779
 20
23.1633415599
 30
0.0
 10
-2.6879463885
 20
23.1899722318
 30
0.0
 10
-2.6877960768
 20
23.2150624579
 30
0.0
 10
-2.6876166544
 20
23.2383172777
 30
0.0
 10
-2.6874106807
 20
23.2594194936
 30
0.0
 10
-2.6871818515
 20
23.2780168704
 30
0.0
 10
-2.6870023649
 20
23.2895351958
 30
0.0
 10
-2.6869064832
 20
23.2948185626
 30
0.0
 11
-2.688215492
 21
23.0783135804
 31
0.0
 11
-2.6881980551
 21
23.1071184523
 31
0.0
 11
-2.6881454079
 21
23.1357695484
 31
0.0
 11
-2.6880578376
 21
23.1637562269
 31
0.0
 11
-2.6879370887
 21
23.190498689
 31
0.0
 11
-2.6877849876
 21
23.2156614694
 31
0.0
 11
-2.6876028355
 21
23.2390267808
 31
0.0
 11
-2.6873928747
 21
23.2602629787
 31
0.0
 11
-2.6871590865
 21
23.2789678649
 31
0.0
 11
-2.6869064832
 21
23.2948185626
 31
0.0
  0
SPLINE
  5
634
100
AcDbEntity
  8
PORTATASTO
100
AcDbSpline
 62
253
  6
CONTINUOUS
 70
0
 71
3
 72
16
 73
12
 74
10
 42
0.0000001
 43
0.0000001
 44
0.0000000001
 12
0.0039285617
 22
-0.2164754792
 32
0.0
 13
-0.0000000128
 23
-0.2165111237
 33
0.0
 40
0.0
 40
0.0
 40
0.0
 40
0.0
 40
0.0732188971
 40
0.1596179091
 40
0.2577063374
 40
0.3656269884
 40
0.4818484537
 40
0.6053651317
 40
0.7346278457
 40
0.8669588964
 40
1.0
 40
1.0
 40
1.0
 40
1.0
 10
-0.9380935168
 20
23.294818558
 30
0.0
 10
-0.9379976351
 20
23.2895351927
 30
0.0
 10
-0.9378181485
 20
23.2780168689
 30
0.0
 10
-0.9375893193
 20
23.2594194936
 30
0.0
 10
-0.9373833456
 20
23.2383172777
 30
0.0
 10
-0.9372039232
 20
23.2150624579
 30
0.0
 10
-0.9370536115
 20
23.1899722318
 30
0.0
 10
-0.9369343221
 20
23.1633415599
 30
0.0
 10
-0.9368479997
 20
23.1355481208
 30
0.0
 10
-0.9367960241
 20
23.1070672149
 30
0.0
 10
-0.9367845074
 20
23.087915205
 30
0.0
 10
-0.936784508
 20
23.0783135788
 30
0.0
 11
-0.9380935168
 21
23.294818558
 31
0.0
 11
-0.9378409135
 21
23.2789678649
 31
0.0
 11
-0.9376071253
 21
23.2602629787
 31
0.0
 11
-0.9373971645
 21
23.2390267808
 31
0.0
 11
-0.9372150124
 21
23.2156614694
 31
0.0
 11
-0.9370629113
 21
23.190498689
 31
0.0
 11
-0.9369421624
 21
23.1637562269
 31
0.0
 11
-0.9368545921
 21
23.1357695484
 31
0.0
 11
-0.9368019449
 21
23.1071184523
 31
0.0
 11
-0.936784508
 21
23.0783135788
 31
0.0
  0
SPLINE
  5
635
100
AcDbEntity
  8
PORTATASTO
100
AcDbSpline
 62
253
  6
CONTINUOUS
 70
0
 71
3
 72
18
 73
14
 74
12
 42
0.0000001
 43
0.0000001
 44
0.0000000001
 12
0.3662498989
 22
-0.0008303865
 32
0.0
 13
0.0011071506
 23
-0.3662491668
 33
0.0
 40
0.0
 40
0.0
 40
0.0
 40
0.0
 40
0.097180097
 40
0.1938992423
 40
0.2896999712
 40
0.3841870463
 40
0.4770571712
 40
0.5681252747
 40
0.6573451698
 40
0.7448216444
 40
0.8308106258
 40
0.9157043353
 40
1.0
 40
1.0
 40
1.0
 40
1.0
 10
-0.9380935167
 20
-23.2948185145
 30
0.0
 10
-0.9262294498
 20
-23.2948454135
 30
0.0
 10
-0.9025347402
 20
-23.2963603152
 30
0.0
 10
-0.867702399
 20
-23.3029747473
 30
0.0
 10
-0.8342773181
 20
-23.3137994956
 30
0.0
 10
-0.8029387488
 20
-23.3286214778
 30
0.0
 10
-0.7743171494
 20
-23.3471488434
 30
0.0
 10
-0.7489937623
 20
-23.3690160234
 30
0.0
 10
-0.7274868568
 20
-23.3937900907
 30
0.0
 10
-0.7102423693
 20
-23.4209759623
 30
0.0
 10
-0.6976237011
 20
-23.4500286297
 30
0.0
 10
-0.6899017
 20
-23.4803441232
 30
0.0
 10
-0.6881280523
 20
-23.5010337931
 30
0.0
 10
-0.6880969429
 20
-23.5113248654
 30
0.0
 11
-0.9380935167
 21
-23.2948185145
 31
0.0
 11
-0.9025741291
 21
-23.2970954341
 31
0.0
 11
-0.8677754025
 21
-23.3037189329
 31
0.0
 11
-0.8344033765
 21
-23.314554628
 31
0.0
 11
-0.8031351465
 21
-23.3293826755
 31
0.0
 11
-0.7746051263
 21
-23.3479022301
 31
0.0
 11
-0.7493921763
 21
-23.3697375476
 31
0.0
 11
-0.7280078587
 21
-23.3944456078
 31
0.0
 11
-0.7108860598
 21
-23.4215250971
 31
0.0
 11
-0.6983741806
 21
-23.4504265804
 31
0.0
 11
-0.690726083
 21
-23.4805636584
 31
0.0
 11
-0.6880969429
 21
-23.5113248654
 31
0.0
  0
SPLINE
  5
636
100
AcDbEntity
  8
PORTATASTO
100
AcDbSpline
 62
253
  6
CONTINUOUS
 70
0
 71
3
 72
16
 73
12
 74
10
 42
0.0000001
 43
0.0000001
 44
0.0000000001
 12
0.0000000128
 22
-0.2165111267
 32
0.0
 13
-0.0039285624
 23
-0.2164754822
 33
0.0
 40
0.0
 40
0.0
 40
0.0
 40
0.0
 40
0.1330410941
 40
0.2653721429
 40
0.3946348552
 40
0.5181515314
 40
0.6343729951
 40
0.7422936446
 40
0.8403820716
 40
0.9267810823
 40
1.0
 40
1.0
 40
1.0
 40
1.0
 10
-0.936784508
 20
-23.0783135804
 30
0.0
 10
-0.9367845074
 20
-23.0879152062
 30
0.0
 10
-0.9367960241
 20
-23.1070672154
 30
0.0
 10
-0.9368479997
 20
-23.1355481208
 30
0.0
 10
-0.9369343221
 20
-23.1633415599
 30
0.0
 10
-0.9370536115
 20
-23.1899722318
 30
0.0
 10
-0.9372039232
 20
-23.2150624579
 30
0.0
 10
-0.9373833456
 20
-23.2383172777
 30
0.0
 10
-0.9375893193
 20
-23.2594194936
 30
0.0
 10
-0.9378181485
 20
-23.2780168704
 30
0.0
 10
-0.9379976351
 20
-23.2895351958
 30
0.0
 10
-0.9380935168
 20
-23.2948185626
 30
0.0
 11
-0.936784508
 21
-23.0783135804
 31
0.0
 11
-0.9368019449
 21
-23.1071184523
 31
0.0
 11
-0.9368545921
 21
-23.1357695484
 31
0.0
 11
-0.9369421624
 21
-23.1637562269
 31
0.0
 11
-0.9370629113
 21
-23.190498689
 31
0.0
 11
-0.9372150124
 21
-23.2156614694
 31
0.0
 11
-0.9373971645
 21
-23.2390267808
 31
0.0
 11
-0.9376071253
 21
-23.2602629787
 31
0.0
 11
-0.9378409135
 21
-23.2789678649
 31
0.0
 11
-0.9380935168
 21
-23.2948185626
 31
0.0
  0
SPLINE
  5
637
100
AcDbEntity
  8
PORTATASTO
100
AcDbSpline
 62
253
  6
CONTINUOUS
 70
0
 71
3
 72
16
 73
12
 74
10
 42
0.0000001
 43
0.0000001
 44
0.0000000001
 12
-0.0039285617
 22
0.2164754792
 32
0.0
 13
0.0000000128
 23
0.2165111237
 33
0.0
 40
0.0
 40
0.0
 40
0.0
 40
0.0
 40
0.0732188971
 40
0.1596179091
 40
0.2577063374
 40
0.3656269884
 40
0.4818484537
 40
0.6053651317
 40
0.7346278457
 40
0.8669588964
 40
1.0
 40
1.0
 40
1.0
 40
1.0
 10
-2.6869064832
 20
-23.294818558
 30
0.0
 10
-2.6870023649
 20
-23.2895351927
 30
0.0
 10
-2.6871818515
 20
-23.2780168689
 30
0.0
 10
-2.6874106807
 20
-23.2594194936
 30
0.0
 10
-2.6876166544
 20
-23.2383172777
 30
0.0
 10
-2.6877960768
 20
-23.2150624579
 30
0.0
 10
-2.6879463885
 20
-23.1899722318
 30
0.0
 10
-2.6880656779
 20
-23.1633415599
 30
0.0
 10
-2.6881520003
 20
-23.1355481208
 30
0.0
 10
-2.6882039759
 20
-23.1070672149
 30
0.0
 10
-2.6882154926
 20
-23.087915205
 30
0.0
 10
-2.688215492
 20
-23.0783135788
 30
0.0
 11
-2.6869064832
 21
-23.294818558
 31
0.0
 11
-2.6871590865
 21
-23.2789678649
 31
0.0
 11
-2.6873928747
 21
-23.2602629787
 31
0.0
 11
-2.6876028355
 21
-23.2390267808
 31
0.0
 11
-2.6877849876
 21
-23.2156614694
 31
0.0
 11
-2.6879370887
 21
-23.190498689
 31
0.0
 11
-2.6880578376
 21
-23.1637562269
 31
0.0
 11
-2.6881454079
 21
-23.1357695484
 31
0.0
 11
-2.6881980551
 21
-23.1071184523
 31
0.0
 11
-2.688215492
 21
-23.0783135788
 31
0.0
  0
SPLINE
  5
638
100
AcDbEntity
  8
PORTATASTO
100
AcDbSpline
 62
253
  6
CONTINUOUS
 70
0
 71
3
 72
18
 73
14
 74
12
 42
0.0000001
 43
0.0000001
 44
0.0000000001
 12
-0.0011071506
 22
0.3662491663
 32
0.0
 13
-0.3662498983
 23
0.0008303874
 33
0.0
 40
0.0
 40
0.0
 40
0.0
 40
0.0
 40
0.0842955547
 40
0.169189152
 40
0.2551780173
 40
0.3426543807
 40
0.4318741974
 40
0.5229422751
 40
0.6158124279
 40
0.7102995819
 40
0.8061004335
 40
0.9028197334
 40
1.0
 40
1.0
 40
1.0
 40
1.0
 10
-19.5670239696
 20
-23.9443375673
 30
0.0
 10
-19.5670550789
 20
-23.9340465084
 30
0.0
 10
-19.568828722
 20
-23.9133568659
 30
0.0
 10
-19.5765507032
 20
-23.8830414104
 30
0.0
 10
-19.5891693395
 20
-23.853988775
 30
0.0
 10
-19.606413788
 20
-23.8268029233
 30
0.0
 10
-19.6279206561
 20
-23.8020288588
 30
0.0
 10
-19.6532440177
 20
-23.7801616637
 30
0.0
 10
-19.6818656109
 20
-23.76163427
 30
0.0
 10
-19.7132041957
 20
-23.7468122547
 30
0.0
 10
-19.7466293128
 20
-23.7359874758
 30
0.0
 10
-19.7814617058
 20
-23.7293730223
 30
0.0
 10
-19.8051564551
 20
-23.7278581154
 30
0.0
 10
-19.8170205427
 20
-23.7278312164
 30
0.0
 11
-19.5670239696
 21
-23.9443375673
 31
0.0
 11
-19.569653103
 21
-23.9135764002
 31
0.0
 11
-19.5773011809
 21
-23.8834393596
 31
0.0
 11
-19.5898130283
 21
-23.854537909
 31
0.0
 11
-19.6069347867
 21
-23.8274584424
 31
0.0
 11
-19.6283190656
 21
-23.8027503867
 31
0.0
 11
-19.6535319901
 21
-23.7809150543
 31
0.0
 11
-19.6820620042
 21
-23.7623954716
 31
0.0
 11
-19.7133302503
 21
-23.7475673906
 31
0.0
 11
-19.7467023134
 21
-23.7367316644
 31
0.0
 11
-19.7815010934
 21
-23.7301081438
 31
0.0
 11
-19.8170205427
 21
-23.7278312164
 31
0.0
  0
SPLINE
  5
639
100
AcDbEntity
  8
PORTATASTO
100
AcDbSpline
 62
253
  6
CONTINUOUS
 70
0
 71
3
 72
18
 73
14
 74
12
 42
0.0000001
 43
0.0000001
 44
0.0000000001
 12
-0.3662499093
 22
-0.0008303874
 32
0.0
 13
-0.0011071506
 23
-0.3662491772
 33
0.0
 40
0.0
 40
0.0
 40
0.0
 40
0.0
 40
0.0971872096
 40
0.1939133523
 40
0.2897218612
 40
0.3842163772
 40
0.4770935418
 40
0.5681682897
 40
0.6573939174
 40
0.7448759241
 40
0.8308652934
 40
0.915759618
 40
1.0
 40
1.0
 40
1.0
 40
1.0
 10
-21.5579794573
 20
-23.7278312164
 30
0.0
 10
-21.5698443929
 20
-23.7278581174
 30
0.0
 10
-21.593540831
 20
-23.7293732367
 30
0.0
 10
-21.6283757276
 20
-23.7359886464
 30
0.0
 10
-21.6618031555
 20
-23.7468150334
 30
0.0
 10
-21.6931436822
 20
-23.7616392955
 30
0.0
 10
-21.7217665863
 20
-23.7801694443
 30
0.0
 10
-21.747090452
 20
-23.8020397445
 30
0.0
 10
-21.768596944
 20
-23.8268171064
 30
0.0
 10
-21.785839766
 20
-23.854005759
 30
0.0
 10
-21.7984558418
 20
-23.8830604284
 30
0.0
 10
-21.8061730084
 20
-23.9133703205
 30
0.0
 10
-21.8079449414
 20
-23.9340532438
 30
0.0
 10
-21.8079760304
 20
-23.9443375673
 30
0.0
 11
-21.5579794573
 21
-23.7278312164
 31
0.0
 11
-21.5935014353
 21
-23.7301084639
 31
0.0
 11
-21.6283025894
 21
-23.7367329201
 31
0.0
 11
-21.6616770666
 21
-23.7475702957
 31
0.0
 11
-21.6929472328
 21
-23.7624006231
 31
0.0
 11
-21.7214785271
 21
-23.780922952
 31
0.0
 11
-21.7466919739
 21
-23.8027614143
 31
0.0
 11
-21.7680757981
 21
-23.8274726794
 31
0.0
 11
-21.785196242
 21
-23.8545554235
 31
0.0
 11
-21.7977052826
 21
-23.8834582912
 31
0.0
 11
-21.8053502697
 21
-23.9135963917
 31
0.0
 11
-21.8079760304
 21
-23.9443375673
 31
0.0
  0
SPLINE
  5
63A
100
AcDbEntity
  8
PORTATASTO
100
AcDbSpline
 62
253
  6
CONTINUOUS
 70
0
 71
3
 72
18
 73
14
 74
12
 42
0.0000001
 43
0.0000001
 44
0.0000000001
 12
0.0011071506
 22
-0.3662491663
 32
0.0
 13
0.3662498983
 23
-0.0008303874
 33
0.0
 40
0.0
 40
0.0
 40
0.0
 40
0.0
 40
0.0842955547
 40
0.169189152
 40
0.2551780173
 40
0.3426543807
 40
0.4318741974
 40
0.5229422751
 40
0.6158124279
 40
0.7102995819
 40
0.8061004335
 40
0.9028197334
 40
1.0
 40
1.0
 40
1.0
 40
1.0
 10
-21.8079760304
 20
23.9443375673
 30
0.0
 10
-21.8079449211
 20
23.9340465084
 30
0.0
 10
-21.806171278
 20
23.9133568659
 30
0.0
 10
-21.7984492968
 20
23.8830414104
 30
0.0
 10
-21.7858306605
 20
23.853988775
 30
0.0
 10
-21.768586212
 20
23.8268029233
 30
0.0
 10
-21.7470793439
 20
23.8020288588
 30
0.0
 10
-21.7217559823
 20
23.7801616637
 30
0.0
 10
-21.6931343891
 20
23.76163427
 30
0.0
 10
-21.6617958043
 20
23.7468122547
 30
0.0
 10
-21.6283706872
 20
23.7359874758
 30
0.0
 10
-21.5935382942
 20
23.7293730223
 30
0.0
 10
-21.5698435449
 20
23.7278581154
 30
0.0
 10
-21.5579794573
 20
23.7278312164
 30
0.0
 11
-21.8079760304
 21
23.9443375673
 31
0.0
 11
-21.805346897
 21
23.9135764002
 31
0.0
 11
-21.7976988191
 21
23.8834393596
 31
0.0
 11
-21.7851869717
 21
23.854537909
 31
0.0
 11
-21.7680652133
 21
23.8274584424
 31
0.0
 11
-21.7466809344
 21
23.8027503867
 31
0.0
 11
-21.7214680099
 21
23.7809150543
 31
0.0
 11
-21.6929379958
 21
23.7623954716
 31
0.0
 11
-21.6616697497
 21
23.7475673906
 31
0.0
 11
-21.6282976866
 21
23.7367316644
 31
0.0
 11
-21.5934989066
 21
23.7301081438
 31
0.0
 11
-21.5579794573
 21
23.7278312164
 31
0.0
  0
SPLINE
  5
63B
100
AcDbEntity
  8
PORTATASTO
100
AcDbSpline
 62
253
  6
CONTINUOUS
 70
0
 71
3
 72
18
 73
14
 74
12
 42
0.0000001
 43
0.0000001
 44
0.0000000001
 12
0.3662499093
 22
0.0008303874
 32
0.0
 13
0.0011071506
 23
0.3662491772
 33
0.0
 40
0.0
 40
0.0
 40
0.0
 40
0.0
 40
0.0971872096
 40
0.1939133523
 40
0.2897218612
 40
0.3842163772
 40
0.4770935418
 40
0.5681682897
 40
0.6573939174
 40
0.7448759241
 40
0.8308652934
 40
0.915759618
 40
1.0
 40
1.0
 40
1.0
 40
1.0
 10
-19.8170205427
 20
23.7278312164
 30
0.0
 10
-19.8051556071
 20
23.7278581174
 30
0.0
 10
-19.781459169
 20
23.7293732367
 30
0.0
 10
-19.7466242724
 20
23.7359886464
 30
0.0
 10
-19.7131968445
 20
23.7468150334
 30
0.0
 10
-19.6818563178
 20
23.7616392955
 30
0.0
 10
-19.6532334137
 20
23.7801694443
 30
0.0
 10
-19.627909548
 20
23.8020397445
 30
0.0
 10
-19.606403056
 20
23.8268171064
 30
0.0
 10
-19.589160234
 20
23.854005759
 30
0.0
 10
-19.5765441582
 20
23.8830604284
 30
0.0
 10
-19.5688269916
 20
23.9133703205
 30
0.0
 10
-19.5670550586
 20
23.9340532438
 30
0.0
 10
-19.5670239696
 20
23.9443375673
 30
0.0
 11
-19.8170205427
 21
23.7278312164
 31
0.0
 11
-19.7814985647
 21
23.7301084639
 31
0.0
 11
-19.7466974106
 21
23.7367329201
 31
0.0
 11
-19.7133229334
 21
23.7475702957
 31
0.0
 11
-19.6820527672
 21
23.7624006231
 31
0.0
 11
-19.6535214729
 21
23.780922952
 31
0.0
 11
-19.6283080261
 21
23.8027614143
 31
0.0
 11
-19.6069242019
 21
23.8274726794
 31
0.0
 11
-19.589803758
 21
23.8545554235
 31
0.0
 11
-19.5772947174
 21
23.8834582912
 31
0.0
 11
-19.5696497303
 21
23.9135963917
 31
0.0
 11
-19.5670239696
 21
23.9443375673
 31
0.0
  0
SPLINE
  5
63C
100
AcDbEntity
  8
PORTATASTO
100
AcDbSpline
 62
253
  6
CONTINUOUS
 70
0
 71
3
 72
18
 73
14
 74
12
 42
0.0000001
 43
0.0000001
 44
0.0000000001
 12
0.0011071506
 22
-0.3662491663
 32
0.0
 13
0.3662498983
 23
-0.0008303874
 33
0.0
 40
0.0
 40
0.0
 40
0.0
 40
0.0
 40
0.0842955547
 40
0.169189152
 40
0.2551780173
 40
0.3426543807
 40
0.4318741974
 40
0.5229422751
 40
0.6158124279
 40
0.7102995819
 40
0.8061004335
 40
0.9028197334
 40
1.0
 40
1.0
 40
1.0
 40
1.0
 10
-2.9329760304
 20
23.9443375673
 30
0.0
 10
-2.9329449211
 20
23.9340465084
 30
0.0
 10
-2.931171278
 20
23.9133568659
 30
0.0
 10
-2.9234492968
 20
23.8830414104
 30
0.0
 10
-2.9108306605
 20
23.853988775
 30
0.0
 10
-2.893586212
 20
23.8268029233
 30
0.0
 10
-2.8720793439
 20
23.8020288588
 30
0.0
 10
-2.8467559823
 20
23.7801616637
 30
0.0
 10
-2.8181343891
 20
23.76163427
 30
0.0
 10
-2.7867958043
 20
23.7468122547
 30
0.0
 10
-2.7533706872
 20
23.7359874758
 30
0.0
 10
-2.7185382942
 20
23.7293730223
 30
0.0
 10
-2.6948435449
 20
23.7278581154
 30
0.0
 10
-2.6829794573
 20
23.7278312164
 30
0.0
 11
-2.9329760304
 21
23.9443375673
 31
0.0
 11
-2.930346897
 21
23.9135764002
 31
0.0
 11
-2.9226988191
 21
23.8834393596
 31
0.0
 11
-2.9101869717
 21
23.854537909
 31
0.0
 11
-2.8930652133
 21
23.8274584424
 31
0.0
 11
-2.8716809344
 21
23.8027503867
 31
0.0
 11
-2.8464680099
 21
23.7809150543
 31
0.0
 11
-2.8179379958
 21
23.7623954716
 31
0.0
 11
-2.7866697497
 21
23.7475673906
 31
0.0
 11
-2.7532976866
 21
23.7367316644
 31
0.0
 11
-2.7184989066
 21
23.7301081438
 31
0.0
 11
-2.6829794573
 21
23.7278312164
 31
0.0
  0
SPLINE
  5
63D
100
AcDbEntity
  8
PORTATASTO
100
AcDbSpline
 62
253
  6
CONTINUOUS
 70
0
 71
3
 72
18
 73
14
 74
12
 42
0.0000001
 43
0.0000001
 44
0.0000000001
 12
0.3662499093
 22
0.0008303874
 32
0.0
 13
0.0011071506
 23
0.3662491772
 33
0.0
 40
0.0
 40
0.0
 40
0.0
 40
0.0
 40
0.0971872096
 40
0.1939133523
 40
0.2897218612
 40
0.3842163772
 40
0.4770935418
 40
0.5681682897
 40
0.6573939174
 40
0.7448759241
 40
0.8308652934
 40
0.915759618
 40
1.0
 40
1.0
 40
1.0
 40
1.0
 10
-0.9420205427
 20
23.7278312164
 30
0.0
 10
-0.9301556071
 20
23.7278581174
 30
0.0
 10
-0.906459169
 20
23.7293732367
 30
0.0
 10
-0.8716242724
 20
23.7359886464
 30
0.0
 10
-0.8381968445
 20
23.7468150334
 30
0.0
 10
-0.8068563178
 20
23.7616392955
 30
0.0
 10
-0.7782334137
 20
23.7801694443
 30
0.0
 10
-0.752909548
 20
23.8020397445
 30
0.0
 10
-0.731403056
 20
23.8268171064
 30
0.0
 10
-0.714160234
 20
23.854005759
 30
0.0
 10
-0.7015441582
 20
23.8830604284
 30
0.0
 10
-0.6938269916
 20
23.9133703205
 30
0.0
 10
-0.6920550586
 20
23.9340532438
 30
0.0
 10
-0.6920239696
 20
23.9443375673
 30
0.0
 11
-0.9420205427
 21
23.7278312164
 31
0.0
 11
-0.9064985647
 21
23.7301084639
 31
0.0
 11
-0.8716974106
 21
23.7367329201
 31
0.0
 11
-0.8383229334
 21
23.7475702957
 31
0.0
 11
-0.8070527672
 21
23.7624006231
 31
0.0
 11
-0.7785214729
 21
23.780922952
 31
0.0
 11
-0.7533080261
 21
23.8027614143
 31
0.0
 11
-0.7319242019
 21
23.8274726794
 31
0.0
 11
-0.714803758
 21
23.8545554235
 31
0.0
 11
-0.7022947174
 21
23.8834582912
 31
0.0
 11
-0.6946497303
 21
23.9135963917
 31
0.0
 11
-0.6920239696
 21
23.9443375673
 31
0.0
  0
SPLINE
  5
63E
100
AcDbEntity
  8
PORTATASTO
100
AcDbSpline
 62
253
  6
CONTINUOUS
 70
0
 71
3
 72
18
 73
14
 74
12
 42
0.0000001
 43
0.0000001
 44
0.0000000001
 12
-0.0011071506
 22
0.3662491663
 32
0.0
 13
-0.3662498983
 23
0.0008303874
 33
0.0
 40
0.0
 40
0.0
 40
0.0
 40
0.0
 40
0.0842955547
 40
0.169189152
 40
0.2551780173
 40
0.3426543807
 40
0.4318741974
 40
0.5229422751
 40
0.6158124279
 40
0.7102995819
 40
0.8061004335
 40
0.9028197334
 40
1.0
 40
1.0
 40
1.0
 40
1.0
 10
-0.6920239696
 20
-23.9443375673
 30
0.0
 10
-0.6920550789
 20
-23.9340465084
 30
0.0
 10
-0.693828722
 20
-23.9133568659
 30
0.0
 10
-0.7015507032
 20
-23.8830414104
 30
0.0
 10
-0.7141693395
 20
-23.853988775
 30
0.0
 10
-0.731413788
 20
-23.8268029233
 30
0.0
 10
-0.7529206561
 20
-23.8020288588
 30
0.0
 10
-0.7782440177
 20
-23.7801616637
 30
0.0
 10
-0.8068656109
 20
-23.76163427
 30
0.0
 10
-0.8382041957
 20
-23.7468122547
 30
0.0
 10
-0.8716293128
 20
-23.7359874758
 30
0.0
 10
-0.9064617058
 20
-23.7293730223
 30
0.0
 10
-0.9301564551
 20
-23.7278581154
 30
0.0
 10
-0.9420205427
 20
-23.7278312164
 30
0.0
 11
-0.6920239696
 21
-23.9443375673
 31
0.0
 11
-0.694653103
 21
-23.9135764002
 31
0.0
 11
-0.7023011809
 21
-23.8834393596
 31
0.0
 11
-0.7148130283
 21
-23.854537909
 31
0.0
 11
-0.7319347867
 21
-23.8274584424
 31
0.0
 11
-0.7533190656
 21
-23.8027503867
 31
0.0
 11
-0.7785319901
 21
-23.7809150543
 31
0.0
 11
-0.8070620042
 21
-23.7623954716
 31
0.0
 11
-0.8383302503
 21
-23.7475673906
 31
0.0
 11
-0.8717023134
 21
-23.7367316644
 31
0.0
 11
-0.9065010934
 21
-23.7301081438
 31
0.0
 11
-0.9420205427
 21
-23.7278312164
 31
0.0
  0
SPLINE
  5
63F
100
AcDbEntity
  8
PORTATASTO
100
AcDbSpline
 62
253
  6
CONTINUOUS
 70
0
 71
3
 72
18
 73
14
 74
12
 42
0.0000001
 43
0.0000001
 44
0.0000000001
 12
-0.3662499093
 22
-0.0008303874
 32
0.0
 13
-0.0011071506
 23
-0.3662491772
 33
0.0
 40
0.0
 40
0.0
 40
0.0
 40
0.0
 40
0.0971872096
 40
0.1939133523
 40
0.2897218612
 40
0.3842163772
 40
0.4770935418
 40
0.5681682897
 40
0.6573939174
 40
0.7448759241
 40
0.8308652934
 40
0.915759618
 40
1.0
 40
1.0
 40
1.0
 40
1.0
 10
-2.6829794573
 20
-23.7278312164
 30
0.0
 10
-2.6948443929
 20
-23.7278581174
 30
0.0
 10
-2.718540831
 20
-23.7293732367
 30
0.0
 10
-2.7533757276
 20
-23.7359886464
 30
0.0
 10
-2.7868031555
 20
-23.7468150334
 30
0.0
 10
-2.8181436822
 20
-23.7616392955
 30
0.0
 10
-2.8467665863
 20
-23.7801694443
 30
0.0
 10
-2.872090452
 20
-23.8020397445
 30
0.0
 10
-2.893596944
 20
-23.8268171064
 30
0.0
 10
-2.910839766
 20
-23.854005759
 30
0.0
 10
-2.9234558418
 20
-23.8830604284
 30
0.0
 10
-2.9311730084
 20
-23.9133703205
 30
0.0
 10
-2.9329449414
 20
-23.9340532438
 30
0.0
 10
-2.9329760304
 20
-23.9443375673
 30
0.0
 11
-2.6829794573
 21
-23.7278312164
 31
0.0
 11
-2.7185014353
 21
-23.7301084639
 31
0.0
 11
-2.7533025894
 21
-23.7367329201
 31
0.0
 11
-2.7866770666
 21
-23.7475702957
 31
0.0
 11
-2.8179472328
 21
-23.7624006231
 31
0.0
 11
-2.8464785271
 21
-23.780922952
 31
0.0
 11
-2.8716919739
 21
-23.8027614143
 31
0.0
 11
-2.8930757981
 21
-23.8274726794
 31
0.0
 11
-2.910196242
 21
-23.8545554235
 31
0.0
 11
-2.9227052826
 21
-23.8834582912
 31
0.0
 11
-2.9303502697
 21
-23.9135963917
 31
0.0
 11
-2.9329760304
 21
-23.9443375673
 31
0.0
  0
SPLINE
  5
640
100
AcDbEntity
  8
PORTATASTO
100
AcDbSpline
 62
253
  6
CONTINUOUS
 70
0
 71
3
 72
18
 73
14
 74
12
 42
0.0000001
 43
0.0000001
 44
0.0000000001
 12
-0.0011071506
 22
-0.3662491668
 32
0.0
 13
-0.3662498989
 23
-0.0008303865
 33
0.0
 40
0.0
 40
0.0
 40
0.0
 40
0.0
 40
0.0842956646
 40
0.1691893741
 40
0.2551783555
 40
0.34265483
 40
0.4318747249
 40
0.5229428283
 40
0.6158129532
 40
0.7103000283
 40
0.8061007574
 40
0.9028199028
 40
1.0
 40
1.0
 40
1.0
 40
1.0
 10
2.9369030571
 20
23.5113248654
 30
0.0
 10
2.9368719477
 20
23.5010337931
 30
0.0
 10
2.9350983
 20
23.4803441232
 30
0.0
 10
2.9273762989
 20
23.4500286297
 30
0.0
 10
2.9147576307
 20
23.4209759624
 30
0.0
 10
2.8975131432
 20
23.3937900907
 30
0.0
 10
2.8760062378
 20
23.3690160235
 30
0.0
 10
2.8506828508
 20
23.3471488435
 30
0.0
 10
2.8220612514
 20
23.3286214778
 30
0.0
 10
2.7907226821
 20
23.3137994957
 30
0.0
 10
2.7572976011
 20
23.3029747474
 30
0.0
 10
2.7224652599
 20
23.2963603152
 30
0.0
 10
2.6987705502
 20
23.2948454135
 30
0.0
 10
2.6869064833
 20
23.2948185145
 30
0.0
 11
2.9369030571
 21
23.5113248654
 31
0.0
 11
2.934273917
 21
23.4805636584
 31
0.0
 11
2.9266258194
 21
23.4504265804
 31
0.0
 11
2.9141139402
 21
23.4215250971
 31
0.0
 11
2.8969921414
 21
23.3944456079
 31
0.0
 11
2.8756078238
 21
23.3697375477
 31
0.0
 11
2.8503948739
 21
23.3479022302
 31
0.0
 11
2.8218648537
 21
23.3293826756
 31
0.0
 11
2.7905966236
 21
23.314554628
 31
0.0
 11
2.7572245976
 21
23.3037189329
 31
0.0
 11
2.722425871
 21
23.2970954341
 31
0.0
 11
2.6869064833
 21
23.2948185145
 31
0.0
  0
SPLINE
  5
641
100
AcDbEntity
  8
PORTATASTO
100
AcDbSpline
 62
253
  6
CONTINUOUS
 70
0
 71
3
 72
18
 73
14
 74
12
 42
0.0000001
 43
0.0000001
 44
0.0000000001
 12
-0.0011071506
 22
-0.3662491668
 32
0.0
 13
-0.3662498989
 23
-0.0008303865
 33
0.0
 40
0.0
 40
0.0
 40
0.0
 40
0.0
 40
0.0842956646
 40
0.1691893741
 40
0.2551783555
 40
0.34265483
 40
0.4318747249
 40
0.5229428283
 40
0.6158129532
 40
0.7103000283
 40
0.8061007574
 40
0.9028199028
 40
1.0
 40
1.0
 40
1.0
 40
1.0
 10
21.8119030571
 20
23.5113248654
 30
0.0
 10
21.8118719477
 20
23.5010337931
 30
0.0
 10
21.8100983
 20
23.4803441232
 30
0.0
 10
21.8023762989
 20
23.4500286297
 30
0.0
 10
21.7897576307
 20
23.4209759624
 30
0.0
 10
21.7725131432
 20
23.3937900907
 30
0.0
 10
21.7510062378
 20
23.3690160235
 30
0.0
 10
21.7256828508
 20
23.3471488435
 30
0.0
 10
21.6970612514
 20
23.3286214778
 30
0.0
 10
21.6657226821
 20
23.3137994957
 30
0.0
 10
21.6322976011
 20
23.3029747474
 30
0.0
 10
21.5974652599
 20
23.2963603152
 30
0.0
 10
21.5737705502
 20
23.2948454135
 30
0.0
 10
21.5619064833
 20
23.2948185145
 30
0.0
 11
21.8119030571
 21
23.5113248654
 31
0.0
 11
21.809273917
 21
23.4805636584
 31
0.0
 11
21.8016258194
 21
23.4504265804
 31
0.0
 11
21.7891139402
 21
23.4215250971
 31
0.0
 11
21.7719921414
 21
23.3944456079
 31
0.0
 11
21.7506078238
 21
23.3697375477
 31
0.0
 11
21.7253948739
 21
23.3479022302
 31
0.0
 11
21.6968648537
 21
23.3293826756
 31
0.0
 11
21.6655966236
 21
23.314554628
 31
0.0
 11
21.6322245976
 21
23.3037189329
 31
0.0
 11
21.597425871
 21
23.2970954341
 31
0.0
 11
21.5619064833
 21
23.2948185145
 31
0.0
  0
SPLINE
  5
642
100
AcDbEntity
  8
PORTATASTO
100
AcDbSpline
 62
253
  6
CONTINUOUS
 70
0
 71
3
 72
18
 73
14
 74
12
 42
0.0000001
 43
0.0000001
 44
0.0000000001
 12
0.0011071506
 22
0.3662491668
 32
0.0
 13
0.3662498989
 23
0.0008303865
 33
0.0
 40
0.0
 40
0.0
 40
0.0
 40
0.0
 40
0.0842956646
 40
0.1691893741
 40
0.2551783555
 40
0.34265483
 40
0.4318747249
 40
0.5229428283
 40
0.6158129532
 40
0.7103000283
 40
0.8061007574
 40
0.9028199028
 40
1.0
 40
1.0
 40
1.0
 40
1.0
 10
0.6880969429
 20
-23.5113248654
 30
0.0
 10
0.6881280523
 20
-23.5010337931
 30
0.0
 10
0.6899017
 20
-23.4803441232
 30
0.0
 10
0.6976237011
 20
-23.4500286297
 30
0.0
 10
0.7102423693
 20
-23.4209759624
 30
0.0
 10
0.7274868568
 20
-23.3937900907
 30
0.0
 10
0.7489937622
 20
-23.3690160235
 30
0.0
 10
0.7743171492
 20
-23.3471488435
 30
0.0
 10
0.8029387486
 20
-23.3286214778
 30
0.0
 10
0.8342773179
 20
-23.3137994957
 30
0.0
 10
0.8677023989
 20
-23.3029747474
 30
0.0
 10
0.9025347401
 20
-23.2963603152
 30
0.0
 10
0.9262294498
 20
-23.2948454135
 30
0.0
 10
0.9380935167
 20
-23.2948185145
 30
0.0
 11
0.6880969429
 21
-23.5113248654
 31
0.0
 11
0.690726083
 21
-23.4805636584
 31
0.0
 11
0.6983741806
 21
-23.4504265804
 31
0.0
 11
0.7108860598
 21
-23.4215250971
 31
0.0
 11
0.7280078586
 21
-23.3944456079
 31
0.0
 11
0.7493921762
 21
-23.3697375477
 31
0.0
 11
0.7746051261
 21
-23.3479022302
 31
0.0
 11
0.8031351463
 21
-23.3293826756
 31
0.0
 11
0.8344033764
 21
-23.314554628
 31
0.0
 11
0.8677754024
 21
-23.3037189329
 31
0.0
 11
0.902574129
 21
-23.2970954341
 31
0.0
 11
0.9380935167
 21
-23.2948185145
 31
0.0
  0
SPLINE
  5
643
100
AcDbEntity
  8
PORTATASTO
100
AcDbSpline
 62
253
  6
CONTINUOUS
 70
0
 71
3
 72
18
 73
14
 74
12
 42
0.0000001
 43
0.0000001
 44
0.0000000001
 12
0.0011071506
 22
0.3662491668
 32
0.0
 13
0.3662498989
 23
0.0008303865
 33
0.0
 40
0.0
 40
0.0
 40
0.0
 40
0.0
 40
0.0842956646
 40
0.1691893741
 40
0.2551783555
 40
0.34265483
 40
0.4318747249
 40
0.5229428283
 40
0.6158129532
 40
0.7103000283
 40
0.8061007574
 40
0.9028199028
 40
1.0
 40
1.0
 40
1.0
 40
1.0
 10
19.5630969429
 20
-23.5113248654
 30
0.0
 10
19.5631280523
 20
-23.5010337931
 30
0.0
 10
19.5649017
 20
-23.4803441232
 30
0.0
 10
19.5726237011
 20
-23.4500286297
 30
0.0
 10
19.5852423693
 20
-23.4209759624
 30
0.0
 10
19.6024868568
 20
-23.3937900907
 30
0.0
 10
19.6239937622
 20
-23.3690160235
 30
0.0
 10
19.6493171492
 20
-23.3471488435
 30
0.0
 10
19.6779387486
 20
-23.3286214778
 30
0.0
 10
19.7092773179
 20
-23.3137994957
 30
0.0
 10
19.7427023989
 20
-23.3029747474
 30
0.0
 10
19.7775347401
 20
-23.2963603152
 30
0.0
 10
19.8012294498
 20
-23.2948454135
 30
0.0
 10
19.8130935167
 20
-23.2948185145
 30
0.0
 11
19.5630969429
 21
-23.5113248654
 31
0.0
 11
19.565726083
 21
-23.4805636584
 31
0.0
 11
19.5733741806
 21
-23.4504265804
 31
0.0
 11
19.5858860598
 21
-23.4215250971
 31
0.0
 11
19.6030078586
 21
-23.3944456079
 31
0.0
 11
19.6243921762
 21
-23.3697375477
 31
0.0
 11
19.6496051261
 21
-23.3479022302
 31
0.0
 11
19.6781351463
 21
-23.3293826756
 31
0.0
 11
19.7094033764
 21
-23.314554628
 31
0.0
 11
19.7427754024
 21
-23.3037189329
 31
0.0
 11
19.777574129
 21
-23.2970954341
 31
0.0
 11
19.8130935167
 21
-23.2948185145
 31
0.0
  0
SPLINE
  5
644
100
AcDbEntity
  8
PORTATASTO
100
AcDbSpline
 62
253
  6
CONTINUOUS
 70
0
 71
3
 72
18
 73
14
 74
12
 42
0.0000001
 43
0.0000001
 44
0.0000000001
 12
0.3662498989
 22
-0.0008303865
 32
0.0
 13
0.0011071506
 23
-0.3662491668
 33
0.0
 40
0.0
 40
0.0
 40
0.0
 40
0.0
 40
0.097180097
 40
0.1938992423
 40
0.2896999712
 40
0.3841870463
 40
0.4770571712
 40
0.5681252747
 40
0.6573451698
 40
0.7448216444
 40
0.8308106258
 40
0.9157043353
 40
1.0
 40
1.0
 40
1.0
 40
1.0
 10
2.6869064833
 20
-23.2948185145
 30
0.0
 10
2.6987705502
 20
-23.2948454135
 30
0.0
 10
2.7224652598
 20
-23.2963603152
 30
0.0
 10
2.757297601
 20
-23.3029747473
 30
0.0
 10
2.7907226819
 20
-23.3137994956
 30
0.0
 10
2.8220612512
 20
-23.3286214778
 30
0.0
 10
2.8506828506
 20
-23.3471488434
 30
0.0
 10
2.8760062377
 20
-23.3690160234
 30
0.0
 10
2.8975131432
 20
-23.3937900907
 30
0.0
 10
2.9147576307
 20
-23.4209759623
 30
0.0
 10
2.9273762989
 20
-23.4500286297
 30
0.0
 10
2.9350983
 20
-23.4803441232
 30
0.0
 10
2.9368719477
 20
-23.5010337931
 30
0.0
 10
2.9369030571
 20
-23.5113248654
 30
0.0
 11
2.6869064833
 21
-23.2948185145
 31
0.0
 11
2.7224258709
 21
-23.2970954341
 31
0.0
 11
2.7572245975
 21
-23.3037189329
 31
0.0
 11
2.7905966235
 21
-23.314554628
 31
0.0
 11
2.8218648535
 21
-23.3293826755
 31
0.0
 11
2.8503948737
 21
-23.3479022301
 31
0.0
 11
2.8756078237
 21
-23.3697375476
 31
0.0
 11
2.8969921413
 21
-23.3944456078
 31
0.0
 11
2.9141139402
 21
-23.4215250971
 31
0.0
 11
2.9266258194
 21
-23.4504265804
 31
0.0
 11
2.934273917
 21
-23.4805636584
 31
0.0
 11
2.9369030571
 21
-23.5113248654
 31
0.0
  0
SPLINE
  5
645
100
AcDbEntity
  8
PORTATASTO
100
AcDbSpline
 62
253
  6
CONTINUOUS
 70
0
 71
3
 72
16
 73
12
 74
10
 42
0.0000001
 43
0.0000001
 44
0.0000000001
 12
0.0000000128
 22
-0.2165111267
 32
0.0
 13
-0.0039285624
 23
-0.2164754822
 33
0.0
 40
0.0
 40
0.0
 40
0.0
 40
0.0
 40
0.1330410941
 40
0.2653721429
 40
0.3946348552
 40
0.5181515314
 40
0.6343729951
 40
0.7422936446
 40
0.8403820716
 40
0.9267810823
 40
1.0
 40
1.0
 40
1.0
 40
1.0
 10
2.688215492
 20
-23.0783135804
 30
0.0
 10
2.6882154926
 20
-23.0879152062
 30
0.0
 10
2.6882039759
 20
-23.1070672154
 30
0.0
 10
2.6881520003
 20
-23.1355481208
 30
0.0
 10
2.6880656779
 20
-23.1633415599
 30
0.0
 10
2.6879463885
 20
-23.1899722318
 30
0.0
 10
2.6877960768
 20
-23.2150624579
 30
0.0
 10
2.6876166544
 20
-23.2383172777
 30
0.0
 10
2.6874106807
 20
-23.2594194936
 30
0.0
 10
2.6871818515
 20
-23.2780168704
 30
0.0
 10
2.6870023649
 20
-23.2895351958
 30
0.0
 10
2.6869064832
 20
-23.2948185626
 30
0.0
 11
2.688215492
 21
-23.0783135804
 31
0.0
 11
2.6881980551
 21
-23.1071184523
 31
0.0
 11
2.6881454079
 21
-23.1357695484
 31
0.0
 11
2.6880578376
 21
-23.1637562269
 31
0.0
 11
2.6879370887
 21
-23.190498689
 31
0.0
 11
2.6877849876
 21
-23.2156614694
 31
0.0
 11
2.6876028355
 21
-23.2390267808
 31
0.0
 11
2.6873928747
 21
-23.2602629787
 31
0.0
 11
2.6871590865
 21
-23.2789678649
 31
0.0
 11
2.6869064832
 21
-23.2948185626
 31
0.0
  0
SPLINE
  5
646
100
AcDbEntity
  8
PORTATASTO
100
AcDbSpline
 62
253
  6
CONTINUOUS
 70
0
 71
3
 72
16
 73
12
 74
10
 42
0.0000001
 43
0.0000001
 44
0.0000000001
 12
-0.0039285617
 22
0.2164754792
 32
0.0
 13
0.0000000128
 23
0.2165111237
 33
0.0
 40
0.0
 40
0.0
 40
0.0
 40
0.0
 40
0.0732188971
 40
0.1596179091
 40
0.2577063374
 40
0.3656269884
 40
0.4818484537
 40
0.6053651317
 40
0.7346278457
 40
0.8669588964
 40
1.0
 40
1.0
 40
1.0
 40
1.0
 10
0.9380935168
 20
-23.294818558
 30
0.0
 10
0.9379976351
 20
-23.2895351927
 30
0.0
 10
0.9378181485
 20
-23.2780168689
 30
0.0
 10
0.9375893193
 20
-23.2594194936
 30
0.0
 10
0.9373833456
 20
-23.2383172777
 30
0.0
 10
0.9372039232
 20
-23.2150624579
 30
0.0
 10
0.9370536115
 20
-23.1899722318
 30
0.0
 10
0.9369343221
 20
-23.1633415599
 30
0.0
 10
0.9368479997
 20
-23.1355481208
 30
0.0
 10
0.9367960241
 20
-23.1070672149
 30
0.0
 10
0.9367845074
 20
-23.087915205
 30
0.0
 10
0.936784508
 20
-23.0783135788
 30
0.0
 11
0.9380935168
 21
-23.294818558
 31
0.0
 11
0.9378409135
 21
-23.2789678649
 31
0.0
 11
0.9376071253
 21
-23.2602629787
 31
0.0
 11
0.9373971645
 21
-23.2390267808
 31
0.0
 11
0.9372150124
 21
-23.2156614694
 31
0.0
 11
0.9370629113
 21
-23.190498689
 31
0.0
 11
0.9369421624
 21
-23.1637562269
 31
0.0
 11
0.9368545921
 21
-23.1357695484
 31
0.0
 11
0.9368019449
 21
-23.1071184523
 31
0.0
 11
0.936784508
 21
-23.0783135788
 31
0.0
  0
SPLINE
  5
647
100
AcDbEntity
  8
PORTATASTO
100
AcDbSpline
 62
253
  6
CONTINUOUS
 70
0
 71
3
 72
18
 73
14
 74
12
 42
0.0000001
 43
0.0000001
 44
0.0000000001
 12
-0.3662498989
 22
0.0008303865
 32
0.0
 13
-0.0011071506
 23
0.3662491668
 33
0.0
 40
0.0
 40
0.0
 40
0.0
 40
0.0
 40
0.097180097
 40
0.1938992423
 40
0.2896999712
 40
0.3841870463
 40
0.4770571712
 40
0.5681252747
 40
0.6573451698
 40
0.7448216444
 40
0.8308106258
 40
0.9157043353
 40
1.0
 40
1.0
 40
1.0
 40
1.0
 10
0.9380935167
 20
23.2948185145
 30
0.0
 10
0.9262294498
 20
23.2948454135
 30
0.0
 10
0.9025347402
 20
23.2963603152
 30
0.0
 10
0.867702399
 20
23.3029747473
 30
0.0
 10
0.8342773181
 20
23.3137994956
 30
0.0
 10
0.8029387488
 20
23.3286214778
 30
0.0
 10
0.7743171494
 20
23.3471488434
 30
0.0
 10
0.7489937623
 20
23.3690160234
 30
0.0
 10
0.7274868568
 20
23.3937900907
 30
0.0
 10
0.7102423693
 20
23.4209759623
 30
0.0
 10
0.6976237011
 20
23.4500286297
 30
0.0
 10
0.6899017
 20
23.4803441232
 30
0.0
 10
0.6881280523
 20
23.5010337931
 30
0.0
 10
0.6880969429
 20
23.5113248654
 30
0.0
 11
0.9380935167
 21
23.2948185145
 31
0.0
 11
0.9025741291
 21
23.2970954341
 31
0.0
 11
0.8677754025
 21
23.3037189329
 31
0.0
 11
0.8344033765
 21
23.314554628
 31
0.0
 11
0.8031351465
 21
23.3293826755
 31
0.0
 11
0.7746051263
 21
23.3479022301
 31
0.0
 11
0.7493921763
 21
23.3697375476
 31
0.0
 11
0.7280078587
 21
23.3944456078
 31
0.0
 11
0.7108860598
 21
23.4215250971
 31
0.0
 11
0.6983741806
 21
23.4504265804
 31
0.0
 11
0.690726083
 21
23.4805636584
 31
0.0
 11
0.6880969429
 21
23.5113248654
 31
0.0
  0
SPLINE
  5
648
100
AcDbEntity
  8
PORTATASTO
100
AcDbSpline
 62
253
  6
CONTINUOUS
 70
0
 71
3
 72
16
 73
12
 74
10
 42
0.0000001
 43
0.0000001
 44
0.0000000001
 12
-0.0000000128
 22
0.2165111267
 32
0.0
 13
0.0039285624
 23
0.2164754822
 33
0.0
 40
0.0
 40
0.0
 40
0.0
 40
0.0
 40
0.1330410941
 40
0.2653721429
 40
0.3946348552
 40
0.5181515314
 40
0.6343729951
 40
0.7422936446
 40
0.8403820716
 40
0.9267810823
 40
1.0
 40
1.0
 40
1.0
 40
1.0
 10
0.936784508
 20
23.0783135804
 30
0.0
 10
0.9367845074
 20
23.0879152062
 30
0.0
 10
0.9367960241
 20
23.1070672154
 30
0.0
 10
0.9368479997
 20
23.1355481208
 30
0.0
 10
0.9369343221
 20
23.1633415599
 30
0.0
 10
0.9370536115
 20
23.1899722318
 30
0.0
 10
0.9372039232
 20
23.2150624579
 30
0.0
 10
0.9373833456
 20
23.2383172777
 30
0.0
 10
0.9375893193
 20
23.2594194936
 30
0.0
 10
0.9378181485
 20
23.2780168704
 30
0.0
 10
0.9379976351
 20
23.2895351958
 30
0.0
 10
0.9380935168
 20
23.2948185626
 30
0.0
 11
0.936784508
 21
23.0783135804
 31
0.0
 11
0.9368019449
 21
23.1071184523
 31
0.0
 11
0.9368545921
 21
23.1357695484
 31
0.0
 11
0.9369421624
 21
23.1637562269
 31
0.0
 11
0.9370629113
 21
23.190498689
 31
0.0
 11
0.9372150124
 21
23.2156614694
 31
0.0
 11
0.9373971645
 21
23.2390267808
 31
0.0
 11
0.9376071253
 21
23.2602629787
 31
0.0
 11
0.9378409135
 21
23.2789678649
 31
0.0
 11
0.9380935168
 21
23.2948185626
 31
0.0
  0
SPLINE
  5
649
100
AcDbEntity
  8
PORTATASTO
100
AcDbSpline
 62
253
  6
CONTINUOUS
 70
0
 71
3
 72
16
 73
12
 74
10
 42
0.0000001
 43
0.0000001
 44
0.0000000001
 12
0.0039285617
 22
-0.2164754792
 32
0.0
 13
-0.0000000128
 23
-0.2165111237
 33
0.0
 40
0.0
 40
0.0
 40
0.0
 40
0.0
 40
0.0732188971
 40
0.1596179091
 40
0.2577063374
 40
0.3656269884
 40
0.4818484537
 40
0.6053651317
 40
0.7346278457
 40
0.8669588964
 40
1.0
 40
1.0
 40
1.0
 40
1.0
 10
2.6869064832
 20
23.294818558
 30
0.0
 10
2.6870023649
 20
23.2895351927
 30
0.0
 10
2.6871818515
 20
23.2780168689
 30
0.0
 10
2.6874106807
 20
23.2594194936
 30
0.0
 10
2.6876166544
 20
23.2383172777
 30
0.0
 10
2.6877960768
 20
23.2150624579
 30
0.0
 10
2.6879463885
 20
23.1899722318
 30
0.0
 10
2.6880656779
 20
23.1633415599
 30
0.0
 10
2.6881520003
 20
23.1355481208
 30
0.0
 10
2.6882039759
 20
23.1070672149
 30
0.0
 10
2.6882154926
 20
23.087915205
 30
0.0
 10
2.688215492
 20
23.0783135788
 30
0.0
 11
2.6869064832
 21
23.294818558
 31
0.0
 11
2.6871590865
 21
23.2789678649
 31
0.0
 11
2.6873928747
 21
23.2602629787
 31
0.0
 11
2.6876028355
 21
23.2390267808
 31
0.0
 11
2.6877849876
 21
23.2156614694
 31
0.0
 11
2.6879370887
 21
23.190498689
 31
0.0
 11
2.6880578376
 21
23.1637562269
 31
0.0
 11
2.6881454079
 21
23.1357695484
 31
0.0
 11
2.6881980551
 21
23.1071184523
 31
0.0
 11
2.688215492
 21
23.0783135788
 31
0.0
  0
SPLINE
  5
64A
100
AcDbEntity
  8
PORTATASTO
100
AcDbSpline
 62
253
  6
CONTINUOUS
 70
0
 71
3
 72
18
 73
14
 74
12
 42
0.0000001
 43
0.0000001
 44
0.0000000001
 12
-0.3662498989
 22
0.0008303865
 32
0.0
 13
-0.0011071506
 23
0.3662491668
 33
0.0
 40
0.0
 40
0.0
 40
0.0
 40
0.0
 40
0.097180097
 40
0.1938992423
 40
0.2896999712
 40
0.3841870463
 40
0.4770571712
 40
0.5681252747
 40
0.6573451698
 40
0.7448216444
 40
0.8308106258
 40
0.9157043353
 40
1.0
 40
1.0
 40
1.0
 40
1.0
 10
19.8130935167
 20
23.2948185145
 30
0.0
 10
19.8012294498
 20
23.2948454135
 30
0.0
 10
19.7775347402
 20
23.2963603152
 30
0.0
 10
19.742702399
 20
23.3029747473
 30
0.0
 10
19.7092773181
 20
23.3137994956
 30
0.0
 10
19.6779387488
 20
23.3286214778
 30
0.0
 10
19.6493171494
 20
23.3471488434
 30
0.0
 10
19.6239937623
 20
23.3690160234
 30
0.0
 10
19.6024868568
 20
23.3937900907
 30
0.0
 10
19.5852423693
 20
23.4209759623
 30
0.0
 10
19.5726237011
 20
23.4500286297
 30
0.0
 10
19.5649017
 20
23.4803441232
 30
0.0
 10
19.5631280523
 20
23.5010337931
 30
0.0
 10
19.5630969429
 20
23.5113248654
 30
0.0
 11
19.8130935167
 21
23.2948185145
 31
0.0
 11
19.7775741291
 21
23.2970954341
 31
0.0
 11
19.7427754025
 21
23.3037189329
 31
0.0
 11
19.7094033765
 21
23.314554628
 31
0.0
 11
19.6781351465
 21
23.3293826755
 31
0.0
 11
19.6496051263
 21
23.3479022301
 31
0.0
 11
19.6243921763
 21
23.3697375476
 31
0.0
 11
19.6030078587
 21
23.3944456078
 31
0.0
 11
19.5858860598
 21
23.4215250971
 31
0.0
 11
19.5733741806
 21
23.4504265804
 31
0.0
 11
19.565726083
 21
23.4805636584
 31
0.0
 11
19.5630969429
 21
23.5113248654
 31
0.0
  0
SPLINE
  5
64B
100
AcDbEntity
  8
PORTATASTO
100
AcDbSpline
 62
253
  6
CONTINUOUS
 70
0
 71
3
 72
16
 73
12
 74
10
 42
0.0000001
 43
0.0000001
 44
0.0000000001
 12
-0.0000000128
 22
0.2165111267
 32
0.0
 13
0.0039285624
 23
0.2164754822
 33
0.0
 40
0.0
 40
0.0
 40
0.0
 40
0.0
 40
0.1330410941
 40
0.2653721429
 40
0.3946348552
 40
0.5181515314
 40
0.6343729951
 40
0.7422936446
 40
0.8403820716
 40
0.9267810823
 40
1.0
 40
1.0
 40
1.0
 40
1.0
 10
19.811784508
 20
23.0783135804
 30
0.0
 10
19.8117845074
 20
23.0879152062
 30
0.0
 10
19.8117960241
 20
23.1070672154
 30
0.0
 10
19.8118479997
 20
23.1355481208
 30
0.0
 10
19.8119343221
 20
23.1633415599
 30
0.0
 10
19.8120536115
 20
23.1899722318
 30
0.0
 10
19.8122039232
 20
23.2150624579
 30
0.0
 10
19.8123833456
 20
23.2383172777
 30
0.0
 10
19.8125893193
 20
23.2594194936
 30
0.0
 10
19.8128181485
 20
23.2780168704
 30
0.0
 10
19.8129976351
 20
23.2895351958
 30
0.0
 10
19.8130935168
 20
23.2948185626
 30
0.0
 11
19.811784508
 21
23.0783135804
 31
0.0
 11
19.8118019449
 21
23.1071184523
 31
0.0
 11
19.8118545921
 21
23.1357695484
 31
0.0
 11
19.8119421624
 21
23.1637562269
 31
0.0
 11
19.8120629113
 21
23.190498689
 31
0.0
 11
19.8122150124
 21
23.2156614694
 31
0.0
 11
19.8123971645
 21
23.2390267808
 31
0.0
 11
19.8126071253
 21
23.2602629787
 31
0.0
 11
19.8128409135
 21
23.2789678649
 31
0.0
 11
19.8130935168
 21
23.2948185626
 31
0.0
  0
SPLINE
  5
64C
100
AcDbEntity
  8
RACCORDO
100
AcDbSpline
 62
253
  6
CONTINUOUS
 70
0
 71
3
 72
12
 73
8
 74
6
 42
0.0000001
 43
0.0000001
 44
0.0000000001
 12
0.0086816816
 22
1.9999847375
 32
0.0
 13
-1.9972602542
 23
0.1047177094
 33
0.0
 40
0.0
 40
0.0
 40
0.0
 40
0.0
 40
0.3086093926
 40
0.5875728636
 40
0.809003923
 40
0.9510767102
 40
1.0
 40
1.0
 40
1.0
 40
1.0
 10
-39.8956574815
 20
17.0674431307
 30
0.0
 10
-39.8947643986
 20
17.2731811557
 30
0.0
 10
-39.8901618378
 20
17.668501179
 30
0.0
 10
-39.903234672
 20
18.1939005725
 30
0.0
 10
-39.8710580926
 20
18.6579245798
 30
0.0
 10
-39.9381965242
 20
18.8647022183
 30
0.0
 10
-39.871813502
 20
19.0655831374
 30
0.0
 10
-39.9043843495
 20
19.067290849
 30
0.0
 11
-39.8956574815
 21
17.0674431307
 31
0.0
 11
-39.8938185386
 21
17.6846602813
 31
0.0
 11
-39.8938624902
 21
18.2425882204
 31
0.0
 11
-39.8957970584
 21
18.6854469066
 31
0.0
 11
-39.8994257601
 21
18.9695698184
 31
0.0
 11
-39.9043843495
 21
19.067290849
 31
0.0
  0
SPLINE
  5
64D
100
AcDbEntity
  8
RACCORDO
100
AcDbSpline
 62
253
  6
CONTINUOUS
 70
0
 71
3
 72
12
 73
8
 74
6
 42
0.0000001
 43
0.0000001
 44
0.0000000001
 12
1.9916308343
 22
-0.1777158374
 32
0.0
 13
-0.0218177039
 23
-1.999424989
 33
0.0
 40
0.0
 40
0.0
 40
0.0
 40
0.0
 40
0.0489623091
 40
0.1911229051
 40
0.4125207735
 40
0.6914770343
 40
1.0
 40
1.0
 40
1.0
 40
1.0
 10
-46.5416668113
 20
19.1831450453
 30
0.0
 10
-46.5091618632
 20
19.1802445861
 30
0.0
 10
-46.5828844013
 20
18.9818558179
 30
0.0
 10
-46.5152236484
 20
18.7726551608
 30
0.0
 10
-46.554151755
 20
18.3099910478
 30
0.0
 10
-46.5448679135
 20
17.7843186893
 30
0.0
 10
-46.5525093716
 20
17.3893009199
 30
0.0
 10
-46.5547531259
 20
17.1836780775
 30
0.0
 11
-46.5416668113
 21
19.1831450453
 31
0.0
 11
-46.5400389993
 21
19.0852562866
 31
0.0
 11
-46.5407054008
 21
18.8010006977
 31
0.0
 11
-46.5436046806
 21
18.3583154072
 31
0.0
 11
-46.5484504616
 21
17.8005511327
 31
0.0
 11
-46.5547531259
 21
17.1836780775
 31
0.0
  0
SPLINE
  5
64E
100
AcDbEntity
  8
ASSI
100
AcDbSpline
 62
253
  6
CONTINUOUS
 70
0
 71
3
 72
14
 73
10
 74
8
 42
0.0000001
 43
0.0000001
 44
0.0000000001
 12
-0.0261420634
 22
0.499163349
 32
0.0
 13
0.4991624096
 23
0.0261599937
 33
0.0
 40
0.0
 40
0.0
 40
0.0
 40
0.0
 40
0.2223599894
 40
0.4335323473
 40
0.6229537742
 40
0.781153532
 40
0.900235208
 40
0.9742974101
 40
1.0
 40
1.0
 40
1.0
 40
1.0
 10
-80.0644329924
 20
21.3300661228
 30
0.0
 10
-80.066370642
 20
21.3670641085
 30
0.0
 10
-80.0699764073
 20
21.4392623958
 30
0.0
 10
-80.0743371213
 20
21.5427393096
 30
0.0
 10
-80.0781805281
 20
21.6364622455
 30
0.0
 10
-80.0790358453
 20
21.7122715569
 30
0.0
 10
-80.0829403991
 20
21.7754769739
 30
0.0
 10
-80.0768578132
 20
21.8033560884
 30
0.0
 10
-80.0817890768
 20
21.8291567641
 30
0.0
 10
-80.0775124878
 20
21.8293808907
 30
0.0
 11
-80.0644329924
 21
21.3300661228
 31
0.0
 11
-80.0699192409
 21
21.4410767077
 31
0.0
 11
-80.0744757964
 21
21.5465322741
 31
0.0
 11
-80.0778745039
 21
21.6411530683
 31
0.0
 11
-80.0799451877
 21
21.720201695
 31
0.0
 11
-80.0805841896
 21
21.779720935
 31
0.0
 11
-80.0797595295
 21
21.8167315503
 31
0.0
 11
-80.0775124878
 21
21.8293808907
 31
0.0
  0
SPLINE
  5
64F
100
AcDbEntity
  8
ASSI
100
AcDbSpline
 62
253
  6
CONTINUOUS
 70
0
 71
3
 72
14
 73
10
 74
8
 42
0.0000001
 43
0.0000001
 44
0.0000000001
 12
-0.0261421157
 22
-0.499163347
 32
0.0
 13
0.4991624104
 23
-0.0261599934
 33
0.0
 40
0.0
 40
0.0
 40
0.0
 40
0.0
 40
0.2223614881
 40
0.4335340271
 40
0.62295495
 40
0.7811541795
 40
0.900235513
 40
0.9742974947
 40
1.0
 40
1.0
 40
1.0
 40
1.0
 10
-80.0644329924
 20
-21.3300661228
 30
0.0
 10
-80.066370659
 20
-21.3670643577
 30
0.0
 10
-80.0699764435
 20
-21.4392629249
 30
0.0
 10
-80.0743371675
 20
-21.5427400338
 30
0.0
 10
-80.0781805658
 20
-21.6364628269
 30
0.0
 10
-80.0790358754
 20
-21.712271916
 30
0.0
 10
-80.0829404078
 20
-21.775477137
 30
0.0
 10
-80.0768578328
 20
-21.8033561698
 30
0.0
 10
-80.0817890712
 20
-21.8291567644
 30
0.0
 10
-80.0775124964
 20
-21.8293808902
 30
0.0
 11
-80.0644329924
 21
-21.3300661228
 31
0.0
 11
-80.0699192857
 21
-21.4410774556
 31
0.0
 11
-80.0744758466
 21
-21.5465331126
 31
0.0
 11
-80.0778745422
 21
-21.6411536553
 31
0.0
 11
-80.0799452127
 21
-21.7202020183
 31
0.0
 11
-80.0805842035
 21
-21.7797210873
 31
0.0
 11
-80.0797595352
 21
-21.8167315923
 31
0.0
 11
-80.0775124964
 21
-21.8293808902
 31
0.0
  0
SPLINE
  5
650
100
AcDbEntity
  8
RACCORDO
100
AcDbSpline
 62
253
  6
CONTINUOUS
 70
0
 71
3
 72
11
 73
7
 74
5
 42
0.0000001
 43
0.0000001
 44
0.0000000001
 12
-0.0261371055
 22
0.4990687069
 32
0.0
 13
0.4990677676
 23
0.0261550337
 33
0.0
 40
0.0
 40
0.0
 40
0.0
 40
0.0
 40
0.3824386161
 40
0.7066073213
 40
0.9233114846
 40
1.0
 40
1.0
 40
1.0
 40
1.0
 10
-80.0644329924
 20
21.3300661228
 30
0.0
 10
-80.0677649385
 20
21.3936871714
 30
0.0
 10
-80.0702966218
 20
21.5076192204
 30
0.0
 10
-80.0866814334
 20
21.6741748107
 30
0.0
 10
-80.0674290328
 20
21.7516420901
 30
0.0
 10
-80.0902700766
 20
21.8287122938
 30
0.0
 10
-80.0775124878
 20
21.8293808907
 30
0.0
 11
-80.0644329924
 21
21.3300661228
 31
0.0
 11
-80.0734369328
 21
21.5209786321
 31
0.0
 11
-80.0790837636
 21
21.6828843621
 31
0.0
 11
-80.0805149126
 21
21.7911733878
 31
0.0
 11
-80.0775124878
 21
21.8293808907
 31
0.0
  0
SPLINE
  5
651
100
AcDbEntity
  8
RACCORDO
100
AcDbSpline
 62
253
  6
CONTINUOUS
 70
0
 71
3
 72
11
 73
7
 74
5
 42
0.0000001
 43
0.0000001
 44
0.0000000001
 12
-0.0261371598
 22
-0.4990687118
 32
0.0
 13
0.4990677754
 23
-0.0261550338
 33
0.0
 40
0.0
 40
0.0
 40
0.0
 40
0.0
 40
0.382456936
 40
0.7066253561
 40
0.9233180439
 40
1.0
 40
1.0
 40
1.0
 40
1.0
 10
-80.0644329924
 20
-21.3300661228
 30
0.0
 10
-80.0677651051
 20
-21.3936902196
 30
0.0
 10
-80.0702967268
 20
-21.5076249984
 30
0.0
 10
-80.086681616
 20
-21.6741820218
 30
0.0
 10
-80.0674299811
 20
-21.7516470728
 30
0.0
 10
-80.0902689941
 20
-21.8287123505
 30
0.0
 10
-80.0775124964
 20
-21.8293808902
 30
0.0
 11
-80.0644329924
 21
-21.3300661228
 31
0.0
 11
-80.0734373284
 21
-21.520987782
 31
0.0
 11
-80.0790840197
 21
-21.6828933769
 31
0.0
 11
-80.0805148905
 21
-21.7911766725
 31
0.0
 11
-80.0775124964
 21
-21.8293808902
 31
0.0
  0
SPLINE
  5
652
100
AcDbEntity
  8
PORTATASTO
100
AcDbSpline
 62
253
  6
CONTINUOUS
 70
0
 71
3
 72
18
 73
14
 74
12
 42
0.0000001
 43
0.0000001
 44
0.0000000001
 12
-0.2500020435
 22
0.0013090196
 32
0.0
 13
0.0013089837
 23
0.2500020437
 33
0.0
 40
0.0
 40
0.0
 40
0.0
 40
0.0
 40
0.0102052187
 40
0.0405407572
 40
0.0904038554
 40
0.1587816814
 40
0.2442830896
 40
0.3451679646
 40
0.459382884
 40
0.5846030002
 40
0.7182794006
 40
0.8576910118
 40
1.0
 40
1.0
 40
1.0
 40
1.0
 10
-74.6651012634
 20
-24.4829760304
 30
0.0
 10
-74.6659517052
 20
-24.4829715774
 30
0.0
 10
-74.664295619
 20
-24.4775582909
 30
0.0
 10
-74.6661023104
 20
-24.4719729019
 30
0.0
 10
-74.6652511893
 20
-24.4585006542
 30
0.0
 10
-74.6657261487
 20
-24.4419910153
 30
0.0
 10
-74.6656065584
 20
-24.4205842008
 30
0.0
 10
-74.6656566214
 20
-24.3955941238
 30
0.0
 10
-74.6656005367
 20
-24.367213929
 30
0.0
 10
-74.6655307339
 20
-24.3361267612
 30
0.0
 10
-74.6654194628
 20
-24.3029320739
 30
0.0
 10
-74.6652776808
 20
-24.2683157115
 30
0.0
 10
-74.6651633567
 20
-24.2448386366
 30
0.0
 10
-74.6651012634
 20
-24.2329794573
 30
0.0
 11
-74.6651012634
 21
-24.4829760304
 31
0.0
 11
-74.6652742207
 21
-24.480430539
 31
0.0
 11
-74.6654170109
 21
-24.4728478328
 31
0.0
 11
-74.6655267272
 21
-24.4603822683
 31
0.0
 11
-74.6656011363
 21
-24.4432875996
 31
0.0
 11
-74.6656387234
 21
-24.4219118129
 31
0.0
 11
-74.6656387234
 21
-24.3966900423
 31
0.0
 11
-74.6656011363
 21
-24.3681357123
 31
0.0
 11
-74.6655267272
 21
-24.3368300867
 31
0.0
 11
-74.6654170109
 21
-24.3034104354
 31
0.0
 11
-74.6652742207
 21
-24.2685570624
 31
0.0
 11
-74.6651012634
 21
-24.2329794573
 31
0.0
  0
SPLINE
  5
653
100
AcDbEntity
  8
PORTATASTO
100
AcDbSpline
 62
253
  6
CONTINUOUS
 70
0
 71
3
 72
18
 73
14
 74
12
 42
0.0000001
 43
0.0000001
 44
0.0000000001
 12
-0.0013089837
 22
0.2500020476
 32
0.0
 13
0.2500020474
 23
0.0013090196
 33
0.0
 40
0.0
 40
0.0
 40
0.0
 40
0.0
 40
0.142328713
 40
0.2817593786
 40
0.4154522312
 40
0.5406850046
 40
0.6549076346
 40
0.755794562
 40
0.8412916087
 40
0.9096600112
 40
0.9595054517
 40
0.9898195612
 40
1.0
 40
1.0
 40
1.0
 40
1.0
 10
-74.6651012634
 20
24.2329794573
 30
0.0
 10
-74.6651633653
 20
24.2448402805
 30
0.0
 10
-74.665277704
 20
24.2683205875
 30
0.0
 10
-74.6654194991
 20
24.3029415528
 30
0.0
 10
-74.6655307747
 20
24.3361402557
 30
0.0
 10
-74.6656005676
 20
24.3672304878
 30
0.0
 10
-74.6656566437
 20
24.3956125656
 30
0.0
 10
-74.6656065304
 20
24.4206030535
 30
0.0
 10
-74.6657261389
 20
24.4420089884
 30
0.0
 10
-74.6652510607
 20
24.4585158162
 30
0.0
 10
-74.6661020665
 20
24.4719841597
 30
0.0
 10
-74.6642963983
 20
24.4775650079
 30
0.0
 10
-74.6659496402
 20
24.4829715882
 30
0.0
 10
-74.6651012634
 20
24.4829760304
 30
0.0
 11
-74.6651012634
 21
24.2329794573
 31
0.0
 11
-74.6652742428
 21
24.2685619943
 31
0.0
 11
-74.6654170467
 21
24.3034201314
 31
0.0
 11
-74.6655267665
 21
24.3368438964
 31
0.0
 11
-74.665601168
 21
24.3681526869
 31
0.0
 11
-74.6656387366
 21
24.396708945
 31
0.0
 11
-74.6656387077
 21
24.4219312292
 31
0.0
 11
-74.6656010829
 21
24.4433059258
 31
0.0
 11
-74.6655266277
 21
24.4603982385
 31
0.0
 11
-74.6654168653
 21
24.4728593881
 31
0.0
 11
-74.6652740274
 21
24.4804367353
 31
0.0
 11
-74.6651012634
 21
24.4829760304
 31
0.0
  0
SPLINE
  5
654
100
AcDbEntity
  8
PORTATASTO
100
AcDbSpline
 62
253
  6
CONTINUOUS
 70
0
 71
3
 72
14
 73
10
 74
8
 42
0.0000001
 43
0.0000001
 44
0.0000000001
 12
-0.0078441922
 22
-1.499509387
 32
0.0
 13
1.4978639158
 23
-0.0706655696
 33
0.0
 40
0.0
 40
0.0
 40
0.0
 40
0.0
 40
0.2225532816
 40
0.4339044446
 40
0.6234767879
 40
0.7817837558
 40
0.9009073549
 40
0.974879544
 40
1.0
 40
1.0
 40
1.0
 40
1.0
 10
-76.1216453569
 20
-18.4426993448
 30
0.0
 10
-76.1222272738
 20
-18.5539395898
 30
0.0
 10
-76.1233974568
 20
-18.77098914
 30
0.0
 10
-76.1238042957
 20
-19.0819297839
 30
0.0
 10
-76.1264473963
 20
-19.363616588
 30
0.0
 10
-76.1206509062
 20
-19.5909385775
 30
0.0
 10
-76.1344174967
 20
-19.7814005798
 30
0.0
 10
-76.1075892178
 20
-19.8633213927
 30
0.0
 10
-76.1341876984
 20
-19.9415936152
 30
0.0
 10
-76.1216453569
 20
-19.9421853323
 30
0.0
 11
-76.1216453569
 21
-18.4426993448
 31
0.0
 11
-76.1231943076
 21
-18.7764210511
 31
0.0
 11
-76.1242723921
 21
-19.0933466066
 31
0.0
 11
-76.1248246814
 21
-19.3776154679
 31
0.0
 11
-76.1248246685
 21
-19.6150015003
 31
0.0
 11
-76.1242723291
 21
-19.7936300455
 31
0.0
 11
-76.123194282
 21
-19.9045483162
 31
0.0
 11
-76.1216453569
 21
-19.9421853323
 31
0.0
  0
SPLINE
  5
655
100
AcDbEntity
  8
PORTATASTO
100
AcDbSpline
 62
253
  6
CONTINUOUS
 70
0
 71
3
 72
18
 73
14
 74
12
 42
0.0000001
 43
0.0000001
 44
0.0000000001
 12
-0.1246748135
 22
0.2159490317
 32
0.0
 13
0.2159475517
 23
0.1246773771
 33
0.0
 40
0.0
 40
0.0
 40
0.0
 40
0.0
 40
0.1424198037
 40
0.2818967973
 40
0.4156011363
 40
0.540820109
 40
0.6550131831
 40
0.7558635646
 40
0.8413252303
 40
0.9096645018
 40
0.9594954013
 40
0.9898085439
 40
1.0
 40
1.0
 40
1.0
 40
1.0
 10
-74.6651012634
 20
-23.9443375673
 30
0.0
 10
-74.6710199842
 20
-23.9340857611
 30
0.0
 10
-74.6827287773
 20
-23.9137901747
 30
0.0
 10
-74.6999706102
 20
-23.8838573534
 30
0.0
 10
-74.7164817815
 20
-23.8551509099
 30
0.0
 10
-74.7319145592
 20
-23.8282576665
 30
0.0
 10
-74.7459981656
 20
-23.8037090364
 30
0.0
 10
-74.7583137545
 20
-23.7820484392
 30
0.0
 10
-74.7690109112
 20
-23.7635803272
 30
0.0
 10
-74.7767632987
 20
-23.7490563599
 30
0.0
 10
-74.7841916813
 20
-23.7378314049
 30
0.0
 10
-74.7853687246
 20
-23.7320978265
 30
0.0
 10
-74.7895258791
 20
-23.7282547644
 30
0.0
 10
-74.7887922724
 20
-23.7278312164
 30
0.0
 11
-74.6651012634
 21
-23.9443375673
 31
0.0
 11
-74.6828474652
 21
-23.9135764002
 31
0.0
 11
-74.7002070481
 21
-23.8834393596
 31
0.0
 11
-74.7168277959
 21
-23.854537909
 31
0.0
 11
-74.7323724831
 21
-23.8274584424
 31
0.0
 11
-74.7465257169
 21
-23.8027503867
 31
0.0
 11
-74.7590003362
 21
-23.7809150543
 31
0.0
 11
-74.769543238
 21
-23.7623954716
 31
0.0
 11
-74.777940513
 21
-23.7475673906
 31
0.0
 11
-74.7840217851
 21
-23.7367316644
 31
0.0
 11
-74.7876636688
 21
-23.7301081438
 31
0.0
 11
-74.7887922724
 21
-23.7278312164
 31
0.0
  0
SPLINE
  5
656
100
AcDbEntity
  8
PORTATASTO
100
AcDbSpline
 62
253
  6
CONTINUOUS
 70
0
 71
3
 72
18
 73
14
 74
12
 42
0.0000001
 43
0.0000001
 44
0.0000000001
 12
-0.2159476287
 22
-0.1246772436
 32
0.0
 13
0.1246748135
 23
-0.2159490317
 33
0.0
 40
0.0
 40
0.0
 40
0.0
 40
0.0
 40
0.0101914202
 40
0.0405044625
 40
0.0903352187
 40
0.1586743352
 40
0.2441358709
 40
0.3449861831
 40
0.4591792777
 40
0.5843983549
 40
0.7181028449
 40
0.8575800117
 40
1.0
 40
1.0
 40
1.0
 40
1.0
 10
-74.0387922724
 20
-23.2948185145
 30
0.0
 10
-74.0395258767
 20
-23.2952420605
 30
0.0
 10
-74.0353687363
 20
-23.2990851111
 30
0.0
 10
-74.0341916969
 20
-23.3048186707
 30
0.0
 10
-74.0267633343
 20
-23.3160435964
 30
0.0
 10
-74.0190109636
 20
-23.3305675329
 30
0.0
 10
-74.0083138217
 20
-23.3490356194
 30
0.0
 10
-73.9959982404
 20
-23.3706962038
 30
0.0
 10
-73.9819146318
 20
-23.3952448381
 30
0.0
 10
-73.9664818428
 20
-23.4221381014
 30
0.0
 10
-73.9499706538
 20
-23.4508445758
 30
0.0
 10
-73.9327287998
 20
-23.4807774338
 30
0.0
 10
-73.9210199918
 20
-23.5010730459
 30
0.0
 10
-73.9151012634
 20
-23.5113248654
 30
0.0
 11
-74.0387922724
 21
-23.2948185145
 31
0.0
 11
-74.037663673
 21
-23.2970954341
 31
0.0
 11
-74.0340218016
 21
-23.3037189329
 31
0.0
 11
-74.0279405472
 21
-23.314554628
 31
0.0
 11
-74.0195432915
 21
-23.3293826755
 31
0.0
 11
-74.0090004059
 21
-23.3479022301
 31
0.0
 11
-73.9965257954
 21
-23.3697375476
 31
0.0
 11
-73.9823725592
 21
-23.3944456078
 31
0.0
 11
-73.9668278591
 21
-23.4215250971
 31
0.0
 11
-73.9502070926
 21
-23.4504265804
 31
0.0
 11
-73.9328474882
 21
-23.4805636584
 31
0.0
 11
-73.9151012634
 21
-23.5113248654
 31
0.0
  0
SPLINE
  5
657
100
AcDbEntity
  8
PORTATASTO
100
AcDbSpline
 62
253
  6
CONTINUOUS
 70
0
 71
3
 72
18
 73
14
 74
12
 42
0.0000001
 43
0.0000001
 44
0.0000000001
 12
-0.1246748135
 22
-0.2159490317
 32
0.0
 13
0.2159476274
 23
-0.1246772439
 33
0.0
 40
0.0
 40
0.0
 40
0.0
 40
0.0
 40
0.1424199883
 40
0.2818971551
 40
0.415601645
 40
0.5408207221
 40
0.6550138165
 40
0.7558641287
 40
0.8413256644
 40
0.909664781
 40
0.9594955374
 40
0.9898085797
 40
1.0
 40
1.0
 40
1.0
 40
1.0
 10
-73.9151012634
 20
23.5113248654
 30
0.0
 10
-73.9210199918
 20
23.5010730459
 30
0.0
 10
-73.9327287998
 20
23.4807774338
 30
0.0
 10
-73.9499706538
 20
23.4508445758
 30
0.0
 10
-73.9664818428
 20
23.4221381014
 30
0.0
 10
-73.9819146318
 20
23.3952448381
 30
0.0
 10
-73.9959982404
 20
23.3706962039
 30
0.0
 10
-74.0083138216
 20
23.3490356195
 30
0.0
 10
-74.0190109635
 20
23.330567533
 30
0.0
 10
-74.0267633343
 20
23.3160435964
 30
0.0
 10
-74.0341916969
 20
23.3048186707
 30
0.0
 10
-74.0353687363
 20
23.2990851111
 30
0.0
 10
-74.0395258767
 20
23.2952420605
 30
0.0
 10
-74.0387922724
 20
23.2948185145
 30
0.0
 11
-73.9151012634
 21
23.5113248654
 31
0.0
 11
-73.9328474882
 21
23.4805636584
 31
0.0
 11
-73.9502070926
 21
23.4504265804
 31
0.0
 11
-73.9668278591
 21
23.4215250971
 31
0.0
 11
-73.9823725592
 21
23.3944456079
 31
0.0
 11
-73.9965257953
 21
23.3697375477
 31
0.0
 11
-74.0090004058
 21
23.3479022302
 31
0.0
 11
-74.0195432915
 21
23.3293826756
 31
0.0
 11
-74.0279405472
 21
23.314554628
 31
0.0
 11
-74.0340218016
 21
23.3037189329
 31
0.0
 11
-74.037663673
 21
23.2970954341
 31
0.0
 11
-74.0387922724
 21
23.2948185145
 31
0.0
  0
SPLINE
  5
658
100
AcDbEntity
  8
PORTATASTO
100
AcDbSpline
 62
253
  6
CONTINUOUS
 70
0
 71
3
 72
18
 73
14
 74
12
 42
0.0000001
 43
0.0000001
 44
0.0000000001
 12
-0.2159475515
 22
0.124677377
 32
0.0
 13
0.1246748134
 23
0.2159490316
 33
0.0
 40
0.0
 40
0.0
 40
0.0
 40
0.0
 40
0.0101929118
 40
0.040510362
 40
0.0903488744
 40
0.1586985277
 40
0.2441728972
 40
0.345037767
 40
0.4592457078
 40
0.5844798716
 40
0.7181908024
 40
0.8576727369
 40
1.0
 40
1.0
 40
1.0
 40
1.0
 10
-74.7887922724
 20
23.7278312164
 30
0.0
 10
-74.7895259838
 20
23.7282548249
 30
0.0
 10
-74.7853682138
 20
23.7320984219
 30
0.0
 10
-74.7841909993
 20
23.7378328537
 30
0.0
 10
-74.7767614767
 20
23.7490594865
 30
0.0
 10
-74.7690079159
 20
23.7635856383
 30
0.0
 10
-74.7583091673
 20
23.7820564683
 30
0.0
 10
-74.7459918435
 20
23.8037200905
 30
0.0
 10
-74.7319063807
 20
23.8282719272
 30
0.0
 10
-74.7164720741
 20
23.8551678046
 30
0.0
 10
-74.6999597822
 20
23.883876166
 30
0.0
 10
-74.6827212971
 20
23.9138031454
 30
0.0
 10
-74.6710161383
 20
23.9340924224
 30
0.0
 10
-74.6651012634
 20
23.9443375673
 30
0.0
 11
-74.7887922724
 21
23.7278312164
 31
0.0
 11
-74.7876634972
 21
23.7301084639
 31
0.0
 11
-74.7840210858
 21
23.7367329201
 31
0.0
 11
-74.777938874
 21
23.7475702957
 31
0.0
 11
-74.7695403122
 21
23.7624006231
 31
0.0
 11
-74.7589958315
 21
23.780922952
 31
0.0
 11
-74.7465194079
 21
23.8027614143
 31
0.0
 11
-74.7323643188
 21
23.8274726794
 31
0.0
 11
-74.7168177324
 21
23.8545554235
 31
0.0
 11
-74.7001961518
 21
23.8834582912
 31
0.0
 11
-74.6828359408
 21
23.9135963917
 31
0.0
 11
-74.6651012634
 21
23.9443375673
 31
0.0
  0
SPLINE
  5
659
100
AcDbEntity
  8
PORTATASTO
100
AcDbSpline
 62
7
  6
CONTINUOUS
 70
0
 71
3
 72
20
 73
16
 74
14
 42
0.0000001
 43
0.0000001
 44
0.0000000001
 12
0.0
 22
-0.5000660232
 32
0.0
 13
0.1185618325
 23
-0.4885802824
 33
0.0
 40
0.0
 40
0.0
 40
0.0
 40
0.0
 40
0.120013053
 40
0.2386452224
 40
0.3539005988
 40
0.4642715845
 40
0.567645501
 40
0.6629086717
 40
0.7482722116
 40
0.822887334
 40
0.8853376493
 40
0.9349651843
 40
0.9708548472
 40
0.9925932729
 40
1.0
 40
1.0
 40
1.0
 40
1.0
 10
-72.4137922724
 20
-21.850016923
 30
0.0
 10
-72.4137922724
 20
-21.8700217397
 30
0.0
 10
-72.412907827
 20
-21.9097964444
 30
0.0
 10
-72.4131634361
 20
-21.9687897223
 30
0.0
 10
-72.4134110982
 20
-22.0261725668
 30
0.0
 10
-72.4138415814
 20
-22.0810117535
 30
0.0
 10
-72.4142772004
 20
-22.1325179365
 30
0.0
 10
-72.4146819758
 20
-22.1798561224
 30
0.0
 10
-72.4150016006
 20
-22.2224001781
 30
0.0
 10
-72.4152300037
 20
-22.2594779287
 30
0.0
 10
-72.4152738426
 20
-22.2905919324
 30
0.0
 10
-72.4153110663
 20
-22.3152712251
 30
0.0
 10
-72.4148578807
 20
-22.3331148393
 30
0.0
 10
-72.4149307223
 20
-22.3440113076
 30
0.0
 10
-72.4140849908
 20
-22.3487937397
 30
0.0
 10
-72.4137922724
 20
-22.35
 30
0.0
 11
-72.4137922724
 21
-21.850016923
 31
0.0
 11
-72.4131699781
 21
-21.9100281468
 31
0.0
 11
-72.4131657033
 21
-21.9693520638
 31
0.0
 11
-72.4134492926
 21
-22.0269866638
 31
0.0
 11
-72.4138565086
 21
-22.0821779415
 31
0.0
 11
-72.4142894698
 21
-22.1338699116
 31
0.0
 11
-72.4146873925
 21
-22.1815061246
 31
0.0
 11
-72.4150047941
 21
-22.2241923505
 31
0.0
 11
-72.4152103236
 21
-22.2615042719
 31
0.0
 11
-72.4152774364
 21
-22.2927334807
 31
0.0
 11
-72.4151855891
 21
-22.3175503547
 31
0.0
 11
-72.4149175631
 21
-22.3354955542
 31
0.0
 11
-72.4144581179
 21
-22.3463564888
 31
0.0
 11
-72.4137922724
 21
-22.35
 31
0.0
  0
SPLINE
  5
65A
100
AcDbEntity
  8
PORTATASTO
100
AcDbSpline
 62
7
  6
CONTINUOUS
 70
0
 71
3
 72
20
 73
16
 74
14
 42
0.0000001
 43
0.0000001
 44
0.0000000001
 12
0.0
 22
0.5003117728
 32
0.0
 13
0.1185846698
 23
0.4888280836
 33
0.0
 40
0.0
 40
0.0
 40
0.0
 40
0.0
 40
0.1204141932
 40
0.238987392
 40
0.3542153939
 40
0.4645180709
 40
0.5678334664
 40
0.6630545512
 40
0.7483766938
 40
0.8229547175
 40
0.8853861454
 40
0.9349997949
 40
0.970859407
 40
0.9925918845
 40
1.0
 40
1.0
 40
1.0
 40
1.0
 10
-72.4137922724
 20
21.8497711479
 30
0.0
 10
-72.4137922724
 20
21.8698526941
 30
0.0
 10
-72.4129091872
 20
21.9097040362
 30
0.0
 10
-72.4131629733
 20
21.9687787876
 30
0.0
 10
-72.4134111481
 20
22.0261640457
 30
0.0
 10
-72.413841496
 20
22.081004465
 30
0.0
 10
-72.4142771187
 20
22.1325077912
 30
0.0
 10
-72.4146818874
 20
22.1798455591
 30
0.0
 10
-72.4150015353
 20
22.2223904143
 30
0.0
 10
-72.4152299641
 20
22.2594701428
 30
0.0
 10
-72.4152738577
 20
22.2905877917
 30
0.0
 10
-72.4153110481
 20
22.3152687152
 30
0.0
 10
-72.4148580565
 20
22.3331128382
 30
0.0
 10
-72.4149307688
 20
22.3440088061
 30
0.0
 10
-72.414085102
 20
22.3487929017
 30
0.0
 10
-72.4137922724
 20
22.35
 30
0.0
 11
-72.4137922724
 21
21.8497711479
 31
0.0
 11
-72.4131700394
 21
21.9100125729
 31
0.0
 11
-72.4131656555
 21
21.9693361401
 31
0.0
 11
-72.4134492842
 21
22.0269853683
 31
0.0
 11
-72.4138564412
 21
22.0821695942
 31
0.0
 11
-72.4142893657
 21
22.1338576898
 31
0.0
 11
-72.4146873132
 21
22.1814962575
 31
0.0
 11
-72.4150047303
 21
22.2241827498
 31
0.0
 11
-72.4152102836
 21
22.2614944468
 31
0.0
 11
-72.4152774377
 21
22.292729553
 31
0.0
 11
-72.4151855782
 21
22.317551676
 31
0.0
 11
-72.4149176855
 21
22.3354906619
 31
0.0
 11
-72.4144583122
 21
22.3463539679
 31
0.0
 11
-72.4137922724
 21
22.35
 31
0.0
  0
SPLINE
  5
65B
100
AcDbEntity
  8
PORTATASTO
100
AcDbSpline
 62
7
  6
CONTINUOUS
 70
0
 71
3
 72
10
 73
6
 74
4
 42
0.0000001
 43
0.0000001
 44
0.0000000001
 12
-7.1137194909
 22
0.0400111989
 32
0.0
 13
-7.1136506578
 23
0.0507957657
 33
0.0
 40
0.0
 40
0.0
 40
0.0
 40
0.0
 40
0.3396594066
 40
0.6730056873
 40
1.0
 40
1.0
 40
1.0
 40
1.0
 10
-64.9137922724
 20
-23.4906890903
 30
0.0
 10
-65.7192061862
 20
-23.4861590303
 30
0.0
 10
-67.3150622313
 20
-23.4768497923
 30
0.0
 10
-69.686292551
 20
-23.4619035403
 30
0.0
 10
-71.2521067798
 20
-23.4512037372
 30
0.0
 10
-72.0274812157
 20
-23.4456670951
 30
0.0
 11
-64.9137922724
 21
-23.4906890903
 31
0.0
 11
-67.3300309898
 21
-23.4765715157
 31
0.0
 11
-69.701353152
 21
-23.4615970436
 31
0.0
 11
-72.0274812157
 21
-23.4456670951
 31
0.0
  0
SPLINE
  5
65C
100
AcDbEntity
  8
PORTATASTO
100
AcDbSpline
 62
7
  6
CONTINUOUS
 70
0
 71
3
 72
10
 73
6
 74
4
 42
0.0000001
 43
0.0000001
 44
0.0000000001
 12
7.1136506578
 22
0.0507957657
 32
0.0
 13
7.1137194909
 23
0.0400111989
 33
0.0
 40
0.0
 40
0.0
 40
0.0
 40
0.0
 40
0.3269942247
 40
0.6603405691
 40
1.0
 40
1.0
 40
1.0
 40
1.0
 10
-72.0274812157
 20
23.4456670951
 30
0.0
 10
-71.2521069886
 20
23.4512037357
 30
0.0
 10
-69.6862928172
 20
23.4619035386
 30
0.0
 10
-67.3150624975
 20
23.4768497907
 30
0.0
 10
-65.7192062436
 20
23.4861590299
 30
0.0
 10
-64.9137922724
 20
23.4906890903
 30
0.0
 11
-72.0274812157
 21
23.4456670951
 31
0.0
 11
-69.7013537782
 21
23.4615970395
 31
0.0
 11
-67.3300311622
 21
23.4765715147
 31
0.0
 11
-64.9137922724
 21
23.4906890903
 31
0.0
  0
SPLINE
  5
65D
100
AcDbEntity
  8
CORPO
100
AcDbSpline
 62
253
  6
CONTINUOUS
 70
0
 71
3
 72
13
 73
9
 74
7
 42
0.0000001
 43
0.0000001
 44
0.0000000001
 12
0.0
 22
-1.3294461743
 32
0.0
 13
-1.3293449222
 23
-0.0164075657
 33
0.0
 40
0.0
 40
0.0
 40
0.0
 40
0.0
 40
0.1384690448
 40
0.2853155788
 40
0.4456941123
 40
0.620472345
 40
0.8069775867
 40
1.0
 40
1.0
 40
1.0
 40
1.0
 10
-38.9137922724
 20
-18.1674681916
 30
0.0
 10
-38.9137922724
 20
-18.2288305723
 30
0.0
 10
-38.9380137148
 20
-18.3562857752
 30
0.0
 10
-39.0409936095
 20
-18.5286505075
 30
0.0
 10
-39.2006630668
 20
-18.6743362939
 30
0.0
 10
-39.4055572351
 20
-18.7854701746
 30
0.0
 10
-39.6423913975
 20
-18.8561143753
 30
0.0
 10
-39.8108087443
 20
-18.8734116003
 30
0.0
 10
-39.8963398659
 20
-18.8744672762
 30
0.0
 11
-38.9137922724
 21
-18.1674681916
 31
0.0
 11
-38.9471248188
 21
-18.3485124324
 31
0.0
 11
-39.0449004339
 21
-18.5174874575
 31
0.0
 11
-39.2006134934
 21
-18.6631374509
 31
0.0
 11
-39.4038674713
 21
-18.7757348672
 31
0.0
 11
-39.6411184185
 21
-18.8477802412
 31
0.0
 11
-39.8963398659
 21
-18.8744672762
 31
0.0
  0
SPLINE
  5
65E
100
AcDbEntity
  8
CORPO
100
AcDbSpline
 62
253
  6
CONTINUOUS
 70
0
 71
3
 72
13
 73
9
 74
7
 42
0.0000001
 43
0.0000001
 44
0.0000000001
 12
-0.1565050194
 22
-1.2650190291
 32
0.0
 13
-1.2684118645
 23
-0.0156554937
 33
0.0
 40
0.0
 40
0.0
 40
0.0
 40
0.0
 40
0.097065939
 40
0.2509481908
 40
0.4189966524
 40
0.6021400651
 40
0.7975720145
 40
1.0
 40
1.0
 40
1.0
 40
1.0
 10
-38.9175865091
 20
-18.2189894885
 30
0.0
 10
-38.922650278
 20
-18.2599195751
 30
0.0
 10
-38.9485979765
 20
-18.3645764886
 30
0.0
 10
-39.0409629211
 20
-18.5191937484
 30
0.0
 10
-39.2005928388
 20
-18.6648685092
 30
0.0
 10
-39.4054384374
 20
-18.7760038712
 30
0.0
 10
-39.6422919781
 20
-18.846684303
 30
0.0
 10
-39.8107525131
 20
-18.8639958654
 30
0.0
 10
-39.896339866
 20
-18.8650522354
 30
0.0
 11
-38.9175865091
 21
-18.2189894885
 31
0.0
 11
-38.9471176597
 21
-18.339078277
 31
0.0
 11
-39.0448726588
 21
-18.508037939
 31
0.0
 11
-39.2005418232
 21
-18.6536708438
 31
0.0
 11
-39.4037496826
 21
-18.7662704453
 31
0.0
 11
-39.6409522757
 21
-18.8383318929
 31
0.0
 11
-39.896339866
 21
-18.8650522354
 31
0.0
  0
SPLINE
  5
65F
100
AcDbEntity
  8
CORPO
100
AcDbSpline
 62
253
  6
CONTINUOUS
 70
0
 71
3
 72
11
 73
7
 74
5
 42
0.0000001
 43
0.0000001
 44
0.0000000001
 12
0.0029940421
 22
-0.2928698207
 32
0.0
 13
-0.2928405174
 23
-0.005111511
 33
0.0
 40
0.0
 40
0.0
 40
0.0
 40
0.0
 40
0.4245043662
 40
0.7399520789
 40
0.9342395734
 40
1.0
 40
1.0
 40
1.0
 40
1.0
 10
-39.896339866
 20
-18.874467277
 30
0.0
 10
-39.8959162046
 20
-18.9159087829
 30
0.0
 10
-39.8975640535
 20
-18.9855611698
 30
0.0
 10
-39.8898943619
 20
-19.0848834379
 30
0.0
 10
-39.9028660179
 20
-19.12666385
 30
0.0
 10
-39.8899207602
 20
-19.1672038418
 30
0.0
 10
-39.896339866
 20
-19.1673158868
 30
0.0
 11
-39.896339866
 21
-18.874467277
 31
0.0
 11
-39.8952652644
 21
-18.9987936472
 31
0.0
 11
-39.8949024174
 21
-19.0911828773
 31
0.0
 11
-39.8952652644
 21
-19.1480856375
 31
0.0
 11
-39.896339866
 21
-19.1673158868
 31
0.0
  0
SPLINE
  5
660
100
AcDbEntity
  8
ASSI
100
AcDbSpline
 62
253
  6
CONTINUOUS
 70
0
 71
3
 72
11
 73
7
 74
5
 42
0.0000001
 43
0.0000001
 44
0.0000000001
 12
0.0029940421
 22
-0.2928698207
 32
0.0
 13
-0.2928405174
 23
-0.005111511
 33
0.0
 40
0.0
 40
0.0
 40
0.0
 40
0.0
 40
0.4245043662
 40
0.7399520789
 40
0.9342395734
 40
1.0
 40
1.0
 40
1.0
 40
1.0
 10
-39.896339866
 20
-18.874467277
 30
0.0
 10
-39.8959162046
 20
-18.9159087829
 30
0.0
 10
-39.8975640535
 20
-18.9855611698
 30
0.0
 10
-39.8898943619
 20
-19.0848834379
 30
0.0
 10
-39.9028660179
 20
-19.12666385
 30
0.0
 10
-39.8899207602
 20
-19.1672038418
 30
0.0
 10
-39.896339866
 20
-19.1673158868
 30
0.0
 11
-39.896339866
 21
-18.874467277
 31
0.0
 11
-39.8952652644
 21
-18.9987936472
 31
0.0
 11
-39.8949024174
 21
-19.0911828773
 31
0.0
 11
-39.8952652644
 21
-19.1480856375
 31
0.0
 11
-39.896339866
 21
-19.1673158868
 31
0.0
  0
SPLINE
  5
661
100
AcDbEntity
  8
ASSI
100
AcDbSpline
 62
253
  6
CONTINUOUS
 70
0
 71
3
 72
13
 73
9
 74
7
 42
0.0000001
 43
0.0000001
 44
0.0000000001
 12
-0.1565050194
 22
-1.2650190291
 32
0.0
 13
-1.2684118645
 23
-0.0156554937
 33
0.0
 40
0.0
 40
0.0
 40
0.0
 40
0.0
 40
0.097065939
 40
0.2509481908
 40
0.4189966524
 40
0.6021400651
 40
0.7975720145
 40
1.0
 40
1.0
 40
1.0
 40
1.0
 10
-38.9175865091
 20
-18.2189894885
 30
0.0
 10
-38.922650278
 20
-18.2599195751
 30
0.0
 10
-38.9485979765
 20
-18.3645764886
 30
0.0
 10
-39.0409629211
 20
-18.5191937484
 30
0.0
 10
-39.2005928388
 20
-18.6648685092
 30
0.0
 10
-39.4054384374
 20
-18.7760038712
 30
0.0
 10
-39.6422919781
 20
-18.846684303
 30
0.0
 10
-39.8107525131
 20
-18.8639958654
 30
0.0
 10
-39.896339866
 20
-18.8650522354
 30
0.0
 11
-38.9175865091
 21
-18.2189894885
 31
0.0
 11
-38.9471176597
 21
-18.339078277
 31
0.0
 11
-39.0448726588
 21
-18.508037939
 31
0.0
 11
-39.2005418232
 21
-18.6536708438
 31
0.0
 11
-39.4037496826
 21
-18.7662704453
 31
0.0
 11
-39.6409522757
 21
-18.8383318929
 31
0.0
 11
-39.896339866
 21
-18.8650522354
 31
0.0
  0
SPLINE
  5
662
100
AcDbEntity
  8
ASSI
100
AcDbSpline
 62
253
  6
CONTINUOUS
 70
0
 71
3
 72
13
 73
9
 74
7
 42
0.0000001
 43
0.0000001
 44
0.0000000001
 12
0.0
 22
-1.3294461743
 32
0.0
 13
-1.3293449222
 23
-0.0164075657
 33
0.0
 40
0.0
 40
0.0
 40
0.0
 40
0.0
 40
0.1384690448
 40
0.2853155788
 40
0.4456941123
 40
0.620472345
 40
0.8069775867
 40
1.0
 40
1.0
 40
1.0
 40
1.0
 10
-38.9137922724
 20
-18.1674681916
 30
0.0
 10
-38.9137922724
 20
-18.2288305723
 30
0.0
 10
-38.9380137148
 20
-18.3562857752
 30
0.0
 10
-39.0409936095
 20
-18.5286505075
 30
0.0
 10
-39.2006630668
 20
-18.6743362939
 30
0.0
 10
-39.4055572351
 20
-18.7854701746
 30
0.0
 10
-39.6423913975
 20
-18.8561143753
 30
0.0
 10
-39.8108087443
 20
-18.8734116003
 30
0.0
 10
-39.8963398659
 20
-18.8744672762
 30
0.0
 11
-38.9137922724
 21
-18.1674681916
 31
0.0
 11
-38.9471248188
 21
-18.3485124324
 31
0.0
 11
-39.0449004339
 21
-18.5174874575
 31
0.0
 11
-39.2006134934
 21
-18.6631374509
 31
0.0
 11
-39.4038674713
 21
-18.7757348672
 31
0.0
 11
-39.6411184185
 21
-18.8477802412
 31
0.0
 11
-39.8963398659
 21
-18.8744672762
 31
0.0
  0
SPLINE
  5
663
100
AcDbEntity
  8
CURVE
100
AcDbSpline
 62
253
  6
CONTINUOUS
 70
0
 71
3
 72
12
 73
8
 74
6
 42
0.0000001
 43
0.0000001
 44
0.0000000001
 12
-2.4846839272
 22
0.5294159701
 32
0.0
 13
0.1411347893
 23
2.53727548
 33
0.0
 40
0.0
 40
0.0
 40
0.0
 40
0.0
 40
0.2
 40
0.4
 40
0.6
 40
0.8
 40
1.0
 40
1.0
 40
1.0
 40
1.0
 10
-54.8415762779
 20
-10.8253922241
 30
0.0
 10
-55.007221873
 20
-10.7900978261
 30
0.0
 10
-55.3303187058
 20
-10.6716830295
 30
0.0
 10
-55.7446041435
 20
-10.366312956
 30
0.0
 10
-56.0574067014
 20
-9.9569897998
 30
0.0
 10
-56.2433040407
 20
-9.4769803986
 30
0.0
 10
-56.2727726009
 20
-9.1340396987
 30
0.0
 10
-56.263363615
 20
-8.964888
 30
0.0
 11
-54.8415762779
 21
-10.8253922241
 31
0.0
 11
-55.3185920705
 21
-10.6503917164
 31
0.0
 11
-55.7276903302
 21
-10.3489874422
 31
0.0
 11
-56.0362558316
 21
-9.945208759
 31
0.0
 11
-56.2196882909
 21
-9.4712467905
 31
0.0
 11
-56.263363615
 21
-8.964888
 31
0.0
  0
SPLINE
  5
664
100
AcDbEntity
  8
CURVE
100
AcDbSpline
 62
253
  6
CONTINUOUS
 70
0
 71
3
 72
12
 73
8
 74
6
 42
0.0000001
 43
0.0000001
 44
0.0000000001
 12
0.1411387897
 22
-2.5372726921
 32
0.0
 13
-2.4846810741
 23
-0.5294170747
 33
0.0
 40
0.0
 40
0.0
 40
0.0
 40
0.0
 40
0.2
 40
0.4
 40
0.6
 40
0.8
 40
1.0
 40
1.0
 40
1.0
 40
1.0
 10
-52.6700216342
 20
-8.9648852338
 30
0.0
 10
-52.6606123816
 20
-9.1340367466
 30
0.0
 10
-52.690080386
 20
-9.4769771536
 30
0.0
 10
-52.8759768979
 20
-9.9569863288
 30
0.0
 10
-53.1887786774
 20
-10.3663094387
 30
0.0
 10
-53.6030634143
 20
-10.6716796043
 30
0.0
 10
-53.9261598389
 20
-10.7900945284
 30
0.0
 10
-54.0918052438
 20
-10.825389
 30
0.0
 11
-52.6700216342
 21
-8.9648852338
 31
0.0
 11
-52.7136961369
 21
-9.4712435811
 31
0.0
 11
-52.8971277759
 21
-9.9452053179
 31
0.0
 11
-53.2056925036
 21
-10.348983948
 31
0.0
 11
-53.6147900643
 21
-10.6503883077
 31
0.0
 11
-54.0918052438
 21
-10.825389
 31
0.0
  0
SPLINE
  5
665
100
AcDbEntity
  8
CURVE
100
AcDbSpline
 62
253
  6
CONTINUOUS
 70
0
 71
3
 72
22
 73
18
 74
16
 42
0.0000001
 43
0.0000001
 44
0.0000000001
 12
-0.3141456649
 22
-8.0070666672
 32
0.0
 13
0.259995658
 23
8.0230698378
 33
0.0
 40
0.0
 40
0.0
 40
0.0
 40
0.0
 40
0.0681818182
 40
0.1363636364
 40
0.2045454545
 40
0.2727272727
 40
0.3409090909
 40
0.4090909091
 40
0.4772727273
 40
0.5454545455
 40
0.6136363636
 40
0.6818181818
 40
0.75
 40
0.8181818182
 40
0.8863636364
 40
0.9545454545
 40
1.0
 40
1.0
 40
1.0
 40
1.0
 10
-57.0139519263
 20
-13.349999
 30
0.0
 10
-57.0210916005
 20
-13.5319777879
 30
0.0
 10
-56.9961392152
 20
-13.8986819277
 30
0.0
 10
-56.8425552521
 20
-14.4271798219
 30
0.0
 10
-56.5799141804
 20
-14.9110763513
 30
0.0
 10
-56.22026008
 20
-15.3278311464
 30
0.0
 10
-55.7801067831
 20
-15.6583999947
 30
0.0
 10
-55.2796591928
 20
-15.8875842634
 30
0.0
 10
-54.7418912697
 20
-16.0048691915
 30
0.0
 10
-54.1914898952
 20
-16.0048690963
 30
0.0
 10
-53.6537220125
 20
-15.8875839822
 30
0.0
 10
-53.1532745014
 20
-15.6583995404
 30
0.0
 10
-52.7131213188
 20
-15.3278305399
 30
0.0
 10
-52.3534673624
 20
-14.9110756205
 30
0.0
 10
-52.0908264579
 20
-14.4271790002
 30
0.0
 10
-51.954307542
 20
-13.9574030471
 30
0.0
 10
-51.9227588643
 20
-13.6538123933
 30
0.0
 10
-51.9188195362
 20
-13.5322507291
 30
0.0
 11
-57.0139519263
 21
-13.349999
 31
0.0
 11
-56.9767799843
 21
-13.8950888751
 31
0.0
 11
-56.8243790674
 21
-14.4197462611
 31
0.0
 11
-56.5637453423
 21
-14.8998860623
 31
0.0
 11
-56.2068435473
 21
-15.3134668219
 31
0.0
 11
-55.7700577342
 21
-15.6415025647
 31
0.0
 11
-55.2734391374
 21
-15.8689343733
 31
0.0
 11
-54.7397856944
 21
-15.9853216876
 31
0.0
 11
-54.1935954771
 21
-15.9853215932
 31
0.0
 11
-53.6599420744
 21
-15.8689340943
 31
0.0
 11
-53.1633235562
 21
-15.641502114
 31
0.0
 11
-52.7265378565
 21
-15.3134662201
 31
0.0
 11
-52.3696362044
 21
-14.899885337
 31
0.0
 11
-52.1090026453
 21
-14.4197454457
 31
0.0
 11
-51.9566019096
 21
-13.895088007
 31
0.0
 11
-51.9188195362
 21
-13.5322507291
 31
0.0
  0
SPLINE
  5
666
100
AcDbEntity
  8
CURVE
100
AcDbSpline
 62
253
  6
CONTINUOUS
 70
0
 71
3
 72
21
 73
17
 74
15
 42
0.0000001
 43
0.0000001
 44
0.0000000001
 12
0.3167208511
 22
-5.6939111026
 32
0.0
 13
-0.1254183564
 23
5.7130625324
 33
0.0
 40
0.0
 40
0.0
 40
0.0
 40
0.0
 40
0.0731707317
 40
0.1463414634
 40
0.2195121951
 40
0.2926829268
 40
0.3658536585
 40
0.4390243902
 40
0.512195122
 40
0.5853658537
 40
0.6585365854
 40
0.7317073171
 40
0.8048780488
 40
0.8780487805
 40
0.9512195122
 40
1.0
 40
1.0
 40
1.0
 40
1.0
 10
-52.6700184267
 20
-13.3499981109
 30
0.0
 10
-52.6622935279
 20
-13.4888739915
 30
0.0
 10
-52.6792588471
 20
-13.7695091742
 30
0.0
 10
-52.8008102258
 20
-14.172434448
 30
0.0
 10
-53.011872441
 20
-14.5367660108
 30
0.0
 10
-53.3011193115
 20
-14.8426336566
 30
0.0
 10
-53.6530025135
 20
-15.0736782453
 30
0.0
 10
-54.0486131788
 20
-15.2174626183
 30
0.0
 10
-54.4666910799
 20
-15.2662655842
 30
0.0
 10
-54.8847689781
 20
-15.2174625924
 30
0.0
 10
-55.2803796345
 20
-15.0736781951
 30
0.0
 10
-55.6322628222
 20
-14.8426335846
 30
0.0
 10
-55.9215096739
 20
-14.5367659209
 30
0.0
 10
-56.1325718666
 20
-14.1724343451
 30
0.0
 10
-56.2406175145
 20
-13.8142785396
 30
0.0
 10
-56.2636537291
 20
-13.5820850988
 30
0.0
 10
-56.265693052
 20
-13.4891897731
 30
0.0
 11
-52.6700184267
 21
-13.3499981109
 31
0.0
 11
-52.6952760804
 21
-13.7665045908
 31
0.0
 11
-52.8157286985
 21
-14.1660021628
 31
0.0
 11
-53.0249032169
 21
-14.5270220246
 31
0.0
 11
-53.3115587001
 21
-14.8301631471
 31
0.0
 11
-53.6602904241
 21
-15.059134876
 31
0.0
 11
-54.0523577181
 21
-15.2016323837
 31
0.0
 11
-54.4666910794
 21
-15.2499979246
 31
0.0
 11
-54.8810244378
 21
-15.2016323582
 31
0.0
 11
-55.273091723
 21
-15.0591348262
 31
0.0
 11
-55.6218234329
 21
-14.8301630758
 31
0.0
 11
-55.9084788974
 21
-14.5270219356
 31
0.0
 11
-56.1176533935
 21
-14.1660020609
 31
0.0
 11
-56.238105987
 21
-13.7665044815
 31
0.0
 11
-56.265693052
 21
-13.4891897731
 31
0.0
  0
SPLINE
  5
667
100
AcDbEntity
  8
CURVE
100
AcDbSpline
 62
253
  6
CONTINUOUS
 70
0
 71
3
 72
11
 73
7
 74
5
 42
0.0000001
 43
0.0000001
 44
0.0000000001
 12
0.7373377137
 22
0.0113808125
 32
0.0
 13
0.0164643223
 23
-0.7373539953
 33
0.0
 40
0.0
 40
0.0
 40
0.0
 40
0.0
 40
0.2491315025
 40
0.4973515609
 40
0.7462289133
 40
1.0
 40
1.0
 40
1.0
 40
1.0
 10
-66.9831033109
 20
-5.4627200261
 30
0.0
 10
-66.9218719601
 20
-5.4617749198
 30
0.0
 10
-66.7974178882
 20
-5.4732383197
 30
0.0
 10
-66.6337824853
 20
-5.5749993121
 30
0.0
 10
-66.5485285628
 20
-5.746549742
 30
0.0
 10
-66.5340284046
 20
-5.8705216342
 30
0.0
 10
-66.5326356816
 20
-5.9328946758
 30
0.0
 11
-66.9831033109
 21
-5.4627200261
 31
0.0
 11
-66.8010522497
 21
-5.4874007505
 31
0.0
 11
-66.6470329955
 21
-5.5863253894
 31
0.0
 11
-66.5595206648
 21
-5.7476704692
 31
0.0
 11
-66.5326356816
 21
-5.9328946758
 31
0.0
  0
SPLINE
  5
668
100
AcDbEntity
  8
CURVE
100
AcDbSpline
 62
253
  6
CONTINUOUS
 70
0
 71
3
 72
9
 73
5
 74
3
 42
0.0000001
 43
0.0000001
 44
0.0000000001
 12
0.0616043735
 22
0.5307774627
 32
0.0
 13
0.5341948855
 23
0.0083576149
 33
0.0
 40
0.0
 40
0.0
 40
0.0
 40
0.0
 40
0.5000882298
 40
1.0
 40
1.0
 40
1.0
 40
1.0
 10
-67.3454685756
 20
-5.804625691
 30
0.0
 10
-67.3351993682
 20
-5.7161471704
 30
0.0
 10
-67.2573477882
 20
-5.5367587789
 30
0.0
 10
-67.0721200812
 20
-5.4641127161
 30
0.0
 10
-66.9831033109
 20
-5.4627200261
 30
0.0
 11
-67.3454685756
 21
-5.804625691
 31
0.0
 11
-67.2304805442
 21
-5.5634221249
 31
0.0
 11
-66.9831033109
 21
-5.4627200261
 31
0.0
  0
SPLINE
  5
669
100
AcDbEntity
  8
CURVE
100
AcDbSpline
 62
253
  6
CONTINUOUS
 70
0
 71
3
 72
9
 73
5
 74
3
 42
0.0000001
 43
0.0000001
 44
0.0000000001
 12
-0.0800078963
 22
0.4690276623
 32
0.0
 13
0.054842989
 23
0.4726325126
 33
0.0
 40
0.0
 40
0.0
 40
0.0
 40
0.0
 40
0.4997637338
 40
1.0
 40
1.0
 40
1.0
 40
1.0
 10
-67.3284045844
 20
-6.2788012718
 30
0.0
 10
-67.3417329327
 20
-6.2006669333
 30
0.0
 10
-67.3611155426
 20
-6.0427263562
 30
0.0
 10
-67.3546133929
 20
-5.8834349988
 30
0.0
 10
-67.3454685756
 20
-5.804625691
 30
0.0
 11
-67.3284045844
 21
-6.2788012718
 31
0.0
 11
-67.354641308
 21
-6.0424636122
 31
0.0
 11
-67.3454685756
 21
-5.804625691
 31
0.0
  0
SPLINE
  5
66A
100
AcDbEntity
  8
CURVE
100
AcDbSpline
 62
253
  6
CONTINUOUS
 70
0
 71
3
 72
11
 73
7
 74
5
 42
0.0000001
 43
0.0000001
 44
0.0000000001
 12
-0.5116812263
 22
-1.4167437705
 32
0.0
 13
0.2191822581
 23
-1.4903036133
 33
0.0
 40
0.0
 40
0.0
 40
0.0
 40
0.0
 40
0.249614251
 40
0.499888924
 40
0.7499637517
 40
1.0
 40
1.0
 40
1.0
 40
1.0
 10
-67.7578519851
 20
-5.3678501192
 30
0.0
 10
-67.8004262938
 20
-5.485729931
 30
0.0
 10
-67.8479019872
 20
-5.735014474
 30
0.0
 10
-67.8623087483
 20
-6.1116431473
 30
0.0
 10
-67.8391530746
 20
-6.4882750285
 30
0.0
 10
-67.8066393676
 20
-6.7373573696
 30
0.0
 10
-67.7883715311
 20
-6.8615673444
 30
0.0
 11
-67.7578519851
 21
-5.3678501192
 31
0.0
 11
-67.8383960525
 21
-5.7351233729
 31
0.0
 11
-67.8560446707
 21
-6.1117086883
 31
0.0
 11
-67.8348809504
 21
-6.487811254
 31
0.0
 11
-67.7883715311
 21
-6.8615673444
 31
0.0
  0
SPLINE
  5
66B
100
AcDbEntity
  8
CURVE
100
AcDbSpline
 62
253
  6
CONTINUOUS
 70
0
 71
3
 72
18
 73
14
 74
12
 42
0.0000001
 43
0.0000001
 44
0.0000000001
 12
-0.2311001381
 22
1.7915717583
 32
0.0
 13
-0.6128270121
 23
-1.6992591149
 33
0.0
 40
0.0
 40
0.0
 40
0.0
 40
0.0
 40
0.0626155709
 40
0.1255750725
 40
0.1873779143
 40
0.2500548274
 40
0.3131302752
 40
0.3757850613
 40
0.5005898481
 40
0.6254073429
 40
0.7503252015
 40
0.8752611255
 40
1.0
 40
1.0
 40
1.0
 40
1.0
 10
-66.2937180677
 20
-5.30544429
 30
0.0
 10
-66.2985415567
 20
-5.2680508605
 30
0.0
 10
-66.3515139844
 20
-5.205742357
 30
0.0
 10
-66.4235352858
 20
-5.1219941374
 30
0.0
 10
-66.5094845556
 20
-5.0470552444
 30
0.0
 10
-66.6059030332
 20
-4.9877497308
 30
0.0
 10
-66.7102822263
 20
-4.9423237958
 30
0.0
 10
-66.8559447966
 20
-4.9015430794
 30
0.0
 10
-67.0453411703
 20
-4.887359708
 30
0.0
 10
-67.2705114612
 20
-4.9207057947
 30
0.0
 10
-67.4790630472
 20
-5.0158512686
 30
0.0
 10
-67.6491513642
 20
-5.1675562972
 30
0.0
 10
-67.7323708678
 20
-5.2971955627
 30
0.0
 10
-67.7578519851
 20
-5.3678501192
 30
0.0
 11
-66.2937180677
 21
-5.30544429
 31
0.0
 11
-66.3501988601
 21
-5.2074502929
 31
0.0
 11
-66.426336706
 21
-5.1229750287
 31
0.0
 11
-66.5107878418
 21
-5.0499699399
 31
0.0
 11
-66.6069454751
 21
-4.9902217399
 31
0.0
 11
-66.7113822176
 21
-4.9447010075
 31
0.0
 11
-66.8203359312
 21
-4.914117073
 31
0.0
 11
-67.0450021406
 21
-4.8957499389
 31
0.0
 11
-67.2676709423
 21
-4.9309846614
 31
0.0
 11
-67.4726474528
 21
-5.0252799698
 31
0.0
 11
-67.6416918473
 21
-5.1747784359
 31
0.0
 11
-67.7578519851
 21
-5.3678501192
 31
0.0
  0
SPLINE
  5
66C
100
AcDbEntity
  8
CURVE
100
AcDbSpline
 62
253
  6
CONTINUOUS
 70
0
 71
3
 72
11
 73
7
 74
5
 42
0.0000001
 43
0.0000001
 44
0.0000000001
 12
-0.6648989534
 22
-0.181193689
 32
0.0
 13
-0.2552161048
 23
-0.6402353954
 33
0.0
 40
0.0
 40
0.0
 40
0.0
 40
0.0
 40
0.2450440156
 40
0.5033055314
 40
0.7579591626
 40
1.0
 40
1.0
 40
1.0
 40
1.0
 10
-65.7080427631
 20
-4.9565587397
 30
0.0
 10
-65.7623525996
 20
-4.9713588828
 30
0.0
 10
-65.8743140175
 20
-5.0005213919
 30
0.0
 10
-66.0367219455
 20
-5.0651610171
 30
0.0
 10
-66.1843587292
 20
-5.159157879
 30
0.0
 10
-66.2559979572
 20
-5.2537899196
 30
0.0
 10
-66.2765888638
 20
-5.30544429
 30
0.0
 11
-65.7080427631
 21
-4.9565587397
 31
0.0
 11
-65.8703975871
 21
-5.0030172293
 31
0.0
 11
-66.035061558
 21
-5.0705695192
 31
0.0
 11
-66.1801242732
 21
-5.169347468
 31
0.0
 11
-66.2765888638
 21
-5.30544429
 31
0.0
  0
SPLINE
  5
66D
100
AcDbEntity
  8
CURVE
100
AcDbSpline
 62
253
  6
CONTINUOUS
 70
0
 71
3
 72
8
 73
4
 74
2
 42
0.0000001
 43
0.0000001
 44
0.0000000001
 12
-0.7830184647
 22
-0.212730392
 32
0.0
 13
-0.7828503484
 23
-0.2133484193
 33
0.0
 40
0.0
 40
0.0
 40
0.0
 40
0.0
 40
1.0
 40
1.0
 40
1.0
 40
1.0
 10
-64.923468708
 20
-4.7496410148
 30
0.0
 10
-65.1844748629
 20
-4.8205511455
 30
0.0
 10
-65.447092647
 20
-4.8854426
 30
0.0
 10
-65.7080427631
 20
-4.9565587397
 30
0.0
 11
-64.923468708
 21
-4.7496410148
 31
0.0
 11
-65.7080427631
 21
-4.9565587397
 31
0.0
  0
SPLINE
  5
66E
100
AcDbEntity
  8
CURVE
100
AcDbSpline
 62
253
  6
CONTINUOUS
 70
0
 71
3
 72
9
 73
5
 74
3
 42
0.0000001
 43
0.0000001
 44
0.0000000001
 12
0.8593546271
 22
0.3229459945
 32
0.0
 13
0.8822654545
 23
0.2537321442
 33
0.0
 40
0.0
 40
0.0
 40
0.0
 40
0.0
 40
0.499968398
 40
1.0
 40
1.0
 40
1.0
 40
1.0
 10
-65.8024707601
 20
-5.5965120355
 30
0.0
 10
-65.6592540414
 20
-5.542691105
 30
0.0
 10
-65.3636333375
 20
-5.4614309255
 30
0.0
 10
-65.0705222442
 20
-5.3741331019
 30
0.0
 10
-64.923468708
 20
-5.3318417383
 30
0.0
 11
-65.8024707601
 21
-5.5965120355
 31
0.0
 11
-65.3642793452
 21
-5.4599268412
 31
0.0
 11
-64.923468708
 21
-5.3318417383
 31
0.0
  0
SPLINE
  5
66F
100
AcDbEntity
  8
CURVE
100
AcDbSpline
 62
253
  6
CONTINUOUS
 70
0
 71
3
 72
11
 73
7
 74
5
 42
0.0000001
 43
0.0000001
 44
0.0000000001
 12
0.0
 22
0.4505958664
 32
0.0
 13
0.421793933
 23
0.1583423737
 33
0.0
 40
0.0
 40
0.0
 40
0.0
 40
0.0
 40
0.2477795725
 40
0.4960551195
 40
0.7486644071
 40
1.0
 40
1.0
 40
1.0
 40
1.0
 10
-66.0578871884
 20
-5.9341993273
 30
0.0
 10
-66.0578871884
 20
-5.8969831769
 30
0.0
 10
-66.0469989671
 20
-5.8216580962
 30
0.0
 10
-65.9912926083
 20
-5.7211454858
 30
0.0
 10
-65.9056326398
 20
-5.6450913069
 30
0.0
 10
-65.8378080362
 20
-5.609777727
 30
0.0
 10
-65.8024707601
 20
-5.5965120355
 30
0.0
 11
-66.0578871884
 21
-5.9341993273
 31
0.0
 11
-66.0405173374
 21
-5.8239107377
 31
0.0
 11
-65.9867579312
 21
-5.7258068357
 31
0.0
 11
-65.902865065
 21
-5.648891914
 31
0.0
 11
-65.8024707601
 21
-5.5965120355
 31
0.0
  0
SPLINE
  5
670
100
AcDbEntity
  8
CURVE
100
AcDbSpline
 62
253
  6
CONTINUOUS
 70
0
 71
3
 72
13
 73
9
 74
7
 42
0.0000001
 43
0.0000001
 44
0.0000000001
 12
0.6830460881
 22
0.0
 32
0.0
 13
0.0852923267
 23
-0.6778031497
 33
0.0
 40
0.0
 40
0.0
 40
0.0
 40
0.0
 40
0.2490801906
 40
0.3745290044
 40
0.5000465587
 40
0.6245839973
 40
0.7501008193
 40
1.0
 40
1.0
 40
1.0
 40
1.0
 10
-66.9232370546
 20
4.1187598859
 30
0.0
 10
-66.8665259713
 20
4.1187598859
 30
0.0
 10
-66.7794546985
 20
4.110949299
 30
0.0
 10
-66.6749383402
 20
4.0639042122
 30
0.0
 10
-66.6051440825
 20
4.0123287258
 30
0.0
 10
-66.5578803467
 20
3.9389346122
 30
0.0
 10
-66.5254959638
 20
3.8288650197
 30
0.0
 10
-66.5207800218
 20
3.7430729482
 30
0.0
 10
-66.5136751943
 20
3.6866121309
 30
0.0
 11
-66.9232370546
 21
4.1187598859
 31
0.0
 11
-66.7546002422
 21
4.0962409458
 31
0.0
 11
-66.6764040632
 21
4.0611974199
 31
0.0
 11
-66.6087436813
 21
4.0085354483
 31
0.0
 11
-66.5617914496
 21
3.9375915065
 31
0.0
 11
-66.5357439392
 21
3.8558979327
 31
0.0
 11
-66.5136751943
 21
3.6866121309
 31
0.0
  0
SPLINE
  5
671
100
AcDbEntity
  8
CURVE
100
AcDbSpline
 62
253
  6
CONTINUOUS
 70
0
 71
3
 72
13
 73
9
 74
7
 42
0.0000001
 43
0.0000001
 44
0.0000000001
 12
0.0852923267
 22
0.6778031497
 32
0.0
 13
0.6830460881
 23
-0.0
 33
0.0
 40
0.0
 40
0.0
 40
0.0
 40
0.0
 40
0.2498991807
 40
0.3754160027
 40
0.4999534413
 40
0.6254709956
 40
0.7509198094
 40
1.0
 40
1.0
 40
1.0
 40
1.0
 10
-67.3327989149
 20
3.6866121309
 30
0.0
 10
-67.3256940873
 20
3.7430729482
 30
0.0
 10
-67.3209781453
 20
3.8288650197
 30
0.0
 10
-67.2885937625
 20
3.9389346122
 30
0.0
 10
-67.2413300266
 20
4.0123287258
 30
0.0
 10
-67.1715357689
 20
4.0639042122
 30
0.0
 10
-67.0670194106
 20
4.110949299
 30
0.0
 10
-66.9799481378
 20
4.1187598859
 30
0.0
 10
-66.9232370546
 20
4.1187598859
 30
0.0
 11
-67.3327989149
 21
3.6866121309
 31
0.0
 11
-67.31073017
 21
3.8558979327
 31
0.0
 11
-67.2846826595
 21
3.9375915065
 31
0.0
 11
-67.2377304278
 21
4.0085354483
 31
0.0
 11
-67.170070046
 21
4.0611974199
 31
0.0
 11
-67.0918738669
 21
4.0962409458
 31
0.0
 11
-66.9232370546
 21
4.1187598859
 31
0.0
  0
SPLINE
  5
672
100
AcDbEntity
  8
CURVE
100
AcDbSpline
 62
253
  6
CONTINUOUS
 70
0
 71
3
 72
15
 73
11
 74
9
 42
0.0000001
 43
0.0000001
 44
0.0000000001
 12
-1.7069126765
 22
0.0
 32
0.0
 13
-0.0632100266
 23
-1.7060017172
 33
0.0
 40
0.0
 40
0.0
 40
0.0
 40
0.0
 40
0.1248401019
 40
0.2498663855
 40
0.374885782
 40
0.5000299202
 40
0.6250550432
 40
0.7501198193
 40
0.875035251
 40
1.0
 40
1.0
 40
1.0
 40
1.0
 10
-66.9232370546
 20
4.7815268003
 30
0.0
 10
-66.9942674387
 20
4.7815268003
 30
0.0
 10
-67.1368662543
 20
4.7716793234
 30
0.0
 10
-67.3439840059
 20
4.7119708447
 30
0.0
 10
-67.526279691
 20
4.5935070156
 30
0.0
 10
-67.6589755879
 20
4.4217447249
 30
0.0
 10
-67.7411113967
 20
4.22298974
 30
0.0
 10
-67.7889694758
 20
4.0142899176
 30
0.0
 10
-67.8088937346
 20
3.801448305
 30
0.0
 10
-67.811952048
 20
3.6592834163
 30
0.0
 10
-67.8145850563
 20
3.5882200575
 30
0.0
 11
-66.9232370546
 21
4.7815268003
 31
0.0
 11
-67.1356236794
 21
4.7642105591
 31
0.0
 11
-67.3398239212
 21
4.7021878845
 31
0.0
 11
-67.5179595398
 21
4.584670781
 31
0.0
 11
-67.650579856
 21
4.4171904032
 31
0.0
 11
-67.7353979449
 21
4.2213330331
 31
0.0
 11
-67.7843283045
 21
4.0135100265
 31
0.0
 11
-67.8063370952
 21
3.8013969153
 31
0.0
 11
-67.8145850563
 21
3.5882200575
 31
0.0
  0
SPLINE
  5
673
100
AcDbEntity
  8
CURVE
100
AcDbSpline
 62
253
  6
CONTINUOUS
 70
0
 71
3
 72
15
 73
11
 74
9
 42
0.0000001
 43
0.0000001
 44
0.0000000001
 12
-0.0632100266
 22
1.7060017172
 32
0.0
 13
-1.7069126765
 23
0.0
 33
0.0
 40
0.0
 40
0.0
 40
0.0
 40
0.0
 40
0.124964749
 40
0.2498801807
 40
0.3749449568
 40
0.4999700798
 40
0.625114218
 40
0.7501336145
 40
0.8751598981
 40
1.0
 40
1.0
 40
1.0
 40
1.0
 10
-66.0318890528
 20
3.5882200575
 30
0.0
 10
-66.0345220612
 20
3.6592834163
 30
0.0
 10
-66.0375803745
 20
3.801448305
 30
0.0
 10
-66.0575046333
 20
4.0142899176
 30
0.0
 10
-66.1053627124
 20
4.22298974
 30
0.0
 10
-66.1874985212
 20
4.4217447249
 30
0.0
 10
-66.3201944181
 20
4.5935070156
 30
0.0
 10
-66.5024901033
 20
4.7119708447
 30
0.0
 10
-66.7096078548
 20
4.7716793234
 30
0.0
 10
-66.8522066704
 20
4.7815268003
 30
0.0
 10
-66.9232370546
 20
4.7815268003
 30
0.0
 11
-66.0318890528
 21
3.5882200575
 31
0.0
 11
-66.0401370139
 21
3.8013969153
 31
0.0
 11
-66.0621458046
 21
4.0135100265
 31
0.0
 11
-66.1110761642
 21
4.2213330331
 31
0.0
 11
-66.1958942532
 21
4.4171904032
 31
0.0
 11
-66.3285145693
 21
4.584670781
 31
0.0
 11
-66.5066501879
 21
4.7021878845
 31
0.0
 11
-66.7108504297
 21
4.7642105591
 31
0.0
 11
-66.9232370546
 21
4.7815268003
 31
0.0
  0
SPLINE
  5
674
100
AcDbEntity
  8
CURVE
100
AcDbSpline
 62
253
  6
CONTINUOUS
 70
0
 71
3
 72
22
 73
18
 74
16
 42
0.0000001
 43
0.0000001
 44
0.0000000001
 12
-0.3141583832
 22
-8.0070705498
 32
0.0
 13
0.2599960807
 23
8.0230742264
 33
0.0
 40
0.0
 40
0.0
 40
0.0
 40
0.0
 40
0.0681818182
 40
0.1363636364
 40
0.2045454545
 40
0.2727272727
 40
0.3409090909
 40
0.4090909091
 40
0.4772727273
 40
0.5454545455
 40
0.6136363636
 40
0.6818181818
 40
0.75
 40
0.8181818182
 40
0.8863636364
 40
0.9545454545
 40
1.0
 40
1.0
 40
1.0
 40
1.0
 10
-57.0139519263
 20
-8.964885
 30
0.0
 10
-57.0210918895
 20
-9.1468638761
 30
0.0
 10
-56.9961400459
 20
-9.5135682573
 30
0.0
 10
-56.8425567431
 20
-10.0420666608
 30
0.0
 10
-56.5799161578
 20
-10.5259638015
 30
0.0
 10
-56.2202623588
 20
-10.9427192597
 30
0.0
 10
-55.7801091807
 20
-11.2732887742
 30
0.0
 10
-55.2796615407
 20
-11.5024736667
 30
0.0
 10
-54.7418934238
 20
-11.6197591376
 30
0.0
 10
-54.1914917444
 20
-11.619759474
 30
0.0
 10
-53.6537234842
 20
-11.5024746603
 30
0.0
 10
-53.1532755643
 20
-11.2732903792
 30
0.0
 10
-52.7131219825
 20
-10.9427214027
 30
0.0
 10
-52.3534676745
 20
-10.525966384
 30
0.0
 10
-52.0908264982
 20
-10.0420695643
 30
0.0
 10
-51.954307433
 20
-9.5722933725
 30
0.0
 10
-51.9227587169
 20
-9.2687025534
 30
0.0
 10
-51.9188193823
 20
-9.1471408227
 30
0.0
 11
-57.0139519263
 21
-8.964885
 31
0.0
 11
-56.9767807897
 21
-9.5099752293
 31
0.0
 11
-56.8243805293
 21
-10.034633117
 31
0.0
 11
-56.5637472888
 21
-10.5147735211
 31
0.0
 11
-56.2068457956
 21
-10.9283549357
 31
0.0
 11
-55.7700601037
 21
-11.2563913372
 31
0.0
 11
-55.2734414612
 21
-11.4838237631
 31
0.0
 11
-54.73978783
 21
-11.6002116152
 31
0.0
 11
-54.1935973143
 21
-11.600211949
 31
0.0
 11
-53.6599435409
 21
-11.483824749
 31
0.0
 11
-53.1633246207
 21
-11.25639293
 31
0.0
 11
-52.7265385281
 21
-10.9283570623
 31
0.0
 11
-52.3696365298
 21
-10.5147760838
 31
0.0
 11
-52.1090027029
 21
-10.0346359983
 31
0.0
 11
-51.9566018017
 21
-9.5099782968
 31
0.0
 11
-51.9188193823
 21
-9.1471408227
 31
0.0
  0
SPLINE
  5
675
100
AcDbEntity
  8
CURVE
100
AcDbSpline
 62
253
  6
CONTINUOUS
 70
0
 71
3
 72
8
 73
4
 74
2
 42
0.0000001
 43
0.0000001
 44
0.0000000001
 12
-0.0030589843
 22
0.1393429886
 32
0.0
 13
0.0077249074
 23
0.1388758801
 33
0.0
 40
0.0
 40
0.0
 40
0.0
 40
0.0
 40
1.0
 40
1.0
 40
1.0
 40
1.0
 10
-56.265693052
 20
-13.4891897731
 30
0.0
 10
-56.2667127134
 20
-13.4427421103
 30
0.0
 10
-56.2659385841
 20
-13.39628996
 30
0.0
 10
-56.263363615
 20
-13.349998
 30
0.0
 11
-56.265693052
 21
-13.4891897731
 31
0.0
 11
-56.263363615
 21
-13.349998
 31
0.0
  0
ELLIPSE
  5
676
100
AcDbEntity
  8
CORPO
100
AcDbEllipse
 62
7
  6
CONTINUOUS
 10
20.3996953439
 20
17.6714466826
 30
0.0
 11
-1.8480888181
 21
-0.7655034529
 31
0.0
 40
0.9998215708
 41
2.7489566578
 42
2.8709991878
  0
ELLIPSE
  5
677
100
AcDbEntity
  8
CORPO
100
AcDbEllipse
 62
7
  6
CONTINUOUS
 10
20.3996953439
 20
-17.6714466826
 30
0.0
 11
1.8480888181
 21
-0.7655034529
 31
0.0
 40
0.9998215708
 41
0.2705934654
 42
0.3926359958
  0
ELLIPSE
  5
678
100
AcDbEntity
  8
CORPO
100
AcDbEllipse
 62
7
  6
CONTINUOUS
 10
-20.3996953439
 20
-17.6714466826
 30
0.0
 11
1.8480888181
 21
0.7655034529
 31
0.0
 40
0.9998215708
 41
2.7489566578
 42
2.8709991878
  0
ELLIPSE
  5
679
100
AcDbEntity
  8
CORPO
100
AcDbEllipse
 62
7
  6
CONTINUOUS
 10
-20.3996953439
 20
17.6714466826
 30
0.0
 11
-1.8480888181
 21
0.7655034529
 31
0.0
 40
0.9998215708
 41
0.2705934654
 42
0.3926359958
  0
ELLIPSE
  5
67A
100
AcDbEntity
  8
ASSI
100
AcDbEllipse
 62
7
  6
CONTINUOUS
 10
-20.3996953439
 20
17.6714466826
 30
0.0
 11
-1.8480888181
 21
0.7655034529
 31
0.0
 40
0.9998215708
 41
0.2705934654
 42
0.3926359958
  0
ELLIPSE
  5
67B
100
AcDbEntity
  8
ASSI
100
AcDbEllipse
 62
7
  6
CONTINUOUS
 10
-20.3996953439
 20
-17.6714466826
 30
0.0
 11
1.8480888181
 21
0.7655034529
 31
0.0
 40
0.9998215708
 41
2.7489566578
 42
2.8709991878
  0
ELLIPSE
  5
67C
100
AcDbEntity
  8
ASSI
100
AcDbEllipse
 62
7
  6
CONTINUOUS
 10
20.3996953439
 20
-17.6714466826
 30
0.0
 11
1.8480888181
 21
-0.7655034529
 31
0.0
 40
0.9998215708
 41
0.2705934654
 42
0.3926359958
  0
ELLIPSE
  5
67D
100
AcDbEntity
  8
ASSI
100
AcDbEllipse
 62
7
  6
CONTINUOUS
 10
20.3996953439
 20
17.6714466826
 30
0.0
 11
-1.8480888181
 21
-0.7655034529
 31
0.0
 40
0.9998215708
 41
2.7489566578
 42
2.8709991878
  0
ELLIPSE
  5
67E
100
AcDbEntity
  8
ASSI
100
AcDbEllipse
 62
7
  6
CONTINUOUS
 10
21.6498286038
 20
21.599313827
 30
0.0
 11
0.2238673116
 21
0.4480418466
 31
0.0
 40
0.9982882662
 41
-1.1067376861
 42
0.4626886447
  0
ELLIPSE
  5
67F
100
AcDbEntity
  8
ASSI
100
AcDbEllipse
 62
7
  6
CONTINUOUS
 10
-21.6498286038
 20
21.599313827
 30
0.0
 11
-0.2238673116
 21
0.4480418466
 31
0.0
 40
0.9982882662
 41
-0.4626886447
 42
1.1067376861
  0
ELLIPSE
  5
680
100
AcDbEntity
  8
ASSI
100
AcDbEllipse
 62
7
  6
CONTINUOUS
 10
-21.6114745601
 20
-21.5225531047
 30
0.0
 11
0.4994885634
 21
-0.0261749567
 31
0.0
 40
0.9978197385
 41
-3.0877528432
 42
-1.5183265125
  0
ELLIPSE
  5
681
100
AcDbEntity
  8
ASSI
100
AcDbEllipse
 62
7
  6
CONTINUOUS
 10
21.6114745601
 20
-21.5225531047
 30
0.0
 11
0.4994885634
 21
0.0261749567
 31
0.0
 40
0.9978197385
 41
-1.6232661411
 42
-0.0538398104
  0
ELLIPSE
  5
682
100
AcDbEntity
  8
RACCORDO
100
AcDbEllipse
 62
7
  6
CONTINUOUS
 10
21.6498286038
 20
21.599313827
 30
0.0
 11
0.2238673116
 21
0.4480418466
 31
0.0
 40
0.9982882662
 41
-1.1067376861
 42
0.4626886447
  0
ELLIPSE
  5
683
100
AcDbEntity
  8
RACCORDO
100
AcDbEllipse
 62
7
  6
CONTINUOUS
 10
-21.6498286038
 20
21.599313827
 30
0.0
 11
-0.2238673116
 21
0.4480418466
 31
0.0
 40
0.9982882662
 41
-0.4626886447
 42
1.1067376861
  0
ELLIPSE
  5
684
100
AcDbEntity
  8
RACCORDO
100
AcDbEllipse
 62
7
  6
CONTINUOUS
 10
-21.6114745601
 20
-21.5225531047
 30
0.0
 11
0.4994885634
 21
-0.0261749567
 31
0.0
 40
0.9978197385
 41
-3.0877528432
 42
-1.5183265125
  0
ELLIPSE
  5
685
100
AcDbEntity
  8
RACCORDO
100
AcDbEllipse
 62
7
  6
CONTINUOUS
 10
21.6114745601
 20
-21.5225531047
 30
0.0
 11
0.4994885634
 21
0.0261749567
 31
0.0
 40
0.9978197385
 41
-1.6232661411
 42
-0.0538398104
  0
ELLIPSE
  5
686
100
AcDbEntity
  8
PORTATASTO
100
AcDbEllipse
 62
7
  6
CONTINUOUS
 10
-19.800003427
 20
24.249996573
 30
0.0
 11
0.1767815418
 21
0.1767815417
 31
0.0
 40
0.9999725851
 41
0.5950227918
 42
0.7853844561
  0
ELLIPSE
  5
687
100
AcDbEntity
  8
PORTATASTO
100
AcDbEllipse
 62
7
  6
CONTINUOUS
 10
-19.800003427
 20
24.249996573
 30
0.0
 11
0.1767815417
 21
0.1767815418
 31
0.0
 40
0.9999725851
 41
-0.7853844561
 42
0.1666317358
  0
ELLIPSE
  5
688
100
AcDbEntity
  8
PORTATASTO
100
AcDbEllipse
 62
7
  6
CONTINUOUS
 10
-21.574996573
 20
24.249996573
 30
0.0
 11
0.1767815418
 21
-0.1767815417
 31
0.0
 40
0.9999725851
 41
-2.5465698626
 42
-2.3562081984
  0
ELLIPSE
  5
689
100
AcDbEntity
  8
PORTATASTO
100
AcDbEllipse
 62
7
  6
CONTINUOUS
 10
-21.574996573
 20
24.249996573
 30
0.0
 11
-0.1767815417
 21
0.1767815418
 31
0.0
 40
0.9999725851
 41
0.1666317354
 42
0.5950227915
  0
ELLIPSE
  5
68A
100
AcDbEntity
  8
PORTATASTO
100
AcDbEllipse
 62
7
  6
CONTINUOUS
 10
-21.574996573
 20
24.249996573
 30
0.0
 11
0.1767815418
 21
-0.1767815418
 31
0.0
 40
0.9999725851
 41
2.9749609118
 42
3.308224389
  0
ELLIPSE
  5
68B
100
AcDbEntity
  8
PORTATASTO
100
AcDbEllipse
 62
7
  6
CONTINUOUS
 10
-21.574996573
 20
24.249996573
 30
0.0
 11
-0.1767815418
 21
0.1767815417
 31
0.0
 40
0.9999725851
 41
-0.7853844559
 42
-0.166631742
  0
ELLIPSE
  5
68C
100
AcDbEntity
  8
PORTATASTO
100
AcDbEllipse
 62
7
  6
CONTINUOUS
 10
-0.925003427
 20
24.249996573
 30
0.0
 11
0.1767815417
 21
0.1767815418
 31
0.0
 40
0.9999725851
 41
-0.7853844561
 42
0.1666317356
  0
ELLIPSE
  5
68D
100
AcDbEntity
  8
PORTATASTO
100
AcDbEllipse
 62
7
  6
CONTINUOUS
 10
-2.699996573
 20
24.249996573
 30
0.0
 11
0.1767815418
 21
-0.1767815418
 31
0.0
 40
0.9999725851
 41
-2.5465698621
 42
-2.3562081979
  0
ELLIPSE
  5
68E
100
AcDbEntity
  8
PORTATASTO
100
AcDbEllipse
 62
7
  6
CONTINUOUS
 10
-2.699996573
 20
24.249996573
 30
0.0
 11
-0.1767815418
 21
0.1767815417
 31
0.0
 40
0.9999725851
 41
0.1666317353
 42
0.5950227913
  0
ELLIPSE
  5
68F
100
AcDbEntity
  8
PORTATASTO
100
AcDbEllipse
 62
7
  6
CONTINUOUS
 10
-2.699996573
 20
24.249996573
 30
0.0
 11
0.1767815417
 21
-0.1767815418
 31
0.0
 40
0.9999725851
 41
2.9749609119
 42
3.3082243892
  0
ELLIPSE
  5
690
100
AcDbEntity
  8
PORTATASTO
100
AcDbEllipse
 62
7
  6
CONTINUOUS
 10
-2.699996573
 20
24.249996573
 30
0.0
 11
-0.1767815418
 21
0.1767815417
 31
0.0
 40
0.9999725851
 41
-0.7853844558
 42
-0.1666317419
  0
ELLIPSE
  5
691
100
AcDbEntity
  8
PORTATASTO
100
AcDbEllipse
 62
7
  6
CONTINUOUS
 10
-19.800003427
 20
-24.249996573
 30
0.0
 11
0.1767815418
 21
-0.1767815417
 31
0.0
 40
0.9999725851
 41
-0.1666317419
 42
0.7853844558
  0
ELLIPSE
  5
692
100
AcDbEntity
  8
PORTATASTO
100
AcDbEllipse
 62
7
  6
CONTINUOUS
 10
-19.800003427
 20
-24.249996573
 30
0.0
 11
-0.1767815417
 21
0.1767815418
 31
0.0
 40
0.9999725851
 41
-3.9269771092
 42
-3.3082243953
  0
ELLIPSE
  5
693
100
AcDbEntity
  8
PORTATASTO
100
AcDbEllipse
 62
7
  6
CONTINUOUS
 10
-21.574996573
 20
-24.249996573
 30
0.0
 11
0.1767815418
 21
0.1767815417
 31
0.0
 40
0.9999725851
 41
2.974960912
 42
3.9269771094
  0
ELLIPSE
  5
694
100
AcDbEntity
  8
PORTATASTO
100
AcDbEllipse
 62
7
  6
CONTINUOUS
 10
-21.574996573
 20
-24.249996573
 30
0.0
 11
0.1767815417
 21
0.1767815418
 31
0.0
 40
0.9999725851
 41
-3.9269771094
 42
-3.3082243955
  0
ELLIPSE
  5
695
100
AcDbEntity
  8
PORTATASTO
100
AcDbEllipse
 62
7
  6
CONTINUOUS
 10
-0.925003427
 20
-24.249996573
 30
0.0
 11
0.1767815418
 21
-0.1767815417
 31
0.0
 40
0.9999725851
 41
-0.7853844558
 42
0.7853844557
  0
ELLIPSE
  5
696
100
AcDbEntity
  8
PORTATASTO
100
AcDbEllipse
 62
7
  6
CONTINUOUS
 10
-2.699996573
 20
-24.249996573
 30
0.0
 11
0.1767815418
 21
0.1767815418
 31
0.0
 40
0.9999725851
 41
-3.9269771093
 42
-2.3562081979
  0
ELLIPSE
  5
697
100
AcDbEntity
  8
PORTATASTO
100
AcDbEllipse
 62
7
  6
CONTINUOUS
 10
21.574996573
 20
-24.249996573
 30
0.0
 11
0.1767815418
 21
-0.1767815417
 31
0.0
 40
0.9999725851
 41
0.5950227914
 42
0.7853844557
  0
ELLIPSE
  5
698
100
AcDbEntity
  8
PORTATASTO
100
AcDbEllipse
 62
7
  6
CONTINUOUS
 10
21.574996573
 20
-24.249996573
 30
0.0
 11
-0.1767815417
 21
0.1767815418
 31
0.0
 40
0.9999725851
 41
-2.9749609181
 42
-2.5465698621
  0
ELLIPSE
  5
699
100
AcDbEntity
  8
PORTATASTO
100
AcDbEllipse
 62
7
  6
CONTINUOUS
 10
21.574996573
 20
-24.249996573
 30
0.0
 11
0.1767815418
 21
-0.1767815417
 31
0.0
 40
0.9999725851
 41
-0.166631742
 42
0.1666317352
  0
ELLIPSE
  5
69A
100
AcDbEntity
  8
PORTATASTO
100
AcDbEllipse
 62
7
  6
CONTINUOUS
 10
21.574996573
 20
-24.249996573
 30
0.0
 11
-0.1767815417
 21
0.1767815418
 31
0.0
 40
0.9999725851
 41
-3.9269771092
 42
-3.3082243953
  0
ELLIPSE
  5
69B
100
AcDbEntity
  8
PORTATASTO
100
AcDbEllipse
 62
7
  6
CONTINUOUS
 10
19.800003427
 20
-24.249996573
 30
0.0
 11
0.1767815418
 21
0.1767815417
 31
0.0
 40
0.9999725851
 41
-2.5465698621
 42
-2.3562081978
  0
ELLIPSE
  5
69C
100
AcDbEntity
  8
PORTATASTO
100
AcDbEllipse
 62
7
  6
CONTINUOUS
 10
19.800003427
 20
-24.249996573
 30
0.0
 11
0.1767815417
 21
0.1767815418
 31
0.0
 40
0.9999725851
 41
-2.9749609182
 42
-2.5465698622
  0
ELLIPSE
  5
69D
100
AcDbEntity
  8
PORTATASTO
100
AcDbEllipse
 62
7
  6
CONTINUOUS
 10
19.800003427
 20
-24.249996573
 30
0.0
 11
0.1767815417
 21
0.1767815418
 31
0.0
 40
0.9999725851
 41
2.9749609117
 42
3.3082243889
  0
ELLIPSE
  5
69E
100
AcDbEntity
  8
PORTATASTO
100
AcDbEllipse
 62
7
  6
CONTINUOUS
 10
19.800003427
 20
-24.249996573
 30
0.0
 11
0.1767815417
 21
0.1767815418
 31
0.0
 40
0.9999725851
 41
-3.9269771094
 42
-3.3082243955
  0
ELLIPSE
  5
69F
100
AcDbEntity
  8
PORTATASTO
100
AcDbEllipse
 62
7
  6
CONTINUOUS
 10
2.699996573
 20
-24.249996573
 30
0.0
 11
0.1767815418
 21
-0.1767815417
 31
0.0
 40
0.9999725851
 41
-0.7853844558
 42
0.7853844557
  0
ELLIPSE
  5
6A0
100
AcDbEntity
  8
PORTATASTO
100
AcDbEllipse
 62
7
  6
CONTINUOUS
 10
0.925003427
 20
-24.249996573
 30
0.0
 11
0.1767815418
 21
0.1767815417
 31
0.0
 40
0.9999725851
 41
-3.9269771093
 42
-2.3562081978
  0
ELLIPSE
  5
6A1
100
AcDbEntity
  8
PORTATASTO
100
AcDbEllipse
 62
7
  6
CONTINUOUS
 10
19.800003427
 20
24.249996573
 30
0.0
 11
0.1767815418
 21
-0.1767815417
 31
0.0
 40
0.9999725851
 41
-2.5465698624
 42
-2.3562081981
  0
ELLIPSE
  5
6A2
100
AcDbEntity
  8
PORTATASTO
100
AcDbEllipse
 62
7
  6
CONTINUOUS
 10
19.800003427
 20
24.249996573
 30
0.0
 11
-0.1767815417
 21
0.1767815418
 31
0.0
 40
0.9999725851
 41
0.1666317357
 42
0.5950227917
  0
ELLIPSE
  5
6A3
100
AcDbEntity
  8
PORTATASTO
100
AcDbEllipse
 62
7
  6
CONTINUOUS
 10
19.800003427
 20
24.249996573
 30
0.0
 11
0.1767815417
 21
-0.1767815418
 31
0.0
 40
0.9999725851
 41
2.3562081982
 42
3.308224389
  0
ELLIPSE
  5
6A4
100
AcDbEntity
  8
PORTATASTO
100
AcDbEllipse
 62
7
  6
CONTINUOUS
 10
21.574996573
 20
24.249996573
 30
0.0
 11
0.1767815417
 21
0.1767815418
 31
0.0
 40
0.9999725851
 41
-0.7853844559
 42
0.7853844559
  0
ELLIPSE
  5
6A5
100
AcDbEntity
  8
PORTATASTO
100
AcDbEllipse
 62
7
  6
CONTINUOUS
 10
0.925003427
 20
24.249996573
 30
0.0
 11
0.1767815417
 21
-0.1767815418
 31
0.0
 40
0.9999725851
 41
-2.546569862
 42
-2.3562081977
  0
ELLIPSE
  5
6A6
100
AcDbEntity
  8
PORTATASTO
100
AcDbEllipse
 62
7
  6
CONTINUOUS
 10
0.925003427
 20
24.249996573
 30
0.0
 11
-0.1767815418
 21
0.1767815417
 31
0.0
 40
0.9999725851
 41
-0.1666317419
 42
0.5950227916
  0
ELLIPSE
  5
6A7
100
AcDbEntity
  8
PORTATASTO
100
AcDbEllipse
 62
7
  6
CONTINUOUS
 10
0.925003427
 20
24.249996573
 30
0.0
 11
0.1767815417
 21
-0.1767815418
 31
0.0
 40
0.9999725851
 41
2.3562081981
 42
2.974960912
  0
ELLIPSE
  5
6A8
100
AcDbEntity
  8
PORTATASTO
100
AcDbEllipse
 62
7
  6
CONTINUOUS
 10
2.699996573
 20
24.249996573
 30
0.0
 11
0.1767815418
 21
0.1767815417
 31
0.0
 40
0.9999725851
 41
0.5950227916
 42
0.5950227918
  0
ELLIPSE
  5
6A9
100
AcDbEntity
  8
PORTATASTO
100
AcDbEllipse
 62
7
  6
CONTINUOUS
 10
2.699996573
 20
24.249996573
 30
0.0
 11
0.1767815417
 21
0.1767815418
 31
0.0
 40
0.9999725851
 41
-0.7853844562
 42
-0.1666317423
  0
ELLIPSE
  5
6AA
100
AcDbEntity
  8
PORTATASTO
100
AcDbEllipse
 62
7
  6
CONTINUOUS
 10
-15.1421390926
 20
23.7921459466
 30
0.0
 11
0.5
 21
0.0
 31
0.0
 40
0.0052360356
 41
-3.1363566658
 42
-2.4954709846
  0
ELLIPSE
  5
6AB
100
AcDbEntity
  8
PORTATASTO
100
AcDbEllipse
 62
7
  6
CONTINUOUS
 10
-7.3578609074
 20
23.7921459466
 30
0.0
 11
0.5
 21
0.0
 31
0.0
 40
0.0052360356
 41
-0.646121669
 42
-0.0052359878
  0
ELLIPSE
  5
6AC
100
AcDbEntity
  8
PORTATASTO
100
AcDbEllipse
 62
7
  6
CONTINUOUS
 10
15.1421390926
 20
22.3237961104
 30
0.0
 11
0.5
 21
0.0
 31
0.0
 40
0.0524077793
 41
-1.5707963268
 42
-0.0052359878
  0
ELLIPSE
  5
6AD
100
AcDbEntity
  8
PORTATASTO
100
AcDbEllipse
 62
7
  6
CONTINUOUS
 10
7.3578609074
 20
22.3237961104
 30
0.0
 11
0.5
 21
-0.0
 31
0.0
 40
0.0524077793
 41
-3.1363566658
 42
-1.5707963268
  0
ELLIPSE
  5
6AE
100
AcDbEntity
  8
PORTATASTO
100
AcDbEllipse
 62
7
  6
CONTINUOUS
 10
-15.1421390926
 20
-23.7921459466
 30
0.0
 11
0.5
 21
-0.0
 31
0.0
 40
0.0052360356
 41
2.4954709846
 42
3.1363566658
  0
ELLIPSE
  5
6AF
100
AcDbEntity
  8
PORTATASTO
100
AcDbEllipse
 62
7
  6
CONTINUOUS
 10
-7.3578609074
 20
-23.7921459466
 30
0.0
 11
0.5
 21
0.0
 31
0.0
 40
0.0052360356
 41
0.0052359878
 42
0.646121669
  0
ELLIPSE
  5
6B0
100
AcDbEntity
  8
PORTATASTO
100
AcDbEllipse
 62
7
  6
CONTINUOUS
 10
7.3578609074
 20
-22.3237961104
 30
0.0
 11
0.5
 21
0.0
 31
0.0
 40
0.0524077793
 41
1.5707963268
 42
3.1363566658
  0
ELLIPSE
  5
6B1
100
AcDbEntity
  8
PORTATASTO
100
AcDbEllipse
 62
7
  6
CONTINUOUS
 10
15.1421390926
 20
-22.3237961104
 30
0.0
 11
0.5
 21
0.0
 31
0.0
 40
0.0524077793
 41
0.0052359878
 42
1.5707963268
  0
ELLIPSE
  5
6B2
100
AcDbEntity
  8
PORTATASTO
100
AcDbEllipse
 62
7
  6
CONTINUOUS
 10
15.1421390926
 20
23.7921459466
 30
0.0
 11
0.5
 21
-0.0
 31
0.0
 40
0.0052360356
 41
-0.646121669
 42
-0.0052359878
  0
ELLIPSE
  5
6B3
100
AcDbEntity
  8
PORTATASTO
100
AcDbEllipse
 62
7
  6
CONTINUOUS
 10
7.3578609074
 20
23.7921459466
 30
0.0
 11
0.5
 21
0.0
 31
0.0
 40
0.0052360356
 41
-3.1363566658
 42
-2.4954709846
  0
ELLIPSE
  5
6B4
100
AcDbEntity
  8
PORTATASTO
100
AcDbEllipse
 62
7
  6
CONTINUOUS
 10
-15.1421390926
 20
-22.3237961104
 30
0.0
 11
0.5
 21
-0.0
 31
0.0
 40
0.0524077793
 41
1.5707963268
 42
3.1363566658
  0
ELLIPSE
  5
6B5
100
AcDbEntity
  8
PORTATASTO
100
AcDbEllipse
 62
7
  6
CONTINUOUS
 10
-7.3578609074
 20
-22.3237961104
 30
0.0
 11
0.5
 21
0.0
 31
0.0
 40
0.0524077793
 41
0.0052359878
 42
1.5707963268
  0
ELLIPSE
  5
6B6
100
AcDbEntity
  8
PORTATASTO
100
AcDbEllipse
 62
7
  6
CONTINUOUS
 10
7.3578609074
 20
-23.7921459466
 30
0.0
 11
0.5
 21
0.0
 31
0.0
 40
0.0052360356
 41
2.4954709846
 42
3.1363566658
  0
ELLIPSE
  5
6B7
100
AcDbEntity
  8
PORTATASTO
100
AcDbEllipse
 62
7
  6
CONTINUOUS
 10
15.1421390926
 20
-23.7921459466
 30
0.0
 11
0.5
 21
-0.0
 31
0.0
 40
0.0052360356
 41
0.0052359878
 42
0.646121669
  0
ELLIPSE
  5
6B8
100
AcDbEntity
  8
PORTATASTO
100
AcDbEllipse
 62
7
  6
CONTINUOUS
 10
-15.1421390926
 20
22.3237961104
 30
0.0
 11
0.5
 21
0.0
 31
0.0
 40
0.0524077793
 41
-3.1363566658
 42
-1.5707963268
  0
ELLIPSE
  5
6B9
100
AcDbEntity
  8
PORTATASTO
100
AcDbEllipse
 62
7
  6
CONTINUOUS
 10
-7.3578609074
 20
22.3237961104
 30
0.0
 11
0.5
 21
0.0
 31
0.0
 40
0.0524077793
 41
-1.5707963268
 42
-0.0052359878
  0
ELLIPSE
  5
6BA
100
AcDbEntity
  8
PORTATASTO
100
AcDbEllipse
 62
7
  6
CONTINUOUS
 10
-21.8237412386
 20
21.7707021581
 30
0.0
 11
-0.1582391023
 21
0.4751033573
 31
0.0
 40
0.9984778551
 41
-0.3210503505
 42
1.2488325878
  0
ELLIPSE
  5
6BB
100
AcDbEntity
  8
PORTATASTO
100
AcDbEllipse
 62
7
  6
CONTINUOUS
 10
-21.8237412386
 20
-21.7707021581
 30
0.0
 11
0.1582391023
 21
0.4751033573
 31
0.0
 40
0.9984778551
 41
1.8927600658
 42
3.4626430041
  0
ELLIPSE
  5
6BC
100
AcDbEntity
  8
PORTATASTO
100
AcDbEllipse
 62
7
  6
CONTINUOUS
 10
21.8237412386
 20
21.7707021581
 30
0.0
 11
-0.1582391023
 21
-0.4751033573
 31
0.0
 40
0.9984778551
 41
1.8927600658
 42
3.4626430041
  0
ELLIPSE
  5
6BD
100
AcDbEntity
  8
PORTATASTO
100
AcDbEllipse
 62
7
  6
CONTINUOUS
 10
21.8237412386
 20
-21.7707021581
 30
0.0
 11
-0.1582391023
 21
0.4751033573
 31
0.0
 40
0.9984778551
 41
-3.4626430041
 42
-1.8927600658
  0
ELLIPSE
  5
6BE
100
AcDbEntity
  8
PORTATASTO
100
AcDbEllipse
 62
7
  6
CONTINUOUS
 10
-19.8117845071
 20
22.2844902759
 30
0.0
 11
0.25
 21
-0.0
 31
0.0
 40
0.0524077793
 41
-1.5707963268
 42
-0.0052359878
  0
ELLIPSE
  5
6BF
100
AcDbEntity
  8
PORTATASTO
100
AcDbEllipse
 62
7
  6
CONTINUOUS
 10
-21.5632154929
 20
22.2844902759
 30
0.0
 11
0.25
 21
-0.0
 31
0.0
 40
0.0524077793
 41
-3.1363566658
 42
-1.5707963268
  0
ELLIPSE
  5
6C0
100
AcDbEntity
  8
PORTATASTO
100
AcDbEllipse
 62
7
  6
CONTINUOUS
 10
-2.6882154929
 20
22.2844902759
 30
0.0
 11
0.25
 21
0.0
 31
0.0
 40
0.0524077793
 41
-3.1363566658
 42
-1.5707963268
  0
ELLIPSE
  5
6C1
100
AcDbEntity
  8
PORTATASTO
100
AcDbEllipse
 62
7
  6
CONTINUOUS
 10
-0.9367845071
 20
22.2844902759
 30
0.0
 11
0.25
 21
-0.0
 31
0.0
 40
0.0524077793
 41
-1.5707963268
 42
-0.0052359878
  0
ELLIPSE
  5
6C2
100
AcDbEntity
  8
PORTATASTO
100
AcDbEllipse
 62
7
  6
CONTINUOUS
 10
-19.8117845071
 20
-22.2844902759
 30
0.0
 11
0.25
 21
-0.0
 31
0.0
 40
0.0524077793
 41
0.0052359878
 42
1.5707963268
  0
ELLIPSE
  5
6C3
100
AcDbEntity
  8
PORTATASTO
100
AcDbEllipse
 62
7
  6
CONTINUOUS
 10
-21.5632154929
 20
-22.2844902759
 30
0.0
 11
0.25
 21
-0.0
 31
0.0
 40
0.0524077793
 41
1.5707963268
 42
3.1363566658
  0
ELLIPSE
  5
6C4
100
AcDbEntity
  8
PORTATASTO
100
AcDbEllipse
 62
7
  6
CONTINUOUS
 10
-0.9367845071
 20
-22.2844902759
 30
0.0
 11
0.25
 21
-0.0
 31
0.0
 40
0.0524077793
 41
0.0052359878
 42
1.5707963268
  0
ELLIPSE
  5
6C5
100
AcDbEntity
  8
PORTATASTO
100
AcDbEllipse
 62
7
  6
CONTINUOUS
 10
-2.6882154929
 20
-22.2844902759
 30
0.0
 11
0.25
 21
0.0
 31
0.0
 40
0.0524077793
 41
1.5707963268
 42
3.1363566658
  0
ELLIPSE
  5
6C6
100
AcDbEntity
  8
PORTATASTO
100
AcDbEllipse
 62
7
  6
CONTINUOUS
 10
0.9367845071
 20
22.2844902759
 30
0.0
 11
0.25
 21
-0.0
 31
0.0
 40
0.0524077793
 41
-3.1363566658
 42
-1.5707963268
  0
ELLIPSE
  5
6C7
100
AcDbEntity
  8
PORTATASTO
100
AcDbEllipse
 62
7
  6
CONTINUOUS
 10
2.6882154929
 20
22.2844902759
 30
0.0
 11
0.25
 21
0.0
 31
0.0
 40
0.0524077793
 41
-1.5707963268
 42
-0.0052359878
  0
ELLIPSE
  5
6C8
100
AcDbEntity
  8
PORTATASTO
100
AcDbEllipse
 62
7
  6
CONTINUOUS
 10
21.5632154929
 20
22.2844902759
 30
0.0
 11
0.25
 21
0.0
 31
0.0
 40
0.0524077793
 41
-1.5707963268
 42
-0.0052359878
  0
ELLIPSE
  5
6C9
100
AcDbEntity
  8
PORTATASTO
100
AcDbEllipse
 62
7
  6
CONTINUOUS
 10
19.8117845071
 20
22.2844902759
 30
0.0
 11
0.25
 21
-0.0
 31
0.0
 40
0.0524077793
 41
-3.1363566658
 42
-1.5707963268
  0
ELLIPSE
  5
6CA
100
AcDbEntity
  8
PORTATASTO
100
AcDbEllipse
 62
7
  6
CONTINUOUS
 10
0.9367845071
 20
-22.2844902759
 30
0.0
 11
0.25
 21
-0.0
 31
0.0
 40
0.0524077793
 41
1.5707963268
 42
3.1363566658
  0
ELLIPSE
  5
6CB
100
AcDbEntity
  8
PORTATASTO
100
AcDbEllipse
 62
7
  6
CONTINUOUS
 10
2.6882154929
 20
-22.2844902759
 30
0.0
 11
0.25
 21
0.0
 31
0.0
 40
0.0524077793
 41
0.0052359878
 42
1.5707963268
  0
ELLIPSE
  5
6CC
100
AcDbEntity
  8
PORTATASTO
100
AcDbEllipse
 62
7
  6
CONTINUOUS
 10
19.8117845071
 20
-22.2844902759
 30
0.0
 11
0.25
 21
-0.0
 31
0.0
 40
0.0524077793
 41
1.5707963268
 42
3.1363566658
  0
ELLIPSE
  5
6CD
100
AcDbEntity
  8
PORTATASTO
100
AcDbEllipse
 62
7
  6
CONTINUOUS
 10
21.5632154929
 20
-22.2844902759
 30
0.0
 11
0.25
 21
0.0
 31
0.0
 40
0.0524077793
 41
0.0052359878
 42
1.5707963268
  0
ELLIPSE
  5
6CE
100
AcDbEntity
  8
0
100
AcDbEllipse
 62
253
  6
CONTINUOUS
 10
418.0862077276
 20
0.0
 30
0.0
 11
-128.3339675785
 21
483.2498243823
 31
0.0
 40
1.0
 41
1.3385422876
 42
1.3412277715
  0
ELLIPSE
  5
6CF
100
AcDbEntity
  8
0
100
AcDbEllipse
 62
253
  6
CONTINUOUS
 10
418.0862077276
 20
0.0
 30
0.0
 11
0.0
 21
500.0
 31
0.0
 40
1.0
 41
-4.6897545396
 42
-4.6850699625
  0
ELLIPSE
  5
6D0
100
AcDbEntity
  8
0
100
AcDbEllipse
 62
253
  6
CONTINUOUS
 10
418.0862077276
 20
0.0
 30
0.0
 11
-69.3506059447
 21
495.1671368893
 31
0.0
 40
1.0
 41
1.4526480411
 42
1.454280938
  0
ELLIPSE
  5
6D1
100
AcDbEntity
  8
0
100
AcDbEllipse
 62
253
  6
CONTINUOUS
 10
418.0862077276
 20
0.0
 30
0.0
 11
-191.3417161825
 21
461.9397662556
 31
0.0
 40
1.0
 41
1.1948553888
 42
1.1984873806
  0
ELLIPSE
  5
6D2
100
AcDbEntity
  8
0
100
AcDbEllipse
 62
253
  6
CONTINUOUS
 10
418.0862077276
 20
0.0
 30
0.0
 11
353.5533905933
 21
353.5533905933
 31
0.0
 40
1.0
 41
-3.9065789365
 42
-3.9043924765
  0
ELLIPSE
  5
6D3
100
AcDbEntity
  8
0
100
AcDbEllipse
 62
253
  6
CONTINUOUS
 10
418.0862077276
 20
0.0
 30
0.0
 11
94.5537605775
 21
490.9781933657
 31
0.0
 40
1.0
 41
-4.4995374513
 42
-4.4993919677
  0
ELLIPSE
  5
6D4
100
AcDbEntity
  8
0
100
AcDbEllipse
 62
253
  6
CONTINUOUS
 10
418.0862077276
 20
0.0
 30
0.0
 11
353.5533905933
 21
353.5533905933
 31
0.0
 40
1.0
 41
-3.9042469929
 42
-3.9012306087
  0
ELLIPSE
  5
6D5
100
AcDbEntity
  8
0
100
AcDbEllipse
 62
253
  6
CONTINUOUS
 10
418.0862077276
 20
0.0
 30
0.0
 11
-292.3551423319
 21
405.6210925878
 31
0.0
 40
1.0
 41
0.9690172647
 42
0.9720336488
  0
ELLIPSE
  5
6D6
100
AcDbEntity
  8
0
100
AcDbEllipse
 62
253
  6
CONTINUOUS
 10
418.0862077276
 20
0.0
 30
0.0
 11
0.0
 21
500.0
 31
0.0
 40
1.0
 41
-4.6919770999
 42
-4.6897906399
  0
ELLIPSE
  5
6D7
100
AcDbEntity
  8
0
100
AcDbEllipse
 62
253
  6
CONTINUOUS
 10
418.0862077276
 20
0.0
 30
0.0
 11
461.9397662556
 21
-191.3417161825
 31
0.0
 40
1.0
 41
-2.7321354282
 42
-2.7285034364
  0
ELLIPSE
  5
6D8
100
AcDbEntity
  8
0
100
AcDbEllipse
 62
253
  6
CONTINUOUS
 10
418.0862077276
 20
0.0
 30
0.0
 11
114.8764602737
 21
486.6244947339
 31
0.0
 40
1.0
 41
-4.4595636321
 42
-4.4578213518
  0
ELLIPSE
  5
6D9
100
AcDbEntity
  8
0
100
AcDbEllipse
 62
253
  6
CONTINUOUS
 10
418.0862077276
 20
0.0
 30
0.0
 11
425.325404176
 21
-262.8655560596
 31
0.0
 40
1.0
 41
-2.565383854
 42
-2.5653319747
  0
ELLIPSE
  5
6DA
100
AcDbEntity
  8
0
100
AcDbEllipse
 62
253
  6
CONTINUOUS
 10
418.0862077276
 20
0.0
 30
0.0
 11
165.5034707178
 21
471.8141595802
 31
0.0
 40
1.0
 41
-4.3523321893
 42
-4.3479348301
  0
ELLIPSE
  5
6DB
100
AcDbEntity
  8
0
100
AcDbEllipse
 62
253
  6
CONTINUOUS
 10
418.0862077276
 20
0.0
 30
0.0
 11
-165.5034707178
 21
471.8141595802
 31
0.0
 40
1.0
 41
1.2605095348
 42
1.2607448736
  0
ELLIPSE
  5
6DC
100
AcDbEntity
  8
0
100
AcDbEllipse
 62
253
  6
CONTINUOUS
 10
418.0862077276
 20
0.0
 30
0.0
 11
353.5533905933
 21
-353.5533905933
 31
0.0
 40
1.0
 41
-2.3288754723
 42
-2.3261899884
  0
ELLIPSE
  5
6DD
100
AcDbEntity
  8
PORTATASTO
100
AcDbEllipse
 62
7
  6
CONTINUOUS
 10
-60.9137922724
 20
-21.9537669705
 30
0.0
 11
0.3546425507
 21
0.3568377408
 31
0.0
 40
0.9877342685
 41
-0.2093834035
 42
0.7710302454
  0
ELLIPSE
  5
6DE
100
AcDbEntity
  8
PORTATASTO
100
AcDbEllipse
 62
7
  6
CONTINUOUS
 10
-60.9137922724
 20
21.9537669705
 30
0.0
 11
-0.3546425507
 21
0.3568377408
 31
0.0
 40
0.9877342685
 41
-3.912622899
 42
-2.9322092501
  0
ELLIPSE
  5
6DF
100
AcDbEntity
  8
PORTATASTO
100
AcDbEllipse
 62
7
  6
CONTINUOUS
 10
4.9798822787
 20
-23.15
 30
0.0
 11
95.4920931889
 21
-0.0
 31
0.0
 40
0.0052360356
 41
2.3919487288
 42
2.5157538818
  0
ELLIPSE
  5
6E0
100
AcDbEntity
  8
PORTATASTO
100
AcDbEllipse
 62
7
  6
CONTINUOUS
 10
4.9798822787
 20
23.15
 30
0.0
 11
95.4920931889
 21
0.0
 31
0.0
 40
0.0052360356
 41
-2.5157538818
 42
-2.3919487288
  0
ELLIPSE
  5
6E1
100
AcDbEntity
  8
CURVE
100
AcDbEllipse
 62
253
  6
CONTINUOUS
 10
-62.1663051109
 20
-12.839757
 30
0.0
 11
-0.0
 21
0.65
 31
0.0
 40
0.9996954135
 41
-1.5707963268
 42
1.5707963268
  0
ENDSEC
  0
SECTION
  2
OBJECTS
  0
DICTIONARY
  5
C
100
AcDbDictionary
280
0
281
1
  3
ACAD_GROUP
350
D
  3
ACAD_MLINESTYLE
350
17
  3
ACAD_LAYOUT
350
1A
  3
ACAD_PLOTSETTINGS
350
19
  3
ACAD_PLOTSTYLENAME
350
E
  0
DICTIONARY
  5
D
102
{ACAD_REACTORS
330
C
102
}
100
AcDbDictionary
280
0
281
1
  0
ACDBDICTIONARYWDFLT
  5
E
102
{ACAD_REACTORS
330
C
102
}
100
AcDbDictionary
281
1
  3
Normal
350
F
100
AcDbDictionaryWithDefault
340
F
  0
DICTIONARY
  5
17
102
{ACAD_REACTORS
330
C
102
}
100
AcDbDictionary
280
0
281
1
  3
Standard
350
18
  0
DICTIONARY
  5
19
102
{ACAD_REACTORS
330
C
102
}
100
AcDbDictionary
281
1
  0
DICTIONARY
  5
1A
102
{ACAD_REACTORS
330
C
102
}
100
AcDbDictionary
281
1
  3
Model
350
6E2
  3
Layout1
350
6E3
  0
ACDBPLACEHOLDER
  5
F
102
{ACAD_REACTORS
330
E
102
}
  0
MLINESTYLE
  5
18
102
{ACAD_REACTORS
330
17
102
}
100
AcDbMlineStyle
  2
STANDARD
 70
0
  3

 62
256
 51
90.0
 52
90.0
 71
2
 49
0.5
 62
256
  6
BYLAYER
 49
-0.5
 62
256
  6
BYLAYER
  0
LAYOUT
  5
6E2
102
{ACAD_REACTORS
330
1A
102
}
100
AcDbPlotSettings
  1

  2
none_device
  4
ISO_A4_(297.00_x_210.00_MM)
  6

 40
0.0
 41
0.0
 42
0.0
 43
0.0
 44
297.0
 45
210.0
 46
0.0
 47
0.0
 48
0.0
 49
0.0
140
0.0
141
0.0
142
1.0
143
1.0
 70
1024
 72
1
 73
0
 74
0
  7

 75
0
147
1.0
148
0.0
149
0.0
100
AcDbLayout
  1
Model
 70
0
 71
0
 10
0.0
 20
0.0
 11
297.0
 21
210.0
 12
0.0
 22
0.0
 32
0.0
 14
0.0
 24
0.0
 34
0.0
 15
0.0
 25
0.0
 35
0.0
146
0.0
 13
0.0
 23
0.0
 33
0.0
 16
1.0
 26
0.0
 36
0.0
 17
0.0
 27
1.0
 37
0.0
 76
0
330
223
345
0
346
0
  0
LAYOUT
  5
6E3
102
{ACAD_REACTORS
330
1A
102
}
100
AcDbPlotSettings
  1

  2
none_device
  4
ISO_A4_(297.00_x_210.00_MM)
  6

 40
0.0
 41
0.0
 42
0.0
 43
0.0
 44
297.0
 45
210.0
 46
0.0
 47
0.0
 48
0.0
 49
0.0
140
0.0
141
0.0
142
1.0
143
1.0
 70
0
 72
1
 73
0
 74
0
  7

 75
0
147
1.0
148
0.0
149
0.0
100
AcDbLayout
  1
Layout1
 70
0
 71
1
 10
0.0
 20
0.0
 11
297.0
 21
210.0
 12
0.0
 22
0.0
 32
0.0
 14
0.0
 24
0.0
 34
0.0
 15
0.0
 25
0.0
 35
0.0
146
0.0
 13
0.0
 23
0.0
 33
0.0
 16
1.0
 26
0.0
 36
0.0
 17
0.0
 27
1.0
 37
0.0
 76
0
330
224
345
0
346
0
  0
ENDSEC
  0
EOF
