  0
SECTION
  2
HEADER
  9
$ACADVER
  1
AC1015
  9
$DWGCODEPAGE
  3
ANSI_1252
  9
$EXTMAX
 10
297.0
 20
210.0
 30
0.0
  9
$EXTMIN
 10
0.0
 20
0.0
 30
0.0
  9
$LIMMIN
 10
0.0
 20
0.0
  9
$LIMMAX
 10
297.0
 20
210.0
  9
$VIEWCTR
 10
148.5
 20
105.0
  9
$VIEWSIZE
 40
210.0
  9
$CLAYER
  8
0
  9
$LTSCALE
 40
16.335
  9
$CELTYPE
  6
BYLAYER
  9
$DIMSCALE
 40
1.0
  9
$DIMASZ
 40
3.0
  9
$DIMEXO
 40
1.85625
  9
$DIMDLI
 40
11.286
  9
$DIMEXE
 40
5.346
  9
$DIMCEN
 40
2.673
  9
$DIMLFAC
 40
1.0
  9
$DIMBLK
  1
_FILLED
  9
$DIMTXT
 40
3.0
  9
$DIMTOL
 70
1
  9
$DIMLIM
 70
0
  9
$DIMTFAC
 40
1.0
  9
$DIMTP
 40
0.01
  9
$DIMTM
 40
0.01
  9
$PDMODE
 70
3
  9
$PDSIZE
 40
3.0
  9
$HANDSEED
  5
796
  9
$TILEMODE
 70
1
  9
$MEASUREMENT
 70
1
  9
$INSUNITS
 70
4
  0
ENDSEC
  0
SECTION
  2
CLASSES
  0
CLASS
  1
ACDBDICTIONARYWDFLT
  2
AcDbDictionaryWithDefault
  3
AutoCAD 2000
 90
0
280
0
281
0
  0
CLASS
  1
ACDBPLACEHOLDER
  2
AcDbPlaceHolder
  3
AutoCAD 2000
 90
0
280
0
281
0
  0
CLASS
  1
LAYOUT
  2
AcDbLayout
  3
AutoCAD 2000
 90
0
280
0
281
0
  0
ENDSEC
  0
SECTION
  2
TABLES
  0
TABLE
  2
VPORT
  5
8
100
AcDbSymbolTable
 70
2
  0
VPORT
  5
1F4
100
AcDbSymbolTableRecord
100
AcDbViewportTableRecord
  2
*ACTIVE
 70
0
 10
0.0
 20
0.0
 11
1.0
 21
1.0
 12
148.5
 22
105.0
 13
0.0
 23
0.0
 14
1.0
 24
1.0
 15
0.0
 25
0.0
 16
0.0
 26
0.0
 36
1.0
 17
0.0
 27
0.0
 37
0.0
 40
210.0
 41
1.4142857143
 42
50.0
 43
0.0
 44
0.0
 50
0.0
 51
0.0
 71
0
 72
100
 73
1
 74
1
 75
0
 76
0
 77
0
 78
0
  0
ENDTAB
  0
TABLE
  2
LTYPE
  5
5
100
AcDbSymbolTable
 70
6
  0
LTYPE
  5
14
100
AcDbSymbolTableRecord
100
AcDbLinetypeTableRecord
  2
BYBLOCK
 70
0
  3

 72
65
 73
0
 40
0.0
  0
LTYPE
  5
15
100
AcDbSymbolTableRecord
100
AcDbLinetypeTableRecord
  2
BYLAYER
 70
0
  3

 72
65
 73
0
 40
0.0
  0
LTYPE
  5
16
100
AcDbSymbolTableRecord
100
AcDbLinetypeTableRecord
  2
CONTINUOUS
 70
64
  3
Solid line
 72
65
 73
0
 40
0.0
  0
LTYPE
  5
1F5
100
AcDbSymbolTableRecord
100
AcDbLinetypeTableRecord
  2
CENTER
 70
64
  3
____ _ ____ _ ____ _ ____ _ ____ _ ____ _ ____
 72
65
 73
4
 40
0.6
 49
0.375
 74
0
 49
-0.075
 74
0
 49
0.075
 74
0
 49
-0.075
 74
0
  0
LTYPE
  5
1F6
100
AcDbSymbolTableRecord
100
AcDbLinetypeTableRecord
  2
HIDDEN
 70
64
  3
- - - - - - - - - - - - - - - - - - - -
 72
65
 73
2
 40
0.2
 49
0.1
 74
0
 49
-0.1
 74
0
  0
LTYPE
  5
1F7
100
AcDbSymbolTableRecord
100
AcDbLinetypeTableRecord
  2
PHANTOM
 70
64
  3
_____ _ _ _____ _ _ _____ _ _ _____
 72
65
 73
6
 40
0.8
 49
0.45
 74
0
 49
-0.05
 74
0
 49
0.1
 74
0
 49
-0.05
 74
0
 49
0.1
 74
0
 49
-0.05
 74
0
  0
LTYPE
  5
1F8
100
AcDbSymbolTableRecord
100
AcDbLinetypeTableRecord
  2
DOT
 70
64
  3
. . . . . . . . . . . . . . . . . . . .
 72
65
 73
2
 40
0.2
 49
0.1
 74
0
 49
-0.1
 74
0
  0
LTYPE
  5
1F9
100
AcDbSymbolTableRecord
100
AcDbLinetypeTableRecord
  2
DASHED
 70
64
  3
- - - - - - - - - - - - - - - - - - - -
 72
65
 73
2
 40
0.2
 49
0.1
 74
0
 49
-0.1
 74
0
  0
ENDTAB
  0
TABLE
  2
LAYER
  5
2
100
AcDbSymbolTable
 70
36
  0
LAYER
  5
10
100
AcDbSymbolTableRecord
100
AcDbLayerTableRecord
  2
0
 70
0
 62
7
  6
CONTINUOUS
370
-3
390
F
  0
LAYER
  5
1FA
100
AcDbSymbolTableRecord
100
AcDbLayerTableRecord
  2
DEFAULT_1
 70
0
 62
7
  6
CENTER
370
-3
390
F
  0
LAYER
  5
1FB
100
AcDbSymbolTableRecord
100
AcDbLayerTableRecord
  2
DEFAULT_2
 70
0
 62
7
  6
HIDDEN
370
-3
390
F
  0
LAYER
  5
1FC
100
AcDbSymbolTableRecord
100
AcDbLayerTableRecord
  2
DEFAULT_3
 70
0
 62
7
  6
PHANTOM
370
-3
390
F
  0
LAYER
  5
1FD
100
AcDbSymbolTableRecord
100
AcDbLayerTableRecord
  2
ASSI
 70
0
 62
7
  6
CONTINUOUS
370
-3
390
F
  0
LAYER
  5
1FE
100
AcDbSymbolTableRecord
100
AcDbLayerTableRecord
  2
COLOR15
 70
0
 62
7
  6
CONTINUOUS
370
-3
390
F
  0
LAYER
  5
1FF
100
AcDbSymbolTableRecord
100
AcDbLayerTableRecord
  2
COLOR9
 70
0
 62
7
  6
CONTINUOUS
370
-3
390
F
  0
LAYER
  5
200
100
AcDbSymbolTableRecord
100
AcDbLayerTableRecord
  2
COLORE_MATERIALE
 70
0
 62
7
  6
CONTINUOUS
370
-3
390
F
  0
LAYER
  5
201
100
AcDbSymbolTableRecord
100
AcDbLayerTableRecord
  2
COORDINATE
 70
0
 62
7
  6
CONTINUOUS
370
-3
390
F
  0
LAYER
  5
202
100
AcDbSymbolTableRecord
100
AcDbLayerTableRecord
  2
COORD_ORIGINE
 70
0
 62
7
  6
CONTINUOUS
370
-3
390
F
  0
LAYER
  5
203
100
AcDbSymbolTableRecord
100
AcDbLayerTableRecord
  2
COPY_PUBLISH
 70
0
 62
7
  6
CONTINUOUS
370
-3
390
F
  0
LAYER
  5
204
100
AcDbSymbolTableRecord
100
AcDbLayerTableRecord
  2
CORPO
 70
0
 62
7
  6
CONTINUOUS
370
-3
390
F
  0
LAYER
  5
205
100
AcDbSymbolTableRecord
100
AcDbLayerTableRecord
  2
COSMETIC
 70
0
 62
7
  6
CONTINUOUS
370
-3
390
F
  0
LAYER
  5
206
100
AcDbSymbolTableRecord
100
AcDbLayerTableRecord
  2
CURVE
 70
0
 62
7
  6
CONTINUOUS
370
-3
390
F
  0
LAYER
  5
207
100
AcDbSymbolTableRecord
100
AcDbLayerTableRecord
  2
DRAFT
 70
0
 62
7
  6
CONTINUOUS
370
-3
390
F
  0
LAYER
  5
208
100
AcDbSymbolTableRecord
100
AcDbLayerTableRecord
  2
FUSIBILE
 70
0
 62
7
  6
CONTINUOUS
370
-3
390
F
  0
LAYER
  5
209
100
AcDbSymbolTableRecord
100
AcDbLayerTableRecord
  2
IMPORT
 70
0
 62
7
  6
CONTINUOUS
370
-3
390
F
  0
LAYER
  5
20A
100
AcDbSymbolTableRecord
100
AcDbLayerTableRecord
  2
IMPORT_IGES
 70
0
 62
7
  6
CONTINUOUS
370
-3
390
F
  0
LAYER
  5
20B
100
AcDbSymbolTableRecord
100
AcDbLayerTableRecord
  2
INCISIONI
 70
0
 62
7
  6
CONTINUOUS
370
-3
390
F
  0
LAYER
  5
20C
100
AcDbSymbolTableRecord
100
AcDbLayerTableRecord
  2
INTF_1
 70
0
 62
7
  6
CONTINUOUS
370
-3
390
F
  0
LAYER
  5
20D
100
AcDbSymbolTableRecord
100
AcDbLayerTableRecord
  2
INTF_CYAN
 70
0
 62
7
  6
CONTINUOUS
370
-3
390
F
  0
LAYER
  5
20E
100
AcDbSymbolTableRecord
100
AcDbLayerTableRecord
  2
INTF_GREEN
 70
0
 62
7
  6
CONTINUOUS
370
-3
390
F
  0
LAYER
  5
20F
100
AcDbSymbolTableRecord
100
AcDbLayerTableRecord
  2
INTF_YELLOW
 70
0
 62
7
  6
CONTINUOUS
370
-3
390
F
  0
LAYER
  5
210
100
AcDbSymbolTableRecord
100
AcDbLayerTableRecord
  2
MAGNETOTERMICO
 70
0
 62
7
  6
CONTINUOUS
370
-3
390
F
  0
LAYER
  5
211
100
AcDbSymbolTableRecord
100
AcDbLayerTableRecord
  2
MOLLA
 70
0
 62
7
  6
CONTINUOUS
370
-3
390
F
  0
LAYER
  5
212
100
AcDbSymbolTableRecord
100
AcDbLayerTableRecord
  2
NOTE
 70
0
 62
7
  6
CONTINUOUS
370
-3
390
F
  0
LAYER
  5
213
100
AcDbSymbolTableRecord
100
AcDbLayerTableRecord
  2
PIANI
 70
0
 62
7
  6
CONTINUOUS
370
-3
390
F
  0
LAYER
  5
214
100
AcDbSymbolTableRecord
100
AcDbLayerTableRecord
  2
PIANI_ORIGINE
 70
0
 62
7
  6
CONTINUOUS
370
-3
390
F
  0
LAYER
  5
215
100
AcDbSymbolTableRecord
100
AcDbLayerTableRecord
  2
PIANI_RIFERIMENTO
 70
0
 62
7
  6
CONTINUOUS
370
-3
390
F
  0
LAYER
  5
216
100
AcDbSymbolTableRecord
100
AcDbLayerTableRecord
  2
PORTATASTO
 70
0
 62
7
  6
CONTINUOUS
370
-3
390
F
  0
LAYER
  5
217
100
AcDbSymbolTableRecord
100
AcDbLayerTableRecord
  2
PUNTI
 70
0
 62
7
  6
CONTINUOUS
370
-3
390
F
  0
LAYER
  5
218
100
AcDbSymbolTableRecord
100
AcDbLayerTableRecord
  2
RACCORDO
 70
0
 62
7
  6
CONTINUOUS
370
-3
390
F
  0
LAYER
  5
219
100
AcDbSymbolTableRecord
100
AcDbLayerTableRecord
  2
RGB____0____0____0__
 70
0
 62
7
  6
CONTINUOUS
370
-3
390
F
  0
LAYER
  5
21A
100
AcDbSymbolTableRecord
100
AcDbLayerTableRecord
  2
SKEL
 70
0
 62
7
  6
CONTINUOUS
370
-3
390
F
  0
LAYER
  5
21B
100
AcDbSymbolTableRecord
100
AcDbLayerTableRecord
  2
SMUSSO
 70
0
 62
7
  6
CONTINUOUS
370
-3
390
F
  0
LAYER
  5
21C
100
AcDbSymbolTableRecord
100
AcDbLayerTableRecord
  2
SNAPLINE
 70
0
 62
7
  6
CONTINUOUS
370
-3
390
F
  0
LAYER
  5
21D
100
AcDbSymbolTableRecord
100
AcDbLayerTableRecord
  2
SUPERFICI
 70
0
 62
7
  6
CONTINUOUS
370
-3
390
F
  0
LAYER
  5
21E
100
AcDbSymbolTableRecord
100
AcDbLayerTableRecord
  2
TASTO
 70
0
 62
7
  6
CONTINUOUS
370
-3
390
F
  0
LAYER
  5
21F
100
AcDbSymbolTableRecord
100
AcDbLayerTableRecord
  2
TRASH
 70
0
 62
7
  6
CONTINUOUS
370
-3
390
F
  0
LAYER
  5
220
100
AcDbSymbolTableRecord
100
AcDbLayerTableRecord
  2
XSEC_DATUMS
 70
0
 62
7
  6
CONTINUOUS
370
-3
390
F
  0
LAYER
  5
221
100
AcDbSymbolTableRecord
100
AcDbLayerTableRecord
  2
___SHELL
 70
0
 62
7
  6
CONTINUOUS
370
-3
390
F
  0
ENDTAB
  0
TABLE
  2
STYLE
  5
3
100
AcDbSymbolTable
 70
1
  0
STYLE
  5
11
100
AcDbSymbolTableRecord
100
AcDbTextStyleTableRecord
  2
STANDARD
 70
0
 40
0.0
 41
0.8
 50
0.0
 71
0
 42
0.2
  3
txt
  4

  0
STYLE
  5
222
100
AcDbSymbolTableRecord
100
AcDbTextStyleTableRecord
  2
TEXTSTYLE_1
 70
0
 40
0.0
 41
0.8
 50
0.0
 71
0
 42
0.2
  3
gdt
  4

  0
ENDTAB
  0
TABLE
  2
VIEW
  5
6
100
AcDbSymbolTable
 70
0
  0
ENDTAB
  0
TABLE
  2
UCS
  5
7
100
AcDbSymbolTable
 70
0
  0
ENDTAB
  0
TABLE
  2
APPID
  5
9
100
AcDbSymbolTable
 70
1
  0
APPID
  5
223
100
AcDbSymbolTableRecord
100
AcDbRegAppTableRecord
  2
ACAD
 70
0
  0
ENDTAB
  0
TABLE
  2
BLOCK_RECORD
  5
1
100
AcDbSymbolTable
 70
0
  0
BLOCK_RECORD
  5
224
100
AcDbSymbolTableRecord
100
AcDbBlockTableRecord
  2
*Model_Space
  0
BLOCK_RECORD
  5
225
100
AcDbSymbolTableRecord
100
AcDbBlockTableRecord
  2
*Paper_Space
  0
BLOCK_RECORD
  5
226
100
AcDbSymbolTableRecord
100
AcDbBlockTableRecord
  2
_FILLED
  0
BLOCK_RECORD
  5
227
100
AcDbSymbolTableRecord
100
AcDbBlockTableRecord
  2
*D0
  0
BLOCK_RECORD
  5
228
100
AcDbSymbolTableRecord
100
AcDbBlockTableRecord
  2
*D1
  0
BLOCK_RECORD
  5
229
100
AcDbSymbolTableRecord
100
AcDbBlockTableRecord
  2
*D2
  0
BLOCK_RECORD
  5
22A
100
AcDbSymbolTableRecord
100
AcDbBlockTableRecord
  2
*D3
  0
ENDTAB
  0
TABLE
  2
DIMSTYLE
  5
A
100
AcDbSymbolTable
 70
1
100
AcDbDimStyleTable
 71
0
  0
DIMSTYLE
105
22B
100
AcDbSymbolTableRecord
100
AcDbDimStyleTableRecord
  2
STANDARD
 70
0
  3

  4

 40
1.0
 41
3.0
 42
0.0625
 43
0.38
 44
0.18
 45
0.0
 46
0.0
 47
0.01
 48
0.01
140
3.0
141
0.09
142
0.0
143
25.4
144
1.0
145
0.0
146
1.0
147
0.09
 71
1.0
 72
0.0
 73
0
 74
0
 75
0
 76
0
 77
1
 78
8
170
0
171
2
172
0
173
0
174
0
175
0
176
0
177
0
178
0
270
2
271
2
272
2
273
2
274
2
275
0
280
0
281
0
282
0
283
1
284
8
285
0
286
0
287
3
288
0
340
11
341
226
342
226
343
226
344
226
  0
DIMSTYLE
105
22C
100
AcDbSymbolTableRecord
100
AcDbDimStyleTableRecord
  2
DIMSTYLE_1
 70
0
  3

  4

 40
1.0
 41
3.0
 42
0.0625
 43
0.38
 44
0.18
 45
0.0
 46
0.0
 47
0.0
 48
0.0
140
3.0
141
0.09
142
0.0
143
25.4
144
1.0
145
0.0
146
1.0
147
0.09
 71
0.0
 72
0.0
 73
0
 74
0
 75
0
 76
0
 77
1
 78
8
170
0
171
2
172
0
173
0
174
0
175
0
176
0
177
0
178
0
270
2
271
2
272
2
273
2
274
2
275
0
280
0
281
0
282
0
283
1
284
8
285
0
286
0
287
3
288
0
340
11
341
226
342
226
343
226
344
226
  0
ENDTAB
  0
ENDSEC
  0
SECTION
  2
BLOCKS
  0
BLOCK
  5
20
100
AcDbEntity
  8
0
100
AcDbBlockBegin
  2
*Model_Space
 70
0
 10
0.0
 20
0.0
 30
0.0
  3
*Model_Space
  1

  0
ENDBLK
  5
21
100
AcDbEntity
  8
0
100
AcDbBlockEnd
  0
BLOCK
  5
1C
100
AcDbEntity
  8
0
100
AcDbBlockBegin
  2
*Paper_Space
 70
0
 10
0.0
 20
0.0
 30
0.0
  3
*Paper_Space
  1

  0
ENDBLK
  5
1D
100
AcDbEntity
  8
0
100
AcDbBlockEnd
  0
BLOCK
  5
22D
100
AcDbEntity
  8
0
100
AcDbBlockBegin
  2
_FILLED
 70
64
 10
0.0
 20
0.0
  3
_FILLED
  1

  0
SOLID
  5
22E
100
AcDbEntity
  8
0
  6
BYBLOCK
 62
0
100
AcDbTrace
 10
0.0
 20
0.0
 11
-1.0
 21
0.3166666667
 12
-1.0
 22
-0.3166666667
 13
-1.0
 23
-0.3166666667
  0
ENDBLK
  5
22F
100
AcDbEntity
  8
0
  6
BYBLOCK
 62
0
100
AcDbBlockEnd
  0
BLOCK
  5
230
100
AcDbEntity
  8
0
100
AcDbBlockBegin
 62
7
  6
CONTINUOUS
  2
*D0
 70
65
 10
0.0
 20
0.0
  3
*D0
  1

  0
MTEXT
  5
231
100
AcDbEntity
  8
0
100
AcDbMText
 62
7
  6
CONTINUOUS
  7
STANDARD
 71
2
 72
1
 10
26.65
 20
0.0
 30
0.0
 11
0.0
 21
1.0
 31
0.0
 44
0.9
  1
49
 40
3.0
 41
4.7142857143
  0
LINE
  5
232
100
AcDbEntity
  8
0
100
AcDbLine
 62
7
  6
CONTINUOUS
 10
22.0750034269
 20
24.5
 11
31.9
 21
24.5
  0
LINE
  5
233
100
AcDbEntity
  8
0
100
AcDbLine
 62
7
  6
CONTINUOUS
 10
22.0750034269
 20
-24.5
 11
31.9
 21
-24.5
  0
LINE
  5
234
100
AcDbEntity
  8
0
100
AcDbLine
 62
7
  6
CONTINUOUS
 10
30.4
 20
24.5
 11
30.4
 21
0.0
  0
LINE
  5
235
100
AcDbEntity
  8
0
100
AcDbLine
 62
7
  6
CONTINUOUS
 10
30.4
 20
-24.5
 11
30.4
 21
0.0
  0
INSERT
  5
236
100
AcDbEntity
  8
0
100
AcDbBlockReference
 62
7
  6
CONTINUOUS
  2
_FILLED
 10
30.4
 20
24.5
 41
3.0
 42
3.0
 43
3.0
 50
90.0
  0
INSERT
  5
237
100
AcDbEntity
  8
0
100
AcDbBlockReference
 62
7
  6
CONTINUOUS
  2
_FILLED
 10
30.4
 20
-24.5
 41
3.0
 42
3.0
 43
3.0
 50
270.0
  0
ENDBLK
  5
238
100
AcDbEntity
  8
0
  6
BYBLOCK
 62
0
100
AcDbBlockEnd
  0
BLOCK
  5
239
100
AcDbEntity
  8
0
100
AcDbBlockBegin
 62
7
  6
CONTINUOUS
  2
*D1
 70
65
 10
0.0
 20
0.0
  3
*D1
  1

  0
MTEXT
  5
23A
100
AcDbEntity
  8
0
100
AcDbMText
 62
7
  6
CONTINUOUS
  7
STANDARD
 71
2
 72
1
 10
0.0
 20
34.6855555556
 30
0.0
 11
1.0
 21
0.0
 31
0.0
 44
0.9
  1
44,8
 40
3.0
 41
8.7857142857
  0
LINE
  5
23B
100
AcDbEntity
  8
0
100
AcDbLine
 62
7
  6
CONTINUOUS
 10
22.4
 20
18.1716990487
 11
22.4
 21
32.4355555556
  0
LINE
  5
23C
100
AcDbEntity
  8
0
100
AcDbLine
 62
7
  6
CONTINUOUS
 10
-22.4
 20
18.1716990487
 11
-22.4
 21
32.4355555556
  0
LINE
  5
23D
100
AcDbEntity
  8
0
100
AcDbLine
 62
7
  6
CONTINUOUS
 10
22.4
 20
30.9355555556
 11
0.0
 21
30.9355555556
  0
LINE
  5
23E
100
AcDbEntity
  8
0
100
AcDbLine
 62
7
  6
CONTINUOUS
 10
-22.4
 20
30.9355555556
 11
0.0
 21
30.9355555556
  0
INSERT
  5
23F
100
AcDbEntity
  8
0
100
AcDbBlockReference
 62
7
  6
CONTINUOUS
  2
_FILLED
 10
22.4
 20
30.9355555556
 41
3.0
 42
3.0
 43
3.0
  0
INSERT
  5
240
100
AcDbEntity
  8
0
100
AcDbBlockReference
 62
7
  6
CONTINUOUS
  2
_FILLED
 10
-22.4
 20
30.9355555556
 41
3.0
 42
3.0
 43
3.0
 50
180.0
  0
ENDBLK
  5
241
100
AcDbEntity
  8
0
  6
BYBLOCK
 62
0
100
AcDbBlockEnd
  0
BLOCK
  5
242
100
AcDbEntity
  8
0
100
AcDbBlockBegin
 62
7
  6
CONTINUOUS
  2
*D2
 70
65
 10
0.0
 20
0.0
  3
*D2
  1

  0
MTEXT
  5
243
100
AcDbEntity
  8
0
100
AcDbMText
 62
7
  6
CONTINUOUS
  7
STANDARD
 71
2
 72
1
 10
-54.6032666747
 20
43.6712977928
 30
0.0
 11
1.0
 21
0.0
 31
0.0
 44
0.9
  1
43
 40
3.0
 41
4.5
  0
LINE
  5
244
100
AcDbEntity
  8
0
100
AcDbLine
 62
7
  6
CONTINUOUS
 10
-33.1032666747
 20
16.7869096983
 11
-33.1032666747
 21
41.4212977928
  0
LINE
  5
245
100
AcDbEntity
  8
0
100
AcDbLine
 62
7
  6
CONTINUOUS
 10
-76.1032666747
 20
0.5
 11
-76.1032666747
 21
41.4212977928
  0
LINE
  5
246
100
AcDbEntity
  8
0
100
AcDbLine
 62
7
  6
CONTINUOUS
 10
-33.1032666747
 20
39.9212977928
 11
-54.6032666747
 21
39.9212977928
  0
LINE
  5
247
100
AcDbEntity
  8
0
100
AcDbLine
 62
7
  6
CONTINUOUS
 10
-76.1032666747
 20
39.9212977928
 11
-54.6032666747
 21
39.9212977928
  0
INSERT
  5
248
100
AcDbEntity
  8
0
100
AcDbBlockReference
 62
7
  6
CONTINUOUS
  2
_FILLED
 10
-33.1032666747
 20
39.9212977928
 41
3.0
 42
3.0
 43
3.0
 50
0.0
  0
INSERT
  5
249
100
AcDbEntity
  8
0
100
AcDbBlockReference
 62
7
  6
CONTINUOUS
  2
_FILLED
 10
-76.1032666747
 20
39.9212977928
 41
3.0
 42
3.0
 43
3.0
 50
180.0
  0
ENDBLK
  5
24A
100
AcDbEntity
  8
0
  6
BYBLOCK
 62
0
100
AcDbBlockEnd
  0
BLOCK
  5
24B
100
AcDbEntity
  8
0
100
AcDbBlockBegin
 62
7
  6
CONTINUOUS
  2
*D3
 70
65
 10
0.0
 20
0.0
  3
*D3
  1

  0
MTEXT
  5
24C
100
AcDbEntity
  8
0
100
AcDbMText
 62
7
  6
CONTINUOUS
  7
STANDARD
 71
2
 72
1
 10
-49.3532666747
 20
34.2829359743
 30
0.0
 11
1.0
 21
0.0
 31
0.0
 44
0.9
  1
32,5
 40
3.0
 41
8.3571428571
  0
LINE
  5
24D
100
AcDbEntity
  8
0
100
AcDbLine
 62
7
  6
CONTINUOUS
 10
-33.1032666747
 20
16.7869096983
 11
-33.1032666747
 21
32.0329359743
  0
LINE
  5
24E
100
AcDbEntity
  8
0
100
AcDbLine
 62
7
  6
CONTINUOUS
 10
-65.6032666747
 20
24.7500034269
 11
-65.6032666747
 21
32.0329359743
  0
LINE
  5
24F
100
AcDbEntity
  8
0
100
AcDbLine
 62
7
  6
CONTINUOUS
 10
-33.1032666747
 20
30.5329359743
 11
-49.3532666747
 21
30.5329359743
  0
LINE
  5
250
100
AcDbEntity
  8
0
100
AcDbLine
 62
7
  6
CONTINUOUS
 10
-65.6032666747
 20
30.5329359743
 11
-49.3532666747
 21
30.5329359743
  0
INSERT
  5
251
100
AcDbEntity
  8
0
100
AcDbBlockReference
 62
7
  6
CONTINUOUS
  2
_FILLED
 10
-33.1032666747
 20
30.5329359743
 41
3.0
 42
3.0
 43
3.0
  0
INSERT
  5
252
100
AcDbEntity
  8
0
100
AcDbBlockReference
 62
7
  6
CONTINUOUS
  2
_FILLED
 10
-65.6032666747
 20
30.5329359743
 41
3.0
 42
3.0
 43
3.0
 50
180.0
  0
ENDBLK
  5
253
100
AcDbEntity
  8
0
  6
BYBLOCK
 62
0
100
AcDbBlockEnd
  0
ENDSEC
  0
SECTION
  2
ENTITIES
  0
DIMENSION
  5
254
100
AcDbEntity
  8
0
100
AcDbDimension
 62
7
  6
CONTINUOUS
  2
*D0
 10
30.4
 20
-24.5
 11
29.2061735237
 21
-2.1072778499
 70
160
 71
2
 42
49.0
  3
DIMSTYLE_1
100
AcDbAlignedDimension
 13
22.0750034269
 23
24.5
 14
22.0750034269
 24
-24.5
 50
270.0
100
AcDbRotatedDimension
  0
DIMENSION
  5
255
100
AcDbEntity
  8
0
100
AcDbDimension
 62
7
  6
CONTINUOUS
  2
*D1
 10
-22.4
 20
30.9355555556
 11
-4.3928571429
 21
33.1855555556
 70
160
 71
2
 42
44.8
  3
DIMSTYLE_1
100
AcDbAlignedDimension
 13
22.4
 23
18.1716990487
 14
-22.4
 24
18.1716990487
 50
180.0
100
AcDbRotatedDimension
  0
DIMENSION
  5
256
100
AcDbEntity
  8
0
100
AcDbDimension
 62
7
  6
CONTINUOUS
  2
*D2
 10
-76.1032666747
 20
39.9212977928
 11
-56.8532666747
 21
42.1712977928
 70
160
 71
2
 42
43.0
  3
DIMSTYLE_1
100
AcDbAlignedDimension
 13
-33.1032666747
 23
16.7869096983
 14
-76.1032666747
 24
0.5
 50
180.0
100
AcDbRotatedDimension
  0
DIMENSION
  5
257
100
AcDbEntity
  8
0
100
AcDbDimension
 62
7
  6
CONTINUOUS
  2
*D3
 10
-65.6032666747
 20
30.5329359743
 11
-53.5318381033
 21
32.7829359743
 70
160
 71
2
 42
32.5
  3
DIMSTYLE_1
100
AcDbAlignedDimension
 13
-33.1032666747
 23
16.7869096983
 14
-65.6032666747
 24
24.7500034269
 50
180.0
100
AcDbRotatedDimension
  0
LINE
  5
258
100
AcDbEntity
  8
PORTATASTO
100
AcDbLine
 62
253
  6
CONTINUOUS
 10
-19.8170205427
 20
24.4829760304
 11
-19.7999965731
 21
24.5
  0
LINE
  5
259
100
AcDbEntity
  8
PORTATASTO
100
AcDbLine
 62
253
  6
CONTINUOUS
 10
-19.5670239696
 20
24.2329794573
 11
-19.55
 21
24.2500034269
  0
LINE
  5
25A
100
AcDbEntity
  8
PORTATASTO
100
AcDbLine
 62
253
  6
CONTINUOUS
 10
-19.8170205427
 20
-24.4829760304
 11
-19.7999965731
 21
-24.5
  0
LINE
  5
25B
100
AcDbEntity
  8
PORTATASTO
100
AcDbLine
 62
253
  6
CONTINUOUS
 10
-19.5670239696
 20
-24.2329794573
 11
-19.55
 21
-24.2500034269
  0
LINE
  5
25C
100
AcDbEntity
  8
PORTATASTO
100
AcDbLine
 62
7
  6
CONTINUOUS
 10
-21.5750034269
 20
-24.5
 11
-19.7999965731
 21
-24.5
  0
LINE
  5
25D
100
AcDbEntity
  8
PORTATASTO
100
AcDbLine
 62
7
  6
CONTINUOUS
 10
21.5750034269
 20
-24.5
 11
19.7999965731
 21
-24.5
  0
LINE
  5
25E
100
AcDbEntity
  8
PORTATASTO
100
AcDbLine
 62
7
  6
CONTINUOUS
 10
-0.9249965731
 20
-24.5
 11
-2.7000034269
 21
-24.5
  0
LINE
  5
25F
100
AcDbEntity
  8
PORTATASTO
100
AcDbLine
 62
7
  6
CONTINUOUS
 10
0.9249965731
 20
-24.5
 11
2.7000034269
 21
-24.5
  0
LINE
  5
260
100
AcDbEntity
  8
PORTATASTO
100
AcDbLine
 62
7
  6
CONTINUOUS
 10
-21.5579794573
 20
-24.4829760304
 11
-19.8170205427
 21
-24.4829760304
  0
LINE
  5
261
100
AcDbEntity
  8
PORTATASTO
100
AcDbLine
 62
7
  6
CONTINUOUS
 10
-2.6829794573
 20
-24.4829760304
 11
-0.9420205427
 21
-24.4829760304
  0
LINE
  5
262
100
AcDbEntity
  8
PORTATASTO
100
AcDbLine
 62
7
  6
CONTINUOUS
 10
0.9420205427
 20
-24.4829760304
 11
2.6829794573
 21
-24.4829760304
  0
LINE
  5
263
100
AcDbEntity
  8
PORTATASTO
100
AcDbLine
 62
7
  6
CONTINUOUS
 10
19.8170205427
 20
-24.4829760304
 11
21.5579794573
 21
-24.4829760304
  0
LINE
  5
264
100
AcDbEntity
  8
PORTATASTO
100
AcDbLine
 62
7
  6
CONTINUOUS
 10
-22.3849101299
 20
-18.1473460386
 11
-22.35
 21
-18.5
  0
LINE
  5
265
100
AcDbEntity
  8
PORTATASTO
100
AcDbLine
 62
253
  6
CONTINUOUS
 10
-21.8119030571
 20
-23.5113248654
 11
-21.8079760304
 21
-23.9443375673
  0
LINE
  5
266
100
AcDbEntity
  8
ASSI
100
AcDbLine
 62
7
  6
CONTINUOUS
 10
-22.15
 20
2.4247832141
 11
-22.1116448613
 21
-21.5232368509
  0
LINE
  5
267
100
AcDbEntity
  8
RACCORDO
100
AcDbLine
 62
7
  6
CONTINUOUS
 10
-22.15
 20
2.4247832141
 11
-22.1116448613
 21
-21.5232368509
  0
LINE
  5
268
100
AcDbEntity
  8
CORPO
100
AcDbLine
 62
7
  6
CONTINUOUS
 10
-22.4
 20
-17.6716990487
 11
-22.4
 21
17.6716990487
  0
LINE
  5
269
100
AcDbEntity
  8
ASSI
100
AcDbLine
 62
7
  6
CONTINUOUS
 10
-22.4
 20
-17.6716990487
 11
-22.4
 21
17.6716990487
  0
LINE
  5
26A
100
AcDbEntity
  8
PORTATASTO
100
AcDbLine
 62
7
  6
CONTINUOUS
 10
-22.3849101299
 20
-18.1473460386
 11
-22.3849101299
 21
18.1473460386
  0
LINE
  5
26B
100
AcDbEntity
  8
PORTATASTO
100
AcDbLine
 62
7
  6
CONTINUOUS
 10
-22.35
 20
21.850016923
 11
-22.35
 21
18.5
  0
LINE
  5
26C
100
AcDbEntity
  8
PORTATASTO
100
AcDbLine
 62
7
  6
CONTINUOUS
 10
-22.35
 20
-21.850016923
 11
-22.35
 21
-18.5
  0
LINE
  5
26D
100
AcDbEntity
  8
PORTATASTO
100
AcDbLine
 62
7
  6
CONTINUOUS
 10
-22.3238174026
 20
21.771159479
 11
-22.3238174026
 21
-21.771159479
  0
LINE
  5
26E
100
AcDbEntity
  8
ASSI
100
AcDbLine
 62
7
  6
CONTINUOUS
 10
-22.15
 20
2.4247832141
 11
-22.15
 21
21.5999997649
  0
LINE
  5
26F
100
AcDbEntity
  8
RACCORDO
100
AcDbLine
 62
7
  6
CONTINUOUS
 10
-22.15
 20
2.4247832141
 11
-22.15
 21
21.5999997649
  0
LINE
  5
270
100
AcDbEntity
  8
PORTATASTO
100
AcDbLine
 62
253
  6
CONTINUOUS
 10
-21.8079760304
 20
23.9443375673
 11
-21.8119030571
 21
23.5113248654
  0
LINE
  5
271
100
AcDbEntity
  8
PORTATASTO
100
AcDbLine
 62
7
  6
CONTINUOUS
 10
-22.35
 20
18.5
 11
-22.3849101299
 21
18.1473460386
  0
LINE
  5
272
100
AcDbEntity
  8
PORTATASTO
100
AcDbLine
 62
253
  6
CONTINUOUS
 10
0.6920239696
 20
-24.2329794573
 11
2.9329760304
 21
-24.2329794573
  0
LINE
  5
273
100
AcDbEntity
  8
PORTATASTO
100
AcDbLine
 62
253
  6
CONTINUOUS
 10
-0.6920239696
 20
-24.2329794573
 11
-2.9329760304
 21
-24.2329794573
  0
LINE
  5
274
100
AcDbEntity
  8
PORTATASTO
100
AcDbLine
 62
253
  6
CONTINUOUS
 10
19.5670239696
 20
-24.2329794573
 11
21.8079760304
 21
-24.2329794573
  0
LINE
  5
275
100
AcDbEntity
  8
PORTATASTO
100
AcDbLine
 62
253
  6
CONTINUOUS
 10
-19.5670239696
 20
-24.2329794573
 11
-21.8079760304
 21
-24.2329794573
  0
LINE
  5
276
100
AcDbEntity
  8
PORTATASTO
100
AcDbLine
 62
253
  6
CONTINUOUS
 10
-0.6920239696
 20
-23.9443375673
 11
-2.9329760304
 21
-23.9443375673
  0
LINE
  5
277
100
AcDbEntity
  8
PORTATASTO
100
AcDbLine
 62
253
  6
CONTINUOUS
 10
0.6920239696
 20
-23.9443375673
 11
2.9329760304
 21
-23.9443375673
  0
LINE
  5
278
100
AcDbEntity
  8
PORTATASTO
100
AcDbLine
 62
253
  6
CONTINUOUS
 10
-19.5670239696
 20
-23.9443375673
 11
-21.8079760304
 21
-23.9443375673
  0
LINE
  5
279
100
AcDbEntity
  8
PORTATASTO
100
AcDbLine
 62
253
  6
CONTINUOUS
 10
19.5670239696
 20
-23.9443375673
 11
21.8079760304
 21
-23.9443375673
  0
LINE
  5
27A
100
AcDbEntity
  8
PORTATASTO
100
AcDbLine
 62
7
  6
CONTINUOUS
 10
15.65
 20
-23.8
 11
6.85
 21
-23.8
  0
LINE
  5
27B
100
AcDbEntity
  8
PORTATASTO
100
AcDbLine
 62
7
  6
CONTINUOUS
 10
-6.85
 20
-23.8
 11
-15.65
 21
-23.8
  0
LINE
  5
27C
100
AcDbEntity
  8
PORTATASTO
100
AcDbLine
 62
7
  6
CONTINUOUS
 10
-15.541351552
 20
-23.7905696528
 11
-6.958648448
 21
-23.7905696528
  0
LINE
  5
27D
100
AcDbEntity
  8
PORTATASTO
100
AcDbLine
 62
7
  6
CONTINUOUS
 10
6.958648448
 20
-23.7905696528
 11
15.541351552
 21
-23.7905696528
  0
LINE
  5
27E
100
AcDbEntity
  8
PORTATASTO
100
AcDbLine
 62
253
  6
CONTINUOUS
 10
21.5579794573
 20
-23.7278312164
 11
19.8170205427
 21
-23.7278312164
  0
LINE
  5
27F
100
AcDbEntity
  8
PORTATASTO
100
AcDbLine
 62
253
  6
CONTINUOUS
 10
2.6829794573
 20
-23.7278312164
 11
0.9420205427
 21
-23.7278312164
  0
LINE
  5
280
100
AcDbEntity
  8
PORTATASTO
100
AcDbLine
 62
253
  6
CONTINUOUS
 10
-0.9420205427
 20
-23.7278312164
 11
-2.6829794573
 21
-23.7278312164
  0
LINE
  5
281
100
AcDbEntity
  8
PORTATASTO
100
AcDbLine
 62
253
  6
CONTINUOUS
 10
-19.8170205427
 20
-23.7278312164
 11
-21.5579794573
 21
-23.7278312164
  0
LINE
  5
282
100
AcDbEntity
  8
PORTATASTO
100
AcDbLine
 62
253
  6
CONTINUOUS
 10
-15.1421390926
 20
-23.5905723943
 11
-7.3578609074
 21
-23.5905723943
  0
LINE
  5
283
100
AcDbEntity
  8
PORTATASTO
100
AcDbLine
 62
253
  6
CONTINUOUS
 10
7.3578609074
 20
-23.5905723943
 11
15.1421390926
 21
-23.5905723943
  0
LINE
  5
284
100
AcDbEntity
  8
PORTATASTO
100
AcDbLine
 62
253
  6
CONTINUOUS
 10
21.561906484
 20
-23.2948185145
 11
19.813093516
 21
-23.2948185145
  0
LINE
  5
285
100
AcDbEntity
  8
PORTATASTO
100
AcDbLine
 62
253
  6
CONTINUOUS
 10
2.686906484
 20
-23.2948185145
 11
0.938093516
 21
-23.2948185145
  0
LINE
  5
286
100
AcDbEntity
  8
PORTATASTO
100
AcDbLine
 62
253
  6
CONTINUOUS
 10
-0.938093516
 20
-23.2948185145
 11
-2.686906484
 21
-23.2948185145
  0
LINE
  5
287
100
AcDbEntity
  8
PORTATASTO
100
AcDbLine
 62
253
  6
CONTINUOUS
 10
-19.813093516
 20
-23.2948185145
 11
-21.561906484
 21
-23.2948185145
  0
LINE
  5
288
100
AcDbEntity
  8
PORTATASTO
100
AcDbLine
 62
7
  6
CONTINUOUS
 10
-15.7446938615
 20
-23.2226497308
 11
-15.6447639644
 21
-23.2226497308
  0
LINE
  5
289
100
AcDbEntity
  8
PORTATASTO
100
AcDbLine
 62
7
  6
CONTINUOUS
 10
-6.8552360356
 20
-23.2226497308
 11
-6.7553061385
 21
-23.2226497308
  0
LINE
  5
28A
100
AcDbEntity
  8
PORTATASTO
100
AcDbLine
 62
7
  6
CONTINUOUS
 10
6.7553061385
 20
-23.2226497308
 11
6.8552360356
 21
-23.2226497308
  0
LINE
  5
28B
100
AcDbEntity
  8
PORTATASTO
100
AcDbLine
 62
7
  6
CONTINUOUS
 10
15.6447639644
 20
-23.2226497308
 11
15.7446938615
 21
-23.2226497308
  0
LINE
  5
28C
100
AcDbEntity
  8
PORTATASTO
100
AcDbLine
 62
253
  6
CONTINUOUS
 10
21.813212066
 20
-23.0783121635
 11
19.561787934
 21
-23.0783121635
  0
LINE
  5
28D
100
AcDbEntity
  8
PORTATASTO
100
AcDbLine
 62
253
  6
CONTINUOUS
 10
2.938212066
 20
-23.0783121635
 11
0.686787934
 21
-23.0783121635
  0
LINE
  5
28E
100
AcDbEntity
  8
PORTATASTO
100
AcDbLine
 62
253
  6
CONTINUOUS
 10
-0.686787934
 20
-23.0783121635
 11
-2.938212066
 21
-23.0783121635
  0
LINE
  5
28F
100
AcDbEntity
  8
PORTATASTO
100
AcDbLine
 62
253
  6
CONTINUOUS
 10
-19.561787934
 20
-23.0783121635
 11
-21.813212066
 21
-23.0783121635
  0
LINE
  5
290
100
AcDbEntity
  8
CORPO
100
AcDbLine
 62
7
  6
CONTINUOUS
 10
0.6802360356
 20
-22.4
 11
-0.6802360356
 21
-22.4
  0
LINE
  5
291
100
AcDbEntity
  8
ASSI
100
AcDbLine
 62
7
  6
CONTINUOUS
 10
0.6802360356
 20
-22.4
 11
-0.6802360356
 21
-22.4
  0
LINE
  5
292
100
AcDbEntity
  8
PORTATASTO
100
AcDbLine
 62
7
  6
CONTINUOUS
 10
21.8503805997
 20
-22.35
 11
21.8197639644
 21
-22.35
  0
LINE
  5
293
100
AcDbEntity
  8
PORTATASTO
100
AcDbLine
 62
7
  6
CONTINUOUS
 10
19.5552360356
 20
-22.35
 11
15.6447639644
 21
-22.35
  0
LINE
  5
294
100
AcDbEntity
  8
PORTATASTO
100
AcDbLine
 62
7
  6
CONTINUOUS
 10
6.8552360356
 20
-22.35
 11
2.9447639644
 21
-22.35
  0
LINE
  5
295
100
AcDbEntity
  8
PORTATASTO
100
AcDbLine
 62
7
  6
CONTINUOUS
 10
0.6802360356
 20
-22.35
 11
-0.6802360356
 21
-22.35
  0
LINE
  5
296
100
AcDbEntity
  8
PORTATASTO
100
AcDbLine
 62
7
  6
CONTINUOUS
 10
-2.9447639644
 20
-22.35
 11
-6.8552360356
 21
-22.35
  0
LINE
  5
297
100
AcDbEntity
  8
PORTATASTO
100
AcDbLine
 62
7
  6
CONTINUOUS
 10
-15.6447639644
 20
-22.35
 11
-19.5552360356
 21
-22.35
  0
LINE
  5
298
100
AcDbEntity
  8
PORTATASTO
100
AcDbLine
 62
7
  6
CONTINUOUS
 10
-21.8197639644
 20
-22.35
 11
-21.8503805997
 21
-22.35
  0
LINE
  5
299
100
AcDbEntity
  8
PORTATASTO
100
AcDbLine
 62
7
  6
CONTINUOUS
 10
15.1421390926
 20
-22.2975922207
 11
7.3578609074
 21
-22.2975922207
  0
LINE
  5
29A
100
AcDbEntity
  8
PORTATASTO
100
AcDbLine
 62
7
  6
CONTINUOUS
 10
-7.3578609074
 20
-22.2975922207
 11
-15.1421390926
 21
-22.2975922207
  0
LINE
  5
29B
100
AcDbEntity
  8
PORTATASTO
100
AcDbLine
 62
7
  6
CONTINUOUS
 10
21.8241980023
 20
-22.2713883311
 11
21.5632154929
 21
-22.2713883311
  0
LINE
  5
29C
100
AcDbEntity
  8
PORTATASTO
100
AcDbLine
 62
7
  6
CONTINUOUS
 10
19.8117845071
 20
-22.2713883311
 11
2.6882154929
 21
-22.2713883311
  0
LINE
  5
29D
100
AcDbEntity
  8
PORTATASTO
100
AcDbLine
 62
7
  6
CONTINUOUS
 10
0.9367845071
 20
-22.2713883311
 11
-0.9367845071
 21
-22.2713883311
  0
LINE
  5
29E
100
AcDbEntity
  8
PORTATASTO
100
AcDbLine
 62
7
  6
CONTINUOUS
 10
-2.6882154929
 20
-22.2713883311
 11
-19.8117845071
 21
-22.2713883311
  0
LINE
  5
29F
100
AcDbEntity
  8
PORTATASTO
100
AcDbLine
 62
7
  6
CONTINUOUS
 10
-21.5632154929
 20
-22.2713883311
 11
-21.8241980023
 21
-22.2713883311
  0
LINE
  5
2A0
100
AcDbEntity
  8
ASSI
100
AcDbLine
 62
7
  6
CONTINUOUS
 10
-21.6113604562
 20
-22.0216395076
 11
21.6113604562
 21
-22.0216395076
  0
LINE
  5
2A1
100
AcDbEntity
  8
RACCORDO
100
AcDbLine
 62
7
  6
CONTINUOUS
 10
-21.6113604562
 20
-22.0216395076
 11
21.6113604562
 21
-22.0216395076
  0
LINE
  5
2A2
100
AcDbEntity
  8
PORTATASTO
100
AcDbLine
 62
253
  6
CONTINUOUS
 10
-21.561906484
 20
-23.2948185145
 11
-21.5579794573
 21
-23.7278312164
  0
LINE
  5
2A3
100
AcDbEntity
  8
PORTATASTO
100
AcDbLine
 62
7
  6
CONTINUOUS
 10
-21.8197639644
 20
23.2226497308
 11
-21.825
 21
23.8
  0
LINE
  5
2A4
100
AcDbEntity
  8
PORTATASTO
100
AcDbLine
 62
7
  6
CONTINUOUS
 10
-19.55
 20
-23.8
 11
-19.5552360356
 21
-23.2226497308
  0
LINE
  5
2A5
100
AcDbEntity
  8
PORTATASTO
100
AcDbLine
 62
253
  6
CONTINUOUS
 10
-19.813093516
 20
23.2948185145
 11
-19.8170205427
 21
23.7278312164
  0
LINE
  5
2A6
100
AcDbEntity
  8
PORTATASTO
100
AcDbLine
 62
7
  6
CONTINUOUS
 10
-21.825
 20
-24.2500034269
 11
-21.825
 21
-23.8
  0
LINE
  5
2A7
100
AcDbEntity
  8
PORTATASTO
100
AcDbLine
 62
7
  6
CONTINUOUS
 10
-21.825
 20
23.8
 11
-21.825
 21
24.2500034269
  0
LINE
  5
2A8
100
AcDbEntity
  8
PORTATASTO
100
AcDbLine
 62
7
  6
CONTINUOUS
 10
-21.8197639644
 20
23.2226497308
 11
-21.8197639644
 21
23.0783121635
  0
LINE
  5
2A9
100
AcDbEntity
  8
PORTATASTO
100
AcDbLine
 62
7
  6
CONTINUOUS
 10
-21.8197639644
 20
-23.0783121635
 11
-21.8197639644
 21
-23.2226497308
  0
LINE
  5
2AA
100
AcDbEntity
  8
PORTATASTO
100
AcDbLine
 62
7
  6
CONTINUOUS
 10
-21.813212066
 20
23.0783121635
 11
-21.813212066
 21
22.2844216746
  0
LINE
  5
2AB
100
AcDbEntity
  8
PORTATASTO
100
AcDbLine
 62
7
  6
CONTINUOUS
 10
-21.813212066
 20
-22.2844216746
 11
-21.813212066
 21
-23.0783121635
  0
LINE
  5
2AC
100
AcDbEntity
  8
PORTATASTO
100
AcDbLine
 62
7
  6
CONTINUOUS
 10
-21.8079760304
 20
24.2329794573
 11
-21.8079760304
 21
23.9443375673
  0
LINE
  5
2AD
100
AcDbEntity
  8
PORTATASTO
100
AcDbLine
 62
7
  6
CONTINUOUS
 10
-21.8079760304
 20
-23.9443375673
 11
-21.8079760304
 21
-24.2329794573
  0
LINE
  5
2AE
100
AcDbEntity
  8
PORTATASTO
100
AcDbLine
 62
253
  6
CONTINUOUS
 10
-21.5632154929
 20
23.0783121635
 11
-21.5632154929
 21
22.2713883311
  0
LINE
  5
2AF
100
AcDbEntity
  8
PORTATASTO
100
AcDbLine
 62
253
  6
CONTINUOUS
 10
-21.5632154929
 20
-22.2713883311
 11
-21.5632154929
 21
-23.0783121635
  0
LINE
  5
2B0
100
AcDbEntity
  8
PORTATASTO
100
AcDbLine
 62
253
  6
CONTINUOUS
 10
-21.5579794573
 20
-23.7278312164
 11
-21.5579794573
 21
-24.4829760304
  0
LINE
  5
2B1
100
AcDbEntity
  8
PORTATASTO
100
AcDbLine
 62
253
  6
CONTINUOUS
 10
-21.5579794573
 20
23.7278312164
 11
-21.5579794573
 21
24.4829760304
  0
LINE
  5
2B2
100
AcDbEntity
  8
PORTATASTO
100
AcDbLine
 62
253
  6
CONTINUOUS
 10
-19.8170205427
 20
-23.7278312164
 11
-19.8170205427
 21
-24.4829760304
  0
LINE
  5
2B3
100
AcDbEntity
  8
PORTATASTO
100
AcDbLine
 62
253
  6
CONTINUOUS
 10
-19.8170205427
 20
23.7278312164
 11
-19.8170205427
 21
24.4829760304
  0
LINE
  5
2B4
100
AcDbEntity
  8
PORTATASTO
100
AcDbLine
 62
253
  6
CONTINUOUS
 10
-19.8117845071
 20
-23.0783121635
 11
-19.8117845071
 21
-22.2713883311
  0
LINE
  5
2B5
100
AcDbEntity
  8
PORTATASTO
100
AcDbLine
 62
253
  6
CONTINUOUS
 10
-19.8117845071
 20
22.2713883311
 11
-19.8117845071
 21
23.0783121635
  0
LINE
  5
2B6
100
AcDbEntity
  8
PORTATASTO
100
AcDbLine
 62
7
  6
CONTINUOUS
 10
-19.5670239696
 20
-24.2329794573
 11
-19.5670239696
 21
-23.9443375673
  0
LINE
  5
2B7
100
AcDbEntity
  8
PORTATASTO
100
AcDbLine
 62
7
  6
CONTINUOUS
 10
-19.5670239696
 20
23.9443375673
 11
-19.5670239696
 21
24.2329794573
  0
LINE
  5
2B8
100
AcDbEntity
  8
PORTATASTO
100
AcDbLine
 62
7
  6
CONTINUOUS
 10
-19.561787934
 20
-23.0783121635
 11
-19.561787934
 21
-22.2844216746
  0
LINE
  5
2B9
100
AcDbEntity
  8
PORTATASTO
100
AcDbLine
 62
7
  6
CONTINUOUS
 10
-19.561787934
 20
22.2844216746
 11
-19.561787934
 21
23.0783121635
  0
LINE
  5
2BA
100
AcDbEntity
  8
PORTATASTO
100
AcDbLine
 62
7
  6
CONTINUOUS
 10
-19.5552360356
 20
23.2226497308
 11
-19.5552360356
 21
23.0783121635
  0
LINE
  5
2BB
100
AcDbEntity
  8
PORTATASTO
100
AcDbLine
 62
7
  6
CONTINUOUS
 10
-19.5552360356
 20
-23.0783121635
 11
-19.5552360356
 21
-23.2226497308
  0
LINE
  5
2BC
100
AcDbEntity
  8
PORTATASTO
100
AcDbLine
 62
7
  6
CONTINUOUS
 10
-19.55
 20
24.2500034269
 11
-19.55
 21
23.8
  0
LINE
  5
2BD
100
AcDbEntity
  8
PORTATASTO
100
AcDbLine
 62
7
  6
CONTINUOUS
 10
-19.55
 20
-23.8
 11
-19.55
 21
-24.2500034269
  0
LINE
  5
2BE
100
AcDbEntity
  8
PORTATASTO
100
AcDbLine
 62
253
  6
CONTINUOUS
 10
-21.5579794573
 20
23.7278312164
 11
-21.561906484
 21
23.2948185145
  0
LINE
  5
2BF
100
AcDbEntity
  8
PORTATASTO
100
AcDbLine
 62
7
  6
CONTINUOUS
 10
-21.825
 20
-23.8
 11
-21.8197639644
 21
-23.2226497308
  0
LINE
  5
2C0
100
AcDbEntity
  8
PORTATASTO
100
AcDbLine
 62
7
  6
CONTINUOUS
 10
-19.5552360356
 20
23.2226497308
 11
-19.55
 21
23.8
  0
LINE
  5
2C1
100
AcDbEntity
  8
PORTATASTO
100
AcDbLine
 62
253
  6
CONTINUOUS
 10
-19.8170205427
 20
-23.7278312164
 11
-19.813093516
 21
-23.2948185145
  0
LINE
  5
2C2
100
AcDbEntity
  8
ASSI
100
AcDbLine
 62
253
  6
CONTINUOUS
 10
21.5152970636
 20
-21.8293808902
 11
-21.5152970636
 21
-21.8293808902
  0
LINE
  5
2C3
100
AcDbEntity
  8
RACCORDO
100
AcDbLine
 62
253
  6
CONTINUOUS
 10
21.5152970636
 20
-21.8293808902
 11
-21.5152970636
 21
-21.8293808902
  0
LINE
  5
2C4
100
AcDbEntity
  8
ASSI
100
AcDbLine
 62
253
  6
CONTINUOUS
 10
21.4905033956
 20
-20.3926143743
 11
-21.4905033956
 21
-20.3926143743
  0
LINE
  5
2C5
100
AcDbEntity
  8
RACCORDO
100
AcDbLine
 62
253
  6
CONTINUOUS
 10
21.4905033956
 20
-20.3926143743
 11
-21.4905033956
 21
-20.3926143743
  0
LINE
  5
2C6
100
AcDbEntity
  8
PORTATASTO
100
AcDbLine
 62
253
  6
CONTINUOUS
 10
-19.5630969429
 20
23.5113248654
 11
-19.5670239696
 21
23.9443375673
  0
LINE
  5
2C7
100
AcDbEntity
  8
PORTATASTO
100
AcDbLine
 62
253
  6
CONTINUOUS
 10
-19.5670239696
 20
-23.9443375673
 11
-19.5630969429
 21
-23.5113248654
  0
LINE
  5
2C8
100
AcDbEntity
  8
PORTATASTO
100
AcDbLine
 62
253
  6
CONTINUOUS
 10
-0.9420205427
 20
24.4829760304
 11
-0.9249965731
 21
24.5
  0
LINE
  5
2C9
100
AcDbEntity
  8
PORTATASTO
100
AcDbLine
 62
253
  6
CONTINUOUS
 10
-0.6920239696
 20
24.2329794573
 11
-0.675
 21
24.2500034269
  0
LINE
  5
2CA
100
AcDbEntity
  8
ASSI
100
AcDbLine
 62
253
  6
CONTINUOUS
 10
2.1
 20
-17.7646413226
 11
-2.1
 21
-17.7646413226
  0
LINE
  5
2CB
100
AcDbEntity
  8
RACCORDO
100
AcDbLine
 62
253
  6
CONTINUOUS
 10
2.1
 20
-17.7646413226
 11
-2.1
 21
-17.7646413226
  0
LINE
  5
2CC
100
AcDbEntity
  8
ASSI
100
AcDbLine
 62
253
  6
CONTINUOUS
 10
2.1
 20
-17.6611036248
 11
-2.1
 21
-17.6611036248
  0
LINE
  5
2CD
100
AcDbEntity
  8
RACCORDO
100
AcDbLine
 62
253
  6
CONTINUOUS
 10
2.1
 20
-17.6611036248
 11
-2.1
 21
-17.6611036248
  0
LINE
  5
2CE
100
AcDbEntity
  8
ASSI
100
AcDbLine
 62
7
  6
CONTINUOUS
 10
-2.1
 20
-17.65
 11
2.1
 21
-17.65
  0
LINE
  5
2CF
100
AcDbEntity
  8
DRAFT
100
AcDbLine
 62
7
  6
CONTINUOUS
 10
-2.1
 20
-17.65
 11
2.1
 21
-17.65
  0
LINE
  5
2D0
100
AcDbEntity
  8
RACCORDO
100
AcDbLine
 62
253
  6
CONTINUOUS
 10
-2.1
 20
-17.4850037836
 11
2.1
 21
-17.4850037836
  0
LINE
  5
2D1
100
AcDbEntity
  8
ASSI
100
AcDbLine
 62
253
  6
CONTINUOUS
 10
-2.1
 20
-17.4850037836
 11
2.1
 21
-17.4850037836
  0
LINE
  5
2D2
100
AcDbEntity
  8
RACCORDO
100
AcDbLine
 62
253
  6
CONTINUOUS
 10
-2.1
 20
-17.3907473537
 11
2.1
 21
-17.3907473537
  0
LINE
  5
2D3
100
AcDbEntity
  8
ASSI
100
AcDbLine
 62
253
  6
CONTINUOUS
 10
-2.1
 20
-17.3907473537
 11
2.1
 21
-17.3907473537
  0
LINE
  5
2D4
100
AcDbEntity
  8
PORTATASTO
100
AcDbLine
 62
7
  6
CONTINUOUS
 10
4.358506487
 20
-17.034041698
 11
4.3
 21
-17.034041698
  0
LINE
  5
2D5
100
AcDbEntity
  8
PORTATASTO
100
AcDbLine
 62
253
  6
CONTINUOUS
 10
-0.9420205427
 20
-24.4829760304
 11
-0.9249965731
 21
-24.5
  0
LINE
  5
2D6
100
AcDbEntity
  8
PORTATASTO
100
AcDbLine
 62
253
  6
CONTINUOUS
 10
-0.6920239696
 20
-24.2329794573
 11
-0.675
 21
-24.2500034269
  0
LINE
  5
2D7
100
AcDbEntity
  8
PORTATASTO
100
AcDbLine
 62
7
  6
CONTINUOUS
 10
-15.6552360356
 20
-22.35
 11
-15.6552360356
 21
-22.85711136
  0
LINE
  5
2D8
100
AcDbEntity
  8
PORTATASTO
100
AcDbLine
 62
7
  6
CONTINUOUS
 10
-15.6552360356
 20
22.35
 11
-15.6552360356
 21
22.85711136
  0
LINE
  5
2D9
100
AcDbEntity
  8
PORTATASTO
100
AcDbLine
 62
7
  6
CONTINUOUS
 10
-15.6421322387
 20
23.7921322387
 11
-15.6421322387
 21
22.3236589077
  0
LINE
  5
2DA
100
AcDbEntity
  8
PORTATASTO
100
AcDbLine
 62
7
  6
CONTINUOUS
 10
-15.6421322387
 20
-22.3236589077
 11
-15.6421322387
 21
-23.7921322387
  0
LINE
  5
2DB
100
AcDbEntity
  8
PORTATASTO
100
AcDbLine
 62
253
  6
CONTINUOUS
 10
-15.1421390926
 20
23.5905723943
 11
-15.1421390926
 21
22.2975922207
  0
LINE
  5
2DC
100
AcDbEntity
  8
PORTATASTO
100
AcDbLine
 62
253
  6
CONTINUOUS
 10
-15.1421390926
 20
-22.2975922207
 11
-15.1421390926
 21
-23.5905723943
  0
LINE
  5
2DD
100
AcDbEntity
  8
PORTATASTO
100
AcDbLine
 62
253
  6
CONTINUOUS
 10
2.6829794573
 20
24.4829760304
 11
2.7000034269
 21
24.5
  0
LINE
  5
2DE
100
AcDbEntity
  8
PORTATASTO
100
AcDbLine
 62
253
  6
CONTINUOUS
 10
2.9329760304
 20
24.2329794573
 11
2.95
 21
24.2500034269
  0
LINE
  5
2DF
100
AcDbEntity
  8
ASSI
100
AcDbLine
 62
7
  6
CONTINUOUS
 10
6.0752358421
 20
-15.2
 11
6.0600582547
 21
-15.2
  0
LINE
  5
2E0
100
AcDbEntity
  8
ASSI
100
AcDbLine
 62
7
  6
CONTINUOUS
 10
-6.0752358421
 20
-15.2
 11
-6.0600582547
 21
-15.2
  0
LINE
  5
2E1
100
AcDbEntity
  8
RACCORDO
100
AcDbLine
 62
7
  6
CONTINUOUS
 10
6.0752358421
 20
-15.2
 11
6.0600582547
 21
-15.2
  0
LINE
  5
2E2
100
AcDbEntity
  8
RACCORDO
100
AcDbLine
 62
7
  6
CONTINUOUS
 10
-6.0752358421
 20
-15.2
 11
-6.0600582547
 21
-15.2
  0
LINE
  5
2E3
100
AcDbEntity
  8
ASSI
100
AcDbLine
 62
253
  6
CONTINUOUS
 10
3.057227
 20
-15.062166
 11
-3.0475035069
 21
-15.062166
  0
LINE
  5
2E4
100
AcDbEntity
  8
INCISIONI
100
AcDbLine
 62
253
  6
CONTINUOUS
 10
3.057227
 20
-15.062166
 11
-3.0475035069
 21
-15.062166
  0
LINE
  5
2E5
100
AcDbEntity
  8
ASSI
100
AcDbLine
 62
253
  6
CONTINUOUS
 10
3.055595
 20
-14.912098
 11
-3.050978
 21
-14.912098
  0
LINE
  5
2E6
100
AcDbEntity
  8
INCISIONI
100
AcDbLine
 62
253
  6
CONTINUOUS
 10
3.055595
 20
-14.912098
 11
-3.050978
 21
-14.912098
  0
LINE
  5
2E7
100
AcDbEntity
  8
ASSI
100
AcDbLine
 62
253
  6
CONTINUOUS
 10
2.676964
 20
-14.762098
 11
-2.673269
 21
-14.762098
  0
LINE
  5
2E8
100
AcDbEntity
  8
INCISIONI
100
AcDbLine
 62
253
  6
CONTINUOUS
 10
2.676964
 20
-14.762098
 11
-2.673269
 21
-14.762098
  0
LINE
  5
2E9
100
AcDbEntity
  8
PORTATASTO
100
AcDbLine
 62
253
  6
CONTINUOUS
 10
2.6829794573
 20
-24.4829760304
 11
2.7000034269
 21
-24.5
  0
LINE
  5
2EA
100
AcDbEntity
  8
PORTATASTO
100
AcDbLine
 62
253
  6
CONTINUOUS
 10
2.9329760304
 20
-24.2329794573
 11
2.95
 21
-24.2500034269
  0
LINE
  5
2EB
100
AcDbEntity
  8
PORTATASTO
100
AcDbLine
 62
253
  6
CONTINUOUS
 10
-22.35
 20
-21.8497711479
 11
-22.3238174026
 21
-21.771159479
  0
LINE
  5
2EC
100
AcDbEntity
  8
PORTATASTO
100
AcDbLine
 62
253
  6
CONTINUOUS
 10
-21.8503805997
 20
-22.35
 11
-21.8270084758
 21
-22.2798266081
  0
LINE
  5
2ED
100
AcDbEntity
  8
PORTATASTO
100
AcDbLine
 62
253
  6
CONTINUOUS
 10
-22.3238174026
 20
21.771159479
 11
-22.35
 21
21.8497711479
  0
LINE
  5
2EE
100
AcDbEntity
  8
PORTATASTO
100
AcDbLine
 62
253
  6
CONTINUOUS
 10
-21.8270084758
 20
22.2798266081
 11
-21.8503805997
 21
22.35
  0
LINE
  5
2EF
100
AcDbEntity
  8
ASSI
100
AcDbLine
 62
253
  6
CONTINUOUS
 10
-22.1116448613
 20
-21.5232368509
 11
-22.0151257261
 21
-21.3300661228
  0
LINE
  5
2F0
100
AcDbEntity
  8
RACCORDO
100
AcDbLine
 62
253
  6
CONTINUOUS
 10
-22.1116448613
 20
-21.5232368509
 11
-22.0151257261
 21
-21.3300661228
  0
LINE
  5
2F1
100
AcDbEntity
  8
PORTATASTO
100
AcDbLine
 62
253
  6
CONTINUOUS
 10
5.9381733086
 20
-10.9419945518
 11
5.7491762954
 21
-10.9438992044
  0
LINE
  5
2F2
100
AcDbEntity
  8
ASSI
100
AcDbLine
 62
7
  6
CONTINUOUS
 10
6.0600582547
 20
-11.2
 11
6.0752358421
 21
-11.2
  0
LINE
  5
2F3
100
AcDbEntity
  8
ASSI
100
AcDbLine
 62
7
  6
CONTINUOUS
 10
-6.0600582547
 20
-11.2
 11
-6.0752358421
 21
-11.2
  0
LINE
  5
2F4
100
AcDbEntity
  8
RACCORDO
100
AcDbLine
 62
7
  6
CONTINUOUS
 10
6.0600582547
 20
-11.2
 11
6.0752358421
 21
-11.2
  0
LINE
  5
2F5
100
AcDbEntity
  8
RACCORDO
100
AcDbLine
 62
7
  6
CONTINUOUS
 10
-6.0600582547
 20
-11.2
 11
-6.0752358421
 21
-11.2
  0
LINE
  5
2F6
100
AcDbEntity
  8
PORTATASTO
100
AcDbLine
 62
7
  6
CONTINUOUS
 10
5.9535505204
 20
-10.9685808831
 11
5.7637409181
 21
-10.9685808831
  0
LINE
  5
2F7
100
AcDbEntity
  8
RACCORDO
100
AcDbLine
 62
7
  6
CONTINUOUS
 10
-5.7784424724
 20
-10.6912511336
 11
-5.5837024056
 21
-10.6912511336
  0
LINE
  5
2F8
100
AcDbEntity
  8
ASSI
100
AcDbLine
 62
7
  6
CONTINUOUS
 10
-5.7784424724
 20
-10.6912511336
 11
-5.5837024056
 21
-10.6912511336
  0
LINE
  5
2F9
100
AcDbEntity
  8
RACCORDO
100
AcDbLine
 62
7
  6
CONTINUOUS
 10
5.5837024056
 20
-10.6912511336
 11
5.7784426759
 21
-10.6912511336
  0
LINE
  5
2FA
100
AcDbEntity
  8
ASSI
100
AcDbLine
 62
7
  6
CONTINUOUS
 10
5.5837024056
 20
-10.6912511336
 11
5.7784426759
 21
-10.6912511336
  0
LINE
  5
2FB
100
AcDbEntity
  8
ASSI
100
AcDbLine
 62
253
  6
CONTINUOUS
 10
-22.0151257261
 20
21.3300661228
 11
-22.15
 21
21.5999997649
  0
LINE
  5
2FC
100
AcDbEntity
  8
RACCORDO
100
AcDbLine
 62
253
  6
CONTINUOUS
 10
-22.0151257261
 20
21.3300661228
 11
-22.15
 21
21.5999997649
  0
LINE
  5
2FD
100
AcDbEntity
  8
PORTATASTO
100
AcDbLine
 62
253
  6
CONTINUOUS
 10
-7.3578609074
 20
-23.5905723943
 11
-7.3578609074
 21
-22.2975922207
  0
LINE
  5
2FE
100
AcDbEntity
  8
PORTATASTO
100
AcDbLine
 62
253
  6
CONTINUOUS
 10
-7.3578609074
 20
22.2975922207
 11
-7.3578609074
 21
23.5905723943
  0
LINE
  5
2FF
100
AcDbEntity
  8
ASSI
100
AcDbLine
 62
253
  6
CONTINUOUS
 10
-21.6113604562
 20
-22.0216395076
 11
-21.5152970636
 21
-21.8293808902
  0
LINE
  5
300
100
AcDbEntity
  8
RACCORDO
100
AcDbLine
 62
253
  6
CONTINUOUS
 10
-21.6113604562
 20
-22.0216395076
 11
-21.5152970636
 21
-21.8293808902
  0
LINE
  5
301
100
AcDbEntity
  8
RACCORDO
100
AcDbLine
 62
253
  6
CONTINUOUS
 10
2.1
 20
-9.0242557253
 11
-2.1
 21
-9.0242557253
  0
LINE
  5
302
100
AcDbEntity
  8
ASSI
100
AcDbLine
 62
253
  6
CONTINUOUS
 10
2.1
 20
-9.0242557253
 11
-2.1
 21
-9.0242557253
  0
LINE
  5
303
100
AcDbEntity
  8
RACCORDO
100
AcDbLine
 62
253
  6
CONTINUOUS
 10
2.1
 20
-8.9213305174
 11
-2.1
 21
-8.9213305174
  0
LINE
  5
304
100
AcDbEntity
  8
ASSI
100
AcDbLine
 62
253
  6
CONTINUOUS
 10
2.1
 20
-8.9213305174
 11
-2.1
 21
-8.9213305174
  0
LINE
  5
305
100
AcDbEntity
  8
ASSI
100
AcDbLine
 62
7
  6
CONTINUOUS
 10
-2.1
 20
-8.7465095187
 11
2.1
 21
-8.7465095187
  0
LINE
  5
306
100
AcDbEntity
  8
SMUSSO
100
AcDbLine
 62
7
  6
CONTINUOUS
 10
-2.1
 20
-8.7465095187
 11
2.1
 21
-8.7465095187
  0
LINE
  5
307
100
AcDbEntity
  8
ASSI
100
AcDbLine
 62
253
  6
CONTINUOUS
 10
-2.1
 20
-8.7346889992
 11
2.1
 21
-8.7346889992
  0
LINE
  5
308
100
AcDbEntity
  8
RACCORDO
100
AcDbLine
 62
253
  6
CONTINUOUS
 10
-2.1
 20
-8.7346889992
 11
2.1
 21
-8.7346889992
  0
LINE
  5
309
100
AcDbEntity
  8
ASSI
100
AcDbLine
 62
253
  6
CONTINUOUS
 10
-2.1
 20
-8.636431516
 11
2.1
 21
-8.636431516
  0
LINE
  5
30A
100
AcDbEntity
  8
RACCORDO
100
AcDbLine
 62
253
  6
CONTINUOUS
 10
-2.1
 20
-8.636431516
 11
2.1
 21
-8.636431516
  0
LINE
  5
30B
100
AcDbEntity
  8
ASSI
100
AcDbLine
 62
253
  6
CONTINUOUS
 10
0.1006545012
 20
-11.9281345313
 11
3.1599445315
 21
-14.8028534994
  0
LINE
  5
30C
100
AcDbEntity
  8
INCISIONI
100
AcDbLine
 62
253
  6
CONTINUOUS
 10
0.1006545012
 20
-11.9281345313
 11
3.1599445315
 21
-14.8028534994
  0
LINE
  5
30D
100
AcDbEntity
  8
ASSI
100
AcDbLine
 62
253
  6
CONTINUOUS
 10
2.9540841109
 20
-14.0583881645
 11
-0.002769
 21
-11.279926
  0
LINE
  5
30E
100
AcDbEntity
  8
INCISIONI
100
AcDbLine
 62
253
  6
CONTINUOUS
 10
2.9540841109
 20
-14.0583881645
 11
-0.002769
 21
-11.279926
  0
LINE
  5
30F
100
AcDbEntity
  8
ASSI
100
AcDbLine
 62
253
  6
CONTINUOUS
 10
-0.002971
 20
-11.073903
 11
3.056803
 21
-13.949076
  0
LINE
  5
310
100
AcDbEntity
  8
INCISIONI
100
AcDbLine
 62
253
  6
CONTINUOUS
 10
-0.002971
 20
-11.073903
 11
3.056803
 21
-13.949076
  0
LINE
  5
311
100
AcDbEntity
  8
ASSI
100
AcDbLine
 62
253
  6
CONTINUOUS
 10
0.0990221363
 20
-10.9624911281
 11
3.1602282317
 21
-13.8390102177
  0
LINE
  5
312
100
AcDbEntity
  8
INCISIONI
100
AcDbLine
 62
253
  6
CONTINUOUS
 10
0.0990221363
 20
-10.9624911281
 11
3.1602282317
 21
-13.8390102177
  0
LINE
  5
313
100
AcDbEntity
  8
ASSI
100
AcDbLine
 62
253
  6
CONTINUOUS
 10
-0.002631
 20
-12.243733
 11
2.676964
 21
-14.762098
  0
LINE
  5
314
100
AcDbEntity
  8
INCISIONI
100
AcDbLine
 62
253
  6
CONTINUOUS
 10
-0.002631
 20
-12.243733
 11
2.676964
 21
-14.762098
  0
LINE
  5
315
100
AcDbEntity
  8
ASSI
100
AcDbLine
 62
253
  6
CONTINUOUS
 10
-0.002803
 20
-12.037722
 11
3.055595
 21
-14.912098
  0
LINE
  5
316
100
AcDbEntity
  8
INCISIONI
100
AcDbLine
 62
253
  6
CONTINUOUS
 10
-0.002803
 20
-12.037722
 11
3.055595
 21
-14.912098
  0
LINE
  5
317
100
AcDbEntity
  8
ASSI
100
AcDbLine
 62
253
  6
CONTINUOUS
 10
-21.5152970636
 20
21.8293808902
 11
-21.6505138364
 21
22.1
  0
LINE
  5
318
100
AcDbEntity
  8
RACCORDO
100
AcDbLine
 62
253
  6
CONTINUOUS
 10
-21.5152970636
 20
21.8293808902
 11
-21.6505138364
 21
22.1
  0
LINE
  5
319
100
AcDbEntity
  8
ASSI
100
AcDbLine
 62
7
  6
CONTINUOUS
 10
-6.0756252769
 20
-11.1930169098
 11
-6.0752358421
 21
-11.2
  0
LINE
  5
31A
100
AcDbEntity
  8
SMUSSO
100
AcDbLine
 62
7
  6
CONTINUOUS
 10
-6.0756252769
 20
-11.1930169098
 11
-6.0752358421
 21
-11.2
  0
LINE
  5
31B
100
AcDbEntity
  8
PORTATASTO
100
AcDbLine
 62
7
  6
CONTINUOUS
 10
-6.8578677613
 20
-23.7921322387
 11
-6.8578677613
 21
-22.3236589077
  0
LINE
  5
31C
100
AcDbEntity
  8
PORTATASTO
100
AcDbLine
 62
7
  6
CONTINUOUS
 10
-6.8578677613
 20
22.3236589077
 11
-6.8578677613
 21
23.7921322387
  0
LINE
  5
31D
100
AcDbEntity
  8
PORTATASTO
100
AcDbLine
 62
7
  6
CONTINUOUS
 10
-6.8447639644
 20
-22.35
 11
-6.8447639644
 21
-22.85711136
  0
LINE
  5
31E
100
AcDbEntity
  8
PORTATASTO
100
AcDbLine
 62
7
  6
CONTINUOUS
 10
-6.8447639644
 20
22.35
 11
-6.8447639644
 21
22.85711136
  0
LINE
  5
31F
100
AcDbEntity
  8
PORTATASTO
100
AcDbLine
 62
253
  6
CONTINUOUS
 10
-2.9369030571
 20
-23.5113248654
 11
-2.9329760304
 21
-23.9443375673
  0
LINE
  5
320
100
AcDbEntity
  8
PORTATASTO
100
AcDbLine
 62
253
  6
CONTINUOUS
 10
-2.686906484
 20
-23.2948185145
 11
-2.6829794573
 21
-23.7278312164
  0
LINE
  5
321
100
AcDbEntity
  8
PORTATASTO
100
AcDbLine
 62
7
  6
CONTINUOUS
 10
-2.95
 20
23.8
 11
-2.9447639644
 21
23.2226497308
  0
LINE
  5
322
100
AcDbEntity
  8
RACCORDO
100
AcDbLine
 62
7
  6
CONTINUOUS
 10
-4.3
 20
-16.8945906404
 11
-4.3
 21
-17.0660480124
  0
LINE
  5
323
100
AcDbEntity
  8
ASSI
100
AcDbLine
 62
7
  6
CONTINUOUS
 10
-4.3
 20
-16.8945906404
 11
-4.3
 21
-17.0660480124
  0
LINE
  5
324
100
AcDbEntity
  8
PORTATASTO
100
AcDbLine
 62
7
  6
CONTINUOUS
 10
-2.95
 20
-24.2500034269
 11
-2.95
 21
-23.8
  0
LINE
  5
325
100
AcDbEntity
  8
PORTATASTO
100
AcDbLine
 62
7
  6
CONTINUOUS
 10
-2.95
 20
23.8
 11
-2.95
 21
24.2500034269
  0
LINE
  5
326
100
AcDbEntity
  8
PORTATASTO
100
AcDbLine
 62
7
  6
CONTINUOUS
 10
-2.9447639644
 20
23.2226497308
 11
-2.9447639644
 21
23.0783121635
  0
LINE
  5
327
100
AcDbEntity
  8
PORTATASTO
100
AcDbLine
 62
7
  6
CONTINUOUS
 10
-2.9447639644
 20
-23.0783121635
 11
-2.9447639644
 21
-23.2226497308
  0
LINE
  5
328
100
AcDbEntity
  8
PORTATASTO
100
AcDbLine
 62
7
  6
CONTINUOUS
 10
-2.938212066
 20
23.0783121635
 11
-2.938212066
 21
22.2844216746
  0
LINE
  5
329
100
AcDbEntity
  8
PORTATASTO
100
AcDbLine
 62
7
  6
CONTINUOUS
 10
-2.938212066
 20
-22.2844216746
 11
-2.938212066
 21
-23.0783121635
  0
LINE
  5
32A
100
AcDbEntity
  8
PORTATASTO
100
AcDbLine
 62
7
  6
CONTINUOUS
 10
-2.9329760304
 20
24.2329794573
 11
-2.9329760304
 21
23.9443375673
  0
LINE
  5
32B
100
AcDbEntity
  8
PORTATASTO
100
AcDbLine
 62
7
  6
CONTINUOUS
 10
-2.9329760304
 20
-23.9443375673
 11
-2.9329760304
 21
-24.2329794573
  0
LINE
  5
32C
100
AcDbEntity
  8
PORTATASTO
100
AcDbLine
 62
253
  6
CONTINUOUS
 10
-2.6882154929
 20
23.0783121635
 11
-2.6882154929
 21
22.2713883311
  0
LINE
  5
32D
100
AcDbEntity
  8
PORTATASTO
100
AcDbLine
 62
253
  6
CONTINUOUS
 10
-2.6882154929
 20
-22.2713883311
 11
-2.6882154929
 21
-23.0783121635
  0
LINE
  5
32E
100
AcDbEntity
  8
PORTATASTO
100
AcDbLine
 62
253
  6
CONTINUOUS
 10
-2.6829794573
 20
-23.7278312164
 11
-2.6829794573
 21
-24.4829760304
  0
LINE
  5
32F
100
AcDbEntity
  8
PORTATASTO
100
AcDbLine
 62
253
  6
CONTINUOUS
 10
-2.6829794573
 20
23.7278312164
 11
-2.6829794573
 21
24.4829760304
  0
LINE
  5
330
100
AcDbEntity
  8
PORTATASTO
100
AcDbLine
 62
253
  6
CONTINUOUS
 10
-2.9329760304
 20
23.9443375673
 11
-2.9369030571
 21
23.5113248654
  0
LINE
  5
331
100
AcDbEntity
  8
PORTATASTO
100
AcDbLine
 62
253
  6
CONTINUOUS
 10
-2.6829794573
 20
23.7278312164
 11
-2.686906484
 21
23.2948185145
  0
LINE
  5
332
100
AcDbEntity
  8
PORTATASTO
100
AcDbLine
 62
7
  6
CONTINUOUS
 10
-2.9447639644
 20
-23.2226497308
 11
-2.95
 21
-23.8
  0
LINE
  5
333
100
AcDbEntity
  8
PORTATASTO
100
AcDbLine
 62
7
  6
CONTINUOUS
 10
-0.6802360356
 20
-23.2226497308
 11
-0.675
 21
-23.8
  0
LINE
  5
334
100
AcDbEntity
  8
PORTATASTO
100
AcDbLine
 62
253
  6
CONTINUOUS
 10
-0.938093516
 20
23.2948185145
 11
-0.9420205427
 21
23.7278312164
  0
LINE
  5
335
100
AcDbEntity
  8
PORTATASTO
100
AcDbLine
 62
253
  6
CONTINUOUS
 10
-0.6880969429
 20
23.5113248654
 11
-0.6920239696
 21
23.9443375673
  0
LINE
  5
336
100
AcDbEntity
  8
ASSI
100
AcDbLine
 62
253
  6
CONTINUOUS
 10
-2.1
 20
-8.636431516
 11
-2.1
 21
-8.7465095187
  0
LINE
  5
337
100
AcDbEntity
  8
RACCORDO
100
AcDbLine
 62
253
  6
CONTINUOUS
 10
-2.1
 20
-8.636431516
 11
-2.1
 21
-8.7465095187
  0
LINE
  5
338
100
AcDbEntity
  8
RACCORDO
100
AcDbLine
 62
253
  6
CONTINUOUS
 10
-2.1
 20
-17.3907473537
 11
-2.1
 21
-17.4850037836
  0
LINE
  5
339
100
AcDbEntity
  8
ASSI
100
AcDbLine
 62
253
  6
CONTINUOUS
 10
-2.1
 20
-17.3907473537
 11
-2.1
 21
-17.4850037836
  0
LINE
  5
33A
100
AcDbEntity
  8
RACCORDO
100
AcDbLine
 62
253
  6
CONTINUOUS
 10
-2.1
 20
-9.0242557253
 11
-2.0999999985
 21
-8.9213305174
  0
LINE
  5
33B
100
AcDbEntity
  8
ASSI
100
AcDbLine
 62
253
  6
CONTINUOUS
 10
-2.1
 20
-9.0242557253
 11
-2.0999999985
 21
-8.9213305174
  0
LINE
  5
33C
100
AcDbEntity
  8
ASSI
100
AcDbLine
 62
253
  6
CONTINUOUS
 10
-2.1
 20
-17.7646413226
 11
-2.0999999977
 21
-17.6611036248
  0
LINE
  5
33D
100
AcDbEntity
  8
RACCORDO
100
AcDbLine
 62
253
  6
CONTINUOUS
 10
-2.1
 20
-17.7646413226
 11
-2.1
 21
-17.65
  0
LINE
  5
33E
100
AcDbEntity
  8
PORTATASTO
100
AcDbLine
 62
253
  6
CONTINUOUS
 10
-0.9420205427
 20
-23.7278312164
 11
-0.9420205427
 21
-24.4829760304
  0
LINE
  5
33F
100
AcDbEntity
  8
PORTATASTO
100
AcDbLine
 62
253
  6
CONTINUOUS
 10
-0.9420205427
 20
23.7278312164
 11
-0.9420205427
 21
24.4829760304
  0
LINE
  5
340
100
AcDbEntity
  8
PORTATASTO
100
AcDbLine
 62
253
  6
CONTINUOUS
 10
-0.9367845071
 20
-23.0783121635
 11
-0.9367845071
 21
-22.2713883311
  0
LINE
  5
341
100
AcDbEntity
  8
PORTATASTO
100
AcDbLine
 62
253
  6
CONTINUOUS
 10
-0.9367845071
 20
22.2713883311
 11
-0.9367845071
 21
23.0783121635
  0
LINE
  5
342
100
AcDbEntity
  8
PORTATASTO
100
AcDbLine
 62
7
  6
CONTINUOUS
 10
-0.6920239696
 20
-24.2329794573
 11
-0.6920239696
 21
-23.9443375673
  0
LINE
  5
343
100
AcDbEntity
  8
PORTATASTO
100
AcDbLine
 62
7
  6
CONTINUOUS
 10
-0.6920239696
 20
23.9443375673
 11
-0.6920239696
 21
24.2329794573
  0
LINE
  5
344
100
AcDbEntity
  8
PORTATASTO
100
AcDbLine
 62
7
  6
CONTINUOUS
 10
-0.686787934
 20
-23.0783121635
 11
-0.686787934
 21
-22.2844216746
  0
LINE
  5
345
100
AcDbEntity
  8
PORTATASTO
100
AcDbLine
 62
7
  6
CONTINUOUS
 10
-0.686787934
 20
22.2844216746
 11
-0.686787934
 21
23.0783121635
  0
LINE
  5
346
100
AcDbEntity
  8
PORTATASTO
100
AcDbLine
 62
7
  6
CONTINUOUS
 10
-0.6802360356
 20
23.2226497308
 11
-0.6802360356
 21
23.0783121635
  0
LINE
  5
347
100
AcDbEntity
  8
PORTATASTO
100
AcDbLine
 62
7
  6
CONTINUOUS
 10
-0.6802360356
 20
-23.0783121635
 11
-0.6802360356
 21
-23.2226497308
  0
LINE
  5
348
100
AcDbEntity
  8
PORTATASTO
100
AcDbLine
 62
7
  6
CONTINUOUS
 10
-0.675
 20
24.2500034269
 11
-0.675
 21
23.8
  0
LINE
  5
349
100
AcDbEntity
  8
PORTATASTO
100
AcDbLine
 62
7
  6
CONTINUOUS
 10
-0.675
 20
-23.8
 11
-0.675
 21
-24.2500034269
  0
LINE
  5
34A
100
AcDbEntity
  8
PORTATASTO
100
AcDbLine
 62
7
  6
CONTINUOUS
 10
-0.675
 20
23.8
 11
-0.6802360356
 21
23.2226497308
  0
LINE
  5
34B
100
AcDbEntity
  8
PORTATASTO
100
AcDbLine
 62
253
  6
CONTINUOUS
 10
-0.9420205427
 20
-23.7278312164
 11
-0.938093516
 21
-23.2948185145
  0
LINE
  5
34C
100
AcDbEntity
  8
PORTATASTO
100
AcDbLine
 62
253
  6
CONTINUOUS
 10
-0.6920239696
 20
-23.9443375673
 11
-0.6880969429
 21
-23.5113248654
  0
LINE
  5
34D
100
AcDbEntity
  8
PORTATASTO
100
AcDbLine
 62
253
  6
CONTINUOUS
 10
21.5579794573
 20
24.4829760304
 11
21.5750034269
 21
24.5
  0
LINE
  5
34E
100
AcDbEntity
  8
PORTATASTO
100
AcDbLine
 62
253
  6
CONTINUOUS
 10
21.8079760304
 20
24.2329794573
 11
21.825
 21
24.2500034269
  0
LINE
  5
34F
100
AcDbEntity
  8
PORTATASTO
100
AcDbLine
 62
253
  6
CONTINUOUS
 10
21.5579794573
 20
-24.4829760304
 11
21.5750034269
 21
-24.5
  0
LINE
  5
350
100
AcDbEntity
  8
PORTATASTO
100
AcDbLine
 62
253
  6
CONTINUOUS
 10
21.8079760304
 20
-24.2329794573
 11
21.825
 21
-24.2500034269
  0
LINE
  5
351
100
AcDbEntity
  8
PORTATASTO
100
AcDbLine
 62
253
  6
CONTINUOUS
 10
0.6880969429
 20
-23.5113248654
 11
0.6920239696
 21
-23.9443375673
  0
LINE
  5
352
100
AcDbEntity
  8
PORTATASTO
100
AcDbLine
 62
253
  6
CONTINUOUS
 10
0.938093516
 20
-23.2948185145
 11
0.9420205427
 21
-23.7278312164
  0
LINE
  5
353
100
AcDbEntity
  8
PORTATASTO
100
AcDbLine
 62
7
  6
CONTINUOUS
 10
0.6802360356
 20
23.2226497308
 11
0.675
 21
23.8
  0
LINE
  5
354
100
AcDbEntity
  8
PORTATASTO
100
AcDbLine
 62
7
  6
CONTINUOUS
 10
2.95
 20
-23.8
 11
2.9447639644
 21
-23.2226497308
  0
LINE
  5
355
100
AcDbEntity
  8
PORTATASTO
100
AcDbLine
 62
7
  6
CONTINUOUS
 10
0.675
 20
-24.2500034269
 11
0.675
 21
-23.8
  0
LINE
  5
356
100
AcDbEntity
  8
PORTATASTO
100
AcDbLine
 62
7
  6
CONTINUOUS
 10
0.675
 20
23.8
 11
0.675
 21
24.2500034269
  0
LINE
  5
357
100
AcDbEntity
  8
PORTATASTO
100
AcDbLine
 62
7
  6
CONTINUOUS
 10
0.6802360356
 20
23.2226497308
 11
0.6802360356
 21
23.0783121635
  0
LINE
  5
358
100
AcDbEntity
  8
PORTATASTO
100
AcDbLine
 62
7
  6
CONTINUOUS
 10
0.6802360356
 20
-23.0783121635
 11
0.6802360356
 21
-23.2226497308
  0
LINE
  5
359
100
AcDbEntity
  8
PORTATASTO
100
AcDbLine
 62
7
  6
CONTINUOUS
 10
0.686787934
 20
23.0783121635
 11
0.686787934
 21
22.2844216746
  0
LINE
  5
35A
100
AcDbEntity
  8
PORTATASTO
100
AcDbLine
 62
7
  6
CONTINUOUS
 10
0.686787934
 20
-22.2844216746
 11
0.686787934
 21
-23.0783121635
  0
LINE
  5
35B
100
AcDbEntity
  8
PORTATASTO
100
AcDbLine
 62
7
  6
CONTINUOUS
 10
0.6920239696
 20
24.2329794573
 11
0.6920239696
 21
23.9443375673
  0
LINE
  5
35C
100
AcDbEntity
  8
PORTATASTO
100
AcDbLine
 62
7
  6
CONTINUOUS
 10
0.6920239696
 20
-23.9443375673
 11
0.6920239696
 21
-24.2329794573
  0
LINE
  5
35D
100
AcDbEntity
  8
PORTATASTO
100
AcDbLine
 62
253
  6
CONTINUOUS
 10
0.9367845071
 20
23.0783121635
 11
0.9367845071
 21
22.2713883311
  0
LINE
  5
35E
100
AcDbEntity
  8
PORTATASTO
100
AcDbLine
 62
253
  6
CONTINUOUS
 10
0.9367845071
 20
-22.2713883311
 11
0.9367845071
 21
-23.0783121635
  0
LINE
  5
35F
100
AcDbEntity
  8
PORTATASTO
100
AcDbLine
 62
253
  6
CONTINUOUS
 10
0.9420205427
 20
-23.7278312164
 11
0.9420205427
 21
-24.4829760304
  0
LINE
  5
360
100
AcDbEntity
  8
PORTATASTO
100
AcDbLine
 62
253
  6
CONTINUOUS
 10
0.9420205427
 20
23.7278312164
 11
0.9420205427
 21
24.4829760304
  0
LINE
  5
361
100
AcDbEntity
  8
ASSI
100
AcDbLine
 62
253
  6
CONTINUOUS
 10
2.1
 20
-17.7646413226
 11
2.1
 21
-17.6611036248
  0
LINE
  5
362
100
AcDbEntity
  8
RACCORDO
100
AcDbLine
 62
253
  6
CONTINUOUS
 10
2.1
 20
-17.7646413226
 11
2.1
 21
-17.6611036248
  0
LINE
  5
363
100
AcDbEntity
  8
RACCORDO
100
AcDbLine
 62
253
  6
CONTINUOUS
 10
2.1
 20
-9.0242557253
 11
2.1
 21
-8.9213305174
  0
LINE
  5
364
100
AcDbEntity
  8
ASSI
100
AcDbLine
 62
253
  6
CONTINUOUS
 10
2.1
 20
-9.0242557253
 11
2.1
 21
-8.9213305174
  0
LINE
  5
365
100
AcDbEntity
  8
ASSI
100
AcDbLine
 62
253
  6
CONTINUOUS
 10
2.1
 20
-8.636431516
 11
2.1
 21
-8.7465095187
  0
LINE
  5
366
100
AcDbEntity
  8
RACCORDO
100
AcDbLine
 62
253
  6
CONTINUOUS
 10
2.1
 20
-8.636431516
 11
2.1
 21
-8.7465095187
  0
LINE
  5
367
100
AcDbEntity
  8
RACCORDO
100
AcDbLine
 62
253
  6
CONTINUOUS
 10
2.1
 20
-17.3907473537
 11
2.0999999985
 21
-17.4850037836
  0
LINE
  5
368
100
AcDbEntity
  8
ASSI
100
AcDbLine
 62
253
  6
CONTINUOUS
 10
2.1
 20
-17.3907473537
 11
2.0999999985
 21
-17.4850037836
  0
LINE
  5
369
100
AcDbEntity
  8
PORTATASTO
100
AcDbLine
 62
253
  6
CONTINUOUS
 10
2.6829794573
 20
-23.7278312164
 11
2.6829794573
 21
-24.4829760304
  0
LINE
  5
36A
100
AcDbEntity
  8
PORTATASTO
100
AcDbLine
 62
253
  6
CONTINUOUS
 10
2.6829794573
 20
23.7278312164
 11
2.6829794573
 21
24.4829760304
  0
LINE
  5
36B
100
AcDbEntity
  8
PORTATASTO
100
AcDbLine
 62
253
  6
CONTINUOUS
 10
2.6882154929
 20
-23.0783121635
 11
2.6882154929
 21
-22.2713883311
  0
LINE
  5
36C
100
AcDbEntity
  8
PORTATASTO
100
AcDbLine
 62
253
  6
CONTINUOUS
 10
2.6882154929
 20
22.2713883311
 11
2.6882154929
 21
23.0783121635
  0
LINE
  5
36D
100
AcDbEntity
  8
PORTATASTO
100
AcDbLine
 62
253
  6
CONTINUOUS
 10
0.6920239696
 20
23.9443375673
 11
0.6880969429
 21
23.5113248654
  0
LINE
  5
36E
100
AcDbEntity
  8
PORTATASTO
100
AcDbLine
 62
253
  6
CONTINUOUS
 10
0.9420205427
 20
23.7278312164
 11
0.938093516
 21
23.2948185145
  0
LINE
  5
36F
100
AcDbEntity
  8
PORTATASTO
100
AcDbLine
 62
7
  6
CONTINUOUS
 10
0.675
 20
-23.8
 11
0.6802360356
 21
-23.2226497308
  0
LINE
  5
370
100
AcDbEntity
  8
PORTATASTO
100
AcDbLine
 62
7
  6
CONTINUOUS
 10
2.9447639644
 20
23.2226497308
 11
2.95
 21
23.8
  0
LINE
  5
371
100
AcDbEntity
  8
PORTATASTO
100
AcDbLine
 62
253
  6
CONTINUOUS
 10
-21.8079760304
 20
-24.2329794573
 11
-21.825
 21
-24.2500034269
  0
LINE
  5
372
100
AcDbEntity
  8
PORTATASTO
100
AcDbLine
 62
253
  6
CONTINUOUS
 10
-21.5579794573
 20
-24.4829760304
 11
-21.5750034269
 21
-24.5
  0
LINE
  5
373
100
AcDbEntity
  8
PORTATASTO
100
AcDbLine
 62
253
  6
CONTINUOUS
 10
-21.8079760304
 20
24.2329794573
 11
-21.825
 21
24.2500034269
  0
LINE
  5
374
100
AcDbEntity
  8
PORTATASTO
100
AcDbLine
 62
253
  6
CONTINUOUS
 10
-21.5579794573
 20
24.4829760304
 11
-21.5750034269
 21
24.5
  0
LINE
  5
375
100
AcDbEntity
  8
PORTATASTO
100
AcDbLine
 62
253
  6
CONTINUOUS
 10
2.686906484
 20
23.2948185145
 11
2.6829794573
 21
23.7278312164
  0
LINE
  5
376
100
AcDbEntity
  8
PORTATASTO
100
AcDbLine
 62
253
  6
CONTINUOUS
 10
2.9369030571
 20
23.5113248654
 11
2.9329760304
 21
23.9443375673
  0
LINE
  5
377
100
AcDbEntity
  8
PORTATASTO
100
AcDbLine
 62
7
  6
CONTINUOUS
 10
2.9329760304
 20
-24.2329794573
 11
2.9329760304
 21
-23.9443375673
  0
LINE
  5
378
100
AcDbEntity
  8
PORTATASTO
100
AcDbLine
 62
7
  6
CONTINUOUS
 10
2.9329760304
 20
23.9443375673
 11
2.9329760304
 21
24.2329794573
  0
LINE
  5
379
100
AcDbEntity
  8
PORTATASTO
100
AcDbLine
 62
7
  6
CONTINUOUS
 10
2.938212066
 20
-23.0783121635
 11
2.938212066
 21
-22.2844216746
  0
LINE
  5
37A
100
AcDbEntity
  8
PORTATASTO
100
AcDbLine
 62
7
  6
CONTINUOUS
 10
2.938212066
 20
22.2844216746
 11
2.938212066
 21
23.0783121635
  0
LINE
  5
37B
100
AcDbEntity
  8
PORTATASTO
100
AcDbLine
 62
7
  6
CONTINUOUS
 10
2.9447639644
 20
23.2226497308
 11
2.9447639644
 21
23.0783121635
  0
LINE
  5
37C
100
AcDbEntity
  8
PORTATASTO
100
AcDbLine
 62
7
  6
CONTINUOUS
 10
2.9447639644
 20
-23.0783121635
 11
2.9447639644
 21
-23.2226497308
  0
LINE
  5
37D
100
AcDbEntity
  8
PORTATASTO
100
AcDbLine
 62
7
  6
CONTINUOUS
 10
2.95
 20
24.2500034269
 11
2.95
 21
23.8
  0
LINE
  5
37E
100
AcDbEntity
  8
PORTATASTO
100
AcDbLine
 62
7
  6
CONTINUOUS
 10
2.95
 20
-23.8
 11
2.95
 21
-24.2500034269
  0
LINE
  5
37F
100
AcDbEntity
  8
RACCORDO
100
AcDbLine
 62
7
  6
CONTINUOUS
 10
4.3
 20
-17.0660480124
 11
4.3
 21
-16.8945906404
  0
LINE
  5
380
100
AcDbEntity
  8
ASSI
100
AcDbLine
 62
7
  6
CONTINUOUS
 10
4.3
 20
-17.0660480124
 11
4.3
 21
-16.8945906404
  0
LINE
  5
381
100
AcDbEntity
  8
PORTATASTO
100
AcDbLine
 62
253
  6
CONTINUOUS
 10
2.6829794573
 20
-23.7278312164
 11
2.686906484
 21
-23.2948185145
  0
LINE
  5
382
100
AcDbEntity
  8
PORTATASTO
100
AcDbLine
 62
253
  6
CONTINUOUS
 10
2.9329760304
 20
-23.9443375673
 11
2.9369030571
 21
-23.5113248654
  0
LINE
  5
383
100
AcDbEntity
  8
0
100
AcDbLine
 62
7
  6
CONTINUOUS
 10
6.0
 20
-11.0539788552
 11
6.0
 21
-11.2
  0
LINE
  5
384
100
AcDbEntity
  8
0
100
AcDbLine
 62
7
  6
CONTINUOUS
 10
6.0
 20
-15.2
 11
6.0
 21
-15.3429312121
  0
LINE
  5
385
100
AcDbEntity
  8
PORTATASTO
100
AcDbLine
 62
7
  6
CONTINUOUS
 10
6.8447639644
 20
-22.35
 11
6.8447639644
 21
-22.85711136
  0
LINE
  5
386
100
AcDbEntity
  8
PORTATASTO
100
AcDbLine
 62
7
  6
CONTINUOUS
 10
6.8447639644
 20
22.35
 11
6.8447639644
 21
22.85711136
  0
LINE
  5
387
100
AcDbEntity
  8
PORTATASTO
100
AcDbLine
 62
7
  6
CONTINUOUS
 10
6.8578677613
 20
23.7921322387
 11
6.8578677613
 21
22.3236589077
  0
LINE
  5
388
100
AcDbEntity
  8
PORTATASTO
100
AcDbLine
 62
7
  6
CONTINUOUS
 10
6.8578677613
 20
-22.3236589077
 11
6.8578677613
 21
-23.7921322387
  0
LINE
  5
389
100
AcDbEntity
  8
PORTATASTO
100
AcDbLine
 62
253
  6
CONTINUOUS
 10
7.3578609074
 20
23.5905723943
 11
7.3578609074
 21
22.2975922207
  0
LINE
  5
38A
100
AcDbEntity
  8
PORTATASTO
100
AcDbLine
 62
253
  6
CONTINUOUS
 10
7.3578609074
 20
-22.2975922207
 11
7.3578609074
 21
-23.5905723943
  0
LINE
  5
38B
100
AcDbEntity
  8
ASSI
100
AcDbLine
 62
7
  6
CONTINUOUS
 10
6.0756252769
 20
-11.1930169098
 11
6.0752358421
 21
-11.2
  0
LINE
  5
38C
100
AcDbEntity
  8
SMUSSO
100
AcDbLine
 62
7
  6
CONTINUOUS
 10
6.0756252769
 20
-11.1930169098
 11
6.0752358421
 21
-11.2
  0
LINE
  5
38D
100
AcDbEntity
  8
ASSI
100
AcDbLine
 62
253
  6
CONTINUOUS
 10
21.6505138364
 20
22.1
 11
21.5152970636
 21
21.8293808902
  0
LINE
  5
38E
100
AcDbEntity
  8
RACCORDO
100
AcDbLine
 62
253
  6
CONTINUOUS
 10
21.6505138364
 20
22.1
 11
21.5152970636
 21
21.8293808902
  0
LINE
  5
38F
100
AcDbEntity
  8
ASSI
100
AcDbLine
 62
253
  6
CONTINUOUS
 10
22.15
 20
21.5999997649
 11
22.0151257261
 21
21.3300661228
  0
LINE
  5
390
100
AcDbEntity
  8
RACCORDO
100
AcDbLine
 62
253
  6
CONTINUOUS
 10
22.15
 20
21.5999997649
 11
22.0151257261
 21
21.3300661228
  0
LINE
  5
391
100
AcDbEntity
  8
ASSI
100
AcDbLine
 62
253
  6
CONTINUOUS
 10
-3.1504224307
 20
-14.8030874066
 11
-0.1050284307
 21
-11.9283684065
  0
LINE
  5
392
100
AcDbEntity
  8
INCISIONI
100
AcDbLine
 62
253
  6
CONTINUOUS
 10
-3.1504224307
 20
-14.8030874066
 11
-0.1050284307
 21
-11.9283684065
  0
LINE
  5
393
100
AcDbEntity
  8
ASSI
100
AcDbLine
 62
253
  6
CONTINUOUS
 10
-3.050485
 20
-13.948827
 11
-0.002971
 21
-11.073903
  0
LINE
  5
394
100
AcDbEntity
  8
INCISIONI
100
AcDbLine
 62
253
  6
CONTINUOUS
 10
-3.050485
 20
-13.948827
 11
-0.002971
 21
-11.073903
  0
LINE
  5
395
100
AcDbEntity
  8
ASSI
100
AcDbLine
 62
253
  6
CONTINUOUS
 10
-0.002769
 20
-11.279926
 11
-2.9475542615
 21
-14.0579382467
  0
LINE
  5
396
100
AcDbEntity
  8
INCISIONI
100
AcDbLine
 62
253
  6
CONTINUOUS
 10
-0.002769
 20
-11.279926
 11
-2.9475542615
 21
-14.0579382467
  0
LINE
  5
397
100
AcDbEntity
  8
ASSI
100
AcDbLine
 62
253
  6
CONTINUOUS
 10
-3.1532929116
 20
-13.8398348598
 11
-0.1101203251
 21
-10.969413931
  0
LINE
  5
398
100
AcDbEntity
  8
INCISIONI
100
AcDbLine
 62
253
  6
CONTINUOUS
 10
-3.1532929116
 20
-13.8398348598
 11
-0.1101203251
 21
-10.969413931
  0
LINE
  5
399
100
AcDbEntity
  8
ASSI
100
AcDbLine
 62
253
  6
CONTINUOUS
 10
-3.050978
 20
-14.912098
 11
-0.002803
 21
-12.037722
  0
LINE
  5
39A
100
AcDbEntity
  8
INCISIONI
100
AcDbLine
 62
253
  6
CONTINUOUS
 10
-3.050978
 20
-14.912098
 11
-0.002803
 21
-12.037722
  0
LINE
  5
39B
100
AcDbEntity
  8
ASSI
100
AcDbLine
 62
253
  6
CONTINUOUS
 10
-2.673269
 20
-14.762098
 11
-0.002631
 21
-12.243733
  0
LINE
  5
39C
100
AcDbEntity
  8
INCISIONI
100
AcDbLine
 62
253
  6
CONTINUOUS
 10
-2.673269
 20
-14.762098
 11
-0.002631
 21
-12.243733
  0
LINE
  5
39D
100
AcDbEntity
  8
ASSI
100
AcDbLine
 62
253
  6
CONTINUOUS
 10
21.5152970636
 20
-21.8293808902
 11
21.6113604562
 21
-22.0216395076
  0
LINE
  5
39E
100
AcDbEntity
  8
RACCORDO
100
AcDbLine
 62
253
  6
CONTINUOUS
 10
21.5152970636
 20
-21.8293808902
 11
21.6113604562
 21
-22.0216395076
  0
LINE
  5
39F
100
AcDbEntity
  8
ASSI
100
AcDbLine
 62
253
  6
CONTINUOUS
 10
22.0151257261
 20
-21.3300661228
 11
22.1116448613
 21
-21.5232368509
  0
LINE
  5
3A0
100
AcDbEntity
  8
RACCORDO
100
AcDbLine
 62
253
  6
CONTINUOUS
 10
22.0151257261
 20
-21.3300661228
 11
22.1116448613
 21
-21.5232368509
  0
LINE
  5
3A1
100
AcDbEntity
  8
PORTATASTO
100
AcDbLine
 62
253
  6
CONTINUOUS
 10
15.1421390926
 20
-23.5905723943
 11
15.1421390926
 21
-22.2975922207
  0
LINE
  5
3A2
100
AcDbEntity
  8
PORTATASTO
100
AcDbLine
 62
253
  6
CONTINUOUS
 10
15.1421390926
 20
22.2975922207
 11
15.1421390926
 21
23.5905723943
  0
LINE
  5
3A3
100
AcDbEntity
  8
PORTATASTO
100
AcDbLine
 62
253
  6
CONTINUOUS
 10
21.8503805997
 20
22.35
 11
21.8270084758
 21
22.2798266081
  0
LINE
  5
3A4
100
AcDbEntity
  8
PORTATASTO
100
AcDbLine
 62
253
  6
CONTINUOUS
 10
22.35
 20
21.8497711479
 11
22.3238174026
 21
21.771159479
  0
LINE
  5
3A5
100
AcDbEntity
  8
PORTATASTO
100
AcDbLine
 62
253
  6
CONTINUOUS
 10
-2.9329760304
 20
-24.2329794573
 11
-2.95
 21
-24.2500034269
  0
LINE
  5
3A6
100
AcDbEntity
  8
PORTATASTO
100
AcDbLine
 62
253
  6
CONTINUOUS
 10
-2.9329760304
 20
24.2329794573
 11
-2.95
 21
24.2500034269
  0
LINE
  5
3A7
100
AcDbEntity
  8
PORTATASTO
100
AcDbLine
 62
253
  6
CONTINUOUS
 10
21.8270084758
 20
-22.2798266081
 11
21.8503805997
 21
-22.35
  0
LINE
  5
3A8
100
AcDbEntity
  8
PORTATASTO
100
AcDbLine
 62
253
  6
CONTINUOUS
 10
22.3238174026
 20
-21.771159479
 11
22.35
 21
-21.8497711479
  0
LINE
  5
3A9
100
AcDbEntity
  8
PORTATASTO
100
AcDbLine
 62
7
  6
CONTINUOUS
 10
15.6421322387
 20
-23.7921322387
 11
15.6421322387
 21
-22.3236589077
  0
LINE
  5
3AA
100
AcDbEntity
  8
PORTATASTO
100
AcDbLine
 62
7
  6
CONTINUOUS
 10
15.6421322387
 20
22.3236589077
 11
15.6421322387
 21
23.7921322387
  0
LINE
  5
3AB
100
AcDbEntity
  8
PORTATASTO
100
AcDbLine
 62
7
  6
CONTINUOUS
 10
15.6552360356
 20
-22.35
 11
15.6552360356
 21
-22.85711136
  0
LINE
  5
3AC
100
AcDbEntity
  8
PORTATASTO
100
AcDbLine
 62
7
  6
CONTINUOUS
 10
15.6552360356
 20
22.35
 11
15.6552360356
 21
22.85711136
  0
LINE
  5
3AD
100
AcDbEntity
  8
PORTATASTO
100
AcDbLine
 62
253
  6
CONTINUOUS
 10
-2.6829794573
 20
-24.4829760304
 11
-2.7000034269
 21
-24.5
  0
LINE
  5
3AE
100
AcDbEntity
  8
PORTATASTO
100
AcDbLine
 62
253
  6
CONTINUOUS
 10
0.6920239696
 20
-24.2329794573
 11
0.675
 21
-24.2500034269
  0
LINE
  5
3AF
100
AcDbEntity
  8
PORTATASTO
100
AcDbLine
 62
253
  6
CONTINUOUS
 10
-2.6829794573
 20
24.4829760304
 11
-2.7000034269
 21
24.5
  0
LINE
  5
3B0
100
AcDbEntity
  8
PORTATASTO
100
AcDbLine
 62
253
  6
CONTINUOUS
 10
0.6920239696
 20
24.2329794573
 11
0.675
 21
24.2500034269
  0
LINE
  5
3B1
100
AcDbEntity
  8
PORTATASTO
100
AcDbLine
 62
253
  6
CONTINUOUS
 10
19.5630969429
 20
-23.5113248654
 11
19.5670239696
 21
-23.9443375673
  0
LINE
  5
3B2
100
AcDbEntity
  8
PORTATASTO
100
AcDbLine
 62
253
  6
CONTINUOUS
 10
19.813093516
 20
-23.2948185145
 11
19.8170205427
 21
-23.7278312164
  0
LINE
  5
3B3
100
AcDbEntity
  8
PORTATASTO
100
AcDbLine
 62
7
  6
CONTINUOUS
 10
19.55
 20
23.8
 11
19.5552360356
 21
23.2226497308
  0
LINE
  5
3B4
100
AcDbEntity
  8
PORTATASTO
100
AcDbLine
 62
7
  6
CONTINUOUS
 10
19.55
 20
-24.2500034269
 11
19.55
 21
-23.8
  0
LINE
  5
3B5
100
AcDbEntity
  8
PORTATASTO
100
AcDbLine
 62
7
  6
CONTINUOUS
 10
19.55
 20
23.8
 11
19.55
 21
24.2500034269
  0
LINE
  5
3B6
100
AcDbEntity
  8
PORTATASTO
100
AcDbLine
 62
7
  6
CONTINUOUS
 10
19.5552360356
 20
23.2226497308
 11
19.5552360356
 21
23.0783121635
  0
LINE
  5
3B7
100
AcDbEntity
  8
PORTATASTO
100
AcDbLine
 62
7
  6
CONTINUOUS
 10
19.5552360356
 20
-23.0783121635
 11
19.5552360356
 21
-23.2226497308
  0
LINE
  5
3B8
100
AcDbEntity
  8
PORTATASTO
100
AcDbLine
 62
7
  6
CONTINUOUS
 10
19.561787934
 20
23.0783121635
 11
19.561787934
 21
22.2844216746
  0
LINE
  5
3B9
100
AcDbEntity
  8
PORTATASTO
100
AcDbLine
 62
7
  6
CONTINUOUS
 10
19.561787934
 20
-22.2844216746
 11
19.561787934
 21
-23.0783121635
  0
LINE
  5
3BA
100
AcDbEntity
  8
PORTATASTO
100
AcDbLine
 62
7
  6
CONTINUOUS
 10
19.5670239696
 20
24.2329794573
 11
19.5670239696
 21
23.9443375673
  0
LINE
  5
3BB
100
AcDbEntity
  8
PORTATASTO
100
AcDbLine
 62
7
  6
CONTINUOUS
 10
19.5670239696
 20
-23.9443375673
 11
19.5670239696
 21
-24.2329794573
  0
LINE
  5
3BC
100
AcDbEntity
  8
PORTATASTO
100
AcDbLine
 62
253
  6
CONTINUOUS
 10
19.8117845071
 20
23.0783121635
 11
19.8117845071
 21
22.2713883311
  0
LINE
  5
3BD
100
AcDbEntity
  8
PORTATASTO
100
AcDbLine
 62
253
  6
CONTINUOUS
 10
19.8117845071
 20
-22.2713883311
 11
19.8117845071
 21
-23.0783121635
  0
LINE
  5
3BE
100
AcDbEntity
  8
PORTATASTO
100
AcDbLine
 62
253
  6
CONTINUOUS
 10
19.8170205427
 20
-23.7278312164
 11
19.8170205427
 21
-24.4829760304
  0
LINE
  5
3BF
100
AcDbEntity
  8
PORTATASTO
100
AcDbLine
 62
253
  6
CONTINUOUS
 10
19.8170205427
 20
23.7278312164
 11
19.8170205427
 21
24.4829760304
  0
LINE
  5
3C0
100
AcDbEntity
  8
PORTATASTO
100
AcDbLine
 62
253
  6
CONTINUOUS
 10
19.5670239696
 20
23.9443375673
 11
19.5630969429
 21
23.5113248654
  0
LINE
  5
3C1
100
AcDbEntity
  8
PORTATASTO
100
AcDbLine
 62
253
  6
CONTINUOUS
 10
19.8170205427
 20
23.7278312164
 11
19.813093516
 21
23.2948185145
  0
LINE
  5
3C2
100
AcDbEntity
  8
PORTATASTO
100
AcDbLine
 62
7
  6
CONTINUOUS
 10
19.5552360356
 20
-23.2226497308
 11
19.55
 21
-23.8
  0
LINE
  5
3C3
100
AcDbEntity
  8
PORTATASTO
100
AcDbLine
 62
253
  6
CONTINUOUS
 10
0.9420205427
 20
-24.4829760304
 11
0.9249965731
 21
-24.5
  0
LINE
  5
3C4
100
AcDbEntity
  8
PORTATASTO
100
AcDbLine
 62
253
  6
CONTINUOUS
 10
0.9420205427
 20
24.4829760304
 11
0.9249965731
 21
24.5
  0
LINE
  5
3C5
100
AcDbEntity
  8
PORTATASTO
100
AcDbLine
 62
7
  6
CONTINUOUS
 10
21.8197639644
 20
-23.2226497308
 11
21.825
 21
-23.8
  0
LINE
  5
3C6
100
AcDbEntity
  8
PORTATASTO
100
AcDbLine
 62
253
  6
CONTINUOUS
 10
21.561906484
 20
23.2948185145
 11
21.5579794573
 21
23.7278312164
  0
LINE
  5
3C7
100
AcDbEntity
  8
PORTATASTO
100
AcDbLine
 62
253
  6
CONTINUOUS
 10
21.8119030571
 20
23.5113248654
 11
21.8079760304
 21
23.9443375673
  0
LINE
  5
3C8
100
AcDbEntity
  8
PORTATASTO
100
AcDbLine
 62
253
  6
CONTINUOUS
 10
21.5579794573
 20
-23.7278312164
 11
21.5579794573
 21
-24.4829760304
  0
LINE
  5
3C9
100
AcDbEntity
  8
PORTATASTO
100
AcDbLine
 62
253
  6
CONTINUOUS
 10
21.5579794573
 20
23.7278312164
 11
21.5579794573
 21
24.4829760304
  0
LINE
  5
3CA
100
AcDbEntity
  8
PORTATASTO
100
AcDbLine
 62
253
  6
CONTINUOUS
 10
21.5632154929
 20
-23.0783121635
 11
21.5632154929
 21
-22.2713883311
  0
LINE
  5
3CB
100
AcDbEntity
  8
PORTATASTO
100
AcDbLine
 62
253
  6
CONTINUOUS
 10
21.5632154929
 20
22.2713883311
 11
21.5632154929
 21
23.0783121635
  0
LINE
  5
3CC
100
AcDbEntity
  8
PORTATASTO
100
AcDbLine
 62
7
  6
CONTINUOUS
 10
21.8079760304
 20
-24.2329794573
 11
21.8079760304
 21
-23.9443375673
  0
LINE
  5
3CD
100
AcDbEntity
  8
PORTATASTO
100
AcDbLine
 62
7
  6
CONTINUOUS
 10
21.8079760304
 20
23.9443375673
 11
21.8079760304
 21
24.2329794573
  0
LINE
  5
3CE
100
AcDbEntity
  8
PORTATASTO
100
AcDbLine
 62
7
  6
CONTINUOUS
 10
21.813212066
 20
-23.0783121635
 11
21.813212066
 21
-22.2844216746
  0
LINE
  5
3CF
100
AcDbEntity
  8
PORTATASTO
100
AcDbLine
 62
7
  6
CONTINUOUS
 10
21.813212066
 20
22.2844216746
 11
21.813212066
 21
23.0783121635
  0
LINE
  5
3D0
100
AcDbEntity
  8
PORTATASTO
100
AcDbLine
 62
7
  6
CONTINUOUS
 10
21.8197639644
 20
23.2226497308
 11
21.8197639644
 21
23.0783121635
  0
LINE
  5
3D1
100
AcDbEntity
  8
PORTATASTO
100
AcDbLine
 62
7
  6
CONTINUOUS
 10
21.8197639644
 20
-23.0783121635
 11
21.8197639644
 21
-23.2226497308
  0
LINE
  5
3D2
100
AcDbEntity
  8
PORTATASTO
100
AcDbLine
 62
7
  6
CONTINUOUS
 10
21.825
 20
24.2500034269
 11
21.825
 21
23.8
  0
LINE
  5
3D3
100
AcDbEntity
  8
PORTATASTO
100
AcDbLine
 62
7
  6
CONTINUOUS
 10
21.825
 20
-23.8
 11
21.825
 21
-24.2500034269
  0
LINE
  5
3D4
100
AcDbEntity
  8
ASSI
100
AcDbLine
 62
7
  6
CONTINUOUS
 10
22.15
 20
2.4247832141
 11
22.15
 21
21.5999997649
  0
LINE
  5
3D5
100
AcDbEntity
  8
RACCORDO
100
AcDbLine
 62
7
  6
CONTINUOUS
 10
22.15
 20
2.4247832141
 11
22.15
 21
21.5999997649
  0
LINE
  5
3D6
100
AcDbEntity
  8
PORTATASTO
100
AcDbLine
 62
7
  6
CONTINUOUS
 10
22.3238174026
 20
21.771159479
 11
22.3238174026
 21
-21.771159479
  0
LINE
  5
3D7
100
AcDbEntity
  8
PORTATASTO
100
AcDbLine
 62
7
  6
CONTINUOUS
 10
22.35
 20
21.850016923
 11
22.35
 21
18.5
  0
LINE
  5
3D8
100
AcDbEntity
  8
PORTATASTO
100
AcDbLine
 62
7
  6
CONTINUOUS
 10
22.35
 20
-21.850016923
 11
22.35
 21
-18.5
  0
LINE
  5
3D9
100
AcDbEntity
  8
PORTATASTO
100
AcDbLine
 62
7
  6
CONTINUOUS
 10
22.3849101299
 20
18.1473460386
 11
22.3849101299
 21
-18.1473460386
  0
LINE
  5
3DA
100
AcDbEntity
  8
CORPO
100
AcDbLine
 62
7
  6
CONTINUOUS
 10
22.4
 20
17.6716990487
 11
22.4
 21
-17.6716990487
  0
LINE
  5
3DB
100
AcDbEntity
  8
ASSI
100
AcDbLine
 62
7
  6
CONTINUOUS
 10
22.4
 20
17.6716990487
 11
22.4
 21
-17.6716990487
  0
LINE
  5
3DC
100
AcDbEntity
  8
ASSI
100
AcDbLine
 62
7
  6
CONTINUOUS
 10
22.15
 20
2.4247832141
 11
22.1116448613
 21
-21.5232368509
  0
LINE
  5
3DD
100
AcDbEntity
  8
RACCORDO
100
AcDbLine
 62
7
  6
CONTINUOUS
 10
22.15
 20
2.4247832141
 11
22.1116448613
 21
-21.5232368509
  0
LINE
  5
3DE
100
AcDbEntity
  8
PORTATASTO
100
AcDbLine
 62
7
  6
CONTINUOUS
 10
21.825
 20
23.8
 11
21.8197639644
 21
23.2226497308
  0
LINE
  5
3DF
100
AcDbEntity
  8
PORTATASTO
100
AcDbLine
 62
253
  6
CONTINUOUS
 10
21.5579794573
 20
-23.7278312164
 11
21.561906484
 21
-23.2948185145
  0
LINE
  5
3E0
100
AcDbEntity
  8
PORTATASTO
100
AcDbLine
 62
253
  6
CONTINUOUS
 10
21.8079760304
 20
-23.9443375673
 11
21.8119030571
 21
-23.5113248654
  0
LINE
  5
3E1
100
AcDbEntity
  8
ASSI
100
AcDbLine
 62
253
  6
CONTINUOUS
 10
21.4905033956
 20
20.3926143822
 11
-21.4905033956
 21
20.3926143822
  0
LINE
  5
3E2
100
AcDbEntity
  8
RACCORDO
100
AcDbLine
 62
253
  6
CONTINUOUS
 10
21.4905033956
 20
20.3926143822
 11
-21.4905033956
 21
20.3926143822
  0
LINE
  5
3E3
100
AcDbEntity
  8
ASSI
100
AcDbLine
 62
253
  6
CONTINUOUS
 10
21.5152970636
 20
21.8293808902
 11
-21.5152970636
 21
21.8293808902
  0
LINE
  5
3E4
100
AcDbEntity
  8
RACCORDO
100
AcDbLine
 62
253
  6
CONTINUOUS
 10
21.5152970636
 20
21.8293808902
 11
-21.5152970636
 21
21.8293808902
  0
LINE
  5
3E5
100
AcDbEntity
  8
ASSI
100
AcDbLine
 62
7
  6
CONTINUOUS
 10
-21.6505138364
 20
22.1
 11
21.6505138364
 21
22.1
  0
LINE
  5
3E6
100
AcDbEntity
  8
RACCORDO
100
AcDbLine
 62
7
  6
CONTINUOUS
 10
-21.6505138364
 20
22.1
 11
21.6505138364
 21
22.1
  0
LINE
  5
3E7
100
AcDbEntity
  8
PORTATASTO
100
AcDbLine
 62
7
  6
CONTINUOUS
 10
21.8241980023
 20
22.2713883311
 11
21.5632154929
 21
22.2713883311
  0
LINE
  5
3E8
100
AcDbEntity
  8
PORTATASTO
100
AcDbLine
 62
7
  6
CONTINUOUS
 10
19.8117845071
 20
22.2713883311
 11
2.6882154929
 21
22.2713883311
  0
LINE
  5
3E9
100
AcDbEntity
  8
PORTATASTO
100
AcDbLine
 62
7
  6
CONTINUOUS
 10
0.9367845071
 20
22.2713883311
 11
-0.9367845071
 21
22.2713883311
  0
LINE
  5
3EA
100
AcDbEntity
  8
PORTATASTO
100
AcDbLine
 62
7
  6
CONTINUOUS
 10
-2.6882154929
 20
22.2713883311
 11
-19.8117845071
 21
22.2713883311
  0
LINE
  5
3EB
100
AcDbEntity
  8
PORTATASTO
100
AcDbLine
 62
7
  6
CONTINUOUS
 10
-21.5632154929
 20
22.2713883311
 11
-21.8241980023
 21
22.2713883311
  0
LINE
  5
3EC
100
AcDbEntity
  8
PORTATASTO
100
AcDbLine
 62
7
  6
CONTINUOUS
 10
15.1421390926
 20
22.2975922207
 11
7.3578609074
 21
22.2975922207
  0
LINE
  5
3ED
100
AcDbEntity
  8
PORTATASTO
100
AcDbLine
 62
7
  6
CONTINUOUS
 10
-7.3578609074
 20
22.2975922207
 11
-15.1421390926
 21
22.2975922207
  0
LINE
  5
3EE
100
AcDbEntity
  8
PORTATASTO
100
AcDbLine
 62
7
  6
CONTINUOUS
 10
-21.8503805997
 20
22.35
 11
-21.8197639644
 21
22.35
  0
LINE
  5
3EF
100
AcDbEntity
  8
PORTATASTO
100
AcDbLine
 62
7
  6
CONTINUOUS
 10
-19.5552360356
 20
22.35
 11
-15.6447639644
 21
22.35
  0
LINE
  5
3F0
100
AcDbEntity
  8
PORTATASTO
100
AcDbLine
 62
7
  6
CONTINUOUS
 10
-6.8552360356
 20
22.35
 11
-2.9447639644
 21
22.35
  0
LINE
  5
3F1
100
AcDbEntity
  8
PORTATASTO
100
AcDbLine
 62
7
  6
CONTINUOUS
 10
-0.6802360356
 20
22.35
 11
0.6802360356
 21
22.35
  0
LINE
  5
3F2
100
AcDbEntity
  8
PORTATASTO
100
AcDbLine
 62
7
  6
CONTINUOUS
 10
2.9447639644
 20
22.35
 11
6.8552360356
 21
22.35
  0
LINE
  5
3F3
100
AcDbEntity
  8
PORTATASTO
100
AcDbLine
 62
7
  6
CONTINUOUS
 10
15.6447639644
 20
22.35
 11
19.5552360356
 21
22.35
  0
LINE
  5
3F4
100
AcDbEntity
  8
PORTATASTO
100
AcDbLine
 62
7
  6
CONTINUOUS
 10
21.8197639644
 20
22.35
 11
21.8503805997
 21
22.35
  0
LINE
  5
3F5
100
AcDbEntity
  8
CORPO
100
AcDbLine
 62
7
  6
CONTINUOUS
 10
-0.6802360356
 20
22.4
 11
0.6802360356
 21
22.4
  0
LINE
  5
3F6
100
AcDbEntity
  8
ASSI
100
AcDbLine
 62
7
  6
CONTINUOUS
 10
-0.6802360356
 20
22.4
 11
0.6802360356
 21
22.4
  0
LINE
  5
3F7
100
AcDbEntity
  8
PORTATASTO
100
AcDbLine
 62
7
  6
CONTINUOUS
 10
22.35
 20
18.5
 11
22.3849101299
 21
18.1473460386
  0
LINE
  5
3F8
100
AcDbEntity
  8
PORTATASTO
100
AcDbLine
 62
7
  6
CONTINUOUS
 10
22.3849101299
 20
-18.1473460386
 11
22.35
 21
-18.5
  0
LINE
  5
3F9
100
AcDbEntity
  8
PORTATASTO
100
AcDbLine
 62
253
  6
CONTINUOUS
 10
-21.813212066
 20
23.0783121635
 11
-19.561787934
 21
23.0783121635
  0
LINE
  5
3FA
100
AcDbEntity
  8
PORTATASTO
100
AcDbLine
 62
253
  6
CONTINUOUS
 10
-2.938212066
 20
23.0783121635
 11
-0.686787934
 21
23.0783121635
  0
LINE
  5
3FB
100
AcDbEntity
  8
PORTATASTO
100
AcDbLine
 62
253
  6
CONTINUOUS
 10
0.686787934
 20
23.0783121635
 11
2.938212066
 21
23.0783121635
  0
LINE
  5
3FC
100
AcDbEntity
  8
PORTATASTO
100
AcDbLine
 62
253
  6
CONTINUOUS
 10
19.561787934
 20
23.0783121635
 11
21.813212066
 21
23.0783121635
  0
LINE
  5
3FD
100
AcDbEntity
  8
PORTATASTO
100
AcDbLine
 62
7
  6
CONTINUOUS
 10
15.7446938615
 20
23.2226497308
 11
15.6447639644
 21
23.2226497308
  0
LINE
  5
3FE
100
AcDbEntity
  8
PORTATASTO
100
AcDbLine
 62
7
  6
CONTINUOUS
 10
6.8552360356
 20
23.2226497308
 11
6.7553061385
 21
23.2226497308
  0
LINE
  5
3FF
100
AcDbEntity
  8
PORTATASTO
100
AcDbLine
 62
7
  6
CONTINUOUS
 10
-6.7553061385
 20
23.2226497308
 11
-6.8552360356
 21
23.2226497308
  0
LINE
  5
400
100
AcDbEntity
  8
PORTATASTO
100
AcDbLine
 62
7
  6
CONTINUOUS
 10
-15.6447639644
 20
23.2226497308
 11
-15.7446938615
 21
23.2226497308
  0
LINE
  5
401
100
AcDbEntity
  8
PORTATASTO
100
AcDbLine
 62
253
  6
CONTINUOUS
 10
-21.561906484
 20
23.2948185145
 11
-19.813093516
 21
23.2948185145
  0
LINE
  5
402
100
AcDbEntity
  8
PORTATASTO
100
AcDbLine
 62
253
  6
CONTINUOUS
 10
-2.686906484
 20
23.2948185145
 11
-0.938093516
 21
23.2948185145
  0
LINE
  5
403
100
AcDbEntity
  8
PORTATASTO
100
AcDbLine
 62
253
  6
CONTINUOUS
 10
0.938093516
 20
23.2948185145
 11
2.686906484
 21
23.2948185145
  0
LINE
  5
404
100
AcDbEntity
  8
PORTATASTO
100
AcDbLine
 62
253
  6
CONTINUOUS
 10
19.813093516
 20
23.2948185145
 11
21.561906484
 21
23.2948185145
  0
LINE
  5
405
100
AcDbEntity
  8
PORTATASTO
100
AcDbLine
 62
253
  6
CONTINUOUS
 10
15.1421390926
 20
23.5905723943
 11
7.3578609074
 21
23.5905723943
  0
LINE
  5
406
100
AcDbEntity
  8
PORTATASTO
100
AcDbLine
 62
253
  6
CONTINUOUS
 10
-7.3578609074
 20
23.5905723943
 11
-15.1421390926
 21
23.5905723943
  0
LINE
  5
407
100
AcDbEntity
  8
PORTATASTO
100
AcDbLine
 62
253
  6
CONTINUOUS
 10
-21.5579794573
 20
23.7278312164
 11
-19.8170205427
 21
23.7278312164
  0
LINE
  5
408
100
AcDbEntity
  8
PORTATASTO
100
AcDbLine
 62
253
  6
CONTINUOUS
 10
-2.6829794573
 20
23.7278312164
 11
-0.9420205427
 21
23.7278312164
  0
LINE
  5
409
100
AcDbEntity
  8
PORTATASTO
100
AcDbLine
 62
253
  6
CONTINUOUS
 10
0.9420205427
 20
23.7278312164
 11
2.6829794573
 21
23.7278312164
  0
LINE
  5
40A
100
AcDbEntity
  8
PORTATASTO
100
AcDbLine
 62
253
  6
CONTINUOUS
 10
19.8170205427
 20
23.7278312164
 11
21.5579794573
 21
23.7278312164
  0
LINE
  5
40B
100
AcDbEntity
  8
PORTATASTO
100
AcDbLine
 62
7
  6
CONTINUOUS
 10
15.541351552
 20
23.7905696528
 11
6.958648448
 21
23.7905696528
  0
LINE
  5
40C
100
AcDbEntity
  8
PORTATASTO
100
AcDbLine
 62
7
  6
CONTINUOUS
 10
-6.958648448
 20
23.7905696528
 11
-15.541351552
 21
23.7905696528
  0
LINE
  5
40D
100
AcDbEntity
  8
PORTATASTO
100
AcDbLine
 62
7
  6
CONTINUOUS
 10
-6.85
 20
23.8
 11
-15.65
 21
23.8
  0
LINE
  5
40E
100
AcDbEntity
  8
PORTATASTO
100
AcDbLine
 62
7
  6
CONTINUOUS
 10
6.85
 20
23.8
 11
15.65
 21
23.8
  0
LINE
  5
40F
100
AcDbEntity
  8
PORTATASTO
100
AcDbLine
 62
253
  6
CONTINUOUS
 10
0.6920239696
 20
23.9443375673
 11
2.9329760304
 21
23.9443375673
  0
LINE
  5
410
100
AcDbEntity
  8
PORTATASTO
100
AcDbLine
 62
253
  6
CONTINUOUS
 10
-0.6920239696
 20
23.9443375673
 11
-2.9329760304
 21
23.9443375673
  0
LINE
  5
411
100
AcDbEntity
  8
PORTATASTO
100
AcDbLine
 62
253
  6
CONTINUOUS
 10
19.5670239696
 20
23.9443375673
 11
21.8079760304
 21
23.9443375673
  0
LINE
  5
412
100
AcDbEntity
  8
PORTATASTO
100
AcDbLine
 62
253
  6
CONTINUOUS
 10
-19.5670239696
 20
23.9443375673
 11
-21.8079760304
 21
23.9443375673
  0
LINE
  5
413
100
AcDbEntity
  8
PORTATASTO
100
AcDbLine
 62
253
  6
CONTINUOUS
 10
-0.6920239696
 20
24.2329794573
 11
-2.9329760304
 21
24.2329794573
  0
LINE
  5
414
100
AcDbEntity
  8
PORTATASTO
100
AcDbLine
 62
253
  6
CONTINUOUS
 10
0.6920239696
 20
24.2329794573
 11
2.9329760304
 21
24.2329794573
  0
LINE
  5
415
100
AcDbEntity
  8
PORTATASTO
100
AcDbLine
 62
253
  6
CONTINUOUS
 10
-19.5670239696
 20
24.2329794573
 11
-21.8079760304
 21
24.2329794573
  0
LINE
  5
416
100
AcDbEntity
  8
PORTATASTO
100
AcDbLine
 62
253
  6
CONTINUOUS
 10
19.5670239696
 20
24.2329794573
 11
21.8079760304
 21
24.2329794573
  0
LINE
  5
417
100
AcDbEntity
  8
PORTATASTO
100
AcDbLine
 62
7
  6
CONTINUOUS
 10
21.5579794573
 20
24.4829760304
 11
19.8170205427
 21
24.4829760304
  0
LINE
  5
418
100
AcDbEntity
  8
PORTATASTO
100
AcDbLine
 62
7
  6
CONTINUOUS
 10
2.6829794573
 20
24.4829760304
 11
0.9420205427
 21
24.4829760304
  0
LINE
  5
419
100
AcDbEntity
  8
PORTATASTO
100
AcDbLine
 62
7
  6
CONTINUOUS
 10
-0.9420205427
 20
24.4829760304
 11
-2.6829794573
 21
24.4829760304
  0
LINE
  5
41A
100
AcDbEntity
  8
PORTATASTO
100
AcDbLine
 62
7
  6
CONTINUOUS
 10
-19.8170205427
 20
24.4829760304
 11
-21.5579794573
 21
24.4829760304
  0
LINE
  5
41B
100
AcDbEntity
  8
PORTATASTO
100
AcDbLine
 62
7
  6
CONTINUOUS
 10
-21.5750034269
 20
24.5
 11
-19.7999965731
 21
24.5
  0
LINE
  5
41C
100
AcDbEntity
  8
PORTATASTO
100
AcDbLine
 62
7
  6
CONTINUOUS
 10
21.5750034269
 20
24.5
 11
19.7999965731
 21
24.5
  0
LINE
  5
41D
100
AcDbEntity
  8
PORTATASTO
100
AcDbLine
 62
7
  6
CONTINUOUS
 10
-0.9249965731
 20
24.5
 11
-2.7000034269
 21
24.5
  0
LINE
  5
41E
100
AcDbEntity
  8
PORTATASTO
100
AcDbLine
 62
7
  6
CONTINUOUS
 10
0.9249965731
 20
24.5
 11
2.7000034269
 21
24.5
  0
LINE
  5
41F
100
AcDbEntity
  8
PORTATASTO
100
AcDbLine
 62
253
  6
CONTINUOUS
 10
19.5670239696
 20
-24.2329794573
 11
19.55
 21
-24.2500034269
  0
LINE
  5
420
100
AcDbEntity
  8
PORTATASTO
100
AcDbLine
 62
253
  6
CONTINUOUS
 10
19.8170205427
 20
-24.4829760304
 11
19.7999965731
 21
-24.5
  0
LINE
  5
421
100
AcDbEntity
  8
PORTATASTO
100
AcDbLine
 62
253
  6
CONTINUOUS
 10
19.5670239696
 20
24.2329794573
 11
19.55
 21
24.2500034269
  0
LINE
  5
422
100
AcDbEntity
  8
PORTATASTO
100
AcDbLine
 62
253
  6
CONTINUOUS
 10
19.8170205427
 20
24.4829760304
 11
19.7999965731
 21
24.5
  0
LINE
  5
423
100
AcDbEntity
  8
PORTATASTO
100
AcDbLine
 62
7
  6
CONTINUOUS
 10
-65.6032666747
 20
23.8
 11
-66.6032666747
 21
23.2226497308
  0
LINE
  5
424
100
AcDbEntity
  8
PORTATASTO
100
AcDbLine
 62
7
  6
CONTINUOUS
 10
-66.6032666747
 20
-23.2226497308
 11
-65.6032666747
 21
-23.8
  0
LINE
  5
425
100
AcDbEntity
  8
PORTATASTO
100
AcDbLine
 62
253
  6
CONTINUOUS
 10
-68.8545756657
 20
-24.2329794573
 11
-69.1032666747
 21
-24.2329794573
  0
LINE
  5
426
100
AcDbEntity
  8
PORTATASTO
100
AcDbLine
 62
253
  6
CONTINUOUS
 10
-69.1032666747
 20
-23.9443375673
 11
-68.8545756657
 21
-23.9443375673
  0
LINE
  5
427
100
AcDbEntity
  8
PORTATASTO
100
AcDbLine
 62
7
  6
CONTINUOUS
 10
-68.8545756657
 20
-24.4829760304
 11
-65.6032666747
 21
-24.5
  0
LINE
  5
428
100
AcDbEntity
  8
PORTATASTO
100
AcDbLine
 62
253
  6
CONTINUOUS
 10
-68.8545756657
 20
-24.2329794573
 11
-65.6032666747
 21
-24.2500034269
  0
LINE
  5
429
100
AcDbEntity
  8
PORTATASTO
100
AcDbLine
 62
7
  6
CONTINUOUS
 10
-55.5974489433
 20
-22.2859700255
 11
-66.6032666747
 21
-22.35
  0
LINE
  5
42A
100
AcDbEntity
  8
PORTATASTO
100
AcDbLine
 62
253
  6
CONTINUOUS
 10
-66.6032666747
 20
-21.850016923
 11
-65.6032666747
 21
-21.8441990932
  0
LINE
  5
42B
100
AcDbEntity
  8
PORTATASTO
100
AcDbLine
 62
7
  6
CONTINUOUS
 10
-65.6032666747
 20
-23.8
 11
-59.0980307826
 21
-23.7659383532
  0
LINE
  5
42C
100
AcDbEntity
  8
PORTATASTO
100
AcDbLine
 62
253
  6
CONTINUOUS
 10
-67.8545756657
 20
-23.0783121635
 11
-68.1032666747
 21
-23.0783121635
  0
LINE
  5
42D
100
AcDbEntity
  8
PORTATASTO
100
AcDbLine
 62
7
  6
CONTINUOUS
 10
-68.1032666747
 20
-22.2713883311
 11
-66.6032666747
 21
-22.35
  0
LINE
  5
42E
100
AcDbEntity
  8
ASSI
100
AcDbLine
 62
7
  6
CONTINUOUS
 10
-74.2669868987
 20
-21.8293808902
 11
-70.5984739417
 21
-22.0216395076
  0
LINE
  5
42F
100
AcDbEntity
  8
RACCORDO
100
AcDbLine
 62
7
  6
CONTINUOUS
 10
-74.2669868987
 20
-21.8293808902
 11
-70.5984739417
 21
-22.0216395076
  0
LINE
  5
430
100
AcDbEntity
  8
PORTATASTO
100
AcDbLine
 62
253
  6
CONTINUOUS
 10
-68.1032666747
 20
-21.771159479
 11
-66.6032666747
 21
-21.8497711479
  0
LINE
  5
431
100
AcDbEntity
  8
ASSI
100
AcDbLine
 62
253
  6
CONTINUOUS
 10
-74.2539073947
 20
-21.3300661228
 11
-70.5679903293
 21
-21.5232368509
  0
LINE
  5
432
100
AcDbEntity
  8
RACCORDO
100
AcDbLine
 62
253
  6
CONTINUOUS
 10
-74.2539073947
 20
-21.3300661228
 11
-70.5679903293
 21
-21.5232368509
  0
LINE
  5
433
100
AcDbEntity
  8
ASSI
100
AcDbLine
 62
7
  6
CONTINUOUS
 10
-58.5032666747
 20
-20.7435241039
 11
-64.6032666747
 21
-20.85
  0
LINE
  5
434
100
AcDbEntity
  8
CORPO
100
AcDbLine
 62
7
  6
CONTINUOUS
 10
-58.5032666747
 20
-20.7435241039
 11
-64.6032666747
 21
-20.85
  0
LINE
  5
435
100
AcDbEntity
  8
ASSI
100
AcDbLine
 62
7
  6
CONTINUOUS
 10
-34.0858142683
 20
-19.1673158868
 11
-58.5032666747
 21
-19.5935241039
  0
LINE
  5
436
100
AcDbEntity
  8
CORPO
100
AcDbLine
 62
7
  6
CONTINUOUS
 10
-34.0858142683
 20
-19.1673158868
 11
-58.5032666747
 21
-19.5935241039
  0
LINE
  5
437
100
AcDbEntity
  8
PORTATASTO
100
AcDbLine
 62
7
  6
CONTINUOUS
 10
-54.6032666747
 20
-19.7
 11
-58.5032666747
 21
-19.7
  0
LINE
  5
438
100
AcDbEntity
  8
PORTATASTO
100
AcDbLine
 62
7
  6
CONTINUOUS
 10
-64.6032666747
 20
-19.7
 11
-65.6032666747
 21
-19.7
  0
LINE
  5
439
100
AcDbEntity
  8
PORTATASTO
100
AcDbLine
 62
7
  6
CONTINUOUS
 10
-65.6032666747
 20
-19.5
 11
-64.6032666747
 21
-19.5
  0
LINE
  5
43A
100
AcDbEntity
  8
PORTATASTO
100
AcDbLine
 62
7
  6
CONTINUOUS
 10
-55.0945404715
 20
-21.4537354271
 11
-65.6032666747
 21
-21.4
  0
LINE
  5
43B
100
AcDbEntity
  8
PORTATASTO
100
AcDbLine
 62
7
  6
CONTINUOUS
 10
-54.6032666747
 20
-20.9959955457
 11
-65.6032666747
 21
-20.9
  0
LINE
  5
43C
100
AcDbEntity
  8
PORTATASTO
100
AcDbLine
 62
7
  6
CONTINUOUS
 10
-70.3111197592
 20
-19.9421853323
 11
-68.1032666747
 21
-20.0
  0
LINE
  5
43D
100
AcDbEntity
  8
ASSI
100
AcDbLine
 62
253
  6
CONTINUOUS
 10
-75.2007393748
 20
-20.372221817
 11
-75.6871901749
 21
-20.3926125984
  0
LINE
  5
43E
100
AcDbEntity
  8
RACCORDO
100
AcDbLine
 62
253
  6
CONTINUOUS
 10
-75.2007393748
 20
-20.372221817
 11
-75.6871901749
 21
-20.3926125984
  0
LINE
  5
43F
100
AcDbEntity
  8
ASSI
100
AcDbLine
 62
253
  6
CONTINUOUS
 10
-34.0858142683
 20
-18.874467277
 11
-58.5032666747
 21
-19.3006754942
  0
LINE
  5
440
100
AcDbEntity
  8
CORPO
100
AcDbLine
 62
253
  6
CONTINUOUS
 10
-34.0858142683
 20
-18.874467277
 11
-58.5032666747
 21
-19.3006754942
  0
LINE
  5
441
100
AcDbEntity
  8
ASSI
100
AcDbLine
 62
253
  6
CONTINUOUS
 10
-64.6032666747
 20
-19.0856972195
 11
-34.0858142683
 21
-18.8650522354
  0
LINE
  5
442
100
AcDbEntity
  8
CORPO
100
AcDbLine
 62
253
  6
CONTINUOUS
 10
-64.6032666747
 20
-19.0856972195
 11
-34.0858142683
 21
-18.8650522354
  0
LINE
  5
443
100
AcDbEntity
  8
ASSI
100
AcDbLine
 62
253
  6
CONTINUOUS
 10
-64.6032666747
 20
-17.6716990487
 11
-34.0858142683
 21
-17.4510540646
  0
LINE
  5
444
100
AcDbEntity
  8
CORPO
100
AcDbLine
 62
253
  6
CONTINUOUS
 10
-64.6032666747
 20
-17.6716990487
 11
-34.0858142683
 21
-17.4510540646
  0
LINE
  5
445
100
AcDbEntity
  8
PORTATASTO
100
AcDbLine
 62
253
  6
CONTINUOUS
 10
-70.3111197592
 20
-18.4426993448
 11
-70.3795765841
 21
-18.4426993478
  0
LINE
  5
446
100
AcDbEntity
  8
ASSI
100
AcDbLine
 62
253
  6
CONTINUOUS
 10
-33.1032666747
 20
-17.4510540646
 11
-34.0858142683
 21
-17.4510540642
  0
LINE
  5
447
100
AcDbEntity
  8
CORPO
100
AcDbLine
 62
253
  6
CONTINUOUS
 10
-33.1032666747
 20
-17.4510540646
 11
-34.0858142683
 21
-17.4510540642
  0
LINE
  5
448
100
AcDbEntity
  8
PORTATASTO
100
AcDbLine
 62
7
  6
CONTINUOUS
 10
-65.6032666747
 20
-18.5587268678
 11
-64.6032666747
 21
-18.5674537356
  0
LINE
  5
449
100
AcDbEntity
  8
PORTATASTO
100
AcDbLine
 62
253
  6
CONTINUOUS
 10
-70.3111197592
 20
-18.4426993448
 11
-68.1032666747
 21
-18.5005140125
  0
LINE
  5
44A
100
AcDbEntity
  8
PORTATASTO
100
AcDbLine
 62
253
  6
CONTINUOUS
 10
-70.3111197592
 20
-17.3234401537
 11
-70.3111197592
 21
-18.4426993448
  0
LINE
  5
44B
100
AcDbEntity
  8
CURVE
100
AcDbLine
 62
7
  6
CONTINUOUS
 10
-62.0040595993
 20
14.7240152745
 11
-61.5933196878
 21
15.134755186
  0
LINE
  5
44C
100
AcDbEntity
  8
CURVE
100
AcDbLine
 62
7
  6
CONTINUOUS
 10
-62.0040595993
 20
14.3039938464
 11
-60.9493970955
 21
15.3586563502
  0
LINE
  5
44D
100
AcDbEntity
  8
CURVE
100
AcDbLine
 62
253
  6
CONTINUOUS
 10
-59.1049419004
 20
16.0
 11
-62.0040595993
 21
14.991935
  0
LINE
  5
44E
100
AcDbEntity
  8
CURVE
100
AcDbLine
 62
253
  6
CONTINUOUS
 10
-59.7193936897
 20
15.164584
 11
-59.1049419004
 21
15.373574
  0
LINE
  5
44F
100
AcDbEntity
  8
CURVE
100
AcDbLine
 62
253
  6
CONTINUOUS
 10
-61.4499044389
 20
14.606449
 11
-60.2011798994
 21
15.007869
  0
LINE
  5
450
100
AcDbEntity
  8
PORTATASTO
100
AcDbLine
 62
7
  6
CONTINUOUS
 10
-64.6032666747
 20
-18.1473460386
 11
-66.6032666747
 21
-18.5
  0
LINE
  5
451
100
AcDbEntity
  8
CURVE
100
AcDbLine
 62
253
  6
CONTINUOUS
 10
-57.005581532
 20
-16.0
 11
-55.7059774945
 21
-16.0
  0
LINE
  5
452
100
AcDbEntity
  8
CURVE
100
AcDbLine
 62
253
  6
CONTINUOUS
 10
-60.0164001979
 20
-14.790021
 11
-62.0117132674
 21
-14.22041
  0
LINE
  5
453
100
AcDbEntity
  8
CURVE
100
AcDbLine
 62
253
  6
CONTINUOUS
 10
-62.0117132674
 20
-13.615552
 11
-59.1129434625
 21
-14.547617
  0
LINE
  5
454
100
AcDbEntity
  8
PORTATASTO
100
AcDbLine
 62
7
  6
CONTINUOUS
 10
-69.1032666747
 20
-24.2329794573
 11
-69.1032666747
 21
-23.9443375673
  0
LINE
  5
455
100
AcDbEntity
  8
ASSI
100
AcDbLine
 62
7
  6
CONTINUOUS
 10
-69.1032666747
 20
2.4247832141
 11
-69.1032666747
 21
22.1
  0
LINE
  5
456
100
AcDbEntity
  8
RACCORDO
100
AcDbLine
 62
7
  6
CONTINUOUS
 10
-69.1032666747
 20
2.4247832141
 11
-69.1032666747
 21
22.1
  0
LINE
  5
457
100
AcDbEntity
  8
PORTATASTO
100
AcDbLine
 62
7
  6
CONTINUOUS
 10
-69.1032666747
 20
23.9443375673
 11
-69.1032666747
 21
24.2329794573
  0
LINE
  5
458
100
AcDbEntity
  8
PORTATASTO
100
AcDbLine
 62
253
  6
CONTINUOUS
 10
-68.8545756657
 20
-24.2329794573
 11
-68.8545756657
 21
-23.9443375673
  0
LINE
  5
459
100
AcDbEntity
  8
PORTATASTO
100
AcDbLine
 62
253
  6
CONTINUOUS
 10
-68.8545756657
 20
23.9443375673
 11
-68.8545756657
 21
24.2329794573
  0
LINE
  5
45A
100
AcDbEntity
  8
ASSI
100
AcDbLine
 62
7
  6
CONTINUOUS
 10
-68.3532666747
 20
15.3001980265
 11
-68.3532666747
 21
15.1977018539
  0
LINE
  5
45B
100
AcDbEntity
  8
ASSI
100
AcDbLine
 62
7
  6
CONTINUOUS
 10
-68.3532666747
 20
12.8022936237
 11
-68.3532666747
 21
12.6998019735
  0
LINE
  5
45C
100
AcDbEntity
  8
PORTATASTO
100
AcDbLine
 62
7
  6
CONTINUOUS
 10
-68.1032666747
 20
-23.0783121635
 11
-68.1032666747
 21
23.0783121635
  0
LINE
  5
45D
100
AcDbEntity
  8
PORTATASTO
100
AcDbLine
 62
253
  6
CONTINUOUS
 10
-67.8545756657
 20
-23.0783121635
 11
-67.8545756657
 21
-22.2844216746
  0
LINE
  5
45E
100
AcDbEntity
  8
PORTATASTO
100
AcDbLine
 62
253
  6
CONTINUOUS
 10
-67.8545756657
 20
22.2844216746
 11
-67.8545756657
 21
23.0783121635
  0
LINE
  5
45F
100
AcDbEntity
  8
RACCORDO
100
AcDbLine
 62
7
  6
CONTINUOUS
 10
-69.1032666747
 20
2.4247832141
 11
-70.5984739417
 21
-22.0216395076
  0
LINE
  5
460
100
AcDbEntity
  8
ASSI
100
AcDbLine
 62
7
  6
CONTINUOUS
 10
-69.1032666747
 20
2.4247832141
 11
-70.5984739417
 21
-22.0216395076
  0
LINE
  5
461
100
AcDbEntity
  8
CURVE
100
AcDbLine
 62
7
  6
CONTINUOUS
 10
-61.7331282809
 20
14.1549037368
 11
-61.3246948866
 21
14.5633371311
  0
LINE
  5
462
100
AcDbEntity
  8
CURVE
100
AcDbLine
 62
7
  6
CONTINUOUS
 10
-61.2018388622
 20
14.6861931554
 11
-60.3054745033
 21
15.5825575144
  0
LINE
  5
463
100
AcDbEntity
  8
CURVE
100
AcDbLine
 62
7
  6
CONTINUOUS
 10
-61.4246615237
 20
14.0433490659
 11
-61.0122528066
 21
14.455757783
  0
LINE
  5
464
100
AcDbEntity
  8
CURVE
100
AcDbLine
 62
7
  6
CONTINUOUS
 10
-60.5828275861
 20
14.8851830036
 11
-59.6615519111
 21
15.8064586786
  0
LINE
  5
465
100
AcDbEntity
  8
CURVE
100
AcDbLine
 62
7
  6
CONTINUOUS
 10
-61.1161947666
 20
13.931794395
 11
-60.6998107266
 21
14.348178435
  0
LINE
  5
466
100
AcDbEntity
  8
CURVE
100
AcDbLine
 62
7
  6
CONTINUOUS
 10
-60.2011798994
 20
14.8468092622
 11
-59.1049419004
 21
15.9430472612
  0
LINE
  5
467
100
AcDbEntity
  8
CURVE
100
AcDbLine
 62
7
  6
CONTINUOUS
 10
-62.0040595993
 20
12.6239081343
 11
-61.7167697336
 21
12.911198
  0
LINE
  5
468
100
AcDbEntity
  8
CURVE
100
AcDbLine
 62
7
  6
CONTINUOUS
 10
-60.8077280094
 20
13.8202397242
 11
-60.3873686466
 21
14.240599087
  0
LINE
  5
469
100
AcDbEntity
  8
CURVE
100
AcDbLine
 62
7
  6
CONTINUOUS
 10
-60.2011798994
 20
14.4267878342
 11
-59.7193936897
 21
14.9085740439
  0
LINE
  5
46A
100
AcDbEntity
  8
CURVE
100
AcDbLine
 62
7
  6
CONTINUOUS
 10
-59.3314267351
 20
15.2965409985
 11
-59.1049419004
 21
15.5230258332
  0
LINE
  5
46B
100
AcDbEntity
  8
CURVE
100
AcDbLine
 62
7
  6
CONTINUOUS
 10
-61.8791923056
 20
12.328754
 11
-61.2967483056
 21
12.911198
  0
LINE
  5
46C
100
AcDbEntity
  8
CURVE
100
AcDbLine
 62
7
  6
CONTINUOUS
 10
-60.4992612523
 20
13.7086850533
 11
-59.7193936897
 21
14.4885526159
  0
LINE
  5
46D
100
AcDbEntity
  8
CURVE
100
AcDbLine
 62
7
  6
CONTINUOUS
 10
-61.4591708776
 20
12.328754
 11
-60.8767268776
 21
12.911198
  0
LINE
  5
46E
100
AcDbEntity
  8
CURVE
100
AcDbLine
 62
7
  6
CONTINUOUS
 10
-60.1907944951
 20
13.5971303824
 11
-59.7193936897
 21
14.0685311879
  0
LINE
  5
46F
100
AcDbEntity
  8
CURVE
100
AcDbLine
 62
7
  6
CONTINUOUS
 10
-61.0391494495
 20
12.328754
 11
-60.4567054495
 21
12.911198
  0
LINE
  5
470
100
AcDbEntity
  8
CURVE
100
AcDbLine
 62
7
  6
CONTINUOUS
 10
-59.882327738
 20
13.4855757115
 11
-59.4479142286
 21
13.9199892209
  0
LINE
  5
471
100
AcDbEntity
  8
CURVE
100
AcDbLine
 62
7
  6
CONTINUOUS
 10
-62.0040595993
 20
10.9438224222
 11
-61.4760173645
 21
11.471864657
  0
LINE
  5
472
100
AcDbEntity
  8
CURVE
100
AcDbLine
 62
7
  6
CONTINUOUS
 10
-60.6191280215
 20
12.328754
 11
-60.0366840215
 21
12.911198
  0
LINE
  5
473
100
AcDbEntity
  8
CURVE
100
AcDbLine
 62
7
  6
CONTINUOUS
 10
-59.5738609808
 20
13.3740210407
 11
-59.137497835
 21
13.8103841865
  0
LINE
  5
474
100
AcDbEntity
  8
CURVE
100
AcDbLine
 62
253
  6
CONTINUOUS
 10
-62.0040595993
 20
11.216139
 11
-59.7066455738
 21
12.328754
  0
LINE
  5
475
100
AcDbEntity
  8
CURVE
100
AcDbLine
 62
253
  6
CONTINUOUS
 10
-55.7059774945
 20
-14.754264
 11
-57.005581532
 21
-14.754264
  0
LINE
  5
476
100
AcDbEntity
  8
CURVE
100
AcDbLine
 62
253
  6
CONTINUOUS
 10
-62.0118872144
 20
-13.390935
 11
-59.1129434625
 21
-13.390935
  0
LINE
  5
477
100
AcDbEntity
  8
CURVE
100
AcDbLine
 62
253
  6
CONTINUOUS
 10
-51.2034293277
 20
-13.349998
 11
-50.4528380173
 21
-13.349998
  0
LINE
  5
478
100
AcDbEntity
  8
CURVE
100
AcDbLine
 62
253
  6
CONTINUOUS
 10
-46.8594928351
 20
-13.349998
 11
-46.1089015248
 21
-13.349998
  0
LINE
  5
479
100
AcDbEntity
  8
CURVE
100
AcDbLine
 62
253
  6
CONTINUOUS
 10
-57.005581532
 20
-13.269593
 11
-55.7059774945
 21
-13.269593
  0
LINE
  5
47A
100
AcDbEntity
  8
CURVE
100
AcDbLine
 62
253
  6
CONTINUOUS
 10
-57.005581532
 20
-14.01011
 11
-55.7059774945
 21
-14.580443
  0
LINE
  5
47B
100
AcDbEntity
  8
CURVE
100
AcDbLine
 62
253
  6
CONTINUOUS
 10
-57.005581532
 20
-14.754264
 11
-55.7059774945
 21
-15.377131
  0
LINE
  5
47C
100
AcDbEntity
  8
PORTATASTO
100
AcDbLine
 62
7
  6
CONTINUOUS
 10
-66.6032666747
 20
23.2226497308
 11
-66.6032666747
 21
22.35
  0
LINE
  5
47D
100
AcDbEntity
  8
PORTATASTO
100
AcDbLine
 62
7
  6
CONTINUOUS
 10
-66.6032666747
 20
21.850016923
 11
-66.6032666747
 21
18.5
  0
LINE
  5
47E
100
AcDbEntity
  8
PORTATASTO
100
AcDbLine
 62
7
  6
CONTINUOUS
 10
-66.6032666747
 20
-22.35
 11
-66.6032666747
 21
-23.2226497308
  0
LINE
  5
47F
100
AcDbEntity
  8
PORTATASTO
100
AcDbLine
 62
7
  6
CONTINUOUS
 10
-66.6032666747
 20
-21.850016923
 11
-66.6032666747
 21
-18.5
  0
LINE
  5
480
100
AcDbEntity
  8
PORTATASTO
100
AcDbLine
 62
7
  6
CONTINUOUS
 10
-65.6032666747
 20
24.5
 11
-65.6032666747
 21
23.8
  0
LINE
  5
481
100
AcDbEntity
  8
PORTATASTO
100
AcDbLine
 62
7
  6
CONTINUOUS
 10
-65.6032666747
 20
22.3441821702
 11
-65.6032666747
 21
18.5587268678
  0
LINE
  5
482
100
AcDbEntity
  8
PORTATASTO
100
AcDbLine
 62
7
  6
CONTINUOUS
 10
-65.6032666747
 20
-18.5587268678
 11
-65.6032666747
 21
-22.3441821702
  0
LINE
  5
483
100
AcDbEntity
  8
PORTATASTO
100
AcDbLine
 62
7
  6
CONTINUOUS
 10
-65.6032666747
 20
-23.8
 11
-65.6032666747
 21
-24.5
  0
LINE
  5
484
100
AcDbEntity
  8
CURVE
100
AcDbLine
 62
7
  6
CONTINUOUS
 10
-62.0040595993
 20
10.5238009942
 11
-60.6615643654
 21
11.8662962281
  0
LINE
  5
485
100
AcDbEntity
  8
CURVE
100
AcDbLine
 62
7
  6
CONTINUOUS
 10
-60.1991065935
 20
12.328754
 11
-59.6166625935
 21
12.911198
  0
LINE
  5
486
100
AcDbEntity
  8
CURVE
100
AcDbLine
 62
7
  6
CONTINUOUS
 10
-59.2653942237
 20
13.2624663698
 11
-59.1049419004
 21
13.4229186931
  0
LINE
  5
487
100
AcDbEntity
  8
CURVE
100
AcDbLine
 62
253
  6
CONTINUOUS
 10
-56.1292648341
 20
16.0000005245
 11
-56.4006521061
 21
15.7285720825
  0
LINE
  5
488
100
AcDbEntity
  8
CURVE
100
AcDbLine
 62
7
  6
CONTINUOUS
 10
-61.8155141655
 20
10.292325
 11
-61.2330691655
 21
10.87477
  0
LINE
  5
489
100
AcDbEntity
  8
CURVE
100
AcDbLine
 62
7
  6
CONTINUOUS
 10
-60.9631225258
 20
11.1447166397
 11
-59.8471113662
 21
12.2607277993
  0
LINE
  5
48A
100
AcDbEntity
  8
CURVE
100
AcDbLine
 62
7
  6
CONTINUOUS
 10
-59.7790851655
 20
12.328754
 11
-59.1966411655
 21
12.911198
  0
LINE
  5
48B
100
AcDbEntity
  8
CURVE
100
AcDbLine
 62
7
  6
CONTINUOUS
 10
-61.3954927374
 20
10.292325
 11
-60.8130477374
 21
10.87477
  0
LINE
  5
48C
100
AcDbEntity
  8
CURVE
100
AcDbLine
 62
7
  6
CONTINUOUS
 10
-60.1629229385
 20
11.524894799
 11
-59.1049419004
 21
12.582875837
  0
LINE
  5
48D
100
AcDbEntity
  8
CURVE
100
AcDbLine
 62
7
  6
CONTINUOUS
 10
-60.9754713094
 20
10.292325
 11
-60.3930263094
 21
10.87477
  0
LINE
  5
48E
100
AcDbEntity
  8
CURVE
100
AcDbLine
 62
7
  6
CONTINUOUS
 10
-59.3627233511
 20
11.9050729583
 11
-59.1049419004
 21
12.162854409
  0
LINE
  5
48F
100
AcDbEntity
  8
CURVE
100
AcDbLine
 62
7
  6
CONTINUOUS
 10
-62.0040595993
 20
8.8437152821
 11
-61.8151978177
 21
9.0325770637
  0
LINE
  5
490
100
AcDbEntity
  8
CURVE
100
AcDbLine
 62
7
  6
CONTINUOUS
 10
-60.5554498814
 20
10.292325
 11
-59.9730048814
 21
10.87477
  0
LINE
  5
491
100
AcDbEntity
  8
CURVE
100
AcDbLine
 62
253
  6
CONTINUOUS
 10
-56.1292648341
 20
14.6428578615
 11
-56.4006521061
 21
14.3714294195
  0
LINE
  5
492
100
AcDbEntity
  8
CURVE
100
AcDbLine
 62
7
  6
CONTINUOUS
 10
-62.0040595993
 20
8.4236938541
 11
-61.1712381077
 21
9.2565153456
  0
LINE
  5
493
100
AcDbEntity
  8
CURVE
100
AcDbLine
 62
7
  6
CONTINUOUS
 10
-60.1354284534
 20
10.292325
 11
-59.5529834534
 21
10.87477
  0
LINE
  5
494
100
AcDbEntity
  8
CURVE
100
AcDbLine
 62
7
  6
CONTINUOUS
 10
-61.8394181652
 20
8.1683138601
 11
-61.4323587692
 21
8.5753732561
  0
LINE
  5
495
100
AcDbEntity
  8
CURVE
100
AcDbLine
 62
7
  6
CONTINUOUS
 10
-61.4149820498
 20
8.5927499756
 11
-60.5272783977
 21
9.4804536276
  0
LINE
  5
496
100
AcDbEntity
  8
CURVE
100
AcDbLine
 62
7
  6
CONTINUOUS
 10
-59.7154070253
 20
10.292325
 11
-59.1329620253
 21
10.87477
  0
LINE
  5
497
100
AcDbEntity
  8
CURVE
100
AcDbLine
 62
253
  6
CONTINUOUS
 10
-52.8621980314
 20
15.628570652
 11
-52.3051400243
 21
15.9999990463
  0
LINE
  5
498
100
AcDbEntity
  8
CURVE
100
AcDbLine
 62
253
  6
CONTINUOUS
 10
-53.604942028
 20
13.3071422577
 11
-52.8621980314
 21
13.678570652
  0
LINE
  5
499
100
AcDbEntity
  8
CURVE
100
AcDbLine
 62
253
  6
CONTINUOUS
 10
-59.1049419004
 20
12.027546
 11
-61.5313066373
 21
10.87477
  0
LINE
  5
49A
100
AcDbEntity
  8
CURVE
100
AcDbLine
 62
253
  6
CONTINUOUS
 10
-59.1049419004
 20
9.975074
 11
-62.0040595993
 21
8.9669
  0
LINE
  5
49B
100
AcDbEntity
  8
CURVE
100
AcDbLine
 62
253
  6
CONTINUOUS
 10
-62.0117132674
 20
-15.342748
 11
-60.0164001979
 21
-14.790021
  0
LINE
  5
49C
100
AcDbEntity
  8
CURVE
100
AcDbLine
 62
253
  6
CONTINUOUS
 10
-59.1129434625
 20
-12.785664
 11
-62.0118872144
 21
-12.785664
  0
LINE
  5
49D
100
AcDbEntity
  8
CURVE
100
AcDbLine
 62
253
  6
CONTINUOUS
 10
-57.005581532
 20
-11.953245
 11
-55.7059774945
 21
-11.953245
  0
LINE
  5
49E
100
AcDbEntity
  8
CURVE
100
AcDbLine
 62
253
  6
CONTINUOUS
 10
-61.0057857526
 20
-11.750162
 11
-59.1129434625
 21
-11.880779
  0
LINE
  5
49F
100
AcDbEntity
  8
CURVE
100
AcDbLine
 62
253
  6
CONTINUOUS
 10
-59.1129434625
 20
-12.459827
 11
-62.0117132674
 21
-12.198005
  0
LINE
  5
4A0
100
AcDbEntity
  8
CURVE
100
AcDbLine
 62
253
  6
CONTINUOUS
 10
-60.4023076199
 20
-10.994355
 11
-62.0117132674
 21
-10.389084
  0
LINE
  5
4A1
100
AcDbEntity
  8
CURVE
100
AcDbLine
 62
253
  6
CONTINUOUS
 10
-60.9978951567
 20
-10.235548
 11
-59.1129434625
 21
-10.955216
  0
LINE
  5
4A2
100
AcDbEntity
  8
ASSI
100
AcDbLine
 62
7
  6
CONTINUOUS
 10
-64.6032666747
 20
20.85
 11
-64.6032666747
 21
19.0856972195
  0
LINE
  5
4A3
100
AcDbEntity
  8
CORPO
100
AcDbLine
 62
7
  6
CONTINUOUS
 10
-64.6032666747
 20
20.85
 11
-64.6032666747
 21
19.0856972195
  0
LINE
  5
4A4
100
AcDbEntity
  8
PORTATASTO
100
AcDbLine
 62
7
  6
CONTINUOUS
 10
-64.6032666747
 20
19.5
 11
-64.6032666747
 21
-19.5
  0
LINE
  5
4A5
100
AcDbEntity
  8
ASSI
100
AcDbLine
 62
7
  6
CONTINUOUS
 10
-64.6032666747
 20
-19.0856972195
 11
-64.6032666747
 21
-20.85
  0
LINE
  5
4A6
100
AcDbEntity
  8
CORPO
100
AcDbLine
 62
7
  6
CONTINUOUS
 10
-64.6032666747
 20
-19.0856972195
 11
-64.6032666747
 21
-20.85
  0
LINE
  5
4A7
100
AcDbEntity
  8
ASSI
100
AcDbLine
 62
7
  6
CONTINUOUS
 10
-64.6032666747
 20
-18.2521805692
 11
-64.6032666747
 21
-18.1865176261
  0
LINE
  5
4A8
100
AcDbEntity
  8
CORPO
100
AcDbLine
 62
7
  6
CONTINUOUS
 10
-64.6032666747
 20
-18.2521805692
 11
-64.6032666747
 21
-18.1865176261
  0
LINE
  5
4A9
100
AcDbEntity
  8
ASSI
100
AcDbLine
 62
7
  6
CONTINUOUS
 10
-64.6032666747
 20
-18.0618205861
 11
-64.6032666747
 21
18.0618205978
  0
LINE
  5
4AA
100
AcDbEntity
  8
ASSI
100
AcDbLine
 62
7
  6
CONTINUOUS
 10
-64.6032666747
 20
18.1865176248
 11
-64.6032666747
 21
18.2521805885
  0
LINE
  5
4AB
100
AcDbEntity
  8
CORPO
100
AcDbLine
 62
7
  6
CONTINUOUS
 10
-64.6032666747
 20
-18.0618205861
 11
-64.6032666747
 21
18.0618205978
  0
LINE
  5
4AC
100
AcDbEntity
  8
CORPO
100
AcDbLine
 62
7
  6
CONTINUOUS
 10
-64.6032666747
 20
18.1865176248
 11
-64.6032666747
 21
18.2521805885
  0
LINE
  5
4AD
100
AcDbEntity
  8
CURVE
100
AcDbLine
 62
7
  6
CONTINUOUS
 10
-61.5309428905
 20
8.0567677068
 11
-61.1199167914
 21
8.4677938059
  0
LINE
  5
4AE
100
AcDbEntity
  8
CURVE
100
AcDbLine
 62
7
  6
CONTINUOUS
 10
-60.7959712879
 20
8.7917393094
 11
-59.8833186878
 21
9.7043919095
  0
LINE
  5
4AF
100
AcDbEntity
  8
CURVE
100
AcDbLine
 62
7
  6
CONTINUOUS
 10
-59.2953855973
 20
10.292325
 11
-59.1049419004
 21
10.4827686969
  0
LINE
  5
4B0
100
AcDbEntity
  8
CURVE
100
AcDbLine
 62
253
  6
CONTINUOUS
 10
-53.604942028
 20
15.8142854691
 11
-53.4192560385
 21
15.9999990463
  0
LINE
  5
4B1
100
AcDbEntity
  8
CURVE
100
AcDbLine
 62
253
  6
CONTINUOUS
 10
-55.5864903751
 20
13.6928578615
 11
-55.3151031314
 21
13.9642863035
  0
LINE
  5
4B2
100
AcDbEntity
  8
CURVE
100
AcDbLine
 62
7
  6
CONTINUOUS
 10
-61.2224676157
 20
7.9452215536
 11
-60.8074748136
 21
8.3602143557
  0
LINE
  5
4B3
100
AcDbEntity
  8
CURVE
100
AcDbLine
 62
7
  6
CONTINUOUS
 10
-60.2011798994
 20
8.9665092699
 11
-59.2393589778
 21
9.9283301915
  0
LINE
  5
4B4
100
AcDbEntity
  8
CURVE
100
AcDbLine
 62
7
  6
CONTINUOUS
 10
-60.9139923409
 20
7.8336754003
 11
-60.4950328358
 21
8.2526349055
  0
LINE
  5
4B5
100
AcDbEntity
  8
CURVE
100
AcDbLine
 62
7
  6
CONTINUOUS
 10
-60.2011798994
 20
8.5464878419
 11
-59.7193936897
 21
9.0282740516
  0
LINE
  5
4B6
100
AcDbEntity
  8
CURVE
100
AcDbLine
 62
7
  6
CONTINUOUS
 10
-59.5508084228
 20
9.1968593184
 11
-59.1049419004
 21
9.6427258409
  0
LINE
  5
4B7
100
AcDbEntity
  8
CURVE
100
AcDbLine
 62
7
  6
CONTINUOUS
 10
-60.6055170662
 20
7.7221292471
 11
-59.7193936897
 21
8.6082526236
  0
LINE
  5
4B8
100
AcDbEntity
  8
CURVE
100
AcDbLine
 62
7
  6
CONTINUOUS
 10
-60.2970417914
 20
7.6105830938
 11
-59.7193936897
 21
8.1882311955
  0
LINE
  5
4B9
100
AcDbEntity
  8
CURVE
100
AcDbLine
 62
7
  6
CONTINUOUS
 10
-62.0040595993
 20
5.4835438579
 11
-61.6938644572
 21
5.793739
  0
LINE
  5
4BA
100
AcDbEntity
  8
CURVE
100
AcDbLine
 62
7
  6
CONTINUOUS
 10
-59.9885665167
 20
7.4990369405
 11
-59.5548581733
 21
7.9327452838
  0
LINE
  5
4BB
100
AcDbEntity
  8
CURVE
100
AcDbLine
 62
7
  6
CONTINUOUS
 10
-61.8964490292
 20
5.171133
 11
-61.2738430292
 21
5.793739
  0
LINE
  5
4BC
100
AcDbEntity
  8
CURVE
100
AcDbLine
 62
7
  6
CONTINUOUS
 10
-59.6800912419
 20
7.3874907873
 11
-59.244401078
 21
7.8231809512
  0
LINE
  5
4BD
100
AcDbEntity
  8
CURVE
100
AcDbLine
 62
7
  6
CONTINUOUS
 10
-61.4764276011
 20
5.171133
 11
-60.8538216011
 21
5.793739
  0
LINE
  5
4BE
100
AcDbEntity
  8
CURVE
100
AcDbLine
 62
7
  6
CONTINUOUS
 10
-59.3716159671
 20
7.275944634
 11
-59.1049419004
 21
7.5426187007
  0
LINE
  5
4BF
100
AcDbEntity
  8
CURVE
100
AcDbLine
 62
253
  6
CONTINUOUS
 10
-53.604942028
 20
12.1928570747
 11
-52.8621980314
 21
12.5642854691
  0
LINE
  5
4C0
100
AcDbEntity
  8
CURVE
100
AcDbLine
 62
253
  6
CONTINUOUS
 10
-59.7193936897
 20
9.139549
 11
-59.1049419004
 21
9.348431
  0
LINE
  5
4C1
100
AcDbEntity
  8
CURVE
100
AcDbLine
 62
253
  6
CONTINUOUS
 10
-61.4500683889
 20
8.581471
 11
-60.2011798994
 21
8.982943
  0
LINE
  5
4C2
100
AcDbEntity
  8
CURVE
100
AcDbLine
 62
253
  6
CONTINUOUS
 10
-62.0117132674
 20
-9.790227
 11
-59.1129434625
 21
-9.519077
  0
LINE
  5
4C3
100
AcDbEntity
  8
CURVE
100
AcDbLine
 62
253
  6
CONTINUOUS
 10
-59.1129434625
 20
-10.111193
 11
-60.9978951567
 21
-10.235548
  0
LINE
  5
4C4
100
AcDbEntity
  8
CURVE
100
AcDbLine
 62
253
  6
CONTINUOUS
 10
-57.005581532
 20
-10.145272
 11
-55.7059774945
 21
-10.145272
  0
LINE
  5
4C5
100
AcDbEntity
  8
CURVE
100
AcDbLine
 62
253
  6
CONTINUOUS
 10
-57.005581532
 20
-9.756944
 11
-55.7059774945
 21
-9.756944
  0
LINE
  5
4C6
100
AcDbEntity
  8
CURVE
100
AcDbLine
 62
253
  6
CONTINUOUS
 10
-49.0310512063
 20
-9.364888
 11
-48.2812796461
 21
-9.364888
  0
LINE
  5
4C7
100
AcDbEntity
  8
CURVE
100
AcDbLine
 62
253
  6
CONTINUOUS
 10
-51.2034293277
 20
-8.964888
 11
-50.4528380173
 21
-8.964888
  0
LINE
  5
4C8
100
AcDbEntity
  8
CURVE
100
AcDbLine
 62
253
  6
CONTINUOUS
 10
-46.8594928351
 20
-8.964888
 11
-46.1089015248
 21
-8.964888
  0
LINE
  5
4C9
100
AcDbEntity
  8
CURVE
100
AcDbLine
 62
253
  6
CONTINUOUS
 10
-57.005581532
 20
-8.724819
 11
-55.7059774945
 21
-8.724819
  0
LINE
  5
4CA
100
AcDbEntity
  8
CURVE
100
AcDbLine
 62
253
  6
CONTINUOUS
 10
-61.215204947
 20
-8.233126
 11
-60.1394347119
 21
-8.5345
  0
LINE
  5
4CB
100
AcDbEntity
  8
CURVE
100
AcDbLine
 62
253
  6
CONTINUOUS
 10
-59.6916411453
 20
-8.658312
 11
-59.1129434625
 21
-8.825329
  0
LINE
  5
4CC
100
AcDbEntity
  8
CURVE
100
AcDbLine
 62
253
  6
CONTINUOUS
 10
-59.1129434625
 20
-9.424033
 11
-62.0117132674
 21
-8.514517
  0
LINE
  5
4CD
100
AcDbEntity
  8
CURVE
100
AcDbLine
 62
253
  6
CONTINUOUS
 10
-62.0118872144
 20
-12.785664
 11
-62.0118872144
 21
-13.390935
  0
LINE
  5
4CE
100
AcDbEntity
  8
CURVE
100
AcDbLine
 62
253
  6
CONTINUOUS
 10
-62.0117132674
 20
-16.00026
 11
-62.0117132674
 21
-15.342748
  0
LINE
  5
4CF
100
AcDbEntity
  8
CURVE
100
AcDbLine
 62
253
  6
CONTINUOUS
 10
-62.0117132674
 20
-14.22041
 11
-62.0117132674
 21
-13.615552
  0
LINE
  5
4D0
100
AcDbEntity
  8
CURVE
100
AcDbLine
 62
253
  6
CONTINUOUS
 10
-62.0117132674
 20
-12.198005
 11
-62.0117132674
 21
-11.593234
  0
LINE
  5
4D1
100
AcDbEntity
  8
CURVE
100
AcDbLine
 62
253
  6
CONTINUOUS
 10
-62.0117132674
 20
-10.389084
 11
-62.0117132674
 21
-9.790227
  0
LINE
  5
4D2
100
AcDbEntity
  8
CURVE
100
AcDbLine
 62
253
  6
CONTINUOUS
 10
-62.0117132674
 20
-8.514517
 11
-62.0117132674
 21
-7.92899
  0
LINE
  5
4D3
100
AcDbEntity
  8
CURVE
100
AcDbLine
 62
253
  6
CONTINUOUS
 10
-62.0040595993
 20
14.991935
 11
-62.0040595993
 21
14.252884
  0
LINE
  5
4D4
100
AcDbEntity
  8
CURVE
100
AcDbLine
 62
253
  6
CONTINUOUS
 10
-62.0040595993
 20
8.9669
 11
-62.0040595993
 21
8.227849
  0
LINE
  5
4D5
100
AcDbEntity
  8
CURVE
100
AcDbLine
 62
253
  6
CONTINUOUS
 10
-62.0040595993
 20
3.58822
 11
-62.0040595993
 21
2.70079
  0
LINE
  5
4D6
100
AcDbEntity
  8
CURVE
100
AcDbLine
 62
253
  6
CONTINUOUS
 10
-62.0040595993
 20
5.171133
 11
-62.0040595993
 21
5.793739
  0
LINE
  5
4D7
100
AcDbEntity
  8
CURVE
100
AcDbLine
 62
253
  6
CONTINUOUS
 10
-62.0040595993
 20
10.292325
 11
-62.0040595993
 21
11.216139
  0
LINE
  5
4D8
100
AcDbEntity
  8
CURVE
100
AcDbLine
 62
253
  6
CONTINUOUS
 10
-62.0040595993
 20
12.328754
 11
-62.0040595993
 21
12.911198
  0
LINE
  5
4D9
100
AcDbEntity
  8
CURVE
100
AcDbLine
 62
253
  6
CONTINUOUS
 10
-61.5222733896
 20
3.323396
 11
-61.5222733896
 21
3.686612
  0
LINE
  5
4DA
100
AcDbEntity
  8
CURVE
100
AcDbLine
 62
7
  6
CONTINUOUS
 10
-61.8727647003
 20
4.3547744728
 11
-61.5227126117
 21
4.7048265614
  0
LINE
  5
4DB
100
AcDbEntity
  8
CURVE
100
AcDbLine
 62
7
  6
CONTINUOUS
 10
-61.0564061731
 20
5.171133
 11
-60.4338001731
 21
5.793739
  0
LINE
  5
4DC
100
AcDbEntity
  8
CURVE
100
AcDbLine
 62
7
  6
CONTINUOUS
 10
-59.5867281101
 20
6.640811063
 11
-59.3608011731
 21
6.866738
  0
LINE
  5
4DD
100
AcDbEntity
  8
CURVE
100
AcDbLine
 62
7
  6
CONTINUOUS
 10
-61.9949384111
 20
3.812579334
 11
-61.0291362815
 21
4.7783814636
  0
LINE
  5
4DE
100
AcDbEntity
  8
CURVE
100
AcDbLine
 62
7
  6
CONTINUOUS
 10
-60.6363847451
 20
5.171133
 11
-60.0137787451
 21
5.793739
  0
LINE
  5
4DF
100
AcDbEntity
  8
CURVE
100
AcDbLine
 62
7
  6
CONTINUOUS
 10
-59.5867281101
 20
6.220789635
 11
-59.1049419004
 21
6.7025758447
  0
LINE
  5
4E0
100
AcDbEntity
  8
CURVE
100
AcDbLine
 62
7
  6
CONTINUOUS
 10
-62.0040594911
 20
3.383436826
 11
-61.4887734212
 21
3.8987228959
  0
LINE
  5
4E1
100
AcDbEntity
  8
CURVE
100
AcDbLine
 62
7
  6
CONTINUOUS
 10
-61.2974219491
 20
4.090074368
 11
-60.6890063893
 21
4.6984899278
  0
LINE
  5
4E2
100
AcDbEntity
  8
CURVE
100
AcDbLine
 62
7
  6
CONTINUOUS
 10
-60.2163633171
 20
5.171133
 11
-59.5937573171
 21
5.793739
  0
LINE
  5
4E3
100
AcDbEntity
  8
CURVE
100
AcDbLine
 62
7
  6
CONTINUOUS
 10
-59.5867281101
 20
5.8007682069
 11
-59.1049419004
 21
6.2825544167
  0
LINE
  5
4E4
100
AcDbEntity
  8
CURVE
100
AcDbLine
 62
7
  6
CONTINUOUS
 10
-62.0040595577
 20
2.9634153314
 11
-61.5222733653
 21
3.4452015238
  0
LINE
  5
4E5
100
AcDbEntity
  8
CURVE
100
AcDbLine
 62
7
  6
CONTINUOUS
 10
-60.89253143
 20
4.0749434591
 11
-60.4531442083
 21
4.5143306807
  0
LINE
  5
4E6
100
AcDbEntity
  8
CURVE
100
AcDbLine
 62
7
  6
CONTINUOUS
 10
-59.796341889
 20
5.171133
 11
-59.1049419004
 21
5.8625329886
  0
LINE
  5
4E7
100
AcDbEntity
  8
CURVE
100
AcDbLine
 62
7
  6
CONTINUOUS
 10
-61.846663461
 20
2.70079
 11
-61.224057461
 21
3.323396
  0
LINE
  5
4E8
100
AcDbEntity
  8
CURVE
100
AcDbLine
 62
7
  6
CONTINUOUS
 10
-60.7201556225
 20
3.8272978386
 11
-60.3072071279
 21
4.2402463331
  0
LINE
  5
4E9
100
AcDbEntity
  8
CURVE
100
AcDbLine
 62
7
  6
CONTINUOUS
 10
-59.376320461
 20
5.171133
 11
-59.1049419004
 21
5.4425115606
  0
LINE
  5
4EA
100
AcDbEntity
  8
CURVE
100
AcDbLine
 62
253
  6
CONTINUOUS
 10
-53.604942028
 20
10.6452377319
 11
-53.4192560385
 21
10.8309519291
  0
LINE
  5
4EB
100
AcDbEntity
  8
CURVE
100
AcDbLine
 62
7
  6
CONTINUOUS
 10
-61.426642033
 20
2.70079
 11
-60.804036033
 21
3.323396
  0
LINE
  5
4EC
100
AcDbEntity
  8
CURVE
100
AcDbLine
 62
7
  6
CONTINUOUS
 10
-60.7031499595
 20
3.4242820735
 11
-60.2365946347
 21
3.8908373983
  0
LINE
  5
4ED
100
AcDbEntity
  8
CURVE
100
AcDbLine
 62
7
  6
CONTINUOUS
 10
-61.006620605
 20
2.70079
 11
-60.2213637498
 21
3.4860468552
  0
LINE
  5
4EE
100
AcDbEntity
  8
CURVE
100
AcDbLine
 62
253
  6
CONTINUOUS
 10
-60.1394347119
 20
-7.954996
 11
-61.215204947
 21
-8.233126
  0
LINE
  5
4EF
100
AcDbEntity
  8
CURVE
100
AcDbLine
 62
253
  6
CONTINUOUS
 10
-57.005581532
 20
-7.831288
 11
-55.7059774945
 21
-7.831288
  0
LINE
  5
4F0
100
AcDbEntity
  8
CURVE
100
AcDbLine
 62
253
  6
CONTINUOUS
 10
-55.7059774945
 20
-7.027348
 11
-57.005581532
 21
-7.027348
  0
LINE
  5
4F1
100
AcDbEntity
  8
CURVE
100
AcDbLine
 62
253
  6
CONTINUOUS
 10
-61.9778459334
 20
-6.8615673444
 11
-59.1129431103
 21
-6.8615673444
  0
LINE
  5
4F2
100
AcDbEntity
  8
CURVE
100
AcDbLine
 62
253
  6
CONTINUOUS
 10
-57.005581532
 20
-5.860387
 11
-55.7059774945
 21
-6.430721
  0
LINE
  5
4F3
100
AcDbEntity
  8
PORTATASTO
100
AcDbLine
 62
253
  6
CONTINUOUS
 10
-59.0174396198
 20
-23.7585444086
 11
-59.0237613198
 21
-22.3059037278
  0
LINE
  5
4F4
100
AcDbEntity
  8
CURVE
100
AcDbLine
 62
253
  6
CONTINUOUS
 10
-60.7221100839
 20
-5.9328946758
 11
-60.7221100839
 21
-6.2788012718
  0
LINE
  5
4F5
100
AcDbEntity
  8
CURVE
100
AcDbLine
 62
253
  6
CONTINUOUS
 10
-60.7031499595
 20
3.323396
 11
-60.7031499595
 21
3.686612
  0
LINE
  5
4F6
100
AcDbEntity
  8
CURVE
100
AcDbLine
 62
253
  6
CONTINUOUS
 10
-60.2473615907
 20
-6.2587313832
 11
-60.2473615907
 21
-5.9341993273
  0
LINE
  5
4F7
100
AcDbEntity
  8
CURVE
100
AcDbLine
 62
253
  6
CONTINUOUS
 10
-60.2213637498
 20
3.58822
 11
-60.2213637498
 21
3.323396
  0
LINE
  5
4F8
100
AcDbEntity
  8
CURVE
100
AcDbLine
 62
253
  6
CONTINUOUS
 10
-60.2011798994
 20
15.007869
 11
-60.2011798994
 21
14.176491
  0
LINE
  5
4F9
100
AcDbEntity
  8
CURVE
100
AcDbLine
 62
253
  6
CONTINUOUS
 10
-60.2011798994
 20
8.982943
 11
-60.2011798994
 21
8.151456
  0
LINE
  5
4FA
100
AcDbEntity
  8
CURVE
100
AcDbLine
 62
253
  6
CONTINUOUS
 10
-60.1394347119
 20
-8.5345
 11
-60.1394347119
 21
-7.954996
  0
LINE
  5
4FB
100
AcDbEntity
  8
CURVE
100
AcDbLine
 62
253
  6
CONTINUOUS
 10
-59.7193936897
 20
7.990812
 11
-59.7193936897
 21
9.139549
  0
LINE
  5
4FC
100
AcDbEntity
  8
CURVE
100
AcDbLine
 62
253
  6
CONTINUOUS
 10
-59.7193936897
 20
14.015846
 11
-59.7193936897
 21
15.164584
  0
LINE
  5
4FD
100
AcDbEntity
  8
CURVE
100
AcDbLine
 62
253
  6
CONTINUOUS
 10
-59.6916411453
 20
-7.834033
 11
-59.6916411453
 21
-8.658312
  0
LINE
  5
4FE
100
AcDbEntity
  8
CURVE
100
AcDbLine
 62
253
  6
CONTINUOUS
 10
-59.5867281101
 20
5.793739
 11
-59.5867281101
 21
6.866738
  0
LINE
  5
4FF
100
AcDbEntity
  8
CURVE
100
AcDbLine
 62
253
  6
CONTINUOUS
 10
-59.1129434625
 20
-7.039304
 11
-59.1129434625
 21
-7.677235
  0
LINE
  5
500
100
AcDbEntity
  8
CURVE
100
AcDbLine
 62
253
  6
CONTINUOUS
 10
-59.1129434625
 20
-8.825329
 11
-59.1129434625
 21
-9.424033
  0
LINE
  5
501
100
AcDbEntity
  8
CURVE
100
AcDbLine
 62
253
  6
CONTINUOUS
 10
-59.1129434625
 20
-9.519077
 11
-59.1129434625
 21
-10.111193
  0
LINE
  5
502
100
AcDbEntity
  8
CURVE
100
AcDbLine
 62
253
  6
CONTINUOUS
 10
-59.1129434625
 20
-10.955216
 11
-59.1129434625
 21
-11.040105
  0
LINE
  5
503
100
AcDbEntity
  8
CURVE
100
AcDbLine
 62
253
  6
CONTINUOUS
 10
-59.1129434625
 20
-11.880779
 11
-59.1129434625
 21
-12.459827
  0
LINE
  5
504
100
AcDbEntity
  8
CURVE
100
AcDbLine
 62
253
  6
CONTINUOUS
 10
-59.1129434625
 20
-14.547617
 11
-59.1129434625
 21
-15.081013
  0
LINE
  5
505
100
AcDbEntity
  8
CURVE
100
AcDbLine
 62
253
  6
CONTINUOUS
 10
-59.1129434625
 20
-13.390935
 11
-59.1129434625
 21
-12.785664
  0
LINE
  5
506
100
AcDbEntity
  8
CURVE
100
AcDbLine
 62
253
  6
CONTINUOUS
 10
-59.1129431103
 20
-6.8615673444
 11
-59.1129431103
 21
-6.2587313832
  0
LINE
  5
507
100
AcDbEntity
  8
CURVE
100
AcDbLine
 62
253
  6
CONTINUOUS
 10
-59.1129431103
 20
-5.3318417383
 11
-59.1129431103
 21
-4.7496410148
  0
LINE
  5
508
100
AcDbEntity
  8
CURVE
100
AcDbLine
 62
253
  6
CONTINUOUS
 10
-59.1049419004
 20
12.911198
 11
-59.1049419004
 21
12.027546
  0
LINE
  5
509
100
AcDbEntity
  8
CURVE
100
AcDbLine
 62
253
  6
CONTINUOUS
 10
-59.1049419004
 20
10.87477
 11
-59.1049419004
 21
10.292325
  0
LINE
  5
50A
100
AcDbEntity
  8
CURVE
100
AcDbLine
 62
253
  6
CONTINUOUS
 10
-59.1049419004
 20
6.866738
 11
-59.1049419004
 21
5.171133
  0
LINE
  5
50B
100
AcDbEntity
  8
CURVE
100
AcDbLine
 62
253
  6
CONTINUOUS
 10
-59.1049419004
 20
2.70079
 11
-59.1049419004
 21
3.323396
  0
LINE
  5
50C
100
AcDbEntity
  8
CURVE
100
AcDbLine
 62
253
  6
CONTINUOUS
 10
-59.1049419004
 20
7.179514
 11
-59.1049419004
 21
7.773964
  0
LINE
  5
50D
100
AcDbEntity
  8
CURVE
100
AcDbLine
 62
253
  6
CONTINUOUS
 10
-59.1049419004
 20
9.348431
 11
-59.1049419004
 21
9.975074
  0
LINE
  5
50E
100
AcDbEntity
  8
CURVE
100
AcDbLine
 62
253
  6
CONTINUOUS
 10
-59.1049419004
 20
13.20444
 11
-59.1049419004
 21
13.798889
  0
LINE
  5
50F
100
AcDbEntity
  8
CURVE
100
AcDbLine
 62
253
  6
CONTINUOUS
 10
-59.1049419004
 20
15.373574
 11
-59.1049419004
 21
16.0
  0
LINE
  5
510
100
AcDbEntity
  8
PORTATASTO
100
AcDbLine
 62
7
  6
CONTINUOUS
 10
-59.1032666747
 20
23.4906890903
 11
-59.1032666747
 21
22.8093109097
  0
LINE
  5
511
100
AcDbEntity
  8
PORTATASTO
100
AcDbLine
 62
7
  6
CONTINUOUS
 10
-59.1032666747
 20
-22.8093109097
 11
-59.1032666747
 21
-23.4906890903
  0
LINE
  5
512
100
AcDbEntity
  8
PORTATASTO
100
AcDbLine
 62
253
  6
CONTINUOUS
 10
-59.0237613198
 20
22.3059037278
 11
-59.0174396198
 21
23.7585444086
  0
LINE
  5
513
100
AcDbEntity
  8
CURVE
100
AcDbLine
 62
7
  6
CONTINUOUS
 10
-60.5865991769
 20
2.70079
 11
-59.9639931769
 21
3.323396
  0
LINE
  5
514
100
AcDbEntity
  8
CURVE
100
AcDbLine
 62
7
  6
CONTINUOUS
 10
-60.1665777489
 20
2.70079
 11
-59.5439717489
 21
3.323396
  0
LINE
  5
515
100
AcDbEntity
  8
CURVE
100
AcDbLine
 62
7
  6
CONTINUOUS
 10
-59.7465563209
 20
2.70079
 11
-59.1239503209
 21
3.323396
  0
LINE
  5
516
100
AcDbEntity
  8
CURVE
100
AcDbLine
 62
253
  6
CONTINUOUS
 10
-53.604942028
 20
8.6023803234
 11
-53.4192560385
 21
8.7880951405
  0
LINE
  5
517
100
AcDbEntity
  8
CURVE
100
AcDbLine
 62
7
  6
CONTINUOUS
 10
-59.3265348929
 20
2.70079
 11
-59.1049419004
 21
2.9223829925
  0
LINE
  5
518
100
AcDbEntity
  8
CURVE
100
AcDbLine
 62
253
  6
CONTINUOUS
 10
-52.8621980314
 20
8.4166661263
 11
-52.3051400243
 21
8.7880951405
  0
LINE
  5
519
100
AcDbEntity
  8
CURVE
100
AcDbLine
 62
253
  6
CONTINUOUS
 10
-59.1129434625
 20
-7.677235
 11
-59.6916411453
 21
-7.834033
  0
LINE
  5
51A
100
AcDbEntity
  8
CURVE
100
AcDbLine
 62
253
  6
CONTINUOUS
 10
-60.7221100839
 20
-6.2788012718
 11
-61.5178789867
 21
-6.2788012718
  0
LINE
  5
51B
100
AcDbEntity
  8
CURVE
100
AcDbLine
 62
253
  6
CONTINUOUS
 10
-59.1129431103
 20
-6.2587313832
 11
-60.2473615907
 21
-6.2587313832
  0
LINE
  5
51C
100
AcDbEntity
  8
CURVE
100
AcDbLine
 62
253
  6
CONTINUOUS
 10
-60.4660632661
 20
-5.30544429
 11
-60.48319247
 21
-5.30544429
  0
LINE
  5
51D
100
AcDbEntity
  8
CURVE
100
AcDbLine
 62
253
  6
CONTINUOUS
 10
-57.005581532
 20
-5.041082
 11
-55.7059774945
 21
-5.041082
  0
LINE
  5
51E
100
AcDbEntity
  8
PORTATASTO
100
AcDbLine
 62
7
  6
CONTINUOUS
 10
-58.6032666747
 20
-23.2659657686
 11
-58.6032666747
 21
-22.3034573615
  0
LINE
  5
51F
100
AcDbEntity
  8
PORTATASTO
100
AcDbLine
 62
7
  6
CONTINUOUS
 10
-58.6032666747
 20
22.3034573615
 11
-58.6032666747
 21
23.2659657686
  0
LINE
  5
520
100
AcDbEntity
  8
ASSI
100
AcDbLine
 62
7
  6
CONTINUOUS
 10
-58.5032666747
 20
-20.7435241039
 11
-58.5032666747
 21
-19.3006754942
  0
LINE
  5
521
100
AcDbEntity
  8
CORPO
100
AcDbLine
 62
7
  6
CONTINUOUS
 10
-58.5032666747
 20
-20.7435241039
 11
-58.5032666747
 21
-19.3006754942
  0
LINE
  5
522
100
AcDbEntity
  8
ASSI
100
AcDbLine
 62
7
  6
CONTINUOUS
 10
-58.5032666747
 20
19.3006754942
 11
-58.5032666747
 21
20.7435241039
  0
LINE
  5
523
100
AcDbEntity
  8
CORPO
100
AcDbLine
 62
7
  6
CONTINUOUS
 10
-58.5032666747
 20
19.3006754942
 11
-58.5032666747
 21
20.7435241039
  0
LINE
  5
524
100
AcDbEntity
  8
CURVE
100
AcDbLine
 62
253
  6
CONTINUOUS
 10
-57.2148137522
 20
15.1857147455
 11
-57.2148137522
 21
16.0000005245
  0
LINE
  5
525
100
AcDbEntity
  8
CURVE
100
AcDbLine
 62
253
  6
CONTINUOUS
 10
-57.005581532
 20
-11.006258
 11
-57.005581532
 21
-11.953245
  0
LINE
  5
526
100
AcDbEntity
  8
CURVE
100
AcDbLine
 62
253
  6
CONTINUOUS
 10
-57.005581532
 20
-12.839757
 11
-57.005581532
 21
-13.269593
  0
LINE
  5
527
100
AcDbEntity
  8
CURVE
100
AcDbLine
 62
253
  6
CONTINUOUS
 10
-57.005581532
 20
-7.555145
 11
-57.005581532
 21
-6.499553
  0
LINE
  5
528
100
AcDbEntity
  8
CURVE
100
AcDbLine
 62
253
  6
CONTINUOUS
 10
-52.6765120419
 20
5.7238090277
 11
-53.2335700491
 21
5.0738091826
  0
LINE
  5
529
100
AcDbEntity
  8
CURVE
100
AcDbLine
 62
253
  6
CONTINUOUS
 10
-53.604942028
 20
5.6309519291
 11
-53.5120989945
 21
5.7238090277
  0
LINE
  5
52A
100
AcDbEntity
  8
CURVE
100
AcDbLine
 62
253
  6
CONTINUOUS
 10
-52.3979830287
 20
5.0738091826
 11
-52.3051400243
 21
5.1666662812
  0
LINE
  5
52B
100
AcDbEntity
  8
CURVE
100
AcDbLine
 62
253
  6
CONTINUOUS
 10
-53.604942028
 20
2.8452377319
 11
-52.8621980314
 21
3.21666632
  0
LINE
  5
52C
100
AcDbEntity
  8
CURVE
100
AcDbLine
 62
253
  6
CONTINUOUS
 10
-53.604942028
 20
4.3309520841
 11
-52.3051400243
 21
4.7023806334
  0
LINE
  5
52D
100
AcDbEntity
  8
CURVE
100
AcDbLine
 62
253
  6
CONTINUOUS
 10
-55.7059774945
 20
-3.656396
 11
-56.2088592768
 21
-3.656396
  0
LINE
  5
52E
100
AcDbEntity
  8
CURVE
100
AcDbLine
 62
253
  6
CONTINUOUS
 10
-56.2088592768
 20
-3.656396
 11
-57.005581532
 21
-3.180657
  0
LINE
  5
52F
100
AcDbEntity
  8
CURVE
100
AcDbLine
 62
253
  6
CONTINUOUS
 10
-56.4006521061
 20
15.7285720825
 11
-56.4006521061
 21
15.1857147455
  0
LINE
  5
530
100
AcDbEntity
  8
CURVE
100
AcDbLine
 62
253
  6
CONTINUOUS
 10
-56.4006521061
 20
14.3714294195
 11
-56.4006521061
 21
13.7833339334
  0
LINE
  5
531
100
AcDbEntity
  8
CURVE
100
AcDbLine
 62
253
  6
CONTINUOUS
 10
-56.3557795132
 20
-11.953245
 11
-56.3557795132
 21
-11.072654
  0
LINE
  5
532
100
AcDbEntity
  8
CURVE
100
AcDbLine
 62
253
  6
CONTINUOUS
 10
-56.1776747781
 20
-6.223716
 11
-56.1776747781
 21
-5.497059
  0
LINE
  5
533
100
AcDbEntity
  8
CURVE
100
AcDbLine
 62
253
  6
CONTINUOUS
 10
-56.1702360445
 20
-14.376702
 11
-56.1702360445
 21
-13.643517
  0
LINE
  5
534
100
AcDbEntity
  8
CURVE
100
AcDbLine
 62
253
  6
CONTINUOUS
 10
-55.7221839828
 20
12.0642863035
 11
-55.7221839828
 21
11.1142864168
  0
LINE
  5
535
100
AcDbEntity
  8
CURVE
100
AcDbLine
 62
253
  6
CONTINUOUS
 10
-55.7059774945
 20
-13.269593
 11
-55.7059774945
 21
-12.839757
  0
LINE
  5
536
100
AcDbEntity
  8
CURVE
100
AcDbLine
 62
253
  6
CONTINUOUS
 10
-55.7059774945
 20
-11.953245
 11
-55.7059774945
 21
-10.993568
  0
LINE
  5
537
100
AcDbEntity
  8
CURVE
100
AcDbLine
 62
253
  6
CONTINUOUS
 10
-55.7059774945
 20
-5.041082
 11
-55.7059774945
 21
-4.294148
  0
LINE
  5
538
100
AcDbEntity
  8
CURVE
100
AcDbLine
 62
253
  6
CONTINUOUS
 10
-55.3151031314
 20
13.9642863035
 11
-55.3151031314
 21
14.3714294195
  0
LINE
  5
539
100
AcDbEntity
  8
CURVE
100
AcDbLine
 62
253
  6
CONTINUOUS
 10
-55.3151031314
 20
15.1857147455
 11
-55.3151031314
 21
15.7285720825
  0
LINE
  5
53A
100
AcDbEntity
  8
PORTATASTO
100
AcDbLine
 62
253
  6
CONTINUOUS
 10
-55.0945404715
 20
-21.4537354271
 11
-55.0945404715
 21
-20.9917082642
  0
LINE
  5
53B
100
AcDbEntity
  8
PORTATASTO
100
AcDbLine
 62
253
  6
CONTINUOUS
 10
-55.0945404715
 20
20.9917082642
 11
-55.0945404715
 21
21.4537354271
  0
LINE
  5
53C
100
AcDbEntity
  8
ASSI
100
AcDbLine
 62
7
  6
CONTINUOUS
 10
-54.6032666747
 20
19.7
 11
-54.6032666747
 21
19.5254493507
  0
LINE
  5
53D
100
AcDbEntity
  8
CORPO
100
AcDbLine
 62
7
  6
CONTINUOUS
 10
-54.6032666747
 20
19.7
 11
-54.6032666747
 21
19.5254493507
  0
LINE
  5
53E
100
AcDbEntity
  8
PORTATASTO
100
AcDbLine
 62
7
  6
CONTINUOUS
 10
-54.6032666747
 20
-19.7
 11
-54.6032666747
 21
-21.2859869487
  0
LINE
  5
53F
100
AcDbEntity
  8
ASSI
100
AcDbLine
 62
7
  6
CONTINUOUS
 10
-54.6032666747
 20
-19.5254493507
 11
-54.6032666747
 21
-19.7
  0
LINE
  5
540
100
AcDbEntity
  8
CORPO
100
AcDbLine
 62
7
  6
CONTINUOUS
 10
-54.6032666747
 20
-19.5254493507
 11
-54.6032666747
 21
-19.7
  0
LINE
  5
541
100
AcDbEntity
  8
PORTATASTO
100
AcDbLine
 62
7
  6
CONTINUOUS
 10
-54.6032666747
 20
19.7
 11
-54.6032666747
 21
21.2859869487
  0
LINE
  5
542
100
AcDbEntity
  8
CURVE
100
AcDbLine
 62
253
  6
CONTINUOUS
 10
-53.604942028
 20
5.2595233798
 11
-53.604942028
 21
5.6309519291
  0
LINE
  5
543
100
AcDbEntity
  8
CURVE
100
AcDbLine
 62
253
  6
CONTINUOUS
 10
-53.604942028
 20
6.0952377319
 11
-53.604942028
 21
6.8380948305
  0
LINE
  5
544
100
AcDbEntity
  8
CURVE
100
AcDbLine
 62
253
  6
CONTINUOUS
 10
-53.604942028
 20
7.2095235348
 11
-53.604942028
 21
7.7666664362
  0
LINE
  5
545
100
AcDbEntity
  8
CURVE
100
AcDbLine
 62
253
  6
CONTINUOUS
 10
-53.604942028
 20
8.1380951405
 11
-53.604942028
 21
8.6023803234
  0
LINE
  5
546
100
AcDbEntity
  8
CURVE
100
AcDbLine
 62
253
  6
CONTINUOUS
 10
-53.604942028
 20
10.1809519291
 11
-53.604942028
 21
10.6452377319
  0
LINE
  5
547
100
AcDbEntity
  8
CURVE
100
AcDbLine
 62
253
  6
CONTINUOUS
 10
-53.604942028
 20
14.4214286804
 11
-53.604942028
 21
14.978570652
  0
LINE
  5
548
100
AcDbEntity
  8
CURVE
100
AcDbLine
 62
253
  6
CONTINUOUS
 10
-53.604942028
 20
15.3499990463
 11
-53.604942028
 21
15.8142854691
  0
LINE
  5
549
100
AcDbEntity
  8
CURVE
100
AcDbLine
 62
253
  6
CONTINUOUS
 10
-53.0478840596
 20
14.7928570747
 11
-53.0478840596
 21
14.4214286804
  0
LINE
  5
54A
100
AcDbEntity
  8
CURVE
100
AcDbLine
 62
253
  6
CONTINUOUS
 10
-53.0478840596
 20
7.5809519291
 11
-53.0478840596
 21
7.2095235348
  0
LINE
  5
54B
100
AcDbEntity
  8
CURVE
100
AcDbLine
 62
253
  6
CONTINUOUS
 10
-52.8621980314
 20
15.8142854691
 11
-52.8621980314
 21
15.3499990463
  0
LINE
  5
54C
100
AcDbEntity
  8
CURVE
100
AcDbLine
 62
253
  6
CONTINUOUS
 10
-52.8621980314
 20
8.6023803234
 11
-52.8621980314
 21
8.1380951405
  0
LINE
  5
54D
100
AcDbEntity
  8
CURVE
100
AcDbLine
 62
253
  6
CONTINUOUS
 10
-52.6765120419
 20
4.0833329737
 11
-52.6765120419
 21
4.5785711169
  0
LINE
  5
54E
100
AcDbEntity
  8
CURVE
100
AcDbLine
 62
253
  6
CONTINUOUS
 10
-52.3051400243
 20
10.6452377319
 11
-52.3051400243
 21
10.1809519291
  0
LINE
  5
54F
100
AcDbEntity
  8
CURVE
100
AcDbLine
 62
253
  6
CONTINUOUS
 10
-52.3051400243
 20
5.1666662812
 11
-52.3051400243
 21
5.5380948305
  0
LINE
  5
550
100
AcDbEntity
  8
CURVE
100
AcDbLine
 62
253
  6
CONTINUOUS
 10
-52.3051400243
 20
7.2095235348
 11
-52.3051400243
 21
7.7666664362
  0
LINE
  5
551
100
AcDbEntity
  8
CURVE
100
AcDbLine
 62
253
  6
CONTINUOUS
 10
-52.3051400243
 20
14.4214286804
 11
-52.3051400243
 21
14.978570652
  0
LINE
  5
552
100
AcDbEntity
  8
CURVE
100
AcDbLine
 62
253
  6
CONTINUOUS
 10
-57.005581532
 20
-4.132134
 11
-56.2088592768
 21
-3.656396
  0
LINE
  5
553
100
AcDbEntity
  8
CURVE
100
AcDbLine
 62
253
  6
CONTINUOUS
 10
-55.7059774945
 20
-5.290054
 11
-57.005581532
 21
-5.860387
  0
LINE
  5
554
100
AcDbEntity
  8
CURVE
100
AcDbLine
 62
253
  6
CONTINUOUS
 10
-62.0040595993
 20
2.70079
 11
-59.1049419004
 21
2.70079
  0
LINE
  5
555
100
AcDbEntity
  8
CURVE
100
AcDbLine
 62
253
  6
CONTINUOUS
 10
-52.3051400243
 20
2.8452377319
 11
-53.604942028
 21
2.8452377319
  0
LINE
  5
556
100
AcDbEntity
  8
CURVE
100
AcDbLine
 62
253
  6
CONTINUOUS
 10
-59.1049419004
 20
3.323396
 11
-60.2213637498
 21
3.323396
  0
LINE
  5
557
100
AcDbEntity
  8
CURVE
100
AcDbLine
 62
253
  6
CONTINUOUS
 10
-60.7031499595
 20
3.323396
 11
-61.5222733896
 21
3.323396
  0
LINE
  5
558
100
AcDbEntity
  8
CURVE
100
AcDbLine
 62
253
  6
CONTINUOUS
 10
-53.604942028
 20
3.588094908
 11
-52.3051400243
 21
3.588094908
  0
LINE
  5
559
100
AcDbEntity
  8
CURVE
100
AcDbLine
 62
253
  6
CONTINUOUS
 10
-52.3051400243
 20
3.9595234573
 11
-53.604942028
 21
4.3309520841
  0
LINE
  5
55A
100
AcDbEntity
  8
CURVE
100
AcDbLine
 62
253
  6
CONTINUOUS
 10
-52.8621980314
 20
3.21666632
 11
-53.604942028
 21
3.588094908
  0
LINE
  5
55B
100
AcDbEntity
  8
CURVE
100
AcDbLine
 62
253
  6
CONTINUOUS
 10
-53.4192560385
 20
5.0738091826
 11
-53.604942028
 21
5.2595233798
  0
LINE
  5
55C
100
AcDbEntity
  8
CURVE
100
AcDbLine
 62
253
  6
CONTINUOUS
 10
-49.0310512063
 20
-10.825388
 11
-49.0310512063
 21
-9.364888
  0
LINE
  5
55D
100
AcDbEntity
  8
CURVE
100
AcDbLine
 62
253
  6
CONTINUOUS
 10
-48.2812796461
 20
-9.364888
 11
-48.2812796461
 21
-10.825388
  0
LINE
  5
55E
100
AcDbEntity
  8
CURVE
100
AcDbLine
 62
253
  6
CONTINUOUS
 10
-55.7059774945
 20
-8.724819
 11
-57.005581532
 21
-9.756944
  0
LINE
  5
55F
100
AcDbEntity
  8
CURVE
100
AcDbLine
 62
253
  6
CONTINUOUS
 10
-62.0117132674
 20
-7.92899
 11
-59.1129434625
 21
-7.039304
  0
LINE
  5
560
100
AcDbEntity
  8
CURVE
100
AcDbLine
 62
253
  6
CONTINUOUS
 10
-53.2335700491
 20
5.0738091826
 11
-53.4192560385
 21
5.0738091826
  0
LINE
  5
561
100
AcDbEntity
  8
CURVE
100
AcDbLine
 62
253
  6
CONTINUOUS
 10
-59.1049419004
 20
5.171133
 11
-62.0040595993
 21
5.171133
  0
LINE
  5
562
100
AcDbEntity
  8
CURVE
100
AcDbLine
 62
253
  6
CONTINUOUS
 10
-52.4908260331
 20
5.7238090277
 11
-52.6765120419
 21
5.7238090277
  0
LINE
  5
563
100
AcDbEntity
  8
CURVE
100
AcDbLine
 62
253
  6
CONTINUOUS
 10
-62.0040595993
 20
5.793739
 11
-59.5867281101
 21
5.793739
  0
LINE
  5
564
100
AcDbEntity
  8
CURVE
100
AcDbLine
 62
253
  6
CONTINUOUS
 10
-52.3051400243
 20
6.4666664362
 11
-53.604942028
 21
6.4666664362
  0
LINE
  5
565
100
AcDbEntity
  8
CURVE
100
AcDbLine
 62
253
  6
CONTINUOUS
 10
-59.5867281101
 20
6.866738
 11
-59.1049419004
 21
6.866738
  0
LINE
  5
566
100
AcDbEntity
  8
CURVE
100
AcDbLine
 62
253
  6
CONTINUOUS
 10
-60.2011798994
 20
8.151456
 11
-61.4500683889
 21
8.581471
  0
LINE
  5
567
100
AcDbEntity
  8
CURVE
100
AcDbLine
 62
253
  6
CONTINUOUS
 10
-59.1049419004
 20
7.773964
 11
-59.7193936897
 21
7.990812
  0
LINE
  5
568
100
AcDbEntity
  8
CURVE
100
AcDbLine
 62
253
  6
CONTINUOUS
 10
-62.0040595993
 20
8.227849
 11
-59.1049419004
 21
7.179514
  0
LINE
  5
569
100
AcDbEntity
  8
CURVE
100
AcDbLine
 62
253
  6
CONTINUOUS
 10
-52.3051400243
 20
5.5380948305
 11
-52.4908260331
 21
5.7238090277
  0
LINE
  5
56A
100
AcDbEntity
  8
CURVE
100
AcDbLine
 62
253
  6
CONTINUOUS
 10
-56.6720393215
 20
10.0285720825
 11
-57.2148137522
 21
10.5714292496
  0
LINE
  5
56B
100
AcDbEntity
  8
ASSI
100
AcDbLine
 62
7
  6
CONTINUOUS
 10
-45.6032666747
 20
19.0755051566
 11
-45.6032666747
 21
19.3683537664
  0
LINE
  5
56C
100
AcDbEntity
  8
CORPO
100
AcDbLine
 62
7
  6
CONTINUOUS
 10
-45.6032666747
 20
19.0755051566
 11
-45.6032666747
 21
19.3683537664
  0
LINE
  5
56D
100
AcDbEntity
  8
CURVE
100
AcDbLine
 62
253
  6
CONTINUOUS
 10
-59.1129434625
 20
-11.040105
 11
-61.0057857526
 21
-11.750162
  0
LINE
  5
56E
100
AcDbEntity
  8
CURVE
100
AcDbLine
 62
253
  6
CONTINUOUS
 10
-62.0117132674
 20
-11.593234
 11
-60.4023076199
 21
-10.994355
  0
LINE
  5
56F
100
AcDbEntity
  8
CURVE
100
AcDbLine
 62
253
  6
CONTINUOUS
 10
-52.3051400243
 20
7.2095235348
 11
-53.604942028
 21
7.2095235348
  0
LINE
  5
570
100
AcDbEntity
  8
CURVE
100
AcDbLine
 62
253
  6
CONTINUOUS
 10
-52.3051400243
 20
8.1380951405
 11
-53.604942028
 21
8.1380951405
  0
LINE
  5
571
100
AcDbEntity
  8
CURVE
100
AcDbLine
 62
253
  6
CONTINUOUS
 10
-53.4192560385
 20
8.7880951405
 11
-53.0478840596
 21
8.7880951405
  0
LINE
  5
572
100
AcDbEntity
  8
CURVE
100
AcDbLine
 62
253
  6
CONTINUOUS
 10
-53.0478840596
 20
8.7880951405
 11
-52.8621980314
 21
8.6023803234
  0
LINE
  5
573
100
AcDbEntity
  8
CURVE
100
AcDbLine
 62
253
  6
CONTINUOUS
 10
-56.6720393215
 20
12.607143414
 11
-57.2148137522
 21
13.150000751
  0
LINE
  5
574
100
AcDbEntity
  8
CURVE
100
AcDbLine
 62
253
  6
CONTINUOUS
 10
-57.2148137522
 20
14.3714294195
 11
-56.8077328725
 21
13.9642863035
  0
LINE
  5
575
100
AcDbEntity
  8
CURVE
100
AcDbLine
 62
253
  6
CONTINUOUS
 10
-52.3051400243
 20
10.1809519291
 11
-53.604942028
 21
10.1809519291
  0
LINE
  5
576
100
AcDbEntity
  8
CURVE
100
AcDbLine
 62
253
  6
CONTINUOUS
 10
-59.1049419004
 20
10.292325
 11
-62.0040595993
 21
10.292325
  0
LINE
  5
577
100
AcDbEntity
  8
CURVE
100
AcDbLine
 62
253
  6
CONTINUOUS
 10
-57.2148137522
 20
10.5714292496
 11
-55.3151031314
 21
10.5714292496
  0
LINE
  5
578
100
AcDbEntity
  8
CURVE
100
AcDbLine
 62
253
  6
CONTINUOUS
 10
-53.4192560385
 20
10.8309519291
 11
-52.4908260331
 21
10.8309519291
  0
LINE
  5
579
100
AcDbEntity
  8
CURVE
100
AcDbLine
 62
253
  6
CONTINUOUS
 10
-61.5313066373
 20
10.87477
 11
-59.1049419004
 21
10.87477
  0
LINE
  5
57A
100
AcDbEntity
  8
CURVE
100
AcDbLine
 62
253
  6
CONTINUOUS
 10
-55.7221839828
 20
11.1142864168
 11
-57.2148137522
 21
11.521429193
  0
LINE
  5
57B
100
AcDbEntity
  8
CURVE
100
AcDbLine
 62
253
  6
CONTINUOUS
 10
-62.0040595993
 20
14.252884
 11
-59.1049419004
 21
13.20444
  0
LINE
  5
57C
100
AcDbEntity
  8
CURVE
100
AcDbLine
 62
253
  6
CONTINUOUS
 10
-52.4908260331
 20
10.8309519291
 11
-52.3051400243
 21
10.6452377319
  0
LINE
  5
57D
100
AcDbEntity
  8
CURVE
100
AcDbLine
 62
253
  6
CONTINUOUS
 10
-55.3151031314
 20
14.3714294195
 11
-55.5864903751
 21
14.6428578615
  0
LINE
  5
57E
100
AcDbEntity
  8
CURVE
100
AcDbLine
 62
253
  6
CONTINUOUS
 10
-55.3151031314
 20
15.7285720825
 11
-55.5864903751
 21
16.0000005245
  0
LINE
  5
57F
100
AcDbEntity
  8
ASSI
100
AcDbLine
 62
7
  6
CONTINUOUS
 10
-42.7032666747
 20
16.3706876291
 11
-42.7032666747
 21
19.1093943488
  0
LINE
  5
580
100
AcDbEntity
  8
CORPO
100
AcDbLine
 62
7
  6
CONTINUOUS
 10
-42.7032666747
 20
16.3706876291
 11
-42.7032666747
 21
19.1093943488
  0
LINE
  5
581
100
AcDbEntity
  8
RACCORDO
100
AcDbLine
 62
7
  6
CONTINUOUS
 10
-41.2398483784
 20
18.6875844655
 11
-41.2598118255
 21
16.4
  0
LINE
  5
582
100
AcDbEntity
  8
PORTATASTO
100
AcDbLine
 62
7
  6
CONTINUOUS
 10
-68.9782666747
 20
-23.7278312164
 11
-68.2282666747
 21
-23.2948185145
  0
LINE
  5
583
100
AcDbEntity
  8
CURVE
100
AcDbLine
 62
253
  6
CONTINUOUS
 10
-55.7059774945
 20
-15.377131
 11
-57.005581532
 21
-16.0
  0
LINE
  5
584
100
AcDbEntity
  8
CURVE
100
AcDbLine
 62
253
  6
CONTINUOUS
 10
-55.7059774945
 20
-13.439776
 11
-57.005581532
 21
-14.01011
  0
LINE
  5
585
100
AcDbEntity
  8
CURVE
100
AcDbLine
 62
253
  6
CONTINUOUS
 10
-59.1129434625
 20
-15.081013
 11
-62.0117132674
 21
-16.00026
  0
LINE
  5
586
100
AcDbEntity
  8
CURVE
100
AcDbLine
 62
253
  6
CONTINUOUS
 10
-52.3051400243
 20
11.6047616005
 11
-53.604942028
 21
11.6047616005
  0
LINE
  5
587
100
AcDbEntity
  8
CURVE
100
AcDbLine
 62
253
  6
CONTINUOUS
 10
-55.3151031314
 20
11.7476197124
 11
-56.2649584418
 21
11.7476197124
  0
LINE
  5
588
100
AcDbEntity
  8
CURVE
100
AcDbLine
 62
253
  6
CONTINUOUS
 10
-52.3051400243
 20
12.1928570747
 11
-53.604942028
 21
12.1928570747
  0
LINE
  5
589
100
AcDbEntity
  8
CURVE
100
AcDbLine
 62
253
  6
CONTINUOUS
 10
-59.7066455738
 20
12.328754
 11
-62.0040595993
 21
12.328754
  0
LINE
  5
58A
100
AcDbEntity
  8
PORTATASTO
100
AcDbLine
 62
7
  6
CONTINUOUS
 10
-68.1032666747
 20
12.6998019735
 11
-69.1032666747
 21
12.6998019735
  0
LINE
  5
58B
100
AcDbEntity
  8
CURVE
100
AcDbLine
 62
253
  6
CONTINUOUS
 10
-62.0040595993
 20
12.911198
 11
-59.1049419004
 21
12.911198
  0
LINE
  5
58C
100
AcDbEntity
  8
CURVE
100
AcDbLine
 62
253
  6
CONTINUOUS
 10
-53.604942028
 20
12.9357138634
 11
-52.3051400243
 21
12.9357138634
  0
LINE
  5
58D
100
AcDbEntity
  8
CURVE
100
AcDbLine
 62
253
  6
CONTINUOUS
 10
-57.2148137522
 20
13.150000751
 11
-55.3151031314
 21
13.150000751
  0
LINE
  5
58E
100
AcDbEntity
  8
CURVE
100
AcDbLine
 62
253
  6
CONTINUOUS
 10
-52.3051400243
 20
13.3071422577
 11
-53.604942028
 21
13.3071422577
  0
LINE
  5
58F
100
AcDbEntity
  8
CURVE
100
AcDbLine
 62
253
  6
CONTINUOUS
 10
-60.2011798994
 20
14.176491
 11
-61.4499044389
 21
14.606449
  0
LINE
  5
590
100
AcDbEntity
  8
CURVE
100
AcDbLine
 62
253
  6
CONTINUOUS
 10
-59.1049419004
 20
13.798889
 11
-59.7193936897
 21
14.015846
  0
LINE
  5
591
100
AcDbEntity
  8
CURVE
100
AcDbLine
 62
253
  6
CONTINUOUS
 10
-56.8077328725
 20
13.9642863035
 11
-56.2649584418
 21
13.6928578615
  0
LINE
  5
592
100
AcDbEntity
  8
CURVE
100
AcDbLine
 62
253
  6
CONTINUOUS
 10
-52.8621980314
 20
12.5642854691
 11
-53.604942028
 21
12.9357138634
  0
LINE
  5
593
100
AcDbEntity
  8
CURVE
100
AcDbLine
 62
253
  6
CONTINUOUS
 10
-52.8621980314
 20
13.678570652
 11
-53.604942028
 21
14.0499990463
  0
LINE
  5
594
100
AcDbEntity
  8
PORTATASTO
100
AcDbLine
 62
7
  6
CONTINUOUS
 10
-68.2282666747
 20
23.2948185145
 11
-68.9782666747
 21
23.7278312164
  0
LINE
  5
595
100
AcDbEntity
  8
CURVE
100
AcDbLine
 62
253
  6
CONTINUOUS
 10
-53.0478840596
 20
15.9999990463
 11
-52.8621980314
 21
15.8142854691
  0
LINE
  5
596
100
AcDbEntity
  8
RACCORDO
100
AcDbLine
 62
253
  6
CONTINUOUS
 10
-40.7442275282
 20
17.1836780775
 11
-40.7510665831
 21
16.4
  0
LINE
  5
597
100
AcDbEntity
  8
RACCORDO
100
AcDbLine
 62
7
  6
CONTINUOUS
 10
-39.7598118255
 20
16.4
 11
-39.7602917625
 21
16.3450046761
  0
LINE
  5
598
100
AcDbEntity
  8
PORTATASTO
100
AcDbLine
 62
253
  6
CONTINUOUS
 10
-68.8545756657
 20
-23.9443375673
 11
-68.1045756657
 21
-23.5113248654
  0
LINE
  5
599
100
AcDbEntity
  8
CURVE
100
AcDbLine
 62
253
  6
CONTINUOUS
 10
-56.2649584418
 20
13.6928578615
 11
-55.5864903751
 21
13.6928578615
  0
LINE
  5
59A
100
AcDbEntity
  8
CURVE
100
AcDbLine
 62
253
  6
CONTINUOUS
 10
-53.604942028
 20
14.0499990463
 11
-52.3051400243
 21
14.0499990463
  0
LINE
  5
59B
100
AcDbEntity
  8
DRAFT
100
AcDbLine
 62
7
  6
CONTINUOUS
 10
-33.0766497279
 20
14.1
 11
-33.1032666747
 21
14.1
  0
LINE
  5
59C
100
AcDbEntity
  8
CURVE
100
AcDbLine
 62
253
  6
CONTINUOUS
 10
-52.3051400243
 20
14.4214286804
 11
-53.604942028
 21
14.4214286804
  0
LINE
  5
59D
100
AcDbEntity
  8
CURVE
100
AcDbLine
 62
253
  6
CONTINUOUS
 10
-55.5864903751
 20
14.6428578615
 11
-56.1292648341
 21
14.6428578615
  0
LINE
  5
59E
100
AcDbEntity
  8
CURVE
100
AcDbLine
 62
253
  6
CONTINUOUS
 10
-56.4006521061
 20
15.1857147455
 11
-57.2148137522
 21
15.1857147455
  0
LINE
  5
59F
100
AcDbEntity
  8
PORTATASTO
100
AcDbLine
 62
7
  6
CONTINUOUS
 10
-68.1032666747
 20
15.3001980265
 11
-69.1032666747
 21
15.3001980265
  0
LINE
  5
5A0
100
AcDbEntity
  8
CURVE
100
AcDbLine
 62
253
  6
CONTINUOUS
 10
-52.3051400243
 20
15.3499990463
 11
-53.604942028
 21
15.3499990463
  0
LINE
  5
5A1
100
AcDbEntity
  8
PORTATASTO
100
AcDbLine
 62
253
  6
CONTINUOUS
 10
-68.1045756657
 20
23.5113248654
 11
-68.8545756657
 21
23.9443375673
  0
LINE
  5
5A2
100
AcDbEntity
  8
PORTATASTO
100
AcDbLine
 62
253
  6
CONTINUOUS
 10
-68.1032666747
 20
16.9001028025
 11
-69.1032666747
 21
16.8739168809
  0
LINE
  5
5A3
100
AcDbEntity
  8
PORTATASTO
100
AcDbLine
 62
7
  6
CONTINUOUS
 10
-68.1032666747
 20
17.2
 11
-69.1032666747
 21
17.1738140784
  0
LINE
  5
5A4
100
AcDbEntity
  8
PORTATASTO
100
AcDbLine
 62
7
  6
CONTINUOUS
 10
-69.1032666747
 20
17.2389072728
 11
-68.1042501833
 21
17.2563451705
  0
LINE
  5
5A5
100
AcDbEntity
  8
RACCORDO
100
AcDbLine
 62
253
  6
CONTINUOUS
 10
-34.0851318838
 20
17.0674431307
 11
-33.1026223671
 21
17.0761696662
  0
LINE
  5
5A6
100
AcDbEntity
  8
CURVE
100
AcDbLine
 62
253
  6
CONTINUOUS
 10
-53.4192560385
 20
15.9999990463
 11
-53.0478840596
 21
15.9999990463
  0
LINE
  5
5A7
100
AcDbEntity
  8
CURVE
100
AcDbLine
 62
253
  6
CONTINUOUS
 10
-55.5864903751
 20
16.0000005245
 11
-56.1292648341
 21
16.0000005245
  0
LINE
  5
5A8
100
AcDbEntity
  8
RACCORDO
100
AcDbLine
 62
7
  6
CONTINUOUS
 10
-33.0967215239
 20
16.4
 11
-41.2598118255
 21
16.4
  0
LINE
  5
5A9
100
AcDbEntity
  8
DRAFT
100
AcDbLine
 62
7
  6
CONTINUOUS
 10
-42.1872412709
 20
16.65
 11
-41.2576301086
 21
16.65
  0
LINE
  5
5AA
100
AcDbEntity
  8
ASSI
100
AcDbLine
 62
253
  6
CONTINUOUS
 10
-42.7032666747
 20
17.5133593194
 11
-64.6032666747
 21
17.6716990487
  0
LINE
  5
5AB
100
AcDbEntity
  8
CORPO
100
AcDbLine
 62
253
  6
CONTINUOUS
 10
-42.7032666747
 20
17.5133593194
 11
-64.6032666747
 21
17.6716990487
  0
LINE
  5
5AC
100
AcDbEntity
  8
RACCORDO
100
AcDbLine
 62
253
  6
CONTINUOUS
 10
-40.7442275282
 20
17.1836780775
 11
-41.2529346929
 21
17.1880413452
  0
LINE
  5
5AD
100
AcDbEntity
  8
ASSI
100
AcDbLine
 62
7
  6
CONTINUOUS
 10
-33.1032666747
 20
16.2869096983
 11
-42.7032666747
 21
16.3706876291
  0
LINE
  5
5AE
100
AcDbEntity
  8
CORPO
100
AcDbLine
 62
7
  6
CONTINUOUS
 10
-33.1032666747
 20
16.2869096983
 11
-42.7032666747
 21
16.3706876291
  0
LINE
  5
5AF
100
AcDbEntity
  8
RACCORDO
100
AcDbLine
 62
253
  6
CONTINUOUS
 10
-40.7442275282
 20
17.1836780775
 11
-34.0851318838
 21
17.0674431307
  0
LINE
  5
5B0
100
AcDbEntity
  8
PORTATASTO
100
AcDbLine
 62
7
  6
CONTINUOUS
 10
-66.6032666747
 20
18.5
 11
-64.6032666747
 21
18.1473460386
  0
LINE
  5
5B1
100
AcDbEntity
  8
ASSI
100
AcDbLine
 62
253
  6
CONTINUOUS
 10
-54.443685443
 20
-19.52266385
 11
-54.6032666747
 21
-19.5807466683
  0
LINE
  5
5B2
100
AcDbEntity
  8
CORPO
100
AcDbLine
 62
253
  6
CONTINUOUS
 10
-54.443685443
 20
-19.52266385
 11
-54.6032666747
 21
-19.5807466683
  0
LINE
  5
5B3
100
AcDbEntity
  8
ASSI
100
AcDbLine
 62
7
  6
CONTINUOUS
 10
-53.5223597407
 20
-19.50658205
 11
-54.6032666747
 21
-19.9
  0
LINE
  5
5B4
100
AcDbEntity
  8
CORPO
100
AcDbLine
 62
7
  6
CONTINUOUS
 10
-53.5223597407
 20
-19.50658205
 11
-54.6032666747
 21
-19.9
  0
LINE
  5
5B5
100
AcDbEntity
  8
PORTATASTO
100
AcDbLine
 62
7
  6
CONTINUOUS
 10
-69.1032666747
 20
18.0078557765
 11
-68.1032666747
 21
18.034041698
  0
LINE
  5
5B6
100
AcDbEntity
  8
PORTATASTO
100
AcDbLine
 62
253
  6
CONTINUOUS
 10
-69.1032666747
 20
19.6739168809
 11
-68.1032666747
 21
19.7001028025
  0
LINE
  5
5B7
100
AcDbEntity
  8
PORTATASTO
100
AcDbLine
 62
7
  6
CONTINUOUS
 10
-65.6032666747
 20
18.5587268678
 11
-64.6032666747
 21
18.5674537356
  0
LINE
  5
5B8
100
AcDbEntity
  8
PORTATASTO
100
AcDbLine
 62
7
  6
CONTINUOUS
 10
-65.6032666747
 20
19.5
 11
-64.6032666747
 21
19.5
  0
LINE
  5
5B9
100
AcDbEntity
  8
PORTATASTO
100
AcDbLine
 62
7
  6
CONTINUOUS
 10
-54.6032666747
 20
19.7
 11
-58.5032666747
 21
19.7
  0
LINE
  5
5BA
100
AcDbEntity
  8
PORTATASTO
100
AcDbLine
 62
7
  6
CONTINUOUS
 10
-64.6032666747
 20
19.7
 11
-65.6032666747
 21
19.7
  0
LINE
  5
5BB
100
AcDbEntity
  8
ASSI
100
AcDbLine
 62
253
  6
CONTINUOUS
 10
-42.7032666747
 20
18.9273574902
 11
-64.6032666747
 21
19.0856972195
  0
LINE
  5
5BC
100
AcDbEntity
  8
CORPO
100
AcDbLine
 62
253
  6
CONTINUOUS
 10
-42.7032666747
 20
18.9273574902
 11
-64.6032666747
 21
19.0856972195
  0
LINE
  5
5BD
100
AcDbEntity
  8
ASSI
100
AcDbLine
 62
253
  6
CONTINUOUS
 10
-58.5032666747
 20
19.3006754942
 11
-45.6032666747
 21
19.0755051566
  0
LINE
  5
5BE
100
AcDbEntity
  8
CORPO
100
AcDbLine
 62
253
  6
CONTINUOUS
 10
-58.5032666747
 20
19.3006754942
 11
-45.6032666747
 21
19.0755051566
  0
LINE
  5
5BF
100
AcDbEntity
  8
RACCORDO
100
AcDbLine
 62
7
  6
CONTINUOUS
 10
-40.7311412136
 20
19.1831450453
 11
-34.0938587518
 21
19.067290849
  0
LINE
  5
5C0
100
AcDbEntity
  8
ASSI
100
AcDbLine
 62
7
  6
CONTINUOUS
 10
-34.0858142683
 20
19.1673158868
 11
-58.5032666747
 21
19.5935241039
  0
LINE
  5
5C1
100
AcDbEntity
  8
CORPO
100
AcDbLine
 62
7
  6
CONTINUOUS
 10
-34.0858142683
 20
19.1673158868
 11
-58.5032666747
 21
19.5935241039
  0
LINE
  5
5C2
100
AcDbEntity
  8
ASSI
100
AcDbLine
 62
7
  6
CONTINUOUS
 10
-45.6032666747
 20
19.1809813985
 11
-42.7032666747
 21
19.1093943488
  0
LINE
  5
5C3
100
AcDbEntity
  8
CORPO
100
AcDbLine
 62
7
  6
CONTINUOUS
 10
-45.6032666747
 20
19.1809813985
 11
-42.7032666747
 21
19.1093943488
  0
LINE
  5
5C4
100
AcDbEntity
  8
ASSI
100
AcDbLine
 62
253
  6
CONTINUOUS
 10
-75.2007393749
 20
20.372221817
 11
-75.6872348629
 21
20.3926144311
  0
LINE
  5
5C5
100
AcDbEntity
  8
RACCORDO
100
AcDbLine
 62
253
  6
CONTINUOUS
 10
-75.2007393749
 20
20.372221817
 11
-75.6872348629
 21
20.3926144311
  0
LINE
  5
5C6
100
AcDbEntity
  8
ASSI
100
AcDbLine
 62
253
  6
CONTINUOUS
 10
-54.6032666747
 20
19.5807466683
 11
-54.443685443
 21
19.52266385
  0
LINE
  5
5C7
100
AcDbEntity
  8
CORPO
100
AcDbLine
 62
253
  6
CONTINUOUS
 10
-54.6032666747
 20
19.5807466683
 11
-54.443685443
 21
19.52266385
  0
LINE
  5
5C8
100
AcDbEntity
  8
ASSI
100
AcDbLine
 62
7
  6
CONTINUOUS
 10
-54.6032666747
 20
19.9
 11
-53.5223597407
 21
19.50658205
  0
LINE
  5
5C9
100
AcDbEntity
  8
CORPO
100
AcDbLine
 62
7
  6
CONTINUOUS
 10
-54.6032666747
 20
19.9
 11
-53.5223597407
 21
19.50658205
  0
LINE
  5
5CA
100
AcDbEntity
  8
DRAFT
100
AcDbLine
 62
7
  6
CONTINUOUS
 10
-34.5958482721
 20
16.2999352606
 11
-34.5967215239
 21
16.4
  0
LINE
  5
5CB
100
AcDbEntity
  8
RACCORDO
100
AcDbLine
 62
253
  6
CONTINUOUS
 10
-34.0793071958
 20
16.4
 11
-34.0851318838
 21
17.0674431307
  0
LINE
  5
5CC
100
AcDbEntity
  8
DRAFT
100
AcDbLine
 62
7
  6
CONTINUOUS
 10
-33.0766497279
 20
14.1
 11
-33.0967215239
 21
16.4
  0
LINE
  5
5CD
100
AcDbEntity
  8
RACCORDO
100
AcDbLine
 62
7
  6
CONTINUOUS
 10
-33.0967215239
 20
16.4
 11
-33.1113492351
 21
18.0761696894
  0
LINE
  5
5CE
100
AcDbEntity
  8
ASSI
100
AcDbLine
 62
253
  6
CONTINUOUS
 10
-34.0858142683
 20
16.2954842613
 11
-34.0858142683
 21
-17.4510540646
  0
LINE
  5
5CF
100
AcDbEntity
  8
CORPO
100
AcDbLine
 62
253
  6
CONTINUOUS
 10
-34.0858142683
 20
16.2954842613
 11
-34.0858142683
 21
-17.4510540646
  0
LINE
  5
5D0
100
AcDbEntity
  8
ASSI
100
AcDbLine
 62
253
  6
CONTINUOUS
 10
-34.0858142683
 20
-18.8650522354
 11
-34.0858142683
 21
-18.874467277
  0
LINE
  5
5D1
100
AcDbEntity
  8
CORPO
100
AcDbLine
 62
253
  6
CONTINUOUS
 10
-34.0858142683
 20
-18.8650522354
 11
-34.0858142683
 21
-18.874467277
  0
LINE
  5
5D2
100
AcDbEntity
  8
ASSI
100
AcDbLine
 62
7
  6
CONTINUOUS
 10
-33.1032666747
 20
18.1674681916
 11
-33.1032666747
 21
17.15
  0
LINE
  5
5D3
100
AcDbEntity
  8
CORPO
100
AcDbLine
 62
7
  6
CONTINUOUS
 10
-33.1032666747
 20
18.1674681916
 11
-33.1032666747
 21
17.15
  0
LINE
  5
5D4
100
AcDbEntity
  8
ASSI
100
AcDbLine
 62
7
  6
CONTINUOUS
 10
-33.1032666747
 20
16.2869096983
 11
-33.1032666747
 21
-18.1674681916
  0
LINE
  5
5D5
100
AcDbEntity
  8
CORPO
100
AcDbLine
 62
7
  6
CONTINUOUS
 10
-33.1032666747
 20
16.2869096983
 11
-33.1032666747
 21
-18.1674681916
  0
LINE
  5
5D6
100
AcDbEntity
  8
CURVE
100
AcDbLine
 62
253
  6
CONTINUOUS
 10
-33.1032666747
 20
-17.5461413672
 11
-33.1032666747
 21
-17.4949747482
  0
LINE
  5
5D7
100
AcDbEntity
  8
PORTATASTO
100
AcDbLine
 62
7
  6
CONTINUOUS
 10
-69.1032666747
 20
19.9738140784
 11
-68.1032666747
 21
20.0
  0
LINE
  5
5D8
100
AcDbEntity
  8
PORTATASTO
100
AcDbLine
 62
7
  6
CONTINUOUS
 10
-54.6032666747
 20
20.9959955457
 11
-65.6032666747
 21
20.9
  0
LINE
  5
5D9
100
AcDbEntity
  8
PORTATASTO
100
AcDbLine
 62
7
  6
CONTINUOUS
 10
-55.0945404715
 20
21.4537354271
 11
-65.6032666747
 21
21.4
  0
LINE
  5
5DA
100
AcDbEntity
  8
PORTATASTO
100
AcDbLine
 62
253
  6
CONTINUOUS
 10
-65.6032666747
 20
21.8441990932
 11
-66.6032666747
 21
21.850016923
  0
LINE
  5
5DB
100
AcDbEntity
  8
PORTATASTO
100
AcDbLine
 62
7
  6
CONTINUOUS
 10
-55.5974489433
 20
22.2859700255
 11
-66.6032666747
 21
22.35
  0
LINE
  5
5DC
100
AcDbEntity
  8
ASSI
100
AcDbLine
 62
7
  6
CONTINUOUS
 10
-58.5032666747
 20
20.7435241039
 11
-64.6032666747
 21
20.85
  0
LINE
  5
5DD
100
AcDbEntity
  8
CORPO
100
AcDbLine
 62
7
  6
CONTINUOUS
 10
-58.5032666747
 20
20.7435241039
 11
-64.6032666747
 21
20.85
  0
LINE
  5
5DE
100
AcDbEntity
  8
0
100
AcDbLine
 62
7
  6
CONTINUOUS
 10
-42.7032666747
 20
16.9479274058
 11
-42.1872412709
 21
16.65
  0
LINE
  5
5DF
100
AcDbEntity
  8
ASSI
100
AcDbLine
 62
7
  6
CONTINUOUS
 10
-45.4783834424
 20
19.1778986322
 11
-45.6032666747
 21
19.25
  0
LINE
  5
5E0
100
AcDbEntity
  8
CORPO
100
AcDbLine
 62
7
  6
CONTINUOUS
 10
-45.4783834424
 20
19.1778986322
 11
-45.6032666747
 21
19.25
  0
LINE
  5
5E1
100
AcDbEntity
  8
ASSI
100
AcDbLine
 62
253
  6
CONTINUOUS
 10
-69.1032666747
 20
21.5999997649
 11
-74.2539073947
 21
21.3300661228
  0
LINE
  5
5E2
100
AcDbEntity
  8
RACCORDO
100
AcDbLine
 62
253
  6
CONTINUOUS
 10
-69.1032666747
 20
21.5999997649
 11
-74.2539073947
 21
21.3300661228
  0
LINE
  5
5E3
100
AcDbEntity
  8
PORTATASTO
100
AcDbLine
 62
253
  6
CONTINUOUS
 10
-66.6032666747
 20
21.8497711479
 11
-68.1032666747
 21
21.771159479
  0
LINE
  5
5E4
100
AcDbEntity
  8
ASSI
100
AcDbLine
 62
7
  6
CONTINUOUS
 10
-69.1032666747
 20
22.1
 11
-74.2669868987
 21
21.8293808902
  0
LINE
  5
5E5
100
AcDbEntity
  8
RACCORDO
100
AcDbLine
 62
7
  6
CONTINUOUS
 10
-69.1032666747
 20
22.1
 11
-74.2669868987
 21
21.8293808902
  0
LINE
  5
5E6
100
AcDbEntity
  8
PORTATASTO
100
AcDbLine
 62
7
  6
CONTINUOUS
 10
-66.6032666747
 20
22.35
 11
-68.1032666747
 21
22.2713883311
  0
LINE
  5
5E7
100
AcDbEntity
  8
PORTATASTO
100
AcDbLine
 62
253
  6
CONTINUOUS
 10
-68.8545756657
 20
24.2329794573
 11
-65.6032666747
 21
24.2500034269
  0
LINE
  5
5E8
100
AcDbEntity
  8
PORTATASTO
100
AcDbLine
 62
253
  6
CONTINUOUS
 10
-68.1032666747
 20
23.0783121635
 11
-67.8545756657
 21
23.0783121635
  0
LINE
  5
5E9
100
AcDbEntity
  8
PORTATASTO
100
AcDbLine
 62
253
  6
CONTINUOUS
 10
-68.8545756657
 20
23.9443375673
 11
-69.1032666747
 21
23.9443375673
  0
LINE
  5
5EA
100
AcDbEntity
  8
PORTATASTO
100
AcDbLine
 62
253
  6
CONTINUOUS
 10
-69.1032666747
 20
24.2329794573
 11
-68.8545756657
 21
24.2329794573
  0
LINE
  5
5EB
100
AcDbEntity
  8
PORTATASTO
100
AcDbLine
 62
7
  6
CONTINUOUS
 10
-65.6032666747
 20
23.8
 11
-59.0980307826
 21
23.7659383532
  0
LINE
  5
5EC
100
AcDbEntity
  8
PORTATASTO
100
AcDbLine
 62
7
  6
CONTINUOUS
 10
-68.8545756657
 20
24.4829760304
 11
-65.6032666747
 21
24.5
  0
ARC
  5
5ED
100
AcDbEntity
  8
ASSI
100
AcDbCircle
 62
253
  6
CONTINUOUS
 10
-21.5147610663
 20
-21.3289600888
 40
0.5003982716
100
AcDbArc
 50
180.1266495967
 51
269.9386308712
  0
ARC
  5
5EE
100
AcDbEntity
  8
RACCORDO
100
AcDbCircle
 62
253
  6
CONTINUOUS
 10
-21.5147604868
 20
-21.3289792281
 40
0.5003855359
100
AcDbArc
 50
180.1244578565
 51
269.9385621791
  0
ARC
  5
5EF
100
AcDbEntity
  8
PORTATASTO
100
AcDbCircle
 62
7
  6
CONTINUOUS
 10
-15.25
 20
-23.15
 40
0.5
100
AcDbArc
 50
144.1420797215
 51
216.2517105092
  0
ARC
  5
5F0
100
AcDbEntity
  8
PORTATASTO
100
AcDbCircle
 62
7
  6
CONTINUOUS
 10
-21.85003796
 20
-21.8500492892
 40
0.4999540432
100
AcDbArc
 50
179.9681249369
 51
269.9607325142
  0
ARC
  5
5F1
100
AcDbEntity
  8
PORTATASTO
100
AcDbCircle
 62
7
  6
CONTINUOUS
 10
-19.8170288037
 20
-24.2329711963
 40
0.2500048342
100
AcDbArc
 50
270.0018932459
 51
359.9981067541
  0
ARC
  5
5F2
100
AcDbEntity
  8
PORTATASTO
100
AcDbCircle
 62
7
  6
CONTINUOUS
 10
-21.5579711963
 20
-24.2329711963
 40
0.2500048342
100
AcDbArc
 50
180.0018932365
 51
269.9981067635
  0
ARC
  5
5F3
100
AcDbEntity
  8
PORTATASTO
100
AcDbCircle
 62
7
  6
CONTINUOUS
 10
-7.25
 20
-23.15
 40
0.5
100
AcDbArc
 50
323.7482894908
 51
35.8579202785
  0
ARC
  5
5F4
100
AcDbEntity
  8
PORTATASTO
100
AcDbCircle
 62
7
  6
CONTINUOUS
 10
-2.6829711963
 20
-24.2329711963
 40
0.2500048342
100
AcDbArc
 50
180.0018932365
 51
269.9981067635
  0
ARC
  5
5F5
100
AcDbEntity
  8
PORTATASTO
100
AcDbCircle
 62
7
  6
CONTINUOUS
 10
-0.9420288037
 20
-24.2329711963
 40
0.2500048342
100
AcDbArc
 50
270.0018932459
 51
359.9981067541
  0
ARC
  5
5F6
100
AcDbEntity
  8
ASSI
100
AcDbCircle
 62
7
  6
CONTINUOUS
 10
-6.0599141031
 20
-15.0004097327
 40
0.199558944
100
AcDbArc
 50
270.0126032012
 51
313.3397664114
  0
ARC
  5
5F7
100
AcDbEntity
  8
RACCORDO
100
AcDbCircle
 62
7
  6
CONTINUOUS
 10
-6.0601406555
 20
-15.0011803377
 40
0.1988196793
100
AcDbArc
 50
270.0237462423
 51
277.7583311056
  0
ARC
  5
5F8
100
AcDbEntity
  8
ASSI
100
AcDbCircle
 62
253
  6
CONTINUOUS
 10
-3.047457
 20
-14.912166
 40
0.1500000649
100
AcDbArc
 50
133.3486380655
 51
269.9644713689
  0
ARC
  5
5F9
100
AcDbEntity
  8
INCISIONI
100
AcDbCircle
 62
253
  6
CONTINUOUS
 10
-3.047457
 20
-14.912166
 40
0.1500000649
100
AcDbArc
 50
133.3486380655
 51
269.9644713689
  0
ARC
  5
5FA
100
AcDbEntity
  8
ASSI
100
AcDbCircle
 62
253
  6
CONTINUOUS
 10
-3.049896
 20
-13.949453
 40
0.1486307611
100
AcDbArc
 50
133.3263056072
 51
313.3306616468
  0
ARC
  5
5FB
100
AcDbEntity
  8
INCISIONI
100
AcDbCircle
 62
253
  6
CONTINUOUS
 10
-3.049896
 20
-13.949453
 40
0.1486307611
100
AcDbArc
 50
133.3263056072
 51
313.3306616468
  0
ARC
  5
5FC
100
AcDbEntity
  8
RACCORDO
100
AcDbCircle
 62
7
  6
CONTINUOUS
 10
-6.0600519857
 20
-11.3998620044
 40
0.1998620045
100
AcDbArc
 50
46.6099121443
 51
90.0017971752
  0
ARC
  5
5FD
100
AcDbEntity
  8
ASSI
100
AcDbCircle
 62
7
  6
CONTINUOUS
 10
-6.059913976
 20
-11.3995900106
 40
0.1995586602
100
AcDbArc
 50
46.6601388642
 51
89.9877664669
  0
ARC
  5
5FE
100
AcDbEntity
  8
ASSI
100
AcDbCircle
 62
253
  6
CONTINUOUS
 10
-2.0994130745
 20
-13.2005364192
 40
4.5641896666
100
AcDbArc
 50
90.0073680068
 51
269.9926319932
  0
ARC
  5
5FF
100
AcDbEntity
  8
RACCORDO
100
AcDbCircle
 62
253
  6
CONTINUOUS
 10
-2.0994280534
 20
-13.2005364096
 40
4.5641869492
100
AcDbArc
 50
90.0071799681
 51
269.992820032
  0
ARC
  5
600
100
AcDbEntity
  8
ASSI
100
AcDbCircle
 62
253
  6
CONTINUOUS
 10
-2.0996256168
 20
-13.1950000399
 40
4.4661036006
100
AcDbArc
 50
267.2681379746
 51
269.9951970261
  0
ARC
  5
601
100
AcDbEntity
  8
ASSI
100
AcDbCircle
 62
253
  6
CONTINUOUS
 10
-2.0996378123
 20
-13.2005443573
 40
4.4658553728
100
AcDbArc
 50
90.0046467752
 51
92.7324625726
  0
ARC
  5
602
100
AcDbEntity
  8
ASSI
100
AcDbCircle
 62
253
  6
CONTINUOUS
 10
-2.1004030849
 20
-13.1978961663
 40
4.4631332782
100
AcDbArc
 50
92.7242702643
 51
267.2763353245
  0
ARC
  5
603
100
AcDbEntity
  8
RACCORDO
100
AcDbCircle
 62
253
  6
CONTINUOUS
 10
-2.1004185274
 20
-13.1978964202
 40
4.4631209363
100
AcDbArc
 50
93.7292033615
 51
266.287886116
  0
ARC
  5
604
100
AcDbEntity
  8
RACCORDO
100
AcDbCircle
 62
253
  6
CONTINUOUS
 10
-2.0994938174
 20
-13.1996104385
 40
4.4614932151
100
AcDbArc
 50
266.274610515
 51
269.9934994575
  0
ARC
  5
605
100
AcDbEntity
  8
RACCORDO
100
AcDbCircle
 62
253
  6
CONTINUOUS
 10
-2.0995031086
 20
-13.1959391792
 40
4.4612502076
100
AcDbArc
 50
90.0063815698
 51
93.7425701025
  0
ARC
  5
606
100
AcDbEntity
  8
ASSI
100
AcDbCircle
 62
7
  6
CONTINUOUS
 10
-2.1
 20
-13.2
 40
4.4534904813
100
AcDbArc
 50
90.0
 51
153.2143513583
  0
ARC
  5
607
100
AcDbEntity
  8
SMUSSO
100
AcDbCircle
 62
7
  6
CONTINUOUS
 10
-2.1
 20
-13.2
 40
4.4534904813
100
AcDbArc
 50
90.0
 51
153.2143513583
  0
ARC
  5
608
100
AcDbEntity
  8
ASSI
100
AcDbCircle
 62
7
  6
CONTINUOUS
 10
-2.1
 20
-13.2
 40
4.45
100
AcDbArc
 50
153.2923546979
 51
270.0
  0
ARC
  5
609
100
AcDbEntity
  8
DRAFT
100
AcDbCircle
 62
7
  6
CONTINUOUS
 10
-2.1
 20
-13.2
 40
4.45
100
AcDbArc
 50
206.7076453021
 51
270.0
  0
ARC
  5
60A
100
AcDbEntity
  8
SMUSSO
100
AcDbCircle
 62
7
  6
CONTINUOUS
 10
-2.1
 20
-13.2
 40
4.45
100
AcDbArc
 50
153.2923546979
 51
206.7076453021
  0
ARC
  5
60B
100
AcDbEntity
  8
DRAFT
100
AcDbCircle
 62
7
  6
CONTINUOUS
 10
-2.1
 20
-13.2
 40
4.3
100
AcDbArc
 50
216.2683892899
 51
269.99635809
  0
ARC
  5
60C
100
AcDbEntity
  8
ASSI
100
AcDbCircle
 62
7
  6
CONTINUOUS
 10
-2.1
 20
-13.2
 40
4.3
100
AcDbArc
 50
216.2683892899
 51
269.99635809
  0
ARC
  5
60D
100
AcDbEntity
  8
DRAFT
100
AcDbCircle
 62
7
  6
CONTINUOUS
 10
-2.1
 20
-13.2
 40
4.293017974
100
AcDbArc
 50
89.9963039701
 51
144.2408799387
  0
ARC
  5
60E
100
AcDbEntity
  8
ASSI
100
AcDbCircle
 62
7
  6
CONTINUOUS
 10
-2.1
 20
-13.2
 40
4.293017974
100
AcDbArc
 50
89.9963039701
 51
144.2408799387
  0
ARC
  5
60F
100
AcDbEntity
  8
DRAFT
100
AcDbCircle
 62
7
  6
CONTINUOUS
 10
-2.1
 20
-13.2
 40
4.2912724675
100
AcDbArc
 50
144.3679448432
 51
215.6320551568
  0
ARC
  5
610
100
AcDbEntity
  8
ASSI
100
AcDbCircle
 62
7
  6
CONTINUOUS
 10
-2.1
 20
-13.2
 40
4.2912724675
100
AcDbArc
 50
144.3679448432
 51
215.6320551568
  0
ARC
  5
611
100
AcDbEntity
  8
ASSI
100
AcDbCircle
 62
7
  6
CONTINUOUS
 10
-2.0966979041
 20
-13.2052328342
 40
4.2853766524
100
AcDbArc
 50
134.9868230619
 51
146.2303256104
  0
ARC
  5
612
100
AcDbEntity
  8
ASSI
100
AcDbCircle
 62
7
  6
CONTINUOUS
 10
-2.0991464384
 20
-13.2031665853
 40
4.2821828546
100
AcDbArc
 50
149.9859772906
 51
210.0253572297
  0
ARC
  5
613
100
AcDbEntity
  8
RACCORDO
100
AcDbCircle
 62
7
  6
CONTINUOUS
 10
-2.0994683405
 20
-13.2031671484
 40
4.2819134796
100
AcDbArc
 50
90.0071142009
 51
269.9928857991
  0
ARC
  5
614
100
AcDbEntity
  8
ASSI
100
AcDbCircle
 62
7
  6
CONTINUOUS
 10
-2.1000929618
 20
-13.2041468715
 40
4.2808227495
100
AcDbArc
 50
217.5271626723
 51
266.2718685619
  0
ARC
  5
615
100
AcDbEntity
  8
ASSI
100
AcDbCircle
 62
7
  6
CONTINUOUS
 10
-2.1001074565
 20
-13.2021379537
 40
4.2807722626
100
AcDbArc
 50
93.7339380064
 51
146.2369630048
  0
ARC
  5
616
100
AcDbEntity
  8
ASSI
100
AcDbCircle
 62
7
  6
CONTINUOUS
 10
-2.1016685309
 20
-13.2013561622
 40
4.2790898301
100
AcDbArc
 50
146.2364801094
 51
149.9900754802
  0
ARC
  5
617
100
AcDbEntity
  8
ASSI
100
AcDbCircle
 62
7
  6
CONTINUOUS
 10
-2.0995226859
 20
-13.1995718545
 40
4.2782413637
100
AcDbArc
 50
90.0063923655
 51
93.7439908848
  0
ARC
  5
618
100
AcDbEntity
  8
ASSI
100
AcDbCircle
 62
7
  6
CONTINUOUS
 10
-2.0995485205
 20
-13.2070969443
 40
4.2779068631
100
AcDbArc
 50
266.2620229349
 51
269.9939531485
  0
ARC
  5
619
100
AcDbEntity
  8
ASSI
100
AcDbCircle
 62
7
  6
CONTINUOUS
 10
-2.1046161892
 20
-13.2068137685
 40
4.275618601
100
AcDbArc
 50
210.0197186076
 51
217.535742336
  0
ARC
  5
61A
100
AcDbEntity
  8
ASSI
100
AcDbCircle
 62
253
  6
CONTINUOUS
 10
-2.0984602121
 20
-13.2198438747
 40
4.1956106821
100
AcDbArc
 50
93.7668785116
 51
97.4858695253
  0
ARC
  5
61B
100
AcDbEntity
  8
ASSI
100
AcDbCircle
 62
253
  6
CONTINUOUS
 10
-2.0984805282
 20
-13.195479769
 40
4.1952910183
100
AcDbArc
 50
262.5227850745
 51
266.2382957761
  0
ARC
  5
61C
100
AcDbEntity
  8
ASSI
100
AcDbCircle
 62
253
  6
CONTINUOUS
 10
-2.0965469244
 20
-13.2075017032
 40
4.1848000883
100
AcDbArc
 50
149.9856085235
 51
210.0215162621
  0
ARC
  5
61D
100
AcDbEntity
  8
RACCORDO
100
AcDbCircle
 62
253
  6
CONTINUOUS
 10
-2.098018267
 20
-13.2075015326
 40
4.1835326978
100
AcDbArc
 50
90.0271427814
 51
269.9728572186
  0
ARC
  5
61E
100
AcDbEntity
  8
ASSI
100
AcDbCircle
 62
253
  6
CONTINUOUS
 10
-2.0992721344
 20
-13.205554948
 40
4.181299286
100
AcDbArc
 50
90.0099738444
 51
93.768640324
  0
ARC
  5
61F
100
AcDbEntity
  8
ASSI
100
AcDbCircle
 62
253
  6
CONTINUOUS
 10
-2.0999732562
 20
-13.2052832132
 40
4.1807177249
100
AcDbArc
 50
97.4964716427
 51
149.9884464913
  0
ARC
  5
620
100
AcDbEntity
  8
ASSI
100
AcDbCircle
 62
253
  6
CONTINUOUS
 10
-2.0993204419
 20
-13.21020453
 40
4.1805428789
100
AcDbArc
 50
266.2365422773
 51
269.9906864229
  0
ARC
  5
621
100
AcDbEntity
  8
ASSI
100
AcDbCircle
 62
253
  6
CONTINUOUS
 10
-2.0998983653
 20
-13.2103963188
 40
4.1803293225
100
AcDbArc
 50
217.5094997625
 51
262.5154476828
  0
ARC
  5
622
100
AcDbEntity
  8
ASSI
100
AcDbCircle
 62
253
  6
CONTINUOUS
 10
-2.1029298624
 20
-13.2115626223
 40
4.1772359521
100
AcDbArc
 50
210.0170920803
 51
217.5221280454
  0
ARC
  5
623
100
AcDbEntity
  8
ASSI
100
AcDbCircle
 62
253
  6
CONTINUOUS
 10
-0.002063
 20
-12.037447
 40
0.1500003362
100
AcDbArc
 50
46.7815501355
 51
133.348638105
  0
ARC
  5
624
100
AcDbEntity
  8
INCISIONI
100
AcDbCircle
 62
253
  6
CONTINUOUS
 10
-0.002063
 20
-12.037447
 40
0.1500003362
100
AcDbArc
 50
46.7815501355
 51
133.348638105
  0
ARC
  5
625
100
AcDbEntity
  8
ASSI
100
AcDbCircle
 62
253
  6
CONTINUOUS
 10
-0.002465
 20
-11.070494
 40
0.1476714236
100
AcDbArc
 50
46.7816198543
 51
136.8042454743
  0
ARC
  5
626
100
AcDbEntity
  8
INCISIONI
100
AcDbCircle
 62
253
  6
CONTINUOUS
 10
-0.002465
 20
-11.070494
 40
0.1476714236
100
AcDbArc
 50
46.7816198543
 51
136.8042454743
  0
ARC
  5
627
100
AcDbEntity
  8
ASSI
100
AcDbCircle
 62
253
  6
CONTINUOUS
 10
-19126.8561466162
 20
0.0000000013
 40
19105.3765268376
100
AcDbArc
 50
359.9388438664
 51
0.0611561336
  0
ARC
  5
628
100
AcDbEntity
  8
RACCORDO
100
AcDbCircle
 62
253
  6
CONTINUOUS
 10
-19125.9929095141
 20
0.0000000013
 40
19104.5132899038
100
AcDbArc
 50
359.9388411031
 51
0.0611588969
  0
ARC
  5
629
100
AcDbEntity
  8
ASSI
100
AcDbCircle
 62
253
  6
CONTINUOUS
 10
-19089.1643988708
 20
-0.0
 40
19067.1849504297
100
AcDbArc
 50
359.9387826491
 51
0.0612173509
  0
ARC
  5
62A
100
AcDbEntity
  8
RACCORDO
100
AcDbCircle
 62
253
  6
CONTINUOUS
 10
-19088.3028630378
 20
-0.0
 40
19066.323414765
100
AcDbArc
 50
359.9387798829
 51
0.0612201171
  0
ARC
  5
62B
100
AcDbEntity
  8
ASSI
100
AcDbCircle
 62
253
  6
CONTINUOUS
 10
-21.5147610775
 20
21.3289600822
 40
0.5003982674
100
AcDbArc
 50
90.0613678127
 51
179.8733496494
  0
ARC
  5
62C
100
AcDbEntity
  8
RACCORDO
100
AcDbCircle
 62
253
  6
CONTINUOUS
 10
-21.5147604757
 20
21.3289792173
 40
0.5003855611
100
AcDbArc
 50
90.0614390668
 51
179.8755409139
  0
ARC
  5
62D
100
AcDbEntity
  8
PORTATASTO
100
AcDbCircle
 62
7
  6
CONTINUOUS
 10
-15.25
 20
23.15
 40
0.5
100
AcDbArc
 50
143.7482894908
 51
215.8579202785
  0
ARC
  5
62E
100
AcDbEntity
  8
PORTATASTO
100
AcDbCircle
 62
7
  6
CONTINUOUS
 10
-7.25
 20
23.15
 40
0.5
100
AcDbArc
 50
324.1420797215
 51
36.2517105092
  0
ARC
  5
62F
100
AcDbEntity
  8
PORTATASTO
100
AcDbCircle
 62
7
  6
CONTINUOUS
 10
-21.8500381775
 20
21.8500495607
 40
0.499953721
100
AcDbArc
 50
89.996352029
 51
180.0037402902
  0
ARC
  5
630
100
AcDbEntity
  8
PORTATASTO
100
AcDbCircle
 62
7
  6
CONTINUOUS
 10
-19.8170288037
 20
24.2329711963
 40
0.2500048342
100
AcDbArc
 50
0.0018932365
 51
89.9981067635
  0
ARC
  5
631
100
AcDbEntity
  8
PORTATASTO
100
AcDbCircle
 62
7
  6
CONTINUOUS
 10
-21.5579711963
 20
24.2329711963
 40
0.2500048342
100
AcDbArc
 50
90.0018932459
 51
179.9981067541
  0
ARC
  5
632
100
AcDbEntity
  8
PORTATASTO
100
AcDbCircle
 62
7
  6
CONTINUOUS
 10
-2.6829711963
 20
24.2329711963
 40
0.2500048342
100
AcDbArc
 50
90.0018932459
 51
179.9981067541
  0
ARC
  5
633
100
AcDbEntity
  8
PORTATASTO
100
AcDbCircle
 62
7
  6
CONTINUOUS
 10
-0.9420288037
 20
24.2329711963
 40
0.2500048342
100
AcDbArc
 50
0.0018932365
 51
89.9981067635
  0
ARC
  5
634
100
AcDbEntity
  8
PORTATASTO
100
AcDbCircle
 62
7
  6
CONTINUOUS
 10
7.25
 20
-23.15
 40
0.5
100
AcDbArc
 50
144.1420797215
 51
216.2517105092
  0
ARC
  5
635
100
AcDbEntity
  8
PORTATASTO
100
AcDbCircle
 62
7
  6
CONTINUOUS
 10
0.9420288037
 20
-24.2329711963
 40
0.2500048342
100
AcDbArc
 50
180.0018932365
 51
269.9981067635
  0
ARC
  5
636
100
AcDbEntity
  8
PORTATASTO
100
AcDbCircle
 62
7
  6
CONTINUOUS
 10
2.6829711963
 20
-24.2329711963
 40
0.2500048342
100
AcDbArc
 50
270.0018932459
 51
359.9981067541
  0
ARC
  5
637
100
AcDbEntity
  8
ASSI
100
AcDbCircle
 62
253
  6
CONTINUOUS
 10
2.0994130738
 20
-13.2005364172
 40
4.5641896103
100
AcDbArc
 50
270.0073680155
 51
89.9926319845
  0
ARC
  5
638
100
AcDbEntity
  8
RACCORDO
100
AcDbCircle
 62
253
  6
CONTINUOUS
 10
2.0994281279
 20
-13.2005379181
 40
4.5641869421
100
AcDbArc
 50
270.0071790352
 51
89.9928209695
  0
ARC
  5
639
100
AcDbEntity
  8
ASSI
100
AcDbCircle
 62
253
  6
CONTINUOUS
 10
2.0996255994
 20
-13.2007844525
 40
4.466095469
100
AcDbArc
 50
87.2670485486
 51
89.9951967947
  0
ARC
  5
63A
100
AcDbEntity
  8
RACCORDO
100
AcDbCircle
 62
253
  6
CONTINUOUS
 10
2.0995033453
 20
-13.1998477389
 40
4.4612559136
100
AcDbArc
 50
270.0063785214
 51
273.7411572048
  0
ARC
  5
63B
100
AcDbEntity
  8
ASSI
100
AcDbCircle
 62
7
  6
CONTINUOUS
 10
2.1
 20
-13.2
 40
4.4534904813
100
AcDbArc
 50
26.7856486417
 51
90.0
  0
ARC
  5
63C
100
AcDbEntity
  8
SMUSSO
100
AcDbCircle
 62
7
  6
CONTINUOUS
 10
2.1
 20
-13.2
 40
4.4534904813
100
AcDbArc
 50
26.7856486417
 51
90.0
  0
ARC
  5
63D
100
AcDbEntity
  8
ASSI
100
AcDbCircle
 62
7
  6
CONTINUOUS
 10
2.1
 20
-13.2
 40
4.45
100
AcDbArc
 50
270.0
 51
26.7076453021
  0
ARC
  5
63E
100
AcDbEntity
  8
DRAFT
100
AcDbCircle
 62
7
  6
CONTINUOUS
 10
2.1
 20
-13.2
 40
4.45
100
AcDbArc
 50
270.0
 51
333.2923546979
  0
ARC
  5
63F
100
AcDbEntity
  8
SMUSSO
100
AcDbCircle
 62
7
  6
CONTINUOUS
 10
2.1
 20
-13.2
 40
4.45
100
AcDbArc
 50
333.2923546979
 51
26.7076453021
  0
ARC
  5
640
100
AcDbEntity
  8
DRAFT
100
AcDbCircle
 62
7
  6
CONTINUOUS
 10
2.1
 20
-13.2
 40
4.3
100
AcDbArc
 50
269.9963846663
 51
323.7316107101
  0
ARC
  5
641
100
AcDbEntity
  8
ASSI
100
AcDbCircle
 62
7
  6
CONTINUOUS
 10
2.1
 20
-13.2
 40
4.3
100
AcDbArc
 50
269.9963846663
 51
323.7316107101
  0
ARC
  5
642
100
AcDbEntity
  8
DRAFT
100
AcDbCircle
 62
7
  6
CONTINUOUS
 10
2.1
 20
-13.2
 40
4.293017974
100
AcDbArc
 50
35.7591200613
 51
90.0036960346
  0
ARC
  5
643
100
AcDbEntity
  8
ASSI
100
AcDbCircle
 62
7
  6
CONTINUOUS
 10
2.1
 20
-13.2
 40
4.293017974
100
AcDbArc
 50
35.7591200613
 51
90.0036960346
  0
ARC
  5
644
100
AcDbEntity
  8
DRAFT
100
AcDbCircle
 62
7
  6
CONTINUOUS
 10
2.1
 20
-13.2
 40
4.2912724675
100
AcDbArc
 50
324.3679448432
 51
35.6320551568
  0
ARC
  5
645
100
AcDbEntity
  8
ASSI
100
AcDbCircle
 62
7
  6
CONTINUOUS
 10
2.1
 20
-13.2
 40
4.2912724675
100
AcDbArc
 50
324.3679448432
 51
35.6320551568
  0
ARC
  5
646
100
AcDbEntity
  8
ASSI
100
AcDbCircle
 62
7
  6
CONTINUOUS
 10
2.0969713682
 20
-13.2050101621
 40
4.2850258674
100
AcDbArc
 50
37.512499122
 51
45.0086570247
  0
ARC
  5
647
100
AcDbEntity
  8
ASSI
100
AcDbCircle
 62
7
  6
CONTINUOUS
 10
2.0991464466
 20
-13.2031666048
 40
4.2821828467
100
AcDbArc
 50
329.9681742625
 51
30.0087912
  0
ARC
  5
648
100
AcDbEntity
  8
RACCORDO
100
AcDbCircle
 62
7
  6
CONTINUOUS
 10
2.0994684183
 20
-13.2031671477
 40
4.2819134727
100
AcDbArc
 50
270.0071131591
 51
89.9928868409
  0
ARC
  5
649
100
AcDbEntity
  8
ASSI
100
AcDbCircle
 62
7
  6
CONTINUOUS
 10
2.0999775386
 20
-13.2038921691
 40
4.2810930546
100
AcDbArc
 50
273.7311126662
 51
326.2176335614
  0
ARC
  5
64A
100
AcDbEntity
  8
ASSI
100
AcDbCircle
 62
7
  6
CONTINUOUS
 10
2.1001025431
 20
-13.202145111
 40
4.2807806854
100
AcDbArc
 50
37.5079843072
 51
86.2681972239
  0
ARC
  5
64B
100
AcDbEntity
  8
ASSI
100
AcDbCircle
 62
7
  6
CONTINUOUS
 10
2.1016663462
 20
-13.2013576761
 40
4.2790924963
100
AcDbArc
 50
30.0046918776
 51
37.5150261836
  0
ARC
  5
64C
100
AcDbEntity
  8
ASSI
100
AcDbCircle
 62
7
  6
CONTINUOUS
 10
2.1016669869
 20
-13.2049783924
 40
4.2790903881
100
AcDbArc
 50
326.2171437669
 51
329.9722858167
  0
ARC
  5
64D
100
AcDbEntity
  8
ASSI
100
AcDbCircle
 62
7
  6
CONTINUOUS
 10
2.0995221101
 20
-13.2067286092
 40
4.278275201
100
AcDbArc
 50
270.0064000261
 51
273.7396708864
  0
ARC
  5
64E
100
AcDbEntity
  8
ASSI
100
AcDbCircle
 62
253
  6
CONTINUOUS
 10
2.0984775626
 20
-13.2195381623
 40
4.1953060035
100
AcDbArc
 50
82.5159122216
 51
86.2346437692
  0
ARC
  5
64F
100
AcDbEntity
  8
ASSI
100
AcDbCircle
 62
253
  6
CONTINUOUS
 10
2.0965467662
 20
-13.2075002468
 40
4.1848001564
100
AcDbArc
 50
329.9695269937
 51
30.00667853
  0
ARC
  5
650
100
AcDbEntity
  8
RACCORDO
100
AcDbCircle
 62
253
  6
CONTINUOUS
 10
2.0980182776
 20
-13.2075015287
 40
4.183532699
100
AcDbArc
 50
270.0271426361
 51
89.9728573637
  0
ARC
  5
651
100
AcDbEntity
  8
ASSI
100
AcDbCircle
 62
253
  6
CONTINUOUS
 10
2.0992708481
 20
-13.2094037781
 40
4.1813436392
100
AcDbArc
 50
270.0099913635
 51
273.7644373078
  0
ARC
  5
652
100
AcDbEntity
  8
ASSI
100
AcDbCircle
 62
253
  6
CONTINUOUS
 10
2.0999728696
 20
-13.2097208506
 40
4.1807169448
100
AcDbArc
 50
277.4885263181
 51
329.9723759281
  0
ARC
  5
653
100
AcDbEntity
  8
ASSI
100
AcDbCircle
 62
253
  6
CONTINUOUS
 10
2.0993212223
 20
-13.2047648865
 40
4.1805092163
100
AcDbArc
 50
86.2328849364
 51
89.9906970433
  0
ARC
  5
654
100
AcDbEntity
  8
ASSI
100
AcDbCircle
 62
253
  6
CONTINUOUS
 10
2.0998984214
 20
-13.2046080211
 40
4.180330584
100
AcDbArc
 50
37.4919410267
 51
82.5085670106
  0
ARC
  5
655
100
AcDbEntity
  8
ASSI
100
AcDbCircle
 62
253
  6
CONTINUOUS
 10
2.1029283747
 20
-13.2034435648
 40
4.177239444
100
AcDbArc
 50
30.0022687116
 51
37.5045634203
  0
ARC
  5
656
100
AcDbEntity
  8
ASSI
100
AcDbCircle
 62
253
  6
CONTINUOUS
 10
3.057227
 20
-14.912166
 40
0.15
100
AcDbArc
 50
270.0
 51
46.7815502213
  0
ARC
  5
657
100
AcDbEntity
  8
INCISIONI
100
AcDbCircle
 62
253
  6
CONTINUOUS
 10
3.057227
 20
-14.912166
 40
0.15
100
AcDbArc
 50
270.0
 51
46.7815502213
  0
ARC
  5
658
100
AcDbEntity
  8
ASSI
100
AcDbCircle
 62
253
  6
CONTINUOUS
 10
3.057717
 20
-13.948103
 40
0.149451359
100
AcDbArc
 50
226.7819354081
 51
46.7816025459
  0
ARC
  5
659
100
AcDbEntity
  8
INCISIONI
100
AcDbCircle
 62
253
  6
CONTINUOUS
 10
3.057717
 20
-13.948103
 40
0.149451359
100
AcDbArc
 50
226.7819354081
 51
46.7816025459
  0
ARC
  5
65A
100
AcDbEntity
  8
ASSI
100
AcDbCircle
 62
253
  6
CONTINUOUS
 10
2.0996379138
 20
-13.1952405833
 40
4.4658630562
100
AcDbArc
 50
270.0046454653
 51
272.731366211
  0
ARC
  5
65B
100
AcDbEntity
  8
ASSI
100
AcDbCircle
 62
253
  6
CONTINUOUS
 10
2.100403007
 20
-13.1978964823
 40
4.4631333684
100
AcDbArc
 50
272.7231802589
 51
87.2752493997
  0
ARC
  5
65C
100
AcDbEntity
  8
RACCORDO
100
AcDbCircle
 62
253
  6
CONTINUOUS
 10
2.1004185266
 20
-13.1978962545
 40
4.4631209366
100
AcDbArc
 50
273.7277989287
 51
86.2864984452
  0
ARC
  5
65D
100
AcDbEntity
  8
RACCORDO
100
AcDbCircle
 62
253
  6
CONTINUOUS
 10
2.0994936654
 20
-13.1961753656
 40
4.4614863951
100
AcDbArc
 50
86.2732146587
 51
89.9934974953
  0
ARC
  5
65E
100
AcDbEntity
  8
ASSI
100
AcDbCircle
 62
7
  6
CONTINUOUS
 10
2.0995488542
 20
-13.1992104483
 40
4.2778799547
100
AcDbArc
 50
86.2582388775
 51
89.993957579
  0
ARC
  5
65F
100
AcDbEntity
  8
ASSI
100
AcDbCircle
 62
7
  6
CONTINUOUS
 10
2.1046157183
 20
-13.1995231727
 40
4.2756210056
100
AcDbArc
 50
30.003167479
 51
37.5165530082
  0
ARC
  5
660
100
AcDbEntity
  8
ASSI
100
AcDbCircle
 62
253
  6
CONTINUOUS
 10
2.098463344
 20
-13.195172812
 40
4.1955969191
100
AcDbArc
 50
273.7626815881
 51
277.4779491707
  0
ARC
  5
661
100
AcDbEntity
  8
ASSI
100
AcDbCircle
 62
7
  6
CONTINUOUS
 10
6.059913976
 20
-15.0004099894
 40
0.1995586602
100
AcDbArc
 50
226.6601388642
 51
269.9877664669
  0
ARC
  5
662
100
AcDbEntity
  8
RACCORDO
100
AcDbCircle
 62
7
  6
CONTINUOUS
 10
6.0597220371
 20
-15.0004373909
 40
0.1994174566
100
AcDbArc
 50
224.294373619
 51
270.0049070794
  0
ARC
  5
663
100
AcDbEntity
  8
RACCORDO
100
AcDbCircle
 62
7
  6
CONTINUOUS
 10
6.0605560657
 20
-11.402267973
 40
0.2022925106
100
AcDbArc
 50
97.743065712
 51
105.1443902612
  0
ARC
  5
664
100
AcDbEntity
  8
ASSI
100
AcDbCircle
 62
7
  6
CONTINUOUS
 10
6.0598264497
 20
-11.3992299205
 40
0.1991918091
100
AcDbArc
 50
90.0126032012
 51
133.3397664114
  0
ARC
  5
665
100
AcDbEntity
  8
RACCORDO
100
AcDbCircle
 62
7
  6
CONTINUOUS
 10
6.0595684685
 20
-11.3990082842
 40
0.198888043
100
AcDbArc
 50
105.1150933666
 51
128.2071044994
  0
ARC
  5
666
100
AcDbEntity
  8
RACCORDO
100
AcDbCircle
 62
7
  6
CONTINUOUS
 10
6.0601406555
 20
-11.3988196623
 40
0.1988196793
100
AcDbArc
 50
90.0237462423
 51
97.7583311056
  0
ARC
  5
667
100
AcDbEntity
  8
ASSI
100
AcDbCircle
 62
253
  6
CONTINUOUS
 10
21.514761051
 20
-21.3289600821
 40
0.5003982858
100
AcDbArc
 50
270.0613708483
 51
359.8733496459
  0
ARC
  5
668
100
AcDbEntity
  8
RACCORDO
100
AcDbCircle
 62
253
  6
CONTINUOUS
 10
21.514760492
 20
-21.3289792282
 40
0.5003855325
100
AcDbArc
 50
270.0614372019
 51
359.8755421615
  0
ARC
  5
669
100
AcDbEntity
  8
PORTATASTO
100
AcDbCircle
 62
7
  6
CONTINUOUS
 10
15.25
 20
-23.15
 40
0.5
100
AcDbArc
 50
323.7482894908
 51
35.8579202785
  0
ARC
  5
66A
100
AcDbEntity
  8
PORTATASTO
100
AcDbCircle
 62
7
  6
CONTINUOUS
 10
21.8500382058
 20
-21.8500494664
 40
0.499953721
100
AcDbArc
 50
269.9963487893
 51
0.0037294835
  0
ARC
  5
66B
100
AcDbEntity
  8
PORTATASTO
100
AcDbCircle
 62
7
  6
CONTINUOUS
 10
21.5579711963
 20
-24.2329711963
 40
0.2500048342
100
AcDbArc
 50
270.0018932459
 51
359.9981067541
  0
ARC
  5
66C
100
AcDbEntity
  8
PORTATASTO
100
AcDbCircle
 62
7
  6
CONTINUOUS
 10
19.8170288037
 20
-24.2329711963
 40
0.2500048342
100
AcDbArc
 50
180.0018932365
 51
269.9981067635
  0
ARC
  5
66D
100
AcDbEntity
  8
ASSI
100
AcDbCircle
 62
253
  6
CONTINUOUS
 10
19126.8561466276
 20
0.0000000013
 40
19105.376526849
100
AcDbArc
 50
179.9388438664
 51
180.0611561336
  0
ARC
  5
66E
100
AcDbEntity
  8
RACCORDO
100
AcDbCircle
 62
253
  6
CONTINUOUS
 10
19125.992231103
 20
0.0000000013
 40
19104.5126114931
100
AcDbArc
 50
179.9388411009
 51
180.0611588991
  0
ARC
  5
66F
100
AcDbEntity
  8
ASSI
100
AcDbCircle
 62
253
  6
CONTINUOUS
 10
19089.1643988708
 20
-0.0
 40
19067.1849504297
100
AcDbArc
 50
179.9387826491
 51
180.0612173509
  0
ARC
  5
670
100
AcDbEntity
  8
RACCORDO
100
AcDbCircle
 62
253
  6
CONTINUOUS
 10
19088.3021845401
 20
-0.0
 40
19066.3227362676
100
AcDbArc
 50
179.9387798808
 51
180.0612201192
  0
ARC
  5
671
100
AcDbEntity
  8
ASSI
100
AcDbCircle
 62
253
  6
CONTINUOUS
 10
21.5147610524
 20
21.3289600889
 40
0.5003982819
100
AcDbArc
 50
0.1266495779
 51
89.9386292949
  0
ARC
  5
672
100
AcDbEntity
  8
RACCORDO
100
AcDbCircle
 62
253
  6
CONTINUOUS
 10
21.5147604796
 20
21.3289792152
 40
0.5003855623
100
AcDbArc
 50
0.1244593338
 51
89.9385613593
  0
ARC
  5
673
100
AcDbEntity
  8
PORTATASTO
100
AcDbCircle
 62
7
  6
CONTINUOUS
 10
7.25
 20
23.15
 40
0.5
100
AcDbArc
 50
143.7482894908
 51
215.8579202785
  0
ARC
  5
674
100
AcDbEntity
  8
PORTATASTO
100
AcDbCircle
 62
7
  6
CONTINUOUS
 10
15.25
 20
23.15
 40
0.5
100
AcDbArc
 50
324.1420797215
 51
36.2517105092
  0
ARC
  5
675
100
AcDbEntity
  8
PORTATASTO
100
AcDbCircle
 62
7
  6
CONTINUOUS
 10
21.850037962
 20
21.850049221
 40
0.4999540432
100
AcDbArc
 50
359.9681327532
 51
89.9607327441
  0
ARC
  5
676
100
AcDbEntity
  8
PORTATASTO
100
AcDbCircle
 62
7
  6
CONTINUOUS
 10
21.5579711963
 20
24.2329711963
 40
0.2500048342
100
AcDbArc
 50
0.0018932365
 51
89.9981067635
  0
ARC
  5
677
100
AcDbEntity
  8
PORTATASTO
100
AcDbCircle
 62
7
  6
CONTINUOUS
 10
19.8170288037
 20
24.2329711963
 40
0.2500048342
100
AcDbArc
 50
90.0018932459
 51
179.9981067541
  0
ARC
  5
678
100
AcDbEntity
  8
PORTATASTO
100
AcDbCircle
 62
7
  6
CONTINUOUS
 10
0.9420288037
 20
24.2329711963
 40
0.2500048342
100
AcDbArc
 50
90.0018932459
 51
179.9981067541
  0
ARC
  5
679
100
AcDbEntity
  8
PORTATASTO
100
AcDbCircle
 62
7
  6
CONTINUOUS
 10
2.6829711963
 20
24.2329711963
 40
0.2500048342
100
AcDbArc
 50
0.0018932365
 51
89.9981067635
  0
ARC
  5
67A
100
AcDbEntity
  8
ASSI
100
AcDbCircle
 62
253
  6
CONTINUOUS
 10
-200.6560817097
 20
-18.1691375579
 40
166.5717425078
100
AcDbArc
 50
359.7606250951
 51
0.2470002556
  0
ARC
  5
67B
100
AcDbEntity
  8
CORPO
100
AcDbCircle
 62
253
  6
CONTINUOUS
 10
-200.6560817097
 20
-18.1691375579
 40
166.5717425078
100
AcDbArc
 50
359.7606250951
 51
0.2470002556
  0
ARC
  5
67C
100
AcDbEntity
  8
PORTATASTO
100
AcDbCircle
 62
7
  6
CONTINUOUS
 10
-55.6032666747
 20
-21.2859869487
 40
1.0
100
AcDbArc
 50
270.3333333333
 51
360.0
  0
ARC
  5
67D
100
AcDbEntity
  8
PORTATASTO
100
AcDbCircle
 62
253
  6
CONTINUOUS
 10
-68.3545773161
 20
-23.0783112106
 40
0.5000016505
100
AcDbArc
 50
300.000109193
 51
359.9998908069
  0
ARC
  5
67E
100
AcDbEntity
  8
PORTATASTO
100
AcDbCircle
 62
7
  6
CONTINUOUS
 10
-59.1032666747
 20
-23.2659657686
 40
0.5
100
AcDbArc
 50
270.5999999999
 51
360.0
  0
ARC
  5
67F
100
AcDbEntity
  8
PORTATASTO
100
AcDbCircle
 62
7
  6
CONTINUOUS
 10
-68.8532666747
 20
-23.9443375673
 40
0.25
100
AcDbArc
 50
120.0
 51
180.0
  0
ARC
  5
680
100
AcDbEntity
  8
PORTATASTO
100
AcDbCircle
 62
7
  6
CONTINUOUS
 10
-68.3532666747
 20
-23.0783121635
 40
0.25
100
AcDbArc
 50
299.9999779197
 51
359.9996752656
  0
ARC
  5
681
100
AcDbEntity
  8
PORTATASTO
100
AcDbCircle
 62
7
  6
CONTINUOUS
 10
-68.8532666747
 20
-24.2329794573
 40
0.25
100
AcDbArc
 50
180.0
 51
269.7
  0
ARC
  5
682
100
AcDbEntity
  8
ASSI
100
AcDbCircle
 62
7
  6
CONTINUOUS
 10
-74.1884829643
 20
-20.3314365881
 40
1.5
100
AcDbArc
 50
182.3374676421
 51
267.0
  0
ARC
  5
683
100
AcDbEntity
  8
RACCORDO
100
AcDbCircle
 62
7
  6
CONTINUOUS
 10
-74.1884829643
 20
-20.3314365881
 40
1.5
100
AcDbArc
 50
182.337467642
 51
267.0
  0
ARC
  5
684
100
AcDbEntity
  8
ASSI
100
AcDbCircle
 62
253
  6
CONTINUOUS
 10
-74.2015450416
 20
-20.331407877
 40
1.0000301233
100
AcDbArc
 50
182.3390517486
 51
266.9985757797
  0
ARC
  5
685
100
AcDbEntity
  8
RACCORDO
100
AcDbCircle
 62
253
  6
CONTINUOUS
 10
-74.201569223
 20
-20.3314343981
 40
1.0000023029
100
AcDbArc
 50
182.3375900178
 51
266.9998798063
  0
ARC
  5
686
100
AcDbEntity
  8
PORTATASTO
100
AcDbCircle
 62
7
  6
CONTINUOUS
 10
-70.3032666747
 20
-19.6422881348
 40
0.3
100
AcDbArc
 50
236.5692914937
 51
268.5
  0
ARC
  5
687
100
AcDbEntity
  8
ASSI
100
AcDbCircle
 62
7
  6
CONTINUOUS
 10
-34.1032666747
 20
-18.1674681916
 40
1.0
100
AcDbArc
 50
271.0000000002
 51
360.0
  0
ARC
  5
688
100
AcDbEntity
  8
CORPO
100
AcDbCircle
 62
7
  6
CONTINUOUS
 10
-34.1032666747
 20
-18.1674681916
 40
1.0
100
AcDbArc
 50
271.0000000002
 51
360.0
  0
ARC
  5
689
100
AcDbEntity
  8
ASSI
100
AcDbCircle
 62
253
  6
CONTINUOUS
 10
-33.6022303423
 20
-18.1575131151
 40
0.498971051
100
AcDbArc
 50
352.9228167799
 51
358.8597457188
  0
ARC
  5
68A
100
AcDbEntity
  8
CORPO
100
AcDbCircle
 62
253
  6
CONTINUOUS
 10
-33.6022303423
 20
-18.1575131151
 40
0.498971051
100
AcDbArc
 50
352.9228167799
 51
358.8597457188
  0
ARC
  5
68B
100
AcDbEntity
  8
ASSI
100
AcDbCircle
 62
253
  6
CONTINUOUS
 10
-33.5863322314
 20
-18.1580447475
 40
0.4830655567
100
AcDbArc
 50
358.8852651629
 51
359.9990033886
  0
ARC
  5
68C
100
AcDbEntity
  8
CORPO
100
AcDbCircle
 62
253
  6
CONTINUOUS
 10
-33.5863322314
 20
-18.1580447475
 40
0.4830655567
100
AcDbArc
 50
358.8852651629
 51
359.9990033886
  0
ARC
  5
68D
100
AcDbEntity
  8
CURVE
100
AcDbCircle
 62
253
  6
CONTINUOUS
 10
-48.6561752206
 20
-9.065689637
 40
2.5491100283
100
AcDbArc
 50
177.7337656322
 51
358.1689805855
  0
ARC
  5
68E
100
AcDbEntity
  8
CURVE
100
AcDbCircle
 62
253
  6
CONTINUOUS
 10
-48.6561752204
 20
-13.4507996376
 40
2.5491098711
100
AcDbArc
 50
177.7338554515
 51
358.1689825899
  0
ARC
  5
68F
100
AcDbEntity
  8
CURVE
100
AcDbCircle
 62
253
  6
CONTINUOUS
 10
-48.653110292
 20
-9.0645395647
 40
2.5461567163
100
AcDbArc
 50
358.1409101855
 51
2.2430144318
  0
ARC
  5
690
100
AcDbEntity
  8
CURVE
100
AcDbCircle
 62
253
  6
CONTINUOUS
 10
-48.6531102966
 20
-13.4496495652
 40
2.5461565641
100
AcDbArc
 50
358.1409121912
 51
2.2430144373
  0
ARC
  5
691
100
AcDbEntity
  8
PORTATASTO
100
AcDbCircle
 62
7
  6
CONTINUOUS
 10
-70.6032666747
 20
14.0
 40
2.55
100
AcDbArc
 50
11.2230352269
 51
30.6770237081
  0
ARC
  5
692
100
AcDbEntity
  8
PORTATASTO
100
AcDbCircle
 62
7
  6
CONTINUOUS
 10
-70.6032666747
 20
14.0
 40
2.55
100
AcDbArc
 50
329.3229838999
 51
348.7767103091
  0
ARC
  5
693
100
AcDbEntity
  8
PORTATASTO
100
AcDbCircle
 62
253
  6
CONTINUOUS
 10
-70.5944882093
 20
13.9999655939
 40
2.049936466
100
AcDbArc
 50
320.6225639774
 51
39.3716752225
  0
ARC
  5
694
100
AcDbEntity
  8
ASSI
100
AcDbCircle
 62
7
  6
CONTINUOUS
 10
-74.1884829643
 20
20.3314365881
 40
1.5
100
AcDbArc
 50
93.0
 51
177.6625320556
  0
ARC
  5
695
100
AcDbEntity
  8
RACCORDO
100
AcDbCircle
 62
7
  6
CONTINUOUS
 10
-74.1884829643
 20
20.3314365881
 40
1.5
100
AcDbArc
 50
93.0
 51
177.6625320556
  0
ARC
  5
696
100
AcDbEntity
  8
ASSI
100
AcDbCircle
 62
253
  6
CONTINUOUS
 10
-74.2015424144
 20
20.3314105486
 40
1.0000301135
100
AcDbArc
 50
93.0015825528
 51
177.6611073339
  0
ARC
  5
697
100
AcDbEntity
  8
RACCORDO
100
AcDbCircle
 62
253
  6
CONTINUOUS
 10
-74.2015692067
 20
20.331434382
 40
1.0000023199
100
AcDbArc
 50
93.0001210781
 51
177.6624090978
  0
ARC
  5
698
100
AcDbEntity
  8
PORTATASTO
100
AcDbCircle
 62
253
  6
CONTINUOUS
 10
-68.3545773157
 20
23.0783112108
 40
0.5000016501
100
AcDbArc
 50
0.0001091677
 51
59.9998908323
  0
ARC
  5
699
100
AcDbEntity
  8
PORTATASTO
100
AcDbCircle
 62
7
  6
CONTINUOUS
 10
-68.8532666747
 20
23.9443375673
 40
0.25
100
AcDbArc
 50
180.0
 51
240.0
  0
ARC
  5
69A
100
AcDbEntity
  8
PORTATASTO
100
AcDbCircle
 62
7
  6
CONTINUOUS
 10
-68.3532666747
 20
23.0783121635
 40
0.25
100
AcDbArc
 50
0.0003243525
 51
60.000019938
  0
ARC
  5
69B
100
AcDbEntity
  8
PORTATASTO
100
AcDbCircle
 62
7
  6
CONTINUOUS
 10
-68.8532666747
 20
24.2329794573
 40
0.25
100
AcDbArc
 50
90.3
 51
180.0
  0
ARC
  5
69C
100
AcDbEntity
  8
PORTATASTO
100
AcDbCircle
 62
7
  6
CONTINUOUS
 10
-55.6032666747
 20
21.2859869487
 40
1.0
100
AcDbArc
 50
0.0
 51
89.6666666667
  0
ARC
  5
69D
100
AcDbEntity
  8
PORTATASTO
100
AcDbCircle
 62
7
  6
CONTINUOUS
 10
-59.1032666747
 20
23.2659657686
 40
0.5
100
AcDbArc
 50
0.0
 51
89.4000000003
  0
ARC
  5
69E
100
AcDbEntity
  8
RACCORDO
100
AcDbCircle
 62
7
  6
CONTINUOUS
 10
-34.1113111582
 20
18.0674431539
 40
1.0
100
AcDbArc
 50
0.5
 51
89.0
  0
ARC
  5
69F
100
AcDbEntity
  8
ASSI
100
AcDbCircle
 62
7
  6
CONTINUOUS
 10
-34.1032666747
 20
18.1674681916
 40
1.0
100
AcDbArc
 50
0.0
 51
89.0
  0
ARC
  5
6A0
100
AcDbEntity
  8
CORPO
100
AcDbCircle
 62
7
  6
CONTINUOUS
 10
-34.1032666747
 20
18.1674681916
 40
1.0
100
AcDbArc
 50
0.0
 51
89.0
  0
ARC
  5
6A1
100
AcDbEntity
  8
RACCORDO
100
AcDbCircle
 62
7
  6
CONTINUOUS
 10
-40.7398683929
 20
18.6831093497
 40
0.5
100
AcDbArc
 50
89.0001118259
 51
179.4871826661
  0
ARC
  5
6A2
100
AcDbEntity
  8
ASSI
100
AcDbCircle
 62
7
  6
CONTINUOUS
 10
423.8967333253
 20
0.0
 40
500.0
100
AcDbArc
 50
177.6625301815
 51
182.3374698176
  0
ARC
  5
6A3
100
AcDbEntity
  8
RACCORDO
100
AcDbCircle
 62
7
  6
CONTINUOUS
 10
423.8967333253
 20
0.0
 40
500.0
100
AcDbArc
 50
177.6625301815
 51
182.3374698176
  0
ARC
  5
6A4
100
AcDbEntity
  8
RACCORDO
100
AcDbCircle
 62
253
  6
CONTINUOUS
 10
423.8836189561
 20
-0.0
 40
499.4999741265
100
AcDbArc
 50
177.6625300547
 51
182.3374699453
  0
ARC
  5
6A5
100
AcDbEntity
  8
ASSI
100
AcDbCircle
 62
253
  6
CONTINUOUS
 10
423.8831196823
 20
-0.0
 40
499.4994752681
100
AcDbArc
 50
177.6625277189
 51
182.3374722811
  0
SPLINE
  5
6A6
100
AcDbEntity
  8
ASSI
100
AcDbSpline
 62
253
  6
CONTINUOUS
 70
0
 71
3
 72
15
 73
11
 74
9
 42
0.0000001
 43
0.0000001
 44
0.0000000001
 12
0.453154963
 22
1.3640053349
 32
0.0
 13
0.0010335645
 23
1.4373096068
 33
0.0
 40
0.0
 40
0.0
 40
0.0
 40
0.0
 40
0.0279829282
 40
0.0903262028
 40
0.1848905538
 40
0.3084965749
 40
0.4571329455
 40
0.6258959329
 40
0.8090028223
 40
1.0
 40
1.0
 40
1.0
 40
1.0
 10
-21.5152970636
 20
-21.8293808902
 30
0.0
 10
-21.511070196
 20
-21.8166579358
 30
0.0
 10
-21.5105759875
 20
-21.7725461568
 30
0.0
 10
-21.5042299963
 20
-21.6848074461
 30
0.0
 10
-21.501516277
 20
-21.5500865159
 30
0.0
 10
-21.4975235773
 20
-21.3745343197
 30
0.0
 10
-21.494746361
 20
-21.1632127384
 30
0.0
 10
-21.4924360037
 20
-20.9234460854
 30
0.0
 10
-21.4909845755
 20
-20.6633548481
 30
0.0
 10
-21.4905691981
 20
-20.4841217338
 30
0.0
 10
-21.4905033955
 20
-20.3926143743
 30
0.0
 11
-21.5152970636
 21
-21.8293808902
 31
0.0
 11
-21.5105138694
 21
-21.7894461826
 31
0.0
 11
-21.505946484
 21
-21.6999560509
 31
0.0
 11
-21.501747596
 21
-21.5641026387
 31
0.0
 11
-21.4980534904
 21
-21.3864808813
 31
0.0
 11
-21.4949901443
 21
-21.1728663066
 31
0.0
 11
-21.4926594374
 21
-20.9303127785
 31
0.0
 11
-21.4911457789
 21
-20.6671357721
 31
0.0
 11
-21.4905033955
 21
-20.3926143743
 31
0.0
  0
SPLINE
  5
6A7
100
AcDbEntity
  8
ASSI
100
AcDbSpline
 62
253
  6
CONTINUOUS
 70
0
 71
3
 72
15
 73
11
 74
9
 42
0.0000001
 43
0.0000001
 44
0.0000000001
 12
0.0010335646
 22
-1.4373096068
 32
0.0
 13
0.4531549544
 23
-1.3640053377
 33
0.0
 40
0.0
 40
0.0
 40
0.0
 40
0.0
 40
0.1909971769
 40
0.3741040661
 40
0.5428670538
 40
0.6915034251
 40
0.8151094468
 40
0.9096737978
 40
0.9720170721
 40
1.0
 40
1.0
 40
1.0
 40
1.0
 10
21.4905033955
 20
-20.3926143743
 30
0.0
 10
21.4905691981
 20
-20.4841217334
 30
0.0
 10
21.4909845755
 20
-20.6633548472
 30
0.0
 10
21.4924360037
 20
-20.9234460842
 30
0.0
 10
21.494746361
 20
-21.1632127376
 30
0.0
 10
21.4975235773
 20
-21.3745343197
 30
0.0
 10
21.501516277
 20
-21.5500865165
 30
0.0
 10
21.5042299964
 20
-21.6848074468
 30
0.0
 10
21.5105759874
 20
-21.7725461573
 30
0.0
 10
21.5110701961
 20
-21.8166579359
 30
0.0
 10
21.5152970636
 20
-21.8293808902
 30
0.0
 11
21.4905033955
 21
-20.3926143743
 31
0.0
 11
21.4911457789
 21
-20.6671357709
 31
0.0
 11
21.4926594374
 21
-20.9303127771
 31
0.0
 11
21.4949901443
 21
-21.1728663056
 31
0.0
 11
21.4980534904
 21
-21.3864808812
 31
0.0
 11
21.501747596
 21
-21.5641026396
 31
0.0
 11
21.505946484
 21
-21.6999560518
 31
0.0
 11
21.5105138694
 21
-21.7894461831
 31
0.0
 11
21.5152970636
 21
-21.8293808902
 31
0.0
  0
SPLINE
  5
6A8
100
AcDbEntity
  8
ASSI
100
AcDbSpline
 62
253
  6
CONTINUOUS
 70
0
 71
3
 72
15
 73
11
 74
9
 42
0.0000001
 43
0.0000001
 44
0.0000000001
 12
-0.4272386005
 22
-0.8581916155
 32
0.0
 13
-0.0010330023
 23
-0.9586577093
 33
0.0
 40
0.0
 40
0.0
 40
0.0
 40
0.0
 40
0.0277422541
 40
0.0900875073
 40
0.1852342346
 40
0.3094398827
 40
0.4587190491
 40
0.6282457986
 40
0.8114008629
 40
1.0
 40
1.0
 40
1.0
 40
1.0
 10
22.0151257261
 20
21.3300661228
 30
0.0
 10
22.0111748721
 20
21.3221300662
 30
0.0
 10
22.0102057227
 20
21.2922744618
 30
0.0
 10
22.0041949319
 20
21.2342084001
 30
0.0
 10
22.0012908274
 20
21.1437693385
 30
0.0
 10
21.9973538081
 20
21.0262246583
 30
0.0
 10
21.9945443069
 20
20.8846169749
 30
0.0
 10
21.9922451465
 20
20.7242520566
 30
0.0
 10
21.9908064179
 20
20.5512824082
 30
0.0
 10
21.9903969992
 20
20.4324891559
 30
0.0
 10
21.9903320581
 20
20.372221817
 30
0.0
 11
22.0151257261
 21
21.3300661228
 31
0.0
 11
22.0103926604
 21
21.3038953326
 31
0.0
 11
22.0058057577
 21
21.244303812
 31
0.0
 11
22.0015751013
 21
21.1531887816
 31
0.0
 11
21.9978663137
 21
21.0341757845
 31
0.0
 11
21.9947958386
 21
20.8911010211
 31
0.0
 11
21.9924642174
 21
20.728599528
 31
0.0
 11
21.9909613586
 21
20.5530228435
 31
0.0
 11
21.9903320581
 21
20.372221817
 31
0.0
  0
SPLINE
  5
6A9
100
AcDbEntity
  8
ASSI
100
AcDbSpline
 62
253
  6
CONTINUOUS
 70
0
 71
3
 72
15
 73
11
 74
9
 42
0.0000001
 43
0.0000001
 44
0.0000000001
 12
0.0010295134
 22
-0.9586577174
 32
0.0
 13
0.4263366205
 23
-0.8586400672
 33
0.0
 40
0.0
 40
0.0
 40
0.0
 40
0.0
 40
0.1887624519
 40
0.3721402772
 40
0.5417527125
 40
0.690965049
 40
0.8150956659
 40
0.9100826265
 40
0.9722896288
 40
1.0
 40
1.0
 40
1.0
 40
1.0
 10
21.9903320581
 20
-20.372221817
 30
0.0
 10
21.9903968359
 20
-20.4325413441
 30
0.0
 10
21.9908069157
 20
-20.5514579773
 30
0.0
 10
21.9922484141
 20
-20.7245783305
 30
0.0
 10
21.9945511336
 20
-20.8850205483
 30
0.0
 10
21.9973642458
 20
-21.0266097378
 30
0.0
 10
22.0012989058
 20
-21.1440594749
 30
0.0
 10
22.0042105506
 20
-21.2343749835
 30
0.0
 10
22.0102012907
 20
-21.2923446401
 30
0.0
 10
22.0111877441
 20
-21.3221350445
 30
0.0
 10
22.0151257261
 20
-21.3300661228
 30
0.0
 11
21.9903320581
 21
-20.372221817
 31
0.0
 11
21.9909621048
 21
-20.5531794058
 31
0.0
 11
21.9924683714
 21
-20.7289696215
 31
0.0
 11
21.9948039822
 21
-20.8915532099
 31
0.0
 11
21.997876356
 21
-21.0345638513
 31
0.0
 11
22.001586838
 21
-21.1535048318
 31
0.0
 11
22.0058153914
 21
-21.2444666335
 31
0.0
 11
22.0103967496
 21
-21.3039256536
 31
0.0
 11
22.0151257261
 21
-21.3300661228
 31
0.0
  0
SPLINE
  5
6AA
100
AcDbEntity
  8
ASSI
100
AcDbSpline
 62
253
  6
CONTINUOUS
 70
0
 71
3
 72
15
 73
11
 74
9
 42
0.0000001
 43
0.0000001
 44
0.0000000001
 12
0.4263366297
 22
0.8586400627
 32
0.0
 13
0.0010295133
 23
0.9586577174
 33
0.0
 40
0.0
 40
0.0
 40
0.0
 40
0.0
 40
0.0277103715
 40
0.0899173742
 40
0.1849043347
 40
0.3090349513
 40
0.4582472871
 40
0.6278597218
 40
0.8112375471
 40
1.0
 40
1.0
 40
1.0
 40
1.0
 10
-22.0151257261
 20
-21.3300661228
 30
0.0
 10
-22.0111877439
 20
-21.3221350445
 30
0.0
 10
-22.0102012907
 20
-21.2923446398
 30
0.0
 10
-22.0042105506
 20
-21.2343749831
 30
0.0
 10
-22.0012989058
 20
-21.1440594744
 30
0.0
 10
-21.9973642458
 20
-21.0266097377
 30
0.0
 10
-21.9945511336
 20
-20.8850205487
 30
0.0
 10
-21.9922484141
 20
-20.7245783313
 30
0.0
 10
-21.9908069157
 20
-20.551457978
 30
0.0
 10
-21.9903968359
 20
-20.4325413444
 30
0.0
 10
-21.9903320581
 20
-20.372221817
 30
0.0
 11
-22.0151257261
 21
-21.3300661228
 31
0.0
 11
-22.0103967496
 21
-21.3039256533
 31
0.0
 11
-22.0058153914
 21
-21.2444666329
 31
0.0
 11
-22.0015868379
 21
-21.1535048313
 31
0.0
 11
-21.997876356
 21
-21.0345638511
 31
0.0
 11
-21.9948039822
 21
-20.8915532103
 31
0.0
 11
-21.9924683714
 21
-20.7289696223
 31
0.0
 11
-21.9909621048
 21
-20.5531794067
 31
0.0
 11
-21.9903320581
 21
-20.372221817
 31
0.0
  0
SPLINE
  5
6AB
100
AcDbEntity
  8
ASSI
100
AcDbSpline
 62
253
  6
CONTINUOUS
 70
0
 71
3
 72
15
 73
11
 74
9
 42
0.0000001
 43
0.0000001
 44
0.0000000001
 12
-0.0010330023
 22
0.9586577093
 32
0.0
 13
-0.4272385893
 23
0.858191621
 33
0.0
 40
0.0
 40
0.0
 40
0.0
 40
0.0
 40
0.1885991361
 40
0.3717542005
 40
0.5412809502
 40
0.6905601173
 40
0.8147657659
 40
0.9099124934
 40
0.9722577463
 40
1.0
 40
1.0
 40
1.0
 40
1.0
 10
-21.9903320581
 20
20.372221817
 30
0.0
 10
-21.9903969992
 20
20.4324891556
 30
0.0
 10
-21.9908064179
 20
20.5512824076
 30
0.0
 10
-21.9922451465
 20
20.7242520558
 30
0.0
 10
-21.9945443069
 20
20.8846169744
 30
0.0
 10
-21.9973538081
 20
21.0262246582
 30
0.0
 10
-22.0012908274
 20
21.1437693388
 30
0.0
 10
-22.004194932
 20
21.2342084006
 30
0.0
 10
-22.0102057226
 20
21.2922744622
 30
0.0
 10
-22.0111748723
 20
21.3221300663
 30
0.0
 10
-22.0151257261
 20
21.3300661228
 30
0.0
 11
-21.9903320581
 21
20.372221817
 31
0.0
 11
-21.9909613586
 21
20.5530228426
 31
0.0
 11
-21.9924642174
 21
20.7285995271
 31
0.0
 11
-21.9947958386
 21
20.8911010205
 31
0.0
 11
-21.9978663137
 21
21.0341757845
 31
0.0
 11
-22.0015751013
 21
21.153188782
 31
0.0
 11
-22.0058057577
 21
21.2443038127
 31
0.0
 11
-22.0103926605
 21
21.3038953329
 31
0.0
 11
-22.0151257261
 21
21.3300661228
 31
0.0
  0
SPLINE
  5
6AC
100
AcDbEntity
  8
ASSI
100
AcDbSpline
 62
253
  6
CONTINUOUS
 70
0
 71
3
 72
14
 73
10
 74
8
 42
0.0000001
 43
0.0000001
 44
0.0000000001
 12
0.2703573373
 22
-0.4217276666
 32
0.0
 13
0.5009461337
 23
-0.0005345647
 33
0.0
 40
0.0
 40
0.0
 40
0.0
 40
0.0
 40
0.0312059809
 40
0.1085145876
 40
0.2288099941
 40
0.3863821682
 40
0.5736402588
 40
0.7815329072
 40
1.0
 40
1.0
 40
1.0
 40
1.0
 10
-21.9903320581
 20
-20.372221817
 30
0.0
 10
-21.9875198028
 20
-20.3766086255
 30
0.0
 10
-21.96556225
 20
-20.376236027
 30
0.0
 10
-21.9309858182
 20
-20.3829052935
 30
0.0
 10
-21.8699771569
 20
-20.3848359872
 30
0.0
 10
-21.7930906035
 20
-20.388505175
 30
0.0
 10
-21.7005697526
 20
-20.3906233981
 30
0.0
 10
-21.5981974976
 20
-20.3922026205
 30
0.0
 10
-21.5269834774
 20
-20.3925755027
 30
0.0
 10
-21.4905033956
 20
-20.392614431
 30
0.0
 11
-21.9903320581
 21
-20.372221817
 31
0.0
 11
-21.9753507185
 21
-20.3766867112
 31
0.0
 11
-21.9368569838
 21
-20.3809351585
 31
0.0
 11
-21.8767170052
 21
-20.3847610897
 31
0.0
 11
-21.7978474047
 21
-20.3879789304
 31
0.0
 11
-21.7040732309
 21
-20.3904326212
 31
0.0
 11
-21.5999419964
 21
-20.3920031757
 31
0.0
 11
-21.4905033956
 21
-20.392614431
 31
0.0
  0
SPLINE
  5
6AD
100
AcDbEntity
  8
ASSI
100
AcDbSpline
 62
253
  6
CONTINUOUS
 70
0
 71
3
 72
14
 73
10
 74
8
 42
0.0000001
 43
0.0000001
 44
0.0000000001
 12
0.2707091674
 22
0.4215015139
 32
0.0
 13
0.5009457993
 23
0.0005345533
 33
0.0
 40
0.0
 40
0.0
 40
0.0
 40
0.0
 40
0.0312168224
 40
0.1085357613
 40
0.2288377816
 40
0.3864110588
 40
0.5736642169
 40
0.7815465725
 40
1.0
 40
1.0
 40
1.0
 40
1.0
 10
-21.9903320575
 20
20.372221817
 30
0.0
 10
-21.9875151642
 20
20.3766077962
 30
0.0
 10
-21.9655601832
 20
20.3762368448
 30
0.0
 10
-21.9309733804
 20
20.3829042101
 30
0.0
 10
-21.8699648863
 20
20.3848358173
 30
0.0
 10
-21.7930765876
 20
20.3885042406
 30
0.0
 10
-21.7005586254
 20
20.3906223832
 30
0.0
 10
-21.5981911058
 20
20.3922013419
 30
0.0
 10
-21.5269811713
 20
20.3925741887
 30
0.0
 10
-21.4905033957
 20
20.3926131137
 30
0.0
 11
-21.9903320575
 21
20.372221817
 31
0.0
 11
-21.9753450568
 21
20.3766866943
 31
0.0
 11
-21.9368461241
 21
20.3809349904
 31
0.0
 11
-21.8767028498
 21
20.3847606671
 31
0.0
 11
-21.7978327366
 21
20.3879782048
 31
0.0
 11
-21.7040610896
 21
20.3904316063
 31
0.0
 11
-21.5999350781
 21
20.3920019443
 31
0.0
 11
-21.4905033957
 21
20.3926131137
 31
0.0
  0
SPLINE
  5
6AE
100
AcDbEntity
  8
ASSI
100
AcDbSpline
 62
253
  6
CONTINUOUS
 70
0
 71
3
 72
14
 73
10
 74
8
 42
0.0000001
 43
0.0000001
 44
0.0000000001
 12
-0.2703572865
 22
0.4217276976
 32
0.0
 13
-0.5009461324
 23
0.0005345647
 33
0.0
 40
0.0
 40
0.0
 40
0.0
 40
0.0
 40
0.0312063565
 40
0.1085154129
 40
0.2288109288
 40
0.3863829678
 40
0.5736408784
 40
0.7815332834
 40
1.0
 40
1.0
 40
1.0
 40
1.0
 10
21.9903320581
 20
20.372221817
 30
0.0
 10
21.9875197695
 20
20.3766086786
 30
0.0
 10
21.96556203
 20
20.3762360264
 30
0.0
 10
21.9309854641
 20
20.3829053279
 30
0.0
 10
21.8699767295
 20
20.3848360053
 30
0.0
 10
21.7930902094
 20
20.3885051875
 30
0.0
 10
21.7005694524
 20
20.3906234035
 30
0.0
 10
21.598197331
 20
20.3922026218
 30
0.0
 10
21.5269834145
 20
20.3925755029
 30
0.0
 10
21.4905033956
 20
20.3926144311
 30
0.0
 11
21.9903320581
 21
20.372221817
 31
0.0
 11
21.9753505313
 21
20.3766867418
 31
0.0
 11
21.9368565705
 21
20.3809351925
 31
0.0
 11
21.8767165365
 21
20.3847611136
 31
0.0
 11
21.7978470035
 21
20.3879789437
 31
0.0
 11
21.70407292
 21
20.3904326276
 31
0.0
 11
21.5999418076
 21
20.3920031778
 31
0.0
 11
21.4905033956
 21
20.3926144311
 31
0.0
  0
SPLINE
  5
6AF
100
AcDbEntity
  8
ASSI
100
AcDbSpline
 62
253
  6
CONTINUOUS
 70
0
 71
3
 72
14
 73
10
 74
8
 42
0.0000001
 43
0.0000001
 44
0.0000000001
 12
-0.2708358052
 22
-0.4214200004
 32
0.0
 13
-0.50094567
 23
-0.0005346102
 33
0.0
 40
0.0
 40
0.0
 40
0.0
 40
0.0
 40
0.0312202893
 40
0.108542586
 40
0.2288471262
 40
0.3864211599
 40
0.5736727423
 40
0.7815514354
 40
1.0
 40
1.0
 40
1.0
 40
1.0
 10
21.990332057
 20
-20.372221817
 30
0.0
 10
21.987513533
 20
-20.3766074351
 30
0.0
 10
21.9655596486
 20
-20.3762370944
 30
0.0
 10
21.9309692151
 20
-20.3829037505
 30
0.0
 10
21.8699607517
 20
-20.3848356798
 30
0.0
 10
21.793071714
 20
-20.3885038332
 30
0.0
 10
21.7005546916
 20
-20.3906219517
 30
0.0
 10
21.598188829
 20
-20.3922008281
 30
0.0
 10
21.5269803499
 20
-20.3925736701
 30
0.0
 10
21.4905033957
 20
-20.3926125984
 30
0.0
 11
21.990332057
 21
-20.372221817
 31
0.0
 11
21.9753432291
 21
-20.3766866298
 31
0.0
 11
21.9368426062
 21
-20.3809348527
 31
0.0
 11
21.8766980768
 21
-20.3847604393
 31
0.0
 11
21.7978276005
 21
-20.3879778733
 31
0.0
 11
21.7040567647
 21
-20.3904311764
 31
0.0
 11
21.599932614
 21
-20.3920014471
 31
0.0
 11
21.4905033957
 21
-20.3926125984
 31
0.0
  0
SPLINE
  5
6B0
100
AcDbEntity
  8
ASSI
100
AcDbSpline
 62
253
  6
CONTINUOUS
 70
0
 71
3
 72
15
 73
11
 74
9
 42
0.0000001
 43
0.0000001
 44
0.0000000001
 12
-0.00103825
 22
1.4373094784
 32
0.0
 13
-0.4538127697
 23
1.363786488
 33
0.0
 40
0.0
 40
0.0
 40
0.0
 40
0.0
 40
0.1908582923
 40
0.3736182513
 40
0.5420817626
 40
0.6906944011
 40
0.8145692378
 40
0.9094569968
 40
0.971983551
 40
1.0
 40
1.0
 40
1.0
 40
1.0
 10
-21.4905033955
 20
20.3926143822
 30
0.0
 10
-21.4905694483
 20
20.4840551931
 30
0.0
 10
-21.4909844735
 20
20.6630555315
 30
0.0
 10
-21.4924317659
 20
20.9227705304
 30
0.0
 10
-21.4947344748
 20
21.1622161216
 30
0.0
 10
-21.497507156
 20
21.3735118925
 30
0.0
 10
-21.5015003122
 20
21.5493354796
 30
0.0
 10
-21.5042068242
 20
21.68443128
 30
0.0
 10
-21.5105815239
 20
21.7724224051
 30
0.0
 10
-21.5110589895
 20
21.8166447387
 30
0.0
 10
-21.5152970636
 20
21.8293808902
 30
0.0
 11
-21.4905033955
 21
20.3926143822
 31
0.0
 11
-21.4911454732
 21
20.6669361349
 31
0.0
 11
-21.4926541483
 21
20.9296144924
 31
0.0
 11
-21.4949763872
 21
21.1717376208
 31
0.0
 11
-21.4980340441
 21
21.3853181447
 31
0.0
 11
-21.5017278723
 21
21.563326347
 31
0.0
 11
-21.5059341747
 21
21.6996445776
 31
0.0
 11
-21.5105112004
 21
21.7893979818
 31
0.0
 11
-21.5152970636
 21
21.8293808902
 31
0.0
  0
SPLINE
  5
6B1
100
AcDbEntity
  8
ASSI
100
AcDbSpline
 62
253
  6
CONTINUOUS
 70
0
 71
3
 72
15
 73
11
 74
9
 42
0.0000001
 43
0.0000001
 44
0.0000000001
 12
-0.4538127755
 22
-1.363786486
 32
0.0
 13
-0.0010382499
 23
-1.4373094784
 33
0.0
 40
0.0
 40
0.0
 40
0.0
 40
0.0
 40
0.0280164493
 40
0.0905430038
 40
0.1854307629
 40
0.309305599
 40
0.4579182367
 40
0.6263817475
 40
0.8091417066
 40
1.0
 40
1.0
 40
1.0
 40
1.0
 10
21.5152970636
 20
21.8293808902
 30
0.0
 10
21.5110589894
 20
21.8166447386
 30
0.0
 10
21.510581524
 20
21.7724224047
 30
0.0
 10
21.5042068242
 20
21.6844312793
 30
0.0
 10
21.5015003122
 20
21.549335479
 30
0.0
 10
21.497507156
 20
21.3735118925
 30
0.0
 10
21.4947344748
 20
21.1622161224
 30
0.0
 10
21.492431766
 20
20.9227705318
 30
0.0
 10
21.4909844735
 20
20.6630555326
 30
0.0
 10
21.4905694483
 20
20.4840551936
 30
0.0
 10
21.4905033955
 20
20.3926143822
 30
0.0
 11
21.5152970636
 21
21.8293808902
 31
0.0
 11
21.5105112003
 21
21.7893979814
 31
0.0
 11
21.5059341747
 21
21.6996445768
 31
0.0
 11
21.5017278723
 21
21.5633263461
 31
0.0
 11
21.4980340441
 21
21.3853181446
 31
0.0
 11
21.4949763872
 21
21.1717376219
 31
0.0
 11
21.4926541483
 21
20.9296144941
 31
0.0
 11
21.4911454732
 21
20.6669361365
 31
0.0
 11
21.4905033955
 21
20.3926143822
 31
0.0
  0
SPLINE
  5
6B2
100
AcDbEntity
  8
RACCORDO
100
AcDbSpline
 62
7
  6
CONTINUOUS
 70
0
 71
3
 72
9
 73
5
 74
3
 42
0.0000001
 43
0.0000001
 44
0.0000000001
 12
0.1051530703
 22
0.01429129
 32
0.0
 13
0.0834869786
 23
0.0655869006
 33
0.0
 40
0.0
 40
0.0
 40
0.0
 40
0.0
 40
0.4892508558
 40
1.0
 40
1.0
 40
1.0
 40
1.0
 10
-6.0333009917
 20
-15.1981800772
 30
0.0
 10
-6.0161522485
 20
-15.1958494019
 30
0.0
 10
-5.9815673988
 20
-15.1865493308
 30
0.0
 10
-5.9507686878
 20
-15.1684401544
 30
0.0
 10
-5.9365550535
 20
-15.1572740033
 30
0.0
 11
-6.0333009917
 21
-15.1981800772
 31
0.0
 11
-5.9832171883
 21
-15.1846406626
 31
0.0
 11
-5.9365550535
 21
-15.1572740033
 31
0.0
  0
SPLINE
  5
6B3
100
AcDbEntity
  8
RACCORDO
100
AcDbSpline
 62
253
  6
CONTINUOUS
 70
0
 71
3
 72
13
 73
9
 74
7
 42
0.0000001
 43
0.0000001
 44
0.0000000001
 12
0.4531471379
 22
1.3639817812
 32
0.0
 13
0.0010335466
 23
1.4372847873
 33
0.0
 40
0.0
 40
0.0
 40
0.0
 40
0.0
 40
0.0449841981
 40
0.1500282055
 40
0.3088874388
 40
0.511990201
 40
0.7470865577
 40
1.0
 40
1.0
 40
1.0
 40
1.0
 10
-21.5152970636
 20
-21.8293808902
 30
0.0
 10
-21.5085022434
 20
-21.808928348
 30
0.0
 10
-21.5102738557
 20
-21.7353722864
 30
0.0
 10
-21.5001409546
 20
-21.5889295048
 30
0.0
 10
-21.4980883687
 20
-21.3645021782
 30
0.0
 10
-21.493414769
 20
-21.078761533
 30
0.0
 10
-21.4913285762
 20
-20.747562816
 30
0.0
 10
-21.4905905281
 20
-20.513783922
 30
0.0
 10
-21.4905033955
 20
-20.3926143743
 30
0.0
 11
-21.5152970636
 21
-21.8293808902
 31
0.0
 11
-21.5089628978
 21
-21.7650367924
 31
0.0
 11
-21.5030941782
 21
-21.614172705
 31
0.0
 11
-21.498043511
 21
-21.385902555
 31
0.0
 11
-21.4941179205
 21
-21.0940123652
 31
0.0
 11
-21.4915529501
 21
-20.7561215962
 31
0.0
 11
-21.4905033955
 21
-20.3926143743
 31
0.0
  0
SPLINE
  5
6B4
100
AcDbEntity
  8
RACCORDO
100
AcDbSpline
 62
253
  6
CONTINUOUS
 70
0
 71
3
 72
13
 73
9
 74
7
 42
0.0000001
 43
0.0000001
 44
0.0000000001
 12
0.0010335467
 22
-1.4372847873
 32
0.0
 13
0.4531471293
 23
-1.363981784
 33
0.0
 40
0.0
 40
0.0
 40
0.0
 40
0.0
 40
0.2529134423
 40
0.488009799
 40
0.6911125612
 40
0.8499717945
 40
0.9550158019
 40
1.0
 40
1.0
 40
1.0
 40
1.0
 10
21.4905033955
 20
-20.3926143743
 30
0.0
 10
21.4905905281
 20
-20.513783922
 30
0.0
 10
21.4913285762
 20
-20.747562816
 30
0.0
 10
21.493414769
 20
-21.078761533
 30
0.0
 10
21.4980883687
 20
-21.3645021782
 30
0.0
 10
21.5001409547
 20
-21.5889295048
 30
0.0
 10
21.5102738556
 20
-21.7353722864
 30
0.0
 10
21.5085022435
 20
-21.808928348
 30
0.0
 10
21.5152970636
 20
-21.8293808902
 30
0.0
 11
21.4905033955
 21
-20.3926143743
 31
0.0
 11
21.4915529501
 21
-20.7561215962
 31
0.0
 11
21.4941179205
 21
-21.0940123652
 31
0.0
 11
21.498043511
 21
-21.385902555
 31
0.0
 11
21.5030941782
 21
-21.614172705
 31
0.0
 11
21.5089628978
 21
-21.7650367924
 31
0.0
 11
21.5152970636
 21
-21.8293808902
 31
0.0
  0
SPLINE
  5
6B5
100
AcDbEntity
  8
RACCORDO
100
AcDbSpline
 62
253
  6
CONTINUOUS
 70
0
 71
3
 72
13
 73
9
 74
7
 42
0.0000001
 43
0.0000001
 44
0.0000000001
 12
-0.4272221684
 22
-0.8581586084
 32
0.0
 13
-0.0010329626
 23
-0.9586208381
 33
0.0
 40
0.0
 40
0.0
 40
0.0
 40
0.0
 40
0.0448525486
 40
0.1498894951
 40
0.3089853823
 40
0.5126560286
 40
0.7482975877
 40
1.0
 40
1.0
 40
1.0
 40
1.0
 10
22.0151257261
 20
21.3300661228
 30
0.0
 10
22.0087383917
 20
21.3172359226
 30
0.0
 10
22.0097153121
 20
21.2671245596
 30
0.0
 10
22.0002025031
 20
21.1704663376
 30
0.0
 10
21.9978286268
 20
21.0200718336
 30
0.0
 10
21.9932664518
 20
20.8292713408
 30
0.0
 10
21.9911436101
 20
20.6083448058
 30
0.0
 10
21.9904187245
 20
20.4526508761
 30
0.0
 10
21.9903320581
 20
20.372221817
 30
0.0
 11
22.0151257261
 21
21.3300661228
 31
0.0
 11
22.0088223647
 21
21.2875340604
 31
0.0
 11
22.0029408431
 21
21.1870153181
 31
0.0
 11
21.9978769459
 21
21.0345866885
 31
0.0
 11
21.9939399925
 21
20.8393833467
 31
0.0
 11
21.9913735011
 21
20.6135068869
 31
0.0
 11
21.9903320581
 21
20.372221817
 31
0.0
  0
SPLINE
  5
6B6
100
AcDbEntity
  8
RACCORDO
100
AcDbSpline
 62
253
  6
CONTINUOUS
 70
0
 71
3
 72
13
 73
9
 74
7
 42
0.0000001
 43
0.0000001
 44
0.0000000001
 12
0.0010294737
 22
-0.9586207894
 32
0.0
 13
0.4263201978
 23
-0.858606992
 33
0.0
 40
0.0
 40
0.0
 40
0.0
 40
0.0
 40
0.2515638222
 40
0.4870537768
 40
0.6906525943
 40
0.8499429398
 40
0.9551072208
 40
1.0
 40
1.0
 40
1.0
 40
1.0
 10
21.9903320581
 20
-20.372221817
 30
0.0
 10
21.9904183842
 20
-20.4526065869
 30
0.0
 10
21.9911426259
 20
-20.6082080018
 30
0.0
 10
21.9932646542
 20
-20.8290179522
 30
0.0
 10
21.997819117
 20
-21.0198116266
 30
0.0
 10
22.0001999159
 20
-21.1702813444
 30
0.0
 10
22.0096996361
 20
-21.2670639543
 30
0.0
 10
22.0087461599
 20
-21.3172177048
 30
0.0
 10
22.0151257261
 20
-21.3300661228
 30
0.0
 11
21.9903320581
 21
-20.372221817
 31
0.0
 11
21.9913725379
 21
-20.6133740212
 31
0.0
 11
21.9939358802
 21
-20.8391051637
 31
0.0
 11
21.9978679653
 21
-21.0342397225
 31
0.0
 11
22.0029335963
 21
-21.1868548006
 31
0.0
 11
22.0088188859
 21
-21.2874955913
 31
0.0
 11
22.0151257261
 21
-21.3300661228
 31
0.0
  0
SPLINE
  5
6B7
100
AcDbEntity
  8
RACCORDO
100
AcDbSpline
 62
253
  6
CONTINUOUS
 70
0
 71
3
 72
13
 73
9
 74
7
 42
0.0000001
 43
0.0000001
 44
0.0000000001
 12
0.4263202069
 22
0.8586069874
 32
0.0
 13
0.0010294737
 23
0.9586207894
 33
0.0
 40
0.0
 40
0.0
 40
0.0
 40
0.0
 40
0.0448927792
 40
0.1500570602
 40
0.3093474057
 40
0.5129462232
 40
0.7484361778
 40
1.0
 40
1.0
 40
1.0
 40
1.0
 10
-22.0151257261
 20
-21.3300661228
 30
0.0
 10
-22.0087461598
 20
-21.3172177049
 30
0.0
 10
-22.0096996363
 20
-21.2670639542
 30
0.0
 10
-22.0001999158
 20
-21.1702813444
 30
0.0
 10
-21.9978191171
 20
-21.0198116266
 30
0.0
 10
-21.9932646542
 20
-20.8290179522
 30
0.0
 10
-21.9911426259
 20
-20.6082080018
 30
0.0
 10
-21.9904183842
 20
-20.4526065869
 30
0.0
 10
-21.9903320581
 20
-20.372221817
 30
0.0
 11
-22.0151257261
 21
-21.3300661228
 31
0.0
 11
-22.0088188859
 21
-21.2874955912
 31
0.0
 11
-22.0029335963
 21
-21.1868548006
 31
0.0
 11
-21.9978679653
 21
-21.0342397225
 31
0.0
 11
-21.9939358802
 21
-20.8391051638
 31
0.0
 11
-21.9913725379
 21
-20.6133740212
 31
0.0
 11
-21.9903320581
 21
-20.372221817
 31
0.0
  0
SPLINE
  5
6B8
100
AcDbEntity
  8
RACCORDO
100
AcDbSpline
 62
253
  6
CONTINUOUS
 70
0
 71
3
 72
13
 73
9
 74
7
 42
0.0000001
 43
0.0000001
 44
0.0000000001
 12
-0.0010329626
 22
0.9586208381
 32
0.0
 13
-0.4272221572
 23
0.858158614
 33
0.0
 40
0.0
 40
0.0
 40
0.0
 40
0.0
 40
0.2517024123
 40
0.4873439714
 40
0.6910146177
 40
0.8501105049
 40
0.9551474515
 40
1.0
 40
1.0
 40
1.0
 40
1.0
 10
-21.9903320581
 20
20.372221817
 30
0.0
 10
-21.9904187245
 20
20.4526508761
 30
0.0
 10
-21.9911436101
 20
20.6083448058
 30
0.0
 10
-21.9932664518
 20
20.8292713408
 30
0.0
 10
-21.9978286268
 20
21.0200718336
 30
0.0
 10
-22.0002025032
 20
21.1704663376
 30
0.0
 10
-22.0097153119
 20
21.2671245597
 30
0.0
 10
-22.0087383919
 20
21.3172359226
 30
0.0
 10
-22.0151257261
 20
21.3300661228
 30
0.0
 11
-21.9903320581
 21
20.372221817
 31
0.0
 11
-21.9913735011
 21
20.6135068869
 31
0.0
 11
-21.9939399925
 21
20.8393833467
 31
0.0
 11
-21.9978769459
 21
21.0345866885
 31
0.0
 11
-22.0029408431
 21
21.1870153181
 31
0.0
 11
-22.0088223647
 21
21.2875340605
 31
0.0
 11
-22.0151257261
 21
21.3300661228
 31
0.0
  0
SPLINE
  5
6B9
100
AcDbEntity
  8
RACCORDO
100
AcDbSpline
 62
253
  6
CONTINUOUS
 70
0
 71
3
 72
11
 73
7
 74
5
 42
0.0000001
 43
0.0000001
 44
0.0000000001
 12
0.2702760982
 22
-0.4216009425
 32
0.0
 13
0.5007956054
 23
-0.0005344041
 33
0.0
 40
0.0
 40
0.0
 40
0.0
 40
0.0
 40
0.0847312255
 40
0.3031723635
 40
0.6239498673
 40
1.0
 40
1.0
 40
1.0
 40
1.0
 10
-21.9903320581
 20
-20.372221817
 30
0.0
 10
-21.9826984498
 20
-20.3841294051
 30
0.0
 10
-21.9191099028
 20
-20.3738859296
 30
0.0
 10
-21.8263305386
 20
-20.3923612796
 30
0.0
 10
-21.6680441702
 20
-20.3897323579
 30
0.0
 10
-21.5532781469
 20
-20.3925474434
 30
0.0
 10
-21.4905033956
 20
-20.392614431
 30
0.0
 11
-21.9903320581
 21
-20.372221817
 31
0.0
 11
-21.9486003846
 21
-20.379904988
 31
0.0
 11
-21.8394023251
 21
-20.3864566174
 31
0.0
 11
-21.6788200599
 21
-20.3909118118
 31
0.0
 11
-21.4905033956
 21
-20.392614431
 31
0.0
  0
SPLINE
  5
6BA
100
AcDbEntity
  8
RACCORDO
100
AcDbSpline
 62
253
  6
CONTINUOUS
 70
0
 71
3
 72
11
 73
7
 74
5
 42
0.0000001
 43
0.0000001
 44
0.0000000001
 12
0.2706278925
 22
0.4213749464
 32
0.0
 13
0.5007953835
 23
0.0005343625
 33
0.0
 40
0.0
 40
0.0
 40
0.0
 40
0.0
 40
0.084744093
 40
0.3031883347
 40
0.6239603544
 40
1.0
 40
1.0
 40
1.0
 40
1.0
 10
-21.9903320575
 20
20.372221817
 30
0.0
 10
-21.9826873524
 20
20.3841248295
 30
0.0
 10
-21.9191167335
 20
20.3738913171
 30
0.0
 10
-21.8263171229
 20
20.3923566537
 30
0.0
 10
-21.6680423341
 20
20.3897325844
 30
0.0
 10
-21.5532763685
 20
20.3925461332
 30
0.0
 10
-21.4905033957
 20
20.3926131137
 30
0.0
 11
-21.9903320575
 21
20.372221817
 31
0.0
 11
-21.9485937755
 21
20.3799045786
 31
0.0
 11
-21.8393941814
 21
20.3864557744
 31
0.0
 11
-21.6788147257
 21
20.3909106328
 31
0.0
 11
-21.4905033957
 21
20.3926131137
 31
0.0
  0
SPLINE
  5
6BB
100
AcDbEntity
  8
RACCORDO
100
AcDbSpline
 62
253
  6
CONTINUOUS
 70
0
 71
3
 72
11
 73
7
 74
5
 42
0.0000001
 43
0.0000001
 44
0.0000000001
 12
-0.2702760481
 22
0.4216009746
 32
0.0
 13
-0.5007956054
 23
0.0005344041
 33
0.0
 40
0.0
 40
0.0
 40
0.0
 40
0.0
 40
0.0847312236
 40
0.3031723612
 40
0.6239498658
 40
1.0
 40
1.0
 40
1.0
 40
1.0
 10
21.9903320581
 20
20.372221817
 30
0.0
 10
21.9826984513
 20
20.3841294058
 30
0.0
 10
21.9191099018
 20
20.3738859288
 30
0.0
 10
21.8263305405
 20
20.3923612802
 30
0.0
 10
21.6680441704
 20
20.3897323578
 30
0.0
 10
21.5532781472
 20
20.3925474436
 30
0.0
 10
21.4905033956
 20
20.3926144311
 30
0.0
 11
21.9903320581
 21
20.372221817
 31
0.0
 11
21.9486003856
 21
20.3799049881
 31
0.0
 11
21.8394023262
 21
20.3864566175
 31
0.0
 11
21.6788200607
 21
20.390911812
 31
0.0
 11
21.4905033956
 21
20.3926144311
 31
0.0
  0
SPLINE
  5
6BC
100
AcDbEntity
  8
RACCORDO
100
AcDbSpline
 62
253
  6
CONTINUOUS
 70
0
 71
3
 72
11
 73
7
 74
5
 42
0.0000001
 43
0.0000001
 44
0.0000000001
 12
-0.2707545066
 22
-0.4212934963
 32
0.0
 13
-0.5007952948
 23
-0.0005344234
 33
0.0
 40
0.0
 40
0.0
 40
0.0
 40
0.0
 40
0.0847486693
 40
0.303194019
 40
0.6239640879
 40
1.0
 40
1.0
 40
1.0
 40
1.0
 10
21.990332057
 20
-20.372221817
 30
0.0
 10
21.9826833623
 20
-20.3841231714
 30
0.0
 10
21.9191191976
 20
-20.3738931753
 30
0.0
 10
21.8263123198
 20
-20.3923549352
 30
0.0
 10
21.6680416855
 20
-20.389732596
 30
0.0
 10
21.5532757342
 20
-20.3925456109
 30
0.0
 10
21.4905033957
 20
-20.3926125984
 30
0.0
 11
21.990332057
 21
-20.372221817
 31
0.0
 11
21.9485914174
 21
-20.3799043888
 31
0.0
 11
21.8393912761
 21
-20.3864554064
 31
0.0
 11
21.6788128229
 21
-20.3909101462
 31
0.0
 11
21.4905033957
 21
-20.3926125984
 31
0.0
  0
SPLINE
  5
6BD
100
AcDbEntity
  8
RACCORDO
100
AcDbSpline
 62
253
  6
CONTINUOUS
 70
0
 71
3
 72
13
 73
9
 74
7
 42
0.0000001
 43
0.0000001
 44
0.0000000001
 12
-0.0010382321
 22
1.4372847521
 32
0.0
 13
-0.4538049627
 23
1.3637630265
 33
0.0
 40
0.0
 40
0.0
 40
0.0
 40
0.0
 40
0.2529134537
 40
0.4880097548
 40
0.6911126067
 40
0.849971899
 40
0.9550158815
 40
1.0
 40
1.0
 40
1.0
 40
1.0
 10
-21.4905033955
 20
20.3926143822
 30
0.0
 10
-21.4905909231
 20
20.5137839324
 30
0.0
 10
-21.4913287408
 20
20.7475627056
 30
0.0
 10
-21.4934134193
 20
21.0787618221
 30
0.0
 10
-21.4980917585
 20
21.3645013832
 30
0.0
 10
-21.5001351954
 20
21.5889315987
 30
0.0
 10
-21.5102852628
 20
21.735368694
 30
0.0
 10
-21.5084923915
 20
21.8089316644
 30
0.0
 10
-21.5152970636
 20
21.8293808902
 30
0.0
 11
-21.4905033955
 21
20.3926143822
 31
0.0
 11
-21.4915528811
 21
20.7561216127
 31
0.0
 11
-21.4941177774
 21
21.0940122949
 31
0.0
 11
-21.4980441147
 21
21.385902597
 31
0.0
 11
-21.5030945551
 21
21.6141728318
 31
0.0
 11
-21.508963134
 21
21.7650368855
 31
0.0
 11
-21.5152970636
 21
21.8293808902
 31
0.0
  0
SPLINE
  5
6BE
100
AcDbEntity
  8
RACCORDO
100
AcDbSpline
 62
253
  6
CONTINUOUS
 70
0
 71
3
 72
13
 73
9
 74
7
 42
0.0000001
 43
0.0000001
 44
0.0000000001
 12
-0.4538049685
 22
-1.3637630245
 32
0.0
 13
-0.001038232
 23
-1.4372847521
 33
0.0
 40
0.0
 40
0.0
 40
0.0
 40
0.0
 40
0.0449841185
 40
0.150028101
 40
0.3088873933
 40
0.5119902452
 40
0.7470865463
 40
1.0
 40
1.0
 40
1.0
 40
1.0
 10
21.5152970636
 20
21.8293808902
 30
0.0
 10
21.5084923914
 20
21.8089316644
 30
0.0
 10
21.5102852629
 20
21.7353686939
 30
0.0
 10
21.5001351953
 20
21.5889315987
 30
0.0
 10
21.4980917585
 20
21.3645013832
 30
0.0
 10
21.4934134193
 20
21.0787618221
 30
0.0
 10
21.4913287408
 20
20.7475627056
 30
0.0
 10
21.4905909231
 20
20.5137839324
 30
0.0
 10
21.4905033955
 20
20.3926143822
 30
0.0
 11
21.5152970636
 21
21.8293808902
 31
0.0
 11
21.508963134
 21
21.7650368855
 31
0.0
 11
21.5030945551
 21
21.6141728318
 31
0.0
 11
21.4980441147
 21
21.385902597
 31
0.0
 11
21.4941177774
 21
21.0940122949
 31
0.0
 11
21.4915528811
 21
20.7561216127
 31
0.0
 11
21.4905033955
 21
20.3926143822
 31
0.0
  0
SPLINE
  5
6BF
100
AcDbEntity
  8
PORTATASTO
100
AcDbSpline
 62
253
  6
CONTINUOUS
 70
0
 71
3
 72
16
 73
12
 74
10
 42
0.0000001
 43
0.0000001
 44
0.0000000001
 12
0.0000008704
 22
0.4330157742
 32
0.0
 13
-0.0039264321
 23
0.4329979721
 33
0.0
 40
0.0
 40
0.0
 40
0.0
 40
0.0
 40
0.1329751245
 40
0.2653311846
 40
0.3946181073
 40
0.5181583762
 40
0.634401034
 40
0.7423379184
 40
0.8404360722
 40
0.9268390095
 40
1.0
 40
1.0
 40
1.0
 40
1.0
 10
-19.561787934
 20
23.0783121635
 30
0.0
 10
-19.5617878955
 20
23.0975056057
 30
0.0
 10
-19.5617994599
 20
23.1358031362
 30
0.0
 10
-19.5618513905
 20
23.1927617377
 30
0.0
 10
-19.5619377246
 20
23.2483584828
 30
0.0
 10
-19.5620570265
 20
23.301629376
 30
0.0
 10
-19.5622073691
 20
23.351818544
 30
0.0
 10
-19.5623868205
 20
23.398335313
 30
0.0
 10
-19.5625928589
 20
23.4405449053
 30
0.0
 10
-19.5628216317
 20
23.4777347938
 30
0.0
 10
-19.5630011891
 20
23.5007653452
 30
0.0
 10
-19.5630969429
 20
23.5113248654
 30
0.0
 11
-19.561787934
 21
23.0783121635
 31
0.0
 11
-19.5618053522
 21
23.1358924874
 31
0.0
 11
-19.5618579904
 21
23.1932047251
 31
0.0
 11
-19.5619455652
 21
23.2491879335
 31
0.0
 11
-19.5620663307
 21
23.3026826824
 31
0.0
 11
-19.5622184617
 21
23.3530173569
 31
0.0
 11
-19.5624006525
 21
23.3997553754
 31
0.0
 11
-19.5626106607
 21
23.4422329043
 31
0.0
 11
-19.5628444971
 21
23.4796460083
 31
0.0
 11
-19.5630969429
 21
23.5113248654
 31
0.0
  0
SPLINE
  5
6C0
100
AcDbEntity
  8
PORTATASTO
100
AcDbSpline
 62
253
  6
CONTINUOUS
 70
0
 71
3
 72
16
 73
12
 74
10
 42
0.0000001
 43
0.0000001
 44
0.0000000001
 12
0.003926422
 22
0.4329979722
 32
0.0
 13
-0.0000008708
 23
0.4330157742
 33
0.0
 40
0.0
 40
0.0
 40
0.0
 40
0.0
 40
0.0731609897
 40
0.1595639282
 40
0.2576620814
 40
0.3655989661
 40
0.4818416237
 40
0.6053818927
 40
0.7346688153
 40
0.8670248755
 40
1.0
 40
1.0
 40
1.0
 40
1.0
 10
-19.5630969429
 20
-23.5113248654
 30
0.0
 10
-19.5630011893
 20
-23.5007653453
 30
0.0
 10
-19.5628216315
 20
-23.4777347939
 30
0.0
 10
-19.5625928589
 20
-23.4405449054
 30
0.0
 10
-19.5623868204
 20
-23.3983353129
 30
0.0
 10
-19.5622073691
 20
-23.351818544
 30
0.0
 10
-19.5620570264
 20
-23.3016293759
 30
0.0
 10
-19.5619377246
 20
-23.2483584828
 30
0.0
 10
-19.5618513905
 20
-23.1927617377
 30
0.0
 10
-19.5617994599
 20
-23.1358031362
 30
0.0
 10
-19.5617878954
 20
-23.0975056057
 30
0.0
 10
-19.561787934
 20
-23.0783121635
 30
0.0
 11
-19.5630969429
 21
-23.5113248654
 31
0.0
 11
-19.5628444971
 21
-23.4796460086
 31
0.0
 11
-19.5626106607
 21
-23.4422329041
 31
0.0
 11
-19.5624006525
 21
-23.3997553754
 31
0.0
 11
-19.5622184617
 21
-23.3530173569
 31
0.0
 11
-19.5620663307
 21
-23.3026826824
 31
0.0
 11
-19.5619455652
 21
-23.2491879335
 31
0.0
 11
-19.5618579904
 21
-23.1932047251
 31
0.0
 11
-19.5618053522
 21
-23.1358924873
 31
0.0
 11
-19.561787934
 21
-23.0783121635
 31
0.0
  0
SPLINE
  5
6C1
100
AcDbEntity
  8
PORTATASTO
100
AcDbSpline
 62
253
  6
CONTINUOUS
 70
0
 71
3
 72
16
 73
12
 74
10
 42
0.0000001
 43
0.0000001
 44
0.0000000001
 12
-0.003926422
 22
-0.4329979722
 32
0.0
 13
0.0000008708
 23
-0.4330157742
 33
0.0
 40
0.0
 40
0.0
 40
0.0
 40
0.0
 40
0.0731609897
 40
0.1595639282
 40
0.2576620814
 40
0.3655989661
 40
0.4818416237
 40
0.6053818927
 40
0.7346688153
 40
0.8670248755
 40
1.0
 40
1.0
 40
1.0
 40
1.0
 10
-21.8119030571
 20
23.5113248654
 30
0.0
 10
-21.8119988107
 20
23.5007653453
 30
0.0
 10
-21.8121783685
 20
23.4777347939
 30
0.0
 10
-21.8124071411
 20
23.4405449054
 30
0.0
 10
-21.8126131796
 20
23.3983353129
 30
0.0
 10
-21.8127926309
 20
23.351818544
 30
0.0
 10
-21.8129429736
 20
23.3016293759
 30
0.0
 10
-21.8130622754
 20
23.2483584828
 30
0.0
 10
-21.8131486095
 20
23.1927617377
 30
0.0
 10
-21.8132005401
 20
23.1358031362
 30
0.0
 10
-21.8132121046
 20
23.0975056057
 30
0.0
 10
-21.813212066
 20
23.0783121635
 30
0.0
 11
-21.8119030571
 21
23.5113248654
 31
0.0
 11
-21.8121555029
 21
23.4796460086
 31
0.0
 11
-21.8123893393
 21
23.4422329041
 31
0.0
 11
-21.8125993475
 21
23.3997553754
 31
0.0
 11
-21.8127815383
 21
23.3530173569
 31
0.0
 11
-21.8129336693
 21
23.3026826824
 31
0.0
 11
-21.8130544348
 21
23.2491879335
 31
0.0
 11
-21.8131420096
 21
23.1932047251
 31
0.0
 11
-21.8131946478
 21
23.1358924873
 31
0.0
 11
-21.813212066
 21
23.0783121635
 31
0.0
  0
SPLINE
  5
6C2
100
AcDbEntity
  8
PORTATASTO
100
AcDbSpline
 62
253
  6
CONTINUOUS
 70
0
 71
3
 72
16
 73
12
 74
10
 42
0.0000001
 43
0.0000001
 44
0.0000000001
 12
-0.0000008704
 22
-0.4330157742
 32
0.0
 13
0.0039264321
 23
-0.4329979721
 33
0.0
 40
0.0
 40
0.0
 40
0.0
 40
0.0
 40
0.1329751245
 40
0.2653311846
 40
0.3946181073
 40
0.5181583762
 40
0.634401034
 40
0.7423379184
 40
0.8404360722
 40
0.9268390095
 40
1.0
 40
1.0
 40
1.0
 40
1.0
 10
-21.813212066
 20
-23.0783121635
 30
0.0
 10
-21.8132121045
 20
-23.0975056057
 30
0.0
 10
-21.8132005401
 20
-23.1358031362
 30
0.0
 10
-21.8131486095
 20
-23.1927617377
 30
0.0
 10
-21.8130622754
 20
-23.2483584828
 30
0.0
 10
-21.8129429735
 20
-23.301629376
 30
0.0
 10
-21.8127926309
 20
-23.351818544
 30
0.0
 10
-21.8126131795
 20
-23.398335313
 30
0.0
 10
-21.8124071411
 20
-23.4405449053
 30
0.0
 10
-21.8121783683
 20
-23.4777347938
 30
0.0
 10
-21.8119988109
 20
-23.5007653452
 30
0.0
 10
-21.8119030571
 20
-23.5113248654
 30
0.0
 11
-21.813212066
 21
-23.0783121635
 31
0.0
 11
-21.8131946478
 21
-23.1358924874
 31
0.0
 11
-21.8131420096
 21
-23.1932047251
 31
0.0
 11
-21.8130544348
 21
-23.2491879335
 31
0.0
 11
-21.8129336693
 21
-23.3026826824
 31
0.0
 11
-21.8127815383
 21
-23.3530173569
 31
0.0
 11
-21.8125993475
 21
-23.3997553754
 31
0.0
 11
-21.8123893393
 21
-23.4422329043
 31
0.0
 11
-21.8121555029
 21
-23.4796460083
 31
0.0
 11
-21.8119030571
 21
-23.5113248654
 31
0.0
  0
SPLINE
  5
6C3
100
AcDbEntity
  8
PORTATASTO
100
AcDbSpline
 62
253
  6
CONTINUOUS
 70
0
 71
3
 72
16
 73
12
 74
10
 42
0.0000001
 43
0.0000001
 44
0.0000000001
 12
-0.003926422
 22
-0.4329979722
 32
0.0
 13
0.0000008708
 23
-0.4330157742
 33
0.0
 40
0.0
 40
0.0
 40
0.0
 40
0.0
 40
0.0731609897
 40
0.1595639282
 40
0.2576620814
 40
0.3655989661
 40
0.4818416237
 40
0.6053818927
 40
0.7346688153
 40
0.8670248755
 40
1.0
 40
1.0
 40
1.0
 40
1.0
 10
-2.9369030571
 20
23.5113248654
 30
0.0
 10
-2.9369988107
 20
23.5007653453
 30
0.0
 10
-2.9371783685
 20
23.4777347939
 30
0.0
 10
-2.9374071411
 20
23.4405449054
 30
0.0
 10
-2.9376131796
 20
23.3983353129
 30
0.0
 10
-2.9377926309
 20
23.351818544
 30
0.0
 10
-2.9379429736
 20
23.3016293759
 30
0.0
 10
-2.9380622754
 20
23.2483584828
 30
0.0
 10
-2.9381486095
 20
23.1927617377
 30
0.0
 10
-2.9382005401
 20
23.1358031362
 30
0.0
 10
-2.9382121046
 20
23.0975056057
 30
0.0
 10
-2.938212066
 20
23.0783121635
 30
0.0
 11
-2.9369030571
 21
23.5113248654
 31
0.0
 11
-2.9371555029
 21
23.4796460086
 31
0.0
 11
-2.9373893393
 21
23.4422329041
 31
0.0
 11
-2.9375993475
 21
23.3997553754
 31
0.0
 11
-2.9377815383
 21
23.3530173569
 31
0.0
 11
-2.9379336693
 21
23.3026826824
 31
0.0
 11
-2.9380544348
 21
23.2491879335
 31
0.0
 11
-2.9381420096
 21
23.1932047251
 31
0.0
 11
-2.9381946478
 21
23.1358924873
 31
0.0
 11
-2.938212066
 21
23.0783121635
 31
0.0
  0
SPLINE
  5
6C4
100
AcDbEntity
  8
PORTATASTO
100
AcDbSpline
 62
253
  6
CONTINUOUS
 70
0
 71
3
 72
16
 73
12
 74
10
 42
0.0000001
 43
0.0000001
 44
0.0000000001
 12
-0.0000008704
 22
-0.4330157742
 32
0.0
 13
0.0039264321
 23
-0.4329979721
 33
0.0
 40
0.0
 40
0.0
 40
0.0
 40
0.0
 40
0.1329751245
 40
0.2653311846
 40
0.3946181073
 40
0.5181583762
 40
0.634401034
 40
0.7423379184
 40
0.8404360722
 40
0.9268390095
 40
1.0
 40
1.0
 40
1.0
 40
1.0
 10
-2.938212066
 20
-23.0783121635
 30
0.0
 10
-2.9382121045
 20
-23.0975056057
 30
0.0
 10
-2.9382005401
 20
-23.1358031362
 30
0.0
 10
-2.9381486095
 20
-23.1927617377
 30
0.0
 10
-2.9380622754
 20
-23.2483584828
 30
0.0
 10
-2.9379429735
 20
-23.301629376
 30
0.0
 10
-2.9377926309
 20
-23.351818544
 30
0.0
 10
-2.9376131795
 20
-23.398335313
 30
0.0
 10
-2.9374071411
 20
-23.4405449053
 30
0.0
 10
-2.9371783683
 20
-23.4777347938
 30
0.0
 10
-2.9369988109
 20
-23.5007653452
 30
0.0
 10
-2.9369030571
 20
-23.5113248654
 30
0.0
 11
-2.938212066
 21
-23.0783121635
 31
0.0
 11
-2.9381946478
 21
-23.1358924874
 31
0.0
 11
-2.9381420096
 21
-23.1932047251
 31
0.0
 11
-2.9380544348
 21
-23.2491879335
 31
0.0
 11
-2.9379336693
 21
-23.3026826824
 31
0.0
 11
-2.9377815383
 21
-23.3530173569
 31
0.0
 11
-2.9375993475
 21
-23.3997553754
 31
0.0
 11
-2.9373893393
 21
-23.4422329043
 31
0.0
 11
-2.9371555029
 21
-23.4796460083
 31
0.0
 11
-2.9369030571
 21
-23.5113248654
 31
0.0
  0
SPLINE
  5
6C5
100
AcDbEntity
  8
PORTATASTO
100
AcDbSpline
 62
253
  6
CONTINUOUS
 70
0
 71
3
 72
16
 73
12
 74
10
 42
0.0000001
 43
0.0000001
 44
0.0000000001
 12
0.0000008704
 22
0.4330157742
 32
0.0
 13
-0.0039264321
 23
0.4329979721
 33
0.0
 40
0.0
 40
0.0
 40
0.0
 40
0.0
 40
0.1329751245
 40
0.2653311846
 40
0.3946181073
 40
0.5181583762
 40
0.634401034
 40
0.7423379184
 40
0.8404360722
 40
0.9268390095
 40
1.0
 40
1.0
 40
1.0
 40
1.0
 10
-0.686787934
 20
23.0783121635
 30
0.0
 10
-0.6867878955
 20
23.0975056057
 30
0.0
 10
-0.6867994599
 20
23.1358031362
 30
0.0
 10
-0.6868513905
 20
23.1927617377
 30
0.0
 10
-0.6869377246
 20
23.2483584828
 30
0.0
 10
-0.6870570265
 20
23.301629376
 30
0.0
 10
-0.6872073691
 20
23.351818544
 30
0.0
 10
-0.6873868205
 20
23.398335313
 30
0.0
 10
-0.6875928589
 20
23.4405449053
 30
0.0
 10
-0.6878216317
 20
23.4777347938
 30
0.0
 10
-0.6880011891
 20
23.5007653452
 30
0.0
 10
-0.6880969429
 20
23.5113248654
 30
0.0
 11
-0.686787934
 21
23.0783121635
 31
0.0
 11
-0.6868053522
 21
23.1358924874
 31
0.0
 11
-0.6868579904
 21
23.1932047251
 31
0.0
 11
-0.6869455652
 21
23.2491879335
 31
0.0
 11
-0.6870663307
 21
23.3026826824
 31
0.0
 11
-0.6872184617
 21
23.3530173569
 31
0.0
 11
-0.6874006525
 21
23.3997553754
 31
0.0
 11
-0.6876106607
 21
23.4422329043
 31
0.0
 11
-0.6878444971
 21
23.4796460083
 31
0.0
 11
-0.6880969429
 21
23.5113248654
 31
0.0
  0
SPLINE
  5
6C6
100
AcDbEntity
  8
PORTATASTO
100
AcDbSpline
 62
253
  6
CONTINUOUS
 70
0
 71
3
 72
16
 73
12
 74
10
 42
0.0000001
 43
0.0000001
 44
0.0000000001
 12
0.003926422
 22
0.4329979722
 32
0.0
 13
-0.0000008708
 23
0.4330157742
 33
0.0
 40
0.0
 40
0.0
 40
0.0
 40
0.0
 40
0.0731609897
 40
0.1595639282
 40
0.2576620814
 40
0.3655989661
 40
0.4818416237
 40
0.6053818927
 40
0.7346688153
 40
0.8670248755
 40
1.0
 40
1.0
 40
1.0
 40
1.0
 10
-0.6880969429
 20
-23.5113248654
 30
0.0
 10
-0.6880011893
 20
-23.5007653453
 30
0.0
 10
-0.6878216315
 20
-23.4777347939
 30
0.0
 10
-0.6875928589
 20
-23.4405449054
 30
0.0
 10
-0.6873868204
 20
-23.3983353129
 30
0.0
 10
-0.6872073691
 20
-23.351818544
 30
0.0
 10
-0.6870570264
 20
-23.3016293759
 30
0.0
 10
-0.6869377246
 20
-23.2483584828
 30
0.0
 10
-0.6868513905
 20
-23.1927617377
 30
0.0
 10
-0.6867994599
 20
-23.1358031362
 30
0.0
 10
-0.6867878954
 20
-23.0975056057
 30
0.0
 10
-0.686787934
 20
-23.0783121635
 30
0.0
 11
-0.6880969429
 21
-23.5113248654
 31
0.0
 11
-0.6878444971
 21
-23.4796460086
 31
0.0
 11
-0.6876106607
 21
-23.4422329041
 31
0.0
 11
-0.6874006525
 21
-23.3997553754
 31
0.0
 11
-0.6872184617
 21
-23.3530173569
 31
0.0
 11
-0.6870663307
 21
-23.3026826824
 31
0.0
 11
-0.6869455652
 21
-23.2491879335
 31
0.0
 11
-0.6868579904
 21
-23.1932047251
 31
0.0
 11
-0.6868053522
 21
-23.1358924873
 31
0.0
 11
-0.686787934
 21
-23.0783121635
 31
0.0
  0
SPLINE
  5
6C7
100
AcDbEntity
  8
PORTATASTO
100
AcDbSpline
 62
7
  6
CONTINUOUS
 70
0
 71
3
 72
19
 73
15
 74
13
 42
0.0000001
 43
0.0000001
 44
0.0000000001
 12
-0.4500351504
 22
-0.0031247734
 32
0.0
 13
-0.3803582905
 23
-0.240559705
 33
0.0
 40
0.0
 40
0.0
 40
0.0
 40
0.0
 40
0.0614780033
 40
0.1291586662
 40
0.2025429257
 40
0.2808336398
 40
0.3632485377
 40
0.449057599
 40
0.5375926221
 40
0.6282342422
 40
0.7203896159
 40
0.813467532
 40
0.9068812199
 40
1.0
 40
1.0
 40
1.0
 40
1.0
 10
15.541351552
 20
23.7905696528
 30
0.0
 10
15.5321291312
 20
23.7905056178
 30
0.0
 10
15.5127709294
 20
23.7880777929
 30
0.0
 10
15.483411277
 20
23.7800786599
 30
0.0
 10
15.4525520764
 20
23.7685530698
 30
0.0
 10
15.4204711144
 20
23.7542352027
 30
0.0
 10
15.3873849739
 20
23.7376961428
 30
0.0
 10
15.3534895498
 20
23.7193913937
 30
0.0
 10
15.3189561754
 20
23.6996970806
 30
0.0
 10
15.283944064
 20
23.6789346877
 30
0.0
 10
15.2486078654
 20
23.6573901086
 30
0.0
 10
15.2131032414
 20
23.635326603
 30
0.0
 10
15.1775949594
 20
23.6129967127
 30
0.0
 10
15.1539452593
 20
23.5980392697
 30
0.0
 10
15.1421390926
 20
23.5905723943
 30
0.0
 11
15.541351552
 21
23.7905696528
 31
0.0
 11
15.51384467
 21
23.7875887542
 31
0.0
 11
15.4843768311
 21
23.7798801731
 31
0.0
 11
15.4533714063
 21
23.7685047778
 31
0.0
 11
15.4211442455
 21
23.7542613706
 31
0.0
 11
15.387929476
 21
23.7377542841
 31
0.0
 11
15.3539208267
 21
23.7194577379
 31
0.0
 11
15.3192868713
 21
23.6997574882
 31
0.0
 11
15.2841820999
 21
23.6789797216
 31
0.0
 11
15.2487567417
 21
23.6574123918
 31
0.0
 11
15.2131658118
 21
23.6353216058
 31
0.0
 11
15.1775671466
 21
23.6129579072
 31
0.0
 11
15.1421390926
 21
23.5905723943
 31
0.0
  0
SPLINE
  5
6C8
100
AcDbEntity
  8
PORTATASTO
100
AcDbSpline
 62
7
  6
CONTINUOUS
 70
0
 71
3
 72
19
 73
15
 74
13
 42
0.0000001
 43
0.0000001
 44
0.0000000001
 12
0.4500351504
 22
0.0031247734
 32
0.0
 13
0.3803582905
 23
0.240559705
 33
0.0
 40
0.0
 40
0.0
 40
0.0
 40
0.0
 40
0.0614780033
 40
0.1291586662
 40
0.2025429257
 40
0.2808336398
 40
0.3632485377
 40
0.449057599
 40
0.5375926221
 40
0.6282342422
 40
0.7203896159
 40
0.813467532
 40
0.9068812199
 40
1.0
 40
1.0
 40
1.0
 40
1.0
 10
6.958648448
 20
-23.7905696528
 30
0.0
 10
6.9678708688
 20
-23.7905056178
 30
0.0
 10
6.9872290706
 20
-23.7880777929
 30
0.0
 10
7.016588723
 20
-23.7800786599
 30
0.0
 10
7.0474479236
 20
-23.7685530698
 30
0.0
 10
7.0795288856
 20
-23.7542352027
 30
0.0
 10
7.1126150261
 20
-23.7376961428
 30
0.0
 10
7.1465104502
 20
-23.7193913937
 30
0.0
 10
7.1810438246
 20
-23.6996970806
 30
0.0
 10
7.216055936
 20
-23.6789346877
 30
0.0
 10
7.2513921346
 20
-23.6573901086
 30
0.0
 10
7.2868967586
 20
-23.635326603
 30
0.0
 10
7.3224050406
 20
-23.6129967127
 30
0.0
 10
7.3460547407
 20
-23.5980392697
 30
0.0
 10
7.3578609074
 20
-23.5905723943
 30
0.0
 11
6.958648448
 21
-23.7905696528
 31
0.0
 11
6.98615533
 21
-23.7875887542
 31
0.0
 11
7.0156231689
 21
-23.7798801731
 31
0.0
 11
7.0466285937
 21
-23.7685047778
 31
0.0
 11
7.0788557545
 21
-23.7542613706
 31
0.0
 11
7.112070524
 21
-23.7377542841
 31
0.0
 11
7.1460791733
 21
-23.7194577379
 31
0.0
 11
7.1807131287
 21
-23.6997574882
 31
0.0
 11
7.2158179001
 21
-23.6789797216
 31
0.0
 11
7.2512432583
 21
-23.6574123918
 31
0.0
 11
7.2868341882
 21
-23.6353216058
 31
0.0
 11
7.3224328534
 21
-23.6129579072
 31
0.0
 11
7.3578609074
 21
-23.5905723943
 31
0.0
  0
SPLINE
  5
6C9
100
AcDbEntity
  8
PORTATASTO
100
AcDbSpline
 62
7
  6
CONTINUOUS
 70
0
 71
3
 72
19
 73
15
 74
13
 42
0.0000001
 43
0.0000001
 44
0.0000000001
 12
0.4500351504
 22
-0.0031247734
 32
0.0
 13
0.3803582905
 23
-0.240559705
 33
0.0
 40
0.0
 40
0.0
 40
0.0
 40
0.0
 40
0.0614780033
 40
0.1291586662
 40
0.2025429257
 40
0.2808336398
 40
0.3632485377
 40
0.449057599
 40
0.5375926221
 40
0.6282342422
 40
0.7203896159
 40
0.813467532
 40
0.9068812199
 40
1.0
 40
1.0
 40
1.0
 40
1.0
 10
6.958648448
 20
23.7905696528
 30
0.0
 10
6.9678708688
 20
23.7905056178
 30
0.0
 10
6.9872290706
 20
23.7880777929
 30
0.0
 10
7.016588723
 20
23.7800786599
 30
0.0
 10
7.0474479236
 20
23.7685530698
 30
0.0
 10
7.0795288856
 20
23.7542352027
 30
0.0
 10
7.1126150261
 20
23.7376961428
 30
0.0
 10
7.1465104502
 20
23.7193913937
 30
0.0
 10
7.1810438246
 20
23.6996970806
 30
0.0
 10
7.216055936
 20
23.6789346877
 30
0.0
 10
7.2513921346
 20
23.6573901086
 30
0.0
 10
7.2868967586
 20
23.635326603
 30
0.0
 10
7.3224050406
 20
23.6129967127
 30
0.0
 10
7.3460547407
 20
23.5980392697
 30
0.0
 10
7.3578609074
 20
23.5905723943
 30
0.0
 11
6.958648448
 21
23.7905696528
 31
0.0
 11
6.98615533
 21
23.7875887542
 31
0.0
 11
7.0156231689
 21
23.7798801731
 31
0.0
 11
7.0466285937
 21
23.7685047778
 31
0.0
 11
7.0788557545
 21
23.7542613706
 31
0.0
 11
7.112070524
 21
23.7377542841
 31
0.0
 11
7.1460791733
 21
23.7194577379
 31
0.0
 11
7.1807131287
 21
23.6997574882
 31
0.0
 11
7.2158179001
 21
23.6789797216
 31
0.0
 11
7.2512432583
 21
23.6574123918
 31
0.0
 11
7.2868341882
 21
23.6353216058
 31
0.0
 11
7.3224328534
 21
23.6129579072
 31
0.0
 11
7.3578609074
 21
23.5905723943
 31
0.0
  0
SPLINE
  5
6CA
100
AcDbEntity
  8
PORTATASTO
100
AcDbSpline
 62
7
  6
CONTINUOUS
 70
0
 71
3
 72
19
 73
15
 74
13
 42
0.0000001
 43
0.0000001
 44
0.0000000001
 12
-0.4500351504
 22
0.0031247734
 32
0.0
 13
-0.3803582905
 23
0.240559705
 33
0.0
 40
0.0
 40
0.0
 40
0.0
 40
0.0
 40
0.0614780033
 40
0.1291586662
 40
0.2025429257
 40
0.2808336398
 40
0.3632485377
 40
0.449057599
 40
0.5375926221
 40
0.6282342422
 40
0.7203896159
 40
0.813467532
 40
0.9068812199
 40
1.0
 40
1.0
 40
1.0
 40
1.0
 10
15.541351552
 20
-23.7905696528
 30
0.0
 10
15.5321291312
 20
-23.7905056178
 30
0.0
 10
15.5127709294
 20
-23.7880777929
 30
0.0
 10
15.483411277
 20
-23.7800786599
 30
0.0
 10
15.4525520764
 20
-23.7685530698
 30
0.0
 10
15.4204711144
 20
-23.7542352027
 30
0.0
 10
15.3873849739
 20
-23.7376961428
 30
0.0
 10
15.3534895498
 20
-23.7193913937
 30
0.0
 10
15.3189561754
 20
-23.6996970806
 30
0.0
 10
15.283944064
 20
-23.6789346877
 30
0.0
 10
15.2486078654
 20
-23.6573901086
 30
0.0
 10
15.2131032414
 20
-23.635326603
 30
0.0
 10
15.1775949594
 20
-23.6129967127
 30
0.0
 10
15.1539452593
 20
-23.5980392697
 30
0.0
 10
15.1421390926
 20
-23.5905723943
 30
0.0
 11
15.541351552
 21
-23.7905696528
 31
0.0
 11
15.51384467
 21
-23.7875887542
 31
0.0
 11
15.4843768311
 21
-23.7798801731
 31
0.0
 11
15.4533714063
 21
-23.7685047778
 31
0.0
 11
15.4211442455
 21
-23.7542613706
 31
0.0
 11
15.387929476
 21
-23.7377542841
 31
0.0
 11
15.3539208267
 21
-23.7194577379
 31
0.0
 11
15.3192868713
 21
-23.6997574882
 31
0.0
 11
15.2841820999
 21
-23.6789797216
 31
0.0
 11
15.2487567417
 21
-23.6574123918
 31
0.0
 11
15.2131658118
 21
-23.6353216058
 31
0.0
 11
15.1775671466
 21
-23.6129579072
 31
0.0
 11
15.1421390926
 21
-23.5905723943
 31
0.0
  0
SPLINE
  5
6CB
100
AcDbEntity
  8
PORTATASTO
100
AcDbSpline
 62
7
  6
CONTINUOUS
 70
0
 71
3
 72
19
 73
15
 74
13
 42
0.0000001
 43
0.0000001
 44
0.0000000001
 12
-0.4500351504
 22
-0.0031247734
 32
0.0
 13
-0.3803582905
 23
-0.240559705
 33
0.0
 40
0.0
 40
0.0
 40
0.0
 40
0.0
 40
0.0614780033
 40
0.1291586662
 40
0.2025429257
 40
0.2808336398
 40
0.3632485377
 40
0.449057599
 40
0.5375926221
 40
0.6282342422
 40
0.7203896159
 40
0.813467532
 40
0.9068812199
 40
1.0
 40
1.0
 40
1.0
 40
1.0
 10
-6.958648448
 20
23.7905696528
 30
0.0
 10
-6.9678708688
 20
23.7905056178
 30
0.0
 10
-6.9872290706
 20
23.7880777929
 30
0.0
 10
-7.016588723
 20
23.7800786599
 30
0.0
 10
-7.0474479236
 20
23.7685530698
 30
0.0
 10
-7.0795288856
 20
23.7542352027
 30
0.0
 10
-7.1126150261
 20
23.7376961428
 30
0.0
 10
-7.1465104502
 20
23.7193913937
 30
0.0
 10
-7.1810438246
 20
23.6996970806
 30
0.0
 10
-7.216055936
 20
23.6789346877
 30
0.0
 10
-7.2513921346
 20
23.6573901086
 30
0.0
 10
-7.2868967586
 20
23.635326603
 30
0.0
 10
-7.3224050406
 20
23.6129967127
 30
0.0
 10
-7.3460547407
 20
23.5980392697
 30
0.0
 10
-7.3578609074
 20
23.5905723943
 30
0.0
 11
-6.958648448
 21
23.7905696528
 31
0.0
 11
-6.98615533
 21
23.7875887542
 31
0.0
 11
-7.0156231689
 21
23.7798801731
 31
0.0
 11
-7.0466285937
 21
23.7685047778
 31
0.0
 11
-7.0788557545
 21
23.7542613706
 31
0.0
 11
-7.112070524
 21
23.7377542841
 31
0.0
 11
-7.1460791733
 21
23.7194577379
 31
0.0
 11
-7.1807131287
 21
23.6997574882
 31
0.0
 11
-7.2158179001
 21
23.6789797216
 31
0.0
 11
-7.2512432583
 21
23.6574123918
 31
0.0
 11
-7.2868341882
 21
23.6353216058
 31
0.0
 11
-7.3224328534
 21
23.6129579072
 31
0.0
 11
-7.3578609074
 21
23.5905723943
 31
0.0
  0
SPLINE
  5
6CC
100
AcDbEntity
  8
PORTATASTO
100
AcDbSpline
 62
7
  6
CONTINUOUS
 70
0
 71
3
 72
19
 73
15
 74
13
 42
0.0000001
 43
0.0000001
 44
0.0000000001
 12
0.4500351504
 22
0.0031247734
 32
0.0
 13
0.3803582905
 23
0.240559705
 33
0.0
 40
0.0
 40
0.0
 40
0.0
 40
0.0
 40
0.0614780033
 40
0.1291586662
 40
0.2025429257
 40
0.2808336398
 40
0.3632485377
 40
0.449057599
 40
0.5375926221
 40
0.6282342422
 40
0.7203896159
 40
0.813467532
 40
0.9068812199
 40
1.0
 40
1.0
 40
1.0
 40
1.0
 10
-15.541351552
 20
-23.7905696528
 30
0.0
 10
-15.5321291312
 20
-23.7905056178
 30
0.0
 10
-15.5127709294
 20
-23.7880777929
 30
0.0
 10
-15.483411277
 20
-23.7800786599
 30
0.0
 10
-15.4525520764
 20
-23.7685530698
 30
0.0
 10
-15.4204711144
 20
-23.7542352027
 30
0.0
 10
-15.3873849739
 20
-23.7376961428
 30
0.0
 10
-15.3534895498
 20
-23.7193913937
 30
0.0
 10
-15.3189561754
 20
-23.6996970806
 30
0.0
 10
-15.283944064
 20
-23.6789346877
 30
0.0
 10
-15.2486078654
 20
-23.6573901086
 30
0.0
 10
-15.2131032414
 20
-23.635326603
 30
0.0
 10
-15.1775949594
 20
-23.6129967127
 30
0.0
 10
-15.1539452593
 20
-23.5980392697
 30
0.0
 10
-15.1421390926
 20
-23.5905723943
 30
0.0
 11
-15.541351552
 21
-23.7905696528
 31
0.0
 11
-15.51384467
 21
-23.7875887542
 31
0.0
 11
-15.4843768311
 21
-23.7798801731
 31
0.0
 11
-15.4533714063
 21
-23.7685047778
 31
0.0
 11
-15.4211442455
 21
-23.7542613706
 31
0.0
 11
-15.387929476
 21
-23.7377542841
 31
0.0
 11
-15.3539208267
 21
-23.7194577379
 31
0.0
 11
-15.3192868713
 21
-23.6997574882
 31
0.0
 11
-15.2841820999
 21
-23.6789797216
 31
0.0
 11
-15.2487567417
 21
-23.6574123918
 31
0.0
 11
-15.2131658118
 21
-23.6353216058
 31
0.0
 11
-15.1775671466
 21
-23.6129579072
 31
0.0
 11
-15.1421390926
 21
-23.5905723943
 31
0.0
  0
SPLINE
  5
6CD
100
AcDbEntity
  8
PORTATASTO
100
AcDbSpline
 62
7
  6
CONTINUOUS
 70
0
 71
3
 72
19
 73
15
 74
13
 42
0.0000001
 43
0.0000001
 44
0.0000000001
 12
-0.4500351504
 22
0.0031247734
 32
0.0
 13
-0.3803582905
 23
0.240559705
 33
0.0
 40
0.0
 40
0.0
 40
0.0
 40
0.0
 40
0.0614780033
 40
0.1291586662
 40
0.2025429257
 40
0.2808336398
 40
0.3632485377
 40
0.449057599
 40
0.5375926221
 40
0.6282342422
 40
0.7203896159
 40
0.813467532
 40
0.9068812199
 40
1.0
 40
1.0
 40
1.0
 40
1.0
 10
-6.958648448
 20
-23.7905696528
 30
0.0
 10
-6.9678708688
 20
-23.7905056178
 30
0.0
 10
-6.9872290706
 20
-23.7880777929
 30
0.0
 10
-7.016588723
 20
-23.7800786599
 30
0.0
 10
-7.0474479236
 20
-23.7685530698
 30
0.0
 10
-7.0795288856
 20
-23.7542352027
 30
0.0
 10
-7.1126150261
 20
-23.7376961428
 30
0.0
 10
-7.1465104502
 20
-23.7193913937
 30
0.0
 10
-7.1810438246
 20
-23.6996970806
 30
0.0
 10
-7.216055936
 20
-23.6789346877
 30
0.0
 10
-7.2513921346
 20
-23.6573901086
 30
0.0
 10
-7.2868967586
 20
-23.635326603
 30
0.0
 10
-7.3224050406
 20
-23.6129967127
 30
0.0
 10
-7.3460547407
 20
-23.5980392697
 30
0.0
 10
-7.3578609074
 20
-23.5905723943
 30
0.0
 11
-6.958648448
 21
-23.7905696528
 31
0.0
 11
-6.98615533
 21
-23.7875887542
 31
0.0
 11
-7.0156231689
 21
-23.7798801731
 31
0.0
 11
-7.0466285937
 21
-23.7685047778
 31
0.0
 11
-7.0788557545
 21
-23.7542613706
 31
0.0
 11
-7.112070524
 21
-23.7377542841
 31
0.0
 11
-7.1460791733
 21
-23.7194577379
 31
0.0
 11
-7.1807131287
 21
-23.6997574882
 31
0.0
 11
-7.2158179001
 21
-23.6789797216
 31
0.0
 11
-7.2512432583
 21
-23.6574123918
 31
0.0
 11
-7.2868341882
 21
-23.6353216058
 31
0.0
 11
-7.3224328534
 21
-23.6129579072
 31
0.0
 11
-7.3578609074
 21
-23.5905723943
 31
0.0
  0
SPLINE
  5
6CE
100
AcDbEntity
  8
PORTATASTO
100
AcDbSpline
 62
253
  6
CONTINUOUS
 70
0
 71
3
 72
16
 73
12
 74
10
 42
0.0000001
 43
0.0000001
 44
0.0000000001
 12
0.003926422
 22
0.4329979722
 32
0.0
 13
-0.0000008708
 23
0.4330157742
 33
0.0
 40
0.0
 40
0.0
 40
0.0
 40
0.0
 40
0.0731609897
 40
0.1595639282
 40
0.2576620814
 40
0.3655989661
 40
0.4818416237
 40
0.6053818927
 40
0.7346688153
 40
0.8670248755
 40
1.0
 40
1.0
 40
1.0
 40
1.0
 10
2.9369030571
 20
-23.5113248654
 30
0.0
 10
2.9369988107
 20
-23.5007653453
 30
0.0
 10
2.9371783685
 20
-23.4777347939
 30
0.0
 10
2.9374071411
 20
-23.4405449054
 30
0.0
 10
2.9376131796
 20
-23.3983353129
 30
0.0
 10
2.9377926309
 20
-23.351818544
 30
0.0
 10
2.9379429736
 20
-23.3016293759
 30
0.0
 10
2.9380622754
 20
-23.2483584828
 30
0.0
 10
2.9381486095
 20
-23.1927617377
 30
0.0
 10
2.9382005401
 20
-23.1358031362
 30
0.0
 10
2.9382121046
 20
-23.0975056057
 30
0.0
 10
2.938212066
 20
-23.0783121635
 30
0.0
 11
2.9369030571
 21
-23.5113248654
 31
0.0
 11
2.9371555029
 21
-23.4796460086
 31
0.0
 11
2.9373893393
 21
-23.4422329041
 31
0.0
 11
2.9375993475
 21
-23.3997553754
 31
0.0
 11
2.9377815383
 21
-23.3530173569
 31
0.0
 11
2.9379336693
 21
-23.3026826824
 31
0.0
 11
2.9380544348
 21
-23.2491879335
 31
0.0
 11
2.9381420096
 21
-23.1932047251
 31
0.0
 11
2.9381946478
 21
-23.1358924873
 31
0.0
 11
2.938212066
 21
-23.0783121635
 31
0.0
  0
SPLINE
  5
6CF
100
AcDbEntity
  8
PORTATASTO
100
AcDbSpline
 62
253
  6
CONTINUOUS
 70
0
 71
3
 72
16
 73
12
 74
10
 42
0.0000001
 43
0.0000001
 44
0.0000000001
 12
0.0000008704
 22
0.4330157742
 32
0.0
 13
-0.0039264321
 23
0.4329979721
 33
0.0
 40
0.0
 40
0.0
 40
0.0
 40
0.0
 40
0.1329751245
 40
0.2653311846
 40
0.3946181073
 40
0.5181583762
 40
0.634401034
 40
0.7423379184
 40
0.8404360722
 40
0.9268390095
 40
1.0
 40
1.0
 40
1.0
 40
1.0
 10
2.938212066
 20
23.0783121635
 30
0.0
 10
2.9382121045
 20
23.0975056057
 30
0.0
 10
2.9382005401
 20
23.1358031362
 30
0.0
 10
2.9381486095
 20
23.1927617377
 30
0.0
 10
2.9380622754
 20
23.2483584828
 30
0.0
 10
2.9379429735
 20
23.301629376
 30
0.0
 10
2.9377926309
 20
23.351818544
 30
0.0
 10
2.9376131795
 20
23.398335313
 30
0.0
 10
2.9374071411
 20
23.4405449053
 30
0.0
 10
2.9371783683
 20
23.4777347938
 30
0.0
 10
2.9369988109
 20
23.5007653452
 30
0.0
 10
2.9369030571
 20
23.5113248654
 30
0.0
 11
2.938212066
 21
23.0783121635
 31
0.0
 11
2.9381946478
 21
23.1358924874
 31
0.0
 11
2.9381420096
 21
23.1932047251
 31
0.0
 11
2.9380544348
 21
23.2491879335
 31
0.0
 11
2.9379336693
 21
23.3026826824
 31
0.0
 11
2.9377815383
 21
23.3530173569
 31
0.0
 11
2.9375993475
 21
23.3997553754
 31
0.0
 11
2.9373893393
 21
23.4422329043
 31
0.0
 11
2.9371555029
 21
23.4796460083
 31
0.0
 11
2.9369030571
 21
23.5113248654
 31
0.0
  0
SPLINE
  5
6D0
100
AcDbEntity
  8
PORTATASTO
100
AcDbSpline
 62
253
  6
CONTINUOUS
 70
0
 71
3
 72
16
 73
12
 74
10
 42
0.0000001
 43
0.0000001
 44
0.0000000001
 12
-0.0000008704
 22
-0.4330157742
 32
0.0
 13
0.0039264321
 23
-0.4329979721
 33
0.0
 40
0.0
 40
0.0
 40
0.0
 40
0.0
 40
0.1329751245
 40
0.2653311846
 40
0.3946181073
 40
0.5181583762
 40
0.634401034
 40
0.7423379184
 40
0.8404360722
 40
0.9268390095
 40
1.0
 40
1.0
 40
1.0
 40
1.0
 10
0.686787934
 20
-23.0783121635
 30
0.0
 10
0.6867878955
 20
-23.0975056057
 30
0.0
 10
0.6867994599
 20
-23.1358031362
 30
0.0
 10
0.6868513905
 20
-23.1927617377
 30
0.0
 10
0.6869377246
 20
-23.2483584828
 30
0.0
 10
0.6870570265
 20
-23.301629376
 30
0.0
 10
0.6872073691
 20
-23.351818544
 30
0.0
 10
0.6873868205
 20
-23.398335313
 30
0.0
 10
0.6875928589
 20
-23.4405449053
 30
0.0
 10
0.6878216317
 20
-23.4777347938
 30
0.0
 10
0.6880011891
 20
-23.5007653452
 30
0.0
 10
0.6880969429
 20
-23.5113248654
 30
0.0
 11
0.686787934
 21
-23.0783121635
 31
0.0
 11
0.6868053522
 21
-23.1358924874
 31
0.0
 11
0.6868579904
 21
-23.1932047251
 31
0.0
 11
0.6869455652
 21
-23.2491879335
 31
0.0
 11
0.6870663307
 21
-23.3026826824
 31
0.0
 11
0.6872184617
 21
-23.3530173569
 31
0.0
 11
0.6874006525
 21
-23.3997553754
 31
0.0
 11
0.6876106607
 21
-23.4422329043
 31
0.0
 11
0.6878444971
 21
-23.4796460083
 31
0.0
 11
0.6880969429
 21
-23.5113248654
 31
0.0
  0
SPLINE
  5
6D1
100
AcDbEntity
  8
PORTATASTO
100
AcDbSpline
 62
253
  6
CONTINUOUS
 70
0
 71
3
 72
16
 73
12
 74
10
 42
0.0000001
 43
0.0000001
 44
0.0000000001
 12
-0.003926422
 22
-0.4329979722
 32
0.0
 13
0.0000008708
 23
-0.4330157742
 33
0.0
 40
0.0
 40
0.0
 40
0.0
 40
0.0
 40
0.0731609897
 40
0.1595639282
 40
0.2576620814
 40
0.3655989661
 40
0.4818416237
 40
0.6053818927
 40
0.7346688153
 40
0.8670248755
 40
1.0
 40
1.0
 40
1.0
 40
1.0
 10
0.6880969429
 20
23.5113248654
 30
0.0
 10
0.6880011893
 20
23.5007653453
 30
0.0
 10
0.6878216315
 20
23.4777347939
 30
0.0
 10
0.6875928589
 20
23.4405449054
 30
0.0
 10
0.6873868204
 20
23.3983353129
 30
0.0
 10
0.6872073691
 20
23.351818544
 30
0.0
 10
0.6870570264
 20
23.3016293759
 30
0.0
 10
0.6869377246
 20
23.2483584828
 30
0.0
 10
0.6868513905
 20
23.1927617377
 30
0.0
 10
0.6867994599
 20
23.1358031362
 30
0.0
 10
0.6867878954
 20
23.0975056057
 30
0.0
 10
0.686787934
 20
23.0783121635
 30
0.0
 11
0.6880969429
 21
23.5113248654
 31
0.0
 11
0.6878444971
 21
23.4796460086
 31
0.0
 11
0.6876106607
 21
23.4422329041
 31
0.0
 11
0.6874006525
 21
23.3997553754
 31
0.0
 11
0.6872184617
 21
23.3530173569
 31
0.0
 11
0.6870663307
 21
23.3026826824
 31
0.0
 11
0.6869455652
 21
23.2491879335
 31
0.0
 11
0.6868579904
 21
23.1932047251
 31
0.0
 11
0.6868053522
 21
23.1358924873
 31
0.0
 11
0.686787934
 21
23.0783121635
 31
0.0
  0
SPLINE
  5
6D2
100
AcDbEntity
  8
PORTATASTO
100
AcDbSpline
 62
253
  6
CONTINUOUS
 70
0
 71
3
 72
16
 73
12
 74
10
 42
0.0000001
 43
0.0000001
 44
0.0000000001
 12
-0.0000008704
 22
-0.4330157742
 32
0.0
 13
0.0039264321
 23
-0.4329979721
 33
0.0
 40
0.0
 40
0.0
 40
0.0
 40
0.0
 40
0.1329751245
 40
0.2653311846
 40
0.3946181073
 40
0.5181583762
 40
0.634401034
 40
0.7423379184
 40
0.8404360722
 40
0.9268390095
 40
1.0
 40
1.0
 40
1.0
 40
1.0
 10
19.561787934
 20
-23.0783121635
 30
0.0
 10
19.5617878955
 20
-23.0975056057
 30
0.0
 10
19.5617994599
 20
-23.1358031362
 30
0.0
 10
19.5618513905
 20
-23.1927617377
 30
0.0
 10
19.5619377246
 20
-23.2483584828
 30
0.0
 10
19.5620570265
 20
-23.301629376
 30
0.0
 10
19.5622073691
 20
-23.351818544
 30
0.0
 10
19.5623868205
 20
-23.398335313
 30
0.0
 10
19.5625928589
 20
-23.4405449053
 30
0.0
 10
19.5628216317
 20
-23.4777347938
 30
0.0
 10
19.5630011891
 20
-23.5007653452
 30
0.0
 10
19.5630969429
 20
-23.5113248654
 30
0.0
 11
19.561787934
 21
-23.0783121635
 31
0.0
 11
19.5618053522
 21
-23.1358924874
 31
0.0
 11
19.5618579904
 21
-23.1932047251
 31
0.0
 11
19.5619455652
 21
-23.2491879335
 31
0.0
 11
19.5620663307
 21
-23.3026826824
 31
0.0
 11
19.5622184617
 21
-23.3530173569
 31
0.0
 11
19.5624006525
 21
-23.3997553754
 31
0.0
 11
19.5626106607
 21
-23.4422329043
 31
0.0
 11
19.5628444971
 21
-23.4796460083
 31
0.0
 11
19.5630969429
 21
-23.5113248654
 31
0.0
  0
SPLINE
  5
6D3
100
AcDbEntity
  8
PORTATASTO
100
AcDbSpline
 62
253
  6
CONTINUOUS
 70
0
 71
3
 72
16
 73
12
 74
10
 42
0.0000001
 43
0.0000001
 44
0.0000000001
 12
-0.003926422
 22
-0.4329979722
 32
0.0
 13
0.0000008708
 23
-0.4330157742
 33
0.0
 40
0.0
 40
0.0
 40
0.0
 40
0.0
 40
0.0731609897
 40
0.1595639282
 40
0.2576620814
 40
0.3655989661
 40
0.4818416237
 40
0.6053818927
 40
0.7346688153
 40
0.8670248755
 40
1.0
 40
1.0
 40
1.0
 40
1.0
 10
19.5630969429
 20
23.5113248654
 30
0.0
 10
19.5630011893
 20
23.5007653453
 30
0.0
 10
19.5628216315
 20
23.4777347939
 30
0.0
 10
19.5625928589
 20
23.4405449054
 30
0.0
 10
19.5623868204
 20
23.3983353129
 30
0.0
 10
19.5622073691
 20
23.351818544
 30
0.0
 10
19.5620570264
 20
23.3016293759
 30
0.0
 10
19.5619377246
 20
23.2483584828
 30
0.0
 10
19.5618513905
 20
23.1927617377
 30
0.0
 10
19.5617994599
 20
23.1358031362
 30
0.0
 10
19.5617878954
 20
23.0975056057
 30
0.0
 10
19.561787934
 20
23.0783121635
 30
0.0
 11
19.5630969429
 21
23.5113248654
 31
0.0
 11
19.5628444971
 21
23.4796460086
 31
0.0
 11
19.5626106607
 21
23.4422329041
 31
0.0
 11
19.5624006525
 21
23.3997553754
 31
0.0
 11
19.5622184617
 21
23.3530173569
 31
0.0
 11
19.5620663307
 21
23.3026826824
 31
0.0
 11
19.5619455652
 21
23.2491879335
 31
0.0
 11
19.5618579904
 21
23.1932047251
 31
0.0
 11
19.5618053522
 21
23.1358924873
 31
0.0
 11
19.561787934
 21
23.0783121635
 31
0.0
  0
SPLINE
  5
6D4
100
AcDbEntity
  8
PORTATASTO
100
AcDbSpline
 62
253
  6
CONTINUOUS
 70
0
 71
3
 72
16
 73
12
 74
10
 42
0.0000001
 43
0.0000001
 44
0.0000000001
 12
0.003926422
 22
0.4329979722
 32
0.0
 13
-0.0000008708
 23
0.4330157742
 33
0.0
 40
0.0
 40
0.0
 40
0.0
 40
0.0
 40
0.0731609897
 40
0.1595639282
 40
0.2576620814
 40
0.3655989661
 40
0.4818416237
 40
0.6053818927
 40
0.7346688153
 40
0.8670248755
 40
1.0
 40
1.0
 40
1.0
 40
1.0
 10
21.8119030571
 20
-23.5113248654
 30
0.0
 10
21.8119988107
 20
-23.5007653453
 30
0.0
 10
21.8121783685
 20
-23.4777347939
 30
0.0
 10
21.8124071411
 20
-23.4405449054
 30
0.0
 10
21.8126131796
 20
-23.3983353129
 30
0.0
 10
21.8127926309
 20
-23.351818544
 30
0.0
 10
21.8129429736
 20
-23.3016293759
 30
0.0
 10
21.8130622754
 20
-23.2483584828
 30
0.0
 10
21.8131486095
 20
-23.1927617377
 30
0.0
 10
21.8132005401
 20
-23.1358031362
 30
0.0
 10
21.8132121046
 20
-23.0975056057
 30
0.0
 10
21.813212066
 20
-23.0783121635
 30
0.0
 11
21.8119030571
 21
-23.5113248654
 31
0.0
 11
21.8121555029
 21
-23.4796460086
 31
0.0
 11
21.8123893393
 21
-23.4422329041
 31
0.0
 11
21.8125993475
 21
-23.3997553754
 31
0.0
 11
21.8127815383
 21
-23.3530173569
 31
0.0
 11
21.8129336693
 21
-23.3026826824
 31
0.0
 11
21.8130544348
 21
-23.2491879335
 31
0.0
 11
21.8131420096
 21
-23.1932047251
 31
0.0
 11
21.8131946478
 21
-23.1358924873
 31
0.0
 11
21.813212066
 21
-23.0783121635
 31
0.0
  0
SPLINE
  5
6D5
100
AcDbEntity
  8
PORTATASTO
100
AcDbSpline
 62
253
  6
CONTINUOUS
 70
0
 71
3
 72
16
 73
12
 74
10
 42
0.0000001
 43
0.0000001
 44
0.0000000001
 12
0.0000008704
 22
0.4330157742
 32
0.0
 13
-0.0039264321
 23
0.4329979721
 33
0.0
 40
0.0
 40
0.0
 40
0.0
 40
0.0
 40
0.1329751245
 40
0.2653311846
 40
0.3946181073
 40
0.5181583762
 40
0.634401034
 40
0.7423379184
 40
0.8404360722
 40
0.9268390095
 40
1.0
 40
1.0
 40
1.0
 40
1.0
 10
21.813212066
 20
23.0783121635
 30
0.0
 10
21.8132121045
 20
23.0975056057
 30
0.0
 10
21.8132005401
 20
23.1358031362
 30
0.0
 10
21.8131486095
 20
23.1927617377
 30
0.0
 10
21.8130622754
 20
23.2483584828
 30
0.0
 10
21.8129429735
 20
23.301629376
 30
0.0
 10
21.8127926309
 20
23.351818544
 30
0.0
 10
21.8126131795
 20
23.398335313
 30
0.0
 10
21.8124071411
 20
23.4405449053
 30
0.0
 10
21.8121783683
 20
23.4777347938
 30
0.0
 10
21.8119988109
 20
23.5007653452
 30
0.0
 10
21.8119030571
 20
23.5113248654
 30
0.0
 11
21.813212066
 21
23.0783121635
 31
0.0
 11
21.8131946478
 21
23.1358924874
 31
0.0
 11
21.8131420096
 21
23.1932047251
 31
0.0
 11
21.8130544348
 21
23.2491879335
 31
0.0
 11
21.8129336693
 21
23.3026826824
 31
0.0
 11
21.8127815383
 21
23.3530173569
 31
0.0
 11
21.8125993475
 21
23.3997553754
 31
0.0
 11
21.8123893393
 21
23.4422329043
 31
0.0
 11
21.8121555029
 21
23.4796460083
 31
0.0
 11
21.8119030571
 21
23.5113248654
 31
0.0
  0
SPLINE
  5
6D6
100
AcDbEntity
  8
PORTATASTO
100
AcDbSpline
 62
7
  6
CONTINUOUS
 70
0
 71
3
 72
19
 73
15
 74
13
 42
0.0000001
 43
0.0000001
 44
0.0000000001
 12
0.4500351504
 22
-0.0031247734
 32
0.0
 13
0.3803582905
 23
-0.240559705
 33
0.0
 40
0.0
 40
0.0
 40
0.0
 40
0.0
 40
0.0614780033
 40
0.1291586662
 40
0.2025429257
 40
0.2808336398
 40
0.3632485377
 40
0.449057599
 40
0.5375926221
 40
0.6282342422
 40
0.7203896159
 40
0.813467532
 40
0.9068812199
 40
1.0
 40
1.0
 40
1.0
 40
1.0
 10
-15.541351552
 20
23.7905696528
 30
0.0
 10
-15.5321291312
 20
23.7905056178
 30
0.0
 10
-15.5127709294
 20
23.7880777929
 30
0.0
 10
-15.483411277
 20
23.7800786599
 30
0.0
 10
-15.4525520764
 20
23.7685530698
 30
0.0
 10
-15.4204711144
 20
23.7542352027
 30
0.0
 10
-15.3873849739
 20
23.7376961428
 30
0.0
 10
-15.3534895498
 20
23.7193913937
 30
0.0
 10
-15.3189561754
 20
23.6996970806
 30
0.0
 10
-15.283944064
 20
23.6789346877
 30
0.0
 10
-15.2486078654
 20
23.6573901086
 30
0.0
 10
-15.2131032414
 20
23.635326603
 30
0.0
 10
-15.1775949594
 20
23.6129967127
 30
0.0
 10
-15.1539452593
 20
23.5980392697
 30
0.0
 10
-15.1421390926
 20
23.5905723943
 30
0.0
 11
-15.541351552
 21
23.7905696528
 31
0.0
 11
-15.51384467
 21
23.7875887542
 31
0.0
 11
-15.4843768311
 21
23.7798801731
 31
0.0
 11
-15.4533714063
 21
23.7685047778
 31
0.0
 11
-15.4211442455
 21
23.7542613706
 31
0.0
 11
-15.387929476
 21
23.7377542841
 31
0.0
 11
-15.3539208267
 21
23.7194577379
 31
0.0
 11
-15.3192868713
 21
23.6997574882
 31
0.0
 11
-15.2841820999
 21
23.6789797216
 31
0.0
 11
-15.2487567417
 21
23.6574123918
 31
0.0
 11
-15.2131658118
 21
23.6353216058
 31
0.0
 11
-15.1775671466
 21
23.6129579072
 31
0.0
 11
-15.1421390926
 21
23.5905723943
 31
0.0
  0
SPLINE
  5
6D7
100
AcDbEntity
  8
PORTATASTO
100
AcDbSpline
 62
253
  6
CONTINUOUS
 70
0
 71
3
 72
18
 73
14
 74
12
 42
0.0000001
 43
0.0000001
 44
0.0000000001
 12
-0.3662499093
 22
-0.0008303874
 32
0.0
 13
-0.0011071506
 23
-0.3662491772
 33
0.0
 40
0.0
 40
0.0
 40
0.0
 40
0.0
 40
0.0971872096
 40
0.1939133523
 40
0.2897218612
 40
0.3842163772
 40
0.4770935418
 40
0.5681682897
 40
0.6573939174
 40
0.7448759241
 40
0.8308652934
 40
0.915759618
 40
1.0
 40
1.0
 40
1.0
 40
1.0
 10
19.8170205427
 20
-23.7278312164
 30
0.0
 10
19.8051556071
 20
-23.7278581174
 30
0.0
 10
19.781459169
 20
-23.7293732367
 30
0.0
 10
19.7466242724
 20
-23.7359886464
 30
0.0
 10
19.7131968445
 20
-23.7468150334
 30
0.0
 10
19.6818563178
 20
-23.7616392955
 30
0.0
 10
19.6532334137
 20
-23.7801694443
 30
0.0
 10
19.627909548
 20
-23.8020397445
 30
0.0
 10
19.606403056
 20
-23.8268171064
 30
0.0
 10
19.589160234
 20
-23.854005759
 30
0.0
 10
19.5765441582
 20
-23.8830604284
 30
0.0
 10
19.5688269916
 20
-23.9133703205
 30
0.0
 10
19.5670550586
 20
-23.9340532438
 30
0.0
 10
19.5670239696
 20
-23.9443375673
 30
0.0
 11
19.8170205427
 21
-23.7278312164
 31
0.0
 11
19.7814985647
 21
-23.7301084639
 31
0.0
 11
19.7466974106
 21
-23.7367329201
 31
0.0
 11
19.7133229334
 21
-23.7475702957
 31
0.0
 11
19.6820527672
 21
-23.7624006231
 31
0.0
 11
19.6535214729
 21
-23.780922952
 31
0.0
 11
19.6283080261
 21
-23.8027614143
 31
0.0
 11
19.6069242019
 21
-23.8274726794
 31
0.0
 11
19.589803758
 21
-23.8545554235
 31
0.0
 11
19.5772947174
 21
-23.8834582912
 31
0.0
 11
19.5696497303
 21
-23.9135963917
 31
0.0
 11
19.5670239696
 21
-23.9443375673
 31
0.0
  0
SPLINE
  5
6D8
100
AcDbEntity
  8
PORTATASTO
100
AcDbSpline
 62
253
  6
CONTINUOUS
 70
0
 71
3
 72
18
 73
14
 74
12
 42
0.0000001
 43
0.0000001
 44
0.0000000001
 12
-0.0011071506
 22
0.3662491663
 32
0.0
 13
-0.3662498983
 23
0.0008303874
 33
0.0
 40
0.0
 40
0.0
 40
0.0
 40
0.0
 40
0.0842955547
 40
0.169189152
 40
0.2551780173
 40
0.3426543807
 40
0.4318741974
 40
0.5229422751
 40
0.6158124279
 40
0.7102995819
 40
0.8061004335
 40
0.9028197334
 40
1.0
 40
1.0
 40
1.0
 40
1.0
 10
21.8079760304
 20
-23.9443375673
 30
0.0
 10
21.8079449211
 20
-23.9340465084
 30
0.0
 10
21.806171278
 20
-23.9133568659
 30
0.0
 10
21.7984492968
 20
-23.8830414104
 30
0.0
 10
21.7858306605
 20
-23.853988775
 30
0.0
 10
21.768586212
 20
-23.8268029233
 30
0.0
 10
21.7470793439
 20
-23.8020288588
 30
0.0
 10
21.7217559823
 20
-23.7801616637
 30
0.0
 10
21.6931343891
 20
-23.76163427
 30
0.0
 10
21.6617958043
 20
-23.7468122547
 30
0.0
 10
21.6283706872
 20
-23.7359874758
 30
0.0
 10
21.5935382942
 20
-23.7293730223
 30
0.0
 10
21.5698435449
 20
-23.7278581154
 30
0.0
 10
21.5579794573
 20
-23.7278312164
 30
0.0
 11
21.8079760304
 21
-23.9443375673
 31
0.0
 11
21.805346897
 21
-23.9135764002
 31
0.0
 11
21.7976988191
 21
-23.8834393596
 31
0.0
 11
21.7851869717
 21
-23.854537909
 31
0.0
 11
21.7680652133
 21
-23.8274584424
 31
0.0
 11
21.7466809344
 21
-23.8027503867
 31
0.0
 11
21.7214680099
 21
-23.7809150543
 31
0.0
 11
21.6929379958
 21
-23.7623954716
 31
0.0
 11
21.6616697497
 21
-23.7475673906
 31
0.0
 11
21.6282976866
 21
-23.7367316644
 31
0.0
 11
21.5934989066
 21
-23.7301081438
 31
0.0
 11
21.5579794573
 21
-23.7278312164
 31
0.0
  0
SPLINE
  5
6D9
100
AcDbEntity
  8
PORTATASTO
100
AcDbSpline
 62
253
  6
CONTINUOUS
 70
0
 71
3
 72
18
 73
14
 74
12
 42
0.0000001
 43
0.0000001
 44
0.0000000001
 12
0.3662499093
 22
0.0008303874
 32
0.0
 13
0.0011071506
 23
0.3662491772
 33
0.0
 40
0.0
 40
0.0
 40
0.0
 40
0.0
 40
0.0971872096
 40
0.1939133523
 40
0.2897218612
 40
0.3842163772
 40
0.4770935418
 40
0.5681682897
 40
0.6573939174
 40
0.7448759241
 40
0.8308652934
 40
0.915759618
 40
1.0
 40
1.0
 40
1.0
 40
1.0
 10
21.5579794573
 20
23.7278312164
 30
0.0
 10
21.5698443929
 20
23.7278581174
 30
0.0
 10
21.593540831
 20
23.7293732367
 30
0.0
 10
21.6283757276
 20
23.7359886464
 30
0.0
 10
21.6618031555
 20
23.7468150334
 30
0.0
 10
21.6931436822
 20
23.7616392955
 30
0.0
 10
21.7217665863
 20
23.7801694443
 30
0.0
 10
21.747090452
 20
23.8020397445
 30
0.0
 10
21.768596944
 20
23.8268171064
 30
0.0
 10
21.785839766
 20
23.854005759
 30
0.0
 10
21.7984558418
 20
23.8830604284
 30
0.0
 10
21.8061730084
 20
23.9133703205
 30
0.0
 10
21.8079449414
 20
23.9340532438
 30
0.0
 10
21.8079760304
 20
23.9443375673
 30
0.0
 11
21.5579794573
 21
23.7278312164
 31
0.0
 11
21.5935014353
 21
23.7301084639
 31
0.0
 11
21.6283025894
 21
23.7367329201
 31
0.0
 11
21.6616770666
 21
23.7475702957
 31
0.0
 11
21.6929472328
 21
23.7624006231
 31
0.0
 11
21.7214785271
 21
23.780922952
 31
0.0
 11
21.7466919739
 21
23.8027614143
 31
0.0
 11
21.7680757981
 21
23.8274726794
 31
0.0
 11
21.785196242
 21
23.8545554235
 31
0.0
 11
21.7977052826
 21
23.8834582912
 31
0.0
 11
21.8053502697
 21
23.9135963917
 31
0.0
 11
21.8079760304
 21
23.9443375673
 31
0.0
  0
SPLINE
  5
6DA
100
AcDbEntity
  8
PORTATASTO
100
AcDbSpline
 62
253
  6
CONTINUOUS
 70
0
 71
3
 72
18
 73
14
 74
12
 42
0.0000001
 43
0.0000001
 44
0.0000000001
 12
0.0011071506
 22
-0.3662491663
 32
0.0
 13
0.3662498983
 23
-0.0008303874
 33
0.0
 40
0.0
 40
0.0
 40
0.0
 40
0.0
 40
0.0842955547
 40
0.169189152
 40
0.2551780173
 40
0.3426543807
 40
0.4318741974
 40
0.5229422751
 40
0.6158124279
 40
0.7102995819
 40
0.8061004335
 40
0.9028197334
 40
1.0
 40
1.0
 40
1.0
 40
1.0
 10
19.5670239696
 20
23.9443375673
 30
0.0
 10
19.5670550789
 20
23.9340465084
 30
0.0
 10
19.568828722
 20
23.9133568659
 30
0.0
 10
19.5765507032
 20
23.8830414104
 30
0.0
 10
19.5891693395
 20
23.853988775
 30
0.0
 10
19.606413788
 20
23.8268029233
 30
0.0
 10
19.6279206561
 20
23.8020288588
 30
0.0
 10
19.6532440177
 20
23.7801616637
 30
0.0
 10
19.6818656109
 20
23.76163427
 30
0.0
 10
19.7132041957
 20
23.7468122547
 30
0.0
 10
19.7466293128
 20
23.7359874758
 30
0.0
 10
19.7814617058
 20
23.7293730223
 30
0.0
 10
19.8051564551
 20
23.7278581154
 30
0.0
 10
19.8170205427
 20
23.7278312164
 30
0.0
 11
19.5670239696
 21
23.9443375673
 31
0.0
 11
19.569653103
 21
23.9135764002
 31
0.0
 11
19.5773011809
 21
23.8834393596
 31
0.0
 11
19.5898130283
 21
23.854537909
 31
0.0
 11
19.6069347867
 21
23.8274584424
 31
0.0
 11
19.6283190656
 21
23.8027503867
 31
0.0
 11
19.6535319901
 21
23.7809150543
 31
0.0
 11
19.6820620042
 21
23.7623954716
 31
0.0
 11
19.7133302503
 21
23.7475673906
 31
0.0
 11
19.7467023134
 21
23.7367316644
 31
0.0
 11
19.7815010934
 21
23.7301081438
 31
0.0
 11
19.8170205427
 21
23.7278312164
 31
0.0
  0
SPLINE
  5
6DB
100
AcDbEntity
  8
PORTATASTO
100
AcDbSpline
 62
253
  6
CONTINUOUS
 70
0
 71
3
 72
18
 73
14
 74
12
 42
0.0000001
 43
0.0000001
 44
0.0000000001
 12
0.3662499093
 22
0.0008303874
 32
0.0
 13
0.0011071506
 23
0.3662491772
 33
0.0
 40
0.0
 40
0.0
 40
0.0
 40
0.0
 40
0.0971872096
 40
0.1939133523
 40
0.2897218612
 40
0.3842163772
 40
0.4770935418
 40
0.5681682897
 40
0.6573939174
 40
0.7448759241
 40
0.8308652934
 40
0.915759618
 40
1.0
 40
1.0
 40
1.0
 40
1.0
 10
2.6829794573
 20
23.7278312164
 30
0.0
 10
2.6948443929
 20
23.7278581174
 30
0.0
 10
2.718540831
 20
23.7293732367
 30
0.0
 10
2.7533757276
 20
23.7359886464
 30
0.0
 10
2.7868031555
 20
23.7468150334
 30
0.0
 10
2.8181436822
 20
23.7616392955
 30
0.0
 10
2.8467665863
 20
23.7801694443
 30
0.0
 10
2.872090452
 20
23.8020397445
 30
0.0
 10
2.893596944
 20
23.8268171064
 30
0.0
 10
2.910839766
 20
23.854005759
 30
0.0
 10
2.9234558418
 20
23.8830604284
 30
0.0
 10
2.9311730084
 20
23.9133703205
 30
0.0
 10
2.9329449414
 20
23.9340532438
 30
0.0
 10
2.9329760304
 20
23.9443375673
 30
0.0
 11
2.6829794573
 21
23.7278312164
 31
0.0
 11
2.7185014353
 21
23.7301084639
 31
0.0
 11
2.7533025894
 21
23.7367329201
 31
0.0
 11
2.7866770666
 21
23.7475702957
 31
0.0
 11
2.8179472328
 21
23.7624006231
 31
0.0
 11
2.8464785271
 21
23.780922952
 31
0.0
 11
2.8716919739
 21
23.8027614143
 31
0.0
 11
2.8930757981
 21
23.8274726794
 31
0.0
 11
2.910196242
 21
23.8545554235
 31
0.0
 11
2.9227052826
 21
23.8834582912
 31
0.0
 11
2.9303502697
 21
23.9135963917
 31
0.0
 11
2.9329760304
 21
23.9443375673
 31
0.0
  0
SPLINE
  5
6DC
100
AcDbEntity
  8
PORTATASTO
100
AcDbSpline
 62
253
  6
CONTINUOUS
 70
0
 71
3
 72
18
 73
14
 74
12
 42
0.0000001
 43
0.0000001
 44
0.0000000001
 12
0.0011071506
 22
-0.3662491663
 32
0.0
 13
0.3662498983
 23
-0.0008303874
 33
0.0
 40
0.0
 40
0.0
 40
0.0
 40
0.0
 40
0.0842955547
 40
0.169189152
 40
0.2551780173
 40
0.3426543807
 40
0.4318741974
 40
0.5229422751
 40
0.6158124279
 40
0.7102995819
 40
0.8061004335
 40
0.9028197334
 40
1.0
 40
1.0
 40
1.0
 40
1.0
 10
0.6920239696
 20
23.9443375673
 30
0.0
 10
0.6920550789
 20
23.9340465084
 30
0.0
 10
0.693828722
 20
23.9133568659
 30
0.0
 10
0.7015507032
 20
23.8830414104
 30
0.0
 10
0.7141693395
 20
23.853988775
 30
0.0
 10
0.731413788
 20
23.8268029233
 30
0.0
 10
0.7529206561
 20
23.8020288588
 30
0.0
 10
0.7782440177
 20
23.7801616637
 30
0.0
 10
0.8068656109
 20
23.76163427
 30
0.0
 10
0.8382041957
 20
23.7468122547
 30
0.0
 10
0.8716293128
 20
23.7359874758
 30
0.0
 10
0.9064617058
 20
23.7293730223
 30
0.0
 10
0.9301564551
 20
23.7278581154
 30
0.0
 10
0.9420205427
 20
23.7278312164
 30
0.0
 11
0.6920239696
 21
23.9443375673
 31
0.0
 11
0.694653103
 21
23.9135764002
 31
0.0
 11
0.7023011809
 21
23.8834393596
 31
0.0
 11
0.7148130283
 21
23.854537909
 31
0.0
 11
0.7319347867
 21
23.8274584424
 31
0.0
 11
0.7533190656
 21
23.8027503867
 31
0.0
 11
0.7785319901
 21
23.7809150543
 31
0.0
 11
0.8070620042
 21
23.7623954716
 31
0.0
 11
0.8383302503
 21
23.7475673906
 31
0.0
 11
0.8717023134
 21
23.7367316644
 31
0.0
 11
0.9065010934
 21
23.7301081438
 31
0.0
 11
0.9420205427
 21
23.7278312164
 31
0.0
  0
SPLINE
  5
6DD
100
AcDbEntity
  8
PORTATASTO
100
AcDbSpline
 62
253
  6
CONTINUOUS
 70
0
 71
3
 72
18
 73
14
 74
12
 42
0.0000001
 43
0.0000001
 44
0.0000000001
 12
-0.3662499093
 22
-0.0008303874
 32
0.0
 13
-0.0011071506
 23
-0.3662491772
 33
0.0
 40
0.0
 40
0.0
 40
0.0
 40
0.0
 40
0.0971872096
 40
0.1939133523
 40
0.2897218612
 40
0.3842163772
 40
0.4770935418
 40
0.5681682897
 40
0.6573939174
 40
0.7448759241
 40
0.8308652934
 40
0.915759618
 40
1.0
 40
1.0
 40
1.0
 40
1.0
 10
0.9420205427
 20
-23.7278312164
 30
0.0
 10
0.9301556071
 20
-23.7278581174
 30
0.0
 10
0.906459169
 20
-23.7293732367
 30
0.0
 10
0.8716242724
 20
-23.7359886464
 30
0.0
 10
0.8381968445
 20
-23.7468150334
 30
0.0
 10
0.8068563178
 20
-23.7616392955
 30
0.0
 10
0.7782334137
 20
-23.7801694443
 30
0.0
 10
0.752909548
 20
-23.8020397445
 30
0.0
 10
0.731403056
 20
-23.8268171064
 30
0.0
 10
0.714160234
 20
-23.854005759
 30
0.0
 10
0.7015441582
 20
-23.8830604284
 30
0.0
 10
0.6938269916
 20
-23.9133703205
 30
0.0
 10
0.6920550586
 20
-23.9340532438
 30
0.0
 10
0.6920239696
 20
-23.9443375673
 30
0.0
 11
0.9420205427
 21
-23.7278312164
 31
0.0
 11
0.9064985647
 21
-23.7301084639
 31
0.0
 11
0.8716974106
 21
-23.7367329201
 31
0.0
 11
0.8383229334
 21
-23.7475702957
 31
0.0
 11
0.8070527672
 21
-23.7624006231
 31
0.0
 11
0.7785214729
 21
-23.780922952
 31
0.0
 11
0.7533080261
 21
-23.8027614143
 31
0.0
 11
0.7319242019
 21
-23.8274726794
 31
0.0
 11
0.714803758
 21
-23.8545554235
 31
0.0
 11
0.7022947174
 21
-23.8834582912
 31
0.0
 11
0.6946497303
 21
-23.9135963917
 31
0.0
 11
0.6920239696
 21
-23.9443375673
 31
0.0
  0
SPLINE
  5
6DE
100
AcDbEntity
  8
PORTATASTO
100
AcDbSpline
 62
253
  6
CONTINUOUS
 70
0
 71
3
 72
18
 73
14
 74
12
 42
0.0000001
 43
0.0000001
 44
0.0000000001
 12
-0.0011071506
 22
0.3662491663
 32
0.0
 13
-0.3662498983
 23
0.0008303874
 33
0.0
 40
0.0
 40
0.0
 40
0.0
 40
0.0
 40
0.0842955547
 40
0.169189152
 40
0.2551780173
 40
0.3426543807
 40
0.4318741974
 40
0.5229422751
 40
0.6158124279
 40
0.7102995819
 40
0.8061004335
 40
0.9028197334
 40
1.0
 40
1.0
 40
1.0
 40
1.0
 10
2.9329760304
 20
-23.9443375673
 30
0.0
 10
2.9329449211
 20
-23.9340465084
 30
0.0
 10
2.931171278
 20
-23.9133568659
 30
0.0
 10
2.9234492968
 20
-23.8830414104
 30
0.0
 10
2.9108306605
 20
-23.853988775
 30
0.0
 10
2.893586212
 20
-23.8268029233
 30
0.0
 10
2.8720793439
 20
-23.8020288588
 30
0.0
 10
2.8467559823
 20
-23.7801616637
 30
0.0
 10
2.8181343891
 20
-23.76163427
 30
0.0
 10
2.7867958043
 20
-23.7468122547
 30
0.0
 10
2.7533706872
 20
-23.7359874758
 30
0.0
 10
2.7185382942
 20
-23.7293730223
 30
0.0
 10
2.6948435449
 20
-23.7278581154
 30
0.0
 10
2.6829794573
 20
-23.7278312164
 30
0.0
 11
2.9329760304
 21
-23.9443375673
 31
0.0
 11
2.930346897
 21
-23.9135764002
 31
0.0
 11
2.9226988191
 21
-23.8834393596
 31
0.0
 11
2.9101869717
 21
-23.854537909
 31
0.0
 11
2.8930652133
 21
-23.8274584424
 31
0.0
 11
2.8716809344
 21
-23.8027503867
 31
0.0
 11
2.8464680099
 21
-23.7809150543
 31
0.0
 11
2.8179379958
 21
-23.7623954716
 31
0.0
 11
2.7866697497
 21
-23.7475673906
 31
0.0
 11
2.7532976866
 21
-23.7367316644
 31
0.0
 11
2.7184989066
 21
-23.7301081438
 31
0.0
 11
2.6829794573
 21
-23.7278312164
 31
0.0
  0
SPLINE
  5
6DF
100
AcDbEntity
  8
PORTATASTO
100
AcDbSpline
 62
253
  6
CONTINUOUS
 70
0
 71
3
 72
16
 73
12
 74
10
 42
0.0000001
 43
0.0000001
 44
0.0000000001
 12
-0.0039285617
 22
0.2164754792
 32
0.0
 13
0.0000000128
 23
0.2165111237
 33
0.0
 40
0.0
 40
0.0
 40
0.0
 40
0.0
 40
0.0732188971
 40
0.1596179091
 40
0.2577063374
 40
0.3656269884
 40
0.4818484537
 40
0.6053651317
 40
0.7346278457
 40
0.8669588964
 40
1.0
 40
1.0
 40
1.0
 40
1.0
 10
19.8130935168
 20
-23.294818558
 30
0.0
 10
19.8129976351
 20
-23.2895351927
 30
0.0
 10
19.8128181485
 20
-23.2780168689
 30
0.0
 10
19.8125893193
 20
-23.2594194936
 30
0.0
 10
19.8123833456
 20
-23.2383172777
 30
0.0
 10
19.8122039232
 20
-23.2150624579
 30
0.0
 10
19.8120536115
 20
-23.1899722318
 30
0.0
 10
19.8119343221
 20
-23.1633415599
 30
0.0
 10
19.8118479997
 20
-23.1355481208
 30
0.0
 10
19.8117960241
 20
-23.1070672149
 30
0.0
 10
19.8117845074
 20
-23.087915205
 30
0.0
 10
19.811784508
 20
-23.0783135788
 30
0.0
 11
19.8130935168
 21
-23.294818558
 31
0.0
 11
19.8128409135
 21
-23.2789678649
 31
0.0
 11
19.8126071253
 21
-23.2602629787
 31
0.0
 11
19.8123971645
 21
-23.2390267808
 31
0.0
 11
19.8122150124
 21
-23.2156614694
 31
0.0
 11
19.8120629113
 21
-23.190498689
 31
0.0
 11
19.8119421624
 21
-23.1637562269
 31
0.0
 11
19.8118545921
 21
-23.1357695484
 31
0.0
 11
19.8118019449
 21
-23.1071184523
 31
0.0
 11
19.811784508
 21
-23.0783135788
 31
0.0
  0
SPLINE
  5
6E0
100
AcDbEntity
  8
PORTATASTO
100
AcDbSpline
 62
253
  6
CONTINUOUS
 70
0
 71
3
 72
16
 73
12
 74
10
 42
0.0000001
 43
0.0000001
 44
0.0000000001
 12
0.0000000128
 22
-0.2165111267
 32
0.0
 13
-0.0039285624
 23
-0.2164754822
 33
0.0
 40
0.0
 40
0.0
 40
0.0
 40
0.0
 40
0.1330410941
 40
0.2653721429
 40
0.3946348552
 40
0.5181515314
 40
0.6343729951
 40
0.7422936446
 40
0.8403820716
 40
0.9267810823
 40
1.0
 40
1.0
 40
1.0
 40
1.0
 10
21.563215492
 20
-23.0783135804
 30
0.0
 10
21.5632154926
 20
-23.0879152062
 30
0.0
 10
21.5632039759
 20
-23.1070672154
 30
0.0
 10
21.5631520003
 20
-23.1355481208
 30
0.0
 10
21.5630656779
 20
-23.1633415599
 30
0.0
 10
21.5629463885
 20
-23.1899722318
 30
0.0
 10
21.5627960768
 20
-23.2150624579
 30
0.0
 10
21.5626166544
 20
-23.2383172777
 30
0.0
 10
21.5624106807
 20
-23.2594194936
 30
0.0
 10
21.5621818515
 20
-23.2780168704
 30
0.0
 10
21.5620023649
 20
-23.2895351958
 30
0.0
 10
21.5619064832
 20
-23.2948185626
 30
0.0
 11
21.563215492
 21
-23.0783135804
 31
0.0
 11
21.5631980551
 21
-23.1071184523
 31
0.0
 11
21.5631454079
 21
-23.1357695484
 31
0.0
 11
21.5630578376
 21
-23.1637562269
 31
0.0
 11
21.5629370887
 21
-23.190498689
 31
0.0
 11
21.5627849876
 21
-23.2156614694
 31
0.0
 11
21.5626028355
 21
-23.2390267808
 31
0.0
 11
21.5623928747
 21
-23.2602629787
 31
0.0
 11
21.5621590865
 21
-23.2789678649
 31
0.0
 11
21.5619064832
 21
-23.2948185626
 31
0.0
  0
SPLINE
  5
6E1
100
AcDbEntity
  8
PORTATASTO
100
AcDbSpline
 62
253
  6
CONTINUOUS
 70
0
 71
3
 72
18
 73
14
 74
12
 42
0.0000001
 43
0.0000001
 44
0.0000000001
 12
0.3662498989
 22
-0.0008303865
 32
0.0
 13
0.0011071506
 23
-0.3662491668
 33
0.0
 40
0.0
 40
0.0
 40
0.0
 40
0.0
 40
0.097180097
 40
0.1938992423
 40
0.2896999712
 40
0.3841870463
 40
0.4770571712
 40
0.5681252747
 40
0.6573451698
 40
0.7448216444
 40
0.8308106258
 40
0.9157043353
 40
1.0
 40
1.0
 40
1.0
 40
1.0
 10
21.5619064833
 20
-23.2948185145
 30
0.0
 10
21.5737705502
 20
-23.2948454135
 30
0.0
 10
21.5974652598
 20
-23.2963603152
 30
0.0
 10
21.632297601
 20
-23.3029747473
 30
0.0
 10
21.6657226819
 20
-23.3137994956
 30
0.0
 10
21.6970612512
 20
-23.3286214778
 30
0.0
 10
21.7256828506
 20
-23.3471488434
 30
0.0
 10
21.7510062377
 20
-23.3690160234
 30
0.0
 10
21.7725131432
 20
-23.3937900907
 30
0.0
 10
21.7897576307
 20
-23.4209759623
 30
0.0
 10
21.8023762989
 20
-23.4500286297
 30
0.0
 10
21.8100983
 20
-23.4803441232
 30
0.0
 10
21.8118719477
 20
-23.5010337931
 30
0.0
 10
21.8119030571
 20
-23.5113248654
 30
0.0
 11
21.5619064833
 21
-23.2948185145
 31
0.0
 11
21.5974258709
 21
-23.2970954341
 31
0.0
 11
21.6322245975
 21
-23.3037189329
 31
0.0
 11
21.6655966235
 21
-23.314554628
 31
0.0
 11
21.6968648535
 21
-23.3293826755
 31
0.0
 11
21.7253948737
 21
-23.3479022301
 31
0.0
 11
21.7506078237
 21
-23.3697375476
 31
0.0
 11
21.7719921413
 21
-23.3944456078
 31
0.0
 11
21.7891139402
 21
-23.4215250971
 31
0.0
 11
21.8016258194
 21
-23.4504265804
 31
0.0
 11
21.809273917
 21
-23.4805636584
 31
0.0
 11
21.8119030571
 21
-23.5113248654
 31
0.0
  0
SPLINE
  5
6E2
100
AcDbEntity
  8
PORTATASTO
100
AcDbSpline
 62
253
  6
CONTINUOUS
 70
0
 71
3
 72
16
 73
12
 74
10
 42
0.0000001
 43
0.0000001
 44
0.0000000001
 12
0.0039285617
 22
-0.2164754792
 32
0.0
 13
-0.0000000128
 23
-0.2165111237
 33
0.0
 40
0.0
 40
0.0
 40
0.0
 40
0.0
 40
0.0732188971
 40
0.1596179091
 40
0.2577063374
 40
0.3656269884
 40
0.4818484537
 40
0.6053651317
 40
0.7346278457
 40
0.8669588964
 40
1.0
 40
1.0
 40
1.0
 40
1.0
 10
21.5619064832
 20
23.294818558
 30
0.0
 10
21.5620023649
 20
23.2895351927
 30
0.0
 10
21.5621818515
 20
23.2780168689
 30
0.0
 10
21.5624106807
 20
23.2594194936
 30
0.0
 10
21.5626166544
 20
23.2383172777
 30
0.0
 10
21.5627960768
 20
23.2150624579
 30
0.0
 10
21.5629463885
 20
23.1899722318
 30
0.0
 10
21.5630656779
 20
23.1633415599
 30
0.0
 10
21.5631520003
 20
23.1355481208
 30
0.0
 10
21.5632039759
 20
23.1070672149
 30
0.0
 10
21.5632154926
 20
23.087915205
 30
0.0
 10
21.563215492
 20
23.0783135788
 30
0.0
 11
21.5619064832
 21
23.294818558
 31
0.0
 11
21.5621590865
 21
23.2789678649
 31
0.0
 11
21.5623928747
 21
23.2602629787
 31
0.0
 11
21.5626028355
 21
23.2390267808
 31
0.0
 11
21.5627849876
 21
23.2156614694
 31
0.0
 11
21.5629370887
 21
23.190498689
 31
0.0
 11
21.5630578376
 21
23.1637562269
 31
0.0
 11
21.5631454079
 21
23.1357695484
 31
0.0
 11
21.5631980551
 21
23.1071184523
 31
0.0
 11
21.563215492
 21
23.0783135788
 31
0.0
  0
SPLINE
  5
6E3
100
AcDbEntity
  8
PORTATASTO
100
AcDbSpline
 62
253
  6
CONTINUOUS
 70
0
 71
3
 72
18
 73
14
 74
12
 42
0.0000001
 43
0.0000001
 44
0.0000000001
 12
-0.0011071506
 22
-0.3662491668
 32
0.0
 13
-0.3662498989
 23
-0.0008303865
 33
0.0
 40
0.0
 40
0.0
 40
0.0
 40
0.0
 40
0.0842956646
 40
0.1691893741
 40
0.2551783555
 40
0.34265483
 40
0.4318747249
 40
0.5229428283
 40
0.6158129532
 40
0.7103000283
 40
0.8061007574
 40
0.9028199028
 40
1.0
 40
1.0
 40
1.0
 40
1.0
 10
-19.5630969429
 20
23.5113248654
 30
0.0
 10
-19.5631280523
 20
23.5010337931
 30
0.0
 10
-19.5649017
 20
23.4803441232
 30
0.0
 10
-19.5726237011
 20
23.4500286297
 30
0.0
 10
-19.5852423693
 20
23.4209759624
 30
0.0
 10
-19.6024868568
 20
23.3937900907
 30
0.0
 10
-19.6239937622
 20
23.3690160235
 30
0.0
 10
-19.6493171492
 20
23.3471488435
 30
0.0
 10
-19.6779387486
 20
23.3286214778
 30
0.0
 10
-19.7092773179
 20
23.3137994957
 30
0.0
 10
-19.7427023989
 20
23.3029747474
 30
0.0
 10
-19.7775347401
 20
23.2963603152
 30
0.0
 10
-19.8012294498
 20
23.2948454135
 30
0.0
 10
-19.8130935167
 20
23.2948185145
 30
0.0
 11
-19.5630969429
 21
23.5113248654
 31
0.0
 11
-19.565726083
 21
23.4805636584
 31
0.0
 11
-19.5733741806
 21
23.4504265804
 31
0.0
 11
-19.5858860598
 21
23.4215250971
 31
0.0
 11
-19.6030078586
 21
23.3944456079
 31
0.0
 11
-19.6243921762
 21
23.3697375477
 31
0.0
 11
-19.6496051261
 21
23.3479022302
 31
0.0
 11
-19.6781351463
 21
23.3293826756
 31
0.0
 11
-19.7094033764
 21
23.314554628
 31
0.0
 11
-19.7427754024
 21
23.3037189329
 31
0.0
 11
-19.777574129
 21
23.2970954341
 31
0.0
 11
-19.8130935167
 21
23.2948185145
 31
0.0
  0
SPLINE
  5
6E4
100
AcDbEntity
  8
PORTATASTO
100
AcDbSpline
 62
253
  6
CONTINUOUS
 70
0
 71
3
 72
18
 73
14
 74
12
 42
0.0000001
 43
0.0000001
 44
0.0000000001
 12
-0.0011071506
 22
-0.3662491668
 32
0.0
 13
-0.3662498989
 23
-0.0008303865
 33
0.0
 40
0.0
 40
0.0
 40
0.0
 40
0.0
 40
0.0842956646
 40
0.1691893741
 40
0.2551783555
 40
0.34265483
 40
0.4318747249
 40
0.5229428283
 40
0.6158129532
 40
0.7103000283
 40
0.8061007574
 40
0.9028199028
 40
1.0
 40
1.0
 40
1.0
 40
1.0
 10
-0.6880969429
 20
23.5113248654
 30
0.0
 10
-0.6881280523
 20
23.5010337931
 30
0.0
 10
-0.6899017
 20
23.4803441232
 30
0.0
 10
-0.6976237011
 20
23.4500286297
 30
0.0
 10
-0.7102423693
 20
23.4209759624
 30
0.0
 10
-0.7274868568
 20
23.3937900907
 30
0.0
 10
-0.7489937622
 20
23.3690160235
 30
0.0
 10
-0.7743171492
 20
23.3471488435
 30
0.0
 10
-0.8029387486
 20
23.3286214778
 30
0.0
 10
-0.8342773179
 20
23.3137994957
 30
0.0
 10
-0.8677023989
 20
23.3029747474
 30
0.0
 10
-0.9025347401
 20
23.2963603152
 30
0.0
 10
-0.9262294498
 20
23.2948454135
 30
0.0
 10
-0.9380935167
 20
23.2948185145
 30
0.0
 11
-0.6880969429
 21
23.5113248654
 31
0.0
 11
-0.690726083
 21
23.4805636584
 31
0.0
 11
-0.6983741806
 21
23.4504265804
 31
0.0
 11
-0.7108860598
 21
23.4215250971
 31
0.0
 11
-0.7280078586
 21
23.3944456079
 31
0.0
 11
-0.7493921762
 21
23.3697375477
 31
0.0
 11
-0.7746051261
 21
23.3479022302
 31
0.0
 11
-0.8031351463
 21
23.3293826756
 31
0.0
 11
-0.8344033764
 21
23.314554628
 31
0.0
 11
-0.8677754024
 21
23.3037189329
 31
0.0
 11
-0.902574129
 21
23.2970954341
 31
0.0
 11
-0.9380935167
 21
23.2948185145
 31
0.0
  0
SPLINE
  5
6E5
100
AcDbEntity
  8
PORTATASTO
100
AcDbSpline
 62
253
  6
CONTINUOUS
 70
0
 71
3
 72
18
 73
14
 74
12
 42
0.0000001
 43
0.0000001
 44
0.0000000001
 12
0.0011071506
 22
0.3662491668
 32
0.0
 13
0.3662498989
 23
0.0008303865
 33
0.0
 40
0.0
 40
0.0
 40
0.0
 40
0.0
 40
0.0842956646
 40
0.1691893741
 40
0.2551783555
 40
0.34265483
 40
0.4318747249
 40
0.5229428283
 40
0.6158129532
 40
0.7103000283
 40
0.8061007574
 40
0.9028199028
 40
1.0
 40
1.0
 40
1.0
 40
1.0
 10
-21.8119030571
 20
-23.5113248654
 30
0.0
 10
-21.8118719477
 20
-23.5010337931
 30
0.0
 10
-21.8100983
 20
-23.4803441232
 30
0.0
 10
-21.8023762989
 20
-23.4500286297
 30
0.0
 10
-21.7897576307
 20
-23.4209759624
 30
0.0
 10
-21.7725131432
 20
-23.3937900907
 30
0.0
 10
-21.7510062378
 20
-23.3690160235
 30
0.0
 10
-21.7256828508
 20
-23.3471488435
 30
0.0
 10
-21.6970612514
 20
-23.3286214778
 30
0.0
 10
-21.6657226821
 20
-23.3137994957
 30
0.0
 10
-21.6322976011
 20
-23.3029747474
 30
0.0
 10
-21.5974652599
 20
-23.2963603152
 30
0.0
 10
-21.5737705502
 20
-23.2948454135
 30
0.0
 10
-21.5619064833
 20
-23.2948185145
 30
0.0
 11
-21.8119030571
 21
-23.5113248654
 31
0.0
 11
-21.809273917
 21
-23.4805636584
 31
0.0
 11
-21.8016258194
 21
-23.4504265804
 31
0.0
 11
-21.7891139402
 21
-23.4215250971
 31
0.0
 11
-21.7719921414
 21
-23.3944456079
 31
0.0
 11
-21.7506078238
 21
-23.3697375477
 31
0.0
 11
-21.7253948739
 21
-23.3479022302
 31
0.0
 11
-21.6968648537
 21
-23.3293826756
 31
0.0
 11
-21.6655966236
 21
-23.314554628
 31
0.0
 11
-21.6322245976
 21
-23.3037189329
 31
0.0
 11
-21.597425871
 21
-23.2970954341
 31
0.0
 11
-21.5619064833
 21
-23.2948185145
 31
0.0
  0
SPLINE
  5
6E6
100
AcDbEntity
  8
PORTATASTO
100
AcDbSpline
 62
253
  6
CONTINUOUS
 70
0
 71
3
 72
18
 73
14
 74
12
 42
0.0000001
 43
0.0000001
 44
0.0000000001
 12
0.0011071506
 22
0.3662491668
 32
0.0
 13
0.3662498989
 23
0.0008303865
 33
0.0
 40
0.0
 40
0.0
 40
0.0
 40
0.0
 40
0.0842956646
 40
0.1691893741
 40
0.2551783555
 40
0.34265483
 40
0.4318747249
 40
0.5229428283
 40
0.6158129532
 40
0.7103000283
 40
0.8061007574
 40
0.9028199028
 40
1.0
 40
1.0
 40
1.0
 40
1.0
 10
-2.9369030571
 20
-23.5113248654
 30
0.0
 10
-2.9368719477
 20
-23.5010337931
 30
0.0
 10
-2.9350983
 20
-23.4803441232
 30
0.0
 10
-2.9273762989
 20
-23.4500286297
 30
0.0
 10
-2.9147576307
 20
-23.4209759624
 30
0.0
 10
-2.8975131432
 20
-23.3937900907
 30
0.0
 10
-2.8760062378
 20
-23.3690160235
 30
0.0
 10
-2.8506828508
 20
-23.3471488435
 30
0.0
 10
-2.8220612514
 20
-23.3286214778
 30
0.0
 10
-2.7907226821
 20
-23.3137994957
 30
0.0
 10
-2.7572976011
 20
-23.3029747474
 30
0.0
 10
-2.7224652599
 20
-23.2963603152
 30
0.0
 10
-2.6987705502
 20
-23.2948454135
 30
0.0
 10
-2.6869064833
 20
-23.2948185145
 30
0.0
 11
-2.9369030571
 21
-23.5113248654
 31
0.0
 11
-2.934273917
 21
-23.4805636584
 31
0.0
 11
-2.9266258194
 21
-23.4504265804
 31
0.0
 11
-2.9141139402
 21
-23.4215250971
 31
0.0
 11
-2.8969921414
 21
-23.3944456079
 31
0.0
 11
-2.8756078238
 21
-23.3697375477
 31
0.0
 11
-2.8503948739
 21
-23.3479022302
 31
0.0
 11
-2.8218648537
 21
-23.3293826756
 31
0.0
 11
-2.7905966236
 21
-23.314554628
 31
0.0
 11
-2.7572245976
 21
-23.3037189329
 31
0.0
 11
-2.722425871
 21
-23.2970954341
 31
0.0
 11
-2.6869064833
 21
-23.2948185145
 31
0.0
  0
SPLINE
  5
6E7
100
AcDbEntity
  8
PORTATASTO
100
AcDbSpline
 62
253
  6
CONTINUOUS
 70
0
 71
3
 72
18
 73
14
 74
12
 42
0.0000001
 43
0.0000001
 44
0.0000000001
 12
0.3662498989
 22
-0.0008303865
 32
0.0
 13
0.0011071506
 23
-0.3662491668
 33
0.0
 40
0.0
 40
0.0
 40
0.0
 40
0.0
 40
0.097180097
 40
0.1938992423
 40
0.2896999712
 40
0.3841870463
 40
0.4770571712
 40
0.5681252747
 40
0.6573451698
 40
0.7448216444
 40
0.8308106258
 40
0.9157043353
 40
1.0
 40
1.0
 40
1.0
 40
1.0
 10
-19.8130935167
 20
-23.2948185145
 30
0.0
 10
-19.8012294498
 20
-23.2948454135
 30
0.0
 10
-19.7775347402
 20
-23.2963603152
 30
0.0
 10
-19.742702399
 20
-23.3029747473
 30
0.0
 10
-19.7092773181
 20
-23.3137994956
 30
0.0
 10
-19.6779387488
 20
-23.3286214778
 30
0.0
 10
-19.6493171494
 20
-23.3471488434
 30
0.0
 10
-19.6239937623
 20
-23.3690160234
 30
0.0
 10
-19.6024868568
 20
-23.3937900907
 30
0.0
 10
-19.5852423693
 20
-23.4209759623
 30
0.0
 10
-19.5726237011
 20
-23.4500286297
 30
0.0
 10
-19.5649017
 20
-23.4803441232
 30
0.0
 10
-19.5631280523
 20
-23.5010337931
 30
0.0
 10
-19.5630969429
 20
-23.5113248654
 30
0.0
 11
-19.8130935167
 21
-23.2948185145
 31
0.0
 11
-19.7775741291
 21
-23.2970954341
 31
0.0
 11
-19.7427754025
 21
-23.3037189329
 31
0.0
 11
-19.7094033765
 21
-23.314554628
 31
0.0
 11
-19.6781351465
 21
-23.3293826755
 31
0.0
 11
-19.6496051263
 21
-23.3479022301
 31
0.0
 11
-19.6243921763
 21
-23.3697375476
 31
0.0
 11
-19.6030078587
 21
-23.3944456078
 31
0.0
 11
-19.5858860598
 21
-23.4215250971
 31
0.0
 11
-19.5733741806
 21
-23.4504265804
 31
0.0
 11
-19.565726083
 21
-23.4805636584
 31
0.0
 11
-19.5630969429
 21
-23.5113248654
 31
0.0
  0
SPLINE
  5
6E8
100
AcDbEntity
  8
PORTATASTO
100
AcDbSpline
 62
253
  6
CONTINUOUS
 70
0
 71
3
 72
16
 73
12
 74
10
 42
0.0000001
 43
0.0000001
 44
0.0000000001
 12
0.0000000128
 22
-0.2165111267
 32
0.0
 13
-0.0039285624
 23
-0.2164754822
 33
0.0
 40
0.0
 40
0.0
 40
0.0
 40
0.0
 40
0.1330410941
 40
0.2653721429
 40
0.3946348552
 40
0.5181515314
 40
0.6343729951
 40
0.7422936446
 40
0.8403820716
 40
0.9267810823
 40
1.0
 40
1.0
 40
1.0
 40
1.0
 10
-19.811784508
 20
-23.0783135804
 30
0.0
 10
-19.8117845074
 20
-23.0879152062
 30
0.0
 10
-19.8117960241
 20
-23.1070672154
 30
0.0
 10
-19.8118479997
 20
-23.1355481208
 30
0.0
 10
-19.8119343221
 20
-23.1633415599
 30
0.0
 10
-19.8120536115
 20
-23.1899722318
 30
0.0
 10
-19.8122039232
 20
-23.2150624579
 30
0.0
 10
-19.8123833456
 20
-23.2383172777
 30
0.0
 10
-19.8125893193
 20
-23.2594194936
 30
0.0
 10
-19.8128181485
 20
-23.2780168704
 30
0.0
 10
-19.8129976351
 20
-23.2895351958
 30
0.0
 10
-19.8130935168
 20
-23.2948185626
 30
0.0
 11
-19.811784508
 21
-23.0783135804
 31
0.0
 11
-19.8118019449
 21
-23.1071184523
 31
0.0
 11
-19.8118545921
 21
-23.1357695484
 31
0.0
 11
-19.8119421624
 21
-23.1637562269
 31
0.0
 11
-19.8120629113
 21
-23.190498689
 31
0.0
 11
-19.8122150124
 21
-23.2156614694
 31
0.0
 11
-19.8123971645
 21
-23.2390267808
 31
0.0
 11
-19.8126071253
 21
-23.2602629787
 31
0.0
 11
-19.8128409135
 21
-23.2789678649
 31
0.0
 11
-19.8130935168
 21
-23.2948185626
 31
0.0
  0
SPLINE
  5
6E9
100
AcDbEntity
  8
PORTATASTO
100
AcDbSpline
 62
253
  6
CONTINUOUS
 70
0
 71
3
 72
16
 73
12
 74
10
 42
0.0000001
 43
0.0000001
 44
0.0000000001
 12
-0.0039285617
 22
0.2164754792
 32
0.0
 13
0.0000000128
 23
0.2165111237
 33
0.0
 40
0.0
 40
0.0
 40
0.0
 40
0.0
 40
0.0732188971
 40
0.1596179091
 40
0.2577063374
 40
0.3656269884
 40
0.4818484537
 40
0.6053651317
 40
0.7346278457
 40
0.8669588964
 40
1.0
 40
1.0
 40
1.0
 40
1.0
 10
-21.5619064832
 20
-23.294818558
 30
0.0
 10
-21.5620023649
 20
-23.2895351927
 30
0.0
 10
-21.5621818515
 20
-23.2780168689
 30
0.0
 10
-21.5624106807
 20
-23.2594194936
 30
0.0
 10
-21.5626166544
 20
-23.2383172777
 30
0.0
 10
-21.5627960768
 20
-23.2150624579
 30
0.0
 10
-21.5629463885
 20
-23.1899722318
 30
0.0
 10
-21.5630656779
 20
-23.1633415599
 30
0.0
 10
-21.5631520003
 20
-23.1355481208
 30
0.0
 10
-21.5632039759
 20
-23.1070672149
 30
0.0
 10
-21.5632154926
 20
-23.087915205
 30
0.0
 10
-21.563215492
 20
-23.0783135788
 30
0.0
 11
-21.5619064832
 21
-23.294818558
 31
0.0
 11
-21.5621590865
 21
-23.2789678649
 31
0.0
 11
-21.5623928747
 21
-23.2602629787
 31
0.0
 11
-21.5626028355
 21
-23.2390267808
 31
0.0
 11
-21.5627849876
 21
-23.2156614694
 31
0.0
 11
-21.5629370887
 21
-23.190498689
 31
0.0
 11
-21.5630578376
 21
-23.1637562269
 31
0.0
 11
-21.5631454079
 21
-23.1357695484
 31
0.0
 11
-21.5631980551
 21
-23.1071184523
 31
0.0
 11
-21.563215492
 21
-23.0783135788
 31
0.0
  0
SPLINE
  5
6EA
100
AcDbEntity
  8
PORTATASTO
100
AcDbSpline
 62
253
  6
CONTINUOUS
 70
0
 71
3
 72
18
 73
14
 74
12
 42
0.0000001
 43
0.0000001
 44
0.0000000001
 12
-0.3662498989
 22
0.0008303865
 32
0.0
 13
-0.0011071506
 23
0.3662491668
 33
0.0
 40
0.0
 40
0.0
 40
0.0
 40
0.0
 40
0.097180097
 40
0.1938992423
 40
0.2896999712
 40
0.3841870463
 40
0.4770571712
 40
0.5681252747
 40
0.6573451698
 40
0.7448216444
 40
0.8308106258
 40
0.9157043353
 40
1.0
 40
1.0
 40
1.0
 40
1.0
 10
-21.5619064833
 20
23.2948185145
 30
0.0
 10
-21.5737705502
 20
23.2948454135
 30
0.0
 10
-21.5974652598
 20
23.2963603152
 30
0.0
 10
-21.632297601
 20
23.3029747473
 30
0.0
 10
-21.6657226819
 20
23.3137994956
 30
0.0
 10
-21.6970612512
 20
23.3286214778
 30
0.0
 10
-21.7256828506
 20
23.3471488434
 30
0.0
 10
-21.7510062377
 20
23.3690160234
 30
0.0
 10
-21.7725131432
 20
23.3937900907
 30
0.0
 10
-21.7897576307
 20
23.4209759623
 30
0.0
 10
-21.8023762989
 20
23.4500286297
 30
0.0
 10
-21.8100983
 20
23.4803441232
 30
0.0
 10
-21.8118719477
 20
23.5010337931
 30
0.0
 10
-21.8119030571
 20
23.5113248654
 30
0.0
 11
-21.5619064833
 21
23.2948185145
 31
0.0
 11
-21.5974258709
 21
23.2970954341
 31
0.0
 11
-21.6322245975
 21
23.3037189329
 31
0.0
 11
-21.6655966235
 21
23.314554628
 31
0.0
 11
-21.6968648535
 21
23.3293826755
 31
0.0
 11
-21.7253948737
 21
23.3479022301
 31
0.0
 11
-21.7506078237
 21
23.3697375476
 31
0.0
 11
-21.7719921413
 21
23.3944456078
 31
0.0
 11
-21.7891139402
 21
23.4215250971
 31
0.0
 11
-21.8016258194
 21
23.4504265804
 31
0.0
 11
-21.809273917
 21
23.4805636584
 31
0.0
 11
-21.8119030571
 21
23.5113248654
 31
0.0
  0
SPLINE
  5
6EB
100
AcDbEntity
  8
PORTATASTO
100
AcDbSpline
 62
253
  6
CONTINUOUS
 70
0
 71
3
 72
16
 73
12
 74
10
 42
0.0000001
 43
0.0000001
 44
0.0000000001
 12
-0.0000000128
 22
0.2165111267
 32
0.0
 13
0.0039285624
 23
0.2164754822
 33
0.0
 40
0.0
 40
0.0
 40
0.0
 40
0.0
 40
0.1330410941
 40
0.2653721429
 40
0.3946348552
 40
0.5181515314
 40
0.6343729951
 40
0.7422936446
 40
0.8403820716
 40
0.9267810823
 40
1.0
 40
1.0
 40
1.0
 40
1.0
 10
-21.563215492
 20
23.0783135804
 30
0.0
 10
-21.5632154926
 20
23.0879152062
 30
0.0
 10
-21.5632039759
 20
23.1070672154
 30
0.0
 10
-21.5631520003
 20
23.1355481208
 30
0.0
 10
-21.5630656779
 20
23.1633415599
 30
0.0
 10
-21.5629463885
 20
23.1899722318
 30
0.0
 10
-21.5627960768
 20
23.2150624579
 30
0.0
 10
-21.5626166544
 20
23.2383172777
 30
0.0
 10
-21.5624106807
 20
23.2594194936
 30
0.0
 10
-21.5621818515
 20
23.2780168704
 30
0.0
 10
-21.5620023649
 20
23.2895351958
 30
0.0
 10
-21.5619064832
 20
23.2948185626
 30
0.0
 11
-21.563215492
 21
23.0783135804
 31
0.0
 11
-21.5631980551
 21
23.1071184523
 31
0.0
 11
-21.5631454079
 21
23.1357695484
 31
0.0
 11
-21.5630578376
 21
23.1637562269
 31
0.0
 11
-21.5629370887
 21
23.190498689
 31
0.0
 11
-21.5627849876
 21
23.2156614694
 31
0.0
 11
-21.5626028355
 21
23.2390267808
 31
0.0
 11
-21.5623928747
 21
23.2602629787
 31
0.0
 11
-21.5621590865
 21
23.2789678649
 31
0.0
 11
-21.5619064832
 21
23.2948185626
 31
0.0
  0
SPLINE
  5
6EC
100
AcDbEntity
  8
PORTATASTO
100
AcDbSpline
 62
253
  6
CONTINUOUS
 70
0
 71
3
 72
16
 73
12
 74
10
 42
0.0000001
 43
0.0000001
 44
0.0000000001
 12
0.0039285617
 22
-0.2164754792
 32
0.0
 13
-0.0000000128
 23
-0.2165111237
 33
0.0
 40
0.0
 40
0.0
 40
0.0
 40
0.0
 40
0.0732188971
 40
0.1596179091
 40
0.2577063374
 40
0.3656269884
 40
0.4818484537
 40
0.6053651317
 40
0.7346278457
 40
0.8669588964
 40
1.0
 40
1.0
 40
1.0
 40
1.0
 10
-19.8130935168
 20
23.294818558
 30
0.0
 10
-19.8129976351
 20
23.2895351927
 30
0.0
 10
-19.8128181485
 20
23.2780168689
 30
0.0
 10
-19.8125893193
 20
23.2594194936
 30
0.0
 10
-19.8123833456
 20
23.2383172777
 30
0.0
 10
-19.8122039232
 20
23.2150624579
 30
0.0
 10
-19.8120536115
 20
23.1899722318
 30
0.0
 10
-19.8119343221
 20
23.1633415599
 30
0.0
 10
-19.8118479997
 20
23.1355481208
 30
0.0
 10
-19.8117960241
 20
23.1070672149
 30
0.0
 10
-19.8117845074
 20
23.087915205
 30
0.0
 10
-19.811784508
 20
23.0783135788
 30
0.0
 11
-19.8130935168
 21
23.294818558
 31
0.0
 11
-19.8128409135
 21
23.2789678649
 31
0.0
 11
-19.8126071253
 21
23.2602629787
 31
0.0
 11
-19.8123971645
 21
23.2390267808
 31
0.0
 11
-19.8122150124
 21
23.2156614694
 31
0.0
 11
-19.8120629113
 21
23.190498689
 31
0.0
 11
-19.8119421624
 21
23.1637562269
 31
0.0
 11
-19.8118545921
 21
23.1357695484
 31
0.0
 11
-19.8118019449
 21
23.1071184523
 31
0.0
 11
-19.811784508
 21
23.0783135788
 31
0.0
  0
SPLINE
  5
6ED
100
AcDbEntity
  8
PORTATASTO
100
AcDbSpline
 62
253
  6
CONTINUOUS
 70
0
 71
3
 72
18
 73
14
 74
12
 42
0.0000001
 43
0.0000001
 44
0.0000000001
 12
-0.3662498989
 22
0.0008303865
 32
0.0
 13
-0.0011071506
 23
0.3662491668
 33
0.0
 40
0.0
 40
0.0
 40
0.0
 40
0.0
 40
0.097180097
 40
0.1938992423
 40
0.2896999712
 40
0.3841870463
 40
0.4770571712
 40
0.5681252747
 40
0.6573451698
 40
0.7448216444
 40
0.8308106258
 40
0.9157043353
 40
1.0
 40
1.0
 40
1.0
 40
1.0
 10
-2.6869064833
 20
23.2948185145
 30
0.0
 10
-2.6987705502
 20
23.2948454135
 30
0.0
 10
-2.7224652598
 20
23.2963603152
 30
0.0
 10
-2.757297601
 20
23.3029747473
 30
0.0
 10
-2.7907226819
 20
23.3137994956
 30
0.0
 10
-2.8220612512
 20
23.3286214778
 30
0.0
 10
-2.8506828506
 20
23.3471488434
 30
0.0
 10
-2.8760062377
 20
23.3690160234
 30
0.0
 10
-2.8975131432
 20
23.3937900907
 30
0.0
 10
-2.9147576307
 20
23.4209759623
 30
0.0
 10
-2.9273762989
 20
23.4500286297
 30
0.0
 10
-2.9350983
 20
23.4803441232
 30
0.0
 10
-2.9368719477
 20
23.5010337931
 30
0.0
 10
-2.9369030571
 20
23.5113248654
 30
0.0
 11
-2.6869064833
 21
23.2948185145
 31
0.0
 11
-2.7224258709
 21
23.2970954341
 31
0.0
 11
-2.7572245975
 21
23.3037189329
 31
0.0
 11
-2.7905966235
 21
23.314554628
 31
0.0
 11
-2.8218648535
 21
23.3293826755
 31
0.0
 11
-2.8503948737
 21
23.3479022301
 31
0.0
 11
-2.8756078237
 21
23.3697375476
 31
0.0
 11
-2.8969921413
 21
23.3944456078
 31
0.0
 11
-2.9141139402
 21
23.4215250971
 31
0.0
 11
-2.9266258194
 21
23.4504265804
 31
0.0
 11
-2.934273917
 21
23.4805636584
 31
0.0
 11
-2.9369030571
 21
23.5113248654
 31
0.0
  0
SPLINE
  5
6EE
100
AcDbEntity
  8
PORTATASTO
100
AcDbSpline
 62
253
  6
CONTINUOUS
 70
0
 71
3
 72
16
 73
12
 74
10
 42
0.0000001
 43
0.0000001
 44
0.0000000001
 12
-0.0000000128
 22
0.2165111267
 32
0.0
 13
0.0039285624
 23
0.2164754822
 33
0.0
 40
0.0
 40
0.0
 40
0.0
 40
0.0
 40
0.1330410941
 40
0.2653721429
 40
0.3946348552
 40
0.5181515314
 40
0.6343729951
 40
0.7422936446
 40
0.8403820716
 40
0.9267810823
 40
1.0
 40
1.0
 40
1.0
 40
1.0
 10
-2.688215492
 20
23.0783135804
 30
0.0
 10
-2.6882154926
 20
23.0879152062
 30
0.0
 10
-2.6882039759
 20
23.1070672154
 30
0.0
 10
-2.6881520003
 20
23.1355481208
 30
0.0
 10
-2.6880656779
 20
23.1633415599
 30
0.0
 10
-2.6879463885
 20
23.1899722318
 30
0.0
 10
-2.6877960768
 20
23.2150624579
 30
0.0
 10
-2.6876166544
 20
23.2383172777
 30
0.0
 10
-2.6874106807
 20
23.2594194936
 30
0.0
 10
-2.6871818515
 20
23.2780168704
 30
0.0
 10
-2.6870023649
 20
23.2895351958
 30
0.0
 10
-2.6869064832
 20
23.2948185626
 30
0.0
 11
-2.688215492
 21
23.0783135804
 31
0.0
 11
-2.6881980551
 21
23.1071184523
 31
0.0
 11
-2.6881454079
 21
23.1357695484
 31
0.0
 11
-2.6880578376
 21
23.1637562269
 31
0.0
 11
-2.6879370887
 21
23.190498689
 31
0.0
 11
-2.6877849876
 21
23.2156614694
 31
0.0
 11
-2.6876028355
 21
23.2390267808
 31
0.0
 11
-2.6873928747
 21
23.2602629787
 31
0.0
 11
-2.6871590865
 21
23.2789678649
 31
0.0
 11
-2.6869064832
 21
23.2948185626
 31
0.0
  0
SPLINE
  5
6EF
100
AcDbEntity
  8
PORTATASTO
100
AcDbSpline
 62
253
  6
CONTINUOUS
 70
0
 71
3
 72
16
 73
12
 74
10
 42
0.0000001
 43
0.0000001
 44
0.0000000001
 12
0.0039285617
 22
-0.2164754792
 32
0.0
 13
-0.0000000128
 23
-0.2165111237
 33
0.0
 40
0.0
 40
0.0
 40
0.0
 40
0.0
 40
0.0732188971
 40
0.1596179091
 40
0.2577063374
 40
0.3656269884
 40
0.4818484537
 40
0.6053651317
 40
0.7346278457
 40
0.8669588964
 40
1.0
 40
1.0
 40
1.0
 40
1.0
 10
-0.9380935168
 20
23.294818558
 30
0.0
 10
-0.9379976351
 20
23.2895351927
 30
0.0
 10
-0.9378181485
 20
23.2780168689
 30
0.0
 10
-0.9375893193
 20
23.2594194936
 30
0.0
 10
-0.9373833456
 20
23.2383172777
 30
0.0
 10
-0.9372039232
 20
23.2150624579
 30
0.0
 10
-0.9370536115
 20
23.1899722318
 30
0.0
 10
-0.9369343221
 20
23.1633415599
 30
0.0
 10
-0.9368479997
 20
23.1355481208
 30
0.0
 10
-0.9367960241
 20
23.1070672149
 30
0.0
 10
-0.9367845074
 20
23.087915205
 30
0.0
 10
-0.936784508
 20
23.0783135788
 30
0.0
 11
-0.9380935168
 21
23.294818558
 31
0.0
 11
-0.9378409135
 21
23.2789678649
 31
0.0
 11
-0.9376071253
 21
23.2602629787
 31
0.0
 11
-0.9373971645
 21
23.2390267808
 31
0.0
 11
-0.9372150124
 21
23.2156614694
 31
0.0
 11
-0.9370629113
 21
23.190498689
 31
0.0
 11
-0.9369421624
 21
23.1637562269
 31
0.0
 11
-0.9368545921
 21
23.1357695484
 31
0.0
 11
-0.9368019449
 21
23.1071184523
 31
0.0
 11
-0.936784508
 21
23.0783135788
 31
0.0
  0
SPLINE
  5
6F0
100
AcDbEntity
  8
PORTATASTO
100
AcDbSpline
 62
253
  6
CONTINUOUS
 70
0
 71
3
 72
18
 73
14
 74
12
 42
0.0000001
 43
0.0000001
 44
0.0000000001
 12
0.3662498989
 22
-0.0008303865
 32
0.0
 13
0.0011071506
 23
-0.3662491668
 33
0.0
 40
0.0
 40
0.0
 40
0.0
 40
0.0
 40
0.097180097
 40
0.1938992423
 40
0.2896999712
 40
0.3841870463
 40
0.4770571712
 40
0.5681252747
 40
0.6573451698
 40
0.7448216444
 40
0.8308106258
 40
0.9157043353
 40
1.0
 40
1.0
 40
1.0
 40
1.0
 10
-0.9380935167
 20
-23.2948185145
 30
0.0
 10
-0.9262294498
 20
-23.2948454135
 30
0.0
 10
-0.9025347402
 20
-23.2963603152
 30
0.0
 10
-0.867702399
 20
-23.3029747473
 30
0.0
 10
-0.8342773181
 20
-23.3137994956
 30
0.0
 10
-0.8029387488
 20
-23.3286214778
 30
0.0
 10
-0.7743171494
 20
-23.3471488434
 30
0.0
 10
-0.7489937623
 20
-23.3690160234
 30
0.0
 10
-0.7274868568
 20
-23.3937900907
 30
0.0
 10
-0.7102423693
 20
-23.4209759623
 30
0.0
 10
-0.6976237011
 20
-23.4500286297
 30
0.0
 10
-0.6899017
 20
-23.4803441232
 30
0.0
 10
-0.6881280523
 20
-23.5010337931
 30
0.0
 10
-0.6880969429
 20
-23.5113248654
 30
0.0
 11
-0.9380935167
 21
-23.2948185145
 31
0.0
 11
-0.9025741291
 21
-23.2970954341
 31
0.0
 11
-0.8677754025
 21
-23.3037189329
 31
0.0
 11
-0.8344033765
 21
-23.314554628
 31
0.0
 11
-0.8031351465
 21
-23.3293826755
 31
0.0
 11
-0.7746051263
 21
-23.3479022301
 31
0.0
 11
-0.7493921763
 21
-23.3697375476
 31
0.0
 11
-0.7280078587
 21
-23.3944456078
 31
0.0
 11
-0.7108860598
 21
-23.4215250971
 31
0.0
 11
-0.6983741806
 21
-23.4504265804
 31
0.0
 11
-0.690726083
 21
-23.4805636584
 31
0.0
 11
-0.6880969429
 21
-23.5113248654
 31
0.0
  0
SPLINE
  5
6F1
100
AcDbEntity
  8
PORTATASTO
100
AcDbSpline
 62
253
  6
CONTINUOUS
 70
0
 71
3
 72
16
 73
12
 74
10
 42
0.0000001
 43
0.0000001
 44
0.0000000001
 12
0.0000000128
 22
-0.2165111267
 32
0.0
 13
-0.0039285624
 23
-0.2164754822
 33
0.0
 40
0.0
 40
0.0
 40
0.0
 40
0.0
 40
0.1330410941
 40
0.2653721429
 40
0.3946348552
 40
0.5181515314
 40
0.6343729951
 40
0.7422936446
 40
0.8403820716
 40
0.9267810823
 40
1.0
 40
1.0
 40
1.0
 40
1.0
 10
-0.936784508
 20
-23.0783135804
 30
0.0
 10
-0.9367845074
 20
-23.0879152062
 30
0.0
 10
-0.9367960241
 20
-23.1070672154
 30
0.0
 10
-0.9368479997
 20
-23.1355481208
 30
0.0
 10
-0.9369343221
 20
-23.1633415599
 30
0.0
 10
-0.9370536115
 20
-23.1899722318
 30
0.0
 10
-0.9372039232
 20
-23.2150624579
 30
0.0
 10
-0.9373833456
 20
-23.2383172777
 30
0.0
 10
-0.9375893193
 20
-23.2594194936
 30
0.0
 10
-0.9378181485
 20
-23.2780168704
 30
0.0
 10
-0.9379976351
 20
-23.2895351958
 30
0.0
 10
-0.9380935168
 20
-23.2948185626
 30
0.0
 11
-0.936784508
 21
-23.0783135804
 31
0.0
 11
-0.9368019449
 21
-23.1071184523
 31
0.0
 11
-0.9368545921
 21
-23.1357695484
 31
0.0
 11
-0.9369421624
 21
-23.1637562269
 31
0.0
 11
-0.9370629113
 21
-23.190498689
 31
0.0
 11
-0.9372150124
 21
-23.2156614694
 31
0.0
 11
-0.9373971645
 21
-23.2390267808
 31
0.0
 11
-0.9376071253
 21
-23.2602629787
 31
0.0
 11
-0.9378409135
 21
-23.2789678649
 31
0.0
 11
-0.9380935168
 21
-23.2948185626
 31
0.0
  0
SPLINE
  5
6F2
100
AcDbEntity
  8
PORTATASTO
100
AcDbSpline
 62
253
  6
CONTINUOUS
 70
0
 71
3
 72
16
 73
12
 74
10
 42
0.0000001
 43
0.0000001
 44
0.0000000001
 12
-0.0039285617
 22
0.2164754792
 32
0.0
 13
0.0000000128
 23
0.2165111237
 33
0.0
 40
0.0
 40
0.0
 40
0.0
 40
0.0
 40
0.0732188971
 40
0.1596179091
 40
0.2577063374
 40
0.3656269884
 40
0.4818484537
 40
0.6053651317
 40
0.7346278457
 40
0.8669588964
 40
1.0
 40
1.0
 40
1.0
 40
1.0
 10
-2.6869064832
 20
-23.294818558
 30
0.0
 10
-2.6870023649
 20
-23.2895351927
 30
0.0
 10
-2.6871818515
 20
-23.2780168689
 30
0.0
 10
-2.6874106807
 20
-23.2594194936
 30
0.0
 10
-2.6876166544
 20
-23.2383172777
 30
0.0
 10
-2.6877960768
 20
-23.2150624579
 30
0.0
 10
-2.6879463885
 20
-23.1899722318
 30
0.0
 10
-2.6880656779
 20
-23.1633415599
 30
0.0
 10
-2.6881520003
 20
-23.1355481208
 30
0.0
 10
-2.6882039759
 20
-23.1070672149
 30
0.0
 10
-2.6882154926
 20
-23.087915205
 30
0.0
 10
-2.688215492
 20
-23.0783135788
 30
0.0
 11
-2.6869064832
 21
-23.294818558
 31
0.0
 11
-2.6871590865
 21
-23.2789678649
 31
0.0
 11
-2.6873928747
 21
-23.2602629787
 31
0.0
 11
-2.6876028355
 21
-23.2390267808
 31
0.0
 11
-2.6877849876
 21
-23.2156614694
 31
0.0
 11
-2.6879370887
 21
-23.190498689
 31
0.0
 11
-2.6880578376
 21
-23.1637562269
 31
0.0
 11
-2.6881454079
 21
-23.1357695484
 31
0.0
 11
-2.6881980551
 21
-23.1071184523
 31
0.0
 11
-2.688215492
 21
-23.0783135788
 31
0.0
  0
SPLINE
  5
6F3
100
AcDbEntity
  8
PORTATASTO
100
AcDbSpline
 62
253
  6
CONTINUOUS
 70
0
 71
3
 72
18
 73
14
 74
12
 42
0.0000001
 43
0.0000001
 44
0.0000000001
 12
-0.0011071506
 22
0.3662491663
 32
0.0
 13
-0.3662498983
 23
0.0008303874
 33
0.0
 40
0.0
 40
0.0
 40
0.0
 40
0.0
 40
0.0842955547
 40
0.169189152
 40
0.2551780173
 40
0.3426543807
 40
0.4318741974
 40
0.5229422751
 40
0.6158124279
 40
0.7102995819
 40
0.8061004335
 40
0.9028197334
 40
1.0
 40
1.0
 40
1.0
 40
1.0
 10
-19.5670239696
 20
-23.9443375673
 30
0.0
 10
-19.5670550789
 20
-23.9340465084
 30
0.0
 10
-19.568828722
 20
-23.9133568659
 30
0.0
 10
-19.5765507032
 20
-23.8830414104
 30
0.0
 10
-19.5891693395
 20
-23.853988775
 30
0.0
 10
-19.606413788
 20
-23.8268029233
 30
0.0
 10
-19.6279206561
 20
-23.8020288588
 30
0.0
 10
-19.6532440177
 20
-23.7801616637
 30
0.0
 10
-19.6818656109
 20
-23.76163427
 30
0.0
 10
-19.7132041957
 20
-23.7468122547
 30
0.0
 10
-19.7466293128
 20
-23.7359874758
 30
0.0
 10
-19.7814617058
 20
-23.7293730223
 30
0.0
 10
-19.8051564551
 20
-23.7278581154
 30
0.0
 10
-19.8170205427
 20
-23.7278312164
 30
0.0
 11
-19.5670239696
 21
-23.9443375673
 31
0.0
 11
-19.569653103
 21
-23.9135764002
 31
0.0
 11
-19.5773011809
 21
-23.8834393596
 31
0.0
 11
-19.5898130283
 21
-23.854537909
 31
0.0
 11
-19.6069347867
 21
-23.8274584424
 31
0.0
 11
-19.6283190656
 21
-23.8027503867
 31
0.0
 11
-19.6535319901
 21
-23.7809150543
 31
0.0
 11
-19.6820620042
 21
-23.7623954716
 31
0.0
 11
-19.7133302503
 21
-23.7475673906
 31
0.0
 11
-19.7467023134
 21
-23.7367316644
 31
0.0
 11
-19.7815010934
 21
-23.7301081438
 31
0.0
 11
-19.8170205427
 21
-23.7278312164
 31
0.0
  0
SPLINE
  5
6F4
100
AcDbEntity
  8
PORTATASTO
100
AcDbSpline
 62
253
  6
CONTINUOUS
 70
0
 71
3
 72
18
 73
14
 74
12
 42
0.0000001
 43
0.0000001
 44
0.0000000001
 12
-0.3662499093
 22
-0.0008303874
 32
0.0
 13
-0.0011071506
 23
-0.3662491772
 33
0.0
 40
0.0
 40
0.0
 40
0.0
 40
0.0
 40
0.0971872096
 40
0.1939133523
 40
0.2897218612
 40
0.3842163772
 40
0.4770935418
 40
0.5681682897
 40
0.6573939174
 40
0.7448759241
 40
0.8308652934
 40
0.915759618
 40
1.0
 40
1.0
 40
1.0
 40
1.0
 10
-21.5579794573
 20
-23.7278312164
 30
0.0
 10
-21.5698443929
 20
-23.7278581174
 30
0.0
 10
-21.593540831
 20
-23.7293732367
 30
0.0
 10
-21.6283757276
 20
-23.7359886464
 30
0.0
 10
-21.6618031555
 20
-23.7468150334
 30
0.0
 10
-21.6931436822
 20
-23.7616392955
 30
0.0
 10
-21.7217665863
 20
-23.7801694443
 30
0.0
 10
-21.747090452
 20
-23.8020397445
 30
0.0
 10
-21.768596944
 20
-23.8268171064
 30
0.0
 10
-21.785839766
 20
-23.854005759
 30
0.0
 10
-21.7984558418
 20
-23.8830604284
 30
0.0
 10
-21.8061730084
 20
-23.9133703205
 30
0.0
 10
-21.8079449414
 20
-23.9340532438
 30
0.0
 10
-21.8079760304
 20
-23.9443375673
 30
0.0
 11
-21.5579794573
 21
-23.7278312164
 31
0.0
 11
-21.5935014353
 21
-23.7301084639
 31
0.0
 11
-21.6283025894
 21
-23.7367329201
 31
0.0
 11
-21.6616770666
 21
-23.7475702957
 31
0.0
 11
-21.6929472328
 21
-23.7624006231
 31
0.0
 11
-21.7214785271
 21
-23.780922952
 31
0.0
 11
-21.7466919739
 21
-23.8027614143
 31
0.0
 11
-21.7680757981
 21
-23.8274726794
 31
0.0
 11
-21.785196242
 21
-23.8545554235
 31
0.0
 11
-21.7977052826
 21
-23.8834582912
 31
0.0
 11
-21.8053502697
 21
-23.9135963917
 31
0.0
 11
-21.8079760304
 21
-23.9443375673
 31
0.0
  0
SPLINE
  5
6F5
100
AcDbEntity
  8
PORTATASTO
100
AcDbSpline
 62
253
  6
CONTINUOUS
 70
0
 71
3
 72
18
 73
14
 74
12
 42
0.0000001
 43
0.0000001
 44
0.0000000001
 12
0.0011071506
 22
-0.3662491663
 32
0.0
 13
0.3662498983
 23
-0.0008303874
 33
0.0
 40
0.0
 40
0.0
 40
0.0
 40
0.0
 40
0.0842955547
 40
0.169189152
 40
0.2551780173
 40
0.3426543807
 40
0.4318741974
 40
0.5229422751
 40
0.6158124279
 40
0.7102995819
 40
0.8061004335
 40
0.9028197334
 40
1.0
 40
1.0
 40
1.0
 40
1.0
 10
-21.8079760304
 20
23.9443375673
 30
0.0
 10
-21.8079449211
 20
23.9340465084
 30
0.0
 10
-21.806171278
 20
23.9133568659
 30
0.0
 10
-21.7984492968
 20
23.8830414104
 30
0.0
 10
-21.7858306605
 20
23.853988775
 30
0.0
 10
-21.768586212
 20
23.8268029233
 30
0.0
 10
-21.7470793439
 20
23.8020288588
 30
0.0
 10
-21.7217559823
 20
23.7801616637
 30
0.0
 10
-21.6931343891
 20
23.76163427
 30
0.0
 10
-21.6617958043
 20
23.7468122547
 30
0.0
 10
-21.6283706872
 20
23.7359874758
 30
0.0
 10
-21.5935382942
 20
23.7293730223
 30
0.0
 10
-21.5698435449
 20
23.7278581154
 30
0.0
 10
-21.5579794573
 20
23.7278312164
 30
0.0
 11
-21.8079760304
 21
23.9443375673
 31
0.0
 11
-21.805346897
 21
23.9135764002
 31
0.0
 11
-21.7976988191
 21
23.8834393596
 31
0.0
 11
-21.7851869717
 21
23.854537909
 31
0.0
 11
-21.7680652133
 21
23.8274584424
 31
0.0
 11
-21.7466809344
 21
23.8027503867
 31
0.0
 11
-21.7214680099
 21
23.7809150543
 31
0.0
 11
-21.6929379958
 21
23.7623954716
 31
0.0
 11
-21.6616697497
 21
23.7475673906
 31
0.0
 11
-21.6282976866
 21
23.7367316644
 31
0.0
 11
-21.5934989066
 21
23.7301081438
 31
0.0
 11
-21.5579794573
 21
23.7278312164
 31
0.0
  0
SPLINE
  5
6F6
100
AcDbEntity
  8
PORTATASTO
100
AcDbSpline
 62
253
  6
CONTINUOUS
 70
0
 71
3
 72
18
 73
14
 74
12
 42
0.0000001
 43
0.0000001
 44
0.0000000001
 12
0.3662499093
 22
0.0008303874
 32
0.0
 13
0.0011071506
 23
0.3662491772
 33
0.0
 40
0.0
 40
0.0
 40
0.0
 40
0.0
 40
0.0971872096
 40
0.1939133523
 40
0.2897218612
 40
0.3842163772
 40
0.4770935418
 40
0.5681682897
 40
0.6573939174
 40
0.7448759241
 40
0.8308652934
 40
0.915759618
 40
1.0
 40
1.0
 40
1.0
 40
1.0
 10
-19.8170205427
 20
23.7278312164
 30
0.0
 10
-19.8051556071
 20
23.7278581174
 30
0.0
 10
-19.781459169
 20
23.7293732367
 30
0.0
 10
-19.7466242724
 20
23.7359886464
 30
0.0
 10
-19.7131968445
 20
23.7468150334
 30
0.0
 10
-19.6818563178
 20
23.7616392955
 30
0.0
 10
-19.6532334137
 20
23.7801694443
 30
0.0
 10
-19.627909548
 20
23.8020397445
 30
0.0
 10
-19.606403056
 20
23.8268171064
 30
0.0
 10
-19.589160234
 20
23.854005759
 30
0.0
 10
-19.5765441582
 20
23.8830604284
 30
0.0
 10
-19.5688269916
 20
23.9133703205
 30
0.0
 10
-19.5670550586
 20
23.9340532438
 30
0.0
 10
-19.5670239696
 20
23.9443375673
 30
0.0
 11
-19.8170205427
 21
23.7278312164
 31
0.0
 11
-19.7814985647
 21
23.7301084639
 31
0.0
 11
-19.7466974106
 21
23.7367329201
 31
0.0
 11
-19.7133229334
 21
23.7475702957
 31
0.0
 11
-19.6820527672
 21
23.7624006231
 31
0.0
 11
-19.6535214729
 21
23.780922952
 31
0.0
 11
-19.6283080261
 21
23.8027614143
 31
0.0
 11
-19.6069242019
 21
23.8274726794
 31
0.0
 11
-19.589803758
 21
23.8545554235
 31
0.0
 11
-19.5772947174
 21
23.8834582912
 31
0.0
 11
-19.5696497303
 21
23.9135963917
 31
0.0
 11
-19.5670239696
 21
23.9443375673
 31
0.0
  0
SPLINE
  5
6F7
100
AcDbEntity
  8
PORTATASTO
100
AcDbSpline
 62
253
  6
CONTINUOUS
 70
0
 71
3
 72
18
 73
14
 74
12
 42
0.0000001
 43
0.0000001
 44
0.0000000001
 12
0.0011071506
 22
-0.3662491663
 32
0.0
 13
0.3662498983
 23
-0.0008303874
 33
0.0
 40
0.0
 40
0.0
 40
0.0
 40
0.0
 40
0.0842955547
 40
0.169189152
 40
0.2551780173
 40
0.3426543807
 40
0.4318741974
 40
0.5229422751
 40
0.6158124279
 40
0.7102995819
 40
0.8061004335
 40
0.9028197334
 40
1.0
 40
1.0
 40
1.0
 40
1.0
 10
-2.9329760304
 20
23.9443375673
 30
0.0
 10
-2.9329449211
 20
23.9340465084
 30
0.0
 10
-2.931171278
 20
23.9133568659
 30
0.0
 10
-2.9234492968
 20
23.8830414104
 30
0.0
 10
-2.9108306605
 20
23.853988775
 30
0.0
 10
-2.893586212
 20
23.8268029233
 30
0.0
 10
-2.8720793439
 20
23.8020288588
 30
0.0
 10
-2.8467559823
 20
23.7801616637
 30
0.0
 10
-2.8181343891
 20
23.76163427
 30
0.0
 10
-2.7867958043
 20
23.7468122547
 30
0.0
 10
-2.7533706872
 20
23.7359874758
 30
0.0
 10
-2.7185382942
 20
23.7293730223
 30
0.0
 10
-2.6948435449
 20
23.7278581154
 30
0.0
 10
-2.6829794573
 20
23.7278312164
 30
0.0
 11
-2.9329760304
 21
23.9443375673
 31
0.0
 11
-2.930346897
 21
23.9135764002
 31
0.0
 11
-2.9226988191
 21
23.8834393596
 31
0.0
 11
-2.9101869717
 21
23.854537909
 31
0.0
 11
-2.8930652133
 21
23.8274584424
 31
0.0
 11
-2.8716809344
 21
23.8027503867
 31
0.0
 11
-2.8464680099
 21
23.7809150543
 31
0.0
 11
-2.8179379958
 21
23.7623954716
 31
0.0
 11
-2.7866697497
 21
23.7475673906
 31
0.0
 11
-2.7532976866
 21
23.7367316644
 31
0.0
 11
-2.7184989066
 21
23.7301081438
 31
0.0
 11
-2.6829794573
 21
23.7278312164
 31
0.0
  0
SPLINE
  5
6F8
100
AcDbEntity
  8
PORTATASTO
100
AcDbSpline
 62
253
  6
CONTINUOUS
 70
0
 71
3
 72
18
 73
14
 74
12
 42
0.0000001
 43
0.0000001
 44
0.0000000001
 12
0.3662499093
 22
0.0008303874
 32
0.0
 13
0.0011071506
 23
0.3662491772
 33
0.0
 40
0.0
 40
0.0
 40
0.0
 40
0.0
 40
0.0971872096
 40
0.1939133523
 40
0.2897218612
 40
0.3842163772
 40
0.4770935418
 40
0.5681682897
 40
0.6573939174
 40
0.7448759241
 40
0.8308652934
 40
0.915759618
 40
1.0
 40
1.0
 40
1.0
 40
1.0
 10
-0.9420205427
 20
23.7278312164
 30
0.0
 10
-0.9301556071
 20
23.7278581174
 30
0.0
 10
-0.906459169
 20
23.7293732367
 30
0.0
 10
-0.8716242724
 20
23.7359886464
 30
0.0
 10
-0.8381968445
 20
23.7468150334
 30
0.0
 10
-0.8068563178
 20
23.7616392955
 30
0.0
 10
-0.7782334137
 20
23.7801694443
 30
0.0
 10
-0.752909548
 20
23.8020397445
 30
0.0
 10
-0.731403056
 20
23.8268171064
 30
0.0
 10
-0.714160234
 20
23.854005759
 30
0.0
 10
-0.7015441582
 20
23.8830604284
 30
0.0
 10
-0.6938269916
 20
23.9133703205
 30
0.0
 10
-0.6920550586
 20
23.9340532438
 30
0.0
 10
-0.6920239696
 20
23.9443375673
 30
0.0
 11
-0.9420205427
 21
23.7278312164
 31
0.0
 11
-0.9064985647
 21
23.7301084639
 31
0.0
 11
-0.8716974106
 21
23.7367329201
 31
0.0
 11
-0.8383229334
 21
23.7475702957
 31
0.0
 11
-0.8070527672
 21
23.7624006231
 31
0.0
 11
-0.7785214729
 21
23.780922952
 31
0.0
 11
-0.7533080261
 21
23.8027614143
 31
0.0
 11
-0.7319242019
 21
23.8274726794
 31
0.0
 11
-0.714803758
 21
23.8545554235
 31
0.0
 11
-0.7022947174
 21
23.8834582912
 31
0.0
 11
-0.6946497303
 21
23.9135963917
 31
0.0
 11
-0.6920239696
 21
23.9443375673
 31
0.0
  0
SPLINE
  5
6F9
100
AcDbEntity
  8
PORTATASTO
100
AcDbSpline
 62
253
  6
CONTINUOUS
 70
0
 71
3
 72
18
 73
14
 74
12
 42
0.0000001
 43
0.0000001
 44
0.0000000001
 12
-0.0011071506
 22
0.3662491663
 32
0.0
 13
-0.3662498983
 23
0.0008303874
 33
0.0
 40
0.0
 40
0.0
 40
0.0
 40
0.0
 40
0.0842955547
 40
0.169189152
 40
0.2551780173
 40
0.3426543807
 40
0.4318741974
 40
0.5229422751
 40
0.6158124279
 40
0.7102995819
 40
0.8061004335
 40
0.9028197334
 40
1.0
 40
1.0
 40
1.0
 40
1.0
 10
-0.6920239696
 20
-23.9443375673
 30
0.0
 10
-0.6920550789
 20
-23.9340465084
 30
0.0
 10
-0.693828722
 20
-23.9133568659
 30
0.0
 10
-0.7015507032
 20
-23.8830414104
 30
0.0
 10
-0.7141693395
 20
-23.853988775
 30
0.0
 10
-0.731413788
 20
-23.8268029233
 30
0.0
 10
-0.7529206561
 20
-23.8020288588
 30
0.0
 10
-0.7782440177
 20
-23.7801616637
 30
0.0
 10
-0.8068656109
 20
-23.76163427
 30
0.0
 10
-0.8382041957
 20
-23.7468122547
 30
0.0
 10
-0.8716293128
 20
-23.7359874758
 30
0.0
 10
-0.9064617058
 20
-23.7293730223
 30
0.0
 10
-0.9301564551
 20
-23.7278581154
 30
0.0
 10
-0.9420205427
 20
-23.7278312164
 30
0.0
 11
-0.6920239696
 21
-23.9443375673
 31
0.0
 11
-0.694653103
 21
-23.9135764002
 31
0.0
 11
-0.7023011809
 21
-23.8834393596
 31
0.0
 11
-0.7148130283
 21
-23.854537909
 31
0.0
 11
-0.7319347867
 21
-23.8274584424
 31
0.0
 11
-0.7533190656
 21
-23.8027503867
 31
0.0
 11
-0.7785319901
 21
-23.7809150543
 31
0.0
 11
-0.8070620042
 21
-23.7623954716
 31
0.0
 11
-0.8383302503
 21
-23.7475673906
 31
0.0
 11
-0.8717023134
 21
-23.7367316644
 31
0.0
 11
-0.9065010934
 21
-23.7301081438
 31
0.0
 11
-0.9420205427
 21
-23.7278312164
 31
0.0
  0
SPLINE
  5
6FA
100
AcDbEntity
  8
PORTATASTO
100
AcDbSpline
 62
253
  6
CONTINUOUS
 70
0
 71
3
 72
18
 73
14
 74
12
 42
0.0000001
 43
0.0000001
 44
0.0000000001
 12
-0.3662499093
 22
-0.0008303874
 32
0.0
 13
-0.0011071506
 23
-0.3662491772
 33
0.0
 40
0.0
 40
0.0
 40
0.0
 40
0.0
 40
0.0971872096
 40
0.1939133523
 40
0.2897218612
 40
0.3842163772
 40
0.4770935418
 40
0.5681682897
 40
0.6573939174
 40
0.7448759241
 40
0.8308652934
 40
0.915759618
 40
1.0
 40
1.0
 40
1.0
 40
1.0
 10
-2.6829794573
 20
-23.7278312164
 30
0.0
 10
-2.6948443929
 20
-23.7278581174
 30
0.0
 10
-2.718540831
 20
-23.7293732367
 30
0.0
 10
-2.7533757276
 20
-23.7359886464
 30
0.0
 10
-2.7868031555
 20
-23.7468150334
 30
0.0
 10
-2.8181436822
 20
-23.7616392955
 30
0.0
 10
-2.8467665863
 20
-23.7801694443
 30
0.0
 10
-2.872090452
 20
-23.8020397445
 30
0.0
 10
-2.893596944
 20
-23.8268171064
 30
0.0
 10
-2.910839766
 20
-23.854005759
 30
0.0
 10
-2.9234558418
 20
-23.8830604284
 30
0.0
 10
-2.9311730084
 20
-23.9133703205
 30
0.0
 10
-2.9329449414
 20
-23.9340532438
 30
0.0
 10
-2.9329760304
 20
-23.9443375673
 30
0.0
 11
-2.6829794573
 21
-23.7278312164
 31
0.0
 11
-2.7185014353
 21
-23.7301084639
 31
0.0
 11
-2.7533025894
 21
-23.7367329201
 31
0.0
 11
-2.7866770666
 21
-23.7475702957
 31
0.0
 11
-2.8179472328
 21
-23.7624006231
 31
0.0
 11
-2.8464785271
 21
-23.780922952
 31
0.0
 11
-2.8716919739
 21
-23.8027614143
 31
0.0
 11
-2.8930757981
 21
-23.8274726794
 31
0.0
 11
-2.910196242
 21
-23.8545554235
 31
0.0
 11
-2.9227052826
 21
-23.8834582912
 31
0.0
 11
-2.9303502697
 21
-23.9135963917
 31
0.0
 11
-2.9329760304
 21
-23.9443375673
 31
0.0
  0
SPLINE
  5
6FB
100
AcDbEntity
  8
PORTATASTO
100
AcDbSpline
 62
253
  6
CONTINUOUS
 70
0
 71
3
 72
18
 73
14
 74
12
 42
0.0000001
 43
0.0000001
 44
0.0000000001
 12
-0.0011071506
 22
-0.3662491668
 32
0.0
 13
-0.3662498989
 23
-0.0008303865
 33
0.0
 40
0.0
 40
0.0
 40
0.0
 40
0.0
 40
0.0842956646
 40
0.1691893741
 40
0.2551783555
 40
0.34265483
 40
0.4318747249
 40
0.5229428283
 40
0.6158129532
 40
0.7103000283
 40
0.8061007574
 40
0.9028199028
 40
1.0
 40
1.0
 40
1.0
 40
1.0
 10
2.9369030571
 20
23.5113248654
 30
0.0
 10
2.9368719477
 20
23.5010337931
 30
0.0
 10
2.9350983
 20
23.4803441232
 30
0.0
 10
2.9273762989
 20
23.4500286297
 30
0.0
 10
2.9147576307
 20
23.4209759624
 30
0.0
 10
2.8975131432
 20
23.3937900907
 30
0.0
 10
2.8760062378
 20
23.3690160235
 30
0.0
 10
2.8506828508
 20
23.3471488435
 30
0.0
 10
2.8220612514
 20
23.3286214778
 30
0.0
 10
2.7907226821
 20
23.3137994957
 30
0.0
 10
2.7572976011
 20
23.3029747474
 30
0.0
 10
2.7224652599
 20
23.2963603152
 30
0.0
 10
2.6987705502
 20
23.2948454135
 30
0.0
 10
2.6869064833
 20
23.2948185145
 30
0.0
 11
2.9369030571
 21
23.5113248654
 31
0.0
 11
2.934273917
 21
23.4805636584
 31
0.0
 11
2.9266258194
 21
23.4504265804
 31
0.0
 11
2.9141139402
 21
23.4215250971
 31
0.0
 11
2.8969921414
 21
23.3944456079
 31
0.0
 11
2.8756078238
 21
23.3697375477
 31
0.0
 11
2.8503948739
 21
23.3479022302
 31
0.0
 11
2.8218648537
 21
23.3293826756
 31
0.0
 11
2.7905966236
 21
23.314554628
 31
0.0
 11
2.7572245976
 21
23.3037189329
 31
0.0
 11
2.722425871
 21
23.2970954341
 31
0.0
 11
2.6869064833
 21
23.2948185145
 31
0.0
  0
SPLINE
  5
6FC
100
AcDbEntity
  8
PORTATASTO
100
AcDbSpline
 62
253
  6
CONTINUOUS
 70
0
 71
3
 72
18
 73
14
 74
12
 42
0.0000001
 43
0.0000001
 44
0.0000000001
 12
-0.0011071506
 22
-0.3662491668
 32
0.0
 13
-0.3662498989
 23
-0.0008303865
 33
0.0
 40
0.0
 40
0.0
 40
0.0
 40
0.0
 40
0.0842956646
 40
0.1691893741
 40
0.2551783555
 40
0.34265483
 40
0.4318747249
 40
0.5229428283
 40
0.6158129532
 40
0.7103000283
 40
0.8061007574
 40
0.9028199028
 40
1.0
 40
1.0
 40
1.0
 40
1.0
 10
21.8119030571
 20
23.5113248654
 30
0.0
 10
21.8118719477
 20
23.5010337931
 30
0.0
 10
21.8100983
 20
23.4803441232
 30
0.0
 10
21.8023762989
 20
23.4500286297
 30
0.0
 10
21.7897576307
 20
23.4209759624
 30
0.0
 10
21.7725131432
 20
23.3937900907
 30
0.0
 10
21.7510062378
 20
23.3690160235
 30
0.0
 10
21.7256828508
 20
23.3471488435
 30
0.0
 10
21.6970612514
 20
23.3286214778
 30
0.0
 10
21.6657226821
 20
23.3137994957
 30
0.0
 10
21.6322976011
 20
23.3029747474
 30
0.0
 10
21.5974652599
 20
23.2963603152
 30
0.0
 10
21.5737705502
 20
23.2948454135
 30
0.0
 10
21.5619064833
 20
23.2948185145
 30
0.0
 11
21.8119030571
 21
23.5113248654
 31
0.0
 11
21.809273917
 21
23.4805636584
 31
0.0
 11
21.8016258194
 21
23.4504265804
 31
0.0
 11
21.7891139402
 21
23.4215250971
 31
0.0
 11
21.7719921414
 21
23.3944456079
 31
0.0
 11
21.7506078238
 21
23.3697375477
 31
0.0
 11
21.7253948739
 21
23.3479022302
 31
0.0
 11
21.6968648537
 21
23.3293826756
 31
0.0
 11
21.6655966236
 21
23.314554628
 31
0.0
 11
21.6322245976
 21
23.3037189329
 31
0.0
 11
21.597425871
 21
23.2970954341
 31
0.0
 11
21.5619064833
 21
23.2948185145
 31
0.0
  0
SPLINE
  5
6FD
100
AcDbEntity
  8
PORTATASTO
100
AcDbSpline
 62
253
  6
CONTINUOUS
 70
0
 71
3
 72
18
 73
14
 74
12
 42
0.0000001
 43
0.0000001
 44
0.0000000001
 12
0.0011071506
 22
0.3662491668
 32
0.0
 13
0.3662498989
 23
0.0008303865
 33
0.0
 40
0.0
 40
0.0
 40
0.0
 40
0.0
 40
0.0842956646
 40
0.1691893741
 40
0.2551783555
 40
0.34265483
 40
0.4318747249
 40
0.5229428283
 40
0.6158129532
 40
0.7103000283
 40
0.8061007574
 40
0.9028199028
 40
1.0
 40
1.0
 40
1.0
 40
1.0
 10
0.6880969429
 20
-23.5113248654
 30
0.0
 10
0.6881280523
 20
-23.5010337931
 30
0.0
 10
0.6899017
 20
-23.4803441232
 30
0.0
 10
0.6976237011
 20
-23.4500286297
 30
0.0
 10
0.7102423693
 20
-23.4209759624
 30
0.0
 10
0.7274868568
 20
-23.3937900907
 30
0.0
 10
0.7489937622
 20
-23.3690160235
 30
0.0
 10
0.7743171492
 20
-23.3471488435
 30
0.0
 10
0.8029387486
 20
-23.3286214778
 30
0.0
 10
0.8342773179
 20
-23.3137994957
 30
0.0
 10
0.8677023989
 20
-23.3029747474
 30
0.0
 10
0.9025347401
 20
-23.2963603152
 30
0.0
 10
0.9262294498
 20
-23.2948454135
 30
0.0
 10
0.9380935167
 20
-23.2948185145
 30
0.0
 11
0.6880969429
 21
-23.5113248654
 31
0.0
 11
0.690726083
 21
-23.4805636584
 31
0.0
 11
0.6983741806
 21
-23.4504265804
 31
0.0
 11
0.7108860598
 21
-23.4215250971
 31
0.0
 11
0.7280078586
 21
-23.3944456079
 31
0.0
 11
0.7493921762
 21
-23.3697375477
 31
0.0
 11
0.7746051261
 21
-23.3479022302
 31
0.0
 11
0.8031351463
 21
-23.3293826756
 31
0.0
 11
0.8344033764
 21
-23.314554628
 31
0.0
 11
0.8677754024
 21
-23.3037189329
 31
0.0
 11
0.902574129
 21
-23.2970954341
 31
0.0
 11
0.9380935167
 21
-23.2948185145
 31
0.0
  0
SPLINE
  5
6FE
100
AcDbEntity
  8
PORTATASTO
100
AcDbSpline
 62
253
  6
CONTINUOUS
 70
0
 71
3
 72
18
 73
14
 74
12
 42
0.0000001
 43
0.0000001
 44
0.0000000001
 12
0.0011071506
 22
0.3662491668
 32
0.0
 13
0.3662498989
 23
0.0008303865
 33
0.0
 40
0.0
 40
0.0
 40
0.0
 40
0.0
 40
0.0842956646
 40
0.1691893741
 40
0.2551783555
 40
0.34265483
 40
0.4318747249
 40
0.5229428283
 40
0.6158129532
 40
0.7103000283
 40
0.8061007574
 40
0.9028199028
 40
1.0
 40
1.0
 40
1.0
 40
1.0
 10
19.5630969429
 20
-23.5113248654
 30
0.0
 10
19.5631280523
 20
-23.5010337931
 30
0.0
 10
19.5649017
 20
-23.4803441232
 30
0.0
 10
19.5726237011
 20
-23.4500286297
 30
0.0
 10
19.5852423693
 20
-23.4209759624
 30
0.0
 10
19.6024868568
 20
-23.3937900907
 30
0.0
 10
19.6239937622
 20
-23.3690160235
 30
0.0
 10
19.6493171492
 20
-23.3471488435
 30
0.0
 10
19.6779387486
 20
-23.3286214778
 30
0.0
 10
19.7092773179
 20
-23.3137994957
 30
0.0
 10
19.7427023989
 20
-23.3029747474
 30
0.0
 10
19.7775347401
 20
-23.2963603152
 30
0.0
 10
19.8012294498
 20
-23.2948454135
 30
0.0
 10
19.8130935167
 20
-23.2948185145
 30
0.0
 11
19.5630969429
 21
-23.5113248654
 31
0.0
 11
19.565726083
 21
-23.4805636584
 31
0.0
 11
19.5733741806
 21
-23.4504265804
 31
0.0
 11
19.5858860598
 21
-23.4215250971
 31
0.0
 11
19.6030078586
 21
-23.3944456079
 31
0.0
 11
19.6243921762
 21
-23.3697375477
 31
0.0
 11
19.6496051261
 21
-23.3479022302
 31
0.0
 11
19.6781351463
 21
-23.3293826756
 31
0.0
 11
19.7094033764
 21
-23.314554628
 31
0.0
 11
19.7427754024
 21
-23.3037189329
 31
0.0
 11
19.777574129
 21
-23.2970954341
 31
0.0
 11
19.8130935167
 21
-23.2948185145
 31
0.0
  0
SPLINE
  5
6FF
100
AcDbEntity
  8
PORTATASTO
100
AcDbSpline
 62
253
  6
CONTINUOUS
 70
0
 71
3
 72
18
 73
14
 74
12
 42
0.0000001
 43
0.0000001
 44
0.0000000001
 12
0.3662498989
 22
-0.0008303865
 32
0.0
 13
0.0011071506
 23
-0.3662491668
 33
0.0
 40
0.0
 40
0.0
 40
0.0
 40
0.0
 40
0.097180097
 40
0.1938992423
 40
0.2896999712
 40
0.3841870463
 40
0.4770571712
 40
0.5681252747
 40
0.6573451698
 40
0.7448216444
 40
0.8308106258
 40
0.9157043353
 40
1.0
 40
1.0
 40
1.0
 40
1.0
 10
2.6869064833
 20
-23.2948185145
 30
0.0
 10
2.6987705502
 20
-23.2948454135
 30
0.0
 10
2.7224652598
 20
-23.2963603152
 30
0.0
 10
2.757297601
 20
-23.3029747473
 30
0.0
 10
2.7907226819
 20
-23.3137994956
 30
0.0
 10
2.8220612512
 20
-23.3286214778
 30
0.0
 10
2.8506828506
 20
-23.3471488434
 30
0.0
 10
2.8760062377
 20
-23.3690160234
 30
0.0
 10
2.8975131432
 20
-23.3937900907
 30
0.0
 10
2.9147576307
 20
-23.4209759623
 30
0.0
 10
2.9273762989
 20
-23.4500286297
 30
0.0
 10
2.9350983
 20
-23.4803441232
 30
0.0
 10
2.9368719477
 20
-23.5010337931
 30
0.0
 10
2.9369030571
 20
-23.5113248654
 30
0.0
 11
2.6869064833
 21
-23.2948185145
 31
0.0
 11
2.7224258709
 21
-23.2970954341
 31
0.0
 11
2.7572245975
 21
-23.3037189329
 31
0.0
 11
2.7905966235
 21
-23.314554628
 31
0.0
 11
2.8218648535
 21
-23.3293826755
 31
0.0
 11
2.8503948737
 21
-23.3479022301
 31
0.0
 11
2.8756078237
 21
-23.3697375476
 31
0.0
 11
2.8969921413
 21
-23.3944456078
 31
0.0
 11
2.9141139402
 21
-23.4215250971
 31
0.0
 11
2.9266258194
 21
-23.4504265804
 31
0.0
 11
2.934273917
 21
-23.4805636584
 31
0.0
 11
2.9369030571
 21
-23.5113248654
 31
0.0
  0
SPLINE
  5
700
100
AcDbEntity
  8
PORTATASTO
100
AcDbSpline
 62
253
  6
CONTINUOUS
 70
0
 71
3
 72
16
 73
12
 74
10
 42
0.0000001
 43
0.0000001
 44
0.0000000001
 12
0.0000000128
 22
-0.2165111267
 32
0.0
 13
-0.0039285624
 23
-0.2164754822
 33
0.0
 40
0.0
 40
0.0
 40
0.0
 40
0.0
 40
0.1330410941
 40
0.2653721429
 40
0.3946348552
 40
0.5181515314
 40
0.6343729951
 40
0.7422936446
 40
0.8403820716
 40
0.9267810823
 40
1.0
 40
1.0
 40
1.0
 40
1.0
 10
2.688215492
 20
-23.0783135804
 30
0.0
 10
2.6882154926
 20
-23.0879152062
 30
0.0
 10
2.6882039759
 20
-23.1070672154
 30
0.0
 10
2.6881520003
 20
-23.1355481208
 30
0.0
 10
2.6880656779
 20
-23.1633415599
 30
0.0
 10
2.6879463885
 20
-23.1899722318
 30
0.0
 10
2.6877960768
 20
-23.2150624579
 30
0.0
 10
2.6876166544
 20
-23.2383172777
 30
0.0
 10
2.6874106807
 20
-23.2594194936
 30
0.0
 10
2.6871818515
 20
-23.2780168704
 30
0.0
 10
2.6870023649
 20
-23.2895351958
 30
0.0
 10
2.6869064832
 20
-23.2948185626
 30
0.0
 11
2.688215492
 21
-23.0783135804
 31
0.0
 11
2.6881980551
 21
-23.1071184523
 31
0.0
 11
2.6881454079
 21
-23.1357695484
 31
0.0
 11
2.6880578376
 21
-23.1637562269
 31
0.0
 11
2.6879370887
 21
-23.190498689
 31
0.0
 11
2.6877849876
 21
-23.2156614694
 31
0.0
 11
2.6876028355
 21
-23.2390267808
 31
0.0
 11
2.6873928747
 21
-23.2602629787
 31
0.0
 11
2.6871590865
 21
-23.2789678649
 31
0.0
 11
2.6869064832
 21
-23.2948185626
 31
0.0
  0
SPLINE
  5
701
100
AcDbEntity
  8
PORTATASTO
100
AcDbSpline
 62
253
  6
CONTINUOUS
 70
0
 71
3
 72
16
 73
12
 74
10
 42
0.0000001
 43
0.0000001
 44
0.0000000001
 12
-0.0039285617
 22
0.2164754792
 32
0.0
 13
0.0000000128
 23
0.2165111237
 33
0.0
 40
0.0
 40
0.0
 40
0.0
 40
0.0
 40
0.0732188971
 40
0.1596179091
 40
0.2577063374
 40
0.3656269884
 40
0.4818484537
 40
0.6053651317
 40
0.7346278457
 40
0.8669588964
 40
1.0
 40
1.0
 40
1.0
 40
1.0
 10
0.9380935168
 20
-23.294818558
 30
0.0
 10
0.9379976351
 20
-23.2895351927
 30
0.0
 10
0.9378181485
 20
-23.2780168689
 30
0.0
 10
0.9375893193
 20
-23.2594194936
 30
0.0
 10
0.9373833456
 20
-23.2383172777
 30
0.0
 10
0.9372039232
 20
-23.2150624579
 30
0.0
 10
0.9370536115
 20
-23.1899722318
 30
0.0
 10
0.9369343221
 20
-23.1633415599
 30
0.0
 10
0.9368479997
 20
-23.1355481208
 30
0.0
 10
0.9367960241
 20
-23.1070672149
 30
0.0
 10
0.9367845074
 20
-23.087915205
 30
0.0
 10
0.936784508
 20
-23.0783135788
 30
0.0
 11
0.9380935168
 21
-23.294818558
 31
0.0
 11
0.9378409135
 21
-23.2789678649
 31
0.0
 11
0.9376071253
 21
-23.2602629787
 31
0.0
 11
0.9373971645
 21
-23.2390267808
 31
0.0
 11
0.9372150124
 21
-23.2156614694
 31
0.0
 11
0.9370629113
 21
-23.190498689
 31
0.0
 11
0.9369421624
 21
-23.1637562269
 31
0.0
 11
0.9368545921
 21
-23.1357695484
 31
0.0
 11
0.9368019449
 21
-23.1071184523
 31
0.0
 11
0.936784508
 21
-23.0783135788
 31
0.0
  0
SPLINE
  5
702
100
AcDbEntity
  8
PORTATASTO
100
AcDbSpline
 62
253
  6
CONTINUOUS
 70
0
 71
3
 72
18
 73
14
 74
12
 42
0.0000001
 43
0.0000001
 44
0.0000000001
 12
-0.3662498989
 22
0.0008303865
 32
0.0
 13
-0.0011071506
 23
0.3662491668
 33
0.0
 40
0.0
 40
0.0
 40
0.0
 40
0.0
 40
0.097180097
 40
0.1938992423
 40
0.2896999712
 40
0.3841870463
 40
0.4770571712
 40
0.5681252747
 40
0.6573451698
 40
0.7448216444
 40
0.8308106258
 40
0.9157043353
 40
1.0
 40
1.0
 40
1.0
 40
1.0
 10
0.9380935167
 20
23.2948185145
 30
0.0
 10
0.9262294498
 20
23.2948454135
 30
0.0
 10
0.9025347402
 20
23.2963603152
 30
0.0
 10
0.867702399
 20
23.3029747473
 30
0.0
 10
0.8342773181
 20
23.3137994956
 30
0.0
 10
0.8029387488
 20
23.3286214778
 30
0.0
 10
0.7743171494
 20
23.3471488434
 30
0.0
 10
0.7489937623
 20
23.3690160234
 30
0.0
 10
0.7274868568
 20
23.3937900907
 30
0.0
 10
0.7102423693
 20
23.4209759623
 30
0.0
 10
0.6976237011
 20
23.4500286297
 30
0.0
 10
0.6899017
 20
23.4803441232
 30
0.0
 10
0.6881280523
 20
23.5010337931
 30
0.0
 10
0.6880969429
 20
23.5113248654
 30
0.0
 11
0.9380935167
 21
23.2948185145
 31
0.0
 11
0.9025741291
 21
23.2970954341
 31
0.0
 11
0.8677754025
 21
23.3037189329
 31
0.0
 11
0.8344033765
 21
23.314554628
 31
0.0
 11
0.8031351465
 21
23.3293826755
 31
0.0
 11
0.7746051263
 21
23.3479022301
 31
0.0
 11
0.7493921763
 21
23.3697375476
 31
0.0
 11
0.7280078587
 21
23.3944456078
 31
0.0
 11
0.7108860598
 21
23.4215250971
 31
0.0
 11
0.6983741806
 21
23.4504265804
 31
0.0
 11
0.690726083
 21
23.4805636584
 31
0.0
 11
0.6880969429
 21
23.5113248654
 31
0.0
  0
SPLINE
  5
703
100
AcDbEntity
  8
PORTATASTO
100
AcDbSpline
 62
253
  6
CONTINUOUS
 70
0
 71
3
 72
16
 73
12
 74
10
 42
0.0000001
 43
0.0000001
 44
0.0000000001
 12
-0.0000000128
 22
0.2165111267
 32
0.0
 13
0.0039285624
 23
0.2164754822
 33
0.0
 40
0.0
 40
0.0
 40
0.0
 40
0.0
 40
0.1330410941
 40
0.2653721429
 40
0.3946348552
 40
0.5181515314
 40
0.6343729951
 40
0.7422936446
 40
0.8403820716
 40
0.9267810823
 40
1.0
 40
1.0
 40
1.0
 40
1.0
 10
0.936784508
 20
23.0783135804
 30
0.0
 10
0.9367845074
 20
23.0879152062
 30
0.0
 10
0.9367960241
 20
23.1070672154
 30
0.0
 10
0.9368479997
 20
23.1355481208
 30
0.0
 10
0.9369343221
 20
23.1633415599
 30
0.0
 10
0.9370536115
 20
23.1899722318
 30
0.0
 10
0.9372039232
 20
23.2150624579
 30
0.0
 10
0.9373833456
 20
23.2383172777
 30
0.0
 10
0.9375893193
 20
23.2594194936
 30
0.0
 10
0.9378181485
 20
23.2780168704
 30
0.0
 10
0.9379976351
 20
23.2895351958
 30
0.0
 10
0.9380935168
 20
23.2948185626
 30
0.0
 11
0.936784508
 21
23.0783135804
 31
0.0
 11
0.9368019449
 21
23.1071184523
 31
0.0
 11
0.9368545921
 21
23.1357695484
 31
0.0
 11
0.9369421624
 21
23.1637562269
 31
0.0
 11
0.9370629113
 21
23.190498689
 31
0.0
 11
0.9372150124
 21
23.2156614694
 31
0.0
 11
0.9373971645
 21
23.2390267808
 31
0.0
 11
0.9376071253
 21
23.2602629787
 31
0.0
 11
0.9378409135
 21
23.2789678649
 31
0.0
 11
0.9380935168
 21
23.2948185626
 31
0.0
  0
SPLINE
  5
704
100
AcDbEntity
  8
PORTATASTO
100
AcDbSpline
 62
253
  6
CONTINUOUS
 70
0
 71
3
 72
16
 73
12
 74
10
 42
0.0000001
 43
0.0000001
 44
0.0000000001
 12
0.0039285617
 22
-0.2164754792
 32
0.0
 13
-0.0000000128
 23
-0.2165111237
 33
0.0
 40
0.0
 40
0.0
 40
0.0
 40
0.0
 40
0.0732188971
 40
0.1596179091
 40
0.2577063374
 40
0.3656269884
 40
0.4818484537
 40
0.6053651317
 40
0.7346278457
 40
0.8669588964
 40
1.0
 40
1.0
 40
1.0
 40
1.0
 10
2.6869064832
 20
23.294818558
 30
0.0
 10
2.6870023649
 20
23.2895351927
 30
0.0
 10
2.6871818515
 20
23.2780168689
 30
0.0
 10
2.6874106807
 20
23.2594194936
 30
0.0
 10
2.6876166544
 20
23.2383172777
 30
0.0
 10
2.6877960768
 20
23.2150624579
 30
0.0
 10
2.6879463885
 20
23.1899722318
 30
0.0
 10
2.6880656779
 20
23.1633415599
 30
0.0
 10
2.6881520003
 20
23.1355481208
 30
0.0
 10
2.6882039759
 20
23.1070672149
 30
0.0
 10
2.6882154926
 20
23.087915205
 30
0.0
 10
2.688215492
 20
23.0783135788
 30
0.0
 11
2.6869064832
 21
23.294818558
 31
0.0
 11
2.6871590865
 21
23.2789678649
 31
0.0
 11
2.6873928747
 21
23.2602629787
 31
0.0
 11
2.6876028355
 21
23.2390267808
 31
0.0
 11
2.6877849876
 21
23.2156614694
 31
0.0
 11
2.6879370887
 21
23.190498689
 31
0.0
 11
2.6880578376
 21
23.1637562269
 31
0.0
 11
2.6881454079
 21
23.1357695484
 31
0.0
 11
2.6881980551
 21
23.1071184523
 31
0.0
 11
2.688215492
 21
23.0783135788
 31
0.0
  0
SPLINE
  5
705
100
AcDbEntity
  8
PORTATASTO
100
AcDbSpline
 62
253
  6
CONTINUOUS
 70
0
 71
3
 72
18
 73
14
 74
12
 42
0.0000001
 43
0.0000001
 44
0.0000000001
 12
-0.3662498989
 22
0.0008303865
 32
0.0
 13
-0.0011071506
 23
0.3662491668
 33
0.0
 40
0.0
 40
0.0
 40
0.0
 40
0.0
 40
0.097180097
 40
0.1938992423
 40
0.2896999712
 40
0.3841870463
 40
0.4770571712
 40
0.5681252747
 40
0.6573451698
 40
0.7448216444
 40
0.8308106258
 40
0.9157043353
 40
1.0
 40
1.0
 40
1.0
 40
1.0
 10
19.8130935167
 20
23.2948185145
 30
0.0
 10
19.8012294498
 20
23.2948454135
 30
0.0
 10
19.7775347402
 20
23.2963603152
 30
0.0
 10
19.742702399
 20
23.3029747473
 30
0.0
 10
19.7092773181
 20
23.3137994956
 30
0.0
 10
19.6779387488
 20
23.3286214778
 30
0.0
 10
19.6493171494
 20
23.3471488434
 30
0.0
 10
19.6239937623
 20
23.3690160234
 30
0.0
 10
19.6024868568
 20
23.3937900907
 30
0.0
 10
19.5852423693
 20
23.4209759623
 30
0.0
 10
19.5726237011
 20
23.4500286297
 30
0.0
 10
19.5649017
 20
23.4803441232
 30
0.0
 10
19.5631280523
 20
23.5010337931
 30
0.0
 10
19.5630969429
 20
23.5113248654
 30
0.0
 11
19.8130935167
 21
23.2948185145
 31
0.0
 11
19.7775741291
 21
23.2970954341
 31
0.0
 11
19.7427754025
 21
23.3037189329
 31
0.0
 11
19.7094033765
 21
23.314554628
 31
0.0
 11
19.6781351465
 21
23.3293826755
 31
0.0
 11
19.6496051263
 21
23.3479022301
 31
0.0
 11
19.6243921763
 21
23.3697375476
 31
0.0
 11
19.6030078587
 21
23.3944456078
 31
0.0
 11
19.5858860598
 21
23.4215250971
 31
0.0
 11
19.5733741806
 21
23.4504265804
 31
0.0
 11
19.565726083
 21
23.4805636584
 31
0.0
 11
19.5630969429
 21
23.5113248654
 31
0.0
  0
SPLINE
  5
706
100
AcDbEntity
  8
PORTATASTO
100
AcDbSpline
 62
253
  6
CONTINUOUS
 70
0
 71
3
 72
16
 73
12
 74
10
 42
0.0000001
 43
0.0000001
 44
0.0000000001
 12
-0.0000000128
 22
0.2165111267
 32
0.0
 13
0.0039285624
 23
0.2164754822
 33
0.0
 40
0.0
 40
0.0
 40
0.0
 40
0.0
 40
0.1330410941
 40
0.2653721429
 40
0.3946348552
 40
0.5181515314
 40
0.6343729951
 40
0.7422936446
 40
0.8403820716
 40
0.9267810823
 40
1.0
 40
1.0
 40
1.0
 40
1.0
 10
19.811784508
 20
23.0783135804
 30
0.0
 10
19.8117845074
 20
23.0879152062
 30
0.0
 10
19.8117960241
 20
23.1070672154
 30
0.0
 10
19.8118479997
 20
23.1355481208
 30
0.0
 10
19.8119343221
 20
23.1633415599
 30
0.0
 10
19.8120536115
 20
23.1899722318
 30
0.0
 10
19.8122039232
 20
23.2150624579
 30
0.0
 10
19.8123833456
 20
23.2383172777
 30
0.0
 10
19.8125893193
 20
23.2594194936
 30
0.0
 10
19.8128181485
 20
23.2780168704
 30
0.0
 10
19.8129976351
 20
23.2895351958
 30
0.0
 10
19.8130935168
 20
23.2948185626
 30
0.0
 11
19.811784508
 21
23.0783135804
 31
0.0
 11
19.8118019449
 21
23.1071184523
 31
0.0
 11
19.8118545921
 21
23.1357695484
 31
0.0
 11
19.8119421624
 21
23.1637562269
 31
0.0
 11
19.8120629113
 21
23.190498689
 31
0.0
 11
19.8122150124
 21
23.2156614694
 31
0.0
 11
19.8123971645
 21
23.2390267808
 31
0.0
 11
19.8126071253
 21
23.2602629787
 31
0.0
 11
19.8128409135
 21
23.2789678649
 31
0.0
 11
19.8130935168
 21
23.2948185626
 31
0.0
  0
SPLINE
  5
707
100
AcDbEntity
  8
RACCORDO
100
AcDbSpline
 62
253
  6
CONTINUOUS
 70
0
 71
3
 72
12
 73
8
 74
6
 42
0.0000001
 43
0.0000001
 44
0.0000000001
 12
0.0086816816
 22
1.9999847375
 32
0.0
 13
-1.9972602542
 23
0.1047177094
 33
0.0
 40
0.0
 40
0.0
 40
0.0
 40
0.0
 40
0.3086093926
 40
0.5875728636
 40
0.809003923
 40
0.9510767102
 40
1.0
 40
1.0
 40
1.0
 40
1.0
 10
-34.0851318838
 20
17.0674431307
 30
0.0
 10
-34.0842388009
 20
17.2731811557
 30
0.0
 10
-34.0796362401
 20
17.668501179
 30
0.0
 10
-34.0927090743
 20
18.1939005725
 30
0.0
 10
-34.0605324949
 20
18.6579245798
 30
0.0
 10
-34.1276709265
 20
18.8647022183
 30
0.0
 10
-34.0612879043
 20
19.0655831374
 30
0.0
 10
-34.0938587518
 20
19.067290849
 30
0.0
 11
-34.0851318838
 21
17.0674431307
 31
0.0
 11
-34.083292941
 21
17.6846602813
 31
0.0
 11
-34.0833368926
 21
18.2425882204
 31
0.0
 11
-34.0852714607
 21
18.6854469066
 31
0.0
 11
-34.0889001624
 21
18.9695698184
 31
0.0
 11
-34.0938587518
 21
19.067290849
 31
0.0
  0
SPLINE
  5
708
100
AcDbEntity
  8
RACCORDO
100
AcDbSpline
 62
253
  6
CONTINUOUS
 70
0
 71
3
 72
12
 73
8
 74
6
 42
0.0000001
 43
0.0000001
 44
0.0000000001
 12
1.9916308343
 22
-0.1777158374
 32
0.0
 13
-0.0218177039
 23
-1.999424989
 33
0.0
 40
0.0
 40
0.0
 40
0.0
 40
0.0
 40
0.0489623091
 40
0.1911229051
 40
0.4125207735
 40
0.6914770343
 40
1.0
 40
1.0
 40
1.0
 40
1.0
 10
-40.7311412136
 20
19.1831450453
 30
0.0
 10
-40.6986362655
 20
19.1802445861
 30
0.0
 10
-40.7723588036
 20
18.9818558179
 30
0.0
 10
-40.7046980507
 20
18.7726551608
 30
0.0
 10
-40.7436261573
 20
18.3099910478
 30
0.0
 10
-40.7343423158
 20
17.7843186893
 30
0.0
 10
-40.7419837739
 20
17.3893009199
 30
0.0
 10
-40.7442275282
 20
17.1836780775
 30
0.0
 11
-40.7311412136
 21
19.1831450453
 31
0.0
 11
-40.7295134016
 21
19.0852562866
 31
0.0
 11
-40.7301798031
 21
18.8010006977
 31
0.0
 11
-40.7330790829
 21
18.3583154072
 31
0.0
 11
-40.7379248639
 21
17.8005511327
 31
0.0
 11
-40.7442275282
 21
17.1836780775
 31
0.0
  0
SPLINE
  5
709
100
AcDbEntity
  8
ASSI
100
AcDbSpline
 62
253
  6
CONTINUOUS
 70
0
 71
3
 72
14
 73
10
 74
8
 42
0.0000001
 43
0.0000001
 44
0.0000000001
 12
-0.0261421157
 22
-0.499163347
 32
0.0
 13
0.4991624104
 23
-0.0261599934
 33
0.0
 40
0.0
 40
0.0
 40
0.0
 40
0.0
 40
0.2223615075
 40
0.4335340489
 40
0.6229549651
 40
0.7811541878
 40
0.9002355169
 40
0.9742974958
 40
1.0
 40
1.0
 40
1.0
 40
1.0
 10
-74.2539073947
 20
-21.3300661228
 30
0.0
 10
-74.2558450615
 20
-21.367064361
 30
0.0
 10
-74.2594508462
 20
-21.4392629317
 30
0.0
 10
-74.2638115702
 20
-21.5427400432
 30
0.0
 10
-74.2676549684
 20
-21.6364628345
 30
0.0
 10
-74.2685102779
 20
-21.7122719206
 30
0.0
 10
-74.2724148101
 20
-21.7754771391
 30
0.0
 10
-74.2663322354
 20
-21.8033561709
 30
0.0
 10
-74.2712634733
 20
-21.8291567644
 30
0.0
 10
-74.2669868987
 20
-21.8293808902
 30
0.0
 11
-74.2539073947
 21
-21.3300661228
 31
0.0
 11
-74.2593936884
 21
-21.4410774653
 31
0.0
 11
-74.2639502494
 21
-21.5465331235
 31
0.0
 11
-74.2673489448
 21
-21.6411536629
 31
0.0
 11
-74.2694196151
 21
-21.7202020224
 31
0.0
 11
-74.2700586058
 21
-21.7797210892
 31
0.0
 11
-74.2692339376
 21
-21.8167315929
 31
0.0
 11
-74.2669868987
 21
-21.8293808902
 31
0.0
  0
SPLINE
  5
70A
100
AcDbEntity
  8
ASSI
100
AcDbSpline
 62
253
  6
CONTINUOUS
 70
0
 71
3
 72
14
 73
10
 74
8
 42
0.0000001
 43
0.0000001
 44
0.0000000001
 12
-0.0261420645
 22
0.499163349
 32
0.0
 13
0.4991624097
 23
0.0261599937
 33
0.0
 40
0.0
 40
0.0
 40
0.0
 40
0.0
 40
0.2223600107
 40
0.4335323712
 40
0.6229537909
 40
0.7811535411
 40
0.9002352122
 40
0.9742974112
 40
1.0
 40
1.0
 40
1.0
 40
1.0
 10
-74.2539073947
 20
21.3300661228
 30
0.0
 10
-74.2558450446
 20
21.3670641121
 30
0.0
 10
-74.2594508102
 20
21.4392624033
 30
0.0
 10
-74.2638115244
 20
21.5427393199
 30
0.0
 10
-74.2676549311
 20
21.6364622538
 30
0.0
 10
-74.2685102483
 20
21.712271562
 30
0.0
 10
-74.2724148016
 20
21.7754769762
 30
0.0
 10
-74.2663322161
 20
21.8033560896
 30
0.0
 10
-74.2712634788
 20
21.8291567642
 30
0.0
 10
-74.2669868901
 20
21.8293808907
 30
0.0
 11
-74.2539073947
 21
21.3300661228
 31
0.0
 11
-74.2593936439
 21
21.4410767183
 31
0.0
 11
-74.2639501995
 21
21.546532286
 31
0.0
 11
-74.2673489069
 21
21.6411530766
 31
0.0
 11
-74.2694195906
 21
21.7202016995
 31
0.0
 11
-74.2700585923
 21
21.7797209371
 31
0.0
 11
-74.269233932
 21
21.8167315509
 31
0.0
 11
-74.2669868901
 21
21.8293808907
 31
0.0
  0
SPLINE
  5
70B
100
AcDbEntity
  8
RACCORDO
100
AcDbSpline
 62
253
  6
CONTINUOUS
 70
0
 71
3
 72
11
 73
7
 74
5
 42
0.0000001
 43
0.0000001
 44
0.0000000001
 12
-0.0261371598
 22
-0.4990687118
 32
0.0
 13
0.4990677754
 23
-0.0261550338
 33
0.0
 40
0.0
 40
0.0
 40
0.0
 40
0.0
 40
0.382456936
 40
0.7066253562
 40
0.9233180439
 40
1.0
 40
1.0
 40
1.0
 40
1.0
 10
-74.2539073947
 20
-21.3300661228
 30
0.0
 10
-74.2572395074
 20
-21.3936902196
 30
0.0
 10
-74.2597711292
 20
-21.5076249984
 30
0.0
 10
-74.2761560183
 20
-21.6741820218
 30
0.0
 10
-74.2569043836
 20
-21.7516470728
 30
0.0
 10
-74.2797433964
 20
-21.8287123505
 30
0.0
 10
-74.2669868987
 20
-21.8293808902
 30
0.0
 11
-74.2539073947
 21
-21.3300661228
 31
0.0
 11
-74.2629117307
 21
-21.520987782
 31
0.0
 11
-74.2685584221
 21
-21.6828933769
 31
0.0
 11
-74.2699892928
 21
-21.7911766725
 31
0.0
 11
-74.2669868987
 21
-21.8293808902
 31
0.0
  0
SPLINE
  5
70C
100
AcDbEntity
  8
RACCORDO
100
AcDbSpline
 62
253
  6
CONTINUOUS
 70
0
 71
3
 72
11
 73
7
 74
5
 42
0.0000001
 43
0.0000001
 44
0.0000000001
 12
-0.0261371066
 22
0.4990687069
 32
0.0
 13
0.4990677677
 23
0.0261550337
 33
0.0
 40
0.0
 40
0.0
 40
0.0
 40
0.0
 40
0.3824386945
 40
0.7066073992
 40
0.923311513
 40
1.0
 40
1.0
 40
1.0
 40
1.0
 10
-74.2539073947
 20
21.3300661228
 30
0.0
 10
-74.2572393417
 20
21.3936871844
 30
0.0
 10
-74.259771025
 20
21.5076192453
 30
0.0
 10
-74.2761558367
 20
21.6741748418
 30
0.0
 10
-74.2569034399
 20
21.7516421117
 30
0.0
 10
-74.2797444741
 20
21.828712294
 30
0.0
 10
-74.2669868901
 20
21.8293808907
 30
0.0
 11
-74.2539073947
 21
21.3300661228
 31
0.0
 11
-74.2629113371
 21
21.5209786713
 31
0.0
 11
-74.2685581674
 21
21.6828844011
 31
0.0
 11
-74.2699893151
 21
21.7911734021
 31
0.0
 11
-74.2669868901
 21
21.8293808907
 31
0.0
  0
SPLINE
  5
70D
100
AcDbEntity
  8
PORTATASTO
100
AcDbSpline
 62
253
  6
CONTINUOUS
 70
0
 71
3
 72
18
 73
14
 74
12
 42
0.0000001
 43
0.0000001
 44
0.0000000001
 12
-0.2500020435
 22
0.0013090196
 32
0.0
 13
0.0013089837
 23
0.2500020437
 33
0.0
 40
0.0
 40
0.0
 40
0.0
 40
0.0
 40
0.0102052187
 40
0.0405407572
 40
0.0904038554
 40
0.1587816814
 40
0.2442830896
 40
0.3451679646
 40
0.459382884
 40
0.5846030002
 40
0.7182794006
 40
0.8576910118
 40
1.0
 40
1.0
 40
1.0
 40
1.0
 10
-68.8545756657
 20
-24.4829760304
 30
0.0
 10
-68.8554261075
 20
-24.4829715774
 30
0.0
 10
-68.8537700213
 20
-24.4775582909
 30
0.0
 10
-68.8555767127
 20
-24.4719729019
 30
0.0
 10
-68.8547255916
 20
-24.4585006542
 30
0.0
 10
-68.855200551
 20
-24.4419910153
 30
0.0
 10
-68.8550809607
 20
-24.4205842008
 30
0.0
 10
-68.8551310237
 20
-24.3955941238
 30
0.0
 10
-68.855074939
 20
-24.367213929
 30
0.0
 10
-68.8550051362
 20
-24.3361267612
 30
0.0
 10
-68.8548938652
 20
-24.3029320739
 30
0.0
 10
-68.8547520831
 20
-24.2683157115
 30
0.0
 10
-68.854637759
 20
-24.2448386366
 30
0.0
 10
-68.8545756657
 20
-24.2329794573
 30
0.0
 11
-68.8545756657
 21
-24.4829760304
 31
0.0
 11
-68.854748623
 21
-24.480430539
 31
0.0
 11
-68.8548914132
 21
-24.4728478328
 31
0.0
 11
-68.8550011295
 21
-24.4603822683
 31
0.0
 11
-68.8550755386
 21
-24.4432875996
 31
0.0
 11
-68.8551131257
 21
-24.4219118129
 31
0.0
 11
-68.8551131257
 21
-24.3966900423
 31
0.0
 11
-68.8550755386
 21
-24.3681357123
 31
0.0
 11
-68.8550011295
 21
-24.3368300867
 31
0.0
 11
-68.8548914132
 21
-24.3034104354
 31
0.0
 11
-68.854748623
 21
-24.2685570624
 31
0.0
 11
-68.8545756657
 21
-24.2329794573
 31
0.0
  0
SPLINE
  5
70E
100
AcDbEntity
  8
PORTATASTO
100
AcDbSpline
 62
253
  6
CONTINUOUS
 70
0
 71
3
 72
18
 73
14
 74
12
 42
0.0000001
 43
0.0000001
 44
0.0000000001
 12
-0.0013089837
 22
0.2500020476
 32
0.0
 13
0.2500020474
 23
0.0013090196
 33
0.0
 40
0.0
 40
0.0
 40
0.0
 40
0.0
 40
0.142328713
 40
0.2817593786
 40
0.4154522312
 40
0.5406850046
 40
0.6549076346
 40
0.755794562
 40
0.8412916087
 40
0.9096600112
 40
0.9595054517
 40
0.9898195612
 40
1.0
 40
1.0
 40
1.0
 40
1.0
 10
-68.8545756657
 20
24.2329794573
 30
0.0
 10
-68.8546377677
 20
24.2448402805
 30
0.0
 10
-68.8547521063
 20
24.2683205875
 30
0.0
 10
-68.8548939014
 20
24.3029415528
 30
0.0
 10
-68.855005177
 20
24.3361402557
 30
0.0
 10
-68.8550749699
 20
24.3672304878
 30
0.0
 10
-68.855131046
 20
24.3956125656
 30
0.0
 10
-68.8550809328
 20
24.4206030535
 30
0.0
 10
-68.8552005412
 20
24.4420089884
 30
0.0
 10
-68.8547254631
 20
24.4585158162
 30
0.0
 10
-68.8555764689
 20
24.4719841597
 30
0.0
 10
-68.8537708006
 20
24.4775650079
 30
0.0
 10
-68.8554240425
 20
24.4829715882
 30
0.0
 10
-68.8545756657
 20
24.4829760304
 30
0.0
 11
-68.8545756657
 21
24.2329794573
 31
0.0
 11
-68.8547486451
 21
24.2685619943
 31
0.0
 11
-68.854891449
 21
24.3034201314
 31
0.0
 11
-68.8550011688
 21
24.3368438964
 31
0.0
 11
-68.8550755703
 21
24.3681526869
 31
0.0
 11
-68.8551131389
 21
24.396708945
 31
0.0
 11
-68.85511311
 21
24.4219312292
 31
0.0
 11
-68.8550754852
 21
24.4433059258
 31
0.0
 11
-68.85500103
 21
24.4603982385
 31
0.0
 11
-68.8548912676
 21
24.4728593881
 31
0.0
 11
-68.8547484297
 21
24.4804367353
 31
0.0
 11
-68.8545756657
 21
24.4829760304
 31
0.0
  0
SPLINE
  5
70F
100
AcDbEntity
  8
PORTATASTO
100
AcDbSpline
 62
253
  6
CONTINUOUS
 70
0
 71
3
 72
14
 73
10
 74
8
 42
0.0000001
 43
0.0000001
 44
0.0000000001
 12
-0.0078441922
 22
-1.499509387
 32
0.0
 13
1.4978639158
 23
-0.0706655696
 33
0.0
 40
0.0
 40
0.0
 40
0.0
 40
0.0
 40
0.2225532816
 40
0.4339044446
 40
0.6234767879
 40
0.7817837558
 40
0.9009073549
 40
0.974879544
 40
1.0
 40
1.0
 40
1.0
 40
1.0
 10
-70.3111197592
 20
-18.4426993448
 30
0.0
 10
-70.3117016761
 20
-18.5539395898
 30
0.0
 10
-70.3128718591
 20
-18.77098914
 30
0.0
 10
-70.3132786981
 20
-19.0819297839
 30
0.0
 10
-70.3159217987
 20
-19.363616588
 30
0.0
 10
-70.3101253085
 20
-19.5909385775
 30
0.0
 10
-70.323891899
 20
-19.7814005798
 30
0.0
 10
-70.2970636201
 20
-19.8633213927
 30
0.0
 10
-70.3236621007
 20
-19.9415936152
 30
0.0
 10
-70.3111197592
 20
-19.9421853323
 30
0.0
 11
-70.3111197592
 21
-18.4426993448
 31
0.0
 11
-70.3126687099
 21
-18.7764210511
 31
0.0
 11
-70.3137467944
 21
-19.0933466066
 31
0.0
 11
-70.3142990838
 21
-19.3776154679
 31
0.0
 11
-70.3142990708
 21
-19.6150015003
 31
0.0
 11
-70.3137467314
 21
-19.7936300455
 31
0.0
 11
-70.3126686843
 21
-19.9045483162
 31
0.0
 11
-70.3111197592
 21
-19.9421853323
 31
0.0
  0
SPLINE
  5
710
100
AcDbEntity
  8
PORTATASTO
100
AcDbSpline
 62
253
  6
CONTINUOUS
 70
0
 71
3
 72
18
 73
14
 74
12
 42
0.0000001
 43
0.0000001
 44
0.0000000001
 12
-0.1246748135
 22
0.2159490317
 32
0.0
 13
0.2159475517
 23
0.1246773771
 33
0.0
 40
0.0
 40
0.0
 40
0.0
 40
0.0
 40
0.1424198037
 40
0.2818967973
 40
0.4156011363
 40
0.540820109
 40
0.6550131831
 40
0.7558635646
 40
0.8413252303
 40
0.9096645018
 40
0.9594954013
 40
0.9898085439
 40
1.0
 40
1.0
 40
1.0
 40
1.0
 10
-68.8545756657
 20
-23.9443375673
 30
0.0
 10
-68.8604943865
 20
-23.9340857611
 30
0.0
 10
-68.8722031796
 20
-23.9137901747
 30
0.0
 10
-68.8894450125
 20
-23.8838573534
 30
0.0
 10
-68.9059561839
 20
-23.8551509099
 30
0.0
 10
-68.9213889615
 20
-23.8282576665
 30
0.0
 10
-68.9354725679
 20
-23.8037090364
 30
0.0
 10
-68.9477881568
 20
-23.7820484392
 30
0.0
 10
-68.9584853135
 20
-23.7635803272
 30
0.0
 10
-68.966237701
 20
-23.7490563599
 30
0.0
 10
-68.9736660836
 20
-23.7378314049
 30
0.0
 10
-68.9748431269
 20
-23.7320978265
 30
0.0
 10
-68.9790002814
 20
-23.7282547644
 30
0.0
 10
-68.9782666747
 20
-23.7278312164
 30
0.0
 11
-68.8545756657
 21
-23.9443375673
 31
0.0
 11
-68.8723218675
 21
-23.9135764002
 31
0.0
 11
-68.8896814504
 21
-23.8834393596
 31
0.0
 11
-68.9063021982
 21
-23.854537909
 31
0.0
 11
-68.9218468854
 21
-23.8274584424
 31
0.0
 11
-68.9360001192
 21
-23.8027503867
 31
0.0
 11
-68.9484747385
 21
-23.7809150543
 31
0.0
 11
-68.9590176403
 21
-23.7623954716
 31
0.0
 11
-68.9674149153
 21
-23.7475673906
 31
0.0
 11
-68.9734961874
 21
-23.7367316644
 31
0.0
 11
-68.9771380711
 21
-23.7301081438
 31
0.0
 11
-68.9782666747
 21
-23.7278312164
 31
0.0
  0
SPLINE
  5
711
100
AcDbEntity
  8
PORTATASTO
100
AcDbSpline
 62
253
  6
CONTINUOUS
 70
0
 71
3
 72
18
 73
14
 74
12
 42
0.0000001
 43
0.0000001
 44
0.0000000001
 12
-0.2159476287
 22
-0.1246772436
 32
0.0
 13
0.1246748135
 23
-0.2159490317
 33
0.0
 40
0.0
 40
0.0
 40
0.0
 40
0.0
 40
0.0101914202
 40
0.0405044625
 40
0.0903352187
 40
0.1586743352
 40
0.2441358709
 40
0.3449861831
 40
0.4591792777
 40
0.5843983549
 40
0.7181028449
 40
0.8575800117
 40
1.0
 40
1.0
 40
1.0
 40
1.0
 10
-68.2282666747
 20
-23.2948185145
 30
0.0
 10
-68.229000279
 20
-23.2952420605
 30
0.0
 10
-68.2248431386
 20
-23.2990851111
 30
0.0
 10
-68.2236660993
 20
-23.3048186707
 30
0.0
 10
-68.2162377366
 20
-23.3160435964
 30
0.0
 10
-68.2084853659
 20
-23.3305675329
 30
0.0
 10
-68.197788224
 20
-23.3490356194
 30
0.0
 10
-68.1854726427
 20
-23.3706962038
 30
0.0
 10
-68.1713890341
 20
-23.3952448381
 30
0.0
 10
-68.1559562452
 20
-23.4221381014
 30
0.0
 10
-68.1394450561
 20
-23.4508445758
 30
0.0
 10
-68.1222032022
 20
-23.4807774338
 30
0.0
 10
-68.1104943942
 20
-23.5010730459
 30
0.0
 10
-68.1045756657
 20
-23.5113248654
 30
0.0
 11
-68.2282666747
 21
-23.2948185145
 31
0.0
 11
-68.2271380753
 21
-23.2970954341
 31
0.0
 11
-68.2234962039
 21
-23.3037189329
 31
0.0
 11
-68.2174149495
 21
-23.314554628
 31
0.0
 11
-68.2090176938
 21
-23.3293826755
 31
0.0
 11
-68.1984748082
 21
-23.3479022301
 31
0.0
 11
-68.1860001977
 21
-23.3697375476
 31
0.0
 11
-68.1718469615
 21
-23.3944456078
 31
0.0
 11
-68.1563022614
 21
-23.4215250971
 31
0.0
 11
-68.1396814949
 21
-23.4504265804
 31
0.0
 11
-68.1223218905
 21
-23.4805636584
 31
0.0
 11
-68.1045756657
 21
-23.5113248654
 31
0.0
  0
SPLINE
  5
712
100
AcDbEntity
  8
PORTATASTO
100
AcDbSpline
 62
253
  6
CONTINUOUS
 70
0
 71
3
 72
18
 73
14
 74
12
 42
0.0000001
 43
0.0000001
 44
0.0000000001
 12
-0.1246748135
 22
-0.2159490317
 32
0.0
 13
0.2159476274
 23
-0.1246772439
 33
0.0
 40
0.0
 40
0.0
 40
0.0
 40
0.0
 40
0.1424199883
 40
0.2818971551
 40
0.415601645
 40
0.5408207221
 40
0.6550138165
 40
0.7558641287
 40
0.8413256644
 40
0.909664781
 40
0.9594955374
 40
0.9898085797
 40
1.0
 40
1.0
 40
1.0
 40
1.0
 10
-68.1045756657
 20
23.5113248654
 30
0.0
 10
-68.1104943942
 20
23.5010730459
 30
0.0
 10
-68.1222032021
 20
23.4807774338
 30
0.0
 10
-68.1394450561
 20
23.4508445758
 30
0.0
 10
-68.1559562451
 20
23.4221381014
 30
0.0
 10
-68.1713890341
 20
23.3952448381
 30
0.0
 10
-68.1854726427
 20
23.3706962039
 30
0.0
 10
-68.197788224
 20
23.3490356195
 30
0.0
 10
-68.2084853658
 20
23.330567533
 30
0.0
 10
-68.2162377366
 20
23.3160435964
 30
0.0
 10
-68.2236660992
 20
23.3048186707
 30
0.0
 10
-68.2248431386
 20
23.2990851111
 30
0.0
 10
-68.229000279
 20
23.2952420605
 30
0.0
 10
-68.2282666747
 20
23.2948185145
 30
0.0
 11
-68.1045756657
 21
23.5113248654
 31
0.0
 11
-68.1223218905
 21
23.4805636584
 31
0.0
 11
-68.1396814949
 21
23.4504265804
 31
0.0
 11
-68.1563022614
 21
23.4215250971
 31
0.0
 11
-68.1718469615
 21
23.3944456079
 31
0.0
 11
-68.1860001976
 21
23.3697375477
 31
0.0
 11
-68.1984748082
 21
23.3479022302
 31
0.0
 11
-68.2090176938
 21
23.3293826756
 31
0.0
 11
-68.2174149495
 21
23.314554628
 31
0.0
 11
-68.2234962039
 21
23.3037189329
 31
0.0
 11
-68.2271380753
 21
23.2970954341
 31
0.0
 11
-68.2282666747
 21
23.2948185145
 31
0.0
  0
SPLINE
  5
713
100
AcDbEntity
  8
PORTATASTO
100
AcDbSpline
 62
253
  6
CONTINUOUS
 70
0
 71
3
 72
18
 73
14
 74
12
 42
0.0000001
 43
0.0000001
 44
0.0000000001
 12
-0.2159475515
 22
0.124677377
 32
0.0
 13
0.1246748134
 23
0.2159490316
 33
0.0
 40
0.0
 40
0.0
 40
0.0
 40
0.0
 40
0.0101929118
 40
0.040510362
 40
0.0903488744
 40
0.1586985277
 40
0.2441728972
 40
0.345037767
 40
0.4592457078
 40
0.5844798716
 40
0.7181908024
 40
0.8576727369
 40
1.0
 40
1.0
 40
1.0
 40
1.0
 10
-68.9782666747
 20
23.7278312164
 30
0.0
 10
-68.9790003861
 20
23.7282548249
 30
0.0
 10
-68.9748426161
 20
23.7320984219
 30
0.0
 10
-68.9736654016
 20
23.7378328537
 30
0.0
 10
-68.966235879
 20
23.7490594865
 30
0.0
 10
-68.9584823182
 20
23.7635856383
 30
0.0
 10
-68.9477835697
 20
23.7820564683
 30
0.0
 10
-68.9354662458
 20
23.8037200905
 30
0.0
 10
-68.921380783
 20
23.8282719272
 30
0.0
 10
-68.9059464764
 20
23.8551678046
 30
0.0
 10
-68.8894341845
 20
23.883876166
 30
0.0
 10
-68.8721956994
 20
23.9138031454
 30
0.0
 10
-68.8604905407
 20
23.9340924224
 30
0.0
 10
-68.8545756657
 20
23.9443375673
 30
0.0
 11
-68.9782666747
 21
23.7278312164
 31
0.0
 11
-68.9771378996
 21
23.7301084639
 31
0.0
 11
-68.9734954881
 21
23.7367329201
 31
0.0
 11
-68.9674132763
 21
23.7475702957
 31
0.0
 11
-68.9590147145
 21
23.7624006231
 31
0.0
 11
-68.9484702338
 21
23.780922952
 31
0.0
 11
-68.9359938102
 21
23.8027614143
 31
0.0
 11
-68.9218387211
 21
23.8274726794
 31
0.0
 11
-68.9062921348
 21
23.8545554235
 31
0.0
 11
-68.8896705541
 21
23.8834582912
 31
0.0
 11
-68.8723103431
 21
23.9135963917
 31
0.0
 11
-68.8545756657
 21
23.9443375673
 31
0.0
  0
SPLINE
  5
714
100
AcDbEntity
  8
PORTATASTO
100
AcDbSpline
 62
7
  6
CONTINUOUS
 70
0
 71
3
 72
20
 73
16
 74
14
 42
0.0000001
 43
0.0000001
 44
0.0000000001
 12
0.0
 22
-0.5000660232
 32
0.0
 13
0.1185618325
 23
-0.4885802824
 33
0.0
 40
0.0
 40
0.0
 40
0.0
 40
0.0
 40
0.120013053
 40
0.2386452224
 40
0.3539005988
 40
0.4642715845
 40
0.567645501
 40
0.6629086717
 40
0.7482722116
 40
0.822887334
 40
0.8853376493
 40
0.9349651843
 40
0.9708548472
 40
0.9925932729
 40
1.0
 40
1.0
 40
1.0
 40
1.0
 10
-66.6032666747
 20
-21.850016923
 30
0.0
 10
-66.6032666747
 20
-21.8700217397
 30
0.0
 10
-66.6023822293
 20
-21.9097964444
 30
0.0
 10
-66.6026378384
 20
-21.9687897223
 30
0.0
 10
-66.6028855005
 20
-22.0261725668
 30
0.0
 10
-66.6033159837
 20
-22.0810117535
 30
0.0
 10
-66.6037516027
 20
-22.1325179365
 30
0.0
 10
-66.6041563782
 20
-22.1798561224
 30
0.0
 10
-66.6044760029
 20
-22.2224001781
 30
0.0
 10
-66.604704406
 20
-22.2594779287
 30
0.0
 10
-66.6047482449
 20
-22.2905919324
 30
0.0
 10
-66.6047854686
 20
-22.3152712251
 30
0.0
 10
-66.604332283
 20
-22.3331148393
 30
0.0
 10
-66.6044051246
 20
-22.3440113076
 30
0.0
 10
-66.6035593931
 20
-22.3487937397
 30
0.0
 10
-66.6032666747
 20
-22.35
 30
0.0
 11
-66.6032666747
 21
-21.850016923
 31
0.0
 11
-66.6026443804
 21
-21.9100281468
 31
0.0
 11
-66.6026401056
 21
-21.9693520638
 31
0.0
 11
-66.6029236949
 21
-22.0269866638
 31
0.0
 11
-66.6033309109
 21
-22.0821779415
 31
0.0
 11
-66.6037638721
 21
-22.1338699116
 31
0.0
 11
-66.6041617948
 21
-22.1815061246
 31
0.0
 11
-66.6044791964
 21
-22.2241923505
 31
0.0
 11
-66.6046847259
 21
-22.2615042719
 31
0.0
 11
-66.6047518387
 21
-22.2927334807
 31
0.0
 11
-66.6046599914
 21
-22.3175503547
 31
0.0
 11
-66.6043919654
 21
-22.3354955542
 31
0.0
 11
-66.6039325203
 21
-22.3463564888
 31
0.0
 11
-66.6032666747
 21
-22.35
 31
0.0
  0
SPLINE
  5
715
100
AcDbEntity
  8
PORTATASTO
100
AcDbSpline
 62
7
  6
CONTINUOUS
 70
0
 71
3
 72
20
 73
16
 74
14
 42
0.0000001
 43
0.0000001
 44
0.0000000001
 12
0.0
 22
0.5003117728
 32
0.0
 13
0.1185846698
 23
0.4888280836
 33
0.0
 40
0.0
 40
0.0
 40
0.0
 40
0.0
 40
0.1204141932
 40
0.238987392
 40
0.3542153939
 40
0.4645180709
 40
0.5678334664
 40
0.6630545512
 40
0.7483766938
 40
0.8229547175
 40
0.8853861454
 40
0.9349997949
 40
0.970859407
 40
0.9925918845
 40
1.0
 40
1.0
 40
1.0
 40
1.0
 10
-66.6032666747
 20
21.8497711479
 30
0.0
 10
-66.6032666747
 20
21.8698526941
 30
0.0
 10
-66.6023835895
 20
21.9097040362
 30
0.0
 10
-66.6026373756
 20
21.9687787876
 30
0.0
 10
-66.6028855504
 20
22.0261640457
 30
0.0
 10
-66.6033158983
 20
22.081004465
 30
0.0
 10
-66.603751521
 20
22.1325077912
 30
0.0
 10
-66.6041562897
 20
22.1798455591
 30
0.0
 10
-66.6044759376
 20
22.2223904143
 30
0.0
 10
-66.6047043664
 20
22.2594701428
 30
0.0
 10
-66.60474826
 20
22.2905877917
 30
0.0
 10
-66.6047854504
 20
22.3152687152
 30
0.0
 10
-66.6043324588
 20
22.3331128382
 30
0.0
 10
-66.6044051711
 20
22.3440088061
 30
0.0
 10
-66.6035595043
 20
22.3487929017
 30
0.0
 10
-66.6032666747
 20
22.35
 30
0.0
 11
-66.6032666747
 21
21.8497711479
 31
0.0
 11
-66.6026444417
 21
21.9100125729
 31
0.0
 11
-66.6026400578
 21
21.9693361401
 31
0.0
 11
-66.6029236865
 21
22.0269853683
 31
0.0
 11
-66.6033308435
 21
22.0821695942
 31
0.0
 11
-66.603763768
 21
22.1338576898
 31
0.0
 11
-66.6041617155
 21
22.1814962575
 31
0.0
 11
-66.6044791327
 21
22.2241827498
 31
0.0
 11
-66.6046846859
 21
22.2614944468
 31
0.0
 11
-66.60475184
 21
22.292729553
 31
0.0
 11
-66.6046599805
 21
22.317551676
 31
0.0
 11
-66.6043920878
 21
22.3354906619
 31
0.0
 11
-66.6039327146
 21
22.3463539679
 31
0.0
 11
-66.6032666747
 21
22.35
 31
0.0
  0
SPLINE
  5
716
100
AcDbEntity
  8
PORTATASTO
100
AcDbSpline
 62
7
  6
CONTINUOUS
 70
0
 71
3
 72
10
 73
6
 74
4
 42
0.0000001
 43
0.0000001
 44
0.0000000001
 12
-7.1137194909
 22
0.0400111989
 32
0.0
 13
-7.1136506578
 23
0.0507957657
 33
0.0
 40
0.0
 40
0.0
 40
0.0
 40
0.0
 40
0.3396594066
 40
0.6730056873
 40
1.0
 40
1.0
 40
1.0
 40
1.0
 10
-59.1032666747
 20
-23.4906890903
 30
0.0
 10
-59.9086805885
 20
-23.4861590303
 30
0.0
 10
-61.5045366336
 20
-23.4768497923
 30
0.0
 10
-63.8757669533
 20
-23.4619035403
 30
0.0
 10
-65.4415811821
 20
-23.4512037372
 30
0.0
 10
-66.216955618
 20
-23.4456670951
 30
0.0
 11
-59.1032666747
 21
-23.4906890903
 31
0.0
 11
-61.5195053921
 21
-23.4765715157
 31
0.0
 11
-63.8908275543
 21
-23.4615970436
 31
0.0
 11
-66.216955618
 21
-23.4456670951
 31
0.0
  0
SPLINE
  5
717
100
AcDbEntity
  8
PORTATASTO
100
AcDbSpline
 62
7
  6
CONTINUOUS
 70
0
 71
3
 72
10
 73
6
 74
4
 42
0.0000001
 43
0.0000001
 44
0.0000000001
 12
7.1136506578
 22
0.0507957657
 32
0.0
 13
7.1137194909
 23
0.0400111989
 33
0.0
 40
0.0
 40
0.0
 40
0.0
 40
0.0
 40
0.3269942247
 40
0.6603405691
 40
1.0
 40
1.0
 40
1.0
 40
1.0
 10
-66.216955618
 20
23.4456670951
 30
0.0
 10
-65.4415813909
 20
23.4512037357
 30
0.0
 10
-63.8757672196
 20
23.4619035386
 30
0.0
 10
-61.5045368998
 20
23.4768497907
 30
0.0
 10
-59.908680646
 20
23.4861590299
 30
0.0
 10
-59.1032666747
 20
23.4906890903
 30
0.0
 11
-66.216955618
 21
23.4456670951
 31
0.0
 11
-63.8908281805
 21
23.4615970395
 31
0.0
 11
-61.5195055646
 21
23.4765715147
 31
0.0
 11
-59.1032666747
 21
23.4906890903
 31
0.0
  0
SPLINE
  5
718
100
AcDbEntity
  8
ASSI
100
AcDbSpline
 62
253
  6
CONTINUOUS
 70
0
 71
3
 72
11
 73
7
 74
5
 42
0.0000001
 43
0.0000001
 44
0.0000000001
 12
0.0029940421
 22
-0.2928698207
 32
0.0
 13
-0.2928405174
 23
-0.005111511
 33
0.0
 40
0.0
 40
0.0
 40
0.0
 40
0.0
 40
0.4245043662
 40
0.7399520789
 40
0.9342395734
 40
1.0
 40
1.0
 40
1.0
 40
1.0
 10
-34.0858142683
 20
-18.874467277
 30
0.0
 10
-34.085390607
 20
-18.9159087829
 30
0.0
 10
-34.0870384558
 20
-18.9855611698
 30
0.0
 10
-34.0793687642
 20
-19.0848834379
 30
0.0
 10
-34.0923404202
 20
-19.12666385
 30
0.0
 10
-34.0793951625
 20
-19.1672038418
 30
0.0
 10
-34.0858142683
 20
-19.1673158868
 30
0.0
 11
-34.0858142683
 21
-18.874467277
 31
0.0
 11
-34.0847396667
 21
-18.9987936472
 31
0.0
 11
-34.0843768197
 21
-19.0911828773
 31
0.0
 11
-34.0847396667
 21
-19.1480856375
 31
0.0
 11
-34.0858142683
 21
-19.1673158868
 31
0.0
  0
SPLINE
  5
719
100
AcDbEntity
  8
ASSI
100
AcDbSpline
 62
253
  6
CONTINUOUS
 70
0
 71
3
 72
13
 73
9
 74
7
 42
0.0000001
 43
0.0000001
 44
0.0000000001
 12
-0.1565050194
 22
-1.2650190291
 32
0.0
 13
-1.2684118645
 23
-0.0156554937
 33
0.0
 40
0.0
 40
0.0
 40
0.0
 40
0.0
 40
0.097065939
 40
0.2509481908
 40
0.4189966524
 40
0.6021400651
 40
0.7975720145
 40
1.0
 40
1.0
 40
1.0
 40
1.0
 10
-33.1070609114
 20
-18.2189894885
 30
0.0
 10
-33.1121246803
 20
-18.2599195751
 30
0.0
 10
-33.1380723788
 20
-18.3645764886
 30
0.0
 10
-33.2304373234
 20
-18.5191937484
 30
0.0
 10
-33.3900672411
 20
-18.6648685092
 30
0.0
 10
-33.5949128397
 20
-18.7760038712
 30
0.0
 10
-33.8317663804
 20
-18.846684303
 30
0.0
 10
-34.0002269154
 20
-18.8639958654
 30
0.0
 10
-34.0858142683
 20
-18.8650522354
 30
0.0
 11
-33.1070609114
 21
-18.2189894885
 31
0.0
 11
-33.136592062
 21
-18.339078277
 31
0.0
 11
-33.2343470611
 21
-18.508037939
 31
0.0
 11
-33.3900162255
 21
-18.6536708438
 31
0.0
 11
-33.5932240849
 21
-18.7662704453
 31
0.0
 11
-33.830426678
 21
-18.8383318929
 31
0.0
 11
-34.0858142683
 21
-18.8650522354
 31
0.0
  0
SPLINE
  5
71A
100
AcDbEntity
  8
ASSI
100
AcDbSpline
 62
253
  6
CONTINUOUS
 70
0
 71
3
 72
13
 73
9
 74
7
 42
0.0000001
 43
0.0000001
 44
0.0000000001
 12
0.0
 22
-1.3294461743
 32
0.0
 13
-1.3293449222
 23
-0.0164075657
 33
0.0
 40
0.0
 40
0.0
 40
0.0
 40
0.0
 40
0.1384690448
 40
0.2853155788
 40
0.4456941123
 40
0.620472345
 40
0.8069775867
 40
1.0
 40
1.0
 40
1.0
 40
1.0
 10
-33.1032666747
 20
-18.1674681916
 30
0.0
 10
-33.1032666747
 20
-18.2288305723
 30
0.0
 10
-33.1274881171
 20
-18.3562857752
 30
0.0
 10
-33.2304680118
 20
-18.5286505075
 30
0.0
 10
-33.3901374691
 20
-18.6743362939
 30
0.0
 10
-33.5950316374
 20
-18.7854701746
 30
0.0
 10
-33.8318657998
 20
-18.8561143753
 30
0.0
 10
-34.0002831466
 20
-18.8734116003
 30
0.0
 10
-34.0858142683
 20
-18.8744672762
 30
0.0
 11
-33.1032666747
 21
-18.1674681916
 31
0.0
 11
-33.1365992212
 21
-18.3485124324
 31
0.0
 11
-33.2343748362
 21
-18.5174874575
 31
0.0
 11
-33.3900878957
 21
-18.6631374509
 31
0.0
 11
-33.5933418736
 21
-18.7757348672
 31
0.0
 11
-33.8305928209
 21
-18.8477802412
 31
0.0
 11
-34.0858142683
 21
-18.8744672762
 31
0.0
  0
SPLINE
  5
71B
100
AcDbEntity
  8
CURVE
100
AcDbSpline
 62
253
  6
CONTINUOUS
 70
0
 71
3
 72
12
 73
8
 74
6
 42
0.0000001
 43
0.0000001
 44
0.0000000001
 12
-2.4846839272
 22
0.5294159701
 32
0.0
 13
0.1411347893
 23
2.53727548
 33
0.0
 40
0.0
 40
0.0
 40
0.0
 40
0.0
 40
0.2
 40
0.4
 40
0.6
 40
0.8
 40
1.0
 40
1.0
 40
1.0
 40
1.0
 10
-49.0310506802
 20
-10.8253922241
 30
0.0
 10
-49.1966962753
 20
-10.7900978261
 30
0.0
 10
-49.5197931081
 20
-10.6716830295
 30
0.0
 10
-49.9340785458
 20
-10.366312956
 30
0.0
 10
-50.2468811037
 20
-9.9569897998
 30
0.0
 10
-50.432778443
 20
-9.4769803986
 30
0.0
 10
-50.4622470032
 20
-9.1340396987
 30
0.0
 10
-50.4528380173
 20
-8.964888
 30
0.0
 11
-49.0310506802
 21
-10.8253922241
 31
0.0
 11
-49.5080664728
 21
-10.6503917164
 31
0.0
 11
-49.9171647325
 21
-10.3489874422
 31
0.0
 11
-50.2257302339
 21
-9.945208759
 31
0.0
 11
-50.4091626932
 21
-9.4712467905
 31
0.0
 11
-50.4528380173
 21
-8.964888
 31
0.0
  0
SPLINE
  5
71C
100
AcDbEntity
  8
CURVE
100
AcDbSpline
 62
253
  6
CONTINUOUS
 70
0
 71
3
 72
12
 73
8
 74
6
 42
0.0000001
 43
0.0000001
 44
0.0000000001
 12
0.1411387897
 22
-2.5372726921
 32
0.0
 13
-2.4846810741
 23
-0.5294170747
 33
0.0
 40
0.0
 40
0.0
 40
0.0
 40
0.0
 40
0.2
 40
0.4
 40
0.6
 40
0.8
 40
1.0
 40
1.0
 40
1.0
 40
1.0
 10
-46.8594960365
 20
-8.9648852338
 30
0.0
 10
-46.8500867839
 20
-9.1340367466
 30
0.0
 10
-46.8795547883
 20
-9.4769771536
 30
0.0
 10
-47.0654513003
 20
-9.9569863288
 30
0.0
 10
-47.3782530797
 20
-10.3663094387
 30
0.0
 10
-47.7925378166
 20
-10.6716796043
 30
0.0
 10
-48.1156342412
 20
-10.7900945284
 30
0.0
 10
-48.2812796461
 20
-10.825389
 30
0.0
 11
-46.8594960365
 21
-8.9648852338
 31
0.0
 11
-46.9031705392
 21
-9.4712435811
 31
0.0
 11
-47.0866021782
 21
-9.9452053179
 31
0.0
 11
-47.3951669059
 21
-10.348983948
 31
0.0
 11
-47.8042644666
 21
-10.6503883077
 31
0.0
 11
-48.2812796461
 21
-10.825389
 31
0.0
  0
SPLINE
  5
71D
100
AcDbEntity
  8
CURVE
100
AcDbSpline
 62
253
  6
CONTINUOUS
 70
0
 71
3
 72
21
 73
17
 74
15
 42
0.0000001
 43
0.0000001
 44
0.0000000001
 12
0.3167208511
 22
-5.6939111026
 32
0.0
 13
-0.1254183564
 23
5.7130625324
 33
0.0
 40
0.0
 40
0.0
 40
0.0
 40
0.0
 40
0.0731707317
 40
0.1463414634
 40
0.2195121951
 40
0.2926829268
 40
0.3658536585
 40
0.4390243902
 40
0.512195122
 40
0.5853658537
 40
0.6585365854
 40
0.7317073171
 40
0.8048780488
 40
0.8780487805
 40
0.9512195122
 40
1.0
 40
1.0
 40
1.0
 40
1.0
 10
-46.859492829
 20
-13.3499981109
 30
0.0
 10
-46.8517679302
 20
-13.4888739915
 30
0.0
 10
-46.8687332494
 20
-13.7695091742
 30
0.0
 10
-46.9902846281
 20
-14.172434448
 30
0.0
 10
-47.2013468433
 20
-14.5367660108
 30
0.0
 10
-47.4905937139
 20
-14.8426336566
 30
0.0
 10
-47.8424769158
 20
-15.0736782453
 30
0.0
 10
-48.2380875811
 20
-15.2174626183
 30
0.0
 10
-48.6561654823
 20
-15.2662655842
 30
0.0
 10
-49.0742433804
 20
-15.2174625924
 30
0.0
 10
-49.4698540368
 20
-15.0736781951
 30
0.0
 10
-49.8217372245
 20
-14.8426335846
 30
0.0
 10
-50.1109840762
 20
-14.5367659209
 30
0.0
 10
-50.3220462689
 20
-14.1724343451
 30
0.0
 10
-50.4300919168
 20
-13.8142785396
 30
0.0
 10
-50.4531281314
 20
-13.5820850988
 30
0.0
 10
-50.4551674543
 20
-13.4891897731
 30
0.0
 11
-46.859492829
 21
-13.3499981109
 31
0.0
 11
-46.8847504827
 21
-13.7665045908
 31
0.0
 11
-47.0052031008
 21
-14.1660021628
 31
0.0
 11
-47.2143776192
 21
-14.5270220246
 31
0.0
 11
-47.5010331024
 21
-14.8301631471
 31
0.0
 11
-47.8497648264
 21
-15.059134876
 31
0.0
 11
-48.2418321204
 21
-15.2016323837
 31
0.0
 11
-48.6561654818
 21
-15.2499979246
 31
0.0
 11
-49.0704988401
 21
-15.2016323582
 31
0.0
 11
-49.4625661253
 21
-15.0591348262
 31
0.0
 11
-49.8112978352
 21
-14.8301630758
 31
0.0
 11
-50.0979532997
 21
-14.5270219356
 31
0.0
 11
-50.3071277958
 21
-14.1660020609
 31
0.0
 11
-50.4275803893
 21
-13.7665044815
 31
0.0
 11
-50.4551674543
 21
-13.4891897731
 31
0.0
  0
SPLINE
  5
71E
100
AcDbEntity
  8
CURVE
100
AcDbSpline
 62
253
  6
CONTINUOUS
 70
0
 71
3
 72
11
 73
7
 74
5
 42
0.0000001
 43
0.0000001
 44
0.0000000001
 12
0.7373377137
 22
0.0113808125
 32
0.0
 13
0.0164643223
 23
-0.7373539953
 33
0.0
 40
0.0
 40
0.0
 40
0.0
 40
0.0
 40
0.2491315025
 40
0.4973515609
 40
0.7462289133
 40
1.0
 40
1.0
 40
1.0
 40
1.0
 10
-61.1725777132
 20
-5.4627200261
 30
0.0
 10
-61.1113463624
 20
-5.4617749198
 30
0.0
 10
-60.9868922905
 20
-5.4732383197
 30
0.0
 10
-60.8232568876
 20
-5.5749993121
 30
0.0
 10
-60.7380029651
 20
-5.746549742
 30
0.0
 10
-60.7235028069
 20
-5.8705216342
 30
0.0
 10
-60.7221100839
 20
-5.9328946758
 30
0.0
 11
-61.1725777132
 21
-5.4627200261
 31
0.0
 11
-60.990526652
 21
-5.4874007505
 31
0.0
 11
-60.8365073978
 21
-5.5863253894
 31
0.0
 11
-60.7489950671
 21
-5.7476704692
 31
0.0
 11
-60.7221100839
 21
-5.9328946758
 31
0.0
  0
SPLINE
  5
71F
100
AcDbEntity
  8
CURVE
100
AcDbSpline
 62
253
  6
CONTINUOUS
 70
0
 71
3
 72
9
 73
5
 74
3
 42
0.0000001
 43
0.0000001
 44
0.0000000001
 12
0.0616043735
 22
0.5307774627
 32
0.0
 13
0.5341948855
 23
0.0083576149
 33
0.0
 40
0.0
 40
0.0
 40
0.0
 40
0.0
 40
0.5000882298
 40
1.0
 40
1.0
 40
1.0
 40
1.0
 10
-61.5349429779
 20
-5.804625691
 30
0.0
 10
-61.5246737705
 20
-5.7161471704
 30
0.0
 10
-61.4468221905
 20
-5.5367587789
 30
0.0
 10
-61.2615944835
 20
-5.4641127161
 30
0.0
 10
-61.1725777132
 20
-5.4627200261
 30
0.0
 11
-61.5349429779
 21
-5.804625691
 31
0.0
 11
-61.4199549465
 21
-5.5634221249
 31
0.0
 11
-61.1725777132
 21
-5.4627200261
 31
0.0
  0
SPLINE
  5
720
100
AcDbEntity
  8
CURVE
100
AcDbSpline
 62
253
  6
CONTINUOUS
 70
0
 71
3
 72
9
 73
5
 74
3
 42
0.0000001
 43
0.0000001
 44
0.0000000001
 12
-0.0800078963
 22
0.4690276623
 32
0.0
 13
0.054842989
 23
0.4726325126
 33
0.0
 40
0.0
 40
0.0
 40
0.0
 40
0.0
 40
0.4997637338
 40
1.0
 40
1.0
 40
1.0
 40
1.0
 10
-61.5178789867
 20
-6.2788012718
 30
0.0
 10
-61.531207335
 20
-6.2006669333
 30
0.0
 10
-61.5505899449
 20
-6.0427263562
 30
0.0
 10
-61.5440877952
 20
-5.8834349988
 30
0.0
 10
-61.5349429779
 20
-5.804625691
 30
0.0
 11
-61.5178789867
 21
-6.2788012718
 31
0.0
 11
-61.5441157103
 21
-6.0424636122
 31
0.0
 11
-61.5349429779
 21
-5.804625691
 31
0.0
  0
SPLINE
  5
721
100
AcDbEntity
  8
CURVE
100
AcDbSpline
 62
253
  6
CONTINUOUS
 70
0
 71
3
 72
11
 73
7
 74
5
 42
0.0000001
 43
0.0000001
 44
0.0000000001
 12
-0.5116812263
 22
-1.4167437705
 32
0.0
 13
0.2191822581
 23
-1.4903036133
 33
0.0
 40
0.0
 40
0.0
 40
0.0
 40
0.0
 40
0.249614251
 40
0.499888924
 40
0.7499637517
 40
1.0
 40
1.0
 40
1.0
 40
1.0
 10
-61.9473263874
 20
-5.3678501192
 30
0.0
 10
-61.9899006961
 20
-5.485729931
 30
0.0
 10
-62.0373763895
 20
-5.735014474
 30
0.0
 10
-62.0517831507
 20
-6.1116431473
 30
0.0
 10
-62.0286274769
 20
-6.4882750285
 30
0.0
 10
-61.9961137699
 20
-6.7373573696
 30
0.0
 10
-61.9778459334
 20
-6.8615673444
 30
0.0
 11
-61.9473263874
 21
-5.3678501192
 31
0.0
 11
-62.0278704548
 21
-5.7351233729
 31
0.0
 11
-62.045519073
 21
-6.1117086883
 31
0.0
 11
-62.0243553527
 21
-6.487811254
 31
0.0
 11
-61.9778459334
 21
-6.8615673444
 31
0.0
  0
SPLINE
  5
722
100
AcDbEntity
  8
CURVE
100
AcDbSpline
 62
253
  6
CONTINUOUS
 70
0
 71
3
 72
18
 73
14
 74
12
 42
0.0000001
 43
0.0000001
 44
0.0000000001
 12
-0.2311001381
 22
1.7915717583
 32
0.0
 13
-0.6128270121
 23
-1.6992591149
 33
0.0
 40
0.0
 40
0.0
 40
0.0
 40
0.0
 40
0.0626155709
 40
0.1255750725
 40
0.1873779143
 40
0.2500548274
 40
0.3131302752
 40
0.3757850613
 40
0.5005898481
 40
0.6254073429
 40
0.7503252015
 40
0.8752611255
 40
1.0
 40
1.0
 40
1.0
 40
1.0
 10
-60.48319247
 20
-5.30544429
 30
0.0
 10
-60.488015959
 20
-5.2680508605
 30
0.0
 10
-60.5409883867
 20
-5.205742357
 30
0.0
 10
-60.6130096881
 20
-5.1219941374
 30
0.0
 10
-60.6989589579
 20
-5.0470552444
 30
0.0
 10
-60.7953774356
 20
-4.9877497308
 30
0.0
 10
-60.8997566286
 20
-4.9423237958
 30
0.0
 10
-61.0454191989
 20
-4.9015430794
 30
0.0
 10
-61.2348155726
 20
-4.887359708
 30
0.0
 10
-61.4599858635
 20
-4.9207057947
 30
0.0
 10
-61.6685374495
 20
-5.0158512686
 30
0.0
 10
-61.8386257665
 20
-5.1675562972
 30
0.0
 10
-61.9218452702
 20
-5.2971955627
 30
0.0
 10
-61.9473263874
 20
-5.3678501192
 30
0.0
 11
-60.48319247
 21
-5.30544429
 31
0.0
 11
-60.5396732624
 21
-5.2074502929
 31
0.0
 11
-60.6158111083
 21
-5.1229750287
 31
0.0
 11
-60.7002622441
 21
-5.0499699399
 31
0.0
 11
-60.7964198774
 21
-4.9902217399
 31
0.0
 11
-60.9008566199
 21
-4.9447010075
 31
0.0
 11
-61.0098103335
 21
-4.914117073
 31
0.0
 11
-61.2344765429
 21
-4.8957499389
 31
0.0
 11
-61.4571453446
 21
-4.9309846614
 31
0.0
 11
-61.6621218551
 21
-5.0252799698
 31
0.0
 11
-61.8311662496
 21
-5.1747784359
 31
0.0
 11
-61.9473263874
 21
-5.3678501192
 31
0.0
  0
SPLINE
  5
723
100
AcDbEntity
  8
CURVE
100
AcDbSpline
 62
253
  6
CONTINUOUS
 70
0
 71
3
 72
11
 73
7
 74
5
 42
0.0000001
 43
0.0000001
 44
0.0000000001
 12
-0.6648989534
 22
-0.181193689
 32
0.0
 13
-0.2552161048
 23
-0.6402353954
 33
0.0
 40
0.0
 40
0.0
 40
0.0
 40
0.0
 40
0.2450440156
 40
0.5033055314
 40
0.7579591626
 40
1.0
 40
1.0
 40
1.0
 40
1.0
 10
-59.8975171654
 20
-4.9565587397
 30
0.0
 10
-59.9518270019
 20
-4.9713588828
 30
0.0
 10
-60.0637884199
 20
-5.0005213919
 30
0.0
 10
-60.2261963478
 20
-5.0651610171
 30
0.0
 10
-60.3738331315
 20
-5.159157879
 30
0.0
 10
-60.4454723595
 20
-5.2537899196
 30
0.0
 10
-60.4660632661
 20
-5.30544429
 30
0.0
 11
-59.8975171654
 21
-4.9565587397
 31
0.0
 11
-60.0598719894
 21
-5.0030172293
 31
0.0
 11
-60.2245359603
 21
-5.0705695192
 31
0.0
 11
-60.3695986755
 21
-5.169347468
 31
0.0
 11
-60.4660632661
 21
-5.30544429
 31
0.0
  0
SPLINE
  5
724
100
AcDbEntity
  8
CURVE
100
AcDbSpline
 62
253
  6
CONTINUOUS
 70
0
 71
3
 72
8
 73
4
 74
2
 42
0.0000001
 43
0.0000001
 44
0.0000000001
 12
-0.7830184647
 22
-0.212730392
 32
0.0
 13
-0.7828503484
 23
-0.2133484193
 33
0.0
 40
0.0
 40
0.0
 40
0.0
 40
0.0
 40
1.0
 40
1.0
 40
1.0
 40
1.0
 10
-59.1129431103
 20
-4.7496410148
 30
0.0
 10
-59.3739492652
 20
-4.8205511455
 30
0.0
 10
-59.6365670493
 20
-4.8854426
 30
0.0
 10
-59.8975171654
 20
-4.9565587397
 30
0.0
 11
-59.1129431103
 21
-4.7496410148
 31
0.0
 11
-59.8975171654
 21
-4.9565587397
 31
0.0
  0
SPLINE
  5
725
100
AcDbEntity
  8
CURVE
100
AcDbSpline
 62
253
  6
CONTINUOUS
 70
0
 71
3
 72
9
 73
5
 74
3
 42
0.0000001
 43
0.0000001
 44
0.0000000001
 12
0.8593546271
 22
0.3229459945
 32
0.0
 13
0.8822654545
 23
0.2537321442
 33
0.0
 40
0.0
 40
0.0
 40
0.0
 40
0.0
 40
0.499968398
 40
1.0
 40
1.0
 40
1.0
 40
1.0
 10
-59.9919451624
 20
-5.5965120355
 30
0.0
 10
-59.8487284437
 20
-5.542691105
 30
0.0
 10
-59.5531077398
 20
-5.4614309255
 30
0.0
 10
-59.2599966465
 20
-5.3741331019
 30
0.0
 10
-59.1129431103
 20
-5.3318417383
 30
0.0
 11
-59.9919451624
 21
-5.5965120355
 31
0.0
 11
-59.5537537476
 21
-5.4599268412
 31
0.0
 11
-59.1129431103
 21
-5.3318417383
 31
0.0
  0
SPLINE
  5
726
100
AcDbEntity
  8
CURVE
100
AcDbSpline
 62
253
  6
CONTINUOUS
 70
0
 71
3
 72
11
 73
7
 74
5
 42
0.0000001
 43
0.0000001
 44
0.0000000001
 12
0.0
 22
0.4505958664
 32
0.0
 13
0.421793933
 23
0.1583423737
 33
0.0
 40
0.0
 40
0.0
 40
0.0
 40
0.0
 40
0.2477795725
 40
0.4960551195
 40
0.7486644071
 40
1.0
 40
1.0
 40
1.0
 40
1.0
 10
-60.2473615907
 20
-5.9341993273
 30
0.0
 10
-60.2473615907
 20
-5.8969831769
 30
0.0
 10
-60.2364733694
 20
-5.8216580962
 30
0.0
 10
-60.1807670106
 20
-5.7211454858
 30
0.0
 10
-60.0951070421
 20
-5.6450913069
 30
0.0
 10
-60.0272824385
 20
-5.609777727
 30
0.0
 10
-59.9919451624
 20
-5.5965120355
 30
0.0
 11
-60.2473615907
 21
-5.9341993273
 31
0.0
 11
-60.2299917398
 21
-5.8239107377
 31
0.0
 11
-60.1762323335
 21
-5.7258068357
 31
0.0
 11
-60.0923394673
 21
-5.648891914
 31
0.0
 11
-59.9919451624
 21
-5.5965120355
 31
0.0
  0
SPLINE
  5
727
100
AcDbEntity
  8
CURVE
100
AcDbSpline
 62
253
  6
CONTINUOUS
 70
0
 71
3
 72
13
 73
9
 74
7
 42
0.0000001
 43
0.0000001
 44
0.0000000001
 12
0.6830460881
 22
0.0
 32
0.0
 13
0.0852923267
 23
-0.6778031497
 33
0.0
 40
0.0
 40
0.0
 40
0.0
 40
0.0
 40
0.2490801906
 40
0.3745290044
 40
0.5000465587
 40
0.6245839973
 40
0.7501008193
 40
1.0
 40
1.0
 40
1.0
 40
1.0
 10
-61.1127114569
 20
4.1187598859
 30
0.0
 10
-61.0560003736
 20
4.1187598859
 30
0.0
 10
-60.9689291008
 20
4.110949299
 30
0.0
 10
-60.8644127425
 20
4.0639042122
 30
0.0
 10
-60.7946184848
 20
4.0123287258
 30
0.0
 10
-60.747354749
 20
3.9389346122
 30
0.0
 10
-60.7149703661
 20
3.8288650197
 30
0.0
 10
-60.7102544241
 20
3.7430729482
 30
0.0
 10
-60.7031495966
 20
3.6866121309
 30
0.0
 11
-61.1127114569
 21
4.1187598859
 31
0.0
 11
-60.9440746445
 21
4.0962409458
 31
0.0
 11
-60.8658784655
 21
4.0611974199
 31
0.0
 11
-60.7982180836
 21
4.0085354483
 31
0.0
 11
-60.7512658519
 21
3.9375915065
 31
0.0
 11
-60.7252183415
 21
3.8558979327
 31
0.0
 11
-60.7031495966
 21
3.6866121309
 31
0.0
  0
SPLINE
  5
728
100
AcDbEntity
  8
CURVE
100
AcDbSpline
 62
253
  6
CONTINUOUS
 70
0
 71
3
 72
13
 73
9
 74
7
 42
0.0000001
 43
0.0000001
 44
0.0000000001
 12
0.0852923267
 22
0.6778031497
 32
0.0
 13
0.6830460881
 23
0.0
 33
0.0
 40
0.0
 40
0.0
 40
0.0
 40
0.0
 40
0.2498991807
 40
0.3754160027
 40
0.4999534413
 40
0.6254709956
 40
0.7509198094
 40
1.0
 40
1.0
 40
1.0
 40
1.0
 10
-61.5222733172
 20
3.6866121309
 30
0.0
 10
-61.5151684896
 20
3.7430729482
 30
0.0
 10
-61.5104525476
 20
3.8288650197
 30
0.0
 10
-61.4780681648
 20
3.9389346122
 30
0.0
 10
-61.4308044289
 20
4.0123287258
 30
0.0
 10
-61.3610101712
 20
4.0639042122
 30
0.0
 10
-61.2564938129
 20
4.110949299
 30
0.0
 10
-61.1694225401
 20
4.1187598859
 30
0.0
 10
-61.1127114569
 20
4.1187598859
 30
0.0
 11
-61.5222733172
 21
3.6866121309
 31
0.0
 11
-61.5002045723
 21
3.8558979327
 31
0.0
 11
-61.4741570618
 21
3.9375915065
 31
0.0
 11
-61.4272048301
 21
4.0085354483
 31
0.0
 11
-61.3595444483
 21
4.0611974199
 31
0.0
 11
-61.2813482692
 21
4.0962409458
 31
0.0
 11
-61.1127114569
 21
4.1187598859
 31
0.0
  0
SPLINE
  5
729
100
AcDbEntity
  8
CURVE
100
AcDbSpline
 62
253
  6
CONTINUOUS
 70
0
 71
3
 72
15
 73
11
 74
9
 42
0.0000001
 43
0.0000001
 44
0.0000000001
 12
-1.7069126765
 22
0.0
 32
0.0
 13
-0.0632100266
 23
-1.7060017172
 33
0.0
 40
0.0
 40
0.0
 40
0.0
 40
0.0
 40
0.1248401019
 40
0.2498663855
 40
0.374885782
 40
0.5000299202
 40
0.6250550432
 40
0.7501198193
 40
0.875035251
 40
1.0
 40
1.0
 40
1.0
 40
1.0
 10
-61.1127114569
 20
4.7815268003
 30
0.0
 10
-61.183741841
 20
4.7815268003
 30
0.0
 10
-61.3263406566
 20
4.7716793234
 30
0.0
 10
-61.5334584082
 20
4.7119708447
 30
0.0
 10
-61.7157540933
 20
4.5935070156
 30
0.0
 10
-61.8484499902
 20
4.4217447249
 30
0.0
 10
-61.930585799
 20
4.22298974
 30
0.0
 10
-61.9784438781
 20
4.0142899176
 30
0.0
 10
-61.9983681369
 20
3.801448305
 30
0.0
 10
-62.0014264503
 20
3.6592834163
 30
0.0
 10
-62.0040594586
 20
3.5882200575
 30
0.0
 11
-61.1127114569
 21
4.7815268003
 31
0.0
 11
-61.3250980817
 21
4.7642105591
 31
0.0
 11
-61.5292983235
 21
4.7021878845
 31
0.0
 11
-61.7074339421
 21
4.584670781
 31
0.0
 11
-61.8400542583
 21
4.4171904032
 31
0.0
 11
-61.9248723472
 21
4.2213330331
 31
0.0
 11
-61.9738027068
 21
4.0135100265
 31
0.0
 11
-61.9958114975
 21
3.8013969153
 31
0.0
 11
-62.0040594586
 21
3.5882200575
 31
0.0
  0
SPLINE
  5
72A
100
AcDbEntity
  8
CURVE
100
AcDbSpline
 62
253
  6
CONTINUOUS
 70
0
 71
3
 72
15
 73
11
 74
9
 42
0.0000001
 43
0.0000001
 44
0.0000000001
 12
-0.0632100266
 22
1.7060017172
 32
0.0
 13
-1.7069126765
 23
-0.0
 33
0.0
 40
0.0
 40
0.0
 40
0.0
 40
0.0
 40
0.124964749
 40
0.2498801807
 40
0.3749449568
 40
0.4999700798
 40
0.625114218
 40
0.7501336145
 40
0.8751598981
 40
1.0
 40
1.0
 40
1.0
 40
1.0
 10
-60.2213634551
 20
3.5882200575
 30
0.0
 10
-60.2239964635
 20
3.6592834163
 30
0.0
 10
-60.2270547768
 20
3.801448305
 30
0.0
 10
-60.2469790356
 20
4.0142899176
 30
0.0
 10
-60.2948371147
 20
4.22298974
 30
0.0
 10
-60.3769729235
 20
4.4217447249
 30
0.0
 10
-60.5096688204
 20
4.5935070156
 30
0.0
 10
-60.6919645056
 20
4.7119708447
 30
0.0
 10
-60.8990822571
 20
4.7716793234
 30
0.0
 10
-61.0416810727
 20
4.7815268003
 30
0.0
 10
-61.1127114569
 20
4.7815268003
 30
0.0
 11
-60.2213634551
 21
3.5882200575
 31
0.0
 11
-60.2296114162
 21
3.8013969153
 31
0.0
 11
-60.2516202069
 21
4.0135100265
 31
0.0
 11
-60.3005505665
 21
4.2213330331
 31
0.0
 11
-60.3853686555
 21
4.4171904032
 31
0.0
 11
-60.5179889716
 21
4.584670781
 31
0.0
 11
-60.6961245902
 21
4.7021878845
 31
0.0
 11
-60.900324832
 21
4.7642105591
 31
0.0
 11
-61.1127114569
 21
4.7815268003
 31
0.0
  0
SPLINE
  5
72B
100
AcDbEntity
  8
CURVE
100
AcDbSpline
 62
253
  6
CONTINUOUS
 70
0
 71
3
 72
8
 73
4
 74
2
 42
0.0000001
 43
0.0000001
 44
0.0000000001
 12
-0.0030589843
 22
0.1393429886
 32
0.0
 13
0.0077249074
 23
0.1388758801
 33
0.0
 40
0.0
 40
0.0
 40
0.0
 40
0.0
 40
1.0
 40
1.0
 40
1.0
 40
1.0
 10
-50.4551674543
 20
-13.4891897731
 30
0.0
 10
-50.4561871157
 20
-13.4427421103
 30
0.0
 10
-50.4554129864
 20
-13.39628996
 30
0.0
 10
-50.4528380173
 20
-13.349998
 30
0.0
 11
-50.4551674543
 21
-13.4891897731
 31
0.0
 11
-50.4528380173
 21
-13.349998
 31
0.0
  0
SPLINE
  5
72C
100
AcDbEntity
  8
CORPO
100
AcDbSpline
 62
253
  6
CONTINUOUS
 70
0
 71
3
 72
13
 73
9
 74
7
 42
0.0000001
 43
0.0000001
 44
0.0000000001
 12
0.0
 22
-1.3294461743
 32
0.0
 13
-1.3293449222
 23
-0.0164075657
 33
0.0
 40
0.0
 40
0.0
 40
0.0
 40
0.0
 40
0.1384690448
 40
0.2853155788
 40
0.4456941123
 40
0.620472345
 40
0.8069775867
 40
1.0
 40
1.0
 40
1.0
 40
1.0
 10
-33.1032666747
 20
-18.1674681916
 30
0.0
 10
-33.1032666747
 20
-18.2288305723
 30
0.0
 10
-33.1274881171
 20
-18.3562857752
 30
0.0
 10
-33.2304680118
 20
-18.5286505075
 30
0.0
 10
-33.3901374691
 20
-18.6743362939
 30
0.0
 10
-33.5950316374
 20
-18.7854701746
 30
0.0
 10
-33.8318657998
 20
-18.8561143753
 30
0.0
 10
-34.0002831466
 20
-18.8734116003
 30
0.0
 10
-34.0858142683
 20
-18.8744672762
 30
0.0
 11
-33.1032666747
 21
-18.1674681916
 31
0.0
 11
-33.1365992212
 21
-18.3485124324
 31
0.0
 11
-33.2343748362
 21
-18.5174874575
 31
0.0
 11
-33.3900878957
 21
-18.6631374509
 31
0.0
 11
-33.5933418736
 21
-18.7757348672
 31
0.0
 11
-33.8305928209
 21
-18.8477802412
 31
0.0
 11
-34.0858142683
 21
-18.8744672762
 31
0.0
  0
SPLINE
  5
72D
100
AcDbEntity
  8
CORPO
100
AcDbSpline
 62
253
  6
CONTINUOUS
 70
0
 71
3
 72
13
 73
9
 74
7
 42
0.0000001
 43
0.0000001
 44
0.0000000001
 12
-0.1565050194
 22
-1.2650190291
 32
0.0
 13
-1.2684118645
 23
-0.0156554937
 33
0.0
 40
0.0
 40
0.0
 40
0.0
 40
0.0
 40
0.097065939
 40
0.2509481908
 40
0.4189966524
 40
0.6021400651
 40
0.7975720145
 40
1.0
 40
1.0
 40
1.0
 40
1.0
 10
-33.1070609114
 20
-18.2189894885
 30
0.0
 10
-33.1121246803
 20
-18.2599195751
 30
0.0
 10
-33.1380723788
 20
-18.3645764886
 30
0.0
 10
-33.2304373234
 20
-18.5191937484
 30
0.0
 10
-33.3900672411
 20
-18.6648685092
 30
0.0
 10
-33.5949128397
 20
-18.7760038712
 30
0.0
 10
-33.8317663804
 20
-18.846684303
 30
0.0
 10
-34.0002269154
 20
-18.8639958654
 30
0.0
 10
-34.0858142683
 20
-18.8650522354
 30
0.0
 11
-33.1070609114
 21
-18.2189894885
 31
0.0
 11
-33.136592062
 21
-18.339078277
 31
0.0
 11
-33.2343470611
 21
-18.508037939
 31
0.0
 11
-33.3900162255
 21
-18.6536708438
 31
0.0
 11
-33.5932240849
 21
-18.7662704453
 31
0.0
 11
-33.830426678
 21
-18.8383318929
 31
0.0
 11
-34.0858142683
 21
-18.8650522354
 31
0.0
  0
SPLINE
  5
72E
100
AcDbEntity
  8
CORPO
100
AcDbSpline
 62
253
  6
CONTINUOUS
 70
0
 71
3
 72
11
 73
7
 74
5
 42
0.0000001
 43
0.0000001
 44
0.0000000001
 12
0.0029940421
 22
-0.2928698207
 32
0.0
 13
-0.2928405174
 23
-0.005111511
 33
0.0
 40
0.0
 40
0.0
 40
0.0
 40
0.0
 40
0.4245043662
 40
0.7399520789
 40
0.9342395734
 40
1.0
 40
1.0
 40
1.0
 40
1.0
 10
-34.0858142683
 20
-18.874467277
 30
0.0
 10
-34.085390607
 20
-18.9159087829
 30
0.0
 10
-34.0870384558
 20
-18.9855611698
 30
0.0
 10
-34.0793687642
 20
-19.0848834379
 30
0.0
 10
-34.0923404202
 20
-19.12666385
 30
0.0
 10
-34.0793951625
 20
-19.1672038418
 30
0.0
 10
-34.0858142683
 20
-19.1673158868
 30
0.0
 11
-34.0858142683
 21
-18.874467277
 31
0.0
 11
-34.0847396667
 21
-18.9987936472
 31
0.0
 11
-34.0843768197
 21
-19.0911828773
 31
0.0
 11
-34.0847396667
 21
-19.1480856375
 31
0.0
 11
-34.0858142683
 21
-19.1673158868
 31
0.0
  0
ELLIPSE
  5
72F
100
AcDbEntity
  8
DRAFT
100
AcDbEllipse
 62
7
  6
CONTINUOUS
 10
2.1
 20
-12.4119841407
 30
0.0
 11
0.0
 21
3.9497105654
 31
0.0
 40
0.979895321
 41
-1.1224837646
 42
-1.1200243461
  0
ELLIPSE
  5
730
100
AcDbEntity
  8
DRAFT
100
AcDbEllipse
 62
7
  6
CONTINUOUS
 10
2.1
 20
-13.9880158593
 30
0.0
 11
-0.0
 21
3.9497105654
 31
0.0
 40
0.979895321
 41
-2.0314355491
 42
-2.019108889
  0
ELLIPSE
  5
731
100
AcDbEntity
  8
DRAFT
100
AcDbEllipse
 62
7
  6
CONTINUOUS
 10
-2.1
 20
-13.9880158593
 30
0.0
 11
-0.0
 21
3.9497105654
 31
0.0
 40
0.979895321
 41
-4.2640764182
 42
-4.2517497581
  0
ELLIPSE
  5
732
100
AcDbEntity
  8
DRAFT
100
AcDbEllipse
 62
7
  6
CONTINUOUS
 10
-2.1
 20
-12.4119841407
 30
0.0
 11
-0.0
 21
3.9497105654
 31
0.0
 40
0.979895321
 41
1.1200243461
 42
1.1224837646
  0
ELLIPSE
  5
733
100
AcDbEntity
  8
ASSI
100
AcDbEllipse
 62
7
  6
CONTINUOUS
 10
2.1
 20
-12.4119841407
 30
0.0
 11
0.0
 21
3.9497105654
 31
0.0
 40
0.979895321
 41
-1.1224837646
 42
-1.1200243461
  0
ELLIPSE
  5
734
100
AcDbEntity
  8
ASSI
100
AcDbEllipse
 62
7
  6
CONTINUOUS
 10
2.1
 20
-13.9880158593
 30
0.0
 11
-0.0
 21
3.9497105654
 31
0.0
 40
0.979895321
 41
-2.0314355491
 42
-2.019108889
  0
ELLIPSE
  5
735
100
AcDbEntity
  8
ASSI
100
AcDbEllipse
 62
7
  6
CONTINUOUS
 10
-2.1
 20
-13.9880158593
 30
0.0
 11
-0.0
 21
3.9497105654
 31
0.0
 40
0.979895321
 41
-4.2640764182
 42
-4.2517497581
  0
ELLIPSE
  5
736
100
AcDbEntity
  8
ASSI
100
AcDbEllipse
 62
7
  6
CONTINUOUS
 10
-2.1
 20
-12.4119841407
 30
0.0
 11
-0.0
 21
3.9497105654
 31
0.0
 40
0.979895321
 41
1.1200243461
 42
1.1224837646
  0
ELLIPSE
  5
737
100
AcDbEntity
  8
CORPO
100
AcDbEllipse
 62
7
  6
CONTINUOUS
 10
20.3996953439
 20
17.6714466826
 30
0.0
 11
-1.8480888181
 21
-0.7655034529
 31
0.0
 40
0.9998215708
 41
2.7489566578
 42
2.8709991878
  0
ELLIPSE
  5
738
100
AcDbEntity
  8
CORPO
100
AcDbEllipse
 62
7
  6
CONTINUOUS
 10
20.3996953439
 20
-17.6714466826
 30
0.0
 11
1.8480888181
 21
-0.7655034529
 31
0.0
 40
0.9998215708
 41
0.2705934654
 42
0.3926359958
  0
ELLIPSE
  5
739
100
AcDbEntity
  8
CORPO
100
AcDbEllipse
 62
7
  6
CONTINUOUS
 10
-20.3996953439
 20
-17.6714466826
 30
0.0
 11
1.8480888181
 21
0.7655034529
 31
0.0
 40
0.9998215708
 41
2.7489566578
 42
2.8709991878
  0
ELLIPSE
  5
73A
100
AcDbEntity
  8
CORPO
100
AcDbEllipse
 62
7
  6
CONTINUOUS
 10
-20.3996953439
 20
17.6714466826
 30
0.0
 11
-1.8480888181
 21
0.7655034529
 31
0.0
 40
0.9998215708
 41
0.2705934654
 42
0.3926359958
  0
ELLIPSE
  5
73B
100
AcDbEntity
  8
ASSI
100
AcDbEllipse
 62
7
  6
CONTINUOUS
 10
-20.3996953439
 20
17.6714466826
 30
0.0
 11
-1.8480888181
 21
0.7655034529
 31
0.0
 40
0.9998215708
 41
0.2705934654
 42
0.3926359958
  0
ELLIPSE
  5
73C
100
AcDbEntity
  8
ASSI
100
AcDbEllipse
 62
7
  6
CONTINUOUS
 10
-20.3996953439
 20
-17.6714466826
 30
0.0
 11
1.8480888181
 21
0.7655034529
 31
0.0
 40
0.9998215708
 41
2.7489566578
 42
2.8709991878
  0
ELLIPSE
  5
73D
100
AcDbEntity
  8
ASSI
100
AcDbEllipse
 62
7
  6
CONTINUOUS
 10
20.3996953439
 20
-17.6714466826
 30
0.0
 11
1.8480888181
 21
-0.7655034529
 31
0.0
 40
0.9998215708
 41
0.2705934654
 42
0.3926359958
  0
ELLIPSE
  5
73E
100
AcDbEntity
  8
ASSI
100
AcDbEllipse
 62
7
  6
CONTINUOUS
 10
20.3996953439
 20
17.6714466826
 30
0.0
 11
-1.8480888181
 21
-0.7655034529
 31
0.0
 40
0.9998215708
 41
2.7489566578
 42
2.8709991878
  0
ELLIPSE
  5
73F
100
AcDbEntity
  8
ASSI
100
AcDbEllipse
 62
7
  6
CONTINUOUS
 10
21.6498286038
 20
21.599313827
 30
0.0
 11
0.2238673116
 21
0.4480418466
 31
0.0
 40
0.9982882662
 41
-1.1067376861
 42
0.4626886447
  0
ELLIPSE
  5
740
100
AcDbEntity
  8
ASSI
100
AcDbEllipse
 62
7
  6
CONTINUOUS
 10
-21.6498286038
 20
21.599313827
 30
0.0
 11
-0.2238673116
 21
0.4480418466
 31
0.0
 40
0.9982882662
 41
-0.4626886447
 42
1.1067376861
  0
ELLIPSE
  5
741
100
AcDbEntity
  8
ASSI
100
AcDbEllipse
 62
7
  6
CONTINUOUS
 10
21.6114745601
 20
-21.5225531047
 30
0.0
 11
0.4994885634
 21
0.0261749567
 31
0.0
 40
0.9978197385
 41
-1.6232661411
 42
-0.0538398104
  0
ELLIPSE
  5
742
100
AcDbEntity
  8
ASSI
100
AcDbEllipse
 62
7
  6
CONTINUOUS
 10
-21.6114745601
 20
-21.5225531047
 30
0.0
 11
0.4994885634
 21
-0.0261749567
 31
0.0
 40
0.9978197385
 41
-3.0877528432
 42
-1.5183265125
  0
ELLIPSE
  5
743
100
AcDbEntity
  8
RACCORDO
100
AcDbEllipse
 62
7
  6
CONTINUOUS
 10
21.6498286038
 20
21.599313827
 30
0.0
 11
0.2238673116
 21
0.4480418466
 31
0.0
 40
0.9982882662
 41
-1.1067376861
 42
0.4626886447
  0
ELLIPSE
  5
744
100
AcDbEntity
  8
RACCORDO
100
AcDbEllipse
 62
7
  6
CONTINUOUS
 10
-21.6498286038
 20
21.599313827
 30
0.0
 11
-0.2238673116
 21
0.4480418466
 31
0.0
 40
0.9982882662
 41
-0.4626886447
 42
1.1067376861
  0
ELLIPSE
  5
745
100
AcDbEntity
  8
RACCORDO
100
AcDbEllipse
 62
7
  6
CONTINUOUS
 10
21.6114745601
 20
-21.5225531047
 30
0.0
 11
0.4994885634
 21
0.0261749567
 31
0.0
 40
0.9978197385
 41
-1.6232661411
 42
-0.0538398104
  0
ELLIPSE
  5
746
100
AcDbEntity
  8
RACCORDO
100
AcDbEllipse
 62
7
  6
CONTINUOUS
 10
-21.6114745601
 20
-21.5225531047
 30
0.0
 11
0.4994885634
 21
-0.0261749567
 31
0.0
 40
0.9978197385
 41
-3.0877528432
 42
-1.5183265125
  0
ELLIPSE
  5
747
100
AcDbEntity
  8
PORTATASTO
100
AcDbEllipse
 62
7
  6
CONTINUOUS
 10
-19.800003427
 20
24.249996573
 30
0.0
 11
0.1767815418
 21
0.1767815417
 31
0.0
 40
0.9999725851
 41
0.5950227919
 42
0.7853844562
  0
ELLIPSE
  5
748
100
AcDbEntity
  8
PORTATASTO
100
AcDbEllipse
 62
7
  6
CONTINUOUS
 10
-19.800003427
 20
24.249996573
 30
0.0
 11
0.1767815417
 21
0.1767815418
 31
0.0
 40
0.9999725851
 41
-0.7853844562
 42
0.1666317352
  0
ELLIPSE
  5
749
100
AcDbEntity
  8
PORTATASTO
100
AcDbEllipse
 62
7
  6
CONTINUOUS
 10
-21.574996573
 20
24.249996573
 30
0.0
 11
0.1767815418
 21
-0.1767815417
 31
0.0
 40
0.9999725851
 41
-2.5465698627
 42
-2.3562081984
  0
ELLIPSE
  5
74A
100
AcDbEntity
  8
PORTATASTO
100
AcDbEllipse
 62
7
  6
CONTINUOUS
 10
-21.574996573
 20
24.249996573
 30
0.0
 11
-0.1767815418
 21
0.1767815417
 31
0.0
 40
0.9999725851
 41
0.1666317353
 42
0.5950227913
  0
ELLIPSE
  5
74B
100
AcDbEntity
  8
PORTATASTO
100
AcDbEllipse
 62
7
  6
CONTINUOUS
 10
-21.574996573
 20
24.249996573
 30
0.0
 11
0.1767815417
 21
-0.1767815418
 31
0.0
 40
0.9999725851
 41
2.974960912
 42
3.3082243892
  0
ELLIPSE
  5
74C
100
AcDbEntity
  8
PORTATASTO
100
AcDbEllipse
 62
7
  6
CONTINUOUS
 10
-21.574996573
 20
24.249996573
 30
0.0
 11
-0.1767815418
 21
0.1767815417
 31
0.0
 40
0.9999725851
 41
-0.7853844559
 42
-0.166631742
  0
ELLIPSE
  5
74D
100
AcDbEntity
  8
PORTATASTO
100
AcDbEllipse
 62
7
  6
CONTINUOUS
 10
-0.925003427
 20
24.249996573
 30
0.0
 11
0.1767815417
 21
0.1767815418
 31
0.0
 40
0.9999725851
 41
-0.785384456
 42
0.1666317357
  0
ELLIPSE
  5
74E
100
AcDbEntity
  8
PORTATASTO
100
AcDbEllipse
 62
7
  6
CONTINUOUS
 10
-2.699996573
 20
24.249996573
 30
0.0
 11
0.1767815418
 21
-0.1767815417
 31
0.0
 40
0.9999725851
 41
-2.5465698624
 42
-2.3562081981
  0
ELLIPSE
  5
74F
100
AcDbEntity
  8
PORTATASTO
100
AcDbEllipse
 62
7
  6
CONTINUOUS
 10
-2.699996573
 20
24.249996573
 30
0.0
 11
-0.1767815418
 21
0.1767815417
 31
0.0
 40
0.9999725851
 41
0.1666317351
 42
0.5950227912
  0
ELLIPSE
  5
750
100
AcDbEntity
  8
PORTATASTO
100
AcDbEllipse
 62
7
  6
CONTINUOUS
 10
-2.699996573
 20
24.249996573
 30
0.0
 11
0.1767815418
 21
-0.1767815418
 31
0.0
 40
0.9999725851
 41
2.9749609117
 42
3.308224389
  0
ELLIPSE
  5
751
100
AcDbEntity
  8
PORTATASTO
100
AcDbEllipse
 62
7
  6
CONTINUOUS
 10
-2.699996573
 20
24.249996573
 30
0.0
 11
-0.1767815417
 21
0.1767815418
 31
0.0
 40
0.9999725851
 41
-0.7853844556
 42
-0.1666317417
  0
ELLIPSE
  5
752
100
AcDbEntity
  8
PORTATASTO
100
AcDbEllipse
 62
7
  6
CONTINUOUS
 10
-19.800003427
 20
-24.249996573
 30
0.0
 11
0.1767815417
 21
-0.1767815418
 31
0.0
 40
0.9999725851
 41
-0.1666317417
 42
0.7853844559
  0
ELLIPSE
  5
753
100
AcDbEntity
  8
PORTATASTO
100
AcDbEllipse
 62
7
  6
CONTINUOUS
 10
-19.800003427
 20
-24.249996573
 30
0.0
 11
-0.1767815417
 21
0.1767815418
 31
0.0
 40
0.9999725851
 41
-3.926977109
 42
-3.3082243951
  0
ELLIPSE
  5
754
100
AcDbEntity
  8
PORTATASTO
100
AcDbEllipse
 62
7
  6
CONTINUOUS
 10
-21.574996573
 20
-24.249996573
 30
0.0
 11
0.1767815418
 21
0.1767815417
 31
0.0
 40
0.9999725851
 41
2.9749609119
 42
3.9269771093
  0
ELLIPSE
  5
755
100
AcDbEntity
  8
PORTATASTO
100
AcDbEllipse
 62
7
  6
CONTINUOUS
 10
-21.574996573
 20
-24.249996573
 30
0.0
 11
0.1767815417
 21
0.1767815418
 31
0.0
 40
0.9999725851
 41
-3.9269771095
 42
-3.3082243956
  0
ELLIPSE
  5
756
100
AcDbEntity
  8
PORTATASTO
100
AcDbEllipse
 62
7
  6
CONTINUOUS
 10
-0.925003427
 20
-24.249996573
 30
0.0
 11
0.1767815417
 21
-0.1767815418
 31
0.0
 40
0.9999725851
 41
-0.7853844557
 42
0.7853844557
  0
ELLIPSE
  5
757
100
AcDbEntity
  8
PORTATASTO
100
AcDbEllipse
 62
7
  6
CONTINUOUS
 10
-2.699996573
 20
-24.249996573
 30
0.0
 11
0.1767815418
 21
0.1767815417
 31
0.0
 40
0.9999725851
 41
-3.9269771093
 42
-2.3562081979
  0
ELLIPSE
  5
758
100
AcDbEntity
  8
PORTATASTO
100
AcDbEllipse
 62
7
  6
CONTINUOUS
 10
21.574996573
 20
-24.249996573
 30
0.0
 11
0.1767815418
 21
-0.1767815418
 31
0.0
 40
0.9999725851
 41
0.5950227915
 42
0.7853844557
  0
ELLIPSE
  5
759
100
AcDbEntity
  8
PORTATASTO
100
AcDbEllipse
 62
7
  6
CONTINUOUS
 10
21.574996573
 20
-24.249996573
 30
0.0
 11
-0.1767815417
 21
0.1767815418
 31
0.0
 40
0.9999725851
 41
-2.9749609179
 42
-2.5465698619
  0
ELLIPSE
  5
75A
100
AcDbEntity
  8
PORTATASTO
100
AcDbEllipse
 62
7
  6
CONTINUOUS
 10
21.574996573
 20
-24.249996573
 30
0.0
 11
0.1767815418
 21
-0.1767815417
 31
0.0
 40
0.9999725851
 41
-0.166631742
 42
0.1666317353
  0
ELLIPSE
  5
75B
100
AcDbEntity
  8
PORTATASTO
100
AcDbEllipse
 62
7
  6
CONTINUOUS
 10
21.574996573
 20
-24.249996573
 30
0.0
 11
-0.1767815417
 21
0.1767815418
 31
0.0
 40
0.9999725851
 41
-3.9269771092
 42
-3.3082243953
  0
ELLIPSE
  5
75C
100
AcDbEntity
  8
PORTATASTO
100
AcDbEllipse
 62
7
  6
CONTINUOUS
 10
19.800003427
 20
-24.249996573
 30
0.0
 11
0.1767815418
 21
0.1767815417
 31
0.0
 40
0.9999725851
 41
-2.546569862
 42
-2.3562081978
  0
ELLIPSE
  5
75D
100
AcDbEntity
  8
PORTATASTO
100
AcDbEllipse
 62
7
  6
CONTINUOUS
 10
19.800003427
 20
-24.249996573
 30
0.0
 11
0.1767815417
 21
0.1767815418
 31
0.0
 40
0.9999725851
 41
-2.9749609183
 42
-2.5465698622
  0
ELLIPSE
  5
75E
100
AcDbEntity
  8
PORTATASTO
100
AcDbEllipse
 62
7
  6
CONTINUOUS
 10
19.800003427
 20
-24.249996573
 30
0.0
 11
0.1767815418
 21
0.1767815417
 31
0.0
 40
0.9999725851
 41
2.9749609118
 42
3.3082243891
  0
ELLIPSE
  5
75F
100
AcDbEntity
  8
PORTATASTO
100
AcDbEllipse
 62
7
  6
CONTINUOUS
 10
19.800003427
 20
-24.249996573
 30
0.0
 11
0.1767815417
 21
0.1767815418
 31
0.0
 40
0.9999725851
 41
-3.9269771094
 42
-3.3082243955
  0
ELLIPSE
  5
760
100
AcDbEntity
  8
PORTATASTO
100
AcDbEllipse
 62
7
  6
CONTINUOUS
 10
2.699996573
 20
-24.249996573
 30
0.0
 11
0.1767815417
 21
-0.1767815418
 31
0.0
 40
0.9999725851
 41
-0.7853844557
 42
0.7853844557
  0
ELLIPSE
  5
761
100
AcDbEntity
  8
PORTATASTO
100
AcDbEllipse
 62
7
  6
CONTINUOUS
 10
0.925003427
 20
-24.249996573
 30
0.0
 11
0.1767815417
 21
0.1767815418
 31
0.0
 40
0.9999725851
 41
-3.9269771094
 42
-2.3562081978
  0
ELLIPSE
  5
762
100
AcDbEntity
  8
PORTATASTO
100
AcDbEllipse
 62
7
  6
CONTINUOUS
 10
19.800003427
 20
24.249996573
 30
0.0
 11
0.1767815418
 21
-0.1767815417
 31
0.0
 40
0.9999725851
 41
-2.5465698623
 42
-2.356208198
  0
ELLIPSE
  5
763
100
AcDbEntity
  8
PORTATASTO
100
AcDbEllipse
 62
7
  6
CONTINUOUS
 10
19.800003427
 20
24.249996573
 30
0.0
 11
-0.1767815417
 21
0.1767815418
 31
0.0
 40
0.9999725851
 41
0.1666317356
 42
0.5950227917
  0
ELLIPSE
  5
764
100
AcDbEntity
  8
PORTATASTO
100
AcDbEllipse
 62
7
  6
CONTINUOUS
 10
19.800003427
 20
24.249996573
 30
0.0
 11
0.1767815417
 21
-0.1767815418
 31
0.0
 40
0.9999725851
 41
2.3562081979
 42
3.3082243891
  0
ELLIPSE
  5
765
100
AcDbEntity
  8
PORTATASTO
100
AcDbEllipse
 62
7
  6
CONTINUOUS
 10
21.574996573
 20
24.249996573
 30
0.0
 11
0.1767815418
 21
0.1767815417
 31
0.0
 40
0.9999725851
 41
-0.7853844557
 42
0.7853844554
  0
ELLIPSE
  5
766
100
AcDbEntity
  8
PORTATASTO
100
AcDbEllipse
 62
7
  6
CONTINUOUS
 10
0.925003427
 20
24.249996573
 30
0.0
 11
0.1767815417
 21
-0.1767815418
 31
0.0
 40
0.9999725851
 41
-2.546569862
 42
-2.3562081977
  0
ELLIPSE
  5
767
100
AcDbEntity
  8
PORTATASTO
100
AcDbEllipse
 62
7
  6
CONTINUOUS
 10
0.925003427
 20
24.249996573
 30
0.0
 11
-0.1767815417
 21
0.1767815418
 31
0.0
 40
0.9999725851
 41
-0.1666317417
 42
0.5950227915
  0
ELLIPSE
  5
768
100
AcDbEntity
  8
PORTATASTO
100
AcDbEllipse
 62
7
  6
CONTINUOUS
 10
0.925003427
 20
24.249996573
 30
0.0
 11
0.1767815418
 21
-0.1767815417
 31
0.0
 40
0.9999725851
 41
2.3562081978
 42
2.9749609117
  0
ELLIPSE
  5
769
100
AcDbEntity
  8
PORTATASTO
100
AcDbEllipse
 62
7
  6
CONTINUOUS
 10
2.699996573
 20
24.249996573
 30
0.0
 11
0.1767815418
 21
0.1767815417
 31
0.0
 40
0.9999725851
 41
0.5950227919
 42
0.595022792
  0
ELLIPSE
  5
76A
100
AcDbEntity
  8
PORTATASTO
100
AcDbEllipse
 62
7
  6
CONTINUOUS
 10
2.699996573
 20
24.249996573
 30
0.0
 11
0.1767815417
 21
0.1767815418
 31
0.0
 40
0.9999725851
 41
-0.7853844559
 42
-0.166631742
  0
ELLIPSE
  5
76B
100
AcDbEntity
  8
PORTATASTO
100
AcDbEllipse
 62
7
  6
CONTINUOUS
 10
-15.1421390926
 20
23.7921459466
 30
0.0
 11
0.5
 21
0.0
 31
0.0
 40
0.0052360356
 41
-3.1363566658
 42
-2.4954709846
  0
ELLIPSE
  5
76C
100
AcDbEntity
  8
PORTATASTO
100
AcDbEllipse
 62
7
  6
CONTINUOUS
 10
-7.3578609074
 20
23.7921459466
 30
0.0
 11
0.5
 21
0.0
 31
0.0
 40
0.0052360356
 41
-0.646121669
 42
-0.0052359878
  0
ELLIPSE
  5
76D
100
AcDbEntity
  8
PORTATASTO
100
AcDbEllipse
 62
7
  6
CONTINUOUS
 10
15.1421390926
 20
22.3237961104
 30
0.0
 11
0.5
 21
0.0
 31
0.0
 40
0.0524077793
 41
-1.5707963268
 42
-0.0052359878
  0
ELLIPSE
  5
76E
100
AcDbEntity
  8
PORTATASTO
100
AcDbEllipse
 62
7
  6
CONTINUOUS
 10
7.3578609074
 20
22.3237961104
 30
0.0
 11
0.5
 21
0.0
 31
0.0
 40
0.0524077793
 41
-3.1363566658
 42
-1.5707963268
  0
ELLIPSE
  5
76F
100
AcDbEntity
  8
PORTATASTO
100
AcDbEllipse
 62
7
  6
CONTINUOUS
 10
-15.1421390926
 20
-23.7921459466
 30
0.0
 11
0.5
 21
-0.0
 31
0.0
 40
0.0052360356
 41
2.4954709846
 42
3.1363566658
  0
ELLIPSE
  5
770
100
AcDbEntity
  8
PORTATASTO
100
AcDbEllipse
 62
7
  6
CONTINUOUS
 10
-7.3578609074
 20
-23.7921459466
 30
0.0
 11
0.5
 21
0.0
 31
0.0
 40
0.0052360356
 41
0.0052359878
 42
0.646121669
  0
ELLIPSE
  5
771
100
AcDbEntity
  8
PORTATASTO
100
AcDbEllipse
 62
7
  6
CONTINUOUS
 10
7.3578609074
 20
-22.3237961104
 30
0.0
 11
0.5
 21
-0.0
 31
0.0
 40
0.0524077793
 41
1.5707963268
 42
3.1363566658
  0
ELLIPSE
  5
772
100
AcDbEntity
  8
PORTATASTO
100
AcDbEllipse
 62
7
  6
CONTINUOUS
 10
15.1421390926
 20
-22.3237961104
 30
0.0
 11
0.5
 21
-0.0
 31
0.0
 40
0.0524077793
 41
0.0052359878
 42
1.5707963268
  0
ELLIPSE
  5
773
100
AcDbEntity
  8
PORTATASTO
100
AcDbEllipse
 62
7
  6
CONTINUOUS
 10
15.1421390926
 20
23.7921459466
 30
0.0
 11
0.5
 21
0.0
 31
0.0
 40
0.0052360356
 41
-0.646121669
 42
-0.0052359878
  0
ELLIPSE
  5
774
100
AcDbEntity
  8
PORTATASTO
100
AcDbEllipse
 62
7
  6
CONTINUOUS
 10
7.3578609074
 20
23.7921459466
 30
0.0
 11
0.5
 21
0.0
 31
0.0
 40
0.0052360356
 41
-3.1363566658
 42
-2.4954709846
  0
ELLIPSE
  5
775
100
AcDbEntity
  8
PORTATASTO
100
AcDbEllipse
 62
7
  6
CONTINUOUS
 10
-15.1421390926
 20
-22.3237961104
 30
0.0
 11
0.5
 21
0.0
 31
0.0
 40
0.0524077793
 41
1.5707963268
 42
3.1363566658
  0
ELLIPSE
  5
776
100
AcDbEntity
  8
PORTATASTO
100
AcDbEllipse
 62
7
  6
CONTINUOUS
 10
-7.3578609074
 20
-22.3237961104
 30
0.0
 11
0.5
 21
0.0
 31
0.0
 40
0.0524077793
 41
0.0052359878
 42
1.5707963268
  0
ELLIPSE
  5
777
100
AcDbEntity
  8
PORTATASTO
100
AcDbEllipse
 62
7
  6
CONTINUOUS
 10
7.3578609074
 20
-23.7921459466
 30
0.0
 11
0.5
 21
0.0
 31
0.0
 40
0.0052360356
 41
2.4954709846
 42
3.1363566658
  0
ELLIPSE
  5
778
100
AcDbEntity
  8
PORTATASTO
100
AcDbEllipse
 62
7
  6
CONTINUOUS
 10
15.1421390926
 20
-23.7921459466
 30
0.0
 11
0.5
 21
-0.0
 31
0.0
 40
0.0052360356
 41
0.0052359878
 42
0.646121669
  0
ELLIPSE
  5
779
100
AcDbEntity
  8
PORTATASTO
100
AcDbEllipse
 62
7
  6
CONTINUOUS
 10
-15.1421390926
 20
22.3237961104
 30
0.0
 11
0.5
 21
0.0
 31
0.0
 40
0.0524077793
 41
-3.1363566658
 42
-1.5707963268
  0
ELLIPSE
  5
77A
100
AcDbEntity
  8
PORTATASTO
100
AcDbEllipse
 62
7
  6
CONTINUOUS
 10
-7.3578609074
 20
22.3237961104
 30
0.0
 11
0.5
 21
0.0
 31
0.0
 40
0.0524077793
 41
-1.5707963268
 42
-0.0052359878
  0
ELLIPSE
  5
77B
100
AcDbEntity
  8
PORTATASTO
100
AcDbEllipse
 62
7
  6
CONTINUOUS
 10
-21.8237412386
 20
21.7707021581
 30
0.0
 11
-0.1582391023
 21
0.4751033573
 31
0.0
 40
0.9984778551
 41
-0.3210503505
 42
1.2488325878
  0
ELLIPSE
  5
77C
100
AcDbEntity
  8
PORTATASTO
100
AcDbEllipse
 62
7
  6
CONTINUOUS
 10
-21.8237412386
 20
-21.7707021581
 30
0.0
 11
0.1582391023
 21
0.4751033573
 31
0.0
 40
0.9984778551
 41
1.8927600658
 42
3.4626430041
  0
ELLIPSE
  5
77D
100
AcDbEntity
  8
PORTATASTO
100
AcDbEllipse
 62
7
  6
CONTINUOUS
 10
21.8237412386
 20
21.7707021581
 30
0.0
 11
-0.1582391023
 21
-0.4751033573
 31
0.0
 40
0.9984778551
 41
1.8927600658
 42
3.4626430041
  0
ELLIPSE
  5
77E
100
AcDbEntity
  8
PORTATASTO
100
AcDbEllipse
 62
7
  6
CONTINUOUS
 10
21.8237412386
 20
-21.7707021581
 30
0.0
 11
-0.1582391023
 21
0.4751033573
 31
0.0
 40
0.9984778551
 41
-3.4626430041
 42
-1.8927600658
  0
ELLIPSE
  5
77F
100
AcDbEntity
  8
PORTATASTO
100
AcDbEllipse
 62
7
  6
CONTINUOUS
 10
-19.8117845071
 20
22.2844902759
 30
0.0
 11
0.25
 21
0.0
 31
0.0
 40
0.0524077793
 41
-1.5707963268
 42
-0.0052359878
  0
ELLIPSE
  5
780
100
AcDbEntity
  8
PORTATASTO
100
AcDbEllipse
 62
7
  6
CONTINUOUS
 10
-21.5632154929
 20
22.2844902759
 30
0.0
 11
0.25
 21
-0.0
 31
0.0
 40
0.0524077793
 41
-3.1363566658
 42
-1.5707963268
  0
ELLIPSE
  5
781
100
AcDbEntity
  8
PORTATASTO
100
AcDbEllipse
 62
7
  6
CONTINUOUS
 10
-2.6882154929
 20
22.2844902759
 30
0.0
 11
0.25
 21
-0.0
 31
0.0
 40
0.0524077793
 41
-3.1363566658
 42
-1.5707963268
  0
ELLIPSE
  5
782
100
AcDbEntity
  8
PORTATASTO
100
AcDbEllipse
 62
7
  6
CONTINUOUS
 10
-0.9367845071
 20
22.2844902759
 30
0.0
 11
0.25
 21
-0.0
 31
0.0
 40
0.0524077793
 41
-1.5707963268
 42
-0.0052359878
  0
ELLIPSE
  5
783
100
AcDbEntity
  8
PORTATASTO
100
AcDbEllipse
 62
7
  6
CONTINUOUS
 10
-19.8117845071
 20
-22.2844902759
 30
0.0
 11
0.25
 21
0.0
 31
0.0
 40
0.0524077793
 41
0.0052359878
 42
1.5707963268
  0
ELLIPSE
  5
784
100
AcDbEntity
  8
PORTATASTO
100
AcDbEllipse
 62
7
  6
CONTINUOUS
 10
-21.5632154929
 20
-22.2844902759
 30
0.0
 11
0.25
 21
-0.0
 31
0.0
 40
0.0524077793
 41
1.5707963268
 42
3.1363566658
  0
ELLIPSE
  5
785
100
AcDbEntity
  8
PORTATASTO
100
AcDbEllipse
 62
7
  6
CONTINUOUS
 10
-0.9367845071
 20
-22.2844902759
 30
0.0
 11
0.25
 21
-0.0
 31
0.0
 40
0.0524077793
 41
0.0052359878
 42
1.5707963268
  0
ELLIPSE
  5
786
100
AcDbEntity
  8
PORTATASTO
100
AcDbEllipse
 62
7
  6
CONTINUOUS
 10
-2.6882154929
 20
-22.2844902759
 30
0.0
 11
0.25
 21
0.0
 31
0.0
 40
0.0524077793
 41
1.5707963268
 42
3.1363566658
  0
ELLIPSE
  5
787
100
AcDbEntity
  8
PORTATASTO
100
AcDbEllipse
 62
7
  6
CONTINUOUS
 10
0.9367845071
 20
22.2844902759
 30
0.0
 11
0.25
 21
-0.0
 31
0.0
 40
0.0524077793
 41
-3.1363566658
 42
-1.5707963268
  0
ELLIPSE
  5
788
100
AcDbEntity
  8
PORTATASTO
100
AcDbEllipse
 62
7
  6
CONTINUOUS
 10
2.6882154929
 20
22.2844902759
 30
0.0
 11
0.25
 21
-0.0
 31
0.0
 40
0.0524077793
 41
-1.5707963268
 42
-0.0052359878
  0
ELLIPSE
  5
789
100
AcDbEntity
  8
PORTATASTO
100
AcDbEllipse
 62
7
  6
CONTINUOUS
 10
21.5632154929
 20
22.2844902759
 30
0.0
 11
0.25
 21
-0.0
 31
0.0
 40
0.0524077793
 41
-1.5707963268
 42
-0.0052359878
  0
ELLIPSE
  5
78A
100
AcDbEntity
  8
PORTATASTO
100
AcDbEllipse
 62
7
  6
CONTINUOUS
 10
19.8117845071
 20
22.2844902759
 30
0.0
 11
0.25
 21
-0.0
 31
0.0
 40
0.0524077793
 41
-3.1363566658
 42
-1.5707963268
  0
ELLIPSE
  5
78B
100
AcDbEntity
  8
PORTATASTO
100
AcDbEllipse
 62
7
  6
CONTINUOUS
 10
0.9367845071
 20
-22.2844902759
 30
0.0
 11
0.25
 21
-0.0
 31
0.0
 40
0.0524077793
 41
1.5707963268
 42
3.1363566658
  0
ELLIPSE
  5
78C
100
AcDbEntity
  8
PORTATASTO
100
AcDbEllipse
 62
7
  6
CONTINUOUS
 10
2.6882154929
 20
-22.2844902759
 30
0.0
 11
0.25
 21
-0.0
 31
0.0
 40
0.0524077793
 41
0.0052359878
 42
1.5707963268
  0
ELLIPSE
  5
78D
100
AcDbEntity
  8
PORTATASTO
100
AcDbEllipse
 62
7
  6
CONTINUOUS
 10
19.8117845071
 20
-22.2844902759
 30
0.0
 11
0.25
 21
0.0
 31
0.0
 40
0.0524077793
 41
1.5707963268
 42
3.1363566658
  0
ELLIPSE
  5
78E
100
AcDbEntity
  8
PORTATASTO
100
AcDbEllipse
 62
7
  6
CONTINUOUS
 10
21.5632154929
 20
-22.2844902759
 30
0.0
 11
0.25
 21
-0.0
 31
0.0
 40
0.0524077793
 41
0.0052359878
 42
1.5707963268
  0
ELLIPSE
  5
78F
100
AcDbEntity
  8
PORTATASTO
100
AcDbEllipse
 62
7
  6
CONTINUOUS
 10
-55.1032666747
 20
-21.9537669705
 30
0.0
 11
0.3546425507
 21
0.3568377408
 31
0.0
 40
0.9877342685
 41
-0.2093834035
 42
0.7710302454
  0
ELLIPSE
  5
790
100
AcDbEntity
  8
PORTATASTO
100
AcDbEllipse
 62
7
  6
CONTINUOUS
 10
-55.1032666747
 20
21.9537669705
 30
0.0
 11
-0.3546425507
 21
0.3568377408
 31
0.0
 40
0.9877342685
 41
-3.912622899
 42
-2.9322092501
  0
ELLIPSE
  5
791
100
AcDbEntity
  8
PORTATASTO
100
AcDbEllipse
 62
7
  6
CONTINUOUS
 10
10.7904078764
 20
-23.15
 30
0.0
 11
95.4920931889
 21
0.0
 31
0.0
 40
0.0052360356
 41
2.3919487288
 42
2.5157538818
  0
ELLIPSE
  5
792
100
AcDbEntity
  8
PORTATASTO
100
AcDbEllipse
 62
7
  6
CONTINUOUS
 10
10.7904078764
 20
23.15
 30
0.0
 11
95.4920931889
 21
0.0
 31
0.0
 40
0.0052360356
 41
-2.5157538818
 42
-2.3919487288
  0
ELLIPSE
  5
793
100
AcDbEntity
  8
CURVE
100
AcDbEllipse
 62
253
  6
CONTINUOUS
 10
-56.3557795132
 20
-12.839757
 30
0.0
 11
-0.0
 21
0.65
 31
0.0
 40
0.9996954135
 41
-1.5707963268
 42
1.5707963268
  0
ENDSEC
  0
SECTION
  2
OBJECTS
  0
DICTIONARY
  5
C
100
AcDbDictionary
280
0
281
1
  3
ACAD_GROUP
350
D
  3
ACAD_MLINESTYLE
350
17
  3
ACAD_LAYOUT
350
1A
  3
ACAD_PLOTSETTINGS
350
19
  3
ACAD_PLOTSTYLENAME
350
E
  0
DICTIONARY
  5
D
102
{ACAD_REACTORS
330
C
102
}
100
AcDbDictionary
280
0
281
1
  0
ACDBDICTIONARYWDFLT
  5
E
102
{ACAD_REACTORS
330
C
102
}
100
AcDbDictionary
281
1
  3
Normal
350
F
100
AcDbDictionaryWithDefault
340
F
  0
DICTIONARY
  5
17
102
{ACAD_REACTORS
330
C
102
}
100
AcDbDictionary
280
0
281
1
  3
Standard
350
18
  0
DICTIONARY
  5
19
102
{ACAD_REACTORS
330
C
102
}
100
AcDbDictionary
281
1
  0
DICTIONARY
  5
1A
102
{ACAD_REACTORS
330
C
102
}
100
AcDbDictionary
281
1
  3
Model
350
794
  3
Layout1
350
795
  0
ACDBPLACEHOLDER
  5
F
102
{ACAD_REACTORS
330
E
102
}
  0
MLINESTYLE
  5
18
102
{ACAD_REACTORS
330
17
102
}
100
AcDbMlineStyle
  2
STANDARD
 70
0
  3

 62
256
 51
90.0
 52
90.0
 71
2
 49
0.5
 62
256
  6
BYLAYER
 49
-0.5
 62
256
  6
BYLAYER
  0
LAYOUT
  5
794
102
{ACAD_REACTORS
330
1A
102
}
100
AcDbPlotSettings
  1

  2
none_device
  4
ISO_A4_(297.00_x_210.00_MM)
  6

 40
0.0
 41
0.0
 42
0.0
 43
0.0
 44
297.0
 45
210.0
 46
0.0
 47
0.0
 48
0.0
 49
0.0
140
0.0
141
0.0
142
1.0
143
1.0
 70
1024
 72
1
 73
0
 74
0
  7

 75
0
147
1.0
148
0.0
149
0.0
100
AcDbLayout
  1
Model
 70
0
 71
0
 10
0.0
 20
0.0
 11
297.0
 21
210.0
 12
0.0
 22
0.0
 32
0.0
 14
0.0
 24
0.0
 34
0.0
 15
0.0
 25
0.0
 35
0.0
146
0.0
 13
0.0
 23
0.0
 33
0.0
 16
1.0
 26
0.0
 36
0.0
 17
0.0
 27
1.0
 37
0.0
 76
0
330
224
345
0
346
0
  0
LAYOUT
  5
795
102
{ACAD_REACTORS
330
1A
102
}
100
AcDbPlotSettings
  1

  2
none_device
  4
ISO_A4_(297.00_x_210.00_MM)
  6

 40
0.0
 41
0.0
 42
0.0
 43
0.0
 44
297.0
 45
210.0
 46
0.0
 47
0.0
 48
0.0
 49
0.0
140
0.0
141
0.0
142
1.0
143
1.0
 70
0
 72
1
 73
0
 74
0
  7

 75
0
147
1.0
148
0.0
149
0.0
100
AcDbLayout
  1
Layout1
 70
0
 71
1
 10
0.0
 20
0.0
 11
297.0
 21
210.0
 12
0.0
 22
0.0
 32
0.0
 14
0.0
 24
0.0
 34
0.0
 15
0.0
 25
0.0
 35
0.0
146
0.0
 13
0.0
 23
0.0
 33
0.0
 16
1.0
 26
0.0
 36
0.0
 17
0.0
 27
1.0
 37
0.0
 76
0
330
225
345
0
346
0
  0
ENDSEC
  0
EOF
